  0
SECTION
  2
HEADER
  9
$ACADVER
  1
AC1021
  9
$ACADMAINTVER
 70
    50
  9
$DWGCODEPAGE
  3
ANSI_932
  9
$LASTSAVEDBY
  1
C2217U
  9
$CUSTOMPROPERTYTAG
  1
AmdtFileType
  9
$CUSTOMPROPERTY
  1
84
  9
$INSBASE
 10
0.0
 20
0.0
 30
0.0
  9
$EXTMIN
 10
2632.003196292734
 20
1538.583620859807
 30
-0.0015258207003583
  9
$EXTMAX
 10
3052.084377845842
 20
1835.622384695381
 30
0.0000000349246037
  9
$LIMMIN
 10
1700.85588156276
 20
1647.985052086429
  9
$LIMMAX
 10
1997.85588156276
 20
1857.985052086429
  9
$ORTHOMODE
 70
     0
  9
$REGENMODE
 70
     1
  9
$FILLMODE
 70
     1
  9
$QTEXTMODE
 70
     0
  9
$MIRRTEXT
 70
     0
  9
$LTSCALE
 40
1.0
  9
$ATTMODE
 70
     1
  9
$TEXTSIZE
 40
3.2
  9
$TRACEWID
 40
1.0
  9
$TEXTSTYLE
  7
STANDARD
  9
$CLAYER
  8
AM_0
  9
$CELTYPE
  6
ByLayer
  9
$CECOLOR
 62
   256
  9
$CELTSCALE
 40
1.0
  9
$DISPSILH
 70
     0
  9
$DIMSCALE
 40
1.0
  9
$DIMASZ
 40
1.0
  9
$DIMEXO
 40
1.0
  9
$DIMDLI
 40
10.0
  9
$DIMRND
 40
0.0
  9
$DIMDLE
 40
0.0
  9
$DIMEXE
 40
0.0
  9
$DIMTP
 40
0.1
  9
$DIMTM
 40
0.1
  9
$DIMTXT
 40
3.5
  9
$DIMCEN
 40
0.0
  9
$DIMTSZ
 40
0.0
  9
$DIMTOL
 70
     0
  9
$DIMLIM
 70
     0
  9
$DIMTIH
 70
     0
  9
$DIMTOH
 70
     0
  9
$DIMSE1
 70
     0
  9
$DIMSE2
 70
     0
  9
$DIMTAD
 70
     1
  9
$DIMZIN
 70
     8
  9
$DIMBLK
  1

  9
$DIMASO
 70
     1
  9
$DIMSHO
 70
     1
  9
$DIMPOST
  1

  9
$DIMAPOST
  1
"
  9
$DIMALT
 70
     0
  9
$DIMALTD
 70
     2
  9
$DIMALTF
 40
0.0393701
  9
$DIMLFAC
 40
1.0
  9
$DIMTOFL
 70
     1
  9
$DIMTVP
 40
0.0
  9
$DIMTIX
 70
     0
  9
$DIMSOXD
 70
     0
  9
$DIMSAH
 70
     0
  9
$DIMBLK1
  1

  9
$DIMBLK2
  1

  9
$DIMSTYLE
  2
SYS
  9
$DIMCLRD
 70
   256
  9
$DIMCLRE
 70
   256
  9
$DIMCLRT
 70
     7
  9
$DIMTFAC
 40
0.71
  9
$DIMGAP
 40
1.5
  9
$DIMJUST
 70
     0
  9
$DIMSD1
 70
     0
  9
$DIMSD2
 70
     0
  9
$DIMTOLJ
 70
     0
  9
$DIMTZIN
 70
     8
  9
$DIMALTZ
 70
     0
  9
$DIMALTTZ
 70
     0
  9
$DIMUPT
 70
     0
  9
$DIMDEC
 70
     2
  9
$DIMTDEC
 70
     2
  9
$DIMALTU
 70
     2
  9
$DIMALTTD
 70
     2
  9
$DIMTXSTY
  7
STANDARD
  9
$DIMAUNIT
 70
     0
  9
$DIMADEC
 70
     0
  9
$DIMALTRND
 40
0.0
  9
$DIMAZIN
 70
     2
  9
$DIMDSEP
 70
    46
  9
$DIMATFIT
 70
     3
  9
$DIMFRAC
 70
     0
  9
$DIMLDRBLK
  1

  9
$DIMLUNIT
 70
     2
  9
$DIMLWD
 70
    -1
  9
$DIMLWE
 70
    -1
  9
$DIMTMOVE
 70
     0
  9
$DIMFXL
 40
1.0
  9
$DIMFXLON
 70
     0
  9
$DIMJOGANG
 40
0.7853981633974483
  9
$DIMTFILL
 70
     0
  9
$DIMTFILLCLR
 70
     0
  9
$DIMARCSYM
 70
     1
  9
$DIMLTYPE
  6

  9
$DIMLTEX1
  6

  9
$DIMLTEX2
  6

  9
$LUNITS
 70
     2
  9
$LUPREC
 70
     2
  9
$SKETCHINC
 40
1.0
  9
$FILLETRAD
 40
0.0
  9
$AUNITS
 70
     0
  9
$AUPREC
 70
     0
  9
$MENU
  1
.
  9
$ELEVATION
 40
0.0
  9
$PELEVATION
 40
0.0
  9
$THICKNESS
 40
0.0
  9
$LIMCHECK
 70
     0
  9
$CHAMFERA
 40
0.0
  9
$CHAMFERB
 40
0.0
  9
$CHAMFERC
 40
20.0
  9
$CHAMFERD
 40
0.0
  9
$SKPOLY
 70
     0
  9
$TDCREATE
 40
2458331.857696759
  9
$TDUCREATE
 40
2458331.482703530
  9
$TDUPDATE
 40
2458472.401550926
  9
$TDUUPDATE
 40
2458472.026550926
  9
$TDINDWG
 40
0.0219299306
  9
$TDUSRTIMER
 40
0.0219298611
  9
$USRTIMER
 70
     1
  9
$ANGBASE
 50
0.0
  9
$ANGDIR
 70
     0
  9
$PDMODE
 70
     0
  9
$PDSIZE
 40
-3.0
  9
$PLINEWID
 40
0.0
  9
$SPLFRAME
 70
     0
  9
$SPLINETYPE
 70
     6
  9
$SPLINESEGS
 70
     8
  9
$HANDSEED
  5
C3B5
  9
$SURFTAB1
 70
     6
  9
$SURFTAB2
 70
     6
  9
$SURFTYPE
 70
     6
  9
$SURFU
 70
     6
  9
$SURFV
 70
     6
  9
$UCSBASE
  2

  9
$UCSNAME
  2

  9
$UCSORG
 10
0.0
 20
0.0
 30
0.0
  9
$UCSXDIR
 10
1.0
 20
0.0
 30
0.0
  9
$UCSYDIR
 10
0.0
 20
1.0
 30
0.0
  9
$UCSORTHOREF
  2

  9
$UCSORTHOVIEW
 70
     0
  9
$UCSORGTOP
 10
0.0
 20
0.0
 30
0.0
  9
$UCSORGBOTTOM
 10
0.0
 20
0.0
 30
0.0
  9
$UCSORGLEFT
 10
0.0
 20
0.0
 30
0.0
  9
$UCSORGRIGHT
 10
0.0
 20
0.0
 30
0.0
  9
$UCSORGFRONT
 10
0.0
 20
0.0
 30
0.0
  9
$UCSORGBACK
 10
0.0
 20
0.0
 30
0.0
  9
$PUCSBASE
  2

  9
$PUCSNAME
  2

  9
$PUCSORG
 10
0.0
 20
0.0
 30
0.0
  9
$PUCSXDIR
 10
1.0
 20
0.0
 30
0.0
  9
$PUCSYDIR
 10
0.0
 20
1.0
 30
0.0
  9
$PUCSORTHOREF
  2

  9
$PUCSORTHOVIEW
 70
     0
  9
$PUCSORGTOP
 10
0.0
 20
0.0
 30
0.0
  9
$PUCSORGBOTTOM
 10
0.0
 20
0.0
 30
0.0
  9
$PUCSORGLEFT
 10
0.0
 20
0.0
 30
0.0
  9
$PUCSORGRIGHT
 10
0.0
 20
0.0
 30
0.0
  9
$PUCSORGFRONT
 10
0.0
 20
0.0
 30
0.0
  9
$PUCSORGBACK
 10
0.0
 20
0.0
 30
0.0
  9
$USERI1
 70
     0
  9
$USERI2
 70
     0
  9
$USERI3
 70
     0
  9
$USERI4
 70
     0
  9
$USERI5
 70
     0
  9
$USERR1
 40
0.0
  9
$USERR2
 40
0.0
  9
$USERR3
 40
0.0
  9
$USERR4
 40
0.0
  9
$USERR5
 40
0.0
  9
$WORLDVIEW
 70
     1
  9
$SHADEDGE
 70
     3
  9
$SHADEDIF
 70
    70
  9
$TILEMODE
 70
     1
  9
$MAXACTVP
 70
    64
  9
$PINSBASE
 10
0.0
 20
0.0
 30
0.0
  9
$PLIMCHECK
 70
     0
  9
$PEXTMIN
 10
1.000000000000000E+20
 20
1.000000000000000E+20
 30
1.000000000000000E+20
  9
$PEXTMAX
 10
-1.000000000000000E+20
 20
-1.000000000000000E+20
 30
-1.000000000000000E+20
  9
$PLIMMIN
 10
-3.17498779296875
 20
-3.174999952316283
  9
$PLIMMAX
 10
293.4970092773438
 20
206.692492723465
  9
$UNITMODE
 70
     0
  9
$VISRETAIN
 70
     1
  9
$PLINEGEN
 70
     0
  9
$PSLTSCALE
 70
     1
  9
$TREEDEPTH
 70
  3020
  9
$CMLSTYLE
  2
Standard
  9
$CMLJUST
 70
     0
  9
$CMLSCALE
 40
20.0
  9
$PROXYGRAPHICS
 70
     1
  9
$MEASUREMENT
 70
     1
  9
$CELWEIGHT
370
    -1
  9
$ENDCAPS
280
     0
  9
$JOINSTYLE
280
     0
  9
$LWDISPLAY
290
     1
  9
$INSUNITS
 70
     4
  9
$HYPERLINKBASE
  1

  9
$STYLESHEET
  1
monochrome.ctb
  9
$XEDIT
290
     1
  9
$CEPSNTYPE
380
     0
  9
$PSTYLEMODE
290
     1
  9
$FINGERPRINTGUID
  2
{68508930-D08D-479B-B49C-E1389D739004}
  9
$VERSIONGUID
  2
{703EF8A3-5E8D-FB4F-B8E7-59DC5B841F94}
  9
$EXTNAMES
290
     1
  9
$PSVPSCALE
 40
0.0
  9
$OLESTARTUP
290
     0
  9
$SORTENTS
280
    96
  9
$INDEXCTL
280
     0
  9
$HIDETEXT
280
     0
  9
$XCLIPFRAME
290
     0
  9
$HALOGAP
280
     0
  9
$OBSCOLOR
 70
   257
  9
$OBSLTYPE
280
     0
  9
$INTERSECTIONDISPLAY
280
     0
  9
$INTERSECTIONCOLOR
 70
   257
  9
$DIMASSOC
280
     1
  9
$PROJECTNAME
  1

  9
$CAMERADISPLAY
290
     0
  9
$LENSLENGTH
 40
50.0
  9
$CAMERAHEIGHT
 40
0.0
  9
$STEPSPERSEC
 40
2.0
  9
$STEPSIZE
 40
6.0
  9
$3DDWFPREC
 40
2.0
  9
$PSOLWIDTH
 40
0.25
  9
$PSOLHEIGHT
 40
4.0
  9
$LOFTANG1
 40
1.570796326794896
  9
$LOFTANG2
 40
1.570796326794896
  9
$LOFTMAG1
 40
0.0
  9
$LOFTMAG2
 40
0.0
  9
$LOFTPARAM
 70
     7
  9
$LOFTNORMALS
280
     1
  9
$LATITUDE
 40
37.795
  9
$LONGITUDE
 40
-122.394
  9
$NORTHDIRECTION
 40
0.0
  9
$TIMEZONE
 70
 -8000
  9
$LIGHTGLYPHDISPLAY
280
     1
  9
$TILEMODELIGHTSYNCH
280
     1
  9
$CMATERIAL
347
B0EE
  9
$SOLIDHIST
280
     1
  9
$SHOWHIST
280
     1
  9
$DWFFRAME
280
     2
  9
$DGNFRAME
280
     0
  9
$REALWORLDSCALE
290
     1
  9
$INTERFERECOLOR
 62
     1
  9
$INTERFEREOBJVS
345
B0FB
  9
$INTERFEREVPVS
346
B525
  9
$CSHADOW
280
     0
  9
$SHADOWPLANELOCATION
 40
0.0
  0
ENDSEC
  0
SECTION
  2
CLASSES
  0
CLASS
  1
ACDBDICTIONARYWDFLT
  2
AcDbDictionaryWithDefault
  3
ObjectDBX Classes
 90
        0
 91
        1
280
     0
281
     0
  0
CLASS
  1
ACDBPLACEHOLDER
  2
AcDbPlaceHolder
  3
ObjectDBX Classes
 90
        0
 91
        1
280
     0
281
     0
  0
CLASS
  1
LAYOUT
  2
AcDbLayout
  3
ObjectDBX Classes
 90
        0
 91
        3
280
     0
281
     0
  0
CLASS
  1
AMGSETTINGSOBJ
  2
AmgSettingsObj
  3
"AcadM|Product Description: AutoCAD Mechanical|Company: Autodesk, Inc."
 90
     1024
 91
        0
280
     0
281
     0
  0
CLASS
  1
ACME_DOCUMENT
  2
AcMeDbDoc
  3
AcMeServices
 90
     1024
 91
        0
280
     0
281
     0
  0
CLASS
  1
ACMESCOPE
  2
AcMeScope
  3
AcMeServices
 90
     1024
 91
        0
280
     0
281
     0
  0
CLASS
  1
ACMECOMMANDHISTORY
  2
AcMeCommandHistory
  3
AcMeServices
 90
     1024
 91
        0
280
     0
281
     0
  0
CLASS
  1
DICTIONARYVAR
  2
AcDbDictionaryVar
  3
ObjectDBX Classes
 90
        0
 91
       13
280
     0
281
     0
  0
CLASS
  1
ACIMSYSVARMAN
  2
AcImSysVarManager
  3
AcMeServices
 90
     1024
 91
        0
280
     0
281
     0
  0
CLASS
  1
ACIMREALSYSVAR
  2
AcImRealSysVar
  3
AcMeServices
 90
     1024
 91
        0
280
     0
281
     0
  0
CLASS
  1
ACIMINTSYSVAR
  2
AcImIntSysVar
  3
AcMeServices
 90
     1024
 91
        0
280
     0
281
     0
  0
CLASS
  1
ACMEDRAWINGMAN
  2
AcMeDrawingMan
  3
AcMeServices
 90
     1024
 91
        0
280
     0
281
     0
  0
CLASS
  1
ACMEVIEW
  2
AcMeView
  3
AcMeServices
 90
     1024
 91
        0
280
     0
281
     0
  0
CLASS
  1
ACDBENTITYCACHE
  2
AcMeEntityCache
  3
AcMeServices
 90
     1024
 91
        0
280
     0
281
     0
  0
CLASS
  1
GSMANAGER
  2
AcMeGSManager
  3
AcMeServices
 90
        0
 91
        0
280
     0
281
     0
  0
CLASS
  1
AMDTINTERNALREACTOR
  2
AmdtInternalReactor
  3
AcMeServices
 90
     1024
 91
        0
280
     0
281
     0
  0
CLASS
  1
ACMESTATEMGR
  2
AcMeStateMgr
  3
AcMeServices
 90
     1024
 91
        0
280
     0
281
     0
  0
CLASS
  1
ACGREFMASTER
  2
AcGrefMaster
  3
AcAttribServices
 90
     1024
 91
        0
280
     0
281
     0
  0
CLASS
  1
ACME_DATABASE
  2
AcMeDbDatabase
  3
AcMeServices
 90
     1024
 91
        0
280
     0
281
     0
  0
CLASS
  1
ACRFINSADJUSTERMGR
  2
AcRfInsAdjusterMgr
  3
AcMeServices
 90
     1024
 91
        0
280
     0
281
     0
  0
CLASS
  1
ACGREFACADMASTER
  2
AcGrefacadMaster
  3
AcGrefServices
 90
     1024
 91
        0
280
     0
281
     0
  0
CLASS
  1
AMIMASTER
  2
AmiMaster
  3
AmiServices
 90
     1024
 91
        0
280
     0
281
     0
  0
CLASS
  1
ACMDATADICTIONARY
  2
AcmDataDictionary
  3
"AcmSymBB|Product Description: AutoCAD Mechanical|Company: Autodesk, Inc."
 90
     1024
 91
        0
280
     0
281
     0
  0
CLASS
  1
ACMDATAENTRYBLOCK
  2
AcmDataEntryBlock
  3
AcmSymBB|Product Description: AutoCAD Mechanical|Company: Autodesk, Inc.
 90
     1024
 91
        0
280
     0
281
     0
  0
CLASS
  1
ACIMSTRSYSVAR
  2
AcImStrSysVar
  3
AcMeServices
 90
     1024
 91
        0
280
     0
281
     0
  0
CLASS
  1
ACMSTANDARDISO
  2
AcmStandardISO
  3
"Amdt_StdImp|Product Description: AutoCAD Mechanical|Company: Autodesk, Inc."
 90
     1024
 91
        0
280
     0
281
     0
  0
CLASS
  1
AMGOBJPROPCFG
  2
AmgObjPropCfg
  3
"AmgLay|Product Description: AutoCAD Mechanical|Company: Autodesk, Inc."
 90
     1024
 91
        0
280
     0
281
     0
  0
CLASS
  1
AMDTEDGESTANDARDISO
  2
AmdtEdgeStdISO
  3
"Amdt_StdImp|Product Description: AutoCAD Mechanical|Company: Autodesk, Inc."
 90
     1024
 91
        0
280
     0
281
     0
  0
CLASS
  1
ACMSURFSTANDARDISO
  2
AcmSurfTextStdISO
  3
"Amdt_StdImp|Product Description: AutoCAD Mechanical|Company: Autodesk, Inc."
 90
     1024
 91
        0
280
     0
281
     0
  0
CLASS
  1
ACMFCFSTANDARDISO
  2
AcmFCFStdISO
  3
"Amdt_StdImp|Product Description: AutoCAD Mechanical|Company: Autodesk, Inc."
 90
     1024
 91
        0
280
     0
281
     0
  0
CLASS
  1
ACMWELDSTANDARDISO
  2
AcmWeldingStdISO
  3
"Amdt_StdImp|Product Description: AutoCAD Mechanical|Company: Autodesk, Inc."
 90
     1024
 91
        0
280
     0
281
     0
  0
CLASS
  1
ACMIDSTANDARDISO
  2
AcmIdStdISO
  3
"Amdt_StdImp|Product Description: AutoCAD Mechanical|Company: Autodesk, Inc."
 90
     1024
 91
        0
280
     0
281
     0
  0
CLASS
  1
ACMDATUMSTANDARDISO
  2
AcmDatumStdISO
  3
"Amdt_StdImp|Product Description: AutoCAD Mechanical|Company: Autodesk, Inc."
 90
     1024
 91
        0
280
     0
281
     0
  0
CLASS
  1
ACMBOMSTANDARDISO
  2
AcmBOMStdISO
  3
"Amdt_StdImp|Product Description: AutoCAD Mechanical|Company: Autodesk, Inc."
 90
     1024
 91
        0
280
     0
281
     0
  0
CLASS
  1
ACMDETAILSTANDARDISO
  2
AmdtDetailSymStdISO
  3
"Amdt_StdImp|Product Description: AutoCAD Mechanical|Company: Autodesk, Inc."
 90
     1024
 91
        0
280
     0
281
     0
  0
CLASS
  1
ACMSECTIONSTANDARDISO
  2
AmdtSectionSymStdISO
  3
"Amdt_StdImp|Product Description: AutoCAD Mechanical|Company: Autodesk, Inc."
 90
     1024
 91
        0
280
     0
281
     0
  0
CLASS
  1
ACMCENTERLINESTANDARDISO
  2
AmdtCenterLineStdISO
  3
"Amdt_StdImp|Product Description: AutoCAD Mechanical|Company: Autodesk, Inc."
 90
     1024
 91
        0
280
     0
281
     0
  0
CLASS
  1
ACAMGLAYSTD
  2
AcAmgLayStd
  3
"AmgLay|Product Description: AutoCAD Mechanical|Company: Autodesk, Inc."
 90
     1024
 91
        0
280
     0
281
     0
  0
CLASS
  1
ACAMGDIMSTD
  2
AcAmgDimStd
  3
"AmgDim|Product Description: AutoCAD Mechanical|Company: Autodesk, Inc."
 90
     1024
 91
        0
280
     0
281
     0
  0
CLASS
  1
ACAMGTITLESTD
  2
AcAmgTitleStd
  3
"AmgTitle|Product Description: AutoCAD Mechanical|Company: Autodesk, Inc."
 90
     1024
 91
        0
280
     0
281
     0
  0
CLASS
  1
ACAMGFILTERDAT
  2
AcAmgFilterDat
  3
"AcadM|Product Description: AutoCAD Mechanical|Company: Autodesk, Inc."
 90
     1024
 91
        0
280
     0
281
     0
  0
CLASS
  1
LAYER_INDEX
  2
AcDbLayerIndex
  3
ObjectDBX Classes
 90
        0
 91
        0
280
     0
281
     0
  0
CLASS
  1
IDBUFFER
  2
AcDbIdBuffer
  3
ObjectDBX Classes
 90
        0
 91
        0
280
     0
281
     0
  0
CLASS
  1
PLOTSETTINGS
  2
AcDbPlotSettings
  3
ObjectDBX Classes
 90
        0
 91
        0
280
     0
281
     0
  0
CLASS
  1
AMDTFORMULAUPDATEDISPATCHER
  2
AmdtFormulaUpdateDispatcher
  3
AcMeServices
 90
     1024
 91
        0
280
     0
281
     0
  0
CLASS
  1
ACMSTANDARDANSI
  2
AcmStandardANSI
  3
"Amdt_StdImp|Product Description: AutoCAD Mechanical|Company: Autodesk, Inc."
 90
     1024
 91
        0
280
     0
281
     0
  0
CLASS
  1
ACMSURFSTANDARDANSI
  2
AcmSurfTextStdANSI
  3
"Amdt_StdImp|Product Description: AutoCAD Mechanical|Company: Autodesk, Inc."
 90
     1024
 91
        0
280
     0
281
     0
  0
CLASS
  1
ACMFCFSTANDARDANSI
  2
AcmFCFStdANSI
  3
"Amdt_StdImp|Product Description: AutoCAD Mechanical|Company: Autodesk, Inc."
 90
     1024
 91
        0
280
     0
281
     0
  0
CLASS
  1
ACMWELDSTANDARDANSI
  2
AcmWeldingStdANSI
  3
"Amdt_StdImp|Product Description: AutoCAD Mechanical|Company: Autodesk, Inc."
 90
     1024
 91
        0
280
     0
281
     0
  0
CLASS
  1
ACMIDSTANDARDANSI
  2
AcmIdStdANSI
  3
"Amdt_StdImp|Product Description: AutoCAD Mechanical|Company: Autodesk, Inc."
 90
     1024
 91
        0
280
     0
281
     0
  0
CLASS
  1
ACMDATUMSTANDARDANSI
  2
AcmDatumStdANSI
  3
"Amdt_StdImp|Product Description: AutoCAD Mechanical|Company: Autodesk, Inc."
 90
     1024
 91
        0
280
     0
281
     0
  0
CLASS
  1
ACMBOMSTANDARDANSI
  2
AcmBOMStdANSI
  3
"Amdt_StdImp|Product Description: AutoCAD Mechanical|Company: Autodesk, Inc."
 90
     1024
 91
        0
280
     0
281
     0
  0
CLASS
  1
ACMDETAILSTANDARDANSI
  2
AmdtDetailSymStdANSI
  3
"Amdt_StdImp|Product Description: AutoCAD Mechanical|Company: Autodesk, Inc."
 90
     1024
 91
        0
280
     0
281
     0
  0
CLASS
  1
ACMSECTIONSTANDARDANSI
  2
AmdtSectionSymStdANSI
  3
"Amdt_StdImp|Product Description: AutoCAD Mechanical|Company: Autodesk, Inc."
 90
     1024
 91
        0
280
     0
281
     0
  0
CLASS
  1
ACMCENTERLINESTANDARDANSI
  2
AmdtCenterLineStdANSI
  3
"Amdt_StdImp|Product Description: AutoCAD Mechanical|Company: Autodesk, Inc."
 90
     1024
 91
        0
280
     0
281
     0
  0
CLASS
  1
ACMBOM
  2
AcmBom
  3
"AcmSymBB|Product Description: AutoCAD Mechanical|Company: Autodesk, Inc."
 90
     1024
 91
        0
280
     0
281
     0
  0
CLASS
  1
ACMDATAENTRYPART
  2
AcmDataEntryPart
  3
AcmSymBB|Product Description: AutoCAD Mechanical|Company: Autodesk, Inc.
 90
     1024
 91
        0
280
     0
281
     0
  0
CLASS
  1
ACMPARTREF
  2
AcmPartRef
  3
"AcmSymBB|Product Description: AutoCAD Mechanical|Company: Autodesk, Inc."
 90
     1024
 91
        0
280
     0
281
     1
  0
CLASS
  1
ACDBCIRCARCRES
  2
AcDbCircArcRes
  3
AcGrefServices
 90
     1024
 91
        0
280
     0
281
     0
  0
CLASS
  1
ACMBOMROW
  2
AcmBomRow
  3
"AcmSymBB|Product Description: AutoCAD Mechanical|Company: Autodesk, Inc."
 90
     1024
 91
        0
280
     0
281
     0
  0
CLASS
  1
ACMBALLOON
  2
AcmBalloon
  3
"AcmSymBB|Product Description: AutoCAD Mechanical|Company: Autodesk, Inc."
 90
     1024
 91
        0
280
     0
281
     1
  0
CLASS
  1
AMDTNOTE
  2
AmdtNote
  3
"AcmSymBB|Product Description: AutoCAD Mechanical|Company: Autodesk, Inc."
 90
     1024
 91
        0
280
     0
281
     1
  0
CLASS
  1
STDPART2D
  2
AmgStdPart
  3
AmgStdPart|Product Description: AutoCAD Mechanical|Company: Autodesk, Inc.
 90
     1024
 91
        0
280
     0
281
     1
  0
CLASS
  1
ACDBSTDPARTRES_LINE
  2
AcDbStdPartRes_Line
  3
AmgStdPart|Product Description: AutoCAD Mechanical|Company: Autodesk, Inc.
 90
     1024
 91
        0
280
     0
281
     0
  0
CLASS
  1
ACMDATAENTRY
  2
AcmDataEntry
  3
AcmSymBB|Product Description: AutoCAD Mechanical|Company: Autodesk, Inc.
 90
     1024
 91
        0
280
     0
281
     0
  0
CLASS
  1
ACDBOPPOLYLINERES
  2
AcDbOpPolylineRes
  3
AcGrefServices
 90
     1024
 91
        0
280
     0
281
     0
  0
CLASS
  1
ACMPARTLIST
  2
AcmPartList
  3
"AcmSymBB|Product Description: AutoCAD Mechanical|Company: Autodesk, Inc."
 90
     1024
 91
        0
280
     0
281
     1
  0
CLASS
  1
ACDBLINERES
  2
AcDbLineRes
  3
AcGrefServices
 90
     1024
 91
        0
280
     0
281
     0
  0
CLASS
  1
ACRFINSADJ
  2
AcRfInsAdjuster
  3
AcMeServices
 90
     1024
 91
        0
280
     0
281
     0
  0
CLASS
  1
AM_DRAWING_MGR
  2
AcDmDwgMgr
  3
AcMechDwgViewMgmt
 90
     1024
 91
        0
280
     0
281
     0
  0
CLASS
  1
AM_DWG_DOCUMENT
  2
AcDmDwgDocument
  3
AcMechDwgViewMgmt
 90
     1024
 91
        0
280
     0
281
     0
  0
CLASS
  1
AM_DWG_SHEET
  2
AcDmSheet
  3
AcMechDwgViewMgmt
 90
     1024
 91
        0
280
     0
281
     0
  0
CLASS
  1
AM_VIEWDIMPARMAP
  2
AcDmViewDimParMap
  3
AcMechDwgViewMgmt
 90
     1024
 91
        0
280
     0
281
     0
  0
CLASS
  1
AM_DWGMGR_NAME
  2
AcDmDwgMgrName
  3
AcMechDwgViewMgmt
 90
     1024
 91
        0
280
     0
281
     0
  0
CLASS
  1
AMDTMENUSTATEMGR
  2
AmdtMenuStateMgr
  3
McadcomServices
 90
     1024
 91
        0
280
     0
281
     0
  0
CLASS
  1
AMDTMCOMMENUSTATE
  2
AmdtMcomMenuState
  3
McadcomServices
 90
     1024
 91
        0
280
     0
281
     0
  0
CLASS
  1
ASAPP
  2
AcAsAppObject
  3
AutoSurfServices
 90
        0
 91
        2
280
     0
281
     0
  0
CLASS
  1
IM_STATIC_MAN
  2
AcImStaticVarManager
  3
AcMeServices
 90
     1024
 91
        0
280
     0
281
     0
  0
CLASS
  1
ACIMDBLSTATICVAR
  2
AcImDblStaticVar
  3
AcMeServices
 90
     1024
 91
        0
280
     0
281
     0
  0
CLASS
  1
ACIMSTRSTATICVAR
  2
AcImStrStaticVar
  3
AcMeServices
 90
     1024
 91
        0
280
     0
281
     0
  0
CLASS
  1
ACIMINTSTATICVAR
  2
AcImIntStaticVar
  3
AcMeServices
 90
     1024
 91
        0
280
     0
281
     0
  0
CLASS
  1
ACASGREFMASTER
  2
AcAsGrefMaster
  3
AutoSurfResolverServices
 90
        0
 91
        2
280
     0
281
     0
  0
CLASS
  1
ACADGREFMODULE
  2
AcAdGrefModule
  3
AdGrefServices
 90
        0
 91
        2
280
     0
281
     0
  0
CLASS
  1
AMDTMAPISURFMOUDULE
  2
AmdtMApiSurfModule
  3
MApiSurfServices
 90
        0
 91
        2
280
     0
281
     0
  0
CLASS
  1
MAPIAMMOUDLE
  2
MApiAmModule
  3
MApiAmServices
 90
     1024
 91
        0
280
     0
281
     0
  0
CLASS
  1
AMDTADMENUSTATE
  2
AmdtAdMenuState
  3
DesignerServices
 90
        0
 91
        0
280
     0
281
     0
  0
CLASS
  1
ADAPPL
  2
AcAdAppl
  3
DesignerAssemblies
 90
     1024
 91
        0
280
     0
281
     0
  0
CLASS
  1
DEPMGR
  2
AcAdDepMgr
  3
DesignerAssemblies
 90
     1024
 91
        0
280
     0
281
     0
  0
CLASS
  1
PARAMMGR
  2
AcAdParamMgr
  3
DesignerAssemblies
 90
     1024
 91
        0
280
     0
281
     0
  0
CLASS
  1
PARAMSCOPE
  2
AcAdParamScope
  3
DesignerAssemblies
 90
     1024
 91
        0
280
     0
281
     0
  0
CLASS
  1
NAMEDAPPL
  2
AcAdNamedAppl
  3
DesignerAssemblies
 90
     1024
 91
        0
280
     0
281
     0
  0
CLASS
  1
ADHNTMPLT
  2
AdHoleNoteTemplateMgr
  3
DesignerServices
 90
        0
 91
        0
280
     0
281
     0
  0
CLASS
  1
AM_HNTEMPLATE_MGR_NAME
  2
AdHoleNoteTemplateMgrName
  3
DesignerServices
 90
        0
 91
        0
280
     0
281
     0
  0
CLASS
  1
AMDTDMMENUSTATE
  2
AmdtDmMenuState
  3
AcMechDwgViewMgmt
 90
        0
 91
        0
280
     0
281
     0
  0
CLASS
  1
MAPIADMODULE
  2
MApiAdModule
  3
MApiAdServices
 90
        0
 91
        2
280
     0
281
     0
  0
CLASS
  1
AMDTAMMENUSTATE
  2
AmdtAmMenuState
  3
DesignerAssemblies
 90
     1024
 91
        0
280
     0
281
     0
  0
CLASS
  1
ACAMPROJECT
  2
AcAmProject
  3
DesignerAssemblies
 90
     1024
 91
        0
280
     0
281
     0
  0
CLASS
  1
ACAMGRCOMPDEF
  2
AcAmGrCompDef
  3
DesignerAssemblies
 90
     1024
 91
        0
280
     0
281
     0
  0
CLASS
  1
ACCMCONTEXT
  2
AcCmContext
  3
DesignerAssemblies
 90
     1024
 91
        0
280
     0
281
     0
  0
CLASS
  1
ACAMCOMPDEF
  2
AcAmCompDef
  3
DesignerAssemblies
 90
     1024
 91
        0
280
     0
281
     0
  0
CLASS
  1
ACAMCOMPDEFMGR
  2
AcAmCompDefMgr
  3
DesignerAssemblies
 90
     1024
 91
        0
280
     0
281
     0
  0
CLASS
  1
AMCONTEXTMGR
  2
AcAmContextMgr
  3
DesignerAssemblies
 90
     1024
 91
        0
280
     0
281
     0
  0
CLASS
  1
ACAMCONTEXTMODELER
  2
AcAmContextModeler
  3
DesignerAssemblies
 90
     1024
 91
        0
280
     0
281
     0
  0
CLASS
  1
CATALOGSTATE
  2
AcAmCatalogState
  3
DesignerAssemblies
 90
     1024
 91
        0
280
     0
281
     0
  0
CLASS
  1
ACAMGRCOMPDEFSET
  2
AcAmGrCompDefSet
  3
DesignerAssemblies
 90
     1024
 91
        0
280
     0
281
     0
  0
CLASS
  1
AMDTBROWSERDBTAB
  2
AmdtBrowserDbTab
  3
McadcomServices
 90
     1024
 91
        0
280
     0
281
     0
  0
CLASS
  1
CBROWSERAPPOBJECT
  2
CBrowserAppObject
  3
McadcomServices
 90
     1024
 91
        0
280
     0
281
     0
  0
CLASS
  1
DM_PLACEHOLDER
  2
AcDmSelsetPlaceholder
  3
McadcomServices
 90
     1024
 91
        0
280
     0
281
     0
  0
CLASS
  1
ACMPICKOBJ
  2
AcmPickEnt
  3
"AcmSymBB|Product Description: AutoCAD Mechanical|Company: Autodesk, Inc."
 90
     1024
 91
        0
280
     0
281
     1
  0
CLASS
  1
ACMNOTESTANDARDISO
  2
AmdtNoteStdISO
  3
"Amdt_StdImp|Product Description: AutoCAD Mechanical|Company: Autodesk, Inc."
 90
     1024
 91
        0
280
     0
281
     0
  0
CLASS
  1
ACMNOTESTANDARDANSI
  2
AmdtNoteStdANSI
  3
"Amdt_StdImp|Product Description: AutoCAD Mechanical|Company: Autodesk, Inc."
 90
     1024
 91
        0
280
     0
281
     0
  0
CLASS
  1
ACMTHREADLINESTANDARDISO
  2
AmdtThreadLineStdISO
  3
"Amdt_StdImp|Product Description: AutoCAD Mechanical|Company: Autodesk, Inc."
 90
     1024
 91
        0
280
     0
281
     0
  0
CLASS
  1
ACMTHREADLINESTANDARDANSI
  2
AmdtThreadLineStdANSI
  3
"Amdt_StdImp|Product Description: AutoCAD Mechanical|Company: Autodesk, Inc."
 90
     1024
 91
        0
280
     0
281
     0
  0
CLASS
  1
TABLESTYLE
  2
AcDbTableStyle
  3
ObjectDBX Classes
 90
     4095
 91
        1
280
     0
281
     0
  0
CLASS
  1
SORTENTSTABLE
  2
AcDbSortentsTable
  3
ObjectDBX Classes
 90
        0
 91
        1
280
     0
281
     0
  0
CLASS
  1
MATERIAL
  2
AcDbMaterial
  3
ObjectDBX Classes
 90
     1153
 91
        3
280
     0
281
     0
  0
CLASS
  1
VISUALSTYLE
  2
AcDbVisualStyle
  3
ObjectDBX Classes
 90
     4095
 91
       26
280
     0
281
     0
  0
CLASS
  1
ACRFATTGENMGR
  2
AcRfAttGeneralMgr
  3
AcAttribServices
 90
     1024
 91
        0
280
     0
281
     0
  0
CLASS
  1
ACRFOBJATTMGR
  2
AcRfObjAttGroupMgr
  3
AcAttribServices
 90
     1024
 91
        0
280
     0
281
     0
  0
CLASS
  1
ACRFMCADAPIATTHOLDER
  2
AcRfMCADAPIAttHolder
  3
AcAttribServices
 90
     1024
 91
        0
280
     0
281
     0
  0
CLASS
  1
AMDTSYSATTR
  2
AmdtSystemAttribute
  3
AcAttribServices
 90
     1024
 91
        0
280
     0
281
     0
  0
CLASS
  1
ACMTAPERSTANDARDISO
  2
AcmTaperStdISO
  3
"Amdt_StdImp|Product Description: AutoCAD Mechanical|Company: Autodesk, Inc."
 90
     1024
 91
        0
280
     0
281
     0
  0
CLASS
  1
CAMSSTRUCTBTNSTATE
  2
StructBtnState
  3
DesignerAssemblies
 90
     1024
 91
        0
280
     0
281
     0
  0
CLASS
  1
DIMASSOC
  2
AcDbDimAssoc
  3
"AcDbDimAssoc|Product Desc:     AcDim ARX App For Dimension|Company:          Autodesk, Inc.|WEB Address:      www.autodesk.com"
 90
        0
 91
        0
280
     0
281
     0
  0
CLASS
  1
SCALE
  2
AcDbScale
  3
ObjectDBX Classes
 90
     1153
 91
       17
280
     0
281
     0
  0
CLASS
  1
MLEADERSTYLE
  2
AcDbMLeaderStyle
  3
ACDB_MLEADERSTYLE_CLASS
 90
     4095
 91
        1
280
     0
281
     0
  0
CLASS
  1
ACDBSECTIONVIEWSTYLE
  2
AcDbSectionViewStyle
  3
ObjectDBX Classes
 90
     1025
 91
        1
280
     0
281
     0
  0
CLASS
  1
ACDBDETAILVIEWSTYLE
  2
AcDbDetailViewStyle
  3
ObjectDBX Classes
 90
     1025
 91
        1
280
     0
281
     0
  0
CLASS
  1
ACMANOOTATIONVIEWSTANDARDISO
  2
AmdtAnViewStdISO
  3
"Amdt_StdImp|Product Description: AutoCAD Mechanical|Company: Autodesk, Inc."
 90
     1024
 91
        0
280
     0
281
     0
  0
CLASS
  1
EXACXREFPANELOBJECT
  2
ExAcXREFPanelObject
  3
EXAC_ESW
 90
     1025
 91
        0
280
     0
281
     0
  0
CLASS
  1
NPOCOLLECTION
  2
AcDbImpNonPersistentObjectsCollection
  3
ObjectDBX Classes
 90
     1153
 91
        0
280
     0
281
     0
  0
CLASS
  1
ACAD_EVALUATION_GRAPH
  2
AcDbEvalGraph
  3
ObjectDBX Classes
 90
     1153
 91
        0
280
     0
281
     0
  0
CLASS
  1
BLOCKPOLARPARAMETER
  2
AcDbBlockPolarParameter
  3
ObjectDBX Classes
 90
     1153
 91
        0
280
     0
281
     0
  0
CLASS
  1
BLOCKPOLARGRIP
  2
AcDbBlockPolarGrip
  3
ObjectDBX Classes
 90
     1153
 91
        0
280
     0
281
     0
  0
CLASS
  1
BLOCKGRIPLOCATIONCOMPONENT
  2
AcDbBlockGripExpr
  3
ObjectDBX Classes
 90
     1153
 91
        0
280
     0
281
     0
  0
CLASS
  1
BLOCKPOLARSTRETCHACTION
  2
AcDbBlockPolarStretchAction
  3
ObjectDBX Classes
 90
     1153
 91
        0
280
     0
281
     0
  0
CLASS
  1
BLOCKMOVEACTION
  2
AcDbBlockMoveAction
  3
ObjectDBX Classes
 90
     1153
 91
        0
280
     0
281
     0
  0
CLASS
  1
BLOCKBASEPOINTPARAMETER
  2
AcDbBlockBasepointParameter
  3
ObjectDBX Classes
 90
     1153
 91
        0
280
     0
281
     0
  0
CLASS
  1
ACDB_DYNAMICBLOCKPURGEPREVENTER_VERSION
  2
AcDbDynamicBlockPurgePreventer
  3
ObjectDBX Classes
 90
     1153
 91
        0
280
     0
281
     0
  0
CLASS
  1
ACDB_BLOCKREPRESENTATION_DATA
  2
AcDbBlockRepresentationData
  3
ObjectDBX Classes
 90
     1153
 91
        0
280
     0
281
     0
  0
CLASS
  1
AMDTNOTETEMPLATEDB
  2
AmdtNoteTemplateDB
  3
AcmSymBB|Product Description: AutoCAD Mechanical|Company: Autodesk, Inc.
 90
     1024
 91
        0
280
     0
281
     0
  0
CLASS
  1
LSSTROKEPATTERNCOMPONENT
  2
AcDbLSStrokePatternComponent
  3
AcDgnLS
 90
        0
 91
        0
280
     0
281
     0
  0
CLASS
  1
LSINTERNALCOMPONENT
  2
AcDbLSInternalComponent
  3
AcDgnLS
 90
        0
 91
        0
280
     0
281
     0
  0
CLASS
  1
CELLSTYLEMAP
  2
AcDbCellStyleMap
  3
ObjectDBX Classes
 90
     1152
 91
        4
280
     0
281
     0
  0
ENDSEC
  0
SECTION
  2
TABLES
  0
TABLE
  2
VPORT
  5
8
330
0
100
AcDbSymbolTable
 70
     1
  0
VPORT
  5
B0EC
330
8
100
AcDbSymbolTableRecord
100
AcDbViewportTableRecord
  2
*Active
 70
     0
 10
0.0
 20
0.0
 11
1.0
 21
1.0
 12
2813.982236960504
 22
1681.501583033365
 13
0.0
 23
0.0
 14
2.5
 24
2.5
 15
10.0
 25
10.0
 16
0.0
 26
0.0
 36
1.0
 17
0.0
 27
0.0
 37
0.0
 40
476.7381025656841
 41
1.689999999999999
 42
50.0
 43
-1370.695619172058
 44
-1370.695619172058
 50
0.0
 51
0.0
 71
    16
 72
   100
 73
     1
 74
     3
 75
     0
 76
     0
 77
     0
 78
     0
281
     0
 65
     0
110
0.0
120
0.0
130
0.0
111
1.0
121
0.0
131
0.0
112
0.0
122
1.0
132
0.0
 79
     0
146
0.0
348
B0F7
 60
     3
 61
     5
292
     1
282
     1
141
0.0
142
0.0
 63
   250
421
  3355443
1001
ACAD_NAV_VCDISPLAY
1070
     3
  0
ENDTAB
  0
TABLE
  2
LTYPE
  5
5
330
0
100
AcDbSymbolTable
 70
    28
  0
LTYPE
  5
14
330
5
100
AcDbSymbolTableRecord
100
AcDbLinetypeTableRecord
  2
ByBlock
 70
     0
  3

 72
    65
 73
     0
 40
0.0
  0
LTYPE
  5
15
330
5
100
AcDbSymbolTableRecord
100
AcDbLinetypeTableRecord
  2
ByLayer
 70
     0
  3

 72
    65
 73
     0
 40
0.0
  0
LTYPE
  5
16
330
5
100
AcDbSymbolTableRecord
100
AcDbLinetypeTableRecord
  2
Continuous
 70
     0
  3
Solid line
 72
    65
 73
     0
 40
0.0
  0
LTYPE
  5
4DED
330
5
100
AcDbSymbolTableRecord
100
AcDbLinetypeTableRecord
  2
中線
 70
     0
  3
___________________
 72
    65
 73
     2
 40
2.0
 49
1.0
 74
     0
 49
1.0
 74
     0
  0
LTYPE
  5
4DF6
330
5
100
AcDbSymbolTableRecord
100
AcDbLinetypeTableRecord
  2
細線
 70
     0
  3
___________________
 72
    65
 73
     2
 40
2.0
 49
1.0
 74
     0
 49
1.0
 74
     0
  0
LTYPE
  5
4EA7
330
5
100
AcDbSymbolTableRecord
100
AcDbLinetypeTableRecord
  2
文字
 70
     0
  3
_________________
 72
    65
 73
     2
 40
2.0
 49
1.0
 74
     0
 49
1.0
 74
     0
  0
LTYPE
  5
4EA9
330
5
100
AcDbSymbolTableRecord
100
AcDbLinetypeTableRecord
  2
寸法線
 70
     0
  3
________________
 72
    65
 73
     2
 40
2.0
 49
1.0
 74
     0
 49
1.0
 74
     0
  0
LTYPE
  5
5180
330
5
100
AcDbSymbolTableRecord
100
AcDbLinetypeTableRecord
  2
陰線1
 70
     0
  3
__ __ __ __
 72
    65
 73
     2
 40
4.0
 49
2.2
 74
     0
 49
-1.8
 74
     0
  0
LTYPE
  5
5185
330
5
100
AcDbSymbolTableRecord
100
AcDbLinetypeTableRecord
  2
中心線1
 70
     0
  3
___ _ ___ _ ___
 72
    65
 73
     4
 40
18.0
 49
12.0
 74
     0
 49
-2.0
 74
     0
 49
2.0
 74
     0
 49
-2.0
 74
     0
  0
LTYPE
  5
6427
330
5
100
AcDbSymbolTableRecord
100
AcDbLinetypeTableRecord
  2
HIDDEN
 70
     0
  3
Hidden __ __ __ __ __ __ __ __ __ __ __ __ __ _
 72
    65
 73
     2
 40
0.375
 49
0.25
 74
     0
 49
-0.125
 74
     0
  0
ENDTAB
  0
TABLE
  2
LAYER
  5
2
102
{ACAD_XDICTIONARY
360
3F95
102
}
330
0
100
AcDbSymbolTable
 70
    19
  0
LAYER
  5
10
102
{ACAD_XDICTIONARY
360
C221
102
}
330
2
100
AcDbSymbolTableRecord
100
AcDbLayerTableRecord
  2
0
 70
     0
 62
     7
  6
Continuous
370
    -3
390
F
347
B0F0
  0
LAYER
  5
6D1
330
2
100
AcDbSymbolTableRecord
100
AcDbLayerTableRecord
  2
Defpoints
 70
     0
 62
     7
  6
Continuous
290
     0
370
    -3
390
F
347
B0F0
  0
LAYER
  5
5F85
102
{ACAD_XDICTIONARY
360
C223
102
}
330
2
100
AcDbSymbolTableRecord
100
AcDbLayerTableRecord
  2
AM_0
 70
     0
 62
     7
  6
中線
370
    30
390
F
347
B0F0
1001
AcAecLayerStandard
1000

1000

  0
LAYER
  5
AC9F
102
{ACAD_XDICTIONARY
360
C225
102
}
330
2
100
AcDbSymbolTableRecord
100
AcDbLayerTableRecord
  2
size
 70
     0
 62
     5
  6
Continuous
290
     0
370
    25
390
F
347
B0F0
  0
LAYER
  5
ACA0
102
{ACAD_XDICTIONARY
360
C227
102
}
330
2
100
AcDbSymbolTableRecord
100
AcDbLayerTableRecord
  2
waku
 70
     0
 62
     7
  6
Continuous
370
    35
390
F
347
B0F0
  0
LAYER
  5
ACA1
102
{ACAD_XDICTIONARY
360
C229
102
}
330
2
100
AcDbSymbolTableRecord
100
AcDbLayerTableRecord
  2
AM_6
 70
     0
 62
     2
  6
文字
370
    13
390
F
347
B0F0
1001
AcAecLayerStandard
1000

1000

  0
LAYER
  5
AD64
102
{ACAD_XDICTIONARY
360
C233
102
}
330
2
100
AcDbSymbolTableRecord
100
AcDbLayerTableRecord
  2
AM_2
 70
     0
 62
     1
  6
細線
370
    13
390
F
347
B0F0
1001
AcAecLayerStandard
1000

1000

  0
LAYER
  5
AD67
102
{ACAD_XDICTIONARY
360
C235
102
}
330
2
100
AcDbSymbolTableRecord
100
AcDbLayerTableRecord
  2
AM_3
 70
     0
 62
     6
  6
陰線1
370
    13
390
F
347
B0F0
1001
AcAecLayerStandard
1000

1000

  0
LAYER
  5
AD68
102
{ACAD_XDICTIONARY
360
C237
102
}
330
2
100
AcDbSymbolTableRecord
100
AcDbLayerTableRecord
  2
AM_5
 70
     0
 62
     3
  6
寸法線
370
    13
390
F
347
B0F0
1001
AcAecLayerStandard
1000

1000

  0
LAYER
  5
AD69
102
{ACAD_XDICTIONARY
360
C239
102
}
330
2
100
AcDbSymbolTableRecord
100
AcDbLayerTableRecord
  2
AM_7
 70
     0
 62
     4
  6
中心線1
370
    13
390
F
347
B0F0
1001
AcAecLayerStandard
1000

1000

  0
ENDTAB
  0
TABLE
  2
STYLE
  5
3
330
0
100
AcDbSymbolTable
 70
     9
  0
STYLE
  5
11
330
3
100
AcDbSymbolTableRecord
100
AcDbTextStyleTableRecord
  2
STANDARD
 70
     0
 40
0.0
 41
0.7
 50
0.0
 71
     0
 42
3.2
  3
romans.shx
  4
extfont.shx
  0
STYLE
  5
A74
330
3
100
AcDbSymbolTableRecord
100
AcDbTextStyleTableRecord
  2
DIM
 70
     0
 40
0.0
 41
1.0
 50
0.0
 71
     0
 42
2.5
  3
monotxt.shx
  4
extfont.shx
  0
ENDTAB
  0
TABLE
  2
VIEW
  5
6
330
0
100
AcDbSymbolTable
 70
     8
  0
VIEW
  5
AE1
330
6
100
AcDbSymbolTableRecord
100
AcDbViewTableRecord
  2
AM_VIEW1
 70
     0
 40
129.7276464542651
 10
1775.10588156276
 20
1793.121228859297
 41
148.5
 11
0.0
 21
0.0
 31
1.0
 12
0.0
 22
0.0
 32
0.0
 42
50.0
 43
-1370.695619172058
 44
-1370.695619172058
 50
0.0
 71
    16
281
     0
 72
     0
 73
     0
348
B0F7
  0
VIEW
  5
AE2
330
6
100
AcDbSymbolTableRecord
100
AcDbViewTableRecord
  2
AM_VIEW2
 70
     0
 40
129.7276464542651
 10
1923.60588156276
 20
1793.121228859297
 41
148.5
 11
0.0
 21
0.0
 31
1.0
 12
0.0
 22
0.0
 32
0.0
 42
50.0
 43
-1370.695619172058
 44
-1370.695619172058
 50
0.0
 71
    16
281
     0
 72
     0
 73
     0
348
B0F7
  0
VIEW
  5
AE3
330
6
100
AcDbSymbolTableRecord
100
AcDbViewTableRecord
  2
AM_VIEW3
 70
     0
 40
129.7276464542651
 10
1775.10588156276
 20
1712.848875313562
 41
148.5
 11
0.0
 21
0.0
 31
1.0
 12
0.0
 22
0.0
 32
0.0
 42
50.0
 43
-1370.695619172058
 44
-1370.695619172058
 50
0.0
 71
    16
281
     0
 72
     0
 73
     0
348
B0F7
  0
VIEW
  5
AE4
330
6
100
AcDbSymbolTableRecord
100
AcDbViewTableRecord
  2
AM_VIEW4
 70
     0
 40
129.7276464542651
 10
1923.60588156276
 20
1712.848875313562
 41
148.5
 11
0.0
 21
0.0
 31
1.0
 12
0.0
 22
0.0
 32
0.0
 42
50.0
 43
-1370.695619172058
 44
-1370.695619172058
 50
0.0
 71
    16
281
     0
 72
     0
 73
     0
348
B0F7
  0
VIEW
  5
AE5
330
6
100
AcDbSymbolTableRecord
100
AcDbViewTableRecord
  2
AM_VIEW5
 70
     0
 40
129.7276464542651
 10
1849.35588156276
 20
1752.985052086429
 41
148.5
 11
0.0
 21
0.0
 31
1.0
 12
0.0
 22
0.0
 32
0.0
 42
50.0
 43
-1370.695619172058
 44
-1370.695619172058
 50
0.0
 71
    16
281
     0
 72
     0
 73
     0
348
B0F7
  0
VIEW
  5
AE6
330
6
100
AcDbSymbolTableRecord
100
AcDbViewTableRecord
  2
AM_VIEW6
 70
     0
 40
259.452698355601
 10
1849.35588156276
 20
1752.985052086429
 41
296.99703
 11
0.0
 21
0.0
 31
1.0
 12
0.0
 22
0.0
 32
0.0
 42
50.0
 43
-1370.695619172058
 44
-1370.695619172058
 50
0.0
 71
    16
281
     0
 72
     0
 73
     0
348
B0F7
  0
ENDTAB
  0
TABLE
  2
UCS
  5
7
330
0
100
AcDbSymbolTable
 70
     0
  0
ENDTAB
  0
TABLE
  2
APPID
  5
9
330
0
100
AcDbSymbolTable
 70
    71
  0
APPID
  5
12
330
9
100
AcDbSymbolTableRecord
100
AcDbRegAppTableRecord
  2
ACAD
 70
     0
  0
APPID
  5
30
330
9
100
AcDbSymbolTableRecord
100
AcDbRegAppTableRecord
  2
MCAD_NO_VIS
 70
     0
  0
APPID
  5
31
330
9
100
AcDbSymbolTableRecord
100
AcDbRegAppTableRecord
  2
ACAD_TEMP_GRAPHIC
 70
     0
  0
APPID
  5
44
330
9
100
AcDbSymbolTableRecord
100
AcDbRegAppTableRecord
  2
ACATTRIBSERVICES
 70
     0
  0
APPID
  5
7A1
330
9
100
AcDbSymbolTableRecord
100
AcDbRegAppTableRecord
  2
GENIUS_GENDIMSH_14
 70
     0
  0
APPID
  5
A49
330
9
100
AcDbSymbolTableRecord
100
AcDbRegAppTableRecord
  2
GENIUS_GENREC_14
 70
     0
  0
APPID
  5
A4A
330
9
100
AcDbSymbolTableRecord
100
AcDbRegAppTableRecord
  2
GENIUS_GENOBJ-N-REC_13
 70
     0
  0
APPID
  5
A4B
330
9
100
AcDbSymbolTableRecord
100
AcDbRegAppTableRecord
  2
GENIUS_GENODEF_13
 70
     0
  0
APPID
  5
A4C
330
9
100
AcDbSymbolTableRecord
100
AcDbRegAppTableRecord
  2
DCO15
 70
     0
  0
APPID
  5
ADC
330
9
100
AcDbSymbolTableRecord
100
AcDbRegAppTableRecord
  2
GENIUS_GENOLIS_13
 70
     0
  0
APPID
  5
ADD
330
9
100
AcDbSymbolTableRecord
100
AcDbRegAppTableRecord
  2
GENIUS_GENOENT_13
 70
     0
  0
APPID
  5
ADE
330
9
100
AcDbSymbolTableRecord
100
AcDbRegAppTableRecord
  2
GENIUS_GENOBJ-N-TIT_13
 70
     0
  0
APPID
  5
ADF
330
9
100
AcDbSymbolTableRecord
100
AcDbRegAppTableRecord
  2
GENIUS_GENTITLE_13
 70
     0
  0
APPID
  5
AE0
330
9
100
AcDbSymbolTableRecord
100
AcDbRegAppTableRecord
  2
GENIUS_GENOREF_13
 70
     0
  0
APPID
  5
AE7
330
9
100
AcDbSymbolTableRecord
100
AcDbRegAppTableRecord
  2
GENIUS_GENSCREG_15
 70
     0
  0
APPID
  5
AE8
330
9
100
AcDbSymbolTableRecord
100
AcDbRegAppTableRecord
  2
GENIUS_GENOBJ-N-SDF_13
 70
     0
  0
APPID
  5
FAF
330
9
100
AcDbSymbolTableRecord
100
AcDbRegAppTableRecord
  2
GENIUS_GENBLLY_14
 70
     0
  0
APPID
  5
FB0
330
9
100
AcDbSymbolTableRecord
100
AcDbRegAppTableRecord
  2
GENIUS_GENTRA_14
 70
     0
  0
APPID
  5
1285
330
9
100
AcDbSymbolTableRecord
100
AcDbRegAppTableRecord
  2
GENIUS_GENDTOL_13
 70
     0
  0
APPID
  5
142D
330
9
100
AcDbSymbolTableRecord
100
AcDbRegAppTableRecord
  2
GENIUS_GENOBJ-N-CEN_13
 70
     0
  0
APPID
  5
1AB5
330
9
100
AcDbSymbolTableRecord
100
AcDbRegAppTableRecord
  2
GENIUS_GENOBJ-N-CRS_13
 70
     0
  0
APPID
  5
1B36
330
9
100
AcDbSymbolTableRecord
100
AcDbRegAppTableRecord
  2
GENIUS_GENOBJ-N-HTC_13
 70
     0
  0
APPID
  5
1B37
330
9
100
AcDbSymbolTableRecord
100
AcDbRegAppTableRecord
  2
GENIUS_GENHATCH_13
 70
     0
  0
APPID
  5
216D
330
9
100
AcDbSymbolTableRecord
100
AcDbRegAppTableRecord
  2
GENIUS_GENOBJ-N-FIL_13
 70
     0
  0
APPID
  5
2356
330
9
100
AcDbSymbolTableRecord
100
AcDbRegAppTableRecord
  2
GEVID990412420
 70
     0
  0
APPID
  5
2357
330
9
100
AcDbSymbolTableRecord
100
AcDbRegAppTableRecord
  2
GEVDC
 70
     0
  0
APPID
  5
2358
330
9
100
AcDbSymbolTableRecord
100
AcDbRegAppTableRecord
  2
GEVCON
 70
     0
  0
APPID
  5
235B
330
9
100
AcDbSymbolTableRecord
100
AcDbRegAppTableRecord
  2
GEVRADREF
 70
     0
  0
APPID
  5
2360
330
9
100
AcDbSymbolTableRecord
100
AcDbRegAppTableRecord
  2
GENIUS_GENBH_13
 70
     0
  0
APPID
  5
2362
330
9
100
AcDbSymbolTableRecord
100
AcDbRegAppTableRecord
  2
GENIUS_GENOBJ-NBEHI-BHF_13
 70
     0
  0
APPID
  5
2364
330
9
100
AcDbSymbolTableRecord
100
AcDbRegAppTableRecord
  2
GENIUS_GENOBJ-NBEHI-BHB_13
 70
     0
  0
APPID
  5
2379
330
9
100
AcDbSymbolTableRecord
100
AcDbRegAppTableRecord
  2
GENIUS_GENOBJ-F-SCPASSM_13
 70
     0
  0
APPID
  5
3D74
330
9
100
AcDbSymbolTableRecord
100
AcDbRegAppTableRecord
  2
GENIUS_GENDIM_13
 70
     0
  0
APPID
  5
3D76
330
9
100
AcDbSymbolTableRecord
100
AcDbRegAppTableRecord
  2
GENIUS_GE3DTOL_13
 70
     0
  0
APPID
  5
3D9C
330
9
100
AcDbSymbolTableRecord
100
AcDbRegAppTableRecord
  2
AD_DRAW
 70
     0
  0
APPID
  5
3DE8
330
9
100
AcDbSymbolTableRecord
100
AcDbRegAppTableRecord
  2
ASURF_PCURVE_APPNAME
 70
     0
  0
APPID
  5
3DED
330
9
100
AcDbSymbolTableRecord
100
AcDbRegAppTableRecord
  2
AMG_3D2D_5.0
 70
     0
  0
APPID
  5
3E1B
330
9
100
AcDbSymbolTableRecord
100
AcDbRegAppTableRecord
  2
DESIGNERASSEMBLIES
 70
     0
  0
APPID
  5
3E20
330
9
100
AcDbSymbolTableRecord
100
AcDbRegAppTableRecord
  2
ACADM_DIM_EDIT
 70
     0
  0
APPID
  5
3E21
330
9
100
AcDbSymbolTableRecord
100
AcDbRegAppTableRecord
  2
AMDT_DM_ADJ
 70
     0
  0
APPID
  5
4143
330
9
100
AcDbSymbolTableRecord
100
AcDbRegAppTableRecord
  2
GENIUS_GENFIL_13
 70
     0
  0
APPID
  5
4144
330
9
100
AcDbSymbolTableRecord
100
AcDbRegAppTableRecord
  2
GENIUS_GENOBJ-N-CHA_13
 70
     0
  0
APPID
  5
4E17
330
9
100
AcDbSymbolTableRecord
100
AcDbRegAppTableRecord
  2
GEVID1008153417
 70
     0
  0
APPID
  5
4E58
330
9
100
AcDbSymbolTableRecord
100
AcDbRegAppTableRecord
  2
GEVID1008153418
 70
     0
  0
APPID
  5
4E5E
330
9
100
AcDbSymbolTableRecord
100
AcDbRegAppTableRecord
  2
GEVID1008153419
 70
     0
  0
APPID
  5
4E64
330
9
100
AcDbSymbolTableRecord
100
AcDbRegAppTableRecord
  2
GEVID1008153420
 70
     0
  0
APPID
  5
4E75
330
9
100
AcDbSymbolTableRecord
100
AcDbRegAppTableRecord
  2
GEVID1008153421
 70
     0
  0
APPID
  5
4EB7
330
9
100
AcDbSymbolTableRecord
100
AcDbRegAppTableRecord
  2
GENIUS_AMGTXT_16
 70
     0
  0
APPID
  5
7645
330
9
100
AcDbSymbolTableRecord
100
AcDbRegAppTableRecord
  2
GENIUS_GENOBJ-N-DIM_13
 70
     0
  0
APPID
  5
AAD0
330
9
100
AcDbSymbolTableRecord
100
AcDbRegAppTableRecord
  2
ACAD_DSTYLE_DIMARC_LENGTH_SYMBOL
 70
     0
  0
APPID
  5
AAD1
330
9
100
AcDbSymbolTableRecord
100
AcDbRegAppTableRecord
  2
ACAD_DSTYLE_DIMJOGGED_JOGANGLE_SYMBOL
 70
     0
  0
APPID
  5
AAFD
330
9
100
AcDbSymbolTableRecord
100
AcDbRegAppTableRecord
  2
ACAD_PSEXT
 70
     0
  0
APPID
  5
AD61
330
9
100
AcDbSymbolTableRecord
100
AcDbRegAppTableRecord
  2
AcAecLayerStandard
 70
     0
  0
APPID
  5
AEE3
330
9
100
AcDbSymbolTableRecord
100
AcDbRegAppTableRecord
  2
ACAD_EXEMPT_FROM_CAD_STANDARDS
 70
     0
  0
APPID
  5
B1BE
330
9
100
AcDbSymbolTableRecord
100
AcDbRegAppTableRecord
  2
GENIUS_GENCEN_19
 70
     0
  0
APPID
  5
B562
330
9
100
AcDbSymbolTableRecord
100
AcDbRegAppTableRecord
  2
ACAD_NAV_VCDISPLAY
 70
     0
  0
APPID
  5
B563
330
9
100
AcDbSymbolTableRecord
100
AcDbRegAppTableRecord
  2
ACAD_DSTYLE_DIMJAG
 70
     0
  0
APPID
  5
B564
330
9
100
AcDbSymbolTableRecord
100
AcDbRegAppTableRecord
  2
ACAD_DSTYLE_DIMTALN
 70
     0
  0
APPID
  5
B565
330
9
100
AcDbSymbolTableRecord
100
AcDbRegAppTableRecord
  2
ACAD_DSTYLE_DIMBREAK
 70
     0
  0
APPID
  5
B5E5
330
9
100
AcDbSymbolTableRecord
100
AcDbRegAppTableRecord
  2
AcadAnnotative
 70
     0
  0
APPID
  5
B5E6
330
9
100
AcDbSymbolTableRecord
100
AcDbRegAppTableRecord
  2
AcadAnnoPO
 70
     0
  0
APPID
  5
B5E7
330
9
100
AcDbSymbolTableRecord
100
AcDbRegAppTableRecord
  2
ACAD_MLEADERVER
 70
     0
  0
APPID
  5
B5E8
330
9
100
AcDbSymbolTableRecord
100
AcDbRegAppTableRecord
  2
ACAUTHENVIRON
 70
     0
  0
APPID
  5
B5E9
330
9
100
AcDbSymbolTableRecord
100
AcDbRegAppTableRecord
  2
AcDbDynamicBlockTrueName
 70
     0
  0
APPID
  5
B5EA
330
9
100
AcDbSymbolTableRecord
100
AcDbRegAppTableRecord
  2
AcDbDynamicBlockGUID
 70
     0
  0
APPID
  5
B5EB
330
9
100
AcDbSymbolTableRecord
100
AcDbRegAppTableRecord
  2
AcDbBlockRepETag
 70
     0
  0
APPID
  5
B5EC
330
9
100
AcDbSymbolTableRecord
100
AcDbRegAppTableRecord
  2
AcDbBlockRepBTag
 70
     0
  0
APPID
  5
B5ED
330
9
100
AcDbSymbolTableRecord
100
AcDbRegAppTableRecord
  2
ACCMTRANSPARENCY
 70
     0
  0
APPID
  5
B8C5
330
9
100
AcDbSymbolTableRecord
100
AcDbRegAppTableRecord
  2
ACAD_DSTYLE_DIMINSPECT
 70
     0
  0
APPID
  5
B8C6
330
9
100
AcDbSymbolTableRecord
100
AcDbRegAppTableRecord
  2
ACAD_DSTYLE_DIMRADIAL_EXTENSION
 70
     0
  0
APPID
  5
C292
330
9
100
AcDbSymbolTableRecord
100
AcDbRegAppTableRecord
  2
AcadAnnoMonitorAlertIconDisabled
 70
     0
  0
ENDTAB
  0
TABLE
  2
DIMSTYLE
  5
A
330
0
100
AcDbSymbolTable
 70
    20
100
AcDbDimStyleTable
 71
     1
340
2515
  0
DIMSTYLE
105
A76
330
A
100
AcDbSymbolTableRecord
100
AcDbDimStyleTableRecord
  2
STANDARD
 70
     0
 41
3.0
 42
1.0
 43
7.0
 44
2.0
 73
     0
 74
     0
 77
     1
140
2.799999999999998
141
0.0
143
0.0394
147
0.7
171
     4
172
     1
173
     1
176
     3
177
     3
178
     2
271
     3
272
     3
273
     8
274
     4
289
     0
340
A74
341
A66
343
A66
344
A66
  0
DIMSTYLE
105
2515
330
A
100
AcDbSymbolTableRecord
100
AcDbDimStyleTableRecord
  2
SYS
 70
     0
  4
"
 41
1.0
 42
1.0
 43
10.0
 44
0.0
 47
0.1
 48
0.1
 73
     0
 74
     0
 77
     1
 78
     8
 79
     2
 90
     1
140
3.5
141
0.0
143
0.0393701
146
0.71
147
1.5
172
     1
176
   256
177
   256
178
     7
271
     2
272
     2
283
     0
284
     8
340
11
371
    -1
372
    -1
1001
ACAD_DSTYLE_DIMJOGGED_JOGANGLE_SYMBOL
1070
   384
1040
0.7853981633974483
1001
ACAD_DSTYLE_DIMJAG
1070
   388
1040
1.5
1001
ACAD_DSTYLE_DIMTALN
1070
   392
1070
     0
  0
DIMSTYLE
105
2516
102
{ACAD_REACTORS
330
BF34
330
BF31
102
}
330
A
100
AcDbSymbolTableRecord
100
AcDbDimStyleTableRecord
  2
SYS$3
 70
     0
  4
"
 41
2.0
 42
1.0
 43
10.0
 44
0.0
 47
0.1
 48
0.1
 73
     0
 77
     1
 78
     8
 79
     2
 90
     1
140
3.5
141
0.0
143
0.0393701
146
0.71
147
1.5
176
   256
177
   256
178
     2
271
     2
272
     2
283
     0
284
     8
288
     1
340
11
342
A66
371
    -1
372
    -1
1001
ACAD_DSTYLE_DIMJOGGED_JOGANGLE_SYMBOL
1070
   384
1040
0.7853981633974483
1001
ACAD_DSTYLE_DIMBREAK
1070
   391
1040
3.75
1001
ACAD_DSTYLE_DIMJAG
1070
   388
1040
1.5
1001
ACAD_DSTYLE_DIMTALN
1070
   392
1070
     0
  0
DIMSTYLE
105
2AAB
102
{ACAD_REACTORS
330
BE14
330
BE13
330
BE12
330
BE11
330
BE10
330
BD56
330
BD55
330
BCDA
330
BCD9
330
BCD5
330
BCD4
330
BCD3
330
BCD2
102
}
330
A
100
AcDbSymbolTableRecord
100
AcDbDimStyleTableRecord
  2
SYS$0
 70
     0
  4
"
 41
1.0
 42
1.0
 43
10.0
 44
0.0
 47
0.1
 48
0.1
 73
     0
 74
     0
 77
     1
 78
     8
 79
     2
 90
     1
140
3.200000000000001
141
0.0
143
0.0393701
146
0.71
147
1.5
172
     1
176
   256
177
   256
178
     2
271
     2
272
     2
283
     0
284
     8
340
11
341
A66
342
6C4
371
    -1
372
    -1
1001
ACAD_DSTYLE_DIMJOGGED_JOGANGLE_SYMBOL
1070
   384
1040
0.7853981633974483
1001
ACAD_DSTYLE_DIMBREAK
1070
   391
1040
3.75
1001
ACAD_DSTYLE_DIMJAG
1070
   388
1040
1.5
1001
ACAD_DSTYLE_DIMTALN
1070
   392
1070
     0
  0
ENDTAB
  0
TABLE
  2
BLOCK_RECORD
  5
1
330
0
100
AcDbSymbolTable
 70
    69
  0
BLOCK_RECORD
  5
1F
102
{ACAD_XDICTIONARY
360
8A
102
}
330
1
100
AcDbSymbolTableRecord
100
AcDbBlockTableRecord
  2
*Model_Space
340
22
 70
     0
280
     1
281
     0
  0
BLOCK_RECORD
  5
1B
330
1
100
AcDbSymbolTableRecord
100
AcDbBlockTableRecord
  2
*Paper_Space
340
1E
 70
     0
280
     1
281
     0
  0
BLOCK_RECORD
  5
23
330
1
100
AcDbSymbolTableRecord
100
AcDbBlockTableRecord
  2
*Paper_Space0
340
26
 70
     0
280
     1
281
     0
  0
BLOCK_RECORD
  5
6C4
330
1
100
AcDbSymbolTableRecord
100
AcDbBlockTableRecord
  2
_Dot
340
0
102
{BLKREFS
331
C29F
331
C2A0
331
C2B1
331
C2B2
331
C108
331
C109
331
C111
331
C112
331
C11A
331
C11B
331
C12C
331
C12D
331
C17F
331
C180
331
C0AA
331
C0AB
331
C0B5
331
C0B6
331
C0BF
331
C0C0
331
C0C8
331
C0C9
331
C0D1
331
C0D2
331
C0FF
331
C100
102
}
 70
     0
280
     1
281
     0
  0
BLOCK_RECORD
  5
A66
330
1
100
AcDbSymbolTableRecord
100
AcDbBlockTableRecord
  2
_OPEN30
340
0
 70
     0
280
     1
281
     0
  0
BLOCK_RECORD
  5
B74E
330
1
100
AcDbSymbolTableRecord
100
AcDbBlockTableRecord
  2
GENDOT
340
0
102
{BLKREFS
331
C0F8
331
C0F9
331
C0E3
331
C0E4
102
}
 70
     0
280
     1
281
     0
  0
BLOCK_RECORD
  5
BF35
330
1
100
AcDbSymbolTableRecord
100
AcDbBlockTableRecord
  2
*D36
340
0
 70
     0
280
     1
281
     0
  0
BLOCK_RECORD
  5
BF41
330
1
100
AcDbSymbolTableRecord
100
AcDbBlockTableRecord
  2
*D37
340
0
 70
     0
280
     1
281
     0
  0
BLOCK_RECORD
  5
BF4F
330
1
100
AcDbSymbolTableRecord
100
AcDbBlockTableRecord
  2
*D38
340
0
 70
     0
280
     1
281
     0
  0
BLOCK_RECORD
  5
BF5C
330
1
100
AcDbSymbolTableRecord
100
AcDbBlockTableRecord
  2
*D39
340
0
 70
     0
280
     1
281
     0
  0
BLOCK_RECORD
  5
BF68
330
1
100
AcDbSymbolTableRecord
100
AcDbBlockTableRecord
  2
*D40
340
0
 70
     0
280
     1
281
     0
  0
BLOCK_RECORD
  5
BF80
330
1
100
AcDbSymbolTableRecord
100
AcDbBlockTableRecord
  2
*D42
340
0
 70
     0
280
     1
281
     0
  0
BLOCK_RECORD
  5
BF9E
330
1
100
AcDbSymbolTableRecord
100
AcDbBlockTableRecord
  2
*D45
340
0
 70
     0
280
     1
281
     0
  0
BLOCK_RECORD
  5
BFA8
330
1
100
AcDbSymbolTableRecord
100
AcDbBlockTableRecord
  2
*D46
340
0
 70
     0
280
     1
281
     0
  0
BLOCK_RECORD
  5
BFB4
330
1
100
AcDbSymbolTableRecord
100
AcDbBlockTableRecord
  2
*D47
340
0
 70
     0
280
     1
281
     0
  0
BLOCK_RECORD
  5
BFC0
330
1
100
AcDbSymbolTableRecord
100
AcDbBlockTableRecord
  2
*D48
340
0
 70
     0
280
     1
281
     0
  0
BLOCK_RECORD
  5
BFCC
330
1
100
AcDbSymbolTableRecord
100
AcDbBlockTableRecord
  2
*D49
340
0
 70
     0
280
     1
281
     0
  0
BLOCK_RECORD
  5
BFD8
330
1
100
AcDbSymbolTableRecord
100
AcDbBlockTableRecord
  2
*D50
340
0
 70
     0
280
     1
281
     0
  0
BLOCK_RECORD
  5
BFE4
330
1
100
AcDbSymbolTableRecord
100
AcDbBlockTableRecord
  2
*D51
340
0
 70
     0
280
     1
281
     0
  0
BLOCK_RECORD
  5
C052
330
1
100
AcDbSymbolTableRecord
100
AcDbBlockTableRecord
  2
*D60
340
0
 70
     0
280
     1
281
     0
  0
BLOCK_RECORD
  5
C05E
330
1
100
AcDbSymbolTableRecord
100
AcDbBlockTableRecord
  2
*D61
340
0
 70
     0
280
     1
281
     0
  0
ENDTAB
  0
ENDSEC
  0
SECTION
  2
BLOCKS
  0
BLOCK
  5
20
330
1F
100
AcDbEntity
  8
0
100
AcDbBlockBegin
  2
*Model_Space
 70
     0
 10
0.0
 20
0.0
 30
0.0
  3
*Model_Space
  1

  0
ENDBLK
  5
21
330
1F
100
AcDbEntity
  8
0
100
AcDbBlockEnd
  0
BLOCK
  5
1C
330
1B
100
AcDbEntity
 67
     1
  8
0
100
AcDbBlockBegin
  2
*Paper_Space
 70
     0
 10
0.0
 20
0.0
 30
0.0
  3
*Paper_Space
  1

  0
ENDBLK
  5
1D
330
1B
100
AcDbEntity
 67
     1
  8
0
100
AcDbBlockEnd
  0
BLOCK
  5
24
330
23
100
AcDbEntity
 67
     1
  8
0
100
AcDbBlockBegin
  2
*Paper_Space0
 70
     0
 10
0.0
 20
0.0
 30
0.0
  3
*Paper_Space0
  1

  0
ENDBLK
  5
25
330
23
100
AcDbEntity
 67
     1
  8
0
100
AcDbBlockEnd
  0
BLOCK
  5
6C7
330
6C4
100
AcDbEntity
  8
0
100
AcDbBlockBegin
  2
_Dot
 70
     0
 10
0.0
 20
0.0
 30
0.0
  3
_Dot
  1

  0
LWPOLYLINE
  5
6C5
330
6C4
100
AcDbEntity
  8
0
  6
ByBlock
 62
     0
100
AcDbPolyline
 90
        2
 70
     1
 43
0.5
 10
-0.25
 20
0.0
 42
1.0
 10
0.25
 20
0.0
 42
1.0
  0
LINE
  5
6C6
330
6C4
100
AcDbEntity
  8
0
  6
ByBlock
 62
     0
370
    -2
100
AcDbLine
 10
-0.5
 20
0.0
 30
0.0
 11
-1.0
 21
0.0
 31
0.0
  0
ENDBLK
  5
6C8
330
6C4
100
AcDbEntity
  8
0
100
AcDbBlockEnd
  0
BLOCK
  5
A6A
330
A66
100
AcDbEntity
  8
0
100
AcDbBlockBegin
  2
_OPEN30
 70
     0
 10
0.0
 20
0.0
 30
0.0
  3
_OPEN30
  1

  0
LINE
  5
A67
330
A66
100
AcDbEntity
  8
0
  6
ByBlock
 62
     0
100
AcDbLine
 10
-1.0
 20
0.26794919
 30
0.0
 11
0.0
 21
0.0
 31
0.0
  0
LINE
  5
A68
330
A66
100
AcDbEntity
  8
0
  6
ByBlock
 62
     0
100
AcDbLine
 10
0.0
 20
0.0
 30
0.0
 11
-1.0
 21
-0.26794919
 31
0.0
  0
LINE
  5
A69
330
A66
100
AcDbEntity
  8
0
  6
ByBlock
 62
     0
100
AcDbLine
 10
0.0
 20
0.0
 30
0.0
 11
-1.0
 21
0.0
 31
0.0
  0
ENDBLK
  5
A6B
330
A66
100
AcDbEntity
  8
0
100
AcDbBlockEnd
  0
BLOCK
  5
B74F
330
B74E
100
AcDbEntity
  8
0
100
AcDbBlockBegin
  2
GENDOT
 70
     0
 10
0.0
 20
0.0
 30
0.0
  3
GENDOT
  1

  0
LINE
  5
B750
330
B74E
100
AcDbEntity
  8
0
100
AcDbLine
 10
0.0
 20
0.0
 30
0.0
 11
-1.0
 21
0.0
 31
0.0
  0
LWPOLYLINE
  5
B751
330
B74E
100
AcDbEntity
  8
0
100
AcDbPolyline
 90
        2
 70
     1
 43
0.25
 10
-0.125
 20
0.0
 42
1.0
 10
0.125
 20
0.0
 42
1.0
  0
ENDBLK
  5
B752
330
B74E
100
AcDbEntity
  8
0
100
AcDbBlockEnd
  0
BLOCK
  5
BF36
330
BF35
100
AcDbEntity
  8
0
100
AcDbBlockBegin
  2
*D36
 70
     1
 10
0.0
 20
0.0
 30
0.0
  3
*D36
  1

  0
LINE
  5
C0A7
330
BF35
100
AcDbEntity
  8
AM_5
440
 16777216
100
AcDbLine
 10
2962.881350216537
 20
1624.611513073427
 30
0.0
 11
2764.060635785979
 21
1624.611513073427
 31
0.0
  0
LINE
  5
C0A8
330
BF35
100
AcDbEntity
  8
AM_5
440
 16777216
100
AcDbLine
 10
2772.38476421911
 20
1653.911514275975
 30
0.0
 11
2764.060635785979
 21
1653.911514275975
 31
0.0
  0
LINE
  5
C0A9
330
BF35
100
AcDbEntity
  8
AM_5
440
 16777216
100
AcDbLine
 10
2764.060635785979
 20
1625.611513073427
 30
0.0
 11
2764.060635785979
 21
1652.911514275975
 31
0.0
  0
INSERT
  5
C0AA
330
BF35
100
AcDbEntity
  8
AM_5
440
 16777216
100
AcDbBlockReference
  2
_Dot
 10
2764.060635785979
 20
1624.611513073427
 30
0.0
 50
270.0
  0
INSERT
  5
C0AB
330
BF35
100
AcDbEntity
  8
AM_5
440
 16777216
100
AcDbBlockReference
  2
_Dot
 10
2764.060635785979
 20
1653.911514275975
 30
0.0
 50
90.0
  0
MTEXT
  5
C0AC
330
BF35
100
AcDbEntity
  8
AM_5
 62
     2
440
 16777216
100
AcDbMText
 10
2760.960635785978
 20
1640.912512750096
 30
0.0
 40
3.200000000000001
 41
0.0
 46
0.0
 71
     5
 72
     1
  1
（29.3）
 11
0.0000000000000001
 21
1.0
 31
0.0
 73
     1
 44
1.0
  0
POINT
  5
C0AD
330
BF35
100
AcDbEntity
  8
Defpoints
 62
     0
440
 16777216
100
AcDbPoint
 10
2963.881350216537
 20
1624.611513073427
 30
0.0
  0
POINT
  5
C0AE
330
BF35
100
AcDbEntity
  8
Defpoints
 62
     0
440
 16777216
100
AcDbPoint
 10
2773.384764219111
 20
1653.911514275975
 30
0.0
  0
POINT
  5
C0AF
330
BF35
100
AcDbEntity
  8
Defpoints
 62
     0
440
 16777216
100
AcDbPoint
 10
2764.060635785979
 20
1653.911514275975
 30
0.0
  0
ENDBLK
  5
BF37
330
BF35
100
AcDbEntity
  8
0
100
AcDbBlockEnd
  0
BLOCK
  5
BF42
330
BF41
100
AcDbEntity
  8
0
100
AcDbBlockBegin
  2
*D37
 70
     1
 10
0.0
 20
0.0
 30
0.0
  3
*D37
  1

  0
LINE
  5
C0B0
330
BF41
100
AcDbEntity
  8
AM_5
440
 16777216
 48
0.25
100
AcDbLine
 10
2878.465529880419
 20
1628.011512498227
 30
0.0
 11
2858.901438106233
 21
1628.011512498227
 31
0.0
  0
LINE
  5
C0B1
330
BF41
100
AcDbEntity
  8
AM_5
440
 16777216
 48
0.25
100
AcDbLine
 10
2962.881350216537
 20
1624.611513073427
 30
0.0
 11
2858.901438106233
 21
1624.611513073427
 31
0.0
  0
LINE
  5
C0B2
330
BF41
100
AcDbEntity
  8
AM_5
440
 16777216
 48
0.25
100
AcDbLine
 10
2858.901438106233
 20
1629.011512498227
 30
0.0
 11
2858.901438106233
 21
1630.011512498226
 31
0.0
  0
LINE
  5
C0B3
330
BF41
100
AcDbEntity
  8
AM_5
440
 16777216
 48
0.25
100
AcDbLine
 10
2858.901438106233
 20
1623.611513073427
 30
0.0
 11
2858.901438106233
 21
1612.187513073427
 31
0.0
  0
LINE
  5
C0B4
330
BF41
100
AcDbEntity
  8
AM_5
440
 16777216
 48
0.25
100
AcDbLine
 10
2858.901438106233
 20
1628.011512498227
 30
0.0
 11
2858.901438106233
 21
1624.611513073427
 31
0.0
  0
INSERT
  5
C0B5
330
BF41
100
AcDbEntity
  8
AM_5
440
 16777216
 48
0.25
100
AcDbBlockReference
  2
_Dot
 10
2858.901438106233
 20
1628.011512498227
 30
0.0
 50
270.0
  0
INSERT
  5
C0B6
330
BF41
100
AcDbEntity
  8
AM_5
440
 16777216
 48
0.25
100
AcDbBlockReference
  2
_Dot
 10
2858.901438106233
 20
1624.611513073427
 30
0.0
 50
90.0
  0
MTEXT
  5
C0B7
330
BF41
100
AcDbEntity
  8
AM_5
 62
     2
440
 16777216
 48
0.25
100
AcDbMText
 10
2855.801438106232
 20
1617.399513073427
 30
0.0
 40
3.200000000000001
 41
0.0
 46
0.0
 71
     5
 72
     1
  1
（3.4）
 11
0.0000000000000001
 21
1.0
 31
0.0
 73
     1
 44
1.0
  0
POINT
  5
C0B8
330
BF41
100
AcDbEntity
  8
Defpoints
 62
     0
440
 16777216
 48
0.25
100
AcDbPoint
 10
2879.465529880419
 20
1628.011512498227
 30
0.0
  0
POINT
  5
C0B9
330
BF41
100
AcDbEntity
  8
Defpoints
 62
     0
440
 16777216
 48
0.25
100
AcDbPoint
 10
2963.881350216537
 20
1624.611513073427
 30
0.0
  0
POINT
  5
C0BA
330
BF41
100
AcDbEntity
  8
Defpoints
 62
     0
440
 16777216
 48
0.25
100
AcDbPoint
 10
2858.901438106233
 20
1624.611513073427
 30
0.0
  0
ENDBLK
  5
BF43
330
BF41
100
AcDbEntity
  8
0
100
AcDbBlockEnd
  0
BLOCK
  5
BF50
330
BF4F
100
AcDbEntity
  8
0
100
AcDbBlockBegin
  2
*D38
 70
     1
 10
0.0
 20
0.0
 30
0.0
  3
*D38
  1

  0
LINE
  5
C0BB
330
BF4F
100
AcDbEntity
  8
AM_5
440
 16777216
 48
0.25
100
AcDbLine
 10
2878.529038691937
 20
1660.311512964726
 30
0.0
 11
2848.765439732532
 21
1660.311512964726
 31
0.0
  0
LINE
  5
C0BC
330
BF4F
100
AcDbEntity
  8
AM_5
440
 16777216
 48
0.25
100
AcDbLine
 10
2962.881350216537
 20
1624.611513073427
 30
0.0
 11
2848.765439732532
 21
1624.611513073427
 31
0.0
  0
LINE
  5
C0BD
330
BF4F
100
AcDbEntity
  8
AM_5
440
 16777216
 48
0.25
100
AcDbLine
 10
2848.765439732532
 20
1659.311512964726
 30
0.0
 11
2848.765439732532
 21
1625.611513073427
 31
0.0
  0
LINE
  5
C0BE
330
BF4F
100
AcDbEntity
  8
AM_5
440
 16777216
 48
0.25
100
AcDbLine
 10
2848.765439732532
 20
1624.611513073427
 30
0.0
 11
2848.765439732532
 21
1612.150760593986
 31
0.0
  0
INSERT
  5
C0BF
330
BF4F
100
AcDbEntity
  8
AM_5
440
 16777216
 48
0.25
100
AcDbBlockReference
  2
_Dot
 10
2848.765439732532
 20
1660.311512964726
 30
0.0
 50
90.0
  0
INSERT
  5
C0C0
330
BF4F
100
AcDbEntity
  8
AM_5
440
 16777216
 48
0.25
100
AcDbBlockReference
  2
_Dot
 10
2848.765439732532
 20
1624.611513073427
 30
0.0
 50
270.0
  0
MTEXT
  5
C0C1
330
BF4F
100
AcDbEntity
  8
AM_5
 62
     2
440
 16777216
 48
0.25
100
AcDbMText
 10
2845.665439732532
 20
1616.829427260654
 30
0.0
 40
3.200000000000001
 41
0.0
 46
0.0
 71
     5
 72
     1
  1
（36）
 11
0.0000000000000001
 21
1.0
 31
0.0
 73
     1
 44
1.0
  0
POINT
  5
C0C2
330
BF4F
100
AcDbEntity
  8
Defpoints
 62
     0
440
 16777216
 48
0.25
100
AcDbPoint
 10
2879.529038691937
 20
1660.311512964726
 30
0.0
  0
POINT
  5
C0C3
330
BF4F
100
AcDbEntity
  8
Defpoints
 62
     0
440
 16777216
 48
0.25
100
AcDbPoint
 10
2963.881350216537
 20
1624.611513073427
 30
0.0
  0
POINT
  5
C0C4
330
BF4F
100
AcDbEntity
  8
Defpoints
 62
     0
440
 16777216
 48
0.25
100
AcDbPoint
 10
2848.765439732532
 20
1624.611513073427
 30
0.0
  0
ENDBLK
  5
BF51
330
BF4F
100
AcDbEntity
  8
0
100
AcDbBlockEnd
  0
BLOCK
  5
BF5D
330
BF5C
100
AcDbEntity
  8
0
100
AcDbBlockBegin
  2
*D39
 70
     1
 10
0.0
 20
0.0
 30
0.0
  3
*D39
  1

  0
LINE
  5
C0C5
330
BF5C
100
AcDbEntity
  8
AM_5
440
 16777216
 48
0.25
100
AcDbLine
 10
2871.465530365057
 20
1651.66150817246
 30
0.0
 11
2871.465530365057
 21
1665.11150918246
 31
0.0
  0
LINE
  5
C0C6
330
BF5C
100
AcDbEntity
  8
AM_5
440
 16777216
 48
0.25
100
AcDbLine
 10
2891.465530365058
 20
1651.66150817246
 30
0.0
 11
2891.465530365058
 21
1665.11150918246
 31
0.0
  0
LINE
  5
C0C7
330
BF5C
100
AcDbEntity
  8
AM_5
440
 16777216
 48
0.25
100
AcDbLine
 10
2872.465530365058
 20
1665.11150918246
 30
0.0
 11
2890.465530365057
 21
1665.11150918246
 31
0.0
  0
INSERT
  5
C0C8
330
BF5C
100
AcDbEntity
  8
AM_5
440
 16777216
 48
0.25
100
AcDbBlockReference
  2
_Dot
 10
2871.465530365057
 20
1665.11150918246
 30
0.0
 50
180.0
  0
INSERT
  5
C0C9
330
BF5C
100
AcDbEntity
  8
AM_5
440
 16777216
 48
0.25
100
AcDbBlockReference
  2
_Dot
 10
2891.465530365058
 20
1665.11150918246
 30
0.0
  0
MTEXT
  5
C0CA
330
BF5C
100
AcDbEntity
  8
AM_5
 62
     2
440
 16777216
 48
0.25
100
AcDbMText
 10
2881.465530365058
 20
1668.211509182459
 30
0.0
 40
3.200000000000001
 41
0.0
 46
0.0
 71
     5
 72
     1
  1
%%c20
 73
     1
 44
1.0
  0
POINT
  5
C0CB
330
BF5C
100
AcDbEntity
  8
Defpoints
 62
     0
440
 16777216
 48
0.25
100
AcDbPoint
 10
2871.465530365057
 20
1650.66150817246
 30
0.0
  0
POINT
  5
C0CC
330
BF5C
100
AcDbEntity
  8
Defpoints
 62
     0
440
 16777216
 48
0.25
100
AcDbPoint
 10
2891.465530365058
 20
1650.66150817246
 30
0.0
  0
POINT
  5
C0CD
330
BF5C
100
AcDbEntity
  8
Defpoints
 62
     0
440
 16777216
 48
0.25
100
AcDbPoint
 10
2891.465530365058
 20
1665.11150918246
 30
0.0
  0
ENDBLK
  5
BF5E
330
BF5C
100
AcDbEntity
  8
0
100
AcDbBlockEnd
  0
BLOCK
  5
BF69
330
BF68
100
AcDbEntity
  8
0
100
AcDbBlockBegin
  2
*D40
 70
     1
 10
0.0
 20
0.0
 30
0.0
  3
*D40
  1

  0
LINE
  5
C0CE
330
BF68
100
AcDbEntity
  8
AM_5
440
 16777216
 48
0.25
100
AcDbLine
 10
2838.765439732532
 20
1642.311508172459
 30
0.0
 11
2838.765439732532
 21
1641.311508172459
 31
0.0
  0
LINE
  5
C0CF
330
BF68
100
AcDbEntity
  8
AM_5
440
 16777216
 48
0.25
100
AcDbLine
 10
2838.765439732532
 20
1646.311508172459
 30
0.0
 11
2838.765439732532
 21
1652.722931686736
 31
0.0
  0
LINE
  5
C0D0
330
BF68
100
AcDbEntity
  8
AM_5
440
 16777216
 48
0.25
100
AcDbLine
 10
2838.765439732532
 20
1643.311508172459
 30
0.0
 11
2838.765439732532
 21
1645.31150817246
 31
0.0
  0
INSERT
  5
C0D1
330
BF68
100
AcDbEntity
  8
AM_5
440
 16777216
 48
0.25
100
AcDbBlockReference
  2
_Dot
 10
2838.765439732532
 20
1643.311508172459
 30
0.0
 50
90.0
  0
INSERT
  5
C0D2
330
BF68
100
AcDbEntity
  8
AM_5
440
 16777216
 48
0.25
100
AcDbBlockReference
  2
_Dot
 10
2838.765439732532
 20
1645.31150817246
 30
0.0
 50
270.0
  0
MTEXT
  5
C0D3
330
BF68
100
AcDbEntity
  8
AM_5
 62
     2
440
 16777216
 48
0.25
100
AcDbMText
 10
2835.665439732532
 20
1650.476265020071
 30
0.0
 40
3.200000000000001
 41
0.0
 46
0.0
 71
     5
 72
     1
  1
2
 11
0.0000000000000001
 21
1.0
 31
0.0
 73
     1
 44
1.0
  0
POINT
  5
C0D4
330
BF68
100
AcDbEntity
  8
Defpoints
 62
     0
440
 16777216
 48
0.25
100
AcDbPoint
 10
2871.777650212628
 20
1645.31150817246
 30
0.0
  0
POINT
  5
C0D5
330
BF68
100
AcDbEntity
  8
Defpoints
 62
     0
440
 16777216
 48
0.25
100
AcDbPoint
 10
2871.777650212628
 20
1643.311508172459
 30
0.0
  0
POINT
  5
C0D6
330
BF68
100
AcDbEntity
  8
Defpoints
 62
     0
440
 16777216
 48
0.25
100
AcDbPoint
 10
2838.765439732532
 20
1643.311508172459
 30
0.0
  0
ENDBLK
  5
BF6A
330
BF68
100
AcDbEntity
  8
0
100
AcDbBlockEnd
  0
BLOCK
  5
BF81
330
BF80
100
AcDbEntity
  8
0
100
AcDbBlockBegin
  2
*D42
 70
     1
 10
0.0
 20
0.0
 30
0.0
  3
*D42
  1

  0
LINE
  5
C0E0
330
BF80
100
AcDbEntity
  8
AM_5
440
 16777216
100
AcDbLine
 10
2698.181900532333
 20
1755.77631566708
 30
0.0
 11
2706.431375876967
 21
1744.877297778799
 31
0.0
  0
LINE
  5
C0E1
330
BF80
100
AcDbEntity
  8
AM_5
440
 16777216
100
AcDbLine
 10
2712.466532847936
 20
1736.903786611456
 30
0.0
 11
2713.67356424213
 21
1735.309084377987
 31
0.0
  0
LINE
  5
C0E2
330
BF80
100
AcDbEntity
  8
AM_5
440
 16777216
100
AcDbLine
 10
2711.259501453743
 20
1738.498488844925
 30
0.0
 11
2707.638407271161
 21
1743.282595545331
 31
0.0
  0
INSERT
  5
C0E3
330
BF80
100
AcDbEntity
  8
AM_5
440
 16777216
100
AcDbBlockReference
  2
GENDOT
 10
2711.259501453743
 20
1738.498488844925
 30
0.0
 41
2.0
 42
2.0
 43
2.0
 50
127.1221080438322
  0
INSERT
  5
C0E4
330
BF80
100
AcDbEntity
  8
AM_5
440
 16777216
100
AcDbBlockReference
  2
GENDOT
 10
2707.638407271161
 20
1743.282595545331
 30
0.0
 41
2.0
 42
2.0
 43
2.0
 50
307.1221080438322
  0
POINT
  5
C0E5
330
BF80
100
AcDbEntity
  8
Defpoints
 62
     0
440
 16777216
100
AcDbPoint
 10
2707.638407271161
 20
1743.282595545331
 30
0.0
  0
POINT
  5
C0E6
330
BF80
100
AcDbEntity
  8
Defpoints
 62
     0
440
 16777216
100
AcDbPoint
 10
2711.259501453743
 20
1738.498488844925
 30
0.0
  0
ENDBLK
  5
BF82
330
BF80
100
AcDbEntity
  8
0
100
AcDbBlockEnd
  0
BLOCK
  5
BF9F
330
BF9E
100
AcDbEntity
  8
0
100
AcDbBlockBegin
  2
*D45
 70
     1
 10
0.0
 20
0.0
 30
0.0
  3
*D45
  1

  0
LINE
  5
C0F5
330
BF9E
100
AcDbEntity
  8
AM_5
440
 16777216
100
AcDbLine
 10
3005.762214152022
 20
1756.238381958473
 30
0.0
 11
2994.952968144712
 21
1732.750913034763
 31
0.0
  0
LINE
  5
C0F6
330
BF9E
100
AcDbEntity
  8
AM_5
440
 16777216
100
AcDbLine
 10
2990.939538995909
 20
1724.030111200271
 30
0.0
 11
2990.103407914936
 21
1722.213277466703
 31
0.0
  0
LINE
  5
C0F7
330
BF9E
100
AcDbEntity
  8
AM_5
440
 16777216
100
AcDbLine
 10
2991.775670076883
 20
1725.846944933839
 30
0.0
 11
2994.116837063739
 21
1730.934079301195
 31
0.0
  0
INSERT
  5
C0F8
330
BF9E
100
AcDbEntity
  8
AM_5
440
 16777216
100
AcDbBlockReference
  2
GENDOT
 10
2991.775670076883
 20
1725.846944933839
 30
0.0
 41
2.0
 42
2.0
 43
2.0
 50
65.28748291410835
  0
INSERT
  5
C0F9
330
BF9E
100
AcDbEntity
  8
AM_5
440
 16777216
100
AcDbBlockReference
  2
GENDOT
 10
2994.116837063739
 20
1730.934079301195
 30
0.0
 41
2.0
 42
2.0
 43
2.0
 50
245.2874829141084
  0
POINT
  5
C0FA
330
BF9E
100
AcDbEntity
  8
Defpoints
 62
     0
440
 16777216
100
AcDbPoint
 10
2994.116837063739
 20
1730.934079301195
 30
0.0
  0
POINT
  5
C0FB
330
BF9E
100
AcDbEntity
  8
Defpoints
 62
     0
440
 16777216
100
AcDbPoint
 10
2991.775670076883
 20
1725.846944933839
 30
0.0
  0
ENDBLK
  5
BFA0
330
BF9E
100
AcDbEntity
  8
0
100
AcDbBlockEnd
  0
BLOCK
  5
BFA9
330
BFA8
100
AcDbEntity
  8
0
100
AcDbBlockBegin
  2
*D46
 70
     1
 10
0.0
 20
0.0
 30
0.0
  3
*D46
  1

  0
LINE
  5
C0FC
330
BFA8
100
AcDbEntity
  8
AM_5
440
 16777216
100
AcDbLine
 10
2715.448954362452
 20
1715.890542195127
 30
0.0
 11
2725.118487115905
 21
1715.890542195127
 31
0.0
  0
LINE
  5
C0FD
330
BFA8
100
AcDbEntity
  8
AM_5
440
 16777216
100
AcDbLine
 10
2715.448954362452
 20
1740.890542195128
 30
0.0
 11
2725.118487115905
 21
1740.890542195128
 31
0.0
  0
LINE
  5
C0FE
330
BFA8
100
AcDbEntity
  8
AM_5
440
 16777216
100
AcDbLine
 10
2725.118487115905
 20
1716.890542195127
 30
0.0
 11
2725.118487115905
 21
1739.890542195128
 31
0.0
  0
INSERT
  5
C0FF
330
BFA8
100
AcDbEntity
  8
AM_5
440
 16777216
100
AcDbBlockReference
  2
_Dot
 10
2725.118487115905
 20
1715.890542195127
 30
0.0
 50
270.0
  0
INSERT
  5
C100
330
BFA8
100
AcDbEntity
  8
AM_5
440
 16777216
100
AcDbBlockReference
  2
_Dot
 10
2725.118487115905
 20
1740.890542195128
 30
0.0
 50
90.0
  0
MTEXT
  5
C101
330
BFA8
100
AcDbEntity
  8
AM_5
 62
     2
440
 16777216
100
AcDbMText
 10
2722.018487115906
 20
1728.391542195128
 30
0.0
 40
3.200000000000001
 41
0.0
 46
0.0
 71
     5
 72
     1
  1
25
 11
0.0000000000000001
 21
1.0
 31
0.0
 73
     1
 44
1.0
  0
POINT
  5
C102
330
BFA8
100
AcDbEntity
  8
Defpoints
 62
     0
440
 16777216
100
AcDbPoint
 10
2714.448954362453
 20
1715.890542195127
 30
0.0
  0
POINT
  5
C103
330
BFA8
100
AcDbEntity
  8
Defpoints
 62
     0
440
 16777216
100
AcDbPoint
 10
2714.448954362453
 20
1740.890542195128
 30
0.0
  0
POINT
  5
C104
330
BFA8
100
AcDbEntity
  8
Defpoints
 62
     0
440
 16777216
100
AcDbPoint
 10
2725.118487115905
 20
1740.890542195128
 30
0.0
  0
ENDBLK
  5
BFAA
330
BFA8
100
AcDbEntity
  8
0
100
AcDbBlockEnd
  0
BLOCK
  5
BFB5
330
BFB4
100
AcDbEntity
  8
0
100
AcDbBlockBegin
  2
*D47
 70
     1
 10
0.0
 20
0.0
 30
0.0
  3
*D47
  1

  0
LINE
  5
C105
330
BFB4
100
AcDbEntity
  8
AM_5
440
 16777216
100
AcDbLine
 10
2710.448954362453
 20
1710.140542195128
 30
0.0
 11
2733.372466870739
 21
1710.140542195128
 31
0.0
  0
LINE
  5
C106
330
BFB4
100
AcDbEntity
  8
AM_5
440
 16777216
100
AcDbLine
 10
2710.448954362453
 20
1746.640542195128
 30
0.0
 11
2733.372466870739
 21
1746.640542195128
 31
0.0
  0
LINE
  5
C107
330
BFB4
100
AcDbEntity
  8
AM_5
440
 16777216
100
AcDbLine
 10
2733.372466870739
 20
1711.140542195128
 30
0.0
 11
2733.372466870739
 21
1745.640542195127
 31
0.0
  0
INSERT
  5
C108
330
BFB4
100
AcDbEntity
  8
AM_5
440
 16777216
100
AcDbBlockReference
  2
_Dot
 10
2733.372466870739
 20
1710.140542195128
 30
0.0
 50
270.0
  0
INSERT
  5
C109
330
BFB4
100
AcDbEntity
  8
AM_5
440
 16777216
100
AcDbBlockReference
  2
_Dot
 10
2733.372466870739
 20
1746.640542195128
 30
0.0
 50
90.0
  0
MTEXT
  5
C10A
330
BFB4
100
AcDbEntity
  8
AM_5
 62
     2
440
 16777216
100
AcDbMText
 10
2730.272466870739
 20
1728.391542195128
 30
0.0
 40
3.200000000000001
 41
0.0
 46
0.0
 71
     5
 72
     1
  1
36.5
 11
0.0000000000000001
 21
1.0
 31
0.0
 73
     1
 44
1.0
  0
POINT
  5
C10B
330
BFB4
100
AcDbEntity
  8
Defpoints
 62
     0
440
 16777216
100
AcDbPoint
 10
2709.448954362452
 20
1710.140542195128
 30
0.0
  0
POINT
  5
C10C
330
BFB4
100
AcDbEntity
  8
Defpoints
 62
     0
440
 16777216
100
AcDbPoint
 10
2709.448954362452
 20
1746.640542195128
 30
0.0
  0
POINT
  5
C10D
330
BFB4
100
AcDbEntity
  8
Defpoints
 62
     0
440
 16777216
100
AcDbPoint
 10
2733.372466870739
 20
1746.640542195128
 30
0.0
  0
ENDBLK
  5
BFB6
330
BFB4
100
AcDbEntity
  8
0
100
AcDbBlockEnd
  0
BLOCK
  5
BFC1
330
BFC0
100
AcDbEntity
  8
0
100
AcDbBlockBegin
  2
*D48
 70
     1
 10
0.0
 20
0.0
 30
0.0
  3
*D48
  1

  0
LINE
  5
C10E
330
BFC0
100
AcDbEntity
  8
AM_5
440
 16777216
 48
0.25
100
AcDbLine
 10
2983.946244461407
 20
1715.390542195127
 30
0.0
 11
3007.486144655172
 21
1715.390542195127
 31
0.0
  0
LINE
  5
C10F
330
BFC0
100
AcDbEntity
  8
AM_5
440
 16777216
 48
0.25
100
AcDbLine
 10
2983.946244461407
 20
1741.390542195128
 30
0.0
 11
3007.486144655172
 21
1741.390542195128
 31
0.0
  0
LINE
  5
C110
330
BFC0
100
AcDbEntity
  8
AM_5
440
 16777216
 48
0.25
100
AcDbLine
 10
3007.486144655172
 20
1716.390542195127
 30
0.0
 11
3007.486144655172
 21
1740.390542195128
 31
0.0
  0
INSERT
  5
C111
330
BFC0
100
AcDbEntity
  8
AM_5
440
 16777216
 48
0.25
100
AcDbBlockReference
  2
_Dot
 10
3007.486144655172
 20
1715.390542195127
 30
0.0
 50
270.0
  0
INSERT
  5
C112
330
BFC0
100
AcDbEntity
  8
AM_5
440
 16777216
 48
0.25
100
AcDbBlockReference
  2
_Dot
 10
3007.486144655172
 20
1741.390542195128
 30
0.0
 50
90.0
  0
MTEXT
  5
C113
330
BFC0
100
AcDbEntity
  8
AM_5
 62
     2
440
 16777216
 48
0.25
100
AcDbMText
 10
3004.386144655172
 20
1728.391542195128
 30
0.0
 40
3.200000000000001
 41
0.0
 46
0.0
 71
     5
 72
     1
  1
%%c26
 11
0.0000000000000001
 21
1.0
 31
0.0
 73
     1
 44
1.0
  0
POINT
  5
C114
330
BFC0
100
AcDbEntity
  8
Defpoints
 62
     0
440
 16777216
 48
0.25
100
AcDbPoint
 10
2982.946244461407
 20
1715.390542195127
 30
0.0
  0
POINT
  5
C115
330
BFC0
100
AcDbEntity
  8
Defpoints
 62
     0
440
 16777216
 48
0.25
100
AcDbPoint
 10
2982.946244461407
 20
1741.390542195128
 30
0.0
  0
POINT
  5
C116
330
BFC0
100
AcDbEntity
  8
Defpoints
 62
     0
440
 16777216
 48
0.25
100
AcDbPoint
 10
3007.486144655172
 20
1741.390542195128
 30
0.0
  0
ENDBLK
  5
BFC2
330
BFC0
100
AcDbEntity
  8
0
100
AcDbBlockEnd
  0
BLOCK
  5
BFCD
330
BFCC
100
AcDbEntity
  8
0
100
AcDbBlockBegin
  2
*D49
 70
     1
 10
0.0
 20
0.0
 30
0.0
  3
*D49
  1

  0
LINE
  5
C117
330
BFCC
100
AcDbEntity
  8
AM_5
440
 16777216
100
AcDbLine
 10
2983.946244461407
 20
1712.390542195128
 30
0.0
 11
3017.000487847712
 21
1712.390542195128
 31
0.0
  0
LINE
  5
C118
330
BFCC
100
AcDbEntity
  8
AM_5
440
 16777216
100
AcDbLine
 10
2983.946244461407
 20
1744.390542195128
 30
0.0
 11
3017.000487847712
 21
1744.390542195128
 31
0.0
  0
LINE
  5
C119
330
BFCC
100
AcDbEntity
  8
AM_5
440
 16777216
100
AcDbLine
 10
3017.000487847712
 20
1713.390542195127
 30
0.0
 11
3017.000487847712
 21
1743.390542195128
 31
0.0
  0
INSERT
  5
C11A
330
BFCC
100
AcDbEntity
  8
AM_5
440
 16777216
100
AcDbBlockReference
  2
_Dot
 10
3017.000487847712
 20
1712.390542195128
 30
0.0
 50
270.0
  0
INSERT
  5
C11B
330
BFCC
100
AcDbEntity
  8
AM_5
440
 16777216
100
AcDbBlockReference
  2
_Dot
 10
3017.000487847712
 20
1744.390542195128
 30
0.0
 50
90.0
  0
MTEXT
  5
C11C
330
BFCC
100
AcDbEntity
  8
AM_5
 62
     2
440
 16777216
100
AcDbMText
 10
3013.900487847712
 20
1728.391542195128
 30
0.0
 40
3.200000000000001
 41
0.0
 46
0.0
 71
     5
 72
     1
  1
%%c32
 11
0.0000000000000001
 21
1.0
 31
0.0
 73
     1
 44
1.0
  0
POINT
  5
C11D
330
BFCC
100
AcDbEntity
  8
Defpoints
 62
     0
440
 16777216
100
AcDbPoint
 10
2982.946244461407
 20
1712.390542195128
 30
0.0
  0
POINT
  5
C11E
330
BFCC
100
AcDbEntity
  8
Defpoints
 62
     0
440
 16777216
100
AcDbPoint
 10
2982.946244461407
 20
1744.390542195128
 30
0.0
  0
POINT
  5
C11F
330
BFCC
100
AcDbEntity
  8
Defpoints
 62
     0
440
 16777216
100
AcDbPoint
 10
3017.000487847712
 20
1744.390542195128
 30
0.0
  0
ENDBLK
  5
BFCE
330
BFCC
100
AcDbEntity
  8
0
100
AcDbBlockEnd
  0
BLOCK
  5
BFD9
330
BFD8
100
AcDbEntity
  8
0
100
AcDbBlockBegin
  2
*D50
 70
     1
 10
0.0
 20
0.0
 30
0.0
  3
*D50
  1

  0
LINE
  5
C29C
330
BFD8
100
AcDbEntity
  8
AM_5
440
 16777216
 48
0.25
100
AcDbLine
 10
2979.946244461407
 20
1747.930542195127
 30
0.0
 11
2979.946244461407
 21
1766.942338828931
 31
0.0
  0
LINE
  5
C29D
330
BFD8
100
AcDbEntity
  8
AM_5
440
 16777216
 48
0.25
100
AcDbLine
 10
2782.984755063817
 20
1737.930542195128
 30
0.0
 11
2782.984755063817
 21
1766.942338828931
 31
0.0
  0
LINE
  5
C29E
330
BFD8
100
AcDbEntity
  8
AM_5
440
 16777216
 48
0.25
100
AcDbLine
 10
2978.946244461407
 20
1766.942338828931
 30
0.0
 11
2783.984755063817
 21
1766.942338828931
 31
0.0
  0
INSERT
  5
C29F
330
BFD8
100
AcDbEntity
  8
AM_5
440
 16777216
 48
0.25
100
AcDbBlockReference
  2
_Dot
 10
2979.946244461407
 20
1766.942338828931
 30
0.0
  0
INSERT
  5
C2A0
330
BFD8
100
AcDbEntity
  8
AM_5
440
 16777216
 48
0.25
100
AcDbBlockReference
  2
_Dot
 10
2782.984755063817
 20
1766.942338828931
 30
0.0
 50
180.0
  0
MTEXT
  5
C2A1
330
BFD8
100
AcDbEntity
  8
AM_5
 62
     2
440
 16777216
 48
0.25
100
AcDbMText
 10
2881.467499762612
 20
1770.042338828931
 30
0.0
 40
3.200000000000001
 41
0.0
 46
0.0
 71
     5
 72
     1
  1
A
 73
     1
 44
1.0
  0
POINT
  5
C2A2
330
BFD8
100
AcDbEntity
  8
Defpoints
 62
     0
440
 16777216
 48
0.25
100
AcDbPoint
 10
2979.946244461407
 20
1746.930542195127
 30
0.0
  0
POINT
  5
C2A3
330
BFD8
100
AcDbEntity
  8
Defpoints
 62
     0
440
 16777216
 48
0.25
100
AcDbPoint
 10
2782.984755063817
 20
1736.930542195128
 30
0.0
  0
POINT
  5
C2A4
330
BFD8
100
AcDbEntity
  8
Defpoints
 62
     0
440
 16777216
 48
0.25
100
AcDbPoint
 10
2782.984755063817
 20
1766.942338828931
 30
0.0
  0
ENDBLK
  5
BFDA
330
BFD8
100
AcDbEntity
  8
0
100
AcDbBlockEnd
  0
BLOCK
  5
BFE5
330
BFE4
100
AcDbEntity
  8
0
100
AcDbBlockBegin
  2
*D51
 70
     1
 10
0.0
 20
0.0
 30
0.0
  3
*D51
  1

  0
LINE
  5
C129
330
BFE4
100
AcDbEntity
  8
AM_5
440
 16777216
100
AcDbLine
 10
2715.948954362453
 20
1745.239884541319
 30
0.0
 11
2715.948954362453
 21
1755.776315667079
 31
0.0
  0
LINE
  5
C12A
330
BFE4
100
AcDbEntity
  8
AM_5
440
 16777216
100
AcDbLine
 10
2702.948954362452
 20
1745.239884541319
 30
0.0
 11
2702.948954362452
 21
1755.776315667079
 31
0.0
  0
LINE
  5
C12B
330
BFE4
100
AcDbEntity
  8
AM_5
440
 16777216
100
AcDbLine
 10
2714.948954362452
 20
1755.776315667079
 30
0.0
 11
2703.948954362453
 21
1755.776315667079
 31
0.0
  0
INSERT
  5
C12C
330
BFE4
100
AcDbEntity
  8
AM_5
440
 16777216
100
AcDbBlockReference
  2
_Dot
 10
2715.948954362453
 20
1755.776315667079
 30
0.0
  0
INSERT
  5
C12D
330
BFE4
100
AcDbEntity
  8
AM_5
440
 16777216
100
AcDbBlockReference
  2
_Dot
 10
2702.948954362452
 20
1755.776315667079
 30
0.0
 50
180.0
  0
MTEXT
  5
C12E
330
BFE4
100
AcDbEntity
  8
AM_5
 62
     2
440
 16777216
100
AcDbMText
 10
2709.450954362452
 20
1758.876315667079
 30
0.0
 40
3.200000000000001
 41
0.0
 46
0.0
 71
     5
 72
     1
  1
13
 73
     1
 44
1.0
  0
POINT
  5
C12F
330
BFE4
100
AcDbEntity
  8
Defpoints
 62
     0
440
 16777216
100
AcDbPoint
 10
2715.948954362453
 20
1744.239884541319
 30
0.0
  0
POINT
  5
C130
330
BFE4
100
AcDbEntity
  8
Defpoints
 62
     0
440
 16777216
100
AcDbPoint
 10
2702.948954362452
 20
1744.239884541319
 30
0.0
  0
POINT
  5
C131
330
BFE4
100
AcDbEntity
  8
Defpoints
 62
     0
440
 16777216
100
AcDbPoint
 10
2702.948954362452
 20
1755.776315667079
 30
0.0
  0
ENDBLK
  5
BFE6
330
BFE4
100
AcDbEntity
  8
0
100
AcDbBlockEnd
  0
BLOCK
  5
C053
330
C052
100
AcDbEntity
  8
0
100
AcDbBlockBegin
  2
*D60
 70
     1
 10
0.0
 20
0.0
 30
0.0
  3
*D60
  1

  0
LINE
  5
C17C
330
C052
100
AcDbEntity
  8
AM_5
440
 16777216
 48
0.25
100
AcDbLine
 10
2775.38476421909
 20
1747.640542195128
 30
0.0
 11
2775.38476421909
 21
1766.942338828931
 31
0.0
  0
LINE
  5
C17D
330
C052
100
AcDbEntity
  8
AM_5
440
 16777216
 48
0.25
100
AcDbLine
 10
2782.984755063817
 20
1737.930542195128
 30
0.0
 11
2782.984755063817
 21
1766.942338828931
 31
0.0
  0
LINE
  5
C17E
330
C052
100
AcDbEntity
  8
AM_5
440
 16777216
 48
0.25
100
AcDbLine
 10
2776.38476421909
 20
1766.942338828931
 30
0.0
 11
2781.984755063817
 21
1766.942338828931
 31
0.0
  0
INSERT
  5
C17F
330
C052
100
AcDbEntity
  8
AM_5
440
 16777216
 48
0.25
100
AcDbBlockReference
  2
_Dot
 10
2775.38476421909
 20
1766.942338828931
 30
0.0
 50
180.0
  0
INSERT
  5
C180
330
C052
100
AcDbEntity
  8
AM_5
440
 16777216
 48
0.25
100
AcDbBlockReference
  2
_Dot
 10
2782.984755063817
 20
1766.942338828931
 30
0.0
  0
MTEXT
  5
C181
330
C052
100
AcDbEntity
  8
AM_5
 62
     2
440
 16777216
 48
0.25
100
AcDbMText
 10
2779.06989193589
 20
1770.042338828931
 30
0.0
 40
3.200000000000001
 41
0.0
 46
0.0
 71
     5
 72
     1
  1
7.6
 73
     1
 44
1.0
  0
POINT
  5
C182
330
C052
100
AcDbEntity
  8
Defpoints
 62
     0
440
 16777216
 48
0.25
100
AcDbPoint
 10
2775.38476421909
 20
1746.640542195128
 30
0.0
  0
POINT
  5
C183
330
C052
100
AcDbEntity
  8
Defpoints
 62
     0
440
 16777216
 48
0.25
100
AcDbPoint
 10
2782.984755063817
 20
1736.930542195128
 30
0.0
  0
POINT
  5
C184
330
C052
100
AcDbEntity
  8
Defpoints
 62
     0
440
 16777216
 48
0.25
100
AcDbPoint
 10
2782.984755063817
 20
1766.942338828931
 30
0.0
  0
ENDBLK
  5
C054
330
C052
100
AcDbEntity
  8
0
100
AcDbBlockEnd
  0
BLOCK
  5
C05F
330
C05E
100
AcDbEntity
  8
0
100
AcDbBlockBegin
  2
*D61
 70
     1
 10
0.0
 20
0.0
 30
0.0
  3
*D61
  1

  0
LINE
  5
C2AE
330
C05E
100
AcDbEntity
  8
AM_5
440
 16777216
 48
0.25
100
AcDbLine
 10
2881.291881814465
 20
1744.770552274562
 30
0.0
 11
2877.184584384721
 21
1721.476962611269
 31
0.0
  0
LINE
  5
C2AF
330
C05E
100
AcDbEntity
  8
AM_5
440
 16777216
 48
0.25
100
AcDbLine
 10
2979.772612689491
 20
1727.405703891414
 30
0.0
 11
2975.665315259746
 21
1704.112114228121
 31
0.0
  0
LINE
  5
C2B0
330
C05E
100
AcDbEntity
  8
AM_5
440
 16777216
 48
0.25
100
AcDbLine
 10
2878.169392071979
 20
1721.303314060697
 30
0.0
 11
2974.680507572488
 21
1704.285762778695
 31
0.0
  0
INSERT
  5
C2B1
330
C05E
100
AcDbEntity
  8
AM_5
440
 16777216
 48
0.25
100
AcDbBlockReference
  2
_Dot
 10
2877.184584384721
 20
1721.476962611269
 30
0.0
 50
169.9999783044579
  0
INSERT
  5
C2B2
330
C05E
100
AcDbEntity
  8
AM_5
440
 16777216
 48
0.25
100
AcDbBlockReference
  2
_Dot
 10
2975.665315259746
 20
1704.112114228121
 30
0.0
 50
349.9999783044579
  0
MTEXT
  5
C2B3
330
C05E
100
AcDbEntity
  8
AM_5
 62
     2
440
 16777216
 48
0.25
100
AcDbMText
 10
2926.963260329009
 20
1715.847442250198
 30
0.0
 40
3.200000000000001
 41
0.0
 46
0.0
 71
     5
 72
     1
  1
B
 11
0.9848076872587544
 21
-0.1736485505728852
 31
0.0
 73
     1
 44
1.0
  0
POINT
  5
C2B4
330
C05E
100
AcDbEntity
  8
Defpoints
 62
     0
440
 16777216
 48
0.25
100
AcDbPoint
 10
2881.465530365037
 20
1745.755359961821
 30
0.0
  0
POINT
  5
C2B5
330
C05E
100
AcDbEntity
  8
Defpoints
 62
     0
440
 16777216
 48
0.25
100
AcDbPoint
 10
2979.946261240064
 20
1728.390511578673
 30
0.0
  0
POINT
  5
C2B6
330
C05E
100
AcDbEntity
  8
Defpoints
 62
     0
440
 16777216
 48
0.25
100
AcDbPoint
 10
2975.665315259746
 20
1704.112114228121
 30
0.0
  0
ENDBLK
  5
C060
330
C05E
100
AcDbEntity
  8
0
100
AcDbBlockEnd
  0
ENDSEC
  0
SECTION
  2
ENTITIES
  0
LINE
  5
BC46
330
1F
100
AcDbEntity
  8
size
100
AcDbLine
 10
2632.043139737103
 20
1538.597192696481
 30
0.0
 11
3052.043139737103
 21
1538.597192696481
 31
0.0
1001
GENIUS_GENREC_14
1002
{
1000
PYDIR
1011
2632.043139737103
1021
1835.597192696481
1031
0.0
1002
}
1002
{
1000
PXDIR
1011
3052.043139737103
1021
1538.597192696481
1031
0.0
1002
}
1002
{
1000
PORI
1011
2632.043139737103
1021
1538.597192696481
1031
0.0
1002
}
1002
{
1000
PINS
1011
2842.043139737103
1021
1687.097192696481
1031
0.0
1002
}
1002
{
1000
HVAL
1000
297
1002
}
1002
{
1000
H
1070
     2
1002
}
1002
{
1000
WVAL
1000
420
1002
}
1002
{
1000
W
1070
     2
1002
}
1002
{
1000
C
1070
     4
1002
}
1001
GENIUS_GENOBJ-N-REC_13
1002
{
1000
OWNER
1000
GEN
1002
}
1001
GENIUS_GENODEF_13
1002
{
1000
HIER
1070
     0
1002
}
1002
{
1000
MANEDIT
1070
     0
1002
}
1002
{
1000
NOSEL
1070
     0
1002
}
1002
{
1000
BEHIND
1070
     0
1002
}
1002
{
1000
OTHER
1070
     0
1002
}
1002
{
1000
REACTOR
1002
}
  0
LINE
  5
BC47
330
1F
100
AcDbEntity
  8
size
100
AcDbLine
 10
3052.043139737103
 20
1538.597192696481
 30
0.0
 11
3052.043139737103
 21
1835.597192696481
 31
0.0
1001
GENIUS_GENREC_14
1002
{
1000
PYDIR
1011
2632.043139737103
1021
1835.597192696481
1031
0.0
1002
}
1002
{
1000
PXDIR
1011
3052.043139737103
1021
1538.597192696481
1031
0.0
1002
}
1002
{
1000
PORI
1011
2632.043139737103
1021
1538.597192696481
1031
0.0
1002
}
1002
{
1000
PINS
1011
2842.043139737103
1021
1687.097192696481
1031
0.0
1002
}
1002
{
1000
HVAL
1000
297
1002
}
1002
{
1000
H
1070
     2
1002
}
1002
{
1000
WVAL
1000
420
1002
}
1002
{
1000
W
1070
     2
1002
}
1002
{
1000
C
1070
     4
1002
}
1001
GENIUS_GENOBJ-N-REC_13
1002
{
1000
OWNER
1000
GEN
1002
}
1001
GENIUS_GENODEF_13
1002
{
1000
HIER
1070
     0
1002
}
1002
{
1000
MANEDIT
1070
     0
1002
}
1002
{
1000
NOSEL
1070
     0
1002
}
1002
{
1000
BEHIND
1070
     0
1002
}
1002
{
1000
OTHER
1070
     0
1002
}
1002
{
1000
REACTOR
1002
}
  0
LINE
  5
BC48
330
1F
100
AcDbEntity
  8
size
100
AcDbLine
 10
3052.043139737103
 20
1835.597192696481
 30
0.0
 11
2632.043139737103
 21
1835.597192696481
 31
0.0
1001
GENIUS_GENREC_14
1002
{
1000
PYDIR
1011
2632.043139737103
1021
1835.597192696481
1031
0.0
1002
}
1002
{
1000
PXDIR
1011
3052.043139737103
1021
1538.597192696481
1031
0.0
1002
}
1002
{
1000
PORI
1011
2632.043139737103
1021
1538.597192696481
1031
0.0
1002
}
1002
{
1000
PINS
1011
2842.043139737103
1021
1687.097192696481
1031
0.0
1002
}
1002
{
1000
HVAL
1000
297
1002
}
1002
{
1000
H
1070
     2
1002
}
1002
{
1000
WVAL
1000
420
1002
}
1002
{
1000
W
1070
     2
1002
}
1002
{
1000
C
1070
     4
1002
}
1001
GENIUS_GENOBJ-N-REC_13
1002
{
1000
OWNER
1000
GEN
1002
}
1001
GENIUS_GENODEF_13
1002
{
1000
HIER
1070
     0
1002
}
1002
{
1000
MANEDIT
1070
     0
1002
}
1002
{
1000
NOSEL
1070
     0
1002
}
1002
{
1000
BEHIND
1070
     0
1002
}
1002
{
1000
OTHER
1070
     0
1002
}
1002
{
1000
REACTOR
1002
}
  0
LINE
  5
BC49
330
1F
100
AcDbEntity
  8
size
100
AcDbLine
 10
2632.043139737103
 20
1835.597192696481
 30
0.0
 11
2632.043139737103
 21
1538.597192696481
 31
0.0
1001
GENIUS_GENREC_14
1002
{
1000
PYDIR
1011
2632.043139737103
1021
1835.597192696481
1031
0.0
1002
}
1002
{
1000
PXDIR
1011
3052.043139737103
1021
1538.597192696481
1031
0.0
1002
}
1002
{
1000
PORI
1011
2632.043139737103
1021
1538.597192696481
1031
0.0
1002
}
1002
{
1000
PINS
1011
2842.043139737103
1021
1687.097192696481
1031
0.0
1002
}
1002
{
1000
HVAL
1000
297
1002
}
1002
{
1000
H
1070
     2
1002
}
1002
{
1000
WVAL
1000
420
1002
}
1002
{
1000
W
1070
     2
1002
}
1002
{
1000
C
1070
     4
1002
}
1001
GENIUS_GENOBJ-N-REC_13
1002
{
1000
OWNER
1000
GEN
1002
}
1001
GENIUS_GENODEF_13
1002
{
1000
HIER
1070
     0
1002
}
1002
{
1000
MANEDIT
1070
     0
1002
}
1002
{
1000
NOSEL
1070
     0
1002
}
1002
{
1000
BEHIND
1070
     0
1002
}
1002
{
1000
OTHER
1070
     0
1002
}
1002
{
1000
REACTOR
1002
}
  0
LINE
  5
BC4A
330
1F
100
AcDbEntity
  8
waku
100
AcDbLine
 10
3040.543139737103
 20
1547.097192696481
 30
0.0
 11
3040.543139737103
 21
1827.097192696481
 31
0.0
1001
GENIUS_GENREC_14
1002
{
1000
PYDIR
1011
2632.043139737103
1021
1835.597192696481
1031
0.0
1002
}
1002
{
1000
PXDIR
1011
3052.043139737103
1021
1538.597192696481
1031
0.0
1002
}
1002
{
1000
PORI
1011
2632.043139737103
1021
1538.597192696481
1031
0.0
1002
}
1002
{
1000
PINS
1011
2842.043139737103
1021
1687.097192696481
1031
0.0
1002
}
1002
{
1000
HVAL
1000
297
1002
}
1002
{
1000
H
1070
     2
1002
}
1002
{
1000
WVAL
1000
420
1002
}
1002
{
1000
W
1070
     2
1002
}
1002
{
1000
C
1070
     4
1002
}
1001
GENIUS_GENOBJ-N-REC_13
1002
{
1000
OWNER
1000
GEN
1002
}
1001
GENIUS_GENODEF_13
1002
{
1000
HIER
1070
     0
1002
}
1002
{
1000
MANEDIT
1070
     0
1002
}
1002
{
1000
NOSEL
1070
     0
1002
}
1002
{
1000
BEHIND
1070
     0
1002
}
1002
{
1000
OTHER
1070
     0
1002
}
1002
{
1000
REACTOR
1002
}
  0
LINE
  5
BC4B
330
1F
100
AcDbEntity
  8
waku
100
AcDbLine
 10
2643.543139737103
 20
1827.097192696481
 30
0.0
 11
2643.543139737103
 21
1547.097192696481
 31
0.0
1001
GENIUS_GENREC_14
1002
{
1000
PYDIR
1011
2632.043139737103
1021
1835.597192696481
1031
0.0
1002
}
1002
{
1000
PXDIR
1011
3052.043139737103
1021
1538.597192696481
1031
0.0
1002
}
1002
{
1000
PORI
1011
2632.043139737103
1021
1538.597192696481
1031
0.0
1002
}
1002
{
1000
PINS
1011
2842.043139737103
1021
1687.097192696481
1031
0.0
1002
}
1002
{
1000
HVAL
1000
297
1002
}
1002
{
1000
H
1070
     2
1002
}
1002
{
1000
WVAL
1000
420
1002
}
1002
{
1000
W
1070
     2
1002
}
1002
{
1000
C
1070
     4
1002
}
1001
GENIUS_GENOBJ-N-REC_13
1002
{
1000
OWNER
1000
GEN
1002
}
1001
GENIUS_GENODEF_13
1002
{
1000
HIER
1070
     0
1002
}
1002
{
1000
MANEDIT
1070
     0
1002
}
1002
{
1000
NOSEL
1070
     0
1002
}
1002
{
1000
BEHIND
1070
     0
1002
}
1002
{
1000
OTHER
1070
     0
1002
}
1002
{
1000
REACTOR
1002
}
  0
LINE
  5
BC4C
330
1F
100
AcDbEntity
  8
waku
100
AcDbLine
 10
3040.543139737103
 20
1827.097192696481
 30
0.0
 11
2643.543139737103
 21
1827.097192696481
 31
0.0
1001
GENIUS_GENREC_14
1002
{
1000
PYDIR
1011
2632.043139737103
1021
1835.597192696481
1031
0.0
1002
}
1002
{
1000
PXDIR
1011
3052.043139737103
1021
1538.597192696481
1031
0.0
1002
}
1002
{
1000
PORI
1011
2632.043139737103
1021
1538.597192696481
1031
0.0
1002
}
1002
{
1000
PINS
1011
2842.043139737103
1021
1687.097192696481
1031
0.0
1002
}
1002
{
1000
HVAL
1000
297
1002
}
1002
{
1000
H
1070
     2
1002
}
1002
{
1000
WVAL
1000
420
1002
}
1002
{
1000
W
1070
     2
1002
}
1002
{
1000
C
1070
     4
1002
}
1001
GENIUS_GENOBJ-N-REC_13
1002
{
1000
OWNER
1000
GEN
1002
}
1001
GENIUS_GENODEF_13
1002
{
1000
HIER
1070
     0
1002
}
1002
{
1000
MANEDIT
1070
     0
1002
}
1002
{
1000
NOSEL
1070
     0
1002
}
1002
{
1000
BEHIND
1070
     0
1002
}
1002
{
1000
OTHER
1070
     0
1002
}
1002
{
1000
REACTOR
1002
}
  0
LINE
  5
BC4D
330
1F
100
AcDbEntity
  8
waku
100
AcDbLine
 10
2643.543139737103
 20
1547.097192696481
 30
0.0
 11
3040.543139737103
 21
1547.097192696481
 31
0.0
  0
LINE
  5
BC4E
330
1F
100
AcDbEntity
  8
AM_2
100
AcDbLine
 10
2643.543139737094
 20
1638.935283079959
 30
0.0
 11
2743.543139737094
 21
1638.935283079959
 31
0.0
  0
LINE
  5
BC4F
330
1F
100
AcDbEntity
  8
AM_2
100
AcDbLine
 10
2643.543139737094
 20
1646.935283079959
 30
0.0
 11
2743.543139737094
 21
1646.935283079959
 31
0.0
  0
LINE
  5
BC50
330
1F
100
AcDbEntity
  8
AM_2
100
AcDbLine
 10
2663.543139737096
 20
1654.935283079959
 30
0.0
 11
2663.543139737102
 21
1547.097192696481
 31
0.0
  0
MTEXT
  5
BC51
330
1F
100
AcDbEntity
  8
AM_6
100
AcDbMText
 10
2653.543139737094
 20
1626.935283079959
 30
0.0
 40
3.2
 41
19.99999999999971
 46
8.000000000000042
 71
     5
 72
     5
  1
仕上げ
 73
     1
 44
1.0
  0
MTEXT
  5
BC52
330
1F
100
AcDbEntity
  8
AM_6
100
AcDbMText
 10
2653.543139737094
 20
1634.935283079959
 30
0.0
 40
3.2
 41
19.99999999999988
 46
8.000000000000012
 71
     5
 72
     5
  1
材　質
 73
     1
 44
1.0
  0
MTEXT
  5
BC53
330
1F
100
AcDbEntity
  8
AM_6
100
AcDbMText
 10
2653.543139737094
 20
1650.935283079959
 30
0.0
 40
3.2
 41
20.0
 46
0.0
 71
     5
 72
     5
  1
品　名
 73
     1
 44
1.0
  0
MTEXT
  5
BC54
330
1F
100
AcDbEntity
  8
AM_6
100
AcDbMText
 10
2663.543139737094
 20
1650.935283079959
 30
0.0
 40
3.2
 41
85.0
 46
0.0
 71
     4
 72
     5
  1
　ワンウェイトルクステー
 73
     1
 44
1.0
  0
LINE
  5
BC55
330
1F
100
AcDbEntity
  8
AM_0
100
AcDbLine
 10
2743.543139737096
 20
1654.935283079959
 30
0.0
 11
2743.543139737104
 21
1547.097192696481
 31
0.0
  0
MTEXT
  5
BC56
330
1F
100
AcDbEntity
  8
AM_6
100
AcDbMText
 10
2653.543139737094
 20
1642.935283079959
 30
0.0
 40
3.2
 41
20.0
 46
0.0
 71
     5
 72
     5
  1
品　番
 73
     1
 44
1.0
  0
LINE
  5
BC57
330
1F
100
AcDbEntity
  8
AM_2
100
AcDbLine
 10
2643.543139737096
 20
1630.935283079959
 30
0.0
 11
2743.543139737096
 21
1630.935283079959
 31
0.0
  0
MTEXT
  5
BC58
330
1F
100
AcDbEntity
  8
AM_6
100
AcDbMText
 10
2663.543139737094
 20
1634.935283079959
 30
0.0
 40
3.2
 41
85.0
 46
0.0
 71
     4
 72
     5
  1
　スチール（SPCC）
 73
     1
 44
1.0
  0
MTEXT
  5
BC59
330
1F
100
AcDbEntity
  8
AM_6
100
AcDbMText
 10
2653.543139737101
 20
1618.935283079959
 30
0.0
 40
3.2
 41
19.99999999999852
 46
8.000000000000012
 71
     5
 72
     5
  1
セットビス
 73
     1
 44
1.0
  0
MTEXT
  5
BC5A
330
1F
100
AcDbEntity
  8
AM_6
100
AcDbMText
 10
2663.543139737101
 20
1618.935283079959
 30
0.0
 40
3.2
 41
84.99999999999909
 46
0.0
 71
     4
 72
     5
  1
　無し
 73
     1
 44
1.0
  0
LINE
  5
BC5B
330
1F
100
AcDbEntity
  8
AM_2
100
AcDbLine
 10
2643.543139737101
 20
1622.935283079959
 30
0.0
 11
2743.543139737101
 21
1622.935283079959
 31
0.0
  0
MTEXT
  5
BC5C
330
1F
100
AcDbEntity
  8
AM_6
100
AcDbMText
 10
2653.543139737101
 20
1609.335283079959
 30
0.0
 40
3.2
 41
19.99999999999852
 46
8.000000000000012
 71
     5
 72
     5
  1
仕　様
 73
     1
 44
1.0
  0
LINE
  5
BC5D
330
1F
100
AcDbEntity
  8
AM_2
100
AcDbLine
 10
2643.543139737103
 20
1614.935283079959
 30
0.0
 11
2743.543139737103
 21
1614.935283079959
 31
0.0
  0
MTEXT
  5
BC5E
330
1F
100
AcDbEntity
  8
AM_6
100
AcDbMText
 10
2663.543139737096
 20
1626.935283079959
 30
0.0
 40
3.2
 41
85.0
 46
0.0
 71
     4
 72
     5
  1
　有色クロメート
 73
     1
 44
1.0
  0
MTEXT
  5
BC5F
330
1F
100
AcDbEntity
  8
AM_6
100
AcDbMText
 10
2663.543139737101
 20
1609.597192696481
 30
0.0
 40
3.2
 41
84.99999999999909
 46
0.0
 71
     4
 72
     5
  1
　・トルク有効方向：図中記載
 73
     1
 44
1.0
  0
MTEXT
  5
BC60
330
1F
100
AcDbEntity
  8
AM_6
100
AcDbMText
 10
2663.543139737101
 20
1601.597192696481
 30
0.0
 40
3.2
 41
84.99999999999909
 46
0.0
 71
     4
 72
     5
  1
　・使用温度範囲：5 ℃ ～ 50 ℃
 73
     1
 44
1.0
  0
MTEXT
  5
BC61
330
1F
100
AcDbEntity
  8
AM_6
100
AcDbMText
 10
2663.543139737101
 20
1593.597192696481
 30
0.0
 40
3.2
 41
84.99999999999909
 46
0.0
 71
     4
 72
     5
  1
　・左右勝手有り。本図は右勝手とする。
 73
     1
 44
1.0
  0
MTEXT
  5
BC62
330
1F
100
AcDbEntity
  8
AM_6
100
AcDbMText
 10
2663.543139737102
 20
1585.597192696481
 30
0.0
 40
3.2
 41
84.99999999999909
 46
0.0
 71
     4
 72
     5
  1
　・連続作動を行う所には使用しないでください。
 73
     1
 44
1.0
  0
LINE
  5
BC63
330
1F
100
AcDbEntity
  8
AM_2
100
AcDbLine
 10
2643.543139737103
 20
1589.597192696481
 30
0.0
 11
2743.543139737103
 21
1589.597192696481
 31
0.0
  0
MTEXT
  5
BC64
330
1F
100
AcDbEntity
  8
AM_6
100
AcDbMText
 10
2653.543139737101
 20
1585.597192696481
 30
0.0
 40
3.2
 41
19.99999999999852
 46
8.000000000000012
 71
     5
 72
     5
  1
注　意
 73
     1
 44
1.0
  0
MTEXT
  5
BC65
330
1F
100
AcDbEntity
  8
AM_6
100
AcDbMText
 10
2663.543139737103
 20
1571.363859363148
 30
0.0
 40
3.2
 41
84.99999999999909
 46
0.0
 71
     1
 72
     5
  1
　・水、油などが掛かる場所では使用しないでください。
 73
     1
 44
1.0
  0
MTEXT
  5
BC66
330
1F
100
AcDbEntity
  8
AM_6
100
AcDbMText
 10
2663.543139737094
 20
1642.935283079959
 30
0.0
 40
3.2
 41
85.0
 46
0.0
 71
     4
 72
     5
  1
　EDS-T22-「」（L／R）
 73
     1
 44
1.0
  0
LINE
  5
BC68
330
1F
100
AcDbEntity
  8
AM_0
100
AcDbLine
 10
2643.543139737096
 20
1654.935283079959
 30
0.0
 11
2743.543139737096
 21
1654.935283079959
 31
0.0
  0
MTEXT
  5
BC69
330
1F
100
AcDbEntity
  8
AM_6
100
AcDbMText
 10
2663.543139737103
 20
1555.363859363148
 30
0.0
 40
3.2
 41
84.99999999999909
 46
0.0
 71
     1
 72
     5
  1
　・破損の恐れがあるためトルク調整は行わないでください。
 73
     1
 44
1.0
  0
MTEXT
  5
BC6A
330
1F
100
AcDbEntity
  8
AM_6
100
AcDbMText
 10
2663.543139737103
 20
1577.597192696481
 30
0.0
 40
3.2
 41
84.99999999999909
 46
0.0
 71
     4
 72
     5
  1
　・左右に使用される際は、取付位置を一致させてください。
 73
     1
 44
1.0
  0
MTEXT
  5
BC6B
330
1F
100
AcDbEntity
  8
AM_6
100
AcDbMText
 10
2663.543139737102
 20
1563.363859363148
 30
0.0
 40
3.2
 41
84.99999999999909
 46
0.0
 71
     1
 72
     5
  1
　・潤滑油などは使用しないでください。
 73
     1
 44
1.0
  0
LINE
  5
BC6C
330
1F
100
AcDbEntity
  8
size
100
AcDbLine
 10
2632.043139737103
 20
1835.597192696481
 30
0.0
 11
3052.043139737103
 21
1835.597192696481
 31
0.0
1001
GENIUS_GENREC_14
1002
{
1000
PYDIR
1011
2632.043139737103
1021
2132.597192696481
1031
0.0
1002
}
1002
{
1000
PXDIR
1011
3052.043139737103
1021
1835.597192696481
1031
0.0
1002
}
1002
{
1000
PORI
1011
2632.043139737103
1021
1835.597192696481
1031
0.0
1002
}
1002
{
1000
PINS
1011
2842.043139737103
1021
1984.097192696481
1031
0.0
1002
}
1002
{
1000
HVAL
1000
297
1002
}
1002
{
1000
H
1070
     2
1002
}
1002
{
1000
WVAL
1000
420
1002
}
1002
{
1000
W
1070
     2
1002
}
1002
{
1000
C
1070
     4
1002
}
1001
GENIUS_GENOBJ-N-REC_13
1002
{
1000
OWNER
1000
GEN
1002
}
1001
GENIUS_GENODEF_13
1002
{
1000
HIER
1070
     0
1002
}
1002
{
1000
MANEDIT
1070
     0
1002
}
1002
{
1000
NOSEL
1070
     0
1002
}
1002
{
1000
BEHIND
1070
     0
1002
}
1002
{
1000
OTHER
1070
     0
1002
}
1002
{
1000
REACTOR
1002
}
  0
LINE
  5
BC92
330
1F
100
AcDbEntity
  8
AM_7
 48
0.25
100
AcDbLine
 10
2970.946237360091
 20
1743.978995363298
 30
0.0
 11
2979.946252661303
 21
1728.390511592702
 31
0.0
  0
LINE
  5
BC93
330
1F
100
AcDbEntity
  8
AM_7
 48
0.25
100
AcDbLine
 10
2881.465530365037
 20
1758.755359961821
 30
0.0
 11
2881.465530365037
 21
1732.755359961821
 31
0.0
  0
LINE
  5
BC94
330
1F
100
AcDbEntity
  8
AM_0
100
AcDbLine
 10
2715.948954362453
 20
1712.541199848936
 30
0.0
 11
2715.948954362453
 21
1744.239884541319
 31
0.0
  0
LINE
  5
BC95
330
1F
100
AcDbEntity
  8
AM_0
100
AcDbLine
 10
2702.948954362452
 20
1712.541199848936
 30
0.0
 11
2702.948954362452
 21
1721.890542195128
 31
0.0
  0
LINE
  5
BC96
330
1F
100
AcDbEntity
  8
AM_0
 48
0.25
100
AcDbLine
 10
2891.546741624514
 20
1733.823504299695
 30
0.0
 11
2883.519143330783
 21
1735.238986469169
 31
0.0
  0
LINE
  5
BC97
330
1F
100
AcDbEntity
  8
AM_0
100
AcDbLine
 10
2701.348948258937
 20
1724.390542195127
 30
0.0
 11
2700.848948258936
 21
1724.390542195127
 31
0.0
  0
LINE
  5
BC98
330
1F
100
AcDbEntity
  8
AM_0
100
AcDbLine
 10
2701.348948258937
 20
1732.390542195128
 30
0.0
 11
2700.848948258936
 21
1732.390542195128
 31
0.0
  0
LINE
  5
BC99
330
1F
100
AcDbEntity
  8
AM_0
100
AcDbLine
 10
2698.848948258936
 20
1722.390542195127
 30
0.0
 11
2698.848948258936
 21
1734.390542195128
 31
0.0
  0
LINE
  5
BC9A
330
1F
100
AcDbEntity
  8
AM_0
100
AcDbLine
 10
2702.948969621241
 20
1721.890542195128
 30
0.0
 11
2701.348963517725
 21
1721.890542195128
 31
0.0
  0
LINE
  5
BC9B
330
1F
100
AcDbEntity
  8
AM_7
 48
0.25
100
AcDbLine
 10
2718.948969621241
 20
1728.390542195128
 30
0.0
 11
2695.562710667052
 21
1728.390542195128
 31
0.0
  0
LINE
  5
BC9C
330
1F
100
AcDbEntity
  8
AM_0
100
AcDbLine
 10
2702.948969621241
 20
1734.890542195127
 30
0.0
 11
2701.348963517725
 21
1734.890542195127
 31
0.0
  0
LINE
  5
BC9D
330
1F
100
AcDbEntity
  8
AM_0
100
AcDbLine
 10
2701.348948258937
 20
1721.890542195128
 30
0.0
 11
2701.348948258937
 21
1734.890542195127
 31
0.0
  0
LINE
  5
BC9E
330
1F
100
AcDbEntity
  8
AM_0
100
AcDbLine
 10
2702.948954362452
 20
1734.890542195127
 30
0.0
 11
2702.948954362452
 21
1744.239884541319
 31
0.0
  0
LINE
  5
BC9F
330
1F
100
AcDbEntity
  8
AM_7
 48
0.25
100
AcDbLine
 10
2704.448954362452
 20
1740.890542195128
 30
0.0
 11
2714.448954362453
 21
1740.890542195128
 31
0.0
  0
LINE
  5
BCA0
330
1F
100
AcDbEntity
  8
AM_7
 48
0.25
100
AcDbLine
 10
2704.448954362452
 20
1715.890542195127
 30
0.0
 11
2714.448954362453
 21
1715.890542195127
 31
0.0
  0
LINE
  5
BCA1
330
1F
100
AcDbEntity
  8
AM_0
100
AcDbLine
 10
2700.848948258936
 20
1722.390542195127
 30
0.0
 11
2700.848948258936
 21
1734.390542195128
 31
0.0
  0
LINE
  5
BCA2
330
1F
100
AcDbEntity
  8
AM_7
 48
0.25
100
AcDbLine
 10
2771.903138763804
 20
1728.390542195128
 30
0.0
 11
2782.984755063815
 21
1728.390542195128
 31
0.0
  0
LINE
  5
BCA3
330
1F
100
AcDbEntity
  8
AM_7
 48
0.25
100
AcDbLine
 10
2979.946234992985
 20
1728.390542195128
 30
0.0
 11
2998.946244461407
 21
1728.390542195128
 31
0.0
  0
LINE
  5
BCA4
330
1F
100
AcDbEntity
  8
AM_7
 48
0.25
100
AcDbLine
 10
2778.984755063817
 20
1740.890542195128
 30
0.0
 11
2773.384764219092
 21
1740.890542195128
 31
0.0
  0
LINE
  5
BCA5
330
1F
100
AcDbEntity
  8
AM_0
 48
0.25
100
AcDbLine
 10
2782.984755063817
 20
1721.890542195128
 30
0.0
 11
2776.984755063816
 21
1721.890542195128
 31
0.0
  0
LINE
  5
BCA6
330
1F
100
AcDbEntity
  8
AM_0
 48
0.25
100
AcDbLine
 10
2782.984755063817
 20
1734.890542195127
 30
0.0
 11
2776.984755063816
 21
1734.890542195127
 31
0.0
  0
LINE
  5
BCA7
330
1F
100
AcDbEntity
  8
AM_0
 48
0.25
100
AcDbLine
 10
2776.984755063816
 20
1710.140542195128
 30
0.0
 11
2775.384756589696
 21
1710.140542195128
 31
0.0
  0
LINE
  5
BCA8
330
1F
100
AcDbEntity
  8
AM_0
 48
0.25
100
AcDbLine
 10
2776.984755063816
 20
1746.640542195128
 30
0.0
 11
2775.384756589696
 21
1746.640542195128
 31
0.0
  0
LINE
  5
BCA9
330
1F
100
AcDbEntity
  8
AM_0
 48
0.25
100
AcDbLine
 10
2776.984755063817
 20
1710.140542195128
 30
0.0
 11
2776.984755063817
 21
1746.640542195128
 31
0.0
  0
LINE
  5
BCAA
330
1F
100
AcDbEntity
  8
AM_0
 48
0.25
100
AcDbLine
 10
2775.38476421909
 20
1710.140542195128
 30
0.0
 11
2775.38476421909
 21
1746.640542195128
 31
0.0
  0
LINE
  5
BCAB
330
1F
100
AcDbEntity
  8
AM_7
 48
0.25
100
AcDbLine
 10
2782.984755063817
 20
1736.930542195128
 30
0.0
 11
2782.984755063817
 21
1719.850542195128
 31
0.0
  0
LINE
  5
BCAC
330
1F
100
AcDbEntity
  8
AM_0
 48
0.25
100
AcDbLine
 10
2895.019705177854
 20
1753.519659359939
 30
0.0
 11
2883.202012141707
 21
1755.603437491943
 31
0.0
  0
LINE
  5
BCAD
330
1F
100
AcDbEntity
  8
AM_7
 48
0.25
100
AcDbLine
 10
2979.946244461407
 20
1746.930542195127
 30
0.0
 11
2979.946244461407
 21
1709.850542195128
 31
0.0
  0
LINE
  5
BCAE
330
1F
100
AcDbEntity
  8
AM_7
 48
0.25
100
AcDbLine
 10
2970.94627664557
 20
1712.802066345517
 30
0.0
 11
2979.946261240064
 21
1728.390511578672
 31
0.0
  0
LINE
  5
BCAF
330
1F
100
AcDbEntity
  8
AM_5
 48
0.25
100
AcDbLine
 10
2839.581982550403
 20
1682.544228129244
 30
0.0
 11
2835.345642606895
 21
1687.087146529691
 31
0.0
  0
LINE
  5
BCB0
330
1F
100
AcDbEntity
  8
AM_5
 48
0.25
100
AcDbLine
 10
2839.581982550403
 20
1682.544228129244
 30
0.0
 11
2833.641745340035
 21
1684.360340899596
 31
0.0
  0
LINE
  5
BCB1
330
1F
100
AcDbEntity
  8
AM_5
 48
0.25
100
AcDbLine
 10
2824.238704146154
 20
1727.724021251155
 30
0.0
 11
2828.231480354382
 21
1722.965615860576
 31
0.0
  0
LINE
  5
BCB2
330
1F
100
AcDbEntity
  8
AM_5
 48
0.25
100
AcDbLine
 10
2824.238704146154
 20
1727.724021251155
 30
0.0
 11
2825.317347078815
 21
1721.606733197295
 31
0.0
  0
LINE
  5
BCB3
330
1F
100
AcDbEntity
  8
AM_2
 48
0.25
100
AcDbLine
 10
2915.37126958375
 20
1730.72862498043
 30
0.0
 11
2918.465949363205
 21
1748.279426151192
 31
0.0
  0
LINE
  5
BCB4
330
1F
100
AcDbEntity
  8
AM_2
 48
0.25
100
AcDbLine
 10
2935.225042883113
 20
1728.149558881042
 30
0.0
 11
2938.004486184331
 21
1743.912565143903
 31
0.0
  0
LINE
  5
BCB5
330
1F
100
AcDbEntity
  8
AM_7
 48
0.25
100
AcDbLine
 10
2782.984755063817
 20
1736.930542195128
 30
0.0
 11
2782.984755063817
 21
1719.850542195128
 31
0.0
  0
LINE
  5
BCB6
330
1F
100
AcDbEntity
  8
AM_0
100
AcDbLine
 10
2700.848948258936
 20
1734.390542195128
 30
0.0
 11
2698.848948258936
 21
1734.390542195128
 31
0.0
  0
LINE
  5
BCB7
330
1F
100
AcDbEntity
  8
AM_0
100
AcDbLine
 10
2700.848948258936
 20
1722.390542195127
 30
0.0
 11
2698.848948258936
 21
1722.390542195127
 31
0.0
  0
LINE
  5
BCB8
330
1F
100
AcDbEntity
  8
AM_0
 48
0.25
100
AcDbLine
 10
2891.54674162451
 20
1733.823504299696
 30
0.0
 11
2979.173381438606
 21
1722.440534788552
 31
0.0
  0
LINE
  5
BCB9
330
1F
100
AcDbEntity
  8
AM_0
 48
0.25
100
AcDbLine
 10
2895.019705177853
 20
1753.519659359939
 30
0.0
 11
2981.255016859092
 21
1734.24607590383
 31
0.0
  0
CIRCLE
  5
BCBA
330
1F
100
AcDbEntity
  8
AM_3
 48
0.25
100
AcDbCircle
 10
2709.448954362452
 20
1715.890542195127
 30
0.0
 40
3.0
  0
CIRCLE
  5
BCBB
330
1F
100
AcDbEntity
  8
AM_3
 48
0.25
100
AcDbCircle
 10
2709.448954362452
 20
1740.890542195128
 30
0.0
 40
3.0
  0
CIRCLE
  5
BCBC
330
1F
100
AcDbEntity
  8
AM_0
100
AcDbCircle
 10
2709.448954362452
 20
1740.890542195128
 30
0.0
 40
1.649999976158141
  0
CIRCLE
  5
BCBD
330
1F
100
AcDbEntity
  8
AM_0
100
AcDbCircle
 10
2709.448954362452
 20
1715.890542195127
 30
0.0
 40
1.649999976158141
  0
CIRCLE
  5
BCBE
330
1F
100
AcDbEntity
  8
AM_0
 48
0.25
100
AcDbCircle
 10
2979.946305666258
 20
1728.390542195128
 30
0.0
 40
3.5
  0
ARC
  5
BCBF
330
1F
100
AcDbEntity
  8
AM_0
100
AcDbCircle
 10
2709.448954362452
 20
1720.140542195127
 30
0.0
 40
10.0
100
AcDbArc
 50
229.4584004027688
 51
310.5416216816627
  0
ARC
  5
BCC0
330
1F
100
AcDbEntity
  8
AM_0
100
AcDbCircle
 10
2709.448954362452
 20
1736.640542195128
 30
0.0
 40
10.0
100
AcDbArc
 50
49.45837831833728
 51
130.5415995972312
  0
ARC
  5
BCC1
330
1F
100
AcDbEntity
  8
AM_0
 48
0.25
100
AcDbCircle
 10
2782.984755063817
 20
1728.390542195128
 30
0.0
 40
6.5
100
AcDbArc
 50
269.9999820139012
 51
90.00000068324297
  0
CIRCLE
  5
BCC2
330
1F
100
AcDbEntity
  8
AM_0
 48
0.25
100
AcDbCircle
 10
2782.984755063817
 20
1728.390542195128
 30
0.0
 40
3.5
  0
CIRCLE
  5
BCC3
330
1F
100
AcDbEntity
  8
AM_0
 48
0.25
100
AcDbCircle
 10
2973.446252661302
 20
1739.6488418419
 30
0.0
 40
1.9
  0
CIRCLE
  5
BCC4
330
1F
100
AcDbEntity
  8
AM_0
 48
0.25
100
AcDbCircle
 10
2973.446252661302
 20
1717.132242548355
 30
0.0
 40
2.799999952316284
  0
CIRCLE
  5
BCC5
330
1F
100
AcDbEntity
  8
AM_0
 48
0.25
100
AcDbCircle
 10
2992.946252661261
 20
1728.390544546567
 30
0.0
 40
1.9
  0
ARC
  5
BCC6
330
1F
100
AcDbEntity
  8
AM_0
 48
0.25
100
AcDbCircle
 10
2979.946244461407
 20
1728.390542195128
 30
0.0
 40
16.0
100
AcDbArc
 50
194.6228317113654
 51
145.3770862628086
  0
CIRCLE
  5
BCC7
330
1F
100
AcDbEntity
  8
AM_7
 48
0.25
100
AcDbCircle
 10
2979.946244461407
 20
1728.390542195128
 30
0.0
 40
13.0
  0
CIRCLE
  5
BCC8
330
1F
100
AcDbEntity
  8
AM_0
 48
0.25
100
AcDbCircle
 10
2973.446263682395
 20
1717.132174980481
 30
0.0
 40
1.9
  0
CIRCLE
  5
BCC9
330
1F
100
AcDbEntity
  8
AM_0
 48
0.25
100
AcDbCircle
 10
2992.946253570309
 20
1728.390512117517
 30
0.0
 40
2.799999952316284
  0
ARC
  5
BCCA
330
1F
100
AcDbEntity
  8
AM_5
 48
0.25
100
AcDbCircle
 10
2879.581982550404
 20
1751.826260431999
 30
0.0
 40
80.0
100
AcDbArc
 50
199.495642069696
 51
240.0000000000027
  0
ARC
  5
BCCB
330
1F
100
AcDbEntity
  8
AM_5
 48
0.25
100
AcDbCircle
 10
2879.859989648805
 20
1750.224523446276
 30
0.0
 40
60.0
100
AcDbArc
 50
202.0248301499449
 51
240.0000000000027
  0
CIRCLE
  5
BCCC
330
1F
100
AcDbEntity
  8
AM_0
 48
0.25
100
AcDbCircle
 10
2881.465530365037
 20
1745.755359961821
 30
0.0
 40
10.0
  0
ARC
  5
BCCD
330
1F
100
AcDbEntity
  8
AM_0
 48
0.25
100
AcDbCircle
 10
2979.946305666258
 20
1728.390542195128
 30
0.0
 40
7.5
100
AcDbArc
 50
225.7286516851821
 51
114.2713483148139
  0
CIRCLE
  5
BCCE
330
1F
100
AcDbEntity
  8
AM_0
 48
0.25
100
AcDbCircle
 10
2973.446252661302
 20
1739.6488418419
 30
0.0
 40
2.799999999999998
  0
ARC
  5
BCCF
330
1F
100
AcDbEntity
  8
AM_0
 48
0.25
100
AcDbCircle
 10
2979.946305666258
 20
1728.390542195128
 30
0.0
 40
6.0
100
AcDbArc
 50
262.5985493310371
 51
77.4014506689863
  0
MTEXT
  5
BCD0
330
1F
100
AcDbEntity
  8
AM_6
 48
0.25
100
AcDbMText
 10
2817.535398415996
 20
1701.326543628319
 30
0.0
 40
3.200000047683716
 41
0.0
 46
0.0
 71
     7
 72
     1
  1
{\W0.83333;有効方向}
 11
0.7071067811865476
 21
-0.7071067811865475
 31
0.0
 73
     1
 44
1.0
  0
MTEXT
  5
BCD1
330
1F
100
AcDbEntity
  8
AM_6
 48
0.25
100
AcDbMText
 10
2830.726499334068
 20
1718.974709750651
 30
0.0
 40
3.200000047683716
 41
0.0
 46
0.0
 71
     7
 72
     1
  1
{\W0.833333;トルクＦＲＥＥ}
 11
0.7071067811865476
 21
-0.7071067811865476
 31
0.0
 73
     1
 44
1.0
  0
DIMENSION
  5
BCD2
330
1F
100
AcDbEntity
  8
AM_5
100
AcDbDimension
  2
*D46
 10
2725.118487115905
 20
1740.890542195128
 30
0.0
 11
2725.118487115905
 21
1728.391542195128
 31
0.0
 70
   160
 71
     5
 42
25.00000000000046
 73
     0
 74
     0
 75
     0
  3
SYS$0
100
AcDbAlignedDimension
 13
2714.448954362453
 23
1715.890542195127
 33
0.0
 14
2714.448954362453
 24
1740.890542195128
 34
0.0
 50
270.0
100
AcDbRotatedDimension
1001
ACAD
1000
DSTYLE
1002
{
1070
   286
1070
     0
1070
   274
1070
     3
1070
   284
1070
     8
1070
   283
1070
     0
1070
   146
1040
1.0
1070
   272
1070
     2
1070
    47
1040
0.0
1070
    48
1040
0.0
1070
    72
1070
     0
1070
    71
1070
     0
1002
}
  0
DIMENSION
  5
BCD3
330
1F
100
AcDbEntity
  8
AM_5
100
AcDbDimension
  2
*D47
 10
2733.372466870739
 20
1746.640542195128
 30
0.0
 11
2733.372466870739
 21
1728.391542195128
 31
0.0
 70
   160
 71
     5
 42
36.5
 73
     0
 74
     0
 75
     0
  3
SYS$0
100
AcDbAlignedDimension
 13
2709.448954362452
 23
1710.140542195128
 33
0.0
 14
2709.448954362452
 24
1746.640542195128
 34
0.0
 50
270.0
100
AcDbRotatedDimension
1001
ACAD
1000
DSTYLE
1002
{
1070
   286
1070
     0
1070
   274
1070
     3
1070
   284
1070
     8
1070
   283
1070
     0
1070
   146
1040
1.0
1070
   272
1070
     2
1070
    47
1040
0.0
1070
    48
1040
0.0
1070
    72
1070
     0
1070
    71
1070
     0
1002
}
  0
DIMENSION
  5
BCD4
330
1F
100
AcDbEntity
  8
AM_5
 48
0.25
100
AcDbDimension
  2
*D48
 10
3007.486144655172
 20
1741.390542195128
 30
0.0
 11
3007.486144655172
 21
1728.391542195128
 31
0.0
 70
   160
  1
%%c<>
 71
     5
 42
26.00000000000046
 73
     0
 74
     0
 75
     0
  3
SYS$0
100
AcDbAlignedDimension
 13
2982.946244461407
 23
1715.390542195127
 33
0.0
 14
2982.946244461407
 24
1741.390542195128
 34
0.0
 50
270.0
100
AcDbRotatedDimension
1001
ACAD_DSTYLE_DIMINSPECT
1070
   396
1000
100%
1070
   395
1000

1070
   394
1070
    33
1070
   393
1070
     0
1001
ACAD
1000
DSTYLE
1002
{
1070
    47
1040
0.0
1070
    48
1040
0.0
1070
   146
1040
1.0
1070
   274
1070
     3
1002
}
  0
DIMENSION
  5
BCD5
330
1F
100
AcDbEntity
  8
AM_5
100
AcDbDimension
  2
*D49
 10
3017.000487847712
 20
1744.390542195128
 30
0.0
 11
3017.000487847712
 21
1728.391542195128
 31
0.0
 70
   160
  1
%%c<>
 71
     5
 42
32.00000000000045
 73
     0
 74
     0
 75
     0
  3
SYS$0
100
AcDbAlignedDimension
 13
2982.946244461407
 23
1712.390542195128
 33
0.0
 14
2982.946244461407
 24
1744.390542195128
 34
0.0
 50
270.0
100
AcDbRotatedDimension
1001
ACAD
1000
DSTYLE
1002
{
1070
   286
1070
     0
1070
   274
1070
     3
1070
   284
1070
     8
1070
   283
1070
     0
1070
   146
1040
1.0
1070
   272
1070
     2
1070
    47
1040
0.0
1070
    48
1040
0.0
1070
    72
1070
     0
1070
    71
1070
     0
1002
}
1001
ACAD_DSTYLE_DIMINSPECT
1070
   396
1000
100%
1070
   395
1000

1070
   394
1070
    33
1070
   393
1070
     0
  0
LINE
  5
BCD6
330
1F
100
AcDbEntity
  8
AM_5
100
AcDbLine
 10
3005.762148531541
 20
1756.238381958472
 30
0.0
 11
3030.211520428553
 21
1756.238381958472
 31
0.0
  0
MTEXT
  5
BCD7
330
1F
100
AcDbEntity
  8
AM_6
100
AcDbMText
 10
3007.569263258322
 20
1761.838382041919
 30
0.0
 40
3.200000047683716
 41
0.0
 46
0.0
 71
     7
 72
     1
  1
{\W0.83333;3-∅3.8}
 73
     1
 44
1.0
  0
MTEXT
  5
BCD8
330
1F
100
AcDbEntity
  8
AM_6
100
AcDbMText
 10
3007.569263258322
 20
1757.038381970393
 30
0.0
 40
3.200000047683716
 41
0.0
 46
0.0
 71
     7
 72
     1
  1
{\W0.83333;∅5.6サラ}
 73
     1
 44
1.0
  0
DIMENSION
  5
BCD9
330
1F
100
AcDbEntity
  8
AM_5
 48
0.25
100
AcDbDimension
  2
*D50
 10
2782.984755063817
 20
1766.942338828931
 30
0.0
 11
2881.467499762612
 21
1766.942338828931
 31
0.0
 70
   160
  1
A
 71
     5
 42
196.9614893975899
 73
     0
 74
     0
 75
     0
  3
SYS$0
100
AcDbAlignedDimension
 13
2979.946244461407
 23
1746.930542195127
 33
0.0
 14
2782.984755063817
 24
1736.930542195128
 34
0.0
100
AcDbRotatedDimension
1001
ACAD_DSTYLE_DIMINSPECT
1070
   396
1000
100%
1070
   395
1000

1070
   394
1070
    33
1070
   393
1070
     0
1001
ACAD
1000
DSTYLE
1002
{
1070
    47
1040
0.0
1070
    48
1040
0.0
1070
   146
1040
1.0
1070
   271
1070
     1
1070
   274
1070
     3
1002
}
  0
DIMENSION
  5
BCDA
330
1F
100
AcDbEntity
  8
AM_5
100
AcDbDimension
  2
*D51
 10
2702.948954362452
 20
1755.776315667079
 30
0.0
 11
2709.450954362452
 21
1755.776315667079
 31
0.0
 70
   160
 71
     5
 42
13.0
 73
     0
 74
     0
 75
     0
  3
SYS$0
100
AcDbAlignedDimension
 13
2715.948954362453
 23
1744.239884541319
 33
0.0
 14
2702.948954362452
 24
1744.239884541319
 34
0.0
100
AcDbRotatedDimension
1001
ACAD
1000
DSTYLE
1002
{
1070
   286
1070
     0
1070
   274
1070
     3
1070
   284
1070
     8
1070
   283
1070
     0
1070
   146
1040
1.0
1070
   272
1070
     2
1070
    47
1040
0.0
1070
    48
1040
0.0
1070
    72
1070
     0
1070
    71
1070
     0
1002
}
  0
LINE
  5
BCDB
330
1F
100
AcDbEntity
  8
AM_5
100
AcDbLine
 10
2698.181900532333
 20
1755.776315667079
 30
0.0
 11
2677.608798389581
 21
1755.776315667079
 31
0.0
  0
MTEXT
  5
BCDC
330
1F
100
AcDbEntity
  8
AM_6
100
AcDbMText
 10
2679.112904881908
 20
1761.376315750526
 30
0.0
 40
3.200000047683716
 41
0.0
 46
0.0
 71
     7
 72
     1
  1
{\W0.83333;2-∅3.3}
 73
     1
 44
1.0
  0
MTEXT
  5
BCDD
330
1F
100
AcDbEntity
  8
AM_6
100
AcDbMText
 10
2679.112904881908
 20
1756.576315679
 30
0.0
 40
3.200000047683716
 41
0.0
 46
0.0
 71
     7
 72
     1
  1
{\W0.83333;∅6サラ}
 73
     1
 44
1.0
  0
DIMENSION
  5
BD55
330
1F
100
AcDbEntity
  8
AM_5
 48
0.25
100
AcDbDimension
  2
*D60
 10
2782.984755063817
 20
1766.942338828931
 30
0.0
 11
2779.06989193589
 21
1766.942338828931
 31
0.0
 70
   160
 71
     5
 42
7.599990844726562
 73
     0
 74
     0
 75
     0
  3
SYS$0
100
AcDbAlignedDimension
 13
2775.38476421909
 23
1746.640542195128
 33
0.0
 14
2782.984755063817
 24
1736.930542195128
 34
0.0
100
AcDbRotatedDimension
1001
ACAD_DSTYLE_DIMINSPECT
1070
   396
1000
100%
1070
   395
1000

1070
   394
1070
    33
1070
   393
1070
     0
  0
DIMENSION
  5
BD56
330
1F
100
AcDbEntity
  8
AM_5
 48
0.25
100
AcDbDimension
  2
*D61
 10
2975.665315259746
 20
1704.112114228121
 30
0.0
 11
2926.963260329009
 21
1715.847442250198
 31
0.0
 70
    33
  1
B
 71
     5
 42
99.99996156523776
 73
     0
 74
     0
 75
     0
  3
SYS$0
100
AcDbAlignedDimension
 13
2881.465530365038
 23
1745.755359961821
 33
0.0
 14
2979.946261240064
 24
1728.390511578673
 34
0.0
1001
ACAD_DSTYLE_DIMINSPECT
1070
   396
1000
100%
1070
   395
1000

1070
   394
1070
    33
1070
   393
1070
     0
  0
LINE
  5
BD61
330
1F
100
AcDbEntity
  8
AM_7
 48
0.5
100
AcDbLine
 10
2709.448956289682
 20
1749.640542195128
 30
0.0
 11
2709.448956289682
 21
1707.140542195127
 31
0.0
1001
GENIUS_GENODEF_13
1002
{
1000
HIER
1070
     0
1002
}
1002
{
1000
MANEDIT
1070
     0
1002
}
1002
{
1000
NOSEL
1070
     0
1002
}
1002
{
1000
BEHIND
1070
     0
1002
}
1002
{
1000
OTHER
1070
     0
1002
}
1002
{
1000
REACTOR
1002
}
1001
GENIUS_GENOBJ-N-CEN_13
1002
{
1000
OWNER
1000
GEN
1002
}
1001
GENIUS_GENCEN_19
1002
{
1040
3.0
1002
}
  0
LINE
  5
BD62
330
1F
100
AcDbEntity
  8
AM_3
 48
0.5
100
AcDbLine
 10
2702.948969621241
 20
1734.890542195127
 30
0.0
 11
2702.948969621241
 21
1721.890542195128
 31
0.0
  0
ARC
  5
BD80
330
1F
100
AcDbEntity
  8
AM_3
 48
0.25
100
AcDbCircle
 10
2979.946305666258
 20
1728.390542195128
 30
0.0
 40
16.00005922235106
100
AcDbArc
 50
145.3772236199367
 51
194.6227763800721
  0
LINE
  5
BD81
330
1F
100
AcDbEntity
  8
AM_3
 48
0.25
100
AcDbLine
 10
2776.984755063817
 20
1743.890542195127
 30
0.0
 11
2775.634755039976
 21
1742.540542171286
 31
0.0
  0
LINE
  5
BD82
330
1F
100
AcDbEntity
  8
AM_3
 48
0.25
100
AcDbLine
 10
2775.634755039976
 20
1742.540542171286
 30
0.0
 11
2775.38476421909
 21
1742.540542171286
 31
0.0
  0
LINE
  5
BD83
330
1F
100
AcDbEntity
  8
AM_3
 48
0.25
100
AcDbLine
 10
2776.984755063817
 20
1737.890542195128
 30
0.0
 11
2775.634755039976
 21
1739.24054221897
 31
0.0
  0
LINE
  5
BD84
330
1F
100
AcDbEntity
  8
AM_3
 48
0.25
100
AcDbLine
 10
2775.634755039976
 20
1739.24054221897
 30
0.0
 11
2775.38476421909
 21
1739.24054221897
 31
0.0
  0
LINE
  5
BD85
330
1F
100
AcDbEntity
  8
AM_3
 48
0.25
100
AcDbLine
 10
2775.634755039976
 20
1742.540542171286
 30
0.0
 11
2775.634755039976
 21
1739.24054221897
 31
0.0
  0
LINE
  5
BD86
330
1F
100
AcDbEntity
  8
AM_7
 48
0.25
100
AcDbLine
 10
2778.984755063818
 20
1715.890542195127
 30
0.0
 11
2773.384764219092
 21
1715.890542195127
 31
0.0
  0
LINE
  5
BD87
330
1F
100
AcDbEntity
  8
AM_3
 48
0.25
100
AcDbLine
 10
2776.984755063817
 20
1712.890542195127
 30
0.0
 11
2775.634755039976
 21
1714.240542218969
 31
0.0
  0
LINE
  5
BD88
330
1F
100
AcDbEntity
  8
AM_3
 48
0.25
100
AcDbLine
 10
2775.634755039976
 20
1714.240542218969
 30
0.0
 11
2775.38476421909
 21
1714.240542218969
 31
0.0
  0
LINE
  5
BD89
330
1F
100
AcDbEntity
  8
AM_3
 48
0.25
100
AcDbLine
 10
2776.984755063817
 20
1718.890542195127
 30
0.0
 11
2775.634755039976
 21
1717.540542171286
 31
0.0
  0
LINE
  5
BD8A
330
1F
100
AcDbEntity
  8
AM_3
 48
0.25
100
AcDbLine
 10
2775.634755039976
 20
1717.540542171286
 30
0.0
 11
2775.38476421909
 21
1717.540542171286
 31
0.0
  0
LINE
  5
BD8B
330
1F
100
AcDbEntity
  8
AM_3
 48
0.25
100
AcDbLine
 10
2775.634755039976
 20
1714.240542218969
 30
0.0
 11
2775.634755039976
 21
1717.540542171286
 31
0.0
  0
LINE
  5
BD8E
330
1F
100
AcDbEntity
  8
AM_7
 48
0.25
100
AcDbLine
 10
2881.465530365037
 20
1745.755359961821
 30
0.0
 11
2979.946234992985
 21
1728.390542195128
 31
0.0
1001
GENIUS_GENOBJ-N-CEN_13
1002
{
1000
OWNER
1000
GEN
1002
}
1001
GENIUS_GENODEF_13
1002
{
1000
HIER
1070
     0
1002
}
1002
{
1000
MANEDIT
1070
     0
1002
}
1002
{
1000
NOSEL
1070
     0
1002
}
1002
{
1000
BEHIND
1070
     0
1002
}
1002
{
1000
OTHER
1070
     0
1002
}
1002
{
1000
REACTOR
1002
}
1001
GENIUS_GENCEN_19
1002
{
1040
3.0
1002
}
  0
LINE
  5
BD8F
330
1F
100
AcDbEntity
  8
AM_7
 48
0.25
100
AcDbLine
 10
2881.465530365037
 20
1745.755359961821
 30
0.0
 11
2782.984755063815
 21
1728.390542195128
 31
0.0
1001
GENIUS_GENODEF_13
1002
{
1000
HIER
1070
     0
1002
}
1002
{
1000
MANEDIT
1070
     0
1002
}
1002
{
1000
NOSEL
1070
     0
1002
}
1002
{
1000
BEHIND
1070
     0
1002
}
1002
{
1000
OTHER
1070
     0
1002
}
1002
{
1000
REACTOR
1002
}
1001
GENIUS_GENOBJ-N-CEN_13
1002
{
1000
OWNER
1000
GEN
1002
}
1001
GENIUS_GENCEN_19
1002
{
1040
3.0
1002
}
  0
LINE
  5
BD92
330
1F
100
AcDbEntity
  8
AM_3
 48
0.25
100
AcDbLine
 10
2871.71356928874
 20
1743.541933846865
 30
0.0
 11
2869.168129256541
 21
1754.756689084609
 31
0.0
  0
LINE
  5
BD93
330
1F
100
AcDbEntity
  8
AM_0
 48
0.25
100
AcDbLine
 10
2868.725444033537
 20
1756.707081299821
 30
0.0
 11
2869.168129256538
 21
1754.75668908462
 31
0.0
  0
LINE
  5
BD94
330
1F
100
AcDbEntity
  8
AM_0
 48
0.25
100
AcDbLine
 10
2870.675836248738
 20
1757.149766522821
 30
0.0
 11
2868.725444033537
 21
1756.707081299821
 31
0.0
  0
LINE
  5
BD95
330
1F
100
AcDbEntity
  8
AM_0
 48
0.25
100
AcDbLine
 10
2869.168129256538
 20
1754.75668908462
 30
0.0
 11
2871.118521471739
 21
1755.19937430762
 31
0.0
  0
LINE
  5
BD96
330
1F
100
AcDbEntity
  8
AM_0
 48
0.25
100
AcDbLine
 10
2876.527012894538
 20
1758.47782219182
 30
0.0
 11
2870.675836248738
 21
1757.149766522821
 31
0.0
  0
LINE
  5
BD97
330
1F
100
AcDbEntity
  8
AM_0
 48
0.25
100
AcDbLine
 10
2871.118521471739
 20
1755.19937430762
 30
0.0
 11
2876.969698117538
 21
1756.527429976619
 31
0.0
  0
LINE
  5
BD98
330
1F
100
AcDbEntity
  8
AM_0
 48
0.25
100
AcDbLine
 10
2878.47740511016
 20
1758.920507414916
 30
0.0
 11
2876.527012894538
 21
1758.47782219182
 31
0.0
  0
LINE
  5
BD99
330
1F
100
AcDbEntity
  8
AM_0
 48
0.25
100
AcDbLine
 10
2876.969698117538
 20
1756.527429976619
 30
0.0
 11
2878.920090332838
 21
1756.97011519962
 31
0.0
  0
LINE
  5
BD9A
330
1F
100
AcDbEntity
  8
AM_0
 48
0.25
100
AcDbLine
 10
2879.058408884776
 20
1756.360708304809
 30
0.0
 11
2878.47740511016
 21
1758.920507414916
 31
0.0
  0
LINE
  5
BD9B
330
1F
100
AcDbEntity
  8
AM_0
 48
0.25
100
AcDbLine
 10
2877.405600347152
 20
1756.209013534184
 30
0.0
 11
2867.737707374537
 21
1754.504467113021
 31
0.0
  0
LINE
  5
BD9C
330
1F
100
AcDbEntity
  8
AM_0
 48
0.25
100
AcDbLine
 10
2867.737707374537
 20
1754.504467113021
 30
0.0
 11
2784.0434833639
 21
1734.803739087989
 31
0.0
  0
LINE
  5
BD9D
330
1F
100
AcDbEntity
  8
AM_3
 48
0.25
100
AcDbLine
 10
2784.0434833639
 20
1734.803739087989
 30
0.0
 11
2781.609992115062
 21
1734.230921192711
 31
0.0
  0
LINE
  5
BD9E
330
1F
100
AcDbEntity
  8
AM_3
 48
0.25
100
AcDbLine
 10
2783.690427727359
 20
1722.432184527839
 30
0.0
 11
2786.173076755537
 21
1722.726214804333
 31
0.0
  0
LINE
  5
BD9F
330
1F
100
AcDbEntity
  8
AM_0
 48
0.25
100
AcDbLine
 10
2786.173076755537
 20
1722.726214804333
 30
0.0
 11
2871.557967283237
 21
1732.838696546721
 31
0.0
  0
LINE
  5
BDA0
330
1F
100
AcDbEntity
  8
AM_0
 48
0.25
100
AcDbLine
 10
2871.557967283237
 20
1732.838696546721
 30
0.0
 11
2881.465530365037
 21
1734.58566723108
 31
0.0
  0
ARC
  5
BDA1
330
1F
100
AcDbEntity
  8
AM_3
 48
0.25
100
AcDbCircle
 10
2782.984755063815
 20
1728.390542195128
 30
0.0
 40
6.0
100
AcDbArc
 50
103.2456893542739
 51
276.7543106457149
  0
LINE
  5
BDA2
330
1F
100
AcDbEntity
  8
AM_0
 48
0.25
100
AcDbLine
 10
2778.984755063838
 20
1645.311512368627
 30
0.0
 11
2778.984755063838
 21
1645.811512368626
 31
0.0
  0
LINE
  5
BDA3
330
1F
100
AcDbEntity
  8
AM_0
 48
0.25
100
AcDbLine
 10
2786.984755063838
 20
1645.811512368626
 30
0.0
 11
2786.984755063838
 21
1645.311512368627
 31
0.0
  0
LINE
  5
BDA4
330
1F
100
AcDbEntity
  8
AM_0
 48
0.25
100
AcDbLine
 10
2975.881350216537
 20
1628.811513073427
 30
0.0
 11
2975.881350216537
 21
1629.311513073427
 31
0.0
  0
LINE
  5
BDA5
330
1F
100
AcDbEntity
  8
AM_0
 48
0.25
100
AcDbLine
 10
2983.881350216537
 20
1629.311513073427
 30
0.0
 11
2983.881350216537
 21
1628.811513073427
 31
0.0
  0
LINE
  5
BDA6
330
1F
100
AcDbEntity
  8
AM_0
 48
0.25
100
AcDbLine
 10
2786.484755063837
 20
1648.611512368627
 30
0.0
 11
2786.484755063837
 21
1647.711512368626
 31
0.0
  0
LINE
  5
BDA7
330
1F
100
AcDbEntity
  8
AM_0
 48
0.25
100
AcDbLine
 10
2779.484755063837
 20
1647.711512368626
 30
0.0
 11
2779.484755063837
 21
1648.611512368627
 31
0.0
  0
ARC
  5
BDA8
330
1F
100
AcDbEntity
  8
AM_0
 48
0.25
100
AcDbCircle
 10
2786.184755063838
 20
1647.711512368626
 30
0.0
 40
0.3000000000000114
100
AcDbArc
 50
270.0
 51
0.0
  0
ARC
  5
BDA9
330
1F
100
AcDbEntity
  8
AM_0
 48
0.25
100
AcDbCircle
 10
2779.784755063837
 20
1647.711512368626
 30
0.0
 40
0.3000000000000114
100
AcDbArc
 50
180.0
 51
270.0
  0
ARC
  5
BDAA
330
1F
100
AcDbEntity
  8
AM_0
 48
0.25
100
AcDbCircle
 10
2779.784755063837
 20
1648.611512368627
 30
0.0
 40
0.3000000000000114
100
AcDbArc
 50
90.0
 51
180.0
  0
ARC
  5
BDAB
330
1F
100
AcDbEntity
  8
AM_0
 48
0.25
100
AcDbCircle
 10
2786.184755063838
 20
1648.611512368627
 30
0.0
 40
0.3000000000000114
100
AcDbArc
 50
0.0
 51
90.0
  0
ARC
  5
BDAC
330
1F
100
AcDbEntity
  8
AM_0
 48
0.25
100
AcDbCircle
 10
2784.784755063837
 20
1642.511512368626
 30
0.0
 40
0.2999999999999545
100
AcDbArc
 50
270.0
 51
0.0
  0
ARC
  5
BDAD
330
1F
100
AcDbEntity
  8
AM_0
 48
0.25
100
AcDbCircle
 10
2781.184755063837
 20
1642.511512368626
 30
0.0
 40
0.3000000000000114
100
AcDbArc
 50
180.0
 51
270.0
  0
ARC
  5
BDAE
330
1F
100
AcDbEntity
  8
AM_0
 48
0.25
100
AcDbCircle
 10
2784.576421730537
 20
1642.811512368626
 30
0.0
 40
0.5083333333333304
100
AcDbArc
 50
0.0
 51
79.61114218481572
  0
ARC
  5
BDAF
330
1F
100
AcDbEntity
  8
AM_0
 48
0.25
100
AcDbCircle
 10
2781.393088397137
 20
1642.811512368626
 30
0.0
 40
0.5083333333333826
100
AcDbArc
 50
100.3888578151842
 51
180.0
  0
LINE
  5
BDB0
330
1F
100
AcDbEntity
  8
AM_0
 48
0.25
100
AcDbLine
 10
2785.084755063838
 20
1642.811512368626
 30
0.0
 11
2785.084755063838
 21
1642.511512368626
 31
0.0
  0
LINE
  5
BDB1
330
1F
100
AcDbEntity
  8
AM_0
 48
0.25
100
AcDbLine
 10
2780.884755063838
 20
1642.511512368626
 30
0.0
 11
2780.884755063838
 21
1642.811512368626
 31
0.0
  0
LINE
  5
BDB2
330
1F
100
AcDbEntity
  8
AM_0
 48
0.25
100
AcDbLine
 10
2983.381350216538
 20
1632.511513073427
 30
0.0
 11
2983.381350216538
 21
1631.611513073427
 31
0.0
  0
LINE
  5
BDB3
330
1F
100
AcDbEntity
  8
AM_0
 48
0.25
100
AcDbLine
 10
2976.381350216538
 20
1631.611513073427
 30
0.0
 11
2976.381350216538
 21
1632.511513073427
 31
0.0
  0
ARC
  5
BDB4
330
1F
100
AcDbEntity
  8
AM_0
 48
0.25
100
AcDbCircle
 10
2983.081350216537
 20
1631.611513073427
 30
0.0
 40
0.3000000000000114
100
AcDbArc
 50
270.0
 51
0.0
  0
ARC
  5
BDB5
330
1F
100
AcDbEntity
  8
AM_0
 48
0.25
100
AcDbCircle
 10
2976.681350216537
 20
1631.611513073427
 30
0.0
 40
0.3000000000000114
100
AcDbArc
 50
180.0
 51
270.0
  0
ARC
  5
BDB6
330
1F
100
AcDbEntity
  8
AM_0
 48
0.25
100
AcDbCircle
 10
2976.681350216537
 20
1632.511513073427
 30
0.0
 40
0.2999999999999972
100
AcDbArc
 50
90.0
 51
180.0
  0
ARC
  5
BDB7
330
1F
100
AcDbEntity
  8
AM_0
 48
0.25
100
AcDbCircle
 10
2983.081350216537
 20
1632.511513073427
 30
0.0
 40
0.2999999999999829
100
AcDbArc
 50
0.0
 51
90.0
  0
LINE
  5
BDB8
330
1F
100
AcDbEntity
  8
AM_0
 48
0.25
100
AcDbLine
 10
2789.484755063837
 20
1647.411512368626
 30
0.0
 11
2789.484755063837
 21
1645.811512368626
 31
0.0
  0
LINE
  5
BDB9
330
1F
100
AcDbEntity
  8
AM_0
 48
0.25
100
AcDbLine
 10
2995.881350216537
 20
1625.811513073427
 30
0.0
 11
2995.881350216537
 21
1624.611513073427
 31
0.0
  0
LINE
  5
BDBA
330
1F
100
AcDbEntity
  8
AM_0
 48
0.25
100
AcDbLine
 10
2963.881350216537
 20
1624.611513073427
 30
0.0
 11
2963.881350216537
 21
1625.811513073427
 31
0.0
  0
LINE
  5
BDBB
330
1F
100
AcDbEntity
  8
AM_0
 48
0.25
100
AcDbLine
 10
2972.381350216537
 20
1625.811513073427
 30
0.0
 11
2974.521534616237
 21
1628.379734353027
 31
0.0
  0
LINE
  5
BDBC
330
1F
100
AcDbEntity
  8
AM_0
 48
0.25
100
AcDbLine
 10
2985.241165816837
 20
1628.379734353027
 30
0.0
 11
2987.381350216537
 21
1625.811513073427
 31
0.0
  0
ARC
  5
BDBD
330
1F
100
AcDbEntity
  8
AM_0
 48
0.25
100
AcDbCircle
 10
2975.443400151737
 20
1627.611513073427
 30
0.0
 40
1.19999999999999
100
AcDbArc
 50
90.0
 51
140.1944289076847
  0
ARC
  5
BDBE
330
1F
100
AcDbEntity
  8
AM_0
 48
0.25
100
AcDbCircle
 10
2984.319300281337
 20
1627.611513073427
 30
0.0
 40
1.200000000000003
100
AcDbArc
 50
39.80557109231524
 51
90.0
  0
LINE
  5
BDBF
330
1F
100
AcDbEntity
  8
AM_0
 48
0.25
100
AcDbLine
 10
2985.881350216537
 20
1631.311513073427
 30
0.0
 11
2985.881350216537
 21
1629.311513073427
 31
0.0
  0
LINE
  5
BDC0
330
1F
100
AcDbEntity
  8
AM_0
 48
0.25
100
AcDbLine
 10
2776.984755063838
 20
1643.311512368627
 30
0.0
 11
2776.984755063838
 21
1645.311512368627
 31
0.0
  0
LINE
  5
BDC1
330
1F
100
AcDbEntity
  8
AM_0
 48
0.25
100
AcDbLine
 10
2891.465530365037
 20
1645.311512368627
 30
0.0
 11
2891.465530365037
 21
1643.311512368627
 31
0.0
  0
LINE
  5
BDC2
330
1F
100
AcDbEntity
  8
AM_0
 48
0.25
100
AcDbLine
 10
2786.184754678337
 20
1648.911512368626
 30
0.0
 11
2779.784755063837
 21
1648.911512368626
 31
0.0
  0
LINE
  5
BDC3
330
1F
100
AcDbEntity
  8
AM_0
 48
0.25
100
AcDbLine
 10
2781.184755280637
 20
1642.211512368627
 30
0.0
 11
2784.784755063837
 21
1642.211512368627
 31
0.0
  0
LINE
  5
BDC4
330
1F
100
AcDbEntity
  8
AM_0
 48
0.25
100
AcDbLine
 10
2983.081349831037
 20
1632.811513073427
 30
0.0
 11
2976.681350216537
 21
1632.811513073427
 31
0.0
  0
LINE
  5
BDC5
330
1F
100
AcDbEntity
  8
AM_0
 48
0.25
100
AcDbLine
 10
2776.984755063838
 20
1647.411512368626
 30
0.0
 11
2775.384755063838
 21
1647.411512368626
 31
0.0
  0
LINE
  5
BDC6
330
1F
100
AcDbEntity
  8
AM_0
 48
0.25
100
AcDbLine
 10
2776.984755063838
 20
1647.411512368626
 30
0.0
 11
2776.984755063838
 21
1660.411512368626
 31
0.0
  0
LINE
  5
BDC7
330
1F
100
AcDbEntity
  8
AM_0
 48
0.25
100
AcDbLine
 10
2776.984755063838
 20
1660.411512368626
 30
0.0
 11
2775.384755063838
 21
1660.411512368626
 31
0.0
  0
LINE
  5
BDC8
330
1F
100
AcDbEntity
  8
AM_0
 48
0.25
100
AcDbLine
 10
2775.384755063838
 20
1647.411512368626
 30
0.0
 11
2775.384755063838
 21
1660.411512368626
 31
0.0
  0
ARC
  5
BDC9
330
1F
100
AcDbEntity
  8
AM_0
 48
0.25
100
AcDbCircle
 10
2776.984755063838
 20
1647.411512368626
 30
0.0
 40
1.600000000000023
100
AcDbArc
 50
180.0
 51
270.0
  0
LINE
  5
BDCA
330
1F
100
AcDbEntity
  8
AM_0
 48
0.25
100
AcDbLine
 10
2776.984755063838
 20
1645.811512368626
 30
0.0
 11
2782.984755063838
 21
1645.811512368626
 31
0.0
  0
LINE
  5
BDCB
330
1F
100
AcDbEntity
  8
AM_0
 48
0.25
100
AcDbLine
 10
2776.984755063838
 20
1647.411512368626
 30
0.0
 11
2782.984755063838
 21
1647.411512368626
 31
0.0
  0
LINE
  5
BDCC
330
1F
100
AcDbEntity
  8
AM_0
 48
0.25
100
AcDbLine
 10
2782.984755063838
 20
1645.811512368626
 30
0.0
 11
2789.484755063837
 21
1645.811512368626
 31
0.0
  0
LINE
  5
BDCD
330
1F
100
AcDbEntity
  8
AM_0
 48
0.25
100
AcDbLine
 10
2782.984755063838
 20
1647.411512368626
 30
0.0
 11
2789.484755063837
 21
1647.411512368626
 31
0.0
  0
LINE
  5
BDCE
330
1F
100
AcDbEntity
  8
AM_0
 48
0.25
100
AcDbLine
 10
2995.881350216537
 20
1624.611513073427
 30
0.0
 11
2963.881350216537
 21
1624.611513073427
 31
0.0
  0
LINE
  5
BDCF
330
1F
100
AcDbEntity
  8
AM_0
 48
0.25
100
AcDbLine
 10
2995.881350216537
 20
1625.811513073427
 30
0.0
 11
2963.881350216537
 21
1625.811513073427
 31
0.0
  0
LINE
  5
BDD0
330
1F
100
AcDbEntity
  8
AM_0
 48
0.25
100
AcDbLine
 10
2984.319300281337
 20
1628.811513073427
 30
0.0
 11
2975.443400686237
 21
1628.811513073427
 31
0.0
  0
LINE
  5
BDD1
330
1F
100
AcDbEntity
  8
AM_0
 48
0.25
100
AcDbLine
 10
2881.906961037037
 20
1636.311512368626
 30
0.0
 11
2871.215530365037
 21
1636.311512368626
 31
0.0
  0
LINE
  5
BDD2
330
1F
100
AcDbEntity
  8
AM_0
 48
0.25
100
AcDbLine
 10
2872.068071934837
 20
1638.311512368626
 30
0.0
 11
2881.906961037037
 21
1638.311512368626
 31
0.0
  0
LINE
  5
BDD3
330
1F
100
AcDbEntity
  8
AM_0
 48
0.25
100
AcDbLine
 10
2871.370256135137
 20
1638.311512368626
 30
0.0
 11
2872.068071934837
 21
1638.311512368626
 31
0.0
  0
LINE
  5
BDD4
330
1F
100
AcDbEntity
  8
AM_0
 48
0.25
100
AcDbLine
 10
2870.866484532737
 20
1638.311512368626
 30
0.0
 11
2871.370256135137
 21
1638.311512368626
 31
0.0
  0
LINE
  5
BDD5
330
1F
100
AcDbEntity
  8
AM_0
 48
0.25
100
AcDbLine
 10
2891.465530365037
 20
1643.311512368627
 30
0.0
 11
2887.146837501238
 21
1643.311512368627
 31
0.0
  0
LINE
  5
BDD6
330
1F
100
AcDbEntity
  8
AM_3
 48
0.25
100
AcDbLine
 10
2871.465530588537
 20
1648.311512368593
 30
0.0
 11
2876.969698117505
 21
1648.311512368593
 31
0.0
  0
LINE
  5
BDD7
330
1F
100
AcDbEntity
  8
AM_0
 48
0.25
100
AcDbLine
 10
2979.086405678737
 20
1631.311513073427
 30
0.0
 11
2935.164930741409
 21
1631.311513073427
 31
0.0
  0
LINE
  5
BDD8
330
1F
100
AcDbEntity
  8
AM_0
 48
0.25
100
AcDbLine
 10
2915.311162077421
 20
1638.311512368626
 30
0.0
 11
2891.502503472537
 21
1638.311512368626
 31
0.0
  0
LINE
  5
BDD9
330
1F
100
AcDbEntity
  8
AM_0
 48
0.25
100
AcDbLine
 10
2891.502503472537
 20
1636.311512368626
 30
0.0
 11
2914.968909197303
 21
1636.311512368626
 31
0.0
  0
LINE
  5
BDDA
330
1F
100
AcDbEntity
  8
AM_0
 48
0.25
100
AcDbLine
 10
2979.086405678737
 20
1629.311513073427
 30
0.0
 11
2934.822677861292
 21
1629.311513073427
 31
0.0
  0
LINE
  5
BDDB
330
1F
100
AcDbEntity
  8
AM_0
 48
0.25
100
AcDbLine
 10
2985.881350216537
 20
1631.311513073427
 30
0.0
 11
2979.086405678737
 21
1631.311513073427
 31
0.0
  0
LINE
  5
BDDC
330
1F
100
AcDbEntity
  8
AM_0
 48
0.25
100
AcDbLine
 10
2985.881350216537
 20
1629.311513073427
 30
0.0
 11
2979.086405678737
 21
1629.311513073427
 31
0.0
  0
LINE
  5
BDDD
330
1F
100
AcDbEntity
  8
AM_0
 48
0.25
100
AcDbLine
 10
2891.502503472537
 20
1638.311512368626
 30
0.0
 11
2881.906961037037
 21
1638.311512368626
 31
0.0
  0
LINE
  5
BDDE
330
1F
100
AcDbEntity
  8
AM_0
 48
0.25
100
AcDbLine
 10
2881.906961037037
 20
1636.311512368626
 30
0.0
 11
2891.502503472537
 21
1636.311512368626
 31
0.0
  0
ARC
  5
BDDF
330
1F
100
AcDbEntity
  8
AM_2
 48
0.25
100
AcDbCircle
 10
2870.463606940638
 20
1639.073760506526
 30
0.0
 40
1.31711365418121
100
AcDbArc
 50
169.6005470494044
 51
215.3609978720015
  0
LINE
  5
BDE0
330
1F
100
AcDbEntity
  8
AM_2
 48
0.25
100
AcDbLine
 10
2869.168129256537
 20
1646.311512368626
 30
0.0
 11
2869.168129256537
 21
1645.311512368627
 31
0.0
  0
LINE
  5
BDE1
330
1F
100
AcDbEntity
  8
AM_2
 48
0.25
100
AcDbLine
 10
2869.168129256537
 20
1643.311512368627
 30
0.0
 11
2869.168129256537
 21
1639.311512368626
 31
0.0
  0
LINE
  5
BDE2
330
1F
100
AcDbEntity
  8
AM_0
 48
0.25
100
AcDbLine
 10
2868.725444033537
 20
1646.311512368626
 30
0.0
 11
2868.725444033537
 21
1645.311512368627
 31
0.0
  0
LINE
  5
BDE3
330
1F
100
AcDbEntity
  8
AM_0
 48
0.25
100
AcDbLine
 10
2868.725444033537
 20
1643.311512368627
 30
0.0
 11
2868.725444033537
 21
1639.311512368626
 31
0.0
  0
ARC
  5
BDE4
330
1F
100
AcDbEntity
  8
AM_0
 48
0.25
100
AcDbCircle
 10
2872.611877085937
 20
1638.598256782326
 30
0.0
 40
3.951340962543646
100
AcDbArc
 50
169.6005470494044
 51
215.3609978720015
  0
LINE
  5
BDE5
330
1F
100
AcDbEntity
  8
AM_0
 48
0.25
100
AcDbLine
 10
2870.866484532737
 20
1638.311512368626
 30
0.0
 11
2869.389471868037
 21
1638.311512368626
 31
0.0
  0
LINE
  5
BDE6
330
1F
100
AcDbEntity
  8
AM_0
 48
0.25
100
AcDbLine
 10
2871.215548412937
 20
1636.311512368626
 30
0.0
 11
2869.389471868037
 21
1636.311512368626
 31
0.0
  0
ARC
  5
BDE7
330
1F
100
AcDbEntity
  8
AM_2
 48
0.25
100
AcDbCircle
 10
2871.208263095036
 20
1646.312769565726
 30
0.0
 40
2.040134225904544
100
AcDbArc
 50
154.1974743843733
 51
180.0353075269057
  0
ARC
  5
BDE8
330
1F
100
AcDbEntity
  8
AM_0
 48
0.25
100
AcDbCircle
 10
2870.746248111237
 20
1646.317344736226
 30
0.0
 40
2.02081249425092
100
AcDbArc
 50
132.8654764445895
 51
180.1653644343174
  0
LINE
  5
BDE9
330
1F
100
AcDbEntity
  8
AM_0
 48
0.25
100
AcDbLine
 10
2783.690427727337
 20
1645.311512368627
 30
0.0
 11
2871.557967283237
 21
1645.311512368627
 31
0.0
  0
LINE
  5
BDEA
330
1F
100
AcDbEntity
  8
AM_0
 48
0.25
100
AcDbLine
 10
2783.690427727337
 20
1643.311512368627
 30
0.0
 11
2871.557967283237
 21
1643.311512368627
 31
0.0
  0
LINE
  5
BDEB
330
1F
100
AcDbEntity
  8
AM_0
 48
0.25
100
AcDbLine
 10
2776.984755063838
 20
1645.311512368627
 30
0.0
 11
2783.690427727337
 21
1645.311512368627
 31
0.0
  0
LINE
  5
BDEC
330
1F
100
AcDbEntity
  8
AM_0
 48
0.25
100
AcDbLine
 10
2776.984755063838
 20
1643.311512368627
 30
0.0
 11
2783.690427727337
 21
1643.311512368627
 31
0.0
  0
LINE
  5
BDED
330
1F
100
AcDbEntity
  8
AM_0
 48
0.25
100
AcDbLine
 10
2871.557967283237
 20
1645.311512368627
 30
0.0
 11
2882.301146968637
 21
1645.311512368627
 31
0.0
  0
LINE
  5
BDEE
330
1F
100
AcDbEntity
  8
AM_0
 48
0.25
100
AcDbLine
 10
2871.557967283237
 20
1643.311512368627
 30
0.0
 11
2882.301146968637
 21
1643.311512368627
 31
0.0
  0
LINE
  5
BDEF
330
1F
100
AcDbEntity
  8
AM_0
 48
0.25
100
AcDbLine
 10
2884.273559648437
 20
1645.311512368627
 30
0.0
 11
2882.301146968637
 21
1645.311512368627
 31
0.0
  0
LINE
  5
BDF0
330
1F
100
AcDbEntity
  8
AM_0
 48
0.25
100
AcDbLine
 10
2882.301146968637
 20
1643.311512368627
 30
0.0
 11
2884.273559648437
 21
1643.311512368627
 31
0.0
  0
LINE
  5
BDF1
330
1F
100
AcDbEntity
  8
AM_0
 48
0.25
100
AcDbLine
 10
2884.273559648437
 20
1645.311512368627
 30
0.0
 11
2887.146837501238
 21
1645.311512368627
 31
0.0
  0
LINE
  5
BDF2
330
1F
100
AcDbEntity
  8
AM_0
 48
0.25
100
AcDbLine
 10
2884.273559648437
 20
1643.311512368627
 30
0.0
 11
2887.146837501238
 21
1643.311512368627
 31
0.0
  0
LINE
  5
BDF3
330
1F
100
AcDbEntity
  8
AM_0
 48
0.25
100
AcDbLine
 10
2891.465530365037
 20
1645.311512368627
 30
0.0
 11
2887.146837501238
 21
1645.311512368627
 31
0.0
  0
LINE
  5
BDF4
330
1F
100
AcDbEntity
  8
AM_3
  6
HIDDEN
 48
0.25
100
AcDbLine
 10
2775.634755063837
 20
1652.261512368626
 30
0.0
 11
2775.634755063837
 21
1655.561512368626
 31
0.0
  0
LINE
  5
BDF5
330
1F
100
AcDbEntity
  8
AM_3
  6
HIDDEN
 48
0.25
100
AcDbLine
 10
2975.281350216537
 20
1624.911513073427
 30
0.0
 11
2971.481350216537
 21
1624.911513073427
 31
0.0
  0
LINE
  5
BDF6
330
1F
100
AcDbEntity
  8
AM_3
  6
HIDDEN
 48
0.25
100
AcDbLine
 10
2994.781350216537
 20
1624.911513073427
 30
0.0
 11
2990.981350216537
 21
1624.911513073427
 31
0.0
  0
LINE
  5
BDF7
330
1F
100
AcDbEntity
  8
AM_3
 48
0.25
100
AcDbLine
 10
2869.168129256537
 20
1645.311512368627
 30
0.0
 11
2869.168129256537
 21
1643.311512368627
 31
0.0
  0
LINE
  5
BDF8
330
1F
100
AcDbEntity
  8
AM_3
 48
0.25
100
AcDbLine
 10
2868.725444033537
 20
1645.311512368627
 30
0.0
 11
2868.725444033537
 21
1643.311512368627
 31
0.0
  0
ARC
  5
BDF9
330
1F
100
AcDbEntity
  8
AM_3
  6
HIDDEN
 48
0.25
100
AcDbCircle
 10
2880.215568016937
 20
1639.073760506526
 30
0.0
 40
1.317113654181464
100
AcDbArc
 50
169.6005470494044
 51
215.3609978720015
  0
ARC
  5
BDFA
330
1F
100
AcDbEntity
  8
AM_3
 48
0.25
100
AcDbCircle
 10
2876.944578784438
 20
1646.336008644426
 30
0.0
 40
1.975663418978704
100
AcDbArc
 50
359.2895706979981
 51
89.27150012772433
  0
ARC
  5
BDFB
330
1F
100
AcDbEntity
  8
AM_2
 48
0.25
100
AcDbCircle
 10
2871.130619847837
 20
1646.363260010126
 30
0.0
 40
1.94828992271227
100
AcDbArc
 50
90.35579424631292
 51
154.5403967835909
  0
LINE
  5
BDFC
330
1F
100
AcDbEntity
  8
AM_3
 48
0.25
100
AcDbLine
 10
2878.920090332837
 20
1646.311512368626
 30
0.0
 11
2878.920090332837
 21
1639.311512368626
 31
0.0
  0
ARC
  5
BDFD
330
1F
100
AcDbEntity
  8
AM_0
 48
0.25
100
AcDbCircle
 10
2870.679747866937
 20
1646.386985536426
 30
0.0
 40
1.924530807408643
100
AcDbArc
 50
90.11645402799247
 51
132.8247984053168
  0
LINE
  5
BDFE
330
1F
100
AcDbEntity
  8
AM_3
  6
HIDDEN
 48
0.25
100
AcDbLine
 10
2776.984755063838
 20
1650.911512368626
 30
0.0
 11
2775.634755063837
 21
1652.261512368626
 31
0.0
  0
LINE
  5
BDFF
330
1F
100
AcDbEntity
  8
AM_3
  6
HIDDEN
 48
0.25
100
AcDbLine
 10
2775.634755063837
 20
1655.561512368626
 30
0.0
 11
2776.984755063838
 21
1656.911512368626
 31
0.0
  0
LINE
  5
BE00
330
1F
100
AcDbEntity
  8
AM_3
  6
HIDDEN
 48
0.25
100
AcDbLine
 10
2775.634755063837
 20
1652.261512368626
 30
0.0
 11
2775.384755063838
 21
1652.261512368626
 31
0.0
  0
LINE
  5
BE01
330
1F
100
AcDbEntity
  8
AM_3
  6
HIDDEN
 48
0.25
100
AcDbLine
 10
2775.384755063838
 20
1655.561512368626
 30
0.0
 11
2775.634755063837
 21
1655.561512368626
 31
0.0
  0
LINE
  5
BE02
330
1F
100
AcDbEntity
  8
AM_3
  6
HIDDEN
 48
0.25
100
AcDbLine
 10
2976.181350216537
 20
1625.811513073427
 30
0.0
 11
2975.281350216537
 21
1624.911513073427
 31
0.0
  0
LINE
  5
BE03
330
1F
100
AcDbEntity
  8
AM_3
  6
HIDDEN
 48
0.25
100
AcDbLine
 10
2971.481350216537
 20
1624.911513073427
 30
0.0
 11
2970.581350216537
 21
1625.811513073427
 31
0.0
  0
LINE
  5
BE04
330
1F
100
AcDbEntity
  8
AM_3
  6
HIDDEN
 48
0.25
100
AcDbLine
 10
2975.281350216537
 20
1624.911513073427
 30
0.0
 11
2975.281350216537
 21
1624.611513073427
 31
0.0
  0
LINE
  5
BE05
330
1F
100
AcDbEntity
  8
AM_3
  6
HIDDEN
 48
0.25
100
AcDbLine
 10
2971.481350216537
 20
1624.611513073427
 30
0.0
 11
2971.481350216537
 21
1624.911513073427
 31
0.0
  0
LINE
  5
BE06
330
1F
100
AcDbEntity
  8
AM_3
  6
HIDDEN
 48
0.25
100
AcDbLine
 10
2995.681350216537
 20
1625.811513073427
 30
0.0
 11
2994.781350216537
 21
1624.911513073427
 31
0.0
  0
LINE
  5
BE07
330
1F
100
AcDbEntity
  8
AM_3
  6
HIDDEN
 48
0.25
100
AcDbLine
 10
2990.981350216537
 20
1624.911513073427
 30
0.0
 11
2990.081350216537
 21
1625.811513073427
 31
0.0
  0
LINE
  5
BE08
330
1F
100
AcDbEntity
  8
AM_3
  6
HIDDEN
 48
0.25
100
AcDbLine
 10
2994.781350216537
 20
1624.911513073427
 30
0.0
 11
2994.781350216537
 21
1624.611513073427
 31
0.0
  0
LINE
  5
BE09
330
1F
100
AcDbEntity
  8
AM_3
  6
HIDDEN
 48
0.25
100
AcDbLine
 10
2990.981350216537
 20
1624.611513073427
 30
0.0
 11
2990.981350216537
 21
1624.911513073427
 31
0.0
  0
LINE
  5
BE0A
330
1F
100
AcDbEntity
  8
AM_7
 48
0.25
100
AcDbLine
 10
2881.465530365037
 20
1661.740781426319
 30
0.0
 11
2881.465530365037
 21
1627.511512368626
 31
0.0
  0
LINE
  5
BE0B
330
1F
100
AcDbEntity
  8
AM_7
 48
0.25
100
AcDbLine
 10
2979.881350216537
 20
1634.811513073427
 30
0.0
 11
2979.881350216537
 21
1622.611513073427
 31
0.0
  0
LINE
  5
BE0C
330
1F
100
AcDbEntity
  8
AM_7
 48
0.25
100
AcDbLine
 10
2782.984755063838
 20
1650.086472384245
 30
0.0
 11
2782.984755063838
 21
1641.311512368627
 31
0.0
  0
LINE
  5
BE0D
330
1F
100
AcDbEntity
  8
AM_7
 48
0.25
100
AcDbLine
 10
2778.984755063838
 20
1653.911512368626
 30
0.0
 11
2773.384755063838
 21
1653.911512368626
 31
0.0
  0
LINE
  5
BE0E
330
1F
100
AcDbEntity
  8
AM_7
 48
0.25
100
AcDbLine
 10
2973.381350216537
 20
1627.811513073427
 30
0.0
 11
2973.381350216537
 21
1622.409802389539
 31
0.0
  0
LINE
  5
BE0F
330
1F
100
AcDbEntity
  8
AM_7
 48
0.25
100
AcDbLine
 10
2992.881350216537
 20
1627.811513073427
 30
0.0
 11
2992.881350216537
 21
1622.602300982399
 31
0.0
  0
DIMENSION
  5
BE10
330
1F
100
AcDbEntity
  8
AM_5
100
AcDbDimension
  2
*D36
 10
2764.060635785979
 20
1653.911514275975
 30
0.0
 11
2764.060635785978
 21
1640.912512750096
 31
0.0
 70
   160
  1
（<>）
 71
     5
 42
29.30000120254817
 73
     0
 74
     0
 75
     0
  3
SYS$0
100
AcDbAlignedDimension
 13
2963.881350216537
 23
1624.611513073427
 33
0.0
 14
2773.384764219111
 24
1653.911514275975
 34
0.0
 50
270.0
100
AcDbRotatedDimension
1001
ACAD
1000
DSTYLE
1002
{
1070
   286
1070
     0
1070
   274
1070
     3
1070
   284
1070
     8
1070
   283
1070
     0
1070
   146
1040
1.0
1070
   272
1070
     2
1070
    47
1040
0.0
1070
    48
1040
0.0
1070
    72
1070
     0
1070
    71
1070
     0
1002
}
1001
ACAD_DSTYLE_DIMINSPECT
1070
   396
1000
100%
1070
   395
1000

1070
   394
1070
    33
1070
   393
1070
     0
  0
DIMENSION
  5
BE11
330
1F
100
AcDbEntity
  8
AM_5
 48
0.25
100
AcDbDimension
  2
*D37
 10
2858.901438106233
 20
1624.611513073427
 30
0.0
 11
2858.901438106233
 21
1617.399513073427
 31
0.0
 70
   160
  1
（<>）
 71
     5
 42
3.399999424799716
 73
     0
 74
     0
 75
     0
  3
SYS$0
100
AcDbAlignedDimension
 13
2879.465529880419
 23
1628.011512498227
 33
0.0
 14
2963.881350216537
 24
1624.611513073427
 34
0.0
 50
90.0
100
AcDbRotatedDimension
1001
ACAD_DSTYLE_DIMINSPECT
1070
   396
1000
100%
1070
   395
1000

1070
   394
1070
    33
1070
   393
1070
     0
1001
ACAD
1000
DSTYLE
1002
{
1070
    47
1040
0.0
1070
    48
1040
0.0
1070
   146
1040
1.0
1070
   274
1070
     3
1002
}
  0
DIMENSION
  5
BE12
330
1F
100
AcDbEntity
  8
AM_5
 48
0.25
100
AcDbDimension
  2
*D38
 10
2848.765439732532
 20
1624.611513073427
 30
0.0
 11
2848.765439732532
 21
1616.829427260654
 31
0.0
 70
   160
  1
（<>）
 71
     5
 42
35.69999989129975
 73
     0
 74
     0
 75
     0
  3
SYS$0
100
AcDbAlignedDimension
 13
2879.529038691937
 23
1660.311512964726
 33
0.0
 14
2963.881350216537
 24
1624.611513073427
 34
0.0
 50
90.0
100
AcDbRotatedDimension
1001
ACAD_DSTYLE_DIMINSPECT
1070
   396
1000
100%
1070
   395
1000

1070
   394
1070
    33
1070
   393
1070
     0
1001
ACAD
1000
DSTYLE
1002
{
1070
    47
1040
0.0
1070
    48
1040
0.0
1070
   146
1040
1.0
1070
   271
1070
     0
1070
   274
1070
     3
1002
}
  0
DIMENSION
  5
BE13
330
1F
100
AcDbEntity
  8
AM_5
 48
0.25
100
AcDbDimension
  2
*D39
 10
2891.465530365058
 20
1665.11150918246
 30
0.0
 11
2881.465530365058
 21
1668.211509182459
 31
0.0
 70
    32
  1
%%c<>
 71
     5
 42
20.0
 73
     0
 74
     0
 75
     0
  3
SYS$0
100
AcDbAlignedDimension
 13
2871.465530365057
 23
1650.66150817246
 33
0.0
 14
2891.465530365058
 24
1650.66150817246
 34
0.0
100
AcDbRotatedDimension
1001
ACAD_DSTYLE_DIMINSPECT
1070
   396
1000
100%
1070
   395
1000

1070
   394
1070
    33
1070
   393
1070
     0
  0
DIMENSION
  5
BE14
330
1F
100
AcDbEntity
  8
AM_5
 48
0.25
100
AcDbDimension
  2
*D40
 10
2838.765439732532
 20
1643.311508172459
 30
0.0
 11
2838.765439732532
 21
1650.476265020071
 31
0.0
 70
   160
 71
     5
 42
2.0
 73
     0
 74
     0
 75
     0
  3
SYS$0
100
AcDbAlignedDimension
 13
2871.777650212628
 23
1645.31150817246
 33
0.0
 14
2871.777650212628
 24
1643.311508172459
 34
0.0
 50
90.0
100
AcDbRotatedDimension
1001
ACAD_DSTYLE_DIMINSPECT
1070
   396
1000
100%
1070
   395
1000

1070
   394
1070
    33
1070
   393
1070
     0
1001
ACAD
1000
DSTYLE
1002
{
1070
    75
1070
     1
1070
    76
1070
     1
1002
}
  0
ARC
  5
BE1C
330
1F
100
AcDbEntity
  8
AM_0
100
AcDbCircle
 10
2698.048948258936
 20
1726.590542195127
 30
0.0
 40
0.3000000000000114
100
AcDbArc
 50
180.0
 51
270.0
  0
ARC
  5
BE1D
330
1F
100
AcDbEntity
  8
AM_0
100
AcDbCircle
 10
2698.048948258936
 20
1730.190542195127
 30
0.0
 40
0.3000000000000114
100
AcDbArc
 50
90.0
 51
180.0
  0
LINE
  5
BE1E
330
1F
100
AcDbEntity
  8
AM_0
100
AcDbLine
 10
2698.348948258936
 20
1726.290542195127
 30
0.0
 11
2698.048948258936
 21
1726.290542195127
 31
0.0
  0
LINE
  5
BE1F
330
1F
100
AcDbEntity
  8
AM_0
100
AcDbLine
 10
2698.048948258936
 20
1730.490542195127
 30
0.0
 11
2698.348948258936
 21
1730.490542195127
 31
0.0
  0
ARC
  5
BE20
330
1F
100
AcDbEntity
  8
AM_0
100
AcDbCircle
 10
2698.348948258936
 20
1726.798875528427
 30
0.0
 40
0.5083333333333542
100
AcDbArc
 50
270.0
 51
349.6111421848157
  0
ARC
  5
BE21
330
1F
100
AcDbEntity
  8
AM_0
100
AcDbCircle
 10
2698.348948258936
 20
1729.982208861727
 30
0.0
 40
0.5083333333333459
100
AcDbArc
 50
10.38885781518429
 51
90.0
  0
LINE
  5
BE22
330
1F
100
AcDbEntity
  8
AM_0
100
AcDbLine
 10
2697.748948258936
 20
1730.190542195127
 30
0.0
 11
2697.748948258936
 21
1726.590542195127
 31
0.0
  0
CIRCLE
  5
BE23
330
1F
100
AcDbEntity
  8
AM_0
 48
0.25
100
AcDbCircle
 10
2881.465530365037
 20
1745.755359961821
 30
0.0
 40
3.000000000000017
  0
CIRCLE
  5
BE24
330
1F
100
AcDbEntity
  8
AM_2
 48
0.25
100
AcDbCircle
 10
2881.465530365037
 20
1745.755359961821
 30
0.0
 40
3.499999999999984
  0
CIRCLE
  5
BE25
330
1F
100
AcDbEntity
  8
AM_2
 48
0.25
100
AcDbCircle
 10
2881.465530365037
 20
1745.755359961821
 30
0.0
 40
4.907477288111781
  0
SPLINE
  5
BE26
330
1F
100
AcDbEntity
  8
AM_0
 48
0.25
100
AcDbSpline
210
0.0
220
0.0
230
1.0
 70
     8
 71
     3
 72
    12
 73
     8
 74
     0
 42
0.000000001
 43
0.0000000001
 40
0.0
 40
0.0
 40
0.0
 40
0.0
 40
0.2995742001170869
 40
0.4639445830297259
 40
0.6291881036940458
 40
0.8432340756099057
 40
1.0
 40
1.0
 40
1.0
 40
1.0
 10
2876.465530572217
 20
1742.86860860022
 30
0.0
 10
2876.910361550193
 20
1742.611785125841
 30
0.0
 10
2877.59926240519
 20
1742.214047738286
 30
0.0
 10
2878.760831223818
 20
1741.543416399654
 30
0.0
 10
2879.793406159711
 20
1740.947258660107
 30
0.0
 10
2880.701596346781
 20
1740.422914715444
 30
0.0
 10
2881.238532910201
 20
1740.112914164676
 30
0.0
 10
2881.465530365088
 20
1739.981857088604
 30
0.0
  0
SPLINE
  5
BE27
330
1F
100
AcDbEntity
  8
AM_0
 48
0.25
100
AcDbSpline
210
0.0
220
0.0
230
1.0
 70
     8
 71
     3
 72
    13
 73
     9
 74
     0
 42
0.000000001
 43
0.0000000001
 40
0.0
 40
0.0
 40
0.0
 40
0.0
 40
0.0688101229168248
 40
0.3205366333235857
 40
0.4765618838879814
 40
0.6325508468082896
 40
0.8424923497099829
 40
1.0
 40
1.0
 40
1.0
 40
1.0
 10
2876.465530583976
 20
1748.642111240935
 30
0.0
 10
2876.465530438366
 20
1748.528456002808
 30
0.0
 10
2876.465529760075
 20
1747.999018387463
 30
0.0
 10
2876.465530204692
 20
1747.117086124985
 30
0.0
 10
2876.465530381101
 20
1745.911237057283
 30
0.0
 10
2876.465530754911
 20
1744.770070962509
 30
0.0
 10
2876.465530100347
 20
1743.747005017349
 30
0.0
 10
2876.465530430638
 20
1743.132162010267
 30
0.0
 10
2876.465530572217
 20
1742.86860860022
 30
0.0
  0
SPLINE
  5
BE28
330
1F
100
AcDbEntity
  8
AM_0
 48
0.25
100
AcDbSpline
210
0.0
220
0.0
230
1.0
 70
     8
 71
     3
 72
    12
 73
     8
 74
     0
 42
0.000000001
 43
0.0000000001
 40
0.0
 40
0.0
 40
0.0
 40
0.0
 40
0.2995742285604501
 40
0.4639446399916113
 40
0.6291881291845371
 40
0.843234118430929
 40
1.0
 40
1.0
 40
1.0
 40
1.0
 10
2881.465530365037
 20
1751.528862835098
 30
0.0
 10
2881.020699191213
 20
1751.272039538495
 30
0.0
 10
2880.331798013735
 20
1750.874302415191
 30
0.0
 10
2879.170229785485
 20
1750.203669883078
 30
0.0
 10
2878.13765453909
 20
1749.607512673335
 30
0.0
 10
2877.229464147273
 20
1749.083169084971
 30
0.0
 10
2876.692527871047
 20
1748.773168362716
 30
0.0
 10
2876.465530583976
 20
1748.642111240935
 30
0.0
  0
SPLINE
  5
BE29
330
1F
100
AcDbEntity
  8
AM_0
 48
0.25
100
AcDbSpline
210
0.0
220
0.0
230
1.0
 70
     8
 71
     3
 72
    12
 73
     8
 74
     0
 42
0.000000001
 43
0.0000000001
 40
0.0
 40
0.0
 40
0.0
 40
0.0
 40
0.2995742001170869
 40
0.4639445830297259
 40
0.6291881036940458
 40
0.8432340756099057
 40
1.0
 40
1.0
 40
1.0
 40
1.0
 10
2886.465530157908
 20
1748.642111323482
 30
0.0
 10
2886.020699179932
 20
1748.898934797862
 30
0.0
 10
2885.331798324934
 20
1749.296672185416
 30
0.0
 10
2884.170229506306
 20
1749.967303524049
 30
0.0
 10
2883.137654570413
 20
1750.563461263595
 30
0.0
 10
2882.229464383343
 20
1751.087805208259
 30
0.0
 10
2881.692527819924
 20
1751.397805759026
 30
0.0
 10
2881.465530365037
 20
1751.528862835098
 30
0.0
  0
SPLINE
  5
BE2A
330
1F
100
AcDbEntity
  8
AM_0
 48
0.25
100
AcDbSpline
210
0.0
220
0.0
230
1.0
 70
     8
 71
     3
 72
    13
 73
     9
 74
     0
 42
0.000000001
 43
0.0000000001
 40
0.0
 40
0.0
 40
0.0
 40
0.0
 40
0.1575076393420643
 40
0.3674491475629316
 40
0.523438101124193
 40
0.6794633564527322
 40
0.9311898520635411
 40
1.0
 40
1.0
 40
1.0
 40
1.0
 10
2886.465530146148
 20
1742.868608682768
 30
0.0
 10
2886.465530249081
 20
1743.132162059359
 30
0.0
 10
2886.465530489213
 20
1743.747005021709
 30
0.0
 10
2886.465529920615
 20
1744.770070964938
 30
0.0
 10
2886.465530655258
 20
1745.911237039841
 30
0.0
 10
2886.465530029905
 20
1747.117086105868
 30
0.0
 10
2886.465530350914
 20
1747.999018233031
 30
0.0
 10
2886.465530192018
 20
1748.528456012436
 30
0.0
 10
2886.465530157908
 20
1748.642111323482
 30
0.0
  0
SPLINE
  5
BE2B
330
1F
100
AcDbEntity
  8
AM_0
 48
0.25
100
AcDbSpline
210
0.0
220
0.0
230
1.0
 70
     8
 71
     3
 72
    12
 73
     8
 74
     0
 42
0.000000001
 43
0.0000000001
 40
0.0
 40
0.0
 40
0.0
 40
0.0
 40
0.2995742285604501
 40
0.4639446399916113
 40
0.6291881291845371
 40
0.843234118430929
 40
1.0
 40
1.0
 40
1.0
 40
1.0
 10
2881.465530365088
 20
1739.981857088604
 30
0.0
 10
2881.910361538912
 20
1740.238680385207
 30
0.0
 10
2882.599262716388
 20
1740.636417508511
 30
0.0
 10
2883.760830944639
 20
1741.307050040624
 30
0.0
 10
2884.793406191034
 20
1741.903207250368
 30
0.0
 10
2885.701596582851
 20
1742.42755083873
 30
0.0
 10
2886.238532859077
 20
1742.737551560986
 30
0.0
 10
2886.465530146148
 20
1742.868608682768
 30
0.0
  0
CIRCLE
  5
BE2C
330
1F
100
AcDbEntity
  8
AM_0
 48
0.25
100
AcDbCircle
 10
2881.465530365037
 20
1745.755359961821
 30
0.0
 40
6.400000000000018
  0
ARC
  5
BE44
330
1F
100
AcDbEntity
  8
AM_0
 48
0.25
100
AcDbCircle
 10
2879.142810670137
 20
1746.361064494221
 30
0.0
 40
10.0
100
AcDbArc
 50
68.49101377522963
 51
100.004238685293
  0
ARC
  5
BE45
330
1F
100
AcDbEntity
  8
AM_0
 48
0.25
100
AcDbCircle
 10
2879.490252734738
 20
1744.391474686321
 30
0.0
 40
10.00000000000001
100
AcDbArc
 50
280.004238685293
 51
311.517463594654
  0
LINE
  5
BE47
330
1F
100
AcDbEntity
  8
AM_0
 48
0.25
100
AcDbLine
 10
2934.822677861292
 20
1629.311513073427
 30
0.0
 11
2914.968909197303
 21
1636.311512368626
 31
0.0
  0
LINE
  5
BE48
330
1F
100
AcDbEntity
  8
AM_0
 48
0.25
100
AcDbLine
 10
2935.164930741409
 20
1631.311513073427
 30
0.0
 11
2915.311162077421
 21
1638.311512368626
 31
0.0
  0
LINE
  5
BE4B
330
1F
100
AcDbEntity
  8
AM_0
 48
0.25
100
AcDbLine
 10
2885.465530555038
 20
1631.111512354426
 30
0.0
 11
2885.465530555038
 21
1631.211512184625
 31
0.0
  0
LINE
  5
BE4C
330
1F
100
AcDbEntity
  8
AM_0
 48
0.25
100
AcDbLine
 10
2877.465530175037
 20
1631.211512184625
 30
0.0
 11
2877.465530175037
 21
1631.111512354426
 31
0.0
  0
ARC
  5
BE4D
330
1F
100
AcDbEntity
  8
AM_0
 48
0.25
100
AcDbCircle
 10
2881.532917468837
 20
1635.739766412227
 30
0.0
 40
8.0
100
AcDbArc
 50
221.7615276182129
 51
255.0234642963343
  0
ARC
  5
BE4E
330
1F
100
AcDbEntity
  8
AM_0
 48
0.25
100
AcDbCircle
 10
2881.398143261237
 20
1635.739766412227
 30
0.0
 40
8.0
100
AcDbArc
 50
284.9765357036657
 51
318.2384723817871
  0
LINE
  5
BE4F
330
1F
100
AcDbEntity
  8
AM_0
 48
0.25
100
AcDbLine
 10
2887.365530587137
 20
1630.411512146627
 30
0.0
 11
2887.365530587137
 21
1630.911512228526
 31
0.0
  0
LINE
  5
BE50
330
1F
100
AcDbEntity
  8
AM_0
 48
0.25
100
AcDbLine
 10
2875.565530143037
 20
1630.911512228526
 30
0.0
 11
2875.565530143037
 21
1630.411512146627
 31
0.0
  0
ARC
  5
BE51
330
1F
100
AcDbEntity
  8
AM_0
 48
0.25
100
AcDbCircle
 10
2887.165530365038
 20
1630.911512368626
 30
0.0
 40
0.2000000000000171
100
AcDbArc
 50
0.0
 51
90.0
  0
ARC
  5
BE52
330
1F
100
AcDbEntity
  8
AM_0
 48
0.25
100
AcDbCircle
 10
2875.765530365038
 20
1630.911512368626
 30
0.0
 40
0.2000000000000028
100
AcDbArc
 50
90.0
 51
180.0
  0
LINE
  5
BE53
330
1F
100
AcDbEntity
  8
AM_0
 48
0.25
100
AcDbLine
 10
2891.465530141537
 20
1631.211512184625
 30
0.0
 11
2891.465530141537
 21
1632.811512260626
 31
0.0
  0
LINE
  5
BE54
330
1F
100
AcDbEntity
  8
AM_0
 48
0.25
100
AcDbLine
 10
2871.465530588537
 20
1632.811512260626
 30
0.0
 11
2871.465530588537
 21
1631.211512184625
 31
0.0
  0
LINE
  5
BE55
330
1F
100
AcDbEntity
  8
AM_0
 48
0.25
100
AcDbLine
 10
2871.465530588537
 20
1633.311512342526
 30
0.0
 11
2871.465530588537
 21
1632.811512260626
 31
0.0
  0
LINE
  5
BE56
330
1F
100
AcDbEntity
  8
AM_0
 48
0.25
100
AcDbLine
 10
2891.465530141537
 20
1632.811512260626
 30
0.0
 11
2891.465530141537
 21
1633.311512342526
 31
0.0
  0
LINE
  5
BE57
330
1F
100
AcDbEntity
  8
AM_0
 48
0.25
100
AcDbLine
 10
2871.465530588537
 20
1635.811512344927
 30
0.0
 11
2871.465530588537
 21
1633.311512342526
 31
0.0
  0
ARC
  5
BE58
330
1F
100
AcDbEntity
  8
AM_0
 48
0.25
100
AcDbCircle
 10
2871.965530365037
 20
1635.811512368627
 30
0.0
 40
0.5
100
AcDbArc
 50
90.0
 51
180.0
  0
LINE
  5
BE59
330
1F
100
AcDbEntity
  8
AM_0
 48
0.25
100
AcDbLine
 10
2893.559529788138
 20
1633.311512342526
 30
0.0
 11
2893.559529788138
 21
1635.811512344927
 31
0.0
  0
ARC
  5
BE5A
330
1F
100
AcDbEntity
  8
AM_0
 48
0.25
100
AcDbCircle
 10
2893.059529632838
 20
1635.811512368627
 30
0.0
 40
0.5
100
AcDbArc
 50
0.0
 51
90.0
  0
LINE
  5
BE5B
330
1F
100
AcDbEntity
  8
AM_2
 48
0.25
100
AcDbLine
 10
2887.365530587137
 20
1630.411512146627
 30
0.0
 11
2875.565530143037
 21
1630.411512146627
 31
0.0
  0
LINE
  5
BE5C
330
1F
100
AcDbEntity
  8
AM_0
 48
0.25
100
AcDbLine
 10
2887.165530461138
 20
1631.111512354426
 30
0.0
 11
2875.765530268937
 21
1631.111512354426
 31
0.0
  0
LINE
  5
BE5D
330
1F
100
AcDbEntity
  8
AM_0
 48
0.25
100
AcDbLine
 10
2879.465529880419
 20
1628.011512498227
 30
0.0
 11
2883.465530849655
 21
1628.011512498227
 31
0.0
  0
LINE
  5
BE5E
330
1F
100
AcDbEntity
  8
AM_0
 48
0.25
100
AcDbLine
 10
2885.027874836037
 20
1631.211512184625
 30
0.0
 11
2871.465530588537
 21
1631.211512184625
 31
0.0
  0
LINE
  5
BE5F
330
1F
100
AcDbEntity
  8
AM_0
 48
0.25
100
AcDbLine
 10
2891.465530141537
 20
1631.211512184625
 30
0.0
 11
2885.027874836037
 21
1631.211512184625
 31
0.0
  0
LINE
  5
BE60
330
1F
100
AcDbEntity
  8
AM_2
 48
0.25
100
AcDbLine
 10
2885.027874836037
 20
1632.811512260626
 30
0.0
 11
2871.465530588537
 21
1632.811512260626
 31
0.0
  0
LINE
  5
BE61
330
1F
100
AcDbEntity
  8
AM_2
 48
0.25
100
AcDbLine
 10
2891.465530141537
 20
1632.811512260626
 30
0.0
 11
2885.027874836037
 21
1632.811512260626
 31
0.0
  0
LINE
  5
BE62
330
1F
100
AcDbEntity
  8
AM_0
 48
0.25
100
AcDbLine
 10
2879.729048574637
 20
1633.311512342526
 30
0.0
 11
2871.465530588537
 21
1633.311512342526
 31
0.0
  0
LINE
  5
BE63
330
1F
100
AcDbEntity
  8
AM_2
 48
0.25
100
AcDbLine
 10
2879.729048574637
 20
1632.811512260626
 30
0.0
 11
2871.465530588537
 21
1632.811512260626
 31
0.0
  0
LINE
  5
BE64
330
1F
100
AcDbEntity
  8
AM_2
 48
0.25
100
AcDbLine
 10
2891.465530141537
 20
1632.811512260626
 30
0.0
 11
2879.729048574637
 21
1632.811512260626
 31
0.0
  0
LINE
  5
BE65
330
1F
100
AcDbEntity
  8
AM_0
 48
0.25
100
AcDbLine
 10
2887.607510543738
 20
1633.311512342526
 30
0.0
 11
2891.082878566637
 21
1633.311512342526
 31
0.0
  0
LINE
  5
BE66
330
1F
100
AcDbEntity
  8
AM_0
 48
0.25
100
AcDbLine
 10
2879.729048574637
 20
1633.311512342526
 30
0.0
 11
2887.607510543738
 21
1633.311512342526
 31
0.0
  0
LINE
  5
BE67
330
1F
100
AcDbEntity
  8
AM_0
 48
0.25
100
AcDbLine
 10
2891.082878566637
 20
1633.311512342526
 30
0.0
 11
2893.513952724037
 21
1633.311512342526
 31
0.0
  0
LINE
  5
BE68
330
1F
100
AcDbEntity
  8
AM_0
 48
0.25
100
AcDbLine
 10
2893.513952724037
 20
1633.311512342526
 30
0.0
 11
2893.559529788138
 21
1633.311512342526
 31
0.0
  0
LINE
  5
BE69
330
1F
100
AcDbEntity
  8
AM_0
 48
0.25
100
AcDbLine
 10
2891.465530141537
 20
1638.811512096627
 30
0.0
 11
2891.465530141537
 21
1641.311512040726
 31
0.0
  0
LINE
  5
BE6A
330
1F
100
AcDbEntity
  8
AM_0
 48
0.25
100
AcDbLine
 10
2871.465530588537
 20
1641.311512040726
 30
0.0
 11
2871.465530588537
 21
1638.811512096627
 31
0.0
  0
LINE
  5
BE6B
330
1F
100
AcDbEntity
  8
AM_0
 48
0.25
100
AcDbLine
 10
2891.465530141537
 20
1641.311512040726
 30
0.0
 11
2891.465530365037
 21
1643.311512368627
 31
0.0
  0
LINE
  5
BE6C
330
1F
100
AcDbEntity
  8
AM_0
 48
0.25
100
AcDbLine
 10
2871.465530588537
 20
1642.311512204727
 30
0.0
 11
2871.465530588537
 21
1641.311512040726
 31
0.0
  0
LINE
  5
BE6D
330
1F
100
AcDbEntity
  8
AM_0
 48
0.25
100
AcDbLine
 10
2871.465530588537
 20
1638.811512096627
 30
0.0
 11
2871.465530588537
 21
1638.311512247526
 31
0.0
  0
LINE
  5
BE6E
330
1F
100
AcDbEntity
  8
AM_0
 48
0.25
100
AcDbLine
 10
2891.465530141537
 20
1638.311512247526
 30
0.0
 11
2891.465530141537
 21
1638.811512096627
 31
0.0
  0
LINE
  5
BE6F
330
1F
100
AcDbEntity
  8
AM_2
 48
0.25
100
AcDbLine
 10
2875.610019422437
 20
1641.311512040726
 30
0.0
 11
2871.465530588537
 21
1641.311512040726
 31
0.0
  0
LINE
  5
BE70
330
1F
100
AcDbEntity
  8
AM_2
 48
0.25
100
AcDbLine
 10
2875.610019422437
 20
1638.811512096627
 30
0.0
 11
2871.465530588537
 21
1638.811512096627
 31
0.0
  0
LINE
  5
BE71
330
1F
100
AcDbEntity
  8
AM_2
 48
0.25
100
AcDbLine
 10
2879.729048574637
 20
1641.311512040726
 30
0.0
 11
2871.465530588537
 21
1641.311512040726
 31
0.0
  0
LINE
  5
BE72
330
1F
100
AcDbEntity
  8
AM_2
 48
0.25
100
AcDbLine
 10
2891.465530141537
 20
1641.311512040726
 30
0.0
 11
2879.729048574637
 21
1641.311512040726
 31
0.0
  0
LINE
  5
BE73
330
1F
100
AcDbEntity
  8
AM_2
 48
0.25
100
AcDbLine
 10
2871.465530588537
 20
1642.311512494804
 30
0.0
 11
2891.465530253287
 21
1642.311510259807
 31
0.0
  0
LINE
  5
BE74
330
1F
100
AcDbEntity
  8
AM_2
 48
0.25
100
AcDbLine
 10
2879.729048574637
 20
1638.811512096627
 30
0.0
 11
2871.465530588537
 21
1638.811512096627
 31
0.0
  0
LINE
  5
BE75
330
1F
100
AcDbEntity
  8
AM_2
 48
0.25
100
AcDbLine
 10
2891.465530141537
 20
1638.811512096627
 30
0.0
 11
2879.729048574637
 21
1638.811512096627
 31
0.0
  0
LINE
  5
BE76
330
1F
100
AcDbEntity
  8
AM_0
 48
0.25
100
AcDbLine
 10
2871.465530588537
 20
1643.311512368726
 30
0.0
 11
2871.465530588537
 21
1642.311512204727
 31
0.0
  0
LINE
  5
BE77
330
1F
100
AcDbEntity
  8
AM_0
 48
0.25
100
AcDbLine
 10
2891.465530141537
 20
1647.311512696427
 30
0.0
 11
2891.465530141537
 21
1648.511512520627
 31
0.0
  0
LINE
  5
BE78
330
1F
100
AcDbEntity
  8
AM_0
 48
0.25
100
AcDbLine
 10
2871.465530588537
 20
1648.511512520627
 30
0.0
 11
2871.465530588537
 21
1647.311512696427
 31
0.0
  0
LINE
  5
BE79
330
1F
100
AcDbEntity
  8
AM_0
 48
0.25
100
AcDbLine
 10
2891.465530141537
 20
1646.311512532526
 30
0.0
 11
2891.465530141537
 21
1647.311512696427
 31
0.0
  0
LINE
  5
BE7A
330
1F
100
AcDbEntity
  8
AM_0
 48
0.25
100
AcDbLine
 10
2871.465530588537
 20
1647.311512696427
 30
0.0
 11
2871.465530588537
 21
1646.311512532526
 31
0.0
  0
LINE
  5
BE7B
330
1F
100
AcDbEntity
  8
AM_0
 48
0.25
100
AcDbLine
 10
2891.465530141537
 20
1648.511512520627
 30
0.0
 11
2891.465530141537
 21
1650.111512596626
 31
0.0
  0
LINE
  5
BE7C
330
1F
100
AcDbEntity
  8
AM_0
 48
0.25
100
AcDbLine
 10
2871.465530588537
 20
1650.111512596626
 30
0.0
 11
2871.465530588537
 21
1648.511512520627
 31
0.0
  0
LINE
  5
BE7D
330
1F
100
AcDbEntity
  8
AM_2
 48
0.25
100
AcDbLine
 10
2879.693665767338
 20
1647.311512696427
 30
0.0
 11
2871.465530588537
 21
1647.311512696427
 31
0.0
  0
LINE
  5
BE7E
330
1F
100
AcDbEntity
  8
AM_2
 48
0.25
100
AcDbLine
 10
2891.465530141537
 20
1647.311512696427
 30
0.0
 11
2879.693665767338
 21
1647.311512696427
 31
0.0
  0
LINE
  5
BE7F
330
1F
100
AcDbEntity
  8
AM_2
 48
0.25
100
AcDbLine
 10
2879.693665767338
 20
1648.511512520627
 30
0.0
 11
2871.465530588537
 21
1648.511512520627
 31
0.0
  0
LINE
  5
BE80
330
1F
100
AcDbEntity
  8
AM_2
 48
0.25
100
AcDbLine
 10
2891.465530141537
 20
1648.511512520627
 30
0.0
 11
2879.693665767338
 21
1648.511512520627
 31
0.0
  0
LINE
  5
BE81
330
1F
100
AcDbEntity
  8
AM_2
 48
0.25
100
AcDbLine
 10
2879.729048574637
 20
1647.311512696427
 30
0.0
 11
2871.465530588537
 21
1647.311512696427
 31
0.0
  0
LINE
  5
BE82
330
1F
100
AcDbEntity
  8
AM_2
 48
0.25
100
AcDbLine
 10
2891.465530141537
 20
1647.311512696427
 30
0.0
 11
2879.729048574637
 21
1647.311512696427
 31
0.0
  0
LINE
  5
BE83
330
1F
100
AcDbEntity
  8
AM_0
 48
0.25
100
AcDbLine
 10
2879.729048574637
 20
1650.111512596626
 30
0.0
 11
2871.465530588537
 21
1650.111512596626
 31
0.0
  0
LINE
  5
BE84
330
1F
100
AcDbEntity
  8
AM_0
 48
0.25
100
AcDbLine
 10
2891.465530141537
 20
1650.111512596626
 30
0.0
 11
2879.729048574637
 21
1650.111512596626
 31
0.0
  0
LINE
  5
BE85
330
1F
100
AcDbEntity
  8
AM_2
 48
0.25
100
AcDbLine
 10
2879.729048574637
 20
1648.511512520627
 30
0.0
 11
2871.465530588537
 21
1648.511512520627
 31
0.0
  0
LINE
  5
BE86
330
1F
100
AcDbEntity
  8
AM_2
 48
0.25
100
AcDbLine
 10
2891.465530141537
 20
1648.511512520627
 30
0.0
 11
2879.729048574637
 21
1648.511512520627
 31
0.0
  0
LINE
  5
BE87
330
1F
100
AcDbEntity
  8
AM_0
100
AcDbLine
 10
2870.675836248802
 20
1648.31151236864
 30
0.0
 11
2871.465530588537
 21
1648.313117429504
 31
0.0
  0
LINE
  5
BE88
330
1F
100
AcDbEntity
  8
AM_0
 48
0.25
100
AcDbLine
 10
2891.465530141537
 20
1645.311512368627
 30
0.0
 11
2891.465530141537
 21
1646.311512532526
 31
0.0
  0
LINE
  5
BE89
330
1F
100
AcDbEntity
  8
AM_0
 48
0.25
100
AcDbLine
 10
2871.465530588537
 20
1646.311512532526
 30
0.0
 11
2871.465530588537
 21
1645.311512368627
 31
0.0
  0
LINE
  5
BE8A
330
1F
100
AcDbEntity
  8
AM_2
 48
0.25
100
AcDbLine
 10
2879.693665767338
 20
1646.311512532526
 30
0.0
 11
2871.465530588537
 21
1646.311512532526
 31
0.0
  0
LINE
  5
BE8B
330
1F
100
AcDbEntity
  8
AM_2
 48
0.25
100
AcDbLine
 10
2891.465530141537
 20
1646.311512532526
 30
0.0
 11
2879.693665767338
 21
1646.311512532526
 31
0.0
  0
LINE
  5
BE8C
330
1F
100
AcDbEntity
  8
AM_2
 48
0.25
100
AcDbLine
 10
2879.729048574637
 20
1646.311512532526
 30
0.0
 11
2871.465530588537
 21
1646.311512532526
 31
0.0
  0
LINE
  5
BE8D
330
1F
100
AcDbEntity
  8
AM_2
 48
0.25
100
AcDbLine
 10
2891.465530141537
 20
1646.311512532526
 30
0.0
 11
2879.729048574637
 21
1646.311512532526
 31
0.0
  0
LINE
  5
BE8E
330
1F
100
AcDbEntity
  8
AM_0
 48
0.25
100
AcDbLine
 10
2884.465530391138
 20
1658.111512976627
 30
0.0
 11
2884.465530391138
 21
1659.311512800827
 31
0.0
  0
LINE
  5
BE8F
330
1F
100
AcDbEntity
  8
AM_0
 48
0.25
100
AcDbLine
 10
2878.465530339037
 20
1659.311512800827
 30
0.0
 11
2878.465530339037
 21
1658.111512976627
 31
0.0
  0
LINE
  5
BE90
330
1F
100
AcDbEntity
  8
AM_0
 48
0.25
100
AcDbLine
 10
2884.465530391138
 20
1659.311512800827
 30
0.0
 11
2883.465530460038
 21
1660.311512964726
 31
0.0
  0
LINE
  5
BE91
330
1F
100
AcDbEntity
  8
AM_0
 48
0.25
100
AcDbLine
 10
2879.465530270137
 20
1660.311512964726
 30
0.0
 11
2878.465530339037
 21
1659.311512800827
 31
0.0
  0
LINE
  5
BE92
330
1F
100
AcDbEntity
  8
AM_0
 48
0.25
100
AcDbLine
 10
2887.865530203437
 20
1650.111512596626
 30
0.0
 11
2887.865530203437
 21
1651.561512927426
 31
0.0
  0
LINE
  5
BE93
330
1F
100
AcDbEntity
  8
AM_0
 48
0.25
100
AcDbLine
 10
2875.065530526737
 20
1651.561512927426
 30
0.0
 11
2875.065530526737
 21
1650.111512596626
 31
0.0
  0
LINE
  5
BE94
330
1F
100
AcDbEntity
  8
AM_0
 48
0.25
100
AcDbLine
 10
2887.865530203437
 20
1651.561512927426
 30
0.0
 11
2887.211162939037
 21
1651.939312311726
 31
0.0
  0
LINE
  5
BE95
330
1F
100
AcDbEntity
  8
AM_0
 48
0.25
100
AcDbLine
 10
2875.968021682737
 20
1652.082566487526
 30
0.0
 11
2875.065530526737
 21
1651.561512927426
 31
0.0
  0
LINE
  5
BE96
330
1F
100
AcDbEntity
  8
AM_0
 48
0.25
100
AcDbLine
 10
2886.959181974937
 20
1655.896229985126
 30
0.0
 11
2886.373007546537
 21
1656.911513152426
 31
0.0
  0
LINE
  5
BE97
330
1F
100
AcDbEntity
  8
AM_0
 48
0.25
100
AcDbLine
 10
2876.558053183638
 20
1656.911513152426
 30
0.0
 11
2875.719897791125
 21
1655.411511975264
 31
0.0
  0
LINE
  5
BE98
330
1F
100
AcDbEntity
  8
AM_0
 48
0.25
100
AcDbLine
 10
2886.373007546537
 20
1656.911513152426
 30
0.0
 11
2886.373007546537
 21
1657.111512812727
 31
0.0
  0
LINE
  5
BE99
330
1F
100
AcDbEntity
  8
AM_0
 48
0.25
100
AcDbLine
 10
2876.558053183638
 20
1657.111512812727
 30
0.0
 11
2876.558053183638
 21
1656.911513152426
 31
0.0
  0
ARC
  5
BE9A
330
1F
100
AcDbEntity
  8
AM_0
 48
0.25
100
AcDbCircle
 10
2877.558053076937
 20
1657.111512756127
 30
0.0
 40
1.0
100
AcDbArc
 50
90.0
 51
180.0
  0
ARC
  5
BE9B
330
1F
100
AcDbEntity
  8
AM_0
 48
0.25
100
AcDbCircle
 10
2885.373007653237
 20
1657.111512756127
 30
0.0
 40
1.0
100
AcDbArc
 50
0.0
 51
90.0
  0
LINE
  5
BE9C
330
1F
100
AcDbEntity
  8
AM_2
 48
0.25
100
AcDbLine
 10
2884.465530391138
 20
1659.311512800827
 30
0.0
 11
2878.465530339037
 21
1659.311512800827
 31
0.0
  0
LINE
  5
BE9D
330
1F
100
AcDbEntity
  8
AM_0
 48
0.25
100
AcDbLine
 10
2879.465530270137
 20
1660.311512964726
 30
0.0
 11
2883.465530460038
 21
1660.311512964726
 31
0.0
  0
LINE
  5
BE9E
330
1F
100
AcDbEntity
  8
AM_2
 48
0.25
100
AcDbLine
 10
2886.667293372837
 20
1651.561512927426
 30
0.0
 11
2875.065530526737
 21
1651.561512927426
 31
0.0
  0
LINE
  5
BE9F
330
1F
100
AcDbEntity
  8
AM_2
 48
0.25
100
AcDbLine
 10
2887.865530203437
 20
1651.561512927426
 30
0.0
 11
2886.667293372837
 21
1651.561512927426
 31
0.0
  0
SPLINE
  5
BEA0
330
1F
100
AcDbEntity
  8
AM_2
 48
0.25
100
AcDbSpline
210
0.0
220
0.0
230
1.0
 70
     8
 71
     3
 72
    11
 73
     7
 74
     0
 42
0.000000001
 43
0.0000000001
 40
0.0
 40
0.0
 40
0.0
 40
0.0
 40
0.2969752954122036
 40
0.6003899876822729
 40
0.8589834481909798
 40
1.0
 40
1.0
 40
1.0
 40
1.0
 10
2878.102020004145
 20
1651.9232209203
 30
0.0
 10
2877.895247609643
 20
1652.052520514878
 30
0.0
 10
2877.477219318043
 20
1652.313923342639
 30
0.0
 10
2876.85829923151
 20
1652.404705563558
 30
0.0
 10
2876.352991057326
 20
1652.298448330842
 30
0.0
 10
2876.074702543321
 20
1652.128023644773
 30
0.0
 10
2875.97649858085
 20
1652.067883255815
 30
0.0
  0
SPLINE
  5
BEA1
330
1F
100
AcDbEntity
  8
AM_2
 48
0.25
100
AcDbSpline
210
0.0
220
0.0
230
1.0
 70
     8
 71
     3
 72
    11
 73
     7
 74
     0
 42
0.000000001
 43
0.0000000001
 40
0.0
 40
0.0
 40
0.0
 40
0.0
 40
0.2645988465694414
 40
0.5349351210468
 40
0.7653365811922999
 40
1.0
 40
1.0
 40
1.0
 40
1.0
 10
2883.847652345277
 20
1651.9232209203
 30
0.0
 10
2883.348983382163
 20
1652.05220497648
 30
0.0
 10
2882.340832569703
 20
1652.312969914045
 30
0.0
 10
2880.847102979228
 20
1652.408374866266
 30
0.0
 10
2879.419169709657
 20
1652.268361405913
 30
0.0
 10
2878.543744104723
 20
1652.038968484865
 30
0.0
 10
2878.102020004145
 20
1651.9232209203
 30
0.0
  0
SPLINE
  5
BEA2
330
1F
100
AcDbEntity
  8
AM_2
 48
0.25
100
AcDbSpline
210
0.0
220
0.0
230
1.0
 70
     8
 71
     3
 72
    11
 73
     7
 74
     0
 42
0.000000001
 43
0.0000000001
 40
0.0
 40
0.0
 40
0.0
 40
0.0
 40
0.1273161417569243
 40
0.3772349895227036
 40
0.633251053149288
 40
1.0
 40
1.0
 40
1.0
 40
1.0
 10
2887.211162939049
 20
1651.9232209203
 30
0.0
 10
2887.071467263199
 20
1651.988633831012
 30
0.0
 10
2886.657551980433
 20
1652.182450878454
 30
0.0
 10
2885.944290803778
 20
1652.379449579479
 30
0.0
 10
2884.944853904361
 20
1652.38570525979
 30
0.0
 10
2884.254314134427
 20
1652.094634009713
 30
0.0
 10
2883.847652345277
 20
1651.9232209203
 30
0.0
  0
LINE
  5
BEA3
330
1F
100
AcDbEntity
  8
AM_2
 48
0.25
100
AcDbLine
 10
2878.102020004137
 20
1655.411511975226
 30
0.0
 11
2878.102020004137
 21
1651.923220920326
 31
0.0
  0
SPLINE
  5
BEA4
330
1F
100
AcDbEntity
  8
AM_2
 48
0.25
100
AcDbSpline
210
0.0
220
0.0
230
1.0
 70
     8
 71
     3
 72
    14
 73
    10
 74
     0
 42
0.000000001
 43
0.0000000001
 40
0.0
 40
0.0
 40
0.0
 40
0.0
 40
0.1502867657893261
 40
0.3000141008384233
 40
0.464131754857156
 40
0.6291211933037447
 40
0.7361628679274521
 40
0.8434751318590173
 40
1.0
 40
1.0
 40
1.0
 40
1.0
 10
2878.102020004145
 20
1655.411511975264
 30
0.0
 10
2878.352209853977
 20
1655.618301085422
 30
0.0
 10
2878.851658241479
 20
1656.031109549437
 30
0.0
 10
2879.726812963385
 20
1656.528007433999
 30
0.0
 10
2880.737922255808
 20
1656.810978475474
 30
0.0
 10
2881.694520846698
 20
1656.703043085219
 30
0.0
 10
2882.454780627629
 20
1656.395036137341
 30
0.0
 10
2883.146878233942
 20
1655.989071584462
 30
0.0
 10
2883.586713974736
 20
1655.626570523914
 30
0.0
 10
2883.847652345277
 20
1655.411511975264
 30
0.0
  0
LINE
  5
BEA5
330
1F
100
AcDbEntity
  8
AM_2
 48
0.25
100
AcDbLine
 10
2883.847652345237
 20
1655.411511975226
 30
0.0
 11
2883.847652345237
 21
1651.923220920326
 31
0.0
  0
LINE
  5
BEA6
330
1F
100
AcDbEntity
  8
AM_0
 48
0.25
100
AcDbLine
 10
2887.211162939037
 20
1655.411511975226
 30
0.0
 11
2886.954439214737
 21
1655.893491896726
 31
0.0
  0
SPLINE
  5
BEA7
330
1F
100
AcDbEntity
  8
AM_2
 48
0.25
100
AcDbSpline
210
0.0
220
0.0
230
1.0
 70
     8
 71
     3
 72
    14
 73
    10
 74
     0
 42
0.000000001
 43
0.0000000001
 40
0.0
 40
0.0
 40
0.0
 40
0.0
 40
0.0687624863862302
 40
0.1950660482553397
 40
0.3210071004926473
 40
0.4769243414982256
 40
0.6328052725838928
 40
0.8426013973440481
 40
1.0
 40
1.0
 40
1.0
 40
1.0
 10
2883.847652345277
 20
1655.411511975264
 30
0.0
 10
2883.913880183641
 20
1655.507374356792
 30
0.0
 10
2884.101755919282
 20
1655.779317634644
 30
0.0
 10
2884.433007109052
 20
1656.181000151723
 30
0.0
 10
2884.892130410428
 20
1656.585888912935
 30
0.0
 10
2885.438771989063
 20
1656.809597899073
 30
0.0
 10
2886.103348925279
 20
1656.65895138357
 30
0.0
 10
2886.699442186459
 20
1656.129469364776
 30
0.0
 10
2887.057626615213
 20
1655.62692739021
 30
0.0
 10
2887.211162939049
 20
1655.411511975264
 30
0.0
  0
SPLINE
  5
BEA8
330
1F
100
AcDbEntity
  8
AM_2
 48
0.25
100
AcDbSpline
210
0.0
220
0.0
230
1.0
 70
     8
 71
     3
 72
    13
 73
     9
 74
     0
 42
0.000000001
 43
0.0000000001
 40
0.2015664657927834
 40
0.2015664657927834
 40
0.2015664657927834
 40
0.2015664657927834
 40
0.2999952868925856
 40
0.464116466830915
 40
0.6291094740070377
 40
0.7348596803847089
 40
0.8434717215312749
 40
1.0
 40
1.0
 40
1.0
 40
1.0
 10
2876.153788932601
 20
1656.188023382085
 30
0.0
 10
2876.229273335624
 20
1656.297418176055
 30
0.0
 10
2876.438368646324
 20
1656.558645276135
 30
0.0
 10
2876.812761345401
 20
1656.810889727455
 30
0.0
 10
2877.208153057816
 20
1656.703324546663
 30
0.0
 10
2877.523518592516
 20
1656.396496981933
 30
0.0
 10
2877.810573227917
 20
1655.990783223979
 30
0.0
 10
2877.993831577605
 20
1655.626544187147
 30
0.0
 10
2878.102020004145
 20
1655.411511975264
 30
0.0
  0
LINE
  5
BEA9
330
1F
100
AcDbEntity
  8
AM_2
 48
0.25
100
AcDbLine
 10
2876.558053183638
 20
1656.911513152426
 30
0.0
 11
2886.373007546537
 21
1656.911513152426
 31
0.0
  0
LINE
  5
BEAA
330
1F
100
AcDbEntity
  8
AM_0
 48
0.25
100
AcDbLine
 10
2877.558052881937
 20
1658.111512976627
 30
0.0
 11
2885.373007848237
 21
1658.111512976627
 31
0.0
  0
LINE
  5
BEAB
330
1F
100
AcDbEntity
  8
AM_0
 48
0.25
100
AcDbLine
 10
2887.211162939037
 20
1655.411511975226
 30
0.0
 11
2887.211162939037
 21
1651.923220920326
 31
0.0
  0
LINE
  5
BEAC
330
1F
100
AcDbEntity
  8
AM_0
 48
0.25
100
AcDbLine
 10
2875.719897791137
 20
1655.411511975226
 30
0.0
 11
2875.719897791137
 21
1651.939312311726
 31
0.0
  0
DIMENSION
  5
BF31
330
1F
100
AcDbEntity
  8
AM_5
100
AcDbDimension
  2
*D42
 10
2711.259501453743
 20
1738.498488844925
 30
0.0
 11
2698.181900532333
 21
1755.77631566708
 31
0.0
 70
   163
  1
 
 71
     5
 42
5.999999999999772
 73
     0
 74
     0
 75
     0
  3
SYS$3
100
AcDbDiametricDimension
 15
2707.638407271161
 25
1743.282595545331
 35
0.0
 40
0.0
1001
ACAD_DSTYLE_DIMRADIAL_EXTENSION
1070
   387
1070
     1
1070
   388
1040
0.0
1070
   390
1040
0.0
1001
ACAD_DSTYLE_DIMINSPECT
1070
   396
1000
100%
1070
   395
1000

1070
   394
1070
    33
1070
   393
1070
     0
1001
ACAD
1000
DSTYLE
1002
{
1070
   172
1070
     1
1070
   342
1005
B74E
1002
}
  0
DIMENSION
  5
BF34
330
1F
100
AcDbEntity
  8
AM_5
100
AcDbDimension
  2
*D45
 10
2991.775670076883
 20
1725.846944933839
 30
0.0
 11
3005.762214152022
 21
1756.238381958472
 31
0.0
 70
   163
  1
 
 71
     5
 42
5.599999904632568
 73
     0
 74
     0
 75
     0
  3
SYS$3
100
AcDbDiametricDimension
 15
2994.116837063739
 25
1730.934079301195
 35
0.0
 40
0.0
1001
ACAD_DSTYLE_DIMRADIAL_EXTENSION
1070
   387
1070
     1
1070
   388
1040
0.0
1070
   390
1040
0.0
1001
ACAD_DSTYLE_DIMINSPECT
1070
   396
1000
100%
1070
   395
1000

1070
   394
1070
    33
1070
   393
1070
     0
1001
ACAD
1000
DSTYLE
1002
{
1070
   172
1070
     1
1070
   342
1005
B74E
1002
}
  0
LINE
  5
C2B7
102
{ACAD_REACTORS
330
C2D2
102
}
330
1F
100
AcDbEntity
  8
AM_2
100
AcDbLine
 10
2800.636715614218
 20
1574.537497580156
 30
0.0
 11
2885.145161441146
 21
1574.537497580156
 31
0.0
  0
LINE
  5
C2B8
102
{ACAD_REACTORS
330
C2D2
102
}
330
1F
100
AcDbEntity
  8
AM_2
100
AcDbLine
 10
2800.636715614218
 20
1582.537497580156
 30
0.0
 11
2885.145161441145
 21
1582.537497580156
 31
0.0
  0
LINE
  5
C2B9
102
{ACAD_REACTORS
330
C2D2
102
}
330
1F
100
AcDbEntity
  8
AM_2
100
AcDbLine
 10
2841.531111458642
 20
1582.537497580155
 30
0.0
 11
2841.531111458643
 21
1558.537497580156
 31
0.0
  0
MTEXT
  5
C2BC
102
{ACAD_REACTORS
330
C2D2
102
}
330
1F
100
AcDbEntity
  8
AM_6
100
AcDbMText
 10
2810.636715614218
 20
1578.537497580156
 30
0.0
 40
3.2
 41
20.0
 46
0.0
 71
     5
 72
     5
  1
品　番
 73
     1
 44
1.0
  0
LINE
  5
C2BD
102
{ACAD_REACTORS
330
C2D2
102
}
330
1F
100
AcDbEntity
  8
AM_2
100
AcDbLine
 10
2800.63671561422
 20
1566.537497580156
 30
0.0
 11
2885.145161441146
 21
1566.537497580156
 31
0.0
  0
MTEXT
  5
C2BE
102
{ACAD_REACTORS
330
C2D2
102
}
330
1F
100
AcDbEntity
  8
AM_6
100
AcDbMText
 10
2841.417462016941
 20
1570.537497580156
 30
0.0
 40
3.2
 41
85.0
 46
0.0
 71
     4
 72
     5
  1
　102.4
 73
     1
 44
1.0
  0
LINE
  5
C2C1
102
{ACAD_REACTORS
330
C2D2
102
}
330
1F
100
AcDbEntity
  8
AM_2
100
AcDbLine
 10
2800.636715614225
 20
1558.537497580156
 30
0.0
 11
2885.145161441146
 21
1558.537497580156
 31
0.0
  0
MTEXT
  5
C2C3
102
{ACAD_REACTORS
330
C2D2
102
}
330
1F
100
AcDbEntity
  8
AM_6
100
AcDbMText
 10
2842.565742016181
 20
1562.537497580156
 30
0.0
 40
3.2
 41
85.0
 46
0.0
 71
     4
 72
     5
  1
　197
 73
     1
 44
1.0
  0
MTEXT
  5
C2C4
102
{ACAD_REACTORS
330
C2D2
102
}
330
1F
100
AcDbEntity
  8
AM_6
100
AcDbMText
 10
2844.64358073437
 20
1578.537497580156
 30
0.0
 40
3.2
 41
85.0
 46
0.0
 71
     4
 72
     5
  1
　A
 73
     1
 44
1.0
  0
LINE
  5
C2C5
102
{ACAD_REACTORS
330
C2D2
102
}
330
1F
100
AcDbEntity
  8
AM_2
100
AcDbLine
 10
2800.636715614218
 20
1582.537497580155
 30
0.0
 11
2800.636715614219
 21
1558.537497580156
 31
0.0
  0
MTEXT
  5
C2C6
102
{ACAD_REACTORS
330
C2D2
102
}
330
1F
100
AcDbEntity
  8
AM_6
100
AcDbMText
 10
2801.189849786051
 20
1570.856849743162
 30
0.0
 40
3.2
 41
85.0
 46
0.0
 71
     4
 72
     5
  1
　EDS-T22-１（L／R）
 73
     1
 44
1.0
  0
MTEXT
  5
C2C7
102
{ACAD_REACTORS
330
C2D2
102
}
330
1F
100
AcDbEntity
  8
AM_6
100
AcDbMText
 10
2801.18984978605
 20
1562.856849743162
 30
0.0
 40
3.2
 41
85.0
 46
0.0
 71
     4
 72
     5
  1
　EDS-T22-３（L／R）
 73
     1
 44
1.0
  0
LINE
  5
C2C8
102
{ACAD_REACTORS
330
C2D2
102
}
330
1F
100
AcDbEntity
  8
AM_2
100
AcDbLine
 10
2856.367367299569
 20
1582.537497580155
 30
0.0
 11
2856.36736729957
 21
1558.537497580156
 31
0.0
  0
MTEXT
  5
C2C9
102
{ACAD_REACTORS
330
C2D2
102
}
330
1F
100
AcDbEntity
  8
AM_6
100
AcDbMText
 10
2858.035293155713
 20
1570.537497580156
 30
0.0
 40
3.2
 41
85.0
 46
0.0
 71
     4
 72
     5
  1
　52
 73
     1
 44
1.0
  0
MTEXT
  5
C2CA
102
{ACAD_REACTORS
330
C2D2
102
}
330
1F
100
AcDbEntity
  8
AM_6
100
AcDbMText
 10
2856.735870159889
 20
1562.5732076266
 30
0.0
 40
3.2
 41
85.0
 46
0.0
 71
     4
 72
     5
  1
　100
 73
     1
 44
1.0
  0
MTEXT
  5
C2CB
102
{ACAD_REACTORS
330
C2D2
102
}
330
1F
100
AcDbEntity
  8
AM_6
100
AcDbMText
 10
2858.711900849046
 20
1578.537497580156
 30
0.0
 40
3.2
 41
85.0
 46
0.0
 71
     4
 72
     5
  1
　B
 73
     1
 44
1.0
  0
LINE
  5
C2CC
102
{ACAD_REACTORS
330
C2D2
102
}
330
1F
100
AcDbEntity
  8
AM_2
100
AcDbLine
 10
2869.699356829404
 20
1582.537497580155
 30
0.0
 11
2869.699356829406
 21
1558.537497580156
 31
0.0
  0
MTEXT
  5
C2CD
102
{ACAD_REACTORS
330
C2D2
102
}
330
1F
100
AcDbEntity
  8
AM_6
100
AcDbMText
 10
2872.118598648157
 20
1570.537497580156
 30
0.0
 40
3.2
 41
85.0
 46
0.0
 71
     4
 72
     5
  1
1.5N・ｍ
 73
     1
 44
1.0
  0
MTEXT
  5
C2CF
102
{ACAD_REACTORS
330
C2D2
102
}
330
1F
100
AcDbEntity
  8
AM_6
100
AcDbMText
 10
2870.145033281034
 20
1578.537497580156
 30
0.0
 40
3.2
 41
85.0
 46
0.0
 71
     4
 72
     5
  1
　トルク
 73
     1
 44
1.0
  0
LINE
  5
C2D0
102
{ACAD_REACTORS
330
C2D2
102
}
330
1F
100
AcDbEntity
  8
AM_2
100
AcDbLine
 10
2885.145161441145
 20
1582.537497580155
 30
0.0
 11
2885.145161441147
 21
1558.537497580156
 31
0.0
  0
MTEXT
  5
C2D1
102
{ACAD_REACTORS
330
C2D2
102
}
330
1F
100
AcDbEntity
  8
AM_6
100
AcDbMText
 10
2872.118598648157
 20
1562.537497580156
 30
0.0
 40
3.2
 41
85.0
 46
0.0
 71
     4
 72
     5
  1
３N・ｍ
 73
     1
 44
1.0
  0
ENDSEC
  0
SECTION
  2
OBJECTS
  0
DICTIONARY
  5
C
330
0
100
AcDbDictionary
281
     1
  3
ACAD_BGPLOT_KEY
350
AB06
  3
ACAD_CIP_PREVIOUS_PRODUCT_INFO
350
B550
  3
ACAD_COLOR
350
A91D
  3
ACAD_DETAILVIEWSTYLE
350
B545
  3
ACAD_DGNLINESTYLECOMP
350
BBBC
  3
ACAD_GROUP
350
D
  3
ACAD_LAYOUT
350
1A
  3
ACAD_MATERIAL
350
A91C
  3
ACAD_MLEADERSTYLE
350
B541
  3
ACAD_MLINESTYLE
350
17
  3
ACAD_PLOTSETTINGS
350
19
  3
ACAD_PLOTSTYLENAME
350
E
  3
ACAD_SCALELIST
350
B52F
  3
ACAD_SECTIONVIEWSTYLE
350
B543
  3
ACAD_TABLESTYLE
350
AAB9
  3
ACAD_VISUALSTYLE
350
B0F1
  3
AcAsAppObject
350
3DA1
  3
ACASGREF_MASTER
350
3DE9
  3
ACDB_RECOMPOSE_DATA
350
C372
  3
AcDbVariableDictionary
350
34
  3
AcDsDecomposeData
350
C378
  3
AcmDictionary
350
47
  3
AD_GREF_MODULE
350
3DEA
  3
AD_MAPI_MODULE
350
3E06
  3
AEC_PROPERTY_SET_DEFS
350
BC44
  3
AMG
350
2B
  3
AMGSNAPSETTINGS
350
7D
  3
ASE_INDEX_DICTIONARY
350
B331
  3
MAPISURF_MODULE
350
3DEB
  0
DICTIONARY
  5
3F95
330
2
100
AcDbDictionary
280
     1
281
     1
  3
ACAD_LAYERFILTERS
360
B523
  3
ACAD_LAYERSTATES
360
3F96
  3
ACLYDICTIONARY
360
B522
  3
AMLAYER_GROUPCOLORS
360
AAB4
  0
DICTIONARY
  5
C221
330
10
100
AcDbDictionary
280
     1
281
     1
  3
ADSK_XREC_LAYER_RECONCILED
360
C222
  0
DICTIONARY
  5
C223
330
5F85
100
AcDbDictionary
280
     1
281
     1
  3
ADSK_XREC_LAYER_RECONCILED
360
C224
  0
DICTIONARY
  5
C225
330
AC9F
100
AcDbDictionary
280
     1
281
     1
  3
ADSK_XREC_LAYER_RECONCILED
360
C226
  0
DICTIONARY
  5
C227
330
ACA0
100
AcDbDictionary
280
     1
281
     1
  3
ADSK_XREC_LAYER_RECONCILED
360
C228
  0
DICTIONARY
  5
C229
330
ACA1
100
AcDbDictionary
280
     1
281
     1
  3
ADSK_XREC_LAYER_RECONCILED
360
C22A
  0
DICTIONARY
  5
C233
330
AD64
100
AcDbDictionary
280
     1
281
     1
  3
ADSK_XREC_LAYER_RECONCILED
360
C234
  0
DICTIONARY
  5
C235
330
AD67
100
AcDbDictionary
280
     1
281
     1
  3
ADSK_XREC_LAYER_RECONCILED
360
C236
  0
DICTIONARY
  5
C237
330
AD68
100
AcDbDictionary
280
     1
281
     1
  3
ADSK_XREC_LAYER_RECONCILED
360
C238
  0
DICTIONARY
  5
C239
330
AD69
100
AcDbDictionary
280
     1
281
     1
  3
ADSK_XREC_LAYER_RECONCILED
360
C23A
  0
DICTIONARY
  5
8A
330
1F
100
AcDbDictionary
280
     1
281
     1
  3
ACAD_SORTENTS
360
B1BA
  0
DICTIONARY
  5
AB06
102
{ACAD_REACTORS
330
C
102
}
330
C
100
AcDbDictionary
280
     1
281
     1
  0
XRECORD
  5
B550
102
{ACAD_REACTORS
330
C
102
}
330
C
100
AcDbXrecord
280
     1
300
ACDLT
300
2018
300
ACDLT_F_S
  0
DICTIONARY
  5
A91D
102
{ACAD_REACTORS
330
C
102
}
330
C
100
AcDbDictionary
281
     1
  0
DICTIONARY
  5
B545
102
{ACAD_REACTORS
330
C
102
}
330
C
100
AcDbDictionary
281
     1
  3
Metric50
350
B546
  0
DICTIONARY
  5
BBBC
102
{ACAD_REACTORS
330
C
102
}
330
C
100
AcDbDictionary
280
     1
281
     1
  0
DICTIONARY
  5
D
102
{ACAD_REACTORS
330
C
102
}
330
C
100
AcDbDictionary
281
     1
  3
*A1
350
C2D2
  0
DICTIONARY
  5
1A
102
{ACAD_REACTORS
330
C
102
}
330
C
100
AcDbDictionary
281
     1
  3
Model
350
22
  3
ﾚｲｱｳﾄ1
350
1E
  3
ﾚｲｱｳﾄ2
350
26
  0
DICTIONARY
  5
A91C
102
{ACAD_REACTORS
330
C
102
}
330
C
100
AcDbDictionary
281
     1
  3
ByBlock
350
B0EF
  3
ByLayer
350
B0EE
  3
Global
350
B0F0
  0
DICTIONARY
  5
B541
102
{ACAD_REACTORS
330
C
102
}
330
C
100
AcDbDictionary
281
     1
  3
Standard
350
B542
  0
DICTIONARY
  5
17
102
{ACAD_REACTORS
330
C
102
}
330
C
100
AcDbDictionary
281
     1
  3
Standard
350
18
  0
DICTIONARY
  5
19
102
{ACAD_REACTORS
330
C
102
}
330
C
100
AcDbDictionary
281
     1
  0
ACDBDICTIONARYWDFLT
  5
E
102
{ACAD_REACTORS
330
C
102
}
330
C
100
AcDbDictionary
281
     1
  3
Normal
350
F
100
AcDbDictionaryWithDefault
340
F
  0
DICTIONARY
  5
B52F
102
{ACAD_REACTORS
330
C
102
}
330
C
100
AcDbDictionary
281
     1
  3
A0
350
B530
  3
A1
350
B531
  3
A2
350
B532
  3
A3
350
B533
  3
A4
350
B534
  3
A5
350
B535
  3
A6
350
B536
  3
A7
350
B537
  3
A8
350
B538
  3
A9
350
B539
  3
B0
350
B53A
  3
B1
350
B53B
  3
B2
350
B53C
  3
B3
350
B53D
  3
B4
350
B53E
  3
B5
350
B53F
  3
B6
350
B540
  0
DICTIONARY
  5
B543
102
{ACAD_REACTORS
330
C
102
}
330
C
100
AcDbDictionary
281
     1
  3
Metric50
350
B544
  0
DICTIONARY
  5
AAB9
102
{ACAD_REACTORS
330
C
102
}
330
C
100
AcDbDictionary
281
     1
  3
Standard
350
AABA
  0
DICTIONARY
  5
B0F1
102
{ACAD_REACTORS
330
C
102
}
330
C
100
AcDbDictionary
281
     1
  3
2dWireframe
350
B0F7
  3
3D Hidden
350
B0F9
  3
3dWireframe
350
B0F8
  3
Basic
350
B0F6
  3
Brighten
350
B0FD
  3
ColorChange
350
B101
  3
Conceptual
350
B0FA
  3
Dim
350
B0FC
  3
EdgeColorOff
350
B52E
  3
Facepattern
350
B100
  3
Flat
350
B0F2
  3
FlatWithEdges
350
B0F3
  3
Gouraud
350
B0F4
  3
GouraudWithEdges
350
B0F5
  3
Hidden
350
B526
  3
JitterOff
350
B52C
  3
Linepattern
350
B0FF
  3
OverhangOff
350
B52D
  3
Realistic
350
B0FB
  3
Shaded
350
B52B
  3
Shaded with edges
350
B52A
  3
Shades of Gray
350
B527
  3
Sketchy
350
B528
  3
Thicken
350
B0FE
  3
Wireframe
350
B525
  3
X-Ray
350
B529
  0
ACAD_PROXY_OBJECT
  5
3DA1
102
{ACAD_REACTORS
330
C
102
}
330
C
100
AcDbProxyObject
 90
      499
 91
      576
 95
   917527
 70
     0
 93
       10
310
404C
 94
        0
  0
ACAD_PROXY_OBJECT
  5
3DE9
102
{ACAD_REACTORS
330
C
102
}
330
C
100
AcDbProxyObject
 90
      499
 91
      581
 95
   917527
 70
     0
 93
       34
310
010000404C
 94
        0
  0
XRECORD
  5
C372
102
{ACAD_REACTORS
330
C
102
}
330
C
100
AcDbXrecord
280
     1
 90
        1
330
AABA
  0
DICTIONARY
  5
34
102
{ACAD_REACTORS
330
C
102
}
330
C
100
AcDbDictionary
281
     1
  3
CANNOSCALE
350
B571
  3
CMLEADERSTYLE
350
B56D
  3
CTABLESTYLE
350
AAF3
  3
CVIEWDETAILSTYLE
350
B56E
  3
CVIEWSECTIONSTYLE
350
B56F
  3
DIMASSOC
350
A10C
  3
FIELDEVAL
350
AB07
  3
INDEXCTL
350
35
  3
LAYEREVAL
350
B573
  3
LAYERNOTIFY
350
B574
  3
LIGHTINGUNITS
350
B572
  3
MSLTSCALE
350
B570
  3
SORTENTS
350
194C
  0
DICTIONARY
  5
C378
102
{ACAD_REACTORS
330
C
102
}
330
C
100
AcDbDictionary
281
     1
  3
AcDsRecords
350
C37A
  3
AcDsSchemas
350
C379
1001
ACAD
1070
     2
  0
DICTIONARY
  5
47
102
{ACAD_REACTORS
330
C
102
}
330
C
100
AcDbDictionary
281
     1
  3
AcmBOM
350
7E8
  3
AcmStdDictionary
350
4C
  3
AMDTSECTSYM_ARROWCOLOR
350
A929
  0
ACAD_PROXY_OBJECT
  5
3DEA
102
{ACAD_REACTORS
330
C
102
}
330
C
100
AcDbProxyObject
 90
      499
 91
      582
 95
   917527
 70
     0
 93
      114
310
00000043800000000000000000000C
 94
        0
  0
ACAD_PROXY_OBJECT
  5
3E06
102
{ACAD_REACTORS
330
C
102
}
330
C
100
AcDbProxyObject
 90
      499
 91
      594
 95
   917527
 70
     0
 93
       34
310
05000044CC
 94
        0
  0
DICTIONARY
  5
BC44
102
{ACAD_REACTORS
330
C
102
}
330
C
100
AcDbDictionary
281
     1
  0
DICTIONARY
  5
2B
102
{ACAD_REACTORS
330
C
102
}
330
C
100
AcDbDictionary
281
     1
  0
DICTIONARY
  5
7D
102
{ACAD_REACTORS
330
C
102
}
330
C
100
AcDbDictionary
281
     1
  0
DICTIONARY
  5
B331
102
{ACAD_REACTORS
330
C
102
}
330
C
100
AcDbDictionary
281
     1
  3
ASEBlockHierarchyIndexRecord
350
B332
1001
DCO15
1040
1594111214.218
  0
ACAD_PROXY_OBJECT
  5
3DEB
102
{ACAD_REACTORS
330
C
102
}
330
C
100
AcDbProxyObject
 90
      499
 91
      583
 95
   917527
 70
     0
 93
        8
310
0400
 94
        0
  0
DICTIONARY
  5
B523
102
{ACAD_REACTORS
330
3F95
102
}
330
3F95
100
AcDbDictionary
281
     1
  0
DICTIONARY
  5
3F96
102
{ACAD_REACTORS
330
3F95
102
}
330
3F95
100
AcDbDictionary
281
     1
  3
20011210
350
3FB7
  0
DICTIONARY
  5
B522
102
{ACAD_REACTORS
330
3F95
102
}
330
3F95
100
AcDbDictionary
281
     1
1001
ACAD
1000
<All
  0
DICTIONARY
  5
AAB4
102
{ACAD_REACTORS
330
3F95
102
}
330
3F95
100
AcDbDictionary
280
     1
281
     1
  0
XRECORD
  5
C222
102
{ACAD_REACTORS
330
C221
102
}
330
C221
100
AcDbXrecord
280
     1
290
     1
  0
XRECORD
  5
C224
102
{ACAD_REACTORS
330
C223
102
}
330
C223
100
AcDbXrecord
280
     1
290
     1
  0
XRECORD
  5
C226
102
{ACAD_REACTORS
330
C225
102
}
330
C225
100
AcDbXrecord
280
     1
290
     1
  0
XRECORD
  5
C228
102
{ACAD_REACTORS
330
C227
102
}
330
C227
100
AcDbXrecord
280
     1
290
     1
  0
XRECORD
  5
C22A
102
{ACAD_REACTORS
330
C229
102
}
330
C229
100
AcDbXrecord
280
     1
290
     1
  0
XRECORD
  5
C234
102
{ACAD_REACTORS
330
C233
102
}
330
C233
100
AcDbXrecord
280
     1
290
     1
  0
XRECORD
  5
C236
102
{ACAD_REACTORS
330
C235
102
}
330
C235
100
AcDbXrecord
280
     1
290
     1
  0
XRECORD
  5
C238
102
{ACAD_REACTORS
330
C237
102
}
330
C237
100
AcDbXrecord
280
     1
290
     1
  0
XRECORD
  5
C23A
102
{ACAD_REACTORS
330
C239
102
}
330
C239
100
AcDbXrecord
280
     1
290
     1
  0
SORTENTSTABLE
  5
B1BA
102
{ACAD_REACTORS
330
8A
102
}
330
8A
100
AcDbSortentsTable
330
1F
  0
ACDBDETAILVIEWSTYLE
  5
B546
102
{ACAD_XDICTIONARY
360
C3B3
102
}
102
{ACAD_REACTORS
330
B545
102
}
330
B545
100
AcDbModelDocViewStyle
 70
     0
  3
Metric50
290
     0
100
AcDbDetailViewStyle
 70
     0
 71
     0
 90
        3
 71
     1
340
11
 62
   256
 40
5.0
340
0
 62
   256
 40
5.0
300

 40
0.0
280
     1
 71
     2
340
16
 90
       25
 62
   256
 71
     3
340
11
 62
   256
 40
5.0
 90
        0
 40
15.0
 90
        1
300
%<\AcVar ViewDetailId>% (%<\AcVar ViewScale \f "%sn">%)
 71
     4
340
16
 90
       25
 62
   256
340
16
 90
       25
 62
   256
280
     0
  0
GROUP
  5
C2D2
102
{ACAD_REACTORS
330
D
102
}
330
D
100
AcDbGroup
300

 70
     1
 71
     1
340
C2B7
340
C2B8
340
C2BD
340
C2C1
340
C2BE
340
C2C3
340
C2C4
340
C2C5
340
C2B9
340
C2C6
340
C2C7
340
C2BC
340
C2C8
340
C2CC
340
C2D0
340
C2CD
340
C2C9
340
C2D1
340
C2CA
340
C2CF
340
C2CB
  0
LAYOUT
  5
22
102
{ACAD_REACTORS
330
1A
102
}
330
1A
100
AcDbPlotSettings
  1

  2
DWG To PDF.pc3
  4
ISO_expand_A3_(420.00_x_297.00_MM)
  6
AM_VIEW1
 40
0.0
 41
0.0
 42
0.0
 43
0.0
 44
420.0
 45
297.0
 46
11.5
 47
8.5
 48
2643.543139737103
 49
1547.097192696481
140
3040.543139737103
141
1827.097192696481
142
1.0
143
1.0
 70
  3748
 72
     1
 73
     0
 74
     4
  7
monochrome.ctb
 75
     0
147
0.9336160251072474
 76
     0
 77
     2
 78
   200
148
-2643.543139737103
149
-1547.097192696481
100
AcDbLayout
  1
Model
 70
     1
 71
     0
 10
0.0
 20
0.0
 11
12.0
 21
9.0
 12
0.0
 22
0.0
 32
0.0
 14
0.0
 24
0.0
 34
0.0
 15
0.0
 25
0.0
 35
0.0
146
0.0
 13
0.0
 23
0.0
 33
0.0
 16
1.0
 26
0.0
 36
0.0
 17
0.0
 27
1.0
 37
0.0
 76
     0
330
1F
331
B0EC
1001
ACAD_PSEXT
1000
DWG To PDF.pc3
1000
DWG To PDF
1000
ファイル
1000

1070
     0
  0
LAYOUT
  5
1E
102
{ACAD_REACTORS
330
1A
102
}
330
1A
100
AcDbPlotSettings
  1

  2
\\ML370\XEROX
  4
A4
  6

 40
3.174999952316283
 41
3.174999952316283
 42
3.175003051757812
 43
3.17498779296875
 44
209.8674926757813
 45
296.6719970703125
 46
0.0
 47
0.0
 48
0.0
 49
0.0
140
0.0
141
0.0
142
1.0
143
1.0
 70
   688
 72
     1
 73
     1
 74
     5
  7
monochrome.ctb
 75
    16
147
1.0
 76
     0
 77
     2
 78
   300
148
0.0
149
0.0
100
AcDbLayout
  1
ﾚｲｱｳﾄ1
 70
     1
 71
     1
 10
-3.17498779296875
 20
-3.174999952316283
 11
293.4970092773438
 21
206.692492723465
 12
0.0
 22
0.0
 32
0.0
 14
1.000000000000000E+20
 24
1.000000000000000E+20
 34
1.000000000000000E+20
 15
-1.000000000000000E+20
 25
-1.000000000000000E+20
 35
-1.000000000000000E+20
146
0.0
 13
0.0
 23
0.0
 33
0.0
 16
1.0
 26
0.0
 36
0.0
 17
0.0
 27
1.0
 37
0.0
 76
     0
330
1B
  0
LAYOUT
  5
26
102
{ACAD_REACTORS
330
1A
102
}
330
1A
100
AcDbPlotSettings
  1

  2
\\ML370\XEROX
  4

  6

 40
0.0
 41
0.0
 42
0.0
 43
0.0
 44
0.0
 45
0.0
 46
0.0
 47
0.0
 48
0.0
 49
0.0
140
0.0
141
0.0
142
1.0
143
1.0
 70
   688
 72
     0
 73
     0
 74
     5
  7
monochrome.ctb
 75
    16
147
1.0
 76
     0
 77
     2
 78
   300
148
0.0
149
0.0
100
AcDbLayout
  1
ﾚｲｱｳﾄ2
 70
     1
 71
     2
 10
0.0
 20
0.0
 11
12.0
 21
9.0
 12
0.0
 22
0.0
 32
0.0
 14
0.0
 24
0.0
 34
0.0
 15
0.0
 25
0.0
 35
0.0
146
0.0
 13
0.0
 23
0.0
 33
0.0
 16
1.0
 26
0.0
 36
0.0
 17
0.0
 27
1.0
 37
0.0
 76
     0
330
23
  0
MATERIAL
  5
B0EF
102
{ACAD_REACTORS
330
A91C
102
}
330
A91C
100
AcDbMaterial
  1
ByBlock
 73
     1
 78
     1
172
     1
176
     1
270
     1
274
     1
 94
       63
  0
MATERIAL
  5
B0EE
102
{ACAD_REACTORS
330
A91C
102
}
330
A91C
100
AcDbMaterial
  1
ByLayer
 73
     1
 78
     1
172
     1
176
     1
270
     1
274
     1
 94
       63
  0
MATERIAL
  5
B0F0
102
{ACAD_REACTORS
330
A91C
102
}
330
A91C
100
AcDbMaterial
  1
Global
 73
     1
 78
     1
172
     1
176
     1
270
     1
274
     1
 94
       63
  0
MLEADERSTYLE
  5
B542
102
{ACAD_XDICTIONARY
360
C3AF
102
}
102
{ACAD_REACTORS
330
B541
102
}
330
B541
100
AcDbMLeaderStyle
170
     2
171
     1
172
     0
 90
        2
 40
0.0
 41
0.0
173
     1
 91
-1056964608
340
14
 92
       -2
290
     1
 42
2.0
291
     1
 43
0.36
  3
Standard
 44
4.0
300

342
11
174
     1
178
     6
175
     1
176
     0
 93
-1056964608
 45
4.0
292
     0
297
     0
 46
4.0
 94
-1056964608
 47
1.0
 49
1.0
140
1.0
293
     1
141
0.0
294
     1
177
     0
142
1.0
295
     0
296
     0
143
0.125
1001
ACAD_MLEADERVER
1070
     2
  0
MLINESTYLE
  5
18
102
{ACAD_REACTORS
330
17
102
}
330
17
100
AcDbMlineStyle
  2
STANDARD
 70
     0
  3

 62
   256
 51
90.0
 52
90.0
 71
     2
 49
0.5
 62
   256
  6
BYLAYER
 49
-0.5
 62
   256
  6
BYLAYER
  0
ACDBPLACEHOLDER
  5
F
102
{ACAD_REACTORS
330
E
102
}
330
E
  0
SCALE
  5
B530
102
{ACAD_REACTORS
330
B52F
102
}
330
B52F
100
AcDbScale
 70
     0
300
1:1
140
1.0
141
1.0
290
     1
  0
SCALE
  5
B531
102
{ACAD_REACTORS
330
B52F
102
}
330
B52F
100
AcDbScale
 70
     0
300
1:2
140
1.0
141
2.0
290
     0
  0
SCALE
  5
B532
102
{ACAD_REACTORS
330
B52F
102
}
330
B52F
100
AcDbScale
 70
     0
300
1:4
140
1.0
141
4.0
290
     0
  0
SCALE
  5
B533
102
{ACAD_REACTORS
330
B52F
102
}
330
B52F
100
AcDbScale
 70
     0
300
1:5
140
1.0
141
5.0
290
     0
  0
SCALE
  5
B534
102
{ACAD_REACTORS
330
B52F
102
}
330
B52F
100
AcDbScale
 70
     0
300
1:8
140
1.0
141
8.0
290
     0
  0
SCALE
  5
B535
102
{ACAD_REACTORS
330
B52F
102
}
330
B52F
100
AcDbScale
 70
     0
300
1:10
140
1.0
141
10.0
290
     0
  0
SCALE
  5
B536
102
{ACAD_REACTORS
330
B52F
102
}
330
B52F
100
AcDbScale
 70
     0
300
1:16
140
1.0
141
16.0
290
     0
  0
SCALE
  5
B537
102
{ACAD_REACTORS
330
B52F
102
}
330
B52F
100
AcDbScale
 70
     0
300
1:20
140
1.0
141
20.0
290
     0
  0
SCALE
  5
B538
102
{ACAD_REACTORS
330
B52F
102
}
330
B52F
100
AcDbScale
 70
     0
300
1:30
140
1.0
141
30.0
290
     0
  0
SCALE
  5
B539
102
{ACAD_REACTORS
330
B52F
102
}
330
B52F
100
AcDbScale
 70
     0
300
1:40
140
1.0
141
40.0
290
     0
  0
SCALE
  5
B53A
102
{ACAD_REACTORS
330
B52F
102
}
330
B52F
100
AcDbScale
 70
     0
300
1:50
140
1.0
141
50.0
290
     0
  0
SCALE
  5
B53B
102
{ACAD_REACTORS
330
B52F
102
}
330
B52F
100
AcDbScale
 70
     0
300
1:100
140
1.0
141
100.0
290
     0
  0
SCALE
  5
B53C
102
{ACAD_REACTORS
330
B52F
102
}
330
B52F
100
AcDbScale
 70
     0
300
2:1
140
2.0
141
1.0
290
     0
  0
SCALE
  5
B53D
102
{ACAD_REACTORS
330
B52F
102
}
330
B52F
100
AcDbScale
 70
     0
300
4:1
140
4.0
141
1.0
290
     0
  0
SCALE
  5
B53E
102
{ACAD_REACTORS
330
B52F
102
}
330
B52F
100
AcDbScale
 70
     0
300
8:1
140
8.0
141
1.0
290
     0
  0
SCALE
  5
B53F
102
{ACAD_REACTORS
330
B52F
102
}
330
B52F
100
AcDbScale
 70
     0
300
10:1
140
10.0
141
1.0
290
     0
  0
SCALE
  5
B540
102
{ACAD_REACTORS
330
B52F
102
}
330
B52F
100
AcDbScale
 70
     0
300
100:1
140
100.0
141
1.0
290
     0
  0
ACDBSECTIONVIEWSTYLE
  5
B544
102
{ACAD_XDICTIONARY
360
C3B1
102
}
102
{ACAD_REACTORS
330
B543
102
}
330
B543
100
AcDbModelDocViewStyle
 70
     0
  3
Metric50
290
     0
100
AcDbSectionViewStyle
 70
     0
 71
     0
 90
      102
 71
     1
340
11
 62
   256
 40
5.0
340
0
340
0
 62
   256
 40
5.0
300
I, O, Q, S, X, Z
 40
10.0
 90
        0
 40
2.5
 90
        0
 71
     2
340
16
 90
       25
 62
   256
340
16
 90
       50
 62
   256
 40
5.0
 40
2.5
 40
5.0
 71
     3
340
11
 62
   256
 40
5.0
 90
        0
 40
15.0
 90
        1
300
%<\AcVar ViewSectionStartId>%-%<\AcVar ViewSectionEndId>% (%<\AcVar ViewScale \f "%sn">%)
 71
     4
 62
   256
 62
   257
300
ANSI31
 40
1.0
 90
        0
290
     0
290
     0
 90
        6
 40
0.0
 40
1.570796326794896
 40
0.2617993877991494
 40
1.308996938995747
 40
-0.2617993877991494
 40
1.832595714594045
  0
TABLESTYLE
  5
AABA
102
{ACAD_XDICTIONARY
360
C245
102
}
102
{ACAD_REACTORS
330
AAB9
102
}
330
AAB9
100
AcDbTableStyle
  3
Standard
 70
     0
 71
     0
 40
1.5
 41
1.5
280
     0
281
     0
  7
STANDARD
140
4.5
170
     2
 62
     0
 63
     7
283
     0
 90
        4
 91
        0
  1

274
    -2
284
     1
 64
     0
275
    -2
285
     1
 65
     0
276
    -2
286
     1
 66
     0
277
    -2
287
     1
 67
     0
278
    -2
288
     1
 68
     0
279
    -2
289
     1
 69
     0
  7
STANDARD
140
6.0
170
     5
 62
     0
 63
     7
283
     0
 90
        4
 91
        0
  1

274
    -2
284
     1
 64
     0
275
    -2
285
     1
 65
     0
276
    -2
286
     1
 66
     0
277
    -2
287
     1
 67
     0
278
    -2
288
     1
 68
     0
279
    -2
289
     1
 69
     0
  7
STANDARD
140
4.5
170
     5
 62
     0
 63
     7
283
     0
 90
        4
 91
        0
  1

274
    -2
284
     1
 64
     0
275
    -2
285
     1
 65
     0
276
    -2
286
     1
 66
     0
277
    -2
287
     1
 67
     0
278
    -2
288
     1
 68
     0
279
    -2
289
     1
 69
     0
  0
VISUALSTYLE
  5
B0F7
102
{ACAD_XDICTIONARY
360
C385
102
}
102
{ACAD_REACTORS
330
B0F1
102
}
330
B0F1
100
AcDbVisualStyle
  2

 70
     4
 71
     0
 72
     2
 73
     0
 90
        0
 40
-0.6
 41
-30.0
 62
     5
 63
     7
421
 16777215
 74
     1
 91
        4
 64
     7
 65
   257
 75
     1
175
     1
 42
1.0
 92
        0
 66
   257
 43
1.0
 76
     1
 77
     6
 78
     2
 67
     7
 79
     5
170
     0
171
     0
290
     0
174
     0
 93
        1
 44
0.0
173
     0
291
     0
 45
0.0
1001
ACAD
1000
AcDbSavedByObjectVersion
1070
     0
  0
VISUALSTYLE
  5
B0F9
102
{ACAD_XDICTIONARY
360
C389
102
}
102
{ACAD_REACTORS
330
B0F1
102
}
330
B0F1
100
AcDbVisualStyle
  2

 70
     6
 71
     1
 72
     2
 73
     2
 90
        0
 40
-0.6
 41
-30.0
 62
     5
 63
     7
421
 16777215
 74
     2
 91
        2
 64
     7
 65
   257
 75
     2
175
     1
 42
40.0
 92
        0
 66
   257
 43
1.0
 76
     1
 77
     6
 78
     2
 67
     7
 79
     3
170
     0
171
     0
290
     0
174
     0
 93
        1
 44
0.0
173
     0
291
     0
 45
0.0
1001
ACAD
1000
AcDbSavedByObjectVersion
1070
     0
  0
VISUALSTYLE
  5
B0F8
102
{ACAD_XDICTIONARY
360
C387
102
}
102
{ACAD_REACTORS
330
B0F1
102
}
330
B0F1
100
AcDbVisualStyle
  2

 70
     5
 71
     0
 72
     2
 73
     0
 90
        0
 40
-0.6
 41
-30.0
 62
     5
 63
     7
421
 16777215
 74
     1
 91
        4
 64
     7
 65
   257
 75
     1
175
     1
 42
1.0
 92
        0
 66
   257
 43
1.0
 76
     1
 77
     6
 78
     2
 67
     7
 79
     5
170
     0
171
     0
290
     0
174
     0
 93
        1
 44
0.0
173
     0
291
     0
 45
0.0
1001
ACAD
1000
AcDbSavedByObjectVersion
1070
     0
  0
VISUALSTYLE
  5
B0F6
102
{ACAD_XDICTIONARY
360
C383
102
}
102
{ACAD_REACTORS
330
B0F1
102
}
330
B0F1
100
AcDbVisualStyle
  2

 70
     7
 71
     1
 72
     0
 73
     1
 90
        0
 40
-0.6
 41
-30.0
 62
     5
 63
     7
421
 16777215
 74
     0
 91
        4
 64
     7
 65
   257
 75
     1
175
     1
 42
1.0
 92
        8
 66
     7
 43
1.0
 76
     1
 77
     6
 78
     2
 67
     7
 79
     5
170
     0
171
     0
290
     0
174
     0
 93
        1
 44
0.0
173
     0
291
     1
 45
0.0
1001
ACAD
1000
AcDbSavedByObjectVersion
1070
     0
  0
VISUALSTYLE
  5
B0FD
102
{ACAD_XDICTIONARY
360
C391
102
}
102
{ACAD_REACTORS
330
B0F1
102
}
330
B0F1
100
AcDbVisualStyle
  2

 70
    12
 71
     2
 72
     2
 73
     0
 90
        0
 40
-0.6
 41
-30.0
 62
     5
 63
     7
421
 16777215
 74
     1
 91
        4
 64
     7
 65
   257
 75
     1
175
     1
 42
1.0
 92
        8
 66
     7
 43
1.0
 76
     1
 77
     6
 78
     2
 67
     7
 79
     5
170
     0
171
     0
290
     0
174
     0
 93
        1
 44
50.0
173
     0
291
     1
 45
0.0
1001
ACAD
1000
AcDbSavedByObjectVersion
1070
     0
  0
VISUALSTYLE
  5
B101
102
{ACAD_XDICTIONARY
360
C399
102
}
102
{ACAD_REACTORS
330
B0F1
102
}
330
B0F1
100
AcDbVisualStyle
  2

 70
    16
 71
     2
 72
     2
 73
     3
 90
        0
 40
-0.6
 41
-30.0
 62
     5
 63
     8
421
  8421504
 74
     1
 91
        4
 64
     7
 65
   257
 75
     1
175
     1
 42
1.0
 92
        8
 66
     8
424
  8421504
 43
1.0
 76
     1
 77
     6
 78
     2
 67
     7
 79
     5
170
     0
171
     0
290
     0
174
     0
 93
        1
 44
0.0
173
     0
291
     1
 45
0.0
1001
ACAD
1000
AcDbSavedByObjectVersion
1070
     0
  0
VISUALSTYLE
  5
B0FA
102
{ACAD_XDICTIONARY
360
C38B
102
}
102
{ACAD_REACTORS
330
B0F1
102
}
330
B0F1
100
AcDbVisualStyle
  2

 70
     9
 71
     3
 72
     2
 73
     0
 90
        0
 40
-0.6
 41
-30.0
 62
     5
 63
     7
421
 16777215
 74
     2
 91
        2
 64
     7
 65
   257
 75
     1
175
     1
 42
40.0
 92
        8
 66
     7
 43
1.0
 76
     1
 77
     6
 78
     2
 67
     7
 79
     3
170
     0
171
     0
290
     0
174
     0
 93
        1
 44
0.0
173
     0
291
     0
 45
0.0
1001
ACAD
1000
AcDbSavedByObjectVersion
1070
     0
  0
VISUALSTYLE
  5
B0FC
102
{ACAD_XDICTIONARY
360
C38F
102
}
102
{ACAD_REACTORS
330
B0F1
102
}
330
B0F1
100
AcDbVisualStyle
  2

 70
    11
 71
     2
 72
     2
 73
     0
 90
        0
 40
-0.6
 41
-30.0
 62
     5
 63
     7
421
 16777215
 74
     1
 91
        4
 64
     7
 65
   257
 75
     1
175
     1
 42
1.0
 92
        8
 66
     7
 43
1.0
 76
     1
 77
     6
 78
     2
 67
     7
 79
     5
170
     0
171
     0
290
     0
174
     0
 93
        1
 44
-50.0
173
     0
291
     1
 45
0.0
1001
ACAD
1000
AcDbSavedByObjectVersion
1070
     0
  0
VISUALSTYLE
  5
B52E
102
{ACAD_XDICTIONARY
360
C3AD
102
}
102
{ACAD_REACTORS
330
B0F1
102
}
330
B0F1
100
AcDbVisualStyle
  2

 70
    22
 71
     2
 72
     2
 73
     0
 90
        0
 40
-0.6
 41
-30.0
 62
     5
 63
     7
421
 16777215
 74
     1
 91
        4
 64
     7
 65
   257
 75
     1
175
     1
 42
1.0
 92
        8
 66
     7
 43
1.0
 76
     1
 77
     6
 78
     2
 67
     7
 79
     5
170
     0
171
     0
290
     0
174
     0
 93
        1
 44
0.0
173
     0
291
     1
 45
0.0
1001
ACAD
1000
AcDbSavedByObjectVersion
1070
     0
  0
VISUALSTYLE
  5
B100
102
{ACAD_XDICTIONARY
360
C397
102
}
102
{ACAD_REACTORS
330
B0F1
102
}
330
B0F1
100
AcDbVisualStyle
  2

 70
    15
 71
     2
 72
     2
 73
     0
 90
        0
 40
-0.6
 41
-30.0
 62
     5
 63
     7
421
 16777215
 74
     1
 91
        4
 64
     7
 65
   257
 75
     1
175
     1
 42
1.0
 92
        8
 66
     7
 43
1.0
 76
     1
 77
     6
 78
     2
 67
     7
 79
     5
170
     0
171
     0
290
     0
174
     0
 93
        1
 44
0.0
173
     0
291
     1
 45
0.0
1001
ACAD
1000
AcDbSavedByObjectVersion
1070
     0
  0
VISUALSTYLE
  5
B0F2
102
{ACAD_XDICTIONARY
360
C37B
102
}
102
{ACAD_REACTORS
330
B0F1
102
}
330
B0F1
100
AcDbVisualStyle
  2

 70
     0
 71
     2
 72
     1
 73
     1
 90
        2
 40
-0.6
 41
30.0
 62
     5
 63
     7
421
 16777215
 74
     0
 91
        4
 64
     7
 65
   257
 75
     1
175
     1
 42
1.0
 92
        8
 66
     7
 43
1.0
 76
     1
 77
     6
 78
     2
 67
     7
 79
     5
170
     0
171
     0
290
     0
174
     0
 93
       13
 44
0.0
173
     0
291
     1
 45
0.0
1001
ACAD
1000
AcDbSavedByObjectVersion
1070
     0
  0
VISUALSTYLE
  5
B0F3
102
{ACAD_XDICTIONARY
360
C37D
102
}
102
{ACAD_REACTORS
330
B0F1
102
}
330
B0F1
100
AcDbVisualStyle
  2

 70
     1
 71
     2
 72
     1
 73
     1
 90
        2
 40
-0.6
 41
30.0
 62
     5
 63
     7
421
 16777215
 74
     1
 91
        4
 64
     7
 65
   257
 75
     1
175
     1
 42
1.0
 92
        0
 66
   257
 43
1.0
 76
     1
 77
     6
 78
     2
 67
     7
 79
     5
170
     0
171
     0
290
     0
174
     0
 93
       13
 44
0.0
173
     0
291
     1
 45
0.0
1001
ACAD
1000
AcDbSavedByObjectVersion
1070
     0
  0
VISUALSTYLE
  5
B0F4
102
{ACAD_XDICTIONARY
360
C37F
102
}
102
{ACAD_REACTORS
330
B0F1
102
}
330
B0F1
100
AcDbVisualStyle
  2

 70
     2
 71
     2
 72
     2
 73
     1
 90
        2
 40
-0.6
 41
30.0
 62
     5
 63
     7
421
 16777215
 74
     0
 91
        4
 64
     7
 65
   257
 75
     1
175
     1
 42
1.0
 92
        0
 66
     7
 43
1.0
 76
     1
 77
     6
 78
     2
 67
     7
 79
     5
170
     0
171
     0
290
     0
174
     0
 93
       13
 44
0.0
173
     0
291
     1
 45
0.0
1001
ACAD
1000
AcDbSavedByObjectVersion
1070
     0
  0
VISUALSTYLE
  5
B0F5
102
{ACAD_XDICTIONARY
360
C381
102
}
102
{ACAD_REACTORS
330
B0F1
102
}
330
B0F1
100
AcDbVisualStyle
  2

 70
     3
 71
     2
 72
     2
 73
     1
 90
        2
 40
-0.6
 41
30.0
 62
     5
 63
     7
421
 16777215
 74
     1
 91
        4
 64
     7
 65
   257
 75
     1
175
     1
 42
1.0
 92
        0
 66
   257
 43
1.0
 76
     1
 77
     6
 78
     2
 67
     7
 79
     5
170
     0
171
     0
290
     0
174
     0
 93
       13
 44
0.0
173
     0
291
     1
 45
0.0
1001
ACAD
1000
AcDbSavedByObjectVersion
1070
     0
  0
VISUALSTYLE
  5
B526
102
{ACAD_XDICTIONARY
360
C39D
102
}
102
{ACAD_REACTORS
330
B0F1
102
}
330
B0F1
100
AcDbVisualStyle
  2

 70
     6
 71
     1
 72
     2
 73
     2
 90
        0
 40
-0.6
 41
-30.0
 62
     5
 63
     7
421
 16777215
 74
     2
 91
        2
 64
     7
 65
   257
 75
     2
175
     1
 42
40.0
 92
        0
 66
   257
 43
1.0
 76
     1
 77
     6
 78
     2
 67
     7
 79
     3
170
     0
171
     0
290
     0
174
     0
 93
        1
 44
0.0
173
     0
291
     0
 45
0.0
1001
ACAD
1000
AcDbSavedByObjectVersion
1070
     0
  0
VISUALSTYLE
  5
B52C
102
{ACAD_XDICTIONARY
360
C3A9
102
}
102
{ACAD_REACTORS
330
B0F1
102
}
330
B0F1
100
AcDbVisualStyle
  2

 70
    20
 71
     2
 72
     2
 73
     0
 90
        0
 40
-0.6
 41
-30.0
 62
     5
 63
     7
421
 16777215
 74
     1
 91
        4
 64
     7
 65
   257
 75
     1
175
     1
 42
1.0
 92
       10
 66
     7
 43
1.0
 76
     1
 77
     6
 78
     2
 67
     7
 79
     5
170
     0
171
     0
290
     0
174
     0
 93
        1
 44
0.0
173
     0
291
     1
 45
0.0
1001
ACAD
1000
AcDbSavedByObjectVersion
1070
     0
  0
VISUALSTYLE
  5
B0FF
102
{ACAD_XDICTIONARY
360
C395
102
}
102
{ACAD_REACTORS
330
B0F1
102
}
330
B0F1
100
AcDbVisualStyle
  2

 70
    14
 71
     2
 72
     2
 73
     0
 90
        0
 40
-0.6
 41
-30.0
 62
     5
 63
     7
421
 16777215
 74
     1
 91
        4
 64
     7
 65
   257
 75
     7
175
     7
 42
1.0
 92
        8
 66
     7
 43
1.0
 76
     1
 77
     6
 78
     2
 67
     7
 79
     5
170
     0
171
     0
290
     0
174
     0
 93
        1
 44
0.0
173
     0
291
     1
 45
0.0
1001
ACAD
1000
AcDbSavedByObjectVersion
1070
     0
  0
VISUALSTYLE
  5
B52D
102
{ACAD_XDICTIONARY
360
C3AB
102
}
102
{ACAD_REACTORS
330
B0F1
102
}
330
B0F1
100
AcDbVisualStyle
  2

 70
    21
 71
     2
 72
     2
 73
     0
 90
        0
 40
-0.6
 41
-30.0
 62
     5
 63
     7
421
 16777215
 74
     1
 91
        4
 64
     7
 65
   257
 75
     1
175
     1
 42
1.0
 92
        9
 66
     7
 43
1.0
 76
     1
 77
     6
 78
     2
 67
     7
 79
     5
170
     0
171
     0
290
     0
174
     0
 93
        1
 44
0.0
173
     0
291
     1
 45
0.0
1001
ACAD
1000
AcDbSavedByObjectVersion
1070
     0
  0
VISUALSTYLE
  5
B0FB
102
{ACAD_XDICTIONARY
360
C38D
102
}
102
{ACAD_REACTORS
330
B0F1
102
}
330
B0F1
100
AcDbVisualStyle
  2

 70
     8
 71
     2
 72
     2
 73
     0
 90
        0
 40
-0.6
 41
-30.0
 62
     5
 63
     7
421
 16777215
 74
     1
 91
        0
 64
     7
 65
   257
 75
     1
175
     1
 42
1.0
 92
        8
 66
     8
424
  7895160
 43
1.0
 76
     1
 77
     6
 78
     2
 67
     7
 79
     5
170
     0
171
     0
290
     0
174
     0
 93
       13
 44
0.0
173
     0
291
     0
 45
0.0
1001
ACAD
1000
AcDbSavedByObjectVersion
1070
     0
  0
VISUALSTYLE
  5
B52B
102
{ACAD_XDICTIONARY
360
C3A7
102
}
102
{ACAD_REACTORS
330
B0F1
102
}
330
B0F1
100
AcDbVisualStyle
  2

 70
    27
 71
     2
 72
     2
 73
     1
 90
        2
 40
-0.6
 41
30.0
 62
     5
 63
     7
421
 16777215
 74
     0
 91
        4
 64
     7
 65
   257
 75
     1
175
     1
 42
1.0
 92
        8
 66
   257
 43
1.0
 76
     1
 77
     6
 78
     2
 67
     8
425
  7895160
 79
     3
170
     0
171
     0
290
     0
174
     0
 93
        5
 44
0.0
173
     0
291
     0
 45
0.0
1001
ACAD
1000
AcDbSavedByObjectVersion
1070
     0
  0
VISUALSTYLE
  5
B52A
102
{ACAD_XDICTIONARY
360
C3A5
102
}
102
{ACAD_REACTORS
330
B0F1
102
}
330
B0F1
100
AcDbVisualStyle
  2

 70
    26
 71
     2
 72
     2
 73
     1
 90
        2
 40
-0.6
 41
30.0
 62
     5
 63
     7
421
 16777215
 74
     1
 91
        2
 64
     7
 65
   257
 75
     2
175
     1
 42
1.0
 92
        8
 66
   257
 43
1.0
 76
     1
 77
     6
 78
     2
 67
     7
 79
     3
170
     0
171
     0
290
     0
174
     0
 93
        5
 44
0.0
173
     0
291
     0
 45
0.0
1001
ACAD
1000
AcDbSavedByObjectVersion
1070
     0
  0
VISUALSTYLE
  5
B527
102
{ACAD_XDICTIONARY
360
C39F
102
}
102
{ACAD_REACTORS
330
B0F1
102
}
330
B0F1
100
AcDbVisualStyle
  2

 70
    23
 71
     2
 72
     2
 73
     3
 90
        0
 40
-0.6
 41
-30.0
 62
     5
 63
     7
421
 16777215
 74
     2
 91
        2
 64
     7
 65
     7
 75
     1
175
     1
 42
40.0
 92
        8
 66
     7
 43
1.0
 76
     1
 77
     6
 78
     2
 67
     7
 79
     3
170
     0
171
     0
290
     0
174
     0
 93
        1
 44
0.0
173
     0
291
     0
 45
0.0
1001
ACAD
1000
AcDbSavedByObjectVersion
1070
     0
  0
VISUALSTYLE
  5
B528
102
{ACAD_XDICTIONARY
360
C3A1
102
}
102
{ACAD_REACTORS
330
B0F1
102
}
330
B0F1
100
AcDbVisualStyle
  2

 70
    24
 71
     1
 72
     2
 73
     2
 90
        0
 40
-0.6
 41
-30.0
 62
     5
 63
     7
421
 16777215
 74
     2
 91
        2
 64
     7
 65
     7
 75
     1
175
     1
 42
40.0
 92
       11
 66
     7
 43
1.0
 76
     1
 77
     6
 78
     2
 67
     7
 79
     6
170
     0
171
     0
290
     0
174
     0
 93
        1
 44
0.0
173
     0
291
     0
 45
0.0
1001
ACAD
1000
AcDbSavedByObjectVersion
1070
     0
  0
VISUALSTYLE
  5
B0FE
102
{ACAD_XDICTIONARY
360
C393
102
}
102
{ACAD_REACTORS
330
B0F1
102
}
330
B0F1
100
AcDbVisualStyle
  2

 70
    13
 71
     2
 72
     2
 73
     0
 90
        0
 40
-0.6
 41
-30.0
 62
     5
 63
     7
421
 16777215
 74
     1
 91
        4
 64
     7
 65
   257
 75
     1
175
     1
 42
1.0
 92
       12
 66
     7
 43
1.0
 76
     1
 77
     6
 78
     2
 67
     7
 79
     5
170
     0
171
     0
290
     0
174
     0
 93
        1
 44
0.0
173
     0
291
     1
 45
0.0
1001
ACAD
1000
AcDbSavedByObjectVersion
1070
     0
  0
VISUALSTYLE
  5
B525
102
{ACAD_XDICTIONARY
360
C39B
102
}
102
{ACAD_REACTORS
330
B0F1
102
}
330
B0F1
100
AcDbVisualStyle
  2

 70
     5
 71
     0
 72
     2
 73
     0
 90
        0
 40
-0.6
 41
-30.0
 62
     5
 63
     7
421
 16777215
 74
     1
 91
        4
 64
     7
 65
   257
 75
     1
175
     1
 42
1.0
 92
        0
 66
   257
 43
1.0
 76
     1
 77
     6
 78
     2
 67
     7
 79
     3
170
     0
171
     0
290
     0
174
     0
 93
        1
 44
0.0
173
     0
291
     0
 45
0.0
1001
ACAD
1000
AcDbSavedByObjectVersion
1070
     0
  0
VISUALSTYLE
  5
B529
102
{ACAD_XDICTIONARY
360
C3A3
102
}
102
{ACAD_REACTORS
330
B0F1
102
}
330
B0F1
100
AcDbVisualStyle
  2

 70
    25
 71
     2
 72
     2
 73
     1
 90
        1
 40
0.5
 41
-30.0
 62
     5
 63
     7
421
 16777215
 74
     1
 91
        0
 64
     7
 65
   257
 75
     1
175
     1
 42
1.0
 92
        8
 66
     7
 43
1.0
 76
     1
 77
     6
 78
     2
 67
     7
 79
     3
170
     0
171
     0
290
     0
174
     0
 93
       13
 44
0.0
173
     0
291
     0
 45
0.0
1001
ACAD
1000
AcDbSavedByObjectVersion
1070
     0
  0
DICTIONARYVAR
  5
B571
102
{ACAD_REACTORS
330
34
102
}
330
34
100
DictionaryVariables
280
     0
  1
1:1
  0
DICTIONARYVAR
  5
B56D
102
{ACAD_REACTORS
330
34
102
}
330
34
100
DictionaryVariables
280
     0
  1
STANDARD
  0
DICTIONARYVAR
  5
AAF3
102
{ACAD_REACTORS
330
34
102
}
330
34
100
DictionaryVariables
280
     0
  1
STANDARD
  0
DICTIONARYVAR
  5
B56E
102
{ACAD_REACTORS
330
34
102
}
330
34
100
DictionaryVariables
280
     0
  1
Metric50
  0
DICTIONARYVAR
  5
B56F
102
{ACAD_REACTORS
330
34
102
}
330
34
100
DictionaryVariables
280
     0
  1
Metric50
  0
DICTIONARYVAR
  5
A10C
102
{ACAD_REACTORS
330
34
102
}
330
34
100
DictionaryVariables
280
     0
  1
1
  0
DICTIONARYVAR
  5
AB07
102
{ACAD_REACTORS
330
34
102
}
330
34
100
DictionaryVariables
280
     0
  1
4
  0
DICTIONARYVAR
  5
35
102
{ACAD_REACTORS
330
34
102
}
330
34
100
DictionaryVariables
280
     0
  1
1
  0
DICTIONARYVAR
  5
B573
102
{ACAD_REACTORS
330
34
102
}
330
34
100
DictionaryVariables
280
     0
  1
1
  0
DICTIONARYVAR
  5
B574
102
{ACAD_REACTORS
330
34
102
}
330
34
100
DictionaryVariables
280
     0
  1
15
  0
DICTIONARYVAR
  5
B572
102
{ACAD_REACTORS
330
34
102
}
330
34
100
DictionaryVariables
280
     0
  1
0
  0
DICTIONARYVAR
  5
B570
102
{ACAD_REACTORS
330
34
102
}
330
34
100
DictionaryVariables
280
     0
  1
0
  0
DICTIONARYVAR
  5
194C
102
{ACAD_REACTORS
330
34
102
}
330
34
100
DictionaryVariables
280
     0
  1
96
  0
DICTIONARY
  5
C37A
102
{ACAD_REACTORS
330
C378
102
}
330
C378
100
AcDbDictionary
281
     1
  0
DICTIONARY
  5
C379
102
{ACAD_REACTORS
330
C378
102
}
330
C378
100
AcDbDictionary
281
     1
  3
1307506224
350
C373
  3
1307506240
350
C374
  3
1307506256
350
C375
  3
1307506272
350
C376
  3
1307506288
350
C377
  0
DICTIONARY
  5
7E8
102
{ACAD_REACTORS
330
47
102
}
330
47
100
AcDbDictionary
281
     1
  0
DICTIONARY
  5
4C
102
{ACAD_REACTORS
330
47
102
}
330
47
100
AcDbDictionary
281
     1
  0
XRECORD
  5
A929
102
{ACAD_REACTORS
330
47
102
}
330
47
100
AcDbXrecord
280
     1
 90
-1023410169
  0
XRECORD
  5
B332
102
{ACAD_REACTORS
330
B331
102
}
330
B331
100
AcDbXrecord
280
     1
  0
XRECORD
  5
3FB7
102
{ACAD_REACTORS
330
3F96
102
}
330
3F96
100
AcDbXrecord
280
     1
 91
        3
330
0
 90
        8
 62
     7
370
    40
331
16
  1
Color_7
330
0
 90
        0
 62
    14
370
    -3
331
16
  1
Color_14
330
0
 90
        8
 62
     7
370
    20
331
16
  1
Color_7
330
6D1
 90
        0
 62
     7
370
    -3
331
16
  1
Color_7
330
0
 90
        8
 62
     7
370
    50
331
16
  1
Color_7
330
0
 90
        8
 62
     2
370
    35
331
16
  1
Color_2
330
0
 90
        8
 62
     7
370
    -3
331
16
  1
Color_7
330
10
 90
        8
 62
     7
370
    -3
331
16
  1
Color_7
  0
DICTIONARY
  5
C3B3
330
B546
100
AcDbDictionary
280
     1
281
     1
  3
ACAD_XREC_ROUNDTRIP
360
C3B4
  0
DICTIONARY
  5
C3AF
330
B542
100
AcDbDictionary
280
     1
281
     1
  3
ACAD_XREC_ROUNDTRIP
360
C3B0
  0
DICTIONARY
  5
C3B1
330
B544
100
AcDbDictionary
280
     1
281
     1
  3
ACAD_XREC_ROUNDTRIP
360
C3B2
  0
DICTIONARY
  5
C245
330
AABA
100
AcDbDictionary
280
     1
281
     1
  3
ACAD_ROUNDTRIP_2008_TABLESTYLE_CELLSTYLEMAP
360
C371
  0
DICTIONARY
  5
C385
330
B0F7
100
AcDbDictionary
280
     1
281
     1
  3
ACAD_XREC_ROUNDTRIP
360
C386
  0
DICTIONARY
  5
C389
330
B0F9
100
AcDbDictionary
280
     1
281
     1
  3
ACAD_XREC_ROUNDTRIP
360
C38A
  0
DICTIONARY
  5
C387
330
B0F8
100
AcDbDictionary
280
     1
281
     1
  3
ACAD_XREC_ROUNDTRIP
360
C388
  0
DICTIONARY
  5
C383
330
B0F6
100
AcDbDictionary
280
     1
281
     1
  3
ACAD_XREC_ROUNDTRIP
360
C384
  0
DICTIONARY
  5
C391
330
B0FD
100
AcDbDictionary
280
     1
281
     1
  3
ACAD_XREC_ROUNDTRIP
360
C392
  0
DICTIONARY
  5
C399
330
B101
100
AcDbDictionary
280
     1
281
     1
  3
ACAD_XREC_ROUNDTRIP
360
C39A
  0
DICTIONARY
  5
C38B
330
B0FA
100
AcDbDictionary
280
     1
281
     1
  3
ACAD_XREC_ROUNDTRIP
360
C38C
  0
DICTIONARY
  5
C38F
330
B0FC
100
AcDbDictionary
280
     1
281
     1
  3
ACAD_XREC_ROUNDTRIP
360
C390
  0
DICTIONARY
  5
C3AD
330
B52E
100
AcDbDictionary
280
     1
281
     1
  3
ACAD_XREC_ROUNDTRIP
360
C3AE
  0
DICTIONARY
  5
C397
330
B100
100
AcDbDictionary
280
     1
281
     1
  3
ACAD_XREC_ROUNDTRIP
360
C398
  0
DICTIONARY
  5
C37B
330
B0F2
100
AcDbDictionary
280
     1
281
     1
  3
ACAD_XREC_ROUNDTRIP
360
C37C
  0
DICTIONARY
  5
C37D
330
B0F3
100
AcDbDictionary
280
     1
281
     1
  3
ACAD_XREC_ROUNDTRIP
360
C37E
  0
DICTIONARY
  5
C37F
330
B0F4
100
AcDbDictionary
280
     1
281
     1
  3
ACAD_XREC_ROUNDTRIP
360
C380
  0
DICTIONARY
  5
C381
330
B0F5
100
AcDbDictionary
280
     1
281
     1
  3
ACAD_XREC_ROUNDTRIP
360
C382
  0
DICTIONARY
  5
C39D
330
B526
100
AcDbDictionary
280
     1
281
     1
  3
ACAD_XREC_ROUNDTRIP
360
C39E
  0
DICTIONARY
  5
C3A9
330
B52C
100
AcDbDictionary
280
     1
281
     1
  3
ACAD_XREC_ROUNDTRIP
360
C3AA
  0
DICTIONARY
  5
C395
330
B0FF
100
AcDbDictionary
280
     1
281
     1
  3
ACAD_XREC_ROUNDTRIP
360
C396
  0
DICTIONARY
  5
C3AB
330
B52D
100
AcDbDictionary
280
     1
281
     1
  3
ACAD_XREC_ROUNDTRIP
360
C3AC
  0
DICTIONARY
  5
C38D
330
B0FB
100
AcDbDictionary
280
     1
281
     1
  3
ACAD_XREC_ROUNDTRIP
360
C38E
  0
DICTIONARY
  5
C3A7
330
B52B
100
AcDbDictionary
280
     1
281
     1
  3
ACAD_XREC_ROUNDTRIP
360
C3A8
  0
DICTIONARY
  5
C3A5
330
B52A
100
AcDbDictionary
280
     1
281
     1
  3
ACAD_XREC_ROUNDTRIP
360
C3A6
  0
DICTIONARY
  5
C39F
330
B527
100
AcDbDictionary
280
     1
281
     1
  3
ACAD_XREC_ROUNDTRIP
360
C3A0
  0
DICTIONARY
  5
C3A1
330
B528
100
AcDbDictionary
280
     1
281
     1
  3
ACAD_XREC_ROUNDTRIP
360
C3A2
  0
DICTIONARY
  5
C393
330
B0FE
100
AcDbDictionary
280
     1
281
     1
  3
ACAD_XREC_ROUNDTRIP
360
C394
  0
DICTIONARY
  5
C39B
330
B525
100
AcDbDictionary
280
     1
281
     1
  3
ACAD_XREC_ROUNDTRIP
360
C39C
  0
DICTIONARY
  5
C3A3
330
B529
100
AcDbDictionary
280
     1
281
     1
  3
ACAD_XREC_ROUNDTRIP
360
C3A4
  0
XRECORD
  5
C373
102
{ACAD_REACTORS
330
C379
102
}
330
C379
100
AcDbXrecord
280
     1
  1
AcDb_Thumbnail_Schema
102
{ATTRRECORD
341
C374
  2
AcDbDs::TreatedAsObjectData
280
     1
291
     1
102
ATTRRECORD}
102
{ATTRRECORD
341
C375
  2
AcDbDs::Legacy
280
     1
291
     1
102
ATTRRECORD}
  2
AcDbDs::ID
280
    10
 91
        8
102
{ATTRRECORD
341
C376
  2
AcDs:Indexable
280
     1
291
     1
102
ATTRRECORD}
102
{ATTRRECORD
341
C377
  2
AcDbDs::HandleAttribute
280
     7
282
     1
102
ATTRRECORD}
  2
Thumbnail_Data
280
    15
 91
        0
  0
XRECORD
  5
C374
102
{ACAD_REACTORS
330
C379
102
}
330
C379
100
AcDbXrecord
280
     1
  1
AcDbDs::TreatedAsObjectDataSchema
  2
AcDbDs::TreatedAsObjectData
280
     1
 91
        0
  0
XRECORD
  5
C375
102
{ACAD_REACTORS
330
C379
102
}
330
C379
100
AcDbXrecord
280
     1
  1
AcDbDs::LegacySchema
  2
AcDbDs::Legacy
280
     1
 91
        0
  0
XRECORD
  5
C376
102
{ACAD_REACTORS
330
C379
102
}
330
C379
100
AcDbXrecord
280
     1
  1
AcDbDs::IndexedPropertySchema
  2
AcDs:Indexable
280
     1
 91
        0
  0
XRECORD
  5
C377
102
{ACAD_REACTORS
330
C379
102
}
330
C379
100
AcDbXrecord
280
     1
  1
AcDbDs::HandleAttributeSchema
  2
AcDbDs::HandleAttribute
280
     7
 91
        1
284
     1
  0
XRECORD
  5
C3B4
102
{ACAD_REACTORS
330
C3B3
102
}
330
C3B3
100
AcDbXrecord
280
     1
102
DISPLAYNAME
  1
Metric50
102
FLAGS
 90
        0
  0
XRECORD
  5
C3B0
102
{ACAD_REACTORS
330
C3AF
102
}
330
C3AF
100
AcDbXrecord
280
     1
102
ACAD_ROUNDTRIP_2012_MLEADER_STYLE
298
     1
  0
XRECORD
  5
C3B2
102
{ACAD_REACTORS
330
C3B1
102
}
330
C3B1
100
AcDbXrecord
280
     1
102
DISPLAYNAME
  1
Metric50
102
FLAGS
 90
        0
  0
CELLSTYLEMAP
  5
C371
102
{ACAD_REACTORS
330
C245
102
}
330
C245
100
AcDbCellStyleMap
 90
        3
300
CELLSTYLE
  1
TABLEFORMAT_BEGIN
 90
        5
170
     1
 91
        0
 92
    32768
 62
   257
 93
        1
300
CONTENTFORMAT
  1
CONTENTFORMAT_BEGIN
 90
        0
 91
        0
 92
        4
 93
        0
300

 40
0.0
140
1.0
 94
        5
 62
     0
340
11
144
6.0
309
CONTENTFORMAT_END
171
     1
301
MARGIN
  1
CELLMARGIN_BEGIN
 40
1.5
 40
1.5
 40
1.5
 40
1.5
 40
0.18
 40
0.18
309
CELLMARGIN_END
 94
        6
 95
        1
302
GRIDFORMAT
  1
GRIDFORMAT_BEGIN
 90
        0
 91
        1
 62
     0
 92
       -2
340
0
 93
        0
 40
0.045
309
GRIDFORMAT_END
 95
        2
302
GRIDFORMAT
  1
GRIDFORMAT_BEGIN
 90
        0
 91
        1
 62
     0
 92
       -2
340
0
 93
        0
 40
0.045
309
GRIDFORMAT_END
 95
        4
302
GRIDFORMAT
  1
GRIDFORMAT_BEGIN
 90
        0
 91
        1
 62
     0
 92
       -2
340
0
 93
        0
 40
0.045
309
GRIDFORMAT_END
 95
        8
302
GRIDFORMAT
  1
GRIDFORMAT_BEGIN
 90
        0
 91
        1
 62
     0
 92
       -2
340
0
 93
        0
 40
0.045
309
GRIDFORMAT_END
 95
       16
302
GRIDFORMAT
  1
GRIDFORMAT_BEGIN
 90
        0
 91
        1
 62
     0
 92
       -2
340
0
 93
        0
 40
0.045
309
GRIDFORMAT_END
 95
       32
302
GRIDFORMAT
  1
GRIDFORMAT_BEGIN
 90
        0
 91
        1
 62
     0
 92
       -2
340
0
 93
        0
 40
0.045
309
GRIDFORMAT_END
309
TABLEFORMAT_END
  1
CELLSTYLE_BEGIN
 90
        1
 91
        1
300
_TITLE
309
CELLSTYLE_END
300
CELLSTYLE
  1
TABLEFORMAT_BEGIN
 90
        5
170
     1
 91
        0
 92
        0
 62
   257
 93
        1
300
CONTENTFORMAT
  1
CONTENTFORMAT_BEGIN
 90
        0
 91
        0
 92
        4
 93
        0
300

 40
0.0
140
1.0
 94
        5
 62
     0
340
11
144
4.5
309
CONTENTFORMAT_END
171
     1
301
MARGIN
  1
CELLMARGIN_BEGIN
 40
1.5
 40
1.5
 40
1.5
 40
1.5
 40
0.18
 40
0.18
309
CELLMARGIN_END
 94
        6
 95
        1
302
GRIDFORMAT
  1
GRIDFORMAT_BEGIN
 90
        0
 91
        1
 62
     0
 92
       -2
340
0
 93
        0
 40
0.045
309
GRIDFORMAT_END
 95
        2
302
GRIDFORMAT
  1
GRIDFORMAT_BEGIN
 90
        0
 91
        1
 62
     0
 92
       -2
340
0
 93
        0
 40
0.045
309
GRIDFORMAT_END
 95
        4
302
GRIDFORMAT
  1
GRIDFORMAT_BEGIN
 90
        0
 91
        1
 62
     0
 92
       -2
340
0
 93
        0
 40
0.045
309
GRIDFORMAT_END
 95
        8
302
GRIDFORMAT
  1
GRIDFORMAT_BEGIN
 90
        0
 91
        1
 62
     0
 92
       -2
340
0
 93
        0
 40
0.045
309
GRIDFORMAT_END
 95
       16
302
GRIDFORMAT
  1
GRIDFORMAT_BEGIN
 90
        0
 91
        1
 62
     0
 92
       -2
340
0
 93
        0
 40
0.045
309
GRIDFORMAT_END
 95
       32
302
GRIDFORMAT
  1
GRIDFORMAT_BEGIN
 90
        0
 91
        1
 62
     0
 92
       -2
340
0
 93
        0
 40
0.045
309
GRIDFORMAT_END
309
TABLEFORMAT_END
  1
CELLSTYLE_BEGIN
 90
        2
 91
        1
300
_HEADER
309
CELLSTYLE_END
300
CELLSTYLE
  1
TABLEFORMAT_BEGIN
 90
        5
170
     1
 91
        0
 92
        0
 62
   257
 93
        1
300
CONTENTFORMAT
  1
CONTENTFORMAT_BEGIN
 90
        0
 91
        0
 92
        4
 93
        0
300

 40
0.0
140
1.0
 94
        2
 62
     0
340
11
144
4.5
309
CONTENTFORMAT_END
171
     1
301
MARGIN
  1
CELLMARGIN_BEGIN
 40
1.5
 40
1.5
 40
1.5
 40
1.5
 40
0.18
 40
0.18
309
CELLMARGIN_END
 94
        6
 95
        1
302
GRIDFORMAT
  1
GRIDFORMAT_BEGIN
 90
        0
 91
        1
 62
     0
 92
       -2
340
0
 93
        0
 40
0.045
309
GRIDFORMAT_END
 95
        2
302
GRIDFORMAT
  1
GRIDFORMAT_BEGIN
 90
        0
 91
        1
 62
     0
 92
       -2
340
0
 93
        0
 40
0.045
309
GRIDFORMAT_END
 95
        4
302
GRIDFORMAT
  1
GRIDFORMAT_BEGIN
 90
        0
 91
        1
 62
     0
 92
       -2
340
0
 93
        0
 40
0.045
309
GRIDFORMAT_END
 95
        8
302
GRIDFORMAT
  1
GRIDFORMAT_BEGIN
 90
        0
 91
        1
 62
     0
 92
       -2
340
0
 93
        0
 40
0.045
309
GRIDFORMAT_END
 95
       16
302
GRIDFORMAT
  1
GRIDFORMAT_BEGIN
 90
        0
 91
        1
 62
     0
 92
       -2
340
0
 93
        0
 40
0.045
309
GRIDFORMAT_END
 95
       32
302
GRIDFORMAT
  1
GRIDFORMAT_BEGIN
 90
        0
 91
        1
 62
     0
 92
       -2
340
0
 93
        0
 40
0.045
309
GRIDFORMAT_END
309
TABLEFORMAT_END
  1
CELLSTYLE_BEGIN
 90
        3
 91
        2
300
_DATA
309
CELLSTYLE_END
  0
XRECORD
  5
C386
102
{ACAD_REACTORS
330
C385
102
}
330
C385
100
AcDbXrecord
280
     1
102
RTVSPost2010Prop28
280
     1
102
RTVSPost2010PropOp28
 70
     1
102
RTVSPost2010Prop29
280
     1
102
RTVSPost2010PropOp29
 70
     1
102
RTVSPost2010Prop30
280
     0
102
RTVSPost2010PropOp30
 70
     1
102
RTVSPost2010Prop31
280
     0
102
RTVSPost2010PropOp31
 70
     1
102
RTVSPost2010Prop32
280
     0
102
RTVSPost2010PropOp32
 70
     1
102
RTVSPost2010Prop33
280
     0
102
RTVSPost2010PropOp33
 70
     1
102
RTVSPost2010Prop34
280
     0
102
RTVSPost2010PropOp34
 70
     1
102
RTVSPost2010Prop35
280
     0
102
RTVSPost2010PropOp35
 70
     1
102
RTVSPost2010Prop36
280
     0
102
RTVSPost2010PropOp36
 70
     1
102
RTVSPost2010Prop37
 90
       50
102
RTVSPost2010PropOp37
 70
     1
102
RTVSPost2010Prop38
140
0.0
102
RTVSPost2010PropOp38
 70
     1
102
RTVSPost2010Prop39
140
1.0
102
RTVSPost2010PropOp39
 70
     1
102
RTVSPost2010Prop40
 90
        0
102
RTVSPost2010PropOp40
 70
     1
102
RTVSPost2010Prop41ColorIndex
 90
       18
102
RTVSPost2010Prop41ColorRGB
 90
        0
102
RTVSPost2010PropOp41
 70
     1
102
RTVSPost2010Prop42
 90
       50
102
RTVSPost2010PropOp42
 70
     1
102
RTVSPost2010Prop43
 90
        3
102
RTVSPost2010PropOp43
 70
     1
102
RTVSPost2010Prop44ColorIndex
 90
        5
102
RTVSPost2010Prop44ColorRGB
 90
      255
102
RTVSPost2010PropOp44
 70
     1
102
RTVSPost2010Prop45
280
     0
102
RTVSPost2010PropOp45
 70
     1
102
RTVSPost2010Prop46
 90
       50
102
RTVSPost2010PropOp46
 70
     1
102
RTVSPost2010Prop47
 90
       50
102
RTVSPost2010PropOp47
 70
     1
102
RTVSPost2010Prop48
 90
       50
102
RTVSPost2010PropOp48
 70
     1
102
RTVSPost2010Prop49
280
     0
102
RTVSPost2010PropOp49
 70
     1
102
RTVSPost2010Prop50
 90
       50
102
RTVSPost2010PropOp50
 70
     1
102
RTVSPost2010Prop51ColorIndex
 90
      256
102
RTVSPost2010Prop51ColorRGB
 90
-16777216
102
RTVSPost2010PropOp51
 70
     0
102
RTVSPost2010Prop52
140
1.0
102
RTVSPost2010PropOp52
 70
     0
102
RTVSPost2010Prop53
 90
        2
102
RTVSPost2010PropOp53
 70
     1
102
RTVSPost2010Prop54
  1
strokes_ogs.tif
102
RTVSPost2010PropOp54
 70
     1
102
RTVSPost2010Prop55
280
     0
102
RTVSPost2010PropOp55
 70
     1
102
RTVSPost2010Prop56
140
1.0
102
RTVSPost2010PropOp56
 70
     1
102
RTVSPost2010Prop57
140
1.0
102
RTVSPost2010PropOp57
 70
     1
102
RTVSPropertyOp0
 70
     1
102
RTVSPropertyOp1
 70
     1
102
RTVSPropertyOp2
 70
     1
102
RTVSPropertyOp3
 70
     1
102
RTVSPropertyOp4
 70
     1
102
RTVSPropertyOp5
 70
     1
102
RTVSPropertyOp6
 70
     1
102
RTVSPropertyOp7
 70
     1
102
RTVSPropertyOp8
 70
     1
102
RTVSPropertyOp9
 70
     1
102
RTVSPropertyOp10
 70
     1
102
RTVSPropertyOp11
 70
     1
102
RTVSPropertyOp12
 70
     1
102
RTVSPropertyOp13
 70
     1
102
RTVSPropertyOp14
 70
     1
102
RTVSPropertyOp15
 70
     1
102
RTVSPropertyOp16
 70
     1
102
RTVSPropertyOp17
 70
     1
102
RTVSPropertyOp18
 70
     1
102
RTVSPropertyOp19
 70
     1
102
RTVSPropertyOp20
 70
     1
102
RTVSPropertyOp21
 70
     1
102
RTVSPropertyOp22
 70
     1
102
RTVSPropertyOp23
 70
     1
102
RTVSPropertyOp24
 70
     1
102
RTVSPropertyOp25
 70
     1
102
RTVSPropertyOp26
 70
     1
102
RTVSPropertyOp27
 70
     1
102
RTVSPropertyOp28
 70
     1
102
RTVSPropertyOp29
 70
     1
102
RTVSPropertyOp30
 70
     1
102
RTVSPropertyOp31
 70
     1
102
RTVSPropertyOp32
 70
     1
102
RTVSPropertyOp33
 70
     1
102
RTVSPropertyOp34
 70
     1
102
RTVSPropertyOp35
 70
     1
102
RTVSPropertyOp36
 70
     1
102
RTVSPropertyOp37
 70
     1
102
RTVSPropertyOp38
 70
     1
102
RTVSPropertyOp39
 70
     1
102
RTVSPropertyOp40
 70
     1
102
RTVSPropertyOp41
 70
     1
102
RTVSPropertyOp42
 70
     1
102
RTVSPropertyOp43
 70
     1
102
RTVSPropertyOp44
 70
     1
102
RTVSPropertyOp45
 70
     1
102
RTVSPropertyOp46
 70
     1
102
RTVSPropertyOp47
 70
     1
102
RTVSPropertyOp48
 70
     1
102
RTVSPropertyOp49
 70
     1
102
RTVSPropertyOp50
 70
     1
102
RTVSPropertyOp51
 70
     0
102
RTVSPropertyOp52
 70
     0
102
RTVSPropertyOp53
 70
     1
102
RTVSPropertyOp54
 70
     1
102
RTVSPropertyOp55
 70
     1
102
RTVSPropertyOp56
 70
     1
102
RTVSPropertyOp57
 70
     1
102
RTVSPropertyOp58
 70
     1
102
RTVSPropertyOp59
 70
     1
102
RTVSPropertyOp60
 70
     1
102
RTVSPropertyOp61
 70
     1
102
RTVSPropertyOp62
 70
     1
  0
XRECORD
  5
C38A
102
{ACAD_REACTORS
330
C389
102
}
330
C389
100
AcDbXrecord
280
     1
102
RTVSPost2010Prop28
280
     0
102
RTVSPost2010PropOp28
 70
     1
102
RTVSPost2010Prop29
280
     1
102
RTVSPost2010PropOp29
 70
     1
102
RTVSPost2010Prop30
280
     1
102
RTVSPost2010PropOp30
 70
     1
102
RTVSPost2010Prop31
280
     0
102
RTVSPost2010PropOp31
 70
     1
102
RTVSPost2010Prop32
280
     0
102
RTVSPost2010PropOp32
 70
     1
102
RTVSPost2010Prop33
280
     0
102
RTVSPost2010PropOp33
 70
     1
102
RTVSPost2010Prop34
280
     0
102
RTVSPost2010PropOp34
 70
     1
102
RTVSPost2010Prop35
280
     0
102
RTVSPost2010PropOp35
 70
     1
102
RTVSPost2010Prop36
280
     0
102
RTVSPost2010PropOp36
 70
     1
102
RTVSPost2010Prop37
 90
       50
102
RTVSPost2010PropOp37
 70
     1
102
RTVSPost2010Prop38
140
0.0
102
RTVSPost2010PropOp38
 70
     1
102
RTVSPost2010Prop39
140
1.0
102
RTVSPost2010PropOp39
 70
     1
102
RTVSPost2010Prop40
 90
        0
102
RTVSPost2010PropOp40
 70
     1
102
RTVSPost2010Prop41ColorIndex
 90
       18
102
RTVSPost2010Prop41ColorRGB
 90
        0
102
RTVSPost2010PropOp41
 70
     1
102
RTVSPost2010Prop42
 90
       50
102
RTVSPost2010PropOp42
 70
     1
102
RTVSPost2010Prop43
 90
        3
102
RTVSPost2010PropOp43
 70
     1
102
RTVSPost2010Prop44ColorIndex
 90
        5
102
RTVSPost2010Prop44ColorRGB
 90
      255
102
RTVSPost2010PropOp44
 70
     1
102
RTVSPost2010Prop45
280
     0
102
RTVSPost2010PropOp45
 70
     1
102
RTVSPost2010Prop46
 90
       50
102
RTVSPost2010PropOp46
 70
     1
102
RTVSPost2010Prop47
 90
       50
102
RTVSPost2010PropOp47
 70
     1
102
RTVSPost2010Prop48
 90
       50
102
RTVSPost2010PropOp48
 70
     1
102
RTVSPost2010Prop49
280
     0
102
RTVSPost2010PropOp49
 70
     1
102
RTVSPost2010Prop50
 90
       50
102
RTVSPost2010PropOp50
 70
     1
102
RTVSPost2010Prop51ColorIndex
 90
      256
102
RTVSPost2010Prop51ColorRGB
 90
-16777216
102
RTVSPost2010PropOp51
 70
     0
102
RTVSPost2010Prop52
140
1.0
102
RTVSPost2010PropOp52
 70
     0
102
RTVSPost2010Prop53
 90
        2
102
RTVSPost2010PropOp53
 70
     1
102
RTVSPost2010Prop54
  1
strokes_ogs.tif
102
RTVSPost2010PropOp54
 70
     1
102
RTVSPost2010Prop55
280
     0
102
RTVSPost2010PropOp55
 70
     1
102
RTVSPost2010Prop56
140
1.0
102
RTVSPost2010PropOp56
 70
     1
102
RTVSPost2010Prop57
140
1.0
102
RTVSPost2010PropOp57
 70
     1
102
RTVSPropertyOp0
 70
     1
102
RTVSPropertyOp1
 70
     1
102
RTVSPropertyOp2
 70
     1
102
RTVSPropertyOp3
 70
     1
102
RTVSPropertyOp4
 70
     1
102
RTVSPropertyOp5
 70
     1
102
RTVSPropertyOp6
 70
     1
102
RTVSPropertyOp7
 70
     1
102
RTVSPropertyOp8
 70
     1
102
RTVSPropertyOp9
 70
     1
102
RTVSPropertyOp10
 70
     1
102
RTVSPropertyOp11
 70
     1
102
RTVSPropertyOp12
 70
     1
102
RTVSPropertyOp13
 70
     1
102
RTVSPropertyOp14
 70
     1
102
RTVSPropertyOp15
 70
     1
102
RTVSPropertyOp16
 70
     1
102
RTVSPropertyOp17
 70
     1
102
RTVSPropertyOp18
 70
     1
102
RTVSPropertyOp19
 70
     1
102
RTVSPropertyOp20
 70
     1
102
RTVSPropertyOp21
 70
     1
102
RTVSPropertyOp22
 70
     1
102
RTVSPropertyOp23
 70
     1
102
RTVSPropertyOp24
 70
     1
102
RTVSPropertyOp25
 70
     1
102
RTVSPropertyOp26
 70
     1
102
RTVSPropertyOp27
 70
     1
102
RTVSPropertyOp28
 70
     1
102
RTVSPropertyOp29
 70
     1
102
RTVSPropertyOp30
 70
     1
102
RTVSPropertyOp31
 70
     1
102
RTVSPropertyOp32
 70
     1
102
RTVSPropertyOp33
 70
     1
102
RTVSPropertyOp34
 70
     1
102
RTVSPropertyOp35
 70
     1
102
RTVSPropertyOp36
 70
     1
102
RTVSPropertyOp37
 70
     1
102
RTVSPropertyOp38
 70
     1
102
RTVSPropertyOp39
 70
     1
102
RTVSPropertyOp40
 70
     1
102
RTVSPropertyOp41
 70
     1
102
RTVSPropertyOp42
 70
     1
102
RTVSPropertyOp43
 70
     1
102
RTVSPropertyOp44
 70
     1
102
RTVSPropertyOp45
 70
     1
102
RTVSPropertyOp46
 70
     1
102
RTVSPropertyOp47
 70
     1
102
RTVSPropertyOp48
 70
     1
102
RTVSPropertyOp49
 70
     1
102
RTVSPropertyOp50
 70
     1
102
RTVSPropertyOp51
 70
     0
102
RTVSPropertyOp52
 70
     0
102
RTVSPropertyOp53
 70
     1
102
RTVSPropertyOp54
 70
     1
102
RTVSPropertyOp55
 70
     1
102
RTVSPropertyOp56
 70
     1
102
RTVSPropertyOp57
 70
     1
102
RTVSPropertyOp58
 70
     1
102
RTVSPropertyOp59
 70
     1
102
RTVSPropertyOp60
 70
     1
102
RTVSPropertyOp61
 70
     1
102
RTVSPropertyOp62
 70
     1
  0
XRECORD
  5
C388
102
{ACAD_REACTORS
330
C387
102
}
330
C387
100
AcDbXrecord
280
     1
102
RTVSPost2010Prop28
280
     0
102
RTVSPost2010PropOp28
 70
     1
102
RTVSPost2010Prop29
280
     1
102
RTVSPost2010PropOp29
 70
     1
102
RTVSPost2010Prop30
280
     1
102
RTVSPost2010PropOp30
 70
     1
102
RTVSPost2010Prop31
280
     0
102
RTVSPost2010PropOp31
 70
     1
102
RTVSPost2010Prop32
280
     0
102
RTVSPost2010PropOp32
 70
     1
102
RTVSPost2010Prop33
280
     0
102
RTVSPost2010PropOp33
 70
     1
102
RTVSPost2010Prop34
280
     0
102
RTVSPost2010PropOp34
 70
     1
102
RTVSPost2010Prop35
280
     0
102
RTVSPost2010PropOp35
 70
     1
102
RTVSPost2010Prop36
280
     0
102
RTVSPost2010PropOp36
 70
     1
102
RTVSPost2010Prop37
 90
       50
102
RTVSPost2010PropOp37
 70
     1
102
RTVSPost2010Prop38
140
0.0
102
RTVSPost2010PropOp38
 70
     1
102
RTVSPost2010Prop39
140
1.0
102
RTVSPost2010PropOp39
 70
     1
102
RTVSPost2010Prop40
 90
        0
102
RTVSPost2010PropOp40
 70
     1
102
RTVSPost2010Prop41ColorIndex
 90
       18
102
RTVSPost2010Prop41ColorRGB
 90
        0
102
RTVSPost2010PropOp41
 70
     1
102
RTVSPost2010Prop42
 90
       50
102
RTVSPost2010PropOp42
 70
     1
102
RTVSPost2010Prop43
 90
        3
102
RTVSPost2010PropOp43
 70
     1
102
RTVSPost2010Prop44ColorIndex
 90
        5
102
RTVSPost2010Prop44ColorRGB
 90
      255
102
RTVSPost2010PropOp44
 70
     1
102
RTVSPost2010Prop45
280
     0
102
RTVSPost2010PropOp45
 70
     1
102
RTVSPost2010Prop46
 90
       50
102
RTVSPost2010PropOp46
 70
     1
102
RTVSPost2010Prop47
 90
       50
102
RTVSPost2010PropOp47
 70
     1
102
RTVSPost2010Prop48
 90
       50
102
RTVSPost2010PropOp48
 70
     1
102
RTVSPost2010Prop49
280
     0
102
RTVSPost2010PropOp49
 70
     1
102
RTVSPost2010Prop50
 90
       50
102
RTVSPost2010PropOp50
 70
     1
102
RTVSPost2010Prop51ColorIndex
 90
      256
102
RTVSPost2010Prop51ColorRGB
 90
-16777216
102
RTVSPost2010PropOp51
 70
     0
102
RTVSPost2010Prop52
140
1.0
102
RTVSPost2010PropOp52
 70
     0
102
RTVSPost2010Prop53
 90
        2
102
RTVSPost2010PropOp53
 70
     1
102
RTVSPost2010Prop54
  1
strokes_ogs.tif
102
RTVSPost2010PropOp54
 70
     1
102
RTVSPost2010Prop55
280
     0
102
RTVSPost2010PropOp55
 70
     1
102
RTVSPost2010Prop56
140
1.0
102
RTVSPost2010PropOp56
 70
     1
102
RTVSPost2010Prop57
140
1.0
102
RTVSPost2010PropOp57
 70
     1
102
RTVSPropertyOp0
 70
     1
102
RTVSPropertyOp1
 70
     1
102
RTVSPropertyOp2
 70
     1
102
RTVSPropertyOp3
 70
     1
102
RTVSPropertyOp4
 70
     1
102
RTVSPropertyOp5
 70
     1
102
RTVSPropertyOp6
 70
     1
102
RTVSPropertyOp7
 70
     1
102
RTVSPropertyOp8
 70
     1
102
RTVSPropertyOp9
 70
     1
102
RTVSPropertyOp10
 70
     1
102
RTVSPropertyOp11
 70
     1
102
RTVSPropertyOp12
 70
     1
102
RTVSPropertyOp13
 70
     1
102
RTVSPropertyOp14
 70
     1
102
RTVSPropertyOp15
 70
     1
102
RTVSPropertyOp16
 70
     1
102
RTVSPropertyOp17
 70
     1
102
RTVSPropertyOp18
 70
     1
102
RTVSPropertyOp19
 70
     1
102
RTVSPropertyOp20
 70
     1
102
RTVSPropertyOp21
 70
     1
102
RTVSPropertyOp22
 70
     1
102
RTVSPropertyOp23
 70
     1
102
RTVSPropertyOp24
 70
     1
102
RTVSPropertyOp25
 70
     1
102
RTVSPropertyOp26
 70
     1
102
RTVSPropertyOp27
 70
     1
102
RTVSPropertyOp28
 70
     1
102
RTVSPropertyOp29
 70
     1
102
RTVSPropertyOp30
 70
     1
102
RTVSPropertyOp31
 70
     1
102
RTVSPropertyOp32
 70
     1
102
RTVSPropertyOp33
 70
     1
102
RTVSPropertyOp34
 70
     1
102
RTVSPropertyOp35
 70
     1
102
RTVSPropertyOp36
 70
     1
102
RTVSPropertyOp37
 70
     1
102
RTVSPropertyOp38
 70
     1
102
RTVSPropertyOp39
 70
     1
102
RTVSPropertyOp40
 70
     1
102
RTVSPropertyOp41
 70
     1
102
RTVSPropertyOp42
 70
     1
102
RTVSPropertyOp43
 70
     1
102
RTVSPropertyOp44
 70
     1
102
RTVSPropertyOp45
 70
     1
102
RTVSPropertyOp46
 70
     1
102
RTVSPropertyOp47
 70
     1
102
RTVSPropertyOp48
 70
     1
102
RTVSPropertyOp49
 70
     1
102
RTVSPropertyOp50
 70
     1
102
RTVSPropertyOp51
 70
     0
102
RTVSPropertyOp52
 70
     0
102
RTVSPropertyOp53
 70
     1
102
RTVSPropertyOp54
 70
     1
102
RTVSPropertyOp55
 70
     1
102
RTVSPropertyOp56
 70
     1
102
RTVSPropertyOp57
 70
     1
102
RTVSPropertyOp58
 70
     1
102
RTVSPropertyOp59
 70
     1
102
RTVSPropertyOp60
 70
     1
102
RTVSPropertyOp61
 70
     1
102
RTVSPropertyOp62
 70
     1
  0
XRECORD
  5
C384
102
{ACAD_REACTORS
330
C383
102
}
330
C383
100
AcDbXrecord
280
     1
102
RTVSPost2010Prop28
280
     0
102
RTVSPost2010PropOp28
 70
     1
102
RTVSPost2010Prop29
280
     1
102
RTVSPost2010PropOp29
 70
     1
102
RTVSPost2010Prop30
280
     1
102
RTVSPost2010PropOp30
 70
     1
102
RTVSPost2010Prop31
280
     0
102
RTVSPost2010PropOp31
 70
     1
102
RTVSPost2010Prop32
280
     0
102
RTVSPost2010PropOp32
 70
     1
102
RTVSPost2010Prop33
280
     0
102
RTVSPost2010PropOp33
 70
     1
102
RTVSPost2010Prop34
280
     0
102
RTVSPost2010PropOp34
 70
     1
102
RTVSPost2010Prop35
280
     0
102
RTVSPost2010PropOp35
 70
     1
102
RTVSPost2010Prop36
280
     0
102
RTVSPost2010PropOp36
 70
     1
102
RTVSPost2010Prop37
 90
       50
102
RTVSPost2010PropOp37
 70
     1
102
RTVSPost2010Prop38
140
0.0
102
RTVSPost2010PropOp38
 70
     1
102
RTVSPost2010Prop39
140
1.0
102
RTVSPost2010PropOp39
 70
     1
102
RTVSPost2010Prop40
 90
        0
102
RTVSPost2010PropOp40
 70
     1
102
RTVSPost2010Prop41ColorIndex
 90
       18
102
RTVSPost2010Prop41ColorRGB
 90
        0
102
RTVSPost2010PropOp41
 70
     1
102
RTVSPost2010Prop42
 90
       50
102
RTVSPost2010PropOp42
 70
     1
102
RTVSPost2010Prop43
 90
        3
102
RTVSPost2010PropOp43
 70
     1
102
RTVSPost2010Prop44ColorIndex
 90
        5
102
RTVSPost2010Prop44ColorRGB
 90
      255
102
RTVSPost2010PropOp44
 70
     1
102
RTVSPost2010Prop45
280
     0
102
RTVSPost2010PropOp45
 70
     1
102
RTVSPost2010Prop46
 90
       50
102
RTVSPost2010PropOp46
 70
     1
102
RTVSPost2010Prop47
 90
       50
102
RTVSPost2010PropOp47
 70
     1
102
RTVSPost2010Prop48
 90
       50
102
RTVSPost2010PropOp48
 70
     1
102
RTVSPost2010Prop49
280
     0
102
RTVSPost2010PropOp49
 70
     1
102
RTVSPost2010Prop50
 90
       50
102
RTVSPost2010PropOp50
 70
     1
102
RTVSPost2010Prop51ColorIndex
 90
      256
102
RTVSPost2010Prop51ColorRGB
 90
-16777216
102
RTVSPost2010PropOp51
 70
     0
102
RTVSPost2010Prop52
140
1.0
102
RTVSPost2010PropOp52
 70
     0
102
RTVSPost2010Prop53
 90
        2
102
RTVSPost2010PropOp53
 70
     1
102
RTVSPost2010Prop54
  1
strokes_ogs.tif
102
RTVSPost2010PropOp54
 70
     1
102
RTVSPost2010Prop55
280
     0
102
RTVSPost2010PropOp55
 70
     1
102
RTVSPost2010Prop56
140
1.0
102
RTVSPost2010PropOp56
 70
     1
102
RTVSPost2010Prop57
140
1.0
102
RTVSPost2010PropOp57
 70
     1
102
RTVSPropertyOp0
 70
     1
102
RTVSPropertyOp1
 70
     1
102
RTVSPropertyOp2
 70
     1
102
RTVSPropertyOp3
 70
     1
102
RTVSPropertyOp4
 70
     1
102
RTVSPropertyOp5
 70
     1
102
RTVSPropertyOp6
 70
     1
102
RTVSPropertyOp7
 70
     1
102
RTVSPropertyOp8
 70
     1
102
RTVSPropertyOp9
 70
     1
102
RTVSPropertyOp10
 70
     1
102
RTVSPropertyOp11
 70
     1
102
RTVSPropertyOp12
 70
     1
102
RTVSPropertyOp13
 70
     1
102
RTVSPropertyOp14
 70
     1
102
RTVSPropertyOp15
 70
     1
102
RTVSPropertyOp16
 70
     1
102
RTVSPropertyOp17
 70
     1
102
RTVSPropertyOp18
 70
     1
102
RTVSPropertyOp19
 70
     1
102
RTVSPropertyOp20
 70
     1
102
RTVSPropertyOp21
 70
     1
102
RTVSPropertyOp22
 70
     1
102
RTVSPropertyOp23
 70
     1
102
RTVSPropertyOp24
 70
     1
102
RTVSPropertyOp25
 70
     1
102
RTVSPropertyOp26
 70
     1
102
RTVSPropertyOp27
 70
     1
102
RTVSPropertyOp28
 70
     1
102
RTVSPropertyOp29
 70
     1
102
RTVSPropertyOp30
 70
     1
102
RTVSPropertyOp31
 70
     1
102
RTVSPropertyOp32
 70
     1
102
RTVSPropertyOp33
 70
     1
102
RTVSPropertyOp34
 70
     1
102
RTVSPropertyOp35
 70
     1
102
RTVSPropertyOp36
 70
     1
102
RTVSPropertyOp37
 70
     1
102
RTVSPropertyOp38
 70
     1
102
RTVSPropertyOp39
 70
     1
102
RTVSPropertyOp40
 70
     1
102
RTVSPropertyOp41
 70
     1
102
RTVSPropertyOp42
 70
     1
102
RTVSPropertyOp43
 70
     1
102
RTVSPropertyOp44
 70
     1
102
RTVSPropertyOp45
 70
     1
102
RTVSPropertyOp46
 70
     1
102
RTVSPropertyOp47
 70
     1
102
RTVSPropertyOp48
 70
     1
102
RTVSPropertyOp49
 70
     1
102
RTVSPropertyOp50
 70
     1
102
RTVSPropertyOp51
 70
     0
102
RTVSPropertyOp52
 70
     0
102
RTVSPropertyOp53
 70
     1
102
RTVSPropertyOp54
 70
     1
102
RTVSPropertyOp55
 70
     1
102
RTVSPropertyOp56
 70
     1
102
RTVSPropertyOp57
 70
     1
102
RTVSPropertyOp58
 70
     1
102
RTVSPropertyOp59
 70
     1
102
RTVSPropertyOp60
 70
     1
102
RTVSPropertyOp61
 70
     1
102
RTVSPropertyOp62
 70
     1
  0
XRECORD
  5
C392
102
{ACAD_REACTORS
330
C391
102
}
330
C391
100
AcDbXrecord
280
     1
102
RTVSPost2010Prop28
280
     0
102
RTVSPost2010PropOp28
 70
     1
102
RTVSPost2010Prop29
280
     1
102
RTVSPost2010PropOp29
 70
     1
102
RTVSPost2010Prop30
280
     1
102
RTVSPost2010PropOp30
 70
     1
102
RTVSPost2010Prop31
280
     0
102
RTVSPost2010PropOp31
 70
     1
102
RTVSPost2010Prop32
280
     0
102
RTVSPost2010PropOp32
 70
     1
102
RTVSPost2010Prop33
280
     0
102
RTVSPost2010PropOp33
 70
     1
102
RTVSPost2010Prop34
280
     0
102
RTVSPost2010PropOp34
 70
     1
102
RTVSPost2010Prop35
280
     0
102
RTVSPost2010PropOp35
 70
     1
102
RTVSPost2010Prop36
280
     0
102
RTVSPost2010PropOp36
 70
     1
102
RTVSPost2010Prop37
 90
       50
102
RTVSPost2010PropOp37
 70
     1
102
RTVSPost2010Prop38
140
0.0
102
RTVSPost2010PropOp38
 70
     1
102
RTVSPost2010Prop39
140
1.0
102
RTVSPost2010PropOp39
 70
     1
102
RTVSPost2010Prop40
 90
        0
102
RTVSPost2010PropOp40
 70
     1
102
RTVSPost2010Prop41ColorIndex
 90
       18
102
RTVSPost2010Prop41ColorRGB
 90
        0
102
RTVSPost2010PropOp41
 70
     1
102
RTVSPost2010Prop42
 90
       50
102
RTVSPost2010PropOp42
 70
     1
102
RTVSPost2010Prop43
 90
        3
102
RTVSPost2010PropOp43
 70
     1
102
RTVSPost2010Prop44ColorIndex
 90
        5
102
RTVSPost2010Prop44ColorRGB
 90
      255
102
RTVSPost2010PropOp44
 70
     1
102
RTVSPost2010Prop45
280
     0
102
RTVSPost2010PropOp45
 70
     1
102
RTVSPost2010Prop46
 90
       50
102
RTVSPost2010PropOp46
 70
     1
102
RTVSPost2010Prop47
 90
       50
102
RTVSPost2010PropOp47
 70
     1
102
RTVSPost2010Prop48
 90
       50
102
RTVSPost2010PropOp48
 70
     1
102
RTVSPost2010Prop49
280
     0
102
RTVSPost2010PropOp49
 70
     1
102
RTVSPost2010Prop50
 90
       50
102
RTVSPost2010PropOp50
 70
     1
102
RTVSPost2010Prop51ColorIndex
 90
      256
102
RTVSPost2010Prop51ColorRGB
 90
-16777216
102
RTVSPost2010PropOp51
 70
     0
102
RTVSPost2010Prop52
140
1.0
102
RTVSPost2010PropOp52
 70
     0
102
RTVSPost2010Prop53
 90
        2
102
RTVSPost2010PropOp53
 70
     1
102
RTVSPost2010Prop54
  1
strokes_ogs.tif
102
RTVSPost2010PropOp54
 70
     1
102
RTVSPost2010Prop55
280
     0
102
RTVSPost2010PropOp55
 70
     1
102
RTVSPost2010Prop56
140
1.0
102
RTVSPost2010PropOp56
 70
     1
102
RTVSPost2010Prop57
140
1.0
102
RTVSPost2010PropOp57
 70
     1
102
RTVSPropertyOp0
 70
     1
102
RTVSPropertyOp1
 70
     1
102
RTVSPropertyOp2
 70
     1
102
RTVSPropertyOp3
 70
     1
102
RTVSPropertyOp4
 70
     1
102
RTVSPropertyOp5
 70
     1
102
RTVSPropertyOp6
 70
     1
102
RTVSPropertyOp7
 70
     1
102
RTVSPropertyOp8
 70
     1
102
RTVSPropertyOp9
 70
     1
102
RTVSPropertyOp10
 70
     1
102
RTVSPropertyOp11
 70
     1
102
RTVSPropertyOp12
 70
     1
102
RTVSPropertyOp13
 70
     1
102
RTVSPropertyOp14
 70
     1
102
RTVSPropertyOp15
 70
     1
102
RTVSPropertyOp16
 70
     1
102
RTVSPropertyOp17
 70
     1
102
RTVSPropertyOp18
 70
     1
102
RTVSPropertyOp19
 70
     1
102
RTVSPropertyOp20
 70
     1
102
RTVSPropertyOp21
 70
     1
102
RTVSPropertyOp22
 70
     1
102
RTVSPropertyOp23
 70
     1
102
RTVSPropertyOp24
 70
     1
102
RTVSPropertyOp25
 70
     1
102
RTVSPropertyOp26
 70
     1
102
RTVSPropertyOp27
 70
     1
102
RTVSPropertyOp28
 70
     1
102
RTVSPropertyOp29
 70
     1
102
RTVSPropertyOp30
 70
     1
102
RTVSPropertyOp31
 70
     1
102
RTVSPropertyOp32
 70
     1
102
RTVSPropertyOp33
 70
     1
102
RTVSPropertyOp34
 70
     1
102
RTVSPropertyOp35
 70
     1
102
RTVSPropertyOp36
 70
     1
102
RTVSPropertyOp37
 70
     1
102
RTVSPropertyOp38
 70
     1
102
RTVSPropertyOp39
 70
     1
102
RTVSPropertyOp40
 70
     1
102
RTVSPropertyOp41
 70
     1
102
RTVSPropertyOp42
 70
     1
102
RTVSPropertyOp43
 70
     1
102
RTVSPropertyOp44
 70
     1
102
RTVSPropertyOp45
 70
     1
102
RTVSPropertyOp46
 70
     1
102
RTVSPropertyOp47
 70
     1
102
RTVSPropertyOp48
 70
     1
102
RTVSPropertyOp49
 70
     1
102
RTVSPropertyOp50
 70
     1
102
RTVSPropertyOp51
 70
     0
102
RTVSPropertyOp52
 70
     0
102
RTVSPropertyOp53
 70
     1
102
RTVSPropertyOp54
 70
     1
102
RTVSPropertyOp55
 70
     1
102
RTVSPropertyOp56
 70
     1
102
RTVSPropertyOp57
 70
     1
102
RTVSPropertyOp58
 70
     1
102
RTVSPropertyOp59
 70
     1
102
RTVSPropertyOp60
 70
     1
102
RTVSPropertyOp61
 70
     1
102
RTVSPropertyOp62
 70
     1
  0
XRECORD
  5
C39A
102
{ACAD_REACTORS
330
C399
102
}
330
C399
100
AcDbXrecord
280
     1
102
RTVSPost2010Prop28
280
     0
102
RTVSPost2010PropOp28
 70
     1
102
RTVSPost2010Prop29
280
     1
102
RTVSPost2010PropOp29
 70
     1
102
RTVSPost2010Prop30
280
     1
102
RTVSPost2010PropOp30
 70
     1
102
RTVSPost2010Prop31
280
     0
102
RTVSPost2010PropOp31
 70
     1
102
RTVSPost2010Prop32
280
     0
102
RTVSPost2010PropOp32
 70
     1
102
RTVSPost2010Prop33
280
     0
102
RTVSPost2010PropOp33
 70
     1
102
RTVSPost2010Prop34
280
     0
102
RTVSPost2010PropOp34
 70
     1
102
RTVSPost2010Prop35
280
     0
102
RTVSPost2010PropOp35
 70
     1
102
RTVSPost2010Prop36
280
     0
102
RTVSPost2010PropOp36
 70
     1
102
RTVSPost2010Prop37
 90
       50
102
RTVSPost2010PropOp37
 70
     1
102
RTVSPost2010Prop38
140
0.0
102
RTVSPost2010PropOp38
 70
     1
102
RTVSPost2010Prop39
140
1.0
102
RTVSPost2010PropOp39
 70
     1
102
RTVSPost2010Prop40
 90
        0
102
RTVSPost2010PropOp40
 70
     1
102
RTVSPost2010Prop41ColorIndex
 90
       18
102
RTVSPost2010Prop41ColorRGB
 90
        0
102
RTVSPost2010PropOp41
 70
     1
102
RTVSPost2010Prop42
 90
       50
102
RTVSPost2010PropOp42
 70
     1
102
RTVSPost2010Prop43
 90
        3
102
RTVSPost2010PropOp43
 70
     1
102
RTVSPost2010Prop44ColorIndex
 90
        5
102
RTVSPost2010Prop44ColorRGB
 90
      255
102
RTVSPost2010PropOp44
 70
     1
102
RTVSPost2010Prop45
280
     0
102
RTVSPost2010PropOp45
 70
     1
102
RTVSPost2010Prop46
 90
       50
102
RTVSPost2010PropOp46
 70
     1
102
RTVSPost2010Prop47
 90
       50
102
RTVSPost2010PropOp47
 70
     1
102
RTVSPost2010Prop48
 90
       50
102
RTVSPost2010PropOp48
 70
     1
102
RTVSPost2010Prop49
280
     0
102
RTVSPost2010PropOp49
 70
     1
102
RTVSPost2010Prop50
 90
       50
102
RTVSPost2010PropOp50
 70
     1
102
RTVSPost2010Prop51ColorIndex
 90
      256
102
RTVSPost2010Prop51ColorRGB
 90
-16777216
102
RTVSPost2010PropOp51
 70
     0
102
RTVSPost2010Prop52
140
1.0
102
RTVSPost2010PropOp52
 70
     0
102
RTVSPost2010Prop53
 90
        2
102
RTVSPost2010PropOp53
 70
     1
102
RTVSPost2010Prop54
  1
strokes_ogs.tif
102
RTVSPost2010PropOp54
 70
     1
102
RTVSPost2010Prop55
280
     0
102
RTVSPost2010PropOp55
 70
     1
102
RTVSPost2010Prop56
140
1.0
102
RTVSPost2010PropOp56
 70
     1
102
RTVSPost2010Prop57
140
1.0
102
RTVSPost2010PropOp57
 70
     1
102
RTVSPropertyOp0
 70
     1
102
RTVSPropertyOp1
 70
     1
102
RTVSPropertyOp2
 70
     1
102
RTVSPropertyOp3
 70
     1
102
RTVSPropertyOp4
 70
     1
102
RTVSPropertyOp5
 70
     1
102
RTVSPropertyOp6
 70
     1
102
RTVSPropertyOp7
 70
     1
102
RTVSPropertyOp8
 70
     1
102
RTVSPropertyOp9
 70
     1
102
RTVSPropertyOp10
 70
     1
102
RTVSPropertyOp11
 70
     1
102
RTVSPropertyOp12
 70
     1
102
RTVSPropertyOp13
 70
     1
102
RTVSPropertyOp14
 70
     1
102
RTVSPropertyOp15
 70
     1
102
RTVSPropertyOp16
 70
     1
102
RTVSPropertyOp17
 70
     1
102
RTVSPropertyOp18
 70
     1
102
RTVSPropertyOp19
 70
     1
102
RTVSPropertyOp20
 70
     1
102
RTVSPropertyOp21
 70
     1
102
RTVSPropertyOp22
 70
     1
102
RTVSPropertyOp23
 70
     1
102
RTVSPropertyOp24
 70
     1
102
RTVSPropertyOp25
 70
     1
102
RTVSPropertyOp26
 70
     1
102
RTVSPropertyOp27
 70
     1
102
RTVSPropertyOp28
 70
     1
102
RTVSPropertyOp29
 70
     1
102
RTVSPropertyOp30
 70
     1
102
RTVSPropertyOp31
 70
     1
102
RTVSPropertyOp32
 70
     1
102
RTVSPropertyOp33
 70
     1
102
RTVSPropertyOp34
 70
     1
102
RTVSPropertyOp35
 70
     1
102
RTVSPropertyOp36
 70
     1
102
RTVSPropertyOp37
 70
     1
102
RTVSPropertyOp38
 70
     1
102
RTVSPropertyOp39
 70
     1
102
RTVSPropertyOp40
 70
     1
102
RTVSPropertyOp41
 70
     1
102
RTVSPropertyOp42
 70
     1
102
RTVSPropertyOp43
 70
     1
102
RTVSPropertyOp44
 70
     1
102
RTVSPropertyOp45
 70
     1
102
RTVSPropertyOp46
 70
     1
102
RTVSPropertyOp47
 70
     1
102
RTVSPropertyOp48
 70
     1
102
RTVSPropertyOp49
 70
     1
102
RTVSPropertyOp50
 70
     1
102
RTVSPropertyOp51
 70
     0
102
RTVSPropertyOp52
 70
     0
102
RTVSPropertyOp53
 70
     1
102
RTVSPropertyOp54
 70
     1
102
RTVSPropertyOp55
 70
     1
102
RTVSPropertyOp56
 70
     1
102
RTVSPropertyOp57
 70
     1
102
RTVSPropertyOp58
 70
     1
102
RTVSPropertyOp59
 70
     1
102
RTVSPropertyOp60
 70
     1
102
RTVSPropertyOp61
 70
     1
102
RTVSPropertyOp62
 70
     1
  0
XRECORD
  5
C38C
102
{ACAD_REACTORS
330
C38B
102
}
330
C38B
100
AcDbXrecord
280
     1
102
RTVSPost2010Prop28
280
     0
102
RTVSPost2010PropOp28
 70
     1
102
RTVSPost2010Prop29
280
     1
102
RTVSPost2010PropOp29
 70
     1
102
RTVSPost2010Prop30
280
     1
102
RTVSPost2010PropOp30
 70
     1
102
RTVSPost2010Prop31
280
     0
102
RTVSPost2010PropOp31
 70
     1
102
RTVSPost2010Prop32
280
     0
102
RTVSPost2010PropOp32
 70
     1
102
RTVSPost2010Prop33
280
     0
102
RTVSPost2010PropOp33
 70
     1
102
RTVSPost2010Prop34
280
     0
102
RTVSPost2010PropOp34
 70
     1
102
RTVSPost2010Prop35
280
     0
102
RTVSPost2010PropOp35
 70
     1
102
RTVSPost2010Prop36
280
     0
102
RTVSPost2010PropOp36
 70
     1
102
RTVSPost2010Prop37
 90
       50
102
RTVSPost2010PropOp37
 70
     1
102
RTVSPost2010Prop38
140
0.0
102
RTVSPost2010PropOp38
 70
     1
102
RTVSPost2010Prop39
140
1.0
102
RTVSPost2010PropOp39
 70
     1
102
RTVSPost2010Prop40
 90
        0
102
RTVSPost2010PropOp40
 70
     1
102
RTVSPost2010Prop41ColorIndex
 90
       18
102
RTVSPost2010Prop41ColorRGB
 90
        0
102
RTVSPost2010PropOp41
 70
     1
102
RTVSPost2010Prop42
 90
       50
102
RTVSPost2010PropOp42
 70
     1
102
RTVSPost2010Prop43
 90
        3
102
RTVSPost2010PropOp43
 70
     1
102
RTVSPost2010Prop44ColorIndex
 90
        5
102
RTVSPost2010Prop44ColorRGB
 90
      255
102
RTVSPost2010PropOp44
 70
     1
102
RTVSPost2010Prop45
280
     0
102
RTVSPost2010PropOp45
 70
     1
102
RTVSPost2010Prop46
 90
       50
102
RTVSPost2010PropOp46
 70
     1
102
RTVSPost2010Prop47
 90
       50
102
RTVSPost2010PropOp47
 70
     1
102
RTVSPost2010Prop48
 90
       50
102
RTVSPost2010PropOp48
 70
     1
102
RTVSPost2010Prop49
280
     0
102
RTVSPost2010PropOp49
 70
     1
102
RTVSPost2010Prop50
 90
       50
102
RTVSPost2010PropOp50
 70
     1
102
RTVSPost2010Prop51ColorIndex
 90
      256
102
RTVSPost2010Prop51ColorRGB
 90
-16777216
102
RTVSPost2010PropOp51
 70
     0
102
RTVSPost2010Prop52
140
1.0
102
RTVSPost2010PropOp52
 70
     0
102
RTVSPost2010Prop53
 90
        2
102
RTVSPost2010PropOp53
 70
     1
102
RTVSPost2010Prop54
  1
strokes_ogs.tif
102
RTVSPost2010PropOp54
 70
     1
102
RTVSPost2010Prop55
280
     0
102
RTVSPost2010PropOp55
 70
     1
102
RTVSPost2010Prop56
140
1.0
102
RTVSPost2010PropOp56
 70
     1
102
RTVSPost2010Prop57
140
1.0
102
RTVSPost2010PropOp57
 70
     1
102
RTVSPropertyOp0
 70
     1
102
RTVSPropertyOp1
 70
     1
102
RTVSPropertyOp2
 70
     1
102
RTVSPropertyOp3
 70
     1
102
RTVSPropertyOp4
 70
     1
102
RTVSPropertyOp5
 70
     1
102
RTVSPropertyOp6
 70
     1
102
RTVSPropertyOp7
 70
     1
102
RTVSPropertyOp8
 70
     1
102
RTVSPropertyOp9
 70
     1
102
RTVSPropertyOp10
 70
     1
102
RTVSPropertyOp11
 70
     1
102
RTVSPropertyOp12
 70
     1
102
RTVSPropertyOp13
 70
     1
102
RTVSPropertyOp14
 70
     1
102
RTVSPropertyOp15
 70
     1
102
RTVSPropertyOp16
 70
     1
102
RTVSPropertyOp17
 70
     1
102
RTVSPropertyOp18
 70
     1
102
RTVSPropertyOp19
 70
     1
102
RTVSPropertyOp20
 70
     1
102
RTVSPropertyOp21
 70
     1
102
RTVSPropertyOp22
 70
     1
102
RTVSPropertyOp23
 70
     1
102
RTVSPropertyOp24
 70
     1
102
RTVSPropertyOp25
 70
     1
102
RTVSPropertyOp26
 70
     1
102
RTVSPropertyOp27
 70
     1
102
RTVSPropertyOp28
 70
     1
102
RTVSPropertyOp29
 70
     1
102
RTVSPropertyOp30
 70
     1
102
RTVSPropertyOp31
 70
     1
102
RTVSPropertyOp32
 70
     1
102
RTVSPropertyOp33
 70
     1
102
RTVSPropertyOp34
 70
     1
102
RTVSPropertyOp35
 70
     1
102
RTVSPropertyOp36
 70
     1
102
RTVSPropertyOp37
 70
     1
102
RTVSPropertyOp38
 70
     1
102
RTVSPropertyOp39
 70
     1
102
RTVSPropertyOp40
 70
     1
102
RTVSPropertyOp41
 70
     1
102
RTVSPropertyOp42
 70
     1
102
RTVSPropertyOp43
 70
     1
102
RTVSPropertyOp44
 70
     1
102
RTVSPropertyOp45
 70
     1
102
RTVSPropertyOp46
 70
     1
102
RTVSPropertyOp47
 70
     1
102
RTVSPropertyOp48
 70
     1
102
RTVSPropertyOp49
 70
     1
102
RTVSPropertyOp50
 70
     1
102
RTVSPropertyOp51
 70
     0
102
RTVSPropertyOp52
 70
     0
102
RTVSPropertyOp53
 70
     1
102
RTVSPropertyOp54
 70
     1
102
RTVSPropertyOp55
 70
     1
102
RTVSPropertyOp56
 70
     1
102
RTVSPropertyOp57
 70
     1
102
RTVSPropertyOp58
 70
     1
102
RTVSPropertyOp59
 70
     1
102
RTVSPropertyOp60
 70
     1
102
RTVSPropertyOp61
 70
     1
102
RTVSPropertyOp62
 70
     1
  0
XRECORD
  5
C390
102
{ACAD_REACTORS
330
C38F
102
}
330
C38F
100
AcDbXrecord
280
     1
102
RTVSPost2010Prop28
280
     0
102
RTVSPost2010PropOp28
 70
     1
102
RTVSPost2010Prop29
280
     1
102
RTVSPost2010PropOp29
 70
     1
102
RTVSPost2010Prop30
280
     1
102
RTVSPost2010PropOp30
 70
     1
102
RTVSPost2010Prop31
280
     0
102
RTVSPost2010PropOp31
 70
     1
102
RTVSPost2010Prop32
280
     0
102
RTVSPost2010PropOp32
 70
     1
102
RTVSPost2010Prop33
280
     0
102
RTVSPost2010PropOp33
 70
     1
102
RTVSPost2010Prop34
280
     0
102
RTVSPost2010PropOp34
 70
     1
102
RTVSPost2010Prop35
280
     0
102
RTVSPost2010PropOp35
 70
     1
102
RTVSPost2010Prop36
280
     0
102
RTVSPost2010PropOp36
 70
     1
102
RTVSPost2010Prop37
 90
       50
102
RTVSPost2010PropOp37
 70
     1
102
RTVSPost2010Prop38
140
0.0
102
RTVSPost2010PropOp38
 70
     1
102
RTVSPost2010Prop39
140
1.0
102
RTVSPost2010PropOp39
 70
     1
102
RTVSPost2010Prop40
 90
        0
102
RTVSPost2010PropOp40
 70
     1
102
RTVSPost2010Prop41ColorIndex
 90
       18
102
RTVSPost2010Prop41ColorRGB
 90
        0
102
RTVSPost2010PropOp41
 70
     1
102
RTVSPost2010Prop42
 90
       50
102
RTVSPost2010PropOp42
 70
     1
102
RTVSPost2010Prop43
 90
        3
102
RTVSPost2010PropOp43
 70
     1
102
RTVSPost2010Prop44ColorIndex
 90
        5
102
RTVSPost2010Prop44ColorRGB
 90
      255
102
RTVSPost2010PropOp44
 70
     1
102
RTVSPost2010Prop45
280
     0
102
RTVSPost2010PropOp45
 70
     1
102
RTVSPost2010Prop46
 90
       50
102
RTVSPost2010PropOp46
 70
     1
102
RTVSPost2010Prop47
 90
       50
102
RTVSPost2010PropOp47
 70
     1
102
RTVSPost2010Prop48
 90
       50
102
RTVSPost2010PropOp48
 70
     1
102
RTVSPost2010Prop49
280
     0
102
RTVSPost2010PropOp49
 70
     1
102
RTVSPost2010Prop50
 90
       50
102
RTVSPost2010PropOp50
 70
     1
102
RTVSPost2010Prop51ColorIndex
 90
      256
102
RTVSPost2010Prop51ColorRGB
 90
-16777216
102
RTVSPost2010PropOp51
 70
     0
102
RTVSPost2010Prop52
140
1.0
102
RTVSPost2010PropOp52
 70
     0
102
RTVSPost2010Prop53
 90
        2
102
RTVSPost2010PropOp53
 70
     1
102
RTVSPost2010Prop54
  1
strokes_ogs.tif
102
RTVSPost2010PropOp54
 70
     1
102
RTVSPost2010Prop55
280
     0
102
RTVSPost2010PropOp55
 70
     1
102
RTVSPost2010Prop56
140
1.0
102
RTVSPost2010PropOp56
 70
     1
102
RTVSPost2010Prop57
140
1.0
102
RTVSPost2010PropOp57
 70
     1
102
RTVSPropertyOp0
 70
     1
102
RTVSPropertyOp1
 70
     1
102
RTVSPropertyOp2
 70
     1
102
RTVSPropertyOp3
 70
     1
102
RTVSPropertyOp4
 70
     1
102
RTVSPropertyOp5
 70
     1
102
RTVSPropertyOp6
 70
     1
102
RTVSPropertyOp7
 70
     1
102
RTVSPropertyOp8
 70
     1
102
RTVSPropertyOp9
 70
     1
102
RTVSPropertyOp10
 70
     1
102
RTVSPropertyOp11
 70
     1
102
RTVSPropertyOp12
 70
     1
102
RTVSPropertyOp13
 70
     1
102
RTVSPropertyOp14
 70
     1
102
RTVSPropertyOp15
 70
     1
102
RTVSPropertyOp16
 70
     1
102
RTVSPropertyOp17
 70
     1
102
RTVSPropertyOp18
 70
     1
102
RTVSPropertyOp19
 70
     1
102
RTVSPropertyOp20
 70
     1
102
RTVSPropertyOp21
 70
     1
102
RTVSPropertyOp22
 70
     1
102
RTVSPropertyOp23
 70
     1
102
RTVSPropertyOp24
 70
     1
102
RTVSPropertyOp25
 70
     1
102
RTVSPropertyOp26
 70
     1
102
RTVSPropertyOp27
 70
     1
102
RTVSPropertyOp28
 70
     1
102
RTVSPropertyOp29
 70
     1
102
RTVSPropertyOp30
 70
     1
102
RTVSPropertyOp31
 70
     1
102
RTVSPropertyOp32
 70
     1
102
RTVSPropertyOp33
 70
     1
102
RTVSPropertyOp34
 70
     1
102
RTVSPropertyOp35
 70
     1
102
RTVSPropertyOp36
 70
     1
102
RTVSPropertyOp37
 70
     1
102
RTVSPropertyOp38
 70
     1
102
RTVSPropertyOp39
 70
     1
102
RTVSPropertyOp40
 70
     1
102
RTVSPropertyOp41
 70
     1
102
RTVSPropertyOp42
 70
     1
102
RTVSPropertyOp43
 70
     1
102
RTVSPropertyOp44
 70
     1
102
RTVSPropertyOp45
 70
     1
102
RTVSPropertyOp46
 70
     1
102
RTVSPropertyOp47
 70
     1
102
RTVSPropertyOp48
 70
     1
102
RTVSPropertyOp49
 70
     1
102
RTVSPropertyOp50
 70
     1
102
RTVSPropertyOp51
 70
     0
102
RTVSPropertyOp52
 70
     0
102
RTVSPropertyOp53
 70
     1
102
RTVSPropertyOp54
 70
     1
102
RTVSPropertyOp55
 70
     1
102
RTVSPropertyOp56
 70
     1
102
RTVSPropertyOp57
 70
     1
102
RTVSPropertyOp58
 70
     1
102
RTVSPropertyOp59
 70
     1
102
RTVSPropertyOp60
 70
     1
102
RTVSPropertyOp61
 70
     1
102
RTVSPropertyOp62
 70
     1
  0
XRECORD
  5
C3AE
102
{ACAD_REACTORS
330
C3AD
102
}
330
C3AD
100
AcDbXrecord
280
     1
102
RTVSPost2010Prop28
280
     0
102
RTVSPost2010PropOp28
 70
     0
102
RTVSPost2010Prop29
280
     1
102
RTVSPost2010PropOp29
 70
     0
102
RTVSPost2010Prop30
280
     1
102
RTVSPost2010PropOp30
 70
     0
102
RTVSPost2010Prop31
280
     0
102
RTVSPost2010PropOp31
 70
     0
102
RTVSPost2010Prop32
280
     0
102
RTVSPost2010PropOp32
 70
     0
102
RTVSPost2010Prop33
280
     0
102
RTVSPost2010PropOp33
 70
     0
102
RTVSPost2010Prop34
280
     0
102
RTVSPost2010PropOp34
 70
     0
102
RTVSPost2010Prop35
280
     0
102
RTVSPost2010PropOp35
 70
     0
102
RTVSPost2010Prop36
280
     0
102
RTVSPost2010PropOp36
 70
     0
102
RTVSPost2010Prop37
 90
       50
102
RTVSPost2010PropOp37
 70
     0
102
RTVSPost2010Prop38
140
0.0
102
RTVSPost2010PropOp38
 70
     0
102
RTVSPost2010Prop39
140
1.0
102
RTVSPost2010PropOp39
 70
     0
102
RTVSPost2010Prop40
 90
        0
102
RTVSPost2010PropOp40
 70
     0
102
RTVSPost2010Prop41ColorIndex
 90
       18
102
RTVSPost2010Prop41ColorRGB
 90
        0
102
RTVSPost2010PropOp41
 70
     0
102
RTVSPost2010Prop42
 90
       50
102
RTVSPost2010PropOp42
 70
     0
102
RTVSPost2010Prop43
 90
        3
102
RTVSPost2010PropOp43
 70
     0
102
RTVSPost2010Prop44ColorIndex
 90
        5
102
RTVSPost2010Prop44ColorRGB
 90
      255
102
RTVSPost2010PropOp44
 70
     0
102
RTVSPost2010Prop45
280
     0
102
RTVSPost2010PropOp45
 70
     0
102
RTVSPost2010Prop46
 90
       50
102
RTVSPost2010PropOp46
 70
     0
102
RTVSPost2010Prop47
 90
       50
102
RTVSPost2010PropOp47
 70
     0
102
RTVSPost2010Prop48
 90
       50
102
RTVSPost2010PropOp48
 70
     0
102
RTVSPost2010Prop49
280
     0
102
RTVSPost2010PropOp49
 70
     0
102
RTVSPost2010Prop50
 90
       50
102
RTVSPost2010PropOp50
 70
     0
102
RTVSPost2010Prop51ColorIndex
 90
      256
102
RTVSPost2010Prop51ColorRGB
 90
-16777216
102
RTVSPost2010PropOp51
 70
     0
102
RTVSPost2010Prop52
140
1.0
102
RTVSPost2010PropOp52
 70
     0
102
RTVSPost2010Prop53
 90
        2
102
RTVSPost2010PropOp53
 70
     0
102
RTVSPost2010Prop54
  1
strokes_ogs.tif
102
RTVSPost2010PropOp54
 70
     0
102
RTVSPost2010Prop55
280
     0
102
RTVSPost2010PropOp55
 70
     0
102
RTVSPost2010Prop56
140
1.0
102
RTVSPost2010PropOp56
 70
     0
102
RTVSPost2010Prop57
140
1.0
102
RTVSPost2010PropOp57
 70
     0
102
RTVSPropertyOp0
 70
     0
102
RTVSPropertyOp1
 70
     0
102
RTVSPropertyOp2
 70
     0
102
RTVSPropertyOp3
 70
     0
102
RTVSPropertyOp4
 70
     0
102
RTVSPropertyOp5
 70
     0
102
RTVSPropertyOp6
 70
     0
102
RTVSPropertyOp7
 70
     0
102
RTVSPropertyOp8
 70
     0
102
RTVSPropertyOp9
 70
     0
102
RTVSPropertyOp10
 70
     0
102
RTVSPropertyOp11
 70
     0
102
RTVSPropertyOp12
 70
     0
102
RTVSPropertyOp13
 70
     0
102
RTVSPropertyOp14
 70
     2
102
RTVSPropertyOp15
 70
     0
102
RTVSPropertyOp16
 70
     0
102
RTVSPropertyOp17
 70
     0
102
RTVSPropertyOp18
 70
     0
102
RTVSPropertyOp19
 70
     0
102
RTVSPropertyOp20
 70
     0
102
RTVSPropertyOp21
 70
     0
102
RTVSPropertyOp22
 70
     0
102
RTVSPropertyOp23
 70
     0
102
RTVSPropertyOp24
 70
     0
102
RTVSPropertyOp25
 70
     0
102
RTVSPropertyOp26
 70
     0
102
RTVSPropertyOp27
 70
     0
102
RTVSPropertyOp28
 70
     0
102
RTVSPropertyOp29
 70
     0
102
RTVSPropertyOp30
 70
     0
102
RTVSPropertyOp31
 70
     0
102
RTVSPropertyOp32
 70
     0
102
RTVSPropertyOp33
 70
     0
102
RTVSPropertyOp34
 70
     0
102
RTVSPropertyOp35
 70
     0
102
RTVSPropertyOp36
 70
     0
102
RTVSPropertyOp37
 70
     0
102
RTVSPropertyOp38
 70
     0
102
RTVSPropertyOp39
 70
     0
102
RTVSPropertyOp40
 70
     0
102
RTVSPropertyOp41
 70
     0
102
RTVSPropertyOp42
 70
     0
102
RTVSPropertyOp43
 70
     0
102
RTVSPropertyOp44
 70
     0
102
RTVSPropertyOp45
 70
     0
102
RTVSPropertyOp46
 70
     0
102
RTVSPropertyOp47
 70
     0
102
RTVSPropertyOp48
 70
     0
102
RTVSPropertyOp49
 70
     0
102
RTVSPropertyOp50
 70
     0
102
RTVSPropertyOp51
 70
     0
102
RTVSPropertyOp52
 70
     0
102
RTVSPropertyOp53
 70
     0
102
RTVSPropertyOp54
 70
     0
102
RTVSPropertyOp55
 70
     0
102
RTVSPropertyOp56
 70
     0
102
RTVSPropertyOp57
 70
     0
102
RTVSPropertyOp58
 70
     1
102
RTVSPropertyOp59
 70
     1
102
RTVSPropertyOp60
 70
     1
102
RTVSPropertyOp61
 70
     1
102
RTVSPropertyOp62
 70
     1
  0
XRECORD
  5
C398
102
{ACAD_REACTORS
330
C397
102
}
330
C397
100
AcDbXrecord
280
     1
102
RTVSPost2010Prop28
280
     0
102
RTVSPost2010PropOp28
 70
     1
102
RTVSPost2010Prop29
280
     1
102
RTVSPost2010PropOp29
 70
     1
102
RTVSPost2010Prop30
280
     1
102
RTVSPost2010PropOp30
 70
     1
102
RTVSPost2010Prop31
280
     0
102
RTVSPost2010PropOp31
 70
     1
102
RTVSPost2010Prop32
280
     0
102
RTVSPost2010PropOp32
 70
     1
102
RTVSPost2010Prop33
280
     0
102
RTVSPost2010PropOp33
 70
     1
102
RTVSPost2010Prop34
280
     0
102
RTVSPost2010PropOp34
 70
     1
102
RTVSPost2010Prop35
280
     0
102
RTVSPost2010PropOp35
 70
     1
102
RTVSPost2010Prop36
280
     0
102
RTVSPost2010PropOp36
 70
     1
102
RTVSPost2010Prop37
 90
       50
102
RTVSPost2010PropOp37
 70
     1
102
RTVSPost2010Prop38
140
0.0
102
RTVSPost2010PropOp38
 70
     1
102
RTVSPost2010Prop39
140
1.0
102
RTVSPost2010PropOp39
 70
     1
102
RTVSPost2010Prop40
 90
        0
102
RTVSPost2010PropOp40
 70
     1
102
RTVSPost2010Prop41ColorIndex
 90
       18
102
RTVSPost2010Prop41ColorRGB
 90
        0
102
RTVSPost2010PropOp41
 70
     1
102
RTVSPost2010Prop42
 90
       50
102
RTVSPost2010PropOp42
 70
     1
102
RTVSPost2010Prop43
 90
        3
102
RTVSPost2010PropOp43
 70
     1
102
RTVSPost2010Prop44ColorIndex
 90
        5
102
RTVSPost2010Prop44ColorRGB
 90
      255
102
RTVSPost2010PropOp44
 70
     1
102
RTVSPost2010Prop45
280
     0
102
RTVSPost2010PropOp45
 70
     1
102
RTVSPost2010Prop46
 90
       50
102
RTVSPost2010PropOp46
 70
     1
102
RTVSPost2010Prop47
 90
       50
102
RTVSPost2010PropOp47
 70
     1
102
RTVSPost2010Prop48
 90
       50
102
RTVSPost2010PropOp48
 70
     1
102
RTVSPost2010Prop49
280
     0
102
RTVSPost2010PropOp49
 70
     1
102
RTVSPost2010Prop50
 90
       50
102
RTVSPost2010PropOp50
 70
     1
102
RTVSPost2010Prop51ColorIndex
 90
      256
102
RTVSPost2010Prop51ColorRGB
 90
-16777216
102
RTVSPost2010PropOp51
 70
     0
102
RTVSPost2010Prop52
140
1.0
102
RTVSPost2010PropOp52
 70
     0
102
RTVSPost2010Prop53
 90
        2
102
RTVSPost2010PropOp53
 70
     1
102
RTVSPost2010Prop54
  1
strokes_ogs.tif
102
RTVSPost2010PropOp54
 70
     1
102
RTVSPost2010Prop55
280
     0
102
RTVSPost2010PropOp55
 70
     1
102
RTVSPost2010Prop56
140
1.0
102
RTVSPost2010PropOp56
 70
     1
102
RTVSPost2010Prop57
140
1.0
102
RTVSPost2010PropOp57
 70
     1
102
RTVSPropertyOp0
 70
     1
102
RTVSPropertyOp1
 70
     1
102
RTVSPropertyOp2
 70
     1
102
RTVSPropertyOp3
 70
     1
102
RTVSPropertyOp4
 70
     1
102
RTVSPropertyOp5
 70
     1
102
RTVSPropertyOp6
 70
     1
102
RTVSPropertyOp7
 70
     1
102
RTVSPropertyOp8
 70
     1
102
RTVSPropertyOp9
 70
     1
102
RTVSPropertyOp10
 70
     1
102
RTVSPropertyOp11
 70
     1
102
RTVSPropertyOp12
 70
     1
102
RTVSPropertyOp13
 70
     1
102
RTVSPropertyOp14
 70
     1
102
RTVSPropertyOp15
 70
     1
102
RTVSPropertyOp16
 70
     1
102
RTVSPropertyOp17
 70
     1
102
RTVSPropertyOp18
 70
     1
102
RTVSPropertyOp19
 70
     1
102
RTVSPropertyOp20
 70
     1
102
RTVSPropertyOp21
 70
     1
102
RTVSPropertyOp22
 70
     1
102
RTVSPropertyOp23
 70
     1
102
RTVSPropertyOp24
 70
     1
102
RTVSPropertyOp25
 70
     1
102
RTVSPropertyOp26
 70
     1
102
RTVSPropertyOp27
 70
     1
102
RTVSPropertyOp28
 70
     1
102
RTVSPropertyOp29
 70
     1
102
RTVSPropertyOp30
 70
     1
102
RTVSPropertyOp31
 70
     1
102
RTVSPropertyOp32
 70
     1
102
RTVSPropertyOp33
 70
     1
102
RTVSPropertyOp34
 70
     1
102
RTVSPropertyOp35
 70
     1
102
RTVSPropertyOp36
 70
     1
102
RTVSPropertyOp37
 70
     1
102
RTVSPropertyOp38
 70
     1
102
RTVSPropertyOp39
 70
     1
102
RTVSPropertyOp40
 70
     1
102
RTVSPropertyOp41
 70
     1
102
RTVSPropertyOp42
 70
     1
102
RTVSPropertyOp43
 70
     1
102
RTVSPropertyOp44
 70
     1
102
RTVSPropertyOp45
 70
     1
102
RTVSPropertyOp46
 70
     1
102
RTVSPropertyOp47
 70
     1
102
RTVSPropertyOp48
 70
     1
102
RTVSPropertyOp49
 70
     1
102
RTVSPropertyOp50
 70
     1
102
RTVSPropertyOp51
 70
     0
102
RTVSPropertyOp52
 70
     0
102
RTVSPropertyOp53
 70
     1
102
RTVSPropertyOp54
 70
     1
102
RTVSPropertyOp55
 70
     1
102
RTVSPropertyOp56
 70
     1
102
RTVSPropertyOp57
 70
     1
102
RTVSPropertyOp58
 70
     1
102
RTVSPropertyOp59
 70
     1
102
RTVSPropertyOp60
 70
     1
102
RTVSPropertyOp61
 70
     1
102
RTVSPropertyOp62
 70
     1
  0
XRECORD
  5
C37C
102
{ACAD_REACTORS
330
C37B
102
}
330
C37B
100
AcDbXrecord
280
     1
102
RTVSPost2010Prop28
280
     0
102
RTVSPost2010PropOp28
 70
     1
102
RTVSPost2010Prop29
280
     1
102
RTVSPost2010PropOp29
 70
     1
102
RTVSPost2010Prop30
280
     1
102
RTVSPost2010PropOp30
 70
     1
102
RTVSPost2010Prop31
280
     0
102
RTVSPost2010PropOp31
 70
     1
102
RTVSPost2010Prop32
280
     0
102
RTVSPost2010PropOp32
 70
     1
102
RTVSPost2010Prop33
280
     0
102
RTVSPost2010PropOp33
 70
     1
102
RTVSPost2010Prop34
280
     0
102
RTVSPost2010PropOp34
 70
     1
102
RTVSPost2010Prop35
280
     0
102
RTVSPost2010PropOp35
 70
     1
102
RTVSPost2010Prop36
280
     0
102
RTVSPost2010PropOp36
 70
     1
102
RTVSPost2010Prop37
 90
       50
102
RTVSPost2010PropOp37
 70
     1
102
RTVSPost2010Prop38
140
0.0
102
RTVSPost2010PropOp38
 70
     1
102
RTVSPost2010Prop39
140
1.0
102
RTVSPost2010PropOp39
 70
     1
102
RTVSPost2010Prop40
 90
        0
102
RTVSPost2010PropOp40
 70
     1
102
RTVSPost2010Prop41ColorIndex
 90
       18
102
RTVSPost2010Prop41ColorRGB
 90
        0
102
RTVSPost2010PropOp41
 70
     1
102
RTVSPost2010Prop42
 90
       50
102
RTVSPost2010PropOp42
 70
     1
102
RTVSPost2010Prop43
 90
        3
102
RTVSPost2010PropOp43
 70
     1
102
RTVSPost2010Prop44ColorIndex
 90
        5
102
RTVSPost2010Prop44ColorRGB
 90
      255
102
RTVSPost2010PropOp44
 70
     1
102
RTVSPost2010Prop45
280
     0
102
RTVSPost2010PropOp45
 70
     1
102
RTVSPost2010Prop46
 90
       50
102
RTVSPost2010PropOp46
 70
     1
102
RTVSPost2010Prop47
 90
       50
102
RTVSPost2010PropOp47
 70
     1
102
RTVSPost2010Prop48
 90
       50
102
RTVSPost2010PropOp48
 70
     1
102
RTVSPost2010Prop49
280
     0
102
RTVSPost2010PropOp49
 70
     1
102
RTVSPost2010Prop50
 90
       50
102
RTVSPost2010PropOp50
 70
     1
102
RTVSPost2010Prop51ColorIndex
 90
      256
102
RTVSPost2010Prop51ColorRGB
 90
-16777216
102
RTVSPost2010PropOp51
 70
     0
102
RTVSPost2010Prop52
140
1.0
102
RTVSPost2010PropOp52
 70
     0
102
RTVSPost2010Prop53
 90
        2
102
RTVSPost2010PropOp53
 70
     1
102
RTVSPost2010Prop54
  1
strokes_ogs.tif
102
RTVSPost2010PropOp54
 70
     1
102
RTVSPost2010Prop55
280
     0
102
RTVSPost2010PropOp55
 70
     1
102
RTVSPost2010Prop56
140
1.0
102
RTVSPost2010PropOp56
 70
     1
102
RTVSPost2010Prop57
140
1.0
102
RTVSPost2010PropOp57
 70
     1
102
RTVSPropertyOp0
 70
     1
102
RTVSPropertyOp1
 70
     1
102
RTVSPropertyOp2
 70
     1
102
RTVSPropertyOp3
 70
     1
102
RTVSPropertyOp4
 70
     1
102
RTVSPropertyOp5
 70
     1
102
RTVSPropertyOp6
 70
     1
102
RTVSPropertyOp7
 70
     1
102
RTVSPropertyOp8
 70
     1
102
RTVSPropertyOp9
 70
     1
102
RTVSPropertyOp10
 70
     1
102
RTVSPropertyOp11
 70
     1
102
RTVSPropertyOp12
 70
     1
102
RTVSPropertyOp13
 70
     1
102
RTVSPropertyOp14
 70
     1
102
RTVSPropertyOp15
 70
     1
102
RTVSPropertyOp16
 70
     1
102
RTVSPropertyOp17
 70
     1
102
RTVSPropertyOp18
 70
     1
102
RTVSPropertyOp19
 70
     1
102
RTVSPropertyOp20
 70
     1
102
RTVSPropertyOp21
 70
     1
102
RTVSPropertyOp22
 70
     1
102
RTVSPropertyOp23
 70
     1
102
RTVSPropertyOp24
 70
     1
102
RTVSPropertyOp25
 70
     1
102
RTVSPropertyOp26
 70
     1
102
RTVSPropertyOp27
 70
     1
102
RTVSPropertyOp28
 70
     1
102
RTVSPropertyOp29
 70
     1
102
RTVSPropertyOp30
 70
     1
102
RTVSPropertyOp31
 70
     1
102
RTVSPropertyOp32
 70
     1
102
RTVSPropertyOp33
 70
     1
102
RTVSPropertyOp34
 70
     1
102
RTVSPropertyOp35
 70
     1
102
RTVSPropertyOp36
 70
     1
102
RTVSPropertyOp37
 70
     1
102
RTVSPropertyOp38
 70
     1
102
RTVSPropertyOp39
 70
     1
102
RTVSPropertyOp40
 70
     1
102
RTVSPropertyOp41
 70
     1
102
RTVSPropertyOp42
 70
     1
102
RTVSPropertyOp43
 70
     1
102
RTVSPropertyOp44
 70
     1
102
RTVSPropertyOp45
 70
     1
102
RTVSPropertyOp46
 70
     1
102
RTVSPropertyOp47
 70
     1
102
RTVSPropertyOp48
 70
     1
102
RTVSPropertyOp49
 70
     1
102
RTVSPropertyOp50
 70
     1
102
RTVSPropertyOp51
 70
     0
102
RTVSPropertyOp52
 70
     0
102
RTVSPropertyOp53
 70
     1
102
RTVSPropertyOp54
 70
     1
102
RTVSPropertyOp55
 70
     1
102
RTVSPropertyOp56
 70
     1
102
RTVSPropertyOp57
 70
     1
102
RTVSPropertyOp58
 70
     1
102
RTVSPropertyOp59
 70
     1
102
RTVSPropertyOp60
 70
     1
102
RTVSPropertyOp61
 70
     1
102
RTVSPropertyOp62
 70
     1
  0
XRECORD
  5
C37E
102
{ACAD_REACTORS
330
C37D
102
}
330
C37D
100
AcDbXrecord
280
     1
102
RTVSPost2010Prop28
280
     0
102
RTVSPost2010PropOp28
 70
     1
102
RTVSPost2010Prop29
280
     1
102
RTVSPost2010PropOp29
 70
     1
102
RTVSPost2010Prop30
280
     1
102
RTVSPost2010PropOp30
 70
     1
102
RTVSPost2010Prop31
280
     0
102
RTVSPost2010PropOp31
 70
     1
102
RTVSPost2010Prop32
280
     0
102
RTVSPost2010PropOp32
 70
     1
102
RTVSPost2010Prop33
280
     0
102
RTVSPost2010PropOp33
 70
     1
102
RTVSPost2010Prop34
280
     0
102
RTVSPost2010PropOp34
 70
     1
102
RTVSPost2010Prop35
280
     0
102
RTVSPost2010PropOp35
 70
     1
102
RTVSPost2010Prop36
280
     0
102
RTVSPost2010PropOp36
 70
     1
102
RTVSPost2010Prop37
 90
       50
102
RTVSPost2010PropOp37
 70
     1
102
RTVSPost2010Prop38
140
0.0
102
RTVSPost2010PropOp38
 70
     1
102
RTVSPost2010Prop39
140
1.0
102
RTVSPost2010PropOp39
 70
     1
102
RTVSPost2010Prop40
 90
        0
102
RTVSPost2010PropOp40
 70
     1
102
RTVSPost2010Prop41ColorIndex
 90
       18
102
RTVSPost2010Prop41ColorRGB
 90
        0
102
RTVSPost2010PropOp41
 70
     1
102
RTVSPost2010Prop42
 90
       50
102
RTVSPost2010PropOp42
 70
     1
102
RTVSPost2010Prop43
 90
        3
102
RTVSPost2010PropOp43
 70
     1
102
RTVSPost2010Prop44ColorIndex
 90
        5
102
RTVSPost2010Prop44ColorRGB
 90
      255
102
RTVSPost2010PropOp44
 70
     1
102
RTVSPost2010Prop45
280
     0
102
RTVSPost2010PropOp45
 70
     1
102
RTVSPost2010Prop46
 90
       50
102
RTVSPost2010PropOp46
 70
     1
102
RTVSPost2010Prop47
 90
       50
102
RTVSPost2010PropOp47
 70
     1
102
RTVSPost2010Prop48
 90
       50
102
RTVSPost2010PropOp48
 70
     1
102
RTVSPost2010Prop49
280
     0
102
RTVSPost2010PropOp49
 70
     1
102
RTVSPost2010Prop50
 90
       50
102
RTVSPost2010PropOp50
 70
     1
102
RTVSPost2010Prop51ColorIndex
 90
      256
102
RTVSPost2010Prop51ColorRGB
 90
-16777216
102
RTVSPost2010PropOp51
 70
     0
102
RTVSPost2010Prop52
140
1.0
102
RTVSPost2010PropOp52
 70
     0
102
RTVSPost2010Prop53
 90
        2
102
RTVSPost2010PropOp53
 70
     1
102
RTVSPost2010Prop54
  1
strokes_ogs.tif
102
RTVSPost2010PropOp54
 70
     1
102
RTVSPost2010Prop55
280
     0
102
RTVSPost2010PropOp55
 70
     1
102
RTVSPost2010Prop56
140
1.0
102
RTVSPost2010PropOp56
 70
     1
102
RTVSPost2010Prop57
140
1.0
102
RTVSPost2010PropOp57
 70
     1
102
RTVSPropertyOp0
 70
     1
102
RTVSPropertyOp1
 70
     1
102
RTVSPropertyOp2
 70
     1
102
RTVSPropertyOp3
 70
     1
102
RTVSPropertyOp4
 70
     1
102
RTVSPropertyOp5
 70
     1
102
RTVSPropertyOp6
 70
     1
102
RTVSPropertyOp7
 70
     1
102
RTVSPropertyOp8
 70
     1
102
RTVSPropertyOp9
 70
     1
102
RTVSPropertyOp10
 70
     1
102
RTVSPropertyOp11
 70
     1
102
RTVSPropertyOp12
 70
     1
102
RTVSPropertyOp13
 70
     1
102
RTVSPropertyOp14
 70
     1
102
RTVSPropertyOp15
 70
     1
102
RTVSPropertyOp16
 70
     1
102
RTVSPropertyOp17
 70
     1
102
RTVSPropertyOp18
 70
     1
102
RTVSPropertyOp19
 70
     1
102
RTVSPropertyOp20
 70
     1
102
RTVSPropertyOp21
 70
     1
102
RTVSPropertyOp22
 70
     1
102
RTVSPropertyOp23
 70
     1
102
RTVSPropertyOp24
 70
     1
102
RTVSPropertyOp25
 70
     1
102
RTVSPropertyOp26
 70
     1
102
RTVSPropertyOp27
 70
     1
102
RTVSPropertyOp28
 70
     1
102
RTVSPropertyOp29
 70
     1
102
RTVSPropertyOp30
 70
     1
102
RTVSPropertyOp31
 70
     1
102
RTVSPropertyOp32
 70
     1
102
RTVSPropertyOp33
 70
     1
102
RTVSPropertyOp34
 70
     1
102
RTVSPropertyOp35
 70
     1
102
RTVSPropertyOp36
 70
     1
102
RTVSPropertyOp37
 70
     1
102
RTVSPropertyOp38
 70
     1
102
RTVSPropertyOp39
 70
     1
102
RTVSPropertyOp40
 70
     1
102
RTVSPropertyOp41
 70
     1
102
RTVSPropertyOp42
 70
     1
102
RTVSPropertyOp43
 70
     1
102
RTVSPropertyOp44
 70
     1
102
RTVSPropertyOp45
 70
     1
102
RTVSPropertyOp46
 70
     1
102
RTVSPropertyOp47
 70
     1
102
RTVSPropertyOp48
 70
     1
102
RTVSPropertyOp49
 70
     1
102
RTVSPropertyOp50
 70
     1
102
RTVSPropertyOp51
 70
     0
102
RTVSPropertyOp52
 70
     0
102
RTVSPropertyOp53
 70
     1
102
RTVSPropertyOp54
 70
     1
102
RTVSPropertyOp55
 70
     1
102
RTVSPropertyOp56
 70
     1
102
RTVSPropertyOp57
 70
     1
102
RTVSPropertyOp58
 70
     1
102
RTVSPropertyOp59
 70
     1
102
RTVSPropertyOp60
 70
     1
102
RTVSPropertyOp61
 70
     1
102
RTVSPropertyOp62
 70
     1
  0
XRECORD
  5
C380
102
{ACAD_REACTORS
330
C37F
102
}
330
C37F
100
AcDbXrecord
280
     1
102
RTVSPost2010Prop28
280
     0
102
RTVSPost2010PropOp28
 70
     1
102
RTVSPost2010Prop29
280
     1
102
RTVSPost2010PropOp29
 70
     1
102
RTVSPost2010Prop30
280
     1
102
RTVSPost2010PropOp30
 70
     1
102
RTVSPost2010Prop31
280
     0
102
RTVSPost2010PropOp31
 70
     1
102
RTVSPost2010Prop32
280
     0
102
RTVSPost2010PropOp32
 70
     1
102
RTVSPost2010Prop33
280
     0
102
RTVSPost2010PropOp33
 70
     1
102
RTVSPost2010Prop34
280
     0
102
RTVSPost2010PropOp34
 70
     1
102
RTVSPost2010Prop35
280
     0
102
RTVSPost2010PropOp35
 70
     1
102
RTVSPost2010Prop36
280
     0
102
RTVSPost2010PropOp36
 70
     1
102
RTVSPost2010Prop37
 90
       50
102
RTVSPost2010PropOp37
 70
     1
102
RTVSPost2010Prop38
140
0.0
102
RTVSPost2010PropOp38
 70
     1
102
RTVSPost2010Prop39
140
1.0
102
RTVSPost2010PropOp39
 70
     1
102
RTVSPost2010Prop40
 90
        0
102
RTVSPost2010PropOp40
 70
     1
102
RTVSPost2010Prop41ColorIndex
 90
       18
102
RTVSPost2010Prop41ColorRGB
 90
        0
102
RTVSPost2010PropOp41
 70
     1
102
RTVSPost2010Prop42
 90
       50
102
RTVSPost2010PropOp42
 70
     1
102
RTVSPost2010Prop43
 90
        3
102
RTVSPost2010PropOp43
 70
     1
102
RTVSPost2010Prop44ColorIndex
 90
        5
102
RTVSPost2010Prop44ColorRGB
 90
      255
102
RTVSPost2010PropOp44
 70
     1
102
RTVSPost2010Prop45
280
     0
102
RTVSPost2010PropOp45
 70
     1
102
RTVSPost2010Prop46
 90
       50
102
RTVSPost2010PropOp46
 70
     1
102
RTVSPost2010Prop47
 90
       50
102
RTVSPost2010PropOp47
 70
     1
102
RTVSPost2010Prop48
 90
       50
102
RTVSPost2010PropOp48
 70
     1
102
RTVSPost2010Prop49
280
     0
102
RTVSPost2010PropOp49
 70
     1
102
RTVSPost2010Prop50
 90
       50
102
RTVSPost2010PropOp50
 70
     1
102
RTVSPost2010Prop51ColorIndex
 90
      256
102
RTVSPost2010Prop51ColorRGB
 90
-16777216
102
RTVSPost2010PropOp51
 70
     0
102
RTVSPost2010Prop52
140
1.0
102
RTVSPost2010PropOp52
 70
     0
102
RTVSPost2010Prop53
 90
        2
102
RTVSPost2010PropOp53
 70
     1
102
RTVSPost2010Prop54
  1
strokes_ogs.tif
102
RTVSPost2010PropOp54
 70
     1
102
RTVSPost2010Prop55
280
     0
102
RTVSPost2010PropOp55
 70
     1
102
RTVSPost2010Prop56
140
1.0
102
RTVSPost2010PropOp56
 70
     1
102
RTVSPost2010Prop57
140
1.0
102
RTVSPost2010PropOp57
 70
     1
102
RTVSPropertyOp0
 70
     1
102
RTVSPropertyOp1
 70
     1
102
RTVSPropertyOp2
 70
     1
102
RTVSPropertyOp3
 70
     1
102
RTVSPropertyOp4
 70
     1
102
RTVSPropertyOp5
 70
     1
102
RTVSPropertyOp6
 70
     1
102
RTVSPropertyOp7
 70
     1
102
RTVSPropertyOp8
 70
     1
102
RTVSPropertyOp9
 70
     1
102
RTVSPropertyOp10
 70
     1
102
RTVSPropertyOp11
 70
     1
102
RTVSPropertyOp12
 70
     1
102
RTVSPropertyOp13
 70
     1
102
RTVSPropertyOp14
 70
     1
102
RTVSPropertyOp15
 70
     1
102
RTVSPropertyOp16
 70
     1
102
RTVSPropertyOp17
 70
     1
102
RTVSPropertyOp18
 70
     1
102
RTVSPropertyOp19
 70
     1
102
RTVSPropertyOp20
 70
     1
102
RTVSPropertyOp21
 70
     1
102
RTVSPropertyOp22
 70
     1
102
RTVSPropertyOp23
 70
     1
102
RTVSPropertyOp24
 70
     1
102
RTVSPropertyOp25
 70
     1
102
RTVSPropertyOp26
 70
     1
102
RTVSPropertyOp27
 70
     1
102
RTVSPropertyOp28
 70
     1
102
RTVSPropertyOp29
 70
     1
102
RTVSPropertyOp30
 70
     1
102
RTVSPropertyOp31
 70
     1
102
RTVSPropertyOp32
 70
     1
102
RTVSPropertyOp33
 70
     1
102
RTVSPropertyOp34
 70
     1
102
RTVSPropertyOp35
 70
     1
102
RTVSPropertyOp36
 70
     1
102
RTVSPropertyOp37
 70
     1
102
RTVSPropertyOp38
 70
     1
102
RTVSPropertyOp39
 70
     1
102
RTVSPropertyOp40
 70
     1
102
RTVSPropertyOp41
 70
     1
102
RTVSPropertyOp42
 70
     1
102
RTVSPropertyOp43
 70
     1
102
RTVSPropertyOp44
 70
     1
102
RTVSPropertyOp45
 70
     1
102
RTVSPropertyOp46
 70
     1
102
RTVSPropertyOp47
 70
     1
102
RTVSPropertyOp48
 70
     1
102
RTVSPropertyOp49
 70
     1
102
RTVSPropertyOp50
 70
     1
102
RTVSPropertyOp51
 70
     0
102
RTVSPropertyOp52
 70
     0
102
RTVSPropertyOp53
 70
     1
102
RTVSPropertyOp54
 70
     1
102
RTVSPropertyOp55
 70
     1
102
RTVSPropertyOp56
 70
     1
102
RTVSPropertyOp57
 70
     1
102
RTVSPropertyOp58
 70
     1
102
RTVSPropertyOp59
 70
     1
102
RTVSPropertyOp60
 70
     1
102
RTVSPropertyOp61
 70
     1
102
RTVSPropertyOp62
 70
     1
  0
XRECORD
  5
C382
102
{ACAD_REACTORS
330
C381
102
}
330
C381
100
AcDbXrecord
280
     1
102
RTVSPost2010Prop28
280
     0
102
RTVSPost2010PropOp28
 70
     1
102
RTVSPost2010Prop29
280
     1
102
RTVSPost2010PropOp29
 70
     1
102
RTVSPost2010Prop30
280
     1
102
RTVSPost2010PropOp30
 70
     1
102
RTVSPost2010Prop31
280
     0
102
RTVSPost2010PropOp31
 70
     1
102
RTVSPost2010Prop32
280
     0
102
RTVSPost2010PropOp32
 70
     1
102
RTVSPost2010Prop33
280
     0
102
RTVSPost2010PropOp33
 70
     1
102
RTVSPost2010Prop34
280
     0
102
RTVSPost2010PropOp34
 70
     1
102
RTVSPost2010Prop35
280
     0
102
RTVSPost2010PropOp35
 70
     1
102
RTVSPost2010Prop36
280
     0
102
RTVSPost2010PropOp36
 70
     1
102
RTVSPost2010Prop37
 90
       50
102
RTVSPost2010PropOp37
 70
     1
102
RTVSPost2010Prop38
140
0.0
102
RTVSPost2010PropOp38
 70
     1
102
RTVSPost2010Prop39
140
1.0
102
RTVSPost2010PropOp39
 70
     1
102
RTVSPost2010Prop40
 90
        0
102
RTVSPost2010PropOp40
 70
     1
102
RTVSPost2010Prop41ColorIndex
 90
       18
102
RTVSPost2010Prop41ColorRGB
 90
        0
102
RTVSPost2010PropOp41
 70
     1
102
RTVSPost2010Prop42
 90
       50
102
RTVSPost2010PropOp42
 70
     1
102
RTVSPost2010Prop43
 90
        3
102
RTVSPost2010PropOp43
 70
     1
102
RTVSPost2010Prop44ColorIndex
 90
        5
102
RTVSPost2010Prop44ColorRGB
 90
      255
102
RTVSPost2010PropOp44
 70
     1
102
RTVSPost2010Prop45
280
     0
102
RTVSPost2010PropOp45
 70
     1
102
RTVSPost2010Prop46
 90
       50
102
RTVSPost2010PropOp46
 70
     1
102
RTVSPost2010Prop47
 90
       50
102
RTVSPost2010PropOp47
 70
     1
102
RTVSPost2010Prop48
 90
       50
102
RTVSPost2010PropOp48
 70
     1
102
RTVSPost2010Prop49
280
     0
102
RTVSPost2010PropOp49
 70
     1
102
RTVSPost2010Prop50
 90
       50
102
RTVSPost2010PropOp50
 70
     1
102
RTVSPost2010Prop51ColorIndex
 90
      256
102
RTVSPost2010Prop51ColorRGB
 90
-16777216
102
RTVSPost2010PropOp51
 70
     0
102
RTVSPost2010Prop52
140
1.0
102
RTVSPost2010PropOp52
 70
     0
102
RTVSPost2010Prop53
 90
        2
102
RTVSPost2010PropOp53
 70
     1
102
RTVSPost2010Prop54
  1
strokes_ogs.tif
102
RTVSPost2010PropOp54
 70
     1
102
RTVSPost2010Prop55
280
     0
102
RTVSPost2010PropOp55
 70
     1
102
RTVSPost2010Prop56
140
1.0
102
RTVSPost2010PropOp56
 70
     1
102
RTVSPost2010Prop57
140
1.0
102
RTVSPost2010PropOp57
 70
     1
102
RTVSPropertyOp0
 70
     1
102
RTVSPropertyOp1
 70
     1
102
RTVSPropertyOp2
 70
     1
102
RTVSPropertyOp3
 70
     1
102
RTVSPropertyOp4
 70
     1
102
RTVSPropertyOp5
 70
     1
102
RTVSPropertyOp6
 70
     1
102
RTVSPropertyOp7
 70
     1
102
RTVSPropertyOp8
 70
     1
102
RTVSPropertyOp9
 70
     1
102
RTVSPropertyOp10
 70
     1
102
RTVSPropertyOp11
 70
     1
102
RTVSPropertyOp12
 70
     1
102
RTVSPropertyOp13
 70
     1
102
RTVSPropertyOp14
 70
     1
102
RTVSPropertyOp15
 70
     1
102
RTVSPropertyOp16
 70
     1
102
RTVSPropertyOp17
 70
     1
102
RTVSPropertyOp18
 70
     1
102
RTVSPropertyOp19
 70
     1
102
RTVSPropertyOp20
 70
     1
102
RTVSPropertyOp21
 70
     1
102
RTVSPropertyOp22
 70
     1
102
RTVSPropertyOp23
 70
     1
102
RTVSPropertyOp24
 70
     1
102
RTVSPropertyOp25
 70
     1
102
RTVSPropertyOp26
 70
     1
102
RTVSPropertyOp27
 70
     1
102
RTVSPropertyOp28
 70
     1
102
RTVSPropertyOp29
 70
     1
102
RTVSPropertyOp30
 70
     1
102
RTVSPropertyOp31
 70
     1
102
RTVSPropertyOp32
 70
     1
102
RTVSPropertyOp33
 70
     1
102
RTVSPropertyOp34
 70
     1
102
RTVSPropertyOp35
 70
     1
102
RTVSPropertyOp36
 70
     1
102
RTVSPropertyOp37
 70
     1
102
RTVSPropertyOp38
 70
     1
102
RTVSPropertyOp39
 70
     1
102
RTVSPropertyOp40
 70
     1
102
RTVSPropertyOp41
 70
     1
102
RTVSPropertyOp42
 70
     1
102
RTVSPropertyOp43
 70
     1
102
RTVSPropertyOp44
 70
     1
102
RTVSPropertyOp45
 70
     1
102
RTVSPropertyOp46
 70
     1
102
RTVSPropertyOp47
 70
     1
102
RTVSPropertyOp48
 70
     1
102
RTVSPropertyOp49
 70
     1
102
RTVSPropertyOp50
 70
     1
102
RTVSPropertyOp51
 70
     0
102
RTVSPropertyOp52
 70
     0
102
RTVSPropertyOp53
 70
     1
102
RTVSPropertyOp54
 70
     1
102
RTVSPropertyOp55
 70
     1
102
RTVSPropertyOp56
 70
     1
102
RTVSPropertyOp57
 70
     1
102
RTVSPropertyOp58
 70
     1
102
RTVSPropertyOp59
 70
     1
102
RTVSPropertyOp60
 70
     1
102
RTVSPropertyOp61
 70
     1
102
RTVSPropertyOp62
 70
     1
  0
XRECORD
  5
C39E
102
{ACAD_REACTORS
330
C39D
102
}
330
C39D
100
AcDbXrecord
280
     1
102
RTVSPost2010Prop28
280
     0
102
RTVSPost2010PropOp28
 70
     1
102
RTVSPost2010Prop29
280
     1
102
RTVSPost2010PropOp29
 70
     1
102
RTVSPost2010Prop30
280
     1
102
RTVSPost2010PropOp30
 70
     1
102
RTVSPost2010Prop31
280
     0
102
RTVSPost2010PropOp31
 70
     1
102
RTVSPost2010Prop32
280
     0
102
RTVSPost2010PropOp32
 70
     1
102
RTVSPost2010Prop33
280
     0
102
RTVSPost2010PropOp33
 70
     1
102
RTVSPost2010Prop34
280
     0
102
RTVSPost2010PropOp34
 70
     1
102
RTVSPost2010Prop35
280
     0
102
RTVSPost2010PropOp35
 70
     1
102
RTVSPost2010Prop36
280
     0
102
RTVSPost2010PropOp36
 70
     1
102
RTVSPost2010Prop37
 90
       50
102
RTVSPost2010PropOp37
 70
     1
102
RTVSPost2010Prop38
140
0.0
102
RTVSPost2010PropOp38
 70
     1
102
RTVSPost2010Prop39
140
1.0
102
RTVSPost2010PropOp39
 70
     1
102
RTVSPost2010Prop40
 90
        0
102
RTVSPost2010PropOp40
 70
     1
102
RTVSPost2010Prop41ColorIndex
 90
       18
102
RTVSPost2010Prop41ColorRGB
 90
        0
102
RTVSPost2010PropOp41
 70
     1
102
RTVSPost2010Prop42
 90
       50
102
RTVSPost2010PropOp42
 70
     1
102
RTVSPost2010Prop43
 90
        3
102
RTVSPost2010PropOp43
 70
     1
102
RTVSPost2010Prop44ColorIndex
 90
        5
102
RTVSPost2010Prop44ColorRGB
 90
      255
102
RTVSPost2010PropOp44
 70
     1
102
RTVSPost2010Prop45
280
     0
102
RTVSPost2010PropOp45
 70
     1
102
RTVSPost2010Prop46
 90
       50
102
RTVSPost2010PropOp46
 70
     1
102
RTVSPost2010Prop47
 90
       50
102
RTVSPost2010PropOp47
 70
     1
102
RTVSPost2010Prop48
 90
       50
102
RTVSPost2010PropOp48
 70
     1
102
RTVSPost2010Prop49
280
     0
102
RTVSPost2010PropOp49
 70
     1
102
RTVSPost2010Prop50
 90
       50
102
RTVSPost2010PropOp50
 70
     1
102
RTVSPost2010Prop51ColorIndex
 90
      256
102
RTVSPost2010Prop51ColorRGB
 90
-16777216
102
RTVSPost2010PropOp51
 70
     0
102
RTVSPost2010Prop52
140
1.0
102
RTVSPost2010PropOp52
 70
     0
102
RTVSPost2010Prop53
 90
        2
102
RTVSPost2010PropOp53
 70
     1
102
RTVSPost2010Prop54
  1
strokes_ogs.tif
102
RTVSPost2010PropOp54
 70
     1
102
RTVSPost2010Prop55
280
     0
102
RTVSPost2010PropOp55
 70
     1
102
RTVSPost2010Prop56
140
1.0
102
RTVSPost2010PropOp56
 70
     1
102
RTVSPost2010Prop57
140
1.0
102
RTVSPost2010PropOp57
 70
     1
102
RTVSPropertyOp0
 70
     1
102
RTVSPropertyOp1
 70
     1
102
RTVSPropertyOp2
 70
     1
102
RTVSPropertyOp3
 70
     1
102
RTVSPropertyOp4
 70
     1
102
RTVSPropertyOp5
 70
     1
102
RTVSPropertyOp6
 70
     1
102
RTVSPropertyOp7
 70
     1
102
RTVSPropertyOp8
 70
     1
102
RTVSPropertyOp9
 70
     1
102
RTVSPropertyOp10
 70
     1
102
RTVSPropertyOp11
 70
     1
102
RTVSPropertyOp12
 70
     1
102
RTVSPropertyOp13
 70
     1
102
RTVSPropertyOp14
 70
     1
102
RTVSPropertyOp15
 70
     1
102
RTVSPropertyOp16
 70
     1
102
RTVSPropertyOp17
 70
     1
102
RTVSPropertyOp18
 70
     1
102
RTVSPropertyOp19
 70
     1
102
RTVSPropertyOp20
 70
     1
102
RTVSPropertyOp21
 70
     1
102
RTVSPropertyOp22
 70
     1
102
RTVSPropertyOp23
 70
     1
102
RTVSPropertyOp24
 70
     1
102
RTVSPropertyOp25
 70
     1
102
RTVSPropertyOp26
 70
     1
102
RTVSPropertyOp27
 70
     1
102
RTVSPropertyOp28
 70
     1
102
RTVSPropertyOp29
 70
     1
102
RTVSPropertyOp30
 70
     1
102
RTVSPropertyOp31
 70
     1
102
RTVSPropertyOp32
 70
     1
102
RTVSPropertyOp33
 70
     1
102
RTVSPropertyOp34
 70
     1
102
RTVSPropertyOp35
 70
     1
102
RTVSPropertyOp36
 70
     1
102
RTVSPropertyOp37
 70
     1
102
RTVSPropertyOp38
 70
     1
102
RTVSPropertyOp39
 70
     1
102
RTVSPropertyOp40
 70
     1
102
RTVSPropertyOp41
 70
     1
102
RTVSPropertyOp42
 70
     1
102
RTVSPropertyOp43
 70
     1
102
RTVSPropertyOp44
 70
     1
102
RTVSPropertyOp45
 70
     1
102
RTVSPropertyOp46
 70
     1
102
RTVSPropertyOp47
 70
     1
102
RTVSPropertyOp48
 70
     1
102
RTVSPropertyOp49
 70
     1
102
RTVSPropertyOp50
 70
     1
102
RTVSPropertyOp51
 70
     0
102
RTVSPropertyOp52
 70
     0
102
RTVSPropertyOp53
 70
     1
102
RTVSPropertyOp54
 70
     1
102
RTVSPropertyOp55
 70
     1
102
RTVSPropertyOp56
 70
     1
102
RTVSPropertyOp57
 70
     1
102
RTVSPropertyOp58
 70
     1
102
RTVSPropertyOp59
 70
     1
102
RTVSPropertyOp60
 70
     1
102
RTVSPropertyOp61
 70
     1
102
RTVSPropertyOp62
 70
     1
  0
XRECORD
  5
C3AA
102
{ACAD_REACTORS
330
C3A9
102
}
330
C3A9
100
AcDbXrecord
280
     1
102
RTVSPost2010Prop28
280
     0
102
RTVSPost2010PropOp28
 70
     0
102
RTVSPost2010Prop29
280
     1
102
RTVSPost2010PropOp29
 70
     0
102
RTVSPost2010Prop30
280
     1
102
RTVSPost2010PropOp30
 70
     0
102
RTVSPost2010Prop31
280
     0
102
RTVSPost2010PropOp31
 70
     0
102
RTVSPost2010Prop32
280
     0
102
RTVSPost2010PropOp32
 70
     0
102
RTVSPost2010Prop33
280
     0
102
RTVSPost2010PropOp33
 70
     0
102
RTVSPost2010Prop34
280
     0
102
RTVSPost2010PropOp34
 70
     0
102
RTVSPost2010Prop35
280
     0
102
RTVSPost2010PropOp35
 70
     0
102
RTVSPost2010Prop36
280
     0
102
RTVSPost2010PropOp36
 70
     0
102
RTVSPost2010Prop37
 90
       50
102
RTVSPost2010PropOp37
 70
     0
102
RTVSPost2010Prop38
140
0.0
102
RTVSPost2010PropOp38
 70
     0
102
RTVSPost2010Prop39
140
1.0
102
RTVSPost2010PropOp39
 70
     0
102
RTVSPost2010Prop40
 90
        0
102
RTVSPost2010PropOp40
 70
     0
102
RTVSPost2010Prop41ColorIndex
 90
       18
102
RTVSPost2010Prop41ColorRGB
 90
        0
102
RTVSPost2010PropOp41
 70
     0
102
RTVSPost2010Prop42
 90
       50
102
RTVSPost2010PropOp42
 70
     0
102
RTVSPost2010Prop43
 90
        3
102
RTVSPost2010PropOp43
 70
     0
102
RTVSPost2010Prop44ColorIndex
 90
        5
102
RTVSPost2010Prop44ColorRGB
 90
      255
102
RTVSPost2010PropOp44
 70
     0
102
RTVSPost2010Prop45
280
     0
102
RTVSPost2010PropOp45
 70
     0
102
RTVSPost2010Prop46
 90
       50
102
RTVSPost2010PropOp46
 70
     0
102
RTVSPost2010Prop47
 90
       50
102
RTVSPost2010PropOp47
 70
     0
102
RTVSPost2010Prop48
 90
       50
102
RTVSPost2010PropOp48
 70
     0
102
RTVSPost2010Prop49
280
     0
102
RTVSPost2010PropOp49
 70
     0
102
RTVSPost2010Prop50
 90
       50
102
RTVSPost2010PropOp50
 70
     0
102
RTVSPost2010Prop51ColorIndex
 90
      256
102
RTVSPost2010Prop51ColorRGB
 90
-16777216
102
RTVSPost2010PropOp51
 70
     0
102
RTVSPost2010Prop52
140
1.0
102
RTVSPost2010PropOp52
 70
     0
102
RTVSPost2010Prop53
 90
        2
102
RTVSPost2010PropOp53
 70
     0
102
RTVSPost2010Prop54
  1
strokes_ogs.tif
102
RTVSPost2010PropOp54
 70
     0
102
RTVSPost2010Prop55
280
     0
102
RTVSPost2010PropOp55
 70
     0
102
RTVSPost2010Prop56
140
1.0
102
RTVSPost2010PropOp56
 70
     0
102
RTVSPost2010Prop57
140
1.0
102
RTVSPost2010PropOp57
 70
     0
102
RTVSPropertyOp0
 70
     0
102
RTVSPropertyOp1
 70
     0
102
RTVSPropertyOp2
 70
     0
102
RTVSPropertyOp3
 70
     0
102
RTVSPropertyOp4
 70
     0
102
RTVSPropertyOp5
 70
     0
102
RTVSPropertyOp6
 70
     0
102
RTVSPropertyOp7
 70
     0
102
RTVSPropertyOp8
 70
     0
102
RTVSPropertyOp9
 70
     0
102
RTVSPropertyOp10
 70
     0
102
RTVSPropertyOp11
 70
     0
102
RTVSPropertyOp12
 70
     0
102
RTVSPropertyOp13
 70
     0
102
RTVSPropertyOp14
 70
     2
102
RTVSPropertyOp15
 70
     0
102
RTVSPropertyOp16
 70
     0
102
RTVSPropertyOp17
 70
     0
102
RTVSPropertyOp18
 70
     0
102
RTVSPropertyOp19
 70
     0
102
RTVSPropertyOp20
 70
     0
102
RTVSPropertyOp21
 70
     0
102
RTVSPropertyOp22
 70
     0
102
RTVSPropertyOp23
 70
     0
102
RTVSPropertyOp24
 70
     0
102
RTVSPropertyOp25
 70
     0
102
RTVSPropertyOp26
 70
     0
102
RTVSPropertyOp27
 70
     0
102
RTVSPropertyOp28
 70
     0
102
RTVSPropertyOp29
 70
     0
102
RTVSPropertyOp30
 70
     0
102
RTVSPropertyOp31
 70
     0
102
RTVSPropertyOp32
 70
     0
102
RTVSPropertyOp33
 70
     0
102
RTVSPropertyOp34
 70
     0
102
RTVSPropertyOp35
 70
     0
102
RTVSPropertyOp36
 70
     0
102
RTVSPropertyOp37
 70
     0
102
RTVSPropertyOp38
 70
     0
102
RTVSPropertyOp39
 70
     0
102
RTVSPropertyOp40
 70
     0
102
RTVSPropertyOp41
 70
     0
102
RTVSPropertyOp42
 70
     0
102
RTVSPropertyOp43
 70
     0
102
RTVSPropertyOp44
 70
     0
102
RTVSPropertyOp45
 70
     0
102
RTVSPropertyOp46
 70
     0
102
RTVSPropertyOp47
 70
     0
102
RTVSPropertyOp48
 70
     0
102
RTVSPropertyOp49
 70
     0
102
RTVSPropertyOp50
 70
     0
102
RTVSPropertyOp51
 70
     0
102
RTVSPropertyOp52
 70
     0
102
RTVSPropertyOp53
 70
     0
102
RTVSPropertyOp54
 70
     0
102
RTVSPropertyOp55
 70
     0
102
RTVSPropertyOp56
 70
     0
102
RTVSPropertyOp57
 70
     0
102
RTVSPropertyOp58
 70
     1
102
RTVSPropertyOp59
 70
     1
102
RTVSPropertyOp60
 70
     1
102
RTVSPropertyOp61
 70
     1
102
RTVSPropertyOp62
 70
     1
  0
XRECORD
  5
C396
102
{ACAD_REACTORS
330
C395
102
}
330
C395
100
AcDbXrecord
280
     1
102
RTVSPost2010Prop28
280
     0
102
RTVSPost2010PropOp28
 70
     1
102
RTVSPost2010Prop29
280
     1
102
RTVSPost2010PropOp29
 70
     1
102
RTVSPost2010Prop30
280
     1
102
RTVSPost2010PropOp30
 70
     1
102
RTVSPost2010Prop31
280
     0
102
RTVSPost2010PropOp31
 70
     1
102
RTVSPost2010Prop32
280
     0
102
RTVSPost2010PropOp32
 70
     1
102
RTVSPost2010Prop33
280
     0
102
RTVSPost2010PropOp33
 70
     1
102
RTVSPost2010Prop34
280
     0
102
RTVSPost2010PropOp34
 70
     1
102
RTVSPost2010Prop35
280
     0
102
RTVSPost2010PropOp35
 70
     1
102
RTVSPost2010Prop36
280
     0
102
RTVSPost2010PropOp36
 70
     1
102
RTVSPost2010Prop37
 90
       50
102
RTVSPost2010PropOp37
 70
     1
102
RTVSPost2010Prop38
140
0.0
102
RTVSPost2010PropOp38
 70
     1
102
RTVSPost2010Prop39
140
1.0
102
RTVSPost2010PropOp39
 70
     1
102
RTVSPost2010Prop40
 90
        0
102
RTVSPost2010PropOp40
 70
     1
102
RTVSPost2010Prop41ColorIndex
 90
       18
102
RTVSPost2010Prop41ColorRGB
 90
        0
102
RTVSPost2010PropOp41
 70
     1
102
RTVSPost2010Prop42
 90
       50
102
RTVSPost2010PropOp42
 70
     1
102
RTVSPost2010Prop43
 90
        3
102
RTVSPost2010PropOp43
 70
     1
102
RTVSPost2010Prop44ColorIndex
 90
        5
102
RTVSPost2010Prop44ColorRGB
 90
      255
102
RTVSPost2010PropOp44
 70
     1
102
RTVSPost2010Prop45
280
     0
102
RTVSPost2010PropOp45
 70
     1
102
RTVSPost2010Prop46
 90
       50
102
RTVSPost2010PropOp46
 70
     1
102
RTVSPost2010Prop47
 90
       50
102
RTVSPost2010PropOp47
 70
     1
102
RTVSPost2010Prop48
 90
       50
102
RTVSPost2010PropOp48
 70
     1
102
RTVSPost2010Prop49
280
     0
102
RTVSPost2010PropOp49
 70
     1
102
RTVSPost2010Prop50
 90
       50
102
RTVSPost2010PropOp50
 70
     1
102
RTVSPost2010Prop51ColorIndex
 90
      256
102
RTVSPost2010Prop51ColorRGB
 90
-16777216
102
RTVSPost2010PropOp51
 70
     0
102
RTVSPost2010Prop52
140
1.0
102
RTVSPost2010PropOp52
 70
     0
102
RTVSPost2010Prop53
 90
        2
102
RTVSPost2010PropOp53
 70
     1
102
RTVSPost2010Prop54
  1
strokes_ogs.tif
102
RTVSPost2010PropOp54
 70
     1
102
RTVSPost2010Prop55
280
     0
102
RTVSPost2010PropOp55
 70
     1
102
RTVSPost2010Prop56
140
1.0
102
RTVSPost2010PropOp56
 70
     1
102
RTVSPost2010Prop57
140
1.0
102
RTVSPost2010PropOp57
 70
     1
102
RTVSPropertyOp0
 70
     1
102
RTVSPropertyOp1
 70
     1
102
RTVSPropertyOp2
 70
     1
102
RTVSPropertyOp3
 70
     1
102
RTVSPropertyOp4
 70
     1
102
RTVSPropertyOp5
 70
     1
102
RTVSPropertyOp6
 70
     1
102
RTVSPropertyOp7
 70
     1
102
RTVSPropertyOp8
 70
     1
102
RTVSPropertyOp9
 70
     1
102
RTVSPropertyOp10
 70
     1
102
RTVSPropertyOp11
 70
     1
102
RTVSPropertyOp12
 70
     1
102
RTVSPropertyOp13
 70
     1
102
RTVSPropertyOp14
 70
     1
102
RTVSPropertyOp15
 70
     1
102
RTVSPropertyOp16
 70
     1
102
RTVSPropertyOp17
 70
     1
102
RTVSPropertyOp18
 70
     1
102
RTVSPropertyOp19
 70
     1
102
RTVSPropertyOp20
 70
     1
102
RTVSPropertyOp21
 70
     1
102
RTVSPropertyOp22
 70
     1
102
RTVSPropertyOp23
 70
     1
102
RTVSPropertyOp24
 70
     1
102
RTVSPropertyOp25
 70
     1
102
RTVSPropertyOp26
 70
     1
102
RTVSPropertyOp27
 70
     1
102
RTVSPropertyOp28
 70
     1
102
RTVSPropertyOp29
 70
     1
102
RTVSPropertyOp30
 70
     1
102
RTVSPropertyOp31
 70
     1
102
RTVSPropertyOp32
 70
     1
102
RTVSPropertyOp33
 70
     1
102
RTVSPropertyOp34
 70
     1
102
RTVSPropertyOp35
 70
     1
102
RTVSPropertyOp36
 70
     1
102
RTVSPropertyOp37
 70
     1
102
RTVSPropertyOp38
 70
     1
102
RTVSPropertyOp39
 70
     1
102
RTVSPropertyOp40
 70
     1
102
RTVSPropertyOp41
 70
     1
102
RTVSPropertyOp42
 70
     1
102
RTVSPropertyOp43
 70
     1
102
RTVSPropertyOp44
 70
     1
102
RTVSPropertyOp45
 70
     1
102
RTVSPropertyOp46
 70
     1
102
RTVSPropertyOp47
 70
     1
102
RTVSPropertyOp48
 70
     1
102
RTVSPropertyOp49
 70
     1
102
RTVSPropertyOp50
 70
     1
102
RTVSPropertyOp51
 70
     0
102
RTVSPropertyOp52
 70
     0
102
RTVSPropertyOp53
 70
     1
102
RTVSPropertyOp54
 70
     1
102
RTVSPropertyOp55
 70
     1
102
RTVSPropertyOp56
 70
     1
102
RTVSPropertyOp57
 70
     1
102
RTVSPropertyOp58
 70
     1
102
RTVSPropertyOp59
 70
     1
102
RTVSPropertyOp60
 70
     1
102
RTVSPropertyOp61
 70
     1
102
RTVSPropertyOp62
 70
     1
  0
XRECORD
  5
C3AC
102
{ACAD_REACTORS
330
C3AB
102
}
330
C3AB
100
AcDbXrecord
280
     1
102
RTVSPost2010Prop28
280
     0
102
RTVSPost2010PropOp28
 70
     0
102
RTVSPost2010Prop29
280
     1
102
RTVSPost2010PropOp29
 70
     0
102
RTVSPost2010Prop30
280
     1
102
RTVSPost2010PropOp30
 70
     0
102
RTVSPost2010Prop31
280
     0
102
RTVSPost2010PropOp31
 70
     0
102
RTVSPost2010Prop32
280
     0
102
RTVSPost2010PropOp32
 70
     0
102
RTVSPost2010Prop33
280
     0
102
RTVSPost2010PropOp33
 70
     0
102
RTVSPost2010Prop34
280
     0
102
RTVSPost2010PropOp34
 70
     0
102
RTVSPost2010Prop35
280
     0
102
RTVSPost2010PropOp35
 70
     0
102
RTVSPost2010Prop36
280
     0
102
RTVSPost2010PropOp36
 70
     0
102
RTVSPost2010Prop37
 90
       50
102
RTVSPost2010PropOp37
 70
     0
102
RTVSPost2010Prop38
140
0.0
102
RTVSPost2010PropOp38
 70
     0
102
RTVSPost2010Prop39
140
1.0
102
RTVSPost2010PropOp39
 70
     0
102
RTVSPost2010Prop40
 90
        0
102
RTVSPost2010PropOp40
 70
     0
102
RTVSPost2010Prop41ColorIndex
 90
       18
102
RTVSPost2010Prop41ColorRGB
 90
        0
102
RTVSPost2010PropOp41
 70
     0
102
RTVSPost2010Prop42
 90
       50
102
RTVSPost2010PropOp42
 70
     0
102
RTVSPost2010Prop43
 90
        3
102
RTVSPost2010PropOp43
 70
     0
102
RTVSPost2010Prop44ColorIndex
 90
        5
102
RTVSPost2010Prop44ColorRGB
 90
      255
102
RTVSPost2010PropOp44
 70
     0
102
RTVSPost2010Prop45
280
     0
102
RTVSPost2010PropOp45
 70
     0
102
RTVSPost2010Prop46
 90
       50
102
RTVSPost2010PropOp46
 70
     0
102
RTVSPost2010Prop47
 90
       50
102
RTVSPost2010PropOp47
 70
     0
102
RTVSPost2010Prop48
 90
       50
102
RTVSPost2010PropOp48
 70
     0
102
RTVSPost2010Prop49
280
     0
102
RTVSPost2010PropOp49
 70
     0
102
RTVSPost2010Prop50
 90
       50
102
RTVSPost2010PropOp50
 70
     0
102
RTVSPost2010Prop51ColorIndex
 90
      256
102
RTVSPost2010Prop51ColorRGB
 90
-16777216
102
RTVSPost2010PropOp51
 70
     0
102
RTVSPost2010Prop52
140
1.0
102
RTVSPost2010PropOp52
 70
     0
102
RTVSPost2010Prop53
 90
        2
102
RTVSPost2010PropOp53
 70
     0
102
RTVSPost2010Prop54
  1
strokes_ogs.tif
102
RTVSPost2010PropOp54
 70
     0
102
RTVSPost2010Prop55
280
     0
102
RTVSPost2010PropOp55
 70
     0
102
RTVSPost2010Prop56
140
1.0
102
RTVSPost2010PropOp56
 70
     0
102
RTVSPost2010Prop57
140
1.0
102
RTVSPost2010PropOp57
 70
     0
102
RTVSPropertyOp0
 70
     0
102
RTVSPropertyOp1
 70
     0
102
RTVSPropertyOp2
 70
     0
102
RTVSPropertyOp3
 70
     0
102
RTVSPropertyOp4
 70
     0
102
RTVSPropertyOp5
 70
     0
102
RTVSPropertyOp6
 70
     0
102
RTVSPropertyOp7
 70
     0
102
RTVSPropertyOp8
 70
     0
102
RTVSPropertyOp9
 70
     0
102
RTVSPropertyOp10
 70
     0
102
RTVSPropertyOp11
 70
     0
102
RTVSPropertyOp12
 70
     0
102
RTVSPropertyOp13
 70
     0
102
RTVSPropertyOp14
 70
     2
102
RTVSPropertyOp15
 70
     0
102
RTVSPropertyOp16
 70
     0
102
RTVSPropertyOp17
 70
     0
102
RTVSPropertyOp18
 70
     0
102
RTVSPropertyOp19
 70
     0
102
RTVSPropertyOp20
 70
     0
102
RTVSPropertyOp21
 70
     0
102
RTVSPropertyOp22
 70
     0
102
RTVSPropertyOp23
 70
     0
102
RTVSPropertyOp24
 70
     0
102
RTVSPropertyOp25
 70
     0
102
RTVSPropertyOp26
 70
     0
102
RTVSPropertyOp27
 70
     0
102
RTVSPropertyOp28
 70
     0
102
RTVSPropertyOp29
 70
     0
102
RTVSPropertyOp30
 70
     0
102
RTVSPropertyOp31
 70
     0
102
RTVSPropertyOp32
 70
     0
102
RTVSPropertyOp33
 70
     0
102
RTVSPropertyOp34
 70
     0
102
RTVSPropertyOp35
 70
     0
102
RTVSPropertyOp36
 70
     0
102
RTVSPropertyOp37
 70
     0
102
RTVSPropertyOp38
 70
     0
102
RTVSPropertyOp39
 70
     0
102
RTVSPropertyOp40
 70
     0
102
RTVSPropertyOp41
 70
     0
102
RTVSPropertyOp42
 70
     0
102
RTVSPropertyOp43
 70
     0
102
RTVSPropertyOp44
 70
     0
102
RTVSPropertyOp45
 70
     0
102
RTVSPropertyOp46
 70
     0
102
RTVSPropertyOp47
 70
     0
102
RTVSPropertyOp48
 70
     0
102
RTVSPropertyOp49
 70
     0
102
RTVSPropertyOp50
 70
     0
102
RTVSPropertyOp51
 70
     0
102
RTVSPropertyOp52
 70
     0
102
RTVSPropertyOp53
 70
     0
102
RTVSPropertyOp54
 70
     0
102
RTVSPropertyOp55
 70
     0
102
RTVSPropertyOp56
 70
     0
102
RTVSPropertyOp57
 70
     0
102
RTVSPropertyOp58
 70
     1
102
RTVSPropertyOp59
 70
     1
102
RTVSPropertyOp60
 70
     1
102
RTVSPropertyOp61
 70
     1
102
RTVSPropertyOp62
 70
     1
  0
XRECORD
  5
C38E
102
{ACAD_REACTORS
330
C38D
102
}
330
C38D
100
AcDbXrecord
280
     1
102
RTVSPost2010Prop28
280
     0
102
RTVSPost2010PropOp28
 70
     1
102
RTVSPost2010Prop29
280
     1
102
RTVSPost2010PropOp29
 70
     1
102
RTVSPost2010Prop30
280
     1
102
RTVSPost2010PropOp30
 70
     1
102
RTVSPost2010Prop31
280
     0
102
RTVSPost2010PropOp31
 70
     1
102
RTVSPost2010Prop32
280
     0
102
RTVSPost2010PropOp32
 70
     1
102
RTVSPost2010Prop33
280
     0
102
RTVSPost2010PropOp33
 70
     1
102
RTVSPost2010Prop34
280
     0
102
RTVSPost2010PropOp34
 70
     1
102
RTVSPost2010Prop35
280
     0
102
RTVSPost2010PropOp35
 70
     1
102
RTVSPost2010Prop36
280
     0
102
RTVSPost2010PropOp36
 70
     1
102
RTVSPost2010Prop37
 90
       50
102
RTVSPost2010PropOp37
 70
     1
102
RTVSPost2010Prop38
140
0.0
102
RTVSPost2010PropOp38
 70
     1
102
RTVSPost2010Prop39
140
1.0
102
RTVSPost2010PropOp39
 70
     1
102
RTVSPost2010Prop40
 90
        0
102
RTVSPost2010PropOp40
 70
     1
102
RTVSPost2010Prop41ColorIndex
 90
       18
102
RTVSPost2010Prop41ColorRGB
 90
        0
102
RTVSPost2010PropOp41
 70
     1
102
RTVSPost2010Prop42
 90
       50
102
RTVSPost2010PropOp42
 70
     1
102
RTVSPost2010Prop43
 90
        3
102
RTVSPost2010PropOp43
 70
     1
102
RTVSPost2010Prop44ColorIndex
 90
        5
102
RTVSPost2010Prop44ColorRGB
 90
      255
102
RTVSPost2010PropOp44
 70
     1
102
RTVSPost2010Prop45
280
     0
102
RTVSPost2010PropOp45
 70
     1
102
RTVSPost2010Prop46
 90
       50
102
RTVSPost2010PropOp46
 70
     1
102
RTVSPost2010Prop47
 90
       50
102
RTVSPost2010PropOp47
 70
     1
102
RTVSPost2010Prop48
 90
       50
102
RTVSPost2010PropOp48
 70
     1
102
RTVSPost2010Prop49
280
     0
102
RTVSPost2010PropOp49
 70
     1
102
RTVSPost2010Prop50
 90
       50
102
RTVSPost2010PropOp50
 70
     1
102
RTVSPost2010Prop51ColorIndex
 90
      256
102
RTVSPost2010Prop51ColorRGB
 90
-16777216
102
RTVSPost2010PropOp51
 70
     0
102
RTVSPost2010Prop52
140
1.0
102
RTVSPost2010PropOp52
 70
     0
102
RTVSPost2010Prop53
 90
        2
102
RTVSPost2010PropOp53
 70
     1
102
RTVSPost2010Prop54
  1
strokes_ogs.tif
102
RTVSPost2010PropOp54
 70
     1
102
RTVSPost2010Prop55
280
     0
102
RTVSPost2010PropOp55
 70
     1
102
RTVSPost2010Prop56
140
1.0
102
RTVSPost2010PropOp56
 70
     1
102
RTVSPost2010Prop57
140
1.0
102
RTVSPost2010PropOp57
 70
     1
102
RTVSPropertyOp0
 70
     1
102
RTVSPropertyOp1
 70
     1
102
RTVSPropertyOp2
 70
     1
102
RTVSPropertyOp3
 70
     1
102
RTVSPropertyOp4
 70
     1
102
RTVSPropertyOp5
 70
     1
102
RTVSPropertyOp6
 70
     1
102
RTVSPropertyOp7
 70
     1
102
RTVSPropertyOp8
 70
     1
102
RTVSPropertyOp9
 70
     1
102
RTVSPropertyOp10
 70
     1
102
RTVSPropertyOp11
 70
     1
102
RTVSPropertyOp12
 70
     1
102
RTVSPropertyOp13
 70
     1
102
RTVSPropertyOp14
 70
     1
102
RTVSPropertyOp15
 70
     1
102
RTVSPropertyOp16
 70
     1
102
RTVSPropertyOp17
 70
     1
102
RTVSPropertyOp18
 70
     1
102
RTVSPropertyOp19
 70
     1
102
RTVSPropertyOp20
 70
     1
102
RTVSPropertyOp21
 70
     1
102
RTVSPropertyOp22
 70
     1
102
RTVSPropertyOp23
 70
     1
102
RTVSPropertyOp24
 70
     1
102
RTVSPropertyOp25
 70
     1
102
RTVSPropertyOp26
 70
     1
102
RTVSPropertyOp27
 70
     1
102
RTVSPropertyOp28
 70
     1
102
RTVSPropertyOp29
 70
     1
102
RTVSPropertyOp30
 70
     1
102
RTVSPropertyOp31
 70
     1
102
RTVSPropertyOp32
 70
     1
102
RTVSPropertyOp33
 70
     1
102
RTVSPropertyOp34
 70
     1
102
RTVSPropertyOp35
 70
     1
102
RTVSPropertyOp36
 70
     1
102
RTVSPropertyOp37
 70
     1
102
RTVSPropertyOp38
 70
     1
102
RTVSPropertyOp39
 70
     1
102
RTVSPropertyOp40
 70
     1
102
RTVSPropertyOp41
 70
     1
102
RTVSPropertyOp42
 70
     1
102
RTVSPropertyOp43
 70
     1
102
RTVSPropertyOp44
 70
     1
102
RTVSPropertyOp45
 70
     1
102
RTVSPropertyOp46
 70
     1
102
RTVSPropertyOp47
 70
     1
102
RTVSPropertyOp48
 70
     1
102
RTVSPropertyOp49
 70
     1
102
RTVSPropertyOp50
 70
     1
102
RTVSPropertyOp51
 70
     0
102
RTVSPropertyOp52
 70
     0
102
RTVSPropertyOp53
 70
     1
102
RTVSPropertyOp54
 70
     1
102
RTVSPropertyOp55
 70
     1
102
RTVSPropertyOp56
 70
     1
102
RTVSPropertyOp57
 70
     1
102
RTVSPropertyOp58
 70
     1
102
RTVSPropertyOp59
 70
     1
102
RTVSPropertyOp60
 70
     1
102
RTVSPropertyOp61
 70
     1
102
RTVSPropertyOp62
 70
     1
  0
XRECORD
  5
C3A8
102
{ACAD_REACTORS
330
C3A7
102
}
330
C3A7
100
AcDbXrecord
280
     1
102
RTVSPost2010Prop28
280
     0
102
RTVSPost2010PropOp28
 70
     1
102
RTVSPost2010Prop29
280
     1
102
RTVSPost2010PropOp29
 70
     1
102
RTVSPost2010Prop30
280
     1
102
RTVSPost2010PropOp30
 70
     1
102
RTVSPost2010Prop31
280
     0
102
RTVSPost2010PropOp31
 70
     1
102
RTVSPost2010Prop32
280
     0
102
RTVSPost2010PropOp32
 70
     1
102
RTVSPost2010Prop33
280
     0
102
RTVSPost2010PropOp33
 70
     1
102
RTVSPost2010Prop34
280
     0
102
RTVSPost2010PropOp34
 70
     1
102
RTVSPost2010Prop35
280
     0
102
RTVSPost2010PropOp35
 70
     1
102
RTVSPost2010Prop36
280
     0
102
RTVSPost2010PropOp36
 70
     1
102
RTVSPost2010Prop37
 90
       50
102
RTVSPost2010PropOp37
 70
     1
102
RTVSPost2010Prop38
140
0.0
102
RTVSPost2010PropOp38
 70
     1
102
RTVSPost2010Prop39
140
1.0
102
RTVSPost2010PropOp39
 70
     1
102
RTVSPost2010Prop40
 90
        0
102
RTVSPost2010PropOp40
 70
     1
102
RTVSPost2010Prop41ColorIndex
 90
       18
102
RTVSPost2010Prop41ColorRGB
 90
        0
102
RTVSPost2010PropOp41
 70
     1
102
RTVSPost2010Prop42
 90
       50
102
RTVSPost2010PropOp42
 70
     1
102
RTVSPost2010Prop43
 90
        3
102
RTVSPost2010PropOp43
 70
     1
102
RTVSPost2010Prop44ColorIndex
 90
        5
102
RTVSPost2010Prop44ColorRGB
 90
      255
102
RTVSPost2010PropOp44
 70
     1
102
RTVSPost2010Prop45
280
     0
102
RTVSPost2010PropOp45
 70
     1
102
RTVSPost2010Prop46
 90
       50
102
RTVSPost2010PropOp46
 70
     1
102
RTVSPost2010Prop47
 90
       50
102
RTVSPost2010PropOp47
 70
     1
102
RTVSPost2010Prop48
 90
       50
102
RTVSPost2010PropOp48
 70
     1
102
RTVSPost2010Prop49
280
     0
102
RTVSPost2010PropOp49
 70
     1
102
RTVSPost2010Prop50
 90
       50
102
RTVSPost2010PropOp50
 70
     1
102
RTVSPost2010Prop51ColorIndex
 90
      256
102
RTVSPost2010Prop51ColorRGB
 90
-16777216
102
RTVSPost2010PropOp51
 70
     0
102
RTVSPost2010Prop52
140
1.0
102
RTVSPost2010PropOp52
 70
     0
102
RTVSPost2010Prop53
 90
        2
102
RTVSPost2010PropOp53
 70
     1
102
RTVSPost2010Prop54
  1
strokes_ogs.tif
102
RTVSPost2010PropOp54
 70
     1
102
RTVSPost2010Prop55
280
     0
102
RTVSPost2010PropOp55
 70
     1
102
RTVSPost2010Prop56
140
1.0
102
RTVSPost2010PropOp56
 70
     1
102
RTVSPost2010Prop57
140
1.0
102
RTVSPost2010PropOp57
 70
     1
102
RTVSPropertyOp0
 70
     1
102
RTVSPropertyOp1
 70
     1
102
RTVSPropertyOp2
 70
     1
102
RTVSPropertyOp3
 70
     1
102
RTVSPropertyOp4
 70
     1
102
RTVSPropertyOp5
 70
     1
102
RTVSPropertyOp6
 70
     1
102
RTVSPropertyOp7
 70
     1
102
RTVSPropertyOp8
 70
     1
102
RTVSPropertyOp9
 70
     1
102
RTVSPropertyOp10
 70
     1
102
RTVSPropertyOp11
 70
     1
102
RTVSPropertyOp12
 70
     1
102
RTVSPropertyOp13
 70
     1
102
RTVSPropertyOp14
 70
     1
102
RTVSPropertyOp15
 70
     1
102
RTVSPropertyOp16
 70
     1
102
RTVSPropertyOp17
 70
     1
102
RTVSPropertyOp18
 70
     1
102
RTVSPropertyOp19
 70
     1
102
RTVSPropertyOp20
 70
     1
102
RTVSPropertyOp21
 70
     1
102
RTVSPropertyOp22
 70
     1
102
RTVSPropertyOp23
 70
     1
102
RTVSPropertyOp24
 70
     1
102
RTVSPropertyOp25
 70
     1
102
RTVSPropertyOp26
 70
     1
102
RTVSPropertyOp27
 70
     1
102
RTVSPropertyOp28
 70
     1
102
RTVSPropertyOp29
 70
     1
102
RTVSPropertyOp30
 70
     1
102
RTVSPropertyOp31
 70
     1
102
RTVSPropertyOp32
 70
     1
102
RTVSPropertyOp33
 70
     1
102
RTVSPropertyOp34
 70
     1
102
RTVSPropertyOp35
 70
     1
102
RTVSPropertyOp36
 70
     1
102
RTVSPropertyOp37
 70
     1
102
RTVSPropertyOp38
 70
     1
102
RTVSPropertyOp39
 70
     1
102
RTVSPropertyOp40
 70
     1
102
RTVSPropertyOp41
 70
     1
102
RTVSPropertyOp42
 70
     1
102
RTVSPropertyOp43
 70
     1
102
RTVSPropertyOp44
 70
     1
102
RTVSPropertyOp45
 70
     1
102
RTVSPropertyOp46
 70
     1
102
RTVSPropertyOp47
 70
     1
102
RTVSPropertyOp48
 70
     1
102
RTVSPropertyOp49
 70
     1
102
RTVSPropertyOp50
 70
     1
102
RTVSPropertyOp51
 70
     0
102
RTVSPropertyOp52
 70
     0
102
RTVSPropertyOp53
 70
     1
102
RTVSPropertyOp54
 70
     1
102
RTVSPropertyOp55
 70
     1
102
RTVSPropertyOp56
 70
     1
102
RTVSPropertyOp57
 70
     1
102
RTVSPropertyOp58
 70
     1
102
RTVSPropertyOp59
 70
     1
102
RTVSPropertyOp60
 70
     1
102
RTVSPropertyOp61
 70
     1
102
RTVSPropertyOp62
 70
     1
  0
XRECORD
  5
C3A6
102
{ACAD_REACTORS
330
C3A5
102
}
330
C3A5
100
AcDbXrecord
280
     1
102
RTVSPost2010Prop28
280
     0
102
RTVSPost2010PropOp28
 70
     1
102
RTVSPost2010Prop29
280
     1
102
RTVSPost2010PropOp29
 70
     1
102
RTVSPost2010Prop30
280
     1
102
RTVSPost2010PropOp30
 70
     1
102
RTVSPost2010Prop31
280
     0
102
RTVSPost2010PropOp31
 70
     1
102
RTVSPost2010Prop32
280
     0
102
RTVSPost2010PropOp32
 70
     1
102
RTVSPost2010Prop33
280
     0
102
RTVSPost2010PropOp33
 70
     1
102
RTVSPost2010Prop34
280
     0
102
RTVSPost2010PropOp34
 70
     1
102
RTVSPost2010Prop35
280
     0
102
RTVSPost2010PropOp35
 70
     1
102
RTVSPost2010Prop36
280
     0
102
RTVSPost2010PropOp36
 70
     1
102
RTVSPost2010Prop37
 90
       50
102
RTVSPost2010PropOp37
 70
     1
102
RTVSPost2010Prop38
140
0.0
102
RTVSPost2010PropOp38
 70
     1
102
RTVSPost2010Prop39
140
1.0
102
RTVSPost2010PropOp39
 70
     1
102
RTVSPost2010Prop40
 90
        0
102
RTVSPost2010PropOp40
 70
     1
102
RTVSPost2010Prop41ColorIndex
 90
       18
102
RTVSPost2010Prop41ColorRGB
 90
        0
102
RTVSPost2010PropOp41
 70
     1
102
RTVSPost2010Prop42
 90
       50
102
RTVSPost2010PropOp42
 70
     1
102
RTVSPost2010Prop43
 90
        3
102
RTVSPost2010PropOp43
 70
     1
102
RTVSPost2010Prop44ColorIndex
 90
        5
102
RTVSPost2010Prop44ColorRGB
 90
      255
102
RTVSPost2010PropOp44
 70
     1
102
RTVSPost2010Prop45
280
     0
102
RTVSPost2010PropOp45
 70
     1
102
RTVSPost2010Prop46
 90
       50
102
RTVSPost2010PropOp46
 70
     1
102
RTVSPost2010Prop47
 90
       50
102
RTVSPost2010PropOp47
 70
     1
102
RTVSPost2010Prop48
 90
       50
102
RTVSPost2010PropOp48
 70
     1
102
RTVSPost2010Prop49
280
     0
102
RTVSPost2010PropOp49
 70
     1
102
RTVSPost2010Prop50
 90
       50
102
RTVSPost2010PropOp50
 70
     1
102
RTVSPost2010Prop51ColorIndex
 90
      256
102
RTVSPost2010Prop51ColorRGB
 90
-16777216
102
RTVSPost2010PropOp51
 70
     0
102
RTVSPost2010Prop52
140
1.0
102
RTVSPost2010PropOp52
 70
     0
102
RTVSPost2010Prop53
 90
        2
102
RTVSPost2010PropOp53
 70
     1
102
RTVSPost2010Prop54
  1
strokes_ogs.tif
102
RTVSPost2010PropOp54
 70
     1
102
RTVSPost2010Prop55
280
     0
102
RTVSPost2010PropOp55
 70
     1
102
RTVSPost2010Prop56
140
1.0
102
RTVSPost2010PropOp56
 70
     1
102
RTVSPost2010Prop57
140
1.0
102
RTVSPost2010PropOp57
 70
     1
102
RTVSPropertyOp0
 70
     1
102
RTVSPropertyOp1
 70
     1
102
RTVSPropertyOp2
 70
     1
102
RTVSPropertyOp3
 70
     1
102
RTVSPropertyOp4
 70
     1
102
RTVSPropertyOp5
 70
     1
102
RTVSPropertyOp6
 70
     1
102
RTVSPropertyOp7
 70
     1
102
RTVSPropertyOp8
 70
     1
102
RTVSPropertyOp9
 70
     1
102
RTVSPropertyOp10
 70
     1
102
RTVSPropertyOp11
 70
     1
102
RTVSPropertyOp12
 70
     1
102
RTVSPropertyOp13
 70
     1
102
RTVSPropertyOp14
 70
     1
102
RTVSPropertyOp15
 70
     1
102
RTVSPropertyOp16
 70
     1
102
RTVSPropertyOp17
 70
     1
102
RTVSPropertyOp18
 70
     1
102
RTVSPropertyOp19
 70
     1
102
RTVSPropertyOp20
 70
     1
102
RTVSPropertyOp21
 70
     1
102
RTVSPropertyOp22
 70
     1
102
RTVSPropertyOp23
 70
     1
102
RTVSPropertyOp24
 70
     1
102
RTVSPropertyOp25
 70
     1
102
RTVSPropertyOp26
 70
     1
102
RTVSPropertyOp27
 70
     1
102
RTVSPropertyOp28
 70
     1
102
RTVSPropertyOp29
 70
     1
102
RTVSPropertyOp30
 70
     1
102
RTVSPropertyOp31
 70
     1
102
RTVSPropertyOp32
 70
     1
102
RTVSPropertyOp33
 70
     1
102
RTVSPropertyOp34
 70
     1
102
RTVSPropertyOp35
 70
     1
102
RTVSPropertyOp36
 70
     1
102
RTVSPropertyOp37
 70
     1
102
RTVSPropertyOp38
 70
     1
102
RTVSPropertyOp39
 70
     1
102
RTVSPropertyOp40
 70
     1
102
RTVSPropertyOp41
 70
     1
102
RTVSPropertyOp42
 70
     1
102
RTVSPropertyOp43
 70
     1
102
RTVSPropertyOp44
 70
     1
102
RTVSPropertyOp45
 70
     1
102
RTVSPropertyOp46
 70
     1
102
RTVSPropertyOp47
 70
     1
102
RTVSPropertyOp48
 70
     1
102
RTVSPropertyOp49
 70
     1
102
RTVSPropertyOp50
 70
     1
102
RTVSPropertyOp51
 70
     0
102
RTVSPropertyOp52
 70
     0
102
RTVSPropertyOp53
 70
     1
102
RTVSPropertyOp54
 70
     1
102
RTVSPropertyOp55
 70
     1
102
RTVSPropertyOp56
 70
     1
102
RTVSPropertyOp57
 70
     1
102
RTVSPropertyOp58
 70
     1
102
RTVSPropertyOp59
 70
     1
102
RTVSPropertyOp60
 70
     1
102
RTVSPropertyOp61
 70
     1
102
RTVSPropertyOp62
 70
     1
  0
XRECORD
  5
C3A0
102
{ACAD_REACTORS
330
C39F
102
}
330
C39F
100
AcDbXrecord
280
     1
102
RTVSPost2010Prop28
280
     0
102
RTVSPost2010PropOp28
 70
     1
102
RTVSPost2010Prop29
280
     1
102
RTVSPost2010PropOp29
 70
     1
102
RTVSPost2010Prop30
280
     1
102
RTVSPost2010PropOp30
 70
     1
102
RTVSPost2010Prop31
280
     0
102
RTVSPost2010PropOp31
 70
     1
102
RTVSPost2010Prop32
280
     0
102
RTVSPost2010PropOp32
 70
     1
102
RTVSPost2010Prop33
280
     0
102
RTVSPost2010PropOp33
 70
     1
102
RTVSPost2010Prop34
280
     0
102
RTVSPost2010PropOp34
 70
     1
102
RTVSPost2010Prop35
280
     0
102
RTVSPost2010PropOp35
 70
     1
102
RTVSPost2010Prop36
280
     0
102
RTVSPost2010PropOp36
 70
     1
102
RTVSPost2010Prop37
 90
       50
102
RTVSPost2010PropOp37
 70
     1
102
RTVSPost2010Prop38
140
0.0
102
RTVSPost2010PropOp38
 70
     1
102
RTVSPost2010Prop39
140
1.0
102
RTVSPost2010PropOp39
 70
     1
102
RTVSPost2010Prop40
 90
        0
102
RTVSPost2010PropOp40
 70
     1
102
RTVSPost2010Prop41ColorIndex
 90
       18
102
RTVSPost2010Prop41ColorRGB
 90
        0
102
RTVSPost2010PropOp41
 70
     1
102
RTVSPost2010Prop42
 90
       50
102
RTVSPost2010PropOp42
 70
     1
102
RTVSPost2010Prop43
 90
        3
102
RTVSPost2010PropOp43
 70
     1
102
RTVSPost2010Prop44ColorIndex
 90
        5
102
RTVSPost2010Prop44ColorRGB
 90
      255
102
RTVSPost2010PropOp44
 70
     1
102
RTVSPost2010Prop45
280
     0
102
RTVSPost2010PropOp45
 70
     1
102
RTVSPost2010Prop46
 90
       50
102
RTVSPost2010PropOp46
 70
     1
102
RTVSPost2010Prop47
 90
       50
102
RTVSPost2010PropOp47
 70
     1
102
RTVSPost2010Prop48
 90
       50
102
RTVSPost2010PropOp48
 70
     1
102
RTVSPost2010Prop49
280
     0
102
RTVSPost2010PropOp49
 70
     1
102
RTVSPost2010Prop50
 90
       50
102
RTVSPost2010PropOp50
 70
     1
102
RTVSPost2010Prop51ColorIndex
 90
      256
102
RTVSPost2010Prop51ColorRGB
 90
-16777216
102
RTVSPost2010PropOp51
 70
     0
102
RTVSPost2010Prop52
140
1.0
102
RTVSPost2010PropOp52
 70
     0
102
RTVSPost2010Prop53
 90
        2
102
RTVSPost2010PropOp53
 70
     1
102
RTVSPost2010Prop54
  1
strokes_ogs.tif
102
RTVSPost2010PropOp54
 70
     1
102
RTVSPost2010Prop55
280
     0
102
RTVSPost2010PropOp55
 70
     1
102
RTVSPost2010Prop56
140
1.0
102
RTVSPost2010PropOp56
 70
     1
102
RTVSPost2010Prop57
140
1.0
102
RTVSPost2010PropOp57
 70
     1
102
RTVSPropertyOp0
 70
     1
102
RTVSPropertyOp1
 70
     1
102
RTVSPropertyOp2
 70
     1
102
RTVSPropertyOp3
 70
     1
102
RTVSPropertyOp4
 70
     1
102
RTVSPropertyOp5
 70
     1
102
RTVSPropertyOp6
 70
     1
102
RTVSPropertyOp7
 70
     1
102
RTVSPropertyOp8
 70
     1
102
RTVSPropertyOp9
 70
     1
102
RTVSPropertyOp10
 70
     1
102
RTVSPropertyOp11
 70
     1
102
RTVSPropertyOp12
 70
     1
102
RTVSPropertyOp13
 70
     1
102
RTVSPropertyOp14
 70
     1
102
RTVSPropertyOp15
 70
     1
102
RTVSPropertyOp16
 70
     1
102
RTVSPropertyOp17
 70
     1
102
RTVSPropertyOp18
 70
     1
102
RTVSPropertyOp19
 70
     1
102
RTVSPropertyOp20
 70
     1
102
RTVSPropertyOp21
 70
     1
102
RTVSPropertyOp22
 70
     1
102
RTVSPropertyOp23
 70
     1
102
RTVSPropertyOp24
 70
     1
102
RTVSPropertyOp25
 70
     1
102
RTVSPropertyOp26
 70
     1
102
RTVSPropertyOp27
 70
     1
102
RTVSPropertyOp28
 70
     1
102
RTVSPropertyOp29
 70
     1
102
RTVSPropertyOp30
 70
     1
102
RTVSPropertyOp31
 70
     1
102
RTVSPropertyOp32
 70
     1
102
RTVSPropertyOp33
 70
     1
102
RTVSPropertyOp34
 70
     1
102
RTVSPropertyOp35
 70
     1
102
RTVSPropertyOp36
 70
     1
102
RTVSPropertyOp37
 70
     1
102
RTVSPropertyOp38
 70
     1
102
RTVSPropertyOp39
 70
     1
102
RTVSPropertyOp40
 70
     1
102
RTVSPropertyOp41
 70
     1
102
RTVSPropertyOp42
 70
     1
102
RTVSPropertyOp43
 70
     1
102
RTVSPropertyOp44
 70
     1
102
RTVSPropertyOp45
 70
     1
102
RTVSPropertyOp46
 70
     1
102
RTVSPropertyOp47
 70
     1
102
RTVSPropertyOp48
 70
     1
102
RTVSPropertyOp49
 70
     1
102
RTVSPropertyOp50
 70
     1
102
RTVSPropertyOp51
 70
     0
102
RTVSPropertyOp52
 70
     0
102
RTVSPropertyOp53
 70
     1
102
RTVSPropertyOp54
 70
     1
102
RTVSPropertyOp55
 70
     1
102
RTVSPropertyOp56
 70
     1
102
RTVSPropertyOp57
 70
     1
102
RTVSPropertyOp58
 70
     1
102
RTVSPropertyOp59
 70
     1
102
RTVSPropertyOp60
 70
     1
102
RTVSPropertyOp61
 70
     1
102
RTVSPropertyOp62
 70
     1
  0
XRECORD
  5
C3A2
102
{ACAD_REACTORS
330
C3A1
102
}
330
C3A1
100
AcDbXrecord
280
     1
102
RTVSPost2010Prop28
280
     0
102
RTVSPost2010PropOp28
 70
     1
102
RTVSPost2010Prop29
280
     1
102
RTVSPost2010PropOp29
 70
     1
102
RTVSPost2010Prop30
280
     1
102
RTVSPost2010PropOp30
 70
     1
102
RTVSPost2010Prop31
280
     0
102
RTVSPost2010PropOp31
 70
     1
102
RTVSPost2010Prop32
280
     0
102
RTVSPost2010PropOp32
 70
     1
102
RTVSPost2010Prop33
280
     0
102
RTVSPost2010PropOp33
 70
     1
102
RTVSPost2010Prop34
280
     0
102
RTVSPost2010PropOp34
 70
     1
102
RTVSPost2010Prop35
280
     0
102
RTVSPost2010PropOp35
 70
     1
102
RTVSPost2010Prop36
280
     0
102
RTVSPost2010PropOp36
 70
     1
102
RTVSPost2010Prop37
 90
       50
102
RTVSPost2010PropOp37
 70
     1
102
RTVSPost2010Prop38
140
0.0
102
RTVSPost2010PropOp38
 70
     1
102
RTVSPost2010Prop39
140
1.0
102
RTVSPost2010PropOp39
 70
     1
102
RTVSPost2010Prop40
 90
        0
102
RTVSPost2010PropOp40
 70
     1
102
RTVSPost2010Prop41ColorIndex
 90
       18
102
RTVSPost2010Prop41ColorRGB
 90
        0
102
RTVSPost2010PropOp41
 70
     1
102
RTVSPost2010Prop42
 90
       50
102
RTVSPost2010PropOp42
 70
     1
102
RTVSPost2010Prop43
 90
        3
102
RTVSPost2010PropOp43
 70
     1
102
RTVSPost2010Prop44ColorIndex
 90
        5
102
RTVSPost2010Prop44ColorRGB
 90
      255
102
RTVSPost2010PropOp44
 70
     1
102
RTVSPost2010Prop45
280
     0
102
RTVSPost2010PropOp45
 70
     1
102
RTVSPost2010Prop46
 90
       50
102
RTVSPost2010PropOp46
 70
     1
102
RTVSPost2010Prop47
 90
       50
102
RTVSPost2010PropOp47
 70
     1
102
RTVSPost2010Prop48
 90
       50
102
RTVSPost2010PropOp48
 70
     1
102
RTVSPost2010Prop49
280
     0
102
RTVSPost2010PropOp49
 70
     1
102
RTVSPost2010Prop50
 90
       50
102
RTVSPost2010PropOp50
 70
     1
102
RTVSPost2010Prop51ColorIndex
 90
      256
102
RTVSPost2010Prop51ColorRGB
 90
-16777216
102
RTVSPost2010PropOp51
 70
     0
102
RTVSPost2010Prop52
140
1.0
102
RTVSPost2010PropOp52
 70
     0
102
RTVSPost2010Prop53
 90
        2
102
RTVSPost2010PropOp53
 70
     1
102
RTVSPost2010Prop54
  1
strokes_ogs.tif
102
RTVSPost2010PropOp54
 70
     1
102
RTVSPost2010Prop55
280
     0
102
RTVSPost2010PropOp55
 70
     1
102
RTVSPost2010Prop56
140
1.0
102
RTVSPost2010PropOp56
 70
     1
102
RTVSPost2010Prop57
140
1.0
102
RTVSPost2010PropOp57
 70
     1
102
RTVSPropertyOp0
 70
     1
102
RTVSPropertyOp1
 70
     1
102
RTVSPropertyOp2
 70
     1
102
RTVSPropertyOp3
 70
     1
102
RTVSPropertyOp4
 70
     1
102
RTVSPropertyOp5
 70
     1
102
RTVSPropertyOp6
 70
     1
102
RTVSPropertyOp7
 70
     1
102
RTVSPropertyOp8
 70
     1
102
RTVSPropertyOp9
 70
     1
102
RTVSPropertyOp10
 70
     1
102
RTVSPropertyOp11
 70
     1
102
RTVSPropertyOp12
 70
     1
102
RTVSPropertyOp13
 70
     1
102
RTVSPropertyOp14
 70
     1
102
RTVSPropertyOp15
 70
     1
102
RTVSPropertyOp16
 70
     1
102
RTVSPropertyOp17
 70
     1
102
RTVSPropertyOp18
 70
     1
102
RTVSPropertyOp19
 70
     1
102
RTVSPropertyOp20
 70
     1
102
RTVSPropertyOp21
 70
     1
102
RTVSPropertyOp22
 70
     1
102
RTVSPropertyOp23
 70
     1
102
RTVSPropertyOp24
 70
     1
102
RTVSPropertyOp25
 70
     1
102
RTVSPropertyOp26
 70
     1
102
RTVSPropertyOp27
 70
     1
102
RTVSPropertyOp28
 70
     1
102
RTVSPropertyOp29
 70
     1
102
RTVSPropertyOp30
 70
     1
102
RTVSPropertyOp31
 70
     1
102
RTVSPropertyOp32
 70
     1
102
RTVSPropertyOp33
 70
     1
102
RTVSPropertyOp34
 70
     1
102
RTVSPropertyOp35
 70
     1
102
RTVSPropertyOp36
 70
     1
102
RTVSPropertyOp37
 70
     1
102
RTVSPropertyOp38
 70
     1
102
RTVSPropertyOp39
 70
     1
102
RTVSPropertyOp40
 70
     1
102
RTVSPropertyOp41
 70
     1
102
RTVSPropertyOp42
 70
     1
102
RTVSPropertyOp43
 70
     1
102
RTVSPropertyOp44
 70
     1
102
RTVSPropertyOp45
 70
     1
102
RTVSPropertyOp46
 70
     1
102
RTVSPropertyOp47
 70
     1
102
RTVSPropertyOp48
 70
     1
102
RTVSPropertyOp49
 70
     1
102
RTVSPropertyOp50
 70
     1
102
RTVSPropertyOp51
 70
     0
102
RTVSPropertyOp52
 70
     0
102
RTVSPropertyOp53
 70
     1
102
RTVSPropertyOp54
 70
     1
102
RTVSPropertyOp55
 70
     1
102
RTVSPropertyOp56
 70
     1
102
RTVSPropertyOp57
 70
     1
102
RTVSPropertyOp58
 70
     1
102
RTVSPropertyOp59
 70
     1
102
RTVSPropertyOp60
 70
     1
102
RTVSPropertyOp61
 70
     1
102
RTVSPropertyOp62
 70
     1
  0
XRECORD
  5
C394
102
{ACAD_REACTORS
330
C393
102
}
330
C393
100
AcDbXrecord
280
     1
102
RTVSPost2010Prop28
280
     0
102
RTVSPost2010PropOp28
 70
     1
102
RTVSPost2010Prop29
280
     1
102
RTVSPost2010PropOp29
 70
     1
102
RTVSPost2010Prop30
280
     1
102
RTVSPost2010PropOp30
 70
     1
102
RTVSPost2010Prop31
280
     0
102
RTVSPost2010PropOp31
 70
     1
102
RTVSPost2010Prop32
280
     0
102
RTVSPost2010PropOp32
 70
     1
102
RTVSPost2010Prop33
280
     0
102
RTVSPost2010PropOp33
 70
     1
102
RTVSPost2010Prop34
280
     0
102
RTVSPost2010PropOp34
 70
     1
102
RTVSPost2010Prop35
280
     0
102
RTVSPost2010PropOp35
 70
     1
102
RTVSPost2010Prop36
280
     0
102
RTVSPost2010PropOp36
 70
     1
102
RTVSPost2010Prop37
 90
       50
102
RTVSPost2010PropOp37
 70
     1
102
RTVSPost2010Prop38
140
0.0
102
RTVSPost2010PropOp38
 70
     1
102
RTVSPost2010Prop39
140
1.0
102
RTVSPost2010PropOp39
 70
     1
102
RTVSPost2010Prop40
 90
        0
102
RTVSPost2010PropOp40
 70
     1
102
RTVSPost2010Prop41ColorIndex
 90
       18
102
RTVSPost2010Prop41ColorRGB
 90
        0
102
RTVSPost2010PropOp41
 70
     1
102
RTVSPost2010Prop42
 90
       50
102
RTVSPost2010PropOp42
 70
     1
102
RTVSPost2010Prop43
 90
        3
102
RTVSPost2010PropOp43
 70
     1
102
RTVSPost2010Prop44ColorIndex
 90
        5
102
RTVSPost2010Prop44ColorRGB
 90
      255
102
RTVSPost2010PropOp44
 70
     1
102
RTVSPost2010Prop45
280
     0
102
RTVSPost2010PropOp45
 70
     1
102
RTVSPost2010Prop46
 90
       50
102
RTVSPost2010PropOp46
 70
     1
102
RTVSPost2010Prop47
 90
       50
102
RTVSPost2010PropOp47
 70
     1
102
RTVSPost2010Prop48
 90
       50
102
RTVSPost2010PropOp48
 70
     1
102
RTVSPost2010Prop49
280
     0
102
RTVSPost2010PropOp49
 70
     1
102
RTVSPost2010Prop50
 90
       50
102
RTVSPost2010PropOp50
 70
     1
102
RTVSPost2010Prop51ColorIndex
 90
      256
102
RTVSPost2010Prop51ColorRGB
 90
-16777216
102
RTVSPost2010PropOp51
 70
     0
102
RTVSPost2010Prop52
140
1.0
102
RTVSPost2010PropOp52
 70
     0
102
RTVSPost2010Prop53
 90
        2
102
RTVSPost2010PropOp53
 70
     1
102
RTVSPost2010Prop54
  1
strokes_ogs.tif
102
RTVSPost2010PropOp54
 70
     1
102
RTVSPost2010Prop55
280
     0
102
RTVSPost2010PropOp55
 70
     1
102
RTVSPost2010Prop56
140
1.0
102
RTVSPost2010PropOp56
 70
     1
102
RTVSPost2010Prop57
140
1.0
102
RTVSPost2010PropOp57
 70
     1
102
RTVSPropertyOp0
 70
     1
102
RTVSPropertyOp1
 70
     1
102
RTVSPropertyOp2
 70
     1
102
RTVSPropertyOp3
 70
     1
102
RTVSPropertyOp4
 70
     1
102
RTVSPropertyOp5
 70
     1
102
RTVSPropertyOp6
 70
     1
102
RTVSPropertyOp7
 70
     1
102
RTVSPropertyOp8
 70
     1
102
RTVSPropertyOp9
 70
     1
102
RTVSPropertyOp10
 70
     1
102
RTVSPropertyOp11
 70
     1
102
RTVSPropertyOp12
 70
     1
102
RTVSPropertyOp13
 70
     1
102
RTVSPropertyOp14
 70
     1
102
RTVSPropertyOp15
 70
     1
102
RTVSPropertyOp16
 70
     1
102
RTVSPropertyOp17
 70
     1
102
RTVSPropertyOp18
 70
     1
102
RTVSPropertyOp19
 70
     1
102
RTVSPropertyOp20
 70
     1
102
RTVSPropertyOp21
 70
     1
102
RTVSPropertyOp22
 70
     1
102
RTVSPropertyOp23
 70
     1
102
RTVSPropertyOp24
 70
     1
102
RTVSPropertyOp25
 70
     1
102
RTVSPropertyOp26
 70
     1
102
RTVSPropertyOp27
 70
     1
102
RTVSPropertyOp28
 70
     1
102
RTVSPropertyOp29
 70
     1
102
RTVSPropertyOp30
 70
     1
102
RTVSPropertyOp31
 70
     1
102
RTVSPropertyOp32
 70
     1
102
RTVSPropertyOp33
 70
     1
102
RTVSPropertyOp34
 70
     1
102
RTVSPropertyOp35
 70
     1
102
RTVSPropertyOp36
 70
     1
102
RTVSPropertyOp37
 70
     1
102
RTVSPropertyOp38
 70
     1
102
RTVSPropertyOp39
 70
     1
102
RTVSPropertyOp40
 70
     1
102
RTVSPropertyOp41
 70
     1
102
RTVSPropertyOp42
 70
     1
102
RTVSPropertyOp43
 70
     1
102
RTVSPropertyOp44
 70
     1
102
RTVSPropertyOp45
 70
     1
102
RTVSPropertyOp46
 70
     1
102
RTVSPropertyOp47
 70
     1
102
RTVSPropertyOp48
 70
     1
102
RTVSPropertyOp49
 70
     1
102
RTVSPropertyOp50
 70
     1
102
RTVSPropertyOp51
 70
     0
102
RTVSPropertyOp52
 70
     0
102
RTVSPropertyOp53
 70
     1
102
RTVSPropertyOp54
 70
     1
102
RTVSPropertyOp55
 70
     1
102
RTVSPropertyOp56
 70
     1
102
RTVSPropertyOp57
 70
     1
102
RTVSPropertyOp58
 70
     1
102
RTVSPropertyOp59
 70
     1
102
RTVSPropertyOp60
 70
     1
102
RTVSPropertyOp61
 70
     1
102
RTVSPropertyOp62
 70
     1
  0
XRECORD
  5
C39C
102
{ACAD_REACTORS
330
C39B
102
}
330
C39B
100
AcDbXrecord
280
     1
102
RTVSPost2010Prop28
280
     0
102
RTVSPost2010PropOp28
 70
     1
102
RTVSPost2010Prop29
280
     1
102
RTVSPost2010PropOp29
 70
     1
102
RTVSPost2010Prop30
280
     1
102
RTVSPost2010PropOp30
 70
     1
102
RTVSPost2010Prop31
280
     0
102
RTVSPost2010PropOp31
 70
     1
102
RTVSPost2010Prop32
280
     0
102
RTVSPost2010PropOp32
 70
     1
102
RTVSPost2010Prop33
280
     0
102
RTVSPost2010PropOp33
 70
     1
102
RTVSPost2010Prop34
280
     0
102
RTVSPost2010PropOp34
 70
     1
102
RTVSPost2010Prop35
280
     0
102
RTVSPost2010PropOp35
 70
     1
102
RTVSPost2010Prop36
280
     0
102
RTVSPost2010PropOp36
 70
     1
102
RTVSPost2010Prop37
 90
       50
102
RTVSPost2010PropOp37
 70
     1
102
RTVSPost2010Prop38
140
0.0
102
RTVSPost2010PropOp38
 70
     1
102
RTVSPost2010Prop39
140
1.0
102
RTVSPost2010PropOp39
 70
     1
102
RTVSPost2010Prop40
 90
        0
102
RTVSPost2010PropOp40
 70
     1
102
RTVSPost2010Prop41ColorIndex
 90
       18
102
RTVSPost2010Prop41ColorRGB
 90
        0
102
RTVSPost2010PropOp41
 70
     1
102
RTVSPost2010Prop42
 90
       50
102
RTVSPost2010PropOp42
 70
     1
102
RTVSPost2010Prop43
 90
        3
102
RTVSPost2010PropOp43
 70
     1
102
RTVSPost2010Prop44ColorIndex
 90
        5
102
RTVSPost2010Prop44ColorRGB
 90
      255
102
RTVSPost2010PropOp44
 70
     1
102
RTVSPost2010Prop45
280
     0
102
RTVSPost2010PropOp45
 70
     1
102
RTVSPost2010Prop46
 90
       50
102
RTVSPost2010PropOp46
 70
     1
102
RTVSPost2010Prop47
 90
       50
102
RTVSPost2010PropOp47
 70
     1
102
RTVSPost2010Prop48
 90
       50
102
RTVSPost2010PropOp48
 70
     1
102
RTVSPost2010Prop49
280
     0
102
RTVSPost2010PropOp49
 70
     1
102
RTVSPost2010Prop50
 90
       50
102
RTVSPost2010PropOp50
 70
     1
102
RTVSPost2010Prop51ColorIndex
 90
      256
102
RTVSPost2010Prop51ColorRGB
 90
-16777216
102
RTVSPost2010PropOp51
 70
     0
102
RTVSPost2010Prop52
140
1.0
102
RTVSPost2010PropOp52
 70
     0
102
RTVSPost2010Prop53
 90
        2
102
RTVSPost2010PropOp53
 70
     1
102
RTVSPost2010Prop54
  1
strokes_ogs.tif
102
RTVSPost2010PropOp54
 70
     1
102
RTVSPost2010Prop55
280
     0
102
RTVSPost2010PropOp55
 70
     1
102
RTVSPost2010Prop56
140
1.0
102
RTVSPost2010PropOp56
 70
     1
102
RTVSPost2010Prop57
140
1.0
102
RTVSPost2010PropOp57
 70
     1
102
RTVSPropertyOp0
 70
     1
102
RTVSPropertyOp1
 70
     1
102
RTVSPropertyOp2
 70
     1
102
RTVSPropertyOp3
 70
     1
102
RTVSPropertyOp4
 70
     1
102
RTVSPropertyOp5
 70
     1
102
RTVSPropertyOp6
 70
     1
102
RTVSPropertyOp7
 70
     1
102
RTVSPropertyOp8
 70
     1
102
RTVSPropertyOp9
 70
     1
102
RTVSPropertyOp10
 70
     1
102
RTVSPropertyOp11
 70
     1
102
RTVSPropertyOp12
 70
     1
102
RTVSPropertyOp13
 70
     1
102
RTVSPropertyOp14
 70
     1
102
RTVSPropertyOp15
 70
     1
102
RTVSPropertyOp16
 70
     1
102
RTVSPropertyOp17
 70
     1
102
RTVSPropertyOp18
 70
     1
102
RTVSPropertyOp19
 70
     1
102
RTVSPropertyOp20
 70
     1
102
RTVSPropertyOp21
 70
     1
102
RTVSPropertyOp22
 70
     1
102
RTVSPropertyOp23
 70
     1
102
RTVSPropertyOp24
 70
     1
102
RTVSPropertyOp25
 70
     1
102
RTVSPropertyOp26
 70
     1
102
RTVSPropertyOp27
 70
     1
102
RTVSPropertyOp28
 70
     1
102
RTVSPropertyOp29
 70
     1
102
RTVSPropertyOp30
 70
     1
102
RTVSPropertyOp31
 70
     1
102
RTVSPropertyOp32
 70
     1
102
RTVSPropertyOp33
 70
     1
102
RTVSPropertyOp34
 70
     1
102
RTVSPropertyOp35
 70
     1
102
RTVSPropertyOp36
 70
     1
102
RTVSPropertyOp37
 70
     1
102
RTVSPropertyOp38
 70
     1
102
RTVSPropertyOp39
 70
     1
102
RTVSPropertyOp40
 70
     1
102
RTVSPropertyOp41
 70
     1
102
RTVSPropertyOp42
 70
     1
102
RTVSPropertyOp43
 70
     1
102
RTVSPropertyOp44
 70
     1
102
RTVSPropertyOp45
 70
     1
102
RTVSPropertyOp46
 70
     1
102
RTVSPropertyOp47
 70
     1
102
RTVSPropertyOp48
 70
     1
102
RTVSPropertyOp49
 70
     1
102
RTVSPropertyOp50
 70
     1
102
RTVSPropertyOp51
 70
     0
102
RTVSPropertyOp52
 70
     0
102
RTVSPropertyOp53
 70
     1
102
RTVSPropertyOp54
 70
     1
102
RTVSPropertyOp55
 70
     1
102
RTVSPropertyOp56
 70
     1
102
RTVSPropertyOp57
 70
     1
102
RTVSPropertyOp58
 70
     1
102
RTVSPropertyOp59
 70
     1
102
RTVSPropertyOp60
 70
     1
102
RTVSPropertyOp61
 70
     1
102
RTVSPropertyOp62
 70
     1
  0
XRECORD
  5
C3A4
102
{ACAD_REACTORS
330
C3A3
102
}
330
C3A3
100
AcDbXrecord
280
     1
102
RTVSPost2010Prop28
280
     0
102
RTVSPost2010PropOp28
 70
     1
102
RTVSPost2010Prop29
280
     1
102
RTVSPost2010PropOp29
 70
     1
102
RTVSPost2010Prop30
280
     1
102
RTVSPost2010PropOp30
 70
     1
102
RTVSPost2010Prop31
280
     0
102
RTVSPost2010PropOp31
 70
     1
102
RTVSPost2010Prop32
280
     0
102
RTVSPost2010PropOp32
 70
     1
102
RTVSPost2010Prop33
280
     0
102
RTVSPost2010PropOp33
 70
     1
102
RTVSPost2010Prop34
280
     0
102
RTVSPost2010PropOp34
 70
     1
102
RTVSPost2010Prop35
280
     0
102
RTVSPost2010PropOp35
 70
     1
102
RTVSPost2010Prop36
280
     0
102
RTVSPost2010PropOp36
 70
     1
102
RTVSPost2010Prop37
 90
       50
102
RTVSPost2010PropOp37
 70
     1
102
RTVSPost2010Prop38
140
0.0
102
RTVSPost2010PropOp38
 70
     1
102
RTVSPost2010Prop39
140
1.0
102
RTVSPost2010PropOp39
 70
     1
102
RTVSPost2010Prop40
 90
        0
102
RTVSPost2010PropOp40
 70
     1
102
RTVSPost2010Prop41ColorIndex
 90
       18
102
RTVSPost2010Prop41ColorRGB
 90
        0
102
RTVSPost2010PropOp41
 70
     1
102
RTVSPost2010Prop42
 90
       50
102
RTVSPost2010PropOp42
 70
     1
102
RTVSPost2010Prop43
 90
        3
102
RTVSPost2010PropOp43
 70
     1
102
RTVSPost2010Prop44ColorIndex
 90
        5
102
RTVSPost2010Prop44ColorRGB
 90
      255
102
RTVSPost2010PropOp44
 70
     1
102
RTVSPost2010Prop45
280
     0
102
RTVSPost2010PropOp45
 70
     1
102
RTVSPost2010Prop46
 90
       50
102
RTVSPost2010PropOp46
 70
     1
102
RTVSPost2010Prop47
 90
       50
102
RTVSPost2010PropOp47
 70
     1
102
RTVSPost2010Prop48
 90
       50
102
RTVSPost2010PropOp48
 70
     1
102
RTVSPost2010Prop49
280
     0
102
RTVSPost2010PropOp49
 70
     1
102
RTVSPost2010Prop50
 90
       50
102
RTVSPost2010PropOp50
 70
     1
102
RTVSPost2010Prop51ColorIndex
 90
      256
102
RTVSPost2010Prop51ColorRGB
 90
-16777216
102
RTVSPost2010PropOp51
 70
     0
102
RTVSPost2010Prop52
140
1.0
102
RTVSPost2010PropOp52
 70
     0
102
RTVSPost2010Prop53
 90
        2
102
RTVSPost2010PropOp53
 70
     1
102
RTVSPost2010Prop54
  1
strokes_ogs.tif
102
RTVSPost2010PropOp54
 70
     1
102
RTVSPost2010Prop55
280
     0
102
RTVSPost2010PropOp55
 70
     1
102
RTVSPost2010Prop56
140
1.0
102
RTVSPost2010PropOp56
 70
     1
102
RTVSPost2010Prop57
140
1.0
102
RTVSPost2010PropOp57
 70
     1
102
RTVSPropertyOp0
 70
     1
102
RTVSPropertyOp1
 70
     1
102
RTVSPropertyOp2
 70
     1
102
RTVSPropertyOp3
 70
     1
102
RTVSPropertyOp4
 70
     1
102
RTVSPropertyOp5
 70
     1
102
RTVSPropertyOp6
 70
     1
102
RTVSPropertyOp7
 70
     1
102
RTVSPropertyOp8
 70
     1
102
RTVSPropertyOp9
 70
     1
102
RTVSPropertyOp10
 70
     1
102
RTVSPropertyOp11
 70
     1
102
RTVSPropertyOp12
 70
     1
102
RTVSPropertyOp13
 70
     1
102
RTVSPropertyOp14
 70
     1
102
RTVSPropertyOp15
 70
     1
102
RTVSPropertyOp16
 70
     1
102
RTVSPropertyOp17
 70
     1
102
RTVSPropertyOp18
 70
     1
102
RTVSPropertyOp19
 70
     1
102
RTVSPropertyOp20
 70
     1
102
RTVSPropertyOp21
 70
     1
102
RTVSPropertyOp22
 70
     1
102
RTVSPropertyOp23
 70
     1
102
RTVSPropertyOp24
 70
     1
102
RTVSPropertyOp25
 70
     1
102
RTVSPropertyOp26
 70
     1
102
RTVSPropertyOp27
 70
     1
102
RTVSPropertyOp28
 70
     1
102
RTVSPropertyOp29
 70
     1
102
RTVSPropertyOp30
 70
     1
102
RTVSPropertyOp31
 70
     1
102
RTVSPropertyOp32
 70
     1
102
RTVSPropertyOp33
 70
     1
102
RTVSPropertyOp34
 70
     1
102
RTVSPropertyOp35
 70
     1
102
RTVSPropertyOp36
 70
     1
102
RTVSPropertyOp37
 70
     1
102
RTVSPropertyOp38
 70
     1
102
RTVSPropertyOp39
 70
     1
102
RTVSPropertyOp40
 70
     1
102
RTVSPropertyOp41
 70
     1
102
RTVSPropertyOp42
 70
     1
102
RTVSPropertyOp43
 70
     1
102
RTVSPropertyOp44
 70
     1
102
RTVSPropertyOp45
 70
     1
102
RTVSPropertyOp46
 70
     1
102
RTVSPropertyOp47
 70
     1
102
RTVSPropertyOp48
 70
     1
102
RTVSPropertyOp49
 70
     1
102
RTVSPropertyOp50
 70
     1
102
RTVSPropertyOp51
 70
     0
102
RTVSPropertyOp52
 70
     0
102
RTVSPropertyOp53
 70
     1
102
RTVSPropertyOp54
 70
     1
102
RTVSPropertyOp55
 70
     1
102
RTVSPropertyOp56
 70
     1
102
RTVSPropertyOp57
 70
     1
102
RTVSPropertyOp58
 70
     1
102
RTVSPropertyOp59
 70
     1
102
RTVSPropertyOp60
 70
     1
102
RTVSPropertyOp61
 70
     1
102
RTVSPropertyOp62
 70
     1
  0
ENDSEC
  0
EOF
