  0
SECTION
  2
HEADER
  9
$ACADVER
  1
AC1015
  9
$ACADMAINTVER
 70
    20
  9
$DWGCODEPAGE
  3
ANSI_932
  9
$INSBASE
 10
0.0
 20
0.0
 30
0.0
  9
$EXTMIN
 10
-0.0128100481842921
 20
-0.020125200716393
 30
-0.0000000000000053
  9
$EXTMAX
 10
420.0128212946065
 20
297.0112109280482
 30
0.0000000000000099
  9
$LIMMIN
 10
0.0
 20
0.0
  9
$LIMMAX
 10
420.0
 20
297.0
  9
$ORTHOMODE
 70
     0
  9
$REGENMODE
 70
     1
  9
$FILLMODE
 70
     1
  9
$QTEXTMODE
 70
     0
  9
$MIRRTEXT
 70
     0
  9
$LTSCALE
 40
1.0
  9
$ATTMODE
 70
     1
  9
$TEXTSIZE
 40
3.2
  9
$TRACEWID
 40
1.0
  9
$TEXTSTYLE
  7
STANDARD
  9
$CLAYER
  8
AM_0
  9
$CELTYPE
  6
ByLayer
  9
$CECOLOR
 62
   256
  9
$CELTSCALE
 40
1.0
  9
$DISPSILH
 70
     0
  9
$DIMSCALE
 40
1.0
  9
$DIMASZ
 40
1.0
  9
$DIMEXO
 40
1.0
  9
$DIMDLI
 40
10.0
  9
$DIMRND
 40
0.0
  9
$DIMDLE
 40
0.0
  9
$DIMEXE
 40
1.0
  9
$DIMTP
 40
0.1
  9
$DIMTM
 40
0.1
  9
$DIMTXT
 40
3.5
  9
$DIMCEN
 40
0.0
  9
$DIMTSZ
 40
0.0
  9
$DIMTOL
 70
     0
  9
$DIMLIM
 70
     0
  9
$DIMTIH
 70
     0
  9
$DIMTOH
 70
     0
  9
$DIMSE1
 70
     0
  9
$DIMSE2
 70
     0
  9
$DIMTAD
 70
     1
  9
$DIMZIN
 70
     8
  9
$DIMBLK
  1

  9
$DIMASO
 70
     1
  9
$DIMSHO
 70
     1
  9
$DIMPOST
  1

  9
$DIMAPOST
  1
"
  9
$DIMALT
 70
     0
  9
$DIMALTD
 70
     2
  9
$DIMALTF
 40
0.0393701
  9
$DIMLFAC
 40
1.0
  9
$DIMTOFL
 70
     1
  9
$DIMTVP
 40
0.0
  9
$DIMTIX
 70
     0
  9
$DIMSOXD
 70
     0
  9
$DIMSAH
 70
     0
  9
$DIMBLK1
  1

  9
$DIMBLK2
  1

  9
$DIMSTYLE
  2
SYS
  9
$DIMCLRD
 70
   256
  9
$DIMCLRE
 70
   256
  9
$DIMCLRT
 70
     7
  9
$DIMTFAC
 40
0.71
  9
$DIMGAP
 40
1.5
  9
$DIMJUST
 70
     0
  9
$DIMSD1
 70
     0
  9
$DIMSD2
 70
     0
  9
$DIMTOLJ
 70
     0
  9
$DIMTZIN
 70
     8
  9
$DIMALTZ
 70
     0
  9
$DIMALTTZ
 70
     0
  9
$DIMUPT
 70
     0
  9
$DIMDEC
 70
     2
  9
$DIMTDEC
 70
     2
  9
$DIMALTU
 70
     2
  9
$DIMALTTD
 70
     2
  9
$DIMTXSTY
  7
STANDARD
  9
$DIMAUNIT
 70
     0
  9
$DIMADEC
 70
     2
  9
$DIMALTRND
 40
0.0
  9
$DIMAZIN
 70
     2
  9
$DIMDSEP
 70
    46
  9
$DIMATFIT
 70
     3
  9
$DIMFRAC
 70
     0
  9
$DIMLDRBLK
  1

  9
$DIMLUNIT
 70
     2
  9
$DIMLWD
 70
    -1
  9
$DIMLWE
 70
    -1
  9
$DIMTMOVE
 70
     0
  9
$LUNITS
 70
     2
  9
$LUPREC
 70
     2
  9
$SKETCHINC
 40
1.0
  9
$FILLETRAD
 40
2.0
  9
$AUNITS
 70
     0
  9
$AUPREC
 70
     0
  9
$MENU
  1
.
  9
$ELEVATION
 40
0.0
  9
$PELEVATION
 40
0.0
  9
$THICKNESS
 40
0.0
  9
$LIMCHECK
 70
     0
  9
$CHAMFERA
 40
0.0
  9
$CHAMFERB
 40
0.0
  9
$CHAMFERC
 40
20.0
  9
$CHAMFERD
 40
0.0
  9
$SKPOLY
 70
     0
  9
$TDCREATE
 40
2456139.787518079
  9
$TDUCREATE
 40
2456139.412518079
  9
$TDUPDATE
 40
2456268.539472257
  9
$TDUUPDATE
 40
2456268.164472257
  9
$TDINDWG
 40
0.3432052894
  9
$TDUSRTIMER
 40
0.3432051042
  9
$USRTIMER
 70
     1
  9
$ANGBASE
 50
0.0
  9
$ANGDIR
 70
     0
  9
$PDMODE
 70
     0
  9
$PDSIZE
 40
-3.0
  9
$PLINEWID
 40
0.0
  9
$SPLFRAME
 70
     0
  9
$SPLINETYPE
 70
     6
  9
$SPLINESEGS
 70
     8
  9
$HANDSEED
  5
10E84
  9
$SURFTAB1
 70
     6
  9
$SURFTAB2
 70
     6
  9
$SURFTYPE
 70
     6
  9
$SURFU
 70
     6
  9
$SURFV
 70
     6
  9
$UCSBASE
  2

  9
$UCSNAME
  2

  9
$UCSORG
 10
0.0
 20
0.0
 30
0.0
  9
$UCSXDIR
 10
1.0
 20
0.0
 30
0.0
  9
$UCSYDIR
 10
0.0
 20
1.0
 30
0.0
  9
$UCSORTHOREF
  2

  9
$UCSORTHOVIEW
 70
     0
  9
$UCSORGTOP
 10
0.0
 20
0.0
 30
0.0
  9
$UCSORGBOTTOM
 10
0.0
 20
0.0
 30
0.0
  9
$UCSORGLEFT
 10
0.0
 20
0.0
 30
0.0
  9
$UCSORGRIGHT
 10
0.0
 20
0.0
 30
0.0
  9
$UCSORGFRONT
 10
0.0
 20
0.0
 30
0.0
  9
$UCSORGBACK
 10
0.0
 20
0.0
 30
0.0
  9
$PUCSBASE
  2

  9
$PUCSNAME
  2

  9
$PUCSORG
 10
0.0
 20
0.0
 30
0.0
  9
$PUCSXDIR
 10
1.0
 20
0.0
 30
0.0
  9
$PUCSYDIR
 10
0.0
 20
1.0
 30
0.0
  9
$PUCSORTHOREF
  2

  9
$PUCSORTHOVIEW
 70
     0
  9
$PUCSORGTOP
 10
0.0
 20
0.0
 30
0.0
  9
$PUCSORGBOTTOM
 10
0.0
 20
0.0
 30
0.0
  9
$PUCSORGLEFT
 10
0.0
 20
0.0
 30
0.0
  9
$PUCSORGRIGHT
 10
0.0
 20
0.0
 30
0.0
  9
$PUCSORGFRONT
 10
0.0
 20
0.0
 30
0.0
  9
$PUCSORGBACK
 10
0.0
 20
0.0
 30
0.0
  9
$USERI1
 70
     0
  9
$USERI2
 70
     0
  9
$USERI3
 70
     0
  9
$USERI4
 70
     0
  9
$USERI5
 70
     0
  9
$USERR1
 40
0.0
  9
$USERR2
 40
0.0
  9
$USERR3
 40
0.0
  9
$USERR4
 40
0.0
  9
$USERR5
 40
0.0
  9
$WORLDVIEW
 70
     1
  9
$SHADEDGE
 70
     3
  9
$SHADEDIF
 70
    70
  9
$TILEMODE
 70
     1
  9
$MAXACTVP
 70
    64
  9
$PINSBASE
 10
0.0
 20
0.0
 30
0.0
  9
$PLIMCHECK
 70
     0
  9
$PEXTMIN
 10
1.000000000000000E+20
 20
1.000000000000000E+20
 30
1.000000000000000E+20
  9
$PEXTMAX
 10
-1.000000000000000E+20
 20
-1.000000000000000E+20
 30
-1.000000000000000E+20
  9
$PLIMMIN
 10
-3.17498779296875
 20
-3.174999952316284
  9
$PLIMMAX
 10
293.4970092773438
 20
206.692492723465
  9
$UNITMODE
 70
     0
  9
$VISRETAIN
 70
     1
  9
$PLINEGEN
 70
     0
  9
$PSLTSCALE
 70
     1
  9
$TREEDEPTH
 70
  3020
  9
$CMLSTYLE
  2
Standard
  9
$CMLJUST
 70
     0
  9
$CMLSCALE
 40
20.0
  9
$PROXYGRAPHICS
 70
     1
  9
$MEASUREMENT
 70
     1
  9
$CELWEIGHT
370
    -1
  9
$ENDCAPS
280
     0
  9
$JOINSTYLE
280
     0
  9
$LWDISPLAY
290
     1
  9
$INSUNITS
 70
     4
  9
$HYPERLINKBASE
  1

  9
$STYLESHEET
  1
monochrome.ctb
  9
$XEDIT
290
     1
  9
$CEPSNTYPE
380
     0
  9
$PSTYLEMODE
290
     1
  9
$FINGERPRINTGUID
  2
{6687207C-F65F-4E86-B589-9C3C3CBAEBE5}
  9
$VERSIONGUID
  2
{E0847927-F714-4507-A1E0-6A44D0A3BA8A}
  9
$EXTNAMES
290
     1
  9
$PSVPSCALE
 40
0.0
  9
$OLESTARTUP
290
     0
  0
ENDSEC
  0
SECTION
  2
CLASSES
  0
CLASS
  1
ACDBDICTIONARYWDFLT
  2
AcDbDictionaryWithDefault
  3
ObjectDBX Classes
 90
        0
280
     0
281
     0
  0
CLASS
  1
ACDBPLACEHOLDER
  2
AcDbPlaceHolder
  3
ObjectDBX Classes
 90
        0
280
     0
281
     0
  0
CLASS
  1
LAYOUT
  2
AcDbLayout
  3
ObjectDBX Classes
 90
        0
280
     0
281
     0
  0
CLASS
  1
AMGSETTINGSOBJ
  2
AmgSettingsObj
  3
"AcadM|Product Description: AutoCAD Mechanical|Company: Autodesk"
 90
        0
280
     0
281
     0
  0
CLASS
  1
ACME_DOCUMENT
  2
AcMeDbDoc
  3
AcMeServices
 90
        0
280
     0
281
     0
  0
CLASS
  1
ACMESCOPE
  2
AcMeScope
  3
AcMeServices
 90
        0
280
     0
281
     0
  0
CLASS
  1
ACMECOMMANDHISTORY
  2
AcMeCommandHistory
  3
AcMeServices
 90
        0
280
     0
281
     0
  0
CLASS
  1
DICTIONARYVAR
  2
AcDbDictionaryVar
  3
ObjectDBX Classes
 90
        0
280
     0
281
     0
  0
CLASS
  1
ACIMSYSVARMAN
  2
AcImSysVarManager
  3
AcMeServices
 90
        0
280
     0
281
     0
  0
CLASS
  1
ACIMREALSYSVAR
  2
AcImRealSysVar
  3
AcMeServices
 90
        0
280
     0
281
     0
  0
CLASS
  1
ACIMINTSYSVAR
  2
AcImIntSysVar
  3
AcMeServices
 90
        0
280
     0
281
     0
  0
CLASS
  1
ACMEDRAWINGMAN
  2
AcMeDrawingMan
  3
AcMeServices
 90
        0
280
     0
281
     0
  0
CLASS
  1
ACMEVIEW
  2
AcMeView
  3
AcMeServices
 90
        0
280
     0
281
     0
  0
CLASS
  1
ACDBENTITYCACHE
  2
AcMeEntityCache
  3
AcMeServices
 90
        0
280
     0
281
     0
  0
CLASS
  1
GSMANAGER
  2
AcMeGSManager
  3
AcMeServices
 90
        0
280
     0
281
     0
  0
CLASS
  1
AMDTINTERNALREACTOR
  2
AmdtInternalReactor
  3
AcMeServices
 90
        0
280
     0
281
     0
  0
CLASS
  1
ACMESTATEMGR
  2
AcMeStateMgr
  3
AcMeServices
 90
        0
280
     0
281
     0
  0
CLASS
  1
ACGREFMASTER
  2
AcGrefMaster
  3
AcAttribServices
 90
        0
280
     0
281
     0
  0
CLASS
  1
ACME_DATABASE
  2
AcMeDbDatabase
  3
AcMeServices
 90
        0
280
     0
281
     0
  0
CLASS
  1
ACRFINSADJUSTERMGR
  2
AcRfInsAdjusterMgr
  3
AcMeServices
 90
        0
280
     0
281
     0
  0
CLASS
  1
ACGREFACADMASTER
  2
AcGrefacadMaster
  3
AcGrefServices
 90
        0
280
     0
281
     0
  0
CLASS
  1
AMIMASTER
  2
AmiMaster
  3
AmiServices
 90
        0
280
     0
281
     0
  0
CLASS
  1
ACMDATADICTIONARY
  2
AcmDataDictionary
  3
"AcmSymBB|Product Description: AutoCAD Mechanical|Company: Autodesk"
 90
        0
280
     0
281
     0
  0
CLASS
  1
ACMDATAENTRYBLOCK
  2
AcmDataEntryBlock
  3
"AcmSymBB|Product Description: AutoCAD Mechanical|Company: Autodesk"
 90
        0
280
     0
281
     0
  0
CLASS
  1
ACIMSTRSYSVAR
  2
AcImStrSysVar
  3
AcMeServices
 90
        0
280
     0
281
     0
  0
CLASS
  1
ACMSTANDARDISO
  2
AcmStandardISO
  3
"Amdt_StdImp|Product Description: AutoCAD Mechanical|Company: Autodesk"
 90
        0
280
     0
281
     0
  0
CLASS
  1
AMGOBJPROPCFG
  2
AmgObjPropCfg
  3
"AmgLay|Product Description: AutoCAD Mechanical|Company: Autodesk"
 90
        1
280
     0
281
     0
  0
CLASS
  1
AMDTEDGESTANDARDISO
  2
AmdtEdgeStdISO
  3
"Amdt_StdImp|Product Description: AutoCAD Mechanical|Company: Autodesk"
 90
        0
280
     0
281
     0
  0
CLASS
  1
ACMSURFSTANDARDISO
  2
AcmSurfTextStdISO
  3
"Amdt_StdImp|Product Description: AutoCAD Mechanical|Company: Autodesk"
 90
        0
280
     0
281
     0
  0
CLASS
  1
ACMFCFSTANDARDISO
  2
AcmFCFStdISO
  3
"Amdt_StdImp|Product Description: AutoCAD Mechanical|Company: Autodesk"
 90
        0
280
     0
281
     0
  0
CLASS
  1
ACMWELDSTANDARDISO
  2
AcmWeldingStdISO
  3
"Amdt_StdImp|Product Description: AutoCAD Mechanical|Company: Autodesk"
 90
        0
280
     0
281
     0
  0
CLASS
  1
ACMIDSTANDARDISO
  2
AcmIdStdISO
  3
"Amdt_StdImp|Product Description: AutoCAD Mechanical|Company: Autodesk"
 90
        0
280
     0
281
     0
  0
CLASS
  1
ACMDATUMSTANDARDISO
  2
AcmDatumStdISO
  3
"Amdt_StdImp|Product Description: AutoCAD Mechanical|Company: Autodesk"
 90
        0
280
     0
281
     0
  0
CLASS
  1
ACMBOMSTANDARDISO
  2
AcmBOMStdISO
  3
"Amdt_StdImp|Product Description: AutoCAD Mechanical|Company: Autodesk"
 90
        0
280
     0
281
     0
  0
CLASS
  1
ACMDETAILSTANDARDISO
  2
AmdtDetailSymStdISO
  3
"Amdt_StdImp|Product Description: AutoCAD Mechanical|Company: Autodesk"
 90
        0
280
     0
281
     0
  0
CLASS
  1
ACMSECTIONSTANDARDISO
  2
AmdtSectionSymStdISO
  3
"Amdt_StdImp|Product Description: AutoCAD Mechanical|Company: Autodesk"
 90
        0
280
     0
281
     0
  0
CLASS
  1
ACMCENTERLINESTANDARDISO
  2
AmdtCenterLineStdISO
  3
"Amdt_StdImp|Product Description: AutoCAD Mechanical|Company: Autodesk"
 90
        0
280
     0
281
     0
  0
CLASS
  1
ACAMGLAYSTD
  2
AcAmgLayStd
  3
"AmgLay|Product Description: AutoCAD Mechanical|Company: Autodesk"
 90
        0
280
     0
281
     0
  0
CLASS
  1
ACAMGDIMSTD
  2
AcAmgDimStd
  3
"AmgDim|Product Description: AutoCAD Mechanical|Company: Autodesk"
 90
        0
280
     0
281
     0
  0
CLASS
  1
ACAMGTITLESTD
  2
AcAmgTitleStd
  3
"AmgTitle|Product Description: AutoCAD Mechanical|Company: Autodesk"
 90
        0
280
     0
281
     0
  0
CLASS
  1
ACAMGFILTERDAT
  2
AcAmgFilterDat
  3
"AcadM|Product Description: AutoCAD Mechanical|Company: Autodesk"
 90
        0
280
     0
281
     0
  0
CLASS
  1
LAYER_INDEX
  2
AcDbLayerIndex
  3
ObjectDBX Classes
 90
    32768
280
     0
281
     0
  0
CLASS
  1
IDBUFFER
  2
AcDbIdBuffer
  3
ObjectDBX Classes
 90
    32768
280
     0
281
     0
  0
CLASS
  1
PLOTSETTINGS
  2
AcDbPlotSettings
  3
ObjectDBX Classes
 90
    32768
280
     0
281
     0
  0
CLASS
  1
AMDTFORMULAUPDATEDISPATCHER
  2
AmdtFormulaUpdateDispatcher
  3
AcMeServices
 90
        0
280
     0
281
     0
  0
CLASS
  1
ACMSTANDARDANSI
  2
AcmStandardANSI
  3
"Amdt_StdImp|Product Description: AutoCAD Mechanical|Company: Autodesk"
 90
        0
280
     0
281
     0
  0
CLASS
  1
ACMSURFSTANDARDANSI
  2
AcmSurfTextStdANSI
  3
"Amdt_StdImp|Product Description: AutoCAD Mechanical|Company: Autodesk"
 90
        0
280
     0
281
     0
  0
CLASS
  1
ACMFCFSTANDARDANSI
  2
AcmFCFStdANSI
  3
"Amdt_StdImp|Product Description: AutoCAD Mechanical|Company: Autodesk"
 90
        0
280
     0
281
     0
  0
CLASS
  1
ACMWELDSTANDARDANSI
  2
AcmWeldingStdANSI
  3
"Amdt_StdImp|Product Description: AutoCAD Mechanical|Company: Autodesk"
 90
        0
280
     0
281
     0
  0
CLASS
  1
ACMIDSTANDARDANSI
  2
AcmIdStdANSI
  3
"Amdt_StdImp|Product Description: AutoCAD Mechanical|Company: Autodesk"
 90
        0
280
     0
281
     0
  0
CLASS
  1
ACMDATUMSTANDARDANSI
  2
AcmDatumStdANSI
  3
"Amdt_StdImp|Product Description: AutoCAD Mechanical|Company: Autodesk"
 90
        0
280
     0
281
     0
  0
CLASS
  1
ACMBOMSTANDARDANSI
  2
AcmBOMStdANSI
  3
"Amdt_StdImp|Product Description: AutoCAD Mechanical|Company: Autodesk"
 90
        0
280
     0
281
     0
  0
CLASS
  1
ACMDETAILSTANDARDANSI
  2
AmdtDetailSymStdANSI
  3
"Amdt_StdImp|Product Description: AutoCAD Mechanical|Company: Autodesk"
 90
        0
280
     0
281
     0
  0
CLASS
  1
ACMSECTIONSTANDARDANSI
  2
AmdtSectionSymStdANSI
  3
"Amdt_StdImp|Product Description: AutoCAD Mechanical|Company: Autodesk"
 90
        0
280
     0
281
     0
  0
CLASS
  1
ACMCENTERLINESTANDARDANSI
  2
AmdtCenterLineStdANSI
  3
"Amdt_StdImp|Product Description: AutoCAD Mechanical|Company: Autodesk"
 90
        0
280
     0
281
     0
  0
CLASS
  1
ACMBOM
  2
AcmBom
  3
"AcmSymBB|Product Description: AutoCAD Mechanical|Company: Autodesk"
 90
        0
280
     0
281
     0
  0
CLASS
  1
ACMDATAENTRYPART
  2
AcmDataEntryPart
  3
"AcmSymBB|Product Description: AutoCAD Mechanical|Company: Autodesk"
 90
        0
280
     0
281
     0
  0
CLASS
  1
ACMPARTREF
  2
AcmPartRef
  3
"AcmSymBB|Product Description: AutoCAD Mechanical|Company: Autodesk"
 90
    35839
280
     0
281
     1
  0
CLASS
  1
ACDBCIRCARCRES
  2
AcDbCircArcRes
  3
AcGrefServices
 90
    32768
280
     0
281
     0
  0
CLASS
  1
ACMBOMROW
  2
AcmBomRow
  3
"AcmSymBB|Product Description: AutoCAD Mechanical|Company: Autodesk"
 90
    32768
280
     0
281
     0
  0
CLASS
  1
ACMBALLOON
  2
AcmBalloon
  3
"AcmSymBB|Product Description: AutoCAD Mechanical|Company: Autodesk"
 90
    35839
280
     0
281
     1
  0
CLASS
  1
AMDTNOTE
  2
AmdtNote
  3
"AcmSymBB|Product Description: AutoCAD Mechanical|Company: Autodesk"
 90
    35839
280
     0
281
     1
  0
CLASS
  1
STDPART2D
  2
AmgStdPart
  3
"g3vace|Class: AmgStdPart|Product Description: AutoCAD Mechanical|Company: Autodesk"
 90
    35839
280
     0
281
     1
  0
CLASS
  1
ACDBSTDPARTRES_LINE
  2
AcDbStdPartRes_Line
  3
"g3vace|Class: AcDbStdPartRes_Line|Product Description: AutoCAD Mechanical|Company: Autodesk"
 90
    32768
280
     0
281
     0
  0
CLASS
  1
ACMDATAENTRY
  2
AcmDataEntry
  3
"AcmSymBB|Product Description: AutoCAD Mechanical|Company: Autodesk"
 90
        0
280
     0
281
     0
  0
CLASS
  1
ACDBOPPOLYLINERES
  2
AcDbOpPolylineRes
  3
AcGrefServices
 90
    32768
280
     0
281
     0
  0
CLASS
  1
ACMPARTLIST
  2
AcmPartList
  3
"AcmSymBB|Product Description: AutoCAD Mechanical|Company: Autodesk"
 90
    35839
280
     0
281
     1
  0
CLASS
  1
ACDBLINERES
  2
AcDbLineRes
  3
AcGrefServices
 90
        0
280
     0
281
     0
  0
CLASS
  1
ACRFINSADJ
  2
AcRfInsAdjuster
  3
AcMeServices
 90
    32768
280
     0
281
     0
  0
CLASS
  1
AM_DRAWING_MGR
  2
AcDmDwgMgr
  3
AcMechDwgViewMgmt
 90
        0
280
     0
281
     0
  0
CLASS
  1
AM_DWG_DOCUMENT
  2
AcDmDwgDocument
  3
AcMechDwgViewMgmt
 90
        0
280
     0
281
     0
  0
CLASS
  1
AM_DWG_SHEET
  2
AcDmSheet
  3
AcMechDwgViewMgmt
 90
        0
280
     0
281
     0
  0
CLASS
  1
AM_VIEWDIMPARMAP
  2
AcDmViewDimParMap
  3
AcMechDwgViewMgmt
 90
        0
280
     0
281
     0
  0
CLASS
  1
AM_DWGMGR_NAME
  2
AcDmDwgMgrName
  3
AcMechDwgViewMgmt
 90
        0
280
     0
281
     0
  0
CLASS
  1
AMDTMENUSTATEMGR
  2
AmdtMenuStateMgr
  3
McadcomServices
 90
        0
280
     0
281
     0
  0
CLASS
  1
AMDTMCOMMENUSTATE
  2
AmdtMcomMenuState
  3
McadcomServices
 90
        0
280
     0
281
     0
  0
CLASS
  1
ASAPP
  2
AcAsAppObject
  3
AutoSurfServices
 90
        0
280
     0
281
     0
  0
CLASS
  1
IM_STATIC_MAN
  2
AcImStaticVarManager
  3
AcMeServices
 90
        0
280
     0
281
     0
  0
CLASS
  1
ACIMDBLSTATICVAR
  2
AcImDblStaticVar
  3
AcMeServices
 90
        0
280
     0
281
     0
  0
CLASS
  1
ACIMSTRSTATICVAR
  2
AcImStrStaticVar
  3
AcMeServices
 90
        0
280
     0
281
     0
  0
CLASS
  1
ACIMINTSTATICVAR
  2
AcImIntStaticVar
  3
AcMeServices
 90
        0
280
     0
281
     0
  0
CLASS
  1
ACASGREFMASTER
  2
AcAsGrefMaster
  3
AutoSurfResolverServices
 90
        0
280
     0
281
     0
  0
CLASS
  1
ACADGREFMODULE
  2
AcAdGrefModule
  3
AdGrefServices
 90
        0
280
     0
281
     0
  0
CLASS
  1
AMDTMAPISURFMOUDULE
  2
AmdtMApiSurfModule
  3
MApiSurfServices
 90
        0
280
     0
281
     0
  0
CLASS
  1
MAPIAMMOUDLE
  2
MApiAmModule
  3
MApiAmServices
 90
        0
280
     0
281
     0
  0
CLASS
  1
AMDTADMENUSTATE
  2
AmdtAdMenuState
  3
DesignerServices
 90
        0
280
     0
281
     0
  0
CLASS
  1
ADAPPL
  2
AcAdAppl
  3
DesignerServices
 90
        0
280
     0
281
     0
  0
CLASS
  1
DEPMGR
  2
AcAdDepMgr
  3
DesignerServices
 90
        0
280
     0
281
     0
  0
CLASS
  1
PARAMMGR
  2
AcAdParamMgr
  3
DesignerServices
 90
        0
280
     0
281
     0
  0
CLASS
  1
PARAMSCOPE
  2
AcAdParamScope
  3
DesignerServices
 90
        0
280
     0
281
     0
  0
CLASS
  1
NAMEDAPPL
  2
AcAdNamedAppl
  3
DesignerServices
 90
        0
280
     0
281
     0
  0
CLASS
  1
ADHNTMPLT
  2
AdHoleNoteTemplateMgr
  3
DesignerServices
 90
    32768
280
     0
281
     0
  0
CLASS
  1
AM_HNTEMPLATE_MGR_NAME
  2
AdHoleNoteTemplateMgrName
  3
DesignerServices
 90
    32768
280
     0
281
     0
  0
CLASS
  1
AMDTDMMENUSTATE
  2
AmdtDmMenuState
  3
AcMechDwgViewMgmt
 90
        0
280
     0
281
     0
  0
CLASS
  1
MAPIADMODULE
  2
MApiAdModule
  3
MApiAdServices
 90
        0
280
     0
281
     0
  0
CLASS
  1
AMDTAMMENUSTATE
  2
AmdtAmMenuState
  3
DesignerAssemblies
 90
        0
280
     0
281
     0
  0
CLASS
  1
ACAMPROJECT
  2
AcAmProject
  3
DesignerAssemblies
 90
        0
280
     0
281
     0
  0
CLASS
  1
ACAMGRCOMPDEF
  2
AcAmGrCompDef
  3
DesignerAssemblies
 90
        0
280
     0
281
     0
  0
CLASS
  1
ACCMCONTEXT
  2
AcCmContext
  3
DesignerAssemblies
 90
        0
280
     0
281
     0
  0
CLASS
  1
ACAMCOMPDEF
  2
AcAmCompDef
  3
DesignerAssemblies
 90
        0
280
     0
281
     0
  0
CLASS
  1
ACAMCOMPDEFMGR
  2
AcAmCompDefMgr
  3
DesignerAssemblies
 90
        0
280
     0
281
     0
  0
CLASS
  1
AMCONTEXTMGR
  2
AcAmContextMgr
  3
DesignerAssemblies
 90
        0
280
     0
281
     0
  0
CLASS
  1
ACAMCONTEXTMODELER
  2
AcAmContextModeler
  3
DesignerAssemblies
 90
        0
280
     0
281
     0
  0
CLASS
  1
CATALOGSTATE
  2
AcAmCatalogState
  3
DesignerAssemblies
 90
        0
280
     0
281
     0
  0
CLASS
  1
ACAMGRCOMPDEFSET
  2
AcAmGrCompDefSet
  3
DesignerAssemblies
 90
        0
280
     0
281
     0
  0
CLASS
  1
AMDTBROWSERDBTAB
  2
AmdtBrowserDbTab
  3
McadcomServices
 90
        0
280
     0
281
     0
  0
CLASS
  1
CBROWSERAPPOBJECT
  2
CBrowserAppObject
  3
McadcomServices
 90
        0
280
     0
281
     0
  0
CLASS
  1
DM_PLACEHOLDER
  2
AcDmSelsetPlaceholder
  3
AcMechDwgViewMgmt
 90
        0
280
     0
281
     0
  0
CLASS
  1
ACMPICKOBJ
  2
AcmPickEnt
  3
"AcmSymBB|Product Description: AutoCAD Mechanical|Company: Autodesk"
 90
    32768
280
     0
281
     1
  0
CLASS
  1
ACMNOTESTANDARDISO
  2
AmdtNoteStdISO
  3
"Amdt_StdImp|Product Description: AutoCAD Mechanical|Company: Autodesk"
 90
        0
280
     0
281
     0
  0
CLASS
  1
ACMNOTESTANDARDANSI
  2
AmdtNoteStdANSI
  3
"Amdt_StdImp|Product Description: AutoCAD Mechanical|Company: Autodesk"
 90
        0
280
     0
281
     0
  0
CLASS
  1
ACMTHREADLINESTANDARDISO
  2
AmdtThreadLineStdISO
  3
"Amdt_StdImp|Product Description: AutoCAD Mechanical|Company: Autodesk"
 90
        0
280
     0
281
     0
  0
CLASS
  1
ACMTHREADLINESTANDARDANSI
  2
AmdtThreadLineStdANSI
  3
"Amdt_StdImp|Product Description: AutoCAD Mechanical|Company: Autodesk"
 90
        0
280
     0
281
     0
  0
CLASS
  1
TABLESTYLE
  2
AcDbTableStyle
  3
ObjectDBX Classes
 90
     4095
280
     0
281
     0
  0
CLASS
  1
SORTENTSTABLE
  2
AcDbSortentsTable
  3
ObjectDBX Classes
 90
        0
280
     0
281
     0
  0
CLASS
  1
MATERIAL
  2
AcDbMaterial
  3
ObjectDBX Classes
 90
     1024
280
     0
281
     0
  0
CLASS
  1
VISUALSTYLE
  2
AcDbVisualStyle
  3
ObjectDBX Classes
 90
     4095
280
     0
281
     0
  0
CLASS
  1
ACRFATTGENMGR
  2
AcRfAttGeneralMgr
  3
AcAttribServices
 90
        0
280
     0
281
     0
  0
CLASS
  1
ACRFOBJATTMGR
  2
AcRfObjAttGroupMgr
  3
AcAttribServices
 90
        0
280
     0
281
     0
  0
CLASS
  1
ACRFMCADAPIATTHOLDER
  2
AcRfMCADAPIAttHolder
  3
AcAttribServices
 90
        0
280
     0
281
     0
  0
CLASS
  1
AMDTSYSATTR
  2
AmdtSystemAttribute
  3
AcAttribServices
 90
        0
280
     0
281
     0
  0
CLASS
  1
ACMTAPERSTANDARDISO
  2
AcmTaperStdISO
  3
"Amdt_StdImp|Product Description: AutoCAD Mechanical|Company: Autodesk"
 90
        0
280
     0
281
     0
  0
CLASS
  1
CAMSSTRUCTBTNSTATE
  2
StructBtnState
  3
L"DesignerAssemblies"
 90
        0
280
     0
281
     0
  0
CLASS
  1
DIMASSOC
  2
AcDbDimAssoc
  3
"AcDbDimAssoc|Product Desc:     AcDim ARX App For Dimension|Company:          Autodesk, Inc.|WEB Address:      www.autodesk.com"
 90
    32768
280
     0
281
     0
  0
CLASS
  1
AMDTNOTETEMPLATEDB
  2
AmdtNoteTemplateDB
  3
AMDT_STDIMP_MODULE_NAME
 90
        0
280
     0
281
     0
  0
CLASS
  1
SCALE
  2
AcDbScale
  3
ObjectDBX Classes
 90
     1153
280
     0
281
     0
  0
CLASS
  1
MLEADERSTYLE
  2
AcDbMLeaderStyle
  3
ACDB_MLEADERSTYLE_CLASS
 90
     4095
280
     0
281
     0
  0
CLASS
  1
ACMANOOTATIONVIEWSTANDARDISO
  2
AmdtAnViewStdISO
  3
"Amdt_StdImp|Product Description: AutoCAD Mechanical|Company: Autodesk, Inc."
 90
    33792
280
     0
281
     0
  0
CLASS
  1
CELLSTYLEMAP
  2
AcDbCellStyleMap
  3
ObjectDBX Classes
 90
     1152
280
     0
281
     0
  0
CLASS
  1
ACMTAPERSTANDARDANSI
  2
AcmTaperStdANSI
  3
"Amdt_StdImp|Product Description: AutoCAD Mechanical|Company: Autodesk"
 90
        0
280
     0
281
     0
  0
CLASS
  1
ACMANOOTATIONVIEWSTANDARDANSI
  2
AmdtAnViewStdANSI
  3
"Amdt_StdImp|Product Description: AutoCAD Mechanical|Company: Autodesk, Inc."
 90
    33792
280
     0
281
     0
  0
CLASS
  1
ACAMGHOLECHARTSTDANSI
  2
AcAmgHoleChartStdANSI
  3
ACMSYMBB_MODULE_NAME
 90
        0
280
     0
281
     0
  0
CLASS
  1
AMDTEDGESTANDARDISO13715
  2
AmdtEdgeStdISO13715
  3
"Amdt_StdImp|Product Description: AutoCAD Mechanical|Company: Autodesk"
 90
        0
280
     0
281
     0
  0
CLASS
  1
ACMSURFSTANDARDISO2002
  2
AcmSurfTextStdISO2002
  3
"Amdt_StdImp|Product Description: AutoCAD Mechanical|Company: Autodesk, Inc."
 90
    33792
280
     0
281
     0
  0
CLASS
  1
ACMSECTIONSTANDARDISO2001
  2
AmdtSectionSymStdISO2001
  3
"Amdt_StdImp|Product Description: AutoCAD Mechanical|Company: Autodesk, Inc."
 90
    33792
280
     0
281
     0
  0
CLASS
  1
ACAMGHOLECHARTSTDISO
  2
AcAmgHoleChartStdISO
  3
ACMSYMBB_MODULE_NAME
 90
        0
280
     0
281
     0
  0
ENDSEC
  0
SECTION
  2
TABLES
  0
TABLE
  2
VPORT
  5
8
330
0
100
AcDbSymbolTable
 70
     1
  0
VPORT
  5
B0EC
330
8
100
AcDbSymbolTableRecord
100
AcDbViewportTableRecord
  2
*Active
 70
     0
 10
0.0
 20
0.0
 11
1.0
 21
1.0
 12
210.0000056232111
 22
148.4955428636658
 13
0.0
 23
0.0
 14
2.5
 24
2.5
 15
10.0
 25
10.0
 16
0.0
 26
0.0
 36
1.0
 17
0.0
 27
0.0
 37
0.0
 40
299.2180698916757
 41
1.648648648648648
 42
50.0
 43
-1370.695619172058
 44
-1370.695619172058
 50
0.0
 51
0.0
 71
     0
 72
   100
 73
     1
 74
     3
 75
     0
 76
     0
 77
     0
 78
     0
281
     0
 65
     0
110
0.0
120
0.0
130
0.0
111
1.0
121
0.0
131
0.0
112
0.0
122
1.0
132
0.0
 79
     0
146
0.0
  0
ENDTAB
  0
TABLE
  2
LTYPE
  5
5
330
0
100
AcDbSymbolTable
 70
    24
  0
LTYPE
  5
14
330
5
100
AcDbSymbolTableRecord
100
AcDbLinetypeTableRecord
  2
ByBlock
 70
     0
  3

 72
    65
 73
     0
 40
0.0
  0
LTYPE
  5
15
330
5
100
AcDbSymbolTableRecord
100
AcDbLinetypeTableRecord
  2
ByLayer
 70
     0
  3

 72
    65
 73
     0
 40
0.0
  0
LTYPE
  5
16
330
5
100
AcDbSymbolTableRecord
100
AcDbLinetypeTableRecord
  2
Continuous
 70
     0
  3
Solid line
 72
    65
 73
     0
 40
0.0
  0
LTYPE
  5
4F
330
5
100
AcDbSymbolTableRecord
100
AcDbLinetypeTableRecord
  2
AM_ISO02W050
 70
     0
  3
__ __ __ __ __ __ __ __ __ __ __ __ __ __ __
 72
    65
 73
     2
 40
7.5
 49
6.0
 74
     0
 49
-1.5
 74
     0
  0
LTYPE
  5
52
330
5
100
AcDbSymbolTableRecord
100
AcDbLinetypeTableRecord
  2
Amconstr
 70
     0
  3
_______________________
 72
    65
 73
     2
 40
9999.0
 49
9999.0
 74
     0
 49
0.0
 74
     0
  0
LTYPE
  5
64
330
5
100
AcDbSymbolTableRecord
100
AcDbLinetypeTableRecord
  2
ACISOWELD
 70
     0
  3
_ _ _ _ _
 72
    65
 73
     2
 40
2.0
 49
2.0
 74
     0
 49
-1.0
 74
     0
  0
LTYPE
  5
65
330
5
100
AcDbSymbolTableRecord
100
AcDbLinetypeTableRecord
  2
ACISOTGB
 70
     0
  3
__ . . __ . .
 72
    65
 73
     6
 40
9.0
 49
4.0
 74
     0
 49
-1.0
 74
     0
 49
1.0
 74
     0
 49
-1.0
 74
     0
 49
1.0
 74
     0
 49
-1.0
 74
     0
  0
LTYPE
  5
66
330
5
100
AcDbSymbolTableRecord
100
AcDbLinetypeTableRecord
  2
ACISOTGL
 70
     0
  3
_ _ _ _ _
 72
    65
 73
     2
 40
3.0
 49
2.0
 74
     0
 49
-1.0
 74
     0
  0
LTYPE
  5
69
330
5
100
AcDbSymbolTableRecord
100
AcDbLinetypeTableRecord
  2
CENTER
 70
     0
  3
__ . __
 72
    65
 73
     4
 40
7.0
 49
4.0
 74
     0
 49
-1.0
 74
     0
 49
1.0
 74
     0
 49
-1.0
 74
     0
  0
LTYPE
  5
A6E
330
5
100
AcDbSymbolTableRecord
100
AcDbLinetypeTableRecord
  2
PHANTOM2
 70
     0
  3
Phantom (.5x) ___ _ _ ___ _ _ ___ _ _ ___ _ _
 72
    65
 73
     6
 40
31.75
 49
15.875
 74
     0
 49
-3.174999999999999
 74
     0
 49
3.174999999999999
 74
     0
 49
-3.174999999999999
 74
     0
 49
3.174999999999999
 74
     0
 49
-3.174999999999999
 74
     0
  0
LTYPE
  5
4DED
330
5
100
AcDbSymbolTableRecord
100
AcDbLinetypeTableRecord
  2
中線
 70
     0
  3
___________________
 72
    65
 73
     2
 40
2.0
 49
1.0
 74
     0
 49
1.0
 74
     0
  0
LTYPE
  5
4DF6
330
5
100
AcDbSymbolTableRecord
100
AcDbLinetypeTableRecord
  2
細線
 70
     0
  3
___________________
 72
    65
 73
     2
 40
2.0
 49
1.0
 74
     0
 49
1.0
 74
     0
  0
LTYPE
  5
4DF7
330
5
100
AcDbSymbolTableRecord
100
AcDbLinetypeTableRecord
  2
太線
 70
     0
  3
___________________
 72
    65
 73
     2
 40
2.0
 49
1.0
 74
     0
 49
1.0
 74
     0
  0
LTYPE
  5
4EA7
330
5
100
AcDbSymbolTableRecord
100
AcDbLinetypeTableRecord
  2
文字
 70
     0
  3
_________________
 72
    65
 73
     2
 40
2.0
 49
1.0
 74
     0
 49
1.0
 74
     0
  0
LTYPE
  5
4EA9
330
5
100
AcDbSymbolTableRecord
100
AcDbLinetypeTableRecord
  2
寸法線
 70
     0
  3
________________
 72
    65
 73
     2
 40
2.0
 49
1.0
 74
     0
 49
1.0
 74
     0
  0
LTYPE
  5
4F12
330
5
100
AcDbSymbolTableRecord
100
AcDbLinetypeTableRecord
  2
ハッチング
 70
     0
  3
_________________
 72
    65
 73
     2
 40
2.0
 49
1.0
 74
     0
 49
1.0
 74
     0
  0
LTYPE
  5
5180
330
5
100
AcDbSymbolTableRecord
100
AcDbLinetypeTableRecord
  2
陰線1
 70
     0
  3
__ __ __ __
 72
    65
 73
     2
 40
4.0
 49
2.2
 74
     0
 49
-1.8
 74
     0
  0
LTYPE
  5
5182
330
5
100
AcDbSymbolTableRecord
100
AcDbLinetypeTableRecord
  2
切断線
 70
     0
  3
/\/-/\/-/\/-/\/-/\/-/\/
 72
    65
 73
     2
 40
11.0001
 49
0.0001
 74
     4
 75
   135
340
56
 46
0.04
 50
0.0
 44
0.0
 45
0.0
 49
-11.0
 74
     0
  0
LTYPE
  5
5183
330
5
100
AcDbSymbolTableRecord
100
AcDbLinetypeTableRecord
  2
想像線1
 70
     0
  3
__ __ __ _____ __ __ ____
 72
    65
 73
     6
 40
14.5
 49
6.0
 74
     0
 49
-1.5
 74
     0
 49
2.0
 74
     0
 49
-1.5
 74
     0
 49
2.0
 74
     0
 49
-1.5
 74
     0
  0
LTYPE
  5
5185
330
5
100
AcDbSymbolTableRecord
100
AcDbLinetypeTableRecord
  2
中心線1
 70
     0
  3
___ _ ___ _ ___
 72
    65
 73
     4
 40
18.0
 49
12.0
 74
     0
 49
-2.0
 74
     0
 49
2.0
 74
     0
 49
-2.0
 74
     0
  0
LTYPE
  5
5188
330
5
100
AcDbSymbolTableRecord
100
AcDbLinetypeTableRecord
  2
補助線
 70
     0
  3
______________
 72
    65
 73
     2
 40
2.0
 49
1.0
 74
     0
 49
1.0
 74
     0
  0
LTYPE
  5
6427
330
5
100
AcDbSymbolTableRecord
100
AcDbLinetypeTableRecord
  2
HIDDEN
 70
     0
  3
Hidden __ __ __ __ __ __ __ __ __ __ __ __ __ _
 72
    65
 73
     2
 40
0.375
 49
0.25
 74
     0
 49
-0.125
 74
     0
  0
LTYPE
  5
AF95
330
5
100
AcDbSymbolTableRecord
100
AcDbLinetypeTableRecord
  2
AM_ISO08W050
 70
     0
  3
____ . ____ . ____ . ____ . ____ . ____ . ____
 72
    65
 73
     4
 40
18.0
 49
12.0
 74
     0
 49
-1.5
 74
     0
 49
3.0
 74
     0
 49
-1.5
 74
     0
  0
LTYPE
  5
BEE5
330
5
100
AcDbSymbolTableRecord
100
AcDbLinetypeTableRecord
  2
ACANSTGB
 70
     0
  3
__ . . __ . .
 72
    65
 73
     6
 40
0.35433070866
 49
0.15748031496
 74
     0
 49
-0.03937007874
 74
     0
 49
0.03937007874
 74
     0
 49
-0.03937007874
 74
     0
 49
0.03937007874
 74
     0
 49
-0.03937007874
 74
     0
  0
LTYPE
  5
BEE6
330
5
100
AcDbSymbolTableRecord
100
AcDbLinetypeTableRecord
  2
ACANSTGL
 70
     0
  3
_ _ _ _ _
 72
    65
 73
     2
 40
0.11811023622
 49
0.07874015748
 74
     0
 49
-0.03937007874
 74
     0
  0
LTYPE
  5
FF63
330
5
100
AcDbSymbolTableRecord
100
AcDbLinetypeTableRecord
  2
CHAIN
 70
     0
  3
Chain ____ _ ____ _ ____ _ ____ _ ____ _ ____
 72
    65
 73
     4
 40
0.3543
 49
0.2362
 74
     0
 49
-0.0295
 74
     0
 49
0.0591
 74
     0
 49
-0.0295
 74
     0
  0
ENDTAB
  0
TABLE
  2
LAYER
  5
2
102
{ACAD_XDICTIONARY
360
3F95
102
}
330
0
100
AcDbSymbolTable
 70
    12
  0
LAYER
  5
10
102
{ACAD_XDICTIONARY
360
E250
102
}
330
2
100
AcDbSymbolTableRecord
100
AcDbLayerTableRecord
  2
0
 70
     0
 62
     7
  6
Continuous
370
    -3
390
F
  0
LAYER
  5
6D1
330
2
100
AcDbSymbolTableRecord
100
AcDbLayerTableRecord
  2
Defpoints
 70
     0
 62
     7
  6
Continuous
290
     0
370
    -3
390
F
  0
LAYER
  5
5F85
102
{ACAD_XDICTIONARY
360
E252
102
}
330
2
100
AcDbSymbolTableRecord
100
AcDbLayerTableRecord
  2
AM_0
 70
     0
 62
     7
  6
中線
370
    30
390
F
1001
AcAecLayerStandard
1000

1000

  0
LAYER
  5
AC9F
102
{ACAD_XDICTIONARY
360
E254
102
}
330
2
100
AcDbSymbolTableRecord
100
AcDbLayerTableRecord
  2
size
 70
     0
 62
     5
  6
Continuous
290
     0
370
    25
390
F
  0
LAYER
  5
ACA0
102
{ACAD_XDICTIONARY
360
E256
102
}
330
2
100
AcDbSymbolTableRecord
100
AcDbLayerTableRecord
  2
waku
 70
     0
 62
     7
  6
Continuous
370
    35
390
F
  0
LAYER
  5
ACA1
102
{ACAD_XDICTIONARY
360
E258
102
}
330
2
100
AcDbSymbolTableRecord
100
AcDbLayerTableRecord
  2
AM_6
 70
     0
 62
     2
  6
文字
370
    13
390
F
1001
AcAecLayerStandard
1000

1000

  0
LAYER
  5
AD64
102
{ACAD_XDICTIONARY
360
E262
102
}
330
2
100
AcDbSymbolTableRecord
100
AcDbLayerTableRecord
  2
AM_2
 70
     0
 62
     1
  6
細線
370
    13
390
F
1001
AcAecLayerStandard
1000

1000

  0
LAYER
  5
AD68
102
{ACAD_XDICTIONARY
360
E266
102
}
330
2
100
AcDbSymbolTableRecord
100
AcDbLayerTableRecord
  2
AM_5
 70
     0
 62
     3
  6
寸法線
370
    13
390
F
1001
AcAecLayerStandard
1000

1000

  0
LAYER
  5
AD69
102
{ACAD_XDICTIONARY
360
E268
102
}
330
2
100
AcDbSymbolTableRecord
100
AcDbLayerTableRecord
  2
AM_7
 70
     0
 62
     4
  6
中心線1
370
    13
390
F
1001
AcAecLayerStandard
1000

1000

  0
LAYER
  5
AD6A
102
{ACAD_XDICTIONARY
360
E26A
102
}
330
2
100
AcDbSymbolTableRecord
100
AcDbLayerTableRecord
  2
AM_8
 70
     0
 62
     1
  6
ハッチング
370
    13
390
F
1001
AcAecLayerStandard
1000

1000

  0
LAYER
  5
BEEA
102
{ACAD_XDICTIONARY
360
E27C
102
}
330
2
100
AcDbSymbolTableRecord
100
AcDbLayerTableRecord
  2
DV1__Translation
 70
     1
 62
    -7
  6
Continuous
370
    -3
390
F
  0
LAYER
  5
BEEB
102
{ACAD_XDICTIONARY
360
E27E
102
}
330
2
100
AcDbSymbolTableRecord
100
AcDbLayerTableRecord
  2
DV1_寸法線
 70
     0
 62
     7
  6
Continuous
370
    -3
390
F
  0
ENDTAB
  0
TABLE
  2
STYLE
  5
3
330
0
100
AcDbSymbolTable
 70
     9
  0
STYLE
  5
11
330
3
100
AcDbSymbolTableRecord
100
AcDbTextStyleTableRecord
  2
STANDARD
 70
     0
 40
0.0
 41
0.7
 50
0.0
 71
     0
 42
3.2
  3
romans.shx
  4
extfont.shx
  0
STYLE
  5
56
330
3
100
AcDbSymbolTableRecord
100
AcDbTextStyleTableRecord
  2

 70
     1
 40
0.0
 41
1.0
 50
0.0
 71
     0
 42
2.5
  3
ltypeshp.shx
  4

  0
STYLE
  5
58
330
3
100
AcDbSymbolTableRecord
100
AcDbTextStyleTableRecord
  2
ACISOTS
 70
     0
 40
1.0
 41
1.0
 50
0.0
 71
     0
 42
2.5
  3
isocp.shx
  4
extfont.shx
  0
STYLE
  5
63
330
3
100
AcDbSymbolTableRecord
100
AcDbTextStyleTableRecord
  2
ACISOGDT
 70
     0
 40
0.0
 41
1.0
 50
0.0
 71
     0
 42
2.5
  3
amgdt.shx
  4

  0
STYLE
  5
A74
330
3
100
AcDbSymbolTableRecord
100
AcDbTextStyleTableRecord
  2
DIM
 70
     0
 40
0.0
 41
1.0
 50
0.0
 71
     0
 42
2.5
  3
monotxt.shx
  4
extfont.shx
  0
STYLE
  5
BEF2
330
3
100
AcDbSymbolTableRecord
100
AcDbTextStyleTableRecord
  2
SEACAD_Arial
 70
     0
 40
0.0
 41
1.0
 50
0.0
 71
     0
 42
0.2
  3
ARIAL.TTF
  4

1001
ACAD
1000
Arial
1071
        0
  0
STYLE
  5
BEF3
330
3
100
AcDbSymbolTableRecord
100
AcDbTextStyleTableRecord
  2
SEACAD_Solid_Edge_ANSI1_Symbols
 70
     0
 40
0.0
 41
1.0
 50
0.0
 71
     0
 42
0.2
  3

  4

1001
ACAD
1000
Solid Edge ANSI1 Symbols
1071
        0
  0
STYLE
  5
BEF5
330
3
100
AcDbSymbolTableRecord
100
AcDbTextStyleTableRecord
  2
ACANSTS
 70
     0
 40
1.0
 41
1.0
 50
0.0
 71
     0
 42
0.2
  3
romans.shx
  4
extfont.shx
  0
STYLE
  5
BEF6
330
3
100
AcDbSymbolTableRecord
100
AcDbTextStyleTableRecord
  2
ACANSGDT
 70
     0
 40
0.0
 41
1.0
 50
0.0
 71
     0
 42
0.2
  3
amgdt.shx
  4

  0
ENDTAB
  0
TABLE
  2
VIEW
  5
6
330
0
100
AcDbSymbolTable
 70
     6
  0
VIEW
  5
AE1
330
6
100
AcDbSymbolTableRecord
100
AcDbViewTableRecord
  2
AM_VIEW1
 70
     0
 40
148.5
 10
121.0750262329485
 20
222.75
 41
242.1500524658971
 11
0.0
 21
0.0
 31
1.0
 12
0.0
 22
0.0
 32
0.0
 42
50.0
 43
-1370.695619172058
 44
-1370.695619172058
 50
0.0
 71
     0
281
     0
 72
     0
  0
VIEW
  5
AE2
330
6
100
AcDbSymbolTableRecord
100
AcDbViewTableRecord
  2
AM_VIEW2
 70
     0
 40
148.5
 10
298.9249737670514
 20
222.75
 41
242.1500524658971
 11
0.0
 21
0.0
 31
1.0
 12
0.0
 22
0.0
 32
0.0
 42
50.0
 43
-1370.695619172058
 44
-1370.695619172058
 50
0.0
 71
     0
281
     0
 72
     0
  0
VIEW
  5
AE3
330
6
100
AcDbSymbolTableRecord
100
AcDbViewTableRecord
  2
AM_VIEW3
 70
     0
 40
148.5
 10
121.0750262329485
 20
74.25
 41
242.1500524658971
 11
0.0
 21
0.0
 31
1.0
 12
0.0
 22
0.0
 32
0.0
 42
50.0
 43
-1370.695619172058
 44
-1370.695619172058
 50
0.0
 71
     0
281
     0
 72
     0
  0
VIEW
  5
AE4
330
6
100
AcDbSymbolTableRecord
100
AcDbViewTableRecord
  2
AM_VIEW4
 70
     0
 40
148.5
 10
298.9249737670514
 20
74.25
 41
242.1500524658971
 11
0.0
 21
0.0
 31
1.0
 12
0.0
 22
0.0
 32
0.0
 42
50.0
 43
-1370.695619172058
 44
-1370.695619172058
 50
0.0
 71
     0
281
     0
 72
     0
  0
VIEW
  5
AE5
330
6
100
AcDbSymbolTableRecord
100
AcDbViewTableRecord
  2
AM_VIEW5
 70
     0
 40
148.5
 10
210.0
 20
148.5
 41
242.1500524658971
 11
0.0
 21
0.0
 31
1.0
 12
0.0
 22
0.0
 32
0.0
 42
50.0
 43
-1370.695619172058
 44
-1370.695619172058
 50
0.0
 71
     0
281
     0
 72
     0
  0
VIEW
  5
AE6
330
6
100
AcDbSymbolTableRecord
100
AcDbViewTableRecord
  2
AM_VIEW6
 70
     0
 40
296.99703
 10
210.0
 20
148.5
 41
484.295261930745
 11
0.0
 21
0.0
 31
1.0
 12
0.0
 22
0.0
 32
0.0
 42
50.0
 43
-1370.695619172058
 44
-1370.695619172058
 50
0.0
 71
     0
281
     0
 72
     0
  0
ENDTAB
  0
TABLE
  2
UCS
  5
7
330
0
100
AcDbSymbolTable
 70
     0
  0
ENDTAB
  0
TABLE
  2
APPID
  5
9
330
0
100
AcDbSymbolTable
 70
    60
  0
APPID
  5
12
330
9
100
AcDbSymbolTableRecord
100
AcDbRegAppTableRecord
  2
ACAD
 70
     0
  0
APPID
  5
30
330
9
100
AcDbSymbolTableRecord
100
AcDbRegAppTableRecord
  2
MCAD_NO_VIS
 70
     0
  0
APPID
  5
31
330
9
100
AcDbSymbolTableRecord
100
AcDbRegAppTableRecord
  2
ACAD_TEMP_GRAPHIC
 70
     0
  0
APPID
  5
44
330
9
100
AcDbSymbolTableRecord
100
AcDbRegAppTableRecord
  2
ACATTRIBSERVICES
 70
     0
  0
APPID
  5
7A1
330
9
100
AcDbSymbolTableRecord
100
AcDbRegAppTableRecord
  2
GENIUS_GENDIMSH_14
 70
     0
  0
APPID
  5
A49
330
9
100
AcDbSymbolTableRecord
100
AcDbRegAppTableRecord
  2
GENIUS_GENREC_14
 70
     0
  0
APPID
  5
A4A
330
9
100
AcDbSymbolTableRecord
100
AcDbRegAppTableRecord
  2
GENIUS_GENOBJ-N-REC_13
 70
     0
  0
APPID
  5
A4B
330
9
100
AcDbSymbolTableRecord
100
AcDbRegAppTableRecord
  2
GENIUS_GENODEF_13
 70
     0
  0
APPID
  5
A4C
330
9
100
AcDbSymbolTableRecord
100
AcDbRegAppTableRecord
  2
DCO15
 70
     0
  0
APPID
  5
ADC
330
9
100
AcDbSymbolTableRecord
100
AcDbRegAppTableRecord
  2
GENIUS_GENOLIS_13
 70
     0
  0
APPID
  5
ADD
330
9
100
AcDbSymbolTableRecord
100
AcDbRegAppTableRecord
  2
GENIUS_GENOENT_13
 70
     0
  0
APPID
  5
ADE
330
9
100
AcDbSymbolTableRecord
100
AcDbRegAppTableRecord
  2
GENIUS_GENOBJ-N-TIT_13
 70
     0
  0
APPID
  5
ADF
330
9
100
AcDbSymbolTableRecord
100
AcDbRegAppTableRecord
  2
GENIUS_GENTITLE_13
 70
     0
  0
APPID
  5
AE0
330
9
100
AcDbSymbolTableRecord
100
AcDbRegAppTableRecord
  2
GENIUS_GENOREF_13
 70
     0
  0
APPID
  5
AE7
330
9
100
AcDbSymbolTableRecord
100
AcDbRegAppTableRecord
  2
GENIUS_GENSCREG_15
 70
     0
  0
APPID
  5
AE8
330
9
100
AcDbSymbolTableRecord
100
AcDbRegAppTableRecord
  2
GENIUS_GENOBJ-N-SDF_13
 70
     0
  0
APPID
  5
FAF
330
9
100
AcDbSymbolTableRecord
100
AcDbRegAppTableRecord
  2
GENIUS_GENBLLY_14
 70
     0
  0
APPID
  5
FB0
330
9
100
AcDbSymbolTableRecord
100
AcDbRegAppTableRecord
  2
GENIUS_GENTRA_14
 70
     0
  0
APPID
  5
1285
330
9
100
AcDbSymbolTableRecord
100
AcDbRegAppTableRecord
  2
GENIUS_GENDTOL_13
 70
     0
  0
APPID
  5
142D
330
9
100
AcDbSymbolTableRecord
100
AcDbRegAppTableRecord
  2
GENIUS_GENOBJ-N-CEN_13
 70
     0
  0
APPID
  5
1AB5
330
9
100
AcDbSymbolTableRecord
100
AcDbRegAppTableRecord
  2
GENIUS_GENOBJ-N-CRS_13
 70
     0
  0
APPID
  5
1B36
330
9
100
AcDbSymbolTableRecord
100
AcDbRegAppTableRecord
  2
GENIUS_GENOBJ-N-HTC_13
 70
     0
  0
APPID
  5
1B37
330
9
100
AcDbSymbolTableRecord
100
AcDbRegAppTableRecord
  2
GENIUS_GENHATCH_13
 70
     0
  0
APPID
  5
216D
330
9
100
AcDbSymbolTableRecord
100
AcDbRegAppTableRecord
  2
GENIUS_GENOBJ-N-FIL_13
 70
     0
  0
APPID
  5
2356
330
9
100
AcDbSymbolTableRecord
100
AcDbRegAppTableRecord
  2
GEVID990412420
 70
     0
  0
APPID
  5
2357
330
9
100
AcDbSymbolTableRecord
100
AcDbRegAppTableRecord
  2
GEVDC
 70
     0
  0
APPID
  5
2358
330
9
100
AcDbSymbolTableRecord
100
AcDbRegAppTableRecord
  2
GEVCON
 70
     0
  0
APPID
  5
235B
330
9
100
AcDbSymbolTableRecord
100
AcDbRegAppTableRecord
  2
GEVRADREF
 70
     0
  0
APPID
  5
2360
330
9
100
AcDbSymbolTableRecord
100
AcDbRegAppTableRecord
  2
GENIUS_GENBH_13
 70
     0
  0
APPID
  5
2362
330
9
100
AcDbSymbolTableRecord
100
AcDbRegAppTableRecord
  2
GENIUS_GENOBJ-NBEHI-BHF_13
 70
     0
  0
APPID
  5
2364
330
9
100
AcDbSymbolTableRecord
100
AcDbRegAppTableRecord
  2
GENIUS_GENOBJ-NBEHI-BHB_13
 70
     0
  0
APPID
  5
2379
330
9
100
AcDbSymbolTableRecord
100
AcDbRegAppTableRecord
  2
GENIUS_GENOBJ-F-SCPASSM_13
 70
     0
  0
APPID
  5
3D74
330
9
100
AcDbSymbolTableRecord
100
AcDbRegAppTableRecord
  2
GENIUS_GENDIM_13
 70
     0
  0
APPID
  5
3D76
330
9
100
AcDbSymbolTableRecord
100
AcDbRegAppTableRecord
  2
GENIUS_GE3DTOL_13
 70
     0
  0
APPID
  5
3D9C
330
9
100
AcDbSymbolTableRecord
100
AcDbRegAppTableRecord
  2
AD_DRAW
 70
     0
  0
APPID
  5
3DE8
330
9
100
AcDbSymbolTableRecord
100
AcDbRegAppTableRecord
  2
ASURF_PCURVE_APPNAME
 70
     0
  0
APPID
  5
3DED
330
9
100
AcDbSymbolTableRecord
100
AcDbRegAppTableRecord
  2
AMG_3D2D_5.0
 70
     0
  0
APPID
  5
3E1B
330
9
100
AcDbSymbolTableRecord
100
AcDbRegAppTableRecord
  2
DESIGNERASSEMBLIES
 70
     0
  0
APPID
  5
3E20
330
9
100
AcDbSymbolTableRecord
100
AcDbRegAppTableRecord
  2
ACADM_DIM_EDIT
 70
     0
  0
APPID
  5
3E21
330
9
100
AcDbSymbolTableRecord
100
AcDbRegAppTableRecord
  2
AMDT_DM_ADJ
 70
     0
  0
APPID
  5
4143
330
9
100
AcDbSymbolTableRecord
100
AcDbRegAppTableRecord
  2
GENIUS_GENFIL_13
 70
     0
  0
APPID
  5
4144
330
9
100
AcDbSymbolTableRecord
100
AcDbRegAppTableRecord
  2
GENIUS_GENOBJ-N-CHA_13
 70
     0
  0
APPID
  5
4E17
330
9
100
AcDbSymbolTableRecord
100
AcDbRegAppTableRecord
  2
GEVID1008153417
 70
     0
  0
APPID
  5
4E58
330
9
100
AcDbSymbolTableRecord
100
AcDbRegAppTableRecord
  2
GEVID1008153418
 70
     0
  0
APPID
  5
4E5E
330
9
100
AcDbSymbolTableRecord
100
AcDbRegAppTableRecord
  2
GEVID1008153419
 70
     0
  0
APPID
  5
4E64
330
9
100
AcDbSymbolTableRecord
100
AcDbRegAppTableRecord
  2
GEVID1008153420
 70
     0
  0
APPID
  5
4E75
330
9
100
AcDbSymbolTableRecord
100
AcDbRegAppTableRecord
  2
GEVID1008153421
 70
     0
  0
APPID
  5
4EB7
330
9
100
AcDbSymbolTableRecord
100
AcDbRegAppTableRecord
  2
GENIUS_AMGTXT_16
 70
     0
  0
APPID
  5
7645
330
9
100
AcDbSymbolTableRecord
100
AcDbRegAppTableRecord
  2
GENIUS_GENOBJ-N-DIM_13
 70
     0
  0
APPID
  5
AAD0
330
9
100
AcDbSymbolTableRecord
100
AcDbRegAppTableRecord
  2
ACAD_DSTYLE_DIMARC_LENGTH_SYMBOL
 70
     0
  0
APPID
  5
AAD1
330
9
100
AcDbSymbolTableRecord
100
AcDbRegAppTableRecord
  2
ACAD_DSTYLE_DIMJOGGED_JOGANGLE_SYMBOL
 70
     0
  0
APPID
  5
AAFD
330
9
100
AcDbSymbolTableRecord
100
AcDbRegAppTableRecord
  2
ACAD_PSEXT
 70
     0
  0
APPID
  5
AD61
330
9
100
AcDbSymbolTableRecord
100
AcDbRegAppTableRecord
  2
AcAecLayerStandard
 70
     0
  0
APPID
  5
AEE3
330
9
100
AcDbSymbolTableRecord
100
AcDbRegAppTableRecord
  2
ACAD_EXEMPT_FROM_CAD_STANDARDS
 70
     0
  0
APPID
  5
B1BE
330
9
100
AcDbSymbolTableRecord
100
AcDbRegAppTableRecord
  2
GENIUS_GENCEN_19
 70
     0
  0
APPID
  5
B597
330
9
100
AcDbSymbolTableRecord
100
AcDbRegAppTableRecord
  2
ACAD_MLEADERVER
 70
     0
  0
APPID
  5
B7CC
330
9
100
AcDbSymbolTableRecord
100
AcDbRegAppTableRecord
  2
ACAD_DSTYLE_DIMINSPECT
 70
     0
  0
APPID
  5
B7CD
330
9
100
AcDbSymbolTableRecord
100
AcDbRegAppTableRecord
  2
ACAD_DSTYLE_DIMRADIAL_EXTENSION
 70
     0
  0
APPID
  5
CC82
330
9
100
AcDbSymbolTableRecord
100
AcDbRegAppTableRecord
  2
ACDBBLOCKREPETAG
 70
     0
  0
APPID
  5
CC83
330
9
100
AcDbSymbolTableRecord
100
AcDbRegAppTableRecord
  2
AcDbDynamicBlockGUID
 70
     0
  0
ENDTAB
  0
TABLE
  2
DIMSTYLE
  5
A
330
0
100
AcDbSymbolTable
 70
    23
100
AcDbDimStyleTable
 71
     1
340
2515
  0
DIMSTYLE
105
A76
330
A
100
AcDbSymbolTableRecord
100
AcDbDimStyleTableRecord
  2
STANDARD
 70
     0
 41
3.0
 42
1.0
 43
7.0
 44
2.0
 73
     0
 74
     0
 77
     1
140
2.799999999999999
141
0.0
143
0.0394
147
0.7
171
     4
172
     1
173
     1
176
     3
177
     3
178
     2
271
     3
272
     3
273
     8
274
     4
289
     0
340
A74
341
A66
343
A66
344
A66
  0
DIMSTYLE
105
2515
330
A
100
AcDbSymbolTableRecord
100
AcDbDimStyleTableRecord
  2
SYS
 70
     0
  4
"
 41
1.0
 42
1.0
 43
10.0
 44
1.0
 47
0.1
 48
0.1
 73
     0
 74
     0
 77
     1
 78
     8
 79
     2
140
3.5
141
0.0
143
0.0393701
146
0.71
147
1.5
172
     1
176
   256
177
   256
178
     7
271
     2
272
     2
283
     0
284
     8
340
11
371
    -1
372
    -1
1001
ACAD_DSTYLE_DIMJOGGED_JOGANGLE_SYMBOL
1070
   384
1040
0.7853981633974483
1001
ACAD_DSTYLE_DIMARC_LENGTH_SYMBOL
1070
   379
1070
     1
  0
DIMSTYLE
105
2516
330
A
100
AcDbSymbolTableRecord
100
AcDbDimStyleTableRecord
  2
SYS$3
 70
     0
  4
"
 41
2.0
 42
1.0
 43
10.0
 44
1.0
 47
0.1
 48
0.1
 73
     0
 77
     1
 78
     8
 79
     2
140
3.5
141
0.0
143
0.0393701
146
0.71
147
1.5
176
   256
177
   256
178
     2
271
     2
272
     2
283
     0
284
     8
288
     1
340
11
342
A66
371
    -1
372
    -1
1001
ACAD_DSTYLE_DIMJOGGED_JOGANGLE_SYMBOL
1070
   384
1040
0.7853981633974483
1001
ACAD_DSTYLE_DIMARC_LENGTH_SYMBOL
1070
   379
1070
     1
  0
DIMSTYLE
105
2517
102
{ACAD_REACTORS
330
FD09
102
}
330
A
100
AcDbSymbolTableRecord
100
AcDbDimStyleTableRecord
  2
SYS$4
 70
     0
  4
"
 41
2.0
 42
1.0
 43
10.0
 44
1.0
 47
0.1
 48
0.1
 73
     0
 77
     1
 78
     8
 79
     2
140
3.5
141
0.0
143
0.0393701
146
0.71
147
1.5
173
     1
176
   256
177
   256
178
     2
271
     2
272
     2
283
     0
284
     8
288
     1
340
11
344
A66
371
    -1
372
    -1
1001
ACAD_DSTYLE_DIMJOGGED_JOGANGLE_SYMBOL
1070
   384
1040
0.7853981633974483
1001
ACAD_DSTYLE_DIMARC_LENGTH_SYMBOL
1070
   379
1070
     1
  0
DIMSTYLE
105
2518
330
A
100
AcDbSymbolTableRecord
100
AcDbDimStyleTableRecord
  2
SYS$6
 70
     0
  4
"
 41
2.0
 42
1.0
 43
10.0
 44
1.0
 47
0.1
 48
0.1
 73
     0
 74
     0
 78
     8
 79
     2
140
3.5
141
0.0
143
0.0393701
146
0.71
147
1.5
172
     1
176
   256
177
   256
178
     2
271
     2
272
     2
283
     0
284
     8
340
11
341
A66
371
    -1
372
    -1
1001
ACAD_DSTYLE_DIMJOGGED_JOGANGLE_SYMBOL
1070
   384
1040
0.7853981633974483
1001
ACAD_DSTYLE_DIMARC_LENGTH_SYMBOL
1070
   379
1070
     1
  0
DIMSTYLE
105
2519
330
A
100
AcDbSymbolTableRecord
100
AcDbDimStyleTableRecord
  2
SYS$7
 70
     0
  4
"
 41
2.0
 42
1.0
 43
10.0
 44
1.0
 47
0.1
 48
0.1
 73
     0
 74
     0
 77
     1
 78
     8
 79
     2
140
5.0
141
0.0
143
0.0393701
146
0.71
147
1.5
172
     1
176
   256
177
   256
178
     2
271
     2
272
     2
283
     0
284
     8
340
11
341
A66
342
A66
371
    -1
372
    -1
1001
ACAD_DSTYLE_DIMJOGGED_JOGANGLE_SYMBOL
1070
   384
1040
0.7853981633974483
1001
ACAD_DSTYLE_DIMARC_LENGTH_SYMBOL
1070
   379
1070
     1
  0
DIMSTYLE
105
251A
330
A
100
AcDbSymbolTableRecord
100
AcDbDimStyleTableRecord
  2
SYS$SF
 70
     0
  4
"
 41
2.5
 42
1.0
 43
10.0
 44
1.0
 47
0.1
 48
0.1
 73
     0
 74
     0
 75
     1
 76
     1
 77
     1
 78
     8
 79
     2
140
3.5
141
0.0
143
0.0393701
146
0.71
147
1.5
172
     1
176
   256
177
   256
178
     2
271
     2
272
     3
283
     0
284
     8
340
11
341
6C4
342
6C4
371
    -1
372
    -1
1001
ACAD_DSTYLE_DIMJOGGED_JOGANGLE_SYMBOL
1070
   384
1040
0.7853981633974483
1001
ACAD_DSTYLE_DIMARC_LENGTH_SYMBOL
1070
   379
1070
     1
  0
DIMSTYLE
105
251B
330
A
100
AcDbSymbolTableRecord
100
AcDbDimStyleTableRecord
  2
SYS$SH
 70
     0
  4
"
 41
2.5
 42
1.0
 43
10.0
 44
1.0
 47
0.1
 48
0.1
 73
     0
 74
     0
 75
     1
 76
     1
 77
     1
 78
     8
 79
     2
140
3.5
141
0.0
143
0.0393701
144
2.0
146
0.71
147
1.5
172
     1
173
     1
176
   256
177
   256
178
     2
271
     2
272
     3
283
     0
284
     8
340
11
341
6C4
343
72
344
6C4
371
    -1
372
    -1
1001
ACAD_DSTYLE_DIMJOGGED_JOGANGLE_SYMBOL
1070
   384
1040
0.7853981633974483
1001
ACAD_DSTYLE_DIMARC_LENGTH_SYMBOL
1070
   379
1070
     1
  0
DIMSTYLE
105
2A59
330
A
100
AcDbSymbolTableRecord
100
AcDbDimStyleTableRecord
  2
SYS$2
 70
     0
  4
"
 41
1.0
 42
1.0
 43
10.0
 44
1.0
 47
0.1
 48
0.1
 73
     0
 74
     0
 77
     1
 78
     8
 79
     2
140
3.5
141
0.0
143
0.0393701
146
0.71
147
1.5
172
     1
176
   256
177
   256
178
     2
271
     2
272
     2
283
     0
284
     8
340
11
342
6C4
371
    -1
372
    -1
1001
ACAD_DSTYLE_DIMJOGGED_JOGANGLE_SYMBOL
1070
   384
1040
0.7853981633974483
1001
ACAD_DSTYLE_DIMARC_LENGTH_SYMBOL
1070
   379
1070
     1
  0
DIMSTYLE
105
2AAB
102
{ACAD_REACTORS
330
F709
330
F731
330
F764
330
F796
330
F7BE
330
F7E7
330
F80F
330
F834
330
F85C
330
F8AA
330
F8D2
102
}
330
A
100
AcDbSymbolTableRecord
100
AcDbDimStyleTableRecord
  2
SYS$0
 70
     0
  4
"
 41
1.0
 42
1.0
 43
10.0
 44
1.0
 47
0.1
 48
0.1
 73
     0
 74
     0
 77
     1
 78
     8
 79
     2
140
3.200000000000001
141
0.0
143
0.0393701
146
0.71
147
1.5
172
     1
176
   256
177
   256
178
     2
271
     2
272
     2
283
     0
284
     8
340
11
341
A66
342
6C4
371
    -1
372
    -1
1001
ACAD_DSTYLE_DIMJOGGED_JOGANGLE_SYMBOL
1070
   384
1040
0.7853981633974483
1001
ACAD_DSTYLE_DIMARC_LENGTH_SYMBOL
1070
   379
1070
     1
  0
DIMSTYLE
105
AF99
330
A
100
AcDbSymbolTableRecord
100
AcDbDimStyleTableRecord
  2
AM_ISO
 70
     0
  4
"
 41
2.5
 42
1.0
 43
10.0
 44
1.0
 47
0.1
 48
0.1
 73
     0
 74
     0
 77
     1
 78
     8
 79
     2
140
3.5
141
0.0
143
0.0393701
146
0.71
147
1.5
172
     1
176
   256
177
   256
178
     2
271
     2
272
     3
274
     4
283
     0
284
     8
340
11
371
    -1
372
    -1
  0
DIMSTYLE
105
AF9A
330
A
100
AcDbSymbolTableRecord
100
AcDbDimStyleTableRecord
  2
AM_ISO$3
 70
     0
  4
"
 41
2.5
 42
1.0
 43
10.0
 44
1.0
 47
0.1
 48
0.1
 73
     0
 77
     1
 78
     8
 79
     2
140
3.5
141
0.0
143
0.0393701
146
0.71
147
1.5
176
   256
177
   256
178
     2
271
     2
272
     3
274
     4
283
     0
284
     8
288
     1
289
     0
340
11
371
    -1
372
    -1
  0
DIMSTYLE
105
AF9B
330
A
100
AcDbSymbolTableRecord
100
AcDbDimStyleTableRecord
  2
AM_ISO$4
 70
     0
  4
"
 41
2.5
 42
1.0
 43
10.0
 44
1.0
 47
0.1
 48
0.1
 73
     0
 77
     1
 78
     8
 79
     2
140
3.5
141
0.0
143
0.0393701
146
0.71
147
1.5
176
   256
177
   256
178
     2
271
     2
272
     3
274
     4
283
     0
284
     8
288
     1
289
     0
340
11
371
    -1
372
    -1
  0
DIMSTYLE
105
AF9C
330
A
100
AcDbSymbolTableRecord
100
AcDbDimStyleTableRecord
  2
AM_ISO$6
 70
     0
  4
"
 41
2.5
 42
1.0
 43
10.0
 44
1.0
 47
0.1
 48
0.1
 73
     0
 74
     0
 78
     8
 79
     2
140
3.5
141
0.0
143
0.0393701
146
0.71
147
1.5
172
     1
176
   256
177
   256
178
     2
271
     2
272
     3
274
     4
283
     0
284
     8
340
11
371
    -1
372
    -1
  0
DIMSTYLE
105
AF9D
330
A
100
AcDbSymbolTableRecord
100
AcDbDimStyleTableRecord
  2
AM_ISO$7
 70
     0
  4
"
 41
2.5
 42
1.0
 43
10.0
 44
1.0
 47
0.1
 48
0.1
 73
     0
 74
     0
 77
     1
 78
     8
 79
     2
140
5.0
141
0.0
143
0.0393701
146
0.71
147
1.5
172
     1
176
   256
177
   256
178
     2
271
     2
272
     3
274
     4
283
     0
284
     8
340
11
371
    -1
372
    -1
  0
DIMSTYLE
105
AF9E
330
A
100
AcDbSymbolTableRecord
100
AcDbDimStyleTableRecord
  2
AM_ISO$SF
 70
     0
  4
"
 41
2.5
 42
1.0
 43
10.0
 44
1.0
 47
0.1
 48
0.1
 73
     0
 74
     0
 75
     1
 76
     1
 77
     1
 78
     8
 79
     2
140
3.5
141
0.0
143
0.0393701
146
0.71
147
1.5
172
     1
176
   256
177
   256
178
     2
271
     2
272
     3
274
     4
283
     0
284
     8
340
11
371
    -1
372
    -1
  0
DIMSTYLE
105
AF9F
330
A
100
AcDbSymbolTableRecord
100
AcDbDimStyleTableRecord
  2
AM_ISO$SH
 70
     0
  4
"
 41
2.5
 42
1.0
 43
10.0
 44
1.0
 47
0.1
 48
0.1
 73
     0
 74
     0
 75
     1
 76
     1
 77
     1
 78
     8
 79
     2
140
3.5
141
0.0
143
0.0393701
144
2.0
146
0.71
147
1.5
172
     1
173
     1
176
   256
177
   256
178
     2
271
     2
272
     3
274
     4
283
     0
284
     8
340
11
343
72
371
    -1
372
    -1
  0
DIMSTYLE
105
BEF8
330
A
100
AcDbSymbolTableRecord
100
AcDbDimStyleTableRecord
  2
AM_ANSI
 70
     0
  4
mm
 41
0.1
 42
0.05
 43
0.5
 44
0.1
 47
0.1
 48
0.1
 78
     7
 79
     2
140
0.12
141
0.0
146
0.71
147
0.06
176
   256
177
   256
178
     2
274
     4
284
     7
340
11
371
    -1
372
    -1
1001
ACAD_DSTYLE_DIMARC_LENGTH_SYMBOL
1070
   379
1070
     1
  0
DIMSTYLE
105
BEF9
330
A
100
AcDbSymbolTableRecord
100
AcDbDimStyleTableRecord
  2
AM_ANSI$3
 70
     0
  4
mm
 41
0.1
 42
0.05
 43
0.5
 44
0.1
 47
0.1
 48
0.1
 78
     7
 79
     2
140
0.12
141
0.0
146
0.71
147
0.06
176
   256
177
   256
178
     2
274
     4
284
     7
288
     1
289
     0
340
11
371
    -1
372
    -1
1001
ACAD_DSTYLE_DIMARC_LENGTH_SYMBOL
1070
   379
1070
     1
  0
DIMSTYLE
105
BEFA
330
A
100
AcDbSymbolTableRecord
100
AcDbDimStyleTableRecord
  2
AM_ANSI$4
 70
     0
  4
mm
 41
0.1
 42
0.05
 43
0.5
 44
0.1
 47
0.1
 48
0.1
 78
     7
 79
     2
140
0.12
141
0.0
146
0.71
147
0.06
176
   256
177
   256
178
     2
274
     4
284
     7
288
     1
289
     0
340
11
371
    -1
372
    -1
1001
ACAD_DSTYLE_DIMARC_LENGTH_SYMBOL
1070
   379
1070
     1
  0
DIMSTYLE
105
BEFB
330
A
100
AcDbSymbolTableRecord
100
AcDbDimStyleTableRecord
  2
AM_ANSI$7
 70
     0
  4
mm
 41
0.1
 42
0.05
 43
0.5
 44
0.1
 47
0.1
 48
0.1
 78
     7
 79
     2
140
0.24
141
0.0
146
0.71
147
0.06
176
   256
177
   256
178
     2
274
     4
284
     7
340
11
371
    -1
372
    -1
1001
ACAD_DSTYLE_DIMARC_LENGTH_SYMBOL
1070
   379
1070
     1
  0
DIMSTYLE
105
BEFC
330
A
100
AcDbSymbolTableRecord
100
AcDbDimStyleTableRecord
  2
AM_ANSI$SF
 70
     0
  4
mm
 41
0.1
 42
0.05
 43
0.5
 44
0.1
 47
0.1
 48
0.1
 75
     1
 76
     1
 78
     7
 79
     2
140
0.12
141
0.0
146
0.71
147
0.06
176
   256
177
   256
178
     2
274
     4
284
     7
340
11
371
    -1
372
    -1
1001
ACAD_DSTYLE_DIMARC_LENGTH_SYMBOL
1070
   379
1070
     1
  0
DIMSTYLE
105
BEFD
330
A
100
AcDbSymbolTableRecord
100
AcDbDimStyleTableRecord
  2
AM_ANSI$SH
 70
     0
  4
mm
 41
0.1
 42
0.05
 43
0.5
 44
0.1
 47
0.1
 48
0.1
 75
     1
 76
     1
 78
     7
 79
     2
140
0.12
141
0.0
146
0.71
147
0.06
173
     1
176
   256
177
   256
178
     2
274
     4
284
     7
340
11
343
72
371
    -1
372
    -1
1001
ACAD_DSTYLE_DIMARC_LENGTH_SYMBOL
1070
   379
1070
     1
  0
ENDTAB
  0
TABLE
  2
BLOCK_RECORD
  5
1
330
0
100
AcDbSymbolTable
 70
    18
  0
BLOCK_RECORD
  5
1F
102
{ACAD_XDICTIONARY
360
8A
102
}
330
1
100
AcDbSymbolTableRecord
100
AcDbBlockTableRecord
  2
*Model_Space
340
22
  0
BLOCK_RECORD
  5
1B
330
1
100
AcDbSymbolTableRecord
100
AcDbBlockTableRecord
  2
*Paper_Space
340
1E
  0
BLOCK_RECORD
  5
23
330
1
100
AcDbSymbolTableRecord
100
AcDbBlockTableRecord
  2
*Paper_Space0
340
26
  0
BLOCK_RECORD
  5
72
330
1
100
AcDbSymbolTableRecord
100
AcDbBlockTableRecord
  2
GENAXEH
340
0
  0
BLOCK_RECORD
  5
6C4
330
1
100
AcDbSymbolTableRecord
100
AcDbBlockTableRecord
  2
_Dot
340
0
102
{BLKREFS
331
10D75
331
10D76
331
10D7E
331
10D7F
331
10D8D
331
10D8E
331
10D96
331
10D97
331
10D9F
331
10DA0
331
10DA8
331
10DA9
331
10DB1
331
10DB2
331
10DBA
331
10DBB
331
10DC9
331
10DCA
331
10DD1
331
10DD2
331
10DDA
331
10DDB
102
}
  0
BLOCK_RECORD
  5
A66
330
1
100
AcDbSymbolTableRecord
100
AcDbBlockTableRecord
  2
_OPEN30
340
0
102
{BLKREFS
331
10D87
102
}
  0
BLOCK_RECORD
  5
BDFD
330
1
100
AcDbSymbolTableRecord
100
AcDbBlockTableRecord
  2
_SE_OPEN
340
0
  0
BLOCK_RECORD
  5
F70A
330
1
100
AcDbSymbolTableRecord
100
AcDbBlockTableRecord
  2
*D6
340
0
  0
BLOCK_RECORD
  5
F732
330
1
100
AcDbSymbolTableRecord
100
AcDbBlockTableRecord
  2
*D7
340
0
  0
BLOCK_RECORD
  5
F765
330
1
100
AcDbSymbolTableRecord
100
AcDbBlockTableRecord
  2
*D8
340
0
  0
BLOCK_RECORD
  5
F797
330
1
100
AcDbSymbolTableRecord
100
AcDbBlockTableRecord
  2
*D9
340
0
  0
BLOCK_RECORD
  5
F7BF
330
1
100
AcDbSymbolTableRecord
100
AcDbBlockTableRecord
  2
*D10
340
0
  0
BLOCK_RECORD
  5
F7E8
330
1
100
AcDbSymbolTableRecord
100
AcDbBlockTableRecord
  2
*D11
340
0
  0
BLOCK_RECORD
  5
F810
330
1
100
AcDbSymbolTableRecord
100
AcDbBlockTableRecord
  2
*D12
340
0
  0
BLOCK_RECORD
  5
F835
330
1
100
AcDbSymbolTableRecord
100
AcDbBlockTableRecord
  2
*D13
340
0
  0
BLOCK_RECORD
  5
F85D
330
1
100
AcDbSymbolTableRecord
100
AcDbBlockTableRecord
  2
*D14
340
0
  0
BLOCK_RECORD
  5
F8AB
330
1
100
AcDbSymbolTableRecord
100
AcDbBlockTableRecord
  2
*D15
340
0
  0
BLOCK_RECORD
  5
F8D3
330
1
100
AcDbSymbolTableRecord
100
AcDbBlockTableRecord
  2
*D16
340
0
  0
BLOCK_RECORD
  5
FD0A
330
1
100
AcDbSymbolTableRecord
100
AcDbBlockTableRecord
  2
*D17
340
0
  0
ENDTAB
  0
ENDSEC
  0
SECTION
  2
BLOCKS
  0
BLOCK
  5
20
330
1F
100
AcDbEntity
  8
0
100
AcDbBlockBegin
  2
*Model_Space
 70
     0
 10
0.0
 20
0.0
 30
0.0
  3
*Model_Space
  1

  0
ENDBLK
  5
21
330
1F
100
AcDbEntity
  8
0
100
AcDbBlockEnd
  0
BLOCK
  5
1C
330
1B
100
AcDbEntity
 67
     1
  8
0
100
AcDbBlockBegin
  2
*Paper_Space
 70
     0
 10
0.0
 20
0.0
 30
0.0
  3
*Paper_Space
  1

  0
ENDBLK
  5
1D
330
1B
100
AcDbEntity
 67
     1
  8
0
100
AcDbBlockEnd
  0
BLOCK
  5
24
330
23
100
AcDbEntity
 67
     1
  8
0
100
AcDbBlockBegin
  2
*Paper_Space0
 70
     0
 10
0.0
 20
0.0
 30
0.0
  3
*Paper_Space0
  1

  0
ENDBLK
  5
25
330
23
100
AcDbEntity
 67
     1
  8
0
100
AcDbBlockEnd
  0
BLOCK
  5
74
330
72
100
AcDbEntity
  8
0
100
AcDbBlockBegin
  2
GENAXEH
 70
     0
 10
0.0
 20
0.0
 30
0.0
  3
GENAXEH
  1

  0
LINE
  5
73
330
72
100
AcDbEntity
  8
0
100
AcDbLine
 10
-1.0
 20
0.0
 30
0.0
 11
1.0
 21
0.0
 31
0.0
  0
ENDBLK
  5
75
330
72
100
AcDbEntity
  8
0
100
AcDbBlockEnd
  0
BLOCK
  5
6C7
330
6C4
100
AcDbEntity
  8
0
100
AcDbBlockBegin
  2
_Dot
 70
     0
 10
0.0
 20
0.0
 30
0.0
  3
_Dot
  1

  0
LWPOLYLINE
  5
6C5
330
6C4
100
AcDbEntity
  8
0
  6
ByBlock
 62
     0
100
AcDbPolyline
 90
        2
 70
     1
 43
0.5
 10
-0.25
 20
0.0
 42
1.0
 10
0.25
 20
0.0
 42
1.0
  0
LINE
  5
6C6
330
6C4
100
AcDbEntity
  8
0
  6
ByBlock
 62
     0
370
    -2
100
AcDbLine
 10
-0.5
 20
0.0
 30
0.0
 11
-1.0
 21
0.0
 31
0.0
  0
ENDBLK
  5
6C8
330
6C4
100
AcDbEntity
  8
0
100
AcDbBlockEnd
  0
BLOCK
  5
A6A
330
A66
100
AcDbEntity
  8
0
100
AcDbBlockBegin
  2
_OPEN30
 70
     0
 10
0.0
 20
0.0
 30
0.0
  3
_OPEN30
  1

  0
LINE
  5
A67
330
A66
100
AcDbEntity
  8
0
  6
ByBlock
 62
     0
100
AcDbLine
 10
-1.0
 20
0.26794919
 30
0.0
 11
0.0
 21
0.0
 31
0.0
  0
LINE
  5
A68
330
A66
100
AcDbEntity
  8
0
  6
ByBlock
 62
     0
100
AcDbLine
 10
0.0
 20
0.0
 30
0.0
 11
-1.0
 21
-0.26794919
 31
0.0
  0
LINE
  5
A69
330
A66
100
AcDbEntity
  8
0
  6
ByBlock
 62
     0
100
AcDbLine
 10
0.0
 20
0.0
 30
0.0
 11
-1.0
 21
0.0
 31
0.0
  0
ENDBLK
  5
A6B
330
A66
100
AcDbEntity
  8
0
100
AcDbBlockEnd
  0
BLOCK
  5
BDFE
330
BDFD
100
AcDbEntity
  8
0
100
AcDbBlockBegin
  2
_SE_OPEN
 70
     0
 10
0.0
 20
0.0
 30
0.0
  3
_SE_OPEN
  1

  0
LINE
  5
BDFF
330
BDFD
100
AcDbEntity
  8
0
 62
     0
100
AcDbLine
 10
0.0
 20
0.0
 30
0.0
 11
-1.0
 21
-0.1665
 31
0.0
  0
LINE
  5
BE00
330
BDFD
100
AcDbEntity
  8
0
 62
     0
100
AcDbLine
 10
-1.0
 20
0.1665
 30
0.0
 11
0.0
 21
0.0
 31
0.0
  0
LINE
  5
BE01
330
BDFD
100
AcDbEntity
  8
0
 62
     0
100
AcDbLine
 10
0.0
 20
0.0
 30
0.0
 11
-1.0
 21
0.0
 31
0.0
  0
ENDBLK
  5
BE02
330
BDFD
100
AcDbEntity
  8
0
100
AcDbBlockEnd
  0
BLOCK
  5
F70B
330
F70A
100
AcDbEntity
  8
0
100
AcDbBlockBegin
  2
*D6
 70
     1
 10
0.0
 20
0.0
 30
0.0
  3
*D6
  1

  0
LINE
  5
10D8A
330
F70A
100
AcDbEntity
  8
AM_5
100
AcDbLine
 10
134.9432138976383
 20
182.8251733328725
 30
0.0
 11
134.9432138976383
 21
191.8251733328725
 31
0.0
  0
LINE
  5
10D8B
330
F70A
100
AcDbEntity
  8
AM_5
100
AcDbLine
 10
87.94321389763835
 20
157.8251733328725
 30
0.0
 11
87.94321389763835
 21
191.8251733328725
 31
0.0
  0
LINE
  5
10D8C
330
F70A
100
AcDbEntity
  8
AM_5
100
AcDbLine
 10
133.9432138976383
 20
190.8251733328725
 30
0.0
 11
88.94321389763836
 21
190.8251733328725
 31
0.0
  0
INSERT
  5
10D8D
330
F70A
100
AcDbEntity
  8
AM_5
100
AcDbBlockReference
  2
_Dot
 10
134.9432138976383
 20
190.8251733328725
 30
0.0
  0
INSERT
  5
10D8E
330
F70A
100
AcDbEntity
  8
AM_5
100
AcDbBlockReference
  2
_Dot
 10
87.94321389763835
 20
190.8251733328725
 30
0.0
 50
180.0
  0
MTEXT
  5
10D8F
330
F70A
100
AcDbEntity
  8
AM_5
 62
     2
100
AcDbMText
 10
111.4432138976384
 20
193.9251733328725
 30
0.0
 40
3.200000000000001
 41
0.0
 71
     5
 72
     1
  1
F
 73
     1
 44
1.0
1001
ACAD
1000
MTEXTBEGIN
1070
    73
1070
     1
1070
    44
1040
1.0
1070
    74
1070
     0
1000
MTEXTEND
  0
POINT
  5
10D90
330
F70A
100
AcDbEntity
  8
Defpoints
 62
     0
100
AcDbPoint
 10
134.9432138976383
 20
181.8251733328725
 30
0.0
  0
POINT
  5
10D91
330
F70A
100
AcDbEntity
  8
Defpoints
 62
     0
100
AcDbPoint
 10
87.94321389763835
 20
156.8251733328725
 30
0.0
  0
POINT
  5
10D92
330
F70A
100
AcDbEntity
  8
Defpoints
 62
     0
100
AcDbPoint
 10
87.94321389763835
 20
190.8251733328725
 30
0.0
  0
ENDBLK
  5
F70C
330
F70A
100
AcDbEntity
  8
0
100
AcDbBlockEnd
  0
BLOCK
  5
F733
330
F732
100
AcDbEntity
  8
0
100
AcDbBlockBegin
  2
*D7
 70
     1
 10
0.0
 20
0.0
 30
0.0
  3
*D7
  1

  0
LINE
  5
10D93
330
F732
100
AcDbEntity
  8
AM_5
100
AcDbLine
 10
96.94321389763835
 20
70.82517333287251
 30
0.0
 11
74.94321288763831
 21
70.82517333287253
 31
0.0
  0
LINE
  5
10D94
330
F732
100
AcDbEntity
  8
AM_5
100
AcDbLine
 10
96.94321389763835
 20
166.8251733328725
 30
0.0
 11
74.94321288763834
 21
166.8251733328725
 31
0.0
  0
LINE
  5
10D95
330
F732
100
AcDbEntity
  8
AM_5
100
AcDbLine
 10
75.94321288763831
 20
71.82517333287252
 30
0.0
 11
75.94321288763834
 21
165.8251733328725
 31
0.0
  0
INSERT
  5
10D96
330
F732
100
AcDbEntity
  8
AM_5
100
AcDbBlockReference
  2
_Dot
 10
75.94321288763831
 20
70.82517333287253
 30
0.0
 50
270.0
  0
INSERT
  5
10D97
330
F732
100
AcDbEntity
  8
AM_5
100
AcDbBlockReference
  2
_Dot
 10
75.94321288763834
 20
166.8251733328725
 30
0.0
 50
90.0
  0
MTEXT
  5
10D98
330
F732
100
AcDbEntity
  8
AM_5
 62
     2
100
AcDbMText
 10
72.84321288763831
 20
118.8251733328725
 30
0.0
 40
3.200000000000001
 41
0.0
 71
     5
 72
     1
  1
E
 11
0.0000000000000001
 21
1.0
 31
0.0
 73
     1
 44
1.0
1001
ACAD
1000
MTEXTBEGIN
1070
    73
1070
     1
1070
    44
1040
1.0
1070
    74
1070
     0
1000
MTEXTEND
  0
POINT
  5
10D99
330
F732
100
AcDbEntity
  8
Defpoints
 62
     0
100
AcDbPoint
 10
97.94321389763837
 20
70.82517333287251
 30
0.0
  0
POINT
  5
10D9A
330
F732
100
AcDbEntity
  8
Defpoints
 62
     0
100
AcDbPoint
 10
97.94321389763837
 20
166.8251733328725
 30
0.0
  0
POINT
  5
10D9B
330
F732
100
AcDbEntity
  8
Defpoints
 62
     0
100
AcDbPoint
 10
75.94321288763834
 20
166.8251733328725
 30
0.0
  0
ENDBLK
  5
F734
330
F732
100
AcDbEntity
  8
0
100
AcDbBlockEnd
  0
BLOCK
  5
F766
330
F765
100
AcDbEntity
  8
0
100
AcDbBlockBegin
  2
*D8
 70
     1
 10
0.0
 20
0.0
 30
0.0
  3
*D8
  1

  0
LINE
  5
10D9C
330
F765
100
AcDbEntity
  8
AM_5
100
AcDbLine
 10
140.9432138976383
 20
164.8251733328725
 30
0.0
 11
176.9432138976384
 21
164.8251733328725
 31
0.0
  0
LINE
  5
10D9D
330
F765
100
AcDbEntity
  8
AM_5
100
AcDbLine
 10
140.9432138976383
 20
72.82517333287251
 30
0.0
 11
176.9432138976384
 21
72.82517333287249
 31
0.0
  0
LINE
  5
10D9E
330
F765
100
AcDbEntity
  8
AM_5
100
AcDbLine
 10
175.9432138976384
 20
163.8251733328725
 30
0.0
 11
175.9432138976384
 21
73.8251733328725
 31
0.0
  0
INSERT
  5
10D9F
330
F765
100
AcDbEntity
  8
AM_5
100
AcDbBlockReference
  2
_Dot
 10
175.9432138976384
 20
164.8251733328725
 30
0.0
 50
90.0
  0
INSERT
  5
10DA0
330
F765
100
AcDbEntity
  8
AM_5
100
AcDbBlockReference
  2
_Dot
 10
175.9432138976384
 20
72.82517333287249
 30
0.0
 50
270.0
  0
MTEXT
  5
10DA1
330
F765
100
AcDbEntity
  8
AM_5
 62
     2
100
AcDbMText
 10
172.8432138976384
 20
118.8251733328725
 30
0.0
 40
3.200000000000001
 41
0.0
 71
     5
 72
     1
  1
B
 11
0.0000000000000001
 21
1.0
 31
0.0
 73
     1
 44
1.0
1001
ACAD
1000
MTEXTBEGIN
1070
    73
1070
     1
1070
    44
1040
1.0
1070
    74
1070
     0
1000
MTEXTEND
  0
POINT
  5
10DA2
330
F765
100
AcDbEntity
  8
Defpoints
 62
     0
100
AcDbPoint
 10
139.9432138976383
 20
164.8251733328725
 30
0.0
  0
POINT
  5
10DA3
330
F765
100
AcDbEntity
  8
Defpoints
 62
     0
100
AcDbPoint
 10
139.9432138976383
 20
72.82517333287251
 30
0.0
  0
POINT
  5
10DA4
330
F765
100
AcDbEntity
  8
Defpoints
 62
     0
100
AcDbPoint
 10
175.9432138976384
 20
72.82517333287249
 30
0.0
  0
ENDBLK
  5
F767
330
F765
100
AcDbEntity
  8
0
100
AcDbBlockEnd
  0
BLOCK
  5
F798
330
F797
100
AcDbEntity
  8
0
100
AcDbBlockBegin
  2
*D9
 70
     1
 10
0.0
 20
0.0
 30
0.0
  3
*D9
  1

  0
LINE
  5
10DA5
330
F797
100
AcDbEntity
  8
AM_5
100
AcDbLine
 10
158.4432138976383
 20
178.8251733328725
 30
0.0
 11
186.9432138976386
 21
178.8251733328725
 31
0.0
  0
LINE
  5
10DA6
330
F797
100
AcDbEntity
  8
AM_5
100
AcDbLine
 10
158.4432138976383
 20
58.82517333287251
 30
0.0
 11
186.9432138976386
 21
58.8251733328725
 31
0.0
  0
LINE
  5
10DA7
330
F797
100
AcDbEntity
  8
AM_5
100
AcDbLine
 10
185.9432138976386
 20
177.8251733328725
 30
0.0
 11
185.9432138976386
 21
59.8251733328725
 31
0.0
  0
INSERT
  5
10DA8
330
F797
100
AcDbEntity
  8
AM_5
100
AcDbBlockReference
  2
_Dot
 10
185.9432138976386
 20
178.8251733328725
 30
0.0
 50
90.0
  0
INSERT
  5
10DA9
330
F797
100
AcDbEntity
  8
AM_5
100
AcDbBlockReference
  2
_Dot
 10
185.9432138976386
 20
58.8251733328725
 30
0.0
 50
270.0
  0
MTEXT
  5
10DAA
330
F797
100
AcDbEntity
  8
AM_5
 62
     2
100
AcDbMText
 10
182.8432138976386
 20
118.8251733328725
 30
0.0
 40
3.200000000000001
 41
0.0
 71
     5
 72
     1
  1
（A）
 11
0.0000000000000001
 21
1.0
 31
0.0
 73
     1
 44
1.0
1001
ACAD
1000
MTEXTBEGIN
1070
    73
1070
     1
1070
    44
1040
1.0
1070
    74
1070
     0
1000
MTEXTEND
  0
POINT
  5
10DAB
330
F797
100
AcDbEntity
  8
Defpoints
 62
     0
100
AcDbPoint
 10
157.4432138976384
 20
178.8251733328725
 30
0.0
  0
POINT
  5
10DAC
330
F797
100
AcDbEntity
  8
Defpoints
 62
     0
100
AcDbPoint
 10
157.4432138976384
 20
58.82517333287251
 30
0.0
  0
POINT
  5
10DAD
330
F797
100
AcDbEntity
  8
Defpoints
 62
     0
100
AcDbPoint
 10
185.9432138976386
 20
58.8251733328725
 30
0.0
  0
ENDBLK
  5
F799
330
F797
100
AcDbEntity
  8
0
100
AcDbBlockEnd
  0
BLOCK
  5
F7C0
330
F7BF
100
AcDbEntity
  8
0
100
AcDbBlockBegin
  2
*D10
 70
     1
 10
0.0
 20
0.0
 30
0.0
  3
*D10
  1

  0
LINE
  5
10DAE
330
F7BF
100
AcDbEntity
  8
AM_5
100
AcDbLine
 10
119.9432138976383
 20
81.8251733328725
 30
0.0
 11
119.9432138976383
 21
45.82517333287251
 31
0.0
  0
LINE
  5
10DAF
330
F7BF
100
AcDbEntity
  8
AM_5
100
AcDbLine
 10
149.9432138976384
 20
81.8251733328725
 30
0.0
 11
149.9432138976384
 21
45.82517333287251
 31
0.0
  0
LINE
  5
10DB0
330
F7BF
100
AcDbEntity
  8
AM_5
100
AcDbLine
 10
120.9432138976383
 20
46.8251733328725
 30
0.0
 11
148.9432138976384
 21
46.8251733328725
 31
0.0
  0
INSERT
  5
10DB1
330
F7BF
100
AcDbEntity
  8
AM_5
100
AcDbBlockReference
  2
_Dot
 10
119.9432138976383
 20
46.8251733328725
 30
0.0
 50
180.0
  0
INSERT
  5
10DB2
330
F7BF
100
AcDbEntity
  8
AM_5
100
AcDbBlockReference
  2
_Dot
 10
149.9432138976384
 20
46.8251733328725
 30
0.0
  0
MTEXT
  5
10DB3
330
F7BF
100
AcDbEntity
  8
AM_5
 62
     2
100
AcDbMText
 10
134.9432138976383
 20
49.92517333287251
 30
0.0
 40
3.200000000000001
 41
0.0
 71
     5
 72
     1
  1
D
 73
     1
 44
1.0
1001
ACAD
1000
MTEXTBEGIN
1070
    73
1070
     1
1070
    44
1040
1.0
1070
    74
1070
     0
1000
MTEXTEND
  0
POINT
  5
10DB4
330
F7BF
100
AcDbEntity
  8
Defpoints
 62
     0
100
AcDbPoint
 10
119.9432138976383
 20
82.8251733328725
 30
0.0
  0
POINT
  5
10DB5
330
F7BF
100
AcDbEntity
  8
Defpoints
 62
     0
100
AcDbPoint
 10
149.9432138976384
 20
82.8251733328725
 30
0.0
  0
POINT
  5
10DB6
330
F7BF
100
AcDbEntity
  8
Defpoints
 62
     0
100
AcDbPoint
 10
149.9432138976384
 20
46.8251733328725
 30
0.0
  0
ENDBLK
  5
F7C1
330
F7BF
100
AcDbEntity
  8
0
100
AcDbBlockEnd
  0
BLOCK
  5
F7E9
330
F7E8
100
AcDbEntity
  8
0
100
AcDbBlockBegin
  2
*D11
 70
     1
 10
0.0
 20
0.0
 30
0.0
  3
*D11
  1

  0
LINE
  5
10DB7
330
F7E8
100
AcDbEntity
  8
AM_5
100
AcDbLine
 10
105.9432138976383
 20
64.3251733328725
 30
0.0
 11
105.9432138976383
 21
35.8251733328724
 31
0.0
  0
LINE
  5
10DB8
330
F7E8
100
AcDbEntity
  8
AM_5
100
AcDbLine
 10
163.9432138976383
 20
64.3251733328725
 30
0.0
 11
163.9432138976383
 21
35.8251733328724
 31
0.0
  0
LINE
  5
10DB9
330
F7E8
100
AcDbEntity
  8
AM_5
100
AcDbLine
 10
106.9432138976383
 20
36.8251733328724
 30
0.0
 11
162.9432138976383
 21
36.8251733328724
 31
0.0
  0
INSERT
  5
10DBA
330
F7E8
100
AcDbEntity
  8
AM_5
100
AcDbBlockReference
  2
_Dot
 10
105.9432138976383
 20
36.8251733328724
 30
0.0
 50
180.0
  0
INSERT
  5
10DBB
330
F7E8
100
AcDbEntity
  8
AM_5
100
AcDbBlockReference
  2
_Dot
 10
163.9432138976383
 20
36.8251733328724
 30
0.0
  0
MTEXT
  5
10DBC
330
F7E8
100
AcDbEntity
  8
AM_5
 62
     2
100
AcDbMText
 10
134.9432138976383
 20
39.9251733328724
 30
0.0
 40
3.200000000000001
 41
0.0
 71
     5
 72
     1
  1
（C）
 73
     1
 44
1.0
1001
ACAD
1000
MTEXTBEGIN
1070
    73
1070
     1
1070
    44
1040
1.0
1070
    74
1070
     0
1000
MTEXTEND
  0
POINT
  5
10DBD
330
F7E8
100
AcDbEntity
  8
Defpoints
 62
     0
100
AcDbPoint
 10
105.9432138976383
 20
65.32517333287251
 30
0.0
  0
POINT
  5
10DBE
330
F7E8
100
AcDbEntity
  8
Defpoints
 62
     0
100
AcDbPoint
 10
163.9432138976383
 20
65.32517333287251
 30
0.0
  0
POINT
  5
10DBF
330
F7E8
100
AcDbEntity
  8
Defpoints
 62
     0
100
AcDbPoint
 10
163.9432138976383
 20
36.8251733328724
 30
0.0
  0
ENDBLK
  5
F7EA
330
F7E8
100
AcDbEntity
  8
0
100
AcDbBlockEnd
  0
BLOCK
  5
F811
330
F810
100
AcDbEntity
  8
0
100
AcDbBlockBegin
  2
*D12
 70
     1
 10
0.0
 20
0.0
 30
0.0
  3
*D12
  1

  0
LINE
  5
10DC0
330
F810
100
AcDbEntity
  8
AM_5
100
AcDbLine
 10
224.9432138976384
 20
57.82517333287251
 30
0.0
 11
224.9432138976384
 21
45.82517333287234
 31
0.0
  0
LINE
  5
10DC1
330
F810
100
AcDbEntity
  8
AM_5
100
AcDbLine
 10
222.9432138976384
 20
57.82517333287251
 30
0.0
 11
222.9432138976384
 21
45.82517333287234
 31
0.0
  0
LINE
  5
10DC2
330
F810
100
AcDbEntity
  8
AM_5
100
AcDbLine
 10
225.9432138976384
 20
46.82517333287234
 30
0.0
 11
226.9432138976384
 21
46.82517333287234
 31
0.0
  0
LINE
  5
10DC3
330
F810
100
AcDbEntity
  8
AM_5
100
AcDbLine
 10
221.9432138976384
 20
46.82517333287234
 30
0.0
 11
220.9432138976384
 21
46.82517333287234
 31
0.0
  0
LINE
  5
10DC4
330
F810
100
AcDbEntity
  8
AM_5
100
AcDbLine
 10
223.9432138976384
 20
46.82517333287234
 30
0.0
 11
219.5408088999284
 21
37.86713523402978
 31
0.0
  0
LINE
  5
10DC5
330
F810
100
AcDbEntity
  8
AM_5
100
AcDbLine
 10
219.5408088999284
 20
37.86713523402978
 30
0.0
 11
215.047475566595
 21
37.86713523402978
 31
0.0
  0
MTEXT
  5
10DC6
330
F810
100
AcDbEntity
  8
AM_5
 62
     2
100
AcDbMText
 10
217.2941422332617
 20
40.96713523402978
 30
0.0
 40
3.200000000000001
 41
0.0
 71
     5
 72
     1
  1
2
 73
     1
 44
1.0
1001
ACAD
1000
MTEXTBEGIN
1070
    73
1070
     1
1070
    44
1040
1.0
1070
    74
1070
     0
1000
MTEXTEND
  0
LINE
  5
10DC7
330
F810
100
AcDbEntity
  8
AM_5
100
AcDbLine
 10
224.9432138976384
 20
46.82517333287234
 30
0.0
 11
222.9432138976384
 21
46.82517333287234
 31
0.0
  0
LINE
  5
10DC8
330
F810
100
AcDbEntity
  8
AM_5
100
AcDbLine
 10
224.9432138976384
 20
46.82517333287234
 30
0.0
 11
222.9432138976384
 21
46.82517333287234
 31
0.0
  0
INSERT
  5
10DC9
330
F810
100
AcDbEntity
  8
AM_5
100
AcDbBlockReference
  2
_Dot
 10
224.9432138976384
 20
46.82517333287234
 30
0.0
 50
180.0
  0
INSERT
  5
10DCA
330
F810
100
AcDbEntity
  8
AM_5
100
AcDbBlockReference
  2
_Dot
 10
222.9432138976384
 20
46.82517333287234
 30
0.0
  0
POINT
  5
10DCB
330
F810
100
AcDbEntity
  8
Defpoints
 62
     0
100
AcDbPoint
 10
224.9432138976384
 20
58.82517333287251
 30
0.0
  0
POINT
  5
10DCC
330
F810
100
AcDbEntity
  8
Defpoints
 62
     0
100
AcDbPoint
 10
222.9432138976384
 20
58.82517333287251
 30
0.0
  0
POINT
  5
10DCD
330
F810
100
AcDbEntity
  8
Defpoints
 62
     0
100
AcDbPoint
 10
222.9432138976384
 20
46.82517333287234
 30
0.0
  0
ENDBLK
  5
F812
330
F810
100
AcDbEntity
  8
0
100
AcDbBlockEnd
  0
BLOCK
  5
F836
330
F835
100
AcDbEntity
  8
0
100
AcDbBlockBegin
  2
*D13
 70
     1
 10
0.0
 20
0.0
 30
0.0
  3
*D13
  1

  0
LINE
  5
10DCE
330
F835
100
AcDbEntity
  8
AM_5
100
AcDbLine
 10
224.9432138976384
 20
57.82517333287251
 30
0.0
 11
224.9432138976384
 21
45.8251723228725
 31
0.0
  0
LINE
  5
10DCF
330
F835
100
AcDbEntity
  8
AM_5
100
AcDbLine
 10
259.9432138976384
 20
84.82517333287251
 30
0.0
 11
259.9432138976384
 21
45.8251723228725
 31
0.0
  0
LINE
  5
10DD0
330
F835
100
AcDbEntity
  8
AM_5
100
AcDbLine
 10
225.9432138976384
 20
46.8251723228725
 30
0.0
 11
258.9432138976384
 21
46.8251723228725
 31
0.0
  0
INSERT
  5
10DD1
330
F835
100
AcDbEntity
  8
AM_5
100
AcDbBlockReference
  2
_Dot
 10
224.9432138976384
 20
46.8251723228725
 30
0.0
 50
180.0
  0
INSERT
  5
10DD2
330
F835
100
AcDbEntity
  8
AM_5
100
AcDbBlockReference
  2
_Dot
 10
259.9432138976384
 20
46.8251723228725
 30
0.0
  0
MTEXT
  5
10DD3
330
F835
100
AcDbEntity
  8
AM_5
 62
     2
100
AcDbMText
 10
242.4432138976384
 20
49.92517232287251
 30
0.0
 40
3.200000000000001
 41
0.0
 71
     5
 72
     1
  1
H
 73
     1
 44
1.0
1001
ACAD
1000
MTEXTBEGIN
1070
    73
1070
     1
1070
    44
1040
1.0
1070
    74
1070
     0
1000
MTEXTEND
  0
POINT
  5
10DD4
330
F835
100
AcDbEntity
  8
Defpoints
 62
     0
100
AcDbPoint
 10
224.9432138976384
 20
58.82517333287251
 30
0.0
  0
POINT
  5
10DD5
330
F835
100
AcDbEntity
  8
Defpoints
 62
     0
100
AcDbPoint
 10
259.9432138976384
 20
85.82517333287251
 30
0.0
  0
POINT
  5
10DD6
330
F835
100
AcDbEntity
  8
Defpoints
 62
     0
100
AcDbPoint
 10
259.9432138976384
 20
46.8251723228725
 30
0.0
  0
ENDBLK
  5
F837
330
F835
100
AcDbEntity
  8
0
100
AcDbBlockEnd
  0
BLOCK
  5
F85E
330
F85D
100
AcDbEntity
  8
0
100
AcDbBlockBegin
  2
*D14
 70
     1
 10
0.0
 20
0.0
 30
0.0
  3
*D14
  1

  0
LINE
  5
10DD7
330
F85D
100
AcDbEntity
  8
AM_5
100
AcDbLine
 10
222.9432138976384
 20
57.82517333287251
 30
0.0
 11
222.9432138976384
 21
45.82517333287222
 31
0.0
  0
LINE
  5
10DD8
330
F85D
100
AcDbEntity
  8
AM_5
100
AcDbLine
 10
216.9432138976384
 20
68.03387333287253
 30
0.0
 11
216.9432138976384
 21
45.82517333287222
 31
0.0
  0
LINE
  5
10DD9
330
F85D
100
AcDbEntity
  8
AM_5
100
AcDbLine
 10
221.9432138976384
 20
46.82517333287222
 30
0.0
 11
217.9432138976384
 21
46.82517333287222
 31
0.0
  0
INSERT
  5
10DDA
330
F85D
100
AcDbEntity
  8
AM_5
100
AcDbBlockReference
  2
_Dot
 10
222.9432138976384
 20
46.82517333287222
 30
0.0
  0
INSERT
  5
10DDB
330
F85D
100
AcDbEntity
  8
AM_5
100
AcDbBlockReference
  2
_Dot
 10
216.9432138976384
 20
46.82517333287222
 30
0.0
 50
180.0
  0
MTEXT
  5
10DDC
330
F85D
100
AcDbEntity
  8
AM_5
 62
     2
100
AcDbMText
 10
219.9432138976384
 20
49.92517333287223
 30
0.0
 40
3.200000000000001
 41
0.0
 71
     5
 72
     1
  1
G
 73
     1
 44
1.0
1001
ACAD
1000
MTEXTBEGIN
1070
    73
1070
     1
1070
    44
1040
1.0
1070
    74
1070
     0
1000
MTEXTEND
  0
POINT
  5
10DDD
330
F85D
100
AcDbEntity
  8
Defpoints
 62
     0
100
AcDbPoint
 10
222.9432138976384
 20
58.82517333287251
 30
0.0
  0
POINT
  5
10DDE
330
F85D
100
AcDbEntity
  8
Defpoints
 62
     0
100
AcDbPoint
 10
216.9432138976384
 20
69.03387333287253
 30
0.0
  0
POINT
  5
10DDF
330
F85D
100
AcDbEntity
  8
Defpoints
 62
     0
100
AcDbPoint
 10
216.9432138976384
 20
46.82517333287222
 30
0.0
  0
ENDBLK
  5
F85F
330
F85D
100
AcDbEntity
  8
0
100
AcDbBlockEnd
  0
BLOCK
  5
F8AC
330
F8AB
100
AcDbEntity
  8
0
100
AcDbBlockBegin
  2
*D15
 70
     1
 10
0.0
 20
0.0
 30
0.0
  3
*D15
  1

  0
LINE
  5
10D72
330
F8AB
100
AcDbEntity
  8
AM_5
100
AcDbLine
 10
315.8956567062521
 20
153.3251733328725
 30
0.0
 11
315.8956567062521
 21
184.8251743428725
 31
0.0
  0
LINE
  5
10D73
330
F8AB
100
AcDbEntity
  8
AM_5
100
AcDbLine
 10
354.895656706252
 20
153.3251733328725
 30
0.0
 11
354.895656706252
 21
184.8251743428725
 31
0.0
  0
LINE
  5
10D74
330
F8AB
100
AcDbEntity
  8
AM_5
100
AcDbLine
 10
316.8956567062521
 20
183.8251743428725
 30
0.0
 11
353.8956567062521
 21
183.8251743428725
 31
0.0
  0
INSERT
  5
10D75
330
F8AB
100
AcDbEntity
  8
AM_5
100
AcDbBlockReference
  2
_Dot
 10
315.8956567062521
 20
183.8251743428725
 30
0.0
 50
180.0
  0
INSERT
  5
10D76
330
F8AB
100
AcDbEntity
  8
AM_5
100
AcDbBlockReference
  2
_Dot
 10
354.895656706252
 20
183.8251743428725
 30
0.0
  0
MTEXT
  5
10D77
330
F8AB
100
AcDbEntity
  8
AM_5
 62
     2
100
AcDbMText
 10
335.3956567062521
 20
186.9251743428725
 30
0.0
 40
3.200000000000001
 41
0.0
 71
     5
 72
     1
  1
J
 73
     1
 44
1.0
1001
ACAD
1000
MTEXTBEGIN
1070
    73
1070
     1
1070
    44
1040
1.0
1070
    74
1070
     0
1000
MTEXTEND
  0
POINT
  5
10D78
330
F8AB
100
AcDbEntity
  8
Defpoints
 62
     0
100
AcDbPoint
 10
315.8956567062521
 20
152.3251733328725
 30
0.0
  0
POINT
  5
10D79
330
F8AB
100
AcDbEntity
  8
Defpoints
 62
     0
100
AcDbPoint
 10
354.895656706252
 20
152.3251733328725
 30
0.0
  0
POINT
  5
10D7A
330
F8AB
100
AcDbEntity
  8
Defpoints
 62
     0
100
AcDbPoint
 10
354.895656706252
 20
183.8251743428725
 30
0.0
  0
ENDBLK
  5
F8AD
330
F8AB
100
AcDbEntity
  8
0
100
AcDbBlockEnd
  0
BLOCK
  5
F8D4
330
F8D3
100
AcDbEntity
  8
0
100
AcDbBlockBegin
  2
*D16
 70
     1
 10
0.0
 20
0.0
 30
0.0
  3
*D16
  1

  0
LINE
  5
10D7B
330
F8D3
100
AcDbEntity
  8
AM_5
100
AcDbLine
 10
334.395656706252
 20
171.8251733328725
 30
0.0
 11
302.8956556962521
 21
171.8251733328725
 31
0.0
  0
LINE
  5
10D7C
330
F8D3
100
AcDbEntity
  8
AM_5
100
AcDbLine
 10
334.395656706252
 20
65.82517333287251
 30
0.0
 11
302.895655696252
 21
65.82517333287251
 31
0.0
  0
LINE
  5
10D7D
330
F8D3
100
AcDbEntity
  8
AM_5
100
AcDbLine
 10
303.8956556962521
 20
170.8251733328725
 30
0.0
 11
303.8956556962521
 21
66.8251733328725
 31
0.0
  0
INSERT
  5
10D7E
330
F8D3
100
AcDbEntity
  8
AM_5
100
AcDbBlockReference
  2
_Dot
 10
303.8956556962521
 20
171.8251733328725
 30
0.0
 50
90.0
  0
INSERT
  5
10D7F
330
F8D3
100
AcDbEntity
  8
AM_5
100
AcDbBlockReference
  2
_Dot
 10
303.8956556962521
 20
65.82517333287251
 30
0.0
 50
270.0
  0
MTEXT
  5
10D80
330
F8D3
100
AcDbEntity
  8
AM_5
 62
     2
100
AcDbMText
 10
300.795655696252
 20
118.8251733328726
 30
0.0
 40
3.200000000000001
 41
0.0
 71
     5
 72
     1
  1
I
 11
0.0000000000000001
 21
1.0
 31
0.0
 73
     1
 44
1.0
1001
ACAD
1000
MTEXTBEGIN
1070
    73
1070
     1
1070
    44
1040
1.0
1070
    74
1070
     0
1000
MTEXTEND
  0
POINT
  5
10D81
330
F8D3
100
AcDbEntity
  8
Defpoints
 62
     0
100
AcDbPoint
 10
335.3956567062521
 20
171.8251733328725
 30
0.0
  0
POINT
  5
10D82
330
F8D3
100
AcDbEntity
  8
Defpoints
 62
     0
100
AcDbPoint
 10
335.3956567062521
 20
65.82517333287251
 30
0.0
  0
POINT
  5
10D83
330
F8D3
100
AcDbEntity
  8
Defpoints
 62
     0
100
AcDbPoint
 10
303.8956556962521
 20
65.82517333287251
 30
0.0
  0
ENDBLK
  5
F8D5
330
F8D3
100
AcDbEntity
  8
0
100
AcDbBlockEnd
  0
BLOCK
  5
FD0B
330
FD0A
100
AcDbEntity
  8
0
100
AcDbBlockBegin
  2
*D17
 70
     1
 10
0.0
 20
0.0
 30
0.0
  3
*D17
  1

  0
LINE
  5
10D84
330
FD0A
100
AcDbEntity
  8
AM_5
100
AcDbLine
 10
358.3856741108923
 20
59.24041340140568
 30
0.0
 11
355.252340777559
 21
59.24041340140573
 31
0.0
  0
LINE
  5
10D85
330
FD0A
100
AcDbEntity
  8
AM_5
100
AcDbLine
 10
355.252340777559
 20
59.24041340140573
 30
0.0
 11
348.4183566946998
 21
68.21788585031463
 31
0.0
  0
MTEXT
  5
10D86
330
FD0A
100
AcDbEntity
  8
AM_5
 62
     2
100
AcDbMText
 10
357.5690074442257
 20
62.4904134014057
 30
0.0
 40
3.5
 41
0.0
 71
     5
 72
     1
  1
K
 73
     1
 44
1.0
1001
ACAD
1000
MTEXTBEGIN
1070
    73
1070
     1
1070
    44
1040
1.0
1070
    74
1070
     0
1000
MTEXTEND
  0
INSERT
  5
10D87
330
FD0A
100
AcDbEntity
  8
AM_5
100
AcDbBlockReference
  2
_OPEN30
 10
347.206942742286
 20
69.80926143008746
 30
0.0
 41
2.0
 42
2.0
 43
2.0
 50
127.2797325249762
  0
POINT
  5
10D88
330
FD0A
100
AcDbEntity
  8
Defpoints
 62
     0
100
AcDbPoint
 10
347.206942742286
 20
69.80926143008746
 30
0.0
  0
POINT
  5
10D89
330
FD0A
100
AcDbEntity
  8
Defpoints
 62
     0
100
AcDbPoint
 10
335.3956567062521
 20
85.32517333287259
 30
0.0
  0
ENDBLK
  5
FD0C
330
FD0A
100
AcDbEntity
  8
0
100
AcDbBlockEnd
  0
ENDSEC
  0
SECTION
  2
ENTITIES
  0
LINE
  5
B9F0
330
1F
100
AcDbEntity
  8
size
100
AcDbLine
 10
0.0
 20
0.0
 30
0.0
 11
420.0
 21
0.0
 31
0.0
1001
GENIUS_GENREC_14
1002
{
1000
PYDIR
1011
0.0000000000000142
1021
297.0
1031
0.0
1002
}
1002
{
1000
PXDIR
1011
420.0
1021
0.0
1031
0.0
1002
}
1002
{
1000
PORI
1011
0.0
1021
0.0
1031
0.0
1002
}
1002
{
1000
PINS
1011
210.0
1021
148.5
1031
0.0
1002
}
1002
{
1000
HVAL
1000
297
1002
}
1002
{
1000
H
1070
     2
1002
}
1002
{
1000
WVAL
1000
420
1002
}
1002
{
1000
W
1070
     2
1002
}
1002
{
1000
C
1070
     4
1002
}
1001
GENIUS_GENOBJ-N-REC_13
1002
{
1000
OWNER
1000
GEN
1002
}
1001
GENIUS_GENODEF_13
1002
{
1000
HIER
1070
     0
1002
}
1002
{
1000
MANEDIT
1070
     0
1002
}
1002
{
1000
NOSEL
1070
     0
1002
}
1002
{
1000
BEHIND
1070
     0
1002
}
1002
{
1000
OTHER
1070
     0
1002
}
1002
{
1000
REACTOR
1002
}
  0
LINE
  5
B9F1
330
1F
100
AcDbEntity
  8
size
100
AcDbLine
 10
420.0
 20
0.0
 30
0.0
 11
420.0
 21
297.0
 31
0.0
1001
GENIUS_GENREC_14
1002
{
1000
PYDIR
1011
0.0000000000000142
1021
297.0
1031
0.0
1002
}
1002
{
1000
PXDIR
1011
420.0
1021
0.0
1031
0.0
1002
}
1002
{
1000
PORI
1011
0.0
1021
0.0
1031
0.0
1002
}
1002
{
1000
PINS
1011
210.0
1021
148.5
1031
0.0
1002
}
1002
{
1000
HVAL
1000
297
1002
}
1002
{
1000
H
1070
     2
1002
}
1002
{
1000
WVAL
1000
420
1002
}
1002
{
1000
W
1070
     2
1002
}
1002
{
1000
C
1070
     4
1002
}
1001
GENIUS_GENOBJ-N-REC_13
1002
{
1000
OWNER
1000
GEN
1002
}
1001
GENIUS_GENODEF_13
1002
{
1000
HIER
1070
     0
1002
}
1002
{
1000
MANEDIT
1070
     0
1002
}
1002
{
1000
NOSEL
1070
     0
1002
}
1002
{
1000
BEHIND
1070
     0
1002
}
1002
{
1000
OTHER
1070
     0
1002
}
1002
{
1000
REACTOR
1002
}
  0
LINE
  5
B9F2
330
1F
100
AcDbEntity
  8
size
100
AcDbLine
 10
420.0
 20
297.0
 30
0.0
 11
0.0000000000000284
 21
297.0
 31
0.0
1001
GENIUS_GENREC_14
1002
{
1000
PYDIR
1011
0.0000000000000142
1021
297.0
1031
0.0
1002
}
1002
{
1000
PXDIR
1011
420.0
1021
0.0
1031
0.0
1002
}
1002
{
1000
PORI
1011
0.0
1021
0.0
1031
0.0
1002
}
1002
{
1000
PINS
1011
210.0
1021
148.5
1031
0.0
1002
}
1002
{
1000
HVAL
1000
297
1002
}
1002
{
1000
H
1070
     2
1002
}
1002
{
1000
WVAL
1000
420
1002
}
1002
{
1000
W
1070
     2
1002
}
1002
{
1000
C
1070
     4
1002
}
1001
GENIUS_GENOBJ-N-REC_13
1002
{
1000
OWNER
1000
GEN
1002
}
1001
GENIUS_GENODEF_13
1002
{
1000
HIER
1070
     0
1002
}
1002
{
1000
MANEDIT
1070
     0
1002
}
1002
{
1000
NOSEL
1070
     0
1002
}
1002
{
1000
BEHIND
1070
     0
1002
}
1002
{
1000
OTHER
1070
     0
1002
}
1002
{
1000
REACTOR
1002
}
  0
LINE
  5
B9F3
330
1F
100
AcDbEntity
  8
size
100
AcDbLine
 10
0.0000000000000284
 20
297.0
 30
0.0
 11
0.0
 21
0.0
 31
0.0
1001
GENIUS_GENREC_14
1002
{
1000
PYDIR
1011
0.0000000000000142
1021
297.0
1031
0.0
1002
}
1002
{
1000
PXDIR
1011
420.0
1021
0.0
1031
0.0
1002
}
1002
{
1000
PORI
1011
0.0
1021
0.0
1031
0.0
1002
}
1002
{
1000
PINS
1011
210.0
1021
148.5
1031
0.0
1002
}
1002
{
1000
HVAL
1000
297
1002
}
1002
{
1000
H
1070
     2
1002
}
1002
{
1000
WVAL
1000
420
1002
}
1002
{
1000
W
1070
     2
1002
}
1002
{
1000
C
1070
     4
1002
}
1001
GENIUS_GENOBJ-N-REC_13
1002
{
1000
OWNER
1000
GEN
1002
}
1001
GENIUS_GENODEF_13
1002
{
1000
HIER
1070
     0
1002
}
1002
{
1000
MANEDIT
1070
     0
1002
}
1002
{
1000
NOSEL
1070
     0
1002
}
1002
{
1000
BEHIND
1070
     0
1002
}
1002
{
1000
OTHER
1070
     0
1002
}
1002
{
1000
REACTOR
1002
}
  0
LINE
  5
B9F4
330
1F
100
AcDbEntity
  8
waku
100
AcDbLine
 10
408.4999999999999
 20
8.5
 30
0.0
 11
408.4999999999999
 21
288.5
 31
0.0
1001
GENIUS_GENREC_14
1002
{
1000
PYDIR
1011
0.0000000000000142
1021
297.0
1031
0.0
1002
}
1002
{
1000
PXDIR
1011
420.0
1021
0.0
1031
0.0
1002
}
1002
{
1000
PORI
1011
0.0
1021
0.0
1031
0.0
1002
}
1002
{
1000
PINS
1011
210.0
1021
148.5
1031
0.0
1002
}
1002
{
1000
HVAL
1000
297
1002
}
1002
{
1000
H
1070
     2
1002
}
1002
{
1000
WVAL
1000
420
1002
}
1002
{
1000
W
1070
     2
1002
}
1002
{
1000
C
1070
     4
1002
}
1001
GENIUS_GENOBJ-N-REC_13
1002
{
1000
OWNER
1000
GEN
1002
}
1001
GENIUS_GENODEF_13
1002
{
1000
HIER
1070
     0
1002
}
1002
{
1000
MANEDIT
1070
     0
1002
}
1002
{
1000
NOSEL
1070
     0
1002
}
1002
{
1000
BEHIND
1070
     0
1002
}
1002
{
1000
OTHER
1070
     0
1002
}
1002
{
1000
REACTOR
1002
}
  0
LINE
  5
B9F5
330
1F
100
AcDbEntity
  8
waku
100
AcDbLine
 10
11.50000000000003
 20
288.5
 30
0.0
 11
11.5
 21
8.5
 31
0.0
1001
GENIUS_GENREC_14
1002
{
1000
PYDIR
1011
0.0000000000000142
1021
297.0
1031
0.0
1002
}
1002
{
1000
PXDIR
1011
420.0
1021
0.0
1031
0.0
1002
}
1002
{
1000
PORI
1011
0.0
1021
0.0
1031
0.0
1002
}
1002
{
1000
PINS
1011
210.0
1021
148.5
1031
0.0
1002
}
1002
{
1000
HVAL
1000
297
1002
}
1002
{
1000
H
1070
     2
1002
}
1002
{
1000
WVAL
1000
420
1002
}
1002
{
1000
W
1070
     2
1002
}
1002
{
1000
C
1070
     4
1002
}
1001
GENIUS_GENOBJ-N-REC_13
1002
{
1000
OWNER
1000
GEN
1002
}
1001
GENIUS_GENODEF_13
1002
{
1000
HIER
1070
     0
1002
}
1002
{
1000
MANEDIT
1070
     0
1002
}
1002
{
1000
NOSEL
1070
     0
1002
}
1002
{
1000
BEHIND
1070
     0
1002
}
1002
{
1000
OTHER
1070
     0
1002
}
1002
{
1000
REACTOR
1002
}
  0
LINE
  5
B9F6
330
1F
100
AcDbEntity
  8
waku
100
AcDbLine
 10
408.4999999999999
 20
288.5
 30
0.0
 11
11.50000000000003
 21
288.5
 31
0.0
1001
GENIUS_GENREC_14
1002
{
1000
PYDIR
1011
0.0000000000000142
1021
297.0
1031
0.0
1002
}
1002
{
1000
PXDIR
1011
420.0
1021
0.0
1031
0.0
1002
}
1002
{
1000
PORI
1011
0.0
1021
0.0
1031
0.0
1002
}
1002
{
1000
PINS
1011
210.0
1021
148.5
1031
0.0
1002
}
1002
{
1000
HVAL
1000
297
1002
}
1002
{
1000
H
1070
     2
1002
}
1002
{
1000
WVAL
1000
420
1002
}
1002
{
1000
W
1070
     2
1002
}
1002
{
1000
C
1070
     4
1002
}
1001
GENIUS_GENOBJ-N-REC_13
1002
{
1000
OWNER
1000
GEN
1002
}
1001
GENIUS_GENODEF_13
1002
{
1000
HIER
1070
     0
1002
}
1002
{
1000
MANEDIT
1070
     0
1002
}
1002
{
1000
NOSEL
1070
     0
1002
}
1002
{
1000
BEHIND
1070
     0
1002
}
1002
{
1000
OTHER
1070
     0
1002
}
1002
{
1000
REACTOR
1002
}
  0
LINE
  5
B9F7
330
1F
100
AcDbEntity
  8
waku
100
AcDbLine
 10
11.5
 20
8.5
 30
0.0
 11
408.4999999999999
 21
8.5
 31
0.0
  0
LINE
  5
BA17
330
1F
100
AcDbEntity
  8
AM_0
100
AcDbLine
 10
11.50000000000003
 20
288.5
 30
0.0
 11
91.38876405539551
 21
288.5
 31
0.0
  0
LINE
  5
BA18
330
1F
100
AcDbEntity
  8
AM_2
100
AcDbLine
 10
11.50000000000003
 20
281.5
 30
0.0
 11
91.38876405539551
 21
281.5
 31
0.0
  0
LINE
  5
BA19
330
1F
100
AcDbEntity
  8
AM_0
100
AcDbLine
 10
11.50000000000003
 20
288.5
 30
0.0
 11
11.50000030636917
 21
253.5
 31
0.0
  0
LINE
  5
BA1A
330
1F
100
AcDbEntity
  8
AM_2
100
AcDbLine
 10
34.50000000000003
 20
288.5
 30
0.0
 11
34.50000030636861
 21
253.5000000000002
 31
0.0
  0
MTEXT
  5
BA1B
330
1F
100
AcDbEntity
  8
AM_6
100
AcDbMText
 10
23.00000000000009
 20
285.0
 30
0.0
 40
3.2
 41
22.99999999999987
 71
     5
 72
     5
  1
品　名
 73
     1
 44
1.0
1001
ACAD
1000
MTEXTBEGIN
1070
    73
1070
     1
1070
    44
1040
1.0
1070
    74
1070
     0
1000
MTEXTEND
1000
ACAD_MTEXT_DEFINED_HEIGHT_BEGIN
1070
    46
1040
6.999999999999955
1000
ACAD_MTEXT_DEFINED_HEIGHT_END
  0
MTEXT
  5
BA1C
330
1F
100
AcDbEntity
  8
AM_6
100
AcDbMText
 10
23.00000000000003
 20
278.0
 30
0.0
 40
3.2
 41
23.00000000000001
 71
     5
 72
     5
  1
品　番
 73
     1
 44
1.0
1001
ACAD
1000
MTEXTBEGIN
1070
    73
1070
     1
1070
    44
1040
1.0
1070
    74
1070
     0
1000
MTEXTEND
1000
ACAD_MTEXT_DEFINED_HEIGHT_BEGIN
1070
    46
1040
7.762029914680923
1000
ACAD_MTEXT_DEFINED_HEIGHT_END
  0
LINE
  5
BA1D
330
1F
100
AcDbEntity
  8
AM_0
100
AcDbLine
 10
91.38876405539551
 20
288.5
 30
0.0
 11
91.3887643617641
 21
253.5000000000002
 31
0.0
  0
LINE
  5
BA1E
330
1F
100
AcDbEntity
  8
AM_2
100
AcDbLine
 10
11.50000000000003
 20
274.5
 30
0.0
 11
91.38876405539551
 21
274.5
 31
0.0
  0
MTEXT
  5
BA1F
330
1F
100
AcDbEntity
  8
AM_6
100
AcDbMText
 10
23.00000000000026
 20
271.2471667108157
 30
0.0
 40
3.2
 41
23.0
 71
     5
 72
     5
  1
材　質
 73
     1
 44
1.0
1001
ACAD
1000
MTEXTBEGIN
1070
    73
1070
     1
1070
    44
1040
1.0
1070
    74
1070
     0
1000
MTEXTEND
1000
ACAD_MTEXT_DEFINED_HEIGHT_BEGIN
1070
    46
1040
5.200000000000001
1000
ACAD_MTEXT_DEFINED_HEIGHT_END
  0
MTEXT
  5
BA20
330
1F
100
AcDbEntity
  8
AM_6
100
AcDbMText
 10
23.00000036764291
 20
264.1610000882972
 30
0.0
 40
3.2
 41
22.99999999999993
 71
     5
 72
     5
  1
仕上げ
 73
     1
 44
1.0
1001
ACAD
1000
MTEXTBEGIN
1070
    73
1070
     1
1070
    44
1040
1.0
1070
    74
1070
     0
1000
MTEXTEND
1000
ACAD_MTEXT_DEFINED_HEIGHT_BEGIN
1070
    46
1040
7.013416674024666
1000
ACAD_MTEXT_DEFINED_HEIGHT_END
  0
TEXT
  5
BA21
330
1F
100
AcDbEntity
  8
AM_6
100
AcDbText
 10
34.50000000000003
 20
276.512999970568
 30
0.0
 40
3.2
  1
　表参照
 41
0.7
100
AcDbText
1001
ACAD
1000
ACAD_MTEXT_DEFINED_HEIGHT_BEGIN
1070
    46
1040
5.200000000000001
1000
ACAD_MTEXT_DEFINED_HEIGHT_END
  0
LINE
  5
BA22
330
1F
100
AcDbEntity
  8
AM_0
100
AcDbLine
 10
11.50000030636838
 20
253.5
 30
0.0
 11
91.38876436176387
 21
253.5
 31
0.0
  0
TEXT
  5
BA23
330
1F
100
AcDbEntity
  8
AM_6
100
AcDbText
 10
34.50000000000003
 20
283.4000000000001
 30
0.0
 40
3.2
  1
　埋込取手
 41
0.7
100
AcDbText
1001
ACAD
1000
ACAD_MTEXT_DEFINED_HEIGHT_BEGIN
1070
    46
1040
7.000000000000011
1000
ACAD_MTEXT_DEFINED_HEIGHT_END
  0
TEXT
  5
BA24
330
1F
100
AcDbEntity
  8
AM_6
100
AcDbText
 10
34.50000000000012
 20
269.512999970568
 30
0.0
 40
3.2
  1
　塩化ビニル樹脂
 41
0.7
100
AcDbText
1001
ACAD
1000
ACAD_MTEXT_DEFINED_HEIGHT_BEGIN
1070
    46
1040
5.199999999999943
1000
ACAD_MTEXT_DEFINED_HEIGHT_END
  0
LINE
  5
BA25
330
1F
100
AcDbEntity
  8
AM_2
100
AcDbLine
 10
11.50000036764257
 20
267.5
 30
0.0
 11
91.38876442303811
 21
267.5
 31
0.0
  0
TEXT
  5
BA26
330
1F
100
AcDbEntity
  8
AM_6
100
AcDbText
 10
34.50000036764266
 20
262.512999970568
 30
0.0
 40
3.2
  1
　生地（モスグリーン・ブラック）
 41
0.7
100
AcDbText
1001
ACAD
1000
ACAD_MTEXT_DEFINED_HEIGHT_BEGIN
1070
    46
1040
5.199999999999943
1000
ACAD_MTEXT_DEFINED_HEIGHT_END
  0
MTEXT
  5
BA34
330
1F
100
AcDbEntity
  8
AM_6
100
AcDbMText
 10
23.00000045868103
 20
257.1610000882972
 30
0.0
 40
3.2
 41
22.99999999999993
 71
     5
 72
     5
  1
備　考
 73
     1
 44
1.0
1001
ACAD
1000
MTEXTBEGIN
1070
    73
1070
     1
1070
    44
1040
1.0
1070
    74
1070
     0
1000
MTEXTEND
1000
ACAD_MTEXT_DEFINED_HEIGHT_BEGIN
1070
    46
1040
7.013416674024666
1000
ACAD_MTEXT_DEFINED_HEIGHT_END
  0
LINE
  5
BA35
330
1F
100
AcDbEntity
  8
AM_2
100
AcDbLine
 10
11.50000045868069
 20
260.5
 30
0.0
 11
91.38876451407623
 21
260.5
 31
0.0
  0
LINE
  5
BF92
330
1F
100
AcDbEntity
  8
DV1__Translation
  6
Continuous
 62
     7
100
AcDbLine
 10
100.9776606152579
 20
151.1625714016552
 30
0.0
 11
153.4776607419579
 21
151.1625714016552
 31
0.0
  0
LINE
  5
BF93
330
1F
100
AcDbEntity
  8
DV1__Translation
  6
Continuous
 62
     7
100
AcDbLine
 10
100.9776606152579
 20
151.1625714016552
 30
0.0
 11
100.9776606152579
 21
98.66257127495517
 31
0.0
  0
CIRCLE
  5
BF95
330
1F
100
AcDbEntity
  8
DV1__Translation
  6
Continuous
 62
     7
100
AcDbCircle
 10
186.1460734743579
 20
165.6625714366552
 30
0.0
 40
0.000393700788352
  0
CIRCLE
  5
BF96
330
1F
100
AcDbEntity
  8
DV1__Translation
  6
Continuous
 62
     7
100
AcDbCircle
 10
195.7460734975579
 20
75.66257121935516
 30
0.0
 40
0.000393700788352
  0
LINE
  5
BF97
330
1F
100
AcDbEntity
  8
DV1__Translation
  6
Continuous
 62
     7
100
AcDbLine
 10
180.3460734603579
 20
165.6625714366552
 30
0.0
 11
180.3460734603579
 21
75.66257121935516
 31
0.0
  0
CIRCLE
  5
BF99
330
1F
100
AcDbEntity
  8
DV1__Translation
  6
Continuous
 62
     7
100
AcDbCircle
 10
186.1460734743579
 20
165.6625714366552
 30
0.0
 40
0.000393700788352
  0
CIRCLE
  5
BF9A
330
1F
100
AcDbEntity
  8
DV1__Translation
  6
Continuous
 62
     7
100
AcDbCircle
 10
220.3460735569579
 20
170.1625714475551
 30
0.0
 40
0.000393700788352
  0
LINE
  5
BF9B
330
1F
100
AcDbEntity
  8
DV1__Translation
  6
Continuous
 62
     7
100
AcDbLine
 10
186.1460734743579
 20
195.1625715078552
 30
0.0
 11
220.3460735569579
 21
195.1625715078552
 31
0.0
  0
CIRCLE
  5
BF9D
330
1F
100
AcDbEntity
  8
DV1__Translation
  6
Continuous
 62
     7
100
AcDbCircle
 10
213.5460735405579
 20
162.0367108972551
 30
0.0
 40
0.000393700788352
  0
CIRCLE
  5
BF9E
330
1F
100
AcDbEntity
  8
DV1__Translation
  6
Continuous
 62
     7
100
AcDbCircle
 10
220.3460735569579
 20
170.1625714475551
 30
0.0
 40
0.000393700788352
  0
LINE
  5
BF9F
330
1F
100
AcDbEntity
  8
DV1__Translation
  6
Continuous
 62
     7
100
AcDbLine
 10
213.5460735405579
 20
185.1625714837551
 30
0.0
 11
220.3460735569579
 21
185.1625714837551
 31
0.0
  0
CIRCLE
  5
BFA1
330
1F
100
AcDbEntity
  8
DV1__Translation
  6
Continuous
 62
     7
100
AcDbCircle
 10
220.3460735569579
 20
170.1625714475551
 30
0.0
 40
0.000393700788352
  0
CIRCLE
  5
BFA2
330
1F
100
AcDbEntity
  8
DV1__Translation
  6
Continuous
 62
     7
100
AcDbCircle
 10
227.5460735743579
 20
160.2625714236552
 30
0.0
 40
0.000393700788352
  0
LINE
  5
BFA3
330
1F
100
AcDbEntity
  8
DV1__Translation
  6
Continuous
 62
     7
100
AcDbLine
 10
220.3460735569579
 20
185.1625714837551
 30
0.0
 11
227.5460735743579
 21
185.1625714837551
 31
0.0
  0
CIRCLE
  5
BFA5
330
1F
100
AcDbEntity
  8
DV1__Translation
  6
Continuous
 62
     7
100
AcDbCircle
 10
227.5460735743579
 20
160.2625714236552
 30
0.0
 40
0.000393700788352
  0
CIRCLE
  5
BFA6
330
1F
100
AcDbEntity
  8
DV1__Translation
  6
Continuous
 62
     7
100
AcDbCircle
 10
230.5460735815579
 20
158.2625714187551
 30
0.0
 40
0.000393700788352
  0
LINE
  5
BFA7
330
1F
100
AcDbEntity
  8
DV1__Translation
  6
Continuous
 62
     7
100
AcDbLine
 10
227.5460735743579
 20
175.1625714595552
 30
0.0
 11
230.5460735815579
 21
175.1625714595552
 31
0.0
  0
CIRCLE
  5
BFA9
330
1F
100
AcDbEntity
  8
DV1__Translation
  6
Continuous
 62
     7
100
AcDbCircle
 10
220.3460735569579
 20
170.1625714475551
 30
0.0
 40
0.000393700788352
  0
CIRCLE
  5
BFAA
330
1F
100
AcDbEntity
  8
DV1__Translation
  6
Continuous
 62
     7
100
AcDbCircle
 10
243.0460736117579
 20
153.1625714064552
 30
0.0
 40
0.000393700788352
  0
LINE
  5
BFAB
330
1F
100
AcDbEntity
  8
DV1__Translation
  6
Continuous
 62
     7
100
AcDbLine
 10
220.3460735569579
 20
195.1625715078552
 30
0.0
 11
243.0460736117579
 21
195.1625715078552
 31
0.0
  0
CIRCLE
  5
BFAD
330
1F
100
AcDbEntity
  8
DV1__Translation
  6
Continuous
 62
     7
100
AcDbCircle
 10
226.4960735717579
 20
160.1625714233552
 30
0.0
 40
0.000393700788352
  0
CIRCLE
  5
BFAE
330
1F
100
AcDbEntity
  8
DV1__Translation
  6
Continuous
 62
     7
100
AcDbCircle
 10
226.4960735717579
 20
142.1625713799552
 30
0.0
 40
0.000393700788352
  0
LINE
  5
BFAF
330
1F
100
AcDbEntity
  8
DV1__Translation
  6
Continuous
 62
     7
100
AcDbLine
 10
263.0460736600579
 20
160.1625714233552
 30
0.0
 11
263.0460736600579
 21
142.1625713799552
 31
0.0
  0
CIRCLE
  5
BFB1
330
1F
100
AcDbEntity
  8
DV1__Translation
  6
Continuous
 62
     7
100
AcDbCircle
 10
241.0460736068579
 20
155.1625714113552
 30
0.0
 40
0.000393700788352
  0
CIRCLE
  5
BFB2
330
1F
100
AcDbEntity
  8
DV1__Translation
  6
Continuous
 62
     7
100
AcDbCircle
 10
241.0460736068579
 20
147.1625713920551
 30
0.0
 40
0.000393700788352
  0
LINE
  5
BFB3
330
1F
100
AcDbEntity
  8
DV1__Translation
  6
Continuous
 62
     7
100
AcDbLine
 10
253.0460736358579
 20
155.1625714113552
 30
0.0
 11
253.0460736358579
 21
147.1625713920551
 31
0.0
  0
CIRCLE
  5
BFB5
330
1F
100
AcDbEntity
  8
DV1__Translation
  6
Continuous
 62
     7
100
AcDbCircle
 10
220.3460735569579
 20
132.1625713557551
 30
0.0
 40
0.000393700788352
  0
CIRCLE
  5
BFB6
330
1F
100
AcDbEntity
  8
DV1__Translation
  6
Continuous
 62
     7
100
AcDbCircle
 10
220.3460735569579
 20
170.1625714475551
 30
0.0
 40
0.000393700788352
  0
LINE
  5
BFB7
330
1F
100
AcDbEntity
  8
DV1__Translation
  6
Continuous
 62
     7
100
AcDbLine
 10
273.0460736841579
 20
132.1625713557551
 30
0.0
 11
273.0460736841579
 21
170.1625714475551
 31
0.0
  0
CIRCLE
  5
BFB9
330
1F
100
AcDbEntity
  8
DV1__Translation
  6
Continuous
 62
     7
100
AcDbCircle
 10
317.5391510868579
 20
166.1625714378551
 30
0.0
 40
0.000393700788352
  0
CIRCLE
  5
BFBA
330
1F
100
AcDbEntity
  8
DV1__Translation
  6
Continuous
 62
     7
100
AcDbCircle
 10
307.5391510627579
 20
151.1625714016552
 30
0.0
 40
0.000393700788352
  0
LINE
  5
BFBB
330
1F
100
AcDbEntity
  8
DV1__Translation
  6
Continuous
 62
     7
100
AcDbLine
 10
300.5391510458579
 20
166.1625714378551
 30
0.0
 11
300.5391510458579
 21
151.1625714016552
 31
0.0
  0
CIRCLE
  5
BFBD
330
1F
100
AcDbEntity
  8
DV1__Translation
  6
Continuous
 62
     7
100
AcDbCircle
 10
309.0391510663579
 20
158.9568000545551
 30
0.0
 40
0.000393700788352
  0
CIRCLE
  5
BFBE
330
1F
100
AcDbEntity
  8
DV1__Translation
  6
Continuous
 62
     7
100
AcDbCircle
 10
336.0391511315579
 20
158.9568000545551
 30
0.0
 40
0.000393700788352
  0
LINE
  5
BFBF
330
1F
100
AcDbEntity
  8
DV1__Translation
  6
Continuous
 62
     7
100
AcDbLine
 10
309.0391510663579
 20
175.1625714595552
 30
0.0
 11
336.0391511315579
 21
175.1625714595552
 31
0.0
  0
CIRCLE
  5
BFC1
330
1F
100
AcDbEntity
  8
DV1__Translation
  6
Continuous
 62
     7
100
AcDbCircle
 10
90.22766058925787
 20
162.8824323981551
 30
0.0
 40
0.000393700788352
  0
CIRCLE
  5
BFC2
330
1F
100
AcDbEntity
  8
DV1__Translation
  6
Continuous
 62
     7
100
AcDbCircle
 10
111.7276606411579
 20
162.8824323981551
 30
0.0
 40
0.000393700788352
  0
LINE
  5
BFC3
330
1F
100
AcDbEntity
  8
DV1__Translation
  6
Continuous
 62
     7
100
AcDbLine
 10
90.22766058925787
 20
175.1625714595552
 30
0.0
 11
111.7276606411579
 21
175.1625714595552
 31
0.0
  0
CIRCLE
  5
BFC5
330
1F
100
AcDbEntity
  8
DV1__Translation
  6
Continuous
 62
     7
100
AcDbCircle
 10
95.47766060195788
 20
77.18785621535516
 30
0.0
 40
0.000393700788352
  0
CIRCLE
  5
BFC6
330
1F
100
AcDbEntity
  8
DV1__Translation
  6
Continuous
 62
     7
100
AcDbCircle
 10
106.4776606284579
 20
77.18785621535516
 30
0.0
 40
0.000393700788352
  0
LINE
  5
BFC7
330
1F
100
AcDbEntity
  8
DV1__Translation
  6
Continuous
 62
     7
100
AcDbLine
 10
95.47766060195788
 20
65.66257119525516
 30
0.0
 11
106.4776606284579
 21
65.66257119525516
 31
0.0
  0
LINE
  5
BFC9
330
1F
100
AcDbEntity
  8
DV1__Translation
  6
Continuous
 62
     7
100
AcDbLine
 10
100.9776606152579
 20
151.1625714016552
 30
0.0
 11
48.47766048845788
 21
151.1625714016552
 31
0.0
  0
LINE
  5
BFCA
330
1F
100
AcDbEntity
  8
DV1__Translation
  6
Continuous
 62
     7
100
AcDbLine
 10
100.9776606152579
 20
151.1625714016552
 30
0.0
 11
100.9776606152579
 21
98.66257127495517
 31
0.0
  0
CIRCLE
  5
BFCC
330
1F
100
AcDbEntity
  8
DV1__Translation
  6
Continuous
 62
     7
100
AcDbCircle
 10
322.5391510989579
 20
166.1625714378551
 30
0.0
 40
1.5000000036212
  0
CIRCLE
  5
BFCE
330
1F
100
AcDbEntity
  8
DV1__Translation
  6
Continuous
 62
     7
100
AcDbCircle
 10
321.7119735818579
 20
146.3328946556551
 30
0.0
 40
0.000393700788352
  0
CIRCLE
  5
BFCF
330
1F
100
AcDbEntity
  8
DV1__Translation
  6
Continuous
 62
     7
100
AcDbCircle
 10
327.3688278449579
 20
151.9897489187551
 30
0.0
 40
0.000393700788352
  0
LINE
  5
BFD0
330
1F
100
AcDbEntity
  8
DV1__Translation
  6
Continuous
 62
     7
100
AcDbLine
 10
334.9417138407579
 20
133.1031543966552
 30
0.0
 11
340.5985681039579
 21
138.7600086598552
 31
0.0
  0
LINE
  5
F1EF
330
1F
100
AcDbEntity
  8
AM_0
100
AcDbLine
 10
45.57184909317669
 20
234.5510426242468
 30
0.0
 11
185.0162311208747
 21
234.5510426242348
 31
0.0
  0
LINE
  5
F1F0
330
1F
100
AcDbEntity
  8
AM_0
100
AcDbLine
 10
45.57184909317664
 20
239.5510426242471
 30
0.0
 11
45.57184909317664
 21
214.4437092320467
 31
0.0
  0
MTEXT
  5
F1F1
330
1F
100
AcDbEntity
  8
AM_6
100
AcDbMText
 10
59.29404010702552
 20
237.1640425948149
 30
0.0
 40
3.2
 41
27.4443820276978
 71
     5
 72
     5
  1
品　番
 73
     1
 44
1.0
1001
ACAD
1000
MTEXTBEGIN
1070
    73
1070
     1
1070
    44
1040
1.0
1070
    74
1070
     0
1000
MTEXTEND
  0
LINE
  5
F1F2
330
1F
100
AcDbEntity
  8
AM_0
100
AcDbLine
 10
73.01623112087444
 20
239.5510426242464
 30
0.0
 11
73.01623112087447
 21
214.4437092320477
 31
0.0
  0
MTEXT
  5
F1F3
330
1F
100
AcDbEntity
  8
AM_6
100
AcDbMText
 10
59.24971899531982
 20
229.6640425948157
 30
0.0
 40
3.2
 41
23.0
 71
     5
 72
     5
  1
EDU-82-1
 73
     1
 44
1.0
1001
ACAD
1000
MTEXTBEGIN
1070
    73
1070
     1
1070
    44
1040
1.0
1070
    74
1070
     0
1000
MTEXTEND
  0
LINE
  5
F1F4
330
1F
100
AcDbEntity
  8
AM_0
100
AcDbLine
 10
45.57184909317664
 20
239.5510426242471
 30
0.0
 11
185.0162311208746
 21
239.5510426242361
 31
0.0
  0
MTEXT
  5
F1F5
330
1F
100
AcDbEntity
  8
AM_6
100
AcDbMText
 10
78.01623112087444
 20
237.164042594815
 30
0.0
 40
3.2
 41
9.999999999999943
 71
     5
 72
     5
  1
（A）
 73
     1
 44
1.0
1001
ACAD
1000
MTEXTBEGIN
1070
    73
1070
     1
1070
    44
1040
1.0
1070
    74
1070
     0
1000
MTEXTEND
  0
LINE
  5
F1F7
330
1F
100
AcDbEntity
  8
AM_2
100
AcDbLine
 10
83.01623112087444
 20
239.5510426242471
 30
0.0
 11
83.01623112087446
 21
214.4437092320455
 31
0.0
  0
MTEXT
  5
F1F8
330
1F
100
AcDbEntity
  8
AM_6
100
AcDbMText
 10
88.01623112087444
 20
237.164042594815
 30
0.0
 40
3.2
 41
9.999999999999943
 71
     5
 72
     5
  1
B
 73
     1
 44
1.0
1001
ACAD
1000
MTEXTBEGIN
1070
    73
1070
     1
1070
    44
1040
1.0
1070
    74
1070
     0
1000
MTEXTEND
  0
LINE
  5
F1F9
330
1F
100
AcDbEntity
  8
AM_2
100
AcDbLine
 10
93.01623112087444
 20
239.5510426242471
 30
0.0
 11
93.01623112087439
 21
214.4437092320452
 31
0.0
  0
MTEXT
  5
F1FA
330
1F
100
AcDbEntity
  8
AM_6
100
AcDbMText
 10
98.01623112087444
 20
237.164042594815
 30
0.0
 40
3.2
 41
9.999999999999943
 71
     5
 72
     5
  1
（C）
 73
     1
 44
1.0
1001
ACAD
1000
MTEXTBEGIN
1070
    73
1070
     1
1070
    44
1040
1.0
1070
    74
1070
     0
1000
MTEXTEND
  0
LINE
  5
F1FB
330
1F
100
AcDbEntity
  8
AM_2
100
AcDbLine
 10
103.0162311208744
 20
239.5510426242473
 30
0.0
 11
103.0162311208744
 21
214.4437092320448
 31
0.0
  0
MTEXT
  5
F1FC
330
1F
100
AcDbEntity
  8
AM_6
100
AcDbMText
 10
108.0162311208744
 20
237.1640425948148
 30
0.0
 40
3.2
 41
9.999999999999943
 71
     5
 72
     5
  1
D
 73
     1
 44
1.0
1001
ACAD
1000
MTEXTBEGIN
1070
    73
1070
     1
1070
    44
1040
1.0
1070
    74
1070
     0
1000
MTEXTEND
  0
LINE
  5
F1FD
330
1F
100
AcDbEntity
  8
AM_2
100
AcDbLine
 10
113.0162311208745
 20
239.5510426242471
 30
0.0
 11
113.0162311208744
 21
214.4437092320445
 31
0.0
  0
MTEXT
  5
F1FE
330
1F
100
AcDbEntity
  8
AM_6
100
AcDbMText
 10
118.0162311208744
 20
237.1640425948148
 30
0.0
 40
3.2
 41
9.999999999999943
 71
     5
 72
     5
  1
E
 73
     1
 44
1.0
1001
ACAD
1000
MTEXTBEGIN
1070
    73
1070
     1
1070
    44
1040
1.0
1070
    74
1070
     0
1000
MTEXTEND
  0
LINE
  5
F1FF
330
1F
100
AcDbEntity
  8
AM_2
100
AcDbLine
 10
123.0162311208744
 20
239.5510426242471
 30
0.0
 11
123.0162311208744
 21
214.4437092320443
 31
0.0
  0
MTEXT
  5
F200
330
1F
100
AcDbEntity
  8
AM_6
100
AcDbMText
 10
128.0162311208744
 20
237.1640425948148
 30
0.0
 40
3.2
 41
9.999999999999943
 71
     5
 72
     5
  1
F
 73
     1
 44
1.0
1001
ACAD
1000
MTEXTBEGIN
1070
    73
1070
     1
1070
    44
1040
1.0
1070
    74
1070
     0
1000
MTEXTEND
  0
LINE
  5
F201
330
1F
100
AcDbEntity
  8
AM_2
100
AcDbLine
 10
133.0162311208744
 20
239.5510426242471
 30
0.0
 11
133.0162311208742
 21
214.443709232044
 31
0.0
  0
MTEXT
  5
F202
330
1F
100
AcDbEntity
  8
AM_6
100
AcDbMText
 10
138.0162311208745
 20
237.1640425948148
 30
0.0
 40
3.2
 41
9.999999999999943
 71
     5
 72
     5
  1
G
 73
     1
 44
1.0
1001
ACAD
1000
MTEXTBEGIN
1070
    73
1070
     1
1070
    44
1040
1.0
1070
    74
1070
     0
1000
MTEXTEND
  0
LINE
  5
F203
330
1F
100
AcDbEntity
  8
AM_2
100
AcDbLine
 10
143.0162311208744
 20
239.5510426242471
 30
0.0
 11
143.0162311208741
 21
214.4437092320436
 31
0.0
  0
MTEXT
  5
F204
330
1F
100
AcDbEntity
  8
AM_6
100
AcDbMText
 10
148.0162311208744
 20
237.1640425948148
 30
0.0
 40
3.2
 41
9.999999999999943
 71
     5
 72
     5
  1
H
 73
     1
 44
1.0
1001
ACAD
1000
MTEXTBEGIN
1070
    73
1070
     1
1070
    44
1040
1.0
1070
    74
1070
     0
1000
MTEXTEND
  0
LINE
  5
F205
330
1F
100
AcDbEntity
  8
AM_2
100
AcDbLine
 10
153.0162311208744
 20
239.5510426242471
 30
0.0
 11
153.0162311208744
 21
214.4437092320433
 31
0.0
  0
MTEXT
  5
F206
330
1F
100
AcDbEntity
  8
AM_6
100
AcDbMText
 10
158.0162311208744
 20
237.1640425948152
 30
0.0
 40
3.2
 41
9.999999999999943
 71
     5
 72
     5
  1
I
 73
     1
 44
1.0
1001
ACAD
1000
MTEXTBEGIN
1070
    73
1070
     1
1070
    44
1040
1.0
1070
    74
1070
     0
1000
MTEXTEND
  0
LINE
  5
F207
330
1F
100
AcDbEntity
  8
AM_2
100
AcDbLine
 10
163.0162311208745
 20
239.551042624244
 30
0.0
 11
163.0162311208741
 21
214.443709232043
 31
0.0
  0
MTEXT
  5
F208
330
1F
100
AcDbEntity
  8
AM_6
100
AcDbMText
 10
168.0162311208744
 20
237.1640425948147
 30
0.0
 40
3.2
 41
9.999999999999943
 71
     5
 72
     5
  1
J
 73
     1
 44
1.0
1001
ACAD
1000
MTEXTBEGIN
1070
    73
1070
     1
1070
    44
1040
1.0
1070
    74
1070
     0
1000
MTEXTEND
  0
LINE
  5
F209
330
1F
100
AcDbEntity
  8
AM_2
100
AcDbLine
 10
173.0162311208744
 20
239.5510426242438
 30
0.0
 11
173.0162311208744
 21
214.4437092320426
 31
0.0
  0
MTEXT
  5
F20A
330
1F
100
AcDbEntity
  8
AM_6
100
AcDbMText
 10
179.0162311208744
 20
237.1640425948147
 30
0.0
 40
3.2
 41
11.99999999999994
 71
     5
 72
     5
  1
K
 73
     1
 44
1.0
1001
ACAD
1000
MTEXTBEGIN
1070
    73
1070
     1
1070
    44
1040
1.0
1070
    74
1070
     0
1000
MTEXTEND
  0
LINE
  5
F217
330
1F
100
AcDbEntity
  8
AM_2
100
AcDbLine
 10
45.57184909317669
 20
224.4973759281467
 30
0.0
 11
185.0162311208747
 21
224.4973759281348
 31
0.0
  0
LINE
  5
F218
330
1F
100
AcDbEntity
  8
AM_0
100
AcDbLine
 10
185.0162311208747
 20
239.5510426242298
 30
0.0
 11
185.0162311208746
 21
214.4437092320333
 31
0.0
  0
MTEXT
  5
F219
330
1F
100
AcDbEntity
  8
AM_6
100
AcDbMText
 10
78.01623112087381
 20
219.5835425506644
 30
0.0
 40
3.2
 41
9.999999999999943
 71
     5
 72
     5
  1
120
 73
     1
 44
1.0
1001
ACAD
1000
MTEXTBEGIN
1070
    73
1070
     1
1070
    44
1040
1.0
1070
    74
1070
     0
1000
MTEXTEND
  0
MTEXT
  5
F21A
330
1F
100
AcDbEntity
  8
AM_6
100
AcDbMText
 10
88.01623112087382
 20
219.5835425506643
 30
0.0
 40
3.2
 41
9.999999999999943
 71
     5
 72
     5
  1
92
 73
     1
 44
1.0
1001
ACAD
1000
MTEXTBEGIN
1070
    73
1070
     1
1070
    44
1040
1.0
1070
    74
1070
     0
1000
MTEXTEND
  0
MTEXT
  5
F21B
330
1F
100
AcDbEntity
  8
AM_6
100
AcDbMText
 10
108.0162311208738
 20
219.5835425506642
 30
0.0
 40
3.2
 41
9.999999999999943
 71
     5
 72
     5
  1
30
 73
     1
 44
1.0
1001
ACAD
1000
MTEXTBEGIN
1070
    73
1070
     1
1070
    44
1040
1.0
1070
    74
1070
     0
1000
MTEXTEND
  0
MTEXT
  5
F21C
330
1F
100
AcDbEntity
  8
AM_6
100
AcDbMText
 10
118.0162311208738
 20
219.5835425506642
 30
0.0
 40
3.2
 41
9.999999999999943
 71
     5
 72
     5
  1
96
 73
     1
 44
1.0
1001
ACAD
1000
MTEXTBEGIN
1070
    73
1070
     1
1070
    44
1040
1.0
1070
    74
1070
     0
1000
MTEXTEND
  0
MTEXT
  5
F21D
330
1F
100
AcDbEntity
  8
AM_6
100
AcDbMText
 10
128.0162311208738
 20
219.5835425506639
 30
0.0
 40
3.2
 41
9.999999999999943
 71
     5
 72
     5
  1
47
 73
     1
 44
1.0
1001
ACAD
1000
MTEXTBEGIN
1070
    73
1070
     1
1070
    44
1040
1.0
1070
    74
1070
     0
1000
MTEXTEND
  0
MTEXT
  5
F21E
330
1F
100
AcDbEntity
  8
AM_6
100
AcDbMText
 10
138.0162311208738
 20
219.5835425506639
 30
0.0
 40
3.2
 41
9.999999999999943
 71
     5
 72
     5
  1
6
 73
     1
 44
1.0
1001
ACAD
1000
MTEXTBEGIN
1070
    73
1070
     1
1070
    44
1040
1.0
1070
    74
1070
     0
1000
MTEXTEND
  0
MTEXT
  5
F21F
330
1F
100
AcDbEntity
  8
AM_6
100
AcDbMText
 10
148.0162311208738
 20
219.5835425506639
 30
0.0
 40
3.2
 41
9.999999999999943
 71
     5
 72
     5
  1
35
 73
     1
 44
1.0
1001
ACAD
1000
MTEXTBEGIN
1070
    73
1070
     1
1070
    44
1040
1.0
1070
    74
1070
     0
1000
MTEXTEND
  0
MTEXT
  5
F220
330
1F
100
AcDbEntity
  8
AM_6
100
AcDbMText
 10
158.0162311208738
 20
219.5835425506645
 30
0.0
 40
3.2
 41
9.999999999999943
 71
     5
 72
     5
  1
106
 73
     1
 44
1.0
1001
ACAD
1000
MTEXTBEGIN
1070
    73
1070
     1
1070
    44
1040
1.0
1070
    74
1070
     0
1000
MTEXTEND
  0
MTEXT
  5
F221
330
1F
100
AcDbEntity
  8
AM_6
100
AcDbMText
 10
168.0162311208738
 20
219.5835425506639
 30
0.0
 40
3.2
 41
9.999999999999943
 71
     5
 72
     5
  1
39
 73
     1
 44
1.0
1001
ACAD
1000
MTEXTBEGIN
1070
    73
1070
     1
1070
    44
1040
1.0
1070
    74
1070
     0
1000
MTEXTEND
  0
MTEXT
  5
F222
330
1F
100
AcDbEntity
  8
AM_6
100
AcDbMText
 10
179.0162311208737
 20
219.5835425506642
 30
0.0
 40
3.2
 41
11.99999999999994
 71
     5
 72
     5
  1
R19.5
 73
     1
 44
1.0
1001
ACAD
1000
MTEXTBEGIN
1070
    73
1070
     1
1070
    44
1040
1.0
1070
    74
1070
     0
1000
MTEXTEND
  0
LINE
  5
F224
330
1F
100
AcDbEntity
  8
AM_0
100
AcDbLine
 10
45.57184909317664
 20
214.4437092320467
 30
0.0
 11
185.0162311208746
 21
214.4437092320345
 31
0.0
  0
MTEXT
  5
F226
330
1F
100
AcDbEntity
  8
AM_6
100
AcDbMText
 10
98.01623112087382
 20
219.5835425506642
 30
0.0
 40
3.2
 41
9.999999999999943
 71
     5
 72
     5
  1
58
 73
     1
 44
1.0
1001
ACAD
1000
MTEXTBEGIN
1070
    73
1070
     1
1070
    44
1040
1.0
1070
    74
1070
     0
1000
MTEXTEND
  0
MTEXT
  5
F228
330
1F
100
AcDbEntity
  8
AM_6
100
AcDbMText
 10
78.01623112087333
 20
229.6372092467654
 30
0.0
 40
3.2
 41
9.999999999999943
 71
     5
 72
     5
  1
82
 73
     1
 44
1.0
1001
ACAD
1000
MTEXTBEGIN
1070
    73
1070
     1
1070
    44
1040
1.0
1070
    74
1070
     0
1000
MTEXTEND
  0
MTEXT
  5
F229
330
1F
100
AcDbEntity
  8
AM_6
100
AcDbMText
 10
88.01623112087332
 20
229.6372092467653
 30
0.0
 40
3.2
 41
9.999999999999943
 71
     5
 72
     5
  1
62
 73
     1
 44
1.0
1001
ACAD
1000
MTEXTBEGIN
1070
    73
1070
     1
1070
    44
1040
1.0
1070
    74
1070
     0
1000
MTEXTEND
  0
MTEXT
  5
F22A
330
1F
100
AcDbEntity
  8
AM_6
100
AcDbMText
 10
108.0162311208733
 20
229.6372092467652
 30
0.0
 40
3.2
 41
9.999999999999943
 71
     5
 72
     5
  1
22
 73
     1
 44
1.0
1001
ACAD
1000
MTEXTBEGIN
1070
    73
1070
     1
1070
    44
1040
1.0
1070
    74
1070
     0
1000
MTEXTEND
  0
MTEXT
  5
F22B
330
1F
100
AcDbEntity
  8
AM_6
100
AcDbMText
 10
118.0162311208733
 20
229.6372092467652
 30
0.0
 40
3.2
 41
9.999999999999943
 71
     5
 72
     5
  1
66
 73
     1
 44
1.0
1001
ACAD
1000
MTEXTBEGIN
1070
    73
1070
     1
1070
    44
1040
1.0
1070
    74
1070
     0
1000
MTEXTEND
  0
MTEXT
  5
F22C
330
1F
100
AcDbEntity
  8
AM_6
100
AcDbMText
 10
128.0162311208733
 20
229.6372092467649
 30
0.0
 40
3.2
 41
9.999999999999943
 71
     5
 72
     5
  1
42
 73
     1
 44
1.0
1001
ACAD
1000
MTEXTBEGIN
1070
    73
1070
     1
1070
    44
1040
1.0
1070
    74
1070
     0
1000
MTEXTEND
  0
MTEXT
  5
F22D
330
1F
100
AcDbEntity
  8
AM_6
100
AcDbMText
 10
138.0162311208733
 20
229.6372092467649
 30
0.0
 40
3.2
 41
9.999999999999943
 71
     5
 72
     5
  1
3
 73
     1
 44
1.0
1001
ACAD
1000
MTEXTBEGIN
1070
    73
1070
     1
1070
    44
1040
1.0
1070
    74
1070
     0
1000
MTEXTEND
  0
MTEXT
  5
F22E
330
1F
100
AcDbEntity
  8
AM_6
100
AcDbMText
 10
148.0162311208733
 20
229.6372092467649
 30
0.0
 40
3.2
 41
9.999999999999943
 71
     5
 72
     5
  1
32
 73
     1
 44
1.0
1001
ACAD
1000
MTEXTBEGIN
1070
    73
1070
     1
1070
    44
1040
1.0
1070
    74
1070
     0
1000
MTEXTEND
  0
MTEXT
  5
F22F
330
1F
100
AcDbEntity
  8
AM_6
100
AcDbMText
 10
158.0162311208733
 20
229.6372092467655
 30
0.0
 40
3.2
 41
9.999999999999943
 71
     5
 72
     5
  1
73
 73
     1
 44
1.0
1001
ACAD
1000
MTEXTBEGIN
1070
    73
1070
     1
1070
    44
1040
1.0
1070
    74
1070
     0
1000
MTEXTEND
  0
MTEXT
  5
F230
330
1F
100
AcDbEntity
  8
AM_6
100
AcDbMText
 10
168.0162311208733
 20
229.6372092467649
 30
0.0
 40
3.2
 41
9.999999999999943
 71
     5
 72
     5
  1
27
 73
     1
 44
1.0
1001
ACAD
1000
MTEXTBEGIN
1070
    73
1070
     1
1070
    44
1040
1.0
1070
    74
1070
     0
1000
MTEXTEND
  0
MTEXT
  5
F231
330
1F
100
AcDbEntity
  8
AM_6
100
AcDbMText
 10
179.0162311208733
 20
229.6372092467652
 30
0.0
 40
3.2
 41
11.99999999999994
 71
     5
 72
     5
  1
R13.5
 73
     1
 44
1.0
1001
ACAD
1000
MTEXTBEGIN
1070
    73
1070
     1
1070
    44
1040
1.0
1070
    74
1070
     0
1000
MTEXTEND
  0
MTEXT
  5
F233
330
1F
100
AcDbEntity
  8
AM_6
100
AcDbMText
 10
98.01623112087334
 20
229.6372092467652
 30
0.0
 40
3.2
 41
9.999999999999943
 71
     5
 72
     5
  1
42
 73
     1
 44
1.0
1001
ACAD
1000
MTEXTBEGIN
1070
    73
1070
     1
1070
    44
1040
1.0
1070
    74
1070
     0
1000
MTEXTEND
  0
MTEXT
  5
F234
330
1F
100
AcDbEntity
  8
AM_6
100
AcDbMText
 10
59.48703205111659
 20
219.6103758987231
 30
0.0
 40
3.2
 41
23.0
 71
     5
 72
     5
  1
EDU-82-2
 73
     1
 44
1.0
1001
ACAD
1000
MTEXTBEGIN
1070
    73
1070
     1
1070
    44
1040
1.0
1070
    74
1070
     0
1000
MTEXTEND
  0
LINE
  5
F67C
330
1F
100
AcDbEntity
  8
AM_7
100
AcDbLine
 10
134.9432138976383
 20
181.8251733328725
 30
0.0
 11
134.9432138976383
 21
55.82517333287251
 31
0.0
  0
LINE
  5
F67D
330
1F
100
AcDbEntity
  8
AM_7
100
AcDbLine
 10
84.94321389763838
 20
118.8251733328724
 30
0.0
 11
166.9432138976383
 21
118.8251733328725
 31
0.0
  0
LINE
  5
F67E
330
1F
100
AcDbEntity
  8
AM_0
100
AcDbLine
 10
112.4432138976383
 20
178.8251733328725
 30
0.0
 11
157.4432138976384
 21
178.8251733328725
 31
0.0
  0
LINE
  5
F67F
330
1F
100
AcDbEntity
  8
AM_0
100
AcDbLine
 10
112.4432138976383
 20
58.82517333287251
 30
0.0
 11
157.4432138976384
 21
58.82517333287251
 31
0.0
  0
LINE
  5
F680
330
1F
100
AcDbEntity
  8
AM_0
100
AcDbLine
 10
163.9432138976383
 20
172.3251733328725
 30
0.0
 11
163.9432138976383
 21
65.32517333287251
 31
0.0
  0
LINE
  5
F681
330
1F
100
AcDbEntity
  8
AM_0
100
AcDbLine
 10
105.9432138976383
 20
172.3251733328725
 30
0.0
 11
105.9432138976383
 21
65.32517333287251
 31
0.0
  0
LINE
  5
F682
330
1F
100
AcDbEntity
  8
AM_0
100
AcDbLine
 10
119.9432138976383
 20
154.8251733328725
 30
0.0
 11
119.9432138976383
 21
82.8251733328725
 31
0.0
  0
LINE
  5
F683
330
1F
100
AcDbEntity
  8
AM_0
100
AcDbLine
 10
149.9432138976384
 20
154.8251733328725
 30
0.0
 11
149.9432138976384
 21
82.8251733328725
 31
0.0
  0
LINE
  5
F684
330
1F
100
AcDbEntity
  8
AM_0
100
AcDbLine
 10
129.9432138976383
 20
164.8251733328725
 30
0.0
 11
139.9432138976383
 21
164.8251733328725
 31
0.0
  0
LINE
  5
F685
330
1F
100
AcDbEntity
  8
AM_0
100
AcDbLine
 10
129.9432138976383
 20
72.82517333287251
 30
0.0
 11
139.9432138976383
 21
72.82517333287251
 31
0.0
  0
LINE
  5
F686
330
1F
100
AcDbEntity
  8
AM_0
100
AcDbLine
 10
87.94321389763835
 20
156.8251733328725
 30
0.0
 11
87.94321389763835
 21
80.82517333287251
 31
0.0
  0
LINE
  5
F687
330
1F
100
AcDbEntity
  8
AM_0
100
AcDbLine
 10
97.94321389763837
 20
166.8251733328725
 30
0.0
 11
105.9432138976383
 21
166.8251733328725
 31
0.0
  0
LINE
  5
F688
330
1F
100
AcDbEntity
  8
AM_0
100
AcDbLine
 10
97.94321389763837
 20
70.82517333287251
 30
0.0
 11
105.9432138976383
 21
70.82517333287251
 31
0.0
  0
LINE
  5
F689
330
1F
100
AcDbEntity
  8
AM_0
100
AcDbLine
 10
224.9432138976384
 20
178.8251733328725
 30
0.0
 11
224.9432138976384
 21
58.82517333287251
 31
0.0
  0
LINE
  5
F68A
330
1F
100
AcDbEntity
  8
AM_0
100
AcDbLine
 10
222.9432138976384
 20
178.8251733328725
 30
0.0
 11
222.9432138976384
 21
58.82517333287251
 31
0.0
  0
LINE
  5
F68B
330
1F
100
AcDbEntity
  8
AM_0
100
AcDbLine
 10
216.9432138976384
 20
168.6164733328725
 30
0.0
 11
216.9432138976384
 21
69.03387333287253
 31
0.0
  0
LINE
  5
F68C
330
1F
100
AcDbEntity
  8
AM_0
100
AcDbLine
 10
229.9432138976384
 20
176.3251733328725
 30
0.0
 11
229.9432138976384
 21
61.32517333287251
 31
0.0
  0
LINE
  5
F68D
330
1F
100
AcDbEntity
  8
AM_0
100
AcDbLine
 10
259.9432138976384
 20
151.8251733328725
 30
0.0
 11
259.9432138976384
 21
85.82517333287251
 31
0.0
  0
LINE
  5
F68E
330
1F
100
AcDbEntity
  8
AM_0
100
AcDbLine
 10
231.4432138976384
 20
70.82517333287251
 30
0.0
 11
244.9432138976384
 21
70.82517333287251
 31
0.0
  0
LINE
  5
F68F
330
1F
100
AcDbEntity
  8
AM_0
100
AcDbLine
 10
231.4432138976384
 20
166.8251733328725
 30
0.0
 11
244.9432138976384
 21
166.8251733328725
 31
0.0
  0
LINE
  5
F690
330
1F
100
AcDbEntity
  8
AM_0
100
AcDbLine
 10
222.9432138976384
 20
171.8251733328725
 30
0.0
 11
224.9432138976384
 21
171.8251733328725
 31
0.0
  0
LINE
  5
F691
330
1F
100
AcDbEntity
  8
AM_0
100
AcDbLine
 10
222.9432138976384
 20
65.82517333287251
 30
0.0
 11
224.9432138976384
 21
65.82517333287251
 31
0.0
  0
LINE
  5
F692
330
1F
100
AcDbEntity
  8
AM_0
100
AcDbLine
 10
224.9432138976384
 20
58.82517333287251
 30
0.0
 11
227.4432138976384
 21
58.82517333287251
 31
0.0
  0
LINE
  5
F693
330
1F
100
AcDbEntity
  8
AM_0
100
AcDbLine
 10
224.9432138976384
 20
178.8251733328725
 30
0.0
 11
227.4432138976384
 21
178.8251733328725
 31
0.0
  0
LINE
  5
F694
330
1F
100
AcDbEntity
  8
AM_7
100
AcDbLine
 10
213.9432138976383
 20
118.8251733328725
 30
0.0
 11
262.9432138976384
 21
118.8251733328725
 31
0.0
  0
LINE
  5
F695
330
1F
100
AcDbEntity
  8
AM_7
100
AcDbLine
 10
335.3956567062521
 20
174.8251733328725
 30
0.0
 11
335.3956567062521
 21
62.82517333287251
 31
0.0
  0
LINE
  5
F696
330
1F
100
AcDbEntity
  8
AM_7
100
AcDbLine
 10
312.8956567062521
 20
118.8251733328724
 30
0.0
 11
357.8956567062521
 21
118.8251733328725
 31
0.0
  0
LINE
  5
F697
330
1F
100
AcDbEntity
  8
AM_0
100
AcDbLine
 10
315.8956567062521
 20
152.3251733328725
 30
0.0
 11
315.8956567062521
 21
85.3251733328725
 31
0.0
  0
LINE
  5
F698
330
1F
100
AcDbEntity
  8
AM_0
100
AcDbLine
 10
354.895656706252
 20
152.3251733328725
 30
0.0
 11
354.895656706252
 21
85.3251733328725
 31
0.0
  0
ARC
  5
F699
330
1F
100
AcDbEntity
  8
AM_0
100
AcDbCircle
 10
97.94321389763837
 20
156.8251733328725
 30
0.0
 40
10.0
100
AcDbArc
 50
90.0
 51
180.0
  0
ARC
  5
F69A
330
1F
100
AcDbEntity
  8
AM_0
100
AcDbCircle
 10
97.94321389763837
 20
80.82517333287251
 30
0.0
 40
10.0
100
AcDbArc
 50
180.0
 51
270.0
  0
ARC
  5
F69B
330
1F
100
AcDbEntity
  8
AM_0
100
AcDbCircle
 10
139.9432138976383
 20
82.8251733328725
 30
0.0
 40
10.0
100
AcDbArc
 50
270.0
 51
0.0
  0
ARC
  5
F69C
330
1F
100
AcDbEntity
  8
AM_0
100
AcDbCircle
 10
139.9432138976383
 20
154.8251733328725
 30
0.0
 40
10.0
100
AcDbArc
 50
0.0
 51
90.0
  0
ARC
  5
F69D
330
1F
100
AcDbEntity
  8
AM_0
100
AcDbCircle
 10
112.4432138976383
 20
172.3251733328725
 30
0.0
 40
6.5
100
AcDbArc
 50
90.0
 51
180.0
  0
ARC
  5
F69E
330
1F
100
AcDbEntity
  8
AM_0
100
AcDbCircle
 10
112.4432138976383
 20
65.32517333287251
 30
0.0
 40
6.5
100
AcDbArc
 50
180.0
 51
270.0
  0
ARC
  5
F69F
330
1F
100
AcDbEntity
  8
AM_0
100
AcDbCircle
 10
157.4432138976384
 20
65.32517333287251
 30
0.0
 40
6.5
100
AcDbArc
 50
270.0
 51
0.0
  0
ARC
  5
F6A0
330
1F
100
AcDbEntity
  8
AM_0
100
AcDbCircle
 10
157.4432138976384
 20
172.3251733328725
 30
0.0
 40
6.5
100
AcDbArc
 50
0.0
 51
90.0
  0
ARC
  5
F6A3
330
1F
100
AcDbEntity
  8
AM_0
100
AcDbCircle
 10
244.9432138976384
 20
151.8251733328725
 30
0.0
 40
15.0
100
AcDbArc
 50
0.0
 51
90.0
  0
ARC
  5
F6A4
330
1F
100
AcDbEntity
  8
AM_0
100
AcDbCircle
 10
244.9432138976384
 20
85.82517333287251
 30
0.0
 40
15.0
100
AcDbArc
 50
270.0
 51
0.0
  0
ARC
  5
F6A5
330
1F
100
AcDbEntity
  8
AM_0
100
AcDbCircle
 10
231.4432138976384
 20
69.3251733328725
 30
0.0
 40
1.5
100
AcDbArc
 50
90.0
 51
180.0
  0
ARC
  5
F6A6
330
1F
100
AcDbEntity
  8
AM_0
100
AcDbCircle
 10
231.4432138976384
 20
168.3251733328725
 30
0.0
 40
1.5
100
AcDbArc
 50
180.0
 51
270.0
  0
ARC
  5
F6A7
330
1F
100
AcDbEntity
  8
AM_0
100
AcDbCircle
 10
227.4432138976384
 20
176.3251733328725
 30
0.0
 40
2.5
100
AcDbArc
 50
0.0
 51
90.0
  0
ARC
  5
F6A8
330
1F
100
AcDbEntity
  8
AM_0
100
AcDbCircle
 10
227.4432138976384
 20
61.32517333287251
 30
0.0
 40
2.5
100
AcDbArc
 50
270.0
 51
0.0
  0
ARC
  5
F6A9
330
1F
100
AcDbEntity
  8
AM_0
100
AcDbCircle
 10
222.9432138976384
 20
61.8251733328725
 30
0.0
 40
3.0
100
AcDbArc
 50
201.5676920000017
 51
270.0
  0
ARC
  5
F6AA
330
1F
100
AcDbEntity
  8
AM_0
100
AcDbCircle
 10
217.9432138976384
 20
69.03387333287253
 30
0.0
 40
1.0
100
AcDbArc
 50
180.0
 51
201.567679
  0
ARC
  5
F6AB
330
1F
100
AcDbEntity
  8
AM_0
100
AcDbCircle
 10
222.9432138976384
 20
175.8251733328725
 30
0.0
 40
3.0
100
AcDbArc
 50
90.0
 51
158.4322580000003
  0
ARC
  5
F6AC
330
1F
100
AcDbEntity
  8
AM_0
100
AcDbCircle
 10
335.3956567062521
 20
152.3251733328725
 30
0.0
 40
19.5
100
AcDbArc
 50
0.0
 51
180.0
  0
ARC
  5
F6AD
330
1F
100
AcDbEntity
  8
AM_0
100
AcDbCircle
 10
335.3956567062521
 20
85.3251733328725
 30
0.0
 40
19.5
100
AcDbArc
 50
180.0
 51
0.0
  0
LINE
  5
F6FC
330
1F
100
AcDbEntity
  8
AM_0
100
AcDbLine
 10
220.1532628976384
 20
176.9279763328725
 30
0.0
 11
217.0132298976383
 21
168.9840733328725
 31
0.0
  0
ARC
  5
F6FD
330
1F
100
AcDbEntity
  8
AM_0
100
AcDbCircle
 10
217.9432138976384
 20
168.6164733328725
 30
0.0
 40
1.0
100
AcDbArc
 50
158.4323079999983
 51
180.0
  0
LINE
  5
F6FE
330
1F
100
AcDbEntity
  8
AM_0
100
AcDbLine
 10
217.0132298976383
 20
68.66627333287249
 30
0.0
 11
220.1532618976383
 21
60.72237333287251
 31
0.0
  0
DIMENSION
  5
F709
330
1F
100
AcDbEntity
  8
AM_5
100
AcDbDimension
  2
*D6
 10
87.94321389763835
 20
190.8251733328725
 30
0.0
 11
111.4432138976384
 21
193.9251733328725
 31
0.0
 70
    32
  1
F
 71
     5
 42
47.00000000000001
  3
SYS$0
100
AcDbAlignedDimension
 13
134.9432138976383
 23
181.8251733328725
 33
0.0
 14
87.94321389763835
 24
156.8251733328725
 34
0.0
100
AcDbRotatedDimension
1001
ACAD
1000
DSTYLE
1002
{
1070
   179
1070
     2
1002
}
1001
ACAD_DSTYLE_DIMINSPECT
1070
   396
1000
100%
1070
   395
1000

1070
   394
1070
    33
1070
   393
1070
     0
  0
DIMENSION
  5
F731
330
1F
100
AcDbEntity
  8
AM_5
100
AcDbDimension
  2
*D7
 10
75.94321288763834
 20
166.8251733328725
 30
0.0
 11
72.84321288763831
 21
118.8251733328725
 31
0.0
 70
    32
  1
E
 71
     5
 42
96.0
  3
SYS$0
100
AcDbAlignedDimension
 13
97.94321389763837
 23
70.82517333287251
 33
0.0
 14
97.94321389763837
 24
166.8251733328725
 34
0.0
 50
90.0
100
AcDbRotatedDimension
1001
ACAD
1000
DSTYLE
1002
{
1070
   179
1070
     2
1002
}
1001
ACAD_DSTYLE_DIMINSPECT
1070
   396
1000
100%
1070
   395
1000

1070
   394
1070
    33
1070
   393
1070
     0
  0
DIMENSION
  5
F764
330
1F
100
AcDbEntity
  8
AM_5
100
AcDbDimension
  2
*D8
 10
175.9432138976384
 20
72.82517333287249
 30
0.0
 11
172.8432138976384
 21
118.8251733328725
 31
0.0
 70
    32
  1
B
 71
     5
 42
92.0
  3
SYS$0
100
AcDbAlignedDimension
 13
139.9432138976383
 23
164.8251733328725
 33
0.0
 14
139.9432138976383
 24
72.82517333287251
 34
0.0
 50
90.0
100
AcDbRotatedDimension
1001
ACAD
1000
DSTYLE
1002
{
1070
   179
1070
     2
1002
}
1001
ACAD_DSTYLE_DIMINSPECT
1070
   396
1000
100%
1070
   395
1000

1070
   394
1070
    33
1070
   393
1070
     0
  0
DIMENSION
  5
F796
330
1F
100
AcDbEntity
  8
AM_5
100
AcDbDimension
  2
*D9
 10
185.9432138976386
 20
58.8251733328725
 30
0.0
 11
182.8432138976386
 21
118.8251733328725
 31
0.0
 70
    32
  1
（A）
 71
     5
 42
120.0
  3
SYS$0
100
AcDbAlignedDimension
 13
157.4432138976384
 23
178.8251733328725
 33
0.0
 14
157.4432138976384
 24
58.82517333287251
 34
0.0
 50
90.0
100
AcDbRotatedDimension
1001
ACAD
1000
DSTYLE
1002
{
1070
   179
1070
     2
1002
}
1001
ACAD_DSTYLE_DIMINSPECT
1070
   396
1000
100%
1070
   395
1000

1070
   394
1070
    33
1070
   393
1070
     0
  0
DIMENSION
  5
F7BE
330
1F
100
AcDbEntity
  8
AM_5
100
AcDbDimension
  2
*D10
 10
149.9432138976384
 20
46.8251733328725
 30
0.0
 11
134.9432138976383
 21
49.92517333287251
 31
0.0
 70
    32
  1
D
 71
     5
 42
30.00000000000002
  3
SYS$0
100
AcDbAlignedDimension
 13
119.9432138976383
 23
82.8251733328725
 33
0.0
 14
149.9432138976384
 24
82.8251733328725
 34
0.0
100
AcDbRotatedDimension
1001
ACAD
1000
DSTYLE
1002
{
1070
   179
1070
     2
1002
}
1001
ACAD_DSTYLE_DIMINSPECT
1070
   396
1000
100%
1070
   395
1000

1070
   394
1070
    33
1070
   393
1070
     0
  0
DIMENSION
  5
F7E7
330
1F
100
AcDbEntity
  8
AM_5
100
AcDbDimension
  2
*D11
 10
163.9432138976383
 20
36.8251733328724
 30
0.0
 11
134.9432138976383
 21
39.9251733328724
 31
0.0
 70
    32
  1
（C）
 71
     5
 42
58.00000000000001
  3
SYS$0
100
AcDbAlignedDimension
 13
105.9432138976383
 23
65.32517333287251
 33
0.0
 14
163.9432138976383
 24
65.32517333287251
 34
0.0
100
AcDbRotatedDimension
1001
ACAD
1000
DSTYLE
1002
{
1070
   179
1070
     2
1002
}
1001
ACAD_DSTYLE_DIMINSPECT
1070
   396
1000
100%
1070
   395
1000

1070
   394
1070
    33
1070
   393
1070
     0
  0
DIMENSION
  5
F80F
330
1F
100
AcDbEntity
  8
AM_5
100
AcDbDimension
  2
*D12
 10
222.9432138976384
 20
46.82517333287234
 30
0.0
 11
218.0408088999284
 21
37.86713523402978
 31
0.0
 70
   160
 71
     5
 42
2.0
  3
SYS$0
100
AcDbAlignedDimension
 13
224.9432138976384
 23
58.82517333287251
 33
0.0
 14
222.9432138976384
 24
58.82517333287251
 34
0.0
100
AcDbRotatedDimension
1001
ACAD_DSTYLE_DIMINSPECT
1070
   396
1000
100%
1070
   395
1000

1070
   394
1070
    33
1070
   393
1070
     0
1001
ACAD
1000
DSTYLE
1002
{
1070
   179
1070
     2
1070
   279
1070
     1
1002
}
  0
DIMENSION
  5
F834
330
1F
100
AcDbEntity
  8
AM_5
100
AcDbDimension
  2
*D13
 10
259.9432138976384
 20
46.8251723228725
 30
0.0
 11
242.4432138976384
 21
49.92517232287251
 31
0.0
 70
    32
  1
H
 71
     5
 42
35.0
  3
SYS$0
100
AcDbAlignedDimension
 13
224.9432138976384
 23
58.82517333287251
 33
0.0
 14
259.9432138976384
 24
85.82517333287251
 34
0.0
100
AcDbRotatedDimension
1001
ACAD
1000
DSTYLE
1002
{
1070
   179
1070
     2
1002
}
1001
ACAD_DSTYLE_DIMINSPECT
1070
   396
1000
100%
1070
   395
1000

1070
   394
1070
    33
1070
   393
1070
     0
  0
DIMENSION
  5
F85C
330
1F
100
AcDbEntity
  8
AM_5
100
AcDbDimension
  2
*D14
 10
216.9432138976384
 20
46.82517333287222
 30
0.0
 11
219.9432138976384
 21
49.92517333287223
 31
0.0
 70
    32
  1
G
 71
     5
 42
6.0
  3
SYS$0
100
AcDbAlignedDimension
 13
222.9432138976384
 23
58.82517333287251
 33
0.0
 14
216.9432138976384
 24
69.03387333287253
 34
0.0
100
AcDbRotatedDimension
1001
ACAD
1000
DSTYLE
1002
{
1070
   179
1070
     2
1002
}
1001
ACAD_DSTYLE_DIMINSPECT
1070
   396
1000
100%
1070
   395
1000

1070
   394
1070
    33
1070
   393
1070
     0
  0
DIMENSION
  5
F8AA
330
1F
100
AcDbEntity
  8
AM_5
100
AcDbDimension
  2
*D15
 10
354.895656706252
 20
183.8251743428725
 30
0.0
 11
335.3956567062521
 21
186.9251743428725
 31
0.0
 70
    32
  1
J
 71
     5
 42
39.0
  3
SYS$0
100
AcDbAlignedDimension
 13
315.8956567062521
 23
152.3251733328725
 33
0.0
 14
354.895656706252
 24
152.3251733328725
 34
0.0
100
AcDbRotatedDimension
1001
ACAD
1000
DSTYLE
1002
{
1070
   179
1070
     2
1002
}
1001
ACAD_DSTYLE_DIMINSPECT
1070
   396
1000
100%
1070
   395
1000

1070
   394
1070
    33
1070
   393
1070
     0
  0
DIMENSION
  5
F8D2
330
1F
100
AcDbEntity
  8
AM_5
100
AcDbDimension
  2
*D16
 10
303.8956556962521
 20
65.82517333287251
 30
0.0
 11
300.795655696252
 21
118.8251733328726
 31
0.0
 70
    32
  1
I
 71
     5
 42
106.0
  3
SYS$0
100
AcDbAlignedDimension
 13
335.3956567062521
 23
171.8251733328725
 33
0.0
 14
335.3956567062521
 24
65.82517333287251
 34
0.0
 50
90.0
100
AcDbRotatedDimension
1001
ACAD
1000
DSTYLE
1002
{
1070
   179
1070
     2
1002
}
1001
ACAD_DSTYLE_DIMINSPECT
1070
   396
1000
100%
1070
   395
1000

1070
   394
1070
    33
1070
   393
1070
     0
  0
MTEXT
  5
F919
330
1F
100
AcDbEntity
  8
AM_6
 48
0.5
100
AcDbMText
 10
326.4147315320567
 20
49.01405739101988
 30
0.0
 40
3.2
 41
29.66249167415231
 71
     1
 72
     5
  1
\L切欠推奨寸法\l
 73
     1
 44
1.0
1001
ACAD
1000
MTEXTBEGIN
1070
    73
1070
     1
1070
    44
1040
1.0
1070
    74
1070
     0
1000
MTEXTEND
  0
ARC
  5
FCF2
330
1F
100
AcDbEntity
  8
AM_0
100
AcDbCircle
 10
129.9432138976383
 20
154.8251733328725
 30
0.0
 40
10.0
100
AcDbArc
 50
90.0
 51
180.0
1001
GENIUS_GENOBJ-N-FIL_13
1002
{
1000
OWNER
1000
GEN
1002
}
1001
GENIUS_GENODEF_13
1002
{
1000
HIER
1070
     0
1002
}
1002
{
1000
MANEDIT
1070
     0
1002
}
1002
{
1000
NOSEL
1070
     0
1002
}
1002
{
1000
BEHIND
1070
     0
1002
}
1002
{
1000
OTHER
1070
     0
1002
}
1002
{
1000
REACTOR
1002
}
  0
ARC
  5
FCF3
330
1F
100
AcDbEntity
  8
AM_0
100
AcDbCircle
 10
129.9432138976383
 20
82.8251733328725
 30
0.0
 40
10.0
100
AcDbArc
 50
180.0
 51
270.0
1001
GENIUS_GENOBJ-N-FIL_13
1002
{
1000
OWNER
1000
GEN
1002
}
1001
GENIUS_GENODEF_13
1002
{
1000
HIER
1070
     0
1002
}
1002
{
1000
MANEDIT
1070
     0
1002
}
1002
{
1000
NOSEL
1070
     0
1002
}
1002
{
1000
BEHIND
1070
     0
1002
}
1002
{
1000
OTHER
1070
     0
1002
}
1002
{
1000
REACTOR
1002
}
  0
DIMENSION
  5
FD09
330
1F
100
AcDbEntity
  8
AM_5
100
AcDbDimension
  2
*D17
 10
335.3956567062521
 20
85.32517333287259
 30
0.0
 11
357.5690074442257
 21
59.2404134014057
 31
0.0
 70
   164
  1
K
 71
     5
 42
19.50000000000006
  3
SYS$4
100
AcDbRadialDimension
 15
347.206942742286
 25
69.80926143008746
 35
0.0
 40
0.0
1001
ACAD
1000
DSTYLE
1002
{
1070
   179
1070
     2
1002
}
1001
ACAD_DSTYLE_DIMRADIAL_EXTENSION
1070
   387
1070
     1
1070
   388
1040
3.141592653589793
1070
   390
1040
0.0
1001
ACAD_DSTYLE_DIMINSPECT
1070
   396
1000
100%
1070
   395
1000

1070
   394
1070
    33
1070
   393
1070
     0
  0
HATCH
  5
FD72
330
1F
100
AcDbEntity
  8
AM_8
100
AcDbHatch
 10
0.0
 20
0.0
 30
0.0
210
0.0
220
0.0
230
1.0
  2
_U
 70
     0
 71
     0
 91
        1
 92
        1
 93
        4
 72
     1
 10
354.895656706252
 20
85.3251733328725
 11
354.895656706252
 21
152.3251733328725
 72
     2
 10
335.3956567062521
 20
152.3251733328725
 40
19.5
 50
0.0
 51
180.0
 73
     1
 72
     1
 10
315.8956567062521
 20
152.3251733328725
 11
315.8956567062521
 21
85.3251733328725
 72
     2
 10
335.3956567062521
 20
85.3251733328725
 40
19.5
 50
180.0
 51
360.0
 73
     1
 97
        0
 75
     0
 76
     0
 52
45.0
 41
2.5
 77
     0
 78
     1
 53
45.0
 43
27.18292770520247
 44
-21.3802579879964
 45
-1.767766952966368
 46
1.767766952966368
 79
     0
 98
        1
 10
27.18292770520247
 20
-21.3802579879964
1001
GENIUS_GENOBJ-N-HTC_13
1002
{
1000
OWNER
1000
GEN
1002
}
1001
GENIUS_GENODEF_13
1002
{
1000
HIER
1070
     0
1002
}
1002
{
1000
MANEDIT
1070
     0
1002
}
1002
{
1000
NOSEL
1070
     0
1002
}
1002
{
1000
BEHIND
1070
     0
1002
}
1002
{
1000
OTHER
1070
     0
1002
}
1002
{
1000
REACTOR
1002
}
1001
GENIUS_GENHATCH_13
1002
{
1000
DATA
1040
45.0
1042
2.5
1000
_U
1070
     0
1011
326.8915636435017
1021
140.3570303645032
1031
0.0
1002
}
1002
{
1000
UCS
1010
0.0
1020
0.0
1030
0.0
1010
1.0
1020
0.0
1030
0.0
1010
0.0
1020
1.0
1030
0.0
1002
}
  0
ARC
  5
10C96
330
1F
100
AcDbEntity
  8
AM_0
100
AcDbCircle
 10
242.9432138976385
 20
255.6272411344394
 30
0.0
 40
17.0
100
AcDbArc
 50
0.0
 51
90.0
  0
LINE
  5
10C97
330
1F
100
AcDbEntity
  8
AM_0
100
AcDbLine
 10
259.9432138976385
 20
255.6272411344394
 30
0.0
 11
259.9432138976385
 21
225.6272411344394
 31
0.0
  0
ARC
  5
10C98
330
1F
100
AcDbEntity
  8
AM_0
100
AcDbCircle
 10
242.9432138976385
 20
225.6272411344394
 30
0.0
 40
17.0
100
AcDbArc
 50
270.0
 51
0.0
  0
LINE
  5
10C99
330
1F
100
AcDbEntity
  8
AM_0
100
AcDbLine
 10
242.9432138976385
 20
208.6272411344394
 30
0.0
 11
231.9432138976385
 21
208.6272411344394
 31
0.0
  0
ARC
  5
10C9A
330
1F
100
AcDbEntity
  8
AM_0
100
AcDbCircle
 10
231.9432138976385
 20
206.6272411344394
 30
0.0
 40
1.999999999999999
100
AcDbArc
 50
90.0
 51
180.0
  0
LINE
  5
10C9B
330
1F
100
AcDbEntity
  8
AM_0
100
AcDbLine
 10
229.9432138976385
 20
206.6272411344394
 30
0.0
 11
229.9432138976385
 21
199.6272411344394
 31
0.0
  0
ARC
  5
10C9C
330
1F
100
AcDbEntity
  8
AM_0
100
AcDbCircle
 10
226.9432138976386
 20
199.6272411344394
 30
0.0
 40
2.999999999999998
100
AcDbArc
 50
270.0
 51
0.0
  0
LINE
  5
10C9D
330
1F
100
AcDbEntity
  8
AM_0
100
AcDbLine
 10
226.9432138976386
 20
196.6272411344393
 30
0.0
 11
224.9432138976386
 21
196.6272411344393
 31
0.0
  0
LINE
  5
10C9E
330
1F
100
AcDbEntity
  8
AM_0
100
AcDbLine
 10
224.9432138976386
 20
196.6272411344393
 30
0.0
 11
224.9432138976386
 21
206.6272411344394
 31
0.0
  0
LINE
  5
10C9F
330
1F
100
AcDbEntity
  8
AM_0
100
AcDbLine
 10
224.9432138976386
 20
206.6272411344394
 30
0.0
 11
222.9432138976386
 21
206.6272411344394
 31
0.0
  0
LINE
  5
10CA0
330
1F
100
AcDbEntity
  8
AM_0
100
AcDbLine
 10
222.9432138976386
 20
206.6272411344394
 30
0.0
 11
222.9432138976386
 21
196.6272411344393
 31
0.0
  0
LINE
  5
10CA1
330
1F
100
AcDbEntity
  8
AM_0
100
AcDbLine
 10
222.9432138976386
 20
196.6272411344393
 30
0.0
 11
222.4954152169432
 21
196.6272411344393
 31
0.0
  0
ARC
  5
10CA2
330
1F
100
AcDbEntity
  8
AM_0
100
AcDbCircle
 10
222.4954152169432
 20
199.6272411344394
 30
0.0
 40
2.999999999999993
100
AcDbArc
 50
201.2505055071338
 51
270.0
  0
LINE
  5
10CA3
330
1F
100
AcDbEntity
  8
AM_0
100
AcDbLine
 10
219.6994012023193
 20
198.5399023509745
 30
0.0
 11
216.9432138976385
 21
205.6272411344394
 31
0.0
  0
LINE
  5
10CA4
330
1F
100
AcDbEntity
  8
AM_0
100
AcDbLine
 10
216.9432138976385
 20
205.6272411344394
 30
0.0
 11
216.9432138976385
 21
206.6272411344394
 31
0.0
  0
ARC
  5
10CA5
330
1F
100
AcDbEntity
  8
AM_0
100
AcDbCircle
 10
220.9432138976386
 20
206.6272411344394
 30
0.0
 40
4.000000000000001
100
AcDbArc
 50
90.0
 51
180.0
  0
LINE
  5
10CA6
330
1F
100
AcDbEntity
  8
AM_0
100
AcDbLine
 10
220.9432138976386
 20
210.6272411344394
 30
0.0
 11
242.9432138976385
 21
210.6272411344394
 31
0.0
  0
ARC
  5
10CA7
330
1F
100
AcDbEntity
  8
AM_0
100
AcDbCircle
 10
242.9432138976385
 20
225.6272411344394
 30
0.0
 40
15.0
100
AcDbArc
 50
270.0
 51
0.0
  0
LINE
  5
10CA8
330
1F
100
AcDbEntity
  8
AM_0
100
AcDbLine
 10
257.9432138976386
 20
225.6272411344394
 30
0.0
 11
257.9432138976385
 21
255.6272411344394
 31
0.0
  0
ARC
  5
10CA9
330
1F
100
AcDbEntity
  8
AM_0
100
AcDbCircle
 10
242.9432138976385
 20
255.6272411344394
 30
0.0
 40
15.00000000000001
100
AcDbArc
 50
0.0
 51
90.0
  0
LINE
  5
10CAA
330
1F
100
AcDbEntity
  8
AM_0
100
AcDbLine
 10
242.9432138976385
 20
270.6272411344394
 30
0.0
 11
230.9432138976385
 21
270.6272411344394
 31
0.0
  0
ARC
  5
10CAB
330
1F
100
AcDbEntity
  8
AM_0
100
AcDbCircle
 10
230.9432138976385
 20
266.6272411344394
 30
0.0
 40
3.999999999999994
100
AcDbArc
 50
90.0
 51
180.0
  0
LINE
  5
10CAC
330
1F
100
AcDbEntity
  8
AM_0
100
AcDbLine
 10
226.9432138976385
 20
266.6272411344394
 30
0.0
 11
226.9432138976386
 21
257.442195710663
 31
0.0
  0
LINE
  5
10CAE
330
1F
100
AcDbEntity
  8
AM_0
100
AcDbLine
 10
227.9432138976386
 20
255.7101449030942
 30
0.0
 11
228.9432138976386
 21
255.1327946339045
 31
0.0
  0
LINE
  5
10CB0
330
1F
100
AcDbEntity
  8
AM_0
100
AcDbLine
 10
225.9432138976386
 20
240.6272411344394
 30
0.0
 11
220.9432138976386
 21
240.6272411344394
 31
0.0
  0
ARC
  5
10CB1
330
1F
100
AcDbEntity
  8
AM_0
100
AcDbCircle
 10
220.9432138976386
 20
244.6272411344394
 30
0.0
 40
3.999999999999999
100
AcDbArc
 50
180.0
 51
270.0
  0
LINE
  5
10CB2
330
1F
100
AcDbEntity
  8
AM_0
100
AcDbLine
 10
216.9432138976385
 20
244.6272411344394
 30
0.0
 11
216.9432138976385
 21
245.6272411344393
 31
0.0
  0
LINE
  5
10CB3
330
1F
100
AcDbEntity
  8
AM_0
100
AcDbLine
 10
216.9432138976385
 20
245.6272411344393
 30
0.0
 11
219.6994012023193
 21
252.7145799179042
 31
0.0
  0
ARC
  5
10CB4
330
1F
100
AcDbEntity
  8
AM_0
100
AcDbCircle
 10
222.4954152169432
 20
251.6272411344394
 30
0.0
 40
2.999999999999994
100
AcDbArc
 50
90.0
 51
158.7494944928662
  0
LINE
  5
10CB5
330
1F
100
AcDbEntity
  8
AM_0
100
AcDbLine
 10
222.4954152169432
 20
254.6272411344394
 30
0.0
 11
222.9432138976386
 21
254.6272411344394
 31
0.0
  0
LINE
  5
10CB6
330
1F
100
AcDbEntity
  8
AM_0
100
AcDbLine
 10
222.9432138976386
 20
254.6272411344394
 30
0.0
 11
222.9432138976386
 21
244.6272411344394
 31
0.0
  0
LINE
  5
10CB7
330
1F
100
AcDbEntity
  8
AM_0
100
AcDbLine
 10
222.9432138976386
 20
244.6272411344394
 30
0.0
 11
224.9432138976385
 21
244.6272411344394
 31
0.0
  0
LINE
  5
10CB8
330
1F
100
AcDbEntity
  8
AM_0
100
AcDbLine
 10
224.9432138976385
 20
244.6272411344394
 30
0.0
 11
224.9432138976385
 21
272.6272411344394
 31
0.0
  0
LINE
  5
10CB9
330
1F
100
AcDbEntity
  8
AM_0
100
AcDbLine
 10
224.9432138976385
 20
272.6272411344394
 30
0.0
 11
242.9432138976385
 21
272.6272411344394
 31
0.0
  0
LINE
  5
10CBA
330
1F
100
AcDbEntity
  8
AM_0
100
AcDbLine
 10
216.9432138976385
 20
244.6272411344394
 30
0.0
 11
216.9432138976385
 21
233.6272411344394
 31
0.0
  0
LINE
  5
10CBB
330
1F
100
AcDbEntity
  8
AM_0
100
AcDbLine
 10
216.9432138976385
 20
233.6272411344394
 30
0.0
 11
216.9432138976385
 21
221.1272411344394
 31
0.0
  0
LINE
  5
10CBC
330
1F
100
AcDbEntity
  8
AM_0
100
AcDbLine
 10
216.9432138976385
 20
221.1272411344394
 30
0.0
 11
216.9432138976385
 21
206.6272411344394
 31
0.0
  0
HATCH
  5
10CC1
330
1F
100
AcDbEntity
  8
AM_8
100
AcDbHatch
 10
0.0
 20
0.0
 30
0.0
210
0.0
220
0.0
230
1.0
  2
_U
 70
     0
 71
     0
 91
        1
 92
        1
 93
       37
 72
     2
 10
225.9432138976385
 20
244.6272411344394
 40
4.0
 50
270.0
 51
360.0000000000002
 73
     1
 72
     1
 10
229.9432138976385
 20
244.6272411344394
 11
229.9432138976385
 21
253.4007438263357
 72
     2
 10
227.9432138976385
 20
253.4007438263357
 40
1.999999999999995
 50
359.9999999999998
 51
419.9999999999999
 73
     1
 72
     2
 10
230.9432138976386
 20
258.5968962490423
 40
4.0
 50
120.0
 51
180.0000000000001
 73
     0
 72
     1
 10
226.9432138976386
 20
258.5968962490423
 11
226.9432138976385
 21
266.6272411344394
 72
     2
 10
230.9432138976385
 20
266.6272411344394
 40
3.999999999999996
 50
180.0
 51
270.0
 73
     0
 72
     1
 10
230.9432138976385
 20
270.6272411344394
 11
242.9432138976385
 21
270.6272411344394
 72
     2
 10
242.9432138976385
 20
255.6272411344394
 40
14.99999999999999
 50
270.0
 51
359.9999999999999
 73
     0
 72
     1
 10
257.9432138976385
 20
255.6272411344394
 11
257.9432138976386
 21
225.6272411344394
 72
     2
 10
242.9432138976385
 20
225.6272411344394
 40
15.0
 50
360.0
 51
450.0
 73
     0
 72
     1
 10
242.9432138976385
 20
210.6272411344394
 11
220.9432138976386
 21
210.6272411344394
 72
     2
 10
220.9432138976386
 20
206.6272411344394
 40
3.999999999999999
 50
90.0
 51
180.0
 73
     1
 72
     1
 10
216.9432138976385
 20
206.6272411344394
 11
216.9432138976385
 21
205.6272411344394
 72
     1
 10
216.9432138976385
 20
205.6272411344394
 11
219.6994012023193
 21
198.5399023509745
 72
     2
 10
222.4954152169432
 20
199.6272411344394
 40
2.999999999999996
 50
201.2505055071327
 51
270.0
 73
     1
 72
     1
 10
222.4954152169432
 20
196.6272411344393
 11
222.9432138976386
 21
196.6272411344393
 72
     1
 10
222.9432138976386
 20
196.6272411344393
 11
222.9432138976386
 21
206.6272411344394
 72
     1
 10
222.9432138976386
 20
206.6272411344394
 11
224.9432138976386
 21
206.6272411344394
 72
     1
 10
224.9432138976386
 20
206.6272411344394
 11
224.9432138976386
 21
196.6272411344393
 72
     1
 10
224.9432138976386
 20
196.6272411344393
 11
226.9432138976386
 21
196.6272411344393
 72
     2
 10
226.9432138976386
 20
199.6272411344394
 40
2.999999999999999
 50
270.0
 51
360.0
 73
     1
 72
     1
 10
229.9432138976385
 20
199.6272411344394
 11
229.9432138976385
 21
206.6272411344394
 72
     2
 10
231.9432138976385
 20
206.6272411344394
 40
1.999999999999999
 50
180.0
 51
270.0
 73
     0
 72
     1
 10
231.9432138976385
 20
208.6272411344394
 11
242.9432138976385
 21
208.6272411344394
 72
     2
 10
242.9432138976385
 20
225.6272411344394
 40
17.0
 50
270.0
 51
360.0
 73
     1
 72
     1
 10
259.9432138976386
 20
225.6272411344394
 11
259.9432138976385
 21
255.6272411344394
 72
     2
 10
242.9432138976385
 20
255.6272411344394
 40
17.0
 50
0.0
 51
90.0
 73
     1
 72
     1
 10
242.9432138976385
 20
272.6272411344394
 11
224.9432138976385
 21
272.6272411344394
 72
     1
 10
224.9432138976385
 20
272.6272411344394
 11
224.9432138976385
 21
244.6272411344394
 72
     1
 10
224.9432138976385
 20
244.6272411344394
 11
222.9432138976386
 21
244.6272411344394
 72
     1
 10
222.9432138976386
 20
244.6272411344394
 11
222.9432138976386
 21
254.6272411344394
 72
     1
 10
222.9432138976386
 20
254.6272411344394
 11
222.4954152169432
 21
254.6272411344394
 72
     2
 10
222.4954152169432
 20
251.6272411344394
 40
2.999999999999982
 50
89.99999999999946
 51
158.7494944928666
 73
     1
 72
     1
 10
219.6994012023193
 20
252.7145799179042
 11
216.9432138976385
 21
245.6272411344393
 72
     1
 10
216.9432138976385
 20
245.6272411344393
 11
216.9432138976385
 21
244.6272411344394
 72
     2
 10
220.9432138976386
 20
244.6272411344394
 40
3.999999999999999
 50
180.0
 51
270.0
 73
     1
 72
     1
 10
220.9432138976386
 20
240.6272411344394
 11
225.9432138976385
 21
240.6272411344394
 97
        0
 75
     0
 76
     0
 52
135.0
 41
2.7
 77
     0
 78
     1
 53
135.0
 43
-8.093474836793859
 44
305.8322731502751
 45
-1.909188309203678
 46
-1.909188309203678
 79
     0
 98
        1
 10
-8.093474836793859
 20
305.8322731502751
1001
GENIUS_GENODEF_13
1002
{
1000
HIER
1070
     0
1002
}
1002
{
1000
MANEDIT
1070
     0
1002
}
1002
{
1000
NOSEL
1070
     0
1002
}
1002
{
1000
BEHIND
1070
     0
1002
}
1002
{
1000
OTHER
1070
     0
1002
}
1002
{
1000
REACTOR
1002
}
1001
GENIUS_GENOBJ-N-HTC_13
1002
{
1000
OWNER
1000
GEN
1002
}
1001
GENIUS_GENHATCH_13
1002
{
1000
DATA
1040
135.0
1042
2.7
1000
_U
1070
     0
1011
228.6301569191106
1021
247.8150675805271
1031
0.0
1002
}
1002
{
1000
UCS
1010
0.0
1020
0.0
1030
0.0
1010
1.0
1020
0.0
1030
0.0
1010
0.0
1020
1.0
1030
0.0
1002
}
  0
LINE
  5
10CC2
330
1F
100
AcDbEntity
  8
AM_0
100
AcDbLine
 10
229.9432138976385
 20
244.6272411344394
 30
0.0
 11
229.9432138976385
 21
253.4007438263357
 31
0.0
  0
ARC
  5
10CD9
330
1F
100
AcDbEntity
  8
AM_0
100
AcDbCircle
 10
225.9432138976385
 20
244.6272411344394
 30
0.0
 40
4.0
100
AcDbArc
 50
270.0000000000008
 51
0.0
1001
GENIUS_GENODEF_13
1002
{
1000
HIER
1070
     0
1002
}
1002
{
1000
MANEDIT
1070
     0
1002
}
1002
{
1000
NOSEL
1070
     0
1002
}
1002
{
1000
BEHIND
1070
     0
1002
}
1002
{
1000
OTHER
1070
     0
1002
}
1002
{
1000
REACTOR
1002
}
1001
GENIUS_GENOBJ-N-FIL_13
1002
{
1000
OWNER
1000
GEN
1002
}
  0
ARC
  5
10CEF
330
1F
100
AcDbEntity
  8
AM_0
100
AcDbCircle
 10
228.9432138976386
 20
257.442195710663
 30
0.0
 40
2.0
100
AcDbArc
 50
180.0
 51
239.9999999999992
1001
GENIUS_GENODEF_13
1002
{
1000
HIER
1070
     0
1002
}
1002
{
1000
MANEDIT
1070
     0
1002
}
1002
{
1000
NOSEL
1070
     0
1002
}
1002
{
1000
BEHIND
1070
     0
1002
}
1002
{
1000
OTHER
1070
     0
1002
}
1002
{
1000
REACTOR
1002
}
1001
GENIUS_GENOBJ-N-FIL_13
1002
{
1000
OWNER
1000
GEN
1002
}
  0
ARC
  5
10CF0
330
1F
100
AcDbEntity
  8
AM_0
100
AcDbCircle
 10
227.9432138976385
 20
253.4007438263356
 30
0.0
 40
2.0
100
AcDbArc
 50
0.0
 51
59.99999999999915
1001
GENIUS_GENODEF_13
1002
{
1000
HIER
1070
     0
1002
}
1002
{
1000
MANEDIT
1070
     0
1002
}
1002
{
1000
NOSEL
1070
     0
1002
}
1002
{
1000
BEHIND
1070
     0
1002
}
1002
{
1000
OTHER
1070
     0
1002
}
1002
{
1000
REACTOR
1002
}
1001
GENIUS_GENOBJ-N-FIL_13
1002
{
1000
OWNER
1000
GEN
1002
}
  0
MTEXT
  5
10DE1
330
1F
100
AcDbEntity
  8
AM_6
 48
0.5
100
AcDbMText
 10
233.4613819173467
 20
192.4299486600961
 30
0.0
 40
3.2
 41
29.66249167415231
 71
     1
 72
     5
  1
\L断面図（参考）\l
 73
     1
 44
1.0
1001
ACAD
1000
MTEXTBEGIN
1070
    73
1070
     1
1070
    44
1040
1.0
1070
    74
1070
     0
1000
MTEXTEND
  0
ENDSEC
  0
SECTION
  2
OBJECTS
  0
DICTIONARY
  5
C
330
0
100
AcDbDictionary
281
     1
  3
ACAD_2007HEADERVARS_RT
350
10E75
  3
ACAD_BGPLOT_KEY
350
AB06
  3
ACAD_COLOR
350
A91D
  3
ACAD_GROUP
350
D
  3
ACAD_LAYOUT
350
1A
  3
ACAD_MATERIAL
350
A91C
  3
ACAD_MLEADERSTYLE
350
B595
  3
ACAD_MLINESTYLE
350
17
  3
ACAD_PLOTSETTINGS
350
19
  3
ACAD_PLOTSTYLENAME
350
E
  3
ACAD_SCALELIST
350
B573
  3
ACAD_TABLESTYLE
350
AAB9
  3
ACAD_VISUALSTYLE
350
B0F1
  3
AcAsAppObject
350
3DA1
  3
ACASGREF_MASTER
350
3DE9
  3
ACDB_RECOMPOSE_DATA
350
B5B7
  3
AcDbVariableDictionary
350
34
  3
AcmDictionary
350
47
  3
AD_GREF_MODULE
350
3DEA
  3
AD_MAPI_MODULE
350
3E06
  3
AMG
350
2B
  3
AMGSNAPSETTINGS
350
7D
  3
ASE_INDEX_DICTIONARY
350
B570
  3
DWGPROPS
350
10E74
  3
MAPISURF_MODULE
350
3DEB
  0
DICTIONARY
  5
3F95
330
2
100
AcDbDictionary
280
     1
281
     1
  3
ACAD_LAYERFILTERS
360
B4F7
  3
ACAD_LAYERSTATES
360
3F96
  3
ACLYDICTIONARY
360
B4F6
  3
AMLAYER_GROUPCOLORS
360
AAB4
  0
DICTIONARY
  5
E250
330
10
100
AcDbDictionary
280
     1
281
     1
  3
ADSK_XREC_LAYER_RECONCILED
360
E251
  0
DICTIONARY
  5
E252
330
5F85
100
AcDbDictionary
280
     1
281
     1
  3
ADSK_XREC_LAYER_RECONCILED
360
E253
  0
DICTIONARY
  5
E254
330
AC9F
100
AcDbDictionary
280
     1
281
     1
  3
ADSK_XREC_LAYER_RECONCILED
360
E255
  0
DICTIONARY
  5
E256
330
ACA0
100
AcDbDictionary
280
     1
281
     1
  3
ADSK_XREC_LAYER_RECONCILED
360
E257
  0
DICTIONARY
  5
E258
330
ACA1
100
AcDbDictionary
280
     1
281
     1
  3
ADSK_XREC_LAYER_RECONCILED
360
E259
  0
DICTIONARY
  5
E262
330
AD64
100
AcDbDictionary
280
     1
281
     1
  3
ADSK_XREC_LAYER_RECONCILED
360
E263
  0
DICTIONARY
  5
E266
330
AD68
100
AcDbDictionary
280
     1
281
     1
  3
ADSK_XREC_LAYER_RECONCILED
360
E267
  0
DICTIONARY
  5
E268
330
AD69
100
AcDbDictionary
280
     1
281
     1
  3
ADSK_XREC_LAYER_RECONCILED
360
E269
  0
DICTIONARY
  5
E26A
330
AD6A
100
AcDbDictionary
280
     1
281
     1
  3
ADSK_XREC_LAYER_RECONCILED
360
E26B
  0
DICTIONARY
  5
E27C
330
BEEA
100
AcDbDictionary
280
     1
281
     1
  3
ADSK_XREC_LAYER_RECONCILED
360
E27D
  0
DICTIONARY
  5
E27E
330
BEEB
100
AcDbDictionary
280
     1
281
     1
  3
ADSK_XREC_LAYER_RECONCILED
360
E27F
  0
DICTIONARY
  5
8A
330
1F
100
AcDbDictionary
280
     1
281
     1
  3
ACAD_SORTENTS
360
B1BA
  0
DICTIONARY
  5
10E75
102
{ACAD_REACTORS
330
C
102
}
330
C
100
AcDbDictionary
281
     1
  3
DIMARCSYM
350
10E76
  0
DICTIONARY
  5
AB06
102
{ACAD_REACTORS
330
C
102
}
330
C
100
AcDbDictionary
280
     1
281
     1
  0
DICTIONARY
  5
A91D
102
{ACAD_REACTORS
330
C
102
}
330
C
100
AcDbDictionary
281
     1
  0
DICTIONARY
  5
D
102
{ACAD_REACTORS
330
C
102
}
330
C
100
AcDbDictionary
281
     1
  0
DICTIONARY
  5
1A
102
{ACAD_REACTORS
330
C
102
}
330
C
100
AcDbDictionary
281
     1
  3
Model
350
22
  3
ﾚｲｱｳﾄ1
350
1E
  3
ﾚｲｱｳﾄ2
350
26
  0
DICTIONARY
  5
A91C
102
{ACAD_REACTORS
330
C
102
}
330
C
100
AcDbDictionary
281
     1
  3
ByBlock
350
B0EF
  3
ByLayer
350
B0EE
  3
Global
350
B0F0
  0
DICTIONARY
  5
B595
102
{ACAD_REACTORS
330
C
102
}
330
C
100
AcDbDictionary
281
     1
  3
Standard
350
B596
  0
DICTIONARY
  5
17
102
{ACAD_REACTORS
330
C
102
}
330
C
100
AcDbDictionary
281
     1
  3
Standard
350
18
  0
DICTIONARY
  5
19
102
{ACAD_REACTORS
330
C
102
}
330
C
100
AcDbDictionary
281
     1
  0
ACDBDICTIONARYWDFLT
  5
E
102
{ACAD_REACTORS
330
C
102
}
330
C
100
AcDbDictionary
281
     1
  3
Normal
350
F
100
AcDbDictionaryWithDefault
340
F
  0
DICTIONARY
  5
B573
102
{ACAD_REACTORS
330
C
102
}
330
C
100
AcDbDictionary
281
     1
  3
*A1
350
EF0F
  3
A0
350
B574
  3
A1
350
B575
  3
A2
350
B576
  3
A3
350
B577
  3
A4
350
B578
  3
A5
350
B579
  3
A6
350
B57A
  3
A7
350
B57B
  3
A8
350
B57C
  3
A9
350
B57D
  3
B0
350
B57E
  3
B1
350
B57F
  3
B2
350
B580
  3
B3
350
B581
  3
B4
350
B582
  3
B5
350
B583
  3
B6
350
B584
  3
B7
350
B585
  3
B8
350
B586
  3
B9
350
B587
  3
C0
350
B588
  3
C1
350
B589
  3
C2
350
B58A
  3
C3
350
B58B
  3
C4
350
B58C
  3
C5
350
B58D
  3
C6
350
B58E
  3
C7
350
B58F
  3
C8
350
B590
  3
C9
350
B591
  3
D0
350
B592
  3
D1
350
B593
  3
D2
350
B594
  0
DICTIONARY
  5
AAB9
102
{ACAD_REACTORS
330
C
102
}
330
C
100
AcDbDictionary
281
     1
  3
Standard
350
AABA
  0
DICTIONARY
  5
B0F1
102
{ACAD_REACTORS
330
C
102
}
330
C
100
AcDbDictionary
281
     1
  3
2dWireframe
350
B0F7
  3
3D Hidden
350
B0F9
  3
3dWireframe
350
B0F8
  3
Basic
350
B0F6
  3
Brighten
350
B0FD
  3
ColorChange
350
B101
  3
Conceptual
350
B0FA
  3
Dim
350
B0FC
  3
Facepattern
350
B100
  3
Flat
350
B0F2
  3
FlatWithEdges
350
B0F3
  3
Gouraud
350
B0F4
  3
GouraudWithEdges
350
B0F5
  3
Linepattern
350
B0FF
  3
Realistic
350
B0FB
  3
Thicken
350
B0FE
  0
ACAD_PROXY_OBJECT
  5
3DA1
102
{ACAD_REACTORS
330
C
102
}
330
C
100
AcDbProxyObject
 90
      499
 91
      576
 95
   917527
 70
     0
 93
       10
310
407F
 94
        0
1001
ACAD
1000
AcRTDxfName
1000
ASAPP
  0
ACAD_PROXY_OBJECT
  5
3DE9
102
{ACAD_REACTORS
330
C
102
}
330
C
100
AcDbProxyObject
 90
      499
 91
      581
 95
   917527
 70
     0
 93
       34
310
010000407F
 94
        0
1001
ACAD
1000
AcRTDxfName
1000
ACASGREFMASTER
  0
XRECORD
  5
B5B7
102
{ACAD_REACTORS
330
C
102
}
330
C
100
AcDbXrecord
280
     1
 90
        1
330
AABA
  0
DICTIONARY
  5
34
102
{ACAD_REACTORS
330
C
102
}
330
C
100
AcDbDictionary
281
     1
  3
CANNOSCALE
350
B5BA
  3
CMLEADERSTYLE
350
B5B8
  3
CTABLESTYLE
350
AAF3
  3
DIMASSOC
350
A10C
  3
FIELDEVAL
350
AB07
  3
INDEXCTL
350
35
  3
LIGHTINGUNITS
350
B5BB
  3
MSLTSCALE
350
B5B9
  3
SORTENTS
350
194C
  0
DICTIONARY
  5
47
102
{ACAD_REACTORS
330
C
102
}
330
C
100
AcDbDictionary
281
     1
  3
AcmBOM
350
7E8
  3
AcmStdDictionary
350
4C
  3
AMDTSECTSYM_ARROWCOLOR
350
A929
  0
ACAD_PROXY_OBJECT
  5
3DEA
102
{ACAD_REACTORS
330
C
102
}
330
C
100
AcDbProxyObject
 90
      499
 91
      582
 95
   917527
 70
     0
 93
      114
310
00000043800000000000000000003F
 94
        0
1001
ACAD
1000
AcRTDxfName
1000
ACADGREFMODULE
  0
ACAD_PROXY_OBJECT
  5
3E06
102
{ACAD_REACTORS
330
C
102
}
330
C
100
AcDbProxyObject
 90
      499
 91
      594
 95
   917527
 70
     0
 93
       34
310
05000044FF
 94
        0
1001
ACAD
1000
AcRTDxfName
1000
MAPIADMODULE
  0
DICTIONARY
  5
2B
102
{ACAD_REACTORS
330
C
102
}
330
C
100
AcDbDictionary
281
     1
  0
DICTIONARY
  5
7D
102
{ACAD_REACTORS
330
C
102
}
330
C
100
AcDbDictionary
281
     1
  0
DICTIONARY
  5
B570
102
{ACAD_REACTORS
330
C
102
}
330
C
100
AcDbDictionary
281
     1
  3
ASEBlockHierarchyIndexRecord
350
B571
1001
DCO15
1040
1706332604.97
  0
XRECORD
  5
10E74
102
{ACAD_REACTORS
330
C
102
}
330
C
100
AcDbXrecord
280
     1
  1
DWGPROPS COOKIE
  2

  3

  4

  6

  7

  8
Administrator
  9

300
AmdtFileType=84
301
=
302
=
303
=
304
=
305
=
306
=
307
=
308
=
309
=
 40
0.3432052893518518
 41
2456139.787518079
 42
2456268.539472257
  1

 90
        1
  0
ACAD_PROXY_OBJECT
  5
3DEB
102
{ACAD_REACTORS
330
C
102
}
330
C
100
AcDbProxyObject
 90
      499
 91
      583
 95
   917527
 70
     0
 93
        8
310
047E
 94
        0
1001
ACAD
1000
AcRTDxfName
1000
AMDTMAPISURFMOUDULE
  0
DICTIONARY
  5
B4F7
102
{ACAD_REACTORS
330
3F95
102
}
330
3F95
100
AcDbDictionary
281
     1
  0
DICTIONARY
  5
3F96
102
{ACAD_REACTORS
330
3F95
102
}
330
3F95
100
AcDbDictionary
281
     1
  3
20011210
350
3FB7
  0
DICTIONARY
  5
B4F6
102
{ACAD_REACTORS
330
3F95
102
}
330
3F95
100
AcDbDictionary
281
     1
1001
ACAD
1000
<All
  0
DICTIONARY
  5
AAB4
102
{ACAD_REACTORS
330
3F95
102
}
330
3F95
100
AcDbDictionary
280
     1
281
     1
  0
XRECORD
  5
E251
102
{ACAD_REACTORS
330
E250
102
}
330
E250
100
AcDbXrecord
280
     1
290
     1
  0
XRECORD
  5
E253
102
{ACAD_REACTORS
330
E252
102
}
330
E252
100
AcDbXrecord
280
     1
290
     1
  0
XRECORD
  5
E255
102
{ACAD_REACTORS
330
E254
102
}
330
E254
100
AcDbXrecord
280
     1
290
     1
  0
XRECORD
  5
E257
102
{ACAD_REACTORS
330
E256
102
}
330
E256
100
AcDbXrecord
280
     1
290
     1
  0
XRECORD
  5
E259
102
{ACAD_REACTORS
330
E258
102
}
330
E258
100
AcDbXrecord
280
     1
290
     1
  0
XRECORD
  5
E263
102
{ACAD_REACTORS
330
E262
102
}
330
E262
100
AcDbXrecord
280
     1
290
     1
  0
XRECORD
  5
E267
102
{ACAD_REACTORS
330
E266
102
}
330
E266
100
AcDbXrecord
280
     1
290
     1
  0
XRECORD
  5
E269
102
{ACAD_REACTORS
330
E268
102
}
330
E268
100
AcDbXrecord
280
     1
290
     1
  0
XRECORD
  5
E26B
102
{ACAD_REACTORS
330
E26A
102
}
330
E26A
100
AcDbXrecord
280
     1
290
     1
  0
XRECORD
  5
E27D
102
{ACAD_REACTORS
330
E27C
102
}
330
E27C
100
AcDbXrecord
280
     1
290
     1
  0
XRECORD
  5
E27F
102
{ACAD_REACTORS
330
E27E
102
}
330
E27E
100
AcDbXrecord
280
     1
290
     1
  0
SORTENTSTABLE
  5
B1BA
102
{ACAD_REACTORS
330
8A
102
}
330
8A
100
AcDbSortentsTable
330
1F
331
BFBB
  5
BFB3
331
BFC3
  5
BFBB
331
F207
  5
F207
331
B9F6
  5
B9F6
331
F217
  5
F217
331
F21F
  5
F21F
331
F6AD
  5
F709
331
10CAC
  5
10CAC
331
F6FD
  5
F764
331
F67E
  5
F67E
331
10CB4
  5
10CB5
331
F22F
  5
F22F
331
F686
  5
F68C
331
10CBC
  5
10CC0
331
F68E
  5
F696
331
FCF3
  5
F686
331
BA1E
  5
BA1E
331
BA26
  5
BA26
331
F1F0
  5
F1F0
331
F1F8
  5
F1F8
331
F696
  5
F69F
331
F834
  5
F8F1
331
F69E
  5
F6A9
331
F85C
  5
F919
331
F6A6
  5
F6FD
331
10C9D
  5
10C9D
331
10CA5
  5
10CA5
331
F200
  5
F200
331
F208
  5
F208
331
BFCC
  5
BFC4
331
B9F7
  5
B9F7
331
BF95
  5
BF7F
331
F218
  5
F218
331
F220
  5
F220
331
F6FE
  5
F78C
331
F228
  5
F228
331
F67F
  5
F680
331
10CB5
  5
10CB6
331
F230
  5
F230
331
F687
  5
F68D
331
F68F
  5
F697
331
BA17
  5
BA17
331
BF9D
  5
BF95
331
BA1F
  5
BA1F
331
BFA5
  5
BF9D
331
BFAD
  5
BFA5
331
F1F1
  5
F1F1
331
BFB5
  5
BFAD
331
F1F9
  5
F1F9
331
F697
  5
F6A2
331
F69F
  5
F6AA
331
F796
  5
F834
331
10C96
  5
10C96
331
F6A7
  5
F6FE
331
10C9E
  5
10C9E
331
F7BE
  5
F85C
331
10CA6
  5
10CA6
331
BFBD
  5
BFB5
331
F201
  5
F201
331
BFC5
  5
BFBD
331
F209
  5
F209
331
B9F0
  5
B9F0
331
BF96
  5
BF87
331
F219
  5
F219
331
F221
  5
F221
331
10CAE
  5
10CAE
331
F229
  5
F229
331
F680
  5
F682
331
10CB6
  5
10CB7
331
F231
  5
F231
331
F688
  5
F68E
331
BA18
  5
BA18
331
BF9E
  5
BF96
331
BA20
  5
BA20
331
BFA6
  5
BF9E
331
F1F2
  5
F1F2
331
BFAE
  5
BFA6
331
F1FA
  5
F1FA
331
BFB6
  5
BFAE
331
F690
  5
F698
331
F698
  5
F6A3
331
F6A0
  5
F6AB
331
10C97
  5
10C97
331
10C9F
  5
10C9F
331
10CA7
  5
10CA7
331
F202
  5
F202
331
BFBE
  5
BFB6
331
F20A
  5
F20A
331
BFC6
  5
BFBE
331
B9F1
  5
B9F1
331
BFCE
  5
BFC6
331
BF97
  5
BF8F
331
F21A
  5
F21A
331
F6A8
  5
F6FF
331
F222
  5
F222
331
F7E7
  5
F8AA
331
F22A
  5
F22A
331
F681
  5
F684
331
10CB7
  5
10CB8
331
F689
  5
F68F
331
F80F
  5
F8D2
331
BA19
  5
BA19
331
BF9F
  5
BF97
331
BA21
  5
BA21
331
BFA7
  5
BF9F
331
F1F3
  5
F1F3
331
BFAF
  5
BFA7
331
F1FB
  5
F1FB
331
BFB7
  5
BFAF
331
F691
  5
F699
331
F699
  5
F6A4
331
10C98
  5
10C98
331
10CEF
  5
10CB0
331
10CA0
  5
10CA0
331
F203
  5
F203
331
BFBF
  5
BFB7
331
BFC7
  5
BFBF
331
B9F2
  5
B9F2
331
BFCF
  5
BFC7
331
F21B
  5
F21B
331
F6A9
  5
F700
331
10CA8
  5
10CA8
331
F709
  5
F796
331
F22B
  5
F22B
331
F682
  5
F685
331
10CB0
  5
10CB1
331
F233
  5
F233
331
F68A
  5
F691
331
F731
  5
F7E7
331
10CB8
  5
10CB9
331
BA1A
  5
BA1A
331
BA22
  5
BA22
331
F1F4
  5
F1F4
331
F1FC
  5
F1FC
331
F692
  5
F69A
331
F69A
  5
F6A5
331
10C99
  5
10C99
331
10CA1
  5
10CA1
331
F204
  5
F204
331
B9F3
  5
B9F3
331
F21C
  5
F21C
331
F6AA
  5
F702
331
F224
  5
F224
331
10CA9
  5
10CA9
331
F22C
  5
F22C
331
F683
  5
F688
331
10CB1
  5
10CB2
331
F234
  5
F234
331
F68B
  5
F692
331
10CB9
  5
10CBA
331
10CC1
  5
10CC2
331
BF99
  5
BF91
331
BFD0
  5
BFC8
331
BA1B
  5
BA1B
331
BFA1
  5
BF99
331
BA23
  5
BA23
331
BFA9
  5
BFA1
331
F1F5
  5
F1F5
331
BFB1
  5
BFA9
331
F1FD
  5
F1FD
331
F693
  5
F69B
331
F69B
  5
F6A6
331
10CD9
  5
10CEF
331
F6A3
  5
F6AE
331
10C9A
  5
10C9A
331
10CA2
  5
10CA2
331
BFB9
  5
BFB1
331
BFC1
  5
BFB9
331
F205
  5
F205
331
BFC9
  5
BFC1
331
BF92
  5
BF67
331
B9F4
  5
B9F4
331
F21D
  5
F21D
331
F6AB
  5
F707
331
F67C
  5
F67C
331
10CAA
  5
10CAA
331
F22D
  5
F22D
331
F684
  5
F689
331
F919
  5
FCF3
331
10CB2
  5
10CB3
331
F68C
  5
F694
331
10CBA
  5
10CBB
331
10CC2
  5
10CD9
331
BF9A
  5
BF92
331
BFA2
  5
BF9A
331
BA1C
  5
BA1C
331
BFAA
  5
BFA2
331
BA24
  5
BA24
331
BFB2
  5
BFAA
331
BA34
  5
BA34
331
F1FE
  5
F1FE
331
F694
  5
F69C
331
FD09
  5
FD09
331
F69C
  5
F6A7
331
F6A4
  5
F6FB
331
10C9B
  5
10C9B
331
10CA3
  5
10CA3
331
BFBA
  5
BFB2
331
BFC2
  5
BFBA
331
F206
  5
F206
331
BFCA
  5
BFC2
331
BF93
  5
BF6F
331
B9F5
  5
B9F5
331
F8AA
  5
F91A
331
F21E
  5
F21E
331
F6AC
  5
F708
331
F8D2
  5
F91B
331
F6FC
  5
F731
331
F226
  5
F226
331
F67D
  5
F67D
331
10CAB
  5
10CAB
331
F22E
  5
F22E
331
F685
  5
F68B
331
10CB3
  5
10CB4
331
F68D
  5
F695
331
FCF2
  5
F687
331
10CBB
  5
10CBC
331
BF9B
  5
BF93
331
BA1D
  5
BA1D
331
BFA3
  5
BF9B
331
BA25
  5
BA25
331
BFAB
  5
BFA3
331
F1EF
  5
F1EF
331
BA35
  5
BA35
331
BFB3
  5
BFAB
331
F1F7
  5
F1F7
331
F1FF
  5
F1FF
331
F695
  5
F69D
331
F764
  5
F80F
331
F69D
  5
F6A8
331
FD72
  5
FD71
331
F6A5
  5
F6FC
331
10C9C
  5
10C9C
331
10CA4
  5
10CA4
  0
XRECORD
  5
10E76
102
{ACAD_REACTORS
330
10E75
102
}
330
10E75
100
AcDbXrecord
280
     1
 70
     1
  0
LAYOUT
  5
22
102
{ACAD_XDICTIONARY
360
10E79
102
}
102
{ACAD_REACTORS
330
1A
102
}
330
1A
100
AcDbPlotSettings
  1

  2
Adobe PDF
  4
A3
  6
AM_VIEW1
 40
3.174999952316284
 41
3.174999952316284
 42
3.17498779296875
 43
3.17498779296875
 44
297.0318298339844
 45
420.1583251953125
 46
-3.159078955650329
 47
-3.095831274986267
 48
0.0000000000000284
 49
0.0
140
420.0
141
297.0
142
1.0
143
1.0
 70
  3748
 72
     1
 73
     1
 74
     4
  7
monochrome.ctb
 75
     0
147
0.9787267410393917
148
-0.0000000000000284
149
0.0
100
AcDbLayout
  1
Model
 70
     1
 71
     0
 10
0.0
 20
0.0
 11
12.0
 21
9.0
 12
0.0
 22
0.0
 32
0.0
 14
0.0
 24
0.0
 34
0.0
 15
0.0
 25
0.0
 35
0.0
146
0.0
 13
0.0
 23
0.0
 33
0.0
 16
1.0
 26
0.0
 36
0.0
 17
0.0
 27
1.0
 37
0.0
 76
     0
330
1F
331
B0EC
1001
ACAD_PSEXT
1000
Adobe PDF
1000
Adobe PDF Converter
1000
My Documents\*.pdf
1000

1070
     0
  0
LAYOUT
  5
1E
102
{ACAD_XDICTIONARY
360
10E77
102
}
102
{ACAD_REACTORS
330
1A
102
}
330
1A
100
AcDbPlotSettings
  1

  2
\\ML370\XEROX
  4
A4
  6

 40
3.174999952316284
 41
3.174999952316284
 42
3.175003051757812
 43
3.17498779296875
 44
209.8674926757813
 45
296.6719970703125
 46
0.0
 47
0.0
 48
0.0
 49
0.0
140
0.0
141
0.0
142
1.0
143
1.0
 70
   688
 72
     1
 73
     1
 74
     5
  7
monochrome.ctb
 75
    16
147
1.0
148
0.0
149
0.0
100
AcDbLayout
  1
ﾚｲｱｳﾄ1
 70
     1
 71
     1
 10
-3.17498779296875
 20
-3.174999952316284
 11
293.4970092773438
 21
206.692492723465
 12
0.0
 22
0.0
 32
0.0
 14
1.000000000000000E+20
 24
1.000000000000000E+20
 34
1.000000000000000E+20
 15
-1.000000000000000E+20
 25
-1.000000000000000E+20
 35
-1.000000000000000E+20
146
0.0
 13
0.0
 23
0.0
 33
0.0
 16
1.0
 26
0.0
 36
0.0
 17
0.0
 27
1.0
 37
0.0
 76
     0
330
1B
  0
LAYOUT
  5
26
102
{ACAD_XDICTIONARY
360
10E7B
102
}
102
{ACAD_REACTORS
330
1A
102
}
330
1A
100
AcDbPlotSettings
  1

  2
\\ML370\XEROX
  4

  6

 40
0.0
 41
0.0
 42
0.0
 43
0.0
 44
0.0
 45
0.0
 46
0.0
 47
0.0
 48
0.0
 49
0.0
140
0.0
141
0.0
142
1.0
143
1.0
 70
   688
 72
     0
 73
     0
 74
     5
  7
monochrome.ctb
 75
    16
147
1.0
148
0.0
149
0.0
100
AcDbLayout
  1
ﾚｲｱｳﾄ2
 70
     1
 71
     2
 10
0.0
 20
0.0
 11
12.0
 21
9.0
 12
0.0
 22
0.0
 32
0.0
 14
0.0
 24
0.0
 34
0.0
 15
0.0
 25
0.0
 35
0.0
146
0.0
 13
0.0
 23
0.0
 33
0.0
 16
1.0
 26
0.0
 36
0.0
 17
0.0
 27
1.0
 37
0.0
 76
     0
330
23
  0
MATERIAL
  5
B0EF
102
{ACAD_XDICTIONARY
360
10E80
102
}
102
{ACAD_REACTORS
330
A91C
102
}
330
A91C
100
AcDbMaterial
  1
ByBlock
  0
MATERIAL
  5
B0EE
102
{ACAD_XDICTIONARY
360
10E7E
102
}
102
{ACAD_REACTORS
330
A91C
102
}
330
A91C
100
AcDbMaterial
  1
ByLayer
  0
MATERIAL
  5
B0F0
102
{ACAD_XDICTIONARY
360
10E82
102
}
102
{ACAD_REACTORS
330
A91C
102
}
330
A91C
100
AcDbMaterial
  1
Global
  0
ACAD_PROXY_OBJECT
  5
B596
102
{ACAD_REACTORS
330
B595
102
}
330
B595
100
AcDbProxyObject
 90
      499
 91
      626
 95
  1703963
 70
     0
 93
      817
310
40901902A40600000030400FEFFFFFF8000000000000008102B5E8DC0F42B5CFC0000000000001040405064068000000C1000000000000000410000000000000004102000000304015D94000000000000C03F4214C01D0018401B80190018401C80190028C00CC
340
14
340
0
340
11
340
0
 94
        0
1001
ACAD_MLEADERVER
1070
     2
1001
ACAD
1000
AcRTDxfName
1000
MLEADERSTYLE
  0
MLINESTYLE
  5
18
102
{ACAD_REACTORS
330
17
102
}
330
17
100
AcDbMlineStyle
  2
STANDARD
 70
     0
  3

 62
   256
 51
90.0
 52
90.0
 71
     2
 49
0.5
 62
   256
  6
BYLAYER
 49
-0.5
 62
   256
  6
BYLAYER
  0
ACDBPLACEHOLDER
  5
F
102
{ACAD_REACTORS
330
E
102
}
330
E
  0
ACAD_PROXY_OBJECT
  5
EF0F
102
{ACAD_REACTORS
330
B573
102
}
330
B573
100
AcDbProxyObject
 90
      499
 91
      625
 95
  1703963
 70
     0
 93
      146
310
800000000000014404819A801D0018801D004C
 94
        0
1001
ACAD
1000
AcRTDxfName
1000
SCALE
  0
ACAD_PROXY_OBJECT
  5
B574
102
{ACAD_REACTORS
330
B573
102
}
330
B573
100
AcDbProxyObject
 90
      499
 91
      625
 95
  1703963
 70
     0
 93
       82
310
968198801D0018801D004C
 94
        0
1001
ACAD
1000
AcRTDxfName
1000
SCALE
  0
ACAD_PROXY_OBJECT
  5
B575
102
{ACAD_REACTORS
330
B573
102
}
330
B573
100
AcDbProxyObject
 90
      499
 91
      625
 95
  1703963
 70
     0
 93
      146
310
9000000000000001008198801D0019001D004C
 94
        0
1001
ACAD
1000
AcRTDxfName
1000
SCALE
  0
ACAD_PROXY_OBJECT
  5
B576
102
{ACAD_REACTORS
330
B573
102
}
330
B573
100
AcDbProxyObject
 90
      499
 91
      625
 95
  1703963
 70
     0
 93
      146
310
9000000000000041008198801D001A001D004C
 94
        0
1001
ACAD
1000
AcRTDxfName
1000
SCALE
  0
ACAD_PROXY_OBJECT
  5
B577
102
{ACAD_REACTORS
330
B573
102
}
330
B573
100
AcDbProxyObject
 90
      499
 91
      625
 95
  1703963
 70
     0
 93
      146
310
9000000000000051008198801D001A801D004C
 94
        0
1001
ACAD
1000
AcRTDxfName
1000
SCALE
  0
ACAD_PROXY_OBJECT
  5
B578
102
{ACAD_REACTORS
330
B573
102
}
330
B573
100
AcDbProxyObject
 90
      499
 91
      625
 95
  1703963
 70
     0
 93
      146
310
9000000000000081008198801D001C001D004C
 94
        0
1001
ACAD
1000
AcRTDxfName
1000
SCALE
  0
ACAD_PROXY_OBJECT
  5
B579
102
{ACAD_REACTORS
330
B573
102
}
330
B573
100
AcDbProxyObject
 90
      499
 91
      625
 95
  1703963
 70
     0
 93
      162
310
9000000000000091008218801D001880180025004C
 94
        0
1001
ACAD
1000
AcRTDxfName
1000
SCALE
  0
ACAD_PROXY_OBJECT
  5
B57A
102
{ACAD_REACTORS
330
B573
102
}
330
B573
100
AcDbProxyObject
 90
      499
 91
      625
 95
  1703963
 70
     0
 93
      162
310
90000000000000C1008218801D0018801B0025004C
 94
        0
1001
ACAD
1000
AcRTDxfName
1000
SCALE
  0
ACAD_PROXY_OBJECT
  5
B57B
102
{ACAD_REACTORS
330
B573
102
}
330
B573
100
AcDbProxyObject
 90
      499
 91
      625
 95
  1703963
 70
     0
 93
      162
310
90000000000000D1008218801D001900180025004C
 94
        0
1001
ACAD
1000
AcRTDxfName
1000
SCALE
  0
ACAD_PROXY_OBJECT
  5
B57C
102
{ACAD_REACTORS
330
B573
102
}
330
B573
100
AcDbProxyObject
 90
      499
 91
      625
 95
  1703963
 70
     0
 93
      162
310
90000000000000F9008218801D001980180025004C
 94
        0
1001
ACAD
1000
AcRTDxfName
1000
SCALE
  0
ACAD_PROXY_OBJECT
  5
B57D
102
{ACAD_REACTORS
330
B573
102
}
330
B573
100
AcDbProxyObject
 90
      499
 91
      625
 95
  1703963
 70
     0
 93
      162
310
9000000000000111008218801D001A00180025004C
 94
        0
1001
ACAD
1000
AcRTDxfName
1000
SCALE
  0
ACAD_PROXY_OBJECT
  5
B57E
102
{ACAD_REACTORS
330
B573
102
}
330
B573
100
AcDbProxyObject
 90
      499
 91
      625
 95
  1703963
 70
     0
 93
      162
310
9000000000000125008218801D001A80180025004C
 94
        0
1001
ACAD
1000
AcRTDxfName
1000
SCALE
  0
ACAD_PROXY_OBJECT
  5
B57F
102
{ACAD_REACTORS
330
B573
102
}
330
B573
100
AcDbProxyObject
 90
      499
 91
      625
 95
  1703963
 70
     0
 93
      178
310
9000000000000165008298801D001880180018002D004C
 94
        0
1001
ACAD
1000
AcRTDxfName
1000
SCALE
  0
ACAD_PROXY_OBJECT
  5
B580
102
{ACAD_REACTORS
330
B573
102
}
330
B573
100
AcDbProxyObject
 90
      499
 91
      625
 95
  1703963
 70
     0
 93
      146
310
8000000000000004048199001D0018801D004C
 94
        0
1001
ACAD
1000
AcRTDxfName
1000
SCALE
  0
ACAD_PROXY_OBJECT
  5
B581
102
{ACAD_REACTORS
330
B573
102
}
330
B573
100
AcDbProxyObject
 90
      499
 91
      625
 95
  1703963
 70
     0
 93
      146
310
800000000000010404819A001D0018801D004C
 94
        0
1001
ACAD
1000
AcRTDxfName
1000
SCALE
  0
ACAD_PROXY_OBJECT
  5
B582
102
{ACAD_REACTORS
330
B573
102
}
330
B573
100
AcDbProxyObject
 90
      499
 91
      625
 95
  1703963
 70
     0
 93
      146
310
800000000000020404819C001D0018801D004C
 94
        0
1001
ACAD
1000
AcRTDxfName
1000
SCALE
  0
ACAD_PROXY_OBJECT
  5
B583
102
{ACAD_REACTORS
330
B573
102
}
330
B573
100
AcDbProxyObject
 90
      499
 91
      625
 95
  1703963
 70
     0
 93
      162
310
80000000000002440482188018001D00188025004C
 94
        0
1001
ACAD
1000
AcRTDxfName
1000
SCALE
  0
ACAD_PROXY_OBJECT
  5
B584
102
{ACAD_REACTORS
330
B573
102
}
330
B573
100
AcDbProxyObject
 90
      499
 91
      625
 95
  1703963
 70
     0
 93
      178
310
800000000000059404829880180018001D0018802D004C
 94
        0
1001
ACAD
1000
AcRTDxfName
1000
SCALE
  0
ACAD_PROXY_OBJECT
  5
B585
102
{ACAD_REACTORS
330
B573
102
}
330
B573
100
AcDbProxyObject
 90
      499
 91
      625
 95
  1703963
 70
     0
 93
      386
310
8000000000000803F0000000000000A1008718801780188019001C00110010001E8010001880138016801800110075004C
 94
        0
1001
ACAD
1000
AcRTDxfName
1000
SCALE
  0
ACAD_PROXY_OBJECT
  5
B586
102
{ACAD_REACTORS
330
B573
102
}
330
B573
100
AcDbProxyObject
 90
      499
 91
      625
 95
  1703963
 70
     0
 93
      370
310
8000000000000903F0000000000000A10086988017801B001A00110010001E801000188013801680180011006D004C
 94
        0
1001
ACAD
1000
AcRTDxfName
1000
SCALE
  0
ACAD_PROXY_OBJECT
  5
B587
102
{ACAD_REACTORS
330
B573
102
}
330
B573
100
AcDbProxyObject
 90
      499
 91
      625
 95
  1703963
 70
     0
 93
      370
310
8000000000000A03F0000000000000A100869880178019801900110010001E801000188013801680180011006D004C
 94
        0
1001
ACAD
1000
AcRTDxfName
1000
SCALE
  0
ACAD_PROXY_OBJECT
  5
B588
102
{ACAD_REACTORS
330
B573
102
}
330
B573
100
AcDbProxyObject
 90
      499
 91
      625
 95
  1703963
 70
     0
 93
      370
310
8000000000000B03F0000000000000A100869880178018801B00110010001E801000188013801680180011006D004C
 94
        0
1001
ACAD
1000
AcRTDxfName
1000
SCALE
  0
ACAD_PROXY_OBJECT
  5
B589
102
{ACAD_REACTORS
330
B573
102
}
330
B573
100
AcDbProxyObject
 90
      499
 91
      625
 95
  1703963
 70
     0
 93
      370
310
8000000000000B83F0000000000000A100869980178019801900110010001E801000188013801680180011006D004C
 94
        0
1001
ACAD
1000
AcRTDxfName
1000
SCALE
  0
ACAD_PROXY_OBJECT
  5
B58A
102
{ACAD_REACTORS
330
B573
102
}
330
B573
100
AcDbProxyObject
 90
      499
 91
      625
 95
  1703963
 70
     0
 93
      354
310
8000000000000C03F0000000000000A10086188017801C00110010001E8010001880138016801800110065004C
 94
        0
1001
ACAD
1000
AcRTDxfName
1000
SCALE
  0
ACAD_PROXY_OBJECT
  5
B58B
102
{ACAD_REACTORS
330
B573
102
}
330
B573
100
AcDbProxyObject
 90
      499
 91
      625
 95
  1703963
 70
     0
 93
      370
310
8000000000000C83F0000000000000A100869980178018801B00110010001E801000188013801680180011006D004C
 94
        0
1001
ACAD
1000
AcRTDxfName
1000
SCALE
  0
ACAD_PROXY_OBJECT
  5
B58C
102
{ACAD_REACTORS
330
B573
102
}
330
B573
100
AcDbProxyObject
 90
      499
 91
      625
 95
  1703963
 70
     0
 93
      354
310
8000000000000D03F0000000000000A10086188017801A00110010001E8010001880138016801800110065004C
 94
        0
1001
ACAD
1000
AcRTDxfName
1000
SCALE
  0
ACAD_PROXY_OBJECT
  5
B58D
102
{ACAD_REACTORS
330
B573
102
}
330
B573
100
AcDbProxyObject
 90
      499
 91
      625
 95
  1703963
 70
     0
 93
      354
310
8000000000000D83F0000000000000A10086198017801C00110010001E8010001880138016801800110065004C
 94
        0
1001
ACAD
1000
AcRTDxfName
1000
SCALE
  0
ACAD_PROXY_OBJECT
  5
B58E
102
{ACAD_REACTORS
330
B573
102
}
330
B573
100
AcDbProxyObject
 90
      499
 91
      625
 95
  1703963
 70
     0
 93
      354
310
8000000000000E03F0000000000000A10086188017801900110010001E8010001880138016801800110065004C
 94
        0
1001
ACAD
1000
AcRTDxfName
1000
SCALE
  0
ACAD_PROXY_OBJECT
  5
B58F
102
{ACAD_REACTORS
330
B573
102
}
330
B573
100
AcDbProxyObject
 90
      499
 91
      625
 95
  1703963
 70
     0
 93
      354
310
8000000000000E83F0000000000000A10086198017801A00110010001E8010001880138016801800110065004C
 94
        0
1001
ACAD
1000
AcRTDxfName
1000
SCALE
  0
ACAD_PROXY_OBJECT
  5
B590
102
{ACAD_REACTORS
330
B573
102
}
330
B573
100
AcDbProxyObject
 90
      499
 91
      625
 95
  1703963
 70
     0
 93
      258
310
90000000000000A100851880110010001E8010001880138016801800110055004C
 94
        0
1001
ACAD
1000
AcRTDxfName
1000
SCALE
  0
ACAD_PROXY_OBJECT
  5
B591
102
{ACAD_REACTORS
330
B573
102
}
330
B573
100
AcDbProxyObject
 90
      499
 91
      625
 95
  1703963
 70
     0
 93
      386
310
8000000000000F83F0000000000000A1008718801680188017801900110010001E8010001880138016801800110075004C
 94
        0
1001
ACAD
1000
AcRTDxfName
1000
SCALE
  0
ACAD_PROXY_OBJECT
  5
B592
102
{ACAD_REACTORS
330
B573
102
}
330
B573
100
AcDbProxyObject
 90
      499
 91
      625
 95
  1703963
 70
     0
 93
      322
310
800000000000008400000000000000A100851980110010001E8010001880138016801800110055004C
 94
        0
1001
ACAD
1000
AcRTDxfName
1000
SCALE
  0
ACAD_PROXY_OBJECT
  5
B593
102
{ACAD_REACTORS
330
B573
102
}
330
B573
100
AcDbProxyObject
 90
      499
 91
      625
 95
  1703963
 70
     0
 93
      322
310
800000000000018400000000000000A100851B00110010001E8010001880138016801800110055004C
 94
        0
1001
ACAD
1000
AcRTDxfName
1000
SCALE
  0
ACAD_PROXY_OBJECT
  5
B594
102
{ACAD_REACTORS
330
B573
102
}
330
B573
100
AcDbProxyObject
 90
      499
 91
      625
 95
  1703963
 70
     0
 93
      370
310
800000000000028400000000000000A100869880138016801800110010001E801000188013801680180011006D004C
 94
        0
1001
ACAD
1000
AcRTDxfName
1000
SCALE
  0
TABLESTYLE
  5
AABA
102
{ACAD_XDICTIONARY
360
B5B5
102
}
102
{ACAD_REACTORS
330
AAB9
102
}
330
AAB9
100
AcDbTableStyle
  3
Standard
 70
     0
 71
     0
 40
1.5
 41
1.5
280
     0
281
     0
  7
STANDARD
140
4.5
170
     2
 62
     0
 63
     7
283
     0
274
    -2
284
     1
 64
     0
275
    -2
285
     1
 65
     0
276
    -2
286
     1
 66
     0
277
    -2
287
     1
 67
     0
278
    -2
288
     1
 68
     0
279
    -2
289
     1
 69
     0
  7
STANDARD
140
6.0
170
     5
 62
     0
 63
     7
283
     0
274
    -2
284
     1
 64
     0
275
    -2
285
     1
 65
     0
276
    -2
286
     1
 66
     0
277
    -2
287
     1
 67
     0
278
    -2
288
     1
 68
     0
279
    -2
289
     1
 69
     0
  7
STANDARD
140
4.5
170
     5
 62
     0
 63
     7
283
     0
274
    -2
284
     1
 64
     0
275
    -2
285
     1
 65
     0
276
    -2
286
     1
 66
     0
277
    -2
287
     1
 67
     0
278
    -2
288
     1
 68
     0
279
    -2
289
     1
 69
     0
  0
VISUALSTYLE
  5
B0F7
102
{ACAD_REACTORS
330
B0F1
102
}
330
B0F1
100
AcDbVisualStyle
  2
2dWireframe
 70
     4
 71
     0
 72
     2
 73
     0
 90
        0
 40
-0.6
 41
-30.0
 62
     5
 63
     7
 74
     1
 91
        4
 64
     7
 65
   257
 75
     1
175
     1
 42
1.0
 92
        0
 66
   257
 43
1.0
 76
     1
 77
     6
 78
     2
 67
     7
 79
     5
170
     0
171
     0
290
     0
174
     0
 93
        1
 44
0.0
173
     0
291
     0
 45
0.0
1001
ACAD
1000
AcDbSavedByObjectVersion
1070
     0
  0
VISUALSTYLE
  5
B0F9
102
{ACAD_REACTORS
330
B0F1
102
}
330
B0F1
100
AcDbVisualStyle
  2
3D Hidden
 70
     6
 71
     1
 72
     2
 73
     2
 90
        0
 40
-0.6
 41
-30.0
 62
     5
 63
     7
 74
     2
 91
        2
 64
     7
 65
   257
 75
     2
175
     1
 42
40.0
 92
        0
 66
   257
 43
1.0
 76
     1
 77
     6
 78
     2
 67
     7
 79
     3
170
     0
171
     0
290
     0
174
     0
 93
        1
 44
0.0
173
     0
291
     0
 45
0.0
1001
ACAD
1000
AcDbSavedByObjectVersion
1070
     0
  0
VISUALSTYLE
  5
B0F8
102
{ACAD_REACTORS
330
B0F1
102
}
330
B0F1
100
AcDbVisualStyle
  2
3dWireframe
 70
     5
 71
     0
 72
     2
 73
     0
 90
        0
 40
-0.6
 41
-30.0
 62
     5
 63
     7
 74
     1
 91
        4
 64
     7
 65
   257
 75
     1
175
     1
 42
1.0
 92
        0
 66
   257
 43
1.0
 76
     1
 77
     6
 78
     2
 67
     7
 79
     5
170
     0
171
     0
290
     0
174
     0
 93
        1
 44
0.0
173
     0
291
     0
 45
0.0
1001
ACAD
1000
AcDbSavedByObjectVersion
1070
     0
  0
VISUALSTYLE
  5
B0F6
102
{ACAD_REACTORS
330
B0F1
102
}
330
B0F1
100
AcDbVisualStyle
  2
Basic
 70
     7
 71
     1
 72
     0
 73
     1
 90
        0
 40
-0.6
 41
-30.0
 62
     5
 63
     7
 74
     0
 91
        4
 64
     7
 65
   257
 75
     1
175
     1
 42
1.0
 92
        8
 66
     7
 43
1.0
 76
     1
 77
     6
 78
     2
 67
     7
 79
     5
170
     0
171
     0
290
     0
174
     0
 93
        1
 44
0.0
173
     0
291
     1
 45
0.0
1001
ACAD
1000
AcDbSavedByObjectVersion
1070
     0
  0
VISUALSTYLE
  5
B0FD
102
{ACAD_REACTORS
330
B0F1
102
}
330
B0F1
100
AcDbVisualStyle
  2
Brighten
 70
    12
 71
     2
 72
     2
 73
     0
 90
        0
 40
-0.6
 41
-30.0
 62
     5
 63
     7
 74
     1
 91
        4
 64
     7
 65
   257
 75
     1
175
     1
 42
1.0
 92
        8
 66
     7
 43
1.0
 76
     1
 77
     6
 78
     2
 67
     7
 79
     5
170
     0
171
     0
290
     0
174
     0
 93
        1
 44
50.0
173
     0
291
     1
 45
0.0
1001
ACAD
1000
AcDbSavedByObjectVersion
1070
     0
  0
VISUALSTYLE
  5
B101
102
{ACAD_REACTORS
330
B0F1
102
}
330
B0F1
100
AcDbVisualStyle
  2
ColorChange
 70
    16
 71
     2
 72
     2
 73
     3
 90
        0
 40
-0.6
 41
-30.0
 62
     5
 63
     8
 74
     1
 91
        4
 64
     7
 65
   257
 75
     1
175
     1
 42
1.0
 92
        8
 66
     8
 43
1.0
 76
     1
 77
     6
 78
     2
 67
     7
 79
     5
170
     0
171
     0
290
     0
174
     0
 93
        1
 44
0.0
173
     0
291
     1
 45
0.0
1001
ACAD
1000
AcDbSavedByObjectVersion
1070
     0
  0
VISUALSTYLE
  5
B0FA
102
{ACAD_REACTORS
330
B0F1
102
}
330
B0F1
100
AcDbVisualStyle
  2
Conceptual
 70
     9
 71
     3
 72
     2
 73
     0
 90
        0
 40
-0.6
 41
-30.0
 62
     5
 63
     7
 74
     2
 91
        2
 64
     7
 65
   257
 75
     1
175
     1
 42
40.0
 92
        8
 66
     7
 43
1.0
 76
     1
 77
     6
 78
     2
 67
     7
 79
     3
170
     0
171
     0
290
     0
174
     0
 93
        1
 44
0.0
173
     0
291
     0
 45
0.0
1001
ACAD
1000
AcDbSavedByObjectVersion
1070
     0
  0
VISUALSTYLE
  5
B0FC
102
{ACAD_REACTORS
330
B0F1
102
}
330
B0F1
100
AcDbVisualStyle
  2
Dim
 70
    11
 71
     2
 72
     2
 73
     0
 90
        0
 40
-0.6
 41
-30.0
 62
     5
 63
     7
 74
     1
 91
        4
 64
     7
 65
   257
 75
     1
175
     1
 42
1.0
 92
        8
 66
     7
 43
1.0
 76
     1
 77
     6
 78
     2
 67
     7
 79
     5
170
     0
171
     0
290
     0
174
     0
 93
        1
 44
-50.0
173
     0
291
     1
 45
0.0
1001
ACAD
1000
AcDbSavedByObjectVersion
1070
     0
  0
VISUALSTYLE
  5
B100
102
{ACAD_REACTORS
330
B0F1
102
}
330
B0F1
100
AcDbVisualStyle
  2
Facepattern
 70
    15
 71
     2
 72
     2
 73
     0
 90
        0
 40
-0.6
 41
-30.0
 62
     5
 63
     7
 74
     1
 91
        4
 64
     7
 65
   257
 75
     1
175
     1
 42
1.0
 92
        8
 66
     7
 43
1.0
 76
     1
 77
     6
 78
     2
 67
     7
 79
     5
170
     0
171
     0
290
     0
174
     0
 93
        1
 44
0.0
173
     0
291
     1
 45
0.0
1001
ACAD
1000
AcDbSavedByObjectVersion
1070
     0
  0
VISUALSTYLE
  5
B0F2
102
{ACAD_REACTORS
330
B0F1
102
}
330
B0F1
100
AcDbVisualStyle
  2
Flat
 70
     0
 71
     2
 72
     1
 73
     1
 90
        2
 40
-0.6
 41
30.0
 62
     5
 63
     7
 74
     0
 91
        4
 64
     7
 65
   257
 75
     1
175
     1
 42
1.0
 92
        8
 66
     7
 43
1.0
 76
     1
 77
     6
 78
     2
 67
     7
 79
     5
170
     0
171
     0
290
     0
174
     0
 93
       13
 44
0.0
173
     0
291
     1
 45
0.0
1001
ACAD
1000
AcDbSavedByObjectVersion
1070
     0
  0
VISUALSTYLE
  5
B0F3
102
{ACAD_REACTORS
330
B0F1
102
}
330
B0F1
100
AcDbVisualStyle
  2
FlatWithEdges
 70
     1
 71
     2
 72
     1
 73
     1
 90
        2
 40
-0.6
 41
30.0
 62
     5
 63
     7
 74
     1
 91
        4
 64
     7
 65
   257
 75
     1
175
     1
 42
1.0
 92
        0
 66
   257
 43
1.0
 76
     1
 77
     6
 78
     2
 67
     7
 79
     5
170
     0
171
     0
290
     0
174
     0
 93
       13
 44
0.0
173
     0
291
     1
 45
0.0
1001
ACAD
1000
AcDbSavedByObjectVersion
1070
     0
  0
VISUALSTYLE
  5
B0F4
102
{ACAD_REACTORS
330
B0F1
102
}
330
B0F1
100
AcDbVisualStyle
  2
Gouraud
 70
     2
 71
     2
 72
     2
 73
     1
 90
        2
 40
-0.6
 41
30.0
 62
     5
 63
     7
 74
     0
 91
        4
 64
     7
 65
   257
 75
     1
175
     1
 42
1.0
 92
        0
 66
     7
 43
1.0
 76
     1
 77
     6
 78
     2
 67
     7
 79
     5
170
     0
171
     0
290
     0
174
     0
 93
       13
 44
0.0
173
     0
291
     1
 45
0.0
1001
ACAD
1000
AcDbSavedByObjectVersion
1070
     0
  0
VISUALSTYLE
  5
B0F5
102
{ACAD_REACTORS
330
B0F1
102
}
330
B0F1
100
AcDbVisualStyle
  2
GouraudWithEdges
 70
     3
 71
     2
 72
     2
 73
     1
 90
        2
 40
-0.6
 41
30.0
 62
     5
 63
     7
 74
     1
 91
        4
 64
     7
 65
   257
 75
     1
175
     1
 42
1.0
 92
        0
 66
   257
 43
1.0
 76
     1
 77
     6
 78
     2
 67
     7
 79
     5
170
     0
171
     0
290
     0
174
     0
 93
       13
 44
0.0
173
     0
291
     1
 45
0.0
1001
ACAD
1000
AcDbSavedByObjectVersion
1070
     0
  0
VISUALSTYLE
  5
B0FF
102
{ACAD_REACTORS
330
B0F1
102
}
330
B0F1
100
AcDbVisualStyle
  2
Linepattern
 70
    14
 71
     2
 72
     2
 73
     0
 90
        0
 40
-0.6
 41
-30.0
 62
     5
 63
     7
 74
     1
 91
        4
 64
     7
 65
   257
 75
     7
175
     7
 42
1.0
 92
        8
 66
     7
 43
1.0
 76
     1
 77
     6
 78
     2
 67
     7
 79
     5
170
     0
171
     0
290
     0
174
     0
 93
        1
 44
0.0
173
     0
291
     1
 45
0.0
1001
ACAD
1000
AcDbSavedByObjectVersion
1070
     0
  0
VISUALSTYLE
  5
B0FB
102
{ACAD_REACTORS
330
B0F1
102
}
330
B0F1
100
AcDbVisualStyle
  2
Realistic
 70
     8
 71
     2
 72
     2
 73
     0
 90
        0
 40
-0.6
 41
-30.0
 62
     5
 63
     7
 74
     1
 91
        0
 64
     7
 65
   257
 75
     1
175
     1
 42
1.0
 92
        8
 66
     8
 43
1.0
 76
     1
 77
     6
 78
     2
 67
     7
 79
     5
170
     0
171
     0
290
     0
174
     0
 93
       13
 44
0.0
173
     0
291
     0
 45
0.0
1001
ACAD
1000
AcDbSavedByObjectVersion
1070
     0
  0
VISUALSTYLE
  5
B0FE
102
{ACAD_REACTORS
330
B0F1
102
}
330
B0F1
100
AcDbVisualStyle
  2
Thicken
 70
    13
 71
     2
 72
     2
 73
     0
 90
        0
 40
-0.6
 41
-30.0
 62
     5
 63
     7
 74
     1
 91
        4
 64
     7
 65
   257
 75
     1
175
     1
 42
1.0
 92
       12
 66
     7
 43
1.0
 76
     1
 77
     6
 78
     2
 67
     7
 79
     5
170
     0
171
     0
290
     0
174
     0
 93
        1
 44
0.0
173
     0
291
     1
 45
0.0
1001
ACAD
1000
AcDbSavedByObjectVersion
1070
     0
  0
DICTIONARYVAR
  5
B5BA
102
{ACAD_REACTORS
330
34
102
}
330
34
100
DictionaryVariables
280
     0
  1
1:1
  0
DICTIONARYVAR
  5
B5B8
102
{ACAD_REACTORS
330
34
102
}
330
34
100
DictionaryVariables
280
     0
  1
STANDARD
  0
DICTIONARYVAR
  5
AAF3
102
{ACAD_REACTORS
330
34
102
}
330
34
100
DictionaryVariables
280
     0
  1
STANDARD
  0
DICTIONARYVAR
  5
A10C
102
{ACAD_REACTORS
330
34
102
}
330
34
100
DictionaryVariables
280
     0
  1
1
  0
DICTIONARYVAR
  5
AB07
102
{ACAD_REACTORS
330
34
102
}
330
34
100
DictionaryVariables
280
     0
  1
4
  0
DICTIONARYVAR
  5
35
102
{ACAD_REACTORS
330
34
102
}
330
34
100
DictionaryVariables
280
     0
  1
0
  0
DICTIONARYVAR
  5
B5BB
102
{ACAD_REACTORS
330
34
102
}
330
34
100
DictionaryVariables
280
     0
  1
0
  0
DICTIONARYVAR
  5
B5B9
102
{ACAD_REACTORS
330
34
102
}
330
34
100
DictionaryVariables
280
     0
  1
0
  0
DICTIONARYVAR
  5
194C
102
{ACAD_REACTORS
330
34
102
}
330
34
100
DictionaryVariables
280
     0
  1
96
  0
DICTIONARY
  5
7E8
102
{ACAD_REACTORS
330
47
102
}
330
47
100
AcDbDictionary
281
     1
  0
DICTIONARY
  5
4C
102
{ACAD_REACTORS
330
47
102
}
330
47
100
AcDbDictionary
281
     1
  0
XRECORD
  5
A929
102
{ACAD_REACTORS
330
47
102
}
330
47
100
AcDbXrecord
280
     1
 90
-1023410169
  0
XRECORD
  5
B571
102
{ACAD_REACTORS
330
B570
102
}
330
B570
100
AcDbXrecord
280
     1
  0
XRECORD
  5
3FB7
102
{ACAD_REACTORS
330
3F96
102
}
330
3F96
100
AcDbXrecord
280
     1
 91
        3
330
0
 90
        8
 62
     7
370
    40
331
16
  1
Color_7
330
0
 90
        0
 62
    14
370
    -3
331
16
  1
Color_14
330
0
 90
        8
 62
     7
370
    20
331
16
  1
Color_7
330
6D1
 90
        0
 62
     7
370
    -3
331
16
  1
Color_7
330
0
 90
        8
 62
     7
370
    50
331
16
  1
Color_7
330
0
 90
        8
 62
     2
370
    35
331
16
  1
Color_2
330
0
 90
        8
 62
     7
370
    -3
331
16
  1
Color_7
330
10
 90
        8
 62
     7
370
    -3
331
16
  1
Color_7
  0
DICTIONARY
  5
10E79
330
22
100
AcDbDictionary
280
     1
281
     1
  3
ACAD_XREC_ROUNDTRIP
360
10E7A
  0
DICTIONARY
  5
10E77
330
1E
100
AcDbDictionary
280
     1
281
     1
  3
ACAD_XREC_ROUNDTRIP
360
10E78
  0
DICTIONARY
  5
10E7B
330
26
100
AcDbDictionary
280
     1
281
     1
  3
ACAD_XREC_ROUNDTRIP
360
10E7C
  0
DICTIONARY
  5
10E80
330
B0EF
100
AcDbDictionary
280
     1
281
     1
  3
ACAD_XREC_ROUNDTRIP
360
10E81
  0
DICTIONARY
  5
10E7E
330
B0EE
100
AcDbDictionary
280
     1
281
     1
  3
ACAD_XREC_ROUNDTRIP
360
10E7F
  0
DICTIONARY
  5
10E82
330
B0F0
100
AcDbDictionary
280
     1
281
     1
  3
ACAD_XREC_ROUNDTRIP
360
10E83
  0
DICTIONARY
  5
B5B5
330
AABA
100
AcDbDictionary
280
     1
281
     1
  3
ACAD_ROUNDTRIP_2008_TABLESTYLE_CELLSTYLEMAP
360
10E32
  3
ACAD_XREC_ROUNDTRIP
360
10E7D
  0
XRECORD
  5
10E7A
102
{ACAD_REACTORS
330
10E79
102
}
330
10E79
100
AcDbXrecord
280
     1
102
SHADEPLOT
 70
     0
102
SHADEPLOTRESLEVEL
 70
     2
102
SHADEPLOTCUSTOMDPI
 70
   200
  0
XRECORD
  5
10E78
102
{ACAD_REACTORS
330
10E77
102
}
330
10E77
100
AcDbXrecord
280
     1
102
SHADEPLOT
 70
     0
102
SHADEPLOTRESLEVEL
 70
     2
102
SHADEPLOTCUSTOMDPI
 70
   300
  0
XRECORD
  5
10E7C
102
{ACAD_REACTORS
330
10E7B
102
}
330
10E7B
100
AcDbXrecord
280
     1
102
SHADEPLOT
 70
     0
102
SHADEPLOTRESLEVEL
 70
     2
102
SHADEPLOTCUSTOMDPI
 70
   300
  0
XRECORD
  5
10E81
102
{ACAD_REACTORS
330
10E80
102
}
330
10E80
100
AcDbXrecord
280
     1
102
MATERIAL
148
0.0
149
0.0
149
0.0
 93
        0
 94
       63
282
     0
 72
     1
 77
     1
171
     1
175
     1
179
     1
273
     0
  0
XRECORD
  5
10E7F
102
{ACAD_REACTORS
330
10E7E
102
}
330
10E7E
100
AcDbXrecord
280
     1
102
MATERIAL
148
0.0
149
0.0
149
0.0
 93
        0
 94
       63
282
     0
 72
     1
 77
     1
171
     1
175
     1
179
     1
273
     0
  0
XRECORD
  5
10E83
102
{ACAD_REACTORS
330
10E82
102
}
330
10E82
100
AcDbXrecord
280
     1
102
MATERIAL
148
0.0
149
0.0
149
0.0
 93
        0
 94
       63
282
     0
 72
     1
 77
     1
171
     1
175
     1
179
     1
273
     0
  0
ACAD_PROXY_OBJECT
  5
10E32
102
{ACAD_REACTORS
330
B5B5
102
}
330
B5B5
100
AcDbProxyObject
 90
      499
 91
      628
 95
  1703963
 70
     0
 93
     5369
310
40D054060020000020000003200101A4129416000000304000000000000001840404000000000000F83F0000000000003E0FC000000000000F83F0000000000003E0FC0AD7A3703D0AC73F02B5E8DC0F42B1CFD0640640600000030400FEFFFFFF80AD7A3703D0AA73F40A40600000030400FEFFFFFF80AD7A3703D0AA73F4
310
1240600000030400FEFFFFFF80AD7A3703D0AA73F42240600000030400FEFFFFFF80AD7A3703D0AA73F44240600000030400FEFFFFFF80AD7A3703D0AA73F48240600000030400FEFFFFFF80AD7A3703D0AA73F4050141501A8000000C800406904A5058000000C10000000000000004901010000000000003E0FC00000000
310
0000F83F0000000000003E0FC000000000000F83F02B5E8DC0F42B1CFC0AD7A3703D0AC73F419019018000000C1003FBFFFFFE02B5E8DC0F42A9CFD029018000000C1003FBFFFFFE02B5E8DC0F42A9CFD049018000000C1003FBFFFFFE02B5E8DC0F42A9CFD089018000000C1003FBFFFFFE02B5E8DC0F42A9CFD109018000
310
000C1003FBFFFFFE02B5E8DC0F42A9CFD209018000000C1003FBFFFFFE02B5E8DC0F42A9CFD0240505406A0000003200101A412940A000000304000000000000001240404000000000000F83F0000000000003E0FC000000000000F83F0000000000003E0FC0AD7A3703D0AC73F02B5E8DC0F42B1CFD064064060000003040
310
0FEFFFFFF80AD7A3703D0AA73F40A40600000030400FEFFFFFF80AD7A3703D0AA73F41240600000030400FEFFFFFF80AD7A3703D0AA73F42240600000030400FEFFFFFF80AD7A3703D0AA73F44240600000030400FEFFFFFF80AD7A3703D0AA73F48240600000030400FEFFFFFF80AD7A3703D0AA73F40D029065F00540049
310
0054004C0045009075F004800450041004400450052009055F0044004100540041004401CC
340
11
340
0
340
0
340
0
340
0
340
0
340
0
340
11
340
0
340
0
340
0
340
0
340
0
340
0
340
11
340
0
340
0
340
0
340
0
340
0
340
0
 94
        0
1001
ACAD
1000
AcRTDxfName
1000
CELLSTYLEMAP
  0
XRECORD
  5
10E7D
102
{ACAD_REACTORS
330
B5B5
102
}
330
B5B5
100
AcDbXrecord
280
     1
102
ACAD_ROUNDTRIP_PRE2007_TABLESTYLE
 90
        4
 91
        0
  1

 92
        4
 93
        0
  2

 94
        4
 95
        0
  3

  0
ENDSEC
  0
EOF
