  0
SECTION
  2
HEADER
  9
$ACADVER
  1
AC1015
  9
$ACADMAINTVER
 70
    20
  9
$DWGCODEPAGE
  3
ANSI_932
  9
$INSBASE
 10
0.0
 20
0.0
 30
0.0
  9
$EXTMIN
 10
-0.0195322421259334
 20
-0.7309256500302582
 30
-0.0000000349181948
  9
$EXTMAX
 10
436.5643125773422
 20
297.7629702966515
 30
0.0000000814935746
  9
$LIMMIN
 10
-1206.906806347062
 20
-12202.36094600418
  9
$LIMMAX
 10
-366.9068063470622
 20
-11608.36094600418
  9
$ORTHOMODE
 70
     0
  9
$REGENMODE
 70
     1
  9
$FILLMODE
 70
     1
  9
$QTEXTMODE
 70
     0
  9
$MIRRTEXT
 70
     0
  9
$LTSCALE
 40
1.0
  9
$ATTMODE
 70
     1
  9
$TEXTSIZE
 40
3.2
  9
$TRACEWID
 40
1.0
  9
$TEXTSTYLE
  7
STANDARD
  9
$CLAYER
  8
AM_6
  9
$CELTYPE
  6
ByLayer
  9
$CECOLOR
 62
   256
  9
$CELTSCALE
 40
1.0
  9
$DISPSILH
 70
     0
  9
$DIMSCALE
 40
1.0
  9
$DIMASZ
 40
1.0
  9
$DIMEXO
 40
1.0
  9
$DIMDLI
 40
10.0
  9
$DIMRND
 40
0.0
  9
$DIMDLE
 40
0.0
  9
$DIMEXE
 40
1.0
  9
$DIMTP
 40
0.1
  9
$DIMTM
 40
0.1
  9
$DIMTXT
 40
3.5
  9
$DIMCEN
 40
0.0
  9
$DIMTSZ
 40
0.0
  9
$DIMTOL
 70
     0
  9
$DIMLIM
 70
     0
  9
$DIMTIH
 70
     0
  9
$DIMTOH
 70
     0
  9
$DIMSE1
 70
     0
  9
$DIMSE2
 70
     0
  9
$DIMTAD
 70
     1
  9
$DIMZIN
 70
     8
  9
$DIMBLK
  1

  9
$DIMASO
 70
     1
  9
$DIMSHO
 70
     1
  9
$DIMPOST
  1

  9
$DIMAPOST
  1
"
  9
$DIMALT
 70
     0
  9
$DIMALTD
 70
     2
  9
$DIMALTF
 40
0.0393701
  9
$DIMLFAC
 40
1.0
  9
$DIMTOFL
 70
     1
  9
$DIMTVP
 40
0.0
  9
$DIMTIX
 70
     0
  9
$DIMSOXD
 70
     0
  9
$DIMSAH
 70
     0
  9
$DIMBLK1
  1

  9
$DIMBLK2
  1

  9
$DIMSTYLE
  2
SYS
  9
$DIMCLRD
 70
   256
  9
$DIMCLRE
 70
   256
  9
$DIMCLRT
 70
     7
  9
$DIMTFAC
 40
0.71
  9
$DIMGAP
 40
1.5
  9
$DIMJUST
 70
     0
  9
$DIMSD1
 70
     0
  9
$DIMSD2
 70
     0
  9
$DIMTOLJ
 70
     0
  9
$DIMTZIN
 70
     8
  9
$DIMALTZ
 70
     0
  9
$DIMALTTZ
 70
     0
  9
$DIMUPT
 70
     0
  9
$DIMDEC
 70
     1
  9
$DIMTDEC
 70
     2
  9
$DIMALTU
 70
     2
  9
$DIMALTTD
 70
     2
  9
$DIMTXSTY
  7
STANDARD
  9
$DIMAUNIT
 70
     0
  9
$DIMADEC
 70
     0
  9
$DIMALTRND
 40
0.0
  9
$DIMAZIN
 70
     2
  9
$DIMDSEP
 70
    46
  9
$DIMATFIT
 70
     3
  9
$DIMFRAC
 70
     0
  9
$DIMLDRBLK
  1

  9
$DIMLUNIT
 70
     2
  9
$DIMLWD
 70
    -1
  9
$DIMLWE
 70
    -1
  9
$DIMTMOVE
 70
     0
  9
$LUNITS
 70
     2
  9
$LUPREC
 70
     2
  9
$SKETCHINC
 40
1.0
  9
$FILLETRAD
 40
0.0
  9
$AUNITS
 70
     0
  9
$AUPREC
 70
     0
  9
$MENU
  1
.
  9
$ELEVATION
 40
0.0
  9
$PELEVATION
 40
0.0
  9
$THICKNESS
 40
0.0
  9
$LIMCHECK
 70
     0
  9
$CHAMFERA
 40
0.0
  9
$CHAMFERB
 40
0.0
  9
$CHAMFERC
 40
20.0
  9
$CHAMFERD
 40
0.0
  9
$SKPOLY
 70
     0
  9
$TDCREATE
 40
2455567.561054317
  9
$TDUCREATE
 40
2455567.186054318
  9
$TDUPDATE
 40
2456267.608068935
  9
$TDUUPDATE
 40
2456267.233068935
  9
$TDINDWG
 40
3.1001468519
  9
$TDUSRTIMER
 40
3.1001448611
  9
$USRTIMER
 70
     1
  9
$ANGBASE
 50
0.0
  9
$ANGDIR
 70
     0
  9
$PDMODE
 70
     0
  9
$PDSIZE
 40
-3.0
  9
$PLINEWID
 40
0.0
  9
$SPLFRAME
 70
     0
  9
$SPLINETYPE
 70
     6
  9
$SPLINESEGS
 70
     8
  9
$HANDSEED
  5
AAA1D
  9
$SURFTAB1
 70
     6
  9
$SURFTAB2
 70
     6
  9
$SURFTYPE
 70
     6
  9
$SURFU
 70
     6
  9
$SURFV
 70
     6
  9
$UCSBASE
  2

  9
$UCSNAME
  2

  9
$UCSORG
 10
0.0
 20
0.0
 30
0.0
  9
$UCSXDIR
 10
1.0
 20
0.0
 30
0.0
  9
$UCSYDIR
 10
0.0
 20
1.0
 30
0.0
  9
$UCSORTHOREF
  2

  9
$UCSORTHOVIEW
 70
     0
  9
$UCSORGTOP
 10
0.0
 20
0.0
 30
0.0
  9
$UCSORGBOTTOM
 10
0.0
 20
0.0
 30
0.0
  9
$UCSORGLEFT
 10
0.0
 20
0.0
 30
0.0
  9
$UCSORGRIGHT
 10
0.0
 20
0.0
 30
0.0
  9
$UCSORGFRONT
 10
0.0
 20
0.0
 30
0.0
  9
$UCSORGBACK
 10
0.0
 20
0.0
 30
0.0
  9
$PUCSBASE
  2

  9
$PUCSNAME
  2

  9
$PUCSORG
 10
0.0
 20
0.0
 30
0.0
  9
$PUCSXDIR
 10
1.0
 20
0.0
 30
0.0
  9
$PUCSYDIR
 10
0.0
 20
1.0
 30
0.0
  9
$PUCSORTHOREF
  2

  9
$PUCSORTHOVIEW
 70
     0
  9
$PUCSORGTOP
 10
0.0
 20
0.0
 30
0.0
  9
$PUCSORGBOTTOM
 10
0.0
 20
0.0
 30
0.0
  9
$PUCSORGLEFT
 10
0.0
 20
0.0
 30
0.0
  9
$PUCSORGRIGHT
 10
0.0
 20
0.0
 30
0.0
  9
$PUCSORGFRONT
 10
0.0
 20
0.0
 30
0.0
  9
$PUCSORGBACK
 10
0.0
 20
0.0
 30
0.0
  9
$USERI1
 70
     0
  9
$USERI2
 70
     0
  9
$USERI3
 70
     0
  9
$USERI4
 70
     0
  9
$USERI5
 70
     0
  9
$USERR1
 40
0.0
  9
$USERR2
 40
0.0
  9
$USERR3
 40
0.0
  9
$USERR4
 40
0.0
  9
$USERR5
 40
0.0
  9
$WORLDVIEW
 70
     1
  9
$SHADEDGE
 70
     3
  9
$SHADEDIF
 70
    70
  9
$TILEMODE
 70
     1
  9
$MAXACTVP
 70
    64
  9
$PINSBASE
 10
0.0
 20
0.0
 30
0.0
  9
$PLIMCHECK
 70
     0
  9
$PEXTMIN
 10
1.000000000000000E+20
 20
1.000000000000000E+20
 30
1.000000000000000E+20
  9
$PEXTMAX
 10
-1.000000000000000E+20
 20
-1.000000000000000E+20
 30
-1.000000000000000E+20
  9
$PLIMMIN
 10
-3.17498779296875
 20
-3.174999952316284
  9
$PLIMMAX
 10
293.4970092773438
 20
206.692492723465
  9
$UNITMODE
 70
     0
  9
$VISRETAIN
 70
     1
  9
$PLINEGEN
 70
     0
  9
$PSLTSCALE
 70
     1
  9
$TREEDEPTH
 70
  3020
  9
$CMLSTYLE
  2
Standard
  9
$CMLJUST
 70
     0
  9
$CMLSCALE
 40
20.0
  9
$PROXYGRAPHICS
 70
     1
  9
$MEASUREMENT
 70
     1
  9
$CELWEIGHT
370
    -1
  9
$ENDCAPS
280
     0
  9
$JOINSTYLE
280
     0
  9
$LWDISPLAY
290
     1
  9
$INSUNITS
 70
     4
  9
$HYPERLINKBASE
  1

  9
$STYLESHEET
  1
monochrome.ctb
  9
$XEDIT
290
     1
  9
$CEPSNTYPE
380
     0
  9
$PSTYLEMODE
290
     1
  9
$FINGERPRINTGUID
  2
{E0FB5660-30B4-4D8A-8C1D-9D7E99D72F0A}
  9
$VERSIONGUID
  2
{BD51B050-1F89-480E-9C6A-638080D44E77}
  9
$EXTNAMES
290
     1
  9
$PSVPSCALE
 40
0.0
  9
$OLESTARTUP
290
     0
  0
ENDSEC
  0
SECTION
  2
CLASSES
  0
CLASS
  1
ACDBDICTIONARYWDFLT
  2
AcDbDictionaryWithDefault
  3
ObjectDBX Classes
 90
        0
280
     0
281
     0
  0
CLASS
  1
ACDBPLACEHOLDER
  2
AcDbPlaceHolder
  3
ObjectDBX Classes
 90
        0
280
     0
281
     0
  0
CLASS
  1
LAYOUT
  2
AcDbLayout
  3
ObjectDBX Classes
 90
        0
280
     0
281
     0
  0
CLASS
  1
AMGSETTINGSOBJ
  2
AmgSettingsObj
  3
"AcadM|Product Description: AutoCAD Mechanical|Company: Autodesk"
 90
        0
280
     0
281
     0
  0
CLASS
  1
ACME_DOCUMENT
  2
AcMeDbDoc
  3
AcMeServices
 90
        0
280
     0
281
     0
  0
CLASS
  1
ACMESCOPE
  2
AcMeScope
  3
AcMeServices
 90
        0
280
     0
281
     0
  0
CLASS
  1
ACMECOMMANDHISTORY
  2
AcMeCommandHistory
  3
AcMeServices
 90
        0
280
     0
281
     0
  0
CLASS
  1
DICTIONARYVAR
  2
AcDbDictionaryVar
  3
ObjectDBX Classes
 90
        0
280
     0
281
     0
  0
CLASS
  1
ACIMSYSVARMAN
  2
AcImSysVarManager
  3
AcMeServices
 90
        0
280
     0
281
     0
  0
CLASS
  1
ACIMREALSYSVAR
  2
AcImRealSysVar
  3
AcMeServices
 90
        0
280
     0
281
     0
  0
CLASS
  1
ACIMINTSYSVAR
  2
AcImIntSysVar
  3
AcMeServices
 90
        0
280
     0
281
     0
  0
CLASS
  1
ACMEDRAWINGMAN
  2
AcMeDrawingMan
  3
AcMeServices
 90
        0
280
     0
281
     0
  0
CLASS
  1
ACMEVIEW
  2
AcMeView
  3
AcMeServices
 90
        0
280
     0
281
     0
  0
CLASS
  1
ACDBENTITYCACHE
  2
AcMeEntityCache
  3
AcMeServices
 90
        0
280
     0
281
     0
  0
CLASS
  1
GSMANAGER
  2
AcMeGSManager
  3
AcMeServices
 90
        0
280
     0
281
     0
  0
CLASS
  1
AMDTINTERNALREACTOR
  2
AmdtInternalReactor
  3
AcMeServices
 90
        0
280
     0
281
     0
  0
CLASS
  1
ACMESTATEMGR
  2
AcMeStateMgr
  3
AcMeServices
 90
        0
280
     0
281
     0
  0
CLASS
  1
ACGREFMASTER
  2
AcGrefMaster
  3
AcAttribServices
 90
        0
280
     0
281
     0
  0
CLASS
  1
ACME_DATABASE
  2
AcMeDbDatabase
  3
AcMeServices
 90
        0
280
     0
281
     0
  0
CLASS
  1
ACRFINSADJUSTERMGR
  2
AcRfInsAdjusterMgr
  3
AcMeServices
 90
        0
280
     0
281
     0
  0
CLASS
  1
ACGREFACADMASTER
  2
AcGrefacadMaster
  3
AcGrefServices
 90
        0
280
     0
281
     0
  0
CLASS
  1
AMIMASTER
  2
AmiMaster
  3
AmiServices
 90
        0
280
     0
281
     0
  0
CLASS
  1
ACMDATADICTIONARY
  2
AcmDataDictionary
  3
"AcmSymBB|Product Description: AutoCAD Mechanical|Company: Autodesk"
 90
        0
280
     0
281
     0
  0
CLASS
  1
ACMDATAENTRYBLOCK
  2
AcmDataEntryBlock
  3
"AcmSymBB|Product Description: AutoCAD Mechanical|Company: Autodesk"
 90
        0
280
     0
281
     0
  0
CLASS
  1
ACIMSTRSYSVAR
  2
AcImStrSysVar
  3
AcMeServices
 90
        0
280
     0
281
     0
  0
CLASS
  1
ACMSTANDARDISO
  2
AcmStandardISO
  3
"Amdt_StdImp|Product Description: AutoCAD Mechanical|Company: Autodesk"
 90
        0
280
     0
281
     0
  0
CLASS
  1
AMGOBJPROPCFG
  2
AmgObjPropCfg
  3
"AmgLay|Product Description: AutoCAD Mechanical|Company: Autodesk"
 90
        1
280
     0
281
     0
  0
CLASS
  1
AMDTEDGESTANDARDISO
  2
AmdtEdgeStdISO
  3
"Amdt_StdImp|Product Description: AutoCAD Mechanical|Company: Autodesk"
 90
        0
280
     0
281
     0
  0
CLASS
  1
ACMSURFSTANDARDISO
  2
AcmSurfTextStdISO
  3
"Amdt_StdImp|Product Description: AutoCAD Mechanical|Company: Autodesk"
 90
        0
280
     0
281
     0
  0
CLASS
  1
ACMFCFSTANDARDISO
  2
AcmFCFStdISO
  3
"Amdt_StdImp|Product Description: AutoCAD Mechanical|Company: Autodesk"
 90
        0
280
     0
281
     0
  0
CLASS
  1
ACMWELDSTANDARDISO
  2
AcmWeldingStdISO
  3
"Amdt_StdImp|Product Description: AutoCAD Mechanical|Company: Autodesk"
 90
        0
280
     0
281
     0
  0
CLASS
  1
ACMIDSTANDARDISO
  2
AcmIdStdISO
  3
"Amdt_StdImp|Product Description: AutoCAD Mechanical|Company: Autodesk"
 90
        0
280
     0
281
     0
  0
CLASS
  1
ACMDATUMSTANDARDISO
  2
AcmDatumStdISO
  3
"Amdt_StdImp|Product Description: AutoCAD Mechanical|Company: Autodesk"
 90
        0
280
     0
281
     0
  0
CLASS
  1
ACMBOMSTANDARDISO
  2
AcmBOMStdISO
  3
"Amdt_StdImp|Product Description: AutoCAD Mechanical|Company: Autodesk"
 90
        0
280
     0
281
     0
  0
CLASS
  1
ACMDETAILSTANDARDISO
  2
AmdtDetailSymStdISO
  3
"Amdt_StdImp|Product Description: AutoCAD Mechanical|Company: Autodesk"
 90
        0
280
     0
281
     0
  0
CLASS
  1
ACMSECTIONSTANDARDISO
  2
AmdtSectionSymStdISO
  3
"Amdt_StdImp|Product Description: AutoCAD Mechanical|Company: Autodesk"
 90
        0
280
     0
281
     0
  0
CLASS
  1
ACMCENTERLINESTANDARDISO
  2
AmdtCenterLineStdISO
  3
"Amdt_StdImp|Product Description: AutoCAD Mechanical|Company: Autodesk"
 90
        0
280
     0
281
     0
  0
CLASS
  1
ACAMGLAYSTD
  2
AcAmgLayStd
  3
"AmgLay|Product Description: AutoCAD Mechanical|Company: Autodesk"
 90
        0
280
     0
281
     0
  0
CLASS
  1
ACAMGDIMSTD
  2
AcAmgDimStd
  3
"AmgDim|Product Description: AutoCAD Mechanical|Company: Autodesk"
 90
        0
280
     0
281
     0
  0
CLASS
  1
ACAMGTITLESTD
  2
AcAmgTitleStd
  3
"AmgTitle|Product Description: AutoCAD Mechanical|Company: Autodesk"
 90
        0
280
     0
281
     0
  0
CLASS
  1
ACAMGFILTERDAT
  2
AcAmgFilterDat
  3
"AcadM|Product Description: AutoCAD Mechanical|Company: Autodesk"
 90
        0
280
     0
281
     0
  0
CLASS
  1
LAYER_INDEX
  2
AcDbLayerIndex
  3
ObjectDBX Classes
 90
    32768
280
     0
281
     0
  0
CLASS
  1
IDBUFFER
  2
AcDbIdBuffer
  3
ObjectDBX Classes
 90
    32768
280
     0
281
     0
  0
CLASS
  1
PLOTSETTINGS
  2
AcDbPlotSettings
  3
ObjectDBX Classes
 90
    32768
280
     0
281
     0
  0
CLASS
  1
AMDTFORMULAUPDATEDISPATCHER
  2
AmdtFormulaUpdateDispatcher
  3
AcMeServices
 90
        0
280
     0
281
     0
  0
CLASS
  1
ACMSTANDARDANSI
  2
AcmStandardANSI
  3
"Amdt_StdImp|Product Description: AutoCAD Mechanical|Company: Autodesk"
 90
        0
280
     0
281
     0
  0
CLASS
  1
ACMSURFSTANDARDANSI
  2
AcmSurfTextStdANSI
  3
"Amdt_StdImp|Product Description: AutoCAD Mechanical|Company: Autodesk"
 90
        0
280
     0
281
     0
  0
CLASS
  1
ACMFCFSTANDARDANSI
  2
AcmFCFStdANSI
  3
"Amdt_StdImp|Product Description: AutoCAD Mechanical|Company: Autodesk"
 90
        0
280
     0
281
     0
  0
CLASS
  1
ACMWELDSTANDARDANSI
  2
AcmWeldingStdANSI
  3
"Amdt_StdImp|Product Description: AutoCAD Mechanical|Company: Autodesk"
 90
        0
280
     0
281
     0
  0
CLASS
  1
ACMIDSTANDARDANSI
  2
AcmIdStdANSI
  3
"Amdt_StdImp|Product Description: AutoCAD Mechanical|Company: Autodesk"
 90
        0
280
     0
281
     0
  0
CLASS
  1
ACMDATUMSTANDARDANSI
  2
AcmDatumStdANSI
  3
"Amdt_StdImp|Product Description: AutoCAD Mechanical|Company: Autodesk"
 90
        0
280
     0
281
     0
  0
CLASS
  1
ACMBOMSTANDARDANSI
  2
AcmBOMStdANSI
  3
"Amdt_StdImp|Product Description: AutoCAD Mechanical|Company: Autodesk"
 90
        0
280
     0
281
     0
  0
CLASS
  1
ACMDETAILSTANDARDANSI
  2
AmdtDetailSymStdANSI
  3
"Amdt_StdImp|Product Description: AutoCAD Mechanical|Company: Autodesk"
 90
        0
280
     0
281
     0
  0
CLASS
  1
ACMSECTIONSTANDARDANSI
  2
AmdtSectionSymStdANSI
  3
"Amdt_StdImp|Product Description: AutoCAD Mechanical|Company: Autodesk"
 90
        0
280
     0
281
     0
  0
CLASS
  1
ACMCENTERLINESTANDARDANSI
  2
AmdtCenterLineStdANSI
  3
"Amdt_StdImp|Product Description: AutoCAD Mechanical|Company: Autodesk"
 90
        0
280
     0
281
     0
  0
CLASS
  1
ACMBOM
  2
AcmBom
  3
"AcmSymBB|Product Description: AutoCAD Mechanical|Company: Autodesk"
 90
        0
280
     0
281
     0
  0
CLASS
  1
ACMDATAENTRYPART
  2
AcmDataEntryPart
  3
"AcmSymBB|Product Description: AutoCAD Mechanical|Company: Autodesk"
 90
    32768
280
     0
281
     0
  0
CLASS
  1
ACMPARTREF
  2
AcmPartRef
  3
"AcmSymBB|Product Description: AutoCAD Mechanical|Company: Autodesk"
 90
    35839
280
     0
281
     1
  0
CLASS
  1
ACDBCIRCARCRES
  2
AcDbCircArcRes
  3
AcGrefServices
 90
    32768
280
     0
281
     0
  0
CLASS
  1
ACMBOMROW
  2
AcmBomRow
  3
"AcmSymBB|Product Description: AutoCAD Mechanical|Company: Autodesk"
 90
    32768
280
     0
281
     0
  0
CLASS
  1
ACMBALLOON
  2
AcmBalloon
  3
"AcmSymBB|Product Description: AutoCAD Mechanical|Company: Autodesk"
 90
    35839
280
     0
281
     1
  0
CLASS
  1
AMDTNOTE
  2
AmdtNote
  3
"AcmSymBB|Product Description: AutoCAD Mechanical|Company: Autodesk"
 90
     3071
280
     0
281
     1
  0
CLASS
  1
STDPART2D
  2
AmgStdPart
  3
"g3vace|Class: AmgStdPart|Product Description: AutoCAD Mechanical|Company: Autodesk"
 90
    35839
280
     0
281
     1
  0
CLASS
  1
ACDBSTDPARTRES_LINE
  2
AcDbStdPartRes_Line
  3
"g3vace|Class: AcDbStdPartRes_Line|Product Description: AutoCAD Mechanical|Company: Autodesk"
 90
    32768
280
     0
281
     0
  0
CLASS
  1
ACMDATAENTRY
  2
AcmDataEntry
  3
"AcmSymBB|Product Description: AutoCAD Mechanical|Company: Autodesk"
 90
        0
280
     0
281
     0
  0
CLASS
  1
ACDBOPPOLYLINERES
  2
AcDbOpPolylineRes
  3
AcGrefServices
 90
    32768
280
     0
281
     0
  0
CLASS
  1
ACMPARTLIST
  2
AcmPartList
  3
"AcmSymBB|Product Description: AutoCAD Mechanical|Company: Autodesk"
 90
    35839
280
     0
281
     1
  0
CLASS
  1
ACDBLINERES
  2
AcDbLineRes
  3
AcGrefServices
 90
    32768
280
     0
281
     0
  0
CLASS
  1
ACRFINSADJ
  2
AcRfInsAdjuster
  3
AcMeServices
 90
    32768
280
     0
281
     0
  0
CLASS
  1
AM_DRAWING_MGR
  2
AcDmDwgMgr
  3
AcMechDwgViewMgmt
 90
        0
280
     0
281
     0
  0
CLASS
  1
AM_DWG_DOCUMENT
  2
AcDmDwgDocument
  3
AcMechDwgViewMgmt
 90
        0
280
     0
281
     0
  0
CLASS
  1
AM_DWG_SHEET
  2
AcDmSheet
  3
AcMechDwgViewMgmt
 90
        0
280
     0
281
     0
  0
CLASS
  1
AM_VIEWDIMPARMAP
  2
AcDmViewDimParMap
  3
AcMechDwgViewMgmt
 90
        0
280
     0
281
     0
  0
CLASS
  1
AM_DWGMGR_NAME
  2
AcDmDwgMgrName
  3
AcMechDwgViewMgmt
 90
        0
280
     0
281
     0
  0
CLASS
  1
AMDTMENUSTATEMGR
  2
AmdtMenuStateMgr
  3
McadcomServices
 90
        0
280
     0
281
     0
  0
CLASS
  1
AMDTMCOMMENUSTATE
  2
AmdtMcomMenuState
  3
McadcomServices
 90
        0
280
     0
281
     0
  0
CLASS
  1
ASAPP
  2
AcAsAppObject
  3
AutoSurfServices
 90
        0
280
     0
281
     0
  0
CLASS
  1
IM_STATIC_MAN
  2
AcImStaticVarManager
  3
AcMeServices
 90
        0
280
     0
281
     0
  0
CLASS
  1
ACIMDBLSTATICVAR
  2
AcImDblStaticVar
  3
AcMeServices
 90
        0
280
     0
281
     0
  0
CLASS
  1
ACIMSTRSTATICVAR
  2
AcImStrStaticVar
  3
AcMeServices
 90
        0
280
     0
281
     0
  0
CLASS
  1
ACIMINTSTATICVAR
  2
AcImIntStaticVar
  3
AcMeServices
 90
        0
280
     0
281
     0
  0
CLASS
  1
ACASGREFMASTER
  2
AcAsGrefMaster
  3
AutoSurfResolverServices
 90
        0
280
     0
281
     0
  0
CLASS
  1
ACADGREFMODULE
  2
AcAdGrefModule
  3
AdGrefServices
 90
        0
280
     0
281
     0
  0
CLASS
  1
AMDTMAPISURFMOUDULE
  2
AmdtMApiSurfModule
  3
MApiSurfServices
 90
        0
280
     0
281
     0
  0
CLASS
  1
MAPIAMMOUDLE
  2
MApiAmModule
  3
MApiAmServices
 90
        0
280
     0
281
     0
  0
CLASS
  1
AMDTADMENUSTATE
  2
AmdtAdMenuState
  3
DesignerServices
 90
        0
280
     0
281
     0
  0
CLASS
  1
ADAPPL
  2
AcAdAppl
  3
DesignerServices
 90
        0
280
     0
281
     0
  0
CLASS
  1
DEPMGR
  2
AcAdDepMgr
  3
DesignerServices
 90
        0
280
     0
281
     0
  0
CLASS
  1
PARAMMGR
  2
AcAdParamMgr
  3
DesignerServices
 90
        0
280
     0
281
     0
  0
CLASS
  1
PARAMSCOPE
  2
AcAdParamScope
  3
DesignerServices
 90
        0
280
     0
281
     0
  0
CLASS
  1
NAMEDAPPL
  2
AcAdNamedAppl
  3
DesignerServices
 90
        0
280
     0
281
     0
  0
CLASS
  1
ADHNTMPLT
  2
AdHoleNoteTemplateMgr
  3
DesignerServices
 90
    32768
280
     0
281
     0
  0
CLASS
  1
AM_HNTEMPLATE_MGR_NAME
  2
AdHoleNoteTemplateMgrName
  3
DesignerServices
 90
    32768
280
     0
281
     0
  0
CLASS
  1
AMDTDMMENUSTATE
  2
AmdtDmMenuState
  3
AcMechDwgViewMgmt
 90
        0
280
     0
281
     0
  0
CLASS
  1
MAPIADMODULE
  2
MApiAdModule
  3
MApiAdServices
 90
        0
280
     0
281
     0
  0
CLASS
  1
AMDTAMMENUSTATE
  2
AmdtAmMenuState
  3
DesignerAssemblies
 90
        0
280
     0
281
     0
  0
CLASS
  1
ACAMPROJECT
  2
AcAmProject
  3
DesignerAssemblies
 90
        0
280
     0
281
     0
  0
CLASS
  1
ACAMGRCOMPDEF
  2
AcAmGrCompDef
  3
DesignerAssemblies
 90
        0
280
     0
281
     0
  0
CLASS
  1
ACCMCONTEXT
  2
AcCmContext
  3
DesignerAssemblies
 90
        0
280
     0
281
     0
  0
CLASS
  1
ACAMCOMPDEF
  2
AcAmCompDef
  3
DesignerAssemblies
 90
        0
280
     0
281
     0
  0
CLASS
  1
ACAMCOMPDEFMGR
  2
AcAmCompDefMgr
  3
DesignerAssemblies
 90
        0
280
     0
281
     0
  0
CLASS
  1
AMCONTEXTMGR
  2
AcAmContextMgr
  3
DesignerAssemblies
 90
        0
280
     0
281
     0
  0
CLASS
  1
ACAMCONTEXTMODELER
  2
AcAmContextModeler
  3
DesignerAssemblies
 90
        0
280
     0
281
     0
  0
CLASS
  1
CATALOGSTATE
  2
AcAmCatalogState
  3
DesignerAssemblies
 90
        0
280
     0
281
     0
  0
CLASS
  1
ACAMGRCOMPDEFSET
  2
AcAmGrCompDefSet
  3
DesignerAssemblies
 90
        0
280
     0
281
     0
  0
CLASS
  1
AMDTBROWSERDBTAB
  2
AmdtBrowserDbTab
  3
McadcomServices
 90
        0
280
     0
281
     0
  0
CLASS
  1
CBROWSERAPPOBJECT
  2
CBrowserAppObject
  3
McadcomServices
 90
        0
280
     0
281
     0
  0
CLASS
  1
DM_PLACEHOLDER
  2
AcDmSelsetPlaceholder
  3
AcMechDwgViewMgmt
 90
        0
280
     0
281
     0
  0
CLASS
  1
ACMPICKOBJ
  2
AcmPickEnt
  3
"AcmSymBB|Product Description: AutoCAD Mechanical|Company: Autodesk"
 90
    32768
280
     0
281
     1
  0
CLASS
  1
ACMNOTESTANDARDISO
  2
AmdtNoteStdISO
  3
"Amdt_StdImp|Product Description: AutoCAD Mechanical|Company: Autodesk"
 90
        0
280
     0
281
     0
  0
CLASS
  1
ACMNOTESTANDARDANSI
  2
AmdtNoteStdANSI
  3
"Amdt_StdImp|Product Description: AutoCAD Mechanical|Company: Autodesk"
 90
        0
280
     0
281
     0
  0
CLASS
  1
ACMTHREADLINESTANDARDISO
  2
AmdtThreadLineStdISO
  3
"Amdt_StdImp|Product Description: AutoCAD Mechanical|Company: Autodesk"
 90
        0
280
     0
281
     0
  0
CLASS
  1
ACMTHREADLINESTANDARDANSI
  2
AmdtThreadLineStdANSI
  3
"Amdt_StdImp|Product Description: AutoCAD Mechanical|Company: Autodesk"
 90
        0
280
     0
281
     0
  0
CLASS
  1
TABLESTYLE
  2
AcDbTableStyle
  3
ObjectDBX Classes
 90
     4095
280
     0
281
     0
  0
CLASS
  1
SORTENTSTABLE
  2
AcDbSortentsTable
  3
ObjectDBX Classes
 90
        0
280
     0
281
     0
  0
CLASS
  1
MATERIAL
  2
AcDbMaterial
  3
ObjectDBX Classes
 90
     1024
280
     0
281
     0
  0
CLASS
  1
VISUALSTYLE
  2
AcDbVisualStyle
  3
ObjectDBX Classes
 90
     4095
280
     0
281
     0
  0
CLASS
  1
ACRFATTGENMGR
  2
AcRfAttGeneralMgr
  3
AcAttribServices
 90
        0
280
     0
281
     0
  0
CLASS
  1
ACRFOBJATTMGR
  2
AcRfObjAttGroupMgr
  3
AcAttribServices
 90
        0
280
     0
281
     0
  0
CLASS
  1
ACRFMCADAPIATTHOLDER
  2
AcRfMCADAPIAttHolder
  3
AcAttribServices
 90
        0
280
     0
281
     0
  0
CLASS
  1
AMDTSYSATTR
  2
AmdtSystemAttribute
  3
AcAttribServices
 90
        0
280
     0
281
     0
  0
CLASS
  1
ACMTAPERSTANDARDISO
  2
AcmTaperStdISO
  3
"Amdt_StdImp|Product Description: AutoCAD Mechanical|Company: Autodesk"
 90
        0
280
     0
281
     0
  0
CLASS
  1
CAMSSTRUCTBTNSTATE
  2
StructBtnState
  3
L"DesignerAssemblies"
 90
        0
280
     0
281
     0
  0
CLASS
  1
DIMASSOC
  2
AcDbDimAssoc
  3
"AcDbDimAssoc|Product Desc:     AcDim ARX App For Dimension|Company:          Autodesk, Inc.|WEB Address:      www.autodesk.com"
 90
        0
280
     0
281
     0
  0
CLASS
  1
AMDTNOTETEMPLATEDB
  2
AmdtNoteTemplateDB
  3
AMDT_STDIMP_MODULE_NAME
 90
        0
280
     0
281
     0
  0
CLASS
  1
ACMTAPERSTANDARDANSI
  2
AcmTaperStdANSI
  3
"Amdt_StdImp|Product Description: AutoCAD Mechanical|Company: Autodesk"
 90
        0
280
     0
281
     0
  0
CLASS
  1
ACAMGHOLECHARTSTDANSI
  2
AcAmgHoleChartStdANSI
  3
ACMSYMBB_MODULE_NAME
 90
        0
280
     0
281
     0
  0
CLASS
  1
AMDTEDGESTANDARDISO13715
  2
AmdtEdgeStdISO13715
  3
"Amdt_StdImp|Product Description: AutoCAD Mechanical|Company: Autodesk"
 90
        0
280
     0
281
     0
  0
CLASS
  1
ACAMGHOLECHARTSTDISO
  2
AcAmgHoleChartStdISO
  3
ACMSYMBB_MODULE_NAME
 90
        0
280
     0
281
     0
  0
CLASS
  1
ACDBDIMENSIONRES
  2
AcDbDimensionRes
  3
L"AcDbDimensionRes|Product Description: AutoCAD Mechanical 2000|Company: Autodesk"
 90
    32768
280
     0
281
     0
  0
ENDSEC
  0
SECTION
  2
TABLES
  0
TABLE
  2
VPORT
  5
8
330
0
100
AcDbSymbolTable
 70
     1
  0
VPORT
  5
B0EC
330
8
100
AcDbSymbolTableRecord
100
AcDbViewportTableRecord
  2
*Active
 70
     0
 10
0.0
 20
0.0
 11
1.0
 21
1.0
 12
218.2723901676081
 22
148.5160223233106
 13
0.0
 23
0.0
 14
2.5
 24
2.5
 15
10.0
 25
10.0
 16
0.0
 26
0.0
 36
1.0
 17
0.0
 27
0.0
 37
0.0
 40
300.6913970211358
 41
1.648648648648648
 42
50.0
 43
-1370.695619172058
 44
-1370.695619172058
 50
0.0
 51
0.0
 71
     0
 72
   100
 73
     1
 74
     3
 75
     0
 76
     0
 77
     0
 78
     0
281
     0
 65
     0
110
0.0
120
0.0
130
0.0
111
1.0
121
0.0
131
0.0
112
0.0
122
1.0
132
0.0
 79
     0
146
0.0
  0
ENDTAB
  0
TABLE
  2
LTYPE
  5
5
330
0
100
AcDbSymbolTable
 70
    36
  0
LTYPE
  5
14
330
5
100
AcDbSymbolTableRecord
100
AcDbLinetypeTableRecord
  2
ByBlock
 70
     0
  3

 72
    65
 73
     0
 40
0.0
  0
LTYPE
  5
15
330
5
100
AcDbSymbolTableRecord
100
AcDbLinetypeTableRecord
  2
ByLayer
 70
     0
  3

 72
    65
 73
     0
 40
0.0
  0
LTYPE
  5
16
330
5
100
AcDbSymbolTableRecord
100
AcDbLinetypeTableRecord
  2
Continuous
 70
     0
  3
Solid line
 72
    65
 73
     0
 40
0.0
  0
LTYPE
  5
4F
330
5
100
AcDbSymbolTableRecord
100
AcDbLinetypeTableRecord
  2
AM_ISO02W050
 70
     0
  3
__ __ __ __ __ __ __ __ __ __ __ __ __ __ __
 72
    65
 73
     2
 40
7.5
 49
6.0
 74
     0
 49
-1.5
 74
     0
  0
LTYPE
  5
52
330
5
100
AcDbSymbolTableRecord
100
AcDbLinetypeTableRecord
  2
Amconstr
 70
     0
  3
_______________________
 72
    65
 73
     2
 40
9999.0
 49
9999.0
 74
     0
 49
0.0
 74
     0
  0
LTYPE
  5
64
330
5
100
AcDbSymbolTableRecord
100
AcDbLinetypeTableRecord
  2
ACISOWELD
 70
     0
  3
_ _ _ _ _
 72
    65
 73
     2
 40
2.0
 49
2.0
 74
     0
 49
-1.0
 74
     0
  0
LTYPE
  5
65
330
5
100
AcDbSymbolTableRecord
100
AcDbLinetypeTableRecord
  2
ACISOTGB
 70
     0
  3
__ . . __ . .
 72
    65
 73
     6
 40
9.0
 49
4.0
 74
     0
 49
-1.0
 74
     0
 49
1.0
 74
     0
 49
-1.0
 74
     0
 49
1.0
 74
     0
 49
-1.0
 74
     0
  0
LTYPE
  5
66
330
5
100
AcDbSymbolTableRecord
100
AcDbLinetypeTableRecord
  2
ACISOTGL
 70
     0
  3
_ _ _ _ _
 72
    65
 73
     2
 40
3.0
 49
2.0
 74
     0
 49
-1.0
 74
     0
  0
LTYPE
  5
69
330
5
100
AcDbSymbolTableRecord
100
AcDbLinetypeTableRecord
  2
CENTER
 70
     0
  3
__ . __
 72
    65
 73
     4
 40
7.0
 49
4.0
 74
     0
 49
-1.0
 74
     0
 49
1.0
 74
     0
 49
-1.0
 74
     0
  0
LTYPE
  5
A6E
330
5
100
AcDbSymbolTableRecord
100
AcDbLinetypeTableRecord
  2
PHANTOM2
 70
     0
  3
Phantom (.5x) ___ _ _ ___ _ _ ___ _ _ ___ _ _
 72
    65
 73
     6
 40
31.75
 49
15.875
 74
     0
 49
-3.174999999999999
 74
     0
 49
3.174999999999999
 74
     0
 49
-3.174999999999999
 74
     0
 49
3.174999999999999
 74
     0
 49
-3.174999999999999
 74
     0
  0
LTYPE
  5
4DED
330
5
100
AcDbSymbolTableRecord
100
AcDbLinetypeTableRecord
  2
中線
 70
     0
  3
___________________
 72
    65
 73
     2
 40
2.0
 49
1.0
 74
     0
 49
1.0
 74
     0
  0
LTYPE
  5
4DF6
330
5
100
AcDbSymbolTableRecord
100
AcDbLinetypeTableRecord
  2
細線
 70
     0
  3
___________________
 72
    65
 73
     2
 40
2.0
 49
1.0
 74
     0
 49
1.0
 74
     0
  0
LTYPE
  5
4DF7
330
5
100
AcDbSymbolTableRecord
100
AcDbLinetypeTableRecord
  2
太線
 70
     0
  3
___________________
 72
    65
 73
     2
 40
2.0
 49
1.0
 74
     0
 49
1.0
 74
     0
  0
LTYPE
  5
4EA7
330
5
100
AcDbSymbolTableRecord
100
AcDbLinetypeTableRecord
  2
文字
 70
     0
  3
_________________
 72
    65
 73
     2
 40
2.0
 49
1.0
 74
     0
 49
1.0
 74
     0
  0
LTYPE
  5
4EA9
330
5
100
AcDbSymbolTableRecord
100
AcDbLinetypeTableRecord
  2
寸法線
 70
     0
  3
________________
 72
    65
 73
     2
 40
2.0
 49
1.0
 74
     0
 49
1.0
 74
     0
  0
LTYPE
  5
4F12
330
5
100
AcDbSymbolTableRecord
100
AcDbLinetypeTableRecord
  2
ハッチング
 70
     0
  3
_________________
 72
    65
 73
     2
 40
2.0
 49
1.0
 74
     0
 49
1.0
 74
     0
  0
LTYPE
  5
5180
330
5
100
AcDbSymbolTableRecord
100
AcDbLinetypeTableRecord
  2
陰線1
 70
     0
  3
__ __ __ __
 72
    65
 73
     2
 40
4.0
 49
2.2
 74
     0
 49
-1.8
 74
     0
  0
LTYPE
  5
5182
330
5
100
AcDbSymbolTableRecord
100
AcDbLinetypeTableRecord
  2
切断線
 70
     0
  3
/\/-/\/-/\/-/\/-/\/-/\/
 72
    65
 73
     2
 40
11.0001
 49
0.0001
 74
     4
 75
   135
340
56
 46
0.04
 50
0.0
 44
0.0
 45
0.0
 49
-11.0
 74
     0
  0
LTYPE
  5
5183
330
5
100
AcDbSymbolTableRecord
100
AcDbLinetypeTableRecord
  2
想像線1
 70
     0
  3
__ __ __ _____ __ __ ____
 72
    65
 73
     6
 40
14.5
 49
6.0
 74
     0
 49
-1.5
 74
     0
 49
2.0
 74
     0
 49
-1.5
 74
     0
 49
2.0
 74
     0
 49
-1.5
 74
     0
  0
LTYPE
  5
5185
330
5
100
AcDbSymbolTableRecord
100
AcDbLinetypeTableRecord
  2
中心線1
 70
     0
  3
___ _ ___ _ ___
 72
    65
 73
     4
 40
18.0
 49
12.0
 74
     0
 49
-2.0
 74
     0
 49
2.0
 74
     0
 49
-2.0
 74
     0
  0
LTYPE
  5
5188
330
5
100
AcDbSymbolTableRecord
100
AcDbLinetypeTableRecord
  2
補助線
 70
     0
  3
______________
 72
    65
 73
     2
 40
2.0
 49
1.0
 74
     0
 49
1.0
 74
     0
  0
LTYPE
  5
6427
330
5
100
AcDbSymbolTableRecord
100
AcDbLinetypeTableRecord
  2
HIDDEN
 70
     0
  3
Hidden __ __ __ __ __ __ __ __ __ __ __ __ __ _
 72
    65
 73
     2
 40
0.375
 49
0.25
 74
     0
 49
-0.125
 74
     0
  0
LTYPE
  5
AC81
330
5
100
AcDbSymbolTableRecord
100
AcDbLinetypeTableRecord
  2
破断線
 70
     0
  3
/\/-/\/-/\/-/\/-/\/-/\/
 72
    65
 73
     2
 40
0.4401
 49
0.0001
 74
     4
 75
   136
340
AC80
 46
0.0016
 50
0.0
 44
0.0
 45
0.0
 49
-0.4400000000000001
 74
     0
  0
LTYPE
  5
AC9E
330
5
100
AcDbSymbolTableRecord
100
AcDbLinetypeTableRecord
  2
Amzigzag
 70
     0
  3
/\/-/\/-/\/-/\/-/\/-/\/
 72
    65
 73
     2
 40
11.0001
 49
0.0001
 74
     4
 75
   135
340
56
 46
0.04
 50
0.0
 44
0.0
 45
0.0
 49
-11.0
 74
     0
  0
LTYPE
  5
AF0F
330
5
100
AcDbSymbolTableRecord
100
AcDbLinetypeTableRecord
  2
genzigzag
 70
     0
  3
/\/-/\/-/\/-/\/-/\/-/\/
 72
    65
 73
     2
 40
12.0001
 49
0.0001
 74
     4
 75
   135
340
AC80
 46
2.0
 50
0.0
 44
0.0
 45
0.0
 49
-12.0
 74
     0
  0
LTYPE
  5
AF95
330
5
100
AcDbSymbolTableRecord
100
AcDbLinetypeTableRecord
  2
AM_ISO08W050
 70
     0
  3
____ . ____ . ____ . ____ . ____ . ____ . ____
 72
    65
 73
     4
 40
18.0
 49
12.0
 74
     0
 49
-1.5
 74
     0
 49
3.0
 74
     0
 49
-1.5
 74
     0
  0
LTYPE
  5
AF96
330
5
100
AcDbSymbolTableRecord
100
AcDbLinetypeTableRecord
  2
AM_ISO09W050
 70
     0
  3
_____ . . _____ . . _____ . . ____ .. ____
 72
    65
 73
     6
 40
22.5
 49
12.0
 74
     0
 49
-1.5
 74
     0
 49
3.0
 74
     0
 49
-1.5
 74
     0
 49
3.0
 74
     0
 49
-1.5
 74
     0
  0
LTYPE
  5
AF97
330
5
100
AcDbSymbolTableRecord
100
AcDbLinetypeTableRecord
  2
AM_ISO08W050x2
 70
     0
  3
__ . __ . __ . __ . __ . __
 72
    65
 73
     4
 40
9.0
 49
6.0
 74
     0
 49
-0.75
 74
     0
 49
1.5
 74
     0
 49
-0.75
 74
     0
  0
LTYPE
  5
AF98
330
5
100
AcDbSymbolTableRecord
100
AcDbLinetypeTableRecord
  2
AM_ISO02W050x2
 70
     0
  3
 _ _ _ _ _ _ _ _ _ _ _ _
 72
    65
 73
     2
 40
3.75
 49
3.0
 74
     0
 49
-0.75
 74
     0
  0
LTYPE
  5
D8F5
330
5
100
AcDbSymbolTableRecord
100
AcDbLinetypeTableRecord
  2
DOT
 70
     0
  3
・・・・・・・・・・・・・・・
 72
    65
 73
     2
 40
6.5
 49
0.1
 74
     0
 49
-6.4
 74
     0
  0
LTYPE
  5
D8F6
330
5
100
AcDbSymbolTableRecord
100
AcDbLinetypeTableRecord
  2
CENTER2
 70
     0
  3
Center (.5x) ___ _ ___ _ ___ _ ___ _ ___ _ ___
 72
    65
 73
     4
 40
1.125
 49
0.75
 74
     0
 49
-0.125
 74
     0
 49
0.125
 74
     0
 49
-0.125
 74
     0
  0
LTYPE
  5
D8F7
330
5
100
AcDbSymbolTableRecord
100
AcDbLinetypeTableRecord
  2
HIDDEN2
 70
     0
  3
Hidden (.5x) _ _ _ _ _ _ _ _ _ _ _ _ _ _ _ _ _
 72
    65
 73
     2
 40
0.1875
 49
0.125
 74
     0
 49
-0.0625
 74
     0
  0
LTYPE
  5
D8F8
330
5
100
AcDbSymbolTableRecord
100
AcDbLinetypeTableRecord
  2
Amzigzag2
 70
     0
  3
/\/-/\/-/\/-/\/-/\/-/\/
 72
    65
 73
     2
 40
0.4401
 49
0.0001
 74
     4
 75
   136
340
AC80
 46
0.0016
 50
0.0
 44
0.0
 45
0.0
 49
-0.4400000000000001
 74
     0
  0
LTYPE
  5
D8F9
330
5
100
AcDbSymbolTableRecord
100
AcDbLinetypeTableRecord
  2
ACANSTGB
 70
     0
  3
__ . . __ . .
 72
    65
 73
     6
 40
0.35433070866
 49
0.15748031496
 74
     0
 49
-0.03937007874
 74
     0
 49
0.03937007874
 74
     0
 49
-0.03937007874
 74
     0
 49
0.03937007874
 74
     0
 49
-0.03937007874
 74
     0
  0
LTYPE
  5
D8FA
330
5
100
AcDbSymbolTableRecord
100
AcDbLinetypeTableRecord
  2
ACANSTGL
 70
     0
  3
_ _ _ _ _
 72
    65
 73
     2
 40
0.11811023622
 49
0.07874015748
 74
     0
 49
-0.03937007874
 74
     0
  0
LTYPE
  5
DC14
330
5
100
AcDbSymbolTableRecord
100
AcDbLinetypeTableRecord
  2
DASHED
 70
     0
  3
- - - - - - - - - - -
 72
    65
 73
     2
 40
19.1
 49
12.7
 74
     0
 49
-6.4
 74
     0
  0
LTYPE
  5
186CB
330
5
100
AcDbSymbolTableRecord
100
AcDbLinetypeTableRecord
  2
PHANTOM
 70
     0
  3
- ･ ･ - ･ ･ - ･ ･ - ･ ･ - ･ ･ - ･ ･ - ･ ･ - 
 72
    65
 73
     6
 40
63.79999999999999
 49
31.8
 74
     0
 49
-6.4
 74
     0
 49
6.4
 74
     0
 49
-6.4
 74
     0
 49
6.4
 74
     0
 49
-6.4
 74
     0
  0
LTYPE
  5
93D29
330
5
100
AcDbSymbolTableRecord
100
AcDbLinetypeTableRecord
  2
BORDER
 70
     0
  3
__ __ . __ __ . __ __ . __ __ . __ __ . __ __ .
 72
    65
 73
     6
 40
8.75
 49
2.5
 74
     0
 49
-1.25
 74
     0
 49
2.5
 74
     0
 49
-1.25
 74
     0
 49
0.0
 74
     0
 49
-1.25
 74
     0
  0
ENDTAB
  0
TABLE
  2
LAYER
  5
2
102
{ACAD_XDICTIONARY
360
3F95
102
}
330
0
100
AcDbSymbolTable
 70
    41
  0
LAYER
  5
10
330
2
100
AcDbSymbolTableRecord
100
AcDbLayerTableRecord
  2
0
 70
     0
 62
     7
  6
Continuous
370
    -3
390
F
  0
LAYER
  5
6D1
330
2
100
AcDbSymbolTableRecord
100
AcDbLayerTableRecord
  2
Defpoints
 70
     0
 62
     7
  6
Continuous
290
     0
370
    -3
390
F
  0
LAYER
  5
5F85
330
2
100
AcDbSymbolTableRecord
100
AcDbLayerTableRecord
  2
AM_0
 70
     0
 62
     7
  6
中線
370
    30
390
F
1001
AcAecLayerStandard
1000

1000

  0
LAYER
  5
AC9F
330
2
100
AcDbSymbolTableRecord
100
AcDbLayerTableRecord
  2
size
 70
     0
 62
     5
  6
Continuous
290
     0
370
    25
390
F
  0
LAYER
  5
ACA0
330
2
100
AcDbSymbolTableRecord
100
AcDbLayerTableRecord
  2
waku
 70
     0
 62
     7
  6
Continuous
370
    35
390
F
  0
LAYER
  5
ACA1
330
2
100
AcDbSymbolTableRecord
100
AcDbLayerTableRecord
  2
AM_6
 70
     0
 62
     2
  6
文字
370
    13
390
F
1001
AcAecLayerStandard
1000

1000

  0
LAYER
  5
ACC8
330
2
100
AcDbSymbolTableRecord
100
AcDbLayerTableRecord
  2
hyomoji
 70
     0
 62
     2
  6
Continuous
370
    13
390
F
  0
LAYER
  5
ACC9
330
2
100
AcDbSymbolTableRecord
100
AcDbLayerTableRecord
  2
hyosen1
 70
     0
 62
     1
  6
Continuous
370
    25
390
F
  0
LAYER
  5
ACCA
330
2
100
AcDbSymbolTableRecord
100
AcDbLayerTableRecord
  2
hyosen2
 70
     0
 62
     1
  6
Continuous
370
    13
390
F
  0
LAYER
  5
AD60
330
2
100
AcDbSymbolTableRecord
100
AcDbLayerTableRecord
  2
AM_1
 70
     0
 62
    30
  6
太線
370
    40
390
F
1001
AcAecLayerStandard
1000

1000

  0
LAYER
  5
AD64
330
2
100
AcDbSymbolTableRecord
100
AcDbLayerTableRecord
  2
AM_2
 70
     0
 62
     1
  6
細線
370
    13
390
F
1001
AcAecLayerStandard
1000

1000

  0
LAYER
  5
AD67
330
2
100
AcDbSymbolTableRecord
100
AcDbLayerTableRecord
  2
AM_3
 70
     0
 62
     6
  6
陰線1
370
    13
390
F
1001
AcAecLayerStandard
1000

1000

  0
LAYER
  5
AD68
330
2
100
AcDbSymbolTableRecord
100
AcDbLayerTableRecord
  2
AM_5
 70
     0
 62
     3
  6
寸法線
370
    13
390
F
1001
AcAecLayerStandard
1000

1000

  0
LAYER
  5
AD69
330
2
100
AcDbSymbolTableRecord
100
AcDbLayerTableRecord
  2
AM_7
 70
     0
 62
     4
  6
中心線1
370
    13
390
F
1001
AcAecLayerStandard
1000

1000

  0
LAYER
  5
AD6A
330
2
100
AcDbSymbolTableRecord
100
AcDbLayerTableRecord
  2
AM_8
 70
     0
 62
     1
  6
ハッチング
370
    13
390
F
1001
AcAecLayerStandard
1000

1000

  0
LAYER
  5
AD6E
330
2
100
AcDbSymbolTableRecord
100
AcDbLayerTableRecord
  2
AM_10
 70
     0
 62
     7
  6
切断線
370
    13
390
F
1001
AcAecLayerStandard
1000

1000

  0
LAYER
  5
AD6F
330
2
100
AcDbSymbolTableRecord
100
AcDbLayerTableRecord
  2
AM_11
 70
     0
 62
     2
  6
想像線1
370
    13
390
F
1001
AcAecLayerStandard
1000

1000

  0
LAYER
  5
B1B6
330
2
100
AcDbSymbolTableRecord
100
AcDbLayerTableRecord
  2
AM_CL
 70
     0
 62
     1
  6
Amconstr
370
    15
390
F
1001
AcAecLayerStandard
1000

1000

  0
LAYER
  5
B2EB
330
2
100
AcDbSymbolTableRecord
100
AcDbLayerTableRecord
  2
AM_14
 70
     0
 62
     5
  6
細線
370
     9
390
F
1001
AcAecLayerStandard
1000

1000

  0
LAYER
  5
B2EC
330
2
100
AcDbSymbolTableRecord
100
AcDbLayerTableRecord
  2
AM_15
 70
     0
 62
     6
  6
陰線1
370
     9
390
F
1001
AcAecLayerStandard
1000

1000

  0
LAYER
  5
B657
330
2
100
AcDbSymbolTableRecord
100
AcDbLayerTableRecord
  2
カバー取付ブラケット
 70
     0
 62
     1
  6
中線
370
    30
390
F
1001
AcAecLayerStandard
1000

1000

  0
LAYER
  5
C364
330
2
100
AcDbSymbolTableRecord
100
AcDbLayerTableRecord
  2
調整板
 70
     0
 62
   191
  6
中線
370
    30
390
F
1001
AcAecLayerStandard
1000

1000

  0
LAYER
  5
C365
330
2
100
AcDbSymbolTableRecord
100
AcDbLayerTableRecord
  2
本体（枠）
 70
     0
 62
    11
  6
中線
370
    30
390
F
1001
AcAecLayerStandard
1000

1000

  0
LAYER
  5
C366
330
2
100
AcDbSymbolTableRecord
100
AcDbLayerTableRecord
  2
本体（扉）
 70
     0
 62
   151
  6
中線
370
    30
390
F
1001
AcAecLayerStandard
1000

1000

  0
LAYER
  5
C367
330
2
100
AcDbSymbolTableRecord
100
AcDbLayerTableRecord
  2
カバー
 70
     0
 62
    41
  6
中線
370
    30
390
F
1001
AcAecLayerStandard
1000

1000

  0
LAYER
  5
C368
330
2
100
AcDbSymbolTableRecord
100
AcDbLayerTableRecord
  2
軸
 70
     0
 62
    91
  6
中線
370
    30
390
F
1001
AcAecLayerStandard
1000

1000

  0
LAYER
  5
C369
330
2
100
AcDbSymbolTableRecord
100
AcDbLayerTableRecord
  2
樹脂ワッシャA
 70
     0
 62
    40
  6
中線
370
    30
390
F
1001
AcAecLayerStandard
1000

1000

  0
LAYER
  5
C36A
330
2
100
AcDbSymbolTableRecord
100
AcDbLayerTableRecord
  2
樹脂ワッシャB
 70
     0
 62
   200
  6
中線
370
    30
390
F
1001
AcAecLayerStandard
1000

1000

  0
LAYER
  5
DC15
330
2
100
AcDbSymbolTableRecord
100
AcDbLayerTableRecord
  2
CSLAYER2
 70
     0
 62
     3
  6
Continuous
370
    -3
390
F
  0
LAYER
  5
DC16
330
2
100
AcDbSymbolTableRecord
100
AcDbLayerTableRecord
  2
CSLAYER4
 70
     0
 62
     3
  6
Continuous
370
    -3
390
F
  0
LAYER
  5
E707
330
2
100
AcDbSymbolTableRecord
100
AcDbLayerTableRecord
  2
CSLAYER3
 70
     0
 62
     3
  6
Continuous
370
    -3
390
F
  0
LAYER
  5
161BF
330
2
100
AcDbSymbolTableRecord
100
AcDbLayerTableRecord
  2
CSLAYER8
 70
     0
 62
     3
  6
Continuous
370
    -3
390
F
  0
LAYER
  5
19481
330
2
100
AcDbSymbolTableRecord
100
AcDbLayerTableRecord
  2
CSLAYER7
 70
     0
 62
     3
  6
Continuous
370
    -3
390
F
  0
LAYER
  5
19482
330
2
100
AcDbSymbolTableRecord
100
AcDbLayerTableRecord
  2
CSLAYER11
 70
     0
 62
     3
  6
Continuous
370
    -3
390
F
  0
LAYER
  5
19483
330
2
100
AcDbSymbolTableRecord
100
AcDbLayerTableRecord
  2
CSLAYER12
 70
     0
 62
     3
  6
Continuous
370
    -3
390
F
  0
LAYER
  5
1F5A4
330
2
100
AcDbSymbolTableRecord
100
AcDbLayerTableRecord
  2
CSLAYER5
 70
     0
 62
     3
  6
Continuous
370
    -3
390
F
  0
LAYER
  5
5AFB5
330
2
100
AcDbSymbolTableRecord
100
AcDbLayerTableRecord
  2
取手
 70
     0
 62
   120
  6
中線
370
    30
390
F
1001
AcAecLayerStandard
1000

1000

  0
LAYER
  5
5AFB6
330
2
100
AcDbSymbolTableRecord
100
AcDbLayerTableRecord
  2
台座
 70
     0
 62
   211
  6
中線
370
    30
390
F
1001
AcAecLayerStandard
1000

1000

  0
LAYER
  5
5AFB7
330
2
100
AcDbSymbolTableRecord
100
AcDbLayerTableRecord
  2
スプリングピン
 70
     0
 62
   230
  6
中線
370
    30
390
F
1001
AcAecLayerStandard
1000

1000

  0
LAYER
  5
9211F
330
2
100
AcDbSymbolTableRecord
100
AcDbLayerTableRecord
  2
0文字
 70
     0
 62
     2
  6
Continuous
370
    13
390
F
1001
AcAecLayerStandard
1000

1000

  0
LAYER
  5
92120
330
2
100
AcDbSymbolTableRecord
100
AcDbLayerTableRecord
  2
1
 70
     0
 62
     7
  6
Continuous
370
    30
390
F
  0
ENDTAB
  0
TABLE
  2
STYLE
  5
3
330
0
100
AcDbSymbolTable
 70
     9
  0
STYLE
  5
11
330
3
100
AcDbSymbolTableRecord
100
AcDbTextStyleTableRecord
  2
STANDARD
 70
     0
 40
0.0
 41
0.7
 50
0.0
 71
     0
 42
3.2
  3
romans.shx
  4
extfont.shx
  0
STYLE
  5
56
330
3
100
AcDbSymbolTableRecord
100
AcDbTextStyleTableRecord
  2

 70
     1
 40
0.0
 41
1.0
 50
0.0
 71
     0
 42
2.5
  3
ltypeshp.shx
  4

  0
STYLE
  5
58
330
3
100
AcDbSymbolTableRecord
100
AcDbTextStyleTableRecord
  2
ACISOTS
 70
     0
 40
1.0
 41
1.0
 50
0.0
 71
     0
 42
2.5
  3
isocp.shx
  4
extfont.shx
  0
STYLE
  5
63
330
3
100
AcDbSymbolTableRecord
100
AcDbTextStyleTableRecord
  2
ACISOGDT
 70
     0
 40
0.0
 41
1.0
 50
0.0
 71
     0
 42
2.5
  3
amgdt.shx
  4

  0
STYLE
  5
A74
330
3
100
AcDbSymbolTableRecord
100
AcDbTextStyleTableRecord
  2
DIM
 70
     0
 40
0.0
 41
1.0
 50
0.0
 71
     0
 42
2.5
  3
monotxt.shx
  4
extfont.shx
  0
STYLE
  5
AC80
330
3
100
AcDbSymbolTableRecord
100
AcDbTextStyleTableRecord
  2

 70
     1
 40
0.0
 41
1.0
 50
0.0
 71
     0
 42
3.2
  3
genltshp.shx
  4

  0
STYLE
  5
D8FB
330
3
100
AcDbSymbolTableRecord
100
AcDbTextStyleTableRecord
  2
ED_VECTOR
 70
     0
 40
0.0
 41
1.0
 50
0.0
 71
     0
 42
0.0
  3
MONOTXT.SHX
  4
BIGFONT.SHX
  0
STYLE
  5
D8FC
330
3
100
AcDbSymbolTableRecord
100
AcDbTextStyleTableRecord
  2
ACANSTS
 70
     0
 40
1.0
 41
1.0
 50
0.0
 71
     0
 42
2.5
  3
romans.shx
  4
extfont.shx
  0
STYLE
  5
D8FD
330
3
100
AcDbSymbolTableRecord
100
AcDbTextStyleTableRecord
  2
ACANSGDT
 70
     0
 40
0.0
 41
1.0
 50
0.0
 71
     0
 42
2.5
  3
amgdt.shx
  4

  0
ENDTAB
  0
TABLE
  2
VIEW
  5
6
330
0
100
AcDbSymbolTable
 70
     6
  0
VIEW
  5
AE1
330
6
100
AcDbSymbolTableRecord
100
AcDbViewTableRecord
  2
AM_VIEW1
 70
     0
 40
297.0
 10
-970.0097649269439
 20
-11756.86094600418
 41
473.7940828402367
 11
0.0
 21
0.0
 31
1.0
 12
0.0
 22
0.0
 32
0.0
 42
50.0
 43
-1370.695619172058
 44
-1370.695619172058
 50
0.0
 71
     0
281
     0
 72
     0
  0
VIEW
  5
AE2
330
6
100
AcDbSymbolTableRecord
100
AcDbViewTableRecord
  2
AM_VIEW2
 70
     0
 40
297.0
 10
-603.8038477671805
 20
-11756.86094600418
 41
473.7940828402367
 11
0.0
 21
0.0
 31
1.0
 12
0.0
 22
0.0
 32
0.0
 42
50.0
 43
-1370.695619172058
 44
-1370.695619172058
 50
0.0
 71
     0
281
     0
 72
     0
  0
VIEW
  5
AE3
330
6
100
AcDbSymbolTableRecord
100
AcDbViewTableRecord
  2
AM_VIEW3
 70
     0
 40
297.0
 10
-970.0097649269439
 20
-12053.86094600418
 41
473.7940828402367
 11
0.0
 21
0.0
 31
1.0
 12
0.0
 22
0.0
 32
0.0
 42
50.0
 43
-1370.695619172058
 44
-1370.695619172058
 50
0.0
 71
     0
281
     0
 72
     0
  0
VIEW
  5
AE4
330
6
100
AcDbSymbolTableRecord
100
AcDbViewTableRecord
  2
AM_VIEW4
 70
     0
 40
297.0
 10
-603.8038477671805
 20
-12053.86094600418
 41
473.7940828402367
 11
0.0
 21
0.0
 31
1.0
 12
0.0
 22
0.0
 32
0.0
 42
50.0
 43
-1370.695619172058
 44
-1370.695619172058
 50
0.0
 71
     0
281
     0
 72
     0
  0
VIEW
  5
AE5
330
6
100
AcDbSymbolTableRecord
100
AcDbViewTableRecord
  2
AM_VIEW5
 70
     0
 40
297.0
 10
-786.9068063470622
 20
-11905.36094600418
 41
473.7940828402365
 11
0.0
 21
0.0
 31
1.0
 12
0.0
 22
0.0
 32
0.0
 42
50.0
 43
-1370.695619172058
 44
-1370.695619172058
 50
0.0
 71
     0
281
     0
 72
     0
  0
VIEW
  5
AE6
330
6
100
AcDbSymbolTableRecord
100
AcDbViewTableRecord
  2
AM_VIEW6
 70
     0
 40
593.9940600000008
 10
-786.9068063470622
 20
-11905.36094600418
 41
947.5786897988164
 11
0.0
 21
0.0
 31
1.0
 12
0.0
 22
0.0
 32
0.0
 42
50.0
 43
-1370.695619172058
 44
-1370.695619172058
 50
0.0
 71
     0
281
     0
 72
     0
  0
ENDTAB
  0
TABLE
  2
UCS
  5
7
330
0
100
AcDbSymbolTable
 70
     0
  0
ENDTAB
  0
TABLE
  2
APPID
  5
9
330
0
100
AcDbSymbolTable
 70
    56
  0
APPID
  5
12
330
9
100
AcDbSymbolTableRecord
100
AcDbRegAppTableRecord
  2
ACAD
 70
     0
  0
APPID
  5
30
330
9
100
AcDbSymbolTableRecord
100
AcDbRegAppTableRecord
  2
MCAD_NO_VIS
 70
     0
  0
APPID
  5
31
330
9
100
AcDbSymbolTableRecord
100
AcDbRegAppTableRecord
  2
ACAD_TEMP_GRAPHIC
 70
     0
  0
APPID
  5
44
330
9
100
AcDbSymbolTableRecord
100
AcDbRegAppTableRecord
  2
ACATTRIBSERVICES
 70
     0
  0
APPID
  5
7A1
330
9
100
AcDbSymbolTableRecord
100
AcDbRegAppTableRecord
  2
GENIUS_GENDIMSH_14
 70
     0
  0
APPID
  5
A49
330
9
100
AcDbSymbolTableRecord
100
AcDbRegAppTableRecord
  2
GENIUS_GENREC_14
 70
     0
  0
APPID
  5
A4A
330
9
100
AcDbSymbolTableRecord
100
AcDbRegAppTableRecord
  2
GENIUS_GENOBJ-N-REC_13
 70
     0
  0
APPID
  5
A4B
330
9
100
AcDbSymbolTableRecord
100
AcDbRegAppTableRecord
  2
GENIUS_GENODEF_13
 70
     0
  0
APPID
  5
A4C
330
9
100
AcDbSymbolTableRecord
100
AcDbRegAppTableRecord
  2
DCO15
 70
     0
  0
APPID
  5
ADC
330
9
100
AcDbSymbolTableRecord
100
AcDbRegAppTableRecord
  2
GENIUS_GENOLIS_13
 70
     0
  0
APPID
  5
ADD
330
9
100
AcDbSymbolTableRecord
100
AcDbRegAppTableRecord
  2
GENIUS_GENOENT_13
 70
     0
  0
APPID
  5
ADE
330
9
100
AcDbSymbolTableRecord
100
AcDbRegAppTableRecord
  2
GENIUS_GENOBJ-N-TIT_13
 70
     0
  0
APPID
  5
ADF
330
9
100
AcDbSymbolTableRecord
100
AcDbRegAppTableRecord
  2
GENIUS_GENTITLE_13
 70
     0
  0
APPID
  5
AE0
330
9
100
AcDbSymbolTableRecord
100
AcDbRegAppTableRecord
  2
GENIUS_GENOREF_13
 70
     0
  0
APPID
  5
AE7
330
9
100
AcDbSymbolTableRecord
100
AcDbRegAppTableRecord
  2
GENIUS_GENSCREG_15
 70
     0
  0
APPID
  5
AE8
330
9
100
AcDbSymbolTableRecord
100
AcDbRegAppTableRecord
  2
GENIUS_GENOBJ-N-SDF_13
 70
     0
  0
APPID
  5
FAF
330
9
100
AcDbSymbolTableRecord
100
AcDbRegAppTableRecord
  2
GENIUS_GENBLLY_14
 70
     0
  0
APPID
  5
FB0
330
9
100
AcDbSymbolTableRecord
100
AcDbRegAppTableRecord
  2
GENIUS_GENTRA_14
 70
     0
  0
APPID
  5
1285
330
9
100
AcDbSymbolTableRecord
100
AcDbRegAppTableRecord
  2
GENIUS_GENDTOL_13
 70
     0
  0
APPID
  5
142D
330
9
100
AcDbSymbolTableRecord
100
AcDbRegAppTableRecord
  2
GENIUS_GENOBJ-N-CEN_13
 70
     0
  0
APPID
  5
1AB5
330
9
100
AcDbSymbolTableRecord
100
AcDbRegAppTableRecord
  2
GENIUS_GENOBJ-N-CRS_13
 70
     0
  0
APPID
  5
1B36
330
9
100
AcDbSymbolTableRecord
100
AcDbRegAppTableRecord
  2
GENIUS_GENOBJ-N-HTC_13
 70
     0
  0
APPID
  5
1B37
330
9
100
AcDbSymbolTableRecord
100
AcDbRegAppTableRecord
  2
GENIUS_GENHATCH_13
 70
     0
  0
APPID
  5
216D
330
9
100
AcDbSymbolTableRecord
100
AcDbRegAppTableRecord
  2
GENIUS_GENOBJ-N-FIL_13
 70
     0
  0
APPID
  5
2356
330
9
100
AcDbSymbolTableRecord
100
AcDbRegAppTableRecord
  2
GEVID990412420
 70
     0
  0
APPID
  5
2357
330
9
100
AcDbSymbolTableRecord
100
AcDbRegAppTableRecord
  2
GEVDC
 70
     0
  0
APPID
  5
2358
330
9
100
AcDbSymbolTableRecord
100
AcDbRegAppTableRecord
  2
GEVCON
 70
     0
  0
APPID
  5
235B
330
9
100
AcDbSymbolTableRecord
100
AcDbRegAppTableRecord
  2
GEVRADREF
 70
     0
  0
APPID
  5
2360
330
9
100
AcDbSymbolTableRecord
100
AcDbRegAppTableRecord
  2
GENIUS_GENBH_13
 70
     0
  0
APPID
  5
2362
330
9
100
AcDbSymbolTableRecord
100
AcDbRegAppTableRecord
  2
GENIUS_GENOBJ-NBEHI-BHF_13
 70
     0
  0
APPID
  5
2364
330
9
100
AcDbSymbolTableRecord
100
AcDbRegAppTableRecord
  2
GENIUS_GENOBJ-NBEHI-BHB_13
 70
     0
  0
APPID
  5
2379
330
9
100
AcDbSymbolTableRecord
100
AcDbRegAppTableRecord
  2
GENIUS_GENOBJ-F-SCPASSM_13
 70
     0
  0
APPID
  5
3D74
330
9
100
AcDbSymbolTableRecord
100
AcDbRegAppTableRecord
  2
GENIUS_GENDIM_13
 70
     0
  0
APPID
  5
3D76
330
9
100
AcDbSymbolTableRecord
100
AcDbRegAppTableRecord
  2
GENIUS_GE3DTOL_13
 70
     0
  0
APPID
  5
3D9C
330
9
100
AcDbSymbolTableRecord
100
AcDbRegAppTableRecord
  2
AD_DRAW
 70
     0
  0
APPID
  5
3DE8
330
9
100
AcDbSymbolTableRecord
100
AcDbRegAppTableRecord
  2
ASURF_PCURVE_APPNAME
 70
     0
  0
APPID
  5
3DED
330
9
100
AcDbSymbolTableRecord
100
AcDbRegAppTableRecord
  2
AMG_3D2D_5.0
 70
     0
  0
APPID
  5
3E1B
330
9
100
AcDbSymbolTableRecord
100
AcDbRegAppTableRecord
  2
DESIGNERASSEMBLIES
 70
     0
  0
APPID
  5
3E20
330
9
100
AcDbSymbolTableRecord
100
AcDbRegAppTableRecord
  2
ACADM_DIM_EDIT
 70
     0
  0
APPID
  5
3E21
330
9
100
AcDbSymbolTableRecord
100
AcDbRegAppTableRecord
  2
AMDT_DM_ADJ
 70
     0
  0
APPID
  5
4143
330
9
100
AcDbSymbolTableRecord
100
AcDbRegAppTableRecord
  2
GENIUS_GENFIL_13
 70
     0
  0
APPID
  5
4144
330
9
100
AcDbSymbolTableRecord
100
AcDbRegAppTableRecord
  2
GENIUS_GENOBJ-N-CHA_13
 70
     0
  0
APPID
  5
4E17
330
9
100
AcDbSymbolTableRecord
100
AcDbRegAppTableRecord
  2
GEVID1008153417
 70
     0
  0
APPID
  5
4E58
330
9
100
AcDbSymbolTableRecord
100
AcDbRegAppTableRecord
  2
GEVID1008153418
 70
     0
  0
APPID
  5
4E5E
330
9
100
AcDbSymbolTableRecord
100
AcDbRegAppTableRecord
  2
GEVID1008153419
 70
     0
  0
APPID
  5
4E64
330
9
100
AcDbSymbolTableRecord
100
AcDbRegAppTableRecord
  2
GEVID1008153420
 70
     0
  0
APPID
  5
4E75
330
9
100
AcDbSymbolTableRecord
100
AcDbRegAppTableRecord
  2
GEVID1008153421
 70
     0
  0
APPID
  5
4EB7
330
9
100
AcDbSymbolTableRecord
100
AcDbRegAppTableRecord
  2
GENIUS_AMGTXT_16
 70
     0
  0
APPID
  5
7645
330
9
100
AcDbSymbolTableRecord
100
AcDbRegAppTableRecord
  2
GENIUS_GENOBJ-N-DIM_13
 70
     0
  0
APPID
  5
AAD0
330
9
100
AcDbSymbolTableRecord
100
AcDbRegAppTableRecord
  2
ACAD_DSTYLE_DIMARC_LENGTH_SYMBOL
 70
     0
  0
APPID
  5
AAD1
330
9
100
AcDbSymbolTableRecord
100
AcDbRegAppTableRecord
  2
ACAD_DSTYLE_DIMJOGGED_JOGANGLE_SYMBOL
 70
     0
  0
APPID
  5
AAFD
330
9
100
AcDbSymbolTableRecord
100
AcDbRegAppTableRecord
  2
ACAD_PSEXT
 70
     0
  0
APPID
  5
AD61
330
9
100
AcDbSymbolTableRecord
100
AcDbRegAppTableRecord
  2
AcAecLayerStandard
 70
     0
  0
APPID
  5
AEE3
330
9
100
AcDbSymbolTableRecord
100
AcDbRegAppTableRecord
  2
ACAD_EXEMPT_FROM_CAD_STANDARDS
 70
     0
  0
APPID
  5
B1BE
330
9
100
AcDbSymbolTableRecord
100
AcDbRegAppTableRecord
  2
GENIUS_GENCEN_19
 70
     0
  0
APPID
  5
B4DF
330
9
100
AcDbSymbolTableRecord
100
AcDbRegAppTableRecord
  2
ACAD_MLEADERVER
 70
     0
  0
ENDTAB
  0
TABLE
  2
DIMSTYLE
  5
A
330
0
100
AcDbSymbolTable
 70
    26
100
AcDbDimStyleTable
 71
     1
340
2515
  0
DIMSTYLE
105
A76
330
A
100
AcDbSymbolTableRecord
100
AcDbDimStyleTableRecord
  2
STANDARD
 70
     0
 41
3.0
 42
1.0
 43
7.0
 44
2.0
 73
     0
 74
     0
 77
     1
140
2.799999999999999
141
0.0
143
0.0394
147
0.7
171
     4
172
     1
173
     1
176
     3
177
     3
178
     2
271
     3
272
     3
273
     8
274
     4
289
     0
340
A74
341
A66
343
A66
344
A66
  0
DIMSTYLE
105
2515
330
A
100
AcDbSymbolTableRecord
100
AcDbDimStyleTableRecord
  2
SYS
 70
     0
  4
"
 41
1.0
 42
1.0
 43
10.0
 44
1.0
 47
0.1
 48
0.1
 73
     0
 74
     0
 77
     1
 78
     8
 79
     2
140
3.5
141
0.0
143
0.0393701
146
0.71
147
1.5
172
     1
176
   256
177
   256
178
     7
271
     2
272
     2
283
     0
284
     8
340
11
371
    -1
372
    -1
1001
ACAD_DSTYLE_DIMJOGGED_JOGANGLE_SYMBOL
1070
   384
1040
0.7853981633974483
1001
ACAD_DSTYLE_DIMARC_LENGTH_SYMBOL
1070
   379
1070
     1
  0
DIMSTYLE
105
2516
330
A
100
AcDbSymbolTableRecord
100
AcDbDimStyleTableRecord
  2
SYS$3
 70
     0
  4
"
 41
2.0
 42
1.0
 43
10.0
 44
1.0
 47
0.1
 48
0.1
 73
     0
 77
     1
 78
     8
 79
     2
140
3.5
141
0.0
143
0.0393701
146
0.71
147
1.5
176
   256
177
   256
178
     2
271
     2
272
     2
283
     0
284
     8
288
     1
340
11
342
A66
371
    -1
372
    -1
1001
ACAD_DSTYLE_DIMJOGGED_JOGANGLE_SYMBOL
1070
   384
1040
0.7853981633974483
1001
ACAD_DSTYLE_DIMARC_LENGTH_SYMBOL
1070
   379
1070
     1
  0
DIMSTYLE
105
2517
330
A
100
AcDbSymbolTableRecord
100
AcDbDimStyleTableRecord
  2
SYS$4
 70
     0
  4
"
 41
2.0
 42
1.0
 43
10.0
 44
1.0
 47
0.1
 48
0.1
 73
     0
 77
     1
 78
     8
 79
     2
140
3.5
141
0.0
143
0.0393701
146
0.71
147
1.5
173
     1
176
   256
177
   256
178
     2
271
     2
272
     2
283
     0
284
     8
288
     1
340
11
344
A66
371
    -1
372
    -1
1001
ACAD_DSTYLE_DIMJOGGED_JOGANGLE_SYMBOL
1070
   384
1040
0.7853981633974483
1001
ACAD_DSTYLE_DIMARC_LENGTH_SYMBOL
1070
   379
1070
     1
  0
DIMSTYLE
105
2518
330
A
100
AcDbSymbolTableRecord
100
AcDbDimStyleTableRecord
  2
SYS$6
 70
     0
  4
"
 41
2.0
 42
1.0
 43
10.0
 44
1.0
 47
0.1
 48
0.1
 73
     0
 74
     0
 78
     8
 79
     2
140
3.5
141
0.0
143
0.0393701
146
0.71
147
1.5
172
     1
176
   256
177
   256
178
     2
271
     2
272
     2
283
     0
284
     8
340
11
341
A66
371
    -1
372
    -1
1001
ACAD_DSTYLE_DIMJOGGED_JOGANGLE_SYMBOL
1070
   384
1040
0.7853981633974483
1001
ACAD_DSTYLE_DIMARC_LENGTH_SYMBOL
1070
   379
1070
     1
  0
DIMSTYLE
105
2519
330
A
100
AcDbSymbolTableRecord
100
AcDbDimStyleTableRecord
  2
SYS$7
 70
     0
  4
"
 41
2.0
 42
1.0
 43
10.0
 44
1.0
 47
0.1
 48
0.1
 73
     0
 74
     0
 77
     1
 78
     8
 79
     2
140
5.0
141
0.0
143
0.0393701
146
0.71
147
1.5
172
     1
176
   256
177
   256
178
     2
271
     2
272
     2
283
     0
284
     8
340
11
341
A66
342
A66
371
    -1
372
    -1
1001
ACAD_DSTYLE_DIMJOGGED_JOGANGLE_SYMBOL
1070
   384
1040
0.7853981633974483
1001
ACAD_DSTYLE_DIMARC_LENGTH_SYMBOL
1070
   379
1070
     1
  0
DIMSTYLE
105
251A
330
A
100
AcDbSymbolTableRecord
100
AcDbDimStyleTableRecord
  2
SYS$SF
 70
     0
  4
"
 41
2.5
 42
1.0
 43
10.0
 44
1.0
 47
0.1
 48
0.1
 73
     0
 74
     0
 75
     1
 76
     1
 77
     1
 78
     8
 79
     2
140
3.5
141
0.0
143
0.0393701
146
0.71
147
1.5
172
     1
176
   256
177
   256
178
     2
271
     2
272
     3
283
     0
284
     8
340
11
341
6C4
342
6C4
371
    -1
372
    -1
1001
ACAD_DSTYLE_DIMJOGGED_JOGANGLE_SYMBOL
1070
   384
1040
0.7853981633974483
1001
ACAD_DSTYLE_DIMARC_LENGTH_SYMBOL
1070
   379
1070
     1
  0
DIMSTYLE
105
251B
330
A
100
AcDbSymbolTableRecord
100
AcDbDimStyleTableRecord
  2
SYS$SH
 70
     0
  4
"
 41
2.5
 42
1.0
 43
10.0
 44
1.0
 47
0.1
 48
0.1
 73
     0
 74
     0
 75
     1
 76
     1
 77
     1
 78
     8
 79
     2
140
3.5
141
0.0
143
0.0393701
144
2.0
146
0.71
147
1.5
172
     1
173
     1
176
   256
177
   256
178
     2
271
     2
272
     3
283
     0
284
     8
340
11
341
6C4
343
72
344
6C4
371
    -1
372
    -1
1001
ACAD_DSTYLE_DIMJOGGED_JOGANGLE_SYMBOL
1070
   384
1040
0.7853981633974483
1001
ACAD_DSTYLE_DIMARC_LENGTH_SYMBOL
1070
   379
1070
     1
  0
DIMSTYLE
105
2A59
330
A
100
AcDbSymbolTableRecord
100
AcDbDimStyleTableRecord
  2
SYS$2
 70
     0
  4
"
 41
1.0
 42
1.0
 43
10.0
 44
1.0
 47
0.1
 48
0.1
 73
     0
 74
     0
 77
     1
 78
     8
 79
     2
140
3.5
141
0.0
143
0.0393701
146
0.71
147
1.5
172
     1
176
   256
177
   256
178
     2
271
     2
272
     2
283
     0
284
     8
340
11
342
6C4
371
    -1
372
    -1
1001
ACAD_DSTYLE_DIMJOGGED_JOGANGLE_SYMBOL
1070
   384
1040
0.7853981633974483
1001
ACAD_DSTYLE_DIMARC_LENGTH_SYMBOL
1070
   379
1070
     1
  0
DIMSTYLE
105
2AAB
102
{ACAD_REACTORS
330
5B6A4
330
5B6A7
330
5B6D9
330
5B6EA
330
5B6ED
330
5B6F0
330
5B6F3
330
5B6F4
330
5B6F7
330
5B6FC
330
5B74B
330
5B74C
330
5B932
330
5B935
330
5B938
330
5B93B
330
5B9D5
102
}
330
A
100
AcDbSymbolTableRecord
100
AcDbDimStyleTableRecord
  2
SYS$0
 70
     0
  4
"
 41
1.0
 42
1.0
 43
10.0
 44
1.0
 47
0.1
 48
0.1
 73
     0
 74
     0
 77
     1
 78
     8
 79
     2
140
3.200000000000001
141
0.0
143
0.0393701
146
0.71
147
1.5
172
     1
176
   256
177
   256
178
     2
271
     2
272
     2
283
     0
284
     8
340
11
341
A66
342
6C4
371
    -1
372
    -1
1001
ACAD_DSTYLE_DIMJOGGED_JOGANGLE_SYMBOL
1070
   384
1040
0.7853981633974483
1001
ACAD_DSTYLE_DIMARC_LENGTH_SYMBOL
1070
   379
1070
     1
  0
DIMSTYLE
105
AF99
330
A
100
AcDbSymbolTableRecord
100
AcDbDimStyleTableRecord
  2
AM_ISO
 70
     0
  4
"
 41
2.5
 42
1.0
 43
10.0
 44
1.0
 47
0.1
 48
0.1
 73
     0
 74
     0
 77
     1
 78
     8
 79
     2
140
3.5
141
0.0
143
0.0393701
146
0.71
147
1.5
172
     1
176
   256
177
   256
178
     2
271
     2
272
     3
274
     4
283
     0
284
     8
340
11
371
    -1
372
    -1
  0
DIMSTYLE
105
AF9A
330
A
100
AcDbSymbolTableRecord
100
AcDbDimStyleTableRecord
  2
AM_ISO$3
 70
     0
  4
"
 41
2.5
 42
1.0
 43
10.0
 44
1.0
 47
0.1
 48
0.1
 73
     0
 77
     1
 78
     8
 79
     2
140
3.5
141
0.0
143
0.0393701
146
0.71
147
1.5
176
   256
177
   256
178
     2
271
     2
272
     3
274
     4
283
     0
284
     8
288
     1
289
     0
340
11
371
    -1
372
    -1
  0
DIMSTYLE
105
AF9B
330
A
100
AcDbSymbolTableRecord
100
AcDbDimStyleTableRecord
  2
AM_ISO$4
 70
     0
  4
"
 41
2.5
 42
1.0
 43
10.0
 44
1.0
 47
0.1
 48
0.1
 73
     0
 77
     1
 78
     8
 79
     2
140
3.5
141
0.0
143
0.0393701
146
0.71
147
1.5
176
   256
177
   256
178
     2
271
     2
272
     3
274
     4
283
     0
284
     8
288
     1
289
     0
340
11
371
    -1
372
    -1
  0
DIMSTYLE
105
AF9C
330
A
100
AcDbSymbolTableRecord
100
AcDbDimStyleTableRecord
  2
AM_ISO$6
 70
     0
  4
"
 41
2.5
 42
1.0
 43
10.0
 44
1.0
 47
0.1
 48
0.1
 73
     0
 74
     0
 78
     8
 79
     2
140
3.5
141
0.0
143
0.0393701
146
0.71
147
1.5
172
     1
176
   256
177
   256
178
     2
271
     2
272
     3
274
     4
283
     0
284
     8
340
11
371
    -1
372
    -1
  0
DIMSTYLE
105
AF9D
330
A
100
AcDbSymbolTableRecord
100
AcDbDimStyleTableRecord
  2
AM_ISO$7
 70
     0
  4
"
 41
2.5
 42
1.0
 43
10.0
 44
1.0
 47
0.1
 48
0.1
 73
     0
 74
     0
 77
     1
 78
     8
 79
     2
140
5.0
141
0.0
143
0.0393701
146
0.71
147
1.5
172
     1
176
   256
177
   256
178
     2
271
     2
272
     3
274
     4
283
     0
284
     8
340
11
371
    -1
372
    -1
  0
DIMSTYLE
105
AF9E
330
A
100
AcDbSymbolTableRecord
100
AcDbDimStyleTableRecord
  2
AM_ISO$SF
 70
     0
  4
"
 41
2.5
 42
1.0
 43
10.0
 44
1.0
 47
0.1
 48
0.1
 73
     0
 74
     0
 75
     1
 76
     1
 77
     1
 78
     8
 79
     2
140
3.5
141
0.0
143
0.0393701
146
0.71
147
1.5
172
     1
176
   256
177
   256
178
     2
271
     2
272
     3
274
     4
283
     0
284
     8
340
11
371
    -1
372
    -1
  0
DIMSTYLE
105
AF9F
330
A
100
AcDbSymbolTableRecord
100
AcDbDimStyleTableRecord
  2
AM_ISO$SH
 70
     0
  4
"
 41
2.5
 42
1.0
 43
10.0
 44
1.0
 47
0.1
 48
0.1
 73
     0
 74
     0
 75
     1
 76
     1
 77
     1
 78
     8
 79
     2
140
3.5
141
0.0
143
0.0393701
144
2.0
146
0.71
147
1.5
172
     1
173
     1
176
   256
177
   256
178
     2
271
     2
272
     3
274
     4
283
     0
284
     8
340
11
343
72
371
    -1
372
    -1
  0
DIMSTYLE
105
B658
330
A
100
AcDbSymbolTableRecord
100
AcDbDimStyleTableRecord
  2
AM_ANSI
 70
     0
  4
mm
 41
0.1
 42
0.05
 43
0.5
 44
0.1
 47
0.1
 48
0.1
 78
     7
 79
     2
140
0.12
141
0.0
146
0.71
147
0.06
176
   256
177
   256
178
     2
274
     4
284
     7
340
11
371
    -1
372
    -1
  0
DIMSTYLE
105
D8FE
330
A
100
AcDbSymbolTableRecord
100
AcDbDimStyleTableRecord
  2
EDDIMINFO
 70
     0
 41
5.0
 42
2.0
 43
0.0
 44
2.0
 46
10.0
 73
     0
 74
     0
 77
     1
 78
     8
140
4.0
141
2.5
143
0.03937
147
1.0
171
     3
172
     1
173
     1
176
     6
177
     6
178
     6
271
     2
272
     2
274
     3
283
     0
340
D8FB
341
D855
343
D855
344
D85B
  0
DIMSTYLE
105
D8FF
330
A
100
AcDbSymbolTableRecord
100
AcDbDimStyleTableRecord
  2
AM_ANSI$3
 70
     0
  4
mm
 41
0.1
 42
0.05
 43
0.5
 44
0.1
 47
0.1
 48
0.1
 78
     7
 79
     2
140
0.12
141
0.0
146
0.71
147
0.06
176
   256
177
   256
178
     2
274
     4
284
     7
288
     1
289
     0
340
11
371
    -1
372
    -1
1001
ACAD_DSTYLE_DIMARC_LENGTH_SYMBOL
1070
   379
1070
     1
  0
DIMSTYLE
105
D900
330
A
100
AcDbSymbolTableRecord
100
AcDbDimStyleTableRecord
  2
AM_ANSI$4
 70
     0
  4
mm
 41
0.1
 42
0.05
 43
0.5
 44
0.1
 47
0.1
 48
0.1
 78
     7
 79
     2
140
0.12
141
0.0
146
0.71
147
0.06
176
   256
177
   256
178
     2
274
     4
284
     7
288
     1
289
     0
340
11
371
    -1
372
    -1
1001
ACAD_DSTYLE_DIMARC_LENGTH_SYMBOL
1070
   379
1070
     1
  0
DIMSTYLE
105
D901
330
A
100
AcDbSymbolTableRecord
100
AcDbDimStyleTableRecord
  2
AM_ANSI$7
 70
     0
  4
mm
 41
0.1
 42
0.05
 43
0.5
 44
0.1
 47
0.1
 48
0.1
 78
     7
 79
     2
140
0.24
141
0.0
146
0.71
147
0.06
176
   256
177
   256
178
     2
274
     4
284
     7
340
11
371
    -1
372
    -1
1001
ACAD_DSTYLE_DIMARC_LENGTH_SYMBOL
1070
   379
1070
     1
  0
DIMSTYLE
105
D902
330
A
100
AcDbSymbolTableRecord
100
AcDbDimStyleTableRecord
  2
AM_ANSI$SF
 70
     0
  4
mm
 41
0.1
 42
0.05
 43
0.5
 44
0.1
 47
0.1
 48
0.1
 75
     1
 76
     1
 78
     7
 79
     2
140
0.12
141
0.0
146
0.71
147
0.06
176
   256
177
   256
178
     2
274
     4
284
     7
340
11
371
    -1
372
    -1
1001
ACAD_DSTYLE_DIMARC_LENGTH_SYMBOL
1070
   379
1070
     1
  0
DIMSTYLE
105
D903
330
A
100
AcDbSymbolTableRecord
100
AcDbDimStyleTableRecord
  2
AM_ANSI$SH
 70
     0
  4
mm
 41
0.1
 42
0.05
 43
0.5
 44
0.1
 47
0.1
 48
0.1
 75
     1
 76
     1
 78
     7
 79
     2
140
0.12
141
0.0
146
0.71
147
0.06
173
     1
176
   256
177
   256
178
     2
274
     4
284
     7
340
11
343
72
371
    -1
372
    -1
1001
ACAD_DSTYLE_DIMARC_LENGTH_SYMBOL
1070
   379
1070
     1
  0
DIMSTYLE
105
5AFB8
330
A
100
AcDbSymbolTableRecord
100
AcDbDimStyleTableRecord
  2
AM_ISO$0
 70
     0
  4
"
 41
0.8
 42
1.0
 43
10.0
 44
1.0
 47
0.1
 48
0.1
 73
     0
 74
     0
 77
     1
 78
     8
 79
     2
140
3.2
141
0.0
143
0.0393701
146
0.71
147
0.9999999999999996
172
     1
176
   256
177
   256
178
     2
271
     2
272
     2
283
     0
284
     8
340
11
341
6C4
342
6C4
371
    -1
372
    -1
  0
DIMSTYLE
105
5AFB9
330
A
100
AcDbSymbolTableRecord
100
AcDbDimStyleTableRecord
  2
AM_ISO$2
 70
     0
  4
"
 41
0.8
 42
1.0
 43
10.0
 44
1.0
 47
0.1
 48
0.1
 73
     0
 74
     0
 77
     3
 78
     8
 79
     2
140
3.200000000000001
141
0.0
143
0.0393701
146
0.71
147
0.9999999999999996
172
     1
176
   256
177
   256
178
     2
271
     2
272
     2
283
     0
284
     8
340
11
342
6C4
371
    -1
372
    -1
  0
ENDTAB
  0
TABLE
  2
BLOCK_RECORD
  5
1
330
0
100
AcDbSymbolTable
 70
    27
  0
BLOCK_RECORD
  5
1F
102
{ACAD_XDICTIONARY
360
8A
102
}
330
1
100
AcDbSymbolTableRecord
100
AcDbBlockTableRecord
  2
*Model_Space
340
22
  0
BLOCK_RECORD
  5
1B
330
1
100
AcDbSymbolTableRecord
100
AcDbBlockTableRecord
  2
*Paper_Space
340
1E
  0
BLOCK_RECORD
  5
23
330
1
100
AcDbSymbolTableRecord
100
AcDbBlockTableRecord
  2
*Paper_Space0
340
26
  0
BLOCK_RECORD
  5
72
330
1
100
AcDbSymbolTableRecord
100
AcDbBlockTableRecord
  2
GENAXEH
340
0
  0
BLOCK_RECORD
  5
6C4
330
1
100
AcDbSymbolTableRecord
100
AcDbBlockTableRecord
  2
_Dot
340
0
102
{BLKREFS
331
AA8FC
331
AA8FD
331
AA905
331
AA906
331
AA90E
331
AA90F
331
AA917
331
AA918
331
AA920
331
AA921
331
AA929
331
AA92A
331
AA932
331
AA933
331
AA93B
331
AA93C
331
AA944
331
AA945
331
AA94D
331
AA94E
331
AA956
331
AA957
331
AA95F
331
AA960
331
AA968
331
AA969
331
AA971
331
AA972
331
AA97A
331
AA97B
331
AA985
331
AA986
331
AA98E
331
AA98F
102
}
  0
BLOCK_RECORD
  5
A66
330
1
100
AcDbSymbolTableRecord
100
AcDbBlockTableRecord
  2
_OPEN30
340
0
  0
BLOCK_RECORD
  5
D855
330
1
100
AcDbSymbolTableRecord
100
AcDbBlockTableRecord
  2
EDTIP_ARROW_S
340
0
  0
BLOCK_RECORD
  5
D85B
330
1
100
AcDbSymbolTableRecord
100
AcDbBlockTableRecord
  2
EDTIP_ARROW_E
340
0
  0
BLOCK_RECORD
  5
5B74D
330
1
100
AcDbSymbolTableRecord
100
AcDbBlockTableRecord
  2
*D7
340
0
  0
BLOCK_RECORD
  5
5B759
330
1
100
AcDbSymbolTableRecord
100
AcDbBlockTableRecord
  2
*D8
340
0
  0
BLOCK_RECORD
  5
5B765
330
1
100
AcDbSymbolTableRecord
100
AcDbBlockTableRecord
  2
*D9
340
0
  0
BLOCK_RECORD
  5
5B771
330
1
100
AcDbSymbolTableRecord
100
AcDbBlockTableRecord
  2
*D10
340
0
  0
BLOCK_RECORD
  5
5B77D
330
1
100
AcDbSymbolTableRecord
100
AcDbBlockTableRecord
  2
*D11
340
0
  0
BLOCK_RECORD
  5
5B789
330
1
100
AcDbSymbolTableRecord
100
AcDbBlockTableRecord
  2
*D12
340
0
  0
BLOCK_RECORD
  5
5B795
330
1
100
AcDbSymbolTableRecord
100
AcDbBlockTableRecord
  2
*D13
340
0
  0
BLOCK_RECORD
  5
5B7AA
330
1
100
AcDbSymbolTableRecord
100
AcDbBlockTableRecord
  2
*D14
340
0
  0
BLOCK_RECORD
  5
5B7B6
330
1
100
AcDbSymbolTableRecord
100
AcDbBlockTableRecord
  2
*D15
340
0
  0
BLOCK_RECORD
  5
5B7C2
330
1
100
AcDbSymbolTableRecord
100
AcDbBlockTableRecord
  2
*D16
340
0
  0
BLOCK_RECORD
  5
5B7D7
330
1
100
AcDbSymbolTableRecord
100
AcDbBlockTableRecord
  2
*D17
340
0
  0
BLOCK_RECORD
  5
5B7E3
330
1
100
AcDbSymbolTableRecord
100
AcDbBlockTableRecord
  2
*D18
340
0
  0
BLOCK_RECORD
  5
5B941
330
1
100
AcDbSymbolTableRecord
100
AcDbBlockTableRecord
  2
*D19
340
0
  0
BLOCK_RECORD
  5
5B94D
330
1
100
AcDbSymbolTableRecord
100
AcDbBlockTableRecord
  2
*D20
340
0
  0
BLOCK_RECORD
  5
5B959
330
1
100
AcDbSymbolTableRecord
100
AcDbBlockTableRecord
  2
*D21
340
0
  0
BLOCK_RECORD
  5
5B965
330
1
100
AcDbSymbolTableRecord
100
AcDbBlockTableRecord
  2
*D22
340
0
  0
BLOCK_RECORD
  5
5B9D8
330
1
100
AcDbSymbolTableRecord
100
AcDbBlockTableRecord
  2
*D23
340
0
  0
BLOCK_RECORD
  5
AA9EE
330
1
100
AcDbSymbolTableRecord
100
AcDbBlockTableRecord
  2
*S24
340
0
  0
BLOCK_RECORD
  5
AA9F8
330
1
100
AcDbSymbolTableRecord
100
AcDbBlockTableRecord
  2
*S25
340
0
  0
BLOCK_RECORD
  5
AAA02
330
1
100
AcDbSymbolTableRecord
100
AcDbBlockTableRecord
  2
*S26
340
0
  0
ENDTAB
  0
ENDSEC
  0
SECTION
  2
BLOCKS
  0
BLOCK
  5
20
330
1F
100
AcDbEntity
  8
0
100
AcDbBlockBegin
  2
*Model_Space
 70
     0
 10
0.0
 20
0.0
 30
0.0
  3
*Model_Space
  1

  0
ENDBLK
  5
21
330
1F
100
AcDbEntity
  8
0
100
AcDbBlockEnd
  0
BLOCK
  5
1C
330
1B
100
AcDbEntity
 67
     1
  8
0
100
AcDbBlockBegin
  2
*Paper_Space
 70
     0
 10
0.0
 20
0.0
 30
0.0
  3
*Paper_Space
  1

  0
ENDBLK
  5
1D
330
1B
100
AcDbEntity
 67
     1
  8
0
100
AcDbBlockEnd
  0
BLOCK
  5
24
330
23
100
AcDbEntity
 67
     1
  8
0
100
AcDbBlockBegin
  2
*Paper_Space0
 70
     0
 10
0.0
 20
0.0
 30
0.0
  3
*Paper_Space0
  1

  0
ENDBLK
  5
25
330
23
100
AcDbEntity
 67
     1
  8
0
100
AcDbBlockEnd
  0
BLOCK
  5
74
330
72
100
AcDbEntity
  8
0
100
AcDbBlockBegin
  2
GENAXEH
 70
     0
 10
0.0
 20
0.0
 30
0.0
  3
GENAXEH
  1

  0
LINE
  5
73
330
72
100
AcDbEntity
  8
0
100
AcDbLine
 10
-1.0
 20
0.0
 30
0.0
 11
1.0
 21
0.0
 31
0.0
  0
ENDBLK
  5
75
330
72
100
AcDbEntity
  8
0
100
AcDbBlockEnd
  0
BLOCK
  5
6C7
330
6C4
100
AcDbEntity
  8
0
100
AcDbBlockBegin
  2
_Dot
 70
     0
 10
0.0
 20
0.0
 30
0.0
  3
_Dot
  1

  0
LWPOLYLINE
  5
6C5
330
6C4
100
AcDbEntity
  8
0
  6
ByBlock
 62
     0
100
AcDbPolyline
 90
        2
 70
     1
 43
0.5
 10
-0.25
 20
0.0
 42
1.0
 10
0.25
 20
0.0
 42
1.0
  0
LINE
  5
6C6
330
6C4
100
AcDbEntity
  8
0
  6
ByBlock
 62
     0
370
    -2
100
AcDbLine
 10
-0.5
 20
0.0
 30
0.0
 11
-1.0
 21
0.0
 31
0.0
  0
ENDBLK
  5
6C8
330
6C4
100
AcDbEntity
  8
0
100
AcDbBlockEnd
  0
BLOCK
  5
A6A
330
A66
100
AcDbEntity
  8
0
100
AcDbBlockBegin
  2
_OPEN30
 70
     0
 10
0.0
 20
0.0
 30
0.0
  3
_OPEN30
  1

  0
LINE
  5
A67
330
A66
100
AcDbEntity
  8
0
  6
ByBlock
 62
     0
100
AcDbLine
 10
-1.0
 20
0.26794919
 30
0.0
 11
0.0
 21
0.0
 31
0.0
  0
LINE
  5
A68
330
A66
100
AcDbEntity
  8
0
  6
ByBlock
 62
     0
100
AcDbLine
 10
0.0
 20
0.0
 30
0.0
 11
-1.0
 21
-0.26794919
 31
0.0
  0
LINE
  5
A69
330
A66
100
AcDbEntity
  8
0
  6
ByBlock
 62
     0
100
AcDbLine
 10
0.0
 20
0.0
 30
0.0
 11
-1.0
 21
0.0
 31
0.0
  0
ENDBLK
  5
A6B
330
A66
100
AcDbEntity
  8
0
100
AcDbBlockEnd
  0
BLOCK
  5
D856
330
D855
100
AcDbEntity
  8
0
  6
ByBlock
 62
     0
100
AcDbBlockBegin
  2
EDTIP_ARROW_S
 70
     0
 10
0.0
 20
0.0
 30
0.0
  3
EDTIP_ARROW_S
  1

  0
LINE
  5
D857
330
D855
100
AcDbEntity
  8
0
  6
Continuous
 62
     0
100
AcDbLine
 10
0.0
 20
0.0
 30
0.0
 11
-1.0
 21
0.0
 31
0.0
  0
LINE
  5
D858
330
D855
100
AcDbEntity
  8
0
  6
Continuous
 62
     0
100
AcDbLine
 10
0.0
 20
0.0
 30
0.0
 11
-0.9659259999999999
 21
0.258819
 31
0.0
  0
LINE
  5
D859
330
D855
100
AcDbEntity
  8
0
  6
Continuous
 62
     0
100
AcDbLine
 10
0.0
 20
0.0
 30
0.0
 11
-0.9659259999999999
 21
-0.258819
 31
0.0
  0
ENDBLK
  5
D85A
330
D855
100
AcDbEntity
  8
0
  6
ByBlock
 62
     0
100
AcDbBlockEnd
  0
BLOCK
  5
D85C
330
D85B
100
AcDbEntity
  8
0
  6
ByBlock
 62
     0
100
AcDbBlockBegin
  2
EDTIP_ARROW_E
 70
     0
 10
0.0
 20
0.0
 30
0.0
  3
EDTIP_ARROW_E
  1

  0
LINE
  5
D85D
330
D85B
100
AcDbEntity
  8
0
  6
Continuous
 62
     0
100
AcDbLine
 10
0.0
 20
0.0
 30
0.0
 11
-1.0
 21
0.0
 31
0.0
  0
LINE
  5
D85E
330
D85B
100
AcDbEntity
  8
0
  6
Continuous
 62
     0
100
AcDbLine
 10
0.0
 20
0.0
 30
0.0
 11
-0.9659259999999999
 21
-0.258819
 31
0.0
  0
LINE
  5
D85F
330
D85B
100
AcDbEntity
  8
0
  6
Continuous
 62
     0
100
AcDbLine
 10
0.0
 20
0.0
 30
0.0
 11
-0.9659259999999999
 21
0.258819
 31
0.0
  0
ENDBLK
  5
D860
330
D85B
100
AcDbEntity
  8
0
  6
ByBlock
 62
     0
100
AcDbBlockEnd
  0
BLOCK
  5
5B757
330
5B74D
100
AcDbEntity
  8
0
100
AcDbBlockBegin
  2
*D7
 70
     1
 10
0.0
 20
0.0
 30
0.0
  3
*D7
  1

  0
LINE
  5
AA90B
330
5B74D
100
AcDbEntity
  8
AM_5
100
AcDbLine
 10
249.0000000000001
 20
235.2
 30
0.0
 11
249.0000000000001
 21
246.0
 31
0.0
  0
LINE
  5
AA90C
330
5B74D
100
AcDbEntity
  8
AM_5
100
AcDbLine
 10
226.0000000000001
 20
237.75
 30
0.0
 11
226.0000000000001
 21
246.0
 31
0.0
  0
LINE
  5
AA90D
330
5B74D
100
AcDbEntity
  8
AM_5
100
AcDbLine
 10
248.0000000000001
 20
245.0
 30
0.0
 11
227.0000000000001
 21
245.0
 31
0.0
  0
INSERT
  5
AA90E
330
5B74D
100
AcDbEntity
  8
AM_5
100
AcDbBlockReference
  2
_Dot
 10
249.0000000000001
 20
245.0
 30
0.0
  0
INSERT
  5
AA90F
330
5B74D
100
AcDbEntity
  8
AM_5
100
AcDbBlockReference
  2
_Dot
 10
226.0000000000001
 20
245.0
 30
0.0
 50
180.0
  0
MTEXT
  5
AA910
330
5B74D
100
AcDbEntity
  8
AM_5
 62
     2
100
AcDbMText
 10
237.5000000000001
 20
248.1
 30
0.0
 40
3.200000000000001
 41
0.0
 71
     5
 72
     1
  1
C
 73
     1
 44
1.0
1001
ACAD
1000
MTEXTBEGIN
1070
    73
1070
     1
1070
    44
1040
1.0
1070
    74
1070
     0
1000
MTEXTEND
  0
POINT
  5
AA911
330
5B74D
100
AcDbEntity
  8
Defpoints
 62
     0
100
AcDbPoint
 10
249.0000000000001
 20
234.2
 30
0.0
  0
POINT
  5
AA912
330
5B74D
100
AcDbEntity
  8
Defpoints
 62
     0
100
AcDbPoint
 10
226.0000000000001
 20
236.75
 30
0.0
  0
POINT
  5
AA913
330
5B74D
100
AcDbEntity
  8
Defpoints
 62
     0
100
AcDbPoint
 10
226.0000000000001
 20
245.0
 30
0.0
  0
ENDBLK
  5
5B758
330
5B74D
100
AcDbEntity
  8
0
100
AcDbBlockEnd
  0
BLOCK
  5
5B763
330
5B759
100
AcDbEntity
  8
0
100
AcDbBlockBegin
  2
*D8
 70
     1
 10
0.0
 20
0.0
 30
0.0
  3
*D8
  1

  0
LINE
  5
AA92F
330
5B759
100
AcDbEntity
  8
AM_5
100
AcDbLine
 10
225.9999999999999
 20
62.0
 30
0.0
 11
225.9999999999999
 21
44.0
 31
0.0
  0
LINE
  5
AA930
330
5B759
100
AcDbEntity
  8
AM_5
100
AcDbLine
 10
257.9999999999999
 20
66.44771466645465
 30
0.0
 11
257.9999999999999
 21
44.0
 31
0.0
  0
LINE
  5
AA931
330
5B759
100
AcDbEntity
  8
AM_5
100
AcDbLine
 10
226.9999999999999
 20
45.0
 30
0.0
 11
256.9999999999999
 21
45.0
 31
0.0
  0
INSERT
  5
AA932
330
5B759
100
AcDbEntity
  8
AM_5
100
AcDbBlockReference
  2
_Dot
 10
225.9999999999999
 20
45.0
 30
0.0
 50
180.0
  0
INSERT
  5
AA933
330
5B759
100
AcDbEntity
  8
AM_5
100
AcDbBlockReference
  2
_Dot
 10
257.9999999999999
 20
45.0
 30
0.0
  0
MTEXT
  5
AA934
330
5B759
100
AcDbEntity
  8
AM_5
 62
     2
100
AcDbMText
 10
241.9999999999999
 20
48.1
 30
0.0
 40
3.200000000000001
 41
0.0
 71
     5
 72
     1
  1
A
 73
     1
 44
1.0
1001
ACAD
1000
MTEXTBEGIN
1070
    73
1070
     1
1070
    44
1040
1.0
1070
    74
1070
     0
1000
MTEXTEND
  0
POINT
  5
AA935
330
5B759
100
AcDbEntity
  8
Defpoints
 62
     0
100
AcDbPoint
 10
225.9999999999999
 20
63.0
 30
0.0
  0
POINT
  5
AA936
330
5B759
100
AcDbEntity
  8
Defpoints
 62
     0
100
AcDbPoint
 10
257.9999999999999
 20
67.44771466645466
 30
0.0
  0
POINT
  5
AA937
330
5B759
100
AcDbEntity
  8
Defpoints
 62
     0
100
AcDbPoint
 10
257.9999999999999
 20
45.0
 30
0.0
  0
ENDBLK
  5
5B764
330
5B759
100
AcDbEntity
  8
0
100
AcDbBlockEnd
  0
BLOCK
  5
5B76F
330
5B765
100
AcDbEntity
  8
0
100
AcDbBlockBegin
  2
*D9
 70
     1
 10
0.0
 20
0.0
 30
0.0
  3
*D9
  1

  0
LINE
  5
AA94A
330
5B765
100
AcDbEntity
  8
AM_5
100
AcDbLine
 10
322.2000000000002
 20
92.90000000000009
 30
0.0
 11
332.2000000000001
 21
92.90000000000009
 31
0.0
  0
LINE
  5
AA94B
330
5B765
100
AcDbEntity
  8
AM_5
100
AcDbLine
 10
322.2000000000002
 20
160.1000000000001
 30
0.0
 11
332.2000000000002
 21
160.1000000000001
 31
0.0
  0
LINE
  5
AA94C
330
5B765
100
AcDbEntity
  8
AM_5
100
AcDbLine
 10
331.2000000000001
 20
93.90000000000009
 30
0.0
 11
331.2000000000002
 21
159.1000000000001
 31
0.0
  0
INSERT
  5
AA94D
330
5B765
100
AcDbEntity
  8
AM_5
100
AcDbBlockReference
  2
_Dot
 10
331.2000000000001
 20
92.90000000000009
 30
0.0
 50
270.0
  0
INSERT
  5
AA94E
330
5B765
100
AcDbEntity
  8
AM_5
100
AcDbBlockReference
  2
_Dot
 10
331.2000000000002
 20
160.1000000000001
 30
0.0
 50
90.0
  0
MTEXT
  5
AA94F
330
5B765
100
AcDbEntity
  8
AM_5
 62
     2
100
AcDbMText
 10
328.1000000000001
 20
126.5000000000002
 30
0.0
 40
3.200000000000001
 41
0.0
 71
     5
 72
     1
  1
67.2
 11
0.0000000000000001
 21
1.0
 31
0.0
 73
     1
 44
1.0
1001
ACAD
1000
MTEXTBEGIN
1070
    73
1070
     1
1070
    44
1040
1.0
1070
    74
1070
     0
1000
MTEXTEND
  0
POINT
  5
AA950
330
5B765
100
AcDbEntity
  8
Defpoints
 62
     0
100
AcDbPoint
 10
321.2000000000001
 20
92.90000000000009
 30
0.0
  0
POINT
  5
AA951
330
5B765
100
AcDbEntity
  8
Defpoints
 62
     0
100
AcDbPoint
 10
321.2000000000001
 20
160.1000000000001
 30
0.0
  0
POINT
  5
AA952
330
5B765
100
AcDbEntity
  8
Defpoints
 62
     0
100
AcDbPoint
 10
331.2000000000002
 20
160.1000000000001
 30
0.0
  0
ENDBLK
  5
5B770
330
5B765
100
AcDbEntity
  8
0
100
AcDbBlockEnd
  0
BLOCK
  5
5B77B
330
5B771
100
AcDbEntity
  8
0
100
AcDbBlockBegin
  2
*D10
 70
     1
 10
0.0
 20
0.0
 30
0.0
  3
*D10
  1

  0
LINE
  5
AA953
330
5B771
100
AcDbEntity
  8
AM_5
100
AcDbLine
 10
256.0000000000413
 20
105.5000106551367
 30
0.0
 11
269.1999999999999
 21
105.5000106551367
 31
0.0
  0
LINE
  5
AA954
330
5B771
100
AcDbEntity
  8
AM_5
100
AcDbLine
 10
262.0
 20
126.5
 30
0.0
 11
269.1999999999999
 21
126.5
 31
0.0
  0
LINE
  5
AA955
330
5B771
100
AcDbEntity
  8
AM_5
100
AcDbLine
 10
268.1999999999999
 20
106.5000106551367
 30
0.0
 11
268.1999999999999
 21
125.5
 31
0.0
  0
INSERT
  5
AA956
330
5B771
100
AcDbEntity
  8
AM_5
100
AcDbBlockReference
  2
_Dot
 10
268.1999999999999
 20
105.5000106551367
 30
0.0
 50
270.0
  0
INSERT
  5
AA957
330
5B771
100
AcDbEntity
  8
AM_5
100
AcDbBlockReference
  2
_Dot
 10
268.1999999999999
 20
126.5
 30
0.0
 50
90.0
  0
MTEXT
  5
AA958
330
5B771
100
AcDbEntity
  8
AM_5
 62
     2
100
AcDbMText
 10
265.0999999999999
 20
116.0000053275684
 30
0.0
 40
3.200000000000001
 41
0.0
 71
     5
 72
     1
  1
21
 11
0.0000000000000001
 21
1.0
 31
0.0
 73
     1
 44
1.0
1001
ACAD
1000
MTEXTBEGIN
1070
    73
1070
     1
1070
    44
1040
1.0
1070
    74
1070
     0
1000
MTEXTEND
  0
POINT
  5
AA959
330
5B771
100
AcDbEntity
  8
Defpoints
 62
     0
100
AcDbPoint
 10
255.0000000000413
 20
105.5000106551367
 30
0.0
  0
POINT
  5
AA95A
330
5B771
100
AcDbEntity
  8
Defpoints
 62
     0
100
AcDbPoint
 10
261.0
 20
126.5
 30
0.0
  0
POINT
  5
AA95B
330
5B771
100
AcDbEntity
  8
Defpoints
 62
     0
100
AcDbPoint
 10
268.1999999999999
 20
126.5
 30
0.0
  0
ENDBLK
  5
5B77C
330
5B771
100
AcDbEntity
  8
0
100
AcDbBlockEnd
  0
BLOCK
  5
5B787
330
5B77D
100
AcDbEntity
  8
0
100
AcDbBlockBegin
  2
*D11
 70
     1
 10
0.0
 20
0.0
 30
0.0
  3
*D11
  1

  0
LINE
  5
AA95C
330
5B77D
100
AcDbEntity
  8
AM_5
100
AcDbLine
 10
221.9999999999999
 20
126.5
 30
0.0
 11
217.0000000000001
 21
126.5
 31
0.0
  0
LINE
  5
AA95D
330
5B77D
100
AcDbEntity
  8
AM_5
100
AcDbLine
 10
222.4999999999999
 20
104.5
 30
0.0
 11
217.0000000000001
 21
104.5
 31
0.0
  0
LINE
  5
AA95E
330
5B77D
100
AcDbEntity
  8
AM_5
100
AcDbLine
 10
218.0000000000001
 20
125.5
 30
0.0
 11
218.0000000000001
 21
105.5
 31
0.0
  0
INSERT
  5
AA95F
330
5B77D
100
AcDbEntity
  8
AM_5
100
AcDbBlockReference
  2
_Dot
 10
218.0000000000001
 20
126.5
 30
0.0
 50
90.0
  0
INSERT
  5
AA960
330
5B77D
100
AcDbEntity
  8
AM_5
100
AcDbBlockReference
  2
_Dot
 10
218.0000000000001
 20
104.5
 30
0.0
 50
270.0
  0
MTEXT
  5
AA961
330
5B77D
100
AcDbEntity
  8
AM_5
 62
     2
100
AcDbMText
 10
214.9000000000001
 20
115.5
 30
0.0
 40
3.200000000000001
 41
0.0
 71
     5
 72
     1
  1
22
 11
0.0000000000000001
 21
1.0
 31
0.0
 73
     1
 44
1.0
1001
ACAD
1000
MTEXTBEGIN
1070
    73
1070
     1
1070
    44
1040
1.0
1070
    74
1070
     0
1000
MTEXTEND
  0
POINT
  5
AA962
330
5B77D
100
AcDbEntity
  8
Defpoints
 62
     0
100
AcDbPoint
 10
222.9999999999999
 20
126.5
 30
0.0
  0
POINT
  5
AA963
330
5B77D
100
AcDbEntity
  8
Defpoints
 62
     0
100
AcDbPoint
 10
223.4999999999999
 20
104.5
 30
0.0
  0
POINT
  5
AA964
330
5B77D
100
AcDbEntity
  8
Defpoints
 62
     0
100
AcDbPoint
 10
218.0000000000001
 20
104.5
 30
0.0
  0
ENDBLK
  5
5B788
330
5B77D
100
AcDbEntity
  8
0
100
AcDbBlockEnd
  0
BLOCK
  5
5B793
330
5B789
100
AcDbEntity
  8
0
100
AcDbBlockBegin
  2
*D12
 70
     1
 10
0.0
 20
0.0
 30
0.0
  3
*D12
  1

  0
LINE
  5
AA8F9
330
5B789
100
AcDbEntity
  8
AM_5
100
AcDbLine
 10
262.0
 20
228.0
 30
0.0
 11
269.1999999999999
 21
228.0
 31
0.0
  0
LINE
  5
AA8FA
330
5B789
100
AcDbEntity
  8
AM_5
100
AcDbLine
 10
257.5000000000001
 20
216.0
 30
0.0
 11
269.1999999999999
 21
216.0
 31
0.0
  0
LINE
  5
AA8FB
330
5B789
100
AcDbEntity
  8
AM_5
100
AcDbLine
 10
268.1999999999999
 20
227.0
 30
0.0
 11
268.1999999999999
 21
217.0
 31
0.0
  0
INSERT
  5
AA8FC
330
5B789
100
AcDbEntity
  8
AM_5
100
AcDbBlockReference
  2
_Dot
 10
268.1999999999999
 20
228.0
 30
0.0
 50
90.0
  0
INSERT
  5
AA8FD
330
5B789
100
AcDbEntity
  8
AM_5
100
AcDbBlockReference
  2
_Dot
 10
268.1999999999999
 20
216.0
 30
0.0
 50
270.0
  0
MTEXT
  5
AA8FE
330
5B789
100
AcDbEntity
  8
AM_5
 62
     2
100
AcDbMText
 10
265.0999999999998
 20
222.0
 30
0.0
 40
3.200000000000001
 41
0.0
 71
     5
 72
     1
  1
12
 11
0.0000000000000001
 21
1.0
 31
0.0
 73
     1
 44
1.0
1001
ACAD
1000
MTEXTBEGIN
1070
    73
1070
     1
1070
    44
1040
1.0
1070
    74
1070
     0
1000
MTEXTEND
  0
POINT
  5
AA8FF
330
5B789
100
AcDbEntity
  8
Defpoints
 62
     0
100
AcDbPoint
 10
261.0
 20
228.0
 30
0.0
  0
POINT
  5
AA900
330
5B789
100
AcDbEntity
  8
Defpoints
 62
     0
100
AcDbPoint
 10
256.5000000000001
 20
216.0
 30
0.0
  0
POINT
  5
AA901
330
5B789
100
AcDbEntity
  8
Defpoints
 62
     0
100
AcDbPoint
 10
268.1999999999999
 20
216.0
 30
0.0
  0
ENDBLK
  5
5B794
330
5B789
100
AcDbEntity
  8
0
100
AcDbBlockEnd
  0
BLOCK
  5
5B79F
330
5B795
100
AcDbEntity
  8
0
100
AcDbBlockBegin
  2
*D13
 70
     1
 10
0.0
 20
0.0
 30
0.0
  3
*D13
  1

  0
LINE
  5
AA902
330
5B795
100
AcDbEntity
  8
AM_5
100
AcDbLine
 10
257.2000000000002
 20
215.5
 30
0.0
 11
257.2000000000002
 21
205.0
 31
0.0
  0
LINE
  5
AA903
330
5B795
100
AcDbEntity
  8
AM_5
100
AcDbLine
 10
237.8000000000003
 20
215.5
 30
0.0
 11
237.8000000000003
 21
205.0
 31
0.0
  0
LINE
  5
AA904
330
5B795
100
AcDbEntity
  8
AM_5
100
AcDbLine
 10
256.2000000000002
 20
206.0
 30
0.0
 11
238.8000000000003
 21
206.0
 31
0.0
  0
INSERT
  5
AA905
330
5B795
100
AcDbEntity
  8
AM_5
100
AcDbBlockReference
  2
_Dot
 10
257.2000000000002
 20
206.0
 30
0.0
  0
INSERT
  5
AA906
330
5B795
100
AcDbEntity
  8
AM_5
100
AcDbBlockReference
  2
_Dot
 10
237.8000000000003
 20
206.0
 30
0.0
 50
180.0
  0
MTEXT
  5
AA907
330
5B795
100
AcDbEntity
  8
AM_5
 62
     2
100
AcDbMText
 10
247.5000000000002
 20
209.1
 30
0.0
 40
3.200000000000001
 41
0.0
 71
     5
 72
     1
  1
（19）
 73
     1
 44
1.0
1001
ACAD
1000
MTEXTBEGIN
1070
    73
1070
     1
1070
    44
1040
1.0
1070
    74
1070
     0
1000
MTEXTEND
  0
POINT
  5
AA908
330
5B795
100
AcDbEntity
  8
Defpoints
 62
     0
100
AcDbPoint
 10
257.2000000000002
 20
216.5
 30
0.0
  0
POINT
  5
AA909
330
5B795
100
AcDbEntity
  8
Defpoints
 62
     0
100
AcDbPoint
 10
237.8000000000003
 20
216.5
 30
0.0
  0
POINT
  5
AA90A
330
5B795
100
AcDbEntity
  8
Defpoints
 62
     0
100
AcDbPoint
 10
237.8000000000003
 20
206.0
 30
0.0
  0
ENDBLK
  5
5B7A0
330
5B795
100
AcDbEntity
  8
0
100
AcDbBlockEnd
  0
BLOCK
  5
5B7B4
330
5B7AA
100
AcDbEntity
  8
0
100
AcDbBlockBegin
  2
*D14
 70
     1
 10
0.0
 20
0.0
 30
0.0
  3
*D14
  1

  0
LINE
  5
AA914
330
5B7AA
100
AcDbEntity
  8
AM_5
100
AcDbLine
 10
221.9999999999999
 20
126.5
 30
0.0
 11
217.0000000000001
 21
126.5
 31
0.0
  0
LINE
  5
AA915
330
5B7AA
100
AcDbEntity
  8
AM_5
100
AcDbLine
 10
222.4999999999999
 20
148.5
 30
0.0
 11
217.0000000000001
 21
148.5
 31
0.0
  0
LINE
  5
AA916
330
5B7AA
100
AcDbEntity
  8
AM_5
100
AcDbLine
 10
218.0000000000001
 20
127.5
 30
0.0
 11
218.0000000000001
 21
147.5
 31
0.0
  0
INSERT
  5
AA917
330
5B7AA
100
AcDbEntity
  8
AM_5
100
AcDbBlockReference
  2
_Dot
 10
218.0000000000001
 20
126.5
 30
0.0
 50
270.0
  0
INSERT
  5
AA918
330
5B7AA
100
AcDbEntity
  8
AM_5
100
AcDbBlockReference
  2
_Dot
 10
218.0000000000001
 20
148.5
 30
0.0
 50
90.0
  0
MTEXT
  5
AA919
330
5B7AA
100
AcDbEntity
  8
AM_5
 62
     2
100
AcDbMText
 10
214.9000000000001
 20
137.5
 30
0.0
 40
3.200000000000001
 41
0.0
 71
     5
 72
     1
  1
22
 11
0.0000000000000001
 21
1.0
 31
0.0
 73
     1
 44
1.0
1001
ACAD
1000
MTEXTBEGIN
1070
    73
1070
     1
1070
    44
1040
1.0
1070
    74
1070
     0
1000
MTEXTEND
  0
POINT
  5
AA91A
330
5B7AA
100
AcDbEntity
  8
Defpoints
 62
     0
100
AcDbPoint
 10
222.9999999999999
 20
126.5
 30
0.0
  0
POINT
  5
AA91B
330
5B7AA
100
AcDbEntity
  8
Defpoints
 62
     0
100
AcDbPoint
 10
223.4999999999999
 20
148.5
 30
0.0
  0
POINT
  5
AA91C
330
5B7AA
100
AcDbEntity
  8
Defpoints
 62
     0
100
AcDbPoint
 10
218.0000000000001
 20
148.5
 30
0.0
  0
ENDBLK
  5
5B7B5
330
5B7AA
100
AcDbEntity
  8
0
100
AcDbBlockEnd
  0
BLOCK
  5
5B7C0
330
5B7B6
100
AcDbEntity
  8
0
100
AcDbBlockBegin
  2
*D15
 70
     1
 10
0.0
 20
0.0
 30
0.0
  3
*D15
  1

  0
LINE
  5
AA91D
330
5B7B6
100
AcDbEntity
  8
AM_5
100
AcDbLine
 10
256.0000000000413
 20
147.4999893448632
 30
0.0
 11
269.2
 21
147.4999893448632
 31
0.0
  0
LINE
  5
AA91E
330
5B7B6
100
AcDbEntity
  8
AM_5
100
AcDbLine
 10
262.0
 20
126.5
 30
0.0
 11
269.1999999999999
 21
126.5
 31
0.0
  0
LINE
  5
AA91F
330
5B7B6
100
AcDbEntity
  8
AM_5
100
AcDbLine
 10
268.2
 20
146.4999893448632
 30
0.0
 11
268.1999999999999
 21
127.5
 31
0.0
  0
INSERT
  5
AA920
330
5B7B6
100
AcDbEntity
  8
AM_5
100
AcDbBlockReference
  2
_Dot
 10
268.2
 20
147.4999893448632
 30
0.0
 50
90.0
  0
INSERT
  5
AA921
330
5B7B6
100
AcDbEntity
  8
AM_5
100
AcDbBlockReference
  2
_Dot
 10
268.1999999999999
 20
126.5
 30
0.0
 50
270.0
  0
MTEXT
  5
AA922
330
5B7B6
100
AcDbEntity
  8
AM_5
 62
     2
100
AcDbMText
 10
265.0999999999999
 20
136.9999946724316
 30
0.0
 40
3.200000000000001
 41
0.0
 71
     5
 72
     1
  1
21
 11
0.0000000000000001
 21
1.0
 31
0.0
 73
     1
 44
1.0
1001
ACAD
1000
MTEXTBEGIN
1070
    73
1070
     1
1070
    44
1040
1.0
1070
    74
1070
     0
1000
MTEXTEND
  0
POINT
  5
AA923
330
5B7B6
100
AcDbEntity
  8
Defpoints
 62
     0
100
AcDbPoint
 10
255.0000000000413
 20
147.4999893448632
 30
0.0
  0
POINT
  5
AA924
330
5B7B6
100
AcDbEntity
  8
Defpoints
 62
     0
100
AcDbPoint
 10
261.0
 20
126.5
 30
0.0
  0
POINT
  5
AA925
330
5B7B6
100
AcDbEntity
  8
Defpoints
 62
     0
100
AcDbPoint
 10
268.1999999999999
 20
126.5
 30
0.0
  0
ENDBLK
  5
5B7C1
330
5B7B6
100
AcDbEntity
  8
0
100
AcDbBlockEnd
  0
BLOCK
  5
5B7CC
330
5B7C2
100
AcDbEntity
  8
0
100
AcDbBlockBegin
  2
*D16
 70
     1
 10
0.0
 20
0.0
 30
0.0
  3
*D16
  1

  0
LINE
  5
AA926
330
5B7C2
100
AcDbEntity
  8
AM_5
100
AcDbLine
 10
246.9999999999999
 20
98.75
 30
0.0
 11
246.9999999999999
 21
52.0
 31
0.0
  0
LINE
  5
AA927
330
5B7C2
100
AcDbEntity
  8
AM_5
100
AcDbLine
 10
225.9999999999999
 20
62.0
 30
0.0
 11
225.9999999999999
 21
52.0
 31
0.0
  0
LINE
  5
AA928
330
5B7C2
100
AcDbEntity
  8
AM_5
100
AcDbLine
 10
245.9999999999999
 20
53.0
 30
0.0
 11
226.9999999999999
 21
53.0
 31
0.0
  0
INSERT
  5
AA929
330
5B7C2
100
AcDbEntity
  8
AM_5
100
AcDbBlockReference
  2
_Dot
 10
246.9999999999999
 20
53.0
 30
0.0
  0
INSERT
  5
AA92A
330
5B7C2
100
AcDbEntity
  8
AM_5
100
AcDbBlockReference
  2
_Dot
 10
225.9999999999999
 20
53.0
 30
0.0
 50
180.0
  0
MTEXT
  5
AA92B
330
5B7C2
100
AcDbEntity
  8
AM_5
 62
     2
100
AcDbMText
 10
236.4999999999999
 20
56.1
 30
0.0
 40
3.200000000000001
 41
0.0
 71
     5
 72
     1
  1
B
 73
     1
 44
1.0
1001
ACAD
1000
MTEXTBEGIN
1070
    73
1070
     1
1070
    44
1040
1.0
1070
    74
1070
     0
1000
MTEXTEND
  0
POINT
  5
AA92C
330
5B7C2
100
AcDbEntity
  8
Defpoints
 62
     0
100
AcDbPoint
 10
246.9999999999999
 20
99.75000000000001
 30
0.0
  0
POINT
  5
AA92D
330
5B7C2
100
AcDbEntity
  8
Defpoints
 62
     0
100
AcDbPoint
 10
225.9999999999999
 20
63.0
 30
0.0
  0
POINT
  5
AA92E
330
5B7C2
100
AcDbEntity
  8
Defpoints
 62
     0
100
AcDbPoint
 10
225.9999999999999
 20
53.0
 30
0.0
  0
ENDBLK
  5
5B7CD
330
5B7C2
100
AcDbEntity
  8
0
100
AcDbBlockEnd
  0
BLOCK
  5
5B7E1
330
5B7D7
100
AcDbEntity
  8
0
100
AcDbBlockBegin
  2
*D17
 70
     1
 10
0.0
 20
0.0
 30
0.0
  3
*D17
  1

  0
LINE
  5
AA938
330
5B7D7
100
AcDbEntity
  8
AM_5
100
AcDbLine
 10
317.535786437627
 20
63.0
 30
0.0
 11
340.2000000000001
 21
62.99999999999999
 31
0.0
  0
LINE
  5
AA939
330
5B7D7
100
AcDbEntity
  8
AM_5
100
AcDbLine
 10
317.535786437627
 20
190.0
 30
0.0
 11
340.2000000000001
 21
190.0
 31
0.0
  0
LINE
  5
AA93A
330
5B7D7
100
AcDbEntity
  8
AM_5
100
AcDbLine
 10
339.2000000000001
 20
63.99999999999999
 30
0.0
 11
339.2000000000002
 21
188.9999999999999
 31
0.0
  0
INSERT
  5
AA93B
330
5B7D7
100
AcDbEntity
  8
AM_5
100
AcDbBlockReference
  2
_Dot
 10
339.2000000000001
 20
62.99999999999999
 30
0.0
 50
270.0
  0
INSERT
  5
AA93C
330
5B7D7
100
AcDbEntity
  8
AM_5
100
AcDbBlockReference
  2
_Dot
 10
339.2000000000002
 20
190.0
 30
0.0
 50
90.0
  0
MTEXT
  5
AA93D
330
5B7D7
100
AcDbEntity
  8
AM_5
 62
     2
100
AcDbMText
 10
336.1000000000001
 20
126.5
 30
0.0
 40
3.200000000000001
 41
0.0
 71
     5
 72
     1
  1
127
 11
0.0000000000000001
 21
1.0
 31
0.0
 73
     1
 44
1.0
1001
ACAD
1000
MTEXTBEGIN
1070
    73
1070
     1
1070
    44
1040
1.0
1070
    74
1070
     0
1000
MTEXTEND
  0
POINT
  5
AA93E
330
5B7D7
100
AcDbEntity
  8
Defpoints
 62
     0
100
AcDbPoint
 10
316.5357864376271
 20
63.0
 30
0.0
  0
POINT
  5
AA93F
330
5B7D7
100
AcDbEntity
  8
Defpoints
 62
     0
100
AcDbPoint
 10
316.5357864376271
 20
190.0
 30
0.0
  0
POINT
  5
AA940
330
5B7D7
100
AcDbEntity
  8
Defpoints
 62
     0
100
AcDbPoint
 10
339.2000000000002
 20
190.0
 30
0.0
  0
ENDBLK
  5
5B7E2
330
5B7D7
100
AcDbEntity
  8
0
100
AcDbBlockEnd
  0
BLOCK
  5
5B7ED
330
5B7E3
100
AcDbEntity
  8
0
100
AcDbBlockBegin
  2
*D18
 70
     1
 10
0.0
 20
0.0
 30
0.0
  3
*D18
  1

  0
LINE
  5
AA941
330
5B7E3
100
AcDbEntity
  8
AM_5
100
AcDbLine
 10
320.9500000000002
 20
66.41421356237311
 30
0.0
 11
320.9500000000002
 21
51.99999898999999
 31
0.0
  0
LINE
  5
AA942
330
5B7E3
100
AcDbEntity
  8
AM_5
100
AcDbLine
 10
303.4500000000002
 20
66.41421356237311
 30
0.0
 11
303.4500000000002
 21
51.99999898999999
 31
0.0
  0
LINE
  5
AA943
330
5B7E3
100
AcDbEntity
  8
AM_5
100
AcDbLine
 10
319.9500000000002
 20
52.99999898999999
 30
0.0
 11
304.4500000000001
 21
52.99999898999999
 31
0.0
  0
INSERT
  5
AA944
330
5B7E3
100
AcDbEntity
  8
AM_5
100
AcDbBlockReference
  2
_Dot
 10
320.9500000000002
 20
52.99999898999999
 30
0.0
  0
INSERT
  5
AA945
330
5B7E3
100
AcDbEntity
  8
AM_5
100
AcDbBlockReference
  2
_Dot
 10
303.4500000000002
 20
52.99999898999999
 30
0.0
 50
180.0
  0
MTEXT
  5
AA946
330
5B7E3
100
AcDbEntity
  8
AM_5
 62
     2
100
AcDbMText
 10
312.2000000000002
 20
56.09999898999999
 30
0.0
 40
3.200000000000001
 41
0.0
 71
     5
 72
     1
  1
17.5
 73
     1
 44
1.0
1001
ACAD
1000
MTEXTBEGIN
1070
    73
1070
     1
1070
    44
1040
1.0
1070
    74
1070
     0
1000
MTEXTEND
  0
POINT
  5
AA947
330
5B7E3
100
AcDbEntity
  8
Defpoints
 62
     0
100
AcDbPoint
 10
320.9500000000002
 20
67.4142135623731
 30
0.0
  0
POINT
  5
AA948
330
5B7E3
100
AcDbEntity
  8
Defpoints
 62
     0
100
AcDbPoint
 10
303.4500000000002
 20
67.4142135623731
 30
0.0
  0
POINT
  5
AA949
330
5B7E3
100
AcDbEntity
  8
Defpoints
 62
     0
100
AcDbPoint
 10
303.4500000000002
 20
52.99999898999999
 30
0.0
  0
ENDBLK
  5
5B7EE
330
5B7E3
100
AcDbEntity
  8
0
100
AcDbBlockEnd
  0
BLOCK
  5
5B94B
330
5B941
100
AcDbEntity
  8
0
100
AcDbBlockBegin
  2
*D19
 70
     1
 10
0.0
 20
0.0
 30
0.0
  3
*D19
  1

  0
LINE
  5
AA965
330
5B941
100
AcDbEntity
  8
AM_5
100
AcDbLine
 10
144.9
 20
131.2999999999999
 30
0.0
 11
139.0
 21
131.2999999999999
 31
0.0
  0
LINE
  5
AA966
330
5B941
100
AcDbEntity
  8
AM_5
100
AcDbLine
 10
144.0
 20
110.3000000000001
 30
0.0
 11
139.0
 21
110.3000000000001
 31
0.0
  0
LINE
  5
AA967
330
5B941
100
AcDbEntity
  8
AM_5
100
AcDbLine
 10
140.0
 20
130.2999999999999
 30
0.0
 11
140.0
 21
111.3000000000001
 31
0.0
  0
INSERT
  5
AA968
330
5B941
100
AcDbEntity
  8
AM_5
100
AcDbBlockReference
  2
_Dot
 10
140.0
 20
131.2999999999999
 30
0.0
 50
90.0
  0
INSERT
  5
AA969
330
5B941
100
AcDbEntity
  8
AM_5
100
AcDbBlockReference
  2
_Dot
 10
140.0
 20
110.3000000000001
 30
0.0
 50
270.0
  0
MTEXT
  5
AA96A
330
5B941
100
AcDbEntity
  8
AM_5
 62
     2
100
AcDbMText
 10
136.8999999999999
 20
120.8000000000001
 30
0.0
 40
3.200000000000001
 41
0.0
 71
     5
 72
     1
  1
21
 11
0.0000000000000001
 21
1.0
 31
0.0
 73
     1
 44
1.0
1001
ACAD
1000
MTEXTBEGIN
1070
    73
1070
     1
1070
    44
1040
1.0
1070
    74
1070
     0
1000
MTEXTEND
  0
POINT
  5
AA96B
330
5B941
100
AcDbEntity
  8
Defpoints
 62
     0
100
AcDbPoint
 10
145.9
 20
131.2999999999999
 30
0.0
  0
POINT
  5
AA96C
330
5B941
100
AcDbEntity
  8
Defpoints
 62
     0
100
AcDbPoint
 10
145.0
 20
110.3000000000001
 30
0.0
  0
POINT
  5
AA96D
330
5B941
100
AcDbEntity
  8
Defpoints
 62
     0
100
AcDbPoint
 10
140.0
 20
110.3000000000001
 30
0.0
  0
ENDBLK
  5
5B94C
330
5B941
100
AcDbEntity
  8
0
100
AcDbBlockEnd
  0
BLOCK
  5
5B957
330
5B94D
100
AcDbEntity
  8
0
100
AcDbBlockBegin
  2
*D20
 70
     1
 10
0.0
 20
0.0
 30
0.0
  3
*D20
  1

  0
LINE
  5
AA96E
330
5B94D
100
AcDbEntity
  8
AM_5
100
AcDbLine
 10
160.0
 20
137.3000000000001
 30
0.0
 11
171.0
 21
137.3000000000001
 31
0.0
  0
LINE
  5
AA96F
330
5B94D
100
AcDbEntity
  8
AM_5
100
AcDbLine
 10
160.0
 20
83.30000000000017
 30
0.0
 11
171.0
 21
83.30000000000017
 31
0.0
  0
LINE
  5
AA970
330
5B94D
100
AcDbEntity
  8
AM_5
100
AcDbLine
 10
170.0
 20
136.3000000000001
 30
0.0
 11
170.0
 21
84.30000000000017
 31
0.0
  0
INSERT
  5
AA971
330
5B94D
100
AcDbEntity
  8
AM_5
100
AcDbBlockReference
  2
_Dot
 10
170.0
 20
137.3000000000001
 30
0.0
 50
90.0
  0
INSERT
  5
AA972
330
5B94D
100
AcDbEntity
  8
AM_5
100
AcDbBlockReference
  2
_Dot
 10
170.0
 20
83.30000000000017
 30
0.0
 50
270.0
  0
MTEXT
  5
AA973
330
5B94D
100
AcDbEntity
  8
AM_5
 62
     2
100
AcDbMText
 10
166.9
 20
110.3000000000002
 30
0.0
 40
3.200000000000001
 41
0.0
 71
     5
 72
     1
  1
54
 11
0.0000000000000001
 21
1.0
 31
0.0
 73
     1
 44
1.0
1001
ACAD
1000
MTEXTBEGIN
1070
    73
1070
     1
1070
    44
1040
1.0
1070
    74
1070
     0
1000
MTEXTEND
  0
POINT
  5
AA974
330
5B94D
100
AcDbEntity
  8
Defpoints
 62
     0
100
AcDbPoint
 10
159.0
 20
137.3000000000001
 30
0.0
  0
POINT
  5
AA975
330
5B94D
100
AcDbEntity
  8
Defpoints
 62
     0
100
AcDbPoint
 10
159.0
 20
83.30000000000017
 30
0.0
  0
POINT
  5
AA976
330
5B94D
100
AcDbEntity
  8
Defpoints
 62
     0
100
AcDbPoint
 10
170.0
 20
83.30000000000017
 30
0.0
  0
ENDBLK
  5
5B958
330
5B94D
100
AcDbEntity
  8
0
100
AcDbBlockEnd
  0
BLOCK
  5
5B963
330
5B959
100
AcDbEntity
  8
0
100
AcDbBlockBegin
  2
*D21
 70
     1
 10
0.0
 20
0.0
 30
0.0
  3
*D21
  1

  0
LINE
  5
AA977
330
5B959
100
AcDbEntity
  8
AM_5
100
AcDbLine
 10
160.0
 20
137.3000000000001
 30
0.0
 11
160.0
 21
146.2999999999999
 31
0.0
  0
LINE
  5
AA978
330
5B959
100
AcDbEntity
  8
AM_5
100
AcDbLine
 10
148.0
 20
137.3000000000001
 30
0.0
 11
148.0
 21
146.2999999999999
 31
0.0
  0
LINE
  5
AA979
330
5B959
100
AcDbEntity
  8
AM_5
100
AcDbLine
 10
159.0
 20
145.2999999999999
 30
0.0
 11
149.0
 21
145.2999999999999
 31
0.0
  0
INSERT
  5
AA97A
330
5B959
100
AcDbEntity
  8
AM_5
100
AcDbBlockReference
  2
_Dot
 10
160.0
 20
145.2999999999999
 30
0.0
  0
INSERT
  5
AA97B
330
5B959
100
AcDbEntity
  8
AM_5
100
AcDbBlockReference
  2
_Dot
 10
148.0
 20
145.2999999999999
 30
0.0
 50
180.0
  0
MTEXT
  5
AA97C
330
5B959
100
AcDbEntity
  8
AM_5
 62
     2
100
AcDbMText
 10
154.0
 20
148.3999999999999
 30
0.0
 40
3.200000000000001
 41
0.0
 71
     5
 72
     1
  1
12
 73
     1
 44
1.0
1001
ACAD
1000
MTEXTBEGIN
1070
    73
1070
     1
1070
    44
1040
1.0
1070
    74
1070
     0
1000
MTEXTEND
  0
POINT
  5
AA97D
330
5B959
100
AcDbEntity
  8
Defpoints
 62
     0
100
AcDbPoint
 10
160.0
 20
136.3000000000001
 30
0.0
  0
POINT
  5
AA97E
330
5B959
100
AcDbEntity
  8
Defpoints
 62
     0
100
AcDbPoint
 10
148.0
 20
136.3000000000001
 30
0.0
  0
POINT
  5
AA97F
330
5B959
100
AcDbEntity
  8
Defpoints
 62
     0
100
AcDbPoint
 10
148.0
 20
145.2999999999999
 30
0.0
  0
ENDBLK
  5
5B964
330
5B959
100
AcDbEntity
  8
0
100
AcDbBlockEnd
  0
BLOCK
  5
5B971
330
5B965
100
AcDbEntity
  8
0
100
AcDbBlockBegin
  2
*D22
 70
     1
 10
0.0
 20
0.0
 30
0.0
  3
*D22
  1

  0
LINE
  5
AA980
330
5B965
100
AcDbEntity
  8
AM_5
100
AcDbLine
 10
161.0
 20
67.29999999999994
 30
0.0
 11
171.0
 21
67.29999999999994
 31
0.0
  0
LINE
  5
AA981
330
5B965
100
AcDbEntity
  8
AM_5
100
AcDbLine
 10
160.6999999999999
 20
63.29999999999995
 30
0.0
 11
171.0
 21
63.29999999999995
 31
0.0
  0
LINE
  5
AA982
330
5B965
100
AcDbEntity
  8
AM_5
100
AcDbLine
 10
170.0
 20
68.29999999999994
 30
0.0
 11
170.0
 21
69.29999999999994
 31
0.0
  0
LINE
  5
AA983
330
5B965
100
AcDbEntity
  8
AM_5
100
AcDbLine
 10
170.0
 20
62.29999999999995
 30
0.0
 11
170.0
 21
61.29999999999995
 31
0.0
  0
LINE
  5
AA984
330
5B965
100
AcDbEntity
  8
AM_5
100
AcDbLine
 10
170.0
 20
67.29999999999994
 30
0.0
 11
170.0
 21
63.29999999999995
 31
0.0
  0
INSERT
  5
AA985
330
5B965
100
AcDbEntity
  8
AM_5
100
AcDbBlockReference
  2
_Dot
 10
170.0
 20
67.29999999999994
 30
0.0
 50
270.0
  0
INSERT
  5
AA986
330
5B965
100
AcDbEntity
  8
AM_5
100
AcDbBlockReference
  2
_Dot
 10
170.0
 20
63.29999999999995
 30
0.0
 50
90.0
  0
MTEXT
  5
AA987
330
5B965
100
AcDbEntity
  8
AM_5
 62
     2
100
AcDbMText
 10
166.9
 20
65.29999999999997
 30
0.0
 40
3.200000000000001
 41
0.0
 71
     5
 72
     1
  1
4
 11
0.0000000000000001
 21
1.0
 31
0.0
 73
     1
 44
1.0
1001
ACAD
1000
MTEXTBEGIN
1070
    73
1070
     1
1070
    44
1040
1.0
1070
    74
1070
     0
1000
MTEXTEND
  0
POINT
  5
AA988
330
5B965
100
AcDbEntity
  8
Defpoints
 62
     0
100
AcDbPoint
 10
160.0
 20
67.29999999999995
 30
0.0
  0
POINT
  5
AA989
330
5B965
100
AcDbEntity
  8
Defpoints
 62
     0
100
AcDbPoint
 10
159.6999999999999
 20
63.29999999999995
 30
0.0
  0
POINT
  5
AA98A
330
5B965
100
AcDbEntity
  8
Defpoints
 62
     0
100
AcDbPoint
 10
170.0
 20
63.29999999999995
 30
0.0
  0
ENDBLK
  5
5B972
330
5B965
100
AcDbEntity
  8
0
100
AcDbBlockEnd
  0
BLOCK
  5
5B9E2
330
5B9D8
100
AcDbEntity
  8
0
100
AcDbBlockBegin
  2
*D23
 70
     1
 10
0.0
 20
0.0
 30
0.0
  3
*D23
  1

  0
LINE
  5
AA98B
330
5B9D8
100
AcDbEntity
  8
AM_5
100
AcDbLine
 10
144.9
 20
89.3000000000004
 30
0.0
 11
139.0
 21
89.3000000000004
 31
0.0
  0
LINE
  5
AA98C
330
5B9D8
100
AcDbEntity
  8
AM_5
100
AcDbLine
 10
144.0
 20
110.3000000000001
 30
0.0
 11
139.0
 21
110.3000000000001
 31
0.0
  0
LINE
  5
AA98D
330
5B9D8
100
AcDbEntity
  8
AM_5
100
AcDbLine
 10
140.0
 20
90.30000000000041
 30
0.0
 11
140.0
 21
109.3000000000001
 31
0.0
  0
INSERT
  5
AA98E
330
5B9D8
100
AcDbEntity
  8
AM_5
100
AcDbBlockReference
  2
_Dot
 10
140.0
 20
89.3000000000004
 30
0.0
 50
270.0
  0
INSERT
  5
AA98F
330
5B9D8
100
AcDbEntity
  8
AM_5
100
AcDbBlockReference
  2
_Dot
 10
140.0
 20
110.3000000000001
 30
0.0
 50
90.0
  0
MTEXT
  5
AA990
330
5B9D8
100
AcDbEntity
  8
AM_5
 62
     2
100
AcDbMText
 10
136.8999999999999
 20
99.80000000000032
 30
0.0
 40
3.200000000000001
 41
0.0
 71
     5
 72
     1
  1
21
 11
0.0000000000000001
 21
1.0
 31
0.0
 73
     1
 44
1.0
1001
ACAD
1000
MTEXTBEGIN
1070
    73
1070
     1
1070
    44
1040
1.0
1070
    74
1070
     0
1000
MTEXTEND
  0
POINT
  5
AA991
330
5B9D8
100
AcDbEntity
  8
Defpoints
 62
     0
100
AcDbPoint
 10
145.9
 20
89.3000000000004
 30
0.0
  0
POINT
  5
AA992
330
5B9D8
100
AcDbEntity
  8
Defpoints
 62
     0
100
AcDbPoint
 10
145.0
 20
110.3000000000001
 30
0.0
  0
POINT
  5
AA993
330
5B9D8
100
AcDbEntity
  8
Defpoints
 62
     0
100
AcDbPoint
 10
140.0
 20
110.3000000000001
 30
0.0
  0
ENDBLK
  5
5B9E3
330
5B9D8
100
AcDbEntity
  8
0
100
AcDbBlockEnd
  0
BLOCK
  5
AA9F5
330
AA9EE
100
AcDbEntity
  8
0
100
AcDbBlockBegin
  2
*S24
 70
     1
 10
0.0
 20
0.0
 30
0.0
  3
*S24
  1

  0
LINE
  5
AA9EF
330
AA9EE
100
AcDbEntity
  8
AM_5
 62
     3
100
AcDbLine
 10
290.8079999999999
 20
155.499979755247
 30
0.0
 11
262.1999999999999
 21
155.499979755247
 31
0.0
  0
LINE
  5
AA9F0
330
AA9EE
100
AcDbEntity
  8
AM_5
 62
     3
100
AcDbLine
 10
262.1999999999999
 20
155.499979755247
 30
0.0
 11
253.2910866424285
 21
149.996410533028
 31
0.0
  0
LINE
  5
AA9F1
330
AA9EE
100
AcDbEntity
  8
AM_5
  6
Continuous
 62
     3
100
AcDbLine
 10
253.2910866424285
 20
149.996410533028
 30
0.0
 11
251.5895764772127
 21
148.9452858222219
 31
0.0
  0
LINE
  5
AA9F2
330
AA9EE
100
AcDbEntity
  8
AM_5
  6
Continuous
 62
     3
100
AcDbLine
 10
253.009438627579
 20
150.4523288035743
 30
0.0
 11
251.5895764772127
 21
148.9452858222219
 31
0.0
  0
LINE
  5
AA9F3
330
AA9EE
100
AcDbEntity
  8
AM_5
  6
Continuous
 62
     3
100
AcDbLine
 10
251.5895764772127
 20
148.9452858222219
 30
0.0
 11
253.572734657278
 21
149.5404922624817
 31
0.0
  0
MTEXT
  5
AA9F4
330
AA9EE
100
AcDbEntity
  8
AM_5
 62
     2
100
AcDbMText
 10
262.1999999999999
 20
157.099979755247
 30
0.0
 40
3.2
 41
0.0
 71
     7
 72
     5
  1
3-%%c5.5×10スロット
 73
     1
 44
1.0
1001
ACAD
1000
MTEXTBEGIN
1070
    73
1070
     1
1070
    44
1040
1.0
1070
    74
1070
     0
1000
MTEXTEND
  0
ENDBLK
  5
AA9F6
330
AA9EE
100
AcDbEntity
  8
0
100
AcDbBlockEnd
  0
BLOCK
  5
AA9FF
330
AA9F8
100
AcDbEntity
  8
0
100
AcDbBlockBegin
  2
*S25
 70
     1
 10
0.0
 20
0.0
 30
0.0
  3
*S25
  1

  0
LINE
  5
AA9F9
330
AA9F8
100
AcDbEntity
  8
AM_5
 62
     3
100
AcDbLine
 10
191.4186666666666
 20
94.50000000000001
 30
0.0
 11
218.0624976743877
 21
94.50000000000001
 31
0.0
  0
LINE
  5
AA9FA
330
AA9F8
100
AcDbEntity
  8
AM_5
 62
     3
100
AcDbLine
 10
218.0624976743877
 20
94.50000000000001
 30
0.0
 11
224.7565887110601
 21
102.9334980477073
 31
0.0
  0
LINE
  5
AA9FB
330
AA9F8
100
AcDbEntity
  8
AM_5
  6
Continuous
 62
     3
100
AcDbLine
 10
224.7565887110601
 20
102.9334980477073
 30
0.0
 11
226.0
 21
104.5
 31
0.0
  0
LINE
  5
AA9FC
330
AA9F8
100
AcDbEntity
  8
AM_5
  6
Continuous
 62
     3
100
AcDbLine
 10
225.1763316403103
 20
102.600326999999
 30
0.0
 11
226.0
 21
104.5
 31
0.0
  0
LINE
  5
AA9FD
330
AA9F8
100
AcDbEntity
  8
AM_5
  6
Continuous
 62
     3
100
AcDbLine
 10
226.0
 20
104.5
 30
0.0
 11
224.3368457818098
 21
103.2666690954156
 31
0.0
  0
MTEXT
  5
AA9FE
330
AA9F8
100
AcDbEntity
  8
AM_5
 62
     2
100
AcDbMText
 10
191.4186666666666
 20
96.10000000000015
 30
0.0
 40
3.2
 41
0.0
 71
     7
 72
     5
  1
3-%%c5.4×10.5サラ
 73
     1
 44
1.0
1001
ACAD
1000
MTEXTBEGIN
1070
    73
1070
     1
1070
    44
1040
1.0
1070
    74
1070
     0
1000
MTEXTEND
  0
ENDBLK
  5
AAA00
330
AA9F8
100
AcDbEntity
  8
0
100
AcDbBlockEnd
  0
BLOCK
  5
AAA09
330
AAA02
100
AcDbEntity
  8
0
100
AcDbBlockBegin
  2
*S26
 70
     1
 10
0.0
 20
0.0
 30
0.0
  3
*S26
  1

  0
LINE
  5
AAA03
330
AAA02
100
AcDbEntity
  8
AM_5
 62
     3
100
AcDbLine
 10
117.3561689922789
 20
79.29999999999997
 30
0.0
 11
144.0
 21
79.29999999999996
 31
0.0
  0
LINE
  5
AAA04
330
AAA02
100
AcDbEntity
  8
AM_5
 62
     3
100
AcDbLine
 10
144.0
 20
79.29999999999996
 30
0.0
 11
148.9763379734819
 21
84.27846782898106
 31
0.0
  0
LINE
  5
AAA05
330
AAA02
100
AcDbEntity
  8
AM_5
  6
Continuous
 62
     3
100
AcDbLine
 10
148.9763379734819
 20
84.27846782898106
 30
0.0
 11
150.3902489289792
 21
85.69298393349345
 31
0.0
  0
LINE
  5
AAA06
330
AAA02
100
AcDbEntity
  8
AM_5
  6
Continuous
 62
     3
100
AcDbLine
 10
149.355356417928
 20
83.89961153372345
 30
0.0
 11
150.3902489289792
 21
85.69298393349345
 31
0.0
  0
LINE
  5
AAA07
330
AAA02
100
AcDbEntity
  8
AM_5
  6
Continuous
 62
     3
100
AcDbLine
 10
150.3902489289792
 20
85.69298393349345
 30
0.0
 11
148.5973195290359
 21
84.65732412423866
 31
0.0
  0
MTEXT
  5
AAA08
330
AAA02
100
AcDbEntity
  8
AM_5
 62
     2
100
AcDbMText
 10
117.3561689922789
 20
80.9000000000001
 30
0.0
 40
3.2
 41
0.0
 71
     7
 72
     5
  1
3-%%c5.4×10.5サラ
 73
     1
 44
1.0
1001
ACAD
1000
MTEXTBEGIN
1070
    73
1070
     1
1070
    44
1040
1.0
1070
    74
1070
     0
1000
MTEXTEND
  0
ENDBLK
  5
AAA0A
330
AAA02
100
AcDbEntity
  8
0
100
AcDbBlockEnd
  0
ENDSEC
  0
SECTION
  2
ENTITIES
  0
LWPOLYLINE
  5
5B63B
330
1F
100
AcDbEntity
  8
waku
100
AcDbPolyline
 90
        4
 70
     1
 43
0.0
 10
11.5
 20
288.5
 10
408.4999999999999
 20
288.5
 10
408.4999999999999
 20
8.5
 10
11.5
 20
8.5
1001
GENIUS_GENREC_14
1002
{
1000
PYDIR
1011
11.5
1021
8.5
1031
0.0
1002
}
1002
{
1000
PXDIR
1011
408.4999999999999
1021
288.5
1031
0.0
1002
}
1002
{
1000
PORI
1011
11.5
1021
288.5
1031
0.0
1002
}
1002
{
1000
PINS
1011
11.5
1021
288.5
1031
0.0
1002
}
1002
{
1000
PINS2
1011
408.4999999999999
1021
8.5
1031
0.0
1002
}
1002
{
1000
C
1070
     1
1002
}
1001
GENIUS_GENODEF_13
1002
{
1000
HIER
1070
     0
1002
}
1002
{
1000
MANEDIT
1070
     0
1002
}
1002
{
1000
NOSEL
1070
     0
1002
}
1002
{
1000
BEHIND
1070
     0
1002
}
1002
{
1000
OTHER
1070
     0
1002
}
1002
{
1000
REACTOR
1002
}
1001
GENIUS_GENOBJ-N-REC_13
1002
{
1000
OWNER
1000
GEN
1002
}
  0
LWPOLYLINE
  5
5B63C
330
1F
100
AcDbEntity
  8
size
100
AcDbPolyline
 90
        4
 70
     1
 43
0.0
 10
0.0
 20
297.0
 10
420.0
 20
297.0
 10
420.0
 20
0.0
 10
0.0
 20
0.0
1001
GENIUS_GENREC_14
1002
{
1000
PYDIR
1011
0.0
1021
0.0
1031
0.0
1002
}
1002
{
1000
PXDIR
1011
420.0
1021
297.0
1031
0.0
1002
}
1002
{
1000
PORI
1011
0.0
1021
297.0
1031
0.0
1002
}
1002
{
1000
PINS
1011
0.0
1021
297.0
1031
0.0
1002
}
1002
{
1000
PINS2
1011
420.0
1021
0.0
1031
0.0
1002
}
1002
{
1000
C
1070
     1
1002
}
1001
GENIUS_GENOBJ-N-REC_13
1002
{
1000
OWNER
1000
GEN
1002
}
1001
GENIUS_GENODEF_13
1002
{
1000
HIER
1070
     0
1002
}
1002
{
1000
MANEDIT
1070
     0
1002
}
1002
{
1000
NOSEL
1070
     0
1002
}
1002
{
1000
BEHIND
1070
     0
1002
}
1002
{
1000
OTHER
1070
     0
1002
}
1002
{
1000
REACTOR
1002
}
  0
LINE
  5
5B63D
330
1F
100
AcDbEntity
  8
AM_0
100
AcDbLine
 10
11.5
 20
288.5
 30
0.0
 11
11.49999999999954
 21
232.5
 31
0.0
  0
LINE
  5
5B63E
330
1F
100
AcDbEntity
  8
AM_0
100
AcDbLine
 10
11.5
 20
288.5
 30
0.0
 11
101.5
 21
288.5
 31
0.0
  0
LINE
  5
5B63F
330
1F
100
AcDbEntity
  8
AM_0
100
AcDbLine
 10
101.5
 20
288.5
 30
0.0
 11
101.4999999999992
 21
208.5
 31
0.0
  0
LINE
  5
5B640
330
1F
100
AcDbEntity
  8
AM_0
100
AcDbLine
 10
31.49999999999807
 20
208.5
 30
0.0
 11
31.5
 21
288.5
 31
0.0
  0
LINE
  5
5B641
330
1F
100
AcDbEntity
  8
AM_5
100
AcDbLine
 10
11.5
 20
280.5
 30
0.0
 11
101.5
 21
280.5
 31
0.0
  0
LINE
  5
5B642
330
1F
100
AcDbEntity
  8
AM_5
100
AcDbLine
 10
11.5
 20
272.5
 30
0.0
 11
101.5
 21
272.5
 31
0.0
  0
LINE
  5
5B643
330
1F
100
AcDbEntity
  8
AM_5
100
AcDbLine
 10
31.5
 20
256.5
 30
0.0
 11
101.5000000000009
 21
256.5
 31
0.0
  0
LINE
  5
5B644
330
1F
100
AcDbEntity
  8
AM_5
100
AcDbLine
 10
11.5000000000017
 20
224.5
 30
0.0
 11
101.5000000000017
 21
224.5
 31
0.0
  0
MTEXT
  5
5B645
330
1F
100
AcDbEntity
  8
AM_6
100
AcDbMText
 10
21.5
 20
284.5
 30
0.0
 40
3.2
 41
20.0
 71
     5
 72
     5
  1
品　名
 73
     1
 44
1.0
1001
ACAD
1000
MTEXTBEGIN
1070
    73
1070
     1
1070
    44
1040
1.0
1070
    74
1070
     0
1000
MTEXTEND
  0
MTEXT
  5
5B646
330
1F
100
AcDbEntity
  8
AM_6
100
AcDbMText
 10
31.5
 20
284.5
 30
0.0
 40
3.2
 41
70.0
 71
     4
 72
     5
  1
　コーナーヒンジ
 73
     1
 44
1.0
1001
ACAD
1000
MTEXTBEGIN
1070
    73
1070
     1
1070
    44
1040
1.0
1070
    74
1070
     0
1000
MTEXTEND
  0
MTEXT
  5
5B647
330
1F
100
AcDbEntity
  8
AM_6
100
AcDbMText
 10
21.5
 20
276.5
 30
0.0
 40
3.2
 41
20.0
 71
     5
 72
     5
  1
品　番
 73
     1
 44
1.0
1001
ACAD
1000
MTEXTBEGIN
1070
    73
1070
     1
1070
    44
1040
1.0
1070
    74
1070
     0
1000
MTEXTEND
  0
MTEXT
  5
5B648
330
1F
100
AcDbEntity
  8
AM_6
100
AcDbMText
 10
31.5
 20
276.5
 30
0.0
 40
3.2
 41
70.0
 71
     4
 72
     5
  1
　EFH-100（S）
 73
     1
 44
1.0
1001
ACAD
1000
MTEXTBEGIN
1070
    73
1070
     1
1070
    44
1040
1.0
1070
    74
1070
     0
1000
MTEXTEND
  0
MTEXT
  5
5B649
330
1F
100
AcDbEntity
  8
AM_6
100
AcDbMText
 10
21.5
 20
268.5
 30
0.0
 40
3.2
 41
20.0
 71
     5
 72
     5
  1
材　質
 73
     1
 44
1.0
1001
ACAD
1000
MTEXTBEGIN
1070
    73
1070
     1
1070
    44
1040
1.0
1070
    74
1070
     0
1000
MTEXTEND
  0
MTEXT
  5
5B64A
330
1F
100
AcDbEntity
  8
AM_6
100
AcDbMText
 10
31.5
 20
268.5
 30
0.0
 40
3.2
 41
70.0
 71
     4
 72
     5
  1
　本体 ： 亜鉛ダイキャスト　（EFH-100）
 73
     1
 44
1.0
1001
ACAD
1000
MTEXTBEGIN
1070
    73
1070
     1
1070
    44
1040
1.0
1070
    74
1070
     0
1000
MTEXTEND
  0
MTEXT
  5
5B64B
330
1F
100
AcDbEntity
  8
AM_6
100
AcDbMText
 10
21.5000000000017
 20
220.5
 30
0.0
 40
3.2
 41
20.0
 71
     5
 72
     5
  1
備　考
 73
     1
 44
1.0
1001
ACAD
1000
MTEXTBEGIN
1070
    73
1070
     1
1070
    44
1040
1.0
1070
    74
1070
     0
1000
MTEXTEND
  0
MTEXT
  5
5B64C
330
1F
100
AcDbEntity
  8
AM_6
100
AcDbMText
 10
31.50000000000034
 20
212.5
 30
0.0
 40
3.2
 41
70.0
 71
     4
 72
     5
  1
　推奨取付ネジ：M5×D10 サラ小ネジ
 73
     1
 44
1.0
1001
ACAD
1000
MTEXTBEGIN
1070
    73
1070
     1
1070
    44
1040
1.0
1070
    74
1070
     0
1000
MTEXTEND
  0
LINE
  5
5B64D
330
1F
100
AcDbEntity
  8
AM_5
100
AcDbLine
 10
11.50000000000091
 20
248.5
 30
0.0
 11
101.5000000000009
 21
248.5
 31
0.0
  0
MTEXT
  5
5B64E
330
1F
100
AcDbEntity
  8
AM_6
100
AcDbMText
 10
31.50000000000046
 20
252.5
 30
0.0
 40
3.2
 41
70.0
 71
     4
 72
     5
  1
　カバー ： ステンレス
 73
     1
 44
1.0
1001
ACAD
1000
MTEXTBEGIN
1070
    73
1070
     1
1070
    44
1040
1.0
1070
    74
1070
     0
1000
MTEXTEND
  0
LINE
  5
5B64F
330
1F
100
AcDbEntity
  8
AM_5
100
AcDbLine
 10
31.49999999999977
 20
232.5
 30
0.0
 11
101.5000000000017
 21
232.5
 31
0.0
  0
MTEXT
  5
5B650
330
1F
100
AcDbEntity
  8
AM_6
100
AcDbMText
 10
21.50000000000091
 20
244.5
 30
0.0
 40
3.2
 41
20.0
 71
     5
 72
     5
  1
仕上げ
 73
     1
 44
1.0
1001
ACAD
1000
MTEXTBEGIN
1070
    73
1070
     1
1070
    44
1040
1.0
1070
    74
1070
     0
1000
MTEXTEND
  0
MTEXT
  5
5B651
330
1F
100
AcDbEntity
  8
AM_6
100
AcDbMText
 10
31.50000000000046
 20
244.5
 30
0.0
 40
3.2
 41
70.0
 71
     4
 72
     5
  1
　本体 ： クロームメッキ　（EFH-100）
 73
     1
 44
1.0
1001
ACAD
1000
MTEXTBEGIN
1070
    73
1070
     1
1070
    44
1040
1.0
1070
    74
1070
     0
1000
MTEXTEND
  0
MTEXT
  5
5B652
330
1F
100
AcDbEntity
  8
AM_6
100
AcDbMText
 10
31.50000000000046
 20
228.5
 30
0.0
 40
3.2
 41
70.0
 71
     4
 72
     5
  1
　カバー ： 鏡面
 73
     1
 44
1.0
1001
ACAD
1000
MTEXTBEGIN
1070
    73
1070
     1
1070
    44
1040
1.0
1070
    74
1070
     0
1000
MTEXTEND
  0
LINE
  5
5B653
330
1F
100
AcDbEntity
  8
AM_0
100
AcDbLine
 10
101.5000000000004
 20
208.5
 30
0.0
 11
11.50000000000045
 21
208.5
 31
0.0
  0
MTEXT
  5
5B654
330
1F
100
AcDbEntity
  8
AM_6
100
AcDbMText
 10
31.50000000000046
 20
220.5
 30
0.0
 40
3.2
 41
70.0
 71
     4
 72
     5
  1
　左右兼用型
 73
     1
 44
1.0
1001
ACAD
1000
MTEXTBEGIN
1070
    73
1070
     1
1070
    44
1040
1.0
1070
    74
1070
     0
1000
MTEXTEND
  0
MTEXT
  5
5B655
330
1F
100
AcDbEntity
  8
AM_6
100
AcDbMText
 10
31.5
 20
260.5
 30
0.0
 40
3.2
 41
70.0
 71
     4
 72
     5
  1
　        ステンレス　（EFH-100S）
 73
     1
 44
1.0
1001
ACAD
1000
MTEXTBEGIN
1070
    73
1070
     1
1070
    44
1040
1.0
1070
    74
1070
     0
1000
MTEXTEND
  0
MTEXT
  5
5B656
330
1F
100
AcDbEntity
  8
AM_6
100
AcDbMText
 10
31.50000000000046
 20
236.5
 30
0.0
 40
3.2
 41
70.0
 71
     4
 72
     5
  1
　　　　　鏡面　（EFH-100S）
 73
     1
 44
1.0
1001
ACAD
1000
MTEXTBEGIN
1070
    73
1070
     1
1070
    44
1040
1.0
1070
    74
1070
     0
1000
MTEXTEND
  0
LINE
  5
5B657
330
1F
100
AcDbEntity
  8
AM_5
100
AcDbLine
 10
101.4999999999983
 20
216.5
 30
0.0
 11
31.49999999999613
 21
216.5
 31
0.0
  0
LINE
  5
5B659
330
1F
100
AcDbEntity
  8
AM_7
370
     9
100
AcDbLine
 10
222.9999999999999
 20
126.5
 30
0.0
 11
261.0
 21
126.5
 31
0.0
1001
GENIUS_GENOBJ-N-CEN_13
1002
{
1000
OWNER
1000
GEN
1002
}
1001
GENIUS_GENODEF_13
1002
{
1000
HIER
1070
     0
1002
}
1002
{
1000
MANEDIT
1070
     0
1002
}
1002
{
1000
NOSEL
1070
     0
1002
}
1002
{
1000
BEHIND
1070
     0
1002
}
1002
{
1000
OTHER
1070
     0
1002
}
1002
{
1000
REACTOR
1002
}
1001
GENIUS_GENCEN_19
1002
{
1040
3.0
1002
}
  0
LINE
  5
5B65A
102
{ACAD_REACTORS
330
5B6EC
102
}
330
1F
100
AcDbEntity
  8
AM_7
 48
0.5
370
     9
100
AcDbLine
 10
223.4999999999999
 20
148.5
 30
0.0
 11
241.2093790725463
 21
148.5
 31
0.0
1001
GENIUS_GENOBJ-N-CEN_13
1002
{
1000
OWNER
1000
GEN
1002
}
1001
GENIUS_GENODEF_13
1002
{
1000
HIER
1070
     0
1002
}
1002
{
1000
MANEDIT
1070
     0
1002
}
1002
{
1000
NOSEL
1070
     0
1002
}
1002
{
1000
BEHIND
1070
     0
1002
}
1002
{
1000
OTHER
1070
     0
1002
}
1002
{
1000
REACTOR
1002
}
1001
GENIUS_GENCEN_19
1002
{
1040
3.0
1002
}
  0
LINE
  5
5B65B
330
1F
100
AcDbEntity
  8
AM_7
 48
0.5
370
     9
100
AcDbLine
 10
223.4999999999999
 20
104.5
 30
0.0
 11
241.2093790725463
 21
104.5
 31
0.0
1001
GENIUS_GENOBJ-N-CEN_13
1002
{
1000
OWNER
1000
GEN
1002
}
1001
GENIUS_GENODEF_13
1002
{
1000
HIER
1070
     0
1002
}
1002
{
1000
MANEDIT
1070
     0
1002
}
1002
{
1000
NOSEL
1070
     0
1002
}
1002
{
1000
BEHIND
1070
     0
1002
}
1002
{
1000
OTHER
1070
     0
1002
}
1002
{
1000
REACTOR
1002
}
1001
GENIUS_GENCEN_19
1002
{
1040
3.0
1002
}
  0
LINE
  5
5B65C
102
{ACAD_REACTORS
330
5B6A6
102
}
330
1F
100
AcDbEntity
  8
AM_7
370
     9
100
AcDbLine
 10
223.0000000000001
 20
228.0
 30
0.0
 11
261.0
 21
228.0
 31
0.0
1001
GENIUS_GENODEF_13
1002
{
1000
HIER
1070
     0
1002
}
1002
{
1000
MANEDIT
1070
     0
1002
}
1002
{
1000
NOSEL
1070
     0
1002
}
1002
{
1000
BEHIND
1070
     0
1002
}
1002
{
1000
OTHER
1070
     0
1002
}
1002
{
1000
REACTOR
1002
}
1001
GENIUS_GENOBJ-N-CEN_13
1002
{
1000
OWNER
1000
GEN
1002
}
1001
GENIUS_GENCEN_19
1002
{
1040
3.0
1002
}
  0
LINE
  5
5B65D
330
1F
100
AcDbEntity
  8
AM_7
 48
0.5
370
     9
100
AcDbLine
 10
249.0000000000001
 20
221.7999999999999
 30
0.0
 11
249.0000000000001
 21
234.2
 31
0.0
1001
GENIUS_GENODEF_13
1002
{
1000
HIER
1070
     0
1002
}
1002
{
1000
MANEDIT
1070
     0
1002
}
1002
{
1000
NOSEL
1070
     0
1002
}
1002
{
1000
BEHIND
1070
     0
1002
}
1002
{
1000
OTHER
1070
     0
1002
}
1002
{
1000
REACTOR
1002
}
1001
GENIUS_GENOBJ-N-CEN_13
1002
{
1000
OWNER
1000
GEN
1002
}
1001
GENIUS_GENCEN_19
1002
{
1040
3.0
1002
}
  0
LINE
  5
5B65E
102
{ACAD_REACTORS
330
5B6F6
102
}
330
1F
100
AcDbEntity
  8
本体（枠）
100
AcDbLine
 10
316.5357864376272
 20
190.0
 30
0.0
 11
307.8642135623733
 21
190.0
 31
0.0
  0
ARC
  5
5B65F
330
1F
100
AcDbEntity
  8
本体（枠）
100
AcDbCircle
 10
307.8642135623733
 20
189.0
 30
0.0
 40
1.0
100
AcDbArc
 50
90.0
 51
135.0000000000046
  0
LINE
  5
5B660
330
1F
100
AcDbEntity
  8
本体（枠）
100
AcDbLine
 10
307.1571067811867
 20
189.7071067811866
 30
0.0
 11
303.7428932188136
 21
186.2928932188135
 31
0.0
  0
ARC
  5
5B661
330
1F
100
AcDbEntity
  8
本体（枠）
100
AcDbCircle
 10
304.4500000000001
 20
185.5857864376269
 30
0.0
 40
1.0
100
AcDbArc
 50
135.0000000000046
 51
180.0
  0
ARC
  5
5B662
330
1F
100
AcDbEntity
  8
本体（枠）
100
AcDbCircle
 10
303.9500000000003
 20
161.5
 30
0.0
 40
0.5
100
AcDbArc
 50
180.0
 51
270.0
  0
LINE
  5
5B663
330
1F
100
AcDbEntity
  8
本体（枠）
100
AcDbLine
 10
303.4499999999999
 20
185.5857864376269
 30
0.0
 11
303.4499999999999
 21
159.8996710383926
 31
0.0
  0
LINE
  5
5B664
330
1F
100
AcDbEntity
  8
本体（枠）
100
AcDbLine
 10
303.45
 20
93.10032896160761
 30
0.0
 11
303.4500000000002
 21
67.4142135623731
 31
0.0
  0
ARC
  5
5B665
330
1F
100
AcDbEntity
  8
本体（枠）
100
AcDbCircle
 10
303.9500000000002
 20
91.5
 30
0.0
 40
0.5
100
AcDbArc
 50
90.0
 51
180.0
  0
LINE
  5
5B666
330
1F
100
AcDbEntity
  8
本体（枠）
100
AcDbLine
 10
303.7428932188136
 20
66.70710678118644
 30
0.0
 11
307.1571067811867
 21
63.29289321881356
 31
0.0
  0
ARC
  5
5B667
330
1F
100
AcDbEntity
  8
本体（枠）
100
AcDbCircle
 10
304.4500000000001
 20
67.4142135623731
 30
0.0
 40
1.0
100
AcDbArc
 50
180.0
 51
224.9999999999954
  0
LINE
  5
5B668
102
{ACAD_REACTORS
330
5B6F6
102
}
330
1F
100
AcDbEntity
  8
本体（枠）
100
AcDbLine
 10
307.8642135623733
 20
63.0
 30
0.0
 11
316.5357864376271
 21
63.0
 31
0.0
  0
ARC
  5
5B669
330
1F
100
AcDbEntity
  8
本体（枠）
100
AcDbCircle
 10
307.8642135623733
 20
64.0
 30
0.0
 40
1.0
100
AcDbArc
 50
224.9999999999954
 51
270.0
  0
LINE
  5
5B66A
330
1F
100
AcDbEntity
  8
本体（枠）
100
AcDbLine
 10
317.2428932188136
 20
63.29289321881356
 30
0.0
 11
320.6571067811867
 21
66.70710678118644
 31
0.0
  0
ARC
  5
5B66B
330
1F
100
AcDbEntity
  8
本体（枠）
100
AcDbCircle
 10
316.5357864376271
 20
64.0
 30
0.0
 40
1.0
100
AcDbArc
 50
270.0
 51
315.0000000000046
  0
LINE
  5
5B66C
102
{ACAD_REACTORS
330
5B6F9
102
}
330
1F
100
AcDbEntity
  8
本体（枠）
100
AcDbLine
 10
320.9500000000002
 20
67.4142135623731
 30
0.0
 11
320.9500000000002
 21
92.90000000000009
 31
0.0
  0
LINE
  5
5B66D
330
1F
100
AcDbEntity
  8
本体（枠）
100
AcDbLine
 10
320.9500000000002
 20
160.1000000000001
 30
0.0
 11
320.9500000000002
 21
185.5857864376269
 31
0.0
  0
ARC
  5
5B66E
330
1F
100
AcDbEntity
  8
本体（枠）
100
AcDbCircle
 10
320.4500000000002
 20
91.5
 30
0.0
 40
0.5
100
AcDbArc
 50
0.0
 51
90.0
  0
ARC
  5
5B66F
330
1F
100
AcDbEntity
  8
本体（枠）
100
AcDbCircle
 10
320.4500000000002
 20
161.5
 30
0.0
 40
0.5
100
AcDbArc
 50
270.0
 51
0.0
  0
ARC
  5
5B670
330
1F
100
AcDbEntity
  8
本体（枠）
100
AcDbCircle
 10
319.9500000000002
 20
67.4142135623731
 30
0.0
 40
1.0
100
AcDbArc
 50
315.0000000000046
 51
0.0
  0
LINE
  5
5B671
330
1F
100
AcDbEntity
  8
本体（枠）
100
AcDbLine
 10
320.6571067811867
 20
186.2928932188135
 30
0.0
 11
317.2428932188137
 21
189.7071067811866
 31
0.0
  0
ARC
  5
5B672
330
1F
100
AcDbEntity
  8
本体（枠）
100
AcDbCircle
 10
319.9500000000002
 20
185.5857864376269
 30
0.0
 40
1.0
100
AcDbArc
 50
0.0
 51
44.99999999999539
  0
ARC
  5
5B673
330
1F
100
AcDbEntity
  8
本体（枠）
100
AcDbCircle
 10
316.5357864376272
 20
189.0
 30
0.0
 40
1.0
100
AcDbArc
 50
44.99999999999539
 51
90.0
  0
LINE
  5
5B674
330
1F
100
AcDbEntity
  8
本体（枠）
100
AcDbLine
 10
320.4500000000002
 20
161.0
 30
0.0
 11
319.2000000000006
 21
161.0
 31
0.0
  0
LINE
  5
5B675
330
1F
100
AcDbEntity
  8
本体（枠）
100
AcDbLine
 10
305.2000000000002
 20
161.0
 30
0.0
 11
303.9500000000003
 21
161.0
 31
0.0
  0
LINE
  5
5B676
330
1F
100
AcDbEntity
  8
本体（枠）
100
AcDbLine
 10
303.9500000000002
 20
92.0
 30
0.0
 11
305.2000000000002
 21
92.0
 31
0.0
  0
LINE
  5
5B677
330
1F
100
AcDbEntity
  8
本体（枠）
100
AcDbLine
 10
319.2000000000006
 20
92.0
 30
0.0
 11
320.4500000000002
 21
92.0
 31
0.0
  0
LINE
  5
5B678
330
1F
100
AcDbEntity
  8
本体（枠）
100
AcDbLine
 10
319.5314391493078
 20
161.0
 30
0.0
 11
319.5314391493078
 21
160.1000000000001
 31
0.0
  0
LINE
  5
5B679
330
1F
100
AcDbEntity
  8
本体（枠）
100
AcDbLine
 10
319.5314391493078
 20
92.90000000000009
 30
0.0
 11
319.5314391493078
 21
92.0
 31
0.0
  0
LINE
  5
5B67A
330
1F
100
AcDbEntity
  8
本体（枠）
100
AcDbLine
 10
316.9500000000001
 20
189.9101797211244
 30
0.0
 11
316.9500000000001
 21
161.1000000000001
 31
0.0
  0
LINE
  5
5B67B
330
1F
100
AcDbEntity
  8
本体（枠）
100
AcDbLine
 10
316.9500000000001
 20
91.9000000000001
 30
0.0
 11
316.9500000000001
 21
63.08982027887555
 31
0.0
  0
LINE
  5
5B67C
330
1F
100
AcDbEntity
  8
本体（枠）
100
AcDbLine
 10
307.45
 20
63.08982027887555
 30
0.0
 11
307.4500000000002
 21
91.9000000000001
 31
0.0
  0
LINE
  5
5B67D
330
1F
100
AcDbEntity
  8
本体（枠）
100
AcDbLine
 10
307.4500000000002
 20
161.1000000000001
 30
0.0
 11
307.4500000000003
 21
189.9101797211244
 31
0.0
  0
LINE
  5
5B67E
330
1F
100
AcDbEntity
  8
AM_7
370
     9
100
AcDbLine
 10
312.2000000000002
 20
193.0
 30
0.0
 11
312.2000000000002
 21
60.0
 31
0.0
1001
GENIUS_GENODEF_13
1002
{
1000
HIER
1070
     0
1002
}
1002
{
1000
MANEDIT
1070
     0
1002
}
1002
{
1000
NOSEL
1070
     0
1002
}
1002
{
1000
BEHIND
1070
     0
1002
}
1002
{
1000
OTHER
1070
     0
1002
}
1002
{
1000
REACTOR
1002
}
1001
GENIUS_GENOBJ-N-CEN_13
1002
{
1000
OWNER
1000
GEN
1002
}
1001
GENIUS_GENCEN_19
1002
{
1040
3.0
1002
}
  0
LINE
  5
5B67F
330
1F
100
AcDbEntity
  8
カバー
100
AcDbLine
 10
321.2000000000001
 20
160.1000000000001
 30
0.0
 11
321.2000000000001
 21
92.90000000000009
 31
0.0
  0
LINE
  5
5B680
330
1F
100
AcDbEntity
  8
カバー
100
AcDbLine
 10
321.2000000000001
 20
92.90000000000009
 30
0.0
 11
304.7000000000001
 21
92.90000000000009
 31
0.0
  0
LINE
  5
5B681
330
1F
100
AcDbEntity
  8
カバー
100
AcDbLine
 10
304.7000000000001
 20
160.1000000000001
 30
0.0
 11
321.2000000000001
 21
160.1000000000001
 31
0.0
  0
LINE
  5
5B682
330
1F
100
AcDbEntity
  8
AM_7
370
     9
100
AcDbLine
 10
324.2000000000002
 20
126.5
 30
0.0
 11
297.2
 21
126.5
 31
0.0
1001
GENIUS_GENODEF_13
1002
{
1000
HIER
1070
     0
1002
}
1002
{
1000
MANEDIT
1070
     0
1002
}
1002
{
1000
NOSEL
1070
     0
1002
}
1002
{
1000
BEHIND
1070
     0
1002
}
1002
{
1000
OTHER
1070
     0
1002
}
1002
{
1000
REACTOR
1002
}
1001
GENIUS_GENOBJ-N-CEN_13
1002
{
1000
OWNER
1000
GEN
1002
}
1001
GENIUS_GENCEN_19
1002
{
1040
3.0
1002
}
  0
LINE
  5
5B683
330
1F
100
AcDbEntity
  8
カバー
100
AcDbLine
 10
300.7000000000001
 20
96.90000000000033
 30
0.0
 11
300.7000000000001
 21
156.1000000000001
 31
0.0
  0
ARC
  5
5B684
330
1F
100
AcDbEntity
  8
カバー
100
AcDbCircle
 10
304.7000000000001
 20
96.90000000000033
 30
0.0
 40
4.0
100
AcDbArc
 50
180.0
 51
270.0
  0
ARC
  5
5B685
330
1F
100
AcDbEntity
  8
カバー
100
AcDbCircle
 10
304.7000000000001
 20
156.1000000000001
 30
0.0
 40
4.0
100
AcDbArc
 50
90.0
 51
180.0
  0
LINE
  5
5B686
330
1F
100
AcDbEntity
  8
カバー
370
    13
100
AcDbLine
 10
316.8000000000001
 20
160.1000000000003
 30
0.0
 11
316.8000000000001
 21
92.90000000000032
 31
0.0
  0
LINE
  5
5B687
330
1F
100
AcDbEntity
  8
カバー
370
    13
100
AcDbLine
 10
307.1999999999997
 20
160.1000000000001
 30
0.0
 11
307.1999999999999
 21
92.90000000000032
 31
0.0
  0
LINE
  5
5B688
330
1F
100
AcDbEntity
  8
カバー
370
    13
100
AcDbLine
 10
306.2000000000001
 20
160.1000000000001
 30
0.0
 11
306.2000000000002
 21
92.90000000000032
 31
0.0
  0
LINE
  5
5B689
330
1F
100
AcDbEntity
  8
カバー
100
AcDbLine
 10
300.2000000000001
 20
155.8999999999998
 30
0.0
 11
300.2000000000001
 21
97.10000000000015
 31
0.0
  0
ARC
  5
5B68A
330
1F
100
AcDbEntity
  8
カバー
100
AcDbCircle
 10
303.2
 20
155.8999999999998
 30
0.0
 40
3.0
100
AcDbArc
 50
128.8425887868405
 51
180.0
  0
ARC
  5
5B68B
330
1F
100
AcDbEntity
  8
カバー
100
AcDbCircle
 10
303.2
 20
97.10000000000015
 30
0.0
 40
3.0
100
AcDbArc
 50
180.0
 51
231.1574112131778
  0
LINE
  5
5B68C
102
{ACAD_REACTORS
330
5B6A6
102
}
330
1F
100
AcDbEntity
  8
本体（扉）
100
AcDbLine
 10
256.5000000000001
 20
221.9140624999998
 30
0.0
 11
256.5000000000001
 21
216.0
 31
0.0
  0
LINE
  5
5B68D
330
1F
100
AcDbEntity
  8
本体（扉）
100
AcDbLine
 10
256.5000000000001
 20
216.0
 30
0.0
 11
238.5000000000001
 21
216.0
 31
0.0
  0
LINE
  5
5B68E
330
1F
100
AcDbEntity
  8
本体（扉）
100
AcDbLine
 10
238.5000000000001
 20
216.0
 30
0.0
 11
238.5000000000001
 21
219.4453125
 31
0.0
  0
ARC
  5
5B68F
330
1F
100
AcDbEntity
  8
本体（扉）
100
AcDbCircle
 10
247.5000000000001
 20
227.4999999999998
 30
0.0
 40
9.0
100
AcDbArc
 50
90.0
 51
97.07908038378132
  0
LINE
  5
5B690
330
1F
100
AcDbEntity
  8
本体（扉）
100
AcDbLine
 10
247.5000000000001
 20
236.4999999999998
 30
0.0
 11
252.8786796564406
 21
236.5
 31
0.0
  0
ARC
  5
5B691
330
1F
100
AcDbEntity
  8
本体（扉）
100
AcDbCircle
 10
252.8786796564406
 20
235.0
 30
0.0
 40
1.5
100
AcDbArc
 50
61.55044867063484
 51
90.0
  0
LINE
  5
5B692
330
1F
100
AcDbEntity
  8
本体（扉）
  6
中心線1
 48
0.5
370
     9
100
AcDbLine
 10
247.0000000000001
 20
212.9999999999998
 30
0.0
 11
247.0000000000001
 21
222.0
 31
0.0
1001
GENIUS_GENODEF_13
1002
{
1000
HIER
1070
     0
1002
}
1002
{
1000
MANEDIT
1070
     0
1002
}
1002
{
1000
NOSEL
1070
     0
1002
}
1002
{
1000
BEHIND
1070
     0
1002
}
1002
{
1000
OTHER
1070
     0
1002
}
1002
{
1000
REACTOR
1002
}
1001
GENIUS_GENOBJ-N-CEN_13
1002
{
1000
OWNER
1000
GEN
1002
}
1001
GENIUS_GENCEN_19
1002
{
1040
3.0
1002
}
  0
LINE
  5
5B693
330
1F
100
AcDbEntity
  8
カバー
100
AcDbLine
 10
238.3000000000003
 20
216.5
 30
0.0
 11
238.3000000000003
 21
219.4421875000001
 31
0.0
  0
ARC
  5
5B694
330
1F
100
AcDbEntity
  8
カバー
100
AcDbCircle
 10
247.3000000000003
 20
227.5
 30
0.0
 40
9.0
100
AcDbArc
 50
90.0
 51
96.93438804624214
  0
LINE
  5
5B695
102
{ACAD_REACTORS
330
5B6A9
102
}
330
1F
100
AcDbEntity
  8
カバー
100
AcDbLine
 10
237.8000000000003
 20
216.5
 30
0.0
 11
237.8000000000003
 21
219.4343750000001
 31
0.0
  0
ARC
  5
5B696
330
1F
100
AcDbEntity
  8
カバー
100
AcDbCircle
 10
247.3000000000003
 20
227.5
 30
0.0
 40
9.5
100
AcDbArc
 50
90.0
 51
109.2975684419949
  0
LINE
  5
5B697
330
1F
100
AcDbEntity
  8
カバー
100
AcDbLine
 10
253.5928932188136
 20
237.0
 30
0.0
 11
247.3000000000003
 21
237.0
 31
0.0
  0
ARC
  5
5B698
330
1F
100
AcDbEntity
  8
カバー
100
AcDbCircle
 10
253.5928932188136
 20
236.5
 30
0.0
 40
0.5
100
AcDbArc
 50
44.99999999999078
 51
90.0
  0
LINE
  5
5B699
330
1F
100
AcDbEntity
  8
カバー
100
AcDbLine
 10
258.2000000000002
 20
232.3928932188135
 30
0.0
 11
258.2000000000002
 21
223.6071067811868
 31
0.0
  0
LINE
  5
5B69A
330
1F
100
AcDbEntity
  8
カバー
100
AcDbLine
 10
258.0535533905935
 20
223.2535533905934
 30
0.0
 11
257.2000000000002
 21
222.4000000000001
 31
0.0
  0
ARC
  5
5B69B
330
1F
100
AcDbEntity
  8
カバー
100
AcDbCircle
 10
257.7000000000002
 20
223.6071067811868
 30
0.0
 40
0.5
100
AcDbArc
 50
314.9999999999908
 51
0.0
  0
LINE
  5
5B69C
330
1F
100
AcDbEntity
  8
カバー
100
AcDbLine
 10
253.5895947121086
 20
236.5
 30
0.0
 11
247.3000000000003
 21
236.5
 31
0.0
  0
LINE
  5
5B69D
102
{ACAD_REACTORS
330
5B6A9
102
}
330
1F
100
AcDbEntity
  8
カバー
100
AcDbLine
 10
257.2000000000002
 20
222.4000000000001
 30
0.0
 11
257.2000000000002
 21
216.5
 31
0.0
  0
LINE
  5
5B69E
330
1F
100
AcDbEntity
  8
カバー
100
AcDbLine
 10
257.2000000000002
 20
216.5
 30
0.0
 11
256.7000000000001
 21
216.5
 31
0.0
  0
LINE
  5
5B69F
330
1F
100
AcDbEntity
  8
カバー
100
AcDbLine
 10
256.7000000000001
 20
216.5
 30
0.0
 11
256.7000000000001
 21
222.0921874999999
 31
0.0
  0
LINE
  5
5B6A0
330
1F
100
AcDbEntity
  8
カバー
100
AcDbLine
 10
238.3000000000003
 20
216.5
 30
0.0
 11
237.8000000000003
 21
216.5
 31
0.0
  0
LINE
  5
5B6A1
330
1F
100
AcDbEntity
  8
カバー
100
AcDbLine
 10
258.0535533905935
 20
232.7464466094068
 30
0.0
 11
253.9464466094067
 21
236.8535533905933
 31
0.0
  0
ARC
  5
5B6A2
330
1F
100
AcDbEntity
  8
カバー
100
AcDbCircle
 10
257.7000000000002
 20
232.3928932188135
 30
0.0
 40
0.5
100
AcDbArc
 50
0.0
 51
44.99999999999078
  0
LINE
  5
5B6A3
330
1F
100
AcDbEntity
  8
カバー
100
AcDbLine
 10
253.7865735996701
 20
236.3031791835133
 30
0.0
 11
253.5895947121086
 21
236.5
 31
0.0
  0
DIMENSION
  5
5B6A4
102
{ACAD_XDICTIONARY
360
5B6A5
102
}
102
{ACAD_REACTORS
330
5B6A6
102
}
330
1F
100
AcDbEntity
  8
AM_5
100
AcDbDimension
  2
*D12
 10
268.1999999999999
 20
216.0
 30
0.0
 11
265.0999999999998
 21
222.0
 31
0.0
 70
    32
 71
     5
 42
12.0
  3
SYS$0
100
AcDbAlignedDimension
 13
261.0
 23
228.0
 33
0.0
 14
256.5000000000001
 24
216.0
 34
0.0
 50
270.0
100
AcDbRotatedDimension
1001
ACAD
1000
DSTYLE
1002
{
1070
    47
1040
0.2
1070
    48
1040
0.2
1070
   271
1070
     1
1002
}
  0
DIMENSION
  5
5B6A7
102
{ACAD_XDICTIONARY
360
5B6A8
102
}
102
{ACAD_REACTORS
330
5B6A9
102
}
330
1F
100
AcDbEntity
  8
AM_5
100
AcDbDimension
  2
*D13
 10
237.8000000000003
 20
206.0
 30
0.0
 11
247.5000000000002
 21
209.1
 31
0.0
 70
    32
  1
（<>）
 71
     5
 42
19.39999999999986
  3
SYS$0
100
AcDbAlignedDimension
 13
257.2000000000002
 23
216.5
 33
0.0
 14
237.8000000000003
 24
216.5
 34
0.0
100
AcDbRotatedDimension
1001
ACAD
1000
DSTYLE
1002
{
1070
    47
1040
0.2
1070
    48
1040
0.2
1070
   271
1070
     0
1002
}
  0
LINE
  5
5B6AA
330
1F
100
AcDbEntity
  8
本体（扉）
100
AcDbLine
 10
256.6999999999999
 20
156.0
 30
0.0
 11
256.4999999999999
 21
156.0
 31
0.0
  0
LINE
  5
5B6AB
330
1F
100
AcDbEntity
  8
本体（扉）
100
AcDbLine
 10
256.6999999999999
 20
159.0000000000002
 30
0.0
 11
238.4999999999999
 21
159.0
 31
0.0
  0
LINE
  5
5B6AC
330
1F
100
AcDbEntity
  8
本体（扉）
100
AcDbLine
 10
238.4999999999999
 20
159.0
 30
0.0
 11
238.4999999999999
 21
94.0
 31
0.0
  0
LINE
  5
5B6AD
330
1F
100
AcDbEntity
  8
本体（扉）
100
AcDbLine
 10
238.4999999999999
 20
94.0
 30
0.0
 11
256.6999999999999
 21
94.00000000000023
 31
0.0
  0
LINE
  5
5B6AE
330
1F
100
AcDbEntity
  8
本体（扉）
100
AcDbLine
 10
256.6999999999999
 20
97.0
 30
0.0
 11
256.4999999999999
 21
97.0
 31
0.0
  0
LINE
  5
5B6AF
330
1F
100
AcDbEntity
  8
本体（扉）
100
AcDbLine
 10
256.4999999999999
 20
159.0
 30
0.0
 11
256.4999999999999
 21
94.0
 31
0.0
  0
LWPOLYLINE
  5
5B6B0
330
1F
100
AcDbEntity
  8
本体（扉）
100
AcDbPolyline
 90
        8
 70
     1
 43
0.0
 10
241.9999999999585
 20
147.500010655137
 10
241.9999999999585
 20
147.500010655137
 42
0.4142135623730951
 10
244.7499999999585
 20
144.750010655137
 10
249.250000000041
 20
144.7499893448632
 42
0.4142135623730951
 10
252.000000000041
 20
147.4999893448632
 10
252.000000000041
 20
147.4999893448632
 42
0.4142135623730951
 10
249.250000000041
 20
150.2499893448632
 10
244.7499999999585
 20
150.250010655137
 42
0.4142135623730951
1001
GENIUS_GENREC_14
1002
{
1000
PYDIR
1011
252.000000000041
1021
150.2499893448632
1031
0.0
1002
}
1002
{
1000
PXDIR
1011
241.9999999999585
1021
144.750010655137
1031
0.0
1002
}
1002
{
1000
PORI
1011
241.9999999999585
1021
150.250010655137
1031
0.0
1002
}
1002
{
1000
PINS
1011
241.9999999999585
1021
150.250010655137
1031
0.0
1002
}
1002
{
1000
PINS2
1011
252.000000000041
1021
144.7499893448632
1031
0.0
1002
}
1002
{
1000
C
1070
     1
1002
}
1001
GENIUS_GENOBJ-N-REC_13
1002
{
1000
OWNER
1000
GEN
1002
}
1001
GENIUS_GENODEF_13
1002
{
1000
HIER
1070
     0
1002
}
1002
{
1000
MANEDIT
1070
     0
1002
}
1002
{
1000
NOSEL
1070
     0
1002
}
1002
{
1000
BEHIND
1070
     0
1002
}
1002
{
1000
OTHER
1070
     0
1002
}
1002
{
1000
REACTOR
1002
}
  0
LINE
  5
5B6B1
102
{ACAD_REACTORS
330
5B6EF
102
}
330
1F
100
AcDbEntity
  8
AM_7
 48
0.5
370
     9
100
AcDbLine
 10
238.9999999999588
 20
147.500010655137
 30
0.0
 11
255.0000000000413
 21
147.4999893448632
 31
0.0
1001
GENIUS_GENOBJ-N-CEN_13
1002
{
1000
OWNER
1000
GEN
1002
}
1001
GENIUS_GENODEF_13
1002
{
1000
HIER
1070
     0
1002
}
1002
{
1000
MANEDIT
1070
     0
1002
}
1002
{
1000
NOSEL
1070
     0
1002
}
1002
{
1000
BEHIND
1070
     0
1002
}
1002
{
1000
OTHER
1070
     0
1002
}
1002
{
1000
REACTOR
1002
}
1001
GENIUS_GENCEN_19
1002
{
1040
3.0
1002
}
  0
LINE
  5
5B6B2
330
1F
100
AcDbEntity
  8
AM_7
 48
0.5
370
     9
100
AcDbLine
 10
246.9999999999999
 20
153.2500000000002
 30
0.0
 11
246.9999999999999
 21
141.75
 31
0.0
1001
GENIUS_GENODEF_13
1002
{
1000
HIER
1070
     0
1002
}
1002
{
1000
MANEDIT
1070
     0
1002
}
1002
{
1000
NOSEL
1070
     0
1002
}
1002
{
1000
BEHIND
1070
     0
1002
}
1002
{
1000
OTHER
1070
     0
1002
}
1002
{
1000
REACTOR
1002
}
1001
GENIUS_GENOBJ-N-CEN_13
1002
{
1000
OWNER
1000
GEN
1002
}
1001
GENIUS_GENCEN_19
1002
{
1040
3.0
1002
}
  0
LWPOLYLINE
  5
5B6B3
330
1F
100
AcDbEntity
  8
本体（扉）
100
AcDbPolyline
 90
        8
 70
     1
 43
0.0
 10
241.9999999999585
 20
126.500010655137
 10
241.9999999999585
 20
126.500010655137
 42
0.4142135623730951
 10
244.7499999999585
 20
123.7500106551369
 10
249.250000000041
 20
123.7499893448632
 42
0.4142135623730951
 10
252.000000000041
 20
126.4999893448632
 10
252.000000000041
 20
126.4999893448632
 42
0.4142135623730951
 10
249.250000000041
 20
129.2499893448632
 10
244.7499999999585
 20
129.2500106551369
 42
0.4142135623730951
1001
GENIUS_GENREC_14
1002
{
1000
PYDIR
1011
252.000000000041
1021
129.2499893448632
1031
0.0
1002
}
1002
{
1000
PXDIR
1011
241.9999999999585
1021
123.7500106551369
1031
0.0
1002
}
1002
{
1000
PORI
1011
241.9999999999585
1021
129.2500106551369
1031
0.0
1002
}
1002
{
1000
PINS
1011
241.9999999999585
1021
129.2500106551369
1031
0.0
1002
}
1002
{
1000
PINS2
1011
252.000000000041
1021
123.7499893448632
1031
0.0
1002
}
1002
{
1000
C
1070
     1
1002
}
1001
GENIUS_GENOBJ-N-REC_13
1002
{
1000
OWNER
1000
GEN
1002
}
1001
GENIUS_GENODEF_13
1002
{
1000
HIER
1070
     0
1002
}
1002
{
1000
MANEDIT
1070
     0
1002
}
1002
{
1000
NOSEL
1070
     0
1002
}
1002
{
1000
BEHIND
1070
     0
1002
}
1002
{
1000
OTHER
1070
     0
1002
}
1002
{
1000
REACTOR
1002
}
  0
LINE
  5
5B6B4
330
1F
100
AcDbEntity
  8
AM_7
 48
0.5
370
     9
100
AcDbLine
 10
246.9999999999999
 20
132.2500000000002
 30
0.0
 11
246.9999999999999
 21
120.75
 31
0.0
1001
GENIUS_GENODEF_13
1002
{
1000
HIER
1070
     0
1002
}
1002
{
1000
MANEDIT
1070
     0
1002
}
1002
{
1000
NOSEL
1070
     0
1002
}
1002
{
1000
BEHIND
1070
     0
1002
}
1002
{
1000
OTHER
1070
     0
1002
}
1002
{
1000
REACTOR
1002
}
1001
GENIUS_GENOBJ-N-CEN_13
1002
{
1000
OWNER
1000
GEN
1002
}
1001
GENIUS_GENCEN_19
1002
{
1040
3.0
1002
}
  0
LWPOLYLINE
  5
5B6B5
330
1F
100
AcDbEntity
  8
本体（扉）
100
AcDbPolyline
 90
        8
 70
     1
 43
0.0
 10
241.9999999999585
 20
105.5000106551369
 10
241.9999999999585
 20
105.5000106551369
 42
0.4142135623730951
 10
244.7499999999585
 20
102.750010655137
 10
249.250000000041
 20
102.7499893448632
 42
0.4142135623730951
 10
252.000000000041
 20
105.4999893448632
 10
252.000000000041
 20
105.4999893448632
 42
0.4142135623730951
 10
249.250000000041
 20
108.2499893448632
 10
244.7499999999585
 20
108.2500106551369
 42
0.4142135623730951
1001
GENIUS_GENREC_14
1002
{
1000
PYDIR
1011
252.000000000041
1021
108.2499893448632
1031
0.0
1002
}
1002
{
1000
PXDIR
1011
241.9999999999585
1021
102.750010655137
1031
0.0
1002
}
1002
{
1000
PORI
1011
241.9999999999585
1021
108.2500106551369
1031
0.0
1002
}
1002
{
1000
PINS
1011
241.9999999999585
1021
108.2500106551369
1031
0.0
1002
}
1002
{
1000
PINS2
1011
252.000000000041
1021
102.7499893448632
1031
0.0
1002
}
1002
{
1000
C
1070
     1
1002
}
1001
GENIUS_GENOBJ-N-REC_13
1002
{
1000
OWNER
1000
GEN
1002
}
1001
GENIUS_GENODEF_13
1002
{
1000
HIER
1070
     0
1002
}
1002
{
1000
MANEDIT
1070
     0
1002
}
1002
{
1000
NOSEL
1070
     0
1002
}
1002
{
1000
BEHIND
1070
     0
1002
}
1002
{
1000
OTHER
1070
     0
1002
}
1002
{
1000
REACTOR
1002
}
  0
LINE
  5
5B6B6
330
1F
100
AcDbEntity
  8
AM_7
 48
0.5
370
     9
100
AcDbLine
 10
238.9999999999588
 20
105.5000106551369
 30
0.0
 11
255.0000000000413
 21
105.4999893448632
 31
0.0
1001
GENIUS_GENOBJ-N-CEN_13
1002
{
1000
OWNER
1000
GEN
1002
}
1001
GENIUS_GENODEF_13
1002
{
1000
HIER
1070
     0
1002
}
1002
{
1000
MANEDIT
1070
     0
1002
}
1002
{
1000
NOSEL
1070
     0
1002
}
1002
{
1000
BEHIND
1070
     0
1002
}
1002
{
1000
OTHER
1070
     0
1002
}
1002
{
1000
REACTOR
1002
}
1001
GENIUS_GENCEN_19
1002
{
1040
3.0
1002
}
  0
LINE
  5
5B6B7
102
{ACAD_REACTORS
330
5B6F2
102
}
330
1F
100
AcDbEntity
  8
AM_7
 48
0.5
370
     9
100
AcDbLine
 10
246.9999999999999
 20
111.2500000000002
 30
0.0
 11
246.9999999999999
 21
99.75000000000001
 31
0.0
1001
GENIUS_GENODEF_13
1002
{
1000
HIER
1070
     0
1002
}
1002
{
1000
MANEDIT
1070
     0
1002
}
1002
{
1000
NOSEL
1070
     0
1002
}
1002
{
1000
BEHIND
1070
     0
1002
}
1002
{
1000
OTHER
1070
     0
1002
}
1002
{
1000
REACTOR
1002
}
1001
GENIUS_GENOBJ-N-CEN_13
1002
{
1000
OWNER
1000
GEN
1002
}
1001
GENIUS_GENCEN_19
1002
{
1040
3.0
1002
}
  0
LINE
  5
5B6B8
330
1F
100
AcDbEntity
  8
カバー
100
AcDbLine
 10
237.8000000000001
 20
160.1000000000001
 30
0.0
 11
242.0000000000001
 21
160.1000000000001
 31
0.0
  0
LINE
  5
5B6B9
330
1F
100
AcDbEntity
  8
カバー
100
AcDbLine
 10
256.0000000000001
 20
160.1000000000001
 30
0.0
 11
258.1999999999999
 21
160.1000000000001
 31
0.0
  0
LINE
  5
5B6BA
330
1F
100
AcDbEntity
  8
カバー
100
AcDbLine
 10
257.1999999999999
 20
160.1000000000001
 30
0.0
 11
257.1999999999999
 21
92.90000000000009
 31
0.0
  0
LINE
  5
5B6BB
330
1F
100
AcDbEntity
  8
カバー
100
AcDbLine
 10
258.1999999999999
 20
92.90000000000009
 30
0.0
 11
256.0000000000001
 21
92.90000000000009
 31
0.0
  0
LINE
  5
5B6BC
330
1F
100
AcDbEntity
  8
カバー
100
AcDbLine
 10
241.9999999999999
 20
92.90000000000009
 30
0.0
 11
237.8000000000001
 21
92.90000000000009
 31
0.0
  0
LINE
  5
5B6BD
330
1F
100
AcDbEntity
  8
カバー
100
AcDbLine
 10
237.8000000000001
 20
92.90000000000009
 30
0.0
 11
237.8000000000001
 21
160.1000000000001
 31
0.0
  0
LINE
  5
5B6BE
330
1F
100
AcDbEntity
  8
カバー
100
AcDbLine
 10
238.3000000000001
 20
160.1000000000001
 30
0.0
 11
238.3000000000001
 21
92.90000000000032
 31
0.0
  0
LINE
  5
5B6BF
330
1F
100
AcDbEntity
  8
カバー
100
AcDbLine
 10
256.6999999999999
 20
92.90000000000009
 30
0.0
 11
256.6999999999999
 21
160.1000000000001
 31
0.0
  0
LINE
  5
5B6C0
330
1F
100
AcDbEntity
  8
樹脂ワッシャA
100
AcDbLine
 10
255.9999999999999
 20
94.00000000000023
 30
0.0
 11
241.9999999999999
 21
94.0
 31
0.0
  0
LINE
  5
5B6C1
330
1F
100
AcDbEntity
  8
樹脂ワッシャA
100
AcDbLine
 10
241.9999999999999
 20
93.10000000000014
 30
0.0
 11
241.9999999999999
 21
94.00000000000023
 31
0.0
  0
LINE
  5
5B6C2
330
1F
100
AcDbEntity
  8
樹脂ワッシャA
100
AcDbLine
 10
255.9999999999999
 20
93.10000000000014
 30
0.0
 11
255.9999999999999
 21
94.00000000000023
 31
0.0
  0
LINE
  5
5B6C3
330
1F
100
AcDbEntity
  8
樹脂ワッシャA
100
AcDbLine
 10
241.9999999999999
 20
93.10000000000014
 30
0.0
 11
255.9999999999999
 21
93.10000000000014
 31
0.0
  0
LINE
  5
5B6C4
330
1F
100
AcDbEntity
  8
樹脂ワッシャB
100
AcDbLine
 10
241.9999999999999
 20
91.95000000000005
 30
0.0
 11
241.9999999999999
 21
93.10000000000014
 31
0.0
  0
LINE
  5
5B6C5
330
1F
100
AcDbEntity
  8
樹脂ワッシャB
100
AcDbLine
 10
256.0000000000004
 20
91.95000000000005
 30
0.0
 11
255.9999999999999
 21
93.10000000000014
 31
0.0
  0
LINE
  5
5B6C6
330
1F
100
AcDbEntity
  8
樹脂ワッシャB
100
AcDbLine
 10
241.9999999999999
 20
91.95000000000005
 30
0.0
 11
255.9999999999999
 21
91.95000000000005
 31
0.0
  0
LINE
  5
5B6C7
330
1F
100
AcDbEntity
  8
樹脂ワッシャB
100
AcDbLine
 10
241.9999999999999
 20
93.10000000000014
 30
0.0
 11
255.9999999999999
 21
93.10000000000014
 31
0.0
  0
LINE
  5
5B6C8
330
1F
100
AcDbEntity
  8
樹脂ワッシャA
100
AcDbLine
 10
255.9999999999999
 20
159.0
 30
0.0
 11
241.9999999999999
 21
159.0000000000002
 31
0.0
  0
LINE
  5
5B6C9
330
1F
100
AcDbEntity
  8
樹脂ワッシャA
100
AcDbLine
 10
241.9999999999999
 20
159.8999999999998
 30
0.0
 11
241.9999999999999
 21
159.0
 31
0.0
  0
LINE
  5
5B6CA
330
1F
100
AcDbEntity
  8
樹脂ワッシャA
100
AcDbLine
 10
255.9999999999999
 20
159.8999999999998
 30
0.0
 11
255.9999999999999
 21
159.0
 31
0.0
  0
LINE
  5
5B6CB
330
1F
100
AcDbEntity
  8
樹脂ワッシャA
100
AcDbLine
 10
241.9999999999999
 20
159.8999999999998
 30
0.0
 11
255.9999999999999
 21
159.8999999999998
 31
0.0
  0
LINE
  5
5B6CC
330
1F
100
AcDbEntity
  8
樹脂ワッシャB
100
AcDbLine
 10
242.0000000000001
 20
161.0499999999999
 30
0.0
 11
242.0000000000001
 21
159.8999999999998
 31
0.0
  0
LINE
  5
5B6CD
330
1F
100
AcDbEntity
  8
樹脂ワッシャB
100
AcDbLine
 10
256.0000000000006
 20
161.0499999999999
 30
0.0
 11
256.0000000000001
 21
159.8999999999998
 31
0.0
  0
LINE
  5
5B6CE
330
1F
100
AcDbEntity
  8
樹脂ワッシャB
100
AcDbLine
 10
242.0000000000001
 20
161.0499999999999
 30
0.0
 11
256.0000000000001
 21
161.0499999999999
 31
0.0
  0
LINE
  5
5B6CF
330
1F
100
AcDbEntity
  8
樹脂ワッシャB
100
AcDbLine
 10
242.0000000000001
 20
159.8999999999998
 30
0.0
 11
256.0000000000001
 21
159.8999999999998
 31
0.0
  0
LINE
  5
5B6D0
330
1F
100
AcDbEntity
  8
軸
100
AcDbLine
 10
252.5000000000001
 20
161.1000000000001
 30
0.0
 11
245.5000000000001
 21
161.1000000000001
 31
0.0
  0
LINE
  5
5B6D1
330
1F
100
AcDbEntity
  8
軸
100
AcDbLine
 10
252.5000000000001
 20
161.0499999999999
 30
0.0
 11
252.5000000000001
 21
161.1000000000001
 31
0.0
  0
LINE
  5
5B6D2
330
1F
100
AcDbEntity
  8
軸
100
AcDbLine
 10
245.5000000000001
 20
161.0499999999999
 30
0.0
 11
245.5000000000001
 21
161.1000000000001
 31
0.0
  0
ARC
  5
5B6D3
330
1F
100
AcDbEntity
  8
本体（枠）
100
AcDbCircle
 10
303.9500000000003
 20
161.6000000000001
 30
0.0
 40
0.5
100
AcDbArc
 50
180.0
 51
270.0
  0
ARC
  5
5B6D4
330
1F
100
AcDbEntity
  8
本体（枠）
100
AcDbCircle
 10
320.4500000000002
 20
161.6000000000001
 30
0.0
 40
0.5
100
AcDbArc
 50
270.0
 51
0.0
  0
LINE
  5
5B6D5
330
1F
100
AcDbEntity
  8
本体（枠）
100
AcDbLine
 10
320.4500000000002
 20
161.1000000000001
 30
0.0
 11
303.9500000000003
 21
161.1000000000001
 31
0.0
  0
ARC
  5
5B6D6
330
1F
100
AcDbEntity
  8
本体（枠）
100
AcDbCircle
 10
303.9500000000002
 20
91.40000000000009
 30
0.0
 40
0.5
100
AcDbArc
 50
90.0
 51
180.0
  0
ARC
  5
5B6D7
330
1F
100
AcDbEntity
  8
本体（枠）
100
AcDbCircle
 10
320.4500000000002
 20
91.40000000000009
 30
0.0
 40
0.5
100
AcDbArc
 50
0.0
 51
90.0
  0
LINE
  5
5B6D8
330
1F
100
AcDbEntity
  8
本体（枠）
100
AcDbLine
 10
303.9500000000002
 20
91.9000000000001
 30
0.0
 11
320.4500000000002
 21
91.9000000000001
 31
0.0
  0
DIMENSION
  5
5B6D9
330
1F
100
AcDbEntity
  8
AM_5
100
AcDbDimension
  2
*D7
 10
226.0000000000001
 20
245.0
 30
0.0
 11
237.5000000000001
 21
248.1
 31
0.0
 70
    32
  1
C
 71
     5
 42
23.0
  3
SYS$0
100
AcDbAlignedDimension
 13
249.0000000000001
 23
234.2
 33
0.0
 14
226.0000000000001
 24
236.75
 34
0.0
100
AcDbRotatedDimension
1001
ACAD
1000
DSTYLE
1002
{
1070
    47
1040
0.2
1070
    48
1040
0.2
1070
   271
1070
     1
1002
}
  0
LINE
  5
5B6DA
330
1F
100
AcDbEntity
  8
カバー
100
AcDbLine
 10
238.3000000000001
 20
154.2999999999999
 30
0.0
 11
238.4999999999999
 21
154.2999999999999
 31
0.0
  0
LINE
  5
5B6DB
330
1F
100
AcDbEntity
  8
カバー
100
AcDbLine
 10
238.5000000000001
 20
155.7999999999999
 30
0.0
 11
238.3000000000001
 21
155.7999999999999
 31
0.0
  0
LINE
  5
5B6DC
330
1F
100
AcDbEntity
  8
カバー
100
AcDbLine
 10
238.3000000000001
 20
98.70000000000004
 30
0.0
 11
238.4999999999999
 21
98.70000000000004
 31
0.0
  0
LINE
  5
5B6DD
330
1F
100
AcDbEntity
  8
カバー
100
AcDbLine
 10
238.5000000000001
 20
97.20000000000005
 30
0.0
 11
238.3000000000001
 21
97.20000000000005
 31
0.0
  0
LINE
  5
5B6DE
330
1F
100
AcDbEntity
  8
軸
100
AcDbLine
 10
252.5000000000001
 20
91.9000000000001
 30
0.0
 11
245.5000000000001
 21
91.9000000000001
 31
0.0
  0
LINE
  5
5B6DF
330
1F
100
AcDbEntity
  8
AM_7
 48
0.3
370
     9
100
AcDbLine
 10
249.0000000000001
 20
97.00000000000024
 30
0.0
 11
249.0000000000001
 21
88.90000000000009
 31
0.0
1001
GENIUS_GENODEF_13
1002
{
1000
HIER
1070
     0
1002
}
1002
{
1000
MANEDIT
1070
     0
1002
}
1002
{
1000
NOSEL
1070
     0
1002
}
1002
{
1000
BEHIND
1070
     0
1002
}
1002
{
1000
OTHER
1070
     0
1002
}
1002
{
1000
REACTOR
1002
}
1001
GENIUS_GENOBJ-N-CEN_13
1002
{
1000
OWNER
1000
GEN
1002
}
1001
GENIUS_GENCEN_19
1002
{
1040
3.0
1002
}
  0
LINE
  5
5B6E0
330
1F
100
AcDbEntity
  8
軸
100
AcDbLine
 10
252.5000000000001
 20
91.95000000000005
 30
0.0
 11
252.5000000000001
 21
91.9000000000001
 31
0.0
  0
LINE
  5
5B6E1
330
1F
100
AcDbEntity
  8
軸
100
AcDbLine
 10
245.5000000000001
 20
91.95000000000005
 30
0.0
 11
245.5000000000001
 21
91.9000000000001
 31
0.0
  0
LINE
  5
5B6E2
330
1F
100
AcDbEntity
  8
樹脂ワッシャB
100
AcDbLine
 10
305.2000000000002
 20
91.95000000000005
 30
0.0
 11
305.2000000000002
 21
92.90000000000009
 31
0.0
  0
LINE
  5
5B6E3
330
1F
100
AcDbEntity
  8
樹脂ワッシャB
100
AcDbLine
 10
319.2000000000006
 20
91.95000000000005
 30
0.0
 11
319.2000000000003
 21
92.90000000000009
 31
0.0
  0
LINE
  5
5B6E4
330
1F
100
AcDbEntity
  8
樹脂ワッシャB
100
AcDbLine
 10
305.2000000000002
 20
91.95000000000005
 30
0.0
 11
319.2000000000001
 21
91.95000000000005
 31
0.0
  0
LINE
  5
5B6E5
330
1F
100
AcDbEntity
  8
樹脂ワッシャB
100
AcDbLine
 10
305.2000000000002
 20
161.0499999999999
 30
0.0
 11
305.2000000000002
 21
160.1000000000001
 31
0.0
  0
LINE
  5
5B6E6
330
1F
100
AcDbEntity
  8
樹脂ワッシャB
100
AcDbLine
 10
319.2000000000006
 20
161.0499999999999
 30
0.0
 11
319.2000000000003
 21
160.1000000000001
 31
0.0
  0
LINE
  5
5B6E7
330
1F
100
AcDbEntity
  8
樹脂ワッシャB
100
AcDbLine
 10
305.2000000000002
 20
161.0499999999999
 30
0.0
 11
319.2000000000001
 21
161.0499999999999
 31
0.0
  0
LINE
  5
5B6E8
330
1F
100
AcDbEntity
  8
カバー
100
AcDbLine
 10
258.1999999999999
 20
160.1000000000001
 30
0.0
 11
258.1999999999999
 21
92.90000000000009
 31
0.0
  0
CIRCLE
  5
5B6E9
330
1F
100
AcDbEntity
  8
軸
  6
陰線1
 48
0.3
370
     9
100
AcDbCircle
 10
249.0000000000001
 20
228.0
 30
0.0
 40
3.149999999999999
  0
DIMENSION
  5
5B6EA
102
{ACAD_XDICTIONARY
360
5B6EB
102
}
102
{ACAD_REACTORS
330
5B6EC
102
}
330
1F
100
AcDbEntity
  8
AM_5
100
AcDbDimension
  2
*D14
 10
218.0000000000001
 20
148.5
 30
0.0
 11
214.9000000000001
 21
137.5
 31
0.0
 70
    32
  1
<>
 71
     5
 42
22.00000000000001
  3
SYS$0
100
AcDbAlignedDimension
 13
222.9999999999999
 23
126.5
 33
0.0
 14
223.4999999999999
 24
148.5
 34
0.0
 50
90.0
100
AcDbRotatedDimension
1001
ACAD
1000
DSTYLE
1002
{
1070
   286
1070
     0
1070
   284
1070
     8
1070
   274
1070
     2
1070
   272
1070
     1
1070
    47
1040
0.2
1070
    48
1040
0.2
1002
}
  0
DIMENSION
  5
5B6ED
102
{ACAD_XDICTIONARY
360
5B6EE
102
}
102
{ACAD_REACTORS
330
5B6EF
102
}
330
1F
100
AcDbEntity
  8
AM_5
100
AcDbDimension
  2
*D15
 10
268.1999999999999
 20
126.5
 30
0.0
 11
265.0999999999999
 21
136.9999946724316
 31
0.0
 70
    32
  1
<>
 71
     5
 42
20.99998934486325
  3
SYS$0
100
AcDbAlignedDimension
 13
255.0000000000413
 23
147.4999893448632
 33
0.0
 14
261.0
 24
126.5
 34
0.0
 50
90.0
100
AcDbRotatedDimension
1001
ACAD
1000
DSTYLE
1002
{
1070
   286
1070
     0
1070
   284
1070
     8
1070
    47
1040
0.2
1070
    48
1040
0.2
1070
   272
1070
     3
1070
   274
1070
     4
1002
}
  0
DIMENSION
  5
5B6F0
102
{ACAD_XDICTIONARY
360
5B6F1
102
}
102
{ACAD_REACTORS
330
5B6F2
102
}
330
1F
100
AcDbEntity
  8
AM_5
100
AcDbDimension
  2
*D16
 10
225.9999999999999
 20
53.0
 30
0.0
 11
236.4999999999999
 21
56.1
 31
0.0
 70
    32
  1
B
 71
     5
 42
21.0
  3
SYS$0
100
AcDbAlignedDimension
 13
246.9999999999999
 23
99.75000000000001
 33
0.0
 14
225.9999999999999
 24
63.0
 34
0.0
100
AcDbRotatedDimension
1001
ACAD
1000
DSTYLE
1002
{
1070
   286
1070
     0
1070
   284
1070
     8
1070
    47
1040
0.2
1070
    48
1040
0.2
1070
   272
1070
     3
1070
   274
1070
     4
1002
}
  0
DIMENSION
  5
5B6F3
330
1F
100
AcDbEntity
  8
AM_5
100
AcDbDimension
  2
*D8
 10
257.9999999999999
 20
45.0
 30
0.0
 11
241.9999999999999
 21
48.1
 31
0.0
 70
    32
  1
A
 71
     5
 42
32.0
  3
SYS$0
100
AcDbAlignedDimension
 13
225.9999999999999
 23
63.0
 33
0.0
 14
257.9999999999999
 24
67.44771466645466
 34
0.0
100
AcDbRotatedDimension
1001
ACAD
1000
DSTYLE
1002
{
1070
    47
1040
0.2
1070
    48
1040
0.2
1070
   271
1070
     1
1002
}
  0
DIMENSION
  5
5B6F4
102
{ACAD_XDICTIONARY
360
5B6F5
102
}
102
{ACAD_REACTORS
330
5B6F6
102
}
330
1F
100
AcDbEntity
  8
AM_5
100
AcDbDimension
  2
*D17
 10
339.2000000000002
 20
190.0
 30
0.0
 11
336.1000000000001
 21
126.5
 31
0.0
 70
    32
 71
     5
 42
127.0
  3
SYS$0
100
AcDbAlignedDimension
 13
316.5357864376271
 23
63.0
 33
0.0
 14
316.5357864376271
 24
190.0
 34
0.0
 50
90.0
100
AcDbRotatedDimension
1001
ACAD
1000
DSTYLE
1002
{
1070
    47
1040
0.2
1070
    48
1040
0.2
1070
   271
1070
     1
1002
}
  0
DIMENSION
  5
5B6F7
102
{ACAD_XDICTIONARY
360
5B6F8
102
}
102
{ACAD_REACTORS
330
5B6F9
102
}
330
1F
100
AcDbEntity
  8
AM_5
100
AcDbDimension
  2
*D18
 10
303.4500000000002
 20
52.99999898999999
 30
0.0
 11
312.2000000000002
 21
56.09999898999999
 31
0.0
 70
    32
 71
     5
 42
17.5
  3
SYS$0
100
AcDbAlignedDimension
 13
320.9500000000002
 23
67.4142135623731
 33
0.0
 14
303.4500000000002
 24
67.4142135623731
 34
0.0
100
AcDbRotatedDimension
1001
ACAD
1000
DSTYLE
1002
{
1070
    47
1040
0.2
1070
    48
1040
0.2
1070
   271
1070
     1
1002
}
  0
INSERT
  5
5B6FA
330
1F
100
AcDbEntity
  8
AM_5
100
AcDbBlockReference
  2
*S24
 10
0.0
 20
0.0
 30
0.0
  0
LINE
  5
5B6FB
330
1F
100
AcDbEntity
  8
AM_7
 48
0.3
370
     9
100
AcDbLine
 10
249.0000000000001
 20
156.0
 30
0.0
 11
249.0000000000001
 21
164.1000000000001
 31
0.0
1001
GENIUS_GENODEF_13
1002
{
1000
HIER
1070
     0
1002
}
1002
{
1000
MANEDIT
1070
     0
1002
}
1002
{
1000
NOSEL
1070
     0
1002
}
1002
{
1000
BEHIND
1070
     0
1002
}
1002
{
1000
OTHER
1070
     0
1002
}
1002
{
1000
REACTOR
1002
}
1001
GENIUS_GENOBJ-N-CEN_13
1002
{
1000
OWNER
1000
GEN
1002
}
1001
GENIUS_GENCEN_19
1002
{
1040
3.0
1002
}
  0
DIMENSION
  5
5B6FC
330
1F
100
AcDbEntity
  8
AM_5
100
AcDbDimension
  2
*D9
 10
331.2000000000002
 20
160.1000000000001
 30
0.0
 11
328.1000000000001
 21
126.5000000000002
 31
0.0
 70
    32
 71
     5
 42
67.20000000000005
  3
SYS$0
100
AcDbAlignedDimension
 13
321.2000000000001
 23
92.90000000000009
 33
0.0
 14
321.2000000000001
 24
160.1000000000001
 34
0.0
 50
90.0
100
AcDbRotatedDimension
1001
ACAD
1000
DSTYLE
1002
{
1070
    47
1040
0.2
1070
    48
1040
0.2
1070
   271
1070
     1
1002
}
  0
CIRCLE
  5
5B6FD
330
1F
100
AcDbEntity
  8
本体（枠）
  6
陰線1
 48
0.5
370
     9
100
AcDbCircle
 10
312.2000000000002
 20
126.5
 30
0.0
 40
2.7
  0
CIRCLE
  5
5B6FE
330
1F
100
AcDbEntity
  8
本体（枠）
  6
陰線1
 48
0.5
370
     9
100
AcDbCircle
 10
312.2000000000002
 20
126.5
 30
0.0
 40
5.25
  0
CIRCLE
  5
5B6FF
330
1F
100
AcDbEntity
  8
本体（枠）
  6
陰線1
 48
0.5
370
     9
100
AcDbCircle
 10
312.2000000000002
 20
104.5
 30
0.0
 40
2.7
  0
CIRCLE
  5
5B700
330
1F
100
AcDbEntity
  8
本体（枠）
  6
陰線1
 48
0.5
370
     9
100
AcDbCircle
 10
312.2000000000002
 20
104.5
 30
0.0
 40
5.25
  0
LINE
  5
5B701
330
1F
100
AcDbEntity
  8
AM_7
 48
0.5
370
     9
100
AcDbLine
 10
303.9500000000002
 20
104.5
 30
0.0
 11
320.4500000000002
 21
104.5
 31
0.0
1001
GENIUS_GENODEF_13
1002
{
1000
HIER
1070
     0
1002
}
1002
{
1000
MANEDIT
1070
     0
1002
}
1002
{
1000
NOSEL
1070
     0
1002
}
1002
{
1000
BEHIND
1070
     0
1002
}
1002
{
1000
OTHER
1070
     0
1002
}
1002
{
1000
REACTOR
1002
}
1001
GENIUS_GENOBJ-N-CEN_13
1002
{
1000
OWNER
1000
GEN
1002
}
1001
GENIUS_GENCEN_19
1002
{
1040
3.0
1002
}
  0
CIRCLE
  5
5B702
330
1F
100
AcDbEntity
  8
本体（枠）
  6
陰線1
 48
0.5
370
     9
100
AcDbCircle
 10
312.2000000000002
 20
148.5
 30
0.0
 40
2.7
  0
CIRCLE
  5
5B703
330
1F
100
AcDbEntity
  8
本体（枠）
  6
陰線1
 48
0.5
370
     9
100
AcDbCircle
 10
312.2000000000002
 20
148.5
 30
0.0
 40
5.25
  0
LINE
  5
5B704
330
1F
100
AcDbEntity
  8
AM_7
 48
0.5
370
     9
100
AcDbLine
 10
303.9500000000002
 20
148.5
 30
0.0
 11
320.4500000000002
 21
148.5
 31
0.0
1001
GENIUS_GENODEF_13
1002
{
1000
HIER
1070
     0
1002
}
1002
{
1000
MANEDIT
1070
     0
1002
}
1002
{
1000
NOSEL
1070
     0
1002
}
1002
{
1000
BEHIND
1070
     0
1002
}
1002
{
1000
OTHER
1070
     0
1002
}
1002
{
1000
REACTOR
1002
}
1001
GENIUS_GENOBJ-N-CEN_13
1002
{
1000
OWNER
1000
GEN
1002
}
1001
GENIUS_GENCEN_19
1002
{
1040
3.0
1002
}
  0
INSERT
  5
5B705
330
1F
100
AcDbEntity
  8
AM_5
100
AcDbBlockReference
  2
*S25
 10
0.0
 20
0.0
 30
0.0
  0
LINE
  5
5B706
330
1F
100
AcDbEntity
  8
本体（枠）
100
AcDbLine
 10
226.0000000000001
 20
236.75
 30
0.0
 11
226.0000000000001
 21
219.25
 31
0.0
  0
LINE
  5
5B707
330
1F
100
AcDbEntity
  8
本体（枠）
100
AcDbLine
 10
258.0000000000001
 20
223.6993115239727
 30
0.0
 11
258.0000000000001
 21
232.3015160086836
 31
0.0
  0
ARC
  5
5B708
330
1F
100
AcDbEntity
  8
本体（枠）
100
AcDbCircle
 10
257.0000000000001
 20
232.3015160086836
 30
0.0
 40
1.0
100
AcDbArc
 50
0.0
 51
48.31094151461016
  0
LINE
  5
5B709
330
1F
100
AcDbEntity
  8
本体（枠）
100
AcDbLine
 10
253.6282094604825
 20
236.31830922718
 30
0.0
 11
226.0000000000001
 21
236.75
 31
0.0
  0
ARC
  5
5B70A
330
1F
100
AcDbEntity
  8
本体（枠）
100
AcDbCircle
 10
253.6125863674818
 20
235.3184312751452
 30
0.0
 40
1.0
100
AcDbArc
 50
48.31094151461016
 51
89.10482628979137
  0
LINE
  5
5B70B
330
1F
100
AcDbEntity
  8
本体（枠）
100
AcDbLine
 10
257.8933751476426
 20
232.7500000000002
 30
0.0
 11
226.0000000000001
 21
232.75
 31
0.0
  0
LINE
  5
5B70C
330
1F
100
AcDbEntity
  8
本体（枠）
100
AcDbLine
 10
254.277674127907
 20
236.065196479833
 30
0.0
 11
257.6650877604253
 21
233.0482812133716
 31
0.0
  0
LINE
  5
5B70D
330
1F
100
AcDbEntity
  8
本体（枠）
100
AcDbLine
 10
257.8933751476426
 20
223.2499999999998
 30
0.0
 11
226.0000000000001
 21
223.2500000000002
 31
0.0
  0
ARC
  5
5B70E
330
1F
100
AcDbEntity
  8
本体（枠）
100
AcDbCircle
 10
257.0000000000001
 20
223.6984839913164
 30
0.0
 40
1.0
100
AcDbArc
 50
311.6890584853806
 51
0.0
  0
LINE
  5
5B70F
330
1F
100
AcDbEntity
  8
本体（枠）
100
AcDbLine
 10
253.6282094604825
 20
219.6816907728201
 30
0.0
 11
226.0000000000001
 21
219.25
 31
0.0
  0
ARC
  5
5B710
330
1F
100
AcDbEntity
  8
本体（枠）
100
AcDbCircle
 10
253.6125863674818
 20
220.6815687248548
 30
0.0
 40
1.0
100
AcDbArc
 50
270.8951737102086
 51
311.6890584853806
  0
LINE
  5
5B711
330
1F
100
AcDbEntity
  8
本体（枠）
100
AcDbLine
 10
254.277674127907
 20
219.934803520167
 30
0.0
 11
257.6650877604253
 21
222.9517187866284
 31
0.0
  0
LINE
  5
5B712
330
1F
100
AcDbEntity
  8
本体（枠）
100
AcDbLine
 10
226.0000000000001
 20
190.0
 30
0.0
 11
225.9999999999999
 21
63.0
 31
0.0
  0
LINE
  5
5B713
330
1F
100
AcDbEntity
  8
本体（枠）
100
AcDbLine
 10
226.0000000000001
 20
190.0
 30
0.0
 11
254.0624923720023
 21
189.5615235566877
 31
0.0
  0
LINE
  5
5B714
330
1F
100
AcDbEntity
  8
本体（枠）
100
AcDbLine
 10
226.0000000000001
 20
185.9995117485487
 30
0.0
 11
253.0156230930007
 21
185.5773926377207
 31
0.0
  0
LINE
  5
5B715
330
1F
100
AcDbEntity
  8
本体（枠）
100
AcDbLine
 10
258.0000000000001
 20
185.5620117485489
 30
0.0
 11
257.9999999999999
 21
161.6000000000001
 31
0.0
  0
LINE
  5
5B716
330
1F
100
AcDbEntity
  8
本体（枠）
100
AcDbLine
 10
254.0000000000001
 20
184.577514685686
 30
0.0
 11
253.9999999999999
 21
161.1000000000001
 31
0.0
  0
ARC
  5
5B717
330
1F
100
AcDbEntity
  8
本体（枠）
100
AcDbCircle
 10
253.0000000000001
 20
184.577514685686
 30
0.0
 40
1.0
100
AcDbArc
 50
0.0
 51
89.10482628979137
  0
ARC
  5
5B718
330
1F
100
AcDbEntity
  8
本体（枠）
100
AcDbCircle
 10
254.0000000000001
 20
185.5620117485489
 30
0.0
 40
4.0
100
AcDbArc
 50
0.0
 51
89.10482628979137
  0
ARC
  5
5B719
330
1F
100
AcDbEntity
  8
本体（枠）
100
AcDbCircle
 10
257.4999999999999
 20
161.6000000000001
 30
0.0
 40
0.5
100
AcDbArc
 50
270.0
 51
0.0
  0
ARC
  5
5B71A
330
1F
100
AcDbEntity
  8
本体（枠）
100
AcDbCircle
 10
257.4999999999999
 20
91.40000000000009
 30
0.0
 40
0.5
100
AcDbArc
 50
0.0
 51
90.0
  0
LINE
  5
5B71B
330
1F
100
AcDbEntity
  8
本体（枠）
100
AcDbLine
 10
257.4999999999999
 20
161.1000000000001
 30
0.0
 11
244.9999999999999
 21
161.1000000000001
 31
0.0
  0
LINE
  5
5B71C
330
1F
100
AcDbEntity
  8
本体（枠）
100
AcDbLine
 10
244.9999999999999
 20
161.1000000000001
 30
0.0
 11
237.9875009764477
 21
161.0123437622057
 31
0.0
  0
LINE
  5
5B71D
330
1F
100
AcDbEntity
  8
本体（枠）
100
AcDbLine
 10
236.9999999999996
 20
160.0124218780515
 30
0.0
 11
236.9999999999999
 21
92.98757812194867
 31
0.0
  0
ARC
  5
5B71E
330
1F
100
AcDbEntity
  8
本体（枠）
100
AcDbCircle
 10
237.9999999999999
 20
92.98757812194867
 30
0.0
 40
1.0
100
AcDbArc
 50
180.0
 51
269.283840054533
  0
ARC
  5
5B71F
330
1F
100
AcDbEntity
  8
本体（枠）
100
AcDbCircle
 10
237.9999999999997
 20
160.0124218780515
 30
0.0
 40
1.0
100
AcDbArc
 50
90.71615994546705
 51
180.0
  0
LINE
  5
5B720
330
1F
100
AcDbEntity
  8
本体（枠）
100
AcDbLine
 10
237.9875009764481
 20
91.98765623779445
 30
0.0
 11
244.9999999999999
 21
91.9000000000001
 31
0.0
  0
LINE
  5
5B721
330
1F
100
AcDbEntity
  8
本体（枠）
100
AcDbLine
 10
244.9999999999981
 20
91.9000000000001
 30
0.0
 11
257.4999999999999
 21
91.9000000000001
 31
0.0
  0
ARC
  5
5B722
330
1F
100
AcDbEntity
  8
本体（枠）
100
AcDbCircle
 10
240.4999999999999
 20
92.95632812194867
 30
0.0
 40
1.0
100
AcDbArc
 50
183.2290727576444
 51
269.283840054533
  0
ARC
  5
5B723
330
1F
100
AcDbEntity
  8
本体（枠）
100
AcDbCircle
 10
240.4999999999999
 20
160.0436718780515
 30
0.0
 40
1.0
100
AcDbArc
 50
90.71615994546705
 51
176.7709272423556
  0
ARC
  5
5B724
330
1F
100
AcDbEntity
  8
本体（枠）
100
AcDbCircle
 10
226.2093790725465
 20
126.5
 30
0.0
 40
11.99999999999977
100
AcDbArc
 50
334.0555202276313
 51
344.9909818835937
  0
ARC
  5
5B725
330
1F
100
AcDbEntity
  8
本体（枠）
100
AcDbCircle
 10
226.2093790725465
 20
126.5
 30
0.0
 40
11.99999999999977
100
AcDbArc
 50
15.00901811640632
 51
25.94447977236868
  0
ARC
  5
5B726
330
1F
100
AcDbEntity
  8
本体（枠）
100
AcDbCircle
 10
226.2093790725465
 20
148.5
 30
0.0
 40
11.99999999999977
100
AcDbArc
 50
334.0555202276313
 51
344.9909818835937
  0
ARC
  5
5B727
330
1F
100
AcDbEntity
  8
本体（枠）
100
AcDbCircle
 10
226.2093790725465
 20
148.5
 30
0.0
 40
11.99999999999977
100
AcDbArc
 50
15.00901811640632
 51
25.94447977236868
  0
ARC
  5
5B728
330
1F
100
AcDbEntity
  8
本体（枠）
100
AcDbCircle
 10
226.2093790725465
 20
104.5
 30
0.0
 40
11.99999999999977
100
AcDbArc
 50
334.0555202276313
 51
344.9909818835937
  0
ARC
  5
5B729
330
1F
100
AcDbEntity
  8
本体（枠）
100
AcDbCircle
 10
226.2093790725465
 20
104.5
 30
0.0
 40
11.99999999999977
100
AcDbArc
 50
15.00901811640632
 51
25.94447977236868
  0
LINE
  5
5B72A
330
1F
100
AcDbEntity
  8
本体（枠）
100
AcDbLine
 10
225.9999999999999
 20
63.0
 30
0.0
 11
254.0624923720019
 21
63.43847644331231
 31
0.0
  0
LINE
  5
5B72B
330
1F
100
AcDbEntity
  8
本体（枠）
100
AcDbLine
 10
225.9999999999999
 20
67.00048825145131
 30
0.0
 11
253.0156230930003
 21
67.42260736227922
 31
0.0
  0
LINE
  5
5B72C
330
1F
100
AcDbEntity
  8
本体（枠）
100
AcDbLine
 10
257.9999999999999
 20
67.43798825145109
 30
0.0
 11
257.9999999999999
 21
91.39999999999986
 31
0.0
  0
LINE
  5
5B72D
330
1F
100
AcDbEntity
  8
本体（枠）
100
AcDbLine
 10
253.9999999999999
 20
68.42248531431391
 30
0.0
 11
253.9999999999999
 21
91.89999999999987
 31
0.0
  0
ARC
  5
5B72E
330
1F
100
AcDbEntity
  8
本体（枠）
100
AcDbCircle
 10
252.9999999999999
 20
68.42248531431391
 30
0.0
 40
1.0
100
AcDbArc
 50
270.8951737102086
 51
0.0
  0
ARC
  5
5B72F
330
1F
100
AcDbEntity
  8
本体（枠）
100
AcDbCircle
 10
253.9999999999999
 20
67.43798825145109
 30
0.0
 40
4.0
100
AcDbArc
 50
270.8951737102086
 51
0.0
  0
LINE
  5
5B730
330
1F
100
AcDbEntity
  8
本体（枠）
  6
陰線1
 48
0.5
370
     9
100
AcDbLine
 10
233.9499999999999
 20
129.2
 30
0.0
 11
226.4999999999999
 21
129.2
 31
0.0
  0
LINE
  5
5B731
330
1F
100
AcDbEntity
  8
本体（枠）
  6
陰線1
 48
0.5
370
     9
100
AcDbLine
 10
226.4999999999999
 20
123.7999999999999
 30
0.0
 11
233.9499999999999
 21
123.7999999999999
 31
0.0
  0
LINE
  5
5B732
330
1F
100
AcDbEntity
  8
本体（枠）
  6
陰線1
 48
0.5
370
     9
100
AcDbLine
 10
236.4999999999999
 20
131.75
 30
0.0
 11
233.9499999999999
 21
129.2
 31
0.0
  0
LINE
  5
5B733
330
1F
100
AcDbEntity
  8
本体（枠）
  6
陰線1
 48
0.5
370
     9
100
AcDbLine
 10
236.4999999999999
 20
121.25
 30
0.0
 11
233.9499999999999
 21
123.7999999999999
 31
0.0
  0
LINE
  5
5B734
330
1F
100
AcDbEntity
  8
本体（枠）
  6
陰線1
 48
0.5
370
     9
100
AcDbLine
 10
233.9499999999999
 20
129.2
 30
0.0
 11
233.9499999999999
 21
123.7999999999999
 31
0.0
  0
LINE
  5
5B735
330
1F
100
AcDbEntity
  8
本体（枠）
  6
陰線1
 48
0.5
370
     9
100
AcDbLine
 10
236.9999999999999
 20
131.75
 30
0.0
 11
236.4999999999999
 21
131.75
 31
0.0
  0
LINE
  5
5B736
330
1F
100
AcDbEntity
  8
本体（枠）
  6
陰線1
 48
0.5
370
     9
100
AcDbLine
 10
236.9999999999999
 20
121.25
 30
0.0
 11
236.4999999999999
 21
121.25
 31
0.0
  0
LINE
  5
5B737
330
1F
100
AcDbEntity
  8
本体（枠）
  6
陰線1
 48
0.5
370
     9
100
AcDbLine
 10
236.4999999999999
 20
121.25
 30
0.0
 11
236.4999999999999
 21
131.75
 31
0.0
  0
LINE
  5
5B738
330
1F
100
AcDbEntity
  8
本体（枠）
  6
陰線1
 48
0.5
370
     9
100
AcDbLine
 10
226.4999999999999
 20
151.2
 30
0.0
 11
226.4999999999999
 21
145.7999999999999
 31
0.0
  0
LINE
  5
5B739
330
1F
100
AcDbEntity
  8
本体（枠）
  6
陰線1
 48
0.5
370
     9
100
AcDbLine
 10
233.9499999999999
 20
151.2
 30
0.0
 11
226.4999999999999
 21
151.2
 31
0.0
  0
LINE
  5
5B73A
330
1F
100
AcDbEntity
  8
本体（枠）
  6
陰線1
 48
0.5
370
     9
100
AcDbLine
 10
226.4999999999999
 20
145.7999999999999
 30
0.0
 11
233.9499999999999
 21
145.7999999999999
 31
0.0
  0
LINE
  5
5B73B
330
1F
100
AcDbEntity
  8
本体（枠）
  6
陰線1
 48
0.5
370
     9
100
AcDbLine
 10
236.4999999999999
 20
153.75
 30
0.0
 11
233.9499999999999
 21
151.2
 31
0.0
  0
LINE
  5
5B73C
330
1F
100
AcDbEntity
  8
本体（枠）
  6
陰線1
 48
0.5
370
     9
100
AcDbLine
 10
236.4999999999999
 20
143.25
 30
0.0
 11
233.9499999999999
 21
145.7999999999999
 31
0.0
  0
LINE
  5
5B73D
330
1F
100
AcDbEntity
  8
本体（枠）
  6
陰線1
 48
0.5
370
     9
100
AcDbLine
 10
233.9499999999999
 20
151.2
 30
0.0
 11
233.9499999999999
 21
145.7999999999999
 31
0.0
  0
LINE
  5
5B73E
330
1F
100
AcDbEntity
  8
本体（枠）
  6
陰線1
 48
0.5
370
     9
100
AcDbLine
 10
236.9999999999999
 20
153.75
 30
0.0
 11
236.4999999999999
 21
153.75
 31
0.0
  0
LINE
  5
5B73F
330
1F
100
AcDbEntity
  8
本体（枠）
  6
陰線1
 48
0.5
370
     9
100
AcDbLine
 10
236.9999999999999
 20
143.25
 30
0.0
 11
236.4999999999999
 21
143.25
 31
0.0
  0
LINE
  5
5B740
330
1F
100
AcDbEntity
  8
本体（枠）
  6
陰線1
 48
0.5
370
     9
100
AcDbLine
 10
236.4999999999999
 20
143.25
 30
0.0
 11
236.4999999999999
 21
153.75
 31
0.0
  0
LINE
  5
5B741
330
1F
100
AcDbEntity
  8
本体（枠）
  6
陰線1
 48
0.5
370
     9
100
AcDbLine
 10
233.9499999999999
 20
107.2
 30
0.0
 11
226.4999999999999
 21
107.2
 31
0.0
  0
LINE
  5
5B742
330
1F
100
AcDbEntity
  8
本体（枠）
  6
陰線1
 48
0.5
370
     9
100
AcDbLine
 10
226.4999999999999
 20
101.7999999999999
 30
0.0
 11
233.9499999999999
 21
101.7999999999999
 31
0.0
  0
LINE
  5
5B743
330
1F
100
AcDbEntity
  8
本体（枠）
  6
陰線1
 48
0.5
370
     9
100
AcDbLine
 10
236.4999999999999
 20
109.75
 30
0.0
 11
233.9499999999999
 21
107.2
 31
0.0
  0
LINE
  5
5B744
330
1F
100
AcDbEntity
  8
本体（枠）
  6
陰線1
 48
0.5
370
     9
100
AcDbLine
 10
236.4999999999999
 20
99.25
 30
0.0
 11
233.9499999999999
 21
101.7999999999999
 31
0.0
  0
LINE
  5
5B745
330
1F
100
AcDbEntity
  8
本体（枠）
  6
陰線1
 48
0.5
370
     9
100
AcDbLine
 10
233.9499999999999
 20
107.2
 30
0.0
 11
233.9499999999999
 21
101.7999999999999
 31
0.0
  0
LINE
  5
5B746
330
1F
100
AcDbEntity
  8
本体（枠）
  6
陰線1
 48
0.5
370
     9
100
AcDbLine
 10
236.9999999999999
 20
109.75
 30
0.0
 11
236.4999999999999
 21
109.75
 31
0.0
  0
LINE
  5
5B747
330
1F
100
AcDbEntity
  8
本体（枠）
  6
陰線1
 48
0.5
370
     9
100
AcDbLine
 10
236.9999999999999
 20
99.25
 30
0.0
 11
236.4999999999999
 21
99.25
 31
0.0
  0
LINE
  5
5B748
330
1F
100
AcDbEntity
  8
本体（枠）
  6
陰線1
 48
0.5
370
     9
100
AcDbLine
 10
236.4999999999999
 20
99.25
 30
0.0
 11
236.4999999999999
 21
109.75
 31
0.0
  0
LINE
  5
5B749
330
1F
100
AcDbEntity
  8
本体（枠）
  6
陰線1
 48
0.5
370
     9
100
AcDbLine
 10
226.4999999999999
 20
129.2
 30
0.0
 11
226.4999999999999
 21
123.7999999999999
 31
0.0
  0
LINE
  5
5B74A
330
1F
100
AcDbEntity
  8
本体（枠）
  6
陰線1
 48
0.5
370
     9
100
AcDbLine
 10
226.4999999999999
 20
107.2
 30
0.0
 11
226.4999999999999
 21
101.7999999999999
 31
0.0
  0
DIMENSION
  5
5B74B
330
1F
100
AcDbEntity
  8
AM_5
100
AcDbDimension
  2
*D10
 10
268.1999999999999
 20
126.5
 30
0.0
 11
265.0999999999999
 21
116.0000053275684
 31
0.0
 70
    32
  1
<>
 71
     5
 42
20.99998934486325
  3
SYS$0
100
AcDbAlignedDimension
 13
255.0000000000413
 23
105.5000106551367
 33
0.0
 14
261.0
 24
126.5
 34
0.0
 50
270.0
100
AcDbRotatedDimension
1001
ACAD
1000
DSTYLE
1002
{
1070
   286
1070
     0
1070
   284
1070
     8
1070
    47
1040
0.2
1070
    48
1040
0.2
1070
   272
1070
     3
1070
   274
1070
     4
1002
}
  0
DIMENSION
  5
5B74C
330
1F
100
AcDbEntity
  8
AM_5
100
AcDbDimension
  2
*D11
 10
218.0000000000001
 20
104.5
 30
0.0
 11
214.9000000000001
 21
115.5
 31
0.0
 70
    32
  1
<>
 71
     5
 42
22.0
  3
SYS$0
100
AcDbAlignedDimension
 13
222.9999999999999
 23
126.5
 33
0.0
 14
223.4999999999999
 24
104.5
 34
0.0
 50
270.0
100
AcDbRotatedDimension
1001
ACAD
1000
DSTYLE
1002
{
1070
   286
1070
     0
1070
   284
1070
     8
1070
   274
1070
     2
1070
   272
1070
     1
1070
    47
1040
0.2
1070
    48
1040
0.2
1002
}
  0
LINE
  5
5B8FF
102
{ACAD_REACTORS
330
5B93A
102
}
330
1F
100
AcDbEntity
  8
調整板
100
AcDbLine
 10
160.0
 20
84.30000000000019
 30
0.0
 11
160.0
 21
136.3000000000001
 31
0.0
  0
LINE
  5
5B900
330
1F
100
AcDbEntity
  8
調整板
100
AcDbLine
 10
159.0
 20
137.2999999999999
 30
0.0
 11
149.0
 21
137.2999999999999
 31
0.0
  0
LINE
  5
5B901
102
{ACAD_REACTORS
330
5B93A
102
}
330
1F
100
AcDbEntity
  8
調整板
100
AcDbLine
 10
148.0
 20
136.3000000000001
 30
0.0
 11
148.0
 21
84.30000000000019
 31
0.0
  0
LINE
  5
5B902
330
1F
100
AcDbEntity
  8
調整板
100
AcDbLine
 10
149.0
 20
83.29999999999996
 30
0.0
 11
159.0
 21
83.29999999999996
 31
0.0
  0
ARC
  5
5B903
102
{ACAD_REACTORS
330
5B937
102
}
330
1F
100
AcDbEntity
  8
調整板
100
AcDbCircle
 10
159.0
 20
84.30000000000019
 30
0.0
 40
1.0
100
AcDbArc
 50
270.0
 51
0.0
  0
ARC
  5
5B904
330
1F
100
AcDbEntity
  8
調整板
100
AcDbCircle
 10
149.0
 20
136.3000000000001
 30
0.0
 40
1.0
100
AcDbArc
 50
90.0
 51
180.0
  0
ARC
  5
5B905
102
{ACAD_REACTORS
330
5B937
102
}
330
1F
100
AcDbEntity
  8
調整板
100
AcDbCircle
 10
159.0
 20
136.3000000000001
 30
0.0
 40
1.0
100
AcDbArc
 50
0.0
 51
90.0
  0
ARC
  5
5B906
330
1F
100
AcDbEntity
  8
調整板
100
AcDbCircle
 10
149.0
 20
84.30000000000019
 30
0.0
 40
1.0
100
AcDbArc
 50
180.0
 51
270.0
  0
CIRCLE
  5
5B907
330
1F
100
AcDbEntity
  8
調整板
100
AcDbCircle
 10
154.0042781345028
 20
131.2999999999999
 30
0.0
 40
2.7
  0
CIRCLE
  5
5B908
330
1F
100
AcDbEntity
  8
調整板
100
AcDbCircle
 10
154.0
 20
110.2999999999999
 30
0.0
 40
2.7
  0
CIRCLE
  5
5B909
330
1F
100
AcDbEntity
  8
調整板
100
AcDbCircle
 10
154.0
 20
89.29999999999996
 30
0.0
 40
2.7
  0
CIRCLE
  5
5B90A
330
1F
100
AcDbEntity
  8
調整板
100
AcDbCircle
 10
154.0
 20
131.2999999999999
 30
0.0
 40
5.099999999999999
  0
CIRCLE
  5
5B90B
330
1F
100
AcDbEntity
  8
調整板
100
AcDbCircle
 10
153.9957218654972
 20
110.2999999999999
 30
0.0
 40
5.099999999999999
  0
CIRCLE
  5
5B90C
330
1F
100
AcDbEntity
  8
調整板
100
AcDbCircle
 10
153.9957218654972
 20
89.29999999999996
 30
0.0
 40
5.099999999999999
  0
LINE
  5
5B90D
330
1F
100
AcDbEntity
  8
調整板
100
AcDbLine
 10
148.0
 20
67.29999999999995
 30
0.0
 11
148.0
 21
63.59999999999991
 31
0.0
  0
LINE
  5
5B90E
102
{ACAD_REACTORS
330
5B93D
102
}
330
1F
100
AcDbEntity
  8
調整板
100
AcDbLine
 10
148.2999999999999
 20
63.29999999999995
 30
0.0
 11
159.6999999999999
 21
63.29999999999995
 31
0.0
  0
ARC
  5
5B90F
330
1F
100
AcDbEntity
  8
調整板
100
AcDbCircle
 10
148.2999999999999
 20
63.59999999999991
 30
0.0
 40
0.3
100
AcDbArc
 50
180.0
 51
270.0
  0
LINE
  5
5B910
102
{ACAD_REACTORS
330
5B93D
102
}
330
1F
100
AcDbEntity
  8
調整板
100
AcDbLine
 10
160.0
 20
63.59999999999991
 30
0.0
 11
160.0
 21
67.29999999999995
 31
0.0
  0
ARC
  5
5B911
330
1F
100
AcDbEntity
  8
調整板
100
AcDbCircle
 10
159.6999999999999
 20
63.59999999999991
 30
0.0
 40
0.3
100
AcDbArc
 50
270.0
 51
0.0
  0
LINE
  5
5B912
330
1F
100
AcDbEntity
  8
調整板
100
AcDbLine
 10
160.0
 20
67.29999999999995
 30
0.0
 11
148.0
 21
67.29999999999995
 31
0.0
  0
LINE
  5
5B91B
330
1F
100
AcDbEntity
  8
調整板
100
AcDbLine
 10
149.75
 20
63.29999999999995
 30
0.0
 11
150.0
 21
63.0
 31
0.0
  0
LINE
  5
5B91C
330
1F
100
AcDbEntity
  8
調整板
100
AcDbLine
 10
150.25
 20
63.29999999999995
 30
0.0
 11
150.0
 21
63.0
 31
0.0
  0
LINE
  5
5B91D
330
1F
100
AcDbEntity
  8
調整板
100
AcDbLine
 10
150.75
 20
63.29999999999995
 30
0.0
 11
151.0
 21
63.0
 31
0.0
  0
LINE
  5
5B91E
330
1F
100
AcDbEntity
  8
調整板
100
AcDbLine
 10
151.25
 20
63.29999999999995
 30
0.0
 11
151.0
 21
63.0
 31
0.0
  0
LINE
  5
5B91F
330
1F
100
AcDbEntity
  8
調整板
100
AcDbLine
 10
151.75
 20
63.29999999999995
 30
0.0
 11
152.0
 21
63.0
 31
0.0
  0
LINE
  5
5B920
330
1F
100
AcDbEntity
  8
調整板
100
AcDbLine
 10
152.25
 20
63.29999999999995
 30
0.0
 11
152.0
 21
63.0
 31
0.0
  0
LINE
  5
5B921
330
1F
100
AcDbEntity
  8
調整板
100
AcDbLine
 10
152.75
 20
63.29999999999995
 30
0.0
 11
153.0
 21
63.0
 31
0.0
  0
LINE
  5
5B922
330
1F
100
AcDbEntity
  8
調整板
100
AcDbLine
 10
153.25
 20
63.29999999999995
 30
0.0
 11
153.0
 21
63.0
 31
0.0
  0
LINE
  5
5B923
330
1F
100
AcDbEntity
  8
調整板
100
AcDbLine
 10
153.75
 20
63.29999999999995
 30
0.0
 11
154.0
 21
63.0
 31
0.0
  0
LINE
  5
5B924
330
1F
100
AcDbEntity
  8
調整板
100
AcDbLine
 10
154.25
 20
63.29999999999995
 30
0.0
 11
154.0
 21
63.0
 31
0.0
  0
LINE
  5
5B925
330
1F
100
AcDbEntity
  8
調整板
100
AcDbLine
 10
154.75
 20
63.29999999999995
 30
0.0
 11
155.0
 21
63.0
 31
0.0
  0
LINE
  5
5B926
330
1F
100
AcDbEntity
  8
調整板
100
AcDbLine
 10
155.25
 20
63.29999999999995
 30
0.0
 11
155.0
 21
63.0
 31
0.0
  0
LINE
  5
5B927
330
1F
100
AcDbEntity
  8
調整板
100
AcDbLine
 10
155.75
 20
63.29999999999995
 30
0.0
 11
156.0
 21
63.0
 31
0.0
  0
LINE
  5
5B928
330
1F
100
AcDbEntity
  8
調整板
100
AcDbLine
 10
156.25
 20
63.29999999999995
 30
0.0
 11
156.0
 21
63.0
 31
0.0
  0
LINE
  5
5B929
330
1F
100
AcDbEntity
  8
調整板
100
AcDbLine
 10
156.75
 20
63.29999999999995
 30
0.0
 11
157.0
 21
63.0
 31
0.0
  0
LINE
  5
5B92A
330
1F
100
AcDbEntity
  8
調整板
100
AcDbLine
 10
157.25
 20
63.29999999999995
 30
0.0
 11
157.0
 21
63.0
 31
0.0
  0
LINE
  5
5B92B
330
1F
100
AcDbEntity
  8
調整板
100
AcDbLine
 10
157.75
 20
63.29999999999995
 30
0.0
 11
158.0
 21
63.0
 31
0.0
  0
LINE
  5
5B92C
330
1F
100
AcDbEntity
  8
調整板
100
AcDbLine
 10
158.25
 20
63.29999999999995
 30
0.0
 11
158.0
 21
63.0
 31
0.0
  0
LINE
  5
5B92D
330
1F
100
AcDbEntity
  8
調整板
  6
中心線1
 48
0.5
370
     9
100
AcDbLine
 10
154.0
 20
70.29999999999995
 30
0.0
 11
154.0
 21
60.0
 31
0.0
1001
GENIUS_GENODEF_13
1002
{
1000
HIER
1070
     0
1002
}
1002
{
1000
MANEDIT
1070
     0
1002
}
1002
{
1000
NOSEL
1070
     0
1002
}
1002
{
1000
BEHIND
1070
     0
1002
}
1002
{
1000
OTHER
1070
     0
1002
}
1002
{
1000
REACTOR
1002
}
1001
GENIUS_GENOBJ-N-CEN_13
1002
{
1000
OWNER
1000
GEN
1002
}
1001
GENIUS_GENCEN_19
1002
{
1040
3.0
1002
}
  0
LINE
  5
5B92E
330
1F
100
AcDbEntity
  8
調整板
  6
中心線1
 48
0.5
370
     9
100
AcDbLine
 10
154.0
 20
140.2999999999999
 30
0.0
 11
154.0
 21
80.29999999999995
 31
0.0
1001
GENIUS_GENODEF_13
1002
{
1000
HIER
1070
     0
1002
}
1002
{
1000
MANEDIT
1070
     0
1002
}
1002
{
1000
NOSEL
1070
     0
1002
}
1002
{
1000
BEHIND
1070
     0
1002
}
1002
{
1000
OTHER
1070
     0
1002
}
1002
{
1000
REACTOR
1002
}
1001
GENIUS_GENOBJ-N-CEN_13
1002
{
1000
OWNER
1000
GEN
1002
}
1001
GENIUS_GENCEN_19
1002
{
1040
3.0
1002
}
  0
LINE
  5
5B92F
330
1F
100
AcDbEntity
  8
調整板
  6
中心線1
 48
0.5
370
     9
100
AcDbLine
 10
145.0
 20
110.3000000000001
 30
0.0
 11
163.0
 21
110.3000000000001
 31
0.0
1001
GENIUS_GENOBJ-N-CEN_13
1002
{
1000
OWNER
1000
GEN
1002
}
1001
GENIUS_GENODEF_13
1002
{
1000
HIER
1070
     0
1002
}
1002
{
1000
MANEDIT
1070
     0
1002
}
1002
{
1000
NOSEL
1070
     0
1002
}
1002
{
1000
BEHIND
1070
     0
1002
}
1002
{
1000
OTHER
1070
     0
1002
}
1002
{
1000
REACTOR
1002
}
1001
GENIUS_GENCEN_19
1002
{
1040
3.0
1002
}
  0
LINE
  5
5B930
102
{ACAD_REACTORS
330
5B934
102
}
330
1F
100
AcDbEntity
  8
調整板
  6
中心線1
 48
0.5
370
     9
100
AcDbLine
 10
145.9
 20
131.2999999999999
 30
0.0
 11
162.1
 21
131.2999999999999
 31
0.0
1001
GENIUS_GENODEF_13
1002
{
1000
HIER
1070
     0
1002
}
1002
{
1000
MANEDIT
1070
     0
1002
}
1002
{
1000
NOSEL
1070
     0
1002
}
1002
{
1000
BEHIND
1070
     0
1002
}
1002
{
1000
OTHER
1070
     0
1002
}
1002
{
1000
REACTOR
1002
}
1001
GENIUS_GENOBJ-N-CEN_13
1002
{
1000
OWNER
1000
GEN
1002
}
1001
GENIUS_GENCEN_19
1002
{
1040
3.0
1002
}
  0
LINE
  5
5B931
330
1F
100
AcDbEntity
  8
調整板
  6
中心線1
 48
0.5
370
     9
100
AcDbLine
 10
162.0957218654972
 20
89.29999999999996
 30
0.0
 11
145.8957218654972
 21
89.29999999999996
 31
0.0
1001
GENIUS_GENODEF_13
1002
{
1000
HIER
1070
     0
1002
}
1002
{
1000
MANEDIT
1070
     0
1002
}
1002
{
1000
NOSEL
1070
     0
1002
}
1002
{
1000
BEHIND
1070
     0
1002
}
1002
{
1000
OTHER
1070
     0
1002
}
1002
{
1000
REACTOR
1002
}
1001
GENIUS_GENOBJ-N-CEN_13
1002
{
1000
OWNER
1000
GEN
1002
}
1001
GENIUS_GENCEN_19
1002
{
1040
3.0
1002
}
  0
DIMENSION
  5
5B932
102
{ACAD_XDICTIONARY
360
5B933
102
}
102
{ACAD_REACTORS
330
5B934
102
}
330
1F
100
AcDbEntity
  8
AM_5
100
AcDbDimension
  2
*D19
 10
140.0
 20
110.3000000000001
 30
0.0
 11
136.8999999999999
 21
120.8000000000001
 31
0.0
 70
    32
  1
<>
 71
     5
 42
20.99999999999977
  3
SYS$0
100
AcDbAlignedDimension
 13
145.9
 23
131.2999999999999
 33
0.0
 14
145.0
 24
110.3000000000001
 34
0.0
 50
270.0
100
AcDbRotatedDimension
1001
ACAD
1000
DSTYLE
1002
{
1070
   286
1070
     0
1070
   284
1070
     8
1070
   274
1070
     2
1070
   272
1070
     1
1070
    47
1040
0.2
1070
    48
1040
0.2
1002
}
  0
DIMENSION
  5
5B935
102
{ACAD_XDICTIONARY
360
5B936
102
}
102
{ACAD_REACTORS
330
5B937
102
}
330
1F
100
AcDbEntity
  8
AM_5
100
AcDbDimension
  2
*D20
 10
170.0
 20
83.30000000000017
 30
0.0
 11
166.9
 21
110.3000000000002
 31
0.0
 70
    32
 71
     5
 42
54.0
  3
SYS$0
100
AcDbAlignedDimension
 13
159.0
 23
137.3000000000001
 33
0.0
 14
159.0
 24
83.30000000000017
 34
0.0
 50
270.0
100
AcDbRotatedDimension
1001
ACAD
1000
DSTYLE
1002
{
1070
   271
1070
     1
1002
}
  0
DIMENSION
  5
5B938
102
{ACAD_XDICTIONARY
360
5B939
102
}
102
{ACAD_REACTORS
330
5B93A
102
}
330
1F
100
AcDbEntity
  8
AM_5
100
AcDbDimension
  2
*D21
 10
148.0
 20
145.2999999999999
 30
0.0
 11
154.0
 21
148.3999999999999
 31
0.0
 70
    32
 71
     5
 42
12.0
  3
SYS$0
100
AcDbAlignedDimension
 13
160.0
 23
136.3000000000001
 33
0.0
 14
148.0
 24
136.3000000000001
 34
0.0
100
AcDbRotatedDimension
1001
ACAD
1000
DSTYLE
1002
{
1070
   271
1070
     1
1002
}
  0
DIMENSION
  5
5B93B
102
{ACAD_XDICTIONARY
360
5B93C
102
}
102
{ACAD_REACTORS
330
5B93D
102
}
330
1F
100
AcDbEntity
  8
AM_5
100
AcDbDimension
  2
*D22
 10
170.0
 20
63.29999999999995
 30
0.0
 11
170.0
 21
65.29999999999997
 31
0.0
 70
   160
 71
     5
 42
3.999999999999992
  3
SYS$0
100
AcDbAlignedDimension
 13
160.0
 23
67.29999999999995
 33
0.0
 14
159.6999999999999
 24
63.29999999999995
 34
0.0
 50
270.0
100
AcDbRotatedDimension
1001
ACAD
1000
DSTYLE
1002
{
1070
   271
1070
     1
1002
}
  0
MTEXT
  5
5B93F
330
1F
100
AcDbEntity
  8
AM_6
100
AcDbMText
 10
154.0
 20
50.0
 30
0.0
 40
3.2
 41
20.0
 71
     5
 72
     5
  1
{\L調整板（扉用）}
 73
     1
 44
1.0
1001
ACAD
1000
MTEXTBEGIN
1070
    73
1070
     1
1070
    44
1040
1.0
1070
    74
1070
     0
1000
MTEXTEND
  0
DIMENSION
  5
5B9D5
330
1F
100
AcDbEntity
  8
AM_5
100
AcDbDimension
  2
*D23
 10
140.0
 20
110.3000000000001
 30
0.0
 11
136.8999999999999
 21
99.80000000000032
 31
0.0
 70
    32
  1
<>
 71
     5
 42
20.99999999999977
  3
SYS$0
100
AcDbAlignedDimension
 13
145.9
 23
89.3000000000004
 33
0.0
 14
145.0
 24
110.3000000000001
 34
0.0
 50
90.0
100
AcDbRotatedDimension
1001
ACAD
1000
DSTYLE
1002
{
1070
   286
1070
     0
1070
   284
1070
     8
1070
   274
1070
     2
1070
   272
1070
     1
1070
    47
1040
0.2
1070
    48
1040
0.2
1002
}
  0
INSERT
  5
5BA34
330
1F
100
AcDbEntity
  8
AM_5
100
AcDbBlockReference
  2
*S26
 10
0.0
 20
0.0
 30
0.0
  0
MTEXT
  5
5BBE2
330
1F
100
AcDbEntity
  8
AM_6
100
AcDbMText
 10
23.5
 20
52.5
 30
0.0
 40
3.2
 41
24.0
 71
     5
 72
     5
  1
EFH-100-2
 73
     1
 44
1.0
1001
ACAD
1000
MTEXTBEGIN
1070
    73
1070
     1
1070
    44
1040
1.0
1070
    74
1070
     0
1000
MTEXTEND
  0
MTEXT
  5
5BBE3
330
1F
100
AcDbEntity
  8
AM_6
100
AcDbMText
 10
23.5
 20
44.5
 30
0.0
 40
3.2
 41
24.0
 71
     5
 72
     5
  1
EFH-100-3
 73
     1
 44
1.0
1001
ACAD
1000
MTEXTBEGIN
1070
    73
1070
     1
1070
    44
1040
1.0
1070
    74
1070
     0
1000
MTEXTEND
  0
MTEXT
  5
5BBE4
330
1F
100
AcDbEntity
  8
AM_6
100
AcDbMText
 10
23.5
 20
36.5
 30
0.0
 40
3.2
 41
24.0
 71
     5
 72
     5
  1
EFH-100-4
 73
     1
 44
1.0
1001
ACAD
1000
MTEXTBEGIN
1070
    73
1070
     1
1070
    44
1040
1.0
1070
    74
1070
     0
1000
MTEXTEND
  0
MTEXT
  5
5BBE5
330
1F
100
AcDbEntity
  8
AM_6
100
AcDbMText
 10
23.5
 20
28.5
 30
0.0
 40
3.2
 41
24.0
 71
     5
 72
     5
  1
EFH-100S-2
 73
     1
 44
1.0
1001
ACAD
1000
MTEXTBEGIN
1070
    73
1070
     1
1070
    44
1040
1.0
1070
    74
1070
     0
1000
MTEXTEND
  0
MTEXT
  5
5BBE6
330
1F
100
AcDbEntity
  8
AM_6
100
AcDbMText
 10
23.5
 20
20.5
 30
0.0
 40
3.2
 41
24.0
 71
     5
 72
     5
  1
EFH-100S-3
 73
     1
 44
1.0
1001
ACAD
1000
MTEXTBEGIN
1070
    73
1070
     1
1070
    44
1040
1.0
1070
    74
1070
     0
1000
MTEXTEND
  0
MTEXT
  5
5BBE7
330
1F
100
AcDbEntity
  8
AM_6
100
AcDbMText
 10
23.5
 20
12.5
 30
0.0
 40
3.2
 41
24.0
 71
     5
 72
     5
  1
EFH-100S-4
 73
     1
 44
1.0
1001
ACAD
1000
MTEXTBEGIN
1070
    73
1070
     1
1070
    44
1040
1.0
1070
    74
1070
     0
1000
MTEXTEND
  0
MTEXT
  5
5BBE8
330
1F
100
AcDbEntity
  8
AM_6
100
AcDbMText
 10
23.5
 20
60.5
 30
0.0
 40
3.2
 41
24.0
 71
     5
 72
     5
  1
品　番
 73
     1
 44
1.0
1001
ACAD
1000
MTEXTBEGIN
1070
    73
1070
     1
1070
    44
1040
1.0
1070
    74
1070
     0
1000
MTEXTEND
  0
MTEXT
  5
5BBEA
330
1F
100
AcDbEntity
  8
AM_6
100
AcDbMText
 10
47.5
 20
44.5
 30
0.0
 40
3.2
 41
24.0
 71
     5
 72
     5
  1
亜鉛ダイキャスト
 73
     1
 44
1.0
1001
ACAD
1000
MTEXTBEGIN
1070
    73
1070
     1
1070
    44
1040
1.0
1070
    74
1070
     0
1000
MTEXTEND
  0
MTEXT
  5
5BBEB
330
1F
100
AcDbEntity
  8
AM_6
100
AcDbMText
 10
47.5
 20
20.5
 30
0.0
 40
3.2
 41
24.0
 71
     5
 72
     5
  1
ステンレス
 73
     1
 44
1.0
1001
ACAD
1000
MTEXTBEGIN
1070
    73
1070
     1
1070
    44
1040
1.0
1070
    74
1070
     0
1000
MTEXTEND
  0
MTEXT
  5
5BBEC
330
1F
100
AcDbEntity
  8
AM_6
100
AcDbMText
 10
47.5
 20
60.5
 30
0.0
 40
3.2
 41
24.0
 71
     5
 72
     5
  1
本　体　材　質
 73
     1
 44
1.0
1001
ACAD
1000
MTEXTBEGIN
1070
    73
1070
     1
1070
    44
1040
1.0
1070
    74
1070
     0
1000
MTEXTEND
  0
MTEXT
  5
5BC07
330
1F
100
AcDbEntity
  8
AM_6
100
AcDbMText
 10
67.5
 20
60.5
 30
0.0
 40
3.2
 41
16.0
 71
     5
 72
     5
  1
A
 73
     1
 44
1.0
1001
ACAD
1000
MTEXTBEGIN
1070
    73
1070
     1
1070
    44
1040
1.0
1070
    74
1070
     0
1000
MTEXTEND
  0
MTEXT
  5
5BC08
330
1F
100
AcDbEntity
  8
AM_6
100
AcDbMText
 10
83.49999999999999
 20
60.49999999994804
 30
0.0
 40
3.2
 41
16.0
 71
     5
 72
     5
  1
B
 73
     1
 44
1.0
1001
ACAD
1000
MTEXTBEGIN
1070
    73
1070
     1
1070
    44
1040
1.0
1070
    74
1070
     0
1000
MTEXTEND
  0
MTEXT
  5
5BC09
330
1F
100
AcDbEntity
  8
AM_6
100
AcDbMText
 10
99.50000000000001
 20
60.49999999994804
 30
0.0
 40
3.2
 41
16.0
 71
     5
 72
     5
  1
C
 73
     1
 44
1.0
1001
ACAD
1000
MTEXTBEGIN
1070
    73
1070
     1
1070
    44
1040
1.0
1070
    74
1070
     0
1000
MTEXTEND
  0
LINE
  5
5BC0A
330
1F
100
AcDbEntity
  8
AM_0
100
AcDbLine
 10
11.5
 20
64.5
 30
0.0
 11
107.5
 21
64.50000000005196
 31
0.0
  0
LINE
  5
5BC0B
330
1F
100
AcDbEntity
  8
AM_0
100
AcDbLine
 10
107.5
 20
64.50000000005196
 30
0.0
 11
107.5
 21
8.5
 31
0.0
  0
LINE
  5
5BC0C
330
1F
100
AcDbEntity
  8
AM_0
100
AcDbLine
 10
107.5
 20
8.5
 30
0.0
 11
11.5
 21
8.5
 31
0.0
  0
LINE
  5
5BC0D
330
1F
100
AcDbEntity
  8
AM_0
100
AcDbLine
 10
11.5
 20
8.5
 30
0.0
 11
11.49999999996964
 21
64.5
 31
0.0
  0
LINE
  5
5BC0E
330
1F
100
AcDbEntity
  8
AM_0
100
AcDbLine
 10
11.49999999997396
 20
56.5
 30
0.0
 11
107.5
 21
56.5
 31
0.0
  0
LINE
  5
5BC0F
330
1F
100
AcDbEntity
  8
AM_0
100
AcDbLine
 10
11.5
 20
32.5
 30
0.0
 11
107.5
 21
32.5
 31
0.0
  0
LINE
  5
5BC10
330
1F
100
AcDbEntity
  8
AM_5
100
AcDbLine
 10
35.5
 20
64.5
 30
0.0
 11
35.5
 21
8.5
 31
0.0
  0
LINE
  5
5BC11
330
1F
100
AcDbEntity
  8
AM_5
100
AcDbLine
 10
59.5
 20
8.5
 30
0.0
 11
59.5
 21
64.5
 31
0.0
  0
LINE
  5
5BC12
330
1F
100
AcDbEntity
  8
AM_5
100
AcDbLine
 10
75.5
 20
64.5
 30
0.0
 11
75.5
 21
8.5
 31
0.0
  0
LINE
  5
5BC13
330
1F
100
AcDbEntity
  8
AM_5
100
AcDbLine
 10
91.5
 20
64.50000000005196
 30
0.0
 11
91.5
 21
8.5
 31
0.0
  0
LINE
  5
5BC14
330
1F
100
AcDbEntity
  8
AM_5
100
AcDbLine
 10
11.5
 20
48.5
 30
0.0
 11
35.5
 21
48.5
 31
0.0
  0
LINE
  5
5BC15
330
1F
100
AcDbEntity
  8
AM_5
100
AcDbLine
 10
35.5
 20
40.49999999999999
 30
0.0
 11
11.5
 21
40.49999999999999
 31
0.0
  0
LINE
  5
5BC16
330
1F
100
AcDbEntity
  8
AM_5
100
AcDbLine
 10
11.5
 20
24.5
 30
0.0
 11
35.5
 21
24.5
 31
0.0
  0
LINE
  5
5BC17
330
1F
100
AcDbEntity
  8
AM_5
100
AcDbLine
 10
35.5
 20
16.5
 30
0.0
 11
11.5
 21
16.5
 31
0.0
  0
LINE
  5
5BC1E
330
1F
100
AcDbEntity
  8
AM_5
100
AcDbLine
 10
59.5
 20
48.5
 30
0.0
 11
107.5
 21
48.5
 31
0.0
  0
LINE
  5
5BC1F
330
1F
100
AcDbEntity
  8
AM_5
100
AcDbLine
 10
107.5
 20
40.49999999999999
 30
0.0
 11
59.5
 21
40.49999999999999
 31
0.0
  0
LINE
  5
5BC20
330
1F
100
AcDbEntity
  8
AM_5
100
AcDbLine
 10
59.5
 20
24.5
 30
0.0
 11
107.5
 21
24.5
 31
0.0
  0
LINE
  5
5BC21
330
1F
100
AcDbEntity
  8
AM_5
100
AcDbLine
 10
107.5
 20
16.5
 30
0.0
 11
59.5
 21
16.5
 31
0.0
  0
MTEXT
  5
5BC26
330
1F
100
AcDbEntity
  8
AM_6
100
AcDbMText
 10
67.5
 20
52.5
 30
0.0
 40
3.2
 41
16.0
 71
     5
 72
     5
  1
26
 73
     1
 44
1.0
1001
ACAD
1000
MTEXTBEGIN
1070
    73
1070
     1
1070
    44
1040
1.0
1070
    74
1070
     0
1000
MTEXTEND
  0
MTEXT
  5
5BC27
330
1F
100
AcDbEntity
  8
AM_6
100
AcDbMText
 10
67.5
 20
44.5
 30
0.0
 40
3.2
 41
16.0
 71
     5
 72
     5
  1
32
 73
     1
 44
1.0
1001
ACAD
1000
MTEXTBEGIN
1070
    73
1070
     1
1070
    44
1040
1.0
1070
    74
1070
     0
1000
MTEXTEND
  0
MTEXT
  5
5BC28
330
1F
100
AcDbEntity
  8
AM_6
100
AcDbMText
 10
67.5
 20
36.5
 30
0.0
 40
3.2
 41
16.0
 71
     5
 72
     5
  1
38
 73
     1
 44
1.0
1001
ACAD
1000
MTEXTBEGIN
1070
    73
1070
     1
1070
    44
1040
1.0
1070
    74
1070
     0
1000
MTEXTEND
  0
MTEXT
  5
5BC29
330
1F
100
AcDbEntity
  8
AM_6
100
AcDbMText
 10
83.50000000001296
 20
52.5
 30
0.0
 40
3.2
 41
16.0
 71
     5
 72
     5
  1
15
 73
     1
 44
1.0
1001
ACAD
1000
MTEXTBEGIN
1070
    73
1070
     1
1070
    44
1040
1.0
1070
    74
1070
     0
1000
MTEXTEND
  0
MTEXT
  5
5BC2A
330
1F
100
AcDbEntity
  8
AM_6
100
AcDbMText
 10
83.50000000001296
 20
44.5
 30
0.0
 40
3.2
 41
16.0
 71
     5
 72
     5
  1
21
 73
     1
 44
1.0
1001
ACAD
1000
MTEXTBEGIN
1070
    73
1070
     1
1070
    44
1040
1.0
1070
    74
1070
     0
1000
MTEXTEND
  0
MTEXT
  5
5BC2B
330
1F
100
AcDbEntity
  8
AM_6
100
AcDbMText
 10
83.50000000001296
 20
36.5
 30
0.0
 40
3.2
 41
16.0
 71
     5
 72
     5
  1
27
 73
     1
 44
1.0
1001
ACAD
1000
MTEXTBEGIN
1070
    73
1070
     1
1070
    44
1040
1.0
1070
    74
1070
     0
1000
MTEXTEND
  0
MTEXT
  5
5BC2C
330
1F
100
AcDbEntity
  8
AM_6
100
AcDbMText
 10
99.50000000001296
 20
52.5
 30
0.0
 40
3.2
 41
16.0
 71
     5
 72
     5
  1
17
 73
     1
 44
1.0
1001
ACAD
1000
MTEXTBEGIN
1070
    73
1070
     1
1070
    44
1040
1.0
1070
    74
1070
     0
1000
MTEXTEND
  0
MTEXT
  5
5BC2D
330
1F
100
AcDbEntity
  8
AM_6
100
AcDbMText
 10
99.50000000001296
 20
44.5
 30
0.0
 40
3.2
 41
16.0
 71
     5
 72
     5
  1
23
 73
     1
 44
1.0
1001
ACAD
1000
MTEXTBEGIN
1070
    73
1070
     1
1070
    44
1040
1.0
1070
    74
1070
     0
1000
MTEXTEND
  0
MTEXT
  5
5BC2E
330
1F
100
AcDbEntity
  8
AM_6
100
AcDbMText
 10
99.50000000001296
 20
36.5
 30
0.0
 40
3.2
 41
16.0
 71
     5
 72
     5
  1
29
 73
     1
 44
1.0
1001
ACAD
1000
MTEXTBEGIN
1070
    73
1070
     1
1070
    44
1040
1.0
1070
    74
1070
     0
1000
MTEXTEND
  0
MTEXT
  5
5BC2F
330
1F
100
AcDbEntity
  8
AM_6
100
AcDbMText
 10
67.5
 20
28.5
 30
0.0
 40
3.2
 41
16.0
 71
     5
 72
     5
  1
26
 73
     1
 44
1.0
1001
ACAD
1000
MTEXTBEGIN
1070
    73
1070
     1
1070
    44
1040
1.0
1070
    74
1070
     0
1000
MTEXTEND
  0
MTEXT
  5
5BC30
330
1F
100
AcDbEntity
  8
AM_6
100
AcDbMText
 10
67.5
 20
20.5
 30
0.0
 40
3.2
 41
16.0
 71
     5
 72
     5
  1
32
 73
     1
 44
1.0
1001
ACAD
1000
MTEXTBEGIN
1070
    73
1070
     1
1070
    44
1040
1.0
1070
    74
1070
     0
1000
MTEXTEND
  0
MTEXT
  5
5BC31
330
1F
100
AcDbEntity
  8
AM_6
100
AcDbMText
 10
67.5
 20
12.5
 30
0.0
 40
3.2
 41
16.0
 71
     5
 72
     5
  1
38
 73
     1
 44
1.0
1001
ACAD
1000
MTEXTBEGIN
1070
    73
1070
     1
1070
    44
1040
1.0
1070
    74
1070
     0
1000
MTEXTEND
  0
MTEXT
  5
5BC32
330
1F
100
AcDbEntity
  8
AM_6
100
AcDbMText
 10
83.50000000001296
 20
28.5
 30
0.0
 40
3.2
 41
16.0
 71
     5
 72
     5
  1
15
 73
     1
 44
1.0
1001
ACAD
1000
MTEXTBEGIN
1070
    73
1070
     1
1070
    44
1040
1.0
1070
    74
1070
     0
1000
MTEXTEND
  0
MTEXT
  5
5BC33
330
1F
100
AcDbEntity
  8
AM_6
100
AcDbMText
 10
83.50000000001296
 20
20.5
 30
0.0
 40
3.2
 41
16.0
 71
     5
 72
     5
  1
21
 73
     1
 44
1.0
1001
ACAD
1000
MTEXTBEGIN
1070
    73
1070
     1
1070
    44
1040
1.0
1070
    74
1070
     0
1000
MTEXTEND
  0
MTEXT
  5
5BC34
330
1F
100
AcDbEntity
  8
AM_6
100
AcDbMText
 10
83.50000000001296
 20
12.5
 30
0.0
 40
3.2
 41
16.0
 71
     5
 72
     5
  1
27
 73
     1
 44
1.0
1001
ACAD
1000
MTEXTBEGIN
1070
    73
1070
     1
1070
    44
1040
1.0
1070
    74
1070
     0
1000
MTEXTEND
  0
MTEXT
  5
5BC35
330
1F
100
AcDbEntity
  8
AM_6
100
AcDbMText
 10
99.50000000001296
 20
28.5
 30
0.0
 40
3.2
 41
16.0
 71
     5
 72
     5
  1
17
 73
     1
 44
1.0
1001
ACAD
1000
MTEXTBEGIN
1070
    73
1070
     1
1070
    44
1040
1.0
1070
    74
1070
     0
1000
MTEXTEND
  0
MTEXT
  5
5BC36
330
1F
100
AcDbEntity
  8
AM_6
100
AcDbMText
 10
99.50000000001296
 20
20.5
 30
0.0
 40
3.2
 41
16.0
 71
     5
 72
     5
  1
23
 73
     1
 44
1.0
1001
ACAD
1000
MTEXTBEGIN
1070
    73
1070
     1
1070
    44
1040
1.0
1070
    74
1070
     0
1000
MTEXTEND
  0
MTEXT
  5
5BC37
330
1F
100
AcDbEntity
  8
AM_6
100
AcDbMText
 10
99.50000000001296
 20
12.5
 30
0.0
 40
3.2
 41
16.0
 71
     5
 72
     5
  1
29
 73
     1
 44
1.0
1001
ACAD
1000
MTEXTBEGIN
1070
    73
1070
     1
1070
    44
1040
1.0
1070
    74
1070
     0
1000
MTEXTEND
  0
MTEXT
  5
6162F
330
1F
100
AcDbEntity
  8
AM_6
100
AcDbMText
 10
430.0
 20
3.0
 30
0.0
 40
3.2
 41
20.0
 71
     5
 72
     5
  1
{\LA3・1:1}
 73
     1
 44
1.0
1001
ACAD
1000
MTEXTBEGIN
1070
    73
1070
     1
1070
    44
1040
1.0
1070
    74
1070
     0
1000
MTEXTEND
  0
MTEXT
  5
7AC05
330
1F
100
AcDbEntity
  8
AM_6
100
AcDbMText
 10
-1051.000000000001
 20
-5888.0
 30
0.0
 40
6.4
 41
180.0
 71
     4
 72
     5
  1
　
 73
     1
 44
1.0
1001
ACAD
1000
MTEXTBEGIN
1070
    73
1070
     1
1070
    44
1040
1.0
1070
    74
1070
     0
1000
MTEXTEND
  0
MTEXT
  5
7AC06
330
1F
100
AcDbEntity
  8
AM_6
100
AcDbMText
 10
-1051.000000000001
 20
-5920.0
 30
0.0
 40
6.4
 41
180.0
 71
     4
 72
     5
  1
　
 73
     1
 44
1.0
1001
ACAD
1000
MTEXTBEGIN
1070
    73
1070
     1
1070
    44
1040
1.0
1070
    74
1070
     0
1000
MTEXTEND
  0
ENDSEC
  0
SECTION
  2
OBJECTS
  0
DICTIONARY
  5
C
330
0
100
AcDbDictionary
281
     1
  3
ACAD_2007HEADERVARS_RT
350
AAA0D
  3
ACAD_BGPLOT_KEY
350
AB06
  3
ACAD_COLOR
350
A91D
  3
ACAD_GROUP
350
D
  3
ACAD_LAYOUT
350
1A
  3
ACAD_MATERIAL
350
A91C
  3
ACAD_MLINESTYLE
350
17
  3
ACAD_PLOTSETTINGS
350
19
  3
ACAD_PLOTSTYLENAME
350
E
  3
ACAD_TABLESTYLE
350
AAB9
  3
ACAD_VISUALSTYLE
350
B0F1
  3
AcAsAppObject
350
3DA1
  3
ACASGREF_MASTER
350
3DE9
  3
AcDbVariableDictionary
350
34
  3
AcmDictionary
350
47
  3
AD_GREF_MODULE
350
3DEA
  3
AD_MAPI_MODULE
350
3E06
  3
AMG
350
2B
  3
AMGSNAPSETTINGS
350
7D
  3
ASE_INDEX_DICTIONARY
350
AA8D8
  3
DWGPROPS
350
AAA0C
  3
MAPISURF_MODULE
350
3DEB
  0
DICTIONARY
  5
3F95
330
2
100
AcDbDictionary
280
     1
281
     1
  3
ACAD_LAYERFILTERS
360
B466
  3
ACAD_LAYERSTATES
360
3F96
  3
ACLYDICTIONARY
360
B465
  3
AMLAYER_GROUPCOLORS
360
AAB4
  0
DICTIONARY
  5
8A
330
1F
100
AcDbDictionary
280
     1
281
     1
  3
ACAD_SORTENTS
360
B1BA
  0
DICTIONARY
  5
5B6A5
330
5B6A4
100
AcDbDictionary
280
     1
281
     1
  3
ACAD_DIMASSOC
360
5B6A6
  0
DICTIONARY
  5
5B6A8
330
5B6A7
100
AcDbDictionary
280
     1
281
     1
  3
ACAD_DIMASSOC
360
5B6A9
  0
DICTIONARY
  5
5B6EB
330
5B6EA
100
AcDbDictionary
280
     1
281
     1
  3
ACAD_DIMASSOC
360
5B6EC
  0
DICTIONARY
  5
5B6EE
330
5B6ED
100
AcDbDictionary
280
     1
281
     1
  3
ACAD_DIMASSOC
360
5B6EF
  0
DICTIONARY
  5
5B6F1
330
5B6F0
100
AcDbDictionary
280
     1
281
     1
  3
ACAD_DIMASSOC
360
5B6F2
  0
DICTIONARY
  5
5B6F5
330
5B6F4
100
AcDbDictionary
280
     1
281
     1
  3
ACAD_DIMASSOC
360
5B6F6
  0
DICTIONARY
  5
5B6F8
330
5B6F7
100
AcDbDictionary
280
     1
281
     1
  3
ACAD_DIMASSOC
360
5B6F9
  0
DICTIONARY
  5
5B933
330
5B932
100
AcDbDictionary
280
     1
281
     1
  3
ACAD_DIMASSOC
360
5B934
  0
DICTIONARY
  5
5B936
330
5B935
100
AcDbDictionary
280
     1
281
     1
  3
ACAD_DIMASSOC
360
5B937
  0
DICTIONARY
  5
5B939
330
5B938
100
AcDbDictionary
280
     1
281
     1
  3
ACAD_DIMASSOC
360
5B93A
  0
DICTIONARY
  5
5B93C
330
5B93B
100
AcDbDictionary
280
     1
281
     1
  3
ACAD_DIMASSOC
360
5B93D
  0
DICTIONARY
  5
AAA0D
102
{ACAD_REACTORS
330
C
102
}
330
C
100
AcDbDictionary
281
     1
  3
DIMARCSYM
350
AAA0E
  0
DICTIONARY
  5
AB06
102
{ACAD_REACTORS
330
C
102
}
330
C
100
AcDbDictionary
280
     1
281
     1
  0
DICTIONARY
  5
A91D
102
{ACAD_REACTORS
330
C
102
}
330
C
100
AcDbDictionary
281
     1
  0
DICTIONARY
  5
D
102
{ACAD_REACTORS
330
C
102
}
330
C
100
AcDbDictionary
281
     1
  0
DICTIONARY
  5
1A
102
{ACAD_REACTORS
330
C
102
}
330
C
100
AcDbDictionary
281
     1
  3
Model
350
22
  3
ﾚｲｱｳﾄ1
350
1E
  3
ﾚｲｱｳﾄ2
350
26
  0
DICTIONARY
  5
A91C
102
{ACAD_REACTORS
330
C
102
}
330
C
100
AcDbDictionary
281
     1
  3
ByBlock
350
B0EF
  3
ByLayer
350
B0EE
  3
Global
350
B0F0
  0
DICTIONARY
  5
17
102
{ACAD_REACTORS
330
C
102
}
330
C
100
AcDbDictionary
281
     1
  3
Standard
350
18
  0
DICTIONARY
  5
19
102
{ACAD_REACTORS
330
C
102
}
330
C
100
AcDbDictionary
281
     1
  0
ACDBDICTIONARYWDFLT
  5
E
102
{ACAD_REACTORS
330
C
102
}
330
C
100
AcDbDictionary
281
     1
  3
Normal
350
F
100
AcDbDictionaryWithDefault
340
F
  0
DICTIONARY
  5
AAB9
102
{ACAD_REACTORS
330
C
102
}
330
C
100
AcDbDictionary
281
     1
  3
Standard
350
AABA
  0
DICTIONARY
  5
B0F1
102
{ACAD_REACTORS
330
C
102
}
330
C
100
AcDbDictionary
281
     1
  3
2dWireframe
350
B0F7
  3
3D Hidden
350
B0F9
  3
3dWireframe
350
B0F8
  3
Basic
350
B0F6
  3
Brighten
350
B0FD
  3
ColorChange
350
B101
  3
Conceptual
350
B0FA
  3
Dim
350
B0FC
  3
Facepattern
350
B100
  3
Flat
350
B0F2
  3
FlatWithEdges
350
B0F3
  3
Gouraud
350
B0F4
  3
GouraudWithEdges
350
B0F5
  3
Linepattern
350
B0FF
  3
Realistic
350
B0FB
  3
Thicken
350
B0FE
  0
ACAD_PROXY_OBJECT
  5
3DA1
102
{ACAD_REACTORS
330
C
102
}
330
C
100
AcDbProxyObject
 90
      499
 91
      576
 95
   917527
 70
     0
 93
       10
310
407F
 94
        0
1001
ACAD
1000
AcRTDxfName
1000
ASAPP
  0
ACAD_PROXY_OBJECT
  5
3DE9
102
{ACAD_REACTORS
330
C
102
}
330
C
100
AcDbProxyObject
 90
      499
 91
      581
 95
   917527
 70
     0
 93
       34
310
010000407F
 94
        0
1001
ACAD
1000
AcRTDxfName
1000
ACASGREFMASTER
  0
DICTIONARY
  5
34
102
{ACAD_REACTORS
330
C
102
}
330
C
100
AcDbDictionary
281
     1
  3
CTABLESTYLE
350
AAF3
  3
DIMASSOC
350
A10C
  3
FIELDEVAL
350
AB07
  3
INDEXCTL
350
35
  3
SORTENTS
350
194C
  0
DICTIONARY
  5
47
102
{ACAD_REACTORS
330
C
102
}
330
C
100
AcDbDictionary
281
     1
  3
AcmBOM
350
7E8
  3
AcmStdDictionary
350
4C
  3
AMDTSECTSYM_ARROWCOLOR
350
A929
  0
ACAD_PROXY_OBJECT
  5
3DEA
102
{ACAD_REACTORS
330
C
102
}
330
C
100
AcDbProxyObject
 90
      499
 91
      582
 95
   917527
 70
     0
 93
      114
310
00000043800000000000000000003F
 94
        0
1001
ACAD
1000
AcRTDxfName
1000
ACADGREFMODULE
  0
ACAD_PROXY_OBJECT
  5
3E06
102
{ACAD_REACTORS
330
C
102
}
330
C
100
AcDbProxyObject
 90
      499
 91
      594
 95
   917527
 70
     0
 93
       34
310
05000044FF
 94
        0
1001
ACAD
1000
AcRTDxfName
1000
MAPIADMODULE
  0
DICTIONARY
  5
2B
102
{ACAD_REACTORS
330
C
102
}
330
C
100
AcDbDictionary
281
     1
  0
DICTIONARY
  5
7D
102
{ACAD_REACTORS
330
C
102
}
330
C
100
AcDbDictionary
281
     1
  0
DICTIONARY
  5
AA8D8
102
{ACAD_REACTORS
330
C
102
}
330
C
100
AcDbDictionary
281
     1
  3
ASEBlockHierarchyIndexRecord
350
AA8D9
1001
DCO15
1040
1749814246.578
  0
XRECORD
  5
AAA0C
102
{ACAD_REACTORS
330
C
102
}
330
C
100
AcDbXrecord
280
     1
  1
DWGPROPS COOKIE
  2

  3

  4

  6

  7

  8
Administrator
  9

300
AmdtFileType=84
301
=
302
=
303
=
304
=
305
=
306
=
307
=
308
=
309
=
 40
3.10014667824074
 41
2455567.561054317
 42
2456267.608068935
  1

 90
        1
  0
ACAD_PROXY_OBJECT
  5
3DEB
102
{ACAD_REACTORS
330
C
102
}
330
C
100
AcDbProxyObject
 90
      499
 91
      583
 95
   917527
 70
     0
 93
        8
310
047E
 94
        0
1001
ACAD
1000
AcRTDxfName
1000
AMDTMAPISURFMOUDULE
  0
DICTIONARY
  5
B466
102
{ACAD_REACTORS
330
3F95
102
}
330
3F95
100
AcDbDictionary
281
     1
  0
DICTIONARY
  5
3F96
102
{ACAD_REACTORS
330
3F95
102
}
330
3F95
100
AcDbDictionary
281
     1
  3
20011210
350
3FB7
  0
DICTIONARY
  5
B465
102
{ACAD_REACTORS
330
3F95
102
}
330
3F95
100
AcDbDictionary
281
     1
1001
ACAD
1000
<All
  0
DICTIONARY
  5
AAB4
102
{ACAD_REACTORS
330
3F95
102
}
330
3F95
100
AcDbDictionary
280
     1
281
     1
  0
SORTENTSTABLE
  5
B1BA
102
{ACAD_REACTORS
330
8A
102
}
330
8A
100
AcDbSortentsTable
330
1F
331
5B69C
  5
5B69C
331
5B665
  5
5B665
331
5B6DB
  5
5B6DB
331
5B712
  5
5B712
331
5B66D
  5
5B66D
331
5B6A4
  5
5B6A4
331
5B6E3
  5
5B6E3
331
5B71A
  5
5B71A
331
5BBE4
  5
5BBE4
331
5B6AC
  5
5B6AC
331
5B675
  5
5B675
331
5B722
  5
5B722
331
5B91E
  5
5B91E
331
5BC33
  5
5BC33
331
5B63E
  5
5B63E
331
5B6B4
  5
5B6B4
331
5B72A
  5
5B72A
331
5B926
  5
5B926
331
5BBEC
  5
5BC06
331
5B92E
  5
5B92E
331
5BC0C
  5
5BC0C
331
7AC05
  5
7BAAD
331
5B732
  5
5B732
331
5B646
  5
5B646
331
5B67D
  5
5B67D
331
5B6BC
  5
5B6BC
331
5B6F3
  5
5B6F3
331
5B6C4
  5
5B6C4
331
5B64E
  5
5B64E
331
5B685
  5
5B685
331
5B6FB
  5
5B6FB
331
5B73A
  5
5B73A
331
5B742
  5
5B742
331
5B656
  5
5B656
331
5B68D
  5
5B68D
331
5B6CC
  5
5B6CC
331
5B703
  5
5B703
331
5B8FF
  5
5B8FF
331
5B9D5
  5
5B9D5
331
5BC14
  5
5BC14
331
5B6D4
  5
5B6D4
331
5B65E
  5
5B65E
331
5B695
  5
5B695
331
5B70B
  5
5B70B
331
5B74A
  5
5B74A
331
5B907
  5
5B907
331
5B90F
  5
5B90F
331
5BC2C
  5
5BC2C
331
5B6DC
  5
5B6DC
331
5B666
  5
5B666
331
5B69D
  5
5B69D
331
5B713
  5
5B713
331
5B66E
  5
5B66E
331
5B6E4
  5
5B6E4
331
5B71B
  5
5B71B
331
5BBE5
  5
5BBE5
331
5B6AD
  5
5B6AD
331
5B676
  5
5B676
331
5B723
  5
5B723
331
5B91F
  5
5B91F
331
5BC34
  5
5BC34
331
5B63F
  5
5B63F
331
5B6B5
  5
5B6B5
331
5B72B
  5
5B72B
331
5B927
  5
5B927
331
5B92F
  5
5B92F
331
5BC0D
  5
5BC0D
331
7AC06
  5
7BAAE
331
5B647
  5
5B647
331
5B67E
  5
5B67E
331
5B6BD
  5
5B6BD
331
5B6F4
  5
5B6F4
331
5B733
  5
5B733
331
5B6C5
  5
5B6C5
331
5B64F
  5
5B64F
331
5B686
  5
5B686
331
5B6FC
  5
5B6FC
331
5B73B
  5
5B73B
331
5B657
  5
5B657
331
5B68E
  5
5B68E
331
5B6CD
  5
5B6CD
331
5B704
  5
5B704
331
5B743
  5
5B743
331
5B900
  5
5B900
331
5B93F
  5
5B93F
331
5BC15
  5
5BC15
331
5B6D5
  5
5B6D5
331
5B65F
  5
5B65F
331
5B696
  5
5B696
331
5B70C
  5
5B70C
331
5B74B
  5
5B74B
331
5B908
  5
5B908
331
5B910
  5
5B910
331
5BC2D
  5
5BC2D
331
5B6DD
  5
5B6DD
331
5B667
  5
5B667
331
5B69E
  5
5B69E
331
5B714
  5
5B714
331
5B66F
  5
5B66F
331
5B6E5
  5
5B6E5
331
5B71C
  5
5B71C
331
5BBE6
  5
5BBE6
331
5B6ED
  5
5B6ED
331
5B677
  5
5B677
331
5B6AE
  5
5B6AE
331
5B724
  5
5B724
331
5B920
  5
5B920
331
5BC35
  5
5BC35
331
5B6B6
  5
5B6B6
331
5B72C
  5
5B72C
331
5B928
  5
5B928
331
5B930
  5
5B930
331
5BC0E
  5
5BC0E
331
5B640
  5
5B640
331
5B648
  5
5B648
331
5B67F
  5
5B67F
331
5B6BE
  5
5B6BE
331
5B734
  5
5B734
331
5B6C6
  5
5B6C6
331
5B650
  5
5B650
331
5B687
  5
5B687
331
5B6FD
  5
5B6FD
331
5B73C
  5
5B73C
331
5B938
  5
5B938
331
5B68F
  5
5B68F
331
5B6CE
  5
5B6CE
331
5B705
  5
5B705
331
5B744
  5
5B744
331
5B901
  5
5B901
331
5BC16
  5
5BC16
331
5BC1E
  5
5BC1E
331
5B6D6
  5
5B6D6
331
5B697
  5
5B697
331
5B70D
  5
5B70D
331
5B74C
  5
5B74C
331
5B909
  5
5B909
331
5B911
  5
5B911
331
5BC26
  5
5BC26
331
5BC2E
  5
5BC2E
331
5B660
  5
5B660
331
5B6DE
  5
5B6DE
331
5B668
  5
5B668
331
5B69F
  5
5B69F
331
5B715
  5
5B715
331
5B670
  5
5B670
331
5B6A7
  5
5B6A7
331
5B6E6
  5
5B6E6
331
5B71D
  5
5B71D
331
5BBE7
  5
5BBE7
331
5B725
  5
5B725
331
5B6AF
  5
5B6AF
331
5B921
  5
5B921
331
5BC36
  5
5BC36
331
5B6B7
  5
5B6B7
331
5B72D
  5
5B72D
331
5B929
  5
5B929
331
5BC07
  5
5BC07
331
5B931
  5
5B931
331
5BC0F
  5
5BC0F
331
5B641
  5
5B641
331
5B678
  5
5B678
331
5B649
  5
5B649
331
5B680
  5
5B680
331
5B6BF
  5
5B6BF
331
5B735
  5
5B735
331
5B6FE
  5
5B6FE
331
5B651
  5
5B651
331
5B688
  5
5B688
331
5B6C7
  5
5B6C7
331
5B73D
  5
5B73D
331
5B659
  5
5B659
331
5B690
  5
5B690
331
5B6CF
  5
5B6CF
331
5B706
  5
5B706
331
5B745
  5
5B745
331
5B902
  5
5B902
331
5BC17
  5
5BC17
331
5BC1F
  5
5BC1F
331
5B70E
  5
5B70E
331
5B6D7
  5
5B6D7
331
5B90A
  5
5B90A
331
5B912
  5
5B912
331
5BC27
  5
5BC27
331
5BC2F
  5
5BC2F
331
5B661
  5
5B661
331
5B698
  5
5B698
331
5B6DF
  5
5B6DF
331
5B669
  5
5B669
331
5B6A0
  5
5B6A0
331
5B716
  5
5B716
331
5B671
  5
5B671
331
5B6E7
  5
5B6E7
331
5B71E
  5
5B71E
331
5BBE8
  5
5BBE8
331
5B726
  5
5B726
331
5B6B0
  5
5B6B0
331
5B922
  5
5B922
331
5BC37
  5
5BC37
331
5B72E
  5
5B72E
331
5B92A
  5
5B92A
331
6162F
  5
6162F
331
5BC08
  5
5BC08
331
5B932
  5
5B932
331
5B642
  5
5B642
331
5B679
  5
5B679
331
5B6B8
  5
5B6B8
331
5B681
  5
5B681
331
5B64A
  5
5B64A
331
5B6C0
  5
5B6C0
331
5B6F7
  5
5B6F7
331
5B736
  5
5B736
331
5B6FF
  5
5B6FF
331
5B652
  5
5B652
331
5B689
  5
5B689
331
5B6C8
  5
5B6C8
331
5B73E
  5
5B73E
331
5BC10
  5
5BC10
331
5B691
  5
5B691
331
5B65A
  5
5B65A
331
5B6D0
  5
5B6D0
331
5B707
  5
5B707
331
5B746
  5
5B746
331
5B903
  5
5B903
331
5BC20
  5
5BC20
331
5B70F
  5
5B70F
331
5B90B
  5
5B90B
331
5BC28
  5
5BC28
331
5B662
  5
5B662
331
5B699
  5
5B699
331
5B6D8
  5
5B6D8
331
5B717
  5
5B717
331
5B66A
  5
5B66A
331
5B6A1
  5
5B6A1
331
5B6E0
  5
5B6E0
331
5B672
  5
5B672
331
5B6E8
  5
5B6E8
331
5B71F
  5
5B71F
331
5B91B
  5
5B91B
331
5BC30
  5
5BC30
331
5B727
  5
5B727
331
5B63B
  5
5B63B
331
5B6B1
  5
5B6B1
331
5B923
  5
5B923
331
5B72F
  5
5B72F
331
5B92B
  5
5B92B
331
5BC09
  5
5BC09
331
5B6F0
  5
5B6F0
331
5B643
  5
5B643
331
5B67A
  5
5B67A
331
5B6B9
  5
5B6B9
331
5B682
  5
5B682
331
5B64B
  5
5B64B
331
5B6C1
  5
5B6C1
331
5B737
  5
5B737
331
5BC11
  5
5BC11
331
5B700
  5
5B700
331
5B653
  5
5B653
331
5B68A
  5
5B68A
331
5B6C9
  5
5B6C9
331
5B73F
  5
5B73F
331
5B93B
  5
5B93B
331
5B692
  5
5B692
331
5B65B
  5
5B65B
331
5B6D1
  5
5B6D1
331
5B708
  5
5B708
331
5B747
  5
5B747
331
5B904
  5
5B904
331
5BC21
  5
5BC21
331
5B90C
  5
5B90C
331
5BC29
  5
5BC29
331
5B69A
  5
5B69A
331
5B663
  5
5B663
331
5B6D9
  5
5B6D9
331
5B710
  5
5B710
331
5B718
  5
5B718
331
5B66B
  5
5B66B
331
5B6A2
  5
5B6A2
331
5B6E1
  5
5B6E1
331
5BBE2
  5
5BBE2
331
5B6AA
  5
5B6AA
331
5B673
  5
5B673
331
5B6E9
  5
5B6E9
331
5B720
  5
5B720
331
5B91C
  5
5B91C
331
5BC31
  5
5BC31
331
5B728
  5
5B728
331
5B63C
  5
5B63C
331
5B6B2
  5
5B6B2
331
5B924
  5
5B924
331
5BBEA
  5
5BC04
331
5B92C
  5
5B92C
331
5BC0A
  5
5BC0A
331
5B730
  5
5B730
331
5B644
  5
5B644
331
5B67B
  5
5B67B
331
5B6BA
  5
5B6BA
331
5B683
  5
5B683
331
5B64C
  5
5B64C
331
5B6C2
  5
5B6C2
331
5B738
  5
5B738
331
5B740
  5
5B740
331
5B654
  5
5B654
331
5B68B
  5
5B68B
331
5B6CA
  5
5B6CA
331
5B701
  5
5B701
331
5BC12
  5
5BC12
331
5B693
  5
5B693
331
5B65C
  5
5B65C
331
5B6D2
  5
5B6D2
331
5B709
  5
5B709
331
5B748
  5
5B748
331
5B905
  5
5B905
331
5B90D
  5
5B90D
331
5BC2A
  5
5BC2A
331
5B69B
  5
5B69B
331
5B664
  5
5B664
331
5B6DA
  5
5B6DA
331
5B711
  5
5B711
331
5B719
  5
5B719
331
5B66C
  5
5B66C
331
5B6A3
  5
5B6A3
331
5B6E2
  5
5B6E2
331
5BBE3
  5
5BBE3
331
5B6AB
  5
5B6AB
331
5B674
  5
5B674
331
5B6EA
  5
5B6EA
331
5B721
  5
5B721
331
5B91D
  5
5B91D
331
5BC32
  5
5BC32
331
5B729
  5
5B729
331
5B63D
  5
5B63D
331
5B6B3
  5
5B6B3
331
5B925
  5
5B925
331
5BBEB
  5
5BC05
331
5B92D
  5
5B92D
331
5B935
  5
5B935
331
5BC0B
  5
5BC0B
331
5B731
  5
5B731
331
5B645
  5
5B645
331
5B67C
  5
5B67C
331
5B6BB
  5
5B6BB
331
5B6C3
  5
5B6C3
331
5B64D
  5
5B64D
331
5B684
  5
5B684
331
5B6FA
  5
5B6FA
331
5B739
  5
5B739
331
5B741
  5
5B741
331
5B655
  5
5B655
331
5B68C
  5
5B68C
331
5B6CB
  5
5B6CB
331
5B702
  5
5B702
331
5BC13
  5
5BC13
331
5B694
  5
5B694
331
5B65D
  5
5B65D
331
5B6D3
  5
5B6D3
331
5B70A
  5
5B70A
331
5B749
  5
5B749
331
5B906
  5
5B906
331
5B90E
  5
5B90E
331
5BA34
  5
5BA34
331
5BC2B
  5
5BC2B
  0
DIMASSOC
  5
5B6A6
102
{ACAD_REACTORS
330
5B6A5
102
}
330
5B6A5
100
AcDbDimAssoc
330
5B6A4
 90
        3
 70
     0
 71
     0
  1
AcDbOsnapPointRef
 72
     1
331
5B65C
 73
     0
 91
        0
 40
0.0
 10
0.0
 20
0.0
 30
2.000000000000000E+50
 75
     0
  1
AcDbOsnapPointRef
 72
     1
331
5B68C
 73
     0
 91
        0
 40
0.0
 10
0.0
 20
0.0
 30
2.000000000000000E+50
 75
     0
  0
DIMASSOC
  5
5B6A9
102
{ACAD_REACTORS
330
5B6A8
102
}
330
5B6A8
100
AcDbDimAssoc
330
5B6A7
 90
        3
 70
     0
 71
     0
  1
AcDbOsnapPointRef
 72
     1
331
5B69D
 73
     0
 91
        0
 40
0.0
 10
0.0
 20
0.0
 30
2.000000000000000E+50
 75
     0
  1
AcDbOsnapPointRef
 72
     8
331
5B695
 73
     0
 91
        0
 40
0.0
 10
0.0
 20
0.0
 30
0.0
 75
     1
  1
AcDbOsnapPointRef
 72
     1
331
5B69D
 73
     0
 91
        0
 40
0.0
 10
0.0
 20
0.0
 30
2.000000000000000E+50
 75
     0
  0
DIMASSOC
  5
5B6EC
102
{ACAD_REACTORS
330
5B6EB
102
}
330
5B6EB
100
AcDbDimAssoc
330
5B6EA
 90
        2
 70
     0
 71
     0
  1
AcDbOsnapPointRef
 72
    13
331
5B65A
 73
     0
 91
        0
 40
0.0
 10
0.0
 20
0.0
 30
2.000000000000000E+50
 75
     0
  0
DIMASSOC
  5
5B6EF
102
{ACAD_REACTORS
330
5B6EE
102
}
330
5B6EE
100
AcDbDimAssoc
330
5B6ED
 90
        1
 70
     0
 71
     0
  1
AcDbOsnapPointRef
 72
     1
331
5B6B1
 73
     0
 91
        0
 40
0.0
 10
0.0
 20
0.0
 30
2.000000000000000E+50
 75
     0
  0
DIMASSOC
  5
5B6F2
102
{ACAD_REACTORS
330
5B6F1
102
}
330
5B6F1
100
AcDbDimAssoc
330
5B6F0
 90
        1
 70
     0
 71
     0
  1
AcDbOsnapPointRef
 72
     1
331
5B6B7
 73
     0
 91
        0
 40
0.0
 10
0.0
 20
0.0
 30
2.000000000000000E+50
 75
     0
  0
DIMASSOC
  5
5B6F6
102
{ACAD_REACTORS
330
5B6F5
102
}
330
5B6F5
100
AcDbDimAssoc
330
5B6F4
 90
        3
 70
     0
 71
     0
  1
AcDbOsnapPointRef
 72
     1
331
5B668
 73
     0
 91
        0
 40
0.0
 10
0.0
 20
0.0
 30
2.000000000000000E+50
 75
     0
  1
AcDbOsnapPointRef
 72
     8
331
5B65E
 73
     0
 91
        0
 40
0.0
 10
0.0
 20
0.0
 30
0.0
 75
     1
  1
AcDbOsnapPointRef
 72
     1
331
5B668
 73
     0
 91
        0
 40
0.0
 10
0.0
 20
0.0
 30
2.000000000000000E+50
 75
     0
  0
DIMASSOC
  5
5B6F9
102
{ACAD_REACTORS
330
5B6F8
102
}
330
5B6F8
100
AcDbDimAssoc
330
5B6F7
 90
        1
 70
     0
 71
     0
  1
AcDbOsnapPointRef
 72
    13
331
5B66C
 73
     0
 91
        0
 40
0.0
 10
0.0
 20
0.0
 30
2.000000000000000E+50
 75
     0
  0
DIMASSOC
  5
5B934
102
{ACAD_REACTORS
330
5B933
102
}
330
5B933
100
AcDbDimAssoc
330
5B932
 90
        1
 70
     0
 71
     0
  1
AcDbOsnapPointRef
 72
    13
331
5B930
 73
     0
 91
        0
 40
0.0
 10
0.0
 20
0.0
 30
2.000000000000000E+50
 75
     0
  0
DIMASSOC
  5
5B937
102
{ACAD_REACTORS
330
5B936
102
}
330
5B936
100
AcDbDimAssoc
330
5B935
 90
        3
 70
     0
 71
     0
  1
AcDbOsnapPointRef
 72
     1
331
5B905
 73
     0
 91
        0
 40
0.0
 10
0.0
 20
0.0
 30
2.000000000000000E+50
 75
     0
  1
AcDbOsnapPointRef
 72
    13
331
5B903
 73
     0
 91
        0
 40
0.0
 10
0.0
 20
0.0
 30
2.000000000000000E+50
 75
     0
  0
DIMASSOC
  5
5B93A
102
{ACAD_REACTORS
330
5B939
102
}
330
5B939
100
AcDbDimAssoc
330
5B938
 90
        3
 70
     0
 71
     0
  1
AcDbOsnapPointRef
 72
     1
331
5B8FF
 73
     0
 91
        0
 40
0.0
 10
0.0
 20
0.0
 30
2.000000000000000E+50
 75
     0
  1
AcDbOsnapPointRef
 72
    13
331
5B901
 73
     0
 91
        0
 40
0.0
 10
0.0
 20
0.0
 30
2.000000000000000E+50
 75
     0
  0
DIMASSOC
  5
5B93D
102
{ACAD_REACTORS
330
5B93C
102
}
330
5B93C
100
AcDbDimAssoc
330
5B93B
 90
        3
 70
     0
 71
     0
  1
AcDbOsnapPointRef
 72
     1
331
5B910
 73
     0
 91
        0
 40
0.0
 10
0.0
 20
0.0
 30
2.000000000000000E+50
 75
     0
  1
AcDbOsnapPointRef
 72
     1
331
5B90E
 73
     0
 91
        0
 40
0.0
 10
0.0
 20
0.0
 30
2.000000000000000E+50
 75
     0
  0
XRECORD
  5
AAA0E
102
{ACAD_REACTORS
330
AAA0D
102
}
330
AAA0D
100
AcDbXrecord
280
     1
 70
     1
  0
LAYOUT
  5
22
102
{ACAD_XDICTIONARY
360
AAA11
102
}
102
{ACAD_REACTORS
330
1A
102
}
330
1A
100
AcDbPlotSettings
  1

  2
DocuWide2055
  4
A4
  6

 40
3.174999952316284
 41
3.174999952316284
 42
3.175003051757812
 43
3.17498779296875
 44
210.0156707763672
 45
297.0106506347656
 46
0.0
 47
1.309609234333038
 48
-868.0000000000012
 49
-8492.0
140
-274.0000000000011
141
-8072.0
142
1.0
143
2.062203240212179
 70
  3764
 72
     1
 73
     1
 74
     4
  7
monochrome.ctb
 75
     0
147
0.4849182566006978
148
868.0000000000012
149
8492.0
100
AcDbLayout
  1
Model
 70
     1
 71
     0
 10
0.0
 20
0.0
 11
12.0
 21
9.0
 12
0.0
 22
0.0
 32
0.0
 14
0.0
 24
0.0
 34
0.0
 15
0.0
 25
0.0
 35
0.0
146
0.0
 13
0.0
 23
0.0
 33
0.0
 16
1.0
 26
0.0
 36
0.0
 17
0.0
 27
1.0
 37
0.0
 76
     0
330
1F
331
B0EC
1001
ACAD_PSEXT
1000
DocuWide2055
1000
FX DocuWide 2055
1000
192.200.51.212:plt00t
1000

1070
     0
  0
LAYOUT
  5
1E
102
{ACAD_XDICTIONARY
360
AAA0F
102
}
102
{ACAD_REACTORS
330
1A
102
}
330
1A
100
AcDbPlotSettings
  1

  2
\\ML370\XEROX
  4
A4
  6

 40
3.174999952316284
 41
3.174999952316284
 42
3.175003051757812
 43
3.17498779296875
 44
209.8674926757813
 45
296.6719970703125
 46
0.0
 47
0.0
 48
0.0
 49
0.0
140
0.0
141
0.0
142
1.0
143
1.0
 70
   688
 72
     1
 73
     1
 74
     5
  7
monochrome.ctb
 75
    16
147
1.0
148
0.0
149
0.0
100
AcDbLayout
  1
ﾚｲｱｳﾄ1
 70
     1
 71
     1
 10
-3.17498779296875
 20
-3.174999952316284
 11
293.4970092773438
 21
206.692492723465
 12
0.0
 22
0.0
 32
0.0
 14
1.000000000000000E+20
 24
1.000000000000000E+20
 34
1.000000000000000E+20
 15
-1.000000000000000E+20
 25
-1.000000000000000E+20
 35
-1.000000000000000E+20
146
0.0
 13
0.0
 23
0.0
 33
0.0
 16
1.0
 26
0.0
 36
0.0
 17
0.0
 27
1.0
 37
0.0
 76
     0
330
1B
  0
LAYOUT
  5
26
102
{ACAD_XDICTIONARY
360
AAA13
102
}
102
{ACAD_REACTORS
330
1A
102
}
330
1A
100
AcDbPlotSettings
  1

  2
\\ML370\XEROX
  4

  6

 40
0.0
 41
0.0
 42
0.0
 43
0.0
 44
0.0
 45
0.0
 46
0.0
 47
0.0
 48
0.0
 49
0.0
140
0.0
141
0.0
142
1.0
143
1.0
 70
   688
 72
     0
 73
     0
 74
     5
  7
monochrome.ctb
 75
    16
147
1.0
148
0.0
149
0.0
100
AcDbLayout
  1
ﾚｲｱｳﾄ2
 70
     1
 71
     2
 10
0.0
 20
0.0
 11
12.0
 21
9.0
 12
0.0
 22
0.0
 32
0.0
 14
0.0
 24
0.0
 34
0.0
 15
0.0
 25
0.0
 35
0.0
146
0.0
 13
0.0
 23
0.0
 33
0.0
 16
1.0
 26
0.0
 36
0.0
 17
0.0
 27
1.0
 37
0.0
 76
     0
330
23
  0
MATERIAL
  5
B0EF
102
{ACAD_XDICTIONARY
360
AAA19
102
}
102
{ACAD_REACTORS
330
A91C
102
}
330
A91C
100
AcDbMaterial
  1
ByBlock
  0
MATERIAL
  5
B0EE
102
{ACAD_XDICTIONARY
360
AAA17
102
}
102
{ACAD_REACTORS
330
A91C
102
}
330
A91C
100
AcDbMaterial
  1
ByLayer
  0
MATERIAL
  5
B0F0
102
{ACAD_XDICTIONARY
360
AAA1B
102
}
102
{ACAD_REACTORS
330
A91C
102
}
330
A91C
100
AcDbMaterial
  1
Global
  0
MLINESTYLE
  5
18
102
{ACAD_REACTORS
330
17
102
}
330
17
100
AcDbMlineStyle
  2
STANDARD
 70
     0
  3

 62
   256
 51
90.0
 52
90.0
 71
     2
 49
0.5
 62
   256
  6
BYLAYER
 49
-0.5
 62
   256
  6
BYLAYER
  0
ACDBPLACEHOLDER
  5
F
102
{ACAD_REACTORS
330
E
102
}
330
E
  0
TABLESTYLE
  5
AABA
102
{ACAD_XDICTIONARY
360
AAA15
102
}
102
{ACAD_REACTORS
330
AAB9
102
}
330
AAB9
100
AcDbTableStyle
  3
Standard
 70
     0
 71
     0
 40
1.5
 41
1.5
280
     0
281
     0
  7
STANDARD
140
4.5
170
     2
 62
     0
 63
     7
283
     0
274
    -2
284
     1
 64
     0
275
    -2
285
     1
 65
     0
276
    -2
286
     1
 66
     0
277
    -2
287
     1
 67
     0
278
    -2
288
     1
 68
     0
279
    -2
289
     1
 69
     0
  7
STANDARD
140
6.0
170
     5
 62
     0
 63
     7
283
     0
274
    -2
284
     1
 64
     0
275
    -2
285
     1
 65
     0
276
    -2
286
     1
 66
     0
277
    -2
287
     1
 67
     0
278
    -2
288
     1
 68
     0
279
    -2
289
     1
 69
     0
  7
STANDARD
140
4.5
170
     5
 62
     0
 63
     7
283
     0
274
    -2
284
     1
 64
     0
275
    -2
285
     1
 65
     0
276
    -2
286
     1
 66
     0
277
    -2
287
     1
 67
     0
278
    -2
288
     1
 68
     0
279
    -2
289
     1
 69
     0
  0
VISUALSTYLE
  5
B0F7
102
{ACAD_REACTORS
330
B0F1
102
}
330
B0F1
100
AcDbVisualStyle
  2
2dWireframe
 70
     4
 71
     0
 72
     2
 73
     0
 90
        0
 40
-0.6
 41
-30.0
 62
     5
 63
     7
 74
     1
 91
        4
 64
     7
 65
   257
 75
     1
175
     1
 42
1.0
 92
        0
 66
   257
 43
1.0
 76
     1
 77
     6
 78
     2
 67
     7
 79
     5
170
     0
171
     0
290
     0
174
     0
 93
        1
 44
0.0
173
     0
291
     0
 45
0.0
1001
ACAD
1000
AcDbSavedByObjectVersion
1070
     0
  0
VISUALSTYLE
  5
B0F9
102
{ACAD_REACTORS
330
B0F1
102
}
330
B0F1
100
AcDbVisualStyle
  2
3D Hidden
 70
     6
 71
     1
 72
     2
 73
     2
 90
        0
 40
-0.6
 41
-30.0
 62
     5
 63
     7
 74
     2
 91
        2
 64
     7
 65
   257
 75
     2
175
     1
 42
40.0
 92
        0
 66
   257
 43
1.0
 76
     1
 77
     6
 78
     2
 67
     7
 79
     3
170
     0
171
     0
290
     0
174
     0
 93
        1
 44
0.0
173
     0
291
     0
 45
0.0
1001
ACAD
1000
AcDbSavedByObjectVersion
1070
     0
  0
VISUALSTYLE
  5
B0F8
102
{ACAD_REACTORS
330
B0F1
102
}
330
B0F1
100
AcDbVisualStyle
  2
3dWireframe
 70
     5
 71
     0
 72
     2
 73
     0
 90
        0
 40
-0.6
 41
-30.0
 62
     5
 63
     7
 74
     1
 91
        4
 64
     7
 65
   257
 75
     1
175
     1
 42
1.0
 92
        0
 66
   257
 43
1.0
 76
     1
 77
     6
 78
     2
 67
     7
 79
     5
170
     0
171
     0
290
     0
174
     0
 93
        1
 44
0.0
173
     0
291
     0
 45
0.0
1001
ACAD
1000
AcDbSavedByObjectVersion
1070
     0
  0
VISUALSTYLE
  5
B0F6
102
{ACAD_REACTORS
330
B0F1
102
}
330
B0F1
100
AcDbVisualStyle
  2
Basic
 70
     7
 71
     1
 72
     0
 73
     1
 90
        0
 40
-0.6
 41
-30.0
 62
     5
 63
     7
 74
     0
 91
        4
 64
     7
 65
   257
 75
     1
175
     1
 42
1.0
 92
        8
 66
     7
 43
1.0
 76
     1
 77
     6
 78
     2
 67
     7
 79
     5
170
     0
171
     0
290
     0
174
     0
 93
        1
 44
0.0
173
     0
291
     1
 45
0.0
1001
ACAD
1000
AcDbSavedByObjectVersion
1070
     0
  0
VISUALSTYLE
  5
B0FD
102
{ACAD_REACTORS
330
B0F1
102
}
330
B0F1
100
AcDbVisualStyle
  2
Brighten
 70
    12
 71
     2
 72
     2
 73
     0
 90
        0
 40
-0.6
 41
-30.0
 62
     5
 63
     7
 74
     1
 91
        4
 64
     7
 65
   257
 75
     1
175
     1
 42
1.0
 92
        8
 66
     7
 43
1.0
 76
     1
 77
     6
 78
     2
 67
     7
 79
     5
170
     0
171
     0
290
     0
174
     0
 93
        1
 44
50.0
173
     0
291
     1
 45
0.0
1001
ACAD
1000
AcDbSavedByObjectVersion
1070
     0
  0
VISUALSTYLE
  5
B101
102
{ACAD_REACTORS
330
B0F1
102
}
330
B0F1
100
AcDbVisualStyle
  2
ColorChange
 70
    16
 71
     2
 72
     2
 73
     3
 90
        0
 40
-0.6
 41
-30.0
 62
     5
 63
     8
 74
     1
 91
        4
 64
     7
 65
   257
 75
     1
175
     1
 42
1.0
 92
        8
 66
     8
 43
1.0
 76
     1
 77
     6
 78
     2
 67
     7
 79
     5
170
     0
171
     0
290
     0
174
     0
 93
        1
 44
0.0
173
     0
291
     1
 45
0.0
1001
ACAD
1000
AcDbSavedByObjectVersion
1070
     0
  0
VISUALSTYLE
  5
B0FA
102
{ACAD_REACTORS
330
B0F1
102
}
330
B0F1
100
AcDbVisualStyle
  2
Conceptual
 70
     9
 71
     3
 72
     2
 73
     0
 90
        0
 40
-0.6
 41
-30.0
 62
     5
 63
     7
 74
     2
 91
        2
 64
     7
 65
   257
 75
     1
175
     1
 42
40.0
 92
        8
 66
     7
 43
1.0
 76
     1
 77
     6
 78
     2
 67
     7
 79
     3
170
     0
171
     0
290
     0
174
     0
 93
        1
 44
0.0
173
     0
291
     0
 45
0.0
1001
ACAD
1000
AcDbSavedByObjectVersion
1070
     0
  0
VISUALSTYLE
  5
B0FC
102
{ACAD_REACTORS
330
B0F1
102
}
330
B0F1
100
AcDbVisualStyle
  2
Dim
 70
    11
 71
     2
 72
     2
 73
     0
 90
        0
 40
-0.6
 41
-30.0
 62
     5
 63
     7
 74
     1
 91
        4
 64
     7
 65
   257
 75
     1
175
     1
 42
1.0
 92
        8
 66
     7
 43
1.0
 76
     1
 77
     6
 78
     2
 67
     7
 79
     5
170
     0
171
     0
290
     0
174
     0
 93
        1
 44
-50.0
173
     0
291
     1
 45
0.0
1001
ACAD
1000
AcDbSavedByObjectVersion
1070
     0
  0
VISUALSTYLE
  5
B100
102
{ACAD_REACTORS
330
B0F1
102
}
330
B0F1
100
AcDbVisualStyle
  2
Facepattern
 70
    15
 71
     2
 72
     2
 73
     0
 90
        0
 40
-0.6
 41
-30.0
 62
     5
 63
     7
 74
     1
 91
        4
 64
     7
 65
   257
 75
     1
175
     1
 42
1.0
 92
        8
 66
     7
 43
1.0
 76
     1
 77
     6
 78
     2
 67
     7
 79
     5
170
     0
171
     0
290
     0
174
     0
 93
        1
 44
0.0
173
     0
291
     1
 45
0.0
1001
ACAD
1000
AcDbSavedByObjectVersion
1070
     0
  0
VISUALSTYLE
  5
B0F2
102
{ACAD_REACTORS
330
B0F1
102
}
330
B0F1
100
AcDbVisualStyle
  2
Flat
 70
     0
 71
     2
 72
     1
 73
     1
 90
        2
 40
-0.6
 41
30.0
 62
     5
 63
     7
 74
     0
 91
        4
 64
     7
 65
   257
 75
     1
175
     1
 42
1.0
 92
        8
 66
     7
 43
1.0
 76
     1
 77
     6
 78
     2
 67
     7
 79
     5
170
     0
171
     0
290
     0
174
     0
 93
       13
 44
0.0
173
     0
291
     1
 45
0.0
1001
ACAD
1000
AcDbSavedByObjectVersion
1070
     0
  0
VISUALSTYLE
  5
B0F3
102
{ACAD_REACTORS
330
B0F1
102
}
330
B0F1
100
AcDbVisualStyle
  2
FlatWithEdges
 70
     1
 71
     2
 72
     1
 73
     1
 90
        2
 40
-0.6
 41
30.0
 62
     5
 63
     7
 74
     1
 91
        4
 64
     7
 65
   257
 75
     1
175
     1
 42
1.0
 92
        0
 66
   257
 43
1.0
 76
     1
 77
     6
 78
     2
 67
     7
 79
     5
170
     0
171
     0
290
     0
174
     0
 93
       13
 44
0.0
173
     0
291
     1
 45
0.0
1001
ACAD
1000
AcDbSavedByObjectVersion
1070
     0
  0
VISUALSTYLE
  5
B0F4
102
{ACAD_REACTORS
330
B0F1
102
}
330
B0F1
100
AcDbVisualStyle
  2
Gouraud
 70
     2
 71
     2
 72
     2
 73
     1
 90
        2
 40
-0.6
 41
30.0
 62
     5
 63
     7
 74
     0
 91
        4
 64
     7
 65
   257
 75
     1
175
     1
 42
1.0
 92
        0
 66
     7
 43
1.0
 76
     1
 77
     6
 78
     2
 67
     7
 79
     5
170
     0
171
     0
290
     0
174
     0
 93
       13
 44
0.0
173
     0
291
     1
 45
0.0
1001
ACAD
1000
AcDbSavedByObjectVersion
1070
     0
  0
VISUALSTYLE
  5
B0F5
102
{ACAD_REACTORS
330
B0F1
102
}
330
B0F1
100
AcDbVisualStyle
  2
GouraudWithEdges
 70
     3
 71
     2
 72
     2
 73
     1
 90
        2
 40
-0.6
 41
30.0
 62
     5
 63
     7
 74
     1
 91
        4
 64
     7
 65
   257
 75
     1
175
     1
 42
1.0
 92
        0
 66
   257
 43
1.0
 76
     1
 77
     6
 78
     2
 67
     7
 79
     5
170
     0
171
     0
290
     0
174
     0
 93
       13
 44
0.0
173
     0
291
     1
 45
0.0
1001
ACAD
1000
AcDbSavedByObjectVersion
1070
     0
  0
VISUALSTYLE
  5
B0FF
102
{ACAD_REACTORS
330
B0F1
102
}
330
B0F1
100
AcDbVisualStyle
  2
Linepattern
 70
    14
 71
     2
 72
     2
 73
     0
 90
        0
 40
-0.6
 41
-30.0
 62
     5
 63
     7
 74
     1
 91
        4
 64
     7
 65
   257
 75
     7
175
     7
 42
1.0
 92
        8
 66
     7
 43
1.0
 76
     1
 77
     6
 78
     2
 67
     7
 79
     5
170
     0
171
     0
290
     0
174
     0
 93
        1
 44
0.0
173
     0
291
     1
 45
0.0
1001
ACAD
1000
AcDbSavedByObjectVersion
1070
     0
  0
VISUALSTYLE
  5
B0FB
102
{ACAD_REACTORS
330
B0F1
102
}
330
B0F1
100
AcDbVisualStyle
  2
Realistic
 70
     8
 71
     2
 72
     2
 73
     0
 90
        0
 40
-0.6
 41
-30.0
 62
     5
 63
     7
 74
     1
 91
        0
 64
     7
 65
   257
 75
     1
175
     1
 42
1.0
 92
        8
 66
     8
 43
1.0
 76
     1
 77
     6
 78
     2
 67
     7
 79
     5
170
     0
171
     0
290
     0
174
     0
 93
       13
 44
0.0
173
     0
291
     0
 45
0.0
1001
ACAD
1000
AcDbSavedByObjectVersion
1070
     0
  0
VISUALSTYLE
  5
B0FE
102
{ACAD_REACTORS
330
B0F1
102
}
330
B0F1
100
AcDbVisualStyle
  2
Thicken
 70
    13
 71
     2
 72
     2
 73
     0
 90
        0
 40
-0.6
 41
-30.0
 62
     5
 63
     7
 74
     1
 91
        4
 64
     7
 65
   257
 75
     1
175
     1
 42
1.0
 92
       12
 66
     7
 43
1.0
 76
     1
 77
     6
 78
     2
 67
     7
 79
     5
170
     0
171
     0
290
     0
174
     0
 93
        1
 44
0.0
173
     0
291
     1
 45
0.0
1001
ACAD
1000
AcDbSavedByObjectVersion
1070
     0
  0
DICTIONARYVAR
  5
AAF3
102
{ACAD_REACTORS
330
34
102
}
330
34
100
DictionaryVariables
280
     0
  1
STANDARD
  0
DICTIONARYVAR
  5
A10C
102
{ACAD_REACTORS
330
34
102
}
330
34
100
DictionaryVariables
280
     0
  1
1
  0
DICTIONARYVAR
  5
AB07
102
{ACAD_REACTORS
330
34
102
}
330
34
100
DictionaryVariables
280
     0
  1
4
  0
DICTIONARYVAR
  5
35
102
{ACAD_REACTORS
330
34
102
}
330
34
100
DictionaryVariables
280
     0
  1
0
  0
DICTIONARYVAR
  5
194C
102
{ACAD_REACTORS
330
34
102
}
330
34
100
DictionaryVariables
280
     0
  1
96
  0
DICTIONARY
  5
7E8
102
{ACAD_REACTORS
330
47
102
}
330
47
100
AcDbDictionary
281
     1
  0
DICTIONARY
  5
4C
102
{ACAD_REACTORS
330
47
102
}
330
47
100
AcDbDictionary
281
     1
  0
XRECORD
  5
A929
102
{ACAD_REACTORS
330
47
102
}
330
47
100
AcDbXrecord
280
     1
 90
-1023410169
  0
XRECORD
  5
AA8D9
102
{ACAD_REACTORS
330
AA8D8
102
}
330
AA8D8
100
AcDbXrecord
280
     1
330
AA90E
330
AA90F
330
AA932
330
AA933
330
AA94D
330
AA94E
330
AA956
330
AA957
330
AA95F
330
AA960
330
AA8FC
330
AA8FD
330
AA905
330
AA906
330
AA917
330
AA918
330
AA920
330
AA921
330
AA929
330
AA92A
330
AA93B
330
AA93C
330
AA944
330
AA945
330
AA968
330
AA969
330
AA971
330
AA972
330
AA97A
330
AA97B
330
AA985
330
AA986
330
AA98E
330
AA98F
  0
XRECORD
  5
3FB7
102
{ACAD_REACTORS
330
3F96
102
}
330
3F96
100
AcDbXrecord
280
     1
 91
        3
330
0
 90
        8
 62
     7
370
    40
331
16
  1
Color_7
330
0
 90
        0
 62
    14
370
    -3
331
16
  1
Color_14
330
0
 90
        8
 62
     7
370
    20
331
16
  1
Color_7
330
6D1
 90
        0
 62
     7
370
    -3
331
16
  1
Color_7
330
0
 90
        8
 62
     7
370
    50
331
16
  1
Color_7
330
0
 90
        8
 62
     2
370
    35
331
16
  1
Color_2
330
0
 90
        8
 62
     7
370
    -3
331
16
  1
Color_7
330
10
 90
        8
 62
     7
370
    -3
331
16
  1
Color_7
  0
DICTIONARY
  5
AAA11
330
22
100
AcDbDictionary
280
     1
281
     1
  3
ACAD_XREC_ROUNDTRIP
360
AAA12
  0
DICTIONARY
  5
AAA0F
330
1E
100
AcDbDictionary
280
     1
281
     1
  3
ACAD_XREC_ROUNDTRIP
360
AAA10
  0
DICTIONARY
  5
AAA13
330
26
100
AcDbDictionary
280
     1
281
     1
  3
ACAD_XREC_ROUNDTRIP
360
AAA14
  0
DICTIONARY
  5
AAA19
330
B0EF
100
AcDbDictionary
280
     1
281
     1
  3
ACAD_XREC_ROUNDTRIP
360
AAA1A
  0
DICTIONARY
  5
AAA17
330
B0EE
100
AcDbDictionary
280
     1
281
     1
  3
ACAD_XREC_ROUNDTRIP
360
AAA18
  0
DICTIONARY
  5
AAA1B
330
B0F0
100
AcDbDictionary
280
     1
281
     1
  3
ACAD_XREC_ROUNDTRIP
360
AAA1C
  0
DICTIONARY
  5
AAA15
330
AABA
100
AcDbDictionary
280
     1
281
     1
  3
ACAD_XREC_ROUNDTRIP
360
AAA16
  0
XRECORD
  5
AAA12
102
{ACAD_REACTORS
330
AAA11
102
}
330
AAA11
100
AcDbXrecord
280
     1
102
SHADEPLOT
 70
     1
102
SHADEPLOTRESLEVEL
 70
     2
102
SHADEPLOTCUSTOMDPI
 70
   300
  0
XRECORD
  5
AAA10
102
{ACAD_REACTORS
330
AAA0F
102
}
330
AAA0F
100
AcDbXrecord
280
     1
102
SHADEPLOT
 70
     0
102
SHADEPLOTRESLEVEL
 70
     2
102
SHADEPLOTCUSTOMDPI
 70
   300
  0
XRECORD
  5
AAA14
102
{ACAD_REACTORS
330
AAA13
102
}
330
AAA13
100
AcDbXrecord
280
     1
102
SHADEPLOT
 70
     0
102
SHADEPLOTRESLEVEL
 70
     2
102
SHADEPLOTCUSTOMDPI
 70
   300
  0
XRECORD
  5
AAA1A
102
{ACAD_REACTORS
330
AAA19
102
}
330
AAA19
100
AcDbXrecord
280
     1
102
MATERIAL
148
0.0
149
0.0
149
0.0
 93
        0
 94
       63
282
     0
 72
     1
 77
     1
171
     1
175
     1
179
     1
273
     0
  0
XRECORD
  5
AAA18
102
{ACAD_REACTORS
330
AAA17
102
}
330
AAA17
100
AcDbXrecord
280
     1
102
MATERIAL
148
0.0
149
0.0
149
0.0
 93
        0
 94
       63
282
     0
 72
     1
 77
     1
171
     1
175
     1
179
     1
273
     0
  0
XRECORD
  5
AAA1C
102
{ACAD_REACTORS
330
AAA1B
102
}
330
AAA1B
100
AcDbXrecord
280
     1
102
MATERIAL
148
0.0
149
0.0
149
0.0
 93
        0
 94
       63
282
     0
 72
     1
 77
     1
171
     1
175
     1
179
     1
273
     0
  0
XRECORD
  5
AAA16
102
{ACAD_REACTORS
330
AAA15
102
}
330
AAA15
100
AcDbXrecord
280
     1
102
ACAD_ROUNDTRIP_PRE2007_TABLESTYLE
 90
        4
 91
        0
  1

 92
        4
 93
        0
  2

 94
        4
 95
        0
  3

  0
ENDSEC
  0
EOF
