  0
SECTION
  2
HEADER
  9
$ACADVER
  1
AC1015
  9
$ACADMAINTVER
 70
    20
  9
$DWGCODEPAGE
  3
ANSI_932
  9
$INSBASE
 10
0.0
 20
0.0
 30
0.0
  9
$EXTMIN
 10
-0.1219325325146201
 20
-0.1133960418487732
 30
-0.0000000349181948
  9
$EXTMAX
 10
420.1247047017095
 20
297.0099776135699
 30
0.0000000814935746
  9
$LIMMIN
 10
1700.85588156276
 20
1647.985052086429
  9
$LIMMAX
 10
1997.85588156276
 20
1857.985052086429
  9
$ORTHOMODE
 70
     0
  9
$REGENMODE
 70
     1
  9
$FILLMODE
 70
     1
  9
$QTEXTMODE
 70
     0
  9
$MIRRTEXT
 70
     0
  9
$LTSCALE
 40
1.0
  9
$ATTMODE
 70
     1
  9
$TEXTSIZE
 40
3.2
  9
$TRACEWID
 40
1.0
  9
$TEXTSTYLE
  7
STANDARD
  9
$CLAYER
  8
AM_0
  9
$CELTYPE
  6
ByLayer
  9
$CECOLOR
 62
   256
  9
$CELTSCALE
 40
1.0
  9
$DISPSILH
 70
     0
  9
$DIMSCALE
 40
1.0
  9
$DIMASZ
 40
1.0
  9
$DIMEXO
 40
1.0
  9
$DIMDLI
 40
10.0
  9
$DIMRND
 40
0.0
  9
$DIMDLE
 40
0.0
  9
$DIMEXE
 40
1.0
  9
$DIMTP
 40
0.1
  9
$DIMTM
 40
0.1
  9
$DIMTXT
 40
3.5
  9
$DIMCEN
 40
0.0
  9
$DIMTSZ
 40
0.0
  9
$DIMTOL
 70
     0
  9
$DIMLIM
 70
     0
  9
$DIMTIH
 70
     0
  9
$DIMTOH
 70
     0
  9
$DIMSE1
 70
     0
  9
$DIMSE2
 70
     0
  9
$DIMTAD
 70
     1
  9
$DIMZIN
 70
     8
  9
$DIMBLK
  1

  9
$DIMASO
 70
     1
  9
$DIMSHO
 70
     1
  9
$DIMPOST
  1

  9
$DIMAPOST
  1
"
  9
$DIMALT
 70
     0
  9
$DIMALTD
 70
     2
  9
$DIMALTF
 40
0.0393701
  9
$DIMLFAC
 40
1.0
  9
$DIMTOFL
 70
     1
  9
$DIMTVP
 40
0.0
  9
$DIMTIX
 70
     0
  9
$DIMSOXD
 70
     0
  9
$DIMSAH
 70
     0
  9
$DIMBLK1
  1

  9
$DIMBLK2
  1

  9
$DIMSTYLE
  2
SYS
  9
$DIMCLRD
 70
   256
  9
$DIMCLRE
 70
   256
  9
$DIMCLRT
 70
     7
  9
$DIMTFAC
 40
0.71
  9
$DIMGAP
 40
1.5
  9
$DIMJUST
 70
     0
  9
$DIMSD1
 70
     0
  9
$DIMSD2
 70
     0
  9
$DIMTOLJ
 70
     0
  9
$DIMTZIN
 70
     8
  9
$DIMALTZ
 70
     0
  9
$DIMALTTZ
 70
     0
  9
$DIMUPT
 70
     0
  9
$DIMDEC
 70
     2
  9
$DIMTDEC
 70
     2
  9
$DIMALTU
 70
     2
  9
$DIMALTTD
 70
     2
  9
$DIMTXSTY
  7
STANDARD
  9
$DIMAUNIT
 70
     0
  9
$DIMADEC
 70
     0
  9
$DIMALTRND
 40
0.0
  9
$DIMAZIN
 70
     2
  9
$DIMDSEP
 70
    46
  9
$DIMATFIT
 70
     3
  9
$DIMFRAC
 70
     0
  9
$DIMLDRBLK
  1

  9
$DIMLUNIT
 70
     2
  9
$DIMLWD
 70
    -1
  9
$DIMLWE
 70
    -1
  9
$DIMTMOVE
 70
     0
  9
$LUNITS
 70
     2
  9
$LUPREC
 70
     2
  9
$SKETCHINC
 40
1.0
  9
$FILLETRAD
 40
0.0
  9
$AUNITS
 70
     0
  9
$AUPREC
 70
     0
  9
$MENU
  1
.
  9
$ELEVATION
 40
0.0
  9
$PELEVATION
 40
0.0
  9
$THICKNESS
 40
0.0
  9
$LIMCHECK
 70
     0
  9
$CHAMFERA
 40
0.0
  9
$CHAMFERB
 40
0.0
  9
$CHAMFERC
 40
20.0
  9
$CHAMFERD
 40
0.0
  9
$SKPOLY
 70
     0
  9
$TDCREATE
 40
2456191.431115625
  9
$TDUCREATE
 40
2456191.056115625
  9
$TDUPDATE
 40
2456268.705085995
  9
$TDUUPDATE
 40
2456268.330085995
  9
$TDINDWG
 40
0.0030761690
  9
$TDUSRTIMER
 40
0.0030759954
  9
$USRTIMER
 70
     1
  9
$ANGBASE
 50
0.0
  9
$ANGDIR
 70
     0
  9
$PDMODE
 70
     0
  9
$PDSIZE
 40
-3.0
  9
$PLINEWID
 40
0.0
  9
$SPLFRAME
 70
     0
  9
$SPLINETYPE
 70
     6
  9
$SPLINESEGS
 70
     8
  9
$HANDSEED
  5
BA21
  9
$SURFTAB1
 70
     6
  9
$SURFTAB2
 70
     6
  9
$SURFTYPE
 70
     6
  9
$SURFU
 70
     6
  9
$SURFV
 70
     6
  9
$UCSBASE
  2

  9
$UCSNAME
  2

  9
$UCSORG
 10
0.0
 20
0.0
 30
0.0
  9
$UCSXDIR
 10
1.0
 20
0.0
 30
0.0
  9
$UCSYDIR
 10
0.0
 20
1.0
 30
0.0
  9
$UCSORTHOREF
  2

  9
$UCSORTHOVIEW
 70
     0
  9
$UCSORGTOP
 10
0.0
 20
0.0
 30
0.0
  9
$UCSORGBOTTOM
 10
0.0
 20
0.0
 30
0.0
  9
$UCSORGLEFT
 10
0.0
 20
0.0
 30
0.0
  9
$UCSORGRIGHT
 10
0.0
 20
0.0
 30
0.0
  9
$UCSORGFRONT
 10
0.0
 20
0.0
 30
0.0
  9
$UCSORGBACK
 10
0.0
 20
0.0
 30
0.0
  9
$PUCSBASE
  2

  9
$PUCSNAME
  2

  9
$PUCSORG
 10
0.0
 20
0.0
 30
0.0
  9
$PUCSXDIR
 10
1.0
 20
0.0
 30
0.0
  9
$PUCSYDIR
 10
0.0
 20
1.0
 30
0.0
  9
$PUCSORTHOREF
  2

  9
$PUCSORTHOVIEW
 70
     0
  9
$PUCSORGTOP
 10
0.0
 20
0.0
 30
0.0
  9
$PUCSORGBOTTOM
 10
0.0
 20
0.0
 30
0.0
  9
$PUCSORGLEFT
 10
0.0
 20
0.0
 30
0.0
  9
$PUCSORGRIGHT
 10
0.0
 20
0.0
 30
0.0
  9
$PUCSORGFRONT
 10
0.0
 20
0.0
 30
0.0
  9
$PUCSORGBACK
 10
0.0
 20
0.0
 30
0.0
  9
$USERI1
 70
     0
  9
$USERI2
 70
     0
  9
$USERI3
 70
     0
  9
$USERI4
 70
     0
  9
$USERI5
 70
     0
  9
$USERR1
 40
0.0
  9
$USERR2
 40
0.0
  9
$USERR3
 40
0.0
  9
$USERR4
 40
0.0
  9
$USERR5
 40
0.0
  9
$WORLDVIEW
 70
     1
  9
$SHADEDGE
 70
     3
  9
$SHADEDIF
 70
    70
  9
$TILEMODE
 70
     1
  9
$MAXACTVP
 70
    64
  9
$PINSBASE
 10
0.0
 20
0.0
 30
0.0
  9
$PLIMCHECK
 70
     0
  9
$PEXTMIN
 10
1.000000000000000E+20
 20
1.000000000000000E+20
 30
1.000000000000000E+20
  9
$PEXTMAX
 10
-1.000000000000000E+20
 20
-1.000000000000000E+20
 30
-1.000000000000000E+20
  9
$PLIMMIN
 10
-3.17498779296875
 20
-3.174999952316284
  9
$PLIMMAX
 10
293.4970092773438
 20
206.692492723465
  9
$UNITMODE
 70
     0
  9
$VISRETAIN
 70
     1
  9
$PLINEGEN
 70
     0
  9
$PSLTSCALE
 70
     1
  9
$TREEDEPTH
 70
  3020
  9
$CMLSTYLE
  2
Standard
  9
$CMLJUST
 70
     0
  9
$CMLSCALE
 40
20.0
  9
$PROXYGRAPHICS
 70
     1
  9
$MEASUREMENT
 70
     1
  9
$CELWEIGHT
370
    -1
  9
$ENDCAPS
280
     0
  9
$JOINSTYLE
280
     0
  9
$LWDISPLAY
290
     1
  9
$INSUNITS
 70
     4
  9
$HYPERLINKBASE
  1

  9
$STYLESHEET
  1
monochrome.ctb
  9
$XEDIT
290
     1
  9
$CEPSNTYPE
380
     0
  9
$PSTYLEMODE
290
     1
  9
$FINGERPRINTGUID
  2
{844F62D4-B1F8-4980-A7BC-A7938BF603D2}
  9
$VERSIONGUID
  2
{5CE4645D-F9F6-4E6B-96C4-F7F33F3D2E17}
  9
$EXTNAMES
290
     1
  9
$PSVPSCALE
 40
0.0
  9
$OLESTARTUP
290
     0
  0
ENDSEC
  0
SECTION
  2
CLASSES
  0
CLASS
  1
ACDBDICTIONARYWDFLT
  2
AcDbDictionaryWithDefault
  3
ObjectDBX Classes
 90
        0
280
     0
281
     0
  0
CLASS
  1
ACDBPLACEHOLDER
  2
AcDbPlaceHolder
  3
ObjectDBX Classes
 90
        0
280
     0
281
     0
  0
CLASS
  1
LAYOUT
  2
AcDbLayout
  3
ObjectDBX Classes
 90
        0
280
     0
281
     0
  0
CLASS
  1
AMGSETTINGSOBJ
  2
AmgSettingsObj
  3
"AcadM|Product Description: AutoCAD Mechanical|Company: Autodesk"
 90
        0
280
     0
281
     0
  0
CLASS
  1
ACME_DOCUMENT
  2
AcMeDbDoc
  3
AcMeServices
 90
        0
280
     0
281
     0
  0
CLASS
  1
ACMESCOPE
  2
AcMeScope
  3
AcMeServices
 90
        0
280
     0
281
     0
  0
CLASS
  1
ACMECOMMANDHISTORY
  2
AcMeCommandHistory
  3
AcMeServices
 90
        0
280
     0
281
     0
  0
CLASS
  1
DICTIONARYVAR
  2
AcDbDictionaryVar
  3
ObjectDBX Classes
 90
        0
280
     0
281
     0
  0
CLASS
  1
ACIMSYSVARMAN
  2
AcImSysVarManager
  3
AcMeServices
 90
        0
280
     0
281
     0
  0
CLASS
  1
ACIMREALSYSVAR
  2
AcImRealSysVar
  3
AcMeServices
 90
        0
280
     0
281
     0
  0
CLASS
  1
ACIMINTSYSVAR
  2
AcImIntSysVar
  3
AcMeServices
 90
        0
280
     0
281
     0
  0
CLASS
  1
ACMEDRAWINGMAN
  2
AcMeDrawingMan
  3
AcMeServices
 90
        0
280
     0
281
     0
  0
CLASS
  1
ACMEVIEW
  2
AcMeView
  3
AcMeServices
 90
        0
280
     0
281
     0
  0
CLASS
  1
ACDBENTITYCACHE
  2
AcMeEntityCache
  3
AcMeServices
 90
        0
280
     0
281
     0
  0
CLASS
  1
GSMANAGER
  2
AcMeGSManager
  3
AcMeServices
 90
        0
280
     0
281
     0
  0
CLASS
  1
AMDTINTERNALREACTOR
  2
AmdtInternalReactor
  3
AcMeServices
 90
        0
280
     0
281
     0
  0
CLASS
  1
ACMESTATEMGR
  2
AcMeStateMgr
  3
AcMeServices
 90
        0
280
     0
281
     0
  0
CLASS
  1
ACGREFMASTER
  2
AcGrefMaster
  3
AcAttribServices
 90
        0
280
     0
281
     0
  0
CLASS
  1
ACME_DATABASE
  2
AcMeDbDatabase
  3
AcMeServices
 90
        0
280
     0
281
     0
  0
CLASS
  1
ACRFINSADJUSTERMGR
  2
AcRfInsAdjusterMgr
  3
AcMeServices
 90
        0
280
     0
281
     0
  0
CLASS
  1
ACGREFACADMASTER
  2
AcGrefacadMaster
  3
AcGrefServices
 90
        0
280
     0
281
     0
  0
CLASS
  1
AMIMASTER
  2
AmiMaster
  3
AmiServices
 90
        0
280
     0
281
     0
  0
CLASS
  1
ACMDATADICTIONARY
  2
AcmDataDictionary
  3
"AcmSymBB|Product Description: AutoCAD Mechanical|Company: Autodesk"
 90
        0
280
     0
281
     0
  0
CLASS
  1
ACMDATAENTRYBLOCK
  2
AcmDataEntryBlock
  3
"AcmSymBB|Product Description: AutoCAD Mechanical|Company: Autodesk"
 90
        0
280
     0
281
     0
  0
CLASS
  1
ACIMSTRSYSVAR
  2
AcImStrSysVar
  3
AcMeServices
 90
        0
280
     0
281
     0
  0
CLASS
  1
ACMSTANDARDISO
  2
AcmStandardISO
  3
"Amdt_StdImp|Product Description: AutoCAD Mechanical|Company: Autodesk"
 90
        0
280
     0
281
     0
  0
CLASS
  1
AMGOBJPROPCFG
  2
AmgObjPropCfg
  3
"AmgLay|Product Description: AutoCAD Mechanical|Company: Autodesk"
 90
        1
280
     0
281
     0
  0
CLASS
  1
AMDTEDGESTANDARDISO
  2
AmdtEdgeStdISO
  3
"Amdt_StdImp|Product Description: AutoCAD Mechanical|Company: Autodesk"
 90
        0
280
     0
281
     0
  0
CLASS
  1
ACMSURFSTANDARDISO
  2
AcmSurfTextStdISO
  3
"Amdt_StdImp|Product Description: AutoCAD Mechanical|Company: Autodesk"
 90
        0
280
     0
281
     0
  0
CLASS
  1
ACMFCFSTANDARDISO
  2
AcmFCFStdISO
  3
"Amdt_StdImp|Product Description: AutoCAD Mechanical|Company: Autodesk"
 90
        0
280
     0
281
     0
  0
CLASS
  1
ACMWELDSTANDARDISO
  2
AcmWeldingStdISO
  3
"Amdt_StdImp|Product Description: AutoCAD Mechanical|Company: Autodesk"
 90
        0
280
     0
281
     0
  0
CLASS
  1
ACMIDSTANDARDISO
  2
AcmIdStdISO
  3
"Amdt_StdImp|Product Description: AutoCAD Mechanical|Company: Autodesk"
 90
        0
280
     0
281
     0
  0
CLASS
  1
ACMDATUMSTANDARDISO
  2
AcmDatumStdISO
  3
"Amdt_StdImp|Product Description: AutoCAD Mechanical|Company: Autodesk"
 90
        0
280
     0
281
     0
  0
CLASS
  1
ACMBOMSTANDARDISO
  2
AcmBOMStdISO
  3
"Amdt_StdImp|Product Description: AutoCAD Mechanical|Company: Autodesk"
 90
        0
280
     0
281
     0
  0
CLASS
  1
ACMDETAILSTANDARDISO
  2
AmdtDetailSymStdISO
  3
"Amdt_StdImp|Product Description: AutoCAD Mechanical|Company: Autodesk"
 90
        0
280
     0
281
     0
  0
CLASS
  1
ACMSECTIONSTANDARDISO
  2
AmdtSectionSymStdISO
  3
"Amdt_StdImp|Product Description: AutoCAD Mechanical|Company: Autodesk"
 90
        0
280
     0
281
     0
  0
CLASS
  1
ACMCENTERLINESTANDARDISO
  2
AmdtCenterLineStdISO
  3
"Amdt_StdImp|Product Description: AutoCAD Mechanical|Company: Autodesk"
 90
        0
280
     0
281
     0
  0
CLASS
  1
ACAMGLAYSTD
  2
AcAmgLayStd
  3
"AmgLay|Product Description: AutoCAD Mechanical|Company: Autodesk"
 90
        0
280
     0
281
     0
  0
CLASS
  1
ACAMGDIMSTD
  2
AcAmgDimStd
  3
"AmgDim|Product Description: AutoCAD Mechanical|Company: Autodesk"
 90
        0
280
     0
281
     0
  0
CLASS
  1
ACAMGTITLESTD
  2
AcAmgTitleStd
  3
"AmgTitle|Product Description: AutoCAD Mechanical|Company: Autodesk"
 90
        0
280
     0
281
     0
  0
CLASS
  1
ACAMGFILTERDAT
  2
AcAmgFilterDat
  3
"AcadM|Product Description: AutoCAD Mechanical|Company: Autodesk"
 90
        0
280
     0
281
     0
  0
CLASS
  1
LAYER_INDEX
  2
AcDbLayerIndex
  3
ObjectDBX Classes
 90
    32768
280
     0
281
     0
  0
CLASS
  1
IDBUFFER
  2
AcDbIdBuffer
  3
ObjectDBX Classes
 90
    32768
280
     0
281
     0
  0
CLASS
  1
PLOTSETTINGS
  2
AcDbPlotSettings
  3
ObjectDBX Classes
 90
    32768
280
     0
281
     0
  0
CLASS
  1
AMDTFORMULAUPDATEDISPATCHER
  2
AmdtFormulaUpdateDispatcher
  3
AcMeServices
 90
        0
280
     0
281
     0
  0
CLASS
  1
ACMSTANDARDANSI
  2
AcmStandardANSI
  3
"Amdt_StdImp|Product Description: AutoCAD Mechanical|Company: Autodesk"
 90
    32768
280
     0
281
     0
  0
CLASS
  1
ACMSURFSTANDARDANSI
  2
AcmSurfTextStdANSI
  3
"Amdt_StdImp|Product Description: AutoCAD Mechanical|Company: Autodesk"
 90
    32768
280
     0
281
     0
  0
CLASS
  1
ACMFCFSTANDARDANSI
  2
AcmFCFStdANSI
  3
"Amdt_StdImp|Product Description: AutoCAD Mechanical|Company: Autodesk"
 90
    32768
280
     0
281
     0
  0
CLASS
  1
ACMWELDSTANDARDANSI
  2
AcmWeldingStdANSI
  3
"Amdt_StdImp|Product Description: AutoCAD Mechanical|Company: Autodesk"
 90
    32768
280
     0
281
     0
  0
CLASS
  1
ACMIDSTANDARDANSI
  2
AcmIdStdANSI
  3
"Amdt_StdImp|Product Description: AutoCAD Mechanical|Company: Autodesk"
 90
    32768
280
     0
281
     0
  0
CLASS
  1
ACMDATUMSTANDARDANSI
  2
AcmDatumStdANSI
  3
"Amdt_StdImp|Product Description: AutoCAD Mechanical|Company: Autodesk"
 90
    32768
280
     0
281
     0
  0
CLASS
  1
ACMBOMSTANDARDANSI
  2
AcmBOMStdANSI
  3
"Amdt_StdImp|Product Description: AutoCAD Mechanical|Company: Autodesk"
 90
    32768
280
     0
281
     0
  0
CLASS
  1
ACMDETAILSTANDARDANSI
  2
AmdtDetailSymStdANSI
  3
"Amdt_StdImp|Product Description: AutoCAD Mechanical|Company: Autodesk"
 90
    32768
280
     0
281
     0
  0
CLASS
  1
ACMSECTIONSTANDARDANSI
  2
AmdtSectionSymStdANSI
  3
"Amdt_StdImp|Product Description: AutoCAD Mechanical|Company: Autodesk"
 90
    32768
280
     0
281
     0
  0
CLASS
  1
ACMCENTERLINESTANDARDANSI
  2
AmdtCenterLineStdANSI
  3
"Amdt_StdImp|Product Description: AutoCAD Mechanical|Company: Autodesk"
 90
    32768
280
     0
281
     0
  0
CLASS
  1
ACMBOM
  2
AcmBom
  3
"AcmSymBB|Product Description: AutoCAD Mechanical|Company: Autodesk"
 90
        0
280
     0
281
     0
  0
CLASS
  1
ACMDATAENTRYPART
  2
AcmDataEntryPart
  3
"AcmSymBB|Product Description: AutoCAD Mechanical|Company: Autodesk"
 90
    32768
280
     0
281
     0
  0
CLASS
  1
ACMPARTREF
  2
AcmPartRef
  3
"AcmSymBB|Product Description: AutoCAD Mechanical|Company: Autodesk"
 90
    35839
280
     0
281
     1
  0
CLASS
  1
ACDBCIRCARCRES
  2
AcDbCircArcRes
  3
AcGrefServices
 90
    32768
280
     0
281
     0
  0
CLASS
  1
ACMBOMROW
  2
AcmBomRow
  3
"AcmSymBB|Product Description: AutoCAD Mechanical|Company: Autodesk"
 90
    32768
280
     0
281
     0
  0
CLASS
  1
ACMBALLOON
  2
AcmBalloon
  3
"AcmSymBB|Product Description: AutoCAD Mechanical|Company: Autodesk"
 90
    35839
280
     0
281
     1
  0
CLASS
  1
AMDTNOTE
  2
AmdtNote
  3
"AcmSymBB|Product Description: AutoCAD Mechanical|Company: Autodesk"
 90
    35839
280
     0
281
     1
  0
CLASS
  1
STDPART2D
  2
AmgStdPart
  3
"g3vace|Class: AmgStdPart|Product Description: AutoCAD Mechanical|Company: Autodesk"
 90
    35839
280
     0
281
     1
  0
CLASS
  1
ACDBSTDPARTRES_LINE
  2
AcDbStdPartRes_Line
  3
"g3vace|Class: AcDbStdPartRes_Line|Product Description: AutoCAD Mechanical|Company: Autodesk"
 90
    32768
280
     0
281
     0
  0
CLASS
  1
ACMDATAENTRY
  2
AcmDataEntry
  3
"AcmSymBB|Product Description: AutoCAD Mechanical|Company: Autodesk"
 90
        0
280
     0
281
     0
  0
CLASS
  1
ACDBOPPOLYLINERES
  2
AcDbOpPolylineRes
  3
AcGrefServices
 90
    32768
280
     0
281
     0
  0
CLASS
  1
ACMPARTLIST
  2
AcmPartList
  3
"AcmSymBB|Product Description: AutoCAD Mechanical|Company: Autodesk"
 90
    35839
280
     0
281
     1
  0
CLASS
  1
ACDBLINERES
  2
AcDbLineRes
  3
AcGrefServices
 90
    32768
280
     0
281
     0
  0
CLASS
  1
ACRFINSADJ
  2
AcRfInsAdjuster
  3
AcMeServices
 90
    32768
280
     0
281
     0
  0
CLASS
  1
AM_DRAWING_MGR
  2
AcDmDwgMgr
  3
AcMechDwgViewMgmt
 90
        0
280
     0
281
     0
  0
CLASS
  1
AM_DWG_DOCUMENT
  2
AcDmDwgDocument
  3
AcMechDwgViewMgmt
 90
        0
280
     0
281
     0
  0
CLASS
  1
AM_DWG_SHEET
  2
AcDmSheet
  3
AcMechDwgViewMgmt
 90
        0
280
     0
281
     0
  0
CLASS
  1
AM_VIEWDIMPARMAP
  2
AcDmViewDimParMap
  3
AcMechDwgViewMgmt
 90
        0
280
     0
281
     0
  0
CLASS
  1
AM_DWGMGR_NAME
  2
AcDmDwgMgrName
  3
AcMechDwgViewMgmt
 90
        0
280
     0
281
     0
  0
CLASS
  1
AMDTMENUSTATEMGR
  2
AmdtMenuStateMgr
  3
McadcomServices
 90
        0
280
     0
281
     0
  0
CLASS
  1
AMDTMCOMMENUSTATE
  2
AmdtMcomMenuState
  3
McadcomServices
 90
        0
280
     0
281
     0
  0
CLASS
  1
ASAPP
  2
AcAsAppObject
  3
AutoSurfServices
 90
        0
280
     0
281
     0
  0
CLASS
  1
IM_STATIC_MAN
  2
AcImStaticVarManager
  3
AcMeServices
 90
        0
280
     0
281
     0
  0
CLASS
  1
ACIMDBLSTATICVAR
  2
AcImDblStaticVar
  3
AcMeServices
 90
        0
280
     0
281
     0
  0
CLASS
  1
ACIMSTRSTATICVAR
  2
AcImStrStaticVar
  3
AcMeServices
 90
        0
280
     0
281
     0
  0
CLASS
  1
ACIMINTSTATICVAR
  2
AcImIntStaticVar
  3
AcMeServices
 90
        0
280
     0
281
     0
  0
CLASS
  1
ACASGREFMASTER
  2
AcAsGrefMaster
  3
AutoSurfResolverServices
 90
        0
280
     0
281
     0
  0
CLASS
  1
ACADGREFMODULE
  2
AcAdGrefModule
  3
AdGrefServices
 90
        0
280
     0
281
     0
  0
CLASS
  1
AMDTMAPISURFMOUDULE
  2
AmdtMApiSurfModule
  3
MApiSurfServices
 90
        0
280
     0
281
     0
  0
CLASS
  1
MAPIAMMOUDLE
  2
MApiAmModule
  3
MApiAmServices
 90
        0
280
     0
281
     0
  0
CLASS
  1
AMDTADMENUSTATE
  2
AmdtAdMenuState
  3
DesignerServices
 90
        0
280
     0
281
     0
  0
CLASS
  1
ADAPPL
  2
AcAdAppl
  3
DesignerServices
 90
        0
280
     0
281
     0
  0
CLASS
  1
DEPMGR
  2
AcAdDepMgr
  3
DesignerServices
 90
        0
280
     0
281
     0
  0
CLASS
  1
PARAMMGR
  2
AcAdParamMgr
  3
DesignerServices
 90
        0
280
     0
281
     0
  0
CLASS
  1
PARAMSCOPE
  2
AcAdParamScope
  3
DesignerServices
 90
        0
280
     0
281
     0
  0
CLASS
  1
NAMEDAPPL
  2
AcAdNamedAppl
  3
DesignerServices
 90
        0
280
     0
281
     0
  0
CLASS
  1
ADHNTMPLT
  2
AdHoleNoteTemplateMgr
  3
DesignerServices
 90
    32768
280
     0
281
     0
  0
CLASS
  1
AM_HNTEMPLATE_MGR_NAME
  2
AdHoleNoteTemplateMgrName
  3
DesignerServices
 90
    32768
280
     0
281
     0
  0
CLASS
  1
AMDTDMMENUSTATE
  2
AmdtDmMenuState
  3
AcMechDwgViewMgmt
 90
        0
280
     0
281
     0
  0
CLASS
  1
MAPIADMODULE
  2
MApiAdModule
  3
MApiAdServices
 90
        0
280
     0
281
     0
  0
CLASS
  1
AMDTAMMENUSTATE
  2
AmdtAmMenuState
  3
DesignerAssemblies
 90
        0
280
     0
281
     0
  0
CLASS
  1
ACAMPROJECT
  2
AcAmProject
  3
DesignerAssemblies
 90
        0
280
     0
281
     0
  0
CLASS
  1
ACAMGRCOMPDEF
  2
AcAmGrCompDef
  3
DesignerAssemblies
 90
        0
280
     0
281
     0
  0
CLASS
  1
ACCMCONTEXT
  2
AcCmContext
  3
DesignerAssemblies
 90
        0
280
     0
281
     0
  0
CLASS
  1
ACAMCOMPDEF
  2
AcAmCompDef
  3
DesignerAssemblies
 90
        0
280
     0
281
     0
  0
CLASS
  1
ACAMCOMPDEFMGR
  2
AcAmCompDefMgr
  3
DesignerAssemblies
 90
        0
280
     0
281
     0
  0
CLASS
  1
AMCONTEXTMGR
  2
AcAmContextMgr
  3
DesignerAssemblies
 90
        0
280
     0
281
     0
  0
CLASS
  1
ACAMCONTEXTMODELER
  2
AcAmContextModeler
  3
DesignerAssemblies
 90
        0
280
     0
281
     0
  0
CLASS
  1
CATALOGSTATE
  2
AcAmCatalogState
  3
DesignerAssemblies
 90
        0
280
     0
281
     0
  0
CLASS
  1
ACAMGRCOMPDEFSET
  2
AcAmGrCompDefSet
  3
DesignerAssemblies
 90
        0
280
     0
281
     0
  0
CLASS
  1
AMDTBROWSERDBTAB
  2
AmdtBrowserDbTab
  3
McadcomServices
 90
        0
280
     0
281
     0
  0
CLASS
  1
CBROWSERAPPOBJECT
  2
CBrowserAppObject
  3
McadcomServices
 90
        0
280
     0
281
     0
  0
CLASS
  1
DM_PLACEHOLDER
  2
AcDmSelsetPlaceholder
  3
AcMechDwgViewMgmt
 90
        0
280
     0
281
     0
  0
CLASS
  1
ACMPICKOBJ
  2
AcmPickEnt
  3
"AcmSymBB|Product Description: AutoCAD Mechanical|Company: Autodesk"
 90
    32768
280
     0
281
     1
  0
CLASS
  1
ACMNOTESTANDARDISO
  2
AmdtNoteStdISO
  3
"Amdt_StdImp|Product Description: AutoCAD Mechanical|Company: Autodesk"
 90
        0
280
     0
281
     0
  0
CLASS
  1
ACMNOTESTANDARDANSI
  2
AmdtNoteStdANSI
  3
"Amdt_StdImp|Product Description: AutoCAD Mechanical|Company: Autodesk"
 90
    32768
280
     0
281
     0
  0
CLASS
  1
ACMTHREADLINESTANDARDISO
  2
AmdtThreadLineStdISO
  3
"Amdt_StdImp|Product Description: AutoCAD Mechanical|Company: Autodesk"
 90
        0
280
     0
281
     0
  0
CLASS
  1
ACMTHREADLINESTANDARDANSI
  2
AmdtThreadLineStdANSI
  3
"Amdt_StdImp|Product Description: AutoCAD Mechanical|Company: Autodesk"
 90
    32768
280
     0
281
     0
  0
CLASS
  1
TABLESTYLE
  2
AcDbTableStyle
  3
ObjectDBX Classes
 90
     4095
280
     0
281
     0
  0
CLASS
  1
SORTENTSTABLE
  2
AcDbSortentsTable
  3
ObjectDBX Classes
 90
        0
280
     0
281
     0
  0
CLASS
  1
MATERIAL
  2
AcDbMaterial
  3
ObjectDBX Classes
 90
     1024
280
     0
281
     0
  0
CLASS
  1
VISUALSTYLE
  2
AcDbVisualStyle
  3
ObjectDBX Classes
 90
     4095
280
     0
281
     0
  0
CLASS
  1
ACRFATTGENMGR
  2
AcRfAttGeneralMgr
  3
AcAttribServices
 90
        0
280
     0
281
     0
  0
CLASS
  1
ACRFOBJATTMGR
  2
AcRfObjAttGroupMgr
  3
AcAttribServices
 90
        0
280
     0
281
     0
  0
CLASS
  1
ACRFMCADAPIATTHOLDER
  2
AcRfMCADAPIAttHolder
  3
AcAttribServices
 90
        0
280
     0
281
     0
  0
CLASS
  1
AMDTSYSATTR
  2
AmdtSystemAttribute
  3
AcAttribServices
 90
        0
280
     0
281
     0
  0
CLASS
  1
ACMTAPERSTANDARDISO
  2
AcmTaperStdISO
  3
"Amdt_StdImp|Product Description: AutoCAD Mechanical|Company: Autodesk"
 90
        0
280
     0
281
     0
  0
CLASS
  1
CAMSSTRUCTBTNSTATE
  2
StructBtnState
  3
L"DesignerAssemblies"
 90
        0
280
     0
281
     0
  0
CLASS
  1
DIMASSOC
  2
AcDbDimAssoc
  3
"AcDbDimAssoc|Product Desc:     AcDim ARX App For Dimension|Company:          Autodesk, Inc.|WEB Address:      www.autodesk.com"
 90
    32768
280
     0
281
     0
  0
ENDSEC
  0
SECTION
  2
TABLES
  0
TABLE
  2
VPORT
  5
8
330
0
100
AcDbSymbolTable
 70
     1
  0
VPORT
  5
B0EC
330
8
100
AcDbSymbolTableRecord
100
AcDbViewportTableRecord
  2
*Active
 70
     0
 10
0.0
 20
0.0
 11
1.0
 21
1.0
 12
210.0013860845975
 22
148.4482907858605
 13
0.0
 23
0.0
 14
2.5
 24
2.5
 15
10.0
 25
10.0
 16
0.0
 26
0.0
 36
1.0
 17
0.0
 27
0.0
 37
0.0
 40
299.3107849952131
 41
1.648648648648648
 42
50.0
 43
-1370.695619172058
 44
-1370.695619172058
 50
0.0
 51
0.0
 71
    16
 72
   100
 73
     1
 74
     3
 75
     0
 76
     0
 77
     0
 78
     0
281
     0
 65
     0
110
0.0
120
0.0
130
0.0
111
1.0
121
0.0
131
0.0
112
0.0
122
1.0
132
0.0
 79
     0
146
0.0
  0
ENDTAB
  0
TABLE
  2
LTYPE
  5
5
330
0
100
AcDbSymbolTable
 70
    27
  0
LTYPE
  5
14
330
5
100
AcDbSymbolTableRecord
100
AcDbLinetypeTableRecord
  2
ByBlock
 70
     0
  3

 72
    65
 73
     0
 40
0.0
  0
LTYPE
  5
15
330
5
100
AcDbSymbolTableRecord
100
AcDbLinetypeTableRecord
  2
ByLayer
 70
     0
  3

 72
    65
 73
     0
 40
0.0
  0
LTYPE
  5
16
330
5
100
AcDbSymbolTableRecord
100
AcDbLinetypeTableRecord
  2
Continuous
 70
     0
  3
Solid line
 72
    65
 73
     0
 40
0.0
  0
LTYPE
  5
4F
330
5
100
AcDbSymbolTableRecord
100
AcDbLinetypeTableRecord
  2
AM_ISO02W050
 70
     0
  3
__ __ __ __ __ __ __ __ __ __ __ __ __ __ __
 72
    65
 73
     2
 40
7.5
 49
6.0
 74
     0
 49
-1.5
 74
     0
  0
LTYPE
  5
52
330
5
100
AcDbSymbolTableRecord
100
AcDbLinetypeTableRecord
  2
Amconstr
 70
     0
  3
_______________________
 72
    65
 73
     2
 40
9999.0
 49
9999.0
 74
     0
 49
0.0
 74
     0
  0
LTYPE
  5
64
330
5
100
AcDbSymbolTableRecord
100
AcDbLinetypeTableRecord
  2
ACISOWELD
 70
     0
  3
_ _ _ _ _
 72
    65
 73
     2
 40
2.0
 49
2.0
 74
     0
 49
-1.0
 74
     0
  0
LTYPE
  5
65
330
5
100
AcDbSymbolTableRecord
100
AcDbLinetypeTableRecord
  2
ACISOTGB
 70
     0
  3
__ . . __ . .
 72
    65
 73
     6
 40
9.0
 49
4.0
 74
     0
 49
-1.0
 74
     0
 49
1.0
 74
     0
 49
-1.0
 74
     0
 49
1.0
 74
     0
 49
-1.0
 74
     0
  0
LTYPE
  5
66
330
5
100
AcDbSymbolTableRecord
100
AcDbLinetypeTableRecord
  2
ACISOTGL
 70
     0
  3
_ _ _ _ _
 72
    65
 73
     2
 40
3.0
 49
2.0
 74
     0
 49
-1.0
 74
     0
  0
LTYPE
  5
69
330
5
100
AcDbSymbolTableRecord
100
AcDbLinetypeTableRecord
  2
CENTER
 70
     0
  3
__ . __
 72
    65
 73
     4
 40
7.0
 49
4.0
 74
     0
 49
-1.0
 74
     0
 49
1.0
 74
     0
 49
-1.0
 74
     0
  0
LTYPE
  5
A6E
330
5
100
AcDbSymbolTableRecord
100
AcDbLinetypeTableRecord
  2
PHANTOM2
 70
     0
  3
Phantom (.5x) ___ _ _ ___ _ _ ___ _ _ ___ _ _
 72
    65
 73
     6
 40
31.75
 49
15.875
 74
     0
 49
-3.174999999999999
 74
     0
 49
3.174999999999999
 74
     0
 49
-3.174999999999999
 74
     0
 49
3.174999999999999
 74
     0
 49
-3.174999999999999
 74
     0
  0
LTYPE
  5
4DED
330
5
100
AcDbSymbolTableRecord
100
AcDbLinetypeTableRecord
  2
中線
 70
     0
  3
___________________
 72
    65
 73
     2
 40
2.0
 49
1.0
 74
     0
 49
1.0
 74
     0
  0
LTYPE
  5
4DF6
330
5
100
AcDbSymbolTableRecord
100
AcDbLinetypeTableRecord
  2
細線
 70
     0
  3
___________________
 72
    65
 73
     2
 40
2.0
 49
1.0
 74
     0
 49
1.0
 74
     0
  0
LTYPE
  5
4DF7
330
5
100
AcDbSymbolTableRecord
100
AcDbLinetypeTableRecord
  2
太線
 70
     0
  3
___________________
 72
    65
 73
     2
 40
2.0
 49
1.0
 74
     0
 49
1.0
 74
     0
  0
LTYPE
  5
4EA7
330
5
100
AcDbSymbolTableRecord
100
AcDbLinetypeTableRecord
  2
文字
 70
     0
  3
_________________
 72
    65
 73
     2
 40
2.0
 49
1.0
 74
     0
 49
1.0
 74
     0
  0
LTYPE
  5
4EA9
330
5
100
AcDbSymbolTableRecord
100
AcDbLinetypeTableRecord
  2
寸法線
 70
     0
  3
________________
 72
    65
 73
     2
 40
2.0
 49
1.0
 74
     0
 49
1.0
 74
     0
  0
LTYPE
  5
4F12
330
5
100
AcDbSymbolTableRecord
100
AcDbLinetypeTableRecord
  2
ハッチング
 70
     0
  3
_________________
 72
    65
 73
     2
 40
2.0
 49
1.0
 74
     0
 49
1.0
 74
     0
  0
LTYPE
  5
5180
330
5
100
AcDbSymbolTableRecord
100
AcDbLinetypeTableRecord
  2
陰線1
 70
     0
  3
__ __ __ __
 72
    65
 73
     2
 40
4.0
 49
2.2
 74
     0
 49
-1.8
 74
     0
  0
LTYPE
  5
5182
330
5
100
AcDbSymbolTableRecord
100
AcDbLinetypeTableRecord
  2
切断線
 70
     0
  3
/\/-/\/-/\/-/\/-/\/-/\/
 72
    65
 73
     2
 40
11.0001
 49
0.0001
 74
     4
 75
   135
340
56
 46
0.04
 50
0.0
 44
0.0
 45
0.0
 49
-11.0
 74
     0
  0
LTYPE
  5
5183
330
5
100
AcDbSymbolTableRecord
100
AcDbLinetypeTableRecord
  2
想像線1
 70
     0
  3
__ __ __ _____ __ __ ____
 72
    65
 73
     6
 40
14.5
 49
6.0
 74
     0
 49
-1.5
 74
     0
 49
2.0
 74
     0
 49
-1.5
 74
     0
 49
2.0
 74
     0
 49
-1.5
 74
     0
  0
LTYPE
  5
5185
330
5
100
AcDbSymbolTableRecord
100
AcDbLinetypeTableRecord
  2
中心線1
 70
     0
  3
___ _ ___ _ ___
 72
    65
 73
     4
 40
18.0
 49
12.0
 74
     0
 49
-2.0
 74
     0
 49
2.0
 74
     0
 49
-2.0
 74
     0
  0
LTYPE
  5
5188
330
5
100
AcDbSymbolTableRecord
100
AcDbLinetypeTableRecord
  2
補助線
 70
     0
  3
______________
 72
    65
 73
     2
 40
2.0
 49
1.0
 74
     0
 49
1.0
 74
     0
  0
LTYPE
  5
6427
330
5
100
AcDbSymbolTableRecord
100
AcDbLinetypeTableRecord
  2
HIDDEN
 70
     0
  3
Hidden __ __ __ __ __ __ __ __ __ __ __ __ __ _
 72
    65
 73
     2
 40
0.375
 49
0.25
 74
     0
 49
-0.125
 74
     0
  0
LTYPE
  5
AC81
330
5
100
AcDbSymbolTableRecord
100
AcDbLinetypeTableRecord
  2
破断線
 70
     0
  3
/\/-/\/-/\/-/\/-/\/-/\/
 72
    65
 73
     2
 40
0.4401
 49
0.0001
 74
     4
 75
   136
340
AC80
 46
0.0016
 50
0.0
 44
0.0
 45
0.0
 49
-0.4400000000000001
 74
     0
  0
LTYPE
  5
AC9E
330
5
100
AcDbSymbolTableRecord
100
AcDbLinetypeTableRecord
  2
Amzigzag
 70
     0
  3
/\/-/\/-/\/-/\/-/\/-/\/
 72
    65
 73
     2
 40
11.0001
 49
0.0001
 74
     4
 75
   135
340
56
 46
0.04
 50
0.0
 44
0.0
 45
0.0
 49
-11.0
 74
     0
  0
LTYPE
  5
AF0F
330
5
100
AcDbSymbolTableRecord
100
AcDbLinetypeTableRecord
  2
genzigzag
 70
     0
  3
/\/-/\/-/\/-/\/-/\/-/\/
 72
    65
 73
     2
 40
12.0001
 49
0.0001
 74
     4
 75
   135
340
AC80
 46
2.0
 50
0.0
 44
0.0
 45
0.0
 49
-12.0
 74
     0
  0
LTYPE
  5
AF95
330
5
100
AcDbSymbolTableRecord
100
AcDbLinetypeTableRecord
  2
AM_ISO08W050
 70
     0
  3
____ . ____ . ____ . ____ . ____ . ____ . ____
 72
    65
 73
     4
 40
18.0
 49
12.0
 74
     0
 49
-1.5
 74
     0
 49
3.0
 74
     0
 49
-1.5
 74
     0
  0
LTYPE
  5
AF96
330
5
100
AcDbSymbolTableRecord
100
AcDbLinetypeTableRecord
  2
AM_ISO09W050
 70
     0
  3
_____ . . _____ . . _____ . . ____ .. ____
 72
    65
 73
     6
 40
22.5
 49
12.0
 74
     0
 49
-1.5
 74
     0
 49
3.0
 74
     0
 49
-1.5
 74
     0
 49
3.0
 74
     0
 49
-1.5
 74
     0
  0
LTYPE
  5
AF97
330
5
100
AcDbSymbolTableRecord
100
AcDbLinetypeTableRecord
  2
AM_ISO08W050x2
 70
     0
  3
__ . __ . __ . __ . __ . __
 72
    65
 73
     4
 40
9.0
 49
6.0
 74
     0
 49
-0.75
 74
     0
 49
1.5
 74
     0
 49
-0.75
 74
     0
  0
LTYPE
  5
AF98
330
5
100
AcDbSymbolTableRecord
100
AcDbLinetypeTableRecord
  2
AM_ISO02W050x2
 70
     0
  3
 _ _ _ _ _ _ _ _ _ _ _ _
 72
    65
 73
     2
 40
3.75
 49
3.0
 74
     0
 49
-0.75
 74
     0
  0
ENDTAB
  0
TABLE
  2
LAYER
  5
2
102
{ACAD_XDICTIONARY
360
3F95
102
}
330
0
100
AcDbSymbolTable
 70
    23
  0
LAYER
  5
10
330
2
100
AcDbSymbolTableRecord
100
AcDbLayerTableRecord
  2
0
 70
     0
 62
     7
  6
Continuous
370
    -3
390
F
  0
LAYER
  5
6D1
330
2
100
AcDbSymbolTableRecord
100
AcDbLayerTableRecord
  2
Defpoints
 70
     0
 62
     7
  6
Continuous
290
     0
370
    -3
390
F
  0
LAYER
  5
5F85
330
2
100
AcDbSymbolTableRecord
100
AcDbLayerTableRecord
  2
AM_0
 70
     0
 62
     7
  6
中線
370
    30
390
F
1001
AcAecLayerStandard
1000

1000

  0
LAYER
  5
AC9F
330
2
100
AcDbSymbolTableRecord
100
AcDbLayerTableRecord
  2
size
 70
     0
 62
     5
  6
Continuous
290
     0
370
    25
390
F
  0
LAYER
  5
ACA0
330
2
100
AcDbSymbolTableRecord
100
AcDbLayerTableRecord
  2
waku
 70
     0
 62
     7
  6
Continuous
370
    35
390
F
  0
LAYER
  5
ACA1
330
2
100
AcDbSymbolTableRecord
100
AcDbLayerTableRecord
  2
AM_6
 70
     0
 62
     2
  6
文字
370
    13
390
F
1001
AcAecLayerStandard
1000

1000

  0
LAYER
  5
ACC8
330
2
100
AcDbSymbolTableRecord
100
AcDbLayerTableRecord
  2
hyomoji
 70
     0
 62
     2
  6
Continuous
370
    13
390
F
  0
LAYER
  5
ACC9
330
2
100
AcDbSymbolTableRecord
100
AcDbLayerTableRecord
  2
hyosen1
 70
     0
 62
     1
  6
Continuous
370
    30
390
F
  0
LAYER
  5
ACCA
330
2
100
AcDbSymbolTableRecord
100
AcDbLayerTableRecord
  2
hyosen2
 70
     0
 62
     1
  6
Continuous
370
    13
390
F
  0
LAYER
  5
AD60
330
2
100
AcDbSymbolTableRecord
100
AcDbLayerTableRecord
  2
AM_1
 70
     0
 62
    30
  6
太線
370
    40
390
F
1001
AcAecLayerStandard
1000

1000

  0
LAYER
  5
AD64
330
2
100
AcDbSymbolTableRecord
100
AcDbLayerTableRecord
  2
AM_2
 70
     0
 62
     1
  6
細線
370
    13
390
F
1001
AcAecLayerStandard
1000

1000

  0
LAYER
  5
AD67
330
2
100
AcDbSymbolTableRecord
100
AcDbLayerTableRecord
  2
AM_3
 70
     0
 62
     6
  6
陰線1
370
    13
390
F
1001
AcAecLayerStandard
1000

1000

  0
LAYER
  5
AD68
330
2
100
AcDbSymbolTableRecord
100
AcDbLayerTableRecord
  2
AM_5
 70
     0
 62
     3
  6
寸法線
370
    13
390
F
1001
AcAecLayerStandard
1000

1000

  0
LAYER
  5
AD69
330
2
100
AcDbSymbolTableRecord
100
AcDbLayerTableRecord
  2
AM_7
 70
     0
 62
     4
  6
中心線1
370
    13
390
F
1001
AcAecLayerStandard
1000

1000

  0
LAYER
  5
AD6A
330
2
100
AcDbSymbolTableRecord
100
AcDbLayerTableRecord
  2
AM_8
 70
     0
 62
     1
  6
ハッチング
370
    13
390
F
1001
AcAecLayerStandard
1000

1000

  0
LAYER
  5
AD6E
330
2
100
AcDbSymbolTableRecord
100
AcDbLayerTableRecord
  2
AM_10
 70
     0
 62
     7
  6
切断線
370
    30
390
F
1001
AcAecLayerStandard
1000

1000

  0
LAYER
  5
AD6F
330
2
100
AcDbSymbolTableRecord
100
AcDbLayerTableRecord
  2
AM_11
 70
     0
 62
     2
  6
想像線1
370
    13
390
F
1001
AcAecLayerStandard
1000

1000

  0
LAYER
  5
B1B6
330
2
100
AcDbSymbolTableRecord
100
AcDbLayerTableRecord
  2
AM_CL
 70
     1
 62
    -1
  6
Amconstr
370
    13
390
F
1001
AcAecLayerStandard
1000

1000

  0
LAYER
  5
B5FE
330
2
100
AcDbSymbolTableRecord
100
AcDbLayerTableRecord
  2
0台座
 70
     0
 62
    74
  6
中線
370
    30
390
F
1001
AcAecLayerStandard
1000

1000

  0
LAYER
  5
B5FF
330
2
100
AcDbSymbolTableRecord
100
AcDbLayerTableRecord
  2
0カム
 70
     0
 62
    42
  6
中線
370
    30
390
F
1001
AcAecLayerStandard
1000

1000

  0
LAYER
  5
B600
330
2
100
AcDbSymbolTableRecord
100
AcDbLayerTableRecord
  2
0ハンドル
 70
     0
 62
   122
  6
中線
370
    30
390
F
1001
AcAecLayerStandard
1000

1000

  0
LAYER
  5
B601
330
2
100
AcDbSymbolTableRecord
100
AcDbLayerTableRecord
  2
0受け
 70
     0
 62
   222
  6
中線
370
    30
390
F
1001
AcAecLayerStandard
1000

1000

  0
LAYER
  5
B602
330
2
100
AcDbSymbolTableRecord
100
AcDbLayerTableRecord
  2
0樹脂スラセ2
 70
     0
 62
   221
  6
中線
370
    30
390
F
1001
AcAecLayerStandard
1000

1000

  0
ENDTAB
  0
TABLE
  2
STYLE
  5
3
330
0
100
AcDbSymbolTable
 70
     6
  0
STYLE
  5
11
330
3
100
AcDbSymbolTableRecord
100
AcDbTextStyleTableRecord
  2
STANDARD
 70
     0
 40
0.0
 41
0.7
 50
0.0
 71
     0
 42
3.2
  3
romans.shx
  4
extfont.shx
  0
STYLE
  5
56
330
3
100
AcDbSymbolTableRecord
100
AcDbTextStyleTableRecord
  2

 70
     1
 40
0.0
 41
1.0
 50
0.0
 71
     0
 42
2.5
  3
ltypeshp.shx
  4

  0
STYLE
  5
58
330
3
100
AcDbSymbolTableRecord
100
AcDbTextStyleTableRecord
  2
ACISOTS
 70
     0
 40
1.0
 41
1.0
 50
0.0
 71
     0
 42
2.5
  3
isocp.shx
  4
extfont.shx
  0
STYLE
  5
63
330
3
100
AcDbSymbolTableRecord
100
AcDbTextStyleTableRecord
  2
ACISOGDT
 70
     0
 40
0.0
 41
1.0
 50
0.0
 71
     0
 42
2.5
  3
amgdt.shx
  4

  0
STYLE
  5
A74
330
3
100
AcDbSymbolTableRecord
100
AcDbTextStyleTableRecord
  2
DIM
 70
     0
 40
0.0
 41
1.0
 50
0.0
 71
     0
 42
2.5
  3
monotxt.shx
  4
extfont.shx
  0
STYLE
  5
AC80
330
3
100
AcDbSymbolTableRecord
100
AcDbTextStyleTableRecord
  2

 70
     1
 40
0.0
 41
1.0
 50
0.0
 71
     0
 42
3.2
  3
genltshp.shx
  4

  0
ENDTAB
  0
TABLE
  2
VIEW
  5
6
330
0
100
AcDbSymbolTable
 70
     6
  0
VIEW
  5
AE1
330
6
100
AcDbSymbolTableRecord
100
AcDbViewTableRecord
  2
AM_VIEW1
 70
     0
 40
129.7276464542651
 10
1775.10588156276
 20
1793.121228859297
 41
148.5
 11
0.0
 21
0.0
 31
1.0
 12
0.0
 22
0.0
 32
0.0
 42
50.0
 43
-1370.695619172058
 44
-1370.695619172058
 50
0.0
 71
    16
281
     0
 72
     0
  0
VIEW
  5
AE2
330
6
100
AcDbSymbolTableRecord
100
AcDbViewTableRecord
  2
AM_VIEW2
 70
     0
 40
129.7276464542651
 10
1923.60588156276
 20
1793.121228859297
 41
148.5
 11
0.0
 21
0.0
 31
1.0
 12
0.0
 22
0.0
 32
0.0
 42
50.0
 43
-1370.695619172058
 44
-1370.695619172058
 50
0.0
 71
    16
281
     0
 72
     0
  0
VIEW
  5
AE3
330
6
100
AcDbSymbolTableRecord
100
AcDbViewTableRecord
  2
AM_VIEW3
 70
     0
 40
129.7276464542651
 10
1775.10588156276
 20
1712.848875313562
 41
148.5
 11
0.0
 21
0.0
 31
1.0
 12
0.0
 22
0.0
 32
0.0
 42
50.0
 43
-1370.695619172058
 44
-1370.695619172058
 50
0.0
 71
    16
281
     0
 72
     0
  0
VIEW
  5
AE4
330
6
100
AcDbSymbolTableRecord
100
AcDbViewTableRecord
  2
AM_VIEW4
 70
     0
 40
129.7276464542651
 10
1923.60588156276
 20
1712.848875313562
 41
148.5
 11
0.0
 21
0.0
 31
1.0
 12
0.0
 22
0.0
 32
0.0
 42
50.0
 43
-1370.695619172058
 44
-1370.695619172058
 50
0.0
 71
    16
281
     0
 72
     0
  0
VIEW
  5
AE5
330
6
100
AcDbSymbolTableRecord
100
AcDbViewTableRecord
  2
AM_VIEW5
 70
     0
 40
129.7276464542651
 10
1849.35588156276
 20
1752.985052086429
 41
148.5
 11
0.0
 21
0.0
 31
1.0
 12
0.0
 22
0.0
 32
0.0
 42
50.0
 43
-1370.695619172058
 44
-1370.695619172058
 50
0.0
 71
    16
281
     0
 72
     0
  0
VIEW
  5
AE6
330
6
100
AcDbSymbolTableRecord
100
AcDbViewTableRecord
  2
AM_VIEW6
 70
     0
 40
259.4526983556011
 10
1849.35588156276
 20
1752.985052086429
 41
296.99703
 11
0.0
 21
0.0
 31
1.0
 12
0.0
 22
0.0
 32
0.0
 42
50.0
 43
-1370.695619172058
 44
-1370.695619172058
 50
0.0
 71
    16
281
     0
 72
     0
  0
ENDTAB
  0
TABLE
  2
UCS
  5
7
330
0
100
AcDbSymbolTable
 70
     0
  0
ENDTAB
  0
TABLE
  2
APPID
  5
9
330
0
100
AcDbSymbolTable
 70
    55
  0
APPID
  5
12
330
9
100
AcDbSymbolTableRecord
100
AcDbRegAppTableRecord
  2
ACAD
 70
     0
  0
APPID
  5
30
330
9
100
AcDbSymbolTableRecord
100
AcDbRegAppTableRecord
  2
MCAD_NO_VIS
 70
     0
  0
APPID
  5
31
330
9
100
AcDbSymbolTableRecord
100
AcDbRegAppTableRecord
  2
ACAD_TEMP_GRAPHIC
 70
     0
  0
APPID
  5
44
330
9
100
AcDbSymbolTableRecord
100
AcDbRegAppTableRecord
  2
ACATTRIBSERVICES
 70
     0
  0
APPID
  5
7A1
330
9
100
AcDbSymbolTableRecord
100
AcDbRegAppTableRecord
  2
GENIUS_GENDIMSH_14
 70
     0
  0
APPID
  5
A49
330
9
100
AcDbSymbolTableRecord
100
AcDbRegAppTableRecord
  2
GENIUS_GENREC_14
 70
     0
  0
APPID
  5
A4A
330
9
100
AcDbSymbolTableRecord
100
AcDbRegAppTableRecord
  2
GENIUS_GENOBJ-N-REC_13
 70
     0
  0
APPID
  5
A4B
330
9
100
AcDbSymbolTableRecord
100
AcDbRegAppTableRecord
  2
GENIUS_GENODEF_13
 70
     0
  0
APPID
  5
A4C
330
9
100
AcDbSymbolTableRecord
100
AcDbRegAppTableRecord
  2
DCO15
 70
     0
  0
APPID
  5
ADC
330
9
100
AcDbSymbolTableRecord
100
AcDbRegAppTableRecord
  2
GENIUS_GENOLIS_13
 70
     0
  0
APPID
  5
ADD
330
9
100
AcDbSymbolTableRecord
100
AcDbRegAppTableRecord
  2
GENIUS_GENOENT_13
 70
     0
  0
APPID
  5
ADE
330
9
100
AcDbSymbolTableRecord
100
AcDbRegAppTableRecord
  2
GENIUS_GENOBJ-N-TIT_13
 70
     0
  0
APPID
  5
ADF
330
9
100
AcDbSymbolTableRecord
100
AcDbRegAppTableRecord
  2
GENIUS_GENTITLE_13
 70
     0
  0
APPID
  5
AE0
330
9
100
AcDbSymbolTableRecord
100
AcDbRegAppTableRecord
  2
GENIUS_GENOREF_13
 70
     0
  0
APPID
  5
AE7
330
9
100
AcDbSymbolTableRecord
100
AcDbRegAppTableRecord
  2
GENIUS_GENSCREG_15
 70
     0
  0
APPID
  5
AE8
330
9
100
AcDbSymbolTableRecord
100
AcDbRegAppTableRecord
  2
GENIUS_GENOBJ-N-SDF_13
 70
     0
  0
APPID
  5
FAF
330
9
100
AcDbSymbolTableRecord
100
AcDbRegAppTableRecord
  2
GENIUS_GENBLLY_14
 70
     0
  0
APPID
  5
FB0
330
9
100
AcDbSymbolTableRecord
100
AcDbRegAppTableRecord
  2
GENIUS_GENTRA_14
 70
     0
  0
APPID
  5
1285
330
9
100
AcDbSymbolTableRecord
100
AcDbRegAppTableRecord
  2
GENIUS_GENDTOL_13
 70
     0
  0
APPID
  5
142D
330
9
100
AcDbSymbolTableRecord
100
AcDbRegAppTableRecord
  2
GENIUS_GENOBJ-N-CEN_13
 70
     0
  0
APPID
  5
1AB5
330
9
100
AcDbSymbolTableRecord
100
AcDbRegAppTableRecord
  2
GENIUS_GENOBJ-N-CRS_13
 70
     0
  0
APPID
  5
1B36
330
9
100
AcDbSymbolTableRecord
100
AcDbRegAppTableRecord
  2
GENIUS_GENOBJ-N-HTC_13
 70
     0
  0
APPID
  5
1B37
330
9
100
AcDbSymbolTableRecord
100
AcDbRegAppTableRecord
  2
GENIUS_GENHATCH_13
 70
     0
  0
APPID
  5
216D
330
9
100
AcDbSymbolTableRecord
100
AcDbRegAppTableRecord
  2
GENIUS_GENOBJ-N-FIL_13
 70
     0
  0
APPID
  5
2356
330
9
100
AcDbSymbolTableRecord
100
AcDbRegAppTableRecord
  2
GEVID990412420
 70
     0
  0
APPID
  5
2357
330
9
100
AcDbSymbolTableRecord
100
AcDbRegAppTableRecord
  2
GEVDC
 70
     0
  0
APPID
  5
2358
330
9
100
AcDbSymbolTableRecord
100
AcDbRegAppTableRecord
  2
GEVCON
 70
     0
  0
APPID
  5
235B
330
9
100
AcDbSymbolTableRecord
100
AcDbRegAppTableRecord
  2
GEVRADREF
 70
     0
  0
APPID
  5
2360
330
9
100
AcDbSymbolTableRecord
100
AcDbRegAppTableRecord
  2
GENIUS_GENBH_13
 70
     0
  0
APPID
  5
2362
330
9
100
AcDbSymbolTableRecord
100
AcDbRegAppTableRecord
  2
GENIUS_GENOBJ-NBEHI-BHF_13
 70
     0
  0
APPID
  5
2364
330
9
100
AcDbSymbolTableRecord
100
AcDbRegAppTableRecord
  2
GENIUS_GENOBJ-NBEHI-BHB_13
 70
     0
  0
APPID
  5
2379
330
9
100
AcDbSymbolTableRecord
100
AcDbRegAppTableRecord
  2
GENIUS_GENOBJ-F-SCPASSM_13
 70
     0
  0
APPID
  5
3D74
330
9
100
AcDbSymbolTableRecord
100
AcDbRegAppTableRecord
  2
GENIUS_GENDIM_13
 70
     0
  0
APPID
  5
3D76
330
9
100
AcDbSymbolTableRecord
100
AcDbRegAppTableRecord
  2
GENIUS_GE3DTOL_13
 70
     0
  0
APPID
  5
3D9C
330
9
100
AcDbSymbolTableRecord
100
AcDbRegAppTableRecord
  2
AD_DRAW
 70
     0
  0
APPID
  5
3DE8
330
9
100
AcDbSymbolTableRecord
100
AcDbRegAppTableRecord
  2
ASURF_PCURVE_APPNAME
 70
     0
  0
APPID
  5
3DED
330
9
100
AcDbSymbolTableRecord
100
AcDbRegAppTableRecord
  2
AMG_3D2D_5.0
 70
     0
  0
APPID
  5
3E1B
330
9
100
AcDbSymbolTableRecord
100
AcDbRegAppTableRecord
  2
DESIGNERASSEMBLIES
 70
     0
  0
APPID
  5
3E20
330
9
100
AcDbSymbolTableRecord
100
AcDbRegAppTableRecord
  2
ACADM_DIM_EDIT
 70
     0
  0
APPID
  5
3E21
330
9
100
AcDbSymbolTableRecord
100
AcDbRegAppTableRecord
  2
AMDT_DM_ADJ
 70
     0
  0
APPID
  5
4143
330
9
100
AcDbSymbolTableRecord
100
AcDbRegAppTableRecord
  2
GENIUS_GENFIL_13
 70
     0
  0
APPID
  5
4144
330
9
100
AcDbSymbolTableRecord
100
AcDbRegAppTableRecord
  2
GENIUS_GENOBJ-N-CHA_13
 70
     0
  0
APPID
  5
4E17
330
9
100
AcDbSymbolTableRecord
100
AcDbRegAppTableRecord
  2
GEVID1008153417
 70
     0
  0
APPID
  5
4E58
330
9
100
AcDbSymbolTableRecord
100
AcDbRegAppTableRecord
  2
GEVID1008153418
 70
     0
  0
APPID
  5
4E5E
330
9
100
AcDbSymbolTableRecord
100
AcDbRegAppTableRecord
  2
GEVID1008153419
 70
     0
  0
APPID
  5
4E64
330
9
100
AcDbSymbolTableRecord
100
AcDbRegAppTableRecord
  2
GEVID1008153420
 70
     0
  0
APPID
  5
4E75
330
9
100
AcDbSymbolTableRecord
100
AcDbRegAppTableRecord
  2
GEVID1008153421
 70
     0
  0
APPID
  5
4EB7
330
9
100
AcDbSymbolTableRecord
100
AcDbRegAppTableRecord
  2
GENIUS_AMGTXT_16
 70
     0
  0
APPID
  5
7645
330
9
100
AcDbSymbolTableRecord
100
AcDbRegAppTableRecord
  2
GENIUS_GENOBJ-N-DIM_13
 70
     0
  0
APPID
  5
AAD0
330
9
100
AcDbSymbolTableRecord
100
AcDbRegAppTableRecord
  2
ACAD_DSTYLE_DIMARC_LENGTH_SYMBOL
 70
     0
  0
APPID
  5
AAD1
330
9
100
AcDbSymbolTableRecord
100
AcDbRegAppTableRecord
  2
ACAD_DSTYLE_DIMJOGGED_JOGANGLE_SYMBOL
 70
     0
  0
APPID
  5
AAFD
330
9
100
AcDbSymbolTableRecord
100
AcDbRegAppTableRecord
  2
ACAD_PSEXT
 70
     0
  0
APPID
  5
AD61
330
9
100
AcDbSymbolTableRecord
100
AcDbRegAppTableRecord
  2
AcAecLayerStandard
 70
     0
  0
APPID
  5
AEE3
330
9
100
AcDbSymbolTableRecord
100
AcDbRegAppTableRecord
  2
ACAD_EXEMPT_FROM_CAD_STANDARDS
 70
     0
  0
APPID
  5
B1BE
330
9
100
AcDbSymbolTableRecord
100
AcDbRegAppTableRecord
  2
GENIUS_GENCEN_19
 70
     0
  0
ENDTAB
  0
TABLE
  2
DIMSTYLE
  5
A
330
0
100
AcDbSymbolTable
 70
    17
100
AcDbDimStyleTable
 71
     1
340
2515
  0
DIMSTYLE
105
A76
330
A
100
AcDbSymbolTableRecord
100
AcDbDimStyleTableRecord
  2
STANDARD
 70
     0
 41
3.0
 42
1.0
 43
7.0
 44
2.0
 73
     0
 74
     0
 77
     1
140
2.799999999999999
141
0.0
143
0.0394
147
0.7
171
     4
172
     1
173
     1
176
     3
177
     3
178
     2
271
     3
272
     3
273
     8
274
     4
289
     0
340
A74
341
A66
343
A66
344
A66
  0
DIMSTYLE
105
2515
330
A
100
AcDbSymbolTableRecord
100
AcDbDimStyleTableRecord
  2
SYS
 70
     0
  4
"
 41
1.0
 42
1.0
 43
10.0
 44
1.0
 47
0.1
 48
0.1
 73
     0
 74
     0
 77
     1
 78
     8
 79
     2
140
3.5
141
0.0
143
0.0393701
146
0.71
147
1.5
172
     1
176
   256
177
   256
178
     7
271
     2
272
     2
283
     0
284
     8
340
11
371
    -1
372
    -1
1001
ACAD_DSTYLE_DIMJOGGED_JOGANGLE_SYMBOL
1070
   384
1040
0.7853981633974483
1001
ACAD_DSTYLE_DIMARC_LENGTH_SYMBOL
1070
   379
1070
     1
  0
DIMSTYLE
105
2516
102
{ACAD_REACTORS
330
B88A
330
B88B
102
}
330
A
100
AcDbSymbolTableRecord
100
AcDbDimStyleTableRecord
  2
SYS$3
 70
     0
  4
"
 41
2.0
 42
1.0
 43
10.0
 44
1.0
 47
0.1
 48
0.1
 73
     0
 77
     1
 78
     8
 79
     2
140
3.5
141
0.0
143
0.0393701
146
0.71
147
1.5
176
   256
177
   256
178
     2
271
     2
272
     2
283
     0
284
     8
288
     1
340
11
342
A66
371
    -1
372
    -1
1001
ACAD_DSTYLE_DIMJOGGED_JOGANGLE_SYMBOL
1070
   384
1040
0.7853981633974483
1001
ACAD_DSTYLE_DIMARC_LENGTH_SYMBOL
1070
   379
1070
     1
  0
DIMSTYLE
105
2517
330
A
100
AcDbSymbolTableRecord
100
AcDbDimStyleTableRecord
  2
SYS$4
 70
     0
  4
"
 41
2.0
 42
1.0
 43
10.0
 44
1.0
 47
0.1
 48
0.1
 73
     0
 77
     1
 78
     8
 79
     2
140
3.5
141
0.0
143
0.0393701
146
0.71
147
1.5
173
     1
176
   256
177
   256
178
     2
271
     2
272
     2
283
     0
284
     8
288
     1
340
11
344
A66
371
    -1
372
    -1
1001
ACAD_DSTYLE_DIMJOGGED_JOGANGLE_SYMBOL
1070
   384
1040
0.7853981633974483
1001
ACAD_DSTYLE_DIMARC_LENGTH_SYMBOL
1070
   379
1070
     1
  0
DIMSTYLE
105
2518
330
A
100
AcDbSymbolTableRecord
100
AcDbDimStyleTableRecord
  2
SYS$6
 70
     0
  4
"
 41
2.0
 42
1.0
 43
10.0
 44
1.0
 47
0.1
 48
0.1
 73
     0
 74
     0
 78
     8
 79
     2
140
3.5
141
0.0
143
0.0393701
146
0.71
147
1.5
172
     1
176
   256
177
   256
178
     2
271
     2
272
     2
283
     0
284
     8
340
11
341
A66
371
    -1
372
    -1
1001
ACAD_DSTYLE_DIMJOGGED_JOGANGLE_SYMBOL
1070
   384
1040
0.7853981633974483
1001
ACAD_DSTYLE_DIMARC_LENGTH_SYMBOL
1070
   379
1070
     1
  0
DIMSTYLE
105
2519
330
A
100
AcDbSymbolTableRecord
100
AcDbDimStyleTableRecord
  2
SYS$7
 70
     0
  4
"
 41
2.0
 42
1.0
 43
10.0
 44
1.0
 47
0.1
 48
0.1
 73
     0
 74
     0
 77
     1
 78
     8
 79
     2
140
5.0
141
0.0
143
0.0393701
146
0.71
147
1.5
172
     1
176
   256
177
   256
178
     2
271
     2
272
     2
283
     0
284
     8
340
11
341
A66
342
A66
371
    -1
372
    -1
1001
ACAD_DSTYLE_DIMJOGGED_JOGANGLE_SYMBOL
1070
   384
1040
0.7853981633974483
1001
ACAD_DSTYLE_DIMARC_LENGTH_SYMBOL
1070
   379
1070
     1
  0
DIMSTYLE
105
251A
330
A
100
AcDbSymbolTableRecord
100
AcDbDimStyleTableRecord
  2
SYS$SF
 70
     0
  4
"
 41
2.5
 42
1.0
 43
10.0
 44
1.0
 47
0.1
 48
0.1
 73
     0
 74
     0
 75
     1
 76
     1
 77
     1
 78
     8
 79
     2
140
3.5
141
0.0
143
0.0393701
146
0.71
147
1.5
172
     1
176
   256
177
   256
178
     2
271
     2
272
     3
283
     0
284
     8
340
11
341
6C4
342
6C4
371
    -1
372
    -1
1001
ACAD_DSTYLE_DIMJOGGED_JOGANGLE_SYMBOL
1070
   384
1040
0.7853981633974483
1001
ACAD_DSTYLE_DIMARC_LENGTH_SYMBOL
1070
   379
1070
     1
  0
DIMSTYLE
105
251B
330
A
100
AcDbSymbolTableRecord
100
AcDbDimStyleTableRecord
  2
SYS$SH
 70
     0
  4
"
 41
2.5
 42
1.0
 43
10.0
 44
1.0
 47
0.1
 48
0.1
 73
     0
 74
     0
 75
     1
 76
     1
 77
     1
 78
     8
 79
     2
140
3.5
141
0.0
143
0.0393701
144
2.0
146
0.71
147
1.5
172
     1
173
     1
176
   256
177
   256
178
     2
271
     2
272
     3
283
     0
284
     8
340
11
341
6C4
343
72
344
6C4
371
    -1
372
    -1
1001
ACAD_DSTYLE_DIMJOGGED_JOGANGLE_SYMBOL
1070
   384
1040
0.7853981633974483
1001
ACAD_DSTYLE_DIMARC_LENGTH_SYMBOL
1070
   379
1070
     1
  0
DIMSTYLE
105
2A59
330
A
100
AcDbSymbolTableRecord
100
AcDbDimStyleTableRecord
  2
SYS$2
 70
     0
  4
"
 41
1.0
 42
1.0
 43
10.0
 44
1.0
 47
0.1
 48
0.1
 73
     0
 74
     0
 77
     1
 78
     8
 79
     2
140
3.5
141
0.0
143
0.0393701
146
0.71
147
1.5
172
     1
176
   256
177
   256
178
     2
271
     2
272
     2
283
     0
284
     8
340
11
342
6C4
371
    -1
372
    -1
1001
ACAD_DSTYLE_DIMJOGGED_JOGANGLE_SYMBOL
1070
   384
1040
0.7853981633974483
1001
ACAD_DSTYLE_DIMARC_LENGTH_SYMBOL
1070
   379
1070
     1
  0
DIMSTYLE
105
2AAB
102
{ACAD_REACTORS
330
B793
330
B7C8
330
B7C9
330
B808
330
B80D
330
B80E
330
B80F
330
B810
330
B811
330
B812
330
B813
330
B814
330
B815
102
}
330
A
100
AcDbSymbolTableRecord
100
AcDbDimStyleTableRecord
  2
SYS$0
 70
     0
  4
"
 41
1.0
 42
1.0
 43
10.0
 44
1.0
 47
0.1
 48
0.1
 73
     0
 74
     0
 77
     1
 78
     8
 79
     2
140
3.200000000000001
141
0.0
143
0.0393701
146
0.71
147
1.5
172
     1
176
   256
177
   256
178
     2
271
     2
272
     2
283
     0
284
     8
340
11
341
A66
342
6C4
371
    -1
372
    -1
1001
ACAD_DSTYLE_DIMJOGGED_JOGANGLE_SYMBOL
1070
   384
1040
0.7853981633974483
1001
ACAD_DSTYLE_DIMARC_LENGTH_SYMBOL
1070
   379
1070
     1
  0
DIMSTYLE
105
AF99
330
A
100
AcDbSymbolTableRecord
100
AcDbDimStyleTableRecord
  2
AM_ISO
 70
     0
  4
"
 41
2.5
 42
1.0
 43
10.0
 44
1.0
 47
0.1
 48
0.1
 73
     0
 74
     0
 77
     1
 78
     8
 79
     2
140
3.5
141
0.0
143
0.0393701
146
0.71
147
1.5
172
     1
176
   256
177
   256
178
     2
271
     2
272
     3
274
     4
283
     0
284
     8
340
11
371
    -1
372
    -1
  0
DIMSTYLE
105
AF9A
330
A
100
AcDbSymbolTableRecord
100
AcDbDimStyleTableRecord
  2
AM_ISO$3
 70
     0
  4
"
 41
2.5
 42
1.0
 43
10.0
 44
1.0
 47
0.1
 48
0.1
 73
     0
 77
     1
 78
     8
 79
     2
140
3.5
141
0.0
143
0.0393701
146
0.71
147
1.5
176
   256
177
   256
178
     2
271
     2
272
     3
274
     4
283
     0
284
     8
288
     1
289
     0
340
11
371
    -1
372
    -1
  0
DIMSTYLE
105
AF9B
330
A
100
AcDbSymbolTableRecord
100
AcDbDimStyleTableRecord
  2
AM_ISO$4
 70
     0
  4
"
 41
2.5
 42
1.0
 43
10.0
 44
1.0
 47
0.1
 48
0.1
 73
     0
 77
     1
 78
     8
 79
     2
140
3.5
141
0.0
143
0.0393701
146
0.71
147
1.5
176
   256
177
   256
178
     2
271
     2
272
     3
274
     4
283
     0
284
     8
288
     1
289
     0
340
11
371
    -1
372
    -1
  0
DIMSTYLE
105
AF9C
330
A
100
AcDbSymbolTableRecord
100
AcDbDimStyleTableRecord
  2
AM_ISO$6
 70
     0
  4
"
 41
2.5
 42
1.0
 43
10.0
 44
1.0
 47
0.1
 48
0.1
 73
     0
 74
     0
 78
     8
 79
     2
140
3.5
141
0.0
143
0.0393701
146
0.71
147
1.5
172
     1
176
   256
177
   256
178
     2
271
     2
272
     3
274
     4
283
     0
284
     8
340
11
371
    -1
372
    -1
  0
DIMSTYLE
105
AF9D
330
A
100
AcDbSymbolTableRecord
100
AcDbDimStyleTableRecord
  2
AM_ISO$7
 70
     0
  4
"
 41
2.5
 42
1.0
 43
10.0
 44
1.0
 47
0.1
 48
0.1
 73
     0
 74
     0
 77
     1
 78
     8
 79
     2
140
5.0
141
0.0
143
0.0393701
146
0.71
147
1.5
172
     1
176
   256
177
   256
178
     2
271
     2
272
     3
274
     4
283
     0
284
     8
340
11
371
    -1
372
    -1
  0
DIMSTYLE
105
AF9E
330
A
100
AcDbSymbolTableRecord
100
AcDbDimStyleTableRecord
  2
AM_ISO$SF
 70
     0
  4
"
 41
2.5
 42
1.0
 43
10.0
 44
1.0
 47
0.1
 48
0.1
 73
     0
 74
     0
 75
     1
 76
     1
 77
     1
 78
     8
 79
     2
140
3.5
141
0.0
143
0.0393701
146
0.71
147
1.5
172
     1
176
   256
177
   256
178
     2
271
     2
272
     3
274
     4
283
     0
284
     8
340
11
371
    -1
372
    -1
  0
DIMSTYLE
105
AF9F
330
A
100
AcDbSymbolTableRecord
100
AcDbDimStyleTableRecord
  2
AM_ISO$SH
 70
     0
  4
"
 41
2.5
 42
1.0
 43
10.0
 44
1.0
 47
0.1
 48
0.1
 73
     0
 74
     0
 75
     1
 76
     1
 77
     1
 78
     8
 79
     2
140
3.5
141
0.0
143
0.0393701
144
2.0
146
0.71
147
1.5
172
     1
173
     1
176
   256
177
   256
178
     2
271
     2
272
     3
274
     4
283
     0
284
     8
340
11
343
72
371
    -1
372
    -1
  0
ENDTAB
  0
TABLE
  2
BLOCK_RECORD
  5
1
330
0
100
AcDbSymbolTable
 70
    21
  0
BLOCK_RECORD
  5
1F
102
{ACAD_XDICTIONARY
360
8A
102
}
330
1
100
AcDbSymbolTableRecord
100
AcDbBlockTableRecord
  2
*Model_Space
340
22
  0
BLOCK_RECORD
  5
1B
330
1
100
AcDbSymbolTableRecord
100
AcDbBlockTableRecord
  2
*Paper_Space
340
1E
  0
BLOCK_RECORD
  5
23
330
1
100
AcDbSymbolTableRecord
100
AcDbBlockTableRecord
  2
*Paper_Space0
340
26
  0
BLOCK_RECORD
  5
72
330
1
100
AcDbSymbolTableRecord
100
AcDbBlockTableRecord
  2
GENAXEH
340
0
  0
BLOCK_RECORD
  5
6C4
330
1
100
AcDbSymbolTableRecord
100
AcDbBlockTableRecord
  2
_Dot
340
0
102
{BLKREFS
331
B947
331
B948
331
B950
331
B951
331
B959
331
B95A
331
B964
331
B965
331
B96D
331
B96E
331
B976
331
B977
331
B97F
331
B980
331
B988
331
B989
331
B991
331
B992
331
B99A
331
B99B
331
B9A3
331
B9A4
331
B9AC
331
B9AD
331
B9B5
331
B9B6
102
}
  0
BLOCK_RECORD
  5
A66
330
1
100
AcDbSymbolTableRecord
100
AcDbBlockTableRecord
  2
_OPEN30
340
0
  0
BLOCK_RECORD
  5
B5E1
330
1
100
AcDbSymbolTableRecord
100
AcDbBlockTableRecord
  2
GENDOT
340
0
102
{BLKREFS
331
B9C0
331
B9C1
331
B9C9
331
B9CA
102
}
  0
BLOCK_RECORD
  5
B88C
330
1
100
AcDbSymbolTableRecord
100
AcDbBlockTableRecord
  2
*D6
340
0
  0
BLOCK_RECORD
  5
B899
330
1
100
AcDbSymbolTableRecord
100
AcDbBlockTableRecord
  2
*D7
340
0
  0
BLOCK_RECORD
  5
B8A5
330
1
100
AcDbSymbolTableRecord
100
AcDbBlockTableRecord
  2
*D8
340
0
  0
BLOCK_RECORD
  5
B8B1
330
1
100
AcDbSymbolTableRecord
100
AcDbBlockTableRecord
  2
*D9
340
0
  0
BLOCK_RECORD
  5
B8BF
330
1
100
AcDbSymbolTableRecord
100
AcDbBlockTableRecord
  2
*D10
340
0
  0
BLOCK_RECORD
  5
B8CB
330
1
100
AcDbSymbolTableRecord
100
AcDbBlockTableRecord
  2
*D11
340
0
  0
BLOCK_RECORD
  5
B8D7
330
1
100
AcDbSymbolTableRecord
100
AcDbBlockTableRecord
  2
*D12
340
0
  0
BLOCK_RECORD
  5
B8E3
330
1
100
AcDbSymbolTableRecord
100
AcDbBlockTableRecord
  2
*D13
340
0
  0
BLOCK_RECORD
  5
B8EF
330
1
100
AcDbSymbolTableRecord
100
AcDbBlockTableRecord
  2
*D14
340
0
  0
BLOCK_RECORD
  5
B8FB
330
1
100
AcDbSymbolTableRecord
100
AcDbBlockTableRecord
  2
*D15
340
0
  0
BLOCK_RECORD
  5
B907
330
1
100
AcDbSymbolTableRecord
100
AcDbBlockTableRecord
  2
*D16
340
0
  0
BLOCK_RECORD
  5
B913
330
1
100
AcDbSymbolTableRecord
100
AcDbBlockTableRecord
  2
*D17
340
0
  0
BLOCK_RECORD
  5
B91F
330
1
100
AcDbSymbolTableRecord
100
AcDbBlockTableRecord
  2
*D18
340
0
  0
BLOCK_RECORD
  5
B92B
330
1
100
AcDbSymbolTableRecord
100
AcDbBlockTableRecord
  2
*D19
340
0
  0
BLOCK_RECORD
  5
B937
330
1
100
AcDbSymbolTableRecord
100
AcDbBlockTableRecord
  2
*D20
340
0
  0
ENDTAB
  0
ENDSEC
  0
SECTION
  2
BLOCKS
  0
BLOCK
  5
20
330
1F
100
AcDbEntity
  8
0
100
AcDbBlockBegin
  2
*Model_Space
 70
     0
 10
0.0
 20
0.0
 30
0.0
  3
*Model_Space
  1

  0
ENDBLK
  5
21
330
1F
100
AcDbEntity
  8
0
100
AcDbBlockEnd
  0
BLOCK
  5
1C
330
1B
100
AcDbEntity
 67
     1
  8
0
100
AcDbBlockBegin
  2
*Paper_Space
 70
     0
 10
0.0
 20
0.0
 30
0.0
  3
*Paper_Space
  1

  0
ENDBLK
  5
1D
330
1B
100
AcDbEntity
 67
     1
  8
0
100
AcDbBlockEnd
  0
BLOCK
  5
24
330
23
100
AcDbEntity
 67
     1
  8
0
100
AcDbBlockBegin
  2
*Paper_Space0
 70
     0
 10
0.0
 20
0.0
 30
0.0
  3
*Paper_Space0
  1

  0
ENDBLK
  5
25
330
23
100
AcDbEntity
 67
     1
  8
0
100
AcDbBlockEnd
  0
BLOCK
  5
74
330
72
100
AcDbEntity
  8
0
100
AcDbBlockBegin
  2
GENAXEH
 70
     0
 10
0.0
 20
0.0
 30
0.0
  3
GENAXEH
  1

  0
LINE
  5
73
330
72
100
AcDbEntity
  8
0
100
AcDbLine
 10
-1.0
 20
0.0
 30
0.0
 11
1.0
 21
0.0
 31
0.0
  0
ENDBLK
  5
75
330
72
100
AcDbEntity
  8
0
100
AcDbBlockEnd
  0
BLOCK
  5
6C7
330
6C4
100
AcDbEntity
  8
0
100
AcDbBlockBegin
  2
_Dot
 70
     0
 10
0.0
 20
0.0
 30
0.0
  3
_Dot
  1

  0
LWPOLYLINE
  5
6C5
330
6C4
100
AcDbEntity
  8
0
  6
ByBlock
 62
     0
100
AcDbPolyline
 90
        2
 70
     1
 43
0.5
 10
-0.25
 20
0.0
 42
1.0
 10
0.25
 20
0.0
 42
1.0
  0
LINE
  5
6C6
330
6C4
100
AcDbEntity
  8
0
  6
ByBlock
 62
     0
370
    -2
100
AcDbLine
 10
-0.5
 20
0.0
 30
0.0
 11
-1.0
 21
0.0
 31
0.0
  0
ENDBLK
  5
6C8
330
6C4
100
AcDbEntity
  8
0
100
AcDbBlockEnd
  0
BLOCK
  5
A6A
330
A66
100
AcDbEntity
  8
0
100
AcDbBlockBegin
  2
_OPEN30
 70
     0
 10
0.0
 20
0.0
 30
0.0
  3
_OPEN30
  1

  0
LINE
  5
A67
330
A66
100
AcDbEntity
  8
0
  6
ByBlock
 62
     0
100
AcDbLine
 10
-1.0
 20
0.26794919
 30
0.0
 11
0.0
 21
0.0
 31
0.0
  0
LINE
  5
A68
330
A66
100
AcDbEntity
  8
0
  6
ByBlock
 62
     0
100
AcDbLine
 10
0.0
 20
0.0
 30
0.0
 11
-1.0
 21
-0.26794919
 31
0.0
  0
LINE
  5
A69
330
A66
100
AcDbEntity
  8
0
  6
ByBlock
 62
     0
100
AcDbLine
 10
0.0
 20
0.0
 30
0.0
 11
-1.0
 21
0.0
 31
0.0
  0
ENDBLK
  5
A6B
330
A66
100
AcDbEntity
  8
0
100
AcDbBlockEnd
  0
BLOCK
  5
B5E2
330
B5E1
100
AcDbEntity
  8
0
100
AcDbBlockBegin
  2
GENDOT
 70
     0
 10
0.0
 20
0.0
 30
0.0
  3
GENDOT
  1

  0
LINE
  5
B5E3
330
B5E1
100
AcDbEntity
  8
0
100
AcDbLine
 10
0.0
 20
0.0
 30
0.0
 11
-1.0
 21
0.0
 31
0.0
  0
LWPOLYLINE
  5
B5E4
330
B5E1
100
AcDbEntity
  8
0
100
AcDbPolyline
 90
        2
 70
     1
 43
0.25
 10
-0.125
 20
0.0
 42
1.0
 10
0.125
 20
0.0
 42
1.0
  0
ENDBLK
  5
B5E5
330
B5E1
100
AcDbEntity
  8
0
100
AcDbBlockEnd
  0
BLOCK
  5
B897
330
B88C
100
AcDbEntity
  8
0
100
AcDbBlockBegin
  2
*D6
 70
     1
 10
0.0
 20
0.0
 30
0.0
  3
*D6
  1

  0
LINE
  5
B943
330
B88C
100
AcDbEntity
  8
AM_5
100
AcDbLine
 10
202.7099060650578
 20
145.5441110855395
 30
0.0
 11
202.7099060650578
 21
150.9901419415214
 31
0.0
  0
LINE
  5
B944
330
B88C
100
AcDbEntity
  8
AM_5
100
AcDbLine
 10
226.7098806214923
 20
145.5441110855395
 30
0.0
 11
226.7098806214923
 21
150.9901419415214
 31
0.0
  0
LINE
  5
B945
330
B88C
100
AcDbEntity
  8
AM_5
100
AcDbLine
 10
203.7099060650578
 20
149.9901419415214
 30
0.0
 11
225.7098806214923
 21
149.9901419415214
 31
0.0
  0
LINE
  5
B946
330
B88C
100
AcDbEntity
  8
AM_5
100
AcDbLine
 10
226.7098806214923
 20
149.9901419415214
 30
0.0
 11
237.4755244872895
 21
149.9901419415214
 31
0.0
  0
INSERT
  5
B947
330
B88C
100
AcDbEntity
  8
AM_5
100
AcDbBlockReference
  2
_Dot
 10
202.7099060650578
 20
149.9901419415214
 30
0.0
 50
180.0
  0
INSERT
  5
B948
330
B88C
100
AcDbEntity
  8
AM_5
100
AcDbBlockReference
  2
_Dot
 10
226.7098806214923
 20
149.9901419415214
 30
0.0
  0
MTEXT
  5
B949
330
B88C
100
AcDbEntity
  8
AM_5
 62
     2
100
AcDbMText
 10
235.2288578206228
 20
153.0901419415214
 30
0.0
 40
3.200000000000001
 41
0.0
 71
     5
 72
     1
  1
H
 73
     1
 44
1.0
1001
ACAD
1000
MTEXTBEGIN
1070
    73
1070
     1
1070
    44
1040
1.0
1070
    74
1070
     0
1000
MTEXTEND
  0
POINT
  5
B94A
330
B88C
100
AcDbEntity
  8
Defpoints
 62
     0
100
AcDbPoint
 10
202.7099060650578
 20
144.5441110855395
 30
0.0
  0
POINT
  5
B94B
330
B88C
100
AcDbEntity
  8
Defpoints
 62
     0
100
AcDbPoint
 10
226.7098806214923
 20
144.5441110855395
 30
0.0
  0
POINT
  5
B94C
330
B88C
100
AcDbEntity
  8
Defpoints
 62
     0
100
AcDbPoint
 10
226.7098806214923
 20
149.9901419415214
 30
0.0
  0
ENDBLK
  5
B898
330
B88C
100
AcDbEntity
  8
0
100
AcDbBlockEnd
  0
BLOCK
  5
B8A3
330
B899
100
AcDbEntity
  8
0
100
AcDbBlockBegin
  2
*D7
 70
     1
 10
0.0
 20
0.0
 30
0.0
  3
*D7
  1

  0
LINE
  5
B94D
330
B899
100
AcDbEntity
  8
AM_5
100
AcDbLine
 10
336.0152384903155
 20
131.5441110855395
 30
0.0
 11
336.0152384903155
 21
119.5441110855395
 31
0.0
  0
LINE
  5
B94E
330
B899
100
AcDbEntity
  8
AM_5
100
AcDbLine
 10
323.5152384903155
 20
137.5441110855395
 30
0.0
 11
323.5152384903155
 21
119.5441110855395
 31
0.0
  0
LINE
  5
B94F
330
B899
100
AcDbEntity
  8
AM_5
100
AcDbLine
 10
335.0152384903155
 20
120.5441110855395
 30
0.0
 11
324.5152384903155
 21
120.5441110855395
 31
0.0
  0
INSERT
  5
B950
330
B899
100
AcDbEntity
  8
AM_5
100
AcDbBlockReference
  2
_Dot
 10
336.0152384903155
 20
120.5441110855395
 30
0.0
  0
INSERT
  5
B951
330
B899
100
AcDbEntity
  8
AM_5
100
AcDbBlockReference
  2
_Dot
 10
323.5152384903155
 20
120.5441110855395
 30
0.0
 50
180.0
  0
MTEXT
  5
B952
330
B899
100
AcDbEntity
  8
AM_5
 62
     2
100
AcDbMText
 10
329.7652384903155
 20
123.6441110855394
 30
0.0
 40
3.200000000000001
 41
0.0
 71
     5
 72
     1
  1
J
 73
     1
 44
1.0
1001
ACAD
1000
MTEXTBEGIN
1070
    73
1070
     1
1070
    44
1040
1.0
1070
    74
1070
     0
1000
MTEXTEND
  0
POINT
  5
B953
330
B899
100
AcDbEntity
  8
Defpoints
 62
     0
100
AcDbPoint
 10
336.0152384903155
 20
132.5441110855395
 30
0.0
  0
POINT
  5
B954
330
B899
100
AcDbEntity
  8
Defpoints
 62
     0
100
AcDbPoint
 10
323.5152384903155
 20
138.5441110855395
 30
0.0
  0
POINT
  5
B955
330
B899
100
AcDbEntity
  8
Defpoints
 62
     0
100
AcDbPoint
 10
323.5152384903155
 20
120.5441110855395
 30
0.0
  0
ENDBLK
  5
B8A4
330
B899
100
AcDbEntity
  8
0
100
AcDbBlockEnd
  0
BLOCK
  5
B8AF
330
B8A5
100
AcDbEntity
  8
0
100
AcDbBlockBegin
  2
*D8
 70
     1
 10
0.0
 20
0.0
 30
0.0
  3
*D8
  1

  0
LINE
  5
B956
330
B8A5
100
AcDbEntity
  8
AM_5
100
AcDbLine
 10
336.0152384903155
 20
131.5441110855395
 30
0.0
 11
336.0152384903155
 21
109.5441110855395
 31
0.0
  0
LINE
  5
B957
330
B8A5
100
AcDbEntity
  8
AM_5
100
AcDbLine
 10
318.0152384903155
 20
138.0441110855395
 30
0.0
 11
318.0152384903155
 21
109.5441110855395
 31
0.0
  0
LINE
  5
B958
330
B8A5
100
AcDbEntity
  8
AM_5
100
AcDbLine
 10
335.0152384903155
 20
110.5441110855394
 30
0.0
 11
319.0152384903155
 21
110.5441110855394
 31
0.0
  0
INSERT
  5
B959
330
B8A5
100
AcDbEntity
  8
AM_5
100
AcDbBlockReference
  2
_Dot
 10
336.0152384903155
 20
110.5441110855394
 30
0.0
  0
INSERT
  5
B95A
330
B8A5
100
AcDbEntity
  8
AM_5
100
AcDbBlockReference
  2
_Dot
 10
318.0152384903155
 20
110.5441110855394
 30
0.0
 50
180.0
  0
MTEXT
  5
B95B
330
B8A5
100
AcDbEntity
  8
AM_5
 62
     2
100
AcDbMText
 10
327.0152384903155
 20
113.6441110855395
 30
0.0
 40
3.200000000000001
 41
0.0
 71
     5
 72
     1
  1
Ｉ
 73
     1
 44
1.0
1001
ACAD
1000
MTEXTBEGIN
1070
    73
1070
     1
1070
    44
1040
1.0
1070
    74
1070
     0
1000
MTEXTEND
  0
POINT
  5
B95C
330
B8A5
100
AcDbEntity
  8
Defpoints
 62
     0
100
AcDbPoint
 10
336.0152384903155
 20
132.5441110855395
 30
0.0
  0
POINT
  5
B95D
330
B8A5
100
AcDbEntity
  8
Defpoints
 62
     0
100
AcDbPoint
 10
318.0152384903155
 20
139.0441110855395
 30
0.0
  0
POINT
  5
B95E
330
B8A5
100
AcDbEntity
  8
Defpoints
 62
     0
100
AcDbPoint
 10
318.0152384903155
 20
110.5441110855394
 30
0.0
  0
ENDBLK
  5
B8B0
330
B8A5
100
AcDbEntity
  8
0
100
AcDbBlockEnd
  0
BLOCK
  5
B8BD
330
B8B1
100
AcDbEntity
  8
0
100
AcDbBlockBegin
  2
*D9
 70
     1
 10
0.0
 20
0.0
 30
0.0
  3
*D9
  1

  0
LINE
  5
B95F
330
B8B1
100
AcDbEntity
  8
AM_5
100
AcDbLine
 10
184.7098806214924
 20
160.7943894823211
 30
0.0
 11
184.7098806214924
 21
145.8083647203566
 31
0.0
  0
LINE
  5
B960
330
B8B1
100
AcDbEntity
  8
AM_5
100
AcDbLine
 10
181.7098806214924
 20
160.7943894823206
 30
0.0
 11
181.7098806214924
 21
145.8083647203566
 31
0.0
  0
LINE
  5
B961
330
B8B1
100
AcDbEntity
  8
AM_5
100
AcDbLine
 10
185.7098806214924
 20
146.8083647203566
 30
0.0
 11
186.7098806214924
 21
146.8083647203566
 31
0.0
  0
LINE
  5
B962
330
B8B1
100
AcDbEntity
  8
AM_5
100
AcDbLine
 10
180.7098806214924
 20
146.8083647203566
 30
0.0
 11
171.9312139548255
 21
146.8083647203566
 31
0.0
  0
LINE
  5
B963
330
B8B1
100
AcDbEntity
  8
AM_5
100
AcDbLine
 10
184.7098806214924
 20
146.8083647203566
 30
0.0
 11
181.7098806214924
 21
146.8083647203566
 31
0.0
  0
INSERT
  5
B964
330
B8B1
100
AcDbEntity
  8
AM_5
100
AcDbBlockReference
  2
_Dot
 10
184.7098806214924
 20
146.8083647203566
 30
0.0
 50
180.0
  0
INSERT
  5
B965
330
B8B1
100
AcDbEntity
  8
AM_5
100
AcDbBlockReference
  2
_Dot
 10
181.7098806214924
 20
146.8083647203566
 30
0.0
  0
MTEXT
  5
B966
330
B8B1
100
AcDbEntity
  8
AM_5
 62
     2
100
AcDbMText
 10
175.8205472881589
 20
152.5750313870233
 30
0.0
 40
3.200000000000001
 41
0.0
 71
     5
 72
     1
  1
調整\P+3
 73
     1
 44
1.0
1001
ACAD
1000
MTEXTBEGIN
1070
    73
1070
     1
1070
    44
1040
1.0
1070
    74
1070
     0
1000
MTEXTEND
  0
POINT
  5
B967
330
B8B1
100
AcDbEntity
  8
Defpoints
 62
     0
100
AcDbPoint
 10
184.7098806214924
 20
161.7943894823211
 30
0.0
  0
POINT
  5
B968
330
B8B1
100
AcDbEntity
  8
Defpoints
 62
     0
100
AcDbPoint
 10
181.7098806214924
 20
161.7943894823206
 30
0.0
  0
POINT
  5
B969
330
B8B1
100
AcDbEntity
  8
Defpoints
 62
     0
100
AcDbPoint
 10
181.7098806214924
 20
146.8083647203566
 30
0.0
  0
ENDBLK
  5
B8BE
330
B8B1
100
AcDbEntity
  8
0
100
AcDbBlockEnd
  0
BLOCK
  5
B8C9
330
B8BF
100
AcDbEntity
  8
0
100
AcDbBlockBegin
  2
*D10
 70
     1
 10
0.0
 20
0.0
 30
0.0
  3
*D10
  1

  0
LINE
  5
B96A
330
B8BF
100
AcDbEntity
  8
AM_5
100
AcDbLine
 10
145.7098806214919
 20
202.5441110855395
 30
0.0
 11
123.7098806214909
 21
202.5441110855395
 31
0.0
  0
LINE
  5
B96B
330
B8BF
100
AcDbEntity
  8
AM_5
100
AcDbLine
 10
145.7098806214928
 20
132.544111085539
 30
0.0
 11
123.7098806214909
 21
132.544111085539
 31
0.0
  0
LINE
  5
B96C
330
B8BF
100
AcDbEntity
  8
AM_5
100
AcDbLine
 10
124.7098806214909
 20
201.5441110855395
 30
0.0
 11
124.7098806214909
 21
133.544111085539
 31
0.0
  0
INSERT
  5
B96D
330
B8BF
100
AcDbEntity
  8
AM_5
100
AcDbBlockReference
  2
_Dot
 10
124.7098806214909
 20
202.5441110855395
 30
0.0
 50
90.0
  0
INSERT
  5
B96E
330
B8BF
100
AcDbEntity
  8
AM_5
100
AcDbBlockReference
  2
_Dot
 10
124.7098806214909
 20
132.544111085539
 30
0.0
 50
270.0
  0
MTEXT
  5
B96F
330
B8BF
100
AcDbEntity
  8
AM_5
 62
     2
100
AcDbMText
 10
121.6098806214909
 20
167.5441110855393
 30
0.0
 40
3.200000000000001
 41
0.0
 71
     5
 72
     1
  1
A
 11
0.0000000000000001
 21
1.0
 31
0.0
 73
     1
 44
1.0
1001
ACAD
1000
MTEXTBEGIN
1070
    73
1070
     1
1070
    44
1040
1.0
1070
    74
1070
     0
1000
MTEXTEND
  0
POINT
  5
B970
330
B8BF
100
AcDbEntity
  8
Defpoints
 62
     0
100
AcDbPoint
 10
146.7098806214919
 20
202.5441110855395
 30
0.0
  0
POINT
  5
B971
330
B8BF
100
AcDbEntity
  8
Defpoints
 62
     0
100
AcDbPoint
 10
146.7098806214928
 20
132.544111085539
 30
0.0
  0
POINT
  5
B972
330
B8BF
100
AcDbEntity
  8
Defpoints
 62
     0
100
AcDbPoint
 10
124.7098806214909
 20
132.544111085539
 30
0.0
  0
ENDBLK
  5
B8CA
330
B8BF
100
AcDbEntity
  8
0
100
AcDbBlockEnd
  0
BLOCK
  5
B8D5
330
B8CB
100
AcDbEntity
  8
0
100
AcDbBlockBegin
  2
*D11
 70
     1
 10
0.0
 20
0.0
 30
0.0
  3
*D11
  1

  0
LINE
  5
B973
330
B8CB
100
AcDbEntity
  8
AM_5
100
AcDbLine
 10
145.6098806214925
 20
192.544111085539
 30
0.0
 11
133.7098806214874
 21
192.544111085539
 31
0.0
  0
LINE
  5
B974
330
B8CB
100
AcDbEntity
  8
AM_5
100
AcDbLine
 10
145.6098806214925
 20
142.544111085539
 30
0.0
 11
133.7098806214874
 21
142.544111085539
 31
0.0
  0
LINE
  5
B975
330
B8CB
100
AcDbEntity
  8
AM_5
100
AcDbLine
 10
134.7098806214874
 20
191.544111085539
 30
0.0
 11
134.7098806214874
 21
143.544111085539
 31
0.0
  0
INSERT
  5
B976
330
B8CB
100
AcDbEntity
  8
AM_5
100
AcDbBlockReference
  2
_Dot
 10
134.7098806214874
 20
192.544111085539
 30
0.0
 50
90.0
  0
INSERT
  5
B977
330
B8CB
100
AcDbEntity
  8
AM_5
100
AcDbBlockReference
  2
_Dot
 10
134.7098806214874
 20
142.544111085539
 30
0.0
 50
270.0
  0
MTEXT
  5
B978
330
B8CB
100
AcDbEntity
  8
AM_5
 62
     2
100
AcDbMText
 10
131.6098806214873
 20
167.5441110855391
 30
0.0
 40
3.200000000000001
 41
0.0
 71
     5
 72
     1
  1
B
 11
0.0000000000000001
 21
1.0
 31
0.0
 73
     1
 44
1.0
1001
ACAD
1000
MTEXTBEGIN
1070
    73
1070
     1
1070
    44
1040
1.0
1070
    74
1070
     0
1000
MTEXTEND
  0
POINT
  5
B979
330
B8CB
100
AcDbEntity
  8
Defpoints
 62
     0
100
AcDbPoint
 10
146.6098806214925
 20
192.544111085539
 30
0.0
  0
POINT
  5
B97A
330
B8CB
100
AcDbEntity
  8
Defpoints
 62
     0
100
AcDbPoint
 10
146.6098806214925
 20
142.544111085539
 30
0.0
  0
POINT
  5
B97B
330
B8CB
100
AcDbEntity
  8
Defpoints
 62
     0
100
AcDbPoint
 10
134.7098806214874
 20
142.544111085539
 30
0.0
  0
ENDBLK
  5
B8D6
330
B8CB
100
AcDbEntity
  8
0
100
AcDbBlockEnd
  0
BLOCK
  5
B8E1
330
B8D7
100
AcDbEntity
  8
0
100
AcDbBlockBegin
  2
*D12
 70
     1
 10
0.0
 20
0.0
 30
0.0
  3
*D12
  1

  0
LINE
  5
B97C
330
B8D7
100
AcDbEntity
  8
AM_5
100
AcDbLine
 10
144.7098806214919
 20
201.5441110855395
 30
0.0
 11
144.7098806214919
 21
219.5441110855395
 31
0.0
  0
LINE
  5
B97D
330
B8D7
100
AcDbEntity
  8
AM_5
100
AcDbLine
 10
164.7098806214919
 20
201.5441110855391
 30
0.0
 11
164.7098806214919
 21
219.5441110855395
 31
0.0
  0
LINE
  5
B97E
330
B8D7
100
AcDbEntity
  8
AM_5
100
AcDbLine
 10
145.7098806214919
 20
218.5441110855395
 30
0.0
 11
163.7098806214919
 21
218.5441110855395
 31
0.0
  0
INSERT
  5
B97F
330
B8D7
100
AcDbEntity
  8
AM_5
100
AcDbBlockReference
  2
_Dot
 10
144.7098806214919
 20
218.5441110855395
 30
0.0
 50
180.0
  0
INSERT
  5
B980
330
B8D7
100
AcDbEntity
  8
AM_5
100
AcDbBlockReference
  2
_Dot
 10
164.7098806214919
 20
218.5441110855395
 30
0.0
  0
MTEXT
  5
B981
330
B8D7
100
AcDbEntity
  8
AM_5
 62
     2
100
AcDbMText
 10
154.7098806214919
 20
221.6441110855395
 30
0.0
 40
3.200000000000001
 41
0.0
 71
     5
 72
     1
  1
C
 73
     1
 44
1.0
1001
ACAD
1000
MTEXTBEGIN
1070
    73
1070
     1
1070
    44
1040
1.0
1070
    74
1070
     0
1000
MTEXTEND
  0
POINT
  5
B982
330
B8D7
100
AcDbEntity
  8
Defpoints
 62
     0
100
AcDbPoint
 10
144.7098806214919
 20
200.5441110855395
 30
0.0
  0
POINT
  5
B983
330
B8D7
100
AcDbEntity
  8
Defpoints
 62
     0
100
AcDbPoint
 10
164.7098806214919
 20
200.544111085539
 30
0.0
  0
POINT
  5
B984
330
B8D7
100
AcDbEntity
  8
Defpoints
 62
     0
100
AcDbPoint
 10
164.7098806214919
 20
218.5441110855395
 30
0.0
  0
ENDBLK
  5
B8E2
330
B8D7
100
AcDbEntity
  8
0
100
AcDbBlockEnd
  0
BLOCK
  5
B8ED
330
B8E3
100
AcDbEntity
  8
0
100
AcDbBlockBegin
  2
*D13
 70
     1
 10
0.0
 20
0.0
 30
0.0
  3
*D13
  1

  0
LINE
  5
B985
330
B8E3
100
AcDbEntity
  8
AM_5
100
AcDbLine
 10
154.7098806214919
 20
206.544111085539
 30
0.0
 11
154.7098806214919
 21
211.5441110855422
 31
0.0
  0
LINE
  5
B986
330
B8E3
100
AcDbEntity
  8
AM_5
100
AcDbLine
 10
214.7098806214923
 20
206.544111085539
 30
0.0
 11
214.7098806214923
 21
211.5441110855422
 31
0.0
  0
LINE
  5
B987
330
B8E3
100
AcDbEntity
  8
AM_5
100
AcDbLine
 10
155.7098806214919
 20
210.5441110855422
 30
0.0
 11
213.7098806214923
 21
210.5441110855422
 31
0.0
  0
INSERT
  5
B988
330
B8E3
100
AcDbEntity
  8
AM_5
100
AcDbBlockReference
  2
_Dot
 10
154.7098806214919
 20
210.5441110855422
 30
0.0
 50
180.0
  0
INSERT
  5
B989
330
B8E3
100
AcDbEntity
  8
AM_5
100
AcDbBlockReference
  2
_Dot
 10
214.7098806214923
 20
210.5441110855422
 30
0.0
  0
MTEXT
  5
B98A
330
B8E3
100
AcDbEntity
  8
AM_5
 62
     2
100
AcDbMText
 10
183.2781798772225
 20
213.6441110855422
 30
0.0
 40
3.200000000000001
 41
0.0
 71
     5
 72
     1
  1
（E）
 73
     1
 44
1.0
1001
ACAD
1000
MTEXTBEGIN
1070
    73
1070
     1
1070
    44
1040
1.0
1070
    74
1070
     0
1000
MTEXTEND
  0
POINT
  5
B98B
330
B8E3
100
AcDbEntity
  8
Defpoints
 62
     0
100
AcDbPoint
 10
154.7098806214919
 20
205.544111085539
 30
0.0
  0
POINT
  5
B98C
330
B8E3
100
AcDbEntity
  8
Defpoints
 62
     0
100
AcDbPoint
 10
214.7098806214923
 20
205.544111085539
 30
0.0
  0
POINT
  5
B98D
330
B8E3
100
AcDbEntity
  8
Defpoints
 62
     0
100
AcDbPoint
 10
214.7098806214923
 20
210.5441110855422
 30
0.0
  0
ENDBLK
  5
B8EE
330
B8E3
100
AcDbEntity
  8
0
100
AcDbBlockEnd
  0
BLOCK
  5
B8F9
330
B8EF
100
AcDbEntity
  8
0
100
AcDbBlockBegin
  2
*D14
 70
     1
 10
0.0
 20
0.0
 30
0.0
  3
*D14
  1

  0
LINE
  5
B98E
330
B8EF
100
AcDbEntity
  8
AM_5
100
AcDbLine
 10
236.7098806214923
 20
167.5441110855395
 30
0.0
 11
246.7098806214923
 21
167.5441110855395
 31
0.0
  0
LINE
  5
B98F
330
B8EF
100
AcDbEntity
  8
AM_5
100
AcDbLine
 10
224.7098806214923
 20
190.5441110855395
 30
0.0
 11
246.7098806214923
 21
190.5441110855395
 31
0.0
  0
LINE
  5
B990
330
B8EF
100
AcDbEntity
  8
AM_5
100
AcDbLine
 10
245.7098806214923
 20
168.5441110855395
 30
0.0
 11
245.7098806214923
 21
189.5441110855395
 31
0.0
  0
INSERT
  5
B991
330
B8EF
100
AcDbEntity
  8
AM_5
100
AcDbBlockReference
  2
_Dot
 10
245.7098806214923
 20
167.5441110855395
 30
0.0
 50
270.0
  0
INSERT
  5
B992
330
B8EF
100
AcDbEntity
  8
AM_5
100
AcDbBlockReference
  2
_Dot
 10
245.7098806214923
 20
190.5441110855395
 30
0.0
 50
90.0
  0
MTEXT
  5
B993
330
B8EF
100
AcDbEntity
  8
AM_5
 62
     2
100
AcDbMText
 10
242.6098806214923
 20
179.0441110855395
 30
0.0
 40
3.200000000000001
 41
0.0
 71
     5
 72
     1
  1
F
 11
0.0000000000000001
 21
1.0
 31
0.0
 73
     1
 44
1.0
1001
ACAD
1000
MTEXTBEGIN
1070
    73
1070
     1
1070
    44
1040
1.0
1070
    74
1070
     0
1000
MTEXTEND
  0
POINT
  5
B994
330
B8EF
100
AcDbEntity
  8
Defpoints
 62
     0
100
AcDbPoint
 10
235.7098806214923
 20
167.5441110855395
 30
0.0
  0
POINT
  5
B995
330
B8EF
100
AcDbEntity
  8
Defpoints
 62
     0
100
AcDbPoint
 10
223.7098806214923
 20
190.5441110855395
 30
0.0
  0
POINT
  5
B996
330
B8EF
100
AcDbEntity
  8
Defpoints
 62
     0
100
AcDbPoint
 10
245.7098806214923
 20
190.5441110855395
 30
0.0
  0
ENDBLK
  5
B8FA
330
B8EF
100
AcDbEntity
  8
0
100
AcDbBlockEnd
  0
BLOCK
  5
B905
330
B8FB
100
AcDbEntity
  8
0
100
AcDbBlockBegin
  2
*D15
 70
     1
 10
0.0
 20
0.0
 30
0.0
  3
*D15
  1

  0
LINE
  5
B997
330
B8FB
100
AcDbEntity
  8
AM_5
100
AcDbLine
 10
224.7098806214923
 20
190.5441110855395
 30
0.0
 11
256.7098806214923
 21
190.5441110855395
 31
0.0
  0
LINE
  5
B998
330
B8FB
100
AcDbEntity
  8
AM_5
100
AcDbLine
 10
222.3354128628267
 20
60.54411108553948
 30
0.0
 11
256.7098806214923
 21
60.54411108553948
 31
0.0
  0
LINE
  5
B999
330
B8FB
100
AcDbEntity
  8
AM_5
100
AcDbLine
 10
255.7098806214923
 20
189.5441110855395
 30
0.0
 11
255.7098806214923
 21
61.54411108553947
 31
0.0
  0
INSERT
  5
B99A
330
B8FB
100
AcDbEntity
  8
AM_5
100
AcDbBlockReference
  2
_Dot
 10
255.7098806214923
 20
190.5441110855395
 30
0.0
 50
90.0
  0
INSERT
  5
B99B
330
B8FB
100
AcDbEntity
  8
AM_5
100
AcDbBlockReference
  2
_Dot
 10
255.7098806214923
 20
60.54411108553948
 30
0.0
 50
270.0
  0
MTEXT
  5
B99C
330
B8FB
100
AcDbEntity
  8
AM_5
 62
     2
100
AcDbMText
 10
252.6098806214923
 20
125.5441110855395
 30
0.0
 40
3.200000000000001
 41
0.0
 71
     5
 72
     1
  1
G
 11
0.0000000000000001
 21
1.0
 31
0.0
 73
     1
 44
1.0
1001
ACAD
1000
MTEXTBEGIN
1070
    73
1070
     1
1070
    44
1040
1.0
1070
    74
1070
     0
1000
MTEXTEND
  0
POINT
  5
B99D
330
B8FB
100
AcDbEntity
  8
Defpoints
 62
     0
100
AcDbPoint
 10
223.7098806214923
 20
190.5441110855395
 30
0.0
  0
POINT
  5
B99E
330
B8FB
100
AcDbEntity
  8
Defpoints
 62
     0
100
AcDbPoint
 10
221.3354128628267
 20
60.54411108553948
 30
0.0
  0
POINT
  5
B99F
330
B8FB
100
AcDbEntity
  8
Defpoints
 62
     0
100
AcDbPoint
 10
255.7098806214923
 20
60.54411108553948
 30
0.0
  0
ENDBLK
  5
B906
330
B8FB
100
AcDbEntity
  8
0
100
AcDbBlockEnd
  0
BLOCK
  5
B911
330
B907
100
AcDbEntity
  8
0
100
AcDbBlockBegin
  2
*D16
 70
     1
 10
0.0
 20
0.0
 30
0.0
  3
*D16
  1

  0
LINE
  5
B9A0
330
B907
100
AcDbEntity
  8
AM_5
100
AcDbLine
 10
200.7098806214924
 20
201.54411108554
 30
0.0
 11
200.7098806214924
 21
219.54411108554
 31
0.0
  0
LINE
  5
B9A1
330
B907
100
AcDbEntity
  8
AM_5
100
AcDbLine
 10
228.7098806214923
 20
201.54411108554
 30
0.0
 11
228.7098806214923
 21
219.54411108554
 31
0.0
  0
LINE
  5
B9A2
330
B907
100
AcDbEntity
  8
AM_5
100
AcDbLine
 10
201.7098806214924
 20
218.5441110855399
 30
0.0
 11
227.7098806214923
 21
218.5441110855399
 31
0.0
  0
INSERT
  5
B9A3
330
B907
100
AcDbEntity
  8
AM_5
100
AcDbBlockReference
  2
_Dot
 10
200.7098806214924
 20
218.5441110855399
 30
0.0
 50
180.0
  0
INSERT
  5
B9A4
330
B907
100
AcDbEntity
  8
AM_5
100
AcDbBlockReference
  2
_Dot
 10
228.7098806214923
 20
218.5441110855399
 30
0.0
  0
MTEXT
  5
B9A5
330
B907
100
AcDbEntity
  8
AM_5
 62
     2
100
AcDbMText
 10
214.7098806214923
 20
221.64411108554
 30
0.0
 40
3.200000000000001
 41
0.0
 71
     5
 72
     1
  1
D
 73
     1
 44
1.0
1001
ACAD
1000
MTEXTBEGIN
1070
    73
1070
     1
1070
    44
1040
1.0
1070
    74
1070
     0
1000
MTEXTEND
  0
POINT
  5
B9A6
330
B907
100
AcDbEntity
  8
Defpoints
 62
     0
100
AcDbPoint
 10
200.7098806214924
 20
200.54411108554
 30
0.0
  0
POINT
  5
B9A7
330
B907
100
AcDbEntity
  8
Defpoints
 62
     0
100
AcDbPoint
 10
228.7098806214923
 20
200.54411108554
 30
0.0
  0
POINT
  5
B9A8
330
B907
100
AcDbEntity
  8
Defpoints
 62
     0
100
AcDbPoint
 10
228.7098806214923
 20
218.5441110855399
 30
0.0
  0
ENDBLK
  5
B912
330
B907
100
AcDbEntity
  8
0
100
AcDbBlockEnd
  0
BLOCK
  5
B91D
330
B913
100
AcDbEntity
  8
0
100
AcDbBlockBegin
  2
*D17
 70
     1
 10
0.0
 20
0.0
 30
0.0
  3
*D17
  1

  0
LINE
  5
B9A9
330
B913
100
AcDbEntity
  8
AM_5
100
AcDbLine
 10
143.7098806214924
 20
273.7493691820705
 30
0.0
 11
131.7098806214924
 21
273.7493691820705
 31
0.0
  0
LINE
  5
B9AA
330
B913
100
AcDbEntity
  8
AM_5
100
AcDbLine
 10
146.7098806214924
 20
249.7493691820696
 30
0.0
 11
131.7098806214924
 21
249.7493691820696
 31
0.0
  0
LINE
  5
B9AB
330
B913
100
AcDbEntity
  8
AM_5
100
AcDbLine
 10
132.7098806214924
 20
272.7493691820705
 30
0.0
 11
132.7098806214924
 21
250.7493691820696
 31
0.0
  0
INSERT
  5
B9AC
330
B913
100
AcDbEntity
  8
AM_5
100
AcDbBlockReference
  2
_Dot
 10
132.7098806214924
 20
273.7493691820705
 30
0.0
 50
90.0
  0
INSERT
  5
B9AD
330
B913
100
AcDbEntity
  8
AM_5
100
AcDbBlockReference
  2
_Dot
 10
132.7098806214924
 20
249.7493691820696
 30
0.0
 50
270.0
  0
MTEXT
  5
B9AE
330
B913
100
AcDbEntity
  8
AM_5
 62
     2
100
AcDbMText
 10
129.6098806214924
 20
261.7493691820701
 30
0.0
 40
3.200000000000001
 41
0.0
 71
     5
 72
     1
  1
（K）
 11
0.0000000000000001
 21
1.0
 31
0.0
 73
     1
 44
1.0
1001
ACAD
1000
MTEXTBEGIN
1070
    73
1070
     1
1070
    44
1040
1.0
1070
    74
1070
     0
1000
MTEXTEND
  0
POINT
  5
B9AF
330
B913
100
AcDbEntity
  8
Defpoints
 62
     0
100
AcDbPoint
 10
144.7098806214924
 20
273.7493691820705
 30
0.0
  0
POINT
  5
B9B0
330
B913
100
AcDbEntity
  8
Defpoints
 62
     0
100
AcDbPoint
 10
147.7098806214924
 20
249.7493691820696
 30
0.0
  0
POINT
  5
B9B1
330
B913
100
AcDbEntity
  8
Defpoints
 62
     0
100
AcDbPoint
 10
132.7098806214924
 20
249.7493691820696
 30
0.0
  0
ENDBLK
  5
B91E
330
B913
100
AcDbEntity
  8
0
100
AcDbBlockEnd
  0
BLOCK
  5
B929
330
B91F
100
AcDbEntity
  8
0
100
AcDbBlockBegin
  2
*D18
 70
     1
 10
0.0
 20
0.0
 30
0.0
  3
*D18
  1

  0
LINE
  5
B9B2
330
B91F
100
AcDbEntity
  8
AM_5
100
AcDbLine
 10
229.7098806214923
 20
273.7493691820705
 30
0.0
 11
246.7098806214924
 21
273.7493691820705
 31
0.0
  0
LINE
  5
B9B3
330
B91F
100
AcDbEntity
  8
AM_5
100
AcDbLine
 10
215.7102908401362
 20
229.7493691821082
 30
0.0
 11
246.7098806214924
 21
229.7493691821082
 31
0.0
  0
LINE
  5
B9B4
330
B91F
100
AcDbEntity
  8
AM_5
100
AcDbLine
 10
245.7098806214924
 20
272.7493691820705
 30
0.0
 11
245.7098806214924
 21
230.7493691821083
 31
0.0
  0
INSERT
  5
B9B5
330
B91F
100
AcDbEntity
  8
AM_5
100
AcDbBlockReference
  2
_Dot
 10
245.7098806214924
 20
273.7493691820705
 30
0.0
 50
90.0
  0
INSERT
  5
B9B6
330
B91F
100
AcDbEntity
  8
AM_5
100
AcDbBlockReference
  2
_Dot
 10
245.7098806214924
 20
229.7493691821082
 30
0.0
 50
270.0
  0
MTEXT
  5
B9B7
330
B91F
100
AcDbEntity
  8
AM_5
 62
     2
100
AcDbMText
 10
242.6098806214924
 20
251.7493691820894
 30
0.0
 40
3.200000000000001
 41
0.0
 71
     5
 72
     1
  1
（L ）
 11
0.0000000000000001
 21
1.0
 31
0.0
 73
     1
 44
1.0
1001
ACAD
1000
MTEXTBEGIN
1070
    73
1070
     1
1070
    44
1040
1.0
1070
    74
1070
     0
1000
MTEXTEND
  0
POINT
  5
B9B8
330
B91F
100
AcDbEntity
  8
Defpoints
 62
     0
100
AcDbPoint
 10
228.7098806214923
 20
273.7493691820705
 30
0.0
  0
POINT
  5
B9B9
330
B91F
100
AcDbEntity
  8
Defpoints
 62
     0
100
AcDbPoint
 10
214.7102908401361
 20
229.7493691821082
 30
0.0
  0
POINT
  5
B9BA
330
B91F
100
AcDbEntity
  8
Defpoints
 62
     0
100
AcDbPoint
 10
245.7098806214924
 20
229.7493691821082
 30
0.0
  0
ENDBLK
  5
B92A
330
B91F
100
AcDbEntity
  8
0
100
AcDbBlockEnd
  0
BLOCK
  5
B935
330
B92B
100
AcDbEntity
  8
0
100
AcDbBlockBegin
  2
*D19
 70
     1
 10
0.0
 20
0.0
 30
0.0
  3
*D19
  1

  0
LINE
  5
B9BB
330
B92B
100
AcDbEntity
  8
AM_5
100
AcDbLine
 10
106.7578929296171
 20
120.5441110855385
 30
0.0
 11
139.8745595962838
 21
120.5441110855385
 31
0.0
  0
LINE
  5
B9BC
330
B92B
100
AcDbEntity
  8
AM_5
100
AcDbLine
 10
139.8745595962838
 20
120.5441110855385
 30
0.0
 11
150.740322076305
 21
136.6574647604794
 31
0.0
  0
LINE
  5
B9BD
330
B92B
100
AcDbEntity
  8
AM_5
100
AcDbLine
 10
158.679439166679
 20
148.4307574105977
 30
0.0
 11
159.7976246723655
 21
150.0889676430087
 31
0.0
  0
MTEXT
  5
B9BE
330
B92B
100
AcDbEntity
  8
AM_5
 62
     2
100
AcDbMText
 10
122.5662262629505
 20
123.7941110855385
 30
0.0
 40
3.5
 41
0.0
 71
     5
 72
     1
  1
2-%%c5.3×\U+220510.2皿孔
 73
     1
 44
1.0
1001
ACAD
1000
MTEXTBEGIN
1070
    73
1070
     1
1070
    44
1040
1.0
1070
    74
1070
     0
1000
MTEXTEND
  0
LINE
  5
B9BF
330
B92B
100
AcDbEntity
  8
AM_5
100
AcDbLine
 10
157.5612536609925
 20
146.7725471781866
 30
0.0
 11
151.8585075819915
 21
138.3156749928905
 31
0.0
  0
INSERT
  5
B9C0
330
B92B
100
AcDbEntity
  8
AM_5
100
AcDbBlockReference
  2
GENDOT
 10
157.5612536609925
 20
146.7725471781866
 30
0.0
 41
2.0
 42
2.0
 43
2.0
 50
236.0069212478558
  0
INSERT
  5
B9C1
330
B92B
100
AcDbEntity
  8
AM_5
100
AcDbBlockReference
  2
GENDOT
 10
151.8585075819915
 20
138.3156749928905
 30
0.0
 41
2.0
 42
2.0
 43
2.0
 50
56.00692124785576
  0
POINT
  5
B9C2
330
B92B
100
AcDbEntity
  8
Defpoints
 62
     0
100
AcDbPoint
 10
151.8585075819915
 20
138.3156749928905
 30
0.0
  0
POINT
  5
B9C3
330
B92B
100
AcDbEntity
  8
Defpoints
 62
     0
100
AcDbPoint
 10
157.5612536609925
 20
146.7725471781866
 30
0.0
  0
ENDBLK
  5
B936
330
B92B
100
AcDbEntity
  8
0
100
AcDbBlockEnd
  0
BLOCK
  5
B941
330
B937
100
AcDbEntity
  8
0
100
AcDbBlockBegin
  2
*D20
 70
     1
 10
0.0
 20
0.0
 30
0.0
  3
*D20
  1

  0
LINE
  5
B9C4
330
B937
100
AcDbEntity
  8
AM_5
100
AcDbLine
 10
164.1654495062332
 20
120.544111085539
 30
0.0
 11
197.2821161729001
 21
120.544111085539
 31
0.0
  0
LINE
  5
B9C5
330
B937
100
AcDbEntity
  8
AM_5
100
AcDbLine
 10
197.2821161729001
 20
120.544111085539
 30
0.0
 11
210.3011641318372
 21
136.9787522548929
 31
0.0
  0
LINE
  5
B9C6
330
B937
100
AcDbEntity
  8
AM_5
100
AcDbLine
 10
219.1185971111452
 20
148.1094699161853
 30
0.0
 11
220.3604890800618
 21
149.6771766290434
 31
0.0
  0
MTEXT
  5
B9C7
330
B937
100
AcDbEntity
  8
AM_5
 62
     2
100
AcDbMText
 10
179.9737828395665
 20
123.794111085539
 30
0.0
 40
3.5
 41
0.0
 71
     5
 72
     1
  1
2-%%c5.3×\U+220510.2皿孔
 73
     1
 44
1.0
1001
ACAD
1000
MTEXTBEGIN
1070
    73
1070
     1
1070
    44
1040
1.0
1070
    74
1070
     0
1000
MTEXTEND
  0
LINE
  5
B9C8
330
B937
100
AcDbEntity
  8
AM_5
100
AcDbLine
 10
217.8767051422285
 20
146.5417632033272
 30
0.0
 11
211.5430561007538
 21
138.546458967751
 31
0.0
  0
INSERT
  5
B9C9
330
B937
100
AcDbEntity
  8
AM_5
100
AcDbBlockReference
  2
GENDOT
 10
217.8767051422285
 20
146.5417632033272
 30
0.0
 41
2.0
 42
2.0
 43
2.0
 50
231.6147517747397
  0
INSERT
  5
B9CA
330
B937
100
AcDbEntity
  8
AM_5
100
AcDbBlockReference
  2
GENDOT
 10
211.5430561007538
 20
138.546458967751
 30
0.0
 41
2.0
 42
2.0
 43
2.0
 50
51.61475177473974
  0
POINT
  5
B9CB
330
B937
100
AcDbEntity
  8
Defpoints
 62
     0
100
AcDbPoint
 10
211.5430561007538
 20
138.546458967751
 30
0.0
  0
POINT
  5
B9CC
330
B937
100
AcDbEntity
  8
Defpoints
 62
     0
100
AcDbPoint
 10
217.8767051422285
 20
146.5417632033272
 30
0.0
  0
ENDBLK
  5
B942
330
B937
100
AcDbEntity
  8
0
100
AcDbBlockEnd
  0
ENDSEC
  0
SECTION
  2
ENTITIES
  0
LINE
  5
B74B
330
1F
100
AcDbEntity
  8
0ハンドル
100
AcDbLine
 10
309.0152384903146
 20
156.0643721454598
 30
0.0
 11
309.0152384903137
 21
178.9500446473548
 31
0.0
  0
LINE
  5
B74C
330
1F
100
AcDbEntity
  8
0カム
100
AcDbLine
 10
309.0152384903146
 20
156.8912381739224
 30
0.0
 11
309.0152384903146
 21
178.1969839971557
 31
0.0
  0
LINE
  5
B74D
330
1F
100
AcDbEntity
  8
size
100
AcDbLine
 10
-0.0000005293209142
 20
-0.0000005555166354
 30
0.0
 11
-0.0000005293209142
 21
296.9999994444834
 31
0.0
1001
GENIUS_GENREC_14
1002
{
1000
PYDIR
1011
-420.0000005293209
1021
296.9999994444834
1031
0.0
1002
}
1002
{
1000
PXDIR
1011
-0.0000005293209142
1021
-0.0000005555166354
1031
0.0
1002
}
1002
{
1000
PORI
1011
-420.0000005293209
1021
-0.0000005555166354
1031
0.0
1002
}
1002
{
1000
PINS
1011
-210.0000005293209
1021
148.4999994444833
1031
0.0
1002
}
1002
{
1000
HVAL
1000
297
1002
}
1002
{
1000
H
1070
     2
1002
}
1002
{
1000
WVAL
1000
420
1002
}
1002
{
1000
W
1070
     2
1002
}
1002
{
1000
C
1070
     4
1002
}
1001
GENIUS_GENOBJ-N-REC_13
1002
{
1000
OWNER
1000
GEN
1002
}
1001
GENIUS_GENODEF_13
1002
{
1000
HIER
1070
     0
1002
}
1002
{
1000
MANEDIT
1070
     0
1002
}
1002
{
1000
NOSEL
1070
     0
1002
}
1002
{
1000
BEHIND
1070
     0
1002
}
1002
{
1000
OTHER
1070
     0
1002
}
1002
{
1000
REACTOR
1002
}
  0
LINE
  5
B74E
330
1F
100
AcDbEntity
  8
size
100
AcDbLine
 10
-0.0000005293209142
 20
-0.0000005555166354
 30
0.0
 11
419.999999470679
 21
-0.0000005555166354
 31
0.0
1001
GENIUS_GENREC_14
1002
{
1000
PYDIR
1011
-0.0000005293209142
1021
296.9999994444834
1031
0.0
1002
}
1002
{
1000
PXDIR
1011
419.999999470679
1021
-0.0000005555166354
1031
0.0
1002
}
1002
{
1000
PORI
1011
-0.0000005293209142
1021
-0.0000005555166354
1031
0.0
1002
}
1002
{
1000
PINS
1011
209.9999994706791
1021
148.4999994444833
1031
0.0
1002
}
1002
{
1000
HVAL
1000
297
1002
}
1002
{
1000
H
1070
     2
1002
}
1002
{
1000
WVAL
1000
420
1002
}
1002
{
1000
W
1070
     2
1002
}
1002
{
1000
C
1070
     4
1002
}
1001
GENIUS_GENOBJ-N-REC_13
1002
{
1000
OWNER
1000
GEN
1002
}
1001
GENIUS_GENODEF_13
1002
{
1000
HIER
1070
     0
1002
}
1002
{
1000
MANEDIT
1070
     0
1002
}
1002
{
1000
NOSEL
1070
     0
1002
}
1002
{
1000
BEHIND
1070
     0
1002
}
1002
{
1000
OTHER
1070
     0
1002
}
1002
{
1000
REACTOR
1002
}
  0
LINE
  5
B74F
330
1F
100
AcDbEntity
  8
size
100
AcDbLine
 10
419.999999470679
 20
-0.0000005555166354
 30
0.0
 11
419.999999470679
 21
296.9999994444834
 31
0.0
1001
GENIUS_GENREC_14
1002
{
1000
PYDIR
1011
-0.0000005293209142
1021
296.9999994444834
1031
0.0
1002
}
1002
{
1000
PXDIR
1011
419.999999470679
1021
-0.0000005555166354
1031
0.0
1002
}
1002
{
1000
PORI
1011
-0.0000005293209142
1021
-0.0000005555166354
1031
0.0
1002
}
1002
{
1000
PINS
1011
209.9999994706791
1021
148.4999994444833
1031
0.0
1002
}
1002
{
1000
HVAL
1000
297
1002
}
1002
{
1000
H
1070
     2
1002
}
1002
{
1000
WVAL
1000
420
1002
}
1002
{
1000
W
1070
     2
1002
}
1002
{
1000
C
1070
     4
1002
}
1001
GENIUS_GENOBJ-N-REC_13
1002
{
1000
OWNER
1000
GEN
1002
}
1001
GENIUS_GENODEF_13
1002
{
1000
HIER
1070
     0
1002
}
1002
{
1000
MANEDIT
1070
     0
1002
}
1002
{
1000
NOSEL
1070
     0
1002
}
1002
{
1000
BEHIND
1070
     0
1002
}
1002
{
1000
OTHER
1070
     0
1002
}
1002
{
1000
REACTOR
1002
}
  0
LINE
  5
B750
330
1F
100
AcDbEntity
  8
size
100
AcDbLine
 10
419.999999470679
 20
296.9999994444834
 30
0.0
 11
-0.0000005293209142
 21
296.9999994444834
 31
0.0
1001
GENIUS_GENREC_14
1002
{
1000
PYDIR
1011
-0.0000005293209142
1021
296.9999994444834
1031
0.0
1002
}
1002
{
1000
PXDIR
1011
419.999999470679
1021
-0.0000005555166354
1031
0.0
1002
}
1002
{
1000
PORI
1011
-0.0000005293209142
1021
-0.0000005555166354
1031
0.0
1002
}
1002
{
1000
PINS
1011
209.9999994706791
1021
148.4999994444833
1031
0.0
1002
}
1002
{
1000
HVAL
1000
297
1002
}
1002
{
1000
H
1070
     2
1002
}
1002
{
1000
WVAL
1000
420
1002
}
1002
{
1000
W
1070
     2
1002
}
1002
{
1000
C
1070
     4
1002
}
1001
GENIUS_GENOBJ-N-REC_13
1002
{
1000
OWNER
1000
GEN
1002
}
1001
GENIUS_GENODEF_13
1002
{
1000
HIER
1070
     0
1002
}
1002
{
1000
MANEDIT
1070
     0
1002
}
1002
{
1000
NOSEL
1070
     0
1002
}
1002
{
1000
BEHIND
1070
     0
1002
}
1002
{
1000
OTHER
1070
     0
1002
}
1002
{
1000
REACTOR
1002
}
  0
LINE
  5
B751
330
1F
100
AcDbEntity
  8
waku
100
AcDbLine
 10
408.499999470679
 20
8.499999444483364
 30
0.0
 11
408.499999470679
 21
288.4999994444834
 31
0.0
1001
GENIUS_GENREC_14
1002
{
1000
PYDIR
1011
-0.0000005293209142
1021
296.9999994444834
1031
0.0
1002
}
1002
{
1000
PXDIR
1011
419.999999470679
1021
-0.0000005555166354
1031
0.0
1002
}
1002
{
1000
PORI
1011
-0.0000005293209142
1021
-0.0000005555166354
1031
0.0
1002
}
1002
{
1000
PINS
1011
209.9999994706791
1021
148.4999994444833
1031
0.0
1002
}
1002
{
1000
HVAL
1000
297
1002
}
1002
{
1000
H
1070
     2
1002
}
1002
{
1000
WVAL
1000
420
1002
}
1002
{
1000
W
1070
     2
1002
}
1002
{
1000
C
1070
     4
1002
}
1001
GENIUS_GENOBJ-N-REC_13
1002
{
1000
OWNER
1000
GEN
1002
}
1001
GENIUS_GENODEF_13
1002
{
1000
HIER
1070
     0
1002
}
1002
{
1000
MANEDIT
1070
     0
1002
}
1002
{
1000
NOSEL
1070
     0
1002
}
1002
{
1000
BEHIND
1070
     0
1002
}
1002
{
1000
OTHER
1070
     0
1002
}
1002
{
1000
REACTOR
1002
}
  0
LINE
  5
B752
330
1F
100
AcDbEntity
  8
waku
100
AcDbLine
 10
11.49999947067908
 20
288.4999994444834
 30
0.0
 11
11.49999947067908
 21
8.499999444483364
 31
0.0
1001
GENIUS_GENREC_14
1002
{
1000
PYDIR
1011
-0.0000005293209142
1021
296.9999994444834
1031
0.0
1002
}
1002
{
1000
PXDIR
1011
419.999999470679
1021
-0.0000005555166354
1031
0.0
1002
}
1002
{
1000
PORI
1011
-0.0000005293209142
1021
-0.0000005555166354
1031
0.0
1002
}
1002
{
1000
PINS
1011
209.9999994706791
1021
148.4999994444833
1031
0.0
1002
}
1002
{
1000
HVAL
1000
297
1002
}
1002
{
1000
H
1070
     2
1002
}
1002
{
1000
WVAL
1000
420
1002
}
1002
{
1000
W
1070
     2
1002
}
1002
{
1000
C
1070
     4
1002
}
1001
GENIUS_GENOBJ-N-REC_13
1002
{
1000
OWNER
1000
GEN
1002
}
1001
GENIUS_GENODEF_13
1002
{
1000
HIER
1070
     0
1002
}
1002
{
1000
MANEDIT
1070
     0
1002
}
1002
{
1000
NOSEL
1070
     0
1002
}
1002
{
1000
BEHIND
1070
     0
1002
}
1002
{
1000
OTHER
1070
     0
1002
}
1002
{
1000
REACTOR
1002
}
  0
LINE
  5
B753
330
1F
100
AcDbEntity
  8
waku
100
AcDbLine
 10
408.499999470679
 20
288.4999994444834
 30
0.0
 11
11.49999947067908
 21
288.4999994444834
 31
0.0
1001
GENIUS_GENREC_14
1002
{
1000
PYDIR
1011
-0.0000005293209142
1021
296.9999994444834
1031
0.0
1002
}
1002
{
1000
PXDIR
1011
419.999999470679
1021
-0.0000005555166354
1031
0.0
1002
}
1002
{
1000
PORI
1011
-0.0000005293209142
1021
-0.0000005555166354
1031
0.0
1002
}
1002
{
1000
PINS
1011
209.9999994706791
1021
148.4999994444833
1031
0.0
1002
}
1002
{
1000
HVAL
1000
297
1002
}
1002
{
1000
H
1070
     2
1002
}
1002
{
1000
WVAL
1000
420
1002
}
1002
{
1000
W
1070
     2
1002
}
1002
{
1000
C
1070
     4
1002
}
1001
GENIUS_GENOBJ-N-REC_13
1002
{
1000
OWNER
1000
GEN
1002
}
1001
GENIUS_GENODEF_13
1002
{
1000
HIER
1070
     0
1002
}
1002
{
1000
MANEDIT
1070
     0
1002
}
1002
{
1000
NOSEL
1070
     0
1002
}
1002
{
1000
BEHIND
1070
     0
1002
}
1002
{
1000
OTHER
1070
     0
1002
}
1002
{
1000
REACTOR
1002
}
  0
LINE
  5
B754
330
1F
100
AcDbEntity
  8
waku
100
AcDbLine
 10
11.49999947067908
 20
8.499999444483364
 30
0.0
 11
408.499999470679
 21
8.499999444483364
 31
0.0
  0
LINE
  5
B755
330
1F
100
AcDbEntity
  8
AM_0
100
AcDbLine
 10
11.49999947067908
 20
64.4999994444834
 30
0.0
 11
111.4999994706791
 21
64.4999994444834
 31
0.0
  0
LINE
  5
B756
330
1F
100
AcDbEntity
  8
AM_2
100
AcDbLine
 10
11.49999947067908
 20
40.49999944448339
 30
0.0
 11
111.4999994706791
 21
40.49999944448339
 31
0.0
  0
LINE
  5
B757
330
1F
100
AcDbEntity
  8
AM_2
100
AcDbLine
 10
11.49999947067908
 20
48.49999944448339
 30
0.0
 11
111.4999994706791
 21
48.49999944448339
 31
0.0
  0
LINE
  5
B758
330
1F
100
AcDbEntity
  8
AM_2
100
AcDbLine
 10
11.49999947067908
 20
56.49999944448339
 30
0.0
 11
111.4999994706791
 21
56.49999944448339
 31
0.0
  0
LINE
  5
B759
330
1F
100
AcDbEntity
  8
AM_2
100
AcDbLine
 10
31.49999947067892
 20
64.4999994444834
 30
0.0
 11
31.49999947067818
 21
8.499999444483393
 31
0.0
  0
MTEXT
  5
B75A
330
1F
100
AcDbEntity
  8
AM_6
100
AcDbMText
 10
21.49999947067891
 20
36.49999944448338
 30
0.0
 40
3.2
 41
19.9999999999994
 71
     5
 72
     5
  1
仕上げ
 73
     1
 44
1.0
1001
ACAD
1000
MTEXTBEGIN
1070
    73
1070
     1
1070
    44
1040
1.0
1070
    74
1070
     0
1000
MTEXTEND
1000
ACAD_MTEXT_DEFINED_HEIGHT_BEGIN
1070
    46
1040
8.000000000000021
1000
ACAD_MTEXT_DEFINED_HEIGHT_END
  0
MTEXT
  5
B75B
330
1F
100
AcDbEntity
  8
AM_6
100
AcDbMText
 10
21.49999947067909
 20
44.49999944448339
 30
0.0
 40
3.2
 41
19.99999999999988
 71
     5
 72
     5
  1
材　質
 73
     1
 44
1.0
1001
ACAD
1000
MTEXTBEGIN
1070
    73
1070
     1
1070
    44
1040
1.0
1070
    74
1070
     0
1000
MTEXTEND
1000
ACAD_MTEXT_DEFINED_HEIGHT_BEGIN
1070
    46
1040
8.000000000000007
1000
ACAD_MTEXT_DEFINED_HEIGHT_END
  0
MTEXT
  5
B75C
330
1F
100
AcDbEntity
  8
AM_6
100
AcDbMText
 10
21.49999947067909
 20
60.49999944448339
 30
0.0
 40
3.2
 41
20.0
 71
     5
 72
     5
  1
品　名
 73
     1
 44
1.0
1001
ACAD
1000
MTEXTBEGIN
1070
    73
1070
     1
1070
    44
1040
1.0
1070
    74
1070
     0
1000
MTEXTEND
  0
LINE
  5
B75D
330
1F
100
AcDbEntity
  8
AM_0
100
AcDbLine
 10
111.4999994706791
 20
64.4999994444834
 30
0.0
 11
111.4999994706784
 21
8.499999444483393
 31
0.0
  0
MTEXT
  5
B75E
330
1F
100
AcDbEntity
  8
AM_6
100
AcDbMText
 10
21.49999947067909
 20
52.49999944448339
 30
0.0
 40
3.2
 41
20.0
 71
     5
 72
     5
  1
品　番
 73
     1
 44
1.0
1001
ACAD
1000
MTEXTBEGIN
1070
    73
1070
     1
1070
    44
1040
1.0
1070
    74
1070
     0
1000
MTEXTEND
  0
LINE
  5
B75F
330
1F
100
AcDbEntity
  8
AM_2
100
AcDbLine
 10
11.49999947067908
 20
32.49999944448339
 30
0.0
 11
111.4999994706791
 21
32.49999944448339
 31
0.0
  0
LINE
  5
B760
330
1F
100
AcDbEntity
  8
AM_7
 48
1.05
100
AcDbLine
 10
141.7098806214924
 20
167.5441110855395
 30
0.0
 11
235.7098806214923
 21
167.5441110855395
 31
0.0
1001
GENIUS_GENODEF_13
1002
{
1000
HIER
1070
     0
1002
}
1002
{
1000
MANEDIT
1070
     0
1002
}
1002
{
1000
NOSEL
1070
     0
1002
}
1002
{
1000
BEHIND
1070
     0
1002
}
1002
{
1000
OTHER
1070
     0
1002
}
1002
{
1000
REACTOR
1002
}
1001
GENIUS_GENOBJ-N-CEN_13
1002
{
1000
OWNER
1000
GEN
1002
}
1001
GENIUS_GENCEN_19
1002
{
1040
3.0
1002
}
  0
LINE
  5
B761
330
1F
100
AcDbEntity
  8
AM_7
 48
0.925
100
AcDbLine
 10
154.7098806214924
 20
205.5441110855395
 30
0.0
 11
154.7098806214924
 21
129.5441110855395
 31
0.0
1001
GENIUS_GENODEF_13
1002
{
1000
HIER
1070
     0
1002
}
1002
{
1000
MANEDIT
1070
     0
1002
}
1002
{
1000
NOSEL
1070
     0
1002
}
1002
{
1000
BEHIND
1070
     0
1002
}
1002
{
1000
OTHER
1070
     0
1002
}
1002
{
1000
REACTOR
1002
}
1001
GENIUS_GENOBJ-N-CEN_13
1002
{
1000
OWNER
1000
GEN
1002
}
1001
GENIUS_GENCEN_19
1002
{
1040
3.0
1002
}
  0
LINE
  5
B762
330
1F
100
AcDbEntity
  8
AM_7
 48
1.199999999999999
100
AcDbLine
 10
214.7098806214923
 20
205.5441110855395
 30
0.0
 11
214.7098806214923
 21
58.54411108553948
 31
0.0
1001
GENIUS_GENODEF_13
1002
{
1000
HIER
1070
     0
1002
}
1002
{
1000
MANEDIT
1070
     0
1002
}
1002
{
1000
NOSEL
1070
     0
1002
}
1002
{
1000
BEHIND
1070
     0
1002
}
1002
{
1000
OTHER
1070
     0
1002
}
1002
{
1000
REACTOR
1002
}
1001
GENIUS_GENOBJ-N-CEN_13
1002
{
1000
OWNER
1000
GEN
1002
}
1001
GENIUS_GENCEN_19
1002
{
1040
3.0
1002
}
  0
LINE
  5
B763
330
1F
100
AcDbEntity
  8
AM_7
 48
0.5
100
AcDbLine
 10
206.609880621492
 20
142.5441110855395
 30
0.0
 11
222.8098806214908
 21
142.5441110855395
 31
0.0
1001
GENIUS_GENODEF_13
1002
{
1000
HIER
1070
     0
1002
}
1002
{
1000
MANEDIT
1070
     0
1002
}
1002
{
1000
NOSEL
1070
     0
1002
}
1002
{
1000
BEHIND
1070
     0
1002
}
1002
{
1000
OTHER
1070
     0
1002
}
1002
{
1000
REACTOR
1002
}
1001
GENIUS_GENOBJ-N-CEN_13
1002
{
1000
OWNER
1000
GEN
1002
}
1001
GENIUS_GENCEN_19
1002
{
1040
3.0
1002
}
  0
ARC
  5
B764
330
1F
100
AcDbEntity
  8
0カム
370
    13
100
AcDbCircle
 10
196.3492702548635
 20
125.3936155221631
 30
0.0
 40
53.33630249817346
100
AcDbArc
 50
83.15093029270402
 51
98.41836703384879
  0
ARC
  5
B765
330
1F
100
AcDbEntity
  8
0カム
100
AcDbCircle
 10
214.7098806214923
 20
61.04411108553948
 30
0.0
 40
120.0
100
AcDbArc
 50
95.73918268683755
 51
102.5558577985952
  0
ARC
  5
B766
330
1F
100
AcDbEntity
  8
0カム
100
AcDbCircle
 10
214.7098806214923
 20
274.0441110855395
 30
0.0
 40
120.0
100
AcDbArc
 50
257.4441422014014
 51
264.2608173131625
  0
ARC
  5
B767
330
1F
100
AcDbEntity
  8
0カム
100
AcDbCircle
 10
226.2098806214923
 20
159.0441110855395
 30
0.0
 40
5.0
100
AcDbArc
 50
275.7388774467042
 51
0.0
1001
GENIUS_GENODEF_13
1002
{
1000
HIER
1070
     0
1002
}
1002
{
1000
MANEDIT
1070
     0
1002
}
1002
{
1000
NOSEL
1070
     0
1002
}
1002
{
1000
BEHIND
1070
     0
1002
}
1002
{
1000
OTHER
1070
     0
1002
}
1002
{
1000
REACTOR
1002
}
1001
GENIUS_GENOBJ-N-FIL_13
1002
{
1000
OWNER
1000
GEN
1002
}
  0
ARC
  5
B768
330
1F
100
AcDbEntity
  8
0カム
370
    13
100
AcDbCircle
 10
196.3261857617297
 20
208.7216604133687
 30
0.0
 40
52.37725992607163
100
AcDbArc
 50
261.5426805929055
 51
277.0005368869862
  0
ARC
  5
B769
330
1F
100
AcDbEntity
  8
0カム
100
AcDbCircle
 10
224.2098806214923
 20
174.044111085539
 30
0.0
 40
5.0
100
AcDbArc
 50
0.0
 51
60.00033666596787
1001
GENIUS_GENODEF_13
1002
{
1000
HIER
1070
     0
1002
}
1002
{
1000
MANEDIT
1070
     0
1002
}
1002
{
1000
NOSEL
1070
     0
1002
}
1002
{
1000
BEHIND
1070
     0
1002
}
1002
{
1000
OTHER
1070
     0
1002
}
1002
{
1000
REACTOR
1002
}
1001
GENIUS_GENOBJ-N-FIL_13
1002
{
1000
OWNER
1000
GEN
1002
}
  0
LINE
  5
B76A
330
1F
100
AcDbEntity
  8
0カム
100
AcDbLine
 10
231.2098806214923
 20
176.0441110855395
 30
0.0
 11
231.2098806214923
 21
159.0441110855395
 31
0.0
  0
ARC
  5
B76B
330
1F
100
AcDbEntity
  8
0カム
100
AcDbCircle
 10
226.2098806214923
 20
176.0441110855395
 30
0.0
 40
5.0
100
AcDbArc
 50
0.0
 51
84.26112255329579
1001
GENIUS_GENODEF_13
1002
{
1000
HIER
1070
     0
1002
}
1002
{
1000
MANEDIT
1070
     0
1002
}
1002
{
1000
NOSEL
1070
     0
1002
}
1002
{
1000
BEHIND
1070
     0
1002
}
1002
{
1000
OTHER
1070
     0
1002
}
1002
{
1000
REACTOR
1002
}
1001
GENIUS_GENOBJ-N-FIL_13
1002
{
1000
OWNER
1000
GEN
1002
}
  0
LINE
  5
B76C
330
1F
100
AcDbEntity
  8
0カム
100
AcDbLine
 10
229.2098806214923
 20
174.044111085539
 30
0.0
 11
229.2098806214923
 21
161.0441110855404
 31
0.0
  0
ARC
  5
B76D
330
1F
100
AcDbEntity
  8
0カム
100
AcDbCircle
 10
224.2098806214923
 20
161.0441110855404
 30
0.0
 40
5.0
100
AcDbArc
 50
299.9996633340321
 51
0.0
1001
GENIUS_GENOBJ-N-FIL_13
1002
{
1000
OWNER
1000
GEN
1002
}
1001
GENIUS_GENODEF_13
1002
{
1000
HIER
1070
     0
1002
}
1002
{
1000
MANEDIT
1070
     0
1002
}
1002
{
1000
NOSEL
1070
     0
1002
}
1002
{
1000
BEHIND
1070
     0
1002
}
1002
{
1000
OTHER
1070
     0
1002
}
1002
{
1000
REACTOR
1002
}
  0
LINE
  5
B76E
330
1F
100
AcDbEntity
  8
0台座
100
AcDbLine
 10
202.7098806214924
 20
202.5441110855399
 30
0.0
 11
226.7098806214923
 21
202.544111085539
 31
0.0
  0
LINE
  5
B76F
330
1F
100
AcDbEntity
  8
0台座
100
AcDbLine
 10
228.7098806214923
 20
200.5441110855395
 30
0.0
 11
228.7098806214923
 21
180.3742381044617
 31
0.0
  0
LINE
  5
B770
330
1F
100
AcDbEntity
  8
0台座
100
AcDbLine
 10
228.7098806214923
 20
154.7139840666173
 30
0.0
 11
228.7098806214923
 21
134.5441110855395
 31
0.0
  0
LINE
  5
B771
330
1F
100
AcDbEntity
  8
0台座
100
AcDbLine
 10
202.7598818715558
 20
132.5441110855395
 30
0.0
 11
202.7098806214924
 21
132.5441110855395
 31
0.0
  0
ARC
  5
B772
330
1F
100
AcDbEntity
  8
0台座
100
AcDbCircle
 10
202.7098806214924
 20
134.5441110855395
 30
0.0
 40
2.0
100
AcDbArc
 50
180.0
 51
270.0
1001
GENIUS_GENOBJ-N-FIL_13
1002
{
1000
OWNER
1000
GEN
1002
}
1001
GENIUS_GENODEF_13
1002
{
1000
HIER
1070
     0
1002
}
1002
{
1000
MANEDIT
1070
     0
1002
}
1002
{
1000
NOSEL
1070
     0
1002
}
1002
{
1000
BEHIND
1070
     0
1002
}
1002
{
1000
OTHER
1070
     0
1002
}
1002
{
1000
REACTOR
1002
}
  0
LINE
  5
B773
330
1F
100
AcDbEntity
  8
0台座
100
AcDbLine
 10
200.7098806214924
 20
134.5441110855395
 30
0.0
 11
200.7098806214924
 21
154.8635757620232
 31
0.0
  0
LINE
  5
B774
330
1F
100
AcDbEntity
  8
0台座
100
AcDbLine
 10
200.7098806214924
 20
180.2246464090563
 30
0.0
 11
200.7098806214924
 21
200.54411108554
 31
0.0
  0
ARC
  5
B775
330
1F
100
AcDbEntity
  8
0台座
100
AcDbCircle
 10
202.7098806214924
 20
200.54411108554
 30
0.0
 40
2.0
100
AcDbArc
 50
90.0
 51
180.0
1001
GENIUS_GENODEF_13
1002
{
1000
HIER
1070
     0
1002
}
1002
{
1000
MANEDIT
1070
     0
1002
}
1002
{
1000
NOSEL
1070
     0
1002
}
1002
{
1000
BEHIND
1070
     0
1002
}
1002
{
1000
OTHER
1070
     0
1002
}
1002
{
1000
REACTOR
1002
}
1001
GENIUS_GENOBJ-N-FIL_13
1002
{
1000
OWNER
1000
GEN
1002
}
  0
ARC
  5
B776
330
1F
100
AcDbEntity
  8
0台座
100
AcDbCircle
 10
214.7098806214923
 20
192.5441110855395
 30
0.0
 40
2.649999999998499
100
AcDbArc
 50
310.9993536543937
 51
229.0006463456063
  0
ARC
  5
B777
330
1F
100
AcDbEntity
  8
0台座
100
AcDbCircle
 10
214.7098806214923
 20
192.5441110855395
 30
0.0
 40
5.099999999999999
100
AcDbArc
 50
336.9112275637464
 51
203.0887724362536
  0
CIRCLE
  5
B778
330
1F
100
AcDbEntity
  8
0台座
  6
陰線1
 48
0.5
370
    13
100
AcDbCircle
 10
214.7098806214923
 20
142.5441110855395
 30
0.0
 40
2.649999999998499
  0
ARC
  5
B779
330
1F
100
AcDbEntity
  8
0台座
  6
陰線1
 48
0.5
370
    13
100
AcDbCircle
 10
214.7098806214923
 20
192.5441110855395
 30
0.0
 40
2.649999999998499
100
AcDbArc
 50
229.0006463498144
 51
310.9993536501854
  0
ARC
  5
B77A
330
1F
100
AcDbEntity
  8
0台座
  6
陰線1
 48
0.5
370
    13
100
AcDbCircle
 10
214.7098806214923
 20
192.5441110855395
 30
0.0
 40
5.099999999999999
100
AcDbArc
 50
203.0887724370241
 51
336.9112275629758
  0
CIRCLE
  5
B77B
330
1F
100
AcDbEntity
  8
0台座
  6
陰線1
 48
0.5
370
    13
100
AcDbCircle
 10
214.7098806214923
 20
142.5441110855395
 30
0.0
 40
5.099999999999999
  0
LINE
  5
B77C
330
1F
100
AcDbEntity
  8
0台座
100
AcDbLine
 10
226.7098806214923
 20
132.5441110855395
 30
0.0
 11
226.1356141526954
 21
132.5441110855395
 31
0.0
  0
ARC
  5
B77D
330
1F
100
AcDbEntity
  8
0台座
100
AcDbCircle
 10
226.7098806214923
 20
134.5441110855395
 30
0.0
 40
2.0
100
AcDbArc
 50
270.0
 51
0.0
1001
GENIUS_GENOBJ-N-FIL_13
1002
{
1000
OWNER
1000
GEN
1002
}
1001
GENIUS_GENODEF_13
1002
{
1000
HIER
1070
     0
1002
}
1002
{
1000
MANEDIT
1070
     0
1002
}
1002
{
1000
NOSEL
1070
     0
1002
}
1002
{
1000
BEHIND
1070
     0
1002
}
1002
{
1000
OTHER
1070
     0
1002
}
1002
{
1000
REACTOR
1002
}
  0
ARC
  5
B77E
330
1F
100
AcDbEntity
  8
0台座
100
AcDbCircle
 10
226.7098806214923
 20
200.5441110855395
 30
0.0
 40
2.0
100
AcDbArc
 50
0.0
 51
90.0
1001
GENIUS_GENODEF_13
1002
{
1000
HIER
1070
     0
1002
}
1002
{
1000
MANEDIT
1070
     0
1002
}
1002
{
1000
NOSEL
1070
     0
1002
}
1002
{
1000
BEHIND
1070
     0
1002
}
1002
{
1000
OTHER
1070
     0
1002
}
1002
{
1000
REACTOR
1002
}
1001
GENIUS_GENOBJ-N-FIL_13
1002
{
1000
OWNER
1000
GEN
1002
}
  0
LINE
  5
B77F
330
1F
100
AcDbEntity
  8
0ハンドル
100
AcDbLine
 10
208.0843483801508
 20
60.54411108561893
 30
0.0
 11
221.3354128628197
 21
60.54411108561893
 31
0.0
  0
LINE
  5
B780
330
1F
100
AcDbEntity
  8
0ハンドル
100
AcDbLine
 10
205.7098806214915
 20
190.544111085539
 30
0.0
 11
223.7098806214923
 21
190.5441110855395
 31
0.0
  0
LINE
  5
B781
330
1F
100
AcDbEntity
  8
0ハンドル
100
AcDbLine
 10
202.7098806214915
 20
187.544111085539
 30
0.0
 11
202.7098806214924
 21
144.5441110855395
 31
0.0
1001
GENIUS_GENODEF_13
1002
{
1000
HIER
1070
     0
1002
}
1002
{
1000
MANEDIT
1070
     0
1002
}
1002
{
1000
NOSEL
1070
     0
1002
}
1002
{
1000
BEHIND
1070
     0
1002
}
1002
{
1000
OTHER
1070
     0
1002
}
1002
{
1000
REACTOR
1002
}
1001
GENIUS_GENOBJ-N-CEN_13
1002
{
1000
OWNER
1000
GEN
1002
}
1001
GENIUS_GENCEN_19
1002
{
1040
3.0
1002
}
  0
ARC
  5
B782
330
1F
100
AcDbEntity
  8
0ハンドル
100
AcDbCircle
 10
205.7098806214915
 20
187.544111085539
 30
0.0
 40
3.0
100
AcDbArc
 50
90.0
 51
180.0
1001
GENIUS_GENOBJ-N-CEN_13
1002
{
1000
OWNER
1000
GEN
1002
}
1001
GENIUS_GENCEN_19
1002
{
1040
3.0
1002
}
1001
GENIUS_GENOBJ-N-FIL_13
1002
{
1000
OWNER
1000
GEN
1002
}
1001
GENIUS_GENODEF_13
1002
{
1000
HIER
1070
     0
1002
}
1002
{
1000
MANEDIT
1070
     0
1002
}
1002
{
1000
NOSEL
1070
     0
1002
}
1002
{
1000
BEHIND
1070
     0
1002
}
1002
{
1000
OTHER
1070
     0
1002
}
1002
{
1000
REACTOR
1002
}
  0
LINE
  5
B783
330
1F
100
AcDbEntity
  8
0ハンドル
100
AcDbLine
 10
226.7098806214923
 20
187.5441110855395
 30
0.0
 11
226.7098806214923
 21
144.5441110855395
 31
0.0
1001
GENIUS_GENODEF_13
1002
{
1000
HIER
1070
     0
1002
}
1002
{
1000
MANEDIT
1070
     0
1002
}
1002
{
1000
NOSEL
1070
     0
1002
}
1002
{
1000
BEHIND
1070
     0
1002
}
1002
{
1000
OTHER
1070
     0
1002
}
1002
{
1000
REACTOR
1002
}
1001
GENIUS_GENOBJ-N-CEN_13
1002
{
1000
OWNER
1000
GEN
1002
}
1001
GENIUS_GENCEN_19
1002
{
1040
3.0
1002
}
  0
ARC
  5
B784
330
1F
100
AcDbEntity
  8
0ハンドル
100
AcDbCircle
 10
223.7098806214923
 20
187.5441110855395
 30
0.0
 40
3.0
100
AcDbArc
 50
0.0
 51
90.0
1001
GENIUS_GENOBJ-N-CEN_13
1002
{
1000
OWNER
1000
GEN
1002
}
1001
GENIUS_GENCEN_19
1002
{
1040
3.0
1002
}
1001
GENIUS_GENOBJ-N-FIL_13
1002
{
1000
OWNER
1000
GEN
1002
}
1001
GENIUS_GENODEF_13
1002
{
1000
HIER
1070
     0
1002
}
1002
{
1000
MANEDIT
1070
     0
1002
}
1002
{
1000
NOSEL
1070
     0
1002
}
1002
{
1000
BEHIND
1070
     0
1002
}
1002
{
1000
OTHER
1070
     0
1002
}
1002
{
1000
REACTOR
1002
}
  0
ARC
  5
B785
330
1F
100
AcDbEntity
  8
0ハンドル
100
AcDbCircle
 10
1202.709906065058
 20
144.5441110855395
 30
0.0
 40
1000.0
100
AcDbArc
 50
180.0
 51
184.7129823095982
  0
ARC
  5
B786
330
1F
100
AcDbEntity
  8
0ハンドル
100
AcDbCircle
 10
-773.2901193785076
 20
144.5441110855395
 30
0.0
 40
1000.0
100
AcDbArc
 50
355.2870176904017
 51
0.0
  0
ARC
  5
B787
330
1F
100
AcDbEntity
  8
0ハンドル
100
AcDbCircle
 10
208.0843483801508
 20
62.54411108561893
 30
0.0
 40
2.0
100
AcDbArc
 50
184.7129823095982
 51
270.0
  0
ARC
  5
B788
330
1F
100
AcDbEntity
  8
0ハンドル
100
AcDbCircle
 10
221.3354128628197
 20
62.54411108561893
 30
0.0
 40
2.0
100
AcDbArc
 50
270.0
 51
355.2870176904017
  0
LINE
  5
B789
330
1F
100
AcDbEntity
  8
AM_7
 48
0.5
100
AcDbLine
 10
206.609880621493
 20
192.5441110855395
 30
0.0
 11
222.8098806214926
 21
192.5441110855395
 31
0.0
1001
GENIUS_GENODEF_13
1002
{
1000
HIER
1070
     0
1002
}
1002
{
1000
MANEDIT
1070
     0
1002
}
1002
{
1000
NOSEL
1070
     0
1002
}
1002
{
1000
BEHIND
1070
     0
1002
}
1002
{
1000
OTHER
1070
     0
1002
}
1002
{
1000
REACTOR
1002
}
1001
GENIUS_GENOBJ-N-CEN_13
1002
{
1000
OWNER
1000
GEN
1002
}
1001
GENIUS_GENCEN_19
1002
{
1040
3.0
1002
}
  0
LINE
  5
B78A
330
1F
100
AcDbEntity
  8
AM_7
 48
0.5
100
AcDbLine
 10
162.8098806214928
 20
192.5441110855395
 30
0.0
 11
206.609880621493
 21
192.5441110855395
 31
0.0
1001
GENIUS_GENODEF_13
1002
{
1000
HIER
1070
     0
1002
}
1002
{
1000
MANEDIT
1070
     0
1002
}
1002
{
1000
NOSEL
1070
     0
1002
}
1002
{
1000
BEHIND
1070
     0
1002
}
1002
{
1000
OTHER
1070
     0
1002
}
1002
{
1000
REACTOR
1002
}
1001
GENIUS_GENOBJ-N-CEN_13
1002
{
1000
OWNER
1000
GEN
1002
}
1001
GENIUS_GENCEN_19
1002
{
1040
3.0
1002
}
  0
LINE
  5
B78B
330
1F
100
AcDbEntity
  8
AM_7
 48
0.5
100
AcDbLine
 10
162.8098806214928
 20
142.5441110855395
 30
0.0
 11
206.609880621492
 21
142.5441110855395
 31
0.0
1001
GENIUS_GENODEF_13
1002
{
1000
HIER
1070
     0
1002
}
1002
{
1000
MANEDIT
1070
     0
1002
}
1002
{
1000
NOSEL
1070
     0
1002
}
1002
{
1000
BEHIND
1070
     0
1002
}
1002
{
1000
OTHER
1070
     0
1002
}
1002
{
1000
REACTOR
1002
}
1001
GENIUS_GENOBJ-N-CEN_13
1002
{
1000
OWNER
1000
GEN
1002
}
1001
GENIUS_GENCEN_19
1002
{
1040
3.0
1002
}
  0
LINE
  5
B78C
330
1F
100
AcDbEntity
  8
AM_0
100
AcDbLine
 10
11.49999947067908
 20
8.499999444483393
 30
0.0
 11
111.4999994706791
 21
8.499999444483393
 31
0.0
  0
MTEXT
  5
B78D
330
1F
100
AcDbEntity
  8
AM_6
100
AcDbMText
 10
21.49999947067909
 20
20.49999944448338
 30
0.0
 40
3.2
 41
19.99999999999993
 71
     5
 72
     5
  1
備　考
 73
     1
 44
1.0
1001
ACAD
1000
MTEXTBEGIN
1070
    73
1070
     1
1070
    44
1040
1.0
1070
    74
1070
     0
1000
MTEXTEND
1000
ACAD_MTEXT_DEFINED_HEIGHT_BEGIN
1070
    46
1040
24.00000000000004
1000
ACAD_MTEXT_DEFINED_HEIGHT_END
  0
MTEXT
  5
B78E
330
1F
100
AcDbEntity
  8
AM_6
100
AcDbMText
 10
31.49999947067909
 20
28.4999994444834
 30
0.0
 40
3.2
 41
79.99999999999909
 71
     4
 72
     5
  1
　・左右勝手兼用。（カムの組替えで勝手変更）
 73
     1
 44
1.0
1001
ACAD
1000
MTEXTBEGIN
1070
    73
1070
     1
1070
    44
1040
1.0
1070
    74
1070
     0
1000
MTEXTEND
  0
MTEXT
  5
B78F
330
1F
100
AcDbEntity
  8
AM_6
100
AcDbMText
 10
31.49999947067909
 20
20.49999944448339
 30
0.0
 40
3.2
 41
79.99999999999909
 71
     4
 72
     5
  1
　・受けかかり代調整：+3mm
 73
     1
 44
1.0
1001
ACAD
1000
MTEXTBEGIN
1070
    73
1070
     1
1070
    44
1040
1.0
1070
    74
1070
     0
1000
MTEXTEND
  0
MTEXT
  5
B790
330
1F
100
AcDbEntity
  8
AM_6
100
AcDbMText
 10
31.49999947067909
 20
12.49999944448339
 30
0.0
 40
3.2
 41
79.99999999999909
 71
     4
 72
     5
  1
　・ハンドル・カム位置を上下左右方向に組替え可能です。
 73
     1
 44
1.0
1001
ACAD
1000
MTEXTBEGIN
1070
    73
1070
     1
1070
    44
1040
1.0
1070
    74
1070
     0
1000
MTEXTEND
  0
DIMENSION
  5
B793
330
1F
100
AcDbEntity
  8
AM_5
100
AcDbDimension
  2
*D6
 10
226.7098806214923
 20
149.9901419415214
 30
0.0
 11
235.2288578206228
 21
149.9901419415214
 31
0.0
 70
   160
  1
H
 71
     5
 42
23.9999745564345
  3
SYS$0
100
AcDbAlignedDimension
 13
202.7099060650578
 23
144.5441110855395
 33
0.0
 14
226.7098806214923
 24
144.5441110855395
 34
0.0
100
AcDbRotatedDimension
1001
ACAD
1000
DSTYLE
1002
{
1070
   179
1070
     1
1002
}
  0
LINE
  5
B794
330
1F
100
AcDbEntity
  8
0台座
100
AcDbLine
 10
323.0152384903146
 20
181.044111085539
 30
0.0
 11
324.6432231648693
 21
181.0441110855395
 31
0.0
  0
LINE
  5
B795
330
1F
100
AcDbEntity
  8
0台座
100
AcDbLine
 10
336.0152384903155
 20
202.5441110855395
 30
0.0
 11
336.0152384903155
 21
132.5441110855395
 31
0.0
  0
ARC
  5
B796
330
1F
100
AcDbEntity
  8
0台座
100
AcDbCircle
 10
323.0152384903146
 20
180.044111085539
 30
0.0
 40
1.0
100
AcDbArc
 50
90.0
 51
180.0
1001
GENIUS_GENOBJ-N-FIL_13
1002
{
1000
OWNER
1000
GEN
1002
}
1001
GENIUS_GENODEF_13
1002
{
1000
HIER
1070
     0
1002
}
1002
{
1000
MANEDIT
1070
     0
1002
}
1002
{
1000
NOSEL
1070
     0
1002
}
1002
{
1000
BEHIND
1070
     0
1002
}
1002
{
1000
OTHER
1070
     0
1002
}
1002
{
1000
REACTOR
1002
}
  0
LINE
  5
B797
330
1F
100
AcDbEntity
  8
AM_7
 48
0.5
100
AcDbLine
 10
286.5485810639299
 20
167.5441110855395
 30
0.0
 11
339.0152384903155
 21
167.5441110855395
 31
0.0
1001
GENIUS_GENODEF_13
1002
{
1000
HIER
1070
     0
1002
}
1002
{
1000
MANEDIT
1070
     0
1002
}
1002
{
1000
NOSEL
1070
     0
1002
}
1002
{
1000
BEHIND
1070
     0
1002
}
1002
{
1000
OTHER
1070
     0
1002
}
1002
{
1000
REACTOR
1002
}
1001
GENIUS_GENOBJ-N-CEN_13
1002
{
1000
OWNER
1000
GEN
1002
}
1001
GENIUS_GENCEN_19
1002
{
1040
3.0
1002
}
  0
LINE
  5
B798
330
1F
100
AcDbEntity
  8
0台座
100
AcDbLine
 10
331.2514428559858
 20
201.8314589711058
 30
0.0
 11
325.0363253477041
 21
181.1144006101653
 31
0.0
  0
ARC
  5
B799
330
1F
100
AcDbEntity
  8
0台座
100
AcDbCircle
 10
324.6432231648693
 20
181.5441110855395
 30
0.0
 40
0.5
100
AcDbArc
 50
270.0
 51
343.3007557660054
1001
GENIUS_GENOBJ-N-FIL_13
1002
{
1000
OWNER
1000
GEN
1002
}
1001
GENIUS_GENODEF_13
1002
{
1000
HIER
1070
     0
1002
}
1002
{
1000
MANEDIT
1070
     0
1002
}
1002
{
1000
NOSEL
1070
     0
1002
}
1002
{
1000
BEHIND
1070
     0
1002
}
1002
{
1000
OTHER
1070
     0
1002
}
1002
{
1000
REACTOR
1002
}
  0
ARC
  5
B79A
330
1F
100
AcDbEntity
  8
0台座
100
AcDbCircle
 10
323.0152384903146
 20
155.0441110855395
 30
0.0
 40
1.0
100
AcDbArc
 50
180.0
 51
270.0
1001
GENIUS_GENOBJ-N-FIL_13
1002
{
1000
OWNER
1000
GEN
1002
}
1001
GENIUS_GENODEF_13
1002
{
1000
HIER
1070
     0
1002
}
1002
{
1000
MANEDIT
1070
     0
1002
}
1002
{
1000
NOSEL
1070
     0
1002
}
1002
{
1000
BEHIND
1070
     0
1002
}
1002
{
1000
OTHER
1070
     0
1002
}
1002
{
1000
REACTOR
1002
}
  0
LINE
  5
B79B
330
1F
100
AcDbEntity
  8
0台座
100
AcDbLine
 10
323.0152384903146
 20
154.0441110855395
 30
0.0
 11
324.6432231648683
 21
154.0441110855395
 31
0.0
  0
LINE
  5
B79C
330
1F
100
AcDbEntity
  8
0台座
100
AcDbLine
 10
331.2514428559858
 20
133.2567631999732
 30
0.0
 11
325.0363253477041
 21
153.97382156091
 31
0.0
  0
ARC
  5
B79D
330
1F
100
AcDbEntity
  8
0台座
100
AcDbCircle
 10
325.5152384903146
 20
154.1174955036931
 30
0.0
 40
0.5
100
AcDbArc
 50
180.0
 51
196.6992442339942
1001
GENIUS_GENOBJ-N-FIL_13
1002
{
1000
OWNER
1000
GEN
1002
}
1001
GENIUS_GENODEF_13
1002
{
1000
HIER
1070
     0
1002
}
1002
{
1000
MANEDIT
1070
     0
1002
}
1002
{
1000
NOSEL
1070
     0
1002
}
1002
{
1000
BEHIND
1070
     0
1002
}
1002
{
1000
OTHER
1070
     0
1002
}
1002
{
1000
REACTOR
1002
}
  0
ARC
  5
B79E
330
1F
100
AcDbEntity
  8
0台座
100
AcDbCircle
 10
332.2092691412068
 20
133.5441110855395
 30
0.0
 40
1.0
100
AcDbArc
 50
196.6992442339942
 51
270.0
1001
GENIUS_GENOBJ-N-FIL_13
1002
{
1000
OWNER
1000
GEN
1002
}
1001
GENIUS_GENODEF_13
1002
{
1000
HIER
1070
     0
1002
}
1002
{
1000
MANEDIT
1070
     0
1002
}
1002
{
1000
NOSEL
1070
     0
1002
}
1002
{
1000
BEHIND
1070
     0
1002
}
1002
{
1000
OTHER
1070
     0
1002
}
1002
{
1000
REACTOR
1002
}
  0
ARC
  5
B79F
330
1F
100
AcDbEntity
  8
0台座
100
AcDbCircle
 10
324.6432231648683
 20
153.5441110855395
 30
0.0
 40
0.5
100
AcDbArc
 50
16.69924423399429
 51
90.0
1001
GENIUS_GENOBJ-N-FIL_13
1002
{
1000
OWNER
1000
GEN
1002
}
1001
GENIUS_GENODEF_13
1002
{
1000
HIER
1070
     0
1002
}
1002
{
1000
MANEDIT
1070
     0
1002
}
1002
{
1000
NOSEL
1070
     0
1002
}
1002
{
1000
BEHIND
1070
     0
1002
}
1002
{
1000
OTHER
1070
     0
1002
}
1002
{
1000
REACTOR
1002
}
  0
LINE
  5
B7A0
330
1F
100
AcDbEntity
  8
0台座
100
AcDbLine
 10
336.0152384903155
 20
132.5441110855395
 30
0.0
 11
332.2092691412068
 21
132.5441110855395
 31
0.0
  0
ARC
  5
B7A1
330
1F
100
AcDbEntity
  8
0台座
100
AcDbCircle
 10
332.2092691412068
 20
201.5441110855395
 30
0.0
 40
1.0
100
AcDbArc
 50
90.0
 51
163.3007557659811
1001
GENIUS_GENOBJ-N-FIL_13
1002
{
1000
OWNER
1000
GEN
1002
}
1001
GENIUS_GENODEF_13
1002
{
1000
HIER
1070
     0
1002
}
1002
{
1000
MANEDIT
1070
     0
1002
}
1002
{
1000
NOSEL
1070
     0
1002
}
1002
{
1000
BEHIND
1070
     0
1002
}
1002
{
1000
OTHER
1070
     0
1002
}
1002
{
1000
REACTOR
1002
}
  0
LINE
  5
B7A2
330
1F
100
AcDbEntity
  8
0台座
100
AcDbLine
 10
336.0152384903155
 20
202.5441110855395
 30
0.0
 11
332.2092691412068
 21
202.5441110855395
 31
0.0
  0
ARC
  5
B7A3
330
1F
100
AcDbEntity
  8
0台座
100
AcDbCircle
 10
325.5152384903146
 20
180.9707266673822
 30
0.0
 40
0.5
100
AcDbArc
 50
163.3007557660056
 51
180.0
1001
GENIUS_GENOBJ-N-FIL_13
1002
{
1000
OWNER
1000
GEN
1002
}
1001
GENIUS_GENODEF_13
1002
{
1000
HIER
1070
     0
1002
}
1002
{
1000
MANEDIT
1070
     0
1002
}
1002
{
1000
NOSEL
1070
     0
1002
}
1002
{
1000
BEHIND
1070
     0
1002
}
1002
{
1000
OTHER
1070
     0
1002
}
1002
{
1000
REACTOR
1002
}
  0
LINE
  5
B7A4
330
1F
100
AcDbEntity
  8
0台座
100
AcDbLine
 10
325.0152384903146
 20
180.9707266673822
 30
0.0
 11
325.0152384903146
 21
154.1174955036931
 31
0.0
  0
LINE
  5
B7A5
330
1F
100
AcDbEntity
  8
0台座
100
AcDbLine
 10
321.0152384903146
 20
180.044111085539
 30
0.0
 11
321.0152384903146
 21
155.044111085539
 31
0.0
  0
LINE
  5
B7A6
330
1F
100
AcDbEntity
  8
0台座
100
AcDbLine
 10
321.0152384903146
 20
180.044111085539
 30
0.0
 11
322.0152384903146
 21
180.044111085539
 31
0.0
  0
LINE
  5
B7A7
330
1F
100
AcDbEntity
  8
0台座
100
AcDbLine
 10
322.0152384903146
 20
180.044111085539
 30
0.0
 11
322.0152384903146
 21
155.044111085539
 31
0.0
  0
LINE
  5
B7A8
330
1F
100
AcDbEntity
  8
0台座
100
AcDbLine
 10
322.0152384903146
 20
155.044111085539
 30
0.0
 11
321.0152384903146
 21
155.044111085539
 31
0.0
  0
ARC
  5
B7A9
330
1F
100
AcDbEntity
  8
0カム
100
AcDbCircle
 10
310.0152384903146
 20
156.8912381739224
 30
0.0
 40
1.0
100
AcDbArc
 50
180.0
 51
260.5376777919163
1001
GENIUS_GENOBJ-N-FIL_13
1002
{
1000
OWNER
1000
GEN
1002
}
1001
GENIUS_GENODEF_13
1002
{
1000
HIER
1070
     0
1002
}
1002
{
1000
MANEDIT
1070
     0
1002
}
1002
{
1000
NOSEL
1070
     0
1002
}
1002
{
1000
BEHIND
1070
     0
1002
}
1002
{
1000
OTHER
1070
     0
1002
}
1002
{
1000
REACTOR
1002
}
  0
LINE
  5
B7AA
330
1F
100
AcDbEntity
  8
0カム
100
AcDbLine
 10
309.8508395030091
 20
155.9048442500902
 30
0.0
 11
320.9336020333072
 21
154.0577171617069
 31
0.0
  0
ARC
  5
B7AB
330
1F
100
AcDbEntity
  8
0カム
100
AcDbCircle
 10
321.0980010206128
 20
155.044111085539
 30
0.0
 40
1.0
100
AcDbArc
 50
260.5376777919163
 51
270.0
1001
GENIUS_GENODEF_13
1002
{
1000
HIER
1070
     0
1002
}
1002
{
1000
MANEDIT
1070
     0
1002
}
1002
{
1000
NOSEL
1070
     0
1002
}
1002
{
1000
BEHIND
1070
     0
1002
}
1002
{
1000
OTHER
1070
     0
1002
}
1002
{
1000
REACTOR
1002
}
1001
GENIUS_GENOBJ-N-FIL_13
1002
{
1000
OWNER
1000
GEN
1002
}
  0
LINE
  5
B7AC
330
1F
100
AcDbEntity
  8
0カム
100
AcDbLine
 10
309.8508395030091
 20
179.1833779209878
 30
0.0
 11
320.9336020333072
 21
181.0305050093716
 31
0.0
  0
ARC
  5
B7AD
330
1F
100
AcDbEntity
  8
0カム
100
AcDbCircle
 10
321.0980010206118
 20
180.0441110855395
 30
0.0
 40
1.0
100
AcDbArc
 50
90.0
 51
99.46232220808363
1001
GENIUS_GENODEF_13
1002
{
1000
HIER
1070
     0
1002
}
1002
{
1000
MANEDIT
1070
     0
1002
}
1002
{
1000
NOSEL
1070
     0
1002
}
1002
{
1000
BEHIND
1070
     0
1002
}
1002
{
1000
OTHER
1070
     0
1002
}
1002
{
1000
REACTOR
1002
}
1001
GENIUS_GENOBJ-N-FIL_13
1002
{
1000
OWNER
1000
GEN
1002
}
  0
ARC
  5
B7AE
330
1F
100
AcDbEntity
  8
0カム
100
AcDbCircle
 10
310.0152384903146
 20
178.1969839971557
 30
0.0
 40
1.0
100
AcDbArc
 50
99.46232220808363
 51
180.0
1001
GENIUS_GENOBJ-N-FIL_13
1002
{
1000
OWNER
1000
GEN
1002
}
1001
GENIUS_GENODEF_13
1002
{
1000
HIER
1070
     0
1002
}
1002
{
1000
MANEDIT
1070
     0
1002
}
1002
{
1000
NOSEL
1070
     0
1002
}
1002
{
1000
BEHIND
1070
     0
1002
}
1002
{
1000
OTHER
1070
     0
1002
}
1002
{
1000
REACTOR
1002
}
  0
LINE
  5
B7AF
330
1F
100
AcDbEntity
  8
0カム
100
AcDbLine
 10
321.0980010206118
 20
181.0441110855395
 30
0.0
 11
322.5152384903146
 21
181.0441110855395
 31
0.0
  0
LINE
  5
B7B0
330
1F
100
AcDbEntity
  8
0カム
100
AcDbLine
 10
321.0980010206128
 20
154.044111085539
 30
0.0
 11
322.5152384903146
 21
154.044111085539
 31
0.0
  0
ARC
  5
B7B1
330
1F
100
AcDbEntity
  8
0カム
100
AcDbCircle
 10
322.5152384903146
 20
155.044111085539
 30
0.0
 40
1.0
100
AcDbArc
 50
270.0
 51
284.477512185987
  0
ARC
  5
B7B2
330
1F
100
AcDbEntity
  8
0カム
100
AcDbCircle
 10
322.5152384903146
 20
180.044111085539
 30
0.0
 40
1.0
100
AcDbArc
 50
75.52248781407008
 51
90.0
  0
LINE
  5
B7B3
330
1F
100
AcDbEntity
  8
0ハンドル
100
AcDbLine
 10
309.0152384903137
 20
178.9500446473548
 30
0.0
 11
305.5966937616273
 21
188.8348902140424
 31
0.0
  0
ARC
  5
B7B4
330
1F
100
AcDbEntity
  8
0ハンドル
100
AcDbCircle
 10
303.2250551897356
 20
188.0441118099897
 30
0.0
 40
2.5
100
AcDbArc
 50
18.43999765814897
 51
109.9999999999896
  0
LINE
  5
B7B5
330
1F
100
AcDbEntity
  8
0ハンドル
100
AcDbLine
 10
302.3700048314219
 20
190.3933433619545
 30
0.0
 11
297.1056709310784
 21
188.4772825189911
 31
0.0
  0
ARC
  5
B7B6
330
1F
100
AcDbEntity
  8
0ハンドル
100
AcDbCircle
 10
315.3711475844299
 20
148.3441118138821
 30
0.0
 40
10.0
100
AcDbArc
 50
129.4638249034516
 51
175.2513212897451
  0
ARC
  5
B7B7
330
1F
100
AcDbEntity
  8
0ハンドル
100
AcDbCircle
 10
298.0152384903119
 20
64.54411180998748
 30
0.0
 40
4.0
100
AcDbArc
 50
184.0571320135405
 51
294.9999999999889
  0
LINE
  5
B7B8
330
1F
100
AcDbEntity
  8
0ハンドル
100
AcDbLine
 10
299.7057115372751
 20
60.91888066184082
 30
0.0
 11
304.5628107593408
 21
63.18378322550869
 31
0.0
  0
ARC
  5
B7B9
330
1F
100
AcDbEntity
  8
0ハンドル
100
AcDbCircle
 10
312.0152384903128
 20
75.54411067719136
 30
0.0
 40
9.999999999998335
100
AcDbArc
 50
179.4700138641053
 51
227.8718589253764
  0
ARC
  5
B7BA
330
1F
100
AcDbEntity
  8
0ハンドル
  6
想像線1
 48
0.6
370
    13
100
AcDbCircle
 10
312.0152384903128
 20
75.54411067719228
 30
0.0
 40
9.999999999999801
100
AcDbArc
 50
179.3377168488577
 51
180.0
  0
ARC
  5
B7BB
330
1F
100
AcDbEntity
  8
0ハンドル
100
AcDbCircle
 10
352.0152384903138
 20
165.5441118088606
 30
0.0
 40
60.0
100
AcDbArc
 50
158.4122762412681
 51
178.1386659012312
  0
ARC
  5
B7BC
330
1F
100
AcDbEntity
  8
0ハンドル
100
AcDbCircle
 10
297.6187011460666
 20
187.0677435878124
 30
0.0
 40
1.5
100
AcDbArc
 50
109.9999999999896
 51
158.4122762412681
  0
ARC
  5
B7BD
330
1F
100
AcDbEntity
  8
0ハンドル
100
AcDbCircle
 10
303.2949559741188
 20
65.90270658661847
 30
0.0
 40
3.0
100
AcDbArc
 50
294.9999999999889
 51
47.87185892537645
  0
ARC
  5
B7BE
330
1F
100
AcDbEntity
  8
0ハンドル
100
AcDbCircle
 10
1291.519259745983
 20
135.0122588610529
 30
0.0
 40
1000.0
100
AcDbArc
 50
178.1386659012312
 51
184.0571320135405
  0
ARC
  5
B7BF
330
1F
100
AcDbEntity
  8
0ハンドル
100
AcDbCircle
 10
1301.97288532677
 20
66.38673823593579
 30
0.0
 40
1000.0
100
AcDbArc
 50
175.2513212897451
 51
179.4700138641053
  0
LINE
  5
B7C0
330
1F
100
AcDbEntity
  8
AM_11
 48
0.5
100
AcDbLine
 10
323.5152384903155
 20
138.5441110855395
 30
0.0
 11
323.5152384903155
 21
151.411730327602
 31
0.0
  0
LINE
  5
B7C1
330
1F
100
AcDbEntity
  8
AM_11
 48
0.5
100
AcDbLine
 10
322.5152384903155
 20
137.5441110855395
 30
0.0
 11
319.5152384903155
 21
137.5441110855395
 31
0.0
  0
ARC
  5
B7C2
330
1F
100
AcDbEntity
  8
AM_11
 48
0.5
100
AcDbCircle
 10
319.5152384903155
 20
139.0441110855395
 30
0.0
 40
1.5
100
AcDbArc
 50
180.0
 51
270.0
1001
GENIUS_GENOBJ-N-FIL_13
1002
{
1000
OWNER
1000
GEN
1002
}
1001
GENIUS_GENODEF_13
1002
{
1000
HIER
1070
     0
1002
}
1002
{
1000
MANEDIT
1070
     0
1002
}
1002
{
1000
NOSEL
1070
     0
1002
}
1002
{
1000
BEHIND
1070
     0
1002
}
1002
{
1000
OTHER
1070
     0
1002
}
1002
{
1000
REACTOR
1002
}
  0
ARC
  5
B7C3
330
1F
100
AcDbEntity
  8
AM_11
 48
0.5
100
AcDbCircle
 10
322.5152384903155
 20
138.5441110855395
 30
0.0
 40
1.0
100
AcDbArc
 50
270.0
 51
0.0
  0
LINE
  5
B7C4
330
1F
100
AcDbEntity
  8
AM_11
 48
0.5
100
AcDbLine
 10
318.0152384903155
 20
139.0441110855395
 30
0.0
 11
318.0152384903155
 21
143.0441110855395
 31
0.0
  0
LINE
  5
B7C5
330
1F
100
AcDbEntity
  8
AM_11
 48
0.5
100
AcDbLine
 10
322.5442300011715
 20
153.1267161790279
 30
0.0
 11
321.9862469794613
 21
153.4615059920538
 31
0.0
  0
ARC
  5
B7C6
330
1F
100
AcDbEntity
  8
AM_11
 48
0.5
100
AcDbCircle
 10
306.0152384903155
 20
143.0441110855395
 30
0.0
 40
12.0
100
AcDbArc
 50
0.0
 51
61.92751306412676
  0
ARC
  5
B7C7
330
1F
100
AcDbEntity
  8
AM_11
 48
0.5
100
AcDbCircle
 10
321.5152384903155
 20
151.411730327602
 30
0.0
 40
2.0
100
AcDbArc
 50
0.0
 51
59.03624346792406
  0
DIMENSION
  5
B7C8
330
1F
100
AcDbEntity
  8
AM_5
100
AcDbDimension
  2
*D7
 10
323.5152384903155
 20
120.5441110855395
 30
0.0
 11
329.7652384903155
 21
123.6441110855394
 31
0.0
 70
    32
  1
J
 71
     5
 42
12.5
  3
SYS$0
100
AcDbAlignedDimension
 13
336.0152384903155
 23
132.5441110855395
 33
0.0
 14
323.5152384903155
 24
138.5441110855395
 34
0.0
100
AcDbRotatedDimension
1001
ACAD
1000
DSTYLE
1002
{
1070
   179
1070
     1
1002
}
  0
DIMENSION
  5
B7C9
330
1F
100
AcDbEntity
  8
AM_5
100
AcDbDimension
  2
*D8
 10
318.0152384903155
 20
110.5441110855394
 30
0.0
 11
327.0152384903155
 21
113.6441110855395
 31
0.0
 70
    32
  1
Ｉ
 71
     5
 42
18.0
  3
SYS$0
100
AcDbAlignedDimension
 13
336.0152384903155
 23
132.5441110855395
 33
0.0
 14
318.0152384903155
 24
139.0441110855395
 34
0.0
100
AcDbRotatedDimension
1001
ACAD
1000
DSTYLE
1002
{
1070
   179
1070
     1
1002
}
  0
ARC
  5
B7CA
330
1F
100
AcDbEntity
  8
AM_11
100
AcDbCircle
 10
323.0152384903173
 20
155.1764918434782
 30
0.0
 40
2.0
100
AcDbArc
 50
180.0
 51
183.7952040437775
  0
ARC
  5
B7CB
330
1F
100
AcDbEntity
  8
AM_11
100
AcDbCircle
 10
323.0152384903173
 20
155.1764918434782
 30
0.0
 40
2.0
100
AcDbArc
 50
214.4849942434385
 51
239.0362434679206
  0
ARC
  5
B7CC
330
1F
100
AcDbEntity
  8
AM_11
100
AcDbCircle
 10
314.0152384903182
 20
158.0441110855381
 30
0.0
 40
5.0
100
AcDbArc
 50
202.9508505127953
 51
241.9275130641268
  0
LINE
  5
B7CD
330
1F
100
AcDbEntity
  8
0カム
100
AcDbLine
 10
321.0152384903146
 20
179.8636513871338
 30
0.0
 11
321.0152384903146
 21
155.2245722305665
 31
0.0
  0
ARC
  5
B7CE
330
1F
100
AcDbEntity
  8
0カム
100
AcDbCircle
 10
320.0152384903146
 20
155.2245722305665
 30
0.0
 40
1.0
100
AcDbArc
 50
260.5376777919659
 51
0.0
  0
ARC
  5
B7CF
330
1F
100
AcDbEntity
  8
0カム
100
AcDbCircle
 10
320.0152384903146
 20
179.8636513871338
 30
0.0
 40
1.0
100
AcDbArc
 50
0.0
 51
99.46232220803409
  0
LINE
  5
B7D0
330
1F
100
AcDbEntity
  8
AM_7
100
AcDbLine
 10
214.7098806214923
 20
276.7493691820705
 30
0.0
 11
214.7098806214923
 21
226.7493691820705
 31
0.0
1001
GENIUS_GENODEF_13
1002
{
1000
HIER
1070
     0
1002
}
1002
{
1000
MANEDIT
1070
     0
1002
}
1002
{
1000
NOSEL
1070
     0
1002
}
1002
{
1000
BEHIND
1070
     0
1002
}
1002
{
1000
OTHER
1070
     0
1002
}
1002
{
1000
REACTOR
1002
}
1001
GENIUS_GENOBJ-N-CEN_13
1002
{
1000
OWNER
1000
GEN
1002
}
1001
GENIUS_GENCEN_19
1002
{
1040
3.0
1002
}
  0
LINE
  5
B7D1
330
1F
100
AcDbEntity
  8
AM_7
100
AcDbLine
 10
154.7098806214924
 20
276.7493691820705
 30
0.0
 11
154.7098806214924
 21
246.74936918207
 31
0.0
1001
GENIUS_GENODEF_13
1002
{
1000
HIER
1070
     0
1002
}
1002
{
1000
MANEDIT
1070
     0
1002
}
1002
{
1000
NOSEL
1070
     0
1002
}
1002
{
1000
BEHIND
1070
     0
1002
}
1002
{
1000
OTHER
1070
     0
1002
}
1002
{
1000
REACTOR
1002
}
1001
GENIUS_GENOBJ-N-CEN_13
1002
{
1000
OWNER
1000
GEN
1002
}
1001
GENIUS_GENCEN_19
1002
{
1040
3.0
1002
}
  0
LINE
  5
B7D2
330
1F
100
AcDbEntity
  8
0受け
100
AcDbLine
 10
144.7098806214924
 20
273.7493691820705
 30
0.0
 11
164.7098806214924
 21
273.7493691820705
 31
0.0
  0
LINE
  5
B7D3
330
1F
100
AcDbEntity
  8
0台座
100
AcDbLine
 10
200.7098806214924
 20
273.7493691820705
 30
0.0
 11
228.7098806214923
 21
273.7493691820705
 31
0.0
  0
LINE
  5
B7D4
330
1F
100
AcDbEntity
  8
0台座
100
AcDbLine
 10
202.2098806214933
 20
258.7537551575351
 30
0.0
 11
202.2098806214933
 21
259.7493691820705
 31
0.0
  0
LINE
  5
B7D5
330
1F
100
AcDbEntity
  8
0台座
100
AcDbLine
 10
202.2098806214924
 20
259.7493691820705
 30
0.0
 11
227.2098806214932
 21
259.7493691820705
 31
0.0
  0
LINE
  5
B7D6
330
1F
100
AcDbEntity
  8
0台座
100
AcDbLine
 10
227.2098806214932
 20
259.7493691820705
 30
0.0
 11
227.2098806214932
 21
258.7493691820705
 31
0.0
  0
LINE
  5
B7D7
330
1F
100
AcDbEntity
  8
0ハンドル
100
AcDbLine
 10
204.1788438891106
 20
246.7493691820727
 30
0.0
 11
225.2409173538741
 21
246.7493691820723
 31
0.0
  0
LINE
  5
B7D8
330
1F
100
AcDbEntity
  8
0ハンドル
100
AcDbLine
 10
203.1793242518113
 20
245.7803610302235
 30
0.0
 11
202.7519086280433
 21
231.9957584737981
 31
0.0
  0
ARC
  5
B7D9
330
1F
100
AcDbEntity
  8
0ハンドル
100
AcDbCircle
 10
204.1788438891106
 20
245.7493691820728
 30
0.0
 40
1.0
100
AcDbArc
 50
90.0
 51
178.2240135200176
1001
GENIUS_GENOBJ-N-FIL_13
1002
{
1000
OWNER
1000
GEN
1002
}
1001
GENIUS_GENODEF_13
1002
{
1000
HIER
1070
     0
1002
}
1002
{
1000
MANEDIT
1070
     0
1002
}
1002
{
1000
NOSEL
1070
     0
1002
}
1002
{
1000
BEHIND
1070
     0
1002
}
1002
{
1000
OTHER
1070
     0
1002
}
1002
{
1000
REACTOR
1002
}
  0
LINE
  5
B7DA
330
1F
100
AcDbEntity
  8
0ハンドル
100
AcDbLine
 10
226.2404351372876
 20
245.7804207624227
 30
0.0
 11
226.6691574133853
 21
231.9803006307907
 31
0.0
  0
ARC
  5
B7DB
330
1F
100
AcDbEntity
  8
0ハンドル
100
AcDbCircle
 10
225.2409173538741
 20
245.7493691820723
 30
0.0
 40
1.0
100
AcDbArc
 50
1.779410530879305
 51
90.0
1001
GENIUS_GENODEF_13
1002
{
1000
HIER
1070
     0
1002
}
1002
{
1000
MANEDIT
1070
     0
1002
}
1002
{
1000
NOSEL
1070
     0
1002
}
1002
{
1000
BEHIND
1070
     0
1002
}
1002
{
1000
OTHER
1070
     0
1002
}
1002
{
1000
REACTOR
1002
}
1001
GENIUS_GENOBJ-N-FIL_13
1002
{
1000
OWNER
1000
GEN
1002
}
  0
ARC
  5
B7DC
330
1F
100
AcDbEntity
  8
0ハンドル
100
AcDbCircle
 10
214.710379086479
 20
309.7493691820596
 30
0.0
 40
80.0
100
AcDbArc
 50
262.3432498178199
 51
277.6566237786041
  0
ARC
  5
B7DD
330
1F
100
AcDbEntity
  8
0ハンドル
370
    13
100
AcDbCircle
 10
214.7103332419462
 20
314.5493691820725
 30
0.0
 40
80.0
100
AcDbArc
 50
262.4526939120013
 51
277.5473060879396
  0
ARC
  5
B7DE
330
1F
100
AcDbEntity
  8
0ハンドル
370
    13
100
AcDbCircle
 10
214.7103332419462
 20
160.949369182073
 30
0.0
 40
80.0
100
AcDbArc
 50
82.3433424543267
 51
97.6566575456667
  0
ARC
  5
B7DF
330
1F
100
AcDbEntity
  8
0ハンドル
100
AcDbCircle
 10
204.2511880839936
 20
231.949270701572
 30
0.0
 40
1.5
100
AcDbArc
 50
178.2240135200176
 51
262.3432498178199
  0
ARC
  5
B7E0
330
1F
100
AcDbEntity
  8
0ハンドル
100
AcDbCircle
 10
225.1694783998988
 20
231.949270701572
 30
0.0
 40
1.5
100
AcDbArc
 50
1.185340540483058
 51
2.37348052127406
  0
ARC
  5
B7E1
330
1F
100
AcDbEntity
  8
0ハンドル
100
AcDbCircle
 10
225.1693984495738
 20
231.9492476271262
 30
0.0
 40
1.5
100
AcDbArc
 50
277.6566237786041
 51
1.779410530879305
  0
LINE
  5
B7E2
330
1F
100
AcDbEntity
  8
0カム
100
AcDbLine
 10
228.3765472880911
 20
246.7493691820723
 30
0.0
 11
205.2098806214915
 21
246.7493691820732
 31
0.0
  0
LINE
  5
B7E3
330
1F
100
AcDbEntity
  8
0カム
100
AcDbLine
 10
185.7098806214924
 20
261.2493691820714
 30
0.0
 11
198.577499863555
 21
261.2493691820714
 31
0.0
  0
LINE
  5
B7E4
330
1F
100
AcDbEntity
  8
0カム
100
AcDbLine
 10
184.7098806214924
 20
260.2493691820709
 30
0.0
 11
184.7098806214924
 21
257.2493691820714
 31
0.0
  0
ARC
  5
B7E5
330
1F
100
AcDbEntity
  8
0カム
100
AcDbCircle
 10
186.2098806214924
 20
257.2493691820714
 30
0.0
 40
1.5
100
AcDbArc
 50
180.0
 51
270.0
1001
GENIUS_GENOBJ-N-FIL_13
1002
{
1000
OWNER
1000
GEN
1002
}
1001
GENIUS_GENODEF_13
1002
{
1000
HIER
1070
     0
1002
}
1002
{
1000
MANEDIT
1070
     0
1002
}
1002
{
1000
NOSEL
1070
     0
1002
}
1002
{
1000
BEHIND
1070
     0
1002
}
1002
{
1000
OTHER
1070
     0
1002
}
1002
{
1000
REACTOR
1002
}
  0
ARC
  5
B7E6
330
1F
100
AcDbEntity
  8
0カム
100
AcDbCircle
 10
185.7098806214924
 20
260.2493691820709
 30
0.0
 40
1.0
100
AcDbArc
 50
90.0
 51
180.0
  0
LINE
  5
B7E7
330
1F
100
AcDbEntity
  8
0カム
100
AcDbLine
 10
202.3422613794334
 20
258.7493691820719
 30
0.0
 11
230.2098806214932
 21
258.7493691820682
 31
0.0
  0
LINE
  5
B7E8
330
1F
100
AcDbEntity
  8
0カム
100
AcDbLine
 10
186.2098806214924
 20
255.7493691820714
 30
0.0
 11
190.2098806214924
 21
255.7493691820714
 31
0.0
  0
LINE
  5
B7E9
330
1F
100
AcDbEntity
  8
0カム
100
AcDbLine
 10
200.2924857149808
 20
260.278360692927
 30
0.0
 11
200.6272755280067
 21
259.7203776712167
 31
0.0
  0
ARC
  5
B7EA
330
1F
100
AcDbEntity
  8
0カム
100
AcDbCircle
 10
190.2098806214924
 20
243.7493691820709
 30
0.0
 40
12.0
100
AcDbArc
 50
28.07248693585242
 51
90.0
  0
ARC
  5
B7EB
330
1F
100
AcDbEntity
  8
0カム
100
AcDbCircle
 10
230.2098806214923
 20
257.7493691820682
 30
0.0
 40
1.0
100
AcDbArc
 50
349.6087328561025
 51
89.99999999994789
  0
LINE
  5
B7EC
330
1F
100
AcDbEntity
  8
0カム
100
AcDbLine
 10
231.1934795950161
 20
257.5689999516435
 30
0.0
 11
229.3601538454819
 21
247.5690413132988
 31
0.0
  0
ARC
  5
B7ED
330
1F
100
AcDbEntity
  8
0カム
100
AcDbCircle
 10
228.3765472880911
 20
247.7493691820723
 30
0.0
 40
1.0
100
AcDbArc
 50
270.0
 51
349.6111421891334
1001
GENIUS_GENOBJ-N-FIL_13
1002
{
1000
OWNER
1000
GEN
1002
}
1001
GENIUS_GENODEF_13
1002
{
1000
HIER
1070
     0
1002
}
1002
{
1000
MANEDIT
1070
     0
1002
}
1002
{
1000
NOSEL
1070
     0
1002
}
1002
{
1000
BEHIND
1070
     0
1002
}
1002
{
1000
OTHER
1070
     0
1002
}
1002
{
1000
REACTOR
1002
}
  0
ARC
  5
B7EE
330
1F
100
AcDbEntity
  8
0カム
100
AcDbCircle
 10
198.577499863555
 20
259.2493691820714
 30
0.0
 40
2.0
100
AcDbArc
 50
30.96375653206488
 51
90.0
  0
ARC
  5
B7EF
330
1F
100
AcDbEntity
  8
0カム
100
AcDbCircle
 10
202.3422613794316
 20
260.7493691820719
 30
0.0
 40
2.0
100
AcDbArc
 50
210.9637565320648
 51
269.9999999999479
  0
ARC
  5
B7F0
330
1F
100
AcDbEntity
  8
0カム
100
AcDbCircle
 10
205.2098806214915
 20
251.7493691820732
 30
0.0
 40
5.0
100
AcDbArc
 50
208.0724869358523
 51
270.0
  0
ELLIPSE
  5
B7F1
330
1F
100
AcDbEntity
  8
0台座
370
    13
100
AcDbEllipse
 10
214.7098806214923
 20
267.1431711379441
 30
0.0
 11
-5.099999999999909
 21
0.0
 31
0.0
210
0.0
220
0.0
230
1.0
 40
0.1960784313725525
 41
0.0
 42
6.283185307179586
  0
LINE
  5
B7F2
330
1F
100
AcDbEntity
  8
0台座
370
    13
100
AcDbLine
 10
202.7098806214924
 20
268.7493691820705
 30
0.0
 11
226.7098806214923
 21
268.7493691820705
 31
0.0
  0
ARC
  5
B7F3
330
1F
100
AcDbEntity
  8
0台座
370
    13
100
AcDbCircle
 10
202.7098806214924
 20
270.7493691820705
 30
0.0
 40
2.0
100
AcDbArc
 50
180.0
 51
270.0
1001
GENIUS_GENOBJ-N-FIL_13
1002
{
1000
OWNER
1000
GEN
1002
}
1001
GENIUS_GENODEF_13
1002
{
1000
HIER
1070
     0
1002
}
1002
{
1000
MANEDIT
1070
     0
1002
}
1002
{
1000
NOSEL
1070
     0
1002
}
1002
{
1000
BEHIND
1070
     0
1002
}
1002
{
1000
OTHER
1070
     0
1002
}
1002
{
1000
REACTOR
1002
}
  0
LINE
  5
B7F4
330
1F
100
AcDbEntity
  8
0台座
100
AcDbLine
 10
200.7098806214924
 20
273.7493691820705
 30
0.0
 11
200.7098806214924
 21
263.2493691820705
 31
0.0
  0
ARC
  5
B7F5
330
1F
100
AcDbEntity
  8
0台座
100
AcDbCircle
 10
201.2098806214924
 20
263.2493691820705
 30
0.0
 40
0.5
100
AcDbArc
 50
180.0
 51
270.0
1001
GENIUS_GENOBJ-N-FIL_13
1002
{
1000
OWNER
1000
GEN
1002
}
1001
GENIUS_GENODEF_13
1002
{
1000
HIER
1070
     0
1002
}
1002
{
1000
MANEDIT
1070
     0
1002
}
1002
{
1000
NOSEL
1070
     0
1002
}
1002
{
1000
BEHIND
1070
     0
1002
}
1002
{
1000
OTHER
1070
     0
1002
}
1002
{
1000
REACTOR
1002
}
  0
LINE
  5
B7F6
330
1F
100
AcDbEntity
  8
0台座
100
AcDbLine
 10
228.7098806214923
 20
273.7493691820705
 30
0.0
 11
228.7098806214923
 21
263.2493691820705
 31
0.0
  0
ARC
  5
B7F7
330
1F
100
AcDbEntity
  8
0台座
100
AcDbCircle
 10
228.2098806214923
 20
263.2493691820705
 30
0.0
 40
0.5
100
AcDbArc
 50
270.0
 51
0.0
1001
GENIUS_GENOBJ-N-FIL_13
1002
{
1000
OWNER
1000
GEN
1002
}
1001
GENIUS_GENODEF_13
1002
{
1000
HIER
1070
     0
1002
}
1002
{
1000
MANEDIT
1070
     0
1002
}
1002
{
1000
NOSEL
1070
     0
1002
}
1002
{
1000
BEHIND
1070
     0
1002
}
1002
{
1000
OTHER
1070
     0
1002
}
1002
{
1000
REACTOR
1002
}
  0
LINE
  5
B7F8
330
1F
100
AcDbEntity
  8
0台座
100
AcDbLine
 10
228.2098806214923
 20
262.7493691820705
 30
0.0
 11
201.2098806214924
 21
262.7493691820705
 31
0.0
  0
ARC
  5
B7F9
330
1F
100
AcDbEntity
  8
0台座
100
AcDbCircle
 10
227.2098806214923
 20
260.7493691820705
 30
0.0
 40
1.0
100
AcDbArc
 50
270.0
 51
0.0
1001
GENIUS_GENODEF_13
1002
{
1000
HIER
1070
     0
1002
}
1002
{
1000
MANEDIT
1070
     0
1002
}
1002
{
1000
NOSEL
1070
     0
1002
}
1002
{
1000
BEHIND
1070
     0
1002
}
1002
{
1000
OTHER
1070
     0
1002
}
1002
{
1000
REACTOR
1002
}
1001
GENIUS_GENOBJ-N-FIL_13
1002
{
1000
OWNER
1000
GEN
1002
}
  0
LINE
  5
B7FA
330
1F
100
AcDbEntity
  8
0台座
100
AcDbLine
 10
201.2098806214924
 20
260.7493691820705
 30
0.0
 11
201.2098806214924
 21
262.3833437782864
 31
0.0
  0
ARC
  5
B7FB
330
1F
100
AcDbEntity
  8
0台座
100
AcDbCircle
 10
202.2098806214924
 20
260.7493691820705
 30
0.0
 40
1.0
100
AcDbArc
 50
180.0
 51
270.0
1001
GENIUS_GENOBJ-N-FIL_13
1002
{
1000
OWNER
1000
GEN
1002
}
1001
GENIUS_GENODEF_13
1002
{
1000
HIER
1070
     0
1002
}
1002
{
1000
MANEDIT
1070
     0
1002
}
1002
{
1000
NOSEL
1070
     0
1002
}
1002
{
1000
BEHIND
1070
     0
1002
}
1002
{
1000
OTHER
1070
     0
1002
}
1002
{
1000
REACTOR
1002
}
  0
LINE
  5
B7FC
330
1F
100
AcDbEntity
  8
0台座
100
AcDbLine
 10
228.2098806214923
 20
260.7493691820705
 30
0.0
 11
228.2098806214923
 21
262.3833437782864
 31
0.0
  0
ARC
  5
B7FD
330
1F
100
AcDbEntity
  8
0台座
370
    13
100
AcDbCircle
 10
226.7098806214923
 20
270.7493691820705
 30
0.0
 40
2.0
100
AcDbArc
 50
270.0
 51
0.0
1001
GENIUS_GENOBJ-N-FIL_13
1002
{
1000
OWNER
1000
GEN
1002
}
1001
GENIUS_GENODEF_13
1002
{
1000
HIER
1070
     0
1002
}
1002
{
1000
MANEDIT
1070
     0
1002
}
1002
{
1000
NOSEL
1070
     0
1002
}
1002
{
1000
BEHIND
1070
     0
1002
}
1002
{
1000
OTHER
1070
     0
1002
}
1002
{
1000
REACTOR
1002
}
  0
ARC
  5
B7FE
330
1F
100
AcDbEntity
  8
0台座
100
AcDbCircle
 10
200.7098806214924
 20
262.3833437782864
 30
0.0
 40
0.5
100
AcDbArc
 50
0.0
 51
60.00000000000369
  0
ARC
  5
B7FF
330
1F
100
AcDbEntity
  8
0台座
100
AcDbCircle
 10
228.7098806214923
 20
262.3833437782864
 30
0.0
 40
0.5
100
AcDbArc
 50
119.9999999999963
 51
179.9999999999739
  0
LINE
  5
B800
330
1F
100
AcDbEntity
  8
0カム
100
AcDbLine
 10
184.7098806214924
 20
173.2938326887579
 30
0.0
 11
184.7098806214924
 21
161.7943894823211
 31
0.0
  0
ARC
  5
B801
330
1F
100
AcDbEntity
  8
0カム
100
AcDbCircle
 10
189.7098806214924
 20
173.2938326887579
 30
0.0
 40
5.0
100
AcDbArc
 50
102.5558577985952
 51
180.0
  0
ARC
  5
B802
330
1F
100
AcDbEntity
  8
0カム
100
AcDbCircle
 10
189.7098806214924
 20
161.7943894823211
 30
0.0
 40
5.0
100
AcDbArc
 50
180.0
 51
257.4441422014014
  0
LINE
  5
B803
330
1F
100
AcDbEntity
  8
AM_11
 48
0.5
100
AcDbLine
 10
181.7098806214924
 20
173.2938326887574
 30
0.0
 11
181.7098806214924
 21
161.7943894823206
 31
0.0
  0
ARC
  5
B804
330
1F
100
AcDbEntity
  8
AM_11
 48
0.5
100
AcDbCircle
 10
186.7098806214924
 20
173.2938326887574
 30
0.0
 40
5.0
100
AcDbArc
 50
102.5558577985952
 51
180.0
  0
ARC
  5
B805
330
1F
100
AcDbEntity
  8
AM_11
 48
0.5
100
AcDbCircle
 10
211.7098806214923
 20
61.04411108553994
 30
0.0
 40
120.0
100
AcDbArc
 50
96.69976517776719
 51
102.5558577985952
  0
ARC
  5
B806
330
1F
100
AcDbEntity
  8
AM_11
 48
0.5
100
AcDbCircle
 10
211.7098806214923
 20
274.04411108554
 30
0.0
 40
120.0
100
AcDbArc
 50
257.4441422014014
 51
263.3002348222328
  0
ARC
  5
B807
330
1F
100
AcDbEntity
  8
AM_11
 48
0.5
100
AcDbCircle
 10
186.7098806214924
 20
161.7943894823215
 30
0.0
 40
5.0
100
AcDbArc
 50
180.0
 51
257.4441422014014
  0
DIMENSION
  5
B808
330
1F
100
AcDbEntity
  8
AM_5
100
AcDbDimension
  2
*D9
 10
181.7098806214924
 20
146.8083647203566
 30
0.0
 11
175.8205472881589
 21
146.8083647203566
 31
0.0
 70
   160
  1
調整\P+<>
 71
     5
 42
3.0
  3
SYS$0
100
AcDbAlignedDimension
 13
184.7098806214924
 23
161.7943894823211
 33
0.0
 14
181.7098806214924
 24
161.7943894823206
 34
0.0
100
AcDbRotatedDimension
1001
ACAD
1000
DSTYLE
1002
{
1070
   179
1070
     1
1002
}
  0
MTEXT
  5
B809
330
1F
100
AcDbEntity
  8
AM_6
100
AcDbMText
 10
31.49999947067892
 20
60.49999944448339
 30
0.0
 40
3.2
 41
80.00000000000017
 71
     4
 72
     5
  1
　密閉ハンドル（小）・（中）
 73
     1
 44
1.0
1001
ACAD
1000
MTEXTBEGIN
1070
    73
1070
     1
1070
    44
1040
1.0
1070
    74
1070
     0
1000
MTEXTEND
  0
MTEXT
  5
B80A
330
1F
100
AcDbEntity
  8
AM_6
100
AcDbMText
 10
31.49999947067892
 20
52.49999944448339
 30
0.0
 40
3.2
 41
80.00000000000017
 71
     4
 72
     5
  1
　EL-105S-「」
 73
     1
 44
1.0
1001
ACAD
1000
MTEXTBEGIN
1070
    73
1070
     1
1070
    44
1040
1.0
1070
    74
1070
     0
1000
MTEXTEND
  0
MTEXT
  5
B80B
330
1F
100
AcDbEntity
  8
AM_6
100
AcDbMText
 10
31.49999947067892
 20
44.49999944448339
 30
0.0
 40
3.2
 41
80.00000000000017
 71
     4
 72
     5
  1
　ステンレス
 73
     1
 44
1.0
1001
ACAD
1000
MTEXTBEGIN
1070
    73
1070
     1
1070
    44
1040
1.0
1070
    74
1070
     0
1000
MTEXTEND
  0
MTEXT
  5
B80C
330
1F
100
AcDbEntity
  8
AM_6
100
AcDbMText
 10
31.49999947067892
 20
36.49999944448339
 30
0.0
 40
3.2
 41
80.00000000000017
 71
     4
 72
     5
  1
　鏡面バフ研磨
 73
     1
 44
1.0
1001
ACAD
1000
MTEXTBEGIN
1070
    73
1070
     1
1070
    44
1040
1.0
1070
    74
1070
     0
1000
MTEXTEND
  0
DIMENSION
  5
B80D
330
1F
100
AcDbEntity
  8
AM_5
100
AcDbDimension
  2
*D10
 10
124.7098806214909
 20
132.544111085539
 30
0.0
 11
121.6098806214909
 21
167.5441110855393
 31
0.0
 70
    32
  1
A
 71
     5
 42
70.00000000000046
  3
SYS$0
100
AcDbAlignedDimension
 13
146.7098806214919
 23
202.5441110855395
 33
0.0
 14
146.7098806214928
 24
132.544111085539
 34
0.0
 50
89.99999999994789
100
AcDbRotatedDimension
1001
ACAD
1000
DSTYLE
1002
{
1070
    47
1040
0.0
1070
    48
1040
0.2
1002
}
  0
DIMENSION
  5
B80E
330
1F
100
AcDbEntity
  8
AM_5
100
AcDbDimension
  2
*D11
 10
134.7098806214874
 20
142.544111085539
 30
0.0
 11
131.6098806214873
 21
167.5441110855391
 31
0.0
 70
    32
  1
B
 71
     5
 42
50.0
  3
SYS$0
100
AcDbAlignedDimension
 13
146.6098806214925
 23
192.544111085539
 33
0.0
 14
146.6098806214925
 24
142.544111085539
 34
0.0
 50
90.0
100
AcDbRotatedDimension
1001
ACAD
1000
DSTYLE
1002
{
1070
    47
1040
0.0
1070
    48
1040
0.2
1002
}
  0
DIMENSION
  5
B80F
330
1F
100
AcDbEntity
  8
AM_5
100
AcDbDimension
  2
*D12
 10
164.7098806214919
 20
218.5441110855395
 30
0.0
 11
154.7098806214919
 21
221.6441110855395
 31
0.0
 70
    32
  1
C
 71
     5
 42
20.0
  3
SYS$0
100
AcDbAlignedDimension
 13
144.7098806214919
 23
200.5441110855395
 33
0.0
 14
164.7098806214919
 24
200.544111085539
 34
0.0
100
AcDbRotatedDimension
1001
ACAD
1000
DSTYLE
1002
{
1070
   179
1070
     1
1002
}
  0
DIMENSION
  5
B810
330
1F
100
AcDbEntity
  8
AM_5
100
AcDbDimension
  2
*D13
 10
214.7098806214923
 20
210.5441110855422
 30
0.0
 11
183.2781798772225
 21
210.5441110855422
 31
0.0
 70
   160
  1
（E）
 71
     5
 42
60.00000000000034
  3
SYS$0
100
AcDbAlignedDimension
 13
154.7098806214919
 23
205.544111085539
 33
0.0
 14
214.7098806214923
 24
205.544111085539
 34
0.0
100
AcDbRotatedDimension
1001
ACAD
1000
DSTYLE
1002
{
1070
   179
1070
     1
1002
}
  0
DIMENSION
  5
B811
330
1F
100
AcDbEntity
  8
AM_5
100
AcDbDimension
  2
*D14
 10
245.7098806214923
 20
190.5441110855395
 30
0.0
 11
242.6098806214923
 21
179.0441110855395
 31
0.0
 70
    32
  1
F
 71
     5
 42
23.0
  3
SYS$0
100
AcDbAlignedDimension
 13
235.7098806214923
 23
167.5441110855395
 33
0.0
 14
223.7098806214923
 24
190.5441110855395
 34
0.0
 50
90.0
100
AcDbRotatedDimension
1001
ACAD
1000
DSTYLE
1002
{
1070
   179
1070
     1
1002
}
  0
DIMENSION
  5
B812
330
1F
100
AcDbEntity
  8
AM_5
100
AcDbDimension
  2
*D15
 10
255.7098806214923
 20
60.54411108553948
 30
0.0
 11
252.6098806214923
 21
125.5441110855395
 31
0.0
 70
    32
  1
G
 71
     5
 42
130.0
  3
SYS$0
100
AcDbAlignedDimension
 13
223.7098806214923
 23
190.5441110855395
 33
0.0
 14
221.3354128628267
 24
60.54411108553948
 34
0.0
 50
90.0
100
AcDbRotatedDimension
1001
ACAD
1000
DSTYLE
1002
{
1070
   179
1070
     1
1002
}
  0
DIMENSION
  5
B813
330
1F
100
AcDbEntity
  8
AM_5
100
AcDbDimension
  2
*D16
 10
228.7098806214923
 20
218.5441110855399
 30
0.0
 11
214.7098806214923
 21
221.64411108554
 31
0.0
 70
    32
  1
D
 71
     5
 42
27.99999999999989
  3
SYS$0
100
AcDbAlignedDimension
 13
200.7098806214924
 23
200.54411108554
 33
0.0
 14
228.7098806214923
 24
200.54411108554
 34
0.0
100
AcDbRotatedDimension
1001
ACAD
1000
DSTYLE
1002
{
1070
   179
1070
     1
1002
}
  0
DIMENSION
  5
B814
330
1F
100
AcDbEntity
  8
AM_5
100
AcDbDimension
  2
*D17
 10
132.7098806214924
 20
249.7493691820696
 30
0.0
 11
129.6098806214924
 21
261.7493691820701
 31
0.0
 70
    32
  1
（K）
 71
     5
 42
24.00000000000094
  3
SYS$0
100
AcDbAlignedDimension
 13
144.7098806214924
 23
273.7493691820705
 33
0.0
 14
147.7098806214924
 24
249.7493691820696
 34
0.0
 50
90.0
100
AcDbRotatedDimension
1001
ACAD
1000
DSTYLE
1002
{
1070
    47
1040
0.0
1070
    48
1040
0.2
1002
}
  0
DIMENSION
  5
B815
330
1F
100
AcDbEntity
  8
AM_5
100
AcDbDimension
  2
*D18
 10
245.7098806214924
 20
229.7493691821082
 30
0.0
 11
242.6098806214924
 21
251.7493691820894
 31
0.0
 70
    32
  1
（L ）
 71
     5
 42
43.99999999996225
  3
SYS$0
100
AcDbAlignedDimension
 13
228.7098806214923
 23
273.7493691820705
 33
0.0
 14
214.7102908401361
 24
229.7493691821082
 34
0.0
 50
90.0
100
AcDbRotatedDimension
  0
LINE
  5
B816
330
1F
100
AcDbEntity
  8
AM_0
100
AcDbLine
 10
134.6858661503986
 20
44.50216534622664
 30
0.0
 11
305.6858661503988
 21
44.50216534622664
 31
0.0
  0
LINE
  5
B817
330
1F
100
AcDbEntity
  8
AM_0
100
AcDbLine
 10
134.6858661503986
 20
44.50216534622664
 30
0.0
 11
134.6858661503986
 21
17.50216534622665
 31
0.0
  0
LINE
  5
B818
330
1F
100
AcDbEntity
  8
AM_0
100
AcDbLine
 10
134.6858661503986
 20
37.50216534622666
 30
0.0
 11
305.6858661503988
 21
37.50216534622671
 31
0.0
  0
LINE
  5
B819
330
1F
100
AcDbEntity
  8
AM_0
100
AcDbLine
 10
159.6858661503986
 20
44.50216534622664
 30
0.0
 11
159.6858661503986
 21
17.50216534622665
 31
0.0
  0
MTEXT
  5
B81A
330
1F
100
AcDbEntity
  8
AM_6
100
AcDbMText
 10
147.1858661503986
 20
41.00216534622664
 30
0.0
 40
3.2
 41
25.0
 71
     5
 72
     5
  1
品　番
 73
     1
 44
1.0
1001
ACAD
1000
MTEXTBEGIN
1070
    73
1070
     1
1070
    44
1040
1.0
1070
    74
1070
     0
1000
MTEXTEND
  0
MTEXT
  5
B81B
330
1F
100
AcDbEntity
  8
AM_6
100
AcDbMText
 10
147.1858661503986
 20
32.50216534622666
 30
0.0
 40
3.2
 41
25.0
 71
     5
 72
     5
  1
EL-105S-1
 73
     1
 44
1.0
1001
ACAD
1000
MTEXTBEGIN
1070
    73
1070
     1
1070
    44
1040
1.0
1070
    74
1070
     0
1000
MTEXTEND
1000
ACAD_MTEXT_DEFINED_HEIGHT_BEGIN
1070
    46
1040
10.00000000000003
1000
ACAD_MTEXT_DEFINED_HEIGHT_END
  0
LINE
  5
B81C
330
1F
100
AcDbEntity
  8
AM_0
100
AcDbLine
 10
159.6858661503986
 20
44.50216534622664
 30
0.0
 11
159.6858661503986
 21
17.50216534622665
 31
0.0
  0
LINE
  5
B81D
330
1F
100
AcDbEntity
  8
AM_0
100
AcDbLine
 10
171.6858661503986
 20
44.50216534622664
 30
0.0
 11
171.6858661503986
 21
17.50216534622665
 31
0.0
  0
MTEXT
  5
B81E
330
1F
100
AcDbEntity
  8
AM_6
100
AcDbMText
 10
177.6858661503986
 20
32.50216534622666
 30
0.0
 40
3.2
 41
12.0
 71
     5
 72
     5
  1
40
 73
     1
 44
1.0
1001
ACAD
1000
MTEXTBEGIN
1070
    73
1070
     1
1070
    44
1040
1.0
1070
    74
1070
     0
1000
MTEXTEND
1000
ACAD_MTEXT_DEFINED_HEIGHT_BEGIN
1070
    46
1040
10.00000000000003
1000
ACAD_MTEXT_DEFINED_HEIGHT_END
  0
MTEXT
  5
B81F
330
1F
100
AcDbEntity
  8
AM_6
100
AcDbMText
 10
165.6858661503986
 20
41.00216534622664
 30
0.0
 40
3.2
 41
12.0
 71
     5
 72
     5
  1
A
 73
     1
 44
1.0
1001
ACAD
1000
MTEXTBEGIN
1070
    73
1070
     1
1070
    44
1040
1.0
1070
    74
1070
     0
1000
MTEXTEND
  0
LINE
  5
B820
330
1F
100
AcDbEntity
  8
AM_0
100
AcDbLine
 10
183.6858661503986
 20
44.50216534622664
 30
0.0
 11
183.6858661503986
 21
17.50216534622665
 31
0.0
  0
MTEXT
  5
B821
330
1F
100
AcDbEntity
  8
AM_6
100
AcDbMText
 10
177.6858661503986
 20
41.00216534622664
 30
0.0
 40
3.2
 41
12.0
 71
     5
 72
     5
  1
B
 73
     1
 44
1.0
1001
ACAD
1000
MTEXTBEGIN
1070
    73
1070
     1
1070
    44
1040
1.0
1070
    74
1070
     0
1000
MTEXTEND
  0
LINE
  5
B822
330
1F
100
AcDbEntity
  8
AM_0
100
AcDbLine
 10
195.6858661503986
 20
44.50216534622664
 30
0.0
 11
195.6858661503986
 21
17.50216534622665
 31
0.0
  0
MTEXT
  5
B823
330
1F
100
AcDbEntity
  8
AM_6
100
AcDbMText
 10
189.6858661503986
 20
41.00216534622664
 30
0.0
 40
3.2
 41
12.0
 71
     5
 72
     5
  1
C
 73
     1
 44
1.0
1001
ACAD
1000
MTEXTBEGIN
1070
    73
1070
     1
1070
    44
1040
1.0
1070
    74
1070
     0
1000
MTEXTEND
  0
LINE
  5
B824
330
1F
100
AcDbEntity
  8
AM_0
100
AcDbLine
 10
207.6858661503986
 20
44.50216534622664
 30
0.0
 11
207.6858661503986
 21
17.50216534622665
 31
0.0
  0
MTEXT
  5
B825
330
1F
100
AcDbEntity
  8
AM_6
100
AcDbMText
 10
214.6858661503986
 20
32.50216534622663
 30
0.0
 40
3.2
 41
14.0
 71
     5
 72
     5
  1
25~28
 73
     1
 44
1.0
1001
ACAD
1000
MTEXTBEGIN
1070
    73
1070
     1
1070
    44
1040
1.0
1070
    74
1070
     0
1000
MTEXTEND
1000
ACAD_MTEXT_DEFINED_HEIGHT_BEGIN
1070
    46
1040
10.00000000000011
1000
ACAD_MTEXT_DEFINED_HEIGHT_END
  0
MTEXT
  5
B826
330
1F
100
AcDbEntity
  8
AM_6
100
AcDbMText
 10
201.6858661503986
 20
41.00216534622664
 30
0.0
 40
3.2
 41
12.0
 71
     5
 72
     5
  1
D
 73
     1
 44
1.0
1001
ACAD
1000
MTEXTBEGIN
1070
    73
1070
     1
1070
    44
1040
1.0
1070
    74
1070
     0
1000
MTEXTEND
  0
LINE
  5
B827
330
1F
100
AcDbEntity
  8
AM_0
100
AcDbLine
 10
221.6858661503986
 20
44.50216534622664
 30
0.0
 11
221.6858661503986
 21
17.50216534622665
 31
0.0
  0
MTEXT
  5
B828
330
1F
100
AcDbEntity
  8
AM_6
100
AcDbMText
 10
201.6858661503986
 20
32.50216534622666
 30
0.0
 40
3.2
 41
12.0
 71
     5
 72
     5
  1
23
 73
     1
 44
1.0
1001
ACAD
1000
MTEXTBEGIN
1070
    73
1070
     1
1070
    44
1040
1.0
1070
    74
1070
     0
1000
MTEXTEND
1000
ACAD_MTEXT_DEFINED_HEIGHT_BEGIN
1070
    46
1040
10.00000000000009
1000
ACAD_MTEXT_DEFINED_HEIGHT_END
  0
MTEXT
  5
B829
330
1F
100
AcDbEntity
  8
AM_6
100
AcDbMText
 10
214.6858661503986
 20
41.00216534622664
 30
0.0
 40
3.2
 41
14.0
 71
     5
 72
     5
  1
E
 73
     1
 44
1.0
1001
ACAD
1000
MTEXTBEGIN
1070
    73
1070
     1
1070
    44
1040
1.0
1070
    74
1070
     0
1000
MTEXTEND
  0
LINE
  5
B82A
330
1F
100
AcDbEntity
  8
AM_0
100
AcDbLine
 10
233.6858661503986
 20
44.50216534622664
 30
0.0
 11
233.6858661503986
 21
17.50216534622665
 31
0.0
  0
MTEXT
  5
B82B
330
1F
100
AcDbEntity
  8
AM_6
100
AcDbMText
 10
227.6858661503986
 20
32.50216534622663
 30
0.0
 40
3.2
 41
12.0
 71
     5
 72
     5
  1
18
 73
     1
 44
1.0
1001
ACAD
1000
MTEXTBEGIN
1070
    73
1070
     1
1070
    44
1040
1.0
1070
    74
1070
     0
1000
MTEXTEND
1000
ACAD_MTEXT_DEFINED_HEIGHT_BEGIN
1070
    46
1040
10.00000000000002
1000
ACAD_MTEXT_DEFINED_HEIGHT_END
  0
MTEXT
  5
B82C
330
1F
100
AcDbEntity
  8
AM_6
100
AcDbMText
 10
227.6858661503986
 20
41.00216534622664
 30
0.0
 40
3.2
 41
12.0
 71
     5
 72
     5
  1
F
 73
     1
 44
1.0
1001
ACAD
1000
MTEXTBEGIN
1070
    73
1070
     1
1070
    44
1040
1.0
1070
    74
1070
     0
1000
MTEXTEND
  0
LINE
  5
B82D
330
1F
100
AcDbEntity
  8
AM_0
100
AcDbLine
 10
293.6858661503986
 20
44.50216534622664
 30
0.0
 11
293.6858661503986
 21
17.50216534622665
 31
0.0
  0
MTEXT
  5
B82E
330
1F
100
AcDbEntity
  8
AM_6
100
AcDbMText
 10
239.6858661503986
 20
41.00216534622664
 30
0.0
 40
3.2
 41
12.0
 71
     5
 72
     5
  1
G
 73
     1
 44
1.0
1001
ACAD
1000
MTEXTBEGIN
1070
    73
1070
     1
1070
    44
1040
1.0
1070
    74
1070
     0
1000
MTEXTEND
  0
LINE
  5
B82F
330
1F
100
AcDbEntity
  8
AM_2
100
AcDbLine
 10
134.6858661503986
 20
27.50216534622664
 30
0.0
 11
305.6858661503988
 21
27.50216534622659
 31
0.0
  0
LINE
  5
B830
330
1F
100
AcDbEntity
  8
AM_0
100
AcDbLine
 10
257.6858661503986
 20
44.50216534622664
 30
0.0
 11
257.6858661503986
 21
17.50216534622665
 31
0.0
  0
MTEXT
  5
B831
330
1F
100
AcDbEntity
  8
AM_6
100
AcDbMText
 10
251.6858661503986
 20
41.00216534622664
 30
0.0
 40
3.2
 41
12.0
 71
     5
 72
     5
  1
H
 73
     1
 44
1.0
1001
ACAD
1000
MTEXTBEGIN
1070
    73
1070
     1
1070
    44
1040
1.0
1070
    74
1070
     0
1000
MTEXTEND
  0
MTEXT
  5
B832
330
1F
100
AcDbEntity
  8
AM_6
100
AcDbMText
 10
263.6858661503986
 20
41.00216534622664
 30
0.0
 40
3.2
 41
12.0
 71
     5
 72
     5
  1
Ｉ
 73
     1
 44
1.0
1001
ACAD
1000
MTEXTBEGIN
1070
    73
1070
     1
1070
    44
1040
1.0
1070
    74
1070
     0
1000
MTEXTEND
  0
MTEXT
  5
B833
330
1F
100
AcDbEntity
  8
AM_6
100
AcDbMText
 10
165.6858661503986
 20
32.50216534622666
 30
0.0
 40
3.2
 41
12.0
 71
     5
 72
     5
  1
54
 73
     1
 44
1.0
1001
ACAD
1000
MTEXTBEGIN
1070
    73
1070
     1
1070
    44
1040
1.0
1070
    74
1070
     0
1000
MTEXTEND
1000
ACAD_MTEXT_DEFINED_HEIGHT_BEGIN
1070
    46
1040
10.00000000000002
1000
ACAD_MTEXT_DEFINED_HEIGHT_END
  0
MTEXT
  5
B834
330
1F
100
AcDbEntity
  8
AM_6
100
AcDbMText
 10
189.6858661503986
 20
32.50216534622666
 30
0.0
 40
3.2
 41
12.0
 71
     5
 72
     5
  1
16
 73
     1
 44
1.0
1001
ACAD
1000
MTEXTBEGIN
1070
    73
1070
     1
1070
    44
1040
1.0
1070
    74
1070
     0
1000
MTEXTEND
1000
ACAD_MTEXT_DEFINED_HEIGHT_BEGIN
1070
    46
1040
10.00000000000003
1000
ACAD_MTEXT_DEFINED_HEIGHT_END
  0
MTEXT
  5
B835
330
1F
100
AcDbEntity
  8
AM_6
100
AcDbMText
 10
239.6858661503986
 20
32.50216534622665
 30
0.0
 40
3.2
 41
12.0
 71
     5
 72
     5
  1
105
 73
     1
 44
1.0
1001
ACAD
1000
MTEXTBEGIN
1070
    73
1070
     1
1070
    44
1040
1.0
1070
    74
1070
     0
1000
MTEXTEND
1000
ACAD_MTEXT_DEFINED_HEIGHT_BEGIN
1070
    46
1040
10.00000000000007
1000
ACAD_MTEXT_DEFINED_HEIGHT_END
  0
MTEXT
  5
B836
330
1F
100
AcDbEntity
  8
AM_6
100
AcDbMText
 10
251.6858661503986
 20
32.50216534622665
 30
0.0
 40
3.2
 41
12.0
 71
     5
 72
     5
  1
20
 73
     1
 44
1.0
1001
ACAD
1000
MTEXTBEGIN
1070
    73
1070
     1
1070
    44
1040
1.0
1070
    74
1070
     0
1000
MTEXTEND
1000
ACAD_MTEXT_DEFINED_HEIGHT_BEGIN
1070
    46
1040
10.00000000000007
1000
ACAD_MTEXT_DEFINED_HEIGHT_END
  0
MTEXT
  5
B837
330
1F
100
AcDbEntity
  8
AM_6
100
AcDbMText
 10
263.6858661503986
 20
32.50216534622666
 30
0.0
 40
3.2
 41
12.0
 71
     5
 72
     5
  1
17.5
 73
     1
 44
1.0
1001
ACAD
1000
MTEXTBEGIN
1070
    73
1070
     1
1070
    44
1040
1.0
1070
    74
1070
     0
1000
MTEXTEND
1000
ACAD_MTEXT_DEFINED_HEIGHT_BEGIN
1070
    46
1040
10.00000000000008
1000
ACAD_MTEXT_DEFINED_HEIGHT_END
  0
LINE
  5
B838
330
1F
100
AcDbEntity
  8
AM_0
100
AcDbLine
 10
269.6858661503986
 20
44.50216534622664
 30
0.0
 11
269.6858661503986
 21
17.50216534622665
 31
0.0
  0
MTEXT
  5
B839
330
1F
100
AcDbEntity
  8
AM_6
100
AcDbMText
 10
275.6858661503986
 20
41.00216534622664
 30
0.0
 40
3.2
 41
12.0
 71
     5
 72
     5
  1
J
 73
     1
 44
1.0
1001
ACAD
1000
MTEXTBEGIN
1070
    73
1070
     1
1070
    44
1040
1.0
1070
    74
1070
     0
1000
MTEXTEND
  0
MTEXT
  5
B83A
330
1F
100
AcDbEntity
  8
AM_6
100
AcDbMText
 10
275.6858661503986
 20
32.50216534622666
 30
0.0
 40
3.2
 41
12.0
 71
     5
 72
     5
  1
10.5
 73
     1
 44
1.0
1001
ACAD
1000
MTEXTBEGIN
1070
    73
1070
     1
1070
    44
1040
1.0
1070
    74
1070
     0
1000
MTEXTEND
1000
ACAD_MTEXT_DEFINED_HEIGHT_BEGIN
1070
    46
1040
10.00000000000008
1000
ACAD_MTEXT_DEFINED_HEIGHT_END
  0
LINE
  5
B83B
330
1F
100
AcDbEntity
  8
AM_0
100
AcDbLine
 10
281.6858661503986
 20
44.50216534622664
 30
0.0
 11
281.6858661503986
 21
17.50216534622665
 31
0.0
  0
MTEXT
  5
B83C
330
1F
100
AcDbEntity
  8
AM_6
100
AcDbMText
 10
287.6858661503986
 20
41.00216534622664
 30
0.0
 40
3.2
 41
12.0
 71
     5
 72
     5
  1
（K）
 73
     1
 44
1.0
1001
ACAD
1000
MTEXTBEGIN
1070
    73
1070
     1
1070
    44
1040
1.0
1070
    74
1070
     0
1000
MTEXTEND
  0
MTEXT
  5
B83D
330
1F
100
AcDbEntity
  8
AM_6
100
AcDbMText
 10
287.6858661503986
 20
32.50216534622666
 30
0.0
 40
3.2
 41
12.0
 71
     5
 72
     5
  1
23.5
 73
     1
 44
1.0
1001
ACAD
1000
MTEXTBEGIN
1070
    73
1070
     1
1070
    44
1040
1.0
1070
    74
1070
     0
1000
MTEXTEND
1000
ACAD_MTEXT_DEFINED_HEIGHT_BEGIN
1070
    46
1040
10.00000000000009
1000
ACAD_MTEXT_DEFINED_HEIGHT_END
  0
LINE
  5
B83E
330
1F
100
AcDbEntity
  8
AM_0
100
AcDbLine
 10
245.6858661503986
 20
44.50216534622664
 30
0.0
 11
245.6858661503986
 21
17.50216534622665
 31
0.0
  0
LINE
  5
B83F
330
1F
100
AcDbEntity
  8
AM_0
100
AcDbLine
 10
134.6858661503986
 20
17.50216534622665
 30
0.0
 11
305.6858661503988
 21
17.50216534622665
 31
0.0
  0
MTEXT
  5
B840
330
1F
100
AcDbEntity
  8
AM_6
100
AcDbMText
 10
147.1858661503986
 20
22.50216534622664
 30
0.0
 40
3.2
 41
25.0
 71
     5
 72
     5
  1
EL-105S-2
 73
     1
 44
1.0
1001
ACAD
1000
MTEXTBEGIN
1070
    73
1070
     1
1070
    44
1040
1.0
1070
    74
1070
     0
1000
MTEXTEND
1000
ACAD_MTEXT_DEFINED_HEIGHT_BEGIN
1070
    46
1040
9.999999999999991
1000
ACAD_MTEXT_DEFINED_HEIGHT_END
  0
MTEXT
  5
B841
330
1F
100
AcDbEntity
  8
AM_6
100
AcDbMText
 10
177.6858661503986
 20
22.50216534622663
 30
0.0
 40
3.2
 41
12.0
 71
     5
 72
     5
  1
50
 73
     1
 44
1.0
1001
ACAD
1000
MTEXTBEGIN
1070
    73
1070
     1
1070
    44
1040
1.0
1070
    74
1070
     0
1000
MTEXTEND
1000
ACAD_MTEXT_DEFINED_HEIGHT_BEGIN
1070
    46
1040
9.999999999999984
1000
ACAD_MTEXT_DEFINED_HEIGHT_END
  0
MTEXT
  5
B842
330
1F
100
AcDbEntity
  8
AM_6
100
AcDbMText
 10
214.6858661503986
 20
22.50216534622663
 30
0.0
 40
3.2
 41
14.0
 71
     5
 72
     5
  1
30~33
 73
     1
 44
1.0
1001
ACAD
1000
MTEXTBEGIN
1070
    73
1070
     1
1070
    44
1040
1.0
1070
    74
1070
     0
1000
MTEXTEND
1000
ACAD_MTEXT_DEFINED_HEIGHT_BEGIN
1070
    46
1040
9.999999999999955
1000
ACAD_MTEXT_DEFINED_HEIGHT_END
  0
MTEXT
  5
B843
330
1F
100
AcDbEntity
  8
AM_6
100
AcDbMText
 10
201.6858661503986
 20
22.50216534622663
 30
0.0
 40
3.2
 41
12.0
 71
     5
 72
     5
  1
28
 73
     1
 44
1.0
1001
ACAD
1000
MTEXTBEGIN
1070
    73
1070
     1
1070
    44
1040
1.0
1070
    74
1070
     0
1000
MTEXTEND
1000
ACAD_MTEXT_DEFINED_HEIGHT_BEGIN
1070
    46
1040
10.00000000000004
1000
ACAD_MTEXT_DEFINED_HEIGHT_END
  0
MTEXT
  5
B844
330
1F
100
AcDbEntity
  8
AM_6
100
AcDbMText
 10
227.6858661503986
 20
22.50216534622663
 30
0.0
 40
3.2
 41
12.0
 71
     5
 72
     5
  1
23
 73
     1
 44
1.0
1001
ACAD
1000
MTEXTBEGIN
1070
    73
1070
     1
1070
    44
1040
1.0
1070
    74
1070
     0
1000
MTEXTEND
1000
ACAD_MTEXT_DEFINED_HEIGHT_BEGIN
1070
    46
1040
10.00000000000004
1000
ACAD_MTEXT_DEFINED_HEIGHT_END
  0
MTEXT
  5
B845
330
1F
100
AcDbEntity
  8
AM_6
100
AcDbMText
 10
165.6858661503986
 20
22.50216534622663
 30
0.0
 40
3.2
 41
12.0
 71
     5
 72
     5
  1
70
 73
     1
 44
1.0
1001
ACAD
1000
MTEXTBEGIN
1070
    73
1070
     1
1070
    44
1040
1.0
1070
    74
1070
     0
1000
MTEXTEND
1000
ACAD_MTEXT_DEFINED_HEIGHT_BEGIN
1070
    46
1040
9.999999999999984
1000
ACAD_MTEXT_DEFINED_HEIGHT_END
  0
MTEXT
  5
B846
330
1F
100
AcDbEntity
  8
AM_6
100
AcDbMText
 10
189.6858661503986
 20
22.50216534622663
 30
0.0
 40
3.2
 41
12.0
 71
     5
 72
     5
  1
20
 73
     1
 44
1.0
1001
ACAD
1000
MTEXTBEGIN
1070
    73
1070
     1
1070
    44
1040
1.0
1070
    74
1070
     0
1000
MTEXTEND
1000
ACAD_MTEXT_DEFINED_HEIGHT_BEGIN
1070
    46
1040
9.999999999999984
1000
ACAD_MTEXT_DEFINED_HEIGHT_END
  0
MTEXT
  5
B847
330
1F
100
AcDbEntity
  8
AM_6
100
AcDbMText
 10
239.6858661503986
 20
22.5021653462266
 30
0.0
 40
3.2
 41
12.0
 71
     5
 72
     5
  1
130
 73
     1
 44
1.0
1001
ACAD
1000
MTEXTBEGIN
1070
    73
1070
     1
1070
    44
1040
1.0
1070
    74
1070
     0
1000
MTEXTEND
1000
ACAD_MTEXT_DEFINED_HEIGHT_BEGIN
1070
    46
1040
9.999999999999991
1000
ACAD_MTEXT_DEFINED_HEIGHT_END
  0
MTEXT
  5
B848
330
1F
100
AcDbEntity
  8
AM_6
100
AcDbMText
 10
251.6858661503986
 20
22.5021653462266
 30
0.0
 40
3.2
 41
12.0
 71
     5
 72
     5
  1
24
 73
     1
 44
1.0
1001
ACAD
1000
MTEXTBEGIN
1070
    73
1070
     1
1070
    44
1040
1.0
1070
    74
1070
     0
1000
MTEXTEND
1000
ACAD_MTEXT_DEFINED_HEIGHT_BEGIN
1070
    46
1040
9.999999999999991
1000
ACAD_MTEXT_DEFINED_HEIGHT_END
  0
MTEXT
  5
B849
330
1F
100
AcDbEntity
  8
AM_6
100
AcDbMText
 10
287.6858661503986
 20
22.5021653462266
 30
0.0
 40
3.2
 41
12.0
 71
     5
 72
     5
  1
24
 73
     1
 44
1.0
1001
ACAD
1000
MTEXTBEGIN
1070
    73
1070
     1
1070
    44
1040
1.0
1070
    74
1070
     0
1000
MTEXTEND
1000
ACAD_MTEXT_DEFINED_HEIGHT_BEGIN
1070
    46
1040
9.999999999999976
1000
ACAD_MTEXT_DEFINED_HEIGHT_END
  0
MTEXT
  5
B84A
330
1F
100
AcDbEntity
  8
AM_6
100
AcDbMText
 10
299.6858661503986
 20
22.5021653462266
 30
0.0
 40
3.2
 41
12.0
 71
     5
 72
     5
  1
44
 73
     1
 44
1.0
1001
ACAD
1000
MTEXTBEGIN
1070
    73
1070
     1
1070
    44
1040
1.0
1070
    74
1070
     0
1000
MTEXTEND
1000
ACAD_MTEXT_DEFINED_HEIGHT_BEGIN
1070
    46
1040
9.999999999999976
1000
ACAD_MTEXT_DEFINED_HEIGHT_END
  0
MTEXT
  5
B84B
330
1F
100
AcDbEntity
  8
AM_6
100
AcDbMText
 10
263.6858661503986
 20
22.5021653462266
 30
0.0
 40
3.2
 41
12.0
 71
     5
 72
     5
  1
18
 73
     1
 44
1.0
1001
ACAD
1000
MTEXTBEGIN
1070
    73
1070
     1
1070
    44
1040
1.0
1070
    74
1070
     0
1000
MTEXTEND
1000
ACAD_MTEXT_DEFINED_HEIGHT_BEGIN
1070
    46
1040
9.999999999999984
1000
ACAD_MTEXT_DEFINED_HEIGHT_END
  0
LINE
  5
B84C
330
1F
100
AcDbEntity
  8
AM_0
100
AcDbLine
 10
305.6858661503986
 20
44.50216534622664
 30
0.0
 11
305.6858661503986
 21
17.50216534622665
 31
0.0
  0
MTEXT
  5
B84D
330
1F
100
AcDbEntity
  8
AM_6
100
AcDbMText
 10
299.6858661503986
 20
41.00216534622664
 30
0.0
 40
3.2
 41
12.0
 71
     5
 72
     5
  1
（L ）
 73
     1
 44
1.0
1001
ACAD
1000
MTEXTBEGIN
1070
    73
1070
     1
1070
    44
1040
1.0
1070
    74
1070
     0
1000
MTEXTEND
  0
MTEXT
  5
B84E
330
1F
100
AcDbEntity
  8
AM_6
100
AcDbMText
 10
299.6858661503986
 20
32.50216534622666
 30
0.0
 40
3.2
 41
12.0
 71
     5
 72
     5
  1
32
 73
     1
 44
1.0
1001
ACAD
1000
MTEXTBEGIN
1070
    73
1070
     1
1070
    44
1040
1.0
1070
    74
1070
     0
1000
MTEXTEND
1000
ACAD_MTEXT_DEFINED_HEIGHT_BEGIN
1070
    46
1040
10.00000000000009
1000
ACAD_MTEXT_DEFINED_HEIGHT_END
  0
MTEXT
  5
B84F
330
1F
100
AcDbEntity
  8
AM_6
100
AcDbMText
 10
275.6858661503986
 20
22.5021653462266
 30
0.0
 40
3.2
 41
12.0
 71
     5
 72
     5
  1
12.5
 73
     1
 44
1.0
1001
ACAD
1000
MTEXTBEGIN
1070
    73
1070
     1
1070
    44
1040
1.0
1070
    74
1070
     0
1000
MTEXTEND
1000
ACAD_MTEXT_DEFINED_HEIGHT_BEGIN
1070
    46
1040
9.999999999999984
1000
ACAD_MTEXT_DEFINED_HEIGHT_END
  0
LINE
  5
B850
330
1F
100
AcDbEntity
  8
0受け
100
AcDbLine
 10
146.7098806214924
 20
202.5441110855399
 30
0.0
 11
162.7098806214924
 21
202.544111085539
 31
0.0
  0
LINE
  5
B851
330
1F
100
AcDbEntity
  8
0受け
100
AcDbLine
 10
162.7098806214924
 20
132.544111085539
 30
0.0
 11
146.7098806214924
 21
132.544111085539
 31
0.0
  0
ARC
  5
B852
330
1F
100
AcDbEntity
  8
0受け
100
AcDbCircle
 10
162.7098806214924
 20
134.544111085539
 30
0.0
 40
2.0
100
AcDbArc
 50
270.0
 51
0.0
1001
GENIUS_GENOBJ-N-FIL_13
1002
{
1000
OWNER
1000
GEN
1002
}
1001
GENIUS_GENODEF_13
1002
{
1000
HIER
1070
     0
1002
}
1002
{
1000
MANEDIT
1070
     0
1002
}
1002
{
1000
NOSEL
1070
     0
1002
}
1002
{
1000
BEHIND
1070
     0
1002
}
1002
{
1000
OTHER
1070
     0
1002
}
1002
{
1000
REACTOR
1002
}
  0
ARC
  5
B853
330
1F
100
AcDbEntity
  8
0受け
100
AcDbCircle
 10
146.7098806214924
 20
134.544111085539
 30
0.0
 40
2.0
100
AcDbArc
 50
180.0
 51
270.0
1001
GENIUS_GENOBJ-N-FIL_13
1002
{
1000
OWNER
1000
GEN
1002
}
1001
GENIUS_GENODEF_13
1002
{
1000
HIER
1070
     0
1002
}
1002
{
1000
MANEDIT
1070
     0
1002
}
1002
{
1000
NOSEL
1070
     0
1002
}
1002
{
1000
BEHIND
1070
     0
1002
}
1002
{
1000
OTHER
1070
     0
1002
}
1002
{
1000
REACTOR
1002
}
  0
CIRCLE
  5
B854
330
1F
100
AcDbEntity
  8
0受け
100
AcDbCircle
 10
154.7098806214924
 20
142.544111085539
 30
0.0
 40
2.649999999998499
  0
CIRCLE
  5
B855
330
1F
100
AcDbEntity
  8
0受け
100
AcDbCircle
 10
154.7098806214924
 20
192.544111085539
 30
0.0
 40
2.649999999998499
  0
CIRCLE
  5
B856
330
1F
100
AcDbEntity
  8
0受け
100
AcDbCircle
 10
154.7098806214924
 20
192.544111085539
 30
0.0
 40
5.099999999999999
  0
CIRCLE
  5
B857
330
1F
100
AcDbEntity
  8
0受け
100
AcDbCircle
 10
154.7098806214924
 20
142.544111085539
 30
0.0
 40
5.099999999999999
  0
LINE
  5
B858
330
1F
100
AcDbEntity
  8
0受け
100
AcDbLine
 10
144.7098806214924
 20
200.54411108554
 30
0.0
 11
144.7098806214924
 21
134.544111085539
 31
0.0
  0
ARC
  5
B859
330
1F
100
AcDbEntity
  8
0受け
100
AcDbCircle
 10
146.7098806214924
 20
200.54411108554
 30
0.0
 40
2.0
100
AcDbArc
 50
90.0
 51
180.0
1001
GENIUS_GENOBJ-N-FIL_13
1002
{
1000
OWNER
1000
GEN
1002
}
1001
GENIUS_GENODEF_13
1002
{
1000
HIER
1070
     0
1002
}
1002
{
1000
MANEDIT
1070
     0
1002
}
1002
{
1000
NOSEL
1070
     0
1002
}
1002
{
1000
BEHIND
1070
     0
1002
}
1002
{
1000
OTHER
1070
     0
1002
}
1002
{
1000
REACTOR
1002
}
  0
LINE
  5
B85A
330
1F
100
AcDbEntity
  8
0受け
100
AcDbLine
 10
164.7098806214924
 20
134.544111085539
 30
0.0
 11
164.7098806214924
 21
200.544111085539
 31
0.0
  0
ARC
  5
B85B
330
1F
100
AcDbEntity
  8
0受け
100
AcDbCircle
 10
162.7098806214924
 20
200.544111085539
 30
0.0
 40
2.0
100
AcDbArc
 50
0.0
 51
90.0
1001
GENIUS_GENOBJ-N-FIL_13
1002
{
1000
OWNER
1000
GEN
1002
}
1001
GENIUS_GENODEF_13
1002
{
1000
HIER
1070
     0
1002
}
1002
{
1000
MANEDIT
1070
     0
1002
}
1002
{
1000
NOSEL
1070
     0
1002
}
1002
{
1000
BEHIND
1070
     0
1002
}
1002
{
1000
OTHER
1070
     0
1002
}
1002
{
1000
REACTOR
1002
}
  0
LINE
  5
B85C
330
1F
100
AcDbEntity
  8
0受け
370
    13
100
AcDbLine
 10
146.2098806214924
 20
179.0441110855399
 30
0.0
 11
160.2098806214933
 21
179.0441110855399
 31
0.0
  0
LINE
  5
B85D
330
1F
100
AcDbEntity
  8
0受け
370
    13
100
AcDbLine
 10
160.2098806214933
 20
156.044111085539
 30
0.0
 11
146.2098806214924
 21
156.0441110855399
 31
0.0
  0
LINE
  5
B85E
330
1F
100
AcDbEntity
  8
0受け
100
AcDbLine
 10
152.7098806214924
 20
179.7941110855397
 30
0.0
 11
152.7098806214924
 21
180.544111085539
 31
0.0
  0
LINE
  5
B85F
330
1F
100
AcDbEntity
  8
0受け
100
AcDbLine
 10
152.7098806214924
 20
155.2941110855392
 30
0.0
 11
152.7098806214924
 21
154.544111085539
 31
0.0
  0
LINE
  5
B860
330
1F
100
AcDbEntity
  8
0受け
370
    13
100
AcDbLine
 10
151.7098806214924
 20
153.544111085539
 30
0.0
 11
146.2098806214924
 21
153.544111085539
 31
0.0
  0
LINE
  5
B861
330
1F
100
AcDbEntity
  8
0受け
370
    13
100
AcDbLine
 10
151.7098806214924
 20
181.544111085539
 30
0.0
 11
146.2098806214924
 21
181.544111085539
 31
0.0
  0
ARC
  5
B862
330
1F
100
AcDbEntity
  8
0受け
370
    13
100
AcDbCircle
 10
146.2098806214924
 20
180.044111085539
 30
0.0
 40
1.5
100
AcDbArc
 50
90.0
 51
180.0
  0
ARC
  5
B863
330
1F
100
AcDbEntity
  8
0受け
370
    13
100
AcDbCircle
 10
151.7098806214924
 20
180.544111085539
 30
0.0
 40
1.0
100
AcDbArc
 50
0.0
 51
90.0
  0
ARC
  5
B864
330
1F
100
AcDbEntity
  8
0受け
370
    13
100
AcDbCircle
 10
146.2098806214924
 20
155.044111085539
 30
0.0
 40
1.5
100
AcDbArc
 50
180.0
 51
270.0
  0
ARC
  5
B865
330
1F
100
AcDbEntity
  8
0受け
370
    13
100
AcDbCircle
 10
151.7098806214924
 20
154.544111085539
 30
0.0
 40
1.0
100
AcDbArc
 50
270.0
 51
0.0
  0
ARC
  5
B866
330
1F
100
AcDbEntity
  8
0受け
370
    13
100
AcDbCircle
 10
146.2098806214924
 20
177.5441110855399
 30
0.0
 40
1.5
100
AcDbArc
 50
90.0
 51
180.0
  0
ARC
  5
B867
330
1F
100
AcDbEntity
  8
0受け
370
    13
100
AcDbCircle
 10
146.2098806214924
 20
157.5441110855381
 30
0.0
 40
1.5
100
AcDbArc
 50
180.0
 51
270.0
  0
LINE
  5
B868
330
1F
100
AcDbEntity
  8
0受け
100
AcDbLine
 10
162.7098806214924
 20
177.2568049128799
 30
0.0
 11
162.7098806214933
 21
157.831417258199
 31
0.0
  0
ARC
  5
B869
330
1F
100
AcDbEntity
  8
0受け
370
    13
100
AcDbCircle
 10
160.2098806214933
 20
158.544111085539
 30
0.0
 40
2.5
100
AcDbArc
 50
270.0
 51
0.0
  0
LINE
  5
B86A
330
1F
100
AcDbEntity
  8
0受け
100
AcDbLine
 10
152.7098806214924
 20
155.2941110855395
 30
0.0
 11
155.7299028932364
 21
155.2941110855399
 31
0.0
  0
ELLIPSE
  5
B86B
330
1F
100
AcDbEntity
  8
0受け
100
AcDbEllipse
 10
155.8302168877887
 20
155.6558338517266
 30
0.0
 11
-9.858789742798547
 21
-0.0000178599221677
 31
0.0
210
0.0
220
0.0
230
1.0
 40
0.0366903869249898
 41
1.456911930564145
 42
2.043459032193934
  0
ARC
  5
B86C
330
1F
100
AcDbEntity
  8
0受け
100
AcDbCircle
 10
160.2098806214924
 20
157.831417258199
 30
0.0
 40
2.5
100
AcDbArc
 50
272.4905440283131
 51
0.0
  0
ARC
  5
B86D
330
1F
100
AcDbEntity
  8
0受け
370
    13
100
AcDbCircle
 10
160.2098806214933
 20
176.5441110855399
 30
0.0
 40
2.5
100
AcDbArc
 50
0.0
 51
90.0
  0
LINE
  5
B86E
330
1F
100
AcDbEntity
  8
0受け
100
AcDbLine
 10
152.7098806214924
 20
179.7941110855395
 30
0.0
 11
155.7299028932364
 21
179.794111085539
 31
0.0
  0
ELLIPSE
  5
B86F
330
1F
100
AcDbEntity
  8
0受け
100
AcDbEllipse
 10
155.7307143597779
 20
179.4323864121093
 30
0.0
 11
-10.0779512448972
 21
0.0000283174202099
 31
0.0
210
0.0
220
0.0
230
-1.0
 40
0.0358926793285981
 41
1.570715706943621
 42
2.043428611662813
  0
ARC
  5
B870
330
1F
100
AcDbEntity
  8
0受け
100
AcDbCircle
 10
160.2098806214924
 20
177.2568049128799
 30
0.0
 40
2.5
100
AcDbArc
 50
0.0
 51
87.50945597168692
  0
LINE
  5
B871
330
1F
100
AcDbEntity
  8
AM_7
 48
0.5
100
AcDbLine
 10
146.6098806214929
 20
192.5441110855395
 30
0.0
 11
162.8098806214928
 21
192.5441110855395
 31
0.0
1001
GENIUS_GENODEF_13
1002
{
1000
HIER
1070
     0
1002
}
1002
{
1000
MANEDIT
1070
     0
1002
}
1002
{
1000
NOSEL
1070
     0
1002
}
1002
{
1000
BEHIND
1070
     0
1002
}
1002
{
1000
OTHER
1070
     0
1002
}
1002
{
1000
REACTOR
1002
}
1001
GENIUS_GENOBJ-N-CEN_13
1002
{
1000
OWNER
1000
GEN
1002
}
1001
GENIUS_GENCEN_19
1002
{
1040
3.0
1002
}
  0
LINE
  5
B872
330
1F
100
AcDbEntity
  8
AM_7
 48
0.5
100
AcDbLine
 10
146.6098806214929
 20
142.5441110855395
 30
0.0
 11
162.8098806214928
 21
142.5441110855395
 31
0.0
1001
GENIUS_GENODEF_13
1002
{
1000
HIER
1070
     0
1002
}
1002
{
1000
MANEDIT
1070
     0
1002
}
1002
{
1000
NOSEL
1070
     0
1002
}
1002
{
1000
BEHIND
1070
     0
1002
}
1002
{
1000
OTHER
1070
     0
1002
}
1002
{
1000
REACTOR
1002
}
1001
GENIUS_GENOBJ-N-CEN_13
1002
{
1000
OWNER
1000
GEN
1002
}
1001
GENIUS_GENCEN_19
1002
{
1040
3.0
1002
}
  0
LINE
  5
B873
330
1F
100
AcDbEntity
  8
0受け
370
    13
100
AcDbLine
 10
146.2098806214924
 20
268.7493691820705
 30
0.0
 11
163.2179530081564
 21
268.7493691820705
 31
0.0
  0
LINE
  5
B874
330
1F
100
AcDbEntity
  8
0受け
100
AcDbLine
 10
146.2098806214924
 20
265.7493691820705
 30
0.0
 11
163.7098806214924
 21
265.7493691820714
 31
0.0
  0
ARC
  5
B875
330
1F
100
AcDbEntity
  8
0受け
100
AcDbCircle
 10
163.7098806214924
 20
266.7493691820714
 30
0.0
 40
1.0
100
AcDbArc
 50
270.0
 51
0.0
1001
GENIUS_GENOBJ-N-FIL_13
1002
{
1000
OWNER
1000
GEN
1002
}
1001
GENIUS_GENODEF_13
1002
{
1000
HIER
1070
     0
1002
}
1002
{
1000
MANEDIT
1070
     0
1002
}
1002
{
1000
NOSEL
1070
     0
1002
}
1002
{
1000
BEHIND
1070
     0
1002
}
1002
{
1000
OTHER
1070
     0
1002
}
1002
{
1000
REACTOR
1002
}
  0
LINE
  5
B876
330
1F
100
AcDbEntity
  8
0受け
100
AcDbLine
 10
147.7098806214924
 20
249.7493691820696
 30
0.0
 11
158.7098806214906
 21
249.7493691820705
 31
0.0
  0
ARC
  5
B877
330
1F
100
AcDbEntity
  8
0受け
370
    13
100
AcDbCircle
 10
146.2098806214924
 20
270.2493691820705
 30
0.0
 40
1.5
100
AcDbArc
 50
180.0
 51
270.0
  0
ARC
  5
B878
330
1F
100
AcDbEntity
  8
0受け
370
    13
100
AcDbCircle
 10
163.2179530081564
 20
270.2493691820705
 30
0.0
 40
1.5
100
AcDbArc
 50
270.0
 51
354.0531369460585
  0
ARC
  5
B879
330
1F
100
AcDbEntity
  8
0受け
100
AcDbCircle
 10
153.7098806214924
 20
264.7493691820705
 30
0.0
 40
1.0
100
AcDbArc
 50
90.0
 51
180.0
  0
LINE
  5
B87A
330
1F
100
AcDbEntity
  8
0受け
100
AcDbLine
 10
144.7098806214924
 20
273.7493691820705
 30
0.0
 11
144.7098806214924
 21
252.7493691820696
 31
0.0
  0
ARC
  5
B87B
330
1F
100
AcDbEntity
  8
0受け
100
AcDbCircle
 10
147.7098806214924
 20
252.7493691820696
 30
0.0
 40
3.0
100
AcDbArc
 50
180.0
 51
270.0
1001
GENIUS_GENODEF_13
1002
{
1000
HIER
1070
     0
1002
}
1002
{
1000
MANEDIT
1070
     0
1002
}
1002
{
1000
NOSEL
1070
     0
1002
}
1002
{
1000
BEHIND
1070
     0
1002
}
1002
{
1000
OTHER
1070
     0
1002
}
1002
{
1000
REACTOR
1002
}
1001
GENIUS_GENOBJ-N-FIL_13
1002
{
1000
OWNER
1000
GEN
1002
}
  0
ARC
  5
B87C
330
1F
100
AcDbEntity
  8
0受け
100
AcDbCircle
 10
146.2098806214924
 20
267.2493691820705
 30
0.0
 40
1.5
100
AcDbArc
 50
180.0
 51
270.0
  0
LINE
  5
B87D
330
1F
100
AcDbEntity
  8
0受け
100
AcDbLine
 10
164.7098806214924
 20
273.7493691820705
 30
0.0
 11
164.7098806214924
 21
266.7493691820714
 31
0.0
  0
LINE
  5
B87E
330
1F
100
AcDbEntity
  8
0受け
100
AcDbLine
 10
147.7098806214924
 20
249.7493691820696
 30
0.0
 11
162.2098806214937
 21
249.7493691820687
 31
0.0
  0
LINE
  5
B87F
330
1F
100
AcDbEntity
  8
0受け
100
AcDbLine
 10
152.7098806214924
 20
264.7493691820705
 30
0.0
 11
152.7098806214942
 21
257.2493691820678
 31
0.0
  0
ARC
  5
B880
330
1F
100
AcDbEntity
  8
0受け
 48
0.15
100
AcDbCircle
 10
162.2098806214942
 20
250.2493691820687
 30
0.0
 40
0.5
100
AcDbArc
 50
270.0
 51
0.0
1001
GENIUS_GENODEF_13
1002
{
1000
HIER
1070
     0
1002
}
1002
{
1000
MANEDIT
1070
     0
1002
}
1002
{
1000
NOSEL
1070
     0
1002
}
1002
{
1000
BEHIND
1070
     0
1002
}
1002
{
1000
OTHER
1070
     0
1002
}
1002
{
1000
REACTOR
1002
}
1001
GENIUS_GENOBJ-N-FIL_13
1002
{
1000
OWNER
1000
GEN
1002
}
  0
LINE
  5
B881
330
1F
100
AcDbEntity
  8
0受け
 48
0.15
100
AcDbLine
 10
162.7098806214942
 20
250.2493691820687
 30
0.0
 11
162.7098806214951
 21
254.081528748266
 31
0.0
  0
ARC
  5
B882
330
1F
100
AcDbEntity
  8
0受け
100
AcDbCircle
 10
153.7098806214942
 20
257.2493691820678
 30
0.0
 40
1.0
100
AcDbArc
 50
180.0
 51
270.0
1001
GENIUS_GENOBJ-N-FIL_13
1002
{
1000
OWNER
1000
GEN
1002
}
1001
GENIUS_GENODEF_13
1002
{
1000
HIER
1070
     0
1002
}
1002
{
1000
MANEDIT
1070
     0
1002
}
1002
{
1000
NOSEL
1070
     0
1002
}
1002
{
1000
BEHIND
1070
     0
1002
}
1002
{
1000
OTHER
1070
     0
1002
}
1002
{
1000
REACTOR
1002
}
  0
LINE
  5
B883
330
1F
100
AcDbEntity
  8
0受け
100
AcDbLine
 10
155.7098806214965
 20
256.2493691820687
 30
0.0
 11
153.7098806214942
 21
256.2493691820677
 31
0.0
  0
ARC
  5
B884
330
1F
100
AcDbEntity
  8
0受け
100
AcDbCircle
 10
155.7098806214919
 20
242.2493691820687
 30
0.0
 40
14.0
100
AcDbArc
 50
61.21779531940098
 51
90.0
  0
ARC
  5
B885
330
1F
100
AcDbEntity
  8
0受け
100
AcDbCircle
 10
162.2098806214956
 20
254.081528748266
 30
0.0
 40
0.5
100
AcDbArc
 50
0.0
 51
61.21779531940098
  0
LINE
  5
B886
330
1F
100
AcDbEntity
  8
0受け
370
    13
100
AcDbLine
 10
152.7098806214933
 20
255.7493691820687
 30
0.0
 11
152.7098806214933
 21
257.2493691820678
 31
0.0
  0
ARC
  5
B887
330
1F
100
AcDbEntity
  8
0受け
370
    13
100
AcDbCircle
 10
155.7098806214924
 20
242.2493691820687
 30
0.0
 40
12.5
100
AcDbArc
 50
55.94420225740431
 51
90.0
  0
LINE
  5
B888
330
1F
100
AcDbEntity
  8
0受け
370
    13
100
AcDbLine
 10
155.7098806214924
 20
254.7493691820687
 30
0.0
 11
153.7098806214933
 21
254.7493691820687
 31
0.0
  0
ARC
  5
B889
330
1F
100
AcDbEntity
  8
0受け
370
    13
100
AcDbCircle
 10
153.7098806214933
 20
255.7493691820687
 30
0.0
 40
1.0
100
AcDbArc
 50
180.0
 51
270.0
1001
GENIUS_GENOBJ-N-FIL_13
1002
{
1000
OWNER
1000
GEN
1002
}
1001
GENIUS_GENODEF_13
1002
{
1000
HIER
1070
     0
1002
}
1002
{
1000
MANEDIT
1070
     0
1002
}
1002
{
1000
NOSEL
1070
     0
1002
}
1002
{
1000
BEHIND
1070
     0
1002
}
1002
{
1000
OTHER
1070
     0
1002
}
1002
{
1000
REACTOR
1002
}
  0
DIMENSION
  5
B88A
330
1F
100
AcDbEntity
  8
AM_5
100
AcDbDimension
  2
*D19
 10
157.5612536609925
 20
146.7725471781866
 30
0.0
 11
122.5662262629505
 21
120.5441110855385
 31
0.0
 70
   163
  1
2-%%c5.3×<>皿孔
 71
     5
 42
10.19999999999993
  3
SYS$3
100
AcDbDiametricDimension
 15
151.8585075819915
 25
138.3156749928905
 35
0.0
 40
0.0
1001
ACAD
1000
DSTYLE
1002
{
1070
   172
1070
     1
1070
   342
1005
B5E1
1002
}
  0
DIMENSION
  5
B88B
330
1F
100
AcDbEntity
  8
AM_5
100
AcDbDimension
  2
*D20
 10
217.8767051422285
 20
146.5417632033272
 30
0.0
 11
179.9737828395665
 21
120.544111085539
 31
0.0
 70
   163
  1
2-%%c5.3×<>皿孔
 71
     5
 42
10.19999999999982
  3
SYS$3
100
AcDbDiametricDimension
 15
211.5430561007538
 25
138.546458967751
 35
0.0
 40
0.0
1001
ACAD
1000
DSTYLE
1002
{
1070
   172
1070
     1
1070
   342
1005
B5E1
1002
}
  0
ENDSEC
  0
SECTION
  2
OBJECTS
  0
DICTIONARY
  5
C
330
0
100
AcDbDictionary
281
     1
  3
ACAD_2007HEADERVARS_RT
350
BA11
  3
ACAD_BGPLOT_KEY
350
AB06
  3
ACAD_COLOR
350
A91D
  3
ACAD_GROUP
350
D
  3
ACAD_LAYOUT
350
1A
  3
ACAD_MATERIAL
350
A91C
  3
ACAD_MLINESTYLE
350
17
  3
ACAD_PLOTSETTINGS
350
19
  3
ACAD_PLOTSTYLENAME
350
E
  3
ACAD_TABLESTYLE
350
AAB9
  3
ACAD_VISUALSTYLE
350
B0F1
  3
AcAsAppObject
350
3DA1
  3
ACASGREF_MASTER
350
3DE9
  3
AcDbVariableDictionary
350
34
  3
AcmDictionary
350
47
  3
AD_GREF_MODULE
350
3DEA
  3
AD_MAPI_MODULE
350
3E06
  3
AMG
350
2B
  3
AMGSNAPSETTINGS
350
7D
  3
ASE_INDEX_DICTIONARY
350
B331
  3
DWGPROPS
350
BA10
  3
MAPISURF_MODULE
350
3DEB
  0
DICTIONARY
  5
3F95
330
2
100
AcDbDictionary
280
     1
281
     1
  3
ACAD_LAYERFILTERS
360
B523
  3
ACAD_LAYERSTATES
360
3F96
  3
ACLYDICTIONARY
360
B522
  3
AMLAYER_GROUPCOLORS
360
AAB4
  0
DICTIONARY
  5
8A
330
1F
100
AcDbDictionary
280
     1
281
     1
  3
ACAD_SORTENTS
360
B1BA
  0
DICTIONARY
  5
BA11
102
{ACAD_REACTORS
330
C
102
}
330
C
100
AcDbDictionary
281
     1
  3
DIMARCSYM
350
BA12
  0
DICTIONARY
  5
AB06
102
{ACAD_REACTORS
330
C
102
}
330
C
100
AcDbDictionary
280
     1
281
     1
  0
DICTIONARY
  5
A91D
102
{ACAD_REACTORS
330
C
102
}
330
C
100
AcDbDictionary
281
     1
  0
DICTIONARY
  5
D
102
{ACAD_REACTORS
330
C
102
}
330
C
100
AcDbDictionary
281
     1
  0
DICTIONARY
  5
1A
102
{ACAD_REACTORS
330
C
102
}
330
C
100
AcDbDictionary
281
     1
  3
Model
350
22
  3
ﾚｲｱｳﾄ1
350
1E
  3
ﾚｲｱｳﾄ2
350
26
  0
DICTIONARY
  5
A91C
102
{ACAD_REACTORS
330
C
102
}
330
C
100
AcDbDictionary
281
     1
  3
ByBlock
350
B0EF
  3
ByLayer
350
B0EE
  3
Global
350
B0F0
  0
DICTIONARY
  5
17
102
{ACAD_REACTORS
330
C
102
}
330
C
100
AcDbDictionary
281
     1
  3
Standard
350
18
  0
DICTIONARY
  5
19
102
{ACAD_REACTORS
330
C
102
}
330
C
100
AcDbDictionary
281
     1
  0
ACDBDICTIONARYWDFLT
  5
E
102
{ACAD_REACTORS
330
C
102
}
330
C
100
AcDbDictionary
281
     1
  3
Normal
350
F
100
AcDbDictionaryWithDefault
340
F
  0
DICTIONARY
  5
AAB9
102
{ACAD_REACTORS
330
C
102
}
330
C
100
AcDbDictionary
281
     1
  3
Standard
350
AABA
  0
DICTIONARY
  5
B0F1
102
{ACAD_REACTORS
330
C
102
}
330
C
100
AcDbDictionary
281
     1
  3
2dWireframe
350
B0F7
  3
3D Hidden
350
B0F9
  3
3dWireframe
350
B0F8
  3
Basic
350
B0F6
  3
Brighten
350
B0FD
  3
ColorChange
350
B101
  3
Conceptual
350
B0FA
  3
Dim
350
B0FC
  3
Facepattern
350
B100
  3
Flat
350
B0F2
  3
FlatWithEdges
350
B0F3
  3
Gouraud
350
B0F4
  3
GouraudWithEdges
350
B0F5
  3
Linepattern
350
B0FF
  3
Realistic
350
B0FB
  3
Thicken
350
B0FE
  0
ACAD_PROXY_OBJECT
  5
3DA1
102
{ACAD_REACTORS
330
C
102
}
330
C
100
AcDbProxyObject
 90
      499
 91
      576
 95
   917527
 70
     0
 93
       10
310
407F
 94
        0
1001
ACAD
1000
AcRTDxfName
1000
ASAPP
  0
ACAD_PROXY_OBJECT
  5
3DE9
102
{ACAD_REACTORS
330
C
102
}
330
C
100
AcDbProxyObject
 90
      499
 91
      581
 95
   917527
 70
     0
 93
       34
310
010000407F
 94
        0
1001
ACAD
1000
AcRTDxfName
1000
ACASGREFMASTER
  0
DICTIONARY
  5
34
102
{ACAD_REACTORS
330
C
102
}
330
C
100
AcDbDictionary
281
     1
  3
CTABLESTYLE
350
AAF3
  3
DIMASSOC
350
A10C
  3
FIELDEVAL
350
AB07
  3
INDEXCTL
350
35
  3
SORTENTS
350
194C
  0
DICTIONARY
  5
47
102
{ACAD_REACTORS
330
C
102
}
330
C
100
AcDbDictionary
281
     1
  3
AcmBOM
350
7E8
  3
AcmStdDictionary
350
4C
  3
AMDTSECTSYM_ARROWCOLOR
350
A929
  0
ACAD_PROXY_OBJECT
  5
3DEA
102
{ACAD_REACTORS
330
C
102
}
330
C
100
AcDbProxyObject
 90
      499
 91
      582
 95
   917527
 70
     0
 93
      114
310
00000043800000000000000000003F
 94
        0
1001
ACAD
1000
AcRTDxfName
1000
ACADGREFMODULE
  0
ACAD_PROXY_OBJECT
  5
3E06
102
{ACAD_REACTORS
330
C
102
}
330
C
100
AcDbProxyObject
 90
      499
 91
      594
 95
   917527
 70
     0
 93
       34
310
05000044FF
 94
        0
1001
ACAD
1000
AcRTDxfName
1000
MAPIADMODULE
  0
DICTIONARY
  5
2B
102
{ACAD_REACTORS
330
C
102
}
330
C
100
AcDbDictionary
281
     1
  0
DICTIONARY
  5
7D
102
{ACAD_REACTORS
330
C
102
}
330
C
100
AcDbDictionary
281
     1
  0
DICTIONARY
  5
B331
102
{ACAD_REACTORS
330
C
102
}
330
C
100
AcDbDictionary
281
     1
  3
ASEBlockHierarchyIndexRecord
350
B332
1001
DCO15
1040
1594111214.218
  0
XRECORD
  5
BA10
102
{ACAD_REACTORS
330
C
102
}
330
C
100
AcDbXrecord
280
     1
  1
DWGPROPS COOKIE
  2

  3

  4

  6

  7

  8
Administrator
  9

300
AmdtFileType=84
301
=
302
=
303
=
304
=
305
=
306
=
307
=
308
=
309
=
 40
0.0030759953703704
 41
2456191.431115625
 42
2456268.705085995
  1

 90
        1
  0
ACAD_PROXY_OBJECT
  5
3DEB
102
{ACAD_REACTORS
330
C
102
}
330
C
100
AcDbProxyObject
 90
      499
 91
      583
 95
   917527
 70
     0
 93
        8
310
047E
 94
        0
1001
ACAD
1000
AcRTDxfName
1000
AMDTMAPISURFMOUDULE
  0
DICTIONARY
  5
B523
102
{ACAD_REACTORS
330
3F95
102
}
330
3F95
100
AcDbDictionary
281
     1
  0
DICTIONARY
  5
3F96
102
{ACAD_REACTORS
330
3F95
102
}
330
3F95
100
AcDbDictionary
281
     1
  3
20011210
350
3FB7
  0
DICTIONARY
  5
B522
102
{ACAD_REACTORS
330
3F95
102
}
330
3F95
100
AcDbDictionary
281
     1
1001
ACAD
1000
<All
  0
DICTIONARY
  5
AAB4
102
{ACAD_REACTORS
330
3F95
102
}
330
3F95
100
AcDbDictionary
280
     1
281
     1
  0
SORTENTSTABLE
  5
B1BA
102
{ACAD_REACTORS
330
8A
102
}
330
8A
100
AcDbSortentsTable
330
1F
  0
XRECORD
  5
BA12
102
{ACAD_REACTORS
330
BA11
102
}
330
BA11
100
AcDbXrecord
280
     1
 70
     1
  0
LAYOUT
  5
22
102
{ACAD_XDICTIONARY
360
BA15
102
}
102
{ACAD_REACTORS
330
1A
102
}
330
1A
100
AcDbPlotSettings
  1

  2
Adobe PDF
  4
A3
  6
AM_VIEW1
 40
3.174999952316284
 41
3.174999952316284
 42
3.17498779296875
 43
3.17498779296875
 44
297.0318298339844
 45
420.1583251953125
 46
-3.216232524701126
 47
-3.136525968393243
 48
214.3704939521119
 49
367.5855324241176
140
275.6727856380065
141
407.629191407817
142
1.0
143
1.0
 70
  3748
 72
     1
 73
     1
 74
     1
  7
monochrome.ctb
 75
     0
147
0.9783502009332307
148
0.0609656007354715
149
0.0566974336229578
100
AcDbLayout
  1
Model
 70
     1
 71
     0
 10
0.0
 20
0.0
 11
12.0
 21
9.0
 12
0.0
 22
0.0
 32
0.0
 14
0.0
 24
0.0
 34
0.0
 15
0.0
 25
0.0
 35
0.0
146
0.0
 13
0.0
 23
0.0
 33
0.0
 16
1.0
 26
0.0
 36
0.0
 17
0.0
 27
1.0
 37
0.0
 76
     0
330
1F
331
B0EC
1001
ACAD_PSEXT
1000
Adobe PDF
1000
Adobe PDF Converter
1000
My Documents\*.pdf
1000

1070
     0
  0
LAYOUT
  5
1E
102
{ACAD_XDICTIONARY
360
BA13
102
}
102
{ACAD_REACTORS
330
1A
102
}
330
1A
100
AcDbPlotSettings
  1

  2
\\ML370\XEROX
  4
A4
  6

 40
3.174999952316284
 41
3.174999952316284
 42
3.175003051757812
 43
3.17498779296875
 44
209.8674926757813
 45
296.6719970703125
 46
0.0
 47
0.0
 48
0.0
 49
0.0
140
0.0
141
0.0
142
1.0
143
1.0
 70
   688
 72
     1
 73
     1
 74
     5
  7
monochrome.ctb
 75
    16
147
1.0
148
0.0
149
0.0
100
AcDbLayout
  1
ﾚｲｱｳﾄ1
 70
     1
 71
     1
 10
-3.17498779296875
 20
-3.174999952316284
 11
293.4970092773438
 21
206.692492723465
 12
0.0
 22
0.0
 32
0.0
 14
1.000000000000000E+20
 24
1.000000000000000E+20
 34
1.000000000000000E+20
 15
-1.000000000000000E+20
 25
-1.000000000000000E+20
 35
-1.000000000000000E+20
146
0.0
 13
0.0
 23
0.0
 33
0.0
 16
1.0
 26
0.0
 36
0.0
 17
0.0
 27
1.0
 37
0.0
 76
     0
330
1B
  0
LAYOUT
  5
26
102
{ACAD_XDICTIONARY
360
BA17
102
}
102
{ACAD_REACTORS
330
1A
102
}
330
1A
100
AcDbPlotSettings
  1

  2
\\ML370\XEROX
  4

  6

 40
0.0
 41
0.0
 42
0.0
 43
0.0
 44
0.0
 45
0.0
 46
0.0
 47
0.0
 48
0.0
 49
0.0
140
0.0
141
0.0
142
1.0
143
1.0
 70
   688
 72
     0
 73
     0
 74
     5
  7
monochrome.ctb
 75
    16
147
1.0
148
0.0
149
0.0
100
AcDbLayout
  1
ﾚｲｱｳﾄ2
 70
     1
 71
     2
 10
0.0
 20
0.0
 11
12.0
 21
9.0
 12
0.0
 22
0.0
 32
0.0
 14
0.0
 24
0.0
 34
0.0
 15
0.0
 25
0.0
 35
0.0
146
0.0
 13
0.0
 23
0.0
 33
0.0
 16
1.0
 26
0.0
 36
0.0
 17
0.0
 27
1.0
 37
0.0
 76
     0
330
23
  0
MATERIAL
  5
B0EF
102
{ACAD_XDICTIONARY
360
BA1D
102
}
102
{ACAD_REACTORS
330
A91C
102
}
330
A91C
100
AcDbMaterial
  1
ByBlock
  0
MATERIAL
  5
B0EE
102
{ACAD_XDICTIONARY
360
BA1B
102
}
102
{ACAD_REACTORS
330
A91C
102
}
330
A91C
100
AcDbMaterial
  1
ByLayer
  0
MATERIAL
  5
B0F0
102
{ACAD_XDICTIONARY
360
BA1F
102
}
102
{ACAD_REACTORS
330
A91C
102
}
330
A91C
100
AcDbMaterial
  1
Global
  0
MLINESTYLE
  5
18
102
{ACAD_REACTORS
330
17
102
}
330
17
100
AcDbMlineStyle
  2
STANDARD
 70
     0
  3

 62
   256
 51
90.0
 52
90.0
 71
     2
 49
0.5
 62
   256
  6
BYLAYER
 49
-0.5
 62
   256
  6
BYLAYER
  0
ACDBPLACEHOLDER
  5
F
102
{ACAD_REACTORS
330
E
102
}
330
E
  0
TABLESTYLE
  5
AABA
102
{ACAD_XDICTIONARY
360
BA19
102
}
102
{ACAD_REACTORS
330
AAB9
102
}
330
AAB9
100
AcDbTableStyle
  3
Standard
 70
     0
 71
     0
 40
1.5
 41
1.5
280
     0
281
     0
  7
STANDARD
140
4.5
170
     2
 62
     0
 63
     7
283
     0
274
    -2
284
     1
 64
     0
275
    -2
285
     1
 65
     0
276
    -2
286
     1
 66
     0
277
    -2
287
     1
 67
     0
278
    -2
288
     1
 68
     0
279
    -2
289
     1
 69
     0
  7
STANDARD
140
6.0
170
     5
 62
     0
 63
     7
283
     0
274
    -2
284
     1
 64
     0
275
    -2
285
     1
 65
     0
276
    -2
286
     1
 66
     0
277
    -2
287
     1
 67
     0
278
    -2
288
     1
 68
     0
279
    -2
289
     1
 69
     0
  7
STANDARD
140
4.5
170
     5
 62
     0
 63
     7
283
     0
274
    -2
284
     1
 64
     0
275
    -2
285
     1
 65
     0
276
    -2
286
     1
 66
     0
277
    -2
287
     1
 67
     0
278
    -2
288
     1
 68
     0
279
    -2
289
     1
 69
     0
  0
VISUALSTYLE
  5
B0F7
102
{ACAD_REACTORS
330
B0F1
102
}
330
B0F1
100
AcDbVisualStyle
  2
2dWireframe
 70
     4
 71
     0
 72
     2
 73
     0
 90
        0
 40
-0.6
 41
-30.0
 62
     5
 63
     7
 74
     1
 91
        4
 64
     7
 65
   257
 75
     1
175
     1
 42
1.0
 92
        0
 66
   257
 43
1.0
 76
     1
 77
     6
 78
     2
 67
     7
 79
     5
170
     0
171
     0
290
     0
174
     0
 93
        1
 44
0.0
173
     0
291
     0
 45
0.0
1001
ACAD
1000
AcDbSavedByObjectVersion
1070
     0
  0
VISUALSTYLE
  5
B0F9
102
{ACAD_REACTORS
330
B0F1
102
}
330
B0F1
100
AcDbVisualStyle
  2
3D Hidden
 70
     6
 71
     1
 72
     2
 73
     2
 90
        0
 40
-0.6
 41
-30.0
 62
     5
 63
     7
 74
     2
 91
        2
 64
     7
 65
   257
 75
     2
175
     1
 42
40.0
 92
        0
 66
   257
 43
1.0
 76
     1
 77
     6
 78
     2
 67
     7
 79
     3
170
     0
171
     0
290
     0
174
     0
 93
        1
 44
0.0
173
     0
291
     0
 45
0.0
1001
ACAD
1000
AcDbSavedByObjectVersion
1070
     0
  0
VISUALSTYLE
  5
B0F8
102
{ACAD_REACTORS
330
B0F1
102
}
330
B0F1
100
AcDbVisualStyle
  2
3dWireframe
 70
     5
 71
     0
 72
     2
 73
     0
 90
        0
 40
-0.6
 41
-30.0
 62
     5
 63
     7
 74
     1
 91
        4
 64
     7
 65
   257
 75
     1
175
     1
 42
1.0
 92
        0
 66
   257
 43
1.0
 76
     1
 77
     6
 78
     2
 67
     7
 79
     5
170
     0
171
     0
290
     0
174
     0
 93
        1
 44
0.0
173
     0
291
     0
 45
0.0
1001
ACAD
1000
AcDbSavedByObjectVersion
1070
     0
  0
VISUALSTYLE
  5
B0F6
102
{ACAD_REACTORS
330
B0F1
102
}
330
B0F1
100
AcDbVisualStyle
  2
Basic
 70
     7
 71
     1
 72
     0
 73
     1
 90
        0
 40
-0.6
 41
-30.0
 62
     5
 63
     7
 74
     0
 91
        4
 64
     7
 65
   257
 75
     1
175
     1
 42
1.0
 92
        8
 66
     7
 43
1.0
 76
     1
 77
     6
 78
     2
 67
     7
 79
     5
170
     0
171
     0
290
     0
174
     0
 93
        1
 44
0.0
173
     0
291
     1
 45
0.0
1001
ACAD
1000
AcDbSavedByObjectVersion
1070
     0
  0
VISUALSTYLE
  5
B0FD
102
{ACAD_REACTORS
330
B0F1
102
}
330
B0F1
100
AcDbVisualStyle
  2
Brighten
 70
    12
 71
     2
 72
     2
 73
     0
 90
        0
 40
-0.6
 41
-30.0
 62
     5
 63
     7
 74
     1
 91
        4
 64
     7
 65
   257
 75
     1
175
     1
 42
1.0
 92
        8
 66
     7
 43
1.0
 76
     1
 77
     6
 78
     2
 67
     7
 79
     5
170
     0
171
     0
290
     0
174
     0
 93
        1
 44
50.0
173
     0
291
     1
 45
0.0
1001
ACAD
1000
AcDbSavedByObjectVersion
1070
     0
  0
VISUALSTYLE
  5
B101
102
{ACAD_REACTORS
330
B0F1
102
}
330
B0F1
100
AcDbVisualStyle
  2
ColorChange
 70
    16
 71
     2
 72
     2
 73
     3
 90
        0
 40
-0.6
 41
-30.0
 62
     5
 63
     8
 74
     1
 91
        4
 64
     7
 65
   257
 75
     1
175
     1
 42
1.0
 92
        8
 66
     8
 43
1.0
 76
     1
 77
     6
 78
     2
 67
     7
 79
     5
170
     0
171
     0
290
     0
174
     0
 93
        1
 44
0.0
173
     0
291
     1
 45
0.0
1001
ACAD
1000
AcDbSavedByObjectVersion
1070
     0
  0
VISUALSTYLE
  5
B0FA
102
{ACAD_REACTORS
330
B0F1
102
}
330
B0F1
100
AcDbVisualStyle
  2
Conceptual
 70
     9
 71
     3
 72
     2
 73
     0
 90
        0
 40
-0.6
 41
-30.0
 62
     5
 63
     7
 74
     2
 91
        2
 64
     7
 65
   257
 75
     1
175
     1
 42
40.0
 92
        8
 66
     7
 43
1.0
 76
     1
 77
     6
 78
     2
 67
     7
 79
     3
170
     0
171
     0
290
     0
174
     0
 93
        1
 44
0.0
173
     0
291
     0
 45
0.0
1001
ACAD
1000
AcDbSavedByObjectVersion
1070
     0
  0
VISUALSTYLE
  5
B0FC
102
{ACAD_REACTORS
330
B0F1
102
}
330
B0F1
100
AcDbVisualStyle
  2
Dim
 70
    11
 71
     2
 72
     2
 73
     0
 90
        0
 40
-0.6
 41
-30.0
 62
     5
 63
     7
 74
     1
 91
        4
 64
     7
 65
   257
 75
     1
175
     1
 42
1.0
 92
        8
 66
     7
 43
1.0
 76
     1
 77
     6
 78
     2
 67
     7
 79
     5
170
     0
171
     0
290
     0
174
     0
 93
        1
 44
-50.0
173
     0
291
     1
 45
0.0
1001
ACAD
1000
AcDbSavedByObjectVersion
1070
     0
  0
VISUALSTYLE
  5
B100
102
{ACAD_REACTORS
330
B0F1
102
}
330
B0F1
100
AcDbVisualStyle
  2
Facepattern
 70
    15
 71
     2
 72
     2
 73
     0
 90
        0
 40
-0.6
 41
-30.0
 62
     5
 63
     7
 74
     1
 91
        4
 64
     7
 65
   257
 75
     1
175
     1
 42
1.0
 92
        8
 66
     7
 43
1.0
 76
     1
 77
     6
 78
     2
 67
     7
 79
     5
170
     0
171
     0
290
     0
174
     0
 93
        1
 44
0.0
173
     0
291
     1
 45
0.0
1001
ACAD
1000
AcDbSavedByObjectVersion
1070
     0
  0
VISUALSTYLE
  5
B0F2
102
{ACAD_REACTORS
330
B0F1
102
}
330
B0F1
100
AcDbVisualStyle
  2
Flat
 70
     0
 71
     2
 72
     1
 73
     1
 90
        2
 40
-0.6
 41
30.0
 62
     5
 63
     7
 74
     0
 91
        4
 64
     7
 65
   257
 75
     1
175
     1
 42
1.0
 92
        8
 66
     7
 43
1.0
 76
     1
 77
     6
 78
     2
 67
     7
 79
     5
170
     0
171
     0
290
     0
174
     0
 93
       13
 44
0.0
173
     0
291
     1
 45
0.0
1001
ACAD
1000
AcDbSavedByObjectVersion
1070
     0
  0
VISUALSTYLE
  5
B0F3
102
{ACAD_REACTORS
330
B0F1
102
}
330
B0F1
100
AcDbVisualStyle
  2
FlatWithEdges
 70
     1
 71
     2
 72
     1
 73
     1
 90
        2
 40
-0.6
 41
30.0
 62
     5
 63
     7
 74
     1
 91
        4
 64
     7
 65
   257
 75
     1
175
     1
 42
1.0
 92
        0
 66
   257
 43
1.0
 76
     1
 77
     6
 78
     2
 67
     7
 79
     5
170
     0
171
     0
290
     0
174
     0
 93
       13
 44
0.0
173
     0
291
     1
 45
0.0
1001
ACAD
1000
AcDbSavedByObjectVersion
1070
     0
  0
VISUALSTYLE
  5
B0F4
102
{ACAD_REACTORS
330
B0F1
102
}
330
B0F1
100
AcDbVisualStyle
  2
Gouraud
 70
     2
 71
     2
 72
     2
 73
     1
 90
        2
 40
-0.6
 41
30.0
 62
     5
 63
     7
 74
     0
 91
        4
 64
     7
 65
   257
 75
     1
175
     1
 42
1.0
 92
        0
 66
     7
 43
1.0
 76
     1
 77
     6
 78
     2
 67
     7
 79
     5
170
     0
171
     0
290
     0
174
     0
 93
       13
 44
0.0
173
     0
291
     1
 45
0.0
1001
ACAD
1000
AcDbSavedByObjectVersion
1070
     0
  0
VISUALSTYLE
  5
B0F5
102
{ACAD_REACTORS
330
B0F1
102
}
330
B0F1
100
AcDbVisualStyle
  2
GouraudWithEdges
 70
     3
 71
     2
 72
     2
 73
     1
 90
        2
 40
-0.6
 41
30.0
 62
     5
 63
     7
 74
     1
 91
        4
 64
     7
 65
   257
 75
     1
175
     1
 42
1.0
 92
        0
 66
   257
 43
1.0
 76
     1
 77
     6
 78
     2
 67
     7
 79
     5
170
     0
171
     0
290
     0
174
     0
 93
       13
 44
0.0
173
     0
291
     1
 45
0.0
1001
ACAD
1000
AcDbSavedByObjectVersion
1070
     0
  0
VISUALSTYLE
  5
B0FF
102
{ACAD_REACTORS
330
B0F1
102
}
330
B0F1
100
AcDbVisualStyle
  2
Linepattern
 70
    14
 71
     2
 72
     2
 73
     0
 90
        0
 40
-0.6
 41
-30.0
 62
     5
 63
     7
 74
     1
 91
        4
 64
     7
 65
   257
 75
     7
175
     7
 42
1.0
 92
        8
 66
     7
 43
1.0
 76
     1
 77
     6
 78
     2
 67
     7
 79
     5
170
     0
171
     0
290
     0
174
     0
 93
        1
 44
0.0
173
     0
291
     1
 45
0.0
1001
ACAD
1000
AcDbSavedByObjectVersion
1070
     0
  0
VISUALSTYLE
  5
B0FB
102
{ACAD_REACTORS
330
B0F1
102
}
330
B0F1
100
AcDbVisualStyle
  2
Realistic
 70
     8
 71
     2
 72
     2
 73
     0
 90
        0
 40
-0.6
 41
-30.0
 62
     5
 63
     7
 74
     1
 91
        0
 64
     7
 65
   257
 75
     1
175
     1
 42
1.0
 92
        8
 66
     8
 43
1.0
 76
     1
 77
     6
 78
     2
 67
     7
 79
     5
170
     0
171
     0
290
     0
174
     0
 93
       13
 44
0.0
173
     0
291
     0
 45
0.0
1001
ACAD
1000
AcDbSavedByObjectVersion
1070
     0
  0
VISUALSTYLE
  5
B0FE
102
{ACAD_REACTORS
330
B0F1
102
}
330
B0F1
100
AcDbVisualStyle
  2
Thicken
 70
    13
 71
     2
 72
     2
 73
     0
 90
        0
 40
-0.6
 41
-30.0
 62
     5
 63
     7
 74
     1
 91
        4
 64
     7
 65
   257
 75
     1
175
     1
 42
1.0
 92
       12
 66
     7
 43
1.0
 76
     1
 77
     6
 78
     2
 67
     7
 79
     5
170
     0
171
     0
290
     0
174
     0
 93
        1
 44
0.0
173
     0
291
     1
 45
0.0
1001
ACAD
1000
AcDbSavedByObjectVersion
1070
     0
  0
DICTIONARYVAR
  5
AAF3
102
{ACAD_REACTORS
330
34
102
}
330
34
100
DictionaryVariables
280
     0
  1
STANDARD
  0
DICTIONARYVAR
  5
A10C
102
{ACAD_REACTORS
330
34
102
}
330
34
100
DictionaryVariables
280
     0
  1
1
  0
DICTIONARYVAR
  5
AB07
102
{ACAD_REACTORS
330
34
102
}
330
34
100
DictionaryVariables
280
     0
  1
4
  0
DICTIONARYVAR
  5
35
102
{ACAD_REACTORS
330
34
102
}
330
34
100
DictionaryVariables
280
     0
  1
0
  0
DICTIONARYVAR
  5
194C
102
{ACAD_REACTORS
330
34
102
}
330
34
100
DictionaryVariables
280
     0
  1
96
  0
DICTIONARY
  5
7E8
102
{ACAD_REACTORS
330
47
102
}
330
47
100
AcDbDictionary
281
     1
  0
DICTIONARY
  5
4C
102
{ACAD_REACTORS
330
47
102
}
330
47
100
AcDbDictionary
281
     1
  0
XRECORD
  5
A929
102
{ACAD_REACTORS
330
47
102
}
330
47
100
AcDbXrecord
280
     1
 90
-1023410169
  0
XRECORD
  5
B332
102
{ACAD_REACTORS
330
B331
102
}
330
B331
100
AcDbXrecord
280
     1
  0
XRECORD
  5
3FB7
102
{ACAD_REACTORS
330
3F96
102
}
330
3F96
100
AcDbXrecord
280
     1
 91
        3
330
0
 90
        8
 62
     7
370
    40
331
16
  1
Color_7
330
0
 90
        0
 62
    14
370
    -3
331
16
  1
Color_14
330
0
 90
        8
 62
     7
370
    20
331
16
  1
Color_7
330
6D1
 90
        0
 62
     7
370
    -3
331
16
  1
Color_7
330
0
 90
        8
 62
     7
370
    50
331
16
  1
Color_7
330
0
 90
        8
 62
     2
370
    35
331
16
  1
Color_2
330
0
 90
        8
 62
     7
370
    -3
331
16
  1
Color_7
330
10
 90
        8
 62
     7
370
    -3
331
16
  1
Color_7
  0
DICTIONARY
  5
BA15
330
22
100
AcDbDictionary
280
     1
281
     1
  3
ACAD_XREC_ROUNDTRIP
360
BA16
  0
DICTIONARY
  5
BA13
330
1E
100
AcDbDictionary
280
     1
281
     1
  3
ACAD_XREC_ROUNDTRIP
360
BA14
  0
DICTIONARY
  5
BA17
330
26
100
AcDbDictionary
280
     1
281
     1
  3
ACAD_XREC_ROUNDTRIP
360
BA18
  0
DICTIONARY
  5
BA1D
330
B0EF
100
AcDbDictionary
280
     1
281
     1
  3
ACAD_XREC_ROUNDTRIP
360
BA1E
  0
DICTIONARY
  5
BA1B
330
B0EE
100
AcDbDictionary
280
     1
281
     1
  3
ACAD_XREC_ROUNDTRIP
360
BA1C
  0
DICTIONARY
  5
BA1F
330
B0F0
100
AcDbDictionary
280
     1
281
     1
  3
ACAD_XREC_ROUNDTRIP
360
BA20
  0
DICTIONARY
  5
BA19
330
AABA
100
AcDbDictionary
280
     1
281
     1
  3
ACAD_XREC_ROUNDTRIP
360
BA1A
  0
XRECORD
  5
BA16
102
{ACAD_REACTORS
330
BA15
102
}
330
BA15
100
AcDbXrecord
280
     1
102
SHADEPLOT
 70
     0
102
SHADEPLOTRESLEVEL
 70
     2
102
SHADEPLOTCUSTOMDPI
 70
   200
  0
XRECORD
  5
BA14
102
{ACAD_REACTORS
330
BA13
102
}
330
BA13
100
AcDbXrecord
280
     1
102
SHADEPLOT
 70
     0
102
SHADEPLOTRESLEVEL
 70
     2
102
SHADEPLOTCUSTOMDPI
 70
   300
  0
XRECORD
  5
BA18
102
{ACAD_REACTORS
330
BA17
102
}
330
BA17
100
AcDbXrecord
280
     1
102
SHADEPLOT
 70
     0
102
SHADEPLOTRESLEVEL
 70
     2
102
SHADEPLOTCUSTOMDPI
 70
   300
  0
XRECORD
  5
BA1E
102
{ACAD_REACTORS
330
BA1D
102
}
330
BA1D
100
AcDbXrecord
280
     1
102
MATERIAL
148
0.0
149
0.0
149
0.0
 93
        0
 94
       63
282
     0
 72
     1
 77
     1
171
     1
175
     1
179
     1
273
     0
  0
XRECORD
  5
BA1C
102
{ACAD_REACTORS
330
BA1B
102
}
330
BA1B
100
AcDbXrecord
280
     1
102
MATERIAL
148
0.0
149
0.0
149
0.0
 93
        0
 94
       63
282
     0
 72
     1
 77
     1
171
     1
175
     1
179
     1
273
     0
  0
XRECORD
  5
BA20
102
{ACAD_REACTORS
330
BA1F
102
}
330
BA1F
100
AcDbXrecord
280
     1
102
MATERIAL
148
0.0
149
0.0
149
0.0
 93
        0
 94
       63
282
     0
 72
     1
 77
     1
171
     1
175
     1
179
     1
273
     0
  0
XRECORD
  5
BA1A
102
{ACAD_REACTORS
330
BA19
102
}
330
BA19
100
AcDbXrecord
280
     1
102
ACAD_ROUNDTRIP_PRE2007_TABLESTYLE
 90
        4
 91
        0
  1

 92
        4
 93
        0
  2

 94
        4
 95
        0
  3

  0
ENDSEC
  0
EOF
