  0
SECTION
  2
HEADER
  9
$ACADVER
  1
AC1015
  9
$ACADMAINTVER
 70
    20
  9
$DWGCODEPAGE
  3
ANSI_932
  9
$INSBASE
 10
0.0
 20
0.0
 30
0.0
  9
$EXTMIN
 10
-0.0304670999435075
 20
-0.0283337007194859
 30
-0.0000000000112498
  9
$EXTMAX
 10
420.0765603259383
 20
297.1041065858899
 30
0.0000000000002956
  9
$LIMMIN
 10
1700.85588156276
 20
1647.985052086429
  9
$LIMMAX
 10
1997.85588156276
 20
1857.985052086429
  9
$ORTHOMODE
 70
     0
  9
$REGENMODE
 70
     1
  9
$FILLMODE
 70
     1
  9
$QTEXTMODE
 70
     0
  9
$MIRRTEXT
 70
     0
  9
$LTSCALE
 40
1.0
  9
$ATTMODE
 70
     1
  9
$TEXTSIZE
 40
3.2
  9
$TRACEWID
 40
1.0
  9
$TEXTSTYLE
  7
STANDARD
  9
$CLAYER
  8
AM_0
  9
$CELTYPE
  6
ByLayer
  9
$CECOLOR
 62
   256
  9
$CELTSCALE
 40
1.0
  9
$DISPSILH
 70
     0
  9
$DIMSCALE
 40
1.0
  9
$DIMASZ
 40
1.0
  9
$DIMEXO
 40
1.0
  9
$DIMDLI
 40
10.0
  9
$DIMRND
 40
0.0
  9
$DIMDLE
 40
0.0
  9
$DIMEXE
 40
1.0
  9
$DIMTP
 40
0.1
  9
$DIMTM
 40
0.1
  9
$DIMTXT
 40
3.5
  9
$DIMCEN
 40
0.0
  9
$DIMTSZ
 40
0.0
  9
$DIMTOL
 70
     0
  9
$DIMLIM
 70
     0
  9
$DIMTIH
 70
     0
  9
$DIMTOH
 70
     0
  9
$DIMSE1
 70
     0
  9
$DIMSE2
 70
     0
  9
$DIMTAD
 70
     1
  9
$DIMZIN
 70
     8
  9
$DIMBLK
  1

  9
$DIMASO
 70
     1
  9
$DIMSHO
 70
     1
  9
$DIMPOST
  1

  9
$DIMAPOST
  1
"
  9
$DIMALT
 70
     0
  9
$DIMALTD
 70
     2
  9
$DIMALTF
 40
0.0393701
  9
$DIMLFAC
 40
1.0
  9
$DIMTOFL
 70
     1
  9
$DIMTVP
 40
0.0
  9
$DIMTIX
 70
     0
  9
$DIMSOXD
 70
     0
  9
$DIMSAH
 70
     0
  9
$DIMBLK1
  1

  9
$DIMBLK2
  1

  9
$DIMSTYLE
  2
SYS
  9
$DIMCLRD
 70
   256
  9
$DIMCLRE
 70
   256
  9
$DIMCLRT
 70
     7
  9
$DIMTFAC
 40
0.71
  9
$DIMGAP
 40
1.5
  9
$DIMJUST
 70
     0
  9
$DIMSD1
 70
     0
  9
$DIMSD2
 70
     0
  9
$DIMTOLJ
 70
     0
  9
$DIMTZIN
 70
     8
  9
$DIMALTZ
 70
     0
  9
$DIMALTTZ
 70
     0
  9
$DIMUPT
 70
     0
  9
$DIMDEC
 70
     2
  9
$DIMTDEC
 70
     2
  9
$DIMALTU
 70
     2
  9
$DIMALTTD
 70
     2
  9
$DIMTXSTY
  7
STANDARD
  9
$DIMAUNIT
 70
     0
  9
$DIMADEC
 70
     0
  9
$DIMALTRND
 40
0.0
  9
$DIMAZIN
 70
     2
  9
$DIMDSEP
 70
    46
  9
$DIMATFIT
 70
     3
  9
$DIMFRAC
 70
     0
  9
$DIMLDRBLK
  1

  9
$DIMLUNIT
 70
     2
  9
$DIMLWD
 70
    -1
  9
$DIMLWE
 70
    -1
  9
$DIMTMOVE
 70
     0
  9
$LUNITS
 70
     2
  9
$LUPREC
 70
     2
  9
$SKETCHINC
 40
1.0
  9
$FILLETRAD
 40
0.0
  9
$AUNITS
 70
     0
  9
$AUPREC
 70
     0
  9
$MENU
  1
.
  9
$ELEVATION
 40
0.0
  9
$PELEVATION
 40
0.0
  9
$THICKNESS
 40
0.0
  9
$LIMCHECK
 70
     0
  9
$CHAMFERA
 40
0.0
  9
$CHAMFERB
 40
0.0
  9
$CHAMFERC
 40
20.0
  9
$CHAMFERD
 40
0.0
  9
$SKPOLY
 70
     0
  9
$TDCREATE
 40
2456191.438801169
  9
$TDUCREATE
 40
2456191.063801169
  9
$TDUPDATE
 40
2456268.705266111
  9
$TDUUPDATE
 40
2456268.330266111
  9
$TDINDWG
 40
0.0021193287
  9
$TDUSRTIMER
 40
0.0021193287
  9
$USRTIMER
 70
     1
  9
$ANGBASE
 50
0.0
  9
$ANGDIR
 70
     0
  9
$PDMODE
 70
     0
  9
$PDSIZE
 40
-3.0
  9
$PLINEWID
 40
0.0
  9
$SPLFRAME
 70
     0
  9
$SPLINETYPE
 70
     6
  9
$SPLINESEGS
 70
     8
  9
$HANDSEED
  5
BA45
  9
$SURFTAB1
 70
     6
  9
$SURFTAB2
 70
     6
  9
$SURFTYPE
 70
     6
  9
$SURFU
 70
     6
  9
$SURFV
 70
     6
  9
$UCSBASE
  2

  9
$UCSNAME
  2

  9
$UCSORG
 10
0.0
 20
0.0
 30
0.0
  9
$UCSXDIR
 10
1.0
 20
0.0
 30
0.0
  9
$UCSYDIR
 10
0.0
 20
1.0
 30
0.0
  9
$UCSORTHOREF
  2

  9
$UCSORTHOVIEW
 70
     0
  9
$UCSORGTOP
 10
0.0
 20
0.0
 30
0.0
  9
$UCSORGBOTTOM
 10
0.0
 20
0.0
 30
0.0
  9
$UCSORGLEFT
 10
0.0
 20
0.0
 30
0.0
  9
$UCSORGRIGHT
 10
0.0
 20
0.0
 30
0.0
  9
$UCSORGFRONT
 10
0.0
 20
0.0
 30
0.0
  9
$UCSORGBACK
 10
0.0
 20
0.0
 30
0.0
  9
$PUCSBASE
  2

  9
$PUCSNAME
  2

  9
$PUCSORG
 10
0.0
 20
0.0
 30
0.0
  9
$PUCSXDIR
 10
1.0
 20
0.0
 30
0.0
  9
$PUCSYDIR
 10
0.0
 20
1.0
 30
0.0
  9
$PUCSORTHOREF
  2

  9
$PUCSORTHOVIEW
 70
     0
  9
$PUCSORGTOP
 10
0.0
 20
0.0
 30
0.0
  9
$PUCSORGBOTTOM
 10
0.0
 20
0.0
 30
0.0
  9
$PUCSORGLEFT
 10
0.0
 20
0.0
 30
0.0
  9
$PUCSORGRIGHT
 10
0.0
 20
0.0
 30
0.0
  9
$PUCSORGFRONT
 10
0.0
 20
0.0
 30
0.0
  9
$PUCSORGBACK
 10
0.0
 20
0.0
 30
0.0
  9
$USERI1
 70
     0
  9
$USERI2
 70
     0
  9
$USERI3
 70
     0
  9
$USERI4
 70
     0
  9
$USERI5
 70
     0
  9
$USERR1
 40
0.0
  9
$USERR2
 40
0.0
  9
$USERR3
 40
0.0
  9
$USERR4
 40
0.0
  9
$USERR5
 40
0.0
  9
$WORLDVIEW
 70
     1
  9
$SHADEDGE
 70
     3
  9
$SHADEDIF
 70
    70
  9
$TILEMODE
 70
     1
  9
$MAXACTVP
 70
    64
  9
$PINSBASE
 10
0.0
 20
0.0
 30
0.0
  9
$PLIMCHECK
 70
     0
  9
$PEXTMIN
 10
1.000000000000000E+20
 20
1.000000000000000E+20
 30
1.000000000000000E+20
  9
$PEXTMAX
 10
-1.000000000000000E+20
 20
-1.000000000000000E+20
 30
-1.000000000000000E+20
  9
$PLIMMIN
 10
-3.17498779296875
 20
-3.174999952316284
  9
$PLIMMAX
 10
293.4970092773438
 20
206.692492723465
  9
$UNITMODE
 70
     0
  9
$VISRETAIN
 70
     1
  9
$PLINEGEN
 70
     0
  9
$PSLTSCALE
 70
     1
  9
$TREEDEPTH
 70
  3020
  9
$CMLSTYLE
  2
Standard
  9
$CMLJUST
 70
     0
  9
$CMLSCALE
 40
20.0
  9
$PROXYGRAPHICS
 70
     1
  9
$MEASUREMENT
 70
     1
  9
$CELWEIGHT
370
    -1
  9
$ENDCAPS
280
     0
  9
$JOINSTYLE
280
     0
  9
$LWDISPLAY
290
     1
  9
$INSUNITS
 70
     4
  9
$HYPERLINKBASE
  1

  9
$STYLESHEET
  1
monochrome.ctb
  9
$XEDIT
290
     1
  9
$CEPSNTYPE
380
     0
  9
$PSTYLEMODE
290
     1
  9
$FINGERPRINTGUID
  2
{B2A9A4DB-EEE3-43EE-BF52-088BC30E3E50}
  9
$VERSIONGUID
  2
{93F6C274-BAA6-4232-B0B4-09934B9EC234}
  9
$EXTNAMES
290
     1
  9
$PSVPSCALE
 40
0.0
  9
$OLESTARTUP
290
     0
  0
ENDSEC
  0
SECTION
  2
CLASSES
  0
CLASS
  1
ACDBDICTIONARYWDFLT
  2
AcDbDictionaryWithDefault
  3
ObjectDBX Classes
 90
        0
280
     0
281
     0
  0
CLASS
  1
ACDBPLACEHOLDER
  2
AcDbPlaceHolder
  3
ObjectDBX Classes
 90
        0
280
     0
281
     0
  0
CLASS
  1
LAYOUT
  2
AcDbLayout
  3
ObjectDBX Classes
 90
        0
280
     0
281
     0
  0
CLASS
  1
AMGSETTINGSOBJ
  2
AmgSettingsObj
  3
"AcadM|Product Description: AutoCAD Mechanical|Company: Autodesk"
 90
        0
280
     0
281
     0
  0
CLASS
  1
ACME_DOCUMENT
  2
AcMeDbDoc
  3
AcMeServices
 90
        0
280
     0
281
     0
  0
CLASS
  1
ACMESCOPE
  2
AcMeScope
  3
AcMeServices
 90
        0
280
     0
281
     0
  0
CLASS
  1
ACMECOMMANDHISTORY
  2
AcMeCommandHistory
  3
AcMeServices
 90
        0
280
     0
281
     0
  0
CLASS
  1
DICTIONARYVAR
  2
AcDbDictionaryVar
  3
ObjectDBX Classes
 90
        0
280
     0
281
     0
  0
CLASS
  1
ACIMSYSVARMAN
  2
AcImSysVarManager
  3
AcMeServices
 90
        0
280
     0
281
     0
  0
CLASS
  1
ACIMREALSYSVAR
  2
AcImRealSysVar
  3
AcMeServices
 90
        0
280
     0
281
     0
  0
CLASS
  1
ACIMINTSYSVAR
  2
AcImIntSysVar
  3
AcMeServices
 90
        0
280
     0
281
     0
  0
CLASS
  1
ACMEDRAWINGMAN
  2
AcMeDrawingMan
  3
AcMeServices
 90
        0
280
     0
281
     0
  0
CLASS
  1
ACMEVIEW
  2
AcMeView
  3
AcMeServices
 90
        0
280
     0
281
     0
  0
CLASS
  1
ACDBENTITYCACHE
  2
AcMeEntityCache
  3
AcMeServices
 90
        0
280
     0
281
     0
  0
CLASS
  1
GSMANAGER
  2
AcMeGSManager
  3
AcMeServices
 90
        0
280
     0
281
     0
  0
CLASS
  1
AMDTINTERNALREACTOR
  2
AmdtInternalReactor
  3
AcMeServices
 90
        0
280
     0
281
     0
  0
CLASS
  1
ACMESTATEMGR
  2
AcMeStateMgr
  3
AcMeServices
 90
        0
280
     0
281
     0
  0
CLASS
  1
ACGREFMASTER
  2
AcGrefMaster
  3
AcAttribServices
 90
        0
280
     0
281
     0
  0
CLASS
  1
ACME_DATABASE
  2
AcMeDbDatabase
  3
AcMeServices
 90
        0
280
     0
281
     0
  0
CLASS
  1
ACRFINSADJUSTERMGR
  2
AcRfInsAdjusterMgr
  3
AcMeServices
 90
        0
280
     0
281
     0
  0
CLASS
  1
ACGREFACADMASTER
  2
AcGrefacadMaster
  3
AcGrefServices
 90
        0
280
     0
281
     0
  0
CLASS
  1
AMIMASTER
  2
AmiMaster
  3
AmiServices
 90
        0
280
     0
281
     0
  0
CLASS
  1
ACMDATADICTIONARY
  2
AcmDataDictionary
  3
"AcmSymBB|Product Description: AutoCAD Mechanical|Company: Autodesk"
 90
        0
280
     0
281
     0
  0
CLASS
  1
ACMDATAENTRYBLOCK
  2
AcmDataEntryBlock
  3
"AcmSymBB|Product Description: AutoCAD Mechanical|Company: Autodesk"
 90
        0
280
     0
281
     0
  0
CLASS
  1
ACIMSTRSYSVAR
  2
AcImStrSysVar
  3
AcMeServices
 90
        0
280
     0
281
     0
  0
CLASS
  1
ACMSTANDARDISO
  2
AcmStandardISO
  3
"Amdt_StdImp|Product Description: AutoCAD Mechanical|Company: Autodesk"
 90
        0
280
     0
281
     0
  0
CLASS
  1
AMGOBJPROPCFG
  2
AmgObjPropCfg
  3
"AmgLay|Product Description: AutoCAD Mechanical|Company: Autodesk"
 90
        1
280
     0
281
     0
  0
CLASS
  1
AMDTEDGESTANDARDISO
  2
AmdtEdgeStdISO
  3
"Amdt_StdImp|Product Description: AutoCAD Mechanical|Company: Autodesk"
 90
        0
280
     0
281
     0
  0
CLASS
  1
ACMSURFSTANDARDISO
  2
AcmSurfTextStdISO
  3
"Amdt_StdImp|Product Description: AutoCAD Mechanical|Company: Autodesk"
 90
        0
280
     0
281
     0
  0
CLASS
  1
ACMFCFSTANDARDISO
  2
AcmFCFStdISO
  3
"Amdt_StdImp|Product Description: AutoCAD Mechanical|Company: Autodesk"
 90
        0
280
     0
281
     0
  0
CLASS
  1
ACMWELDSTANDARDISO
  2
AcmWeldingStdISO
  3
"Amdt_StdImp|Product Description: AutoCAD Mechanical|Company: Autodesk"
 90
        0
280
     0
281
     0
  0
CLASS
  1
ACMIDSTANDARDISO
  2
AcmIdStdISO
  3
"Amdt_StdImp|Product Description: AutoCAD Mechanical|Company: Autodesk"
 90
        0
280
     0
281
     0
  0
CLASS
  1
ACMDATUMSTANDARDISO
  2
AcmDatumStdISO
  3
"Amdt_StdImp|Product Description: AutoCAD Mechanical|Company: Autodesk"
 90
        0
280
     0
281
     0
  0
CLASS
  1
ACMBOMSTANDARDISO
  2
AcmBOMStdISO
  3
"Amdt_StdImp|Product Description: AutoCAD Mechanical|Company: Autodesk"
 90
        0
280
     0
281
     0
  0
CLASS
  1
ACMDETAILSTANDARDISO
  2
AmdtDetailSymStdISO
  3
"Amdt_StdImp|Product Description: AutoCAD Mechanical|Company: Autodesk"
 90
        0
280
     0
281
     0
  0
CLASS
  1
ACMSECTIONSTANDARDISO
  2
AmdtSectionSymStdISO
  3
"Amdt_StdImp|Product Description: AutoCAD Mechanical|Company: Autodesk"
 90
        0
280
     0
281
     0
  0
CLASS
  1
ACMCENTERLINESTANDARDISO
  2
AmdtCenterLineStdISO
  3
"Amdt_StdImp|Product Description: AutoCAD Mechanical|Company: Autodesk"
 90
        0
280
     0
281
     0
  0
CLASS
  1
ACAMGLAYSTD
  2
AcAmgLayStd
  3
"AmgLay|Product Description: AutoCAD Mechanical|Company: Autodesk"
 90
        0
280
     0
281
     0
  0
CLASS
  1
ACAMGDIMSTD
  2
AcAmgDimStd
  3
"AmgDim|Product Description: AutoCAD Mechanical|Company: Autodesk"
 90
        0
280
     0
281
     0
  0
CLASS
  1
ACAMGTITLESTD
  2
AcAmgTitleStd
  3
"AmgTitle|Product Description: AutoCAD Mechanical|Company: Autodesk"
 90
        0
280
     0
281
     0
  0
CLASS
  1
ACAMGFILTERDAT
  2
AcAmgFilterDat
  3
"AcadM|Product Description: AutoCAD Mechanical|Company: Autodesk"
 90
        0
280
     0
281
     0
  0
CLASS
  1
LAYER_INDEX
  2
AcDbLayerIndex
  3
ObjectDBX Classes
 90
    32768
280
     0
281
     0
  0
CLASS
  1
IDBUFFER
  2
AcDbIdBuffer
  3
ObjectDBX Classes
 90
    32768
280
     0
281
     0
  0
CLASS
  1
PLOTSETTINGS
  2
AcDbPlotSettings
  3
ObjectDBX Classes
 90
    32768
280
     0
281
     0
  0
CLASS
  1
AMDTFORMULAUPDATEDISPATCHER
  2
AmdtFormulaUpdateDispatcher
  3
AcMeServices
 90
        0
280
     0
281
     0
  0
CLASS
  1
ACMSTANDARDANSI
  2
AcmStandardANSI
  3
"Amdt_StdImp|Product Description: AutoCAD Mechanical|Company: Autodesk"
 90
    32768
280
     0
281
     0
  0
CLASS
  1
ACMSURFSTANDARDANSI
  2
AcmSurfTextStdANSI
  3
"Amdt_StdImp|Product Description: AutoCAD Mechanical|Company: Autodesk"
 90
    32768
280
     0
281
     0
  0
CLASS
  1
ACMFCFSTANDARDANSI
  2
AcmFCFStdANSI
  3
"Amdt_StdImp|Product Description: AutoCAD Mechanical|Company: Autodesk"
 90
    32768
280
     0
281
     0
  0
CLASS
  1
ACMWELDSTANDARDANSI
  2
AcmWeldingStdANSI
  3
"Amdt_StdImp|Product Description: AutoCAD Mechanical|Company: Autodesk"
 90
    32768
280
     0
281
     0
  0
CLASS
  1
ACMIDSTANDARDANSI
  2
AcmIdStdANSI
  3
"Amdt_StdImp|Product Description: AutoCAD Mechanical|Company: Autodesk"
 90
    32768
280
     0
281
     0
  0
CLASS
  1
ACMDATUMSTANDARDANSI
  2
AcmDatumStdANSI
  3
"Amdt_StdImp|Product Description: AutoCAD Mechanical|Company: Autodesk"
 90
    32768
280
     0
281
     0
  0
CLASS
  1
ACMBOMSTANDARDANSI
  2
AcmBOMStdANSI
  3
"Amdt_StdImp|Product Description: AutoCAD Mechanical|Company: Autodesk"
 90
    32768
280
     0
281
     0
  0
CLASS
  1
ACMDETAILSTANDARDANSI
  2
AmdtDetailSymStdANSI
  3
"Amdt_StdImp|Product Description: AutoCAD Mechanical|Company: Autodesk"
 90
    32768
280
     0
281
     0
  0
CLASS
  1
ACMSECTIONSTANDARDANSI
  2
AmdtSectionSymStdANSI
  3
"Amdt_StdImp|Product Description: AutoCAD Mechanical|Company: Autodesk"
 90
    32768
280
     0
281
     0
  0
CLASS
  1
ACMCENTERLINESTANDARDANSI
  2
AmdtCenterLineStdANSI
  3
"Amdt_StdImp|Product Description: AutoCAD Mechanical|Company: Autodesk"
 90
    32768
280
     0
281
     0
  0
CLASS
  1
ACMBOM
  2
AcmBom
  3
"AcmSymBB|Product Description: AutoCAD Mechanical|Company: Autodesk"
 90
        0
280
     0
281
     0
  0
CLASS
  1
ACMDATAENTRYPART
  2
AcmDataEntryPart
  3
"AcmSymBB|Product Description: AutoCAD Mechanical|Company: Autodesk"
 90
    32768
280
     0
281
     0
  0
CLASS
  1
ACMPARTREF
  2
AcmPartRef
  3
"AcmSymBB|Product Description: AutoCAD Mechanical|Company: Autodesk"
 90
    35839
280
     0
281
     1
  0
CLASS
  1
ACDBCIRCARCRES
  2
AcDbCircArcRes
  3
AcGrefServices
 90
    32768
280
     0
281
     0
  0
CLASS
  1
ACMBOMROW
  2
AcmBomRow
  3
"AcmSymBB|Product Description: AutoCAD Mechanical|Company: Autodesk"
 90
    32768
280
     0
281
     0
  0
CLASS
  1
ACMBALLOON
  2
AcmBalloon
  3
"AcmSymBB|Product Description: AutoCAD Mechanical|Company: Autodesk"
 90
    35839
280
     0
281
     1
  0
CLASS
  1
AMDTNOTE
  2
AmdtNote
  3
"AcmSymBB|Product Description: AutoCAD Mechanical|Company: Autodesk"
 90
    35839
280
     0
281
     1
  0
CLASS
  1
STDPART2D
  2
AmgStdPart
  3
"g3vace|Class: AmgStdPart|Product Description: AutoCAD Mechanical|Company: Autodesk"
 90
    35839
280
     0
281
     1
  0
CLASS
  1
ACDBSTDPARTRES_LINE
  2
AcDbStdPartRes_Line
  3
"g3vace|Class: AcDbStdPartRes_Line|Product Description: AutoCAD Mechanical|Company: Autodesk"
 90
    32768
280
     0
281
     0
  0
CLASS
  1
ACMDATAENTRY
  2
AcmDataEntry
  3
"AcmSymBB|Product Description: AutoCAD Mechanical|Company: Autodesk"
 90
        0
280
     0
281
     0
  0
CLASS
  1
ACDBOPPOLYLINERES
  2
AcDbOpPolylineRes
  3
AcGrefServices
 90
    32768
280
     0
281
     0
  0
CLASS
  1
ACMPARTLIST
  2
AcmPartList
  3
"AcmSymBB|Product Description: AutoCAD Mechanical|Company: Autodesk"
 90
    35839
280
     0
281
     1
  0
CLASS
  1
ACDBLINERES
  2
AcDbLineRes
  3
AcGrefServices
 90
    32768
280
     0
281
     0
  0
CLASS
  1
ACRFINSADJ
  2
AcRfInsAdjuster
  3
AcMeServices
 90
    32768
280
     0
281
     0
  0
CLASS
  1
AM_DRAWING_MGR
  2
AcDmDwgMgr
  3
AcMechDwgViewMgmt
 90
        0
280
     0
281
     0
  0
CLASS
  1
AM_DWG_DOCUMENT
  2
AcDmDwgDocument
  3
AcMechDwgViewMgmt
 90
        0
280
     0
281
     0
  0
CLASS
  1
AM_DWG_SHEET
  2
AcDmSheet
  3
AcMechDwgViewMgmt
 90
        0
280
     0
281
     0
  0
CLASS
  1
AM_VIEWDIMPARMAP
  2
AcDmViewDimParMap
  3
AcMechDwgViewMgmt
 90
        0
280
     0
281
     0
  0
CLASS
  1
AM_DWGMGR_NAME
  2
AcDmDwgMgrName
  3
AcMechDwgViewMgmt
 90
        0
280
     0
281
     0
  0
CLASS
  1
AMDTMENUSTATEMGR
  2
AmdtMenuStateMgr
  3
McadcomServices
 90
        0
280
     0
281
     0
  0
CLASS
  1
AMDTMCOMMENUSTATE
  2
AmdtMcomMenuState
  3
McadcomServices
 90
        0
280
     0
281
     0
  0
CLASS
  1
ASAPP
  2
AcAsAppObject
  3
AutoSurfServices
 90
        0
280
     0
281
     0
  0
CLASS
  1
IM_STATIC_MAN
  2
AcImStaticVarManager
  3
AcMeServices
 90
        0
280
     0
281
     0
  0
CLASS
  1
ACIMDBLSTATICVAR
  2
AcImDblStaticVar
  3
AcMeServices
 90
        0
280
     0
281
     0
  0
CLASS
  1
ACIMSTRSTATICVAR
  2
AcImStrStaticVar
  3
AcMeServices
 90
        0
280
     0
281
     0
  0
CLASS
  1
ACIMINTSTATICVAR
  2
AcImIntStaticVar
  3
AcMeServices
 90
        0
280
     0
281
     0
  0
CLASS
  1
ACASGREFMASTER
  2
AcAsGrefMaster
  3
AutoSurfResolverServices
 90
        0
280
     0
281
     0
  0
CLASS
  1
ACADGREFMODULE
  2
AcAdGrefModule
  3
AdGrefServices
 90
        0
280
     0
281
     0
  0
CLASS
  1
AMDTMAPISURFMOUDULE
  2
AmdtMApiSurfModule
  3
MApiSurfServices
 90
        0
280
     0
281
     0
  0
CLASS
  1
MAPIAMMOUDLE
  2
MApiAmModule
  3
MApiAmServices
 90
        0
280
     0
281
     0
  0
CLASS
  1
AMDTADMENUSTATE
  2
AmdtAdMenuState
  3
DesignerServices
 90
        0
280
     0
281
     0
  0
CLASS
  1
ADAPPL
  2
AcAdAppl
  3
DesignerServices
 90
        0
280
     0
281
     0
  0
CLASS
  1
DEPMGR
  2
AcAdDepMgr
  3
DesignerServices
 90
        0
280
     0
281
     0
  0
CLASS
  1
PARAMMGR
  2
AcAdParamMgr
  3
DesignerServices
 90
        0
280
     0
281
     0
  0
CLASS
  1
PARAMSCOPE
  2
AcAdParamScope
  3
DesignerServices
 90
        0
280
     0
281
     0
  0
CLASS
  1
NAMEDAPPL
  2
AcAdNamedAppl
  3
DesignerServices
 90
        0
280
     0
281
     0
  0
CLASS
  1
ADHNTMPLT
  2
AdHoleNoteTemplateMgr
  3
DesignerServices
 90
    32768
280
     0
281
     0
  0
CLASS
  1
AM_HNTEMPLATE_MGR_NAME
  2
AdHoleNoteTemplateMgrName
  3
DesignerServices
 90
    32768
280
     0
281
     0
  0
CLASS
  1
AMDTDMMENUSTATE
  2
AmdtDmMenuState
  3
AcMechDwgViewMgmt
 90
        0
280
     0
281
     0
  0
CLASS
  1
MAPIADMODULE
  2
MApiAdModule
  3
MApiAdServices
 90
        0
280
     0
281
     0
  0
CLASS
  1
AMDTAMMENUSTATE
  2
AmdtAmMenuState
  3
DesignerAssemblies
 90
        0
280
     0
281
     0
  0
CLASS
  1
ACAMPROJECT
  2
AcAmProject
  3
DesignerAssemblies
 90
        0
280
     0
281
     0
  0
CLASS
  1
ACAMGRCOMPDEF
  2
AcAmGrCompDef
  3
DesignerAssemblies
 90
        0
280
     0
281
     0
  0
CLASS
  1
ACCMCONTEXT
  2
AcCmContext
  3
DesignerAssemblies
 90
        0
280
     0
281
     0
  0
CLASS
  1
ACAMCOMPDEF
  2
AcAmCompDef
  3
DesignerAssemblies
 90
        0
280
     0
281
     0
  0
CLASS
  1
ACAMCOMPDEFMGR
  2
AcAmCompDefMgr
  3
DesignerAssemblies
 90
        0
280
     0
281
     0
  0
CLASS
  1
AMCONTEXTMGR
  2
AcAmContextMgr
  3
DesignerAssemblies
 90
        0
280
     0
281
     0
  0
CLASS
  1
ACAMCONTEXTMODELER
  2
AcAmContextModeler
  3
DesignerAssemblies
 90
        0
280
     0
281
     0
  0
CLASS
  1
CATALOGSTATE
  2
AcAmCatalogState
  3
DesignerAssemblies
 90
        0
280
     0
281
     0
  0
CLASS
  1
ACAMGRCOMPDEFSET
  2
AcAmGrCompDefSet
  3
DesignerAssemblies
 90
        0
280
     0
281
     0
  0
CLASS
  1
AMDTBROWSERDBTAB
  2
AmdtBrowserDbTab
  3
McadcomServices
 90
        0
280
     0
281
     0
  0
CLASS
  1
CBROWSERAPPOBJECT
  2
CBrowserAppObject
  3
McadcomServices
 90
        0
280
     0
281
     0
  0
CLASS
  1
DM_PLACEHOLDER
  2
AcDmSelsetPlaceholder
  3
AcMechDwgViewMgmt
 90
        0
280
     0
281
     0
  0
CLASS
  1
ACMPICKOBJ
  2
AcmPickEnt
  3
"AcmSymBB|Product Description: AutoCAD Mechanical|Company: Autodesk"
 90
    32768
280
     0
281
     1
  0
CLASS
  1
ACMNOTESTANDARDISO
  2
AmdtNoteStdISO
  3
"Amdt_StdImp|Product Description: AutoCAD Mechanical|Company: Autodesk"
 90
        0
280
     0
281
     0
  0
CLASS
  1
ACMNOTESTANDARDANSI
  2
AmdtNoteStdANSI
  3
"Amdt_StdImp|Product Description: AutoCAD Mechanical|Company: Autodesk"
 90
    32768
280
     0
281
     0
  0
CLASS
  1
ACMTHREADLINESTANDARDISO
  2
AmdtThreadLineStdISO
  3
"Amdt_StdImp|Product Description: AutoCAD Mechanical|Company: Autodesk"
 90
        0
280
     0
281
     0
  0
CLASS
  1
ACMTHREADLINESTANDARDANSI
  2
AmdtThreadLineStdANSI
  3
"Amdt_StdImp|Product Description: AutoCAD Mechanical|Company: Autodesk"
 90
    32768
280
     0
281
     0
  0
CLASS
  1
TABLESTYLE
  2
AcDbTableStyle
  3
ObjectDBX Classes
 90
     4095
280
     0
281
     0
  0
CLASS
  1
SORTENTSTABLE
  2
AcDbSortentsTable
  3
ObjectDBX Classes
 90
        0
280
     0
281
     0
  0
CLASS
  1
MATERIAL
  2
AcDbMaterial
  3
ObjectDBX Classes
 90
     1024
280
     0
281
     0
  0
CLASS
  1
VISUALSTYLE
  2
AcDbVisualStyle
  3
ObjectDBX Classes
 90
     4095
280
     0
281
     0
  0
CLASS
  1
ACRFATTGENMGR
  2
AcRfAttGeneralMgr
  3
AcAttribServices
 90
        0
280
     0
281
     0
  0
CLASS
  1
ACRFOBJATTMGR
  2
AcRfObjAttGroupMgr
  3
AcAttribServices
 90
        0
280
     0
281
     0
  0
CLASS
  1
ACRFMCADAPIATTHOLDER
  2
AcRfMCADAPIAttHolder
  3
AcAttribServices
 90
        0
280
     0
281
     0
  0
CLASS
  1
AMDTSYSATTR
  2
AmdtSystemAttribute
  3
AcAttribServices
 90
        0
280
     0
281
     0
  0
CLASS
  1
ACMTAPERSTANDARDISO
  2
AcmTaperStdISO
  3
"Amdt_StdImp|Product Description: AutoCAD Mechanical|Company: Autodesk"
 90
        0
280
     0
281
     0
  0
CLASS
  1
CAMSSTRUCTBTNSTATE
  2
StructBtnState
  3
L"DesignerAssemblies"
 90
        0
280
     0
281
     0
  0
CLASS
  1
DIMASSOC
  2
AcDbDimAssoc
  3
"AcDbDimAssoc|Product Desc:     AcDim ARX App For Dimension|Company:          Autodesk, Inc.|WEB Address:      www.autodesk.com"
 90
    32768
280
     0
281
     0
  0
ENDSEC
  0
SECTION
  2
TABLES
  0
TABLE
  2
VPORT
  5
8
330
0
100
AcDbSymbolTable
 70
     1
  0
VPORT
  5
B0EC
330
8
100
AcDbSymbolTableRecord
100
AcDbViewportTableRecord
  2
*Active
 70
     0
 10
0.0
 20
0.0
 11
1.0
 21
1.0
 12
210.0230466129974
 22
148.5378864425852
 13
0.0
 23
0.0
 14
2.5
 24
2.5
 15
10.0
 25
10.0
 16
0.0
 26
0.0
 36
1.0
 17
0.0
 27
0.0
 37
0.0
 40
299.319918374609
 41
1.648648648648648
 42
50.0
 43
-1370.695619172058
 44
-1370.695619172058
 50
0.0
 51
0.0
 71
    16
 72
   100
 73
     1
 74
     3
 75
     0
 76
     0
 77
     0
 78
     0
281
     0
 65
     0
110
0.0
120
0.0
130
0.0
111
1.0
121
0.0
131
0.0
112
0.0
122
1.0
132
0.0
 79
     0
146
0.0
  0
ENDTAB
  0
TABLE
  2
LTYPE
  5
5
330
0
100
AcDbSymbolTable
 70
    27
  0
LTYPE
  5
14
330
5
100
AcDbSymbolTableRecord
100
AcDbLinetypeTableRecord
  2
ByBlock
 70
     0
  3

 72
    65
 73
     0
 40
0.0
  0
LTYPE
  5
15
330
5
100
AcDbSymbolTableRecord
100
AcDbLinetypeTableRecord
  2
ByLayer
 70
     0
  3

 72
    65
 73
     0
 40
0.0
  0
LTYPE
  5
16
330
5
100
AcDbSymbolTableRecord
100
AcDbLinetypeTableRecord
  2
Continuous
 70
     0
  3
Solid line
 72
    65
 73
     0
 40
0.0
  0
LTYPE
  5
4F
330
5
100
AcDbSymbolTableRecord
100
AcDbLinetypeTableRecord
  2
AM_ISO02W050
 70
     0
  3
__ __ __ __ __ __ __ __ __ __ __ __ __ __ __
 72
    65
 73
     2
 40
7.5
 49
6.0
 74
     0
 49
-1.5
 74
     0
  0
LTYPE
  5
52
330
5
100
AcDbSymbolTableRecord
100
AcDbLinetypeTableRecord
  2
Amconstr
 70
     0
  3
_______________________
 72
    65
 73
     2
 40
9999.0
 49
9999.0
 74
     0
 49
0.0
 74
     0
  0
LTYPE
  5
64
330
5
100
AcDbSymbolTableRecord
100
AcDbLinetypeTableRecord
  2
ACISOWELD
 70
     0
  3
_ _ _ _ _
 72
    65
 73
     2
 40
2.0
 49
2.0
 74
     0
 49
-1.0
 74
     0
  0
LTYPE
  5
65
330
5
100
AcDbSymbolTableRecord
100
AcDbLinetypeTableRecord
  2
ACISOTGB
 70
     0
  3
__ . . __ . .
 72
    65
 73
     6
 40
9.0
 49
4.0
 74
     0
 49
-1.0
 74
     0
 49
1.0
 74
     0
 49
-1.0
 74
     0
 49
1.0
 74
     0
 49
-1.0
 74
     0
  0
LTYPE
  5
66
330
5
100
AcDbSymbolTableRecord
100
AcDbLinetypeTableRecord
  2
ACISOTGL
 70
     0
  3
_ _ _ _ _
 72
    65
 73
     2
 40
3.0
 49
2.0
 74
     0
 49
-1.0
 74
     0
  0
LTYPE
  5
69
330
5
100
AcDbSymbolTableRecord
100
AcDbLinetypeTableRecord
  2
CENTER
 70
     0
  3
__ . __
 72
    65
 73
     4
 40
7.0
 49
4.0
 74
     0
 49
-1.0
 74
     0
 49
1.0
 74
     0
 49
-1.0
 74
     0
  0
LTYPE
  5
A6E
330
5
100
AcDbSymbolTableRecord
100
AcDbLinetypeTableRecord
  2
PHANTOM2
 70
     0
  3
Phantom (.5x) ___ _ _ ___ _ _ ___ _ _ ___ _ _
 72
    65
 73
     6
 40
31.75
 49
15.875
 74
     0
 49
-3.174999999999999
 74
     0
 49
3.174999999999999
 74
     0
 49
-3.174999999999999
 74
     0
 49
3.174999999999999
 74
     0
 49
-3.174999999999999
 74
     0
  0
LTYPE
  5
4DED
330
5
100
AcDbSymbolTableRecord
100
AcDbLinetypeTableRecord
  2
中線
 70
     0
  3
___________________
 72
    65
 73
     2
 40
2.0
 49
1.0
 74
     0
 49
1.0
 74
     0
  0
LTYPE
  5
4DF6
330
5
100
AcDbSymbolTableRecord
100
AcDbLinetypeTableRecord
  2
細線
 70
     0
  3
___________________
 72
    65
 73
     2
 40
2.0
 49
1.0
 74
     0
 49
1.0
 74
     0
  0
LTYPE
  5
4DF7
330
5
100
AcDbSymbolTableRecord
100
AcDbLinetypeTableRecord
  2
太線
 70
     0
  3
___________________
 72
    65
 73
     2
 40
2.0
 49
1.0
 74
     0
 49
1.0
 74
     0
  0
LTYPE
  5
4EA7
330
5
100
AcDbSymbolTableRecord
100
AcDbLinetypeTableRecord
  2
文字
 70
     0
  3
_________________
 72
    65
 73
     2
 40
2.0
 49
1.0
 74
     0
 49
1.0
 74
     0
  0
LTYPE
  5
4EA9
330
5
100
AcDbSymbolTableRecord
100
AcDbLinetypeTableRecord
  2
寸法線
 70
     0
  3
________________
 72
    65
 73
     2
 40
2.0
 49
1.0
 74
     0
 49
1.0
 74
     0
  0
LTYPE
  5
4F12
330
5
100
AcDbSymbolTableRecord
100
AcDbLinetypeTableRecord
  2
ハッチング
 70
     0
  3
_________________
 72
    65
 73
     2
 40
2.0
 49
1.0
 74
     0
 49
1.0
 74
     0
  0
LTYPE
  5
5180
330
5
100
AcDbSymbolTableRecord
100
AcDbLinetypeTableRecord
  2
陰線1
 70
     0
  3
__ __ __ __
 72
    65
 73
     2
 40
4.0
 49
2.2
 74
     0
 49
-1.8
 74
     0
  0
LTYPE
  5
5182
330
5
100
AcDbSymbolTableRecord
100
AcDbLinetypeTableRecord
  2
切断線
 70
     0
  3
/\/-/\/-/\/-/\/-/\/-/\/
 72
    65
 73
     2
 40
11.0001
 49
0.0001
 74
     4
 75
   135
340
56
 46
0.04
 50
0.0
 44
0.0
 45
0.0
 49
-11.0
 74
     0
  0
LTYPE
  5
5183
330
5
100
AcDbSymbolTableRecord
100
AcDbLinetypeTableRecord
  2
想像線1
 70
     0
  3
__ __ __ _____ __ __ ____
 72
    65
 73
     6
 40
14.5
 49
6.0
 74
     0
 49
-1.5
 74
     0
 49
2.0
 74
     0
 49
-1.5
 74
     0
 49
2.0
 74
     0
 49
-1.5
 74
     0
  0
LTYPE
  5
5185
330
5
100
AcDbSymbolTableRecord
100
AcDbLinetypeTableRecord
  2
中心線1
 70
     0
  3
___ _ ___ _ ___
 72
    65
 73
     4
 40
18.0
 49
12.0
 74
     0
 49
-2.0
 74
     0
 49
2.0
 74
     0
 49
-2.0
 74
     0
  0
LTYPE
  5
5188
330
5
100
AcDbSymbolTableRecord
100
AcDbLinetypeTableRecord
  2
補助線
 70
     0
  3
______________
 72
    65
 73
     2
 40
2.0
 49
1.0
 74
     0
 49
1.0
 74
     0
  0
LTYPE
  5
6427
330
5
100
AcDbSymbolTableRecord
100
AcDbLinetypeTableRecord
  2
HIDDEN
 70
     0
  3
Hidden __ __ __ __ __ __ __ __ __ __ __ __ __ _
 72
    65
 73
     2
 40
0.375
 49
0.25
 74
     0
 49
-0.125
 74
     0
  0
LTYPE
  5
AC81
330
5
100
AcDbSymbolTableRecord
100
AcDbLinetypeTableRecord
  2
破断線
 70
     0
  3
/\/-/\/-/\/-/\/-/\/-/\/
 72
    65
 73
     2
 40
0.4401
 49
0.0001
 74
     4
 75
   136
340
AC80
 46
0.0016
 50
0.0
 44
0.0
 45
0.0
 49
-0.4400000000000001
 74
     0
  0
LTYPE
  5
AC9E
330
5
100
AcDbSymbolTableRecord
100
AcDbLinetypeTableRecord
  2
Amzigzag
 70
     0
  3
/\/-/\/-/\/-/\/-/\/-/\/
 72
    65
 73
     2
 40
11.0001
 49
0.0001
 74
     4
 75
   135
340
56
 46
0.04
 50
0.0
 44
0.0
 45
0.0
 49
-11.0
 74
     0
  0
LTYPE
  5
AF0F
330
5
100
AcDbSymbolTableRecord
100
AcDbLinetypeTableRecord
  2
genzigzag
 70
     0
  3
/\/-/\/-/\/-/\/-/\/-/\/
 72
    65
 73
     2
 40
12.0001
 49
0.0001
 74
     4
 75
   135
340
AC80
 46
2.0
 50
0.0
 44
0.0
 45
0.0
 49
-12.0
 74
     0
  0
LTYPE
  5
AF95
330
5
100
AcDbSymbolTableRecord
100
AcDbLinetypeTableRecord
  2
AM_ISO08W050
 70
     0
  3
____ . ____ . ____ . ____ . ____ . ____ . ____
 72
    65
 73
     4
 40
18.0
 49
12.0
 74
     0
 49
-1.5
 74
     0
 49
3.0
 74
     0
 49
-1.5
 74
     0
  0
LTYPE
  5
AF96
330
5
100
AcDbSymbolTableRecord
100
AcDbLinetypeTableRecord
  2
AM_ISO09W050
 70
     0
  3
_____ . . _____ . . _____ . . ____ .. ____
 72
    65
 73
     6
 40
22.5
 49
12.0
 74
     0
 49
-1.5
 74
     0
 49
3.0
 74
     0
 49
-1.5
 74
     0
 49
3.0
 74
     0
 49
-1.5
 74
     0
  0
LTYPE
  5
AF97
330
5
100
AcDbSymbolTableRecord
100
AcDbLinetypeTableRecord
  2
AM_ISO08W050x2
 70
     0
  3
__ . __ . __ . __ . __ . __
 72
    65
 73
     4
 40
9.0
 49
6.0
 74
     0
 49
-0.75
 74
     0
 49
1.5
 74
     0
 49
-0.75
 74
     0
  0
LTYPE
  5
AF98
330
5
100
AcDbSymbolTableRecord
100
AcDbLinetypeTableRecord
  2
AM_ISO02W050x2
 70
     0
  3
 _ _ _ _ _ _ _ _ _ _ _ _
 72
    65
 73
     2
 40
3.75
 49
3.0
 74
     0
 49
-0.75
 74
     0
  0
ENDTAB
  0
TABLE
  2
LAYER
  5
2
102
{ACAD_XDICTIONARY
360
3F95
102
}
330
0
100
AcDbSymbolTable
 70
    23
  0
LAYER
  5
10
330
2
100
AcDbSymbolTableRecord
100
AcDbLayerTableRecord
  2
0
 70
     0
 62
     7
  6
Continuous
370
    -3
390
F
  0
LAYER
  5
6D1
330
2
100
AcDbSymbolTableRecord
100
AcDbLayerTableRecord
  2
Defpoints
 70
     0
 62
     7
  6
Continuous
290
     0
370
    -3
390
F
  0
LAYER
  5
5F85
330
2
100
AcDbSymbolTableRecord
100
AcDbLayerTableRecord
  2
AM_0
 70
     0
 62
     7
  6
中線
370
    30
390
F
1001
AcAecLayerStandard
1000

1000

  0
LAYER
  5
AC9F
330
2
100
AcDbSymbolTableRecord
100
AcDbLayerTableRecord
  2
size
 70
     0
 62
     5
  6
Continuous
290
     0
370
    25
390
F
  0
LAYER
  5
ACA0
330
2
100
AcDbSymbolTableRecord
100
AcDbLayerTableRecord
  2
waku
 70
     0
 62
     7
  6
Continuous
370
    35
390
F
  0
LAYER
  5
ACA1
330
2
100
AcDbSymbolTableRecord
100
AcDbLayerTableRecord
  2
AM_6
 70
     0
 62
     2
  6
文字
370
    13
390
F
1001
AcAecLayerStandard
1000

1000

  0
LAYER
  5
ACC8
330
2
100
AcDbSymbolTableRecord
100
AcDbLayerTableRecord
  2
hyomoji
 70
     0
 62
     2
  6
Continuous
370
    13
390
F
  0
LAYER
  5
ACC9
330
2
100
AcDbSymbolTableRecord
100
AcDbLayerTableRecord
  2
hyosen1
 70
     0
 62
     1
  6
Continuous
370
    30
390
F
  0
LAYER
  5
ACCA
330
2
100
AcDbSymbolTableRecord
100
AcDbLayerTableRecord
  2
hyosen2
 70
     0
 62
     1
  6
Continuous
370
    13
390
F
  0
LAYER
  5
AD60
330
2
100
AcDbSymbolTableRecord
100
AcDbLayerTableRecord
  2
AM_1
 70
     0
 62
    30
  6
太線
370
    40
390
F
1001
AcAecLayerStandard
1000

1000

  0
LAYER
  5
AD64
330
2
100
AcDbSymbolTableRecord
100
AcDbLayerTableRecord
  2
AM_2
 70
     0
 62
     1
  6
細線
370
    13
390
F
1001
AcAecLayerStandard
1000

1000

  0
LAYER
  5
AD67
330
2
100
AcDbSymbolTableRecord
100
AcDbLayerTableRecord
  2
AM_3
 70
     0
 62
     6
  6
陰線1
370
    13
390
F
1001
AcAecLayerStandard
1000

1000

  0
LAYER
  5
AD68
330
2
100
AcDbSymbolTableRecord
100
AcDbLayerTableRecord
  2
AM_5
 70
     0
 62
     3
  6
寸法線
370
    13
390
F
1001
AcAecLayerStandard
1000

1000

  0
LAYER
  5
AD69
330
2
100
AcDbSymbolTableRecord
100
AcDbLayerTableRecord
  2
AM_7
 70
     0
 62
     4
  6
中心線1
370
    13
390
F
1001
AcAecLayerStandard
1000

1000

  0
LAYER
  5
AD6A
330
2
100
AcDbSymbolTableRecord
100
AcDbLayerTableRecord
  2
AM_8
 70
     0
 62
     1
  6
ハッチング
370
    13
390
F
1001
AcAecLayerStandard
1000

1000

  0
LAYER
  5
AD6E
330
2
100
AcDbSymbolTableRecord
100
AcDbLayerTableRecord
  2
AM_10
 70
     0
 62
     7
  6
切断線
370
    30
390
F
1001
AcAecLayerStandard
1000

1000

  0
LAYER
  5
AD6F
330
2
100
AcDbSymbolTableRecord
100
AcDbLayerTableRecord
  2
AM_11
 70
     0
 62
     2
  6
想像線1
370
    13
390
F
1001
AcAecLayerStandard
1000

1000

  0
LAYER
  5
B1B6
330
2
100
AcDbSymbolTableRecord
100
AcDbLayerTableRecord
  2
AM_CL
 70
     1
 62
    -1
  6
Amconstr
370
    13
390
F
1001
AcAecLayerStandard
1000

1000

  0
LAYER
  5
B621
330
2
100
AcDbSymbolTableRecord
100
AcDbLayerTableRecord
  2
0台座
 70
     0
 62
    74
  6
中線
370
    30
390
F
1001
AcAecLayerStandard
1000

1000

  0
LAYER
  5
B622
330
2
100
AcDbSymbolTableRecord
100
AcDbLayerTableRecord
  2
0カム
 70
     0
 62
    42
  6
中線
370
    30
390
F
1001
AcAecLayerStandard
1000

1000

  0
LAYER
  5
B623
330
2
100
AcDbSymbolTableRecord
100
AcDbLayerTableRecord
  2
0ハンドル
 70
     0
 62
   122
  6
中線
370
    30
390
F
1001
AcAecLayerStandard
1000

1000

  0
LAYER
  5
B624
330
2
100
AcDbSymbolTableRecord
100
AcDbLayerTableRecord
  2
0受け
 70
     0
 62
   222
  6
中線
370
    30
390
F
1001
AcAecLayerStandard
1000

1000

  0
LAYER
  5
B625
330
2
100
AcDbSymbolTableRecord
100
AcDbLayerTableRecord
  2
0樹脂スラセ2
 70
     0
 62
   221
  6
中線
370
    30
390
F
1001
AcAecLayerStandard
1000

1000

  0
ENDTAB
  0
TABLE
  2
STYLE
  5
3
330
0
100
AcDbSymbolTable
 70
     6
  0
STYLE
  5
11
330
3
100
AcDbSymbolTableRecord
100
AcDbTextStyleTableRecord
  2
STANDARD
 70
     0
 40
0.0
 41
0.7
 50
0.0
 71
     0
 42
3.2
  3
romans.shx
  4
extfont.shx
  0
STYLE
  5
56
330
3
100
AcDbSymbolTableRecord
100
AcDbTextStyleTableRecord
  2

 70
     1
 40
0.0
 41
1.0
 50
0.0
 71
     0
 42
2.5
  3
ltypeshp.shx
  4

  0
STYLE
  5
58
330
3
100
AcDbSymbolTableRecord
100
AcDbTextStyleTableRecord
  2
ACISOTS
 70
     0
 40
1.0
 41
1.0
 50
0.0
 71
     0
 42
2.5
  3
isocp.shx
  4
extfont.shx
  0
STYLE
  5
63
330
3
100
AcDbSymbolTableRecord
100
AcDbTextStyleTableRecord
  2
ACISOGDT
 70
     0
 40
0.0
 41
1.0
 50
0.0
 71
     0
 42
2.5
  3
amgdt.shx
  4

  0
STYLE
  5
A74
330
3
100
AcDbSymbolTableRecord
100
AcDbTextStyleTableRecord
  2
DIM
 70
     0
 40
0.0
 41
1.0
 50
0.0
 71
     0
 42
2.5
  3
monotxt.shx
  4
extfont.shx
  0
STYLE
  5
AC80
330
3
100
AcDbSymbolTableRecord
100
AcDbTextStyleTableRecord
  2

 70
     1
 40
0.0
 41
1.0
 50
0.0
 71
     0
 42
3.2
  3
genltshp.shx
  4

  0
ENDTAB
  0
TABLE
  2
VIEW
  5
6
330
0
100
AcDbSymbolTable
 70
     6
  0
VIEW
  5
AE1
330
6
100
AcDbSymbolTableRecord
100
AcDbViewTableRecord
  2
AM_VIEW1
 70
     0
 40
129.7276464542651
 10
1775.10588156276
 20
1793.121228859297
 41
148.5
 11
0.0
 21
0.0
 31
1.0
 12
0.0
 22
0.0
 32
0.0
 42
50.0
 43
-1370.695619172058
 44
-1370.695619172058
 50
0.0
 71
    16
281
     0
 72
     0
  0
VIEW
  5
AE2
330
6
100
AcDbSymbolTableRecord
100
AcDbViewTableRecord
  2
AM_VIEW2
 70
     0
 40
129.7276464542651
 10
1923.60588156276
 20
1793.121228859297
 41
148.5
 11
0.0
 21
0.0
 31
1.0
 12
0.0
 22
0.0
 32
0.0
 42
50.0
 43
-1370.695619172058
 44
-1370.695619172058
 50
0.0
 71
    16
281
     0
 72
     0
  0
VIEW
  5
AE3
330
6
100
AcDbSymbolTableRecord
100
AcDbViewTableRecord
  2
AM_VIEW3
 70
     0
 40
129.7276464542651
 10
1775.10588156276
 20
1712.848875313562
 41
148.5
 11
0.0
 21
0.0
 31
1.0
 12
0.0
 22
0.0
 32
0.0
 42
50.0
 43
-1370.695619172058
 44
-1370.695619172058
 50
0.0
 71
    16
281
     0
 72
     0
  0
VIEW
  5
AE4
330
6
100
AcDbSymbolTableRecord
100
AcDbViewTableRecord
  2
AM_VIEW4
 70
     0
 40
129.7276464542651
 10
1923.60588156276
 20
1712.848875313562
 41
148.5
 11
0.0
 21
0.0
 31
1.0
 12
0.0
 22
0.0
 32
0.0
 42
50.0
 43
-1370.695619172058
 44
-1370.695619172058
 50
0.0
 71
    16
281
     0
 72
     0
  0
VIEW
  5
AE5
330
6
100
AcDbSymbolTableRecord
100
AcDbViewTableRecord
  2
AM_VIEW5
 70
     0
 40
129.7276464542651
 10
1849.35588156276
 20
1752.985052086429
 41
148.5
 11
0.0
 21
0.0
 31
1.0
 12
0.0
 22
0.0
 32
0.0
 42
50.0
 43
-1370.695619172058
 44
-1370.695619172058
 50
0.0
 71
    16
281
     0
 72
     0
  0
VIEW
  5
AE6
330
6
100
AcDbSymbolTableRecord
100
AcDbViewTableRecord
  2
AM_VIEW6
 70
     0
 40
259.4526983556011
 10
1849.35588156276
 20
1752.985052086429
 41
296.99703
 11
0.0
 21
0.0
 31
1.0
 12
0.0
 22
0.0
 32
0.0
 42
50.0
 43
-1370.695619172058
 44
-1370.695619172058
 50
0.0
 71
    16
281
     0
 72
     0
  0
ENDTAB
  0
TABLE
  2
UCS
  5
7
330
0
100
AcDbSymbolTable
 70
     0
  0
ENDTAB
  0
TABLE
  2
APPID
  5
9
330
0
100
AcDbSymbolTable
 70
    55
  0
APPID
  5
12
330
9
100
AcDbSymbolTableRecord
100
AcDbRegAppTableRecord
  2
ACAD
 70
     0
  0
APPID
  5
30
330
9
100
AcDbSymbolTableRecord
100
AcDbRegAppTableRecord
  2
MCAD_NO_VIS
 70
     0
  0
APPID
  5
31
330
9
100
AcDbSymbolTableRecord
100
AcDbRegAppTableRecord
  2
ACAD_TEMP_GRAPHIC
 70
     0
  0
APPID
  5
44
330
9
100
AcDbSymbolTableRecord
100
AcDbRegAppTableRecord
  2
ACATTRIBSERVICES
 70
     0
  0
APPID
  5
7A1
330
9
100
AcDbSymbolTableRecord
100
AcDbRegAppTableRecord
  2
GENIUS_GENDIMSH_14
 70
     0
  0
APPID
  5
A49
330
9
100
AcDbSymbolTableRecord
100
AcDbRegAppTableRecord
  2
GENIUS_GENREC_14
 70
     0
  0
APPID
  5
A4A
330
9
100
AcDbSymbolTableRecord
100
AcDbRegAppTableRecord
  2
GENIUS_GENOBJ-N-REC_13
 70
     0
  0
APPID
  5
A4B
330
9
100
AcDbSymbolTableRecord
100
AcDbRegAppTableRecord
  2
GENIUS_GENODEF_13
 70
     0
  0
APPID
  5
A4C
330
9
100
AcDbSymbolTableRecord
100
AcDbRegAppTableRecord
  2
DCO15
 70
     0
  0
APPID
  5
ADC
330
9
100
AcDbSymbolTableRecord
100
AcDbRegAppTableRecord
  2
GENIUS_GENOLIS_13
 70
     0
  0
APPID
  5
ADD
330
9
100
AcDbSymbolTableRecord
100
AcDbRegAppTableRecord
  2
GENIUS_GENOENT_13
 70
     0
  0
APPID
  5
ADE
330
9
100
AcDbSymbolTableRecord
100
AcDbRegAppTableRecord
  2
GENIUS_GENOBJ-N-TIT_13
 70
     0
  0
APPID
  5
ADF
330
9
100
AcDbSymbolTableRecord
100
AcDbRegAppTableRecord
  2
GENIUS_GENTITLE_13
 70
     0
  0
APPID
  5
AE0
330
9
100
AcDbSymbolTableRecord
100
AcDbRegAppTableRecord
  2
GENIUS_GENOREF_13
 70
     0
  0
APPID
  5
AE7
330
9
100
AcDbSymbolTableRecord
100
AcDbRegAppTableRecord
  2
GENIUS_GENSCREG_15
 70
     0
  0
APPID
  5
AE8
330
9
100
AcDbSymbolTableRecord
100
AcDbRegAppTableRecord
  2
GENIUS_GENOBJ-N-SDF_13
 70
     0
  0
APPID
  5
FAF
330
9
100
AcDbSymbolTableRecord
100
AcDbRegAppTableRecord
  2
GENIUS_GENBLLY_14
 70
     0
  0
APPID
  5
FB0
330
9
100
AcDbSymbolTableRecord
100
AcDbRegAppTableRecord
  2
GENIUS_GENTRA_14
 70
     0
  0
APPID
  5
1285
330
9
100
AcDbSymbolTableRecord
100
AcDbRegAppTableRecord
  2
GENIUS_GENDTOL_13
 70
     0
  0
APPID
  5
142D
330
9
100
AcDbSymbolTableRecord
100
AcDbRegAppTableRecord
  2
GENIUS_GENOBJ-N-CEN_13
 70
     0
  0
APPID
  5
1AB5
330
9
100
AcDbSymbolTableRecord
100
AcDbRegAppTableRecord
  2
GENIUS_GENOBJ-N-CRS_13
 70
     0
  0
APPID
  5
1B36
330
9
100
AcDbSymbolTableRecord
100
AcDbRegAppTableRecord
  2
GENIUS_GENOBJ-N-HTC_13
 70
     0
  0
APPID
  5
1B37
330
9
100
AcDbSymbolTableRecord
100
AcDbRegAppTableRecord
  2
GENIUS_GENHATCH_13
 70
     0
  0
APPID
  5
216D
330
9
100
AcDbSymbolTableRecord
100
AcDbRegAppTableRecord
  2
GENIUS_GENOBJ-N-FIL_13
 70
     0
  0
APPID
  5
2356
330
9
100
AcDbSymbolTableRecord
100
AcDbRegAppTableRecord
  2
GEVID990412420
 70
     0
  0
APPID
  5
2357
330
9
100
AcDbSymbolTableRecord
100
AcDbRegAppTableRecord
  2
GEVDC
 70
     0
  0
APPID
  5
2358
330
9
100
AcDbSymbolTableRecord
100
AcDbRegAppTableRecord
  2
GEVCON
 70
     0
  0
APPID
  5
235B
330
9
100
AcDbSymbolTableRecord
100
AcDbRegAppTableRecord
  2
GEVRADREF
 70
     0
  0
APPID
  5
2360
330
9
100
AcDbSymbolTableRecord
100
AcDbRegAppTableRecord
  2
GENIUS_GENBH_13
 70
     0
  0
APPID
  5
2362
330
9
100
AcDbSymbolTableRecord
100
AcDbRegAppTableRecord
  2
GENIUS_GENOBJ-NBEHI-BHF_13
 70
     0
  0
APPID
  5
2364
330
9
100
AcDbSymbolTableRecord
100
AcDbRegAppTableRecord
  2
GENIUS_GENOBJ-NBEHI-BHB_13
 70
     0
  0
APPID
  5
2379
330
9
100
AcDbSymbolTableRecord
100
AcDbRegAppTableRecord
  2
GENIUS_GENOBJ-F-SCPASSM_13
 70
     0
  0
APPID
  5
3D74
330
9
100
AcDbSymbolTableRecord
100
AcDbRegAppTableRecord
  2
GENIUS_GENDIM_13
 70
     0
  0
APPID
  5
3D76
330
9
100
AcDbSymbolTableRecord
100
AcDbRegAppTableRecord
  2
GENIUS_GE3DTOL_13
 70
     0
  0
APPID
  5
3D9C
330
9
100
AcDbSymbolTableRecord
100
AcDbRegAppTableRecord
  2
AD_DRAW
 70
     0
  0
APPID
  5
3DE8
330
9
100
AcDbSymbolTableRecord
100
AcDbRegAppTableRecord
  2
ASURF_PCURVE_APPNAME
 70
     0
  0
APPID
  5
3DED
330
9
100
AcDbSymbolTableRecord
100
AcDbRegAppTableRecord
  2
AMG_3D2D_5.0
 70
     0
  0
APPID
  5
3E1B
330
9
100
AcDbSymbolTableRecord
100
AcDbRegAppTableRecord
  2
DESIGNERASSEMBLIES
 70
     0
  0
APPID
  5
3E20
330
9
100
AcDbSymbolTableRecord
100
AcDbRegAppTableRecord
  2
ACADM_DIM_EDIT
 70
     0
  0
APPID
  5
3E21
330
9
100
AcDbSymbolTableRecord
100
AcDbRegAppTableRecord
  2
AMDT_DM_ADJ
 70
     0
  0
APPID
  5
4143
330
9
100
AcDbSymbolTableRecord
100
AcDbRegAppTableRecord
  2
GENIUS_GENFIL_13
 70
     0
  0
APPID
  5
4144
330
9
100
AcDbSymbolTableRecord
100
AcDbRegAppTableRecord
  2
GENIUS_GENOBJ-N-CHA_13
 70
     0
  0
APPID
  5
4E17
330
9
100
AcDbSymbolTableRecord
100
AcDbRegAppTableRecord
  2
GEVID1008153417
 70
     0
  0
APPID
  5
4E58
330
9
100
AcDbSymbolTableRecord
100
AcDbRegAppTableRecord
  2
GEVID1008153418
 70
     0
  0
APPID
  5
4E5E
330
9
100
AcDbSymbolTableRecord
100
AcDbRegAppTableRecord
  2
GEVID1008153419
 70
     0
  0
APPID
  5
4E64
330
9
100
AcDbSymbolTableRecord
100
AcDbRegAppTableRecord
  2
GEVID1008153420
 70
     0
  0
APPID
  5
4E75
330
9
100
AcDbSymbolTableRecord
100
AcDbRegAppTableRecord
  2
GEVID1008153421
 70
     0
  0
APPID
  5
4EB7
330
9
100
AcDbSymbolTableRecord
100
AcDbRegAppTableRecord
  2
GENIUS_AMGTXT_16
 70
     0
  0
APPID
  5
7645
330
9
100
AcDbSymbolTableRecord
100
AcDbRegAppTableRecord
  2
GENIUS_GENOBJ-N-DIM_13
 70
     0
  0
APPID
  5
AAD0
330
9
100
AcDbSymbolTableRecord
100
AcDbRegAppTableRecord
  2
ACAD_DSTYLE_DIMARC_LENGTH_SYMBOL
 70
     0
  0
APPID
  5
AAD1
330
9
100
AcDbSymbolTableRecord
100
AcDbRegAppTableRecord
  2
ACAD_DSTYLE_DIMJOGGED_JOGANGLE_SYMBOL
 70
     0
  0
APPID
  5
AAFD
330
9
100
AcDbSymbolTableRecord
100
AcDbRegAppTableRecord
  2
ACAD_PSEXT
 70
     0
  0
APPID
  5
AD61
330
9
100
AcDbSymbolTableRecord
100
AcDbRegAppTableRecord
  2
AcAecLayerStandard
 70
     0
  0
APPID
  5
AEE3
330
9
100
AcDbSymbolTableRecord
100
AcDbRegAppTableRecord
  2
ACAD_EXEMPT_FROM_CAD_STANDARDS
 70
     0
  0
APPID
  5
B1BE
330
9
100
AcDbSymbolTableRecord
100
AcDbRegAppTableRecord
  2
GENIUS_GENCEN_19
 70
     0
  0
ENDTAB
  0
TABLE
  2
DIMSTYLE
  5
A
330
0
100
AcDbSymbolTable
 70
    17
100
AcDbDimStyleTable
 71
     1
340
2515
  0
DIMSTYLE
105
A76
330
A
100
AcDbSymbolTableRecord
100
AcDbDimStyleTableRecord
  2
STANDARD
 70
     0
 41
3.0
 42
1.0
 43
7.0
 44
2.0
 73
     0
 74
     0
 77
     1
140
2.799999999999999
141
0.0
143
0.0394
147
0.7
171
     4
172
     1
173
     1
176
     3
177
     3
178
     2
271
     3
272
     3
273
     8
274
     4
289
     0
340
A74
341
A66
343
A66
344
A66
  0
DIMSTYLE
105
2515
330
A
100
AcDbSymbolTableRecord
100
AcDbDimStyleTableRecord
  2
SYS
 70
     0
  4
"
 41
1.0
 42
1.0
 43
10.0
 44
1.0
 47
0.1
 48
0.1
 73
     0
 74
     0
 77
     1
 78
     8
 79
     2
140
3.5
141
0.0
143
0.0393701
146
0.71
147
1.5
172
     1
176
   256
177
   256
178
     7
271
     2
272
     2
283
     0
284
     8
340
11
371
    -1
372
    -1
1001
ACAD_DSTYLE_DIMJOGGED_JOGANGLE_SYMBOL
1070
   384
1040
0.7853981633974483
1001
ACAD_DSTYLE_DIMARC_LENGTH_SYMBOL
1070
   379
1070
     1
  0
DIMSTYLE
105
2516
102
{ACAD_REACTORS
330
B871
330
B872
102
}
330
A
100
AcDbSymbolTableRecord
100
AcDbDimStyleTableRecord
  2
SYS$3
 70
     0
  4
"
 41
2.0
 42
1.0
 43
10.0
 44
1.0
 47
0.1
 48
0.1
 73
     0
 77
     1
 78
     8
 79
     2
140
3.5
141
0.0
143
0.0393701
146
0.71
147
1.5
176
   256
177
   256
178
     2
271
     2
272
     2
283
     0
284
     8
288
     1
340
11
342
A66
371
    -1
372
    -1
1001
ACAD_DSTYLE_DIMJOGGED_JOGANGLE_SYMBOL
1070
   384
1040
0.7853981633974483
1001
ACAD_DSTYLE_DIMARC_LENGTH_SYMBOL
1070
   379
1070
     1
  0
DIMSTYLE
105
2517
330
A
100
AcDbSymbolTableRecord
100
AcDbDimStyleTableRecord
  2
SYS$4
 70
     0
  4
"
 41
2.0
 42
1.0
 43
10.0
 44
1.0
 47
0.1
 48
0.1
 73
     0
 77
     1
 78
     8
 79
     2
140
3.5
141
0.0
143
0.0393701
146
0.71
147
1.5
173
     1
176
   256
177
   256
178
     2
271
     2
272
     2
283
     0
284
     8
288
     1
340
11
344
A66
371
    -1
372
    -1
1001
ACAD_DSTYLE_DIMJOGGED_JOGANGLE_SYMBOL
1070
   384
1040
0.7853981633974483
1001
ACAD_DSTYLE_DIMARC_LENGTH_SYMBOL
1070
   379
1070
     1
  0
DIMSTYLE
105
2518
330
A
100
AcDbSymbolTableRecord
100
AcDbDimStyleTableRecord
  2
SYS$6
 70
     0
  4
"
 41
2.0
 42
1.0
 43
10.0
 44
1.0
 47
0.1
 48
0.1
 73
     0
 74
     0
 78
     8
 79
     2
140
3.5
141
0.0
143
0.0393701
146
0.71
147
1.5
172
     1
176
   256
177
   256
178
     2
271
     2
272
     2
283
     0
284
     8
340
11
341
A66
371
    -1
372
    -1
1001
ACAD_DSTYLE_DIMJOGGED_JOGANGLE_SYMBOL
1070
   384
1040
0.7853981633974483
1001
ACAD_DSTYLE_DIMARC_LENGTH_SYMBOL
1070
   379
1070
     1
  0
DIMSTYLE
105
2519
330
A
100
AcDbSymbolTableRecord
100
AcDbDimStyleTableRecord
  2
SYS$7
 70
     0
  4
"
 41
2.0
 42
1.0
 43
10.0
 44
1.0
 47
0.1
 48
0.1
 73
     0
 74
     0
 77
     1
 78
     8
 79
     2
140
5.0
141
0.0
143
0.0393701
146
0.71
147
1.5
172
     1
176
   256
177
   256
178
     2
271
     2
272
     2
283
     0
284
     8
340
11
341
A66
342
A66
371
    -1
372
    -1
1001
ACAD_DSTYLE_DIMJOGGED_JOGANGLE_SYMBOL
1070
   384
1040
0.7853981633974483
1001
ACAD_DSTYLE_DIMARC_LENGTH_SYMBOL
1070
   379
1070
     1
  0
DIMSTYLE
105
251A
330
A
100
AcDbSymbolTableRecord
100
AcDbDimStyleTableRecord
  2
SYS$SF
 70
     0
  4
"
 41
2.5
 42
1.0
 43
10.0
 44
1.0
 47
0.1
 48
0.1
 73
     0
 74
     0
 75
     1
 76
     1
 77
     1
 78
     8
 79
     2
140
3.5
141
0.0
143
0.0393701
146
0.71
147
1.5
172
     1
176
   256
177
   256
178
     2
271
     2
272
     3
283
     0
284
     8
340
11
341
6C4
342
6C4
371
    -1
372
    -1
1001
ACAD_DSTYLE_DIMJOGGED_JOGANGLE_SYMBOL
1070
   384
1040
0.7853981633974483
1001
ACAD_DSTYLE_DIMARC_LENGTH_SYMBOL
1070
   379
1070
     1
  0
DIMSTYLE
105
251B
330
A
100
AcDbSymbolTableRecord
100
AcDbDimStyleTableRecord
  2
SYS$SH
 70
     0
  4
"
 41
2.5
 42
1.0
 43
10.0
 44
1.0
 47
0.1
 48
0.1
 73
     0
 74
     0
 75
     1
 76
     1
 77
     1
 78
     8
 79
     2
140
3.5
141
0.0
143
0.0393701
144
2.0
146
0.71
147
1.5
172
     1
173
     1
176
   256
177
   256
178
     2
271
     2
272
     3
283
     0
284
     8
340
11
341
6C4
343
72
344
6C4
371
    -1
372
    -1
1001
ACAD_DSTYLE_DIMJOGGED_JOGANGLE_SYMBOL
1070
   384
1040
0.7853981633974483
1001
ACAD_DSTYLE_DIMARC_LENGTH_SYMBOL
1070
   379
1070
     1
  0
DIMSTYLE
105
2A59
330
A
100
AcDbSymbolTableRecord
100
AcDbDimStyleTableRecord
  2
SYS$2
 70
     0
  4
"
 41
1.0
 42
1.0
 43
10.0
 44
1.0
 47
0.1
 48
0.1
 73
     0
 74
     0
 77
     1
 78
     8
 79
     2
140
3.5
141
0.0
143
0.0393701
146
0.71
147
1.5
172
     1
176
   256
177
   256
178
     2
271
     2
272
     2
283
     0
284
     8
340
11
342
6C4
371
    -1
372
    -1
1001
ACAD_DSTYLE_DIMJOGGED_JOGANGLE_SYMBOL
1070
   384
1040
0.7853981633974483
1001
ACAD_DSTYLE_DIMARC_LENGTH_SYMBOL
1070
   379
1070
     1
  0
DIMSTYLE
105
2AAB
102
{ACAD_REACTORS
330
B78B
330
B78E
330
B7A6
330
B7A7
330
B7A8
330
B7A9
330
B7AB
330
B7AC
330
B7AD
330
B7AE
330
B7AF
330
B841
330
B842
330
B843
330
B844
330
B845
102
}
330
A
100
AcDbSymbolTableRecord
100
AcDbDimStyleTableRecord
  2
SYS$0
 70
     0
  4
"
 41
1.0
 42
1.0
 43
10.0
 44
1.0
 47
0.1
 48
0.1
 73
     0
 74
     0
 77
     1
 78
     8
 79
     2
140
3.200000000000001
141
0.0
143
0.0393701
146
0.71
147
1.5
172
     1
176
   256
177
   256
178
     2
271
     2
272
     2
283
     0
284
     8
340
11
341
A66
342
6C4
371
    -1
372
    -1
1001
ACAD_DSTYLE_DIMJOGGED_JOGANGLE_SYMBOL
1070
   384
1040
0.7853981633974483
1001
ACAD_DSTYLE_DIMARC_LENGTH_SYMBOL
1070
   379
1070
     1
  0
DIMSTYLE
105
AF99
330
A
100
AcDbSymbolTableRecord
100
AcDbDimStyleTableRecord
  2
AM_ISO
 70
     0
  4
"
 41
2.5
 42
1.0
 43
10.0
 44
1.0
 47
0.1
 48
0.1
 73
     0
 74
     0
 77
     1
 78
     8
 79
     2
140
3.5
141
0.0
143
0.0393701
146
0.71
147
1.5
172
     1
176
   256
177
   256
178
     2
271
     2
272
     3
274
     4
283
     0
284
     8
340
11
371
    -1
372
    -1
  0
DIMSTYLE
105
AF9A
330
A
100
AcDbSymbolTableRecord
100
AcDbDimStyleTableRecord
  2
AM_ISO$3
 70
     0
  4
"
 41
2.5
 42
1.0
 43
10.0
 44
1.0
 47
0.1
 48
0.1
 73
     0
 77
     1
 78
     8
 79
     2
140
3.5
141
0.0
143
0.0393701
146
0.71
147
1.5
176
   256
177
   256
178
     2
271
     2
272
     3
274
     4
283
     0
284
     8
288
     1
289
     0
340
11
371
    -1
372
    -1
  0
DIMSTYLE
105
AF9B
330
A
100
AcDbSymbolTableRecord
100
AcDbDimStyleTableRecord
  2
AM_ISO$4
 70
     0
  4
"
 41
2.5
 42
1.0
 43
10.0
 44
1.0
 47
0.1
 48
0.1
 73
     0
 77
     1
 78
     8
 79
     2
140
3.5
141
0.0
143
0.0393701
146
0.71
147
1.5
176
   256
177
   256
178
     2
271
     2
272
     3
274
     4
283
     0
284
     8
288
     1
289
     0
340
11
371
    -1
372
    -1
  0
DIMSTYLE
105
AF9C
330
A
100
AcDbSymbolTableRecord
100
AcDbDimStyleTableRecord
  2
AM_ISO$6
 70
     0
  4
"
 41
2.5
 42
1.0
 43
10.0
 44
1.0
 47
0.1
 48
0.1
 73
     0
 74
     0
 78
     8
 79
     2
140
3.5
141
0.0
143
0.0393701
146
0.71
147
1.5
172
     1
176
   256
177
   256
178
     2
271
     2
272
     3
274
     4
283
     0
284
     8
340
11
371
    -1
372
    -1
  0
DIMSTYLE
105
AF9D
330
A
100
AcDbSymbolTableRecord
100
AcDbDimStyleTableRecord
  2
AM_ISO$7
 70
     0
  4
"
 41
2.5
 42
1.0
 43
10.0
 44
1.0
 47
0.1
 48
0.1
 73
     0
 74
     0
 77
     1
 78
     8
 79
     2
140
5.0
141
0.0
143
0.0393701
146
0.71
147
1.5
172
     1
176
   256
177
   256
178
     2
271
     2
272
     3
274
     4
283
     0
284
     8
340
11
371
    -1
372
    -1
  0
DIMSTYLE
105
AF9E
330
A
100
AcDbSymbolTableRecord
100
AcDbDimStyleTableRecord
  2
AM_ISO$SF
 70
     0
  4
"
 41
2.5
 42
1.0
 43
10.0
 44
1.0
 47
0.1
 48
0.1
 73
     0
 74
     0
 75
     1
 76
     1
 77
     1
 78
     8
 79
     2
140
3.5
141
0.0
143
0.0393701
146
0.71
147
1.5
172
     1
176
   256
177
   256
178
     2
271
     2
272
     3
274
     4
283
     0
284
     8
340
11
371
    -1
372
    -1
  0
DIMSTYLE
105
AF9F
330
A
100
AcDbSymbolTableRecord
100
AcDbDimStyleTableRecord
  2
AM_ISO$SH
 70
     0
  4
"
 41
2.5
 42
1.0
 43
10.0
 44
1.0
 47
0.1
 48
0.1
 73
     0
 74
     0
 75
     1
 76
     1
 77
     1
 78
     8
 79
     2
140
3.5
141
0.0
143
0.0393701
144
2.0
146
0.71
147
1.5
172
     1
173
     1
176
   256
177
   256
178
     2
271
     2
272
     3
274
     4
283
     0
284
     8
340
11
343
72
371
    -1
372
    -1
  0
ENDTAB
  0
TABLE
  2
BLOCK_RECORD
  5
1
330
0
100
AcDbSymbolTable
 70
    24
  0
BLOCK_RECORD
  5
1F
102
{ACAD_XDICTIONARY
360
8A
102
}
330
1
100
AcDbSymbolTableRecord
100
AcDbBlockTableRecord
  2
*Model_Space
340
22
  0
BLOCK_RECORD
  5
1B
330
1
100
AcDbSymbolTableRecord
100
AcDbBlockTableRecord
  2
*Paper_Space
340
1E
  0
BLOCK_RECORD
  5
23
330
1
100
AcDbSymbolTableRecord
100
AcDbBlockTableRecord
  2
*Paper_Space0
340
26
  0
BLOCK_RECORD
  5
72
330
1
100
AcDbSymbolTableRecord
100
AcDbBlockTableRecord
  2
GENAXEH
340
0
  0
BLOCK_RECORD
  5
6C4
330
1
100
AcDbSymbolTableRecord
100
AcDbBlockTableRecord
  2
_Dot
340
0
102
{BLKREFS
331
B950
331
B951
331
B959
331
B95A
331
B962
331
B963
331
B96B
331
B96C
331
B974
331
B975
331
B97D
331
B97E
331
B986
331
B987
331
B98F
331
B990
331
B998
331
B999
331
B9A1
331
B9A2
331
B9AA
331
B9AB
331
B9B5
331
B9B6
331
B9BE
331
B9BF
331
B9C7
331
B9C8
331
B9D0
331
B9D1
331
B9D9
331
B9DA
102
}
  0
BLOCK_RECORD
  5
A66
330
1
100
AcDbSymbolTableRecord
100
AcDbBlockTableRecord
  2
_OPEN30
340
0
  0
BLOCK_RECORD
  5
B610
330
1
100
AcDbSymbolTableRecord
100
AcDbBlockTableRecord
  2
GENDOT
340
0
102
{BLKREFS
331
B9E4
331
B9E5
331
B9ED
331
B9EE
102
}
  0
BLOCK_RECORD
  5
B873
330
1
100
AcDbSymbolTableRecord
100
AcDbBlockTableRecord
  2
*D6
340
0
  0
BLOCK_RECORD
  5
B87F
330
1
100
AcDbSymbolTableRecord
100
AcDbBlockTableRecord
  2
*D7
340
0
  0
BLOCK_RECORD
  5
B88B
330
1
100
AcDbSymbolTableRecord
100
AcDbBlockTableRecord
  2
*D8
340
0
  0
BLOCK_RECORD
  5
B897
330
1
100
AcDbSymbolTableRecord
100
AcDbBlockTableRecord
  2
*D9
340
0
  0
BLOCK_RECORD
  5
B8A3
330
1
100
AcDbSymbolTableRecord
100
AcDbBlockTableRecord
  2
*D10
340
0
  0
BLOCK_RECORD
  5
B8AF
330
1
100
AcDbSymbolTableRecord
100
AcDbBlockTableRecord
  2
*D11
340
0
  0
BLOCK_RECORD
  5
B8BB
330
1
100
AcDbSymbolTableRecord
100
AcDbBlockTableRecord
  2
*D12
340
0
  0
BLOCK_RECORD
  5
B8C7
330
1
100
AcDbSymbolTableRecord
100
AcDbBlockTableRecord
  2
*D13
340
0
  0
BLOCK_RECORD
  5
B8D3
330
1
100
AcDbSymbolTableRecord
100
AcDbBlockTableRecord
  2
*D14
340
0
  0
BLOCK_RECORD
  5
B8DF
330
1
100
AcDbSymbolTableRecord
100
AcDbBlockTableRecord
  2
*D15
340
0
  0
BLOCK_RECORD
  5
B8EB
330
1
100
AcDbSymbolTableRecord
100
AcDbBlockTableRecord
  2
*D16
340
0
  0
BLOCK_RECORD
  5
B8F7
330
1
100
AcDbSymbolTableRecord
100
AcDbBlockTableRecord
  2
*D17
340
0
  0
BLOCK_RECORD
  5
B905
330
1
100
AcDbSymbolTableRecord
100
AcDbBlockTableRecord
  2
*D18
340
0
  0
BLOCK_RECORD
  5
B911
330
1
100
AcDbSymbolTableRecord
100
AcDbBlockTableRecord
  2
*D19
340
0
  0
BLOCK_RECORD
  5
B91D
330
1
100
AcDbSymbolTableRecord
100
AcDbBlockTableRecord
  2
*D20
340
0
  0
BLOCK_RECORD
  5
B929
330
1
100
AcDbSymbolTableRecord
100
AcDbBlockTableRecord
  2
*D21
340
0
  0
BLOCK_RECORD
  5
B935
330
1
100
AcDbSymbolTableRecord
100
AcDbBlockTableRecord
  2
*D22
340
0
  0
BLOCK_RECORD
  5
B941
330
1
100
AcDbSymbolTableRecord
100
AcDbBlockTableRecord
  2
*D23
340
0
  0
ENDTAB
  0
ENDSEC
  0
SECTION
  2
BLOCKS
  0
BLOCK
  5
20
330
1F
100
AcDbEntity
  8
0
100
AcDbBlockBegin
  2
*Model_Space
 70
     0
 10
0.0
 20
0.0
 30
0.0
  3
*Model_Space
  1

  0
ENDBLK
  5
21
330
1F
100
AcDbEntity
  8
0
100
AcDbBlockEnd
  0
BLOCK
  5
1C
330
1B
100
AcDbEntity
 67
     1
  8
0
100
AcDbBlockBegin
  2
*Paper_Space
 70
     0
 10
0.0
 20
0.0
 30
0.0
  3
*Paper_Space
  1

  0
ENDBLK
  5
1D
330
1B
100
AcDbEntity
 67
     1
  8
0
100
AcDbBlockEnd
  0
BLOCK
  5
24
330
23
100
AcDbEntity
 67
     1
  8
0
100
AcDbBlockBegin
  2
*Paper_Space0
 70
     0
 10
0.0
 20
0.0
 30
0.0
  3
*Paper_Space0
  1

  0
ENDBLK
  5
25
330
23
100
AcDbEntity
 67
     1
  8
0
100
AcDbBlockEnd
  0
BLOCK
  5
74
330
72
100
AcDbEntity
  8
0
100
AcDbBlockBegin
  2
GENAXEH
 70
     0
 10
0.0
 20
0.0
 30
0.0
  3
GENAXEH
  1

  0
LINE
  5
73
330
72
100
AcDbEntity
  8
0
100
AcDbLine
 10
-1.0
 20
0.0
 30
0.0
 11
1.0
 21
0.0
 31
0.0
  0
ENDBLK
  5
75
330
72
100
AcDbEntity
  8
0
100
AcDbBlockEnd
  0
BLOCK
  5
6C7
330
6C4
100
AcDbEntity
  8
0
100
AcDbBlockBegin
  2
_Dot
 70
     0
 10
0.0
 20
0.0
 30
0.0
  3
_Dot
  1

  0
LWPOLYLINE
  5
6C5
330
6C4
100
AcDbEntity
  8
0
  6
ByBlock
 62
     0
100
AcDbPolyline
 90
        2
 70
     1
 43
0.5
 10
-0.25
 20
0.0
 42
1.0
 10
0.25
 20
0.0
 42
1.0
  0
LINE
  5
6C6
330
6C4
100
AcDbEntity
  8
0
  6
ByBlock
 62
     0
370
    -2
100
AcDbLine
 10
-0.5
 20
0.0
 30
0.0
 11
-1.0
 21
0.0
 31
0.0
  0
ENDBLK
  5
6C8
330
6C4
100
AcDbEntity
  8
0
100
AcDbBlockEnd
  0
BLOCK
  5
A6A
330
A66
100
AcDbEntity
  8
0
100
AcDbBlockBegin
  2
_OPEN30
 70
     0
 10
0.0
 20
0.0
 30
0.0
  3
_OPEN30
  1

  0
LINE
  5
A67
330
A66
100
AcDbEntity
  8
0
  6
ByBlock
 62
     0
100
AcDbLine
 10
-1.0
 20
0.26794919
 30
0.0
 11
0.0
 21
0.0
 31
0.0
  0
LINE
  5
A68
330
A66
100
AcDbEntity
  8
0
  6
ByBlock
 62
     0
100
AcDbLine
 10
0.0
 20
0.0
 30
0.0
 11
-1.0
 21
-0.26794919
 31
0.0
  0
LINE
  5
A69
330
A66
100
AcDbEntity
  8
0
  6
ByBlock
 62
     0
100
AcDbLine
 10
0.0
 20
0.0
 30
0.0
 11
-1.0
 21
0.0
 31
0.0
  0
ENDBLK
  5
A6B
330
A66
100
AcDbEntity
  8
0
100
AcDbBlockEnd
  0
BLOCK
  5
B611
330
B610
100
AcDbEntity
  8
0
100
AcDbBlockBegin
  2
GENDOT
 70
     0
 10
0.0
 20
0.0
 30
0.0
  3
GENDOT
  1

  0
LINE
  5
B612
330
B610
100
AcDbEntity
  8
0
100
AcDbLine
 10
0.0
 20
0.0
 30
0.0
 11
-1.0
 21
0.0
 31
0.0
  0
LWPOLYLINE
  5
B613
330
B610
100
AcDbEntity
  8
0
100
AcDbPolyline
 90
        2
 70
     1
 43
0.25
 10
-0.125
 20
0.0
 42
1.0
 10
0.125
 20
0.0
 42
1.0
  0
ENDBLK
  5
B614
330
B610
100
AcDbEntity
  8
0
100
AcDbBlockEnd
  0
BLOCK
  5
B87D
330
B873
100
AcDbEntity
  8
0
100
AcDbBlockBegin
  2
*D6
 70
     1
 10
0.0
 20
0.0
 30
0.0
  3
*D6
  1

  0
LINE
  5
B94D
330
B873
100
AcDbEntity
  8
AM_5
100
AcDbLine
 10
145.4504565374095
 20
276.7306175252107
 30
0.0
 11
133.4504555274093
 21
276.7306175252107
 31
0.0
  0
LINE
  5
B94E
330
B873
100
AcDbEntity
  8
AM_5
100
AcDbLine
 10
166.4504565374095
 20
245.2306175252098
 30
0.0
 11
133.4504555274093
 21
245.2306175252098
 31
0.0
  0
LINE
  5
B94F
330
B873
100
AcDbEntity
  8
AM_5
100
AcDbLine
 10
134.4504555274093
 20
275.7306175252107
 30
0.0
 11
134.4504555274093
 21
246.2306175252098
 31
0.0
  0
INSERT
  5
B950
330
B873
100
AcDbEntity
  8
AM_5
100
AcDbBlockReference
  2
_Dot
 10
134.4504555274093
 20
276.7306175252107
 30
0.0
 50
90.0
  0
INSERT
  5
B951
330
B873
100
AcDbEntity
  8
AM_5
100
AcDbBlockReference
  2
_Dot
 10
134.4504555274093
 20
245.2306175252098
 30
0.0
 50
270.0
  0
MTEXT
  5
B952
330
B873
100
AcDbEntity
  8
AM_5
 62
     2
100
AcDbMText
 10
131.3504555274093
 20
260.9806175252103
 30
0.0
 40
3.200000000000001
 41
0.0
 71
     5
 72
     1
  1
（31.5）
 11
0.0000000000000001
 21
1.0
 31
0.0
 73
     1
 44
1.0
1001
ACAD
1000
MTEXTBEGIN
1070
    73
1070
     1
1070
    44
1040
1.0
1070
    74
1070
     0
1000
MTEXTEND
  0
POINT
  5
B953
330
B873
100
AcDbEntity
  8
Defpoints
 62
     0
100
AcDbPoint
 10
146.4504565374095
 20
276.7306175252107
 30
0.0
  0
POINT
  5
B954
330
B873
100
AcDbEntity
  8
Defpoints
 62
     0
100
AcDbPoint
 10
167.4504565374095
 20
245.2306175252098
 30
0.0
  0
POINT
  5
B955
330
B873
100
AcDbEntity
  8
Defpoints
 62
     0
100
AcDbPoint
 10
134.4504555274093
 20
245.2306175252098
 30
0.0
  0
ENDBLK
  5
B87E
330
B873
100
AcDbEntity
  8
0
100
AcDbBlockEnd
  0
BLOCK
  5
B889
330
B87F
100
AcDbEntity
  8
0
100
AcDbBlockBegin
  2
*D7
 70
     1
 10
0.0
 20
0.0
 30
0.0
  3
*D7
  1

  0
LINE
  5
B956
330
B87F
100
AcDbEntity
  8
AM_5
100
AcDbLine
 10
267.4504565374086
 20
276.7306175252107
 30
0.0
 11
280.0013705166507
 21
276.7306175252107
 31
0.0
  0
LINE
  5
B957
330
B87F
100
AcDbEntity
  8
AM_5
100
AcDbLine
 10
237.4029508987237
 20
224.7306175252302
 30
0.0
 11
280.0013705166507
 21
224.7306175252302
 31
0.0
  0
LINE
  5
B958
330
B87F
100
AcDbEntity
  8
AM_5
100
AcDbLine
 10
279.0013705166507
 20
275.7306175252107
 30
0.0
 11
279.0013705166507
 21
225.7306175252302
 31
0.0
  0
INSERT
  5
B959
330
B87F
100
AcDbEntity
  8
AM_5
100
AcDbBlockReference
  2
_Dot
 10
279.0013705166507
 20
276.7306175252107
 30
0.0
 50
90.0
  0
INSERT
  5
B95A
330
B87F
100
AcDbEntity
  8
AM_5
100
AcDbBlockReference
  2
_Dot
 10
279.0013705166507
 20
224.7306175252302
 30
0.0
 50
270.0
  0
MTEXT
  5
B95B
330
B87F
100
AcDbEntity
  8
AM_5
 62
     2
100
AcDbMText
 10
275.9013705166506
 20
250.7306175252205
 30
0.0
 40
3.200000000000001
 41
0.0
 71
     5
 72
     1
  1
（52）
 11
0.0000000000000001
 21
1.0
 31
0.0
 73
     1
 44
1.0
1001
ACAD
1000
MTEXTBEGIN
1070
    73
1070
     1
1070
    44
1040
1.0
1070
    74
1070
     0
1000
MTEXTEND
  0
POINT
  5
B95C
330
B87F
100
AcDbEntity
  8
Defpoints
 62
     0
100
AcDbPoint
 10
266.4504565374086
 20
276.7306175252107
 30
0.0
  0
POINT
  5
B95D
330
B87F
100
AcDbEntity
  8
Defpoints
 62
     0
100
AcDbPoint
 10
236.4029508987237
 20
224.7306175252302
 30
0.0
  0
POINT
  5
B95E
330
B87F
100
AcDbEntity
  8
Defpoints
 62
     0
100
AcDbPoint
 10
279.0013705166507
 20
224.7306175252302
 30
0.0
  0
ENDBLK
  5
B88A
330
B87F
100
AcDbEntity
  8
0
100
AcDbBlockEnd
  0
BLOCK
  5
B895
330
B88B
100
AcDbEntity
  8
0
100
AcDbBlockBegin
  2
*D8
 70
     1
 10
0.0
 20
0.0
 30
0.0
  3
*D8
  1

  0
LINE
  5
B95F
330
B88B
100
AcDbEntity
  8
AM_5
100
AcDbLine
 10
165.8881218626006
 20
191.2219411095307
 30
0.0
 11
124.6712424977309
 21
191.2219411095307
 31
0.0
  0
LINE
  5
B960
330
B88B
100
AcDbEntity
  8
AM_5
100
AcDbLine
 10
165.8881218625997
 20
111.2219411095307
 30
0.0
 11
124.6712424977308
 21
111.2219411095307
 31
0.0
  0
LINE
  5
B961
330
B88B
100
AcDbEntity
  8
AM_5
100
AcDbLine
 10
125.6712424977309
 20
190.2219411095307
 30
0.0
 11
125.6712424977308
 21
112.2219411095307
 31
0.0
  0
INSERT
  5
B962
330
B88B
100
AcDbEntity
  8
AM_5
100
AcDbBlockReference
  2
_Dot
 10
125.6712424977309
 20
191.2219411095307
 30
0.0
 50
90.0
  0
INSERT
  5
B963
330
B88B
100
AcDbEntity
  8
AM_5
100
AcDbBlockReference
  2
_Dot
 10
125.6712424977308
 20
111.2219411095307
 30
0.0
 50
270.0
  0
MTEXT
  5
B964
330
B88B
100
AcDbEntity
  8
AM_5
 62
     2
100
AcDbMText
 10
122.5712424977308
 20
151.2219411095307
 30
0.0
 40
3.200000000000001
 41
0.0
 71
     5
 72
     1
  1
80
 11
0.0000000000000001
 21
1.0
 31
0.0
 73
     1
 44
1.0
1001
ACAD
1000
MTEXTBEGIN
1070
    73
1070
     1
1070
    44
1040
1.0
1070
    74
1070
     0
1000
MTEXTEND
  0
POINT
  5
B965
330
B88B
100
AcDbEntity
  8
Defpoints
 62
     0
100
AcDbPoint
 10
166.8881218626006
 20
191.2219411095307
 30
0.0
  0
POINT
  5
B966
330
B88B
100
AcDbEntity
  8
Defpoints
 62
     0
100
AcDbPoint
 10
166.8881218625997
 20
111.2219411095307
 30
0.0
  0
POINT
  5
B967
330
B88B
100
AcDbEntity
  8
Defpoints
 62
     0
100
AcDbPoint
 10
125.6712424977308
 20
111.2219411095307
 30
0.0
  0
ENDBLK
  5
B896
330
B88B
100
AcDbEntity
  8
0
100
AcDbBlockEnd
  0
BLOCK
  5
B8A1
330
B897
100
AcDbEntity
  8
0
100
AcDbBlockBegin
  2
*D9
 70
     1
 10
0.0
 20
0.0
 30
0.0
  3
*D9
  1

  0
LINE
  5
B968
330
B897
100
AcDbEntity
  8
AM_5
100
AcDbLine
 10
166.9013703736004
 20
181.2219411095316
 30
0.0
 11
134.6712424977309
 21
181.2219411095316
 31
0.0
  0
LINE
  5
B969
330
B897
100
AcDbEntity
  8
AM_5
100
AcDbLine
 10
166.9013703736004
 20
121.2219411095316
 30
0.0
 11
134.6712424977309
 21
121.2219411095317
 31
0.0
  0
LINE
  5
B96A
330
B897
100
AcDbEntity
  8
AM_5
100
AcDbLine
 10
135.6712424977309
 20
180.2219411095316
 30
0.0
 11
135.6712424977309
 21
122.2219411095316
 31
0.0
  0
INSERT
  5
B96B
330
B897
100
AcDbEntity
  8
AM_5
100
AcDbBlockReference
  2
_Dot
 10
135.6712424977309
 20
181.2219411095316
 30
0.0
 50
90.0
  0
INSERT
  5
B96C
330
B897
100
AcDbEntity
  8
AM_5
100
AcDbBlockReference
  2
_Dot
 10
135.6712424977309
 20
121.2219411095317
 30
0.0
 50
270.0
  0
MTEXT
  5
B96D
330
B897
100
AcDbEntity
  8
AM_5
 62
     2
100
AcDbMText
 10
132.5712424977308
 20
151.2219411095317
 30
0.0
 40
3.200000000000001
 41
0.0
 71
     5
 72
     1
  1
60
 11
0.0000000000000001
 21
1.0
 31
0.0
 73
     1
 44
1.0
1001
ACAD
1000
MTEXTBEGIN
1070
    73
1070
     1
1070
    44
1040
1.0
1070
    74
1070
     0
1000
MTEXTEND
  0
POINT
  5
B96E
330
B897
100
AcDbEntity
  8
Defpoints
 62
     0
100
AcDbPoint
 10
167.9013703736004
 20
181.2219411095316
 30
0.0
  0
POINT
  5
B96F
330
B897
100
AcDbEntity
  8
Defpoints
 62
     0
100
AcDbPoint
 10
167.9013703736004
 20
121.2219411095316
 30
0.0
  0
POINT
  5
B970
330
B897
100
AcDbEntity
  8
Defpoints
 62
     0
100
AcDbPoint
 10
135.6712424977309
 20
121.2219411095317
 30
0.0
  0
ENDBLK
  5
B8A2
330
B897
100
AcDbEntity
  8
0
100
AcDbBlockEnd
  0
BLOCK
  5
B8AD
330
B8A3
100
AcDbEntity
  8
0
100
AcDbBlockBegin
  2
*D10
 70
     1
 10
0.0
 20
0.0
 30
0.0
  3
*D10
  1

  0
LINE
  5
B971
330
B8A3
100
AcDbEntity
  8
AM_5
100
AcDbLine
 10
177.0013705166516
 20
195.2219411095307
 30
0.0
 11
177.0013705166516
 21
205.2219411095316
 31
0.0
  0
LINE
  5
B972
330
B8A3
100
AcDbEntity
  8
AM_5
100
AcDbLine
 10
157.0013705166516
 20
161.3219412525828
 30
0.0
 11
157.0013705166516
 21
205.2219411095316
 31
0.0
  0
LINE
  5
B973
330
B8A3
100
AcDbEntity
  8
AM_5
100
AcDbLine
 10
176.0013705166516
 20
204.2219411095317
 30
0.0
 11
158.0013705166516
 21
204.2219411095317
 31
0.0
  0
INSERT
  5
B974
330
B8A3
100
AcDbEntity
  8
AM_5
100
AcDbBlockReference
  2
_Dot
 10
177.0013705166516
 20
204.2219411095317
 30
0.0
  0
INSERT
  5
B975
330
B8A3
100
AcDbEntity
  8
AM_5
100
AcDbBlockReference
  2
_Dot
 10
157.0013705166516
 20
204.2219411095317
 30
0.0
 50
180.0
  0
MTEXT
  5
B976
330
B8A3
100
AcDbEntity
  8
AM_5
 62
     2
100
AcDbMText
 10
167.0013705166516
 20
207.3219411095316
 30
0.0
 40
3.200000000000001
 41
0.0
 71
     5
 72
     1
  1
20
 73
     1
 44
1.0
1001
ACAD
1000
MTEXTBEGIN
1070
    73
1070
     1
1070
    44
1040
1.0
1070
    74
1070
     0
1000
MTEXTEND
  0
POINT
  5
B977
330
B8A3
100
AcDbEntity
  8
Defpoints
 62
     0
100
AcDbPoint
 10
177.0013705166516
 20
194.2219411095307
 30
0.0
  0
POINT
  5
B978
330
B8A3
100
AcDbEntity
  8
Defpoints
 62
     0
100
AcDbPoint
 10
157.0013705166516
 20
160.3219412525828
 30
0.0
  0
POINT
  5
B979
330
B8A3
100
AcDbEntity
  8
Defpoints
 62
     0
100
AcDbPoint
 10
157.0013705166516
 20
204.2219411095317
 30
0.0
  0
ENDBLK
  5
B8AE
330
B8A3
100
AcDbEntity
  8
0
100
AcDbBlockEnd
  0
BLOCK
  5
B8B9
330
B8AF
100
AcDbEntity
  8
0
100
AcDbBlockBegin
  2
*D11
 70
     1
 10
0.0
 20
0.0
 30
0.0
  3
*D11
  1

  0
LINE
  5
B97A
330
B8AF
100
AcDbEntity
  8
AM_5
100
AcDbLine
 10
187.0013705166516
 20
187.2219411095307
 30
0.0
 11
187.0013705166516
 21
215.2219411095317
 31
0.0
  0
LINE
  5
B97B
330
B8AF
100
AcDbEntity
  8
AM_5
100
AcDbLine
 10
147.0013705166525
 20
161.4373314187055
 30
0.0
 11
147.0013705166525
 21
215.2219411095317
 31
0.0
  0
LINE
  5
B97C
330
B8AF
100
AcDbEntity
  8
AM_5
100
AcDbLine
 10
186.0013705166516
 20
214.2219411095317
 30
0.0
 11
148.0013705166525
 21
214.2219411095317
 31
0.0
  0
INSERT
  5
B97D
330
B8AF
100
AcDbEntity
  8
AM_5
100
AcDbBlockReference
  2
_Dot
 10
187.0013705166516
 20
214.2219411095317
 30
0.0
  0
INSERT
  5
B97E
330
B8AF
100
AcDbEntity
  8
AM_5
100
AcDbBlockReference
  2
_Dot
 10
147.0013705166525
 20
214.2219411095317
 30
0.0
 50
180.0
  0
MTEXT
  5
B97F
330
B8AF
100
AcDbEntity
  8
AM_5
 62
     2
100
AcDbMText
 10
167.001370516652
 20
217.3219411095316
 30
0.0
 40
3.200000000000001
 41
0.0
 71
     5
 72
     1
  1
40
 73
     1
 44
1.0
1001
ACAD
1000
MTEXTBEGIN
1070
    73
1070
     1
1070
    44
1040
1.0
1070
    74
1070
     0
1000
MTEXTEND
  0
POINT
  5
B980
330
B8AF
100
AcDbEntity
  8
Defpoints
 62
     0
100
AcDbPoint
 10
187.0013705166516
 20
186.2219411095307
 30
0.0
  0
POINT
  5
B981
330
B8AF
100
AcDbEntity
  8
Defpoints
 62
     0
100
AcDbPoint
 10
147.0013705166525
 20
160.4373314187055
 30
0.0
  0
POINT
  5
B982
330
B8AF
100
AcDbEntity
  8
Defpoints
 62
     0
100
AcDbPoint
 10
147.0013705166525
 20
214.2219411095317
 30
0.0
  0
ENDBLK
  5
B8BA
330
B8AF
100
AcDbEntity
  8
0
100
AcDbBlockEnd
  0
BLOCK
  5
B8C5
330
B8BB
100
AcDbEntity
  8
0
100
AcDbBlockBegin
  2
*D12
 70
     1
 10
0.0
 20
0.0
 30
0.0
  3
*D12
  1

  0
LINE
  5
B983
330
B8BB
100
AcDbEntity
  8
AM_5
100
AcDbLine
 10
237.0013705166516
 20
195.2219411095307
 30
0.0
 11
237.0013705166516
 21
205.2219411095316
 31
0.0
  0
LINE
  5
B984
330
B8BB
100
AcDbEntity
  8
AM_5
100
AcDbLine
 10
177.0013705166516
 20
195.2219411095307
 30
0.0
 11
177.0013705166516
 21
205.2219411095316
 31
0.0
  0
LINE
  5
B985
330
B8BB
100
AcDbEntity
  8
AM_5
100
AcDbLine
 10
236.0013705166516
 20
204.2219411095317
 30
0.0
 11
178.0013705166516
 21
204.2219411095317
 31
0.0
  0
INSERT
  5
B986
330
B8BB
100
AcDbEntity
  8
AM_5
100
AcDbBlockReference
  2
_Dot
 10
237.0013705166516
 20
204.2219411095317
 30
0.0
  0
INSERT
  5
B987
330
B8BB
100
AcDbEntity
  8
AM_5
100
AcDbBlockReference
  2
_Dot
 10
177.0013705166516
 20
204.2219411095317
 30
0.0
 50
180.0
  0
MTEXT
  5
B988
330
B8BB
100
AcDbEntity
  8
AM_5
 62
     2
100
AcDbMText
 10
204.0766716141675
 20
207.3219411095316
 30
0.0
 40
3.200000000000001
 41
0.0
 71
     5
 72
     1
  1
（40～43）
 73
     1
 44
1.0
1001
ACAD
1000
MTEXTBEGIN
1070
    73
1070
     1
1070
    44
1040
1.0
1070
    74
1070
     0
1000
MTEXTEND
  0
POINT
  5
B989
330
B8BB
100
AcDbEntity
  8
Defpoints
 62
     0
100
AcDbPoint
 10
237.0013705166516
 20
194.2219411095307
 30
0.0
  0
POINT
  5
B98A
330
B8BB
100
AcDbEntity
  8
Defpoints
 62
     0
100
AcDbPoint
 10
177.0013705166516
 20
194.2219411095307
 30
0.0
  0
POINT
  5
B98B
330
B8BB
100
AcDbEntity
  8
Defpoints
 62
     0
100
AcDbPoint
 10
177.0013705166516
 20
204.2219411095317
 30
0.0
  0
ENDBLK
  5
B8C6
330
B8BB
100
AcDbEntity
  8
0
100
AcDbBlockEnd
  0
BLOCK
  5
B8D1
330
B8C7
100
AcDbEntity
  8
0
100
AcDbBlockBegin
  2
*D13
 70
     1
 10
0.0
 20
0.0
 30
0.0
  3
*D13
  1

  0
LINE
  5
B98C
330
B8C7
100
AcDbEntity
  8
AM_5
100
AcDbLine
 10
237.0013705166516
 20
195.2219411095307
 30
0.0
 11
237.0013705166516
 21
205.2219411095316
 31
0.0
  0
LINE
  5
B98D
330
B8C7
100
AcDbEntity
  8
AM_5
100
AcDbLine
 10
257.0013705166516
 20
161.321941252581
 30
0.0
 11
257.0013705166516
 21
205.2219411095316
 31
0.0
  0
LINE
  5
B98E
330
B8C7
100
AcDbEntity
  8
AM_5
100
AcDbLine
 10
238.0013705166516
 20
204.2219411095317
 30
0.0
 11
256.0013705166516
 21
204.2219411095317
 31
0.0
  0
INSERT
  5
B98F
330
B8C7
100
AcDbEntity
  8
AM_5
100
AcDbBlockReference
  2
_Dot
 10
237.0013705166516
 20
204.2219411095317
 30
0.0
 50
180.0
  0
INSERT
  5
B990
330
B8C7
100
AcDbEntity
  8
AM_5
100
AcDbBlockReference
  2
_Dot
 10
257.0013705166516
 20
204.2219411095317
 30
0.0
  0
MTEXT
  5
B991
330
B8C7
100
AcDbEntity
  8
AM_5
 62
     2
100
AcDbMText
 10
247.0013705166516
 20
207.3219411095316
 30
0.0
 40
3.200000000000001
 41
0.0
 71
     5
 72
     1
  1
20
 73
     1
 44
1.0
1001
ACAD
1000
MTEXTBEGIN
1070
    73
1070
     1
1070
    44
1040
1.0
1070
    74
1070
     0
1000
MTEXTEND
  0
POINT
  5
B992
330
B8C7
100
AcDbEntity
  8
Defpoints
 62
     0
100
AcDbPoint
 10
237.0013705166516
 20
194.2219411095307
 30
0.0
  0
POINT
  5
B993
330
B8C7
100
AcDbEntity
  8
Defpoints
 62
     0
100
AcDbPoint
 10
257.0013705166516
 20
160.321941252581
 30
0.0
  0
POINT
  5
B994
330
B8C7
100
AcDbEntity
  8
Defpoints
 62
     0
100
AcDbPoint
 10
257.0013705166516
 20
204.2219411095317
 30
0.0
  0
ENDBLK
  5
B8D2
330
B8C7
100
AcDbEntity
  8
0
100
AcDbBlockEnd
  0
BLOCK
  5
B8DD
330
B8D3
100
AcDbEntity
  8
0
100
AcDbBlockBegin
  2
*D14
 70
     1
 10
0.0
 20
0.0
 30
0.0
  3
*D14
  1

  0
LINE
  5
B995
330
B8D3
100
AcDbEntity
  8
AM_5
100
AcDbLine
 10
222.0013705166516
 20
187.2219411095307
 30
0.0
 11
222.0013705166516
 21
215.2219411095326
 31
0.0
  0
LINE
  5
B996
330
B8D3
100
AcDbEntity
  8
AM_5
100
AcDbLine
 10
267.0013705166516
 20
161.4373314187055
 30
0.0
 11
267.0013705166516
 21
215.2219411095326
 31
0.0
  0
LINE
  5
B997
330
B8D3
100
AcDbEntity
  8
AM_5
100
AcDbLine
 10
223.0013705166516
 20
214.2219411095326
 30
0.0
 11
266.0013705166516
 21
214.2219411095326
 31
0.0
  0
INSERT
  5
B998
330
B8D3
100
AcDbEntity
  8
AM_5
100
AcDbBlockReference
  2
_Dot
 10
222.0013705166516
 20
214.2219411095326
 30
0.0
 50
180.0
  0
INSERT
  5
B999
330
B8D3
100
AcDbEntity
  8
AM_5
100
AcDbBlockReference
  2
_Dot
 10
267.0013705166516
 20
214.2219411095326
 30
0.0
  0
MTEXT
  5
B99A
330
B8D3
100
AcDbEntity
  8
AM_5
 62
     2
100
AcDbMText
 10
244.5013705166516
 20
217.3219411095326
 30
0.0
 40
3.200000000000001
 41
0.0
 71
     5
 72
     1
  1
45
 73
     1
 44
1.0
1001
ACAD
1000
MTEXTBEGIN
1070
    73
1070
     1
1070
    44
1040
1.0
1070
    74
1070
     0
1000
MTEXTEND
  0
POINT
  5
B99B
330
B8D3
100
AcDbEntity
  8
Defpoints
 62
     0
100
AcDbPoint
 10
222.0013705166516
 20
186.2219411095307
 30
0.0
  0
POINT
  5
B99C
330
B8D3
100
AcDbEntity
  8
Defpoints
 62
     0
100
AcDbPoint
 10
267.0013705166516
 20
160.4373314187055
 30
0.0
  0
POINT
  5
B99D
330
B8D3
100
AcDbEntity
  8
Defpoints
 62
     0
100
AcDbPoint
 10
267.0013705166516
 20
214.2219411095326
 30
0.0
  0
ENDBLK
  5
B8DE
330
B8D3
100
AcDbEntity
  8
0
100
AcDbBlockEnd
  0
BLOCK
  5
B8E9
330
B8DF
100
AcDbEntity
  8
0
100
AcDbBlockBegin
  2
*D15
 70
     1
 10
0.0
 20
0.0
 30
0.0
  3
*D15
  1

  0
LINE
  5
B99E
330
B8DF
100
AcDbEntity
  8
AM_5
100
AcDbLine
 10
271.0013705166516
 20
151.2219411095307
 30
0.0
 11
280.0013705166507
 21
151.2219411095307
 31
0.0
  0
LINE
  5
B99F
330
B8DF
100
AcDbEntity
  8
AM_5
100
AcDbLine
 10
247.0013666826894
 20
179.221941111477
 30
0.0
 11
280.0013705166507
 21
179.221941111477
 31
0.0
  0
LINE
  5
B9A0
330
B8DF
100
AcDbEntity
  8
AM_5
100
AcDbLine
 10
279.0013705166507
 20
152.2219411095307
 30
0.0
 11
279.0013705166507
 21
178.221941111477
 31
0.0
  0
INSERT
  5
B9A1
330
B8DF
100
AcDbEntity
  8
AM_5
100
AcDbBlockReference
  2
_Dot
 10
279.0013705166507
 20
151.2219411095307
 30
0.0
 50
270.0
  0
INSERT
  5
B9A2
330
B8DF
100
AcDbEntity
  8
AM_5
100
AcDbBlockReference
  2
_Dot
 10
279.0013705166507
 20
179.221941111477
 30
0.0
 50
90.0
  0
MTEXT
  5
B9A3
330
B8DF
100
AcDbEntity
  8
AM_5
 62
     2
100
AcDbMText
 10
275.9013705166506
 20
165.2219411105039
 30
0.0
 40
3.200000000000001
 41
0.0
 71
     5
 72
     1
  1
28
 11
0.0000000000000001
 21
1.0
 31
0.0
 73
     1
 44
1.0
1001
ACAD
1000
MTEXTBEGIN
1070
    73
1070
     1
1070
    44
1040
1.0
1070
    74
1070
     0
1000
MTEXTEND
  0
POINT
  5
B9A4
330
B8DF
100
AcDbEntity
  8
Defpoints
 62
     0
100
AcDbPoint
 10
270.0013705166516
 20
151.2219411095307
 30
0.0
  0
POINT
  5
B9A5
330
B8DF
100
AcDbEntity
  8
Defpoints
 62
     0
100
AcDbPoint
 10
246.0013666826894
 20
179.221941111477
 30
0.0
  0
POINT
  5
B9A6
330
B8DF
100
AcDbEntity
  8
Defpoints
 62
     0
100
AcDbPoint
 10
279.0013705166507
 20
179.221941111477
 30
0.0
  0
ENDBLK
  5
B8EA
330
B8DF
100
AcDbEntity
  8
0
100
AcDbBlockEnd
  0
BLOCK
  5
B8F5
330
B8EB
100
AcDbEntity
  8
0
100
AcDbBlockBegin
  2
*D16
 70
     1
 10
0.0
 20
0.0
 30
0.0
  3
*D16
  1

  0
LINE
  5
B9A7
330
B8EB
100
AcDbEntity
  8
AM_5
100
AcDbLine
 10
247.0013666826894
 20
179.221941111477
 30
0.0
 11
290.0013705166507
 21
179.221941111477
 31
0.0
  0
LINE
  5
B9A8
330
B8EB
100
AcDbEntity
  8
AM_5
100
AcDbLine
 10
244.6268989240238
 20
19.22194111147706
 30
0.0
 11
290.0013705166507
 21
19.22194111147705
 31
0.0
  0
LINE
  5
B9A9
330
B8EB
100
AcDbEntity
  8
AM_5
100
AcDbLine
 10
289.0013705166508
 20
178.221941111477
 30
0.0
 11
289.0013705166507
 21
20.22194111147705
 31
0.0
  0
INSERT
  5
B9AA
330
B8EB
100
AcDbEntity
  8
AM_5
100
AcDbBlockReference
  2
_Dot
 10
289.0013705166508
 20
179.221941111477
 30
0.0
 50
90.0
  0
INSERT
  5
B9AB
330
B8EB
100
AcDbEntity
  8
AM_5
100
AcDbBlockReference
  2
_Dot
 10
289.0013705166507
 20
19.22194111147705
 30
0.0
 50
270.0
  0
MTEXT
  5
B9AC
330
B8EB
100
AcDbEntity
  8
AM_5
 62
     2
100
AcDbMText
 10
285.9013705166507
 20
99.2219411114771
 30
0.0
 40
3.200000000000001
 41
0.0
 71
     5
 72
     1
  1
160
 11
0.0000000000000001
 21
1.0
 31
0.0
 73
     1
 44
1.0
1001
ACAD
1000
MTEXTBEGIN
1070
    73
1070
     1
1070
    44
1040
1.0
1070
    74
1070
     0
1000
MTEXTEND
  0
POINT
  5
B9AD
330
B8EB
100
AcDbEntity
  8
Defpoints
 62
     0
100
AcDbPoint
 10
246.0013666826894
 20
179.221941111477
 30
0.0
  0
POINT
  5
B9AE
330
B8EB
100
AcDbEntity
  8
Defpoints
 62
     0
100
AcDbPoint
 10
243.6268989240239
 20
19.22194111147706
 30
0.0
  0
POINT
  5
B9AF
330
B8EB
100
AcDbEntity
  8
Defpoints
 62
     0
100
AcDbPoint
 10
289.0013705166507
 20
19.22194111147705
 30
0.0
  0
ENDBLK
  5
B8F6
330
B8EB
100
AcDbEntity
  8
0
100
AcDbBlockEnd
  0
BLOCK
  5
B903
330
B8F7
100
AcDbEntity
  8
0
100
AcDbBlockBegin
  2
*D17
 70
     1
 10
0.0
 20
0.0
 30
0.0
  3
*D17
  1

  0
LINE
  5
B9B0
330
B8F7
100
AcDbEntity
  8
AM_5
100
AcDbLine
 10
197.0013705166507
 20
144.4722195063123
 30
0.0
 11
197.0013705166507
 21
125.3625580536459
 31
0.0
  0
LINE
  5
B9B1
330
B8F7
100
AcDbEntity
  8
AM_5
100
AcDbLine
 10
194.0013705166507
 20
144.4722195063119
 30
0.0
 11
194.0013705166507
 21
125.3625580536459
 31
0.0
  0
LINE
  5
B9B2
330
B8F7
100
AcDbEntity
  8
AM_5
100
AcDbLine
 10
193.0013705166507
 20
126.3625580536459
 30
0.0
 11
192.0013705166507
 21
126.3625580536459
 31
0.0
  0
LINE
  5
B9B3
330
B8F7
100
AcDbEntity
  8
AM_5
100
AcDbLine
 10
198.0013705166507
 20
126.3625580536459
 30
0.0
 11
206.9189052437817
 21
126.3625580536459
 31
0.0
  0
LINE
  5
B9B4
330
B8F7
100
AcDbEntity
  8
AM_5
100
AcDbLine
 10
194.0013705166507
 20
126.3625580536459
 30
0.0
 11
197.0013705166507
 21
126.3625580536459
 31
0.0
  0
INSERT
  5
B9B5
330
B8F7
100
AcDbEntity
  8
AM_5
100
AcDbBlockReference
  2
_Dot
 10
194.0013705166507
 20
126.3625580536459
 30
0.0
  0
INSERT
  5
B9B6
330
B8F7
100
AcDbEntity
  8
AM_5
100
AcDbBlockReference
  2
_Dot
 10
197.0013705166507
 20
126.3625580536459
 30
0.0
 50
180.0
  0
MTEXT
  5
B9B7
330
B8F7
100
AcDbEntity
  8
AM_5
 62
     2
100
AcDbMText
 10
203.0295719104483
 20
132.1292247203126
 30
0.0
 40
3.200000000000001
 41
0.0
 71
     5
 72
     1
  1
調整\P+3
 73
     1
 44
1.0
1001
ACAD
1000
MTEXTBEGIN
1070
    73
1070
     1
1070
    44
1040
1.0
1070
    74
1070
     0
1000
MTEXTEND
  0
POINT
  5
B9B8
330
B8F7
100
AcDbEntity
  8
Defpoints
 62
     0
100
AcDbPoint
 10
197.0013705166507
 20
145.4722195063123
 30
0.0
  0
POINT
  5
B9B9
330
B8F7
100
AcDbEntity
  8
Defpoints
 62
     0
100
AcDbPoint
 10
194.0013705166507
 20
145.4722195063119
 30
0.0
  0
POINT
  5
B9BA
330
B8F7
100
AcDbEntity
  8
Defpoints
 62
     0
100
AcDbPoint
 10
194.0013705166507
 20
126.3625580536459
 30
0.0
  0
ENDBLK
  5
B904
330
B8F7
100
AcDbEntity
  8
0
100
AcDbBlockEnd
  0
BLOCK
  5
B90F
330
B905
100
AcDbEntity
  8
0
100
AcDbBlockBegin
  2
*D18
 70
     1
 10
0.0
 20
0.0
 30
0.0
  3
*D18
  1

  0
LINE
  5
B9BB
330
B905
100
AcDbEntity
  8
AM_5
100
AcDbLine
 10
257.0013705166516
 20
161.321941252581
 30
0.0
 11
257.0013705166516
 21
205.2219411095357
 31
0.0
  0
LINE
  5
B9BC
330
B905
100
AcDbEntity
  8
AM_5
100
AcDbLine
 10
267.0013705166507
 20
161.321941252581
 30
0.0
 11
267.0013705166507
 21
205.2219411095357
 31
0.0
  0
LINE
  5
B9BD
330
B905
100
AcDbEntity
  8
AM_5
100
AcDbLine
 10
258.0013705166516
 20
204.2219411095357
 30
0.0
 11
266.0013705166507
 21
204.2219411095357
 31
0.0
  0
INSERT
  5
B9BE
330
B905
100
AcDbEntity
  8
AM_5
100
AcDbBlockReference
  2
_Dot
 10
257.0013705166516
 20
204.2219411095357
 30
0.0
 50
180.0
  0
INSERT
  5
B9BF
330
B905
100
AcDbEntity
  8
AM_5
100
AcDbBlockReference
  2
_Dot
 10
267.0013705166507
 20
204.2219411095357
 30
0.0
  0
MTEXT
  5
B9C0
330
B905
100
AcDbEntity
  8
AM_5
 62
     2
100
AcDbMText
 10
262.0013705166511
 20
207.3219411095358
 30
0.0
 40
3.200000000000001
 41
0.0
 71
     5
 72
     1
  1
10
 73
     1
 44
1.0
1001
ACAD
1000
MTEXTBEGIN
1070
    73
1070
     1
1070
    44
1040
1.0
1070
    74
1070
     0
1000
MTEXTEND
  0
POINT
  5
B9C1
330
B905
100
AcDbEntity
  8
Defpoints
 62
     0
100
AcDbPoint
 10
257.0013705166516
 20
160.321941252581
 30
0.0
  0
POINT
  5
B9C2
330
B905
100
AcDbEntity
  8
Defpoints
 62
     0
100
AcDbPoint
 10
267.0013705166507
 20
160.321941252581
 30
0.0
  0
POINT
  5
B9C3
330
B905
100
AcDbEntity
  8
Defpoints
 62
     0
100
AcDbPoint
 10
267.0013705166507
 20
204.2219411095357
 30
0.0
  0
ENDBLK
  5
B910
330
B905
100
AcDbEntity
  8
0
100
AcDbBlockEnd
  0
BLOCK
  5
B91B
330
B911
100
AcDbEntity
  8
0
100
AcDbBlockBegin
  2
*D19
 70
     1
 10
0.0
 20
0.0
 30
0.0
  3
*D19
  1

  0
LINE
  5
B9C4
330
B911
100
AcDbEntity
  8
AM_5
100
AcDbLine
 10
157.0013705166516
 20
161.3219412525828
 30
0.0
 11
157.0013705166516
 21
205.2219411095348
 31
0.0
  0
LINE
  5
B9C5
330
B911
100
AcDbEntity
  8
AM_5
100
AcDbLine
 10
147.0013705166525
 20
161.3219412525828
 30
0.0
 11
147.0013705166525
 21
205.2219411095348
 31
0.0
  0
LINE
  5
B9C6
330
B911
100
AcDbEntity
  8
AM_5
100
AcDbLine
 10
156.0013705166516
 20
204.2219411095348
 30
0.0
 11
148.0013705166525
 21
204.2219411095348
 31
0.0
  0
INSERT
  5
B9C7
330
B911
100
AcDbEntity
  8
AM_5
100
AcDbBlockReference
  2
_Dot
 10
157.0013705166516
 20
204.2219411095348
 30
0.0
  0
INSERT
  5
B9C8
330
B911
100
AcDbEntity
  8
AM_5
100
AcDbBlockReference
  2
_Dot
 10
147.0013705166525
 20
204.2219411095348
 30
0.0
 50
180.0
  0
MTEXT
  5
B9C9
330
B911
100
AcDbEntity
  8
AM_5
 62
     2
100
AcDbMText
 10
152.001370516652
 20
207.3219411095348
 30
0.0
 40
3.200000000000001
 41
0.0
 71
     5
 72
     1
  1
10
 73
     1
 44
1.0
1001
ACAD
1000
MTEXTBEGIN
1070
    73
1070
     1
1070
    44
1040
1.0
1070
    74
1070
     0
1000
MTEXTEND
  0
POINT
  5
B9CA
330
B911
100
AcDbEntity
  8
Defpoints
 62
     0
100
AcDbPoint
 10
157.0013705166516
 20
160.3219412525828
 30
0.0
  0
POINT
  5
B9CB
330
B911
100
AcDbEntity
  8
Defpoints
 62
     0
100
AcDbPoint
 10
147.0013705166525
 20
160.3219412525828
 30
0.0
  0
POINT
  5
B9CC
330
B911
100
AcDbEntity
  8
Defpoints
 62
     0
100
AcDbPoint
 10
147.0013705166525
 20
204.2219411095348
 30
0.0
  0
ENDBLK
  5
B91C
330
B911
100
AcDbEntity
  8
0
100
AcDbBlockEnd
  0
BLOCK
  5
B927
330
B91D
100
AcDbEntity
  8
0
100
AcDbBlockBegin
  2
*D20
 70
     1
 10
0.0
 20
0.0
 30
0.0
  3
*D20
  1

  0
LINE
  5
B9CD
330
B91D
100
AcDbEntity
  8
AM_5
100
AcDbLine
 10
361.7212849062712
 20
110.2219411095307
 30
0.0
 11
361.7212849062712
 21
98.22194110953075
 31
0.0
  0
LINE
  5
B9CE
330
B91D
100
AcDbEntity
  8
AM_5
100
AcDbLine
 10
348.721284906273
 20
111.2694451226439
 30
0.0
 11
348.721284906273
 21
98.22194110953075
 31
0.0
  0
LINE
  5
B9CF
330
B91D
100
AcDbEntity
  8
AM_5
100
AcDbLine
 10
360.7212849062712
 20
99.22194110953075
 30
0.0
 11
349.721284906273
 21
99.22194110953075
 31
0.0
  0
INSERT
  5
B9D0
330
B91D
100
AcDbEntity
  8
AM_5
100
AcDbBlockReference
  2
_Dot
 10
361.7212849062712
 20
99.22194110953075
 30
0.0
  0
INSERT
  5
B9D1
330
B91D
100
AcDbEntity
  8
AM_5
100
AcDbBlockReference
  2
_Dot
 10
348.721284906273
 20
99.22194110953075
 30
0.0
 50
180.0
  0
MTEXT
  5
B9D2
330
B91D
100
AcDbEntity
  8
AM_5
 62
     2
100
AcDbMText
 10
355.2212849062721
 20
102.3219411095307
 30
0.0
 40
3.200000000000001
 41
0.0
 71
     5
 72
     1
  1
13
 73
     1
 44
1.0
1001
ACAD
1000
MTEXTBEGIN
1070
    73
1070
     1
1070
    44
1040
1.0
1070
    74
1070
     0
1000
MTEXTEND
  0
POINT
  5
B9D3
330
B91D
100
AcDbEntity
  8
Defpoints
 62
     0
100
AcDbPoint
 10
361.7212849062712
 20
111.2219411095307
 30
0.0
  0
POINT
  5
B9D4
330
B91D
100
AcDbEntity
  8
Defpoints
 62
     0
100
AcDbPoint
 10
348.721284906273
 20
112.2694451226439
 30
0.0
  0
POINT
  5
B9D5
330
B91D
100
AcDbEntity
  8
Defpoints
 62
     0
100
AcDbPoint
 10
348.721284906273
 20
99.22194110953075
 30
0.0
  0
ENDBLK
  5
B928
330
B91D
100
AcDbEntity
  8
0
100
AcDbBlockEnd
  0
BLOCK
  5
B933
330
B929
100
AcDbEntity
  8
0
100
AcDbBlockBegin
  2
*D21
 70
     1
 10
0.0
 20
0.0
 30
0.0
  3
*D21
  1

  0
LINE
  5
B9D6
330
B929
100
AcDbEntity
  8
AM_5
100
AcDbLine
 10
361.7212849062712
 20
110.2219411095307
 30
0.0
 11
361.7212849062712
 21
88.22194110953484
 31
0.0
  0
LINE
  5
B9D7
330
B929
100
AcDbEntity
  8
AM_5
100
AcDbLine
 10
338.721284906273
 20
111.7694451226439
 30
0.0
 11
338.721284906273
 21
88.22194110953484
 31
0.0
  0
LINE
  5
B9D8
330
B929
100
AcDbEntity
  8
AM_5
100
AcDbLine
 10
360.7212849062712
 20
89.22194110953483
 30
0.0
 11
339.721284906273
 21
89.22194110953483
 31
0.0
  0
INSERT
  5
B9D9
330
B929
100
AcDbEntity
  8
AM_5
100
AcDbBlockReference
  2
_Dot
 10
361.7212849062712
 20
89.22194110953483
 30
0.0
  0
INSERT
  5
B9DA
330
B929
100
AcDbEntity
  8
AM_5
100
AcDbBlockReference
  2
_Dot
 10
338.721284906273
 20
89.22194110953483
 30
0.0
 50
180.0
  0
MTEXT
  5
B9DB
330
B929
100
AcDbEntity
  8
AM_5
 62
     2
100
AcDbMText
 10
350.2212849062721
 20
92.32194110953484
 30
0.0
 40
3.200000000000001
 41
0.0
 71
     5
 72
     1
  1
23
 73
     1
 44
1.0
1001
ACAD
1000
MTEXTBEGIN
1070
    73
1070
     1
1070
    44
1040
1.0
1070
    74
1070
     0
1000
MTEXTEND
  0
POINT
  5
B9DC
330
B929
100
AcDbEntity
  8
Defpoints
 62
     0
100
AcDbPoint
 10
361.7212849062712
 20
111.2219411095307
 30
0.0
  0
POINT
  5
B9DD
330
B929
100
AcDbEntity
  8
Defpoints
 62
     0
100
AcDbPoint
 10
338.721284906273
 20
112.7694451226439
 30
0.0
  0
POINT
  5
B9DE
330
B929
100
AcDbEntity
  8
Defpoints
 62
     0
100
AcDbPoint
 10
338.721284906273
 20
89.22194110953483
 30
0.0
  0
ENDBLK
  5
B934
330
B929
100
AcDbEntity
  8
0
100
AcDbBlockEnd
  0
BLOCK
  5
B93F
330
B935
100
AcDbEntity
  8
0
100
AcDbBlockBegin
  2
*D22
 70
     1
 10
0.0
 20
0.0
 30
0.0
  3
*D22
  1

  0
LINE
  5
B9DF
330
B935
100
AcDbEntity
  8
AM_5
100
AcDbLine
 10
129.3814974369654
 20
99.22194110953073
 30
0.0
 11
162.4981641036321
 21
99.22194110953073
 31
0.0
  0
LINE
  5
B9E0
330
B935
100
AcDbEntity
  8
AM_5
100
AcDbLine
 10
162.4981641036321
 20
99.22194110953073
 30
0.0
 11
172.5431451636922
 21
114.4592325765371
 31
0.0
  0
LINE
  5
B9E1
330
B935
100
AcDbEntity
  8
AM_5
100
AcDbLine
 10
181.4595958696105
 20
127.9846496425259
 30
0.0
 11
182.5603922530571
 21
129.6544542185738
 31
0.0
  0
MTEXT
  5
B9E2
330
B935
100
AcDbEntity
  8
AM_5
 62
     2
100
AcDbMText
 10
145.1898307702987
 20
102.4719411095307
 30
0.0
 40
3.5
 41
0.0
 71
     5
 72
     1
  1
3-\U+220512.2×%%c6.3皿孔
 73
     1
 44
1.0
1001
ACAD
1000
MTEXTBEGIN
1070
    73
1070
     1
1070
    44
1040
1.0
1070
    74
1070
     0
1000
MTEXTEND
  0
LINE
  5
B9E3
330
B935
100
AcDbEntity
  8
AM_5
100
AcDbLine
 10
180.3587994861638
 20
126.3148450664779
 30
0.0
 11
173.6439415471389
 21
116.129037152585
 31
0.0
  0
INSERT
  5
B9E4
330
B935
100
AcDbEntity
  8
AM_5
100
AcDbBlockReference
  2
GENDOT
 10
180.3587994861638
 20
126.3148450664779
 30
0.0
 41
2.0
 42
2.0
 43
2.0
 50
236.6056651262719
  0
INSERT
  5
B9E5
330
B935
100
AcDbEntity
  8
AM_5
100
AcDbBlockReference
  2
GENDOT
 10
173.6439415471389
 20
116.129037152585
 30
0.0
 41
2.0
 42
2.0
 43
2.0
 50
56.60566512627191
  0
POINT
  5
B9E6
330
B935
100
AcDbEntity
  8
Defpoints
 62
     0
100
AcDbPoint
 10
173.6439415471389
 20
116.129037152585
 30
0.0
  0
POINT
  5
B9E7
330
B935
100
AcDbEntity
  8
Defpoints
 62
     0
100
AcDbPoint
 10
180.3587994861638
 20
126.3148450664779
 30
0.0
  0
ENDBLK
  5
B940
330
B935
100
AcDbEntity
  8
0
100
AcDbBlockEnd
  0
BLOCK
  5
B94B
330
B941
100
AcDbEntity
  8
0
100
AcDbBlockBegin
  2
*D23
 70
     1
 10
0.0
 20
0.0
 30
0.0
  3
*D23
  1

  0
LINE
  5
B9E8
330
B941
100
AcDbEntity
  8
AM_5
100
AcDbLine
 10
189.3814974369655
 20
99.22194110952883
 30
0.0
 11
222.4981641036325
 21
99.22194110952883
 31
0.0
  0
LINE
  5
B9E9
330
B941
100
AcDbEntity
  8
AM_5
100
AcDbLine
 10
222.4981641036325
 20
99.22194110952883
 30
0.0
 11
232.5431451636923
 21
114.4592325765352
 31
0.0
  0
LINE
  5
B9EA
330
B941
100
AcDbEntity
  8
AM_5
100
AcDbLine
 10
241.4595958696104
 20
127.984649642524
 30
0.0
 11
242.5603922530571
 21
129.654454218572
 31
0.0
  0
MTEXT
  5
B9EB
330
B941
100
AcDbEntity
  8
AM_5
 62
     2
100
AcDbMText
 10
205.1898307702988
 20
102.4719411095288
 30
0.0
 40
3.5
 41
0.0
 71
     5
 72
     1
  1
3-\U+220512.2×%%c6.3皿孔
 73
     1
 44
1.0
1001
ACAD
1000
MTEXTBEGIN
1070
    73
1070
     1
1070
    44
1040
1.0
1070
    74
1070
     0
1000
MTEXTEND
  0
LINE
  5
B9EC
330
B941
100
AcDbEntity
  8
AM_5
100
AcDbLine
 10
240.3587994861638
 20
126.3148450664761
 30
0.0
 11
233.643941547139
 21
116.1290371525832
 31
0.0
  0
INSERT
  5
B9ED
330
B941
100
AcDbEntity
  8
AM_5
100
AcDbBlockReference
  2
GENDOT
 10
240.3587994861638
 20
126.3148450664761
 30
0.0
 41
2.0
 42
2.0
 43
2.0
 50
236.6056651262725
  0
INSERT
  5
B9EE
330
B941
100
AcDbEntity
  8
AM_5
100
AcDbBlockReference
  2
GENDOT
 10
233.643941547139
 20
116.1290371525832
 30
0.0
 41
2.0
 42
2.0
 43
2.0
 50
56.60566512627255
  0
POINT
  5
B9EF
330
B941
100
AcDbEntity
  8
Defpoints
 62
     0
100
AcDbPoint
 10
233.643941547139
 20
116.1290371525832
 30
0.0
  0
POINT
  5
B9F0
330
B941
100
AcDbEntity
  8
Defpoints
 62
     0
100
AcDbPoint
 10
240.3587994861638
 20
126.3148450664761
 30
0.0
  0
ENDBLK
  5
B94C
330
B941
100
AcDbEntity
  8
0
100
AcDbBlockEnd
  0
ENDSEC
  0
SECTION
  2
ENTITIES
  0
LINE
  5
B750
330
1F
100
AcDbEntity
  8
size
100
AcDbLine
 10
0.0000000851782715
 20
0.0000004624430971
 30
0.0
 11
420.0000000851782
 21
0.0000004624430971
 31
0.0
1001
GENIUS_GENREC_14
1002
{
1000
PYDIR
1011
0.0000000851782715
1021
297.0000004624431
1031
0.0
1002
}
1002
{
1000
PXDIR
1011
420.0000000851782
1021
0.0000004624430971
1031
0.0
1002
}
1002
{
1000
PORI
1011
0.0000000851782715
1021
0.0000004624430971
1031
0.0
1002
}
1002
{
1000
PINS
1011
210.0000000851783
1021
148.500000462443
1031
0.0
1002
}
1002
{
1000
HVAL
1000
297
1002
}
1002
{
1000
H
1070
     2
1002
}
1002
{
1000
WVAL
1000
420
1002
}
1002
{
1000
W
1070
     2
1002
}
1002
{
1000
C
1070
     4
1002
}
1001
GENIUS_GENOBJ-N-REC_13
1002
{
1000
OWNER
1000
GEN
1002
}
1001
GENIUS_GENODEF_13
1002
{
1000
HIER
1070
     0
1002
}
1002
{
1000
MANEDIT
1070
     0
1002
}
1002
{
1000
NOSEL
1070
     0
1002
}
1002
{
1000
BEHIND
1070
     0
1002
}
1002
{
1000
OTHER
1070
     0
1002
}
1002
{
1000
REACTOR
1002
}
  0
LINE
  5
B751
330
1F
100
AcDbEntity
  8
size
100
AcDbLine
 10
420.0000000851782
 20
0.0000004624430971
 30
0.0
 11
420.0000000851782
 21
297.0000004624431
 31
0.0
1001
GENIUS_GENREC_14
1002
{
1000
PYDIR
1011
0.0000000851782715
1021
297.0000004624431
1031
0.0
1002
}
1002
{
1000
PXDIR
1011
420.0000000851782
1021
0.0000004624430971
1031
0.0
1002
}
1002
{
1000
PORI
1011
0.0000000851782715
1021
0.0000004624430971
1031
0.0
1002
}
1002
{
1000
PINS
1011
210.0000000851783
1021
148.500000462443
1031
0.0
1002
}
1002
{
1000
HVAL
1000
297
1002
}
1002
{
1000
H
1070
     2
1002
}
1002
{
1000
WVAL
1000
420
1002
}
1002
{
1000
W
1070
     2
1002
}
1002
{
1000
C
1070
     4
1002
}
1001
GENIUS_GENOBJ-N-REC_13
1002
{
1000
OWNER
1000
GEN
1002
}
1001
GENIUS_GENODEF_13
1002
{
1000
HIER
1070
     0
1002
}
1002
{
1000
MANEDIT
1070
     0
1002
}
1002
{
1000
NOSEL
1070
     0
1002
}
1002
{
1000
BEHIND
1070
     0
1002
}
1002
{
1000
OTHER
1070
     0
1002
}
1002
{
1000
REACTOR
1002
}
  0
LINE
  5
B752
330
1F
100
AcDbEntity
  8
size
100
AcDbLine
 10
420.0000000851782
 20
297.0000004624431
 30
0.0
 11
0.0000000851782715
 21
297.0000004624431
 31
0.0
1001
GENIUS_GENREC_14
1002
{
1000
PYDIR
1011
0.0000000851782715
1021
297.0000004624431
1031
0.0
1002
}
1002
{
1000
PXDIR
1011
420.0000000851782
1021
0.0000004624430971
1031
0.0
1002
}
1002
{
1000
PORI
1011
0.0000000851782715
1021
0.0000004624430971
1031
0.0
1002
}
1002
{
1000
PINS
1011
210.0000000851783
1021
148.500000462443
1031
0.0
1002
}
1002
{
1000
HVAL
1000
297
1002
}
1002
{
1000
H
1070
     2
1002
}
1002
{
1000
WVAL
1000
420
1002
}
1002
{
1000
W
1070
     2
1002
}
1002
{
1000
C
1070
     4
1002
}
1001
GENIUS_GENOBJ-N-REC_13
1002
{
1000
OWNER
1000
GEN
1002
}
1001
GENIUS_GENODEF_13
1002
{
1000
HIER
1070
     0
1002
}
1002
{
1000
MANEDIT
1070
     0
1002
}
1002
{
1000
NOSEL
1070
     0
1002
}
1002
{
1000
BEHIND
1070
     0
1002
}
1002
{
1000
OTHER
1070
     0
1002
}
1002
{
1000
REACTOR
1002
}
  0
LINE
  5
B753
330
1F
100
AcDbEntity
  8
size
100
AcDbLine
 10
0.0000000851782715
 20
297.0000004624431
 30
0.0
 11
0.0000000851782715
 21
0.0000004624430971
 31
0.0
1001
GENIUS_GENREC_14
1002
{
1000
PYDIR
1011
0.0000000851782715
1021
297.0000004624431
1031
0.0
1002
}
1002
{
1000
PXDIR
1011
420.0000000851782
1021
0.0000004624430971
1031
0.0
1002
}
1002
{
1000
PORI
1011
0.0000000851782715
1021
0.0000004624430971
1031
0.0
1002
}
1002
{
1000
PINS
1011
210.0000000851783
1021
148.500000462443
1031
0.0
1002
}
1002
{
1000
HVAL
1000
297
1002
}
1002
{
1000
H
1070
     2
1002
}
1002
{
1000
WVAL
1000
420
1002
}
1002
{
1000
W
1070
     2
1002
}
1002
{
1000
C
1070
     4
1002
}
1001
GENIUS_GENOBJ-N-REC_13
1002
{
1000
OWNER
1000
GEN
1002
}
1001
GENIUS_GENODEF_13
1002
{
1000
HIER
1070
     0
1002
}
1002
{
1000
MANEDIT
1070
     0
1002
}
1002
{
1000
NOSEL
1070
     0
1002
}
1002
{
1000
BEHIND
1070
     0
1002
}
1002
{
1000
OTHER
1070
     0
1002
}
1002
{
1000
REACTOR
1002
}
  0
LINE
  5
B754
330
1F
100
AcDbEntity
  8
waku
100
AcDbLine
 10
408.5000000851782
 20
8.500000462443097
 30
0.0
 11
408.5000000851782
 21
288.5000004624431
 31
0.0
1001
GENIUS_GENREC_14
1002
{
1000
PYDIR
1011
0.0000000851782715
1021
297.0000004624431
1031
0.0
1002
}
1002
{
1000
PXDIR
1011
420.0000000851782
1021
0.0000004624430971
1031
0.0
1002
}
1002
{
1000
PORI
1011
0.0000000851782715
1021
0.0000004624430971
1031
0.0
1002
}
1002
{
1000
PINS
1011
210.0000000851783
1021
148.500000462443
1031
0.0
1002
}
1002
{
1000
HVAL
1000
297
1002
}
1002
{
1000
H
1070
     2
1002
}
1002
{
1000
WVAL
1000
420
1002
}
1002
{
1000
W
1070
     2
1002
}
1002
{
1000
C
1070
     4
1002
}
1001
GENIUS_GENOBJ-N-REC_13
1002
{
1000
OWNER
1000
GEN
1002
}
1001
GENIUS_GENODEF_13
1002
{
1000
HIER
1070
     0
1002
}
1002
{
1000
MANEDIT
1070
     0
1002
}
1002
{
1000
NOSEL
1070
     0
1002
}
1002
{
1000
BEHIND
1070
     0
1002
}
1002
{
1000
OTHER
1070
     0
1002
}
1002
{
1000
REACTOR
1002
}
  0
LINE
  5
B755
330
1F
100
AcDbEntity
  8
waku
100
AcDbLine
 10
11.50000008517827
 20
288.5000004624431
 30
0.0
 11
11.50000008517827
 21
8.500000462443097
 31
0.0
1001
GENIUS_GENREC_14
1002
{
1000
PYDIR
1011
0.0000000851782715
1021
297.0000004624431
1031
0.0
1002
}
1002
{
1000
PXDIR
1011
420.0000000851782
1021
0.0000004624430971
1031
0.0
1002
}
1002
{
1000
PORI
1011
0.0000000851782715
1021
0.0000004624430971
1031
0.0
1002
}
1002
{
1000
PINS
1011
210.0000000851783
1021
148.500000462443
1031
0.0
1002
}
1002
{
1000
HVAL
1000
297
1002
}
1002
{
1000
H
1070
     2
1002
}
1002
{
1000
WVAL
1000
420
1002
}
1002
{
1000
W
1070
     2
1002
}
1002
{
1000
C
1070
     4
1002
}
1001
GENIUS_GENOBJ-N-REC_13
1002
{
1000
OWNER
1000
GEN
1002
}
1001
GENIUS_GENODEF_13
1002
{
1000
HIER
1070
     0
1002
}
1002
{
1000
MANEDIT
1070
     0
1002
}
1002
{
1000
NOSEL
1070
     0
1002
}
1002
{
1000
BEHIND
1070
     0
1002
}
1002
{
1000
OTHER
1070
     0
1002
}
1002
{
1000
REACTOR
1002
}
  0
LINE
  5
B756
330
1F
100
AcDbEntity
  8
waku
100
AcDbLine
 10
408.5000000851782
 20
288.5000004624431
 30
0.0
 11
11.50000008517827
 21
288.5000004624431
 31
0.0
1001
GENIUS_GENREC_14
1002
{
1000
PYDIR
1011
0.0000000851782715
1021
297.0000004624431
1031
0.0
1002
}
1002
{
1000
PXDIR
1011
420.0000000851782
1021
0.0000004624430971
1031
0.0
1002
}
1002
{
1000
PORI
1011
0.0000000851782715
1021
0.0000004624430971
1031
0.0
1002
}
1002
{
1000
PINS
1011
210.0000000851783
1021
148.500000462443
1031
0.0
1002
}
1002
{
1000
HVAL
1000
297
1002
}
1002
{
1000
H
1070
     2
1002
}
1002
{
1000
WVAL
1000
420
1002
}
1002
{
1000
W
1070
     2
1002
}
1002
{
1000
C
1070
     4
1002
}
1001
GENIUS_GENOBJ-N-REC_13
1002
{
1000
OWNER
1000
GEN
1002
}
1001
GENIUS_GENODEF_13
1002
{
1000
HIER
1070
     0
1002
}
1002
{
1000
MANEDIT
1070
     0
1002
}
1002
{
1000
NOSEL
1070
     0
1002
}
1002
{
1000
BEHIND
1070
     0
1002
}
1002
{
1000
OTHER
1070
     0
1002
}
1002
{
1000
REACTOR
1002
}
  0
LINE
  5
B757
330
1F
100
AcDbEntity
  8
waku
100
AcDbLine
 10
11.50000008517827
 20
8.500000462443097
 30
0.0
 11
408.5000000851782
 21
8.500000462443097
 31
0.0
  0
LINE
  5
B758
330
1F
100
AcDbEntity
  8
AM_7
100
AcDbLine
 10
176.4504565374095
 20
279.7306175252107
 30
0.0
 11
176.4504565374095
 21
241.7306175252107
 31
0.0
1001
GENIUS_GENOBJ-N-CEN_13
1002
{
1000
OWNER
1000
GEN
1002
}
1001
GENIUS_GENODEF_13
1002
{
1000
HIER
1070
     0
1002
}
1002
{
1000
MANEDIT
1070
     0
1002
}
1002
{
1000
NOSEL
1070
     0
1002
}
1002
{
1000
BEHIND
1070
     0
1002
}
1002
{
1000
OTHER
1070
     0
1002
}
1002
{
1000
REACTOR
1002
}
1001
GENIUS_GENCEN_19
1002
{
1040
3.0
1002
}
  0
ARC
  5
B759
330
1F
100
AcDbEntity
  8
0ハンドル
100
AcDbCircle
 10
236.4030205475497
 20
304.7306175251998
 30
0.0
 40
80.0
100
AcDbArc
 50
262.338512440004
 51
277.6613877954
  0
ARC
  5
B75A
330
1F
100
AcDbEntity
  8
0ハンドル
370
    13
100
AcDbCircle
 10
236.4029747030159
 20
309.5306175252127
 30
0.0
 40
80.0
100
AcDbArc
 50
262.4526939120013
 51
277.5473060879396
  0
ARC
  5
B75B
330
1F
100
AcDbEntity
  8
0ハンドル
370
    13
100
AcDbCircle
 10
236.4029747030159
 20
155.9306175252132
 30
0.0
 40
80.0
100
AcDbArc
 50
82.3433424542774
 51
97.65665754572257
  0
LINE
  5
B75C
330
1F
100
AcDbEntity
  8
0台座
100
AcDbLine
 10
266.4504565374086
 20
276.7306175252107
 30
0.0
 11
221.4504565374095
 21
276.7306175252107
 31
0.0
  0
LINE
  5
B75D
330
1F
100
AcDbEntity
  8
0ハンドル
100
AcDbLine
 10
224.8774500182494
 20
243.7567931950198
 30
0.0
 11
224.4379108099916
 21
226.9706476109596
 31
0.0
  0
ARC
  5
B75E
330
1F
100
AcDbEntity
  8
0ハンドル
100
AcDbCircle
 10
225.8771073767034
 20
243.7306175252289
 30
0.0
 40
1.0
100
AcDbArc
 50
90.0
 51
178.5000732787581
1001
GENIUS_GENOBJ-N-FIL_13
1002
{
1000
OWNER
1000
GEN
1002
}
1001
GENIUS_GENODEF_13
1002
{
1000
HIER
1070
     0
1002
}
1002
{
1000
MANEDIT
1070
     0
1002
}
1002
{
1000
NOSEL
1070
     0
1002
}
1002
{
1000
BEHIND
1070
     0
1002
}
1002
{
1000
OTHER
1070
     0
1002
}
1002
{
1000
REACTOR
1002
}
  0
LINE
  5
B75F
330
1F
100
AcDbEntity
  8
0ハンドル
100
AcDbLine
 10
247.9284488546059
 20
243.7567935681382
 30
0.0
 11
248.3679948048043
 21
226.9706299477949
 31
0.0
  0
ARC
  5
B760
330
1F
100
AcDbEntity
  8
0ハンドル
100
AcDbCircle
 10
246.9287915059217
 20
243.7306175252289
 30
0.0
 40
1.0
100
AcDbArc
 50
1.499948106677672
 51
90.0
1001
GENIUS_GENOBJ-N-FIL_13
1002
{
1000
OWNER
1000
GEN
1002
}
1001
GENIUS_GENODEF_13
1002
{
1000
HIER
1070
     0
1002
}
1002
{
1000
MANEDIT
1070
     0
1002
}
1002
{
1000
NOSEL
1070
     0
1002
}
1002
{
1000
BEHIND
1070
     0
1002
}
1002
{
1000
OTHER
1070
     0
1002
}
1002
{
1000
REACTOR
1002
}
  0
LINE
  5
B761
330
1F
100
AcDbEntity
  8
0ハンドル
100
AcDbLine
 10
246.9287915059217
 20
244.7306175252289
 30
0.0
 11
225.8771073767034
 21
244.7306175252289
 31
0.0
  0
ARC
  5
B762
330
1F
100
AcDbEntity
  8
0ハンドル
100
AcDbCircle
 10
225.9373968476725
 20
226.931384106274
 30
0.0
 40
1.5
100
AcDbArc
 50
178.5000732787581
 51
262.338512440004
  0
ARC
  5
B763
330
1F
100
AcDbEntity
  8
0ハンドル
100
AcDbCircle
 10
246.8685087817789
 20
226.9313658834317
 30
0.0
 40
1.5
100
AcDbArc
 50
277.6613877954
 51
1.499948106677672
  0
LINE
  5
B764
330
1F
100
AcDbEntity
  8
0樹脂スラセ2
100
AcDbLine
 10
223.9029503184643
 20
260.7306175252107
 30
0.0
 11
248.9029503184652
 21
260.7306175252107
 31
0.0
  0
LINE
  5
B765
330
1F
100
AcDbEntity
  8
0樹脂スラセ2
100
AcDbLine
 10
223.9029503184652
 20
260.7306175252107
 30
0.0
 11
223.9029503184652
 21
261.7306175252107
 31
0.0
  0
LINE
  5
B766
330
1F
100
AcDbEntity
  8
0樹脂スラセ2
100
AcDbLine
 10
223.9029503184643
 20
261.7306175252107
 30
0.0
 11
248.9029503184652
 21
261.7306175252107
 31
0.0
  0
LINE
  5
B767
330
1F
100
AcDbEntity
  8
0樹脂スラセ2
100
AcDbLine
 10
248.9029503184652
 20
261.7306175252107
 30
0.0
 11
248.9029503184652
 21
260.7306175252107
 31
0.0
  0
LINE
  5
B768
330
1F
100
AcDbEntity
  8
0カム
100
AcDbLine
 10
197.4504565374095
 20
263.7306175252116
 30
0.0
 11
218.4203958924222
 21
263.7306175252116
 31
0.0
  0
LINE
  5
B769
330
1F
100
AcDbEntity
  8
0カム
100
AcDbLine
 10
196.4504565374095
 20
262.7306175252107
 30
0.0
 11
196.4504565374095
 21
255.2306175252116
 31
0.0
  0
ARC
  5
B76A
330
1F
100
AcDbEntity
  8
0カム
100
AcDbCircle
 10
197.9504565374095
 20
255.2306175252116
 30
0.0
 40
1.5
100
AcDbArc
 50
180.0
 51
270.0
1001
GENIUS_GENOBJ-N-FIL_13
1002
{
1000
OWNER
1000
GEN
1002
}
1001
GENIUS_GENODEF_13
1002
{
1000
HIER
1070
     0
1002
}
1002
{
1000
MANEDIT
1070
     0
1002
}
1002
{
1000
NOSEL
1070
     0
1002
}
1002
{
1000
BEHIND
1070
     0
1002
}
1002
{
1000
OTHER
1070
     0
1002
}
1002
{
1000
REACTOR
1002
}
  0
ARC
  5
B76B
330
1F
100
AcDbEntity
  8
0カム
100
AcDbCircle
 10
197.4504565374095
 20
262.7306175252107
 30
0.0
 40
1.0
100
AcDbArc
 50
90.0
 51
180.0
  0
LINE
  5
B76C
330
1F
100
AcDbEntity
  8
0カム
100
AcDbLine
 10
224.3033706419506
 20
260.7306175252116
 30
0.0
 11
250.9506309978747
 21
260.7306175252079
 31
0.0
  0
LINE
  5
B76D
330
1F
100
AcDbEntity
  8
0カム
100
AcDbLine
 10
197.9504565374095
 20
253.7306175252116
 30
0.0
 11
206.9618832671845
 21
253.7306175252116
 31
0.0
  0
LINE
  5
B76E
330
1F
100
AcDbEntity
  8
0カム
100
AcDbLine
 10
220.2793287581585
 20
263.0852658218128
 30
0.0
 11
222.4444377762143
 21
261.3759692286113
 31
0.0
  0
LINE
  5
B76F
330
1F
100
AcDbEntity
  8
0カム
100
AcDbLine
 10
251.9506309826534
 20
259.7307920008916
 30
0.0
 11
250.9530736422671
 21
245.7307920008944
 31
0.0
  0
ARC
  5
B770
330
1F
100
AcDbEntity
  8
0カム
100
AcDbCircle
 10
250.9506309978747
 20
259.730617525208
 30
0.0
 40
1.0
100
AcDbArc
 50
0.0099967203808448
 51
89.99999999994789
1001
GENIUS_GENODEF_13
1002
{
1000
HIER
1070
     0
1002
}
1002
{
1000
MANEDIT
1070
     0
1002
}
1002
{
1000
NOSEL
1070
     0
1002
}
1002
{
1000
BEHIND
1070
     0
1002
}
1002
{
1000
OTHER
1070
     0
1002
}
1002
{
1000
REACTOR
1002
}
1001
GENIUS_GENOBJ-N-FIL_13
1002
{
1000
OWNER
1000
GEN
1002
}
  0
ARC
  5
B771
330
1F
100
AcDbEntity
  8
0カム
100
AcDbCircle
 10
218.4203958924222
 20
260.7306175252116
 30
0.0
 40
3.0
100
AcDbArc
 50
51.70983680774033
 51
90.0
  0
ARC
  5
B772
330
1F
100
AcDbEntity
  8
0カム
100
AcDbCircle
 10
224.3033706419514
 20
263.7306175252125
 30
0.0
 40
3.0
100
AcDbArc
 50
231.7098368077403
 51
269.9999999999479
  0
LINE
  5
B773
330
1F
100
AcDbEntity
  8
0カム
100
AcDbLine
 10
249.9530736574875
 20
244.7306175252107
 30
0.0
 11
226.1712559794692
 21
244.7306175252107
 31
0.0
  0
ARC
  5
B774
330
1F
100
AcDbEntity
  8
0カム
100
AcDbCircle
 10
249.9530736574875
 20
245.7306175252107
 30
0.0
 40
1.0
100
AcDbArc
 50
270.0
 51
0.0099967203808448
1001
GENIUS_GENOBJ-N-FIL_13
1002
{
1000
OWNER
1000
GEN
1002
}
1001
GENIUS_GENODEF_13
1002
{
1000
HIER
1070
     0
1002
}
1002
{
1000
MANEDIT
1070
     0
1002
}
1002
{
1000
NOSEL
1070
     0
1002
}
1002
{
1000
BEHIND
1070
     0
1002
}
1002
{
1000
OTHER
1070
     0
1002
}
1002
{
1000
REACTOR
1002
}
  0
ARC
  5
B775
330
1F
100
AcDbEntity
  8
0カム
100
AcDbCircle
 10
206.9618832671854
 20
233.7306175252107
 30
0.0
 40
20.0
100
AcDbArc
 50
39.79181949963084
 51
90.0
  0
ARC
  5
B776
330
1F
100
AcDbEntity
  8
0カム
100
AcDbCircle
 10
226.1712559794692
 20
249.7306175252289
 30
0.0
 40
5.0
100
AcDbArc
 50
219.7918194996308
 51
270.0
  0
LINE
  5
B777
330
1F
100
AcDbEntity
  8
0台座
100
AcDbLine
 10
266.4504556602565
 20
276.7306175252107
 30
0.0
 11
265.2799186455882
 21
272.048469466533
 31
0.0
  0
ARC
  5
B778
330
1F
100
AcDbEntity
  8
0台座
100
AcDbCircle
 10
263.3396336452965
 20
272.5335407166054
 30
0.0
 40
2.0
100
AcDbArc
 50
277.5946433685806
 51
345.9637565320613
1001
GENIUS_GENOBJ-N-FIL_13
1002
{
1000
OWNER
1000
GEN
1002
}
1001
GENIUS_GENODEF_13
1002
{
1000
HIER
1070
     0
1002
}
1002
{
1000
MANEDIT
1070
     0
1002
}
1002
{
1000
NOSEL
1070
     0
1002
}
1002
{
1000
BEHIND
1070
     0
1002
}
1002
{
1000
OTHER
1070
     0
1002
}
1002
{
1000
REACTOR
1002
}
  0
LINE
  5
B779
330
1F
100
AcDbEntity
  8
0台座
100
AcDbLine
 10
221.4504556602574
 20
265.230617525207
 30
0.0
 11
221.4504556602583
 21
276.7306175252107
 31
0.0
  0
LINE
  5
B77A
330
1F
100
AcDbEntity
  8
0台座
100
AcDbLine
 10
223.8554432223696
 20
261.7306175252107
 30
0.0
 11
248.9504556602583
 21
261.7306175252107
 31
0.0
  0
ARC
  5
B77B
330
1F
100
AcDbEntity
  8
0台座
100
AcDbCircle
 10
248.9504556602583
 20
262.7306175252107
 30
0.0
 40
1.0
100
AcDbArc
 50
270.0
 51
0.0
1001
GENIUS_GENODEF_13
1002
{
1000
HIER
1070
     0
1002
}
1002
{
1000
MANEDIT
1070
     0
1002
}
1002
{
1000
NOSEL
1070
     0
1002
}
1002
{
1000
BEHIND
1070
     0
1002
}
1002
{
1000
OTHER
1070
     0
1002
}
1002
{
1000
REACTOR
1002
}
1001
GENIUS_GENOBJ-N-FIL_13
1002
{
1000
OWNER
1000
GEN
1002
}
  0
LINE
  5
B77C
330
1F
100
AcDbEntity
  8
0台座
100
AcDbLine
 10
249.9504556602583
 20
262.7306175252107
 30
0.0
 11
249.9504556602583
 21
265.2285519384319
 31
0.0
  0
LINE
  5
B77D
330
1F
100
AcDbEntity
  8
0台座
100
AcDbLine
 10
263.6039610854791
 20
270.5510849152402
 30
0.0
 11
253.4218007798941
 21
269.1934635411627
 31
0.0
  0
ELLIPSE
  5
B77E
330
1F
100
AcDbEntity
  8
0台座
370
    13
100
AcDbEllipse
 10
236.402949441313
 20
270.1244194810843
 30
0.0
 11
-5.099999999999909
 21
0.0
 31
0.0
210
0.0
220
0.0
230
1.0
 40
0.1960784313725525
 41
0.0
 42
6.283185307179586
  0
LINE
  5
B77F
330
1F
100
AcDbEntity
  8
0台座
370
    13
100
AcDbLine
 10
223.3047340006637
 20
271.7306175252107
 30
0.0
 11
247.9608478573659
 21
271.7306175252121
 31
0.0
  0
ARC
  5
B780
330
1F
100
AcDbEntity
  8
0台座
370
    13
100
AcDbCircle
 10
247.9608478573659
 20
273.2306175252116
 30
0.0
 40
1.5
100
AcDbArc
 50
270.0
 51
358.0250659891414
  0
ARC
  5
B781
330
1F
100
AcDbEntity
  8
0台座
370
    13
100
AcDbCircle
 10
223.3047340006637
 20
273.2306175252116
 30
0.0
 40
1.5
100
AcDbArc
 50
181.9749340108586
 51
270.0
  0
LINE
  5
B782
330
1F
100
AcDbEntity
  8
0台座
370
    13
100
AcDbLine
 10
249.4599568563967
 20
273.1789241114507
 30
0.0
 11
249.4599568563967
 21
276.7306175252107
 31
0.0
  0
LINE
  5
B783
330
1F
100
AcDbEntity
  8
0台座
370
    13
100
AcDbLine
 10
247.9608478573659
 20
271.7306175252116
 30
0.0
 11
263.6039610854791
 21
270.5510849152402
 31
0.0
  0
ARC
  5
B784
330
1F
100
AcDbEntity
  8
0台座
100
AcDbCircle
 10
223.9504556602583
 20
262.7306175252107
 30
0.0
 40
1.0
100
AcDbArc
 50
180.0
 51
270.0
1001
GENIUS_GENODEF_13
1002
{
1000
HIER
1070
     0
1002
}
1002
{
1000
MANEDIT
1070
     0
1002
}
1002
{
1000
NOSEL
1070
     0
1002
}
1002
{
1000
BEHIND
1070
     0
1002
}
1002
{
1000
OTHER
1070
     0
1002
}
1002
{
1000
REACTOR
1002
}
1001
GENIUS_GENOBJ-N-FIL_13
1002
{
1000
OWNER
1000
GEN
1002
}
  0
LINE
  5
B785
330
1F
100
AcDbEntity
  8
0台座
100
AcDbLine
 10
222.9504556602583
 20
262.7306175252107
 30
0.0
 11
222.9504556602583
 21
264.2306175252034
 31
0.0
  0
ARC
  5
B786
330
1F
100
AcDbEntity
  8
0台座
100
AcDbCircle
 10
222.4504556602583
 20
264.2306175252034
 30
0.0
 40
0.5
100
AcDbArc
 50
0.0
 51
89.99999999958312
1001
GENIUS_GENODEF_13
1002
{
1000
HIER
1070
     0
1002
}
1002
{
1000
MANEDIT
1070
     0
1002
}
1002
{
1000
NOSEL
1070
     0
1002
}
1002
{
1000
BEHIND
1070
     0
1002
}
1002
{
1000
OTHER
1070
     0
1002
}
1002
{
1000
REACTOR
1002
}
1001
GENIUS_GENOBJ-N-FIL_13
1002
{
1000
OWNER
1000
GEN
1002
}
  0
LINE
  5
B787
330
1F
100
AcDbEntity
  8
0台座
100
AcDbLine
 10
222.9504556602583
 20
264.7306175252107
 30
0.0
 11
249.9504556602583
 21
264.7306175252107
 31
0.0
  0
ARC
  5
B788
330
1F
100
AcDbEntity
  8
0台座
100
AcDbCircle
 10
253.9504556602583
 20
265.2285519384319
 30
0.0
 40
4.0
100
AcDbArc
 50
97.59464336858057
 51
180.0
  0
LINE
  5
B789
330
1F
100
AcDbEntity
  8
0台座
100
AcDbLine
 10
221.9504556602537
 20
264.7306175252071
 30
0.0
 11
222.9504556602583
 21
264.7306175251998
 31
0.0
  0
ARC
  5
B78A
330
1F
100
AcDbEntity
  8
0台座
100
AcDbCircle
 10
221.9504556602574
 20
265.230617525207
 30
0.0
 40
0.5
100
AcDbArc
 50
180.0
 51
269.9999999995831
1001
GENIUS_GENODEF_13
1002
{
1000
HIER
1070
     0
1002
}
1002
{
1000
MANEDIT
1070
     0
1002
}
1002
{
1000
NOSEL
1070
     0
1002
}
1002
{
1000
BEHIND
1070
     0
1002
}
1002
{
1000
OTHER
1070
     0
1002
}
1002
{
1000
REACTOR
1002
}
1001
GENIUS_GENOBJ-N-FIL_13
1002
{
1000
OWNER
1000
GEN
1002
}
  0
DIMENSION
  5
B78B
330
1F
100
AcDbEntity
  8
AM_5
100
AcDbDimension
  2
*D6
 10
134.4504555274093
 20
245.2306175252098
 30
0.0
 11
131.3504555274093
 21
260.9806175252103
 31
0.0
 70
    32
  1
（<>）
 71
     5
 42
31.50000000000094
  3
SYS$0
100
AcDbAlignedDimension
 13
146.4504565374095
 23
276.7306175252107
 33
0.0
 14
167.4504565374095
 24
245.2306175252098
 34
0.0
 50
90.0
100
AcDbRotatedDimension
1001
ACAD
1000
DSTYLE
1002
{
1070
   179
1070
     1
1002
}
  0
LINE
  5
B78C
330
1F
100
AcDbEntity
  8
0受け
100
AcDbLine
 10
186.4504565374095
 20
276.7306175252107
 30
0.0
 11
146.4504565374095
 21
276.7306175252107
 31
0.0
  0
LINE
  5
B78D
330
1F
100
AcDbEntity
  8
AM_7
100
AcDbLine
 10
236.4029493572321
 20
279.7306175252107
 30
0.0
 11
236.4029509828047
 21
221.7306175252302
 31
0.0
1001
GENIUS_GENOBJ-N-CEN_13
1002
{
1000
OWNER
1000
GEN
1002
}
1001
GENIUS_GENODEF_13
1002
{
1000
HIER
1070
     0
1002
}
1002
{
1000
MANEDIT
1070
     0
1002
}
1002
{
1000
NOSEL
1070
     0
1002
}
1002
{
1000
BEHIND
1070
     0
1002
}
1002
{
1000
OTHER
1070
     0
1002
}
1002
{
1000
REACTOR
1002
}
1001
GENIUS_GENCEN_19
1002
{
1040
3.0
1002
}
  0
DIMENSION
  5
B78E
330
1F
100
AcDbEntity
  8
AM_5
100
AcDbDimension
  2
*D7
 10
279.0013705166507
 20
224.7306175252302
 30
0.0
 11
275.9013705166506
 21
250.7306175252205
 31
0.0
 70
    32
  1
（<>）
 71
     5
 42
51.99999999998045
  3
SYS$0
100
AcDbAlignedDimension
 13
266.4504565374086
 23
276.7306175252107
 33
0.0
 14
236.4029508987237
 24
224.7306175252302
 34
0.0
 50
90.0
100
AcDbRotatedDimension
1001
ACAD
1000
DSTYLE
1002
{
1070
   179
1070
     1
1002
}
  0
LINE
  5
B78F
330
1F
100
AcDbEntity
  8
AM_7
100
AcDbLine
 10
144.0013705166525
 20
151.2219411095307
 30
0.0
 11
270.0013705166516
 21
151.2219411095307
 31
0.0
1001
GENIUS_GENOBJ-N-CEN_13
1002
{
1000
OWNER
1000
GEN
1002
}
1001
GENIUS_GENODEF_13
1002
{
1000
HIER
1070
     0
1002
}
1002
{
1000
MANEDIT
1070
     0
1002
}
1002
{
1000
NOSEL
1070
     0
1002
}
1002
{
1000
BEHIND
1070
     0
1002
}
1002
{
1000
OTHER
1070
     0
1002
}
1002
{
1000
REACTOR
1002
}
1001
GENIUS_GENCEN_19
1002
{
1040
3.0
1002
}
  0
LINE
  5
B790
330
1F
100
AcDbEntity
  8
AM_7
100
AcDbLine
 10
257.0013705166516
 20
160.321941252581
 30
0.0
 11
257.0013705166516
 21
142.1219409664787
 31
0.0
1001
GENIUS_GENODEF_13
1002
{
1000
HIER
1070
     0
1002
}
1002
{
1000
MANEDIT
1070
     0
1002
}
1002
{
1000
NOSEL
1070
     0
1002
}
1002
{
1000
BEHIND
1070
     0
1002
}
1002
{
1000
OTHER
1070
     0
1002
}
1002
{
1000
REACTOR
1002
}
1001
GENIUS_GENOBJ-N-CEN_13
1002
{
1000
OWNER
1000
GEN
1002
}
1001
GENIUS_GENCEN_19
1002
{
1040
3.0
1002
}
  0
LINE
  5
B791
330
1F
100
AcDbEntity
  8
0受け
100
AcDbLine
 10
187.0013705166516
 20
116.2219411095307
 30
0.0
 11
187.0013705166516
 21
186.2219411095307
 31
0.0
  0
ARC
  5
B792
330
1F
100
AcDbEntity
  8
0受け
100
AcDbCircle
 10
182.0013705166516
 20
186.2219411095307
 30
0.0
 40
5.0
100
AcDbArc
 50
0.0
 51
90.0
1001
GENIUS_GENODEF_13
1002
{
1000
HIER
1070
     0
1002
}
1002
{
1000
MANEDIT
1070
     0
1002
}
1002
{
1000
NOSEL
1070
     0
1002
}
1002
{
1000
BEHIND
1070
     0
1002
}
1002
{
1000
OTHER
1070
     0
1002
}
1002
{
1000
REACTOR
1002
}
1001
GENIUS_GENOBJ-N-FIL_13
1002
{
1000
OWNER
1000
GEN
1002
}
  0
LINE
  5
B793
330
1F
100
AcDbEntity
  8
0受け
100
AcDbLine
 10
182.0013705166516
 20
111.2219411095307
 30
0.0
 11
166.8881218625997
 21
111.2219411095307
 31
0.0
  0
ARC
  5
B794
330
1F
100
AcDbEntity
  8
0受け
100
AcDbCircle
 10
182.0013705166516
 20
116.2219411095307
 30
0.0
 40
5.0
100
AcDbArc
 50
270.0
 51
0.0
1001
GENIUS_GENODEF_13
1002
{
1000
HIER
1070
     0
1002
}
1002
{
1000
MANEDIT
1070
     0
1002
}
1002
{
1000
NOSEL
1070
     0
1002
}
1002
{
1000
BEHIND
1070
     0
1002
}
1002
{
1000
OTHER
1070
     0
1002
}
1002
{
1000
REACTOR
1002
}
1001
GENIUS_GENOBJ-N-FIL_13
1002
{
1000
OWNER
1000
GEN
1002
}
  0
LINE
  5
B795
330
1F
100
AcDbEntity
  8
0受け
100
AcDbLine
 10
147.0013705166525
 20
142.0065508003559
 30
0.0
 11
147.0013705166525
 21
160.4373314187055
 31
0.0
  0
ARC
  5
B796
330
1F
100
AcDbEntity
  8
0受け
100
AcDbCircle
 10
152.0013705166525
 20
142.0065508003559
 30
0.0
 40
5.0
100
AcDbArc
 50
180.0
 51
210.0000000000096
1001
GENIUS_GENODEF_13
1002
{
1000
HIER
1070
     0
1002
}
1002
{
1000
MANEDIT
1070
     0
1002
}
1002
{
1000
NOSEL
1070
     0
1002
}
1002
{
1000
BEHIND
1070
     0
1002
}
1002
{
1000
OTHER
1070
     0
1002
}
1002
{
1000
REACTOR
1002
}
1001
GENIUS_GENOBJ-N-FIL_13
1002
{
1000
OWNER
1000
GEN
1002
}
  0
LINE
  5
B797
330
1F
100
AcDbEntity
  8
0受け
100
AcDbLine
 10
166.8881218626006
 20
191.2219411095307
 30
0.0
 11
182.0013705166516
 21
191.2219411095307
 31
0.0
  0
ARC
  5
B798
330
1F
100
AcDbEntity
  8
0受け
100
AcDbCircle
 10
166.8881218626006
 20
186.2219411095307
 30
0.0
 40
5.0
100
AcDbArc
 50
90.0
 51
149.9999999999904
1001
GENIUS_GENOBJ-N-FIL_13
1002
{
1000
OWNER
1000
GEN
1002
}
1001
GENIUS_GENODEF_13
1002
{
1000
HIER
1070
     0
1002
}
1002
{
1000
MANEDIT
1070
     0
1002
}
1002
{
1000
NOSEL
1070
     0
1002
}
1002
{
1000
BEHIND
1070
     0
1002
}
1002
{
1000
OTHER
1070
     0
1002
}
1002
{
1000
REACTOR
1002
}
  0
LINE
  5
B799
330
1F
100
AcDbEntity
  8
AM_7
 48
1.199999999999999
100
AcDbLine
 10
177.0013705166516
 20
108.2219411095307
 30
0.0
 11
177.0013705166516
 21
194.2219411095307
 31
0.0
1001
GENIUS_GENODEF_13
1002
{
1000
HIER
1070
     0
1002
}
1002
{
1000
MANEDIT
1070
     0
1002
}
1002
{
1000
NOSEL
1070
     0
1002
}
1002
{
1000
BEHIND
1070
     0
1002
}
1002
{
1000
OTHER
1070
     0
1002
}
1002
{
1000
REACTOR
1002
}
1001
GENIUS_GENOBJ-N-CEN_13
1002
{
1000
OWNER
1000
GEN
1002
}
1001
GENIUS_GENCEN_19
1002
{
1040
3.0
1002
}
  0
LINE
  5
B79A
330
1F
100
AcDbEntity
  8
0受け
100
AcDbLine
 10
147.6712434977303
 20
162.9373314187056
 30
0.0
 11
162.5579948436784
 21
188.7219411095307
 31
0.0
  0
ARC
  5
B79B
330
1F
100
AcDbEntity
  8
0受け
100
AcDbCircle
 10
152.0013705166525
 20
160.4373314187055
 30
0.0
 40
5.0
100
AcDbArc
 50
149.9999999999904
 51
180.0
1001
GENIUS_GENODEF_13
1002
{
1000
HIER
1070
     0
1002
}
1002
{
1000
MANEDIT
1070
     0
1002
}
1002
{
1000
NOSEL
1070
     0
1002
}
1002
{
1000
BEHIND
1070
     0
1002
}
1002
{
1000
OTHER
1070
     0
1002
}
1002
{
1000
REACTOR
1002
}
1001
GENIUS_GENOBJ-N-FIL_13
1002
{
1000
OWNER
1000
GEN
1002
}
  0
CIRCLE
  5
B79C
330
1F
100
AcDbEntity
  8
0受け
100
AcDbCircle
 10
177.0013705166516
 20
181.2219411095316
 30
0.0
 40
3.149999999999999
  0
CIRCLE
  5
B79D
330
1F
100
AcDbEntity
  8
0受け
100
AcDbCircle
 10
177.0013705166516
 20
121.2219411095316
 30
0.0
 40
3.149999999999999
  0
CIRCLE
  5
B79E
330
1F
100
AcDbEntity
  8
0受け
100
AcDbCircle
 10
157.0013705166516
 20
151.2219411095316
 30
0.0
 40
3.149999999999999
  0
LINE
  5
B79F
330
1F
100
AcDbEntity
  8
0受け
100
AcDbLine
 10
147.6712434977303
 20
139.5065508003559
 30
0.0
 11
162.5579948436775
 21
113.7219411095307
 31
0.0
  0
ARC
  5
B7A0
330
1F
100
AcDbEntity
  8
0受け
100
AcDbCircle
 10
166.8881218625997
 20
116.2219411095307
 30
0.0
 40
5.0
100
AcDbArc
 50
210.0000000000096
 51
270.0
1001
GENIUS_GENOBJ-N-FIL_13
1002
{
1000
OWNER
1000
GEN
1002
}
1001
GENIUS_GENODEF_13
1002
{
1000
HIER
1070
     0
1002
}
1002
{
1000
MANEDIT
1070
     0
1002
}
1002
{
1000
NOSEL
1070
     0
1002
}
1002
{
1000
BEHIND
1070
     0
1002
}
1002
{
1000
OTHER
1070
     0
1002
}
1002
{
1000
REACTOR
1002
}
  0
LINE
  5
B7A1
330
1F
100
AcDbEntity
  8
AM_7
100
AcDbLine
 10
157.0013705166516
 20
142.1219409664805
 30
0.0
 11
157.0013705166516
 21
160.3219412525828
 31
0.0
1001
GENIUS_GENODEF_13
1002
{
1000
HIER
1070
     0
1002
}
1002
{
1000
MANEDIT
1070
     0
1002
}
1002
{
1000
NOSEL
1070
     0
1002
}
1002
{
1000
BEHIND
1070
     0
1002
}
1002
{
1000
OTHER
1070
     0
1002
}
1002
{
1000
REACTOR
1002
}
1001
GENIUS_GENOBJ-N-CEN_13
1002
{
1000
OWNER
1000
GEN
1002
}
1001
GENIUS_GENCEN_19
1002
{
1040
3.0
1002
}
  0
LINE
  5
B7A2
330
1F
100
AcDbEntity
  8
0受け
100
AcDbLine
 10
165.0013705166516
 20
138.7219411095307
 30
0.0
 11
165.0013705166516
 21
163.7219411095307
 31
0.0
  0
CIRCLE
  5
B7A3
330
1F
100
AcDbEntity
  8
0受け
100
AcDbCircle
 10
177.0013705166516
 20
121.2219411095316
 30
0.0
 40
6.099999999999999
  0
CIRCLE
  5
B7A4
330
1F
100
AcDbEntity
  8
0受け
100
AcDbCircle
 10
157.0013705166516
 20
151.2219411095307
 30
0.0
 40
6.099999999999999
  0
CIRCLE
  5
B7A5
330
1F
100
AcDbEntity
  8
0受け
100
AcDbCircle
 10
177.0013705166516
 20
181.2219411095316
 30
0.0
 40
6.099999999999999
  0
DIMENSION
  5
B7A6
330
1F
100
AcDbEntity
  8
AM_5
100
AcDbDimension
  2
*D8
 10
125.6712424977308
 20
111.2219411095307
 30
0.0
 11
122.5712424977308
 21
151.2219411095307
 31
0.0
 70
    32
 71
     5
 42
79.99999999999999
  3
SYS$0
100
AcDbAlignedDimension
 13
166.8881218626006
 23
191.2219411095307
 33
0.0
 14
166.8881218625997
 24
111.2219411095307
 34
0.0
 50
90.0
100
AcDbRotatedDimension
1001
ACAD
1000
DSTYLE
1002
{
1070
    47
1040
0.0
1070
    48
1040
0.2
1002
}
  0
DIMENSION
  5
B7A7
330
1F
100
AcDbEntity
  8
AM_5
100
AcDbDimension
  2
*D9
 10
135.6712424977309
 20
121.2219411095317
 30
0.0
 11
132.5712424977308
 21
151.2219411095317
 31
0.0
 70
    32
 71
     5
 42
59.99999999999999
  3
SYS$0
100
AcDbAlignedDimension
 13
167.9013703736004
 23
181.2219411095316
 33
0.0
 14
167.9013703736004
 24
121.2219411095316
 34
0.0
 50
90.0
100
AcDbRotatedDimension
1001
ACAD
1000
DSTYLE
1002
{
1070
    47
1040
0.0
1070
    48
1040
0.2
1002
}
  0
DIMENSION
  5
B7A8
330
1F
100
AcDbEntity
  8
AM_5
100
AcDbDimension
  2
*D10
 10
157.0013705166516
 20
204.2219411095317
 30
0.0
 11
167.0013705166516
 21
207.3219411095316
 31
0.0
 70
    32
 71
     5
 42
20.0
  3
SYS$0
100
AcDbAlignedDimension
 13
177.0013705166516
 23
194.2219411095307
 33
0.0
 14
157.0013705166516
 24
160.3219412525828
 34
0.0
100
AcDbRotatedDimension
1001
ACAD
1000
DSTYLE
1002
{
1070
    47
1040
0.0
1070
    48
1040
0.2
1002
}
  0
DIMENSION
  5
B7A9
330
1F
100
AcDbEntity
  8
AM_5
100
AcDbDimension
  2
*D11
 10
147.0013705166525
 20
214.2219411095317
 30
0.0
 11
167.001370516652
 21
217.3219411095316
 31
0.0
 70
    32
 71
     5
 42
39.99999999999909
  3
SYS$0
100
AcDbAlignedDimension
 13
187.0013705166516
 23
186.2219411095307
 33
0.0
 14
147.0013705166525
 24
160.4373314187055
 34
0.0
100
AcDbRotatedDimension
1001
ACAD
1000
DSTYLE
1002
{
1070
    47
1040
0.0
1070
    48
1040
0.2
1002
}
  0
LINE
  5
B7AA
330
1F
100
AcDbEntity
  8
AM_7
 48
1.199999999999999
100
AcDbLine
 10
237.0013705166516
 20
194.2219411095307
 30
0.0
 11
237.0013705166516
 21
16.22194111147706
 31
0.0
1001
GENIUS_GENOBJ-N-CEN_13
1002
{
1000
OWNER
1000
GEN
1002
}
1001
GENIUS_GENODEF_13
1002
{
1000
HIER
1070
     0
1002
}
1002
{
1000
MANEDIT
1070
     0
1002
}
1002
{
1000
NOSEL
1070
     0
1002
}
1002
{
1000
BEHIND
1070
     0
1002
}
1002
{
1000
OTHER
1070
     0
1002
}
1002
{
1000
REACTOR
1002
}
1001
GENIUS_GENCEN_19
1002
{
1040
3.0
1002
}
  0
DIMENSION
  5
B7AB
330
1F
100
AcDbEntity
  8
AM_5
100
AcDbDimension
  2
*D12
 10
177.0013705166516
 20
204.2219411095317
 30
0.0
 11
204.0766716141675
 21
204.2219411095317
 31
0.0
 70
   160
  1
（<>～43）
 71
     5
 42
40.0
  3
SYS$0
100
AcDbAlignedDimension
 13
237.0013705166516
 23
194.2219411095307
 33
0.0
 14
177.0013705166516
 24
194.2219411095307
 34
0.0
100
AcDbRotatedDimension
1001
ACAD
1000
DSTYLE
1002
{
1070
    47
1040
0.0
1070
    48
1040
0.2
1070
   144
1040
0.6666666666666666
1002
}
  0
DIMENSION
  5
B7AC
330
1F
100
AcDbEntity
  8
AM_5
100
AcDbDimension
  2
*D13
 10
257.0013705166516
 20
204.2219411095317
 30
0.0
 11
247.0013705166516
 21
207.3219411095316
 31
0.0
 70
    32
 71
     5
 42
20.0
  3
SYS$0
100
AcDbAlignedDimension
 13
237.0013705166516
 23
194.2219411095307
 33
0.0
 14
257.0013705166516
 24
160.321941252581
 34
0.0
100
AcDbRotatedDimension
1001
ACAD
1000
DSTYLE
1002
{
1070
    47
1040
0.0
1070
    48
1040
0.2
1002
}
  0
DIMENSION
  5
B7AD
330
1F
100
AcDbEntity
  8
AM_5
100
AcDbDimension
  2
*D14
 10
267.0013705166516
 20
214.2219411095326
 30
0.0
 11
244.5013705166516
 21
217.3219411095326
 31
0.0
 70
    32
 71
     5
 42
45.0
  3
SYS$0
100
AcDbAlignedDimension
 13
222.0013705166516
 23
186.2219411095307
 33
0.0
 14
267.0013705166516
 24
160.4373314187055
 34
0.0
100
AcDbRotatedDimension
1001
ACAD
1000
DSTYLE
1002
{
1070
    47
1040
0.0
1070
    48
1040
0.2
1002
}
  0
DIMENSION
  5
B7AE
330
1F
100
AcDbEntity
  8
AM_5
100
AcDbDimension
  2
*D15
 10
279.0013705166507
 20
179.221941111477
 30
0.0
 11
275.9013705166506
 21
165.2219411105039
 31
0.0
 70
    32
 71
     5
 42
28.00000000194632
  3
SYS$0
100
AcDbAlignedDimension
 13
270.0013705166516
 23
151.2219411095307
 33
0.0
 14
246.0013666826894
 24
179.221941111477
 34
0.0
 50
90.0
100
AcDbRotatedDimension
1001
ACAD
1000
DSTYLE
1002
{
1070
    47
1040
0.0
1070
    48
1040
0.2
1002
}
  0
DIMENSION
  5
B7AF
330
1F
100
AcDbEntity
  8
AM_5
100
AcDbDimension
  2
*D16
 10
289.0013705166507
 20
19.22194111147705
 30
0.0
 11
285.9013705166507
 21
99.2219411114771
 31
0.0
 70
    32
 71
     5
 42
160.0
  3
SYS$0
100
AcDbAlignedDimension
 13
246.0013666826894
 23
179.221941111477
 33
0.0
 14
243.6268989240239
 24
19.22194111147706
 34
0.0
 50
90.0
100
AcDbRotatedDimension
1001
ACAD
1000
DSTYLE
1002
{
1070
    47
1040
0.0
1070
    48
1040
0.2
1002
}
  0
ARC
  5
B7B0
330
1F
100
AcDbEntity
  8
0カム
370
    13
100
AcDbCircle
 10
216.9103229668349
 20
85.23898218430037
 30
0.0
 40
77.18737808509671
100
AcDbArc
 50
83.98300201188813
 51
104.1045125031759
  0
ARC
  5
B7B1
330
1F
100
AcDbEntity
  8
0カム
100
AcDbCircle
 10
227.0013705166516
 20
44.72194110953075
 30
0.0
 40
120.0
100
AcDbArc
 50
90.95497245628067
 51
102.5558577985952
  0
ARC
  5
B7B2
330
1F
100
AcDbEntity
  8
0カム
100
AcDbCircle
 10
227.0013705166516
 20
257.7219411095307
 30
0.0
 40
120.0
100
AcDbArc
 50
257.4441422014014
 51
269.0450320320739
  0
ARC
  5
B7B3
330
1F
100
AcDbEntity
  8
0カム
100
AcDbCircle
 10
247.5013705166516
 20
142.7219411095307
 30
0.0
 40
5.0
100
AcDbArc
 50
287.4576031237364
 51
0.0
1001
GENIUS_GENOBJ-N-FIL_13
1002
{
1000
OWNER
1000
GEN
1002
}
1001
GENIUS_GENODEF_13
1002
{
1000
HIER
1070
     0
1002
}
1002
{
1000
MANEDIT
1070
     0
1002
}
1002
{
1000
NOSEL
1070
     0
1002
}
1002
{
1000
BEHIND
1070
     0
1002
}
1002
{
1000
OTHER
1070
     0
1002
}
1002
{
1000
REACTOR
1002
}
  0
ARC
  5
B7B4
330
1F
100
AcDbEntity
  8
0カム
370
    13
100
AcDbCircle
 10
216.843415520761
 20
216.1198971196159
 30
0.0
 40
76.11904164839535
100
AcDbArc
 50
255.7453094478091
 51
276.1524225940208
  0
ARC
  5
B7B5
330
1F
100
AcDbEntity
  8
0カム
100
AcDbCircle
 10
246.5013705166516
 20
157.7219411095298
 30
0.0
 40
5.0
100
AcDbArc
 50
0.0
 51
60.00000000000369
1001
GENIUS_GENOBJ-N-FIL_13
1002
{
1000
OWNER
1000
GEN
1002
}
1001
GENIUS_GENODEF_13
1002
{
1000
HIER
1070
     0
1002
}
1002
{
1000
MANEDIT
1070
     0
1002
}
1002
{
1000
NOSEL
1070
     0
1002
}
1002
{
1000
BEHIND
1070
     0
1002
}
1002
{
1000
OTHER
1070
     0
1002
}
1002
{
1000
REACTOR
1002
}
  0
LINE
  5
B7B6
330
1F
100
AcDbEntity
  8
0カム
100
AcDbLine
 10
252.5013705166516
 20
159.7219411095307
 30
0.0
 11
252.5013705166516
 21
155.3401933778137
 31
0.0
  0
LINE
  5
B7B7
330
1F
100
AcDbEntity
  8
0カム
100
AcDbLine
 10
252.5013705166516
 20
155.3401933778137
 30
0.0
 11
252.5013705166516
 21
142.7219411095307
 31
0.0
  0
ARC
  5
B7B8
330
1F
100
AcDbEntity
  8
0カム
100
AcDbCircle
 10
247.5013705166516
 20
159.7219411095307
 30
0.0
 40
5.0
100
AcDbArc
 50
0.0
 51
72.54239687626356
1001
GENIUS_GENOBJ-N-FIL_13
1002
{
1000
OWNER
1000
GEN
1002
}
1001
GENIUS_GENODEF_13
1002
{
1000
HIER
1070
     0
1002
}
1002
{
1000
MANEDIT
1070
     0
1002
}
1002
{
1000
NOSEL
1070
     0
1002
}
1002
{
1000
BEHIND
1070
     0
1002
}
1002
{
1000
OTHER
1070
     0
1002
}
1002
{
1000
REACTOR
1002
}
  0
LINE
  5
B7B9
330
1F
100
AcDbEntity
  8
0カム
100
AcDbLine
 10
252.5013705166516
 20
157.7219411095298
 30
0.0
 11
252.5013705166516
 21
155.3401933778137
 31
0.0
  0
LINE
  5
B7BA
330
1F
100
AcDbEntity
  8
0カム
100
AcDbLine
 10
251.5013705166516
 20
157.7219411095298
 30
0.0
 11
251.5013705166516
 21
144.7219411095316
 31
0.0
  0
ARC
  5
B7BB
330
1F
100
AcDbEntity
  8
0カム
100
AcDbCircle
 10
246.5013705166516
 20
144.7219411095316
 30
0.0
 40
5.0
100
AcDbArc
 50
299.9999999999963
 51
0.0
1001
GENIUS_GENOBJ-N-FIL_13
1002
{
1000
OWNER
1000
GEN
1002
}
1001
GENIUS_GENODEF_13
1002
{
1000
HIER
1070
     0
1002
}
1002
{
1000
MANEDIT
1070
     0
1002
}
1002
{
1000
NOSEL
1070
     0
1002
}
1002
{
1000
BEHIND
1070
     0
1002
}
1002
{
1000
OTHER
1070
     0
1002
}
1002
{
1000
REACTOR
1002
}
  0
LINE
  5
B7BC
330
1F
100
AcDbEntity
  8
AM_7
100
AcDbLine
 10
186.1013706597027
 20
181.2219411095316
 30
0.0
 11
167.9013703736004
 21
181.2219411095316
 31
0.0
1001
GENIUS_GENODEF_13
1002
{
1000
HIER
1070
     0
1002
}
1002
{
1000
MANEDIT
1070
     0
1002
}
1002
{
1000
NOSEL
1070
     0
1002
}
1002
{
1000
BEHIND
1070
     0
1002
}
1002
{
1000
OTHER
1070
     0
1002
}
1002
{
1000
REACTOR
1002
}
1001
GENIUS_GENOBJ-N-CEN_13
1002
{
1000
OWNER
1000
GEN
1002
}
1001
GENIUS_GENCEN_19
1002
{
1040
3.0
1002
}
  0
LINE
  5
B7BD
330
1F
100
AcDbEntity
  8
AM_7
100
AcDbLine
 10
186.1013706597027
 20
121.2219411095316
 30
0.0
 11
167.9013703736004
 21
121.2219411095316
 31
0.0
1001
GENIUS_GENODEF_13
1002
{
1000
HIER
1070
     0
1002
}
1002
{
1000
MANEDIT
1070
     0
1002
}
1002
{
1000
NOSEL
1070
     0
1002
}
1002
{
1000
BEHIND
1070
     0
1002
}
1002
{
1000
OTHER
1070
     0
1002
}
1002
{
1000
REACTOR
1002
}
1001
GENIUS_GENOBJ-N-CEN_13
1002
{
1000
OWNER
1000
GEN
1002
}
1001
GENIUS_GENCEN_19
1002
{
1040
3.0
1002
}
  0
LINE
  5
B7BE
330
1F
100
AcDbEntity
  8
AM_7
100
AcDbLine
 10
246.1013706597027
 20
121.2219411095298
 30
0.0
 11
227.9013703736004
 21
121.2219411095298
 31
0.0
1001
GENIUS_GENODEF_13
1002
{
1000
HIER
1070
     0
1002
}
1002
{
1000
MANEDIT
1070
     0
1002
}
1002
{
1000
NOSEL
1070
     0
1002
}
1002
{
1000
BEHIND
1070
     0
1002
}
1002
{
1000
OTHER
1070
     0
1002
}
1002
{
1000
REACTOR
1002
}
1001
GENIUS_GENOBJ-N-CEN_13
1002
{
1000
OWNER
1000
GEN
1002
}
1001
GENIUS_GENCEN_19
1002
{
1040
3.0
1002
}
  0
LINE
  5
B7BF
330
1F
100
AcDbEntity
  8
AM_7
100
AcDbLine
 10
246.1013706597027
 20
181.2219411095298
 30
0.0
 11
227.9013703736004
 21
181.2219411095298
 31
0.0
1001
GENIUS_GENODEF_13
1002
{
1000
HIER
1070
     0
1002
}
1002
{
1000
MANEDIT
1070
     0
1002
}
1002
{
1000
NOSEL
1070
     0
1002
}
1002
{
1000
BEHIND
1070
     0
1002
}
1002
{
1000
OTHER
1070
     0
1002
}
1002
{
1000
REACTOR
1002
}
1001
GENIUS_GENOBJ-N-CEN_13
1002
{
1000
OWNER
1000
GEN
1002
}
1001
GENIUS_GENCEN_19
1002
{
1040
3.0
1002
}
  0
LINE
  5
B7C0
330
1F
100
AcDbEntity
  8
0台座
100
AcDbLine
 10
222.0013705166516
 20
186.2219411095307
 30
0.0
 11
222.0013705166516
 21
164.6177291923487
 31
0.0
  0
LINE
  5
B7C1
330
1F
100
AcDbEntity
  8
0台座
100
AcDbLine
 10
222.0013705166525
 20
137.8261530267128
 30
0.0
 11
222.0013705166516
 21
116.2219411095307
 31
0.0
  0
ARC
  5
B7C2
330
1F
100
AcDbEntity
  8
0台座
100
AcDbCircle
 10
227.0013705166516
 20
116.2219411095307
 30
0.0
 40
5.0
100
AcDbArc
 50
180.0
 51
246.4220898866211
1001
GENIUS_GENODEF_13
1002
{
1000
HIER
1070
     0
1002
}
1002
{
1000
MANEDIT
1070
     0
1002
}
1002
{
1000
NOSEL
1070
     0
1002
}
1002
{
1000
BEHIND
1070
     0
1002
}
1002
{
1000
OTHER
1070
     0
1002
}
1002
{
1000
REACTOR
1002
}
1001
GENIUS_GENOBJ-N-FIL_13
1002
{
1000
OWNER
1000
GEN
1002
}
  0
LINE
  5
B7C3
330
1F
100
AcDbEntity
  8
0台座
100
AcDbLine
 10
227.0013705166516
 20
191.2219411095307
 30
0.0
 11
247.1146191707035
 21
191.2219411095307
 31
0.0
  0
ARC
  5
B7C4
330
1F
100
AcDbEntity
  8
0台座
100
AcDbCircle
 10
227.0013705166516
 20
186.2219411095307
 30
0.0
 40
5.0
100
AcDbArc
 50
90.0
 51
180.0
1001
GENIUS_GENODEF_13
1002
{
1000
HIER
1070
     0
1002
}
1002
{
1000
MANEDIT
1070
     0
1002
}
1002
{
1000
NOSEL
1070
     0
1002
}
1002
{
1000
BEHIND
1070
     0
1002
}
1002
{
1000
OTHER
1070
     0
1002
}
1002
{
1000
REACTOR
1002
}
1001
GENIUS_GENOBJ-N-FIL_13
1002
{
1000
OWNER
1000
GEN
1002
}
  0
LINE
  5
B7C5
330
1F
100
AcDbEntity
  8
0台座
100
AcDbLine
 10
267.0013705166507
 20
160.4373314187055
 30
0.0
 11
267.0013705166507
 21
142.0065508003568
 31
0.0
  0
ARC
  5
B7C6
330
1F
100
AcDbEntity
  8
0台座
100
AcDbCircle
 10
262.0013705166507
 20
160.4373314187055
 30
0.0
 40
5.0
100
AcDbArc
 50
0.0
 51
30.0000000000096
1001
GENIUS_GENODEF_13
1002
{
1000
HIER
1070
     0
1002
}
1002
{
1000
MANEDIT
1070
     0
1002
}
1002
{
1000
NOSEL
1070
     0
1002
}
1002
{
1000
BEHIND
1070
     0
1002
}
1002
{
1000
OTHER
1070
     0
1002
}
1002
{
1000
REACTOR
1002
}
1001
GENIUS_GENOBJ-N-FIL_13
1002
{
1000
OWNER
1000
GEN
1002
}
  0
ARC
  5
B7C7
330
1F
100
AcDbEntity
  8
0台座
100
AcDbCircle
 10
247.1146191707025
 20
116.2219411095307
 30
0.0
 40
5.0
100
AcDbArc
 50
292.1696485078994
 51
329.9999999999904
1001
GENIUS_GENOBJ-N-FIL_13
1002
{
1000
OWNER
1000
GEN
1002
}
1001
GENIUS_GENODEF_13
1002
{
1000
HIER
1070
     0
1002
}
1002
{
1000
MANEDIT
1070
     0
1002
}
1002
{
1000
NOSEL
1070
     0
1002
}
1002
{
1000
BEHIND
1070
     0
1002
}
1002
{
1000
OTHER
1070
     0
1002
}
1002
{
1000
REACTOR
1002
}
  0
LINE
  5
B7C8
330
1F
100
AcDbEntity
  8
0台座
100
AcDbLine
 10
266.3314975355729
 20
139.5065508003559
 30
0.0
 11
251.4447461896248
 21
113.7219411095307
 31
0.0
  0
ARC
  5
B7C9
330
1F
100
AcDbEntity
  8
0台座
100
AcDbCircle
 10
262.0013705166507
 20
142.0065508003559
 30
0.0
 40
5.0
100
AcDbArc
 50
329.9999999999904
 51
0.0
1001
GENIUS_GENODEF_13
1002
{
1000
HIER
1070
     0
1002
}
1002
{
1000
MANEDIT
1070
     0
1002
}
1002
{
1000
NOSEL
1070
     0
1002
}
1002
{
1000
BEHIND
1070
     0
1002
}
1002
{
1000
OTHER
1070
     0
1002
}
1002
{
1000
REACTOR
1002
}
1001
GENIUS_GENOBJ-N-FIL_13
1002
{
1000
OWNER
1000
GEN
1002
}
  0
CIRCLE
  5
B7CA
330
1F
100
AcDbEntity
  8
0台座
  6
陰線1
 48
0.5
370
    13
100
AcDbCircle
 10
237.0013705166516
 20
121.2219411095298
 30
0.0
 40
6.100000143051147
  0
CIRCLE
  5
B7CB
330
1F
100
AcDbEntity
  8
0台座
  6
陰線1
 48
0.5
370
    13
100
AcDbCircle
 10
237.0013705166516
 20
121.2219411095298
 30
0.0
 40
3.299999999999954
  0
ARC
  5
B7CC
330
1F
100
AcDbEntity
  8
0台座
100
AcDbCircle
 10
257.0013705166516
 20
151.2219411095298
 30
0.0
 40
6.100000143051147
100
AcDbArc
 50
317.5362735800919
 51
137.5362735800919
  0
CIRCLE
  5
B7CD
330
1F
100
AcDbEntity
  8
0台座
100
AcDbCircle
 10
257.0013705166516
 20
151.2219411095298
 30
0.0
 40
3.299999999999954
  0
LINE
  5
B7CE
330
1F
100
AcDbEntity
  8
0台座
100
AcDbLine
 10
266.3314975355729
 20
162.9373314187056
 30
0.0
 11
251.4447461896257
 21
188.7219411095307
 31
0.0
  0
ARC
  5
B7CF
330
1F
100
AcDbEntity
  8
0台座
100
AcDbCircle
 10
247.1146191707035
 20
186.2219411095307
 30
0.0
 40
5.0
100
AcDbArc
 50
30.0000000000096
 51
90.0
1001
GENIUS_GENOBJ-N-FIL_13
1002
{
1000
OWNER
1000
GEN
1002
}
1001
GENIUS_GENODEF_13
1002
{
1000
HIER
1070
     0
1002
}
1002
{
1000
MANEDIT
1070
     0
1002
}
1002
{
1000
NOSEL
1070
     0
1002
}
1002
{
1000
BEHIND
1070
     0
1002
}
1002
{
1000
OTHER
1070
     0
1002
}
1002
{
1000
REACTOR
1002
}
  0
ARC
  5
B7D0
330
1F
100
AcDbEntity
  8
0台座
  6
陰線1
 48
0.5
370
    13
100
AcDbCircle
 10
257.0013705166516
 20
151.2219411095298
 30
0.0
 40
6.100000143051147
100
AcDbArc
 50
137.5362735800919
 51
222.4637264199081
  0
ARC
  5
B7D1
330
1F
100
AcDbEntity
  8
0台座
100
AcDbCircle
 10
257.0013705166516
 20
151.2219411095298
 30
0.0
 40
6.100000143051147
100
AcDbArc
 50
222.4637264199081
 51
317.5362735800919
  0
LINE
  5
B7D2
330
1F
100
AcDbEntity
  8
0ハンドル
100
AcDbLine
 10
230.375834441355
 20
19.22194111147706
 30
0.0
 11
243.6268989240239
 21
19.22194111147706
 31
0.0
  0
LINE
  5
B7D3
330
1F
100
AcDbEntity
  8
0ハンドル
100
AcDbLine
 10
228.0013666826894
 20
179.221941111477
 30
0.0
 11
246.0013666826894
 21
179.221941111477
 31
0.0
  0
LINE
  5
B7D4
330
1F
100
AcDbEntity
  8
0ハンドル
100
AcDbLine
 10
225.0013666826894
 20
176.221941111477
 30
0.0
 11
225.0013921262557
 21
103.221941111477
 31
0.0
1001
GENIUS_GENODEF_13
1002
{
1000
HIER
1070
     0
1002
}
1002
{
1000
MANEDIT
1070
     0
1002
}
1002
{
1000
NOSEL
1070
     0
1002
}
1002
{
1000
BEHIND
1070
     0
1002
}
1002
{
1000
OTHER
1070
     0
1002
}
1002
{
1000
REACTOR
1002
}
1001
GENIUS_GENOBJ-N-CEN_13
1002
{
1000
OWNER
1000
GEN
1002
}
1001
GENIUS_GENCEN_19
1002
{
1040
3.0
1002
}
  0
ARC
  5
B7D5
330
1F
100
AcDbEntity
  8
0ハンドル
100
AcDbCircle
 10
228.0013666826894
 20
176.221941111477
 30
0.0
 40
3.0
100
AcDbArc
 50
90.0
 51
180.0
1001
GENIUS_GENOBJ-N-CEN_13
1002
{
1000
OWNER
1000
GEN
1002
}
1001
GENIUS_GENCEN_19
1002
{
1040
3.0
1002
}
1001
GENIUS_GENOBJ-N-FIL_13
1002
{
1000
OWNER
1000
GEN
1002
}
1001
GENIUS_GENODEF_13
1002
{
1000
HIER
1070
     0
1002
}
1002
{
1000
MANEDIT
1070
     0
1002
}
1002
{
1000
NOSEL
1070
     0
1002
}
1002
{
1000
BEHIND
1070
     0
1002
}
1002
{
1000
OTHER
1070
     0
1002
}
1002
{
1000
REACTOR
1002
}
  0
LINE
  5
B7D6
330
1F
100
AcDbEntity
  8
0ハンドル
100
AcDbLine
 10
249.0013666826894
 20
176.221941111477
 30
0.0
 11
249.0013666826894
 21
103.221941111477
 31
0.0
1001
GENIUS_GENODEF_13
1002
{
1000
HIER
1070
     0
1002
}
1002
{
1000
MANEDIT
1070
     0
1002
}
1002
{
1000
NOSEL
1070
     0
1002
}
1002
{
1000
BEHIND
1070
     0
1002
}
1002
{
1000
OTHER
1070
     0
1002
}
1002
{
1000
REACTOR
1002
}
1001
GENIUS_GENOBJ-N-CEN_13
1002
{
1000
OWNER
1000
GEN
1002
}
1001
GENIUS_GENCEN_19
1002
{
1040
3.0
1002
}
  0
ARC
  5
B7D7
330
1F
100
AcDbEntity
  8
0ハンドル
100
AcDbCircle
 10
246.0013666826894
 20
176.221941111477
 30
0.0
 40
3.0
100
AcDbArc
 50
0.0
 51
90.0
1001
GENIUS_GENOBJ-N-CEN_13
1002
{
1000
OWNER
1000
GEN
1002
}
1001
GENIUS_GENCEN_19
1002
{
1040
3.0
1002
}
1001
GENIUS_GENOBJ-N-FIL_13
1002
{
1000
OWNER
1000
GEN
1002
}
1001
GENIUS_GENODEF_13
1002
{
1000
HIER
1070
     0
1002
}
1002
{
1000
MANEDIT
1070
     0
1002
}
1002
{
1000
NOSEL
1070
     0
1002
}
1002
{
1000
BEHIND
1070
     0
1002
}
1002
{
1000
OTHER
1070
     0
1002
}
1002
{
1000
REACTOR
1002
}
  0
ARC
  5
B7D8
330
1F
100
AcDbEntity
  8
0ハンドル
100
AcDbCircle
 10
1225.001392126255
 20
103.221941111477
 30
0.0
 40
1000.0
100
AcDbArc
 50
180.0
 51
184.7129823095982
  0
ARC
  5
B7D9
330
1F
100
AcDbEntity
  8
0ハンドル
100
AcDbCircle
 10
-750.9986333173105
 20
103.221941111477
 30
0.0
 40
1000.0
100
AcDbArc
 50
355.2870176904018
 51
0.0
  0
ARC
  5
B7DA
330
1F
100
AcDbEntity
  8
0ハンドル
100
AcDbCircle
 10
230.375834441355
 20
21.22194111147706
 30
0.0
 40
2.0
100
AcDbArc
 50
184.7129823095982
 51
270.0
  0
ARC
  5
B7DB
330
1F
100
AcDbEntity
  8
0ハンドル
100
AcDbCircle
 10
243.6268989240239
 20
21.22194111147706
 30
0.0
 40
2.0
100
AcDbArc
 50
270.0
 51
355.2870176904018
  0
ARC
  5
B7DC
330
1F
100
AcDbEntity
  8
0台座
100
AcDbCircle
 10
237.0013705166516
 20
181.2219411095298
 30
0.0
 40
6.100000143051147
100
AcDbArc
 50
340.860526034621
 51
199.1394739653789
  0
ARC
  5
B7DD
330
1F
100
AcDbEntity
  8
0台座
100
AcDbCircle
 10
237.0013705166516
 20
181.2219411095298
 30
0.0
 40
3.299999999999954
100
AcDbArc
 50
322.6947990767175
 51
217.3052009232612
  0
ARC
  5
B7DE
330
1F
100
AcDbEntity
  8
0台座
  6
陰線1
 48
0.5
370
    13
100
AcDbCircle
 10
237.0013705166516
 20
181.2219411095298
 30
0.0
 40
6.100000143051147
100
AcDbArc
 50
199.1394739655918
 51
340.8605260344081
  0
ARC
  5
B7DF
330
1F
100
AcDbEntity
  8
0台座
  6
陰線1
 48
0.5
370
    13
100
AcDbCircle
 10
237.0013705166516
 20
181.2219411095298
 30
0.0
 40
3.299999999998475
100
AcDbArc
 50
217.3052009233143
 51
322.6947990766856
  0
LINE
  5
B7E0
330
1F
100
AcDbEntity
  8
AM_7
100
AcDbLine
 10
227.9013703736004
 20
181.2219411095298
 30
0.0
 11
186.1013706597027
 21
181.2219411095316
 31
0.0
1001
GENIUS_GENODEF_13
1002
{
1000
HIER
1070
     0
1002
}
1002
{
1000
MANEDIT
1070
     0
1002
}
1002
{
1000
NOSEL
1070
     0
1002
}
1002
{
1000
BEHIND
1070
     0
1002
}
1002
{
1000
OTHER
1070
     0
1002
}
1002
{
1000
REACTOR
1002
}
1001
GENIUS_GENOBJ-N-CEN_13
1002
{
1000
OWNER
1000
GEN
1002
}
1001
GENIUS_GENCEN_19
1002
{
1040
3.0
1002
}
  0
LINE
  5
B7E1
330
1F
100
AcDbEntity
  8
AM_7
100
AcDbLine
 10
227.9013703736004
 20
121.2219411095298
 30
0.0
 11
186.1013706597027
 21
121.2219411095316
 31
0.0
1001
GENIUS_GENODEF_13
1002
{
1000
HIER
1070
     0
1002
}
1002
{
1000
MANEDIT
1070
     0
1002
}
1002
{
1000
NOSEL
1070
     0
1002
}
1002
{
1000
BEHIND
1070
     0
1002
}
1002
{
1000
OTHER
1070
     0
1002
}
1002
{
1000
REACTOR
1002
}
1001
GENIUS_GENOBJ-N-CEN_13
1002
{
1000
OWNER
1000
GEN
1002
}
1001
GENIUS_GENCEN_19
1002
{
1040
3.0
1002
}
  0
LINE
  5
B7E2
330
1F
100
AcDbEntity
  8
AM_0
100
AcDbLine
 10
11.50000008517827
 20
64.50000046244309
 30
0.0
 11
111.5000000851782
 21
64.50000046244309
 31
0.0
  0
LINE
  5
B7E3
330
1F
100
AcDbEntity
  8
AM_2
100
AcDbLine
 10
11.50000008517827
 20
40.50000046244309
 30
0.0
 11
111.5000000851782
 21
40.50000046244309
 31
0.0
  0
LINE
  5
B7E4
330
1F
100
AcDbEntity
  8
AM_2
100
AcDbLine
 10
11.50000008517827
 20
48.5000004624431
 30
0.0
 11
111.5000000851782
 21
48.5000004624431
 31
0.0
  0
LINE
  5
B7E5
330
1F
100
AcDbEntity
  8
AM_2
100
AcDbLine
 10
11.50000008517827
 20
56.5000004624431
 30
0.0
 11
111.5000000851782
 21
56.5000004624431
 31
0.0
  0
LINE
  5
B7E6
330
1F
100
AcDbEntity
  8
AM_2
100
AcDbLine
 10
31.50000008517821
 20
64.50000046244309
 30
0.0
 11
31.50000008517827
 21
8.500000462442642
 31
0.0
  0
MTEXT
  5
B7E7
330
1F
100
AcDbEntity
  8
AM_6
100
AcDbMText
 10
21.50000008517827
 20
36.50000046244308
 30
0.0
 40
3.2
 41
19.99999999999971
 71
     5
 72
     5
  1
仕上げ
 73
     1
 44
1.0
1001
ACAD
1000
MTEXTBEGIN
1070
    73
1070
     1
1070
    44
1040
1.0
1070
    74
1070
     0
1000
MTEXTEND
1000
ACAD_MTEXT_DEFINED_HEIGHT_BEGIN
1070
    46
1040
8.000000000000021
1000
ACAD_MTEXT_DEFINED_HEIGHT_END
  0
MTEXT
  5
B7E8
330
1F
100
AcDbEntity
  8
AM_6
100
AcDbMText
 10
21.50000008517827
 20
44.50000046244298
 30
0.0
 40
3.2
 41
19.99999999999994
 71
     5
 72
     5
  1
材　質
 73
     1
 44
1.0
1001
ACAD
1000
MTEXTBEGIN
1070
    73
1070
     1
1070
    44
1040
1.0
1070
    74
1070
     0
1000
MTEXTEND
1000
ACAD_MTEXT_DEFINED_HEIGHT_BEGIN
1070
    46
1040
8.000000000000234
1000
ACAD_MTEXT_DEFINED_HEIGHT_END
  0
MTEXT
  5
B7E9
330
1F
100
AcDbEntity
  8
AM_6
100
AcDbMText
 10
21.50000008517827
 20
60.5000004624431
 30
0.0
 40
3.2
 41
20.0
 71
     5
 72
     5
  1
品　名
 73
     1
 44
1.0
1001
ACAD
1000
MTEXTBEGIN
1070
    73
1070
     1
1070
    44
1040
1.0
1070
    74
1070
     0
1000
MTEXTEND
  0
MTEXT
  5
B7EA
330
1F
100
AcDbEntity
  8
AM_6
100
AcDbMText
 10
31.50000008517827
 20
60.5000004624431
 30
0.0
 40
3.2
 41
90.0
 71
     4
 72
     5
  1
　密閉ハンドル（大）
 73
     1
 44
1.0
1001
ACAD
1000
MTEXTBEGIN
1070
    73
1070
     1
1070
    44
1040
1.0
1070
    74
1070
     0
1000
MTEXTEND
  0
LINE
  5
B7EB
330
1F
100
AcDbEntity
  8
AM_0
100
AcDbLine
 10
111.5000000851782
 20
64.50000046244309
 30
0.0
 11
111.5000000851782
 21
8.500000462442642
 31
0.0
  0
MTEXT
  5
B7EC
330
1F
100
AcDbEntity
  8
AM_6
100
AcDbMText
 10
21.50000008517827
 20
52.50000046244309
 30
0.0
 40
3.2
 41
20.0
 71
     5
 72
     5
  1
品　番
 73
     1
 44
1.0
1001
ACAD
1000
MTEXTBEGIN
1070
    73
1070
     1
1070
    44
1040
1.0
1070
    74
1070
     0
1000
MTEXTEND
  0
MTEXT
  5
B7ED
330
1F
100
AcDbEntity
  8
AM_6
100
AcDbMText
 10
31.50000008517827
 20
52.50000046244309
 30
0.0
 40
3.2
 41
90.0
 71
     4
 72
     5
  1
　EL-105S-3
 73
     1
 44
1.0
1001
ACAD
1000
MTEXTBEGIN
1070
    73
1070
     1
1070
    44
1040
1.0
1070
    74
1070
     0
1000
MTEXTEND
  0
LINE
  5
B7EE
330
1F
100
AcDbEntity
  8
AM_2
100
AcDbLine
 10
11.50000008517827
 20
32.5000004624431
 30
0.0
 11
111.5000000851782
 21
32.5000004624431
 31
0.0
  0
MTEXT
  5
B7EF
330
1F
100
AcDbEntity
  8
AM_6
100
AcDbMText
 10
31.50000008517827
 20
44.50000046244309
 30
0.0
 40
3.2
 41
90.0
 71
     4
 72
     5
  1
　ステンレス
 73
     1
 44
1.0
1001
ACAD
1000
MTEXTBEGIN
1070
    73
1070
     1
1070
    44
1040
1.0
1070
    74
1070
     0
1000
MTEXTEND
  0
MTEXT
  5
B7F0
330
1F
100
AcDbEntity
  8
AM_6
100
AcDbMText
 10
31.50000008517827
 20
36.5000004624431
 30
0.0
 40
3.2
 41
90.0
 71
     4
 72
     5
  1
　鏡面バフ研磨
 73
     1
 44
1.0
1001
ACAD
1000
MTEXTBEGIN
1070
    73
1070
     1
1070
    44
1040
1.0
1070
    74
1070
     0
1000
MTEXTEND
  0
LINE
  5
B7F1
330
1F
100
AcDbEntity
  8
AM_0
100
AcDbLine
 10
11.50000008517827
 20
8.500000462443097
 30
0.0
 11
111.5000000851782
 21
8.500000462443097
 31
0.0
  0
MTEXT
  5
B7F2
330
1F
100
AcDbEntity
  8
AM_6
100
AcDbMText
 10
21.50000008517829
 20
20.50000046244287
 30
0.0
 40
3.2
 41
19.99999999999997
 71
     5
 72
     5
  1
備　考
 73
     1
 44
1.0
1001
ACAD
1000
MTEXTBEGIN
1070
    73
1070
     1
1070
    44
1040
1.0
1070
    74
1070
     0
1000
MTEXTEND
1000
ACAD_MTEXT_DEFINED_HEIGHT_BEGIN
1070
    46
1040
24.00000000000046
1000
ACAD_MTEXT_DEFINED_HEIGHT_END
  0
MTEXT
  5
B7F3
330
1F
100
AcDbEntity
  8
AM_6
100
AcDbMText
 10
31.50000008517827
 20
28.5000004624431
 30
0.0
 40
3.2
 41
90.0
 71
     4
 72
     5
  1
　・左右勝手無し。（カムの組替えで勝手変更）
 73
     1
 44
1.0
1001
ACAD
1000
MTEXTBEGIN
1070
    73
1070
     1
1070
    44
1040
1.0
1070
    74
1070
     0
1000
MTEXTEND
  0
MTEXT
  5
B7F4
330
1F
100
AcDbEntity
  8
AM_6
100
AcDbMText
 10
31.50000008517827
 20
20.5000004624431
 30
0.0
 40
3.2
 41
90.0
 71
     4
 72
     5
  1
　・受けかかり代調整：+3mm
 73
     1
 44
1.0
1001
ACAD
1000
MTEXTBEGIN
1070
    73
1070
     1
1070
    44
1040
1.0
1070
    74
1070
     0
1000
MTEXTEND
  0
MTEXT
  5
B7F5
330
1F
100
AcDbEntity
  8
AM_6
100
AcDbMText
 10
31.50000008517827
 20
12.50000046244309
 30
0.0
 40
3.2
 41
90.0
 71
     4
 72
     5
  1
　・ハンドル・カム位置を上下左右方向に組替え可能です。
 73
     1
 44
1.0
1001
ACAD
1000
MTEXTBEGIN
1070
    73
1070
     1
1070
    44
1040
1.0
1070
    74
1070
     0
1000
MTEXTEND
  0
LINE
  5
B7F8
330
1F
100
AcDbEntity
  8
0台座
100
AcDbLine
 10
361.7212849062712
 20
191.2219411095307
 30
0.0
 11
361.7212849062712
 21
111.2219411095307
 31
0.0
  0
LINE
  5
B7F9
330
1F
100
AcDbEntity
  8
0台座
100
AcDbLine
 10
346.7212849062712
 20
163.7219411095307
 30
0.0
 11
346.7212849062712
 21
138.7219411095312
 31
0.0
  0
ARC
  5
B7FA
330
1F
100
AcDbEntity
  8
0台座
100
AcDbCircle
 10
347.7212849062712
 20
163.7219411095307
 30
0.0
 40
1.0
100
AcDbArc
 50
90.0
 51
180.0
1001
GENIUS_GENOBJ-N-FIL_13
1002
{
1000
OWNER
1000
GEN
1002
}
1001
GENIUS_GENODEF_13
1002
{
1000
HIER
1070
     0
1002
}
1002
{
1000
MANEDIT
1070
     0
1002
}
1002
{
1000
NOSEL
1070
     0
1002
}
1002
{
1000
BEHIND
1070
     0
1002
}
1002
{
1000
OTHER
1070
     0
1002
}
1002
{
1000
REACTOR
1002
}
  0
LINE
  5
B7FB
330
1F
100
AcDbEntity
  8
0台座
100
AcDbLine
 10
347.7212849062712
 20
164.7219411095307
 30
0.0
 11
349.3068023945666
 21
164.7219411095307
 31
0.0
  0
ARC
  5
B7FC
330
1F
100
AcDbEntity
  8
0台座
100
AcDbCircle
 10
347.7212849062712
 20
138.7219411095312
 30
0.0
 40
1.0
100
AcDbArc
 50
180.0
 51
270.0
1001
GENIUS_GENOBJ-N-FIL_13
1002
{
1000
OWNER
1000
GEN
1002
}
1001
GENIUS_GENODEF_13
1002
{
1000
HIER
1070
     0
1002
}
1002
{
1000
MANEDIT
1070
     0
1002
}
1002
{
1000
NOSEL
1070
     0
1002
}
1002
{
1000
BEHIND
1070
     0
1002
}
1002
{
1000
OTHER
1070
     0
1002
}
1002
{
1000
REACTOR
1002
}
  0
LINE
  5
B7FD
330
1F
100
AcDbEntity
  8
0台座
  6
想像線1
 48
0.3
370
    13
100
AcDbLine
 10
349.084423673849
 20
137.7219411095312
 30
0.0
 11
349.1053104246789
 21
137.7219411095312
 31
0.0
  0
LINE
  5
B7FE
330
1F
100
AcDbEntity
  8
0台座
100
AcDbLine
 10
361.7212849062712
 20
111.2219411095307
 30
0.0
 11
361.7212849062712
 21
191.2219411095307
 31
0.0
  0
LINE
  5
B7FF
330
1F
100
AcDbEntity
  8
0台座
  6
想像線1
 48
0.3
370
    13
100
AcDbLine
 10
354.0702442762817
 20
133.0982294568849
 30
0.0
 11
354.0360528828937
 21
133.5512654192899
 31
0.0
  0
LINE
  5
B800
330
1F
100
AcDbEntity
  8
0台座
100
AcDbLine
 10
349.7212849062721
 20
164.7219411095307
 30
0.0
 11
354.4138916455909
 21
189.5927568279263
 31
0.0
  0
ARC
  5
B801
330
1F
100
AcDbEntity
  8
0台座
100
AcDbCircle
 10
349.3068023945666
 20
165.2219411095307
 30
0.0
 40
0.5
100
AcDbArc
 50
270.0
 51
349.3150876000004
1001
GENIUS_GENOBJ-N-FIL_13
1002
{
1000
OWNER
1000
GEN
1002
}
1001
GENIUS_GENODEF_13
1002
{
1000
HIER
1070
     0
1002
}
1002
{
1000
MANEDIT
1070
     0
1002
}
1002
{
1000
NOSEL
1070
     0
1002
}
1002
{
1000
BEHIND
1070
     0
1002
}
1002
{
1000
OTHER
1070
     0
1002
}
1002
{
1000
REACTOR
1002
}
  0
LINE
  5
B802
330
1F
100
AcDbEntity
  8
AM_7
100
AcDbLine
 10
306.5595972958413
 20
151.2219411095307
 30
0.0
 11
364.7212849062712
 21
151.2219411095307
 31
0.0
1001
GENIUS_GENOBJ-N-CEN_13
1002
{
1000
OWNER
1000
GEN
1002
}
1001
GENIUS_GENODEF_13
1002
{
1000
HIER
1070
     0
1002
}
1002
{
1000
MANEDIT
1070
     0
1002
}
1002
{
1000
NOSEL
1070
     0
1002
}
1002
{
1000
BEHIND
1070
     0
1002
}
1002
{
1000
OTHER
1070
     0
1002
}
1002
{
1000
REACTOR
1002
}
1001
GENIUS_GENCEN_19
1002
{
1040
3.0
1002
}
  0
LINE
  5
B803
330
1F
100
AcDbEntity
  8
0台座
370
    13
100
AcDbLine
 10
361.7212849062712
 20
161.7314266442182
 30
0.0
 11
355.7212849062712
 21
161.7314266442182
 31
0.0
  0
LINE
  5
B804
330
1F
100
AcDbEntity
  8
0台座
370
    13
100
AcDbLine
 10
361.7212849062712
 20
140.7124555748433
 30
0.0
 11
355.7212849062712
 21
140.7124555748433
 31
0.0
  0
LINE
  5
B805
330
1F
100
AcDbEntity
  8
0台座
370
    13
100
AcDbLine
 10
355.7212849062712
 20
161.7314266442182
 30
0.0
 11
352.2254961838348
 21
177.9942608806173
 31
0.0
  0
LINE
  5
B806
330
1F
100
AcDbEntity
  8
0台座
370
    13
100
AcDbLine
 10
355.7212849062712
 20
140.7124555748433
 30
0.0
 11
352.1452218990094
 21
124.8750750480217
 31
0.0
  0
LINE
  5
B807
330
1F
100
AcDbEntity
  8
0台座
370
    13
100
AcDbLine
 10
355.7212849062712
 20
140.7124555748433
 30
0.0
 11
355.7212849062712
 21
161.7314266442182
 31
0.0
  0
LINE
  5
B808
330
1F
100
AcDbEntity
  8
0台座
100
AcDbLine
 10
361.7212849062712
 20
191.2219411095307
 30
0.0
 11
356.3792149530877
 21
191.2219411095307
 31
0.0
  0
ARC
  5
B809
330
1F
100
AcDbEntity
  8
0台座
100
AcDbCircle
 10
356.3792149530877
 20
189.2219411095307
 30
0.0
 40
2.0
100
AcDbArc
 50
90.0
 51
169.3150876000004
1001
GENIUS_GENODEF_13
1002
{
1000
HIER
1070
     0
1002
}
1002
{
1000
MANEDIT
1070
     0
1002
}
1002
{
1000
NOSEL
1070
     0
1002
}
1002
{
1000
BEHIND
1070
     0
1002
}
1002
{
1000
OTHER
1070
     0
1002
}
1002
{
1000
REACTOR
1002
}
1001
GENIUS_GENOBJ-N-FIL_13
1002
{
1000
OWNER
1000
GEN
1002
}
  0
LINE
  5
B80A
330
1F
100
AcDbEntity
  8
0台座
100
AcDbLine
 10
349.7212849062721
 20
137.7219411095271
 30
0.0
 11
354.4138916455909
 21
112.8511253911352
 31
0.0
  0
ARC
  5
B80B
330
1F
100
AcDbEntity
  8
0台座
100
AcDbCircle
 10
349.3068023945675
 20
137.2219411095307
 30
0.0
 40
0.5
100
AcDbArc
 50
10.68491239999953
 51
90.0
1001
GENIUS_GENODEF_13
1002
{
1000
HIER
1070
     0
1002
}
1002
{
1000
MANEDIT
1070
     0
1002
}
1002
{
1000
NOSEL
1070
     0
1002
}
1002
{
1000
BEHIND
1070
     0
1002
}
1002
{
1000
OTHER
1070
     0
1002
}
1002
{
1000
REACTOR
1002
}
1001
GENIUS_GENOBJ-N-FIL_13
1002
{
1000
OWNER
1000
GEN
1002
}
  0
LINE
  5
B80C
330
1F
100
AcDbEntity
  8
0台座
100
AcDbLine
 10
361.7212849062712
 20
111.2219411095307
 30
0.0
 11
356.3792149530877
 21
111.2219411095307
 31
0.0
  0
ARC
  5
B80D
330
1F
100
AcDbEntity
  8
0台座
100
AcDbCircle
 10
356.3792149530877
 20
113.2219411095307
 30
0.0
 40
2.0
100
AcDbArc
 50
190.6849123999995
 51
270.0
1001
GENIUS_GENODEF_13
1002
{
1000
HIER
1070
     0
1002
}
1002
{
1000
MANEDIT
1070
     0
1002
}
1002
{
1000
NOSEL
1070
     0
1002
}
1002
{
1000
BEHIND
1070
     0
1002
}
1002
{
1000
OTHER
1070
     0
1002
}
1002
{
1000
REACTOR
1002
}
1001
GENIUS_GENOBJ-N-FIL_13
1002
{
1000
OWNER
1000
GEN
1002
}
  0
LINE
  5
B80E
330
1F
100
AcDbEntity
  8
0台座
100
AcDbLine
 10
347.7212849062712
 20
137.7219411095312
 30
0.0
 11
349.3068023945675
 21
137.7219411095307
 31
0.0
  0
LINE
  5
B80F
330
1F
100
AcDbEntity
  8
0台座
100
AcDbLine
 10
349.7212849062721
 20
164.7219411095307
 30
0.0
 11
349.7212849062721
 21
137.7219411095307
 31
0.0
  0
LINE
  5
B810
330
1F
100
AcDbEntity
  8
0樹脂スラセ2
100
AcDbLine
 10
345.7212849062712
 20
163.7219411095303
 30
0.0
 11
345.7212849062712
 21
138.7219411095303
 31
0.0
  0
LINE
  5
B811
330
1F
100
AcDbEntity
  8
0樹脂スラセ2
100
AcDbLine
 10
345.7212849062712
 20
163.7219411095303
 30
0.0
 11
346.7212849062712
 21
163.7219411095303
 31
0.0
  0
LINE
  5
B812
330
1F
100
AcDbEntity
  8
0樹脂スラセ2
100
AcDbLine
 10
346.7212849062712
 20
163.7219411095303
 30
0.0
 11
346.7212849062712
 21
138.7219411095303
 31
0.0
  0
LINE
  5
B813
330
1F
100
AcDbEntity
  8
0樹脂スラセ2
100
AcDbLine
 10
346.7212849062712
 20
138.7219411095303
 30
0.0
 11
345.7212849062712
 21
138.7219411095303
 31
0.0
  0
LINE
  5
B814
330
1F
100
AcDbEntity
  8
0カム
100
AcDbLine
 10
345.7212849062712
 20
163.5890499236057
 30
0.0
 11
345.7212849062712
 21
138.8548322954548
 31
0.0
  0
ARC
  5
B815
330
1F
100
AcDbEntity
  8
0カム
100
AcDbCircle
 10
344.7212849062712
 20
138.8548322954548
 30
0.0
 40
1.0
100
AcDbArc
 50
262.8749836510953
 51
0.0
1001
GENIUS_GENODEF_13
1002
{
1000
HIER
1070
     0
1002
}
1002
{
1000
MANEDIT
1070
     0
1002
}
1002
{
1000
NOSEL
1070
     0
1002
}
1002
{
1000
BEHIND
1070
     0
1002
}
1002
{
1000
OTHER
1070
     0
1002
}
1002
{
1000
REACTOR
1002
}
1001
GENIUS_GENOBJ-N-FIL_13
1002
{
1000
OWNER
1000
GEN
1002
}
  0
LINE
  5
B816
330
1F
100
AcDbEntity
  8
0カム
100
AcDbLine
 10
329.7212849062721
 20
161.8363357460944
 30
0.0
 11
329.7212849062721
 21
140.6048322954557
 31
0.0
  0
LINE
  5
B817
330
1F
100
AcDbEntity
  8
0カム
100
AcDbLine
 10
330.5970607653103
 20
162.8285899286516
 30
0.0
 11
345.7212849062712
 21
164.7220500769181
 31
0.0
  0
LINE
  5
B818
330
1F
100
AcDbEntity
  8
0カム
100
AcDbLine
 10
345.7212849062712
 20
137.7220500769177
 30
0.0
 11
347.2212849062712
 21
137.7220500769181
 31
0.0
  0
ARC
  5
B819
330
1F
100
AcDbEntity
  8
0カム
100
AcDbCircle
 10
330.7212849062721
 20
140.6048322954557
 30
0.0
 40
1.0
100
AcDbArc
 50
180.0
 51
262.8749836510953
1001
GENIUS_GENOBJ-N-FIL_13
1002
{
1000
OWNER
1000
GEN
1002
}
1001
GENIUS_GENODEF_13
1002
{
1000
HIER
1070
     0
1002
}
1002
{
1000
MANEDIT
1070
     0
1002
}
1002
{
1000
NOSEL
1070
     0
1002
}
1002
{
1000
BEHIND
1070
     0
1002
}
1002
{
1000
OTHER
1070
     0
1002
}
1002
{
1000
REACTOR
1002
}
  0
ARC
  5
B81A
330
1F
100
AcDbEntity
  8
0カム
100
AcDbCircle
 10
330.7212849062721
 20
161.8363357460944
 30
0.0
 40
1.0
100
AcDbArc
 50
97.13595311929012
 51
180.0
1001
GENIUS_GENODEF_13
1002
{
1000
HIER
1070
     0
1002
}
1002
{
1000
MANEDIT
1070
     0
1002
}
1002
{
1000
NOSEL
1070
     0
1002
}
1002
{
1000
BEHIND
1070
     0
1002
}
1002
{
1000
OTHER
1070
     0
1002
}
1002
{
1000
REACTOR
1002
}
1001
GENIUS_GENOBJ-N-FIL_13
1002
{
1000
OWNER
1000
GEN
1002
}
  0
LINE
  5
B81B
330
1F
100
AcDbEntity
  8
0カム
100
AcDbLine
 10
345.721284906273
 20
164.7220500769181
 30
0.0
 11
347.2212849062712
 21
164.7220500769181
 31
0.0
  0
ARC
  5
B81C
330
1F
100
AcDbEntity
  8
0カム
100
AcDbCircle
 10
344.7212849062712
 20
163.5890499236057
 30
0.0
 40
1.0
100
AcDbArc
 50
0.0
 51
97.13595311929012
1001
GENIUS_GENOBJ-N-FIL_13
1002
{
1000
OWNER
1000
GEN
1002
}
1001
GENIUS_GENODEF_13
1002
{
1000
HIER
1070
     0
1002
}
1002
{
1000
MANEDIT
1070
     0
1002
}
1002
{
1000
NOSEL
1070
     0
1002
}
1002
{
1000
BEHIND
1070
     0
1002
}
1002
{
1000
OTHER
1070
     0
1002
}
1002
{
1000
REACTOR
1002
}
  0
LINE
  5
B81D
330
1F
100
AcDbEntity
  8
0カム
100
AcDbLine
 10
330.5972501716829
 20
139.6125544187421
 30
0.0
 11
345.7212849062712
 21
137.7220500769177
 31
0.0
  0
ARC
  5
B81E
330
1F
100
AcDbEntity
  8
0カム
100
AcDbCircle
 10
347.2212849062712
 20
138.7220500769181
 30
0.0
 40
1.0
100
AcDbArc
 50
270.0
 51
284.4650257946815
  0
ARC
  5
B81F
330
1F
100
AcDbEntity
  8
0カム
100
AcDbCircle
 10
347.2212849062712
 20
163.7220500769181
 30
0.0
 40
1.0
100
AcDbArc
 50
75.51000072013241
 51
90.0
  0
LINE
  5
B820
330
1F
100
AcDbEntity
  8
0ハンドル
100
AcDbLine
 10
329.7212849062721
 20
139.7422014436216
 30
0.0
 11
329.7212849062721
 21
143.2219411089682
 31
0.0
  0
LINE
  5
B821
330
1F
100
AcDbEntity
  8
0ハンドル
100
AcDbLine
 10
329.7212849062721
 20
159.2219411089682
 30
0.0
 11
329.7212849062721
 21
162.7121795950052
 31
0.0
  0
LINE
  5
B822
330
1F
100
AcDbEntity
  8
0ハンドル
100
AcDbLine
 10
329.7212849062721
 20
162.7121795950052
 30
0.0
 11
326.3734733101032
 21
177.2556268373028
 31
0.0
  0
ARC
  5
B823
330
1F
100
AcDbEntity
  8
0ハンドル
100
AcDbCircle
 10
323.931101605694
 20
176.7219411081515
 30
0.0
 40
2.5
100
AcDbArc
 50
12.32603273226042
 51
109.9999999999896
  0
LINE
  5
B824
330
1F
100
AcDbEntity
  8
0ハンドル
100
AcDbLine
 10
323.0760512473785
 20
179.0711726601167
 30
0.0
 11
314.3267814189798
 21
175.8866988710152
 31
0.0
  0
ARC
  5
B825
330
1F
100
AcDbEntity
  8
0ハンドル
100
AcDbCircle
 10
336.0771940003883
 20
132.0219411120443
 30
0.0
 40
10.0
100
AcDbArc
 50
129.4638249035104
 51
175.2408065723344
  0
ARC
  5
B826
330
1F
100
AcDbEntity
  8
0ハンドル
100
AcDbCircle
 10
315.7212849199018
 20
23.22194110814968
 30
0.0
 40
4.0
100
AcDbArc
 50
184.0342257369957
 51
295.0000000000356
  0
LINE
  5
B827
330
1F
100
AcDbEntity
  8
0ハンドル
100
AcDbLine
 10
317.4117579668632
 20
19.59670996000301
 30
0.0
 11
325.1732604750846
 21
23.21595801837526
 31
0.0
  0
LINE
  5
B828
330
1F
100
AcDbEntity
  8
0ハンドル
100
AcDbLine
 10
329.7212849062721
 20
159.2219411089682
 30
0.0
 11
329.7212849062721
 21
143.2219411089682
 31
0.0
  0
ARC
  5
B829
330
1F
100
AcDbEntity
  8
0ハンドル
100
AcDbCircle
 10
369.7212849199036
 20
154.2219411070228
 30
0.0
 40
60.0
100
AcDbArc
 50
159.7423049374658
 51
177.6442496051485
  0
ARC
  5
B82A
330
1F
100
AcDbEntity
  8
0ハンドル
100
AcDbCircle
 10
314.8398116339681
 20
174.4771599398364
 30
0.0
 40
1.5
100
AcDbArc
 50
109.9999999999896
 51
159.7423049374658
  0
ARC
  5
B82B
330
1F
100
AcDbEntity
  8
0ハンドル
100
AcDbCircle
 10
332.7212849062703
 20
39.22193997535311
 30
0.0
 40
9.999999999998335
100
AcDbArc
 50
180.6170452999223
 51
229.9036887118515
  0
ARC
  5
B82C
330
1F
100
AcDbEntity
  8
0ハンドル
100
AcDbCircle
 10
323.060169166381
 20
27.74749695355791
 30
0.0
 40
5.0
100
AcDbArc
 50
295.0000000000356
 51
49.9036887118094
  0
ARC
  5
B82D
330
1F
100
AcDbEntity
  8
0ハンドル
100
AcDbCircle
 10
1508.757839860049
 20
107.3633612087383
 30
0.0
 40
1200.0
100
AcDbArc
 50
177.6442496051485
 51
184.0342257369957
  0
ARC
  5
B82E
330
1F
100
AcDbEntity
  8
0ハンドル
100
AcDbCircle
 10
1322.663874603958
 20
49.88351127783658
 30
0.0
 40
1000.0
100
AcDbArc
 50
175.2408065723344
 51
180.6170452999223
  0
LINE
  5
B82F
330
1F
100
AcDbEntity
  8
AM_11
 48
0.5
100
AcDbLine
 10
348.721284906273
 20
112.2694451226439
 30
0.0
 11
348.721284906273
 21
133.2393844776566
 31
0.0
  0
LINE
  5
B830
330
1F
100
AcDbEntity
  8
AM_11
 48
0.5
100
AcDbLine
 10
347.7212849062721
 20
111.2694451226439
 30
0.0
 11
340.221284906273
 21
111.2694451226439
 31
0.0
  0
ARC
  5
B831
330
1F
100
AcDbEntity
  8
AM_11
 48
0.5
100
AcDbCircle
 10
340.221284906273
 20
112.7694451226439
 30
0.0
 40
1.5
100
AcDbArc
 50
180.0
 51
270.0
1001
GENIUS_GENOBJ-N-FIL_13
1002
{
1000
OWNER
1000
GEN
1002
}
1001
GENIUS_GENODEF_13
1002
{
1000
HIER
1070
     0
1002
}
1002
{
1000
MANEDIT
1070
     0
1002
}
1002
{
1000
NOSEL
1070
     0
1002
}
1002
{
1000
BEHIND
1070
     0
1002
}
1002
{
1000
OTHER
1070
     0
1002
}
1002
{
1000
REACTOR
1002
}
  0
ARC
  5
B832
330
1F
100
AcDbEntity
  8
AM_11
 48
0.5
100
AcDbCircle
 10
347.7212849062721
 20
112.2694451226439
 30
0.0
 40
1.0
100
AcDbArc
 50
270.0
 51
0.0
  0
LINE
  5
B833
330
1F
100
AcDbEntity
  8
AM_11
 48
0.5
100
AcDbLine
 10
338.721284906273
 20
112.7694451226439
 30
0.0
 11
338.721284906273
 21
121.7808718524189
 31
0.0
  0
ARC
  5
B834
330
1F
100
AcDbEntity
  8
AM_11
 48
0.5
100
AcDbCircle
 10
345.721284906273
 20
133.2393844776566
 30
0.0
 40
3.0
100
AcDbArc
 50
0.0
 51
41.65723620084182
  0
ARC
  5
B835
330
1F
100
AcDbEntity
  8
AM_11
 48
0.5
100
AcDbCircle
 10
318.7212849062721
 20
121.7808718524198
 30
0.0
 40
20.0
100
AcDbArc
 50
0.0
 51
51.84299182583182
  0
LINE
  5
B836
330
1F
100
AcDbEntity
  8
AM_11
100
AcDbLine
 10
347.9626883512351
 20
135.2334031829123
 30
0.0
 11
346.721284906273
 21
136.8886077761977
 31
0.0
  0
ARC
  5
B837
330
1F
100
AcDbEntity
  8
AM_11
100
AcDbCircle
 10
334.7212849062712
 20
140.9313138218281
 30
0.0
 40
5.0
100
AcDbArc
 50
186.7455185213415
 51
223.2203220229264
  0
ARC
  5
B838
330
1F
100
AcDbEntity
  8
AM_11
100
AcDbCircle
 10
350.721284906273
 20
139.8886077761968
 30
0.0
 40
5.0
100
AcDbArc
 50
205.6779031109147
 51
216.8698976458539
  0
LINE
  5
B839
330
1F
100
AcDbEntity
  8
0カム
100
AcDbLine
 10
197.0013705166516
 20
156.9716627127491
 30
0.0
 11
197.0013705166516
 21
145.4722195063123
 31
0.0
  0
ARC
  5
B83A
330
1F
100
AcDbEntity
  8
0カム
100
AcDbCircle
 10
202.0013705166516
 20
156.9716627127491
 30
0.0
 40
5.0
100
AcDbArc
 50
102.5558577985952
 51
180.0
  0
ARC
  5
B83B
330
1F
100
AcDbEntity
  8
0カム
100
AcDbCircle
 10
202.0013705166516
 20
145.4722195063123
 30
0.0
 40
5.0
100
AcDbArc
 50
180.0
 51
257.4441422014014
  0
ARC
  5
B83C
330
1F
100
AcDbEntity
  8
AM_11
 48
0.5
100
AcDbCircle
 10
224.0013705166516
 20
44.72194110953075
 30
0.0
 40
120.0
100
AcDbArc
 50
90.95497245628067
 51
102.5558577985952
  0
ARC
  5
B83D
330
1F
100
AcDbEntity
  8
AM_11
 48
0.5
100
AcDbCircle
 10
224.0013705166516
 20
257.7219411095307
 30
0.0
 40
120.0
100
AcDbArc
 50
257.4441422014014
 51
269.0450320320739
  0
LINE
  5
B83E
330
1F
100
AcDbEntity
  8
AM_11
 48
0.5
100
AcDbLine
 10
194.0013705166516
 20
156.9716627127491
 30
0.0
 11
194.0013705166516
 21
145.4722195063123
 31
0.0
  0
ARC
  5
B83F
330
1F
100
AcDbEntity
  8
AM_11
 48
0.5
100
AcDbCircle
 10
199.0013705166516
 20
156.9716627127491
 30
0.0
 40
5.0
100
AcDbArc
 50
102.5558577985952
 51
180.0
  0
ARC
  5
B840
330
1F
100
AcDbEntity
  8
AM_11
 48
0.5
100
AcDbCircle
 10
199.0013705166516
 20
145.4722195063123
 30
0.0
 40
5.0
100
AcDbArc
 50
180.0
 51
257.4441422014014
  0
DIMENSION
  5
B841
330
1F
100
AcDbEntity
  8
AM_5
100
AcDbDimension
  2
*D17
 10
194.0013705166507
 20
126.3625580536459
 30
0.0
 11
203.0295719104483
 21
126.3625580536459
 31
0.0
 70
   160
  1
調整\P+<>
 71
     5
 42
3.0
  3
SYS$0
100
AcDbAlignedDimension
 13
197.0013705166507
 23
145.4722195063123
 33
0.0
 14
194.0013705166507
 24
145.4722195063119
 34
0.0
100
AcDbRotatedDimension
1001
ACAD
1000
DSTYLE
1002
{
1070
   179
1070
     1
1002
}
  0
DIMENSION
  5
B842
330
1F
100
AcDbEntity
  8
AM_5
100
AcDbDimension
  2
*D18
 10
267.0013705166507
 20
204.2219411095357
 30
0.0
 11
262.0013705166511
 21
207.3219411095358
 31
0.0
 70
    32
 71
     5
 42
9.99999999999909
  3
SYS$0
100
AcDbAlignedDimension
 13
257.0013705166516
 23
160.321941252581
 33
0.0
 14
267.0013705166507
 24
160.321941252581
 34
0.0
100
AcDbRotatedDimension
1001
ACAD
1000
DSTYLE
1002
{
1070
   179
1070
     1
1002
}
  0
DIMENSION
  5
B843
330
1F
100
AcDbEntity
  8
AM_5
100
AcDbDimension
  2
*D19
 10
147.0013705166525
 20
204.2219411095348
 30
0.0
 11
152.001370516652
 21
207.3219411095348
 31
0.0
 70
    32
 71
     5
 42
9.99999999999909
  3
SYS$0
100
AcDbAlignedDimension
 13
157.0013705166516
 23
160.3219412525828
 33
0.0
 14
147.0013705166525
 24
160.3219412525828
 34
0.0
100
AcDbRotatedDimension
1001
ACAD
1000
DSTYLE
1002
{
1070
   179
1070
     1
1002
}
  0
DIMENSION
  5
B844
330
1F
100
AcDbEntity
  8
AM_5
100
AcDbDimension
  2
*D20
 10
348.721284906273
 20
99.22194110953075
 30
0.0
 11
355.2212849062721
 21
102.3219411095307
 31
0.0
 70
    32
 71
     5
 42
12.99999999999818
  3
SYS$0
100
AcDbAlignedDimension
 13
361.7212849062712
 23
111.2219411095307
 33
0.0
 14
348.721284906273
 24
112.2694451226439
 34
0.0
100
AcDbRotatedDimension
1001
ACAD
1000
DSTYLE
1002
{
1070
   179
1070
     1
1002
}
  0
DIMENSION
  5
B845
330
1F
100
AcDbEntity
  8
AM_5
100
AcDbDimension
  2
*D21
 10
338.721284906273
 20
89.22194110953483
 30
0.0
 11
350.2212849062721
 21
92.32194110953484
 31
0.0
 70
    32
 71
     5
 42
22.99999999999818
  3
SYS$0
100
AcDbAlignedDimension
 13
361.7212849062712
 23
111.2219411095307
 33
0.0
 14
338.721284906273
 24
112.7694451226439
 34
0.0
100
AcDbRotatedDimension
1001
ACAD
1000
DSTYLE
1002
{
1070
   179
1070
     1
1002
}
  0
LINE
  5
B846
330
1F
100
AcDbEntity
  8
0受け
370
    13
100
AcDbLine
 10
166.5013705166525
 20
162.7219411095316
 30
0.0
 11
182.5013705166525
 21
162.7219411095307
 31
0.0
  0
LINE
  5
B847
330
1F
100
AcDbEntity
  8
0受け
370
    13
100
AcDbLine
 10
182.5013705166525
 20
139.7219411095312
 30
0.0
 11
166.5013705166525
 21
139.7219411095312
 31
0.0
  0
LINE
  5
B848
330
1F
100
AcDbEntity
  8
0受け
100
AcDbLine
 10
175.0013705166516
 20
163.4719411095312
 30
0.0
 11
175.0013705166516
 21
164.2219411095307
 31
0.0
  0
LINE
  5
B849
330
1F
100
AcDbEntity
  8
0受け
100
AcDbLine
 10
175.0013705166516
 20
138.9719411095307
 30
0.0
 11
175.0013705166516
 21
138.2219411095307
 31
0.0
  0
LINE
  5
B84A
330
1F
100
AcDbEntity
  8
0受け
370
    13
100
AcDbLine
 10
174.0013705166516
 20
137.2219411095303
 30
0.0
 11
166.5013705166516
 21
137.2219411095307
 31
0.0
  0
LINE
  5
B84B
330
1F
100
AcDbEntity
  8
0受け
370
    13
100
AcDbLine
 10
174.0013705166516
 20
165.2219411095307
 30
0.0
 11
166.5013705166516
 21
165.2219411095307
 31
0.0
  0
ARC
  5
B84C
330
1F
100
AcDbEntity
  8
0受け
370
    13
100
AcDbCircle
 10
166.5013705166516
 20
163.7219411095307
 30
0.0
 40
1.5
100
AcDbArc
 50
90.0
 51
180.0
  0
ARC
  5
B84D
330
1F
100
AcDbEntity
  8
0受け
370
    13
100
AcDbCircle
 10
174.0013705166516
 20
164.2219411095307
 30
0.0
 40
1.0
100
AcDbArc
 50
0.0
 51
90.0
  0
ARC
  5
B84E
330
1F
100
AcDbEntity
  8
0受け
370
    13
100
AcDbCircle
 10
166.5013705166516
 20
138.7219411095307
 30
0.0
 40
1.5
100
AcDbArc
 50
180.0
 51
270.0
  0
ARC
  5
B84F
330
1F
100
AcDbEntity
  8
0受け
370
    13
100
AcDbCircle
 10
174.0013705166516
 20
138.2219411095307
 30
0.0
 40
1.0
100
AcDbArc
 50
270.0
 51
0.0
  0
ARC
  5
B850
330
1F
100
AcDbEntity
  8
0受け
370
    13
100
AcDbCircle
 10
166.5013705166525
 20
161.2219411095312
 30
0.0
 40
1.5
100
AcDbArc
 50
90.0
 51
180.0
  0
ARC
  5
B851
330
1F
100
AcDbEntity
  8
0受け
370
    13
100
AcDbCircle
 10
166.5013705166525
 20
141.2219411095303
 30
0.0
 40
1.5
100
AcDbArc
 50
180.0
 51
270.0
  0
LINE
  5
B852
330
1F
100
AcDbEntity
  8
0受け
100
AcDbLine
 10
185.0013705166516
 20
160.9346349368712
 30
0.0
 11
185.0013705166525
 21
141.5092472821903
 31
0.0
  0
LINE
  5
B853
330
1F
100
AcDbEntity
  8
0受け
100
AcDbLine
 10
175.0013705166516
 20
138.9719411095307
 30
0.0
 11
178.0213927883956
 21
138.9719411095312
 31
0.0
  0
ELLIPSE
  5
B854
330
1F
100
AcDbEntity
  8
0受け
100
AcDbEllipse
 10
178.1217067829479
 20
139.3336638757178
 30
0.0
 11
-9.858789742798547
 21
-0.0000178599221677
 31
0.0
210
0.0
220
0.0
230
1.0
 40
0.0366903869249898
 41
1.456911930564145
 42
2.043459032193934
  0
ARC
  5
B855
330
1F
100
AcDbEntity
  8
0受け
100
AcDbCircle
 10
182.5013705166516
 20
141.5092472821903
 30
0.0
 40
2.5
100
AcDbArc
 50
272.4905440283131
 51
0.0
  0
LINE
  5
B856
330
1F
100
AcDbEntity
  8
0受け
100
AcDbLine
 10
175.0013705166516
 20
163.4719411095312
 30
0.0
 11
178.0213927883956
 21
163.4719411095303
 31
0.0
  0
ELLIPSE
  5
B857
330
1F
100
AcDbEntity
  8
0受け
100
AcDbEllipse
 10
178.0222042549371
 20
163.1102164361005
 30
0.0
 11
-10.0779512448972
 21
0.0000283174202099
 31
0.0
210
0.0
220
0.0
230
-1.0
 40
0.0358926793285981
 41
1.570715706943621
 42
2.043428611662813
  0
ARC
  5
B858
330
1F
100
AcDbEntity
  8
0受け
100
AcDbCircle
 10
182.5013705166516
 20
160.9346349368712
 30
0.0
 40
2.5
100
AcDbArc
 50
0.0
 51
87.50945597168692
  0
ARC
  5
B859
330
1F
100
AcDbEntity
  8
0受け
370
    13
100
AcDbCircle
 10
182.5013705166525
 20
142.2219411095303
 30
0.0
 40
2.5
100
AcDbArc
 50
270.0
 51
0.0
  0
ARC
  5
B85A
330
1F
100
AcDbEntity
  8
0受け
370
    13
100
AcDbCircle
 10
182.5013705166525
 20
160.2219411095312
 30
0.0
 40
2.5
100
AcDbArc
 50
0.0
 51
90.0
  0
LINE
  5
B85B
330
1F
100
AcDbEntity
  8
0受け
 48
0.15
100
AcDbLine
 10
184.4504565374086
 20
245.7306175252109
 30
0.0
 11
184.4504565374095
 21
252.0627770914082
 31
0.0
  0
LINE
  5
B85C
330
1F
100
AcDbEntity
  8
0受け
100
AcDbLine
 10
174.4504565374077
 20
255.23061752521
 30
0.0
 11
174.4504565374095
 21
267.2306175252107
 31
0.0
  0
LINE
  5
B85D
330
1F
100
AcDbEntity
  8
0受け
100
AcDbLine
 10
185.4504565374095
 20
268.7306175252107
 30
0.0
 11
164.4504565374095
 21
268.7306175252107
 31
0.0
  0
ARC
  5
B85E
330
1F
100
AcDbEntity
  8
0受け
100
AcDbCircle
 10
175.9504565374095
 20
267.2306175252107
 30
0.0
 40
1.5
100
AcDbArc
 50
90.0
 51
180.0
1001
GENIUS_GENODEF_13
1002
{
1000
HIER
1070
     0
1002
}
1002
{
1000
MANEDIT
1070
     0
1002
}
1002
{
1000
NOSEL
1070
     0
1002
}
1002
{
1000
BEHIND
1070
     0
1002
}
1002
{
1000
OTHER
1070
     0
1002
}
1002
{
1000
REACTOR
1002
}
1001
GENIUS_GENOBJ-N-FIL_13
1002
{
1000
OWNER
1000
GEN
1002
}
  0
LINE
  5
B85F
330
1F
100
AcDbEntity
  8
0受け
100
AcDbLine
 10
186.4504565374095
 20
276.7306175252107
 30
0.0
 11
186.4504565374095
 21
269.7306175252107
 31
0.0
  0
ARC
  5
B860
330
1F
100
AcDbEntity
  8
0受け
100
AcDbCircle
 10
185.4504565374095
 20
269.7306175252107
 30
0.0
 40
1.0
100
AcDbArc
 50
270.0
 51
0.0
1001
GENIUS_GENODEF_13
1002
{
1000
HIER
1070
     0
1002
}
1002
{
1000
MANEDIT
1070
     0
1002
}
1002
{
1000
NOSEL
1070
     0
1002
}
1002
{
1000
BEHIND
1070
     0
1002
}
1002
{
1000
OTHER
1070
     0
1002
}
1002
{
1000
REACTOR
1002
}
1001
GENIUS_GENOBJ-N-FIL_13
1002
{
1000
OWNER
1000
GEN
1002
}
  0
LINE
  5
B861
330
1F
100
AcDbEntity
  8
0受け
100
AcDbLine
 10
164.4504565374095
 20
267.388053335521
 30
0.0
 11
164.4504565374095
 21
248.2306175252102
 31
0.0
  0
LINE
  5
B862
330
1F
100
AcDbEntity
  8
0受け
100
AcDbLine
 10
164.4504565374095
 20
268.7306175252107
 30
0.0
 11
148.2295934852604
 21
270.5329356421162
 31
0.0
  0
ARC
  5
B863
330
1F
100
AcDbEntity
  8
0受け
100
AcDbCircle
 10
162.9504565374095
 20
267.388053335521
 30
0.0
 40
1.5
100
AcDbArc
 50
0.0
 51
83.65980825410805
1001
GENIUS_GENOBJ-N-FIL_13
1002
{
1000
OWNER
1000
GEN
1002
}
1001
GENIUS_GENODEF_13
1002
{
1000
HIER
1070
     0
1002
}
1002
{
1000
MANEDIT
1070
     0
1002
}
1002
{
1000
NOSEL
1070
     0
1002
}
1002
{
1000
BEHIND
1070
     0
1002
}
1002
{
1000
OTHER
1070
     0
1002
}
1002
{
1000
REACTOR
1002
}
  0
LINE
  5
B864
330
1F
100
AcDbEntity
  8
0受け
100
AcDbLine
 10
146.4504565374095
 20
272.5207031114633
 30
0.0
 11
146.4504565374095
 21
276.7306175252107
 31
0.0
  0
ARC
  5
B865
330
1F
100
AcDbEntity
  8
0受け
100
AcDbCircle
 10
148.4504565374095
 20
272.5207031114633
 30
0.0
 40
2.0
100
AcDbArc
 50
180.0
 51
263.659808254108
1001
GENIUS_GENODEF_13
1002
{
1000
HIER
1070
     0
1002
}
1002
{
1000
MANEDIT
1070
     0
1002
}
1002
{
1000
NOSEL
1070
     0
1002
}
1002
{
1000
BEHIND
1070
     0
1002
}
1002
{
1000
OTHER
1070
     0
1002
}
1002
{
1000
REACTOR
1002
}
1001
GENIUS_GENOBJ-N-FIL_13
1002
{
1000
OWNER
1000
GEN
1002
}
  0
ARC
  5
B866
330
1F
100
AcDbEntity
  8
0受け
100
AcDbCircle
 10
175.4504565374077
 20
255.23061752521
 30
0.0
 40
1.0
100
AcDbArc
 50
180.0
 51
270.0
1001
GENIUS_GENODEF_13
1002
{
1000
HIER
1070
     0
1002
}
1002
{
1000
MANEDIT
1070
     0
1002
}
1002
{
1000
NOSEL
1070
     0
1002
}
1002
{
1000
BEHIND
1070
     0
1002
}
1002
{
1000
OTHER
1070
     0
1002
}
1002
{
1000
REACTOR
1002
}
1001
GENIUS_GENOBJ-N-FIL_13
1002
{
1000
OWNER
1000
GEN
1002
}
  0
ARC
  5
B867
330
1F
100
AcDbEntity
  8
0受け
100
AcDbCircle
 10
167.4504565374095
 20
248.23061752521
 30
0.0
 40
3.0
100
AcDbArc
 50
180.0
 51
270.0
1001
GENIUS_GENOBJ-N-FIL_13
1002
{
1000
OWNER
1000
GEN
1002
}
1001
GENIUS_GENODEF_13
1002
{
1000
HIER
1070
     0
1002
}
1002
{
1000
MANEDIT
1070
     0
1002
}
1002
{
1000
NOSEL
1070
     0
1002
}
1002
{
1000
BEHIND
1070
     0
1002
}
1002
{
1000
OTHER
1070
     0
1002
}
1002
{
1000
REACTOR
1002
}
  0
LINE
  5
B868
330
1F
100
AcDbEntity
  8
0受け
100
AcDbLine
 10
167.4504565374122
 20
245.23061752521
 30
0.0
 11
183.9504565374081
 21
245.2306175252109
 31
0.0
  0
ARC
  5
B869
330
1F
100
AcDbEntity
  8
0受け
 48
0.15
100
AcDbCircle
 10
183.9504565374086
 20
245.7306175252109
 30
0.0
 40
0.5
100
AcDbArc
 50
270.0
 51
0.0
1001
GENIUS_GENODEF_13
1002
{
1000
HIER
1070
     0
1002
}
1002
{
1000
MANEDIT
1070
     0
1002
}
1002
{
1000
NOSEL
1070
     0
1002
}
1002
{
1000
BEHIND
1070
     0
1002
}
1002
{
1000
OTHER
1070
     0
1002
}
1002
{
1000
REACTOR
1002
}
1001
GENIUS_GENOBJ-N-FIL_13
1002
{
1000
OWNER
1000
GEN
1002
}
  0
LINE
  5
B86A
330
1F
100
AcDbEntity
  8
0受け
100
AcDbLine
 10
177.4504565374109
 20
254.2306175252109
 30
0.0
 11
175.4504565374082
 21
254.23061752521
 31
0.0
  0
ARC
  5
B86B
330
1F
100
AcDbEntity
  8
0受け
100
AcDbCircle
 10
177.4504565374063
 20
240.2306175252109
 30
0.0
 40
14.0
100
AcDbArc
 50
61.21779531940098
 51
90.0
  0
ARC
  5
B86C
330
1F
100
AcDbEntity
  8
0受け
100
AcDbCircle
 10
183.95045653741
 20
252.0627770914082
 30
0.0
 40
0.5
100
AcDbArc
 50
0.0
 51
61.21779531940098
  0
LINE
  5
B86D
330
1F
100
AcDbEntity
  8
0受け
370
    13
100
AcDbLine
 10
174.4504565374077
 20
253.7306175252109
 30
0.0
 11
174.4504565374077
 21
255.23061752521
 31
0.0
  0
ARC
  5
B86E
330
1F
100
AcDbEntity
  8
0受け
370
    13
100
AcDbCircle
 10
177.4504565374068
 20
240.2306175252109
 30
0.0
 40
12.5
100
AcDbArc
 50
55.94420225740431
 51
90.0
  0
LINE
  5
B86F
330
1F
100
AcDbEntity
  8
0受け
370
    13
100
AcDbLine
 10
177.4504565374068
 20
252.7306175252109
 30
0.0
 11
175.4504565374077
 21
252.7306175252109
 31
0.0
  0
ARC
  5
B870
330
1F
100
AcDbEntity
  8
0受け
370
    13
100
AcDbCircle
 10
175.4504565374077
 20
253.7306175252109
 30
0.0
 40
1.0
100
AcDbArc
 50
180.0
 51
270.0
1001
GENIUS_GENOBJ-N-FIL_13
1002
{
1000
OWNER
1000
GEN
1002
}
1001
GENIUS_GENODEF_13
1002
{
1000
HIER
1070
     0
1002
}
1002
{
1000
MANEDIT
1070
     0
1002
}
1002
{
1000
NOSEL
1070
     0
1002
}
1002
{
1000
BEHIND
1070
     0
1002
}
1002
{
1000
OTHER
1070
     0
1002
}
1002
{
1000
REACTOR
1002
}
  0
DIMENSION
  5
B871
330
1F
100
AcDbEntity
  8
AM_5
100
AcDbDimension
  2
*D22
 10
180.3587994861638
 20
126.3148450664779
 30
0.0
 11
145.1898307702987
 21
99.22194110953071
 31
0.0
 70
   163
  1
3-<>×%%c6.3皿孔
 71
     5
 42
12.2000000000003
  3
SYS$3
100
AcDbDiametricDimension
 15
173.6439415471389
 25
116.129037152585
 35
0.0
 40
0.0
1001
ACAD
1000
DSTYLE
1002
{
1070
   172
1070
     1
1070
   342
1005
B610
1002
}
  0
DIMENSION
  5
B872
330
1F
100
AcDbEntity
  8
AM_5
100
AcDbDimension
  2
*D23
 10
240.3587994861638
 20
126.3148450664761
 30
0.0
 11
205.1898307702988
 21
99.22194110952885
 31
0.0
 70
   163
  1
3-<>×%%c6.3皿孔
 71
     5
 42
12.20000000000033
  3
SYS$3
100
AcDbDiametricDimension
 15
233.643941547139
 25
116.1290371525832
 35
0.0
 40
0.0
1001
ACAD
1000
DSTYLE
1002
{
1070
   172
1070
     1
1070
   342
1005
B610
1002
}
  0
ENDSEC
  0
SECTION
  2
OBJECTS
  0
DICTIONARY
  5
C
330
0
100
AcDbDictionary
281
     1
  3
ACAD_2007HEADERVARS_RT
350
BA35
  3
ACAD_BGPLOT_KEY
350
AB06
  3
ACAD_COLOR
350
A91D
  3
ACAD_GROUP
350
D
  3
ACAD_LAYOUT
350
1A
  3
ACAD_MATERIAL
350
A91C
  3
ACAD_MLINESTYLE
350
17
  3
ACAD_PLOTSETTINGS
350
19
  3
ACAD_PLOTSTYLENAME
350
E
  3
ACAD_TABLESTYLE
350
AAB9
  3
ACAD_VISUALSTYLE
350
B0F1
  3
AcAsAppObject
350
3DA1
  3
ACASGREF_MASTER
350
3DE9
  3
AcDbVariableDictionary
350
34
  3
AcmDictionary
350
47
  3
AD_GREF_MODULE
350
3DEA
  3
AD_MAPI_MODULE
350
3E06
  3
AMG
350
2B
  3
AMGSNAPSETTINGS
350
7D
  3
ASE_INDEX_DICTIONARY
350
B331
  3
DWGPROPS
350
BA34
  3
MAPISURF_MODULE
350
3DEB
  0
DICTIONARY
  5
3F95
330
2
100
AcDbDictionary
280
     1
281
     1
  3
ACAD_LAYERFILTERS
360
B523
  3
ACAD_LAYERSTATES
360
3F96
  3
ACLYDICTIONARY
360
B522
  3
AMLAYER_GROUPCOLORS
360
AAB4
  0
DICTIONARY
  5
8A
330
1F
100
AcDbDictionary
280
     1
281
     1
  3
ACAD_SORTENTS
360
B1BA
  0
DICTIONARY
  5
BA35
102
{ACAD_REACTORS
330
C
102
}
330
C
100
AcDbDictionary
281
     1
  3
DIMARCSYM
350
BA36
  0
DICTIONARY
  5
AB06
102
{ACAD_REACTORS
330
C
102
}
330
C
100
AcDbDictionary
280
     1
281
     1
  0
DICTIONARY
  5
A91D
102
{ACAD_REACTORS
330
C
102
}
330
C
100
AcDbDictionary
281
     1
  0
DICTIONARY
  5
D
102
{ACAD_REACTORS
330
C
102
}
330
C
100
AcDbDictionary
281
     1
  0
DICTIONARY
  5
1A
102
{ACAD_REACTORS
330
C
102
}
330
C
100
AcDbDictionary
281
     1
  3
Model
350
22
  3
ﾚｲｱｳﾄ1
350
1E
  3
ﾚｲｱｳﾄ2
350
26
  0
DICTIONARY
  5
A91C
102
{ACAD_REACTORS
330
C
102
}
330
C
100
AcDbDictionary
281
     1
  3
ByBlock
350
B0EF
  3
ByLayer
350
B0EE
  3
Global
350
B0F0
  0
DICTIONARY
  5
17
102
{ACAD_REACTORS
330
C
102
}
330
C
100
AcDbDictionary
281
     1
  3
Standard
350
18
  0
DICTIONARY
  5
19
102
{ACAD_REACTORS
330
C
102
}
330
C
100
AcDbDictionary
281
     1
  0
ACDBDICTIONARYWDFLT
  5
E
102
{ACAD_REACTORS
330
C
102
}
330
C
100
AcDbDictionary
281
     1
  3
Normal
350
F
100
AcDbDictionaryWithDefault
340
F
  0
DICTIONARY
  5
AAB9
102
{ACAD_REACTORS
330
C
102
}
330
C
100
AcDbDictionary
281
     1
  3
Standard
350
AABA
  0
DICTIONARY
  5
B0F1
102
{ACAD_REACTORS
330
C
102
}
330
C
100
AcDbDictionary
281
     1
  3
2dWireframe
350
B0F7
  3
3D Hidden
350
B0F9
  3
3dWireframe
350
B0F8
  3
Basic
350
B0F6
  3
Brighten
350
B0FD
  3
ColorChange
350
B101
  3
Conceptual
350
B0FA
  3
Dim
350
B0FC
  3
Facepattern
350
B100
  3
Flat
350
B0F2
  3
FlatWithEdges
350
B0F3
  3
Gouraud
350
B0F4
  3
GouraudWithEdges
350
B0F5
  3
Linepattern
350
B0FF
  3
Realistic
350
B0FB
  3
Thicken
350
B0FE
  0
ACAD_PROXY_OBJECT
  5
3DA1
102
{ACAD_REACTORS
330
C
102
}
330
C
100
AcDbProxyObject
 90
      499
 91
      576
 95
   917527
 70
     0
 93
       10
310
407F
 94
        0
1001
ACAD
1000
AcRTDxfName
1000
ASAPP
  0
ACAD_PROXY_OBJECT
  5
3DE9
102
{ACAD_REACTORS
330
C
102
}
330
C
100
AcDbProxyObject
 90
      499
 91
      581
 95
   917527
 70
     0
 93
       34
310
010000407F
 94
        0
1001
ACAD
1000
AcRTDxfName
1000
ACASGREFMASTER
  0
DICTIONARY
  5
34
102
{ACAD_REACTORS
330
C
102
}
330
C
100
AcDbDictionary
281
     1
  3
CTABLESTYLE
350
AAF3
  3
DIMASSOC
350
A10C
  3
FIELDEVAL
350
AB07
  3
INDEXCTL
350
35
  3
SORTENTS
350
194C
  0
DICTIONARY
  5
47
102
{ACAD_REACTORS
330
C
102
}
330
C
100
AcDbDictionary
281
     1
  3
AcmBOM
350
7E8
  3
AcmStdDictionary
350
4C
  3
AMDTSECTSYM_ARROWCOLOR
350
A929
  0
ACAD_PROXY_OBJECT
  5
3DEA
102
{ACAD_REACTORS
330
C
102
}
330
C
100
AcDbProxyObject
 90
      499
 91
      582
 95
   917527
 70
     0
 93
      114
310
00000043800000000000000000003F
 94
        0
1001
ACAD
1000
AcRTDxfName
1000
ACADGREFMODULE
  0
ACAD_PROXY_OBJECT
  5
3E06
102
{ACAD_REACTORS
330
C
102
}
330
C
100
AcDbProxyObject
 90
      499
 91
      594
 95
   917527
 70
     0
 93
       34
310
05000044FF
 94
        0
1001
ACAD
1000
AcRTDxfName
1000
MAPIADMODULE
  0
DICTIONARY
  5
2B
102
{ACAD_REACTORS
330
C
102
}
330
C
100
AcDbDictionary
281
     1
  0
DICTIONARY
  5
7D
102
{ACAD_REACTORS
330
C
102
}
330
C
100
AcDbDictionary
281
     1
  0
DICTIONARY
  5
B331
102
{ACAD_REACTORS
330
C
102
}
330
C
100
AcDbDictionary
281
     1
  3
ASEBlockHierarchyIndexRecord
350
B332
1001
DCO15
1040
1594111214.218
  0
XRECORD
  5
BA34
102
{ACAD_REACTORS
330
C
102
}
330
C
100
AcDbXrecord
280
     1
  1
DWGPROPS COOKIE
  2

  3

  4

  6

  7

  8
Administrator
  9

300
AmdtFileType=84
301
=
302
=
303
=
304
=
305
=
306
=
307
=
308
=
309
=
 40
0.0021191435185185
 41
2456191.438801169
 42
2456268.705266111
  1

 90
        1
  0
ACAD_PROXY_OBJECT
  5
3DEB
102
{ACAD_REACTORS
330
C
102
}
330
C
100
AcDbProxyObject
 90
      499
 91
      583
 95
   917527
 70
     0
 93
        8
310
047E
 94
        0
1001
ACAD
1000
AcRTDxfName
1000
AMDTMAPISURFMOUDULE
  0
DICTIONARY
  5
B523
102
{ACAD_REACTORS
330
3F95
102
}
330
3F95
100
AcDbDictionary
281
     1
  0
DICTIONARY
  5
3F96
102
{ACAD_REACTORS
330
3F95
102
}
330
3F95
100
AcDbDictionary
281
     1
  3
20011210
350
3FB7
  0
DICTIONARY
  5
B522
102
{ACAD_REACTORS
330
3F95
102
}
330
3F95
100
AcDbDictionary
281
     1
1001
ACAD
1000
<All
  0
DICTIONARY
  5
AAB4
102
{ACAD_REACTORS
330
3F95
102
}
330
3F95
100
AcDbDictionary
280
     1
281
     1
  0
SORTENTSTABLE
  5
B1BA
102
{ACAD_REACTORS
330
8A
102
}
330
8A
100
AcDbSortentsTable
330
1F
  0
XRECORD
  5
BA36
102
{ACAD_REACTORS
330
BA35
102
}
330
BA35
100
AcDbXrecord
280
     1
 70
     1
  0
LAYOUT
  5
22
102
{ACAD_XDICTIONARY
360
BA39
102
}
102
{ACAD_REACTORS
330
1A
102
}
330
1A
100
AcDbPlotSettings
  1

  2
Adobe PDF
  4
A3
  6
AM_VIEW1
 40
3.174999952316284
 41
3.174999952316284
 42
3.17498779296875
 43
3.17498779296875
 44
297.0318298339844
 45
420.1583251953125
 46
-3.220765701965092
 47
-3.219149827468527
 48
214.3704939521119
 49
367.5855324241176
140
275.6727856380065
141
407.629191407817
142
1.0
143
1.0
 70
  3748
 72
     1
 73
     1
 74
     1
  7
monochrome.ctb
 75
     0
147
0.9783203477794049
148
0.1219319179767808
149
0.1133950238267971
100
AcDbLayout
  1
Model
 70
     1
 71
     0
 10
0.0
 20
0.0
 11
12.0
 21
9.0
 12
0.0
 22
0.0
 32
0.0
 14
0.0
 24
0.0
 34
0.0
 15
0.0
 25
0.0
 35
0.0
146
0.0
 13
0.0
 23
0.0
 33
0.0
 16
1.0
 26
0.0
 36
0.0
 17
0.0
 27
1.0
 37
0.0
 76
     0
330
1F
331
B0EC
1001
ACAD_PSEXT
1000
Adobe PDF
1000
Adobe PDF Converter
1000
My Documents\*.pdf
1000

1070
     0
  0
LAYOUT
  5
1E
102
{ACAD_XDICTIONARY
360
BA37
102
}
102
{ACAD_REACTORS
330
1A
102
}
330
1A
100
AcDbPlotSettings
  1

  2
\\ML370\XEROX
  4
A4
  6

 40
3.174999952316284
 41
3.174999952316284
 42
3.175003051757812
 43
3.17498779296875
 44
209.8674926757813
 45
296.6719970703125
 46
0.0
 47
0.0
 48
0.0
 49
0.0
140
0.0
141
0.0
142
1.0
143
1.0
 70
   688
 72
     1
 73
     1
 74
     5
  7
monochrome.ctb
 75
    16
147
1.0
148
0.0
149
0.0
100
AcDbLayout
  1
ﾚｲｱｳﾄ1
 70
     1
 71
     1
 10
-3.17498779296875
 20
-3.174999952316284
 11
293.4970092773438
 21
206.692492723465
 12
0.0
 22
0.0
 32
0.0
 14
1.000000000000000E+20
 24
1.000000000000000E+20
 34
1.000000000000000E+20
 15
-1.000000000000000E+20
 25
-1.000000000000000E+20
 35
-1.000000000000000E+20
146
0.0
 13
0.0
 23
0.0
 33
0.0
 16
1.0
 26
0.0
 36
0.0
 17
0.0
 27
1.0
 37
0.0
 76
     0
330
1B
  0
LAYOUT
  5
26
102
{ACAD_XDICTIONARY
360
BA3B
102
}
102
{ACAD_REACTORS
330
1A
102
}
330
1A
100
AcDbPlotSettings
  1

  2
\\ML370\XEROX
  4

  6

 40
0.0
 41
0.0
 42
0.0
 43
0.0
 44
0.0
 45
0.0
 46
0.0
 47
0.0
 48
0.0
 49
0.0
140
0.0
141
0.0
142
1.0
143
1.0
 70
   688
 72
     0
 73
     0
 74
     5
  7
monochrome.ctb
 75
    16
147
1.0
148
0.0
149
0.0
100
AcDbLayout
  1
ﾚｲｱｳﾄ2
 70
     1
 71
     2
 10
0.0
 20
0.0
 11
12.0
 21
9.0
 12
0.0
 22
0.0
 32
0.0
 14
0.0
 24
0.0
 34
0.0
 15
0.0
 25
0.0
 35
0.0
146
0.0
 13
0.0
 23
0.0
 33
0.0
 16
1.0
 26
0.0
 36
0.0
 17
0.0
 27
1.0
 37
0.0
 76
     0
330
23
  0
MATERIAL
  5
B0EF
102
{ACAD_XDICTIONARY
360
BA41
102
}
102
{ACAD_REACTORS
330
A91C
102
}
330
A91C
100
AcDbMaterial
  1
ByBlock
  0
MATERIAL
  5
B0EE
102
{ACAD_XDICTIONARY
360
BA3F
102
}
102
{ACAD_REACTORS
330
A91C
102
}
330
A91C
100
AcDbMaterial
  1
ByLayer
  0
MATERIAL
  5
B0F0
102
{ACAD_XDICTIONARY
360
BA43
102
}
102
{ACAD_REACTORS
330
A91C
102
}
330
A91C
100
AcDbMaterial
  1
Global
  0
MLINESTYLE
  5
18
102
{ACAD_REACTORS
330
17
102
}
330
17
100
AcDbMlineStyle
  2
STANDARD
 70
     0
  3

 62
   256
 51
90.0
 52
90.0
 71
     2
 49
0.5
 62
   256
  6
BYLAYER
 49
-0.5
 62
   256
  6
BYLAYER
  0
ACDBPLACEHOLDER
  5
F
102
{ACAD_REACTORS
330
E
102
}
330
E
  0
TABLESTYLE
  5
AABA
102
{ACAD_XDICTIONARY
360
BA3D
102
}
102
{ACAD_REACTORS
330
AAB9
102
}
330
AAB9
100
AcDbTableStyle
  3
Standard
 70
     0
 71
     0
 40
1.5
 41
1.5
280
     0
281
     0
  7
STANDARD
140
4.5
170
     2
 62
     0
 63
     7
283
     0
274
    -2
284
     1
 64
     0
275
    -2
285
     1
 65
     0
276
    -2
286
     1
 66
     0
277
    -2
287
     1
 67
     0
278
    -2
288
     1
 68
     0
279
    -2
289
     1
 69
     0
  7
STANDARD
140
6.0
170
     5
 62
     0
 63
     7
283
     0
274
    -2
284
     1
 64
     0
275
    -2
285
     1
 65
     0
276
    -2
286
     1
 66
     0
277
    -2
287
     1
 67
     0
278
    -2
288
     1
 68
     0
279
    -2
289
     1
 69
     0
  7
STANDARD
140
4.5
170
     5
 62
     0
 63
     7
283
     0
274
    -2
284
     1
 64
     0
275
    -2
285
     1
 65
     0
276
    -2
286
     1
 66
     0
277
    -2
287
     1
 67
     0
278
    -2
288
     1
 68
     0
279
    -2
289
     1
 69
     0
  0
VISUALSTYLE
  5
B0F7
102
{ACAD_REACTORS
330
B0F1
102
}
330
B0F1
100
AcDbVisualStyle
  2
2dWireframe
 70
     4
 71
     0
 72
     2
 73
     0
 90
        0
 40
-0.6
 41
-30.0
 62
     5
 63
     7
 74
     1
 91
        4
 64
     7
 65
   257
 75
     1
175
     1
 42
1.0
 92
        0
 66
   257
 43
1.0
 76
     1
 77
     6
 78
     2
 67
     7
 79
     5
170
     0
171
     0
290
     0
174
     0
 93
        1
 44
0.0
173
     0
291
     0
 45
0.0
1001
ACAD
1000
AcDbSavedByObjectVersion
1070
     0
  0
VISUALSTYLE
  5
B0F9
102
{ACAD_REACTORS
330
B0F1
102
}
330
B0F1
100
AcDbVisualStyle
  2
3D Hidden
 70
     6
 71
     1
 72
     2
 73
     2
 90
        0
 40
-0.6
 41
-30.0
 62
     5
 63
     7
 74
     2
 91
        2
 64
     7
 65
   257
 75
     2
175
     1
 42
40.0
 92
        0
 66
   257
 43
1.0
 76
     1
 77
     6
 78
     2
 67
     7
 79
     3
170
     0
171
     0
290
     0
174
     0
 93
        1
 44
0.0
173
     0
291
     0
 45
0.0
1001
ACAD
1000
AcDbSavedByObjectVersion
1070
     0
  0
VISUALSTYLE
  5
B0F8
102
{ACAD_REACTORS
330
B0F1
102
}
330
B0F1
100
AcDbVisualStyle
  2
3dWireframe
 70
     5
 71
     0
 72
     2
 73
     0
 90
        0
 40
-0.6
 41
-30.0
 62
     5
 63
     7
 74
     1
 91
        4
 64
     7
 65
   257
 75
     1
175
     1
 42
1.0
 92
        0
 66
   257
 43
1.0
 76
     1
 77
     6
 78
     2
 67
     7
 79
     5
170
     0
171
     0
290
     0
174
     0
 93
        1
 44
0.0
173
     0
291
     0
 45
0.0
1001
ACAD
1000
AcDbSavedByObjectVersion
1070
     0
  0
VISUALSTYLE
  5
B0F6
102
{ACAD_REACTORS
330
B0F1
102
}
330
B0F1
100
AcDbVisualStyle
  2
Basic
 70
     7
 71
     1
 72
     0
 73
     1
 90
        0
 40
-0.6
 41
-30.0
 62
     5
 63
     7
 74
     0
 91
        4
 64
     7
 65
   257
 75
     1
175
     1
 42
1.0
 92
        8
 66
     7
 43
1.0
 76
     1
 77
     6
 78
     2
 67
     7
 79
     5
170
     0
171
     0
290
     0
174
     0
 93
        1
 44
0.0
173
     0
291
     1
 45
0.0
1001
ACAD
1000
AcDbSavedByObjectVersion
1070
     0
  0
VISUALSTYLE
  5
B0FD
102
{ACAD_REACTORS
330
B0F1
102
}
330
B0F1
100
AcDbVisualStyle
  2
Brighten
 70
    12
 71
     2
 72
     2
 73
     0
 90
        0
 40
-0.6
 41
-30.0
 62
     5
 63
     7
 74
     1
 91
        4
 64
     7
 65
   257
 75
     1
175
     1
 42
1.0
 92
        8
 66
     7
 43
1.0
 76
     1
 77
     6
 78
     2
 67
     7
 79
     5
170
     0
171
     0
290
     0
174
     0
 93
        1
 44
50.0
173
     0
291
     1
 45
0.0
1001
ACAD
1000
AcDbSavedByObjectVersion
1070
     0
  0
VISUALSTYLE
  5
B101
102
{ACAD_REACTORS
330
B0F1
102
}
330
B0F1
100
AcDbVisualStyle
  2
ColorChange
 70
    16
 71
     2
 72
     2
 73
     3
 90
        0
 40
-0.6
 41
-30.0
 62
     5
 63
     8
 74
     1
 91
        4
 64
     7
 65
   257
 75
     1
175
     1
 42
1.0
 92
        8
 66
     8
 43
1.0
 76
     1
 77
     6
 78
     2
 67
     7
 79
     5
170
     0
171
     0
290
     0
174
     0
 93
        1
 44
0.0
173
     0
291
     1
 45
0.0
1001
ACAD
1000
AcDbSavedByObjectVersion
1070
     0
  0
VISUALSTYLE
  5
B0FA
102
{ACAD_REACTORS
330
B0F1
102
}
330
B0F1
100
AcDbVisualStyle
  2
Conceptual
 70
     9
 71
     3
 72
     2
 73
     0
 90
        0
 40
-0.6
 41
-30.0
 62
     5
 63
     7
 74
     2
 91
        2
 64
     7
 65
   257
 75
     1
175
     1
 42
40.0
 92
        8
 66
     7
 43
1.0
 76
     1
 77
     6
 78
     2
 67
     7
 79
     3
170
     0
171
     0
290
     0
174
     0
 93
        1
 44
0.0
173
     0
291
     0
 45
0.0
1001
ACAD
1000
AcDbSavedByObjectVersion
1070
     0
  0
VISUALSTYLE
  5
B0FC
102
{ACAD_REACTORS
330
B0F1
102
}
330
B0F1
100
AcDbVisualStyle
  2
Dim
 70
    11
 71
     2
 72
     2
 73
     0
 90
        0
 40
-0.6
 41
-30.0
 62
     5
 63
     7
 74
     1
 91
        4
 64
     7
 65
   257
 75
     1
175
     1
 42
1.0
 92
        8
 66
     7
 43
1.0
 76
     1
 77
     6
 78
     2
 67
     7
 79
     5
170
     0
171
     0
290
     0
174
     0
 93
        1
 44
-50.0
173
     0
291
     1
 45
0.0
1001
ACAD
1000
AcDbSavedByObjectVersion
1070
     0
  0
VISUALSTYLE
  5
B100
102
{ACAD_REACTORS
330
B0F1
102
}
330
B0F1
100
AcDbVisualStyle
  2
Facepattern
 70
    15
 71
     2
 72
     2
 73
     0
 90
        0
 40
-0.6
 41
-30.0
 62
     5
 63
     7
 74
     1
 91
        4
 64
     7
 65
   257
 75
     1
175
     1
 42
1.0
 92
        8
 66
     7
 43
1.0
 76
     1
 77
     6
 78
     2
 67
     7
 79
     5
170
     0
171
     0
290
     0
174
     0
 93
        1
 44
0.0
173
     0
291
     1
 45
0.0
1001
ACAD
1000
AcDbSavedByObjectVersion
1070
     0
  0
VISUALSTYLE
  5
B0F2
102
{ACAD_REACTORS
330
B0F1
102
}
330
B0F1
100
AcDbVisualStyle
  2
Flat
 70
     0
 71
     2
 72
     1
 73
     1
 90
        2
 40
-0.6
 41
30.0
 62
     5
 63
     7
 74
     0
 91
        4
 64
     7
 65
   257
 75
     1
175
     1
 42
1.0
 92
        8
 66
     7
 43
1.0
 76
     1
 77
     6
 78
     2
 67
     7
 79
     5
170
     0
171
     0
290
     0
174
     0
 93
       13
 44
0.0
173
     0
291
     1
 45
0.0
1001
ACAD
1000
AcDbSavedByObjectVersion
1070
     0
  0
VISUALSTYLE
  5
B0F3
102
{ACAD_REACTORS
330
B0F1
102
}
330
B0F1
100
AcDbVisualStyle
  2
FlatWithEdges
 70
     1
 71
     2
 72
     1
 73
     1
 90
        2
 40
-0.6
 41
30.0
 62
     5
 63
     7
 74
     1
 91
        4
 64
     7
 65
   257
 75
     1
175
     1
 42
1.0
 92
        0
 66
   257
 43
1.0
 76
     1
 77
     6
 78
     2
 67
     7
 79
     5
170
     0
171
     0
290
     0
174
     0
 93
       13
 44
0.0
173
     0
291
     1
 45
0.0
1001
ACAD
1000
AcDbSavedByObjectVersion
1070
     0
  0
VISUALSTYLE
  5
B0F4
102
{ACAD_REACTORS
330
B0F1
102
}
330
B0F1
100
AcDbVisualStyle
  2
Gouraud
 70
     2
 71
     2
 72
     2
 73
     1
 90
        2
 40
-0.6
 41
30.0
 62
     5
 63
     7
 74
     0
 91
        4
 64
     7
 65
   257
 75
     1
175
     1
 42
1.0
 92
        0
 66
     7
 43
1.0
 76
     1
 77
     6
 78
     2
 67
     7
 79
     5
170
     0
171
     0
290
     0
174
     0
 93
       13
 44
0.0
173
     0
291
     1
 45
0.0
1001
ACAD
1000
AcDbSavedByObjectVersion
1070
     0
  0
VISUALSTYLE
  5
B0F5
102
{ACAD_REACTORS
330
B0F1
102
}
330
B0F1
100
AcDbVisualStyle
  2
GouraudWithEdges
 70
     3
 71
     2
 72
     2
 73
     1
 90
        2
 40
-0.6
 41
30.0
 62
     5
 63
     7
 74
     1
 91
        4
 64
     7
 65
   257
 75
     1
175
     1
 42
1.0
 92
        0
 66
   257
 43
1.0
 76
     1
 77
     6
 78
     2
 67
     7
 79
     5
170
     0
171
     0
290
     0
174
     0
 93
       13
 44
0.0
173
     0
291
     1
 45
0.0
1001
ACAD
1000
AcDbSavedByObjectVersion
1070
     0
  0
VISUALSTYLE
  5
B0FF
102
{ACAD_REACTORS
330
B0F1
102
}
330
B0F1
100
AcDbVisualStyle
  2
Linepattern
 70
    14
 71
     2
 72
     2
 73
     0
 90
        0
 40
-0.6
 41
-30.0
 62
     5
 63
     7
 74
     1
 91
        4
 64
     7
 65
   257
 75
     7
175
     7
 42
1.0
 92
        8
 66
     7
 43
1.0
 76
     1
 77
     6
 78
     2
 67
     7
 79
     5
170
     0
171
     0
290
     0
174
     0
 93
        1
 44
0.0
173
     0
291
     1
 45
0.0
1001
ACAD
1000
AcDbSavedByObjectVersion
1070
     0
  0
VISUALSTYLE
  5
B0FB
102
{ACAD_REACTORS
330
B0F1
102
}
330
B0F1
100
AcDbVisualStyle
  2
Realistic
 70
     8
 71
     2
 72
     2
 73
     0
 90
        0
 40
-0.6
 41
-30.0
 62
     5
 63
     7
 74
     1
 91
        0
 64
     7
 65
   257
 75
     1
175
     1
 42
1.0
 92
        8
 66
     8
 43
1.0
 76
     1
 77
     6
 78
     2
 67
     7
 79
     5
170
     0
171
     0
290
     0
174
     0
 93
       13
 44
0.0
173
     0
291
     0
 45
0.0
1001
ACAD
1000
AcDbSavedByObjectVersion
1070
     0
  0
VISUALSTYLE
  5
B0FE
102
{ACAD_REACTORS
330
B0F1
102
}
330
B0F1
100
AcDbVisualStyle
  2
Thicken
 70
    13
 71
     2
 72
     2
 73
     0
 90
        0
 40
-0.6
 41
-30.0
 62
     5
 63
     7
 74
     1
 91
        4
 64
     7
 65
   257
 75
     1
175
     1
 42
1.0
 92
       12
 66
     7
 43
1.0
 76
     1
 77
     6
 78
     2
 67
     7
 79
     5
170
     0
171
     0
290
     0
174
     0
 93
        1
 44
0.0
173
     0
291
     1
 45
0.0
1001
ACAD
1000
AcDbSavedByObjectVersion
1070
     0
  0
DICTIONARYVAR
  5
AAF3
102
{ACAD_REACTORS
330
34
102
}
330
34
100
DictionaryVariables
280
     0
  1
STANDARD
  0
DICTIONARYVAR
  5
A10C
102
{ACAD_REACTORS
330
34
102
}
330
34
100
DictionaryVariables
280
     0
  1
1
  0
DICTIONARYVAR
  5
AB07
102
{ACAD_REACTORS
330
34
102
}
330
34
100
DictionaryVariables
280
     0
  1
4
  0
DICTIONARYVAR
  5
35
102
{ACAD_REACTORS
330
34
102
}
330
34
100
DictionaryVariables
280
     0
  1
0
  0
DICTIONARYVAR
  5
194C
102
{ACAD_REACTORS
330
34
102
}
330
34
100
DictionaryVariables
280
     0
  1
96
  0
DICTIONARY
  5
7E8
102
{ACAD_REACTORS
330
47
102
}
330
47
100
AcDbDictionary
281
     1
  0
DICTIONARY
  5
4C
102
{ACAD_REACTORS
330
47
102
}
330
47
100
AcDbDictionary
281
     1
  0
XRECORD
  5
A929
102
{ACAD_REACTORS
330
47
102
}
330
47
100
AcDbXrecord
280
     1
 90
-1023410169
  0
XRECORD
  5
B332
102
{ACAD_REACTORS
330
B331
102
}
330
B331
100
AcDbXrecord
280
     1
  0
XRECORD
  5
3FB7
102
{ACAD_REACTORS
330
3F96
102
}
330
3F96
100
AcDbXrecord
280
     1
 91
        3
330
0
 90
        8
 62
     7
370
    40
331
16
  1
Color_7
330
0
 90
        0
 62
    14
370
    -3
331
16
  1
Color_14
330
0
 90
        8
 62
     7
370
    20
331
16
  1
Color_7
330
6D1
 90
        0
 62
     7
370
    -3
331
16
  1
Color_7
330
0
 90
        8
 62
     7
370
    50
331
16
  1
Color_7
330
0
 90
        8
 62
     2
370
    35
331
16
  1
Color_2
330
0
 90
        8
 62
     7
370
    -3
331
16
  1
Color_7
330
10
 90
        8
 62
     7
370
    -3
331
16
  1
Color_7
  0
DICTIONARY
  5
BA39
330
22
100
AcDbDictionary
280
     1
281
     1
  3
ACAD_XREC_ROUNDTRIP
360
BA3A
  0
DICTIONARY
  5
BA37
330
1E
100
AcDbDictionary
280
     1
281
     1
  3
ACAD_XREC_ROUNDTRIP
360
BA38
  0
DICTIONARY
  5
BA3B
330
26
100
AcDbDictionary
280
     1
281
     1
  3
ACAD_XREC_ROUNDTRIP
360
BA3C
  0
DICTIONARY
  5
BA41
330
B0EF
100
AcDbDictionary
280
     1
281
     1
  3
ACAD_XREC_ROUNDTRIP
360
BA42
  0
DICTIONARY
  5
BA3F
330
B0EE
100
AcDbDictionary
280
     1
281
     1
  3
ACAD_XREC_ROUNDTRIP
360
BA40
  0
DICTIONARY
  5
BA43
330
B0F0
100
AcDbDictionary
280
     1
281
     1
  3
ACAD_XREC_ROUNDTRIP
360
BA44
  0
DICTIONARY
  5
BA3D
330
AABA
100
AcDbDictionary
280
     1
281
     1
  3
ACAD_XREC_ROUNDTRIP
360
BA3E
  0
XRECORD
  5
BA3A
102
{ACAD_REACTORS
330
BA39
102
}
330
BA39
100
AcDbXrecord
280
     1
102
SHADEPLOT
 70
     0
102
SHADEPLOTRESLEVEL
 70
     2
102
SHADEPLOTCUSTOMDPI
 70
   200
  0
XRECORD
  5
BA38
102
{ACAD_REACTORS
330
BA37
102
}
330
BA37
100
AcDbXrecord
280
     1
102
SHADEPLOT
 70
     0
102
SHADEPLOTRESLEVEL
 70
     2
102
SHADEPLOTCUSTOMDPI
 70
   300
  0
XRECORD
  5
BA3C
102
{ACAD_REACTORS
330
BA3B
102
}
330
BA3B
100
AcDbXrecord
280
     1
102
SHADEPLOT
 70
     0
102
SHADEPLOTRESLEVEL
 70
     2
102
SHADEPLOTCUSTOMDPI
 70
   300
  0
XRECORD
  5
BA42
102
{ACAD_REACTORS
330
BA41
102
}
330
BA41
100
AcDbXrecord
280
     1
102
MATERIAL
148
0.0
149
0.0
149
0.0
 93
        0
 94
       63
282
     0
 72
     1
 77
     1
171
     1
175
     1
179
     1
273
     0
  0
XRECORD
  5
BA40
102
{ACAD_REACTORS
330
BA3F
102
}
330
BA3F
100
AcDbXrecord
280
     1
102
MATERIAL
148
0.0
149
0.0
149
0.0
 93
        0
 94
       63
282
     0
 72
     1
 77
     1
171
     1
175
     1
179
     1
273
     0
  0
XRECORD
  5
BA44
102
{ACAD_REACTORS
330
BA43
102
}
330
BA43
100
AcDbXrecord
280
     1
102
MATERIAL
148
0.0
149
0.0
149
0.0
 93
        0
 94
       63
282
     0
 72
     1
 77
     1
171
     1
175
     1
179
     1
273
     0
  0
XRECORD
  5
BA3E
102
{ACAD_REACTORS
330
BA3D
102
}
330
BA3D
100
AcDbXrecord
280
     1
102
ACAD_ROUNDTRIP_PRE2007_TABLESTYLE
 90
        4
 91
        0
  1

 92
        4
 93
        0
  2

 94
        4
 95
        0
  3

  0
ENDSEC
  0
EOF
