  0
SECTION
  2
HEADER
  9
$ACADVER
  1
AC1015
  9
$ACADMAINTVER
 70
    20
  9
$DWGCODEPAGE
  3
ANSI_932
  9
$INSBASE
 10
0.0
 20
0.0
 30
0.0
  9
$EXTMIN
 10
-0.0064041928748111
 20
-0.004528679247187
 30
-0.0000000000112498
  9
$EXTMAX
 10
420.0064100605656
 20
297.0045328285427
 30
0.0000000000002956
  9
$LIMMIN
 10
0.0
 20
0.0
  9
$LIMMAX
 10
420.0
 20
297.0
  9
$ORTHOMODE
 70
     0
  9
$REGENMODE
 70
     1
  9
$FILLMODE
 70
     1
  9
$QTEXTMODE
 70
     0
  9
$MIRRTEXT
 70
     0
  9
$LTSCALE
 40
1.0
  9
$ATTMODE
 70
     1
  9
$TEXTSIZE
 40
3.2
  9
$TRACEWID
 40
1.0
  9
$TEXTSTYLE
  7
STANDARD
  9
$CLAYER
  8
AM_0
  9
$CELTYPE
  6
ByLayer
  9
$CECOLOR
 62
   256
  9
$CELTSCALE
 40
1.0
  9
$DISPSILH
 70
     0
  9
$DIMSCALE
 40
1.0
  9
$DIMASZ
 40
1.0
  9
$DIMEXO
 40
1.0
  9
$DIMDLI
 40
10.0
  9
$DIMRND
 40
0.0
  9
$DIMDLE
 40
0.0
  9
$DIMEXE
 40
1.0
  9
$DIMTP
 40
0.1
  9
$DIMTM
 40
0.1
  9
$DIMTXT
 40
3.5
  9
$DIMCEN
 40
0.0
  9
$DIMTSZ
 40
0.0
  9
$DIMTOL
 70
     0
  9
$DIMLIM
 70
     0
  9
$DIMTIH
 70
     0
  9
$DIMTOH
 70
     0
  9
$DIMSE1
 70
     0
  9
$DIMSE2
 70
     0
  9
$DIMTAD
 70
     1
  9
$DIMZIN
 70
     8
  9
$DIMBLK
  1

  9
$DIMASO
 70
     1
  9
$DIMSHO
 70
     1
  9
$DIMPOST
  1

  9
$DIMAPOST
  1
"
  9
$DIMALT
 70
     0
  9
$DIMALTD
 70
     2
  9
$DIMALTF
 40
0.0393701
  9
$DIMLFAC
 40
1.0
  9
$DIMTOFL
 70
     1
  9
$DIMTVP
 40
0.0
  9
$DIMTIX
 70
     0
  9
$DIMSOXD
 70
     0
  9
$DIMSAH
 70
     0
  9
$DIMBLK1
  1

  9
$DIMBLK2
  1

  9
$DIMSTYLE
  2
SYS
  9
$DIMCLRD
 70
   256
  9
$DIMCLRE
 70
   256
  9
$DIMCLRT
 70
     7
  9
$DIMTFAC
 40
0.71
  9
$DIMGAP
 40
1.5
  9
$DIMJUST
 70
     0
  9
$DIMSD1
 70
     0
  9
$DIMSD2
 70
     0
  9
$DIMTOLJ
 70
     0
  9
$DIMTZIN
 70
     8
  9
$DIMALTZ
 70
     0
  9
$DIMALTTZ
 70
     0
  9
$DIMUPT
 70
     0
  9
$DIMDEC
 70
     2
  9
$DIMTDEC
 70
     2
  9
$DIMALTU
 70
     2
  9
$DIMALTTD
 70
     2
  9
$DIMTXSTY
  7
STANDARD
  9
$DIMAUNIT
 70
     0
  9
$DIMADEC
 70
     2
  9
$DIMALTRND
 40
0.0
  9
$DIMAZIN
 70
     2
  9
$DIMDSEP
 70
    46
  9
$DIMATFIT
 70
     3
  9
$DIMFRAC
 70
     0
  9
$DIMLDRBLK
  1

  9
$DIMLUNIT
 70
     2
  9
$DIMLWD
 70
    -1
  9
$DIMLWE
 70
    -1
  9
$DIMTMOVE
 70
     0
  9
$LUNITS
 70
     2
  9
$LUPREC
 70
     2
  9
$SKETCHINC
 40
1.0
  9
$FILLETRAD
 40
0.0
  9
$AUNITS
 70
     0
  9
$AUPREC
 70
     0
  9
$MENU
  1
.
  9
$ELEVATION
 40
0.0
  9
$PELEVATION
 40
0.0
  9
$THICKNESS
 40
0.0
  9
$LIMCHECK
 70
     0
  9
$CHAMFERA
 40
0.0
  9
$CHAMFERB
 40
0.0
  9
$CHAMFERC
 40
20.0
  9
$CHAMFERD
 40
0.0
  9
$SKPOLY
 70
     0
  9
$TDCREATE
 40
2456139.787518079
  9
$TDUCREATE
 40
2456139.412518079
  9
$TDUPDATE
 40
2456266.809293067
  9
$TDUUPDATE
 40
2456266.434293067
  9
$TDINDWG
 40
0.0465447801
  9
$TDUSRTIMER
 40
0.0465445949
  9
$USRTIMER
 70
     1
  9
$ANGBASE
 50
0.0
  9
$ANGDIR
 70
     0
  9
$PDMODE
 70
     0
  9
$PDSIZE
 40
-3.0
  9
$PLINEWID
 40
0.0
  9
$SPLFRAME
 70
     0
  9
$SPLINETYPE
 70
     6
  9
$SPLINESEGS
 70
     8
  9
$HANDSEED
  5
E433
  9
$SURFTAB1
 70
     6
  9
$SURFTAB2
 70
     6
  9
$SURFTYPE
 70
     6
  9
$SURFU
 70
     6
  9
$SURFV
 70
     6
  9
$UCSBASE
  2

  9
$UCSNAME
  2

  9
$UCSORG
 10
0.0
 20
0.0
 30
0.0
  9
$UCSXDIR
 10
1.0
 20
0.0
 30
0.0
  9
$UCSYDIR
 10
0.0
 20
1.0
 30
0.0
  9
$UCSORTHOREF
  2

  9
$UCSORTHOVIEW
 70
     0
  9
$UCSORGTOP
 10
0.0
 20
0.0
 30
0.0
  9
$UCSORGBOTTOM
 10
0.0
 20
0.0
 30
0.0
  9
$UCSORGLEFT
 10
0.0
 20
0.0
 30
0.0
  9
$UCSORGRIGHT
 10
0.0
 20
0.0
 30
0.0
  9
$UCSORGFRONT
 10
0.0
 20
0.0
 30
0.0
  9
$UCSORGBACK
 10
0.0
 20
0.0
 30
0.0
  9
$PUCSBASE
  2

  9
$PUCSNAME
  2

  9
$PUCSORG
 10
0.0
 20
0.0
 30
0.0
  9
$PUCSXDIR
 10
1.0
 20
0.0
 30
0.0
  9
$PUCSYDIR
 10
0.0
 20
1.0
 30
0.0
  9
$PUCSORTHOREF
  2

  9
$PUCSORTHOVIEW
 70
     0
  9
$PUCSORGTOP
 10
0.0
 20
0.0
 30
0.0
  9
$PUCSORGBOTTOM
 10
0.0
 20
0.0
 30
0.0
  9
$PUCSORGLEFT
 10
0.0
 20
0.0
 30
0.0
  9
$PUCSORGRIGHT
 10
0.0
 20
0.0
 30
0.0
  9
$PUCSORGFRONT
 10
0.0
 20
0.0
 30
0.0
  9
$PUCSORGBACK
 10
0.0
 20
0.0
 30
0.0
  9
$USERI1
 70
     0
  9
$USERI2
 70
     0
  9
$USERI3
 70
     0
  9
$USERI4
 70
     0
  9
$USERI5
 70
     0
  9
$USERR1
 40
0.0
  9
$USERR2
 40
0.0
  9
$USERR3
 40
0.0
  9
$USERR4
 40
0.0
  9
$USERR5
 40
0.0
  9
$WORLDVIEW
 70
     1
  9
$SHADEDGE
 70
     3
  9
$SHADEDIF
 70
    70
  9
$TILEMODE
 70
     1
  9
$MAXACTVP
 70
    64
  9
$PINSBASE
 10
0.0
 20
0.0
 30
0.0
  9
$PLIMCHECK
 70
     0
  9
$PEXTMIN
 10
1.000000000000000E+20
 20
1.000000000000000E+20
 30
1.000000000000000E+20
  9
$PEXTMAX
 10
-1.000000000000000E+20
 20
-1.000000000000000E+20
 30
-1.000000000000000E+20
  9
$PLIMMIN
 10
-3.17498779296875
 20
-3.174999952316284
  9
$PLIMMAX
 10
293.4970092773438
 20
206.692492723465
  9
$UNITMODE
 70
     0
  9
$VISRETAIN
 70
     1
  9
$PLINEGEN
 70
     0
  9
$PSLTSCALE
 70
     1
  9
$TREEDEPTH
 70
  3020
  9
$CMLSTYLE
  2
Standard
  9
$CMLJUST
 70
     0
  9
$CMLSCALE
 40
20.0
  9
$PROXYGRAPHICS
 70
     1
  9
$MEASUREMENT
 70
     1
  9
$CELWEIGHT
370
    -1
  9
$ENDCAPS
280
     0
  9
$JOINSTYLE
280
     0
  9
$LWDISPLAY
290
     1
  9
$INSUNITS
 70
     4
  9
$HYPERLINKBASE
  1

  9
$STYLESHEET
  1
monochrome.ctb
  9
$XEDIT
290
     1
  9
$CEPSNTYPE
380
     0
  9
$PSTYLEMODE
290
     1
  9
$FINGERPRINTGUID
  2
{6687207C-F65F-4E86-B589-9C3C3CBAEBE5}
  9
$VERSIONGUID
  2
{11F455B3-0EC0-46B1-A7EA-D1EC28C12A7E}
  9
$EXTNAMES
290
     1
  9
$PSVPSCALE
 40
0.0
  9
$OLESTARTUP
290
     0
  0
ENDSEC
  0
SECTION
  2
CLASSES
  0
CLASS
  1
ACDBDICTIONARYWDFLT
  2
AcDbDictionaryWithDefault
  3
ObjectDBX Classes
 90
        0
280
     0
281
     0
  0
CLASS
  1
ACDBPLACEHOLDER
  2
AcDbPlaceHolder
  3
ObjectDBX Classes
 90
        0
280
     0
281
     0
  0
CLASS
  1
LAYOUT
  2
AcDbLayout
  3
ObjectDBX Classes
 90
        0
280
     0
281
     0
  0
CLASS
  1
AMGSETTINGSOBJ
  2
AmgSettingsObj
  3
"AcadM|Product Description: AutoCAD Mechanical|Company: Autodesk"
 90
        0
280
     0
281
     0
  0
CLASS
  1
ACME_DOCUMENT
  2
AcMeDbDoc
  3
AcMeServices
 90
        0
280
     0
281
     0
  0
CLASS
  1
ACMESCOPE
  2
AcMeScope
  3
AcMeServices
 90
        0
280
     0
281
     0
  0
CLASS
  1
ACMECOMMANDHISTORY
  2
AcMeCommandHistory
  3
AcMeServices
 90
        0
280
     0
281
     0
  0
CLASS
  1
DICTIONARYVAR
  2
AcDbDictionaryVar
  3
ObjectDBX Classes
 90
        0
280
     0
281
     0
  0
CLASS
  1
ACIMSYSVARMAN
  2
AcImSysVarManager
  3
AcMeServices
 90
        0
280
     0
281
     0
  0
CLASS
  1
ACIMREALSYSVAR
  2
AcImRealSysVar
  3
AcMeServices
 90
        0
280
     0
281
     0
  0
CLASS
  1
ACIMINTSYSVAR
  2
AcImIntSysVar
  3
AcMeServices
 90
        0
280
     0
281
     0
  0
CLASS
  1
ACMEDRAWINGMAN
  2
AcMeDrawingMan
  3
AcMeServices
 90
        0
280
     0
281
     0
  0
CLASS
  1
ACMEVIEW
  2
AcMeView
  3
AcMeServices
 90
        0
280
     0
281
     0
  0
CLASS
  1
ACDBENTITYCACHE
  2
AcMeEntityCache
  3
AcMeServices
 90
        0
280
     0
281
     0
  0
CLASS
  1
GSMANAGER
  2
AcMeGSManager
  3
AcMeServices
 90
        0
280
     0
281
     0
  0
CLASS
  1
AMDTINTERNALREACTOR
  2
AmdtInternalReactor
  3
AcMeServices
 90
        0
280
     0
281
     0
  0
CLASS
  1
ACMESTATEMGR
  2
AcMeStateMgr
  3
AcMeServices
 90
        0
280
     0
281
     0
  0
CLASS
  1
ACGREFMASTER
  2
AcGrefMaster
  3
AcAttribServices
 90
        0
280
     0
281
     0
  0
CLASS
  1
ACME_DATABASE
  2
AcMeDbDatabase
  3
AcMeServices
 90
        0
280
     0
281
     0
  0
CLASS
  1
ACRFINSADJUSTERMGR
  2
AcRfInsAdjusterMgr
  3
AcMeServices
 90
        0
280
     0
281
     0
  0
CLASS
  1
ACGREFACADMASTER
  2
AcGrefacadMaster
  3
AcGrefServices
 90
        0
280
     0
281
     0
  0
CLASS
  1
AMIMASTER
  2
AmiMaster
  3
AmiServices
 90
        0
280
     0
281
     0
  0
CLASS
  1
ACMDATADICTIONARY
  2
AcmDataDictionary
  3
"AcmSymBB|Product Description: AutoCAD Mechanical|Company: Autodesk"
 90
        0
280
     0
281
     0
  0
CLASS
  1
ACMDATAENTRYBLOCK
  2
AcmDataEntryBlock
  3
"AcmSymBB|Product Description: AutoCAD Mechanical|Company: Autodesk"
 90
        0
280
     0
281
     0
  0
CLASS
  1
ACIMSTRSYSVAR
  2
AcImStrSysVar
  3
AcMeServices
 90
        0
280
     0
281
     0
  0
CLASS
  1
ACMSTANDARDISO
  2
AcmStandardISO
  3
"Amdt_StdImp|Product Description: AutoCAD Mechanical|Company: Autodesk"
 90
        0
280
     0
281
     0
  0
CLASS
  1
AMGOBJPROPCFG
  2
AmgObjPropCfg
  3
"AmgLay|Product Description: AutoCAD Mechanical|Company: Autodesk"
 90
        1
280
     0
281
     0
  0
CLASS
  1
AMDTEDGESTANDARDISO
  2
AmdtEdgeStdISO
  3
"Amdt_StdImp|Product Description: AutoCAD Mechanical|Company: Autodesk"
 90
        0
280
     0
281
     0
  0
CLASS
  1
ACMSURFSTANDARDISO
  2
AcmSurfTextStdISO
  3
"Amdt_StdImp|Product Description: AutoCAD Mechanical|Company: Autodesk"
 90
        0
280
     0
281
     0
  0
CLASS
  1
ACMFCFSTANDARDISO
  2
AcmFCFStdISO
  3
"Amdt_StdImp|Product Description: AutoCAD Mechanical|Company: Autodesk"
 90
        0
280
     0
281
     0
  0
CLASS
  1
ACMWELDSTANDARDISO
  2
AcmWeldingStdISO
  3
"Amdt_StdImp|Product Description: AutoCAD Mechanical|Company: Autodesk"
 90
        0
280
     0
281
     0
  0
CLASS
  1
ACMIDSTANDARDISO
  2
AcmIdStdISO
  3
"Amdt_StdImp|Product Description: AutoCAD Mechanical|Company: Autodesk"
 90
        0
280
     0
281
     0
  0
CLASS
  1
ACMDATUMSTANDARDISO
  2
AcmDatumStdISO
  3
"Amdt_StdImp|Product Description: AutoCAD Mechanical|Company: Autodesk"
 90
        0
280
     0
281
     0
  0
CLASS
  1
ACMBOMSTANDARDISO
  2
AcmBOMStdISO
  3
"Amdt_StdImp|Product Description: AutoCAD Mechanical|Company: Autodesk"
 90
        0
280
     0
281
     0
  0
CLASS
  1
ACMDETAILSTANDARDISO
  2
AmdtDetailSymStdISO
  3
"Amdt_StdImp|Product Description: AutoCAD Mechanical|Company: Autodesk"
 90
        0
280
     0
281
     0
  0
CLASS
  1
ACMSECTIONSTANDARDISO
  2
AmdtSectionSymStdISO
  3
"Amdt_StdImp|Product Description: AutoCAD Mechanical|Company: Autodesk"
 90
        0
280
     0
281
     0
  0
CLASS
  1
ACMCENTERLINESTANDARDISO
  2
AmdtCenterLineStdISO
  3
"Amdt_StdImp|Product Description: AutoCAD Mechanical|Company: Autodesk"
 90
        0
280
     0
281
     0
  0
CLASS
  1
ACAMGLAYSTD
  2
AcAmgLayStd
  3
"AmgLay|Product Description: AutoCAD Mechanical|Company: Autodesk"
 90
        0
280
     0
281
     0
  0
CLASS
  1
ACAMGDIMSTD
  2
AcAmgDimStd
  3
"AmgDim|Product Description: AutoCAD Mechanical|Company: Autodesk"
 90
        0
280
     0
281
     0
  0
CLASS
  1
ACAMGTITLESTD
  2
AcAmgTitleStd
  3
"AmgTitle|Product Description: AutoCAD Mechanical|Company: Autodesk"
 90
        0
280
     0
281
     0
  0
CLASS
  1
ACAMGFILTERDAT
  2
AcAmgFilterDat
  3
"AcadM|Product Description: AutoCAD Mechanical|Company: Autodesk"
 90
        0
280
     0
281
     0
  0
CLASS
  1
LAYER_INDEX
  2
AcDbLayerIndex
  3
ObjectDBX Classes
 90
    32768
280
     0
281
     0
  0
CLASS
  1
IDBUFFER
  2
AcDbIdBuffer
  3
ObjectDBX Classes
 90
    32768
280
     0
281
     0
  0
CLASS
  1
PLOTSETTINGS
  2
AcDbPlotSettings
  3
ObjectDBX Classes
 90
    32768
280
     0
281
     0
  0
CLASS
  1
AMDTFORMULAUPDATEDISPATCHER
  2
AmdtFormulaUpdateDispatcher
  3
AcMeServices
 90
        0
280
     0
281
     0
  0
CLASS
  1
ACMSTANDARDANSI
  2
AcmStandardANSI
  3
"Amdt_StdImp|Product Description: AutoCAD Mechanical|Company: Autodesk"
 90
        0
280
     0
281
     0
  0
CLASS
  1
ACMSURFSTANDARDANSI
  2
AcmSurfTextStdANSI
  3
"Amdt_StdImp|Product Description: AutoCAD Mechanical|Company: Autodesk"
 90
        0
280
     0
281
     0
  0
CLASS
  1
ACMFCFSTANDARDANSI
  2
AcmFCFStdANSI
  3
"Amdt_StdImp|Product Description: AutoCAD Mechanical|Company: Autodesk"
 90
        0
280
     0
281
     0
  0
CLASS
  1
ACMWELDSTANDARDANSI
  2
AcmWeldingStdANSI
  3
"Amdt_StdImp|Product Description: AutoCAD Mechanical|Company: Autodesk"
 90
        0
280
     0
281
     0
  0
CLASS
  1
ACMIDSTANDARDANSI
  2
AcmIdStdANSI
  3
"Amdt_StdImp|Product Description: AutoCAD Mechanical|Company: Autodesk"
 90
        0
280
     0
281
     0
  0
CLASS
  1
ACMDATUMSTANDARDANSI
  2
AcmDatumStdANSI
  3
"Amdt_StdImp|Product Description: AutoCAD Mechanical|Company: Autodesk"
 90
        0
280
     0
281
     0
  0
CLASS
  1
ACMBOMSTANDARDANSI
  2
AcmBOMStdANSI
  3
"Amdt_StdImp|Product Description: AutoCAD Mechanical|Company: Autodesk"
 90
        0
280
     0
281
     0
  0
CLASS
  1
ACMDETAILSTANDARDANSI
  2
AmdtDetailSymStdANSI
  3
"Amdt_StdImp|Product Description: AutoCAD Mechanical|Company: Autodesk"
 90
        0
280
     0
281
     0
  0
CLASS
  1
ACMSECTIONSTANDARDANSI
  2
AmdtSectionSymStdANSI
  3
"Amdt_StdImp|Product Description: AutoCAD Mechanical|Company: Autodesk"
 90
        0
280
     0
281
     0
  0
CLASS
  1
ACMCENTERLINESTANDARDANSI
  2
AmdtCenterLineStdANSI
  3
"Amdt_StdImp|Product Description: AutoCAD Mechanical|Company: Autodesk"
 90
        0
280
     0
281
     0
  0
CLASS
  1
ACMBOM
  2
AcmBom
  3
"AcmSymBB|Product Description: AutoCAD Mechanical|Company: Autodesk"
 90
        0
280
     0
281
     0
  0
CLASS
  1
ACMDATAENTRYPART
  2
AcmDataEntryPart
  3
"AcmSymBB|Product Description: AutoCAD Mechanical|Company: Autodesk"
 90
    32768
280
     0
281
     0
  0
CLASS
  1
ACMPARTREF
  2
AcmPartRef
  3
"AcmSymBB|Product Description: AutoCAD Mechanical|Company: Autodesk"
 90
    35839
280
     0
281
     1
  0
CLASS
  1
ACDBCIRCARCRES
  2
AcDbCircArcRes
  3
AcGrefServices
 90
    32768
280
     0
281
     0
  0
CLASS
  1
ACMBOMROW
  2
AcmBomRow
  3
"AcmSymBB|Product Description: AutoCAD Mechanical|Company: Autodesk"
 90
    32768
280
     0
281
     0
  0
CLASS
  1
ACMBALLOON
  2
AcmBalloon
  3
"AcmSymBB|Product Description: AutoCAD Mechanical|Company: Autodesk"
 90
    35839
280
     0
281
     1
  0
CLASS
  1
AMDTNOTE
  2
AmdtNote
  3
"AcmSymBB|Product Description: AutoCAD Mechanical|Company: Autodesk"
 90
    35839
280
     0
281
     1
  0
CLASS
  1
STDPART2D
  2
AmgStdPart
  3
"g3vace|Class: AmgStdPart|Product Description: AutoCAD Mechanical|Company: Autodesk"
 90
    35839
280
     0
281
     1
  0
CLASS
  1
ACDBSTDPARTRES_LINE
  2
AcDbStdPartRes_Line
  3
"g3vace|Class: AcDbStdPartRes_Line|Product Description: AutoCAD Mechanical|Company: Autodesk"
 90
    32768
280
     0
281
     0
  0
CLASS
  1
ACMDATAENTRY
  2
AcmDataEntry
  3
"AcmSymBB|Product Description: AutoCAD Mechanical|Company: Autodesk"
 90
        0
280
     0
281
     0
  0
CLASS
  1
ACDBOPPOLYLINERES
  2
AcDbOpPolylineRes
  3
AcGrefServices
 90
    32768
280
     0
281
     0
  0
CLASS
  1
ACMPARTLIST
  2
AcmPartList
  3
"AcmSymBB|Product Description: AutoCAD Mechanical|Company: Autodesk"
 90
    35839
280
     0
281
     1
  0
CLASS
  1
ACDBLINERES
  2
AcDbLineRes
  3
AcGrefServices
 90
        0
280
     0
281
     0
  0
CLASS
  1
ACRFINSADJ
  2
AcRfInsAdjuster
  3
AcMeServices
 90
    32768
280
     0
281
     0
  0
CLASS
  1
AM_DRAWING_MGR
  2
AcDmDwgMgr
  3
AcMechDwgViewMgmt
 90
        0
280
     0
281
     0
  0
CLASS
  1
AM_DWG_DOCUMENT
  2
AcDmDwgDocument
  3
AcMechDwgViewMgmt
 90
        0
280
     0
281
     0
  0
CLASS
  1
AM_DWG_SHEET
  2
AcDmSheet
  3
AcMechDwgViewMgmt
 90
        0
280
     0
281
     0
  0
CLASS
  1
AM_VIEWDIMPARMAP
  2
AcDmViewDimParMap
  3
AcMechDwgViewMgmt
 90
        0
280
     0
281
     0
  0
CLASS
  1
AM_DWGMGR_NAME
  2
AcDmDwgMgrName
  3
AcMechDwgViewMgmt
 90
        0
280
     0
281
     0
  0
CLASS
  1
AMDTMENUSTATEMGR
  2
AmdtMenuStateMgr
  3
McadcomServices
 90
        0
280
     0
281
     0
  0
CLASS
  1
AMDTMCOMMENUSTATE
  2
AmdtMcomMenuState
  3
McadcomServices
 90
        0
280
     0
281
     0
  0
CLASS
  1
ASAPP
  2
AcAsAppObject
  3
AutoSurfServices
 90
        0
280
     0
281
     0
  0
CLASS
  1
IM_STATIC_MAN
  2
AcImStaticVarManager
  3
AcMeServices
 90
        0
280
     0
281
     0
  0
CLASS
  1
ACIMDBLSTATICVAR
  2
AcImDblStaticVar
  3
AcMeServices
 90
        0
280
     0
281
     0
  0
CLASS
  1
ACIMSTRSTATICVAR
  2
AcImStrStaticVar
  3
AcMeServices
 90
        0
280
     0
281
     0
  0
CLASS
  1
ACIMINTSTATICVAR
  2
AcImIntStaticVar
  3
AcMeServices
 90
        0
280
     0
281
     0
  0
CLASS
  1
ACASGREFMASTER
  2
AcAsGrefMaster
  3
AutoSurfResolverServices
 90
        0
280
     0
281
     0
  0
CLASS
  1
ACADGREFMODULE
  2
AcAdGrefModule
  3
AdGrefServices
 90
        0
280
     0
281
     0
  0
CLASS
  1
AMDTMAPISURFMOUDULE
  2
AmdtMApiSurfModule
  3
MApiSurfServices
 90
        0
280
     0
281
     0
  0
CLASS
  1
MAPIAMMOUDLE
  2
MApiAmModule
  3
MApiAmServices
 90
        0
280
     0
281
     0
  0
CLASS
  1
AMDTADMENUSTATE
  2
AmdtAdMenuState
  3
DesignerServices
 90
        0
280
     0
281
     0
  0
CLASS
  1
ADAPPL
  2
AcAdAppl
  3
DesignerServices
 90
        0
280
     0
281
     0
  0
CLASS
  1
DEPMGR
  2
AcAdDepMgr
  3
DesignerServices
 90
        0
280
     0
281
     0
  0
CLASS
  1
PARAMMGR
  2
AcAdParamMgr
  3
DesignerServices
 90
        0
280
     0
281
     0
  0
CLASS
  1
PARAMSCOPE
  2
AcAdParamScope
  3
DesignerServices
 90
        0
280
     0
281
     0
  0
CLASS
  1
NAMEDAPPL
  2
AcAdNamedAppl
  3
DesignerServices
 90
        0
280
     0
281
     0
  0
CLASS
  1
ADHNTMPLT
  2
AdHoleNoteTemplateMgr
  3
DesignerServices
 90
    32768
280
     0
281
     0
  0
CLASS
  1
AM_HNTEMPLATE_MGR_NAME
  2
AdHoleNoteTemplateMgrName
  3
DesignerServices
 90
    32768
280
     0
281
     0
  0
CLASS
  1
AMDTDMMENUSTATE
  2
AmdtDmMenuState
  3
AcMechDwgViewMgmt
 90
        0
280
     0
281
     0
  0
CLASS
  1
MAPIADMODULE
  2
MApiAdModule
  3
MApiAdServices
 90
        0
280
     0
281
     0
  0
CLASS
  1
AMDTAMMENUSTATE
  2
AmdtAmMenuState
  3
DesignerAssemblies
 90
        0
280
     0
281
     0
  0
CLASS
  1
ACAMPROJECT
  2
AcAmProject
  3
DesignerAssemblies
 90
        0
280
     0
281
     0
  0
CLASS
  1
ACAMGRCOMPDEF
  2
AcAmGrCompDef
  3
DesignerAssemblies
 90
        0
280
     0
281
     0
  0
CLASS
  1
ACCMCONTEXT
  2
AcCmContext
  3
DesignerAssemblies
 90
        0
280
     0
281
     0
  0
CLASS
  1
ACAMCOMPDEF
  2
AcAmCompDef
  3
DesignerAssemblies
 90
        0
280
     0
281
     0
  0
CLASS
  1
ACAMCOMPDEFMGR
  2
AcAmCompDefMgr
  3
DesignerAssemblies
 90
        0
280
     0
281
     0
  0
CLASS
  1
AMCONTEXTMGR
  2
AcAmContextMgr
  3
DesignerAssemblies
 90
        0
280
     0
281
     0
  0
CLASS
  1
ACAMCONTEXTMODELER
  2
AcAmContextModeler
  3
DesignerAssemblies
 90
        0
280
     0
281
     0
  0
CLASS
  1
CATALOGSTATE
  2
AcAmCatalogState
  3
DesignerAssemblies
 90
        0
280
     0
281
     0
  0
CLASS
  1
ACAMGRCOMPDEFSET
  2
AcAmGrCompDefSet
  3
DesignerAssemblies
 90
        0
280
     0
281
     0
  0
CLASS
  1
AMDTBROWSERDBTAB
  2
AmdtBrowserDbTab
  3
McadcomServices
 90
        0
280
     0
281
     0
  0
CLASS
  1
CBROWSERAPPOBJECT
  2
CBrowserAppObject
  3
McadcomServices
 90
        0
280
     0
281
     0
  0
CLASS
  1
DM_PLACEHOLDER
  2
AcDmSelsetPlaceholder
  3
AcMechDwgViewMgmt
 90
        0
280
     0
281
     0
  0
CLASS
  1
ACMPICKOBJ
  2
AcmPickEnt
  3
"AcmSymBB|Product Description: AutoCAD Mechanical|Company: Autodesk"
 90
    32768
280
     0
281
     1
  0
CLASS
  1
ACMNOTESTANDARDISO
  2
AmdtNoteStdISO
  3
"Amdt_StdImp|Product Description: AutoCAD Mechanical|Company: Autodesk"
 90
        0
280
     0
281
     0
  0
CLASS
  1
ACMNOTESTANDARDANSI
  2
AmdtNoteStdANSI
  3
"Amdt_StdImp|Product Description: AutoCAD Mechanical|Company: Autodesk"
 90
        0
280
     0
281
     0
  0
CLASS
  1
ACMTHREADLINESTANDARDISO
  2
AmdtThreadLineStdISO
  3
"Amdt_StdImp|Product Description: AutoCAD Mechanical|Company: Autodesk"
 90
        0
280
     0
281
     0
  0
CLASS
  1
ACMTHREADLINESTANDARDANSI
  2
AmdtThreadLineStdANSI
  3
"Amdt_StdImp|Product Description: AutoCAD Mechanical|Company: Autodesk"
 90
        0
280
     0
281
     0
  0
CLASS
  1
TABLESTYLE
  2
AcDbTableStyle
  3
ObjectDBX Classes
 90
     4095
280
     0
281
     0
  0
CLASS
  1
SORTENTSTABLE
  2
AcDbSortentsTable
  3
ObjectDBX Classes
 90
        0
280
     0
281
     0
  0
CLASS
  1
MATERIAL
  2
AcDbMaterial
  3
ObjectDBX Classes
 90
     1024
280
     0
281
     0
  0
CLASS
  1
VISUALSTYLE
  2
AcDbVisualStyle
  3
ObjectDBX Classes
 90
     4095
280
     0
281
     0
  0
CLASS
  1
ACRFATTGENMGR
  2
AcRfAttGeneralMgr
  3
AcAttribServices
 90
        0
280
     0
281
     0
  0
CLASS
  1
ACRFOBJATTMGR
  2
AcRfObjAttGroupMgr
  3
AcAttribServices
 90
        0
280
     0
281
     0
  0
CLASS
  1
ACRFMCADAPIATTHOLDER
  2
AcRfMCADAPIAttHolder
  3
AcAttribServices
 90
        0
280
     0
281
     0
  0
CLASS
  1
AMDTSYSATTR
  2
AmdtSystemAttribute
  3
AcAttribServices
 90
        0
280
     0
281
     0
  0
CLASS
  1
ACMTAPERSTANDARDISO
  2
AcmTaperStdISO
  3
"Amdt_StdImp|Product Description: AutoCAD Mechanical|Company: Autodesk"
 90
        0
280
     0
281
     0
  0
CLASS
  1
CAMSSTRUCTBTNSTATE
  2
StructBtnState
  3
L"DesignerAssemblies"
 90
        0
280
     0
281
     0
  0
CLASS
  1
DIMASSOC
  2
AcDbDimAssoc
  3
"AcDbDimAssoc|Product Desc:     AcDim ARX App For Dimension|Company:          Autodesk, Inc.|WEB Address:      www.autodesk.com"
 90
    32768
280
     0
281
     0
  0
CLASS
  1
AMDTNOTETEMPLATEDB
  2
AmdtNoteTemplateDB
  3
AMDT_STDIMP_MODULE_NAME
 90
        0
280
     0
281
     0
  0
CLASS
  1
SCALE
  2
AcDbScale
  3
ObjectDBX Classes
 90
     1153
280
     0
281
     0
  0
CLASS
  1
MLEADERSTYLE
  2
AcDbMLeaderStyle
  3
ACDB_MLEADERSTYLE_CLASS
 90
     4095
280
     0
281
     0
  0
CLASS
  1
ACMANOOTATIONVIEWSTANDARDISO
  2
AmdtAnViewStdISO
  3
"Amdt_StdImp|Product Description: AutoCAD Mechanical|Company: Autodesk, Inc."
 90
    33792
280
     0
281
     0
  0
CLASS
  1
CELLSTYLEMAP
  2
AcDbCellStyleMap
  3
ObjectDBX Classes
 90
     1152
280
     0
281
     0
  0
CLASS
  1
ACMTAPERSTANDARDANSI
  2
AcmTaperStdANSI
  3
"Amdt_StdImp|Product Description: AutoCAD Mechanical|Company: Autodesk"
 90
        0
280
     0
281
     0
  0
CLASS
  1
ACMANOOTATIONVIEWSTANDARDANSI
  2
AmdtAnViewStdANSI
  3
"Amdt_StdImp|Product Description: AutoCAD Mechanical|Company: Autodesk, Inc."
 90
    33792
280
     0
281
     0
  0
CLASS
  1
ACAMGHOLECHARTSTDANSI
  2
AcAmgHoleChartStdANSI
  3
ACMSYMBB_MODULE_NAME
 90
        0
280
     0
281
     0
  0
ENDSEC
  0
SECTION
  2
TABLES
  0
TABLE
  2
VPORT
  5
8
330
0
100
AcDbSymbolTable
 70
     1
  0
VPORT
  5
B0EC
330
8
100
AcDbSymbolTableRecord
100
AcDbViewportTableRecord
  2
*Active
 70
     0
 10
0.0
 20
0.0
 11
1.0
 21
1.0
 12
210.0000029338454
 22
148.5000020746477
 13
0.0
 23
0.0
 14
2.5
 24
2.5
 15
10.0
 25
10.0
 16
0.0
 26
0.0
 36
1.0
 17
0.0
 27
0.0
 37
0.0
 40
299.1956312857614
 41
1.972972972972972
 42
50.0
 43
-1370.695619172058
 44
-1370.695619172058
 50
0.0
 51
0.0
 71
     0
 72
   100
 73
     1
 74
     3
 75
     0
 76
     0
 77
     0
 78
     0
281
     0
 65
     0
110
0.0
120
0.0
130
0.0
111
1.0
121
0.0
131
0.0
112
0.0
122
1.0
132
0.0
 79
     0
146
0.0
  0
ENDTAB
  0
TABLE
  2
LTYPE
  5
5
330
0
100
AcDbSymbolTable
 70
    23
  0
LTYPE
  5
14
330
5
100
AcDbSymbolTableRecord
100
AcDbLinetypeTableRecord
  2
ByBlock
 70
     0
  3

 72
    65
 73
     0
 40
0.0
  0
LTYPE
  5
15
330
5
100
AcDbSymbolTableRecord
100
AcDbLinetypeTableRecord
  2
ByLayer
 70
     0
  3

 72
    65
 73
     0
 40
0.0
  0
LTYPE
  5
16
330
5
100
AcDbSymbolTableRecord
100
AcDbLinetypeTableRecord
  2
Continuous
 70
     0
  3
Solid line
 72
    65
 73
     0
 40
0.0
  0
LTYPE
  5
4F
330
5
100
AcDbSymbolTableRecord
100
AcDbLinetypeTableRecord
  2
AM_ISO02W050
 70
     0
  3
__ __ __ __ __ __ __ __ __ __ __ __ __ __ __
 72
    65
 73
     2
 40
7.5
 49
6.0
 74
     0
 49
-1.5
 74
     0
  0
LTYPE
  5
52
330
5
100
AcDbSymbolTableRecord
100
AcDbLinetypeTableRecord
  2
Amconstr
 70
     0
  3
_______________________
 72
    65
 73
     2
 40
9999.0
 49
9999.0
 74
     0
 49
0.0
 74
     0
  0
LTYPE
  5
64
330
5
100
AcDbSymbolTableRecord
100
AcDbLinetypeTableRecord
  2
ACISOWELD
 70
     0
  3
_ _ _ _ _
 72
    65
 73
     2
 40
2.0
 49
2.0
 74
     0
 49
-1.0
 74
     0
  0
LTYPE
  5
65
330
5
100
AcDbSymbolTableRecord
100
AcDbLinetypeTableRecord
  2
ACISOTGB
 70
     0
  3
__ . . __ . .
 72
    65
 73
     6
 40
9.0
 49
4.0
 74
     0
 49
-1.0
 74
     0
 49
1.0
 74
     0
 49
-1.0
 74
     0
 49
1.0
 74
     0
 49
-1.0
 74
     0
  0
LTYPE
  5
66
330
5
100
AcDbSymbolTableRecord
100
AcDbLinetypeTableRecord
  2
ACISOTGL
 70
     0
  3
_ _ _ _ _
 72
    65
 73
     2
 40
3.0
 49
2.0
 74
     0
 49
-1.0
 74
     0
  0
LTYPE
  5
69
330
5
100
AcDbSymbolTableRecord
100
AcDbLinetypeTableRecord
  2
CENTER
 70
     0
  3
__ . __
 72
    65
 73
     4
 40
7.0
 49
4.0
 74
     0
 49
-1.0
 74
     0
 49
1.0
 74
     0
 49
-1.0
 74
     0
  0
LTYPE
  5
A6E
330
5
100
AcDbSymbolTableRecord
100
AcDbLinetypeTableRecord
  2
PHANTOM2
 70
     0
  3
Phantom (.5x) ___ _ _ ___ _ _ ___ _ _ ___ _ _
 72
    65
 73
     6
 40
31.75
 49
15.875
 74
     0
 49
-3.174999999999999
 74
     0
 49
3.174999999999999
 74
     0
 49
-3.174999999999999
 74
     0
 49
3.174999999999999
 74
     0
 49
-3.174999999999999
 74
     0
  0
LTYPE
  5
4DED
330
5
100
AcDbSymbolTableRecord
100
AcDbLinetypeTableRecord
  2
中線
 70
     0
  3
___________________
 72
    65
 73
     2
 40
2.0
 49
1.0
 74
     0
 49
1.0
 74
     0
  0
LTYPE
  5
4DF6
330
5
100
AcDbSymbolTableRecord
100
AcDbLinetypeTableRecord
  2
細線
 70
     0
  3
___________________
 72
    65
 73
     2
 40
2.0
 49
1.0
 74
     0
 49
1.0
 74
     0
  0
LTYPE
  5
4DF7
330
5
100
AcDbSymbolTableRecord
100
AcDbLinetypeTableRecord
  2
太線
 70
     0
  3
___________________
 72
    65
 73
     2
 40
2.0
 49
1.0
 74
     0
 49
1.0
 74
     0
  0
LTYPE
  5
4EA7
330
5
100
AcDbSymbolTableRecord
100
AcDbLinetypeTableRecord
  2
文字
 70
     0
  3
_________________
 72
    65
 73
     2
 40
2.0
 49
1.0
 74
     0
 49
1.0
 74
     0
  0
LTYPE
  5
4EA9
330
5
100
AcDbSymbolTableRecord
100
AcDbLinetypeTableRecord
  2
寸法線
 70
     0
  3
________________
 72
    65
 73
     2
 40
2.0
 49
1.0
 74
     0
 49
1.0
 74
     0
  0
LTYPE
  5
4F12
330
5
100
AcDbSymbolTableRecord
100
AcDbLinetypeTableRecord
  2
ハッチング
 70
     0
  3
_________________
 72
    65
 73
     2
 40
2.0
 49
1.0
 74
     0
 49
1.0
 74
     0
  0
LTYPE
  5
5180
330
5
100
AcDbSymbolTableRecord
100
AcDbLinetypeTableRecord
  2
陰線1
 70
     0
  3
__ __ __ __
 72
    65
 73
     2
 40
4.0
 49
2.2
 74
     0
 49
-1.8
 74
     0
  0
LTYPE
  5
5182
330
5
100
AcDbSymbolTableRecord
100
AcDbLinetypeTableRecord
  2
切断線
 70
     0
  3
/\/-/\/-/\/-/\/-/\/-/\/
 72
    65
 73
     2
 40
11.0001
 49
0.0001
 74
     4
 75
   135
340
56
 46
0.04
 50
0.0
 44
0.0
 45
0.0
 49
-11.0
 74
     0
  0
LTYPE
  5
5183
330
5
100
AcDbSymbolTableRecord
100
AcDbLinetypeTableRecord
  2
想像線1
 70
     0
  3
__ __ __ _____ __ __ ____
 72
    65
 73
     6
 40
14.5
 49
6.0
 74
     0
 49
-1.5
 74
     0
 49
2.0
 74
     0
 49
-1.5
 74
     0
 49
2.0
 74
     0
 49
-1.5
 74
     0
  0
LTYPE
  5
5185
330
5
100
AcDbSymbolTableRecord
100
AcDbLinetypeTableRecord
  2
中心線1
 70
     0
  3
___ _ ___ _ ___
 72
    65
 73
     4
 40
18.0
 49
12.0
 74
     0
 49
-2.0
 74
     0
 49
2.0
 74
     0
 49
-2.0
 74
     0
  0
LTYPE
  5
5188
330
5
100
AcDbSymbolTableRecord
100
AcDbLinetypeTableRecord
  2
補助線
 70
     0
  3
______________
 72
    65
 73
     2
 40
2.0
 49
1.0
 74
     0
 49
1.0
 74
     0
  0
LTYPE
  5
6427
330
5
100
AcDbSymbolTableRecord
100
AcDbLinetypeTableRecord
  2
HIDDEN
 70
     0
  3
Hidden __ __ __ __ __ __ __ __ __ __ __ __ __ _
 72
    65
 73
     2
 40
0.375
 49
0.25
 74
     0
 49
-0.125
 74
     0
  0
LTYPE
  5
BEE2
330
5
100
AcDbSymbolTableRecord
100
AcDbLinetypeTableRecord
  2
CENTER2
 70
     0
  3
___ _ ___ _ ___ _ ___ _ ___ _ ___ _ ___ _ ___ _
 72
    65
 73
     4
 40
1.125
 49
0.75
 74
     4
 75
     0
340
0
 46
0.0
 50
0.0
 44
0.0
 45
0.0
 49
-0.125
 74
     4
 75
     0
340
0
 46
0.0
 50
0.0
 44
0.0
 45
0.0
 49
0.125
 74
     4
 75
     0
340
0
 46
0.0
 50
0.0
 44
0.0
 45
0.0
 49
-0.125
 74
     4
 75
     0
340
0
 46
0.0
 50
0.0
 44
0.0
 45
0.0
  0
LTYPE
  5
BEE5
330
5
100
AcDbSymbolTableRecord
100
AcDbLinetypeTableRecord
  2
ACANSTGB
 70
     0
  3
__ . . __ . .
 72
    65
 73
     6
 40
0.35433070866
 49
0.15748031496
 74
     0
 49
-0.03937007874
 74
     0
 49
0.03937007874
 74
     0
 49
-0.03937007874
 74
     0
 49
0.03937007874
 74
     0
 49
-0.03937007874
 74
     0
  0
LTYPE
  5
BEE6
330
5
100
AcDbSymbolTableRecord
100
AcDbLinetypeTableRecord
  2
ACANSTGL
 70
     0
  3
_ _ _ _ _
 72
    65
 73
     2
 40
0.11811023622
 49
0.07874015748
 74
     0
 49
-0.03937007874
 74
     0
  0
ENDTAB
  0
TABLE
  2
LAYER
  5
2
102
{ACAD_XDICTIONARY
360
3F95
102
}
330
0
100
AcDbSymbolTable
 70
    26
  0
LAYER
  5
10
102
{ACAD_XDICTIONARY
360
E250
102
}
330
2
100
AcDbSymbolTableRecord
100
AcDbLayerTableRecord
  2
0
 70
     0
 62
     7
  6
Continuous
370
    -3
390
F
  0
LAYER
  5
6D1
330
2
100
AcDbSymbolTableRecord
100
AcDbLayerTableRecord
  2
Defpoints
 70
     0
 62
     7
  6
Continuous
290
     0
370
    -3
390
F
  0
LAYER
  5
5F85
102
{ACAD_XDICTIONARY
360
E252
102
}
330
2
100
AcDbSymbolTableRecord
100
AcDbLayerTableRecord
  2
AM_0
 70
     0
 62
     7
  6
中線
370
    30
390
F
1001
AcAecLayerStandard
1000

1000

  0
LAYER
  5
AC9F
102
{ACAD_XDICTIONARY
360
E254
102
}
330
2
100
AcDbSymbolTableRecord
100
AcDbLayerTableRecord
  2
size
 70
     0
 62
     5
  6
Continuous
290
     0
370
    25
390
F
  0
LAYER
  5
ACA0
102
{ACAD_XDICTIONARY
360
E256
102
}
330
2
100
AcDbSymbolTableRecord
100
AcDbLayerTableRecord
  2
waku
 70
     0
 62
     7
  6
Continuous
370
    35
390
F
  0
LAYER
  5
ACA1
102
{ACAD_XDICTIONARY
360
E258
102
}
330
2
100
AcDbSymbolTableRecord
100
AcDbLayerTableRecord
  2
AM_6
 70
     0
 62
     2
  6
文字
370
    13
390
F
1001
AcAecLayerStandard
1000

1000

  0
LAYER
  5
ACC8
102
{ACAD_XDICTIONARY
360
E25A
102
}
330
2
100
AcDbSymbolTableRecord
100
AcDbLayerTableRecord
  2
hyomoji
 70
     0
 62
     2
  6
Continuous
370
    13
390
F
  0
LAYER
  5
ACC9
102
{ACAD_XDICTIONARY
360
E25C
102
}
330
2
100
AcDbSymbolTableRecord
100
AcDbLayerTableRecord
  2
hyosen1
 70
     0
 62
    12
  6
Continuous
370
    25
390
F
  0
LAYER
  5
ACCA
102
{ACAD_XDICTIONARY
360
E25E
102
}
330
2
100
AcDbSymbolTableRecord
100
AcDbLayerTableRecord
  2
hyosen2
 70
     0
 62
    12
  6
Continuous
370
    13
390
F
  0
LAYER
  5
AD60
102
{ACAD_XDICTIONARY
360
E260
102
}
330
2
100
AcDbSymbolTableRecord
100
AcDbLayerTableRecord
  2
AM_1
 70
     0
 62
    30
  6
太線
370
    40
390
F
1001
AcAecLayerStandard
1000

1000

  0
LAYER
  5
AD64
102
{ACAD_XDICTIONARY
360
E262
102
}
330
2
100
AcDbSymbolTableRecord
100
AcDbLayerTableRecord
  2
AM_2
 70
     0
 62
     1
  6
細線
370
    13
390
F
1001
AcAecLayerStandard
1000

1000

  0
LAYER
  5
AD67
102
{ACAD_XDICTIONARY
360
E264
102
}
330
2
100
AcDbSymbolTableRecord
100
AcDbLayerTableRecord
  2
AM_3
 70
     0
 62
     6
  6
陰線1
370
    13
390
F
1001
AcAecLayerStandard
1000

1000

  0
LAYER
  5
AD68
102
{ACAD_XDICTIONARY
360
E266
102
}
330
2
100
AcDbSymbolTableRecord
100
AcDbLayerTableRecord
  2
AM_5
 70
     0
 62
     3
  6
寸法線
370
    13
390
F
1001
AcAecLayerStandard
1000

1000

  0
LAYER
  5
AD69
102
{ACAD_XDICTIONARY
360
E268
102
}
330
2
100
AcDbSymbolTableRecord
100
AcDbLayerTableRecord
  2
AM_7
 70
     0
 62
     4
  6
中心線1
370
    13
390
F
1001
AcAecLayerStandard
1000

1000

  0
LAYER
  5
AD6A
102
{ACAD_XDICTIONARY
360
E26A
102
}
330
2
100
AcDbSymbolTableRecord
100
AcDbLayerTableRecord
  2
AM_8
 70
     0
 62
     1
  6
ハッチング
370
    13
390
F
1001
AcAecLayerStandard
1000

1000

  0
LAYER
  5
AD6F
102
{ACAD_XDICTIONARY
360
E26E
102
}
330
2
100
AcDbSymbolTableRecord
100
AcDbLayerTableRecord
  2
AM_11
 70
     0
 62
     2
  6
想像線1
370
    13
390
F
1001
AcAecLayerStandard
1000

1000

  0
LAYER
  5
BEE7
102
{ACAD_XDICTIONARY
360
E276
102
}
330
2
100
AcDbSymbolTableRecord
100
AcDbLayerTableRecord
  2
細線
 70
     0
 62
     7
  6
Continuous
370
    -3
390
F
  0
LAYER
  5
BEE8
102
{ACAD_XDICTIONARY
360
E278
102
}
330
2
100
AcDbSymbolTableRecord
100
AcDbLayerTableRecord
  2
実線
 70
     0
 62
     7
  6
Continuous
370
    -3
390
F
  0
LAYER
  5
BEE9
102
{ACAD_XDICTIONARY
360
E27A
102
}
330
2
100
AcDbSymbolTableRecord
100
AcDbLayerTableRecord
  2
DV1_想像線
 70
     0
 62
     7
  6
Continuous
370
    -3
390
F
  0
LAYER
  5
BEEA
102
{ACAD_XDICTIONARY
360
E27C
102
}
330
2
100
AcDbSymbolTableRecord
100
AcDbLayerTableRecord
  2
DV1__Translation
 70
     1
 62
    -7
  6
Continuous
370
    -3
390
F
  0
LAYER
  5
BEEB
102
{ACAD_XDICTIONARY
360
E27E
102
}
330
2
100
AcDbSymbolTableRecord
100
AcDbLayerTableRecord
  2
DV1_寸法線
 70
     0
 62
     7
  6
Continuous
370
    -3
390
F
  0
LAYER
  5
BEEC
102
{ACAD_XDICTIONARY
360
E280
102
}
330
2
100
AcDbSymbolTableRecord
100
AcDbLayerTableRecord
  2
想像線
 70
     0
 62
     7
  6
Continuous
370
    -3
390
F
  0
LAYER
  5
BEED
102
{ACAD_XDICTIONARY
360
E282
102
}
330
2
100
AcDbSymbolTableRecord
100
AcDbLayerTableRecord
  2
DV1_実線
 70
     0
 62
     7
  6
Continuous
370
    -3
390
F
  0
LAYER
  5
BEEE
102
{ACAD_XDICTIONARY
360
E284
102
}
330
2
100
AcDbSymbolTableRecord
100
AcDbLayerTableRecord
  2
DV1_中心線
 70
     0
 62
     7
  6
Continuous
370
    -3
390
F
  0
LAYER
  5
BEEF
102
{ACAD_XDICTIONARY
360
E286
102
}
330
2
100
AcDbSymbolTableRecord
100
AcDbLayerTableRecord
  2
DV1_細線
 70
     0
 62
     7
  6
Continuous
370
    -3
390
F
  0
LAYER
  5
C54E
102
{ACAD_XDICTIONARY
360
E28A
102
}
330
2
100
AcDbSymbolTableRecord
100
AcDbLayerTableRecord
  2
中心線
 70
     0
 62
     7
  6
Continuous
370
    -3
390
F
  0
ENDTAB
  0
TABLE
  2
STYLE
  5
3
330
0
100
AcDbSymbolTable
 70
    13
  0
STYLE
  5
11
330
3
100
AcDbSymbolTableRecord
100
AcDbTextStyleTableRecord
  2
STANDARD
 70
     0
 40
0.0
 41
0.7
 50
0.0
 71
     0
 42
3.2
  3
romans.shx
  4
extfont.shx
  0
STYLE
  5
56
330
3
100
AcDbSymbolTableRecord
100
AcDbTextStyleTableRecord
  2

 70
     1
 40
0.0
 41
1.0
 50
0.0
 71
     0
 42
2.5
  3
ltypeshp.shx
  4

  0
STYLE
  5
58
330
3
100
AcDbSymbolTableRecord
100
AcDbTextStyleTableRecord
  2
ACISOTS
 70
     0
 40
1.0
 41
1.0
 50
0.0
 71
     0
 42
2.5
  3
isocp.shx
  4
extfont.shx
  0
STYLE
  5
63
330
3
100
AcDbSymbolTableRecord
100
AcDbTextStyleTableRecord
  2
ACISOGDT
 70
     0
 40
0.0
 41
1.0
 50
0.0
 71
     0
 42
2.5
  3
amgdt.shx
  4

  0
STYLE
  5
A74
330
3
100
AcDbSymbolTableRecord
100
AcDbTextStyleTableRecord
  2
DIM
 70
     0
 40
0.0
 41
1.0
 50
0.0
 71
     0
 42
2.5
  3
monotxt.shx
  4
extfont.shx
  0
STYLE
  5
AC80
330
3
100
AcDbSymbolTableRecord
100
AcDbTextStyleTableRecord
  2

 70
     1
 40
0.0
 41
1.0
 50
0.0
 71
     0
 42
3.2
  3
genltshp.shx
  4

  0
STYLE
  5
BEF1
330
3
100
AcDbSymbolTableRecord
100
AcDbTextStyleTableRecord
  2
SEACAD_romans_shx
 70
     0
 40
0.0
 41
1.0
 50
0.0
 71
     0
 42
0.2
  3
romans.shx
  4

  0
STYLE
  5
BEF2
330
3
100
AcDbSymbolTableRecord
100
AcDbTextStyleTableRecord
  2
SEACAD_Arial
 70
     0
 40
0.0
 41
1.0
 50
0.0
 71
     0
 42
0.2
  3
ARIAL.TTF
  4

1001
ACAD
1000
Arial
1071
        0
  0
STYLE
  5
BEF3
330
3
100
AcDbSymbolTableRecord
100
AcDbTextStyleTableRecord
  2
SEACAD_Solid_Edge_ANSI1_Symbols
 70
     0
 40
0.0
 41
1.0
 50
0.0
 71
     0
 42
0.2
  3

  4

1001
ACAD
1000
Solid Edge ANSI1 Symbols
1071
        0
  0
STYLE
  5
BEF4
330
3
100
AcDbSymbolTableRecord
100
AcDbTextStyleTableRecord
  2
SEACAD_arial_ttf
 70
     0
 40
0.0
 41
1.0
 50
0.0
 71
     0
 42
0.2
  3

  4

1001
ACAD
1000
arial.ttf
1071
        0
  0
STYLE
  5
BEF5
330
3
100
AcDbSymbolTableRecord
100
AcDbTextStyleTableRecord
  2
ACANSTS
 70
     0
 40
1.0
 41
1.0
 50
0.0
 71
     0
 42
0.2
  3
romans.shx
  4
extfont.shx
  0
STYLE
  5
BEF6
330
3
100
AcDbSymbolTableRecord
100
AcDbTextStyleTableRecord
  2
ACANSGDT
 70
     0
 40
0.0
 41
1.0
 50
0.0
 71
     0
 42
0.2
  3
amgdt.shx
  4

  0
STYLE
  5
C54F
330
3
100
AcDbSymbolTableRecord
100
AcDbTextStyleTableRecord
  2
SEACAD_txt_shx
 70
     0
 40
0.0
 41
1.0
 50
0.0
 71
     0
 42
0.2
  3
txt.shx
  4

  0
ENDTAB
  0
TABLE
  2
VIEW
  5
6
330
0
100
AcDbSymbolTable
 70
     6
  0
VIEW
  5
AE1
330
6
100
AcDbSymbolTableRecord
100
AcDbViewTableRecord
  2
AM_VIEW1
 70
     0
 40
148.5
 10
121.0750262329485
 20
222.75
 41
242.1500524658971
 11
0.0
 21
0.0
 31
1.0
 12
0.0
 22
0.0
 32
0.0
 42
50.0
 43
-1370.695619172058
 44
-1370.695619172058
 50
0.0
 71
     0
281
     0
 72
     0
  0
VIEW
  5
AE2
330
6
100
AcDbSymbolTableRecord
100
AcDbViewTableRecord
  2
AM_VIEW2
 70
     0
 40
148.5
 10
298.9249737670514
 20
222.75
 41
242.1500524658971
 11
0.0
 21
0.0
 31
1.0
 12
0.0
 22
0.0
 32
0.0
 42
50.0
 43
-1370.695619172058
 44
-1370.695619172058
 50
0.0
 71
     0
281
     0
 72
     0
  0
VIEW
  5
AE3
330
6
100
AcDbSymbolTableRecord
100
AcDbViewTableRecord
  2
AM_VIEW3
 70
     0
 40
148.5
 10
121.0750262329485
 20
74.25
 41
242.1500524658971
 11
0.0
 21
0.0
 31
1.0
 12
0.0
 22
0.0
 32
0.0
 42
50.0
 43
-1370.695619172058
 44
-1370.695619172058
 50
0.0
 71
     0
281
     0
 72
     0
  0
VIEW
  5
AE4
330
6
100
AcDbSymbolTableRecord
100
AcDbViewTableRecord
  2
AM_VIEW4
 70
     0
 40
148.5
 10
298.9249737670514
 20
74.25
 41
242.1500524658971
 11
0.0
 21
0.0
 31
1.0
 12
0.0
 22
0.0
 32
0.0
 42
50.0
 43
-1370.695619172058
 44
-1370.695619172058
 50
0.0
 71
     0
281
     0
 72
     0
  0
VIEW
  5
AE5
330
6
100
AcDbSymbolTableRecord
100
AcDbViewTableRecord
  2
AM_VIEW5
 70
     0
 40
148.5
 10
210.0
 20
148.5
 41
242.1500524658971
 11
0.0
 21
0.0
 31
1.0
 12
0.0
 22
0.0
 32
0.0
 42
50.0
 43
-1370.695619172058
 44
-1370.695619172058
 50
0.0
 71
     0
281
     0
 72
     0
  0
VIEW
  5
AE6
330
6
100
AcDbSymbolTableRecord
100
AcDbViewTableRecord
  2
AM_VIEW6
 70
     0
 40
296.99703
 10
210.0
 20
148.5
 41
484.295261930745
 11
0.0
 21
0.0
 31
1.0
 12
0.0
 22
0.0
 32
0.0
 42
50.0
 43
-1370.695619172058
 44
-1370.695619172058
 50
0.0
 71
     0
281
     0
 72
     0
  0
ENDTAB
  0
TABLE
  2
UCS
  5
7
330
0
100
AcDbSymbolTable
 70
     0
  0
ENDTAB
  0
TABLE
  2
APPID
  5
9
330
0
100
AcDbSymbolTable
 70
    60
  0
APPID
  5
12
330
9
100
AcDbSymbolTableRecord
100
AcDbRegAppTableRecord
  2
ACAD
 70
     0
  0
APPID
  5
30
330
9
100
AcDbSymbolTableRecord
100
AcDbRegAppTableRecord
  2
MCAD_NO_VIS
 70
     0
  0
APPID
  5
31
330
9
100
AcDbSymbolTableRecord
100
AcDbRegAppTableRecord
  2
ACAD_TEMP_GRAPHIC
 70
     0
  0
APPID
  5
44
330
9
100
AcDbSymbolTableRecord
100
AcDbRegAppTableRecord
  2
ACATTRIBSERVICES
 70
     0
  0
APPID
  5
7A1
330
9
100
AcDbSymbolTableRecord
100
AcDbRegAppTableRecord
  2
GENIUS_GENDIMSH_14
 70
     0
  0
APPID
  5
A49
330
9
100
AcDbSymbolTableRecord
100
AcDbRegAppTableRecord
  2
GENIUS_GENREC_14
 70
     0
  0
APPID
  5
A4A
330
9
100
AcDbSymbolTableRecord
100
AcDbRegAppTableRecord
  2
GENIUS_GENOBJ-N-REC_13
 70
     0
  0
APPID
  5
A4B
330
9
100
AcDbSymbolTableRecord
100
AcDbRegAppTableRecord
  2
GENIUS_GENODEF_13
 70
     0
  0
APPID
  5
A4C
330
9
100
AcDbSymbolTableRecord
100
AcDbRegAppTableRecord
  2
DCO15
 70
     0
  0
APPID
  5
ADC
330
9
100
AcDbSymbolTableRecord
100
AcDbRegAppTableRecord
  2
GENIUS_GENOLIS_13
 70
     0
  0
APPID
  5
ADD
330
9
100
AcDbSymbolTableRecord
100
AcDbRegAppTableRecord
  2
GENIUS_GENOENT_13
 70
     0
  0
APPID
  5
ADE
330
9
100
AcDbSymbolTableRecord
100
AcDbRegAppTableRecord
  2
GENIUS_GENOBJ-N-TIT_13
 70
     0
  0
APPID
  5
ADF
330
9
100
AcDbSymbolTableRecord
100
AcDbRegAppTableRecord
  2
GENIUS_GENTITLE_13
 70
     0
  0
APPID
  5
AE0
330
9
100
AcDbSymbolTableRecord
100
AcDbRegAppTableRecord
  2
GENIUS_GENOREF_13
 70
     0
  0
APPID
  5
AE7
330
9
100
AcDbSymbolTableRecord
100
AcDbRegAppTableRecord
  2
GENIUS_GENSCREG_15
 70
     0
  0
APPID
  5
AE8
330
9
100
AcDbSymbolTableRecord
100
AcDbRegAppTableRecord
  2
GENIUS_GENOBJ-N-SDF_13
 70
     0
  0
APPID
  5
FAF
330
9
100
AcDbSymbolTableRecord
100
AcDbRegAppTableRecord
  2
GENIUS_GENBLLY_14
 70
     0
  0
APPID
  5
FB0
330
9
100
AcDbSymbolTableRecord
100
AcDbRegAppTableRecord
  2
GENIUS_GENTRA_14
 70
     0
  0
APPID
  5
1285
330
9
100
AcDbSymbolTableRecord
100
AcDbRegAppTableRecord
  2
GENIUS_GENDTOL_13
 70
     0
  0
APPID
  5
142D
330
9
100
AcDbSymbolTableRecord
100
AcDbRegAppTableRecord
  2
GENIUS_GENOBJ-N-CEN_13
 70
     0
  0
APPID
  5
1AB5
330
9
100
AcDbSymbolTableRecord
100
AcDbRegAppTableRecord
  2
GENIUS_GENOBJ-N-CRS_13
 70
     0
  0
APPID
  5
1B36
330
9
100
AcDbSymbolTableRecord
100
AcDbRegAppTableRecord
  2
GENIUS_GENOBJ-N-HTC_13
 70
     0
  0
APPID
  5
1B37
330
9
100
AcDbSymbolTableRecord
100
AcDbRegAppTableRecord
  2
GENIUS_GENHATCH_13
 70
     0
  0
APPID
  5
216D
330
9
100
AcDbSymbolTableRecord
100
AcDbRegAppTableRecord
  2
GENIUS_GENOBJ-N-FIL_13
 70
     0
  0
APPID
  5
2356
330
9
100
AcDbSymbolTableRecord
100
AcDbRegAppTableRecord
  2
GEVID990412420
 70
     0
  0
APPID
  5
2357
330
9
100
AcDbSymbolTableRecord
100
AcDbRegAppTableRecord
  2
GEVDC
 70
     0
  0
APPID
  5
2358
330
9
100
AcDbSymbolTableRecord
100
AcDbRegAppTableRecord
  2
GEVCON
 70
     0
  0
APPID
  5
235B
330
9
100
AcDbSymbolTableRecord
100
AcDbRegAppTableRecord
  2
GEVRADREF
 70
     0
  0
APPID
  5
2360
330
9
100
AcDbSymbolTableRecord
100
AcDbRegAppTableRecord
  2
GENIUS_GENBH_13
 70
     0
  0
APPID
  5
2362
330
9
100
AcDbSymbolTableRecord
100
AcDbRegAppTableRecord
  2
GENIUS_GENOBJ-NBEHI-BHF_13
 70
     0
  0
APPID
  5
2364
330
9
100
AcDbSymbolTableRecord
100
AcDbRegAppTableRecord
  2
GENIUS_GENOBJ-NBEHI-BHB_13
 70
     0
  0
APPID
  5
2379
330
9
100
AcDbSymbolTableRecord
100
AcDbRegAppTableRecord
  2
GENIUS_GENOBJ-F-SCPASSM_13
 70
     0
  0
APPID
  5
3D74
330
9
100
AcDbSymbolTableRecord
100
AcDbRegAppTableRecord
  2
GENIUS_GENDIM_13
 70
     0
  0
APPID
  5
3D76
330
9
100
AcDbSymbolTableRecord
100
AcDbRegAppTableRecord
  2
GENIUS_GE3DTOL_13
 70
     0
  0
APPID
  5
3D9C
330
9
100
AcDbSymbolTableRecord
100
AcDbRegAppTableRecord
  2
AD_DRAW
 70
     0
  0
APPID
  5
3DE8
330
9
100
AcDbSymbolTableRecord
100
AcDbRegAppTableRecord
  2
ASURF_PCURVE_APPNAME
 70
     0
  0
APPID
  5
3DED
330
9
100
AcDbSymbolTableRecord
100
AcDbRegAppTableRecord
  2
AMG_3D2D_5.0
 70
     0
  0
APPID
  5
3E1B
330
9
100
AcDbSymbolTableRecord
100
AcDbRegAppTableRecord
  2
DESIGNERASSEMBLIES
 70
     0
  0
APPID
  5
3E20
330
9
100
AcDbSymbolTableRecord
100
AcDbRegAppTableRecord
  2
ACADM_DIM_EDIT
 70
     0
  0
APPID
  5
3E21
330
9
100
AcDbSymbolTableRecord
100
AcDbRegAppTableRecord
  2
AMDT_DM_ADJ
 70
     0
  0
APPID
  5
4143
330
9
100
AcDbSymbolTableRecord
100
AcDbRegAppTableRecord
  2
GENIUS_GENFIL_13
 70
     0
  0
APPID
  5
4144
330
9
100
AcDbSymbolTableRecord
100
AcDbRegAppTableRecord
  2
GENIUS_GENOBJ-N-CHA_13
 70
     0
  0
APPID
  5
4E17
330
9
100
AcDbSymbolTableRecord
100
AcDbRegAppTableRecord
  2
GEVID1008153417
 70
     0
  0
APPID
  5
4E58
330
9
100
AcDbSymbolTableRecord
100
AcDbRegAppTableRecord
  2
GEVID1008153418
 70
     0
  0
APPID
  5
4E5E
330
9
100
AcDbSymbolTableRecord
100
AcDbRegAppTableRecord
  2
GEVID1008153419
 70
     0
  0
APPID
  5
4E64
330
9
100
AcDbSymbolTableRecord
100
AcDbRegAppTableRecord
  2
GEVID1008153420
 70
     0
  0
APPID
  5
4E75
330
9
100
AcDbSymbolTableRecord
100
AcDbRegAppTableRecord
  2
GEVID1008153421
 70
     0
  0
APPID
  5
4EB7
330
9
100
AcDbSymbolTableRecord
100
AcDbRegAppTableRecord
  2
GENIUS_AMGTXT_16
 70
     0
  0
APPID
  5
7645
330
9
100
AcDbSymbolTableRecord
100
AcDbRegAppTableRecord
  2
GENIUS_GENOBJ-N-DIM_13
 70
     0
  0
APPID
  5
AAD0
330
9
100
AcDbSymbolTableRecord
100
AcDbRegAppTableRecord
  2
ACAD_DSTYLE_DIMARC_LENGTH_SYMBOL
 70
     0
  0
APPID
  5
AAD1
330
9
100
AcDbSymbolTableRecord
100
AcDbRegAppTableRecord
  2
ACAD_DSTYLE_DIMJOGGED_JOGANGLE_SYMBOL
 70
     0
  0
APPID
  5
AAFD
330
9
100
AcDbSymbolTableRecord
100
AcDbRegAppTableRecord
  2
ACAD_PSEXT
 70
     0
  0
APPID
  5
AD61
330
9
100
AcDbSymbolTableRecord
100
AcDbRegAppTableRecord
  2
AcAecLayerStandard
 70
     0
  0
APPID
  5
AEE3
330
9
100
AcDbSymbolTableRecord
100
AcDbRegAppTableRecord
  2
ACAD_EXEMPT_FROM_CAD_STANDARDS
 70
     0
  0
APPID
  5
B1BE
330
9
100
AcDbSymbolTableRecord
100
AcDbRegAppTableRecord
  2
GENIUS_GENCEN_19
 70
     0
  0
APPID
  5
B597
330
9
100
AcDbSymbolTableRecord
100
AcDbRegAppTableRecord
  2
ACAD_MLEADERVER
 70
     0
  0
APPID
  5
B7CC
330
9
100
AcDbSymbolTableRecord
100
AcDbRegAppTableRecord
  2
ACAD_DSTYLE_DIMINSPECT
 70
     0
  0
APPID
  5
B7CD
330
9
100
AcDbSymbolTableRecord
100
AcDbRegAppTableRecord
  2
ACAD_DSTYLE_DIMRADIAL_EXTENSION
 70
     0
  0
APPID
  5
CC82
330
9
100
AcDbSymbolTableRecord
100
AcDbRegAppTableRecord
  2
ACDBBLOCKREPETAG
 70
     0
  0
APPID
  5
CC83
330
9
100
AcDbSymbolTableRecord
100
AcDbRegAppTableRecord
  2
AcDbDynamicBlockGUID
 70
     0
  0
ENDTAB
  0
TABLE
  2
DIMSTYLE
  5
A
330
0
100
AcDbSymbolTable
 70
    18
100
AcDbDimStyleTable
 71
     1
340
2515
  0
DIMSTYLE
105
A76
330
A
100
AcDbSymbolTableRecord
100
AcDbDimStyleTableRecord
  2
STANDARD
 70
     0
 41
3.0
 42
1.0
 43
7.0
 44
2.0
 73
     0
 74
     0
 77
     1
140
2.799999999999999
141
0.0
143
0.0394
147
0.7
171
     4
172
     1
173
     1
176
     3
177
     3
178
     2
271
     3
272
     3
273
     8
274
     4
289
     0
340
A74
341
A66
343
A66
344
A66
  0
DIMSTYLE
105
2515
330
A
100
AcDbSymbolTableRecord
100
AcDbDimStyleTableRecord
  2
SYS
 70
     0
  4
"
 41
1.0
 42
1.0
 43
10.0
 44
1.0
 47
0.1
 48
0.1
 73
     0
 74
     0
 77
     1
 78
     8
 79
     2
140
3.5
141
0.0
143
0.0393701
146
0.71
147
1.5
172
     1
176
   256
177
   256
178
     7
271
     2
272
     2
283
     0
284
     8
340
11
371
    -1
372
    -1
1001
ACAD_DSTYLE_DIMJOGGED_JOGANGLE_SYMBOL
1070
   384
1040
0.7853981633974483
1001
ACAD_DSTYLE_DIMARC_LENGTH_SYMBOL
1070
   379
1070
     1
  0
DIMSTYLE
105
2516
102
{ACAD_REACTORS
330
C3DC
330
E04A
102
}
330
A
100
AcDbSymbolTableRecord
100
AcDbDimStyleTableRecord
  2
SYS$3
 70
     0
  4
"
 41
2.0
 42
1.0
 43
10.0
 44
1.0
 47
0.1
 48
0.1
 73
     0
 77
     1
 78
     8
 79
     2
140
3.5
141
0.0
143
0.0393701
146
0.71
147
1.5
176
   256
177
   256
178
     2
271
     2
272
     2
283
     0
284
     8
288
     1
340
11
342
A66
371
    -1
372
    -1
1001
ACAD_DSTYLE_DIMJOGGED_JOGANGLE_SYMBOL
1070
   384
1040
0.7853981633974483
1001
ACAD_DSTYLE_DIMARC_LENGTH_SYMBOL
1070
   379
1070
     1
  0
DIMSTYLE
105
2517
330
A
100
AcDbSymbolTableRecord
100
AcDbDimStyleTableRecord
  2
SYS$4
 70
     0
  4
"
 41
2.0
 42
1.0
 43
10.0
 44
1.0
 47
0.1
 48
0.1
 73
     0
 77
     1
 78
     8
 79
     2
140
3.5
141
0.0
143
0.0393701
146
0.71
147
1.5
173
     1
176
   256
177
   256
178
     2
271
     2
272
     2
283
     0
284
     8
288
     1
340
11
344
A66
371
    -1
372
    -1
1001
ACAD_DSTYLE_DIMJOGGED_JOGANGLE_SYMBOL
1070
   384
1040
0.7853981633974483
1001
ACAD_DSTYLE_DIMARC_LENGTH_SYMBOL
1070
   379
1070
     1
  0
DIMSTYLE
105
2518
330
A
100
AcDbSymbolTableRecord
100
AcDbDimStyleTableRecord
  2
SYS$6
 70
     0
  4
"
 41
2.0
 42
1.0
 43
10.0
 44
1.0
 47
0.1
 48
0.1
 73
     0
 74
     0
 78
     8
 79
     2
140
3.5
141
0.0
143
0.0393701
146
0.71
147
1.5
172
     1
176
   256
177
   256
178
     2
271
     2
272
     2
283
     0
284
     8
340
11
341
A66
371
    -1
372
    -1
1001
ACAD_DSTYLE_DIMJOGGED_JOGANGLE_SYMBOL
1070
   384
1040
0.7853981633974483
1001
ACAD_DSTYLE_DIMARC_LENGTH_SYMBOL
1070
   379
1070
     1
  0
DIMSTYLE
105
2519
330
A
100
AcDbSymbolTableRecord
100
AcDbDimStyleTableRecord
  2
SYS$7
 70
     0
  4
"
 41
2.0
 42
1.0
 43
10.0
 44
1.0
 47
0.1
 48
0.1
 73
     0
 74
     0
 77
     1
 78
     8
 79
     2
140
5.0
141
0.0
143
0.0393701
146
0.71
147
1.5
172
     1
176
   256
177
   256
178
     2
271
     2
272
     2
283
     0
284
     8
340
11
341
A66
342
A66
371
    -1
372
    -1
1001
ACAD_DSTYLE_DIMJOGGED_JOGANGLE_SYMBOL
1070
   384
1040
0.7853981633974483
1001
ACAD_DSTYLE_DIMARC_LENGTH_SYMBOL
1070
   379
1070
     1
  0
DIMSTYLE
105
251A
330
A
100
AcDbSymbolTableRecord
100
AcDbDimStyleTableRecord
  2
SYS$SF
 70
     0
  4
"
 41
2.5
 42
1.0
 43
10.0
 44
1.0
 47
0.1
 48
0.1
 73
     0
 74
     0
 75
     1
 76
     1
 77
     1
 78
     8
 79
     2
140
3.5
141
0.0
143
0.0393701
146
0.71
147
1.5
172
     1
176
   256
177
   256
178
     2
271
     2
272
     3
283
     0
284
     8
340
11
341
6C4
342
6C4
371
    -1
372
    -1
1001
ACAD_DSTYLE_DIMJOGGED_JOGANGLE_SYMBOL
1070
   384
1040
0.7853981633974483
1001
ACAD_DSTYLE_DIMARC_LENGTH_SYMBOL
1070
   379
1070
     1
  0
DIMSTYLE
105
251B
330
A
100
AcDbSymbolTableRecord
100
AcDbDimStyleTableRecord
  2
SYS$SH
 70
     0
  4
"
 41
2.5
 42
1.0
 43
10.0
 44
1.0
 47
0.1
 48
0.1
 73
     0
 74
     0
 75
     1
 76
     1
 77
     1
 78
     8
 79
     2
140
3.5
141
0.0
143
0.0393701
144
2.0
146
0.71
147
1.5
172
     1
173
     1
176
   256
177
   256
178
     2
271
     2
272
     3
283
     0
284
     8
340
11
341
6C4
343
72
344
6C4
371
    -1
372
    -1
1001
ACAD_DSTYLE_DIMJOGGED_JOGANGLE_SYMBOL
1070
   384
1040
0.7853981633974483
1001
ACAD_DSTYLE_DIMARC_LENGTH_SYMBOL
1070
   379
1070
     1
  0
DIMSTYLE
105
2A59
102
{ACAD_REACTORS
330
C9D5
102
}
330
A
100
AcDbSymbolTableRecord
100
AcDbDimStyleTableRecord
  2
SYS$2
 70
     0
  4
"
 41
1.0
 42
1.0
 43
10.0
 44
1.0
 47
0.1
 48
0.1
 73
     0
 74
     0
 77
     1
 78
     8
 79
     2
140
3.5
141
0.0
143
0.0393701
146
0.71
147
1.5
172
     1
176
   256
177
   256
178
     2
271
     2
272
     2
283
     0
284
     8
340
11
342
6C4
371
    -1
372
    -1
1001
ACAD_DSTYLE_DIMJOGGED_JOGANGLE_SYMBOL
1070
   384
1040
0.7853981633974483
1001
ACAD_DSTYLE_DIMARC_LENGTH_SYMBOL
1070
   379
1070
     1
  0
DIMSTYLE
105
2AAB
102
{ACAD_REACTORS
330
C14C
330
C178
330
C197
330
C1C3
330
C1FD
330
C270
330
C2B4
330
C2EE
330
C332
330
C35A
330
C382
330
C3AA
330
C402
330
C433
330
E054
330
E08E
102
}
330
A
100
AcDbSymbolTableRecord
100
AcDbDimStyleTableRecord
  2
SYS$0
 70
     0
  4
"
 41
1.0
 42
1.0
 43
10.0
 44
1.0
 47
0.1
 48
0.1
 73
     0
 74
     0
 77
     1
 78
     8
 79
     2
140
3.200000000000001
141
0.0
143
0.0393701
146
0.71
147
1.5
172
     1
176
   256
177
   256
178
     2
271
     2
272
     2
283
     0
284
     8
340
11
341
A66
342
6C4
371
    -1
372
    -1
1001
ACAD_DSTYLE_DIMJOGGED_JOGANGLE_SYMBOL
1070
   384
1040
0.7853981633974483
1001
ACAD_DSTYLE_DIMARC_LENGTH_SYMBOL
1070
   379
1070
     1
  0
DIMSTYLE
105
AF99
330
A
100
AcDbSymbolTableRecord
100
AcDbDimStyleTableRecord
  2
AM_ISO
 70
     0
  4
"
 41
2.5
 42
1.0
 43
10.0
 44
1.0
 47
0.1
 48
0.1
 73
     0
 74
     0
 77
     1
 78
     8
 79
     2
140
3.5
141
0.0
143
0.0393701
146
0.71
147
1.5
172
     1
176
   256
177
   256
178
     2
271
     2
272
     3
274
     4
283
     0
284
     8
340
11
371
    -1
372
    -1
  0
DIMSTYLE
105
BEF7
330
A
100
AcDbSymbolTableRecord
100
AcDbDimStyleTableRecord
  2
JIS
 70
     0
 41
2.000000004799999
 42
1.250000003
 44
1.250000003
 73
     0
 74
     0
 77
     1
 78
     8
140
2.500000006
141
1.250000003
144
0.9999999975999999
147
0.2500000006
173
     1
271
     2
272
     2
284
     8
340
BEF2
343
BDFD
344
BDFD
  0
DIMSTYLE
105
BEF8
330
A
100
AcDbSymbolTableRecord
100
AcDbDimStyleTableRecord
  2
AM_ANSI
 70
     0
  4
mm
 41
0.1
 42
0.05
 43
0.5
 44
0.1
 47
0.1
 48
0.1
 78
     7
 79
     2
140
0.12
141
0.0
146
0.71
147
0.06
176
   256
177
   256
178
     2
274
     4
284
     7
340
11
371
    -1
372
    -1
1001
ACAD_DSTYLE_DIMARC_LENGTH_SYMBOL
1070
   379
1070
     1
  0
DIMSTYLE
105
BEF9
330
A
100
AcDbSymbolTableRecord
100
AcDbDimStyleTableRecord
  2
AM_ANSI$3
 70
     0
  4
mm
 41
0.1
 42
0.05
 43
0.5
 44
0.1
 47
0.1
 48
0.1
 78
     7
 79
     2
140
0.12
141
0.0
146
0.71
147
0.06
176
   256
177
   256
178
     2
274
     4
284
     7
288
     1
289
     0
340
11
371
    -1
372
    -1
1001
ACAD_DSTYLE_DIMARC_LENGTH_SYMBOL
1070
   379
1070
     1
  0
DIMSTYLE
105
BEFA
330
A
100
AcDbSymbolTableRecord
100
AcDbDimStyleTableRecord
  2
AM_ANSI$4
 70
     0
  4
mm
 41
0.1
 42
0.05
 43
0.5
 44
0.1
 47
0.1
 48
0.1
 78
     7
 79
     2
140
0.12
141
0.0
146
0.71
147
0.06
176
   256
177
   256
178
     2
274
     4
284
     7
288
     1
289
     0
340
11
371
    -1
372
    -1
1001
ACAD_DSTYLE_DIMARC_LENGTH_SYMBOL
1070
   379
1070
     1
  0
DIMSTYLE
105
BEFB
330
A
100
AcDbSymbolTableRecord
100
AcDbDimStyleTableRecord
  2
AM_ANSI$7
 70
     0
  4
mm
 41
0.1
 42
0.05
 43
0.5
 44
0.1
 47
0.1
 48
0.1
 78
     7
 79
     2
140
0.24
141
0.0
146
0.71
147
0.06
176
   256
177
   256
178
     2
274
     4
284
     7
340
11
371
    -1
372
    -1
1001
ACAD_DSTYLE_DIMARC_LENGTH_SYMBOL
1070
   379
1070
     1
  0
DIMSTYLE
105
BEFC
330
A
100
AcDbSymbolTableRecord
100
AcDbDimStyleTableRecord
  2
AM_ANSI$SF
 70
     0
  4
mm
 41
0.1
 42
0.05
 43
0.5
 44
0.1
 47
0.1
 48
0.1
 75
     1
 76
     1
 78
     7
 79
     2
140
0.12
141
0.0
146
0.71
147
0.06
176
   256
177
   256
178
     2
274
     4
284
     7
340
11
371
    -1
372
    -1
1001
ACAD_DSTYLE_DIMARC_LENGTH_SYMBOL
1070
   379
1070
     1
  0
DIMSTYLE
105
BEFD
330
A
100
AcDbSymbolTableRecord
100
AcDbDimStyleTableRecord
  2
AM_ANSI$SH
 70
     0
  4
mm
 41
0.1
 42
0.05
 43
0.5
 44
0.1
 47
0.1
 48
0.1
 75
     1
 76
     1
 78
     7
 79
     2
140
0.12
141
0.0
146
0.71
147
0.06
173
     1
176
   256
177
   256
178
     2
274
     4
284
     7
340
11
343
72
371
    -1
372
    -1
1001
ACAD_DSTYLE_DIMARC_LENGTH_SYMBOL
1070
   379
1070
     1
  0
ENDTAB
  0
TABLE
  2
BLOCK_RECORD
  5
1
330
0
100
AcDbSymbolTable
 70
    43
  0
BLOCK_RECORD
  5
1F
102
{ACAD_XDICTIONARY
360
8A
102
}
330
1
100
AcDbSymbolTableRecord
100
AcDbBlockTableRecord
  2
*Model_Space
340
22
  0
BLOCK_RECORD
  5
1B
330
1
100
AcDbSymbolTableRecord
100
AcDbBlockTableRecord
  2
*Paper_Space
340
1E
  0
BLOCK_RECORD
  5
23
330
1
100
AcDbSymbolTableRecord
100
AcDbBlockTableRecord
  2
*Paper_Space0
340
26
  0
BLOCK_RECORD
  5
72
330
1
100
AcDbSymbolTableRecord
100
AcDbBlockTableRecord
  2
GENAXEH
340
0
  0
BLOCK_RECORD
  5
6C4
330
1
100
AcDbSymbolTableRecord
100
AcDbBlockTableRecord
  2
_Dot
340
0
102
{BLKREFS
331
E1BB
331
E1BC
331
E1C4
331
E1C5
331
E1CD
331
E1CE
331
E1D6
331
E1D7
331
E1E1
331
E1E2
331
E1EA
331
E1EB
331
E1F3
331
E1F4
331
E1FC
331
E1FD
331
E205
331
E206
331
E20E
331
E20F
331
E217
331
E218
331
E220
331
E221
331
E22F
331
E230
331
E238
331
E239
331
E35E
331
E35F
331
E40C
331
E40D
331
E41D
331
E41E
102
}
  0
BLOCK_RECORD
  5
A66
330
1
100
AcDbSymbolTableRecord
100
AcDbBlockTableRecord
  2
_OPEN30
340
0
102
{BLKREFS
331
E229
102
}
  0
BLOCK_RECORD
  5
B6A3
330
1
100
AcDbSymbolTableRecord
100
AcDbBlockTableRecord
  2
GENDOT
340
0
102
{BLKREFS
331
E04F
331
E407
331
E415
331
E416
102
}
  0
BLOCK_RECORD
  5
BDFD
330
1
100
AcDbSymbolTableRecord
100
AcDbBlockTableRecord
  2
_SE_OPEN
340
0
  0
BLOCK_RECORD
  5
BE03
330
1
100
AcDbSymbolTableRecord
100
AcDbBlockTableRecord
  2
DMBLK10
340
0
  0
BLOCK_RECORD
  5
BE0A
330
1
100
AcDbSymbolTableRecord
100
AcDbBlockTableRecord
  2
DMBLK11
340
0
  0
BLOCK_RECORD
  5
BE13
330
1
100
AcDbSymbolTableRecord
100
AcDbBlockTableRecord
  2
DMBLK12
340
0
  0
BLOCK_RECORD
  5
BE1C
330
1
100
AcDbSymbolTableRecord
100
AcDbBlockTableRecord
  2
DMBLK13
340
0
  0
BLOCK_RECORD
  5
BE26
330
1
100
AcDbSymbolTableRecord
100
AcDbBlockTableRecord
  2
DMBLK14
340
0
  0
BLOCK_RECORD
  5
BE30
330
1
100
AcDbSymbolTableRecord
100
AcDbBlockTableRecord
  2
DMBLK15
340
0
  0
BLOCK_RECORD
  5
BE3A
330
1
100
AcDbSymbolTableRecord
100
AcDbBlockTableRecord
  2
DMBLK16
340
0
  0
BLOCK_RECORD
  5
BE45
330
1
100
AcDbSymbolTableRecord
100
AcDbBlockTableRecord
  2
DMBLK17
340
0
  0
BLOCK_RECORD
  5
BE51
330
1
100
AcDbSymbolTableRecord
100
AcDbBlockTableRecord
  2
DMBLK18
340
0
  0
BLOCK_RECORD
  5
BE5C
330
1
100
AcDbSymbolTableRecord
100
AcDbBlockTableRecord
  2
DMBLK19
340
0
  0
BLOCK_RECORD
  5
BE66
330
1
100
AcDbSymbolTableRecord
100
AcDbBlockTableRecord
  2
DMBLK20
340
0
  0
BLOCK_RECORD
  5
BE70
330
1
100
AcDbSymbolTableRecord
100
AcDbBlockTableRecord
  2
DMBLK21
340
0
  0
BLOCK_RECORD
  5
BE79
330
1
100
AcDbSymbolTableRecord
100
AcDbBlockTableRecord
  2
DMBLK22
340
0
  0
BLOCK_RECORD
  5
BE82
330
1
100
AcDbSymbolTableRecord
100
AcDbBlockTableRecord
  2
DMBLK23
340
0
  0
BLOCK_RECORD
  5
BE8C
330
1
100
AcDbSymbolTableRecord
100
AcDbBlockTableRecord
  2
DMBLK24
340
0
  0
BLOCK_RECORD
  5
BE93
330
1
100
AcDbSymbolTableRecord
100
AcDbBlockTableRecord
  2
DMBLK25
340
0
  0
BLOCK_RECORD
  5
BE9B
330
1
100
AcDbSymbolTableRecord
100
AcDbBlockTableRecord
  2
DMBLK26
340
0
  0
BLOCK_RECORD
  5
C14D
330
1
100
AcDbSymbolTableRecord
100
AcDbBlockTableRecord
  2
*D24
340
0
  0
BLOCK_RECORD
  5
C179
330
1
100
AcDbSymbolTableRecord
100
AcDbBlockTableRecord
  2
*D25
340
0
  0
BLOCK_RECORD
  5
C198
330
1
100
AcDbSymbolTableRecord
100
AcDbBlockTableRecord
  2
*D26
340
0
  0
BLOCK_RECORD
  5
C1C4
330
1
100
AcDbSymbolTableRecord
100
AcDbBlockTableRecord
  2
*D27
340
0
  0
BLOCK_RECORD
  5
C1FE
330
1
100
AcDbSymbolTableRecord
100
AcDbBlockTableRecord
  2
*D28
340
0
  0
BLOCK_RECORD
  5
C271
330
1
100
AcDbSymbolTableRecord
100
AcDbBlockTableRecord
  2
*D29
340
0
  0
BLOCK_RECORD
  5
C2B5
330
1
100
AcDbSymbolTableRecord
100
AcDbBlockTableRecord
  2
*D30
340
0
  0
BLOCK_RECORD
  5
C2EF
330
1
100
AcDbSymbolTableRecord
100
AcDbBlockTableRecord
  2
*D31
340
0
  0
BLOCK_RECORD
  5
C333
330
1
100
AcDbSymbolTableRecord
100
AcDbBlockTableRecord
  2
*D32
340
0
  0
BLOCK_RECORD
  5
C35B
330
1
100
AcDbSymbolTableRecord
100
AcDbBlockTableRecord
  2
*D33
340
0
  0
BLOCK_RECORD
  5
C383
330
1
100
AcDbSymbolTableRecord
100
AcDbBlockTableRecord
  2
*D34
340
0
  0
BLOCK_RECORD
  5
C3AB
330
1
100
AcDbSymbolTableRecord
100
AcDbBlockTableRecord
  2
*D35
340
0
  0
BLOCK_RECORD
  5
C3DD
330
1
100
AcDbSymbolTableRecord
100
AcDbBlockTableRecord
  2
*D36
340
0
  0
BLOCK_RECORD
  5
C403
330
1
100
AcDbSymbolTableRecord
100
AcDbBlockTableRecord
  2
*D37
340
0
  0
BLOCK_RECORD
  5
C434
330
1
100
AcDbSymbolTableRecord
100
AcDbBlockTableRecord
  2
*D38
340
0
  0
BLOCK_RECORD
  5
C9D6
330
1
100
AcDbSymbolTableRecord
100
AcDbBlockTableRecord
  2
*D39
340
0
  0
BLOCK_RECORD
  5
E055
330
1
100
AcDbSymbolTableRecord
100
AcDbBlockTableRecord
  2
*D40
340
0
  0
BLOCK_RECORD
  5
E060
330
1
100
AcDbSymbolTableRecord
100
AcDbBlockTableRecord
  2
*D41
340
0
  0
BLOCK_RECORD
  5
E08F
330
1
100
AcDbSymbolTableRecord
100
AcDbBlockTableRecord
  2
*D42
340
0
  0
ENDTAB
  0
ENDSEC
  0
SECTION
  2
BLOCKS
  0
BLOCK
  5
20
330
1F
100
AcDbEntity
  8
0
100
AcDbBlockBegin
  2
*Model_Space
 70
     0
 10
0.0
 20
0.0
 30
0.0
  3
*Model_Space
  1

  0
ENDBLK
  5
21
330
1F
100
AcDbEntity
  8
0
100
AcDbBlockEnd
  0
BLOCK
  5
1C
330
1B
100
AcDbEntity
 67
     1
  8
0
100
AcDbBlockBegin
  2
*Paper_Space
 70
     0
 10
0.0
 20
0.0
 30
0.0
  3
*Paper_Space
  1

  0
ENDBLK
  5
1D
330
1B
100
AcDbEntity
 67
     1
  8
0
100
AcDbBlockEnd
  0
BLOCK
  5
24
330
23
100
AcDbEntity
 67
     1
  8
0
100
AcDbBlockBegin
  2
*Paper_Space0
 70
     0
 10
0.0
 20
0.0
 30
0.0
  3
*Paper_Space0
  1

  0
ENDBLK
  5
25
330
23
100
AcDbEntity
 67
     1
  8
0
100
AcDbBlockEnd
  0
BLOCK
  5
74
330
72
100
AcDbEntity
  8
0
100
AcDbBlockBegin
  2
GENAXEH
 70
     0
 10
0.0
 20
0.0
 30
0.0
  3
GENAXEH
  1

  0
LINE
  5
73
330
72
100
AcDbEntity
  8
0
100
AcDbLine
 10
-1.0
 20
0.0
 30
0.0
 11
1.0
 21
0.0
 31
0.0
  0
ENDBLK
  5
75
330
72
100
AcDbEntity
  8
0
100
AcDbBlockEnd
  0
BLOCK
  5
6C7
330
6C4
100
AcDbEntity
  8
0
100
AcDbBlockBegin
  2
_Dot
 70
     0
 10
0.0
 20
0.0
 30
0.0
  3
_Dot
  1

  0
LWPOLYLINE
  5
6C5
330
6C4
100
AcDbEntity
  8
0
  6
ByBlock
 62
     0
100
AcDbPolyline
 90
        2
 70
     1
 43
0.5
 10
-0.25
 20
0.0
 42
1.0
 10
0.25
 20
0.0
 42
1.0
  0
LINE
  5
6C6
330
6C4
100
AcDbEntity
  8
0
  6
ByBlock
 62
     0
370
    -2
100
AcDbLine
 10
-0.5
 20
0.0
 30
0.0
 11
-1.0
 21
0.0
 31
0.0
  0
ENDBLK
  5
6C8
330
6C4
100
AcDbEntity
  8
0
100
AcDbBlockEnd
  0
BLOCK
  5
A6A
330
A66
100
AcDbEntity
  8
0
100
AcDbBlockBegin
  2
_OPEN30
 70
     0
 10
0.0
 20
0.0
 30
0.0
  3
_OPEN30
  1

  0
LINE
  5
A67
330
A66
100
AcDbEntity
  8
0
  6
ByBlock
 62
     0
100
AcDbLine
 10
-1.0
 20
0.26794919
 30
0.0
 11
0.0
 21
0.0
 31
0.0
  0
LINE
  5
A68
330
A66
100
AcDbEntity
  8
0
  6
ByBlock
 62
     0
100
AcDbLine
 10
0.0
 20
0.0
 30
0.0
 11
-1.0
 21
-0.26794919
 31
0.0
  0
LINE
  5
A69
330
A66
100
AcDbEntity
  8
0
  6
ByBlock
 62
     0
100
AcDbLine
 10
0.0
 20
0.0
 30
0.0
 11
-1.0
 21
0.0
 31
0.0
  0
ENDBLK
  5
A6B
330
A66
100
AcDbEntity
  8
0
100
AcDbBlockEnd
  0
BLOCK
  5
B6A4
330
B6A3
100
AcDbEntity
  8
0
100
AcDbBlockBegin
  2
GENDOT
 70
     0
 10
0.0
 20
0.0
 30
0.0
  3
GENDOT
  1

  0
LINE
  5
B6A5
330
B6A3
100
AcDbEntity
  8
0
100
AcDbLine
 10
0.0
 20
0.0
 30
0.0
 11
-1.0
 21
0.0
 31
0.0
  0
LWPOLYLINE
  5
B6A6
330
B6A3
100
AcDbEntity
  8
0
100
AcDbPolyline
 90
        2
 70
     1
 43
0.25
 10
-0.125
 20
0.0
 42
1.0
 10
0.125
 20
0.0
 42
1.0
  0
ENDBLK
  5
B6A7
330
B6A3
100
AcDbEntity
  8
0
100
AcDbBlockEnd
  0
BLOCK
  5
BDFE
330
BDFD
100
AcDbEntity
  8
0
100
AcDbBlockBegin
  2
_SE_OPEN
 70
     0
 10
0.0
 20
0.0
 30
0.0
  3
_SE_OPEN
  1

  0
LINE
  5
BDFF
330
BDFD
100
AcDbEntity
  8
0
 62
     0
100
AcDbLine
 10
0.0
 20
0.0
 30
0.0
 11
-1.0
 21
-0.1665
 31
0.0
  0
LINE
  5
BE00
330
BDFD
100
AcDbEntity
  8
0
 62
     0
100
AcDbLine
 10
-1.0
 20
0.1665
 30
0.0
 11
0.0
 21
0.0
 31
0.0
  0
LINE
  5
BE01
330
BDFD
100
AcDbEntity
  8
0
 62
     0
100
AcDbLine
 10
0.0
 20
0.0
 30
0.0
 11
-1.0
 21
0.0
 31
0.0
  0
ENDBLK
  5
BE02
330
BDFD
100
AcDbEntity
  8
0
100
AcDbBlockEnd
  0
BLOCK
  5
BE04
330
BE03
100
AcDbEntity
  8
0
100
AcDbBlockBegin
  2
DMBLK10
 70
     0
 10
0.0
 20
0.0
 30
0.0
  3
DMBLK10
  1

  0
LWPOLYLINE
  5
BE05
330
BE03
100
AcDbEntity
  8
DV1_寸法線
  6
Continuous
 62
     7
100
AcDbPolyline
 90
        3
 70
     0
 43
0.0
 10
112.4875608259
 20
133.4174265206
 10
109.9713031892
 20
133.7208388766
 10
112.4499509069
 20
134.2499107464
  0
LWPOLYLINE
  5
BE06
330
BE03
100
AcDbEntity
  8
DV1_寸法線
  6
Continuous
 62
     7
100
AcDbPolyline
 90
        3
 70
     0
 43
0.0
 10
137.2531556559
 20
159.4213681693
 10
137.6584914646
 20
161.408027152
 10
137.9193875318
 20
159.397294879
  0
ARC
  5
BE07
330
BE03
100
AcDbEntity
  8
DV1_寸法線
  6
Continuous
 62
     7
100
AcDbCircle
 10
109.9713031892
 20
161.408027152
 30
0.0
 40
27.68718827541464
100
AcDbArc
 50
270.0
 51
0.0000025045
  0
TEXT
  5
BE08
330
BE03
100
AcDbEntity
  8
DV1_寸法線
  6
Continuous
 62
     7
100
AcDbText
 10
126.520183996409
 20
139.685194274791
 30
0.0
 40
2.500000006
  1
90°
 50
45.0
  7
SEACAD_Arial
 11
124.7524170392
 21
141.452961232
 31
0.0
100
AcDbText
 73
     3
  0
ENDBLK
  5
BE09
330
BE03
100
AcDbEntity
  8
0
100
AcDbBlockEnd
  0
BLOCK
  5
BE0B
330
BE0A
100
AcDbEntity
  8
0
100
AcDbBlockBegin
  2
DMBLK11
 70
     0
 10
0.0
 20
0.0
 30
0.0
  3
DMBLK11
  1

  0
LWPOLYLINE
  5
BE0C
330
BE0A
100
AcDbEntity
  8
DV1_寸法線
  6
Continuous
 62
     7
100
AcDbPolyline
 90
        3
 70
     0
 43
0.0
 10
189.756382624
 20
173.4080271012
 10
189.3397159431
 20
175.908027187
 10
188.9230492621
 20
173.4080271012
  0
LWPOLYLINE
  5
BE0D
330
BE0A
100
AcDbEntity
  8
DV1_寸法線
  6
Continuous
 62
     7
100
AcDbPolyline
 90
        3
 70
     0
 43
0.0
 10
189.6730492732
 20
87.9080264247
 10
189.3397159431
 20
85.9080264441
 10
189.006382613
 20
87.9080264247
  0
LINE
  5
BE0E
330
BE0A
100
AcDbEntity
  8
DV1_寸法線
  6
Continuous
 62
     7
100
AcDbLine
 10
193.8897160054
 20
175.908027187
 30
0.0
 11
188.0897159002
 21
175.908027187
 31
0.0
  0
LINE
  5
BE0F
330
BE0A
100
AcDbEntity
  8
DV1_寸法線
  6
Continuous
 62
     7
100
AcDbLine
 10
203.4897160286
 20
85.90802696969999
 30
0.0
 11
188.0897159002
 21
85.90802696969999
 31
0.0
  0
LINE
  5
BE10
330
BE0A
100
AcDbEntity
  8
DV1_寸法線
  6
Continuous
 62
     7
100
AcDbLine
 10
189.3397159431
 20
175.908027187
 30
0.0
 11
189.3397159431
 21
85.9080264441
 31
0.0
  0
TEXT
  5
BE11
330
BE0A
100
AcDbEntity
  8
DV1_寸法線
  6
Continuous
 62
     7
100
AcDbText
 10
188.7147159414999
 20
129.0787585185
 30
0.0
 40
2.500000006
  1
90
 50
90.0
  7
SEACAD_Arial
 11
186.2147159355
 21
129.0787585185
 31
0.0
100
AcDbText
 73
     3
  0
ENDBLK
  5
BE12
330
BE0A
100
AcDbEntity
  8
0
100
AcDbBlockEnd
  0
BLOCK
  5
BE14
330
BE13
100
AcDbEntity
  8
0
100
AcDbBlockBegin
  2
DMBLK12
 70
     0
 10
0.0
 20
0.0
 30
0.0
  3
DMBLK12
  1

  0
LWPOLYLINE
  5
BE15
330
BE13
100
AcDbEntity
  8
DV1_寸法線
  6
Continuous
 62
     7
100
AcDbPolyline
 90
        3
 70
     0
 43
0.0
 10
197.6397161340999
 20
204.9913606974
 10
195.1397160483
 20
205.4080273784
 10
197.6397161340999
 20
205.8246940594
  0
LWPOLYLINE
  5
BE16
330
BE13
100
AcDbEntity
  8
DV1_寸法線
  6
Continuous
 62
     7
100
AcDbPolyline
 90
        3
 70
     0
 43
0.0
 10
227.3397161622
 20
205.0746940483
 10
229.3397161429
 20
205.4080273784
 10
227.3397161622
 20
205.7413607085
  0
LINE
  5
BE17
330
BE13
100
AcDbEntity
  8
DV1_寸法線
  6
Continuous
 62
     7
100
AcDbLine
 10
195.1397160483
 20
177.1580272299
 30
0.0
 11
195.1397160483
 21
206.6580274213
 31
0.0
  0
LINE
  5
BE18
330
BE13
100
AcDbEntity
  8
DV1_寸法線
  6
Continuous
 62
     7
100
AcDbLine
 10
229.3397161309
 20
181.6580272408
 30
0.0
 11
229.3397161309
 21
206.6580274213
 31
0.0
  0
LINE
  5
BE19
330
BE13
100
AcDbEntity
  8
DV1_寸法線
  6
Continuous
 62
     7
100
AcDbLine
 10
195.1397160483
 20
205.4080273784
 30
0.0
 11
229.3397161429
 21
205.4080273784
 31
0.0
  0
TEXT
  5
BE1A
330
BE13
100
AcDbEntity
  8
DV1_寸法線
  6
Continuous
 62
     7
100
AcDbText
 10
209.1147160881
 20
206.0330273799
 30
0.0
 40
2.500000006
  1
34.2
  7
SEACAD_Arial
 11
209.1147160881
 21
208.5330273859
 31
0.0
100
AcDbText
 73
     3
  0
ENDBLK
  5
BE1B
330
BE13
100
AcDbEntity
  8
0
100
AcDbBlockEnd
  0
BLOCK
  5
BE1D
330
BE1C
100
AcDbEntity
  8
0
100
AcDbBlockBegin
  2
DMBLK13
 70
     0
 10
0.0
 20
0.0
 30
0.0
  3
DMBLK13
  1

  0
LWPOLYLINE
  5
BE1E
330
BE1C
100
AcDbEntity
  8
DV1_寸法線
  6
Continuous
 62
     7
100
AcDbPolyline
 90
        3
 70
     0
 43
0.0
 10
220.0397160286
 20
194.9913606572
 10
222.5397161145
 20
195.4080273382
 10
220.0397160286
 20
195.8246940191
  0
LWPOLYLINE
  5
BE1F
330
BE1C
100
AcDbEntity
  8
DV1_寸法線
  6
Continuous
 62
     7
100
AcDbPolyline
 90
        3
 70
     0
 43
0.0
 10
231.3397161115
 20
195.0746940081
 10
229.3397161309
 20
195.4080273382
 10
231.3397161115
 20
195.7413606683
  0
LINE
  5
BE20
330
BE1C
100
AcDbEntity
  8
DV1_寸法線
  6
Continuous
 62
     7
100
AcDbLine
 10
222.5397161145
 20
173.5321666905
 30
0.0
 11
222.5397161145
 21
196.6580273811
 31
0.0
  0
LINE
  5
BE21
330
BE1C
100
AcDbEntity
  8
DV1_寸法線
  6
Continuous
 62
     7
100
AcDbLine
 10
229.3397161309
 20
181.6580272408
 30
0.0
 11
229.3397161309
 21
196.6580273811
 31
0.0
  0
LINE
  5
BE22
330
BE1C
100
AcDbEntity
  8
DV1_寸法線
  6
Continuous
 62
     7
100
AcDbLine
 10
218.5397161531
 20
195.4080273382
 30
0.0
 11
222.5397161145
 21
195.4080273382
 31
0.0
  0
LINE
  5
BE23
330
BE1C
100
AcDbEntity
  8
DV1_寸法線
  6
Continuous
 62
     7
100
AcDbLine
 10
229.3397161309
 20
195.4080273382
 30
0.0
 11
233.3397160922
 21
195.4080273382
 31
0.0
  0
TEXT
  5
BE24
330
BE1C
100
AcDbEntity
  8
DV1_寸法線
  6
Continuous
 62
     7
100
AcDbText
 10
223.7293502666
 20
196.0330273397
 30
0.0
 40
2.500000006
  1
6.8
  7
SEACAD_Arial
 11
223.7293502666
 21
198.5330273457
 31
0.0
100
AcDbText
 73
     3
  0
ENDBLK
  5
BE25
330
BE1C
100
AcDbEntity
  8
0
100
AcDbBlockEnd
  0
BLOCK
  5
BE27
330
BE26
100
AcDbEntity
  8
0
100
AcDbBlockBegin
  2
DMBLK14
 70
     0
 10
0.0
 20
0.0
 30
0.0
  3
DMBLK14
  1

  0
LWPOLYLINE
  5
BE28
330
BE26
100
AcDbEntity
  8
DV1_寸法線
  6
Continuous
 62
     7
100
AcDbPolyline
 90
        3
 70
     0
 43
0.0
 10
226.8397160451
 20
194.9913610318
 10
229.3397161309
 20
195.4080277128
 10
226.8397160451
 20
195.8246943938
  0
LWPOLYLINE
  5
BE29
330
BE26
100
AcDbEntity
  8
DV1_寸法線
  6
Continuous
 62
     7
100
AcDbPolyline
 90
        3
 70
     0
 43
0.0
 10
238.5397161289
 20
195.0746943827
 10
236.5397161483
 20
195.4080277128
 10
238.5397161289
 20
195.7413610429
  0
LINE
  5
BE2A
330
BE26
100
AcDbEntity
  8
DV1_寸法線
  6
Continuous
 62
     7
100
AcDbLine
 10
229.3397161309
 20
181.6580272408
 30
0.0
 11
229.3397161309
 21
196.6580277557
 31
0.0
  0
LINE
  5
BE2B
330
BE26
100
AcDbEntity
  8
DV1_寸法線
  6
Continuous
 62
     7
100
AcDbLine
 10
236.5397161483
 20
171.7580272169
 30
0.0
 11
236.5397161483
 21
196.6580277557
 31
0.0
  0
LINE
  5
BE2C
330
BE26
100
AcDbEntity
  8
DV1_寸法線
  6
Continuous
 62
     7
100
AcDbLine
 10
225.3397161696
 20
195.4080277128
 30
0.0
 11
229.3397161309
 21
195.4080277128
 31
0.0
  0
LINE
  5
BE2D
330
BE26
100
AcDbEntity
  8
DV1_寸法線
  6
Continuous
 62
     7
100
AcDbLine
 10
236.5397161483
 20
195.4080277128
 30
0.0
 11
240.5397161096
 21
195.4080277128
 31
0.0
  0
TEXT
  5
BE2E
330
BE26
100
AcDbEntity
  8
DV1_寸法線
  6
Continuous
 62
     7
100
AcDbText
 10
230.7293502664
 20
196.0330277143
 30
0.0
 40
2.500000006
  1
7.2
  7
SEACAD_Arial
 11
230.7293502664
 21
198.5330277203
 31
0.0
100
AcDbText
 73
     3
  0
ENDBLK
  5
BE2F
330
BE26
100
AcDbEntity
  8
0
100
AcDbBlockEnd
  0
BLOCK
  5
BE31
330
BE30
100
AcDbEntity
  8
0
100
AcDbBlockBegin
  2
DMBLK15
 70
     0
 10
0.0
 20
0.0
 30
0.0
  3
DMBLK15
  1

  0
LWPOLYLINE
  5
BE32
330
BE30
100
AcDbEntity
  8
DV1_寸法線
  6
Continuous
 62
     7
100
AcDbPolyline
 90
        3
 70
     0
 43
0.0
 10
234.0397160624
 20
184.9913601362
 10
236.5397161483
 20
185.4080268172
 10
234.0397160624
 20
185.8246934982
  0
LWPOLYLINE
  5
BE33
330
BE30
100
AcDbEntity
  8
DV1_寸法線
  6
Continuous
 62
     7
100
AcDbPolyline
 90
        3
 70
     0
 43
0.0
 10
241.5397161362
 20
185.0746934870999
 10
239.5397161555
 20
185.4080268172
 10
241.5397161362
 20
185.7413601473
  0
LINE
  5
BE34
330
BE30
100
AcDbEntity
  8
DV1_寸法線
  6
Continuous
 62
     7
100
AcDbLine
 10
236.5397161483
 20
171.7580272169
 30
0.0
 11
236.5397161483
 21
186.6580268601
 31
0.0
  0
LINE
  5
BE35
330
BE30
100
AcDbEntity
  8
DV1_寸法線
  6
Continuous
 62
     7
100
AcDbLine
 10
239.5397161555
 20
169.7580272121
 30
0.0
 11
239.5397161555
 21
186.6580268601
 31
0.0
  0
LINE
  5
BE36
330
BE30
100
AcDbEntity
  8
DV1_寸法線
  6
Continuous
 62
     7
100
AcDbLine
 10
232.5397161869
 20
185.4080268172
 30
0.0
 11
236.5397161483
 21
185.4080268172
 31
0.0
  0
LINE
  5
BE37
330
BE30
100
AcDbEntity
  8
DV1_寸法線
  6
Continuous
 62
     7
100
AcDbLine
 10
239.5397161555
 20
185.4080268172
 30
0.0
 11
243.5397161168
 21
185.4080268172
 31
0.0
  0
TEXT
  5
BE38
330
BE30
100
AcDbEntity
  8
DV1_寸法線
  6
Continuous
 62
     7
100
AcDbText
 10
237.1250820219
 20
186.0330268188
 30
0.0
 40
2.500000006
  1
3
  7
SEACAD_Arial
 11
237.1250820219
 21
188.5330268248
 31
0.0
100
AcDbText
 73
     3
  0
ENDBLK
  5
BE39
330
BE30
100
AcDbEntity
  8
0
100
AcDbBlockEnd
  0
BLOCK
  5
BE3B
330
BE3A
100
AcDbEntity
  8
0
100
AcDbBlockBegin
  2
DMBLK16
 70
     0
 10
0.0
 20
0.0
 30
0.0
  3
DMBLK16
  1

  0
LWPOLYLINE
  5
BE3C
330
BE3A
100
AcDbEntity
  8
DV1_寸法線
  6
Continuous
 62
     7
100
AcDbPolyline
 90
        3
 70
     0
 43
0.0
 10
231.8397162167
 20
204.9913602018
 10
229.3397161309
 20
205.4080268828
 10
231.8397162167
 20
205.8246935637
  0
LWPOLYLINE
  5
BE3D
330
BE3A
100
AcDbEntity
  8
DV1_寸法線
  6
Continuous
 62
     7
100
AcDbPolyline
 90
        3
 70
     0
 43
0.0
 10
250.0397157327
 20
205.0746935527
 10
252.0397157133
 20
205.4080268828
 10
250.0397157327
 20
205.7413602129
  0
LINE
  5
BE3E
330
BE3A
100
AcDbEntity
  8
DV1_寸法線
  6
Continuous
 62
     7
100
AcDbLine
 10
229.3397161309
 20
181.6580272408
 30
0.0
 11
229.3397161309
 21
206.6580269257
 31
0.0
  0
LINE
  5
BE3F
330
BE3A
100
AcDbEntity
  8
DV1_寸法線
  6
Continuous
 62
     7
100
AcDbLine
 10
252.0397161857
 20
164.6580271997
 30
0.0
 11
252.0397161857
 21
206.6580269257
 31
0.0
  0
LINE
  5
BE40
330
BE3A
100
AcDbEntity
  8
DV1_寸法線
  6
Continuous
 62
     7
100
AcDbLine
 10
229.3397161309
 20
205.4080268828
 30
0.0
 11
252.0397157133
 21
205.4080268828
 31
0.0
  0
TEXT
  5
BE41
330
BE3A
100
AcDbEntity
  8
DV1_寸法線
  6
Continuous
 62
     7
100
AcDbText
 10
237.5647159146
 20
206.0330268843
 30
0.0
 40
2.500000006
  1
22.7
  7
SEACAD_Arial
 11
237.5647159146
 21
208.5330268903
 31
0.0
100
AcDbText
 73
     3
  0
TEXT
  5
BE42
330
BE3A
100
AcDbEntity
  8
DV1_寸法線
  6
Continuous
 62
     7
100
AcDbText
 10
234.6968297288
 20
206.0330268843
 30
0.0
 40
2.500000006
  1
(
  7
SEACAD_Arial
 11
234.6968297288
 21
208.5330268903
 31
0.0
100
AcDbText
 73
     3
  0
TEXT
  5
BE43
330
BE3A
100
AcDbEntity
  8
DV1_寸法線
  6
Continuous
 62
     7
100
AcDbText
 10
245.5647159339
 20
206.0330268843
 30
0.0
 40
2.500000006
  1
)
  7
SEACAD_Arial
 11
245.5647159339
 21
208.5330268903
 31
0.0
100
AcDbText
 73
     3
  0
ENDBLK
  5
BE44
330
BE3A
100
AcDbEntity
  8
0
100
AcDbBlockEnd
  0
BLOCK
  5
BE46
330
BE45
100
AcDbEntity
  8
0
100
AcDbBlockBegin
  2
DMBLK17
 70
     0
 10
0.0
 20
0.0
 30
0.0
  3
DMBLK17
  1

  0
LWPOLYLINE
  5
BE47
330
BE45
100
AcDbEntity
  8
DV1_寸法線
  6
Continuous
 62
     7
100
AcDbPolyline
 90
        3
 70
     0
 43
0.0
 10
271.6230495109
 20
172.9080272596
 10
272.0397161919
 20
170.4080271737
 10
272.4563828729
 20
172.9080272596
  0
LWPOLYLINE
  5
BE48
330
BE45
100
AcDbEntity
  8
DV1_寸法線
  6
Continuous
 62
     7
100
AcDbPolyline
 90
        3
 70
     0
 43
0.0
 10
271.7063828618
 20
150.4080271496
 10
272.0397161919
 20
152.4080271303
 10
272.373049522
 20
150.4080271496
  0
LINE
  5
BE49
330
BE45
100
AcDbEntity
  8
DV1_寸法線
  6
Continuous
 62
     7
100
AcDbLine
 10
236.7397161886
 20
170.4080271737
 30
0.0
 11
273.2897162348
 21
170.4080271737
 31
0.0
  0
LINE
  5
BE4A
330
BE45
100
AcDbEntity
  8
DV1_寸法線
  6
Continuous
 62
     7
100
AcDbLine
 10
236.7397161886
 20
152.4080271303
 30
0.0
 11
273.2897162348
 21
152.4080271303
 31
0.0
  0
LINE
  5
BE4B
330
BE45
100
AcDbEntity
  8
DV1_寸法線
  6
Continuous
 62
     7
100
AcDbLine
 10
272.0397161919
 20
174.4080271351
 30
0.0
 11
272.0397161919
 21
170.4080271737
 31
0.0
  0
LINE
  5
BE4C
330
BE45
100
AcDbEntity
  8
DV1_寸法線
  6
Continuous
 62
     7
100
AcDbLine
 10
272.0397161919
 20
152.4080271303
 30
0.0
 11
272.0397161919
 21
148.408027169
 31
0.0
  0
TEXT
  5
BE4D
330
BE45
100
AcDbEntity
  8
DV1_寸法線
  6
Continuous
 62
     7
100
AcDbText
 10
271.4147161904
 20
156.8856695996
 30
0.0
 40
2.500000006
  1
18
 50
90.0
  7
SEACAD_Arial
 11
268.9147161844
 21
156.8856695996
 31
0.0
100
AcDbText
 73
     3
  0
TEXT
  5
BE4E
330
BE45
100
AcDbEntity
  8
DV1_寸法線
  6
Continuous
 62
     7
100
AcDbText
 10
271.4147161904
 20
152.442580158
 30
0.0
 40
2.500000006
  1
M
 50
90.0
  7
SEACAD_Arial
 11
268.9147161844
 21
152.442580158
 31
0.0
100
AcDbText
 73
     3
  0
TEXT
  5
BE4F
330
BE45
100
AcDbEntity
  8
DV1_寸法線
  6
Continuous
 62
     7
100
AcDbText
 10
271.4147161904
 20
162.294206198
 30
0.0
 40
2.500000006
  1
×1.0
 50
90.0
  7
SEACAD_Arial
 11
268.9147161844
 21
162.294206198
 31
0.0
100
AcDbText
 73
     3
  0
ENDBLK
  5
BE50
330
BE45
100
AcDbEntity
  8
0
100
AcDbBlockEnd
  0
BLOCK
  5
BE52
330
BE51
100
AcDbEntity
  8
0
100
AcDbBlockBegin
  2
DMBLK18
 70
     0
 10
0.0
 20
0.0
 30
0.0
  3
DMBLK18
  1

  0
LWPOLYLINE
  5
BE53
330
BE51
100
AcDbEntity
  8
DV1_寸法線
  6
Continuous
 62
     7
100
AcDbPolyline
 90
        3
 70
     0
 43
0.0
 10
261.6230496772
 20
162.9080270758
 10
262.0397163581
 20
165.4080271617
 10
262.4563830391
 20
162.9080270758
  0
LWPOLYLINE
  5
BE54
330
BE51
100
AcDbEntity
  8
DV1_寸法線
  6
Continuous
 62
     7
100
AcDbPolyline
 90
        3
 70
     0
 43
0.0
 10
261.706383028
 20
159.408027123
 10
262.0397163581
 20
157.4080271424
 10
262.3730496882
 20
159.408027123
  0
LINE
  5
BE55
330
BE51
100
AcDbEntity
  8
DV1_寸法線
  6
Continuous
 62
     7
100
AcDbLine
 10
251.2897162238
 20
165.4080271617
 30
0.0
 11
263.289716401
 21
165.4080271617
 31
0.0
  0
LINE
  5
BE56
330
BE51
100
AcDbEntity
  8
DV1_寸法線
  6
Continuous
 62
     7
100
AcDbLine
 10
251.2897162238
 20
157.4080271424
 30
0.0
 11
263.289716401
 21
157.4080271424
 31
0.0
  0
LINE
  5
BE57
330
BE51
100
AcDbEntity
  8
DV1_寸法線
  6
Continuous
 62
     7
100
AcDbLine
 10
262.0397163581
 20
165.4080271617
 30
0.0
 11
262.0397163581
 21
114.3836820761
 31
0.0
  0
TEXT
  5
BE58
330
BE51
100
AcDbEntity
  8
DV1_寸法線
  6
Continuous
 62
     7
100
AcDbText
 10
261.4147163566
 20
119.7017724155
 30
0.0
 40
2.500000006
  1
8
 50
90.0
  7
SEACAD_Arial
 11
258.9147163506
 21
119.7017724155
 31
0.0
100
AcDbText
 73
     3
  0
TEXT
  5
BE59
330
BE51
100
AcDbEntity
  8
DV1_寸法線
  6
Continuous
 62
     7
100
AcDbText
 10
261.4147163566
 20
115.2586829739
 30
0.0
 40
2.500000006
  1
M
 50
90.0
  7
SEACAD_Arial
 11
258.9147163506
 21
115.2586829739
 31
0.0
100
AcDbText
 73
     3
  0
TEXT
  5
BE5A
330
BE51
100
AcDbEntity
  8
DV1_寸法線
  6
Continuous
 62
     7
100
AcDbText
 10
261.4147163566
 20
123.2810407168
 30
0.0
 40
2.500000006
  1
×1.25
 50
90.0
  7
SEACAD_Arial
 11
258.9147163506
 21
123.2810407168
 31
0.0
100
AcDbText
 73
     3
  0
ENDBLK
  5
BE5B
330
BE51
100
AcDbEntity
  8
0
100
AcDbBlockEnd
  0
BLOCK
  5
BE5D
330
BE5C
100
AcDbEntity
  8
0
100
AcDbBlockBegin
  2
DMBLK19
 70
     0
 10
0.0
 20
0.0
 30
0.0
  3
DMBLK19
  1

  0
LWPOLYLINE
  5
BE5E
330
BE5C
100
AcDbEntity
  8
DV1_寸法線
  6
Continuous
 62
     7
100
AcDbPolyline
 90
        3
 70
     0
 43
0.0
 10
281.6230500622
 20
144.908027192
 10
282.0397167432
 20
142.4080271061
 10
282.4563834242
 20
144.908027192
  0
LWPOLYLINE
  5
BE5F
330
BE5C
100
AcDbEntity
  8
DV1_寸法線
  6
Continuous
 62
     7
100
AcDbPolyline
 90
        3
 70
     0
 43
0.0
 10
281.7063834131
 20
178.4080274913
 10
282.0397167432
 20
180.408027472
 10
282.3730500733
 20
178.4080274913
  0
LINE
  5
BE60
330
BE5C
100
AcDbEntity
  8
DV1_寸法線
  6
Continuous
 62
     7
100
AcDbLine
 10
230.5897161738
 20
142.4080271061
 30
0.0
 11
283.2897167861
 21
142.4080271061
 31
0.0
  0
LINE
  5
BE61
330
BE5C
100
AcDbEntity
  8
DV1_寸法線
  6
Continuous
 62
     7
100
AcDbLine
 10
230.5897161738
 20
180.4080271979
 30
0.0
 11
283.2897167861
 21
180.4080271979
 31
0.0
  0
LINE
  5
BE62
330
BE5C
100
AcDbEntity
  8
DV1_寸法線
  6
Continuous
 62
     7
100
AcDbLine
 10
282.0397167432
 20
142.4080271061
 30
0.0
 11
282.0397167432
 21
180.408027472
 31
0.0
  0
TEXT
  5
BE63
330
BE5C
100
AcDbEntity
  8
DV1_寸法線
  6
Continuous
 62
     7
100
AcDbText
 10
281.4147167417
 20
162.2830272912
 30
0.0
 40
2.500000006
  1
38
 50
90.0
  7
SEACAD_Arial
 11
278.9147167357
 21
162.2830272912
 31
0.0
100
AcDbText
 73
     3
  0
TEXT
  5
BE64
330
BE5C
100
AcDbEntity
  8
DV1_寸法線
  6
Continuous
 62
     7
100
AcDbText
 10
281.4147167417
 20
156.8744906927
 30
0.0
 40
2.500000006
  1
φ
 50
90.0
  7
SEACAD_Arial
 11
278.9147167357
 21
156.8744906927
 31
0.0
100
AcDbText
 73
     3
  0
ENDBLK
  5
BE65
330
BE5C
100
AcDbEntity
  8
0
100
AcDbBlockEnd
  0
BLOCK
  5
BE67
330
BE66
100
AcDbEntity
  8
0
100
AcDbBlockBegin
  2
DMBLK20
 70
     0
 10
0.0
 20
0.0
 30
0.0
  3
DMBLK20
  1

  0
LWPOLYLINE
  5
BE68
330
BE66
100
AcDbEntity
  8
DV1_寸法線
  6
Continuous
 62
     7
100
AcDbPolyline
 90
        3
 70
     0
 43
0.0
 10
309.9494599929
 20
178.908027274
 10
309.5327933119
 20
176.4080271882
 10
309.116126631
 20
178.908027274
  0
LWPOLYLINE
  5
BE69
330
BE66
100
AcDbEntity
  8
DV1_寸法線
  6
Continuous
 62
     7
100
AcDbPolyline
 90
        3
 70
     0
 43
0.0
 10
309.866126642
 20
159.4080271714
 10
309.5327933119
 20
161.408027152
 10
309.1994599818
 20
159.4080271714
  0
LINE
  5
BE6A
330
BE66
100
AcDbEntity
  8
DV1_寸法線
  6
Continuous
 62
     7
100
AcDbLine
 10
325.2827936179
 20
176.4080271882
 30
0.0
 11
308.282793269
 21
176.4080271882
 31
0.0
  0
LINE
  5
BE6B
330
BE66
100
AcDbEntity
  8
DV1_寸法線
  6
Continuous
 62
     7
100
AcDbLine
 10
315.2827935938
 20
161.408027152
 30
0.0
 11
308.282793269
 21
161.408027152
 31
0.0
  0
LINE
  5
BE6C
330
BE66
100
AcDbEntity
  8
DV1_寸法線
  6
Continuous
 62
     7
100
AcDbLine
 10
309.5327933119
 20
180.4080271495
 30
0.0
 11
309.5327933119
 21
176.4080271882
 31
0.0
  0
LINE
  5
BE6D
330
BE66
100
AcDbEntity
  8
DV1_寸法線
  6
Continuous
 62
     7
100
AcDbLine
 10
309.5327933119
 20
161.408027152
 30
0.0
 11
309.5327933119
 21
157.4080271907
 31
0.0
  0
TEXT
  5
BE6E
330
BE66
100
AcDbEntity
  8
DV1_寸法線
  6
Continuous
 62
     7
100
AcDbText
 10
308.9077933104
 20
167.0787586337
 30
0.0
 40
2.500000006
  1
15
 50
90.0
  7
SEACAD_Arial
 11
306.4077933044
 21
167.0787586337
 31
0.0
100
AcDbText
 73
     3
  0
ENDBLK
  5
BE6F
330
BE66
100
AcDbEntity
  8
0
100
AcDbBlockEnd
  0
BLOCK
  5
BE71
330
BE70
100
AcDbEntity
  8
0
100
AcDbBlockBegin
  2
DMBLK21
 70
     0
 10
0.0
 20
0.0
 30
0.0
  3
DMBLK21
  1

  0
LWPOLYLINE
  5
BE72
330
BE70
100
AcDbEntity
  8
DV1_寸法線
  6
Continuous
 62
     7
100
AcDbPolyline
 90
        3
 70
     0
 43
0.0
 10
320.5327937261
 20
184.9913610992
 10
318.0327936403
 20
185.4080277802
 10
320.5327937261
 20
185.8246944612
  0
LWPOLYLINE
  5
BE73
330
BE70
100
AcDbEntity
  8
DV1_寸法線
  6
Continuous
 62
     7
100
AcDbPolyline
 90
        3
 70
     0
 43
0.0
 10
343.0327943519
 20
185.0746944501
 10
345.0327943325
 20
185.4080277802
 10
343.0327943519
 20
185.7413611103
  0
LINE
  5
BE74
330
BE70
100
AcDbEntity
  8
DV1_寸法線
  6
Continuous
 62
     7
100
AcDbLine
 10
318.0327936403
 20
170.4522558478
 30
0.0
 11
318.0327936403
 21
186.6580278231
 31
0.0
  0
LINE
  5
BE75
330
BE70
100
AcDbEntity
  8
DV1_寸法線
  6
Continuous
 62
     7
100
AcDbLine
 10
345.0327937055
 20
170.4522558478
 30
0.0
 11
345.0327937055
 21
186.6580278231
 31
0.0
  0
LINE
  5
BE76
330
BE70
100
AcDbEntity
  8
DV1_寸法線
  6
Continuous
 62
     7
100
AcDbLine
 10
318.0327936403
 20
185.4080277802
 30
0.0
 11
345.0327943325
 21
185.4080277802
 31
0.0
  0
TEXT
  5
BE77
330
BE70
100
AcDbEntity
  8
DV1_寸法線
  6
Continuous
 62
     7
100
AcDbText
 10
329.7035256893
 20
186.0330277818
 30
0.0
 40
2.500000006
  1
27
  7
SEACAD_Arial
 11
329.7035256893
 21
188.5330277878
 31
0.0
100
AcDbText
 73
     3
  0
ENDBLK
  5
BE78
330
BE70
100
AcDbEntity
  8
0
100
AcDbBlockEnd
  0
BLOCK
  5
BE7A
330
BE79
100
AcDbEntity
  8
0
100
AcDbBlockBegin
  2
DMBLK22
 70
     0
 10
0.0
 20
0.0
 30
0.0
  3
DMBLK22
  1

  0
LWPOLYLINE
  5
BE7B
330
BE79
100
AcDbEntity
  8
DV1_寸法線
  6
Continuous
 62
     7
100
AcDbPolyline
 90
        3
 70
     0
 43
0.0
 10
101.721303249
 20
184.9913599559
 10
99.2213031632
 20
185.4080266369
 10
101.721303249
 20
185.8246933179
  0
LWPOLYLINE
  5
BE7C
330
BE79
100
AcDbEntity
  8
DV1_寸法線
  6
Continuous
 62
     7
100
AcDbPolyline
 90
        3
 70
     0
 43
0.0
 10
118.7213040379
 20
185.0746933068
 10
120.7213040186
 20
185.4080266369
 10
118.7213040379
 20
185.741359967
  0
LINE
  5
BE7D
330
BE79
100
AcDbEntity
  8
DV1_寸法線
  6
Continuous
 62
     7
100
AcDbLine
 10
99.2213031632
 20
174.3778881914
 30
0.0
 11
99.2213031632
 21
186.6580266798
 31
0.0
  0
LINE
  5
BE7E
330
BE79
100
AcDbEntity
  8
DV1_寸法線
  6
Continuous
 62
     7
100
AcDbLine
 10
120.7213032151
 20
174.3778881914
 30
0.0
 11
120.7213032151
 21
186.6580266798
 31
0.0
  0
LINE
  5
BE7F
330
BE79
100
AcDbEntity
  8
DV1_寸法線
  6
Continuous
 62
     7
100
AcDbLine
 10
99.2213031632
 20
185.4080266369
 30
0.0
 11
120.7213040186
 21
185.4080266369
 31
0.0
  0
TEXT
  5
BE80
330
BE79
100
AcDbEntity
  8
DV1_寸法線
  6
Continuous
 62
     7
100
AcDbText
 10
106.8463035834
 20
186.0330266385
 30
0.0
 40
2.500000006
  1
21.5
  7
SEACAD_Arial
 11
106.8463035834
 21
188.5330266445
 31
0.0
100
AcDbText
 73
     3
  0
ENDBLK
  5
BE81
330
BE79
100
AcDbEntity
  8
0
100
AcDbBlockEnd
  0
BLOCK
  5
BE83
330
BE82
100
AcDbEntity
  8
0
100
AcDbBlockBegin
  2
DMBLK23
 70
     0
 10
0.0
 20
0.0
 30
0.0
  3
DMBLK23
  1

  0
LWPOLYLINE
  5
BE84
330
BE82
100
AcDbEntity
  8
DV1_寸法線
  6
Continuous
 62
     7
100
AcDbPolyline
 90
        3
 70
     0
 43
0.0
 10
101.9713030901
 20
76.3246930933
 10
104.4713031759
 20
75.90802641229998
 10
101.9713030901
 20
75.49135973140001
  0
LWPOLYLINE
  5
BE85
330
BE82
100
AcDbEntity
  8
DV1_寸法線
  6
Continuous
 62
     7
100
AcDbPolyline
 90
        3
 70
     0
 43
0.0
 10
117.4713031831
 20
76.24135974239999
 10
115.4713032024
 20
75.90802641229998
 10
117.4713031831
 20
75.57469308219999
  0
LINE
  5
BE86
330
BE82
100
AcDbEntity
  8
DV1_寸法線
  6
Continuous
 62
     7
100
AcDbLine
 10
104.4713031759
 20
86.18331192280001
 30
0.0
 11
104.4713031759
 21
74.65802636939999
 31
0.0
  0
LINE
  5
BE87
330
BE82
100
AcDbEntity
  8
DV1_寸法線
  6
Continuous
 62
     7
100
AcDbLine
 10
115.4713032024
 20
86.18331192280001
 30
0.0
 11
115.4713032024
 21
74.65802636939999
 31
0.0
  0
LINE
  5
BE88
330
BE82
100
AcDbEntity
  8
DV1_寸法線
  6
Continuous
 62
     7
100
AcDbLine
 10
100.4713032146
 20
75.90802641229998
 30
0.0
 11
104.4713031759
 21
75.90802641229998
 31
0.0
  0
LINE
  5
BE89
330
BE82
100
AcDbEntity
  8
DV1_寸法線
  6
Continuous
 62
     7
100
AcDbLine
 10
115.4713032024
 20
75.90802641229998
 30
0.0
 11
119.4713031638
 21
75.90802641229998
 31
0.0
  0
TEXT
  5
BE8A
330
BE82
100
AcDbEntity
  8
DV1_寸法線
  6
Continuous
 62
     7
100
AcDbText
 10
108.1420347156
 20
76.5330264139
 30
0.0
 40
2.500000006
  1
11
  7
SEACAD_Arial
 11
108.1420347156
 21
79.03302641989999
 31
0.0
100
AcDbText
 73
     3
  0
ENDBLK
  5
BE8B
330
BE82
100
AcDbEntity
  8
0
100
AcDbBlockEnd
  0
BLOCK
  5
BE8D
330
BE8C
100
AcDbEntity
  8
0
100
AcDbBlockBegin
  2
DMBLK24
 70
     0
 10
0.0
 20
0.0
 30
0.0
  3
DMBLK24
  1

  0
LWPOLYLINE
  5
BE8E
330
BE8C
100
AcDbEntity
  8
DV1_寸法線
  6
Continuous
 62
     7
100
AcDbPolyline
 90
        3
 70
     0
 43
0.0
 10
81.9005149916
 20
158.891808934
 10
82.20425407609999
 20
161.408027152
 10
82.73300409390001
 20
158.9293107562
  0
LWPOLYLINE
  5
BE8F
330
BE8C
100
AcDbEntity
  8
DV1_寸法線
  6
Continuous
 62
     7
100
AcDbPolyline
 90
        3
 70
     0
 43
0.0
 10
107.9846021115
 20
134.0461074745
 10
109.9713031892
 20
133.640978039
 10
107.9605980285
 20
133.3798731015
  0
ARC
  5
BE90
330
BE8C
100
AcDbEntity
  8
DV1_寸法線
  6
Continuous
 62
     7
100
AcDbCircle
 10
109.9713031892
 20
161.408027152
 30
0.0
 40
27.76704911304827
100
AcDbArc
 50
180.0
 51
270.0000025045
  0
TEXT
  5
BE91
330
BE8C
100
AcDbEntity
  8
DV1_寸法線
  6
Continuous
 62
     7
100
AcDbText
 10
88.19200017219101
 20
144.802676204991
 30
0.0
 40
2.500000006
  1
90°
 50
315.0
  7
SEACAD_Arial
 11
89.95976712940001
 21
146.5704431622
 31
0.0
100
AcDbText
 73
     3
  0
ENDBLK
  5
BE92
330
BE8C
100
AcDbEntity
  8
0
100
AcDbBlockEnd
  0
BLOCK
  5
BE94
330
BE93
100
AcDbEntity
  8
0
100
AcDbBlockBegin
  2
DMBLK25
 70
     0
 10
0.0
 20
0.0
 30
0.0
  3
DMBLK25
  1

  0
LINE
  5
BE95
330
BE93
100
AcDbEntity
  8
DV1_寸法線
  6
Continuous
 62
     7
100
AcDbLine
 10
332.9319293501
 20
176.9487853298
 30
0.0
 11
349.6443095223
 21
183.4080271245
 31
0.0
  0
LWPOLYLINE
  5
BE96
330
BE93
100
AcDbEntity
  8
DV1_寸法線
  6
Continuous
 62
     7
100
AcDbPolyline
 90
        3
 70
     0
 43
0.0
 10
334.9176120383
 20
177.3588771408
 10
332.9319293501
 20
176.9487853298
 10
334.6772750894
 20
177.9807152121
  0
LINE
  5
BE97
330
BE93
100
AcDbEntity
  8
DV1_寸法線
  6
Continuous
 62
     7
100
AcDbLine
 10
349.644308736
 20
183.4080268207
 30
0.0
 11
357.5744585854
 21
183.4080268207
 31
0.0
  0
TEXT
  5
BE98
330
BE93
100
AcDbEntity
  8
DV1_寸法線
  6
Continuous
 62
     7
100
AcDbText
 10
350.5193087381
 20
184.0330268222
 30
0.0
 40
2.500000006
  1
O
  7
SEACAD_Solid_Edge_ANSI1_Symbols
 11
350.5193087381
 21
186.5330268282
 31
0.0
100
AcDbText
 73
     3
  0
TEXT
  5
BE99
330
BE93
100
AcDbEntity
  8
DV1_寸法線
  6
Continuous
 62
     7
100
AcDbText
 10
354.8701859416
 20
184.0330268222
 30
0.0
 40
2.500000006
  1
3
  7
SEACAD_Arial
 11
354.8701859416
 21
186.5330268282
 31
0.0
100
AcDbText
 73
     3
  0
ENDBLK
  5
BE9A
330
BE93
100
AcDbEntity
  8
0
100
AcDbBlockEnd
  0
BLOCK
  5
BE9C
330
BE9B
100
AcDbEntity
  8
0
100
AcDbBlockBegin
  2
DMBLK26
 70
     0
 10
0.0
 20
0.0
 30
0.0
  3
DMBLK26
  1

  0
LWPOLYLINE
  5
BE9D
330
BE9B
100
AcDbEntity
  8
DV1_寸法線
  6
Continuous
 62
     7
100
AcDbPolyline
 90
        3
 70
     0
 43
0.0
 10
341.8729619392
 20
141.8754705953
 10
343.9353567884
 20
143.3486097733
 10
342.4622176104
 20
141.2862149241
  0
LWPOLYLINE
  5
BE9E
330
BE9B
100
AcDbEntity
  8
DV1_寸法線
  6
Continuous
 62
     7
100
AcDbPolyline
 90
        3
 70
     0
 43
0.0
 10
350.7707223422
 20
150.6553798433
 10
349.5922110516
 20
149.0054640365
 10
351.2421268584
 20
150.1839753271
  0
LINE
  5
BE9F
330
BE9B
100
AcDbEntity
  8
DV1_寸法線
  6
Continuous
 62
     7
100
AcDbLine
 10
331.5894996626
 20
155.6944668992
 30
0.0
 11
344.8192402953
 21
142.4647262665
 31
0.0
  0
LINE
  5
BEA0
330
BE9B
100
AcDbEntity
  8
DV1_寸法線
  6
Continuous
 62
     7
100
AcDbLine
 10
337.2463539258
 20
161.3513211623
 30
0.0
 11
350.4760945584
 21
148.1215805297
 31
0.0
  0
LINE
  5
BEA1
330
BE9B
100
AcDbEntity
  8
DV1_寸法線
  6
Continuous
 62
     7
100
AcDbLine
 10
341.106929691
 20
140.5201826759
 30
0.0
 11
343.9353567884
 21
143.3486097733
 31
0.0
  0
LINE
  5
BEA2
330
BE9B
100
AcDbEntity
  8
DV1_寸法線
  6
Continuous
 62
     7
100
AcDbLine
 10
349.5922110516
 20
149.0054640365
 30
0.0
 11
352.420638149
 21
151.8338911338999
 31
0.0
  0
TEXT
  5
BEA3
330
BE9B
100
AcDbEntity
  8
DV1_寸法線
  6
Continuous
 62
     7
100
AcDbText
 10
347.587304590309
 20
147.884441053791
 30
0.0
 40
2.500000006
  1
8
 50
45.0
  7
SEACAD_Arial
 11
345.8195376331
 21
149.652208011
 31
0.0
100
AcDbText
 73
     3
  0
TEXT
  5
BEA4
330
BE9B
100
AcDbEntity
  8
DV1_寸法線
  6
Continuous
 62
     7
100
AcDbText
 10
343.762891685209
 20
144.060028148791
 30
0.0
 40
2.500000006
  1
□
 50
45.0
  7
SEACAD_Arial
 11
341.995124728
 21
145.827795106
 31
0.0
100
AcDbText
 73
     3
  0
ENDBLK
  5
BEA5
330
BE9B
100
AcDbEntity
  8
0
100
AcDbBlockEnd
  0
BLOCK
  5
C14E
330
C14D
100
AcDbEntity
  8
0
100
AcDbBlockBegin
  2
*D24
 70
     1
 10
0.0
 20
0.0
 30
0.0
  3
*D24
  1

  0
LINE
  5
E1B8
330
C14D
100
AcDbEntity
  8
AM_5
100
AcDbLine
 10
220.3460735569579
 20
176.806769444074
 30
0.0
 11
220.3460735569579
 21
188.806769444074
 31
0.0
  0
LINE
  5
E1B9
330
C14D
100
AcDbEntity
  8
AM_5
100
AcDbLine
 10
213.5460735405508
 20
168.680908893774
 30
0.0
 11
213.5460735405508
 21
188.806769444074
 31
0.0
  0
LINE
  5
E1BA
330
C14D
100
AcDbEntity
  8
AM_5
100
AcDbLine
 10
219.3460735569579
 20
187.806769444074
 30
0.0
 11
214.5460735405508
 21
187.806769444074
 31
0.0
  0
INSERT
  5
E1BB
330
C14D
100
AcDbEntity
  8
AM_5
100
AcDbBlockReference
  2
_Dot
 10
220.3460735569579
 20
187.806769444074
 30
0.0
  0
INSERT
  5
E1BC
330
C14D
100
AcDbEntity
  8
AM_5
100
AcDbBlockReference
  2
_Dot
 10
213.5460735405508
 20
187.806769444074
 30
0.0
 50
180.0
  0
MTEXT
  5
E1BD
330
C14D
100
AcDbEntity
  8
AM_5
 62
     2
100
AcDbMText
 10
216.9460735487543
 20
190.906769444074
 30
0.0
 40
3.200000000000001
 41
0.0
 71
     5
 72
     1
  1
G
 73
     1
 44
1.0
1001
ACAD
1000
MTEXTBEGIN
1070
    73
1070
     1
1070
    44
1040
1.0
1070
    74
1070
     0
1000
MTEXTEND
  0
POINT
  5
E1BE
330
C14D
100
AcDbEntity
  8
Defpoints
 62
     0
100
AcDbPoint
 10
220.3460735569579
 20
175.806769444074
 30
0.0
  0
POINT
  5
E1BF
330
C14D
100
AcDbEntity
  8
Defpoints
 62
     0
100
AcDbPoint
 10
213.5460735405508
 20
167.680908893774
 30
0.0
  0
POINT
  5
E1C0
330
C14D
100
AcDbEntity
  8
Defpoints
 62
     0
100
AcDbPoint
 10
213.5460735405508
 20
187.806769444074
 30
0.0
  0
ENDBLK
  5
C14F
330
C14D
100
AcDbEntity
  8
0
100
AcDbBlockEnd
  0
BLOCK
  5
C17A
330
C179
100
AcDbEntity
  8
0
100
AcDbBlockBegin
  2
*D25
 70
     1
 10
0.0
 20
0.0
 30
0.0
  3
*D25
  1

  0
LINE
  5
E1C1
330
C179
100
AcDbEntity
  8
AM_5
100
AcDbLine
 10
220.3460735569579
 20
176.806769444074
 30
0.0
 11
220.3460735569579
 21
198.8067694440739
 31
0.0
  0
LINE
  5
E1C2
330
C179
100
AcDbEntity
  8
AM_5
100
AcDbLine
 10
186.1460734743579
 20
172.306769433174
 30
0.0
 11
186.1460734743579
 21
198.8067694440739
 31
0.0
  0
LINE
  5
E1C3
330
C179
100
AcDbEntity
  8
AM_5
100
AcDbLine
 10
219.3460735569579
 20
197.8067694440739
 30
0.0
 11
187.1460734743579
 21
197.8067694440739
 31
0.0
  0
INSERT
  5
E1C4
330
C179
100
AcDbEntity
  8
AM_5
100
AcDbBlockReference
  2
_Dot
 10
220.3460735569579
 20
197.8067694440739
 30
0.0
  0
INSERT
  5
E1C5
330
C179
100
AcDbEntity
  8
AM_5
100
AcDbBlockReference
  2
_Dot
 10
186.1460734743579
 20
197.8067694440739
 30
0.0
 50
180.0
  0
MTEXT
  5
E1C6
330
C179
100
AcDbEntity
  8
AM_5
 62
     2
100
AcDbMText
 10
203.2460735156579
 20
200.9067694440739
 30
0.0
 40
3.200000000000001
 41
0.0
 71
     5
 72
     1
  1
F
 73
     1
 44
1.0
1001
ACAD
1000
MTEXTBEGIN
1070
    73
1070
     1
1070
    44
1040
1.0
1070
    74
1070
     0
1000
MTEXTEND
  0
POINT
  5
E1C7
330
C179
100
AcDbEntity
  8
Defpoints
 62
     0
100
AcDbPoint
 10
220.3460735569579
 20
175.806769444074
 30
0.0
  0
POINT
  5
E1C8
330
C179
100
AcDbEntity
  8
Defpoints
 62
     0
100
AcDbPoint
 10
186.1460734743579
 20
171.306769433174
 30
0.0
  0
POINT
  5
E1C9
330
C179
100
AcDbEntity
  8
Defpoints
 62
     0
100
AcDbPoint
 10
186.1460734743579
 20
197.8067694440739
 30
0.0
  0
ENDBLK
  5
C17B
330
C179
100
AcDbEntity
  8
0
100
AcDbBlockEnd
  0
BLOCK
  5
C199
330
C198
100
AcDbEntity
  8
0
100
AcDbBlockBegin
  2
*D26
 70
     1
 10
0.0
 20
0.0
 30
0.0
  3
*D26
  1

  0
LINE
  5
E1CA
330
C198
100
AcDbEntity
  8
AM_5
100
AcDbLine
 10
220.3460735569579
 20
176.806769444074
 30
0.0
 11
220.3460735569579
 21
188.806769444074
 31
0.0
  0
LINE
  5
E1CB
330
C198
100
AcDbEntity
  8
AM_5
100
AcDbLine
 10
227.5460735743579
 20
166.906769420174
 30
0.0
 11
227.5460735743579
 21
188.806769444074
 31
0.0
  0
LINE
  5
E1CC
330
C198
100
AcDbEntity
  8
AM_5
100
AcDbLine
 10
221.3460735569579
 20
187.806769444074
 30
0.0
 11
226.5460735743579
 21
187.806769444074
 31
0.0
  0
INSERT
  5
E1CD
330
C198
100
AcDbEntity
  8
AM_5
100
AcDbBlockReference
  2
_Dot
 10
220.3460735569579
 20
187.806769444074
 30
0.0
 50
180.0
  0
INSERT
  5
E1CE
330
C198
100
AcDbEntity
  8
AM_5
100
AcDbBlockReference
  2
_Dot
 10
227.5460735743579
 20
187.806769444074
 30
0.0
  0
MTEXT
  5
E1CF
330
C198
100
AcDbEntity
  8
AM_5
 62
     2
100
AcDbMText
 10
223.9460735656579
 20
190.906769444074
 30
0.0
 40
3.200000000000001
 41
0.0
 71
     5
 72
     1
  1
H
 73
     1
 44
1.0
1001
ACAD
1000
MTEXTBEGIN
1070
    73
1070
     1
1070
    44
1040
1.0
1070
    74
1070
     0
1000
MTEXTEND
  0
POINT
  5
E1D0
330
C198
100
AcDbEntity
  8
Defpoints
 62
     0
100
AcDbPoint
 10
220.3460735569579
 20
175.806769444074
 30
0.0
  0
POINT
  5
E1D1
330
C198
100
AcDbEntity
  8
Defpoints
 62
     0
100
AcDbPoint
 10
227.5460735743579
 20
165.906769420174
 30
0.0
  0
POINT
  5
E1D2
330
C198
100
AcDbEntity
  8
Defpoints
 62
     0
100
AcDbPoint
 10
227.5460735743579
 20
187.806769444074
 30
0.0
  0
ENDBLK
  5
C19A
330
C198
100
AcDbEntity
  8
0
100
AcDbBlockEnd
  0
BLOCK
  5
C1C5
330
C1C4
100
AcDbEntity
  8
0
100
AcDbBlockBegin
  2
*D27
 70
     1
 10
0.0
 20
0.0
 30
0.0
  3
*D27
  1

  0
LINE
  5
E1D3
330
C1C4
100
AcDbEntity
  8
AM_5
100
AcDbLine
 10
220.3460735569579
 20
176.806769444074
 30
0.0
 11
220.3460735569579
 21
198.8067694440739
 31
0.0
  0
LINE
  5
E1D4
330
C1C4
100
AcDbEntity
  8
AM_5
100
AcDbLine
 10
243.0460736117579
 20
159.806769402974
 30
0.0
 11
243.0460736117579
 21
198.8067694440739
 31
0.0
  0
LINE
  5
E1D5
330
C1C4
100
AcDbEntity
  8
AM_5
100
AcDbLine
 10
221.3460735569579
 20
197.8067694440739
 30
0.0
 11
242.0460736117579
 21
197.8067694440739
 31
0.0
  0
INSERT
  5
E1D6
330
C1C4
100
AcDbEntity
  8
AM_5
100
AcDbBlockReference
  2
_Dot
 10
220.3460735569579
 20
197.8067694440739
 30
0.0
 50
180.0
  0
INSERT
  5
E1D7
330
C1C4
100
AcDbEntity
  8
AM_5
100
AcDbBlockReference
  2
_Dot
 10
243.0460736117579
 20
197.8067694440739
 30
0.0
  0
MTEXT
  5
E1D8
330
C1C4
100
AcDbEntity
  8
AM_5
 62
     2
100
AcDbMText
 10
231.6960735843579
 20
200.9067694440739
 30
0.0
 40
3.200000000000001
 41
0.0
 71
     5
 72
     1
  1
（J）
 73
     1
 44
1.0
1001
ACAD
1000
MTEXTBEGIN
1070
    73
1070
     1
1070
    44
1040
1.0
1070
    74
1070
     0
1000
MTEXTEND
  0
POINT
  5
E1D9
330
C1C4
100
AcDbEntity
  8
Defpoints
 62
     0
100
AcDbPoint
 10
220.3460735569579
 20
175.806769444074
 30
0.0
  0
POINT
  5
E1DA
330
C1C4
100
AcDbEntity
  8
Defpoints
 62
     0
100
AcDbPoint
 10
243.0460736117579
 20
158.806769402974
 30
0.0
  0
POINT
  5
E1DB
330
C1C4
100
AcDbEntity
  8
Defpoints
 62
     0
100
AcDbPoint
 10
243.0460736117579
 20
197.8067694440739
 30
0.0
  0
ENDBLK
  5
C1C6
330
C1C4
100
AcDbEntity
  8
0
100
AcDbBlockEnd
  0
BLOCK
  5
C1FF
330
C1FE
100
AcDbEntity
  8
0
100
AcDbBlockBegin
  2
*D28
 70
     1
 10
0.0
 20
0.0
 30
0.0
  3
*D28
  1

  0
LINE
  5
E1DC
330
C1FE
100
AcDbEntity
  8
AM_5
100
AcDbLine
 10
227.5460735743579
 20
166.906769420174
 30
0.0
 11
227.5460735743579
 21
188.806769444074
 31
0.0
  0
LINE
  5
E1DD
330
C1FE
100
AcDbEntity
  8
AM_5
100
AcDbLine
 10
230.5460735815579
 20
164.906769415274
 30
0.0
 11
230.5460735815579
 21
188.806769444074
 31
0.0
  0
LINE
  5
E1DE
330
C1FE
100
AcDbEntity
  8
AM_5
100
AcDbLine
 10
226.5460735743579
 20
187.806769444074
 30
0.0
 11
225.5460735743579
 21
187.806769444074
 31
0.0
  0
LINE
  5
E1DF
330
C1FE
100
AcDbEntity
  8
AM_5
100
AcDbLine
 10
231.5460735815579
 20
187.806769444074
 30
0.0
 11
235.5470735815579
 21
187.806769444074
 31
0.0
  0
LINE
  5
E1E0
330
C1FE
100
AcDbEntity
  8
AM_5
100
AcDbLine
 10
227.5460735743579
 20
187.806769444074
 30
0.0
 11
230.5460735815579
 21
187.806769444074
 31
0.0
  0
INSERT
  5
E1E1
330
C1FE
100
AcDbEntity
  8
AM_5
100
AcDbBlockReference
  2
_Dot
 10
227.5460735743579
 20
187.806769444074
 30
0.0
  0
INSERT
  5
E1E2
330
C1FE
100
AcDbEntity
  8
AM_5
100
AcDbBlockReference
  2
_Dot
 10
230.5460735815579
 20
187.806769444074
 30
0.0
 50
180.0
  0
MTEXT
  5
E1E3
330
C1FE
100
AcDbEntity
  8
AM_5
 62
     2
100
AcDbMText
 10
234.0465735815579
 20
190.906769444074
 30
0.0
 40
3.200000000000001
 41
0.0
 71
     5
 72
     1
  1
I
 73
     1
 44
1.0
1001
ACAD
1000
MTEXTBEGIN
1070
    73
1070
     1
1070
    44
1040
1.0
1070
    74
1070
     0
1000
MTEXTEND
  0
POINT
  5
E1E4
330
C1FE
100
AcDbEntity
  8
Defpoints
 62
     0
100
AcDbPoint
 10
227.5460735743579
 20
165.906769420174
 30
0.0
  0
POINT
  5
E1E5
330
C1FE
100
AcDbEntity
  8
Defpoints
 62
     0
100
AcDbPoint
 10
230.5460735815579
 20
163.906769415274
 30
0.0
  0
POINT
  5
E1E6
330
C1FE
100
AcDbEntity
  8
Defpoints
 62
     0
100
AcDbPoint
 10
230.5460735815579
 20
187.806769444074
 30
0.0
  0
ENDBLK
  5
C200
330
C1FE
100
AcDbEntity
  8
0
100
AcDbBlockEnd
  0
BLOCK
  5
C272
330
C271
100
AcDbEntity
  8
0
100
AcDbBlockBegin
  2
*D29
 70
     1
 10
0.0
 20
0.0
 30
0.0
  3
*D29
  1

  0
LINE
  5
E1E7
330
C271
100
AcDbEntity
  8
AM_5
100
AcDbLine
 10
242.0460736068579
 20
160.806769407874
 30
0.0
 11
254.0460736068579
 21
160.806769407874
 31
0.0
  0
LINE
  5
E1E8
330
C271
100
AcDbEntity
  8
AM_5
100
AcDbLine
 10
242.0460736068579
 20
152.806769388574
 30
0.0
 11
254.0460736068579
 21
152.806769388574
 31
0.0
  0
LINE
  5
E1E9
330
C271
100
AcDbEntity
  8
AM_5
100
AcDbLine
 10
253.046073606858
 20
159.806769407874
 30
0.0
 11
253.046073606858
 21
153.806769388574
 31
0.0
  0
INSERT
  5
E1EA
330
C271
100
AcDbEntity
  8
AM_5
100
AcDbBlockReference
  2
_Dot
 10
253.046073606858
 20
160.806769407874
 30
0.0
 50
90.0
  0
INSERT
  5
E1EB
330
C271
100
AcDbEntity
  8
AM_5
100
AcDbBlockReference
  2
_Dot
 10
253.046073606858
 20
152.806769388574
 30
0.0
 50
270.0
  0
MTEXT
  5
E1EC
330
C271
100
AcDbEntity
  8
AM_5
 62
     2
100
AcDbMText
 10
249.9460736068579
 20
156.8635020276142
 30
0.0
 40
3.200000000000001
 41
0.0
 71
     5
 72
     1
  1
N
 11
0.0000000000000001
 21
1.0
 31
0.0
 73
     1
 44
1.0
1001
ACAD
1000
MTEXTBEGIN
1070
    73
1070
     1
1070
    44
1040
1.0
1070
    74
1070
     0
1000
MTEXTEND
  0
POINT
  5
E1ED
330
C271
100
AcDbEntity
  8
Defpoints
 62
     0
100
AcDbPoint
 10
241.0460736068579
 20
160.806769407874
 30
0.0
  0
POINT
  5
E1EE
330
C271
100
AcDbEntity
  8
Defpoints
 62
     0
100
AcDbPoint
 10
241.0460736068579
 20
152.806769388574
 30
0.0
  0
POINT
  5
E1EF
330
C271
100
AcDbEntity
  8
Defpoints
 62
     0
100
AcDbPoint
 10
253.046073606858
 20
152.806769388574
 30
0.0
  0
ENDBLK
  5
C273
330
C271
100
AcDbEntity
  8
0
100
AcDbBlockEnd
  0
BLOCK
  5
C2B6
330
C2B5
100
AcDbEntity
  8
0
100
AcDbBlockBegin
  2
*D30
 70
     1
 10
0.0
 20
0.0
 30
0.0
  3
*D30
  1

  0
LINE
  5
E1F0
330
C2B5
100
AcDbEntity
  8
AM_5
100
AcDbLine
 10
227.4960735717579
 20
165.806769419874
 30
0.0
 11
264.0460736068579
 21
165.806769419874
 31
0.0
  0
LINE
  5
E1F1
330
C2B5
100
AcDbEntity
  8
AM_5
100
AcDbLine
 10
227.4960735717579
 20
147.806769376474
 30
0.0
 11
264.0460736068579
 21
147.806769376474
 31
0.0
  0
LINE
  5
E1F2
330
C2B5
100
AcDbEntity
  8
AM_5
100
AcDbLine
 10
263.0460736068579
 20
164.806769419874
 30
0.0
 11
263.0460736068579
 21
148.806769376474
 31
0.0
  0
INSERT
  5
E1F3
330
C2B5
100
AcDbEntity
  8
AM_5
100
AcDbBlockReference
  2
_Dot
 10
263.0460736068579
 20
165.806769419874
 30
0.0
 50
90.0
  0
INSERT
  5
E1F4
330
C2B5
100
AcDbEntity
  8
AM_5
100
AcDbBlockReference
  2
_Dot
 10
263.0460736068579
 20
147.806769376474
 30
0.0
 50
270.0
  0
MTEXT
  5
E1F5
330
C2B5
100
AcDbEntity
  8
AM_5
 62
     2
100
AcDbMText
 10
259.9460736068579
 20
156.8067693981741
 30
0.0
 40
3.200000000000001
 41
0.0
 71
     5
 72
     1
  1
M
 11
0.0000000000000001
 21
1.0
 31
0.0
 73
     1
 44
1.0
1001
ACAD
1000
MTEXTBEGIN
1070
    73
1070
     1
1070
    44
1040
1.0
1070
    74
1070
     0
1000
MTEXTEND
  0
POINT
  5
E1F6
330
C2B5
100
AcDbEntity
  8
Defpoints
 62
     0
100
AcDbPoint
 10
226.4960735717579
 20
165.806769419874
 30
0.0
  0
POINT
  5
E1F7
330
C2B5
100
AcDbEntity
  8
Defpoints
 62
     0
100
AcDbPoint
 10
226.4960735717579
 20
147.806769376474
 30
0.0
  0
POINT
  5
E1F8
330
C2B5
100
AcDbEntity
  8
Defpoints
 62
     0
100
AcDbPoint
 10
263.0460736068579
 20
147.806769376474
 30
0.0
  0
ENDBLK
  5
C2B7
330
C2B5
100
AcDbEntity
  8
0
100
AcDbBlockEnd
  0
BLOCK
  5
C2F0
330
C2EF
100
AcDbEntity
  8
0
100
AcDbBlockBegin
  2
*D31
 70
     1
 10
0.0
 20
0.0
 30
0.0
  3
*D31
  1

  0
LINE
  5
E1F9
330
C2EF
100
AcDbEntity
  8
AM_5
100
AcDbLine
 10
221.3460735569579
 20
175.806769444074
 30
0.0
 11
274.0460736068581
 21
175.806769444074
 31
0.0
  0
LINE
  5
E1FA
330
C2EF
100
AcDbEntity
  8
AM_5
100
AcDbLine
 10
221.3460735569579
 20
137.806769352274
 30
0.0
 11
274.0460736068581
 21
137.806769352274
 31
0.0
  0
LINE
  5
E1FB
330
C2EF
100
AcDbEntity
  8
AM_5
100
AcDbLine
 10
273.0460736068581
 20
174.806769444074
 30
0.0
 11
273.0460736068581
 21
138.806769352274
 31
0.0
  0
INSERT
  5
E1FC
330
C2EF
100
AcDbEntity
  8
AM_5
100
AcDbBlockReference
  2
_Dot
 10
273.0460736068581
 20
175.806769444074
 30
0.0
 50
90.0
  0
INSERT
  5
E1FD
330
C2EF
100
AcDbEntity
  8
AM_5
100
AcDbBlockReference
  2
_Dot
 10
273.0460736068581
 20
137.806769352274
 30
0.0
 50
270.0
  0
MTEXT
  5
E1FE
330
C2EF
100
AcDbEntity
  8
AM_5
 62
     2
100
AcDbMText
 10
269.946073606858
 20
156.806769398174
 30
0.0
 40
3.200000000000001
 41
0.0
 71
     5
 72
     1
  1
%%cL
 11
0.0000000000000001
 21
1.0
 31
0.0
 73
     1
 44
1.0
1001
ACAD
1000
MTEXTBEGIN
1070
    73
1070
     1
1070
    44
1040
1.0
1070
    74
1070
     0
1000
MTEXTEND
  0
POINT
  5
E1FF
330
C2EF
100
AcDbEntity
  8
Defpoints
 62
     0
100
AcDbPoint
 10
220.3460735569579
 20
175.806769444074
 30
0.0
  0
POINT
  5
E200
330
C2EF
100
AcDbEntity
  8
Defpoints
 62
     0
100
AcDbPoint
 10
220.3460735569579
 20
137.806769352274
 30
0.0
  0
POINT
  5
E201
330
C2EF
100
AcDbEntity
  8
Defpoints
 62
     0
100
AcDbPoint
 10
273.0460736068581
 20
137.806769352274
 30
0.0
  0
ENDBLK
  5
C2F1
330
C2EF
100
AcDbEntity
  8
0
100
AcDbBlockEnd
  0
BLOCK
  5
C334
330
C333
100
AcDbEntity
  8
0
100
AcDbBlockBegin
  2
*D32
 70
     1
 10
0.0
 20
0.0
 30
0.0
  3
*D32
  1

  0
LINE
  5
E202
330
C333
100
AcDbEntity
  8
AM_5
100
AcDbLine
 10
185.1460734743579
 20
171.306769433174
 30
0.0
 11
173.1460734743579
 21
171.306769433174
 31
0.0
  0
LINE
  5
E203
330
C333
100
AcDbEntity
  8
AM_5
100
AcDbLine
 10
194.7460734976018
 20
81.30676921580825
 30
0.0
 11
173.1460734743579
 21
81.30676921580825
 31
0.0
  0
LINE
  5
E204
330
C333
100
AcDbEntity
  8
AM_5
100
AcDbLine
 10
174.1460734743579
 20
170.306769433174
 30
0.0
 11
174.1460734743579
 21
82.30676921580824
 31
0.0
  0
INSERT
  5
E205
330
C333
100
AcDbEntity
  8
AM_5
100
AcDbBlockReference
  2
_Dot
 10
174.1460734743579
 20
171.306769433174
 30
0.0
 50
90.0
  0
INSERT
  5
E206
330
C333
100
AcDbEntity
  8
AM_5
100
AcDbBlockReference
  2
_Dot
 10
174.1460734743579
 20
81.30676921580825
 30
0.0
 50
270.0
  0
MTEXT
  5
E207
330
C333
100
AcDbEntity
  8
AM_5
 62
     2
100
AcDbMText
 10
171.0460734743579
 20
126.3067693244911
 30
0.0
 40
3.200000000000001
 41
0.0
 71
     5
 72
     1
  1
A
 11
0.0000000000000001
 21
1.0
 31
0.0
 73
     1
 44
1.0
1001
ACAD
1000
MTEXTBEGIN
1070
    73
1070
     1
1070
    44
1040
1.0
1070
    74
1070
     0
1000
MTEXTEND
  0
POINT
  5
E208
330
C333
100
AcDbEntity
  8
Defpoints
 62
     0
100
AcDbPoint
 10
186.1460734743579
 20
171.306769433174
 30
0.0
  0
POINT
  5
E209
330
C333
100
AcDbEntity
  8
Defpoints
 62
     0
100
AcDbPoint
 10
195.7460734976018
 20
81.30676921580825
 30
0.0
  0
POINT
  5
E20A
330
C333
100
AcDbEntity
  8
Defpoints
 62
     0
100
AcDbPoint
 10
174.1460734743579
 20
81.30676921580825
 30
0.0
  0
ENDBLK
  5
C335
330
C333
100
AcDbEntity
  8
0
100
AcDbBlockEnd
  0
BLOCK
  5
C35C
330
C35B
100
AcDbEntity
  8
0
100
AcDbBlockBegin
  2
*D33
 70
     1
 10
0.0
 20
0.0
 30
0.0
  3
*D33
  1

  0
LINE
  5
E20B
330
C35B
100
AcDbEntity
  8
AM_5
100
AcDbLine
 10
90.22766058925787
 20
169.526630394674
 30
0.0
 11
90.22766058925787
 21
188.8067704540436
 31
0.0
  0
LINE
  5
E20C
330
C35B
100
AcDbEntity
  8
AM_5
100
AcDbLine
 10
111.7276606411579
 20
169.526630394674
 30
0.0
 11
111.7276606411579
 21
188.8067704540436
 31
0.0
  0
LINE
  5
E20D
330
C35B
100
AcDbEntity
  8
AM_5
100
AcDbLine
 10
91.22766058925789
 20
187.8067704540436
 30
0.0
 11
110.7276606411579
 21
187.8067704540436
 31
0.0
  0
INSERT
  5
E20E
330
C35B
100
AcDbEntity
  8
AM_5
100
AcDbBlockReference
  2
_Dot
 10
90.22766058925787
 20
187.8067704540436
 30
0.0
 50
180.0
  0
INSERT
  5
E20F
330
C35B
100
AcDbEntity
  8
AM_5
100
AcDbBlockReference
  2
_Dot
 10
111.7276606411579
 20
187.8067704540436
 30
0.0
  0
MTEXT
  5
E210
330
C35B
100
AcDbEntity
  8
AM_5
 62
     2
100
AcDbMText
 10
100.9776606152079
 20
190.9067704540436
 30
0.0
 40
3.200000000000001
 41
0.0
 71
     5
 72
     1
  1
B
 73
     1
 44
1.0
1001
ACAD
1000
MTEXTBEGIN
1070
    73
1070
     1
1070
    44
1040
1.0
1070
    74
1070
     0
1000
MTEXTEND
  0
POINT
  5
E211
330
C35B
100
AcDbEntity
  8
Defpoints
 62
     0
100
AcDbPoint
 10
90.22766058925787
 20
168.526630394674
 30
0.0
  0
POINT
  5
E212
330
C35B
100
AcDbEntity
  8
Defpoints
 62
     0
100
AcDbPoint
 10
111.7276606411579
 20
168.526630394674
 30
0.0
  0
POINT
  5
E213
330
C35B
100
AcDbEntity
  8
Defpoints
 62
     0
100
AcDbPoint
 10
111.7276606411579
 20
187.8067704540436
 30
0.0
  0
ENDBLK
  5
C35D
330
C35B
100
AcDbEntity
  8
0
100
AcDbBlockEnd
  0
BLOCK
  5
C384
330
C383
100
AcDbEntity
  8
0
100
AcDbBlockBegin
  2
*D34
 70
     1
 10
0.0
 20
0.0
 30
0.0
  3
*D34
  1

  0
LINE
  5
E214
330
C383
100
AcDbEntity
  8
AM_5
100
AcDbLine
 10
95.47766060195788
 20
81.83205421187404
 30
0.0
 11
95.47766060195788
 21
68.30676821587402
 31
0.0
  0
LINE
  5
E215
330
C383
100
AcDbEntity
  8
AM_5
100
AcDbLine
 10
106.4776606284579
 20
81.83205421187404
 30
0.0
 11
106.4776606284579
 21
68.30676821587402
 31
0.0
  0
LINE
  5
E216
330
C383
100
AcDbEntity
  8
AM_5
100
AcDbLine
 10
96.4776606019579
 20
69.30676821587403
 30
0.0
 11
105.4776606284579
 21
69.30676821587403
 31
0.0
  0
INSERT
  5
E217
330
C383
100
AcDbEntity
  8
AM_5
100
AcDbBlockReference
  2
_Dot
 10
95.47766060195788
 20
69.30676821587403
 30
0.0
 50
180.0
  0
INSERT
  5
E218
330
C383
100
AcDbEntity
  8
AM_5
100
AcDbBlockReference
  2
_Dot
 10
106.4776606284579
 20
69.30676821587403
 30
0.0
  0
MTEXT
  5
E219
330
C383
100
AcDbEntity
  8
AM_5
 62
     2
100
AcDbMText
 10
100.9776606152079
 20
72.40676821587403
 30
0.0
 40
3.200000000000001
 41
0.0
 71
     5
 72
     1
  1
C
 73
     1
 44
1.0
1001
ACAD
1000
MTEXTBEGIN
1070
    73
1070
     1
1070
    44
1040
1.0
1070
    74
1070
     0
1000
MTEXTEND
  0
POINT
  5
E21A
330
C383
100
AcDbEntity
  8
Defpoints
 62
     0
100
AcDbPoint
 10
95.47766060195788
 20
82.83205421187403
 30
0.0
  0
POINT
  5
E21B
330
C383
100
AcDbEntity
  8
Defpoints
 62
     0
100
AcDbPoint
 10
106.4776606284579
 20
82.83205421187403
 30
0.0
  0
POINT
  5
E21C
330
C383
100
AcDbEntity
  8
Defpoints
 62
     0
100
AcDbPoint
 10
106.4776606284579
 20
69.30676821587403
 30
0.0
  0
ENDBLK
  5
C385
330
C383
100
AcDbEntity
  8
0
100
AcDbBlockEnd
  0
BLOCK
  5
C3AC
330
C3AB
100
AcDbEntity
  8
0
100
AcDbBlockBegin
  2
*D35
 70
     1
 10
0.0
 20
0.0
 30
0.0
  3
*D35
  1

  0
LINE
  5
E21D
330
C3AB
100
AcDbEntity
  8
AM_5
100
AcDbLine
 10
309.0391510663579
 20
165.600998051074
 30
0.0
 11
309.0391510663579
 21
188.8067694440436
 31
0.0
  0
LINE
  5
E21E
330
C3AB
100
AcDbEntity
  8
AM_5
100
AcDbLine
 10
336.0391511315579
 20
165.600998051074
 30
0.0
 11
336.0391511315579
 21
188.8067694440436
 31
0.0
  0
LINE
  5
E21F
330
C3AB
100
AcDbEntity
  8
AM_5
100
AcDbLine
 10
310.0391510663579
 20
187.8067694440436
 30
0.0
 11
335.0391511315579
 21
187.8067694440436
 31
0.0
  0
INSERT
  5
E220
330
C3AB
100
AcDbEntity
  8
AM_5
100
AcDbBlockReference
  2
_Dot
 10
309.0391510663579
 20
187.8067694440436
 30
0.0
 50
180.0
  0
INSERT
  5
E221
330
C3AB
100
AcDbEntity
  8
AM_5
100
AcDbBlockReference
  2
_Dot
 10
336.0391511315579
 20
187.8067694440436
 30
0.0
  0
MTEXT
  5
E222
330
C3AB
100
AcDbEntity
  8
AM_5
 62
     2
100
AcDbMText
 10
322.5391510989579
 20
190.9067694440436
 30
0.0
 40
3.200000000000001
 41
0.0
 71
     5
 72
     1
  1
E
 73
     1
 44
1.0
1001
ACAD
1000
MTEXTBEGIN
1070
    73
1070
     1
1070
    44
1040
1.0
1070
    74
1070
     0
1000
MTEXTEND
  0
POINT
  5
E223
330
C3AB
100
AcDbEntity
  8
Defpoints
 62
     0
100
AcDbPoint
 10
309.0391510663579
 20
164.600998051074
 30
0.0
  0
POINT
  5
E224
330
C3AB
100
AcDbEntity
  8
Defpoints
 62
     0
100
AcDbPoint
 10
336.0391511315579
 20
164.600998051074
 30
0.0
  0
POINT
  5
E225
330
C3AB
100
AcDbEntity
  8
Defpoints
 62
     0
100
AcDbPoint
 10
336.0391511315579
 20
187.8067694440436
 30
0.0
  0
ENDBLK
  5
C3AD
330
C3AB
100
AcDbEntity
  8
0
100
AcDbBlockEnd
  0
BLOCK
  5
C3DE
330
C3DD
100
AcDbEntity
  8
0
100
AcDbBlockBegin
  2
*D36
 70
     1
 10
0.0
 20
0.0
 30
0.0
  3
*D36
  1

  0
LINE
  5
E226
330
C3DD
100
AcDbEntity
  8
AM_5
100
AcDbLine
 10
332.4815193004955
 20
179.9740709001557
 30
0.0
 11
327.1315193004951
 21
179.9740709001558
 31
0.0
  0
LINE
  5
E227
330
C3DD
100
AcDbEntity
  8
AM_5
100
AcDbLine
 10
327.1315193004951
 20
179.9740709001558
 30
0.0
 11
324.2545720024911
 21
174.8575613232234
 31
0.0
  0
MTEXT
  5
E228
330
C3DD
100
AcDbEntity
  8
AM_5
 62
     2
100
AcDbMText
 10
330.5565193004954
 20
183.2240709001559
 30
0.0
 40
3.5
 41
0.0
 71
     5
 72
     1
  1
\U+22053
 73
     1
 44
1.0
1001
ACAD
1000
MTEXTBEGIN
1070
    73
1070
     1
1070
    44
1040
1.0
1070
    74
1070
     0
1000
MTEXTEND
  0
INSERT
  5
E229
330
C3DD
100
AcDbEntity
  8
AM_5
100
AcDbBlockReference
  2
_OPEN30
 10
323.2743314872006
 20
173.114251674256
 30
0.0
 41
2.0
 42
2.0
 43
2.0
 50
240.6515139332912
  0
POINT
  5
E22A
330
C3DD
100
AcDbEntity
  8
Defpoints
 62
     0
100
AcDbPoint
 10
323.2743314872006
 20
173.114251674256
 30
0.0
  0
POINT
  5
E22B
330
C3DD
100
AcDbEntity
  8
Defpoints
 62
     0
100
AcDbPoint
 10
321.803970710715
 20
170.4992871944919
 30
0.0
  0
ENDBLK
  5
C3DF
330
C3DD
100
AcDbEntity
  8
0
100
AcDbBlockEnd
  0
BLOCK
  5
C404
330
C403
100
AcDbEntity
  8
0
100
AcDbBlockBegin
  2
*D37
 70
     1
 10
0.0
 20
0.0
 30
0.0
  3
*D37
  1

  0
LINE
  5
E22C
330
C403
100
AcDbEntity
  8
AM_5
100
AcDbLine
 10
299.04908719185
 20
156.806769398174
 30
0.0
 11
289.5391510506579
 21
156.806769398174
 31
0.0
  0
LINE
  5
E22D
330
C403
100
AcDbEntity
  8
AM_5
100
AcDbLine
 10
316.5391510868579
 20
171.806769434374
 30
0.0
 11
289.5391510506579
 21
171.806769434374
 31
0.0
  0
LINE
  5
E22E
330
C403
100
AcDbEntity
  8
AM_5
100
AcDbLine
 10
290.5391510506579
 20
157.806769398174
 30
0.0
 11
290.5391510506579
 21
170.806769434374
 31
0.0
  0
INSERT
  5
E22F
330
C403
100
AcDbEntity
  8
AM_5
100
AcDbBlockReference
  2
_Dot
 10
290.5391510506579
 20
156.806769398174
 30
0.0
 50
270.0
  0
INSERT
  5
E230
330
C403
100
AcDbEntity
  8
AM_5
100
AcDbBlockReference
  2
_Dot
 10
290.5391510506579
 20
171.806769434374
 30
0.0
 50
90.0
  0
MTEXT
  5
E231
330
C403
100
AcDbEntity
  8
AM_5
 62
     2
100
AcDbMText
 10
287.4391510506578
 20
164.3067694162741
 30
0.0
 40
3.200000000000001
 41
0.0
 71
     5
 72
     1
  1
K
 11
0.0000000000000001
 21
1.0
 31
0.0
 73
     1
 44
1.0
1001
ACAD
1000
MTEXTBEGIN
1070
    73
1070
     1
1070
    44
1040
1.0
1070
    74
1070
     0
1000
MTEXTEND
  0
POINT
  5
E232
330
C403
100
AcDbEntity
  8
Defpoints
 62
     0
100
AcDbPoint
 10
300.0490871918501
 20
156.806769398174
 30
0.0
  0
POINT
  5
E233
330
C403
100
AcDbEntity
  8
Defpoints
 62
     0
100
AcDbPoint
 10
317.5391510868579
 20
171.806769434374
 30
0.0
  0
POINT
  5
E234
330
C403
100
AcDbEntity
  8
Defpoints
 62
     0
100
AcDbPoint
 10
290.5391510506579
 20
171.806769434374
 30
0.0
  0
ENDBLK
  5
C405
330
C403
100
AcDbEntity
  8
0
100
AcDbBlockEnd
  0
BLOCK
  5
C435
330
C434
100
AcDbEntity
  8
0
100
AcDbBlockBegin
  2
*D38
 70
     1
 10
0.0
 20
0.0
 30
0.0
  3
*D38
  1

  0
LINE
  5
E235
330
C434
100
AcDbEntity
  8
AM_5
100
AcDbLine
 10
323.2462578801445
 20
150.4428083538875
 30
0.0
 11
342.3786542974125
 21
131.3104119366193
 31
0.0
  0
LINE
  5
E236
330
C434
100
AcDbEntity
  8
AM_5
100
AcDbLine
 10
328.9031121432945
 20
156.0996626170375
 30
0.0
 11
348.0355085605626
 21
136.9672661997693
 31
0.0
  0
LINE
  5
E237
330
C434
100
AcDbEntity
  8
AM_5
100
AcDbLine
 10
342.3786542974125
 20
132.7246254989924
 30
0.0
 11
346.6212949981894
 21
136.9672661997693
 31
0.0
  0
INSERT
  5
E238
330
C434
100
AcDbEntity
  8
AM_5
100
AcDbBlockReference
  2
_Dot
 10
341.671547516226
 20
132.0175187178059
 30
0.0
 50
224.9999999999996
  0
INSERT
  5
E239
330
C434
100
AcDbEntity
  8
AM_5
100
AcDbBlockReference
  2
_Dot
 10
347.328401779376
 20
137.6743729809558
 30
0.0
 50
44.9999999999997
  0
MTEXT
  5
E23A
330
C434
100
AcDbEntity
  8
AM_5
 62
     2
100
AcDbMText
 10
342.3079436261227
 20
137.0379768710592
 30
0.0
 40
3.200000000000001
 41
0.0
 71
     5
 72
     1
  1
{\Famgdt;o}D
 11
0.7071067811865511
 21
0.7071067811865439
 31
0.0
 73
     1
 44
1.0
1001
ACAD
1000
MTEXTBEGIN
1070
    73
1070
     1
1070
    44
1040
1.0
1070
    74
1070
     0
1000
MTEXTEND
  0
POINT
  5
E23B
330
C434
100
AcDbEntity
  8
Defpoints
 62
     0
100
AcDbPoint
 10
322.539151098958
 20
151.149915135074
 30
0.0
  0
POINT
  5
E23C
330
C434
100
AcDbEntity
  8
Defpoints
 62
     0
100
AcDbPoint
 10
328.196005362108
 20
156.8067693982241
 30
0.0
  0
POINT
  5
E23D
330
C434
100
AcDbEntity
  8
Defpoints
 62
     0
100
AcDbPoint
 10
347.328401779376
 20
137.6743729809558
 30
0.0
  0
ENDBLK
  5
C436
330
C434
100
AcDbEntity
  8
0
100
AcDbBlockEnd
  0
BLOCK
  5
C9D7
330
C9D6
100
AcDbEntity
  8
0
100
AcDbBlockBegin
  2
*D39
 70
     1
 10
0.0
 20
0.0
 30
0.0
  3
*D39
  1

  0
ARC
  5
E35D
330
C9D6
100
AcDbEntity
  8
AM_5
100
AcDbCircle
 10
100.9776606152579
 20
156.806769398174
 30
0.0
 40
34.73476678339159
100
AcDbArc
 50
271.6495794765819
 51
358.3504205234182
  0
INSERT
  5
E35E
330
C9D6
100
AcDbEntity
  8
AM_5
100
AcDbBlockReference
  2
_Dot
 10
100.9776606152579
 20
122.0720026147824
 30
0.0
 50
180.8247897382909
  0
INSERT
  5
E35F
330
C9D6
100
AcDbEntity
  8
AM_5
100
AcDbBlockReference
  2
_Dot
 10
135.7124273986495
 20
156.806769398174
 30
0.0
 50
89.17521026170902
  0
MTEXT
  5
E360
330
C9D6
100
AcDbEntity
  8
AM_5
 62
     2
100
AcDbMText
 10
122.5336459306845
 20
135.2507840827474
 30
0.0
 40
3.5
 41
0.0
 71
     5
 72
     1
  1
回転角度：90\U+00B0
 11
0.7071067811865476
 21
0.7071067811865475
 31
0.0
 73
     1
 44
1.0
1001
ACAD
1000
MTEXTBEGIN
1070
    73
1070
     1
1070
    44
1040
1.0
1070
    74
1070
     0
1000
MTEXTEND
  0
POINT
  5
E361
330
C9D6
100
AcDbEntity
  8
Defpoints
 62
     0
100
AcDbPoint
 10
118.3450440069537
 20
126.725578969229
 30
0.0
  0
POINT
  5
E362
330
C9D6
100
AcDbEntity
  8
Defpoints
 62
     0
100
AcDbPoint
 10
150.9776607359579
 20
156.806769398174
 30
0.0
  0
POINT
  5
E363
330
C9D6
100
AcDbEntity
  8
Defpoints
 62
     0
100
AcDbPoint
 10
100.9776606152579
 20
178.7046698412614
 30
0.0
  0
POINT
  5
E364
330
C9D6
100
AcDbEntity
  8
Defpoints
 62
     0
100
AcDbPoint
 10
100.9776606152579
 20
78.15082557454367
 30
0.0
  0
POINT
  5
E365
330
C9D6
100
AcDbEntity
  8
Defpoints
 62
     0
100
AcDbPoint
 10
50.97766049455791
 20
156.806769398174
 30
0.0
  0
ENDBLK
  5
C9D8
330
C9D6
100
AcDbEntity
  8
0
100
AcDbBlockEnd
  0
BLOCK
  5
E056
330
E055
100
AcDbEntity
  8
0
100
AcDbBlockBegin
  2
*D40
 70
     1
 10
0.0
 20
0.0
 30
0.0
  3
*D40
  1

  0
LINE
  5
E412
330
E055
100
AcDbEntity
  8
AM_5
100
AcDbLine
 10
367.2301156031385
 20
250.9994282562167
 30
0.0
 11
377.7003089912139
 21
240.9682244193735
 31
0.0
  0
LINE
  5
E413
330
E055
100
AcDbEntity
  8
AM_5
100
AcDbLine
 10
379.1444735964657
 20
239.5846100970502
 30
0.0
 11
382.9489785380269
 21
235.9396187246328
 31
0.0
  0
LINE
  5
E414
330
E055
100
AcDbEntity
  8
AM_5
100
AcDbLine
 10
382.9489785380269
 20
235.9396187246328
 30
0.0
 11
394.1323118713602
 21
235.9396187246328
 31
0.0
  0
INSERT
  5
E415
330
E055
100
AcDbEntity
  8
AM_5
100
AcDbBlockReference
  2
GENDOT
 10
365.7859509978867
 20
252.38304257854
 30
0.0
 41
2.0
 42
2.0
 43
2.0
 50
136.2266678800766
  0
INSERT
  5
E416
330
E055
100
AcDbEntity
  8
AM_5
100
AcDbBlockReference
  2
GENDOT
 10
379.1444735964657
 20
239.5846100970502
 30
0.0
 41
2.0
 42
2.0
 43
2.0
 50
316.2266678800766
  0
MTEXT
  5
E417
330
E055
100
AcDbEntity
  8
AM_5
 62
     2
100
AcDbMText
 10
389.2906452046936
 20
239.1896187246328
 30
0.0
 40
3.5
 41
0.0
 71
     5
 72
     1
  1
\U+220518.5
 73
     1
 44
1.0
1001
ACAD
1000
MTEXTBEGIN
1070
    73
1070
     1
1070
    44
1040
1.0
1070
    74
1070
     0
1000
MTEXTEND
  0
POINT
  5
E418
330
E055
100
AcDbEntity
  8
Defpoints
 62
     0
100
AcDbPoint
 10
379.1444735964657
 20
239.5846100970502
 30
0.0
  0
POINT
  5
E419
330
E055
100
AcDbEntity
  8
Defpoints
 62
     0
100
AcDbPoint
 10
365.7859509978867
 20
252.38304257854
 30
0.0
  0
ENDBLK
  5
E057
330
E055
100
AcDbEntity
  8
0
100
AcDbBlockEnd
  0
BLOCK
  5
E061
330
E060
100
AcDbEntity
  8
0
100
AcDbBlockBegin
  2
*D41
 70
     1
 10
0.0
 20
0.0
 30
0.0
  3
*D41
  1

  0
LINE
  5
E41A
330
E060
100
AcDbEntity
  8
AM_5
100
AcDbLine
 10
378.2152122971761
 20
260.983826337795
 30
0.0
 11
394.7152122971761
 21
260.9838263377949
 31
0.0
  0
LINE
  5
E41B
330
E060
100
AcDbEntity
  8
AM_5
100
AcDbLine
 10
385.7902122971761
 20
245.983826337795
 30
0.0
 11
394.7152122971761
 21
245.983826337795
 31
0.0
  0
LINE
  5
E41C
330
E060
100
AcDbEntity
  8
AM_5
100
AcDbLine
 10
393.7152122971761
 20
259.9838263377949
 30
0.0
 11
393.7152122971761
 21
246.983826337795
 31
0.0
  0
INSERT
  5
E41D
330
E060
100
AcDbEntity
  8
AM_5
100
AcDbBlockReference
  2
_Dot
 10
393.7152122971761
 20
260.9838263377949
 30
0.0
 50
90.0
  0
INSERT
  5
E41E
330
E060
100
AcDbEntity
  8
AM_5
100
AcDbBlockReference
  2
_Dot
 10
393.7152122971761
 20
245.983826337795
 30
0.0
 50
270.0
  0
MTEXT
  5
E41F
330
E060
100
AcDbEntity
  8
AM_5
 62
     2
100
AcDbMText
 10
390.615212297176
 20
253.4838263377951
 30
0.0
 40
3.200000000000001
 41
0.0
 71
     5
 72
     1
  1
K
 11
0.0000000000000001
 21
1.0
 31
0.0
 73
     1
 44
1.0
1001
ACAD
1000
MTEXTBEGIN
1070
    73
1070
     1
1070
    44
1040
1.0
1070
    74
1070
     0
1000
MTEXTEND
  0
POINT
  5
E420
330
E060
100
AcDbEntity
  8
Defpoints
 62
     0
100
AcDbPoint
 10
377.2152122971761
 20
260.983826337795
 30
0.0
  0
POINT
  5
E421
330
E060
100
AcDbEntity
  8
Defpoints
 62
     0
100
AcDbPoint
 10
384.7902122971762
 20
245.983826337795
 30
0.0
  0
POINT
  5
E422
330
E060
100
AcDbEntity
  8
Defpoints
 62
     0
100
AcDbPoint
 10
393.7152122971761
 20
245.983826337795
 30
0.0
  0
ENDBLK
  5
E062
330
E060
100
AcDbEntity
  8
0
100
AcDbBlockEnd
  0
BLOCK
  5
E090
330
E08F
100
AcDbEntity
  8
0
100
AcDbBlockBegin
  2
*D42
 70
     1
 10
0.0
 20
0.0
 30
0.0
  3
*D42
  1

  0
LINE
  5
E409
330
E08F
100
AcDbEntity
  8
AM_5
100
AcDbLine
 10
328.7388129118199
 20
259.308826337795
 30
0.0
 11
328.7388129118199
 21
268.233826337795
 31
0.0
  0
LINE
  5
E40A
330
E08F
100
AcDbEntity
  8
AM_5
100
AcDbLine
 10
343.7388129118199
 20
251.733826337795
 30
0.0
 11
343.7388129118199
 21
268.233826337795
 31
0.0
  0
LINE
  5
E40B
330
E08F
100
AcDbEntity
  8
AM_5
100
AcDbLine
 10
329.7388129118199
 20
267.233826337795
 30
0.0
 11
342.7388129118199
 21
267.233826337795
 31
0.0
  0
INSERT
  5
E40C
330
E08F
100
AcDbEntity
  8
AM_5
100
AcDbBlockReference
  2
_Dot
 10
328.7388129118199
 20
267.233826337795
 30
0.0
 50
180.0
  0
INSERT
  5
E40D
330
E08F
100
AcDbEntity
  8
AM_5
100
AcDbBlockReference
  2
_Dot
 10
343.7388129118199
 20
267.233826337795
 30
0.0
  0
MTEXT
  5
E40E
330
E08F
100
AcDbEntity
  8
AM_5
 62
     2
100
AcDbMText
 10
336.2388129118199
 20
270.333826337795
 30
0.0
 40
3.200000000000001
 41
0.0
 71
     5
 72
     1
  1
K
 73
     1
 44
1.0
1001
ACAD
1000
MTEXTBEGIN
1070
    73
1070
     1
1070
    44
1040
1.0
1070
    74
1070
     0
1000
MTEXTEND
  0
POINT
  5
E40F
330
E08F
100
AcDbEntity
  8
Defpoints
 62
     0
100
AcDbPoint
 10
328.7388129118199
 20
258.3088263377951
 30
0.0
  0
POINT
  5
E410
330
E08F
100
AcDbEntity
  8
Defpoints
 62
     0
100
AcDbPoint
 10
343.7388129118199
 20
250.733826337795
 30
0.0
  0
POINT
  5
E411
330
E08F
100
AcDbEntity
  8
Defpoints
 62
     0
100
AcDbPoint
 10
343.7388129118199
 20
267.233826337795
 30
0.0
  0
ENDBLK
  5
E091
330
E08F
100
AcDbEntity
  8
0
100
AcDbBlockEnd
  0
ENDSEC
  0
SECTION
  2
ENTITIES
  0
LINE
  5
B9F0
330
1F
100
AcDbEntity
  8
size
100
AcDbLine
 10
0.0
 20
0.0
 30
0.0
 11
420.0
 21
0.0
 31
0.0
1001
GENIUS_GENREC_14
1002
{
1000
PYDIR
1011
0.0000000000000142
1021
297.0
1031
0.0
1002
}
1002
{
1000
PXDIR
1011
420.0
1021
0.0
1031
0.0
1002
}
1002
{
1000
PORI
1011
0.0
1021
0.0
1031
0.0
1002
}
1002
{
1000
PINS
1011
210.0
1021
148.5
1031
0.0
1002
}
1002
{
1000
HVAL
1000
297
1002
}
1002
{
1000
H
1070
     2
1002
}
1002
{
1000
WVAL
1000
420
1002
}
1002
{
1000
W
1070
     2
1002
}
1002
{
1000
C
1070
     4
1002
}
1001
GENIUS_GENOBJ-N-REC_13
1002
{
1000
OWNER
1000
GEN
1002
}
1001
GENIUS_GENODEF_13
1002
{
1000
HIER
1070
     0
1002
}
1002
{
1000
MANEDIT
1070
     0
1002
}
1002
{
1000
NOSEL
1070
     0
1002
}
1002
{
1000
BEHIND
1070
     0
1002
}
1002
{
1000
OTHER
1070
     0
1002
}
1002
{
1000
REACTOR
1002
}
  0
LINE
  5
B9F1
330
1F
100
AcDbEntity
  8
size
100
AcDbLine
 10
420.0
 20
0.0
 30
0.0
 11
420.0
 21
297.0
 31
0.0
1001
GENIUS_GENREC_14
1002
{
1000
PYDIR
1011
0.0000000000000142
1021
297.0
1031
0.0
1002
}
1002
{
1000
PXDIR
1011
420.0
1021
0.0
1031
0.0
1002
}
1002
{
1000
PORI
1011
0.0
1021
0.0
1031
0.0
1002
}
1002
{
1000
PINS
1011
210.0
1021
148.5
1031
0.0
1002
}
1002
{
1000
HVAL
1000
297
1002
}
1002
{
1000
H
1070
     2
1002
}
1002
{
1000
WVAL
1000
420
1002
}
1002
{
1000
W
1070
     2
1002
}
1002
{
1000
C
1070
     4
1002
}
1001
GENIUS_GENOBJ-N-REC_13
1002
{
1000
OWNER
1000
GEN
1002
}
1001
GENIUS_GENODEF_13
1002
{
1000
HIER
1070
     0
1002
}
1002
{
1000
MANEDIT
1070
     0
1002
}
1002
{
1000
NOSEL
1070
     0
1002
}
1002
{
1000
BEHIND
1070
     0
1002
}
1002
{
1000
OTHER
1070
     0
1002
}
1002
{
1000
REACTOR
1002
}
  0
LINE
  5
B9F2
330
1F
100
AcDbEntity
  8
size
100
AcDbLine
 10
420.0
 20
297.0
 30
0.0
 11
0.0000000000000284
 21
297.0
 31
0.0
1001
GENIUS_GENREC_14
1002
{
1000
PYDIR
1011
0.0000000000000142
1021
297.0
1031
0.0
1002
}
1002
{
1000
PXDIR
1011
420.0
1021
0.0
1031
0.0
1002
}
1002
{
1000
PORI
1011
0.0
1021
0.0
1031
0.0
1002
}
1002
{
1000
PINS
1011
210.0
1021
148.5
1031
0.0
1002
}
1002
{
1000
HVAL
1000
297
1002
}
1002
{
1000
H
1070
     2
1002
}
1002
{
1000
WVAL
1000
420
1002
}
1002
{
1000
W
1070
     2
1002
}
1002
{
1000
C
1070
     4
1002
}
1001
GENIUS_GENOBJ-N-REC_13
1002
{
1000
OWNER
1000
GEN
1002
}
1001
GENIUS_GENODEF_13
1002
{
1000
HIER
1070
     0
1002
}
1002
{
1000
MANEDIT
1070
     0
1002
}
1002
{
1000
NOSEL
1070
     0
1002
}
1002
{
1000
BEHIND
1070
     0
1002
}
1002
{
1000
OTHER
1070
     0
1002
}
1002
{
1000
REACTOR
1002
}
  0
LINE
  5
B9F3
330
1F
100
AcDbEntity
  8
size
100
AcDbLine
 10
0.0000000000000284
 20
297.0
 30
0.0
 11
0.0
 21
0.0
 31
0.0
1001
GENIUS_GENREC_14
1002
{
1000
PYDIR
1011
0.0000000000000142
1021
297.0
1031
0.0
1002
}
1002
{
1000
PXDIR
1011
420.0
1021
0.0
1031
0.0
1002
}
1002
{
1000
PORI
1011
0.0
1021
0.0
1031
0.0
1002
}
1002
{
1000
PINS
1011
210.0
1021
148.5
1031
0.0
1002
}
1002
{
1000
HVAL
1000
297
1002
}
1002
{
1000
H
1070
     2
1002
}
1002
{
1000
WVAL
1000
420
1002
}
1002
{
1000
W
1070
     2
1002
}
1002
{
1000
C
1070
     4
1002
}
1001
GENIUS_GENOBJ-N-REC_13
1002
{
1000
OWNER
1000
GEN
1002
}
1001
GENIUS_GENODEF_13
1002
{
1000
HIER
1070
     0
1002
}
1002
{
1000
MANEDIT
1070
     0
1002
}
1002
{
1000
NOSEL
1070
     0
1002
}
1002
{
1000
BEHIND
1070
     0
1002
}
1002
{
1000
OTHER
1070
     0
1002
}
1002
{
1000
REACTOR
1002
}
  0
LINE
  5
B9F4
330
1F
100
AcDbEntity
  8
waku
100
AcDbLine
 10
408.4999999999999
 20
8.5
 30
0.0
 11
408.4999999999999
 21
288.5
 31
0.0
1001
GENIUS_GENREC_14
1002
{
1000
PYDIR
1011
0.0000000000000142
1021
297.0
1031
0.0
1002
}
1002
{
1000
PXDIR
1011
420.0
1021
0.0
1031
0.0
1002
}
1002
{
1000
PORI
1011
0.0
1021
0.0
1031
0.0
1002
}
1002
{
1000
PINS
1011
210.0
1021
148.5
1031
0.0
1002
}
1002
{
1000
HVAL
1000
297
1002
}
1002
{
1000
H
1070
     2
1002
}
1002
{
1000
WVAL
1000
420
1002
}
1002
{
1000
W
1070
     2
1002
}
1002
{
1000
C
1070
     4
1002
}
1001
GENIUS_GENOBJ-N-REC_13
1002
{
1000
OWNER
1000
GEN
1002
}
1001
GENIUS_GENODEF_13
1002
{
1000
HIER
1070
     0
1002
}
1002
{
1000
MANEDIT
1070
     0
1002
}
1002
{
1000
NOSEL
1070
     0
1002
}
1002
{
1000
BEHIND
1070
     0
1002
}
1002
{
1000
OTHER
1070
     0
1002
}
1002
{
1000
REACTOR
1002
}
  0
LINE
  5
B9F5
330
1F
100
AcDbEntity
  8
waku
100
AcDbLine
 10
11.50000000000003
 20
288.5
 30
0.0
 11
11.5
 21
8.5
 31
0.0
1001
GENIUS_GENREC_14
1002
{
1000
PYDIR
1011
0.0000000000000142
1021
297.0
1031
0.0
1002
}
1002
{
1000
PXDIR
1011
420.0
1021
0.0
1031
0.0
1002
}
1002
{
1000
PORI
1011
0.0
1021
0.0
1031
0.0
1002
}
1002
{
1000
PINS
1011
210.0
1021
148.5
1031
0.0
1002
}
1002
{
1000
HVAL
1000
297
1002
}
1002
{
1000
H
1070
     2
1002
}
1002
{
1000
WVAL
1000
420
1002
}
1002
{
1000
W
1070
     2
1002
}
1002
{
1000
C
1070
     4
1002
}
1001
GENIUS_GENOBJ-N-REC_13
1002
{
1000
OWNER
1000
GEN
1002
}
1001
GENIUS_GENODEF_13
1002
{
1000
HIER
1070
     0
1002
}
1002
{
1000
MANEDIT
1070
     0
1002
}
1002
{
1000
NOSEL
1070
     0
1002
}
1002
{
1000
BEHIND
1070
     0
1002
}
1002
{
1000
OTHER
1070
     0
1002
}
1002
{
1000
REACTOR
1002
}
  0
LINE
  5
B9F6
330
1F
100
AcDbEntity
  8
waku
100
AcDbLine
 10
408.4999999999999
 20
288.5
 30
0.0
 11
11.50000000000003
 21
288.5
 31
0.0
1001
GENIUS_GENREC_14
1002
{
1000
PYDIR
1011
0.0000000000000142
1021
297.0
1031
0.0
1002
}
1002
{
1000
PXDIR
1011
420.0
1021
0.0
1031
0.0
1002
}
1002
{
1000
PORI
1011
0.0
1021
0.0
1031
0.0
1002
}
1002
{
1000
PINS
1011
210.0
1021
148.5
1031
0.0
1002
}
1002
{
1000
HVAL
1000
297
1002
}
1002
{
1000
H
1070
     2
1002
}
1002
{
1000
WVAL
1000
420
1002
}
1002
{
1000
W
1070
     2
1002
}
1002
{
1000
C
1070
     4
1002
}
1001
GENIUS_GENOBJ-N-REC_13
1002
{
1000
OWNER
1000
GEN
1002
}
1001
GENIUS_GENODEF_13
1002
{
1000
HIER
1070
     0
1002
}
1002
{
1000
MANEDIT
1070
     0
1002
}
1002
{
1000
NOSEL
1070
     0
1002
}
1002
{
1000
BEHIND
1070
     0
1002
}
1002
{
1000
OTHER
1070
     0
1002
}
1002
{
1000
REACTOR
1002
}
  0
LINE
  5
B9F7
330
1F
100
AcDbEntity
  8
waku
100
AcDbLine
 10
11.5
 20
8.5
 30
0.0
 11
408.4999999999999
 21
8.5
 31
0.0
  0
LINE
  5
BA17
330
1F
100
AcDbEntity
  8
AM_0
100
AcDbLine
 10
11.50000000000003
 20
288.5
 30
0.0
 11
91.38876405539551
 21
288.5
 31
0.0
  0
LINE
  5
BA18
330
1F
100
AcDbEntity
  8
AM_2
100
AcDbLine
 10
11.50000000000003
 20
281.5
 30
0.0
 11
91.38876405539551
 21
281.5
 31
0.0
  0
LINE
  5
BA19
330
1F
100
AcDbEntity
  8
AM_0
100
AcDbLine
 10
11.50000000000003
 20
288.5
 30
0.0
 11
11.500000458681
 21
239.5
 31
0.0
  0
LINE
  5
BA1A
330
1F
100
AcDbEntity
  8
AM_2
100
AcDbLine
 10
34.50000000000003
 20
288.5
 30
0.0
 11
34.50000045868043
 21
239.5000000000002
 31
0.0
  0
MTEXT
  5
BA1B
330
1F
100
AcDbEntity
  8
AM_6
100
AcDbMText
 10
23.00000000000009
 20
285.0
 30
0.0
 40
3.2
 41
22.99999999999987
 71
     5
 72
     5
  1
品　名
 73
     1
 44
1.0
1001
ACAD
1000
MTEXTBEGIN
1070
    73
1070
     1
1070
    44
1040
1.0
1070
    74
1070
     0
1000
MTEXTEND
1000
ACAD_MTEXT_DEFINED_HEIGHT_BEGIN
1070
    46
1040
6.999999999999955
1000
ACAD_MTEXT_DEFINED_HEIGHT_END
  0
MTEXT
  5
BA1C
330
1F
100
AcDbEntity
  8
AM_6
100
AcDbMText
 10
23.00000000000003
 20
278.0
 30
0.0
 40
3.2
 41
23.00000000000001
 71
     5
 72
     5
  1
品　番
 73
     1
 44
1.0
1001
ACAD
1000
MTEXTBEGIN
1070
    73
1070
     1
1070
    44
1040
1.0
1070
    74
1070
     0
1000
MTEXTEND
1000
ACAD_MTEXT_DEFINED_HEIGHT_BEGIN
1070
    46
1040
7.762029914680923
1000
ACAD_MTEXT_DEFINED_HEIGHT_END
  0
LINE
  5
BA1D
330
1F
100
AcDbEntity
  8
AM_0
100
AcDbLine
 10
91.38876405539551
 20
288.5
 30
0.0
 11
91.38876451407593
 21
239.5000000000002
 31
0.0
  0
LINE
  5
BA1E
330
1F
100
AcDbEntity
  8
AM_2
100
AcDbLine
 10
11.50000000000003
 20
274.5
 30
0.0
 11
91.38876405539551
 21
274.5
 31
0.0
  0
MTEXT
  5
BA1F
330
1F
100
AcDbEntity
  8
AM_6
100
AcDbMText
 10
23.00000000000026
 20
271.2471667108157
 30
0.0
 40
3.2
 41
23.0
 71
     5
 72
     5
  1
材　質
 73
     1
 44
1.0
1001
ACAD
1000
MTEXTBEGIN
1070
    73
1070
     1
1070
    44
1040
1.0
1070
    74
1070
     0
1000
MTEXTEND
1000
ACAD_MTEXT_DEFINED_HEIGHT_BEGIN
1070
    46
1040
5.200000000000001
1000
ACAD_MTEXT_DEFINED_HEIGHT_END
  0
MTEXT
  5
BA20
330
1F
100
AcDbEntity
  8
AM_6
100
AcDbMText
 10
23.00000036764291
 20
264.1610000882972
 30
0.0
 40
3.2
 41
22.99999999999993
 71
     5
 72
     5
  1
仕上げ
 73
     1
 44
1.0
1001
ACAD
1000
MTEXTBEGIN
1070
    73
1070
     1
1070
    44
1040
1.0
1070
    74
1070
     0
1000
MTEXTEND
1000
ACAD_MTEXT_DEFINED_HEIGHT_BEGIN
1070
    46
1040
7.013416674024666
1000
ACAD_MTEXT_DEFINED_HEIGHT_END
  0
TEXT
  5
BA21
330
1F
100
AcDbEntity
  8
AM_6
100
AcDbText
 10
34.50000000000003
 20
276.512999970568
 30
0.0
 40
3.2
  1
　EL-110S
 41
0.7
100
AcDbText
1001
ACAD
1000
ACAD_MTEXT_DEFINED_HEIGHT_BEGIN
1070
    46
1040
5.200000000000001
1000
ACAD_MTEXT_DEFINED_HEIGHT_END
  0
LINE
  5
BA22
330
1F
100
AcDbEntity
  8
AM_0
100
AcDbLine
 10
11.5000004586802
 20
239.5
 30
0.0
 11
91.3887645140757
 21
239.5
 31
0.0
  0
TEXT
  5
BA23
330
1F
100
AcDbEntity
  8
AM_6
100
AcDbText
 10
34.50000000000003
 20
283.4000000000001
 30
0.0
 40
3.2
  1
　ライン型ハンドル
 41
0.7
100
AcDbText
1001
ACAD
1000
ACAD_MTEXT_DEFINED_HEIGHT_BEGIN
1070
    46
1040
7.000000000000011
1000
ACAD_MTEXT_DEFINED_HEIGHT_END
  0
TEXT
  5
BA24
330
1F
100
AcDbEntity
  8
AM_6
100
AcDbText
 10
34.50000000000012
 20
269.512999970568
 30
0.0
 40
3.2
  1
　ステンレス
 41
0.7
100
AcDbText
1001
ACAD
1000
ACAD_MTEXT_DEFINED_HEIGHT_BEGIN
1070
    46
1040
5.199999999999943
1000
ACAD_MTEXT_DEFINED_HEIGHT_END
  0
LINE
  5
BA25
330
1F
100
AcDbEntity
  8
AM_2
100
AcDbLine
 10
11.50000036764257
 20
267.5
 30
0.0
 11
91.38876442303811
 21
267.5
 31
0.0
  0
TEXT
  5
BA26
330
1F
100
AcDbEntity
  8
AM_6
100
AcDbText
 10
34.50000036764266
 20
262.512999970568
 30
0.0
 40
3.2
  1
　鏡面
 41
0.7
100
AcDbText
1001
ACAD
1000
ACAD_MTEXT_DEFINED_HEIGHT_BEGIN
1070
    46
1040
5.199999999999943
1000
ACAD_MTEXT_DEFINED_HEIGHT_END
  0
MTEXT
  5
BA34
330
1F
100
AcDbEntity
  8
AM_6
100
AcDbMText
 10
23.00000054971915
 20
250.1610000882972
 30
0.0
 40
3.2
 41
22.99999999999993
 71
     5
 72
     5
  1
備　考
 73
     1
 44
1.0
1001
ACAD
1000
MTEXTBEGIN
1070
    73
1070
     1
1070
    44
1040
1.0
1070
    74
1070
     0
1000
MTEXTEND
1000
ACAD_MTEXT_DEFINED_HEIGHT_BEGIN
1070
    46
1040
7.013416674024666
1000
ACAD_MTEXT_DEFINED_HEIGHT_END
  0
LINE
  5
BA35
330
1F
100
AcDbEntity
  8
AM_2
100
AcDbLine
 10
11.5000005497188
 20
253.5
 30
0.0
 11
91.38876460511434
 21
253.5
 31
0.0
  0
TEXT
  5
BA36
330
1F
100
AcDbEntity
  8
AM_6
100
AcDbText
 10
34.50000054971889
 20
248.512999970568
 30
0.0
 40
3.2
  1
　左右兼用型
 41
0.7
100
AcDbText
1001
ACAD
1000
ACAD_MTEXT_DEFINED_HEIGHT_BEGIN
1070
    46
1040
5.199999999999943
1000
ACAD_MTEXT_DEFINED_HEIGHT_END
  0
LINE
  5
BF92
330
1F
100
AcDbEntity
  8
DV1__Translation
  6
Continuous
 62
     7
100
AcDbLine
 10
100.9776606152579
 20
151.1625714016552
 30
0.0
 11
153.4776607419579
 21
151.1625714016552
 31
0.0
  0
LINE
  5
BF93
330
1F
100
AcDbEntity
  8
DV1__Translation
  6
Continuous
 62
     7
100
AcDbLine
 10
100.9776606152579
 20
151.1625714016552
 30
0.0
 11
100.9776606152579
 21
98.66257127495517
 31
0.0
  0
CIRCLE
  5
BF95
330
1F
100
AcDbEntity
  8
DV1__Translation
  6
Continuous
 62
     7
100
AcDbCircle
 10
186.1460734743579
 20
165.6625714366552
 30
0.0
 40
0.000393700788352
  0
CIRCLE
  5
BF96
330
1F
100
AcDbEntity
  8
DV1__Translation
  6
Continuous
 62
     7
100
AcDbCircle
 10
195.7460734975579
 20
75.66257121935516
 30
0.0
 40
0.000393700788352
  0
LINE
  5
BF97
330
1F
100
AcDbEntity
  8
DV1__Translation
  6
Continuous
 62
     7
100
AcDbLine
 10
180.3460734603579
 20
165.6625714366552
 30
0.0
 11
180.3460734603579
 21
75.66257121935516
 31
0.0
  0
CIRCLE
  5
BF99
330
1F
100
AcDbEntity
  8
DV1__Translation
  6
Continuous
 62
     7
100
AcDbCircle
 10
186.1460734743579
 20
165.6625714366552
 30
0.0
 40
0.000393700788352
  0
CIRCLE
  5
BF9A
330
1F
100
AcDbEntity
  8
DV1__Translation
  6
Continuous
 62
     7
100
AcDbCircle
 10
220.3460735569579
 20
170.1625714475551
 30
0.0
 40
0.000393700788352
  0
LINE
  5
BF9B
330
1F
100
AcDbEntity
  8
DV1__Translation
  6
Continuous
 62
     7
100
AcDbLine
 10
186.1460734743579
 20
195.1625715078552
 30
0.0
 11
220.3460735569579
 21
195.1625715078552
 31
0.0
  0
CIRCLE
  5
BF9D
330
1F
100
AcDbEntity
  8
DV1__Translation
  6
Continuous
 62
     7
100
AcDbCircle
 10
213.5460735405579
 20
162.0367108972551
 30
0.0
 40
0.000393700788352
  0
CIRCLE
  5
BF9E
330
1F
100
AcDbEntity
  8
DV1__Translation
  6
Continuous
 62
     7
100
AcDbCircle
 10
220.3460735569579
 20
170.1625714475551
 30
0.0
 40
0.000393700788352
  0
LINE
  5
BF9F
330
1F
100
AcDbEntity
  8
DV1__Translation
  6
Continuous
 62
     7
100
AcDbLine
 10
213.5460735405579
 20
185.1625714837551
 30
0.0
 11
220.3460735569579
 21
185.1625714837551
 31
0.0
  0
CIRCLE
  5
BFA1
330
1F
100
AcDbEntity
  8
DV1__Translation
  6
Continuous
 62
     7
100
AcDbCircle
 10
220.3460735569579
 20
170.1625714475551
 30
0.0
 40
0.000393700788352
  0
CIRCLE
  5
BFA2
330
1F
100
AcDbEntity
  8
DV1__Translation
  6
Continuous
 62
     7
100
AcDbCircle
 10
227.5460735743579
 20
160.2625714236552
 30
0.0
 40
0.000393700788352
  0
LINE
  5
BFA3
330
1F
100
AcDbEntity
  8
DV1__Translation
  6
Continuous
 62
     7
100
AcDbLine
 10
220.3460735569579
 20
185.1625714837551
 30
0.0
 11
227.5460735743579
 21
185.1625714837551
 31
0.0
  0
CIRCLE
  5
BFA5
330
1F
100
AcDbEntity
  8
DV1__Translation
  6
Continuous
 62
     7
100
AcDbCircle
 10
227.5460735743579
 20
160.2625714236552
 30
0.0
 40
0.000393700788352
  0
CIRCLE
  5
BFA6
330
1F
100
AcDbEntity
  8
DV1__Translation
  6
Continuous
 62
     7
100
AcDbCircle
 10
230.5460735815579
 20
158.2625714187551
 30
0.0
 40
0.000393700788352
  0
LINE
  5
BFA7
330
1F
100
AcDbEntity
  8
DV1__Translation
  6
Continuous
 62
     7
100
AcDbLine
 10
227.5460735743579
 20
175.1625714595552
 30
0.0
 11
230.5460735815579
 21
175.1625714595552
 31
0.0
  0
CIRCLE
  5
BFA9
330
1F
100
AcDbEntity
  8
DV1__Translation
  6
Continuous
 62
     7
100
AcDbCircle
 10
220.3460735569579
 20
170.1625714475551
 30
0.0
 40
0.000393700788352
  0
CIRCLE
  5
BFAA
330
1F
100
AcDbEntity
  8
DV1__Translation
  6
Continuous
 62
     7
100
AcDbCircle
 10
243.0460736117579
 20
153.1625714064552
 30
0.0
 40
0.000393700788352
  0
LINE
  5
BFAB
330
1F
100
AcDbEntity
  8
DV1__Translation
  6
Continuous
 62
     7
100
AcDbLine
 10
220.3460735569579
 20
195.1625715078552
 30
0.0
 11
243.0460736117579
 21
195.1625715078552
 31
0.0
  0
CIRCLE
  5
BFAD
330
1F
100
AcDbEntity
  8
DV1__Translation
  6
Continuous
 62
     7
100
AcDbCircle
 10
226.4960735717579
 20
160.1625714233552
 30
0.0
 40
0.000393700788352
  0
CIRCLE
  5
BFAE
330
1F
100
AcDbEntity
  8
DV1__Translation
  6
Continuous
 62
     7
100
AcDbCircle
 10
226.4960735717579
 20
142.1625713799552
 30
0.0
 40
0.000393700788352
  0
LINE
  5
BFAF
330
1F
100
AcDbEntity
  8
DV1__Translation
  6
Continuous
 62
     7
100
AcDbLine
 10
263.0460736600579
 20
160.1625714233552
 30
0.0
 11
263.0460736600579
 21
142.1625713799552
 31
0.0
  0
CIRCLE
  5
BFB1
330
1F
100
AcDbEntity
  8
DV1__Translation
  6
Continuous
 62
     7
100
AcDbCircle
 10
241.0460736068579
 20
155.1625714113552
 30
0.0
 40
0.000393700788352
  0
CIRCLE
  5
BFB2
330
1F
100
AcDbEntity
  8
DV1__Translation
  6
Continuous
 62
     7
100
AcDbCircle
 10
241.0460736068579
 20
147.1625713920551
 30
0.0
 40
0.000393700788352
  0
LINE
  5
BFB3
330
1F
100
AcDbEntity
  8
DV1__Translation
  6
Continuous
 62
     7
100
AcDbLine
 10
253.0460736358579
 20
155.1625714113552
 30
0.0
 11
253.0460736358579
 21
147.1625713920551
 31
0.0
  0
CIRCLE
  5
BFB5
330
1F
100
AcDbEntity
  8
DV1__Translation
  6
Continuous
 62
     7
100
AcDbCircle
 10
220.3460735569579
 20
132.1625713557551
 30
0.0
 40
0.000393700788352
  0
CIRCLE
  5
BFB6
330
1F
100
AcDbEntity
  8
DV1__Translation
  6
Continuous
 62
     7
100
AcDbCircle
 10
220.3460735569579
 20
170.1625714475551
 30
0.0
 40
0.000393700788352
  0
LINE
  5
BFB7
330
1F
100
AcDbEntity
  8
DV1__Translation
  6
Continuous
 62
     7
100
AcDbLine
 10
273.0460736841579
 20
132.1625713557551
 30
0.0
 11
273.0460736841579
 21
170.1625714475551
 31
0.0
  0
CIRCLE
  5
BFB9
330
1F
100
AcDbEntity
  8
DV1__Translation
  6
Continuous
 62
     7
100
AcDbCircle
 10
317.5391510868579
 20
166.1625714378551
 30
0.0
 40
0.000393700788352
  0
CIRCLE
  5
BFBA
330
1F
100
AcDbEntity
  8
DV1__Translation
  6
Continuous
 62
     7
100
AcDbCircle
 10
307.5391510627579
 20
151.1625714016552
 30
0.0
 40
0.000393700788352
  0
LINE
  5
BFBB
330
1F
100
AcDbEntity
  8
DV1__Translation
  6
Continuous
 62
     7
100
AcDbLine
 10
300.5391510458579
 20
166.1625714378551
 30
0.0
 11
300.5391510458579
 21
151.1625714016552
 31
0.0
  0
CIRCLE
  5
BFBD
330
1F
100
AcDbEntity
  8
DV1__Translation
  6
Continuous
 62
     7
100
AcDbCircle
 10
309.0391510663579
 20
158.9568000545551
 30
0.0
 40
0.000393700788352
  0
CIRCLE
  5
BFBE
330
1F
100
AcDbEntity
  8
DV1__Translation
  6
Continuous
 62
     7
100
AcDbCircle
 10
336.0391511315579
 20
158.9568000545551
 30
0.0
 40
0.000393700788352
  0
LINE
  5
BFBF
330
1F
100
AcDbEntity
  8
DV1__Translation
  6
Continuous
 62
     7
100
AcDbLine
 10
309.0391510663579
 20
175.1625714595552
 30
0.0
 11
336.0391511315579
 21
175.1625714595552
 31
0.0
  0
CIRCLE
  5
BFC1
330
1F
100
AcDbEntity
  8
DV1__Translation
  6
Continuous
 62
     7
100
AcDbCircle
 10
90.22766058925787
 20
162.8824323981551
 30
0.0
 40
0.000393700788352
  0
CIRCLE
  5
BFC2
330
1F
100
AcDbEntity
  8
DV1__Translation
  6
Continuous
 62
     7
100
AcDbCircle
 10
111.7276606411579
 20
162.8824323981551
 30
0.0
 40
0.000393700788352
  0
LINE
  5
BFC3
330
1F
100
AcDbEntity
  8
DV1__Translation
  6
Continuous
 62
     7
100
AcDbLine
 10
90.22766058925787
 20
175.1625714595552
 30
0.0
 11
111.7276606411579
 21
175.1625714595552
 31
0.0
  0
CIRCLE
  5
BFC5
330
1F
100
AcDbEntity
  8
DV1__Translation
  6
Continuous
 62
     7
100
AcDbCircle
 10
95.47766060195788
 20
77.18785621535516
 30
0.0
 40
0.000393700788352
  0
CIRCLE
  5
BFC6
330
1F
100
AcDbEntity
  8
DV1__Translation
  6
Continuous
 62
     7
100
AcDbCircle
 10
106.4776606284579
 20
77.18785621535516
 30
0.0
 40
0.000393700788352
  0
LINE
  5
BFC7
330
1F
100
AcDbEntity
  8
DV1__Translation
  6
Continuous
 62
     7
100
AcDbLine
 10
95.47766060195788
 20
65.66257119525516
 30
0.0
 11
106.4776606284579
 21
65.66257119525516
 31
0.0
  0
LINE
  5
BFC9
330
1F
100
AcDbEntity
  8
DV1__Translation
  6
Continuous
 62
     7
100
AcDbLine
 10
100.9776606152579
 20
151.1625714016552
 30
0.0
 11
48.47766048845788
 21
151.1625714016552
 31
0.0
  0
LINE
  5
BFCA
330
1F
100
AcDbEntity
  8
DV1__Translation
  6
Continuous
 62
     7
100
AcDbLine
 10
100.9776606152579
 20
151.1625714016552
 30
0.0
 11
100.9776606152579
 21
98.66257127495517
 31
0.0
  0
CIRCLE
  5
BFCC
330
1F
100
AcDbEntity
  8
DV1__Translation
  6
Continuous
 62
     7
100
AcDbCircle
 10
322.5391510989579
 20
166.1625714378551
 30
0.0
 40
1.5000000036212
  0
CIRCLE
  5
BFCE
330
1F
100
AcDbEntity
  8
DV1__Translation
  6
Continuous
 62
     7
100
AcDbCircle
 10
321.7119735818579
 20
146.3328946556551
 30
0.0
 40
0.000393700788352
  0
CIRCLE
  5
BFCF
330
1F
100
AcDbEntity
  8
DV1__Translation
  6
Continuous
 62
     7
100
AcDbCircle
 10
327.3688278449579
 20
151.9897489187551
 30
0.0
 40
0.000393700788352
  0
LINE
  5
BFD0
330
1F
100
AcDbEntity
  8
DV1__Translation
  6
Continuous
 62
     7
100
AcDbLine
 10
334.9417138407579
 20
133.1031543966552
 30
0.0
 11
340.5985681039579
 21
138.7600086598552
 31
0.0
  0
LINE
  5
BFD2
330
1F
100
AcDbEntity
  8
AM_0
100
AcDbLine
 10
309.0391510663579
 20
149.012540745274
 30
0.0
 11
322.5391510989579
 21
141.218312092474
 31
0.0
  0
LINE
  5
BFD3
330
1F
100
AcDbEntity
  8
AM_0
100
AcDbLine
 10
322.5391510989579
 20
141.218312092474
 30
0.0
 11
336.0391511315579
 21
149.012540745274
 31
0.0
  0
LINE
  5
BFD4
330
1F
100
AcDbEntity
  8
AM_0
100
AcDbLine
 10
336.0391511315579
 20
149.012540745274
 30
0.0
 11
336.0391511315579
 21
164.600998051074
 31
0.0
  0
LINE
  5
BFD5
330
1F
100
AcDbEntity
  8
AM_0
100
AcDbLine
 10
336.0391511315579
 20
164.600998051074
 30
0.0
 11
322.5391510989579
 21
172.395226703974
 31
0.0
  0
LINE
  5
BFD6
330
1F
100
AcDbEntity
  8
AM_0
100
AcDbLine
 10
322.5391510989579
 20
172.395226703974
 30
0.0
 11
309.0391510663579
 21
164.600998051074
 31
0.0
  0
LINE
  5
BFD7
330
1F
100
AcDbEntity
  8
AM_0
100
AcDbLine
 10
309.0391510663579
 20
164.600998051074
 30
0.0
 11
309.0391510663579
 21
149.012540745274
 31
0.0
  0
CIRCLE
  5
BFD9
330
1F
100
AcDbEntity
  8
AM_0
100
AcDbCircle
 10
322.5391510989579
 20
156.806769398174
 30
0.0
 40
4.000000009656757
  0
LINE
  5
BFDC
330
1F
100
AcDbEntity
  8
AM_0
100
AcDbLine
 10
328.9391511144579
 20
160.501811129874
 30
0.0
 11
322.5391510989579
 21
164.196852861674
 31
0.0
  0
LINE
  5
BFDD
330
1F
100
AcDbEntity
  8
AM_0
100
AcDbLine
 10
322.5391510989579
 20
164.196852861674
 30
0.0
 11
316.1391510835579
 21
160.501811129874
 31
0.0
  0
LINE
  5
BFDE
330
1F
100
AcDbEntity
  8
AM_0
100
AcDbLine
 10
316.1391510835579
 20
160.501811129874
 30
0.0
 11
316.1391510835579
 21
153.111727666474
 31
0.0
  0
LINE
  5
BFDF
330
1F
100
AcDbEntity
  8
AM_0
100
AcDbLine
 10
316.1391510835579
 20
153.111727666474
 30
0.0
 11
322.5391510989579
 21
149.416685934674
 31
0.0
  0
LINE
  5
BFE0
330
1F
100
AcDbEntity
  8
AM_0
100
AcDbLine
 10
322.5391510989579
 20
149.416685934674
 30
0.0
 11
328.9391511144579
 21
153.111727666474
 31
0.0
  0
LINE
  5
BFE1
330
1F
100
AcDbEntity
  8
AM_0
100
AcDbLine
 10
328.9391511144579
 20
153.111727666474
 30
0.0
 11
328.9391511144579
 21
160.501811129874
 31
0.0
  0
LINE
  5
BFE2
330
1F
100
AcDbEntity
  8
AM_0
100
AcDbLine
 10
221.5460735598579
 20
172.395226703974
 30
0.0
 11
221.5460735598579
 21
141.218312092474
 31
0.0
  0
ARC
  5
BFE3
330
1F
100
AcDbEntity
  8
AM_0
100
AcDbCircle
 10
220.9460735583579
 20
166.806769422374
 30
0.0
 40
0.6000000014485137
100
AcDbArc
 50
0.0
 51
180.0
  0
LINE
  5
BFE4
330
1F
100
AcDbEntity
  8
AM_0
100
AcDbLine
 10
224.5460735670579
 20
172.395226703974
 30
0.0
 11
224.5460735670579
 21
141.218312092474
 31
0.0
  0
LINE
  5
BFE5
330
1F
100
AcDbEntity
  8
AM_0
100
AcDbLine
 10
221.5460735598579
 20
172.395226703974
 30
0.0
 11
224.5460735670579
 21
172.395226703974
 31
0.0
  0
LINE
  5
BFE6
330
1F
100
AcDbEntity
  8
AM_0
100
AcDbLine
 10
221.5460735598579
 20
164.600998051074
 30
0.0
 11
224.5460735670579
 21
164.600998051074
 31
0.0
  0
LINE
  5
BFE7
330
1F
100
AcDbEntity
  8
AM_0
100
AcDbLine
 10
221.5460735598579
 20
149.012540745274
 30
0.0
 11
224.5460735670579
 21
149.012540745274
 31
0.0
  0
LINE
  5
BFE8
330
1F
100
AcDbEntity
  8
AM_0
100
AcDbLine
 10
221.5460735598579
 20
141.218312092474
 30
0.0
 11
224.5460735670579
 21
141.218312092474
 31
0.0
  0
LINE
  5
BFE9
330
1F
100
AcDbEntity
  8
AM_0
100
AcDbLine
 10
227.5460735743579
 20
147.706769376174
 30
0.0
 11
227.5460735743579
 21
165.906769420174
 31
0.0
  0
LINE
  5
BFEA
330
1F
100
AcDbEntity
  8
AM_0
100
AcDbLine
 10
228.5460735767579
 20
147.706769376174
 30
0.0
 11
228.5460735767579
 21
165.906769420174
 31
0.0
  0
LINE
  5
BFEB
330
1F
100
AcDbEntity
  8
AM_0
100
AcDbLine
 10
227.5460735743579
 20
147.706769376174
 30
0.0
 11
228.5460735767579
 21
147.706769376174
 31
0.0
  0
LINE
  5
BFEC
330
1F
100
AcDbEntity
  8
AM_0
100
AcDbLine
 10
227.5460735743579
 20
165.906769420174
 30
0.0
 11
228.5460735767579
 21
165.906769420174
 31
0.0
  0
ARC
  5
BFED
330
1F
100
AcDbEntity
  8
AM_0
100
AcDbCircle
 10
231.0460735827579
 20
163.906769415274
 30
0.0
 40
0.5000000012070947
100
AcDbArc
 50
90.0
 51
180.0
  0
ARC
  5
BFEE
330
1F
100
AcDbEntity
  8
AM_0
100
AcDbCircle
 10
232.0460735851579
 20
163.906769415274
 30
0.0
 40
0.5000000012070947
100
AcDbArc
 50
0.0
 51
90.0
  0
LINE
  5
BFEF
330
1F
100
AcDbEntity
  8
AM_0
100
AcDbLine
 10
232.0460735851579
 20
164.406769416574
 30
0.0
 11
231.0460735827579
 21
164.406769416574
 31
0.0
  0
LINE
  5
BFF0
330
1F
100
AcDbEntity
  8
AM_0
100
AcDbLine
 10
233.6960735891579
 20
164.196769415974
 30
0.0
 11
237.6960735988579
 21
164.196769415974
 31
0.0
  0
ARC
  5
BFF1
330
1F
100
AcDbEntity
  8
AM_0
100
AcDbCircle
 10
234.6051735913579
 20
162.349269411574
 30
0.0
 40
2.059100004971055
100
AcDbArc
 50
116.199195
 51
243.7970709999999
  0
LINE
  5
BFF2
330
1F
100
AcDbEntity
  8
AM_0
100
AcDbLine
 10
232.5460735863579
 20
149.706769381074
 30
0.0
 11
232.5460735863579
 21
163.906769415274
 31
0.0
  0
LINE
  5
BFF3
330
1F
100
AcDbEntity
  8
AM_0
100
AcDbLine
 10
230.5460735815579
 20
149.706769381074
 30
0.0
 11
230.5460735815579
 21
163.906769415274
 31
0.0
  0
ARC
  5
BFF4
330
1F
100
AcDbEntity
  8
AM_0
100
AcDbCircle
 10
236.7869735966579
 20
162.349269411574
 30
0.0
 40
2.059100004971055
100
AcDbArc
 50
296.202929
 51
63.80080500000001
  0
LINE
  5
BFF5
330
1F
100
AcDbEntity
  8
AM_0
100
AcDbLine
 10
233.6959735891579
 20
160.501869407074
 30
0.0
 11
237.6961735988579
 21
160.501869407074
 31
0.0
  0
ARC
  5
BFF6
330
1F
100
AcDbEntity
  8
AM_0
100
AcDbCircle
 10
232.3346735858579
 20
156.806769398174
 30
0.0
 40
6.511400015719753
100
AcDbArc
 50
325.425978
 51
34.57402199999999
  0
ARC
  5
BFF7
330
1F
100
AcDbEntity
  8
AM_0
100
AcDbCircle
 10
239.0574736020579
 20
156.806769398174
 30
0.0
 40
6.511400015719753
100
AcDbArc
 50
145.425978
 51
214.574022
  0
ARC
  5
BFF8
330
1F
100
AcDbEntity
  8
AM_0
100
AcDbCircle
 10
234.6050735913578
 20
151.264169384774
 30
0.0
 40
2.059000004970815
100
AcDbArc
 50
116.19843
 51
243.80157
  0
LINE
  5
BFF9
330
1F
100
AcDbEntity
  8
AM_0
100
AcDbLine
 10
232.5460735863579
 20
162.349269411574
 30
0.0
 11
232.5460735863579
 21
151.264169384774
 31
0.0
  0
ARC
  5
BFFA
330
1F
100
AcDbEntity
  8
AM_0
100
AcDbCircle
 10
232.0460735851579
 20
149.706769381074
 30
0.0
 40
0.5000000012070947
100
AcDbArc
 50
270.0
 51
0.0
  0
LINE
  5
BFFB
330
1F
100
AcDbEntity
  8
AM_0
100
AcDbLine
 10
232.0460735851579
 20
149.206769379874
 30
0.0
 11
231.0460735827579
 21
149.206769379874
 31
0.0
  0
LINE
  5
BFFC
330
1F
100
AcDbEntity
  8
AM_0
100
AcDbLine
 10
233.6960735891579
 20
153.111669389274
 30
0.0
 11
237.6961735988579
 21
153.111669389274
 31
0.0
  0
LINE
  5
BFFD
330
1F
100
AcDbEntity
  8
AM_0
100
AcDbLine
 10
233.6960735891579
 20
149.416669380374
 30
0.0
 11
237.6960735988579
 21
149.416669380374
 31
0.0
  0
ARC
  5
BFFE
330
1F
100
AcDbEntity
  8
AM_0
100
AcDbCircle
 10
231.0460735827579
 20
149.706769381074
 30
0.0
 40
0.5000000012070947
100
AcDbArc
 50
180.0
 51
270.0
  0
LINE
  5
BFFF
330
1F
100
AcDbEntity
  8
AM_0
100
AcDbLine
 10
238.8460736015579
 20
162.349269411574
 30
0.0
 11
238.8460736015579
 21
151.264169384774
 31
0.0
  0
ARC
  5
C000
330
1F
100
AcDbEntity
  8
AM_0
100
AcDbCircle
 10
236.7870735966579
 20
151.264169384774
 30
0.0
 40
2.059000004970815
100
AcDbArc
 50
296.19843
 51
63.80157
  0
LINE
  5
C001
330
1F
100
AcDbEntity
  8
AM_0
100
AcDbLine
 10
322.5391510989579
 20
162.463623661374
 30
0.0
 11
316.8822968358579
 21
156.806769398174
 31
0.0
  0
LINE
  5
C002
330
1F
100
AcDbEntity
  8
AM_0
100
AcDbLine
 10
316.8822968358579
 20
156.806769398174
 30
0.0
 11
322.5391510989579
 21
151.149915135074
 31
0.0
  0
LINE
  5
C003
330
1F
100
AcDbEntity
  8
AM_0
100
AcDbLine
 10
322.5391510989579
 20
151.149915135074
 30
0.0
 11
328.1960053621579
 21
156.806769398174
 31
0.0
  0
LINE
  5
C004
330
1F
100
AcDbEntity
  8
AM_0
100
AcDbLine
 10
328.1960053621579
 20
156.806769398174
 30
0.0
 11
322.5391510989579
 21
162.463623661374
 31
0.0
  0
CIRCLE
  5
C005
330
1F
100
AcDbEntity
  8
AM_0
100
AcDbCircle
 10
322.5391510989579
 20
156.806769398174
 30
0.0
 40
5.900000014243693
  0
CIRCLE
  5
C008
330
1F
100
AcDbEntity
  8
AM_0
100
AcDbCircle
 10
322.5391510989579
 20
156.806769398174
 30
0.0
 40
9.000000021727707
  0
CIRCLE
  5
C009
330
1F
100
AcDbEntity
  8
AM_2
100
AcDbCircle
 10
322.5391510989579
 20
156.806769398174
 30
0.0
 40
8.450000020399889
  0
CIRCLE
  5
C00A
330
1F
100
AcDbEntity
  8
AM_0
100
AcDbCircle
 10
322.5391510989579
 20
156.806769398174
 30
0.0
 40
19.0000000458696
  0
CIRCLE
  5
C00B
330
1F
100
AcDbEntity
  8
AM_0
100
AcDbCircle
 10
322.5391510989579
 20
156.806769398174
 30
0.0
 40
17.00000004104122
  0
LINE
  5
C00C
330
1F
100
AcDbEntity
  8
AM_7
100
AcDbLine
 10
300.0490871918501
 20
156.806769398174
 30
0.0
 11
345.2531410087317
 21
156.806769398174
 31
0.0
  0
LINE
  5
C00D
330
1F
100
AcDbEntity
  8
AM_7
100
AcDbLine
 10
322.5391510989579
 20
80.30676921347403
 30
0.0
 11
322.5391510989579
 21
178.2401755126861
 31
0.0
  0
CIRCLE
  5
C00F
330
1F
100
AcDbEntity
  8
AM_0
100
AcDbCircle
 10
322.5391510989579
 20
156.806769398174
 30
0.0
 40
2.000000004828491
  0
CIRCLE
  5
C010
330
1F
100
AcDbEntity
  8
AM_2
100
AcDbCircle
 10
322.5391510989579
 20
156.806769398174
 30
0.0
 40
3.300000007966836
  0
CIRCLE
  5
C011
330
1F
100
AcDbEntity
  8
AM_0
100
AcDbCircle
 10
322.5391510989579
 20
156.806769398174
 30
0.0
 40
4.000000009656757
  0
LINE
  5
C012
330
1F
100
AcDbEntity
  8
AM_0
100
AcDbLine
 10
316.7296760656579
 20
155.306769394574
 30
0.0
 11
316.8330140381579
 21
155.306769394574
 31
0.0
  0
LINE
  5
C013
330
1F
100
AcDbEntity
  8
AM_0
100
AcDbLine
 10
316.7296760656579
 20
158.306769401774
 30
0.0
 11
316.8330140381579
 21
158.306769401774
 31
0.0
  0
ARC
  5
C014
330
1F
100
AcDbEntity
  8
AM_0
100
AcDbCircle
 10
322.5391510989579
 20
171.806769434374
 30
0.0
 40
1.500000003621284
100
AcDbArc
 50
169.8613974747412
 51
190.1386025252585
  0
LINE
  5
C015
330
1F
100
AcDbEntity
  8
AM_7
100
AcDbLine
 10
317.5391510868579
 20
171.806769434374
 30
0.0
 11
327.5391511110579
 21
171.806769434374
 31
0.0
  0
LINE
  5
C016
330
1F
100
AcDbEntity
  8
AM_7
100
AcDbLine
 10
150.9776607359579
 20
156.806769398174
 30
0.0
 11
78.97766056938831
 21
156.806769398174
 31
0.0
  0
LINE
  5
C017
330
1F
100
AcDbEntity
  8
AM_11
100
AcDbLine
 10
89.2577996187579
 20
146.056769372274
 30
0.0
 11
150.9776607359579
 21
149.660838547874
 31
0.0
  0
LINE
  5
C018
330
1F
100
AcDbEntity
  8
AM_11
100
AcDbLine
 10
150.9776607359579
 20
163.952700248474
 30
0.0
 11
89.2577996187579
 21
167.556769424174
 31
0.0
  0
ARC
  5
C01B
330
1F
100
AcDbEntity
  8
AM_0
100
AcDbCircle
 10
100.9776606152579
 20
156.806769398174
 30
0.0
 40
19.00000004586958
100
AcDbArc
 50
298.5871426221
 51
241.4128573779001
  0
LINE
  5
C01C
330
1F
100
AcDbEntity
  8
AM_0
100
AcDbLine
 10
100.9776606152579
 20
171.306769433174
 30
0.0
 11
90.22766058925787
 21
168.526630394674
 31
0.0
  0
LINE
  5
C01D
330
1F
100
AcDbEntity
  8
AM_11
100
AcDbLine
 10
86.47766058025789
 20
156.806769398174
 30
0.0
 11
89.2577996187579
 21
167.556769424174
 31
0.0
  0
LINE
  5
C01E
330
1F
100
AcDbEntity
  8
AM_11
100
AcDbLine
 10
86.47766058025789
 20
156.806769398174
 30
0.0
 11
89.2577996187579
 21
146.056769372274
 31
0.0
  0
LINE
  5
C020
330
1F
100
AcDbEntity
  8
AM_7
100
AcDbLine
 10
100.9776606152579
 20
178.7046698412614
 30
0.0
 11
100.9776606152579
 21
78.15082557454366
 31
0.0
  0
LINE
  5
C021
330
1F
100
AcDbEntity
  8
AM_0
100
AcDbLine
 10
100.9776606152579
 20
171.306769433174
 30
0.0
 11
111.7276606411579
 21
168.526630394674
 31
0.0
  0
ARC
  5
C024
330
1F
100
AcDbEntity
  8
AM_0
100
AcDbCircle
 10
220.9460735583579
 20
146.806769374074
 30
0.0
 40
0.6000000014485137
100
AcDbArc
 50
180.0
 51
0.0
  0
LINE
  5
C025
330
1F
100
AcDbEntity
  8
AM_0
100
AcDbLine
 10
322.5391510989579
 20
137.806769352274
 30
0.0
 11
322.5391510989579
 21
88.39739245537403
 31
0.0
  0
LINE
  5
C026
330
1F
100
AcDbEntity
  8
AM_0
100
AcDbLine
 10
315.0805487549579
 20
139.331951721974
 30
0.0
 11
318.1473851515579
 21
89.27266703897405
 31
0.0
  0
LINE
  5
C027
330
1F
100
AcDbEntity
  8
AM_0
100
AcDbLine
 10
326.9309170464579
 20
89.27266703897405
 30
0.0
 11
329.9977534429579
 21
139.331951721974
 31
0.0
  0
LINE
  5
C028
330
1F
100
AcDbEntity
  8
AM_0
100
AcDbLine
 10
313.5320684269579
 20
140.077380183874
 30
0.0
 11
317.0391510856579
 21
82.83205421187403
 31
0.0
  0
LINE
  5
C029
330
1F
100
AcDbEntity
  8
AM_0
100
AcDbLine
 10
328.0391511122579
 20
82.83205421187403
 30
0.0
 11
331.5462337709579
 21
140.077380183874
 31
0.0
  0
ARC
  5
C02A
330
1F
100
AcDbEntity
  8
AM_0
100
AcDbCircle
 10
322.5391510989579
 20
89.54172457217405
 30
0.0
 40
4.400000010622433
100
AcDbArc
 50
183.5057919475
 51
356.4942080525
  0
LINE
  5
C02B
330
1F
100
AcDbEntity
  8
AM_0
100
AcDbLine
 10
322.5391510989579
 20
81.30676921587403
 30
0.0
 11
328.0391511122579
 21
82.83205421187403
 31
0.0
  0
LINE
  5
C02C
330
1F
100
AcDbEntity
  8
AM_0
100
AcDbLine
 10
322.5391510989579
 20
81.30676921587403
 30
0.0
 11
317.0391510856579
 21
82.83205421187403
 31
0.0
  0
LINE
  5
C02D
330
1F
100
AcDbEntity
  8
AM_0
100
AcDbLine
 10
90.22766058925787
 20
168.526630394674
 30
0.0
 11
95.47766060195788
 21
82.83205421187403
 31
0.0
  0
LINE
  5
C02E
330
1F
100
AcDbEntity
  8
AM_0
100
AcDbLine
 10
106.4776606284579
 20
82.83205421187403
 30
0.0
 11
111.7276606411579
 21
168.526630394674
 31
0.0
  0
LINE
  5
C02F
330
1F
100
AcDbEntity
  8
AM_0
100
AcDbLine
 10
100.9776606152579
 20
81.30676921587403
 30
0.0
 11
106.4776606284579
 21
82.83205421187403
 31
0.0
  0
LINE
  5
C030
330
1F
100
AcDbEntity
  8
AM_0
100
AcDbLine
 10
100.9776606152579
 20
81.30676921587403
 30
0.0
 11
95.47766060195788
 21
82.83205421187403
 31
0.0
  0
ARC
  5
C031
330
1F
100
AcDbEntity
  8
AM_0
100
AcDbCircle
 10
100.9776606152579
 20
156.806769398174
 30
0.0
 40
11.00000002655608
100
AcDbArc
 50
332.0400406991
 51
20.94837540600002
  0
ARC
  5
C032
330
1F
100
AcDbEntity
  8
AM_0
100
AcDbCircle
 10
100.9776606152579
 20
156.806769398174
 30
0.0
 40
11.00000002655608
100
AcDbArc
 50
159.0516245939999
 51
207.9599593009
  0
LINE
  5
C033
330
1F
100
AcDbEntity
  8
AM_0
100
AcDbLine
 10
186.1460734743579
 20
171.306769433174
 30
0.0
 11
195.7475269654579
 21
171.306769433174
 31
0.0
  0
LINE
  5
C034
330
1F
100
AcDbEntity
  8
AM_0
100
AcDbLine
 10
188.7269201407579
 20
168.526630394674
 30
0.0
 11
196.4490835358579
 21
168.526630394674
 31
0.0
  0
ARC
  5
C035
330
1F
100
AcDbEntity
  8
AM_0
100
AcDbCircle
 10
301.4903444287579
 20
119.964667232274
 30
0.0
 40
108.0000002607324
100
AcDbArc
 50
166.8216305032
 51
200.9739528735
  0
LINE
  5
C036
330
1F
100
AcDbEntity
  8
AM_0
100
AcDbLine
 10
186.1460734743579
 20
171.306769433174
 30
0.0
 11
186.1460734743579
 21
126.249399420974
 31
0.0
  0
ARC
  5
C037
330
1F
100
AcDbEntity
  8
AM_0
100
AcDbCircle
 10
144.1460733729579
 20
156.806769398174
 30
0.0
 40
53.60000012940055
100
AcDbArc
 50
346.8216305032
 51
15.69535434039998
  0
LINE
  5
C038
330
1F
100
AcDbEntity
  8
AM_0
100
AcDbLine
 10
198.8485186057579
 20
148.856769378974
 30
0.0
 11
213.5460735405579
 21
148.856769378974
 31
0.0
  0
ARC
  5
C039
330
1F
100
AcDbEntity
  8
AM_0
100
AcDbCircle
 10
198.8485186057579
 20
146.856769374174
 30
0.0
 40
2.000000004828379
100
AcDbArc
 50
90.0
 51
169.69099573
  0
LINE
  5
C03A
330
1F
100
AcDbEntity
  8
AM_0
100
AcDbLine
 10
227.0460735731579
 20
162.706769412474
 30
0.0
 11
227.5460735743579
 21
162.706769412474
 31
0.0
  0
LINE
  5
C03B
330
1F
100
AcDbEntity
  8
AM_0
100
AcDbLine
 10
227.0460735731579
 20
150.906769383974
 30
0.0
 11
227.5460735743579
 21
150.906769383974
 31
0.0
  0
LINE
  5
C03C
330
1F
100
AcDbEntity
  8
AM_0
100
AcDbLine
 10
198.8485186057579
 20
164.756769417374
 30
0.0
 11
213.5460735405579
 21
164.756769417374
 31
0.0
  0
ARC
  5
C03D
330
1F
100
AcDbEntity
  8
AM_0
100
AcDbCircle
 10
198.8485186057579
 20
166.756769422174
 30
0.0
 40
2.000000004828379
100
AcDbArc
 50
190.3090042699999
 51
270.0
  0
LINE
  5
C03E
330
1F
100
AcDbEntity
  8
AM_0
100
AcDbLine
 10
238.8460736015579
 20
152.806769388574
 30
0.0
 11
241.0460736068579
 21
152.806769388574
 31
0.0
  0
LINE
  5
C03F
330
1F
100
AcDbEntity
  8
AM_0
100
AcDbLine
 10
238.8460736015579
 20
160.806769407874
 30
0.0
 11
241.0460736068579
 21
160.806769407874
 31
0.0
  0
LINE
  5
C040
330
1F
100
AcDbEntity
  8
AM_2
100
AcDbLine
 10
238.8460736015579
 20
153.506769390174
 30
0.0
 11
241.7460736085579
 21
153.506769390174
 31
0.0
  0
LINE
  5
C041
330
1F
100
AcDbEntity
  8
AM_2
100
AcDbLine
 10
238.8460736015579
 20
160.106769406174
 30
0.0
 11
241.7460736085579
 21
160.106769406174
 31
0.0
  0
LINE
  5
C042
330
1F
100
AcDbEntity
  8
AM_0
100
AcDbLine
 10
230.5460735815579
 20
162.463623661374
 30
0.0
 11
228.5460735767579
 21
162.463623661374
 31
0.0
  0
LINE
  5
C043
330
1F
100
AcDbEntity
  8
AM_0
100
AcDbLine
 10
228.5460735767579
 20
156.806769398174
 30
0.0
 11
230.5460735815579
 21
156.806769398174
 31
0.0
  0
LINE
  5
C044
330
1F
100
AcDbEntity
  8
AM_0
100
AcDbLine
 10
230.5460735815579
 20
151.149915135074
 30
0.0
 11
228.5460735767579
 21
151.149915135074
 31
0.0
  0
LINE
  5
C045
330
1F
100
AcDbEntity
  8
AM_2
100
AcDbLine
 10
228.5460735767579
 20
153.035533222774
 30
0.0
 11
230.5460735815579
 21
156.806769398174
 31
0.0
  0
LINE
  5
C046
330
1F
100
AcDbEntity
  8
AM_2
100
AcDbLine
 10
228.5460735767579
 20
154.921151310474
 30
0.0
 11
230.5460735815579
 21
151.149915135074
 31
0.0
  0
LINE
  5
C047
330
1F
100
AcDbEntity
  8
AM_2
100
AcDbLine
 10
228.5460735767579
 20
158.692387485874
 30
0.0
 11
230.5460735815579
 21
162.463623661374
 31
0.0
  0
LINE
  5
C048
330
1F
100
AcDbEntity
  8
AM_2
100
AcDbLine
 10
228.5460735767579
 20
160.578005573574
 30
0.0
 11
230.5460735815579
 21
156.806769398174
 31
0.0
  0
LINE
  5
C049
330
1F
100
AcDbEntity
  8
AM_0
100
AcDbLine
 10
227.5460735743579
 20
162.706769412474
 30
0.0
 11
227.5460735743579
 21
150.906769383974
 31
0.0
  0
LINE
  5
C04A
330
1F
100
AcDbEntity
  8
AM_0
100
AcDbLine
 10
230.5460735815579
 20
162.463623661374
 30
0.0
 11
230.5460735815579
 21
151.149915135074
 31
0.0
  0
LINE
  5
C04B
330
1F
100
AcDbEntity
  8
AM_0
100
AcDbLine
 10
241.0460736068579
 20
160.806769407874
 30
0.0
 11
243.0460736117579
 21
158.806769402974
 31
0.0
  0
LINE
  5
C04C
330
1F
100
AcDbEntity
  8
AM_0
100
AcDbLine
 10
243.0460736117579
 20
154.806769393374
 30
0.0
 11
241.0460736068579
 21
152.806769388574
 31
0.0
  0
LINE
  5
C04D
330
1F
100
AcDbEntity
  8
AM_0
100
AcDbLine
 10
241.0460736068579
 20
160.806769407874
 30
0.0
 11
241.0460736068579
 21
152.806769388574
 31
0.0
  0
LINE
  5
C04E
330
1F
100
AcDbEntity
  8
AM_0
100
AcDbLine
 10
243.0460736117579
 20
158.806769402974
 30
0.0
 11
243.0460736117579
 21
154.806769393374
 31
0.0
  0
LINE
  5
C04F
330
1F
100
AcDbEntity
  8
AM_0
100
AcDbLine
 10
221.5460735598579
 20
173.306769437974
 30
0.0
 11
220.3460735569579
 21
173.306769437974
 31
0.0
  0
LINE
  5
C051
330
1F
100
AcDbEntity
  8
AM_0
100
AcDbLine
 10
221.5460735598579
 20
170.306769430774
 30
0.0
 11
220.3460735569579
 21
170.306769430774
 31
0.0
  0
LINE
  5
C052
330
1F
100
AcDbEntity
  8
AM_2
100
AcDbLine
 10
224.5460735670579
 20
165.256769418574
 30
0.0
 11
227.0460735731579
 21
165.256769418574
 31
0.0
  0
LINE
  5
C053
330
1F
100
AcDbEntity
  8
AM_0
100
AcDbLine
 10
224.5460735670579
 20
165.806769419874
 30
0.0
 11
226.4960735717579
 21
165.806769419874
 31
0.0
  0
LINE
  5
C054
330
1F
100
AcDbEntity
  8
AM_7
100
AcDbLine
 10
244.0460736141579
 20
156.806769398174
 30
0.0
 11
185.1460734719579
 21
156.806769398174
 31
0.0
  0
LINE
  5
C055
330
1F
100
AcDbEntity
  8
AM_2
100
AcDbLine
 10
224.5460735670579
 20
148.356769377774
 30
0.0
 11
227.0460735731579
 21
148.356769377774
 31
0.0
  0
LINE
  5
C056
330
1F
100
AcDbEntity
  8
AM_0
100
AcDbLine
 10
224.5460735670579
 20
147.806769376474
 30
0.0
 11
226.4960735717579
 21
147.806769376474
 31
0.0
  0
LINE
  5
C057
330
1F
100
AcDbEntity
  8
AM_0
100
AcDbLine
 10
220.3460735569579
 20
175.806769444074
 30
0.0
 11
220.3460735569579
 21
137.806769352274
 31
0.0
  0
LINE
  5
C058
330
1F
100
AcDbEntity
  8
AM_0
100
AcDbLine
 10
217.8460735508579
 20
175.806769444074
 30
0.0
 11
217.8460735508579
 21
137.806769352274
 31
0.0
  0
LINE
  5
C059
330
1F
100
AcDbEntity
  8
AM_0
100
AcDbLine
 10
213.5460735405579
 20
167.680908893774
 30
0.0
 11
213.5460735405579
 21
145.932629902574
 31
0.0
  0
LINE
  5
C05A
330
1F
100
AcDbEntity
  8
AM_0
100
AcDbLine
 10
213.6056613421579
 20
145.695908345374
 30
0.0
 11
217.8460735508579
 21
137.806769352274
 31
0.0
  0
ARC
  5
C05B
330
1F
100
AcDbEntity
  8
AM_0
100
AcDbCircle
 10
214.0460735417579
 20
145.932629902574
 30
0.0
 40
0.5000000012070947
100
AcDbArc
 50
180.0
 51
208.2580296147
  0
LINE
  5
C05C
330
1F
100
AcDbEntity
  8
AM_0
100
AcDbLine
 10
217.8460735508579
 20
137.806769352274
 30
0.0
 11
220.3460735569579
 21
137.806769352274
 31
0.0
  0
LINE
  5
C05D
330
1F
100
AcDbEntity
  8
AM_0
100
AcDbLine
 10
213.6056613421579
 20
167.917630451074
 30
0.0
 11
217.8460735508579
 21
175.806769444074
 31
0.0
  0
ARC
  5
C05E
330
1F
100
AcDbEntity
  8
AM_0
100
AcDbCircle
 10
214.0460735417579
 20
167.680908893774
 30
0.0
 40
0.5000000012070947
100
AcDbArc
 50
151.7419703853
 51
180.0
  0
LINE
  5
C05F
330
1F
100
AcDbEntity
  8
AM_0
100
AcDbLine
 10
217.8460735508579
 20
175.806769444074
 30
0.0
 11
220.3460735569579
 21
175.806769444074
 31
0.0
  0
LINE
  5
C060
330
1F
100
AcDbEntity
  8
AM_0
100
AcDbLine
 10
227.0460735731579
 20
165.256769418574
 30
0.0
 11
227.0460735731579
 21
148.356769377774
 31
0.0
  0
LINE
  5
C061
330
1F
100
AcDbEntity
  8
AM_0
100
AcDbLine
 10
227.0460735731579
 20
148.356769377774
 30
0.0
 11
226.4960735717579
 21
147.806769376474
 31
0.0
  0
LINE
  5
C062
330
1F
100
AcDbEntity
  8
AM_0
100
AcDbLine
 10
221.5460735598579
 20
173.306769437974
 30
0.0
 11
221.5460735598579
 21
170.306769430774
 31
0.0
  0
LINE
  5
C063
330
1F
100
AcDbEntity
  8
AM_0
100
AcDbLine
 10
227.0460735731579
 20
165.256769418574
 30
0.0
 11
226.4960735717579
 21
165.806769419874
 31
0.0
  0
LINE
  5
C064
330
1F
100
AcDbEntity
  8
AM_0
100
AcDbLine
 10
188.1450197405579
 20
127.365531346574
 30
0.0
 11
188.7269201407579
 21
168.526630394674
 31
0.0
  0
LINE
  5
C065
330
1F
100
AcDbEntity
  8
AM_0
100
AcDbLine
 10
197.0665066756579
 20
82.83205421187403
 30
0.0
 11
200.0745216662579
 21
82.83205421187403
 31
0.0
  0
LINE
  5
C066
330
1F
100
AcDbEntity
  8
AM_0
100
AcDbLine
 10
195.7460734975579
 20
81.30676921587403
 30
0.0
 11
200.6460735093579
 21
81.30676921587403
 31
0.0
  0
LINE
  5
C067
330
1F
100
AcDbEntity
  8
AM_0
100
AcDbLine
 10
195.7460734975579
 20
81.30676921587403
 30
0.0
 11
197.0665066756579
 21
82.83205421187403
 31
0.0
  0
LINE
  5
C068
330
1F
100
AcDbEntity
  8
AM_0
100
AcDbLine
 10
186.1460734743579
 20
171.306769433174
 30
0.0
 11
188.7269201407579
 21
168.526630394674
 31
0.0
  0
ARC
  5
C069
330
1F
100
AcDbEntity
  8
AM_0
100
AcDbCircle
 10
296.1342292407579
 20
125.838872300274
 30
0.0
 40
108.0000002607324
100
AcDbArc
 50
179.1900552479
 51
203.4664043323
  0
ARC
  5
C06A
330
1F
100
AcDbEntity
  8
AM_0
100
AcDbCircle
 10
296.1460737399579
 20
126.249399420974
 30
0.0
 40
110.0000002655608
100
AcDbArc
 50
180.0
 51
204.114996152
  0
DIMENSION
  5
C14C
330
1F
100
AcDbEntity
  8
AM_5
100
AcDbDimension
  2
*D24
 10
213.5460735405508
 20
187.806769444074
 30
0.0
 11
216.9460735487543
 21
190.906769444074
 31
0.0
 70
    32
  1
G
 71
     5
 42
6.800000016407096
  3
SYS$0
100
AcDbAlignedDimension
 13
220.3460735569579
 23
175.806769444074
 33
0.0
 14
213.5460735405508
 24
167.680908893774
 34
0.0
100
AcDbRotatedDimension
1001
ACAD_DSTYLE_DIMINSPECT
1070
   396
1000
100%
1070
   395
1000

1070
   394
1070
    33
1070
   393
1070
     0
  0
DIMENSION
  5
C178
330
1F
100
AcDbEntity
  8
AM_5
100
AcDbDimension
  2
*D25
 10
186.1460734743579
 20
197.8067694440739
 30
0.0
 11
203.2460735156579
 21
200.9067694440739
 31
0.0
 70
    32
  1
F
 71
     5
 42
34.20000008259999
  3
SYS$0
100
AcDbAlignedDimension
 13
220.3460735569579
 23
175.806769444074
 33
0.0
 14
186.1460734743579
 24
171.306769433174
 34
0.0
100
AcDbRotatedDimension
1001
ACAD_DSTYLE_DIMINSPECT
1070
   396
1000
100%
1070
   395
1000

1070
   394
1070
    33
1070
   393
1070
     0
  0
DIMENSION
  5
C197
330
1F
100
AcDbEntity
  8
AM_5
100
AcDbDimension
  2
*D26
 10
227.5460735743579
 20
187.806769444074
 30
0.0
 11
223.9460735656579
 21
190.906769444074
 31
0.0
 70
    32
  1
H
 71
     5
 42
7.200000017400014
  3
SYS$0
100
AcDbAlignedDimension
 13
220.3460735569579
 23
175.806769444074
 33
0.0
 14
227.5460735743579
 24
165.906769420174
 34
0.0
100
AcDbRotatedDimension
1001
ACAD_DSTYLE_DIMINSPECT
1070
   396
1000
100%
1070
   395
1000

1070
   394
1070
    33
1070
   393
1070
     0
1001
ACAD
1000
DSTYLE
1002
{
1070
    77
1070
     3
1070
   279
1070
     1
1002
}
  0
DIMENSION
  5
C1C3
330
1F
100
AcDbEntity
  8
AM_5
100
AcDbDimension
  2
*D27
 10
243.0460736117579
 20
197.8067694440739
 30
0.0
 11
231.6960735843579
 21
200.9067694440739
 31
0.0
 70
    32
  1
（J）
 71
     5
 42
22.7000000548
  3
SYS$0
100
AcDbAlignedDimension
 13
220.3460735569579
 23
175.806769444074
 33
0.0
 14
243.0460736117579
 24
158.806769402974
 34
0.0
100
AcDbRotatedDimension
1001
ACAD_DSTYLE_DIMINSPECT
1070
   396
1000
100%
1070
   395
1000

1070
   394
1070
    33
1070
   393
1070
     0
  0
DIMENSION
  5
C1FD
330
1F
100
AcDbEntity
  8
AM_5
100
AcDbDimension
  2
*D28
 10
230.5460735815579
 20
187.806769444074
 30
0.0
 11
234.0465735815579
 21
190.906769444074
 31
0.0
 70
    32
  1
I
 71
     5
 42
3.000000007199986
  3
SYS$0
100
AcDbAlignedDimension
 13
227.5460735743579
 23
165.906769420174
 33
0.0
 14
230.5460735815579
 24
163.906769415274
 34
0.0
100
AcDbRotatedDimension
1001
ACAD_DSTYLE_DIMINSPECT
1070
   396
1000
100%
1070
   395
1000

1070
   394
1070
    33
1070
   393
1070
     0
  0
DIMENSION
  5
C270
330
1F
100
AcDbEntity
  8
AM_5
100
AcDbDimension
  2
*D29
 10
253.046073606858
 20
152.806769388574
 30
0.0
 11
253.0460736068579
 21
156.8635020276142
 31
0.0
 70
   160
  1
N
 71
     5
 42
8.000000019300017
  3
SYS$0
100
AcDbAlignedDimension
 13
241.0460736068579
 23
160.806769407874
 33
0.0
 14
241.0460736068579
 24
152.806769388574
 34
0.0
 50
90.0
100
AcDbRotatedDimension
1001
ACAD_DSTYLE_DIMINSPECT
1070
   396
1000
100%
1070
   395
1000

1070
   394
1070
    33
1070
   393
1070
     0
  0
DIMENSION
  5
C2B4
330
1F
100
AcDbEntity
  8
AM_5
100
AcDbDimension
  2
*D30
 10
263.0460736068579
 20
147.806769376474
 30
0.0
 11
259.9460736068579
 21
156.8067693981741
 31
0.0
 70
    32
  1
M
 71
     5
 42
18.00000004340001
  3
SYS$0
100
AcDbAlignedDimension
 13
226.4960735717579
 23
165.806769419874
 33
0.0
 14
226.4960735717579
 24
147.806769376474
 34
0.0
 50
90.00000000000003
100
AcDbRotatedDimension
1001
ACAD_DSTYLE_DIMINSPECT
1070
   396
1000
100%
1070
   395
1000

1070
   394
1070
    33
1070
   393
1070
     0
  0
DIMENSION
  5
C2EE
330
1F
100
AcDbEntity
  8
AM_5
100
AcDbDimension
  2
*D31
 10
273.0460736068581
 20
137.806769352274
 30
0.0
 11
269.946073606858
 21
156.806769398174
 31
0.0
 70
    32
  1
%%cL
 71
     5
 42
38.00000009179999
  3
SYS$0
100
AcDbAlignedDimension
 13
220.3460735569579
 23
175.806769444074
 33
0.0
 14
220.3460735569579
 24
137.806769352274
 34
0.0
 50
90.0
100
AcDbRotatedDimension
1001
ACAD_DSTYLE_DIMINSPECT
1070
   396
1000
100%
1070
   395
1000

1070
   394
1070
    33
1070
   393
1070
     0
  0
DIMENSION
  5
C332
330
1F
100
AcDbEntity
  8
AM_5
100
AcDbDimension
  2
*D32
 10
174.1460734743579
 20
81.30676921580825
 30
0.0
 11
171.0460734743579
 21
126.3067693244911
 31
0.0
 70
    32
  1
A
 71
     5
 42
90.0000002173658
  3
SYS$0
100
AcDbAlignedDimension
 13
186.1460734743579
 23
171.306769433174
 33
0.0
 14
195.7460734976018
 24
81.30676921580825
 34
0.0
 50
90.0
100
AcDbRotatedDimension
1001
ACAD_DSTYLE_DIMINSPECT
1070
   396
1000
100%
1070
   395
1000

1070
   394
1070
    33
1070
   393
1070
     0
  0
DIMENSION
  5
C35A
330
1F
100
AcDbEntity
  8
AM_5
100
AcDbDimension
  2
*D33
 10
111.7276606411579
 20
187.8067704540436
 30
0.0
 11
100.9776606152079
 21
190.9067704540436
 31
0.0
 70
    32
  1
B
 71
     5
 42
21.50000005190002
  3
SYS$0
100
AcDbAlignedDimension
 13
90.22766058925787
 23
168.526630394674
 33
0.0
 14
111.7276606411579
 24
168.526630394674
 34
0.0
100
AcDbRotatedDimension
1001
ACAD_DSTYLE_DIMINSPECT
1070
   396
1000
100%
1070
   395
1000

1070
   394
1070
    33
1070
   393
1070
     0
  0
DIMENSION
  5
C382
330
1F
100
AcDbEntity
  8
AM_5
100
AcDbDimension
  2
*D34
 10
106.4776606284579
 20
69.30676821587403
 30
0.0
 11
100.9776606152079
 21
72.40676821587403
 31
0.0
 70
    32
  1
C
 71
     5
 42
11.00000002649999
  3
SYS$0
100
AcDbAlignedDimension
 13
95.47766060195788
 23
82.83205421187403
 33
0.0
 14
106.4776606284579
 24
82.83205421187403
 34
0.0
 50
0.0000000000001018
100
AcDbRotatedDimension
1001
ACAD_DSTYLE_DIMINSPECT
1070
   396
1000
100%
1070
   395
1000

1070
   394
1070
    33
1070
   393
1070
     0
  0
DIMENSION
  5
C3AA
330
1F
100
AcDbEntity
  8
AM_5
100
AcDbDimension
  2
*D35
 10
336.0391511315579
 20
187.8067694440436
 30
0.0
 11
322.5391510989579
 21
190.9067694440436
 31
0.0
 70
    32
  1
E
 71
     5
 42
27.00000006520003
  3
SYS$0
100
AcDbAlignedDimension
 13
309.0391510663579
 23
164.600998051074
 33
0.0
 14
336.0391511315579
 24
164.600998051074
 34
0.0
100
AcDbRotatedDimension
1001
ACAD_DSTYLE_DIMINSPECT
1070
   396
1000
100%
1070
   395
1000

1070
   394
1070
    33
1070
   393
1070
     0
  0
DIMENSION
  5
C3DC
330
1F
100
AcDbEntity
  8
AM_5
100
AcDbDimension
  2
*D36
 10
321.803970710715
 20
170.4992871944919
 30
0.0
 11
330.5565193004954
 21
179.9740709001559
 31
0.0
 70
   163
 71
     5
 42
3.000000007242476
  3
SYS$3
100
AcDbDiametricDimension
 15
323.2743314872006
 25
173.114251674256
 35
0.0
 40
0.0
1001
ACAD_DSTYLE_DIMRADIAL_EXTENSION
1070
   387
1070
     1
1070
   388
1040
0.0
1070
   390
1040
0.0
1001
ACAD_DSTYLE_DIMINSPECT
1070
   396
1000
100%
1070
   395
1000

1070
   394
1070
    33
1070
   393
1070
     0
  0
ARC
  5
C400
330
1F
100
AcDbEntity
  8
AM_0
100
AcDbCircle
 10
322.5391510989579
 20
171.806769434374
 30
0.0
 40
1.500000003621284
100
AcDbArc
 50
349.8613974747397
 51
169.8613974747429
  0
ARC
  5
C401
330
1F
100
AcDbEntity
  8
AM_3
 48
0.5
100
AcDbCircle
 10
322.5391510989579
 20
171.806769434374
 30
0.0
 40
1.500000003621284
100
AcDbArc
 50
190.1386025252585
 51
349.8613974747414
  0
DIMENSION
  5
C402
330
1F
100
AcDbEntity
  8
AM_5
100
AcDbDimension
  2
*D37
 10
290.5391510506579
 20
171.806769434374
 30
0.0
 11
287.4391510506578
 21
164.3067694162741
 31
0.0
 70
    32
  1
K
 71
     5
 42
15.00000003619999
  3
SYS$0
100
AcDbAlignedDimension
 13
300.0490871918501
 23
156.806769398174
 33
0.0
 14
317.5391510868579
 24
171.806769434374
 34
0.0
 50
90.00000000000003
100
AcDbRotatedDimension
1001
ACAD_DSTYLE_DIMINSPECT
1070
   396
1000
100%
1070
   395
1000

1070
   394
1070
    33
1070
   393
1070
     0
  0
DIMENSION
  5
C433
330
1F
100
AcDbEntity
  8
AM_5
100
AcDbDimension
  2
*D38
 10
347.328401779376
 20
137.6743729809558
 30
0.0
 11
342.3079436261227
 21
137.0379768710592
 31
0.0
 70
    33
  1
{\Famgdt;o}D
 71
     5
 42
8.000000019314825
  3
SYS$0
100
AcDbAlignedDimension
 13
322.5391510989579
 23
151.149915135074
 33
0.0
 14
328.1960053621079
 24
156.806769398224
 34
0.0
1001
ACAD_DSTYLE_DIMINSPECT
1070
   396
1000
100%
1070
   395
1000

1070
   394
1070
    33
1070
   393
1070
     0
  0
DIMENSION
  5
C9D5
330
1F
100
AcDbEntity
  8
AM_5
100
AcDbDimension
  2
*D39
 10
50.97766049455789
 20
156.806769398174
 30
0.0
 11
122.5336459306845
 21
135.2507840827474
 31
0.0
 70
    34
  1
回転角度：<>
 71
     5
 42
1.570796326794896
  3
SYS$2
100
AcDb2LineAngularDimension
 13
100.9776606152579
 23
178.7046698412614
 33
0.0
 14
100.9776606152579
 24
78.15082557454366
 34
0.0
 15
150.9776607359579
 25
156.806769398174
 35
0.0
 16
118.3450440069537
 26
126.725578969229
 36
0.0
1001
ACAD_DSTYLE_DIMINSPECT
1070
   396
1000
100%
1070
   395
1000

1070
   394
1070
    33
1070
   393
1070
     0
1001
ACAD
1000
DSTYLE
1002
{
1070
   147
1040
2.5
1070
   179
1070
     2
1002
}
  0
LINE
  5
CAA9
330
1F
100
AcDbEntity
  8
AM_1
370
    30
100
AcDbLine
 10
105.8965784186485
 20
270.0293210138229
 30
0.0
 11
300.3409604463457
 21
270.0293210138157
 31
0.0
  0
LINE
  5
CAAA
330
1F
100
AcDbEntity
  8
AM_1
370
    30
100
AcDbLine
 10
105.8965784186484
 20
275.0293210138231
 30
0.0
 11
105.8965784186478
 21
239.9756543177229
 31
0.0
  0
MTEXT
  5
CAAB
330
1F
100
AcDbEntity
  8
AM_6
100
AcDbMText
 10
119.6187694324973
 20
272.6423209843909
 30
0.0
 40
3.2
 41
27.4443820276978
 71
     5
 72
     5
  1
品　番
 73
     1
 44
1.0
1001
ACAD
1000
MTEXTBEGIN
1070
    73
1070
     1
1070
    44
1040
1.0
1070
    74
1070
     0
1000
MTEXTEND
  0
LINE
  5
CAAC
330
1F
100
AcDbEntity
  8
AM_2
100
AcDbLine
 10
153.3409604463462
 20
270.0293210138225
 30
0.0
 11
163.3409604463462
 21
270.0293210138225
 31
0.0
  0
LINE
  5
CAAD
330
1F
100
AcDbEntity
  8
AM_1
370
    30
100
AcDbLine
 10
133.3409604463462
 20
275.0293210138223
 30
0.0
 11
133.3409604463457
 21
239.975654317724
 31
0.0
  0
MTEXT
  5
CAAE
330
1F
100
AcDbEntity
  8
AM_6
100
AcDbMText
 10
119.753234092393
 20
255.1959876804906
 30
0.0
 40
3.2
 41
23.0
 71
     5
 72
     5
  1
EL-110S-2
 73
     1
 44
1.0
1001
ACAD
1000
MTEXTBEGIN
1070
    73
1070
     1
1070
    44
1040
1.0
1070
    74
1070
     0
1000
MTEXTEND
1000
ACAD_MTEXT_DEFINED_HEIGHT_BEGIN
1070
    46
1040
8.20000000000091
1000
ACAD_MTEXT_DEFINED_HEIGHT_END
  0
LINE
  5
CAAF
330
1F
100
AcDbEntity
  8
AM_1
370
    30
100
AcDbLine
 10
105.8965784186484
 20
275.0293210138231
 30
0.0
 11
300.3409604463457
 21
275.029321013817
 31
0.0
  0
MTEXT
  5
CAB0
330
1F
100
AcDbEntity
  8
AM_6
100
AcDbMText
 10
138.3409604463462
 20
272.6423209843907
 30
0.0
 40
3.2
 41
9.999999999999943
 71
     5
 72
     5
  1
A
 73
     1
 44
1.0
1001
ACAD
1000
MTEXTBEGIN
1070
    73
1070
     1
1070
    44
1040
1.0
1070
    74
1070
     0
1000
MTEXTEND
  0
LINE
  5
CAB1
330
1F
100
AcDbEntity
  8
AM_8
100
AcDbLine
 10
143.3409604463462
 20
275.029321013823
 30
0.0
 11
143.3409604463457
 21
239.9756543177216
 31
0.0
  0
MTEXT
  5
CAB2
330
1F
100
AcDbEntity
  8
AM_6
100
AcDbMText
 10
148.3409604463462
 20
272.6423209843907
 30
0.0
 40
3.2
 41
9.999999999999943
 71
     5
 72
     5
  1
B
 73
     1
 44
1.0
1001
ACAD
1000
MTEXTBEGIN
1070
    73
1070
     1
1070
    44
1040
1.0
1070
    74
1070
     0
1000
MTEXTEND
  0
LINE
  5
CAB3
330
1F
100
AcDbEntity
  8
AM_8
100
AcDbLine
 10
153.3409604463462
 20
275.029321013823
 30
0.0
 11
153.3409604463456
 21
239.9756543177212
 31
0.0
  0
MTEXT
  5
CAB4
330
1F
100
AcDbEntity
  8
AM_6
100
AcDbMText
 10
158.3409604463462
 20
272.6423209843909
 30
0.0
 40
3.2
 41
9.999999999999943
 71
     5
 72
     5
  1
C
 73
     1
 44
1.0
1001
ACAD
1000
MTEXTBEGIN
1070
    73
1070
     1
1070
    44
1040
1.0
1070
    74
1070
     0
1000
MTEXTEND
  0
LINE
  5
CAB5
330
1F
100
AcDbEntity
  8
AM_8
100
AcDbLine
 10
163.3409604463462
 20
275.029321013823
 30
0.0
 11
163.3409604463456
 21
239.9756543177209
 31
0.0
  0
MTEXT
  5
CAB6
330
1F
100
AcDbEntity
  8
AM_6
100
AcDbMText
 10
168.3409604463462
 20
272.6423209843907
 30
0.0
 40
3.2
 41
9.999999999999943
 71
     5
 72
     5
  1
□D
 73
     1
 44
1.0
1001
ACAD
1000
MTEXTBEGIN
1070
    73
1070
     1
1070
    44
1040
1.0
1070
    74
1070
     0
1000
MTEXTEND
  0
LINE
  5
CAB7
330
1F
100
AcDbEntity
  8
AM_8
100
AcDbLine
 10
173.3409604463463
 20
275.0293210138228
 30
0.0
 11
173.3409604463457
 21
239.9756543177206
 31
0.0
  0
MTEXT
  5
CAB8
330
1F
100
AcDbEntity
  8
AM_6
100
AcDbMText
 10
178.3409604463462
 20
272.6423209843907
 30
0.0
 40
3.2
 41
9.999999999999943
 71
     5
 72
     5
  1
E
 73
     1
 44
1.0
1001
ACAD
1000
MTEXTBEGIN
1070
    73
1070
     1
1070
    44
1040
1.0
1070
    74
1070
     0
1000
MTEXTEND
  0
LINE
  5
CAB9
330
1F
100
AcDbEntity
  8
AM_8
100
AcDbLine
 10
183.3409604463462
 20
275.0293210138228
 30
0.0
 11
183.3409604463456
 21
239.9756543177202
 31
0.0
  0
MTEXT
  5
CABA
330
1F
100
AcDbEntity
  8
AM_6
100
AcDbMText
 10
188.3409604463462
 20
272.6423209843907
 30
0.0
 40
3.2
 41
9.999999999999943
 71
     5
 72
     5
  1
F
 73
     1
 44
1.0
1001
ACAD
1000
MTEXTBEGIN
1070
    73
1070
     1
1070
    44
1040
1.0
1070
    74
1070
     0
1000
MTEXTEND
  0
LINE
  5
CABB
330
1F
100
AcDbEntity
  8
AM_8
100
AcDbLine
 10
193.3409604463462
 20
275.0293210138228
 30
0.0
 11
193.3409604463455
 21
239.97565431772
 31
0.0
  0
MTEXT
  5
CABC
330
1F
100
AcDbEntity
  8
AM_6
100
AcDbMText
 10
198.3409604463463
 20
272.6423209843907
 30
0.0
 40
3.2
 41
9.999999999999943
 71
     5
 72
     5
  1
G
 73
     1
 44
1.0
1001
ACAD
1000
MTEXTBEGIN
1070
    73
1070
     1
1070
    44
1040
1.0
1070
    74
1070
     0
1000
MTEXTEND
  0
LINE
  5
CABD
330
1F
100
AcDbEntity
  8
AM_8
100
AcDbLine
 10
203.3409604463462
 20
275.0293210138228
 30
0.0
 11
203.3409604463454
 21
239.9756543177196
 31
0.0
  0
MTEXT
  5
CABE
330
1F
100
AcDbEntity
  8
AM_6
100
AcDbMText
 10
208.3409604463462
 20
272.6423209843907
 30
0.0
 40
3.2
 41
9.999999999999943
 71
     5
 72
     5
  1
H
 73
     1
 44
1.0
1001
ACAD
1000
MTEXTBEGIN
1070
    73
1070
     1
1070
    44
1040
1.0
1070
    74
1070
     0
1000
MTEXTEND
  0
LINE
  5
CABF
330
1F
100
AcDbEntity
  8
AM_8
100
AcDbLine
 10
213.3409604463462
 20
275.0293210138228
 30
0.0
 11
213.3409604463456
 21
239.9756543177193
 31
0.0
  0
MTEXT
  5
CAC0
330
1F
100
AcDbEntity
  8
AM_6
100
AcDbMText
 10
218.3409604463462
 20
272.6423209843911
 30
0.0
 40
3.2
 41
9.999999999999943
 71
     5
 72
     5
  1
I
 73
     1
 44
1.0
1001
ACAD
1000
MTEXTBEGIN
1070
    73
1070
     1
1070
    44
1040
1.0
1070
    74
1070
     0
1000
MTEXTEND
  0
LINE
  5
CAC1
330
1F
100
AcDbEntity
  8
AM_8
100
AcDbLine
 10
223.3409604463464
 20
275.0293210138198
 30
0.0
 11
223.3409604463454
 21
239.9756543177191
 31
0.0
  0
MTEXT
  5
CAC2
330
1F
100
AcDbEntity
  8
AM_6
100
AcDbMText
 10
228.3409604463462
 20
272.6423209843904
 30
0.0
 40
3.2
 41
9.999999999999943
 71
     5
 72
     5
  1
J
 73
     1
 44
1.0
1001
ACAD
1000
MTEXTBEGIN
1070
    73
1070
     1
1070
    44
1040
1.0
1070
    74
1070
     0
1000
MTEXTEND
  0
LINE
  5
CAC3
330
1F
100
AcDbEntity
  8
AM_8
100
AcDbLine
 10
233.3409604463462
 20
275.0293210138196
 30
0.0
 11
233.3409604463457
 21
239.9756543177186
 31
0.0
  0
MTEXT
  5
CAC4
330
1F
100
AcDbEntity
  8
AM_6
100
AcDbMText
 10
238.3409604463462
 20
272.6423209843904
 30
0.0
 40
3.2
 41
9.999999999999943
 71
     5
 72
     5
  1
K
 73
     1
 44
1.0
1001
ACAD
1000
MTEXTBEGIN
1070
    73
1070
     1
1070
    44
1040
1.0
1070
    74
1070
     0
1000
MTEXTEND
  0
LINE
  5
CAC5
330
1F
100
AcDbEntity
  8
AM_8
100
AcDbLine
 10
243.3409604463462
 20
275.0293210138194
 30
0.0
 11
243.3409604463457
 21
239.9756543177185
 31
0.0
  0
MTEXT
  5
CAC6
330
1F
100
AcDbEntity
  8
AM_6
100
AcDbMText
 10
248.3409604463464
 20
272.6423209843904
 30
0.0
 40
3.2
 41
9.999999999999943
 71
     5
 72
     5
  1
%%cL
 73
     1
 44
1.0
1001
ACAD
1000
MTEXTBEGIN
1070
    73
1070
     1
1070
    44
1040
1.0
1070
    74
1070
     0
1000
MTEXTEND
  0
LINE
  5
CAC7
330
1F
100
AcDbEntity
  8
AM_8
100
AcDbLine
 10
253.3409604463461
 20
275.029321013819
 30
0.0
 11
253.3409604463454
 21
239.9756543177182
 31
0.0
  0
MTEXT
  5
CAC8
330
1F
100
AcDbEntity
  8
AM_6
100
AcDbMText
 10
268.3409604463461
 20
272.6423209843907
 30
0.0
 40
3.2
 41
9.999999999999943
 71
     5
 72
     5
  1
N
 73
     1
 44
1.0
1001
ACAD
1000
MTEXTBEGIN
1070
    73
1070
     1
1070
    44
1040
1.0
1070
    74
1070
     0
1000
MTEXTEND
  0
MTEXT
  5
CACB
330
1F
100
AcDbEntity
  8
AM_6
100
AcDbMText
 10
138.3409604463454
 20
255.1691543324409
 30
0.0
 40
3.2
 41
9.999999999999943
 71
     5
 72
     5
  1
80
 73
     1
 44
1.0
1001
ACAD
1000
MTEXTBEGIN
1070
    73
1070
     1
1070
    44
1040
1.0
1070
    74
1070
     0
1000
MTEXTEND
  0
MTEXT
  5
CACC
330
1F
100
AcDbEntity
  8
AM_6
100
AcDbMText
 10
148.3409604463454
 20
255.1691543324409
 30
0.0
 40
3.2
 41
9.999999999999943
 71
     5
 72
     5
  1
19
 73
     1
 44
1.0
1001
ACAD
1000
MTEXTBEGIN
1070
    73
1070
     1
1070
    44
1040
1.0
1070
    74
1070
     0
1000
MTEXTEND
  0
MTEXT
  5
CACD
330
1F
100
AcDbEntity
  8
AM_6
100
AcDbMText
 10
168.3409604463454
 20
255.1691543324409
 30
0.0
 40
3.2
 41
9.999999999999943
 71
     5
 72
     5
  1
8
 73
     1
 44
1.0
1001
ACAD
1000
MTEXTBEGIN
1070
    73
1070
     1
1070
    44
1040
1.0
1070
    74
1070
     0
1000
MTEXTEND
  0
MTEXT
  5
CACE
330
1F
100
AcDbEntity
  8
AM_6
100
AcDbMText
 10
178.3409604463454
 20
255.1691543324409
 30
0.0
 40
3.2
 41
9.999999999999943
 71
     5
 72
     5
  1
27
 73
     1
 44
1.0
1001
ACAD
1000
MTEXTBEGIN
1070
    73
1070
     1
1070
    44
1040
1.0
1070
    74
1070
     0
1000
MTEXTEND
  0
MTEXT
  5
CACF
330
1F
100
AcDbEntity
  8
AM_6
100
AcDbMText
 10
188.3409604463454
 20
255.1691543324409
 30
0.0
 40
3.2
 41
9.999999999999943
 71
     5
 72
     5
  1
31.9
 73
     1
 44
1.0
1001
ACAD
1000
MTEXTBEGIN
1070
    73
1070
     1
1070
    44
1040
1.0
1070
    74
1070
     0
1000
MTEXTEND
  0
MTEXT
  5
CAD0
330
1F
100
AcDbEntity
  8
AM_6
100
AcDbMText
 10
198.3409604463454
 20
255.1691543324409
 30
0.0
 40
3.2
 41
9.999999999999943
 71
     5
 72
     5
  1
6.8
 73
     1
 44
1.0
1001
ACAD
1000
MTEXTBEGIN
1070
    73
1070
     1
1070
    44
1040
1.0
1070
    74
1070
     0
1000
MTEXTEND
  0
MTEXT
  5
CAD1
330
1F
100
AcDbEntity
  8
AM_6
100
AcDbMText
 10
208.3409604463454
 20
255.1691543324409
 30
0.0
 40
3.2
 41
9.999999999999943
 71
     5
 72
     5
  1
6.3
 73
     1
 44
1.0
1001
ACAD
1000
MTEXTBEGIN
1070
    73
1070
     1
1070
    44
1040
1.0
1070
    74
1070
     0
1000
MTEXTEND
  0
MTEXT
  5
CAD2
330
1F
100
AcDbEntity
  8
AM_6
100
AcDbMText
 10
218.3409604463455
 20
255.1691543324413
 30
0.0
 40
3.2
 41
9.999999999999943
 71
     5
 72
     5
  1
3
 73
     1
 44
1.0
1001
ACAD
1000
MTEXTBEGIN
1070
    73
1070
     1
1070
    44
1040
1.0
1070
    74
1070
     0
1000
MTEXTEND
  0
MTEXT
  5
CAD3
330
1F
100
AcDbEntity
  8
AM_6
100
AcDbMText
 10
228.3409604463454
 20
255.1691543324407
 30
0.0
 40
3.2
 41
9.999999999999943
 71
     5
 72
     5
  1
21.8
 73
     1
 44
1.0
1001
ACAD
1000
MTEXTBEGIN
1070
    73
1070
     1
1070
    44
1040
1.0
1070
    74
1070
     0
1000
MTEXTEND
  0
MTEXT
  5
CAD4
330
1F
100
AcDbEntity
  8
AM_6
100
AcDbMText
 10
238.3409604463454
 20
255.1691543324409
 30
0.0
 40
3.2
 41
9.999999999999943
 71
     5
 72
     5
  1
13
 73
     1
 44
1.0
1001
ACAD
1000
MTEXTBEGIN
1070
    73
1070
     1
1070
    44
1040
1.0
1070
    74
1070
     0
1000
MTEXTEND
  0
MTEXT
  5
CAD5
330
1F
100
AcDbEntity
  8
AM_6
100
AcDbMText
 10
248.3409604463454
 20
255.1691543324391
 30
0.0
 40
3.2
 41
9.999999999999943
 71
     5
 72
     5
  1
34
 73
     1
 44
1.0
1001
ACAD
1000
MTEXTBEGIN
1070
    73
1070
     1
1070
    44
1040
1.0
1070
    74
1070
     0
1000
MTEXTEND
  0
LINE
  5
CAD8
330
1F
100
AcDbEntity
  8
AM_1
370
    30
100
AcDbLine
 10
300.3409604463457
 20
275.029321013812
 30
0.0
 11
300.3409604463451
 21
239.9756543177156
 31
0.0
  0
LINE
  5
CAD9
330
1F
100
AcDbEntity
  8
AM_8
100
AcDbLine
 10
273.3409604463461
 20
275.0293210138186
 30
0.0
 11
273.3409604463453
 21
239.9756543177174
 31
0.0
  0
MTEXT
  5
CAE1
330
1F
100
AcDbEntity
  8
AM_6
100
AcDbMText
 10
286.8409604463459
 20
272.9219876216191
 30
0.0
 40
3.2
 41
26.99999999999977
 71
     5
 72
     5
  1
最大適応板厚
 73
     1
 44
1.0
1001
ACAD
1000
MTEXTBEGIN
1070
    73
1070
     1
1070
    44
1040
1.0
1070
    74
1070
     0
1000
MTEXTEND
  0
MTEXT
  5
CAE2
330
1F
100
AcDbEntity
  8
AM_6
100
AcDbMText
 10
286.840960446345
 20
255.4488209696723
 30
0.0
 40
3.2
 41
26.99999999999972
 71
     5
 72
     5
  1
2
 73
     1
 44
1.0
1001
ACAD
1000
MTEXTBEGIN
1070
    73
1070
     1
1070
    44
1040
1.0
1070
    74
1070
     0
1000
MTEXTEND
1000
ACAD_MTEXT_DEFINED_HEIGHT_BEGIN
1070
    46
1040
3.199999999999943
1000
ACAD_MTEXT_DEFINED_HEIGHT_END
  0
LINE
  5
CAE3
330
1F
100
AcDbEntity
  8
AM_2
100
AcDbLine
 10
105.8965784186472
 20
250.029321013823
 30
0.0
 11
300.3409604463451
 21
250.0293210138158
 31
0.0
  0
LINE
  5
CAE4
330
1F
100
AcDbEntity
  8
AM_2
100
AcDbLine
 10
153.340960446345
 20
250.0293210138227
 30
0.0
 11
163.340960446345
 21
250.0293210138227
 31
0.0
  0
MTEXT
  5
CAE6
330
1F
100
AcDbEntity
  8
AM_6
100
AcDbMText
 10
119.8117613765877
 20
245.1154876363417
 30
0.0
 40
3.2
 41
23.0
 71
     5
 72
     5
  1
EL-110S-3
 73
     1
 44
1.0
1001
ACAD
1000
MTEXTBEGIN
1070
    73
1070
     1
1070
    44
1040
1.0
1070
    74
1070
     0
1000
MTEXTEND
1000
ACAD_MTEXT_DEFINED_HEIGHT_BEGIN
1070
    46
1040
8.253666696098276
1000
ACAD_MTEXT_DEFINED_HEIGHT_END
  0
MTEXT
  5
CAE8
330
1F
100
AcDbEntity
  8
AM_6
100
AcDbMText
 10
268.3409604463451
 20
245.1154876363408
 30
0.0
 40
3.2
 41
9.999999999999943
 71
     5
 72
     5
  1
M8
 73
     1
 44
1.0
1001
ACAD
1000
MTEXTBEGIN
1070
    73
1070
     1
1070
    44
1040
1.0
1070
    74
1070
     0
1000
MTEXTEND
  0
MTEXT
  5
CAEB
330
1F
100
AcDbEntity
  8
AM_6
100
AcDbMText
 10
178.340960446345
 20
245.1154876363402
 30
0.0
 40
3.2
 41
9.999999999999943
 71
     5
 72
     5
  1
27
 73
     1
 44
1.0
1001
ACAD
1000
MTEXTBEGIN
1070
    73
1070
     1
1070
    44
1040
1.0
1070
    74
1070
     0
1000
MTEXTEND
  0
MTEXT
  5
CAEC
330
1F
100
AcDbEntity
  8
AM_6
100
AcDbMText
 10
188.340960446345
 20
245.11548763634
 30
0.0
 40
3.2
 41
9.999999999999943
 71
     5
 72
     5
  1
34.2
 73
     1
 44
1.0
1001
ACAD
1000
MTEXTBEGIN
1070
    73
1070
     1
1070
    44
1040
1.0
1070
    74
1070
     0
1000
MTEXTEND
  0
MTEXT
  5
CAED
330
1F
100
AcDbEntity
  8
AM_6
100
AcDbMText
 10
198.340960446345
 20
245.11548763634
 30
0.0
 40
3.2
 41
9.999999999999943
 71
     5
 72
     5
  1
6.8
 73
     1
 44
1.0
1001
ACAD
1000
MTEXTBEGIN
1070
    73
1070
     1
1070
    44
1040
1.0
1070
    74
1070
     0
1000
MTEXTEND
  0
MTEXT
  5
CAEE
330
1F
100
AcDbEntity
  8
AM_6
100
AcDbMText
 10
208.340960446345
 20
245.11548763634
 30
0.0
 40
3.2
 41
9.999999999999943
 71
     5
 72
     5
  1
7.2
 73
     1
 44
1.0
1001
ACAD
1000
MTEXTBEGIN
1070
    73
1070
     1
1070
    44
1040
1.0
1070
    74
1070
     0
1000
MTEXTEND
  0
MTEXT
  5
CAEF
330
1F
100
AcDbEntity
  8
AM_6
100
AcDbMText
 10
218.340960446345
 20
245.1154876363405
 30
0.0
 40
3.2
 41
9.999999999999943
 71
     5
 72
     5
  1
3
 73
     1
 44
1.0
1001
ACAD
1000
MTEXTBEGIN
1070
    73
1070
     1
1070
    44
1040
1.0
1070
    74
1070
     0
1000
MTEXTEND
  0
MTEXT
  5
CAF0
330
1F
100
AcDbEntity
  8
AM_6
100
AcDbMText
 10
228.340960446345
 20
245.11548763634
 30
0.0
 40
3.2
 41
9.999999999999943
 71
     5
 72
     5
  1
22.7
 73
     1
 44
1.0
1001
ACAD
1000
MTEXTBEGIN
1070
    73
1070
     1
1070
    44
1040
1.0
1070
    74
1070
     0
1000
MTEXTEND
  0
MTEXT
  5
CAF1
330
1F
100
AcDbEntity
  8
AM_6
100
AcDbMText
 10
238.340960446345
 20
245.1154876363402
 30
0.0
 40
3.2
 41
9.999999999999943
 71
     5
 72
     5
  1
15
 73
     1
 44
1.0
1001
ACAD
1000
MTEXTBEGIN
1070
    73
1070
     1
1070
    44
1040
1.0
1070
    74
1070
     0
1000
MTEXTEND
  0
MTEXT
  5
CAF2
330
1F
100
AcDbEntity
  8
AM_6
100
AcDbMText
 10
248.340960446345
 20
245.11548763634
 30
0.0
 40
3.2
 41
9.999999999999943
 71
     5
 72
     5
  1
38
 73
     1
 44
1.0
1001
ACAD
1000
MTEXTBEGIN
1070
    73
1070
     1
1070
    44
1040
1.0
1070
    74
1070
     0
1000
MTEXTEND
  0
LINE
  5
CAF4
330
1F
100
AcDbEntity
  8
AM_1
370
    30
100
AcDbLine
 10
105.8965784186476
 20
239.9756543177229
 30
0.0
 11
300.3409604463446
 21
239.9756543177156
 31
0.0
  0
MTEXT
  5
CAF8
330
1F
100
AcDbEntity
  8
AM_6
100
AcDbMText
 10
158.340960446345
 20
255.1691543324416
 30
0.0
 40
3.2
 41
9.999999999999943
 71
     5
 72
     5
  1
9.2
 73
     1
 44
1.0
1001
ACAD
1000
MTEXTBEGIN
1070
    73
1070
     1
1070
    44
1040
1.0
1070
    74
1070
     0
1000
MTEXTEND
  0
MTEXT
  5
CAFD
330
1F
100
AcDbEntity
  8
AM_6
100
AcDbMText
 10
286.8409604463453
 20
245.395154273573
 30
0.0
 40
3.2
 41
26.99999999999972
 71
     5
 72
     5
  1
3
 73
     1
 44
1.0
1001
ACAD
1000
MTEXTBEGIN
1070
    73
1070
     1
1070
    44
1040
1.0
1070
    74
1070
     0
1000
MTEXTEND
1000
ACAD_MTEXT_DEFINED_HEIGHT_BEGIN
1070
    46
1040
3.199999999999943
1000
ACAD_MTEXT_DEFINED_HEIGHT_END
  0
MTEXT
  5
CAFE
330
1F
100
AcDbEntity
  8
AM_6
100
AcDbMText
 10
258.3409604463462
 20
272.6423209843907
 30
0.0
 40
3.2
 41
9.999999999999943
 71
     5
 72
     5
  1
M
 73
     1
 44
1.0
1001
ACAD
1000
MTEXTBEGIN
1070
    73
1070
     1
1070
    44
1040
1.0
1070
    74
1070
     0
1000
MTEXTEND
  0
LINE
  5
CAFF
330
1F
100
AcDbEntity
  8
AM_8
100
AcDbLine
 10
263.3409604463462
 20
275.0293210138187
 30
0.0
 11
263.3409604463453
 21
239.9756543177177
 31
0.0
  0
MTEXT
  5
CB01
330
1F
100
AcDbEntity
  8
AM_6
100
AcDbMText
 10
258.340960446345
 20
245.11548763634
 30
0.0
 40
3.2
 41
9.999999999999943
 71
     5
 72
     5
  1
M18
 73
     1
 44
1.0
1001
ACAD
1000
MTEXTBEGIN
1070
    73
1070
     1
1070
    44
1040
1.0
1070
    74
1070
     0
1000
MTEXTEND
  0
MTEXT
  5
CB06
330
1F
100
AcDbEntity
  8
AM_6
100
AcDbMText
 10
119.7532340923935
 20
265.2496543765908
 30
0.0
 40
3.2
 41
23.00000000000009
 71
     5
 72
     5
  1
EL-110S-1
 73
     1
 44
1.0
1001
ACAD
1000
MTEXTBEGIN
1070
    73
1070
     1
1070
    44
1040
1.0
1070
    74
1070
     0
1000
MTEXTEND
1000
ACAD_MTEXT_DEFINED_HEIGHT_BEGIN
1070
    46
1040
8.20000000000091
1000
ACAD_MTEXT_DEFINED_HEIGHT_END
  0
MTEXT
  5
CB07
330
1F
100
AcDbEntity
  8
AM_6
100
AcDbMText
 10
138.340960446346
 20
265.2228210285411
 30
0.0
 40
3.2
 41
9.999999999999943
 71
     5
 72
     5
  1
60
 73
     1
 44
1.0
1001
ACAD
1000
MTEXTBEGIN
1070
    73
1070
     1
1070
    44
1040
1.0
1070
    74
1070
     0
1000
MTEXTEND
  0
MTEXT
  5
CB08
330
1F
100
AcDbEntity
  8
AM_6
100
AcDbMText
 10
148.3409604463459
 20
265.2228210285411
 30
0.0
 40
3.2
 41
9.999999999999943
 71
     5
 72
     5
  1
15
 73
     1
 44
1.0
1001
ACAD
1000
MTEXTBEGIN
1070
    73
1070
     1
1070
    44
1040
1.0
1070
    74
1070
     0
1000
MTEXTEND
  0
MTEXT
  5
CB09
330
1F
100
AcDbEntity
  8
AM_6
100
AcDbMText
 10
168.340960446346
 20
265.2228210285411
 30
0.0
 40
3.2
 41
9.999999999999943
 71
     5
 72
     5
  1
8
 73
     1
 44
1.0
1001
ACAD
1000
MTEXTBEGIN
1070
    73
1070
     1
1070
    44
1040
1.0
1070
    74
1070
     0
1000
MTEXTEND
  0
MTEXT
  5
CB0A
330
1F
100
AcDbEntity
  8
AM_6
100
AcDbMText
 10
178.3409604463459
 20
265.2228210285411
 30
0.0
 40
3.2
 41
9.999999999999943
 71
     5
 72
     5
  1
27
 73
     1
 44
1.0
1001
ACAD
1000
MTEXTBEGIN
1070
    73
1070
     1
1070
    44
1040
1.0
1070
    74
1070
     0
1000
MTEXTEND
  0
MTEXT
  5
CB0B
330
1F
100
AcDbEntity
  8
AM_6
100
AcDbMText
 10
188.340960446346
 20
265.2228210285411
 30
0.0
 40
3.2
 41
9.999999999999943
 71
     5
 72
     5
  1
24
 73
     1
 44
1.0
1001
ACAD
1000
MTEXTBEGIN
1070
    73
1070
     1
1070
    44
1040
1.0
1070
    74
1070
     0
1000
MTEXTEND
  0
MTEXT
  5
CB0C
330
1F
100
AcDbEntity
  8
AM_6
100
AcDbMText
 10
198.340960446346
 20
265.2228210285411
 30
0.0
 40
3.2
 41
9.999999999999943
 71
     5
 72
     5
  1
5
 73
     1
 44
1.0
1001
ACAD
1000
MTEXTBEGIN
1070
    73
1070
     1
1070
    44
1040
1.0
1070
    74
1070
     0
1000
MTEXTEND
  0
MTEXT
  5
CB0D
330
1F
100
AcDbEntity
  8
AM_6
100
AcDbMText
 10
208.340960446346
 20
265.2228210285411
 30
0.0
 40
3.2
 41
9.999999999999943
 71
     5
 72
     5
  1
5.9
 73
     1
 44
1.0
1001
ACAD
1000
MTEXTBEGIN
1070
    73
1070
     1
1070
    44
1040
1.0
1070
    74
1070
     0
1000
MTEXTEND
  0
MTEXT
  5
CB0E
330
1F
100
AcDbEntity
  8
AM_6
100
AcDbMText
 10
218.340960446346
 20
265.2228210285414
 30
0.0
 40
3.2
 41
9.999999999999943
 71
     5
 72
     5
  1
1.5
 73
     1
 44
1.0
1001
ACAD
1000
MTEXTBEGIN
1070
    73
1070
     1
1070
    44
1040
1.0
1070
    74
1070
     0
1000
MTEXTEND
  0
MTEXT
  5
CB0F
330
1F
100
AcDbEntity
  8
AM_6
100
AcDbMText
 10
228.340960446346
 20
265.2228210285409
 30
0.0
 40
3.2
 41
9.999999999999943
 71
     5
 72
     5
  1
18.6
 73
     1
 44
1.0
1001
ACAD
1000
MTEXTBEGIN
1070
    73
1070
     1
1070
    44
1040
1.0
1070
    74
1070
     0
1000
MTEXTEND
  0
MTEXT
  5
CB10
330
1F
100
AcDbEntity
  8
AM_6
100
AcDbMText
 10
238.340960446346
 20
265.2228210285411
 30
0.0
 40
3.2
 41
9.999999999999943
 71
     5
 72
     5
  1
12
 73
     1
 44
1.0
1001
ACAD
1000
MTEXTBEGIN
1070
    73
1070
     1
1070
    44
1040
1.0
1070
    74
1070
     0
1000
MTEXTEND
  0
MTEXT
  5
CB11
330
1F
100
AcDbEntity
  8
AM_6
100
AcDbMText
 10
248.340960446346
 20
265.2228210285393
 30
0.0
 40
3.2
 41
9.999999999999943
 71
     5
 72
     5
  1
28.6
 73
     1
 44
1.0
1001
ACAD
1000
MTEXTBEGIN
1070
    73
1070
     1
1070
    44
1040
1.0
1070
    74
1070
     0
1000
MTEXTEND
  0
MTEXT
  5
CB17
330
1F
100
AcDbEntity
  8
AM_6
100
AcDbMText
 10
286.8409604463455
 20
265.5024876657724
 30
0.0
 40
3.2
 41
26.99999999999972
 71
     5
 72
     5
  1
1.5
 73
     1
 44
1.0
1001
ACAD
1000
MTEXTBEGIN
1070
    73
1070
     1
1070
    44
1040
1.0
1070
    74
1070
     0
1000
MTEXTEND
1000
ACAD_MTEXT_DEFINED_HEIGHT_BEGIN
1070
    46
1040
3.199999999999943
1000
ACAD_MTEXT_DEFINED_HEIGHT_END
  0
LINE
  5
CB18
330
1F
100
AcDbEntity
  8
AM_2
100
AcDbLine
 10
105.8965784186477
 20
260.0829877099231
 30
0.0
 11
300.3409604463457
 21
260.0829877099159
 31
0.0
  0
LINE
  5
CB19
330
1F
100
AcDbEntity
  8
AM_2
100
AcDbLine
 10
153.3409604463455
 20
260.0829877099229
 30
0.0
 11
163.3409604463456
 21
260.0829877099229
 31
0.0
  0
MTEXT
  5
CB1A
330
1F
100
AcDbEntity
  8
AM_6
100
AcDbMText
 10
158.3409604463455
 20
265.2228210285418
 30
0.0
 40
3.2
 41
9.999999999999943
 71
     5
 72
     5
  1
8
 73
     1
 44
1.0
1001
ACAD
1000
MTEXTBEGIN
1070
    73
1070
     1
1070
    44
1040
1.0
1070
    74
1070
     0
1000
MTEXTEND
  0
MTEXT
  5
D50B
330
1F
100
AcDbEntity
  8
AM_6
100
AcDbMText
 10
138.3409604463448
 20
245.1154876363408
 30
0.0
 40
3.2
 41
9.999999999999943
 71
     5
 72
     5
  1
90
 73
     1
 44
1.0
1001
ACAD
1000
MTEXTBEGIN
1070
    73
1070
     1
1070
    44
1040
1.0
1070
    74
1070
     0
1000
MTEXTEND
  0
MTEXT
  5
D50C
330
1F
100
AcDbEntity
  8
AM_6
100
AcDbMText
 10
148.3409604463448
 20
245.1154876363408
 30
0.0
 40
3.2
 41
9.999999999999943
 71
     5
 72
     5
  1
21.5
 73
     1
 44
1.0
1001
ACAD
1000
MTEXTBEGIN
1070
    73
1070
     1
1070
    44
1040
1.0
1070
    74
1070
     0
1000
MTEXTEND
  0
MTEXT
  5
D50D
330
1F
100
AcDbEntity
  8
AM_6
100
AcDbMText
 10
168.3409604463448
 20
245.1154876363408
 30
0.0
 40
3.2
 41
9.999999999999943
 71
     5
 72
     5
  1
8
 73
     1
 44
1.0
1001
ACAD
1000
MTEXTBEGIN
1070
    73
1070
     1
1070
    44
1040
1.0
1070
    74
1070
     0
1000
MTEXTEND
  0
MTEXT
  5
D50E
330
1F
100
AcDbEntity
  8
AM_6
100
AcDbMText
 10
158.3409604463444
 20
245.1154876363415
 30
0.0
 40
3.2
 41
9.999999999999943
 71
     5
 72
     5
  1
11
 73
     1
 44
1.0
1001
ACAD
1000
MTEXTBEGIN
1070
    73
1070
     1
1070
    44
1040
1.0
1070
    74
1070
     0
1000
MTEXTEND
  0
MTEXT
  5
DECD
330
1F
100
AcDbEntity
  8
AM_6
100
AcDbMText
 10
268.3409604463453
 20
255.169154332441
 30
0.0
 40
3.2
 41
9.999999999999943
 71
     5
 72
     5
  1
M8
 73
     1
 44
1.0
1001
ACAD
1000
MTEXTBEGIN
1070
    73
1070
     1
1070
    44
1040
1.0
1070
    74
1070
     0
1000
MTEXTEND
  0
MTEXT
  5
DECE
330
1F
100
AcDbEntity
  8
AM_6
100
AcDbMText
 10
258.3409604463452
 20
255.1691543324402
 30
0.0
 40
3.2
 41
9.999999999999943
 71
     5
 72
     5
  1
M18
 73
     1
 44
1.0
1001
ACAD
1000
MTEXTBEGIN
1070
    73
1070
     1
1070
    44
1040
1.0
1070
    74
1070
     0
1000
MTEXTEND
  0
MTEXT
  5
DECF
330
1F
100
AcDbEntity
  8
AM_6
100
AcDbMText
 10
268.3409604463455
 20
265.1154876363407
 30
0.0
 40
3.2
 41
9.999999999999943
 71
     5
 72
     5
  1
M6
 73
     1
 44
1.0
1001
ACAD
1000
MTEXTBEGIN
1070
    73
1070
     1
1070
    44
1040
1.0
1070
    74
1070
     0
1000
MTEXTEND
  0
MTEXT
  5
DED0
330
1F
100
AcDbEntity
  8
AM_6
100
AcDbMText
 10
258.3409604463454
 20
265.1154876363399
 30
0.0
 40
3.2
 41
9.999999999999943
 71
     5
 72
     5
  1
M18
 73
     1
 44
1.0
1001
ACAD
1000
MTEXTBEGIN
1070
    73
1070
     1
1070
    44
1040
1.0
1070
    74
1070
     0
1000
MTEXTEND
  0
LINE
  5
DED2
330
1F
100
AcDbEntity
  8
AM_2
100
AcDbLine
 10
34.50000039740672
 20
246.5
 30
0.0
 11
91.38876460511434
 21
246.5
 31
0.0
  0
CIRCLE
  5
DED4
330
1F
100
AcDbEntity
  8
AM_0
100
AcDbCircle
 10
328.7388129118199
 20
245.983826337795
 30
0.0
 40
9.25
  0
CIRCLE
  5
DED5
330
1F
100
AcDbEntity
  8
AM_0
100
AcDbCircle
 10
343.7388129118199
 20
245.983826337795
 30
0.0
 40
1.75
  0
LINE
  5
DED7
330
1F
100
AcDbEntity
  8
AM_7
100
AcDbLine
 10
348.4888129118199
 20
245.983826337795
 30
0.0
 11
316.4138129118199
 21
245.983826337795
 31
0.0
1001
GENIUS_GENODEF_13
1002
{
1000
HIER
1070
     0
1002
}
1002
{
1000
MANEDIT
1070
     0
1002
}
1002
{
1000
NOSEL
1070
     0
1002
}
1002
{
1000
BEHIND
1070
     0
1002
}
1002
{
1000
OTHER
1070
     0
1002
}
1002
{
1000
REACTOR
1002
}
1001
GENIUS_GENOBJ-N-CEN_13
1002
{
1000
OWNER
1000
GEN
1002
}
1001
GENIUS_GENCEN_19
1002
{
1040
3.0
1002
}
  0
LINE
  5
DED8
330
1F
100
AcDbEntity
  8
AM_7
100
AcDbLine
 10
328.7388129118199
 20
258.3088263377951
 30
0.0
 11
328.7388129118199
 21
233.658826337795
 31
0.0
1001
GENIUS_GENOBJ-N-CEN_13
1002
{
1000
OWNER
1000
GEN
1002
}
1001
GENIUS_GENODEF_13
1002
{
1000
HIER
1070
     0
1002
}
1002
{
1000
MANEDIT
1070
     0
1002
}
1002
{
1000
NOSEL
1070
     0
1002
}
1002
{
1000
BEHIND
1070
     0
1002
}
1002
{
1000
OTHER
1070
     0
1002
}
1002
{
1000
REACTOR
1002
}
1001
GENIUS_GENCEN_19
1002
{
1040
3.0
1002
}
  0
HATCH
  5
E006
330
1F
100
AcDbEntity
  8
AM_8
100
AcDbHatch
 10
0.0
 20
0.0
 30
0.0
210
0.0
220
0.0
230
1.0
  2
_U
 70
     0
 71
     0
 91
        1
 92
        1
 93
        2
 72
     2
 10
328.7388129118199
 20
245.983826337795
 40
9.250000000000001
 50
-78.54084409738357
 51
137.5425764813353
 73
     1
 72
     2
 10
328.7388129118199
 20
245.983826337795
 40
9.250000000000005
 50
137.5425764813353
 51
281.4591559026164
 73
     1
 97
        0
 75
     0
 76
     0
 52
-45.00000000000001
 41
1.0
 77
     0
 78
     1
 53
315.0
 43
286.0770950643624
 44
491.2906632150346
 45
0.7071067811865478
 46
0.7071067811865474
 79
     0
 98
        1
 10
286.0770950643624
 20
491.2906632150346
1001
GENIUS_GENODEF_13
1002
{
1000
HIER
1070
     0
1002
}
1002
{
1000
MANEDIT
1070
     0
1002
}
1002
{
1000
NOSEL
1070
     0
1002
}
1002
{
1000
BEHIND
1070
     0
1002
}
1002
{
1000
OTHER
1070
     0
1002
}
1002
{
1000
REACTOR
1002
}
1001
GENIUS_GENOBJ-N-HTC_13
1002
{
1000
OWNER
1000
GEN
1002
}
1001
GENIUS_GENHATCH_13
1002
{
1000
DATA
1040
45.0
1042
2.5
1000
_U
1070
     0
1011
325.084033545405
1021
249.3278217270012
1031
0.0
1002
}
1002
{
1000
UCS
1010
0.0
1020
0.0
1030
0.0
1010
1.0
1020
0.0
1030
0.0
1010
0.0
1020
1.0
1030
0.0
1002
}
  0
HATCH
  5
E008
330
1F
100
AcDbEntity
  8
AM_8
100
AcDbHatch
 10
0.0
 20
0.0
 30
0.0
210
0.0
220
0.0
230
1.0
  2
_U
 70
     0
 71
     0
 91
        1
 92
        1
 93
        2
 72
     2
 10
343.7388129118199
 20
245.983826337795
 40
1.749999999999961
 50
-78.54084409738347
 51
233.455993490984
 73
     1
 72
     2
 10
343.7388129118199
 20
245.983826337795
 40
1.749999999999993
 50
233.4559934909846
 51
281.4591559026163
 73
     1
 97
        0
 75
     0
 76
     0
 52
-45.00000000000001
 41
1.0
 77
     0
 78
     1
 53
315.0
 43
286.0770950643624
 44
491.2906632150346
 45
0.7071067811865478
 46
0.7071067811865474
 79
     0
 98
        1
 10
286.0770950643624
 20
491.2906632150346
1001
GENIUS_GENOBJ-N-HTC_13
1002
{
1000
OWNER
1000
GEN
1002
}
1001
GENIUS_GENODEF_13
1002
{
1000
HIER
1070
     0
1002
}
1002
{
1000
MANEDIT
1070
     0
1002
}
1002
{
1000
NOSEL
1070
     0
1002
}
1002
{
1000
BEHIND
1070
     0
1002
}
1002
{
1000
OTHER
1070
     0
1002
}
1002
{
1000
REACTOR
1002
}
1001
GENIUS_GENHATCH_13
1002
{
1000
DATA
1040
45.0
1042
2.5
1000
_U
1070
     0
1011
343.195596669598
1021
245.25088970877
1031
0.0
1002
}
1002
{
1000
UCS
1010
0.0
1020
0.0
1030
0.0
1010
1.0
1020
0.0
1030
0.0
1010
0.0
1020
1.0
1030
0.0
1002
}
  0
LINE
  5
E009
330
1F
100
AcDbEntity
  8
AM_7
 48
0.5
100
AcDbLine
 10
343.7388129118199
 20
250.733826337795
 30
0.0
 11
343.7388129118199
 21
241.233826337795
 31
0.0
1001
GENIUS_GENOBJ-N-CEN_13
1002
{
1000
OWNER
1000
GEN
1002
}
1001
GENIUS_GENODEF_13
1002
{
1000
HIER
1070
     0
1002
}
1002
{
1000
MANEDIT
1070
     0
1002
}
1002
{
1000
NOSEL
1070
     0
1002
}
1002
{
1000
BEHIND
1070
     0
1002
}
1002
{
1000
OTHER
1070
     0
1002
}
1002
{
1000
REACTOR
1002
}
1001
GENIUS_GENCEN_19
1002
{
1040
3.0
1002
}
  0
MTEXT
  5
E045
330
1F
100
AcDbEntity
  8
AM_6
 48
0.5
100
AcDbMText
 10
341.3216291018916
 20
222.1421645166228
 30
0.0
 40
3.2
 41
29.66249167415231
 71
     1
 72
     5
  1
\L切欠推奨寸法\l
 73
     1
 44
1.0
1001
ACAD
1000
MTEXTBEGIN
1070
    73
1070
     1
1070
    44
1040
1.0
1070
    74
1070
     0
1000
MTEXTEND
  0
CIRCLE
  5
E046
330
1F
100
AcDbEntity
  8
AM_0
100
AcDbCircle
 10
372.4652122971761
 20
245.983826337795
 30
0.0
 40
9.25
  0
CIRCLE
  5
E047
330
1F
100
AcDbEntity
  8
AM_0
100
AcDbCircle
 10
372.4652122971761
 20
260.983826337795
 30
0.0
 40
1.75
  0
LINE
  5
E048
330
1F
100
AcDbEntity
  8
AM_7
100
AcDbLine
 10
372.4652122971761
 20
265.733826337795
 30
0.0
 11
372.4652122971761
 21
233.658826337795
 31
0.0
1001
GENIUS_GENODEF_13
1002
{
1000
HIER
1070
     0
1002
}
1002
{
1000
MANEDIT
1070
     0
1002
}
1002
{
1000
NOSEL
1070
     0
1002
}
1002
{
1000
BEHIND
1070
     0
1002
}
1002
{
1000
OTHER
1070
     0
1002
}
1002
{
1000
REACTOR
1002
}
1001
GENIUS_GENOBJ-N-CEN_13
1002
{
1000
OWNER
1000
GEN
1002
}
1001
GENIUS_GENCEN_19
1002
{
1040
3.0
1002
}
  0
LINE
  5
E049
330
1F
100
AcDbEntity
  8
AM_7
100
AcDbLine
 10
360.1402122971761
 20
245.983826337795
 30
0.0
 11
384.7902122971762
 21
245.983826337795
 31
0.0
1001
GENIUS_GENOBJ-N-CEN_13
1002
{
1000
OWNER
1000
GEN
1002
}
1001
GENIUS_GENODEF_13
1002
{
1000
HIER
1070
     0
1002
}
1002
{
1000
MANEDIT
1070
     0
1002
}
1002
{
1000
NOSEL
1070
     0
1002
}
1002
{
1000
BEHIND
1070
     0
1002
}
1002
{
1000
OTHER
1070
     0
1002
}
1002
{
1000
REACTOR
1002
}
1001
GENIUS_GENCEN_19
1002
{
1040
3.0
1002
}
  0
DIMENSION
  5
E04A
330
1F
100
AcDbEntity
  8
AM_5
100
AcDbDimension
  2
*D40
 10
365.7859509978867
 20
252.38304257854
 30
0.0
 11
389.2906452046936
 21
235.9396187246328
 31
0.0
 70
   163
 71
     5
 42
18.49999999999991
  3
SYS$3
100
AcDbDiametricDimension
 15
379.1444735964657
 25
239.5846100970502
 35
0.0
 40
0.0
1001
ACAD_DSTYLE_DIMRADIAL_EXTENSION
1070
   387
1070
     1
1070
   388
1040
0.0
1070
   390
1040
0.0
1001
ACAD_DSTYLE_DIMINSPECT
1070
   396
1000
100%
1070
   395
1000

1070
   394
1070
    33
1070
   393
1070
     0
1001
ACAD
1000
DSTYLE
1002
{
1070
   172
1070
     1
1070
   179
1070
     2
1070
   289
1070
     2
1070
   342
1005
B6A3
1002
}
  0
LINE
  5
E04B
330
1F
100
AcDbEntity
  8
AM_5
100
AcDbLine
 10
375.2798318264785
 20
263.4618127996767
 30
0.0
 11
379.7721914151626
 21
267.416878884727
 31
0.0
  0
LINE
  5
E04C
330
1F
100
AcDbEntity
  8
AM_5
100
AcDbLine
 10
379.7721914151626
 20
267.416878884727
 30
0.0
 11
388.6221914151625
 21
267.416878884727
 31
0.0
  0
LINE
  5
E04D
330
1F
100
AcDbEntity
  8
AM_5
100
AcDbLine
 10
371.1517231835018
 20
259.8274326555835
 30
0.0
 11
373.7787014108505
 21
262.1402200200065
 31
0.0
  0
LWPOLYLINE
  5
E04E
330
1F
100
AcDbEntity
  8
AM_5
100
AcDbPolyline
 90
        2
 70
     1
 43
0.5
 10
370.9640818815483
 20
259.6622335581248
 42
1.0
 10
371.3393644854553
 20
259.9926317530424
 42
1.0
  0
INSERT
  5
E04F
330
1F
100
AcDbEntity
  8
AM_5
100
AcDbBlockReference
  2
GENDOT
 10
373.7787014108505
 20
262.1402200200065
 30
0.0
 41
2.000000000000012
 42
2.0
 43
2.0
 50
221.3606383212477
  0
MTEXT
  5
E050
330
1F
100
AcDbEntity
  8
AM_5
 62
     2
100
AcDbMText
 10
384.9471914151626
 20
270.666878884727
 30
0.0
 40
3.5
 41
0.0
 71
     5
 72
     1
  1
\U+22053.5
 73
     1
 44
1.0
1001
ACAD
1000
MTEXTBEGIN
1070
    73
1070
     1
1070
    44
1040
1.0
1070
    74
1070
     0
1000
MTEXTEND
  0
HATCH
  5
E051
330
1F
100
AcDbEntity
  8
AM_8
100
AcDbHatch
 10
0.0
 20
0.0
 30
0.0
210
0.0
220
0.0
230
1.0
  2
_U
 70
     0
 71
     0
 91
        1
 92
        1
 93
        2
 72
     2
 10
372.4652122971761
 20
245.983826337795
 40
9.250000000000001
 50
11.45915590261645
 51
227.5425764813353
 73
     1
 72
     2
 10
372.4652122971761
 20
245.983826337795
 40
9.250000000000005
 50
227.5425764813353
 51
371.4591559026164
 73
     1
 97
        0
 75
     0
 76
     0
 52
45.0
 41
1.0
 77
     0
 78
     1
 53
45.0
 43
127.1583754199364
 44
203.3221084903375
 45
-0.7071067811865475
 46
0.7071067811865476
 79
     0
 98
        1
 10
127.1583754199364
 20
203.3221084903375
1001
GENIUS_GENODEF_13
1002
{
1000
HIER
1070
     0
1002
}
1002
{
1000
MANEDIT
1070
     0
1002
}
1002
{
1000
NOSEL
1070
     0
1002
}
1002
{
1000
BEHIND
1070
     0
1002
}
1002
{
1000
OTHER
1070
     0
1002
}
1002
{
1000
REACTOR
1002
}
1001
GENIUS_GENOBJ-N-HTC_13
1002
{
1000
OWNER
1000
GEN
1002
}
1001
GENIUS_GENHATCH_13
1002
{
1000
DATA
1040
45.0
1042
2.5
1000
_U
1070
     0
1011
369.1212169079699
1021
242.3290469713801
1031
0.0
1002
}
1002
{
1000
UCS
1010
0.0
1020
0.0
1030
0.0
1010
1.0
1020
0.0
1030
0.0
1010
0.0
1020
1.0
1030
0.0
1002
}
  0
HATCH
  5
E052
330
1F
100
AcDbEntity
  8
AM_8
100
AcDbHatch
 10
0.0
 20
0.0
 30
0.0
210
0.0
220
0.0
230
1.0
  2
_U
 70
     0
 71
     0
 91
        1
 92
        1
 93
        2
 72
     2
 10
372.4652122971761
 20
260.983826337795
 40
1.749999999999961
 50
11.45915590261653
 51
323.455993490984
 73
     1
 72
     2
 10
372.4652122971761
 20
260.983826337795
 40
1.749999999999993
 50
323.4559934909845
 51
371.4591559026163
 73
     1
 97
        0
 75
     0
 76
     0
 52
45.0
 41
1.0
 77
     0
 78
     1
 53
45.0
 43
127.1583754199364
 44
203.3221084903375
 45
-0.7071067811865475
 46
0.7071067811865476
 79
     0
 98
        1
 10
127.1583754199364
 20
203.3221084903375
1001
GENIUS_GENOBJ-N-HTC_13
1002
{
1000
OWNER
1000
GEN
1002
}
1001
GENIUS_GENODEF_13
1002
{
1000
HIER
1070
     0
1002
}
1002
{
1000
MANEDIT
1070
     0
1002
}
1002
{
1000
NOSEL
1070
     0
1002
}
1002
{
1000
BEHIND
1070
     0
1002
}
1002
{
1000
OTHER
1070
     0
1002
}
1002
{
1000
REACTOR
1002
}
1001
GENIUS_GENHATCH_13
1002
{
1000
DATA
1040
45.0
1042
2.5
1000
_U
1070
     0
1011
373.1981489262012
1021
260.4406100955731
1031
0.0
1002
}
1002
{
1000
UCS
1010
0.0
1020
0.0
1030
0.0
1010
1.0
1020
0.0
1030
0.0
1010
0.0
1020
1.0
1030
0.0
1002
}
  0
LINE
  5
E053
330
1F
100
AcDbEntity
  8
AM_7
 48
0.5
100
AcDbLine
 10
367.7152122971761
 20
260.983826337795
 30
0.0
 11
377.2152122971761
 21
260.983826337795
 31
0.0
1001
GENIUS_GENOBJ-N-CEN_13
1002
{
1000
OWNER
1000
GEN
1002
}
1001
GENIUS_GENODEF_13
1002
{
1000
HIER
1070
     0
1002
}
1002
{
1000
MANEDIT
1070
     0
1002
}
1002
{
1000
NOSEL
1070
     0
1002
}
1002
{
1000
BEHIND
1070
     0
1002
}
1002
{
1000
OTHER
1070
     0
1002
}
1002
{
1000
REACTOR
1002
}
1001
GENIUS_GENCEN_19
1002
{
1040
3.0
1002
}
  0
DIMENSION
  5
E054
330
1F
100
AcDbEntity
  8
AM_5
100
AcDbDimension
  2
*D41
 10
393.7152122971761
 20
245.983826337795
 30
0.0
 11
390.615212297176
 21
253.4838263377951
 31
0.0
 70
    32
  1
K
 71
     5
 42
14.99999999999994
  3
SYS$0
100
AcDbAlignedDimension
 13
377.2152122971761
 23
260.983826337795
 33
0.0
 14
384.7902122971762
 24
245.983826337795
 34
0.0
 50
90.0
100
AcDbRotatedDimension
1001
ACAD
1000
DSTYLE
1002
{
1070
   179
1070
     2
1002
}
1001
ACAD_DSTYLE_DIMINSPECT
1070
   396
1000
100%
1070
   395
1000

1070
   394
1070
    33
1070
   393
1070
     0
  0
DIMENSION
  5
E08E
330
1F
100
AcDbEntity
  8
AM_5
100
AcDbDimension
  2
*D42
 10
343.7388129118199
 20
267.233826337795
 30
0.0
 11
336.2388129118199
 21
270.333826337795
 31
0.0
 70
    32
  1
K
 71
     5
 42
15.0
  3
SYS$0
100
AcDbAlignedDimension
 13
328.7388129118199
 23
258.3088263377951
 33
0.0
 14
343.7388129118199
 24
250.733826337795
 34
0.0
100
AcDbRotatedDimension
1001
ACAD
1000
DSTYLE
1002
{
1070
   179
1070
     2
1002
}
1001
ACAD_DSTYLE_DIMINSPECT
1070
   396
1000
100%
1070
   395
1000

1070
   394
1070
    33
1070
   393
1070
     0
  0
LINE
  5
E0C2
330
1F
100
AcDbEntity
  8
AM_2
100
AcDbLine
 10
322.9532034167117
 20
228.938981874729
 30
0.0
 11
324.6601249616
 21
227.7246609865175
 31
0.0
  0
LINE
  5
E0C3
330
1F
100
AcDbEntity
  8
AM_2
100
AcDbLine
 10
322.9532034167117
 20
228.938981874729
 30
0.0
 11
325.042380320516
 21
229.0922667225165
 31
0.0
  0
ARC
  5
E0C4
330
1F
100
AcDbEntity
  8
AM_2
100
AcDbCircle
 10
328.7388129118199
 20
245.983826337795
 30
0.0
 40
18.0
100
AcDbArc
 50
251.2510114041107
 51
285.0000000000012
  0
MTEXT
  5
E0C5
330
1F
100
AcDbEntity
  8
AM_6
 48
0.5
100
AcDbMText
 10
339.4956856176682
 20
230.586689887996
 30
0.0
 40
3.2
 41
29.66249167415231
 71
     1
 72
     5
  1
ハンドル回転方向
 73
     1
 44
1.0
1001
ACAD
1000
MTEXTBEGIN
1070
    73
1070
     1
1070
    44
1040
1.0
1070
    74
1070
     0
1000
MTEXTEND
  0
ARC
  5
E0DA
330
1F
100
AcDbEntity
  8
AM_2
100
AcDbCircle
 10
372.4652122971761
 20
245.983826337795
 30
0.0
 40
18.0
100
AcDbArc
 50
254.9999999999988
 51
288.7489885958857
  0
LINE
  5
E0DB
330
1F
100
AcDbEntity
  8
AM_2
100
AcDbLine
 10
378.2508217922842
 20
228.938981874729
 30
0.0
 11
376.5439002473959
 21
227.7246609865175
 31
0.0
  0
LINE
  5
E0DC
330
1F
100
AcDbEntity
  8
AM_2
100
AcDbLine
 10
378.2508217922842
 20
228.938981874729
 30
0.0
 11
376.16164488848
 21
229.0922667225165
 31
0.0
  0
MTEXT
  5
E3B4
330
1F
100
AcDbEntity
  8
AM_6
100
AcDbMText
 10
23.00000036764293
 20
257.1610000882972
 30
0.0
 40
3.2
 41
22.99999999999993
 71
     5
 72
     5
  1
セット部品
 73
     1
 44
1.0
1001
ACAD
1000
MTEXTBEGIN
1070
    73
1070
     1
1070
    44
1040
1.0
1070
    74
1070
     0
1000
MTEXTEND
1000
ACAD_MTEXT_DEFINED_HEIGHT_BEGIN
1070
    46
1040
7.013416674024666
1000
ACAD_MTEXT_DEFINED_HEIGHT_END
  0
LINE
  5
E3B5
330
1F
100
AcDbEntity
  8
AM_2
100
AcDbLine
 10
11.50000036764258
 20
260.5
 30
0.0
 11
91.38876442303812
 21
260.5
 31
0.0
  0
TEXT
  5
E3B6
330
1F
100
AcDbEntity
  8
AM_6
100
AcDbText
 10
34.50000036764267
 20
255.512999970568
 30
0.0
 40
3.2
  1
　締付ナット・スペーサー・ナット
 41
0.7
100
AcDbText
1001
ACAD
1000
ACAD_MTEXT_DEFINED_HEIGHT_BEGIN
1070
    46
1040
5.199999999999943
1000
ACAD_MTEXT_DEFINED_HEIGHT_END
  0
LINE
  5
E403
330
1F
100
AcDbEntity
  8
AM_5
100
AcDbLine
 10
346.5534324411223
 20
248.4618127996768
 30
0.0
 11
351.0457920298064
 21
252.416878884727
 31
0.0
  0
LINE
  5
E404
330
1F
100
AcDbEntity
  8
AM_5
100
AcDbLine
 10
351.0457920298064
 20
252.416878884727
 30
0.0
 11
359.8957920298063
 21
252.416878884727
 31
0.0
  0
LINE
  5
E405
330
1F
100
AcDbEntity
  8
AM_5
100
AcDbLine
 10
342.4253237981456
 20
244.8274326555835
 30
0.0
 11
345.0523020254943
 21
247.1402200200065
 31
0.0
  0
LWPOLYLINE
  5
E406
330
1F
100
AcDbEntity
  8
AM_5
100
AcDbPolyline
 90
        2
 70
     1
 43
0.5
 10
342.2376824961921
 20
244.6622335581248
 42
1.0
 10
342.6129651000991
 20
244.9926317530424
 42
1.0
  0
INSERT
  5
E407
330
1F
100
AcDbEntity
  8
AM_5
100
AcDbBlockReference
  2
GENDOT
 10
345.0523020254943
 20
247.1402200200065
 30
0.0
 41
2.000000000000011
 42
2.0
 43
2.0
 50
221.3606383212476
  0
MTEXT
  5
E408
330
1F
100
AcDbEntity
  8
AM_5
 62
     2
100
AcDbMText
 10
356.2207920298064
 20
255.666878884727
 30
0.0
 40
3.5
 41
0.0
 71
     5
 72
     1
  1
\U+22053.5
 73
     1
 44
1.0
1001
ACAD
1000
MTEXTBEGIN
1070
    73
1070
     1
1070
    44
1040
1.0
1070
    74
1070
     0
1000
MTEXTEND
  0
ENDSEC
  0
SECTION
  2
OBJECTS
  0
DICTIONARY
  5
C
330
0
100
AcDbDictionary
281
     1
  3
ACAD_2007HEADERVARS_RT
350
E424
  3
ACAD_BGPLOT_KEY
350
AB06
  3
ACAD_COLOR
350
A91D
  3
ACAD_GROUP
350
D
  3
ACAD_LAYOUT
350
1A
  3
ACAD_MATERIAL
350
A91C
  3
ACAD_MLEADERSTYLE
350
B595
  3
ACAD_MLINESTYLE
350
17
  3
ACAD_PLOTSETTINGS
350
19
  3
ACAD_PLOTSTYLENAME
350
E
  3
ACAD_SCALELIST
350
B573
  3
ACAD_TABLESTYLE
350
AAB9
  3
ACAD_VISUALSTYLE
350
B0F1
  3
AcAsAppObject
350
3DA1
  3
ACASGREF_MASTER
350
3DE9
  3
ACDB_RECOMPOSE_DATA
350
B5B7
  3
AcDbVariableDictionary
350
34
  3
AcmDictionary
350
47
  3
AD_GREF_MODULE
350
3DEA
  3
AD_MAPI_MODULE
350
3E06
  3
AMG
350
2B
  3
AMGSNAPSETTINGS
350
7D
  3
ASE_INDEX_DICTIONARY
350
B570
  3
DWGPROPS
350
E423
  3
MAPISURF_MODULE
350
3DEB
  0
DICTIONARY
  5
3F95
330
2
100
AcDbDictionary
280
     1
281
     1
  3
ACAD_LAYERFILTERS
360
B4F7
  3
ACAD_LAYERSTATES
360
3F96
  3
ACLYDICTIONARY
360
B4F6
  3
AMLAYER_GROUPCOLORS
360
AAB4
  0
DICTIONARY
  5
E250
330
10
100
AcDbDictionary
280
     1
281
     1
  3
ADSK_XREC_LAYER_RECONCILED
360
E251
  0
DICTIONARY
  5
E252
330
5F85
100
AcDbDictionary
280
     1
281
     1
  3
ADSK_XREC_LAYER_RECONCILED
360
E253
  0
DICTIONARY
  5
E254
330
AC9F
100
AcDbDictionary
280
     1
281
     1
  3
ADSK_XREC_LAYER_RECONCILED
360
E255
  0
DICTIONARY
  5
E256
330
ACA0
100
AcDbDictionary
280
     1
281
     1
  3
ADSK_XREC_LAYER_RECONCILED
360
E257
  0
DICTIONARY
  5
E258
330
ACA1
100
AcDbDictionary
280
     1
281
     1
  3
ADSK_XREC_LAYER_RECONCILED
360
E259
  0
DICTIONARY
  5
E25A
330
ACC8
100
AcDbDictionary
280
     1
281
     1
  3
ADSK_XREC_LAYER_RECONCILED
360
E25B
  0
DICTIONARY
  5
E25C
330
ACC9
100
AcDbDictionary
280
     1
281
     1
  3
ADSK_XREC_LAYER_RECONCILED
360
E25D
  0
DICTIONARY
  5
E25E
330
ACCA
100
AcDbDictionary
280
     1
281
     1
  3
ADSK_XREC_LAYER_RECONCILED
360
E25F
  0
DICTIONARY
  5
E260
330
AD60
100
AcDbDictionary
280
     1
281
     1
  3
ADSK_XREC_LAYER_RECONCILED
360
E261
  0
DICTIONARY
  5
E262
330
AD64
100
AcDbDictionary
280
     1
281
     1
  3
ADSK_XREC_LAYER_RECONCILED
360
E263
  0
DICTIONARY
  5
E264
330
AD67
100
AcDbDictionary
280
     1
281
     1
  3
ADSK_XREC_LAYER_RECONCILED
360
E265
  0
DICTIONARY
  5
E266
330
AD68
100
AcDbDictionary
280
     1
281
     1
  3
ADSK_XREC_LAYER_RECONCILED
360
E267
  0
DICTIONARY
  5
E268
330
AD69
100
AcDbDictionary
280
     1
281
     1
  3
ADSK_XREC_LAYER_RECONCILED
360
E269
  0
DICTIONARY
  5
E26A
330
AD6A
100
AcDbDictionary
280
     1
281
     1
  3
ADSK_XREC_LAYER_RECONCILED
360
E26B
  0
DICTIONARY
  5
E26E
330
AD6F
100
AcDbDictionary
280
     1
281
     1
  3
ADSK_XREC_LAYER_RECONCILED
360
E26F
  0
DICTIONARY
  5
E276
330
BEE7
100
AcDbDictionary
280
     1
281
     1
  3
ADSK_XREC_LAYER_RECONCILED
360
E277
  0
DICTIONARY
  5
E278
330
BEE8
100
AcDbDictionary
280
     1
281
     1
  3
ADSK_XREC_LAYER_RECONCILED
360
E279
  0
DICTIONARY
  5
E27A
330
BEE9
100
AcDbDictionary
280
     1
281
     1
  3
ADSK_XREC_LAYER_RECONCILED
360
E27B
  0
DICTIONARY
  5
E27C
330
BEEA
100
AcDbDictionary
280
     1
281
     1
  3
ADSK_XREC_LAYER_RECONCILED
360
E27D
  0
DICTIONARY
  5
E27E
330
BEEB
100
AcDbDictionary
280
     1
281
     1
  3
ADSK_XREC_LAYER_RECONCILED
360
E27F
  0
DICTIONARY
  5
E280
330
BEEC
100
AcDbDictionary
280
     1
281
     1
  3
ADSK_XREC_LAYER_RECONCILED
360
E281
  0
DICTIONARY
  5
E282
330
BEED
100
AcDbDictionary
280
     1
281
     1
  3
ADSK_XREC_LAYER_RECONCILED
360
E283
  0
DICTIONARY
  5
E284
330
BEEE
100
AcDbDictionary
280
     1
281
     1
  3
ADSK_XREC_LAYER_RECONCILED
360
E285
  0
DICTIONARY
  5
E286
330
BEEF
100
AcDbDictionary
280
     1
281
     1
  3
ADSK_XREC_LAYER_RECONCILED
360
E287
  0
DICTIONARY
  5
E28A
330
C54E
100
AcDbDictionary
280
     1
281
     1
  3
ADSK_XREC_LAYER_RECONCILED
360
E28B
  0
DICTIONARY
  5
8A
330
1F
100
AcDbDictionary
280
     1
281
     1
  3
ACAD_SORTENTS
360
B1BA
  0
DICTIONARY
  5
E424
102
{ACAD_REACTORS
330
C
102
}
330
C
100
AcDbDictionary
281
     1
  3
DIMARCSYM
350
E425
  0
DICTIONARY
  5
AB06
102
{ACAD_REACTORS
330
C
102
}
330
C
100
AcDbDictionary
280
     1
281
     1
  0
DICTIONARY
  5
A91D
102
{ACAD_REACTORS
330
C
102
}
330
C
100
AcDbDictionary
281
     1
  0
DICTIONARY
  5
D
102
{ACAD_REACTORS
330
C
102
}
330
C
100
AcDbDictionary
281
     1
  0
DICTIONARY
  5
1A
102
{ACAD_REACTORS
330
C
102
}
330
C
100
AcDbDictionary
281
     1
  3
Model
350
22
  3
ﾚｲｱｳﾄ1
350
1E
  3
ﾚｲｱｳﾄ2
350
26
  0
DICTIONARY
  5
A91C
102
{ACAD_REACTORS
330
C
102
}
330
C
100
AcDbDictionary
281
     1
  3
ByBlock
350
B0EF
  3
ByLayer
350
B0EE
  3
Global
350
B0F0
  0
DICTIONARY
  5
B595
102
{ACAD_REACTORS
330
C
102
}
330
C
100
AcDbDictionary
281
     1
  3
Standard
350
B596
  0
DICTIONARY
  5
17
102
{ACAD_REACTORS
330
C
102
}
330
C
100
AcDbDictionary
281
     1
  3
Standard
350
18
  0
DICTIONARY
  5
19
102
{ACAD_REACTORS
330
C
102
}
330
C
100
AcDbDictionary
281
     1
  0
ACDBDICTIONARYWDFLT
  5
E
102
{ACAD_REACTORS
330
C
102
}
330
C
100
AcDbDictionary
281
     1
  3
Normal
350
F
100
AcDbDictionaryWithDefault
340
F
  0
DICTIONARY
  5
B573
102
{ACAD_REACTORS
330
C
102
}
330
C
100
AcDbDictionary
281
     1
  3
A0
350
B574
  3
A1
350
B575
  3
A2
350
B576
  3
A3
350
B577
  3
A4
350
B578
  3
A5
350
B579
  3
A6
350
B57A
  3
A7
350
B57B
  3
A8
350
B57C
  3
A9
350
B57D
  3
B0
350
B57E
  3
B1
350
B57F
  3
B2
350
B580
  3
B3
350
B581
  3
B4
350
B582
  3
B5
350
B583
  3
B6
350
B584
  3
B7
350
B585
  3
B8
350
B586
  3
B9
350
B587
  3
C0
350
B588
  3
C1
350
B589
  3
C2
350
B58A
  3
C3
350
B58B
  3
C4
350
B58C
  3
C5
350
B58D
  3
C6
350
B58E
  3
C7
350
B58F
  3
C8
350
B590
  3
C9
350
B591
  3
D0
350
B592
  3
D1
350
B593
  3
D2
350
B594
  0
DICTIONARY
  5
AAB9
102
{ACAD_REACTORS
330
C
102
}
330
C
100
AcDbDictionary
281
     1
  3
Standard
350
AABA
  0
DICTIONARY
  5
B0F1
102
{ACAD_REACTORS
330
C
102
}
330
C
100
AcDbDictionary
281
     1
  3
2dWireframe
350
B0F7
  3
3D Hidden
350
B0F9
  3
3dWireframe
350
B0F8
  3
Basic
350
B0F6
  3
Brighten
350
B0FD
  3
ColorChange
350
B101
  3
Conceptual
350
B0FA
  3
Dim
350
B0FC
  3
Facepattern
350
B100
  3
Flat
350
B0F2
  3
FlatWithEdges
350
B0F3
  3
Gouraud
350
B0F4
  3
GouraudWithEdges
350
B0F5
  3
Linepattern
350
B0FF
  3
Realistic
350
B0FB
  3
Thicken
350
B0FE
  0
ACAD_PROXY_OBJECT
  5
3DA1
102
{ACAD_REACTORS
330
C
102
}
330
C
100
AcDbProxyObject
 90
      499
 91
      576
 95
   917527
 70
     0
 93
       10
310
407F
 94
        0
1001
ACAD
1000
AcRTDxfName
1000
ASAPP
  0
ACAD_PROXY_OBJECT
  5
3DE9
102
{ACAD_REACTORS
330
C
102
}
330
C
100
AcDbProxyObject
 90
      499
 91
      581
 95
   917527
 70
     0
 93
       34
310
010000407F
 94
        0
1001
ACAD
1000
AcRTDxfName
1000
ACASGREFMASTER
  0
XRECORD
  5
B5B7
102
{ACAD_REACTORS
330
C
102
}
330
C
100
AcDbXrecord
280
     1
 90
        1
330
AABA
  0
DICTIONARY
  5
34
102
{ACAD_REACTORS
330
C
102
}
330
C
100
AcDbDictionary
281
     1
  3
CANNOSCALE
350
B5BA
  3
CMLEADERSTYLE
350
B5B8
  3
CTABLESTYLE
350
AAF3
  3
DIMASSOC
350
A10C
  3
FIELDEVAL
350
AB07
  3
INDEXCTL
350
35
  3
LIGHTINGUNITS
350
B5BB
  3
MSLTSCALE
350
B5B9
  3
SORTENTS
350
194C
  0
DICTIONARY
  5
47
102
{ACAD_REACTORS
330
C
102
}
330
C
100
AcDbDictionary
281
     1
  3
AcmBOM
350
7E8
  3
AcmStdDictionary
350
4C
  3
AMDTSECTSYM_ARROWCOLOR
350
A929
  0
ACAD_PROXY_OBJECT
  5
3DEA
102
{ACAD_REACTORS
330
C
102
}
330
C
100
AcDbProxyObject
 90
      499
 91
      582
 95
   917527
 70
     0
 93
      114
310
00000043800000000000000000003F
 94
        0
1001
ACAD
1000
AcRTDxfName
1000
ACADGREFMODULE
  0
ACAD_PROXY_OBJECT
  5
3E06
102
{ACAD_REACTORS
330
C
102
}
330
C
100
AcDbProxyObject
 90
      499
 91
      594
 95
   917527
 70
     0
 93
       34
310
05000044FF
 94
        0
1001
ACAD
1000
AcRTDxfName
1000
MAPIADMODULE
  0
DICTIONARY
  5
2B
102
{ACAD_REACTORS
330
C
102
}
330
C
100
AcDbDictionary
281
     1
  0
DICTIONARY
  5
7D
102
{ACAD_REACTORS
330
C
102
}
330
C
100
AcDbDictionary
281
     1
  0
DICTIONARY
  5
B570
102
{ACAD_REACTORS
330
C
102
}
330
C
100
AcDbDictionary
281
     1
  3
ASEBlockHierarchyIndexRecord
350
B571
1001
DCO15
1040
1706332604.97
  0
XRECORD
  5
E423
102
{ACAD_REACTORS
330
C
102
}
330
C
100
AcDbXrecord
280
     1
  1
DWGPROPS COOKIE
  2

  3

  4

  6

  7

  8
Administrator
  9

300
AmdtFileType=84
301
=
302
=
303
=
304
=
305
=
306
=
307
=
308
=
309
=
 40
0.0465444212962963
 41
2456139.787518079
 42
2456266.809293067
  1

 90
        1
  0
ACAD_PROXY_OBJECT
  5
3DEB
102
{ACAD_REACTORS
330
C
102
}
330
C
100
AcDbProxyObject
 90
      499
 91
      583
 95
   917527
 70
     0
 93
        8
310
047E
 94
        0
1001
ACAD
1000
AcRTDxfName
1000
AMDTMAPISURFMOUDULE
  0
DICTIONARY
  5
B4F7
102
{ACAD_REACTORS
330
3F95
102
}
330
3F95
100
AcDbDictionary
281
     1
  0
DICTIONARY
  5
3F96
102
{ACAD_REACTORS
330
3F95
102
}
330
3F95
100
AcDbDictionary
281
     1
  3
20011210
350
3FB7
  0
DICTIONARY
  5
B4F6
102
{ACAD_REACTORS
330
3F95
102
}
330
3F95
100
AcDbDictionary
281
     1
1001
ACAD
1000
<All
  0
DICTIONARY
  5
AAB4
102
{ACAD_REACTORS
330
3F95
102
}
330
3F95
100
AcDbDictionary
280
     1
281
     1
  0
XRECORD
  5
E251
102
{ACAD_REACTORS
330
E250
102
}
330
E250
100
AcDbXrecord
280
     1
290
     1
  0
XRECORD
  5
E253
102
{ACAD_REACTORS
330
E252
102
}
330
E252
100
AcDbXrecord
280
     1
290
     1
  0
XRECORD
  5
E255
102
{ACAD_REACTORS
330
E254
102
}
330
E254
100
AcDbXrecord
280
     1
290
     1
  0
XRECORD
  5
E257
102
{ACAD_REACTORS
330
E256
102
}
330
E256
100
AcDbXrecord
280
     1
290
     1
  0
XRECORD
  5
E259
102
{ACAD_REACTORS
330
E258
102
}
330
E258
100
AcDbXrecord
280
     1
290
     1
  0
XRECORD
  5
E25B
102
{ACAD_REACTORS
330
E25A
102
}
330
E25A
100
AcDbXrecord
280
     1
290
     1
  0
XRECORD
  5
E25D
102
{ACAD_REACTORS
330
E25C
102
}
330
E25C
100
AcDbXrecord
280
     1
290
     1
  0
XRECORD
  5
E25F
102
{ACAD_REACTORS
330
E25E
102
}
330
E25E
100
AcDbXrecord
280
     1
290
     1
  0
XRECORD
  5
E261
102
{ACAD_REACTORS
330
E260
102
}
330
E260
100
AcDbXrecord
280
     1
290
     1
  0
XRECORD
  5
E263
102
{ACAD_REACTORS
330
E262
102
}
330
E262
100
AcDbXrecord
280
     1
290
     1
  0
XRECORD
  5
E265
102
{ACAD_REACTORS
330
E264
102
}
330
E264
100
AcDbXrecord
280
     1
290
     1
  0
XRECORD
  5
E267
102
{ACAD_REACTORS
330
E266
102
}
330
E266
100
AcDbXrecord
280
     1
290
     1
  0
XRECORD
  5
E269
102
{ACAD_REACTORS
330
E268
102
}
330
E268
100
AcDbXrecord
280
     1
290
     1
  0
XRECORD
  5
E26B
102
{ACAD_REACTORS
330
E26A
102
}
330
E26A
100
AcDbXrecord
280
     1
290
     1
  0
XRECORD
  5
E26F
102
{ACAD_REACTORS
330
E26E
102
}
330
E26E
100
AcDbXrecord
280
     1
290
     1
  0
XRECORD
  5
E277
102
{ACAD_REACTORS
330
E276
102
}
330
E276
100
AcDbXrecord
280
     1
290
     1
  0
XRECORD
  5
E279
102
{ACAD_REACTORS
330
E278
102
}
330
E278
100
AcDbXrecord
280
     1
290
     1
  0
XRECORD
  5
E27B
102
{ACAD_REACTORS
330
E27A
102
}
330
E27A
100
AcDbXrecord
280
     1
290
     1
  0
XRECORD
  5
E27D
102
{ACAD_REACTORS
330
E27C
102
}
330
E27C
100
AcDbXrecord
280
     1
290
     1
  0
XRECORD
  5
E27F
102
{ACAD_REACTORS
330
E27E
102
}
330
E27E
100
AcDbXrecord
280
     1
290
     1
  0
XRECORD
  5
E281
102
{ACAD_REACTORS
330
E280
102
}
330
E280
100
AcDbXrecord
280
     1
290
     1
  0
XRECORD
  5
E283
102
{ACAD_REACTORS
330
E282
102
}
330
E282
100
AcDbXrecord
280
     1
290
     1
  0
XRECORD
  5
E285
102
{ACAD_REACTORS
330
E284
102
}
330
E284
100
AcDbXrecord
280
     1
290
     1
  0
XRECORD
  5
E287
102
{ACAD_REACTORS
330
E286
102
}
330
E286
100
AcDbXrecord
280
     1
290
     1
  0
XRECORD
  5
E28B
102
{ACAD_REACTORS
330
E28A
102
}
330
E28A
100
AcDbXrecord
280
     1
290
     1
  0
SORTENTSTABLE
  5
B1BA
102
{ACAD_REACTORS
330
8A
102
}
330
8A
100
AcDbSortentsTable
330
1F
331
CB09
  5
CB0A
331
CAD2
  5
CAD3
331
C056
  5
C051
331
C017
  5
C011
331
E008
  5
E009
331
CB11
  5
CB17
331
C05E
  5
C059
331
CB19
  5
CB1A
331
CAE2
  5
CAE3
331
C1FD
  5
C2EE
331
C027
  5
C022
331
C066
  5
C061
331
E048
  5
E049
331
CAAB
  5
CAAC
331
BF99
  5
BF91
331
C02F
  5
C02A
331
BFE0
  5
BFD8
331
B9F6
  5
B9F6
331
BFA1
  5
BF99
331
BFA9
  5
BFA1
331
BFE8
  5
BFE0
331
BFF0
  5
BFE8
331
BA1E
  5
BA1E
331
BFB1
  5
BFA9
331
E050
  5
E051
331
CAF2
  5
CAF4
331
CAB3
  5
CAB4
331
C037
  5
C032
331
C3DC
  5
C402
331
CABB
  5
CABC
331
C03F
  5
C03A
331
CAC3
  5
CAC4
331
C047
  5
C042
331
BFF8
  5
BFF0
331
CACB
  5
CACC
331
BA26
  5
BA26
331
BFB9
  5
BFB1
331
C04F
  5
C04B
331
C000
  5
BFF8
331
BA36
  5
BA36
331
BFC1
  5
BFB9
331
C008
  5
C000
331
BFC9
  5
BFC1
331
BF92
  5
BF67
331
C010
  5
C009
331
CB0A
  5
CB0B
331
CAD3
  5
CAD4
331
C057
  5
C052
331
C018
  5
C012
331
E009
  5
E045
331
C05F
  5
C05A
331
C020
  5
C01B
331
CB1A
  5
D50B
331
CAE3
  5
CAE4
331
C067
  5
C062
331
C028
  5
C023
331
BFD9
  5
BFD1
331
E049
  5
E04A
331
CAEB
  5
CAEC
331
CAAC
  5
CAAD
331
BF9A
  5
BF92
331
BFE1
  5
BFD9
331
B9F7
  5
B9F7
331
BFA2
  5
BF9A
331
BA17
  5
BA17
331
BFAA
  5
BFA2
331
BFE9
  5
BFE1
331
BFF1
  5
BFE9
331
BA1F
  5
BA1F
331
BFB2
  5
BFAA
331
C030
  5
C02B
331
E051
  5
E052
331
CAB4
  5
CAB5
331
C038
  5
C033
331
CABC
  5
CABD
331
C040
  5
C03B
331
DED2
  5
DED3
331
C197
  5
C270
331
C048
  5
C043
331
C2EE
  5
C382
331
CAC4
  5
CAC5
331
BFF9
  5
BFF1
331
BFBA
  5
BFB2
331
CACC
  5
CACD
331
C001
  5
BFF9
331
BFC2
  5
BFBA
331
C009
  5
C001
331
BFCA
  5
BFC2
331
BF93
  5
BF6F
331
BFD2
  5
BFCA
331
C011
  5
C00A
331
CB0B
  5
CB0C
331
CAD4
  5
CAD5
331
C058
  5
C053
331
C9D5
  5
CAA9
331
C060
  5
C05B
331
C021
  5
C01C
331
CAE4
  5
CAE6
331
C068
  5
C06C
331
C029
  5
C024
331
E04A
  5
E04B
331
CAEC
  5
CAED
331
CAAD
  5
CAAE
331
B9F0
  5
B9F0
331
BF9B
  5
BF93
331
BFE2
  5
BFDA
331
BFA3
  5
BF9B
331
BA18
  5
BA18
331
BFAB
  5
BFA3
331
BFEA
  5
BFE2
331
BFF2
  5
BFEA
331
BFB3
  5
BFAB
331
C031
  5
C02C
331
E052
  5
E053
331
D50B
  5
D50C
331
CAF4
  5
CAF8
331
CAB5
  5
CAB6
331
C178
  5
C1FD
331
C039
  5
C034
331
CABD
  5
CABE
331
C041
  5
C03C
331
CAC5
  5
CAC6
331
BA20
  5
BA20
331
C049
  5
C044
331
BFFA
  5
BFF2
331
CACD
  5
CACE
331
BFBB
  5
BFB3
331
C002
  5
BFFA
331
BFC3
  5
BFBB
331
C00A
  5
C002
331
BFD3
  5
BFCB
331
C051
  5
C04C
331
C012
  5
C00B
331
CB0C
  5
CB0D
331
CAD5
  5
CAD8
331
C059
  5
C054
331
E0C2
  5
E0C4
331
C061
  5
C05C
331
E0DA
  5
E0DB
331
C069
  5
C06D
331
C02A
  5
C025
331
E04B
  5
E04C
331
CAED
  5
CAEE
331
CAAE
  5
CAAF
331
B9F1
  5
B9F1
331
BFE3
  5
BFDB
331
BA19
  5
BA19
331
BFEB
  5
BFE3
331
BFF3
  5
BFEB
331
C270
  5
C332
331
C032
  5
C02D
331
E053
  5
E054
331
D50C
  5
D50D
331
CAB6
  5
CAB7
331
C03A
  5
C035
331
CAFD
  5
CAFE
331
CABE
  5
CABF
331
C042
  5
C03D
331
DED4
  5
DED5
331
CAC6
  5
CAC7
331
BA21
  5
BA21
331
C04A
  5
C045
331
CACE
  5
CACF
331
BFFB
  5
BFF3
331
C003
  5
BFFB
331
C00B
  5
C004
331
BFCC
  5
BFC4
331
BF95
  5
BF7F
331
BFD4
  5
BFCC
331
C052
  5
C04D
331
C013
  5
C00C
331
CB0D
  5
CB0E
331
C05A
  5
C055
331
C01B
  5
C015
331
C062
  5
C05D
331
E0C3
  5
E0C5
331
CAE6
  5
CAE8
331
C06A
  5
C197
331
C02B
  5
C026
331
E0DB
  5
E0DC
331
BFDC
  5
BFD4
331
E04C
  5
E04D
331
CAEE
  5
CAEF
331
CAAF
  5
CAB0
331
B9F2
  5
B9F2
331
BF9D
  5
BF95
331
BFE4
  5
BFDC
331
BFA5
  5
BF9D
331
BA1A
  5
BA1A
331
BFAD
  5
BFA5
331
BFEC
  5
BFE4
331
BFF4
  5
BFEC
331
BFB5
  5
BFAD
331
C033
  5
C02E
331
E054
  5
E08E
331
D50D
  5
D50E
331
CAB7
  5
CAB8
331
C400
  5
C433
331
C03B
  5
C036
331
CAFE
  5
CAFF
331
DECD
  5
DECE
331
CABF
  5
CAC0
331
C043
  5
C03E
331
CB06
  5
CB07
331
DED5
  5
DED7
331
CAC7
  5
CAC8
331
BA22
  5
BA22
331
C04B
  5
C046
331
BFFC
  5
BFF4
331
CACF
  5
CAD0
331
BFBD
  5
BFB5
331
C004
  5
BFFC
331
BFC5
  5
BFBD
331
C00C
  5
C005
331
BF96
  5
BF87
331
BFD5
  5
BFCD
331
C053
  5
C04E
331
C014
  5
C00D
331
CB0E
  5
CB0F
331
C05B
  5
C056
331
C01C
  5
C018
331
C063
  5
C05E
331
C024
  5
C01F
331
E0C4
  5
E0C3
331
E045
  5
E046
331
C02C
  5
C027
331
E0DC
  5
E32F
331
BFDD
  5
BFD5
331
E04D
  5
E04E
331
CAEF
  5
CAF0
331
B9F3
  5
B9F3
331
BF9E
  5
BF96
331
BFE5
  5
BFDD
331
BFA6
  5
BF9E
331
BA1B
  5
BA1B
331
BFAE
  5
BFA6
331
BFED
  5
BFE5
331
BFF5
  5
BFED
331
BFB6
  5
BFAE
331
CAB0
  5
CAB1
331
C034
  5
C02F
331
D50E
  5
DECD
331
CAB8
  5
CAB9
331
C03C
  5
C037
331
C401
  5
C00E
331
CAFF
  5
CB01
331
CAC0
  5
CAC1
331
DECE
  5
DECF
331
C044
  5
C03F
331
CB07
  5
CB08
331
CAC8
  5
CACB
331
BA23
  5
BA23
331
C04C
  5
C047
331
BFFD
  5
BFF5
331
BFBE
  5
BFB6
331
C005
  5
BFFD
331
BFC6
  5
BFBE
331
C00D
  5
C007
331
BFCE
  5
BFC6
331
BF97
  5
BF8F
331
BFD6
  5
BFCE
331
CAD0
  5
CAD1
331
C332
  5
C3AA
331
C054
  5
C04F
331
C015
  5
C00F
331
E006
  5
E007
331
CB0F
  5
CB10
331
CAD8
  5
CAD9
331
C35A
  5
C3DC
331
C1C3
  5
C2B4
331
C01D
  5
C019
331
C05C
  5
C057
331
CB17
  5
CB18
331
C064
  5
C05F
331
C025
  5
C020
331
C382
  5
C400
331
E0C5
  5
E0DA
331
E046
  5
E047
331
CAE8
  5
CAEB
331
CAA9
  5
CAAA
331
C02D
  5
C028
331
C3AA
  5
C401
331
BFDE
  5
BFD6
331
E04E
  5
E04F
331
B9F4
  5
B9F4
331
BF9F
  5
BF97
331
BFE6
  5
BFDE
331
BFA7
  5
BF9F
331
BA1C
  5
BA1C
331
BFAF
  5
BFA7
331
BFEE
  5
BFE6
331
BFF6
  5
BFEE
331
BFB7
  5
BFAF
331
CAF0
  5
CAF1
331
CAB1
  5
CAB2
331
C14C
  5
C1C3
331
C035
  5
C030
331
CAF8
  5
CAFD
331
CAB9
  5
CABA
331
C03D
  5
C038
331
C402
  5
C46D
331
CAC1
  5
CAC2
331
DECF
  5
DED0
331
C045
  5
C040
331
BA24
  5
BA24
331
DED7
  5
DED8
331
C04D
  5
C049
331
E08E
  5
E0C0
331
BFFE
  5
BFF6
331
BA34
  5
BA34
331
BFBF
  5
BFB7
331
BFC7
  5
BFBF
331
BFCF
  5
BFC7
331
BFD7
  5
BFCF
331
CB08
  5
CB09
331
CAD1
  5
CAD2
331
C055
  5
C050
331
C016
  5
C010
331
CB10
  5
CB11
331
CAD9
  5
CAE1
331
C05D
  5
C058
331
C01E
  5
C01A
331
CB18
  5
CB19
331
CAE1
  5
CAE2
331
C065
  5
C060
331
C026
  5
C021
331
E047
  5
E048
331
CAAA
  5
CAAB
331
C02E
  5
C029
331
BFDF
  5
BFD7
331
E04F
  5
E050
331
B9F5
  5
B9F5
331
BFE7
  5
BFDF
331
BA1D
  5
BA1D
331
BFEF
  5
BFE7
331
BFF7
  5
BFEF
331
CAF1
  5
CAF2
331
CAB2
  5
CAB3
331
C036
  5
C031
331
CABA
  5
CABB
331
C2B4
  5
C35A
331
C03E
  5
C039
331
CB01
  5
CB06
331
DED0
  5
DED2
331
CAC2
  5
CAC3
331
C046
  5
C041
331
C433
  5
C9D5
331
DED8
  5
E004
331
BA25
  5
BA25
331
C04E
  5
C04A
331
BFFF
  5
BFF7
331
BA35
  5
BA35
331
C00F
  5
C008
331
BFD0
  5
BFC8
  0
XRECORD
  5
E425
102
{ACAD_REACTORS
330
E424
102
}
330
E424
100
AcDbXrecord
280
     1
 70
     1
  0
LAYOUT
  5
22
102
{ACAD_XDICTIONARY
360
E428
102
}
102
{ACAD_REACTORS
330
1A
102
}
330
1A
100
AcDbPlotSettings
  1

  2
Adobe PDF
  4
A3
  6
AM_VIEW1
 40
3.174999952316284
 41
3.174999952316284
 42
3.17498779296875
 43
3.17498779296875
 44
297.0318298339844
 45
420.1583251953125
 46
-3.159078955650329
 47
-3.095831274986267
 48
0.0000000000000284
 49
0.0
140
420.0
141
297.0
142
1.0
143
1.0
 70
  3748
 72
     1
 73
     1
 74
     4
  7
monochrome.ctb
 75
     0
147
0.9787267410393917
148
-0.0000000000000284
149
0.0
100
AcDbLayout
  1
Model
 70
     1
 71
     0
 10
0.0
 20
0.0
 11
12.0
 21
9.0
 12
0.0
 22
0.0
 32
0.0
 14
0.0
 24
0.0
 34
0.0
 15
0.0
 25
0.0
 35
0.0
146
0.0
 13
0.0
 23
0.0
 33
0.0
 16
1.0
 26
0.0
 36
0.0
 17
0.0
 27
1.0
 37
0.0
 76
     0
330
1F
331
B0EC
1001
ACAD_PSEXT
1000
Adobe PDF
1000
Adobe PDF Converter
1000
My Documents\*.pdf
1000

1070
     0
  0
LAYOUT
  5
1E
102
{ACAD_XDICTIONARY
360
E426
102
}
102
{ACAD_REACTORS
330
1A
102
}
330
1A
100
AcDbPlotSettings
  1

  2
\\ML370\XEROX
  4
A4
  6

 40
3.174999952316284
 41
3.174999952316284
 42
3.175003051757812
 43
3.17498779296875
 44
209.8674926757813
 45
296.6719970703125
 46
0.0
 47
0.0
 48
0.0
 49
0.0
140
0.0
141
0.0
142
1.0
143
1.0
 70
   688
 72
     1
 73
     1
 74
     5
  7
monochrome.ctb
 75
    16
147
1.0
148
0.0
149
0.0
100
AcDbLayout
  1
ﾚｲｱｳﾄ1
 70
     1
 71
     1
 10
-3.17498779296875
 20
-3.174999952316284
 11
293.4970092773438
 21
206.692492723465
 12
0.0
 22
0.0
 32
0.0
 14
1.000000000000000E+20
 24
1.000000000000000E+20
 34
1.000000000000000E+20
 15
-1.000000000000000E+20
 25
-1.000000000000000E+20
 35
-1.000000000000000E+20
146
0.0
 13
0.0
 23
0.0
 33
0.0
 16
1.0
 26
0.0
 36
0.0
 17
0.0
 27
1.0
 37
0.0
 76
     0
330
1B
  0
LAYOUT
  5
26
102
{ACAD_XDICTIONARY
360
E42A
102
}
102
{ACAD_REACTORS
330
1A
102
}
330
1A
100
AcDbPlotSettings
  1

  2
\\ML370\XEROX
  4

  6

 40
0.0
 41
0.0
 42
0.0
 43
0.0
 44
0.0
 45
0.0
 46
0.0
 47
0.0
 48
0.0
 49
0.0
140
0.0
141
0.0
142
1.0
143
1.0
 70
   688
 72
     0
 73
     0
 74
     5
  7
monochrome.ctb
 75
    16
147
1.0
148
0.0
149
0.0
100
AcDbLayout
  1
ﾚｲｱｳﾄ2
 70
     1
 71
     2
 10
0.0
 20
0.0
 11
12.0
 21
9.0
 12
0.0
 22
0.0
 32
0.0
 14
0.0
 24
0.0
 34
0.0
 15
0.0
 25
0.0
 35
0.0
146
0.0
 13
0.0
 23
0.0
 33
0.0
 16
1.0
 26
0.0
 36
0.0
 17
0.0
 27
1.0
 37
0.0
 76
     0
330
23
  0
MATERIAL
  5
B0EF
102
{ACAD_XDICTIONARY
360
E42F
102
}
102
{ACAD_REACTORS
330
A91C
102
}
330
A91C
100
AcDbMaterial
  1
ByBlock
  0
MATERIAL
  5
B0EE
102
{ACAD_XDICTIONARY
360
E42D
102
}
102
{ACAD_REACTORS
330
A91C
102
}
330
A91C
100
AcDbMaterial
  1
ByLayer
  0
MATERIAL
  5
B0F0
102
{ACAD_XDICTIONARY
360
E431
102
}
102
{ACAD_REACTORS
330
A91C
102
}
330
A91C
100
AcDbMaterial
  1
Global
  0
ACAD_PROXY_OBJECT
  5
B596
102
{ACAD_REACTORS
330
B595
102
}
330
B595
100
AcDbProxyObject
 90
      499
 91
      626
 95
  1703963
 70
     0
 93
      817
310
40901902A40600000030400FEFFFFFF8000000000000008102B5E8DC0F42B5CFC0000000000001040405064068000000C1000000000000000410000000000000004102000000304015D94000000000000C03F4214C01D0018401B80190018401C80190028C00CC
340
14
340
0
340
11
340
0
 94
        0
1001
ACAD_MLEADERVER
1070
     2
1001
ACAD
1000
AcRTDxfName
1000
MLEADERSTYLE
  0
MLINESTYLE
  5
18
102
{ACAD_REACTORS
330
17
102
}
330
17
100
AcDbMlineStyle
  2
STANDARD
 70
     0
  3

 62
   256
 51
90.0
 52
90.0
 71
     2
 49
0.5
 62
   256
  6
BYLAYER
 49
-0.5
 62
   256
  6
BYLAYER
  0
ACDBPLACEHOLDER
  5
F
102
{ACAD_REACTORS
330
E
102
}
330
E
  0
ACAD_PROXY_OBJECT
  5
B574
102
{ACAD_REACTORS
330
B573
102
}
330
B573
100
AcDbProxyObject
 90
      499
 91
      625
 95
  1703963
 70
     0
 93
       82
310
968198801D0018801D004C
 94
        0
1001
ACAD
1000
AcRTDxfName
1000
SCALE
  0
ACAD_PROXY_OBJECT
  5
B575
102
{ACAD_REACTORS
330
B573
102
}
330
B573
100
AcDbProxyObject
 90
      499
 91
      625
 95
  1703963
 70
     0
 93
      146
310
9000000000000001008198801D0019001D004C
 94
        0
1001
ACAD
1000
AcRTDxfName
1000
SCALE
  0
ACAD_PROXY_OBJECT
  5
B576
102
{ACAD_REACTORS
330
B573
102
}
330
B573
100
AcDbProxyObject
 90
      499
 91
      625
 95
  1703963
 70
     0
 93
      146
310
9000000000000041008198801D001A001D004C
 94
        0
1001
ACAD
1000
AcRTDxfName
1000
SCALE
  0
ACAD_PROXY_OBJECT
  5
B577
102
{ACAD_REACTORS
330
B573
102
}
330
B573
100
AcDbProxyObject
 90
      499
 91
      625
 95
  1703963
 70
     0
 93
      146
310
9000000000000051008198801D001A801D004C
 94
        0
1001
ACAD
1000
AcRTDxfName
1000
SCALE
  0
ACAD_PROXY_OBJECT
  5
B578
102
{ACAD_REACTORS
330
B573
102
}
330
B573
100
AcDbProxyObject
 90
      499
 91
      625
 95
  1703963
 70
     0
 93
      146
310
9000000000000081008198801D001C001D004C
 94
        0
1001
ACAD
1000
AcRTDxfName
1000
SCALE
  0
ACAD_PROXY_OBJECT
  5
B579
102
{ACAD_REACTORS
330
B573
102
}
330
B573
100
AcDbProxyObject
 90
      499
 91
      625
 95
  1703963
 70
     0
 93
      162
310
9000000000000091008218801D001880180025004C
 94
        0
1001
ACAD
1000
AcRTDxfName
1000
SCALE
  0
ACAD_PROXY_OBJECT
  5
B57A
102
{ACAD_REACTORS
330
B573
102
}
330
B573
100
AcDbProxyObject
 90
      499
 91
      625
 95
  1703963
 70
     0
 93
      162
310
90000000000000C1008218801D0018801B0025004C
 94
        0
1001
ACAD
1000
AcRTDxfName
1000
SCALE
  0
ACAD_PROXY_OBJECT
  5
B57B
102
{ACAD_REACTORS
330
B573
102
}
330
B573
100
AcDbProxyObject
 90
      499
 91
      625
 95
  1703963
 70
     0
 93
      162
310
90000000000000D1008218801D001900180025004C
 94
        0
1001
ACAD
1000
AcRTDxfName
1000
SCALE
  0
ACAD_PROXY_OBJECT
  5
B57C
102
{ACAD_REACTORS
330
B573
102
}
330
B573
100
AcDbProxyObject
 90
      499
 91
      625
 95
  1703963
 70
     0
 93
      162
310
90000000000000F9008218801D001980180025004C
 94
        0
1001
ACAD
1000
AcRTDxfName
1000
SCALE
  0
ACAD_PROXY_OBJECT
  5
B57D
102
{ACAD_REACTORS
330
B573
102
}
330
B573
100
AcDbProxyObject
 90
      499
 91
      625
 95
  1703963
 70
     0
 93
      162
310
9000000000000111008218801D001A00180025004C
 94
        0
1001
ACAD
1000
AcRTDxfName
1000
SCALE
  0
ACAD_PROXY_OBJECT
  5
B57E
102
{ACAD_REACTORS
330
B573
102
}
330
B573
100
AcDbProxyObject
 90
      499
 91
      625
 95
  1703963
 70
     0
 93
      162
310
9000000000000125008218801D001A80180025004C
 94
        0
1001
ACAD
1000
AcRTDxfName
1000
SCALE
  0
ACAD_PROXY_OBJECT
  5
B57F
102
{ACAD_REACTORS
330
B573
102
}
330
B573
100
AcDbProxyObject
 90
      499
 91
      625
 95
  1703963
 70
     0
 93
      178
310
9000000000000165008298801D001880180018002D004C
 94
        0
1001
ACAD
1000
AcRTDxfName
1000
SCALE
  0
ACAD_PROXY_OBJECT
  5
B580
102
{ACAD_REACTORS
330
B573
102
}
330
B573
100
AcDbProxyObject
 90
      499
 91
      625
 95
  1703963
 70
     0
 93
      146
310
8000000000000004048199001D0018801D004C
 94
        0
1001
ACAD
1000
AcRTDxfName
1000
SCALE
  0
ACAD_PROXY_OBJECT
  5
B581
102
{ACAD_REACTORS
330
B573
102
}
330
B573
100
AcDbProxyObject
 90
      499
 91
      625
 95
  1703963
 70
     0
 93
      146
310
800000000000010404819A001D0018801D004C
 94
        0
1001
ACAD
1000
AcRTDxfName
1000
SCALE
  0
ACAD_PROXY_OBJECT
  5
B582
102
{ACAD_REACTORS
330
B573
102
}
330
B573
100
AcDbProxyObject
 90
      499
 91
      625
 95
  1703963
 70
     0
 93
      146
310
800000000000020404819C001D0018801D004C
 94
        0
1001
ACAD
1000
AcRTDxfName
1000
SCALE
  0
ACAD_PROXY_OBJECT
  5
B583
102
{ACAD_REACTORS
330
B573
102
}
330
B573
100
AcDbProxyObject
 90
      499
 91
      625
 95
  1703963
 70
     0
 93
      162
310
80000000000002440482188018001D00188025004C
 94
        0
1001
ACAD
1000
AcRTDxfName
1000
SCALE
  0
ACAD_PROXY_OBJECT
  5
B584
102
{ACAD_REACTORS
330
B573
102
}
330
B573
100
AcDbProxyObject
 90
      499
 91
      625
 95
  1703963
 70
     0
 93
      178
310
800000000000059404829880180018001D0018802D004C
 94
        0
1001
ACAD
1000
AcRTDxfName
1000
SCALE
  0
ACAD_PROXY_OBJECT
  5
B585
102
{ACAD_REACTORS
330
B573
102
}
330
B573
100
AcDbProxyObject
 90
      499
 91
      625
 95
  1703963
 70
     0
 93
      386
310
8000000000000803F0000000000000A1008718801780188019001C00110010001E8010001880138016801800110075004C
 94
        0
1001
ACAD
1000
AcRTDxfName
1000
SCALE
  0
ACAD_PROXY_OBJECT
  5
B586
102
{ACAD_REACTORS
330
B573
102
}
330
B573
100
AcDbProxyObject
 90
      499
 91
      625
 95
  1703963
 70
     0
 93
      370
310
8000000000000903F0000000000000A10086988017801B001A00110010001E801000188013801680180011006D004C
 94
        0
1001
ACAD
1000
AcRTDxfName
1000
SCALE
  0
ACAD_PROXY_OBJECT
  5
B587
102
{ACAD_REACTORS
330
B573
102
}
330
B573
100
AcDbProxyObject
 90
      499
 91
      625
 95
  1703963
 70
     0
 93
      370
310
8000000000000A03F0000000000000A100869880178019801900110010001E801000188013801680180011006D004C
 94
        0
1001
ACAD
1000
AcRTDxfName
1000
SCALE
  0
ACAD_PROXY_OBJECT
  5
B588
102
{ACAD_REACTORS
330
B573
102
}
330
B573
100
AcDbProxyObject
 90
      499
 91
      625
 95
  1703963
 70
     0
 93
      370
310
8000000000000B03F0000000000000A100869880178018801B00110010001E801000188013801680180011006D004C
 94
        0
1001
ACAD
1000
AcRTDxfName
1000
SCALE
  0
ACAD_PROXY_OBJECT
  5
B589
102
{ACAD_REACTORS
330
B573
102
}
330
B573
100
AcDbProxyObject
 90
      499
 91
      625
 95
  1703963
 70
     0
 93
      370
310
8000000000000B83F0000000000000A100869980178019801900110010001E801000188013801680180011006D004C
 94
        0
1001
ACAD
1000
AcRTDxfName
1000
SCALE
  0
ACAD_PROXY_OBJECT
  5
B58A
102
{ACAD_REACTORS
330
B573
102
}
330
B573
100
AcDbProxyObject
 90
      499
 91
      625
 95
  1703963
 70
     0
 93
      354
310
8000000000000C03F0000000000000A10086188017801C00110010001E8010001880138016801800110065004C
 94
        0
1001
ACAD
1000
AcRTDxfName
1000
SCALE
  0
ACAD_PROXY_OBJECT
  5
B58B
102
{ACAD_REACTORS
330
B573
102
}
330
B573
100
AcDbProxyObject
 90
      499
 91
      625
 95
  1703963
 70
     0
 93
      370
310
8000000000000C83F0000000000000A100869980178018801B00110010001E801000188013801680180011006D004C
 94
        0
1001
ACAD
1000
AcRTDxfName
1000
SCALE
  0
ACAD_PROXY_OBJECT
  5
B58C
102
{ACAD_REACTORS
330
B573
102
}
330
B573
100
AcDbProxyObject
 90
      499
 91
      625
 95
  1703963
 70
     0
 93
      354
310
8000000000000D03F0000000000000A10086188017801A00110010001E8010001880138016801800110065004C
 94
        0
1001
ACAD
1000
AcRTDxfName
1000
SCALE
  0
ACAD_PROXY_OBJECT
  5
B58D
102
{ACAD_REACTORS
330
B573
102
}
330
B573
100
AcDbProxyObject
 90
      499
 91
      625
 95
  1703963
 70
     0
 93
      354
310
8000000000000D83F0000000000000A10086198017801C00110010001E8010001880138016801800110065004C
 94
        0
1001
ACAD
1000
AcRTDxfName
1000
SCALE
  0
ACAD_PROXY_OBJECT
  5
B58E
102
{ACAD_REACTORS
330
B573
102
}
330
B573
100
AcDbProxyObject
 90
      499
 91
      625
 95
  1703963
 70
     0
 93
      354
310
8000000000000E03F0000000000000A10086188017801900110010001E8010001880138016801800110065004C
 94
        0
1001
ACAD
1000
AcRTDxfName
1000
SCALE
  0
ACAD_PROXY_OBJECT
  5
B58F
102
{ACAD_REACTORS
330
B573
102
}
330
B573
100
AcDbProxyObject
 90
      499
 91
      625
 95
  1703963
 70
     0
 93
      354
310
8000000000000E83F0000000000000A10086198017801A00110010001E8010001880138016801800110065004C
 94
        0
1001
ACAD
1000
AcRTDxfName
1000
SCALE
  0
ACAD_PROXY_OBJECT
  5
B590
102
{ACAD_REACTORS
330
B573
102
}
330
B573
100
AcDbProxyObject
 90
      499
 91
      625
 95
  1703963
 70
     0
 93
      258
310
90000000000000A100851880110010001E8010001880138016801800110055004C
 94
        0
1001
ACAD
1000
AcRTDxfName
1000
SCALE
  0
ACAD_PROXY_OBJECT
  5
B591
102
{ACAD_REACTORS
330
B573
102
}
330
B573
100
AcDbProxyObject
 90
      499
 91
      625
 95
  1703963
 70
     0
 93
      386
310
8000000000000F83F0000000000000A1008718801680188017801900110010001E8010001880138016801800110075004C
 94
        0
1001
ACAD
1000
AcRTDxfName
1000
SCALE
  0
ACAD_PROXY_OBJECT
  5
B592
102
{ACAD_REACTORS
330
B573
102
}
330
B573
100
AcDbProxyObject
 90
      499
 91
      625
 95
  1703963
 70
     0
 93
      322
310
800000000000008400000000000000A100851980110010001E8010001880138016801800110055004C
 94
        0
1001
ACAD
1000
AcRTDxfName
1000
SCALE
  0
ACAD_PROXY_OBJECT
  5
B593
102
{ACAD_REACTORS
330
B573
102
}
330
B573
100
AcDbProxyObject
 90
      499
 91
      625
 95
  1703963
 70
     0
 93
      322
310
800000000000018400000000000000A100851B00110010001E8010001880138016801800110055004C
 94
        0
1001
ACAD
1000
AcRTDxfName
1000
SCALE
  0
ACAD_PROXY_OBJECT
  5
B594
102
{ACAD_REACTORS
330
B573
102
}
330
B573
100
AcDbProxyObject
 90
      499
 91
      625
 95
  1703963
 70
     0
 93
      370
310
800000000000028400000000000000A100869880138016801800110010001E801000188013801680180011006D004C
 94
        0
1001
ACAD
1000
AcRTDxfName
1000
SCALE
  0
TABLESTYLE
  5
AABA
102
{ACAD_XDICTIONARY
360
B5B5
102
}
102
{ACAD_REACTORS
330
AAB9
102
}
330
AAB9
100
AcDbTableStyle
  3
Standard
 70
     0
 71
     0
 40
1.5
 41
1.5
280
     0
281
     0
  7
STANDARD
140
4.5
170
     2
 62
     0
 63
     7
283
     0
274
    -2
284
     1
 64
     0
275
    -2
285
     1
 65
     0
276
    -2
286
     1
 66
     0
277
    -2
287
     1
 67
     0
278
    -2
288
     1
 68
     0
279
    -2
289
     1
 69
     0
  7
STANDARD
140
6.0
170
     5
 62
     0
 63
     7
283
     0
274
    -2
284
     1
 64
     0
275
    -2
285
     1
 65
     0
276
    -2
286
     1
 66
     0
277
    -2
287
     1
 67
     0
278
    -2
288
     1
 68
     0
279
    -2
289
     1
 69
     0
  7
STANDARD
140
4.5
170
     5
 62
     0
 63
     7
283
     0
274
    -2
284
     1
 64
     0
275
    -2
285
     1
 65
     0
276
    -2
286
     1
 66
     0
277
    -2
287
     1
 67
     0
278
    -2
288
     1
 68
     0
279
    -2
289
     1
 69
     0
  0
VISUALSTYLE
  5
B0F7
102
{ACAD_REACTORS
330
B0F1
102
}
330
B0F1
100
AcDbVisualStyle
  2
2dWireframe
 70
     4
 71
     0
 72
     2
 73
     0
 90
        0
 40
-0.6
 41
-30.0
 62
     5
 63
     7
 74
     1
 91
        4
 64
     7
 65
   257
 75
     1
175
     1
 42
1.0
 92
        0
 66
   257
 43
1.0
 76
     1
 77
     6
 78
     2
 67
     7
 79
     5
170
     0
171
     0
290
     0
174
     0
 93
        1
 44
0.0
173
     0
291
     0
 45
0.0
1001
ACAD
1000
AcDbSavedByObjectVersion
1070
     0
  0
VISUALSTYLE
  5
B0F9
102
{ACAD_REACTORS
330
B0F1
102
}
330
B0F1
100
AcDbVisualStyle
  2
3D Hidden
 70
     6
 71
     1
 72
     2
 73
     2
 90
        0
 40
-0.6
 41
-30.0
 62
     5
 63
     7
 74
     2
 91
        2
 64
     7
 65
   257
 75
     2
175
     1
 42
40.0
 92
        0
 66
   257
 43
1.0
 76
     1
 77
     6
 78
     2
 67
     7
 79
     3
170
     0
171
     0
290
     0
174
     0
 93
        1
 44
0.0
173
     0
291
     0
 45
0.0
1001
ACAD
1000
AcDbSavedByObjectVersion
1070
     0
  0
VISUALSTYLE
  5
B0F8
102
{ACAD_REACTORS
330
B0F1
102
}
330
B0F1
100
AcDbVisualStyle
  2
3dWireframe
 70
     5
 71
     0
 72
     2
 73
     0
 90
        0
 40
-0.6
 41
-30.0
 62
     5
 63
     7
 74
     1
 91
        4
 64
     7
 65
   257
 75
     1
175
     1
 42
1.0
 92
        0
 66
   257
 43
1.0
 76
     1
 77
     6
 78
     2
 67
     7
 79
     5
170
     0
171
     0
290
     0
174
     0
 93
        1
 44
0.0
173
     0
291
     0
 45
0.0
1001
ACAD
1000
AcDbSavedByObjectVersion
1070
     0
  0
VISUALSTYLE
  5
B0F6
102
{ACAD_REACTORS
330
B0F1
102
}
330
B0F1
100
AcDbVisualStyle
  2
Basic
 70
     7
 71
     1
 72
     0
 73
     1
 90
        0
 40
-0.6
 41
-30.0
 62
     5
 63
     7
 74
     0
 91
        4
 64
     7
 65
   257
 75
     1
175
     1
 42
1.0
 92
        8
 66
     7
 43
1.0
 76
     1
 77
     6
 78
     2
 67
     7
 79
     5
170
     0
171
     0
290
     0
174
     0
 93
        1
 44
0.0
173
     0
291
     1
 45
0.0
1001
ACAD
1000
AcDbSavedByObjectVersion
1070
     0
  0
VISUALSTYLE
  5
B0FD
102
{ACAD_REACTORS
330
B0F1
102
}
330
B0F1
100
AcDbVisualStyle
  2
Brighten
 70
    12
 71
     2
 72
     2
 73
     0
 90
        0
 40
-0.6
 41
-30.0
 62
     5
 63
     7
 74
     1
 91
        4
 64
     7
 65
   257
 75
     1
175
     1
 42
1.0
 92
        8
 66
     7
 43
1.0
 76
     1
 77
     6
 78
     2
 67
     7
 79
     5
170
     0
171
     0
290
     0
174
     0
 93
        1
 44
50.0
173
     0
291
     1
 45
0.0
1001
ACAD
1000
AcDbSavedByObjectVersion
1070
     0
  0
VISUALSTYLE
  5
B101
102
{ACAD_REACTORS
330
B0F1
102
}
330
B0F1
100
AcDbVisualStyle
  2
ColorChange
 70
    16
 71
     2
 72
     2
 73
     3
 90
        0
 40
-0.6
 41
-30.0
 62
     5
 63
     8
 74
     1
 91
        4
 64
     7
 65
   257
 75
     1
175
     1
 42
1.0
 92
        8
 66
     8
 43
1.0
 76
     1
 77
     6
 78
     2
 67
     7
 79
     5
170
     0
171
     0
290
     0
174
     0
 93
        1
 44
0.0
173
     0
291
     1
 45
0.0
1001
ACAD
1000
AcDbSavedByObjectVersion
1070
     0
  0
VISUALSTYLE
  5
B0FA
102
{ACAD_REACTORS
330
B0F1
102
}
330
B0F1
100
AcDbVisualStyle
  2
Conceptual
 70
     9
 71
     3
 72
     2
 73
     0
 90
        0
 40
-0.6
 41
-30.0
 62
     5
 63
     7
 74
     2
 91
        2
 64
     7
 65
   257
 75
     1
175
     1
 42
40.0
 92
        8
 66
     7
 43
1.0
 76
     1
 77
     6
 78
     2
 67
     7
 79
     3
170
     0
171
     0
290
     0
174
     0
 93
        1
 44
0.0
173
     0
291
     0
 45
0.0
1001
ACAD
1000
AcDbSavedByObjectVersion
1070
     0
  0
VISUALSTYLE
  5
B0FC
102
{ACAD_REACTORS
330
B0F1
102
}
330
B0F1
100
AcDbVisualStyle
  2
Dim
 70
    11
 71
     2
 72
     2
 73
     0
 90
        0
 40
-0.6
 41
-30.0
 62
     5
 63
     7
 74
     1
 91
        4
 64
     7
 65
   257
 75
     1
175
     1
 42
1.0
 92
        8
 66
     7
 43
1.0
 76
     1
 77
     6
 78
     2
 67
     7
 79
     5
170
     0
171
     0
290
     0
174
     0
 93
        1
 44
-50.0
173
     0
291
     1
 45
0.0
1001
ACAD
1000
AcDbSavedByObjectVersion
1070
     0
  0
VISUALSTYLE
  5
B100
102
{ACAD_REACTORS
330
B0F1
102
}
330
B0F1
100
AcDbVisualStyle
  2
Facepattern
 70
    15
 71
     2
 72
     2
 73
     0
 90
        0
 40
-0.6
 41
-30.0
 62
     5
 63
     7
 74
     1
 91
        4
 64
     7
 65
   257
 75
     1
175
     1
 42
1.0
 92
        8
 66
     7
 43
1.0
 76
     1
 77
     6
 78
     2
 67
     7
 79
     5
170
     0
171
     0
290
     0
174
     0
 93
        1
 44
0.0
173
     0
291
     1
 45
0.0
1001
ACAD
1000
AcDbSavedByObjectVersion
1070
     0
  0
VISUALSTYLE
  5
B0F2
102
{ACAD_REACTORS
330
B0F1
102
}
330
B0F1
100
AcDbVisualStyle
  2
Flat
 70
     0
 71
     2
 72
     1
 73
     1
 90
        2
 40
-0.6
 41
30.0
 62
     5
 63
     7
 74
     0
 91
        4
 64
     7
 65
   257
 75
     1
175
     1
 42
1.0
 92
        8
 66
     7
 43
1.0
 76
     1
 77
     6
 78
     2
 67
     7
 79
     5
170
     0
171
     0
290
     0
174
     0
 93
       13
 44
0.0
173
     0
291
     1
 45
0.0
1001
ACAD
1000
AcDbSavedByObjectVersion
1070
     0
  0
VISUALSTYLE
  5
B0F3
102
{ACAD_REACTORS
330
B0F1
102
}
330
B0F1
100
AcDbVisualStyle
  2
FlatWithEdges
 70
     1
 71
     2
 72
     1
 73
     1
 90
        2
 40
-0.6
 41
30.0
 62
     5
 63
     7
 74
     1
 91
        4
 64
     7
 65
   257
 75
     1
175
     1
 42
1.0
 92
        0
 66
   257
 43
1.0
 76
     1
 77
     6
 78
     2
 67
     7
 79
     5
170
     0
171
     0
290
     0
174
     0
 93
       13
 44
0.0
173
     0
291
     1
 45
0.0
1001
ACAD
1000
AcDbSavedByObjectVersion
1070
     0
  0
VISUALSTYLE
  5
B0F4
102
{ACAD_REACTORS
330
B0F1
102
}
330
B0F1
100
AcDbVisualStyle
  2
Gouraud
 70
     2
 71
     2
 72
     2
 73
     1
 90
        2
 40
-0.6
 41
30.0
 62
     5
 63
     7
 74
     0
 91
        4
 64
     7
 65
   257
 75
     1
175
     1
 42
1.0
 92
        0
 66
     7
 43
1.0
 76
     1
 77
     6
 78
     2
 67
     7
 79
     5
170
     0
171
     0
290
     0
174
     0
 93
       13
 44
0.0
173
     0
291
     1
 45
0.0
1001
ACAD
1000
AcDbSavedByObjectVersion
1070
     0
  0
VISUALSTYLE
  5
B0F5
102
{ACAD_REACTORS
330
B0F1
102
}
330
B0F1
100
AcDbVisualStyle
  2
GouraudWithEdges
 70
     3
 71
     2
 72
     2
 73
     1
 90
        2
 40
-0.6
 41
30.0
 62
     5
 63
     7
 74
     1
 91
        4
 64
     7
 65
   257
 75
     1
175
     1
 42
1.0
 92
        0
 66
   257
 43
1.0
 76
     1
 77
     6
 78
     2
 67
     7
 79
     5
170
     0
171
     0
290
     0
174
     0
 93
       13
 44
0.0
173
     0
291
     1
 45
0.0
1001
ACAD
1000
AcDbSavedByObjectVersion
1070
     0
  0
VISUALSTYLE
  5
B0FF
102
{ACAD_REACTORS
330
B0F1
102
}
330
B0F1
100
AcDbVisualStyle
  2
Linepattern
 70
    14
 71
     2
 72
     2
 73
     0
 90
        0
 40
-0.6
 41
-30.0
 62
     5
 63
     7
 74
     1
 91
        4
 64
     7
 65
   257
 75
     7
175
     7
 42
1.0
 92
        8
 66
     7
 43
1.0
 76
     1
 77
     6
 78
     2
 67
     7
 79
     5
170
     0
171
     0
290
     0
174
     0
 93
        1
 44
0.0
173
     0
291
     1
 45
0.0
1001
ACAD
1000
AcDbSavedByObjectVersion
1070
     0
  0
VISUALSTYLE
  5
B0FB
102
{ACAD_REACTORS
330
B0F1
102
}
330
B0F1
100
AcDbVisualStyle
  2
Realistic
 70
     8
 71
     2
 72
     2
 73
     0
 90
        0
 40
-0.6
 41
-30.0
 62
     5
 63
     7
 74
     1
 91
        0
 64
     7
 65
   257
 75
     1
175
     1
 42
1.0
 92
        8
 66
     8
 43
1.0
 76
     1
 77
     6
 78
     2
 67
     7
 79
     5
170
     0
171
     0
290
     0
174
     0
 93
       13
 44
0.0
173
     0
291
     0
 45
0.0
1001
ACAD
1000
AcDbSavedByObjectVersion
1070
     0
  0
VISUALSTYLE
  5
B0FE
102
{ACAD_REACTORS
330
B0F1
102
}
330
B0F1
100
AcDbVisualStyle
  2
Thicken
 70
    13
 71
     2
 72
     2
 73
     0
 90
        0
 40
-0.6
 41
-30.0
 62
     5
 63
     7
 74
     1
 91
        4
 64
     7
 65
   257
 75
     1
175
     1
 42
1.0
 92
       12
 66
     7
 43
1.0
 76
     1
 77
     6
 78
     2
 67
     7
 79
     5
170
     0
171
     0
290
     0
174
     0
 93
        1
 44
0.0
173
     0
291
     1
 45
0.0
1001
ACAD
1000
AcDbSavedByObjectVersion
1070
     0
  0
DICTIONARYVAR
  5
B5BA
102
{ACAD_REACTORS
330
34
102
}
330
34
100
DictionaryVariables
280
     0
  1
1:1
  0
DICTIONARYVAR
  5
B5B8
102
{ACAD_REACTORS
330
34
102
}
330
34
100
DictionaryVariables
280
     0
  1
STANDARD
  0
DICTIONARYVAR
  5
AAF3
102
{ACAD_REACTORS
330
34
102
}
330
34
100
DictionaryVariables
280
     0
  1
STANDARD
  0
DICTIONARYVAR
  5
A10C
102
{ACAD_REACTORS
330
34
102
}
330
34
100
DictionaryVariables
280
     0
  1
1
  0
DICTIONARYVAR
  5
AB07
102
{ACAD_REACTORS
330
34
102
}
330
34
100
DictionaryVariables
280
     0
  1
4
  0
DICTIONARYVAR
  5
35
102
{ACAD_REACTORS
330
34
102
}
330
34
100
DictionaryVariables
280
     0
  1
0
  0
DICTIONARYVAR
  5
B5BB
102
{ACAD_REACTORS
330
34
102
}
330
34
100
DictionaryVariables
280
     0
  1
0
  0
DICTIONARYVAR
  5
B5B9
102
{ACAD_REACTORS
330
34
102
}
330
34
100
DictionaryVariables
280
     0
  1
0
  0
DICTIONARYVAR
  5
194C
102
{ACAD_REACTORS
330
34
102
}
330
34
100
DictionaryVariables
280
     0
  1
96
  0
DICTIONARY
  5
7E8
102
{ACAD_REACTORS
330
47
102
}
330
47
100
AcDbDictionary
281
     1
  0
DICTIONARY
  5
4C
102
{ACAD_REACTORS
330
47
102
}
330
47
100
AcDbDictionary
281
     1
  0
XRECORD
  5
A929
102
{ACAD_REACTORS
330
47
102
}
330
47
100
AcDbXrecord
280
     1
 90
-1023410169
  0
XRECORD
  5
B571
102
{ACAD_REACTORS
330
B570
102
}
330
B570
100
AcDbXrecord
280
     1
  0
XRECORD
  5
3FB7
102
{ACAD_REACTORS
330
3F96
102
}
330
3F96
100
AcDbXrecord
280
     1
 91
        3
330
0
 90
        8
 62
     7
370
    40
331
16
  1
Color_7
330
0
 90
        0
 62
    14
370
    -3
331
16
  1
Color_14
330
0
 90
        8
 62
     7
370
    20
331
16
  1
Color_7
330
6D1
 90
        0
 62
     7
370
    -3
331
16
  1
Color_7
330
0
 90
        8
 62
     7
370
    50
331
16
  1
Color_7
330
0
 90
        8
 62
     2
370
    35
331
16
  1
Color_2
330
0
 90
        8
 62
     7
370
    -3
331
16
  1
Color_7
330
10
 90
        8
 62
     7
370
    -3
331
16
  1
Color_7
  0
DICTIONARY
  5
E428
330
22
100
AcDbDictionary
280
     1
281
     1
  3
ACAD_XREC_ROUNDTRIP
360
E429
  0
DICTIONARY
  5
E426
330
1E
100
AcDbDictionary
280
     1
281
     1
  3
ACAD_XREC_ROUNDTRIP
360
E427
  0
DICTIONARY
  5
E42A
330
26
100
AcDbDictionary
280
     1
281
     1
  3
ACAD_XREC_ROUNDTRIP
360
E42B
  0
DICTIONARY
  5
E42F
330
B0EF
100
AcDbDictionary
280
     1
281
     1
  3
ACAD_XREC_ROUNDTRIP
360
E430
  0
DICTIONARY
  5
E42D
330
B0EE
100
AcDbDictionary
280
     1
281
     1
  3
ACAD_XREC_ROUNDTRIP
360
E42E
  0
DICTIONARY
  5
E431
330
B0F0
100
AcDbDictionary
280
     1
281
     1
  3
ACAD_XREC_ROUNDTRIP
360
E432
  0
DICTIONARY
  5
B5B5
330
AABA
100
AcDbDictionary
280
     1
281
     1
  3
ACAD_ROUNDTRIP_2008_TABLESTYLE_CELLSTYLEMAP
360
E3BF
  3
ACAD_XREC_ROUNDTRIP
360
E42C
  0
XRECORD
  5
E429
102
{ACAD_REACTORS
330
E428
102
}
330
E428
100
AcDbXrecord
280
     1
102
SHADEPLOT
 70
     0
102
SHADEPLOTRESLEVEL
 70
     2
102
SHADEPLOTCUSTOMDPI
 70
   200
  0
XRECORD
  5
E427
102
{ACAD_REACTORS
330
E426
102
}
330
E426
100
AcDbXrecord
280
     1
102
SHADEPLOT
 70
     0
102
SHADEPLOTRESLEVEL
 70
     2
102
SHADEPLOTCUSTOMDPI
 70
   300
  0
XRECORD
  5
E42B
102
{ACAD_REACTORS
330
E42A
102
}
330
E42A
100
AcDbXrecord
280
     1
102
SHADEPLOT
 70
     0
102
SHADEPLOTRESLEVEL
 70
     2
102
SHADEPLOTCUSTOMDPI
 70
   300
  0
XRECORD
  5
E430
102
{ACAD_REACTORS
330
E42F
102
}
330
E42F
100
AcDbXrecord
280
     1
102
MATERIAL
148
0.0
149
0.0
149
0.0
 93
        0
 94
       63
282
     0
 72
     1
 77
     1
171
     1
175
     1
179
     1
273
     0
  0
XRECORD
  5
E42E
102
{ACAD_REACTORS
330
E42D
102
}
330
E42D
100
AcDbXrecord
280
     1
102
MATERIAL
148
0.0
149
0.0
149
0.0
 93
        0
 94
       63
282
     0
 72
     1
 77
     1
171
     1
175
     1
179
     1
273
     0
  0
XRECORD
  5
E432
102
{ACAD_REACTORS
330
E431
102
}
330
E431
100
AcDbXrecord
280
     1
102
MATERIAL
148
0.0
149
0.0
149
0.0
 93
        0
 94
       63
282
     0
 72
     1
 77
     1
171
     1
175
     1
179
     1
273
     0
  0
ACAD_PROXY_OBJECT
  5
E3BF
102
{ACAD_REACTORS
330
B5B5
102
}
330
B5B5
100
AcDbProxyObject
 90
      499
 91
      628
 95
  1703963
 70
     0
 93
     5369
310
40D054060020000020000003200101A4129416000000304000000000000001840404000000000000F83F0000000000003E0FC000000000000F83F0000000000003E0FC0AD7A3703D0AC73F02B5E8DC0F42B1CFD0640640600000030400FEFFFFFF80AD7A3703D0AA73F40A40600000030400FEFFFFFF80AD7A3703D0AA73F4
310
1240600000030400FEFFFFFF80AD7A3703D0AA73F42240600000030400FEFFFFFF80AD7A3703D0AA73F44240600000030400FEFFFFFF80AD7A3703D0AA73F48240600000030400FEFFFFFF80AD7A3703D0AA73F4050141501A8000000C800406904A5058000000C10000000000000004901010000000000003E0FC00000000
310
0000F83F0000000000003E0FC000000000000F83F02B5E8DC0F42B1CFC0AD7A3703D0AC73F419019018000000C1003FBFFFFFE02B5E8DC0F42A9CFD029018000000C1003FBFFFFFE02B5E8DC0F42A9CFD049018000000C1003FBFFFFFE02B5E8DC0F42A9CFD089018000000C1003FBFFFFFE02B5E8DC0F42A9CFD109018000
310
000C1003FBFFFFFE02B5E8DC0F42A9CFD209018000000C1003FBFFFFFE02B5E8DC0F42A9CFD0240505406A0000003200101A412940A000000304000000000000001240404000000000000F83F0000000000003E0FC000000000000F83F0000000000003E0FC0AD7A3703D0AC73F02B5E8DC0F42B1CFD064064060000003040
310
0FEFFFFFF80AD7A3703D0AA73F40A40600000030400FEFFFFFF80AD7A3703D0AA73F41240600000030400FEFFFFFF80AD7A3703D0AA73F42240600000030400FEFFFFFF80AD7A3703D0AA73F44240600000030400FEFFFFFF80AD7A3703D0AA73F48240600000030400FEFFFFFF80AD7A3703D0AA73F40D029065F00540049
310
0054004C0045009075F004800450041004400450052009055F0044004100540041004401CC
340
11
340
0
340
0
340
0
340
0
340
0
340
0
340
11
340
0
340
0
340
0
340
0
340
0
340
0
340
11
340
0
340
0
340
0
340
0
340
0
340
0
 94
        0
1001
ACAD
1000
AcRTDxfName
1000
CELLSTYLEMAP
  0
XRECORD
  5
E42C
102
{ACAD_REACTORS
330
B5B5
102
}
330
B5B5
100
AcDbXrecord
280
     1
102
ACAD_ROUNDTRIP_PRE2007_TABLESTYLE
 90
        4
 91
        0
  1

 92
        4
 93
        0
  2

 94
        4
 95
        0
  3

  0
ENDSEC
  0
EOF
