  0
SECTION
  2
HEADER
  9
$ACADVER
  1
AC1015
  9
$ACADMAINTVER
 70
    20
  9
$DWGCODEPAGE
  3
ANSI_932
  9
$INSBASE
 10
0.0
 20
0.0
 30
0.0
  9
$EXTMIN
 10
-385.0169359636691
 20
-100.0120840389421
 30
-0.0015258207003583
  9
$EXTMAX
 10
170.0169385480892
 20
294.5014657640149
 30
0.0000000349246037
  9
$LIMMIN
 10
-385.0
 20
-100.0
  9
$LIMMAX
 10
170.0
 20
296.0
  9
$ORTHOMODE
 70
     0
  9
$REGENMODE
 70
     1
  9
$FILLMODE
 70
     1
  9
$QTEXTMODE
 70
     0
  9
$MIRRTEXT
 70
     0
  9
$LTSCALE
 40
1.0
  9
$ATTMODE
 70
     1
  9
$TEXTSIZE
 40
0.2
  9
$TRACEWID
 40
0.05
  9
$TEXTSTYLE
  7
STANDARD
  9
$CLAYER
  8
0
  9
$CELTYPE
  6
CONTINUOUS
  9
$CECOLOR
 62
   256
  9
$CELTSCALE
 40
1.0
  9
$DISPSILH
 70
     0
  9
$DIMSCALE
 40
1.0
  9
$DIMASZ
 40
1.0
  9
$DIMEXO
 40
2.54
  9
$DIMDLI
 40
0.38
  9
$DIMRND
 40
0.0
  9
$DIMDLE
 40
0.0
  9
$DIMEXE
 40
2.54
  9
$DIMTP
 40
0.0
  9
$DIMTM
 40
0.0
  9
$DIMTXT
 40
3.2
  9
$DIMCEN
 40
0.09
  9
$DIMTSZ
 40
0.0
  9
$DIMTOL
 70
     0
  9
$DIMLIM
 70
     0
  9
$DIMTIH
 70
     0
  9
$DIMTOH
 70
     0
  9
$DIMSE1
 70
     0
  9
$DIMSE2
 70
     0
  9
$DIMTAD
 70
     1
  9
$DIMZIN
 70
     0
  9
$DIMBLK
  1

  9
$DIMASO
 70
     1
  9
$DIMSHO
 70
     0
  9
$DIMPOST
  1

  9
$DIMAPOST
  1

  9
$DIMALT
 70
     0
  9
$DIMALTD
 70
     2
  9
$DIMALTF
 40
25.4
  9
$DIMLFAC
 40
1.0
  9
$DIMTOFL
 70
     0
  9
$DIMTVP
 40
1.0
  9
$DIMTIX
 70
     0
  9
$DIMSOXD
 70
     0
  9
$DIMSAH
 70
     1
  9
$DIMBLK1
  1

  9
$DIMBLK2
  1

  9
$DIMSTYLE
  2
DIMSTYLE
  9
$DIMCLRD
 70
     0
  9
$DIMCLRE
 70
     0
  9
$DIMCLRT
 70
     0
  9
$DIMTFAC
 40
1.0
  9
$DIMGAP
 40
1.6
  9
$DIMJUST
 70
     0
  9
$DIMSD1
 70
     0
  9
$DIMSD2
 70
     0
  9
$DIMTOLJ
 70
     1
  9
$DIMTZIN
 70
     0
  9
$DIMALTZ
 70
     0
  9
$DIMALTTZ
 70
     0
  9
$DIMUPT
 70
     0
  9
$DIMDEC
 70
     4
  9
$DIMTDEC
 70
     4
  9
$DIMALTU
 70
     2
  9
$DIMALTTD
 70
     2
  9
$DIMTXSTY
  7
STANDARD
  9
$DIMAUNIT
 70
     0
  9
$DIMADEC
 70
     0
  9
$DIMALTRND
 40
0.0
  9
$DIMAZIN
 70
     0
  9
$DIMDSEP
 70
    46
  9
$DIMATFIT
 70
     3
  9
$DIMFRAC
 70
     0
  9
$DIMLDRBLK
  1

  9
$DIMLUNIT
 70
     2
  9
$DIMLWD
 70
    -2
  9
$DIMLWE
 70
    -2
  9
$DIMTMOVE
 70
     0
  9
$LUNITS
 70
     2
  9
$LUPREC
 70
     4
  9
$SKETCHINC
 40
0.1
  9
$FILLETRAD
 40
0.0
  9
$AUNITS
 70
     0
  9
$AUPREC
 70
     0
  9
$MENU
  1
.
  9
$ELEVATION
 40
0.0
  9
$PELEVATION
 40
0.0
  9
$THICKNESS
 40
0.0
  9
$LIMCHECK
 70
     0
  9
$CHAMFERA
 40
0.0
  9
$CHAMFERB
 40
0.0
  9
$CHAMFERC
 40
0.0
  9
$CHAMFERD
 40
0.0
  9
$SKPOLY
 70
     0
  9
$TDCREATE
 40
2453446.479188936
  9
$TDUCREATE
 40
2453446.104188936
  9
$TDUPDATE
 40
2454218.394021621
  9
$TDUUPDATE
 40
2454218.019021621
  9
$TDINDWG
 40
0.0051801852
  9
$TDUSRTIMER
 40
0.0051798264
  9
$USRTIMER
 70
     1
  9
$ANGBASE
 50
0.0
  9
$ANGDIR
 70
     0
  9
$PDMODE
 70
     0
  9
$PDSIZE
 40
0.0
  9
$PLINEWID
 40
0.0
  9
$SPLFRAME
 70
     0
  9
$SPLINETYPE
 70
     6
  9
$SPLINESEGS
 70
     8
  9
$HANDSEED
  5
16AF
  9
$SURFTAB1
 70
     6
  9
$SURFTAB2
 70
     6
  9
$SURFTYPE
 70
     6
  9
$SURFU
 70
     6
  9
$SURFV
 70
     6
  9
$UCSBASE
  2

  9
$UCSNAME
  2

  9
$UCSORG
 10
0.0
 20
0.0
 30
0.0
  9
$UCSXDIR
 10
1.0
 20
0.0
 30
0.0
  9
$UCSYDIR
 10
0.0
 20
1.0
 30
0.0
  9
$UCSORTHOREF
  2

  9
$UCSORTHOVIEW
 70
     0
  9
$UCSORGTOP
 10
0.0
 20
0.0
 30
0.0
  9
$UCSORGBOTTOM
 10
0.0
 20
0.0
 30
0.0
  9
$UCSORGLEFT
 10
0.0
 20
0.0
 30
0.0
  9
$UCSORGRIGHT
 10
0.0
 20
0.0
 30
0.0
  9
$UCSORGFRONT
 10
0.0
 20
0.0
 30
0.0
  9
$UCSORGBACK
 10
0.0
 20
0.0
 30
0.0
  9
$PUCSBASE
  2

  9
$PUCSNAME
  2

  9
$PUCSORG
 10
0.0
 20
0.0
 30
0.0
  9
$PUCSXDIR
 10
1.0
 20
0.0
 30
0.0
  9
$PUCSYDIR
 10
0.0
 20
1.0
 30
0.0
  9
$PUCSORTHOREF
  2

  9
$PUCSORTHOVIEW
 70
     0
  9
$PUCSORGTOP
 10
0.0
 20
0.0
 30
0.0
  9
$PUCSORGBOTTOM
 10
0.0
 20
0.0
 30
0.0
  9
$PUCSORGLEFT
 10
0.0
 20
0.0
 30
0.0
  9
$PUCSORGRIGHT
 10
0.0
 20
0.0
 30
0.0
  9
$PUCSORGFRONT
 10
0.0
 20
0.0
 30
0.0
  9
$PUCSORGBACK
 10
0.0
 20
0.0
 30
0.0
  9
$USERI1
 70
     0
  9
$USERI2
 70
     0
  9
$USERI3
 70
     0
  9
$USERI4
 70
     0
  9
$USERI5
 70
     0
  9
$USERR1
 40
0.0
  9
$USERR2
 40
0.0
  9
$USERR3
 40
0.0
  9
$USERR4
 40
0.0
  9
$USERR5
 40
0.0
  9
$WORLDVIEW
 70
     1
  9
$SHADEDGE
 70
     3
  9
$SHADEDIF
 70
    70
  9
$TILEMODE
 70
     1
  9
$MAXACTVP
 70
    64
  9
$PINSBASE
 10
0.0
 20
0.0
 30
0.0
  9
$PLIMCHECK
 70
     0
  9
$PEXTMIN
 10
1.000000000000000E+20
 20
1.000000000000000E+20
 30
1.000000000000000E+20
  9
$PEXTMAX
 10
-1.000000000000000E+20
 20
-1.000000000000000E+20
 30
-1.000000000000000E+20
  9
$PLIMMIN
 10
-385.0
 20
-100.0
  9
$PLIMMAX
 10
170.0
 20
296.0
  9
$UNITMODE
 70
     0
  9
$VISRETAIN
 70
     1
  9
$PLINEGEN
 70
     0
  9
$PSLTSCALE
 70
     1
  9
$TREEDEPTH
 70
  3020
  9
$CMLSTYLE
  2
Standard
  9
$CMLJUST
 70
     0
  9
$CMLSCALE
 40
1.0
  9
$PROXYGRAPHICS
 70
     1
  9
$MEASUREMENT
 70
     0
  9
$CELWEIGHT
370
    -1
  9
$ENDCAPS
280
     0
  9
$JOINSTYLE
280
     0
  9
$LWDISPLAY
290
     0
  9
$INSUNITS
 70
     0
  9
$HYPERLINKBASE
  1

  9
$STYLESHEET
  1

  9
$XEDIT
290
     1
  9
$CEPSNTYPE
380
     0
  9
$PSTYLEMODE
290
     1
  9
$FINGERPRINTGUID
  2
{957ED246-F6A5-490C-A80C-6CBA951ED363}
  9
$VERSIONGUID
  2
{19682A26-20BE-4764-8312-ED7E33DEA401}
  9
$EXTNAMES
290
     1
  9
$PSVPSCALE
 40
0.0
  9
$OLESTARTUP
290
     0
  0
ENDSEC
  0
SECTION
  2
CLASSES
  0
CLASS
  1
ACDBDICTIONARYWDFLT
  2
AcDbDictionaryWithDefault
  3
ObjectDBX Classes
 90
        0
280
     0
281
     0
  0
CLASS
  1
AMGSETTINGSOBJ
  2
AmgSettingsObj
  3
"AcadM|Product Description: AutoCAD Mechanical|Company: Autodesk"
 90
        0
280
     0
281
     0
  0
CLASS
  1
ACME_DOCUMENT
  2
AcMeDbDoc
  3
AcMeServices
 90
        0
280
     0
281
     0
  0
CLASS
  1
ACMESCOPE
  2
AcMeScope
  3
AcMeServices
 90
        0
280
     0
281
     0
  0
CLASS
  1
ACMECOMMANDHISTORY
  2
AcMeCommandHistory
  3
AcMeServices
 90
        0
280
     0
281
     0
  0
CLASS
  1
ACIMSYSVARMAN
  2
AcImSysVarManager
  3
AcMeServices
 90
        0
280
     0
281
     0
  0
CLASS
  1
ACIMINTSYSVAR
  2
AcImIntSysVar
  3
AcMeServices
 90
        0
280
     0
281
     0
  0
CLASS
  1
ACMEDRAWINGMAN
  2
AcMeDrawingMan
  3
AcMeServices
 90
        0
280
     0
281
     0
  0
CLASS
  1
ACMEVIEW
  2
AcMeView
  3
AcMeServices
 90
        0
280
     0
281
     0
  0
CLASS
  1
ACDBENTITYCACHE
  2
AcMeEntityCache
  3
AcMeServices
 90
        0
280
     0
281
     0
  0
CLASS
  1
GSMANAGER
  2
AcMeGSManager
  3
AcMeServices
 90
        0
280
     0
281
     0
  0
CLASS
  1
AMDTINTERNALREACTOR
  2
AmdtInternalReactor
  3
AcMeServices
 90
        0
280
     0
281
     0
  0
CLASS
  1
ACMESTATEMGR
  2
AcMeStateMgr
  3
AcMeServices
 90
        0
280
     0
281
     0
  0
CLASS
  1
ACGREFMASTER
  2
AcGrefMaster
  3
AcAttribServices
 90
        0
280
     0
281
     0
  0
CLASS
  1
AM_DRAWING_MGR
  2
AcDmDwgMgr
  3
AcMechDwgViewMgmt
 90
        0
280
     0
281
     0
  0
CLASS
  1
AM_DWG_DOCUMENT
  2
AcDmDwgDocument
  3
AcMechDwgViewMgmt
 90
        0
280
     0
281
     0
  0
CLASS
  1
AM_DWG_SHEET
  2
AcDmSheet
  3
AcMechDwgViewMgmt
 90
        0
280
     0
281
     0
  0
CLASS
  1
AM_VIEWDIMPARMAP
  2
AcDmViewDimParMap
  3
AcMechDwgViewMgmt
 90
        0
280
     0
281
     0
  0
CLASS
  1
ACIMREALSYSVAR
  2
AcImRealSysVar
  3
AcMeServices
 90
        0
280
     0
281
     0
  0
CLASS
  1
AM_DWGMGR_NAME
  2
AcDmDwgMgrName
  3
AcMechDwgViewMgmt
 90
        0
280
     0
281
     0
  0
CLASS
  1
ACME_DATABASE
  2
AcMeDbDatabase
  3
AcMeServices
 90
        0
280
     0
281
     0
  0
CLASS
  1
ACRFINSADJUSTERMGR
  2
AcRfInsAdjusterMgr
  3
AcMeServices
 90
        0
280
     0
281
     0
  0
CLASS
  1
ACGREFACADMASTER
  2
AcGrefacadMaster
  3
AcGrefServices
 90
        0
280
     0
281
     0
  0
CLASS
  1
AMDTMENUSTATEMGR
  2
AmdtMenuStateMgr
  3
McadcomServices
 90
        0
280
     0
281
     0
  0
CLASS
  1
AMDTMCOMMENUSTATE
  2
AmdtMcomMenuState
  3
McadcomServices
 90
        0
280
     0
281
     0
  0
CLASS
  1
AMIMASTER
  2
AmiMaster
  3
AmiServices
 90
        0
280
     0
281
     0
  0
CLASS
  1
MAPIAMMOUDLE
  2
MApiAmModule
  3
MApiAmServices
 90
        0
280
     0
281
     0
  0
CLASS
  1
AMDTADMENUSTATE
  2
AmdtAdMenuState
  3
DesignerServices
 90
        0
280
     0
281
     0
  0
CLASS
  1
ADAPPL
  2
AcAdAppl
  3
DesignerServices
 90
        0
280
     0
281
     0
  0
CLASS
  1
DEPMGR
  2
AcAdDepMgr
  3
DesignerServices
 90
        0
280
     0
281
     0
  0
CLASS
  1
PARAMMGR
  2
AcAdParamMgr
  3
DesignerServices
 90
        0
280
     0
281
     0
  0
CLASS
  1
PARAMSCOPE
  2
AcAdParamScope
  3
DesignerServices
 90
        0
280
     0
281
     0
  0
CLASS
  1
NAMEDAPPL
  2
AcAdNamedAppl
  3
DesignerServices
 90
        0
280
     0
281
     0
  0
CLASS
  1
AMDTDMMENUSTATE
  2
AmdtDmMenuState
  3
AcMechDwgViewMgmt
 90
        0
280
     0
281
     0
  0
CLASS
  1
AMDTAMMENUSTATE
  2
AmdtAmMenuState
  3
DesignerAssemblies
 90
        0
280
     0
281
     0
  0
CLASS
  1
ACIMSTRSYSVAR
  2
AcImStrSysVar
  3
AcMeServices
 90
        0
280
     0
281
     0
  0
CLASS
  1
ACAMPROJECT
  2
AcAmProject
  3
DesignerAssemblies
 90
        0
280
     0
281
     0
  0
CLASS
  1
ACAMGRCOMPDEF
  2
AcAmGrCompDef
  3
DesignerAssemblies
 90
        0
280
     0
281
     0
  0
CLASS
  1
ACCMCONTEXT
  2
AcCmContext
  3
DesignerAssemblies
 90
        0
280
     0
281
     0
  0
CLASS
  1
ACAMCOMPDEF
  2
AcAmCompDef
  3
DesignerAssemblies
 90
        0
280
     0
281
     0
  0
CLASS
  1
ACAMCOMPDEFMGR
  2
AcAmCompDefMgr
  3
DesignerAssemblies
 90
        0
280
     0
281
     0
  0
CLASS
  1
AMCONTEXTMGR
  2
AcAmContextMgr
  3
DesignerAssemblies
 90
        0
280
     0
281
     0
  0
CLASS
  1
ACAMCONTEXTMODELER
  2
AcAmContextModeler
  3
DesignerAssemblies
 90
        0
280
     0
281
     0
  0
CLASS
  1
ACMDATADICTIONARY
  2
AcmDataDictionary
  3
"AcmSymBB|Product Description: AutoCAD Mechanical|Company: Autodesk"
 90
        0
280
     0
281
     0
  0
CLASS
  1
CATALOGSTATE
  2
AcAmCatalogState
  3
DesignerAssemblies
 90
        0
280
     0
281
     0
  0
CLASS
  1
ACAMGRCOMPDEFSET
  2
AcAmGrCompDefSet
  3
DesignerAssemblies
 90
        0
280
     0
281
     0
  0
CLASS
  1
AMDTBROWSERDBTAB
  2
AmdtBrowserDbTab
  3
McadcomServices
 90
        0
280
     0
281
     0
  0
CLASS
  1
CBROWSERAPPOBJECT
  2
CBrowserAppObject
  3
McadcomServices
 90
        0
280
     0
281
     0
  0
CLASS
  1
DM_PLACEHOLDER
  2
AcDmSelsetPlaceholder
  3
AcMechDwgViewMgmt
 90
        0
280
     0
281
     0
  0
CLASS
  1
ACMSTANDARDANSI
  2
AcmStandardANSI
  3
"Amdt_StdImp|Product Description: AutoCAD Mechanical|Company: Autodesk"
 90
        0
280
     0
281
     0
  0
CLASS
  1
AMGOBJPROPCFG
  2
AmgObjPropCfg
  3
"AmgLay|Product Description: AutoCAD Mechanical|Company: Autodesk"
 90
        1
280
     0
281
     0
  0
CLASS
  1
ACMSURFSTANDARDANSI
  2
AcmSurfTextStdANSI
  3
"Amdt_StdImp|Product Description: AutoCAD Mechanical|Company: Autodesk"
 90
        0
280
     0
281
     0
  0
CLASS
  1
ACMFCFSTANDARDANSI
  2
AcmFCFStdANSI
  3
"Amdt_StdImp|Product Description: AutoCAD Mechanical|Company: Autodesk"
 90
        0
280
     0
281
     0
  0
CLASS
  1
ACMWELDSTANDARDANSI
  2
AcmWeldingStdANSI
  3
"Amdt_StdImp|Product Description: AutoCAD Mechanical|Company: Autodesk"
 90
        0
280
     0
281
     0
  0
CLASS
  1
ACMIDSTANDARDANSI
  2
AcmIdStdANSI
  3
"Amdt_StdImp|Product Description: AutoCAD Mechanical|Company: Autodesk"
 90
        0
280
     0
281
     0
  0
CLASS
  1
ACMDATUMSTANDARDANSI
  2
AcmDatumStdANSI
  3
"Amdt_StdImp|Product Description: AutoCAD Mechanical|Company: Autodesk"
 90
        0
280
     0
281
     0
  0
CLASS
  1
ACMBOMSTANDARDANSI
  2
AcmBOMStdANSI
  3
"Amdt_StdImp|Product Description: AutoCAD Mechanical|Company: Autodesk"
 90
        0
280
     0
281
     0
  0
CLASS
  1
ACMDETAILSTANDARDANSI
  2
AmdtDetailSymStdANSI
  3
"Amdt_StdImp|Product Description: AutoCAD Mechanical|Company: Autodesk"
 90
        0
280
     0
281
     0
  0
CLASS
  1
ACMSECTIONSTANDARDANSI
  2
AmdtSectionSymStdANSI
  3
"Amdt_StdImp|Product Description: AutoCAD Mechanical|Company: Autodesk"
 90
        0
280
     0
281
     0
  0
CLASS
  1
ACMCENTERLINESTANDARDANSI
  2
AmdtCenterLineStdANSI
  3
"Amdt_StdImp|Product Description: AutoCAD Mechanical|Company: Autodesk"
 90
        0
280
     0
281
     0
  0
CLASS
  1
ACMTHREADLINESTANDARDANSI
  2
AmdtThreadLineStdANSI
  3
"Amdt_StdImp|Product Description: AutoCAD Mechanical|Company: Autodesk"
 90
        0
280
     0
281
     0
  0
CLASS
  1
ACMNOTESTANDARDANSI
  2
AmdtNoteStdANSI
  3
"Amdt_StdImp|Product Description: AutoCAD Mechanical|Company: Autodesk"
 90
        0
280
     0
281
     0
  0
CLASS
  1
AMDTNOTETEMPLATEDB
  2
AmdtNoteTemplateDB
  3
AMDT_STDIMP_MODULE_NAME
 90
        0
280
     0
281
     0
  0
CLASS
  1
ACAMGLAYSTD
  2
AcAmgLayStd
  3
"AmgLay|Product Description: AutoCAD Mechanical|Company: Autodesk"
 90
        0
280
     0
281
     0
  0
CLASS
  1
ACAMGDIMSTD
  2
AcAmgDimStd
  3
"AmgDim|Product Description: AutoCAD Mechanical|Company: Autodesk"
 90
        0
280
     0
281
     0
  0
CLASS
  1
ACAMGHOLECHARTSTDANSI
  2
AcAmgHoleChartStdANSI
  3
ACMSYMBB_MODULE_NAME
 90
        0
280
     0
281
     0
  0
CLASS
  1
ACAMGTITLESTD
  2
AcAmgTitleStd
  3
"AmgTitle|Product Description: AutoCAD Mechanical|Company: Autodesk"
 90
        0
280
     0
281
     0
  0
CLASS
  1
ACAMGFILTERDAT
  2
AcAmgFilterDat
  3
"AcadM|Product Description: AutoCAD Mechanical|Company: Autodesk"
 90
    32768
280
     0
281
     0
  0
CLASS
  1
LAYER_INDEX
  2
AcDbLayerIndex
  3
ObjectDBX Classes
 90
        0
280
     0
281
     0
  0
CLASS
  1
IDBUFFER
  2
AcDbIdBuffer
  3
ObjectDBX Classes
 90
        0
280
     0
281
     0
  0
CLASS
  1
DICTIONARYVAR
  2
AcDbDictionaryVar
  3
ObjectDBX Classes
 90
        0
280
     0
281
     0
  0
CLASS
  1
ACDBPLACEHOLDER
  2
AcDbPlaceHolder
  3
ObjectDBX Classes
 90
        0
280
     0
281
     0
  0
CLASS
  1
LAYOUT
  2
AcDbLayout
  3
ObjectDBX Classes
 90
        0
280
     0
281
     0
  0
CLASS
  1
MATERIAL
  2
AcDbMaterial
  3
ObjectDBX Classes
 90
     1153
280
     0
281
     0
  0
CLASS
  1
VISUALSTYLE
  2
AcDbVisualStyle
  3
ObjectDBX Classes
 90
     4095
280
     0
281
     0
  0
CLASS
  1
TABLESTYLE
  2
AcDbTableStyle
  3
ObjectDBX Classes
 90
     4095
280
     0
281
     0
  0
CLASS
  1
ACMTAPERSTANDARDANSI
  2
AcmTaperStdANSI
  3
"Amdt_StdImp|Product Description: AutoCAD Mechanical|Company: Autodesk"
 90
        0
280
     0
281
     0
  0
ENDSEC
  0
SECTION
  2
TABLES
  0
TABLE
  2
VPORT
  5
8
330
0
100
AcDbSymbolTable
 70
     1
  0
VPORT
  5
1585
330
8
100
AcDbSymbolTableRecord
100
AcDbViewportTableRecord
  2
*Active
 70
     0
 10
0.0
 20
0.0
 11
1.0
 21
1.0
 12
-294.7804737717198
 22
223.7469998390297
 13
0.0
 23
0.0
 14
1.0
 24
1.0
 15
0.0
 25
0.0
 16
0.0
 26
0.0
 36
1.0
 17
0.0
 27
0.0
 37
0.0
 40
81.00787299478724
 41
1.313157894736842
 42
50.0
 43
0.0
 44
0.0
 50
0.0
 51
0.0
 71
     0
 72
   100
 73
     1
 74
     1
 75
     0
 76
     0
 77
     0
 78
     0
281
     0
 65
     0
110
0.0
120
0.0
130
0.0
111
1.0
121
0.0
131
0.0
112
0.0
122
1.0
132
0.0
 79
     0
146
0.0
  0
ENDTAB
  0
TABLE
  2
LTYPE
  5
5
330
0
100
AcDbSymbolTable
 70
    19
  0
LTYPE
  5
13
330
5
100
AcDbSymbolTableRecord
100
AcDbLinetypeTableRecord
  2
ByBlock
 70
     0
  3

 72
    65
 73
     0
 40
0.0
  0
LTYPE
  5
14
330
5
100
AcDbSymbolTableRecord
100
AcDbLinetypeTableRecord
  2
ByLayer
 70
     0
  3

 72
    65
 73
     0
 40
0.0
  0
LTYPE
  5
15
330
5
100
AcDbSymbolTableRecord
100
AcDbLinetypeTableRecord
  2
CONTINUOUS
 70
     0
  3
Solid line
 72
    65
 73
     0
 40
0.0
  0
LTYPE
  5
24
330
5
100
AcDbSymbolTableRecord
100
AcDbLinetypeTableRecord
  2
DASHED
 70
     0
  3
__ __ __ __ __ __ __ __ __ __ __ __ __ __ __
 72
    65
 73
     2
 40
3.5
 49
2.0
 74
     0
 49
-1.5
 74
     0
  0
LTYPE
  5
25
330
5
100
AcDbSymbolTableRecord
100
AcDbLinetypeTableRecord
  2
CENTER
 70
     0
  3
____ _ ____ _ ____ _ ____ _ ____ _ ____ _ ____
 72
    65
 73
     4
 40
17.5
 49
13.0
 74
     0
 49
-1.5
 74
     0
 49
1.5
 74
     0
 49
-1.5
 74
     0
  0
LTYPE
  5
26
330
5
100
AcDbSymbolTableRecord
100
AcDbLinetypeTableRecord
  2
PHANTOM
 70
     0
  3
_____ _ _ _____ _ _ _____ _ _ _____ _ _ ____  
 72
    65
 73
     6
 40
15.5
 49
8.0
 74
     0
 49
-1.5
 74
     0
 49
1.5
 74
     0
 49
-1.5
 74
     0
 49
1.5
 74
     0
 49
-1.5
 74
     0
  0
LTYPE
  5
27
330
5
100
AcDbSymbolTableRecord
100
AcDbLinetypeTableRecord
  2
DOT
 70
     0
  3
. . . . . . . . . . . . . . . . . . . . . . . .
 72
    65
 73
     2
 40
0.25
 49
0.0
 74
     0
 49
-0.25
 74
     0
  0
LTYPE
  5
28
330
5
100
AcDbSymbolTableRecord
100
AcDbLinetypeTableRecord
  2
HIDDEN
 70
     0
  3
__ __ __ __ __ __ __ __ __ __ __ __ __ __ __
 72
    65
 73
     2
 40
3.5
 49
2.0
 74
     0
 49
-1.5
 74
     0
  0
LTYPE
  5
1509
330
5
100
AcDbSymbolTableRecord
100
AcDbLinetypeTableRecord
  2
PHANTOM2
 70
     0
  3
Phantom (.5x) ___ _ _ ___ _ _ ___ _ _ ___ _ _
 72
    65
 73
     6
 40
1.25
 49
0.625
 74
     0
 49
-0.125
 74
     0
 49
0.125
 74
     0
 49
-0.125
 74
     0
 49
0.125
 74
     0
 49
-0.125
 74
     0
  0
LTYPE
  5
153D
330
5
100
AcDbSymbolTableRecord
100
AcDbLinetypeTableRecord
  2
AM_ISO02W050
 70
     0
  3
__ __ __ __ __ __ __ __ __ __ __ __ __ __ __
 72
    65
 73
     2
 40
7.5
 49
6.0
 74
     0
 49
-1.5
 74
     0
  0
LTYPE
  5
153E
330
5
100
AcDbSymbolTableRecord
100
AcDbLinetypeTableRecord
  2
AM_ISO08W050
 70
     0
  3
____ . ____ . ____ . ____ . ____ . ____ . ____
 72
    65
 73
     4
 40
18.0
 49
12.0
 74
     0
 49
-1.5
 74
     0
 49
3.0
 74
     0
 49
-1.5
 74
     0
  0
LTYPE
  5
153F
330
5
100
AcDbSymbolTableRecord
100
AcDbLinetypeTableRecord
  2
AM_ISO09W050
 70
     0
  3
_____ . . _____ . . _____ . . ____ .. ____
 72
    65
 73
     6
 40
22.5
 49
12.0
 74
     0
 49
-1.5
 74
     0
 49
3.0
 74
     0
 49
-1.5
 74
     0
 49
3.0
 74
     0
 49
-1.5
 74
     0
  0
LTYPE
  5
1540
330
5
100
AcDbSymbolTableRecord
100
AcDbLinetypeTableRecord
  2
Amconstr
 70
     0
  3
_______________________
 72
    65
 73
     2
 40
9999.0
 49
9999.0
 74
     0
 49
0.0
 74
     0
  0
LTYPE
  5
1541
330
5
100
AcDbSymbolTableRecord
100
AcDbLinetypeTableRecord
  2
AM_ISO08W050x2
 70
     0
  3
__ . __ . __ . __ . __ . __
 72
    65
 73
     4
 40
9.0
 49
6.0
 74
     0
 49
-0.75
 74
     0
 49
1.5
 74
     0
 49
-0.75
 74
     0
  0
LTYPE
  5
1542
330
5
100
AcDbSymbolTableRecord
100
AcDbLinetypeTableRecord
  2
AM_ISO02W050x2
 70
     0
  3
 _ _ _ _ _ _ _ _ _ _ _ _
 72
    65
 73
     2
 40
3.75
 49
3.0
 74
     0
 49
-0.75
 74
     0
  0
LTYPE
  5
1545
330
5
100
AcDbSymbolTableRecord
100
AcDbLinetypeTableRecord
  2
Amzigzag
 70
     0
  3
/\/-/\/-/\/-/\/-/\/-/\/
 72
    65
 73
     2
 40
11.0001
 49
0.0001
 74
     4
 75
   135
340
1544
 46
0.04
 50
0.0
 44
0.0
 45
0.0
 49
-11.0
 74
     0
  0
LTYPE
  5
1546
330
5
100
AcDbSymbolTableRecord
100
AcDbLinetypeTableRecord
  2
CENTER2
 70
     0
  3
Center (.5x) ___ _ ___ _ ___ _ ___ _ ___ _ ___
 72
    65
 73
     4
 40
1.125
 49
0.75
 74
     0
 49
-0.125
 74
     0
 49
0.125
 74
     0
 49
-0.125
 74
     0
  0
LTYPE
  5
1547
330
5
100
AcDbSymbolTableRecord
100
AcDbLinetypeTableRecord
  2
HIDDEN2
 70
     0
  3
Hidden (.5x) _ _ _ _ _ _ _ _ _ _ _ _ _ _ _ _ _
 72
    65
 73
     2
 40
0.1875
 49
0.125
 74
     0
 49
-0.0625
 74
     0
  0
LTYPE
  5
1548
330
5
100
AcDbSymbolTableRecord
100
AcDbLinetypeTableRecord
  2
Amzigzag2
 70
     0
  3
/\/-/\/-/\/-/\/-/\/-/\/
 72
    65
 73
     2
 40
0.4401
 49
0.0001
 74
     4
 75
   135
340
1544
 46
0.0016
 50
0.0
 44
0.0
 45
0.0
 49
-0.4400000000000003
 74
     0
  0
LTYPE
  5
1556
330
5
100
AcDbSymbolTableRecord
100
AcDbLinetypeTableRecord
  2
ACANSTGB
 70
     0
  3
__ . . __ . .
 72
    65
 73
     6
 40
0.35433070866
 49
0.15748031496
 74
     0
 49
-0.03937007874
 74
     0
 49
0.03937007874
 74
     0
 49
-0.03937007874
 74
     0
 49
0.03937007874
 74
     0
 49
-0.03937007874
 74
     0
  0
LTYPE
  5
1557
330
5
100
AcDbSymbolTableRecord
100
AcDbLinetypeTableRecord
  2
ACANSTGL
 70
     0
  3
_ _ _ _ _
 72
    65
 73
     2
 40
0.11811023622
 49
0.07874015748
 74
     0
 49
-0.03937007874
 74
     0
  0
ENDTAB
  0
TABLE
  2
LAYER
  5
2
330
0
100
AcDbSymbolTable
 70
     2
  0
LAYER
  5
10
330
2
100
AcDbSymbolTableRecord
100
AcDbLayerTableRecord
  2
0
 70
     0
 62
     7
  6
CONTINUOUS
370
    -3
390
F
  0
LAYER
  5
29
330
2
100
AcDbSymbolTableRecord
100
AcDbLayerTableRecord
  2
DEFPOINTS
 70
     0
 62
     7
  6
CONTINUOUS
290
     0
370
    -3
390
F
  0
ENDTAB
  0
TABLE
  2
STYLE
  5
3
330
0
100
AcDbSymbolTable
 70
     4
  0
STYLE
  5
11
330
3
100
AcDbSymbolTableRecord
100
AcDbTextStyleTableRecord
  2
STANDARD
 70
     0
 40
0.0
 41
1.0
 50
0.0
 71
     0
 42
0.2
  3
txt
  4
BIGFONT
  0
STYLE
  5
1544
330
3
100
AcDbSymbolTableRecord
100
AcDbTextStyleTableRecord
  2

 70
     1
 40
0.0
 41
1.0
 50
0.0
 71
     0
 42
3.2
  3
ltypeshp.shx
  4

  0
STYLE
  5
1549
330
3
100
AcDbSymbolTableRecord
100
AcDbTextStyleTableRecord
  2
ACANSTS
 70
     0
 40
1.0
 41
1.0
 50
0.0
 71
     0
 42
3.2
  3
romans.shx
  4
extfont.shx
  0
STYLE
  5
1555
330
3
100
AcDbSymbolTableRecord
100
AcDbTextStyleTableRecord
  2
ACANSGDT
 70
     0
 40
0.0
 41
1.0
 50
0.0
 71
     0
 42
3.2
  3
amgdt.shx
  4

  0
ENDTAB
  0
TABLE
  2
VIEW
  5
6
330
0
100
AcDbSymbolTable
 70
     0
  0
ENDTAB
  0
TABLE
  2
UCS
  5
7
330
0
100
AcDbSymbolTable
 70
     0
  0
ENDTAB
  0
TABLE
  2
APPID
  5
9
330
0
100
AcDbSymbolTable
 70
     8
  0
APPID
  5
12
330
9
100
AcDbSymbolTableRecord
100
AcDbRegAppTableRecord
  2
ACAD
 70
     0
  0
APPID
  5
14DC
330
9
100
AcDbSymbolTableRecord
100
AcDbRegAppTableRecord
  2
MCAD_NO_VIS
 70
     0
  0
APPID
  5
14DD
330
9
100
AcDbSymbolTableRecord
100
AcDbRegAppTableRecord
  2
ACAD_TEMP_GRAPHIC
 70
     0
  0
APPID
  5
150B
330
9
100
AcDbSymbolTableRecord
100
AcDbRegAppTableRecord
  2
AD_DRAW
 70
     0
  0
APPID
  5
150E
330
9
100
AcDbSymbolTableRecord
100
AcDbRegAppTableRecord
  2
ACATTRIBSERVICES
 70
     0
  0
APPID
  5
152C
330
9
100
AcDbSymbolTableRecord
100
AcDbRegAppTableRecord
  2
DESIGNERASSEMBLIES
 70
     0
  0
APPID
  5
1532
330
9
100
AcDbSymbolTableRecord
100
AcDbRegAppTableRecord
  2
ACADM_DIM_EDIT
 70
     0
  0
APPID
  5
1533
330
9
100
AcDbSymbolTableRecord
100
AcDbRegAppTableRecord
  2
AMDT_DM_ADJ
 70
     0
  0
ENDTAB
  0
TABLE
  2
DIMSTYLE
  5
A
330
0
100
AcDbSymbolTable
 70
     7
100
AcDbDimStyleTable
 71
     0
  0
DIMSTYLE
105
2A
102
{ACAD_REACTORS
330
9D7
330
9D8
330
9DA
330
9DB
330
9DC
330
9DD
330
9DE
330
9DF
330
9E0
330
9E1
330
9E2
330
9E5
330
9E6
330
9E7
330
9E8
330
9E9
330
9EA
330
A29
330
A2D
330
A2E
330
A2F
330
A30
330
A33
330
A34
330
A3F
330
A44
330
A45
330
A46
330
A47
330
A80
330
A81
330
A82
330
A83
330
A84
330
A85
330
104B
330
104C
330
104D
330
104E
330
104F
330
1050
330
1051
330
1052
330
1053
330
1054
330
1056
330
105C
330
1061
330
1062
330
1063
330
1064
330
1065
330
1066
330
1067
330
1068
330
1069
330
106A
330
106B
330
106C
330
106D
330
106E
330
106F
330
1070
330
1071
330
1072
330
1073
330
1077
330
107C
330
107E
330
1080
330
1081
330
1082
330
1083
330
1084
330
1085
330
1086
330
1087
330
1088
330
1089
330
108A
330
108B
330
108C
330
108D
330
108E
330
108F
330
1090
330
1091
330
1092
330
1093
330
1094
330
1095
330
1096
330
1097
330
1098
330
1099
330
109A
330
109B
330
109C
330
109D
330
109E
330
109F
330
10A0
330
10A1
330
10A2
330
10A3
330
14AF
330
14B0
330
14B1
330
14B2
330
14B3
330
14B4
330
14B5
330
14B6
330
14B7
330
14B8
330
14B9
330
14BA
330
14BB
330
14BC
330
14BD
330
14BE
330
14BF
330
14C0
330
14C1
330
14C2
330
14C3
330
14C4
330
14C5
330
14C6
330
14C7
330
14C8
330
14C9
330
14CA
330
14CB
330
14D5
102
}
330
A
100
AcDbSymbolTableRecord
100
AcDbDimStyleTableRecord
  2
DIMSTYLE
 70
     0
 41
1.0
 42
2.54
 44
2.54
 73
     0
 74
     0
140
3.2
147
1.6
173
     1
279
     2
340
11
  0
DIMSTYLE
105
1561
330
A
100
AcDbSymbolTableRecord
100
AcDbDimStyleTableRecord
  2
AM_ANSI
 70
     0
  4
mm
 41
0.1
 42
0.05
 43
0.5
 44
0.1
 47
0.1
 48
0.1
 78
     7
 79
     2
140
0.12
141
0.0
146
0.71
147
0.06
176
   256
177
   256
178
     2
274
     4
284
     7
340
11
371
    -1
372
    -1
  0
DIMSTYLE
105
1562
330
A
100
AcDbSymbolTableRecord
100
AcDbDimStyleTableRecord
  2
AM_ANSI$3
 70
     0
  4
mm
 41
0.1
 42
0.05
 43
0.5
 44
0.1
 47
0.1
 48
0.1
 78
     7
 79
     2
140
0.12
141
0.0
146
0.71
147
0.06
176
   256
177
   256
178
     2
274
     4
284
     7
288
     1
289
     0
340
11
371
    -1
372
    -1
  0
DIMSTYLE
105
1563
330
A
100
AcDbSymbolTableRecord
100
AcDbDimStyleTableRecord
  2
AM_ANSI$4
 70
     0
  4
mm
 41
0.1
 42
0.05
 43
0.5
 44
0.1
 47
0.1
 48
0.1
 78
     7
 79
     2
140
0.12
141
0.0
146
0.71
147
0.06
176
   256
177
   256
178
     2
274
     4
284
     7
288
     1
289
     0
340
11
371
    -1
372
    -1
  0
DIMSTYLE
105
1564
330
A
100
AcDbSymbolTableRecord
100
AcDbDimStyleTableRecord
  2
AM_ANSI$7
 70
     0
  4
mm
 41
0.1
 42
0.05
 43
0.5
 44
0.1
 47
0.1
 48
0.1
 78
     7
 79
     2
140
0.24
141
0.0
146
0.71
147
0.06
176
   256
177
   256
178
     2
274
     4
284
     7
340
11
371
    -1
372
    -1
  0
DIMSTYLE
105
1565
330
A
100
AcDbSymbolTableRecord
100
AcDbDimStyleTableRecord
  2
AM_ANSI$SF
 70
     0
  4
mm
 41
0.1
 42
0.05
 43
0.5
 44
0.1
 47
0.1
 48
0.1
 75
     1
 76
     1
 78
     7
 79
     2
140
0.12
141
0.0
146
0.71
147
0.06
176
   256
177
   256
178
     2
274
     4
284
     7
340
11
371
    -1
372
    -1
  0
DIMSTYLE
105
156A
330
A
100
AcDbSymbolTableRecord
100
AcDbDimStyleTableRecord
  2
AM_ANSI$SH
 70
     0
  4
mm
 41
0.1
 42
0.05
 43
0.5
 44
0.1
 47
0.1
 48
0.1
 75
     1
 76
     1
 78
     7
 79
     2
140
0.12
141
0.0
146
0.71
147
0.06
173
     1
176
   256
177
   256
178
     2
274
     4
284
     7
340
11
343
1566
371
    -1
372
    -1
  0
ENDTAB
  0
TABLE
  2
BLOCK_RECORD
  5
1
330
0
100
AcDbSymbolTable
 70
   237
  0
BLOCK_RECORD
  5
20
102
{ACAD_XDICTIONARY
360
1577
102
}
330
1
100
AcDbSymbolTableRecord
100
AcDbBlockTableRecord
  2
*Model_Space
340
23
  0
BLOCK_RECORD
  5
1C
330
1
100
AcDbSymbolTableRecord
100
AcDbBlockTableRecord
  2
*Paper_Space
340
1F
  0
BLOCK_RECORD
  5
34
330
1
100
AcDbSymbolTableRecord
100
AcDbBlockTableRecord
  2
_DOT
340
0
102
{BLKREFS
331
43
331
44
331
4F
331
50
331
5B
331
5C
331
67
331
68
331
72
331
73
331
7E
331
7F
331
89
331
8A
331
95
331
96
331
A1
331
A2
331
AD
331
AE
331
B8
331
B9
331
C5
331
C6
331
D1
331
D2
331
DD
331
DE
331
E9
331
EA
331
F6
331
F7
331
102
331
103
331
10E
331
10F
331
119
331
11A
331
124
331
125
331
130
331
131
331
13C
331
13D
331
147
331
148
331
153
331
154
331
15F
331
160
331
16B
331
16C
331
178
331
179
331
184
331
185
331
190
331
191
331
19C
331
19D
331
1A3
331
1A4
331
1AF
331
1B0
331
1BB
331
1BC
331
1C7
331
1D0
331
1D1
331
1DC
331
1DD
331
1E8
331
1E9
331
1F4
331
1F5
331
1FF
331
200
331
20B
331
20C
331
217
331
218
331
222
331
223
331
22E
331
22F
331
23A
331
243
331
24C
331
24D
331
258
331
259
331
263
331
264
331
26D
331
26E
331
27A
331
27B
331
286
331
287
331
292
331
293
331
2A9
331
2AA
331
2B4
331
2B5
331
2C0
331
2C1
331
2CD
331
2CE
331
2D9
331
2DA
331
2E5
331
2E6
331
2F2
331
2F3
331
2FF
331
300
331
30B
331
30C
331
317
331
318
331
323
331
324
331
32E
331
32F
331
33B
331
33C
331
34A
331
34B
331
356
331
357
331
364
331
365
331
370
331
371
331
37C
331
37D
331
388
331
389
331
394
331
395
331
3A0
331
3A1
331
3AB
331
3AC
331
3B7
331
3B8
331
3C4
331
3C5
331
3D0
331
3D1
331
3DC
331
3DD
331
3E8
331
3E9
331
3F4
331
3FD
331
3FE
331
408
331
411
331
41A
331
423
331
42C
331
436
331
43E
331
447
331
450
331
459
331
462
331
463
331
46D
331
46E
331
479
331
47A
331
485
331
486
331
490
331
491
331
49C
331
49D
331
4A9
331
4AA
331
4B6
331
4B7
331
4C2
331
4C3
331
4CD
331
4CE
331
4D9
331
4DA
331
4E4
331
4E5
331
4F0
331
4F1
331
4FC
331
4FD
331
508
331
509
331
514
331
515
331
51F
331
520
331
52A
331
52B
331
535
331
536
331
540
331
549
331
552
331
55B
331
55C
331
568
331
569
331
574
331
57D
331
57E
331
589
331
592
331
593
331
59E
331
59F
331
5AA
331
5AB
331
5B6
331
5B7
331
5C2
331
5C3
331
5CE
331
5CF
331
5D8
331
5D9
331
5E5
331
5E6
331
5F1
331
5F2
331
5FD
331
5FE
331
608
331
609
331
614
331
615
331
620
331
621
331
62C
331
62D
331
638
331
639
331
644
331
645
331
650
331
651
331
65C
331
65D
331
668
331
669
331
674
331
675
331
680
331
681
331
68D
331
68E
331
699
331
69A
331
6A5
331
6A6
331
6B0
331
6B1
331
6BC
331
6BD
331
6C8
331
6C9
331
6D4
331
6D5
331
6E0
331
6E1
331
6EC
331
6ED
331
6F9
331
6FA
331
705
331
706
331
711
331
712
331
71C
331
71D
331
728
331
729
331
734
331
735
102
}
  0
BLOCK_RECORD
  5
40
330
1
100
AcDbSymbolTableRecord
100
AcDbBlockTableRecord
  2
*D3
340
0
  0
BLOCK_RECORD
  5
4C
330
1
100
AcDbSymbolTableRecord
100
AcDbBlockTableRecord
  2
*D4
340
0
  0
BLOCK_RECORD
  5
58
330
1
100
AcDbSymbolTableRecord
100
AcDbBlockTableRecord
  2
*D5
340
0
  0
BLOCK_RECORD
  5
64
330
1
100
AcDbSymbolTableRecord
100
AcDbBlockTableRecord
  2
*D6
340
0
  0
BLOCK_RECORD
  5
6F
330
1
100
AcDbSymbolTableRecord
100
AcDbBlockTableRecord
  2
*D7
340
0
  0
BLOCK_RECORD
  5
7B
330
1
100
AcDbSymbolTableRecord
100
AcDbBlockTableRecord
  2
*D8
340
0
  0
BLOCK_RECORD
  5
86
330
1
100
AcDbSymbolTableRecord
100
AcDbBlockTableRecord
  2
*D9
340
0
  0
BLOCK_RECORD
  5
92
330
1
100
AcDbSymbolTableRecord
100
AcDbBlockTableRecord
  2
*D10
340
0
  0
BLOCK_RECORD
  5
9E
330
1
100
AcDbSymbolTableRecord
100
AcDbBlockTableRecord
  2
*D11
340
0
  0
BLOCK_RECORD
  5
AA
330
1
100
AcDbSymbolTableRecord
100
AcDbBlockTableRecord
  2
*D12
340
0
  0
BLOCK_RECORD
  5
B5
330
1
100
AcDbSymbolTableRecord
100
AcDbBlockTableRecord
  2
*D13
340
0
  0
BLOCK_RECORD
  5
C1
330
1
100
AcDbSymbolTableRecord
100
AcDbBlockTableRecord
  2
*D14
340
0
  0
BLOCK_RECORD
  5
CE
330
1
100
AcDbSymbolTableRecord
100
AcDbBlockTableRecord
  2
*D15
340
0
  0
BLOCK_RECORD
  5
DA
330
1
100
AcDbSymbolTableRecord
100
AcDbBlockTableRecord
  2
*D16
340
0
  0
BLOCK_RECORD
  5
E6
330
1
100
AcDbSymbolTableRecord
100
AcDbBlockTableRecord
  2
*D17
340
0
  0
BLOCK_RECORD
  5
F2
330
1
100
AcDbSymbolTableRecord
100
AcDbBlockTableRecord
  2
*D18
340
0
  0
BLOCK_RECORD
  5
FF
330
1
100
AcDbSymbolTableRecord
100
AcDbBlockTableRecord
  2
*D19
340
0
  0
BLOCK_RECORD
  5
10B
330
1
100
AcDbSymbolTableRecord
100
AcDbBlockTableRecord
  2
*D20
340
0
  0
BLOCK_RECORD
  5
116
330
1
100
AcDbSymbolTableRecord
100
AcDbBlockTableRecord
  2
*D21
340
0
  0
BLOCK_RECORD
  5
121
330
1
100
AcDbSymbolTableRecord
100
AcDbBlockTableRecord
  2
*D22
340
0
  0
BLOCK_RECORD
  5
12D
330
1
100
AcDbSymbolTableRecord
100
AcDbBlockTableRecord
  2
*D23
340
0
  0
BLOCK_RECORD
  5
139
330
1
100
AcDbSymbolTableRecord
100
AcDbBlockTableRecord
  2
*D24
340
0
  0
BLOCK_RECORD
  5
144
330
1
100
AcDbSymbolTableRecord
100
AcDbBlockTableRecord
  2
*D25
340
0
  0
BLOCK_RECORD
  5
150
330
1
100
AcDbSymbolTableRecord
100
AcDbBlockTableRecord
  2
*D26
340
0
  0
BLOCK_RECORD
  5
15C
330
1
100
AcDbSymbolTableRecord
100
AcDbBlockTableRecord
  2
*D27
340
0
  0
BLOCK_RECORD
  5
168
330
1
100
AcDbSymbolTableRecord
100
AcDbBlockTableRecord
  2
*D28
340
0
  0
BLOCK_RECORD
  5
174
330
1
100
AcDbSymbolTableRecord
100
AcDbBlockTableRecord
  2
*D29
340
0
  0
BLOCK_RECORD
  5
181
330
1
100
AcDbSymbolTableRecord
100
AcDbBlockTableRecord
  2
*D30
340
0
  0
BLOCK_RECORD
  5
18D
330
1
100
AcDbSymbolTableRecord
100
AcDbBlockTableRecord
  2
*D31
340
0
  0
BLOCK_RECORD
  5
199
330
1
100
AcDbSymbolTableRecord
100
AcDbBlockTableRecord
  2
*D32
340
0
102
{BLKREFS
331
14D4
102
}
  0
BLOCK_RECORD
  5
1A0
330
1
100
AcDbSymbolTableRecord
100
AcDbBlockTableRecord
  2
*D33
340
0
  0
BLOCK_RECORD
  5
10A9
330
1
100
AcDbSymbolTableRecord
100
AcDbBlockTableRecord
  2
KOZU0005
340
0
102
{BLKREFS
331
14CC
102
}
  0
BLOCK_RECORD
  5
10B2
330
1
100
AcDbSymbolTableRecord
100
AcDbBlockTableRecord
  2
KOZU0006
340
0
102
{BLKREFS
331
14CD
102
}
  0
BLOCK_RECORD
  5
11AD
330
1
100
AcDbSymbolTableRecord
100
AcDbBlockTableRecord
  2
KOZU0056
340
0
102
{BLKREFS
331
14AE
102
}
  0
BLOCK_RECORD
  5
1566
330
1
100
AcDbSymbolTableRecord
100
AcDbBlockTableRecord
  2
GENAXEH
340
0
  0
ENDTAB
  0
ENDSEC
  0
SECTION
  2
BLOCKS
  0
BLOCK
  5
21
330
20
100
AcDbEntity
  8
0
100
AcDbBlockBegin
  2
*Model_Space
 70
     0
 10
0.0
 20
0.0
 30
0.0
  3
*Model_Space
  1

  0
ENDBLK
  5
22
330
20
100
AcDbEntity
  8
0
100
AcDbBlockEnd
  0
BLOCK
  5
1D
330
1C
100
AcDbEntity
 67
     1
  8
0
100
AcDbBlockBegin
  2
*Paper_Space
 70
     0
 10
0.0
 20
0.0
 30
0.0
  3
*Paper_Space
  1

  0
ENDBLK
  5
1E
330
1C
100
AcDbEntity
 67
     1
  8
0
100
AcDbBlockEnd
  0
BLOCK
  5
35
330
34
100
AcDbEntity
  8
0
100
AcDbBlockBegin
  2
_DOT
 70
     0
 10
0.0
 20
0.0
 30
0.0
  3
_DOT
  1

  0
POLYLINE
  5
36
330
34
100
AcDbEntity
  8
0
  6
ByBlock
 62
     0
100
AcDb2dPolyline
 66
     1
 10
0.0
 20
0.0
 30
0.0
 70
     1
 40
0.4000000100000002
 41
0.4000000100000002
  0
VERTEX
  5
37
330
36
100
AcDbEntity
  8
0
  6
ByBlock
 62
     0
100
AcDbVertex
100
AcDb2dVertex
 10
-0.2
 20
0.0
 30
0.0
 42
1.0
  0
VERTEX
  5
38
330
36
100
AcDbEntity
  8
0
  6
ByBlock
 62
     0
100
AcDbVertex
100
AcDb2dVertex
 10
0.2
 20
0.0
 30
0.0
 42
1.0
  0
SEQEND
  5
39
330
36
100
AcDbEntity
  8
0
  6
ByBlock
 62
     0
  0
LINE
  5
3A
330
34
100
AcDbEntity
  8
0
  6
ByBlock
 62
     0
100
AcDbLine
 10
-0.4000000100000002
 20
0.0
 30
0.0
 11
-3.0
 21
0.0
 31
0.0
  0
ENDBLK
  5
3B
330
34
100
AcDbEntity
  8
0
100
AcDbBlockEnd
  0
BLOCK
  5
41
330
40
100
AcDbEntity
  8
0
100
AcDbBlockBegin
  2
*D3
 70
     1
 10
0.0
 20
0.0
 30
0.0
  3
*D3
  1

  0
LINE
  5
42
330
40
100
AcDbEntity
  8
0
  6
Continuous
 62
     7
100
AcDbLine
 10
127.9179
 20
159.41046
 30
0.0
 11
127.9179
 21
139.41046
 31
0.0
  0
INSERT
  5
43
330
40
100
AcDbEntity
  8
0
  6
Continuous
 62
     7
100
AcDbBlockReference
  2
_DOT
 10
127.9179
 20
159.41046
 30
0.0
 50
90.0
  0
INSERT
  5
44
330
40
100
AcDbEntity
  8
0
  6
Continuous
 62
     7
100
AcDbBlockReference
  2
_DOT
 10
127.9179
 20
139.41046
 30
0.0
 50
270.0
  0
LINE
  5
45
330
40
100
AcDbEntity
  8
0
  6
Continuous
 62
     7
100
AcDbLine
 10
111.63823
 20
159.41046
 30
0.0
 11
129.1179
 21
159.41046
 31
0.0
  0
LINE
  5
46
330
40
100
AcDbEntity
  8
0
  6
Continuous
 62
     7
100
AcDbLine
 10
111.63823
 20
139.41046
 30
0.0
 11
129.1179
 21
139.41046
 31
0.0
  0
TEXT
  5
47
330
40
100
AcDbEntity
  8
0
  6
Continuous
 62
     7
100
AcDbText
 10
127.1179
 20
146.66746
 30
0.0
 40
3.2
  1
20
 50
90.00000300000001
 41
1.102098199999999
100
AcDbText
  0
POINT
  5
48
330
40
100
AcDbEntity
  8
DEFPOINTS
  6
Continuous
 62
     7
100
AcDbPoint
 10
109.09823
 20
159.41046
 30
0.0
  0
POINT
  5
49
330
40
100
AcDbEntity
  8
DEFPOINTS
  6
Continuous
 62
     7
100
AcDbPoint
 10
109.09823
 20
139.41046
 30
0.0
  0
POINT
  5
4A
330
40
100
AcDbEntity
  8
DEFPOINTS
  6
Continuous
 62
     7
100
AcDbPoint
 10
127.9179
 20
139.41046
 30
0.0
  0
ENDBLK
  5
4B
330
40
100
AcDbEntity
  8
0
100
AcDbBlockEnd
  0
BLOCK
  5
4D
330
4C
100
AcDbEntity
  8
0
100
AcDbBlockBegin
  2
*D4
 70
     1
 10
0.0
 20
0.0
 30
0.0
  3
*D4
  1

  0
LINE
  5
4E
330
4C
100
AcDbEntity
  8
0
  6
Continuous
 62
     7
100
AcDbLine
 10
112.9179
 20
114.41044
 30
0.0
 11
42.917904
 21
114.41044
 31
0.0
  0
INSERT
  5
4F
330
4C
100
AcDbEntity
  8
0
  6
Continuous
 62
     7
100
AcDbBlockReference
  2
_DOT
 10
112.9179
 20
114.41044
 30
0.0
  0
INSERT
  5
50
330
4C
100
AcDbEntity
  8
0
  6
Continuous
 62
     7
100
AcDbBlockReference
  2
_DOT
 10
42.917904
 20
114.41044
 30
0.0
 50
180.0
  0
LINE
  5
51
330
4C
100
AcDbEntity
  8
0
  6
Continuous
 62
     7
100
AcDbLine
 10
112.9179
 20
146.87046
 30
0.0
 11
112.9179
 21
113.21044
 31
0.0
  0
LINE
  5
52
330
4C
100
AcDbEntity
  8
0
  6
Continuous
 62
     7
100
AcDbLine
 10
42.917904
 20
146.87046
 30
0.0
 11
42.917904
 21
113.21044
 31
0.0
  0
TEXT
  5
53
330
4C
100
AcDbEntity
  8
0
  6
Continuous
 62
     7
100
AcDbText
 10
75.17489999999998
 20
115.21044
 30
0.0
 40
3.2
  1
70
 41
1.102098199999999
100
AcDbText
  0
POINT
  5
54
330
4C
100
AcDbEntity
  8
DEFPOINTS
  6
Continuous
 62
     7
100
AcDbPoint
 10
112.9179
 20
149.41046
 30
0.0
  0
POINT
  5
55
330
4C
100
AcDbEntity
  8
DEFPOINTS
  6
Continuous
 62
     7
100
AcDbPoint
 10
42.917904
 20
149.41046
 30
0.0
  0
POINT
  5
56
330
4C
100
AcDbEntity
  8
DEFPOINTS
  6
Continuous
 62
     7
100
AcDbPoint
 10
42.917904
 20
114.41044
 30
0.0
  0
ENDBLK
  5
57
330
4C
100
AcDbEntity
  8
0
100
AcDbBlockEnd
  0
BLOCK
  5
59
330
58
100
AcDbEntity
  8
0
100
AcDbBlockBegin
  2
*D5
 70
     1
 10
0.0
 20
0.0
 30
0.0
  3
*D5
  1

  0
LINE
  5
5A
330
58
100
AcDbEntity
  8
0
  6
Continuous
 62
     7
100
AcDbLine
 10
112.9179
 20
236.28741
 30
0.0
 11
89.91789999999998
 21
236.28741
 31
0.0
  0
INSERT
  5
5B
330
58
100
AcDbEntity
  8
0
  6
Continuous
 62
     7
100
AcDbBlockReference
  2
_DOT
 10
112.9179
 20
236.28741
 30
0.0
  0
INSERT
  5
5C
330
58
100
AcDbEntity
  8
0
  6
Continuous
 62
     7
100
AcDbBlockReference
  2
_DOT
 10
89.91789999999998
 20
236.28741
 30
0.0
 50
180.0
  0
LINE
  5
5D
330
58
100
AcDbEntity
  8
0
  6
Continuous
 62
     7
100
AcDbLine
 10
112.9179
 20
226.45046
 30
0.0
 11
112.9179
 21
237.48741
 31
0.0
  0
LINE
  5
5E
330
58
100
AcDbEntity
  8
0
  6
Continuous
 62
     7
100
AcDbLine
 10
89.91789999999998
 20
220.45046
 30
0.0
 11
89.91789999999998
 21
237.48741
 31
0.0
  0
TEXT
  5
5F
330
58
100
AcDbEntity
  8
0
  6
Continuous
 62
     7
100
AcDbText
 10
98.6749
 20
237.08741
 30
0.0
 40
3.2
  1
23
 41
1.028624999999999
100
AcDbText
  0
POINT
  5
60
330
58
100
AcDbEntity
  8
DEFPOINTS
  6
Continuous
 62
     7
100
AcDbPoint
 10
112.9179
 20
223.91046
 30
0.0
  0
POINT
  5
61
330
58
100
AcDbEntity
  8
DEFPOINTS
  6
Continuous
 62
     7
100
AcDbPoint
 10
89.91789999999998
 20
217.91046
 30
0.0
  0
POINT
  5
62
330
58
100
AcDbEntity
  8
DEFPOINTS
  6
Continuous
 62
     7
100
AcDbPoint
 10
89.91789999999998
 20
236.28741
 30
0.0
  0
ENDBLK
  5
63
330
58
100
AcDbEntity
  8
0
100
AcDbBlockEnd
  0
BLOCK
  5
65
330
64
100
AcDbEntity
  8
0
100
AcDbBlockBegin
  2
*D6
 70
     1
 10
0.0
 20
0.0
 30
0.0
  3
*D6
  1

  0
LINE
  5
66
330
64
100
AcDbEntity
  8
0
  6
Continuous
 62
     7
100
AcDbLine
 10
89.91789999999998
 20
236.28741
 30
0.0
 11
82.9179
 21
236.28741
 31
0.0
  0
INSERT
  5
67
330
64
100
AcDbEntity
  8
0
  6
Continuous
 62
     7
100
AcDbBlockReference
  2
_DOT
 10
89.91789999999998
 20
236.28741
 30
0.0
  0
INSERT
  5
68
330
64
100
AcDbEntity
  8
0
  6
Continuous
 62
     7
100
AcDbBlockReference
  2
_DOT
 10
82.9179
 20
236.28741
 30
0.0
 50
180.0
  0
LINE
  5
69
330
64
100
AcDbEntity
  8
0
  6
Continuous
 62
     7
100
AcDbLine
 10
82.9179
 20
207.45046
 30
0.0
 11
82.9179
 21
237.48741
 31
0.0
  0
TEXT
  5
6A
330
64
100
AcDbEntity
  8
0
  6
Continuous
 62
     7
100
AcDbText
 10
85.2749
 20
237.08741
 30
0.0
 40
3.2
  1
7
100
AcDbText
  0
POINT
  5
6B
330
64
100
AcDbEntity
  8
DEFPOINTS
  6
Continuous
 62
     7
100
AcDbPoint
 10
89.91789999999998
 20
217.91046
 30
0.0
  0
POINT
  5
6C
330
64
100
AcDbEntity
  8
DEFPOINTS
  6
Continuous
 62
     7
100
AcDbPoint
 10
82.9179
 20
204.91046
 30
0.0
  0
POINT
  5
6D
330
64
100
AcDbEntity
  8
DEFPOINTS
  6
Continuous
 62
     7
100
AcDbPoint
 10
82.9179
 20
236.28741
 30
0.0
  0
ENDBLK
  5
6E
330
64
100
AcDbEntity
  8
0
100
AcDbBlockEnd
  0
BLOCK
  5
70
330
6F
100
AcDbEntity
  8
0
100
AcDbBlockBegin
  2
*D7
 70
     1
 10
0.0
 20
0.0
 30
0.0
  3
*D7
  1

  0
LINE
  5
71
330
6F
100
AcDbEntity
  8
0
  6
Continuous
 62
     7
100
AcDbLine
 10
127.9179
 20
217.91046
 30
0.0
 11
127.9179
 21
223.91046
 31
0.0
  0
INSERT
  5
72
330
6F
100
AcDbEntity
  8
0
  6
Continuous
 62
     7
100
AcDbBlockReference
  2
_DOT
 10
127.9179
 20
217.91046
 30
0.0
 50
270.0
  0
INSERT
  5
73
330
6F
100
AcDbEntity
  8
0
  6
Continuous
 62
     7
100
AcDbBlockReference
  2
_DOT
 10
127.9179
 20
223.91046
 30
0.0
 50
90.0
  0
LINE
  5
74
330
6F
100
AcDbEntity
  8
0
  6
Continuous
 62
     7
100
AcDbLine
 10
92.45789999999999
 20
217.91046
 30
0.0
 11
129.1179
 21
217.91046
 31
0.0
  0
LINE
  5
75
330
6F
100
AcDbEntity
  8
0
  6
Continuous
 62
     7
100
AcDbLine
 10
115.4579
 20
223.91046
 30
0.0
 11
129.1179
 21
223.91046
 31
0.0
  0
TEXT
  5
76
330
6F
100
AcDbEntity
  8
0
  6
Continuous
 62
     7
100
AcDbText
 10
127.1179
 20
219.76746
 30
0.0
 40
3.2
  1
6
 50
90.00000300000001
100
AcDbText
  0
POINT
  5
77
330
6F
100
AcDbEntity
  8
DEFPOINTS
  6
Continuous
 62
     7
100
AcDbPoint
 10
89.91789999999998
 20
217.91046
 30
0.0
  0
POINT
  5
78
330
6F
100
AcDbEntity
  8
DEFPOINTS
  6
Continuous
 62
     7
100
AcDbPoint
 10
112.9179
 20
223.91046
 30
0.0
  0
POINT
  5
79
330
6F
100
AcDbEntity
  8
DEFPOINTS
  6
Continuous
 62
     7
100
AcDbPoint
 10
127.9179
 20
223.91046
 30
0.0
  0
ENDBLK
  5
7A
330
6F
100
AcDbEntity
  8
0
100
AcDbBlockEnd
  0
BLOCK
  5
7C
330
7B
100
AcDbEntity
  8
0
100
AcDbBlockBegin
  2
*D8
 70
     1
 10
0.0
 20
0.0
 30
0.0
  3
*D8
  1

  0
LINE
  5
7D
330
7B
100
AcDbEntity
  8
0
  6
Continuous
 62
     7
100
AcDbLine
 10
127.9179
 20
217.91046
 30
0.0
 11
127.9179
 21
204.91046
 31
0.0
  0
INSERT
  5
7E
330
7B
100
AcDbEntity
  8
0
  6
Continuous
 62
     7
100
AcDbBlockReference
  2
_DOT
 10
127.9179
 20
217.91046
 30
0.0
 50
90.0
  0
INSERT
  5
7F
330
7B
100
AcDbEntity
  8
0
  6
Continuous
 62
     7
100
AcDbBlockReference
  2
_DOT
 10
127.9179
 20
204.91046
 30
0.0
 50
270.0
  0
LINE
  5
80
330
7B
100
AcDbEntity
  8
0
  6
Continuous
 62
     7
100
AcDbLine
 10
85.4579
 20
204.91046
 30
0.0
 11
129.1179
 21
204.91046
 31
0.0
  0
TEXT
  5
81
330
7B
100
AcDbEntity
  8
0
  6
Continuous
 62
     7
100
AcDbText
 10
127.1179
 20
208.66746
 30
0.0
 40
3.2
  1
13
 50
90.00000300000001
 41
1.285781199999997
100
AcDbText
  0
POINT
  5
82
330
7B
100
AcDbEntity
  8
DEFPOINTS
  6
Continuous
 62
     7
100
AcDbPoint
 10
89.91789999999998
 20
217.91046
 30
0.0
  0
POINT
  5
83
330
7B
100
AcDbEntity
  8
DEFPOINTS
  6
Continuous
 62
     7
100
AcDbPoint
 10
82.9179
 20
204.91046
 30
0.0
  0
POINT
  5
84
330
7B
100
AcDbEntity
  8
DEFPOINTS
  6
Continuous
 62
     7
100
AcDbPoint
 10
127.9179
 20
204.91046
 30
0.0
  0
ENDBLK
  5
85
330
7B
100
AcDbEntity
  8
0
100
AcDbBlockEnd
  0
BLOCK
  5
87
330
86
100
AcDbEntity
  8
0
100
AcDbBlockBegin
  2
*D9
 70
     1
 10
0.0
 20
0.0
 30
0.0
  3
*D9
  1

  0
LINE
  5
88
330
86
100
AcDbEntity
  8
0
  6
Continuous
 62
     7
100
AcDbLine
 10
112.9179
 20
124.41045
 30
0.0
 11
57.917904
 21
124.41045
 31
0.0
  0
INSERT
  5
89
330
86
100
AcDbEntity
  8
0
  6
Continuous
 62
     7
100
AcDbBlockReference
  2
_DOT
 10
112.9179
 20
124.41045
 30
0.0
  0
INSERT
  5
8A
330
86
100
AcDbEntity
  8
0
  6
Continuous
 62
     7
100
AcDbBlockReference
  2
_DOT
 10
57.917904
 20
124.41045
 30
0.0
 50
180.0
  0
LINE
  5
8B
330
86
100
AcDbEntity
  8
0
  6
Continuous
 62
     7
100
AcDbLine
 10
112.9179
 20
146.87046
 30
0.0
 11
112.9179
 21
123.21045
 31
0.0
  0
LINE
  5
8C
330
86
100
AcDbEntity
  8
0
  6
Continuous
 62
     7
100
AcDbLine
 10
57.917904
 20
129.33047
 30
0.0
 11
57.917904
 21
123.21045
 31
0.0
  0
TEXT
  5
8D
330
86
100
AcDbEntity
  8
0
  6
Continuous
 62
     7
100
AcDbText
 10
82.6749
 20
125.21045
 30
0.0
 40
3.2
  1
55
 41
1.028624999999999
100
AcDbText
  0
POINT
  5
8E
330
86
100
AcDbEntity
  8
DEFPOINTS
  6
Continuous
 62
     7
100
AcDbPoint
 10
112.9179
 20
149.41046
 30
0.0
  0
POINT
  5
8F
330
86
100
AcDbEntity
  8
DEFPOINTS
  6
Continuous
 62
     7
100
AcDbPoint
 10
57.917904
 20
131.87047
 30
0.0
  0
POINT
  5
90
330
86
100
AcDbEntity
  8
DEFPOINTS
  6
Continuous
 62
     7
100
AcDbPoint
 10
57.917904
 20
124.41045
 30
0.0
  0
ENDBLK
  5
91
330
86
100
AcDbEntity
  8
0
100
AcDbBlockEnd
  0
BLOCK
  5
93
330
92
100
AcDbEntity
  8
0
100
AcDbBlockBegin
  2
*D10
 70
     1
 10
0.0
 20
0.0
 30
0.0
  3
*D10
  1

  0
LINE
  5
94
330
92
100
AcDbEntity
  8
0
  6
Continuous
 62
     7
100
AcDbLine
 10
57.917904
 20
124.41045
 30
0.0
 11
42.917904
 21
124.41045
 31
0.0
  0
INSERT
  5
95
330
92
100
AcDbEntity
  8
0
  6
Continuous
 62
     7
100
AcDbBlockReference
  2
_DOT
 10
57.917904
 20
124.41045
 30
0.0
  0
INSERT
  5
96
330
92
100
AcDbEntity
  8
0
  6
Continuous
 62
     7
100
AcDbBlockReference
  2
_DOT
 10
42.917904
 20
124.41045
 30
0.0
 50
180.0
  0
LINE
  5
97
330
92
100
AcDbEntity
  8
0
  6
Continuous
 62
     7
100
AcDbLine
 10
57.917904
 20
133.87045
 30
0.0
 11
57.917904
 21
123.21045
 31
0.0
  0
LINE
  5
98
330
92
100
AcDbEntity
  8
0
  6
Continuous
 62
     7
100
AcDbLine
 10
42.917904
 20
146.87046
 30
0.0
 11
42.917904
 21
123.21045
 31
0.0
  0
TEXT
  5
99
330
92
100
AcDbEntity
  8
0
  6
Continuous
 62
     7
100
AcDbText
 10
47.67490399999998
 20
125.21045
 30
0.0
 40
3.2
  1
15
 41
1.285781199999997
100
AcDbText
  0
POINT
  5
9A
330
92
100
AcDbEntity
  8
DEFPOINTS
  6
Continuous
 62
     7
100
AcDbPoint
 10
57.917904
 20
136.41045
 30
0.0
  0
POINT
  5
9B
330
92
100
AcDbEntity
  8
DEFPOINTS
  6
Continuous
 62
     7
100
AcDbPoint
 10
42.917904
 20
149.41046
 30
0.0
  0
POINT
  5
9C
330
92
100
AcDbEntity
  8
DEFPOINTS
  6
Continuous
 62
     7
100
AcDbPoint
 10
42.917904
 20
124.41045
 30
0.0
  0
ENDBLK
  5
9D
330
92
100
AcDbEntity
  8
0
100
AcDbBlockEnd
  0
BLOCK
  5
9F
330
9E
100
AcDbEntity
  8
0
100
AcDbBlockBegin
  2
*D11
 70
     1
 10
0.0
 20
0.0
 30
0.0
  3
*D11
  1

  0
LINE
  5
A0
330
9E
100
AcDbEntity
  8
0
  6
Continuous
 62
     7
100
AcDbLine
 10
137.91791
 20
223.91046
 30
0.0
 11
137.91791
 21
204.91046
 31
0.0
  0
INSERT
  5
A1
330
9E
100
AcDbEntity
  8
0
  6
Continuous
 62
     7
100
AcDbBlockReference
  2
_DOT
 10
137.91791
 20
223.91046
 30
0.0
 50
90.0
  0
INSERT
  5
A2
330
9E
100
AcDbEntity
  8
0
  6
Continuous
 62
     7
100
AcDbBlockReference
  2
_DOT
 10
137.91791
 20
204.91046
 30
0.0
 50
270.0
  0
LINE
  5
A3
330
9E
100
AcDbEntity
  8
0
  6
Continuous
 62
     7
100
AcDbLine
 10
115.4579
 20
223.91046
 30
0.0
 11
139.1179
 21
223.91046
 31
0.0
  0
LINE
  5
A4
330
9E
100
AcDbEntity
  8
0
  6
Continuous
 62
     7
100
AcDbLine
 10
85.4579
 20
204.91046
 30
0.0
 11
139.1179
 21
204.91046
 31
0.0
  0
TEXT
  5
A5
330
9E
100
AcDbEntity
  8
0
  6
Continuous
 62
     7
100
AcDbText
 10
137.11791
 20
211.66746
 30
0.0
 40
3.2
  1
19
 50
90.00000300000001
 41
1.285781199999997
100
AcDbText
  0
POINT
  5
A6
330
9E
100
AcDbEntity
  8
DEFPOINTS
  6
Continuous
 62
     7
100
AcDbPoint
 10
112.9179
 20
223.91046
 30
0.0
  0
POINT
  5
A7
330
9E
100
AcDbEntity
  8
DEFPOINTS
  6
Continuous
 62
     7
100
AcDbPoint
 10
82.9179
 20
204.91046
 30
0.0
  0
POINT
  5
A8
330
9E
100
AcDbEntity
  8
DEFPOINTS
  6
Continuous
 62
     7
100
AcDbPoint
 10
137.91791
 20
204.91046
 30
0.0
  0
ENDBLK
  5
A9
330
9E
100
AcDbEntity
  8
0
100
AcDbBlockEnd
  0
BLOCK
  5
AB
330
AA
100
AcDbEntity
  8
0
100
AcDbBlockBegin
  2
*D12
 70
     1
 10
0.0
 20
0.0
 30
0.0
  3
*D12
  1

  0
LINE
  5
AC
330
AA
100
AcDbEntity
  8
0
  6
Continuous
 62
     7
100
AcDbLine
 10
82.9179
 20
236.28741
 30
0.0
 11
42.917904
 21
236.28741
 31
0.0
  0
INSERT
  5
AD
330
AA
100
AcDbEntity
  8
0
  6
Continuous
 62
     7
100
AcDbBlockReference
  2
_DOT
 10
82.9179
 20
236.28741
 30
0.0
  0
INSERT
  5
AE
330
AA
100
AcDbEntity
  8
0
  6
Continuous
 62
     7
100
AcDbBlockReference
  2
_DOT
 10
42.917904
 20
236.28741
 30
0.0
 50
180.0
  0
LINE
  5
AF
330
AA
100
AcDbEntity
  8
0
  6
Continuous
 62
     7
100
AcDbLine
 10
42.917904
 20
209.75046
 30
0.0
 11
42.917904
 21
237.48741
 31
0.0
  0
TEXT
  5
B0
330
AA
100
AcDbEntity
  8
0
  6
Continuous
 62
     7
100
AcDbText
 10
60.174904
 20
237.08741
 30
0.0
 40
3.2
  1
40
 41
1.102098199999999
100
AcDbText
  0
POINT
  5
B1
330
AA
100
AcDbEntity
  8
DEFPOINTS
  6
Continuous
 62
     7
100
AcDbPoint
 10
82.9179
 20
204.91046
 30
0.0
  0
POINT
  5
B2
330
AA
100
AcDbEntity
  8
DEFPOINTS
  6
Continuous
 62
     7
100
AcDbPoint
 10
42.917904
 20
207.21046
 30
0.0
  0
POINT
  5
B3
330
AA
100
AcDbEntity
  8
DEFPOINTS
  6
Continuous
 62
     7
100
AcDbPoint
 10
42.917904
 20
236.28741
 30
0.0
  0
ENDBLK
  5
B4
330
AA
100
AcDbEntity
  8
0
100
AcDbBlockEnd
  0
BLOCK
  5
B6
330
B5
100
AcDbEntity
  8
0
100
AcDbBlockBegin
  2
*D13
 70
     1
 10
0.0
 20
0.0
 30
0.0
  3
*D13
  1

  0
LINE
  5
B7
330
B5
100
AcDbEntity
  8
0
  6
Continuous
 62
     7
100
AcDbLine
 10
137.91792
 20
8.835821199999998
 30
0.0
 11
137.91792
 21
-11.164179
 31
0.0
  0
INSERT
  5
B8
330
B5
100
AcDbEntity
  8
0
  6
Continuous
 62
     7
100
AcDbBlockReference
  2
_DOT
 10
137.91792
 20
8.835821199999998
 30
0.0
 50
90.0
  0
INSERT
  5
B9
330
B5
100
AcDbEntity
  8
0
  6
Continuous
 62
     7
100
AcDbBlockReference
  2
_DOT
 10
137.91792
 20
-11.164179
 30
0.0
 50
270.0
  0
LINE
  5
BA
330
B5
100
AcDbEntity
  8
0
  6
Continuous
 62
     7
100
AcDbLine
 10
122.77843
 20
8.835821199999998
 30
0.0
 11
139.11792
 21
8.835821199999998
 31
0.0
  0
LINE
  5
BB
330
B5
100
AcDbEntity
  8
0
  6
Continuous
 62
     7
100
AcDbLine
 10
122.77843
 20
-11.164179
 30
0.0
 11
139.11792
 21
-11.164179
 31
0.0
  0
TEXT
  5
BC
330
B5
100
AcDbEntity
  8
0
  6
Continuous
 62
     7
100
AcDbText
 10
137.11792
 20
-3.907179099999998
 30
0.0
 40
3.2
  1
20
 50
90.00000300000001
 41
1.102098199999999
100
AcDbText
  0
POINT
  5
BD
330
B5
100
AcDbEntity
  8
DEFPOINTS
  6
Continuous
 62
     7
100
AcDbPoint
 10
120.23843
 20
8.835821199999998
 30
0.0
  0
POINT
  5
BE
330
B5
100
AcDbEntity
  8
DEFPOINTS
  6
Continuous
 62
     7
100
AcDbPoint
 10
120.23843
 20
-11.164179
 30
0.0
  0
POINT
  5
BF
330
B5
100
AcDbEntity
  8
DEFPOINTS
  6
Continuous
 62
     7
100
AcDbPoint
 10
137.91792
 20
-11.164179
 30
0.0
  0
ENDBLK
  5
C0
330
B5
100
AcDbEntity
  8
0
100
AcDbBlockEnd
  0
BLOCK
  5
C2
330
C1
100
AcDbEntity
  8
0
100
AcDbBlockBegin
  2
*D14
 70
     1
 10
0.0
 20
0.0
 30
0.0
  3
*D14
  1

  0
LINE
  5
C3
330
C1
100
AcDbEntity
  8
0
  6
Continuous
 62
     7
100
AcDbLine
 10
137.91792
 20
51.135811
 30
0.0
 11
137.91792
 21
63.522564
 31
0.0
  0
LINE
  5
C4
330
C1
100
AcDbEntity
  8
0
  6
Continuous
 62
     7
100
AcDbLine
 10
137.91792
 20
51.135811
 30
0.0
 11
137.91792
 21
48.835823
 31
0.0
  0
INSERT
  5
C5
330
C1
100
AcDbEntity
  8
0
  6
Continuous
 62
     7
100
AcDbBlockReference
  2
_DOT
 10
137.91792
 20
51.135811
 30
0.0
 50
90.0
  0
INSERT
  5
C6
330
C1
100
AcDbEntity
  8
0
  6
Continuous
 62
     7
100
AcDbBlockReference
  2
_DOT
 10
137.91792
 20
48.835823
 30
0.0
 50
270.0
  0
LINE
  5
C7
330
C1
100
AcDbEntity
  8
0
  6
Continuous
 62
     7
100
AcDbLine
 10
125.45792
 20
51.135811
 30
0.0
 11
139.11792
 21
51.135811
 31
0.0
  0
LINE
  5
C8
330
C1
100
AcDbEntity
  8
0
  6
Continuous
 62
     7
100
AcDbLine
 10
125.45792
 20
48.835823
 30
0.0
 11
139.11792
 21
48.835823
 31
0.0
  0
TEXT
  5
C9
330
C1
100
AcDbEntity
  8
0
  6
Continuous
 62
     7
100
AcDbText
 10
137.11792
 20
54.836565
 30
0.0
 40
3.2
  1
2.3
 50
90.00000300000001
 41
1.357187499999999
100
AcDbText
  0
POINT
  5
CA
330
C1
100
AcDbEntity
  8
DEFPOINTS
  6
Continuous
 62
     7
100
AcDbPoint
 10
122.91792
 20
51.135811
 30
0.0
  0
POINT
  5
CB
330
C1
100
AcDbEntity
  8
DEFPOINTS
  6
Continuous
 62
     7
100
AcDbPoint
 10
122.91792
 20
48.835823
 30
0.0
  0
POINT
  5
CC
330
C1
100
AcDbEntity
  8
DEFPOINTS
  6
Continuous
 62
     7
100
AcDbPoint
 10
137.91792
 20
48.835823
 30
0.0
  0
ENDBLK
  5
CD
330
C1
100
AcDbEntity
  8
0
100
AcDbBlockEnd
  0
BLOCK
  5
CF
330
CE
100
AcDbEntity
  8
0
100
AcDbBlockBegin
  2
*D15
 70
     1
 10
0.0
 20
0.0
 30
0.0
  3
*D15
  1

  0
LINE
  5
D0
330
CE
100
AcDbEntity
  8
0
  6
Continuous
 62
     7
100
AcDbLine
 10
46.917904
 20
-36.164177
 30
0.0
 11
122.91792
 21
-36.164177
 31
0.0
  0
INSERT
  5
D1
330
CE
100
AcDbEntity
  8
0
  6
Continuous
 62
     7
100
AcDbBlockReference
  2
_DOT
 10
46.917904
 20
-36.164177
 30
0.0
 50
180.0
  0
INSERT
  5
D2
330
CE
100
AcDbEntity
  8
0
  6
Continuous
 62
     7
100
AcDbBlockReference
  2
_DOT
 10
122.91792
 20
-36.164177
 30
0.0
  0
LINE
  5
D3
330
CE
100
AcDbEntity
  8
0
  6
Continuous
 62
     7
100
AcDbLine
 10
46.917904
 20
-6.690606599999997
 30
0.0
 11
46.917904
 21
-37.364178
 31
0.0
  0
LINE
  5
D4
330
CE
100
AcDbEntity
  8
0
  6
Continuous
 62
     7
100
AcDbLine
 10
122.91792
 20
-7.0481505
 30
0.0
 11
122.91792
 21
-37.364178
 31
0.0
  0
TEXT
  5
D5
330
CE
100
AcDbEntity
  8
0
  6
Continuous
 62
     7
100
AcDbText
 10
82.174908
 20
-35.36417700000001
 30
0.0
 40
3.2
  1
76
 41
1.028624999999999
100
AcDbText
  0
POINT
  5
D6
330
CE
100
AcDbEntity
  8
DEFPOINTS
  6
Continuous
 62
     7
100
AcDbPoint
 10
46.917904
 20
-4.150606599999997
 30
0.0
  0
POINT
  5
D7
330
CE
100
AcDbEntity
  8
DEFPOINTS
  6
Continuous
 62
     7
100
AcDbPoint
 10
122.91792
 20
-4.508150599999997
 30
0.0
  0
POINT
  5
D8
330
CE
100
AcDbEntity
  8
DEFPOINTS
  6
Continuous
 62
     7
100
AcDbPoint
 10
122.91792
 20
-36.164177
 30
0.0
  0
ENDBLK
  5
D9
330
CE
100
AcDbEntity
  8
0
100
AcDbBlockEnd
  0
BLOCK
  5
DB
330
DA
100
AcDbEntity
  8
0
100
AcDbBlockBegin
  2
*D16
 70
     1
 10
0.0
 20
0.0
 30
0.0
  3
*D16
  1

  0
LINE
  5
DC
330
DA
100
AcDbEntity
  8
0
  6
Continuous
 62
     7
100
AcDbLine
 10
147.91791
 20
204.91046
 30
0.0
 11
147.91791
 21
226.13597
 31
0.0
  0
INSERT
  5
DD
330
DA
100
AcDbEntity
  8
0
  6
Continuous
 62
     7
100
AcDbBlockReference
  2
_DOT
 10
147.91791
 20
204.91046
 30
0.0
 50
270.0
  0
INSERT
  5
DE
330
DA
100
AcDbEntity
  8
0
  6
Continuous
 62
     7
100
AcDbBlockReference
  2
_DOT
 10
147.91791
 20
226.13597
 30
0.0
 50
90.0
  0
LINE
  5
DF
330
DA
100
AcDbEntity
  8
0
  6
Continuous
 62
     7
100
AcDbLine
 10
84.08412099999997
 20
204.91046
 30
0.0
 11
149.1179
 21
204.91046
 31
0.0
  0
LINE
  5
E0
330
DA
100
AcDbEntity
  8
0
  6
Continuous
 62
     7
100
AcDbLine
 10
114.87734
 20
226.13597
 30
0.0
 11
149.1179
 21
226.13597
 31
0.0
  0
TEXT
  5
E1
330
DA
100
AcDbEntity
  8
0
  6
Continuous
 62
     7
100
AcDbText
 10
147.11791
 20
209.58021
 30
0.0
 40
3.2
  1
21.2
 50
90.00000300000001
 41
1.3928906
100
AcDbText
  0
POINT
  5
E2
330
DA
100
AcDbEntity
  8
DEFPOINTS
  6
Continuous
 62
     7
100
AcDbPoint
 10
81.544121
 20
204.91046
 30
0.0
  0
POINT
  5
E3
330
DA
100
AcDbEntity
  8
DEFPOINTS
  6
Continuous
 62
     7
100
AcDbPoint
 10
112.33734
 20
226.13597
 30
0.0
  0
POINT
  5
E4
330
DA
100
AcDbEntity
  8
DEFPOINTS
  6
Continuous
 62
     7
100
AcDbPoint
 10
147.91791
 20
226.13597
 30
0.0
  0
ENDBLK
  5
E5
330
DA
100
AcDbEntity
  8
0
100
AcDbBlockEnd
  0
BLOCK
  5
E7
330
E6
100
AcDbEntity
  8
0
100
AcDbBlockBegin
  2
*D17
 70
     1
 10
0.0
 20
0.0
 30
0.0
  3
*D17
  1

  0
LINE
  5
E8
330
E6
100
AcDbEntity
  8
0
  6
Continuous
 62
     7
100
AcDbLine
 10
57.917904
 20
-26.164177
 30
0.0
 11
122.91792
 21
-26.164177
 31
0.0
  0
INSERT
  5
E9
330
E6
100
AcDbEntity
  8
0
  6
Continuous
 62
     7
100
AcDbBlockReference
  2
_DOT
 10
57.917904
 20
-26.164177
 30
0.0
 50
180.0
  0
INSERT
  5
EA
330
E6
100
AcDbEntity
  8
0
  6
Continuous
 62
     7
100
AcDbBlockReference
  2
_DOT
 10
122.91792
 20
-26.164177
 30
0.0
  0
LINE
  5
EB
330
E6
100
AcDbEntity
  8
0
  6
Continuous
 62
     7
100
AcDbLine
 10
57.917904
 20
-16.704179
 30
0.0
 11
57.917904
 21
-27.364178
 31
0.0
  0
LINE
  5
EC
330
E6
100
AcDbEntity
  8
0
  6
Continuous
 62
     7
100
AcDbLine
 10
122.91792
 20
-3.704178999999999
 30
0.0
 11
122.91792
 21
-27.364178
 31
0.0
  0
TEXT
  5
ED
330
E6
100
AcDbEntity
  8
0
  6
Continuous
 62
     7
100
AcDbText
 10
87.674908
 20
-25.364177
 30
0.0
 40
3.2
  1
65
 41
1.028624999999999
100
AcDbText
  0
POINT
  5
EE
330
E6
100
AcDbEntity
  8
DEFPOINTS
  6
Continuous
 62
     7
100
AcDbPoint
 10
57.917904
 20
-14.164179
 30
0.0
  0
POINT
  5
EF
330
E6
100
AcDbEntity
  8
DEFPOINTS
  6
Continuous
 62
     7
100
AcDbPoint
 10
122.91792
 20
-1.1641791
 30
0.0
  0
POINT
  5
F0
330
E6
100
AcDbEntity
  8
DEFPOINTS
  6
Continuous
 62
     7
100
AcDbPoint
 10
122.91792
 20
-26.164177
 30
0.0
  0
ENDBLK
  5
F1
330
E6
100
AcDbEntity
  8
0
100
AcDbBlockEnd
  0
BLOCK
  5
F3
330
F2
100
AcDbEntity
  8
0
100
AcDbBlockBegin
  2
*D18
 70
     1
 10
0.0
 20
0.0
 30
0.0
  3
*D18
  1

  0
LINE
  5
F4
330
F2
100
AcDbEntity
  8
0
  6
Continuous
 62
     7
100
AcDbLine
 10
32.917904
 20
207.21046
 30
0.0
 11
32.917904
 21
218.47563
 31
0.0
  0
LINE
  5
F5
330
F2
100
AcDbEntity
  8
0
  6
Continuous
 62
     7
100
AcDbLine
 10
32.917904
 20
204.91046
 30
0.0
 11
32.917904
 21
207.21046
 31
0.0
  0
INSERT
  5
F6
330
F2
100
AcDbEntity
  8
0
  6
Continuous
 62
     7
100
AcDbBlockReference
  2
_DOT
 10
32.917904
 20
204.91046
 30
0.0
 50
270.0
  0
INSERT
  5
F7
330
F2
100
AcDbEntity
  8
0
  6
Continuous
 62
     7
100
AcDbBlockReference
  2
_DOT
 10
32.917904
 20
207.21046
 30
0.0
 50
90.0
  0
LINE
  5
F8
330
F2
100
AcDbEntity
  8
0
  6
Continuous
 62
     7
100
AcDbLine
 10
40.377904
 20
204.91046
 30
0.0
 11
31.717903
 21
204.91046
 31
0.0
  0
LINE
  5
F9
330
F2
100
AcDbEntity
  8
0
  6
Continuous
 62
     7
100
AcDbLine
 10
40.377904
 20
207.21046
 30
0.0
 11
31.717903
 21
207.21046
 31
0.0
  0
TEXT
  5
FA
330
F2
100
AcDbEntity
  8
0
  6
Continuous
 62
     7
100
AcDbText
 10
32.117904
 20
209.78963
 30
0.0
 40
3.2
  1
2.3
 50
90.00000300000001
 41
1.357187499999999
100
AcDbText
  0
POINT
  5
FB
330
F2
100
AcDbEntity
  8
DEFPOINTS
  6
Continuous
 62
     7
100
AcDbPoint
 10
42.917904
 20
204.91046
 30
0.0
  0
POINT
  5
FC
330
F2
100
AcDbEntity
  8
DEFPOINTS
  6
Continuous
 62
     7
100
AcDbPoint
 10
42.917904
 20
207.21046
 30
0.0
  0
POINT
  5
FD
330
F2
100
AcDbEntity
  8
DEFPOINTS
  6
Continuous
 62
     7
100
AcDbPoint
 10
32.917904
 20
207.21046
 30
0.0
  0
ENDBLK
  5
FE
330
F2
100
AcDbEntity
  8
0
100
AcDbBlockEnd
  0
BLOCK
  5
100
330
FF
100
AcDbEntity
  8
0
100
AcDbBlockBegin
  2
*D19
 70
     1
 10
0.0
 20
0.0
 30
0.0
  3
*D19
  1

  0
LINE
  5
101
330
FF
100
AcDbEntity
  8
0
  6
Continuous
 62
     7
100
AcDbLine
 10
-55.4403
 20
-9.768656699999999
 30
0.0
 11
-45.4403
 21
-9.768656699999999
 31
0.0
  0
INSERT
  5
102
330
FF
100
AcDbEntity
  8
0
  6
Continuous
 62
     7
100
AcDbBlockReference
  2
_DOT
 10
-55.4403
 20
-9.768656699999999
 30
0.0
 50
180.0
  0
INSERT
  5
103
330
FF
100
AcDbEntity
  8
0
  6
Continuous
 62
     7
100
AcDbBlockReference
  2
_DOT
 10
-45.4403
 20
-9.768656699999999
 30
0.0
  0
LINE
  5
104
330
FF
100
AcDbEntity
  8
0
  6
Continuous
 62
     7
100
AcDbLine
 10
-55.4403
 20
6.140836799999997
 30
0.0
 11
-55.4403
 21
-10.968657
 31
0.0
  0
LINE
  5
105
330
FF
100
AcDbEntity
  8
0
  6
Continuous
 62
     7
100
AcDbLine
 10
-45.4403
 20
3.191343299999997
 30
0.0
 11
-45.4403
 21
-10.968657
 31
0.0
  0
TEXT
  5
106
330
FF
100
AcDbEntity
  8
0
  6
Continuous
 62
     7
100
AcDbText
 10
-53.1833
 20
-8.9686567
 30
0.0
 40
3.2
  1
10
 41
1.402670399999999
100
AcDbText
  0
POINT
  5
107
330
FF
100
AcDbEntity
  8
DEFPOINTS
  6
Continuous
 62
     7
100
AcDbPoint
 10
-55.4403
 20
8.6808367
 30
0.0
  0
POINT
  5
108
330
FF
100
AcDbEntity
  8
DEFPOINTS
  6
Continuous
 62
     7
100
AcDbPoint
 10
-45.4403
 20
5.731343299999998
 30
0.0
  0
POINT
  5
109
330
FF
100
AcDbEntity
  8
DEFPOINTS
  6
Continuous
 62
     7
100
AcDbPoint
 10
-45.4403
 20
-9.768656699999999
 30
0.0
  0
ENDBLK
  5
10A
330
FF
100
AcDbEntity
  8
0
100
AcDbBlockEnd
  0
BLOCK
  5
10C
330
10B
100
AcDbEntity
  8
0
100
AcDbBlockBegin
  2
*D20
 70
     1
 10
0.0
 20
0.0
 30
0.0
  3
*D20
  1

  0
LINE
  5
10D
330
10B
100
AcDbEntity
  8
0
  6
Continuous
 62
     7
100
AcDbLine
 10
-45.4403
 20
-9.768656699999999
 30
0.0
 11
-24.440298
 21
-9.768656699999999
 31
0.0
  0
INSERT
  5
10E
330
10B
100
AcDbEntity
  8
0
  6
Continuous
 62
     7
100
AcDbBlockReference
  2
_DOT
 10
-45.4403
 20
-9.768656699999999
 30
0.0
 50
180.0
  0
INSERT
  5
10F
330
10B
100
AcDbEntity
  8
0
  6
Continuous
 62
     7
100
AcDbBlockReference
  2
_DOT
 10
-24.440298
 20
-9.768656699999999
 30
0.0
  0
LINE
  5
110
330
10B
100
AcDbEntity
  8
0
  6
Continuous
 62
     7
100
AcDbLine
 10
-24.440298
 20
25.191344
 30
0.0
 11
-24.440298
 21
-10.968657
 31
0.0
  0
TEXT
  5
111
330
10B
100
AcDbEntity
  8
0
  6
Continuous
 62
     7
100
AcDbText
 10
-37.68330000000001
 20
-8.9686567
 30
0.0
 40
3.2
  1
21
 41
1.186874999999999
100
AcDbText
  0
POINT
  5
112
330
10B
100
AcDbEntity
  8
DEFPOINTS
  6
Continuous
 62
     7
100
AcDbPoint
 10
-45.4403
 20
5.731343299999998
 30
0.0
  0
POINT
  5
113
330
10B
100
AcDbEntity
  8
DEFPOINTS
  6
Continuous
 62
     7
100
AcDbPoint
 10
-24.440298
 20
27.731344
 30
0.0
  0
POINT
  5
114
330
10B
100
AcDbEntity
  8
DEFPOINTS
  6
Continuous
 62
     7
100
AcDbPoint
 10
-24.440298
 20
-9.768656699999999
 30
0.0
  0
ENDBLK
  5
115
330
10B
100
AcDbEntity
  8
0
100
AcDbBlockEnd
  0
BLOCK
  5
117
330
116
100
AcDbEntity
  8
0
100
AcDbBlockBegin
  2
*D21
 70
     1
 10
0.0
 20
0.0
 30
0.0
  3
*D21
  1

  0
LINE
  5
118
330
116
100
AcDbEntity
  8
0
  6
Continuous
 62
     7
100
AcDbLine
 10
-24.440298
 20
-9.768656699999999
 30
0.0
 11
-7.440298599999997
 21
-9.768656699999999
 31
0.0
  0
INSERT
  5
119
330
116
100
AcDbEntity
  8
0
  6
Continuous
 62
     7
100
AcDbBlockReference
  2
_DOT
 10
-24.440298
 20
-9.768656699999999
 30
0.0
 50
180.0
  0
INSERT
  5
11A
330
116
100
AcDbEntity
  8
0
  6
Continuous
 62
     7
100
AcDbBlockReference
  2
_DOT
 10
-7.440298599999997
 20
-9.768656699999999
 30
0.0
  0
LINE
  5
11B
330
116
100
AcDbEntity
  8
0
  6
Continuous
 62
     7
100
AcDbLine
 10
-7.440298599999997
 20
25.191344
 30
0.0
 11
-7.440298599999997
 21
-10.968657
 31
0.0
  0
TEXT
  5
11C
330
116
100
AcDbEntity
  8
0
  6
Continuous
 62
     7
100
AcDbText
 10
-18.683298
 20
-8.9686567
 30
0.0
 40
3.2
  1
17
 41
1.285781199999997
100
AcDbText
  0
POINT
  5
11D
330
116
100
AcDbEntity
  8
DEFPOINTS
  6
Continuous
 62
     7
100
AcDbPoint
 10
-24.440298
 20
27.731344
 30
0.0
  0
POINT
  5
11E
330
116
100
AcDbEntity
  8
DEFPOINTS
  6
Continuous
 62
     7
100
AcDbPoint
 10
-7.440298599999997
 20
27.731344
 30
0.0
  0
POINT
  5
11F
330
116
100
AcDbEntity
  8
DEFPOINTS
  6
Continuous
 62
     7
100
AcDbPoint
 10
-7.440298599999997
 20
-9.768656699999999
 30
0.0
  0
ENDBLK
  5
120
330
116
100
AcDbEntity
  8
0
100
AcDbBlockEnd
  0
BLOCK
  5
122
330
121
100
AcDbEntity
  8
0
100
AcDbBlockBegin
  2
*D22
 70
     1
 10
0.0
 20
0.0
 30
0.0
  3
*D22
  1

  0
LINE
  5
123
330
121
100
AcDbEntity
  8
0
  6
Continuous
 62
     7
100
AcDbLine
 10
-55.4403
 20
-19.768656
 30
0.0
 11
-7.440298599999997
 21
-19.768656
 31
0.0
  0
INSERT
  5
124
330
121
100
AcDbEntity
  8
0
  6
Continuous
 62
     7
100
AcDbBlockReference
  2
_DOT
 10
-55.4403
 20
-19.768656
 30
0.0
 50
180.0
  0
INSERT
  5
125
330
121
100
AcDbEntity
  8
0
  6
Continuous
 62
     7
100
AcDbBlockReference
  2
_DOT
 10
-7.440298599999997
 20
-19.768656
 30
0.0
  0
LINE
  5
126
330
121
100
AcDbEntity
  8
0
  6
Continuous
 62
     7
100
AcDbLine
 10
-55.4403
 20
6.140836799999997
 30
0.0
 11
-55.4403
 21
-20.968657
 31
0.0
  0
LINE
  5
127
330
121
100
AcDbEntity
  8
0
  6
Continuous
 62
     7
100
AcDbLine
 10
-7.440298599999997
 20
25.191344
 30
0.0
 11
-7.440298599999997
 21
-20.968657
 31
0.0
  0
TEXT
  5
128
330
121
100
AcDbEntity
  8
0
  6
Continuous
 62
     7
100
AcDbText
 10
-34.183298
 20
-18.968656
 30
0.0
 40
3.2
  1
48
 41
1.028624999999999
100
AcDbText
  0
POINT
  5
129
330
121
100
AcDbEntity
  8
DEFPOINTS
  6
Continuous
 62
     7
100
AcDbPoint
 10
-55.4403
 20
8.6808367
 30
0.0
  0
POINT
  5
12A
330
121
100
AcDbEntity
  8
DEFPOINTS
  6
Continuous
 62
     7
100
AcDbPoint
 10
-7.440298599999997
 20
27.731344
 30
0.0
  0
POINT
  5
12B
330
121
100
AcDbEntity
  8
DEFPOINTS
  6
Continuous
 62
     7
100
AcDbPoint
 10
-7.440298599999997
 20
-19.768656
 30
0.0
  0
ENDBLK
  5
12C
330
121
100
AcDbEntity
  8
0
100
AcDbBlockEnd
  0
BLOCK
  5
12E
330
12D
100
AcDbEntity
  8
0
100
AcDbBlockBegin
  2
*D23
 70
     1
 10
0.0
 20
0.0
 30
0.0
  3
*D23
  1

  0
LINE
  5
12F
330
12D
100
AcDbEntity
  8
0
  6
Continuous
 62
     7
100
AcDbLine
 10
-65.44029999999999
 20
5.231343299999998
 30
0.0
 11
-65.44029999999999
 21
35.231342
 31
0.0
  0
INSERT
  5
130
330
12D
100
AcDbEntity
  8
0
  6
Continuous
 62
     7
100
AcDbBlockReference
  2
_DOT
 10
-65.44029999999999
 20
5.231343299999998
 30
0.0
 50
270.0
  0
INSERT
  5
131
330
12D
100
AcDbEntity
  8
0
  6
Continuous
 62
     7
100
AcDbBlockReference
  2
_DOT
 10
-65.44029999999999
 20
35.231342
 30
0.0
 50
90.0
  0
LINE
  5
132
330
12D
100
AcDbEntity
  8
0
  6
Continuous
 62
     7
100
AcDbLine
 10
-55.4803
 20
5.231343299999998
 30
0.0
 11
-66.640297
 21
5.231343299999998
 31
0.0
  0
LINE
  5
133
330
12D
100
AcDbEntity
  8
0
  6
Continuous
 62
     7
100
AcDbLine
 10
-57.9803
 20
35.231342
 30
0.0
 11
-66.640297
 21
35.231342
 31
0.0
  0
TEXT
  5
134
330
12D
100
AcDbEntity
  8
0
  6
Continuous
 62
     7
100
AcDbText
 10
-66.24030000000001
 20
17.488344
 30
0.0
 40
3.2
  1
30
 50
90.00000300000001
 41
1.102098199999999
100
AcDbText
  0
POINT
  5
135
330
12D
100
AcDbEntity
  8
DEFPOINTS
  6
Continuous
 62
     7
100
AcDbPoint
 10
-52.9403
 20
5.231343299999998
 30
0.0
  0
POINT
  5
136
330
12D
100
AcDbEntity
  8
DEFPOINTS
  6
Continuous
 62
     7
100
AcDbPoint
 10
-55.4403
 20
35.231342
 30
0.0
  0
POINT
  5
137
330
12D
100
AcDbEntity
  8
DEFPOINTS
  6
Continuous
 62
     7
100
AcDbPoint
 10
-65.44029999999999
 20
35.231342
 30
0.0
  0
ENDBLK
  5
138
330
12D
100
AcDbEntity
  8
0
100
AcDbBlockEnd
  0
BLOCK
  5
13A
330
139
100
AcDbEntity
  8
0
100
AcDbBlockBegin
  2
*D24
 70
     1
 10
0.0
 20
0.0
 30
0.0
  3
*D24
  1

  0
LINE
  5
13B
330
139
100
AcDbEntity
  8
0
  6
Continuous
 62
     7
100
AcDbLine
 10
-65.44029999999999
 20
35.231342
 30
0.0
 11
-65.44029999999999
 21
85.231346
 31
0.0
  0
INSERT
  5
13C
330
139
100
AcDbEntity
  8
0
  6
Continuous
 62
     7
100
AcDbBlockReference
  2
_DOT
 10
-65.44029999999999
 20
35.231342
 30
0.0
 50
270.0
  0
INSERT
  5
13D
330
139
100
AcDbEntity
  8
0
  6
Continuous
 62
     7
100
AcDbBlockReference
  2
_DOT
 10
-65.44029999999999
 20
85.231346
 30
0.0
 50
90.0
  0
LINE
  5
13E
330
139
100
AcDbEntity
  8
0
  6
Continuous
 62
     7
100
AcDbLine
 10
-50.4803
 20
85.231346
 30
0.0
 11
-66.640297
 21
85.231346
 31
0.0
  0
TEXT
  5
13F
330
139
100
AcDbEntity
  8
0
  6
Continuous
 62
     7
100
AcDbText
 10
-66.24030000000001
 20
57.48834200000001
 30
0.0
 40
3.2
  1
50
 50
90.00000300000001
 41
1.102098199999999
100
AcDbText
  0
POINT
  5
140
330
139
100
AcDbEntity
  8
DEFPOINTS
  6
Continuous
 62
     7
100
AcDbPoint
 10
-55.4403
 20
35.231342
 30
0.0
  0
POINT
  5
141
330
139
100
AcDbEntity
  8
DEFPOINTS
  6
Continuous
 62
     7
100
AcDbPoint
 10
-47.9403
 20
85.231346
 30
0.0
  0
POINT
  5
142
330
139
100
AcDbEntity
  8
DEFPOINTS
  6
Continuous
 62
     7
100
AcDbPoint
 10
-65.44029999999999
 20
85.231346
 30
0.0
  0
ENDBLK
  5
143
330
139
100
AcDbEntity
  8
0
100
AcDbBlockEnd
  0
BLOCK
  5
145
330
144
100
AcDbEntity
  8
0
100
AcDbBlockBegin
  2
*D25
 70
     1
 10
0.0
 20
0.0
 30
0.0
  3
*D25
  1

  0
LINE
  5
146
330
144
100
AcDbEntity
  8
0
  6
Continuous
 62
     7
100
AcDbLine
 10
-75.44029999999998
 20
85.231346
 30
0.0
 11
-75.44029999999998
 21
5.231343299999998
 31
0.0
  0
INSERT
  5
147
330
144
100
AcDbEntity
  8
0
  6
Continuous
 62
     7
100
AcDbBlockReference
  2
_DOT
 10
-75.44029999999998
 20
85.231346
 30
0.0
 50
90.0
  0
INSERT
  5
148
330
144
100
AcDbEntity
  8
0
  6
Continuous
 62
     7
100
AcDbBlockReference
  2
_DOT
 10
-75.44029999999998
 20
5.231343299999998
 30
0.0
 50
270.0
  0
LINE
  5
149
330
144
100
AcDbEntity
  8
0
  6
Continuous
 62
     7
100
AcDbLine
 10
-50.4803
 20
85.231346
 30
0.0
 11
-76.640297
 21
85.231346
 31
0.0
  0
LINE
  5
14A
330
144
100
AcDbEntity
  8
0
  6
Continuous
 62
     7
100
AcDbLine
 10
-55.4803
 20
5.231343299999998
 30
0.0
 11
-76.640297
 21
5.231343299999998
 31
0.0
  0
TEXT
  5
14B
330
144
100
AcDbEntity
  8
0
  6
Continuous
 62
     7
100
AcDbText
 10
-76.24030000000002
 20
42.488342
 30
0.0
 40
3.2
  1
80
 50
90.00000300000001
 41
1.102098199999999
100
AcDbText
  0
POINT
  5
14C
330
144
100
AcDbEntity
  8
DEFPOINTS
  6
Continuous
 62
     7
100
AcDbPoint
 10
-47.9403
 20
85.231346
 30
0.0
  0
POINT
  5
14D
330
144
100
AcDbEntity
  8
DEFPOINTS
  6
Continuous
 62
     7
100
AcDbPoint
 10
-52.9403
 20
5.231343299999998
 30
0.0
  0
POINT
  5
14E
330
144
100
AcDbEntity
  8
DEFPOINTS
  6
Continuous
 62
     7
100
AcDbPoint
 10
-75.44029999999998
 20
5.231343299999998
 30
0.0
  0
ENDBLK
  5
14F
330
144
100
AcDbEntity
  8
0
100
AcDbBlockEnd
  0
BLOCK
  5
151
330
150
100
AcDbEntity
  8
0
100
AcDbBlockBegin
  2
*D26
 70
     1
 10
0.0
 20
0.0
 30
0.0
  3
*D26
  1

  0
LINE
  5
152
330
150
100
AcDbEntity
  8
0
  6
Continuous
 62
     7
100
AcDbLine
 10
-118.9403
 20
-9.768656699999999
 30
0.0
 11
-106.9403
 21
-9.768656699999999
 31
0.0
  0
INSERT
  5
153
330
150
100
AcDbEntity
  8
0
  6
Continuous
 62
     7
100
AcDbBlockReference
  2
_DOT
 10
-118.9403
 20
-9.768656699999999
 30
0.0
 50
180.0
  0
INSERT
  5
154
330
150
100
AcDbEntity
  8
0
  6
Continuous
 62
     7
100
AcDbBlockReference
  2
_DOT
 10
-106.9403
 20
-9.768656699999999
 30
0.0
  0
LINE
  5
155
330
150
100
AcDbEntity
  8
0
  6
Continuous
 62
     7
100
AcDbLine
 10
-118.9403
 20
4.691343299999997
 30
0.0
 11
-118.9403
 21
-10.968657
 31
0.0
  0
LINE
  5
156
330
150
100
AcDbEntity
  8
0
  6
Continuous
 62
     7
100
AcDbLine
 10
-106.9403
 20
4.691343299999997
 30
0.0
 11
-106.9403
 21
-10.968657
 31
0.0
  0
TEXT
  5
157
330
150
100
AcDbEntity
  8
0
  6
Continuous
 62
     7
100
AcDbText
 10
-115.6833
 20
-8.9686567
 30
0.0
 40
3.2
  1
12
 41
1.285781199999997
100
AcDbText
  0
POINT
  5
158
330
150
100
AcDbEntity
  8
DEFPOINTS
  6
Continuous
 62
     7
100
AcDbPoint
 10
-118.9403
 20
7.2313433
 30
0.0
  0
POINT
  5
159
330
150
100
AcDbEntity
  8
DEFPOINTS
  6
Continuous
 62
     7
100
AcDbPoint
 10
-106.9403
 20
7.2313433
 30
0.0
  0
POINT
  5
15A
330
150
100
AcDbEntity
  8
DEFPOINTS
  6
Continuous
 62
     7
100
AcDbPoint
 10
-106.9403
 20
-9.768656699999999
 30
0.0
  0
ENDBLK
  5
15B
330
150
100
AcDbEntity
  8
0
100
AcDbBlockEnd
  0
BLOCK
  5
15D
330
15C
100
AcDbEntity
  8
0
100
AcDbBlockBegin
  2
*D27
 70
     1
 10
0.0
 20
0.0
 30
0.0
  3
*D27
  1

  0
LINE
  5
15E
330
15C
100
AcDbEntity
  8
0
  6
Continuous
 62
     7
100
AcDbLine
 10
-302.61194
 20
-9.6264753
 30
0.0
 11
-271.61194
 21
-9.6264753
 31
0.0
  0
INSERT
  5
15F
330
15C
100
AcDbEntity
  8
0
  6
Continuous
 62
     7
100
AcDbBlockReference
  2
_DOT
 10
-302.61194
 20
-9.6264753
 30
0.0
 50
180.0
  0
INSERT
  5
160
330
15C
100
AcDbEntity
  8
0
  6
Continuous
 62
     7
100
AcDbBlockReference
  2
_DOT
 10
-271.61194
 20
-9.6264753
 30
0.0
  0
LINE
  5
161
330
15C
100
AcDbEntity
  8
0
  6
Continuous
 62
     7
100
AcDbLine
 10
-302.61194
 20
11.782408
 30
0.0
 11
-302.61194
 21
-10.826476
 31
0.0
  0
LINE
  5
162
330
15C
100
AcDbEntity
  8
0
  6
Continuous
 62
     7
100
AcDbLine
 10
-271.61194
 20
11.782408
 30
0.0
 11
-271.61194
 21
-10.826476
 31
0.0
  0
TEXT
  5
163
330
15C
100
AcDbEntity
  8
0
  6
Continuous
 62
     7
100
AcDbText
 10
-289.85494
 20
-8.826475300000002
 30
0.0
 40
3.2
  1
31
 41
1.186874999999999
100
AcDbText
  0
POINT
  5
164
330
15C
100
AcDbEntity
  8
DEFPOINTS
  6
Continuous
 62
     7
100
AcDbPoint
 10
-302.61194
 20
14.322408
 30
0.0
  0
POINT
  5
165
330
15C
100
AcDbEntity
  8
DEFPOINTS
  6
Continuous
 62
     7
100
AcDbPoint
 10
-271.61194
 20
14.322408
 30
0.0
  0
POINT
  5
166
330
15C
100
AcDbEntity
  8
DEFPOINTS
  6
Continuous
 62
     7
100
AcDbPoint
 10
-271.61194
 20
-9.6264753
 30
0.0
  0
ENDBLK
  5
167
330
15C
100
AcDbEntity
  8
0
100
AcDbBlockEnd
  0
BLOCK
  5
169
330
168
100
AcDbEntity
  8
0
100
AcDbBlockBegin
  2
*D28
 70
     1
 10
0.0
 20
0.0
 30
0.0
  3
*D28
  1

  0
LINE
  5
16A
330
168
100
AcDbEntity
  8
0
  6
Continuous
 62
     7
100
AcDbLine
 10
-266.37158
 20
-6.6009564
 30
0.0
 11
-250.87158
 21
20.245831
 31
0.0
  0
INSERT
  5
16B
330
168
100
AcDbEntity
  8
0
  6
Continuous
 62
     7
100
AcDbBlockReference
  2
_DOT
 10
-266.37158
 20
-6.6009564
 30
0.0
 50
240.0
  0
INSERT
  5
16C
330
168
100
AcDbEntity
  8
0
  6
Continuous
 62
     7
100
AcDbBlockReference
  2
_DOT
 10
-250.87158
 20
20.245831
 30
0.0
 50
59.999999
  0
LINE
  5
16D
330
168
100
AcDbEntity
  8
0
  6
Continuous
 62
     7
100
AcDbLine
 10
-284.91223
 20
4.103485199999997
 30
0.0
 11
-265.33237
 21
-7.2009549
 31
0.0
  0
LINE
  5
16E
330
168
100
AcDbEntity
  8
0
  6
Continuous
 62
     7
100
AcDbLine
 10
-269.41223
 20
30.950273
 30
0.0
 11
-249.83235
 21
19.645832
 31
0.0
  0
TEXT
  5
16F
330
168
100
AcDbEntity
  8
0
  6
Continuous
 62
     7
100
AcDbText
 10
-260.6859
 20
4.8469305
 30
0.0
 40
3.2
  1
31
 50
60.000002
 41
1.186874999999999
100
AcDbText
  0
POINT
  5
170
330
168
100
AcDbEntity
  8
DEFPOINTS
  6
Continuous
 62
     7
100
AcDbPoint
 10
-287.11194
 20
5.373485099999999
 30
0.0
  0
POINT
  5
171
330
168
100
AcDbEntity
  8
DEFPOINTS
  6
Continuous
 62
     7
100
AcDbPoint
 10
-271.61194
 20
32.22027199999999
 30
0.0
  0
POINT
  5
172
330
168
100
AcDbEntity
  8
DEFPOINTS
  6
Continuous
 62
     7
100
AcDbPoint
 10
-250.87158
 20
20.245831
 30
0.0
  0
ENDBLK
  5
173
330
168
100
AcDbEntity
  8
0
100
AcDbBlockEnd
  0
BLOCK
  5
175
330
174
100
AcDbEntity
  8
0
100
AcDbBlockBegin
  2
*D29
 70
     1
 10
0.0
 20
0.0
 30
0.0
  3
*D29
  1

  0
LINE
  5
176
330
174
100
AcDbEntity
  8
0
  6
Continuous
 62
     7
100
AcDbLine
 10
-244.21408
 20
80.95019499999997
 30
0.0
 11
-244.21408
 21
65.704987
 31
0.0
  0
LINE
  5
177
330
174
100
AcDbEntity
  8
0
  6
Continuous
 62
     7
100
AcDbLine
 10
-244.21408
 20
80.95019499999997
 30
0.0
 11
-244.21408
 21
91.65017699999999
 31
0.0
  0
INSERT
  5
178
330
174
100
AcDbEntity
  8
0
  6
Continuous
 62
     7
100
AcDbBlockReference
  2
_DOT
 10
-244.21408
 20
80.95019499999997
 30
0.0
 50
270.0
  0
INSERT
  5
179
330
174
100
AcDbEntity
  8
0
  6
Continuous
 62
     7
100
AcDbBlockReference
  2
_DOT
 10
-244.21408
 20
91.65017699999999
 30
0.0
 50
90.0
  0
LINE
  5
17A
330
174
100
AcDbEntity
  8
0
  6
Continuous
 62
     7
100
AcDbLine
 10
-273.02143
 20
80.95019499999997
 30
0.0
 11
-243.01408
 21
80.95019499999997
 31
0.0
  0
LINE
  5
17B
330
174
100
AcDbEntity
  8
0
  6
Continuous
 62
     7
100
AcDbLine
 10
-270.32194
 20
91.65017699999999
 30
0.0
 11
-243.01408
 21
91.65017699999999
 31
0.0
  0
TEXT
  5
17C
330
174
100
AcDbEntity
  8
0
  6
Continuous
 62
     7
100
AcDbText
 10
-245.01408
 20
65.704987
 30
0.0
 40
3.2
  1
10.7
 50
90.00000300000001
 41
1.485749999999999
100
AcDbText
  0
POINT
  5
17D
330
174
100
AcDbEntity
  8
DEFPOINTS
  6
Continuous
 62
     7
100
AcDbPoint
 10
-275.56143
 20
80.95019499999997
 30
0.0
  0
POINT
  5
17E
330
174
100
AcDbEntity
  8
DEFPOINTS
  6
Continuous
 62
     7
100
AcDbPoint
 10
-272.86194
 20
91.65017699999999
 30
0.0
  0
POINT
  5
17F
330
174
100
AcDbEntity
  8
DEFPOINTS
  6
Continuous
 62
     7
100
AcDbPoint
 10
-244.21408
 20
91.65017699999999
 30
0.0
  0
ENDBLK
  5
180
330
174
100
AcDbEntity
  8
0
100
AcDbBlockEnd
  0
BLOCK
  5
182
330
181
100
AcDbEntity
  8
0
100
AcDbBlockBegin
  2
*D30
 70
     1
 10
0.0
 20
0.0
 30
0.0
  3
*D30
  1

  0
LINE
  5
183
330
181
100
AcDbEntity
  8
0
  6
Continuous
 62
     7
100
AcDbLine
 10
-254.21408
 20
91.65017699999999
 30
0.0
 11
-254.21408
 21
105.65018
 31
0.0
  0
INSERT
  5
184
330
181
100
AcDbEntity
  8
0
  6
Continuous
 62
     7
100
AcDbBlockReference
  2
_DOT
 10
-254.21408
 20
91.65017699999999
 30
0.0
 50
270.0
  0
INSERT
  5
185
330
181
100
AcDbEntity
  8
0
  6
Continuous
 62
     7
100
AcDbBlockReference
  2
_DOT
 10
-254.21408
 20
105.65018
 30
0.0
 50
90.0
  0
LINE
  5
186
330
181
100
AcDbEntity
  8
0
  6
Continuous
 62
     7
100
AcDbLine
 10
-270.32194
 20
91.65017699999999
 30
0.0
 11
-253.01408
 21
91.65017699999999
 31
0.0
  0
LINE
  5
187
330
181
100
AcDbEntity
  8
0
  6
Continuous
 62
     7
100
AcDbLine
 10
-273.57194
 20
105.65018
 30
0.0
 11
-253.01408
 21
105.65018
 31
0.0
  0
TEXT
  5
188
330
181
100
AcDbEntity
  8
0
  6
Continuous
 62
     7
100
AcDbText
 10
-255.01408
 20
94.307177
 30
0.0
 40
3.2
  1
※１４
 50
90.00000300000001
 41
0.85537027
100
AcDbText
  0
POINT
  5
189
330
181
100
AcDbEntity
  8
DEFPOINTS
  6
Continuous
 62
     7
100
AcDbPoint
 10
-272.86194
 20
91.65017699999999
 30
0.0
  0
POINT
  5
18A
330
181
100
AcDbEntity
  8
DEFPOINTS
  6
Continuous
 62
     7
100
AcDbPoint
 10
-276.11194
 20
105.65018
 30
0.0
  0
POINT
  5
18B
330
181
100
AcDbEntity
  8
DEFPOINTS
  6
Continuous
 62
     7
100
AcDbPoint
 10
-254.21408
 20
105.65018
 30
0.0
  0
ENDBLK
  5
18C
330
181
100
AcDbEntity
  8
0
100
AcDbBlockEnd
  0
BLOCK
  5
18E
330
18D
100
AcDbEntity
  8
0
100
AcDbBlockBegin
  2
*D31
 70
     1
 10
0.0
 20
0.0
 30
0.0
  3
*D31
  1

  0
LINE
  5
18F
330
18D
100
AcDbEntity
  8
0
  6
Continuous
 62
     7
100
AcDbLine
 10
-244.21408
 20
91.65017699999999
 30
0.0
 11
-244.21408
 21
118.65018
 31
0.0
  0
INSERT
  5
190
330
18D
100
AcDbEntity
  8
0
  6
Continuous
 62
     7
100
AcDbBlockReference
  2
_DOT
 10
-244.21408
 20
91.65017699999999
 30
0.0
 50
270.0
  0
INSERT
  5
191
330
18D
100
AcDbEntity
  8
0
  6
Continuous
 62
     7
100
AcDbBlockReference
  2
_DOT
 10
-244.21408
 20
118.65018
 30
0.0
 50
90.0
  0
LINE
  5
192
330
18D
100
AcDbEntity
  8
0
  6
Continuous
 62
     7
100
AcDbLine
 10
-270.32194
 20
91.65017699999999
 30
0.0
 11
-243.01408
 21
91.65017699999999
 31
0.0
  0
LINE
  5
193
330
18D
100
AcDbEntity
  8
0
  6
Continuous
 62
     7
100
AcDbLine
 10
-280.57194
 20
118.65018
 30
0.0
 11
-243.01408
 21
118.65018
 31
0.0
  0
TEXT
  5
194
330
18D
100
AcDbEntity
  8
0
  6
Continuous
 62
     7
100
AcDbText
 10
-245.01408
 20
102.40718
 30
0.0
 40
3.2
  1
27
 50
90.00000300000001
 41
1.028624999999999
100
AcDbText
  0
POINT
  5
195
330
18D
100
AcDbEntity
  8
DEFPOINTS
  6
Continuous
 62
     7
100
AcDbPoint
 10
-272.86194
 20
91.65017699999999
 30
0.0
  0
POINT
  5
196
330
18D
100
AcDbEntity
  8
DEFPOINTS
  6
Continuous
 62
     7
100
AcDbPoint
 10
-283.11194
 20
118.65018
 30
0.0
  0
POINT
  5
197
330
18D
100
AcDbEntity
  8
DEFPOINTS
  6
Continuous
 62
     7
100
AcDbPoint
 10
-244.21408
 20
118.65018
 30
0.0
  0
ENDBLK
  5
198
330
18D
100
AcDbEntity
  8
0
100
AcDbBlockEnd
  0
BLOCK
  5
19A
330
199
100
AcDbEntity
  8
0
100
AcDbBlockBegin
  2
*D32
 70
     1
 10
0.0
 20
0.0
 30
0.0
  3
*D32
  1

  0
LINE
  5
19B
330
199
100
AcDbEntity
  8
0
  6
Continuous
 62
     7
100
AcDbLine
 10
-337.32263
 20
31.296339
 30
0.0
 11
-353.79675
 21
15.246329
 31
0.0
  0
INSERT
  5
19C
330
199
100
AcDbEntity
  8
0
  6
Continuous
 62
     7
100
AcDbBlockReference
  2
_DOT
 10
-337.32263
 20
31.296339
 30
0.0
 50
44.25291099999999
  0
INSERT
  5
19D
330
199
100
AcDbEntity
  8
0
  6
Continuous
 62
     7
100
AcDbBlockReference
  2
_DOT
 10
-353.79675
 20
15.246329
 30
0.0
 50
224.25291
  0
TEXT
  5
19E
330
199
100
AcDbEntity
  8
0
  6
Continuous
 62
     7
100
AcDbText
 10
-371.98713
 20
7.3753694
 30
0.0
 40
3.2
  1
  
 41
3.085875
100
AcDbText
  0
ENDBLK
  5
19F
330
199
100
AcDbEntity
  8
0
100
AcDbBlockEnd
  0
BLOCK
  5
1A1
330
1A0
100
AcDbEntity
  8
0
100
AcDbBlockBegin
  2
*D33
 70
     1
 10
0.0
 20
0.0
 30
0.0
  3
*D33
  1

  0
LINE
  5
1A2
330
1A0
100
AcDbEntity
  8
0
  6
Continuous
 62
     7
100
AcDbLine
 10
-355.30969
 20
45.531208
 30
0.0
 11
-335.80969
 21
45.531208
 31
0.0
  0
INSERT
  5
1A3
330
1A0
100
AcDbEntity
  8
0
  6
Continuous
 62
     7
100
AcDbBlockReference
  2
_DOT
 10
-355.30969
 20
45.531208
 30
0.0
 50
180.0
  0
INSERT
  5
1A4
330
1A0
100
AcDbEntity
  8
0
  6
Continuous
 62
     7
100
AcDbBlockReference
  2
_DOT
 10
-335.80969
 20
45.531208
 30
0.0
  0
LINE
  5
1A5
330
1A0
100
AcDbEntity
  8
0
  6
Continuous
 62
     7
100
AcDbLine
 10
-355.30969
 20
31.909497
 30
0.0
 11
-355.30969
 21
46.73122
 31
0.0
  0
LINE
  5
1A6
330
1A0
100
AcDbEntity
  8
0
  6
Continuous
 62
     7
100
AcDbLine
 10
-335.80969
 20
31.909497
 30
0.0
 11
-335.80969
 21
46.73122
 31
0.0
  0
TEXT
  5
1A7
330
1A0
100
AcDbEntity
  8
0
  6
Continuous
 62
     7
100
AcDbText
 10
-351.50269
 20
46.331208
 30
0.0
 40
3.2
  1
１９．５
 41
0.8512700499999999
100
AcDbText
  0
POINT
  5
1A8
330
1A0
100
AcDbEntity
  8
DEFPOINTS
  6
Continuous
 62
     7
100
AcDbPoint
 10
-355.30969
 20
29.36949699999999
 30
0.0
  0
POINT
  5
1A9
330
1A0
100
AcDbEntity
  8
DEFPOINTS
  6
Continuous
 62
     7
100
AcDbPoint
 10
-335.80969
 20
29.36949699999999
 30
0.0
  0
POINT
  5
1AA
330
1A0
100
AcDbEntity
  8
DEFPOINTS
  6
Continuous
 62
     7
100
AcDbPoint
 10
-335.80969
 20
45.531208
 30
0.0
  0
ENDBLK
  5
1AB
330
1A0
100
AcDbEntity
  8
0
100
AcDbBlockEnd
  0
BLOCK
  5
10AA
330
10A9
100
AcDbEntity
  8
0
100
AcDbBlockBegin
  2
KOZU0005
 70
     0
 10
0.0
 20
0.0
 30
0.0
  3
KOZU0005
  1

  0
LINE
  5
10AB
330
10A9
100
AcDbEntity
  8
0
  6
Continuous
 62
     7
100
AcDbLine
 10
0.0
 20
0.0
 30
0.0
 11
-14.946472
 21
-25.408981
 31
0.0
  0
LINE
  5
10AC
330
10A9
100
AcDbEntity
  8
0
  6
Continuous
 62
     7
100
AcDbLine
 10
-14.946472
 20
-25.408981
 30
0.0
 11
-61.64547699999999
 21
-25.408981
 31
0.0
  0
LINE
  5
10AD
330
10A9
100
AcDbEntity
  8
0
  6
Continuous
 62
     7
100
AcDbLine
 10
0.0
 20
0.0
 30
0.0
 11
-1.101553
 21
-2.981075099999998
 31
0.0
  0
LINE
  5
10AE
330
10A9
100
AcDbEntity
  8
0
  6
Continuous
 62
     7
100
AcDbLine
 10
0.0
 20
0.0
 30
0.0
 11
-2.070366799999999
 21
-2.411184099999998
 31
0.0
  0
TEXT
  5
10AF
330
10A9
100
AcDbEntity
  8
0
  6
Continuous
 62
     7
100
AcDbText
 10
-60.73146999999998
 20
-19.808981
 30
0.0
 40
3.2
  1
スペーサーの入れ替えにより
 41
0.84350122
100
AcDbText
  0
TEXT
  5
10B0
330
10A9
100
AcDbEntity
  8
0
  6
Continuous
 62
     7
100
AcDbText
 10
-60.73146999999998
 20
-24.608981
 30
0.0
 40
3.2
  1
１３，１４，１５を選択可能
 41
0.84350122
100
AcDbText
  0
ENDBLK
  5
10B1
330
10A9
100
AcDbEntity
  8
0
100
AcDbBlockEnd
  0
BLOCK
  5
10B3
330
10B2
100
AcDbEntity
  8
0
100
AcDbBlockBegin
  2
KOZU0006
 70
     0
 10
0.0
 20
0.0
 30
0.0
  3
KOZU0006
  1

  0
LINE
  5
10B4
330
10B2
100
AcDbEntity
  8
0
  6
Continuous
 62
     7
100
AcDbLine
 10
0.0
 20
0.0
 30
0.0
 11
-10.278107
 21
21.097153
 31
0.0
  0
LINE
  5
10B5
330
10B2
100
AcDbEntity
  8
0
  6
Continuous
 62
     7
100
AcDbLine
 10
-10.278107
 20
21.097153
 30
0.0
 11
-58.20163
 21
21.097153
 31
0.0
  0
LINE
  5
10B6
330
10B2
100
AcDbEntity
  8
0
  6
Continuous
 62
     7
100
AcDbLine
 10
0.0
 20
0.0
 30
0.0
 11
-1.875201299999999
 21
2.565900999999999
 31
0.0
  0
LINE
  5
10B7
330
10B2
100
AcDbEntity
  8
0
  6
Continuous
 62
     7
100
AcDbLine
 10
0.0
 20
0.0
 30
0.0
 11
-0.8647368199999998
 21
3.0581789
 31
0.0
  0
TEXT
  5
10B8
330
10B2
100
AcDbEntity
  8
0
  6
Continuous
 62
     7
100
AcDbText
 10
-57.287622
 20
21.897153
 30
0.0
 40
3.2
  1
止め金（ＥＢ－２５，２６）
 41
0.84350122
100
AcDbText
  0
ENDBLK
  5
10B9
330
10B2
100
AcDbEntity
  8
0
100
AcDbBlockEnd
  0
BLOCK
  5
11AE
330
11AD
100
AcDbEntity
  8
0
100
AcDbBlockBegin
  2
KOZU0056
 70
     0
 10
0.0
 20
0.0
 30
0.0
  3
KOZU0056
  1

  0
LINE
  5
11AF
330
11AD
100
AcDbEntity
  8
0
  6
Continuous
 62
     7
100
AcDbLine
 10
-342.55377
 20
12.171153
 30
0.0
 11
-335.80969
 21
18.915244
 31
0.0
  0
LINE
  5
11B0
330
11AD
100
AcDbEntity
  8
0
  6
Continuous
 62
     7
100
AcDbLine
 10
-347.30975
 20
11.905294
 30
0.0
 11
-335.80969
 21
23.405376
 31
0.0
  0
LINE
  5
11B1
330
11AD
100
AcDbEntity
  8
0
  6
Continuous
 62
     7
100
AcDbLine
 10
-350.71403
 20
12.991139
 30
0.0
 11
-335.80969
 21
27.895509
 31
0.0
  0
LINE
  5
11B2
330
11AD
100
AcDbEntity
  8
0
  6
Continuous
 62
     7
100
AcDbLine
 10
-353.36733
 20
14.827967
 30
0.0
 11
-337.11632
 21
31.07900900000001
 31
0.0
  0
LINE
  5
11B3
330
11AD
100
AcDbEntity
  8
0
  6
Continuous
 62
     7
100
AcDbLine
 10
-355.30969
 20
17.375734
 30
0.0
 11
-339.58684
 21
33.098615
 31
0.0
  0
LINE
  5
11B4
330
11AD
100
AcDbEntity
  8
0
  6
Continuous
 62
     7
100
AcDbLine
 10
-355.30969
 20
21.865867
 30
0.0
 11
-342.75219
 21
34.423391
 31
0.0
  0
LINE
  5
11B5
330
11AD
100
AcDbEntity
  8
0
  6
Continuous
 62
     7
100
AcDbLine
 10
-355.30969
 20
26.355999
 30
0.0
 11
-346.98274
 21
34.682967
 31
0.0
  0
ENDBLK
  5
11B6
330
11AD
100
AcDbEntity
  8
0
100
AcDbBlockEnd
  0
BLOCK
  5
1568
330
1566
100
AcDbEntity
  8
0
100
AcDbBlockBegin
  2
GENAXEH
 70
     0
 10
0.0
 20
0.0
 30
0.0
  3
GENAXEH
  1

  0
LINE
  5
1567
330
1566
100
AcDbEntity
  8
0
100
AcDbLine
 10
-1.0
 20
0.0
 30
0.0
 11
1.0
 21
0.0
 31
0.0
  0
ENDBLK
  5
1569
330
1566
100
AcDbEntity
  8
0
100
AcDbBlockEnd
  0
ENDSEC
  0
SECTION
  2
ENTITIES
  0
LINE
  5
1380
330
20
100
AcDbEntity
  8
0
  6
Continuous
 62
     7
100
AcDbLine
 10
170.0
 20
294.5
 30
0.0
 11
170.0
 21
-100.0
 31
0.0
  0
LINE
  5
1381
330
20
100
AcDbEntity
  8
0
  6
Continuous
 62
     7
100
AcDbLine
 10
-385.0
 20
294.5
 30
0.0
 11
170.0
 21
294.5
 31
0.0
  0
LINE
  5
1382
330
20
100
AcDbEntity
  8
0
  6
Continuous
 62
     7
100
AcDbLine
 10
-385.0
 20
294.5
 30
0.0
 11
-385.0
 21
-100.0
 31
0.0
  0
LINE
  5
1383
330
20
100
AcDbEntity
  8
0
  6
Continuous
 62
     7
100
AcDbLine
 10
-365.0
 20
294.5
 30
0.0
 11
-365.0
 21
214.5
 31
0.0
  0
LINE
  5
1384
330
20
100
AcDbEntity
  8
0
  6
Continuous
 62
     7
100
AcDbLine
 10
-385.0
 20
286.5
 30
0.0
 11
-255.0
 21
286.5
 31
0.0
  0
LINE
  5
1385
330
20
100
AcDbEntity
  8
0
  6
Continuous
 62
     7
100
AcDbLine
 10
-385.0
 20
278.5
 30
0.0
 11
-255.0
 21
278.5
 31
0.0
  0
LINE
  5
1386
330
20
100
AcDbEntity
  8
0
  6
Continuous
 62
     7
100
AcDbLine
 10
-385.0
 20
230.5
 30
0.0
 11
-255.0
 21
230.5
 31
0.0
  0
LINE
  5
1387
330
20
100
AcDbEntity
  8
0
  6
Continuous
 62
     7
100
AcDbLine
 10
-385.0
 20
214.5
 30
0.0
 11
-255.0
 21
214.5
 31
0.0
  0
LINE
  5
1388
330
20
100
AcDbEntity
  8
0
  6
Continuous
 62
     7
100
AcDbLine
 10
-385.0
 20
294.5
 30
0.0
 11
-385.0
 21
214.5
 31
0.0
  0
LINE
  5
1389
330
20
100
AcDbEntity
  8
0
  6
Continuous
 62
     7
100
AcDbLine
 10
-385.0
 20
294.5
 30
0.0
 11
-275.0
 21
294.5
 31
0.0
  0
LINE
  5
138A
330
20
100
AcDbEntity
  8
0
  6
Continuous
 62
     7
100
AcDbLine
 10
-385.0
 20
-100.0
 30
0.0
 11
170.0
 21
-100.0
 31
0.0
  0
LINE
  5
138B
330
20
100
AcDbEntity
  8
0
  6
Continuous
 62
     7
100
AcDbLine
 10
54.317898
 20
153.5104399999999
 30
0.0
 11
56.21963100000001
 21
153.5104399999999
 31
0.0
  0
LINE
  5
138C
330
20
100
AcDbEntity
  8
0
  6
Continuous
 62
     7
100
AcDbLine
 10
59.616177
 20
153.5104399999999
 30
0.0
 11
61.51791
 21
153.5104399999999
 31
0.0
  0
LINE
  5
138D
330
20
100
AcDbEntity
  8
0
  6
Continuous
 62
     7
100
AcDbLine
 10
62.01791
 20
145.81049
 30
0.0
 11
62.01791
 21
147.71222
 31
0.0
  0
LINE
  5
138E
330
20
100
AcDbEntity
  8
0
  6
Continuous
 62
     7
100
AcDbLine
 10
53.81789799999999
 20
145.81049
 30
0.0
 11
53.81789799999999
 21
147.71222
 31
0.0
  0
LINE
  5
138F
330
20
100
AcDbEntity
  8
0
  6
CENTER
 62
     7
100
AcDbLine
 10
39.917904
 20
149.41046
 30
0.0
 11
115.9179
 21
149.41046
 31
0.0
  0
LINE
  5
1390
330
20
100
AcDbEntity
  8
0
  6
Continuous
 62
     7
100
AcDbLine
 10
53.81789799999999
 20
151.1087
 30
0.0
 11
53.81789799999999
 21
153.01044
 31
0.0
  0
LINE
  5
1391
330
20
100
AcDbEntity
  8
0
  6
Continuous
 62
     7
100
AcDbLine
 10
56.219624
 20
153.51045
 30
0.0
 11
57.56434999999999
 21
154.85518
 31
0.0
  0
LINE
  5
1392
330
20
100
AcDbEntity
  8
0
  6
Continuous
 62
     7
100
AcDbLine
 10
58.271458
 20
143.96571
 30
0.0
 11
59.616188
 21
145.31046
 31
0.0
  0
LINE
  5
1393
330
20
100
AcDbEntity
  8
0
  6
Continuous
 62
     7
100
AcDbLine
 10
52.473175
 20
149.0569
 30
0.0
 11
53.81790200000001
 21
147.71217
 31
0.0
  0
LINE
  5
1394
330
20
100
AcDbEntity
  8
0
  6
CENTER
 62
     7
100
AcDbLine
 10
57.917904
 20
162.41046
 30
0.0
 11
57.917904
 21
136.41045
 31
0.0
  0
LINE
  5
1395
330
20
100
AcDbEntity
  8
0
  6
Continuous
 62
     7
100
AcDbLine
 10
52.473175
 20
149.76401
 30
0.0
 11
53.81790200000001
 21
151.10873
 31
0.0
  0
LINE
  5
1396
330
20
100
AcDbEntity
  8
0
  6
Continuous
 62
     7
100
AcDbLine
 10
62.017906
 20
147.71217
 30
0.0
 11
63.36263699999999
 21
149.0569
 31
0.0
  0
LINE
  5
1397
330
20
100
AcDbEntity
  8
0
  6
Continuous
 62
     7
100
AcDbLine
 10
62.017906
 20
151.10873
 30
0.0
 11
63.36263699999999
 21
149.76401
 31
0.0
  0
LINE
  5
1398
330
20
100
AcDbEntity
  8
0
  6
Continuous
 62
     7
100
AcDbLine
 10
58.271458
 20
154.85518
 30
0.0
 11
59.616188
 21
153.51045
 31
0.0
  0
LINE
  5
1399
330
20
100
AcDbEntity
  8
0
  6
Continuous
 62
     7
100
AcDbLine
 10
62.01791
 20
151.1087
 30
0.0
 11
62.01791
 21
153.01044
 31
0.0
  0
LINE
  5
139A
330
20
100
AcDbEntity
  8
0
  6
Continuous
 62
     7
100
AcDbLine
 10
59.616177
 20
145.31049
 30
0.0
 11
61.51791
 21
145.31049
 31
0.0
  0
LINE
  5
139B
330
20
100
AcDbEntity
  8
0
  6
Continuous
 62
     7
100
AcDbLine
 10
49.33532299999999
 20
139.41046
 30
0.0
 11
106.50048
 21
139.41046
 31
0.0
  0
LINE
  5
139C
330
20
100
AcDbEntity
  8
0
  6
Continuous
 62
     7
100
AcDbLine
 10
54.317898
 20
145.31049
 30
0.0
 11
56.21963100000001
 21
145.31049
 31
0.0
  0
LINE
  5
139D
330
20
100
AcDbEntity
  8
0
  6
Continuous
 62
     7
100
AcDbLine
 10
49.33532299999999
 20
159.41046
 30
0.0
 11
106.50048
 21
159.41046
 31
0.0
  0
LINE
  5
139E
330
20
100
AcDbEntity
  8
0
  6
Continuous
 62
     7
100
AcDbLine
 10
56.219624
 20
145.31046
 30
0.0
 11
57.56434999999999
 21
143.96571
 31
0.0
  0
LINE
  5
139F
330
20
100
AcDbEntity
  8
0
  6
Continuous
 62
     7
100
AcDbLine
 10
87.89283799999996
 20
219.0009
 30
0.0
 11
81.54414399999998
 21
207.21046
 31
0.0
  0
LINE
  5
13A0
330
20
100
AcDbEntity
  8
0
  6
Continuous
 62
     7
100
AcDbLine
 10
112.91793
 20
223.91045
 30
0.0
 11
89.917908
 21
217.91045
 31
0.0
  0
LINE
  5
13A1
330
20
100
AcDbEntity
  8
0
  6
CENTER
 62
     7
100
AcDbLine
 10
57.917904
 20
201.91046
 30
0.0
 11
57.917904
 21
210.21046
 31
0.0
  0
LINE
  5
13A2
330
20
100
AcDbEntity
  8
0
  6
Continuous
 62
     7
100
AcDbLine
 10
42.917904
 20
207.21046
 30
0.0
 11
42.917904
 21
204.91046
 31
0.0
  0
LINE
  5
13A3
330
20
100
AcDbEntity
  8
0
  6
Continuous
 62
     7
100
AcDbLine
 10
81.544121
 20
204.91046
 30
0.0
 11
42.917904
 21
204.91046
 31
0.0
  0
LINE
  5
13A4
330
20
100
AcDbEntity
  8
0
  6
Continuous
 62
     7
100
AcDbLine
 10
112.33736
 20
226.13597
 30
0.0
 11
89.337341
 21
220.13597
 31
0.0
  0
LINE
  5
13A5
330
20
100
AcDbEntity
  8
0
  6
Continuous
 62
     7
100
AcDbLine
 10
81.544121
 20
207.21046
 30
0.0
 11
42.917904
 21
207.21046
 31
0.0
  0
LINE
  5
13A6
330
20
100
AcDbEntity
  8
0
  6
Continuous
 62
     7
100
AcDbLine
 10
112.33736
 20
226.13597
 30
0.0
 11
112.91793
 21
223.91045
 31
0.0
  0
LINE
  5
13A7
330
20
100
AcDbEntity
  8
0
  6
Continuous
 62
     7
100
AcDbLine
 10
89.917923
 20
217.91046
 30
0.0
 11
83.569229
 21
206.12003
 31
0.0
  0
LINE
  5
13A8
330
20
100
AcDbEntity
  8
0
  6
Continuous
 62
     7
100
AcDbLine
 10
82.9179
 20
158.41046
 30
0.0
 11
82.9179
 21
140.41046
 31
0.0
  0
LINE
  5
13A9
330
20
100
AcDbEntity
  8
0
  6
Continuous
 62
     7
100
AcDbLine
 10
89.91789999999998
 20
159.41046
 30
0.0
 11
89.91789999999998
 21
139.41046
 31
0.0
  0
LINE
  5
13AA
330
20
100
AcDbEntity
  8
0
  6
Continuous
 62
     7
100
AcDbLine
 10
53.33532299999999
 20
-11.164179
 30
0.0
 11
116.5005
 21
-11.164179
 31
0.0
  0
LINE
  5
13AB
330
20
100
AcDbEntity
  8
0
  6
Continuous
 62
     7
100
AcDbLine
 10
53.33532299999999
 20
8.835821199999998
 30
0.0
 11
116.5005
 21
8.835821199999998
 31
0.0
  0
LINE
  5
13AC
330
20
100
AcDbEntity
  8
0
  6
CENTER
 62
     7
100
AcDbLine
 10
57.917904
 20
11.375799
 30
0.0
 11
57.917904
 21
-14.164179
 31
0.0
  0
LINE
  5
13AD
330
20
100
AcDbEntity
  8
0
  6
Continuous
 62
     7
100
AcDbLine
 10
58.27148100000001
 20
-6.608879599999997
 30
0.0
 11
59.557625
 21
-5.3227329
 31
0.0
  0
LINE
  5
13AE
330
20
100
AcDbEntity
  8
0
  6
Continuous
 62
     7
100
AcDbLine
 10
63.36263699999999
 20
-0.8106167299999999
 30
0.0
 11
62.076473
 21
0.4755459100000003
 31
0.0
  0
LINE
  5
13AF
330
20
100
AcDbEntity
  8
0
  6
Continuous
 62
     7
100
AcDbLine
 10
52.47319399999999
 20
-0.8105951499999999
 30
0.0
 11
53.75933100000001
 21
0.4755405200000001
 31
0.0
  0
LINE
  5
13B0
330
20
100
AcDbEntity
  8
0
  6
Continuous
 62
     7
100
AcDbLine
 10
57.56437299999999
 20
-6.608879599999997
 30
0.0
 11
56.27823299999999
 21
-5.3227382
 31
0.0
  0
LINE
  5
13B1
330
20
100
AcDbEntity
  8
0
  6
Continuous
 62
     7
100
AcDbLine
 10
62.017895
 20
-4.7641549
 30
0.0
 11
62.017895
 21
-2.945307
 31
0.0
  0
LINE
  5
13B2
330
20
100
AcDbEntity
  8
0
  6
Continuous
 62
     7
100
AcDbLine
 10
61.51789499999999
 20
2.9358575
 30
0.0
 11
59.699001
 21
2.9358575
 31
0.0
  0
LINE
  5
13B3
330
20
100
AcDbEntity
  8
0
  6
Continuous
 62
     7
100
AcDbLine
 10
53.81791299999999
 20
-4.7641549
 30
0.0
 11
53.81791299999999
 21
-2.9452612
 31
0.0
  0
LINE
  5
13B4
330
20
100
AcDbEntity
  8
0
  6
Continuous
 62
     7
100
AcDbLine
 10
61.51789499999999
 20
-5.2641549
 30
0.0
 11
59.699047
 21
-5.2641549
 31
0.0
  0
LINE
  5
13B5
330
20
100
AcDbEntity
  8
0
  6
Continuous
 62
     7
100
AcDbLine
 10
56.278229
 20
2.994435799999998
 30
0.0
 11
57.56434999999999
 21
4.280560499999999
 31
0.0
  0
LINE
  5
13B6
330
20
100
AcDbEntity
  8
0
  6
Continuous
 62
     7
100
AcDbLine
 10
56.13680600000001
 20
2.9358575
 30
0.0
 11
54.317913
 21
2.9358575
 31
0.0
  0
LINE
  5
13B7
330
20
100
AcDbEntity
  8
0
  6
Continuous
 62
     7
100
AcDbLine
 10
59.55759
 20
2.994430299999999
 30
0.0
 11
58.271458
 21
4.280560499999999
 31
0.0
  0
LINE
  5
13B8
330
20
100
AcDbEntity
  8
0
  6
Continuous
 62
     7
100
AcDbLine
 10
62.017895
 20
0.6169717300000001
 30
0.0
 11
62.017895
 21
2.4358575
 31
0.0
  0
LINE
  5
13B9
330
20
100
AcDbEntity
  8
0
  6
Continuous
 62
     7
100
AcDbLine
 10
62.076473
 20
-2.803886199999998
 30
0.0
 11
63.36263699999999
 21
-1.5177236
 31
0.0
  0
LINE
  5
13BA
330
20
100
AcDbEntity
  8
0
  6
Continuous
 62
     7
100
AcDbLine
 10
56.13680600000001
 20
-5.2641549
 30
0.0
 11
54.317913
 21
-5.2641549
 31
0.0
  0
LINE
  5
13BB
330
20
100
AcDbEntity
  8
0
  6
Continuous
 62
     7
100
AcDbLine
 10
53.759338
 20
-2.803843
 30
0.0
 11
52.47319399999999
 21
-1.517702
 31
0.0
  0
LINE
  5
13BC
330
20
100
AcDbEntity
  8
0
  6
Continuous
 62
     7
100
AcDbLine
 10
53.81791299999999
 20
0.6169641000000003
 30
0.0
 11
53.81791299999999
 21
2.4358575
 31
0.0
  0
LINE
  5
13BD
330
20
100
AcDbEntity
  8
0
  6
Continuous
 62
     7
100
AcDbLine
 10
46.917904
 20
51.135811
 30
0.0
 11
122.91792
 21
51.135811
 31
0.0
  0
LINE
  5
13BE
330
20
100
AcDbEntity
  8
0
  6
Continuous
 62
     7
100
AcDbLine
 10
46.917904
 20
48.835823
 30
0.0
 11
122.91792
 21
48.835823
 31
0.0
  0
LINE
  5
13BF
330
20
100
AcDbEntity
  8
0
  6
CENTER
 62
     7
100
AcDbLine
 10
57.917904
 20
45.83582299999998
 30
0.0
 11
57.917904
 21
54.135811
 31
0.0
  0
LINE
  5
13C0
330
20
100
AcDbEntity
  8
0
  6
Continuous
 62
     7
100
AcDbLine
 10
122.91792
 20
48.835823
 30
0.0
 11
122.91792
 21
51.135811
 31
0.0
  0
LINE
  5
13C1
330
20
100
AcDbEntity
  8
0
  6
Continuous
 62
     7
100
AcDbLine
 10
116.5005
 20
51.135811
 30
0.0
 11
116.5005
 21
48.835823
 31
0.0
  0
LINE
  5
13C2
330
20
100
AcDbEntity
  8
0
  6
Continuous
 62
     7
100
AcDbLine
 10
53.33532299999999
 20
51.135811
 30
0.0
 11
53.33532299999999
 21
48.835823
 31
0.0
  0
LINE
  5
13C3
330
20
100
AcDbEntity
  8
0
  6
Continuous
 62
     7
100
AcDbLine
 10
46.917904
 20
51.135811
 30
0.0
 11
46.917904
 21
48.835823
 31
0.0
  0
LINE
  5
13C4
330
20
100
AcDbEntity
  8
0
  6
CENTER
 62
     7
100
AcDbLine
 10
43.917904
 20
-1.1641791
 30
0.0
 11
125.91792
 21
-1.1641791
 31
0.0
  0
LINE
  5
13C5
330
20
100
AcDbEntity
  8
0
  6
Continuous
 62
     7
100
AcDbLine
 10
-385.0
 20
230.5
 30
0.0
 11
-255.0
 21
230.5
 31
0.0
  0
LINE
  5
13C6
330
20
100
AcDbEntity
  8
0
  6
Continuous
 62
     7
100
AcDbLine
 10
-24.440298
 20
27.731344
 30
0.0
 11
-27.440298
 21
27.731344
 31
0.0
  0
LINE
  5
13C7
330
20
100
AcDbEntity
  8
0
  6
Continuous
 62
     7
100
AcDbLine
 10
-24.440298
 20
42.731342
 30
0.0
 11
-27.440298
 21
42.731342
 31
0.0
  0
LINE
  5
13C8
330
20
100
AcDbEntity
  8
0
  6
Continuous
 62
     7
100
AcDbLine
 10
-7.440298599999997
 20
27.731344
 30
0.0
 11
-7.440298599999997
 21
42.731342
 31
0.0
  0
LINE
  5
13C9
330
20
100
AcDbEntity
  8
0
  6
Continuous
 62
     7
100
AcDbLine
 10
-24.440298
 20
27.731344
 30
0.0
 11
-24.440298
 21
42.731342
 31
0.0
  0
LINE
  5
13CA
330
20
100
AcDbEntity
  8
0
  6
Continuous
 62
     7
100
AcDbLine
 10
-116.9403
 20
5.231343299999998
 30
0.0
 11
-108.9403
 21
5.231343299999998
 31
0.0
  0
LINE
  5
13CB
330
20
100
AcDbEntity
  8
0
  6
Continuous
 62
     7
100
AcDbLine
 10
-45.4403
 20
84.73134599999999
 30
0.0
 11
-45.4403
 21
5.731343299999998
 31
0.0
  0
LINE
  5
13CC
330
20
100
AcDbEntity
  8
0
  6
Continuous
 62
     7
100
AcDbLine
 10
-118.9403
 20
7.2313433
 30
0.0
 11
-118.9403
 21
83.23134600000001
 31
0.0
  0
LINE
  5
13CD
330
20
100
AcDbEntity
  8
0
  6
Continuous
 62
     7
100
AcDbLine
 10
-109.9403
 20
9.2313433
 30
0.0
 11
-109.9403
 21
81.231346
 31
0.0
  0
LINE
  5
13CE
330
20
100
AcDbEntity
  8
0
  6
Continuous
 62
     7
100
AcDbLine
 10
-116.9403
 20
85.231346
 30
0.0
 11
-108.9403
 21
85.231346
 31
0.0
  0
LINE
  5
13CF
330
20
100
AcDbEntity
  8
0
  6
Continuous
 62
     7
100
AcDbLine
 10
-115.9403
 20
9.2313433
 30
0.0
 11
-115.9403
 21
81.231346
 31
0.0
  0
LINE
  5
13D0
330
20
100
AcDbEntity
  8
0
  6
Continuous
 62
     7
100
AcDbLine
 10
-48.4403
 20
84.73134599999999
 30
0.0
 11
-48.4403
 21
84.231346
 31
0.0
  0
LINE
  5
13D1
330
20
100
AcDbEntity
  8
0
  6
Continuous
 62
     7
100
AcDbLine
 10
-114.9403
 20
82.23134599999999
 30
0.0
 11
-110.9403
 21
82.23134599999999
 31
0.0
  0
LINE
  5
13D2
330
20
100
AcDbEntity
  8
0
  6
Continuous
 62
     7
100
AcDbLine
 10
-114.9403
 20
8.2313433
 30
0.0
 11
-110.9403
 21
8.2313433
 31
0.0
  0
LINE
  5
13D3
330
20
100
AcDbEntity
  8
0
  6
Continuous
 62
     7
100
AcDbLine
 10
-52.9403
 20
5.231343299999998
 30
0.0
 11
-45.9403
 21
5.231343299999998
 31
0.0
  0
LINE
  5
13D4
330
20
100
AcDbEntity
  8
0
  6
Continuous
 62
     7
100
AcDbLine
 10
-47.9403
 20
85.231346
 30
0.0
 11
-45.9403
 21
85.231346
 31
0.0
  0
LINE
  5
13D5
330
20
100
AcDbEntity
  8
0
  6
Continuous
 62
     7
100
AcDbLine
 10
-27.440298
 20
27.731344
 30
0.0
 11
-27.440298
 21
42.731342
 31
0.0
  0
LINE
  5
13D6
330
20
100
AcDbEntity
  8
0
  6
Continuous
 62
     7
100
AcDbLine
 10
-7.440298599999997
 20
38.695454
 30
0.0
 11
-11.440298
 21
38.695454
 31
0.0
  0
LINE
  5
13D7
330
20
100
AcDbEntity
  8
0
  6
Continuous
 62
     7
100
AcDbLine
 10
-7.440298599999997
 20
31.767233
 30
0.0
 11
-11.440298
 21
31.767233
 31
0.0
  0
LINE
  5
13D8
330
20
100
AcDbEntity
  8
0
  6
Continuous
 62
     7
100
AcDbLine
 10
-7.440298599999997
 20
27.731344
 30
0.0
 11
-11.440298
 21
27.731344
 31
0.0
  0
LINE
  5
13D9
330
20
100
AcDbEntity
  8
0
  6
Continuous
 62
     7
100
AcDbLine
 10
-11.440298
 20
27.731344
 30
0.0
 11
-11.440298
 21
31.767233
 31
0.0
  0
LINE
  5
13DA
330
20
100
AcDbEntity
  8
0
  6
Continuous
 62
     7
100
AcDbLine
 10
-7.440298599999997
 20
42.731342
 30
0.0
 11
-11.440298
 21
42.731342
 31
0.0
  0
LINE
  5
13DB
330
20
100
AcDbEntity
  8
0
  6
CENTER
 62
     7
100
AcDbLine
 10
-7.440298599999997
 20
35.231342
 30
0.0
 11
-55.4403
 21
35.231342
 31
0.0
  0
LINE
  5
13DC
330
20
100
AcDbEntity
  8
0
  6
Continuous
 62
     7
100
AcDbLine
 10
-11.440298
 20
38.695454
 30
0.0
 11
-11.440298
 21
42.731342
 31
0.0
  0
LINE
  5
13DD
330
20
100
AcDbEntity
  8
0
  6
Continuous
 62
     7
100
AcDbLine
 10
-29.440298
 20
40.231342
 30
0.0
 11
-40.4403
 21
40.231342
 31
0.0
  0
LINE
  5
13DE
330
20
100
AcDbEntity
  8
0
  6
Continuous
 62
     7
100
AcDbLine
 10
-29.440298
 20
30.231344
 30
0.0
 11
-40.4403
 21
30.231344
 31
0.0
  0
LINE
  5
13DF
330
20
100
AcDbEntity
  8
0
  6
Continuous
 62
     7
100
AcDbLine
 10
-53.4403
 20
50.231342
 30
0.0
 11
-53.4403
 21
8.6808367
 31
0.0
  0
LINE
  5
13E0
330
20
100
AcDbEntity
  8
0
  6
Continuous
 62
     7
100
AcDbLine
 10
-55.4403
 20
50.231342
 30
0.0
 11
-55.4403
 21
8.6808367
 31
0.0
  0
LINE
  5
13E1
330
20
100
AcDbEntity
  8
0
  6
Continuous
 62
     7
100
AcDbLine
 10
-24.440298
 20
31.231344
 30
0.0
 11
-11.440298
 21
31.231344
 31
0.0
  0
LINE
  5
13E2
330
20
100
AcDbEntity
  8
0
  6
Continuous
 62
     7
100
AcDbLine
 10
-24.440298
 20
39.231342
 30
0.0
 11
-11.440298
 21
39.231342
 31
0.0
  0
LINE
  5
13E3
330
20
100
AcDbEntity
  8
0
  6
Continuous
 62
     7
100
AcDbLine
 10
-106.9403
 20
7.2313433
 30
0.0
 11
-106.9403
 21
83.23134600000001
 31
0.0
  0
LINE
  5
13E4
330
20
100
AcDbEntity
  8
0
  6
Continuous
 62
     7
100
AcDbLine
 10
-53.4403
 20
6.231343299999998
 30
0.0
 11
-53.4403
 21
5.731343299999998
 31
0.0
  0
LINE
  5
13E5
330
20
100
AcDbEntity
  8
0
  6
CENTER
 62
     7
100
AcDbLine
 10
-120.4403
 20
35.231342
 30
0.0
 11
-105.4403
 21
35.231342
 31
0.0
  0
LINE
  5
13E6
330
20
100
AcDbEntity
  8
0
  6
CENTER
 62
     7
100
AcDbLine
 10
-112.9403
 20
85.231346
 30
0.0
 11
-112.9403
 21
5.231343299999998
 31
0.0
  0
LINE
  5
13E7
330
20
100
AcDbEntity
  8
0
  6
CENTER
 62
     7
100
AcDbLine
 10
-304.65195
 20
23.271353
 30
0.0
 11
-269.57193
 21
23.271353
 31
0.0
  0
LINE
  5
13E8
330
20
100
AcDbEntity
  8
0
  6
CENTER
 62
     7
100
AcDbLine
 10
-287.11194
 20
40.811329
 30
0.0
 11
-287.11194
 21
5.731343299999998
 31
0.0
  0
LINE
  5
13E9
330
20
100
AcDbEntity
  8
0
  6
Continuous
 62
     7
100
AcDbLine
 10
-287.11194
 20
5.373500299999999
 30
0.0
 11
-302.61194
 21
14.322422
 31
0.0
  0
LINE
  5
13EA
330
20
100
AcDbEntity
  8
0
  6
Continuous
 62
     7
100
AcDbLine
 10
-271.6119700000001
 20
32.22028
 30
0.0
 11
-287.11194
 21
41.169201
 31
0.0
  0
LINE
  5
13EB
330
20
100
AcDbEntity
  8
0
  6
Continuous
 62
     7
100
AcDbLine
 10
-302.61194
 20
14.322408
 30
0.0
 11
-302.61194
 21
32.220264
 31
0.0
  0
LINE
  5
13EC
330
20
100
AcDbEntity
  8
0
  6
Continuous
 62
     7
100
AcDbLine
 10
-302.61194
 20
32.220284
 30
0.0
 11
-287.11194
 21
41.169212
 31
0.0
  0
LINE
  5
13ED
330
20
100
AcDbEntity
  8
0
  6
Continuous
 62
     7
100
AcDbLine
 10
-271.61194
 20
14.322408
 30
0.0
 11
-271.61194
 21
32.220264
 31
0.0
  0
LINE
  5
13EE
330
20
100
AcDbEntity
  8
0
  6
Continuous
 62
     7
100
AcDbLine
 10
-287.11194
 20
5.373522299999997
 30
0.0
 11
-271.61194
 21
14.322452
 31
0.0
  0
LINE
  5
13EF
330
20
100
AcDbEntity
  8
0
  6
Continuous
 62
     7
100
AcDbLine
 10
-207.81123
 20
-8.749461199999997
 30
0.0
 11
-167.02184
 21
-8.749461199999997
 31
0.0
  0
LINE
  5
13F0
330
20
100
AcDbEntity
  8
0
  6
Continuous
 62
     7
100
AcDbLine
 10
-200.25746
 20
19.464773
 30
0.0
 11
-200.25746
 21
15.902333
 31
0.0
  0
LINE
  5
13F1
330
20
100
AcDbEntity
  8
0
  6
Continuous
 62
     7
100
AcDbLine
 10
-205.05745
 20
19.464773
 30
0.0
 11
-205.05745
 21
15.902333
 31
0.0
  0
LINE
  5
13F2
330
20
100
AcDbEntity
  8
0
  6
Continuous
 62
     7
100
AcDbLine
 10
-205.05745
 20
30.640371
 30
0.0
 11
-205.05745
 21
27.077932
 31
0.0
  0
LINE
  5
13F3
330
20
100
AcDbEntity
  8
0
  6
Continuous
 62
     7
100
AcDbLine
 10
-200.25746
 20
30.640371
 30
0.0
 11
-200.25746
 21
27.077932
 31
0.0
  0
LINE
  5
13F4
330
20
100
AcDbEntity
  8
0
  6
Continuous
 62
     7
100
AcDbLine
 10
-202.65744
 20
5.373481799999997
 30
0.0
 11
-189.53925
 21
12.947273
 31
0.0
  0
LINE
  5
13F5
330
20
100
AcDbEntity
  8
0
  6
Continuous
 62
     7
100
AcDbLine
 10
-218.15744
 20
32.220276
 30
0.0
 11
-202.65744
 21
41.16920499999999
 31
0.0
  0
LINE
  5
13F6
330
20
100
AcDbEntity
  8
0
  6
Continuous
 62
     7
100
AcDbLine
 10
-218.15746
 20
14.322423
 30
0.0
 11
-218.15746
 21
32.22028
 31
0.0
  0
LINE
  5
13F7
330
20
100
AcDbEntity
  8
0
  6
Continuous
 62
     7
100
AcDbLine
 10
-202.65747
 20
5.3735013
 30
0.0
 11
-218.15747
 21
14.322431
 31
0.0
  0
LINE
  5
13F8
330
20
100
AcDbEntity
  8
0
  6
Continuous
 62
     7
100
AcDbLine
 10
-189.53928
 20
33.595421
 30
0.0
 11
-202.65747
 21
41.169212
 31
0.0
  0
LINE
  5
13F9
330
20
100
AcDbEntity
  8
0
  6
PHANTOM
 62
     7
100
AcDbLine
 10
-352.112
 20
107.9502
 30
0.0
 11
-352.112
 21
105.65018
 31
0.0
  0
LINE
  5
13FA
330
20
100
AcDbEntity
  8
0
  6
PHANTOM
 62
     7
100
AcDbLine
 10
-276.11194
 20
107.9502
 30
0.0
 11
-276.11194
 21
105.65018
 31
0.0
  0
LINE
  5
13FB
330
20
100
AcDbEntity
  8
0
  6
Continuous
 62
     7
100
AcDbLine
 10
-302.11194
 20
82.950195
 30
0.0
 11
-302.11194
 21
89.95019499999996
 31
0.0
  0
LINE
  5
13FC
330
20
100
AcDbEntity
  8
0
  6
Continuous
 62
     7
100
AcDbLine
 10
-272.11194
 20
82.950195
 30
0.0
 11
-272.11194
 21
89.95019499999996
 31
0.0
  0
LINE
  5
13FD
330
20
100
AcDbEntity
  8
0
  6
Continuous
 62
     7
100
AcDbLine
 10
-275.56143
 20
80.95019499999997
 30
0.0
 11
-298.66245
 21
80.95019499999997
 31
0.0
  0
LINE
  5
13FE
330
20
100
AcDbEntity
  8
0
  6
Continuous
 62
     7
100
AcDbLine
 10
-272.86194
 20
89.95019499999996
 30
0.0
 11
-272.86194
 21
91.65017699999999
 31
0.0
  0
LINE
  5
13FF
330
20
100
AcDbEntity
  8
0
  6
Continuous
 62
     7
100
AcDbLine
 10
-272.11194
 20
89.95019499999996
 30
0.0
 11
-302.11194
 21
89.95019499999996
 31
0.0
  0
LINE
  5
1400
330
20
100
AcDbEntity
  8
0
  6
Continuous
 62
     7
100
AcDbLine
 10
-277.11194
 20
101.9502
 30
0.0
 11
-297.11194
 21
101.9502
 31
0.0
  0
LINE
  5
1401
330
20
100
AcDbEntity
  8
0
  6
Continuous
 62
     7
100
AcDbLine
 10
-276.11194
 20
99.450195
 30
0.0
 11
-298.11194
 21
99.450195
 31
0.0
  0
LINE
  5
1402
330
20
100
AcDbEntity
  8
0
  6
Continuous
 62
     7
100
AcDbLine
 10
-277.11194
 20
91.65017699999999
 30
0.0
 11
-277.11194
 21
93.25018300000001
 31
0.0
  0
LINE
  5
1403
330
20
100
AcDbEntity
  8
0
  6
Continuous
 62
     7
100
AcDbLine
 10
-297.11194
 20
91.65017699999999
 30
0.0
 11
-297.11194
 21
93.25018300000001
 31
0.0
  0
LINE
  5
1404
330
20
100
AcDbEntity
  8
0
  6
Continuous
 62
     7
100
AcDbLine
 10
-273.36194
 20
93.25018300000001
 30
0.0
 11
-300.86194
 21
93.25018300000001
 31
0.0
  0
LINE
  5
1405
330
20
100
AcDbEntity
  8
0
  6
Continuous
 62
     7
100
AcDbLine
 10
-298.11194
 20
91.65017699999999
 30
0.0
 11
-298.11194
 21
93.25018300000001
 31
0.0
  0
LINE
  5
1406
330
20
100
AcDbEntity
  8
0
  6
Continuous
 62
     7
100
AcDbLine
 10
-276.11194
 20
91.65017699999999
 30
0.0
 11
-276.11194
 21
93.25018300000001
 31
0.0
  0
LINE
  5
1407
330
20
100
AcDbEntity
  8
0
  6
Continuous
 62
     7
100
AcDbLine
 10
-291.11194
 20
118.65018
 30
0.0
 11
-291.11194
 21
117.9502
 31
0.0
  0
LINE
  5
1408
330
20
100
AcDbEntity
  8
0
  6
DASHED
 62
     7
100
AcDbLine
 10
-291.11194
 20
108.9502
 30
0.0
 11
-291.11194
 21
117.9502
 31
0.0
  0
LINE
  5
1409
330
20
100
AcDbEntity
  8
0
  6
DASHED
 62
     7
100
AcDbLine
 10
-283.11194
 20
108.9502
 30
0.0
 11
-283.11194
 21
117.9502
 31
0.0
  0
LINE
  5
140A
330
20
100
AcDbEntity
  8
0
  6
Continuous
 62
     2
100
AcDbLine
 10
-283.78842
 20
118.65018
 30
0.0
 11
-283.78842
 21
117.9502
 31
0.0
  0
LINE
  5
140B
330
20
100
AcDbEntity
  8
0
  6
Continuous
 62
     7
100
AcDbLine
 10
-283.11194
 20
118.65018
 30
0.0
 11
-291.11194
 21
118.65018
 31
0.0
  0
LINE
  5
140C
330
20
100
AcDbEntity
  8
0
  6
Continuous
 62
     7
100
AcDbLine
 10
-278.11194
 20
108.9502
 30
0.0
 11
-296.11194
 21
108.9502
 31
0.0
  0
LINE
  5
140D
330
20
100
AcDbEntity
  8
0
  6
Continuous
 62
     7
100
AcDbLine
 10
-272.11194
 20
85.95019499999997
 30
0.0
 11
-302.11194
 21
85.95019499999997
 31
0.0
  0
LINE
  5
140E
330
20
100
AcDbEntity
  8
0
  6
Continuous
 62
     7
100
AcDbLine
 10
-272.11194
 20
82.950195
 30
0.0
 11
-302.11194
 21
82.950195
 31
0.0
  0
LINE
  5
140F
330
20
100
AcDbEntity
  8
0
  6
Continuous
 62
     7
100
AcDbLine
 10
-278.11194
 20
107.9502
 30
0.0
 11
-296.11194
 21
107.9502
 31
0.0
  0
LINE
  5
1410
330
20
100
AcDbEntity
  8
0
  6
Continuous
 62
     7
100
AcDbLine
 10
-283.11194
 20
117.9502
 30
0.0
 11
-291.11194
 21
117.9502
 31
0.0
  0
LINE
  5
1411
330
20
100
AcDbEntity
  8
0
  6
CENTER
 62
     7
100
AcDbLine
 10
-287.11194
 20
80.95019499999997
 30
0.0
 11
-287.11194
 21
124.17572
 31
0.0
  0
LINE
  5
1412
330
20
100
AcDbEntity
  8
0
  6
Continuous
 62
     7
100
AcDbLine
 10
-296.11194
 20
107.9502
 30
0.0
 11
-296.11194
 21
108.9502
 31
0.0
  0
LINE
  5
1413
330
20
100
AcDbEntity
  8
0
  6
Continuous
 62
     7
100
AcDbLine
 10
-278.11194
 20
105.65018
 30
0.0
 11
-296.11194
 21
105.65018
 31
0.0
  0
LINE
  5
1414
330
20
100
AcDbEntity
  8
0
  6
Continuous
 62
     7
100
AcDbLine
 10
-287.11194
 20
107.9502
 30
0.0
 11
-287.11194
 21
108.15018
 31
0.0
  0
LINE
  5
1415
330
20
100
AcDbEntity
  8
0
  6
Continuous
 62
     7
100
AcDbLine
 10
-278.11194
 20
104.65018
 30
0.0
 11
-278.11194
 21
105.65018
 31
0.0
  0
LINE
  5
1416
330
20
100
AcDbEntity
  8
0
  6
Continuous
 62
     7
100
AcDbLine
 10
-278.11194
 20
107.9502
 30
0.0
 11
-278.11194
 21
108.9502
 31
0.0
  0
LINE
  5
1417
330
20
100
AcDbEntity
  8
0
  6
Continuous
 62
     7
100
AcDbLine
 10
-296.11194
 20
104.65018
 30
0.0
 11
-296.11194
 21
105.65018
 31
0.0
  0
LINE
  5
1418
330
20
100
AcDbEntity
  8
0
  6
Continuous
 62
     7
100
AcDbLine
 10
-281.56668
 20
91.65017699999999
 30
0.0
 11
-281.56668
 21
93.25018300000001
 31
0.0
  0
LINE
  5
1419
330
20
100
AcDbEntity
  8
0
  6
Continuous
 62
     7
100
AcDbLine
 10
-292.6572
 20
91.65017699999999
 30
0.0
 11
-292.6572
 21
93.25018300000001
 31
0.0
  0
LINE
  5
141A
330
20
100
AcDbEntity
  8
0
  6
Continuous
 62
     7
100
AcDbLine
 10
-269.21408
 20
94.750183
 30
0.0
 11
-305.0098
 21
94.750183
 31
0.0
  0
LINE
  5
141B
330
20
100
AcDbEntity
  8
0
  6
Continuous
 62
     7
100
AcDbLine
 10
-269.21408
 20
97.75018300000001
 30
0.0
 11
-305.0098
 21
97.75018300000001
 31
0.0
  0
LINE
  5
141C
330
20
100
AcDbEntity
  8
0
  6
Continuous
 62
     7
100
AcDbLine
 10
-294.61194
 20
108.9502
 30
0.0
 11
-294.61194
 21
110.9502
 31
0.0
  0
LINE
  5
141D
330
20
100
AcDbEntity
  8
0
  6
DASHED
 62
     7
100
AcDbLine
 10
-291.61194
 20
108.9502
 30
0.0
 11
-291.61194
 21
110.9502
 31
0.0
  0
LINE
  5
141E
330
20
100
AcDbEntity
  8
0
  6
Continuous
 62
     7
100
AcDbLine
 10
-305.0098
 20
94.750183
 30
0.0
 11
-305.0098
 21
97.75018300000001
 31
0.0
  0
LINE
  5
141F
330
20
100
AcDbEntity
  8
0
  6
Continuous
 62
     7
100
AcDbLine
 10
-296.06088
 20
94.750183
 30
0.0
 11
-296.06088
 21
97.75018300000001
 31
0.0
  0
LINE
  5
1420
330
20
100
AcDbEntity
  8
0
  6
Continuous
 62
     7
100
AcDbLine
 10
-269.21408
 20
94.750183
 30
0.0
 11
-269.21408
 21
97.75018300000001
 31
0.0
  0
LINE
  5
1421
330
20
100
AcDbEntity
  8
0
  6
Continuous
 62
     7
100
AcDbLine
 10
-296.61194
 20
101.9502
 30
0.0
 11
-296.61194
 21
104.65018
 31
0.0
  0
LINE
  5
1422
330
20
100
AcDbEntity
  8
0
  6
Continuous
 62
     7
100
AcDbLine
 10
-277.11194
 20
99.450195
 30
0.0
 11
-277.11194
 21
101.9502
 31
0.0
  0
LINE
  5
1423
330
20
100
AcDbEntity
  8
0
  6
Continuous
 62
     7
100
AcDbLine
 10
-277.61194
 20
105.65018
 30
0.0
 11
-296.61194
 21
105.65018
 31
0.0
  0
LINE
  5
1424
330
20
100
AcDbEntity
  8
0
  6
Continuous
 62
     7
100
AcDbLine
 10
-281.74683
 20
101.9502
 30
0.0
 11
-296.61194
 21
101.9502
 31
0.0
  0
LINE
  5
1425
330
20
100
AcDbEntity
  8
0
  6
Continuous
 62
     7
100
AcDbLine
 10
-279.61194
 20
108.9502
 30
0.0
 11
-279.61194
 21
110.9502
 31
0.0
  0
LINE
  5
1426
330
20
100
AcDbEntity
  8
0
  6
Continuous
 62
     7
100
AcDbLine
 10
-277.61194
 20
101.9502
 30
0.0
 11
-277.61194
 21
104.65018
 31
0.0
  0
LINE
  5
1427
330
20
100
AcDbEntity
  8
0
  6
DASHED
 62
     7
100
AcDbLine
 10
-282.61194
 20
108.9502
 30
0.0
 11
-282.61194
 21
110.9502
 31
0.0
  0
LINE
  5
1428
330
20
100
AcDbEntity
  8
0
  6
CENTER
 62
     7
100
AcDbLine
 10
-287.11194
 20
108.65018
 30
0.0
 11
-287.11194
 21
109.65018
 31
0.0
  0
LINE
  5
1429
330
20
100
AcDbEntity
  8
0
  6
Continuous
 62
     7
100
AcDbLine
 10
-279.61194
 20
110.9502
 30
0.0
 11
-294.61194
 21
110.9502
 31
0.0
  0
LINE
  5
142A
330
20
100
AcDbEntity
  8
0
  6
Continuous
 62
     7
100
AcDbLine
 10
-279.61194
 20
108.9502
 30
0.0
 11
-294.61194
 21
108.9502
 31
0.0
  0
LINE
  5
142B
330
20
100
AcDbEntity
  8
0
  6
Continuous
 62
     7
100
AcDbLine
 10
-279.60638
 20
110.9502
 30
0.0
 11
-294.61749
 21
110.9502
 31
0.0
  0
LINE
  5
142C
330
20
100
AcDbEntity
  8
0
  6
Continuous
 62
     7
100
AcDbLine
 10
-280.60638
 20
117.9502
 30
0.0
 11
-293.61749
 21
117.9502
 31
0.0
  0
LINE
  5
142D
330
20
100
AcDbEntity
  8
0
  6
Continuous
 62
     7
100
AcDbLine
 10
-279.60638
 20
110.9502
 30
0.0
 11
-279.60638
 21
116.9502
 31
0.0
  0
LINE
  5
142E
330
20
100
AcDbEntity
  8
0
  6
Continuous
 62
     7
100
AcDbLine
 10
-283.35916
 20
110.9502
 30
0.0
 11
-283.35916
 21
116.9502
 31
0.0
  0
LINE
  5
142F
330
20
100
AcDbEntity
  8
0
  6
Continuous
 62
     7
100
AcDbLine
 10
-290.86472
 20
110.9502
 30
0.0
 11
-290.86472
 21
116.9502
 31
0.0
  0
LINE
  5
1430
330
20
100
AcDbEntity
  8
0
  6
Continuous
 62
     7
100
AcDbLine
 10
-294.61749
 20
110.9502
 30
0.0
 11
-294.61749
 21
116.9502
 31
0.0
  0
LINE
  5
1431
330
20
100
AcDbEntity
  8
0
  6
Continuous
 62
     7
100
AcDbLine
 10
-277.11194
 20
97.75018300000001
 30
0.0
 11
-277.11194
 21
99.450195
 31
0.0
  0
LINE
  5
1432
330
20
100
AcDbEntity
  8
0
  6
Continuous
 62
     7
100
AcDbLine
 10
-276.11194
 20
97.75018300000001
 30
0.0
 11
-276.11194
 21
99.450195
 31
0.0
  0
LINE
  5
1433
330
20
100
AcDbEntity
  8
0
  6
Continuous
 62
     7
100
AcDbLine
 10
-281.56668
 20
97.75018300000001
 30
0.0
 11
-281.56668
 21
99.450195
 31
0.0
  0
LINE
  5
1434
330
20
100
AcDbEntity
  8
0
  6
Continuous
 62
     7
100
AcDbLine
 10
-297.11194
 20
99.450195
 30
0.0
 11
-297.11194
 21
101.9502
 31
0.0
  0
LINE
  5
1435
330
20
100
AcDbEntity
  8
0
  6
Continuous
 62
     7
100
AcDbLine
 10
-297.11194
 20
97.75018300000001
 30
0.0
 11
-297.11194
 21
99.450195
 31
0.0
  0
LINE
  5
1436
330
20
100
AcDbEntity
  8
0
  6
Continuous
 62
     7
100
AcDbLine
 10
-292.6572
 20
97.75018300000001
 30
0.0
 11
-292.6572
 21
99.450195
 31
0.0
  0
LINE
  5
1437
330
20
100
AcDbEntity
  8
0
  6
Continuous
 62
     7
100
AcDbLine
 10
-298.11194
 20
97.75018300000001
 30
0.0
 11
-298.11194
 21
99.450195
 31
0.0
  0
LINE
  5
1438
330
20
100
AcDbEntity
  8
0
  6
Continuous
 62
     7
100
AcDbLine
 10
-278.11194
 20
104.65018
 30
0.0
 11
-296.11194
 21
104.65018
 31
0.0
  0
LINE
  5
1439
330
20
100
AcDbEntity
  8
0
  6
Continuous
 62
     7
100
AcDbLine
 10
-283.11194
 20
117.9502
 30
0.0
 11
-283.11194
 21
118.65018
 31
0.0
  0
LINE
  5
143A
330
20
100
AcDbEntity
  8
0
  6
Continuous
 62
     7
100
AcDbLine
 10
-277.61194
 20
104.65018
 30
0.0
 11
-296.61194
 21
104.65018
 31
0.0
  0
LINE
  5
143B
330
20
100
AcDbEntity
  8
0
  6
Continuous
 62
     2
100
AcDbLine
 10
-290.43546
 20
117.9502
 30
0.0
 11
-290.43546
 21
118.65018
 31
0.0
  0
LINE
  5
143C
330
20
100
AcDbEntity
  8
0
  6
PHANTOM
 62
     7
100
AcDbLine
 10
-352.112
 20
107.9502
 30
0.0
 11
-276.11194
 21
107.9502
 31
0.0
  0
LINE
  5
143D
330
20
100
AcDbEntity
  8
0
  6
PHANTOM
 62
     7
100
AcDbLine
 10
-352.112
 20
105.65018
 30
0.0
 11
-276.11194
 21
105.65018
 31
0.0
  0
LINE
  5
143E
330
20
100
AcDbEntity
  8
0
  6
Continuous
 62
     7
100
AcDbLine
 10
-301.36194
 20
89.95019499999996
 30
0.0
 11
-301.36194
 21
91.65017699999999
 31
0.0
  0
LINE
  5
143F
330
20
100
AcDbEntity
  8
0
  6
Continuous
 62
     7
100
AcDbLine
 10
-272.86194
 20
91.65017699999999
 30
0.0
 11
-301.36194
 21
91.65017699999999
 31
0.0
  0
LINE
  5
1440
330
20
100
AcDbEntity
  8
0
  6
Continuous
 62
     7
100
AcDbLine
 10
-272.86194
 20
89.95019499999996
 30
0.0
 11
-301.36194
 21
89.95019499999996
 31
0.0
  0
LINE
  5
1441
330
20
100
AcDbEntity
  8
0
  6
Continuous
 62
     7
100
AcDbLine
 10
-255.0
 20
294.5
 30
0.0
 11
-255.0
 21
214.5
 31
0.0
  0
LINE
  5
1442
330
20
100
AcDbEntity
  8
0
  6
Continuous
 62
     7
100
AcDbLine
 10
-385.0
 20
254.5
 30
0.0
 11
-255.0
 21
254.5
 31
0.0
  0
LINE
  5
1443
330
20
100
AcDbEntity
  8
0
  6
CENTER
 62
     7
100
AcDbLine
 10
-178.65746
 20
41.271351
 30
0.0
 11
-178.65746
 21
5.271351799999997
 31
0.0
  0
LINE
  5
1444
330
20
100
AcDbEntity
  8
0
  6
CENTER
 62
     7
100
AcDbLine
 10
-196.65746
 20
23.271353
 30
0.0
 11
-160.65746
 21
23.271353
 31
0.0
  0
LINE
  5
1445
330
20
100
AcDbEntity
  8
0
  6
CENTER
 62
     7
100
AcDbLine
 10
-202.65746
 20
44.169197
 30
0.0
 11
-202.65746
 21
2.373506299999998
 31
0.0
  0
LINE
  5
1446
330
20
100
AcDbEntity
  8
0
  6
CENTER
 62
     7
100
AcDbLine
 10
-223.5553
 20
23.271353
 30
0.0
 11
-181.75961
 21
23.271353
 31
0.0
  0
LINE
  5
1447
330
20
100
AcDbEntity
  8
0
  6
Continuous
 62
     7
100
AcDbLine
 10
-355.30969
 20
29.36949699999999
 30
0.0
 11
-355.30969
 21
17.17319299999999
 31
0.0
  0
LINE
  5
1448
330
20
100
AcDbEntity
  8
0
  6
Continuous
 62
     7
100
AcDbLine
 10
-335.80969
 20
29.36949699999999
 30
0.0
 11
-335.80969
 21
17.17319299999999
 31
0.0
  0
LINE
  5
1449
330
20
100
AcDbEntity
  8
0
  6
CENTER
 62
     7
100
AcDbLine
 10
-345.55969
 20
37.77135100000001
 30
0.0
 11
-345.55969
 21
8.771351800000001
 31
0.0
  0
LINE
  5
144A
330
20
100
AcDbEntity
  8
0
  6
CENTER
 62
     7
100
AcDbLine
 10
-360.05969
 20
23.271353
 30
0.0
 11
-331.05969
 21
23.271353
 31
0.0
  0
ARC
  5
144B
330
20
100
AcDbEntity
  8
0
  6
Continuous
 62
     7
100
AcDbCircle
 10
57.917904
 20
144.31929
 30
0.0
 40
0.5
100
AcDbArc
 50
224.99938
 51
315.00062
  0
ARC
  5
144C
330
20
100
AcDbEntity
  8
0
  6
Continuous
 62
     7
100
AcDbCircle
 10
63.00909
 20
149.41046
 30
0.0
 40
0.5
100
AcDbArc
 50
315.00062
 51
44.999382
  0
ARC
  5
144D
330
20
100
AcDbEntity
  8
0
  6
Continuous
 62
     7
100
AcDbCircle
 10
61.51791
 20
145.81049
 30
0.0
 40
0.5
100
AcDbArc
 50
270.0
 51
0.0
  0
ARC
  5
144E
330
20
100
AcDbEntity
  8
0
  6
Continuous
 62
     7
100
AcDbCircle
 10
61.51791
 20
153.01044
 30
0.0
 40
0.5
100
AcDbArc
 50
0.0
 51
90.0
  0
ARC
  5
144F
330
20
100
AcDbEntity
  8
0
  6
Continuous
 62
     7
100
AcDbCircle
 10
54.317898
 20
145.81049
 30
0.0
 40
0.5
100
AcDbArc
 50
180.0
 51
270.0
  0
ARC
  5
1450
330
20
100
AcDbEntity
  8
0
  6
Continuous
 62
     7
100
AcDbCircle
 10
52.826717
 20
149.41046
 30
0.0
 40
0.5
100
AcDbArc
 50
135.00062
 51
224.99938
  0
ARC
  5
1451
330
20
100
AcDbEntity
  8
0
  6
Continuous
 62
     7
100
AcDbCircle
 10
54.317898
 20
153.01044
 30
0.0
 40
0.5
100
AcDbArc
 50
90.0
 51
180.0
  0
ARC
  5
1452
330
20
100
AcDbEntity
  8
0
  6
Continuous
 62
     7
100
AcDbCircle
 10
57.917904
 20
154.50165
 30
0.0
 40
0.5
100
AcDbArc
 50
44.999382
 51
135.00062
  0
ARC
  5
1453
330
20
100
AcDbEntity
  8
0
  6
Continuous
 62
     7
100
AcDbCircle
 10
89.91789999999998
 20
217.91046
 30
0.0
 40
2.299999999999998
100
AcDbArc
 50
104.62075
 51
151.6994
  0
ARC
  5
1454
330
20
100
AcDbEntity
  8
0
  6
Continuous
 62
     7
100
AcDbCircle
 10
101.9179
 20
149.41046
 30
0.0
 40
11.0
100
AcDbArc
 50
294.62
 51
65.380036
  0
ARC
  5
1455
330
20
100
AcDbEntity
  8
0
  6
Continuous
 62
     7
100
AcDbCircle
 10
53.91790400000001
 20
149.41046
 30
0.0
 40
11.0
100
AcDbArc
 50
114.61998
 51
245.3800399999999
  0
ARC
  5
1456
330
20
100
AcDbEntity
  8
0
  6
Continuous
 62
     7
100
AcDbCircle
 10
81.544121
 20
207.21046
 30
0.0
 40
2.299999999999998
100
AcDbArc
 50
270.0
 51
331.6994
  0
ARC
  5
1457
330
20
100
AcDbEntity
  8
0
  6
Continuous
 62
     7
100
AcDbCircle
 10
111.91792
 20
-1.1641791
 30
0.0
 40
11.0
100
AcDbArc
 50
294.61996
 51
65.380036
  0
ARC
  5
1458
330
20
100
AcDbEntity
  8
0
  6
Continuous
 62
     7
100
AcDbCircle
 10
57.917904
 20
-1.1641791
 30
0.0
 40
11.0
100
AcDbArc
 50
114.61998
 51
245.38002
  0
ARC
  5
1459
330
20
100
AcDbEntity
  8
0
  6
Continuous
 62
     7
100
AcDbCircle
 10
59.699001
 20
3.135854499999997
 30
0.0
 40
0.2
100
AcDbArc
 50
224.99981
 51
270.0
  0
ARC
  5
145A
330
20
100
AcDbEntity
  8
0
  6
Continuous
 62
     7
100
AcDbCircle
 10
61.51789499999999
 20
-4.7641549
 30
0.0
 40
0.5
100
AcDbArc
 50
270.0
 51
0.0
  0
ARC
  5
145B
330
20
100
AcDbEntity
  8
0
  6
Continuous
 62
     7
100
AcDbCircle
 10
57.91793399999999
 20
-6.2553277
 30
0.0
 40
0.5
100
AcDbArc
 50
224.99996
 51
315.00004
  0
ARC
  5
145C
330
20
100
AcDbEntity
  8
0
  6
Continuous
 62
     7
100
AcDbCircle
 10
62.217892
 20
0.6169717300000001
 30
0.0
 40
0.2
100
AcDbArc
 50
179.99998
 51
224.99981
  0
ARC
  5
145D
330
20
100
AcDbEntity
  8
0
  6
Continuous
 62
     7
100
AcDbCircle
 10
62.217892
 20
-2.945307
 30
0.0
 40
0.2
100
AcDbArc
 50
135.00019
 51
180.0
  0
ARC
  5
145E
330
20
100
AcDbEntity
  8
0
  6
Continuous
 62
     7
100
AcDbCircle
 10
59.699047
 20
-5.4641519
 30
0.0
 40
0.2
100
AcDbArc
 50
90.0
 51
135.00019
  0
ARC
  5
145F
330
20
100
AcDbEntity
  8
0
  6
Continuous
 62
     7
100
AcDbCircle
 10
56.13680600000001
 20
-5.4641519
 30
0.0
 40
0.2
100
AcDbArc
 50
44.999807
 51
90.0
  0
ARC
  5
1460
330
20
100
AcDbEntity
  8
0
  6
Continuous
 62
     7
100
AcDbCircle
 10
53.617916
 20
-2.9452612
 30
0.0
 40
0.2
100
AcDbArc
 50
0.0
 51
44.999807
  0
ARC
  5
1461
330
20
100
AcDbEntity
  8
0
  6
Continuous
 62
     7
100
AcDbCircle
 10
53.617916
 20
0.6169641000000003
 30
0.0
 40
0.2
100
AcDbArc
 50
315.00019
 51
0.0
  0
ARC
  5
1462
330
20
100
AcDbEntity
  8
0
  6
Continuous
 62
     7
100
AcDbCircle
 10
56.13680600000001
 20
3.135854499999997
 30
0.0
 40
0.2
100
AcDbArc
 50
270.0
 51
315.00019
  0
ARC
  5
1463
330
20
100
AcDbEntity
  8
0
  6
Continuous
 62
     7
100
AcDbCircle
 10
54.317913
 20
-4.7641549
 30
0.0
 40
0.5
100
AcDbArc
 50
180.0
 51
270.0
  0
ARC
  5
1464
330
20
100
AcDbEntity
  8
0
  6
Continuous
 62
     7
100
AcDbCircle
 10
52.82674799999998
 20
-1.1641486
 30
0.0
 40
0.5
100
AcDbArc
 50
135.00003
 51
224.99997
  0
ARC
  5
1465
330
20
100
AcDbEntity
  8
0
  6
Continuous
 62
     7
100
AcDbCircle
 10
61.51789499999999
 20
2.4358575
 30
0.0
 40
0.5
100
AcDbArc
 50
0.0
 51
90.0
  0
ARC
  5
1466
330
20
100
AcDbEntity
  8
0
  6
Continuous
 62
     7
100
AcDbCircle
 10
54.317913
 20
2.4358575
 30
0.0
 40
0.5
100
AcDbArc
 50
90.0
 51
180.0
  0
ARC
  5
1467
330
20
100
AcDbEntity
  8
0
  6
Continuous
 62
     7
100
AcDbCircle
 10
57.917904
 20
3.927007399999998
 30
0.0
 40
0.5
100
AcDbArc
 50
44.999981
 51
135.00002
  0
ARC
  5
1468
330
20
100
AcDbEntity
  8
0
  6
Continuous
 62
     7
100
AcDbCircle
 10
63.00909
 20
-1.164171499999999
 30
0.0
 40
0.5
100
AcDbArc
 50
315.00003
 51
44.999971
  0
ARC
  5
1469
330
20
100
AcDbEntity
  8
0
  6
Continuous
 62
     7
100
AcDbCircle
 10
-112.9403
 20
35.231342
 30
0.0
 40
7.5
100
AcDbArc
 50
142.71797
 51
217.45184
  0
ARC
  5
146A
330
20
100
AcDbEntity
  8
0
  6
Continuous
 62
     7
100
AcDbCircle
 10
-112.9403
 20
35.231342
 30
0.0
 40
7.5
100
AcDbArc
 50
322.54825
 51
37.282029
  0
ARC
  5
146B
330
20
100
AcDbEntity
  8
0
  6
Continuous
 62
     7
100
AcDbCircle
 10
-110.9403
 20
81.231346
 30
0.0
 40
1.0
100
AcDbArc
 50
0.0
 51
90.0
  0
ARC
  5
146C
330
20
100
AcDbEntity
  8
0
  6
Continuous
 62
     7
100
AcDbCircle
 10
-110.9403
 20
9.2313433
 30
0.0
 40
1.0
100
AcDbArc
 50
270.0
 51
0.0
  0
ARC
  5
146D
330
20
100
AcDbEntity
  8
0
  6
Continuous
 62
     7
100
AcDbCircle
 10
-29.440298
 20
42.23134199999999
 30
0.0
 40
2.0
100
AcDbArc
 50
270.0
 51
0.0
  0
ARC
  5
146E
330
20
100
AcDbEntity
  8
0
  6
Continuous
 62
     7
100
AcDbCircle
 10
-40.4403
 20
45.231342
 30
0.0
 40
5.0
100
AcDbArc
 50
180.0
 51
270.0
  0
ARC
  5
146F
330
20
100
AcDbEntity
  8
0
  6
Continuous
 62
     7
100
AcDbCircle
 10
-29.440298
 20
28.231344
 30
0.0
 40
2.0
100
AcDbArc
 50
0.0
 51
90.0
  0
ARC
  5
1470
330
20
100
AcDbEntity
  8
0
  6
Continuous
 62
     7
100
AcDbCircle
 10
-40.4403
 20
25.231344
 30
0.0
 40
5.0
100
AcDbArc
 50
90.0
 51
180.0
  0
ARC
  5
1471
330
20
100
AcDbEntity
  8
0
  6
Continuous
 62
     7
100
AcDbCircle
 10
49.459694
 20
50.231342
 30
0.0
 40
102.9
100
AcDbArc
 50
162.42258
 51
180.0
  0
CIRCLE
  5
1472
330
20
100
AcDbEntity
  8
0
  6
Continuous
 62
     7
100
AcDbCircle
 10
-49.4403
 20
9.2313433
 30
0.0
 40
1.0
  0
ARC
  5
1473
330
20
100
AcDbEntity
  8
0
  6
Continuous
 62
     7
100
AcDbCircle
 10
-114.9403
 20
81.231346
 30
0.0
 40
1.0
100
AcDbArc
 50
90.0
 51
180.0
  0
ARC
  5
1474
330
20
100
AcDbEntity
  8
0
  6
Continuous
 62
     7
100
AcDbCircle
 10
-116.9403
 20
83.23134600000001
 30
0.0
 40
2.0
100
AcDbArc
 50
90.0
 51
180.0
  0
ARC
  5
1475
330
20
100
AcDbEntity
  8
0
  6
Continuous
 62
     7
100
AcDbCircle
 10
-116.9403
 20
7.2313433
 30
0.0
 40
2.0
100
AcDbArc
 50
179.99999
 51
270.0
  0
ARC
  5
1476
330
20
100
AcDbEntity
  8
0
  6
Continuous
 62
     7
100
AcDbCircle
 10
-114.9403
 20
9.2313433
 30
0.0
 40
1.0
100
AcDbArc
 50
180.0
 51
270.0
  0
ARC
  5
1477
330
20
100
AcDbEntity
  8
0
  6
Continuous
 62
     7
100
AcDbCircle
 10
-108.9403
 20
83.23134600000001
 30
0.0
 40
2.0
100
AcDbArc
 50
0.0
 51
90.0
  0
ARC
  5
1478
330
20
100
AcDbEntity
  8
0
  6
Continuous
 62
     7
100
AcDbCircle
 10
-108.9403
 20
7.2313433
 30
0.0
 40
2.0
100
AcDbArc
 50
270.0
 51
0.0
  0
ARC
  5
1479
330
20
100
AcDbEntity
  8
0
  6
Continuous
 62
     7
100
AcDbCircle
 10
-52.9403
 20
5.731343299999998
 30
0.0
 40
0.5
100
AcDbArc
 50
180.0
 51
270.0
  0
ARC
  5
147A
330
20
100
AcDbEntity
  8
0
  6
Continuous
 62
     7
100
AcDbCircle
 10
-55.4403
 20
6.231343299999998
 30
0.0
 40
2.0
100
AcDbArc
 50
0.0
 51
78.46299899999998
  0
ARC
  5
147B
330
20
100
AcDbEntity
  8
0
  6
Continuous
 62
     7
100
AcDbCircle
 10
-54.9403
 20
8.6808367
 30
0.0
 40
0.5
100
AcDbArc
 50
180.0
 51
258.46321
  0
ARC
  5
147C
330
20
100
AcDbEntity
  8
0
  6
Continuous
 62
     7
100
AcDbCircle
 10
-45.9403
 20
84.73134599999999
 30
0.0
 40
0.5
100
AcDbArc
 50
0.0
 51
90.0
  0
ARC
  5
147D
330
20
100
AcDbEntity
  8
0
  6
Continuous
 62
     7
100
AcDbCircle
 10
-45.9403
 20
5.731343299999998
 30
0.0
 40
0.5
100
AcDbArc
 50
270.0
 51
0.0
  0
ARC
  5
147E
330
20
100
AcDbEntity
  8
0
  6
Continuous
 62
     7
100
AcDbCircle
 10
-50.065849
 20
81.759544
 30
0.0
 40
0.5
100
AcDbArc
 50
98.614587
 51
162.42296
  0
ARC
  5
147F
330
20
100
AcDbEntity
  8
0
  6
Continuous
 62
     7
100
AcDbCircle
 10
-50.4403
 20
84.231346
 30
0.0
 40
2.0
100
AcDbArc
 50
278.61451
 51
0.0
  0
ARC
  5
1480
330
20
100
AcDbEntity
  8
0
  6
Continuous
 62
     7
100
AcDbCircle
 10
49.459694
 20
50.231342
 30
0.0
 40
104.9
100
AcDbArc
 50
162.42258
 51
180.0
  0
ARC
  5
1481
330
20
100
AcDbEntity
  8
0
  6
Continuous
 62
     7
100
AcDbCircle
 10
-47.9403
 20
84.73134599999999
 30
0.0
 40
0.5
100
AcDbArc
 50
90.0
 51
180.0
  0
CIRCLE
  5
1482
330
20
100
AcDbEntity
  8
0
  6
Continuous
 62
     7
100
AcDbCircle
 10
-287.11194
 20
23.271353
 30
0.0
 40
15.0
  0
CIRCLE
  5
1483
330
20
100
AcDbEntity
  8
0
  6
Continuous
 62
     7
100
AcDbCircle
 10
-287.11194
 20
23.271353
 30
0.0
 40
12.0
  0
CIRCLE
  5
1484
330
20
100
AcDbEntity
  8
0
  6
Continuous
 62
     7
100
AcDbCircle
 10
-178.65746
 20
23.271353
 30
0.0
 40
12.0
  0
ARC
  5
1485
330
20
100
AcDbEntity
  8
0
  6
Continuous
 62
     7
100
AcDbCircle
 10
-202.65746
 20
23.271353
 30
0.0
 40
4.5
100
AcDbArc
 50
302.23088
 51
57.769117
  0
ARC
  5
1486
330
20
100
AcDbEntity
  8
0
  6
Continuous
 62
     7
100
AcDbCircle
 10
-202.65746
 20
23.271353
 30
0.0
 40
7.75
100
AcDbArc
 50
71.96025
 51
108.03975
  0
ARC
  5
1487
330
20
100
AcDbEntity
  8
0
  6
Continuous
 62
     7
100
AcDbCircle
 10
-202.65746
 20
23.271353
 30
0.0
 40
4.5
100
AcDbArc
 50
122.23088
 51
237.76912
  0
ARC
  5
1488
330
20
100
AcDbEntity
  8
0
  6
Continuous
 62
     7
100
AcDbCircle
 10
-202.65746
 20
23.271353
 30
0.0
 40
7.75
100
AcDbArc
 50
251.96025
 51
288.03975
  0
ARC
  5
1489
330
20
100
AcDbEntity
  8
0
  6
Continuous
 62
     7
100
AcDbCircle
 10
-202.65746
 20
23.271353
 30
0.0
 40
15.0
100
AcDbArc
 50
36.869892
 51
323.1301
  0
CIRCLE
  5
148A
330
20
100
AcDbEntity
  8
0
  6
Continuous
 62
     7
100
AcDbCircle
 10
-178.65746
 20
23.271353
 30
0.0
 40
15.0
  0
ARC
  5
148B
330
20
100
AcDbEntity
  8
0
  6
Continuous
 62
     7
100
AcDbCircle
 10
-298.66245
 20
81.450195
 30
0.0
 40
0.5
100
AcDbArc
 50
191.53677
 51
270.0
  0
ARC
  5
148C
330
20
100
AcDbEntity
  8
0
  6
Continuous
 62
     7
100
AcDbCircle
 10
-275.56143
 20
81.450195
 30
0.0
 40
0.5
100
AcDbArc
 50
270.0
 51
348.4632299999999
  0
ARC
  5
148D
330
20
100
AcDbEntity
  8
0
  6
Continuous
 62
     7
100
AcDbCircle
 10
-293.61749
 20
116.9502
 30
0.0
 40
1.0
100
AcDbArc
 50
90.0
 51
180.0
  0
ARC
  5
148E
330
20
100
AcDbEntity
  8
0
  6
Continuous
 62
     7
100
AcDbCircle
 10
-280.60638
 20
116.9502
 30
0.0
 40
1.0
100
AcDbArc
 50
0.0
 51
90.0
  0
ARC
  5
148F
330
20
100
AcDbEntity
  8
0
  6
Continuous
 62
     7
100
AcDbCircle
 10
-291.86472
 20
116.9502
 30
0.0
 40
1.0
100
AcDbArc
 50
0.0
 51
90.0
  0
ARC
  5
1490
330
20
100
AcDbEntity
  8
0
  6
Continuous
 62
     7
100
AcDbCircle
 10
-284.35916
 20
116.9502
 30
0.0
 40
1.0
100
AcDbArc
 50
0.0
 51
90.0
  0
ARC
  5
1491
330
20
100
AcDbEntity
  8
0
  6
Continuous
 62
     7
100
AcDbCircle
 10
-282.35916
 20
116.9502
 30
0.0
 40
1.0
100
AcDbArc
 50
90.0
 51
180.0
  0
ARC
  5
1492
330
20
100
AcDbEntity
  8
0
  6
Continuous
 62
     7
100
AcDbCircle
 10
-289.86472
 20
116.9502
 30
0.0
 40
1.0
100
AcDbArc
 50
90.0
 51
180.0
  0
ARC
  5
1493
330
20
100
AcDbEntity
  8
0
  6
Continuous
 62
     7
100
AcDbCircle
 10
-301.11194
 20
80.95019499999997
 30
0.0
 40
2.0
100
AcDbArc
 50
11.536985
 51
90.0
  0
ARC
  5
1494
330
20
100
AcDbEntity
  8
0
  6
Continuous
 62
     7
100
AcDbCircle
 10
-273.11194
 20
80.95019499999997
 30
0.0
 40
2.0
100
AcDbArc
 50
90.0
 51
168.46301
  0
ARC
  5
1495
330
20
100
AcDbEntity
  8
0
  6
Continuous
 62
     7
100
AcDbCircle
 10
-300.86194
 20
94.00018300000001
 30
0.0
 40
0.75
100
AcDbArc
 50
90.0
 51
270.0
  0
ARC
  5
1496
330
20
100
AcDbEntity
  8
0
  6
Continuous
 62
     7
100
AcDbCircle
 10
-273.36194
 20
94.00018300000001
 30
0.0
 40
0.75
100
AcDbArc
 50
270.0
 51
90.0
  0
ARC
  5
1497
330
20
100
AcDbEntity
  8
0
  6
Continuous
 62
     7
100
AcDbCircle
 10
-345.55969
 20
23.271353
 30
0.0
 40
11.5
100
AcDbArc
 50
32.023998
 51
147.97601
  0
ARC
  5
1498
330
20
100
AcDbEntity
  8
0
  6
Continuous
 62
     7
100
AcDbCircle
 10
-345.55969
 20
23.271353
 30
0.0
 40
11.5
100
AcDbArc
 50
212.02399
 51
327.976
  0
TEXT
  5
1499
330
20
100
AcDbEntity
  8
0
  6
Continuous
 62
     7
100
AcDbText
 10
-379.343
 20
288.9
 30
0.0
 40
3.2
  1
品　名
 41
0.85537027
100
AcDbText
  0
TEXT
  5
149A
330
20
100
AcDbEntity
  8
0
  6
Continuous
 62
     7
100
AcDbText
 10
-379.343
 20
280.9
 30
0.0
 40
3.2
  1
品　番
 41
0.85537027
100
AcDbText
  0
TEXT
  5
149B
330
20
100
AcDbEntity
  8
0
  6
Continuous
 62
     7
100
AcDbText
 10
-379.343
 20
272.9
 30
0.0
 40
3.2
  1
材　質
 41
0.85537027
100
AcDbText
  0
TEXT
  5
149C
330
20
100
AcDbEntity
  8
0
  6
Continuous
 62
     7
100
AcDbText
 10
-379.343
 20
240.9
 30
0.0
 40
3.2
  1
仕上げ
 41
0.85537027
100
AcDbText
  0
TEXT
  5
149D
330
20
100
AcDbEntity
  8
0
  6
Continuous
 62
     7
100
AcDbText
 10
-377.7430000000002
 20
224.9
 30
0.0
 40
3.2
  1
備考
 41
0.8643907499999999
100
AcDbText
  0
TEXT
  5
149E
330
20
100
AcDbEntity
  8
0
  6
Continuous
 62
     7
100
AcDbText
 10
-362.143
 20
288.9
 30
0.0
 40
3.2
  1
防水キーロット／防水キーロット用ハンドル、Ｚ型止め金／平型止め金
 41
0.8416021699999999
100
AcDbText
  0
TEXT
  5
149F
330
20
100
AcDbEntity
  8
0
  6
Continuous
 62
     7
100
AcDbText
 10
-362.143
 20
280.9
 30
0.0
 40
3.2
  1
ＥＬ－３５／ＥＬ－３６、ＥＢ－２５／ＥＢ－２６
 41
0.8421048599999998
100
AcDbText
  0
TEXT
  5
14A0
330
20
100
AcDbEntity
  8
0
  6
Continuous
 62
     7
100
AcDbText
 10
-362.143
 20
272.9
 30
0.0
 40
3.2
  1
防水キーロット　　　　　：亜鉛ダイキャスト
 41
0.84227602
100
AcDbText
  0
TEXT
  5
14A1
330
20
100
AcDbEntity
  8
0
  6
Continuous
 62
     7
100
AcDbText
 10
-362.143
 20
224.9
 30
0.0
 40
3.2
  1
*防水キーロット用ハンドル(EL-36)、Ｚ型止め金（EB-26）は
 41
0.8416021699999999
100
AcDbText
  0
TEXT
  5
14A2
330
20
100
AcDbEntity
  8
0
  6
Continuous
 62
     7
100
AcDbText
 10
-362.143
 20
220.1
 30
0.0
 40
3.2
  1
セットでは有りませんので、ご注文の際はご注意ください。
 41
0.8418395499999999
100
AcDbText
  0
TEXT
  5
14A3
330
20
100
AcDbEntity
  8
0
  6
Continuous
 62
     7
100
AcDbText
 10
62.04338599999999
 20
-56.392522
 30
0.0
 40
3.2
  1
平型止め金（ＥＢ－２５）
 41
0.8437725099999997
100
AcDbText
  0
TEXT
  5
14A4
330
20
100
AcDbEntity
  8
0
  6
Continuous
 62
     7
100
AcDbText
 10
-362.143
 20
264.9
 30
0.0
 40
3.2
  1
防水キーロット用ハンドル：亜鉛ダイキャスト
 41
0.84227602
100
AcDbText
  0
TEXT
  5
14A5
330
20
100
AcDbEntity
  8
0
  6
Continuous
 62
     7
100
AcDbText
 10
62.04338599999999
 20
94.18210399999999
 30
0.0
 40
3.2
  1
Ｚ型止め金（ＥＢ－２６）
 41
0.8437725099999997
100
AcDbText
  0
TEXT
  5
14A6
330
20
100
AcDbEntity
  8
0
  6
Continuous
 62
     7
100
AcDbText
 10
-200.79637
 20
-7.630177099999999
 30
0.0
 40
3.2
  1
カバー開き状態
 41
0.84634979
100
AcDbText
  0
TEXT
  5
14A7
330
20
100
AcDbEntity
  8
0
  6
Continuous
 62
     7
100
AcDbText
 10
-362.143
 20
256.9
 30
0.0
 40
3.2
  1
平型（Ｚ型）止め金　　　：スチール
 41
0.8427415999999999
100
AcDbText
  0
TEXT
  5
14A8
330
20
100
AcDbEntity
  8
0
  6
Continuous
 62
     7
100
AcDbText
 10
-362.143
 20
248.9
 30
0.0
 40
3.2
  1
防水キーロット　　　　　：梨地＋クロムメッキ
 41
0.8421864899999999
100
AcDbText
  0
TEXT
  5
14A9
330
20
100
AcDbEntity
  8
0
  6
Continuous
 62
     7
100
AcDbText
 10
-362.143
 20
240.9
 30
0.0
 40
3.2
  1
防水キーロット用ハンドル：梨地＋クロムメッキ
 41
0.8421864899999999
100
AcDbText
  0
TEXT
  5
14AA
330
20
100
AcDbEntity
  8
0
  6
Continuous
 62
     7
100
AcDbText
 10
-362.143
 20
232.9
 30
0.0
 40
3.2
  1
平型（Ｚ型）止め金　　　：有色クロメート
 41
0.8423746600000001
100
AcDbText
  0
TEXT
  5
14AB
330
20
100
AcDbEntity
  8
0
  6
Continuous
 62
     7
100
AcDbText
 10
-92.807177
 20
-37.741792
 30
0.0
 40
3.2
  1
防水キーロット用ハンドル（ＥＬ－３６）
 41
0.84248387
100
AcDbText
  0
TEXT
  5
14AC
330
20
100
AcDbEntity
  8
0
  6
Continuous
 62
     7
100
AcDbText
 10
-271.83703
 20
-33.274036
 30
0.0
 40
3.2
  1
防水キーロット（ＥＬ－３５）
 41
0.84326962
100
AcDbText
  0
TEXT
  5
14AD
330
20
100
AcDbEntity
  8
0
  6
Continuous
 62
     7
100
AcDbText
 10
-363.65908
 20
-17.783582
 30
0.0
 40
5.0
  1
扉切欠推奨寸法
 41
0.84634979
100
AcDbText
  0
INSERT
  5
14AE
330
20
100
AcDbEntity
  8
0
  6
Continuous
 62
     7
100
AcDbBlockReference
  2
KOZU0056
 10
0.0
 20
0.0
 30
0.0
  0
DIMENSION
  5
14AF
330
20
100
AcDbEntity
  8
0
  6
Continuous
 62
     7
100
AcDbDimension
  2
*D3
 10
127.9179
 20
139.41046
 30
0.0
 11
127.9179
 21
149.41046
 31
0.0
 71
     5
 42
-1.0
  3
DIMSTYLE
100
AcDbAlignedDimension
 13
109.09823
 23
159.41046
 33
0.0
 14
109.09823
 24
139.41046
 34
0.0
 50
90.0
100
AcDbRotatedDimension
1001
ACAD
1000
DSTYLE
1002
{
1070
    77
1070
     1
1070
   172
1070
     1
1002
}
  0
DIMENSION
  5
14B0
330
20
100
AcDbEntity
  8
0
  6
Continuous
 62
     7
100
AcDbDimension
  2
*D4
 10
42.917904
 20
114.41044
 30
0.0
 11
77.9179
 21
114.41044
 31
0.0
 71
     5
 42
-1.0
  3
DIMSTYLE
100
AcDbAlignedDimension
 13
112.9179
 23
149.41046
 33
0.0
 14
42.917904
 24
149.41046
 34
0.0
100
AcDbRotatedDimension
1001
ACAD
1000
DSTYLE
1002
{
1070
    77
1070
     1
1070
   172
1070
     1
1002
}
  0
DIMENSION
  5
14B1
330
20
100
AcDbEntity
  8
0
  6
Continuous
 62
     7
100
AcDbDimension
  2
*D5
 10
89.91789999999998
 20
236.28741
 30
0.0
 11
101.4179
 21
236.28741
 31
0.0
 71
     5
 42
-1.0
  3
DIMSTYLE
100
AcDbAlignedDimension
 13
112.9179
 23
223.91046
 33
0.0
 14
89.91789999999998
 24
217.91046
 34
0.0
100
AcDbRotatedDimension
1001
ACAD
1000
DSTYLE
1002
{
1070
    77
1070
     1
1070
   172
1070
     1
1002
}
  0
DIMENSION
  5
14B2
330
20
100
AcDbEntity
  8
0
  6
Continuous
 62
     7
100
AcDbDimension
  2
*D6
 10
82.9179
 20
236.28741
 30
0.0
 11
86.4179
 21
236.28741
 31
0.0
 71
     5
 42
-1.0
  3
DIMSTYLE
100
AcDbAlignedDimension
 13
89.91789999999998
 23
217.91046
 33
0.0
 14
82.9179
 24
204.91046
 34
0.0
100
AcDbRotatedDimension
1001
ACAD
1000
DSTYLE
1002
{
1070
    77
1070
     1
1070
   172
1070
     1
1070
    75
1070
     1
1002
}
  0
DIMENSION
  5
14B3
330
20
100
AcDbEntity
  8
0
  6
Continuous
 62
     7
100
AcDbDimension
  2
*D7
 10
127.9179
 20
223.91046
 30
0.0
 11
127.9179
 21
220.91046
 31
0.0
 71
     5
 42
-1.0
  3
DIMSTYLE
100
AcDbAlignedDimension
 13
89.91789999999998
 23
217.91046
 33
0.0
 14
112.9179
 24
223.91046
 34
0.0
 50
90.0
100
AcDbRotatedDimension
1001
ACAD
1000
DSTYLE
1002
{
1070
    77
1070
     1
1070
   172
1070
     1
1002
}
  0
DIMENSION
  5
14B4
330
20
100
AcDbEntity
  8
0
  6
Continuous
 62
     7
100
AcDbDimension
  2
*D8
 10
127.9179
 20
204.91046
 30
0.0
 11
127.9179
 21
211.41046
 31
0.0
 71
     5
 42
-1.0
  3
DIMSTYLE
100
AcDbAlignedDimension
 13
89.91789999999998
 23
217.91046
 33
0.0
 14
82.9179
 24
204.91046
 34
0.0
 50
90.0
100
AcDbRotatedDimension
1001
ACAD
1000
DSTYLE
1002
{
1070
    77
1070
     1
1070
   172
1070
     1
1070
    75
1070
     1
1002
}
  0
DIMENSION
  5
14B5
330
20
100
AcDbEntity
  8
0
  6
Continuous
 62
     7
100
AcDbDimension
  2
*D9
 10
57.917904
 20
124.41045
 30
0.0
 11
85.4179
 21
124.41045
 31
0.0
 71
     5
 42
-1.0
  3
DIMSTYLE
100
AcDbAlignedDimension
 13
112.9179
 23
149.41046
 33
0.0
 14
57.917904
 24
131.87047
 34
0.0
100
AcDbRotatedDimension
1001
ACAD
1000
DSTYLE
1002
{
1070
    77
1070
     1
1070
   172
1070
     1
1002
}
  0
DIMENSION
  5
14B6
330
20
100
AcDbEntity
  8
0
  6
Continuous
 62
     7
100
AcDbDimension
  2
*D10
 10
42.917904
 20
124.41045
 30
0.0
 11
50.417904
 21
124.41045
 31
0.0
 71
     5
 42
-1.0
  3
DIMSTYLE
100
AcDbAlignedDimension
 13
57.917904
 23
136.41045
 33
0.0
 14
42.917904
 24
149.41046
 34
0.0
100
AcDbRotatedDimension
1001
ACAD
1000
DSTYLE
1002
{
1070
    77
1070
     1
1070
   172
1070
     1
1002
}
  0
DIMENSION
  5
14B7
330
20
100
AcDbEntity
  8
0
  6
Continuous
 62
     7
100
AcDbDimension
  2
*D11
 10
137.91791
 20
204.91046
 30
0.0
 11
137.91791
 21
214.41046
 31
0.0
 71
     5
 42
-1.0
  3
DIMSTYLE
100
AcDbAlignedDimension
 13
112.9179
 23
223.91046
 33
0.0
 14
82.9179
 24
204.91046
 34
0.0
 50
90.0
100
AcDbRotatedDimension
1001
ACAD
1000
DSTYLE
1002
{
1070
    77
1070
     1
1070
   172
1070
     1
1002
}
  0
DIMENSION
  5
14B8
330
20
100
AcDbEntity
  8
0
  6
Continuous
 62
     7
100
AcDbDimension
  2
*D12
 10
42.917904
 20
236.28741
 30
0.0
 11
62.917904
 21
236.28741
 31
0.0
 71
     5
 42
-1.0
  3
DIMSTYLE
100
AcDbAlignedDimension
 13
82.9179
 23
204.91046
 33
0.0
 14
42.917904
 24
207.21046
 34
0.0
100
AcDbRotatedDimension
1001
ACAD
1000
DSTYLE
1002
{
1070
    77
1070
     1
1070
   172
1070
     1
1070
    75
1070
     1
1002
}
  0
DIMENSION
  5
14B9
330
20
100
AcDbEntity
  8
0
  6
Continuous
 62
     7
100
AcDbDimension
  2
*D13
 10
137.91792
 20
-11.164179
 30
0.0
 11
137.91792
 21
-1.1641791
 31
0.0
 71
     5
 42
-1.0
  3
DIMSTYLE
100
AcDbAlignedDimension
 13
120.23843
 23
8.835821199999998
 33
0.0
 14
120.23843
 24
-11.164179
 34
0.0
 50
90.0
100
AcDbRotatedDimension
1001
ACAD
1000
DSTYLE
1002
{
1070
    77
1070
     1
1070
   172
1070
     1
1002
}
  0
DIMENSION
  5
14BA
330
20
100
AcDbEntity
  8
0
  6
Continuous
 62
     7
100
AcDbDimension
  2
*D14
 10
137.91792
 20
48.835823
 30
0.0
 11
137.91792
 21
59.179565
 31
0.0
 71
     5
 42
-1.0
  3
DIMSTYLE
100
AcDbAlignedDimension
 13
122.91792
 23
51.135811
 33
0.0
 14
122.91792
 24
48.835823
 34
0.0
 50
90.0
100
AcDbRotatedDimension
1001
ACAD
1000
DSTYLE
1002
{
1070
    77
1070
     1
1070
   172
1070
     1
1002
}
  0
DIMENSION
  5
14BB
330
20
100
AcDbEntity
  8
0
  6
Continuous
 62
     7
100
AcDbDimension
  2
*D15
 10
122.91792
 20
-36.164177
 30
0.0
 11
84.917908
 21
-36.164177
 31
0.0
 71
     5
 42
-1.0
  3
DIMSTYLE
100
AcDbAlignedDimension
 13
46.917904
 23
-4.150606599999997
 33
0.0
 14
122.91792
 24
-4.508150599999997
 34
0.0
100
AcDbRotatedDimension
1001
ACAD
1000
DSTYLE
1002
{
1070
    77
1070
     1
1070
   172
1070
     1
1002
}
  0
DIMENSION
  5
14BC
330
20
100
AcDbEntity
  8
0
  6
Continuous
 62
     7
100
AcDbDimension
  2
*D16
 10
147.91791
 20
226.13597
 30
0.0
 11
147.91791
 21
215.52321
 31
0.0
 71
     5
 42
-1.0
  3
DIMSTYLE
100
AcDbAlignedDimension
 13
81.544121
 23
204.91046
 33
0.0
 14
112.33734
 24
226.13597
 34
0.0
 50
90.0
100
AcDbRotatedDimension
1001
ACAD
1000
DSTYLE
1002
{
1070
    77
1070
     1
1070
   172
1070
     1
1002
}
  0
DIMENSION
  5
14BD
330
20
100
AcDbEntity
  8
0
  6
Continuous
 62
     7
100
AcDbDimension
  2
*D17
 10
122.91792
 20
-26.164177
 30
0.0
 11
90.41790799999999
 21
-26.164177
 31
0.0
 71
     5
 42
-1.0
  3
DIMSTYLE
100
AcDbAlignedDimension
 13
57.917904
 23
-14.164179
 33
0.0
 14
122.91792
 24
-1.1641791
 34
0.0
100
AcDbRotatedDimension
1001
ACAD
1000
DSTYLE
1002
{
1070
    77
1070
     1
1070
   172
1070
     1
1002
}
  0
DIMENSION
  5
14BE
330
20
100
AcDbEntity
  8
0
  6
Continuous
 62
     7
100
AcDbDimension
  2
*D18
 10
32.917904
 20
207.21046
 30
0.0
 11
32.917904
 21
214.13263
 31
0.0
 71
     5
 42
-1.0
  3
DIMSTYLE
100
AcDbAlignedDimension
 13
42.917904
 23
204.91046
 33
0.0
 14
42.917904
 24
207.21046
 34
0.0
 50
90.0
100
AcDbRotatedDimension
1001
ACAD
1000
DSTYLE
1002
{
1070
    77
1070
     1
1070
   172
1070
     1
1002
}
  0
DIMENSION
  5
14BF
330
20
100
AcDbEntity
  8
0
  6
Continuous
 62
     7
100
AcDbDimension
  2
*D19
 10
-45.4403
 20
-9.768656699999999
 30
0.0
 11
-50.4403
 21
-9.768656699999999
 31
0.0
 71
     5
 42
-1.0
  3
DIMSTYLE
100
AcDbAlignedDimension
 13
-55.4403
 23
8.6808367
 33
0.0
 14
-45.4403
 24
5.731343299999998
 34
0.0
100
AcDbRotatedDimension
1001
ACAD
1000
DSTYLE
1002
{
1070
    77
1070
     1
1070
   172
1070
     1
1002
}
  0
DIMENSION
  5
14C0
330
20
100
AcDbEntity
  8
0
  6
Continuous
 62
     7
100
AcDbDimension
  2
*D20
 10
-24.440298
 20
-9.768656699999999
 30
0.0
 11
-34.9403
 21
-9.768656699999999
 31
0.0
 71
     5
 42
-1.0
  3
DIMSTYLE
100
AcDbAlignedDimension
 13
-45.4403
 23
5.731343299999998
 33
0.0
 14
-24.440298
 24
27.731344
 34
0.0
100
AcDbRotatedDimension
1001
ACAD
1000
DSTYLE
1002
{
1070
    77
1070
     1
1070
   172
1070
     1
1070
    75
1070
     1
1002
}
  0
DIMENSION
  5
14C1
330
20
100
AcDbEntity
  8
0
  6
Continuous
 62
     7
100
AcDbDimension
  2
*D21
 10
-7.440298599999997
 20
-9.768656699999999
 30
0.0
 11
-15.940298
 21
-9.768656699999999
 31
0.0
 71
     5
 42
-1.0
  3
DIMSTYLE
100
AcDbAlignedDimension
 13
-24.440298
 23
27.731344
 33
0.0
 14
-7.440298599999997
 24
27.731344
 34
0.0
100
AcDbRotatedDimension
1001
ACAD
1000
DSTYLE
1002
{
1070
    77
1070
     1
1070
   172
1070
     1
1070
    75
1070
     1
1002
}
  0
DIMENSION
  5
14C2
330
20
100
AcDbEntity
  8
0
  6
Continuous
 62
     7
100
AcDbDimension
  2
*D22
 10
-7.440298599999997
 20
-19.768656
 30
0.0
 11
-31.440298
 21
-19.768656
 31
0.0
 71
     5
 42
-1.0
  3
DIMSTYLE
100
AcDbAlignedDimension
 13
-55.4403
 23
8.6808367
 33
0.0
 14
-7.440298599999997
 24
27.731344
 34
0.0
100
AcDbRotatedDimension
1001
ACAD
1000
DSTYLE
1002
{
1070
    77
1070
     1
1070
   172
1070
     1
1002
}
  0
DIMENSION
  5
14C3
330
20
100
AcDbEntity
  8
0
  6
Continuous
 62
     7
100
AcDbDimension
  2
*D23
 10
-65.44029999999999
 20
35.231342
 30
0.0
 11
-65.44029999999999
 21
20.231344
 31
0.0
 71
     5
 42
-1.0
  3
DIMSTYLE
100
AcDbAlignedDimension
 13
-52.9403
 23
5.231343299999998
 33
0.0
 14
-55.4403
 24
35.231342
 34
0.0
 50
90.0
100
AcDbRotatedDimension
1001
ACAD
1000
DSTYLE
1002
{
1070
    77
1070
     1
1070
   172
1070
     1
1002
}
  0
DIMENSION
  5
14C4
330
20
100
AcDbEntity
  8
0
  6
Continuous
 62
     7
100
AcDbDimension
  2
*D24
 10
-65.44029999999999
 20
85.231346
 30
0.0
 11
-65.44029999999999
 21
60.23134200000001
 31
0.0
 71
     5
 42
-1.0
  3
DIMSTYLE
100
AcDbAlignedDimension
 13
-55.4403
 23
35.231342
 33
0.0
 14
-47.9403
 24
85.231346
 34
0.0
 50
90.0
100
AcDbRotatedDimension
1001
ACAD
1000
DSTYLE
1002
{
1070
    77
1070
     1
1070
   172
1070
     1
1070
    75
1070
     1
1002
}
  0
DIMENSION
  5
14C5
330
20
100
AcDbEntity
  8
0
  6
Continuous
 62
     7
100
AcDbDimension
  2
*D25
 10
-75.44029999999998
 20
5.231343299999998
 30
0.0
 11
-75.44029999999998
 21
45.231342
 31
0.0
 71
     5
 42
-1.0
  3
DIMSTYLE
100
AcDbAlignedDimension
 13
-47.9403
 23
85.231346
 33
0.0
 14
-52.9403
 24
5.231343299999998
 34
0.0
 50
90.0
100
AcDbRotatedDimension
1001
ACAD
1000
DSTYLE
1002
{
1070
    77
1070
     1
1070
   172
1070
     1
1002
}
  0
DIMENSION
  5
14C6
330
20
100
AcDbEntity
  8
0
  6
Continuous
 62
     7
100
AcDbDimension
  2
*D26
 10
-106.9403
 20
-9.768656699999999
 30
0.0
 11
-112.9403
 21
-9.768656699999999
 31
0.0
 71
     5
 42
-1.0
  3
DIMSTYLE
100
AcDbAlignedDimension
 13
-118.9403
 23
7.2313433
 33
0.0
 14
-106.9403
 24
7.2313433
 34
0.0
100
AcDbRotatedDimension
1001
ACAD
1000
DSTYLE
1002
{
1070
    77
1070
     1
1070
   172
1070
     1
1002
}
  0
DIMENSION
  5
14C7
330
20
100
AcDbEntity
  8
0
  6
Continuous
 62
     7
100
AcDbDimension
  2
*D27
 10
-271.61194
 20
-9.6264753
 30
0.0
 11
-287.11194
 21
-9.6264753
 31
0.0
 71
     5
 42
-1.0
  3
DIMSTYLE
100
AcDbAlignedDimension
 13
-302.61194
 23
14.322408
 33
0.0
 14
-271.61194
 24
14.322408
 34
0.0
100
AcDbRotatedDimension
1001
ACAD
1000
DSTYLE
1002
{
1070
    77
1070
     1
1070
   172
1070
     1
1002
}
  0
DIMENSION
  5
14C8
330
20
100
AcDbEntity
  8
0
  6
Continuous
 62
     7
100
AcDbDimension
  2
*D28
 10
-250.87159
 20
20.245825
 30
0.0
 11
-258.62158
 21
6.822438199999997
 31
0.0
 71
     5
 42
-1.0
  3
DIMSTYLE
100
AcDbAlignedDimension
 13
-287.11194
 23
5.373485099999999
 33
0.0
 14
-271.61194
 24
32.22027199999999
 34
0.0
 50
60.000002
100
AcDbRotatedDimension
1001
ACAD
1000
DSTYLE
1002
{
1070
    77
1070
     1
1070
   172
1070
     1
1002
}
  0
DIMENSION
  5
14C9
330
20
100
AcDbEntity
  8
0
  6
Continuous
 62
     7
100
AcDbDimension
  2
*D29
 10
-244.21408
 20
91.65017699999999
 30
0.0
 11
-244.21408
 21
71.647987
 31
0.0
 71
     5
 42
-1.0
  3
DIMSTYLE
100
AcDbAlignedDimension
 13
-275.56143
 23
80.95019499999997
 33
0.0
 14
-272.86194
 24
91.65017699999999
 34
0.0
 50
90.0
100
AcDbRotatedDimension
1001
ACAD
1000
DSTYLE
1002
{
1070
    77
1070
     1
1070
   172
1070
     1
1002
}
  0
DIMENSION
  5
14CA
330
20
100
AcDbEntity
  8
0
  6
Continuous
 62
     7
100
AcDbDimension
  2
*D30
 10
-254.21408
 20
105.65018
 30
0.0
 11
-254.21408
 21
98.650177
 31
0.0
 71
     5
 42
-1.0
  3
DIMSTYLE
100
AcDbAlignedDimension
 13
-272.86194
 23
91.65017699999999
 33
0.0
 14
-276.11194
 24
105.65018
 34
0.0
 50
90.0
100
AcDbRotatedDimension
1001
ACAD
1000
DSTYLE
1002
{
1070
    77
1070
     1
1070
   172
1070
     1
1002
}
  0
DIMENSION
  5
14CB
330
20
100
AcDbEntity
  8
0
  6
Continuous
 62
     7
100
AcDbDimension
  2
*D31
 10
-244.21408
 20
118.65018
 30
0.0
 11
-244.21408
 21
105.15018
 31
0.0
 71
     5
 42
-1.0
  3
DIMSTYLE
100
AcDbAlignedDimension
 13
-272.86194
 23
91.65017699999999
 33
0.0
 14
-283.11194
 24
118.65018
 34
0.0
 50
90.0
100
AcDbRotatedDimension
1001
ACAD
1000
DSTYLE
1002
{
1070
    77
1070
     1
1070
   172
1070
     1
1002
}
  0
INSERT
  5
14CC
330
20
100
AcDbEntity
  8
0
  6
Continuous
 62
     7
100
AcDbBlockReference
  2
KOZU0005
 10
-257.77591
 20
93.99294299999999
 30
0.0
  0
INSERT
  5
14CD
330
20
100
AcDbEntity
  8
0
  6
Continuous
 62
     7
100
AcDbBlockReference
  2
KOZU0006
 10
-320.7554
 20
106.65826
 30
0.0
  0
POLYLINE
  5
14CE
330
20
100
AcDbEntity
  8
0
  6
Continuous
 62
     7
100
AcDb2dPolyline
 66
     1
 10
0.0
 20
0.0
 30
0.0
  0
VERTEX
  5
14CF
330
14CE
100
AcDbEntity
  8
0
  6
Continuous
 62
     7
100
AcDbVertex
100
AcDb2dVertex
 10
-353.79675
 20
15.246329
 30
0.0
  0
VERTEX
  5
14D0
330
14CE
100
AcDbEntity
  8
0
  6
Continuous
 62
     7
100
AcDbVertex
100
AcDb2dVertex
 10
-362.69681
 20
6.5753794
 30
0.0
  0
VERTEX
  5
14D1
330
14CE
100
AcDbEntity
  8
0
  6
Continuous
 62
     7
100
AcDbVertex
100
AcDb2dVertex
 10
-371.98712
 20
6.5753694
 30
0.0
  0
SEQEND
  5
14D2
330
14CE
100
AcDbEntity
  8
0
  6
Continuous
 62
     7
  0
TEXT
  5
14D3
330
20
100
AcDbEntity
  8
0
  6
Continuous
 62
     7
100
AcDbText
 10
-371.98713
 20
7.3753694
 30
0.0
 40
3.2
  1
%%C２３
 41
0.85537027
100
AcDbText
  0
INSERT
  5
14D4
330
20
100
AcDbEntity
  8
0
  6
Continuous
 62
     7
100
AcDbBlockReference
  2
*D32
 10
0.0
 20
0.0
 30
0.0
  0
DIMENSION
  5
14D5
330
20
100
AcDbEntity
  8
0
  6
Continuous
 62
     7
100
AcDbDimension
  2
*D33
 10
-335.80969
 20
45.531208
 30
0.0
 11
-345.55969
 21
45.531208
 31
0.0
 71
     5
 42
-1.0
  3
DIMSTYLE
100
AcDbAlignedDimension
 13
-355.30969
 23
29.36949699999999
 33
0.0
 14
-335.80969
 24
29.36949699999999
 34
0.0
100
AcDbRotatedDimension
1001
ACAD
1000
DSTYLE
1002
{
1070
    77
1070
     1
1070
   172
1070
     1
1002
}
  0
ENDSEC
  0
SECTION
  2
OBJECTS
  0
DICTIONARY
  5
C
330
0
100
AcDbDictionary
281
     1
  3
ACAD_COLOR
350
1B
  3
ACAD_GROUP
350
D
  3
ACAD_LAYOUT
350
19
  3
ACAD_MATERIAL
350
1A
  3
ACAD_MLINESTYLE
350
16
  3
ACAD_PLOTSETTINGS
350
18
  3
ACAD_PLOTSTYLENAME
350
E
  3
ACAD_TABLESTYLE
350
15A5
  3
ACAD_VISUALSTYLE
350
1594
  3
AcDbVariableDictionary
350
1581
  3
AcmDictionary
350
152D
  3
AMG
350
14D7
  3
AMGSNAPSETTINGS
350
156E
  3
DWGPROPS
350
16A8
  0
DICTIONARY
  5
1577
330
20
100
AcDbDictionary
280
     1
281
     1
  3
ACAD_INDEX
360
1578
  0
DICTIONARY
  5
1B
102
{ACAD_REACTORS
330
C
102
}
330
C
100
AcDbDictionary
281
     1
  0
DICTIONARY
  5
D
102
{ACAD_REACTORS
330
C
102
}
330
C
100
AcDbDictionary
281
     1
  0
DICTIONARY
  5
19
102
{ACAD_REACTORS
330
C
102
}
330
C
100
AcDbDictionary
281
     1
  3
Model
350
23
  3
レイアウト1
350
1F
  0
DICTIONARY
  5
1A
102
{ACAD_REACTORS
330
C
102
}
330
C
100
AcDbDictionary
281
     1
  3
ByBlock
350
1592
  3
ByLayer
350
1591
  3
Global
350
1593
  0
DICTIONARY
  5
16
102
{ACAD_REACTORS
330
C
102
}
330
C
100
AcDbDictionary
281
     1
  3
Standard
350
17
  0
DICTIONARY
  5
18
102
{ACAD_REACTORS
330
C
102
}
330
C
100
AcDbDictionary
281
     1
  0
ACDBDICTIONARYWDFLT
  5
E
102
{ACAD_REACTORS
330
C
102
}
330
C
100
AcDbDictionary
281
     1
  3
Normal
350
F
100
AcDbDictionaryWithDefault
340
F
  0
DICTIONARY
  5
15A5
102
{ACAD_REACTORS
330
C
102
}
330
C
100
AcDbDictionary
281
     1
  3
Standard
350
15A6
  0
DICTIONARY
  5
1594
102
{ACAD_REACTORS
330
C
102
}
330
C
100
AcDbDictionary
281
     1
  3
2dWireframe
350
159A
  3
3D Hidden
350
159C
  3
3dWireframe
350
159B
  3
Basic
350
1599
  3
Brighten
350
15A0
  3
ColorChange
350
15A4
  3
Conceptual
350
159D
  3
Dim
350
159F
  3
Facepattern
350
15A3
  3
Flat
350
1595
  3
FlatWithEdges
350
1596
  3
Gouraud
350
1597
  3
GouraudWithEdges
350
1598
  3
Linepattern
350
15A2
  3
Realistic
350
159E
  3
Thicken
350
15A1
  0
DICTIONARY
  5
1581
102
{ACAD_REACTORS
330
C
102
}
330
C
100
AcDbDictionary
281
     1
  3
CTABLESTYLE
350
161E
  3
DIMASSOC
350
1583
  3
INDEXCTL
350
1582
  3
PROJECTNAME
350
1584
  3
SORTENTS
350
161F
  0
DICTIONARY
  5
152D
102
{ACAD_REACTORS
330
C
102
}
330
C
100
AcDbDictionary
281
     1
  3
AcmStdDictionary
350
153A
  3
AMDTSECTSYM_ARROWCOLOR
350
155A
  0
DICTIONARY
  5
14D7
102
{ACAD_REACTORS
330
C
102
}
330
C
100
AcDbDictionary
281
     1
  0
DICTIONARY
  5
156E
102
{ACAD_REACTORS
330
C
102
}
330
C
100
AcDbDictionary
281
     1
  0
XRECORD
  5
16A8
102
{ACAD_REACTORS
330
C
102
}
330
C
100
AcDbXrecord
280
     1
  1
DWGPROPS COOKIE
  2

  3

  4

  6

  7

  8
Administrator
  9

300
=
301
=
302
=
303
=
304
=
305
=
306
=
307
=
308
=
309
=
 40
0.0051796412037037
 41
2453446.479188936
 42
2454218.394021621
  1

 90
        0
  0
DICTIONARY
  5
1578
102
{ACAD_REACTORS
330
1577
102
}
330
1577
100
AcDbDictionary
281
     1
  3
*A1
350
1579
  0
LAYOUT
  5
23
102
{ACAD_XDICTIONARY
360
16AB
102
}
102
{ACAD_REACTORS
330
19
102
}
330
19
100
AcDbPlotSettings
  1

  2
\\CAD-SRV01\FX DocuColor 1250 PLW
  4

  6

 40
0.0
 41
0.0
 42
0.0
 43
0.0
 44
0.0
 45
0.0
 46
0.0
 47
0.0
 48
0.0
 49
0.0
140
0.0
141
0.0
142
1.0
143
1.0
 70
  1712
 72
     0
 73
     0
 74
     0
  7

 75
     0
147
1.0
148
0.0
149
0.0
100
AcDbLayout
  1
Model
 70
     1
 71
     0
 10
0.0
 20
0.0
 11
12.0
 21
9.0
 12
0.0
 22
0.0
 32
0.0
 14
0.0
 24
0.0
 34
0.0
 15
0.0
 25
0.0
 35
0.0
146
0.0
 13
0.0
 23
0.0
 33
0.0
 16
1.0
 26
0.0
 36
0.0
 17
0.0
 27
1.0
 37
0.0
 76
     0
330
20
331
1585
  0
LAYOUT
  5
1F
102
{ACAD_XDICTIONARY
360
16A9
102
}
102
{ACAD_REACTORS
330
19
102
}
330
19
100
AcDbPlotSettings
  1

  2
\\CAD-SRV01\FX DocuColor 1250 PLW
  4

  6

 40
0.0
 41
0.0
 42
0.0
 43
0.0
 44
0.0
 45
0.0
 46
0.0
 47
0.0
 48
0.0
 49
0.0
140
0.0
141
0.0
142
1.0
143
1.0
 70
   688
 72
     0
 73
     0
 74
     5
  7

 75
    16
147
1.0
148
0.0
149
0.0
100
AcDbLayout
  1
レイアウト1
 70
     1
 71
     1
 10
-385.0
 20
-100.0
 11
170.0
 21
296.0
 12
0.0
 22
0.0
 32
0.0
 14
1.000000000000000E+20
 24
1.000000000000000E+20
 34
1.000000000000000E+20
 15
-1.000000000000000E+20
 25
-1.000000000000000E+20
 35
-1.000000000000000E+20
146
0.0
 13
0.0
 23
0.0
 33
0.0
 16
1.0
 26
0.0
 36
0.0
 17
0.0
 27
1.0
 37
0.0
 76
     0
330
1C
  0
MATERIAL
  5
1592
102
{ACAD_XDICTIONARY
360
1627
102
}
102
{ACAD_REACTORS
330
1A
102
}
330
1A
100
AcDbMaterial
  1
ByBlock
  0
MATERIAL
  5
1591
102
{ACAD_XDICTIONARY
360
1625
102
}
102
{ACAD_REACTORS
330
1A
102
}
330
1A
100
AcDbMaterial
  1
ByLayer
  0
MATERIAL
  5
1593
102
{ACAD_XDICTIONARY
360
1629
102
}
102
{ACAD_REACTORS
330
1A
102
}
330
1A
100
AcDbMaterial
  1
Global
  0
MLINESTYLE
  5
17
102
{ACAD_REACTORS
330
16
102
}
330
16
100
AcDbMlineStyle
  2
STANDARD
 70
     0
  3

 62
   256
 51
90.0
 52
90.0
 71
     2
 49
0.5
 62
   256
  6
BYLAYER
 49
-0.5
 62
   256
  6
BYLAYER
  0
ACDBPLACEHOLDER
  5
F
102
{ACAD_REACTORS
330
E
102
}
330
E
  0
TABLESTYLE
  5
15A6
102
{ACAD_XDICTIONARY
360
16AD
102
}
102
{ACAD_REACTORS
330
15A5
102
}
330
15A5
100
AcDbTableStyle
  3
Standard
 70
     0
 71
     0
 40
0.06
 41
0.06
280
     0
281
     0
  7
STANDARD
140
0.18
170
     2
 62
     0
 63
     7
283
     0
274
    -2
284
     1
 64
     0
275
    -2
285
     1
 65
     0
276
    -2
286
     1
 66
     0
277
    -2
287
     1
 67
     0
278
    -2
288
     1
 68
     0
279
    -2
289
     1
 69
     0
  7
STANDARD
140
0.25
170
     5
 62
     0
 63
     7
283
     0
274
    -2
284
     1
 64
     0
275
    -2
285
     1
 65
     0
276
    -2
286
     1
 66
     0
277
    -2
287
     1
 67
     0
278
    -2
288
     1
 68
     0
279
    -2
289
     1
 69
     0
  7
STANDARD
140
0.18
170
     5
 62
     0
 63
     7
283
     0
274
    -2
284
     1
 64
     0
275
    -2
285
     1
 65
     0
276
    -2
286
     1
 66
     0
277
    -2
287
     1
 67
     0
278
    -2
288
     1
 68
     0
279
    -2
289
     1
 69
     0
  0
VISUALSTYLE
  5
159A
102
{ACAD_REACTORS
330
1594
102
}
330
1594
100
AcDbVisualStyle
  2
2dWireframe
 70
     4
 71
     0
 72
     2
 73
     0
 90
        0
 40
-0.6
 41
-30.0
 62
     5
 63
     7
 74
     1
 91
        4
 64
     7
 65
   257
 75
     1
175
     1
 42
1.0
 92
        0
 66
   257
 43
1.0
 76
     1
 77
     6
 78
     2
 67
     7
 79
     5
170
     0
171
     0
290
     0
174
     0
 93
        1
 44
0.0
173
     0
291
     0
 45
0.0
1001
ACAD
1000
AcDbSavedByObjectVersion
1070
     0
1000
AcDbSavedByObjectVersion
1070
     0
  0
VISUALSTYLE
  5
159C
102
{ACAD_REACTORS
330
1594
102
}
330
1594
100
AcDbVisualStyle
  2
3D Hidden
 70
     6
 71
     1
 72
     2
 73
     2
 90
        0
 40
-0.6
 41
-30.0
 62
     5
 63
     7
 74
     2
 91
        2
 64
     7
 65
   257
 75
     2
175
     1
 42
40.0
 92
        0
 66
   257
 43
1.0
 76
     1
 77
     6
 78
     2
 67
     7
 79
     3
170
     0
171
     0
290
     0
174
     0
 93
        1
 44
0.0
173
     0
291
     0
 45
0.0
1001
ACAD
1000
AcDbSavedByObjectVersion
1070
     0
1000
AcDbSavedByObjectVersion
1070
     0
  0
VISUALSTYLE
  5
159B
102
{ACAD_REACTORS
330
1594
102
}
330
1594
100
AcDbVisualStyle
  2
3dWireframe
 70
     5
 71
     0
 72
     2
 73
     0
 90
        0
 40
-0.6
 41
-30.0
 62
     5
 63
     7
 74
     1
 91
        4
 64
     7
 65
   257
 75
     1
175
     1
 42
1.0
 92
        0
 66
   257
 43
1.0
 76
     1
 77
     6
 78
     2
 67
     7
 79
     5
170
     0
171
     0
290
     0
174
     0
 93
        1
 44
0.0
173
     0
291
     0
 45
0.0
1001
ACAD
1000
AcDbSavedByObjectVersion
1070
     0
1000
AcDbSavedByObjectVersion
1070
     0
  0
VISUALSTYLE
  5
1599
102
{ACAD_REACTORS
330
1594
102
}
330
1594
100
AcDbVisualStyle
  2
Basic
 70
     7
 71
     1
 72
     0
 73
     1
 90
        0
 40
-0.6
 41
-30.0
 62
     5
 63
     7
 74
     0
 91
        4
 64
     7
 65
   257
 75
     1
175
     1
 42
1.0
 92
        8
 66
     7
 43
1.0
 76
     1
 77
     6
 78
     2
 67
     7
 79
     5
170
     0
171
     0
290
     0
174
     0
 93
        1
 44
0.0
173
     0
291
     1
 45
0.0
1001
ACAD
1000
AcDbSavedByObjectVersion
1070
     0
1000
AcDbSavedByObjectVersion
1070
     0
  0
VISUALSTYLE
  5
15A0
102
{ACAD_REACTORS
330
1594
102
}
330
1594
100
AcDbVisualStyle
  2
Brighten
 70
    12
 71
     2
 72
     2
 73
     0
 90
        0
 40
-0.6
 41
-30.0
 62
     5
 63
     7
 74
     1
 91
        4
 64
     7
 65
   257
 75
     1
175
     1
 42
1.0
 92
        8
 66
     7
 43
1.0
 76
     1
 77
     6
 78
     2
 67
     7
 79
     5
170
     0
171
     0
290
     0
174
     0
 93
        1
 44
50.0
173
     0
291
     1
 45
0.0
1001
ACAD
1000
AcDbSavedByObjectVersion
1070
     0
1000
AcDbSavedByObjectVersion
1070
     0
  0
VISUALSTYLE
  5
15A4
102
{ACAD_REACTORS
330
1594
102
}
330
1594
100
AcDbVisualStyle
  2
ColorChange
 70
    16
 71
     2
 72
     2
 73
     3
 90
        0
 40
-0.6
 41
-30.0
 62
     5
 63
     8
 74
     1
 91
        4
 64
     7
 65
   257
 75
     1
175
     1
 42
1.0
 92
        8
 66
     8
 43
1.0
 76
     1
 77
     6
 78
     2
 67
     7
 79
     5
170
     0
171
     0
290
     0
174
     0
 93
        1
 44
0.0
173
     0
291
     1
 45
0.0
1001
ACAD
1000
AcDbSavedByObjectVersion
1070
     0
1000
AcDbSavedByObjectVersion
1070
     0
  0
VISUALSTYLE
  5
159D
102
{ACAD_REACTORS
330
1594
102
}
330
1594
100
AcDbVisualStyle
  2
Conceptual
 70
     9
 71
     3
 72
     2
 73
     0
 90
        0
 40
-0.6
 41
-30.0
 62
     5
 63
     7
 74
     2
 91
        2
 64
     7
 65
   257
 75
     1
175
     1
 42
40.0
 92
        8
 66
     7
 43
1.0
 76
     1
 77
     6
 78
     2
 67
     7
 79
     3
170
     0
171
     0
290
     0
174
     0
 93
        1
 44
0.0
173
     0
291
     0
 45
0.0
1001
ACAD
1000
AcDbSavedByObjectVersion
1070
     0
1000
AcDbSavedByObjectVersion
1070
     0
  0
VISUALSTYLE
  5
159F
102
{ACAD_REACTORS
330
1594
102
}
330
1594
100
AcDbVisualStyle
  2
Dim
 70
    11
 71
     2
 72
     2
 73
     0
 90
        0
 40
-0.6
 41
-30.0
 62
     5
 63
     7
 74
     1
 91
        4
 64
     7
 65
   257
 75
     1
175
     1
 42
1.0
 92
        8
 66
     7
 43
1.0
 76
     1
 77
     6
 78
     2
 67
     7
 79
     5
170
     0
171
     0
290
     0
174
     0
 93
        1
 44
-50.0
173
     0
291
     1
 45
0.0
1001
ACAD
1000
AcDbSavedByObjectVersion
1070
     0
1000
AcDbSavedByObjectVersion
1070
     0
  0
VISUALSTYLE
  5
15A3
102
{ACAD_REACTORS
330
1594
102
}
330
1594
100
AcDbVisualStyle
  2
Facepattern
 70
    15
 71
     2
 72
     2
 73
     0
 90
        0
 40
-0.6
 41
-30.0
 62
     5
 63
     7
 74
     1
 91
        4
 64
     7
 65
   257
 75
     1
175
     1
 42
1.0
 92
        8
 66
     7
 43
1.0
 76
     1
 77
     6
 78
     2
 67
     7
 79
     5
170
     0
171
     0
290
     0
174
     0
 93
        1
 44
0.0
173
     0
291
     1
 45
0.0
1001
ACAD
1000
AcDbSavedByObjectVersion
1070
     0
1000
AcDbSavedByObjectVersion
1070
     0
  0
VISUALSTYLE
  5
1595
102
{ACAD_REACTORS
330
1594
102
}
330
1594
100
AcDbVisualStyle
  2
Flat
 70
     0
 71
     2
 72
     1
 73
     1
 90
        2
 40
-0.6
 41
30.0
 62
     5
 63
     7
 74
     0
 91
        4
 64
     7
 65
   257
 75
     1
175
     1
 42
1.0
 92
        8
 66
     7
 43
1.0
 76
     1
 77
     6
 78
     2
 67
     7
 79
     5
170
     0
171
     0
290
     0
174
     0
 93
       13
 44
0.0
173
     0
291
     1
 45
0.0
1001
ACAD
1000
AcDbSavedByObjectVersion
1070
     0
1000
AcDbSavedByObjectVersion
1070
     0
  0
VISUALSTYLE
  5
1596
102
{ACAD_REACTORS
330
1594
102
}
330
1594
100
AcDbVisualStyle
  2
FlatWithEdges
 70
     1
 71
     2
 72
     1
 73
     1
 90
        2
 40
-0.6
 41
30.0
 62
     5
 63
     7
 74
     1
 91
        4
 64
     7
 65
   257
 75
     1
175
     1
 42
1.0
 92
        0
 66
   257
 43
1.0
 76
     1
 77
     6
 78
     2
 67
     7
 79
     5
170
     0
171
     0
290
     0
174
     0
 93
       13
 44
0.0
173
     0
291
     1
 45
0.0
1001
ACAD
1000
AcDbSavedByObjectVersion
1070
     0
1000
AcDbSavedByObjectVersion
1070
     0
  0
VISUALSTYLE
  5
1597
102
{ACAD_REACTORS
330
1594
102
}
330
1594
100
AcDbVisualStyle
  2
Gouraud
 70
     2
 71
     2
 72
     2
 73
     1
 90
        2
 40
-0.6
 41
30.0
 62
     5
 63
     7
 74
     0
 91
        4
 64
     7
 65
   257
 75
     1
175
     1
 42
1.0
 92
        0
 66
     7
 43
1.0
 76
     1
 77
     6
 78
     2
 67
     7
 79
     5
170
     0
171
     0
290
     0
174
     0
 93
       13
 44
0.0
173
     0
291
     1
 45
0.0
1001
ACAD
1000
AcDbSavedByObjectVersion
1070
     0
1000
AcDbSavedByObjectVersion
1070
     0
  0
VISUALSTYLE
  5
1598
102
{ACAD_REACTORS
330
1594
102
}
330
1594
100
AcDbVisualStyle
  2
GouraudWithEdges
 70
     3
 71
     2
 72
     2
 73
     1
 90
        2
 40
-0.6
 41
30.0
 62
     5
 63
     7
 74
     1
 91
        4
 64
     7
 65
   257
 75
     1
175
     1
 42
1.0
 92
        0
 66
   257
 43
1.0
 76
     1
 77
     6
 78
     2
 67
     7
 79
     5
170
     0
171
     0
290
     0
174
     0
 93
       13
 44
0.0
173
     0
291
     1
 45
0.0
1001
ACAD
1000
AcDbSavedByObjectVersion
1070
     0
1000
AcDbSavedByObjectVersion
1070
     0
  0
VISUALSTYLE
  5
15A2
102
{ACAD_REACTORS
330
1594
102
}
330
1594
100
AcDbVisualStyle
  2
Linepattern
 70
    14
 71
     2
 72
     2
 73
     0
 90
        0
 40
-0.6
 41
-30.0
 62
     5
 63
     7
 74
     1
 91
        4
 64
     7
 65
   257
 75
     7
175
     7
 42
1.0
 92
        8
 66
     7
 43
1.0
 76
     1
 77
     6
 78
     2
 67
     7
 79
     5
170
     0
171
     0
290
     0
174
     0
 93
        1
 44
0.0
173
     0
291
     1
 45
0.0
1001
ACAD
1000
AcDbSavedByObjectVersion
1070
     0
1000
AcDbSavedByObjectVersion
1070
     0
  0
VISUALSTYLE
  5
159E
102
{ACAD_REACTORS
330
1594
102
}
330
1594
100
AcDbVisualStyle
  2
Realistic
 70
     8
 71
     2
 72
     2
 73
     0
 90
        0
 40
-0.6
 41
-30.0
 62
     5
 63
     7
 74
     1
 91
        0
 64
     7
 65
   257
 75
     1
175
     1
 42
1.0
 92
        8
 66
     8
 43
1.0
 76
     1
 77
     6
 78
     2
 67
     7
 79
     5
170
     0
171
     0
290
     0
174
     0
 93
       13
 44
0.0
173
     0
291
     0
 45
0.0
1001
ACAD
1000
AcDbSavedByObjectVersion
1070
     0
1000
AcDbSavedByObjectVersion
1070
     0
  0
VISUALSTYLE
  5
15A1
102
{ACAD_REACTORS
330
1594
102
}
330
1594
100
AcDbVisualStyle
  2
Thicken
 70
    13
 71
     2
 72
     2
 73
     0
 90
        0
 40
-0.6
 41
-30.0
 62
     5
 63
     7
 74
     1
 91
        4
 64
     7
 65
   257
 75
     1
175
     1
 42
1.0
 92
       12
 66
     7
 43
1.0
 76
     1
 77
     6
 78
     2
 67
     7
 79
     5
170
     0
171
     0
290
     0
174
     0
 93
        1
 44
0.0
173
     0
291
     1
 45
0.0
1001
ACAD
1000
AcDbSavedByObjectVersion
1070
     0
1000
AcDbSavedByObjectVersion
1070
     0
  0
DICTIONARYVAR
  5
161E
102
{ACAD_REACTORS
330
1581
102
}
330
1581
100
DictionaryVariables
280
     0
  1
STANDARD
  0
DICTIONARYVAR
  5
1583
102
{ACAD_REACTORS
330
1581
102
}
330
1581
100
DictionaryVariables
280
     0
  1
1
  0
DICTIONARYVAR
  5
1582
102
{ACAD_REACTORS
330
1581
102
}
330
1581
100
DictionaryVariables
280
     0
  1
1
  0
DICTIONARYVAR
  5
1584
102
{ACAD_REACTORS
330
1581
102
}
330
1581
100
DictionaryVariables
280
     0
  1

  0
DICTIONARYVAR
  5
161F
102
{ACAD_REACTORS
330
1581
102
}
330
1581
100
DictionaryVariables
280
     0
  1
127
  0
DICTIONARY
  5
153A
102
{ACAD_REACTORS
330
152D
102
}
330
152D
100
AcDbDictionary
281
     1
  0
XRECORD
  5
155A
102
{ACAD_REACTORS
330
152D
102
}
330
152D
100
AcDbXrecord
280
     1
 90
-1023410169
  0
LAYER_INDEX
  5
1579
102
{ACAD_REACTORS
330
1578
102
}
330
1578
100
AcDbIndex
 40
2454218.394021621
100
AcDbLayerIndex
  8
0
360
157A
 90
      338
  8
DEFPOINTS
360
157B
 90
        0
  0
DICTIONARY
  5
16AB
330
23
100
AcDbDictionary
280
     1
281
     1
  3
ACAD_XREC_ROUNDTRIP
360
16AC
  0
DICTIONARY
  5
16A9
330
1F
100
AcDbDictionary
280
     1
281
     1
  3
ACAD_XREC_ROUNDTRIP
360
16AA
  0
DICTIONARY
  5
1627
330
1592
100
AcDbDictionary
280
     1
281
     1
  3
ACAD_XREC_ROUNDTRIP
360
1628
  0
DICTIONARY
  5
1625
330
1591
100
AcDbDictionary
280
     1
281
     1
  3
ACAD_XREC_ROUNDTRIP
360
1626
  0
DICTIONARY
  5
1629
330
1593
100
AcDbDictionary
280
     1
281
     1
  3
ACAD_XREC_ROUNDTRIP
360
162A
  0
DICTIONARY
  5
16AD
330
15A6
100
AcDbDictionary
280
     1
281
     1
  3
ACAD_XREC_ROUNDTRIP
360
16AE
  0
IDBUFFER
  5
157A
330
0
100
AcDbIdBuffer
330
1380
330
1381
330
1382
330
1383
330
1384
330
1385
330
1386
330
1387
330
1388
330
1389
330
138A
330
138B
330
138C
330
138D
330
138E
330
138F
330
1390
330
1391
330
1392
330
1393
330
1394
330
1395
330
1396
330
1397
330
1398
330
1399
330
139A
330
139B
330
139C
330
139D
330
139E
330
139F
330
13A0
330
13A1
330
13A2
330
13A3
330
13A4
330
13A5
330
13A6
330
13A7
330
13A8
330
13A9
330
13AA
330
13AB
330
13AC
330
13AD
330
13AE
330
13AF
330
13B0
330
13B1
330
13B2
330
13B3
330
13B4
330
13B5
330
13B6
330
13B7
330
13B8
330
13B9
330
13BA
330
13BB
330
13BC
330
13BD
330
13BE
330
13BF
330
13C0
330
13C1
330
13C2
330
13C3
330
13C4
330
13C5
330
13C6
330
13C7
330
13C8
330
13C9
330
13CA
330
13CB
330
13CC
330
13CD
330
13CE
330
13CF
330
13D0
330
13D1
330
13D2
330
13D3
330
13D4
330
13D5
330
13D6
330
13D7
330
13D8
330
13D9
330
13DA
330
13DB
330
13DC
330
13DD
330
13DE
330
13DF
330
13E0
330
13E1
330
13E2
330
13E3
330
13E4
330
13E5
330
13E6
330
13E7
330
13E8
330
13E9
330
13EA
330
13EB
330
13EC
330
13ED
330
13EE
330
13EF
330
13F0
330
13F1
330
13F2
330
13F3
330
13F4
330
13F5
330
13F6
330
13F7
330
13F8
330
13F9
330
13FA
330
13FB
330
13FC
330
13FD
330
13FE
330
13FF
330
1400
330
1401
330
1402
330
1403
330
1404
330
1405
330
1406
330
1407
330
1408
330
1409
330
140A
330
140B
330
140C
330
140D
330
140E
330
140F
330
1410
330
1411
330
1412
330
1413
330
1414
330
1415
330
1416
330
1417
330
1418
330
1419
330
141A
330
141B
330
141C
330
141D
330
141E
330
141F
330
1420
330
1421
330
1422
330
1423
330
1424
330
1425
330
1426
330
1427
330
1428
330
1429
330
142A
330
142B
330
142C
330
142D
330
142E
330
142F
330
1430
330
1431
330
1432
330
1433
330
1434
330
1435
330
1436
330
1437
330
1438
330
1439
330
143A
330
143B
330
143C
330
143D
330
143E
330
143F
330
1440
330
1441
330
1442
330
1443
330
1444
330
1445
330
1446
330
1447
330
1448
330
1449
330
144A
330
144B
330
144C
330
144D
330
144E
330
144F
330
1450
330
1451
330
1452
330
1453
330
1454
330
1455
330
1456
330
1457
330
1458
330
1459
330
145A
330
145B
330
145C
330
145D
330
145E
330
145F
330
1460
330
1461
330
1462
330
1463
330
1464
330
1465
330
1466
330
1467
330
1468
330
1469
330
146A
330
146B
330
146C
330
146D
330
146E
330
146F
330
1470
330
1471
330
1472
330
1473
330
1474
330
1475
330
1476
330
1477
330
1478
330
1479
330
147A
330
147B
330
147C
330
147D
330
147E
330
147F
330
1480
330
1481
330
1482
330
1483
330
1484
330
1485
330
1486
330
1487
330
1488
330
1489
330
148A
330
148B
330
148C
330
148D
330
148E
330
148F
330
1490
330
1491
330
1492
330
1493
330
1494
330
1495
330
1496
330
1497
330
1498
330
1499
330
149A
330
149B
330
149C
330
149D
330
149E
330
149F
330
14A0
330
14A1
330
14A2
330
14A3
330
14A4
330
14A5
330
14A6
330
14A7
330
14A8
330
14A9
330
14AA
330
14AB
330
14AC
330
14AD
330
14AE
330
14AF
330
14B0
330
14B1
330
14B2
330
14B3
330
14B4
330
14B5
330
14B6
330
14B7
330
14B8
330
14B9
330
14BA
330
14BB
330
14BC
330
14BD
330
14BE
330
14BF
330
14C0
330
14C1
330
14C2
330
14C3
330
14C4
330
14C5
330
14C6
330
14C7
330
14C8
330
14C9
330
14CA
330
14CB
330
14CC
330
14CD
330
14CE
330
14D3
330
14D4
330
14D5
  0
IDBUFFER
  5
157B
330
0
100
AcDbIdBuffer
  0
XRECORD
  5
16AC
102
{ACAD_REACTORS
330
16AB
102
}
330
16AB
100
AcDbXrecord
280
     1
102
SHADEPLOT
 70
     0
102
SHADEPLOTRESLEVEL
 70
     2
102
SHADEPLOTCUSTOMDPI
 70
   300
  0
XRECORD
  5
16AA
102
{ACAD_REACTORS
330
16A9
102
}
330
16A9
100
AcDbXrecord
280
     1
102
SHADEPLOT
 70
     0
102
SHADEPLOTRESLEVEL
 70
     2
102
SHADEPLOTCUSTOMDPI
 70
   300
  0
XRECORD
  5
1628
102
{ACAD_REACTORS
330
1627
102
}
330
1627
100
AcDbXrecord
280
     1
102
MATERIAL
148
0.0
149
0.0
149
0.0
 93
        0
 94
       63
282
     0
 72
     1
 77
     1
171
     1
175
     1
179
     1
273
     0
  0
XRECORD
  5
1626
102
{ACAD_REACTORS
330
1625
102
}
330
1625
100
AcDbXrecord
280
     1
102
MATERIAL
148
0.0
149
0.0
149
0.0
 93
        0
 94
       63
282
     0
 72
     1
 77
     1
171
     1
175
     1
179
     1
273
     0
  0
XRECORD
  5
162A
102
{ACAD_REACTORS
330
1629
102
}
330
1629
100
AcDbXrecord
280
     1
102
MATERIAL
148
0.0
149
0.0
149
0.0
 93
        0
 94
       63
282
     0
 72
     1
 77
     1
171
     1
175
     1
179
     1
273
     0
  0
XRECORD
  5
16AE
102
{ACAD_REACTORS
330
16AD
102
}
330
16AD
100
AcDbXrecord
280
     1
102
ACAD_ROUNDTRIP_PRE2007_TABLESTYLE
 90
      512
 91
        0
  1

 92
      512
 93
        0
  2

 94
      512
 95
        0
  3

  0
ENDSEC
  0
EOF
