  0
SECTION
  2
HEADER
  9
$ACADVER
  1
AC1015
  9
$ACADMAINTVER
 70
    20
  9
$DWGCODEPAGE
  3
ANSI_932
  9
$INSBASE
 10
0.0
 20
0.0
 30
0.0
  9
$EXTMIN
 10
6074.924675701049
 20
-248.0496008611303
 30
0.0
  9
$EXTMAX
 10
6371.924675701048
 20
-38.04960086113033
 30
0.0
  9
$LIMMIN
 10
3779.599158088851
 20
100.7134268036752
  9
$LIMMAX
 10
9719.599158088852
 20
4300.713426803675
  9
$ORTHOMODE
 70
     0
  9
$REGENMODE
 70
     1
  9
$FILLMODE
 70
     1
  9
$QTEXTMODE
 70
     0
  9
$MIRRTEXT
 70
     0
  9
$LTSCALE
 40
1.0
  9
$ATTMODE
 70
     1
  9
$TEXTSIZE
 40
3.2
  9
$TRACEWID
 40
1.0
  9
$TEXTSTYLE
  7
STANDARD
  9
$CLAYER
  8
0部品18
  9
$CELTYPE
  6
ByLayer
  9
$CECOLOR
 62
   256
  9
$CELTSCALE
 40
1.0
  9
$DISPSILH
 70
     0
  9
$DIMSCALE
 40
1.0
  9
$DIMASZ
 40
1.0
  9
$DIMEXO
 40
1.0
  9
$DIMDLI
 40
10.0
  9
$DIMRND
 40
0.0
  9
$DIMDLE
 40
0.0
  9
$DIMEXE
 40
1.0
  9
$DIMTP
 40
0.1
  9
$DIMTM
 40
0.1
  9
$DIMTXT
 40
3.5
  9
$DIMCEN
 40
0.0
  9
$DIMTSZ
 40
0.0
  9
$DIMTOL
 70
     0
  9
$DIMLIM
 70
     0
  9
$DIMTIH
 70
     0
  9
$DIMTOH
 70
     0
  9
$DIMSE1
 70
     0
  9
$DIMSE2
 70
     0
  9
$DIMTAD
 70
     1
  9
$DIMZIN
 70
     8
  9
$DIMBLK
  1

  9
$DIMASO
 70
     1
  9
$DIMSHO
 70
     1
  9
$DIMPOST
  1

  9
$DIMAPOST
  1
"
  9
$DIMALT
 70
     0
  9
$DIMALTD
 70
     2
  9
$DIMALTF
 40
0.0393701
  9
$DIMLFAC
 40
1.0
  9
$DIMTOFL
 70
     1
  9
$DIMTVP
 40
0.0
  9
$DIMTIX
 70
     0
  9
$DIMSOXD
 70
     0
  9
$DIMSAH
 70
     0
  9
$DIMBLK1
  1

  9
$DIMBLK2
  1

  9
$DIMSTYLE
  2
SYS
  9
$DIMCLRD
 70
   256
  9
$DIMCLRE
 70
   256
  9
$DIMCLRT
 70
     7
  9
$DIMTFAC
 40
0.71
  9
$DIMGAP
 40
1.5
  9
$DIMJUST
 70
     0
  9
$DIMSD1
 70
     0
  9
$DIMSD2
 70
     0
  9
$DIMTOLJ
 70
     0
  9
$DIMTZIN
 70
     8
  9
$DIMALTZ
 70
     0
  9
$DIMALTTZ
 70
     0
  9
$DIMUPT
 70
     0
  9
$DIMDEC
 70
     2
  9
$DIMTDEC
 70
     2
  9
$DIMALTU
 70
     2
  9
$DIMALTTD
 70
     2
  9
$DIMTXSTY
  7
STANDARD
  9
$DIMAUNIT
 70
     0
  9
$DIMADEC
 70
     0
  9
$DIMALTRND
 40
0.0
  9
$DIMAZIN
 70
     2
  9
$DIMDSEP
 70
    46
  9
$DIMATFIT
 70
     3
  9
$DIMFRAC
 70
     0
  9
$DIMLDRBLK
  1

  9
$DIMLUNIT
 70
     2
  9
$DIMLWD
 70
    -1
  9
$DIMLWE
 70
    -1
  9
$DIMTMOVE
 70
     0
  9
$LUNITS
 70
     2
  9
$LUPREC
 70
     2
  9
$SKETCHINC
 40
1.0
  9
$FILLETRAD
 40
1.5
  9
$AUNITS
 70
     0
  9
$AUPREC
 70
     0
  9
$MENU
  1
.
  9
$ELEVATION
 40
0.0
  9
$PELEVATION
 40
0.0
  9
$THICKNESS
 40
0.0
  9
$LIMCHECK
 70
     0
  9
$CHAMFERA
 40
0.0
  9
$CHAMFERB
 40
0.0
  9
$CHAMFERC
 40
20.0
  9
$CHAMFERD
 40
0.0
  9
$SKPOLY
 70
     0
  9
$TDCREATE
 40
2455567.680725081
  9
$TDUCREATE
 40
2455567.305725081
  9
$TDUPDATE
 40
2456338.853279259
  9
$TDUUPDATE
 40
2456338.478279259
  9
$TDINDWG
 40
7.9610949653
  9
$TDUSRTIMER
 40
7.9610933333
  9
$USRTIMER
 70
     1
  9
$ANGBASE
 50
0.0
  9
$ANGDIR
 70
     0
  9
$PDMODE
 70
     0
  9
$PDSIZE
 40
-3.0
  9
$PLINEWID
 40
0.0
  9
$SPLFRAME
 70
     0
  9
$SPLINETYPE
 70
     6
  9
$SPLINESEGS
 70
     8
  9
$HANDSEED
  5
5B6CA
  9
$SURFTAB1
 70
     6
  9
$SURFTAB2
 70
     6
  9
$SURFTYPE
 70
     6
  9
$SURFU
 70
     6
  9
$SURFV
 70
     6
  9
$UCSBASE
  2

  9
$UCSNAME
  2

  9
$UCSORG
 10
0.0
 20
0.0
 30
0.0
  9
$UCSXDIR
 10
1.0
 20
0.0
 30
0.0
  9
$UCSYDIR
 10
0.0
 20
1.0
 30
0.0
  9
$UCSORTHOREF
  2

  9
$UCSORTHOVIEW
 70
     0
  9
$UCSORGTOP
 10
0.0
 20
0.0
 30
0.0
  9
$UCSORGBOTTOM
 10
0.0
 20
0.0
 30
0.0
  9
$UCSORGLEFT
 10
0.0
 20
0.0
 30
0.0
  9
$UCSORGRIGHT
 10
0.0
 20
0.0
 30
0.0
  9
$UCSORGFRONT
 10
0.0
 20
0.0
 30
0.0
  9
$UCSORGBACK
 10
0.0
 20
0.0
 30
0.0
  9
$PUCSBASE
  2

  9
$PUCSNAME
  2

  9
$PUCSORG
 10
0.0
 20
0.0
 30
0.0
  9
$PUCSXDIR
 10
1.0
 20
0.0
 30
0.0
  9
$PUCSYDIR
 10
0.0
 20
1.0
 30
0.0
  9
$PUCSORTHOREF
  2

  9
$PUCSORTHOVIEW
 70
     0
  9
$PUCSORGTOP
 10
0.0
 20
0.0
 30
0.0
  9
$PUCSORGBOTTOM
 10
0.0
 20
0.0
 30
0.0
  9
$PUCSORGLEFT
 10
0.0
 20
0.0
 30
0.0
  9
$PUCSORGRIGHT
 10
0.0
 20
0.0
 30
0.0
  9
$PUCSORGFRONT
 10
0.0
 20
0.0
 30
0.0
  9
$PUCSORGBACK
 10
0.0
 20
0.0
 30
0.0
  9
$USERI1
 70
     0
  9
$USERI2
 70
     0
  9
$USERI3
 70
     0
  9
$USERI4
 70
     0
  9
$USERI5
 70
     0
  9
$USERR1
 40
0.0
  9
$USERR2
 40
0.0
  9
$USERR3
 40
0.0
  9
$USERR4
 40
0.0
  9
$USERR5
 40
0.0
  9
$WORLDVIEW
 70
     1
  9
$SHADEDGE
 70
     3
  9
$SHADEDIF
 70
    70
  9
$TILEMODE
 70
     1
  9
$MAXACTVP
 70
    64
  9
$PINSBASE
 10
0.0
 20
0.0
 30
0.0
  9
$PLIMCHECK
 70
     0
  9
$PEXTMIN
 10
1.000000000000000E+20
 20
1.000000000000000E+20
 30
1.000000000000000E+20
  9
$PEXTMAX
 10
-1.000000000000000E+20
 20
-1.000000000000000E+20
 30
-1.000000000000000E+20
  9
$PLIMMIN
 10
-3.17498779296875
 20
-3.174999952316284
  9
$PLIMMAX
 10
293.4970092773438
 20
206.692492723465
  9
$UNITMODE
 70
     0
  9
$VISRETAIN
 70
     1
  9
$PLINEGEN
 70
     0
  9
$PSLTSCALE
 70
     1
  9
$TREEDEPTH
 70
  3020
  9
$CMLSTYLE
  2
Standard
  9
$CMLJUST
 70
     0
  9
$CMLSCALE
 40
20.0
  9
$PROXYGRAPHICS
 70
     1
  9
$MEASUREMENT
 70
     1
  9
$CELWEIGHT
370
    -1
  9
$ENDCAPS
280
     0
  9
$JOINSTYLE
280
     0
  9
$LWDISPLAY
290
     1
  9
$INSUNITS
 70
     4
  9
$HYPERLINKBASE
  1

  9
$STYLESHEET
  1
monochrome.ctb
  9
$XEDIT
290
     1
  9
$CEPSNTYPE
380
     0
  9
$PSTYLEMODE
290
     1
  9
$FINGERPRINTGUID
  2
{487E49EE-344A-43F6-800E-CE119D8346FF}
  9
$VERSIONGUID
  2
{9D2DF846-AF7D-496E-8D9C-35A0F707ADBA}
  9
$EXTNAMES
290
     1
  9
$PSVPSCALE
 40
0.0
  9
$OLESTARTUP
290
     0
  0
ENDSEC
  0
SECTION
  2
CLASSES
  0
CLASS
  1
ACDBDICTIONARYWDFLT
  2
AcDbDictionaryWithDefault
  3
ObjectDBX Classes
 90
        0
280
     0
281
     0
  0
CLASS
  1
ACDBPLACEHOLDER
  2
AcDbPlaceHolder
  3
ObjectDBX Classes
 90
        0
280
     0
281
     0
  0
CLASS
  1
LAYOUT
  2
AcDbLayout
  3
ObjectDBX Classes
 90
        0
280
     0
281
     0
  0
CLASS
  1
AMGSETTINGSOBJ
  2
AmgSettingsObj
  3
"AcadM|Product Description: AutoCAD Mechanical|Company: Autodesk"
 90
        0
280
     0
281
     0
  0
CLASS
  1
ACME_DOCUMENT
  2
AcMeDbDoc
  3
AcMeServices
 90
        0
280
     0
281
     0
  0
CLASS
  1
ACMESCOPE
  2
AcMeScope
  3
AcMeServices
 90
        0
280
     0
281
     0
  0
CLASS
  1
ACMECOMMANDHISTORY
  2
AcMeCommandHistory
  3
AcMeServices
 90
        0
280
     0
281
     0
  0
CLASS
  1
DICTIONARYVAR
  2
AcDbDictionaryVar
  3
ObjectDBX Classes
 90
        0
280
     0
281
     0
  0
CLASS
  1
ACIMSYSVARMAN
  2
AcImSysVarManager
  3
AcMeServices
 90
        0
280
     0
281
     0
  0
CLASS
  1
ACIMREALSYSVAR
  2
AcImRealSysVar
  3
AcMeServices
 90
        0
280
     0
281
     0
  0
CLASS
  1
ACIMINTSYSVAR
  2
AcImIntSysVar
  3
AcMeServices
 90
        0
280
     0
281
     0
  0
CLASS
  1
ACMEDRAWINGMAN
  2
AcMeDrawingMan
  3
AcMeServices
 90
        0
280
     0
281
     0
  0
CLASS
  1
ACMEVIEW
  2
AcMeView
  3
AcMeServices
 90
        0
280
     0
281
     0
  0
CLASS
  1
ACDBENTITYCACHE
  2
AcMeEntityCache
  3
AcMeServices
 90
        0
280
     0
281
     0
  0
CLASS
  1
GSMANAGER
  2
AcMeGSManager
  3
AcMeServices
 90
        0
280
     0
281
     0
  0
CLASS
  1
AMDTINTERNALREACTOR
  2
AmdtInternalReactor
  3
AcMeServices
 90
        0
280
     0
281
     0
  0
CLASS
  1
ACMESTATEMGR
  2
AcMeStateMgr
  3
AcMeServices
 90
        0
280
     0
281
     0
  0
CLASS
  1
ACGREFMASTER
  2
AcGrefMaster
  3
AcAttribServices
 90
        0
280
     0
281
     0
  0
CLASS
  1
ACME_DATABASE
  2
AcMeDbDatabase
  3
AcMeServices
 90
        0
280
     0
281
     0
  0
CLASS
  1
ACRFINSADJUSTERMGR
  2
AcRfInsAdjusterMgr
  3
AcMeServices
 90
        0
280
     0
281
     0
  0
CLASS
  1
ACGREFACADMASTER
  2
AcGrefacadMaster
  3
AcGrefServices
 90
        0
280
     0
281
     0
  0
CLASS
  1
AMIMASTER
  2
AmiMaster
  3
AmiServices
 90
        0
280
     0
281
     0
  0
CLASS
  1
ACMDATADICTIONARY
  2
AcmDataDictionary
  3
"AcmSymBB|Product Description: AutoCAD Mechanical|Company: Autodesk"
 90
        0
280
     0
281
     0
  0
CLASS
  1
ACMDATAENTRYBLOCK
  2
AcmDataEntryBlock
  3
"AcmSymBB|Product Description: AutoCAD Mechanical|Company: Autodesk"
 90
        0
280
     0
281
     0
  0
CLASS
  1
ACIMSTRSYSVAR
  2
AcImStrSysVar
  3
AcMeServices
 90
        0
280
     0
281
     0
  0
CLASS
  1
ACMSTANDARDISO
  2
AcmStandardISO
  3
"Amdt_StdImp|Product Description: AutoCAD Mechanical|Company: Autodesk"
 90
        0
280
     0
281
     0
  0
CLASS
  1
AMGOBJPROPCFG
  2
AmgObjPropCfg
  3
"AmgLay|Product Description: AutoCAD Mechanical|Company: Autodesk"
 90
        1
280
     0
281
     0
  0
CLASS
  1
AMDTEDGESTANDARDISO
  2
AmdtEdgeStdISO
  3
"Amdt_StdImp|Product Description: AutoCAD Mechanical|Company: Autodesk"
 90
        0
280
     0
281
     0
  0
CLASS
  1
ACMSURFSTANDARDISO
  2
AcmSurfTextStdISO
  3
"Amdt_StdImp|Product Description: AutoCAD Mechanical|Company: Autodesk"
 90
        0
280
     0
281
     0
  0
CLASS
  1
ACMFCFSTANDARDISO
  2
AcmFCFStdISO
  3
"Amdt_StdImp|Product Description: AutoCAD Mechanical|Company: Autodesk"
 90
        0
280
     0
281
     0
  0
CLASS
  1
ACMWELDSTANDARDISO
  2
AcmWeldingStdISO
  3
"Amdt_StdImp|Product Description: AutoCAD Mechanical|Company: Autodesk"
 90
        0
280
     0
281
     0
  0
CLASS
  1
ACMIDSTANDARDISO
  2
AcmIdStdISO
  3
"Amdt_StdImp|Product Description: AutoCAD Mechanical|Company: Autodesk"
 90
        0
280
     0
281
     0
  0
CLASS
  1
ACMDATUMSTANDARDISO
  2
AcmDatumStdISO
  3
"Amdt_StdImp|Product Description: AutoCAD Mechanical|Company: Autodesk"
 90
        0
280
     0
281
     0
  0
CLASS
  1
ACMBOMSTANDARDISO
  2
AcmBOMStdISO
  3
"Amdt_StdImp|Product Description: AutoCAD Mechanical|Company: Autodesk"
 90
        0
280
     0
281
     0
  0
CLASS
  1
ACMDETAILSTANDARDISO
  2
AmdtDetailSymStdISO
  3
"Amdt_StdImp|Product Description: AutoCAD Mechanical|Company: Autodesk"
 90
        0
280
     0
281
     0
  0
CLASS
  1
ACMSECTIONSTANDARDISO
  2
AmdtSectionSymStdISO
  3
"Amdt_StdImp|Product Description: AutoCAD Mechanical|Company: Autodesk"
 90
        0
280
     0
281
     0
  0
CLASS
  1
ACMCENTERLINESTANDARDISO
  2
AmdtCenterLineStdISO
  3
"Amdt_StdImp|Product Description: AutoCAD Mechanical|Company: Autodesk"
 90
        0
280
     0
281
     0
  0
CLASS
  1
ACAMGLAYSTD
  2
AcAmgLayStd
  3
"AmgLay|Product Description: AutoCAD Mechanical|Company: Autodesk"
 90
        0
280
     0
281
     0
  0
CLASS
  1
ACAMGDIMSTD
  2
AcAmgDimStd
  3
"AmgDim|Product Description: AutoCAD Mechanical|Company: Autodesk"
 90
        0
280
     0
281
     0
  0
CLASS
  1
ACAMGTITLESTD
  2
AcAmgTitleStd
  3
"AmgTitle|Product Description: AutoCAD Mechanical|Company: Autodesk"
 90
        0
280
     0
281
     0
  0
CLASS
  1
ACAMGFILTERDAT
  2
AcAmgFilterDat
  3
"AcadM|Product Description: AutoCAD Mechanical|Company: Autodesk"
 90
        0
280
     0
281
     0
  0
CLASS
  1
LAYER_INDEX
  2
AcDbLayerIndex
  3
ObjectDBX Classes
 90
    32768
280
     0
281
     0
  0
CLASS
  1
IDBUFFER
  2
AcDbIdBuffer
  3
ObjectDBX Classes
 90
    32768
280
     0
281
     0
  0
CLASS
  1
PLOTSETTINGS
  2
AcDbPlotSettings
  3
ObjectDBX Classes
 90
    32768
280
     0
281
     0
  0
CLASS
  1
AMDTFORMULAUPDATEDISPATCHER
  2
AmdtFormulaUpdateDispatcher
  3
AcMeServices
 90
        0
280
     0
281
     0
  0
CLASS
  1
ACMSTANDARDANSI
  2
AcmStandardANSI
  3
"Amdt_StdImp|Product Description: AutoCAD Mechanical|Company: Autodesk"
 90
        0
280
     0
281
     0
  0
CLASS
  1
ACMSURFSTANDARDANSI
  2
AcmSurfTextStdANSI
  3
"Amdt_StdImp|Product Description: AutoCAD Mechanical|Company: Autodesk"
 90
        0
280
     0
281
     0
  0
CLASS
  1
ACMFCFSTANDARDANSI
  2
AcmFCFStdANSI
  3
"Amdt_StdImp|Product Description: AutoCAD Mechanical|Company: Autodesk"
 90
        0
280
     0
281
     0
  0
CLASS
  1
ACMWELDSTANDARDANSI
  2
AcmWeldingStdANSI
  3
"Amdt_StdImp|Product Description: AutoCAD Mechanical|Company: Autodesk"
 90
        0
280
     0
281
     0
  0
CLASS
  1
ACMIDSTANDARDANSI
  2
AcmIdStdANSI
  3
"Amdt_StdImp|Product Description: AutoCAD Mechanical|Company: Autodesk"
 90
        0
280
     0
281
     0
  0
CLASS
  1
ACMDATUMSTANDARDANSI
  2
AcmDatumStdANSI
  3
"Amdt_StdImp|Product Description: AutoCAD Mechanical|Company: Autodesk"
 90
        0
280
     0
281
     0
  0
CLASS
  1
ACMBOMSTANDARDANSI
  2
AcmBOMStdANSI
  3
"Amdt_StdImp|Product Description: AutoCAD Mechanical|Company: Autodesk"
 90
        0
280
     0
281
     0
  0
CLASS
  1
ACMDETAILSTANDARDANSI
  2
AmdtDetailSymStdANSI
  3
"Amdt_StdImp|Product Description: AutoCAD Mechanical|Company: Autodesk"
 90
        0
280
     0
281
     0
  0
CLASS
  1
ACMSECTIONSTANDARDANSI
  2
AmdtSectionSymStdANSI
  3
"Amdt_StdImp|Product Description: AutoCAD Mechanical|Company: Autodesk"
 90
        0
280
     0
281
     0
  0
CLASS
  1
ACMCENTERLINESTANDARDANSI
  2
AmdtCenterLineStdANSI
  3
"Amdt_StdImp|Product Description: AutoCAD Mechanical|Company: Autodesk"
 90
        0
280
     0
281
     0
  0
CLASS
  1
ACMBOM
  2
AcmBom
  3
"AcmSymBB|Product Description: AutoCAD Mechanical|Company: Autodesk"
 90
        0
280
     0
281
     0
  0
CLASS
  1
ACMDATAENTRYPART
  2
AcmDataEntryPart
  3
"AcmSymBB|Product Description: AutoCAD Mechanical|Company: Autodesk"
 90
    32768
280
     0
281
     0
  0
CLASS
  1
ACMPARTREF
  2
AcmPartRef
  3
"AcmSymBB|Product Description: AutoCAD Mechanical|Company: Autodesk"
 90
    35839
280
     0
281
     1
  0
CLASS
  1
ACDBCIRCARCRES
  2
AcDbCircArcRes
  3
AcGrefServices
 90
    32768
280
     0
281
     0
  0
CLASS
  1
ACMBOMROW
  2
AcmBomRow
  3
"AcmSymBB|Product Description: AutoCAD Mechanical|Company: Autodesk"
 90
    32768
280
     0
281
     0
  0
CLASS
  1
ACMBALLOON
  2
AcmBalloon
  3
"AcmSymBB|Product Description: AutoCAD Mechanical|Company: Autodesk"
 90
    35839
280
     0
281
     1
  0
CLASS
  1
AMDTNOTE
  2
AmdtNote
  3
"AcmSymBB|Product Description: AutoCAD Mechanical|Company: Autodesk"
 90
    35839
280
     0
281
     1
  0
CLASS
  1
STDPART2D
  2
AmgStdPart
  3
"AmgStdPart|Product Description: AutoCAD Mechanical|Company: Autodesk"
 90
    35839
280
     0
281
     1
  0
CLASS
  1
ACDBSTDPARTRES_LINE
  2
AcDbStdPartRes_Line
  3
"AmgStdPart|Product Description: AutoCAD Mechanical|Company: Autodesk"
 90
    32768
280
     0
281
     0
  0
CLASS
  1
ACMDATAENTRY
  2
AcmDataEntry
  3
"AcmSymBB|Product Description: AutoCAD Mechanical|Company: Autodesk"
 90
        0
280
     0
281
     0
  0
CLASS
  1
ACDBOPPOLYLINERES
  2
AcDbOpPolylineRes
  3
AcGrefServices
 90
    32768
280
     0
281
     0
  0
CLASS
  1
ACMPARTLIST
  2
AcmPartList
  3
"AcmSymBB|Product Description: AutoCAD Mechanical|Company: Autodesk"
 90
    35839
280
     0
281
     1
  0
CLASS
  1
ACDBLINERES
  2
AcDbLineRes
  3
AcGrefServices
 90
        0
280
     0
281
     0
  0
CLASS
  1
ACRFINSADJ
  2
AcRfInsAdjuster
  3
AcMeServices
 90
    32768
280
     0
281
     0
  0
CLASS
  1
AM_DRAWING_MGR
  2
AcDmDwgMgr
  3
AcMechDwgViewMgmt
 90
        0
280
     0
281
     0
  0
CLASS
  1
AM_DWG_DOCUMENT
  2
AcDmDwgDocument
  3
AcMechDwgViewMgmt
 90
        0
280
     0
281
     0
  0
CLASS
  1
AM_DWG_SHEET
  2
AcDmSheet
  3
AcMechDwgViewMgmt
 90
        0
280
     0
281
     0
  0
CLASS
  1
AM_VIEWDIMPARMAP
  2
AcDmViewDimParMap
  3
AcMechDwgViewMgmt
 90
        0
280
     0
281
     0
  0
CLASS
  1
AM_DWGMGR_NAME
  2
AcDmDwgMgrName
  3
AcMechDwgViewMgmt
 90
        0
280
     0
281
     0
  0
CLASS
  1
AMDTMENUSTATEMGR
  2
AmdtMenuStateMgr
  3
McadcomServices
 90
        0
280
     0
281
     0
  0
CLASS
  1
AMDTMCOMMENUSTATE
  2
AmdtMcomMenuState
  3
McadcomServices
 90
        0
280
     0
281
     0
  0
CLASS
  1
ASAPP
  2
AcAsAppObject
  3
AutoSurfServices
 90
        0
280
     0
281
     0
  0
CLASS
  1
IM_STATIC_MAN
  2
AcImStaticVarManager
  3
AcMeServices
 90
        0
280
     0
281
     0
  0
CLASS
  1
ACIMDBLSTATICVAR
  2
AcImDblStaticVar
  3
AcMeServices
 90
        0
280
     0
281
     0
  0
CLASS
  1
ACIMSTRSTATICVAR
  2
AcImStrStaticVar
  3
AcMeServices
 90
        0
280
     0
281
     0
  0
CLASS
  1
ACIMINTSTATICVAR
  2
AcImIntStaticVar
  3
AcMeServices
 90
        0
280
     0
281
     0
  0
CLASS
  1
ACASGREFMASTER
  2
AcAsGrefMaster
  3
AutoSurfResolverServices
 90
        0
280
     0
281
     0
  0
CLASS
  1
ACADGREFMODULE
  2
AcAdGrefModule
  3
AdGrefServices
 90
        0
280
     0
281
     0
  0
CLASS
  1
AMDTMAPISURFMOUDULE
  2
AmdtMApiSurfModule
  3
MApiSurfServices
 90
        0
280
     0
281
     0
  0
CLASS
  1
MAPIAMMOUDLE
  2
MApiAmModule
  3
MApiAmServices
 90
        0
280
     0
281
     0
  0
CLASS
  1
AMDTADMENUSTATE
  2
AmdtAdMenuState
  3
DesignerServices
 90
        0
280
     0
281
     0
  0
CLASS
  1
ADAPPL
  2
AcAdAppl
  3
DesignerServices
 90
        0
280
     0
281
     0
  0
CLASS
  1
DEPMGR
  2
AcAdDepMgr
  3
DesignerServices
 90
        0
280
     0
281
     0
  0
CLASS
  1
PARAMMGR
  2
AcAdParamMgr
  3
DesignerServices
 90
        0
280
     0
281
     0
  0
CLASS
  1
PARAMSCOPE
  2
AcAdParamScope
  3
DesignerServices
 90
        0
280
     0
281
     0
  0
CLASS
  1
NAMEDAPPL
  2
AcAdNamedAppl
  3
DesignerServices
 90
        0
280
     0
281
     0
  0
CLASS
  1
ADHNTMPLT
  2
AdHoleNoteTemplateMgr
  3
DesignerServices
 90
    32768
280
     0
281
     0
  0
CLASS
  1
AM_HNTEMPLATE_MGR_NAME
  2
AdHoleNoteTemplateMgrName
  3
DesignerServices
 90
    32768
280
     0
281
     0
  0
CLASS
  1
AMDTDMMENUSTATE
  2
AmdtDmMenuState
  3
AcMechDwgViewMgmt
 90
        0
280
     0
281
     0
  0
CLASS
  1
MAPIADMODULE
  2
MApiAdModule
  3
MApiAdServices
 90
        0
280
     0
281
     0
  0
CLASS
  1
AMDTAMMENUSTATE
  2
AmdtAmMenuState
  3
DesignerAssemblies
 90
        0
280
     0
281
     0
  0
CLASS
  1
ACAMPROJECT
  2
AcAmProject
  3
DesignerAssemblies
 90
        0
280
     0
281
     0
  0
CLASS
  1
ACAMGRCOMPDEF
  2
AcAmGrCompDef
  3
DesignerAssemblies
 90
        0
280
     0
281
     0
  0
CLASS
  1
ACCMCONTEXT
  2
AcCmContext
  3
DesignerAssemblies
 90
        0
280
     0
281
     0
  0
CLASS
  1
ACAMCOMPDEF
  2
AcAmCompDef
  3
DesignerAssemblies
 90
        0
280
     0
281
     0
  0
CLASS
  1
ACAMCOMPDEFMGR
  2
AcAmCompDefMgr
  3
DesignerAssemblies
 90
        0
280
     0
281
     0
  0
CLASS
  1
AMCONTEXTMGR
  2
AcAmContextMgr
  3
DesignerAssemblies
 90
        0
280
     0
281
     0
  0
CLASS
  1
ACAMCONTEXTMODELER
  2
AcAmContextModeler
  3
DesignerAssemblies
 90
        0
280
     0
281
     0
  0
CLASS
  1
CATALOGSTATE
  2
AcAmCatalogState
  3
DesignerAssemblies
 90
        0
280
     0
281
     0
  0
CLASS
  1
ACAMGRCOMPDEFSET
  2
AcAmGrCompDefSet
  3
DesignerAssemblies
 90
        0
280
     0
281
     0
  0
CLASS
  1
AMDTBROWSERDBTAB
  2
AmdtBrowserDbTab
  3
McadcomServices
 90
        0
280
     0
281
     0
  0
CLASS
  1
CBROWSERAPPOBJECT
  2
CBrowserAppObject
  3
McadcomServices
 90
        0
280
     0
281
     0
  0
CLASS
  1
DM_PLACEHOLDER
  2
AcDmSelsetPlaceholder
  3
AcMechDwgViewMgmt
 90
        0
280
     0
281
     0
  0
CLASS
  1
ACMPICKOBJ
  2
AcmPickEnt
  3
"AcmSymBB|Product Description: AutoCAD Mechanical|Company: Autodesk"
 90
    32768
280
     0
281
     1
  0
CLASS
  1
ACMNOTESTANDARDISO
  2
AmdtNoteStdISO
  3
"Amdt_StdImp|Product Description: AutoCAD Mechanical|Company: Autodesk"
 90
        0
280
     0
281
     0
  0
CLASS
  1
ACMNOTESTANDARDANSI
  2
AmdtNoteStdANSI
  3
"Amdt_StdImp|Product Description: AutoCAD Mechanical|Company: Autodesk"
 90
        0
280
     0
281
     0
  0
CLASS
  1
ACMTHREADLINESTANDARDISO
  2
AmdtThreadLineStdISO
  3
"Amdt_StdImp|Product Description: AutoCAD Mechanical|Company: Autodesk"
 90
        0
280
     0
281
     0
  0
CLASS
  1
ACMTHREADLINESTANDARDANSI
  2
AmdtThreadLineStdANSI
  3
"Amdt_StdImp|Product Description: AutoCAD Mechanical|Company: Autodesk"
 90
        0
280
     0
281
     0
  0
CLASS
  1
TABLESTYLE
  2
AcDbTableStyle
  3
ObjectDBX Classes
 90
     4095
280
     0
281
     0
  0
CLASS
  1
SORTENTSTABLE
  2
AcDbSortentsTable
  3
ObjectDBX Classes
 90
        0
280
     0
281
     0
  0
CLASS
  1
MATERIAL
  2
AcDbMaterial
  3
ObjectDBX Classes
 90
     1153
280
     0
281
     0
  0
CLASS
  1
VISUALSTYLE
  2
AcDbVisualStyle
  3
ObjectDBX Classes
 90
     4095
280
     0
281
     0
  0
CLASS
  1
ACRFATTGENMGR
  2
AcRfAttGeneralMgr
  3
AcAttribServices
 90
        0
280
     0
281
     0
  0
CLASS
  1
ACRFOBJATTMGR
  2
AcRfObjAttGroupMgr
  3
AcAttribServices
 90
        0
280
     0
281
     0
  0
CLASS
  1
ACRFMCADAPIATTHOLDER
  2
AcRfMCADAPIAttHolder
  3
AcAttribServices
 90
        0
280
     0
281
     0
  0
CLASS
  1
AMDTSYSATTR
  2
AmdtSystemAttribute
  3
AcAttribServices
 90
        0
280
     0
281
     0
  0
CLASS
  1
ACMTAPERSTANDARDISO
  2
AcmTaperStdISO
  3
"Amdt_StdImp|Product Description: AutoCAD Mechanical|Company: Autodesk"
 90
        0
280
     0
281
     0
  0
CLASS
  1
CAMSSTRUCTBTNSTATE
  2
StructBtnState
  3
L"DesignerAssemblies"
 90
        0
280
     0
281
     0
  0
CLASS
  1
DIMASSOC
  2
AcDbDimAssoc
  3
"AcDbDimAssoc|Product Desc:     AcDim ARX App For Dimension|Company:          Autodesk, Inc.|WEB Address:      www.autodesk.com"
 90
    32768
280
     0
281
     0
  0
CLASS
  1
EXACXREFPANELOBJECT
  2
ExAcXREFPanelObject
  3
EXAC_ESW
 90
    33793
280
     0
281
     0
  0
CLASS
  1
NPOCOLLECTION
  2
AcDbImpNonPersistentObjectsCollection
  3
ObjectDBX Classes
 90
    33921
280
     0
281
     0
  0
CLASS
  1
AMDTEDGESTANDARDISO13715
  2
AmdtEdgeStdISO13715
  3
"Amdt_StdImp|Product Description: AutoCAD Mechanical|Company: Autodesk"
 90
        0
280
     0
281
     0
  0
CLASS
  1
AMDTNOTETEMPLATEDB
  2
AmdtNoteTemplateDB
  3
AMDT_STDIMP_MODULE_NAME
 90
        0
280
     0
281
     0
  0
CLASS
  1
ACAMGHOLECHARTSTDISO
  2
AcAmgHoleChartStdISO
  3
ACMSYMBB_MODULE_NAME
 90
        0
280
     0
281
     0
  0
CLASS
  1
ACMTAPERSTANDARDANSI
  2
AcmTaperStdANSI
  3
"Amdt_StdImp|Product Description: AutoCAD Mechanical|Company: Autodesk"
 90
        0
280
     0
281
     0
  0
CLASS
  1
ACAMGHOLECHARTSTDANSI
  2
AcAmgHoleChartStdANSI
  3
ACMSYMBB_MODULE_NAME
 90
        0
280
     0
281
     0
  0
CLASS
  1
ACAMSTDPCOMPDEF
  2
AcAmStdpCompDef
  3
DesignerAssemblies
 90
    32768
280
     0
281
     0
  0
CLASS
  1
ACAMCOMP
  2
AcAmComp
  3
DesignerAssemblies
 90
    32768
280
     0
281
     0
  0
CLASS
  1
AC_AM_STDP_VIEW_DEF
  2
AcAmStdpViewDef
  3
DesignerAssemblies
 90
    32768
280
     0
281
     0
  0
CLASS
  1
AC_AM_MVD_DEP_MGR
  2
AcAmMVDdepMgr
  3
DesignerAssemblies
 90
        0
280
     0
281
     0
  0
CLASS
  1
AC_AM_MASTER_VIEW_DEF
  2
AcAmMasterViewDef
  3
DesignerAssemblies
 90
        0
280
     0
281
     0
  0
CLASS
  1
AC_AM_DIRTY_NODES
  2
AcAmDirtyNodes
  3
DesignerAssemblies
 90
        0
280
     0
281
     0
  0
CLASS
  1
AC_AM_MAPPER_CACHE
  2
AcAmMapperCache
  3
DesignerAssemblies
 90
        0
280
     0
281
     0
  0
CLASS
  1
ACAMMVDBACKUPOBJECT
  2
AcAmMVDBackupObject
  3
DesignerAssemblies
 90
        0
280
     0
281
     0
  0
CLASS
  1
AC_AM_COMP_VIEW_INST
  2
AcAmCompView
  3
DesignerAssemblies
 90
    32768
280
     0
281
     0
  0
CLASS
  1
AC_AM_2D_XREF_MGR
  2
AcAmXrefMgr2d
  3
DesignerAssemblies
 90
        0
280
     0
281
     0
  0
CLASS
  1
AC_AM_HIDE_SITUATION
  2
AcAmHideSituation
  3
DesignerAssemblies
 90
    32768
280
     0
281
     0
  0
CLASS
  1
AC_AM_TRANSFORM_GHOST
  2
AcDbTransformGhost
  3
DesignerAssemblies
 90
    32768
280
     0
281
     1
  0
CLASS
  1
L"OBJCLONER"
  2
ObjCloner
  3
DesignerAssemblies
 90
    32768
280
     0
281
     1
  0
ENDSEC
  0
SECTION
  2
TABLES
  0
TABLE
  2
VPORT
  5
8
330
0
100
AcDbSymbolTable
 70
     1
  0
VPORT
  5
B0EC
330
8
100
AcDbSymbolTableRecord
100
AcDbViewportTableRecord
  2
*Active
 70
     0
 10
0.0
 20
0.0
 11
1.0
 21
1.0
 12
6236.856616283447
 22
-172.1961904948102
 13
0.0
 23
0.0
 14
2.5
 24
2.5
 15
10.0
 25
10.0
 16
0.0
 26
0.0
 36
1.0
 17
0.0
 27
0.0
 37
0.0
 40
659.3817152931096
 41
1.702970297029702
 42
50.0
 43
-1370.695619172058
 44
-1370.695619172058
 50
0.0
 51
0.0
 71
     0
 72
   100
 73
     1
 74
     3
 75
     0
 76
     0
 77
     0
 78
     0
281
     0
 65
     0
110
0.0
120
0.0
130
0.0
111
1.0
121
0.0
131
0.0
112
0.0
122
1.0
132
0.0
 79
     0
146
0.0
  0
ENDTAB
  0
TABLE
  2
LTYPE
  5
5
330
0
100
AcDbSymbolTable
 70
    23
  0
LTYPE
  5
14
330
5
100
AcDbSymbolTableRecord
100
AcDbLinetypeTableRecord
  2
ByBlock
 70
     0
  3

 72
    65
 73
     0
 40
0.0
  0
LTYPE
  5
15
330
5
100
AcDbSymbolTableRecord
100
AcDbLinetypeTableRecord
  2
ByLayer
 70
     0
  3

 72
    65
 73
     0
 40
0.0
  0
LTYPE
  5
16
330
5
100
AcDbSymbolTableRecord
100
AcDbLinetypeTableRecord
  2
Continuous
 70
     0
  3
Solid line
 72
    65
 73
     0
 40
0.0
  0
LTYPE
  5
4F
330
5
100
AcDbSymbolTableRecord
100
AcDbLinetypeTableRecord
  2
AM_ISO02W050
 70
     0
  3
__ __ __ __ __ __ __ __ __ __ __ __ __ __ __
 72
    65
 73
     2
 40
7.5
 49
6.0
 74
     0
 49
-1.5
 74
     0
  0
LTYPE
  5
52
330
5
100
AcDbSymbolTableRecord
100
AcDbLinetypeTableRecord
  2
Amconstr
 70
     0
  3
_______________________
 72
    65
 73
     2
 40
9999.0
 49
9999.0
 74
     0
 49
0.0
 74
     0
  0
LTYPE
  5
64
330
5
100
AcDbSymbolTableRecord
100
AcDbLinetypeTableRecord
  2
ACISOWELD
 70
     0
  3
_ _ _ _ _
 72
    65
 73
     2
 40
2.0
 49
2.0
 74
     0
 49
-1.0
 74
     0
  0
LTYPE
  5
65
330
5
100
AcDbSymbolTableRecord
100
AcDbLinetypeTableRecord
  2
ACISOTGB
 70
     0
  3
__ . . __ . .
 72
    65
 73
     6
 40
9.0
 49
4.0
 74
     0
 49
-1.0
 74
     0
 49
1.0
 74
     0
 49
-1.0
 74
     0
 49
1.0
 74
     0
 49
-1.0
 74
     0
  0
LTYPE
  5
66
330
5
100
AcDbSymbolTableRecord
100
AcDbLinetypeTableRecord
  2
ACISOTGL
 70
     0
  3
_ _ _ _ _
 72
    65
 73
     2
 40
3.0
 49
2.0
 74
     0
 49
-1.0
 74
     0
  0
LTYPE
  5
69
330
5
100
AcDbSymbolTableRecord
100
AcDbLinetypeTableRecord
  2
CENTER
 70
     0
  3
__ . __
 72
    65
 73
     4
 40
7.0
 49
4.0
 74
     0
 49
-1.0
 74
     0
 49
1.0
 74
     0
 49
-1.0
 74
     0
  0
LTYPE
  5
A6E
330
5
100
AcDbSymbolTableRecord
100
AcDbLinetypeTableRecord
  2
PHANTOM2
 70
     0
  3
Phantom (.5x) ___ _ _ ___ _ _ ___ _ _ ___ _ _
 72
    65
 73
     6
 40
31.75
 49
15.875
 74
     0
 49
-3.174999999999999
 74
     0
 49
3.174999999999999
 74
     0
 49
-3.174999999999999
 74
     0
 49
3.174999999999999
 74
     0
 49
-3.174999999999999
 74
     0
  0
LTYPE
  5
4DED
330
5
100
AcDbSymbolTableRecord
100
AcDbLinetypeTableRecord
  2
中線
 70
     0
  3
___________________
 72
    65
 73
     2
 40
2.0
 49
1.0
 74
     0
 49
1.0
 74
     0
  0
LTYPE
  5
4DF6
330
5
100
AcDbSymbolTableRecord
100
AcDbLinetypeTableRecord
  2
細線
 70
     0
  3
___________________
 72
    65
 73
     2
 40
2.0
 49
1.0
 74
     0
 49
1.0
 74
     0
  0
LTYPE
  5
4DF7
330
5
100
AcDbSymbolTableRecord
100
AcDbLinetypeTableRecord
  2
太線
 70
     0
  3
___________________
 72
    65
 73
     2
 40
2.0
 49
1.0
 74
     0
 49
1.0
 74
     0
  0
LTYPE
  5
4EA7
330
5
100
AcDbSymbolTableRecord
100
AcDbLinetypeTableRecord
  2
文字
 70
     0
  3
_________________
 72
    65
 73
     2
 40
2.0
 49
1.0
 74
     0
 49
1.0
 74
     0
  0
LTYPE
  5
4EA9
330
5
100
AcDbSymbolTableRecord
100
AcDbLinetypeTableRecord
  2
寸法線
 70
     0
  3
________________
 72
    65
 73
     2
 40
2.0
 49
1.0
 74
     0
 49
1.0
 74
     0
  0
LTYPE
  5
4F12
330
5
100
AcDbSymbolTableRecord
100
AcDbLinetypeTableRecord
  2
ハッチング
 70
     0
  3
_________________
 72
    65
 73
     2
 40
2.0
 49
1.0
 74
     0
 49
1.0
 74
     0
  0
LTYPE
  5
5180
330
5
100
AcDbSymbolTableRecord
100
AcDbLinetypeTableRecord
  2
陰線1
 70
     0
  3
__ __ __ __
 72
    65
 73
     2
 40
4.0
 49
2.2
 74
     0
 49
-1.8
 74
     0
  0
LTYPE
  5
5182
330
5
100
AcDbSymbolTableRecord
100
AcDbLinetypeTableRecord
  2
切断線
 70
     0
  3
/\/-/\/-/\/-/\/-/\/-/\/
 72
    65
 73
     2
 40
11.0001
 49
0.0001
 74
     4
 75
   135
340
56
 46
0.04
 50
0.0
 44
0.0
 45
0.0
 49
-11.0
 74
     0
  0
LTYPE
  5
5183
330
5
100
AcDbSymbolTableRecord
100
AcDbLinetypeTableRecord
  2
想像線1
 70
     0
  3
__ __ __ _____ __ __ ____
 72
    65
 73
     6
 40
14.5
 49
6.0
 74
     0
 49
-1.5
 74
     0
 49
2.0
 74
     0
 49
-1.5
 74
     0
 49
2.0
 74
     0
 49
-1.5
 74
     0
  0
LTYPE
  5
5185
330
5
100
AcDbSymbolTableRecord
100
AcDbLinetypeTableRecord
  2
中心線1
 70
     0
  3
___ _ ___ _ ___
 72
    65
 73
     4
 40
18.0
 49
12.0
 74
     0
 49
-2.0
 74
     0
 49
2.0
 74
     0
 49
-2.0
 74
     0
  0
LTYPE
  5
5188
330
5
100
AcDbSymbolTableRecord
100
AcDbLinetypeTableRecord
  2
補助線
 70
     0
  3
______________
 72
    65
 73
     2
 40
2.0
 49
1.0
 74
     0
 49
1.0
 74
     0
  0
LTYPE
  5
6427
330
5
100
AcDbSymbolTableRecord
100
AcDbLinetypeTableRecord
  2
HIDDEN
 70
     0
  3
Hidden __ __ __ __ __ __ __ __ __ __ __ __ __ _
 72
    65
 73
     2
 40
0.375
 49
0.25
 74
     0
 49
-0.125
 74
     0
  0
LTYPE
  5
AF95
330
5
100
AcDbSymbolTableRecord
100
AcDbLinetypeTableRecord
  2
AM_ISO08W050
 70
     0
  3
____ . ____ . ____ . ____ . ____ . ____ . ____
 72
    65
 73
     4
 40
18.0
 49
12.0
 74
     0
 49
-1.5
 74
     0
 49
3.0
 74
     0
 49
-1.5
 74
     0
  0
LTYPE
  5
FD15
330
5
100
AcDbSymbolTableRecord
100
AcDbLinetypeTableRecord
  2
ACANSTGB
 70
     0
  3
__ . . __ . .
 72
    65
 73
     6
 40
0.35433070866
 49
0.15748031496
 74
     0
 49
-0.03937007874
 74
     0
 49
0.03937007874
 74
     0
 49
-0.03937007874
 74
     0
 49
0.03937007874
 74
     0
 49
-0.03937007874
 74
     0
  0
LTYPE
  5
FD16
330
5
100
AcDbSymbolTableRecord
100
AcDbLinetypeTableRecord
  2
ACANSTGL
 70
     0
  3
_ _ _ _ _
 72
    65
 73
     2
 40
0.11811023622
 49
0.07874015748
 74
     0
 49
-0.03937007874
 74
     0
  0
ENDTAB
  0
TABLE
  2
LAYER
  5
2
102
{ACAD_XDICTIONARY
360
3F95
102
}
330
0
100
AcDbSymbolTable
 70
    12
  0
LAYER
  5
10
330
2
100
AcDbSymbolTableRecord
100
AcDbLayerTableRecord
  2
0
 70
     0
 62
     7
  6
Continuous
370
    -3
390
F
  0
LAYER
  5
6D1
330
2
100
AcDbSymbolTableRecord
100
AcDbLayerTableRecord
  2
Defpoints
 70
     0
 62
     7
  6
Continuous
290
     0
370
    -3
390
F
  0
LAYER
  5
5F85
330
2
100
AcDbSymbolTableRecord
100
AcDbLayerTableRecord
  2
AM_0
 70
     0
 62
     7
  6
中線
370
    25
390
F
1001
AcAecLayerStandard
1000

1000

  0
LAYER
  5
AC9F
330
2
100
AcDbSymbolTableRecord
100
AcDbLayerTableRecord
  2
size
 70
     0
 62
     5
  6
Continuous
290
     0
370
    25
390
F
  0
LAYER
  5
ACA0
330
2
100
AcDbSymbolTableRecord
100
AcDbLayerTableRecord
  2
waku
 70
     0
 62
     7
  6
Continuous
370
    35
390
F
  0
LAYER
  5
ACA1
330
2
100
AcDbSymbolTableRecord
100
AcDbLayerTableRecord
  2
AM_6
 70
     0
 62
     2
  6
文字
370
    15
390
F
1001
AcAecLayerStandard
1000

1000

  0
LAYER
  5
AD68
330
2
100
AcDbSymbolTableRecord
100
AcDbLayerTableRecord
  2
AM_5
 70
     0
 62
     3
  6
寸法線
370
    15
390
F
1001
AcAecLayerStandard
1000

1000

  0
LAYER
  5
B5FB
330
2
100
AcDbSymbolTableRecord
100
AcDbLayerTableRecord
  2
0部品18
 70
     0
 62
   254
  6
細線
370
    30
390
F
1001
AcAecLayerStandard
1000

1000

  0
LAYER
  5
5B59E
330
2
100
AcDbSymbolTableRecord
100
AcDbLayerTableRecord
  2
AM_7
 70
     0
 62
     4
  6
中心線1
370
    15
390
F
1001
AcAecLayerStandard
1000

1000

  0
LAYER
  5
5B5B3
102
{ACAD_XDICTIONARY
360
5B5B4
102
}
330
2
100
AcDbSymbolTableRecord
100
AcDbLayerTableRecord
  2
AM_3
 70
     0
 62
     6
  6
陰線1
370
    15
390
F
1001
AcAecLayerStandard
1000

1000

  0
ENDTAB
  0
TABLE
  2
STYLE
  5
3
330
0
100
AcDbSymbolTable
 70
     7
  0
STYLE
  5
11
330
3
100
AcDbSymbolTableRecord
100
AcDbTextStyleTableRecord
  2
STANDARD
 70
     0
 40
0.0
 41
0.7
 50
0.0
 71
     0
 42
3.2
  3
romans.shx
  4
extfont.shx
  0
STYLE
  5
56
330
3
100
AcDbSymbolTableRecord
100
AcDbTextStyleTableRecord
  2

 70
     1
 40
0.0
 41
1.0
 50
0.0
 71
     0
 42
2.5
  3
ltypeshp.shx
  4

  0
STYLE
  5
58
330
3
100
AcDbSymbolTableRecord
100
AcDbTextStyleTableRecord
  2
ACISOTS
 70
     0
 40
1.0
 41
1.0
 50
0.0
 71
     0
 42
2.5
  3
isocp.shx
  4
extfont.shx
  0
STYLE
  5
63
330
3
100
AcDbSymbolTableRecord
100
AcDbTextStyleTableRecord
  2
ACISOGDT
 70
     0
 40
0.0
 41
1.0
 50
0.0
 71
     0
 42
2.5
  3
amgdt.shx
  4

  0
STYLE
  5
A74
330
3
100
AcDbSymbolTableRecord
100
AcDbTextStyleTableRecord
  2
DIM
 70
     0
 40
0.0
 41
1.0
 50
0.0
 71
     0
 42
2.5
  3
monotxt.shx
  4
extfont.shx
  0
STYLE
  5
FD18
330
3
100
AcDbSymbolTableRecord
100
AcDbTextStyleTableRecord
  2
ACANSTS
 70
     0
 40
1.0
 41
1.0
 50
0.0
 71
     0
 42
0.2
  3
romans.shx
  4
extfont.shx
  0
STYLE
  5
FD19
330
3
100
AcDbSymbolTableRecord
100
AcDbTextStyleTableRecord
  2
ACANSGDT
 70
     0
 40
0.0
 41
1.0
 50
0.0
 71
     0
 42
0.2
  3
amgdt.shx
  4

  0
ENDTAB
  0
TABLE
  2
VIEW
  5
6
330
0
100
AcDbSymbolTable
 70
     6
  0
VIEW
  5
AE1
330
6
100
AcDbSymbolTableRecord
100
AcDbViewTableRecord
  2
AM_VIEW1
 70
     0
 40
2203.896457765668
 10
5264.599158088851
 20
3198.765197920841
 41
2970.0
 11
0.0
 21
0.0
 31
1.0
 12
0.0
 22
0.0
 32
0.0
 42
50.0
 43
-1370.695619172058
 44
-1370.695619172058
 50
0.0
 71
     0
281
     0
 72
     0
  0
VIEW
  5
AE2
330
6
100
AcDbSymbolTableRecord
100
AcDbViewTableRecord
  2
AM_VIEW2
 70
     0
 40
2203.896457765668
 10
8234.599158088851
 20
3198.765197920841
 41
2970.0
 11
0.0
 21
0.0
 31
1.0
 12
0.0
 22
0.0
 32
0.0
 42
50.0
 43
-1370.695619172058
 44
-1370.695619172058
 50
0.0
 71
     0
281
     0
 72
     0
  0
VIEW
  5
AE3
330
6
100
AcDbSymbolTableRecord
100
AcDbViewTableRecord
  2
AM_VIEW3
 70
     0
 40
2203.896457765668
 10
5264.599158088851
 20
1202.661655686509
 41
2970.0
 11
0.0
 21
0.0
 31
1.0
 12
0.0
 22
0.0
 32
0.0
 42
50.0
 43
-1370.695619172058
 44
-1370.695619172058
 50
0.0
 71
     0
281
     0
 72
     0
  0
VIEW
  5
AE4
330
6
100
AcDbSymbolTableRecord
100
AcDbViewTableRecord
  2
AM_VIEW4
 70
     0
 40
2203.896457765668
 10
8234.599158088851
 20
1202.661655686509
 41
2970.0
 11
0.0
 21
0.0
 31
1.0
 12
0.0
 22
0.0
 32
0.0
 42
50.0
 43
-1370.695619172058
 44
-1370.695619172058
 50
0.0
 71
     0
281
     0
 72
     0
  0
VIEW
  5
AE5
330
6
100
AcDbSymbolTableRecord
100
AcDbViewTableRecord
  2
AM_VIEW5
 70
     0
 40
2203.896457765668
 10
6749.599158088852
 20
2200.713426803675
 41
2970.0
 11
0.0
 21
0.0
 31
1.0
 12
0.0
 22
0.0
 32
0.0
 42
50.0
 43
-1370.695619172058
 44
-1370.695619172058
 50
0.0
 71
     0
281
     0
 72
     0
  0
VIEW
  5
AE6
330
6
100
AcDbSymbolTableRecord
100
AcDbViewTableRecord
  2
AM_VIEW6
 70
     0
 40
4407.748837602181
 10
6749.599158088852
 20
2200.713426803675
 41
5939.9406
 11
0.0
 21
0.0
 31
1.0
 12
0.0
 22
0.0
 32
0.0
 42
50.0
 43
-1370.695619172058
 44
-1370.695619172058
 50
0.0
 71
     0
281
     0
 72
     0
  0
ENDTAB
  0
TABLE
  2
UCS
  5
7
330
0
100
AcDbSymbolTable
 70
     0
  0
ENDTAB
  0
TABLE
  2
APPID
  5
9
330
0
100
AcDbSymbolTable
 70
    67
  0
APPID
  5
12
330
9
100
AcDbSymbolTableRecord
100
AcDbRegAppTableRecord
  2
ACAD
 70
     0
  0
APPID
  5
30
330
9
100
AcDbSymbolTableRecord
100
AcDbRegAppTableRecord
  2
MCAD_NO_VIS
 70
     0
  0
APPID
  5
31
330
9
100
AcDbSymbolTableRecord
100
AcDbRegAppTableRecord
  2
ACAD_TEMP_GRAPHIC
 70
     0
  0
APPID
  5
44
330
9
100
AcDbSymbolTableRecord
100
AcDbRegAppTableRecord
  2
ACATTRIBSERVICES
 70
     0
  0
APPID
  5
7A1
330
9
100
AcDbSymbolTableRecord
100
AcDbRegAppTableRecord
  2
GENIUS_GENDIMSH_14
 70
     0
  0
APPID
  5
A49
330
9
100
AcDbSymbolTableRecord
100
AcDbRegAppTableRecord
  2
GENIUS_GENREC_14
 70
     0
  0
APPID
  5
A4A
330
9
100
AcDbSymbolTableRecord
100
AcDbRegAppTableRecord
  2
GENIUS_GENOBJ-N-REC_13
 70
     0
  0
APPID
  5
A4B
330
9
100
AcDbSymbolTableRecord
100
AcDbRegAppTableRecord
  2
GENIUS_GENODEF_13
 70
     0
  0
APPID
  5
A4C
330
9
100
AcDbSymbolTableRecord
100
AcDbRegAppTableRecord
  2
DCO15
 70
     0
  0
APPID
  5
ADC
330
9
100
AcDbSymbolTableRecord
100
AcDbRegAppTableRecord
  2
GENIUS_GENOLIS_13
 70
     0
  0
APPID
  5
ADD
330
9
100
AcDbSymbolTableRecord
100
AcDbRegAppTableRecord
  2
GENIUS_GENOENT_13
 70
     0
  0
APPID
  5
ADE
330
9
100
AcDbSymbolTableRecord
100
AcDbRegAppTableRecord
  2
GENIUS_GENOBJ-N-TIT_13
 70
     0
  0
APPID
  5
ADF
330
9
100
AcDbSymbolTableRecord
100
AcDbRegAppTableRecord
  2
GENIUS_GENTITLE_13
 70
     0
  0
APPID
  5
AE0
330
9
100
AcDbSymbolTableRecord
100
AcDbRegAppTableRecord
  2
GENIUS_GENOREF_13
 70
     0
  0
APPID
  5
AE7
330
9
100
AcDbSymbolTableRecord
100
AcDbRegAppTableRecord
  2
GENIUS_GENSCREG_15
 70
     0
  0
APPID
  5
AE8
330
9
100
AcDbSymbolTableRecord
100
AcDbRegAppTableRecord
  2
GENIUS_GENOBJ-N-SDF_13
 70
     0
  0
APPID
  5
FAF
330
9
100
AcDbSymbolTableRecord
100
AcDbRegAppTableRecord
  2
GENIUS_GENBLLY_14
 70
     0
  0
APPID
  5
FB0
330
9
100
AcDbSymbolTableRecord
100
AcDbRegAppTableRecord
  2
GENIUS_GENTRA_14
 70
     0
  0
APPID
  5
1285
330
9
100
AcDbSymbolTableRecord
100
AcDbRegAppTableRecord
  2
GENIUS_GENDTOL_13
 70
     0
  0
APPID
  5
142D
330
9
100
AcDbSymbolTableRecord
100
AcDbRegAppTableRecord
  2
GENIUS_GENOBJ-N-CEN_13
 70
     0
  0
APPID
  5
1AB5
330
9
100
AcDbSymbolTableRecord
100
AcDbRegAppTableRecord
  2
GENIUS_GENOBJ-N-CRS_13
 70
     0
  0
APPID
  5
1B36
330
9
100
AcDbSymbolTableRecord
100
AcDbRegAppTableRecord
  2
GENIUS_GENOBJ-N-HTC_13
 70
     0
  0
APPID
  5
1B37
330
9
100
AcDbSymbolTableRecord
100
AcDbRegAppTableRecord
  2
GENIUS_GENHATCH_13
 70
     0
  0
APPID
  5
216D
330
9
100
AcDbSymbolTableRecord
100
AcDbRegAppTableRecord
  2
GENIUS_GENOBJ-N-FIL_13
 70
     0
  0
APPID
  5
2356
330
9
100
AcDbSymbolTableRecord
100
AcDbRegAppTableRecord
  2
GEVID990412420
 70
     0
  0
APPID
  5
2357
330
9
100
AcDbSymbolTableRecord
100
AcDbRegAppTableRecord
  2
GEVDC
 70
     0
  0
APPID
  5
2358
330
9
100
AcDbSymbolTableRecord
100
AcDbRegAppTableRecord
  2
GEVCON
 70
     0
  0
APPID
  5
235B
330
9
100
AcDbSymbolTableRecord
100
AcDbRegAppTableRecord
  2
GEVRADREF
 70
     0
  0
APPID
  5
2360
330
9
100
AcDbSymbolTableRecord
100
AcDbRegAppTableRecord
  2
GENIUS_GENBH_13
 70
     0
  0
APPID
  5
2362
330
9
100
AcDbSymbolTableRecord
100
AcDbRegAppTableRecord
  2
GENIUS_GENOBJ-NBEHI-BHF_13
 70
     0
  0
APPID
  5
2364
330
9
100
AcDbSymbolTableRecord
100
AcDbRegAppTableRecord
  2
GENIUS_GENOBJ-NBEHI-BHB_13
 70
     0
  0
APPID
  5
2379
330
9
100
AcDbSymbolTableRecord
100
AcDbRegAppTableRecord
  2
GENIUS_GENOBJ-F-SCPASSM_13
 70
     0
  0
APPID
  5
3D74
330
9
100
AcDbSymbolTableRecord
100
AcDbRegAppTableRecord
  2
GENIUS_GENDIM_13
 70
     0
  0
APPID
  5
3D76
330
9
100
AcDbSymbolTableRecord
100
AcDbRegAppTableRecord
  2
GENIUS_GE3DTOL_13
 70
     0
  0
APPID
  5
3D9C
330
9
100
AcDbSymbolTableRecord
100
AcDbRegAppTableRecord
  2
AD_DRAW
 70
     0
  0
APPID
  5
3DE8
330
9
100
AcDbSymbolTableRecord
100
AcDbRegAppTableRecord
  2
ASURF_PCURVE_APPNAME
 70
     0
  0
APPID
  5
3DED
330
9
100
AcDbSymbolTableRecord
100
AcDbRegAppTableRecord
  2
AMG_3D2D_5.0
 70
     0
  0
APPID
  5
3E1B
330
9
100
AcDbSymbolTableRecord
100
AcDbRegAppTableRecord
  2
DESIGNERASSEMBLIES
 70
     0
  0
APPID
  5
3E20
330
9
100
AcDbSymbolTableRecord
100
AcDbRegAppTableRecord
  2
ACADM_DIM_EDIT
 70
     0
  0
APPID
  5
3E21
330
9
100
AcDbSymbolTableRecord
100
AcDbRegAppTableRecord
  2
AMDT_DM_ADJ
 70
     0
  0
APPID
  5
4143
330
9
100
AcDbSymbolTableRecord
100
AcDbRegAppTableRecord
  2
GENIUS_GENFIL_13
 70
     0
  0
APPID
  5
4144
330
9
100
AcDbSymbolTableRecord
100
AcDbRegAppTableRecord
  2
GENIUS_GENOBJ-N-CHA_13
 70
     0
  0
APPID
  5
4E17
330
9
100
AcDbSymbolTableRecord
100
AcDbRegAppTableRecord
  2
GEVID1008153417
 70
     0
  0
APPID
  5
4E58
330
9
100
AcDbSymbolTableRecord
100
AcDbRegAppTableRecord
  2
GEVID1008153418
 70
     0
  0
APPID
  5
4E5E
330
9
100
AcDbSymbolTableRecord
100
AcDbRegAppTableRecord
  2
GEVID1008153419
 70
     0
  0
APPID
  5
4E64
330
9
100
AcDbSymbolTableRecord
100
AcDbRegAppTableRecord
  2
GEVID1008153420
 70
     0
  0
APPID
  5
4E75
330
9
100
AcDbSymbolTableRecord
100
AcDbRegAppTableRecord
  2
GEVID1008153421
 70
     0
  0
APPID
  5
4EB7
330
9
100
AcDbSymbolTableRecord
100
AcDbRegAppTableRecord
  2
GENIUS_AMGTXT_16
 70
     0
  0
APPID
  5
7645
330
9
100
AcDbSymbolTableRecord
100
AcDbRegAppTableRecord
  2
GENIUS_GENOBJ-N-DIM_13
 70
     0
  0
APPID
  5
AAD0
330
9
100
AcDbSymbolTableRecord
100
AcDbRegAppTableRecord
  2
ACAD_DSTYLE_DIMARC_LENGTH_SYMBOL
 70
     0
  0
APPID
  5
AAD1
330
9
100
AcDbSymbolTableRecord
100
AcDbRegAppTableRecord
  2
ACAD_DSTYLE_DIMJOGGED_JOGANGLE_SYMBOL
 70
     0
  0
APPID
  5
AAFD
330
9
100
AcDbSymbolTableRecord
100
AcDbRegAppTableRecord
  2
ACAD_PSEXT
 70
     0
  0
APPID
  5
AD61
330
9
100
AcDbSymbolTableRecord
100
AcDbRegAppTableRecord
  2
AcAecLayerStandard
 70
     0
  0
APPID
  5
AEE3
330
9
100
AcDbSymbolTableRecord
100
AcDbRegAppTableRecord
  2
ACAD_EXEMPT_FROM_CAD_STANDARDS
 70
     0
  0
APPID
  5
B1BE
330
9
100
AcDbSymbolTableRecord
100
AcDbRegAppTableRecord
  2
GENIUS_GENCEN_19
 70
     0
  0
APPID
  5
B4E1
330
9
100
AcDbSymbolTableRecord
100
AcDbRegAppTableRecord
  2
ACAD_MLEADERVER
 70
     0
  0
APPID
  5
C488
330
9
100
AcDbSymbolTableRecord
100
AcDbRegAppTableRecord
  2
ACAD_DSTYLE_DIMINSPECT
 70
     0
  0
APPID
  5
C489
330
9
100
AcDbSymbolTableRecord
100
AcDbRegAppTableRecord
  2
ACAD_DSTYLE_DIMRADIAL_EXTENSION
 70
     0
  0
APPID
  5
1980E
330
9
100
AcDbSymbolTableRecord
100
AcDbRegAppTableRecord
  2
GEVID1311583542
 70
     0
  0
APPID
  5
19825
330
9
100
AcDbSymbolTableRecord
100
AcDbRegAppTableRecord
  2
AMG_2DHIDE
 70
     0
  0
APPID
  5
19826
330
9
100
AcDbSymbolTableRecord
100
AcDbRegAppTableRecord
  2
AMG_2DSTRUCT_BTR
 70
     0
  0
APPID
  5
19837
330
9
100
AcDbSymbolTableRecord
100
AcDbRegAppTableRecord
  2
ACADM_2DVIEW_IGN_NOTIFY
 70
     0
  0
APPID
  5
1B56B
330
9
100
AcDbSymbolTableRecord
100
AcDbRegAppTableRecord
  2
GEVID1311583543
 70
     0
  0
APPID
  5
1B5F6
330
9
100
AcDbSymbolTableRecord
100
AcDbRegAppTableRecord
  2
GEVID1311583544
 70
     0
  0
APPID
  5
1B61B
330
9
100
AcDbSymbolTableRecord
100
AcDbRegAppTableRecord
  2
GEVID1311583545
 70
     0
  0
APPID
  5
1B63D
330
9
100
AcDbSymbolTableRecord
100
AcDbRegAppTableRecord
  2
GEVID1311583546
 70
     0
  0
APPID
  5
1B675
330
9
100
AcDbSymbolTableRecord
100
AcDbRegAppTableRecord
  2
GEVID1311583547
 70
     0
  0
ENDTAB
  0
TABLE
  2
DIMSTYLE
  5
A
330
0
100
AcDbSymbolTable
 70
    25
100
AcDbDimStyleTable
 71
     3
340
2515
340
251A
340
251B
  0
DIMSTYLE
105
A76
330
A
100
AcDbSymbolTableRecord
100
AcDbDimStyleTableRecord
  2
STANDARD
 70
     0
 41
3.0
 42
1.0
 43
7.0
 44
2.0
 73
     0
 74
     0
 77
     1
140
2.799999999999999
141
0.0
143
0.0394
147
0.7
171
     4
172
     1
173
     1
176
     3
177
     3
178
     2
271
     3
272
     3
273
     8
274
     4
289
     0
340
A74
341
A66
343
A66
344
A66
  0
DIMSTYLE
105
2515
330
A
100
AcDbSymbolTableRecord
100
AcDbDimStyleTableRecord
  2
SYS
 70
     0
  4
"
 41
1.0
 42
1.0
 43
10.0
 44
1.0
 47
0.1
 48
0.1
 73
     0
 74
     0
 77
     1
 78
     8
 79
     2
140
3.5
141
0.0
143
0.0393701
146
0.71
147
1.5
172
     1
176
   256
177
   256
178
     7
271
     2
272
     2
283
     0
284
     8
340
11
371
    -1
372
    -1
1001
ACAD_DSTYLE_DIMJOGGED_JOGANGLE_SYMBOL
1070
   384
1040
0.7853981633974483
1001
ACAD_DSTYLE_DIMARC_LENGTH_SYMBOL
1070
   379
1070
     1
  0
DIMSTYLE
105
2516
102
{ACAD_REACTORS
330
5814B
330
5814C
102
}
330
A
100
AcDbSymbolTableRecord
100
AcDbDimStyleTableRecord
  2
SYS$3
 70
     0
  4
"
 41
2.0
 42
1.0
 43
10.0
 44
1.0
 47
0.1
 48
0.1
 73
     0
 77
     1
 78
     8
 79
     2
140
3.2
141
0.0
143
0.0393701
146
0.71
147
1.0
176
   256
177
   256
178
     2
271
     2
272
     2
283
     0
284
     8
288
     1
340
11
342
A66
371
    -1
372
    -1
1001
ACAD_DSTYLE_DIMJOGGED_JOGANGLE_SYMBOL
1070
   384
1040
0.7853981633974483
1001
ACAD_DSTYLE_DIMARC_LENGTH_SYMBOL
1070
   379
1070
     1
  0
DIMSTYLE
105
2517
330
A
100
AcDbSymbolTableRecord
100
AcDbDimStyleTableRecord
  2
SYS$4
 70
     0
  4
"
 41
2.0
 42
1.0
 43
10.0
 44
1.0
 47
0.1
 48
0.1
 73
     0
 77
     1
 78
     8
 79
     2
140
3.2
141
0.0
143
0.0393701
146
0.71
147
1.0
173
     1
176
   256
177
   256
178
     2
271
     2
272
     2
283
     0
284
     8
288
     1
340
11
344
A66
371
    -1
372
    -1
1001
ACAD_DSTYLE_DIMJOGGED_JOGANGLE_SYMBOL
1070
   384
1040
0.7853981633974483
1001
ACAD_DSTYLE_DIMARC_LENGTH_SYMBOL
1070
   379
1070
     1
  0
DIMSTYLE
105
2518
330
A
100
AcDbSymbolTableRecord
100
AcDbDimStyleTableRecord
  2
SYS$6
 70
     0
  4
"
 41
2.0
 42
1.0
 43
10.0
 44
1.0
 47
0.1
 48
0.1
 73
     0
 74
     0
 78
     8
 79
     2
140
3.2
141
0.0
143
0.0393701
146
0.71
147
1.0
172
     1
176
   256
177
   256
178
     2
271
     2
272
     2
283
     0
284
     8
340
11
341
A66
371
    -1
372
    -1
1001
ACAD_DSTYLE_DIMJOGGED_JOGANGLE_SYMBOL
1070
   384
1040
0.7853981633974483
1001
ACAD_DSTYLE_DIMARC_LENGTH_SYMBOL
1070
   379
1070
     1
  0
DIMSTYLE
105
2519
330
A
100
AcDbSymbolTableRecord
100
AcDbDimStyleTableRecord
  2
SYS$7
 70
     0
  4
"
 41
2.0
 42
1.0
 43
10.0
 44
1.0
 47
0.1
 48
0.1
 73
     0
 74
     0
 77
     1
 78
     8
 79
     2
140
3.2
141
0.0
143
0.0393701
146
0.71
147
1.0
172
     1
176
   256
177
   256
178
     2
271
     2
272
     2
283
     0
284
     8
340
11
341
A66
342
A66
371
    -1
372
    -1
1001
ACAD_DSTYLE_DIMJOGGED_JOGANGLE_SYMBOL
1070
   384
1040
0.7853981633974483
1001
ACAD_DSTYLE_DIMARC_LENGTH_SYMBOL
1070
   379
1070
     1
  0
DIMSTYLE
105
251A
330
A
100
AcDbSymbolTableRecord
100
AcDbDimStyleTableRecord
  2
SYS$SF
 70
     0
  4
"
 41
2.5
 42
1.0
 43
10.0
 44
1.0
 47
0.1
 48
0.1
 73
     0
 74
     0
 75
     1
 76
     1
 77
     1
 78
     8
 79
     2
140
3.2
141
0.0
143
0.0393701
146
0.71
147
1.0
172
     1
176
   256
177
   256
178
     2
271
     2
272
     2
283
     0
284
     8
340
11
341
6C4
342
6C4
371
    -1
372
    -1
1001
ACAD_DSTYLE_DIMJOGGED_JOGANGLE_SYMBOL
1070
   384
1040
0.7853981633974483
1001
ACAD_DSTYLE_DIMARC_LENGTH_SYMBOL
1070
   379
1070
     1
  0
DIMSTYLE
105
251B
330
A
100
AcDbSymbolTableRecord
100
AcDbDimStyleTableRecord
  2
SYS$SH
 70
     0
  4
"
 41
2.5
 42
1.0
 43
10.0
 44
1.0
 47
0.1
 48
0.1
 73
     0
 74
     0
 75
     1
 76
     1
 77
     1
 78
     8
 79
     2
140
3.2
141
0.0
143
0.0393701
144
2.0
146
0.71
147
1.0
172
     1
173
     1
176
   256
177
   256
178
     2
271
     2
272
     2
283
     0
284
     8
340
11
341
6C4
343
72
344
6C4
371
    -1
372
    -1
1001
ACAD_DSTYLE_DIMJOGGED_JOGANGLE_SYMBOL
1070
   384
1040
0.7853981633974483
1001
ACAD_DSTYLE_DIMARC_LENGTH_SYMBOL
1070
   379
1070
     1
  0
DIMSTYLE
105
2A59
330
A
100
AcDbSymbolTableRecord
100
AcDbDimStyleTableRecord
  2
SYS$2
 70
     0
  4
"
 41
1.0
 42
1.0
 43
10.0
 44
1.0
 47
0.1
 48
0.1
 73
     0
 74
     0
 77
     1
 78
     8
 79
     2
140
3.2
141
0.0
143
0.0393701
146
0.71
147
1.0
172
     1
176
   256
177
   256
178
     2
271
     2
272
     2
283
     0
284
     8
340
11
342
6C4
371
    -1
372
    -1
1001
ACAD_DSTYLE_DIMJOGGED_JOGANGLE_SYMBOL
1070
   384
1040
0.7853981633974483
1001
ACAD_DSTYLE_DIMARC_LENGTH_SYMBOL
1070
   379
1070
     1
  0
DIMSTYLE
105
2AAB
102
{ACAD_REACTORS
330
580F2
330
580F3
330
580F4
330
580F6
330
580F7
330
580F8
330
580F9
330
580FA
330
580FB
330
580FC
330
580FD
330
580FE
330
580FF
330
58100
330
5B64D
102
}
330
A
100
AcDbSymbolTableRecord
100
AcDbDimStyleTableRecord
  2
SYS$0
 70
     0
  4
"
 41
1.0
 42
1.0
 43
10.0
 44
1.0
 47
0.1
 48
0.1
 73
     0
 74
     0
 77
     1
 78
     8
 79
     2
140
3.200000000000001
141
0.0
143
0.0393701
146
0.71
147
1.0
172
     1
176
   256
177
   256
178
     2
271
     2
272
     2
283
     0
284
     8
340
11
341
A66
342
6C4
371
    -1
372
    -1
1001
ACAD_DSTYLE_DIMJOGGED_JOGANGLE_SYMBOL
1070
   384
1040
0.7853981633974483
1001
ACAD_DSTYLE_DIMARC_LENGTH_SYMBOL
1070
   379
1070
     1
  0
DIMSTYLE
105
AF99
330
A
100
AcDbSymbolTableRecord
100
AcDbDimStyleTableRecord
  2
AM_ISO
 70
     0
  4
"
 41
2.5
 42
1.0
 43
10.0
 44
1.0
 47
0.1
 48
0.1
 73
     0
 74
     0
 77
     1
 78
     8
 79
     2
140
3.5
141
0.0
143
0.0393701
146
0.71
147
1.5
172
     1
176
   256
177
   256
178
     2
271
     2
272
     3
274
     4
283
     0
284
     8
340
11
371
    -1
372
    -1
  0
DIMSTYLE
105
AF9A
330
A
100
AcDbSymbolTableRecord
100
AcDbDimStyleTableRecord
  2
AM_ISO$3
 70
     0
  4
"
 41
2.5
 42
1.0
 43
10.0
 44
1.0
 47
0.1
 48
0.1
 73
     0
 77
     1
 78
     8
 79
     2
140
3.5
141
0.0
143
0.0393701
146
0.71
147
1.5
176
   256
177
   256
178
     2
271
     2
272
     3
274
     4
283
     0
284
     8
288
     1
289
     0
340
11
371
    -1
372
    -1
  0
DIMSTYLE
105
AF9B
330
A
100
AcDbSymbolTableRecord
100
AcDbDimStyleTableRecord
  2
AM_ISO$4
 70
     0
  4
"
 41
2.5
 42
1.0
 43
10.0
 44
1.0
 47
0.1
 48
0.1
 73
     0
 77
     1
 78
     8
 79
     2
140
3.5
141
0.0
143
0.0393701
146
0.71
147
1.5
176
   256
177
   256
178
     2
271
     2
272
     3
274
     4
283
     0
284
     8
288
     1
289
     0
340
11
371
    -1
372
    -1
  0
DIMSTYLE
105
AF9C
330
A
100
AcDbSymbolTableRecord
100
AcDbDimStyleTableRecord
  2
AM_ISO$6
 70
     0
  4
"
 41
2.5
 42
1.0
 43
10.0
 44
1.0
 47
0.1
 48
0.1
 73
     0
 74
     0
 78
     8
 79
     2
140
3.5
141
0.0
143
0.0393701
146
0.71
147
1.5
172
     1
176
   256
177
   256
178
     2
271
     2
272
     3
274
     4
283
     0
284
     8
340
11
371
    -1
372
    -1
  0
DIMSTYLE
105
AF9D
330
A
100
AcDbSymbolTableRecord
100
AcDbDimStyleTableRecord
  2
AM_ISO$7
 70
     0
  4
"
 41
2.5
 42
1.0
 43
10.0
 44
1.0
 47
0.1
 48
0.1
 73
     0
 74
     0
 77
     1
 78
     8
 79
     2
140
5.0
141
0.0
143
0.0393701
146
0.71
147
1.5
172
     1
176
   256
177
   256
178
     2
271
     2
272
     3
274
     4
283
     0
284
     8
340
11
371
    -1
372
    -1
  0
DIMSTYLE
105
AF9E
330
A
100
AcDbSymbolTableRecord
100
AcDbDimStyleTableRecord
  2
AM_ISO$SF
 70
     0
  4
"
 41
2.5
 42
1.0
 43
10.0
 44
1.0
 47
0.1
 48
0.1
 73
     0
 74
     0
 75
     1
 76
     1
 77
     1
 78
     8
 79
     2
140
3.5
141
0.0
143
0.0393701
146
0.71
147
1.5
172
     1
176
   256
177
   256
178
     2
271
     2
272
     3
274
     4
283
     0
284
     8
340
11
371
    -1
372
    -1
  0
DIMSTYLE
105
AF9F
330
A
100
AcDbSymbolTableRecord
100
AcDbDimStyleTableRecord
  2
AM_ISO$SH
 70
     0
  4
"
 41
2.5
 42
1.0
 43
10.0
 44
1.0
 47
0.1
 48
0.1
 73
     0
 74
     0
 75
     1
 76
     1
 77
     1
 78
     8
 79
     2
140
3.5
141
0.0
143
0.0393701
144
2.0
146
0.71
147
1.5
172
     1
173
     1
176
   256
177
   256
178
     2
271
     2
272
     3
274
     4
283
     0
284
     8
340
11
343
72
371
    -1
372
    -1
  0
DIMSTYLE
105
B60C
330
A
100
AcDbSymbolTableRecord
100
AcDbDimStyleTableRecord
  2
AM_ANSI
 70
     0
  4
mm
 41
0.1
 42
0.05
 43
0.5
 44
0.1
 47
0.1
 48
0.1
 78
     7
 79
     2
140
0.12
141
0.0
146
0.71
147
0.06
176
   256
177
   256
178
     2
274
     4
284
     7
340
11
371
    -1
372
    -1
  0
DIMSTYLE
105
C485
330
A
100
AcDbSymbolTableRecord
100
AcDbDimStyleTableRecord
  2
AM_ISO$0
 70
     0
  4
"
 41
0.8
 42
1.0
 43
10.0
 44
1.0
 47
0.1
 48
0.1
 73
     0
 74
     0
 77
     1
 78
     8
 79
     2
140
3.2
141
0.0
143
0.0393701
146
0.71
147
0.9999999999999996
172
     1
176
   256
177
   256
178
     2
271
     2
272
     2
283
     0
284
     8
340
11
341
6C4
342
6C4
371
    -1
372
    -1
1001
ACAD_DSTYLE_DIMJOGGED_JOGANGLE_SYMBOL
1070
   384
1040
0.7853981633974483
1001
ACAD_DSTYLE_DIMARC_LENGTH_SYMBOL
1070
   379
1070
     1
  0
DIMSTYLE
105
C486
330
A
100
AcDbSymbolTableRecord
100
AcDbDimStyleTableRecord
  2
AM_ISO$2
 70
     0
  4
"
 41
0.8
 42
1.0
 43
10.0
 44
1.0
 47
0.1
 48
0.1
 73
     0
 74
     0
 77
     3
 78
     8
 79
     2
140
3.200000000000001
141
0.0
143
0.0393701
146
0.71
147
0.9999999999999996
172
     1
176
   256
177
   256
178
     2
271
     2
272
     2
283
     0
284
     8
340
11
342
6C4
371
    -1
372
    -1
1001
ACAD_DSTYLE_DIMJOGGED_JOGANGLE_SYMBOL
1070
   384
1040
0.7853981633974483
1001
ACAD_DSTYLE_DIMARC_LENGTH_SYMBOL
1070
   379
1070
     1
  0
DIMSTYLE
105
FD1A
330
A
100
AcDbSymbolTableRecord
100
AcDbDimStyleTableRecord
  2
AM_ANSI$3
 70
     0
  4
mm
 41
0.1
 42
0.05
 43
0.5
 44
0.1
 47
0.1
 48
0.1
 78
     7
 79
     2
140
0.12
141
0.0
146
0.71
147
0.06
176
   256
177
   256
178
     2
274
     4
284
     7
288
     1
289
     0
340
11
371
    -1
372
    -1
1001
ACAD_DSTYLE_DIMARC_LENGTH_SYMBOL
1070
   379
1070
     1
  0
DIMSTYLE
105
FD1B
330
A
100
AcDbSymbolTableRecord
100
AcDbDimStyleTableRecord
  2
AM_ANSI$4
 70
     0
  4
mm
 41
0.1
 42
0.05
 43
0.5
 44
0.1
 47
0.1
 48
0.1
 78
     7
 79
     2
140
0.12
141
0.0
146
0.71
147
0.06
176
   256
177
   256
178
     2
274
     4
284
     7
288
     1
289
     0
340
11
371
    -1
372
    -1
1001
ACAD_DSTYLE_DIMARC_LENGTH_SYMBOL
1070
   379
1070
     1
  0
DIMSTYLE
105
FD1C
330
A
100
AcDbSymbolTableRecord
100
AcDbDimStyleTableRecord
  2
AM_ANSI$7
 70
     0
  4
mm
 41
0.1
 42
0.05
 43
0.5
 44
0.1
 47
0.1
 48
0.1
 78
     7
 79
     2
140
0.24
141
0.0
146
0.71
147
0.06
176
   256
177
   256
178
     2
274
     4
284
     7
340
11
371
    -1
372
    -1
1001
ACAD_DSTYLE_DIMARC_LENGTH_SYMBOL
1070
   379
1070
     1
  0
DIMSTYLE
105
FD1D
330
A
100
AcDbSymbolTableRecord
100
AcDbDimStyleTableRecord
  2
AM_ANSI$SF
 70
     0
  4
mm
 41
0.1
 42
0.05
 43
0.5
 44
0.1
 47
0.1
 48
0.1
 75
     1
 76
     1
 78
     7
 79
     2
140
0.12
141
0.0
146
0.71
147
0.06
176
   256
177
   256
178
     2
274
     4
284
     7
340
11
371
    -1
372
    -1
1001
ACAD_DSTYLE_DIMARC_LENGTH_SYMBOL
1070
   379
1070
     1
  0
DIMSTYLE
105
FD1E
330
A
100
AcDbSymbolTableRecord
100
AcDbDimStyleTableRecord
  2
AM_ANSI$SH
 70
     0
  4
mm
 41
0.1
 42
0.05
 43
0.5
 44
0.1
 47
0.1
 48
0.1
 75
     1
 76
     1
 78
     7
 79
     2
140
0.12
141
0.0
146
0.71
147
0.06
173
     1
176
   256
177
   256
178
     2
274
     4
284
     7
340
11
343
72
371
    -1
372
    -1
1001
ACAD_DSTYLE_DIMARC_LENGTH_SYMBOL
1070
   379
1070
     1
  0
ENDTAB
  0
TABLE
  2
BLOCK_RECORD
  5
1
330
0
100
AcDbSymbolTable
 70
    25
  0
BLOCK_RECORD
  5
1F
102
{ACAD_XDICTIONARY
360
8A
102
}
330
1
100
AcDbSymbolTableRecord
100
AcDbBlockTableRecord
  2
*Model_Space
340
22
  0
BLOCK_RECORD
  5
1B
330
1
100
AcDbSymbolTableRecord
100
AcDbBlockTableRecord
  2
*Paper_Space
340
1E
  0
BLOCK_RECORD
  5
23
330
1
100
AcDbSymbolTableRecord
100
AcDbBlockTableRecord
  2
*Paper_Space0
340
26
  0
BLOCK_RECORD
  5
72
330
1
100
AcDbSymbolTableRecord
100
AcDbBlockTableRecord
  2
GENAXEH
340
0
  0
BLOCK_RECORD
  5
6C4
330
1
100
AcDbSymbolTableRecord
100
AcDbBlockTableRecord
  2
_Dot
340
0
102
{BLKREFS
331
5B2E3
331
5B2E4
331
5B31C
331
5B31D
331
5B33B
331
5B33C
331
5B400
331
5B401
331
5B44E
331
5B44F
331
5B45E
331
5B45F
331
5B469
331
5B46A
331
5B479
331
5B47A
331
5B48B
331
5B48C
331
5B564
331
5B565
331
5B595
331
5B596
331
5B5E0
331
5B5E1
331
5B5EC
331
5B5ED
331
5B607
331
5B608
331
5B610
331
5B611
331
5B624
331
5B625
331
5B647
331
5B648
331
5B68D
331
5B68E
102
}
  0
BLOCK_RECORD
  5
A66
330
1
100
AcDbSymbolTableRecord
100
AcDbBlockTableRecord
  2
_OPEN30
340
0
  0
BLOCK_RECORD
  5
58176
330
1
100
AcDbSymbolTableRecord
100
AcDbBlockTableRecord
  2
*D7
340
0
  0
BLOCK_RECORD
  5
58182
330
1
100
AcDbSymbolTableRecord
100
AcDbBlockTableRecord
  2
*D8
340
0
  0
BLOCK_RECORD
  5
5818E
330
1
100
AcDbSymbolTableRecord
100
AcDbBlockTableRecord
  2
*D9
340
0
  0
BLOCK_RECORD
  5
581A8
330
1
100
AcDbSymbolTableRecord
100
AcDbBlockTableRecord
  2
*D10
340
0
  0
BLOCK_RECORD
  5
581B4
330
1
100
AcDbSymbolTableRecord
100
AcDbBlockTableRecord
  2
*D11
340
0
  0
BLOCK_RECORD
  5
581C0
330
1
100
AcDbSymbolTableRecord
100
AcDbBlockTableRecord
  2
*D12
340
0
  0
BLOCK_RECORD
  5
581CE
330
1
100
AcDbSymbolTableRecord
100
AcDbBlockTableRecord
  2
*D13
340
0
  0
BLOCK_RECORD
  5
581DA
330
1
100
AcDbSymbolTableRecord
100
AcDbBlockTableRecord
  2
*D14
340
0
  0
BLOCK_RECORD
  5
581E8
330
1
100
AcDbSymbolTableRecord
100
AcDbBlockTableRecord
  2
*D15
340
0
  0
BLOCK_RECORD
  5
581F4
330
1
100
AcDbSymbolTableRecord
100
AcDbBlockTableRecord
  2
*D16
340
0
  0
BLOCK_RECORD
  5
58200
330
1
100
AcDbSymbolTableRecord
100
AcDbBlockTableRecord
  2
*D17
340
0
  0
BLOCK_RECORD
  5
5820C
330
1
100
AcDbSymbolTableRecord
100
AcDbBlockTableRecord
  2
*D18
340
0
  0
BLOCK_RECORD
  5
58218
330
1
100
AcDbSymbolTableRecord
100
AcDbBlockTableRecord
  2
*D19
340
0
  0
BLOCK_RECORD
  5
58224
330
1
100
AcDbSymbolTableRecord
100
AcDbBlockTableRecord
  2
*D20
340
0
  0
BLOCK_RECORD
  5
58230
330
1
100
AcDbSymbolTableRecord
100
AcDbBlockTableRecord
  2
*D21
340
0
  0
BLOCK_RECORD
  5
5823C
330
1
100
AcDbSymbolTableRecord
100
AcDbBlockTableRecord
  2
*D22
340
0
  0
BLOCK_RECORD
  5
5B64E
330
1
100
AcDbSymbolTableRecord
100
AcDbBlockTableRecord
  2
*D24
340
0
  0
ENDTAB
  0
ENDSEC
  0
SECTION
  2
BLOCKS
  0
BLOCK
  5
20
330
1F
100
AcDbEntity
  8
0
100
AcDbBlockBegin
  2
*Model_Space
 70
     0
 10
0.0
 20
0.0
 30
0.0
  3
*Model_Space
  1

  0
ENDBLK
  5
21
330
1F
100
AcDbEntity
  8
0
100
AcDbBlockEnd
  0
BLOCK
  5
1C
330
1B
100
AcDbEntity
 67
     1
  8
0
100
AcDbBlockBegin
  2
*Paper_Space
 70
     0
 10
0.0
 20
0.0
 30
0.0
  3
*Paper_Space
  1

  0
ENDBLK
  5
1D
330
1B
100
AcDbEntity
 67
     1
  8
0
100
AcDbBlockEnd
  0
BLOCK
  5
24
330
23
100
AcDbEntity
 67
     1
  8
0
100
AcDbBlockBegin
  2
*Paper_Space0
 70
     0
 10
0.0
 20
0.0
 30
0.0
  3
*Paper_Space0
  1

  0
ENDBLK
  5
25
330
23
100
AcDbEntity
 67
     1
  8
0
100
AcDbBlockEnd
  0
BLOCK
  5
74
330
72
100
AcDbEntity
  8
0
100
AcDbBlockBegin
  2
GENAXEH
 70
     0
 10
0.0
 20
0.0
 30
0.0
  3
GENAXEH
  1

  0
LINE
  5
73
330
72
100
AcDbEntity
  8
0
100
AcDbLine
 10
-1.0
 20
0.0
 30
0.0
 11
1.0
 21
0.0
 31
0.0
  0
ENDBLK
  5
75
330
72
100
AcDbEntity
  8
0
100
AcDbBlockEnd
  0
BLOCK
  5
6C7
330
6C4
100
AcDbEntity
  8
0
100
AcDbBlockBegin
  2
_Dot
 70
     0
 10
0.0
 20
0.0
 30
0.0
  3
_Dot
  1

  0
LWPOLYLINE
  5
6C5
330
6C4
100
AcDbEntity
  8
0
  6
ByBlock
 62
     0
100
AcDbPolyline
 90
        2
 70
     1
 43
0.5
 10
-0.25
 20
0.0
 42
1.0
 10
0.25
 20
0.0
 42
1.0
  0
LINE
  5
6C6
330
6C4
100
AcDbEntity
  8
0
  6
ByBlock
 62
     0
370
    -2
100
AcDbLine
 10
-0.5
 20
0.0
 30
0.0
 11
-1.0
 21
0.0
 31
0.0
  0
ENDBLK
  5
6C8
330
6C4
100
AcDbEntity
  8
0
100
AcDbBlockEnd
  0
BLOCK
  5
A6A
330
A66
100
AcDbEntity
  8
0
100
AcDbBlockBegin
  2
_OPEN30
 70
     0
 10
0.0
 20
0.0
 30
0.0
  3
_OPEN30
  1

  0
LINE
  5
A67
330
A66
100
AcDbEntity
  8
0
  6
ByBlock
 62
     0
100
AcDbLine
 10
-1.0
 20
0.26794919
 30
0.0
 11
0.0
 21
0.0
 31
0.0
  0
LINE
  5
A68
330
A66
100
AcDbEntity
  8
0
  6
ByBlock
 62
     0
100
AcDbLine
 10
0.0
 20
0.0
 30
0.0
 11
-1.0
 21
-0.26794919
 31
0.0
  0
LINE
  5
A69
330
A66
100
AcDbEntity
  8
0
  6
ByBlock
 62
     0
100
AcDbLine
 10
0.0
 20
0.0
 30
0.0
 11
-1.0
 21
0.0
 31
0.0
  0
ENDBLK
  5
A6B
330
A66
100
AcDbEntity
  8
0
100
AcDbBlockEnd
  0
BLOCK
  5
58180
330
58176
100
AcDbEntity
  8
0
100
AcDbBlockBegin
  2
*D7
 70
     1
 10
0.0
 20
0.0
 30
0.0
  3
*D7
  1

  0
LINE
  5
5B338
330
58176
100
AcDbEntity
  8
AM_5
100
AcDbLine
 10
6217.535176871628
 20
-84.63632827354786
 30
0.0
 11
6217.535176871628
 21
-67.63632827354786
 31
0.0
  0
LINE
  5
5B339
330
58176
100
AcDbEntity
  8
AM_5
100
AcDbLine
 10
6269.535176871627
 20
-92.13632827354786
 30
0.0
 11
6269.535176871627
 21
-67.63632827354786
 31
0.0
  0
LINE
  5
5B33A
330
58176
100
AcDbEntity
  8
AM_5
100
AcDbLine
 10
6218.535176871627
 20
-68.63632827354786
 30
0.0
 11
6268.535176871627
 21
-68.63632827354786
 31
0.0
  0
INSERT
  5
5B33B
330
58176
100
AcDbEntity
  8
AM_5
100
AcDbBlockReference
  2
_Dot
 10
6217.535176871628
 20
-68.63632827354786
 30
0.0
 50
180.0
  0
INSERT
  5
5B33C
330
58176
100
AcDbEntity
  8
AM_5
100
AcDbBlockReference
  2
_Dot
 10
6269.535176871627
 20
-68.63632827354786
 30
0.0
  0
MTEXT
  5
5B33D
330
58176
100
AcDbEntity
  8
AM_5
 62
     2
100
AcDbMText
 10
6243.056718871627
 20
-66.03632827354786
 30
0.0
 40
3.200000000000001
 41
0.0
 71
     5
 72
     1
  1
（A）
 73
     1
 44
1.0
1001
ACAD
1000
MTEXTBEGIN
1070
    73
1070
     1
1070
    44
1040
1.0
1070
    74
1070
     0
1000
MTEXTEND
  0
POINT
  5
5B33E
330
58176
100
AcDbEntity
  8
Defpoints
 62
     0
100
AcDbPoint
 10
6217.535176871628
 20
-85.63632827354785
 30
0.0
  0
POINT
  5
5B33F
330
58176
100
AcDbEntity
  8
Defpoints
 62
     0
100
AcDbPoint
 10
6269.535176871627
 20
-93.13632827354785
 30
0.0
  0
POINT
  5
5B340
330
58176
100
AcDbEntity
  8
Defpoints
 62
     0
100
AcDbPoint
 10
6269.535176871627
 20
-68.63632827354786
 30
0.0
  0
ENDBLK
  5
58181
330
58176
100
AcDbEntity
  8
0
100
AcDbBlockEnd
  0
BLOCK
  5
5818C
330
58182
100
AcDbEntity
  8
0
100
AcDbBlockBegin
  2
*D8
 70
     1
 10
0.0
 20
0.0
 30
0.0
  3
*D8
  1

  0
LINE
  5
5B604
330
58182
100
AcDbEntity
  8
AM_5
100
AcDbLine
 10
6209.416783871627
 20
-84.13632827354787
 30
0.0
 11
6209.416783871627
 21
-67.63632827354786
 31
0.0
  0
LINE
  5
5B605
330
58182
100
AcDbEntity
  8
AM_5
100
AcDbLine
 10
6191.916783871627
 20
-92.13632827354786
 30
0.0
 11
6191.916783871627
 21
-67.63632827354786
 31
0.0
  0
LINE
  5
5B606
330
58182
100
AcDbEntity
  8
AM_5
100
AcDbLine
 10
6208.416783871626
 20
-68.63632827354786
 30
0.0
 11
6192.916783871627
 21
-68.63632827354786
 31
0.0
  0
INSERT
  5
5B607
330
58182
100
AcDbEntity
  8
AM_5
100
AcDbBlockReference
  2
_Dot
 10
6209.416783871627
 20
-68.63632827354786
 30
0.0
  0
INSERT
  5
5B608
330
58182
100
AcDbEntity
  8
AM_5
100
AcDbBlockReference
  2
_Dot
 10
6191.916783871627
 20
-68.63632827354786
 30
0.0
 50
180.0
  0
MTEXT
  5
5B609
330
58182
100
AcDbEntity
  8
AM_5
 62
     2
100
AcDbMText
 10
6200.922766921362
 20
-66.03632827354786
 30
0.0
 40
3.200000000000001
 41
0.0
 71
     5
 72
     1
  1
（D）
 73
     1
 44
1.0
1001
ACAD
1000
MTEXTBEGIN
1070
    73
1070
     1
1070
    44
1040
1.0
1070
    74
1070
     0
1000
MTEXTEND
  0
POINT
  5
5B60A
330
58182
100
AcDbEntity
  8
Defpoints
 62
     0
100
AcDbPoint
 10
6209.416783871627
 20
-85.13632827354786
 30
0.0
  0
POINT
  5
5B60B
330
58182
100
AcDbEntity
  8
Defpoints
 62
     0
100
AcDbPoint
 10
6191.916783871627
 20
-93.13632827354785
 30
0.0
  0
POINT
  5
5B60C
330
58182
100
AcDbEntity
  8
Defpoints
 62
     0
100
AcDbPoint
 10
6191.916783871627
 20
-68.63632827354786
 30
0.0
  0
ENDBLK
  5
5818D
330
58182
100
AcDbEntity
  8
0
100
AcDbBlockEnd
  0
BLOCK
  5
58198
330
5818E
100
AcDbEntity
  8
0
100
AcDbBlockBegin
  2
*D9
 70
     1
 10
0.0
 20
0.0
 30
0.0
  3
*D9
  1

  0
LINE
  5
5B5E9
330
5818E
100
AcDbEntity
  8
AM_5
100
AcDbLine
 10
6197.466884871627
 20
-79.13632827354786
 30
0.0
 11
6182.916783871626
 21
-79.13632827354786
 31
0.0
  0
LINE
  5
5B5EA
330
5818E
100
AcDbEntity
  8
AM_5
100
AcDbLine
 10
6197.466884871627
 20
-107.1363292735482
 30
0.0
 11
6182.916783871626
 21
-107.1363292735482
 31
0.0
  0
LINE
  5
5B5EB
330
5818E
100
AcDbEntity
  8
AM_5
100
AcDbLine
 10
6183.916783871627
 20
-80.13632827354786
 30
0.0
 11
6183.916783871627
 21
-106.1363292735482
 31
0.0
  0
INSERT
  5
5B5EC
330
5818E
100
AcDbEntity
  8
AM_5
100
AcDbBlockReference
  2
_Dot
 10
6183.916783871627
 20
-79.13632827354786
 30
0.0
 50
90.0
  0
INSERT
  5
5B5ED
330
5818E
100
AcDbEntity
  8
AM_5
100
AcDbBlockReference
  2
_Dot
 10
6183.916783871627
 20
-107.1363292735482
 30
0.0
 50
270.0
  0
MTEXT
  5
5B5EE
330
5818E
100
AcDbEntity
  8
AM_5
 62
     2
100
AcDbMText
 10
6181.316783871626
 20
-93.13632877354711
 30
0.0
 40
3.200000000000001
 41
0.0
 71
     5
 72
     1
  1
E
 11
0.0000000000000001
 21
1.0
 31
0.0
 73
     1
 44
1.0
1001
ACAD
1000
MTEXTBEGIN
1070
    73
1070
     1
1070
    44
1040
1.0
1070
    74
1070
     0
1000
MTEXTEND
  0
POINT
  5
5B5EF
330
5818E
100
AcDbEntity
  8
Defpoints
 62
     0
100
AcDbPoint
 10
6198.466884871627
 20
-79.13632827354786
 30
0.0
  0
POINT
  5
5B5F0
330
5818E
100
AcDbEntity
  8
Defpoints
 62
     0
100
AcDbPoint
 10
6198.466884871627
 20
-107.1363292735482
 30
0.0
  0
POINT
  5
5B5F1
330
5818E
100
AcDbEntity
  8
Defpoints
 62
     0
100
AcDbPoint
 10
6183.916783871627
 20
-107.1363292735482
 30
0.0
  0
ENDBLK
  5
58199
330
5818E
100
AcDbEntity
  8
0
100
AcDbBlockEnd
  0
BLOCK
  5
581B2
330
581A8
100
AcDbEntity
  8
0
100
AcDbBlockBegin
  2
*D10
 70
     1
 10
0.0
 20
0.0
 30
0.0
  3
*D10
  1

  0
LINE
  5
5B319
330
581A8
100
AcDbEntity
  8
AM_5
100
AcDbLine
 10
6259.535176871628
 20
-82.13632827354786
 30
0.0
 11
6278.535176871628
 21
-82.13632827354786
 31
0.0
  0
LINE
  5
5B31A
330
581A8
100
AcDbEntity
  8
AM_5
100
AcDbLine
 10
6259.535176871628
 20
-104.1363282735478
 30
0.0
 11
6278.535176871628
 21
-104.1363282735478
 31
0.0
  0
LINE
  5
5B31B
330
581A8
100
AcDbEntity
  8
AM_5
100
AcDbLine
 10
6277.535176871627
 20
-83.13632827354785
 30
0.0
 11
6277.535176871627
 21
-103.1363282735478
 31
0.0
  0
INSERT
  5
5B31C
330
581A8
100
AcDbEntity
  8
AM_5
100
AcDbBlockReference
  2
_Dot
 10
6277.535176871627
 20
-82.13632827354786
 30
0.0
 50
90.0
  0
INSERT
  5
5B31D
330
581A8
100
AcDbEntity
  8
AM_5
100
AcDbBlockReference
  2
_Dot
 10
6277.535176871627
 20
-104.1363282735478
 30
0.0
 50
270.0
  0
MTEXT
  5
5B31E
330
581A8
100
AcDbEntity
  8
AM_5
 62
     2
100
AcDbMText
 10
6274.935176871627
 20
-93.13632827354695
 30
0.0
 40
3.200000000000001
 41
0.0
 71
     5
 72
     1
  1
C
 11
0.0000000000000001
 21
1.0
 31
0.0
 73
     1
 44
1.0
1001
ACAD
1000
MTEXTBEGIN
1070
    73
1070
     1
1070
    44
1040
1.0
1070
    74
1070
     0
1000
MTEXTEND
  0
POINT
  5
5B31F
330
581A8
100
AcDbEntity
  8
Defpoints
 62
     0
100
AcDbPoint
 10
6258.535176871627
 20
-82.13632827354786
 30
0.0
  0
POINT
  5
5B320
330
581A8
100
AcDbEntity
  8
Defpoints
 62
     0
100
AcDbPoint
 10
6258.535176871627
 20
-104.1363282735478
 30
0.0
  0
POINT
  5
5B321
330
581A8
100
AcDbEntity
  8
Defpoints
 62
     0
100
AcDbPoint
 10
6277.535176871627
 20
-104.1363282735478
 30
0.0
  0
ENDBLK
  5
581B3
330
581A8
100
AcDbEntity
  8
0
100
AcDbBlockEnd
  0
BLOCK
  5
581BE
330
581B4
100
AcDbEntity
  8
0
100
AcDbBlockBegin
  2
*D11
 70
     1
 10
0.0
 20
0.0
 30
0.0
  3
*D11
  1

  0
LINE
  5
5B644
330
581B4
100
AcDbEntity
  8
AM_5
100
AcDbLine
 10
6227.921186871627
 20
-77.13632827354786
 30
0.0
 11
6286.535176871627
 21
-77.13632827354787
 31
0.0
  0
LINE
  5
5B645
330
581B4
100
AcDbEntity
  8
AM_5
100
AcDbLine
 10
6227.921186871627
 20
-109.1363282735479
 30
0.0
 11
6286.535176871627
 21
-109.136328273548
 31
0.0
  0
LINE
  5
5B646
330
581B4
100
AcDbEntity
  8
AM_5
100
AcDbLine
 10
6285.535176871627
 20
-78.13632827354787
 30
0.0
 11
6285.535176871627
 21
-108.136328273548
 31
0.0
  0
INSERT
  5
5B647
330
581B4
100
AcDbEntity
  8
AM_5
100
AcDbBlockReference
  2
_Dot
 10
6285.535176871627
 20
-77.13632827354787
 30
0.0
 50
90.0
  0
INSERT
  5
5B648
330
581B4
100
AcDbEntity
  8
AM_5
100
AcDbBlockReference
  2
_Dot
 10
6285.535176871627
 20
-109.136328273548
 30
0.0
 50
270.0
  0
MTEXT
  5
5B649
330
581B4
100
AcDbEntity
  8
AM_5
 62
     2
100
AcDbMText
 10
6282.935176871627
 20
-93.13632827354785
 30
0.0
 40
3.200000000000001
 41
0.0
 71
     5
 72
     1
  1
（B）
 11
0.0000000000000001
 21
1.0
 31
0.0
 73
     1
 44
1.0
1001
ACAD
1000
MTEXTBEGIN
1070
    73
1070
     1
1070
    44
1040
1.0
1070
    74
1070
     0
1000
MTEXTEND
  0
POINT
  5
5B64A
330
581B4
100
AcDbEntity
  8
Defpoints
 62
     0
100
AcDbPoint
 10
6226.921186871628
 20
-77.13632827354786
 30
0.0
  0
POINT
  5
5B64B
330
581B4
100
AcDbEntity
  8
Defpoints
 62
     0
100
AcDbPoint
 10
6226.921186871628
 20
-109.1363282735479
 30
0.0
  0
POINT
  5
5B64C
330
581B4
100
AcDbEntity
  8
Defpoints
 62
     0
100
AcDbPoint
 10
6285.535176871627
 20
-109.136328273548
 30
0.0
  0
ENDBLK
  5
581BF
330
581B4
100
AcDbEntity
  8
0
100
AcDbBlockEnd
  0
BLOCK
  5
581CC
330
581C0
100
AcDbEntity
  8
0
100
AcDbBlockBegin
  2
*D12
 70
     1
 10
0.0
 20
0.0
 30
0.0
  3
*D12
  1

  0
LINE
  5
5B2DE
330
581C0
100
AcDbEntity
  8
AM_5
100
AcDbLine
 10
6269.960492871628
 20
-138.1146109683945
 30
0.0
 11
6278.535176871628
 21
-138.1146109683945
 31
0.0
  0
LINE
  5
5B2DF
330
581C0
100
AcDbEntity
  8
AM_5
100
AcDbLine
 10
6269.960492871628
 20
-136.6146109683946
 30
0.0
 11
6278.535176871628
 21
-136.6146109683946
 31
0.0
  0
LINE
  5
5B2E0
330
581C0
100
AcDbEntity
  8
AM_5
100
AcDbLine
 10
6277.535176871627
 20
-135.6146109683945
 30
0.0
 11
6277.535176871627
 21
-134.6146109683945
 31
0.0
  0
LINE
  5
5B2E1
330
581C0
100
AcDbEntity
  8
AM_5
100
AcDbLine
 10
6277.535176871627
 20
-139.1146109683945
 30
0.0
 11
6277.535176871627
 21
-143.6079443017279
 31
0.0
  0
LINE
  5
5B2E2
330
581C0
100
AcDbEntity
  8
AM_5
100
AcDbLine
 10
6277.535176871627
 20
-136.6146109683946
 30
0.0
 11
6277.535176871627
 21
-138.1146109683945
 31
0.0
  0
INSERT
  5
5B2E3
330
581C0
100
AcDbEntity
  8
AM_5
100
AcDbBlockReference
  2
_Dot
 10
6277.535176871627
 20
-136.6146109683946
 30
0.0
 50
270.0
  0
INSERT
  5
5B2E4
330
581C0
100
AcDbEntity
  8
AM_5
100
AcDbBlockReference
  2
_Dot
 10
6277.535176871627
 20
-138.1146109683945
 30
0.0
 50
90.0
  0
MTEXT
  5
5B2E5
330
581C0
100
AcDbEntity
  8
AM_5
 62
     2
100
AcDbMText
 10
6274.935176871627
 20
-141.8612776350603
 30
0.0
 40
3.200000000000001
 41
0.0
 71
     5
 72
     1
  1
H
 11
0.0000000000000001
 21
1.0
 31
0.0
 73
     1
 44
1.0
1001
ACAD
1000
MTEXTBEGIN
1070
    73
1070
     1
1070
    44
1040
1.0
1070
    74
1070
     0
1000
MTEXTEND
  0
POINT
  5
5B2E6
330
581C0
100
AcDbEntity
  8
Defpoints
 62
     0
100
AcDbPoint
 10
6268.960492871627
 20
-138.1146109683945
 30
0.0
  0
POINT
  5
5B2E7
330
581C0
100
AcDbEntity
  8
Defpoints
 62
     0
100
AcDbPoint
 10
6268.960492871627
 20
-136.6146109683946
 30
0.0
  0
POINT
  5
5B2E8
330
581C0
100
AcDbEntity
  8
Defpoints
 62
     0
100
AcDbPoint
 10
6277.535176871627
 20
-136.6146109683946
 30
0.0
  0
ENDBLK
  5
581CD
330
581C0
100
AcDbEntity
  8
0
100
AcDbBlockEnd
  0
BLOCK
  5
581D8
330
581CE
100
AcDbEntity
  8
0
100
AcDbBlockBegin
  2
*D13
 70
     1
 10
0.0
 20
0.0
 30
0.0
  3
*D13
  1

  0
LINE
  5
5B5DD
330
581CE
100
AcDbEntity
  8
AM_5
100
AcDbLine
 10
6269.960492871628
 20
-138.1146109683945
 30
0.0
 11
6286.535176871627
 21
-138.1146109683945
 31
0.0
  0
LINE
  5
5B5DE
330
581CE
100
AcDbEntity
  8
AM_5
100
AcDbLine
 10
6223.633168871628
 20
-124.9146109683946
 30
0.0
 11
6286.535176871627
 21
-124.9146109683946
 31
0.0
  0
LINE
  5
5B5DF
330
581CE
100
AcDbEntity
  8
AM_5
100
AcDbLine
 10
6285.535176871627
 20
-137.1146109683945
 30
0.0
 11
6285.535176871627
 21
-125.9146109683946
 31
0.0
  0
INSERT
  5
5B5E0
330
581CE
100
AcDbEntity
  8
AM_5
100
AcDbBlockReference
  2
_Dot
 10
6285.535176871627
 20
-138.1146109683945
 30
0.0
 50
270.0
  0
INSERT
  5
5B5E1
330
581CE
100
AcDbEntity
  8
AM_5
100
AcDbBlockReference
  2
_Dot
 10
6285.535176871627
 20
-124.9146109683946
 30
0.0
 50
90.0
  0
MTEXT
  5
5B5E2
330
581CE
100
AcDbEntity
  8
AM_5
 62
     2
100
AcDbMText
 10
6282.935176871627
 20
-131.6586730189537
 30
0.0
 40
3.200000000000001
 41
0.0
 71
     5
 72
     1
  1
（G）
 11
0.0000000000000001
 21
1.0
 31
0.0
 73
     1
 44
1.0
1001
ACAD
1000
MTEXTBEGIN
1070
    73
1070
     1
1070
    44
1040
1.0
1070
    74
1070
     0
1000
MTEXTEND
  0
POINT
  5
5B5E3
330
581CE
100
AcDbEntity
  8
Defpoints
 62
     0
100
AcDbPoint
 10
6268.960492871627
 20
-138.1146109683945
 30
0.0
  0
POINT
  5
5B5E4
330
581CE
100
AcDbEntity
  8
Defpoints
 62
     0
100
AcDbPoint
 10
6222.633168871627
 20
-124.9146109683946
 30
0.0
  0
POINT
  5
5B5E5
330
581CE
100
AcDbEntity
  8
Defpoints
 62
     0
100
AcDbPoint
 10
6285.535176871627
 20
-124.9146109683946
 30
0.0
  0
ENDBLK
  5
581D9
330
581CE
100
AcDbEntity
  8
0
100
AcDbBlockEnd
  0
BLOCK
  5
581E6
330
581DA
100
AcDbEntity
  8
0
100
AcDbBlockBegin
  2
*D14
 70
     1
 10
0.0
 20
0.0
 30
0.0
  3
*D14
  1

  0
LINE
  5
5B3FB
330
581DA
100
AcDbEntity
  8
AM_5
100
AcDbLine
 10
6191.416783871627
 20
-138.1146109683945
 30
0.0
 11
6183.416783871627
 21
-138.1146109683945
 31
0.0
  0
LINE
  5
5B3FC
330
581DA
100
AcDbEntity
  8
AM_5
100
AcDbLine
 10
6191.416783871627
 20
-136.6146109683946
 30
0.0
 11
6183.416783871627
 21
-136.6146109683946
 31
0.0
  0
LINE
  5
5B3FD
330
581DA
100
AcDbEntity
  8
AM_5
100
AcDbLine
 10
6184.416783871626
 20
-135.6146109683945
 30
0.0
 11
6184.416783871626
 21
-134.6146109683945
 31
0.0
  0
LINE
  5
5B3FE
330
581DA
100
AcDbEntity
  8
AM_5
100
AcDbLine
 10
6184.416783871626
 20
-139.1146109683945
 30
0.0
 11
6184.416783871626
 21
-143.1812776350613
 31
0.0
  0
LINE
  5
5B3FF
330
581DA
100
AcDbEntity
  8
AM_5
100
AcDbLine
 10
6184.416783871626
 20
-136.6146109683946
 30
0.0
 11
6184.416783871626
 21
-138.1146109683945
 31
0.0
  0
INSERT
  5
5B400
330
581DA
100
AcDbEntity
  8
AM_5
100
AcDbBlockReference
  2
_Dot
 10
6184.416783871626
 20
-136.6146109683946
 30
0.0
 50
270.0
  0
INSERT
  5
5B401
330
581DA
100
AcDbEntity
  8
AM_5
100
AcDbBlockReference
  2
_Dot
 10
6184.416783871626
 20
-138.1146109683945
 30
0.0
 50
90.0
  0
MTEXT
  5
5B402
330
581DA
100
AcDbEntity
  8
AM_5
 62
     2
100
AcDbMText
 10
6181.816783871626
 20
-141.6479443017269
 30
0.0
 40
3.200000000000001
 41
0.0
 71
     5
 72
     1
  1
J
 11
0.0000000000000001
 21
1.0
 31
0.0
 73
     1
 44
1.0
1001
ACAD
1000
MTEXTBEGIN
1070
    73
1070
     1
1070
    44
1040
1.0
1070
    74
1070
     0
1000
MTEXTEND
  0
POINT
  5
5B403
330
581DA
100
AcDbEntity
  8
Defpoints
 62
     0
100
AcDbPoint
 10
6192.416783871626
 20
-138.1146109683945
 30
0.0
  0
POINT
  5
5B404
330
581DA
100
AcDbEntity
  8
Defpoints
 62
     0
100
AcDbPoint
 10
6192.416783871626
 20
-136.6146109683946
 30
0.0
  0
POINT
  5
5B405
330
581DA
100
AcDbEntity
  8
Defpoints
 62
     0
100
AcDbPoint
 10
6184.416783871626
 20
-136.6146109683946
 30
0.0
  0
ENDBLK
  5
581E7
330
581DA
100
AcDbEntity
  8
0
100
AcDbBlockEnd
  0
BLOCK
  5
581F2
330
581E8
100
AcDbEntity
  8
0
100
AcDbBlockBegin
  2
*D15
 70
     1
 10
0.0
 20
0.0
 30
0.0
  3
*D15
  1

  0
LINE
  5
5B621
330
581E8
100
AcDbEntity
  8
AM_5
100
AcDbLine
 10
6191.416783871627
 20
-138.1146109683945
 30
0.0
 11
6175.416783871627
 21
-138.1146109683945
 31
0.0
  0
LINE
  5
5B622
330
581E8
100
AcDbEntity
  8
AM_5
100
AcDbLine
 10
6204.365054236525
 20
-129.1146109683946
 30
0.0
 11
6175.416783871627
 21
-129.1146109683946
 31
0.0
  0
LINE
  5
5B623
330
581E8
100
AcDbEntity
  8
AM_5
100
AcDbLine
 10
6176.416783871626
 20
-137.1146109683945
 30
0.0
 11
6176.416783871626
 21
-130.1146109683946
 31
0.0
  0
INSERT
  5
5B624
330
581E8
100
AcDbEntity
  8
AM_5
100
AcDbBlockReference
  2
_Dot
 10
6176.416783871626
 20
-138.1146109683945
 30
0.0
 50
270.0
  0
INSERT
  5
5B625
330
581E8
100
AcDbEntity
  8
AM_5
100
AcDbBlockReference
  2
_Dot
 10
6176.416783871626
 20
-129.1146109683946
 30
0.0
 50
90.0
  0
MTEXT
  5
5B626
330
581E8
100
AcDbEntity
  8
AM_5
 62
     2
100
AcDbMText
 10
6173.816783871626
 20
-133.6146109683936
 30
0.0
 40
3.200000000000001
 41
0.0
 71
     5
 72
     1
  1
I
 11
0.0000000000000001
 21
1.0
 31
0.0
 73
     1
 44
1.0
1001
ACAD
1000
MTEXTBEGIN
1070
    73
1070
     1
1070
    44
1040
1.0
1070
    74
1070
     0
1000
MTEXTEND
  0
POINT
  5
5B627
330
581E8
100
AcDbEntity
  8
Defpoints
 62
     0
100
AcDbPoint
 10
6192.416783871626
 20
-138.1146109683945
 30
0.0
  0
POINT
  5
5B628
330
581E8
100
AcDbEntity
  8
Defpoints
 62
     0
100
AcDbPoint
 10
6205.365054236526
 20
-129.1146109683946
 30
0.0
  0
POINT
  5
5B629
330
581E8
100
AcDbEntity
  8
Defpoints
 62
     0
100
AcDbPoint
 10
6176.416783871626
 20
-129.1146109683946
 30
0.0
  0
ENDBLK
  5
581F3
330
581E8
100
AcDbEntity
  8
0
100
AcDbBlockEnd
  0
BLOCK
  5
581FE
330
581F4
100
AcDbEntity
  8
0
100
AcDbBlockBegin
  2
*D16
 70
     1
 10
0.0
 20
0.0
 30
0.0
  3
*D16
  1

  0
LINE
  5
5B60D
330
581F4
100
AcDbEntity
  8
AM_5
100
AcDbLine
 10
6198.416783871627
 20
-179.5721209866692
 30
0.0
 11
6198.416783871627
 21
-194.4721209866693
 31
0.0
  0
LINE
  5
5B60E
330
581F4
100
AcDbEntity
  8
AM_5
100
AcDbLine
 10
6209.416783871627
 20
-177.9721209866693
 30
0.0
 11
6209.416783871627
 21
-194.4721209866693
 31
0.0
  0
LINE
  5
5B60F
330
581F4
100
AcDbEntity
  8
AM_5
100
AcDbLine
 10
6199.416783871626
 20
-193.4721209866693
 30
0.0
 11
6208.416783871626
 21
-193.4721209866693
 31
0.0
  0
INSERT
  5
5B610
330
581F4
100
AcDbEntity
  8
AM_5
100
AcDbBlockReference
  2
_Dot
 10
6198.416783871627
 20
-193.4721209866693
 30
0.0
 50
180.0
  0
INSERT
  5
5B611
330
581F4
100
AcDbEntity
  8
AM_5
100
AcDbBlockReference
  2
_Dot
 10
6209.416783871627
 20
-193.4721209866693
 30
0.0
  0
MTEXT
  5
5B612
330
581F4
100
AcDbEntity
  8
AM_5
 62
     2
100
AcDbMText
 10
6204.282340020235
 20
-190.8721209866693
 30
0.0
 40
3.200000000000001
 41
0.0
 71
     5
 72
     1
  1
（P）
 73
     1
 44
1.0
1001
ACAD
1000
MTEXTBEGIN
1070
    73
1070
     1
1070
    44
1040
1.0
1070
    74
1070
     0
1000
MTEXTEND
  0
POINT
  5
5B613
330
581F4
100
AcDbEntity
  8
Defpoints
 62
     0
100
AcDbPoint
 10
6198.416783871627
 20
-178.5721209866692
 30
0.0
  0
POINT
  5
5B614
330
581F4
100
AcDbEntity
  8
Defpoints
 62
     0
100
AcDbPoint
 10
6209.416783871627
 20
-176.9721209866693
 30
0.0
  0
POINT
  5
5B615
330
581F4
100
AcDbEntity
  8
Defpoints
 62
     0
100
AcDbPoint
 10
6209.416783871627
 20
-193.4721209866693
 30
0.0
  0
ENDBLK
  5
581FF
330
581F4
100
AcDbEntity
  8
0
100
AcDbBlockEnd
  0
BLOCK
  5
5820A
330
58200
100
AcDbEntity
  8
0
100
AcDbBlockBegin
  2
*D17
 70
     1
 10
0.0
 20
0.0
 30
0.0
  3
*D17
  1

  0
LINE
  5
5B592
330
58200
100
AcDbEntity
  8
AM_5
100
AcDbLine
 10
6217.917408871628
 20
-180.9721209866693
 30
0.0
 11
6217.917408871628
 21
-194.4721209866693
 31
0.0
  0
LINE
  5
5B593
330
58200
100
AcDbEntity
  8
AM_5
100
AcDbLine
 10
6230.917408871627
 20
-173.5721209866692
 30
0.0
 11
6230.917408871627
 21
-194.4721209866693
 31
0.0
  0
LINE
  5
5B594
330
58200
100
AcDbEntity
  8
AM_5
100
AcDbLine
 10
6218.917408871627
 20
-193.4721209866693
 30
0.0
 11
6229.917408871627
 21
-193.4721209866693
 31
0.0
  0
INSERT
  5
5B595
330
58200
100
AcDbEntity
  8
AM_5
100
AcDbBlockReference
  2
_Dot
 10
6217.917408871628
 20
-193.4721209866693
 30
0.0
 50
180.0
  0
INSERT
  5
5B596
330
58200
100
AcDbEntity
  8
AM_5
100
AcDbBlockReference
  2
_Dot
 10
6230.917408871627
 20
-193.4721209866693
 30
0.0
  0
MTEXT
  5
5B597
330
58200
100
AcDbEntity
  8
AM_5
 62
     2
100
AcDbMText
 10
6224.249281789109
 20
-190.8721209866693
 30
0.0
 40
3.200000000000001
 41
0.0
 71
     5
 72
     1
  1
L
 73
     1
 44
1.0
1001
ACAD
1000
MTEXTBEGIN
1070
    73
1070
     1
1070
    44
1040
1.0
1070
    74
1070
     0
1000
MTEXTEND
  0
POINT
  5
5B598
330
58200
100
AcDbEntity
  8
Defpoints
 62
     0
100
AcDbPoint
 10
6217.917408871628
 20
-179.9721209866693
 30
0.0
  0
POINT
  5
5B599
330
58200
100
AcDbEntity
  8
Defpoints
 62
     0
100
AcDbPoint
 10
6230.917408871627
 20
-172.5721209866692
 30
0.0
  0
POINT
  5
5B59A
330
58200
100
AcDbEntity
  8
Defpoints
 62
     0
100
AcDbPoint
 10
6230.917408871627
 20
-193.4721209866693
 30
0.0
  0
ENDBLK
  5
5820B
330
58200
100
AcDbEntity
  8
0
100
AcDbBlockEnd
  0
BLOCK
  5
58216
330
5820C
100
AcDbEntity
  8
0
100
AcDbBlockBegin
  2
*D18
 70
     1
 10
0.0
 20
0.0
 30
0.0
  3
*D18
  1

  0
LINE
  5
5B45B
330
5820C
100
AcDbEntity
  8
AM_5
100
AcDbLine
 10
6230.917408871627
 20
-173.5721209866692
 30
0.0
 11
6230.917408871627
 21
-202.4721209866693
 31
0.0
  0
LINE
  5
5B45C
330
5820C
100
AcDbEntity
  8
AM_5
100
AcDbLine
 10
6264.917408871627
 20
-173.5721209866692
 30
0.0
 11
6264.917408871627
 21
-202.4721209866693
 31
0.0
  0
LINE
  5
5B45D
330
5820C
100
AcDbEntity
  8
AM_5
100
AcDbLine
 10
6231.917408871627
 20
-201.4721209866693
 30
0.0
 11
6263.917408871627
 21
-201.4721209866693
 31
0.0
  0
INSERT
  5
5B45E
330
5820C
100
AcDbEntity
  8
AM_5
100
AcDbBlockReference
  2
_Dot
 10
6230.917408871627
 20
-201.4721209866693
 30
0.0
 50
180.0
  0
INSERT
  5
5B45F
330
5820C
100
AcDbEntity
  8
AM_5
100
AcDbBlockReference
  2
_Dot
 10
6264.917408871627
 20
-201.4721209866693
 30
0.0
  0
MTEXT
  5
5B460
330
5820C
100
AcDbEntity
  8
AM_5
 62
     2
100
AcDbMText
 10
6248.590411449523
 20
-198.8721209866693
 30
0.0
 40
3.200000000000001
 41
0.0
 71
     5
 72
     1
  1
K
 73
     1
 44
1.0
1001
ACAD
1000
MTEXTBEGIN
1070
    73
1070
     1
1070
    44
1040
1.0
1070
    74
1070
     0
1000
MTEXTEND
  0
POINT
  5
5B461
330
5820C
100
AcDbEntity
  8
Defpoints
 62
     0
100
AcDbPoint
 10
6230.917408871627
 20
-172.5721209866692
 30
0.0
  0
POINT
  5
5B462
330
5820C
100
AcDbEntity
  8
Defpoints
 62
     0
100
AcDbPoint
 10
6264.917408871627
 20
-172.5721209866692
 30
0.0
  0
POINT
  5
5B463
330
5820C
100
AcDbEntity
  8
Defpoints
 62
     0
100
AcDbPoint
 10
6264.917408871627
 20
-201.4721209866693
 30
0.0
  0
ENDBLK
  5
58217
330
5820C
100
AcDbEntity
  8
0
100
AcDbBlockEnd
  0
BLOCK
  5
58222
330
58218
100
AcDbEntity
  8
0
100
AcDbBlockBegin
  2
*D19
 70
     1
 10
0.0
 20
0.0
 30
0.0
  3
*D19
  1

  0
LINE
  5
5B476
330
58218
100
AcDbEntity
  8
AM_5
100
AcDbLine
 10
6230.917408871627
 20
-173.5721209866692
 30
0.0
 11
6230.917408871627
 21
-202.4721209866693
 31
0.0
  0
LINE
  5
5B477
330
58218
100
AcDbEntity
  8
AM_5
100
AcDbLine
 10
6198.416783871627
 20
-179.5721209866692
 30
0.0
 11
6198.416783871627
 21
-202.4721209866693
 31
0.0
  0
LINE
  5
5B478
330
58218
100
AcDbEntity
  8
AM_5
100
AcDbLine
 10
6229.917408871627
 20
-201.4721209866693
 30
0.0
 11
6199.416783871626
 21
-201.4721209866693
 31
0.0
  0
INSERT
  5
5B479
330
58218
100
AcDbEntity
  8
AM_5
100
AcDbBlockReference
  2
_Dot
 10
6230.917408871627
 20
-201.4721209866693
 30
0.0
  0
INSERT
  5
5B47A
330
58218
100
AcDbEntity
  8
AM_5
100
AcDbBlockReference
  2
_Dot
 10
6198.416783871627
 20
-201.4721209866693
 30
0.0
 50
180.0
  0
MTEXT
  5
5B47B
330
58218
100
AcDbEntity
  8
AM_5
 62
     2
100
AcDbMText
 10
6215.416783871627
 20
-198.8721209866693
 30
0.0
 40
3.200000000000001
 41
0.0
 71
     5
 72
     1
  1
（O）
 73
     1
 44
1.0
1001
ACAD
1000
MTEXTBEGIN
1070
    73
1070
     1
1070
    44
1040
1.0
1070
    74
1070
     0
1000
MTEXTEND
  0
POINT
  5
5B47C
330
58218
100
AcDbEntity
  8
Defpoints
 62
     0
100
AcDbPoint
 10
6230.917408871627
 20
-172.5721209866692
 30
0.0
  0
POINT
  5
5B47D
330
58218
100
AcDbEntity
  8
Defpoints
 62
     0
100
AcDbPoint
 10
6198.416783871627
 20
-178.5721209866692
 30
0.0
  0
POINT
  5
5B47E
330
58218
100
AcDbEntity
  8
Defpoints
 62
     0
100
AcDbPoint
 10
6198.416783871627
 20
-201.4721209866693
 30
0.0
  0
ENDBLK
  5
58223
330
58218
100
AcDbEntity
  8
0
100
AcDbBlockEnd
  0
BLOCK
  5
5822E
330
58224
100
AcDbEntity
  8
0
100
AcDbBlockBegin
  2
*D20
 70
     1
 10
0.0
 20
0.0
 30
0.0
  3
*D20
  1

  0
LINE
  5
5B488
330
58224
100
AcDbEntity
  8
AM_5
100
AcDbLine
 10
6192.416783871626
 20
-174.9721209866693
 30
0.0
 11
6183.416783871627
 21
-174.9721209866693
 31
0.0
  0
LINE
  5
5B489
330
58224
100
AcDbEntity
  8
AM_5
100
AcDbLine
 10
6192.416783871626
 20
-162.9721209866693
 30
0.0
 11
6183.416783871627
 21
-162.9721209866693
 31
0.0
  0
LINE
  5
5B48A
330
58224
100
AcDbEntity
  8
AM_5
100
AcDbLine
 10
6184.416783871626
 20
-173.9721209866693
 30
0.0
 11
6184.416783871626
 21
-163.9721209866693
 31
0.0
  0
INSERT
  5
5B48B
330
58224
100
AcDbEntity
  8
AM_5
100
AcDbBlockReference
  2
_Dot
 10
6184.416783871626
 20
-174.9721209866693
 30
0.0
 50
270.0
  0
INSERT
  5
5B48C
330
58224
100
AcDbEntity
  8
AM_5
100
AcDbBlockReference
  2
_Dot
 10
6184.416783871626
 20
-162.9721209866693
 30
0.0
 50
90.0
  0
MTEXT
  5
5B48D
330
58224
100
AcDbEntity
  8
AM_5
 62
     2
100
AcDbMText
 10
6181.664402919246
 20
-168.9721209866684
 30
0.0
 40
3.200000000000001
 41
0.0
 71
     5
 72
     1
  1
Q
 11
0.0000000000000001
 21
1.0
 31
0.0
 73
     1
 44
1.0
1001
ACAD
1000
MTEXTBEGIN
1070
    73
1070
     1
1070
    44
1040
1.0
1070
    74
1070
     0
1000
MTEXTEND
  0
POINT
  5
5B48E
330
58224
100
AcDbEntity
  8
Defpoints
 62
     0
100
AcDbPoint
 10
6193.416783871627
 20
-174.9721209866693
 30
0.0
  0
POINT
  5
5B48F
330
58224
100
AcDbEntity
  8
Defpoints
 62
     0
100
AcDbPoint
 10
6193.416783871627
 20
-162.9721209866693
 30
0.0
  0
POINT
  5
5B490
330
58224
100
AcDbEntity
  8
Defpoints
 62
     0
100
AcDbPoint
 10
6184.416783871626
 20
-162.9721209866693
 30
0.0
  0
ENDBLK
  5
5822F
330
58224
100
AcDbEntity
  8
0
100
AcDbBlockEnd
  0
BLOCK
  5
5823A
330
58230
100
AcDbEntity
  8
0
100
AcDbBlockBegin
  2
*D21
 70
     1
 10
0.0
 20
0.0
 30
0.0
  3
*D21
  1

  0
LINE
  5
5B464
330
58230
100
AcDbEntity
  8
AM_5
100
AcDbLine
 10
6168.24618041068
 20
-183.2440809295299
 30
0.0
 11
6189.427513744017
 21
-183.2440809295299
 31
0.0
  0
LINE
  5
5B465
330
58230
100
AcDbEntity
  8
AM_5
100
AcDbLine
 10
6189.427513744017
 20
-183.2440809295299
 30
0.0
 11
6195.473358641995
 21
-177.6806718755278
 31
0.0
  0
LINE
  5
5B466
330
58230
100
AcDbEntity
  8
AM_5
100
AcDbLine
 10
6201.360209101262
 20
-172.2635700978094
 30
0.0
 11
6202.096065408671
 21
-171.5864323755941
 31
0.0
  0
MTEXT
  5
5B467
330
58230
100
AcDbEntity
  8
AM_5
 62
     2
100
AcDbMText
 10
6178.336847077346
 20
-180.6440809295303
 30
0.0
 40
3.2
 41
0.0
 71
     5
 72
     1
  1
2-%%cR×%%cSサラ
 73
     1
 44
1.0
1001
ACAD
1000
MTEXTBEGIN
1070
    73
1070
     1
1070
    44
1040
1.0
1070
    74
1070
     0
1000
MTEXTEND
  0
LINE
  5
5B468
330
58230
100
AcDbEntity
  8
AM_5
100
AcDbLine
 10
6200.624352793853
 20
-172.9407078200243
 30
0.0
 11
6196.209214949404
 21
-177.0035341533125
 31
0.0
  0
INSERT
  5
5B469
330
58230
100
AcDbEntity
  8
AM_5
100
AcDbBlockReference
  2
_Dot
 10
6200.624352793853
 20
-172.9407078200243
 30
0.0
 50
222.6203774321672
  0
INSERT
  5
5B46A
330
58230
100
AcDbEntity
  8
AM_5
100
AcDbBlockReference
  2
_Dot
 10
6196.209214949404
 20
-177.0035341533125
 30
0.0
 50
42.62037743216727
  0
POINT
  5
5B46B
330
58230
100
AcDbEntity
  8
Defpoints
 62
     0
100
AcDbPoint
 10
6196.209214949404
 20
-177.0035341533125
 30
0.0
  0
POINT
  5
5B46C
330
58230
100
AcDbEntity
  8
Defpoints
 62
     0
100
AcDbPoint
 10
6200.624352793853
 20
-172.9407078200243
 30
0.0
  0
ENDBLK
  5
5823B
330
58230
100
AcDbEntity
  8
0
100
AcDbBlockEnd
  0
BLOCK
  5
58246
330
5823C
100
AcDbEntity
  8
0
100
AcDbBlockBegin
  2
*D22
 70
     1
 10
0.0
 20
0.0
 30
0.0
  3
*D22
  1

  0
LINE
  5
5B449
330
5823C
100
AcDbEntity
  8
AM_5
100
AcDbLine
 10
6294.482125259805
 20
-176.3663836610499
 30
0.0
 11
6272.76745859314
 21
-176.3663836610494
 31
0.0
  0
LINE
  5
5B44A
330
5823C
100
AcDbEntity
  8
AM_5
100
AcDbLine
 10
6272.76745859314
 20
-176.3663836610494
 30
0.0
 11
6267.829101499194
 21
-171.7147558589386
 31
0.0
  0
LINE
  5
5B44B
330
5823C
100
AcDbEntity
  8
AM_5
100
AcDbLine
 10
6262.005716244066
 20
-166.2294861143991
 30
0.0
 11
6261.277793087175
 21
-165.5438273963313
 31
0.0
  0
MTEXT
  5
5B44C
330
5823C
100
AcDbEntity
  8
AM_5
 62
     2
100
AcDbMText
 10
6284.124791926473
 20
-173.7663836610494
 30
0.0
 40
3.2
 41
0.0
 71
     5
 72
     1
  1
2-%%cM×%%cNサラ
 73
     1
 44
1.0
1001
ACAD
1000
MTEXTBEGIN
1070
    73
1070
     1
1070
    44
1040
1.0
1070
    74
1070
     0
1000
MTEXTEND
  0
LINE
  5
5B44D
330
5823C
100
AcDbEntity
  8
AM_5
100
AcDbLine
 10
6262.733639400957
 20
-166.9151448324664
 30
0.0
 11
6267.101178342302
 21
-171.0290971408712
 31
0.0
  0
INSERT
  5
5B44E
330
5823C
100
AcDbEntity
  8
AM_5
100
AcDbBlockReference
  2
_Dot
 10
6262.733639400957
 20
-166.9151448324664
 30
0.0
 50
316.7125663658292
  0
INSERT
  5
5B44F
330
5823C
100
AcDbEntity
  8
AM_5
100
AcDbBlockReference
  2
_Dot
 10
6267.101178342302
 20
-171.0290971408712
 30
0.0
 50
136.7125663658291
  0
POINT
  5
5B450
330
5823C
100
AcDbEntity
  8
Defpoints
 62
     0
100
AcDbPoint
 10
6267.101178342302
 20
-171.0290971408712
 30
0.0
  0
POINT
  5
5B451
330
5823C
100
AcDbEntity
  8
Defpoints
 62
     0
100
AcDbPoint
 10
6262.733639400957
 20
-166.9151448324664
 30
0.0
  0
ENDBLK
  5
58247
330
5823C
100
AcDbEntity
  8
0
100
AcDbBlockEnd
  0
BLOCK
  5
5B65A
330
5B64E
100
AcDbEntity
  8
0
100
AcDbBlockBegin
  2
*D24
 70
     1
 10
0.0
 20
0.0
 30
0.0
  3
*D24
  1

  0
LINE
  5
5B688
330
5B64E
100
AcDbEntity
  8
AM_5
100
AcDbLine
 10
6216.469283969423
 20
-107.3677990710081
 30
0.0
 11
6212.774616990429
 21
-106.7092044979605
 31
0.0
  0
LINE
  5
5B689
330
5B64E
100
AcDbEntity
  8
AM_5
100
AcDbLine
 10
6216.99575151122
 20
-104.4143549920666
 30
0.0
 11
6213.301084532226
 21
-103.755760419019
 31
0.0
  0
LINE
  5
5B68A
330
5B64E
100
AcDbEntity
  8
AM_5
100
AcDbLine
 10
6214.461055072474
 20
-102.9467682399709
 30
0.0
 11
6214.636544253072
 21
-101.9622868803238
 31
0.0
  0
LINE
  5
5B68B
330
5B64E
100
AcDbEntity
  8
AM_5
100
AcDbLine
 10
6213.583609169478
 20
-107.8691750382066
 30
0.0
 11
6212.439419711971
 21
-114.2879935031058
 31
0.0
  0
LINE
  5
5B68C
330
5B64E
100
AcDbEntity
  8
AM_5
100
AcDbLine
 10
6214.285565891874
 20
-103.931249599618
 30
0.0
 11
6213.759098350077
 21
-106.8846936785595
 31
0.0
  0
INSERT
  5
5B68D
330
5B64E
100
AcDbEntity
  8
AM_5
100
AcDbBlockReference
  2
_Dot
 10
6214.285565891874
 20
-103.931249599618
 30
0.0
 50
259.8928733554848
  0
INSERT
  5
5B68E
330
5B64E
100
AcDbEntity
  8
AM_5
100
AcDbBlockReference
  2
_Dot
 10
6213.759098350077
 20
-106.8846936785595
 30
0.0
 50
79.89287335548478
  0
MTEXT
  5
5B68F
330
5B64E
100
AcDbEntity
  8
AM_5
 62
     2
100
AcDbMText
 10
6210.364118315341
 20
-111.1145530809228
 30
0.0
 40
3.200000000000001
 41
0.0
 71
     5
 72
     1
  1
%%c3
 11
0.1754891805991703
 21
0.9844813596471148
 31
0.0
 73
     1
 44
1.0
1001
ACAD
1000
MTEXTBEGIN
1070
    73
1070
     1
1070
    44
1040
1.0
1070
    74
1070
     0
1000
MTEXTEND
  0
POINT
  5
5B690
330
5B64E
100
AcDbEntity
  8
Defpoints
 62
     0
100
AcDbPoint
 10
6217.453765329069
 20
-107.5432882516073
 30
0.0
  0
POINT
  5
5B691
330
5B64E
100
AcDbEntity
  8
Defpoints
 62
     0
100
AcDbPoint
 10
6217.980232870867
 20
-104.5898441726658
 30
0.0
  0
POINT
  5
5B692
330
5B64E
100
AcDbEntity
  8
Defpoints
 62
     0
100
AcDbPoint
 10
6214.285565891874
 20
-103.931249599618
 30
0.0
  0
ENDBLK
  5
5B65B
330
5B64E
100
AcDbEntity
  8
0
100
AcDbBlockEnd
  0
ENDSEC
  0
SECTION
  2
ENTITIES
  0
TEXT
  5
31B30
330
1F
100
AcDbEntity
  8
AM_6
 60
     1
100
AcDbText
 10
3408.785415022811
 20
1879.970675238635
 30
0.0
 40
2.5
  1
!GENTITLE-INSERT
100
AcDbText
  0
TEXT
  5
31B31
330
1F
100
AcDbEntity
  8
AM_6
 60
     1
100
AcDbText
 10
3000.285415022811
 20
1871.470675238635
 30
0.0
 40
2.5
  1
!GENTITLE-LL
100
AcDbText
  0
TEXT
  5
31B32
330
1F
100
AcDbEntity
  8
AM_6
 60
     1
100
AcDbText
 10
3420.285415022811
 20
2168.470675238635
 30
0.0
 40
2.5
  1
!GENTITLE-RU
100
AcDbText
  0
TEXT
  5
31B33
330
1F
100
AcDbEntity
  8
AM_6
 60
     1
100
AcDbText
 10
3420.285415022811
 20
2168.470675238635
 30
0.0
 40
2.5
  1
!GENTITLE-MAX
100
AcDbText
  0
TEXT
  5
31B3B
330
1F
100
AcDbEntity
  8
AM_6
 60
     1
100
AcDbText
 10
3000.285415022811
 20
1871.470675238635
 30
0.0
 40
2.5
  1
!GENTITLE-LL
100
AcDbText
  0
TEXT
  5
31B3C
330
1F
100
AcDbEntity
  8
AM_6
 60
     1
100
AcDbText
 10
3408.785415022811
 20
2159.970675238636
 30
0.0
 40
2.5
  1
!GENTITLE-RU
100
AcDbText
  0
TEXT
  5
31B3D
330
1F
100
AcDbEntity
  8
AM_6
 60
     1
100
AcDbText
 10
3420.285415022811
 20
2168.470675238635
 30
0.0
 40
2.5
  1
!GENTITLE-MAX
100
AcDbText
  0
TEXT
  5
31B3E
330
1F
100
AcDbEntity
  8
AM_6
 60
     1
100
AcDbText
 10
3408.785415022811
 20
1879.970675238635
 30
0.0
 40
2.5
  1
!GENTITLE-INSERT
100
AcDbText
  0
TEXT
  5
32D1D
330
1F
100
AcDbEntity
  8
AM_6
 60
     1
100
AcDbText
 10
3234.949399973154
 20
1839.277532086519
 30
0.0
 40
2.5
  1
!GENTITLE-INSERT
100
AcDbText
  0
TEXT
  5
32D1E
330
1F
100
AcDbEntity
  8
AM_6
 60
     1
100
AcDbText
 10
3246.449399973154
 20
2040.77753208652
 30
0.0
 40
2.5
  1
!GENTITLE-MAX
100
AcDbText
  0
TEXT
  5
32D1F
330
1F
100
AcDbEntity
  8
AM_6
 60
     1
100
AcDbText
 10
3246.449399973154
 20
2040.77753208652
 30
0.0
 40
2.5
  1
!GENTITLE-RU
100
AcDbText
  0
TEXT
  5
32D21
330
1F
100
AcDbEntity
  8
AM_6
 60
     1
100
AcDbText
 10
2949.449399973154
 20
1830.777532086519
 30
0.0
 40
2.5
  1
!GENTITLE-LL
100
AcDbText
  0
TEXT
  5
34534
330
1F
100
AcDbEntity
  8
AM_6
 60
     1
100
AcDbText
 10
3774.506320898737
 20
958.0958490755065
 30
0.0
 40
2.5
  1
!GENTITLE-INSERT
100
AcDbText
  0
TEXT
  5
34535
330
1F
100
AcDbEntity
  8
AM_6
 60
     1
100
AcDbText
 10
3786.006320898738
 20
1159.595849075506
 30
0.0
 40
2.5
  1
!GENTITLE-MAX
100
AcDbText
  0
TEXT
  5
34536
330
1F
100
AcDbEntity
  8
AM_6
 60
     1
100
AcDbText
 10
3786.006320898738
 20
1159.595849075506
 30
0.0
 40
2.5
  1
!GENTITLE-RU
100
AcDbText
  0
TEXT
  5
34538
330
1F
100
AcDbEntity
  8
AM_6
 60
     1
100
AcDbText
 10
3489.006320898738
 20
949.5958490755064
 30
0.0
 40
2.5
  1
!GENTITLE-LL
100
AcDbText
  0
TEXT
  5
4E0E8
330
1F
100
AcDbEntity
  8
AM_6
 60
     1
100
AcDbText
 10
5957.394900433246
 20
-5651.939004350452
 30
0.0
 40
2.5
  1
!GENTITLE-INSERT
100
AcDbText
  0
TEXT
  5
4E0E9
330
1F
100
AcDbEntity
  8
AM_6
 60
     1
100
AcDbText
 10
5548.894900433246
 20
-5660.439004350451
 30
0.0
 40
2.5
  1
!GENTITLE-LL
100
AcDbText
  0
TEXT
  5
4E0EA
330
1F
100
AcDbEntity
  8
AM_6
 60
     1
100
AcDbText
 10
5968.894900433246
 20
-5363.439004350452
 30
0.0
 40
2.5
  1
!GENTITLE-RU
100
AcDbText
  0
TEXT
  5
4E0EB
330
1F
100
AcDbEntity
  8
AM_6
 60
     1
100
AcDbText
 10
5968.894900433246
 20
-5363.439004350452
 30
0.0
 40
2.5
  1
!GENTITLE-MAX
100
AcDbText
  0
TEXT
  5
4E0F3
330
1F
100
AcDbEntity
  8
AM_6
 60
     1
100
AcDbText
 10
5548.894900433246
 20
-5660.439004350451
 30
0.0
 40
2.5
  1
!GENTITLE-LL
100
AcDbText
  0
TEXT
  5
4E0F4
330
1F
100
AcDbEntity
  8
AM_6
 60
     1
100
AcDbText
 10
5957.394900433246
 20
-5371.939004350451
 30
0.0
 40
2.5
  1
!GENTITLE-RU
100
AcDbText
  0
TEXT
  5
4E0F5
330
1F
100
AcDbEntity
  8
AM_6
 60
     1
100
AcDbText
 10
5968.894900433246
 20
-5363.439004350452
 30
0.0
 40
2.5
  1
!GENTITLE-MAX
100
AcDbText
  0
TEXT
  5
4E0F6
330
1F
100
AcDbEntity
  8
AM_6
 60
     1
100
AcDbText
 10
5957.394900433246
 20
-5651.939004350452
 30
0.0
 40
2.5
  1
!GENTITLE-INSERT
100
AcDbText
  0
TEXT
  5
5183F
330
1F
100
AcDbEntity
  8
AM_6
 60
     1
100
AcDbText
 10
5973.602012689372
 20
109.7385382224183
 30
0.0
 40
2.5
  1
!GENTITLE-INSERT
100
AcDbText
  0
TEXT
  5
51840
330
1F
100
AcDbEntity
  8
AM_6
 60
     1
100
AcDbText
 10
5565.102012689372
 20
101.2385382224183
 30
0.0
 40
2.5
  1
!GENTITLE-LL
100
AcDbText
  0
TEXT
  5
51841
330
1F
100
AcDbEntity
  8
AM_6
 60
     1
100
AcDbText
 10
5985.102012689372
 20
398.2385382224184
 30
0.0
 40
2.5
  1
!GENTITLE-RU
100
AcDbText
  0
TEXT
  5
51842
330
1F
100
AcDbEntity
  8
AM_6
 60
     1
100
AcDbText
 10
5985.102012689372
 20
398.2385382224184
 30
0.0
 40
2.5
  1
!GENTITLE-MAX
100
AcDbText
  0
TEXT
  5
5184A
330
1F
100
AcDbEntity
  8
AM_6
 60
     1
100
AcDbText
 10
5565.102012689372
 20
101.2385382224183
 30
0.0
 40
2.5
  1
!GENTITLE-LL
100
AcDbText
  0
TEXT
  5
5184B
330
1F
100
AcDbEntity
  8
AM_6
 60
     1
100
AcDbText
 10
5973.602012689372
 20
389.7385382224184
 30
0.0
 40
2.5
  1
!GENTITLE-RU
100
AcDbText
  0
TEXT
  5
5184C
330
1F
100
AcDbEntity
  8
AM_6
 60
     1
100
AcDbText
 10
5985.102012689372
 20
398.2385382224184
 30
0.0
 40
2.5
  1
!GENTITLE-MAX
100
AcDbText
  0
TEXT
  5
5184D
330
1F
100
AcDbEntity
  8
AM_6
 60
     1
100
AcDbText
 10
5973.602012689372
 20
109.7385382224183
 30
0.0
 40
2.5
  1
!GENTITLE-INSERT
100
AcDbText
  0
LINE
  5
5802A
330
1F
100
AcDbEntity
  8
AM_0
  6
中線
 48
0.5
370
    30
100
AcDbLine
 10
6258.883569871627
 20
-157.9721209866693
 30
0.0
 11
6258.883569871627
 21
-159.4721209866693
 31
0.0
  0
LINE
  5
5802B
330
1F
100
AcDbEntity
  8
AM_0
  6
中線
 48
0.5
370
    30
100
AcDbLine
 10
6258.883569871627
 20
-178.4721209866693
 30
0.0
 11
6258.883569871627
 21
-179.9721209866693
 31
0.0
  0
LINE
  5
5802C
330
1F
100
AcDbEntity
  8
AM_0
  6
中線
 48
0.5
370
    30
100
AcDbLine
 10
6218.917408871627
 20
-161.4721209866693
 30
0.0
 11
6217.535176871628
 21
-161.4721209866693
 31
0.0
  0
LINE
  5
5802D
330
1F
100
AcDbEntity
  8
AM_0
  6
中線
 48
0.5
370
    30
100
AcDbLine
 10
6225.917408871627
 20
-135.4570966981039
 30
0.0
 11
6225.917408871627
 21
-138.1146109683945
 31
0.0
  0
ARC
  5
5802E
330
1F
100
AcDbEntity
  8
AM_0
  6
中線
 48
0.5
370
    30
100
AcDbCircle
 10
6259.035176871627
 20
-168.9721209866693
 30
0.0
 40
10.5
100
AcDbArc
 50
269.1726911338327
 51
90.82730886616738
  0
ARC
  5
5802F
330
1F
100
AcDbEntity
  8
AM_0
  6
中線
 48
0.5
370
    30
100
AcDbCircle
 10
6227.917408871627
 20
-161.4721209866693
 30
0.0
 40
1.0
100
AcDbArc
 50
270.0
 51
0.0
  0
LINE
  5
58030
330
1F
100
AcDbEntity
  8
AM_7
  6
中心線1
 48
0.5
370
    13
100
AcDbLine
 10
6189.416783871627
 20
-168.9721209866693
 30
0.0
 11
6272.535176871627
 21
-168.9721209866693
 31
0.0
  0
LINE
  5
58031
330
1F
100
AcDbEntity
  8
AM_0
  6
中線
 48
0.5
370
    30
100
AcDbLine
 10
6217.535176871628
 20
-161.4721209866693
 30
0.0
 11
6217.535176871628
 21
-174.9721209866693
 31
0.0
  0
LINE
  5
58032
330
1F
100
AcDbEntity
  8
AM_0
  6
中線
 48
0.5
370
    30
100
AcDbLine
 10
6217.535176871628
 20
-174.9721209866693
 30
0.0
 11
6218.917408871627
 21
-174.9721209866693
 31
0.0
  0
ARC
  5
58033
330
1F
100
AcDbEntity
  8
AM_0
  6
中線
 48
0.5
370
    30
100
AcDbCircle
 10
6226.917408871628
 20
-161.4721209866693
 30
0.0
 40
1.0
100
AcDbArc
 50
180.0
 51
270.0
  0
LINE
  5
58034
330
1F
100
AcDbEntity
  8
AM_0
  6
中線
 48
0.5
370
    30
100
AcDbLine
 10
6217.917408871628
 20
-179.9721209866693
 30
0.0
 11
6258.883569871627
 21
-179.9721209866693
 31
0.0
  0
LINE
  5
58035
330
1F
100
AcDbEntity
  8
AM_0
  6
中線
 48
0.5
370
    30
100
AcDbLine
 10
6258.883569871627
 20
-157.9721209866693
 30
0.0
 11
6217.917408871628
 21
-157.9721209866693
 31
0.0
  0
ARC
  5
58036
330
1F
100
AcDbEntity
  8
AM_0
  6
中線
 48
0.5
370
    30
100
AcDbCircle
 10
6226.917408871628
 20
-176.4721209866693
 30
0.0
 40
1.0
100
AcDbArc
 50
90.0
 51
180.0
  0
ARC
  5
58037
330
1F
100
AcDbEntity
  8
AM_0
  6
中線
 48
0.5
370
    30
100
AcDbCircle
 10
6227.917408871627
 20
-176.4721209866693
 30
0.0
 40
1.0
100
AcDbArc
 50
0.0
 51
90.0
  0
CIRCLE
  5
58039
330
1F
100
AcDbEntity
  8
AM_0
  6
中線
 48
0.5
370
    30
100
AcDbCircle
 10
6264.917408871627
 20
-168.9721209866693
 30
0.0
 40
1.6
  0
LINE
  5
5803A
330
1F
100
AcDbEntity
  8
AM_0
  6
中線
 48
0.5
370
    30
100
AcDbLine
 10
6223.917408871628
 20
-178.2221209866693
 30
0.0
 11
6223.917408871628
 21
-178.4721209866693
 31
0.0
  0
LINE
  5
5803B
330
1F
100
AcDbEntity
  8
AM_0
  6
中線
 48
0.5
370
    30
100
AcDbLine
 10
6223.917408871628
 20
-159.4721209866693
 30
0.0
 11
6223.917408871628
 21
-159.7221209866693
 31
0.0
  0
LINE
  5
5803C
330
1F
100
AcDbEntity
  8
AM_7
  6
中心線1
 48
0.3
370
    13
100
AcDbLine
 10
6264.917408871627
 20
-133.6146109683945
 30
0.0
 11
6264.917408871627
 21
-141.1146109683945
 31
0.0
  0
LINE
  5
5803D
330
1F
100
AcDbEntity
  8
AM_7
  6
中心線1
 48
0.3
370
    13
100
AcDbLine
 10
6230.917408871627
 20
-165.3721209866694
 30
0.0
 11
6230.917408871627
 21
-172.5721209866692
 31
0.0
  0
LINE
  5
5803F
330
1F
100
AcDbEntity
  8
AM_0
  6
中線
 48
0.5
370
    30
100
AcDbLine
 10
6225.917408871627
 20
-159.7221209866693
 30
0.0
 11
6225.917408871627
 21
-161.4721209866693
 31
0.0
  0
LINE
  5
58040
330
1F
100
AcDbEntity
  8
AM_0
  6
中線
 48
0.5
370
    30
100
AcDbLine
 10
6226.917408871628
 20
-162.4721209866693
 30
0.0
 11
6227.917408871627
 21
-162.4721209866693
 31
0.0
  0
LINE
  5
58041
330
1F
100
AcDbEntity
  8
AM_0
  6
中線
 48
0.5
370
    30
100
AcDbLine
 10
6228.917408871627
 20
-161.4721209866693
 30
0.0
 11
6228.917408871627
 21
-160.9721209866693
 31
0.0
  0
LINE
  5
58042
330
1F
100
AcDbEntity
  8
AM_0
  6
中線
 48
0.5
370
    30
100
AcDbLine
 10
6228.917408871627
 20
-160.9721209866693
 30
0.0
 11
6260.960492871627
 21
-160.9721209866693
 31
0.0
  0
LINE
  5
58043
330
1F
100
AcDbEntity
  8
AM_7
  6
中心線1
 48
0.3
370
    13
100
AcDbLine
 10
6264.917408871627
 20
-165.3721209866694
 30
0.0
 11
6264.917408871627
 21
-172.5721209866692
 31
0.0
  0
CIRCLE
  5
58044
330
1F
100
AcDbEntity
  8
AM_0
  6
中線
 48
0.5
370
    30
100
AcDbCircle
 10
6230.917408871627
 20
-168.9721209866693
 30
0.0
 40
1.6
  0
LINE
  5
58046
330
1F
100
AcDbEntity
  8
AM_0
  6
中線
 48
0.5
370
    30
100
AcDbLine
 10
6260.960492871627
 20
-176.9721209866693
 30
0.0
 11
6228.917408871627
 21
-176.9721209866693
 31
0.0
  0
LINE
  5
58047
330
1F
100
AcDbEntity
  8
AM_0
  6
中線
 48
0.5
370
    30
100
AcDbLine
 10
6228.917408871627
 20
-176.9721209866693
 30
0.0
 11
6228.917408871627
 21
-176.4721209866693
 31
0.0
  0
LINE
  5
58048
330
1F
100
AcDbEntity
  8
AM_0
  6
中線
 48
0.5
370
    30
100
AcDbLine
 10
6227.917408871627
 20
-175.4721209866693
 30
0.0
 11
6226.917408871628
 21
-175.4721209866693
 31
0.0
  0
LINE
  5
58049
330
1F
100
AcDbEntity
  8
AM_0
  6
中線
 48
0.5
370
    30
100
AcDbLine
 10
6225.917408871627
 20
-176.4721209866693
 30
0.0
 11
6225.917408871627
 21
-178.2221209866693
 31
0.0
  0
LINE
  5
5804A
330
1F
100
AcDbEntity
  8
AM_0
  6
中線
 48
0.5
370
    30
100
AcDbLine
 10
6232.921186871628
 20
-159.4721209866693
 30
0.0
 11
6232.921186871628
 21
-160.9721209866693
 31
0.0
  0
LINE
  5
5804D
330
1F
100
AcDbEntity
  8
AM_0
  6
中線
 48
0.5
370
    30
100
AcDbLine
 10
6199.203432871627
 20
-155.2957359866695
 30
0.0
 11
6204.416158871627
 21
-160.9721209866693
 31
0.0
  0
LINE
  5
5804E
330
1F
100
AcDbEntity
  8
AM_0
  6
中線
 48
0.5
370
    30
100
AcDbLine
 10
6204.416158871627
 20
-176.9721209866693
 30
0.0
 11
6199.203432871627
 21
-182.6485069866694
 31
0.0
  0
LINE
  5
5804F
330
1F
100
AcDbEntity
  8
AM_0
  6
中線
 48
0.5
370
    30
100
AcDbLine
 10
6217.917408871628
 20
-157.9721209866693
 30
0.0
 11
6217.917408871628
 21
-159.4721209866693
 31
0.0
  0
LINE
  5
58050
330
1F
100
AcDbEntity
  8
AM_0
  6
中線
 48
0.5
370
    30
100
AcDbLine
 10
6217.917408871628
 20
-159.4721209866693
 30
0.0
 11
6258.883569871627
 21
-159.4721209866693
 31
0.0
  0
LINE
  5
58051
330
1F
100
AcDbEntity
  8
AM_0
  6
中線
 48
0.5
370
    30
100
AcDbLine
 10
6258.883569871627
 20
-178.4721209866693
 30
0.0
 11
6217.917408871628
 21
-178.4721209866693
 31
0.0
  0
LINE
  5
58052
330
1F
100
AcDbEntity
  8
AM_0
  6
中線
 48
0.5
370
    30
100
AcDbLine
 10
6217.917408871628
 20
-178.4721209866693
 30
0.0
 11
6217.917408871628
 21
-179.9721209866693
 31
0.0
  0
ARC
  5
58053
330
1F
100
AcDbEntity
  8
AM_0
  6
中線
 48
0.5
370
    30
100
AcDbCircle
 10
6210.916783871627
 20
-168.9721209866693
 30
0.0
 40
19.0
100
AcDbArc
 50
133.7617420000015
 51
226.2382579999985
  0
LINE
  5
58054
330
1F
100
AcDbEntity
  8
AM_0
  6
中線
 48
0.5
370
    30
100
AcDbLine
 10
6225.917408871627
 20
-159.7221209866693
 30
0.0
 11
6218.917408871627
 21
-159.7221209866693
 31
0.0
  0
LINE
  5
58055
330
1F
100
AcDbEntity
  8
AM_0
  6
中線
 48
0.5
370
    30
100
AcDbLine
 10
6218.917408871627
 20
-159.7221209866693
 30
0.0
 11
6218.917408871627
 21
-178.2221209866693
 31
0.0
  0
ARC
  5
58056
330
1F
100
AcDbEntity
  8
AM_0
  6
中線
 48
0.5
370
    30
100
AcDbCircle
 10
6222.417408871628
 20
-130.8910579683946
 30
0.0
 40
4.5
100
AcDbArc
 50
240.6064707076075
 51
268.9610480000084
  0
LINE
  5
58057
330
1F
100
AcDbEntity
  8
AM_0
  6
中線
 48
0.5
370
    30
100
AcDbLine
 10
6218.917408871627
 20
-178.2221209866693
 30
0.0
 11
6225.917408871627
 21
-178.2221209866693
 31
0.0
  0
LINE
  5
58058
330
1F
100
AcDbEntity
  8
AM_0
  6
中線
 48
0.5
370
    30
100
AcDbLine
 10
6223.917408871628
 20
-157.9721209866693
 30
0.0
 11
6223.917408871628
 21
-157.2221209866693
 31
0.0
  0
LINE
  5
58059
330
1F
100
AcDbEntity
  8
AM_0
  6
中線
 48
0.5
370
    30
100
AcDbLine
 10
6223.917408871628
 20
-157.2221209866693
 30
0.0
 11
6220.917408871628
 21
-157.2221209866693
 31
0.0
  0
LINE
  5
5805A
330
1F
100
AcDbEntity
  8
AM_0
  6
中線
 48
0.5
370
    30
100
AcDbLine
 10
6220.917408871628
 20
-157.2221209866693
 30
0.0
 11
6220.917408871628
 21
-157.9721209866693
 31
0.0
  0
LINE
  5
5805B
330
1F
100
AcDbEntity
  8
AM_0
  6
中線
 48
0.5
370
    30
100
AcDbLine
 10
6220.917408871628
 20
-159.4721209866693
 30
0.0
 11
6220.917408871628
 21
-159.7221209866693
 31
0.0
  0
LINE
  5
5805C
330
1F
100
AcDbEntity
  8
AM_0
  6
中線
 48
0.5
370
    30
100
AcDbLine
 10
6229.921186871628
 20
-159.4721209866693
 30
0.0
 11
6229.921186871628
 21
-160.9721209866693
 31
0.0
  0
LINE
  5
5805D
330
1F
100
AcDbEntity
  8
AM_0
  6
中線
 48
0.5
370
    30
100
AcDbLine
 10
6220.917408871628
 20
-178.2221209866693
 30
0.0
 11
6220.917408871628
 21
-178.4721209866693
 31
0.0
  0
LINE
  5
5805E
330
1F
100
AcDbEntity
  8
AM_0
  6
中線
 48
0.5
370
    30
100
AcDbLine
 10
6220.917408871628
 20
-179.9721209866693
 30
0.0
 11
6220.917408871628
 21
-180.7221209866693
 31
0.0
  0
LINE
  5
5805F
330
1F
100
AcDbEntity
  8
AM_0
  6
中線
 48
0.5
370
    30
100
AcDbLine
 10
6220.917408871628
 20
-180.7221209866693
 30
0.0
 11
6223.917408871628
 21
-180.7221209866693
 31
0.0
  0
LINE
  5
58060
330
1F
100
AcDbEntity
  8
AM_0
  6
中線
 48
0.5
370
    30
100
AcDbLine
 10
6223.917408871628
 20
-180.7221209866693
 30
0.0
 11
6223.917408871628
 21
-179.9721209866693
 31
0.0
  0
CIRCLE
  5
58061
330
1F
100
AcDbEntity
  8
AM_0
  6
中線
 48
0.5
370
    30
100
AcDbCircle
 10
6198.416783871627
 20
-99.13632827354787
 30
0.0
 40
3.0
  0
CIRCLE
  5
58062
330
1F
100
AcDbEntity
  8
AM_0
  6
中線
 48
0.5
370
    30
100
AcDbCircle
 10
6198.416783871627
 20
-87.13632827354786
 30
0.0
 40
3.0
  0
CIRCLE
  5
58063
330
1F
100
AcDbEntity
  8
AM_0
  6
中線
 48
0.5
370
    30
100
AcDbCircle
 10
6198.416783871627
 20
-99.13632827354787
 30
0.0
 40
1.6
  0
CIRCLE
  5
58064
330
1F
100
AcDbEntity
  8
AM_0
  6
中線
 48
0.5
370
    30
100
AcDbCircle
 10
6198.416783871627
 20
-87.13632827354786
 30
0.0
 40
1.6
  0
ARC
  5
58065
330
1F
100
AcDbEntity
  8
AM_0
  6
中線
 48
0.5
370
    30
100
AcDbCircle
 10
6205.304393236525
 20
-100.1363282735478
 30
0.0
 40
1.0
100
AcDbArc
 50
180.0
 51
270.0
  0
ARC
  5
58066
330
1F
100
AcDbEntity
  8
AM_0
  6
中線
 48
0.5
370
    30
100
AcDbCircle
 10
6206.365054236526
 20
-100.1363282735478
 30
0.0
 40
1.0
100
AcDbArc
 50
180.0
 51
270.0
  0
ARC
  5
58067
330
1F
100
AcDbEntity
  8
AM_0
  6
中線
 48
0.5
370
    30
100
AcDbCircle
 10
6206.365054236526
 20
-86.13632827354786
 30
0.0
 40
1.0
100
AcDbArc
 50
90.0
 51
180.0
  0
ARC
  5
58068
330
1F
100
AcDbEntity
  8
AM_0
  6
中線
 48
0.5
370
    30
100
AcDbCircle
 10
6205.304393236525
 20
-86.13632827354786
 30
0.0
 40
1.0
100
AcDbArc
 50
90.0
 51
180.0
  0
LINE
  5
58069
330
1F
100
AcDbEntity
  8
AM_0
  6
中線
 48
0.5
370
    30
100
AcDbLine
 10
6205.365054236526
 20
-86.13632827354786
 30
0.0
 11
6205.365054236526
 21
-100.1363282735478
 31
0.0
  0
LINE
  5
5806A
330
1F
100
AcDbEntity
  8
AM_0
  6
中線
 48
0.5
370
    30
100
AcDbLine
 10
6209.416783871627
 20
-101.1363282735478
 30
0.0
 11
6204.416158871627
 21
-101.1363282735478
 31
0.0
  0
LINE
  5
5806B
330
1F
100
AcDbEntity
  8
AM_0
  6
中線
 48
0.5
370
    30
100
AcDbLine
 10
6209.416783871627
 20
-85.13632827354786
 30
0.0
 11
6209.416783871627
 21
-101.1363282735478
 31
0.0
  0
LINE
  5
5806C
330
1F
100
AcDbEntity
  8
AM_0
  6
中線
 48
0.5
370
    30
100
AcDbLine
 10
6204.416158871627
 20
-85.13632827354786
 30
0.0
 11
6209.416783871627
 21
-85.13632827354786
 31
0.0
  0
LINE
  5
5806D
330
1F
100
AcDbEntity
  8
AM_0
  6
中線
 48
0.5
370
    30
100
AcDbLine
 10
6204.304393236526
 20
-100.1363282735478
 30
0.0
 11
6204.304393236526
 21
-86.13632827354786
 31
0.0
  0
LINE
  5
5806E
330
1F
100
AcDbEntity
  8
AM_7
  6
中心線1
 48
0.5
370
    13
100
AcDbLine
 10
6198.416783871627
 20
-82.13632827354786
 30
0.0
 11
6198.416783871627
 21
-104.1363282735478
 31
0.0
  0
LINE
  5
5806F
330
1F
100
AcDbEntity
  8
AM_7
  6
中心線1
 48
0.5
370
    13
100
AcDbLine
 10
6193.416783871627
 20
-99.13632827354787
 30
0.0
 11
6203.416783871626
 21
-99.13632827354787
 31
0.0
  0
LINE
  5
58070
330
1F
100
AcDbEntity
  8
AM_7
  6
中心線1
 48
0.5
370
    13
100
AcDbLine
 10
6193.416783871627
 20
-87.13632827354786
 30
0.0
 11
6203.416783871626
 21
-87.13632827354786
 31
0.0
  0
LINE
  5
58071
330
1F
100
AcDbEntity
  8
AM_7
  6
中心線1
 48
0.5
370
    13
100
AcDbLine
 10
6198.416783871627
 20
-159.3721209866694
 30
0.0
 11
6198.416783871627
 21
-178.5721209866692
 31
0.0
  0
CIRCLE
  5
58072
330
1F
100
AcDbEntity
  8
AM_0
  6
中線
 48
0.5
370
    30
100
AcDbCircle
 10
6198.416783871627
 20
-162.9721209866693
 30
0.0
 40
1.6
  0
LINE
  5
58073
330
1F
100
AcDbEntity
  8
AM_0
  6
中線
 48
0.5
370
    30
100
AcDbLine
 10
6223.917408871628
 20
-104.8863282735478
 30
0.0
 11
6223.917408871628
 21
-104.1363282735478
 31
0.0
  0
LINE
  5
58074
330
1F
100
AcDbEntity
  8
AM_0
  6
中線
 48
0.5
370
    30
100
AcDbLine
 10
6220.917408871628
 20
-104.8863282735478
 30
0.0
 11
6223.917408871628
 21
-104.8863282735478
 31
0.0
  0
LINE
  5
58075
330
1F
100
AcDbEntity
  8
AM_0
  6
中線
 48
0.5
370
    30
100
AcDbLine
 10
6220.917408871628
 20
-104.1363282735478
 30
0.0
 11
6220.917408871628
 21
-104.8863282735478
 31
0.0
  0
LINE
  5
58076
330
1F
100
AcDbEntity
  8
AM_0
  6
中線
 48
0.5
370
    30
100
AcDbLine
 10
6220.917408871628
 20
-102.3863282735478
 30
0.0
 11
6220.917408871628
 21
-102.6363282735478
 31
0.0
  0
LINE
  5
58077
330
1F
100
AcDbEntity
  8
AM_0
  6
中線
 48
0.5
370
    30
100
AcDbLine
 10
6220.917408871628
 20
-99.13632827354787
 30
0.0
 11
6220.917408871628
 21
-100.8863282735478
 31
0.0
  0
LINE
  5
58078
330
1F
100
AcDbEntity
  8
AM_0
  6
中線
 48
0.5
370
    30
100
AcDbLine
 10
6220.917408871628
 20
-85.38632827354787
 30
0.0
 11
6220.917408871628
 21
-85.63632827354785
 31
0.0
  0
LINE
  5
58079
330
1F
100
AcDbEntity
  8
AM_0
  6
中線
 48
0.5
370
    30
100
AcDbLine
 10
6220.917408871628
 20
-83.63632827354786
 30
0.0
 11
6220.917408871628
 21
-83.88632827354786
 31
0.0
  0
LINE
  5
5807A
330
1F
100
AcDbEntity
  8
AM_0
  6
中線
 48
0.5
370
    30
100
AcDbLine
 10
6220.917408871628
 20
-81.38632827354786
 30
0.0
 11
6220.917408871628
 21
-82.13632827354786
 31
0.0
  0
LINE
  5
5807B
330
1F
100
AcDbEntity
  8
AM_0
  6
中線
 48
0.5
370
    30
100
AcDbLine
 10
6223.917408871628
 20
-81.38632827354786
 30
0.0
 11
6220.917408871628
 21
-81.38632827354786
 31
0.0
  0
LINE
  5
5807C
330
1F
100
AcDbEntity
  8
AM_0
  6
中線
 48
0.5
370
    30
100
AcDbLine
 10
6223.917408871628
 20
-82.13632827354786
 30
0.0
 11
6223.917408871628
 21
-81.38632827354786
 31
0.0
  0
LINE
  5
5807D
330
1F
100
AcDbEntity
  8
AM_0
  6
中線
 48
0.5
370
    30
100
AcDbLine
 10
6204.416158871627
 20
-160.9721209866693
 30
0.0
 11
6209.416783871627
 21
-160.9721209866693
 31
0.0
  0
CIRCLE
  5
5807E
330
1F
100
AcDbEntity
  8
AM_0
  6
中線
 48
0.5
370
    30
100
AcDbCircle
 10
6198.416783871627
 20
-174.9721209866693
 30
0.0
 40
1.6
  0
LINE
  5
5807F
330
1F
100
AcDbEntity
  8
AM_0
  6
中線
 48
0.5
370
    30
100
AcDbLine
 10
6209.416783871627
 20
-160.9721209866693
 30
0.0
 11
6209.416783871627
 21
-176.9721209866693
 31
0.0
  0
LINE
  5
58080
330
1F
100
AcDbEntity
  8
AM_0
  6
中線
 48
0.5
370
    30
100
AcDbLine
 10
6218.917408871627
 20
-102.3863282735478
 30
0.0
 11
6223.711970871627
 21
-102.3863282735478
 31
0.0
  0
LINE
  5
58081
330
1F
100
AcDbEntity
  8
AM_0
  6
中線
 48
0.5
370
    30
100
AcDbLine
 10
6218.917408871627
 20
-100.8863282735478
 30
0.0
 11
6218.917408871627
 21
-102.3863282735478
 31
0.0
  0
LINE
  5
58082
330
1F
100
AcDbEntity
  8
AM_0
  6
中線
 48
0.5
370
    30
100
AcDbLine
 10
6223.711970871627
 20
-100.8863282735478
 30
0.0
 11
6218.917408871627
 21
-100.8863282735478
 31
0.0
  0
LINE
  5
58083
330
1F
100
AcDbEntity
  8
AM_0
  6
中線
 48
0.5
370
    30
100
AcDbLine
 10
6218.917408871627
 20
-85.38632827354787
 30
0.0
 11
6223.711970871627
 21
-85.38632827354787
 31
0.0
  0
LINE
  5
58084
330
1F
100
AcDbEntity
  8
AM_0
  6
中線
 48
0.5
370
    30
100
AcDbLine
 10
6218.917408871627
 20
-83.88632827354786
 30
0.0
 11
6218.917408871627
 21
-85.38632827354787
 31
0.0
  0
LINE
  5
58085
330
1F
100
AcDbEntity
  8
AM_0
  6
中線
 48
0.5
370
    30
100
AcDbLine
 10
6223.711970871627
 20
-83.88632827354786
 30
0.0
 11
6218.917408871627
 21
-83.88632827354786
 31
0.0
  0
LINE
  5
58086
330
1F
100
AcDbEntity
  8
AM_0
  6
中線
 48
0.5
370
    30
100
AcDbLine
 10
6209.416783871627
 20
-176.9721209866693
 30
0.0
 11
6204.416158871627
 21
-176.9721209866693
 31
0.0
  0
ARC
  5
58087
330
1F
100
AcDbEntity
  8
AM_0
  6
中線
 48
0.5
370
    30
100
AcDbCircle
 10
6210.916783871627
 20
-93.13632827354785
 30
0.0
 40
19.0
100
AcDbArc
 50
133.7617420000015
 51
226.2382579999985
  0
LINE
  5
58088
330
1F
100
AcDbEntity
  8
AM_0
  6
中線
 48
0.5
370
    30
100
AcDbLine
 10
6217.917408871628
 20
-102.6363282735478
 30
0.0
 11
6217.917408871628
 21
-104.1363282735478
 31
0.0
  0
LINE
  5
58089
330
1F
100
AcDbEntity
  8
AM_0
  6
中線
 48
0.5
370
    30
100
AcDbLine
 10
6223.711970871627
 20
-102.6363282735478
 30
0.0
 11
6217.917408871628
 21
-102.6363282735478
 31
0.0
  0
LINE
  5
5808A
330
1F
100
AcDbEntity
  8
AM_0
  6
中線
 48
0.5
370
    30
100
AcDbLine
 10
6217.917408871628
 20
-83.63632827354786
 30
0.0
 11
6223.711970871627
 21
-83.63632827354786
 31
0.0
  0
LINE
  5
5808B
330
1F
100
AcDbEntity
  8
AM_0
  6
中線
 48
0.5
370
    30
100
AcDbLine
 10
6217.917408871628
 20
-82.13632827354786
 30
0.0
 11
6217.917408871628
 21
-83.63632827354786
 31
0.0
  0
LINE
  5
5808C
330
1F
100
AcDbEntity
  8
AM_0
  6
中線
 48
0.5
370
    30
100
AcDbLine
 10
6204.416158871627
 20
-101.1363282735478
 30
0.0
 11
6199.203432871627
 21
-106.8127142735479
 31
0.0
  0
LINE
  5
5808D
330
1F
100
AcDbEntity
  8
AM_0
  6
中線
 48
0.5
370
    30
100
AcDbLine
 10
6199.203432871627
 20
-79.4599432735481
 30
0.0
 11
6204.416158871627
 21
-85.13632827354786
 31
0.0
  0
LINE
  5
5808F
330
1F
100
AcDbEntity
  8
AM_0
  6
中線
 48
0.5
370
    30
100
AcDbLine
 10
6223.711970871627
 20
-85.63632827354785
 30
0.0
 11
6217.535176871628
 21
-85.63632827354785
 31
0.0
  0
LINE
  5
58090
330
1F
100
AcDbEntity
  8
AM_0
  6
中線
 48
0.5
370
    30
100
AcDbLine
 10
6223.711970871627
 20
-82.13632827354786
 30
0.0
 11
6223.711970871627
 21
-85.63632827354785
 31
0.0
  0
LINE
  5
58091
330
1F
100
AcDbEntity
  8
AM_0
  6
中線
 48
0.5
370
    30
100
AcDbLine
 10
6258.535176871627
 20
-82.13632827354786
 30
0.0
 11
6217.917408871628
 21
-82.13632827354786
 31
0.0
  0
LINE
  5
58093
330
1F
100
AcDbEntity
  8
AM_0
  6
中線
 48
0.5
370
    30
100
AcDbLine
 10
6217.917408871628
 20
-104.1363282735478
 30
0.0
 11
6258.535176871627
 21
-104.1363282735478
 31
0.0
  0
LINE
  5
58094
330
1F
100
AcDbEntity
  8
AM_0
  6
中線
 48
0.5
370
    30
100
AcDbLine
 10
6223.711970871627
 20
-99.13632827354787
 30
0.0
 11
6223.711970871627
 21
-104.1363282735478
 31
0.0
  0
LINE
  5
58095
330
1F
100
AcDbEntity
  8
AM_0
  6
中線
 48
0.5
370
    30
100
AcDbLine
 10
6217.535176871628
 20
-99.13632827354787
 30
0.0
 11
6223.711970871627
 21
-99.13632827354787
 31
0.0
  0
LINE
  5
58096
330
1F
100
AcDbEntity
  8
AM_0
  6
中線
 48
0.5
370
    30
100
AcDbLine
 10
6217.535176871628
 20
-85.63632827354785
 30
0.0
 11
6217.535176871628
 21
-99.13632827354787
 31
0.0
  0
LINE
  5
58097
330
1F
100
AcDbEntity
  8
AM_7
  6
中心線1
 48
0.5
370
    13
100
AcDbLine
 10
6189.416783871627
 20
-93.13632827354785
 30
0.0
 11
6272.535176871627
 21
-93.13632827354785
 31
0.0
  0
LINE
  5
58099
330
1F
100
AcDbEntity
  8
AM_0
  6
中線
 48
0.5
370
    30
100
AcDbLine
 10
6192.416783871626
 20
-138.1146109683945
 30
0.0
 11
6205.916783871627
 21
-138.1146109683944
 31
0.0
  0
LINE
  5
5809A
330
1F
100
AcDbEntity
  8
AM_0
  6
中線
 48
0.5
370
    30
100
AcDbLine
 10
6192.416783871626
 20
-136.6146109683946
 30
0.0
 11
6192.416783871626
 21
-138.1146109683945
 31
0.0
  0
LINE
  5
5809B
330
1F
100
AcDbEntity
  8
AM_0
  6
中線
 48
0.5
370
    30
100
AcDbLine
 10
6205.916783871627
 20
-136.6146109683943
 30
0.0
 11
6192.416783871626
 21
-136.6146109683946
 31
0.0
  0
LINE
  5
5809C
330
1F
100
AcDbEntity
  8
AM_0
  6
中線
 48
0.5
370
    30
100
AcDbLine
 10
6204.304393236526
 20
-130.1752709683946
 30
0.0
 11
6207.235276312657
 21
-133.104804020743
 31
0.0
  0
LINE
  5
5809D
330
1F
100
AcDbEntity
  8
AM_0
  6
中線
 48
0.5
370
    30
100
AcDbLine
 10
6205.365054236526
 20
-129.1146109683946
 30
0.0
 11
6204.304393236526
 21
-130.1752709683946
 31
0.0
  0
LINE
  5
5809E
330
1F
100
AcDbEntity
  8
AM_0
  6
中線
 48
0.5
370
    30
100
AcDbLine
 10
6205.365054236526
 20
-129.1146109683946
 30
0.0
 11
6208.390179970679
 21
-132.1397372342419
 31
0.0
  0
LINE
  5
580A3
330
1F
100
AcDbEntity
  8
AM_7
  6
中心線1
 48
0.3
370
    13
100
AcDbLine
 10
6230.917408871627
 20
-141.1146109683945
 30
0.0
 11
6230.917408871627
 21
-133.6146109683945
 31
0.0
  0
ARC
  5
580A4
330
1F
100
AcDbEntity
  8
AM_0
  6
中線
 48
0.5
370
    30
100
AcDbCircle
 10
6260.506896871627
 20
-121.1213149683947
 30
0.0
 40
13.5
100
AcDbArc
 50
261.707898000003
 51
311.9715469999948
  0
LINE
  5
580A5
330
1F
100
AcDbEntity
  8
AM_0
  6
中線
 48
0.5
370
    30
100
AcDbLine
 10
6223.711970871627
 20
-125.032379968395
 30
0.0
 11
6258.883569871627
 21
-133.0155119683948
 31
0.0
  0
LINE
  5
580A6
330
1F
100
AcDbEntity
  8
AM_0
  6
中線
 48
0.5
370
    30
100
AcDbLine
 10
6223.711970871627
 20
-125.032379968395
 30
0.0
 11
6223.388330871626
 21
-126.4970499683948
 31
0.0
  0
LINE
  5
580A7
330
1F
100
AcDbEntity
  8
AM_0
  6
中線
 48
0.5
370
    30
100
AcDbLine
 10
6217.535176126064
 20
-129.8122552337765
 30
0.0
 11
6218.023400126064
 21
-129.9201352337765
 31
0.0
  0
LINE
  5
580A8
330
1F
100
AcDbEntity
  8
AM_0
  6
中線
 48
0.5
370
    30
100
AcDbLine
 10
6217.750937126064
 20
-128.8358092337768
 30
0.0
 11
6217.535176126064
 21
-129.8122552337765
 31
0.0
  0
LINE
  5
580A9
330
1F
100
AcDbEntity
  8
AM_0
  6
中線
 48
0.5
370
    30
100
AcDbLine
 10
6257.583482871627
 20
-134.2644219683946
 30
0.0
 11
6258.559929871626
 21
-134.4801819683947
 31
0.0
  0
ARC
  5
580AA
330
1F
100
AcDbEntity
  8
AM_0
  6
中線
 48
0.5
370
    30
100
AcDbCircle
 10
6222.633168871627
 20
-129.9146109683946
 30
0.0
 40
5.0
100
AcDbArc
 50
77.53986099999501
 51
167.5398609999956
  0
ARC
  5
580AB
330
1F
100
AcDbEntity
  8
AM_0
  6
中線
 48
0.5
370
    30
100
AcDbCircle
 10
6222.417408871628
 20
-130.8910579683946
 30
0.0
 40
4.5
100
AcDbArc
 50
77.53986099999501
 51
194.6341399097521
  0
ARC
  5
580AD
330
1F
100
AcDbEntity
  8
AM_0
  6
中線
 48
0.5
370
    30
100
AcDbCircle
 10
6260.549101871626
 20
-121.1316579683946
 30
0.0
 40
12.0
100
AcDbArc
 50
262.0219129999965
 51
312.0699599999872
  0
LINE
  5
580AE
330
1F
100
AcDbEntity
  8
AM_7
  6
中心線1
 48
0.3
370
    13
100
AcDbLine
 10
6198.416783871627
 20
-133.6146109683945
 30
0.0
 11
6198.416783871627
 21
-141.1146109683945
 31
0.0
  0
LINE
  5
580AF
330
1F
100
AcDbEntity
  8
AM_0
  6
中線
 48
0.5
370
    30
100
AcDbLine
 10
6218.917408871627
 20
-138.1146109683945
 30
0.0
 11
6268.960492871627
 21
-138.1146109683945
 31
0.0
  0
LINE
  5
580B0
330
1F
100
AcDbEntity
  8
AM_0
  6
中線
 48
0.5
370
    30
100
AcDbLine
 10
6268.960492871627
 20
-136.6146109683946
 30
0.0
 11
6225.917408871627
 21
-136.6146109683946
 31
0.0
  0
LINE
  5
580B1
330
1F
100
AcDbEntity
  8
AM_0
  6
中線
 48
0.5
370
    30
100
AcDbLine
 10
6268.960492871627
 20
-138.1146109683945
 30
0.0
 11
6268.960492871627
 21
-136.6146109683946
 31
0.0
  0
LINE
  5
580B2
330
1F
100
AcDbEntity
  8
AM_0
  6
中線
 48
0.5
370
    30
100
AcDbLine
 10
6228.917408871627
 20
-136.6146109683946
 30
0.0
 11
6228.917408871627
 21
-138.1146109683945
 31
0.0
  0
LINE
  5
580B3
330
1F
100
AcDbEntity
  8
AM_0
  6
中線
 48
0.5
370
    30
100
AcDbLine
 10
6218.917408871627
 20
-138.1146109683945
 30
0.0
 11
6218.917408871627
 21
-134.9526119683946
 31
0.0
  0
LINE
  5
580B4
330
1F
100
AcDbEntity
  8
AM_0
  6
中線
 48
0.5
370
    30
100
AcDbLine
 10
6255.085652871627
 20
-136.6146109683946
 30
0.0
 11
6256.170338883823
 21
-136.0211616569279
 31
0.0
  0
LINE
  5
580B7
330
1F
100
AcDbEntity
  8
AM_0
  6
中線
 48
0.5
370
    30
100
AcDbLine
 10
6253.148170653576
 20
-135.9648134223052
 30
0.0
 11
6251.960492871627
 21
-136.6146109683946
 31
0.0
  0
ARC
  5
580B8
330
1F
100
AcDbEntity
  8
AM_0
  6
中線
 48
0.5
370
    30
100
AcDbCircle
 10
6222.417408871628
 20
-130.8910579683946
 30
0.0
 40
1.6
100
AcDbArc
 50
341.9354718725793
 51
210.5131189895551
  0
LINE
  5
580B9
330
1F
100
AcDbEntity
  8
AM_0
  6
中線
 48
0.5
370
    30
100
AcDbLine
 10
6268.589552871628
 20
-130.039583968395
 30
0.0
 11
6269.535176871627
 21
-131.1582549683947
 31
0.0
  0
LINE
  5
580BA
330
1F
100
AcDbEntity
  8
AM_0
  6
中線
 48
0.5
370
    30
100
AcDbLine
 10
6257.367722871627
 20
-135.2408679683947
 30
0.0
 11
6257.907123871627
 21
-132.7997519683948
 31
0.0
  0
LINE
  5
580BB
330
1F
100
AcDbEntity
  8
AM_0
  6
中線
 48
0.5
370
    30
100
AcDbLine
 10
6222.335813871627
 20
-135.3903179683946
 30
0.0
 11
6256.373144871627
 21
-136.0249429683948
 31
0.0
  0
ARC
  5
580BC
330
1F
100
AcDbEntity
  8
AM_0
  6
中線
 48
0.5
370
    30
100
AcDbCircle
 10
6198.466884871627
 20
-80.13632827354786
 30
0.0
 40
1.0
100
AcDbArc
 50
42.56181499999138
 51
133.7617420000015
  0
ARC
  5
580BD
330
1F
100
AcDbEntity
  8
AM_0
  6
中線
 48
0.5
370
    30
100
AcDbCircle
 10
6198.466884871627
 20
-106.1363292735482
 30
0.0
 40
1.0
100
AcDbArc
 50
226.2382579999985
 51
317.4381850000086
  0
ARC
  5
580CA
330
1F
100
AcDbEntity
  8
AM_0
  6
中線
 48
0.5
370
    30
100
AcDbCircle
 10
6231.421185871627
 20
-132.0800079683949
 30
0.0
 40
1.5
100
AcDbArc
 50
276.2242950000086
 51
96.22429500000857
  0
ARC
  5
580CB
330
1F
100
AcDbEntity
  8
AM_0
  6
中線
 48
0.5
370
    30
100
AcDbCircle
 10
6256.391276871627
 20
-135.0251079683947
 30
0.0
 40
1.0
100
AcDbArc
 50
268.9610480000084
 51
347.5398590000022
  0
ARC
  5
580CC
330
1F
100
AcDbEntity
  8
AM_0
  6
中線
 48
0.5
370
    30
100
AcDbCircle
 10
6198.466884871627
 20
-155.9721209866693
 30
0.0
 40
1.0
100
AcDbArc
 50
42.56181499999138
 51
133.7617420000015
  0
ARC
  5
580CD
330
1F
100
AcDbEntity
  8
AM_0
  6
中線
 48
0.5
370
    30
100
AcDbCircle
 10
6198.466884871627
 20
-181.9721219866692
 30
0.0
 40
1.0
100
AcDbArc
 50
226.2382579999985
 51
317.4381850000086
  0
LINE
  5
580DA
330
1F
100
AcDbEntity
  8
size
100
AcDbLine
 10
6074.924675701049
 20
-38.04960086113033
 30
0.0
 11
6371.924675701048
 21
-38.04960086113033
 31
0.0
1001
GENIUS_GENREC_14
1002
{
1000
PYDIR
1011
6074.924675701049
1021
48.95039913886967
1031
0.0
1002
}
1002
{
1000
PXDIR
1011
6494.924675701049
1021
-248.0496008611303
1031
0.0
1002
}
1002
{
1000
PORI
1011
6074.924675701049
1021
-248.0496008611303
1031
0.0
1002
}
1002
{
1000
PINS
1011
6284.924675701049
1021
-99.54960086113032
1031
0.0
1002
}
1002
{
1000
HVAL
1000
297
1002
}
1002
{
1000
H
1070
     2
1002
}
1002
{
1000
WVAL
1000
420
1002
}
1002
{
1000
W
1070
     2
1002
}
1002
{
1000
C
1070
     4
1002
}
1001
GENIUS_GENOBJ-N-REC_13
1002
{
1000
OWNER
1000
GEN
1002
}
1001
GENIUS_GENODEF_13
1002
{
1000
HIER
1070
     0
1002
}
1002
{
1000
MANEDIT
1070
     0
1002
}
1002
{
1000
NOSEL
1070
     0
1002
}
1002
{
1000
BEHIND
1070
     0
1002
}
1002
{
1000
OTHER
1070
     0
1002
}
1002
{
1000
REACTOR
1002
}
  0
LINE
  5
580DB
330
1F
100
AcDbEntity
  8
size
100
AcDbLine
 10
6371.924675701048
 20
-38.04960086113033
 30
0.0
 11
6371.924675701048
 21
-248.0496008611303
 31
0.0
1001
GENIUS_GENREC_14
1002
{
1000
PYDIR
1011
6074.924675701049
1021
48.95039913886967
1031
0.0
1002
}
1002
{
1000
PXDIR
1011
6494.924675701049
1021
-248.0496008611303
1031
0.0
1002
}
1002
{
1000
PORI
1011
6074.924675701049
1021
-248.0496008611303
1031
0.0
1002
}
1002
{
1000
PINS
1011
6284.924675701049
1021
-99.54960086113032
1031
0.0
1002
}
1002
{
1000
HVAL
1000
297
1002
}
1002
{
1000
H
1070
     2
1002
}
1002
{
1000
WVAL
1000
420
1002
}
1002
{
1000
W
1070
     2
1002
}
1002
{
1000
C
1070
     4
1002
}
1001
GENIUS_GENOBJ-N-REC_13
1002
{
1000
OWNER
1000
GEN
1002
}
1001
GENIUS_GENODEF_13
1002
{
1000
HIER
1070
     0
1002
}
1002
{
1000
MANEDIT
1070
     0
1002
}
1002
{
1000
NOSEL
1070
     0
1002
}
1002
{
1000
BEHIND
1070
     0
1002
}
1002
{
1000
OTHER
1070
     0
1002
}
1002
{
1000
REACTOR
1002
}
  0
LINE
  5
580DC
330
1F
100
AcDbEntity
  8
waku
100
AcDbLine
 10
6086.424675701049
 20
-239.5496008611303
 30
0.0
 11
6360.424675701048
 21
-239.5496008611303
 31
0.0
1001
GENIUS_GENREC_14
1002
{
1000
PYDIR
1011
6074.924675701049
1021
48.95039913886967
1031
0.0
1002
}
1002
{
1000
PXDIR
1011
6494.924675701049
1021
-248.0496008611303
1031
0.0
1002
}
1002
{
1000
PORI
1011
6074.924675701049
1021
-248.0496008611303
1031
0.0
1002
}
1002
{
1000
PINS
1011
6284.924675701049
1021
-99.54960086113032
1031
0.0
1002
}
1002
{
1000
HVAL
1000
297
1002
}
1002
{
1000
H
1070
     2
1002
}
1002
{
1000
WVAL
1000
420
1002
}
1002
{
1000
W
1070
     2
1002
}
1002
{
1000
C
1070
     4
1002
}
  0
LINE
  5
580DD
330
1F
100
AcDbEntity
  8
waku
100
AcDbLine
 10
6360.424675701048
 20
-46.54960086113033
 30
0.0
 11
6086.424675701049
 21
-46.54960086113033
 31
0.0
1001
GENIUS_GENREC_14
1002
{
1000
PYDIR
1011
5951.924675701048
1021
-38.04960086113033
1031
0.0
1002
}
1002
{
1000
PXDIR
1011
6371.924675701048
1021
-335.0496008611303
1031
0.0
1002
}
1002
{
1000
PORI
1011
5951.924675701048
1021
-335.0496008611303
1031
0.0
1002
}
1002
{
1000
PINS
1011
6161.924675701048
1021
-186.5496008611303
1031
0.0
1002
}
1002
{
1000
HVAL
1000
297
1002
}
1002
{
1000
H
1070
     2
1002
}
1002
{
1000
WVAL
1000
420
1002
}
1002
{
1000
W
1070
     2
1002
}
1002
{
1000
C
1070
     4
1002
}
1001
GENIUS_GENOBJ-N-REC_13
1002
{
1000
OWNER
1000
GEN
1002
}
1001
GENIUS_GENODEF_13
1002
{
1000
HIER
1070
     0
1002
}
1002
{
1000
MANEDIT
1070
     0
1002
}
1002
{
1000
NOSEL
1070
     0
1002
}
1002
{
1000
BEHIND
1070
     0
1002
}
1002
{
1000
OTHER
1070
     0
1002
}
1002
{
1000
REACTOR
1002
}
  0
LINE
  5
580DE
330
1F
100
AcDbEntity
  8
waku
100
AcDbLine
 10
6086.424675701049
 20
-46.54960086113033
 30
0.0
 11
6086.424675701049
 21
-239.5496008611303
 31
0.0
1001
GENIUS_GENREC_14
1002
{
1000
PYDIR
1011
6074.924675701049
1021
48.95039913886967
1031
0.0
1002
}
1002
{
1000
PXDIR
1011
6494.924675701049
1021
-248.0496008611303
1031
0.0
1002
}
1002
{
1000
PORI
1011
6074.924675701049
1021
-248.0496008611303
1031
0.0
1002
}
1002
{
1000
PINS
1011
6284.924675701049
1021
-99.54960086113032
1031
0.0
1002
}
1002
{
1000
HVAL
1000
297
1002
}
1002
{
1000
H
1070
     2
1002
}
1002
{
1000
WVAL
1000
420
1002
}
1002
{
1000
W
1070
     2
1002
}
1002
{
1000
C
1070
     4
1002
}
1001
GENIUS_GENOBJ-N-REC_13
1002
{
1000
OWNER
1000
GEN
1002
}
1001
GENIUS_GENODEF_13
1002
{
1000
HIER
1070
     0
1002
}
1002
{
1000
MANEDIT
1070
     0
1002
}
1002
{
1000
NOSEL
1070
     0
1002
}
1002
{
1000
BEHIND
1070
     0
1002
}
1002
{
1000
OTHER
1070
     0
1002
}
1002
{
1000
REACTOR
1002
}
  0
LINE
  5
580DF
330
1F
100
AcDbEntity
  8
waku
100
AcDbLine
 10
6360.424675701048
 20
-239.5496008611303
 30
0.0
 11
6360.424675701048
 21
-46.54960086113033
 31
0.0
1001
GENIUS_GENREC_14
1002
{
1000
PYDIR
1011
5951.924675701048
1021
-32.04960086113033
1031
0.0
1002
}
1002
{
1000
PXDIR
1011
6371.924675701048
1021
-329.0496008611303
1031
0.0
1002
}
1002
{
1000
PORI
1011
5951.924675701048
1021
-329.0496008611303
1031
0.0
1002
}
1002
{
1000
PINS
1011
6161.924675701048
1021
-180.5496008611303
1031
0.0
1002
}
1002
{
1000
HVAL
1000
297
1002
}
1002
{
1000
H
1070
     2
1002
}
1002
{
1000
WVAL
1000
420
1002
}
1002
{
1000
W
1070
     2
1002
}
1002
{
1000
C
1070
     4
1002
}
1001
GENIUS_GENOBJ-N-REC_13
1002
{
1000
OWNER
1000
GEN
1002
}
1001
GENIUS_GENODEF_13
1002
{
1000
HIER
1070
     0
1002
}
1002
{
1000
MANEDIT
1070
     0
1002
}
1002
{
1000
NOSEL
1070
     0
1002
}
1002
{
1000
BEHIND
1070
     0
1002
}
1002
{
1000
OTHER
1070
     0
1002
}
1002
{
1000
REACTOR
1002
}
  0
LINE
  5
580E0
330
1F
100
AcDbEntity
  8
size
100
AcDbLine
 10
6074.924675701049
 20
-38.04960086113033
 30
0.0
 11
6074.924675701049
 21
-248.0496008611303
 31
0.0
1001
GENIUS_GENREC_14
1002
{
1000
PYDIR
1011
6074.924675701049
1021
48.95039913886967
1031
0.0
1002
}
1002
{
1000
PXDIR
1011
6494.924675701049
1021
-248.0496008611303
1031
0.0
1002
}
1002
{
1000
PORI
1011
6074.924675701049
1021
-248.0496008611303
1031
0.0
1002
}
1002
{
1000
PINS
1011
6284.924675701049
1021
-99.54960086113032
1031
0.0
1002
}
1002
{
1000
HVAL
1000
297
1002
}
1002
{
1000
H
1070
     2
1002
}
1002
{
1000
WVAL
1000
420
1002
}
1002
{
1000
W
1070
     2
1002
}
1002
{
1000
C
1070
     4
1002
}
1001
GENIUS_GENOBJ-N-REC_13
1002
{
1000
OWNER
1000
GEN
1002
}
1001
GENIUS_GENODEF_13
1002
{
1000
HIER
1070
     0
1002
}
1002
{
1000
MANEDIT
1070
     0
1002
}
1002
{
1000
NOSEL
1070
     0
1002
}
1002
{
1000
BEHIND
1070
     0
1002
}
1002
{
1000
OTHER
1070
     0
1002
}
1002
{
1000
REACTOR
1002
}
  0
LINE
  5
580E1
330
1F
100
AcDbEntity
  8
size
100
AcDbLine
 10
6074.924675701049
 20
-248.0496008611303
 30
0.0
 11
6371.924675701048
 21
-248.0496008611303
 31
0.0
1001
GENIUS_GENREC_14
1002
{
1000
PYDIR
1011
6074.924675701049
1021
48.95039913886967
1031
0.0
1002
}
1002
{
1000
PXDIR
1011
6494.924675701049
1021
-248.0496008611303
1031
0.0
1002
}
1002
{
1000
PORI
1011
6074.924675701049
1021
-248.0496008611303
1031
0.0
1002
}
1002
{
1000
PINS
1011
6284.924675701049
1021
-99.54960086113032
1031
0.0
1002
}
1002
{
1000
HVAL
1000
297
1002
}
1002
{
1000
H
1070
     2
1002
}
1002
{
1000
WVAL
1000
420
1002
}
1002
{
1000
W
1070
     2
1002
}
1002
{
1000
C
1070
     4
1002
}
1001
GENIUS_GENOBJ-N-REC_13
1002
{
1000
OWNER
1000
GEN
1002
}
1001
GENIUS_GENODEF_13
1002
{
1000
HIER
1070
     0
1002
}
1002
{
1000
MANEDIT
1070
     0
1002
}
1002
{
1000
NOSEL
1070
     0
1002
}
1002
{
1000
BEHIND
1070
     0
1002
}
1002
{
1000
OTHER
1070
     0
1002
}
1002
{
1000
REACTOR
1002
}
  0
LINE
  5
580E2
330
1F
100
AcDbEntity
  8
AM_5
370
    13
100
AcDbLine
 10
6106.424675701049
 20
-46.54960086113033
 30
0.0
 11
6106.424675701049
 21
-78.54960086113033
 31
0.0
  0
LINE
  5
580E3
330
1F
100
AcDbEntity
  8
AM_5
370
    13
100
AcDbLine
 10
6086.424675701049
 20
-54.54960086113032
 30
0.0
 11
6173.424675701049
 21
-54.54960086113032
 31
0.0
  0
LINE
  5
580E4
330
1F
100
AcDbEntity
  8
AM_5
370
    13
100
AcDbLine
 10
6086.424675701049
 20
-62.54960086113033
 30
0.0
 11
6173.424675701049
 21
-62.54960086113033
 31
0.0
  0
LINE
  5
580E5
330
1F
100
AcDbEntity
  8
AM_5
370
    13
100
AcDbLine
 10
6086.424675701049
 20
-70.54960086113033
 30
0.0
 11
6173.424675701049
 21
-70.54960086113033
 31
0.0
  0
LINE
  5
580E6
330
1F
100
AcDbEntity
  8
AM_0
  6
中線
 48
0.5
370
    30
100
AcDbLine
 10
6086.424675701049
 20
-78.54960086113033
 30
0.0
 11
6173.424675701049
 21
-78.54960086113033
 31
0.0
  0
LINE
  5
580E7
330
1F
100
AcDbEntity
  8
AM_0
  6
中線
 48
0.5
370
    30
100
AcDbLine
 10
6086.424675701049
 20
-46.54960086113033
 30
0.0
 11
6086.424675701049
 21
-78.54960086113033
 31
0.0
  0
LINE
  5
580E8
330
1F
100
AcDbEntity
  8
AM_0
  6
中線
 48
0.5
370
    30
100
AcDbLine
 10
6086.424675701049
 20
-46.54960086113033
 30
0.0
 11
6173.424675701049
 21
-46.54960086113033
 31
0.0
  0
LINE
  5
580E9
330
1F
100
AcDbEntity
  8
AM_0
  6
中線
 48
0.5
370
    30
100
AcDbLine
 10
6173.424675701049
 20
-46.54960086113033
 30
0.0
 11
6173.424675701049
 21
-78.54960086113033
 31
0.0
  0
TEXT
  5
580EA
330
1F
100
AcDbEntity
  8
AM_6
100
AcDbText
 10
6092.08167570105
 20
-52.1496008611307
 30
0.0
 40
3.2
  1
品　名
 41
0.85537027
100
AcDbText
  0
TEXT
  5
580EB
330
1F
100
AcDbEntity
  8
AM_6
100
AcDbText
 10
6092.08167570105
 20
-60.14960086113069
 30
0.0
 40
3.2
  1
品　番
 41
0.85537027
100
AcDbText
  0
TEXT
  5
580EC
330
1F
100
AcDbEntity
  8
AM_6
100
AcDbText
 10
6092.08167570105
 20
-68.14960086113069
 30
0.0
 40
3.2
  1
材　質
 41
0.85537027
100
AcDbText
  0
TEXT
  5
580ED
330
1F
100
AcDbEntity
  8
AM_6
100
AcDbText
 10
6092.08167570105
 20
-76.14960086113069
 30
0.0
 40
3.2
  1
仕上げ
 41
0.85537027
100
AcDbText
  0
TEXT
  5
580EE
330
1F
100
AcDbEntity
  8
AM_6
100
AcDbText
 10
6109.281675701049
 20
-52.1496008611307
 30
0.0
 40
3.2
  1
パチン錠
 41
0.84306961
100
AcDbText
  0
TEXT
  5
580EF
330
1F
100
AcDbEntity
  8
AM_6
100
AcDbText
 10
6109.281675701049
 20
-60.14960086113069
 30
0.0
 40
3.2
  1
ELP-105
 41
0.84741102
100
AcDbText
  0
TEXT
  5
580F0
330
1F
100
AcDbEntity
  8
AM_6
100
AcDbText
 10
6109.281675701049
 20
-68.14960086113069
 30
0.0
 40
3.2
  1
黄銅
 41
0.84634979
100
AcDbText
  0
TEXT
  5
580F1
330
1F
100
AcDbEntity
  8
AM_6
100
AcDbText
 10
6109.281675701049
 20
-76.14960086113069
 30
0.0
 40
3.2
  1
クロームメッキ
 41
0.84350122
100
AcDbText
  0
DIMENSION
  5
580F2
330
1F
100
AcDbEntity
  8
AM_5
100
AcDbDimension
  2
*D7
 10
6269.535176871627
 20
-68.63632827354786
 30
0.0
 11
6243.056718871627
 21
-68.63632827354786
 31
0.0
 70
   160
  1
（A）
 71
     5
 42
52.0
  3
SYS$0
100
AcDbAlignedDimension
 13
6217.535176871628
 23
-85.63632827354785
 33
0.0
 14
6269.535176871627
 24
-93.13632827354785
 34
0.0
100
AcDbRotatedDimension
  0
DIMENSION
  5
580F3
330
1F
100
AcDbEntity
  8
AM_5
100
AcDbDimension
  2
*D8
 10
6191.916783871627
 20
-68.63632827354786
 30
0.0
 11
6200.922766921362
 21
-68.63632827354786
 31
0.0
 70
   160
  1
（D）
 71
     5
 42
17.5
  3
SYS$0
100
AcDbAlignedDimension
 13
6209.416783871627
 23
-85.13632827354786
 33
0.0
 14
6191.916783871627
 24
-93.13632827354785
 34
0.0
100
AcDbRotatedDimension
  0
DIMENSION
  5
580F4
330
1F
100
AcDbEntity
  8
AM_5
100
AcDbDimension
  2
*D9
 10
6183.916783871627
 20
-107.1363292735482
 30
0.0
 11
6183.916783871627
 21
-93.13632877354711
 31
0.0
 70
   160
  1
E
 71
     5
 42
28.00000100000034
  3
SYS$0
100
AcDbAlignedDimension
 13
6198.466884871627
 23
-79.13632827354786
 33
0.0
 14
6198.466884871627
 24
-107.1363292735482
 34
0.0
 50
90.0
100
AcDbRotatedDimension
  0
DIMENSION
  5
580F6
330
1F
100
AcDbEntity
  8
AM_5
100
AcDbDimension
  2
*D10
 10
6277.535176871627
 20
-104.1363282735478
 30
0.0
 11
6277.535176871627
 21
-93.13632827354695
 31
0.0
 70
   160
  1
C
 71
     5
 42
22.0
  3
SYS$0
100
AcDbAlignedDimension
 13
6258.535176871627
 23
-82.13632827354786
 33
0.0
 14
6258.535176871627
 24
-104.1363282735478
 34
0.0
 50
90.0
100
AcDbRotatedDimension
  0
DIMENSION
  5
580F7
330
1F
100
AcDbEntity
  8
AM_5
100
AcDbDimension
  2
*D11
 10
6285.535176871627
 20
-109.136328273548
 30
0.0
 11
6285.535176871627
 21
-93.13632827354785
 31
0.0
 70
   160
  1
（B）
 71
     5
 42
32.00000000000012
  3
SYS$0
100
AcDbAlignedDimension
 13
6226.921186871628
 23
-77.13632827354786
 33
0.0
 14
6226.921186871628
 24
-109.1363282735479
 34
0.0
 50
90.0
100
AcDbRotatedDimension
  0
DIMENSION
  5
580F8
330
1F
100
AcDbEntity
  8
AM_5
100
AcDbDimension
  2
*D12
 10
6277.535176871627
 20
-136.6146109683946
 30
0.0
 11
6277.535176871627
 21
-141.8612776350603
 31
0.0
 70
   160
  1
H
 71
     5
 42
1.5
  3
SYS$0
100
AcDbAlignedDimension
 13
6268.960492871627
 23
-138.1146109683945
 33
0.0
 14
6268.960492871627
 24
-136.6146109683946
 34
0.0
 50
90.0
100
AcDbRotatedDimension
  0
DIMENSION
  5
580F9
330
1F
100
AcDbEntity
  8
AM_5
100
AcDbDimension
  2
*D13
 10
6285.535176871627
 20
-124.9146109683946
 30
0.0
 11
6285.535176871627
 21
-131.6586730189537
 31
0.0
 70
   160
  1
（G）
 71
     5
 42
13.19999999999997
  3
SYS$0
100
AcDbAlignedDimension
 13
6268.960492871627
 23
-138.1146109683945
 33
0.0
 14
6222.633168871627
 24
-124.9146109683946
 34
0.0
 50
90.0
100
AcDbRotatedDimension
  0
DIMENSION
  5
580FA
330
1F
100
AcDbEntity
  8
AM_5
100
AcDbDimension
  2
*D14
 10
6184.416783871626
 20
-136.6146109683946
 30
0.0
 11
6184.416783871626
 21
-141.6479443017269
 31
0.0
 70
   160
  1
J
 71
     5
 42
1.5
  3
SYS$0
100
AcDbAlignedDimension
 13
6192.416783871626
 23
-138.1146109683945
 33
0.0
 14
6192.416783871626
 24
-136.6146109683946
 34
0.0
 50
90.0
100
AcDbRotatedDimension
  0
DIMENSION
  5
580FB
330
1F
100
AcDbEntity
  8
AM_5
100
AcDbDimension
  2
*D15
 10
6176.416783871626
 20
-129.1146109683946
 30
0.0
 11
6176.416783871626
 21
-133.6146109683936
 31
0.0
 70
   160
  1
I
 71
     5
 42
9.0
  3
SYS$0
100
AcDbAlignedDimension
 13
6192.416783871626
 23
-138.1146109683945
 33
0.0
 14
6205.365054236526
 24
-129.1146109683946
 34
0.0
 50
90.0
100
AcDbRotatedDimension
  0
DIMENSION
  5
580FC
330
1F
100
AcDbEntity
  8
AM_5
100
AcDbDimension
  2
*D16
 10
6209.416783871627
 20
-193.4721209866693
 30
0.0
 11
6204.282340020235
 21
-193.4721209866693
 31
0.0
 70
   160
  1
（P）
 71
     5
 42
11.0
  3
SYS$0
100
AcDbAlignedDimension
 13
6198.416783871627
 23
-178.5721209866692
 33
0.0
 14
6209.416783871627
 24
-176.9721209866693
 34
0.0
100
AcDbRotatedDimension
  0
DIMENSION
  5
580FD
330
1F
100
AcDbEntity
  8
AM_5
100
AcDbDimension
  2
*D17
 10
6230.917408871627
 20
-193.4721209866693
 30
0.0
 11
6224.249281789109
 21
-193.4721209866693
 31
0.0
 70
   160
  1
L
 71
     5
 42
13.0
  3
SYS$0
100
AcDbAlignedDimension
 13
6217.917408871628
 23
-179.9721209866693
 33
0.0
 14
6230.917408871627
 24
-172.5721209866692
 34
0.0
100
AcDbRotatedDimension
  0
DIMENSION
  5
580FE
330
1F
100
AcDbEntity
  8
AM_5
100
AcDbDimension
  2
*D18
 10
6264.917408871627
 20
-201.4721209866693
 30
0.0
 11
6248.590411449523
 21
-201.4721209866693
 31
0.0
 70
   160
  1
K
 71
     5
 42
34.0
  3
SYS$0
100
AcDbAlignedDimension
 13
6230.917408871627
 23
-172.5721209866692
 33
0.0
 14
6264.917408871627
 24
-172.5721209866692
 34
0.0
100
AcDbRotatedDimension
  0
DIMENSION
  5
580FF
330
1F
100
AcDbEntity
  8
AM_5
100
AcDbDimension
  2
*D19
 10
6198.416783871627
 20
-201.4721209866693
 30
0.0
 11
6215.416783871627
 21
-201.4721209866693
 31
0.0
 70
   160
  1
（O）
 71
     5
 42
32.50062500000058
  3
SYS$0
100
AcDbAlignedDimension
 13
6230.917408871627
 23
-172.5721209866692
 33
0.0
 14
6198.416783871627
 24
-178.5721209866692
 34
0.0
100
AcDbRotatedDimension
  0
DIMENSION
  5
58100
330
1F
100
AcDbEntity
  8
AM_5
100
AcDbDimension
  2
*D20
 10
6184.416783871626
 20
-162.9721209866693
 30
0.0
 11
6184.416783871626
 21
-168.9721209866684
 31
0.0
 70
   160
  1
Q
 71
     5
 42
12.0
  3
SYS$0
100
AcDbAlignedDimension
 13
6193.416783871627
 23
-174.9721209866693
 33
0.0
 14
6193.416783871627
 24
-162.9721209866693
 34
0.0
 50
90.0
100
AcDbRotatedDimension
  0
CIRCLE
  5
58101
330
1F
100
AcDbEntity
  8
AM_3
  6
陰線1
 48
0.5
370
    13
100
AcDbCircle
 10
6230.917408871627
 20
-168.9721209866693
 30
0.0
 40
3.0
  0
CIRCLE
  5
58102
330
1F
100
AcDbEntity
  8
AM_3
  6
陰線1
 48
0.5
370
    13
100
AcDbCircle
 10
6198.416783871627
 20
-162.9721209866693
 30
0.0
 40
3.0
  0
CIRCLE
  5
58103
330
1F
100
AcDbEntity
  8
AM_3
  6
陰線1
 48
0.5
370
    13
100
AcDbCircle
 10
6198.416783871627
 20
-174.9721209866693
 30
0.0
 40
3.0
  0
CIRCLE
  5
58104
330
1F
100
AcDbEntity
  8
AM_3
  6
陰線1
 48
0.5
370
    13
100
AcDbCircle
 10
6264.917408871627
 20
-168.9721209866693
 30
0.0
 40
3.0
  0
MTEXT
  5
58105
330
1F
100
AcDbEntity
  8
AM_6
100
AcDbMText
 10
6133.424675701049
 20
-217.6628129956688
 30
0.0
 40
3.200000000000001
 41
0.0
 71
     5
 72
     1
  1
品番
 73
     1
 44
1.0
1001
ACAD
1000
MTEXTBEGIN
1070
    73
1070
     1
1070
    44
1040
1.0
1070
    74
1070
     0
1000
MTEXTEND
  0
LINE
  5
58106
330
1F
100
AcDbEntity
  8
AM_0
100
AcDbLine
 10
6122.174675701049
 20
-220.6628129956688
 30
0.0
 11
6324.674675701047
 21
-220.662812995672
 31
0.0
  0
LINE
  5
58107
330
1F
100
AcDbEntity
  8
AM_0
100
AcDbLine
 10
6122.174675701049
 20
-214.6628129956688
 30
0.0
 11
6324.674675701047
 21
-214.6628129956729
 31
0.0
  0
LINE
  5
58108
330
1F
100
AcDbEntity
  8
AM_0
100
AcDbLine
 10
6144.674675701049
 20
-214.6628129956688
 30
0.0
 11
6144.674675701049
 21
-226.66281299567
 31
0.0
  0
LINE
  5
58109
330
1F
100
AcDbEntity
  8
AM_0
100
AcDbLine
 10
6122.174675701049
 20
-214.6628129956688
 30
0.0
 11
6122.174675701049
 21
-232.6628129956691
 31
0.0
  0
MTEXT
  5
5810A
330
1F
100
AcDbEntity
  8
AM_6
100
AcDbMText
 10
6133.145486507038
 20
-223.6628129956688
 30
0.0
 40
3.200000000000001
 41
0.0
 71
     5
 72
     1
  1
ELP-105-1
 73
     1
 44
1.0
1001
ACAD
1000
MTEXTBEGIN
1070
    73
1070
     1
1070
    44
1040
1.0
1070
    74
1070
     0
1000
MTEXTEND
  0
LINE
  5
5810C
330
1F
100
AcDbEntity
  8
AM_5
100
AcDbLine
 10
6122.174675701049
 20
-226.6628129956683
 30
0.0
 11
6324.674675701049
 21
-226.6628129956728
 31
0.0
  0
LINE
  5
5810E
330
1F
100
AcDbEntity
  8
AM_0
100
AcDbLine
 10
6154.674675701048
 20
-214.6628129956721
 30
0.0
 11
6154.674675701048
 21
-232.6628129956717
 31
0.0
  0
MTEXT
  5
5810F
330
1F
100
AcDbEntity
  8
AM_6
100
AcDbMText
 10
6149.674675701049
 20
-217.6628129956721
 30
0.0
 40
3.200000000000001
 41
0.0
 71
     5
 72
     1
  1
（A）
 73
     1
 44
1.0
1001
ACAD
1000
MTEXTBEGIN
1070
    73
1070
     1
1070
    44
1040
1.0
1070
    74
1070
     0
1000
MTEXTEND
  0
MTEXT
  5
58110
330
1F
100
AcDbEntity
  8
AM_6
100
AcDbMText
 10
6149.674675701049
 20
-223.6628129956721
 30
0.0
 40
3.200000000000001
 41
0.0
 71
     5
 72
     1
  1
40
 73
     1
 44
1.0
1001
ACAD
1000
MTEXTBEGIN
1070
    73
1070
     1
1070
    44
1040
1.0
1070
    74
1070
     0
1000
MTEXTEND
  0
LINE
  5
58111
330
1F
100
AcDbEntity
  8
AM_0
100
AcDbLine
 10
6164.674675701049
 20
-214.6628129956721
 30
0.0
 11
6164.674675701049
 21
-232.6628129956717
 31
0.0
  0
MTEXT
  5
58112
330
1F
100
AcDbEntity
  8
AM_6
100
AcDbMText
 10
6159.674675701048
 20
-217.6628129956721
 30
0.0
 40
3.200000000000001
 41
0.0
 71
     5
 72
     1
  1
（B）
 73
     1
 44
1.0
1001
ACAD
1000
MTEXTBEGIN
1070
    73
1070
     1
1070
    44
1040
1.0
1070
    74
1070
     0
1000
MTEXTEND
  0
MTEXT
  5
58113
330
1F
100
AcDbEntity
  8
AM_6
100
AcDbMText
 10
6159.674675701048
 20
-223.6628129956721
 30
0.0
 40
3.200000000000001
 41
0.0
 71
     5
 72
     1
  1
26
 73
     1
 44
1.0
1001
ACAD
1000
MTEXTBEGIN
1070
    73
1070
     1
1070
    44
1040
1.0
1070
    74
1070
     0
1000
MTEXTEND
  0
LINE
  5
58114
330
1F
100
AcDbEntity
  8
AM_0
100
AcDbLine
 10
6174.674675701049
 20
-214.6628129956721
 30
0.0
 11
6174.674675701049
 21
-232.6628129956718
 31
0.0
  0
MTEXT
  5
58115
330
1F
100
AcDbEntity
  8
AM_6
100
AcDbMText
 10
6169.674675701049
 20
-217.6628129956721
 30
0.0
 40
3.200000000000001
 41
0.0
 71
     5
 72
     1
  1
C
 73
     1
 44
1.0
1001
ACAD
1000
MTEXTBEGIN
1070
    73
1070
     1
1070
    44
1040
1.0
1070
    74
1070
     0
1000
MTEXTEND
  0
MTEXT
  5
58116
330
1F
100
AcDbEntity
  8
AM_6
100
AcDbMText
 10
6169.674675701049
 20
-223.6628129956721
 30
0.0
 40
3.200000000000001
 41
0.0
 71
     5
 72
     1
  1
16.5
 73
     1
 44
1.0
1001
ACAD
1000
MTEXTBEGIN
1070
    73
1070
     1
1070
    44
1040
1.0
1070
    74
1070
     0
1000
MTEXTEND
  0
LINE
  5
58117
330
1F
100
AcDbEntity
  8
AM_0
100
AcDbLine
 10
6184.674675701049
 20
-214.6628129956721
 30
0.0
 11
6184.674675701049
 21
-232.6628129956719
 31
0.0
  0
MTEXT
  5
58118
330
1F
100
AcDbEntity
  8
AM_6
100
AcDbMText
 10
6179.674675701049
 20
-217.6628129956721
 30
0.0
 40
3.200000000000001
 41
0.0
 71
     5
 72
     1
  1
（D）
 73
     1
 44
1.0
1001
ACAD
1000
MTEXTBEGIN
1070
    73
1070
     1
1070
    44
1040
1.0
1070
    74
1070
     0
1000
MTEXTEND
  0
MTEXT
  5
58119
330
1F
100
AcDbEntity
  8
AM_6
100
AcDbMText
 10
6179.674675701049
 20
-223.6628129956721
 30
0.0
 40
3.200000000000001
 41
0.0
 71
     5
 72
     1
  1
18
 73
     1
 44
1.0
1001
ACAD
1000
MTEXTBEGIN
1070
    73
1070
     1
1070
    44
1040
1.0
1070
    74
1070
     0
1000
MTEXTEND
  0
LINE
  5
5811A
330
1F
100
AcDbEntity
  8
AM_0
100
AcDbLine
 10
6194.674675701048
 20
-214.6628129956721
 30
0.0
 11
6194.674675701048
 21
-232.6628129956719
 31
0.0
  0
MTEXT
  5
5811B
330
1F
100
AcDbEntity
  8
AM_6
100
AcDbMText
 10
6189.674675701049
 20
-217.6628129956721
 30
0.0
 40
3.200000000000001
 41
0.0
 71
     5
 72
     1
  1
E
 73
     1
 44
1.0
1001
ACAD
1000
MTEXTBEGIN
1070
    73
1070
     1
1070
    44
1040
1.0
1070
    74
1070
     0
1000
MTEXTEND
  0
MTEXT
  5
5811C
330
1F
100
AcDbEntity
  8
AM_6
100
AcDbMText
 10
6189.674675701049
 20
-223.6628129956721
 30
0.0
 40
3.200000000000001
 41
0.0
 71
     5
 72
     1
  1
24
 73
     1
 44
1.0
1001
ACAD
1000
MTEXTBEGIN
1070
    73
1070
     1
1070
    44
1040
1.0
1070
    74
1070
     0
1000
MTEXTEND
  0
LINE
  5
5811D
330
1F
100
AcDbEntity
  8
AM_0
100
AcDbLine
 10
6204.674675701049
 20
-214.6628129956721
 30
0.0
 11
6204.674675701048
 21
-232.6628129956719
 31
0.0
  0
MTEXT
  5
5811E
330
1F
100
AcDbEntity
  8
AM_6
100
AcDbMText
 10
6199.674675701049
 20
-217.6628129956721
 30
0.0
 40
3.200000000000001
 41
0.0
 71
     5
 72
     1
  1
（G）
 73
     1
 44
1.0
1001
ACAD
1000
MTEXTBEGIN
1070
    73
1070
     1
1070
    44
1040
1.0
1070
    74
1070
     0
1000
MTEXTEND
  0
MTEXT
  5
5811F
330
1F
100
AcDbEntity
  8
AM_6
100
AcDbMText
 10
6199.674675701049
 20
-223.6628129956721
 30
0.0
 40
3.200000000000001
 41
0.0
 71
     5
 72
     1
  1
9.5
 73
     1
 44
1.0
1001
ACAD
1000
MTEXTBEGIN
1070
    73
1070
     1
1070
    44
1040
1.0
1070
    74
1070
     0
1000
MTEXTEND
  0
LINE
  5
58120
330
1F
100
AcDbEntity
  8
AM_0
100
AcDbLine
 10
6214.674675701049
 20
-214.6628129956721
 30
0.0
 11
6214.674675701049
 21
-232.662812995672
 31
0.0
  0
MTEXT
  5
58121
330
1F
100
AcDbEntity
  8
AM_6
100
AcDbMText
 10
6209.674675701048
 20
-217.6628129956721
 30
0.0
 40
3.200000000000001
 41
0.0
 71
     5
 72
     1
  1
H
 73
     1
 44
1.0
1001
ACAD
1000
MTEXTBEGIN
1070
    73
1070
     1
1070
    44
1040
1.0
1070
    74
1070
     0
1000
MTEXTEND
  0
MTEXT
  5
58122
330
1F
100
AcDbEntity
  8
AM_6
100
AcDbMText
 10
6209.674675701048
 20
-223.6628129956721
 30
0.0
 40
3.200000000000001
 41
0.0
 71
     5
 72
     1
  1
1
 73
     1
 44
1.0
1001
ACAD
1000
MTEXTBEGIN
1070
    73
1070
     1
1070
    44
1040
1.0
1070
    74
1070
     0
1000
MTEXTEND
  0
LINE
  5
58124
330
1F
100
AcDbEntity
  8
AM_0
100
AcDbLine
 10
6224.674675701049
 20
-214.6628129956721
 30
0.0
 11
6224.674675701048
 21
-232.662812995672
 31
0.0
  0
MTEXT
  5
58125
330
1F
100
AcDbEntity
  8
AM_6
100
AcDbMText
 10
6219.674675701049
 20
-217.6628129956721
 30
0.0
 40
3.200000000000001
 41
0.0
 71
     5
 72
     1
  1
I
 73
     1
 44
1.0
1001
ACAD
1000
MTEXTBEGIN
1070
    73
1070
     1
1070
    44
1040
1.0
1070
    74
1070
     0
1000
MTEXTEND
  0
MTEXT
  5
58126
330
1F
100
AcDbEntity
  8
AM_6
100
AcDbMText
 10
6219.674675701049
 20
-223.6628129956721
 30
0.0
 40
3.200000000000001
 41
0.0
 71
     5
 72
     1
  1
8.5
 73
     1
 44
1.0
1001
ACAD
1000
MTEXTBEGIN
1070
    73
1070
     1
1070
    44
1040
1.0
1070
    74
1070
     0
1000
MTEXTEND
  0
LINE
  5
58127
330
1F
100
AcDbEntity
  8
AM_0
100
AcDbLine
 10
6234.674675701048
 20
-214.6628129956721
 30
0.0
 11
6234.674675701048
 21
-232.6628129956721
 31
0.0
  0
MTEXT
  5
58128
330
1F
100
AcDbEntity
  8
AM_6
100
AcDbMText
 10
6229.674675701049
 20
-217.6628129956721
 30
0.0
 40
3.200000000000001
 41
0.0
 71
     5
 72
     1
  1
J
 73
     1
 44
1.0
1001
ACAD
1000
MTEXTBEGIN
1070
    73
1070
     1
1070
    44
1040
1.0
1070
    74
1070
     0
1000
MTEXTEND
  0
LINE
  5
58129
330
1F
100
AcDbEntity
  8
AM_0
100
AcDbLine
 10
6244.674675701048
 20
-214.6628129956721
 30
0.0
 11
6244.674675701048
 21
-232.6628129956722
 31
0.0
  0
MTEXT
  5
5812A
330
1F
100
AcDbEntity
  8
AM_6
100
AcDbMText
 10
6239.674675701049
 20
-217.6628129956721
 30
0.0
 40
3.200000000000001
 41
0.0
 71
     5
 72
     1
  1
K
 73
     1
 44
1.0
1001
ACAD
1000
MTEXTBEGIN
1070
    73
1070
     1
1070
    44
1040
1.0
1070
    74
1070
     0
1000
MTEXTEND
  0
MTEXT
  5
5812B
330
1F
100
AcDbEntity
  8
AM_6
100
AcDbMText
 10
6239.674675701049
 20
-223.6628129956721
 30
0.0
 40
3.200000000000001
 41
0.0
 71
     5
 72
     1
  1
23
 73
     1
 44
1.0
1001
ACAD
1000
MTEXTBEGIN
1070
    73
1070
     1
1070
    44
1040
1.0
1070
    74
1070
     0
1000
MTEXTEND
  0
LINE
  5
5812C
330
1F
100
AcDbEntity
  8
AM_0
100
AcDbLine
 10
6274.674675701049
 20
-214.6628129956724
 30
0.0
 11
6274.674675701048
 21
-232.6628129956725
 31
0.0
  0
MTEXT
  5
5812D
330
1F
100
AcDbEntity
  8
AM_6
100
AcDbMText
 10
6249.674675701049
 20
-217.6628129956721
 30
0.0
 40
3.200000000000001
 41
0.0
 71
     5
 72
     1
  1
L
 73
     1
 44
1.0
1001
ACAD
1000
MTEXTBEGIN
1070
    73
1070
     1
1070
    44
1040
1.0
1070
    74
1070
     0
1000
MTEXTEND
  0
MTEXT
  5
5812E
330
1F
100
AcDbEntity
  8
AM_6
100
AcDbMText
 10
6249.674675701049
 20
-223.6628129956721
 30
0.0
 40
3.200000000000001
 41
0.0
 71
     5
 72
     1
  1
11
 73
     1
 44
1.0
1001
ACAD
1000
MTEXTBEGIN
1070
    73
1070
     1
1070
    44
1040
1.0
1070
    74
1070
     0
1000
MTEXTEND
  0
MTEXT
  5
5812F
330
1F
100
AcDbEntity
  8
AM_6
100
AcDbMText
 10
6229.674675701049
 20
-223.6628129956721
 30
0.0
 40
3.200000000000001
 41
0.0
 71
     5
 72
     1
  1
1.2
 73
     1
 44
1.0
1001
ACAD
1000
MTEXTBEGIN
1070
    73
1070
     1
1070
    44
1040
1.0
1070
    74
1070
     0
1000
MTEXTEND
  0
LINE
  5
58131
330
1F
100
AcDbEntity
  8
AM_0
100
AcDbLine
 10
6144.674675701049
 20
-214.6628129956688
 30
0.0
 11
6144.674675701049
 21
-232.6628129956693
 31
0.0
  0
LINE
  5
58132
330
1F
100
AcDbEntity
  8
AM_0
100
AcDbLine
 10
6284.674675701048
 20
-214.6628129956719
 30
0.0
 11
6284.674675701047
 21
-232.6628129956725
 31
0.0
  0
MTEXT
  5
58133
330
1F
100
AcDbEntity
  8
AM_6
100
AcDbMText
 10
6279.674675701048
 20
-217.662812995672
 30
0.0
 40
3.200000000000001
 41
0.0
 71
     5
 72
     1
  1
（O）
 73
     1
 44
1.0
1001
ACAD
1000
MTEXTBEGIN
1070
    73
1070
     1
1070
    44
1040
1.0
1070
    74
1070
     0
1000
MTEXTEND
  0
MTEXT
  5
58134
330
1F
100
AcDbEntity
  8
AM_6
100
AcDbMText
 10
6279.674675701048
 20
-223.662812995672
 30
0.0
 40
3.200000000000001
 41
0.0
 71
     5
 72
     1
  1
30
 73
     1
 44
1.0
1001
ACAD
1000
MTEXTBEGIN
1070
    73
1070
     1
1070
    44
1040
1.0
1070
    74
1070
     0
1000
MTEXTEND
  0
LINE
  5
58135
330
1F
100
AcDbEntity
  8
AM_0
100
AcDbLine
 10
6294.674675701048
 20
-214.6628129956719
 30
0.0
 11
6294.674675701047
 21
-232.6628129956726
 31
0.0
  0
LINE
  5
58136
330
1F
100
AcDbEntity
  8
AM_0
100
AcDbLine
 10
6304.674675701048
 20
-214.6628129956719
 30
0.0
 11
6304.674675701048
 21
-232.6628129956727
 31
0.0
  0
MTEXT
  5
58137
330
1F
100
AcDbEntity
  8
AM_6
100
AcDbMText
 10
6289.674675701048
 20
-217.662812995672
 30
0.0
 40
3.200000000000001
 41
0.0
 71
     5
 72
     1
  1
（P）
 73
     1
 44
1.0
1001
ACAD
1000
MTEXTBEGIN
1070
    73
1070
     1
1070
    44
1040
1.0
1070
    74
1070
     0
1000
MTEXTEND
  0
MTEXT
  5
58138
330
1F
100
AcDbEntity
  8
AM_6
100
AcDbMText
 10
6289.674675701048
 20
-223.662812995672
 30
0.0
 40
3.200000000000001
 41
0.0
 71
     5
 72
     1
  1
10.5
 73
     1
 44
1.0
1001
ACAD
1000
MTEXTBEGIN
1070
    73
1070
     1
1070
    44
1040
1.0
1070
    74
1070
     0
1000
MTEXTEND
  0
MTEXT
  5
58139
330
1F
100
AcDbEntity
  8
AM_6
100
AcDbMText
 10
6299.674675701048
 20
-217.662812995672
 30
0.0
 40
3.200000000000001
 41
0.0
 71
     5
 72
     1
  1
Q
 73
     1
 44
1.0
1001
ACAD
1000
MTEXTBEGIN
1070
    73
1070
     1
1070
    44
1040
1.0
1070
    74
1070
     0
1000
MTEXTEND
  0
MTEXT
  5
5813A
330
1F
100
AcDbEntity
  8
AM_6
100
AcDbMText
 10
6299.674675701048
 20
-223.662812995672
 30
0.0
 40
3.200000000000001
 41
0.0
 71
     5
 72
     1
  1
10
 73
     1
 44
1.0
1001
ACAD
1000
MTEXTBEGIN
1070
    73
1070
     1
1070
    44
1040
1.0
1070
    74
1070
     0
1000
MTEXTEND
  0
LINE
  5
58143
330
1F
100
AcDbEntity
  8
AM_7
  6
中心線1
 48
0.5
370
    13
100
AcDbLine
 10
6193.416783871627
 20
-174.9721209866693
 30
0.0
 11
6203.416783871626
 21
-174.9721209866693
 31
0.0
  0
LINE
  5
58144
330
1F
100
AcDbEntity
  8
AM_7
  6
中心線1
 48
0.5
370
    13
100
AcDbLine
 10
6193.416783871627
 20
-162.9721209866693
 30
0.0
 11
6203.416783871626
 21
-162.9721209866693
 31
0.0
  0
DIMENSION
  5
5814B
330
1F
100
AcDbEntity
  8
AM_5
100
AcDbDimension
  2
*D21
 10
6200.624352793853
 20
-172.9407078200243
 30
0.0
 11
6178.336847077346
 21
-183.2440809295303
 31
0.0
 70
   163
  1
2-%%cR×%%cSサラ
 71
     5
 42
5.999999999996362
  3
SYS$3
100
AcDbDiametricDimension
 15
6196.209214949404
 25
-177.0035341533125
 35
0.0
 40
0.0
1001
ACAD
1000
DSTYLE
1002
{
1070
    41
1040
1.0
1070
   172
1070
     1
1070
   173
1070
     1
1070
   342
1005
0
1070
   343
1005
6C4
1070
   344
1005
6C4
1002
}
  0
DIMENSION
  5
5814C
330
1F
100
AcDbEntity
  8
AM_5
100
AcDbDimension
  2
*D22
 10
6262.733639400957
 20
-166.9151448324664
 30
0.0
 11
6284.124791926473
 21
-176.3663836610494
 31
0.0
 70
   163
  1
2-%%cM×%%cNサラ
 71
     5
 42
6.0
  3
SYS$3
100
AcDbDiametricDimension
 15
6267.101178342302
 25
-171.0290971408712
 35
0.0
 40
0.0
1001
ACAD
1000
DSTYLE
1002
{
1070
    41
1040
1.0
1070
   172
1070
     1
1070
   173
1070
     1
1070
   342
1005
0
1070
   343
1005
6C4
1070
   344
1005
6C4
1002
}
  0
LINE
  5
5814D
330
1F
100
AcDbEntity
  8
AM_0
100
AcDbLine
 10
6122.174675701049
 20
-232.6628129956692
 30
0.0
 11
6324.674675701047
 21
-232.6628129956728
 31
0.0
  0
MTEXT
  5
5814E
330
1F
100
AcDbEntity
  8
AM_6
100
AcDbMText
 10
6149.674675701049
 20
-229.6628129956729
 30
0.0
 40
3.200000000000001
 41
0.0
 71
     5
 72
     1
  1
52
 73
     1
 44
1.0
1001
ACAD
1000
MTEXTBEGIN
1070
    73
1070
     1
1070
    44
1040
1.0
1070
    74
1070
     0
1000
MTEXTEND
  0
MTEXT
  5
5814F
330
1F
100
AcDbEntity
  8
AM_6
100
AcDbMText
 10
6159.674675701048
 20
-229.6628129956729
 30
0.0
 40
3.200000000000001
 41
0.0
 71
     5
 72
     1
  1
32
 73
     1
 44
1.0
1001
ACAD
1000
MTEXTBEGIN
1070
    73
1070
     1
1070
    44
1040
1.0
1070
    74
1070
     0
1000
MTEXTEND
  0
MTEXT
  5
58150
330
1F
100
AcDbEntity
  8
AM_6
100
AcDbMText
 10
6169.674675701049
 20
-229.6628129956729
 30
0.0
 40
3.200000000000001
 41
0.0
 71
     5
 72
     1
  1
22
 73
     1
 44
1.0
1001
ACAD
1000
MTEXTBEGIN
1070
    73
1070
     1
1070
    44
1040
1.0
1070
    74
1070
     0
1000
MTEXTEND
  0
MTEXT
  5
58151
330
1F
100
AcDbEntity
  8
AM_6
100
AcDbMText
 10
6179.674675701049
 20
-229.6628129956729
 30
0.0
 40
3.200000000000001
 41
0.0
 71
     5
 72
     1
  1
17.5
 73
     1
 44
1.0
1001
ACAD
1000
MTEXTBEGIN
1070
    73
1070
     1
1070
    44
1040
1.0
1070
    74
1070
     0
1000
MTEXTEND
  0
MTEXT
  5
58152
330
1F
100
AcDbEntity
  8
AM_6
100
AcDbMText
 10
6189.674675701049
 20
-229.6628129956729
 30
0.0
 40
3.200000000000001
 41
0.0
 71
     5
 72
     1
  1
28
 73
     1
 44
1.0
1001
ACAD
1000
MTEXTBEGIN
1070
    73
1070
     1
1070
    44
1040
1.0
1070
    74
1070
     0
1000
MTEXTEND
  0
MTEXT
  5
58153
330
1F
100
AcDbEntity
  8
AM_6
100
AcDbMText
 10
6199.674675701049
 20
-229.6628129956729
 30
0.0
 40
3.200000000000001
 41
0.0
 71
     5
 72
     1
  1
13.2
 73
     1
 44
1.0
1001
ACAD
1000
MTEXTBEGIN
1070
    73
1070
     1
1070
    44
1040
1.0
1070
    74
1070
     0
1000
MTEXTEND
  0
MTEXT
  5
58154
330
1F
100
AcDbEntity
  8
AM_6
100
AcDbMText
 10
6209.674675701048
 20
-229.6628129956729
 30
0.0
 40
3.200000000000001
 41
0.0
 71
     5
 72
     1
  1
1.5
 73
     1
 44
1.0
1001
ACAD
1000
MTEXTBEGIN
1070
    73
1070
     1
1070
    44
1040
1.0
1070
    74
1070
     0
1000
MTEXTEND
  0
MTEXT
  5
58155
330
1F
100
AcDbEntity
  8
AM_6
100
AcDbMText
 10
6219.674675701049
 20
-229.6628129956729
 30
0.0
 40
3.200000000000001
 41
0.0
 71
     5
 72
     1
  1
9
 73
     1
 44
1.0
1001
ACAD
1000
MTEXTBEGIN
1070
    73
1070
     1
1070
    44
1040
1.0
1070
    74
1070
     0
1000
MTEXTEND
  0
MTEXT
  5
58156
330
1F
100
AcDbEntity
  8
AM_6
100
AcDbMText
 10
6239.674675701049
 20
-229.6628129956729
 30
0.0
 40
3.200000000000001
 41
0.0
 71
     5
 72
     1
  1
34
 73
     1
 44
1.0
1001
ACAD
1000
MTEXTBEGIN
1070
    73
1070
     1
1070
    44
1040
1.0
1070
    74
1070
     0
1000
MTEXTEND
  0
MTEXT
  5
58157
330
1F
100
AcDbEntity
  8
AM_6
100
AcDbMText
 10
6249.674675701049
 20
-229.6628129956729
 30
0.0
 40
3.200000000000001
 41
0.0
 71
     5
 72
     1
  1
13
 73
     1
 44
1.0
1001
ACAD
1000
MTEXTBEGIN
1070
    73
1070
     1
1070
    44
1040
1.0
1070
    74
1070
     0
1000
MTEXTEND
  0
MTEXT
  5
58158
330
1F
100
AcDbEntity
  8
AM_6
100
AcDbMText
 10
6229.674675701049
 20
-229.6628129956729
 30
0.0
 40
3.200000000000001
 41
0.0
 71
     5
 72
     1
  1
1.5
 73
     1
 44
1.0
1001
ACAD
1000
MTEXTBEGIN
1070
    73
1070
     1
1070
    44
1040
1.0
1070
    74
1070
     0
1000
MTEXTEND
  0
MTEXT
  5
58159
330
1F
100
AcDbEntity
  8
AM_6
100
AcDbMText
 10
6133.424675701049
 20
-229.6628129956697
 30
0.0
 40
3.200000000000001
 41
0.0
 71
     5
 72
     1
  1
ELP-105-2
 73
     1
 44
1.0
1001
ACAD
1000
MTEXTBEGIN
1070
    73
1070
     1
1070
    44
1040
1.0
1070
    74
1070
     0
1000
MTEXTEND
  0
MTEXT
  5
5815A
330
1F
100
AcDbEntity
  8
AM_6
100
AcDbMText
 10
6279.674675701048
 20
-229.6628129956728
 30
0.0
 40
3.200000000000001
 41
0.0
 71
     5
 72
     1
  1
32.5
 73
     1
 44
1.0
1001
ACAD
1000
MTEXTBEGIN
1070
    73
1070
     1
1070
    44
1040
1.0
1070
    74
1070
     0
1000
MTEXTEND
  0
MTEXT
  5
5815B
330
1F
100
AcDbEntity
  8
AM_6
100
AcDbMText
 10
6289.674675701048
 20
-229.6628129956728
 30
0.0
 40
3.200000000000001
 41
0.0
 71
     5
 72
     1
  1
11
 73
     1
 44
1.0
1001
ACAD
1000
MTEXTBEGIN
1070
    73
1070
     1
1070
    44
1040
1.0
1070
    74
1070
     0
1000
MTEXTEND
  0
MTEXT
  5
5815C
330
1F
100
AcDbEntity
  8
AM_6
100
AcDbMText
 10
6299.674675701048
 20
-229.6628129956728
 30
0.0
 40
3.200000000000001
 41
0.0
 71
     5
 72
     1
  1
12
 73
     1
 44
1.0
1001
ACAD
1000
MTEXTBEGIN
1070
    73
1070
     1
1070
    44
1040
1.0
1070
    74
1070
     0
1000
MTEXTEND
  0
ARC
  5
58170
330
1F
100
AcDbEntity
  8
AM_0
  6
中線
 48
0.5
370
    30
100
AcDbCircle
 10
6250.585652871627
 20
-168.9721209866693
 30
0.0
 40
1.5
100
AcDbArc
 50
90.0
 51
270.0
  0
LINE
  5
58171
330
1F
100
AcDbEntity
  8
AM_0
  6
中線
 48
0.5
370
    30
100
AcDbLine
 10
6255.085652871627
 20
-167.4721209866693
 30
0.0
 11
6250.585652871627
 21
-167.4721209866693
 31
0.0
  0
LINE
  5
58172
330
1F
100
AcDbEntity
  8
AM_0
  6
中線
 48
0.5
370
    30
100
AcDbLine
 10
6250.585652871627
 20
-170.4721209866693
 30
0.0
 11
6255.085652871627
 21
-170.4721209866693
 31
0.0
  0
LINE
  5
58173
330
1F
100
AcDbEntity
  8
AM_0
  6
中線
 48
0.5
370
    30
100
AcDbLine
 10
6252.585652871626
 20
-168.4721209866693
 30
0.0
 11
6252.585652871626
 21
-169.4721209866693
 31
0.0
  0
ARC
  5
58174
330
1F
100
AcDbEntity
  8
AM_0
  6
中線
 48
0.5
370
    30
100
AcDbCircle
 10
6253.585652871627
 20
-169.4721209866693
 30
0.0
 40
1.0
100
AcDbArc
 50
180.0
 51
270.0
  0
ARC
  5
58175
330
1F
100
AcDbEntity
  8
AM_0
  6
中線
 48
0.5
370
    30
100
AcDbCircle
 10
6253.585652871627
 20
-168.4721209866693
 30
0.0
 40
1.0
100
AcDbArc
 50
90.0
 51
180.0
  0
LINE
  5
597B2
330
1F
100
AcDbEntity
  8
AM_0
100
AcDbLine
 10
6254.674675701049
 20
-214.6628129956713
 30
0.0
 11
6254.674675701049
 21
-232.6628129956713
 31
0.0
  0
LINE
  5
597B3
330
1F
100
AcDbEntity
  8
AM_0
100
AcDbLine
 10
6264.674675701049
 20
-214.6628129956713
 30
0.0
 11
6264.674675701049
 21
-232.6628129956713
 31
0.0
  0
LINE
  5
597C6
330
1F
100
AcDbEntity
  8
AM_0
100
AcDbLine
 10
6314.674675701049
 20
-214.6628129956722
 30
0.0
 11
6314.674675701049
 21
-232.6628129956728
 31
0.0
  0
LINE
  5
597C7
330
1F
100
AcDbEntity
  8
AM_0
100
AcDbLine
 10
6324.674675701047
 20
-214.6628129956723
 30
0.0
 11
6324.674675701047
 21
-232.6628129956731
 31
0.0
  0
MTEXT
  5
597C8
330
1F
100
AcDbEntity
  8
AM_6
100
AcDbMText
 10
6259.674675701051
 20
-217.6628129956725
 30
0.0
 40
3.200000000000001
 41
0.0
 71
     5
 72
     1
  1
%%CM
 73
     1
 44
1.0
1001
ACAD
1000
MTEXTBEGIN
1070
    73
1070
     1
1070
    44
1040
1.0
1070
    74
1070
     0
1000
MTEXTEND
  0
MTEXT
  5
597C9
330
1F
100
AcDbEntity
  8
AM_6
100
AcDbMText
 10
6259.674675701051
 20
-223.6628129956725
 30
0.0
 40
3.200000000000001
 41
0.0
 71
     5
 72
     1
  1
3.4
 73
     1
 44
1.0
1001
ACAD
1000
MTEXTBEGIN
1070
    73
1070
     1
1070
    44
1040
1.0
1070
    74
1070
     0
1000
MTEXTEND
  0
MTEXT
  5
597CA
330
1F
100
AcDbEntity
  8
AM_6
100
AcDbMText
 10
6269.674675701051
 20
-217.6628129956725
 30
0.0
 40
3.200000000000001
 41
0.0
 71
     5
 72
     1
  1
%%CN
 73
     1
 44
1.0
1001
ACAD
1000
MTEXTBEGIN
1070
    73
1070
     1
1070
    44
1040
1.0
1070
    74
1070
     0
1000
MTEXTEND
  0
MTEXT
  5
597CB
330
1F
100
AcDbEntity
  8
AM_6
100
AcDbMText
 10
6269.674675701051
 20
-223.6628129956725
 30
0.0
 40
3.200000000000001
 41
0.0
 71
     5
 72
     1
  1
5.4
 73
     1
 44
1.0
1001
ACAD
1000
MTEXTBEGIN
1070
    73
1070
     1
1070
    44
1040
1.0
1070
    74
1070
     0
1000
MTEXTEND
  0
MTEXT
  5
597CC
330
1F
100
AcDbEntity
  8
AM_6
100
AcDbMText
 10
6269.674675701051
 20
-229.6628129956725
 30
0.0
 40
3.200000000000001
 41
0.0
 71
     5
 72
     1
  1
6
 73
     1
 44
1.0
1001
ACAD
1000
MTEXTBEGIN
1070
    73
1070
     1
1070
    44
1040
1.0
1070
    74
1070
     0
1000
MTEXTEND
  0
MTEXT
  5
597CD
330
1F
100
AcDbEntity
  8
AM_6
100
AcDbMText
 10
6309.674675701049
 20
-217.6628129956725
 30
0.0
 40
3.200000000000001
 41
0.0
 71
     5
 72
     1
  1
%%CR
 73
     1
 44
1.0
1001
ACAD
1000
MTEXTBEGIN
1070
    73
1070
     1
1070
    44
1040
1.0
1070
    74
1070
     0
1000
MTEXTEND
  0
MTEXT
  5
597CE
330
1F
100
AcDbEntity
  8
AM_6
100
AcDbMText
 10
6309.674675701049
 20
-223.6628129956725
 30
0.0
 40
3.200000000000001
 41
0.0
 71
     5
 72
     1
  1
3.4
 73
     1
 44
1.0
1001
ACAD
1000
MTEXTBEGIN
1070
    73
1070
     1
1070
    44
1040
1.0
1070
    74
1070
     0
1000
MTEXTEND
  0
MTEXT
  5
597CF
330
1F
100
AcDbEntity
  8
AM_6
100
AcDbMText
 10
6309.674675701049
 20
-229.6628129956725
 30
0.0
 40
3.200000000000001
 41
0.0
 71
     5
 72
     1
  1
3.2
 73
     1
 44
1.0
1001
ACAD
1000
MTEXTBEGIN
1070
    73
1070
     1
1070
    44
1040
1.0
1070
    74
1070
     0
1000
MTEXTEND
  0
MTEXT
  5
597D0
330
1F
100
AcDbEntity
  8
AM_6
100
AcDbMText
 10
6319.674675701048
 20
-217.6628129956725
 30
0.0
 40
3.200000000000001
 41
0.0
 71
     5
 72
     1
  1
%%CS
 73
     1
 44
1.0
1001
ACAD
1000
MTEXTBEGIN
1070
    73
1070
     1
1070
    44
1040
1.0
1070
    74
1070
     0
1000
MTEXTEND
  0
MTEXT
  5
597D1
330
1F
100
AcDbEntity
  8
AM_6
100
AcDbMText
 10
6319.674675701048
 20
-223.6628129956725
 30
0.0
 40
3.200000000000001
 41
0.0
 71
     5
 72
     1
  1
5.4
 73
     1
 44
1.0
1001
ACAD
1000
MTEXTBEGIN
1070
    73
1070
     1
1070
    44
1040
1.0
1070
    74
1070
     0
1000
MTEXTEND
  0
MTEXT
  5
597D2
330
1F
100
AcDbEntity
  8
AM_6
100
AcDbMText
 10
6319.674675701048
 20
-229.6628129956725
 30
0.0
 40
3.200000000000001
 41
0.0
 71
     5
 72
     1
  1
6
 73
     1
 44
1.0
1001
ACAD
1000
MTEXTBEGIN
1070
    73
1070
     1
1070
    44
1040
1.0
1070
    74
1070
     0
1000
MTEXTEND
  0
MTEXT
  5
597D3
330
1F
100
AcDbEntity
  8
AM_6
100
AcDbMText
 10
6259.674675701051
 20
-229.6628129956731
 30
0.0
 40
3.200000000000001
 41
0.0
 71
     5
 72
     1
  1
3.2
 73
     1
 44
1.0
1001
ACAD
1000
MTEXTBEGIN
1070
    73
1070
     1
1070
    44
1040
1.0
1070
    74
1070
     0
1000
MTEXTEND
  0
ARC
  5
5B305
330
1F
100
AcDbEntity
  8
AM_0
  6
中線
 48
0.5
370
    30
100
AcDbCircle
 10
6226.921186871628
 20
-83.13632827354785
 30
0.0
 40
6.0
100
AcDbArc
 50
9.594068226859802
 51
100.4059736699168
  0
ARC
  5
5B308
330
1F
100
AcDbEntity
  8
AM_0
  6
中線
 48
0.5
370
    30
100
AcDbCircle
 10
6258.535176871627
 20
-93.13632827354785
 30
0.0
 40
11.0
100
AcDbArc
 50
270.0
 51
90.0
  0
ARC
  5
5B30F
330
1F
100
AcDbEntity
  8
AM_0
  6
中線
 48
0.5
370
    30
100
AcDbCircle
 10
6257.589552877498
 20
-93.13596888885868
 30
0.0
 40
11.0
100
AcDbArc
 50
272.4417231294211
 51
90.4631506261971
  0
ARC
  5
5B334
330
1F
100
AcDbEntity
  8
AM_0
  6
中線
 48
0.5
370
    30
100
AcDbCircle
 10
6226.921186871628
 20
-158.9721209866693
 30
0.0
 40
3.0
100
AcDbArc
 50
19.47122063449344
 51
100.4059736699237
  0
ARC
  5
5B335
330
1F
100
AcDbEntity
  8
AM_0
  6
中線
 48
0.5
370
    30
100
AcDbCircle
 10
6226.921186871628
 20
-158.9721209866693
 30
0.0
 40
6.0
100
AcDbArc
 50
9.594068226859802
 51
100.4059736699165
  0
ARC
  5
5B4BF
330
1F
100
AcDbEntity
  8
AM_0
  6
中線
 48
0.5
370
    30
100
AcDbCircle
 10
6210.410282871627
 20
-160.9874959866693
 30
0.0
 40
2.000000000000024
100
AcDbArc
 50
100.4059736699063
 51
179.5595343565075
  0
ARC
  5
5B4C0
330
1F
100
AcDbEntity
  8
AM_0
  6
中線
 48
0.5
370
    30
100
AcDbCircle
 10
6210.410282871627
 20
-160.9874959866693
 30
0.0
 40
4.999999999999933
100
AcDbArc
 50
100.4059736699182
 51
179.8238152003408
  0
ARC
  5
5B4F4
330
1F
100
AcDbEntity
  8
AM_0
  6
中線
 48
0.5
370
    30
100
AcDbCircle
 10
6206.416783871627
 20
-134.6987289683948
 30
0.0
 40
1.5
100
AcDbArc
 50
95.97881397229485
 51
275.9788139723253
  0
ARC
  5
5B4F6
330
1F
100
AcDbEntity
  8
AM_0
  6
中線
 48
0.5
370
    30
100
AcDbCircle
 10
6231.421185871627
 20
-132.0800079683949
 30
0.0
 40
1.499999999999871
100
AcDbArc
 50
276.0982923354888
 51
96.09829233548941
  0
LINE
  5
5B570
330
1F
100
AcDbEntity
  8
AM_0
  6
中線
 48
0.5
370
    30
100
AcDbLine
 10
6209.507174413448
 20
-156.0697327641496
 30
0.0
 11
6225.837456721812
 21
-153.0708051196459
 31
0.0
  0
LINE
  5
5B571
330
1F
100
AcDbEntity
  8
AM_0
  6
中線
 48
0.5
370
    30
100
AcDbLine
 10
6210.049039488356
 20
-159.0203906976609
 30
0.0
 11
6226.37932179672
 21
-156.0214630531573
 31
0.0
  0
LINE
  5
5B574
330
1F
100
AcDbEntity
  8
AM_0
  6
中線
 48
0.5
370
    30
100
AcDbLine
 10
6232.921186871628
 20
-178.4721209866693
 30
0.0
 11
6232.921186871628
 21
-176.9721209866693
 31
0.0
  0
LINE
  5
5B575
330
1F
100
AcDbEntity
  8
AM_0
  6
中線
 48
0.5
370
    30
100
AcDbLine
 10
6229.921186871628
 20
-178.4721209866693
 30
0.0
 11
6229.921186871628
 21
-176.9721209866693
 31
0.0
  0
ARC
  5
5B576
330
1F
100
AcDbEntity
  8
AM_0
  6
中線
 48
0.5
370
    30
100
AcDbCircle
 10
6226.921186871628
 20
-178.9721209866693
 30
0.0
 40
3.0
100
AcDbArc
 50
259.5940263300765
 51
340.5287793655066
  0
ARC
  5
5B577
330
1F
100
AcDbEntity
  8
AM_0
  6
中線
 48
0.5
370
    30
100
AcDbCircle
 10
6226.921186871628
 20
-178.9721209866693
 30
0.0
 40
6.0
100
AcDbArc
 50
259.5940263300835
 51
350.4059317731402
  0
ARC
  5
5B578
330
1F
100
AcDbEntity
  8
AM_0
  6
中線
 48
0.5
370
    30
100
AcDbCircle
 10
6210.410282871627
 20
-176.9567459866693
 30
0.0
 40
2.000000000000024
100
AcDbArc
 50
180.4404656434925
 51
259.5940263300934
  0
ARC
  5
5B579
330
1F
100
AcDbEntity
  8
AM_0
  6
中線
 48
0.5
370
    30
100
AcDbCircle
 10
6210.410282871627
 20
-176.9567459866693
 30
0.0
 40
4.999999999999933
100
AcDbArc
 50
180.1761847996578
 51
259.5940263300819
  0
LINE
  5
5B57A
330
1F
100
AcDbEntity
  8
AM_0
  6
中線
 48
0.5
370
    30
100
AcDbLine
 10
6209.507174413448
 20
-181.874509209189
 30
0.0
 11
6225.837456721812
 21
-184.8734368536927
 31
0.0
  0
LINE
  5
5B57B
330
1F
100
AcDbEntity
  8
AM_0
  6
中線
 48
0.5
370
    30
100
AcDbLine
 10
6210.049039488356
 20
-178.9238512756777
 30
0.0
 11
6226.37932179672
 21
-181.9227789201813
 31
0.0
  0
ARC
  5
5B59B
330
1F
100
AcDbEntity
  8
AM_0
  6
中線
 48
0.5
370
    30
100
AcDbCircle
 10
6260.960492871627
 20
-168.9721209866693
 30
0.0
 40
8.000000000000028
100
AcDbArc
 50
270.0
 51
90.0
  0
ARC
  5
5B618
330
1F
100
AcDbEntity
  8
AM_0
  6
中線
 48
0.5
370
    30
100
AcDbCircle
 10
6205.916783871627
 20
-134.6146109683945
 30
0.0
 40
3.499999999999726
100
AcDbArc
 50
270.0
 51
338.1161051328284
  0
ARC
  5
5B61A
330
1F
100
AcDbEntity
  8
AM_0
  6
中線
 48
0.5
370
    30
100
AcDbCircle
 10
6205.916783871627
 20
-134.6146109683945
 30
0.0
 40
1.999999999999726
100
AcDbArc
 50
270.0
 51
311.1066368334683
  0
ARC
  5
5B61E
330
1F
100
AcDbEntity
  8
AM_0
  6
中線
 48
0.5
370
    30
100
AcDbCircle
 10
6231.421185871627
 20
-132.0800079683949
 30
0.0
 40
1.499999999999857
100
AcDbArc
 50
275.9788139722943
 51
95.97881397232603
  0
LINE
  5
5B61F
330
1F
100
AcDbEntity
  8
AM_0
  6
中線
 48
0.5
370
    30
100
AcDbLine
 10
6206.260542797914
 20
-133.2068882507301
 30
0.0
 11
6231.264944797914
 21
-130.5881672507294
 31
0.0
  0
LINE
  5
5B620
330
1F
100
AcDbEntity
  8
AM_0
  6
中線
 48
0.5
370
    30
100
AcDbLine
 10
6206.573024945339
 20
-136.1905696860605
 30
0.0
 11
6231.57742694534
 21
-133.5718486860598
 31
0.0
  0
ARC
  5
5B633
330
1F
100
AcDbEntity
  8
AM_0
  6
中線
 48
0.5
370
    30
100
AcDbCircle
 10
6205.916783871627
 20
-134.6146109683945
 30
0.0
 40
3.499999999999726
100
AcDbArc
 50
28.92014415834305
 51
46.40003524985685
  0
ARC
  5
5B638
330
1F
100
AcDbEntity
  8
AM_0
  6
中線
 48
0.5
370
    30
100
AcDbCircle
 10
6209.916724773098
 20
-85.1517032735478
 30
0.0
 40
4.999999999999547
100
AcDbArc
 50
100.107126644511
 51
179.8238152003408
  0
ARC
  5
5B639
330
1F
100
AcDbEntity
  8
AM_0
  6
中線
 48
0.5
370
    30
100
AcDbCircle
 10
6209.916724773098
 20
-85.1517032735478
 30
0.0
 40
2.000000000000267
100
AcDbArc
 50
100.1071266445033
 51
179.5595343565075
  0
ARC
  5
5B63A
330
1F
100
AcDbEntity
  8
AM_0
  6
中線
 48
0.5
370
    30
100
AcDbCircle
 10
6226.921186871628
 20
-83.13632827354785
 30
0.0
 40
6.000000000000107
100
AcDbArc
 50
9.594068226859802
 51
100.1071266445064
  0
ARC
  5
5B63B
330
1F
100
AcDbEntity
  8
AM_0
  6
中線
 48
0.5
370
    30
100
AcDbCircle
 10
6226.921186871628
 20
-83.13632827354785
 30
0.0
 40
3.000000000000162
100
AcDbArc
 50
19.47122063448765
 51
100.1071266444983
  0
LINE
  5
5B63C
330
1F
100
AcDbEntity
  8
AM_0
  6
中線
 48
0.5
370
    30
100
AcDbLine
 10
6225.868251788034
 20
-77.22944011566494
 30
0.0
 11
6209.039278870103
 21
-80.22929647531173
 31
0.0
  0
LINE
  5
5B63D
330
1F
100
AcDbEntity
  8
AM_0
  6
中線
 48
0.5
370
    30
100
AcDbLine
 10
6226.394719329831
 20
-80.18288419460686
 30
0.0
 11
6209.565746411899
 21
-83.18274055425316
 31
0.0
  0
ARC
  5
5B63E
330
1F
100
AcDbEntity
  8
AM_0
  6
中線
 48
0.5
370
    30
100
AcDbCircle
 10
6209.916724773098
 20
-101.1209532735479
 30
0.0
 40
4.999999999999547
100
AcDbArc
 50
180.1761847996594
 51
259.8928733554891
  0
ARC
  5
5B63F
330
1F
100
AcDbEntity
  8
AM_0
  6
中線
 48
0.5
370
    30
100
AcDbCircle
 10
6209.916724773098
 20
-101.1209532735479
 30
0.0
 40
2.000000000000267
100
AcDbArc
 50
180.4404656434925
 51
259.8928733554968
  0
ARC
  5
5B640
330
1F
100
AcDbEntity
  8
AM_0
  6
中線
 48
0.5
370
    30
100
AcDbCircle
 10
6226.921186871628
 20
-103.1363282735478
 30
0.0
 40
6.000000000000107
100
AcDbArc
 50
259.8928733554935
 51
350.4059317731401
  0
ARC
  5
5B641
330
1F
100
AcDbEntity
  8
AM_0
  6
中線
 48
0.5
370
    30
100
AcDbCircle
 10
6226.921186871628
 20
-103.1363282735478
 30
0.0
 40
3.000000000000162
100
AcDbArc
 50
259.8928733555017
 51
340.5287793655122
  0
LINE
  5
5B642
330
1F
100
AcDbEntity
  8
AM_0
  6
中線
 48
0.5
370
    30
100
AcDbLine
 10
6225.868251788034
 20
-109.0432164314307
 30
0.0
 11
6209.039278870103
 21
-106.043360071784
 31
0.0
  0
LINE
  5
5B643
330
1F
100
AcDbEntity
  8
AM_0
  6
中線
 48
0.5
370
    30
100
AcDbLine
 10
6226.394719329831
 20
-106.0897723524888
 30
0.0
 11
6209.565746411899
 21
-103.0899159928425
 31
0.0
  0
DIMENSION
  5
5B64D
330
1F
100
AcDbEntity
  8
AM_5
100
AcDbDimension
  2
*D24
 10
6214.285565891874
 20
-103.931249599618
 30
0.0
 11
6212.923769850424
 21
-111.5708249504807
 31
0.0
 70
   161
  1
%%c<>
 71
     5
 42
3.000000000000113
  3
SYS$0
100
AcDbAlignedDimension
 13
6217.453765329068
 23
-107.5432882516072
 33
0.0
 14
6217.980232870866
 24
-104.5898441726659
 34
0.0
  0
ENDSEC
  0
SECTION
  2
OBJECTS
  0
DICTIONARY
  5
C
330
0
100
AcDbDictionary
281
     1
  3
ACAD_2007HEADERVARS_RT
350
5B6BA
  3
ACAD_BGPLOT_KEY
350
AB06
  3
ACAD_COLOR
350
A91D
  3
ACAD_GROUP
350
D
  3
ACAD_LAYOUT
350
1A
  3
ACAD_MATERIAL
350
A91C
  3
ACAD_MLINESTYLE
350
17
  3
ACAD_PLOTSETTINGS
350
19
  3
ACAD_PLOTSTYLENAME
350
E
  3
ACAD_TABLESTYLE
350
AAB9
  3
ACAD_VISUALSTYLE
350
B0F1
  3
AcAsAppObject
350
3DA1
  3
ACASGREF_MASTER
350
3DE9
  3
AcDbVariableDictionary
350
34
  3
AcmDictionary
350
47
  3
AD_GREF_MODULE
350
3DEA
  3
AD_MAPI_MODULE
350
3E06
  3
AMG
350
2B
  3
AMGSNAPSETTINGS
350
7D
  3
ASE_INDEX_DICTIONARY
350
57912
  3
DWGPROPS
350
5B6B9
  3
MAPISURF_MODULE
350
3DEB
  0
DICTIONARY
  5
3F95
330
2
100
AcDbDictionary
280
     1
281
     1
  3
ACAD_LAYERFILTERS
360
5369F
  3
ACAD_LAYERSTATES
360
3F96
  3
ACLYDICTIONARY
360
5369E
  3
AMLAYER_GROUPCOLORS
360
AAB4
  0
DICTIONARY
  5
5B5B4
330
5B5B3
100
AcDbDictionary
280
     1
281
     1
  3
ADSK_XREC_LAYER_RECONCILED
360
5B5B5
  0
DICTIONARY
  5
8A
330
1F
100
AcDbDictionary
280
     1
281
     1
  3
ACAD_SORTENTS
360
B1BA
  0
DICTIONARY
  5
5B6BA
102
{ACAD_REACTORS
330
C
102
}
330
C
100
AcDbDictionary
281
     1
  3
DIMARCSYM
350
5B6BB
  0
DICTIONARY
  5
AB06
102
{ACAD_REACTORS
330
C
102
}
330
C
100
AcDbDictionary
280
     1
281
     1
  0
DICTIONARY
  5
A91D
102
{ACAD_REACTORS
330
C
102
}
330
C
100
AcDbDictionary
281
     1
  0
DICTIONARY
  5
D
102
{ACAD_REACTORS
330
C
102
}
330
C
100
AcDbDictionary
281
     1
  0
DICTIONARY
  5
1A
102
{ACAD_REACTORS
330
C
102
}
330
C
100
AcDbDictionary
281
     1
  3
Model
350
22
  3
ﾚｲｱｳﾄ1
350
1E
  3
ﾚｲｱｳﾄ2
350
26
  0
DICTIONARY
  5
A91C
102
{ACAD_REACTORS
330
C
102
}
330
C
100
AcDbDictionary
281
     1
  3
ByBlock
350
B0EF
  3
ByLayer
350
B0EE
  3
Global
350
B0F0
  0
DICTIONARY
  5
17
102
{ACAD_REACTORS
330
C
102
}
330
C
100
AcDbDictionary
281
     1
  3
Standard
350
18
  0
DICTIONARY
  5
19
102
{ACAD_REACTORS
330
C
102
}
330
C
100
AcDbDictionary
281
     1
  0
ACDBDICTIONARYWDFLT
  5
E
102
{ACAD_REACTORS
330
C
102
}
330
C
100
AcDbDictionary
281
     1
  3
Normal
350
F
100
AcDbDictionaryWithDefault
340
F
  0
DICTIONARY
  5
AAB9
102
{ACAD_REACTORS
330
C
102
}
330
C
100
AcDbDictionary
281
     1
  3
Standard
350
AABA
  0
DICTIONARY
  5
B0F1
102
{ACAD_REACTORS
330
C
102
}
330
C
100
AcDbDictionary
281
     1
  3
2dWireframe
350
B0F7
  3
3D Hidden
350
B0F9
  3
3dWireframe
350
B0F8
  3
Basic
350
B0F6
  3
Brighten
350
B0FD
  3
ColorChange
350
B101
  3
Conceptual
350
B0FA
  3
Dim
350
B0FC
  3
Facepattern
350
B100
  3
Flat
350
B0F2
  3
FlatWithEdges
350
B0F3
  3
Gouraud
350
B0F4
  3
GouraudWithEdges
350
B0F5
  3
Linepattern
350
B0FF
  3
Realistic
350
B0FB
  3
Thicken
350
B0FE
  0
ACAD_PROXY_OBJECT
  5
3DA1
102
{ACAD_REACTORS
330
C
102
}
330
C
100
AcDbProxyObject
 90
      499
 91
      576
 95
   917527
 70
     0
 93
       10
310
407F
 94
        0
1001
ACAD
1000
AcRTDxfName
1000
ASAPP
  0
ACAD_PROXY_OBJECT
  5
3DE9
102
{ACAD_REACTORS
330
C
102
}
330
C
100
AcDbProxyObject
 90
      499
 91
      581
 95
   917527
 70
     0
 93
       34
310
010000407F
 94
        0
1001
ACAD
1000
AcRTDxfName
1000
ACASGREFMASTER
  0
DICTIONARY
  5
34
102
{ACAD_REACTORS
330
C
102
}
330
C
100
AcDbDictionary
281
     1
  3
CTABLESTYLE
350
AAF3
  3
DIMASSOC
350
A10C
  3
FIELDEVAL
350
AB07
  3
INDEXCTL
350
35
  3
SORTENTS
350
194C
  0
DICTIONARY
  5
47
102
{ACAD_REACTORS
330
C
102
}
330
C
100
AcDbDictionary
281
     1
  3
AcmBOM
350
7E8
  3
AcmStdDictionary
350
4C
  3
AMDTSECTSYM_ARROWCOLOR
350
A929
  0
ACAD_PROXY_OBJECT
  5
3DEA
102
{ACAD_REACTORS
330
C
102
}
330
C
100
AcDbProxyObject
 90
      499
 91
      582
 95
   917527
 70
     0
 93
      114
310
00000043800000000000000000003F
 94
        0
1001
ACAD
1000
AcRTDxfName
1000
ACADGREFMODULE
  0
ACAD_PROXY_OBJECT
  5
3E06
102
{ACAD_REACTORS
330
C
102
}
330
C
100
AcDbProxyObject
 90
      499
 91
      594
 95
   917527
 70
     0
 93
       34
310
05000044FF
 94
        0
1001
ACAD
1000
AcRTDxfName
1000
MAPIADMODULE
  0
DICTIONARY
  5
2B
102
{ACAD_REACTORS
330
C
102
}
330
C
100
AcDbDictionary
281
     1
  0
DICTIONARY
  5
7D
102
{ACAD_REACTORS
330
C
102
}
330
C
100
AcDbDictionary
281
     1
  0
DICTIONARY
  5
57912
102
{ACAD_REACTORS
330
C
102
}
330
C
100
AcDbDictionary
281
     1
  3
ASEBlockHierarchyIndexRecord
350
57913
1001
DCO15
1040
1757428023.343
  0
XRECORD
  5
5B6B9
102
{ACAD_REACTORS
330
C
102
}
330
C
100
AcDbXrecord
280
     1
  1
DWGPROPS COOKIE
  2

  3

  4

  6

  7

  8
Administrator
  9

300
AmdtFileType=84
301
=
302
=
303
=
304
=
305
=
306
=
307
=
308
=
309
=
 40
7.961094780092592
 41
2455567.680725081
 42
2456338.853279259
  1

 90
        1
  0
ACAD_PROXY_OBJECT
  5
3DEB
102
{ACAD_REACTORS
330
C
102
}
330
C
100
AcDbProxyObject
 90
      499
 91
      583
 95
   917527
 70
     0
 93
        8
310
0478
 94
        0
1001
ACAD
1000
AcRTDxfName
1000
AMDTMAPISURFMOUDULE
  0
DICTIONARY
  5
5369F
102
{ACAD_REACTORS
330
3F95
102
}
330
3F95
100
AcDbDictionary
281
     1
  0
DICTIONARY
  5
3F96
102
{ACAD_REACTORS
330
3F95
102
}
330
3F95
100
AcDbDictionary
281
     1
  3
20011210
350
3FB7
  0
DICTIONARY
  5
5369E
102
{ACAD_REACTORS
330
3F95
102
}
330
3F95
100
AcDbDictionary
281
     1
1001
ACAD
1000
<All
  0
DICTIONARY
  5
AAB4
102
{ACAD_REACTORS
330
3F95
102
}
330
3F95
100
AcDbDictionary
280
     1
281
     1
  0
XRECORD
  5
5B5B5
102
{ACAD_REACTORS
330
5B5B4
102
}
330
5B5B4
100
AcDbXrecord
280
     1
290
     1
  0
SORTENTSTABLE
  5
B1BA
102
{ACAD_REACTORS
330
8A
102
}
330
8A
100
AcDbSortentsTable
330
1F
331
5815B
  5
58393
331
580E5
  5
580F1
331
58061
  5
5806C
331
58096
  5
580A2
331
5811C
  5
58129
331
58173
  5
58503
331
58124
  5
58131
331
580ED
  5
580F9
331
5802A
  5
58035
331
5809E
  5
580AA
331
5812C
  5
58139
331
580A6
  5
580B2
331
597CC
  5
597EF
331
5B570
  5
5B570
331
5B578
  5
5B578
331
31B31
  5
32739
331
32D21
  5
32D3E
331
4E0EB
  5
4E1D6
331
58032
  5
5803D
331
4E0F3
  5
4E1DE
331
5803A
  5
58045
331
5806F
  5
5807A
331
580AE
  5
580BA
331
58134
  5
58144
331
58042
  5
5804D
331
58077
  5
58082
331
580FD
  5
58109
331
58105
  5
58112
331
5804A
  5
58055
331
5807F
  5
5808A
331
58144
  5
58156
331
5814C
  5
58158
331
58087
  5
58093
331
5184B
  5
B8D6
331
58052
  5
5805D
331
5805A
  5
58065
331
5808F
  5
5809B
331
580DE
  5
580EA
331
58115
  5
58121
331
58154
  5
58172
331
5815C
  5
583F5
331
580E6
  5
580F2
331
58062
  5
5806D
331
58097
  5
580A4
331
5811D
  5
5812A
331
58174
  5
58504
331
58125
  5
58132
331
5802B
  5
58036
331
580EE
  5
580FA
331
5812D
  5
5813A
331
580A7
  5
580B3
331
597CD
  5
597F2
331
5B571
  5
5B571
331
5B579
  5
5B579
331
5B334
  5
5B335
331
31B32
  5
3273A
331
58033
  5
5803E
331
58068
  5
58073
331
4E0F4
  5
4E1DF
331
5803B
  5
58046
331
58070
  5
5807B
331
580AF
  5
580BB
331
580F6
  5
58102
331
58135
  5
58145
331
58043
  5
5804E
331
58078
  5
58083
331
580B7
  5
580C3
331
580FE
  5
5810A
331
58106
  5
58113
331
58080
  5
5808C
331
5810E
  5
5811A
331
5814D
  5
58159
331
5B305
  5
5B306
331
5B61E
  5
5B61F
331
5184C
  5
B8D7
331
58053
  5
5805E
331
58088
  5
58094
331
5805B
  5
58066
331
58090
  5
5809C
331
580DF
  5
580EB
331
58116
  5
58122
331
58155
  5
58173
331
58063
  5
5806E
331
580E7
  5
580F3
331
5811E
  5
5812B
331
58175
  5
597CE
331
58126
  5
58133
331
5802C
  5
58037
331
580EF
  5
580FB
331
5812E
  5
5813B
331
597C6
  5
597D1
331
597CE
  5
59832
331
5B57A
  5
5B57A
331
5B335
  5
5B336
331
31B33
  5
3273B
331
31B3B
  5
3273C
331
58034
  5
5803F
331
58069
  5
58074
331
580A8
  5
580B4
331
4E0F5
  5
4E1E0
331
5803C
  5
58047
331
58071
  5
5807C
331
580B0
  5
580BC
331
580F7
  5
58103
331
58136
  5
58148
331
58044
  5
5804F
331
58079
  5
58084
331
580B8
  5
580C4
331
580FF
  5
5810B
331
58107
  5
58114
331
58081
  5
5808D
331
5810F
  5
5811B
331
5814E
  5
5815A
331
5B61F
  5
5B620
331
5184D
  5
B8D8
331
58054
  5
5805F
331
58089
  5
58095
331
580E0
  5
580EC
331
5805C
  5
58067
331
58091
  5
5809D
331
58117
  5
58124
331
58156
  5
58174
331
580E8
  5
580F4
331
58064
  5
5806F
331
58099
  5
580A5
331
5811F
  5
5812C
331
5802D
  5
58038
331
58127
  5
58134
331
5812F
  5
5813C
331
597C7
  5
597D2
331
597CF
  5
598B3
331
5B57B
  5
5B57B
331
31B3C
  5
3273D
331
58035
  5
58040
331
5806A
  5
58075
331
580A9
  5
580B5
331
580F0
  5
580FC
331
4E0F6
  5
4E1E1
331
5803D
  5
58048
331
58072
  5
5807D
331
580B1
  5
580BD
331
580F8
  5
58104
331
58137
  5
5814B
331
58100
  5
5810C
331
5807A
  5
58085
331
580B9
  5
580C5
331
58108
  5
58115
331
5804D
  5
58058
331
58082
  5
5808E
331
5814F
  5
5815B
331
5B4F4
  5
5B4F6
331
5B59B
  5
5B59B
331
34534
  5
3454C
331
5B618
  5
5B618
331
58055
  5
58060
331
5808A
  5
58096
331
58110
  5
5811C
331
5805D
  5
58068
331
580E1
  5
580ED
331
58118
  5
58125
331
58157
  5
58175
331
58120
  5
5812D
331
580E9
  5
580F5
331
58065
  5
58070
331
5809A
  5
580A6
331
5802E
  5
58039
331
58128
  5
58135
331
5B30F
  5
5B334
331
597C8
  5
597D3
331
597D0
  5
598B4
331
5B574
  5
5B574
331
5B620
  5
5B62A
331
31B3D
  5
3273E
331
32D1D
  5
32D3A
331
58036
  5
58041
331
5806B
  5
58076
331
580AA
  5
580B6
331
580F1
  5
580FD
331
58073
  5
5807E
331
580B2
  5
580BE
331
580F9
  5
58105
331
58138
  5
5814C
331
58101
  5
5810E
331
5183F
  5
B5AD
331
58046
  5
58051
331
5807B
  5
58086
331
580BA
  5
580C6
331
580CA
  5
580D6
331
5804E
  5
58059
331
58083
  5
5808F
331
58109
  5
58116
331
34535
  5
3454D
331
58056
  5
58061
331
5808B
  5
58097
331
580DA
  5
580E6
331
58111
  5
5811D
331
58150
  5
5815C
331
58158
  5
58324
331
580E2
  5
580EE
331
5805E
  5
58069
331
58093
  5
5809F
331
58119
  5
58126
331
58170
  5
583F6
331
58121
  5
5812E
331
580EA
  5
580F6
331
58066
  5
58071
331
5809B
  5
580A7
331
58129
  5
58136
331
5802F
  5
5803A
331
580A3
  5
580AF
331
5B308
  5
5B30F
331
597C9
  5
597EA
331
597D1
  5
598F1
331
5B575
  5
5B575
331
31B3E
  5
3273F
331
32D1E
  5
32D3B
331
4E0E8
  5
4E1D3
331
58037
  5
58042
331
5806C
  5
58077
331
580AB
  5
580B8
331
580F2
  5
580FE
331
58131
  5
5813D
331
5803F
  5
5804A
331
58074
  5
5807F
331
580B3
  5
580BF
331
580FA
  5
58106
331
58139
  5
5814D
331
58102
  5
5810F
331
51840
  5
B5AE
331
58047
  5
58052
331
5807C
  5
58087
331
580BB
  5
580C7
331
580CB
  5
580D7
331
5804F
  5
5805A
331
58084
  5
58090
331
5810A
  5
58117
331
5B4F6
  5
5B4F7
331
597B2
  5
597CF
331
34536
  5
3454E
331
5B61A
  5
5B61C
331
58057
  5
58062
331
5808C
  5
58098
331
580DB
  5
580E7
331
58112
  5
5811E
331
58151
  5
5815D
331
58159
  5
58325
331
580E3
  5
580EF
331
5805F
  5
5806A
331
58094
  5
580A0
331
5811A
  5
58127
331
58171
  5
58451
331
58122
  5
5812F
331
580EB
  5
580F7
331
58067
  5
58072
331
5809C
  5
580A8
331
5812A
  5
58137
331
580A4
  5
580B0
331
597CA
  5
597EB
331
597D2
  5
59919
331
5B576
  5
5B576
331
5B4BF
  5
5B4BF
331
32D1F
  5
32D3C
331
4E0E9
  5
4E1D4
331
58030
  5
5803B
331
5806D
  5
58078
331
580F3
  5
580FF
331
58132
  5
5813E
331
58040
  5
5804B
331
58075
  5
58080
331
580B4
  5
580C2
331
580FB
  5
58107
331
5813A
  5
58152
331
58103
  5
58110
331
51841
  5
B5E2
331
58048
  5
58053
331
5807D
  5
58088
331
580BC
  5
580C8
331
580CC
  5
580D8
331
58085
  5
58091
331
597B3
  5
597D0
331
58050
  5
5805B
331
58058
  5
58063
331
5808D
  5
5809A
331
580DC
  5
580E8
331
58113
  5
5811F
331
58152
  5
58170
331
5815A
  5
58374
331
580E4
  5
580F0
331
58060
  5
5806B
331
58095
  5
580A1
331
5811B
  5
58128
331
58172
  5
58452
331
580EC
  5
580F8
331
5809D
  5
580A9
331
5812B
  5
58138
331
580A5
  5
580B1
331
597CB
  5
597EE
331
597D3
  5
5B304
331
5B577
  5
5B577
331
5B4C0
  5
5B4C0
331
31B30
  5
32738
331
5B633
  5
5B61A
331
4E0EA
  5
4E1D5
331
58031
  5
5803C
331
58039
  5
58044
331
5806E
  5
58079
331
580AD
  5
580B9
331
580F4
  5
58100
331
58133
  5
58140
331
58041
  5
5804C
331
58076
  5
58081
331
580FC
  5
58108
331
58104
  5
58111
331
51842
  5
B5E3
331
58049
  5
58054
331
5807E
  5
58089
331
580BD
  5
580C9
331
58143
  5
58153
331
580CD
  5
580D9
331
58086
  5
58092
331
5810C
  5
58119
331
5814B
  5
58157
331
34538
  5
34550
331
5184A
  5
B8D5
331
58051
  5
5805C
331
58059
  5
58064
331
580DD
  5
580E9
331
58114
  5
58120
331
58153
  5
58171
  0
XRECORD
  5
5B6BB
102
{ACAD_REACTORS
330
5B6BA
102
}
330
5B6BA
100
AcDbXrecord
280
     1
 70
     1
  0
LAYOUT
  5
22
102
{ACAD_XDICTIONARY
360
5B6BE
102
}
102
{ACAD_REACTORS
330
1A
102
}
330
1A
100
AcDbPlotSettings
  1

  2
FX DocuWide 2050/2051
  4
A3
  6
AM_VIEW1
 40
3.174999952316284
 41
3.174999952316284
 42
3.17498779296875
 43
3.17498779296875
 44
296.989501953125
 45
419.9889831542968
 46
0.0
 47
1.295841228961961
 48
214.3704939521119
 49
367.5855324241176
140
275.6727856380065
141
407.629191407817
142
1.0
143
0.7225445603030646
 70
  3764
 72
     1
 73
     1
 74
     2
  7
monochrome.ctb
 75
     0
147
1.383997686703999
148
-1700.85588156276
149
-1647.985052086429
100
AcDbLayout
  1
Model
 70
     1
 71
     0
 10
0.0
 20
0.0
 11
12.0
 21
9.0
 12
0.0
 22
0.0
 32
0.0
 14
0.0
 24
0.0
 34
0.0
 15
0.0
 25
0.0
 35
0.0
146
0.0
 13
0.0
 23
0.0
 33
0.0
 16
1.0
 26
0.0
 36
0.0
 17
0.0
 27
1.0
 37
0.0
 76
     0
330
1F
331
B0EC
1001
ACAD_PSEXT
1000
FX DocuWide 2050/2051
1000
FX DocuWide 2050/2051
1000
IP_192.200.15.252
1000

1070
     0
  0
LAYOUT
  5
1E
102
{ACAD_XDICTIONARY
360
5B6BC
102
}
102
{ACAD_REACTORS
330
1A
102
}
330
1A
100
AcDbPlotSettings
  1

  2
\\ML370\XEROX
  4
A4
  6

 40
3.174999952316284
 41
3.174999952316284
 42
3.175003051757812
 43
3.17498779296875
 44
209.8674926757813
 45
296.6719970703125
 46
0.0
 47
0.0
 48
0.0
 49
0.0
140
0.0
141
0.0
142
1.0
143
1.0
 70
   688
 72
     1
 73
     1
 74
     5
  7
monochrome.ctb
 75
    16
147
1.0
148
0.0
149
0.0
100
AcDbLayout
  1
ﾚｲｱｳﾄ1
 70
     1
 71
     1
 10
-3.17498779296875
 20
-3.174999952316284
 11
293.4970092773438
 21
206.692492723465
 12
0.0
 22
0.0
 32
0.0
 14
1.000000000000000E+20
 24
1.000000000000000E+20
 34
1.000000000000000E+20
 15
-1.000000000000000E+20
 25
-1.000000000000000E+20
 35
-1.000000000000000E+20
146
0.0
 13
0.0
 23
0.0
 33
0.0
 16
1.0
 26
0.0
 36
0.0
 17
0.0
 27
1.0
 37
0.0
 76
     0
330
1B
  0
LAYOUT
  5
26
102
{ACAD_XDICTIONARY
360
5B6C0
102
}
102
{ACAD_REACTORS
330
1A
102
}
330
1A
100
AcDbPlotSettings
  1

  2
\\ML370\XEROX
  4

  6

 40
0.0
 41
0.0
 42
0.0
 43
0.0
 44
0.0
 45
0.0
 46
0.0
 47
0.0
 48
0.0
 49
0.0
140
0.0
141
0.0
142
1.0
143
1.0
 70
   688
 72
     0
 73
     0
 74
     5
  7
monochrome.ctb
 75
    16
147
1.0
148
0.0
149
0.0
100
AcDbLayout
  1
ﾚｲｱｳﾄ2
 70
     1
 71
     2
 10
0.0
 20
0.0
 11
12.0
 21
9.0
 12
0.0
 22
0.0
 32
0.0
 14
0.0
 24
0.0
 34
0.0
 15
0.0
 25
0.0
 35
0.0
146
0.0
 13
0.0
 23
0.0
 33
0.0
 16
1.0
 26
0.0
 36
0.0
 17
0.0
 27
1.0
 37
0.0
 76
     0
330
23
  0
MATERIAL
  5
B0EF
102
{ACAD_XDICTIONARY
360
5B6C6
102
}
102
{ACAD_REACTORS
330
A91C
102
}
330
A91C
100
AcDbMaterial
  1
ByBlock
  0
MATERIAL
  5
B0EE
102
{ACAD_XDICTIONARY
360
5B6C4
102
}
102
{ACAD_REACTORS
330
A91C
102
}
330
A91C
100
AcDbMaterial
  1
ByLayer
  0
MATERIAL
  5
B0F0
102
{ACAD_XDICTIONARY
360
5B6C8
102
}
102
{ACAD_REACTORS
330
A91C
102
}
330
A91C
100
AcDbMaterial
  1
Global
  0
MLINESTYLE
  5
18
102
{ACAD_REACTORS
330
17
102
}
330
17
100
AcDbMlineStyle
  2
STANDARD
 70
     0
  3

 62
   256
 51
90.0
 52
90.0
 71
     2
 49
0.5
 62
   256
  6
BYLAYER
 49
-0.5
 62
   256
  6
BYLAYER
  0
ACDBPLACEHOLDER
  5
F
102
{ACAD_REACTORS
330
E
102
}
330
E
  0
TABLESTYLE
  5
AABA
102
{ACAD_XDICTIONARY
360
5B6C2
102
}
102
{ACAD_REACTORS
330
AAB9
102
}
330
AAB9
100
AcDbTableStyle
  3
Standard
 70
     0
 71
     0
 40
1.5
 41
1.5
280
     0
281
     0
  7
STANDARD
140
4.5
170
     2
 62
     0
 63
     7
283
     0
274
    -2
284
     1
 64
     0
275
    -2
285
     1
 65
     0
276
    -2
286
     1
 66
     0
277
    -2
287
     1
 67
     0
278
    -2
288
     1
 68
     0
279
    -2
289
     1
 69
     0
  7
STANDARD
140
6.0
170
     5
 62
     0
 63
     7
283
     0
274
    -2
284
     1
 64
     0
275
    -2
285
     1
 65
     0
276
    -2
286
     1
 66
     0
277
    -2
287
     1
 67
     0
278
    -2
288
     1
 68
     0
279
    -2
289
     1
 69
     0
  7
STANDARD
140
4.5
170
     5
 62
     0
 63
     7
283
     0
274
    -2
284
     1
 64
     0
275
    -2
285
     1
 65
     0
276
    -2
286
     1
 66
     0
277
    -2
287
     1
 67
     0
278
    -2
288
     1
 68
     0
279
    -2
289
     1
 69
     0
  0
VISUALSTYLE
  5
B0F7
102
{ACAD_REACTORS
330
B0F1
102
}
330
B0F1
100
AcDbVisualStyle
  2
2dWireframe
 70
     4
 71
     0
 72
     2
 73
     0
 90
        0
 40
-0.6
 41
-30.0
 62
     5
 63
     7
 74
     1
 91
        4
 64
     7
 65
   257
 75
     1
175
     1
 42
1.0
 92
        0
 66
   257
 43
1.0
 76
     1
 77
     6
 78
     2
 67
     7
 79
     5
170
     0
171
     0
290
     0
174
     0
 93
        1
 44
0.0
173
     0
291
     0
 45
0.0
1001
ACAD
1000
AcDbSavedByObjectVersion
1070
     0
  0
VISUALSTYLE
  5
B0F9
102
{ACAD_REACTORS
330
B0F1
102
}
330
B0F1
100
AcDbVisualStyle
  2
3D Hidden
 70
     6
 71
     1
 72
     2
 73
     2
 90
        0
 40
-0.6
 41
-30.0
 62
     5
 63
     7
 74
     2
 91
        2
 64
     7
 65
   257
 75
     2
175
     1
 42
40.0
 92
        0
 66
   257
 43
1.0
 76
     1
 77
     6
 78
     2
 67
     7
 79
     3
170
     0
171
     0
290
     0
174
     0
 93
        1
 44
0.0
173
     0
291
     0
 45
0.0
1001
ACAD
1000
AcDbSavedByObjectVersion
1070
     0
  0
VISUALSTYLE
  5
B0F8
102
{ACAD_REACTORS
330
B0F1
102
}
330
B0F1
100
AcDbVisualStyle
  2
3dWireframe
 70
     5
 71
     0
 72
     2
 73
     0
 90
        0
 40
-0.6
 41
-30.0
 62
     5
 63
     7
 74
     1
 91
        4
 64
     7
 65
   257
 75
     1
175
     1
 42
1.0
 92
        0
 66
   257
 43
1.0
 76
     1
 77
     6
 78
     2
 67
     7
 79
     5
170
     0
171
     0
290
     0
174
     0
 93
        1
 44
0.0
173
     0
291
     0
 45
0.0
1001
ACAD
1000
AcDbSavedByObjectVersion
1070
     0
  0
VISUALSTYLE
  5
B0F6
102
{ACAD_REACTORS
330
B0F1
102
}
330
B0F1
100
AcDbVisualStyle
  2
Basic
 70
     7
 71
     1
 72
     0
 73
     1
 90
        0
 40
-0.6
 41
-30.0
 62
     5
 63
     7
 74
     0
 91
        4
 64
     7
 65
   257
 75
     1
175
     1
 42
1.0
 92
        8
 66
     7
 43
1.0
 76
     1
 77
     6
 78
     2
 67
     7
 79
     5
170
     0
171
     0
290
     0
174
     0
 93
        1
 44
0.0
173
     0
291
     1
 45
0.0
1001
ACAD
1000
AcDbSavedByObjectVersion
1070
     0
  0
VISUALSTYLE
  5
B0FD
102
{ACAD_REACTORS
330
B0F1
102
}
330
B0F1
100
AcDbVisualStyle
  2
Brighten
 70
    12
 71
     2
 72
     2
 73
     0
 90
        0
 40
-0.6
 41
-30.0
 62
     5
 63
     7
 74
     1
 91
        4
 64
     7
 65
   257
 75
     1
175
     1
 42
1.0
 92
        8
 66
     7
 43
1.0
 76
     1
 77
     6
 78
     2
 67
     7
 79
     5
170
     0
171
     0
290
     0
174
     0
 93
        1
 44
50.0
173
     0
291
     1
 45
0.0
1001
ACAD
1000
AcDbSavedByObjectVersion
1070
     0
  0
VISUALSTYLE
  5
B101
102
{ACAD_REACTORS
330
B0F1
102
}
330
B0F1
100
AcDbVisualStyle
  2
ColorChange
 70
    16
 71
     2
 72
     2
 73
     3
 90
        0
 40
-0.6
 41
-30.0
 62
     5
 63
     8
 74
     1
 91
        4
 64
     7
 65
   257
 75
     1
175
     1
 42
1.0
 92
        8
 66
     8
 43
1.0
 76
     1
 77
     6
 78
     2
 67
     7
 79
     5
170
     0
171
     0
290
     0
174
     0
 93
        1
 44
0.0
173
     0
291
     1
 45
0.0
1001
ACAD
1000
AcDbSavedByObjectVersion
1070
     0
  0
VISUALSTYLE
  5
B0FA
102
{ACAD_REACTORS
330
B0F1
102
}
330
B0F1
100
AcDbVisualStyle
  2
Conceptual
 70
     9
 71
     3
 72
     2
 73
     0
 90
        0
 40
-0.6
 41
-30.0
 62
     5
 63
     7
 74
     2
 91
        2
 64
     7
 65
   257
 75
     1
175
     1
 42
40.0
 92
        8
 66
     7
 43
1.0
 76
     1
 77
     6
 78
     2
 67
     7
 79
     3
170
     0
171
     0
290
     0
174
     0
 93
        1
 44
0.0
173
     0
291
     0
 45
0.0
1001
ACAD
1000
AcDbSavedByObjectVersion
1070
     0
  0
VISUALSTYLE
  5
B0FC
102
{ACAD_REACTORS
330
B0F1
102
}
330
B0F1
100
AcDbVisualStyle
  2
Dim
 70
    11
 71
     2
 72
     2
 73
     0
 90
        0
 40
-0.6
 41
-30.0
 62
     5
 63
     7
 74
     1
 91
        4
 64
     7
 65
   257
 75
     1
175
     1
 42
1.0
 92
        8
 66
     7
 43
1.0
 76
     1
 77
     6
 78
     2
 67
     7
 79
     5
170
     0
171
     0
290
     0
174
     0
 93
        1
 44
-50.0
173
     0
291
     1
 45
0.0
1001
ACAD
1000
AcDbSavedByObjectVersion
1070
     0
  0
VISUALSTYLE
  5
B100
102
{ACAD_REACTORS
330
B0F1
102
}
330
B0F1
100
AcDbVisualStyle
  2
Facepattern
 70
    15
 71
     2
 72
     2
 73
     0
 90
        0
 40
-0.6
 41
-30.0
 62
     5
 63
     7
 74
     1
 91
        4
 64
     7
 65
   257
 75
     1
175
     1
 42
1.0
 92
        8
 66
     7
 43
1.0
 76
     1
 77
     6
 78
     2
 67
     7
 79
     5
170
     0
171
     0
290
     0
174
     0
 93
        1
 44
0.0
173
     0
291
     1
 45
0.0
1001
ACAD
1000
AcDbSavedByObjectVersion
1070
     0
  0
VISUALSTYLE
  5
B0F2
102
{ACAD_REACTORS
330
B0F1
102
}
330
B0F1
100
AcDbVisualStyle
  2
Flat
 70
     0
 71
     2
 72
     1
 73
     1
 90
        2
 40
-0.6
 41
30.0
 62
     5
 63
     7
 74
     0
 91
        4
 64
     7
 65
   257
 75
     1
175
     1
 42
1.0
 92
        8
 66
     7
 43
1.0
 76
     1
 77
     6
 78
     2
 67
     7
 79
     5
170
     0
171
     0
290
     0
174
     0
 93
       13
 44
0.0
173
     0
291
     1
 45
0.0
1001
ACAD
1000
AcDbSavedByObjectVersion
1070
     0
  0
VISUALSTYLE
  5
B0F3
102
{ACAD_REACTORS
330
B0F1
102
}
330
B0F1
100
AcDbVisualStyle
  2
FlatWithEdges
 70
     1
 71
     2
 72
     1
 73
     1
 90
        2
 40
-0.6
 41
30.0
 62
     5
 63
     7
 74
     1
 91
        4
 64
     7
 65
   257
 75
     1
175
     1
 42
1.0
 92
        0
 66
   257
 43
1.0
 76
     1
 77
     6
 78
     2
 67
     7
 79
     5
170
     0
171
     0
290
     0
174
     0
 93
       13
 44
0.0
173
     0
291
     1
 45
0.0
1001
ACAD
1000
AcDbSavedByObjectVersion
1070
     0
  0
VISUALSTYLE
  5
B0F4
102
{ACAD_REACTORS
330
B0F1
102
}
330
B0F1
100
AcDbVisualStyle
  2
Gouraud
 70
     2
 71
     2
 72
     2
 73
     1
 90
        2
 40
-0.6
 41
30.0
 62
     5
 63
     7
 74
     0
 91
        4
 64
     7
 65
   257
 75
     1
175
     1
 42
1.0
 92
        0
 66
     7
 43
1.0
 76
     1
 77
     6
 78
     2
 67
     7
 79
     5
170
     0
171
     0
290
     0
174
     0
 93
       13
 44
0.0
173
     0
291
     1
 45
0.0
1001
ACAD
1000
AcDbSavedByObjectVersion
1070
     0
  0
VISUALSTYLE
  5
B0F5
102
{ACAD_REACTORS
330
B0F1
102
}
330
B0F1
100
AcDbVisualStyle
  2
GouraudWithEdges
 70
     3
 71
     2
 72
     2
 73
     1
 90
        2
 40
-0.6
 41
30.0
 62
     5
 63
     7
 74
     1
 91
        4
 64
     7
 65
   257
 75
     1
175
     1
 42
1.0
 92
        0
 66
   257
 43
1.0
 76
     1
 77
     6
 78
     2
 67
     7
 79
     5
170
     0
171
     0
290
     0
174
     0
 93
       13
 44
0.0
173
     0
291
     1
 45
0.0
1001
ACAD
1000
AcDbSavedByObjectVersion
1070
     0
  0
VISUALSTYLE
  5
B0FF
102
{ACAD_REACTORS
330
B0F1
102
}
330
B0F1
100
AcDbVisualStyle
  2
Linepattern
 70
    14
 71
     2
 72
     2
 73
     0
 90
        0
 40
-0.6
 41
-30.0
 62
     5
 63
     7
 74
     1
 91
        4
 64
     7
 65
   257
 75
     7
175
     7
 42
1.0
 92
        8
 66
     7
 43
1.0
 76
     1
 77
     6
 78
     2
 67
     7
 79
     5
170
     0
171
     0
290
     0
174
     0
 93
        1
 44
0.0
173
     0
291
     1
 45
0.0
1001
ACAD
1000
AcDbSavedByObjectVersion
1070
     0
  0
VISUALSTYLE
  5
B0FB
102
{ACAD_REACTORS
330
B0F1
102
}
330
B0F1
100
AcDbVisualStyle
  2
Realistic
 70
     8
 71
     2
 72
     2
 73
     0
 90
        0
 40
-0.6
 41
-30.0
 62
     5
 63
     7
 74
     1
 91
        0
 64
     7
 65
   257
 75
     1
175
     1
 42
1.0
 92
        8
 66
     8
 43
1.0
 76
     1
 77
     6
 78
     2
 67
     7
 79
     5
170
     0
171
     0
290
     0
174
     0
 93
       13
 44
0.0
173
     0
291
     0
 45
0.0
1001
ACAD
1000
AcDbSavedByObjectVersion
1070
     0
  0
VISUALSTYLE
  5
B0FE
102
{ACAD_REACTORS
330
B0F1
102
}
330
B0F1
100
AcDbVisualStyle
  2
Thicken
 70
    13
 71
     2
 72
     2
 73
     0
 90
        0
 40
-0.6
 41
-30.0
 62
     5
 63
     7
 74
     1
 91
        4
 64
     7
 65
   257
 75
     1
175
     1
 42
1.0
 92
       12
 66
     7
 43
1.0
 76
     1
 77
     6
 78
     2
 67
     7
 79
     5
170
     0
171
     0
290
     0
174
     0
 93
        1
 44
0.0
173
     0
291
     1
 45
0.0
1001
ACAD
1000
AcDbSavedByObjectVersion
1070
     0
  0
DICTIONARYVAR
  5
AAF3
102
{ACAD_REACTORS
330
34
102
}
330
34
100
DictionaryVariables
280
     0
  1
STANDARD
  0
DICTIONARYVAR
  5
A10C
102
{ACAD_REACTORS
330
34
102
}
330
34
100
DictionaryVariables
280
     0
  1
1
  0
DICTIONARYVAR
  5
AB07
102
{ACAD_REACTORS
330
34
102
}
330
34
100
DictionaryVariables
280
     0
  1
4
  0
DICTIONARYVAR
  5
35
102
{ACAD_REACTORS
330
34
102
}
330
34
100
DictionaryVariables
280
     0
  1
0
  0
DICTIONARYVAR
  5
194C
102
{ACAD_REACTORS
330
34
102
}
330
34
100
DictionaryVariables
280
     0
  1
127
  0
DICTIONARY
  5
7E8
102
{ACAD_REACTORS
330
47
102
}
330
47
100
AcDbDictionary
281
     1
  0
DICTIONARY
  5
4C
102
{ACAD_REACTORS
330
47
102
}
330
47
100
AcDbDictionary
281
     1
  0
XRECORD
  5
A929
102
{ACAD_REACTORS
330
47
102
}
330
47
100
AcDbXrecord
280
     1
 90
-1023410169
  0
XRECORD
  5
57913
102
{ACAD_REACTORS
330
57912
102
}
330
57912
100
AcDbXrecord
280
     1
330
0
330
0
330
0
330
0
330
0
330
0
330
0
330
0
330
0
330
0
330
0
330
0
330
0
330
0
330
0
330
0
330
0
330
0
330
0
330
0
330
0
330
0
330
0
330
0
330
0
330
0
330
0
330
0
330
0
330
0
330
0
330
0
330
0
330
0
330
0
330
0
330
0
330
0
330
0
330
0
330
0
330
0
330
0
330
0
330
0
330
0
330
0
330
0
330
0
330
0
330
0
330
0
330
0
330
0
330
0
330
0
330
0
330
0
330
0
330
0
330
0
330
0
330
0
330
0
330
0
330
0
330
0
330
0
330
0
330
0
330
0
330
0
330
0
330
0
330
0
330
0
330
0
330
0
330
0
330
0
330
0
330
0
330
0
330
0
330
0
330
0
330
0
330
0
330
0
330
0
330
0
330
0
330
0
330
0
330
0
330
0
330
0
330
0
330
0
330
0
330
0
330
0
330
0
330
0
330
0
330
0
330
0
330
0
330
0
330
0
330
0
330
0
330
0
330
0
330
0
330
0
330
0
330
0
330
0
330
0
330
0
330
0
330
0
330
0
330
0
330
0
330
0
330
0
330
0
330
0
330
0
330
0
330
0
330
0
330
0
330
0
330
0
330
0
330
0
330
0
330
0
330
0
330
0
330
0
330
0
330
0
330
0
330
0
330
0
330
0
330
0
330
0
330
0
330
0
330
0
330
0
330
0
330
0
330
0
330
0
330
0
330
0
330
0
330
0
330
0
330
0
330
0
330
0
330
0
330
0
330
0
330
0
330
0
330
0
330
0
330
0
330
0
330
0
330
0
330
0
330
0
330
0
330
0
330
0
330
0
330
0
330
0
330
0
330
0
330
0
330
0
330
0
330
0
330
0
330
0
330
0
330
0
330
0
330
0
330
0
330
0
330
0
330
0
330
0
330
0
330
0
330
0
330
0
330
0
330
0
330
0
330
0
330
0
330
0
330
0
330
0
330
0
330
0
330
0
330
0
330
0
330
0
330
0
330
0
330
0
330
0
330
0
330
0
330
0
330
0
330
0
330
0
330
0
330
0
330
0
330
0
330
0
330
0
330
0
330
0
330
0
330
0
330
0
330
0
330
0
330
0
330
0
330
0
330
0
330
0
330
0
330
0
330
0
330
0
330
0
330
0
330
0
330
0
330
0
330
0
330
0
330
0
330
0
330
0
330
0
330
0
330
0
330
0
330
0
330
0
330
0
330
0
330
0
330
0
330
0
330
0
330
0
330
0
330
0
330
0
330
0
330
0
330
0
330
0
330
0
330
0
330
0
330
0
330
0
330
0
330
0
330
0
330
0
330
0
330
0
330
0
330
0
330
0
330
0
330
0
330
0
330
0
330
0
330
0
330
0
330
0
330
0
330
0
330
0
330
0
330
0
330
0
330
0
330
0
330
0
330
0
330
0
330
0
330
0
330
0
330
0
330
0
330
0
330
0
330
0
330
0
330
0
330
0
330
0
330
0
330
0
330
0
330
0
330
0
330
0
330
0
330
0
330
0
330
0
330
0
330
0
330
0
330
0
330
0
330
0
330
0
330
0
330
0
330
0
330
0
330
0
330
0
330
0
330
0
330
0
330
0
330
0
330
0
330
0
330
0
330
0
330
0
330
0
330
0
330
0
330
0
330
0
330
0
330
0
330
0
330
0
330
0
330
0
330
0
330
0
330
0
330
0
330
0
330
0
330
0
330
0
330
0
330
0
330
0
330
0
330
0
330
0
330
0
330
0
330
0
330
0
330
0
330
0
330
0
330
0
330
0
330
0
330
0
330
0
330
0
330
0
330
0
330
0
330
0
330
0
330
0
330
0
330
0
330
0
330
0
330
0
330
0
330
0
330
0
330
0
330
0
330
0
330
0
330
0
330
0
330
0
330
0
330
0
330
0
330
0
330
0
330
0
330
0
330
0
330
0
330
0
330
0
330
0
330
0
330
0
330
0
330
0
330
0
330
0
330
0
330
0
330
0
330
0
330
0
330
0
330
0
330
0
330
0
330
0
330
0
330
0
330
0
330
0
330
0
330
0
330
0
330
0
330
0
330
0
330
0
330
0
330
0
330
0
330
0
330
0
330
0
330
0
330
0
330
0
330
0
330
0
330
0
330
0
330
0
330
0
330
0
330
0
330
0
330
0
330
0
330
0
330
0
330
0
330
0
330
0
330
0
330
0
330
0
330
0
330
0
330
0
330
0
330
0
330
0
330
0
330
0
330
0
330
0
330
0
330
0
330
0
330
0
330
0
330
0
330
0
330
0
330
0
330
0
330
0
330
0
330
0
330
0
330
0
330
0
330
0
330
0
330
0
330
0
330
0
330
0
330
0
330
0
330
0
330
0
330
0
330
0
330
0
330
0
330
0
330
0
330
0
330
0
330
0
330
0
330
0
330
0
330
0
330
0
330
0
330
0
330
0
330
0
330
0
330
0
330
0
330
0
330
0
330
0
330
0
330
0
330
0
330
0
330
0
330
0
330
0
330
0
330
0
330
0
330
0
330
0
330
0
330
0
330
0
330
0
330
0
330
0
330
0
330
0
330
0
330
0
330
0
330
0
330
0
330
0
330
0
330
0
330
0
330
0
330
0
330
0
330
0
330
0
330
0
330
0
330
0
330
0
330
0
330
0
330
0
330
0
330
0
330
0
330
0
330
0
330
0
330
0
330
0
330
0
330
0
330
0
330
0
330
0
330
0
330
0
330
0
330
0
330
0
330
0
330
0
330
0
330
0
330
0
330
0
330
0
330
0
330
0
330
0
330
0
330
0
330
0
330
0
330
0
330
0
330
0
330
0
330
0
330
0
330
0
330
0
330
0
330
0
330
0
330
0
330
0
330
0
330
0
330
0
330
0
330
0
330
0
330
0
330
0
330
0
330
0
330
0
330
0
330
0
330
0
330
0
330
0
330
0
330
0
330
0
330
0
330
0
330
0
330
0
330
0
330
0
330
0
330
0
330
0
330
0
330
0
330
0
330
0
330
0
330
0
330
0
330
0
330
0
330
0
330
0
330
0
330
0
330
0
330
0
330
0
330
0
330
0
330
0
330
0
330
0
330
0
330
0
330
0
330
0
330
0
330
0
330
0
330
0
330
0
330
0
330
0
330
0
330
0
330
0
330
0
330
0
330
0
330
0
330
0
330
0
330
0
330
0
330
0
330
0
330
0
330
0
330
0
330
0
330
0
330
0
330
0
330
0
330
0
330
0
330
0
330
0
330
0
330
0
330
0
330
0
330
0
330
0
330
0
330
0
330
0
330
0
330
0
330
0
330
0
330
0
330
0
330
0
330
0
330
0
330
0
330
0
330
0
330
0
330
0
330
0
330
0
330
0
330
0
330
0
330
0
330
0
330
0
330
0
330
0
330
0
330
0
330
0
330
0
330
0
330
0
330
0
330
0
330
0
330
0
330
0
330
0
330
0
330
0
330
0
330
0
330
0
330
0
330
0
330
0
330
0
330
0
330
0
330
0
330
0
330
0
330
0
330
0
330
0
330
0
330
0
330
0
330
0
330
0
330
0
330
0
330
0
330
0
330
0
330
0
330
0
330
0
330
0
330
0
330
0
330
0
330
0
330
0
330
0
330
0
330
0
330
0
330
0
330
0
330
0
330
0
330
0
330
0
330
0
330
0
330
0
330
0
330
0
330
0
330
0
330
0
330
0
330
0
330
0
330
0
330
0
330
0
330
0
330
0
330
0
330
0
330
0
330
0
330
0
330
0
330
0
330
0
330
0
330
0
330
0
330
0
330
0
330
0
330
0
330
0
330
0
330
0
330
0
330
0
330
0
330
0
330
0
330
0
330
0
330
0
330
0
330
0
330
0
330
0
330
0
330
0
330
0
330
0
330
0
330
0
330
0
330
0
330
0
330
0
330
0
330
0
330
0
330
0
330
0
330
0
330
0
330
0
330
0
330
0
330
0
330
0
330
0
330
0
330
0
330
0
330
0
330
0
330
0
330
0
330
0
330
0
330
0
330
0
330
0
330
0
330
0
330
0
330
0
330
0
330
0
330
0
330
0
330
0
330
0
330
0
330
0
330
0
330
0
330
0
330
0
330
0
330
0
330
0
330
0
330
0
330
0
330
0
330
0
330
0
330
0
330
0
330
0
330
0
330
0
330
0
330
0
330
0
330
0
330
0
330
0
330
0
330
0
330
0
330
0
330
0
330
0
330
0
330
0
330
0
330
0
330
0
330
0
330
0
330
0
330
0
330
0
330
0
330
0
330
0
330
0
330
0
330
0
330
0
330
0
330
0
330
0
330
0
330
0
330
0
330
0
330
0
330
0
330
0
330
0
330
0
330
0
330
0
330
0
330
0
330
0
330
0
330
0
330
0
330
0
330
0
330
0
330
0
330
0
330
0
330
0
330
0
330
0
330
0
330
0
330
0
330
0
330
0
330
0
330
0
330
0
330
0
330
0
330
0
330
0
330
0
330
0
330
0
330
0
330
0
330
0
330
0
330
0
330
0
330
0
330
0
330
0
330
0
330
0
330
0
330
0
330
0
330
0
330
0
330
0
330
0
330
0
330
0
330
0
330
0
330
0
330
0
330
0
330
0
330
0
330
0
330
0
330
0
330
0
330
0
330
0
330
0
330
0
330
0
330
0
330
0
330
0
330
0
330
0
330
0
330
0
330
0
330
0
330
0
330
0
330
0
330
0
330
0
330
0
330
0
330
0
330
0
330
0
330
0
330
0
330
0
330
0
330
0
330
0
330
0
330
0
330
0
330
0
330
0
330
0
330
0
330
0
330
0
330
0
330
0
330
0
330
0
330
0
330
0
330
0
330
0
330
0
330
0
330
0
330
0
330
0
330
0
330
0
330
0
330
0
330
0
330
0
330
0
330
0
330
0
330
0
330
0
330
0
330
0
330
0
330
0
330
0
330
0
330
0
330
0
330
0
330
0
330
0
330
0
330
0
330
0
330
0
330
0
330
0
330
0
330
0
330
0
330
0
330
0
330
0
330
0
330
0
330
0
330
0
330
0
330
0
330
0
330
0
330
0
330
0
330
0
330
0
330
0
330
0
330
0
330
0
330
0
330
0
330
0
330
0
330
0
330
0
330
0
330
0
330
0
330
0
330
0
330
0
330
0
330
0
330
0
330
0
330
0
330
0
330
0
330
0
330
0
330
0
330
0
330
0
330
0
330
0
330
0
330
0
330
0
330
0
330
0
330
0
330
0
330
0
330
0
330
0
330
0
330
0
330
0
330
0
330
0
330
0
330
0
330
0
330
0
330
0
330
0
330
0
330
0
330
0
330
0
330
0
330
0
330
0
330
0
330
0
330
0
330
0
330
0
330
0
330
0
330
0
330
0
330
0
330
0
330
0
330
0
330
0
330
0
330
0
330
0
330
0
330
0
330
0
330
0
330
0
330
0
330
0
330
0
330
0
330
0
330
0
330
0
330
0
330
0
330
0
330
0
330
0
330
0
330
0
330
0
330
0
330
0
330
0
330
0
330
0
330
0
330
0
330
0
330
0
330
0
330
0
330
0
330
0
330
0
330
0
330
0
330
0
330
0
330
0
330
0
330
0
330
0
330
0
330
0
330
0
330
0
330
0
330
0
330
0
330
0
330
0
330
0
330
0
330
0
330
0
330
0
330
0
330
0
330
0
330
0
330
0
330
0
330
0
330
0
330
0
330
0
330
0
330
0
330
0
330
0
330
0
330
0
330
0
330
0
330
0
330
0
330
0
330
0
330
0
330
0
330
0
330
0
330
0
330
0
330
0
330
0
330
0
330
0
330
0
330
0
330
0
330
0
330
0
330
0
330
0
330
0
330
0
330
0
330
0
330
0
330
0
330
0
330
0
330
0
330
0
330
0
330
0
330
0
330
0
330
0
330
0
330
0
330
0
330
0
330
0
330
0
330
0
330
0
330
0
330
0
330
0
330
0
330
0
330
0
330
0
330
0
330
0
330
0
330
0
330
0
330
0
330
0
330
0
330
0
330
0
330
0
330
0
330
0
330
0
330
0
330
0
330
0
330
0
330
0
330
0
330
0
330
0
330
0
330
0
330
0
330
0
330
0
330
0
330
0
330
0
330
0
330
0
330
0
330
0
330
0
330
0
330
0
330
0
330
0
330
0
330
0
330
0
330
0
330
0
330
0
330
0
330
0
330
0
330
0
330
0
330
0
330
0
330
0
330
0
330
0
330
0
330
0
330
0
330
0
330
0
330
0
330
0
330
0
330
0
330
0
330
0
330
0
330
0
330
0
330
0
330
0
330
0
330
0
330
0
330
0
330
0
330
0
330
0
330
0
330
0
330
0
330
0
330
0
330
0
330
0
330
0
330
0
330
0
330
0
330
0
330
0
330
0
330
0
330
0
330
0
330
0
330
0
330
0
330
0
330
0
330
0
330
0
330
0
330
0
330
0
330
0
330
0
330
0
330
0
330
0
330
0
330
0
330
0
330
0
330
0
330
0
330
0
330
0
330
0
330
0
330
0
330
0
330
0
330
0
330
0
330
0
330
0
330
0
330
0
330
0
330
0
330
0
330
0
330
0
330
0
330
0
330
0
330
0
330
0
330
0
330
0
330
0
330
0
330
0
330
0
330
0
330
0
330
0
330
0
330
0
330
0
330
0
330
0
330
0
330
0
330
0
330
0
330
0
330
0
330
0
330
0
330
0
330
0
330
0
330
0
330
0
330
0
330
0
330
0
330
0
330
0
330
0
330
0
330
0
330
0
330
0
330
0
330
0
330
0
330
0
330
0
330
0
330
0
330
0
330
0
330
0
330
0
330
0
330
0
330
0
330
0
330
0
330
0
330
0
330
0
330
0
330
0
330
0
330
0
330
0
330
0
330
0
330
0
330
0
330
0
330
0
330
0
330
0
330
0
330
0
330
0
330
0
330
0
330
0
330
0
330
0
330
0
330
0
330
0
330
0
330
0
330
0
330
0
330
0
330
0
330
0
330
0
330
0
330
0
330
0
330
0
330
0
330
0
330
0
330
0
330
0
330
0
330
0
330
0
330
0
330
0
330
0
330
0
330
0
330
0
330
0
330
0
330
0
330
0
330
0
330
0
330
0
330
0
330
0
330
0
330
0
330
0
330
0
330
0
330
0
330
0
330
0
330
0
330
0
330
0
330
0
330
0
330
0
330
0
330
0
330
0
330
0
330
0
330
0
330
0
330
0
330
0
330
0
330
0
330
0
330
0
330
0
330
0
330
0
330
0
330
0
330
0
330
0
330
0
330
0
330
0
330
0
330
0
330
0
330
0
330
0
330
0
330
0
330
0
330
0
330
0
330
0
330
0
330
0
330
0
330
0
330
0
330
0
330
0
330
0
330
0
330
0
330
0
330
0
330
0
330
0
330
0
330
0
330
0
330
0
330
0
330
0
330
0
330
0
330
0
330
0
330
0
330
0
330
0
330
0
330
0
330
0
330
0
330
0
330
0
330
0
330
0
330
0
330
0
330
0
330
0
330
0
330
0
330
0
330
0
330
0
330
0
330
0
330
0
330
0
330
0
330
0
330
0
330
0
330
0
330
0
330
0
330
0
330
0
330
0
330
0
330
0
330
0
330
0
330
0
330
0
330
0
330
0
330
0
330
0
330
0
330
0
330
0
330
0
330
0
330
0
330
0
330
0
330
0
330
0
330
0
330
0
330
0
330
0
330
0
330
0
330
0
330
0
330
0
330
0
330
0
330
0
330
0
330
0
330
0
330
0
330
0
330
0
330
0
330
0
330
0
330
0
330
0
330
0
330
0
330
0
330
0
330
0
330
0
330
0
330
0
330
0
330
0
330
0
330
0
330
0
330
0
330
0
330
0
330
0
330
0
330
0
330
0
330
0
330
0
330
0
330
0
330
0
330
0
330
0
330
0
330
0
330
0
330
0
330
0
330
0
330
0
330
0
330
0
330
0
330
0
330
0
330
0
330
0
330
0
330
0
330
0
330
0
330
0
330
0
330
0
330
0
330
0
330
0
330
0
330
0
330
0
330
0
330
0
330
0
330
0
330
0
330
0
330
0
330
0
330
0
330
0
330
0
330
0
330
0
330
0
330
0
330
0
330
0
330
0
330
0
330
0
330
0
330
0
330
0
330
0
330
0
330
0
330
0
330
0
330
0
330
0
330
0
330
0
330
0
330
0
330
0
330
0
330
0
330
0
330
0
330
0
330
0
330
0
330
0
330
0
330
0
330
0
330
0
330
0
330
0
330
0
330
0
330
0
330
0
330
0
330
0
330
0
330
0
330
0
330
0
330
0
330
0
330
0
330
0
330
0
330
0
330
0
330
0
330
0
330
0
330
0
330
0
330
0
330
0
330
0
330
0
330
0
330
0
330
0
330
0
330
0
330
0
330
0
330
0
330
0
330
0
330
0
330
0
330
0
330
0
330
0
330
0
330
0
330
0
330
0
330
0
330
0
330
0
330
0
330
0
330
0
330
0
330
0
330
0
330
0
330
0
330
0
330
0
330
0
330
0
330
0
330
0
330
0
330
0
330
0
330
0
330
0
  0
XRECORD
  5
3FB7
102
{ACAD_REACTORS
330
3F96
102
}
330
3F96
100
AcDbXrecord
280
     1
 91
        3
330
0
 90
        8
 62
     7
370
    40
331
16
  1
Color_7
330
0
 90
        0
 62
    14
370
    -3
331
16
  1
Color_14
330
0
 90
        8
 62
     7
370
    20
331
16
  1
Color_7
330
6D1
 90
        0
 62
     7
370
    -3
331
16
  1
Color_7
330
0
 90
        8
 62
     7
370
    50
331
16
  1
Color_7
330
0
 90
        8
 62
     2
370
    35
331
16
  1
Color_2
330
0
 90
        8
 62
     7
370
    -3
331
16
  1
Color_7
330
10
 90
        8
 62
     7
370
    -3
331
16
  1
Color_7
  0
DICTIONARY
  5
5B6BE
330
22
100
AcDbDictionary
280
     1
281
     1
  3
ACAD_XREC_ROUNDTRIP
360
5B6BF
  0
DICTIONARY
  5
5B6BC
330
1E
100
AcDbDictionary
280
     1
281
     1
  3
ACAD_XREC_ROUNDTRIP
360
5B6BD
  0
DICTIONARY
  5
5B6C0
330
26
100
AcDbDictionary
280
     1
281
     1
  3
ACAD_XREC_ROUNDTRIP
360
5B6C1
  0
DICTIONARY
  5
5B6C6
330
B0EF
100
AcDbDictionary
280
     1
281
     1
  3
ACAD_XREC_ROUNDTRIP
360
5B6C7
  0
DICTIONARY
  5
5B6C4
330
B0EE
100
AcDbDictionary
280
     1
281
     1
  3
ACAD_XREC_ROUNDTRIP
360
5B6C5
  0
DICTIONARY
  5
5B6C8
330
B0F0
100
AcDbDictionary
280
     1
281
     1
  3
ACAD_XREC_ROUNDTRIP
360
5B6C9
  0
DICTIONARY
  5
5B6C2
330
AABA
100
AcDbDictionary
280
     1
281
     1
  3
ACAD_XREC_ROUNDTRIP
360
5B6C3
  0
XRECORD
  5
5B6BF
102
{ACAD_REACTORS
330
5B6BE
102
}
330
5B6BE
100
AcDbXrecord
280
     1
102
SHADEPLOT
 70
     0
102
SHADEPLOTRESLEVEL
 70
     2
102
SHADEPLOTCUSTOMDPI
 70
   200
  0
XRECORD
  5
5B6BD
102
{ACAD_REACTORS
330
5B6BC
102
}
330
5B6BC
100
AcDbXrecord
280
     1
102
SHADEPLOT
 70
     0
102
SHADEPLOTRESLEVEL
 70
     2
102
SHADEPLOTCUSTOMDPI
 70
   300
  0
XRECORD
  5
5B6C1
102
{ACAD_REACTORS
330
5B6C0
102
}
330
5B6C0
100
AcDbXrecord
280
     1
102
SHADEPLOT
 70
     0
102
SHADEPLOTRESLEVEL
 70
     2
102
SHADEPLOTCUSTOMDPI
 70
   300
  0
XRECORD
  5
5B6C7
102
{ACAD_REACTORS
330
5B6C6
102
}
330
5B6C6
100
AcDbXrecord
280
     1
102
MATERIAL
148
0.0
149
0.0
149
0.0
 93
        0
 94
       63
282
     0
 72
     1
 77
     1
171
     1
175
     1
179
     1
273
     0
  0
XRECORD
  5
5B6C5
102
{ACAD_REACTORS
330
5B6C4
102
}
330
5B6C4
100
AcDbXrecord
280
     1
102
MATERIAL
148
0.0
149
0.0
149
0.0
 93
        0
 94
       63
282
     0
 72
     1
 77
     1
171
     1
175
     1
179
     1
273
     0
  0
XRECORD
  5
5B6C9
102
{ACAD_REACTORS
330
5B6C8
102
}
330
5B6C8
100
AcDbXrecord
280
     1
102
MATERIAL
148
0.0
149
0.0
149
0.0
 93
        0
 94
       63
282
     0
 72
     1
 77
     1
171
     1
175
     1
179
     1
273
     0
  0
XRECORD
  5
5B6C3
102
{ACAD_REACTORS
330
5B6C2
102
}
330
5B6C2
100
AcDbXrecord
280
     1
102
ACAD_ROUNDTRIP_PRE2007_TABLESTYLE
 90
        4
 91
        0
  1

 92
        4
 93
        0
  2

 94
        4
 95
        0
  3

  0
ENDSEC
  0
EOF
