  0
SECTION
  2
HEADER
  9
$ACADVER
  1
AC1015
  9
$ACADMAINTVER
 70
    20
  9
$DWGCODEPAGE
  3
ANSI_932
  9
$INSBASE
 10
0.0
 20
0.0
 30
0.0
  9
$EXTMIN
 10
6074.924675701049
 20
-492.0698612845167
 30
0.0
  9
$EXTMAX
 10
6371.924675701049
 20
-282.0698612845167
 30
0.0
  9
$LIMMIN
 10
3779.599158088851
 20
100.7134268036752
  9
$LIMMAX
 10
9719.599158088852
 20
4300.713426803675
  9
$ORTHOMODE
 70
     0
  9
$REGENMODE
 70
     1
  9
$FILLMODE
 70
     1
  9
$QTEXTMODE
 70
     0
  9
$MIRRTEXT
 70
     0
  9
$LTSCALE
 40
1.0
  9
$ATTMODE
 70
     1
  9
$TEXTSIZE
 40
3.2
  9
$TRACEWID
 40
1.0
  9
$TEXTSTYLE
  7
STANDARD
  9
$CLAYER
  8
0部品18
  9
$CELTYPE
  6
ByLayer
  9
$CECOLOR
 62
   256
  9
$CELTSCALE
 40
1.0
  9
$DISPSILH
 70
     0
  9
$DIMSCALE
 40
1.0
  9
$DIMASZ
 40
1.0
  9
$DIMEXO
 40
1.0
  9
$DIMDLI
 40
10.0
  9
$DIMRND
 40
0.0
  9
$DIMDLE
 40
0.0
  9
$DIMEXE
 40
1.0
  9
$DIMTP
 40
0.1
  9
$DIMTM
 40
0.1
  9
$DIMTXT
 40
3.5
  9
$DIMCEN
 40
0.0
  9
$DIMTSZ
 40
0.0
  9
$DIMTOL
 70
     0
  9
$DIMLIM
 70
     0
  9
$DIMTIH
 70
     0
  9
$DIMTOH
 70
     0
  9
$DIMSE1
 70
     0
  9
$DIMSE2
 70
     0
  9
$DIMTAD
 70
     1
  9
$DIMZIN
 70
     8
  9
$DIMBLK
  1

  9
$DIMASO
 70
     1
  9
$DIMSHO
 70
     1
  9
$DIMPOST
  1

  9
$DIMAPOST
  1
"
  9
$DIMALT
 70
     0
  9
$DIMALTD
 70
     2
  9
$DIMALTF
 40
0.0393701
  9
$DIMLFAC
 40
1.0
  9
$DIMTOFL
 70
     1
  9
$DIMTVP
 40
0.0
  9
$DIMTIX
 70
     0
  9
$DIMSOXD
 70
     0
  9
$DIMSAH
 70
     0
  9
$DIMBLK1
  1

  9
$DIMBLK2
  1

  9
$DIMSTYLE
  2
SYS
  9
$DIMCLRD
 70
   256
  9
$DIMCLRE
 70
   256
  9
$DIMCLRT
 70
     7
  9
$DIMTFAC
 40
0.71
  9
$DIMGAP
 40
1.5
  9
$DIMJUST
 70
     0
  9
$DIMSD1
 70
     0
  9
$DIMSD2
 70
     0
  9
$DIMTOLJ
 70
     0
  9
$DIMTZIN
 70
     8
  9
$DIMALTZ
 70
     0
  9
$DIMALTTZ
 70
     0
  9
$DIMUPT
 70
     0
  9
$DIMDEC
 70
     2
  9
$DIMTDEC
 70
     2
  9
$DIMALTU
 70
     2
  9
$DIMALTTD
 70
     2
  9
$DIMTXSTY
  7
STANDARD
  9
$DIMAUNIT
 70
     0
  9
$DIMADEC
 70
     0
  9
$DIMALTRND
 40
0.0
  9
$DIMAZIN
 70
     2
  9
$DIMDSEP
 70
    46
  9
$DIMATFIT
 70
     3
  9
$DIMFRAC
 70
     0
  9
$DIMLDRBLK
  1

  9
$DIMLUNIT
 70
     2
  9
$DIMLWD
 70
    -1
  9
$DIMLWE
 70
    -1
  9
$DIMTMOVE
 70
     0
  9
$LUNITS
 70
     2
  9
$LUPREC
 70
     2
  9
$SKETCHINC
 40
1.0
  9
$FILLETRAD
 40
1.5
  9
$AUNITS
 70
     0
  9
$AUPREC
 70
     0
  9
$MENU
  1
.
  9
$ELEVATION
 40
0.0
  9
$PELEVATION
 40
0.0
  9
$THICKNESS
 40
0.0
  9
$LIMCHECK
 70
     0
  9
$CHAMFERA
 40
0.0
  9
$CHAMFERB
 40
0.0
  9
$CHAMFERC
 40
20.0
  9
$CHAMFERD
 40
0.0
  9
$SKPOLY
 70
     0
  9
$TDCREATE
 40
2455567.680725081
  9
$TDUCREATE
 40
2455567.305725081
  9
$TDUPDATE
 40
2456338.852450625
  9
$TDUUPDATE
 40
2456338.477450625
  9
$TDINDWG
 40
7.9309540856
  9
$TDUSRTIMER
 40
7.9309524537
  9
$USRTIMER
 70
     1
  9
$ANGBASE
 50
0.0
  9
$ANGDIR
 70
     0
  9
$PDMODE
 70
     0
  9
$PDSIZE
 40
-3.0
  9
$PLINEWID
 40
0.0
  9
$SPLFRAME
 70
     0
  9
$SPLINETYPE
 70
     6
  9
$SPLINESEGS
 70
     8
  9
$HANDSEED
  5
5C553
  9
$SURFTAB1
 70
     6
  9
$SURFTAB2
 70
     6
  9
$SURFTYPE
 70
     6
  9
$SURFU
 70
     6
  9
$SURFV
 70
     6
  9
$UCSBASE
  2

  9
$UCSNAME
  2

  9
$UCSORG
 10
0.0
 20
0.0
 30
0.0
  9
$UCSXDIR
 10
1.0
 20
0.0
 30
0.0
  9
$UCSYDIR
 10
0.0
 20
1.0
 30
0.0
  9
$UCSORTHOREF
  2

  9
$UCSORTHOVIEW
 70
     0
  9
$UCSORGTOP
 10
0.0
 20
0.0
 30
0.0
  9
$UCSORGBOTTOM
 10
0.0
 20
0.0
 30
0.0
  9
$UCSORGLEFT
 10
0.0
 20
0.0
 30
0.0
  9
$UCSORGRIGHT
 10
0.0
 20
0.0
 30
0.0
  9
$UCSORGFRONT
 10
0.0
 20
0.0
 30
0.0
  9
$UCSORGBACK
 10
0.0
 20
0.0
 30
0.0
  9
$PUCSBASE
  2

  9
$PUCSNAME
  2

  9
$PUCSORG
 10
0.0
 20
0.0
 30
0.0
  9
$PUCSXDIR
 10
1.0
 20
0.0
 30
0.0
  9
$PUCSYDIR
 10
0.0
 20
1.0
 30
0.0
  9
$PUCSORTHOREF
  2

  9
$PUCSORTHOVIEW
 70
     0
  9
$PUCSORGTOP
 10
0.0
 20
0.0
 30
0.0
  9
$PUCSORGBOTTOM
 10
0.0
 20
0.0
 30
0.0
  9
$PUCSORGLEFT
 10
0.0
 20
0.0
 30
0.0
  9
$PUCSORGRIGHT
 10
0.0
 20
0.0
 30
0.0
  9
$PUCSORGFRONT
 10
0.0
 20
0.0
 30
0.0
  9
$PUCSORGBACK
 10
0.0
 20
0.0
 30
0.0
  9
$USERI1
 70
     0
  9
$USERI2
 70
     0
  9
$USERI3
 70
     0
  9
$USERI4
 70
     0
  9
$USERI5
 70
     0
  9
$USERR1
 40
0.0
  9
$USERR2
 40
0.0
  9
$USERR3
 40
0.0
  9
$USERR4
 40
0.0
  9
$USERR5
 40
0.0
  9
$WORLDVIEW
 70
     1
  9
$SHADEDGE
 70
     3
  9
$SHADEDIF
 70
    70
  9
$TILEMODE
 70
     1
  9
$MAXACTVP
 70
    64
  9
$PINSBASE
 10
0.0
 20
0.0
 30
0.0
  9
$PLIMCHECK
 70
     0
  9
$PEXTMIN
 10
1.000000000000000E+20
 20
1.000000000000000E+20
 30
1.000000000000000E+20
  9
$PEXTMAX
 10
-1.000000000000000E+20
 20
-1.000000000000000E+20
 30
-1.000000000000000E+20
  9
$PLIMMIN
 10
-3.17498779296875
 20
-3.174999952316284
  9
$PLIMMAX
 10
293.4970092773438
 20
206.692492723465
  9
$UNITMODE
 70
     0
  9
$VISRETAIN
 70
     1
  9
$PLINEGEN
 70
     0
  9
$PSLTSCALE
 70
     1
  9
$TREEDEPTH
 70
  3020
  9
$CMLSTYLE
  2
Standard
  9
$CMLJUST
 70
     0
  9
$CMLSCALE
 40
20.0
  9
$PROXYGRAPHICS
 70
     1
  9
$MEASUREMENT
 70
     1
  9
$CELWEIGHT
370
    -1
  9
$ENDCAPS
280
     0
  9
$JOINSTYLE
280
     0
  9
$LWDISPLAY
290
     1
  9
$INSUNITS
 70
     4
  9
$HYPERLINKBASE
  1

  9
$STYLESHEET
  1
monochrome.ctb
  9
$XEDIT
290
     1
  9
$CEPSNTYPE
380
     0
  9
$PSTYLEMODE
290
     1
  9
$FINGERPRINTGUID
  2
{487E49EE-344A-43F6-800E-CE119D8346FF}
  9
$VERSIONGUID
  2
{20DD7729-C22A-494B-AED8-D6CF7E554F7B}
  9
$EXTNAMES
290
     1
  9
$PSVPSCALE
 40
0.0
  9
$OLESTARTUP
290
     0
  0
ENDSEC
  0
SECTION
  2
CLASSES
  0
CLASS
  1
ACDBDICTIONARYWDFLT
  2
AcDbDictionaryWithDefault
  3
ObjectDBX Classes
 90
        0
280
     0
281
     0
  0
CLASS
  1
ACDBPLACEHOLDER
  2
AcDbPlaceHolder
  3
ObjectDBX Classes
 90
        0
280
     0
281
     0
  0
CLASS
  1
LAYOUT
  2
AcDbLayout
  3
ObjectDBX Classes
 90
        0
280
     0
281
     0
  0
CLASS
  1
AMGSETTINGSOBJ
  2
AmgSettingsObj
  3
"AcadM|Product Description: AutoCAD Mechanical|Company: Autodesk"
 90
        0
280
     0
281
     0
  0
CLASS
  1
ACME_DOCUMENT
  2
AcMeDbDoc
  3
AcMeServices
 90
        0
280
     0
281
     0
  0
CLASS
  1
ACMESCOPE
  2
AcMeScope
  3
AcMeServices
 90
        0
280
     0
281
     0
  0
CLASS
  1
ACMECOMMANDHISTORY
  2
AcMeCommandHistory
  3
AcMeServices
 90
        0
280
     0
281
     0
  0
CLASS
  1
DICTIONARYVAR
  2
AcDbDictionaryVar
  3
ObjectDBX Classes
 90
        0
280
     0
281
     0
  0
CLASS
  1
ACIMSYSVARMAN
  2
AcImSysVarManager
  3
AcMeServices
 90
        0
280
     0
281
     0
  0
CLASS
  1
ACIMREALSYSVAR
  2
AcImRealSysVar
  3
AcMeServices
 90
        0
280
     0
281
     0
  0
CLASS
  1
ACIMINTSYSVAR
  2
AcImIntSysVar
  3
AcMeServices
 90
        0
280
     0
281
     0
  0
CLASS
  1
ACMEDRAWINGMAN
  2
AcMeDrawingMan
  3
AcMeServices
 90
        0
280
     0
281
     0
  0
CLASS
  1
ACMEVIEW
  2
AcMeView
  3
AcMeServices
 90
        0
280
     0
281
     0
  0
CLASS
  1
ACDBENTITYCACHE
  2
AcMeEntityCache
  3
AcMeServices
 90
        0
280
     0
281
     0
  0
CLASS
  1
GSMANAGER
  2
AcMeGSManager
  3
AcMeServices
 90
        0
280
     0
281
     0
  0
CLASS
  1
AMDTINTERNALREACTOR
  2
AmdtInternalReactor
  3
AcMeServices
 90
        0
280
     0
281
     0
  0
CLASS
  1
ACMESTATEMGR
  2
AcMeStateMgr
  3
AcMeServices
 90
        0
280
     0
281
     0
  0
CLASS
  1
ACGREFMASTER
  2
AcGrefMaster
  3
AcAttribServices
 90
        0
280
     0
281
     0
  0
CLASS
  1
ACME_DATABASE
  2
AcMeDbDatabase
  3
AcMeServices
 90
        0
280
     0
281
     0
  0
CLASS
  1
ACRFINSADJUSTERMGR
  2
AcRfInsAdjusterMgr
  3
AcMeServices
 90
        0
280
     0
281
     0
  0
CLASS
  1
ACGREFACADMASTER
  2
AcGrefacadMaster
  3
AcGrefServices
 90
        0
280
     0
281
     0
  0
CLASS
  1
AMIMASTER
  2
AmiMaster
  3
AmiServices
 90
        0
280
     0
281
     0
  0
CLASS
  1
ACMDATADICTIONARY
  2
AcmDataDictionary
  3
"AcmSymBB|Product Description: AutoCAD Mechanical|Company: Autodesk"
 90
        0
280
     0
281
     0
  0
CLASS
  1
ACMDATAENTRYBLOCK
  2
AcmDataEntryBlock
  3
"AcmSymBB|Product Description: AutoCAD Mechanical|Company: Autodesk"
 90
        0
280
     0
281
     0
  0
CLASS
  1
ACIMSTRSYSVAR
  2
AcImStrSysVar
  3
AcMeServices
 90
        0
280
     0
281
     0
  0
CLASS
  1
ACMSTANDARDISO
  2
AcmStandardISO
  3
"Amdt_StdImp|Product Description: AutoCAD Mechanical|Company: Autodesk"
 90
        0
280
     0
281
     0
  0
CLASS
  1
AMGOBJPROPCFG
  2
AmgObjPropCfg
  3
"AmgLay|Product Description: AutoCAD Mechanical|Company: Autodesk"
 90
        1
280
     0
281
     0
  0
CLASS
  1
AMDTEDGESTANDARDISO
  2
AmdtEdgeStdISO
  3
"Amdt_StdImp|Product Description: AutoCAD Mechanical|Company: Autodesk"
 90
        0
280
     0
281
     0
  0
CLASS
  1
ACMSURFSTANDARDISO
  2
AcmSurfTextStdISO
  3
"Amdt_StdImp|Product Description: AutoCAD Mechanical|Company: Autodesk"
 90
        0
280
     0
281
     0
  0
CLASS
  1
ACMFCFSTANDARDISO
  2
AcmFCFStdISO
  3
"Amdt_StdImp|Product Description: AutoCAD Mechanical|Company: Autodesk"
 90
        0
280
     0
281
     0
  0
CLASS
  1
ACMWELDSTANDARDISO
  2
AcmWeldingStdISO
  3
"Amdt_StdImp|Product Description: AutoCAD Mechanical|Company: Autodesk"
 90
        0
280
     0
281
     0
  0
CLASS
  1
ACMIDSTANDARDISO
  2
AcmIdStdISO
  3
"Amdt_StdImp|Product Description: AutoCAD Mechanical|Company: Autodesk"
 90
        0
280
     0
281
     0
  0
CLASS
  1
ACMDATUMSTANDARDISO
  2
AcmDatumStdISO
  3
"Amdt_StdImp|Product Description: AutoCAD Mechanical|Company: Autodesk"
 90
        0
280
     0
281
     0
  0
CLASS
  1
ACMBOMSTANDARDISO
  2
AcmBOMStdISO
  3
"Amdt_StdImp|Product Description: AutoCAD Mechanical|Company: Autodesk"
 90
        0
280
     0
281
     0
  0
CLASS
  1
ACMDETAILSTANDARDISO
  2
AmdtDetailSymStdISO
  3
"Amdt_StdImp|Product Description: AutoCAD Mechanical|Company: Autodesk"
 90
        0
280
     0
281
     0
  0
CLASS
  1
ACMSECTIONSTANDARDISO
  2
AmdtSectionSymStdISO
  3
"Amdt_StdImp|Product Description: AutoCAD Mechanical|Company: Autodesk"
 90
        0
280
     0
281
     0
  0
CLASS
  1
ACMCENTERLINESTANDARDISO
  2
AmdtCenterLineStdISO
  3
"Amdt_StdImp|Product Description: AutoCAD Mechanical|Company: Autodesk"
 90
        0
280
     0
281
     0
  0
CLASS
  1
ACAMGLAYSTD
  2
AcAmgLayStd
  3
"AmgLay|Product Description: AutoCAD Mechanical|Company: Autodesk"
 90
        0
280
     0
281
     0
  0
CLASS
  1
ACAMGDIMSTD
  2
AcAmgDimStd
  3
"AmgDim|Product Description: AutoCAD Mechanical|Company: Autodesk"
 90
        0
280
     0
281
     0
  0
CLASS
  1
ACAMGTITLESTD
  2
AcAmgTitleStd
  3
"AmgTitle|Product Description: AutoCAD Mechanical|Company: Autodesk"
 90
        0
280
     0
281
     0
  0
CLASS
  1
ACAMGFILTERDAT
  2
AcAmgFilterDat
  3
"AcadM|Product Description: AutoCAD Mechanical|Company: Autodesk"
 90
        0
280
     0
281
     0
  0
CLASS
  1
LAYER_INDEX
  2
AcDbLayerIndex
  3
ObjectDBX Classes
 90
    32768
280
     0
281
     0
  0
CLASS
  1
IDBUFFER
  2
AcDbIdBuffer
  3
ObjectDBX Classes
 90
    32768
280
     0
281
     0
  0
CLASS
  1
PLOTSETTINGS
  2
AcDbPlotSettings
  3
ObjectDBX Classes
 90
    32768
280
     0
281
     0
  0
CLASS
  1
AMDTFORMULAUPDATEDISPATCHER
  2
AmdtFormulaUpdateDispatcher
  3
AcMeServices
 90
        0
280
     0
281
     0
  0
CLASS
  1
ACMSTANDARDANSI
  2
AcmStandardANSI
  3
"Amdt_StdImp|Product Description: AutoCAD Mechanical|Company: Autodesk"
 90
        0
280
     0
281
     0
  0
CLASS
  1
ACMSURFSTANDARDANSI
  2
AcmSurfTextStdANSI
  3
"Amdt_StdImp|Product Description: AutoCAD Mechanical|Company: Autodesk"
 90
        0
280
     0
281
     0
  0
CLASS
  1
ACMFCFSTANDARDANSI
  2
AcmFCFStdANSI
  3
"Amdt_StdImp|Product Description: AutoCAD Mechanical|Company: Autodesk"
 90
        0
280
     0
281
     0
  0
CLASS
  1
ACMWELDSTANDARDANSI
  2
AcmWeldingStdANSI
  3
"Amdt_StdImp|Product Description: AutoCAD Mechanical|Company: Autodesk"
 90
        0
280
     0
281
     0
  0
CLASS
  1
ACMIDSTANDARDANSI
  2
AcmIdStdANSI
  3
"Amdt_StdImp|Product Description: AutoCAD Mechanical|Company: Autodesk"
 90
        0
280
     0
281
     0
  0
CLASS
  1
ACMDATUMSTANDARDANSI
  2
AcmDatumStdANSI
  3
"Amdt_StdImp|Product Description: AutoCAD Mechanical|Company: Autodesk"
 90
        0
280
     0
281
     0
  0
CLASS
  1
ACMBOMSTANDARDANSI
  2
AcmBOMStdANSI
  3
"Amdt_StdImp|Product Description: AutoCAD Mechanical|Company: Autodesk"
 90
        0
280
     0
281
     0
  0
CLASS
  1
ACMDETAILSTANDARDANSI
  2
AmdtDetailSymStdANSI
  3
"Amdt_StdImp|Product Description: AutoCAD Mechanical|Company: Autodesk"
 90
        0
280
     0
281
     0
  0
CLASS
  1
ACMSECTIONSTANDARDANSI
  2
AmdtSectionSymStdANSI
  3
"Amdt_StdImp|Product Description: AutoCAD Mechanical|Company: Autodesk"
 90
        0
280
     0
281
     0
  0
CLASS
  1
ACMCENTERLINESTANDARDANSI
  2
AmdtCenterLineStdANSI
  3
"Amdt_StdImp|Product Description: AutoCAD Mechanical|Company: Autodesk"
 90
        0
280
     0
281
     0
  0
CLASS
  1
ACMBOM
  2
AcmBom
  3
"AcmSymBB|Product Description: AutoCAD Mechanical|Company: Autodesk"
 90
        0
280
     0
281
     0
  0
CLASS
  1
ACMDATAENTRYPART
  2
AcmDataEntryPart
  3
"AcmSymBB|Product Description: AutoCAD Mechanical|Company: Autodesk"
 90
    32768
280
     0
281
     0
  0
CLASS
  1
ACMPARTREF
  2
AcmPartRef
  3
"AcmSymBB|Product Description: AutoCAD Mechanical|Company: Autodesk"
 90
    35839
280
     0
281
     1
  0
CLASS
  1
ACDBCIRCARCRES
  2
AcDbCircArcRes
  3
AcGrefServices
 90
    32768
280
     0
281
     0
  0
CLASS
  1
ACMBOMROW
  2
AcmBomRow
  3
"AcmSymBB|Product Description: AutoCAD Mechanical|Company: Autodesk"
 90
    32768
280
     0
281
     0
  0
CLASS
  1
ACMBALLOON
  2
AcmBalloon
  3
"AcmSymBB|Product Description: AutoCAD Mechanical|Company: Autodesk"
 90
    35839
280
     0
281
     1
  0
CLASS
  1
AMDTNOTE
  2
AmdtNote
  3
"AcmSymBB|Product Description: AutoCAD Mechanical|Company: Autodesk"
 90
    35839
280
     0
281
     1
  0
CLASS
  1
STDPART2D
  2
AmgStdPart
  3
"AmgStdPart|Product Description: AutoCAD Mechanical|Company: Autodesk"
 90
    35839
280
     0
281
     1
  0
CLASS
  1
ACDBSTDPARTRES_LINE
  2
AcDbStdPartRes_Line
  3
"AmgStdPart|Product Description: AutoCAD Mechanical|Company: Autodesk"
 90
    32768
280
     0
281
     0
  0
CLASS
  1
ACMDATAENTRY
  2
AcmDataEntry
  3
"AcmSymBB|Product Description: AutoCAD Mechanical|Company: Autodesk"
 90
        0
280
     0
281
     0
  0
CLASS
  1
ACDBOPPOLYLINERES
  2
AcDbOpPolylineRes
  3
AcGrefServices
 90
    32768
280
     0
281
     0
  0
CLASS
  1
ACMPARTLIST
  2
AcmPartList
  3
"AcmSymBB|Product Description: AutoCAD Mechanical|Company: Autodesk"
 90
    35839
280
     0
281
     1
  0
CLASS
  1
ACDBLINERES
  2
AcDbLineRes
  3
AcGrefServices
 90
        0
280
     0
281
     0
  0
CLASS
  1
ACRFINSADJ
  2
AcRfInsAdjuster
  3
AcMeServices
 90
    32768
280
     0
281
     0
  0
CLASS
  1
AM_DRAWING_MGR
  2
AcDmDwgMgr
  3
AcMechDwgViewMgmt
 90
        0
280
     0
281
     0
  0
CLASS
  1
AM_DWG_DOCUMENT
  2
AcDmDwgDocument
  3
AcMechDwgViewMgmt
 90
        0
280
     0
281
     0
  0
CLASS
  1
AM_DWG_SHEET
  2
AcDmSheet
  3
AcMechDwgViewMgmt
 90
        0
280
     0
281
     0
  0
CLASS
  1
AM_VIEWDIMPARMAP
  2
AcDmViewDimParMap
  3
AcMechDwgViewMgmt
 90
        0
280
     0
281
     0
  0
CLASS
  1
AM_DWGMGR_NAME
  2
AcDmDwgMgrName
  3
AcMechDwgViewMgmt
 90
        0
280
     0
281
     0
  0
CLASS
  1
AMDTMENUSTATEMGR
  2
AmdtMenuStateMgr
  3
McadcomServices
 90
        0
280
     0
281
     0
  0
CLASS
  1
AMDTMCOMMENUSTATE
  2
AmdtMcomMenuState
  3
McadcomServices
 90
        0
280
     0
281
     0
  0
CLASS
  1
ASAPP
  2
AcAsAppObject
  3
AutoSurfServices
 90
        0
280
     0
281
     0
  0
CLASS
  1
IM_STATIC_MAN
  2
AcImStaticVarManager
  3
AcMeServices
 90
        0
280
     0
281
     0
  0
CLASS
  1
ACIMDBLSTATICVAR
  2
AcImDblStaticVar
  3
AcMeServices
 90
        0
280
     0
281
     0
  0
CLASS
  1
ACIMSTRSTATICVAR
  2
AcImStrStaticVar
  3
AcMeServices
 90
        0
280
     0
281
     0
  0
CLASS
  1
ACIMINTSTATICVAR
  2
AcImIntStaticVar
  3
AcMeServices
 90
        0
280
     0
281
     0
  0
CLASS
  1
ACASGREFMASTER
  2
AcAsGrefMaster
  3
AutoSurfResolverServices
 90
        0
280
     0
281
     0
  0
CLASS
  1
ACADGREFMODULE
  2
AcAdGrefModule
  3
AdGrefServices
 90
        0
280
     0
281
     0
  0
CLASS
  1
AMDTMAPISURFMOUDULE
  2
AmdtMApiSurfModule
  3
MApiSurfServices
 90
        0
280
     0
281
     0
  0
CLASS
  1
MAPIAMMOUDLE
  2
MApiAmModule
  3
MApiAmServices
 90
        0
280
     0
281
     0
  0
CLASS
  1
AMDTADMENUSTATE
  2
AmdtAdMenuState
  3
DesignerServices
 90
        0
280
     0
281
     0
  0
CLASS
  1
ADAPPL
  2
AcAdAppl
  3
DesignerServices
 90
        0
280
     0
281
     0
  0
CLASS
  1
DEPMGR
  2
AcAdDepMgr
  3
DesignerServices
 90
        0
280
     0
281
     0
  0
CLASS
  1
PARAMMGR
  2
AcAdParamMgr
  3
DesignerServices
 90
        0
280
     0
281
     0
  0
CLASS
  1
PARAMSCOPE
  2
AcAdParamScope
  3
DesignerServices
 90
        0
280
     0
281
     0
  0
CLASS
  1
NAMEDAPPL
  2
AcAdNamedAppl
  3
DesignerServices
 90
        0
280
     0
281
     0
  0
CLASS
  1
ADHNTMPLT
  2
AdHoleNoteTemplateMgr
  3
DesignerServices
 90
    32768
280
     0
281
     0
  0
CLASS
  1
AM_HNTEMPLATE_MGR_NAME
  2
AdHoleNoteTemplateMgrName
  3
DesignerServices
 90
    32768
280
     0
281
     0
  0
CLASS
  1
AMDTDMMENUSTATE
  2
AmdtDmMenuState
  3
AcMechDwgViewMgmt
 90
        0
280
     0
281
     0
  0
CLASS
  1
MAPIADMODULE
  2
MApiAdModule
  3
MApiAdServices
 90
        0
280
     0
281
     0
  0
CLASS
  1
AMDTAMMENUSTATE
  2
AmdtAmMenuState
  3
DesignerAssemblies
 90
        0
280
     0
281
     0
  0
CLASS
  1
ACAMPROJECT
  2
AcAmProject
  3
DesignerAssemblies
 90
        0
280
     0
281
     0
  0
CLASS
  1
ACAMGRCOMPDEF
  2
AcAmGrCompDef
  3
DesignerAssemblies
 90
        0
280
     0
281
     0
  0
CLASS
  1
ACCMCONTEXT
  2
AcCmContext
  3
DesignerAssemblies
 90
        0
280
     0
281
     0
  0
CLASS
  1
ACAMCOMPDEF
  2
AcAmCompDef
  3
DesignerAssemblies
 90
        0
280
     0
281
     0
  0
CLASS
  1
ACAMCOMPDEFMGR
  2
AcAmCompDefMgr
  3
DesignerAssemblies
 90
        0
280
     0
281
     0
  0
CLASS
  1
AMCONTEXTMGR
  2
AcAmContextMgr
  3
DesignerAssemblies
 90
        0
280
     0
281
     0
  0
CLASS
  1
ACAMCONTEXTMODELER
  2
AcAmContextModeler
  3
DesignerAssemblies
 90
        0
280
     0
281
     0
  0
CLASS
  1
CATALOGSTATE
  2
AcAmCatalogState
  3
DesignerAssemblies
 90
        0
280
     0
281
     0
  0
CLASS
  1
ACAMGRCOMPDEFSET
  2
AcAmGrCompDefSet
  3
DesignerAssemblies
 90
        0
280
     0
281
     0
  0
CLASS
  1
AMDTBROWSERDBTAB
  2
AmdtBrowserDbTab
  3
McadcomServices
 90
        0
280
     0
281
     0
  0
CLASS
  1
CBROWSERAPPOBJECT
  2
CBrowserAppObject
  3
McadcomServices
 90
        0
280
     0
281
     0
  0
CLASS
  1
DM_PLACEHOLDER
  2
AcDmSelsetPlaceholder
  3
AcMechDwgViewMgmt
 90
        0
280
     0
281
     0
  0
CLASS
  1
ACMPICKOBJ
  2
AcmPickEnt
  3
"AcmSymBB|Product Description: AutoCAD Mechanical|Company: Autodesk"
 90
    32768
280
     0
281
     1
  0
CLASS
  1
ACMNOTESTANDARDISO
  2
AmdtNoteStdISO
  3
"Amdt_StdImp|Product Description: AutoCAD Mechanical|Company: Autodesk"
 90
        0
280
     0
281
     0
  0
CLASS
  1
ACMNOTESTANDARDANSI
  2
AmdtNoteStdANSI
  3
"Amdt_StdImp|Product Description: AutoCAD Mechanical|Company: Autodesk"
 90
        0
280
     0
281
     0
  0
CLASS
  1
ACMTHREADLINESTANDARDISO
  2
AmdtThreadLineStdISO
  3
"Amdt_StdImp|Product Description: AutoCAD Mechanical|Company: Autodesk"
 90
        0
280
     0
281
     0
  0
CLASS
  1
ACMTHREADLINESTANDARDANSI
  2
AmdtThreadLineStdANSI
  3
"Amdt_StdImp|Product Description: AutoCAD Mechanical|Company: Autodesk"
 90
        0
280
     0
281
     0
  0
CLASS
  1
TABLESTYLE
  2
AcDbTableStyle
  3
ObjectDBX Classes
 90
     4095
280
     0
281
     0
  0
CLASS
  1
SORTENTSTABLE
  2
AcDbSortentsTable
  3
ObjectDBX Classes
 90
        0
280
     0
281
     0
  0
CLASS
  1
MATERIAL
  2
AcDbMaterial
  3
ObjectDBX Classes
 90
     1153
280
     0
281
     0
  0
CLASS
  1
VISUALSTYLE
  2
AcDbVisualStyle
  3
ObjectDBX Classes
 90
     4095
280
     0
281
     0
  0
CLASS
  1
ACRFATTGENMGR
  2
AcRfAttGeneralMgr
  3
AcAttribServices
 90
        0
280
     0
281
     0
  0
CLASS
  1
ACRFOBJATTMGR
  2
AcRfObjAttGroupMgr
  3
AcAttribServices
 90
        0
280
     0
281
     0
  0
CLASS
  1
ACRFMCADAPIATTHOLDER
  2
AcRfMCADAPIAttHolder
  3
AcAttribServices
 90
        0
280
     0
281
     0
  0
CLASS
  1
AMDTSYSATTR
  2
AmdtSystemAttribute
  3
AcAttribServices
 90
        0
280
     0
281
     0
  0
CLASS
  1
ACMTAPERSTANDARDISO
  2
AcmTaperStdISO
  3
"Amdt_StdImp|Product Description: AutoCAD Mechanical|Company: Autodesk"
 90
        0
280
     0
281
     0
  0
CLASS
  1
CAMSSTRUCTBTNSTATE
  2
StructBtnState
  3
L"DesignerAssemblies"
 90
        0
280
     0
281
     0
  0
CLASS
  1
DIMASSOC
  2
AcDbDimAssoc
  3
"AcDbDimAssoc|Product Desc:     AcDim ARX App For Dimension|Company:          Autodesk, Inc.|WEB Address:      www.autodesk.com"
 90
    32768
280
     0
281
     0
  0
CLASS
  1
EXACXREFPANELOBJECT
  2
ExAcXREFPanelObject
  3
EXAC_ESW
 90
    33793
280
     0
281
     0
  0
CLASS
  1
NPOCOLLECTION
  2
AcDbImpNonPersistentObjectsCollection
  3
ObjectDBX Classes
 90
    33921
280
     0
281
     0
  0
CLASS
  1
AMDTEDGESTANDARDISO13715
  2
AmdtEdgeStdISO13715
  3
"Amdt_StdImp|Product Description: AutoCAD Mechanical|Company: Autodesk"
 90
        0
280
     0
281
     0
  0
CLASS
  1
AMDTNOTETEMPLATEDB
  2
AmdtNoteTemplateDB
  3
AMDT_STDIMP_MODULE_NAME
 90
        0
280
     0
281
     0
  0
CLASS
  1
ACAMGHOLECHARTSTDISO
  2
AcAmgHoleChartStdISO
  3
ACMSYMBB_MODULE_NAME
 90
        0
280
     0
281
     0
  0
CLASS
  1
ACMTAPERSTANDARDANSI
  2
AcmTaperStdANSI
  3
"Amdt_StdImp|Product Description: AutoCAD Mechanical|Company: Autodesk"
 90
        0
280
     0
281
     0
  0
CLASS
  1
ACAMGHOLECHARTSTDANSI
  2
AcAmgHoleChartStdANSI
  3
ACMSYMBB_MODULE_NAME
 90
        0
280
     0
281
     0
  0
CLASS
  1
ACAMSTDPCOMPDEF
  2
AcAmStdpCompDef
  3
DesignerAssemblies
 90
    32768
280
     0
281
     0
  0
CLASS
  1
ACAMCOMP
  2
AcAmComp
  3
DesignerAssemblies
 90
    32768
280
     0
281
     0
  0
CLASS
  1
AC_AM_STDP_VIEW_DEF
  2
AcAmStdpViewDef
  3
DesignerAssemblies
 90
    32768
280
     0
281
     0
  0
CLASS
  1
AC_AM_MVD_DEP_MGR
  2
AcAmMVDdepMgr
  3
DesignerAssemblies
 90
        0
280
     0
281
     0
  0
CLASS
  1
AC_AM_MASTER_VIEW_DEF
  2
AcAmMasterViewDef
  3
DesignerAssemblies
 90
        0
280
     0
281
     0
  0
CLASS
  1
AC_AM_DIRTY_NODES
  2
AcAmDirtyNodes
  3
DesignerAssemblies
 90
        0
280
     0
281
     0
  0
CLASS
  1
AC_AM_MAPPER_CACHE
  2
AcAmMapperCache
  3
DesignerAssemblies
 90
        0
280
     0
281
     0
  0
CLASS
  1
ACAMMVDBACKUPOBJECT
  2
AcAmMVDBackupObject
  3
DesignerAssemblies
 90
        0
280
     0
281
     0
  0
CLASS
  1
AC_AM_COMP_VIEW_INST
  2
AcAmCompView
  3
DesignerAssemblies
 90
    32768
280
     0
281
     0
  0
CLASS
  1
AC_AM_2D_XREF_MGR
  2
AcAmXrefMgr2d
  3
DesignerAssemblies
 90
        0
280
     0
281
     0
  0
CLASS
  1
AC_AM_HIDE_SITUATION
  2
AcAmHideSituation
  3
DesignerAssemblies
 90
    32768
280
     0
281
     0
  0
CLASS
  1
AC_AM_TRANSFORM_GHOST
  2
AcDbTransformGhost
  3
DesignerAssemblies
 90
    32768
280
     0
281
     1
  0
CLASS
  1
L"OBJCLONER"
  2
ObjCloner
  3
DesignerAssemblies
 90
    32768
280
     0
281
     1
  0
ENDSEC
  0
SECTION
  2
TABLES
  0
TABLE
  2
VPORT
  5
8
330
0
100
AcDbSymbolTable
 70
     1
  0
VPORT
  5
B0EC
330
8
100
AcDbSymbolTableRecord
100
AcDbViewportTableRecord
  2
*Active
 70
     0
 10
0.0
 20
0.0
 11
1.0
 21
1.0
 12
6284.157841362392
 22
-359.094121879043
 13
0.0
 23
0.0
 14
2.5
 24
2.5
 15
10.0
 25
10.0
 16
0.0
 26
0.0
 36
1.0
 17
0.0
 27
0.0
 37
0.0
 40
379.0600486970107
 41
1.702970297029702
 42
50.0
 43
-1370.695619172058
 44
-1370.695619172058
 50
0.0
 51
0.0
 71
     0
 72
   100
 73
     1
 74
     3
 75
     0
 76
     0
 77
     0
 78
     0
281
     0
 65
     0
110
0.0
120
0.0
130
0.0
111
1.0
121
0.0
131
0.0
112
0.0
122
1.0
132
0.0
 79
     0
146
0.0
  0
ENDTAB
  0
TABLE
  2
LTYPE
  5
5
330
0
100
AcDbSymbolTable
 70
    23
  0
LTYPE
  5
14
330
5
100
AcDbSymbolTableRecord
100
AcDbLinetypeTableRecord
  2
ByBlock
 70
     0
  3

 72
    65
 73
     0
 40
0.0
  0
LTYPE
  5
15
330
5
100
AcDbSymbolTableRecord
100
AcDbLinetypeTableRecord
  2
ByLayer
 70
     0
  3

 72
    65
 73
     0
 40
0.0
  0
LTYPE
  5
16
330
5
100
AcDbSymbolTableRecord
100
AcDbLinetypeTableRecord
  2
Continuous
 70
     0
  3
Solid line
 72
    65
 73
     0
 40
0.0
  0
LTYPE
  5
4F
330
5
100
AcDbSymbolTableRecord
100
AcDbLinetypeTableRecord
  2
AM_ISO02W050
 70
     0
  3
__ __ __ __ __ __ __ __ __ __ __ __ __ __ __
 72
    65
 73
     2
 40
7.5
 49
6.0
 74
     0
 49
-1.5
 74
     0
  0
LTYPE
  5
52
330
5
100
AcDbSymbolTableRecord
100
AcDbLinetypeTableRecord
  2
Amconstr
 70
     0
  3
_______________________
 72
    65
 73
     2
 40
9999.0
 49
9999.0
 74
     0
 49
0.0
 74
     0
  0
LTYPE
  5
64
330
5
100
AcDbSymbolTableRecord
100
AcDbLinetypeTableRecord
  2
ACISOWELD
 70
     0
  3
_ _ _ _ _
 72
    65
 73
     2
 40
2.0
 49
2.0
 74
     0
 49
-1.0
 74
     0
  0
LTYPE
  5
65
330
5
100
AcDbSymbolTableRecord
100
AcDbLinetypeTableRecord
  2
ACISOTGB
 70
     0
  3
__ . . __ . .
 72
    65
 73
     6
 40
9.0
 49
4.0
 74
     0
 49
-1.0
 74
     0
 49
1.0
 74
     0
 49
-1.0
 74
     0
 49
1.0
 74
     0
 49
-1.0
 74
     0
  0
LTYPE
  5
66
330
5
100
AcDbSymbolTableRecord
100
AcDbLinetypeTableRecord
  2
ACISOTGL
 70
     0
  3
_ _ _ _ _
 72
    65
 73
     2
 40
3.0
 49
2.0
 74
     0
 49
-1.0
 74
     0
  0
LTYPE
  5
69
330
5
100
AcDbSymbolTableRecord
100
AcDbLinetypeTableRecord
  2
CENTER
 70
     0
  3
__ . __
 72
    65
 73
     4
 40
7.0
 49
4.0
 74
     0
 49
-1.0
 74
     0
 49
1.0
 74
     0
 49
-1.0
 74
     0
  0
LTYPE
  5
A6E
330
5
100
AcDbSymbolTableRecord
100
AcDbLinetypeTableRecord
  2
PHANTOM2
 70
     0
  3
Phantom (.5x) ___ _ _ ___ _ _ ___ _ _ ___ _ _
 72
    65
 73
     6
 40
31.75
 49
15.875
 74
     0
 49
-3.174999999999999
 74
     0
 49
3.174999999999999
 74
     0
 49
-3.174999999999999
 74
     0
 49
3.174999999999999
 74
     0
 49
-3.174999999999999
 74
     0
  0
LTYPE
  5
4DED
330
5
100
AcDbSymbolTableRecord
100
AcDbLinetypeTableRecord
  2
中線
 70
     0
  3
___________________
 72
    65
 73
     2
 40
2.0
 49
1.0
 74
     0
 49
1.0
 74
     0
  0
LTYPE
  5
4DF6
330
5
100
AcDbSymbolTableRecord
100
AcDbLinetypeTableRecord
  2
細線
 70
     0
  3
___________________
 72
    65
 73
     2
 40
2.0
 49
1.0
 74
     0
 49
1.0
 74
     0
  0
LTYPE
  5
4DF7
330
5
100
AcDbSymbolTableRecord
100
AcDbLinetypeTableRecord
  2
太線
 70
     0
  3
___________________
 72
    65
 73
     2
 40
2.0
 49
1.0
 74
     0
 49
1.0
 74
     0
  0
LTYPE
  5
4EA7
330
5
100
AcDbSymbolTableRecord
100
AcDbLinetypeTableRecord
  2
文字
 70
     0
  3
_________________
 72
    65
 73
     2
 40
2.0
 49
1.0
 74
     0
 49
1.0
 74
     0
  0
LTYPE
  5
4EA9
330
5
100
AcDbSymbolTableRecord
100
AcDbLinetypeTableRecord
  2
寸法線
 70
     0
  3
________________
 72
    65
 73
     2
 40
2.0
 49
1.0
 74
     0
 49
1.0
 74
     0
  0
LTYPE
  5
4F12
330
5
100
AcDbSymbolTableRecord
100
AcDbLinetypeTableRecord
  2
ハッチング
 70
     0
  3
_________________
 72
    65
 73
     2
 40
2.0
 49
1.0
 74
     0
 49
1.0
 74
     0
  0
LTYPE
  5
5180
330
5
100
AcDbSymbolTableRecord
100
AcDbLinetypeTableRecord
  2
陰線1
 70
     0
  3
__ __ __ __
 72
    65
 73
     2
 40
4.0
 49
2.2
 74
     0
 49
-1.8
 74
     0
  0
LTYPE
  5
5182
330
5
100
AcDbSymbolTableRecord
100
AcDbLinetypeTableRecord
  2
切断線
 70
     0
  3
/\/-/\/-/\/-/\/-/\/-/\/
 72
    65
 73
     2
 40
11.0001
 49
0.0001
 74
     4
 75
   135
340
56
 46
0.04
 50
0.0
 44
0.0
 45
0.0
 49
-11.0
 74
     0
  0
LTYPE
  5
5183
330
5
100
AcDbSymbolTableRecord
100
AcDbLinetypeTableRecord
  2
想像線1
 70
     0
  3
__ __ __ _____ __ __ ____
 72
    65
 73
     6
 40
14.5
 49
6.0
 74
     0
 49
-1.5
 74
     0
 49
2.0
 74
     0
 49
-1.5
 74
     0
 49
2.0
 74
     0
 49
-1.5
 74
     0
  0
LTYPE
  5
5185
330
5
100
AcDbSymbolTableRecord
100
AcDbLinetypeTableRecord
  2
中心線1
 70
     0
  3
___ _ ___ _ ___
 72
    65
 73
     4
 40
18.0
 49
12.0
 74
     0
 49
-2.0
 74
     0
 49
2.0
 74
     0
 49
-2.0
 74
     0
  0
LTYPE
  5
5188
330
5
100
AcDbSymbolTableRecord
100
AcDbLinetypeTableRecord
  2
補助線
 70
     0
  3
______________
 72
    65
 73
     2
 40
2.0
 49
1.0
 74
     0
 49
1.0
 74
     0
  0
LTYPE
  5
6427
330
5
100
AcDbSymbolTableRecord
100
AcDbLinetypeTableRecord
  2
HIDDEN
 70
     0
  3
Hidden __ __ __ __ __ __ __ __ __ __ __ __ __ _
 72
    65
 73
     2
 40
0.375
 49
0.25
 74
     0
 49
-0.125
 74
     0
  0
LTYPE
  5
AF95
330
5
100
AcDbSymbolTableRecord
100
AcDbLinetypeTableRecord
  2
AM_ISO08W050
 70
     0
  3
____ . ____ . ____ . ____ . ____ . ____ . ____
 72
    65
 73
     4
 40
18.0
 49
12.0
 74
     0
 49
-1.5
 74
     0
 49
3.0
 74
     0
 49
-1.5
 74
     0
  0
LTYPE
  5
FD15
330
5
100
AcDbSymbolTableRecord
100
AcDbLinetypeTableRecord
  2
ACANSTGB
 70
     0
  3
__ . . __ . .
 72
    65
 73
     6
 40
0.35433070866
 49
0.15748031496
 74
     0
 49
-0.03937007874
 74
     0
 49
0.03937007874
 74
     0
 49
-0.03937007874
 74
     0
 49
0.03937007874
 74
     0
 49
-0.03937007874
 74
     0
  0
LTYPE
  5
FD16
330
5
100
AcDbSymbolTableRecord
100
AcDbLinetypeTableRecord
  2
ACANSTGL
 70
     0
  3
_ _ _ _ _
 72
    65
 73
     2
 40
0.11811023622
 49
0.07874015748
 74
     0
 49
-0.03937007874
 74
     0
  0
ENDTAB
  0
TABLE
  2
LAYER
  5
2
102
{ACAD_XDICTIONARY
360
3F95
102
}
330
0
100
AcDbSymbolTable
 70
    18
  0
LAYER
  5
10
330
2
100
AcDbSymbolTableRecord
100
AcDbLayerTableRecord
  2
0
 70
     0
 62
     7
  6
Continuous
370
    -3
390
F
  0
LAYER
  5
6D1
330
2
100
AcDbSymbolTableRecord
100
AcDbLayerTableRecord
  2
Defpoints
 70
     0
 62
     7
  6
Continuous
290
     0
370
    -3
390
F
  0
LAYER
  5
5F85
330
2
100
AcDbSymbolTableRecord
100
AcDbLayerTableRecord
  2
AM_0
 70
     0
 62
     7
  6
中線
370
    25
390
F
1001
AcAecLayerStandard
1000

1000

  0
LAYER
  5
AC9F
330
2
100
AcDbSymbolTableRecord
100
AcDbLayerTableRecord
  2
size
 70
     0
 62
     5
  6
Continuous
290
     0
370
    25
390
F
  0
LAYER
  5
ACA0
330
2
100
AcDbSymbolTableRecord
100
AcDbLayerTableRecord
  2
waku
 70
     0
 62
     7
  6
Continuous
370
    35
390
F
  0
LAYER
  5
ACA1
330
2
100
AcDbSymbolTableRecord
100
AcDbLayerTableRecord
  2
AM_6
 70
     0
 62
     2
  6
文字
370
    15
390
F
1001
AcAecLayerStandard
1000

1000

  0
LAYER
  5
AD68
330
2
100
AcDbSymbolTableRecord
100
AcDbLayerTableRecord
  2
AM_5
 70
     0
 62
     3
  6
寸法線
370
    15
390
F
1001
AcAecLayerStandard
1000

1000

  0
LAYER
  5
B5FB
330
2
100
AcDbSymbolTableRecord
100
AcDbLayerTableRecord
  2
0部品18
 70
     0
 62
   254
  6
細線
370
    30
390
F
1001
AcAecLayerStandard
1000

1000

  0
LAYER
  5
5B367
330
2
100
AcDbSymbolTableRecord
100
AcDbLayerTableRecord
  2
AM_7
 70
     0
 62
     4
  6
中心線1
370
    15
390
F
1001
AcAecLayerStandard
1000

1000

  0
LAYER
  5
5B368
102
{ACAD_XDICTIONARY
360
5B369
102
}
330
2
100
AcDbSymbolTableRecord
100
AcDbLayerTableRecord
  2
AM_3
 70
     0
 62
     6
  6
陰線1
370
    15
390
F
1001
AcAecLayerStandard
1000

1000

  0
ENDTAB
  0
TABLE
  2
STYLE
  5
3
330
0
100
AcDbSymbolTable
 70
     7
  0
STYLE
  5
11
330
3
100
AcDbSymbolTableRecord
100
AcDbTextStyleTableRecord
  2
STANDARD
 70
     0
 40
0.0
 41
0.7
 50
0.0
 71
     0
 42
3.2
  3
romans.shx
  4
extfont.shx
  0
STYLE
  5
56
330
3
100
AcDbSymbolTableRecord
100
AcDbTextStyleTableRecord
  2

 70
     1
 40
0.0
 41
1.0
 50
0.0
 71
     0
 42
2.5
  3
ltypeshp.shx
  4

  0
STYLE
  5
58
330
3
100
AcDbSymbolTableRecord
100
AcDbTextStyleTableRecord
  2
ACISOTS
 70
     0
 40
1.0
 41
1.0
 50
0.0
 71
     0
 42
2.5
  3
isocp.shx
  4
extfont.shx
  0
STYLE
  5
63
330
3
100
AcDbSymbolTableRecord
100
AcDbTextStyleTableRecord
  2
ACISOGDT
 70
     0
 40
0.0
 41
1.0
 50
0.0
 71
     0
 42
2.5
  3
amgdt.shx
  4

  0
STYLE
  5
A74
330
3
100
AcDbSymbolTableRecord
100
AcDbTextStyleTableRecord
  2
DIM
 70
     0
 40
0.0
 41
1.0
 50
0.0
 71
     0
 42
2.5
  3
monotxt.shx
  4
extfont.shx
  0
STYLE
  5
FD18
330
3
100
AcDbSymbolTableRecord
100
AcDbTextStyleTableRecord
  2
ACANSTS
 70
     0
 40
1.0
 41
1.0
 50
0.0
 71
     0
 42
0.2
  3
romans.shx
  4
extfont.shx
  0
STYLE
  5
FD19
330
3
100
AcDbSymbolTableRecord
100
AcDbTextStyleTableRecord
  2
ACANSGDT
 70
     0
 40
0.0
 41
1.0
 50
0.0
 71
     0
 42
0.2
  3
amgdt.shx
  4

  0
ENDTAB
  0
TABLE
  2
VIEW
  5
6
330
0
100
AcDbSymbolTable
 70
     6
  0
VIEW
  5
AE1
330
6
100
AcDbSymbolTableRecord
100
AcDbViewTableRecord
  2
AM_VIEW1
 70
     0
 40
2203.896457765668
 10
5264.599158088851
 20
3198.765197920841
 41
2970.0
 11
0.0
 21
0.0
 31
1.0
 12
0.0
 22
0.0
 32
0.0
 42
50.0
 43
-1370.695619172058
 44
-1370.695619172058
 50
0.0
 71
     0
281
     0
 72
     0
  0
VIEW
  5
AE2
330
6
100
AcDbSymbolTableRecord
100
AcDbViewTableRecord
  2
AM_VIEW2
 70
     0
 40
2203.896457765668
 10
8234.599158088851
 20
3198.765197920841
 41
2970.0
 11
0.0
 21
0.0
 31
1.0
 12
0.0
 22
0.0
 32
0.0
 42
50.0
 43
-1370.695619172058
 44
-1370.695619172058
 50
0.0
 71
     0
281
     0
 72
     0
  0
VIEW
  5
AE3
330
6
100
AcDbSymbolTableRecord
100
AcDbViewTableRecord
  2
AM_VIEW3
 70
     0
 40
2203.896457765668
 10
5264.599158088851
 20
1202.661655686509
 41
2970.0
 11
0.0
 21
0.0
 31
1.0
 12
0.0
 22
0.0
 32
0.0
 42
50.0
 43
-1370.695619172058
 44
-1370.695619172058
 50
0.0
 71
     0
281
     0
 72
     0
  0
VIEW
  5
AE4
330
6
100
AcDbSymbolTableRecord
100
AcDbViewTableRecord
  2
AM_VIEW4
 70
     0
 40
2203.896457765668
 10
8234.599158088851
 20
1202.661655686509
 41
2970.0
 11
0.0
 21
0.0
 31
1.0
 12
0.0
 22
0.0
 32
0.0
 42
50.0
 43
-1370.695619172058
 44
-1370.695619172058
 50
0.0
 71
     0
281
     0
 72
     0
  0
VIEW
  5
AE5
330
6
100
AcDbSymbolTableRecord
100
AcDbViewTableRecord
  2
AM_VIEW5
 70
     0
 40
2203.896457765668
 10
6749.599158088852
 20
2200.713426803675
 41
2970.0
 11
0.0
 21
0.0
 31
1.0
 12
0.0
 22
0.0
 32
0.0
 42
50.0
 43
-1370.695619172058
 44
-1370.695619172058
 50
0.0
 71
     0
281
     0
 72
     0
  0
VIEW
  5
AE6
330
6
100
AcDbSymbolTableRecord
100
AcDbViewTableRecord
  2
AM_VIEW6
 70
     0
 40
4407.748837602181
 10
6749.599158088852
 20
2200.713426803675
 41
5939.9406
 11
0.0
 21
0.0
 31
1.0
 12
0.0
 22
0.0
 32
0.0
 42
50.0
 43
-1370.695619172058
 44
-1370.695619172058
 50
0.0
 71
     0
281
     0
 72
     0
  0
ENDTAB
  0
TABLE
  2
UCS
  5
7
330
0
100
AcDbSymbolTable
 70
     0
  0
ENDTAB
  0
TABLE
  2
APPID
  5
9
330
0
100
AcDbSymbolTable
 70
    67
  0
APPID
  5
12
330
9
100
AcDbSymbolTableRecord
100
AcDbRegAppTableRecord
  2
ACAD
 70
     0
  0
APPID
  5
30
330
9
100
AcDbSymbolTableRecord
100
AcDbRegAppTableRecord
  2
MCAD_NO_VIS
 70
     0
  0
APPID
  5
31
330
9
100
AcDbSymbolTableRecord
100
AcDbRegAppTableRecord
  2
ACAD_TEMP_GRAPHIC
 70
     0
  0
APPID
  5
44
330
9
100
AcDbSymbolTableRecord
100
AcDbRegAppTableRecord
  2
ACATTRIBSERVICES
 70
     0
  0
APPID
  5
7A1
330
9
100
AcDbSymbolTableRecord
100
AcDbRegAppTableRecord
  2
GENIUS_GENDIMSH_14
 70
     0
  0
APPID
  5
A49
330
9
100
AcDbSymbolTableRecord
100
AcDbRegAppTableRecord
  2
GENIUS_GENREC_14
 70
     0
  0
APPID
  5
A4A
330
9
100
AcDbSymbolTableRecord
100
AcDbRegAppTableRecord
  2
GENIUS_GENOBJ-N-REC_13
 70
     0
  0
APPID
  5
A4B
330
9
100
AcDbSymbolTableRecord
100
AcDbRegAppTableRecord
  2
GENIUS_GENODEF_13
 70
     0
  0
APPID
  5
A4C
330
9
100
AcDbSymbolTableRecord
100
AcDbRegAppTableRecord
  2
DCO15
 70
     0
  0
APPID
  5
ADC
330
9
100
AcDbSymbolTableRecord
100
AcDbRegAppTableRecord
  2
GENIUS_GENOLIS_13
 70
     0
  0
APPID
  5
ADD
330
9
100
AcDbSymbolTableRecord
100
AcDbRegAppTableRecord
  2
GENIUS_GENOENT_13
 70
     0
  0
APPID
  5
ADE
330
9
100
AcDbSymbolTableRecord
100
AcDbRegAppTableRecord
  2
GENIUS_GENOBJ-N-TIT_13
 70
     0
  0
APPID
  5
ADF
330
9
100
AcDbSymbolTableRecord
100
AcDbRegAppTableRecord
  2
GENIUS_GENTITLE_13
 70
     0
  0
APPID
  5
AE0
330
9
100
AcDbSymbolTableRecord
100
AcDbRegAppTableRecord
  2
GENIUS_GENOREF_13
 70
     0
  0
APPID
  5
AE7
330
9
100
AcDbSymbolTableRecord
100
AcDbRegAppTableRecord
  2
GENIUS_GENSCREG_15
 70
     0
  0
APPID
  5
AE8
330
9
100
AcDbSymbolTableRecord
100
AcDbRegAppTableRecord
  2
GENIUS_GENOBJ-N-SDF_13
 70
     0
  0
APPID
  5
FAF
330
9
100
AcDbSymbolTableRecord
100
AcDbRegAppTableRecord
  2
GENIUS_GENBLLY_14
 70
     0
  0
APPID
  5
FB0
330
9
100
AcDbSymbolTableRecord
100
AcDbRegAppTableRecord
  2
GENIUS_GENTRA_14
 70
     0
  0
APPID
  5
1285
330
9
100
AcDbSymbolTableRecord
100
AcDbRegAppTableRecord
  2
GENIUS_GENDTOL_13
 70
     0
  0
APPID
  5
142D
330
9
100
AcDbSymbolTableRecord
100
AcDbRegAppTableRecord
  2
GENIUS_GENOBJ-N-CEN_13
 70
     0
  0
APPID
  5
1AB5
330
9
100
AcDbSymbolTableRecord
100
AcDbRegAppTableRecord
  2
GENIUS_GENOBJ-N-CRS_13
 70
     0
  0
APPID
  5
1B36
330
9
100
AcDbSymbolTableRecord
100
AcDbRegAppTableRecord
  2
GENIUS_GENOBJ-N-HTC_13
 70
     0
  0
APPID
  5
1B37
330
9
100
AcDbSymbolTableRecord
100
AcDbRegAppTableRecord
  2
GENIUS_GENHATCH_13
 70
     0
  0
APPID
  5
216D
330
9
100
AcDbSymbolTableRecord
100
AcDbRegAppTableRecord
  2
GENIUS_GENOBJ-N-FIL_13
 70
     0
  0
APPID
  5
2356
330
9
100
AcDbSymbolTableRecord
100
AcDbRegAppTableRecord
  2
GEVID990412420
 70
     0
  0
APPID
  5
2357
330
9
100
AcDbSymbolTableRecord
100
AcDbRegAppTableRecord
  2
GEVDC
 70
     0
  0
APPID
  5
2358
330
9
100
AcDbSymbolTableRecord
100
AcDbRegAppTableRecord
  2
GEVCON
 70
     0
  0
APPID
  5
235B
330
9
100
AcDbSymbolTableRecord
100
AcDbRegAppTableRecord
  2
GEVRADREF
 70
     0
  0
APPID
  5
2360
330
9
100
AcDbSymbolTableRecord
100
AcDbRegAppTableRecord
  2
GENIUS_GENBH_13
 70
     0
  0
APPID
  5
2362
330
9
100
AcDbSymbolTableRecord
100
AcDbRegAppTableRecord
  2
GENIUS_GENOBJ-NBEHI-BHF_13
 70
     0
  0
APPID
  5
2364
330
9
100
AcDbSymbolTableRecord
100
AcDbRegAppTableRecord
  2
GENIUS_GENOBJ-NBEHI-BHB_13
 70
     0
  0
APPID
  5
2379
330
9
100
AcDbSymbolTableRecord
100
AcDbRegAppTableRecord
  2
GENIUS_GENOBJ-F-SCPASSM_13
 70
     0
  0
APPID
  5
3D74
330
9
100
AcDbSymbolTableRecord
100
AcDbRegAppTableRecord
  2
GENIUS_GENDIM_13
 70
     0
  0
APPID
  5
3D76
330
9
100
AcDbSymbolTableRecord
100
AcDbRegAppTableRecord
  2
GENIUS_GE3DTOL_13
 70
     0
  0
APPID
  5
3D9C
330
9
100
AcDbSymbolTableRecord
100
AcDbRegAppTableRecord
  2
AD_DRAW
 70
     0
  0
APPID
  5
3DE8
330
9
100
AcDbSymbolTableRecord
100
AcDbRegAppTableRecord
  2
ASURF_PCURVE_APPNAME
 70
     0
  0
APPID
  5
3DED
330
9
100
AcDbSymbolTableRecord
100
AcDbRegAppTableRecord
  2
AMG_3D2D_5.0
 70
     0
  0
APPID
  5
3E1B
330
9
100
AcDbSymbolTableRecord
100
AcDbRegAppTableRecord
  2
DESIGNERASSEMBLIES
 70
     0
  0
APPID
  5
3E20
330
9
100
AcDbSymbolTableRecord
100
AcDbRegAppTableRecord
  2
ACADM_DIM_EDIT
 70
     0
  0
APPID
  5
3E21
330
9
100
AcDbSymbolTableRecord
100
AcDbRegAppTableRecord
  2
AMDT_DM_ADJ
 70
     0
  0
APPID
  5
4143
330
9
100
AcDbSymbolTableRecord
100
AcDbRegAppTableRecord
  2
GENIUS_GENFIL_13
 70
     0
  0
APPID
  5
4144
330
9
100
AcDbSymbolTableRecord
100
AcDbRegAppTableRecord
  2
GENIUS_GENOBJ-N-CHA_13
 70
     0
  0
APPID
  5
4E17
330
9
100
AcDbSymbolTableRecord
100
AcDbRegAppTableRecord
  2
GEVID1008153417
 70
     0
  0
APPID
  5
4E58
330
9
100
AcDbSymbolTableRecord
100
AcDbRegAppTableRecord
  2
GEVID1008153418
 70
     0
  0
APPID
  5
4E5E
330
9
100
AcDbSymbolTableRecord
100
AcDbRegAppTableRecord
  2
GEVID1008153419
 70
     0
  0
APPID
  5
4E64
330
9
100
AcDbSymbolTableRecord
100
AcDbRegAppTableRecord
  2
GEVID1008153420
 70
     0
  0
APPID
  5
4E75
330
9
100
AcDbSymbolTableRecord
100
AcDbRegAppTableRecord
  2
GEVID1008153421
 70
     0
  0
APPID
  5
4EB7
330
9
100
AcDbSymbolTableRecord
100
AcDbRegAppTableRecord
  2
GENIUS_AMGTXT_16
 70
     0
  0
APPID
  5
7645
330
9
100
AcDbSymbolTableRecord
100
AcDbRegAppTableRecord
  2
GENIUS_GENOBJ-N-DIM_13
 70
     0
  0
APPID
  5
AAD0
330
9
100
AcDbSymbolTableRecord
100
AcDbRegAppTableRecord
  2
ACAD_DSTYLE_DIMARC_LENGTH_SYMBOL
 70
     0
  0
APPID
  5
AAD1
330
9
100
AcDbSymbolTableRecord
100
AcDbRegAppTableRecord
  2
ACAD_DSTYLE_DIMJOGGED_JOGANGLE_SYMBOL
 70
     0
  0
APPID
  5
AAFD
330
9
100
AcDbSymbolTableRecord
100
AcDbRegAppTableRecord
  2
ACAD_PSEXT
 70
     0
  0
APPID
  5
AD61
330
9
100
AcDbSymbolTableRecord
100
AcDbRegAppTableRecord
  2
AcAecLayerStandard
 70
     0
  0
APPID
  5
AEE3
330
9
100
AcDbSymbolTableRecord
100
AcDbRegAppTableRecord
  2
ACAD_EXEMPT_FROM_CAD_STANDARDS
 70
     0
  0
APPID
  5
B1BE
330
9
100
AcDbSymbolTableRecord
100
AcDbRegAppTableRecord
  2
GENIUS_GENCEN_19
 70
     0
  0
APPID
  5
B4E1
330
9
100
AcDbSymbolTableRecord
100
AcDbRegAppTableRecord
  2
ACAD_MLEADERVER
 70
     0
  0
APPID
  5
C488
330
9
100
AcDbSymbolTableRecord
100
AcDbRegAppTableRecord
  2
ACAD_DSTYLE_DIMINSPECT
 70
     0
  0
APPID
  5
C489
330
9
100
AcDbSymbolTableRecord
100
AcDbRegAppTableRecord
  2
ACAD_DSTYLE_DIMRADIAL_EXTENSION
 70
     0
  0
APPID
  5
1980E
330
9
100
AcDbSymbolTableRecord
100
AcDbRegAppTableRecord
  2
GEVID1311583542
 70
     0
  0
APPID
  5
19825
330
9
100
AcDbSymbolTableRecord
100
AcDbRegAppTableRecord
  2
AMG_2DHIDE
 70
     0
  0
APPID
  5
19826
330
9
100
AcDbSymbolTableRecord
100
AcDbRegAppTableRecord
  2
AMG_2DSTRUCT_BTR
 70
     0
  0
APPID
  5
19837
330
9
100
AcDbSymbolTableRecord
100
AcDbRegAppTableRecord
  2
ACADM_2DVIEW_IGN_NOTIFY
 70
     0
  0
APPID
  5
1B56B
330
9
100
AcDbSymbolTableRecord
100
AcDbRegAppTableRecord
  2
GEVID1311583543
 70
     0
  0
APPID
  5
1B5F6
330
9
100
AcDbSymbolTableRecord
100
AcDbRegAppTableRecord
  2
GEVID1311583544
 70
     0
  0
APPID
  5
1B61B
330
9
100
AcDbSymbolTableRecord
100
AcDbRegAppTableRecord
  2
GEVID1311583545
 70
     0
  0
APPID
  5
1B63D
330
9
100
AcDbSymbolTableRecord
100
AcDbRegAppTableRecord
  2
GEVID1311583546
 70
     0
  0
APPID
  5
1B675
330
9
100
AcDbSymbolTableRecord
100
AcDbRegAppTableRecord
  2
GEVID1311583547
 70
     0
  0
ENDTAB
  0
TABLE
  2
DIMSTYLE
  5
A
330
0
100
AcDbSymbolTable
 70
    25
100
AcDbDimStyleTable
 71
     3
340
2515
340
251A
340
251B
  0
DIMSTYLE
105
A76
330
A
100
AcDbSymbolTableRecord
100
AcDbDimStyleTableRecord
  2
STANDARD
 70
     0
 41
3.0
 42
1.0
 43
7.0
 44
2.0
 73
     0
 74
     0
 77
     1
140
2.799999999999999
141
0.0
143
0.0394
147
0.7
171
     4
172
     1
173
     1
176
     3
177
     3
178
     2
271
     3
272
     3
273
     8
274
     4
289
     0
340
A74
341
A66
343
A66
344
A66
  0
DIMSTYLE
105
2515
330
A
100
AcDbSymbolTableRecord
100
AcDbDimStyleTableRecord
  2
SYS
 70
     0
  4
"
 41
1.0
 42
1.0
 43
10.0
 44
1.0
 47
0.1
 48
0.1
 73
     0
 74
     0
 77
     1
 78
     8
 79
     2
140
3.5
141
0.0
143
0.0393701
146
0.71
147
1.5
172
     1
176
   256
177
   256
178
     7
271
     2
272
     2
283
     0
284
     8
340
11
371
    -1
372
    -1
1001
ACAD_DSTYLE_DIMJOGGED_JOGANGLE_SYMBOL
1070
   384
1040
0.7853981633974483
1001
ACAD_DSTYLE_DIMARC_LENGTH_SYMBOL
1070
   379
1070
     1
  0
DIMSTYLE
105
2516
102
{ACAD_REACTORS
330
3EE19
330
552E7
330
55309
102
}
330
A
100
AcDbSymbolTableRecord
100
AcDbDimStyleTableRecord
  2
SYS$3
 70
     0
  4
"
 41
2.0
 42
1.0
 43
10.0
 44
1.0
 47
0.1
 48
0.1
 73
     0
 77
     1
 78
     8
 79
     2
140
3.2
141
0.0
143
0.0393701
146
0.71
147
1.0
176
   256
177
   256
178
     2
271
     2
272
     2
283
     0
284
     8
288
     1
340
11
342
A66
371
    -1
372
    -1
1001
ACAD_DSTYLE_DIMJOGGED_JOGANGLE_SYMBOL
1070
   384
1040
0.7853981633974483
1001
ACAD_DSTYLE_DIMARC_LENGTH_SYMBOL
1070
   379
1070
     1
  0
DIMSTYLE
105
2517
330
A
100
AcDbSymbolTableRecord
100
AcDbDimStyleTableRecord
  2
SYS$4
 70
     0
  4
"
 41
2.0
 42
1.0
 43
10.0
 44
1.0
 47
0.1
 48
0.1
 73
     0
 77
     1
 78
     8
 79
     2
140
3.2
141
0.0
143
0.0393701
146
0.71
147
1.0
173
     1
176
   256
177
   256
178
     2
271
     2
272
     2
283
     0
284
     8
288
     1
340
11
344
A66
371
    -1
372
    -1
1001
ACAD_DSTYLE_DIMJOGGED_JOGANGLE_SYMBOL
1070
   384
1040
0.7853981633974483
1001
ACAD_DSTYLE_DIMARC_LENGTH_SYMBOL
1070
   379
1070
     1
  0
DIMSTYLE
105
2518
330
A
100
AcDbSymbolTableRecord
100
AcDbDimStyleTableRecord
  2
SYS$6
 70
     0
  4
"
 41
2.0
 42
1.0
 43
10.0
 44
1.0
 47
0.1
 48
0.1
 73
     0
 74
     0
 78
     8
 79
     2
140
3.2
141
0.0
143
0.0393701
146
0.71
147
1.0
172
     1
176
   256
177
   256
178
     2
271
     2
272
     2
283
     0
284
     8
340
11
341
A66
371
    -1
372
    -1
1001
ACAD_DSTYLE_DIMJOGGED_JOGANGLE_SYMBOL
1070
   384
1040
0.7853981633974483
1001
ACAD_DSTYLE_DIMARC_LENGTH_SYMBOL
1070
   379
1070
     1
  0
DIMSTYLE
105
2519
330
A
100
AcDbSymbolTableRecord
100
AcDbDimStyleTableRecord
  2
SYS$7
 70
     0
  4
"
 41
2.0
 42
1.0
 43
10.0
 44
1.0
 47
0.1
 48
0.1
 73
     0
 74
     0
 77
     1
 78
     8
 79
     2
140
3.2
141
0.0
143
0.0393701
146
0.71
147
1.0
172
     1
176
   256
177
   256
178
     2
271
     2
272
     2
283
     0
284
     8
340
11
341
A66
342
A66
371
    -1
372
    -1
1001
ACAD_DSTYLE_DIMJOGGED_JOGANGLE_SYMBOL
1070
   384
1040
0.7853981633974483
1001
ACAD_DSTYLE_DIMARC_LENGTH_SYMBOL
1070
   379
1070
     1
  0
DIMSTYLE
105
251A
330
A
100
AcDbSymbolTableRecord
100
AcDbDimStyleTableRecord
  2
SYS$SF
 70
     0
  4
"
 41
2.5
 42
1.0
 43
10.0
 44
1.0
 47
0.1
 48
0.1
 73
     0
 74
     0
 75
     1
 76
     1
 77
     1
 78
     8
 79
     2
140
3.2
141
0.0
143
0.0393701
146
0.71
147
1.0
172
     1
176
   256
177
   256
178
     2
271
     2
272
     2
283
     0
284
     8
340
11
341
6C4
342
6C4
371
    -1
372
    -1
1001
ACAD_DSTYLE_DIMJOGGED_JOGANGLE_SYMBOL
1070
   384
1040
0.7853981633974483
1001
ACAD_DSTYLE_DIMARC_LENGTH_SYMBOL
1070
   379
1070
     1
  0
DIMSTYLE
105
251B
330
A
100
AcDbSymbolTableRecord
100
AcDbDimStyleTableRecord
  2
SYS$SH
 70
     0
  4
"
 41
2.5
 42
1.0
 43
10.0
 44
1.0
 47
0.1
 48
0.1
 73
     0
 74
     0
 75
     1
 76
     1
 77
     1
 78
     8
 79
     2
140
3.2
141
0.0
143
0.0393701
144
2.0
146
0.71
147
1.0
172
     1
173
     1
176
   256
177
   256
178
     2
271
     2
272
     2
283
     0
284
     8
340
11
341
6C4
343
72
344
6C4
371
    -1
372
    -1
1001
ACAD_DSTYLE_DIMJOGGED_JOGANGLE_SYMBOL
1070
   384
1040
0.7853981633974483
1001
ACAD_DSTYLE_DIMARC_LENGTH_SYMBOL
1070
   379
1070
     1
  0
DIMSTYLE
105
2A59
330
A
100
AcDbSymbolTableRecord
100
AcDbDimStyleTableRecord
  2
SYS$2
 70
     0
  4
"
 41
1.0
 42
1.0
 43
10.0
 44
1.0
 47
0.1
 48
0.1
 73
     0
 74
     0
 77
     1
 78
     8
 79
     2
140
3.2
141
0.0
143
0.0393701
146
0.71
147
1.0
172
     1
176
   256
177
   256
178
     2
271
     2
272
     2
283
     0
284
     8
340
11
342
6C4
371
    -1
372
    -1
1001
ACAD_DSTYLE_DIMJOGGED_JOGANGLE_SYMBOL
1070
   384
1040
0.7853981633974483
1001
ACAD_DSTYLE_DIMARC_LENGTH_SYMBOL
1070
   379
1070
     1
  0
DIMSTYLE
105
2AAB
102
{ACAD_REACTORS
330
3EC1B
330
3EC1C
330
3EC47
330
3EC48
330
3EC73
330
3ECE9
330
3ECEA
330
3ED19
330
3ED1A
330
3ED49
330
3ED4A
330
3ED4B
330
3ED4C
330
3EDDB
330
53885
102
}
330
A
100
AcDbSymbolTableRecord
100
AcDbDimStyleTableRecord
  2
SYS$0
 70
     0
  4
"
 41
1.0
 42
1.0
 43
10.0
 44
1.0
 47
0.1
 48
0.1
 73
     0
 74
     0
 77
     1
 78
     8
 79
     2
140
3.200000000000001
141
0.0
143
0.0393701
146
0.71
147
1.0
172
     1
176
   256
177
   256
178
     2
271
     2
272
     2
283
     0
284
     8
340
11
341
A66
342
6C4
371
    -1
372
    -1
1001
ACAD_DSTYLE_DIMJOGGED_JOGANGLE_SYMBOL
1070
   384
1040
0.7853981633974483
1001
ACAD_DSTYLE_DIMARC_LENGTH_SYMBOL
1070
   379
1070
     1
  0
DIMSTYLE
105
AF99
330
A
100
AcDbSymbolTableRecord
100
AcDbDimStyleTableRecord
  2
AM_ISO
 70
     0
  4
"
 41
2.5
 42
1.0
 43
10.0
 44
1.0
 47
0.1
 48
0.1
 73
     0
 74
     0
 77
     1
 78
     8
 79
     2
140
3.5
141
0.0
143
0.0393701
146
0.71
147
1.5
172
     1
176
   256
177
   256
178
     2
271
     2
272
     3
274
     4
283
     0
284
     8
340
11
371
    -1
372
    -1
  0
DIMSTYLE
105
AF9A
330
A
100
AcDbSymbolTableRecord
100
AcDbDimStyleTableRecord
  2
AM_ISO$3
 70
     0
  4
"
 41
2.5
 42
1.0
 43
10.0
 44
1.0
 47
0.1
 48
0.1
 73
     0
 77
     1
 78
     8
 79
     2
140
3.5
141
0.0
143
0.0393701
146
0.71
147
1.5
176
   256
177
   256
178
     2
271
     2
272
     3
274
     4
283
     0
284
     8
288
     1
289
     0
340
11
371
    -1
372
    -1
  0
DIMSTYLE
105
AF9B
330
A
100
AcDbSymbolTableRecord
100
AcDbDimStyleTableRecord
  2
AM_ISO$4
 70
     0
  4
"
 41
2.5
 42
1.0
 43
10.0
 44
1.0
 47
0.1
 48
0.1
 73
     0
 77
     1
 78
     8
 79
     2
140
3.5
141
0.0
143
0.0393701
146
0.71
147
1.5
176
   256
177
   256
178
     2
271
     2
272
     3
274
     4
283
     0
284
     8
288
     1
289
     0
340
11
371
    -1
372
    -1
  0
DIMSTYLE
105
AF9C
330
A
100
AcDbSymbolTableRecord
100
AcDbDimStyleTableRecord
  2
AM_ISO$6
 70
     0
  4
"
 41
2.5
 42
1.0
 43
10.0
 44
1.0
 47
0.1
 48
0.1
 73
     0
 74
     0
 78
     8
 79
     2
140
3.5
141
0.0
143
0.0393701
146
0.71
147
1.5
172
     1
176
   256
177
   256
178
     2
271
     2
272
     3
274
     4
283
     0
284
     8
340
11
371
    -1
372
    -1
  0
DIMSTYLE
105
AF9D
330
A
100
AcDbSymbolTableRecord
100
AcDbDimStyleTableRecord
  2
AM_ISO$7
 70
     0
  4
"
 41
2.5
 42
1.0
 43
10.0
 44
1.0
 47
0.1
 48
0.1
 73
     0
 74
     0
 77
     1
 78
     8
 79
     2
140
5.0
141
0.0
143
0.0393701
146
0.71
147
1.5
172
     1
176
   256
177
   256
178
     2
271
     2
272
     3
274
     4
283
     0
284
     8
340
11
371
    -1
372
    -1
  0
DIMSTYLE
105
AF9E
330
A
100
AcDbSymbolTableRecord
100
AcDbDimStyleTableRecord
  2
AM_ISO$SF
 70
     0
  4
"
 41
2.5
 42
1.0
 43
10.0
 44
1.0
 47
0.1
 48
0.1
 73
     0
 74
     0
 75
     1
 76
     1
 77
     1
 78
     8
 79
     2
140
3.5
141
0.0
143
0.0393701
146
0.71
147
1.5
172
     1
176
   256
177
   256
178
     2
271
     2
272
     3
274
     4
283
     0
284
     8
340
11
371
    -1
372
    -1
  0
DIMSTYLE
105
AF9F
330
A
100
AcDbSymbolTableRecord
100
AcDbDimStyleTableRecord
  2
AM_ISO$SH
 70
     0
  4
"
 41
2.5
 42
1.0
 43
10.0
 44
1.0
 47
0.1
 48
0.1
 73
     0
 74
     0
 75
     1
 76
     1
 77
     1
 78
     8
 79
     2
140
3.5
141
0.0
143
0.0393701
144
2.0
146
0.71
147
1.5
172
     1
173
     1
176
   256
177
   256
178
     2
271
     2
272
     3
274
     4
283
     0
284
     8
340
11
343
72
371
    -1
372
    -1
  0
DIMSTYLE
105
B60C
330
A
100
AcDbSymbolTableRecord
100
AcDbDimStyleTableRecord
  2
AM_ANSI
 70
     0
  4
mm
 41
0.1
 42
0.05
 43
0.5
 44
0.1
 47
0.1
 48
0.1
 78
     7
 79
     2
140
0.12
141
0.0
146
0.71
147
0.06
176
   256
177
   256
178
     2
274
     4
284
     7
340
11
371
    -1
372
    -1
  0
DIMSTYLE
105
C485
330
A
100
AcDbSymbolTableRecord
100
AcDbDimStyleTableRecord
  2
AM_ISO$0
 70
     0
  4
"
 41
0.8
 42
1.0
 43
10.0
 44
1.0
 47
0.1
 48
0.1
 73
     0
 74
     0
 77
     1
 78
     8
 79
     2
140
3.2
141
0.0
143
0.0393701
146
0.71
147
0.9999999999999996
172
     1
176
   256
177
   256
178
     2
271
     2
272
     2
283
     0
284
     8
340
11
341
6C4
342
6C4
371
    -1
372
    -1
1001
ACAD_DSTYLE_DIMJOGGED_JOGANGLE_SYMBOL
1070
   384
1040
0.7853981633974483
1001
ACAD_DSTYLE_DIMARC_LENGTH_SYMBOL
1070
   379
1070
     1
  0
DIMSTYLE
105
C486
330
A
100
AcDbSymbolTableRecord
100
AcDbDimStyleTableRecord
  2
AM_ISO$2
 70
     0
  4
"
 41
0.8
 42
1.0
 43
10.0
 44
1.0
 47
0.1
 48
0.1
 73
     0
 74
     0
 77
     3
 78
     8
 79
     2
140
3.200000000000001
141
0.0
143
0.0393701
146
0.71
147
0.9999999999999996
172
     1
176
   256
177
   256
178
     2
271
     2
272
     2
283
     0
284
     8
340
11
342
6C4
371
    -1
372
    -1
1001
ACAD_DSTYLE_DIMJOGGED_JOGANGLE_SYMBOL
1070
   384
1040
0.7853981633974483
1001
ACAD_DSTYLE_DIMARC_LENGTH_SYMBOL
1070
   379
1070
     1
  0
DIMSTYLE
105
FD1A
330
A
100
AcDbSymbolTableRecord
100
AcDbDimStyleTableRecord
  2
AM_ANSI$3
 70
     0
  4
mm
 41
0.1
 42
0.05
 43
0.5
 44
0.1
 47
0.1
 48
0.1
 78
     7
 79
     2
140
0.12
141
0.0
146
0.71
147
0.06
176
   256
177
   256
178
     2
274
     4
284
     7
288
     1
289
     0
340
11
371
    -1
372
    -1
1001
ACAD_DSTYLE_DIMARC_LENGTH_SYMBOL
1070
   379
1070
     1
  0
DIMSTYLE
105
FD1B
330
A
100
AcDbSymbolTableRecord
100
AcDbDimStyleTableRecord
  2
AM_ANSI$4
 70
     0
  4
mm
 41
0.1
 42
0.05
 43
0.5
 44
0.1
 47
0.1
 48
0.1
 78
     7
 79
     2
140
0.12
141
0.0
146
0.71
147
0.06
176
   256
177
   256
178
     2
274
     4
284
     7
288
     1
289
     0
340
11
371
    -1
372
    -1
1001
ACAD_DSTYLE_DIMARC_LENGTH_SYMBOL
1070
   379
1070
     1
  0
DIMSTYLE
105
FD1C
330
A
100
AcDbSymbolTableRecord
100
AcDbDimStyleTableRecord
  2
AM_ANSI$7
 70
     0
  4
mm
 41
0.1
 42
0.05
 43
0.5
 44
0.1
 47
0.1
 48
0.1
 78
     7
 79
     2
140
0.24
141
0.0
146
0.71
147
0.06
176
   256
177
   256
178
     2
274
     4
284
     7
340
11
371
    -1
372
    -1
1001
ACAD_DSTYLE_DIMARC_LENGTH_SYMBOL
1070
   379
1070
     1
  0
DIMSTYLE
105
FD1D
330
A
100
AcDbSymbolTableRecord
100
AcDbDimStyleTableRecord
  2
AM_ANSI$SF
 70
     0
  4
mm
 41
0.1
 42
0.05
 43
0.5
 44
0.1
 47
0.1
 48
0.1
 75
     1
 76
     1
 78
     7
 79
     2
140
0.12
141
0.0
146
0.71
147
0.06
176
   256
177
   256
178
     2
274
     4
284
     7
340
11
371
    -1
372
    -1
1001
ACAD_DSTYLE_DIMARC_LENGTH_SYMBOL
1070
   379
1070
     1
  0
DIMSTYLE
105
FD1E
330
A
100
AcDbSymbolTableRecord
100
AcDbDimStyleTableRecord
  2
AM_ANSI$SH
 70
     0
  4
mm
 41
0.1
 42
0.05
 43
0.5
 44
0.1
 47
0.1
 48
0.1
 75
     1
 76
     1
 78
     7
 79
     2
140
0.12
141
0.0
146
0.71
147
0.06
173
     1
176
   256
177
   256
178
     2
274
     4
284
     7
340
11
343
72
371
    -1
372
    -1
1001
ACAD_DSTYLE_DIMARC_LENGTH_SYMBOL
1070
   379
1070
     1
  0
ENDTAB
  0
TABLE
  2
BLOCK_RECORD
  5
1
330
0
100
AcDbSymbolTable
 70
   136
  0
BLOCK_RECORD
  5
1F
102
{ACAD_XDICTIONARY
360
8A
102
}
330
1
100
AcDbSymbolTableRecord
100
AcDbBlockTableRecord
  2
*Model_Space
340
22
  0
BLOCK_RECORD
  5
1B
330
1
100
AcDbSymbolTableRecord
100
AcDbBlockTableRecord
  2
*Paper_Space
340
1E
  0
BLOCK_RECORD
  5
23
330
1
100
AcDbSymbolTableRecord
100
AcDbBlockTableRecord
  2
*Paper_Space0
340
26
  0
BLOCK_RECORD
  5
72
330
1
100
AcDbSymbolTableRecord
100
AcDbBlockTableRecord
  2
GENAXEH
340
0
  0
BLOCK_RECORD
  5
6C4
330
1
100
AcDbSymbolTableRecord
100
AcDbBlockTableRecord
  2
_Dot
340
0
102
{BLKREFS
331
5387D
331
5387E
331
538CC
331
538CD
331
59792
331
59793
331
5979B
331
5979C
331
5B29A
331
5B29B
331
5B2A6
331
5B2A7
331
5B2B2
331
5B2B3
331
5B2BE
331
5B2BF
331
5B2CA
331
5B2CB
331
5B2D8
331
5B2D9
331
5B2E4
331
5B2E5
331
5B2F2
331
5B2F3
331
5B2FE
331
5B2FF
331
5B30A
331
5B30B
331
5B316
331
5B317
331
5B322
331
5B323
331
5B32E
331
5B32F
331
5B33A
331
5B33B
331
5B348
331
5B349
331
5B354
331
5B355
331
5B360
331
5B361
331
5B6B1
331
5B6B2
331
5B6BA
331
5B6BB
331
5B6C3
331
5B6C4
331
5B6CC
331
5B6CD
331
5B6D5
331
5B6D6
331
5B6E0
331
5B6E1
331
5B6E9
331
5B6EA
331
5B6F4
331
5B6F5
331
5B6FD
331
5B6FE
331
5B706
331
5B707
331
5B70F
331
5B710
331
5B718
331
5B719
331
5B721
331
5B722
331
5B72A
331
5B72B
331
5B735
331
5B736
331
5B73E
331
5B73F
331
5B747
331
5B748
331
5B7A0
331
5B7A1
331
5B7D3
331
5B7D4
331
5B817
331
5B818
331
5B85C
331
5B85D
331
5B8B8
331
5B8B9
331
5B8CA
331
5B8CB
331
5B953
331
5B954
331
5B990
331
5B991
331
5BA62
331
5BA63
331
5B99C
331
5B99D
331
5B9A8
331
5B9A9
331
5B9B4
331
5B9B5
331
5B9C0
331
5B9C1
331
5B9CC
331
5B9CD
331
5B9DA
331
5B9DB
331
5B9E6
331
5B9E7
331
5B9F4
331
5B9F5
331
5BA00
331
5BA01
331
5BA0C
331
5BA0D
331
5BA18
331
5BA19
331
5BA24
331
5BA25
331
5BA30
331
5BA31
331
5BA3C
331
5BA3D
331
5BA4A
331
5BA4B
331
5BA56
331
5BA57
331
5BDB1
331
5BDB2
331
5BDBA
331
5BDBB
331
5BDC3
331
5BDC4
331
5BDCC
331
5BDCD
331
5BDD5
331
5BDD6
331
5BDE0
331
5BDE1
331
5BDE9
331
5BDEA
331
5BDF4
331
5BDF5
331
5BDFD
331
5BDFE
331
5BE06
331
5BE07
331
5BE0F
331
5BE10
331
5BE18
331
5BE19
331
5BE21
331
5BE22
331
5BE2A
331
5BE2B
331
5BE35
331
5BE36
331
5BE3E
331
5BE3F
331
5BE47
331
5BE48
331
5BF44
331
5BF51
331
5BF52
331
5BF5B
331
5BF5C
331
5BF69
331
5BF6A
331
5BF75
331
5BF76
331
5BE95
331
5BE96
331
5BEA1
331
5BEA2
331
5BEAD
331
5BEAE
331
5BEB9
331
5BEBA
331
5BEC5
331
5BEC6
331
5BED3
331
5BED4
331
5BEE1
331
5BEE2
331
5BEED
331
5BEEE
331
5BEFB
331
5BEFC
331
5BF07
331
5BF08
331
5BF13
331
5BF14
331
5BF1F
331
5BF20
331
5BF2B
331
5BF2C
331
5BF37
331
5BF38
331
5BF43
331
5C31C
331
5C31D
331
5C325
331
5C326
331
5C32E
331
5C32F
331
5C337
331
5C338
331
5C340
331
5C341
331
5C34B
331
5C34C
331
5C356
331
5C357
331
5C35F
331
5C360
331
5C36A
331
5C36B
331
5C373
331
5C374
331
5C37C
331
5C37D
331
5C385
331
5C386
331
5C38E
331
5C38F
331
5C397
331
5C398
331
5C3A0
331
5C3A1
331
5C3AB
331
5C3AC
331
5C3B2
331
5C3B3
331
5C3BD
331
5C3BE
331
5C3C6
331
5C3C7
331
5C431
331
5C432
331
5C43A
331
5C43B
331
5C443
331
5C444
331
5C455
331
5C456
331
5C467
331
5C468
331
5C479
331
5C47A
331
5C494
331
5C495
331
5C4A6
331
5C4A7
331
5C4C1
331
5C4C2
331
5C4CA
331
5C4CB
331
5C507
331
5C508
102
}
  0
BLOCK_RECORD
  5
A66
330
1
100
AcDbSymbolTableRecord
100
AcDbBlockTableRecord
  2
_OPEN30
340
0
  0
BLOCK_RECORD
  5
3EC1D
330
1
100
AcDbSymbolTableRecord
100
AcDbBlockTableRecord
  2
*D7
340
0
  0
BLOCK_RECORD
  5
3EC29
330
1
100
AcDbSymbolTableRecord
100
AcDbBlockTableRecord
  2
*D8
340
0
  0
BLOCK_RECORD
  5
3EC49
330
1
100
AcDbSymbolTableRecord
100
AcDbBlockTableRecord
  2
*D9
340
0
  0
BLOCK_RECORD
  5
3EC55
330
1
100
AcDbSymbolTableRecord
100
AcDbBlockTableRecord
  2
*D10
340
0
  0
BLOCK_RECORD
  5
3EC74
330
1
100
AcDbSymbolTableRecord
100
AcDbBlockTableRecord
  2
*D11
340
0
  0
BLOCK_RECORD
  5
3ECEB
330
1
100
AcDbSymbolTableRecord
100
AcDbBlockTableRecord
  2
*D13
340
0
  0
BLOCK_RECORD
  5
3ECF9
330
1
100
AcDbSymbolTableRecord
100
AcDbBlockTableRecord
  2
*D14
340
0
  0
BLOCK_RECORD
  5
3ED1B
330
1
100
AcDbSymbolTableRecord
100
AcDbBlockTableRecord
  2
*D15
340
0
  0
BLOCK_RECORD
  5
3ED29
330
1
100
AcDbSymbolTableRecord
100
AcDbBlockTableRecord
  2
*D16
340
0
  0
BLOCK_RECORD
  5
3ED4D
330
1
100
AcDbSymbolTableRecord
100
AcDbBlockTableRecord
  2
*D17
340
0
  0
BLOCK_RECORD
  5
3ED59
330
1
100
AcDbSymbolTableRecord
100
AcDbBlockTableRecord
  2
*D18
340
0
  0
BLOCK_RECORD
  5
3ED65
330
1
100
AcDbSymbolTableRecord
100
AcDbBlockTableRecord
  2
*D19
340
0
  0
BLOCK_RECORD
  5
3ED71
330
1
100
AcDbSymbolTableRecord
100
AcDbBlockTableRecord
  2
*D20
340
0
  0
BLOCK_RECORD
  5
3EDDC
330
1
100
AcDbSymbolTableRecord
100
AcDbBlockTableRecord
  2
*D21
340
0
  0
BLOCK_RECORD
  5
3EE1A
330
1
100
AcDbSymbolTableRecord
100
AcDbBlockTableRecord
  2
*D22
340
0
  0
BLOCK_RECORD
  5
53886
330
1
100
AcDbSymbolTableRecord
100
AcDbBlockTableRecord
  2
*D23
340
0
  0
BLOCK_RECORD
  5
552E8
330
1
100
AcDbSymbolTableRecord
100
AcDbBlockTableRecord
  2
*D24
340
0
  0
BLOCK_RECORD
  5
5530A
330
1
100
AcDbSymbolTableRecord
100
AcDbBlockTableRecord
  2
*D25
340
0
  0
ENDTAB
  0
ENDSEC
  0
SECTION
  2
BLOCKS
  0
BLOCK
  5
20
330
1F
100
AcDbEntity
  8
0
100
AcDbBlockBegin
  2
*Model_Space
 70
     0
 10
0.0
 20
0.0
 30
0.0
  3
*Model_Space
  1

  0
ENDBLK
  5
21
330
1F
100
AcDbEntity
  8
0
100
AcDbBlockEnd
  0
BLOCK
  5
1C
330
1B
100
AcDbEntity
 67
     1
  8
0
100
AcDbBlockBegin
  2
*Paper_Space
 70
     0
 10
0.0
 20
0.0
 30
0.0
  3
*Paper_Space
  1

  0
ENDBLK
  5
1D
330
1B
100
AcDbEntity
 67
     1
  8
0
100
AcDbBlockEnd
  0
BLOCK
  5
24
330
23
100
AcDbEntity
 67
     1
  8
0
100
AcDbBlockBegin
  2
*Paper_Space0
 70
     0
 10
0.0
 20
0.0
 30
0.0
  3
*Paper_Space0
  1

  0
ENDBLK
  5
25
330
23
100
AcDbEntity
 67
     1
  8
0
100
AcDbBlockEnd
  0
BLOCK
  5
74
330
72
100
AcDbEntity
  8
0
100
AcDbBlockBegin
  2
GENAXEH
 70
     0
 10
0.0
 20
0.0
 30
0.0
  3
GENAXEH
  1

  0
LINE
  5
73
330
72
100
AcDbEntity
  8
0
100
AcDbLine
 10
-1.0
 20
0.0
 30
0.0
 11
1.0
 21
0.0
 31
0.0
  0
ENDBLK
  5
75
330
72
100
AcDbEntity
  8
0
100
AcDbBlockEnd
  0
BLOCK
  5
6C7
330
6C4
100
AcDbEntity
  8
0
100
AcDbBlockBegin
  2
_Dot
 70
     0
 10
0.0
 20
0.0
 30
0.0
  3
_Dot
  1

  0
LWPOLYLINE
  5
6C5
330
6C4
100
AcDbEntity
  8
0
  6
ByBlock
 62
     0
100
AcDbPolyline
 90
        2
 70
     1
 43
0.5
 10
-0.25
 20
0.0
 42
1.0
 10
0.25
 20
0.0
 42
1.0
  0
LINE
  5
6C6
330
6C4
100
AcDbEntity
  8
0
  6
ByBlock
 62
     0
370
    -2
100
AcDbLine
 10
-0.5
 20
0.0
 30
0.0
 11
-1.0
 21
0.0
 31
0.0
  0
ENDBLK
  5
6C8
330
6C4
100
AcDbEntity
  8
0
100
AcDbBlockEnd
  0
BLOCK
  5
A6A
330
A66
100
AcDbEntity
  8
0
100
AcDbBlockBegin
  2
_OPEN30
 70
     0
 10
0.0
 20
0.0
 30
0.0
  3
_OPEN30
  1

  0
LINE
  5
A67
330
A66
100
AcDbEntity
  8
0
  6
ByBlock
 62
     0
100
AcDbLine
 10
-1.0
 20
0.26794919
 30
0.0
 11
0.0
 21
0.0
 31
0.0
  0
LINE
  5
A68
330
A66
100
AcDbEntity
  8
0
  6
ByBlock
 62
     0
100
AcDbLine
 10
0.0
 20
0.0
 30
0.0
 11
-1.0
 21
-0.26794919
 31
0.0
  0
LINE
  5
A69
330
A66
100
AcDbEntity
  8
0
  6
ByBlock
 62
     0
100
AcDbLine
 10
0.0
 20
0.0
 30
0.0
 11
-1.0
 21
0.0
 31
0.0
  0
ENDBLK
  5
A6B
330
A66
100
AcDbEntity
  8
0
100
AcDbBlockEnd
  0
BLOCK
  5
3EC27
330
3EC1D
100
AcDbEntity
  8
0
100
AcDbBlockBegin
  2
*D7
 70
     1
 10
0.0
 20
0.0
 30
0.0
  3
*D7
  1

  0
LINE
  5
5C4A3
330
3EC1D
100
AcDbEntity
  8
AM_5
100
AcDbLine
 10
6259.535176871628
 20
-326.1565886969342
 30
0.0
 11
6278.535176871628
 21
-326.1565886969343
 31
0.0
  0
LINE
  5
5C4A4
330
3EC1D
100
AcDbEntity
  8
AM_5
100
AcDbLine
 10
6259.535176871628
 20
-348.1565886969343
 30
0.0
 11
6278.535176871628
 21
-348.1565886969343
 31
0.0
  0
LINE
  5
5C4A5
330
3EC1D
100
AcDbEntity
  8
AM_5
100
AcDbLine
 10
6277.535176871628
 20
-327.1565886969343
 30
0.0
 11
6277.535176871628
 21
-347.1565886969343
 31
0.0
  0
INSERT
  5
5C4A6
330
3EC1D
100
AcDbEntity
  8
AM_5
100
AcDbBlockReference
  2
_Dot
 10
6277.535176871628
 20
-326.1565886969343
 30
0.0
 50
90.0
  0
INSERT
  5
5C4A7
330
3EC1D
100
AcDbEntity
  8
AM_5
100
AcDbBlockReference
  2
_Dot
 10
6277.535176871628
 20
-348.1565886969343
 30
0.0
 50
270.0
  0
MTEXT
  5
5C4A8
330
3EC1D
100
AcDbEntity
  8
AM_5
 62
     2
100
AcDbMText
 10
6274.935176871628
 20
-337.1565886969343
 30
0.0
 40
3.200000000000001
 41
0.0
 71
     5
 72
     1
  1
C
 11
0.0000000000000001
 21
1.0
 31
0.0
 73
     1
 44
1.0
1001
ACAD
1000
MTEXTBEGIN
1070
    73
1070
     1
1070
    44
1040
1.0
1070
    74
1070
     0
1000
MTEXTEND
  0
POINT
  5
5C4A9
330
3EC1D
100
AcDbEntity
  8
Defpoints
 62
     0
100
AcDbPoint
 10
6258.535176871628
 20
-326.1565886969342
 30
0.0
  0
POINT
  5
5C4AA
330
3EC1D
100
AcDbEntity
  8
Defpoints
 62
     0
100
AcDbPoint
 10
6258.535176871628
 20
-348.1565886969343
 30
0.0
  0
POINT
  5
5C4AB
330
3EC1D
100
AcDbEntity
  8
Defpoints
 62
     0
100
AcDbPoint
 10
6277.535176871628
 20
-348.1565886969343
 30
0.0
  0
ENDBLK
  5
3EC28
330
3EC1D
100
AcDbEntity
  8
0
100
AcDbBlockEnd
  0
BLOCK
  5
3EC33
330
3EC29
100
AcDbEntity
  8
0
100
AcDbBlockBegin
  2
*D8
 70
     1
 10
0.0
 20
0.0
 30
0.0
  3
*D8
  1

  0
LINE
  5
5C4BE
330
3EC29
100
AcDbEntity
  8
AM_5
100
AcDbLine
 10
6227.921186871629
 20
-321.1565886969343
 30
0.0
 11
6286.535176871628
 21
-321.1565886969343
 31
0.0
  0
LINE
  5
5C4BF
330
3EC29
100
AcDbEntity
  8
AM_5
100
AcDbLine
 10
6227.921186871629
 20
-353.1565886969344
 30
0.0
 11
6286.535176871628
 21
-353.1565886969344
 31
0.0
  0
LINE
  5
5C4C0
330
3EC29
100
AcDbEntity
  8
AM_5
100
AcDbLine
 10
6285.535176871628
 20
-322.1565886969343
 30
0.0
 11
6285.535176871628
 21
-352.1565886969344
 31
0.0
  0
INSERT
  5
5C4C1
330
3EC29
100
AcDbEntity
  8
AM_5
100
AcDbBlockReference
  2
_Dot
 10
6285.535176871628
 20
-321.1565886969343
 30
0.0
 50
90.0
  0
INSERT
  5
5C4C2
330
3EC29
100
AcDbEntity
  8
AM_5
100
AcDbBlockReference
  2
_Dot
 10
6285.535176871628
 20
-353.1565886969344
 30
0.0
 50
270.0
  0
MTEXT
  5
5C4C3
330
3EC29
100
AcDbEntity
  8
AM_5
 62
     2
100
AcDbMText
 10
6282.935176871628
 20
-337.1565886969343
 30
0.0
 40
3.200000000000001
 41
0.0
 71
     5
 72
     1
  1
（B）
 11
0.0000000000000001
 21
1.0
 31
0.0
 73
     1
 44
1.0
1001
ACAD
1000
MTEXTBEGIN
1070
    73
1070
     1
1070
    44
1040
1.0
1070
    74
1070
     0
1000
MTEXTEND
  0
POINT
  5
5C4C4
330
3EC29
100
AcDbEntity
  8
Defpoints
 62
     0
100
AcDbPoint
 10
6226.921186871628
 20
-321.1565886969343
 30
0.0
  0
POINT
  5
5C4C5
330
3EC29
100
AcDbEntity
  8
Defpoints
 62
     0
100
AcDbPoint
 10
6226.921186871628
 20
-353.1565886969344
 30
0.0
  0
POINT
  5
5C4C6
330
3EC29
100
AcDbEntity
  8
Defpoints
 62
     0
100
AcDbPoint
 10
6285.535176871628
 20
-353.1565886969344
 30
0.0
  0
ENDBLK
  5
3EC34
330
3EC29
100
AcDbEntity
  8
0
100
AcDbBlockEnd
  0
BLOCK
  5
3EC53
330
3EC49
100
AcDbEntity
  8
0
100
AcDbBlockBegin
  2
*D9
 70
     1
 10
0.0
 20
0.0
 30
0.0
  3
*D9
  1

  0
LINE
  5
5B7D0
330
3EC49
100
AcDbEntity
  8
AM_5
100
AcDbLine
 10
6217.535176871628
 20
-329.1565886969343
 30
0.0
 11
6217.535176871628
 21
-311.6565886969342
 31
0.0
  0
LINE
  5
5B7D1
330
3EC49
100
AcDbEntity
  8
AM_5
100
AcDbLine
 10
6269.535176871628
 20
-336.1565886969342
 30
0.0
 11
6269.535176871628
 21
-311.6565886969342
 31
0.0
  0
LINE
  5
5B7D2
330
3EC49
100
AcDbEntity
  8
AM_5
100
AcDbLine
 10
6218.535176871628
 20
-312.6565886969343
 30
0.0
 11
6268.535176871628
 21
-312.6565886969343
 31
0.0
  0
INSERT
  5
5B7D3
330
3EC49
100
AcDbEntity
  8
AM_5
100
AcDbBlockReference
  2
_Dot
 10
6217.535176871628
 20
-312.6565886969343
 30
0.0
 50
180.0
  0
INSERT
  5
5B7D4
330
3EC49
100
AcDbEntity
  8
AM_5
100
AcDbBlockReference
  2
_Dot
 10
6269.535176871628
 20
-312.6565886969343
 30
0.0
  0
MTEXT
  5
5B7D5
330
3EC49
100
AcDbEntity
  8
AM_5
 62
     2
100
AcDbMText
 10
6244.013634871627
 20
-310.0565886969342
 30
0.0
 40
3.200000000000001
 41
0.0
 71
     5
 72
     1
  1
（A）
 73
     1
 44
1.0
1001
ACAD
1000
MTEXTBEGIN
1070
    73
1070
     1
1070
    44
1040
1.0
1070
    74
1070
     0
1000
MTEXTEND
  0
POINT
  5
5B7D6
330
3EC49
100
AcDbEntity
  8
Defpoints
 62
     0
100
AcDbPoint
 10
6217.535176871628
 20
-330.1565886969342
 30
0.0
  0
POINT
  5
5B7D7
330
3EC49
100
AcDbEntity
  8
Defpoints
 62
     0
100
AcDbPoint
 10
6269.535176871628
 20
-337.1565886969343
 30
0.0
  0
POINT
  5
5B7D8
330
3EC49
100
AcDbEntity
  8
Defpoints
 62
     0
100
AcDbPoint
 10
6269.535176871628
 20
-312.6565886969343
 30
0.0
  0
ENDBLK
  5
3EC54
330
3EC49
100
AcDbEntity
  8
0
100
AcDbBlockEnd
  0
BLOCK
  5
3EC5F
330
3EC55
100
AcDbEntity
  8
0
100
AcDbBlockBegin
  2
*D10
 70
     1
 10
0.0
 20
0.0
 30
0.0
  3
*D10
  1

  0
LINE
  5
5C491
330
3EC55
100
AcDbEntity
  8
AM_5
100
AcDbLine
 10
6209.416783871628
 20
-328.1565886969342
 30
0.0
 11
6209.416783871628
 21
-311.6565886969342
 31
0.0
  0
LINE
  5
5C492
330
3EC55
100
AcDbEntity
  8
AM_5
100
AcDbLine
 10
6191.916783871628
 20
-336.1565886969342
 30
0.0
 11
6191.916783871628
 21
-311.6565886969342
 31
0.0
  0
LINE
  5
5C493
330
3EC55
100
AcDbEntity
  8
AM_5
100
AcDbLine
 10
6208.416783871627
 20
-312.6565886969343
 30
0.0
 11
6192.916783871627
 21
-312.6565886969343
 31
0.0
  0
INSERT
  5
5C494
330
3EC55
100
AcDbEntity
  8
AM_5
100
AcDbBlockReference
  2
_Dot
 10
6209.416783871628
 20
-312.6565886969343
 30
0.0
  0
INSERT
  5
5C495
330
3EC55
100
AcDbEntity
  8
AM_5
100
AcDbBlockReference
  2
_Dot
 10
6191.916783871628
 20
-312.6565886969343
 30
0.0
 50
180.0
  0
MTEXT
  5
5C496
330
3EC55
100
AcDbEntity
  8
AM_5
 62
     2
100
AcDbMText
 10
6200.612980098314
 20
-310.0565886969342
 30
0.0
 40
3.200000000000001
 41
0.0
 71
     5
 72
     1
  1
（D）
 73
     1
 44
1.0
1001
ACAD
1000
MTEXTBEGIN
1070
    73
1070
     1
1070
    44
1040
1.0
1070
    74
1070
     0
1000
MTEXTEND
  0
POINT
  5
5C497
330
3EC55
100
AcDbEntity
  8
Defpoints
 62
     0
100
AcDbPoint
 10
6209.416783871628
 20
-329.1565886969343
 30
0.0
  0
POINT
  5
5C498
330
3EC55
100
AcDbEntity
  8
Defpoints
 62
     0
100
AcDbPoint
 10
6191.916783871628
 20
-337.1565886969343
 30
0.0
  0
POINT
  5
5C499
330
3EC55
100
AcDbEntity
  8
Defpoints
 62
     0
100
AcDbPoint
 10
6191.916783871628
 20
-312.6565886969343
 30
0.0
  0
ENDBLK
  5
3EC60
330
3EC55
100
AcDbEntity
  8
0
100
AcDbBlockEnd
  0
BLOCK
  5
3EC7E
330
3EC74
100
AcDbEntity
  8
0
100
AcDbBlockBegin
  2
*D11
 70
     1
 10
0.0
 20
0.0
 30
0.0
  3
*D11
  1

  0
LINE
  5
5C476
330
3EC74
100
AcDbEntity
  8
AM_5
100
AcDbLine
 10
6197.498962385518
 20
-323.1571033127977
 30
0.0
 11
6183.416783871628
 21
-323.1571033127977
 31
0.0
  0
LINE
  5
5C477
330
3EC74
100
AcDbEntity
  8
AM_5
100
AcDbLine
 10
6197.498962385518
 20
-351.1560750810712
 30
0.0
 11
6183.416783871628
 21
-351.1560750810712
 31
0.0
  0
LINE
  5
5C478
330
3EC74
100
AcDbEntity
  8
AM_5
100
AcDbLine
 10
6184.416783871627
 20
-324.1571033127977
 30
0.0
 11
6184.416783871627
 21
-350.1560750810711
 31
0.0
  0
INSERT
  5
5C479
330
3EC74
100
AcDbEntity
  8
AM_5
100
AcDbBlockReference
  2
_Dot
 10
6184.416783871627
 20
-323.1571033127977
 30
0.0
 50
90.0
  0
INSERT
  5
5C47A
330
3EC74
100
AcDbEntity
  8
AM_5
100
AcDbBlockReference
  2
_Dot
 10
6184.416783871627
 20
-351.1560750810712
 30
0.0
 50
270.0
  0
MTEXT
  5
5C47B
330
3EC74
100
AcDbEntity
  8
AM_5
 62
     2
100
AcDbMText
 10
6181.816783871627
 20
-337.1565891969335
 30
0.0
 40
3.200000000000001
 41
0.0
 71
     5
 72
     1
  1
E
 11
0.0000000000000001
 21
1.0
 31
0.0
 73
     1
 44
1.0
1001
ACAD
1000
MTEXTBEGIN
1070
    73
1070
     1
1070
    44
1040
1.0
1070
    74
1070
     0
1000
MTEXTEND
  0
POINT
  5
5C47C
330
3EC74
100
AcDbEntity
  8
Defpoints
 62
     0
100
AcDbPoint
 10
6198.498962385518
 20
-323.1571033127977
 30
0.0
  0
POINT
  5
5C47D
330
3EC74
100
AcDbEntity
  8
Defpoints
 62
     0
100
AcDbPoint
 10
6198.498962385518
 20
-351.1560750810712
 30
0.0
  0
POINT
  5
5C47E
330
3EC74
100
AcDbEntity
  8
Defpoints
 62
     0
100
AcDbPoint
 10
6184.416783871627
 20
-351.1560750810712
 30
0.0
  0
ENDBLK
  5
3EC7F
330
3EC74
100
AcDbEntity
  8
0
100
AcDbBlockEnd
  0
BLOCK
  5
3ECF7
330
3ECEB
100
AcDbEntity
  8
0
100
AcDbBlockBegin
  2
*D13
 70
     1
 10
0.0
 20
0.0
 30
0.0
  3
*D13
  1

  0
LINE
  5
5B857
330
3ECEB
100
AcDbEntity
  8
AM_5
100
AcDbLine
 10
6191.416783871627
 20
-382.134871391781
 30
0.0
 11
6183.416783871628
 21
-382.134871391781
 31
0.0
  0
LINE
  5
5B858
330
3ECEB
100
AcDbEntity
  8
AM_5
100
AcDbLine
 10
6191.416783871627
 20
-380.634871391781
 30
0.0
 11
6183.416783871628
 21
-380.634871391781
 31
0.0
  0
LINE
  5
5B859
330
3ECEB
100
AcDbEntity
  8
AM_5
100
AcDbLine
 10
6184.416783871627
 20
-379.634871391781
 30
0.0
 11
6184.416783871627
 21
-378.634871391781
 31
0.0
  0
LINE
  5
5B85A
330
3ECEB
100
AcDbEntity
  8
AM_5
100
AcDbLine
 10
6184.416783871627
 20
-383.134871391781
 30
0.0
 11
6184.416783871627
 21
-387.2015380584476
 31
0.0
  0
LINE
  5
5B85B
330
3ECEB
100
AcDbEntity
  8
AM_5
100
AcDbLine
 10
6184.416783871627
 20
-380.634871391781
 30
0.0
 11
6184.416783871627
 21
-382.134871391781
 31
0.0
  0
INSERT
  5
5B85C
330
3ECEB
100
AcDbEntity
  8
AM_5
100
AcDbBlockReference
  2
_Dot
 10
6184.416783871627
 20
-380.634871391781
 30
0.0
 50
270.0
  0
INSERT
  5
5B85D
330
3ECEB
100
AcDbEntity
  8
AM_5
100
AcDbBlockReference
  2
_Dot
 10
6184.416783871627
 20
-382.134871391781
 30
0.0
 50
90.0
  0
MTEXT
  5
5B85E
330
3ECEB
100
AcDbEntity
  8
AM_5
 62
     2
100
AcDbMText
 10
6181.816783871627
 20
-385.6682047251134
 30
0.0
 40
3.200000000000001
 41
0.0
 71
     5
 72
     1
  1
J
 11
0.0000000000000001
 21
1.0
 31
0.0
 73
     1
 44
1.0
1001
ACAD
1000
MTEXTBEGIN
1070
    73
1070
     1
1070
    44
1040
1.0
1070
    74
1070
     0
1000
MTEXTEND
  0
POINT
  5
5B85F
330
3ECEB
100
AcDbEntity
  8
Defpoints
 62
     0
100
AcDbPoint
 10
6192.416783871628
 20
-382.134871391781
 30
0.0
  0
POINT
  5
5B860
330
3ECEB
100
AcDbEntity
  8
Defpoints
 62
     0
100
AcDbPoint
 10
6192.416783871628
 20
-380.634871391781
 30
0.0
  0
POINT
  5
5B861
330
3ECEB
100
AcDbEntity
  8
Defpoints
 62
     0
100
AcDbPoint
 10
6184.416783871627
 20
-380.634871391781
 30
0.0
  0
ENDBLK
  5
3ECF8
330
3ECEB
100
AcDbEntity
  8
0
100
AcDbBlockEnd
  0
BLOCK
  5
3ED03
330
3ECF9
100
AcDbEntity
  8
0
100
AcDbBlockBegin
  2
*D14
 70
     1
 10
0.0
 20
0.0
 30
0.0
  3
*D14
  1

  0
LINE
  5
5C504
330
3ECF9
100
AcDbEntity
  8
AM_5
100
AcDbLine
 10
6191.416783871627
 20
-382.134871391781
 30
0.0
 11
6175.416783871628
 21
-382.134871391781
 31
0.0
  0
LINE
  5
5C505
330
3ECF9
100
AcDbEntity
  8
AM_5
100
AcDbLine
 10
6204.365055100289
 20
-373.134871509981
 30
0.0
 11
6175.416783871628
 21
-373.134871509981
 31
0.0
  0
LINE
  5
5C506
330
3ECF9
100
AcDbEntity
  8
AM_5
100
AcDbLine
 10
6176.416783871627
 20
-381.1348713917809
 30
0.0
 11
6176.416783871627
 21
-374.134871509981
 31
0.0
  0
INSERT
  5
5C507
330
3ECF9
100
AcDbEntity
  8
AM_5
100
AcDbBlockReference
  2
_Dot
 10
6176.416783871627
 20
-382.134871391781
 30
0.0
 50
270.0
  0
INSERT
  5
5C508
330
3ECF9
100
AcDbEntity
  8
AM_5
100
AcDbBlockReference
  2
_Dot
 10
6176.416783871627
 20
-373.134871509981
 30
0.0
 50
90.0
  0
MTEXT
  5
5C509
330
3ECF9
100
AcDbEntity
  8
AM_5
 62
     2
100
AcDbMText
 10
6173.816783871627
 20
-377.63487139178
 30
0.0
 40
3.200000000000001
 41
0.0
 71
     5
 72
     1
  1
I
 11
0.0000000000000001
 21
1.0
 31
0.0
 73
     1
 44
1.0
1001
ACAD
1000
MTEXTBEGIN
1070
    73
1070
     1
1070
    44
1040
1.0
1070
    74
1070
     0
1000
MTEXTEND
  0
POINT
  5
5C50A
330
3ECF9
100
AcDbEntity
  8
Defpoints
 62
     0
100
AcDbPoint
 10
6192.416783871628
 20
-382.134871391781
 30
0.0
  0
POINT
  5
5C50B
330
3ECF9
100
AcDbEntity
  8
Defpoints
 62
     0
100
AcDbPoint
 10
6205.36505510029
 20
-373.134871509981
 30
0.0
  0
POINT
  5
5C50C
330
3ECF9
100
AcDbEntity
  8
Defpoints
 62
     0
100
AcDbPoint
 10
6176.416783871627
 20
-373.134871509981
 30
0.0
  0
ENDBLK
  5
3ED04
330
3ECF9
100
AcDbEntity
  8
0
100
AcDbBlockEnd
  0
BLOCK
  5
3ED27
330
3ED1B
100
AcDbEntity
  8
0
100
AcDbBlockBegin
  2
*D15
 70
     1
 10
0.0
 20
0.0
 30
0.0
  3
*D15
  1

  0
LINE
  5
5B8B3
330
3ED1B
100
AcDbEntity
  8
AM_5
100
AcDbLine
 10
6269.960492871629
 20
-382.134871391781
 30
0.0
 11
6278.535176871628
 21
-382.134871391781
 31
0.0
  0
LINE
  5
5B8B4
330
3ED1B
100
AcDbEntity
  8
AM_5
100
AcDbLine
 10
6269.960492871629
 20
-380.634871391781
 30
0.0
 11
6278.535176871628
 21
-380.634871391781
 31
0.0
  0
LINE
  5
5B8B5
330
3ED1B
100
AcDbEntity
  8
AM_5
100
AcDbLine
 10
6277.535176871628
 20
-379.634871391781
 30
0.0
 11
6277.535176871628
 21
-378.634871391781
 31
0.0
  0
LINE
  5
5B8B6
330
3ED1B
100
AcDbEntity
  8
AM_5
100
AcDbLine
 10
6277.535176871628
 20
-383.134871391781
 30
0.0
 11
6277.535176871628
 21
-387.6282047251146
 31
0.0
  0
LINE
  5
5B8B7
330
3ED1B
100
AcDbEntity
  8
AM_5
100
AcDbLine
 10
6277.535176871628
 20
-380.634871391781
 30
0.0
 11
6277.535176871628
 21
-382.134871391781
 31
0.0
  0
INSERT
  5
5B8B8
330
3ED1B
100
AcDbEntity
  8
AM_5
100
AcDbBlockReference
  2
_Dot
 10
6277.535176871628
 20
-380.634871391781
 30
0.0
 50
270.0
  0
INSERT
  5
5B8B9
330
3ED1B
100
AcDbEntity
  8
AM_5
100
AcDbBlockReference
  2
_Dot
 10
6277.535176871628
 20
-382.134871391781
 30
0.0
 50
90.0
  0
MTEXT
  5
5B8BA
330
3ED1B
100
AcDbEntity
  8
AM_5
 62
     2
100
AcDbMText
 10
6274.935176871628
 20
-385.881538058447
 30
0.0
 40
3.200000000000001
 41
0.0
 71
     5
 72
     1
  1
H
 11
0.0000000000000001
 21
1.0
 31
0.0
 73
     1
 44
1.0
1001
ACAD
1000
MTEXTBEGIN
1070
    73
1070
     1
1070
    44
1040
1.0
1070
    74
1070
     0
1000
MTEXTEND
  0
POINT
  5
5B8BB
330
3ED1B
100
AcDbEntity
  8
Defpoints
 62
     0
100
AcDbPoint
 10
6268.960492871628
 20
-382.134871391781
 30
0.0
  0
POINT
  5
5B8BC
330
3ED1B
100
AcDbEntity
  8
Defpoints
 62
     0
100
AcDbPoint
 10
6268.960492871628
 20
-380.634871391781
 30
0.0
  0
POINT
  5
5B8BD
330
3ED1B
100
AcDbEntity
  8
Defpoints
 62
     0
100
AcDbPoint
 10
6277.535176871628
 20
-380.634871391781
 30
0.0
  0
ENDBLK
  5
3ED28
330
3ED1B
100
AcDbEntity
  8
0
100
AcDbBlockEnd
  0
BLOCK
  5
3ED33
330
3ED29
100
AcDbEntity
  8
0
100
AcDbBlockBegin
  2
*D16
 70
     1
 10
0.0
 20
0.0
 30
0.0
  3
*D16
  1

  0
LINE
  5
5C4C7
330
3ED29
100
AcDbEntity
  8
AM_5
100
AcDbLine
 10
6269.960492871629
 20
-382.134871391781
 30
0.0
 11
6286.535176871628
 21
-382.134871391781
 31
0.0
  0
LINE
  5
5C4C8
330
3ED29
100
AcDbEntity
  8
AM_5
100
AcDbLine
 10
6223.633168871629
 20
-368.934871391781
 30
0.0
 11
6286.535176871628
 21
-368.9348713917811
 31
0.0
  0
LINE
  5
5C4C9
330
3ED29
100
AcDbEntity
  8
AM_5
100
AcDbLine
 10
6285.535176871628
 20
-381.134871391781
 30
0.0
 11
6285.535176871628
 21
-369.9348713917811
 31
0.0
  0
INSERT
  5
5C4CA
330
3ED29
100
AcDbEntity
  8
AM_5
100
AcDbBlockReference
  2
_Dot
 10
6285.535176871628
 20
-382.134871391781
 30
0.0
 50
270.0
  0
INSERT
  5
5C4CB
330
3ED29
100
AcDbEntity
  8
AM_5
100
AcDbBlockReference
  2
_Dot
 10
6285.535176871628
 20
-368.9348713917811
 30
0.0
 50
90.0
  0
MTEXT
  5
5C4CC
330
3ED29
100
AcDbEntity
  8
AM_5
 62
     2
100
AcDbMText
 10
6282.935176871628
 20
-375.6789334423402
 30
0.0
 40
3.200000000000001
 41
0.0
 71
     5
 72
     1
  1
（G）
 11
0.0000000000000001
 21
1.0
 31
0.0
 73
     1
 44
1.0
1001
ACAD
1000
MTEXTBEGIN
1070
    73
1070
     1
1070
    44
1040
1.0
1070
    74
1070
     0
1000
MTEXTEND
  0
POINT
  5
5C4CD
330
3ED29
100
AcDbEntity
  8
Defpoints
 62
     0
100
AcDbPoint
 10
6268.960492871628
 20
-382.134871391781
 30
0.0
  0
POINT
  5
5C4CE
330
3ED29
100
AcDbEntity
  8
Defpoints
 62
     0
100
AcDbPoint
 10
6222.633168871628
 20
-368.934871391781
 30
0.0
  0
POINT
  5
5C4CF
330
3ED29
100
AcDbEntity
  8
Defpoints
 62
     0
100
AcDbPoint
 10
6285.535176871628
 20
-368.9348713917811
 30
0.0
  0
ENDBLK
  5
3ED34
330
3ED29
100
AcDbEntity
  8
0
100
AcDbBlockEnd
  0
BLOCK
  5
3ED57
330
3ED4D
100
AcDbEntity
  8
0
100
AcDbBlockBegin
  2
*D17
 70
     1
 10
0.0
 20
0.0
 30
0.0
  3
*D17
  1

  0
LINE
  5
5C452
330
3ED4D
100
AcDbEntity
  8
AM_5
100
AcDbLine
 10
6198.416783871627
 20
-423.592381410055
 30
0.0
 11
6198.416783871627
 21
-438.4923810784434
 31
0.0
  0
LINE
  5
5C453
330
3ED4D
100
AcDbEntity
  8
AM_5
100
AcDbLine
 10
6209.416783871628
 20
-421.9923814100551
 30
0.0
 11
6209.416783871628
 21
-438.4923810784434
 31
0.0
  0
LINE
  5
5C454
330
3ED4D
100
AcDbEntity
  8
AM_5
100
AcDbLine
 10
6199.416783871628
 20
-437.4923810784435
 30
0.0
 11
6208.416783871627
 21
-437.4923810784435
 31
0.0
  0
INSERT
  5
5C455
330
3ED4D
100
AcDbEntity
  8
AM_5
100
AcDbBlockReference
  2
_Dot
 10
6198.416783871627
 20
-437.4923810784435
 30
0.0
 50
180.0
  0
INSERT
  5
5C456
330
3ED4D
100
AcDbEntity
  8
AM_5
100
AcDbBlockReference
  2
_Dot
 10
6209.416783871628
 20
-437.4923810784435
 30
0.0
  0
MTEXT
  5
5C457
330
3ED4D
100
AcDbEntity
  8
AM_5
 62
     2
100
AcDbMText
 10
6203.800479386543
 20
-434.8923810784434
 30
0.0
 40
3.200000000000001
 41
0.0
 71
     5
 72
     1
  1
（P）
 73
     1
 44
1.0
1001
ACAD
1000
MTEXTBEGIN
1070
    73
1070
     1
1070
    44
1040
1.0
1070
    74
1070
     0
1000
MTEXTEND
  0
POINT
  5
5C458
330
3ED4D
100
AcDbEntity
  8
Defpoints
 62
     0
100
AcDbPoint
 10
6198.416783871627
 20
-422.592381410055
 30
0.0
  0
POINT
  5
5C459
330
3ED4D
100
AcDbEntity
  8
Defpoints
 62
     0
100
AcDbPoint
 10
6209.416783871628
 20
-420.9923814100552
 30
0.0
  0
POINT
  5
5C45A
330
3ED4D
100
AcDbEntity
  8
Defpoints
 62
     0
100
AcDbPoint
 10
6209.416783871628
 20
-437.4923810784435
 30
0.0
  0
ENDBLK
  5
3ED58
330
3ED4D
100
AcDbEntity
  8
0
100
AcDbBlockEnd
  0
BLOCK
  5
3ED63
330
3ED59
100
AcDbEntity
  8
0
100
AcDbBlockBegin
  2
*D18
 70
     1
 10
0.0
 20
0.0
 30
0.0
  3
*D18
  1

  0
LINE
  5
5C440
330
3ED59
100
AcDbEntity
  8
AM_5
100
AcDbLine
 10
6217.917408871628
 20
-424.9923814100552
 30
0.0
 11
6217.917408871628
 21
-438.4923810784434
 31
0.0
  0
LINE
  5
5C441
330
3ED59
100
AcDbEntity
  8
AM_5
100
AcDbLine
 10
6230.917408871628
 20
-417.5923814100551
 30
0.0
 11
6230.917408871628
 21
-438.4923810784434
 31
0.0
  0
LINE
  5
5C442
330
3ED59
100
AcDbEntity
  8
AM_5
100
AcDbLine
 10
6218.917408871629
 20
-437.4923810784435
 30
0.0
 11
6229.917408871628
 21
-437.4923810784435
 31
0.0
  0
INSERT
  5
5C443
330
3ED59
100
AcDbEntity
  8
AM_5
100
AcDbBlockReference
  2
_Dot
 10
6217.917408871628
 20
-437.4923810784435
 30
0.0
 50
180.0
  0
INSERT
  5
5C444
330
3ED59
100
AcDbEntity
  8
AM_5
100
AcDbBlockReference
  2
_Dot
 10
6230.917408871628
 20
-437.4923810784435
 30
0.0
  0
MTEXT
  5
5C445
330
3ED59
100
AcDbEntity
  8
AM_5
 62
     2
100
AcDbMText
 10
6224.417408871628
 20
-434.8923810784434
 30
0.0
 40
3.200000000000001
 41
0.0
 71
     5
 72
     1
  1
L
 73
     1
 44
1.0
1001
ACAD
1000
MTEXTBEGIN
1070
    73
1070
     1
1070
    44
1040
1.0
1070
    74
1070
     0
1000
MTEXTEND
  0
POINT
  5
5C446
330
3ED59
100
AcDbEntity
  8
Defpoints
 62
     0
100
AcDbPoint
 10
6217.917408871628
 20
-423.9923814100552
 30
0.0
  0
POINT
  5
5C447
330
3ED59
100
AcDbEntity
  8
Defpoints
 62
     0
100
AcDbPoint
 10
6230.917408871628
 20
-416.592381410055
 30
0.0
  0
POINT
  5
5C448
330
3ED59
100
AcDbEntity
  8
Defpoints
 62
     0
100
AcDbPoint
 10
6230.917408871628
 20
-437.4923810784435
 30
0.0
  0
ENDBLK
  5
3ED64
330
3ED59
100
AcDbEntity
  8
0
100
AcDbBlockEnd
  0
BLOCK
  5
3ED6F
330
3ED65
100
AcDbEntity
  8
0
100
AcDbBlockBegin
  2
*D19
 70
     1
 10
0.0
 20
0.0
 30
0.0
  3
*D19
  1

  0
LINE
  5
5C42E
330
3ED65
100
AcDbEntity
  8
AM_5
100
AcDbLine
 10
6230.917408871628
 20
-417.5923814100551
 30
0.0
 11
6230.917408871628
 21
-446.4923810784434
 31
0.0
  0
LINE
  5
5C42F
330
3ED65
100
AcDbEntity
  8
AM_5
100
AcDbLine
 10
6264.917408871628
 20
-417.5923814100551
 30
0.0
 11
6264.917408871628
 21
-446.4923810784434
 31
0.0
  0
LINE
  5
5C430
330
3ED65
100
AcDbEntity
  8
AM_5
100
AcDbLine
 10
6231.917408871628
 20
-445.4923810784435
 30
0.0
 11
6263.917408871628
 21
-445.4923810784435
 31
0.0
  0
INSERT
  5
5C431
330
3ED65
100
AcDbEntity
  8
AM_5
100
AcDbBlockReference
  2
_Dot
 10
6230.917408871628
 20
-445.4923810784435
 30
0.0
 50
180.0
  0
INSERT
  5
5C432
330
3ED65
100
AcDbEntity
  8
AM_5
100
AcDbBlockReference
  2
_Dot
 10
6264.917408871628
 20
-445.4923810784435
 30
0.0
  0
MTEXT
  5
5C433
330
3ED65
100
AcDbEntity
  8
AM_5
 62
     2
100
AcDbMText
 10
6247.917408871629
 20
-442.8923810784434
 30
0.0
 40
3.200000000000001
 41
0.0
 71
     5
 72
     1
  1
K
 73
     1
 44
1.0
1001
ACAD
1000
MTEXTBEGIN
1070
    73
1070
     1
1070
    44
1040
1.0
1070
    74
1070
     0
1000
MTEXTEND
  0
POINT
  5
5C434
330
3ED65
100
AcDbEntity
  8
Defpoints
 62
     0
100
AcDbPoint
 10
6230.917408871628
 20
-416.592381410055
 30
0.0
  0
POINT
  5
5C435
330
3ED65
100
AcDbEntity
  8
Defpoints
 62
     0
100
AcDbPoint
 10
6264.917408871628
 20
-416.592381410055
 30
0.0
  0
POINT
  5
5C436
330
3ED65
100
AcDbEntity
  8
Defpoints
 62
     0
100
AcDbPoint
 10
6264.917408871628
 20
-445.4923810784435
 30
0.0
  0
ENDBLK
  5
3ED70
330
3ED65
100
AcDbEntity
  8
0
100
AcDbBlockEnd
  0
BLOCK
  5
3ED7B
330
3ED71
100
AcDbEntity
  8
0
100
AcDbBlockBegin
  2
*D20
 70
     1
 10
0.0
 20
0.0
 30
0.0
  3
*D20
  1

  0
LINE
  5
5C437
330
3ED71
100
AcDbEntity
  8
AM_5
100
AcDbLine
 10
6230.917408871628
 20
-417.5923814100551
 30
0.0
 11
6230.917408871628
 21
-446.4923810784434
 31
0.0
  0
LINE
  5
5C438
330
3ED71
100
AcDbEntity
  8
AM_5
100
AcDbLine
 10
6198.416783871627
 20
-423.592381410055
 30
0.0
 11
6198.416783871627
 21
-446.4923810784434
 31
0.0
  0
LINE
  5
5C439
330
3ED71
100
AcDbEntity
  8
AM_5
100
AcDbLine
 10
6229.917408871628
 20
-445.4923810784435
 30
0.0
 11
6199.416783871628
 21
-445.4923810784435
 31
0.0
  0
INSERT
  5
5C43A
330
3ED71
100
AcDbEntity
  8
AM_5
100
AcDbBlockReference
  2
_Dot
 10
6230.917408871628
 20
-445.4923810784435
 30
0.0
  0
INSERT
  5
5C43B
330
3ED71
100
AcDbEntity
  8
AM_5
100
AcDbBlockReference
  2
_Dot
 10
6198.416783871627
 20
-445.4923810784435
 30
0.0
 50
180.0
  0
MTEXT
  5
5C43C
330
3ED71
100
AcDbEntity
  8
AM_5
 62
     2
100
AcDbMText
 10
6214.917408871628
 20
-442.8923810784434
 30
0.0
 40
3.200000000000001
 41
0.0
 71
     5
 72
     1
  1
（O）
 73
     1
 44
1.0
1001
ACAD
1000
MTEXTBEGIN
1070
    73
1070
     1
1070
    44
1040
1.0
1070
    74
1070
     0
1000
MTEXTEND
  0
POINT
  5
5C43D
330
3ED71
100
AcDbEntity
  8
Defpoints
 62
     0
100
AcDbPoint
 10
6230.917408871628
 20
-416.592381410055
 30
0.0
  0
POINT
  5
5C43E
330
3ED71
100
AcDbEntity
  8
Defpoints
 62
     0
100
AcDbPoint
 10
6198.416783871627
 20
-422.592381410055
 30
0.0
  0
POINT
  5
5C43F
330
3ED71
100
AcDbEntity
  8
Defpoints
 62
     0
100
AcDbPoint
 10
6198.416783871627
 20
-445.4923810784435
 30
0.0
  0
ENDBLK
  5
3ED7C
330
3ED71
100
AcDbEntity
  8
0
100
AcDbBlockEnd
  0
BLOCK
  5
3EDE6
330
3EDDC
100
AcDbEntity
  8
0
100
AcDbBlockBegin
  2
*D21
 70
     1
 10
0.0
 20
0.0
 30
0.0
  3
*D21
  1

  0
LINE
  5
5C464
330
3EDDC
100
AcDbEntity
  8
AM_5
100
AcDbLine
 10
6192.416783871628
 20
-418.9923814100551
 30
0.0
 11
6182.917408871628
 21
-418.9923814100551
 31
0.0
  0
LINE
  5
5C465
330
3EDDC
100
AcDbEntity
  8
AM_5
100
AcDbLine
 10
6192.416783871628
 20
-406.9923814100552
 30
0.0
 11
6182.917408871628
 21
-406.9923814100552
 31
0.0
  0
LINE
  5
5C466
330
3EDDC
100
AcDbEntity
  8
AM_5
100
AcDbLine
 10
6183.917408871629
 20
-417.9923814100551
 30
0.0
 11
6183.917408871629
 21
-407.9923814100552
 31
0.0
  0
INSERT
  5
5C467
330
3EDDC
100
AcDbEntity
  8
AM_5
100
AcDbBlockReference
  2
_Dot
 10
6183.917408871629
 20
-418.9923814100551
 30
0.0
 50
270.0
  0
INSERT
  5
5C468
330
3EDDC
100
AcDbEntity
  8
AM_5
100
AcDbBlockReference
  2
_Dot
 10
6183.917408871629
 20
-406.9923814100552
 30
0.0
 50
90.0
  0
MTEXT
  5
5C469
330
3EDDC
100
AcDbEntity
  8
AM_5
 62
     2
100
AcDbMText
 10
6181.165027919247
 20
-412.9923814100548
 30
0.0
 40
3.200000000000001
 41
0.0
 71
     5
 72
     1
  1
Q
 11
0.0000000000000001
 21
1.0
 31
0.0
 73
     1
 44
1.0
1001
ACAD
1000
MTEXTBEGIN
1070
    73
1070
     1
1070
    44
1040
1.0
1070
    74
1070
     0
1000
MTEXTEND
  0
POINT
  5
5C46A
330
3EDDC
100
AcDbEntity
  8
Defpoints
 62
     0
100
AcDbPoint
 10
6193.416783871628
 20
-418.9923814100551
 30
0.0
  0
POINT
  5
5C46B
330
3EDDC
100
AcDbEntity
  8
Defpoints
 62
     0
100
AcDbPoint
 10
6193.416783871628
 20
-406.9923814100552
 30
0.0
  0
POINT
  5
5C46C
330
3EDDC
100
AcDbEntity
  8
Defpoints
 62
     0
100
AcDbPoint
 10
6183.917408871629
 20
-406.9923814100552
 30
0.0
  0
ENDBLK
  5
3EDE7
330
3EDDC
100
AcDbEntity
  8
0
100
AcDbBlockEnd
  0
BLOCK
  5
3EE21
330
3EE1A
100
AcDbEntity
  8
0
100
AcDbBlockBegin
  2
*D22
 70
     1
 10
0.0
 20
0.0
 30
0.0
  3
*D22
  1

  0
LINE
  5
538C7
330
3EE1A
100
AcDbEntity
  8
AM_5
100
AcDbLine
 10
6265.165794046401
 20
-365.1109068341753
 30
0.0
 11
6260.6457940464
 21
-365.1109068341757
 31
0.0
  0
LINE
  5
538C8
330
3EE1A
100
AcDbEntity
  8
AM_5
100
AcDbLine
 10
6260.6457940464
 20
-365.1109068341757
 30
0.0
 11
6255.760005781
 21
-370.5344407120274
 31
0.0
  0
LINE
  5
538C9
330
3EE1A
100
AcDbEntity
  8
AM_5
100
AcDbLine
 10
6251.074811962254
 20
-375.7353020715332
 30
0.0
 11
6250.405498559578
 21
-376.4782822657485
 31
0.0
  0
MTEXT
  5
538CA
330
3EE1A
100
AcDbEntity
  8
AM_5
 62
     2
100
AcDbMText
 10
6263.405794046401
 20
-362.5109068341752
 30
0.0
 40
3.2
 41
0.0
 71
     5
 72
     1
  1
\U+22055
 73
     1
 44
1.0
1001
ACAD
1000
MTEXTBEGIN
1070
    73
1070
     1
1070
    44
1040
1.0
1070
    74
1070
     0
1000
MTEXTEND
  0
LINE
  5
538CB
330
3EE1A
100
AcDbEntity
  8
AM_5
100
AcDbLine
 10
6251.744125364933
 20
-374.9923218773179
 30
0.0
 11
6255.090692378321
 21
-371.2774209062427
 31
0.0
  0
INSERT
  5
538CC
330
3EE1A
100
AcDbEntity
  8
AM_5
100
AcDbBlockReference
  2
_Dot
 10
6251.744125364933
 20
-374.9923218773179
 30
0.0
 50
47.98590501150466
  0
INSERT
  5
538CD
330
3EE1A
100
AcDbEntity
  8
AM_5
100
AcDbBlockReference
  2
_Dot
 10
6255.090692378321
 20
-371.2774209062427
 30
0.0
 50
227.9859050115046
  0
POINT
  5
538CE
330
3EE1A
100
AcDbEntity
  8
Defpoints
 62
     0
100
AcDbPoint
 10
6255.090692378321
 20
-371.2774209062427
 30
0.0
  0
POINT
  5
538CF
330
3EE1A
100
AcDbEntity
  8
Defpoints
 62
     0
100
AcDbPoint
 10
6251.744125364933
 20
-374.9923218773179
 30
0.0
  0
ENDBLK
  5
3EE22
330
3EE1A
100
AcDbEntity
  8
0
100
AcDbBlockEnd
  0
BLOCK
  5
53890
330
53886
100
AcDbEntity
  8
0
100
AcDbBlockBegin
  2
*D23
 70
     1
 10
0.0
 20
0.0
 30
0.0
  3
*D23
  1

  0
LINE
  5
5B8C7
330
53886
100
AcDbEntity
  8
AM_5
100
AcDbLine
 10
6269.960492871629
 20
-382.134871391781
 30
0.0
 11
6294.535176871629
 21
-382.134871391781
 31
0.0
  0
LINE
  5
5B8C8
330
53886
100
AcDbEntity
  8
AM_5
100
AcDbLine
 10
6254.417408871628
 20
-368.134871391781
 30
0.0
 11
6294.535176871629
 21
-368.134871391781
 31
0.0
  0
LINE
  5
5B8C9
330
53886
100
AcDbEntity
  8
AM_5
100
AcDbLine
 10
6293.535176871628
 20
-381.134871391781
 30
0.0
 11
6293.535176871628
 21
-369.134871391781
 31
0.0
  0
INSERT
  5
5B8CA
330
53886
100
AcDbEntity
  8
AM_5
100
AcDbBlockReference
  2
_Dot
 10
6293.535176871628
 20
-382.134871391781
 30
0.0
 50
270.0
  0
INSERT
  5
5B8CB
330
53886
100
AcDbEntity
  8
AM_5
100
AcDbBlockReference
  2
_Dot
 10
6293.535176871628
 20
-368.134871391781
 30
0.0
 50
90.0
  0
MTEXT
  5
5B8CC
330
53886
100
AcDbEntity
  8
AM_5
 62
     2
100
AcDbMText
 10
6290.935176871627
 20
-375.13487139178
 30
0.0
 40
3.200000000000001
 41
0.0
 71
     5
 72
     1
  1
U
 11
0.0000000000000001
 21
1.0
 31
0.0
 73
     1
 44
1.0
1001
ACAD
1000
MTEXTBEGIN
1070
    73
1070
     1
1070
    44
1040
1.0
1070
    74
1070
     0
1000
MTEXTEND
  0
POINT
  5
5B8CD
330
53886
100
AcDbEntity
  8
Defpoints
 62
     0
100
AcDbPoint
 10
6268.960492871628
 20
-382.134871391781
 30
0.0
  0
POINT
  5
5B8CE
330
53886
100
AcDbEntity
  8
Defpoints
 62
     0
100
AcDbPoint
 10
6253.417408871628
 20
-368.134871391781
 30
0.0
  0
POINT
  5
5B8CF
330
53886
100
AcDbEntity
  8
Defpoints
 62
     0
100
AcDbPoint
 10
6293.535176871628
 20
-368.134871391781
 30
0.0
  0
ENDBLK
  5
53891
330
53886
100
AcDbEntity
  8
0
100
AcDbBlockEnd
  0
BLOCK
  5
552EF
330
552E8
100
AcDbEntity
  8
0
100
AcDbBlockBegin
  2
*D24
 70
     1
 10
0.0
 20
0.0
 30
0.0
  3
*D24
  1

  0
LINE
  5
5978D
330
552E8
100
AcDbEntity
  8
AM_5
100
AcDbLine
 10
6170.003519353244
 20
-426.7363302859712
 30
0.0
 11
6191.184852686577
 21
-426.7363302859707
 31
0.0
  0
LINE
  5
5978E
330
552E8
100
AcDbEntity
  8
AM_5
100
AcDbLine
 10
6191.184852686577
 20
-426.7363302859707
 30
0.0
 11
6196.091064658055
 21
-421.8228895815941
 31
0.0
  0
LINE
  5
5978F
330
552E8
100
AcDbEntity
  8
AM_5
100
AcDbLine
 10
6201.743753085197
 20
-416.1618725752918
 30
0.0
 11
6202.450339138589
 21
-415.454245449504
 31
0.0
  0
MTEXT
  5
59790
330
552E8
100
AcDbEntity
  8
AM_5
 62
     2
100
AcDbMText
 10
6180.094186019911
 20
-424.1363302859707
 30
0.0
 40
3.2
 41
0.0
 71
     5
 72
     1
  1
2-%%cR×%%cSサラ
 73
     1
 44
1.0
1001
ACAD
1000
MTEXTBEGIN
1070
    73
1070
     1
1070
    44
1040
1.0
1070
    74
1070
     0
1000
MTEXTEND
  0
LINE
  5
59791
330
552E8
100
AcDbEntity
  8
AM_5
100
AcDbLine
 10
6201.037167031803
 20
-416.8694997010797
 30
0.0
 11
6196.797650711449
 21
-421.1152624558057
 31
0.0
  0
INSERT
  5
59792
330
552E8
100
AcDbEntity
  8
AM_5
100
AcDbBlockReference
  2
_Dot
 10
6201.037167031803
 20
-416.8694997010797
 30
0.0
 50
225.0421782546836
  0
INSERT
  5
59793
330
552E8
100
AcDbEntity
  8
AM_5
100
AcDbBlockReference
  2
_Dot
 10
6196.797650711449
 20
-421.1152624558057
 30
0.0
 50
45.04217825468352
  0
POINT
  5
59794
330
552E8
100
AcDbEntity
  8
Defpoints
 62
     0
100
AcDbPoint
 10
6196.797650711449
 20
-421.1152624558057
 30
0.0
  0
POINT
  5
59795
330
552E8
100
AcDbEntity
  8
Defpoints
 62
     0
100
AcDbPoint
 10
6201.037167031803
 20
-416.8694997010797
 30
0.0
  0
ENDBLK
  5
552F0
330
552E8
100
AcDbEntity
  8
0
100
AcDbBlockEnd
  0
BLOCK
  5
55311
330
5530A
100
AcDbEntity
  8
0
100
AcDbBlockBegin
  2
*D25
 70
     1
 10
0.0
 20
0.0
 30
0.0
  3
*D25
  1

  0
LINE
  5
59796
330
5530A
100
AcDbEntity
  8
AM_5
100
AcDbLine
 10
6294.951581456423
 20
-420.9660247135152
 30
0.0
 11
6273.236914789757
 21
-420.9660247135152
 31
0.0
  0
LINE
  5
59797
330
5530A
100
AcDbEntity
  8
AM_5
100
AcDbLine
 10
6273.236914789757
 20
-420.9660247135152
 30
0.0
 11
6267.805225778285
 21
-415.7601443475146
 31
0.0
  0
LINE
  5
59798
330
5530A
100
AcDbEntity
  8
AM_5
100
AcDbLine
 10
6262.029591964971
 20
-410.2246178093714
 30
0.0
 11
6261.307637738307
 21
-409.5326769921034
 31
0.0
  0
MTEXT
  5
59799
330
5530A
100
AcDbEntity
  8
AM_5
 62
     2
100
AcDbMText
 10
6284.594248123091
 20
-418.3660247135152
 30
0.0
 40
3.2
 41
0.0
 71
     5
 72
     1
  1
2-%%cM×%%cNサラ
 73
     1
 44
1.0
1001
ACAD
1000
MTEXTBEGIN
1070
    73
1070
     1
1070
    44
1040
1.0
1070
    74
1070
     0
1000
MTEXTEND
  0
LINE
  5
5979A
330
5530A
100
AcDbEntity
  8
AM_5
100
AcDbLine
 10
6262.751546191635
 20
-410.9165586266394
 30
0.0
 11
6267.083271551621
 21
-415.0682035302465
 31
0.0
  0
INSERT
  5
5979B
330
5530A
100
AcDbEntity
  8
AM_5
100
AcDbBlockReference
  2
_Dot
 10
6262.751546191635
 20
-410.9165586266394
 30
0.0
 50
316.2160615960606
  0
INSERT
  5
5979C
330
5530A
100
AcDbEntity
  8
AM_5
100
AcDbBlockReference
  2
_Dot
 10
6267.083271551621
 20
-415.0682035302465
 30
0.0
 50
136.2160615960606
  0
POINT
  5
5979D
330
5530A
100
AcDbEntity
  8
Defpoints
 62
     0
100
AcDbPoint
 10
6267.083271551621
 20
-415.0682035302465
 30
0.0
  0
POINT
  5
5979E
330
5530A
100
AcDbEntity
  8
Defpoints
 62
     0
100
AcDbPoint
 10
6262.751546191635
 20
-410.9165586266394
 30
0.0
  0
ENDBLK
  5
55312
330
5530A
100
AcDbEntity
  8
0
100
AcDbBlockEnd
  0
ENDSEC
  0
SECTION
  2
ENTITIES
  0
TEXT
  5
31B30
330
1F
100
AcDbEntity
  8
AM_6
 60
     1
100
AcDbText
 10
3408.785415022811
 20
1879.970675238635
 30
0.0
 40
2.5
  1
!GENTITLE-INSERT
100
AcDbText
  0
TEXT
  5
31B31
330
1F
100
AcDbEntity
  8
AM_6
 60
     1
100
AcDbText
 10
3000.285415022811
 20
1871.470675238635
 30
0.0
 40
2.5
  1
!GENTITLE-LL
100
AcDbText
  0
TEXT
  5
31B32
330
1F
100
AcDbEntity
  8
AM_6
 60
     1
100
AcDbText
 10
3420.285415022811
 20
2168.470675238635
 30
0.0
 40
2.5
  1
!GENTITLE-RU
100
AcDbText
  0
TEXT
  5
31B33
330
1F
100
AcDbEntity
  8
AM_6
 60
     1
100
AcDbText
 10
3420.285415022811
 20
2168.470675238635
 30
0.0
 40
2.5
  1
!GENTITLE-MAX
100
AcDbText
  0
TEXT
  5
31B3B
330
1F
100
AcDbEntity
  8
AM_6
 60
     1
100
AcDbText
 10
3000.285415022811
 20
1871.470675238635
 30
0.0
 40
2.5
  1
!GENTITLE-LL
100
AcDbText
  0
TEXT
  5
31B3C
330
1F
100
AcDbEntity
  8
AM_6
 60
     1
100
AcDbText
 10
3408.785415022811
 20
2159.970675238636
 30
0.0
 40
2.5
  1
!GENTITLE-RU
100
AcDbText
  0
TEXT
  5
31B3D
330
1F
100
AcDbEntity
  8
AM_6
 60
     1
100
AcDbText
 10
3420.285415022811
 20
2168.470675238635
 30
0.0
 40
2.5
  1
!GENTITLE-MAX
100
AcDbText
  0
TEXT
  5
31B3E
330
1F
100
AcDbEntity
  8
AM_6
 60
     1
100
AcDbText
 10
3408.785415022811
 20
1879.970675238635
 30
0.0
 40
2.5
  1
!GENTITLE-INSERT
100
AcDbText
  0
TEXT
  5
32D1D
330
1F
100
AcDbEntity
  8
AM_6
 60
     1
100
AcDbText
 10
3234.949399973154
 20
1839.277532086519
 30
0.0
 40
2.5
  1
!GENTITLE-INSERT
100
AcDbText
  0
TEXT
  5
32D1E
330
1F
100
AcDbEntity
  8
AM_6
 60
     1
100
AcDbText
 10
3246.449399973154
 20
2040.77753208652
 30
0.0
 40
2.5
  1
!GENTITLE-MAX
100
AcDbText
  0
TEXT
  5
32D1F
330
1F
100
AcDbEntity
  8
AM_6
 60
     1
100
AcDbText
 10
3246.449399973154
 20
2040.77753208652
 30
0.0
 40
2.5
  1
!GENTITLE-RU
100
AcDbText
  0
TEXT
  5
32D21
330
1F
100
AcDbEntity
  8
AM_6
 60
     1
100
AcDbText
 10
2949.449399973154
 20
1830.777532086519
 30
0.0
 40
2.5
  1
!GENTITLE-LL
100
AcDbText
  0
TEXT
  5
34534
330
1F
100
AcDbEntity
  8
AM_6
 60
     1
100
AcDbText
 10
3774.506320898737
 20
958.0958490755065
 30
0.0
 40
2.5
  1
!GENTITLE-INSERT
100
AcDbText
  0
TEXT
  5
34535
330
1F
100
AcDbEntity
  8
AM_6
 60
     1
100
AcDbText
 10
3786.006320898738
 20
1159.595849075506
 30
0.0
 40
2.5
  1
!GENTITLE-MAX
100
AcDbText
  0
TEXT
  5
34536
330
1F
100
AcDbEntity
  8
AM_6
 60
     1
100
AcDbText
 10
3786.006320898738
 20
1159.595849075506
 30
0.0
 40
2.5
  1
!GENTITLE-RU
100
AcDbText
  0
TEXT
  5
34538
330
1F
100
AcDbEntity
  8
AM_6
 60
     1
100
AcDbText
 10
3489.006320898738
 20
949.5958490755064
 30
0.0
 40
2.5
  1
!GENTITLE-LL
100
AcDbText
  0
LINE
  5
3DF50
330
1F
100
AcDbEntity
  8
size
100
AcDbLine
 10
6074.924675701049
 20
-282.0698612845167
 30
0.0
 11
6371.924675701049
 21
-282.0698612845167
 31
0.0
1001
GENIUS_GENREC_14
1002
{
1000
PYDIR
1011
6074.924675701049
1021
-195.0698612845167
1031
0.0
1002
}
1002
{
1000
PXDIR
1011
6494.924675701049
1021
-492.0698612845167
1031
0.0
1002
}
1002
{
1000
PORI
1011
6074.924675701049
1021
-492.0698612845167
1031
0.0
1002
}
1002
{
1000
PINS
1011
6284.924675701049
1021
-343.5698612845167
1031
0.0
1002
}
1002
{
1000
HVAL
1000
297
1002
}
1002
{
1000
H
1070
     2
1002
}
1002
{
1000
WVAL
1000
420
1002
}
1002
{
1000
W
1070
     2
1002
}
1002
{
1000
C
1070
     4
1002
}
1001
GENIUS_GENOBJ-N-REC_13
1002
{
1000
OWNER
1000
GEN
1002
}
1001
GENIUS_GENODEF_13
1002
{
1000
HIER
1070
     0
1002
}
1002
{
1000
MANEDIT
1070
     0
1002
}
1002
{
1000
NOSEL
1070
     0
1002
}
1002
{
1000
BEHIND
1070
     0
1002
}
1002
{
1000
OTHER
1070
     0
1002
}
1002
{
1000
REACTOR
1002
}
  0
LINE
  5
3DF51
330
1F
100
AcDbEntity
  8
size
100
AcDbLine
 10
6371.924675701049
 20
-282.0698612845167
 30
0.0
 11
6371.924675701049
 21
-492.0698612845167
 31
0.0
1001
GENIUS_GENREC_14
1002
{
1000
PYDIR
1011
6074.924675701049
1021
-195.0698612845167
1031
0.0
1002
}
1002
{
1000
PXDIR
1011
6494.924675701049
1021
-492.0698612845167
1031
0.0
1002
}
1002
{
1000
PORI
1011
6074.924675701049
1021
-492.0698612845167
1031
0.0
1002
}
1002
{
1000
PINS
1011
6284.924675701049
1021
-343.5698612845167
1031
0.0
1002
}
1002
{
1000
HVAL
1000
297
1002
}
1002
{
1000
H
1070
     2
1002
}
1002
{
1000
WVAL
1000
420
1002
}
1002
{
1000
W
1070
     2
1002
}
1002
{
1000
C
1070
     4
1002
}
1001
GENIUS_GENOBJ-N-REC_13
1002
{
1000
OWNER
1000
GEN
1002
}
1001
GENIUS_GENODEF_13
1002
{
1000
HIER
1070
     0
1002
}
1002
{
1000
MANEDIT
1070
     0
1002
}
1002
{
1000
NOSEL
1070
     0
1002
}
1002
{
1000
BEHIND
1070
     0
1002
}
1002
{
1000
OTHER
1070
     0
1002
}
1002
{
1000
REACTOR
1002
}
  0
LINE
  5
3DF52
330
1F
100
AcDbEntity
  8
waku
100
AcDbLine
 10
6086.424675701049
 20
-483.5698612845167
 30
0.0
 11
6360.42467570105
 21
-483.5698612845167
 31
0.0
1001
GENIUS_GENREC_14
1002
{
1000
PYDIR
1011
6074.924675701049
1021
-195.0698612845167
1031
0.0
1002
}
1002
{
1000
PXDIR
1011
6494.924675701049
1021
-492.0698612845167
1031
0.0
1002
}
1002
{
1000
PORI
1011
6074.924675701049
1021
-492.0698612845167
1031
0.0
1002
}
1002
{
1000
PINS
1011
6284.924675701049
1021
-343.5698612845167
1031
0.0
1002
}
1002
{
1000
HVAL
1000
297
1002
}
1002
{
1000
H
1070
     2
1002
}
1002
{
1000
WVAL
1000
420
1002
}
1002
{
1000
W
1070
     2
1002
}
1002
{
1000
C
1070
     4
1002
}
  0
LINE
  5
3DF53
330
1F
100
AcDbEntity
  8
waku
100
AcDbLine
 10
6360.42467570105
 20
-290.5698612845167
 30
0.0
 11
6086.424675701049
 21
-290.5698612845167
 31
0.0
1001
GENIUS_GENREC_14
1002
{
1000
PYDIR
1011
5951.92467570105
1021
-282.0698612845167
1031
0.0
1002
}
1002
{
1000
PXDIR
1011
6371.924675701049
1021
-579.0698612845167
1031
0.0
1002
}
1002
{
1000
PORI
1011
5951.92467570105
1021
-579.0698612845167
1031
0.0
1002
}
1002
{
1000
PINS
1011
6161.92467570105
1021
-430.5698612845167
1031
0.0
1002
}
1002
{
1000
HVAL
1000
297
1002
}
1002
{
1000
H
1070
     2
1002
}
1002
{
1000
WVAL
1000
420
1002
}
1002
{
1000
W
1070
     2
1002
}
1002
{
1000
C
1070
     4
1002
}
1001
GENIUS_GENOBJ-N-REC_13
1002
{
1000
OWNER
1000
GEN
1002
}
1001
GENIUS_GENODEF_13
1002
{
1000
HIER
1070
     0
1002
}
1002
{
1000
MANEDIT
1070
     0
1002
}
1002
{
1000
NOSEL
1070
     0
1002
}
1002
{
1000
BEHIND
1070
     0
1002
}
1002
{
1000
OTHER
1070
     0
1002
}
1002
{
1000
REACTOR
1002
}
  0
LINE
  5
3DF54
330
1F
100
AcDbEntity
  8
waku
100
AcDbLine
 10
6086.424675701049
 20
-290.5698612845167
 30
0.0
 11
6086.424675701049
 21
-483.5698612845167
 31
0.0
1001
GENIUS_GENREC_14
1002
{
1000
PYDIR
1011
6074.924675701049
1021
-195.0698612845167
1031
0.0
1002
}
1002
{
1000
PXDIR
1011
6494.924675701049
1021
-492.0698612845167
1031
0.0
1002
}
1002
{
1000
PORI
1011
6074.924675701049
1021
-492.0698612845167
1031
0.0
1002
}
1002
{
1000
PINS
1011
6284.924675701049
1021
-343.5698612845167
1031
0.0
1002
}
1002
{
1000
HVAL
1000
297
1002
}
1002
{
1000
H
1070
     2
1002
}
1002
{
1000
WVAL
1000
420
1002
}
1002
{
1000
W
1070
     2
1002
}
1002
{
1000
C
1070
     4
1002
}
1001
GENIUS_GENOBJ-N-REC_13
1002
{
1000
OWNER
1000
GEN
1002
}
1001
GENIUS_GENODEF_13
1002
{
1000
HIER
1070
     0
1002
}
1002
{
1000
MANEDIT
1070
     0
1002
}
1002
{
1000
NOSEL
1070
     0
1002
}
1002
{
1000
BEHIND
1070
     0
1002
}
1002
{
1000
OTHER
1070
     0
1002
}
1002
{
1000
REACTOR
1002
}
  0
LINE
  5
3DF55
330
1F
100
AcDbEntity
  8
waku
100
AcDbLine
 10
6360.42467570105
 20
-483.5698612845167
 30
0.0
 11
6360.42467570105
 21
-290.5698612845167
 31
0.0
1001
GENIUS_GENREC_14
1002
{
1000
PYDIR
1011
5951.92467570105
1021
-276.0698612845167
1031
0.0
1002
}
1002
{
1000
PXDIR
1011
6371.924675701049
1021
-573.0698612845166
1031
0.0
1002
}
1002
{
1000
PORI
1011
5951.92467570105
1021
-573.0698612845166
1031
0.0
1002
}
1002
{
1000
PINS
1011
6161.92467570105
1021
-424.5698612845167
1031
0.0
1002
}
1002
{
1000
HVAL
1000
297
1002
}
1002
{
1000
H
1070
     2
1002
}
1002
{
1000
WVAL
1000
420
1002
}
1002
{
1000
W
1070
     2
1002
}
1002
{
1000
C
1070
     4
1002
}
1001
GENIUS_GENOBJ-N-REC_13
1002
{
1000
OWNER
1000
GEN
1002
}
1001
GENIUS_GENODEF_13
1002
{
1000
HIER
1070
     0
1002
}
1002
{
1000
MANEDIT
1070
     0
1002
}
1002
{
1000
NOSEL
1070
     0
1002
}
1002
{
1000
BEHIND
1070
     0
1002
}
1002
{
1000
OTHER
1070
     0
1002
}
1002
{
1000
REACTOR
1002
}
  0
LINE
  5
3DF56
330
1F
100
AcDbEntity
  8
size
100
AcDbLine
 10
6074.924675701049
 20
-282.0698612845167
 30
0.0
 11
6074.924675701049
 21
-492.0698612845167
 31
0.0
1001
GENIUS_GENREC_14
1002
{
1000
PYDIR
1011
6074.924675701049
1021
-195.0698612845167
1031
0.0
1002
}
1002
{
1000
PXDIR
1011
6494.924675701049
1021
-492.0698612845167
1031
0.0
1002
}
1002
{
1000
PORI
1011
6074.924675701049
1021
-492.0698612845167
1031
0.0
1002
}
1002
{
1000
PINS
1011
6284.924675701049
1021
-343.5698612845167
1031
0.0
1002
}
1002
{
1000
HVAL
1000
297
1002
}
1002
{
1000
H
1070
     2
1002
}
1002
{
1000
WVAL
1000
420
1002
}
1002
{
1000
W
1070
     2
1002
}
1002
{
1000
C
1070
     4
1002
}
1001
GENIUS_GENOBJ-N-REC_13
1002
{
1000
OWNER
1000
GEN
1002
}
1001
GENIUS_GENODEF_13
1002
{
1000
HIER
1070
     0
1002
}
1002
{
1000
MANEDIT
1070
     0
1002
}
1002
{
1000
NOSEL
1070
     0
1002
}
1002
{
1000
BEHIND
1070
     0
1002
}
1002
{
1000
OTHER
1070
     0
1002
}
1002
{
1000
REACTOR
1002
}
  0
LINE
  5
3DF57
330
1F
100
AcDbEntity
  8
size
100
AcDbLine
 10
6074.924675701049
 20
-492.0698612845167
 30
0.0
 11
6371.924675701049
 21
-492.0698612845167
 31
0.0
1001
GENIUS_GENREC_14
1002
{
1000
PYDIR
1011
6074.924675701049
1021
-195.0698612845167
1031
0.0
1002
}
1002
{
1000
PXDIR
1011
6494.924675701049
1021
-492.0698612845167
1031
0.0
1002
}
1002
{
1000
PORI
1011
6074.924675701049
1021
-492.0698612845167
1031
0.0
1002
}
1002
{
1000
PINS
1011
6284.924675701049
1021
-343.5698612845167
1031
0.0
1002
}
1002
{
1000
HVAL
1000
297
1002
}
1002
{
1000
H
1070
     2
1002
}
1002
{
1000
WVAL
1000
420
1002
}
1002
{
1000
W
1070
     2
1002
}
1002
{
1000
C
1070
     4
1002
}
1001
GENIUS_GENOBJ-N-REC_13
1002
{
1000
OWNER
1000
GEN
1002
}
1001
GENIUS_GENODEF_13
1002
{
1000
HIER
1070
     0
1002
}
1002
{
1000
MANEDIT
1070
     0
1002
}
1002
{
1000
NOSEL
1070
     0
1002
}
1002
{
1000
BEHIND
1070
     0
1002
}
1002
{
1000
OTHER
1070
     0
1002
}
1002
{
1000
REACTOR
1002
}
  0
LINE
  5
3DF58
330
1F
100
AcDbEntity
  8
AM_5
370
    13
100
AcDbLine
 10
6106.424675701049
 20
-290.5698612845167
 30
0.0
 11
6106.424675701049
 21
-322.5698612845167
 31
0.0
  0
LINE
  5
3DF59
330
1F
100
AcDbEntity
  8
AM_5
370
    13
100
AcDbLine
 10
6086.424675701049
 20
-298.5698612845167
 30
0.0
 11
6173.424675701049
 21
-298.5698612845167
 31
0.0
  0
LINE
  5
3DF5A
330
1F
100
AcDbEntity
  8
AM_5
370
    13
100
AcDbLine
 10
6086.424675701049
 20
-306.5698612845167
 30
0.0
 11
6173.424675701049
 21
-306.5698612845167
 31
0.0
  0
LINE
  5
3DF5B
330
1F
100
AcDbEntity
  8
AM_5
370
    13
100
AcDbLine
 10
6086.424675701049
 20
-314.5698612845167
 30
0.0
 11
6173.424675701049
 21
-314.5698612845167
 31
0.0
  0
LINE
  5
3DF5C
330
1F
100
AcDbEntity
  8
AM_0
  6
中線
 48
0.5
370
    30
100
AcDbLine
 10
6086.424675701049
 20
-322.5698612845167
 30
0.0
 11
6173.424675701049
 21
-322.5698612845167
 31
0.0
  0
LINE
  5
3DF5D
330
1F
100
AcDbEntity
  8
AM_0
  6
中線
 48
0.5
370
    30
100
AcDbLine
 10
6086.424675701049
 20
-290.5698612845167
 30
0.0
 11
6086.424675701049
 21
-322.5698612845167
 31
0.0
  0
LINE
  5
3DF5E
330
1F
100
AcDbEntity
  8
AM_0
  6
中線
 48
0.5
370
    30
100
AcDbLine
 10
6086.424675701049
 20
-290.5698612845167
 30
0.0
 11
6173.424675701049
 21
-290.5698612845167
 31
0.0
  0
LINE
  5
3DF5F
330
1F
100
AcDbEntity
  8
AM_0
  6
中線
 48
0.5
370
    30
100
AcDbLine
 10
6173.424675701049
 20
-290.5698612845167
 30
0.0
 11
6173.424675701049
 21
-322.5698612845167
 31
0.0
  0
TEXT
  5
3DF60
330
1F
100
AcDbEntity
  8
AM_6
100
AcDbText
 10
6092.08167570105
 20
-296.1698612845171
 30
0.0
 40
3.2
  1
品　名
 41
0.85537027
100
AcDbText
  0
TEXT
  5
3DF61
330
1F
100
AcDbEntity
  8
AM_6
100
AcDbText
 10
6092.08167570105
 20
-304.1698612845171
 30
0.0
 40
3.2
  1
品　番
 41
0.85537027
100
AcDbText
  0
TEXT
  5
3DF62
330
1F
100
AcDbEntity
  8
AM_6
100
AcDbText
 10
6092.08167570105
 20
-312.1698612845171
 30
0.0
 40
3.2
  1
材　質
 41
0.85537027
100
AcDbText
  0
TEXT
  5
3DF63
330
1F
100
AcDbEntity
  8
AM_6
100
AcDbText
 10
6092.08167570105
 20
-320.1698612845171
 30
0.0
 40
3.2
  1
仕上げ
 41
0.85537027
100
AcDbText
  0
TEXT
  5
3DF64
330
1F
100
AcDbEntity
  8
AM_6
100
AcDbText
 10
6109.281675701049
 20
-296.1698612845171
 30
0.0
 40
3.2
  1
パチン錠
 41
0.84306961
100
AcDbText
  0
TEXT
  5
3DF65
330
1F
100
AcDbEntity
  8
AM_6
100
AcDbText
 10
6109.281675701049
 20
-304.1698612845171
 30
0.0
 40
3.2
  1
ELP-106
 41
0.84741102
100
AcDbText
  0
TEXT
  5
3DF66
330
1F
100
AcDbEntity
  8
AM_6
100
AcDbText
 10
6109.281675701049
 20
-312.1698612845171
 30
0.0
 40
3.2
  1
黄銅
 41
0.84634979
100
AcDbText
  0
TEXT
  5
3DF67
330
1F
100
AcDbEntity
  8
AM_6
100
AcDbText
 10
6109.281675701049
 20
-320.1698612845171
 30
0.0
 40
3.2
  1
クロームメッキ
 41
0.84350122
100
AcDbText
  0
MTEXT
  5
3E476
330
1F
100
AcDbEntity
  8
AM_6
100
AcDbMText
 10
6128.424675701051
 20
-461.4540425239988
 30
0.0
 40
3.200000000000001
 41
0.0
 71
     5
 72
     1
  1
品番
 73
     1
 44
1.0
1001
ACAD
1000
MTEXTBEGIN
1070
    73
1070
     1
1070
    44
1040
1.0
1070
    74
1070
     0
1000
MTEXTEND
  0
LINE
  5
3E477
330
1F
100
AcDbEntity
  8
AM_0
100
AcDbLine
 10
6117.174675701051
 20
-464.4540425239989
 30
0.0
 11
6329.674675701046
 21
-464.4540425239987
 31
0.0
  0
LINE
  5
3E478
330
1F
100
AcDbEntity
  8
AM_0
100
AcDbLine
 10
6117.174675701051
 20
-458.4540425239989
 30
0.0
 11
6329.674675701046
 21
-458.4540425239996
 31
0.0
  0
LINE
  5
3E479
330
1F
100
AcDbEntity
  8
AM_0
100
AcDbLine
 10
6139.674675701051
 20
-458.4540425239989
 30
0.0
 11
6139.674675701051
 21
-476.4540425239984
 31
0.0
  0
LINE
  5
3E47A
330
1F
100
AcDbEntity
  8
AM_0
100
AcDbLine
 10
6117.174675701051
 20
-458.4540425239989
 30
0.0
 11
6117.174675701051
 21
-476.4540425239984
 31
0.0
  0
MTEXT
  5
3E47B
330
1F
100
AcDbEntity
  8
AM_6
100
AcDbMText
 10
6128.14548650704
 20
-467.4540425239989
 30
0.0
 40
3.200000000000001
 41
0.0
 71
     5
 72
     1
  1
ELP-106-1
 73
     1
 44
1.0
1001
ACAD
1000
MTEXTBEGIN
1070
    73
1070
     1
1070
    44
1040
1.0
1070
    74
1070
     0
1000
MTEXTEND
  0
LINE
  5
3E47D
330
1F
100
AcDbEntity
  8
AM_5
370
    13
100
AcDbLine
 10
6117.174675701051
 20
-470.4540425239989
 30
0.0
 11
6329.674675701046
 21
-470.4540425239996
 31
0.0
  0
LINE
  5
3E47F
330
1F
100
AcDbEntity
  8
AM_0
100
AcDbLine
 10
6117.174675701051
 20
-476.4540425239984
 30
0.0
 11
6329.674675701046
 21
-476.4540425239988
 31
0.0
  0
LINE
  5
3E480
330
1F
100
AcDbEntity
  8
AM_0
100
AcDbLine
 10
6149.674675701051
 20
-458.4540425239998
 30
0.0
 11
6149.674675701051
 21
-476.4540425239989
 31
0.0
  0
MTEXT
  5
3E481
330
1F
100
AcDbEntity
  8
AM_6
100
AcDbMText
 10
6144.674675701051
 20
-461.4540425239998
 30
0.0
 40
3.200000000000001
 41
0.0
 71
     5
 72
     1
  1
（A）
 73
     1
 44
1.0
1001
ACAD
1000
MTEXTBEGIN
1070
    73
1070
     1
1070
    44
1040
1.0
1070
    74
1070
     0
1000
MTEXTEND
  0
MTEXT
  5
3E482
330
1F
100
AcDbEntity
  8
AM_6
100
AcDbMText
 10
6144.674675701051
 20
-467.4540425239998
 30
0.0
 40
3.200000000000001
 41
0.0
 71
     5
 72
     1
  1
40
 73
     1
 44
1.0
1001
ACAD
1000
MTEXTBEGIN
1070
    73
1070
     1
1070
    44
1040
1.0
1070
    74
1070
     0
1000
MTEXTEND
  0
MTEXT
  5
3E483
330
1F
100
AcDbEntity
  8
AM_6
100
AcDbMText
 10
6144.674675701051
 20
-473.4540425239997
 30
0.0
 40
3.200000000000001
 41
0.0
 71
     5
 72
     1
  1
52
 73
     1
 44
1.0
1001
ACAD
1000
MTEXTBEGIN
1070
    73
1070
     1
1070
    44
1040
1.0
1070
    74
1070
     0
1000
MTEXTEND
  0
LINE
  5
3E484
330
1F
100
AcDbEntity
  8
AM_0
100
AcDbLine
 10
6159.674675701051
 20
-458.4540425239998
 30
0.0
 11
6159.674675701051
 21
-476.4540425239989
 31
0.0
  0
MTEXT
  5
3E485
330
1F
100
AcDbEntity
  8
AM_6
100
AcDbMText
 10
6154.674675701052
 20
-461.4540425239998
 30
0.0
 40
3.200000000000001
 41
0.0
 71
     5
 72
     1
  1
（B）
 73
     1
 44
1.0
1001
ACAD
1000
MTEXTBEGIN
1070
    73
1070
     1
1070
    44
1040
1.0
1070
    74
1070
     0
1000
MTEXTEND
  0
MTEXT
  5
3E486
330
1F
100
AcDbEntity
  8
AM_6
100
AcDbMText
 10
6154.674675701052
 20
-467.4540425239998
 30
0.0
 40
3.200000000000001
 41
0.0
 71
     5
 72
     1
  1
26
 73
     1
 44
1.0
1001
ACAD
1000
MTEXTBEGIN
1070
    73
1070
     1
1070
    44
1040
1.0
1070
    74
1070
     0
1000
MTEXTEND
  0
MTEXT
  5
3E487
330
1F
100
AcDbEntity
  8
AM_6
100
AcDbMText
 10
6154.674675701052
 20
-473.4540425239997
 30
0.0
 40
3.200000000000001
 41
0.0
 71
     5
 72
     1
  1
32
 73
     1
 44
1.0
1001
ACAD
1000
MTEXTBEGIN
1070
    73
1070
     1
1070
    44
1040
1.0
1070
    74
1070
     0
1000
MTEXTEND
  0
LINE
  5
3E488
330
1F
100
AcDbEntity
  8
AM_0
100
AcDbLine
 10
6169.674675701052
 20
-458.4540425239998
 30
0.0
 11
6169.674675701052
 21
-476.4540425239989
 31
0.0
  0
MTEXT
  5
3E489
330
1F
100
AcDbEntity
  8
AM_6
100
AcDbMText
 10
6164.674675701052
 20
-461.4540425239998
 30
0.0
 40
3.200000000000001
 41
0.0
 71
     5
 72
     1
  1
C
 73
     1
 44
1.0
1001
ACAD
1000
MTEXTBEGIN
1070
    73
1070
     1
1070
    44
1040
1.0
1070
    74
1070
     0
1000
MTEXTEND
  0
MTEXT
  5
3E48A
330
1F
100
AcDbEntity
  8
AM_6
100
AcDbMText
 10
6164.674675701052
 20
-467.4540425239998
 30
0.0
 40
3.200000000000001
 41
0.0
 71
     5
 72
     1
  1
16.5
 73
     1
 44
1.0
1001
ACAD
1000
MTEXTBEGIN
1070
    73
1070
     1
1070
    44
1040
1.0
1070
    74
1070
     0
1000
MTEXTEND
  0
MTEXT
  5
3E48B
330
1F
100
AcDbEntity
  8
AM_6
100
AcDbMText
 10
6164.674675701052
 20
-473.4540425239997
 30
0.0
 40
3.200000000000001
 41
0.0
 71
     5
 72
     1
  1
22
 73
     1
 44
1.0
1001
ACAD
1000
MTEXTBEGIN
1070
    73
1070
     1
1070
    44
1040
1.0
1070
    74
1070
     0
1000
MTEXTEND
  0
LINE
  5
3E48C
330
1F
100
AcDbEntity
  8
AM_0
100
AcDbLine
 10
6179.674675701051
 20
-458.4540425239998
 30
0.0
 11
6179.674675701051
 21
-476.4540425239989
 31
0.0
  0
MTEXT
  5
3E48D
330
1F
100
AcDbEntity
  8
AM_6
100
AcDbMText
 10
6174.674675701051
 20
-461.4540425239998
 30
0.0
 40
3.200000000000001
 41
0.0
 71
     5
 72
     1
  1
（D）
 73
     1
 44
1.0
1001
ACAD
1000
MTEXTBEGIN
1070
    73
1070
     1
1070
    44
1040
1.0
1070
    74
1070
     0
1000
MTEXTEND
  0
MTEXT
  5
3E48E
330
1F
100
AcDbEntity
  8
AM_6
100
AcDbMText
 10
6174.674675701051
 20
-467.4540425239998
 30
0.0
 40
3.200000000000001
 41
0.0
 71
     5
 72
     1
  1
18
 73
     1
 44
1.0
1001
ACAD
1000
MTEXTBEGIN
1070
    73
1070
     1
1070
    44
1040
1.0
1070
    74
1070
     0
1000
MTEXTEND
  0
MTEXT
  5
3E48F
330
1F
100
AcDbEntity
  8
AM_6
100
AcDbMText
 10
6174.674675701051
 20
-473.4540425239997
 30
0.0
 40
3.200000000000001
 41
0.0
 71
     5
 72
     1
  1
17.5
 73
     1
 44
1.0
1001
ACAD
1000
MTEXTBEGIN
1070
    73
1070
     1
1070
    44
1040
1.0
1070
    74
1070
     0
1000
MTEXTEND
  0
LINE
  5
3E490
330
1F
100
AcDbEntity
  8
AM_0
100
AcDbLine
 10
6189.674675701052
 20
-458.4540425239998
 30
0.0
 11
6189.674675701052
 21
-476.4540425239989
 31
0.0
  0
MTEXT
  5
3E491
330
1F
100
AcDbEntity
  8
AM_6
100
AcDbMText
 10
6184.674675701051
 20
-461.4540425239998
 30
0.0
 40
3.200000000000001
 41
0.0
 71
     5
 72
     1
  1
E
 73
     1
 44
1.0
1001
ACAD
1000
MTEXTBEGIN
1070
    73
1070
     1
1070
    44
1040
1.0
1070
    74
1070
     0
1000
MTEXTEND
  0
MTEXT
  5
3E492
330
1F
100
AcDbEntity
  8
AM_6
100
AcDbMText
 10
6184.674675701051
 20
-467.4540425239998
 30
0.0
 40
3.200000000000001
 41
0.0
 71
     5
 72
     1
  1
24
 73
     1
 44
1.0
1001
ACAD
1000
MTEXTBEGIN
1070
    73
1070
     1
1070
    44
1040
1.0
1070
    74
1070
     0
1000
MTEXTEND
  0
MTEXT
  5
3E493
330
1F
100
AcDbEntity
  8
AM_6
100
AcDbMText
 10
6184.674675701051
 20
-473.4540425239997
 30
0.0
 40
3.200000000000001
 41
0.0
 71
     5
 72
     1
  1
28
 73
     1
 44
1.0
1001
ACAD
1000
MTEXTBEGIN
1070
    73
1070
     1
1070
    44
1040
1.0
1070
    74
1070
     0
1000
MTEXTEND
  0
LINE
  5
3E498
330
1F
100
AcDbEntity
  8
AM_0
100
AcDbLine
 10
6199.674675701051
 20
-458.4540425239998
 30
0.0
 11
6199.674675701051
 21
-476.4540425239993
 31
0.0
  0
MTEXT
  5
3E499
330
1F
100
AcDbEntity
  8
AM_6
100
AcDbMText
 10
6194.674675701051
 20
-461.4540425239998
 30
0.0
 40
3.200000000000001
 41
0.0
 71
     5
 72
     1
  1
（G）
 73
     1
 44
1.0
1001
ACAD
1000
MTEXTBEGIN
1070
    73
1070
     1
1070
    44
1040
1.0
1070
    74
1070
     0
1000
MTEXTEND
  0
MTEXT
  5
3E49A
330
1F
100
AcDbEntity
  8
AM_6
100
AcDbMText
 10
6194.674675701051
 20
-467.4540425239998
 30
0.0
 40
3.200000000000001
 41
0.0
 71
     5
 72
     1
  1
9.5
 73
     1
 44
1.0
1001
ACAD
1000
MTEXTBEGIN
1070
    73
1070
     1
1070
    44
1040
1.0
1070
    74
1070
     0
1000
MTEXTEND
  0
MTEXT
  5
3E49B
330
1F
100
AcDbEntity
  8
AM_6
100
AcDbMText
 10
6194.674675701051
 20
-473.4540425239997
 30
0.0
 40
3.200000000000001
 41
0.0
 71
     5
 72
     1
  1
13.2
 73
     1
 44
1.0
1001
ACAD
1000
MTEXTBEGIN
1070
    73
1070
     1
1070
    44
1040
1.0
1070
    74
1070
     0
1000
MTEXTEND
  0
LINE
  5
3E49C
330
1F
100
AcDbEntity
  8
AM_0
100
AcDbLine
 10
6209.674675701052
 20
-458.4540425239998
 30
0.0
 11
6209.674675701052
 21
-476.4540425239993
 31
0.0
  0
MTEXT
  5
3E49D
330
1F
100
AcDbEntity
  8
AM_6
100
AcDbMText
 10
6204.674675701052
 20
-461.4540425239998
 30
0.0
 40
3.200000000000001
 41
0.0
 71
     5
 72
     1
  1
H
 73
     1
 44
1.0
1001
ACAD
1000
MTEXTBEGIN
1070
    73
1070
     1
1070
    44
1040
1.0
1070
    74
1070
     0
1000
MTEXTEND
  0
MTEXT
  5
3E49E
330
1F
100
AcDbEntity
  8
AM_6
100
AcDbMText
 10
6204.674675701052
 20
-467.4540425239998
 30
0.0
 40
3.200000000000001
 41
0.0
 71
     5
 72
     1
  1
1
 73
     1
 44
1.0
1001
ACAD
1000
MTEXTBEGIN
1070
    73
1070
     1
1070
    44
1040
1.0
1070
    74
1070
     0
1000
MTEXTEND
  0
MTEXT
  5
3E49F
330
1F
100
AcDbEntity
  8
AM_6
100
AcDbMText
 10
6204.674675701052
 20
-473.4540425239997
 30
0.0
 40
3.200000000000001
 41
0.0
 71
     5
 72
     1
  1
1.5
 73
     1
 44
1.0
1001
ACAD
1000
MTEXTBEGIN
1070
    73
1070
     1
1070
    44
1040
1.0
1070
    74
1070
     0
1000
MTEXTEND
  0
LINE
  5
3E4A0
330
1F
100
AcDbEntity
  8
AM_0
100
AcDbLine
 10
6219.674675701051
 20
-458.4540425239998
 30
0.0
 11
6219.674675701051
 21
-476.4540425239993
 31
0.0
  0
MTEXT
  5
3E4A1
330
1F
100
AcDbEntity
  8
AM_6
100
AcDbMText
 10
6214.674675701052
 20
-461.4540425239998
 30
0.0
 40
3.200000000000001
 41
0.0
 71
     5
 72
     1
  1
I
 73
     1
 44
1.0
1001
ACAD
1000
MTEXTBEGIN
1070
    73
1070
     1
1070
    44
1040
1.0
1070
    74
1070
     0
1000
MTEXTEND
  0
MTEXT
  5
3E4A2
330
1F
100
AcDbEntity
  8
AM_6
100
AcDbMText
 10
6214.674675701052
 20
-467.4540425239998
 30
0.0
 40
3.200000000000001
 41
0.0
 71
     5
 72
     1
  1
8.5
 73
     1
 44
1.0
1001
ACAD
1000
MTEXTBEGIN
1070
    73
1070
     1
1070
    44
1040
1.0
1070
    74
1070
     0
1000
MTEXTEND
  0
MTEXT
  5
3E4A3
330
1F
100
AcDbEntity
  8
AM_6
100
AcDbMText
 10
6214.674675701052
 20
-473.4540425239997
 30
0.0
 40
3.200000000000001
 41
0.0
 71
     5
 72
     1
  1
9
 73
     1
 44
1.0
1001
ACAD
1000
MTEXTBEGIN
1070
    73
1070
     1
1070
    44
1040
1.0
1070
    74
1070
     0
1000
MTEXTEND
  0
LINE
  5
3E4A4
330
1F
100
AcDbEntity
  8
AM_0
100
AcDbLine
 10
6229.674675701051
 20
-458.4540425239998
 30
0.0
 11
6229.674675701051
 21
-476.4540425239993
 31
0.0
  0
MTEXT
  5
3E4A5
330
1F
100
AcDbEntity
  8
AM_6
100
AcDbMText
 10
6224.674675701051
 20
-461.4540425239998
 30
0.0
 40
3.200000000000001
 41
0.0
 71
     5
 72
     1
  1
J
 73
     1
 44
1.0
1001
ACAD
1000
MTEXTBEGIN
1070
    73
1070
     1
1070
    44
1040
1.0
1070
    74
1070
     0
1000
MTEXTEND
  0
LINE
  5
3E4A6
330
1F
100
AcDbEntity
  8
AM_0
100
AcDbLine
 10
6239.674675701052
 20
-458.4540425239998
 30
0.0
 11
6239.674675701052
 21
-476.4540425239993
 31
0.0
  0
MTEXT
  5
3E4A7
330
1F
100
AcDbEntity
  8
AM_6
100
AcDbMText
 10
6234.674675701051
 20
-461.4540425239998
 30
0.0
 40
3.200000000000001
 41
0.0
 71
     5
 72
     1
  1
K
 73
     1
 44
1.0
1001
ACAD
1000
MTEXTBEGIN
1070
    73
1070
     1
1070
    44
1040
1.0
1070
    74
1070
     0
1000
MTEXTEND
  0
MTEXT
  5
3E4A8
330
1F
100
AcDbEntity
  8
AM_6
100
AcDbMText
 10
6234.674675701051
 20
-467.4540425239998
 30
0.0
 40
3.200000000000001
 41
0.0
 71
     5
 72
     1
  1
23
 73
     1
 44
1.0
1001
ACAD
1000
MTEXTBEGIN
1070
    73
1070
     1
1070
    44
1040
1.0
1070
    74
1070
     0
1000
MTEXTEND
  0
MTEXT
  5
3E4A9
330
1F
100
AcDbEntity
  8
AM_6
100
AcDbMText
 10
6234.674675701051
 20
-473.4540425239997
 30
0.0
 40
3.200000000000001
 41
0.0
 71
     5
 72
     1
  1
34
 73
     1
 44
1.0
1001
ACAD
1000
MTEXTBEGIN
1070
    73
1070
     1
1070
    44
1040
1.0
1070
    74
1070
     0
1000
MTEXTEND
  0
LINE
  5
3E4AA
330
1F
100
AcDbEntity
  8
AM_0
100
AcDbLine
 10
6249.674675701051
 20
-458.4540425239998
 30
0.0
 11
6249.674675701051
 21
-476.4540425239993
 31
0.0
  0
MTEXT
  5
3E4AB
330
1F
100
AcDbEntity
  8
AM_6
100
AcDbMText
 10
6244.674675701052
 20
-461.4540425239998
 30
0.0
 40
3.200000000000001
 41
0.0
 71
     5
 72
     1
  1
L
 73
     1
 44
1.0
1001
ACAD
1000
MTEXTBEGIN
1070
    73
1070
     1
1070
    44
1040
1.0
1070
    74
1070
     0
1000
MTEXTEND
  0
MTEXT
  5
3E4AC
330
1F
100
AcDbEntity
  8
AM_6
100
AcDbMText
 10
6244.674675701052
 20
-467.4540425239998
 30
0.0
 40
3.200000000000001
 41
0.0
 71
     5
 72
     1
  1
11
 73
     1
 44
1.0
1001
ACAD
1000
MTEXTBEGIN
1070
    73
1070
     1
1070
    44
1040
1.0
1070
    74
1070
     0
1000
MTEXTEND
  0
MTEXT
  5
3E4AD
330
1F
100
AcDbEntity
  8
AM_6
100
AcDbMText
 10
6244.674675701052
 20
-473.4540425239997
 30
0.0
 40
3.200000000000001
 41
0.0
 71
     5
 72
     1
  1
13
 73
     1
 44
1.0
1001
ACAD
1000
MTEXTBEGIN
1070
    73
1070
     1
1070
    44
1040
1.0
1070
    74
1070
     0
1000
MTEXTEND
  0
MTEXT
  5
3E4C2
330
1F
100
AcDbEntity
  8
AM_6
100
AcDbMText
 10
6224.674675701051
 20
-467.4540425239998
 30
0.0
 40
3.200000000000001
 41
0.0
 71
     5
 72
     1
  1
1.2
 73
     1
 44
1.0
1001
ACAD
1000
MTEXTBEGIN
1070
    73
1070
     1
1070
    44
1040
1.0
1070
    74
1070
     0
1000
MTEXTEND
  0
MTEXT
  5
3E4C3
330
1F
100
AcDbEntity
  8
AM_6
100
AcDbMText
 10
6224.674675701051
 20
-473.4540425239997
 30
0.0
 40
3.200000000000001
 41
0.0
 71
     5
 72
     1
  1
1.5
 73
     1
 44
1.0
1001
ACAD
1000
MTEXTBEGIN
1070
    73
1070
     1
1070
    44
1040
1.0
1070
    74
1070
     0
1000
MTEXTEND
  0
MTEXT
  5
3E4C7
330
1F
100
AcDbEntity
  8
AM_6
100
AcDbMText
 10
6128.424675701051
 20
-473.4540425239988
 30
0.0
 40
3.200000000000001
 41
0.0
 71
     5
 72
     1
  1
ELP-106-2
 73
     1
 44
1.0
1001
ACAD
1000
MTEXTBEGIN
1070
    73
1070
     1
1070
    44
1040
1.0
1070
    74
1070
     0
1000
MTEXTEND
  0
LINE
  5
3E4FB
330
1F
100
AcDbEntity
  8
AM_0
100
AcDbLine
 10
6139.674675701051
 20
-458.4540425239989
 30
0.0
 11
6139.674675701051
 21
-476.4540425239984
 31
0.0
  0
LINE
  5
3E529
330
1F
100
AcDbEntity
  8
AM_0
100
AcDbLine
 10
6279.674675701052
 20
-458.4540425239989
 30
0.0
 11
6279.674675701052
 21
-476.4540425239984
 31
0.0
  0
MTEXT
  5
3E52D
330
1F
100
AcDbEntity
  8
AM_6
100
AcDbMText
 10
6274.674675701051
 20
-461.4540425239988
 30
0.0
 40
3.200000000000001
 41
0.0
 71
     5
 72
     1
  1
（O）
 73
     1
 44
1.0
1001
ACAD
1000
MTEXTBEGIN
1070
    73
1070
     1
1070
    44
1040
1.0
1070
    74
1070
     0
1000
MTEXTEND
  0
MTEXT
  5
3E52E
330
1F
100
AcDbEntity
  8
AM_6
100
AcDbMText
 10
6274.674675701051
 20
-467.4540425239989
 30
0.0
 40
3.200000000000001
 41
0.0
 71
     5
 72
     1
  1
30
 73
     1
 44
1.0
1001
ACAD
1000
MTEXTBEGIN
1070
    73
1070
     1
1070
    44
1040
1.0
1070
    74
1070
     0
1000
MTEXTEND
  0
MTEXT
  5
3E52F
330
1F
100
AcDbEntity
  8
AM_6
100
AcDbMText
 10
6274.674675701051
 20
-473.4540425239988
 30
0.0
 40
3.200000000000001
 41
0.0
 71
     5
 72
     1
  1
32.5
 73
     1
 44
1.0
1001
ACAD
1000
MTEXTBEGIN
1070
    73
1070
     1
1070
    44
1040
1.0
1070
    74
1070
     0
1000
MTEXTEND
  0
LINE
  5
3E530
330
1F
100
AcDbEntity
  8
AM_0
100
AcDbLine
 10
6289.67467570105
 20
-458.4540425239989
 30
0.0
 11
6289.67467570105
 21
-476.4540425239984
 31
0.0
  0
LINE
  5
3E531
330
1F
100
AcDbEntity
  8
AM_0
100
AcDbLine
 10
6329.674675701046
 20
-458.4540425239987
 30
0.0
 11
6329.674675701046
 21
-476.4540425239983
 31
0.0
  0
MTEXT
  5
3E532
330
1F
100
AcDbEntity
  8
AM_6
100
AcDbMText
 10
6284.674675701051
 20
-461.4540425239988
 30
0.0
 40
3.200000000000001
 41
0.0
 71
     5
 72
     1
  1
（P）
 73
     1
 44
1.0
1001
ACAD
1000
MTEXTBEGIN
1070
    73
1070
     1
1070
    44
1040
1.0
1070
    74
1070
     0
1000
MTEXTEND
  0
MTEXT
  5
3E533
330
1F
100
AcDbEntity
  8
AM_6
100
AcDbMText
 10
6284.674675701051
 20
-467.4540425239989
 30
0.0
 40
3.200000000000001
 41
0.0
 71
     5
 72
     1
  1
10.5
 73
     1
 44
1.0
1001
ACAD
1000
MTEXTBEGIN
1070
    73
1070
     1
1070
    44
1040
1.0
1070
    74
1070
     0
1000
MTEXTEND
  0
MTEXT
  5
3E534
330
1F
100
AcDbEntity
  8
AM_6
100
AcDbMText
 10
6284.674675701051
 20
-473.4540425239988
 30
0.0
 40
3.200000000000001
 41
0.0
 71
     5
 72
     1
  1
11
 73
     1
 44
1.0
1001
ACAD
1000
MTEXTBEGIN
1070
    73
1070
     1
1070
    44
1040
1.0
1070
    74
1070
     0
1000
MTEXTEND
  0
MTEXT
  5
3E535
330
1F
100
AcDbEntity
  8
AM_6
100
AcDbMText
 10
6294.674675701051
 20
-461.4540425239988
 30
0.0
 40
3.200000000000001
 41
0.0
 71
     5
 72
     1
  1
Q
 73
     1
 44
1.0
1001
ACAD
1000
MTEXTBEGIN
1070
    73
1070
     1
1070
    44
1040
1.0
1070
    74
1070
     0
1000
MTEXTEND
  0
MTEXT
  5
3E536
330
1F
100
AcDbEntity
  8
AM_6
100
AcDbMText
 10
6294.674675701051
 20
-467.4540425239989
 30
0.0
 40
3.200000000000001
 41
0.0
 71
     5
 72
     1
  1
10
 73
     1
 44
1.0
1001
ACAD
1000
MTEXTBEGIN
1070
    73
1070
     1
1070
    44
1040
1.0
1070
    74
1070
     0
1000
MTEXTEND
  0
MTEXT
  5
3E537
330
1F
100
AcDbEntity
  8
AM_6
100
AcDbMText
 10
6294.674675701051
 20
-473.4540425239988
 30
0.0
 40
3.200000000000001
 41
0.0
 71
     5
 72
     1
  1
12
 73
     1
 44
1.0
1001
ACAD
1000
MTEXTBEGIN
1070
    73
1070
     1
1070
    44
1040
1.0
1070
    74
1070
     0
1000
MTEXTEND
  0
CIRCLE
  5
3EB27
330
1F
100
AcDbEntity
  8
AM_0
  6
中線
 48
0.5
370
    30
100
AcDbCircle
 10
6253.417408871628
 20
-373.134871391781
 30
0.0
 40
2.5
  0
ARC
  5
3EB29
330
1F
100
AcDbEntity
  8
AM_0
  6
中線
 48
0.5
370
    30
100
AcDbCircle
 10
6253.417408871628
 20
-372.6348713917809
 30
0.0
 40
4.5
100
AcDbArc
 50
0.0
 51
180.0
  0
LINE
  5
3EB31
330
1F
100
AcDbEntity
  8
AM_0
  6
中線
 48
0.5
370
    30
100
AcDbLine
 10
6257.917408871628
 20
-372.6348713917809
 30
0.0
 11
6257.917408871628
 21
-376.8343933917809
 31
0.0
  0
LINE
  5
3EB43
330
1F
100
AcDbEntity
  8
AM_0
  6
中線
 48
0.5
370
    30
100
AcDbLine
 10
6248.917408871628
 20
-374.8457093917809
 30
0.0
 11
6248.917408871628
 21
-372.6348713917809
 31
0.0
  0
LINE
  5
3EB57
330
1F
100
AcDbEntity
  8
AM_0
  6
中線
 48
0.5
370
    30
100
AcDbLine
 10
6258.832284871628
 20
-336.4065886969342
 30
0.0
 11
6248.154883871627
 21
-336.4065886969342
 31
0.0
  0
LINE
  5
3EB58
330
1F
100
AcDbEntity
  8
AM_0
  6
中線
 48
0.5
370
    30
100
AcDbLine
 10
6248.917408871628
 20
-336.4065886969342
 30
0.0
 11
6248.917408871628
 21
-337.9065886969343
 31
0.0
  0
LINE
  5
3EB59
330
1F
100
AcDbEntity
  8
AM_0
  6
中線
 48
0.5
370
    30
100
AcDbLine
 10
6248.154883871627
 20
-337.9065886969343
 30
0.0
 11
6258.832284871628
 21
-337.9065886969343
 31
0.0
  0
LINE
  5
3EB5A
330
1F
100
AcDbEntity
  8
AM_0
  6
中線
 48
0.5
370
    30
100
AcDbLine
 10
6257.917408871628
 20
-337.9065886969343
 30
0.0
 11
6257.917408871628
 21
-336.4065886969342
 31
0.0
  0
LINE
  5
3EB5B
330
1F
100
AcDbEntity
  8
AM_0
  6
中線
 48
0.5
370
    30
100
AcDbLine
 10
6257.864038871629
 20
-335.6565886969343
 30
0.0
 11
6249.123129871628
 21
-335.6565886969343
 31
0.0
  0
LINE
  5
3EB5C
330
1F
100
AcDbEntity
  8
AM_0
  6
中線
 48
0.5
370
    30
100
AcDbLine
 10
6248.123129871629
 20
-336.6565886969342
 30
0.0
 11
6248.123129871629
 21
-337.6565886969343
 31
0.0
  0
LINE
  5
3EB5D
330
1F
100
AcDbEntity
  8
AM_0
  6
中線
 48
0.5
370
    30
100
AcDbLine
 10
6249.123129871628
 20
-338.6565886969342
 30
0.0
 11
6257.864038871629
 21
-338.6565886969342
 31
0.0
  0
LINE
  5
3EB5E
330
1F
100
AcDbEntity
  8
AM_0
  6
中線
 48
0.5
370
    30
100
AcDbLine
 10
6258.864038871628
 20
-337.6565886969343
 30
0.0
 11
6258.864038871628
 21
-336.6565886969342
 31
0.0
  0
ARC
  5
3EBA8
330
1F
100
AcDbEntity
  8
AM_0
  6
中線
 48
0.5
370
    30
100
AcDbCircle
 10
6249.123129871628
 20
-336.6565886969342
 30
0.0
 40
1.0
100
AcDbArc
 50
90.0
 51
180.0
  0
ARC
  5
3EBA9
330
1F
100
AcDbEntity
  8
AM_0
  6
中線
 48
0.5
370
    30
100
AcDbCircle
 10
6249.123129871628
 20
-337.6565886969343
 30
0.0
 40
1.0
100
AcDbArc
 50
180.0
 51
270.0
  0
ARC
  5
3EBAA
330
1F
100
AcDbEntity
  8
AM_0
  6
中線
 48
0.5
370
    30
100
AcDbCircle
 10
6257.864038871629
 20
-337.6565886969343
 30
0.0
 40
1.0
100
AcDbArc
 50
270.0
 51
0.0
  0
ARC
  5
3EBAB
330
1F
100
AcDbEntity
  8
AM_0
  6
中線
 48
0.5
370
    30
100
AcDbCircle
 10
6257.864038871629
 20
-336.6565886969342
 30
0.0
 40
1.0
100
AcDbArc
 50
0.0
 51
90.0
  0
DIMENSION
  5
3EC1B
330
1F
100
AcDbEntity
  8
AM_5
100
AcDbDimension
  2
*D7
 10
6277.535176871628
 20
-348.1565886969343
 30
0.0
 11
6277.535176871628
 21
-337.1565886969343
 31
0.0
 70
   160
  1
C
 71
     5
 42
22.0
  3
SYS$0
100
AcDbAlignedDimension
 13
6258.535176871628
 23
-326.1565886969342
 33
0.0
 14
6258.535176871628
 24
-348.1565886969343
 34
0.0
 50
90.0
100
AcDbRotatedDimension
  0
DIMENSION
  5
3EC1C
330
1F
100
AcDbEntity
  8
AM_5
100
AcDbDimension
  2
*D8
 10
6285.535176871628
 20
-353.1565886969344
 30
0.0
 11
6285.535176871628
 21
-337.1565886969343
 31
0.0
 70
   160
  1
（B）
 71
     5
 42
32.00000000000012
  3
SYS$0
100
AcDbAlignedDimension
 13
6226.921186871628
 23
-321.1565886969343
 33
0.0
 14
6226.921186871628
 24
-353.1565886969344
 34
0.0
 50
90.0
100
AcDbRotatedDimension
  0
DIMENSION
  5
3EC47
330
1F
100
AcDbEntity
  8
AM_5
100
AcDbDimension
  2
*D9
 10
6269.535176871628
 20
-312.6565886969343
 30
0.0
 11
6244.013634871627
 21
-312.6565886969343
 31
0.0
 70
   160
  1
（A）
 71
     5
 42
52.0
  3
SYS$0
100
AcDbAlignedDimension
 13
6217.535176871628
 23
-330.1565886969342
 33
0.0
 14
6269.535176871628
 24
-337.1565886969343
 34
0.0
100
AcDbRotatedDimension
  0
DIMENSION
  5
3EC48
330
1F
100
AcDbEntity
  8
AM_5
100
AcDbDimension
  2
*D10
 10
6191.916783871628
 20
-312.6565886969343
 30
0.0
 11
6200.612980098314
 21
-312.6565886969343
 31
0.0
 70
   160
  1
（D）
 71
     5
 42
17.5
  3
SYS$0
100
AcDbAlignedDimension
 13
6209.416783871628
 23
-329.1565886969343
 33
0.0
 14
6191.916783871628
 24
-337.1565886969343
 34
0.0
100
AcDbRotatedDimension
  0
DIMENSION
  5
3EC73
330
1F
100
AcDbEntity
  8
AM_5
100
AcDbDimension
  2
*D11
 10
6184.416783871627
 20
-351.1560750810712
 30
0.0
 11
6184.416783871627
 21
-337.1565891969335
 31
0.0
 70
   160
  1
E
 71
     5
 42
27.99897176827347
  3
SYS$0
100
AcDbAlignedDimension
 13
6198.498962385518
 23
-323.1571033127977
 33
0.0
 14
6198.498962385518
 24
-351.1560750810712
 34
0.0
 50
90.0
100
AcDbRotatedDimension
  0
DIMENSION
  5
3ECE9
330
1F
100
AcDbEntity
  8
AM_5
100
AcDbDimension
  2
*D13
 10
6184.416783871627
 20
-380.634871391781
 30
0.0
 11
6184.416783871627
 21
-385.6682047251134
 31
0.0
 70
   160
  1
J
 71
     5
 42
1.5
  3
SYS$0
100
AcDbAlignedDimension
 13
6192.416783871628
 23
-382.134871391781
 33
0.0
 14
6192.416783871628
 24
-380.634871391781
 34
0.0
 50
90.0
100
AcDbRotatedDimension
  0
DIMENSION
  5
3ECEA
330
1F
100
AcDbEntity
  8
AM_5
100
AcDbDimension
  2
*D14
 10
6176.416783871627
 20
-373.134871509981
 30
0.0
 11
6176.416783871627
 21
-377.63487139178
 31
0.0
 70
   160
  1
I
 71
     5
 42
8.999999881799965
  3
SYS$0
100
AcDbAlignedDimension
 13
6192.416783871628
 23
-382.134871391781
 33
0.0
 14
6205.36505510029
 24
-373.134871509981
 34
0.0
 50
90.0
100
AcDbRotatedDimension
  0
DIMENSION
  5
3ED19
330
1F
100
AcDbEntity
  8
AM_5
100
AcDbDimension
  2
*D15
 10
6277.535176871628
 20
-380.634871391781
 30
0.0
 11
6277.535176871628
 21
-385.881538058447
 31
0.0
 70
   160
  1
H
 71
     5
 42
1.5
  3
SYS$0
100
AcDbAlignedDimension
 13
6268.960492871628
 23
-382.134871391781
 33
0.0
 14
6268.960492871628
 24
-380.634871391781
 34
0.0
 50
90.0
100
AcDbRotatedDimension
  0
DIMENSION
  5
3ED1A
330
1F
100
AcDbEntity
  8
AM_5
100
AcDbDimension
  2
*D16
 10
6285.535176871628
 20
-368.9348713917811
 30
0.0
 11
6285.535176871628
 21
-375.6789334423402
 31
0.0
 70
   160
  1
（G）
 71
     5
 42
13.19999999999993
  3
SYS$0
100
AcDbAlignedDimension
 13
6268.960492871628
 23
-382.134871391781
 33
0.0
 14
6222.633168871628
 24
-368.934871391781
 34
0.0
 50
90.0
100
AcDbRotatedDimension
  0
DIMENSION
  5
3ED49
330
1F
100
AcDbEntity
  8
AM_5
100
AcDbDimension
  2
*D17
 10
6209.416783871628
 20
-437.4923810784435
 30
0.0
 11
6203.800479386543
 21
-437.4923810784435
 31
0.0
 70
   160
  1
（P）
 71
     5
 42
11.0
  3
SYS$0
100
AcDbAlignedDimension
 13
6198.416783871627
 23
-422.592381410055
 33
0.0
 14
6209.416783871628
 24
-420.9923814100552
 34
0.0
100
AcDbRotatedDimension
  0
DIMENSION
  5
3ED4A
330
1F
100
AcDbEntity
  8
AM_5
100
AcDbDimension
  2
*D18
 10
6230.917408871628
 20
-437.4923810784435
 30
0.0
 11
6224.417408871628
 21
-434.8923810784434
 31
0.0
 70
    32
  1
L
 71
     5
 42
13.0
  3
SYS$0
100
AcDbAlignedDimension
 13
6217.917408871628
 23
-423.9923814100552
 33
0.0
 14
6230.917408871628
 24
-416.592381410055
 34
0.0
100
AcDbRotatedDimension
  0
DIMENSION
  5
3ED4B
330
1F
100
AcDbEntity
  8
AM_5
100
AcDbDimension
  2
*D19
 10
6264.917408871628
 20
-445.4923810784435
 30
0.0
 11
6247.917408871629
 21
-445.4923810784435
 31
0.0
 70
   160
  1
K
 71
     5
 42
34.0
  3
SYS$0
100
AcDbAlignedDimension
 13
6230.917408871628
 23
-416.592381410055
 33
0.0
 14
6264.917408871628
 24
-416.592381410055
 34
0.0
100
AcDbRotatedDimension
  0
DIMENSION
  5
3ED4C
330
1F
100
AcDbEntity
  8
AM_5
100
AcDbDimension
  2
*D20
 10
6198.416783871627
 20
-445.4923810784435
 30
0.0
 11
6214.917408871628
 21
-445.4923810784435
 31
0.0
 70
   160
  1
（O）
 71
     5
 42
32.50062500000058
  3
SYS$0
100
AcDbAlignedDimension
 13
6230.917408871628
 23
-416.592381410055
 33
0.0
 14
6198.416783871627
 24
-422.592381410055
 34
0.0
100
AcDbRotatedDimension
  0
DIMENSION
  5
3EDDB
330
1F
100
AcDbEntity
  8
AM_5
100
AcDbDimension
  2
*D21
 10
6183.917408871629
 20
-406.9923814100552
 30
0.0
 11
6183.917408871629
 21
-412.9923814100548
 31
0.0
 70
   160
  1
Q
 71
     5
 42
12.0
  3
SYS$0
100
AcDbAlignedDimension
 13
6193.416783871628
 23
-418.9923814100551
 33
0.0
 14
6193.416783871628
 24
-406.9923814100552
 34
0.0
 50
90.0
100
AcDbRotatedDimension
  0
DIMENSION
  5
3EE19
330
1F
100
AcDbEntity
  8
AM_5
100
AcDbDimension
  2
*D22
 10
6251.744125364933
 20
-374.9923218773179
 30
0.0
 11
6263.405794046401
 21
-365.1109068341753
 31
0.0
 70
   163
  1
<>
 71
     5
 42
4.999999999999545
  3
SYS$3
100
AcDbDiametricDimension
 15
6255.090692378321
 25
-371.2774209062427
 35
0.0
 40
0.0
1001
ACAD
1000
DSTYLE
1002
{
1070
   343
1005
6C4
1070
   173
1070
     1
1070
   344
1005
6C4
1070
    41
1040
1.0
1070
   172
1070
     1
1070
   342
1005
0
1002
}
  0
LINE
  5
3EF5C
330
1F
100
AcDbEntity
  8
AM_0
100
AcDbLine
 10
6329.674675701046
 20
-458.4540425239987
 30
0.0
 11
6329.674675701046
 21
-476.4540425239983
 31
0.0
  0
TEXT
  5
4E0E8
330
1F
100
AcDbEntity
  8
AM_6
 60
     1
100
AcDbText
 10
5957.394900433246
 20
-5651.939004350452
 30
0.0
 40
2.5
  1
!GENTITLE-INSERT
100
AcDbText
  0
TEXT
  5
4E0E9
330
1F
100
AcDbEntity
  8
AM_6
 60
     1
100
AcDbText
 10
5548.894900433246
 20
-5660.439004350451
 30
0.0
 40
2.5
  1
!GENTITLE-LL
100
AcDbText
  0
TEXT
  5
4E0EA
330
1F
100
AcDbEntity
  8
AM_6
 60
     1
100
AcDbText
 10
5968.894900433246
 20
-5363.439004350452
 30
0.0
 40
2.5
  1
!GENTITLE-RU
100
AcDbText
  0
TEXT
  5
4E0EB
330
1F
100
AcDbEntity
  8
AM_6
 60
     1
100
AcDbText
 10
5968.894900433246
 20
-5363.439004350452
 30
0.0
 40
2.5
  1
!GENTITLE-MAX
100
AcDbText
  0
TEXT
  5
4E0F3
330
1F
100
AcDbEntity
  8
AM_6
 60
     1
100
AcDbText
 10
5548.894900433246
 20
-5660.439004350451
 30
0.0
 40
2.5
  1
!GENTITLE-LL
100
AcDbText
  0
TEXT
  5
4E0F4
330
1F
100
AcDbEntity
  8
AM_6
 60
     1
100
AcDbText
 10
5957.394900433246
 20
-5371.939004350451
 30
0.0
 40
2.5
  1
!GENTITLE-RU
100
AcDbText
  0
TEXT
  5
4E0F5
330
1F
100
AcDbEntity
  8
AM_6
 60
     1
100
AcDbText
 10
5968.894900433246
 20
-5363.439004350452
 30
0.0
 40
2.5
  1
!GENTITLE-MAX
100
AcDbText
  0
TEXT
  5
4E0F6
330
1F
100
AcDbEntity
  8
AM_6
 60
     1
100
AcDbText
 10
5957.394900433246
 20
-5651.939004350452
 30
0.0
 40
2.5
  1
!GENTITLE-INSERT
100
AcDbText
  0
TEXT
  5
5183F
330
1F
100
AcDbEntity
  8
AM_6
 60
     1
100
AcDbText
 10
5973.602012689372
 20
109.7385382224183
 30
0.0
 40
2.5
  1
!GENTITLE-INSERT
100
AcDbText
  0
TEXT
  5
51840
330
1F
100
AcDbEntity
  8
AM_6
 60
     1
100
AcDbText
 10
5565.102012689372
 20
101.2385382224183
 30
0.0
 40
2.5
  1
!GENTITLE-LL
100
AcDbText
  0
TEXT
  5
51841
330
1F
100
AcDbEntity
  8
AM_6
 60
     1
100
AcDbText
 10
5985.102012689372
 20
398.2385382224184
 30
0.0
 40
2.5
  1
!GENTITLE-RU
100
AcDbText
  0
TEXT
  5
51842
330
1F
100
AcDbEntity
  8
AM_6
 60
     1
100
AcDbText
 10
5985.102012689372
 20
398.2385382224184
 30
0.0
 40
2.5
  1
!GENTITLE-MAX
100
AcDbText
  0
TEXT
  5
5184A
330
1F
100
AcDbEntity
  8
AM_6
 60
     1
100
AcDbText
 10
5565.102012689372
 20
101.2385382224183
 30
0.0
 40
2.5
  1
!GENTITLE-LL
100
AcDbText
  0
TEXT
  5
5184B
330
1F
100
AcDbEntity
  8
AM_6
 60
     1
100
AcDbText
 10
5973.602012689372
 20
389.7385382224184
 30
0.0
 40
2.5
  1
!GENTITLE-RU
100
AcDbText
  0
TEXT
  5
5184C
330
1F
100
AcDbEntity
  8
AM_6
 60
     1
100
AcDbText
 10
5985.102012689372
 20
398.2385382224184
 30
0.0
 40
2.5
  1
!GENTITLE-MAX
100
AcDbText
  0
TEXT
  5
5184D
330
1F
100
AcDbEntity
  8
AM_6
 60
     1
100
AcDbText
 10
5973.602012689372
 20
109.7385382224183
 30
0.0
 40
2.5
  1
!GENTITLE-INSERT
100
AcDbText
  0
DIMENSION
  5
53885
330
1F
100
AcDbEntity
  8
AM_5
100
AcDbDimension
  2
*D23
 10
6293.535176871628
 20
-368.134871391781
 30
0.0
 11
6293.535176871628
 21
-375.13487139178
 31
0.0
 70
   160
  1
U
 71
     5
 42
14.0
  3
SYS$0
100
AcDbAlignedDimension
 13
6268.960492871628
 23
-382.134871391781
 33
0.0
 14
6253.417408871628
 24
-368.134871391781
 34
0.0
 50
90.00000000000003
100
AcDbRotatedDimension
  0
LINE
  5
538D4
330
1F
100
AcDbEntity
  8
AM_0
100
AcDbLine
 10
6299.67467570105
 20
-458.4540425239989
 30
0.0
 11
6299.67467570105
 21
-476.4540425239984
 31
0.0
  0
MTEXT
  5
538D5
330
1F
100
AcDbEntity
  8
AM_6
100
AcDbMText
 10
6324.674675701047
 20
-461.4540425239988
 30
0.0
 40
3.200000000000001
 41
0.0
 71
     5
 72
     1
  1
U
 73
     1
 44
1.0
1001
ACAD
1000
MTEXTBEGIN
1070
    73
1070
     1
1070
    44
1040
1.0
1070
    74
1070
     0
1000
MTEXTEND
  0
MTEXT
  5
538D6
330
1F
100
AcDbEntity
  8
AM_6
100
AcDbMText
 10
6324.674675701047
 20
-467.4540425239989
 30
0.0
 40
3.200000000000001
 41
0.0
 71
     5
 72
     1
  1
12.5
 73
     1
 44
1.0
1001
ACAD
1000
MTEXTBEGIN
1070
    73
1070
     1
1070
    44
1040
1.0
1070
    74
1070
     0
1000
MTEXTEND
  0
MTEXT
  5
538D7
330
1F
100
AcDbEntity
  8
AM_6
100
AcDbMText
 10
6324.674675701047
 20
-473.4540425239988
 30
0.0
 40
3.200000000000001
 41
0.0
 71
     5
 72
     1
  1
14
 73
     1
 44
1.0
1001
ACAD
1000
MTEXTBEGIN
1070
    73
1070
     1
1070
    44
1040
1.0
1070
    74
1070
     0
1000
MTEXTEND
  0
DIMENSION
  5
552E7
330
1F
100
AcDbEntity
  8
AM_5
100
AcDbDimension
  2
*D24
 10
6201.037167031803
 20
-416.8694997010797
 30
0.0
 11
6180.094186019911
 21
-426.7363302859707
 31
0.0
 70
   163
  1
2-%%cR×%%cSサラ
 71
     5
 42
5.999999999998181
  3
SYS$3
100
AcDbDiametricDimension
 15
6196.797650711449
 25
-421.1152624558057
 35
0.0
 40
0.0
1001
ACAD
1000
DSTYLE
1002
{
1070
    41
1040
1.0
1070
   172
1070
     1
1070
   173
1070
     1
1070
   342
1005
0
1070
   343
1005
6C4
1070
   344
1005
6C4
1002
}
  0
DIMENSION
  5
55309
330
1F
100
AcDbEntity
  8
AM_5
100
AcDbDimension
  2
*D25
 10
6262.751546191635
 20
-410.9165586266394
 30
0.0
 11
6284.594248123091
 21
-420.9660247135152
 31
0.0
 70
   163
  1
2-%%cM×%%cNサラ
 71
     5
 42
5.99999999999909
  3
SYS$3
100
AcDbDiametricDimension
 15
6267.083271551621
 25
-415.0682035302465
 35
0.0
 40
0.0
1001
ACAD
1000
DSTYLE
1002
{
1070
    41
1040
1.0
1070
   172
1070
     1
1070
   173
1070
     1
1070
   342
1005
0
1070
   343
1005
6C4
1070
   344
1005
6C4
1002
}
  0
LINE
  5
5976B
330
1F
100
AcDbEntity
  8
AM_0
100
AcDbLine
 10
6259.674675701051
 20
-458.4540425239998
 30
0.0
 11
6259.674675701051
 21
-476.4540425239993
 31
0.0
  0
LINE
  5
5976C
330
1F
100
AcDbEntity
  8
AM_0
100
AcDbLine
 10
6269.674675701051
 20
-458.4540425239998
 30
0.0
 11
6269.674675701051
 21
-476.4540425239993
 31
0.0
  0
MTEXT
  5
5976D
330
1F
100
AcDbEntity
  8
AM_6
100
AcDbMText
 10
6254.674675701052
 20
-461.4540425239998
 30
0.0
 40
3.200000000000001
 41
0.0
 71
     5
 72
     1
  1
%%CM
 73
     1
 44
1.0
1001
ACAD
1000
MTEXTBEGIN
1070
    73
1070
     1
1070
    44
1040
1.0
1070
    74
1070
     0
1000
MTEXTEND
  0
MTEXT
  5
5976E
330
1F
100
AcDbEntity
  8
AM_6
100
AcDbMText
 10
6254.674675701052
 20
-467.4540425239998
 30
0.0
 40
3.200000000000001
 41
0.0
 71
     5
 72
     1
  1
3.4
 73
     1
 44
1.0
1001
ACAD
1000
MTEXTBEGIN
1070
    73
1070
     1
1070
    44
1040
1.0
1070
    74
1070
     0
1000
MTEXTEND
  0
MTEXT
  5
59770
330
1F
100
AcDbEntity
  8
AM_6
100
AcDbMText
 10
6264.674675701051
 20
-461.4540425239998
 30
0.0
 40
3.200000000000001
 41
0.0
 71
     5
 72
     1
  1
%%CN
 73
     1
 44
1.0
1001
ACAD
1000
MTEXTBEGIN
1070
    73
1070
     1
1070
    44
1040
1.0
1070
    74
1070
     0
1000
MTEXTEND
  0
MTEXT
  5
59771
330
1F
100
AcDbEntity
  8
AM_6
100
AcDbMText
 10
6264.674675701051
 20
-467.4540425239998
 30
0.0
 40
3.200000000000001
 41
0.0
 71
     5
 72
     1
  1
5.4
 73
     1
 44
1.0
1001
ACAD
1000
MTEXTBEGIN
1070
    73
1070
     1
1070
    44
1040
1.0
1070
    74
1070
     0
1000
MTEXTEND
  0
MTEXT
  5
59772
330
1F
100
AcDbEntity
  8
AM_6
100
AcDbMText
 10
6264.674675701051
 20
-473.4540425239997
 30
0.0
 40
3.200000000000001
 41
0.0
 71
     5
 72
     1
  1
6
 73
     1
 44
1.0
1001
ACAD
1000
MTEXTBEGIN
1070
    73
1070
     1
1070
    44
1040
1.0
1070
    74
1070
     0
1000
MTEXTEND
  0
LINE
  5
59773
330
1F
100
AcDbEntity
  8
AM_0
100
AcDbLine
 10
6309.674675701049
 20
-458.4540425239989
 30
0.0
 11
6309.674675701049
 21
-476.4540425239984
 31
0.0
  0
LINE
  5
59774
330
1F
100
AcDbEntity
  8
AM_0
100
AcDbLine
 10
6319.674675701048
 20
-458.4540425239996
 30
0.0
 11
6319.674675701048
 21
-476.4540425239991
 31
0.0
  0
MTEXT
  5
59775
330
1F
100
AcDbEntity
  8
AM_6
100
AcDbMText
 10
6304.674675701049
 20
-461.4540425239998
 30
0.0
 40
3.200000000000001
 41
0.0
 71
     5
 72
     1
  1
%%CR
 73
     1
 44
1.0
1001
ACAD
1000
MTEXTBEGIN
1070
    73
1070
     1
1070
    44
1040
1.0
1070
    74
1070
     0
1000
MTEXTEND
  0
MTEXT
  5
59776
330
1F
100
AcDbEntity
  8
AM_6
100
AcDbMText
 10
6304.674675701049
 20
-467.4540425239998
 30
0.0
 40
3.200000000000001
 41
0.0
 71
     5
 72
     1
  1
3.4
 73
     1
 44
1.0
1001
ACAD
1000
MTEXTBEGIN
1070
    73
1070
     1
1070
    44
1040
1.0
1070
    74
1070
     0
1000
MTEXTEND
  0
MTEXT
  5
59777
330
1F
100
AcDbEntity
  8
AM_6
100
AcDbMText
 10
6304.674675701049
 20
-473.4540425239997
 30
0.0
 40
3.200000000000001
 41
0.0
 71
     5
 72
     1
  1
3.2
 73
     1
 44
1.0
1001
ACAD
1000
MTEXTBEGIN
1070
    73
1070
     1
1070
    44
1040
1.0
1070
    74
1070
     0
1000
MTEXTEND
  0
MTEXT
  5
59778
330
1F
100
AcDbEntity
  8
AM_6
100
AcDbMText
 10
6314.674675701049
 20
-461.4540425239998
 30
0.0
 40
3.200000000000001
 41
0.0
 71
     5
 72
     1
  1
%%CS
 73
     1
 44
1.0
1001
ACAD
1000
MTEXTBEGIN
1070
    73
1070
     1
1070
    44
1040
1.0
1070
    74
1070
     0
1000
MTEXTEND
  0
MTEXT
  5
59779
330
1F
100
AcDbEntity
  8
AM_6
100
AcDbMText
 10
6314.674675701049
 20
-467.4540425239998
 30
0.0
 40
3.200000000000001
 41
0.0
 71
     5
 72
     1
  1
5.4
 73
     1
 44
1.0
1001
ACAD
1000
MTEXTBEGIN
1070
    73
1070
     1
1070
    44
1040
1.0
1070
    74
1070
     0
1000
MTEXTEND
  0
MTEXT
  5
5977A
330
1F
100
AcDbEntity
  8
AM_6
100
AcDbMText
 10
6314.674675701049
 20
-473.4540425239997
 30
0.0
 40
3.200000000000001
 41
0.0
 71
     5
 72
     1
  1
6
 73
     1
 44
1.0
1001
ACAD
1000
MTEXTBEGIN
1070
    73
1070
     1
1070
    44
1040
1.0
1070
    74
1070
     0
1000
MTEXTEND
  0
MTEXT
  5
5979F
330
1F
100
AcDbEntity
  8
AM_6
100
AcDbMText
 10
6254.674675701051
 20
-473.4540425240004
 30
0.0
 40
3.200000000000001
 41
0.0
 71
     5
 72
     1
  1
3.2
 73
     1
 44
1.0
1001
ACAD
1000
MTEXTBEGIN
1070
    73
1070
     1
1070
    44
1040
1.0
1070
    74
1070
     0
1000
MTEXTEND
  0
LINE
  5
5B7F7
330
1F
100
AcDbEntity
  8
AM_0
  6
中線
 48
0.5
370
    30
100
AcDbLine
 10
6257.367722871627
 20
-379.2611283917812
 30
0.0
 11
6257.907123871628
 21
-376.8200123917812
 31
0.0
  0
CIRCLE
  5
5BE4F
330
1F
100
AcDbEntity
  8
AM_0
  6
中線
 48
0.5
370
    30
100
AcDbCircle
 10
6198.416783871627
 20
-343.1565886969342
 30
0.0
 40
3.0
  0
CIRCLE
  5
5BE50
330
1F
100
AcDbEntity
  8
AM_0
  6
中線
 48
0.5
370
    30
100
AcDbCircle
 10
6198.416783871627
 20
-331.1565886969343
 30
0.0
 40
3.0
  0
CIRCLE
  5
5BE51
330
1F
100
AcDbEntity
  8
AM_0
  6
中線
 48
0.5
370
    30
100
AcDbCircle
 10
6198.416783871627
 20
-343.1565886969342
 30
0.0
 40
1.6
  0
CIRCLE
  5
5BE52
330
1F
100
AcDbEntity
  8
AM_0
  6
中線
 48
0.5
370
    30
100
AcDbCircle
 10
6198.416783871627
 20
-331.1565886969343
 30
0.0
 40
1.6
  0
ARC
  5
5BE53
330
1F
100
AcDbEntity
  8
AM_0
  6
中線
 48
0.5
370
    30
100
AcDbCircle
 10
6205.304393236526
 20
-344.1565886969343
 30
0.0
 40
1.0
100
AcDbArc
 50
180.0
 51
270.0
  0
ARC
  5
5BE54
330
1F
100
AcDbEntity
  8
AM_0
  6
中線
 48
0.5
370
    30
100
AcDbCircle
 10
6206.365054236527
 20
-344.1565886969343
 30
0.0
 40
1.0
100
AcDbArc
 50
180.0
 51
270.0
  0
ARC
  5
5BE55
330
1F
100
AcDbEntity
  8
AM_0
  6
中線
 48
0.5
370
    30
100
AcDbCircle
 10
6206.365054236527
 20
-330.1565886969342
 30
0.0
 40
1.0
100
AcDbArc
 50
90.0
 51
180.0
  0
ARC
  5
5BE56
330
1F
100
AcDbEntity
  8
AM_0
  6
中線
 48
0.5
370
    30
100
AcDbCircle
 10
6205.304393236526
 20
-330.1565886969342
 30
0.0
 40
1.0
100
AcDbArc
 50
90.0
 51
180.0
  0
LINE
  5
5BE57
330
1F
100
AcDbEntity
  8
AM_0
  6
中線
 48
0.5
370
    30
100
AcDbLine
 10
6205.365054236526
 20
-330.1565886969342
 30
0.0
 11
6205.365054236526
 21
-344.1565886969343
 31
0.0
  0
LINE
  5
5BE58
330
1F
100
AcDbEntity
  8
AM_0
  6
中線
 48
0.5
370
    30
100
AcDbLine
 10
6209.416783871628
 20
-345.1565886969342
 30
0.0
 11
6204.416158871627
 21
-345.1565886969342
 31
0.0
  0
LINE
  5
5BE59
330
1F
100
AcDbEntity
  8
AM_0
  6
中線
 48
0.5
370
    30
100
AcDbLine
 10
6209.416783871628
 20
-329.1565886969343
 30
0.0
 11
6209.416783871628
 21
-345.1565886969342
 31
0.0
  0
LINE
  5
5BE5A
330
1F
100
AcDbEntity
  8
AM_0
  6
中線
 48
0.5
370
    30
100
AcDbLine
 10
6204.416158871627
 20
-329.1565886969343
 30
0.0
 11
6209.416783871628
 21
-329.1565886969343
 31
0.0
  0
LINE
  5
5BE5B
330
1F
100
AcDbEntity
  8
AM_0
  6
中線
 48
0.5
370
    30
100
AcDbLine
 10
6204.304393236526
 20
-344.1565886969343
 30
0.0
 11
6204.304393236526
 21
-330.1565886969342
 31
0.0
  0
LINE
  5
5BE5C
330
1F
100
AcDbEntity
  8
AM_7
  6
中心線1
 48
0.5
370
    13
100
AcDbLine
 10
6198.416783871627
 20
-326.1565886969342
 30
0.0
 11
6198.416783871627
 21
-348.1565886969343
 31
0.0
  0
LINE
  5
5BE5D
330
1F
100
AcDbEntity
  8
AM_7
  6
中心線1
 48
0.5
370
    13
100
AcDbLine
 10
6193.416783871628
 20
-343.1565886969342
 30
0.0
 11
6203.416783871627
 21
-343.1565886969342
 31
0.0
  0
LINE
  5
5BE5E
330
1F
100
AcDbEntity
  8
AM_7
  6
中心線1
 48
0.5
370
    13
100
AcDbLine
 10
6193.416783871628
 20
-331.1565886969343
 30
0.0
 11
6203.416783871627
 21
-331.1565886969343
 31
0.0
  0
LINE
  5
5BE5F
330
1F
100
AcDbEntity
  8
AM_0
  6
中線
 48
0.5
370
    30
100
AcDbLine
 10
6223.917408871628
 20
-348.9065886969342
 30
0.0
 11
6223.917408871628
 21
-348.1565886969343
 31
0.0
  0
LINE
  5
5BE60
330
1F
100
AcDbEntity
  8
AM_0
  6
中線
 48
0.5
370
    30
100
AcDbLine
 10
6220.917408871628
 20
-348.9065886969342
 30
0.0
 11
6223.917408871628
 21
-348.9065886969342
 31
0.0
  0
LINE
  5
5BE61
330
1F
100
AcDbEntity
  8
AM_0
  6
中線
 48
0.5
370
    30
100
AcDbLine
 10
6220.917408871628
 20
-348.1565886969343
 30
0.0
 11
6220.917408871628
 21
-348.9065886969342
 31
0.0
  0
LINE
  5
5BE62
330
1F
100
AcDbEntity
  8
AM_0
  6
中線
 48
0.5
370
    30
100
AcDbLine
 10
6220.917408871628
 20
-346.4065886969343
 30
0.0
 11
6220.917408871628
 21
-346.6565886969342
 31
0.0
  0
LINE
  5
5BE63
330
1F
100
AcDbEntity
  8
AM_0
  6
中線
 48
0.5
370
    30
100
AcDbLine
 10
6220.917408871628
 20
-343.1565886969342
 30
0.0
 11
6220.917408871628
 21
-344.9065886969342
 31
0.0
  0
LINE
  5
5BE64
330
1F
100
AcDbEntity
  8
AM_0
  6
中線
 48
0.5
370
    30
100
AcDbLine
 10
6220.917408871628
 20
-329.4065886969343
 30
0.0
 11
6220.917408871628
 21
-329.6565886969343
 31
0.0
  0
LINE
  5
5BE65
330
1F
100
AcDbEntity
  8
AM_0
  6
中線
 48
0.5
370
    30
100
AcDbLine
 10
6220.917408871628
 20
-327.6565886969343
 30
0.0
 11
6220.917408871628
 21
-327.9065886969342
 31
0.0
  0
LINE
  5
5BE66
330
1F
100
AcDbEntity
  8
AM_0
  6
中線
 48
0.5
370
    30
100
AcDbLine
 10
6220.917408871628
 20
-325.4065886969343
 30
0.0
 11
6220.917408871628
 21
-326.1565886969342
 31
0.0
  0
LINE
  5
5BE67
330
1F
100
AcDbEntity
  8
AM_0
  6
中線
 48
0.5
370
    30
100
AcDbLine
 10
6223.917408871628
 20
-325.4065886969343
 30
0.0
 11
6220.917408871628
 21
-325.4065886969343
 31
0.0
  0
LINE
  5
5BE68
330
1F
100
AcDbEntity
  8
AM_0
  6
中線
 48
0.5
370
    30
100
AcDbLine
 10
6223.917408871628
 20
-326.1565886969342
 30
0.0
 11
6223.917408871628
 21
-325.4065886969343
 31
0.0
  0
LINE
  5
5BE69
330
1F
100
AcDbEntity
  8
AM_0
  6
中線
 48
0.5
370
    30
100
AcDbLine
 10
6218.917408871629
 20
-346.4065886969343
 30
0.0
 11
6223.711970871629
 21
-346.4065886969343
 31
0.0
  0
LINE
  5
5BE6A
330
1F
100
AcDbEntity
  8
AM_0
  6
中線
 48
0.5
370
    30
100
AcDbLine
 10
6218.917408871629
 20
-344.9065886969342
 30
0.0
 11
6218.917408871629
 21
-346.4065886969343
 31
0.0
  0
LINE
  5
5BE6B
330
1F
100
AcDbEntity
  8
AM_0
  6
中線
 48
0.5
370
    30
100
AcDbLine
 10
6223.711970871629
 20
-344.9065886969342
 30
0.0
 11
6218.917408871629
 21
-344.9065886969342
 31
0.0
  0
LINE
  5
5BE6C
330
1F
100
AcDbEntity
  8
AM_0
  6
中線
 48
0.5
370
    30
100
AcDbLine
 10
6218.917408871629
 20
-329.4065886969343
 30
0.0
 11
6223.711970871629
 21
-329.4065886969343
 31
0.0
  0
LINE
  5
5BE6D
330
1F
100
AcDbEntity
  8
AM_0
  6
中線
 48
0.5
370
    30
100
AcDbLine
 10
6218.917408871629
 20
-327.9065886969342
 30
0.0
 11
6218.917408871629
 21
-329.4065886969343
 31
0.0
  0
LINE
  5
5BE6E
330
1F
100
AcDbEntity
  8
AM_0
  6
中線
 48
0.5
370
    30
100
AcDbLine
 10
6223.711970871629
 20
-327.9065886969342
 30
0.0
 11
6218.917408871629
 21
-327.9065886969342
 31
0.0
  0
ARC
  5
5BE6F
330
1F
100
AcDbEntity
  8
AM_0
  6
中線
 48
0.5
370
    30
100
AcDbCircle
 10
6210.916783871628
 20
-337.1565886969343
 30
0.0
 40
19.0
100
AcDbArc
 50
133.7617420000289
 51
226.2382579999711
  0
LINE
  5
5BE70
330
1F
100
AcDbEntity
  8
AM_0
  6
中線
 48
0.5
370
    30
100
AcDbLine
 10
6217.917408871628
 20
-346.6565886969342
 30
0.0
 11
6217.917408871628
 21
-348.1565886969343
 31
0.0
  0
LINE
  5
5BE71
330
1F
100
AcDbEntity
  8
AM_0
  6
中線
 48
0.5
370
    30
100
AcDbLine
 10
6223.711970871629
 20
-346.6565886969342
 30
0.0
 11
6217.917408871628
 21
-346.6565886969342
 31
0.0
  0
LINE
  5
5BE72
330
1F
100
AcDbEntity
  8
AM_0
  6
中線
 48
0.5
370
    30
100
AcDbLine
 10
6217.917408871628
 20
-327.6565886969343
 30
0.0
 11
6223.711970871629
 21
-327.6565886969343
 31
0.0
  0
LINE
  5
5BE73
330
1F
100
AcDbEntity
  8
AM_0
  6
中線
 48
0.5
370
    30
100
AcDbLine
 10
6217.917408871628
 20
-326.1565886969342
 30
0.0
 11
6217.917408871628
 21
-327.6565886969343
 31
0.0
  0
LINE
  5
5BE74
330
1F
100
AcDbEntity
  8
AM_0
  6
中線
 48
0.5
370
    30
100
AcDbLine
 10
6204.416158871627
 20
-345.1565886969342
 30
0.0
 11
6199.203432871627
 21
-350.8329746969343
 31
0.0
  0
LINE
  5
5BE75
330
1F
100
AcDbEntity
  8
AM_0
  6
中線
 48
0.5
370
    30
100
AcDbLine
 10
6199.203432871627
 20
-323.4802036969345
 30
0.0
 11
6204.416158871627
 21
-329.1565886969343
 31
0.0
  0
LINE
  5
5BE76
330
1F
100
AcDbEntity
  8
AM_0
  6
中線
 48
0.5
370
    30
100
AcDbLine
 10
6223.711970871629
 20
-329.6565886969343
 30
0.0
 11
6217.535176871628
 21
-329.6565886969343
 31
0.0
  0
LINE
  5
5BE77
330
1F
100
AcDbEntity
  8
AM_0
  6
中線
 48
0.5
370
    30
100
AcDbLine
 10
6223.711970871629
 20
-326.1565886969342
 30
0.0
 11
6223.711970871629
 21
-329.6565886969343
 31
0.0
  0
LINE
  5
5BE78
330
1F
100
AcDbEntity
  8
AM_0
  6
中線
 48
0.5
370
    30
100
AcDbLine
 10
6258.535176871628
 20
-326.1565886969342
 30
0.0
 11
6217.917408871628
 21
-326.1565886969342
 31
0.0
  0
LINE
  5
5BE79
330
1F
100
AcDbEntity
  8
AM_0
  6
中線
 48
0.5
370
    30
100
AcDbLine
 10
6217.917408871628
 20
-348.1565886969343
 30
0.0
 11
6258.535176871628
 21
-348.1565886969343
 31
0.0
  0
LINE
  5
5BE7A
330
1F
100
AcDbEntity
  8
AM_0
  6
中線
 48
0.5
370
    30
100
AcDbLine
 10
6223.711970871629
 20
-343.1565886969342
 30
0.0
 11
6223.711970871629
 21
-348.1565886969343
 31
0.0
  0
LINE
  5
5BE7B
330
1F
100
AcDbEntity
  8
AM_0
  6
中線
 48
0.5
370
    30
100
AcDbLine
 10
6217.535176871628
 20
-343.1565886969342
 30
0.0
 11
6223.711970871629
 21
-343.1565886969342
 31
0.0
  0
LINE
  5
5BE7C
330
1F
100
AcDbEntity
  8
AM_0
  6
中線
 48
0.5
370
    30
100
AcDbLine
 10
6217.535176871628
 20
-329.6565886969343
 30
0.0
 11
6217.535176871628
 21
-343.1565886969342
 31
0.0
  0
LINE
  5
5BE7D
330
1F
100
AcDbEntity
  8
AM_7
  6
中心線1
 48
0.5
370
    13
100
AcDbLine
 10
6189.416783871628
 20
-337.1565886969343
 30
0.0
 11
6272.535176871628
 21
-337.1565886969343
 31
0.0
  0
ARC
  5
5BE7E
330
1F
100
AcDbEntity
  8
AM_0
  6
中線
 48
0.5
370
    30
100
AcDbCircle
 10
6198.466884871628
 20
-324.1565886969342
 30
0.0
 40
1.0
100
AcDbArc
 50
42.56181499998824
 51
133.7617420000289
  0
ARC
  5
5BE7F
330
1F
100
AcDbEntity
  8
AM_0
  6
中線
 48
0.5
370
    30
100
AcDbCircle
 10
6198.466884871628
 20
-350.1565896969346
 30
0.0
 40
1.0
100
AcDbArc
 50
226.2382579999711
 51
317.4381850000117
  0
ARC
  5
5BE80
330
1F
100
AcDbEntity
  8
AM_0
  6
中線
 48
0.5
370
    30
100
AcDbCircle
 10
6226.921186871628
 20
-327.1565886969343
 30
0.0
 40
6.0
100
AcDbArc
 50
9.594068226856377
 51
100.4059736699078
  0
ARC
  5
5BE81
330
1F
100
AcDbEntity
  8
AM_0
  6
中線
 48
0.5
370
    30
100
AcDbCircle
 10
6258.535176871628
 20
-337.1565886969343
 30
0.0
 40
11.0
100
AcDbArc
 50
270.0
 51
90.0
  0
ARC
  5
5BE82
330
1F
100
AcDbEntity
  8
AM_0
  6
中線
 48
0.5
370
    30
100
AcDbCircle
 10
6257.589552877499
 20
-337.1562293122451
 30
0.0
 40
11.0
100
AcDbArc
 50
272.4417231294069
 51
90.46315062620658
  0
ARC
  5
5BE83
330
1F
100
AcDbEntity
  8
AM_0
  6
中線
 48
0.5
370
    30
100
AcDbCircle
 10
6209.916724773098
 20
-329.1719636969342
 30
0.0
 40
4.999999999999547
100
AcDbArc
 50
100.1071266445326
 51
179.8238152003422
  0
ARC
  5
5BE84
330
1F
100
AcDbEntity
  8
AM_0
  6
中線
 48
0.5
370
    30
100
AcDbCircle
 10
6209.916724773098
 20
-329.1719636969342
 30
0.0
 40
2.000000000000267
100
AcDbArc
 50
100.1071266444797
 51
179.5595343565075
  0
ARC
  5
5BE85
330
1F
100
AcDbEntity
  8
AM_0
  6
中線
 48
0.5
370
    30
100
AcDbCircle
 10
6226.921186871628
 20
-327.1565886969343
 30
0.0
 40
6.000000000000107
100
AcDbArc
 50
9.594068226856377
 51
100.1071266445326
  0
ARC
  5
5BE86
330
1F
100
AcDbEntity
  8
AM_0
  6
中線
 48
0.5
370
    30
100
AcDbCircle
 10
6226.921186871628
 20
-327.1565886969343
 30
0.0
 40
3.000000000000162
100
AcDbArc
 50
19.47122063448347
 51
100.1071266444797
  0
LINE
  5
5BE87
330
1F
100
AcDbEntity
  8
AM_0
  6
中線
 48
0.5
370
    30
100
AcDbLine
 10
6225.868251788035
 20
-321.2497005390513
 30
0.0
 11
6209.039278870104
 21
-324.2495568986981
 31
0.0
  0
LINE
  5
5BE88
330
1F
100
AcDbEntity
  8
AM_0
  6
中線
 48
0.5
370
    30
100
AcDbLine
 10
6226.394719329832
 20
-324.2031446179932
 30
0.0
 11
6209.5657464119
 21
-327.2030009776395
 31
0.0
  0
ARC
  5
5BE89
330
1F
100
AcDbEntity
  8
AM_0
  6
中線
 48
0.5
370
    30
100
AcDbCircle
 10
6209.916724773098
 20
-345.1412136969343
 30
0.0
 40
4.999999999999547
100
AcDbArc
 50
180.1761847996577
 51
259.8928733554673
  0
ARC
  5
5BE8A
330
1F
100
AcDbEntity
  8
AM_0
  6
中線
 48
0.5
370
    30
100
AcDbCircle
 10
6209.916724773098
 20
-345.1412136969343
 30
0.0
 40
2.000000000000267
100
AcDbArc
 50
180.4404656434924
 51
259.8928733555203
  0
ARC
  5
5BE8B
330
1F
100
AcDbEntity
  8
AM_0
  6
中線
 48
0.5
370
    30
100
AcDbCircle
 10
6226.921186871628
 20
-347.1565886969342
 30
0.0
 40
6.000000000000107
100
AcDbArc
 50
259.8928733554673
 51
350.4059317731436
  0
ARC
  5
5BE8C
330
1F
100
AcDbEntity
  8
AM_0
  6
中線
 48
0.5
370
    30
100
AcDbCircle
 10
6226.921186871628
 20
-347.1565886969342
 30
0.0
 40
3.000000000000162
100
AcDbArc
 50
259.8928733555203
 51
340.5287793655165
  0
LINE
  5
5BE8D
330
1F
100
AcDbEntity
  8
AM_0
  6
中線
 48
0.5
370
    30
100
AcDbLine
 10
6225.868251788035
 20
-353.0634768548172
 30
0.0
 11
6209.039278870104
 21
-350.0636204951704
 31
0.0
  0
LINE
  5
5BE8E
330
1F
100
AcDbEntity
  8
AM_0
  6
中線
 48
0.5
370
    30
100
AcDbLine
 10
6226.394719329832
 20
-350.1100327758753
 30
0.0
 11
6209.5657464119
 21
-347.110176416229
 31
0.0
  0
LINE
  5
5C3CA
330
1F
100
AcDbEntity
  8
AM_0
  6
中線
 48
0.5
370
    30
100
AcDbLine
 10
6258.883569871628
 20
-401.9923814100551
 30
0.0
 11
6258.883569871628
 21
-403.4923814100552
 31
0.0
  0
LINE
  5
5C3CB
330
1F
100
AcDbEntity
  8
AM_0
  6
中線
 48
0.5
370
    30
100
AcDbLine
 10
6258.883569871628
 20
-422.4923814100551
 30
0.0
 11
6258.883569871628
 21
-423.9923814100552
 31
0.0
  0
LINE
  5
5C3CC
330
1F
100
AcDbEntity
  8
AM_0
  6
中線
 48
0.5
370
    30
100
AcDbLine
 10
6218.917408871629
 20
-405.4923814100551
 30
0.0
 11
6217.535176871628
 21
-405.4923814100551
 31
0.0
  0
ARC
  5
5C3CD
330
1F
100
AcDbEntity
  8
AM_0
  6
中線
 48
0.5
370
    30
100
AcDbCircle
 10
6259.035176871628
 20
-412.9923814100552
 30
0.0
 40
10.5
100
AcDbArc
 50
269.1726911338351
 51
90.8273088661649
  0
ARC
  5
5C3CE
330
1F
100
AcDbEntity
  8
AM_0
  6
中線
 48
0.5
370
    30
100
AcDbCircle
 10
6227.917408871628
 20
-405.4923814100551
 30
0.0
 40
1.0
100
AcDbArc
 50
270.0
 51
0.0
  0
LINE
  5
5C3CF
330
1F
100
AcDbEntity
  8
AM_7
  6
中心線1
 48
0.5
370
    13
100
AcDbLine
 10
6189.416783871628
 20
-412.9923814100552
 30
0.0
 11
6272.535176871628
 21
-412.9923814100552
 31
0.0
  0
LINE
  5
5C3D0
330
1F
100
AcDbEntity
  8
AM_0
  6
中線
 48
0.5
370
    30
100
AcDbLine
 10
6217.535176871628
 20
-405.4923814100551
 30
0.0
 11
6217.535176871628
 21
-418.9923814100551
 31
0.0
  0
LINE
  5
5C3D1
330
1F
100
AcDbEntity
  8
AM_0
  6
中線
 48
0.5
370
    30
100
AcDbLine
 10
6217.535176871628
 20
-418.9923814100551
 30
0.0
 11
6218.917408871629
 21
-418.9923814100551
 31
0.0
  0
ARC
  5
5C3D2
330
1F
100
AcDbEntity
  8
AM_0
  6
中線
 48
0.5
370
    30
100
AcDbCircle
 10
6226.917408871628
 20
-405.4923814100551
 30
0.0
 40
1.0
100
AcDbArc
 50
180.0
 51
270.0
  0
LINE
  5
5C3D3
330
1F
100
AcDbEntity
  8
AM_0
  6
中線
 48
0.5
370
    30
100
AcDbLine
 10
6217.917408871628
 20
-423.9923814100552
 30
0.0
 11
6258.883569871628
 21
-423.9923814100552
 31
0.0
  0
LINE
  5
5C3D4
330
1F
100
AcDbEntity
  8
AM_0
  6
中線
 48
0.5
370
    30
100
AcDbLine
 10
6258.883569871628
 20
-401.9923814100551
 30
0.0
 11
6217.917408871628
 21
-401.9923814100551
 31
0.0
  0
ARC
  5
5C3D5
330
1F
100
AcDbEntity
  8
AM_0
  6
中線
 48
0.5
370
    30
100
AcDbCircle
 10
6226.917408871628
 20
-420.4923814100552
 30
0.0
 40
1.0
100
AcDbArc
 50
90.0
 51
180.0
  0
ARC
  5
5C3D6
330
1F
100
AcDbEntity
  8
AM_0
  6
中線
 48
0.5
370
    30
100
AcDbCircle
 10
6227.917408871628
 20
-420.4923814100552
 30
0.0
 40
1.0
100
AcDbArc
 50
0.0
 51
90.0
  0
CIRCLE
  5
5C3D7
330
1F
100
AcDbEntity
  8
AM_0
  6
中線
 48
0.5
370
    30
100
AcDbCircle
 10
6264.917408871628
 20
-412.9923814100552
 30
0.0
 40
1.6
  0
LINE
  5
5C3D8
330
1F
100
AcDbEntity
  8
AM_0
  6
中線
 48
0.5
370
    30
100
AcDbLine
 10
6223.917408871628
 20
-422.2423814100552
 30
0.0
 11
6223.917408871628
 21
-422.4923814100551
 31
0.0
  0
LINE
  5
5C3D9
330
1F
100
AcDbEntity
  8
AM_0
  6
中線
 48
0.5
370
    30
100
AcDbLine
 10
6223.917408871628
 20
-403.4923814100552
 30
0.0
 11
6223.917408871628
 21
-403.7423814100551
 31
0.0
  0
LINE
  5
5C3DA
330
1F
100
AcDbEntity
  8
AM_7
  6
中心線1
 48
0.3
370
    13
100
AcDbLine
 10
6230.917408871628
 20
-409.3923814100553
 30
0.0
 11
6230.917408871628
 21
-416.592381410055
 31
0.0
  0
LINE
  5
5C3DB
330
1F
100
AcDbEntity
  8
AM_0
  6
中線
 48
0.5
370
    30
100
AcDbLine
 10
6225.917408871628
 20
-403.7423814100551
 30
0.0
 11
6225.917408871628
 21
-405.4923814100551
 31
0.0
  0
LINE
  5
5C3DC
330
1F
100
AcDbEntity
  8
AM_0
  6
中線
 48
0.5
370
    30
100
AcDbLine
 10
6226.917408871628
 20
-406.4923814100551
 30
0.0
 11
6227.917408871628
 21
-406.4923814100551
 31
0.0
  0
LINE
  5
5C3DD
330
1F
100
AcDbEntity
  8
AM_0
  6
中線
 48
0.5
370
    30
100
AcDbLine
 10
6228.917408871628
 20
-405.4923814100551
 30
0.0
 11
6228.917408871628
 21
-404.9923814100552
 31
0.0
  0
LINE
  5
5C3DE
330
1F
100
AcDbEntity
  8
AM_0
  6
中線
 48
0.5
370
    30
100
AcDbLine
 10
6228.917408871628
 20
-404.9923814100552
 30
0.0
 11
6241.611796871628
 21
-404.9923814100552
 31
0.0
  0
LINE
  5
5C3DF
330
1F
100
AcDbEntity
  8
AM_7
  6
中心線1
 48
0.3
370
    13
100
AcDbLine
 10
6264.917408871628
 20
-409.3923814100553
 30
0.0
 11
6264.917408871628
 21
-416.592381410055
 31
0.0
  0
CIRCLE
  5
5C3E0
330
1F
100
AcDbEntity
  8
AM_0
  6
中線
 48
0.5
370
    30
100
AcDbCircle
 10
6230.917408871628
 20
-412.9923814100552
 30
0.0
 40
1.6
  0
LINE
  5
5C3E1
330
1F
100
AcDbEntity
  8
AM_0
  6
中線
 48
0.5
370
    30
100
AcDbLine
 10
6260.960492871628
 20
-420.9923814100552
 30
0.0
 11
6228.917408871628
 21
-420.9923814100552
 31
0.0
  0
LINE
  5
5C3E2
330
1F
100
AcDbEntity
  8
AM_0
  6
中線
 48
0.5
370
    30
100
AcDbLine
 10
6228.917408871628
 20
-420.9923814100552
 30
0.0
 11
6228.917408871628
 21
-420.4923814100552
 31
0.0
  0
LINE
  5
5C3E3
330
1F
100
AcDbEntity
  8
AM_0
  6
中線
 48
0.5
370
    30
100
AcDbLine
 10
6227.917408871628
 20
-419.4923814100552
 30
0.0
 11
6226.917408871628
 21
-419.4923814100552
 31
0.0
  0
LINE
  5
5C3E4
330
1F
100
AcDbEntity
  8
AM_0
  6
中線
 48
0.5
370
    30
100
AcDbLine
 10
6225.917408871628
 20
-420.4923814100552
 30
0.0
 11
6225.917408871628
 21
-422.2423814100552
 31
0.0
  0
LINE
  5
5C3E5
330
1F
100
AcDbEntity
  8
AM_0
  6
中線
 48
0.5
370
    30
100
AcDbLine
 10
6232.921186871628
 20
-403.4923814100552
 30
0.0
 11
6232.921186871628
 21
-404.9923814100552
 31
0.0
  0
LINE
  5
5C3E6
330
1F
100
AcDbEntity
  8
AM_0
  6
中線
 48
0.5
370
    30
100
AcDbLine
 10
6199.203432871627
 20
-399.3159964100554
 30
0.0
 11
6204.416158871627
 21
-404.9923814100552
 31
0.0
  0
LINE
  5
5C3E7
330
1F
100
AcDbEntity
  8
AM_0
  6
中線
 48
0.5
370
    30
100
AcDbLine
 10
6204.416158871627
 20
-420.9923814100552
 30
0.0
 11
6199.203432871627
 21
-426.6687674100553
 31
0.0
  0
LINE
  5
5C3E8
330
1F
100
AcDbEntity
  8
AM_0
  6
中線
 48
0.5
370
    30
100
AcDbLine
 10
6217.917408871628
 20
-401.9923814100551
 30
0.0
 11
6217.917408871628
 21
-403.4923814100552
 31
0.0
  0
LINE
  5
5C3E9
330
1F
100
AcDbEntity
  8
AM_0
  6
中線
 48
0.5
370
    30
100
AcDbLine
 10
6217.917408871628
 20
-403.4923814100552
 30
0.0
 11
6258.883569871628
 21
-403.4923814100552
 31
0.0
  0
LINE
  5
5C3EA
330
1F
100
AcDbEntity
  8
AM_0
  6
中線
 48
0.5
370
    30
100
AcDbLine
 10
6258.883569871628
 20
-422.4923814100551
 30
0.0
 11
6217.917408871628
 21
-422.4923814100551
 31
0.0
  0
LINE
  5
5C3EB
330
1F
100
AcDbEntity
  8
AM_0
  6
中線
 48
0.5
370
    30
100
AcDbLine
 10
6217.917408871628
 20
-422.4923814100551
 30
0.0
 11
6217.917408871628
 21
-423.9923814100552
 31
0.0
  0
ARC
  5
5C3EC
330
1F
100
AcDbEntity
  8
AM_0
  6
中線
 48
0.5
370
    30
100
AcDbCircle
 10
6210.916783871628
 20
-412.9923814100552
 30
0.0
 40
19.0
100
AcDbArc
 50
133.7617420000289
 51
226.2382579999711
  0
LINE
  5
5C3ED
330
1F
100
AcDbEntity
  8
AM_0
  6
中線
 48
0.5
370
    30
100
AcDbLine
 10
6225.917408871628
 20
-403.7423814100551
 30
0.0
 11
6218.917408871629
 21
-403.7423814100551
 31
0.0
  0
LINE
  5
5C3EE
330
1F
100
AcDbEntity
  8
AM_0
  6
中線
 48
0.5
370
    30
100
AcDbLine
 10
6218.917408871629
 20
-403.7423814100551
 30
0.0
 11
6218.917408871629
 21
-422.2423814100552
 31
0.0
  0
LINE
  5
5C3EF
330
1F
100
AcDbEntity
  8
AM_0
  6
中線
 48
0.5
370
    30
100
AcDbLine
 10
6218.917408871629
 20
-422.2423814100552
 30
0.0
 11
6225.917408871628
 21
-422.2423814100552
 31
0.0
  0
LINE
  5
5C3F0
330
1F
100
AcDbEntity
  8
AM_0
  6
中線
 48
0.5
370
    30
100
AcDbLine
 10
6223.917408871628
 20
-401.9923814100551
 30
0.0
 11
6223.917408871628
 21
-401.2423814100552
 31
0.0
  0
LINE
  5
5C3F1
330
1F
100
AcDbEntity
  8
AM_0
  6
中線
 48
0.5
370
    30
100
AcDbLine
 10
6223.917408871628
 20
-401.2423814100552
 30
0.0
 11
6220.917408871628
 21
-401.2423814100552
 31
0.0
  0
LINE
  5
5C3F2
330
1F
100
AcDbEntity
  8
AM_0
  6
中線
 48
0.5
370
    30
100
AcDbLine
 10
6220.917408871628
 20
-401.2423814100552
 30
0.0
 11
6220.917408871628
 21
-401.9923814100551
 31
0.0
  0
LINE
  5
5C3F3
330
1F
100
AcDbEntity
  8
AM_0
  6
中線
 48
0.5
370
    30
100
AcDbLine
 10
6220.917408871628
 20
-403.4923814100552
 30
0.0
 11
6220.917408871628
 21
-403.7423814100551
 31
0.0
  0
LINE
  5
5C3F4
330
1F
100
AcDbEntity
  8
AM_0
  6
中線
 48
0.5
370
    30
100
AcDbLine
 10
6229.921186871628
 20
-403.4923814100552
 30
0.0
 11
6229.921186871628
 21
-404.9923814100552
 31
0.0
  0
LINE
  5
5C3F5
330
1F
100
AcDbEntity
  8
AM_0
  6
中線
 48
0.5
370
    30
100
AcDbLine
 10
6220.917408871628
 20
-422.2423814100552
 30
0.0
 11
6220.917408871628
 21
-422.4923814100551
 31
0.0
  0
LINE
  5
5C3F6
330
1F
100
AcDbEntity
  8
AM_0
  6
中線
 48
0.5
370
    30
100
AcDbLine
 10
6220.917408871628
 20
-423.9923814100552
 30
0.0
 11
6220.917408871628
 21
-424.7423814100551
 31
0.0
  0
LINE
  5
5C3F7
330
1F
100
AcDbEntity
  8
AM_0
  6
中線
 48
0.5
370
    30
100
AcDbLine
 10
6220.917408871628
 20
-424.7423814100551
 30
0.0
 11
6223.917408871628
 21
-424.7423814100551
 31
0.0
  0
LINE
  5
5C3F8
330
1F
100
AcDbEntity
  8
AM_0
  6
中線
 48
0.5
370
    30
100
AcDbLine
 10
6223.917408871628
 20
-424.7423814100551
 30
0.0
 11
6223.917408871628
 21
-423.9923814100552
 31
0.0
  0
LINE
  5
5C3F9
330
1F
100
AcDbEntity
  8
AM_7
  6
中心線1
 48
0.5
370
    13
100
AcDbLine
 10
6198.416783871627
 20
-403.3923814100552
 30
0.0
 11
6198.416783871627
 21
-422.5923814100551
 31
0.0
  0
CIRCLE
  5
5C3FA
330
1F
100
AcDbEntity
  8
AM_0
  6
中線
 48
0.5
370
    30
100
AcDbCircle
 10
6198.416783871627
 20
-406.9923814100552
 30
0.0
 40
1.6
  0
LINE
  5
5C3FB
330
1F
100
AcDbEntity
  8
AM_0
  6
中線
 48
0.5
370
    30
100
AcDbLine
 10
6204.416158871627
 20
-404.9923814100552
 30
0.0
 11
6209.416783871628
 21
-404.9923814100552
 31
0.0
  0
CIRCLE
  5
5C3FC
330
1F
100
AcDbEntity
  8
AM_0
  6
中線
 48
0.5
370
    30
100
AcDbCircle
 10
6198.416783871627
 20
-418.9923814100551
 30
0.0
 40
1.6
  0
LINE
  5
5C3FD
330
1F
100
AcDbEntity
  8
AM_0
  6
中線
 48
0.5
370
    30
100
AcDbLine
 10
6209.416783871628
 20
-404.9923814100552
 30
0.0
 11
6209.416783871628
 21
-420.9923814100552
 31
0.0
  0
LINE
  5
5C3FE
330
1F
100
AcDbEntity
  8
AM_0
  6
中線
 48
0.5
370
    30
100
AcDbLine
 10
6209.416783871628
 20
-420.9923814100552
 30
0.0
 11
6204.416158871627
 21
-420.9923814100552
 31
0.0
  0
ARC
  5
5C3FF
330
1F
100
AcDbEntity
  8
AM_0
  6
中線
 48
0.5
370
    30
100
AcDbCircle
 10
6198.466884871628
 20
-399.9923814100552
 30
0.0
 40
1.0
100
AcDbArc
 50
42.56181499998824
 51
133.7617420000289
  0
ARC
  5
5C400
330
1F
100
AcDbEntity
  8
AM_0
  6
中線
 48
0.5
370
    30
100
AcDbCircle
 10
6198.466884871628
 20
-425.9923824100551
 30
0.0
 40
1.0
100
AcDbArc
 50
226.2382579999711
 51
317.4381850000117
  0
CIRCLE
  5
5C401
330
1F
100
AcDbEntity
  8
AM_3
  6
陰線1
 48
0.5
370
    13
100
AcDbCircle
 10
6230.917408871628
 20
-412.9923814100552
 30
0.0
 40
3.0
  0
CIRCLE
  5
5C402
330
1F
100
AcDbEntity
  8
AM_3
  6
陰線1
 48
0.5
370
    13
100
AcDbCircle
 10
6198.416783871627
 20
-406.9923814100552
 30
0.0
 40
3.0
  0
CIRCLE
  5
5C403
330
1F
100
AcDbEntity
  8
AM_3
  6
陰線1
 48
0.5
370
    13
100
AcDbCircle
 10
6198.416783871627
 20
-418.9923814100551
 30
0.0
 40
3.0
  0
CIRCLE
  5
5C404
330
1F
100
AcDbEntity
  8
AM_3
  6
陰線1
 48
0.5
370
    13
100
AcDbCircle
 10
6264.917408871628
 20
-412.9923814100552
 30
0.0
 40
3.0
  0
LINE
  5
5C405
330
1F
100
AcDbEntity
  8
AM_7
  6
中心線1
 48
0.5
370
    13
100
AcDbLine
 10
6193.416783871628
 20
-418.9923814100551
 30
0.0
 11
6203.416783871627
 21
-418.9923814100551
 31
0.0
  0
LINE
  5
5C406
330
1F
100
AcDbEntity
  8
AM_7
  6
中心線1
 48
0.5
370
    13
100
AcDbLine
 10
6193.416783871628
 20
-406.9923814100552
 30
0.0
 11
6203.416783871627
 21
-406.9923814100552
 31
0.0
  0
ARC
  5
5C40D
330
1F
100
AcDbEntity
  8
AM_0
  6
中線
 48
0.5
370
    30
100
AcDbCircle
 10
6226.921186871628
 20
-402.9923814100552
 30
0.0
 40
3.0
100
AcDbArc
 50
19.47122063448621
 51
100.4059736699078
  0
ARC
  5
5C40E
330
1F
100
AcDbEntity
  8
AM_0
  6
中線
 48
0.5
370
    30
100
AcDbCircle
 10
6226.921186871628
 20
-402.9923814100552
 30
0.0
 40
6.0
100
AcDbArc
 50
9.594068226856377
 51
100.4059736699078
  0
ARC
  5
5C40F
330
1F
100
AcDbEntity
  8
AM_0
  6
中線
 48
0.5
370
    30
100
AcDbCircle
 10
6210.410282871627
 20
-405.0077564100551
 30
0.0
 40
2.000000000000024
100
AcDbArc
 50
100.4059736699078
 51
179.5595343565075
  0
ARC
  5
5C410
330
1F
100
AcDbEntity
  8
AM_0
  6
中線
 48
0.5
370
    30
100
AcDbCircle
 10
6210.410282871627
 20
-405.0077564100551
 30
0.0
 40
4.999999999999933
100
AcDbArc
 50
100.4059736699078
 51
179.8238152003422
  0
LINE
  5
5C411
330
1F
100
AcDbEntity
  8
AM_0
  6
中線
 48
0.5
370
    30
100
AcDbLine
 10
6209.507174413449
 20
-400.0899931875355
 30
0.0
 11
6225.837456721813
 21
-397.0910655430317
 31
0.0
  0
LINE
  5
5C412
330
1F
100
AcDbEntity
  8
AM_0
  6
中線
 48
0.5
370
    30
100
AcDbLine
 10
6210.049039488357
 20
-403.0406511210468
 30
0.0
 11
6226.37932179672
 21
-400.0417234765432
 31
0.0
  0
LINE
  5
5C413
330
1F
100
AcDbEntity
  8
AM_0
  6
中線
 48
0.5
370
    30
100
AcDbLine
 10
6232.921186871628
 20
-422.4923814100551
 30
0.0
 11
6232.921186871628
 21
-420.9923814100552
 31
0.0
  0
LINE
  5
5C414
330
1F
100
AcDbEntity
  8
AM_0
  6
中線
 48
0.5
370
    30
100
AcDbLine
 10
6229.921186871628
 20
-422.4923814100551
 30
0.0
 11
6229.921186871628
 21
-420.9923814100552
 31
0.0
  0
ARC
  5
5C415
330
1F
100
AcDbEntity
  8
AM_0
  6
中線
 48
0.5
370
    30
100
AcDbCircle
 10
6226.921186871628
 20
-422.9923814100551
 30
0.0
 40
3.0
100
AcDbArc
 50
259.5940263300922
 51
340.5287793655138
  0
ARC
  5
5C416
330
1F
100
AcDbEntity
  8
AM_0
  6
中線
 48
0.5
370
    30
100
AcDbCircle
 10
6226.921186871628
 20
-422.9923814100551
 30
0.0
 40
6.0
100
AcDbArc
 50
259.5940263300922
 51
350.4059317731436
  0
ARC
  5
5C417
330
1F
100
AcDbEntity
  8
AM_0
  6
中線
 48
0.5
370
    30
100
AcDbCircle
 10
6210.410282871627
 20
-420.9770064100552
 30
0.0
 40
2.000000000000024
100
AcDbArc
 50
180.4404656434924
 51
259.5940263300922
  0
ARC
  5
5C418
330
1F
100
AcDbEntity
  8
AM_0
  6
中線
 48
0.5
370
    30
100
AcDbCircle
 10
6210.410282871627
 20
-420.9770064100552
 30
0.0
 40
4.999999999999933
100
AcDbArc
 50
180.1761847996577
 51
259.5940263300922
  0
LINE
  5
5C419
330
1F
100
AcDbEntity
  8
AM_0
  6
中線
 48
0.5
370
    30
100
AcDbLine
 10
6209.507174413449
 20
-425.8947696325749
 30
0.0
 11
6225.837456721813
 21
-428.8936972770787
 31
0.0
  0
LINE
  5
5C41A
330
1F
100
AcDbEntity
  8
AM_0
  6
中線
 48
0.5
370
    30
100
AcDbLine
 10
6210.049039488357
 20
-422.9441116990635
 30
0.0
 11
6226.37932179672
 21
-425.9430393435671
 31
0.0
  0
ARC
  5
5C41B
330
1F
100
AcDbEntity
  8
AM_0
  6
中線
 48
0.5
370
    30
100
AcDbCircle
 10
6260.960492871628
 20
-412.9923814100552
 30
0.0
 40
8.000000000000028
100
AcDbArc
 50
270.0
 51
90.0
  0
LINE
  5
5C4D2
330
1F
100
AcDbEntity
  8
AM_0
  6
中線
 48
0.5
370
    30
100
AcDbLine
 10
6225.917409617191
 20
-379.4773571214903
 30
0.0
 11
6225.917409617191
 21
-382.134871391781
 31
0.0
  0
LINE
  5
5C4D3
330
1F
100
AcDbEntity
  8
AM_7
  6
中心線1
 48
0.3
370
    13
100
AcDbLine
 10
6264.917409617191
 20
-377.634871391781
 30
0.0
 11
6264.917409617191
 21
-385.1348713917809
 31
0.0
  0
ARC
  5
5C4D4
330
1F
100
AcDbEntity
  8
AM_0
  6
中線
 48
0.5
370
    30
100
AcDbCircle
 10
6222.417409617191
 20
-374.911318391781
 30
0.0
 40
4.5
100
AcDbArc
 50
240.6064707075993
 51
268.9610480000344
  0
LINE
  5
5C4D5
330
1F
100
AcDbEntity
  8
AM_0
  6
中線
 48
0.5
370
    30
100
AcDbLine
 10
6192.41678461719
 20
-382.134871391781
 30
0.0
 11
6205.91678461719
 21
-382.1348713917808
 31
0.0
  0
LINE
  5
5C4D6
330
1F
100
AcDbEntity
  8
AM_0
  6
中線
 48
0.5
370
    30
100
AcDbLine
 10
6192.41678461719
 20
-380.634871391781
 30
0.0
 11
6192.41678461719
 21
-382.134871391781
 31
0.0
  0
LINE
  5
5C4D7
330
1F
100
AcDbEntity
  8
AM_0
  6
中線
 48
0.5
370
    30
100
AcDbLine
 10
6205.91678461719
 20
-380.6348713917807
 30
0.0
 11
6192.41678461719
 21
-380.634871391781
 31
0.0
  0
LINE
  5
5C4D8
330
1F
100
AcDbEntity
  8
AM_0
  6
中線
 48
0.5
370
    30
100
AcDbLine
 10
6204.304393982089
 20
-374.1955313917811
 30
0.0
 11
6207.235277058221
 21
-377.1250644441293
 31
0.0
  0
LINE
  5
5C4D9
330
1F
100
AcDbEntity
  8
AM_0
  6
中線
 48
0.5
370
    30
100
AcDbLine
 10
6205.365054982089
 20
-373.134871391781
 30
0.0
 11
6204.304393982089
 21
-374.1955313917811
 31
0.0
  0
LINE
  5
5C4DA
330
1F
100
AcDbEntity
  8
AM_0
  6
中線
 48
0.5
370
    30
100
AcDbLine
 10
6205.365054982089
 20
-373.134871391781
 30
0.0
 11
6208.390180716243
 21
-376.1599976576283
 31
0.0
  0
LINE
  5
5C4DB
330
1F
100
AcDbEntity
  8
AM_7
  6
中心線1
 48
0.3
370
    13
100
AcDbLine
 10
6230.917409617191
 20
-385.1348713917809
 30
0.0
 11
6230.917409617191
 21
-377.634871391781
 31
0.0
  0
ARC
  5
5C4DC
330
1F
100
AcDbEntity
  8
AM_0
  6
中線
 48
0.5
370
    30
100
AcDbCircle
 10
6260.50689761719
 20
-365.1415753917811
 30
0.0
 40
13.5
100
AcDbArc
 50
261.707898000003
 51
311.9715469999869
  0
LINE
  5
5C4DD
330
1F
100
AcDbEntity
  8
AM_0
  6
中線
 48
0.5
370
    30
100
AcDbLine
 10
6223.711971617191
 20
-369.0526403917814
 30
0.0
 11
6258.88357061719
 21
-377.0357723917812
 31
0.0
  0
LINE
  5
5C4DE
330
1F
100
AcDbEntity
  8
AM_0
  6
中線
 48
0.5
370
    30
100
AcDbLine
 10
6223.711971617191
 20
-369.0526403917814
 30
0.0
 11
6223.38833161719
 21
-370.5173103917812
 31
0.0
  0
LINE
  5
5C4DF
330
1F
100
AcDbEntity
  8
AM_0
  6
中線
 48
0.5
370
    30
100
AcDbLine
 10
6217.535176871628
 20
-373.8325156571629
 30
0.0
 11
6218.023400871628
 21
-373.9403956571629
 31
0.0
  0
LINE
  5
5C4E0
330
1F
100
AcDbEntity
  8
AM_0
  6
中線
 48
0.5
370
    30
100
AcDbLine
 10
6217.750937871628
 20
-372.8560696571632
 30
0.0
 11
6217.535176871628
 21
-373.8325156571629
 31
0.0
  0
LINE
  5
5C4E1
330
1F
100
AcDbEntity
  8
AM_0
  6
中線
 48
0.5
370
    30
100
AcDbLine
 10
6257.583483617191
 20
-378.284682391781
 30
0.0
 11
6258.559930617191
 21
-378.5004423917811
 31
0.0
  0
ARC
  5
5C4E2
330
1F
100
AcDbEntity
  8
AM_0
  6
中線
 48
0.5
370
    30
100
AcDbCircle
 10
6222.633169617191
 20
-373.934871391781
 30
0.0
 40
5.0
100
AcDbArc
 50
77.53986100001835
 51
167.5398610000007
  0
ARC
  5
5C4E3
330
1F
100
AcDbEntity
  8
AM_0
  6
中線
 48
0.5
370
    30
100
AcDbCircle
 10
6222.417409617191
 20
-374.911318391781
 30
0.0
 40
4.5
100
AcDbArc
 50
77.53986100001835
 51
194.634139909758
  0
ARC
  5
5C4E4
330
1F
100
AcDbEntity
  8
AM_0
  6
中線
 48
0.5
370
    30
100
AcDbCircle
 10
6260.54910261719
 20
-365.1519183917811
 30
0.0
 40
12.0
100
AcDbArc
 50
262.0219129999965
 51
312.0699600000099
  0
LINE
  5
5C4E5
330
1F
100
AcDbEntity
  8
AM_7
  6
中心線1
 48
0.3
370
    13
100
AcDbLine
 10
6198.41678461719
 20
-377.634871391781
 30
0.0
 11
6198.41678461719
 21
-385.1348713917809
 31
0.0
  0
LINE
  5
5C4E6
330
1F
100
AcDbEntity
  8
AM_0
  6
中線
 48
0.5
370
    30
100
AcDbLine
 10
6218.917409617191
 20
-382.134871391781
 30
0.0
 11
6268.960493617191
 21
-382.134871391781
 31
0.0
  0
LINE
  5
5C4E7
330
1F
100
AcDbEntity
  8
AM_0
  6
中線
 48
0.5
370
    30
100
AcDbLine
 10
6268.960493617191
 20
-380.634871391781
 30
0.0
 11
6225.917409617191
 21
-380.634871391781
 31
0.0
  0
LINE
  5
5C4E8
330
1F
100
AcDbEntity
  8
AM_0
  6
中線
 48
0.5
370
    30
100
AcDbLine
 10
6268.960493617191
 20
-382.134871391781
 30
0.0
 11
6268.960493617191
 21
-380.634871391781
 31
0.0
  0
LINE
  5
5C4E9
330
1F
100
AcDbEntity
  8
AM_0
  6
中線
 48
0.5
370
    30
100
AcDbLine
 10
6228.917409617191
 20
-380.634871391781
 30
0.0
 11
6228.917409617191
 21
-382.134871391781
 31
0.0
  0
LINE
  5
5C4EA
330
1F
100
AcDbEntity
  8
AM_0
  6
中線
 48
0.5
370
    30
100
AcDbLine
 10
6218.917409617191
 20
-382.134871391781
 30
0.0
 11
6218.917409617191
 21
-378.972872391781
 31
0.0
  0
LINE
  5
5C4EB
330
1F
100
AcDbEntity
  8
AM_0
  6
中線
 48
0.5
370
    30
100
AcDbLine
 10
6255.08565361719
 20
-380.634871391781
 30
0.0
 11
6256.170339629386
 21
-380.0414220803144
 31
0.0
  0
LINE
  5
5C4EC
330
1F
100
AcDbEntity
  8
AM_0
  6
中線
 48
0.5
370
    30
100
AcDbLine
 10
6253.148171399139
 20
-379.9850738456916
 30
0.0
 11
6251.960493617191
 21
-380.634871391781
 31
0.0
  0
ARC
  5
5C4ED
330
1F
100
AcDbEntity
  8
AM_0
  6
中線
 48
0.5
370
    30
100
AcDbCircle
 10
6222.417409617191
 20
-374.911318391781
 30
0.0
 40
1.6
100
AcDbArc
 50
341.9354718725706
 51
210.5131189895612
  0
LINE
  5
5C4EE
330
1F
100
AcDbEntity
  8
AM_0
  6
中線
 48
0.5
370
    30
100
AcDbLine
 10
6268.589553617191
 20
-374.0598443917814
 30
0.0
 11
6269.535177617191
 21
-375.1785153917811
 31
0.0
  0
LINE
  5
5C4EF
330
1F
100
AcDbEntity
  8
AM_0
  6
中線
 48
0.5
370
    30
100
AcDbLine
 10
6257.367723617191
 20
-379.2611283917811
 30
0.0
 11
6257.90712461719
 21
-376.8200123917812
 31
0.0
  0
LINE
  5
5C4F0
330
1F
100
AcDbEntity
  8
AM_0
  6
中線
 48
0.5
370
    30
100
AcDbLine
 10
6222.33581461719
 20
-379.410578391781
 30
0.0
 11
6256.373145617191
 21
-380.0452033917812
 31
0.0
  0
ARC
  5
5C4F1
330
1F
100
AcDbEntity
  8
AM_0
  6
中線
 48
0.5
370
    30
100
AcDbCircle
 10
6231.421186617191
 20
-376.1002683917813
 30
0.0
 40
1.5
100
AcDbArc
 50
276.2242950000086
 51
96.22429500000857
  0
ARC
  5
5C4F2
330
1F
100
AcDbEntity
  8
AM_0
  6
中線
 48
0.5
370
    30
100
AcDbCircle
 10
6256.391277617191
 20
-379.0453683917811
 30
0.0
 40
1.0
100
AcDbArc
 50
268.9610480000344
 51
347.5398590000034
  0
ARC
  5
5C4F3
330
1F
100
AcDbEntity
  8
AM_0
  6
中線
 48
0.5
370
    30
100
AcDbCircle
 10
6206.41678461719
 20
-378.7189893917812
 30
0.0
 40
1.5
100
AcDbArc
 50
95.97881397229064
 51
275.978813972343
  0
ARC
  5
5C4F4
330
1F
100
AcDbEntity
  8
AM_0
  6
中線
 48
0.5
370
    30
100
AcDbCircle
 10
6231.421186617191
 20
-376.1002683917813
 30
0.0
 40
1.499999999999871
100
AcDbArc
 50
276.0982923355065
 51
96.09829233550648
  0
ARC
  5
5C4F5
330
1F
100
AcDbEntity
  8
AM_0
  6
中線
 48
0.5
370
    30
100
AcDbCircle
 10
6205.91678461719
 20
-378.634871391781
 30
0.0
 40
3.499999999999726
100
AcDbArc
 50
270.0
 51
338.1161051328294
  0
ARC
  5
5C4F6
330
1F
100
AcDbEntity
  8
AM_0
  6
中線
 48
0.5
370
    30
100
AcDbCircle
 10
6205.91678461719
 20
-378.634871391781
 30
0.0
 40
3.499999999999726
100
AcDbArc
 50
28.92014415835623
 51
46.40003524985933
  0
ARC
  5
5C4F7
330
1F
100
AcDbEntity
  8
AM_0
  6
中線
 48
0.5
370
    30
100
AcDbCircle
 10
6205.91678461719
 20
-378.634871391781
 30
0.0
 40
1.999999999999726
100
AcDbArc
 50
270.0
 51
311.1066368334586
  0
ARC
  5
5C4F8
330
1F
100
AcDbEntity
  8
AM_0
  6
中線
 48
0.5
370
    30
100
AcDbCircle
 10
6231.421186617191
 20
-376.1002683917813
 30
0.0
 40
1.499999999999857
100
AcDbArc
 50
275.9788139722906
 51
95.97881397234305
  0
LINE
  5
5C4F9
330
1F
100
AcDbEntity
  8
AM_0
  6
中線
 48
0.5
370
    30
100
AcDbLine
 10
6206.260543543479
 20
-377.2271486741165
 30
0.0
 11
6231.264945543479
 21
-374.6084276741158
 31
0.0
  0
LINE
  5
5C4FA
330
1F
100
AcDbEntity
  8
AM_0
  6
中線
 48
0.5
370
    30
100
AcDbLine
 10
6206.573025690903
 20
-380.2108301094469
 30
0.0
 11
6231.577427690903
 21
-377.5921091094462
 31
0.0
  0
ARC
  5
5C50F
330
1F
100
AcDbEntity
  8
AM_0
  6
中線
 48
0.5
370
    30
100
AcDbCircle
 10
6257.864038871629
 20
-413.4923814100551
 30
0.0
 40
1.0
100
AcDbArc
 50
329.9999999999849
 51
0.0
  0
ARC
  5
5C510
330
1F
100
AcDbEntity
  8
AM_0
  6
中線
 48
0.5
370
    30
100
AcDbCircle
 10
6248.146682871627
 20
-412.4923814100552
 30
0.0
 40
1.0
100
AcDbArc
 50
90.0
 51
149.9999999999849
  0
LINE
  5
5C511
330
1F
100
AcDbEntity
  8
AM_0
  6
中線
 48
0.5
370
    30
100
AcDbLine
 10
6257.864038871629
 20
-411.4923814100552
 30
0.0
 11
6248.146682871627
 21
-411.4923814100552
 31
0.0
  0
LINE
  5
5C512
330
1F
100
AcDbEntity
  8
AM_0
  6
中線
 48
0.5
370
    30
100
AcDbLine
 10
6258.864038871628
 20
-413.4923814100551
 30
0.0
 11
6258.864038871628
 21
-412.4923814100552
 31
0.0
  0
LINE
  5
5C514
330
1F
100
AcDbEntity
  8
AM_0
  6
中線
 48
0.5
370
    30
100
AcDbLine
 10
6260.264602871628
 20
-412.9923814100552
 30
0.0
 11
6260.264602871628
 21
-404.9923814100551
 31
0.0
  0
LINE
  5
5C515
330
1F
100
AcDbEntity
  8
AM_0
  6
中線
 48
0.5
370
    30
100
AcDbLine
 10
6257.917408871628
 20
-413.9923814100551
 30
0.0
 11
6259.264602871628
 21
-413.9923814100551
 31
0.0
  0
LINE
  5
5C516
330
1F
100
AcDbEntity
  8
AM_0
  6
中線
 48
0.5
370
    30
100
AcDbLine
 10
6257.917408871628
 20
-411.9923814100552
 30
0.0
 11
6257.917408871628
 21
-413.9923814100551
 31
0.0
  0
LINE
  5
5C517
330
1F
100
AcDbEntity
  8
AM_0
  6
中線
 48
0.5
370
    30
100
AcDbLine
 10
6245.264602871628
 20
-413.9923814100551
 30
0.0
 11
6245.264602871628
 21
-411.9923814100552
 31
0.0
  0
LINE
  5
5C518
330
1F
100
AcDbEntity
  8
AM_0
  6
中線
 48
0.5
370
    30
100
AcDbLine
 10
6242.611796871628
 20
-413.9923814100551
 30
0.0
 11
6244.611796871628
 21
-413.9923814100551
 31
0.0
  0
LINE
  5
5C519
330
1F
100
AcDbEntity
  8
AM_0
  6
中線
 48
0.5
370
    30
100
AcDbLine
 10
6241.611796871628
 20
-404.9923814100552
 30
0.0
 11
6241.611796871628
 21
-412.9923814100552
 31
0.0
  0
ARC
  5
5C51A
330
1F
100
AcDbEntity
  8
AM_0
  6
中線
 48
0.5
370
    30
100
AcDbCircle
 10
6242.611796871628
 20
-412.9923814100552
 30
0.0
 40
1.0
100
AcDbArc
 50
180.0
 51
270.0
  0
ARC
  5
5C51B
330
1F
100
AcDbEntity
  8
AM_0
  6
中線
 48
0.5
370
    30
100
AcDbCircle
 10
6259.264602871628
 20
-412.9923814100552
 30
0.0
 40
1.0
100
AcDbArc
 50
270.0
 51
0.0
  0
ARC
  5
5C51C
330
1F
100
AcDbEntity
  8
AM_0
  6
中線
 48
0.5
370
    30
100
AcDbCircle
 10
6257.864038871629
 20
-412.4923814100552
 30
0.0
 40
1.0
100
AcDbArc
 50
0.0
 51
90.0
  0
LINE
  5
5C521
330
1F
100
AcDbEntity
  8
AM_0
  6
中線
 48
0.5
370
    30
100
AcDbLine
 10
6245.264602871628
 20
-411.9923814100552
 30
0.0
 11
6257.917408871628
 21
-411.9923814100552
 31
0.0
  0
LINE
  5
5C522
330
1F
100
AcDbEntity
  8
AM_0
  6
中線
 48
0.5
370
    30
100
AcDbLine
 10
6243.264602871628
 20
-413.9923814100551
 30
0.0
 11
6245.264602871628
 21
-413.9923814100551
 31
0.0
  0
LINE
  5
5C523
330
1F
100
AcDbEntity
  8
AM_0
  6
中線
 48
0.5
370
    30
100
AcDbLine
 10
6260.264602871628
 20
-404.9923814100551
 30
0.0
 11
6260.960492871628
 21
-404.9923814100551
 31
0.0
  0
ENDSEC
  0
SECTION
  2
OBJECTS
  0
DICTIONARY
  5
C
330
0
100
AcDbDictionary
281
     1
  3
ACAD_2007HEADERVARS_RT
350
5C543
  3
ACAD_BGPLOT_KEY
350
AB06
  3
ACAD_COLOR
350
A91D
  3
ACAD_GROUP
350
D
  3
ACAD_LAYOUT
350
1A
  3
ACAD_MATERIAL
350
A91C
  3
ACAD_MLINESTYLE
350
17
  3
ACAD_PLOTSETTINGS
350
19
  3
ACAD_PLOTSTYLENAME
350
E
  3
ACAD_TABLESTYLE
350
AAB9
  3
ACAD_VISUALSTYLE
350
B0F1
  3
AcAsAppObject
350
3DA1
  3
ACASGREF_MASTER
350
3DE9
  3
AcDbVariableDictionary
350
34
  3
AcmDictionary
350
47
  3
AD_GREF_MODULE
350
3DEA
  3
AD_MAPI_MODULE
350
3E06
  3
AMG
350
2B
  3
AMGSNAPSETTINGS
350
7D
  3
ASE_INDEX_DICTIONARY
350
57912
  3
DWGPROPS
350
5C542
  3
MAPISURF_MODULE
350
3DEB
  0
DICTIONARY
  5
3F95
330
2
100
AcDbDictionary
280
     1
281
     1
  3
ACAD_LAYERFILTERS
360
5369F
  3
ACAD_LAYERSTATES
360
3F96
  3
ACLYDICTIONARY
360
5369E
  3
AMLAYER_GROUPCOLORS
360
AAB4
  0
DICTIONARY
  5
5B369
330
5B368
100
AcDbDictionary
280
     1
281
     1
  3
ADSK_XREC_LAYER_RECONCILED
360
5B36A
  0
DICTIONARY
  5
8A
330
1F
100
AcDbDictionary
280
     1
281
     1
  3
ACAD_SORTENTS
360
B1BA
  0
DICTIONARY
  5
5C543
102
{ACAD_REACTORS
330
C
102
}
330
C
100
AcDbDictionary
281
     1
  3
DIMARCSYM
350
5C544
  0
DICTIONARY
  5
AB06
102
{ACAD_REACTORS
330
C
102
}
330
C
100
AcDbDictionary
280
     1
281
     1
  0
DICTIONARY
  5
A91D
102
{ACAD_REACTORS
330
C
102
}
330
C
100
AcDbDictionary
281
     1
  0
DICTIONARY
  5
D
102
{ACAD_REACTORS
330
C
102
}
330
C
100
AcDbDictionary
281
     1
  0
DICTIONARY
  5
1A
102
{ACAD_REACTORS
330
C
102
}
330
C
100
AcDbDictionary
281
     1
  3
Model
350
22
  3
ﾚｲｱｳﾄ1
350
1E
  3
ﾚｲｱｳﾄ2
350
26
  0
DICTIONARY
  5
A91C
102
{ACAD_REACTORS
330
C
102
}
330
C
100
AcDbDictionary
281
     1
  3
ByBlock
350
B0EF
  3
ByLayer
350
B0EE
  3
Global
350
B0F0
  0
DICTIONARY
  5
17
102
{ACAD_REACTORS
330
C
102
}
330
C
100
AcDbDictionary
281
     1
  3
Standard
350
18
  0
DICTIONARY
  5
19
102
{ACAD_REACTORS
330
C
102
}
330
C
100
AcDbDictionary
281
     1
  0
ACDBDICTIONARYWDFLT
  5
E
102
{ACAD_REACTORS
330
C
102
}
330
C
100
AcDbDictionary
281
     1
  3
Normal
350
F
100
AcDbDictionaryWithDefault
340
F
  0
DICTIONARY
  5
AAB9
102
{ACAD_REACTORS
330
C
102
}
330
C
100
AcDbDictionary
281
     1
  3
Standard
350
AABA
  0
DICTIONARY
  5
B0F1
102
{ACAD_REACTORS
330
C
102
}
330
C
100
AcDbDictionary
281
     1
  3
2dWireframe
350
B0F7
  3
3D Hidden
350
B0F9
  3
3dWireframe
350
B0F8
  3
Basic
350
B0F6
  3
Brighten
350
B0FD
  3
ColorChange
350
B101
  3
Conceptual
350
B0FA
  3
Dim
350
B0FC
  3
Facepattern
350
B100
  3
Flat
350
B0F2
  3
FlatWithEdges
350
B0F3
  3
Gouraud
350
B0F4
  3
GouraudWithEdges
350
B0F5
  3
Linepattern
350
B0FF
  3
Realistic
350
B0FB
  3
Thicken
350
B0FE
  0
ACAD_PROXY_OBJECT
  5
3DA1
102
{ACAD_REACTORS
330
C
102
}
330
C
100
AcDbProxyObject
 90
      499
 91
      576
 95
   917527
 70
     0
 93
       10
310
407F
 94
        0
1001
ACAD
1000
AcRTDxfName
1000
ASAPP
  0
ACAD_PROXY_OBJECT
  5
3DE9
102
{ACAD_REACTORS
330
C
102
}
330
C
100
AcDbProxyObject
 90
      499
 91
      581
 95
   917527
 70
     0
 93
       34
310
010000407F
 94
        0
1001
ACAD
1000
AcRTDxfName
1000
ACASGREFMASTER
  0
DICTIONARY
  5
34
102
{ACAD_REACTORS
330
C
102
}
330
C
100
AcDbDictionary
281
     1
  3
CTABLESTYLE
350
AAF3
  3
DIMASSOC
350
A10C
  3
FIELDEVAL
350
AB07
  3
INDEXCTL
350
35
  3
SORTENTS
350
194C
  0
DICTIONARY
  5
47
102
{ACAD_REACTORS
330
C
102
}
330
C
100
AcDbDictionary
281
     1
  3
AcmBOM
350
7E8
  3
AcmStdDictionary
350
4C
  3
AMDTSECTSYM_ARROWCOLOR
350
A929
  0
ACAD_PROXY_OBJECT
  5
3DEA
102
{ACAD_REACTORS
330
C
102
}
330
C
100
AcDbProxyObject
 90
      499
 91
      582
 95
   917527
 70
     0
 93
      114
310
00000043800000000000000000003F
 94
        0
1001
ACAD
1000
AcRTDxfName
1000
ACADGREFMODULE
  0
ACAD_PROXY_OBJECT
  5
3E06
102
{ACAD_REACTORS
330
C
102
}
330
C
100
AcDbProxyObject
 90
      499
 91
      594
 95
   917527
 70
     0
 93
       34
310
05000044FF
 94
        0
1001
ACAD
1000
AcRTDxfName
1000
MAPIADMODULE
  0
DICTIONARY
  5
2B
102
{ACAD_REACTORS
330
C
102
}
330
C
100
AcDbDictionary
281
     1
  0
DICTIONARY
  5
7D
102
{ACAD_REACTORS
330
C
102
}
330
C
100
AcDbDictionary
281
     1
  0
DICTIONARY
  5
57912
102
{ACAD_REACTORS
330
C
102
}
330
C
100
AcDbDictionary
281
     1
  3
ASEBlockHierarchyIndexRecord
350
57913
1001
DCO15
1040
1757428023.343
  0
XRECORD
  5
5C542
102
{ACAD_REACTORS
330
C
102
}
330
C
100
AcDbXrecord
280
     1
  1
DWGPROPS COOKIE
  2

  3

  4

  6

  7

  8
Administrator
  9

300
AmdtFileType=84
301
=
302
=
303
=
304
=
305
=
306
=
307
=
308
=
309
=
 40
7.93095318287037
 41
2455567.680725081
 42
2456338.852450625
  1

 90
        1
  0
ACAD_PROXY_OBJECT
  5
3DEB
102
{ACAD_REACTORS
330
C
102
}
330
C
100
AcDbProxyObject
 90
      499
 91
      583
 95
   917527
 70
     0
 93
        8
310
0478
 94
        0
1001
ACAD
1000
AcRTDxfName
1000
AMDTMAPISURFMOUDULE
  0
DICTIONARY
  5
5369F
102
{ACAD_REACTORS
330
3F95
102
}
330
3F95
100
AcDbDictionary
281
     1
  0
DICTIONARY
  5
3F96
102
{ACAD_REACTORS
330
3F95
102
}
330
3F95
100
AcDbDictionary
281
     1
  3
20011210
350
3FB7
  0
DICTIONARY
  5
5369E
102
{ACAD_REACTORS
330
3F95
102
}
330
3F95
100
AcDbDictionary
281
     1
1001
ACAD
1000
<All
  0
DICTIONARY
  5
AAB4
102
{ACAD_REACTORS
330
3F95
102
}
330
3F95
100
AcDbDictionary
280
     1
281
     1
  0
XRECORD
  5
5B36A
102
{ACAD_REACTORS
330
5B369
102
}
330
5B369
100
AcDbXrecord
280
     1
290
     1
  0
SORTENTSTABLE
  5
B1BA
102
{ACAD_REACTORS
330
8A
102
}
330
8A
100
AcDbSortentsTable
330
1F
331
3E4A8
  5
3E88B
331
31B3C
  5
3273D
331
3E491
  5
3E52F
331
3E52F
  5
3E89C
331
5BE83
  5
5BE83
331
5C3FC
  5
5C3FD
331
5BE64
  5
5BE64
331
5C3D6
  5
5C3D6
331
5C3F5
  5
5C3F6
331
5C41B
  5
5C4D0
331
3E4A9
  5
3E88C
331
31B3D
  5
3273E
331
3E492
  5
3E530
331
3E530
  5
3E89D
331
5BE84
  5
5BE84
331
5C3FD
  5
5C3FE
331
5BE65
  5
5BE65
331
5C3D7
  5
5C3D7
331
5C3F6
  5
5C3F7
331
3E531
  5
3E89E
331
3E4AA
  5
3E88D
331
31B3E
  5
3273F
331
3E493
  5
3E531
331
5BE85
  5
5BE85
331
5C3FE
  5
5C3FF
331
5BE4F
  5
5BE4F
331
5BE66
  5
5BE66
331
5C3D8
  5
5C3D8
331
5C3F7
  5
5C3F8
331
3E532
  5
3E89F
331
3E4AB
  5
3E88E
331
5BE86
  5
5BE86
331
5C4F0
  5
5C4F1
331
5C3FF
  5
5C400
331
5BE50
  5
5BE50
331
5C3D9
  5
5C3D9
331
5BE67
  5
5BE67
331
3E533
  5
3E8A0
331
3E476
  5
3E49D
331
3E4AC
  5
3E88F
331
5C4D2
  5
5C4D3
331
5BE68
  5
5BE68
331
5C400
  5
5C401
331
5BE51
  5
5BE51
331
5BE87
  5
5BE87
331
5C3DA
  5
5C3DA
331
5C4F1
  5
5C4F2
331
3E534
  5
3E8A1
331
3EB43
  5
3EB76
331
3DF50
  5
3E483
331
3E477
  5
3E49E
331
3E4AD
  5
3E890
331
5C4D3
  5
5C4D4
331
5BE69
  5
5BE69
331
5C401
  5
5C402
331
5BE52
  5
5BE52
331
5BE88
  5
5BE88
331
5C3DB
  5
5C3DB
331
5C4F2
  5
5C4F3
331
3EC1B
  5
3F043
331
3E535
  5
3E8A2
331
3DF51
  5
3E484
331
3E478
  5
3E49F
331
5C4F3
  5
5C4F4
331
5C4D4
  5
5C4D5
331
5BE6A
  5
5BE6A
331
5C402
  5
5C403
331
5BE53
  5
5BE53
331
5BE89
  5
5BE89
331
5C3DC
  5
5C3DC
331
3EC1C
  5
3F044
331
3E498
  5
3E532
331
3E536
  5
3E8A3
331
3DF52
  5
3E485
331
3E479
  5
3E4A0
331
5C4F4
  5
5C4F5
331
5C4D5
  5
5C4D6
331
5BE6B
  5
5BE6B
331
5C403
  5
5C404
331
5C3DD
  5
5C3DD
331
5BE54
  5
5BE54
331
5BE8A
  5
5BE8A
331
3E47A
  5
3E4A1
331
3DF53
  5
3E486
331
3E499
  5
3E533
331
3E537
  5
3E8A4
331
5C4F5
  5
5C4F6
331
5BE8B
  5
5BE8B
331
5BE6C
  5
5BE6C
331
5C404
  5
5C405
331
5C4D6
  5
5C4D7
331
5C3DE
  5
5C3DE
331
5BE55
  5
5BE55
331
3E47B
  5
3E4A2
331
32D1D
  5
32D3A
331
3DF54
  5
3E487
331
3E49A
  5
3E534
331
5C4F6
  5
5C4F7
331
5BE8C
  5
5BE8C
331
5BE6D
  5
5BE6D
331
5C405
  5
5C406
331
5C4D7
  5
5C4D8
331
5C3DF
  5
5C3E0
331
5BE56
  5
5BE56
331
3E4C2
  5
3E891
331
32D1E
  5
32D3B
331
3DF55
  5
3E488
331
3E49B
  5
3E535
331
5C4F7
  5
5C4F8
331
5BE8D
  5
5BE8D
331
5BE6E
  5
5BE6E
331
5C406
  5
5C40D
331
5C4D8
  5
5C4D9
331
5BE57
  5
5BE57
331
3E4C3
  5
3E892
331
3E47D
  5
3E4A4
331
32D1F
  5
32D3C
331
3DF56
  5
3E489
331
3E49C
  5
3E536
331
5C50F
  5
5C510
331
5C4F8
  5
5C4F9
331
5BE8E
  5
5BE8E
331
5BE58
  5
5BE58
331
5BE6F
  5
5BE6F
331
5C4D9
  5
5C4DA
331
3E49D
  5
3E537
331
3DF57
  5
3E48A
331
5C510
  5
5C511
331
5C4DA
  5
5C4DB
331
5C4F9
  5
5C4FA
331
5BE59
  5
5BE59
331
5BE70
  5
5BE70
331
3E49E
  5
3E540
331
3DF58
  5
3E48B
331
32D21
  5
32D3E
331
3E47F
  5
3E4A5
331
5C511
  5
5C512
331
5C4DB
  5
5C4DC
331
5C4FA
  5
5C50D
331
5BE5A
  5
5BE5A
331
5BE71
  5
5BE71
331
3E49F
  5
3E543
331
3DF59
  5
3E48C
331
3E480
  5
3E4A6
331
5BE72
  5
5BE72
331
5C4DC
  5
5C4DD
331
5BE5B
  5
5BE5B
331
5C512
  5
5C514
331
3DF5A
  5
3E48D
331
3E481
  5
3E4A7
331
3E4C7
  5
3E893
331
5BE73
  5
5BE73
331
5C4DD
  5
5C4DE
331
5BE5C
  5
5BE5C
331
3EB27
  5
3EB58
331
3DF5B
  5
3E48E
331
3E482
  5
3E4A8
331
5BE74
  5
5BE74
331
5C4DE
  5
5C4DF
331
5BE5D
  5
5BE5D
331
5C514
  5
5C515
331
3E483
  5
3E4A9
331
3EB57
  5
3EB8C
331
3DF5C
  5
3E48F
331
3ED19
  5
3F04B
331
5BE75
  5
5BE75
331
5C40D
  5
5C40E
331
5C4DF
  5
5C4E0
331
5BE5E
  5
5BE5E
331
5C515
  5
5C516
331
3EB58
  5
3EB8D
331
3E484
  5
3E4AA
331
3DF5D
  5
3E490
331
3EB29
  5
3EB5A
331
3ED1A
  5
3F04D
331
3ED49
  5
3F04F
331
5BE76
  5
5BE76
331
5C40E
  5
5C40F
331
5C4E0
  5
5C4E1
331
5BE5F
  5
5BE5F
331
5C516
  5
5C517
331
3E485
  5
3E4AB
331
3E4FB
  5
3E894
331
3EB59
  5
3EB8E
331
3DF5E
  5
3E491
331
3ED4A
  5
3F050
331
5C517
  5
5C518
331
5BE77
  5
5BE77
331
5C40F
  5
5C410
331
5C4E1
  5
5C4E2
331
3E486
  5
3E4AC
331
3EB5A
  5
3EB8F
331
3DF5F
  5
3E492
331
3ED4B
  5
3F051
331
5C518
  5
5C519
331
5BE78
  5
5BE78
331
5C410
  5
5C411
331
5C4E2
  5
5C4E3
331
3E487
  5
3E4AD
331
3EB5B
  5
3EB90
331
3ED4C
  5
3F052
331
5C4E3
  5
5C4E4
331
5C519
  5
5C51A
331
5BE79
  5
5BE79
331
5C411
  5
5C412
331
3EB5C
  5
3EB91
331
5C412
  5
5C413
331
5C4E4
  5
5C4E5
331
5C51A
  5
5C51B
331
5BE7A
  5
5BE7A
331
5183F
  5
B5AD
331
3EB5D
  5
3EB92
331
5BE7B
  5
5BE7B
331
5C413
  5
5C414
331
5C4E5
  5
5C4E6
331
5C51B
  5
5C51C
331
51840
  5
B5AE
331
3EB5E
  5
3EB93
331
3EF5C
  5
3F055
331
5BE7C
  5
5BE7C
331
5C414
  5
5C415
331
5C4E6
  5
5C4E7
331
5C51C
  5
5C51D
331
51841
  5
B5E2
331
5B7F7
  5
5B7F7
331
5BE7D
  5
5BE7D
331
5C415
  5
5C416
331
5C4E7
  5
5C4E8
331
51842
  5
B5E3
331
5BE7E
  5
5BE7E
331
5C416
  5
5C417
331
5C4E8
  5
5C4E9
331
5BE7F
  5
5BE7F
331
5C417
  5
5C418
331
5C4E9
  5
5C4EA
331
55309
  5
5552A
331
3EE19
  5
3F054
331
4E0E8
  5
4E1D3
331
5C4EA
  5
5C4EB
331
4E0E9
  5
4E1D4
331
5C521
  5
5C522
331
5C4EB
  5
5C4EC
331
538D4
  5
53B01
331
53885
  5
53AEB
331
4E0EA
  5
4E1D5
331
5C4EC
  5
5C4ED
331
5C522
  5
5C523
331
538D5
  5
53B02
331
5976B
  5
59775
331
4E0EB
  5
4E1D6
331
5C4ED
  5
5C4EE
331
5C523
  5
5C3DF
331
538D6
  5
53B03
331
5976C
  5
59776
331
5C4EE
  5
5C4EF
331
538D7
  5
53B05
331
5976D
  5
59777
331
5C4EF
  5
5C4F0
331
5184A
  5
B8D5
331
5976E
  5
59778
331
5184B
  5
B8D6
331
3EC47
  5
3F045
331
59770
  5
5977A
331
5184C
  5
B8D7
331
3EC48
  5
3F046
331
59771
  5
5979F
331
5184D
  5
B8D8
331
59772
  5
597B2
331
59773
  5
597B3
331
4E0F3
  5
4E1DE
331
3ECE9
  5
3F049
331
59774
  5
597C6
331
4E0F4
  5
4E1DF
331
3EC73
  5
3F047
331
3ECEA
  5
3F04A
331
552E7
  5
55529
331
59775
  5
597C7
331
4E0F5
  5
4E1E0
331
59776
  5
597C8
331
4E0F6
  5
4E1E1
331
59777
  5
597C9
331
5C3E0
  5
5C3E1
331
59778
  5
597CA
331
5979F
  5
597CD
331
5C3E1
  5
5C3E2
331
59779
  5
597CB
331
3EDDB
  5
3F053
331
5C3E2
  5
5C3E3
331
5977A
  5
597CC
331
5C3E3
  5
5C3E4
331
5C3E4
  5
5C3E5
331
5C3E5
  5
5C3E6
331
5C3E6
  5
5C3E7
331
5C3E7
  5
5C3E8
331
5C3E8
  5
5C3E9
331
31B30
  5
32738
331
5C3E9
  5
5C3EA
331
5C3CA
  5
5C3CA
331
31B31
  5
32739
331
5C3CB
  5
5C3CB
331
5C3EA
  5
5C3EB
331
31B32
  5
3273A
331
3DF60
  5
3E493
331
5C3CC
  5
5C3CC
331
5C3EB
  5
5C3EC
331
31B33
  5
3273B
331
3DF61
  5
3E494
331
3E488
  5
3E4C2
331
5C3CD
  5
5C3CD
331
5C3EC
  5
5C3ED
331
3E4A0
  5
3E544
331
3DF62
  5
3E495
331
3E489
  5
3E4C3
331
5C3CE
  5
5C3CE
331
5C3ED
  5
5C3EE
331
3E48A
  5
3E4C7
331
3DF63
  5
3E498
331
3E4A1
  5
3E548
331
34534
  5
3454C
331
5C3CF
  5
5C3CF
331
5C3EE
  5
5C3EF
331
3E529
  5
3E899
331
3E48B
  5
3E4FB
331
34535
  5
3454D
331
3DF64
  5
3E499
331
3E4A2
  5
3E549
331
5C3EF
  5
5C3F0
331
5C3D0
  5
5C3D0
331
3EBA8
  5
3EBE4
331
3E48C
  5
3E4FF
331
34536
  5
3454E
331
3DF65
  5
3E49A
331
3E4A3
  5
3E54E
331
3EB31
  5
3EB63
331
5C3F0
  5
5C3F1
331
5C3D1
  5
5C3D1
331
3E48D
  5
3E500
331
3DF66
  5
3E49B
331
3E4A4
  5
3E54F
331
3EBA9
  5
3EBE5
331
5BE60
  5
5BE60
331
5C3F1
  5
5C3F2
331
5C3D2
  5
5C3D2
331
5C3F8
  5
5C3F9
331
3E4A5
  5
3E888
331
3EBAA
  5
3EBE6
331
3E48E
  5
3E501
331
34538
  5
34550
331
3DF67
  5
3E49C
331
5C418
  5
5C419
331
5C3F9
  5
5C3FA
331
5BE61
  5
5BE61
331
5C3F2
  5
5C3F3
331
5BE80
  5
5BE80
331
5C3D3
  5
5C3D3
331
3EBAB
  5
3EBE8
331
3E4A6
  5
3E889
331
3E48F
  5
3E52D
331
3E52D
  5
3E89A
331
5C419
  5
5C41A
331
5C3FA
  5
5C3FB
331
5BE62
  5
5BE62
331
5C3D4
  5
5C3D4
331
5C3F3
  5
5C3F4
331
5BE81
  5
5BE81
331
3E4A7
  5
3E88A
331
31B3B
  5
3273C
331
3E490
  5
3E52E
331
3E52E
  5
3E89B
331
5BE82
  5
5BE82
331
5C3FB
  5
5C3FC
331
5BE63
  5
5BE63
331
5C3D5
  5
5C3D5
331
5C3F4
  5
5C3F5
331
5C41A
  5
5C41B
  0
XRECORD
  5
5C544
102
{ACAD_REACTORS
330
5C543
102
}
330
5C543
100
AcDbXrecord
280
     1
 70
     1
  0
LAYOUT
  5
22
102
{ACAD_XDICTIONARY
360
5C547
102
}
102
{ACAD_REACTORS
330
1A
102
}
330
1A
100
AcDbPlotSettings
  1

  2
FX DocuWide 2050/2051
  4
A3
  6
AM_VIEW1
 40
3.174999952316284
 41
3.174999952316284
 42
3.17498779296875
 43
3.17498779296875
 44
296.989501953125
 45
419.9889831542968
 46
0.0
 47
1.295841228961961
 48
214.3704939521119
 49
367.5855324241176
140
275.6727856380065
141
407.629191407817
142
1.0
143
0.7225445603030646
 70
  3764
 72
     1
 73
     1
 74
     2
  7
monochrome.ctb
 75
     0
147
1.383997686703999
148
-1700.85588156276
149
-1647.985052086429
100
AcDbLayout
  1
Model
 70
     1
 71
     0
 10
0.0
 20
0.0
 11
12.0
 21
9.0
 12
0.0
 22
0.0
 32
0.0
 14
0.0
 24
0.0
 34
0.0
 15
0.0
 25
0.0
 35
0.0
146
0.0
 13
0.0
 23
0.0
 33
0.0
 16
1.0
 26
0.0
 36
0.0
 17
0.0
 27
1.0
 37
0.0
 76
     0
330
1F
331
B0EC
1001
ACAD_PSEXT
1000
FX DocuWide 2050/2051
1000
FX DocuWide 2050/2051
1000
IP_192.200.15.252
1000

1070
     0
  0
LAYOUT
  5
1E
102
{ACAD_XDICTIONARY
360
5C545
102
}
102
{ACAD_REACTORS
330
1A
102
}
330
1A
100
AcDbPlotSettings
  1

  2
\\ML370\XEROX
  4
A4
  6

 40
3.174999952316284
 41
3.174999952316284
 42
3.175003051757812
 43
3.17498779296875
 44
209.8674926757813
 45
296.6719970703125
 46
0.0
 47
0.0
 48
0.0
 49
0.0
140
0.0
141
0.0
142
1.0
143
1.0
 70
   688
 72
     1
 73
     1
 74
     5
  7
monochrome.ctb
 75
    16
147
1.0
148
0.0
149
0.0
100
AcDbLayout
  1
ﾚｲｱｳﾄ1
 70
     1
 71
     1
 10
-3.17498779296875
 20
-3.174999952316284
 11
293.4970092773438
 21
206.692492723465
 12
0.0
 22
0.0
 32
0.0
 14
1.000000000000000E+20
 24
1.000000000000000E+20
 34
1.000000000000000E+20
 15
-1.000000000000000E+20
 25
-1.000000000000000E+20
 35
-1.000000000000000E+20
146
0.0
 13
0.0
 23
0.0
 33
0.0
 16
1.0
 26
0.0
 36
0.0
 17
0.0
 27
1.0
 37
0.0
 76
     0
330
1B
  0
LAYOUT
  5
26
102
{ACAD_XDICTIONARY
360
5C549
102
}
102
{ACAD_REACTORS
330
1A
102
}
330
1A
100
AcDbPlotSettings
  1

  2
\\ML370\XEROX
  4

  6

 40
0.0
 41
0.0
 42
0.0
 43
0.0
 44
0.0
 45
0.0
 46
0.0
 47
0.0
 48
0.0
 49
0.0
140
0.0
141
0.0
142
1.0
143
1.0
 70
   688
 72
     0
 73
     0
 74
     5
  7
monochrome.ctb
 75
    16
147
1.0
148
0.0
149
0.0
100
AcDbLayout
  1
ﾚｲｱｳﾄ2
 70
     1
 71
     2
 10
0.0
 20
0.0
 11
12.0
 21
9.0
 12
0.0
 22
0.0
 32
0.0
 14
0.0
 24
0.0
 34
0.0
 15
0.0
 25
0.0
 35
0.0
146
0.0
 13
0.0
 23
0.0
 33
0.0
 16
1.0
 26
0.0
 36
0.0
 17
0.0
 27
1.0
 37
0.0
 76
     0
330
23
  0
MATERIAL
  5
B0EF
102
{ACAD_XDICTIONARY
360
5C54F
102
}
102
{ACAD_REACTORS
330
A91C
102
}
330
A91C
100
AcDbMaterial
  1
ByBlock
  0
MATERIAL
  5
B0EE
102
{ACAD_XDICTIONARY
360
5C54D
102
}
102
{ACAD_REACTORS
330
A91C
102
}
330
A91C
100
AcDbMaterial
  1
ByLayer
  0
MATERIAL
  5
B0F0
102
{ACAD_XDICTIONARY
360
5C551
102
}
102
{ACAD_REACTORS
330
A91C
102
}
330
A91C
100
AcDbMaterial
  1
Global
  0
MLINESTYLE
  5
18
102
{ACAD_REACTORS
330
17
102
}
330
17
100
AcDbMlineStyle
  2
STANDARD
 70
     0
  3

 62
   256
 51
90.0
 52
90.0
 71
     2
 49
0.5
 62
   256
  6
BYLAYER
 49
-0.5
 62
   256
  6
BYLAYER
  0
ACDBPLACEHOLDER
  5
F
102
{ACAD_REACTORS
330
E
102
}
330
E
  0
TABLESTYLE
  5
AABA
102
{ACAD_XDICTIONARY
360
5C54B
102
}
102
{ACAD_REACTORS
330
AAB9
102
}
330
AAB9
100
AcDbTableStyle
  3
Standard
 70
     0
 71
     0
 40
1.5
 41
1.5
280
     0
281
     0
  7
STANDARD
140
4.5
170
     2
 62
     0
 63
     7
283
     0
274
    -2
284
     1
 64
     0
275
    -2
285
     1
 65
     0
276
    -2
286
     1
 66
     0
277
    -2
287
     1
 67
     0
278
    -2
288
     1
 68
     0
279
    -2
289
     1
 69
     0
  7
STANDARD
140
6.0
170
     5
 62
     0
 63
     7
283
     0
274
    -2
284
     1
 64
     0
275
    -2
285
     1
 65
     0
276
    -2
286
     1
 66
     0
277
    -2
287
     1
 67
     0
278
    -2
288
     1
 68
     0
279
    -2
289
     1
 69
     0
  7
STANDARD
140
4.5
170
     5
 62
     0
 63
     7
283
     0
274
    -2
284
     1
 64
     0
275
    -2
285
     1
 65
     0
276
    -2
286
     1
 66
     0
277
    -2
287
     1
 67
     0
278
    -2
288
     1
 68
     0
279
    -2
289
     1
 69
     0
  0
VISUALSTYLE
  5
B0F7
102
{ACAD_REACTORS
330
B0F1
102
}
330
B0F1
100
AcDbVisualStyle
  2
2dWireframe
 70
     4
 71
     0
 72
     2
 73
     0
 90
        0
 40
-0.6
 41
-30.0
 62
     5
 63
     7
 74
     1
 91
        4
 64
     7
 65
   257
 75
     1
175
     1
 42
1.0
 92
        0
 66
   257
 43
1.0
 76
     1
 77
     6
 78
     2
 67
     7
 79
     5
170
     0
171
     0
290
     0
174
     0
 93
        1
 44
0.0
173
     0
291
     0
 45
0.0
1001
ACAD
1000
AcDbSavedByObjectVersion
1070
     0
  0
VISUALSTYLE
  5
B0F9
102
{ACAD_REACTORS
330
B0F1
102
}
330
B0F1
100
AcDbVisualStyle
  2
3D Hidden
 70
     6
 71
     1
 72
     2
 73
     2
 90
        0
 40
-0.6
 41
-30.0
 62
     5
 63
     7
 74
     2
 91
        2
 64
     7
 65
   257
 75
     2
175
     1
 42
40.0
 92
        0
 66
   257
 43
1.0
 76
     1
 77
     6
 78
     2
 67
     7
 79
     3
170
     0
171
     0
290
     0
174
     0
 93
        1
 44
0.0
173
     0
291
     0
 45
0.0
1001
ACAD
1000
AcDbSavedByObjectVersion
1070
     0
  0
VISUALSTYLE
  5
B0F8
102
{ACAD_REACTORS
330
B0F1
102
}
330
B0F1
100
AcDbVisualStyle
  2
3dWireframe
 70
     5
 71
     0
 72
     2
 73
     0
 90
        0
 40
-0.6
 41
-30.0
 62
     5
 63
     7
 74
     1
 91
        4
 64
     7
 65
   257
 75
     1
175
     1
 42
1.0
 92
        0
 66
   257
 43
1.0
 76
     1
 77
     6
 78
     2
 67
     7
 79
     5
170
     0
171
     0
290
     0
174
     0
 93
        1
 44
0.0
173
     0
291
     0
 45
0.0
1001
ACAD
1000
AcDbSavedByObjectVersion
1070
     0
  0
VISUALSTYLE
  5
B0F6
102
{ACAD_REACTORS
330
B0F1
102
}
330
B0F1
100
AcDbVisualStyle
  2
Basic
 70
     7
 71
     1
 72
     0
 73
     1
 90
        0
 40
-0.6
 41
-30.0
 62
     5
 63
     7
 74
     0
 91
        4
 64
     7
 65
   257
 75
     1
175
     1
 42
1.0
 92
        8
 66
     7
 43
1.0
 76
     1
 77
     6
 78
     2
 67
     7
 79
     5
170
     0
171
     0
290
     0
174
     0
 93
        1
 44
0.0
173
     0
291
     1
 45
0.0
1001
ACAD
1000
AcDbSavedByObjectVersion
1070
     0
  0
VISUALSTYLE
  5
B0FD
102
{ACAD_REACTORS
330
B0F1
102
}
330
B0F1
100
AcDbVisualStyle
  2
Brighten
 70
    12
 71
     2
 72
     2
 73
     0
 90
        0
 40
-0.6
 41
-30.0
 62
     5
 63
     7
 74
     1
 91
        4
 64
     7
 65
   257
 75
     1
175
     1
 42
1.0
 92
        8
 66
     7
 43
1.0
 76
     1
 77
     6
 78
     2
 67
     7
 79
     5
170
     0
171
     0
290
     0
174
     0
 93
        1
 44
50.0
173
     0
291
     1
 45
0.0
1001
ACAD
1000
AcDbSavedByObjectVersion
1070
     0
  0
VISUALSTYLE
  5
B101
102
{ACAD_REACTORS
330
B0F1
102
}
330
B0F1
100
AcDbVisualStyle
  2
ColorChange
 70
    16
 71
     2
 72
     2
 73
     3
 90
        0
 40
-0.6
 41
-30.0
 62
     5
 63
     8
 74
     1
 91
        4
 64
     7
 65
   257
 75
     1
175
     1
 42
1.0
 92
        8
 66
     8
 43
1.0
 76
     1
 77
     6
 78
     2
 67
     7
 79
     5
170
     0
171
     0
290
     0
174
     0
 93
        1
 44
0.0
173
     0
291
     1
 45
0.0
1001
ACAD
1000
AcDbSavedByObjectVersion
1070
     0
  0
VISUALSTYLE
  5
B0FA
102
{ACAD_REACTORS
330
B0F1
102
}
330
B0F1
100
AcDbVisualStyle
  2
Conceptual
 70
     9
 71
     3
 72
     2
 73
     0
 90
        0
 40
-0.6
 41
-30.0
 62
     5
 63
     7
 74
     2
 91
        2
 64
     7
 65
   257
 75
     1
175
     1
 42
40.0
 92
        8
 66
     7
 43
1.0
 76
     1
 77
     6
 78
     2
 67
     7
 79
     3
170
     0
171
     0
290
     0
174
     0
 93
        1
 44
0.0
173
     0
291
     0
 45
0.0
1001
ACAD
1000
AcDbSavedByObjectVersion
1070
     0
  0
VISUALSTYLE
  5
B0FC
102
{ACAD_REACTORS
330
B0F1
102
}
330
B0F1
100
AcDbVisualStyle
  2
Dim
 70
    11
 71
     2
 72
     2
 73
     0
 90
        0
 40
-0.6
 41
-30.0
 62
     5
 63
     7
 74
     1
 91
        4
 64
     7
 65
   257
 75
     1
175
     1
 42
1.0
 92
        8
 66
     7
 43
1.0
 76
     1
 77
     6
 78
     2
 67
     7
 79
     5
170
     0
171
     0
290
     0
174
     0
 93
        1
 44
-50.0
173
     0
291
     1
 45
0.0
1001
ACAD
1000
AcDbSavedByObjectVersion
1070
     0
  0
VISUALSTYLE
  5
B100
102
{ACAD_REACTORS
330
B0F1
102
}
330
B0F1
100
AcDbVisualStyle
  2
Facepattern
 70
    15
 71
     2
 72
     2
 73
     0
 90
        0
 40
-0.6
 41
-30.0
 62
     5
 63
     7
 74
     1
 91
        4
 64
     7
 65
   257
 75
     1
175
     1
 42
1.0
 92
        8
 66
     7
 43
1.0
 76
     1
 77
     6
 78
     2
 67
     7
 79
     5
170
     0
171
     0
290
     0
174
     0
 93
        1
 44
0.0
173
     0
291
     1
 45
0.0
1001
ACAD
1000
AcDbSavedByObjectVersion
1070
     0
  0
VISUALSTYLE
  5
B0F2
102
{ACAD_REACTORS
330
B0F1
102
}
330
B0F1
100
AcDbVisualStyle
  2
Flat
 70
     0
 71
     2
 72
     1
 73
     1
 90
        2
 40
-0.6
 41
30.0
 62
     5
 63
     7
 74
     0
 91
        4
 64
     7
 65
   257
 75
     1
175
     1
 42
1.0
 92
        8
 66
     7
 43
1.0
 76
     1
 77
     6
 78
     2
 67
     7
 79
     5
170
     0
171
     0
290
     0
174
     0
 93
       13
 44
0.0
173
     0
291
     1
 45
0.0
1001
ACAD
1000
AcDbSavedByObjectVersion
1070
     0
  0
VISUALSTYLE
  5
B0F3
102
{ACAD_REACTORS
330
B0F1
102
}
330
B0F1
100
AcDbVisualStyle
  2
FlatWithEdges
 70
     1
 71
     2
 72
     1
 73
     1
 90
        2
 40
-0.6
 41
30.0
 62
     5
 63
     7
 74
     1
 91
        4
 64
     7
 65
   257
 75
     1
175
     1
 42
1.0
 92
        0
 66
   257
 43
1.0
 76
     1
 77
     6
 78
     2
 67
     7
 79
     5
170
     0
171
     0
290
     0
174
     0
 93
       13
 44
0.0
173
     0
291
     1
 45
0.0
1001
ACAD
1000
AcDbSavedByObjectVersion
1070
     0
  0
VISUALSTYLE
  5
B0F4
102
{ACAD_REACTORS
330
B0F1
102
}
330
B0F1
100
AcDbVisualStyle
  2
Gouraud
 70
     2
 71
     2
 72
     2
 73
     1
 90
        2
 40
-0.6
 41
30.0
 62
     5
 63
     7
 74
     0
 91
        4
 64
     7
 65
   257
 75
     1
175
     1
 42
1.0
 92
        0
 66
     7
 43
1.0
 76
     1
 77
     6
 78
     2
 67
     7
 79
     5
170
     0
171
     0
290
     0
174
     0
 93
       13
 44
0.0
173
     0
291
     1
 45
0.0
1001
ACAD
1000
AcDbSavedByObjectVersion
1070
     0
  0
VISUALSTYLE
  5
B0F5
102
{ACAD_REACTORS
330
B0F1
102
}
330
B0F1
100
AcDbVisualStyle
  2
GouraudWithEdges
 70
     3
 71
     2
 72
     2
 73
     1
 90
        2
 40
-0.6
 41
30.0
 62
     5
 63
     7
 74
     1
 91
        4
 64
     7
 65
   257
 75
     1
175
     1
 42
1.0
 92
        0
 66
   257
 43
1.0
 76
     1
 77
     6
 78
     2
 67
     7
 79
     5
170
     0
171
     0
290
     0
174
     0
 93
       13
 44
0.0
173
     0
291
     1
 45
0.0
1001
ACAD
1000
AcDbSavedByObjectVersion
1070
     0
  0
VISUALSTYLE
  5
B0FF
102
{ACAD_REACTORS
330
B0F1
102
}
330
B0F1
100
AcDbVisualStyle
  2
Linepattern
 70
    14
 71
     2
 72
     2
 73
     0
 90
        0
 40
-0.6
 41
-30.0
 62
     5
 63
     7
 74
     1
 91
        4
 64
     7
 65
   257
 75
     7
175
     7
 42
1.0
 92
        8
 66
     7
 43
1.0
 76
     1
 77
     6
 78
     2
 67
     7
 79
     5
170
     0
171
     0
290
     0
174
     0
 93
        1
 44
0.0
173
     0
291
     1
 45
0.0
1001
ACAD
1000
AcDbSavedByObjectVersion
1070
     0
  0
VISUALSTYLE
  5
B0FB
102
{ACAD_REACTORS
330
B0F1
102
}
330
B0F1
100
AcDbVisualStyle
  2
Realistic
 70
     8
 71
     2
 72
     2
 73
     0
 90
        0
 40
-0.6
 41
-30.0
 62
     5
 63
     7
 74
     1
 91
        0
 64
     7
 65
   257
 75
     1
175
     1
 42
1.0
 92
        8
 66
     8
 43
1.0
 76
     1
 77
     6
 78
     2
 67
     7
 79
     5
170
     0
171
     0
290
     0
174
     0
 93
       13
 44
0.0
173
     0
291
     0
 45
0.0
1001
ACAD
1000
AcDbSavedByObjectVersion
1070
     0
  0
VISUALSTYLE
  5
B0FE
102
{ACAD_REACTORS
330
B0F1
102
}
330
B0F1
100
AcDbVisualStyle
  2
Thicken
 70
    13
 71
     2
 72
     2
 73
     0
 90
        0
 40
-0.6
 41
-30.0
 62
     5
 63
     7
 74
     1
 91
        4
 64
     7
 65
   257
 75
     1
175
     1
 42
1.0
 92
       12
 66
     7
 43
1.0
 76
     1
 77
     6
 78
     2
 67
     7
 79
     5
170
     0
171
     0
290
     0
174
     0
 93
        1
 44
0.0
173
     0
291
     1
 45
0.0
1001
ACAD
1000
AcDbSavedByObjectVersion
1070
     0
  0
DICTIONARYVAR
  5
AAF3
102
{ACAD_REACTORS
330
34
102
}
330
34
100
DictionaryVariables
280
     0
  1
STANDARD
  0
DICTIONARYVAR
  5
A10C
102
{ACAD_REACTORS
330
34
102
}
330
34
100
DictionaryVariables
280
     0
  1
1
  0
DICTIONARYVAR
  5
AB07
102
{ACAD_REACTORS
330
34
102
}
330
34
100
DictionaryVariables
280
     0
  1
4
  0
DICTIONARYVAR
  5
35
102
{ACAD_REACTORS
330
34
102
}
330
34
100
DictionaryVariables
280
     0
  1
0
  0
DICTIONARYVAR
  5
194C
102
{ACAD_REACTORS
330
34
102
}
330
34
100
DictionaryVariables
280
     0
  1
127
  0
DICTIONARY
  5
7E8
102
{ACAD_REACTORS
330
47
102
}
330
47
100
AcDbDictionary
281
     1
  0
DICTIONARY
  5
4C
102
{ACAD_REACTORS
330
47
102
}
330
47
100
AcDbDictionary
281
     1
  0
XRECORD
  5
A929
102
{ACAD_REACTORS
330
47
102
}
330
47
100
AcDbXrecord
280
     1
 90
-1023410169
  0
XRECORD
  5
57913
102
{ACAD_REACTORS
330
57912
102
}
330
57912
100
AcDbXrecord
280
     1
330
0
330
0
330
0
330
0
330
0
330
0
330
0
330
0
330
0
330
0
330
0
330
0
330
0
330
0
330
0
330
0
330
0
330
0
330
0
330
0
330
0
330
0
330
0
330
0
330
0
330
0
330
0
330
0
330
0
330
0
330
0
330
0
330
0
330
0
330
0
330
0
330
0
330
0
330
0
330
0
330
0
330
0
330
0
330
0
330
0
330
0
330
0
330
0
330
0
330
0
330
0
330
0
330
0
330
0
330
0
330
0
330
0
330
0
330
0
330
0
330
0
330
0
330
0
330
0
330
0
330
0
330
0
330
0
330
0
330
0
330
0
330
0
330
0
330
0
330
0
330
0
330
0
330
0
330
0
330
0
330
0
330
0
330
0
330
0
330
0
330
0
330
0
330
0
330
0
330
0
330
0
330
0
330
0
330
0
330
0
330
0
330
0
330
0
330
0
330
0
330
0
330
0
330
0
330
0
330
0
330
0
330
0
330
0
330
0
330
0
330
0
330
0
330
0
330
0
330
0
330
0
330
0
330
0
330
0
330
0
330
0
330
0
330
0
330
0
330
0
330
0
330
0
330
0
330
0
330
0
330
0
330
0
330
0
330
0
330
0
330
0
330
0
330
0
330
0
330
0
330
0
330
0
330
0
330
0
330
0
330
0
330
0
330
0
330
0
330
0
330
0
330
0
330
0
330
0
330
0
330
0
330
0
330
0
330
0
330
0
330
0
330
0
330
0
330
0
330
0
330
0
330
0
330
0
330
0
330
0
330
0
330
0
330
0
330
0
330
0
330
0
330
0
330
0
330
0
330
0
330
0
330
0
330
0
330
0
330
0
330
0
330
0
330
0
330
0
330
0
330
0
330
0
330
0
330
0
330
0
330
0
330
0
330
0
330
0
330
0
330
0
330
0
330
0
330
0
330
0
330
0
330
0
330
0
330
0
330
0
330
0
330
0
330
0
330
0
330
0
330
0
330
0
330
0
330
0
330
0
330
0
330
0
330
0
330
0
330
0
330
0
330
0
330
0
330
0
330
0
330
0
330
0
330
0
330
0
330
0
330
0
330
0
330
0
330
0
330
0
330
0
330
0
330
0
330
0
330
0
330
0
330
0
330
0
330
0
330
0
330
0
330
0
330
0
330
0
330
0
330
0
330
0
330
0
330
0
330
0
330
0
330
0
330
0
330
0
330
0
330
0
330
0
330
0
330
0
330
0
330
0
330
0
330
0
330
0
330
0
330
0
330
0
330
0
330
0
330
0
330
0
330
0
330
0
330
0
330
0
330
0
330
0
330
0
330
0
330
0
330
0
330
0
330
0
330
0
330
0
330
0
330
0
330
0
330
0
330
0
330
0
330
0
330
0
330
0
330
0
330
0
330
0
330
0
330
0
330
0
330
0
330
0
330
0
330
0
330
0
330
0
330
0
330
0
330
0
330
0
330
0
330
0
330
0
330
0
330
0
330
0
330
0
330
0
330
0
330
0
330
0
330
0
330
0
330
0
330
0
330
0
330
0
330
0
330
0
330
0
330
0
330
0
330
0
330
0
330
0
330
0
330
0
330
0
330
0
330
0
330
0
330
0
330
0
330
0
330
0
330
0
330
0
330
0
330
0
330
0
330
0
330
0
330
0
330
0
330
0
330
0
330
0
330
0
330
0
330
0
330
0
330
0
330
0
330
0
330
0
330
0
330
0
330
0
330
0
330
0
330
0
330
0
330
0
330
0
330
0
330
0
330
0
330
0
330
0
330
0
330
0
330
0
330
0
330
0
330
0
330
0
330
0
330
0
330
0
330
0
330
0
330
0
330
0
330
0
330
0
330
0
330
0
330
0
330
0
330
0
330
0
330
0
330
0
330
0
330
0
330
0
330
0
330
0
330
0
330
0
330
0
330
0
330
0
330
0
330
0
330
0
330
0
330
0
330
0
330
0
330
0
330
0
330
0
330
0
330
0
330
0
330
0
330
0
330
0
330
0
330
0
330
0
330
0
330
0
330
0
330
0
330
0
330
0
330
0
330
0
330
0
330
0
330
0
330
0
330
0
330
0
330
0
330
0
330
0
330
0
330
0
330
0
330
0
330
0
330
0
330
0
330
0
330
0
330
0
330
0
330
0
330
0
330
0
330
0
330
0
330
0
330
0
330
0
330
0
330
0
330
0
330
0
330
0
330
0
330
0
330
0
330
0
330
0
330
0
330
0
330
0
330
0
330
0
330
0
330
0
330
0
330
0
330
0
330
0
330
0
330
0
330
0
330
0
330
0
330
0
330
0
330
0
330
0
330
0
330
0
330
0
330
0
330
0
330
0
330
0
330
0
330
0
330
0
330
0
330
0
330
0
330
0
330
0
330
0
330
0
330
0
330
0
330
0
330
0
330
0
330
0
330
0
330
0
330
0
330
0
330
0
330
0
330
0
330
0
330
0
330
0
330
0
330
0
330
0
330
0
330
0
330
0
330
5387D
330
5387E
330
0
330
0
330
0
330
0
330
0
330
0
330
0
330
0
330
0
330
0
330
0
330
0
330
0
330
0
330
0
330
0
330
0
330
0
330
538CC
330
538CD
330
0
330
0
330
0
330
0
330
0
330
0
330
0
330
0
330
0
330
0
330
0
330
0
330
0
330
0
330
0
330
0
330
0
330
0
330
0
330
0
330
0
330
0
330
0
330
0
330
0
330
0
330
0
330
0
330
0
330
0
330
0
330
0
330
0
330
0
330
0
330
0
330
0
330
0
330
0
330
0
330
0
330
0
330
0
330
0
330
0
330
0
330
0
330
0
330
0
330
0
330
0
330
0
330
0
330
0
330
0
330
0
330
0
330
0
330
0
330
0
330
0
330
0
330
0
330
0
330
0
330
0
330
0
330
0
330
0
330
0
330
0
330
0
330
0
330
0
330
0
330
0
330
0
330
0
330
0
330
0
330
0
330
0
330
0
330
0
330
0
330
0
330
0
330
0
330
0
330
0
330
0
330
0
330
0
330
0
330
0
330
0
330
0
330
0
330
0
330
0
330
0
330
0
330
0
330
0
330
0
330
0
330
0
330
0
330
0
330
0
330
0
330
0
330
0
330
0
330
0
330
0
330
0
330
0
330
0
330
0
330
0
330
0
330
0
330
0
330
0
330
0
330
0
330
0
330
0
330
0
330
0
330
0
330
0
330
0
330
0
330
0
330
0
330
0
330
0
330
0
330
0
330
0
330
0
330
0
330
0
330
0
330
0
330
0
330
0
330
0
330
0
330
0
330
0
330
0
330
0
330
0
330
0
330
0
330
0
330
0
330
0
330
0
330
0
330
0
330
0
330
0
330
0
330
0
330
0
330
0
330
0
330
0
330
0
330
0
330
0
330
0
330
0
330
0
330
0
330
0
330
0
330
0
330
0
330
0
330
0
330
0
330
0
330
0
330
0
330
0
330
0
330
0
330
0
330
0
330
0
330
0
330
0
330
0
330
0
330
0
330
0
330
0
330
0
330
0
330
0
330
0
330
0
330
0
330
0
330
0
330
0
330
0
330
0
330
0
330
0
330
0
330
0
330
0
330
0
330
0
330
0
330
0
330
0
330
0
330
0
330
0
330
0
330
0
330
0
330
0
330
0
330
0
330
0
330
0
330
0
330
0
330
0
330
0
330
0
330
0
330
0
330
0
330
0
330
0
330
0
330
0
330
0
330
0
330
0
330
0
330
0
330
0
330
0
330
0
330
0
330
0
330
0
330
0
330
0
330
0
330
0
330
0
330
0
330
0
330
0
330
0
330
0
330
0
330
0
330
0
330
0
330
0
330
0
330
0
330
0
330
0
330
0
330
0
330
0
330
0
330
0
330
0
330
0
330
0
330
0
330
0
330
0
330
0
330
0
330
0
330
0
330
0
330
0
330
0
330
0
330
0
330
0
330
0
330
0
330
0
330
0
330
0
330
0
330
0
330
0
330
0
330
0
330
0
330
0
330
0
330
0
330
0
330
0
330
0
330
0
330
0
330
0
330
0
330
0
330
0
330
0
330
0
330
0
330
0
330
0
330
0
330
0
330
0
330
0
330
0
330
0
330
0
330
0
330
0
330
0
330
0
330
0
330
0
330
0
330
0
330
0
330
0
330
0
330
0
330
0
330
0
330
0
330
0
330
0
330
0
330
0
330
0
330
0
330
0
330
0
330
0
330
0
330
0
330
0
330
0
330
0
330
0
330
0
330
0
330
0
330
0
330
0
330
0
330
0
330
0
330
0
330
0
330
0
330
0
330
0
330
0
330
0
330
0
330
0
330
0
330
0
330
0
330
0
330
0
330
0
330
0
330
0
330
0
330
0
330
0
330
0
330
0
330
0
330
0
330
0
330
0
330
0
330
0
330
0
330
0
330
0
330
0
330
0
330
0
330
0
330
0
330
0
330
0
330
0
330
0
330
0
330
0
330
0
330
0
330
0
330
0
330
0
330
0
330
0
330
0
330
0
330
0
330
0
330
0
330
0
330
0
330
0
330
0
330
0
330
0
330
0
330
0
330
0
330
0
330
0
330
0
330
0
330
0
330
0
330
0
330
0
330
0
330
0
330
0
330
0
330
0
330
0
330
0
330
0
330
0
330
0
330
0
330
0
330
0
330
0
330
0
330
0
330
0
330
0
330
0
330
0
330
0
330
0
330
0
330
0
330
0
330
0
330
0
330
0
330
0
330
0
330
0
330
0
330
0
330
0
330
0
330
0
330
0
330
0
330
0
330
0
330
0
330
0
330
0
330
0
330
0
330
0
330
0
330
0
330
0
330
0
330
0
330
0
330
0
330
0
330
0
330
0
330
0
330
0
330
0
330
0
330
0
330
0
330
0
330
0
330
0
330
0
330
0
330
0
330
0
330
0
330
0
330
0
330
0
330
0
330
0
330
0
330
0
330
0
330
0
330
0
330
0
330
0
330
0
330
0
330
0
330
0
330
0
330
0
330
0
330
0
330
0
330
0
330
0
330
0
330
0
330
0
330
0
330
0
330
0
330
0
330
0
330
0
330
0
330
0
330
0
330
0
330
0
330
0
330
0
330
0
330
0
330
0
330
0
330
0
330
0
330
0
330
0
330
0
330
0
330
0
330
0
330
0
330
0
330
0
330
0
330
0
330
0
330
0
330
0
330
0
330
0
330
0
330
0
330
0
330
0
330
0
330
0
330
0
330
0
330
0
330
0
330
0
330
0
330
0
330
0
330
0
330
0
330
0
330
0
330
0
330
0
330
0
330
0
330
0
330
0
330
0
330
0
330
0
330
0
330
0
330
0
330
0
330
0
330
0
330
0
330
0
330
0
330
0
330
0
330
0
330
0
330
0
330
0
330
0
330
0
330
0
330
0
330
0
330
0
330
0
330
0
330
0
330
0
330
0
330
0
330
0
330
0
330
0
330
0
330
0
330
0
330
0
330
0
330
0
330
0
330
0
330
0
330
0
330
0
330
0
330
0
330
0
330
0
330
0
330
0
330
0
330
0
330
0
330
0
330
0
330
0
330
0
330
0
330
0
330
0
330
0
330
0
330
0
330
0
330
0
330
0
330
0
330
0
330
0
330
0
330
0
330
0
330
0
330
0
330
0
330
0
330
0
330
0
330
0
330
0
330
0
330
0
330
0
330
0
330
0
330
0
330
0
330
0
330
0
330
0
330
0
330
0
330
0
330
0
330
0
330
0
330
0
330
0
330
0
330
0
330
0
330
0
330
0
330
0
330
0
330
0
330
0
330
0
330
0
330
0
330
0
330
0
330
0
330
0
330
0
330
0
330
0
330
0
330
0
330
0
330
0
330
0
330
0
330
0
330
0
330
0
330
0
330
0
330
0
330
0
330
0
330
0
330
0
330
0
330
0
330
0
330
0
330
0
330
0
330
0
330
0
330
0
330
0
330
0
330
0
330
0
330
0
330
0
330
0
330
0
330
0
330
0
330
0
330
0
330
0
330
0
330
0
330
0
330
0
330
0
330
0
330
0
330
0
330
0
330
0
330
0
330
0
330
0
330
0
330
0
330
0
330
0
330
0
330
0
330
0
330
0
330
0
330
0
330
0
330
0
330
0
330
0
330
0
330
0
330
0
330
0
330
0
330
0
330
0
330
0
330
0
330
0
330
0
330
0
330
0
330
0
330
0
330
0
330
0
330
0
330
0
330
0
330
0
330
0
330
0
330
0
330
0
330
0
330
0
330
0
330
0
330
0
330
0
330
0
330
0
330
0
330
0
330
0
330
0
330
0
330
0
330
0
330
0
330
0
330
0
330
0
330
0
330
0
330
0
330
0
330
0
330
0
330
0
330
0
330
0
330
0
330
0
330
0
330
0
330
0
330
0
330
0
330
0
330
0
330
0
330
0
330
0
330
0
330
0
330
0
330
0
330
0
330
0
330
0
330
0
330
0
330
0
330
0
330
0
330
0
330
0
330
0
330
0
330
0
330
0
330
0
330
0
330
0
330
0
330
0
330
0
330
0
330
0
330
0
330
0
330
0
330
0
330
0
330
0
330
0
330
0
330
0
330
0
330
0
330
0
330
0
330
0
330
0
330
0
330
0
330
0
330
0
330
0
330
0
330
0
330
0
330
0
330
0
330
0
330
0
330
0
330
0
330
0
330
0
330
0
330
0
330
0
330
0
330
0
330
0
330
0
330
0
330
0
330
0
330
0
330
0
330
0
330
0
330
0
330
0
330
0
330
0
330
0
330
0
330
0
330
0
330
0
330
0
330
0
330
0
330
0
330
0
330
0
330
0
330
0
330
0
330
0
330
0
330
0
330
0
330
0
330
0
330
0
330
0
330
0
330
0
330
0
330
0
330
0
330
0
330
0
330
0
330
0
330
0
330
0
330
0
330
0
330
0
330
0
330
0
330
0
330
0
330
0
330
0
330
0
330
0
330
0
330
0
330
0
330
0
330
0
330
0
330
0
330
0
330
0
330
0
330
0
330
0
330
0
330
0
330
0
330
0
330
0
330
0
330
0
330
0
330
0
330
0
330
0
330
0
330
0
330
0
330
0
330
0
330
0
330
0
330
0
330
0
330
0
330
0
330
0
330
0
330
0
330
0
330
0
330
0
330
0
330
0
330
0
330
0
330
0
330
0
330
0
330
0
330
0
330
0
330
0
330
0
330
0
330
0
330
0
330
0
330
0
330
0
330
0
330
0
330
0
330
0
330
0
330
0
330
0
330
0
330
0
330
0
330
0
330
0
330
0
330
0
330
0
330
0
330
0
330
0
330
0
330
0
330
0
330
0
330
0
330
0
330
0
330
0
330
0
330
0
330
0
330
0
330
0
330
0
330
0
330
0
330
0
330
0
330
0
330
0
330
0
330
0
330
0
330
0
330
0
330
0
330
0
330
0
330
0
330
0
330
0
330
0
330
0
330
0
330
0
330
0
330
0
330
0
330
0
330
0
330
0
330
0
330
0
330
0
330
0
330
0
330
0
330
0
330
0
330
0
330
0
330
0
330
0
330
0
330
0
330
0
330
0
330
0
330
0
330
0
330
0
330
0
330
0
330
0
330
0
330
0
330
0
330
0
330
0
330
0
330
0
330
0
330
0
330
0
330
0
330
0
330
0
330
0
330
0
330
0
330
0
330
0
330
0
330
0
330
0
330
0
330
0
330
0
330
0
330
0
330
0
330
0
330
0
330
0
330
0
330
0
330
0
330
0
330
0
330
0
330
0
330
0
330
0
330
0
330
0
330
0
330
0
330
0
330
0
330
0
330
0
330
0
330
0
330
0
330
0
330
0
330
0
330
0
330
0
330
0
330
0
330
0
330
0
330
0
330
0
330
0
330
0
330
0
330
0
330
0
330
0
330
0
330
0
330
0
330
0
330
0
330
0
330
0
330
0
330
0
330
0
330
0
330
0
330
0
330
0
330
0
330
0
330
0
330
0
330
0
330
0
330
0
330
0
330
0
330
0
330
0
330
0
330
0
330
0
330
0
330
0
330
0
330
0
330
0
330
0
330
0
330
0
330
0
330
0
330
0
330
0
330
0
330
0
330
0
330
0
330
0
330
0
330
0
330
0
330
0
330
0
330
0
330
0
330
0
330
0
330
0
330
0
330
0
330
0
330
0
330
0
330
0
330
0
330
0
330
0
330
0
330
0
330
0
330
0
330
0
330
0
330
0
330
0
330
0
330
0
330
0
330
0
330
0
330
0
330
0
330
0
330
0
330
0
330
0
330
0
330
0
330
0
330
0
330
0
330
0
330
0
330
0
330
0
330
0
330
0
330
0
330
0
330
0
330
0
330
0
330
0
330
0
330
0
330
0
330
0
330
0
330
0
330
0
330
0
330
0
330
0
330
0
330
0
330
0
330
0
330
0
330
0
330
0
330
0
330
0
330
0
330
0
330
0
330
0
330
0
330
0
330
0
330
0
330
0
330
0
330
0
330
0
330
0
330
0
330
0
330
0
330
0
330
0
330
0
330
0
330
0
330
0
330
0
330
0
330
0
330
0
330
0
330
0
330
0
330
0
330
0
330
0
330
0
330
0
330
0
330
0
330
0
330
0
330
0
  0
XRECORD
  5
3FB7
102
{ACAD_REACTORS
330
3F96
102
}
330
3F96
100
AcDbXrecord
280
     1
 91
        3
330
0
 90
        8
 62
     7
370
    40
331
16
  1
Color_7
330
0
 90
        0
 62
    14
370
    -3
331
16
  1
Color_14
330
0
 90
        8
 62
     7
370
    20
331
16
  1
Color_7
330
6D1
 90
        0
 62
     7
370
    -3
331
16
  1
Color_7
330
0
 90
        8
 62
     7
370
    50
331
16
  1
Color_7
330
0
 90
        8
 62
     2
370
    35
331
16
  1
Color_2
330
0
 90
        8
 62
     7
370
    -3
331
16
  1
Color_7
330
10
 90
        8
 62
     7
370
    -3
331
16
  1
Color_7
  0
DICTIONARY
  5
5C547
330
22
100
AcDbDictionary
280
     1
281
     1
  3
ACAD_XREC_ROUNDTRIP
360
5C548
  0
DICTIONARY
  5
5C545
330
1E
100
AcDbDictionary
280
     1
281
     1
  3
ACAD_XREC_ROUNDTRIP
360
5C546
  0
DICTIONARY
  5
5C549
330
26
100
AcDbDictionary
280
     1
281
     1
  3
ACAD_XREC_ROUNDTRIP
360
5C54A
  0
DICTIONARY
  5
5C54F
330
B0EF
100
AcDbDictionary
280
     1
281
     1
  3
ACAD_XREC_ROUNDTRIP
360
5C550
  0
DICTIONARY
  5
5C54D
330
B0EE
100
AcDbDictionary
280
     1
281
     1
  3
ACAD_XREC_ROUNDTRIP
360
5C54E
  0
DICTIONARY
  5
5C551
330
B0F0
100
AcDbDictionary
280
     1
281
     1
  3
ACAD_XREC_ROUNDTRIP
360
5C552
  0
DICTIONARY
  5
5C54B
330
AABA
100
AcDbDictionary
280
     1
281
     1
  3
ACAD_XREC_ROUNDTRIP
360
5C54C
  0
XRECORD
  5
5C548
102
{ACAD_REACTORS
330
5C547
102
}
330
5C547
100
AcDbXrecord
280
     1
102
SHADEPLOT
 70
     0
102
SHADEPLOTRESLEVEL
 70
     2
102
SHADEPLOTCUSTOMDPI
 70
   200
  0
XRECORD
  5
5C546
102
{ACAD_REACTORS
330
5C545
102
}
330
5C545
100
AcDbXrecord
280
     1
102
SHADEPLOT
 70
     0
102
SHADEPLOTRESLEVEL
 70
     2
102
SHADEPLOTCUSTOMDPI
 70
   300
  0
XRECORD
  5
5C54A
102
{ACAD_REACTORS
330
5C549
102
}
330
5C549
100
AcDbXrecord
280
     1
102
SHADEPLOT
 70
     0
102
SHADEPLOTRESLEVEL
 70
     2
102
SHADEPLOTCUSTOMDPI
 70
   300
  0
XRECORD
  5
5C550
102
{ACAD_REACTORS
330
5C54F
102
}
330
5C54F
100
AcDbXrecord
280
     1
102
MATERIAL
148
0.0
149
0.0
149
0.0
 93
        0
 94
       63
282
     0
 72
     1
 77
     1
171
     1
175
     1
179
     1
273
     0
  0
XRECORD
  5
5C54E
102
{ACAD_REACTORS
330
5C54D
102
}
330
5C54D
100
AcDbXrecord
280
     1
102
MATERIAL
148
0.0
149
0.0
149
0.0
 93
        0
 94
       63
282
     0
 72
     1
 77
     1
171
     1
175
     1
179
     1
273
     0
  0
XRECORD
  5
5C552
102
{ACAD_REACTORS
330
5C551
102
}
330
5C551
100
AcDbXrecord
280
     1
102
MATERIAL
148
0.0
149
0.0
149
0.0
 93
        0
 94
       63
282
     0
 72
     1
 77
     1
171
     1
175
     1
179
     1
273
     0
  0
XRECORD
  5
5C54C
102
{ACAD_REACTORS
330
5C54B
102
}
330
5C54B
100
AcDbXrecord
280
     1
102
ACAD_ROUNDTRIP_PRE2007_TABLESTYLE
 90
        4
 91
        0
  1

 92
        4
 93
        0
  2

 94
        4
 95
        0
  3

  0
ENDSEC
  0
EOF
