  0
SECTION
  2
HEADER
  9
$ACADVER
  1
AC1015
  9
$ACADMAINTVER
 70
    20
  9
$DWGCODEPAGE
  3
ANSI_932
  9
$INSBASE
 10
0.0
 20
0.0
 30
0.0
  9
$EXTMIN
 10
6074.514852621241
 20
-1457.63817119904
 30
-0.0015258207003583
  9
$EXTMAX
 10
6372.43854128965
 20
-1246.27572261084
 30
0.0000000349246037
  9
$LIMMIN
 10
3779.599158088851
 20
100.7134268036752
  9
$LIMMAX
 10
9719.599158088852
 20
4300.713426803675
  9
$ORTHOMODE
 70
     0
  9
$REGENMODE
 70
     1
  9
$FILLMODE
 70
     1
  9
$QTEXTMODE
 70
     0
  9
$MIRRTEXT
 70
     0
  9
$LTSCALE
 40
1.0
  9
$ATTMODE
 70
     1
  9
$TEXTSIZE
 40
3.2
  9
$TRACEWID
 40
1.0
  9
$TEXTSTYLE
  7
STANDARD
  9
$CLAYER
  8
0部品18
  9
$CELTYPE
  6
ByLayer
  9
$CECOLOR
 62
   256
  9
$CELTSCALE
 40
1.0
  9
$DISPSILH
 70
     0
  9
$DIMSCALE
 40
1.0
  9
$DIMASZ
 40
1.0
  9
$DIMEXO
 40
1.0
  9
$DIMDLI
 40
10.0
  9
$DIMRND
 40
0.0
  9
$DIMDLE
 40
0.0
  9
$DIMEXE
 40
1.0
  9
$DIMTP
 40
0.1
  9
$DIMTM
 40
0.1
  9
$DIMTXT
 40
3.5
  9
$DIMCEN
 40
0.0
  9
$DIMTSZ
 40
0.0
  9
$DIMTOL
 70
     0
  9
$DIMLIM
 70
     0
  9
$DIMTIH
 70
     0
  9
$DIMTOH
 70
     0
  9
$DIMSE1
 70
     0
  9
$DIMSE2
 70
     0
  9
$DIMTAD
 70
     1
  9
$DIMZIN
 70
     8
  9
$DIMBLK
  1

  9
$DIMASO
 70
     1
  9
$DIMSHO
 70
     1
  9
$DIMPOST
  1

  9
$DIMAPOST
  1
"
  9
$DIMALT
 70
     0
  9
$DIMALTD
 70
     2
  9
$DIMALTF
 40
0.0393701
  9
$DIMLFAC
 40
1.0
  9
$DIMTOFL
 70
     1
  9
$DIMTVP
 40
0.0
  9
$DIMTIX
 70
     0
  9
$DIMSOXD
 70
     0
  9
$DIMSAH
 70
     0
  9
$DIMBLK1
  1

  9
$DIMBLK2
  1

  9
$DIMSTYLE
  2
SYS
  9
$DIMCLRD
 70
   256
  9
$DIMCLRE
 70
   256
  9
$DIMCLRT
 70
     7
  9
$DIMTFAC
 40
0.71
  9
$DIMGAP
 40
1.5
  9
$DIMJUST
 70
     0
  9
$DIMSD1
 70
     0
  9
$DIMSD2
 70
     0
  9
$DIMTOLJ
 70
     0
  9
$DIMTZIN
 70
     8
  9
$DIMALTZ
 70
     0
  9
$DIMALTTZ
 70
     0
  9
$DIMUPT
 70
     0
  9
$DIMDEC
 70
     2
  9
$DIMTDEC
 70
     2
  9
$DIMALTU
 70
     2
  9
$DIMALTTD
 70
     2
  9
$DIMTXSTY
  7
STANDARD
  9
$DIMAUNIT
 70
     0
  9
$DIMADEC
 70
     0
  9
$DIMALTRND
 40
0.0
  9
$DIMAZIN
 70
     2
  9
$DIMDSEP
 70
    46
  9
$DIMATFIT
 70
     3
  9
$DIMFRAC
 70
     0
  9
$DIMLDRBLK
  1

  9
$DIMLUNIT
 70
     2
  9
$DIMLWD
 70
    -1
  9
$DIMLWE
 70
    -1
  9
$DIMTMOVE
 70
     0
  9
$LUNITS
 70
     2
  9
$LUPREC
 70
     2
  9
$SKETCHINC
 40
1.0
  9
$FILLETRAD
 40
1.5
  9
$AUNITS
 70
     0
  9
$AUPREC
 70
     0
  9
$MENU
  1
.
  9
$ELEVATION
 40
0.0
  9
$PELEVATION
 40
0.0
  9
$THICKNESS
 40
0.0
  9
$LIMCHECK
 70
     0
  9
$CHAMFERA
 40
0.0
  9
$CHAMFERB
 40
0.0
  9
$CHAMFERC
 40
20.0
  9
$CHAMFERD
 40
0.0
  9
$SKPOLY
 70
     0
  9
$TDCREATE
 40
2455567.680725081
  9
$TDUCREATE
 40
2455567.305725081
  9
$TDUPDATE
 40
2456267.734852431
  9
$TDUUPDATE
 40
2456267.359852430
  9
$TDINDWG
 40
7.9807721528
  9
$TDUSRTIMER
 40
7.9807705208
  9
$USRTIMER
 70
     1
  9
$ANGBASE
 50
0.0
  9
$ANGDIR
 70
     0
  9
$PDMODE
 70
     0
  9
$PDSIZE
 40
-3.0
  9
$PLINEWID
 40
0.0
  9
$SPLFRAME
 70
     0
  9
$SPLINETYPE
 70
     6
  9
$SPLINESEGS
 70
     8
  9
$HANDSEED
  5
5B2BA
  9
$SURFTAB1
 70
     6
  9
$SURFTAB2
 70
     6
  9
$SURFTYPE
 70
     6
  9
$SURFU
 70
     6
  9
$SURFV
 70
     6
  9
$UCSBASE
  2

  9
$UCSNAME
  2

  9
$UCSORG
 10
0.0
 20
0.0
 30
0.0
  9
$UCSXDIR
 10
1.0
 20
0.0
 30
0.0
  9
$UCSYDIR
 10
0.0
 20
1.0
 30
0.0
  9
$UCSORTHOREF
  2

  9
$UCSORTHOVIEW
 70
     0
  9
$UCSORGTOP
 10
0.0
 20
0.0
 30
0.0
  9
$UCSORGBOTTOM
 10
0.0
 20
0.0
 30
0.0
  9
$UCSORGLEFT
 10
0.0
 20
0.0
 30
0.0
  9
$UCSORGRIGHT
 10
0.0
 20
0.0
 30
0.0
  9
$UCSORGFRONT
 10
0.0
 20
0.0
 30
0.0
  9
$UCSORGBACK
 10
0.0
 20
0.0
 30
0.0
  9
$PUCSBASE
  2

  9
$PUCSNAME
  2

  9
$PUCSORG
 10
0.0
 20
0.0
 30
0.0
  9
$PUCSXDIR
 10
1.0
 20
0.0
 30
0.0
  9
$PUCSYDIR
 10
0.0
 20
1.0
 30
0.0
  9
$PUCSORTHOREF
  2

  9
$PUCSORTHOVIEW
 70
     0
  9
$PUCSORGTOP
 10
0.0
 20
0.0
 30
0.0
  9
$PUCSORGBOTTOM
 10
0.0
 20
0.0
 30
0.0
  9
$PUCSORGLEFT
 10
0.0
 20
0.0
 30
0.0
  9
$PUCSORGRIGHT
 10
0.0
 20
0.0
 30
0.0
  9
$PUCSORGFRONT
 10
0.0
 20
0.0
 30
0.0
  9
$PUCSORGBACK
 10
0.0
 20
0.0
 30
0.0
  9
$USERI1
 70
     0
  9
$USERI2
 70
     0
  9
$USERI3
 70
     0
  9
$USERI4
 70
     0
  9
$USERI5
 70
     0
  9
$USERR1
 40
0.0
  9
$USERR2
 40
0.0
  9
$USERR3
 40
0.0
  9
$USERR4
 40
0.0
  9
$USERR5
 40
0.0
  9
$WORLDVIEW
 70
     1
  9
$SHADEDGE
 70
     3
  9
$SHADEDIF
 70
    70
  9
$TILEMODE
 70
     1
  9
$MAXACTVP
 70
    64
  9
$PINSBASE
 10
0.0
 20
0.0
 30
0.0
  9
$PLIMCHECK
 70
     0
  9
$PEXTMIN
 10
1.000000000000000E+20
 20
1.000000000000000E+20
 30
1.000000000000000E+20
  9
$PEXTMAX
 10
-1.000000000000000E+20
 20
-1.000000000000000E+20
 30
-1.000000000000000E+20
  9
$PLIMMIN
 10
-3.17498779296875
 20
-3.174999952316284
  9
$PLIMMAX
 10
293.4970092773438
 20
206.692492723465
  9
$UNITMODE
 70
     0
  9
$VISRETAIN
 70
     1
  9
$PLINEGEN
 70
     0
  9
$PSLTSCALE
 70
     1
  9
$TREEDEPTH
 70
  3020
  9
$CMLSTYLE
  2
Standard
  9
$CMLJUST
 70
     0
  9
$CMLSCALE
 40
20.0
  9
$PROXYGRAPHICS
 70
     1
  9
$MEASUREMENT
 70
     1
  9
$CELWEIGHT
370
    -1
  9
$ENDCAPS
280
     0
  9
$JOINSTYLE
280
     0
  9
$LWDISPLAY
290
     1
  9
$INSUNITS
 70
     4
  9
$HYPERLINKBASE
  1

  9
$STYLESHEET
  1
monochrome.ctb
  9
$XEDIT
290
     1
  9
$CEPSNTYPE
380
     0
  9
$PSTYLEMODE
290
     1
  9
$FINGERPRINTGUID
  2
{487E49EE-344A-43F6-800E-CE119D8346FF}
  9
$VERSIONGUID
  2
{A5D46B1B-6458-4E65-87D4-1BDC3C14DA81}
  9
$EXTNAMES
290
     1
  9
$PSVPSCALE
 40
0.0
  9
$OLESTARTUP
290
     0
  0
ENDSEC
  0
SECTION
  2
CLASSES
  0
CLASS
  1
ACDBDICTIONARYWDFLT
  2
AcDbDictionaryWithDefault
  3
ObjectDBX Classes
 90
        0
280
     0
281
     0
  0
CLASS
  1
ACDBPLACEHOLDER
  2
AcDbPlaceHolder
  3
ObjectDBX Classes
 90
        0
280
     0
281
     0
  0
CLASS
  1
LAYOUT
  2
AcDbLayout
  3
ObjectDBX Classes
 90
        0
280
     0
281
     0
  0
CLASS
  1
AMGSETTINGSOBJ
  2
AmgSettingsObj
  3
"AcadM|Product Description: AutoCAD Mechanical|Company: Autodesk"
 90
        0
280
     0
281
     0
  0
CLASS
  1
ACME_DOCUMENT
  2
AcMeDbDoc
  3
AcMeServices
 90
        0
280
     0
281
     0
  0
CLASS
  1
ACMESCOPE
  2
AcMeScope
  3
AcMeServices
 90
        0
280
     0
281
     0
  0
CLASS
  1
ACMECOMMANDHISTORY
  2
AcMeCommandHistory
  3
AcMeServices
 90
        0
280
     0
281
     0
  0
CLASS
  1
DICTIONARYVAR
  2
AcDbDictionaryVar
  3
ObjectDBX Classes
 90
        0
280
     0
281
     0
  0
CLASS
  1
ACIMSYSVARMAN
  2
AcImSysVarManager
  3
AcMeServices
 90
        0
280
     0
281
     0
  0
CLASS
  1
ACIMREALSYSVAR
  2
AcImRealSysVar
  3
AcMeServices
 90
        0
280
     0
281
     0
  0
CLASS
  1
ACIMINTSYSVAR
  2
AcImIntSysVar
  3
AcMeServices
 90
        0
280
     0
281
     0
  0
CLASS
  1
ACMEDRAWINGMAN
  2
AcMeDrawingMan
  3
AcMeServices
 90
        0
280
     0
281
     0
  0
CLASS
  1
ACMEVIEW
  2
AcMeView
  3
AcMeServices
 90
        0
280
     0
281
     0
  0
CLASS
  1
ACDBENTITYCACHE
  2
AcMeEntityCache
  3
AcMeServices
 90
        0
280
     0
281
     0
  0
CLASS
  1
GSMANAGER
  2
AcMeGSManager
  3
AcMeServices
 90
        0
280
     0
281
     0
  0
CLASS
  1
AMDTINTERNALREACTOR
  2
AmdtInternalReactor
  3
AcMeServices
 90
        0
280
     0
281
     0
  0
CLASS
  1
ACMESTATEMGR
  2
AcMeStateMgr
  3
AcMeServices
 90
        0
280
     0
281
     0
  0
CLASS
  1
ACGREFMASTER
  2
AcGrefMaster
  3
AcAttribServices
 90
        0
280
     0
281
     0
  0
CLASS
  1
ACME_DATABASE
  2
AcMeDbDatabase
  3
AcMeServices
 90
        0
280
     0
281
     0
  0
CLASS
  1
ACRFINSADJUSTERMGR
  2
AcRfInsAdjusterMgr
  3
AcMeServices
 90
        0
280
     0
281
     0
  0
CLASS
  1
ACGREFACADMASTER
  2
AcGrefacadMaster
  3
AcGrefServices
 90
        0
280
     0
281
     0
  0
CLASS
  1
AMIMASTER
  2
AmiMaster
  3
AmiServices
 90
        0
280
     0
281
     0
  0
CLASS
  1
ACMDATADICTIONARY
  2
AcmDataDictionary
  3
"AcmSymBB|Product Description: AutoCAD Mechanical|Company: Autodesk"
 90
        0
280
     0
281
     0
  0
CLASS
  1
ACMDATAENTRYBLOCK
  2
AcmDataEntryBlock
  3
"AcmSymBB|Product Description: AutoCAD Mechanical|Company: Autodesk"
 90
        0
280
     0
281
     0
  0
CLASS
  1
ACIMSTRSYSVAR
  2
AcImStrSysVar
  3
AcMeServices
 90
        0
280
     0
281
     0
  0
CLASS
  1
ACMSTANDARDISO
  2
AcmStandardISO
  3
"Amdt_StdImp|Product Description: AutoCAD Mechanical|Company: Autodesk"
 90
        0
280
     0
281
     0
  0
CLASS
  1
AMGOBJPROPCFG
  2
AmgObjPropCfg
  3
"AmgLay|Product Description: AutoCAD Mechanical|Company: Autodesk"
 90
        1
280
     0
281
     0
  0
CLASS
  1
AMDTEDGESTANDARDISO
  2
AmdtEdgeStdISO
  3
"Amdt_StdImp|Product Description: AutoCAD Mechanical|Company: Autodesk"
 90
        0
280
     0
281
     0
  0
CLASS
  1
ACMSURFSTANDARDISO
  2
AcmSurfTextStdISO
  3
"Amdt_StdImp|Product Description: AutoCAD Mechanical|Company: Autodesk"
 90
        0
280
     0
281
     0
  0
CLASS
  1
ACMFCFSTANDARDISO
  2
AcmFCFStdISO
  3
"Amdt_StdImp|Product Description: AutoCAD Mechanical|Company: Autodesk"
 90
        0
280
     0
281
     0
  0
CLASS
  1
ACMWELDSTANDARDISO
  2
AcmWeldingStdISO
  3
"Amdt_StdImp|Product Description: AutoCAD Mechanical|Company: Autodesk"
 90
        0
280
     0
281
     0
  0
CLASS
  1
ACMIDSTANDARDISO
  2
AcmIdStdISO
  3
"Amdt_StdImp|Product Description: AutoCAD Mechanical|Company: Autodesk"
 90
        0
280
     0
281
     0
  0
CLASS
  1
ACMDATUMSTANDARDISO
  2
AcmDatumStdISO
  3
"Amdt_StdImp|Product Description: AutoCAD Mechanical|Company: Autodesk"
 90
        0
280
     0
281
     0
  0
CLASS
  1
ACMBOMSTANDARDISO
  2
AcmBOMStdISO
  3
"Amdt_StdImp|Product Description: AutoCAD Mechanical|Company: Autodesk"
 90
        0
280
     0
281
     0
  0
CLASS
  1
ACMDETAILSTANDARDISO
  2
AmdtDetailSymStdISO
  3
"Amdt_StdImp|Product Description: AutoCAD Mechanical|Company: Autodesk"
 90
        0
280
     0
281
     0
  0
CLASS
  1
ACMSECTIONSTANDARDISO
  2
AmdtSectionSymStdISO
  3
"Amdt_StdImp|Product Description: AutoCAD Mechanical|Company: Autodesk"
 90
        0
280
     0
281
     0
  0
CLASS
  1
ACMCENTERLINESTANDARDISO
  2
AmdtCenterLineStdISO
  3
"Amdt_StdImp|Product Description: AutoCAD Mechanical|Company: Autodesk"
 90
        0
280
     0
281
     0
  0
CLASS
  1
ACAMGLAYSTD
  2
AcAmgLayStd
  3
"AmgLay|Product Description: AutoCAD Mechanical|Company: Autodesk"
 90
        0
280
     0
281
     0
  0
CLASS
  1
ACAMGDIMSTD
  2
AcAmgDimStd
  3
"AmgDim|Product Description: AutoCAD Mechanical|Company: Autodesk"
 90
        0
280
     0
281
     0
  0
CLASS
  1
ACAMGTITLESTD
  2
AcAmgTitleStd
  3
"AmgTitle|Product Description: AutoCAD Mechanical|Company: Autodesk"
 90
        0
280
     0
281
     0
  0
CLASS
  1
ACAMGFILTERDAT
  2
AcAmgFilterDat
  3
"AcadM|Product Description: AutoCAD Mechanical|Company: Autodesk"
 90
        0
280
     0
281
     0
  0
CLASS
  1
LAYER_INDEX
  2
AcDbLayerIndex
  3
ObjectDBX Classes
 90
    32768
280
     0
281
     0
  0
CLASS
  1
IDBUFFER
  2
AcDbIdBuffer
  3
ObjectDBX Classes
 90
    32768
280
     0
281
     0
  0
CLASS
  1
PLOTSETTINGS
  2
AcDbPlotSettings
  3
ObjectDBX Classes
 90
    32768
280
     0
281
     0
  0
CLASS
  1
AMDTFORMULAUPDATEDISPATCHER
  2
AmdtFormulaUpdateDispatcher
  3
AcMeServices
 90
        0
280
     0
281
     0
  0
CLASS
  1
ACMSTANDARDANSI
  2
AcmStandardANSI
  3
"Amdt_StdImp|Product Description: AutoCAD Mechanical|Company: Autodesk"
 90
        0
280
     0
281
     0
  0
CLASS
  1
ACMSURFSTANDARDANSI
  2
AcmSurfTextStdANSI
  3
"Amdt_StdImp|Product Description: AutoCAD Mechanical|Company: Autodesk"
 90
        0
280
     0
281
     0
  0
CLASS
  1
ACMFCFSTANDARDANSI
  2
AcmFCFStdANSI
  3
"Amdt_StdImp|Product Description: AutoCAD Mechanical|Company: Autodesk"
 90
        0
280
     0
281
     0
  0
CLASS
  1
ACMWELDSTANDARDANSI
  2
AcmWeldingStdANSI
  3
"Amdt_StdImp|Product Description: AutoCAD Mechanical|Company: Autodesk"
 90
        0
280
     0
281
     0
  0
CLASS
  1
ACMIDSTANDARDANSI
  2
AcmIdStdANSI
  3
"Amdt_StdImp|Product Description: AutoCAD Mechanical|Company: Autodesk"
 90
        0
280
     0
281
     0
  0
CLASS
  1
ACMDATUMSTANDARDANSI
  2
AcmDatumStdANSI
  3
"Amdt_StdImp|Product Description: AutoCAD Mechanical|Company: Autodesk"
 90
        0
280
     0
281
     0
  0
CLASS
  1
ACMBOMSTANDARDANSI
  2
AcmBOMStdANSI
  3
"Amdt_StdImp|Product Description: AutoCAD Mechanical|Company: Autodesk"
 90
        0
280
     0
281
     0
  0
CLASS
  1
ACMDETAILSTANDARDANSI
  2
AmdtDetailSymStdANSI
  3
"Amdt_StdImp|Product Description: AutoCAD Mechanical|Company: Autodesk"
 90
        0
280
     0
281
     0
  0
CLASS
  1
ACMSECTIONSTANDARDANSI
  2
AmdtSectionSymStdANSI
  3
"Amdt_StdImp|Product Description: AutoCAD Mechanical|Company: Autodesk"
 90
        0
280
     0
281
     0
  0
CLASS
  1
ACMCENTERLINESTANDARDANSI
  2
AmdtCenterLineStdANSI
  3
"Amdt_StdImp|Product Description: AutoCAD Mechanical|Company: Autodesk"
 90
        0
280
     0
281
     0
  0
CLASS
  1
ACMBOM
  2
AcmBom
  3
"AcmSymBB|Product Description: AutoCAD Mechanical|Company: Autodesk"
 90
        0
280
     0
281
     0
  0
CLASS
  1
ACMDATAENTRYPART
  2
AcmDataEntryPart
  3
"AcmSymBB|Product Description: AutoCAD Mechanical|Company: Autodesk"
 90
    32768
280
     0
281
     0
  0
CLASS
  1
ACMPARTREF
  2
AcmPartRef
  3
"AcmSymBB|Product Description: AutoCAD Mechanical|Company: Autodesk"
 90
    35839
280
     0
281
     1
  0
CLASS
  1
ACDBCIRCARCRES
  2
AcDbCircArcRes
  3
AcGrefServices
 90
    32768
280
     0
281
     0
  0
CLASS
  1
ACMBOMROW
  2
AcmBomRow
  3
"AcmSymBB|Product Description: AutoCAD Mechanical|Company: Autodesk"
 90
    32768
280
     0
281
     0
  0
CLASS
  1
ACMBALLOON
  2
AcmBalloon
  3
"AcmSymBB|Product Description: AutoCAD Mechanical|Company: Autodesk"
 90
    35839
280
     0
281
     1
  0
CLASS
  1
AMDTNOTE
  2
AmdtNote
  3
"AcmSymBB|Product Description: AutoCAD Mechanical|Company: Autodesk"
 90
    35839
280
     0
281
     1
  0
CLASS
  1
STDPART2D
  2
AmgStdPart
  3
"g3vace|Class: AmgStdPart|Product Description: AutoCAD Mechanical|Company: Autodesk"
 90
    35839
280
     0
281
     1
  0
CLASS
  1
ACDBSTDPARTRES_LINE
  2
AcDbStdPartRes_Line
  3
"g3vace|Class: AcDbStdPartRes_Line|Product Description: AutoCAD Mechanical|Company: Autodesk"
 90
    32768
280
     0
281
     0
  0
CLASS
  1
ACMDATAENTRY
  2
AcmDataEntry
  3
"AcmSymBB|Product Description: AutoCAD Mechanical|Company: Autodesk"
 90
        0
280
     0
281
     0
  0
CLASS
  1
ACDBOPPOLYLINERES
  2
AcDbOpPolylineRes
  3
AcGrefServices
 90
    32768
280
     0
281
     0
  0
CLASS
  1
ACMPARTLIST
  2
AcmPartList
  3
"AcmSymBB|Product Description: AutoCAD Mechanical|Company: Autodesk"
 90
    35839
280
     0
281
     1
  0
CLASS
  1
ACDBLINERES
  2
AcDbLineRes
  3
AcGrefServices
 90
        0
280
     0
281
     0
  0
CLASS
  1
ACRFINSADJ
  2
AcRfInsAdjuster
  3
AcMeServices
 90
    32768
280
     0
281
     0
  0
CLASS
  1
AM_DRAWING_MGR
  2
AcDmDwgMgr
  3
AcMechDwgViewMgmt
 90
        0
280
     0
281
     0
  0
CLASS
  1
AM_DWG_DOCUMENT
  2
AcDmDwgDocument
  3
AcMechDwgViewMgmt
 90
        0
280
     0
281
     0
  0
CLASS
  1
AM_DWG_SHEET
  2
AcDmSheet
  3
AcMechDwgViewMgmt
 90
        0
280
     0
281
     0
  0
CLASS
  1
AM_VIEWDIMPARMAP
  2
AcDmViewDimParMap
  3
AcMechDwgViewMgmt
 90
        0
280
     0
281
     0
  0
CLASS
  1
AM_DWGMGR_NAME
  2
AcDmDwgMgrName
  3
AcMechDwgViewMgmt
 90
        0
280
     0
281
     0
  0
CLASS
  1
AMDTMENUSTATEMGR
  2
AmdtMenuStateMgr
  3
McadcomServices
 90
        0
280
     0
281
     0
  0
CLASS
  1
AMDTMCOMMENUSTATE
  2
AmdtMcomMenuState
  3
McadcomServices
 90
        0
280
     0
281
     0
  0
CLASS
  1
ASAPP
  2
AcAsAppObject
  3
AutoSurfServices
 90
        0
280
     0
281
     0
  0
CLASS
  1
IM_STATIC_MAN
  2
AcImStaticVarManager
  3
AcMeServices
 90
        0
280
     0
281
     0
  0
CLASS
  1
ACIMDBLSTATICVAR
  2
AcImDblStaticVar
  3
AcMeServices
 90
        0
280
     0
281
     0
  0
CLASS
  1
ACIMSTRSTATICVAR
  2
AcImStrStaticVar
  3
AcMeServices
 90
        0
280
     0
281
     0
  0
CLASS
  1
ACIMINTSTATICVAR
  2
AcImIntStaticVar
  3
AcMeServices
 90
        0
280
     0
281
     0
  0
CLASS
  1
ACASGREFMASTER
  2
AcAsGrefMaster
  3
AutoSurfResolverServices
 90
        0
280
     0
281
     0
  0
CLASS
  1
ACADGREFMODULE
  2
AcAdGrefModule
  3
AdGrefServices
 90
        0
280
     0
281
     0
  0
CLASS
  1
AMDTMAPISURFMOUDULE
  2
AmdtMApiSurfModule
  3
MApiSurfServices
 90
        0
280
     0
281
     0
  0
CLASS
  1
MAPIAMMOUDLE
  2
MApiAmModule
  3
MApiAmServices
 90
        0
280
     0
281
     0
  0
CLASS
  1
AMDTADMENUSTATE
  2
AmdtAdMenuState
  3
DesignerServices
 90
        0
280
     0
281
     0
  0
CLASS
  1
ADAPPL
  2
AcAdAppl
  3
DesignerServices
 90
        0
280
     0
281
     0
  0
CLASS
  1
DEPMGR
  2
AcAdDepMgr
  3
DesignerServices
 90
        0
280
     0
281
     0
  0
CLASS
  1
PARAMMGR
  2
AcAdParamMgr
  3
DesignerServices
 90
        0
280
     0
281
     0
  0
CLASS
  1
PARAMSCOPE
  2
AcAdParamScope
  3
DesignerServices
 90
        0
280
     0
281
     0
  0
CLASS
  1
NAMEDAPPL
  2
AcAdNamedAppl
  3
DesignerServices
 90
        0
280
     0
281
     0
  0
CLASS
  1
ADHNTMPLT
  2
AdHoleNoteTemplateMgr
  3
DesignerServices
 90
    32768
280
     0
281
     0
  0
CLASS
  1
AM_HNTEMPLATE_MGR_NAME
  2
AdHoleNoteTemplateMgrName
  3
DesignerServices
 90
    32768
280
     0
281
     0
  0
CLASS
  1
AMDTDMMENUSTATE
  2
AmdtDmMenuState
  3
AcMechDwgViewMgmt
 90
        0
280
     0
281
     0
  0
CLASS
  1
MAPIADMODULE
  2
MApiAdModule
  3
MApiAdServices
 90
        0
280
     0
281
     0
  0
CLASS
  1
AMDTAMMENUSTATE
  2
AmdtAmMenuState
  3
DesignerAssemblies
 90
        0
280
     0
281
     0
  0
CLASS
  1
ACAMPROJECT
  2
AcAmProject
  3
DesignerAssemblies
 90
        0
280
     0
281
     0
  0
CLASS
  1
ACAMGRCOMPDEF
  2
AcAmGrCompDef
  3
DesignerAssemblies
 90
        0
280
     0
281
     0
  0
CLASS
  1
ACCMCONTEXT
  2
AcCmContext
  3
DesignerAssemblies
 90
        0
280
     0
281
     0
  0
CLASS
  1
ACAMCOMPDEF
  2
AcAmCompDef
  3
DesignerAssemblies
 90
        0
280
     0
281
     0
  0
CLASS
  1
ACAMCOMPDEFMGR
  2
AcAmCompDefMgr
  3
DesignerAssemblies
 90
        0
280
     0
281
     0
  0
CLASS
  1
AMCONTEXTMGR
  2
AcAmContextMgr
  3
DesignerAssemblies
 90
        0
280
     0
281
     0
  0
CLASS
  1
ACAMCONTEXTMODELER
  2
AcAmContextModeler
  3
DesignerAssemblies
 90
        0
280
     0
281
     0
  0
CLASS
  1
CATALOGSTATE
  2
AcAmCatalogState
  3
DesignerAssemblies
 90
        0
280
     0
281
     0
  0
CLASS
  1
ACAMGRCOMPDEFSET
  2
AcAmGrCompDefSet
  3
DesignerAssemblies
 90
        0
280
     0
281
     0
  0
CLASS
  1
AMDTBROWSERDBTAB
  2
AmdtBrowserDbTab
  3
McadcomServices
 90
        0
280
     0
281
     0
  0
CLASS
  1
CBROWSERAPPOBJECT
  2
CBrowserAppObject
  3
McadcomServices
 90
        0
280
     0
281
     0
  0
CLASS
  1
DM_PLACEHOLDER
  2
AcDmSelsetPlaceholder
  3
AcMechDwgViewMgmt
 90
        0
280
     0
281
     0
  0
CLASS
  1
ACMPICKOBJ
  2
AcmPickEnt
  3
"AcmSymBB|Product Description: AutoCAD Mechanical|Company: Autodesk"
 90
    32768
280
     0
281
     1
  0
CLASS
  1
ACMNOTESTANDARDISO
  2
AmdtNoteStdISO
  3
"Amdt_StdImp|Product Description: AutoCAD Mechanical|Company: Autodesk"
 90
        0
280
     0
281
     0
  0
CLASS
  1
ACMNOTESTANDARDANSI
  2
AmdtNoteStdANSI
  3
"Amdt_StdImp|Product Description: AutoCAD Mechanical|Company: Autodesk"
 90
        0
280
     0
281
     0
  0
CLASS
  1
ACMTHREADLINESTANDARDISO
  2
AmdtThreadLineStdISO
  3
"Amdt_StdImp|Product Description: AutoCAD Mechanical|Company: Autodesk"
 90
        0
280
     0
281
     0
  0
CLASS
  1
ACMTHREADLINESTANDARDANSI
  2
AmdtThreadLineStdANSI
  3
"Amdt_StdImp|Product Description: AutoCAD Mechanical|Company: Autodesk"
 90
        0
280
     0
281
     0
  0
CLASS
  1
TABLESTYLE
  2
AcDbTableStyle
  3
ObjectDBX Classes
 90
     4095
280
     0
281
     0
  0
CLASS
  1
SORTENTSTABLE
  2
AcDbSortentsTable
  3
ObjectDBX Classes
 90
        0
280
     0
281
     0
  0
CLASS
  1
MATERIAL
  2
AcDbMaterial
  3
ObjectDBX Classes
 90
     1024
280
     0
281
     0
  0
CLASS
  1
VISUALSTYLE
  2
AcDbVisualStyle
  3
ObjectDBX Classes
 90
     4095
280
     0
281
     0
  0
CLASS
  1
ACRFATTGENMGR
  2
AcRfAttGeneralMgr
  3
AcAttribServices
 90
        0
280
     0
281
     0
  0
CLASS
  1
ACRFOBJATTMGR
  2
AcRfObjAttGroupMgr
  3
AcAttribServices
 90
        0
280
     0
281
     0
  0
CLASS
  1
ACRFMCADAPIATTHOLDER
  2
AcRfMCADAPIAttHolder
  3
AcAttribServices
 90
        0
280
     0
281
     0
  0
CLASS
  1
AMDTSYSATTR
  2
AmdtSystemAttribute
  3
AcAttribServices
 90
        0
280
     0
281
     0
  0
CLASS
  1
ACMTAPERSTANDARDISO
  2
AcmTaperStdISO
  3
"Amdt_StdImp|Product Description: AutoCAD Mechanical|Company: Autodesk"
 90
        0
280
     0
281
     0
  0
CLASS
  1
CAMSSTRUCTBTNSTATE
  2
StructBtnState
  3
L"DesignerAssemblies"
 90
        0
280
     0
281
     0
  0
CLASS
  1
DIMASSOC
  2
AcDbDimAssoc
  3
"AcDbDimAssoc|Product Desc:     AcDim ARX App For Dimension|Company:          Autodesk, Inc.|WEB Address:      www.autodesk.com"
 90
    32768
280
     0
281
     0
  0
CLASS
  1
EXACXREFPANELOBJECT
  2
ExAcXREFPanelObject
  3
EXAC_ESW
 90
    33793
280
     0
281
     0
  0
CLASS
  1
NPOCOLLECTION
  2
AcDbImpNonPersistentObjectsCollection
  3
ObjectDBX Classes
 90
    33921
280
     0
281
     0
  0
CLASS
  1
AMDTEDGESTANDARDISO13715
  2
AmdtEdgeStdISO13715
  3
"Amdt_StdImp|Product Description: AutoCAD Mechanical|Company: Autodesk"
 90
        0
280
     0
281
     0
  0
CLASS
  1
AMDTNOTETEMPLATEDB
  2
AmdtNoteTemplateDB
  3
AMDT_STDIMP_MODULE_NAME
 90
        0
280
     0
281
     0
  0
CLASS
  1
ACAMGHOLECHARTSTDISO
  2
AcAmgHoleChartStdISO
  3
ACMSYMBB_MODULE_NAME
 90
        0
280
     0
281
     0
  0
CLASS
  1
ACMTAPERSTANDARDANSI
  2
AcmTaperStdANSI
  3
"Amdt_StdImp|Product Description: AutoCAD Mechanical|Company: Autodesk"
 90
        0
280
     0
281
     0
  0
CLASS
  1
ACAMGHOLECHARTSTDANSI
  2
AcAmgHoleChartStdANSI
  3
ACMSYMBB_MODULE_NAME
 90
        0
280
     0
281
     0
  0
CLASS
  1
ACAMSTDPCOMPDEF
  2
AcAmStdpCompDef
  3
DesignerAssemblies
 90
    32768
280
     0
281
     0
  0
CLASS
  1
ACAMCOMP
  2
AcAmComp
  3
DesignerAssemblies
 90
    32768
280
     0
281
     0
  0
CLASS
  1
AC_AM_STDP_VIEW_DEF
  2
AcAmStdpViewDef
  3
DesignerAssemblies
 90
    32768
280
     0
281
     0
  0
CLASS
  1
AC_AM_MVD_DEP_MGR
  2
AcAmMVDdepMgr
  3
DesignerAssemblies
 90
        0
280
     0
281
     0
  0
CLASS
  1
AC_AM_MASTER_VIEW_DEF
  2
AcAmMasterViewDef
  3
DesignerAssemblies
 90
        0
280
     0
281
     0
  0
CLASS
  1
AC_AM_DIRTY_NODES
  2
AcAmDirtyNodes
  3
DesignerAssemblies
 90
        0
280
     0
281
     0
  0
CLASS
  1
AC_AM_MAPPER_CACHE
  2
AcAmMapperCache
  3
DesignerAssemblies
 90
        0
280
     0
281
     0
  0
CLASS
  1
ACAMMVDBACKUPOBJECT
  2
AcAmMVDBackupObject
  3
DesignerAssemblies
 90
        0
280
     0
281
     0
  0
CLASS
  1
AC_AM_COMP_VIEW_INST
  2
AcAmCompView
  3
DesignerAssemblies
 90
    32768
280
     0
281
     0
  0
CLASS
  1
AC_AM_2D_XREF_MGR
  2
AcAmXrefMgr2d
  3
DesignerAssemblies
 90
        0
280
     0
281
     0
  0
CLASS
  1
AC_AM_HIDE_SITUATION
  2
AcAmHideSituation
  3
DesignerAssemblies
 90
    32768
280
     0
281
     0
  0
CLASS
  1
AC_AM_TRANSFORM_GHOST
  2
AcDbTransformGhost
  3
DesignerAssemblies
 90
    32768
280
     0
281
     1
  0
CLASS
  1
L"OBJCLONER"
  2
ObjCloner
  3
DesignerAssemblies
 90
    32768
280
     0
281
     1
  0
ENDSEC
  0
SECTION
  2
TABLES
  0
TABLE
  2
VPORT
  5
8
330
0
100
AcDbSymbolTable
 70
     1
  0
VPORT
  5
B0EC
330
8
100
AcDbSymbolTableRecord
100
AcDbViewportTableRecord
  2
*Active
 70
     0
 10
0.0
 20
0.0
 11
1.0
 21
1.0
 12
6223.476696955446
 22
-1351.95694690494
 13
0.0
 23
0.0
 14
2.5
 24
2.5
 15
10.0
 25
10.0
 16
0.0
 26
0.0
 36
1.0
 17
0.0
 27
0.0
 37
0.0
 40
212.9184911544926
 41
1.648648648648648
 42
50.0
 43
-1370.695619172058
 44
-1370.695619172058
 50
0.0
 51
0.0
 71
     0
 72
   100
 73
     1
 74
     3
 75
     0
 76
     0
 77
     0
 78
     0
281
     0
 65
     0
110
0.0
120
0.0
130
0.0
111
1.0
121
0.0
131
0.0
112
0.0
122
1.0
132
0.0
 79
     0
146
0.0
  0
ENDTAB
  0
TABLE
  2
LTYPE
  5
5
330
0
100
AcDbSymbolTable
 70
    23
  0
LTYPE
  5
14
330
5
100
AcDbSymbolTableRecord
100
AcDbLinetypeTableRecord
  2
ByBlock
 70
     0
  3

 72
    65
 73
     0
 40
0.0
  0
LTYPE
  5
15
330
5
100
AcDbSymbolTableRecord
100
AcDbLinetypeTableRecord
  2
ByLayer
 70
     0
  3

 72
    65
 73
     0
 40
0.0
  0
LTYPE
  5
16
330
5
100
AcDbSymbolTableRecord
100
AcDbLinetypeTableRecord
  2
Continuous
 70
     0
  3
Solid line
 72
    65
 73
     0
 40
0.0
  0
LTYPE
  5
4F
330
5
100
AcDbSymbolTableRecord
100
AcDbLinetypeTableRecord
  2
AM_ISO02W050
 70
     0
  3
__ __ __ __ __ __ __ __ __ __ __ __ __ __ __
 72
    65
 73
     2
 40
7.5
 49
6.0
 74
     0
 49
-1.5
 74
     0
  0
LTYPE
  5
52
330
5
100
AcDbSymbolTableRecord
100
AcDbLinetypeTableRecord
  2
Amconstr
 70
     0
  3
_______________________
 72
    65
 73
     2
 40
9999.0
 49
9999.0
 74
     0
 49
0.0
 74
     0
  0
LTYPE
  5
64
330
5
100
AcDbSymbolTableRecord
100
AcDbLinetypeTableRecord
  2
ACISOWELD
 70
     0
  3
_ _ _ _ _
 72
    65
 73
     2
 40
2.0
 49
2.0
 74
     0
 49
-1.0
 74
     0
  0
LTYPE
  5
65
330
5
100
AcDbSymbolTableRecord
100
AcDbLinetypeTableRecord
  2
ACISOTGB
 70
     0
  3
__ . . __ . .
 72
    65
 73
     6
 40
9.0
 49
4.0
 74
     0
 49
-1.0
 74
     0
 49
1.0
 74
     0
 49
-1.0
 74
     0
 49
1.0
 74
     0
 49
-1.0
 74
     0
  0
LTYPE
  5
66
330
5
100
AcDbSymbolTableRecord
100
AcDbLinetypeTableRecord
  2
ACISOTGL
 70
     0
  3
_ _ _ _ _
 72
    65
 73
     2
 40
3.0
 49
2.0
 74
     0
 49
-1.0
 74
     0
  0
LTYPE
  5
69
330
5
100
AcDbSymbolTableRecord
100
AcDbLinetypeTableRecord
  2
CENTER
 70
     0
  3
__ . __
 72
    65
 73
     4
 40
7.0
 49
4.0
 74
     0
 49
-1.0
 74
     0
 49
1.0
 74
     0
 49
-1.0
 74
     0
  0
LTYPE
  5
A6E
330
5
100
AcDbSymbolTableRecord
100
AcDbLinetypeTableRecord
  2
PHANTOM2
 70
     0
  3
Phantom (.5x) ___ _ _ ___ _ _ ___ _ _ ___ _ _
 72
    65
 73
     6
 40
31.75
 49
15.875
 74
     0
 49
-3.174999999999999
 74
     0
 49
3.174999999999999
 74
     0
 49
-3.174999999999999
 74
     0
 49
3.174999999999999
 74
     0
 49
-3.174999999999999
 74
     0
  0
LTYPE
  5
4DED
330
5
100
AcDbSymbolTableRecord
100
AcDbLinetypeTableRecord
  2
中線
 70
     0
  3
___________________
 72
    65
 73
     2
 40
2.0
 49
1.0
 74
     0
 49
1.0
 74
     0
  0
LTYPE
  5
4DF6
330
5
100
AcDbSymbolTableRecord
100
AcDbLinetypeTableRecord
  2
細線
 70
     0
  3
___________________
 72
    65
 73
     2
 40
2.0
 49
1.0
 74
     0
 49
1.0
 74
     0
  0
LTYPE
  5
4DF7
330
5
100
AcDbSymbolTableRecord
100
AcDbLinetypeTableRecord
  2
太線
 70
     0
  3
___________________
 72
    65
 73
     2
 40
2.0
 49
1.0
 74
     0
 49
1.0
 74
     0
  0
LTYPE
  5
4EA7
330
5
100
AcDbSymbolTableRecord
100
AcDbLinetypeTableRecord
  2
文字
 70
     0
  3
_________________
 72
    65
 73
     2
 40
2.0
 49
1.0
 74
     0
 49
1.0
 74
     0
  0
LTYPE
  5
4EA9
330
5
100
AcDbSymbolTableRecord
100
AcDbLinetypeTableRecord
  2
寸法線
 70
     0
  3
________________
 72
    65
 73
     2
 40
2.0
 49
1.0
 74
     0
 49
1.0
 74
     0
  0
LTYPE
  5
4F12
330
5
100
AcDbSymbolTableRecord
100
AcDbLinetypeTableRecord
  2
ハッチング
 70
     0
  3
_________________
 72
    65
 73
     2
 40
2.0
 49
1.0
 74
     0
 49
1.0
 74
     0
  0
LTYPE
  5
5180
330
5
100
AcDbSymbolTableRecord
100
AcDbLinetypeTableRecord
  2
陰線1
 70
     0
  3
__ __ __ __
 72
    65
 73
     2
 40
4.0
 49
2.2
 74
     0
 49
-1.8
 74
     0
  0
LTYPE
  5
5182
330
5
100
AcDbSymbolTableRecord
100
AcDbLinetypeTableRecord
  2
切断線
 70
     0
  3
/\/-/\/-/\/-/\/-/\/-/\/
 72
    65
 73
     2
 40
11.0001
 49
0.0001
 74
     4
 75
   135
340
56
 46
0.04
 50
0.0
 44
0.0
 45
0.0
 49
-11.0
 74
     0
  0
LTYPE
  5
5183
330
5
100
AcDbSymbolTableRecord
100
AcDbLinetypeTableRecord
  2
想像線1
 70
     0
  3
__ __ __ _____ __ __ ____
 72
    65
 73
     6
 40
14.5
 49
6.0
 74
     0
 49
-1.5
 74
     0
 49
2.0
 74
     0
 49
-1.5
 74
     0
 49
2.0
 74
     0
 49
-1.5
 74
     0
  0
LTYPE
  5
5185
330
5
100
AcDbSymbolTableRecord
100
AcDbLinetypeTableRecord
  2
中心線1
 70
     0
  3
___ _ ___ _ ___
 72
    65
 73
     4
 40
18.0
 49
12.0
 74
     0
 49
-2.0
 74
     0
 49
2.0
 74
     0
 49
-2.0
 74
     0
  0
LTYPE
  5
5188
330
5
100
AcDbSymbolTableRecord
100
AcDbLinetypeTableRecord
  2
補助線
 70
     0
  3
______________
 72
    65
 73
     2
 40
2.0
 49
1.0
 74
     0
 49
1.0
 74
     0
  0
LTYPE
  5
6427
330
5
100
AcDbSymbolTableRecord
100
AcDbLinetypeTableRecord
  2
HIDDEN
 70
     0
  3
Hidden __ __ __ __ __ __ __ __ __ __ __ __ __ _
 72
    65
 73
     2
 40
0.375
 49
0.25
 74
     0
 49
-0.125
 74
     0
  0
LTYPE
  5
AF95
330
5
100
AcDbSymbolTableRecord
100
AcDbLinetypeTableRecord
  2
AM_ISO08W050
 70
     0
  3
____ . ____ . ____ . ____ . ____ . ____ . ____
 72
    65
 73
     4
 40
18.0
 49
12.0
 74
     0
 49
-1.5
 74
     0
 49
3.0
 74
     0
 49
-1.5
 74
     0
  0
LTYPE
  5
FD15
330
5
100
AcDbSymbolTableRecord
100
AcDbLinetypeTableRecord
  2
ACANSTGB
 70
     0
  3
__ . . __ . .
 72
    65
 73
     6
 40
0.35433070866
 49
0.15748031496
 74
     0
 49
-0.03937007874
 74
     0
 49
0.03937007874
 74
     0
 49
-0.03937007874
 74
     0
 49
0.03937007874
 74
     0
 49
-0.03937007874
 74
     0
  0
LTYPE
  5
FD16
330
5
100
AcDbSymbolTableRecord
100
AcDbLinetypeTableRecord
  2
ACANSTGL
 70
     0
  3
_ _ _ _ _
 72
    65
 73
     2
 40
0.11811023622
 49
0.07874015748
 74
     0
 49
-0.03937007874
 74
     0
  0
ENDTAB
  0
TABLE
  2
LAYER
  5
2
102
{ACAD_XDICTIONARY
360
3F95
102
}
330
0
100
AcDbSymbolTable
 70
    15
  0
LAYER
  5
10
330
2
100
AcDbSymbolTableRecord
100
AcDbLayerTableRecord
  2
0
 70
     0
 62
     7
  6
Continuous
370
    -3
390
F
  0
LAYER
  5
6D1
330
2
100
AcDbSymbolTableRecord
100
AcDbLayerTableRecord
  2
Defpoints
 70
     0
 62
     7
  6
Continuous
290
     0
370
    -3
390
F
  0
LAYER
  5
5F85
330
2
100
AcDbSymbolTableRecord
100
AcDbLayerTableRecord
  2
AM_0
 70
     0
 62
     7
  6
中線
370
    25
390
F
1001
AcAecLayerStandard
1000

1000

  0
LAYER
  5
AC9F
330
2
100
AcDbSymbolTableRecord
100
AcDbLayerTableRecord
  2
size
 70
     0
 62
     5
  6
Continuous
290
     0
370
    25
390
F
  0
LAYER
  5
ACA0
330
2
100
AcDbSymbolTableRecord
100
AcDbLayerTableRecord
  2
waku
 70
     0
 62
     7
  6
Continuous
370
    35
390
F
  0
LAYER
  5
ACA1
330
2
100
AcDbSymbolTableRecord
100
AcDbLayerTableRecord
  2
AM_6
 70
     0
 62
     2
  6
文字
370
    15
390
F
1001
AcAecLayerStandard
1000

1000

  0
LAYER
  5
AD64
330
2
100
AcDbSymbolTableRecord
100
AcDbLayerTableRecord
  2
AM_2
 70
     0
 62
     1
  6
細線
370
    15
390
F
1001
AcAecLayerStandard
1000

1000

  0
LAYER
  5
AD68
330
2
100
AcDbSymbolTableRecord
100
AcDbLayerTableRecord
  2
AM_5
 70
     0
 62
     3
  6
寸法線
370
    15
390
F
1001
AcAecLayerStandard
1000

1000

  0
LAYER
  5
B5F5
330
2
100
AcDbSymbolTableRecord
100
AcDbLayerTableRecord
  2
0部品6
 70
     0
 62
    13
  6
細線
370
    30
390
F
1001
AcAecLayerStandard
1000

1000

  0
LAYER
  5
B5F7
330
2
100
AcDbSymbolTableRecord
100
AcDbLayerTableRecord
  2
0部品4
 70
     0
 62
    70
  6
細線
370
    30
390
F
1001
AcAecLayerStandard
1000

1000

  0
LAYER
  5
B5FB
330
2
100
AcDbSymbolTableRecord
100
AcDbLayerTableRecord
  2
0部品18
 70
     0
 62
   254
  6
細線
370
    30
390
F
1001
AcAecLayerStandard
1000

1000

  0
LAYER
  5
B5FC
330
2
100
AcDbSymbolTableRecord
100
AcDbLayerTableRecord
  2
0部品1
 70
     0
 62
   213
  6
細線
370
    30
390
F
1001
AcAecLayerStandard
1000

1000

  0
LAYER
  5
B5FD
330
2
100
AcDbSymbolTableRecord
100
AcDbLayerTableRecord
  2
0部品2
 70
     0
 62
   163
  6
細線
370
    30
390
F
1001
AcAecLayerStandard
1000

1000

  0
LAYER
  5
B5FE
330
2
100
AcDbSymbolTableRecord
100
AcDbLayerTableRecord
  2
0部品3
 70
     0
 62
   122
  6
細線
370
    30
390
F
1001
AcAecLayerStandard
1000

1000

  0
LAYER
  5
2E415
102
{ACAD_XDICTIONARY
360
2E416
102
}
330
2
100
AcDbSymbolTableRecord
100
AcDbLayerTableRecord
  2
AM_1
 70
     0
 62
    30
  6
太線
370
    25
390
F
1001
AcAecLayerStandard
1000

1000

  0
ENDTAB
  0
TABLE
  2
STYLE
  5
3
330
0
100
AcDbSymbolTable
 70
     7
  0
STYLE
  5
11
330
3
100
AcDbSymbolTableRecord
100
AcDbTextStyleTableRecord
  2
STANDARD
 70
     0
 40
0.0
 41
0.7
 50
0.0
 71
     0
 42
3.2
  3
romans.shx
  4
extfont.shx
  0
STYLE
  5
56
330
3
100
AcDbSymbolTableRecord
100
AcDbTextStyleTableRecord
  2

 70
     1
 40
0.0
 41
1.0
 50
0.0
 71
     0
 42
2.5
  3
ltypeshp.shx
  4

  0
STYLE
  5
58
330
3
100
AcDbSymbolTableRecord
100
AcDbTextStyleTableRecord
  2
ACISOTS
 70
     0
 40
1.0
 41
1.0
 50
0.0
 71
     0
 42
2.5
  3
isocp.shx
  4
extfont.shx
  0
STYLE
  5
63
330
3
100
AcDbSymbolTableRecord
100
AcDbTextStyleTableRecord
  2
ACISOGDT
 70
     0
 40
0.0
 41
1.0
 50
0.0
 71
     0
 42
2.5
  3
amgdt.shx
  4

  0
STYLE
  5
A74
330
3
100
AcDbSymbolTableRecord
100
AcDbTextStyleTableRecord
  2
DIM
 70
     0
 40
0.0
 41
1.0
 50
0.0
 71
     0
 42
2.5
  3
monotxt.shx
  4
extfont.shx
  0
STYLE
  5
FD18
330
3
100
AcDbSymbolTableRecord
100
AcDbTextStyleTableRecord
  2
ACANSTS
 70
     0
 40
1.0
 41
1.0
 50
0.0
 71
     0
 42
0.2
  3
romans.shx
  4
extfont.shx
  0
STYLE
  5
FD19
330
3
100
AcDbSymbolTableRecord
100
AcDbTextStyleTableRecord
  2
ACANSGDT
 70
     0
 40
0.0
 41
1.0
 50
0.0
 71
     0
 42
0.2
  3
amgdt.shx
  4

  0
ENDTAB
  0
TABLE
  2
VIEW
  5
6
330
0
100
AcDbSymbolTable
 70
     6
  0
VIEW
  5
AE1
330
6
100
AcDbSymbolTableRecord
100
AcDbViewTableRecord
  2
AM_VIEW1
 70
     0
 40
2203.896457765668
 10
5264.599158088851
 20
3198.765197920841
 41
2970.0
 11
0.0
 21
0.0
 31
1.0
 12
0.0
 22
0.0
 32
0.0
 42
50.0
 43
-1370.695619172058
 44
-1370.695619172058
 50
0.0
 71
     0
281
     0
 72
     0
  0
VIEW
  5
AE2
330
6
100
AcDbSymbolTableRecord
100
AcDbViewTableRecord
  2
AM_VIEW2
 70
     0
 40
2203.896457765668
 10
8234.599158088851
 20
3198.765197920841
 41
2970.0
 11
0.0
 21
0.0
 31
1.0
 12
0.0
 22
0.0
 32
0.0
 42
50.0
 43
-1370.695619172058
 44
-1370.695619172058
 50
0.0
 71
     0
281
     0
 72
     0
  0
VIEW
  5
AE3
330
6
100
AcDbSymbolTableRecord
100
AcDbViewTableRecord
  2
AM_VIEW3
 70
     0
 40
2203.896457765668
 10
5264.599158088851
 20
1202.661655686509
 41
2970.0
 11
0.0
 21
0.0
 31
1.0
 12
0.0
 22
0.0
 32
0.0
 42
50.0
 43
-1370.695619172058
 44
-1370.695619172058
 50
0.0
 71
     0
281
     0
 72
     0
  0
VIEW
  5
AE4
330
6
100
AcDbSymbolTableRecord
100
AcDbViewTableRecord
  2
AM_VIEW4
 70
     0
 40
2203.896457765668
 10
8234.599158088851
 20
1202.661655686509
 41
2970.0
 11
0.0
 21
0.0
 31
1.0
 12
0.0
 22
0.0
 32
0.0
 42
50.0
 43
-1370.695619172058
 44
-1370.695619172058
 50
0.0
 71
     0
281
     0
 72
     0
  0
VIEW
  5
AE5
330
6
100
AcDbSymbolTableRecord
100
AcDbViewTableRecord
  2
AM_VIEW5
 70
     0
 40
2203.896457765668
 10
6749.599158088852
 20
2200.713426803675
 41
2970.0
 11
0.0
 21
0.0
 31
1.0
 12
0.0
 22
0.0
 32
0.0
 42
50.0
 43
-1370.695619172058
 44
-1370.695619172058
 50
0.0
 71
     0
281
     0
 72
     0
  0
VIEW
  5
AE6
330
6
100
AcDbSymbolTableRecord
100
AcDbViewTableRecord
  2
AM_VIEW6
 70
     0
 40
4407.748837602181
 10
6749.599158088852
 20
2200.713426803675
 41
5939.9406
 11
0.0
 21
0.0
 31
1.0
 12
0.0
 22
0.0
 32
0.0
 42
50.0
 43
-1370.695619172058
 44
-1370.695619172058
 50
0.0
 71
     0
281
     0
 72
     0
  0
ENDTAB
  0
TABLE
  2
UCS
  5
7
330
0
100
AcDbSymbolTable
 70
     0
  0
ENDTAB
  0
TABLE
  2
APPID
  5
9
330
0
100
AcDbSymbolTable
 70
    67
  0
APPID
  5
12
330
9
100
AcDbSymbolTableRecord
100
AcDbRegAppTableRecord
  2
ACAD
 70
     0
  0
APPID
  5
30
330
9
100
AcDbSymbolTableRecord
100
AcDbRegAppTableRecord
  2
MCAD_NO_VIS
 70
     0
  0
APPID
  5
31
330
9
100
AcDbSymbolTableRecord
100
AcDbRegAppTableRecord
  2
ACAD_TEMP_GRAPHIC
 70
     0
  0
APPID
  5
44
330
9
100
AcDbSymbolTableRecord
100
AcDbRegAppTableRecord
  2
ACATTRIBSERVICES
 70
     0
  0
APPID
  5
7A1
330
9
100
AcDbSymbolTableRecord
100
AcDbRegAppTableRecord
  2
GENIUS_GENDIMSH_14
 70
     0
  0
APPID
  5
A49
330
9
100
AcDbSymbolTableRecord
100
AcDbRegAppTableRecord
  2
GENIUS_GENREC_14
 70
     0
  0
APPID
  5
A4A
330
9
100
AcDbSymbolTableRecord
100
AcDbRegAppTableRecord
  2
GENIUS_GENOBJ-N-REC_13
 70
     0
  0
APPID
  5
A4B
330
9
100
AcDbSymbolTableRecord
100
AcDbRegAppTableRecord
  2
GENIUS_GENODEF_13
 70
     0
  0
APPID
  5
A4C
330
9
100
AcDbSymbolTableRecord
100
AcDbRegAppTableRecord
  2
DCO15
 70
     0
  0
APPID
  5
ADC
330
9
100
AcDbSymbolTableRecord
100
AcDbRegAppTableRecord
  2
GENIUS_GENOLIS_13
 70
     0
  0
APPID
  5
ADD
330
9
100
AcDbSymbolTableRecord
100
AcDbRegAppTableRecord
  2
GENIUS_GENOENT_13
 70
     0
  0
APPID
  5
ADE
330
9
100
AcDbSymbolTableRecord
100
AcDbRegAppTableRecord
  2
GENIUS_GENOBJ-N-TIT_13
 70
     0
  0
APPID
  5
ADF
330
9
100
AcDbSymbolTableRecord
100
AcDbRegAppTableRecord
  2
GENIUS_GENTITLE_13
 70
     0
  0
APPID
  5
AE0
330
9
100
AcDbSymbolTableRecord
100
AcDbRegAppTableRecord
  2
GENIUS_GENOREF_13
 70
     0
  0
APPID
  5
AE7
330
9
100
AcDbSymbolTableRecord
100
AcDbRegAppTableRecord
  2
GENIUS_GENSCREG_15
 70
     0
  0
APPID
  5
AE8
330
9
100
AcDbSymbolTableRecord
100
AcDbRegAppTableRecord
  2
GENIUS_GENOBJ-N-SDF_13
 70
     0
  0
APPID
  5
FAF
330
9
100
AcDbSymbolTableRecord
100
AcDbRegAppTableRecord
  2
GENIUS_GENBLLY_14
 70
     0
  0
APPID
  5
FB0
330
9
100
AcDbSymbolTableRecord
100
AcDbRegAppTableRecord
  2
GENIUS_GENTRA_14
 70
     0
  0
APPID
  5
1285
330
9
100
AcDbSymbolTableRecord
100
AcDbRegAppTableRecord
  2
GENIUS_GENDTOL_13
 70
     0
  0
APPID
  5
142D
330
9
100
AcDbSymbolTableRecord
100
AcDbRegAppTableRecord
  2
GENIUS_GENOBJ-N-CEN_13
 70
     0
  0
APPID
  5
1AB5
330
9
100
AcDbSymbolTableRecord
100
AcDbRegAppTableRecord
  2
GENIUS_GENOBJ-N-CRS_13
 70
     0
  0
APPID
  5
1B36
330
9
100
AcDbSymbolTableRecord
100
AcDbRegAppTableRecord
  2
GENIUS_GENOBJ-N-HTC_13
 70
     0
  0
APPID
  5
1B37
330
9
100
AcDbSymbolTableRecord
100
AcDbRegAppTableRecord
  2
GENIUS_GENHATCH_13
 70
     0
  0
APPID
  5
216D
330
9
100
AcDbSymbolTableRecord
100
AcDbRegAppTableRecord
  2
GENIUS_GENOBJ-N-FIL_13
 70
     0
  0
APPID
  5
2356
330
9
100
AcDbSymbolTableRecord
100
AcDbRegAppTableRecord
  2
GEVID990412420
 70
     0
  0
APPID
  5
2357
330
9
100
AcDbSymbolTableRecord
100
AcDbRegAppTableRecord
  2
GEVDC
 70
     0
  0
APPID
  5
2358
330
9
100
AcDbSymbolTableRecord
100
AcDbRegAppTableRecord
  2
GEVCON
 70
     0
  0
APPID
  5
235B
330
9
100
AcDbSymbolTableRecord
100
AcDbRegAppTableRecord
  2
GEVRADREF
 70
     0
  0
APPID
  5
2360
330
9
100
AcDbSymbolTableRecord
100
AcDbRegAppTableRecord
  2
GENIUS_GENBH_13
 70
     0
  0
APPID
  5
2362
330
9
100
AcDbSymbolTableRecord
100
AcDbRegAppTableRecord
  2
GENIUS_GENOBJ-NBEHI-BHF_13
 70
     0
  0
APPID
  5
2364
330
9
100
AcDbSymbolTableRecord
100
AcDbRegAppTableRecord
  2
GENIUS_GENOBJ-NBEHI-BHB_13
 70
     0
  0
APPID
  5
2379
330
9
100
AcDbSymbolTableRecord
100
AcDbRegAppTableRecord
  2
GENIUS_GENOBJ-F-SCPASSM_13
 70
     0
  0
APPID
  5
3D74
330
9
100
AcDbSymbolTableRecord
100
AcDbRegAppTableRecord
  2
GENIUS_GENDIM_13
 70
     0
  0
APPID
  5
3D76
330
9
100
AcDbSymbolTableRecord
100
AcDbRegAppTableRecord
  2
GENIUS_GE3DTOL_13
 70
     0
  0
APPID
  5
3D9C
330
9
100
AcDbSymbolTableRecord
100
AcDbRegAppTableRecord
  2
AD_DRAW
 70
     0
  0
APPID
  5
3DE8
330
9
100
AcDbSymbolTableRecord
100
AcDbRegAppTableRecord
  2
ASURF_PCURVE_APPNAME
 70
     0
  0
APPID
  5
3DED
330
9
100
AcDbSymbolTableRecord
100
AcDbRegAppTableRecord
  2
AMG_3D2D_5.0
 70
     0
  0
APPID
  5
3E1B
330
9
100
AcDbSymbolTableRecord
100
AcDbRegAppTableRecord
  2
DESIGNERASSEMBLIES
 70
     0
  0
APPID
  5
3E20
330
9
100
AcDbSymbolTableRecord
100
AcDbRegAppTableRecord
  2
ACADM_DIM_EDIT
 70
     0
  0
APPID
  5
3E21
330
9
100
AcDbSymbolTableRecord
100
AcDbRegAppTableRecord
  2
AMDT_DM_ADJ
 70
     0
  0
APPID
  5
4143
330
9
100
AcDbSymbolTableRecord
100
AcDbRegAppTableRecord
  2
GENIUS_GENFIL_13
 70
     0
  0
APPID
  5
4144
330
9
100
AcDbSymbolTableRecord
100
AcDbRegAppTableRecord
  2
GENIUS_GENOBJ-N-CHA_13
 70
     0
  0
APPID
  5
4E17
330
9
100
AcDbSymbolTableRecord
100
AcDbRegAppTableRecord
  2
GEVID1008153417
 70
     0
  0
APPID
  5
4E58
330
9
100
AcDbSymbolTableRecord
100
AcDbRegAppTableRecord
  2
GEVID1008153418
 70
     0
  0
APPID
  5
4E5E
330
9
100
AcDbSymbolTableRecord
100
AcDbRegAppTableRecord
  2
GEVID1008153419
 70
     0
  0
APPID
  5
4E64
330
9
100
AcDbSymbolTableRecord
100
AcDbRegAppTableRecord
  2
GEVID1008153420
 70
     0
  0
APPID
  5
4E75
330
9
100
AcDbSymbolTableRecord
100
AcDbRegAppTableRecord
  2
GEVID1008153421
 70
     0
  0
APPID
  5
4EB7
330
9
100
AcDbSymbolTableRecord
100
AcDbRegAppTableRecord
  2
GENIUS_AMGTXT_16
 70
     0
  0
APPID
  5
7645
330
9
100
AcDbSymbolTableRecord
100
AcDbRegAppTableRecord
  2
GENIUS_GENOBJ-N-DIM_13
 70
     0
  0
APPID
  5
AAD0
330
9
100
AcDbSymbolTableRecord
100
AcDbRegAppTableRecord
  2
ACAD_DSTYLE_DIMARC_LENGTH_SYMBOL
 70
     0
  0
APPID
  5
AAD1
330
9
100
AcDbSymbolTableRecord
100
AcDbRegAppTableRecord
  2
ACAD_DSTYLE_DIMJOGGED_JOGANGLE_SYMBOL
 70
     0
  0
APPID
  5
AAFD
330
9
100
AcDbSymbolTableRecord
100
AcDbRegAppTableRecord
  2
ACAD_PSEXT
 70
     0
  0
APPID
  5
AD61
330
9
100
AcDbSymbolTableRecord
100
AcDbRegAppTableRecord
  2
AcAecLayerStandard
 70
     0
  0
APPID
  5
AEE3
330
9
100
AcDbSymbolTableRecord
100
AcDbRegAppTableRecord
  2
ACAD_EXEMPT_FROM_CAD_STANDARDS
 70
     0
  0
APPID
  5
B1BE
330
9
100
AcDbSymbolTableRecord
100
AcDbRegAppTableRecord
  2
GENIUS_GENCEN_19
 70
     0
  0
APPID
  5
B4E1
330
9
100
AcDbSymbolTableRecord
100
AcDbRegAppTableRecord
  2
ACAD_MLEADERVER
 70
     0
  0
APPID
  5
C488
330
9
100
AcDbSymbolTableRecord
100
AcDbRegAppTableRecord
  2
ACAD_DSTYLE_DIMINSPECT
 70
     0
  0
APPID
  5
C489
330
9
100
AcDbSymbolTableRecord
100
AcDbRegAppTableRecord
  2
ACAD_DSTYLE_DIMRADIAL_EXTENSION
 70
     0
  0
APPID
  5
1980E
330
9
100
AcDbSymbolTableRecord
100
AcDbRegAppTableRecord
  2
GEVID1311583542
 70
     0
  0
APPID
  5
19825
330
9
100
AcDbSymbolTableRecord
100
AcDbRegAppTableRecord
  2
AMG_2DHIDE
 70
     0
  0
APPID
  5
19826
330
9
100
AcDbSymbolTableRecord
100
AcDbRegAppTableRecord
  2
AMG_2DSTRUCT_BTR
 70
     0
  0
APPID
  5
19837
330
9
100
AcDbSymbolTableRecord
100
AcDbRegAppTableRecord
  2
ACADM_2DVIEW_IGN_NOTIFY
 70
     0
  0
APPID
  5
1B56B
330
9
100
AcDbSymbolTableRecord
100
AcDbRegAppTableRecord
  2
GEVID1311583543
 70
     0
  0
APPID
  5
1B5F6
330
9
100
AcDbSymbolTableRecord
100
AcDbRegAppTableRecord
  2
GEVID1311583544
 70
     0
  0
APPID
  5
1B61B
330
9
100
AcDbSymbolTableRecord
100
AcDbRegAppTableRecord
  2
GEVID1311583545
 70
     0
  0
APPID
  5
1B63D
330
9
100
AcDbSymbolTableRecord
100
AcDbRegAppTableRecord
  2
GEVID1311583546
 70
     0
  0
APPID
  5
1B675
330
9
100
AcDbSymbolTableRecord
100
AcDbRegAppTableRecord
  2
GEVID1311583547
 70
     0
  0
ENDTAB
  0
TABLE
  2
DIMSTYLE
  5
A
330
0
100
AcDbSymbolTable
 70
    25
100
AcDbDimStyleTable
 71
     3
340
2515
340
251A
340
251B
  0
DIMSTYLE
105
A76
330
A
100
AcDbSymbolTableRecord
100
AcDbDimStyleTableRecord
  2
STANDARD
 70
     0
 41
3.0
 42
1.0
 43
7.0
 44
2.0
 73
     0
 74
     0
 77
     1
140
2.799999999999999
141
0.0
143
0.0394
147
0.7
171
     4
172
     1
173
     1
176
     3
177
     3
178
     2
271
     3
272
     3
273
     8
274
     4
289
     0
340
A74
341
A66
343
A66
344
A66
  0
DIMSTYLE
105
2515
330
A
100
AcDbSymbolTableRecord
100
AcDbDimStyleTableRecord
  2
SYS
 70
     0
  4
"
 41
1.0
 42
1.0
 43
10.0
 44
1.0
 47
0.1
 48
0.1
 73
     0
 74
     0
 77
     1
 78
     8
 79
     2
140
3.5
141
0.0
143
0.0393701
146
0.71
147
1.5
172
     1
176
   256
177
   256
178
     7
271
     2
272
     2
283
     0
284
     8
340
11
371
    -1
372
    -1
1001
ACAD_DSTYLE_DIMJOGGED_JOGANGLE_SYMBOL
1070
   384
1040
0.7853981633974483
1001
ACAD_DSTYLE_DIMARC_LENGTH_SYMBOL
1070
   379
1070
     1
  0
DIMSTYLE
105
2516
102
{ACAD_REACTORS
330
55BB8
330
55BB3
102
}
330
A
100
AcDbSymbolTableRecord
100
AcDbDimStyleTableRecord
  2
SYS$3
 70
     0
  4
"
 41
2.0
 42
1.0
 43
10.0
 44
1.0
 47
0.1
 48
0.1
 73
     0
 77
     1
 78
     8
 79
     2
140
3.2
141
0.0
143
0.0393701
146
0.71
147
1.0
176
   256
177
   256
178
     2
271
     2
272
     2
283
     0
284
     8
288
     1
340
11
342
A66
371
    -1
372
    -1
1001
ACAD_DSTYLE_DIMJOGGED_JOGANGLE_SYMBOL
1070
   384
1040
0.7853981633974483
1001
ACAD_DSTYLE_DIMARC_LENGTH_SYMBOL
1070
   379
1070
     1
  0
DIMSTYLE
105
2517
330
A
100
AcDbSymbolTableRecord
100
AcDbDimStyleTableRecord
  2
SYS$4
 70
     0
  4
"
 41
2.0
 42
1.0
 43
10.0
 44
1.0
 47
0.1
 48
0.1
 73
     0
 77
     1
 78
     8
 79
     2
140
3.2
141
0.0
143
0.0393701
146
0.71
147
1.0
173
     1
176
   256
177
   256
178
     2
271
     2
272
     2
283
     0
284
     8
288
     1
340
11
344
A66
371
    -1
372
    -1
1001
ACAD_DSTYLE_DIMJOGGED_JOGANGLE_SYMBOL
1070
   384
1040
0.7853981633974483
1001
ACAD_DSTYLE_DIMARC_LENGTH_SYMBOL
1070
   379
1070
     1
  0
DIMSTYLE
105
2518
330
A
100
AcDbSymbolTableRecord
100
AcDbDimStyleTableRecord
  2
SYS$6
 70
     0
  4
"
 41
2.0
 42
1.0
 43
10.0
 44
1.0
 47
0.1
 48
0.1
 73
     0
 74
     0
 78
     8
 79
     2
140
3.2
141
0.0
143
0.0393701
146
0.71
147
1.0
172
     1
176
   256
177
   256
178
     2
271
     2
272
     2
283
     0
284
     8
340
11
341
A66
371
    -1
372
    -1
1001
ACAD_DSTYLE_DIMJOGGED_JOGANGLE_SYMBOL
1070
   384
1040
0.7853981633974483
1001
ACAD_DSTYLE_DIMARC_LENGTH_SYMBOL
1070
   379
1070
     1
  0
DIMSTYLE
105
2519
330
A
100
AcDbSymbolTableRecord
100
AcDbDimStyleTableRecord
  2
SYS$7
 70
     0
  4
"
 41
2.0
 42
1.0
 43
10.0
 44
1.0
 47
0.1
 48
0.1
 73
     0
 74
     0
 77
     1
 78
     8
 79
     2
140
3.2
141
0.0
143
0.0393701
146
0.71
147
1.0
172
     1
176
   256
177
   256
178
     2
271
     2
272
     2
283
     0
284
     8
340
11
341
A66
342
A66
371
    -1
372
    -1
1001
ACAD_DSTYLE_DIMJOGGED_JOGANGLE_SYMBOL
1070
   384
1040
0.7853981633974483
1001
ACAD_DSTYLE_DIMARC_LENGTH_SYMBOL
1070
   379
1070
     1
  0
DIMSTYLE
105
251A
330
A
100
AcDbSymbolTableRecord
100
AcDbDimStyleTableRecord
  2
SYS$SF
 70
     0
  4
"
 41
2.5
 42
1.0
 43
10.0
 44
1.0
 47
0.1
 48
0.1
 73
     0
 74
     0
 75
     1
 76
     1
 77
     1
 78
     8
 79
     2
140
3.2
141
0.0
143
0.0393701
146
0.71
147
1.0
172
     1
176
   256
177
   256
178
     2
271
     2
272
     2
283
     0
284
     8
340
11
341
6C4
342
6C4
371
    -1
372
    -1
1001
ACAD_DSTYLE_DIMJOGGED_JOGANGLE_SYMBOL
1070
   384
1040
0.7853981633974483
1001
ACAD_DSTYLE_DIMARC_LENGTH_SYMBOL
1070
   379
1070
     1
  0
DIMSTYLE
105
251B
330
A
100
AcDbSymbolTableRecord
100
AcDbDimStyleTableRecord
  2
SYS$SH
 70
     0
  4
"
 41
2.5
 42
1.0
 43
10.0
 44
1.0
 47
0.1
 48
0.1
 73
     0
 74
     0
 75
     1
 76
     1
 77
     1
 78
     8
 79
     2
140
3.2
141
0.0
143
0.0393701
144
2.0
146
0.71
147
1.0
172
     1
173
     1
176
   256
177
   256
178
     2
271
     2
272
     2
283
     0
284
     8
340
11
341
6C4
343
72
344
6C4
371
    -1
372
    -1
1001
ACAD_DSTYLE_DIMJOGGED_JOGANGLE_SYMBOL
1070
   384
1040
0.7853981633974483
1001
ACAD_DSTYLE_DIMARC_LENGTH_SYMBOL
1070
   379
1070
     1
  0
DIMSTYLE
105
2A59
330
A
100
AcDbSymbolTableRecord
100
AcDbDimStyleTableRecord
  2
SYS$2
 70
     0
  4
"
 41
1.0
 42
1.0
 43
10.0
 44
1.0
 47
0.1
 48
0.1
 73
     0
 74
     0
 77
     1
 78
     8
 79
     2
140
3.2
141
0.0
143
0.0393701
146
0.71
147
1.0
172
     1
176
   256
177
   256
178
     2
271
     2
272
     2
283
     0
284
     8
340
11
342
6C4
371
    -1
372
    -1
1001
ACAD_DSTYLE_DIMJOGGED_JOGANGLE_SYMBOL
1070
   384
1040
0.7853981633974483
1001
ACAD_DSTYLE_DIMARC_LENGTH_SYMBOL
1070
   379
1070
     1
  0
DIMSTYLE
105
2AAB
102
{ACAD_REACTORS
330
55BA4
330
55BA5
330
55BA7
330
55BA8
330
55BA9
330
55BAA
330
55BAB
330
55BAC
330
55BAE
330
55BAF
330
55BB0
330
55BB4
330
55BB5
330
55BB6
330
562F6
102
}
330
A
100
AcDbSymbolTableRecord
100
AcDbDimStyleTableRecord
  2
SYS$0
 70
     0
  4
"
 41
1.0
 42
1.0
 43
10.0
 44
1.0
 47
0.1
 48
0.1
 73
     0
 74
     0
 77
     1
 78
     8
 79
     2
140
3.200000000000001
141
0.0
143
0.0393701
146
0.71
147
1.0
172
     1
176
   256
177
   256
178
     2
271
     2
272
     2
283
     0
284
     8
340
11
341
A66
342
6C4
371
    -1
372
    -1
1001
ACAD_DSTYLE_DIMJOGGED_JOGANGLE_SYMBOL
1070
   384
1040
0.7853981633974483
1001
ACAD_DSTYLE_DIMARC_LENGTH_SYMBOL
1070
   379
1070
     1
  0
DIMSTYLE
105
AF99
330
A
100
AcDbSymbolTableRecord
100
AcDbDimStyleTableRecord
  2
AM_ISO
 70
     0
  4
"
 41
2.5
 42
1.0
 43
10.0
 44
1.0
 47
0.1
 48
0.1
 73
     0
 74
     0
 77
     1
 78
     8
 79
     2
140
3.5
141
0.0
143
0.0393701
146
0.71
147
1.5
172
     1
176
   256
177
   256
178
     2
271
     2
272
     3
274
     4
283
     0
284
     8
340
11
371
    -1
372
    -1
  0
DIMSTYLE
105
AF9A
330
A
100
AcDbSymbolTableRecord
100
AcDbDimStyleTableRecord
  2
AM_ISO$3
 70
     0
  4
"
 41
2.5
 42
1.0
 43
10.0
 44
1.0
 47
0.1
 48
0.1
 73
     0
 77
     1
 78
     8
 79
     2
140
3.5
141
0.0
143
0.0393701
146
0.71
147
1.5
176
   256
177
   256
178
     2
271
     2
272
     3
274
     4
283
     0
284
     8
288
     1
289
     0
340
11
371
    -1
372
    -1
  0
DIMSTYLE
105
AF9B
330
A
100
AcDbSymbolTableRecord
100
AcDbDimStyleTableRecord
  2
AM_ISO$4
 70
     0
  4
"
 41
2.5
 42
1.0
 43
10.0
 44
1.0
 47
0.1
 48
0.1
 73
     0
 77
     1
 78
     8
 79
     2
140
3.5
141
0.0
143
0.0393701
146
0.71
147
1.5
176
   256
177
   256
178
     2
271
     2
272
     3
274
     4
283
     0
284
     8
288
     1
289
     0
340
11
371
    -1
372
    -1
  0
DIMSTYLE
105
AF9C
330
A
100
AcDbSymbolTableRecord
100
AcDbDimStyleTableRecord
  2
AM_ISO$6
 70
     0
  4
"
 41
2.5
 42
1.0
 43
10.0
 44
1.0
 47
0.1
 48
0.1
 73
     0
 74
     0
 78
     8
 79
     2
140
3.5
141
0.0
143
0.0393701
146
0.71
147
1.5
172
     1
176
   256
177
   256
178
     2
271
     2
272
     3
274
     4
283
     0
284
     8
340
11
371
    -1
372
    -1
  0
DIMSTYLE
105
AF9D
330
A
100
AcDbSymbolTableRecord
100
AcDbDimStyleTableRecord
  2
AM_ISO$7
 70
     0
  4
"
 41
2.5
 42
1.0
 43
10.0
 44
1.0
 47
0.1
 48
0.1
 73
     0
 74
     0
 77
     1
 78
     8
 79
     2
140
5.0
141
0.0
143
0.0393701
146
0.71
147
1.5
172
     1
176
   256
177
   256
178
     2
271
     2
272
     3
274
     4
283
     0
284
     8
340
11
371
    -1
372
    -1
  0
DIMSTYLE
105
AF9E
330
A
100
AcDbSymbolTableRecord
100
AcDbDimStyleTableRecord
  2
AM_ISO$SF
 70
     0
  4
"
 41
2.5
 42
1.0
 43
10.0
 44
1.0
 47
0.1
 48
0.1
 73
     0
 74
     0
 75
     1
 76
     1
 77
     1
 78
     8
 79
     2
140
3.5
141
0.0
143
0.0393701
146
0.71
147
1.5
172
     1
176
   256
177
   256
178
     2
271
     2
272
     3
274
     4
283
     0
284
     8
340
11
371
    -1
372
    -1
  0
DIMSTYLE
105
AF9F
330
A
100
AcDbSymbolTableRecord
100
AcDbDimStyleTableRecord
  2
AM_ISO$SH
 70
     0
  4
"
 41
2.5
 42
1.0
 43
10.0
 44
1.0
 47
0.1
 48
0.1
 73
     0
 74
     0
 75
     1
 76
     1
 77
     1
 78
     8
 79
     2
140
3.5
141
0.0
143
0.0393701
144
2.0
146
0.71
147
1.5
172
     1
173
     1
176
   256
177
   256
178
     2
271
     2
272
     3
274
     4
283
     0
284
     8
340
11
343
72
371
    -1
372
    -1
  0
DIMSTYLE
105
B60C
330
A
100
AcDbSymbolTableRecord
100
AcDbDimStyleTableRecord
  2
AM_ANSI
 70
     0
  4
mm
 41
0.1
 42
0.05
 43
0.5
 44
0.1
 47
0.1
 48
0.1
 78
     7
 79
     2
140
0.12
141
0.0
146
0.71
147
0.06
176
   256
177
   256
178
     2
274
     4
284
     7
340
11
371
    -1
372
    -1
  0
DIMSTYLE
105
C485
330
A
100
AcDbSymbolTableRecord
100
AcDbDimStyleTableRecord
  2
AM_ISO$0
 70
     0
  4
"
 41
0.8
 42
1.0
 43
10.0
 44
1.0
 47
0.1
 48
0.1
 73
     0
 74
     0
 77
     1
 78
     8
 79
     2
140
3.2
141
0.0
143
0.0393701
146
0.71
147
0.9999999999999996
172
     1
176
   256
177
   256
178
     2
271
     2
272
     2
283
     0
284
     8
340
11
341
6C4
342
6C4
371
    -1
372
    -1
1001
ACAD_DSTYLE_DIMJOGGED_JOGANGLE_SYMBOL
1070
   384
1040
0.7853981633974483
1001
ACAD_DSTYLE_DIMARC_LENGTH_SYMBOL
1070
   379
1070
     1
  0
DIMSTYLE
105
C486
330
A
100
AcDbSymbolTableRecord
100
AcDbDimStyleTableRecord
  2
AM_ISO$2
 70
     0
  4
"
 41
0.8
 42
1.0
 43
10.0
 44
1.0
 47
0.1
 48
0.1
 73
     0
 74
     0
 77
     3
 78
     8
 79
     2
140
3.200000000000001
141
0.0
143
0.0393701
146
0.71
147
0.9999999999999996
172
     1
176
   256
177
   256
178
     2
271
     2
272
     2
283
     0
284
     8
340
11
342
6C4
371
    -1
372
    -1
1001
ACAD_DSTYLE_DIMJOGGED_JOGANGLE_SYMBOL
1070
   384
1040
0.7853981633974483
1001
ACAD_DSTYLE_DIMARC_LENGTH_SYMBOL
1070
   379
1070
     1
  0
DIMSTYLE
105
FD1A
330
A
100
AcDbSymbolTableRecord
100
AcDbDimStyleTableRecord
  2
AM_ANSI$3
 70
     0
  4
mm
 41
0.1
 42
0.05
 43
0.5
 44
0.1
 47
0.1
 48
0.1
 78
     7
 79
     2
140
0.12
141
0.0
146
0.71
147
0.06
176
   256
177
   256
178
     2
274
     4
284
     7
288
     1
289
     0
340
11
371
    -1
372
    -1
1001
ACAD_DSTYLE_DIMARC_LENGTH_SYMBOL
1070
   379
1070
     1
  0
DIMSTYLE
105
FD1B
330
A
100
AcDbSymbolTableRecord
100
AcDbDimStyleTableRecord
  2
AM_ANSI$4
 70
     0
  4
mm
 41
0.1
 42
0.05
 43
0.5
 44
0.1
 47
0.1
 48
0.1
 78
     7
 79
     2
140
0.12
141
0.0
146
0.71
147
0.06
176
   256
177
   256
178
     2
274
     4
284
     7
288
     1
289
     0
340
11
371
    -1
372
    -1
1001
ACAD_DSTYLE_DIMARC_LENGTH_SYMBOL
1070
   379
1070
     1
  0
DIMSTYLE
105
FD1C
330
A
100
AcDbSymbolTableRecord
100
AcDbDimStyleTableRecord
  2
AM_ANSI$7
 70
     0
  4
mm
 41
0.1
 42
0.05
 43
0.5
 44
0.1
 47
0.1
 48
0.1
 78
     7
 79
     2
140
0.24
141
0.0
146
0.71
147
0.06
176
   256
177
   256
178
     2
274
     4
284
     7
340
11
371
    -1
372
    -1
1001
ACAD_DSTYLE_DIMARC_LENGTH_SYMBOL
1070
   379
1070
     1
  0
DIMSTYLE
105
FD1D
330
A
100
AcDbSymbolTableRecord
100
AcDbDimStyleTableRecord
  2
AM_ANSI$SF
 70
     0
  4
mm
 41
0.1
 42
0.05
 43
0.5
 44
0.1
 47
0.1
 48
0.1
 75
     1
 76
     1
 78
     7
 79
     2
140
0.12
141
0.0
146
0.71
147
0.06
176
   256
177
   256
178
     2
274
     4
284
     7
340
11
371
    -1
372
    -1
1001
ACAD_DSTYLE_DIMARC_LENGTH_SYMBOL
1070
   379
1070
     1
  0
DIMSTYLE
105
FD1E
330
A
100
AcDbSymbolTableRecord
100
AcDbDimStyleTableRecord
  2
AM_ANSI$SH
 70
     0
  4
mm
 41
0.1
 42
0.05
 43
0.5
 44
0.1
 47
0.1
 48
0.1
 75
     1
 76
     1
 78
     7
 79
     2
140
0.12
141
0.0
146
0.71
147
0.06
173
     1
176
   256
177
   256
178
     2
274
     4
284
     7
340
11
343
72
371
    -1
372
    -1
1001
ACAD_DSTYLE_DIMARC_LENGTH_SYMBOL
1070
   379
1070
     1
  0
ENDTAB
  0
TABLE
  2
BLOCK_RECORD
  5
1
330
0
100
AcDbSymbolTable
 70
    24
  0
BLOCK_RECORD
  5
1F
102
{ACAD_XDICTIONARY
360
8A
102
}
330
1
100
AcDbSymbolTableRecord
100
AcDbBlockTableRecord
  2
*Model_Space
340
22
  0
BLOCK_RECORD
  5
1B
330
1
100
AcDbSymbolTableRecord
100
AcDbBlockTableRecord
  2
*Paper_Space
340
1E
  0
BLOCK_RECORD
  5
23
330
1
100
AcDbSymbolTableRecord
100
AcDbBlockTableRecord
  2
*Paper_Space0
340
26
  0
BLOCK_RECORD
  5
72
330
1
100
AcDbSymbolTableRecord
100
AcDbBlockTableRecord
  2
GENAXEH
340
0
  0
BLOCK_RECORD
  5
6C4
330
1
100
AcDbSymbolTableRecord
100
AcDbBlockTableRecord
  2
_Dot
340
0
102
{BLKREFS
331
55D24
331
55D25
331
55D2D
331
55D2E
331
55D36
331
55D37
331
55D3F
331
55D40
331
55D48
331
55D49
331
55D51
331
55D52
331
55D5A
331
55D5B
331
55D90
331
55D91
331
55D99
331
55D9A
331
55DBC
331
55DBD
331
55DE0
331
55DE1
331
55DF2
331
55DF3
331
562C4
331
562C5
331
562EF
331
562F0
331
5632B
331
5632C
331
5793E
331
5793F
331
57947
331
57948
102
}
  0
BLOCK_RECORD
  5
A66
330
1
100
AcDbSymbolTableRecord
100
AcDbBlockTableRecord
  2
_OPEN30
340
0
  0
BLOCK_RECORD
  5
55BE6
330
1
100
AcDbSymbolTableRecord
100
AcDbBlockTableRecord
  2
*D7
340
0
  0
BLOCK_RECORD
  5
55BF4
330
1
100
AcDbSymbolTableRecord
100
AcDbBlockTableRecord
  2
*D8
340
0
  0
BLOCK_RECORD
  5
55C0E
330
1
100
AcDbSymbolTableRecord
100
AcDbBlockTableRecord
  2
*D9
340
0
  0
BLOCK_RECORD
  5
55C1C
330
1
100
AcDbSymbolTableRecord
100
AcDbBlockTableRecord
  2
*D10
340
0
  0
BLOCK_RECORD
  5
55C28
330
1
100
AcDbSymbolTableRecord
100
AcDbBlockTableRecord
  2
*D11
340
0
  0
BLOCK_RECORD
  5
55C34
330
1
100
AcDbSymbolTableRecord
100
AcDbBlockTableRecord
  2
*D12
340
0
  0
BLOCK_RECORD
  5
55C40
330
1
100
AcDbSymbolTableRecord
100
AcDbBlockTableRecord
  2
*D13
340
0
  0
BLOCK_RECORD
  5
55C4C
330
1
100
AcDbSymbolTableRecord
100
AcDbBlockTableRecord
  2
*D14
340
0
  0
BLOCK_RECORD
  5
55C58
330
1
100
AcDbSymbolTableRecord
100
AcDbBlockTableRecord
  2
*D15
340
0
  0
BLOCK_RECORD
  5
55C64
330
1
100
AcDbSymbolTableRecord
100
AcDbBlockTableRecord
  2
*D16
340
0
  0
BLOCK_RECORD
  5
55C70
330
1
100
AcDbSymbolTableRecord
100
AcDbBlockTableRecord
  2
*D17
340
0
  0
BLOCK_RECORD
  5
55C94
330
1
100
AcDbSymbolTableRecord
100
AcDbBlockTableRecord
  2
*D18
340
0
  0
BLOCK_RECORD
  5
55CA0
330
1
100
AcDbSymbolTableRecord
100
AcDbBlockTableRecord
  2
*D19
340
0
  0
BLOCK_RECORD
  5
55CAC
330
1
100
AcDbSymbolTableRecord
100
AcDbBlockTableRecord
  2
*D20
340
0
  0
BLOCK_RECORD
  5
55CB8
330
1
100
AcDbSymbolTableRecord
100
AcDbBlockTableRecord
  2
*D21
340
0
  0
BLOCK_RECORD
  5
55CC4
330
1
100
AcDbSymbolTableRecord
100
AcDbBlockTableRecord
  2
*D22
340
0
  0
BLOCK_RECORD
  5
562F7
330
1
100
AcDbSymbolTableRecord
100
AcDbBlockTableRecord
  2
*D23
340
0
  0
ENDTAB
  0
ENDSEC
  0
SECTION
  2
BLOCKS
  0
BLOCK
  5
20
330
1F
100
AcDbEntity
  8
0
100
AcDbBlockBegin
  2
*Model_Space
 70
     0
 10
0.0
 20
0.0
 30
0.0
  3
*Model_Space
  1

  0
ENDBLK
  5
21
330
1F
100
AcDbEntity
  8
0
100
AcDbBlockEnd
  0
BLOCK
  5
1C
330
1B
100
AcDbEntity
 67
     1
  8
0
100
AcDbBlockBegin
  2
*Paper_Space
 70
     0
 10
0.0
 20
0.0
 30
0.0
  3
*Paper_Space
  1

  0
ENDBLK
  5
1D
330
1B
100
AcDbEntity
 67
     1
  8
0
100
AcDbBlockEnd
  0
BLOCK
  5
24
330
23
100
AcDbEntity
 67
     1
  8
0
100
AcDbBlockBegin
  2
*Paper_Space0
 70
     0
 10
0.0
 20
0.0
 30
0.0
  3
*Paper_Space0
  1

  0
ENDBLK
  5
25
330
23
100
AcDbEntity
 67
     1
  8
0
100
AcDbBlockEnd
  0
BLOCK
  5
74
330
72
100
AcDbEntity
  8
0
100
AcDbBlockBegin
  2
GENAXEH
 70
     0
 10
0.0
 20
0.0
 30
0.0
  3
GENAXEH
  1

  0
LINE
  5
73
330
72
100
AcDbEntity
  8
0
100
AcDbLine
 10
-1.0
 20
0.0
 30
0.0
 11
1.0
 21
0.0
 31
0.0
  0
ENDBLK
  5
75
330
72
100
AcDbEntity
  8
0
100
AcDbBlockEnd
  0
BLOCK
  5
6C7
330
6C4
100
AcDbEntity
  8
0
100
AcDbBlockBegin
  2
_Dot
 70
     0
 10
0.0
 20
0.0
 30
0.0
  3
_Dot
  1

  0
LWPOLYLINE
  5
6C5
330
6C4
100
AcDbEntity
  8
0
  6
ByBlock
 62
     0
100
AcDbPolyline
 90
        2
 70
     1
 43
0.5
 10
-0.25
 20
0.0
 42
1.0
 10
0.25
 20
0.0
 42
1.0
  0
LINE
  5
6C6
330
6C4
100
AcDbEntity
  8
0
  6
ByBlock
 62
     0
370
    -2
100
AcDbLine
 10
-0.5
 20
0.0
 30
0.0
 11
-1.0
 21
0.0
 31
0.0
  0
ENDBLK
  5
6C8
330
6C4
100
AcDbEntity
  8
0
100
AcDbBlockEnd
  0
BLOCK
  5
A6A
330
A66
100
AcDbEntity
  8
0
100
AcDbBlockBegin
  2
_OPEN30
 70
     0
 10
0.0
 20
0.0
 30
0.0
  3
_OPEN30
  1

  0
LINE
  5
A67
330
A66
100
AcDbEntity
  8
0
  6
ByBlock
 62
     0
100
AcDbLine
 10
-1.0
 20
0.26794919
 30
0.0
 11
0.0
 21
0.0
 31
0.0
  0
LINE
  5
A68
330
A66
100
AcDbEntity
  8
0
  6
ByBlock
 62
     0
100
AcDbLine
 10
0.0
 20
0.0
 30
0.0
 11
-1.0
 21
-0.26794919
 31
0.0
  0
LINE
  5
A69
330
A66
100
AcDbEntity
  8
0
  6
ByBlock
 62
     0
100
AcDbLine
 10
0.0
 20
0.0
 30
0.0
 11
-1.0
 21
0.0
 31
0.0
  0
ENDBLK
  5
A6B
330
A66
100
AcDbEntity
  8
0
100
AcDbBlockEnd
  0
BLOCK
  5
55BF2
330
55BE6
100
AcDbEntity
  8
0
100
AcDbBlockBegin
  2
*D7
 70
     1
 10
0.0
 20
0.0
 30
0.0
  3
*D7
  1

  0
LINE
  5
562BF
330
55BE6
100
AcDbEntity
  8
AM_5
100
AcDbLine
 10
6202.334897954205
 20
-1351.985920193057
 30
0.0
 11
6194.334897954205
 21
-1351.985920193057
 31
0.0
  0
LINE
  5
562C0
330
55BE6
100
AcDbEntity
  8
AM_5
100
AcDbLine
 10
6202.334897954203
 20
-1352.985920193058
 30
0.0
 11
6194.334897954205
 21
-1352.985920193058
 31
0.0
  0
LINE
  5
562C1
330
55BE6
100
AcDbEntity
  8
AM_5
100
AcDbLine
 10
6195.334897954205
 20
-1350.985920193057
 30
0.0
 11
6195.334897954205
 21
-1349.985920193057
 31
0.0
  0
LINE
  5
562C2
330
55BE6
100
AcDbEntity
  8
AM_5
100
AcDbLine
 10
6195.334897954205
 20
-1353.985920193057
 30
0.0
 11
6195.334897954205
 21
-1357.519253526391
 31
0.0
  0
LINE
  5
562C3
330
55BE6
100
AcDbEntity
  8
AM_5
100
AcDbLine
 10
6195.334897954205
 20
-1351.985920193057
 30
0.0
 11
6195.334897954205
 21
-1352.985920193058
 31
0.0
  0
INSERT
  5
562C4
330
55BE6
100
AcDbEntity
  8
AM_5
100
AcDbBlockReference
  2
_Dot
 10
6195.334897954205
 20
-1351.985920193057
 30
0.0
 50
270.0
  0
INSERT
  5
562C5
330
55BE6
100
AcDbEntity
  8
AM_5
100
AcDbBlockReference
  2
_Dot
 10
6195.334897954205
 20
-1352.985920193058
 30
0.0
 50
90.0
  0
MTEXT
  5
562C6
330
55BE6
100
AcDbEntity
  8
AM_5
 62
     2
100
AcDbMText
 10
6192.734897954205
 20
-1356.252586859723
 30
0.0
 40
3.200000000000001
 41
0.0
 71
     5
 72
     1
  1
1
 11
0.0000000000000001
 21
1.0
 31
0.0
 73
     1
 44
1.0
1001
ACAD
1000
MTEXTBEGIN
1070
    73
1070
     1
1070
    44
1040
1.0
1070
    74
1070
     0
1000
MTEXTEND
  0
POINT
  5
562C7
330
55BE6
100
AcDbEntity
  8
Defpoints
 62
     0
100
AcDbPoint
 10
6203.334897954206
 20
-1351.985920193057
 30
0.0
  0
POINT
  5
562C8
330
55BE6
100
AcDbEntity
  8
Defpoints
 62
     0
100
AcDbPoint
 10
6203.334897954203
 20
-1352.985920193058
 30
0.0
  0
POINT
  5
562C9
330
55BE6
100
AcDbEntity
  8
Defpoints
 62
     0
100
AcDbPoint
 10
6195.334897954205
 20
-1352.985920193058
 30
0.0
  0
ENDBLK
  5
55BF3
330
55BE6
100
AcDbEntity
  8
0
100
AcDbBlockEnd
  0
BLOCK
  5
55BFE
330
55BF4
100
AcDbEntity
  8
0
100
AcDbBlockBegin
  2
*D8
 70
     1
 10
0.0
 20
0.0
 30
0.0
  3
*D8
  1

  0
LINE
  5
55DB9
330
55BF4
100
AcDbEntity
  8
AM_5
100
AcDbLine
 10
6202.334897954203
 20
-1352.985920193058
 30
0.0
 11
6186.334897954205
 21
-1352.985920193058
 31
0.0
  0
LINE
  5
55DBA
330
55BF4
100
AcDbEntity
  8
AM_5
100
AcDbLine
 10
6210.775687697928
 20
-1347.785920193057
 30
0.0
 11
6186.334897954205
 21
-1347.785920193057
 31
0.0
  0
LINE
  5
55DBB
330
55BF4
100
AcDbEntity
  8
AM_5
100
AcDbLine
 10
6187.334897954205
 20
-1351.985920193057
 30
0.0
 11
6187.334897954205
 21
-1348.785920193057
 31
0.0
  0
INSERT
  5
55DBC
330
55BF4
100
AcDbEntity
  8
AM_5
100
AcDbBlockReference
  2
_Dot
 10
6187.334897954205
 20
-1352.985920193058
 30
0.0
 50
270.0
  0
INSERT
  5
55DBD
330
55BF4
100
AcDbEntity
  8
AM_5
100
AcDbBlockReference
  2
_Dot
 10
6187.334897954205
 20
-1347.785920193057
 30
0.0
 50
90.0
  0
MTEXT
  5
55DBE
330
55BF4
100
AcDbEntity
  8
AM_5
 62
     2
100
AcDbMText
 10
6184.734897954204
 20
-1350.385920193057
 30
0.0
 40
3.200000000000001
 41
0.0
 71
     5
 72
     1
  1
5.4
 11
0.0000000000000001
 21
1.0
 31
0.0
 73
     1
 44
1.0
1001
ACAD
1000
MTEXTBEGIN
1070
    73
1070
     1
1070
    44
1040
1.0
1070
    74
1070
     0
1000
MTEXTEND
  0
POINT
  5
55DBF
330
55BF4
100
AcDbEntity
  8
Defpoints
 62
     0
100
AcDbPoint
 10
6203.334897954203
 20
-1352.985920193058
 30
0.0
  0
POINT
  5
55DC0
330
55BF4
100
AcDbEntity
  8
Defpoints
 62
     0
100
AcDbPoint
 10
6211.775687697929
 20
-1347.785920193057
 30
0.0
  0
POINT
  5
55DC1
330
55BF4
100
AcDbEntity
  8
Defpoints
 62
     0
100
AcDbPoint
 10
6187.334897954205
 20
-1347.785920193057
 30
0.0
  0
ENDBLK
  5
55BFF
330
55BF4
100
AcDbEntity
  8
0
100
AcDbBlockEnd
  0
BLOCK
  5
55C1A
330
55C0E
100
AcDbEntity
  8
0
100
AcDbBlockBegin
  2
*D9
 70
     1
 10
0.0
 20
0.0
 30
0.0
  3
*D9
  1

  0
LINE
  5
562EA
330
55C0E
100
AcDbEntity
  8
AM_5
100
AcDbLine
 10
6236.334897954205
 20
-1351.985920193057
 30
0.0
 11
6251.372924093512
 21
-1351.985920193057
 31
0.0
  0
LINE
  5
562EB
330
55C0E
100
AcDbEntity
  8
AM_5
100
AcDbLine
 10
6236.334897954205
 20
-1352.985920193058
 30
0.0
 11
6251.372924093512
 21
-1352.985920193058
 31
0.0
  0
LINE
  5
562EC
330
55C0E
100
AcDbEntity
  8
AM_5
100
AcDbLine
 10
6250.372924093512
 20
-1350.985920193057
 30
0.0
 11
6250.372924093512
 21
-1349.985920193057
 31
0.0
  0
LINE
  5
562ED
330
55C0E
100
AcDbEntity
  8
AM_5
100
AcDbLine
 10
6250.372924093512
 20
-1353.985920193057
 30
0.0
 11
6250.372924093512
 21
-1357.519253526391
 31
0.0
  0
LINE
  5
562EE
330
55C0E
100
AcDbEntity
  8
AM_5
100
AcDbLine
 10
6250.372924093512
 20
-1351.985920193057
 30
0.0
 11
6250.372924093512
 21
-1352.985920193058
 31
0.0
  0
INSERT
  5
562EF
330
55C0E
100
AcDbEntity
  8
AM_5
100
AcDbBlockReference
  2
_Dot
 10
6250.372924093512
 20
-1351.985920193057
 30
0.0
 50
270.0
  0
INSERT
  5
562F0
330
55C0E
100
AcDbEntity
  8
AM_5
100
AcDbBlockReference
  2
_Dot
 10
6250.372924093512
 20
-1352.985920193058
 30
0.0
 50
90.0
  0
MTEXT
  5
562F1
330
55C0E
100
AcDbEntity
  8
AM_5
 62
     2
100
AcDbMText
 10
6247.772924093511
 20
-1356.252586859723
 30
0.0
 40
3.200000000000001
 41
0.0
 71
     5
 72
     1
  1
1
 11
0.0000000000000001
 21
1.0
 31
0.0
 73
     1
 44
1.0
1001
ACAD
1000
MTEXTBEGIN
1070
    73
1070
     1
1070
    44
1040
1.0
1070
    74
1070
     0
1000
MTEXTEND
  0
POINT
  5
562F2
330
55C0E
100
AcDbEntity
  8
Defpoints
 62
     0
100
AcDbPoint
 10
6235.334897954206
 20
-1351.985920193057
 30
0.0
  0
POINT
  5
562F3
330
55C0E
100
AcDbEntity
  8
Defpoints
 62
     0
100
AcDbPoint
 10
6235.334897954206
 20
-1352.985920193058
 30
0.0
  0
POINT
  5
562F4
330
55C0E
100
AcDbEntity
  8
Defpoints
 62
     0
100
AcDbPoint
 10
6250.372924093512
 20
-1352.985920193058
 30
0.0
  0
ENDBLK
  5
55C1B
330
55C0E
100
AcDbEntity
  8
0
100
AcDbBlockEnd
  0
BLOCK
  5
55C26
330
55C1C
100
AcDbEntity
  8
0
100
AcDbBlockBegin
  2
*D10
 70
     1
 10
0.0
 20
0.0
 30
0.0
  3
*D10
  1

  0
LINE
  5
55D21
330
55C1C
100
AcDbEntity
  8
AM_5
100
AcDbLine
 10
6236.334897954205
 20
-1352.985920193058
 30
0.0
 11
6259.372924093511
 21
-1352.985920193058
 31
0.0
  0
LINE
  5
55D22
330
55C1C
100
AcDbEntity
  8
AM_5
100
AcDbLine
 10
6223.761328658458
 20
-1344.614143204525
 30
0.0
 11
6259.372924093511
 21
-1344.614143204525
 31
0.0
  0
LINE
  5
55D23
330
55C1C
100
AcDbEntity
  8
AM_5
100
AcDbLine
 10
6258.372924093512
 20
-1351.985920193057
 30
0.0
 11
6258.372924093512
 21
-1345.614143204525
 31
0.0
  0
INSERT
  5
55D24
330
55C1C
100
AcDbEntity
  8
AM_5
100
AcDbBlockReference
  2
_Dot
 10
6258.372924093512
 20
-1352.985920193058
 30
0.0
 50
270.0
  0
INSERT
  5
55D25
330
55C1C
100
AcDbEntity
  8
AM_5
100
AcDbBlockReference
  2
_Dot
 10
6258.372924093512
 20
-1344.614143204525
 30
0.0
 50
90.0
  0
MTEXT
  5
55D26
330
55C1C
100
AcDbEntity
  8
AM_5
 62
     2
100
AcDbMText
 10
6255.772924093512
 20
-1348.80003169879
 30
0.0
 40
3.200000000000001
 41
0.0
 71
     5
 72
     1
  1
（8.2）
 11
0.0000000000000001
 21
1.0
 31
0.0
 73
     1
 44
1.0
1001
ACAD
1000
MTEXTBEGIN
1070
    73
1070
     1
1070
    44
1040
1.0
1070
    74
1070
     0
1000
MTEXTEND
  0
POINT
  5
55D27
330
55C1C
100
AcDbEntity
  8
Defpoints
 62
     0
100
AcDbPoint
 10
6235.334897954206
 20
-1352.985920193058
 30
0.0
  0
POINT
  5
55D28
330
55C1C
100
AcDbEntity
  8
Defpoints
 62
     0
100
AcDbPoint
 10
6222.761328658457
 20
-1344.614143204525
 30
0.0
  0
POINT
  5
55D29
330
55C1C
100
AcDbEntity
  8
Defpoints
 62
     0
100
AcDbPoint
 10
6258.372924093512
 20
-1344.614143204525
 30
0.0
  0
ENDBLK
  5
55C27
330
55C1C
100
AcDbEntity
  8
0
100
AcDbBlockEnd
  0
BLOCK
  5
55C32
330
55C28
100
AcDbEntity
  8
0
100
AcDbBlockBegin
  2
*D11
 70
     1
 10
0.0
 20
0.0
 30
0.0
  3
*D11
  1

  0
LINE
  5
55D2A
330
55C28
100
AcDbEntity
  8
AM_5
100
AcDbLine
 10
6233.153375079213
 20
-1309.821182229024
 30
0.0
 11
6251.372924093512
 21
-1309.821182229024
 31
0.0
  0
LINE
  5
55D2B
330
55C28
100
AcDbEntity
  8
AM_5
100
AcDbLine
 10
6233.153375079139
 20
-1322.321182228596
 30
0.0
 11
6251.372924093512
 21
-1322.321182228596
 31
0.0
  0
LINE
  5
55D2C
330
55C28
100
AcDbEntity
  8
AM_5
100
AcDbLine
 10
6250.372924093512
 20
-1310.821182229024
 30
0.0
 11
6250.372924093512
 21
-1321.321182228596
 31
0.0
  0
INSERT
  5
55D2D
330
55C28
100
AcDbEntity
  8
AM_5
100
AcDbBlockReference
  2
_Dot
 10
6250.372924093512
 20
-1309.821182229024
 30
0.0
 50
90.0
  0
INSERT
  5
55D2E
330
55C28
100
AcDbEntity
  8
AM_5
100
AcDbBlockReference
  2
_Dot
 10
6250.372924093512
 20
-1322.321182228596
 30
0.0
 50
270.0
  0
MTEXT
  5
55D2F
330
55C28
100
AcDbEntity
  8
AM_5
 62
     2
100
AcDbMText
 10
6247.772924093511
 20
-1316.071182229024
 30
0.0
 40
3.200000000000001
 41
0.0
 71
     5
 72
     1
  1
12.5
 11
0.0000000000000001
 21
1.0
 31
0.0
 73
     1
 44
1.0
1001
ACAD
1000
MTEXTBEGIN
1070
    73
1070
     1
1070
    44
1040
1.0
1070
    74
1070
     0
1000
MTEXTEND
  0
POINT
  5
55D30
330
55C28
100
AcDbEntity
  8
Defpoints
 62
     0
100
AcDbPoint
 10
6232.153375079214
 20
-1309.821182229024
 30
0.0
  0
POINT
  5
55D31
330
55C28
100
AcDbEntity
  8
Defpoints
 62
     0
100
AcDbPoint
 10
6232.153375079139
 20
-1322.321182228596
 30
0.0
  0
POINT
  5
55D32
330
55C28
100
AcDbEntity
  8
Defpoints
 62
     0
100
AcDbPoint
 10
6250.372924093512
 20
-1322.321182228596
 30
0.0
  0
ENDBLK
  5
55C33
330
55C28
100
AcDbEntity
  8
0
100
AcDbBlockEnd
  0
BLOCK
  5
55C3E
330
55C34
100
AcDbEntity
  8
0
100
AcDbBlockBegin
  2
*D12
 70
     1
 10
0.0
 20
0.0
 30
0.0
  3
*D12
  1

  0
LINE
  5
55D33
330
55C34
100
AcDbEntity
  8
AM_5
100
AcDbLine
 10
6224.102118303981
 20
-1306.664407600155
 30
0.0
 11
6259.372924093511
 21
-1306.664407600155
 31
0.0
  0
LINE
  5
55D34
330
55C34
100
AcDbEntity
  8
AM_5
100
AcDbLine
 10
6224.102118303981
 20
-1325.47795685737
 30
0.0
 11
6259.372924093511
 21
-1325.47795685737
 31
0.0
  0
LINE
  5
55D35
330
55C34
100
AcDbEntity
  8
AM_5
100
AcDbLine
 10
6258.372924093512
 20
-1307.664407600155
 30
0.0
 11
6258.372924093512
 21
-1324.47795685737
 31
0.0
  0
INSERT
  5
55D36
330
55C34
100
AcDbEntity
  8
AM_5
100
AcDbBlockReference
  2
_Dot
 10
6258.372924093512
 20
-1306.664407600155
 30
0.0
 50
90.0
  0
INSERT
  5
55D37
330
55C34
100
AcDbEntity
  8
AM_5
100
AcDbBlockReference
  2
_Dot
 10
6258.372924093512
 20
-1325.47795685737
 30
0.0
 50
270.0
  0
MTEXT
  5
55D38
330
55C34
100
AcDbEntity
  8
AM_5
 62
     2
100
AcDbMText
 10
6255.772924093512
 20
-1316.071182228762
 30
0.0
 40
3.200000000000001
 41
0.0
 71
     5
 72
     1
  1
（19）
 11
0.0000000000000001
 21
1.0
 31
0.0
 73
     1
 44
1.0
1001
ACAD
1000
MTEXTBEGIN
1070
    73
1070
     1
1070
    44
1040
1.0
1070
    74
1070
     0
1000
MTEXTEND
  0
POINT
  5
55D39
330
55C34
100
AcDbEntity
  8
Defpoints
 62
     0
100
AcDbPoint
 10
6223.102118303981
 20
-1306.664407600155
 30
0.0
  0
POINT
  5
55D3A
330
55C34
100
AcDbEntity
  8
Defpoints
 62
     0
100
AcDbPoint
 10
6223.102118303981
 20
-1325.47795685737
 30
0.0
  0
POINT
  5
55D3B
330
55C34
100
AcDbEntity
  8
Defpoints
 62
     0
100
AcDbPoint
 10
6258.372924093512
 20
-1325.47795685737
 30
0.0
  0
ENDBLK
  5
55C3F
330
55C34
100
AcDbEntity
  8
0
100
AcDbBlockEnd
  0
BLOCK
  5
55C4A
330
55C40
100
AcDbEntity
  8
0
100
AcDbBlockBegin
  2
*D13
 70
     1
 10
0.0
 20
0.0
 30
0.0
  3
*D13
  1

  0
LINE
  5
55D3C
330
55C40
100
AcDbEntity
  8
AM_5
100
AcDbLine
 10
6218.334897953521
 20
-1310.071182228762
 30
0.0
 11
6218.334897953521
 21
-1297.664407600155
 31
0.0
  0
LINE
  5
55D3D
330
55C40
100
AcDbEntity
  8
AM_5
100
AcDbLine
 10
6242.372924093512
 20
-1315.071182228861
 30
0.0
 11
6242.372924093512
 21
-1297.664407600155
 31
0.0
  0
LINE
  5
55D3E
330
55C40
100
AcDbEntity
  8
AM_5
100
AcDbLine
 10
6219.334897953522
 20
-1298.664407600155
 30
0.0
 11
6241.372924093512
 21
-1298.664407600155
 31
0.0
  0
INSERT
  5
55D3F
330
55C40
100
AcDbEntity
  8
AM_5
100
AcDbBlockReference
  2
_Dot
 10
6218.334897953521
 20
-1298.664407600155
 30
0.0
 50
180.0
  0
INSERT
  5
55D40
330
55C40
100
AcDbEntity
  8
AM_5
100
AcDbBlockReference
  2
_Dot
 10
6242.372924093512
 20
-1298.664407600155
 30
0.0
  0
MTEXT
  5
55D41
330
55C40
100
AcDbEntity
  8
AM_5
 62
     2
100
AcDbMText
 10
6230.353911023517
 20
-1296.064407600155
 30
0.0
 40
3.200000000000001
 41
0.0
 71
     5
 72
     1
  1
（24）
 73
     1
 44
1.0
1001
ACAD
1000
MTEXTBEGIN
1070
    73
1070
     1
1070
    44
1040
1.0
1070
    74
1070
     0
1000
MTEXTEND
  0
POINT
  5
55D42
330
55C40
100
AcDbEntity
  8
Defpoints
 62
     0
100
AcDbPoint
 10
6218.334897953521
 20
-1311.071182228763
 30
0.0
  0
POINT
  5
55D43
330
55C40
100
AcDbEntity
  8
Defpoints
 62
     0
100
AcDbPoint
 10
6242.372924093512
 20
-1316.071182228861
 30
0.0
  0
POINT
  5
55D44
330
55C40
100
AcDbEntity
  8
Defpoints
 62
     0
100
AcDbPoint
 10
6242.372924093512
 20
-1298.664407600155
 30
0.0
  0
ENDBLK
  5
55C4B
330
55C40
100
AcDbEntity
  8
0
100
AcDbBlockEnd
  0
BLOCK
  5
55C56
330
55C4C
100
AcDbEntity
  8
0
100
AcDbBlockBegin
  2
*D14
 70
     1
 10
0.0
 20
0.0
 30
0.0
  3
*D14
  1

  0
LINE
  5
55D45
330
55C4C
100
AcDbEntity
  8
AM_5
100
AcDbLine
 10
6215.334897953521
 20
-1310.071182228762
 30
0.0
 11
6215.334897953521
 21
-1297.664407600155
 31
0.0
  0
LINE
  5
55D46
330
55C4C
100
AcDbEntity
  8
AM_5
100
AcDbLine
 10
6203.334897953521
 20
-1308.071182228762
 30
0.0
 11
6203.334897953521
 21
-1297.664407600155
 31
0.0
  0
LINE
  5
55D47
330
55C4C
100
AcDbEntity
  8
AM_5
100
AcDbLine
 10
6214.334897953521
 20
-1298.664407600155
 30
0.0
 11
6204.334897953522
 21
-1298.664407600155
 31
0.0
  0
INSERT
  5
55D48
330
55C4C
100
AcDbEntity
  8
AM_5
100
AcDbBlockReference
  2
_Dot
 10
6215.334897953521
 20
-1298.664407600155
 30
0.0
  0
INSERT
  5
55D49
330
55C4C
100
AcDbEntity
  8
AM_5
100
AcDbBlockReference
  2
_Dot
 10
6203.334897953521
 20
-1298.664407600155
 30
0.0
 50
180.0
  0
MTEXT
  5
55D4A
330
55C4C
100
AcDbEntity
  8
AM_5
 62
     2
100
AcDbMText
 10
6209.334897953521
 20
-1296.064407600155
 30
0.0
 40
3.200000000000001
 41
0.0
 71
     5
 72
     1
  1
（12）
 73
     1
 44
1.0
1001
ACAD
1000
MTEXTBEGIN
1070
    73
1070
     1
1070
    44
1040
1.0
1070
    74
1070
     0
1000
MTEXTEND
  0
POINT
  5
55D4B
330
55C4C
100
AcDbEntity
  8
Defpoints
 62
     0
100
AcDbPoint
 10
6215.334897953521
 20
-1311.071182228763
 30
0.0
  0
POINT
  5
55D4C
330
55C4C
100
AcDbEntity
  8
Defpoints
 62
     0
100
AcDbPoint
 10
6203.334897953521
 20
-1309.071182228763
 30
0.0
  0
POINT
  5
55D4D
330
55C4C
100
AcDbEntity
  8
Defpoints
 62
     0
100
AcDbPoint
 10
6203.334897953521
 20
-1298.664407600155
 30
0.0
  0
ENDBLK
  5
55C57
330
55C4C
100
AcDbEntity
  8
0
100
AcDbBlockEnd
  0
BLOCK
  5
55C62
330
55C58
100
AcDbEntity
  8
0
100
AcDbBlockBegin
  2
*D15
 70
     1
 10
0.0
 20
0.0
 30
0.0
  3
*D15
  1

  0
LINE
  5
55D4E
330
55C58
100
AcDbEntity
  8
AM_5
100
AcDbLine
 10
6204.334897954205
 20
-1307.071182228762
 30
0.0
 11
6194.334897954205
 21
-1307.071182228762
 31
0.0
  0
LINE
  5
55D4F
330
55C58
100
AcDbEntity
  8
AM_5
100
AcDbLine
 10
6204.334897954205
 20
-1325.071182228763
 30
0.0
 11
6194.334897954205
 21
-1325.071182228763
 31
0.0
  0
LINE
  5
55D50
330
55C58
100
AcDbEntity
  8
AM_5
100
AcDbLine
 10
6195.334897954205
 20
-1308.071182228762
 30
0.0
 11
6195.334897954205
 21
-1324.071182228762
 31
0.0
  0
INSERT
  5
55D51
330
55C58
100
AcDbEntity
  8
AM_5
100
AcDbBlockReference
  2
_Dot
 10
6195.334897954205
 20
-1307.071182228762
 30
0.0
 50
90.0
  0
INSERT
  5
55D52
330
55C58
100
AcDbEntity
  8
AM_5
100
AcDbBlockReference
  2
_Dot
 10
6195.334897954205
 20
-1325.071182228763
 30
0.0
 50
270.0
  0
MTEXT
  5
55D53
330
55C58
100
AcDbEntity
  8
AM_5
 62
     2
100
AcDbMText
 10
6192.734897954205
 20
-1316.071182228762
 30
0.0
 40
3.200000000000001
 41
0.0
 71
     5
 72
     1
  1
（18）
 11
0.0000000000000001
 21
1.0
 31
0.0
 73
     1
 44
1.0
1001
ACAD
1000
MTEXTBEGIN
1070
    73
1070
     1
1070
    44
1040
1.0
1070
    74
1070
     0
1000
MTEXTEND
  0
POINT
  5
55D54
330
55C58
100
AcDbEntity
  8
Defpoints
 62
     0
100
AcDbPoint
 10
6205.334897954205
 20
-1307.071182228762
 30
0.0
  0
POINT
  5
55D55
330
55C58
100
AcDbEntity
  8
Defpoints
 62
     0
100
AcDbPoint
 10
6205.334897954205
 20
-1325.071182228763
 30
0.0
  0
POINT
  5
55D56
330
55C58
100
AcDbEntity
  8
Defpoints
 62
     0
100
AcDbPoint
 10
6195.334897954205
 20
-1325.071182228763
 30
0.0
  0
ENDBLK
  5
55C63
330
55C58
100
AcDbEntity
  8
0
100
AcDbBlockEnd
  0
BLOCK
  5
55C6E
330
55C64
100
AcDbEntity
  8
0
100
AcDbBlockBegin
  2
*D16
 70
     1
 10
0.0
 20
0.0
 30
0.0
  3
*D16
  1

  0
LINE
  5
55D57
330
55C64
100
AcDbEntity
  8
AM_5
100
AcDbLine
 10
6218.334897954205
 20
-1400.544409527588
 30
0.0
 11
6218.334897954205
 21
-1412.951184156195
 31
0.0
  0
LINE
  5
55D58
330
55C64
100
AcDbEntity
  8
AM_5
100
AcDbLine
 10
6226.334897954205
 20
-1397.094409527589
 30
0.0
 11
6226.334897954205
 21
-1412.951184156195
 31
0.0
  0
LINE
  5
55D59
330
55C64
100
AcDbEntity
  8
AM_5
100
AcDbLine
 10
6219.334897954205
 20
-1411.951184156196
 30
0.0
 11
6225.334897954205
 21
-1411.951184156196
 31
0.0
  0
INSERT
  5
55D5A
330
55C64
100
AcDbEntity
  8
AM_5
100
AcDbBlockReference
  2
_Dot
 10
6218.334897954205
 20
-1411.951184156196
 30
0.0
 50
180.0
  0
INSERT
  5
55D5B
330
55C64
100
AcDbEntity
  8
AM_5
100
AcDbBlockReference
  2
_Dot
 10
6226.334897954205
 20
-1411.951184156196
 30
0.0
  0
MTEXT
  5
55D5C
330
55C64
100
AcDbEntity
  8
AM_5
 62
     2
100
AcDbMText
 10
6222.334897954205
 20
-1409.351184156196
 30
0.0
 40
3.200000000000001
 41
0.0
 71
     5
 72
     1
  1
8
 73
     1
 44
1.0
1001
ACAD
1000
MTEXTBEGIN
1070
    73
1070
     1
1070
    44
1040
1.0
1070
    74
1070
     0
1000
MTEXTEND
  0
POINT
  5
55D5D
330
55C64
100
AcDbEntity
  8
Defpoints
 62
     0
100
AcDbPoint
 10
6218.334897954205
 20
-1399.544409527588
 30
0.0
  0
POINT
  5
55D5E
330
55C64
100
AcDbEntity
  8
Defpoints
 62
     0
100
AcDbPoint
 10
6226.334897954205
 20
-1396.094409527588
 30
0.0
  0
POINT
  5
55D5F
330
55C64
100
AcDbEntity
  8
Defpoints
 62
     0
100
AcDbPoint
 10
6226.334897954205
 20
-1411.951184156196
 30
0.0
  0
ENDBLK
  5
55C6F
330
55C64
100
AcDbEntity
  8
0
100
AcDbBlockEnd
  0
BLOCK
  5
55C7A
330
55C70
100
AcDbEntity
  8
0
100
AcDbBlockBegin
  2
*D17
 70
     1
 10
0.0
 20
0.0
 30
0.0
  3
*D17
  1

  0
LINE
  5
55DDD
330
55C70
100
AcDbEntity
  8
AM_5
100
AcDbLine
 10
6226.334897954205
 20
-1397.094409527589
 30
0.0
 11
6226.334897954205
 21
-1420.951184156195
 31
0.0
  0
LINE
  5
55DDE
330
55C70
100
AcDbEntity
  8
AM_5
100
AcDbLine
 10
6231.334897954205
 20
-1397.094409527589
 30
0.0
 11
6231.334897954205
 21
-1420.951184156195
 31
0.0
  0
LINE
  5
55DDF
330
55C70
100
AcDbEntity
  8
AM_5
100
AcDbLine
 10
6227.334897954206
 20
-1419.951184156196
 30
0.0
 11
6230.334897954205
 21
-1419.951184156196
 31
0.0
  0
INSERT
  5
55DE0
330
55C70
100
AcDbEntity
  8
AM_5
100
AcDbBlockReference
  2
_Dot
 10
6226.334897954205
 20
-1419.951184156196
 30
0.0
 50
180.0
  0
INSERT
  5
55DE1
330
55C70
100
AcDbEntity
  8
AM_5
100
AcDbBlockReference
  2
_Dot
 10
6231.334897954205
 20
-1419.951184156196
 30
0.0
  0
MTEXT
  5
55DE2
330
55C70
100
AcDbEntity
  8
AM_5
 62
     2
100
AcDbMText
 10
6228.834897954205
 20
-1417.351184156196
 30
0.0
 40
3.200000000000001
 41
0.0
 71
     5
 72
     1
  1
5
 73
     1
 44
1.0
1001
ACAD
1000
MTEXTBEGIN
1070
    73
1070
     1
1070
    44
1040
1.0
1070
    74
1070
     0
1000
MTEXTEND
  0
POINT
  5
55DE3
330
55C70
100
AcDbEntity
  8
Defpoints
 62
     0
100
AcDbPoint
 10
6226.334897954205
 20
-1396.094409527588
 30
0.0
  0
POINT
  5
55DE4
330
55C70
100
AcDbEntity
  8
Defpoints
 62
     0
100
AcDbPoint
 10
6231.334897954205
 20
-1396.094409527588
 30
0.0
  0
POINT
  5
55DE5
330
55C70
100
AcDbEntity
  8
Defpoints
 62
     0
100
AcDbPoint
 10
6231.334897954205
 20
-1419.951184156196
 30
0.0
  0
ENDBLK
  5
55C7B
330
55C70
100
AcDbEntity
  8
0
100
AcDbBlockEnd
  0
BLOCK
  5
55C9E
330
55C94
100
AcDbEntity
  8
0
100
AcDbBlockBegin
  2
*D18
 70
     1
 10
0.0
 20
0.0
 30
0.0
  3
*D18
  1

  0
LINE
  5
57939
330
55C94
100
AcDbEntity
  8
AM_5
100
AcDbLine
 10
6251.438475854993
 20
-1385.726868106567
 30
0.0
 11
6237.426475854968
 21
-1385.726868106567
 31
0.0
  0
LINE
  5
5793A
330
55C94
100
AcDbEntity
  8
AM_5
100
AcDbLine
 10
6237.426475854968
 20
-1385.726868106567
 30
0.0
 11
6232.500113158634
 21
-1392.857763883903
 31
0.0
  0
LINE
  5
5793B
330
55C94
100
AcDbEntity
  8
AM_5
100
AcDbLine
 10
6230.169682749769
 20
-1396.231055171271
 30
0.0
 11
6229.601285089071
 21
-1397.0538091438
 31
0.0
  0
MTEXT
  5
5793C
330
55C94
100
AcDbEntity
  8
AM_5
 62
     2
100
AcDbMText
 10
6245.945142521658
 20
-1383.126868106567
 30
0.0
 40
3.2
 41
0.0
 71
     5
 72
     1
  1
2-\U+22052.1
 73
     1
 44
1.0
1001
ACAD
1000
MTEXTBEGIN
1070
    73
1070
     1
1070
    44
1040
1.0
1070
    74
1070
     0
1000
MTEXTEND
  0
LINE
  5
5793D
330
55C94
100
AcDbEntity
  8
AM_5
100
AcDbLine
 10
6230.738080410469
 20
-1395.408301198742
 30
0.0
 11
6231.931715497935
 21
-1393.680517856432
 31
0.0
  0
INSERT
  5
5793E
330
55C94
100
AcDbEntity
  8
AM_5
100
AcDbBlockReference
  2
_Dot
 10
6230.738080410469
 20
-1395.408301198742
 30
0.0
 50
55.36143482135621
  0
INSERT
  5
5793F
330
55C94
100
AcDbEntity
  8
AM_5
100
AcDbBlockReference
  2
_Dot
 10
6231.931715497935
 20
-1393.680517856432
 30
0.0
 50
235.3614348213563
  0
POINT
  5
57940
330
55C94
100
AcDbEntity
  8
Defpoints
 62
     0
100
AcDbPoint
 10
6231.931715497935
 20
-1393.680517856432
 30
0.0
  0
POINT
  5
57941
330
55C94
100
AcDbEntity
  8
Defpoints
 62
     0
100
AcDbPoint
 10
6230.738080410469
 20
-1395.408301198742
 30
0.0
  0
ENDBLK
  5
55C9F
330
55C94
100
AcDbEntity
  8
0
100
AcDbBlockEnd
  0
BLOCK
  5
55CAA
330
55CA0
100
AcDbEntity
  8
0
100
AcDbBlockBegin
  2
*D19
 70
     1
 10
0.0
 20
0.0
 30
0.0
  3
*D19
  1

  0
LINE
  5
55DEF
330
55CA0
100
AcDbEntity
  8
AM_5
100
AcDbLine
 10
6205.334897954205
 20
-1405.044409527588
 30
0.0
 11
6205.334897954205
 21
-1420.951184156195
 31
0.0
  0
LINE
  5
55DF0
330
55CA0
100
AcDbEntity
  8
AM_5
100
AcDbLine
 10
6226.334897954205
 20
-1397.094409527588
 30
0.0
 11
6226.334897954205
 21
-1420.951184156195
 31
0.0
  0
LINE
  5
55DF1
330
55CA0
100
AcDbEntity
  8
AM_5
100
AcDbLine
 10
6206.334897954206
 20
-1419.951184156196
 30
0.0
 11
6225.334897954205
 21
-1419.951184156196
 31
0.0
  0
INSERT
  5
55DF2
330
55CA0
100
AcDbEntity
  8
AM_5
100
AcDbBlockReference
  2
_Dot
 10
6205.334897954205
 20
-1419.951184156196
 30
0.0
 50
180.0
  0
INSERT
  5
55DF3
330
55CA0
100
AcDbEntity
  8
AM_5
100
AcDbBlockReference
  2
_Dot
 10
6226.334897954205
 20
-1419.951184156196
 30
0.0
  0
MTEXT
  5
55DF4
330
55CA0
100
AcDbEntity
  8
AM_5
 62
     2
100
AcDbMText
 10
6215.834897954206
 20
-1417.351184156196
 30
0.0
 40
3.200000000000001
 41
0.0
 71
     5
 72
     1
  1
（21）
 73
     1
 44
1.0
1001
ACAD
1000
MTEXTBEGIN
1070
    73
1070
     1
1070
    44
1040
1.0
1070
    74
1070
     0
1000
MTEXTEND
  0
POINT
  5
55DF5
330
55CA0
100
AcDbEntity
  8
Defpoints
 62
     0
100
AcDbPoint
 10
6205.334897954205
 20
-1404.044409527588
 30
0.0
  0
POINT
  5
55DF6
330
55CA0
100
AcDbEntity
  8
Defpoints
 62
     0
100
AcDbPoint
 10
6226.334897954205
 20
-1396.094409527588
 30
0.0
  0
POINT
  5
55DF7
330
55CA0
100
AcDbEntity
  8
Defpoints
 62
     0
100
AcDbPoint
 10
6226.334897954205
 20
-1419.951184156196
 30
0.0
  0
ENDBLK
  5
55CAB
330
55CA0
100
AcDbEntity
  8
0
100
AcDbBlockEnd
  0
BLOCK
  5
55CB6
330
55CAC
100
AcDbEntity
  8
0
100
AcDbBlockBegin
  2
*D20
 70
     1
 10
0.0
 20
0.0
 30
0.0
  3
*D20
  1

  0
LINE
  5
55D8D
330
55CAC
100
AcDbEntity
  8
AM_5
100
AcDbLine
 10
6205.334897954205
 20
-1405.044409527588
 30
0.0
 11
6205.334897954205
 21
-1412.951184156195
 31
0.0
  0
LINE
  5
55D8E
330
55CAC
100
AcDbEntity
  8
AM_5
100
AcDbLine
 10
6215.334897954205
 20
-1400.544409527588
 30
0.0
 11
6215.334897954205
 21
-1412.951184156195
 31
0.0
  0
LINE
  5
55D8F
330
55CAC
100
AcDbEntity
  8
AM_5
100
AcDbLine
 10
6206.334897954206
 20
-1411.951184156196
 30
0.0
 11
6214.334897954206
 21
-1411.951184156196
 31
0.0
  0
INSERT
  5
55D90
330
55CAC
100
AcDbEntity
  8
AM_5
100
AcDbBlockReference
  2
_Dot
 10
6205.334897954205
 20
-1411.951184156196
 30
0.0
 50
180.0
  0
INSERT
  5
55D91
330
55CAC
100
AcDbEntity
  8
AM_5
100
AcDbBlockReference
  2
_Dot
 10
6215.334897954205
 20
-1411.951184156196
 30
0.0
  0
MTEXT
  5
55D92
330
55CAC
100
AcDbEntity
  8
AM_5
 62
     2
100
AcDbMText
 10
6210.334897954205
 20
-1409.351184156196
 30
0.0
 40
3.200000000000001
 41
0.0
 71
     5
 72
     1
  1
（10）
 73
     1
 44
1.0
1001
ACAD
1000
MTEXTBEGIN
1070
    73
1070
     1
1070
    44
1040
1.0
1070
    74
1070
     0
1000
MTEXTEND
  0
POINT
  5
55D93
330
55CAC
100
AcDbEntity
  8
Defpoints
 62
     0
100
AcDbPoint
 10
6205.334897954205
 20
-1404.044409527588
 30
0.0
  0
POINT
  5
55D94
330
55CAC
100
AcDbEntity
  8
Defpoints
 62
     0
100
AcDbPoint
 10
6215.334897954205
 20
-1399.544409527588
 30
0.0
  0
POINT
  5
55D95
330
55CAC
100
AcDbEntity
  8
Defpoints
 62
     0
100
AcDbPoint
 10
6215.334897954205
 20
-1411.951184156196
 30
0.0
  0
ENDBLK
  5
55CB7
330
55CAC
100
AcDbEntity
  8
0
100
AcDbBlockEnd
  0
BLOCK
  5
55CC2
330
55CB8
100
AcDbEntity
  8
0
100
AcDbBlockBegin
  2
*D21
 70
     1
 10
0.0
 20
0.0
 30
0.0
  3
*D21
  1

  0
LINE
  5
55D96
330
55CB8
100
AcDbEntity
  8
AM_5
100
AcDbLine
 10
6201.834897954205
 20
-1387.544409527588
 30
0.0
 11
6194.334897954205
 21
-1387.544409527588
 31
0.0
  0
LINE
  5
55D97
330
55CB8
100
AcDbEntity
  8
AM_5
100
AcDbLine
 10
6201.834897954205
 20
-1401.544409527588
 30
0.0
 11
6194.334897954205
 21
-1401.544409527588
 31
0.0
  0
LINE
  5
55D98
330
55CB8
100
AcDbEntity
  8
AM_5
100
AcDbLine
 10
6195.334897954205
 20
-1388.544409527588
 30
0.0
 11
6195.334897954205
 21
-1400.544409527588
 31
0.0
  0
INSERT
  5
55D99
330
55CB8
100
AcDbEntity
  8
AM_5
100
AcDbBlockReference
  2
_Dot
 10
6195.334897954205
 20
-1387.544409527588
 30
0.0
 50
90.0
  0
INSERT
  5
55D9A
330
55CB8
100
AcDbEntity
  8
AM_5
100
AcDbBlockReference
  2
_Dot
 10
6195.334897954205
 20
-1401.544409527588
 30
0.0
 50
270.0
  0
MTEXT
  5
55D9B
330
55CB8
100
AcDbEntity
  8
AM_5
 62
     2
100
AcDbMText
 10
6192.734897954205
 20
-1394.544409527587
 30
0.0
 40
3.200000000000001
 41
0.0
 71
     5
 72
     1
  1
14
 11
0.0000000000000001
 21
1.0
 31
0.0
 73
     1
 44
1.0
1001
ACAD
1000
MTEXTBEGIN
1070
    73
1070
     1
1070
    44
1040
1.0
1070
    74
1070
     0
1000
MTEXTEND
  0
POINT
  5
55D9C
330
55CB8
100
AcDbEntity
  8
Defpoints
 62
     0
100
AcDbPoint
 10
6202.834897954205
 20
-1387.544409527588
 30
0.0
  0
POINT
  5
55D9D
330
55CB8
100
AcDbEntity
  8
Defpoints
 62
     0
100
AcDbPoint
 10
6202.834897954205
 20
-1401.544409527588
 30
0.0
  0
POINT
  5
55D9E
330
55CB8
100
AcDbEntity
  8
Defpoints
 62
     0
100
AcDbPoint
 10
6195.334897954205
 20
-1401.544409527588
 30
0.0
  0
ENDBLK
  5
55CC3
330
55CB8
100
AcDbEntity
  8
0
100
AcDbBlockEnd
  0
BLOCK
  5
55CCE
330
55CC4
100
AcDbEntity
  8
0
100
AcDbBlockBegin
  2
*D22
 70
     1
 10
0.0
 20
0.0
 30
0.0
  3
*D22
  1

  0
LINE
  5
57942
330
55CC4
100
AcDbEntity
  8
AM_5
100
AcDbLine
 10
6186.633619107599
 20
-1382.259639812332
 30
0.0
 11
6200.645619107601
 21
-1382.259639812332
 31
0.0
  0
LINE
  5
57943
330
55CC4
100
AcDbEntity
  8
AM_5
100
AcDbLine
 10
6200.645619107601
 20
-1382.259639812332
 30
0.0
 11
6203.97429697634
 21
-1386.011026020748
 31
0.0
  0
LINE
  5
57944
330
55CC4
100
AcDbEntity
  8
AM_5
100
AcDbLine
 10
6206.695498932062
 20
-1389.077793034426
 30
0.0
 11
6207.35920672614
 21
-1389.825784988981
 31
0.0
  0
MTEXT
  5
57945
330
55CC4
100
AcDbEntity
  8
AM_5
 62
     2
100
AcDbMText
 10
6192.126952440933
 20
-1379.659639812333
 30
0.0
 40
3.2
 41
0.0
 71
     5
 72
     1
  1
2-\U+22052.1
 73
     1
 44
1.0
1001
ACAD
1000
MTEXTBEGIN
1070
    73
1070
     1
1070
    44
1040
1.0
1070
    74
1070
     0
1000
MTEXTEND
  0
LINE
  5
57946
330
55CC4
100
AcDbEntity
  8
AM_5
100
AcDbLine
 10
6206.031791137982
 20
-1388.329801079871
 30
0.0
 11
6204.638004770419
 21
-1386.759017975304
 31
0.0
  0
INSERT
  5
57947
330
55CC4
100
AcDbEntity
  8
AM_5
100
AcDbBlockReference
  2
_Dot
 10
6206.031791137982
 20
-1388.329801079871
 30
0.0
 50
131.5832670869683
  0
INSERT
  5
57948
330
55CC4
100
AcDbEntity
  8
AM_5
100
AcDbBlockReference
  2
_Dot
 10
6204.638004770419
 20
-1386.759017975304
 30
0.0
 50
311.5832670869683
  0
POINT
  5
57949
330
55CC4
100
AcDbEntity
  8
Defpoints
 62
     0
100
AcDbPoint
 10
6204.638004770419
 20
-1386.759017975304
 30
0.0
  0
POINT
  5
5794A
330
55CC4
100
AcDbEntity
  8
Defpoints
 62
     0
100
AcDbPoint
 10
6206.031791137982
 20
-1388.329801079871
 30
0.0
  0
ENDBLK
  5
55CCF
330
55CC4
100
AcDbEntity
  8
0
100
AcDbBlockEnd
  0
BLOCK
  5
56303
330
562F7
100
AcDbEntity
  8
0
100
AcDbBlockBegin
  2
*D23
 70
     1
 10
0.0
 20
0.0
 30
0.0
  3
*D23
  1

  0
LINE
  5
56326
330
562F7
100
AcDbEntity
  8
AM_5
100
AcDbLine
 10
6216.061007514219
 20
-1322.28542446024
 30
0.0
 11
6216.058988679966
 21
-1322.284682928837
 31
0.0
  0
LINE
  5
56327
330
562F7
100
AcDbEntity
  8
AM_5
100
AcDbLine
 10
6215.543831206959
 20
-1323.693447424261
 30
0.0
 11
6215.541812372706
 21
-1323.692705892858
 31
0.0
  0
LINE
  5
56328
330
562F7
100
AcDbEntity
  8
AM_5
100
AcDbLine
 10
6217.34245486082
 20
-1321.690785157663
 30
0.0
 11
6217.687239065659
 21
-1320.752103181649
 31
0.0
  0
LINE
  5
56329
330
562F7
100
AcDbEntity
  8
AM_5
100
AcDbLine
 10
6216.13571014388
 20
-1324.976172073712
 30
0.0
 11
6212.78440767284
 21
-1334.100160880566
 31
0.0
  0
LINE
  5
5632A
330
562F7
100
AcDbEntity
  8
AM_5
100
AcDbLine
 10
6216.99767065598
 20
-1322.629467133677
 30
0.0
 11
6216.48049434872
 21
-1324.037490097698
 31
0.0
  0
INSERT
  5
5632B
330
562F7
100
AcDbEntity
  8
AM_5
100
AcDbBlockReference
  2
_Dot
 10
6216.99767065598
 20
-1322.629467133677
 30
0.0
 50
249.831376611435
  0
INSERT
  5
5632C
330
562F7
100
AcDbEntity
  8
AM_5
100
AcDbBlockReference
  2
_Dot
 10
6216.48049434872
 20
-1324.037490097698
 30
0.0
 50
69.83137661143494
  0
MTEXT
  5
5632D
330
562F7
100
AcDbEntity
  8
AM_5
 62
     2
100
AcDbMText
 10
6211.847093668304
 20
-1329.111068532563
 30
0.0
 40
3.200000000000001
 41
0.0
 71
     5
 72
     1
  1
%%c1.5
 11
0.3447842048395895
 21
0.9386819760137786
 31
0.0
 73
     1
 44
1.0
1001
ACAD
1000
MTEXTBEGIN
1070
    73
1070
     1
1070
    44
1040
1.0
1070
    74
1070
     0
1000
MTEXTEND
  0
POINT
  5
5632E
330
562F7
100
AcDbEntity
  8
Defpoints
 62
     0
100
AcDbPoint
 10
6216.999689490233
 20
-1322.63020866508
 30
0.0
  0
POINT
  5
5632F
330
562F7
100
AcDbEntity
  8
Defpoints
 62
     0
100
AcDbPoint
 10
6216.482513182973
 20
-1324.0382316291
 30
0.0
  0
POINT
  5
56330
330
562F7
100
AcDbEntity
  8
Defpoints
 62
     0
100
AcDbPoint
 10
6216.48049434872
 20
-1324.037490097698
 30
0.0
  0
ENDBLK
  5
56304
330
562F7
100
AcDbEntity
  8
0
100
AcDbBlockEnd
  0
ENDSEC
  0
SECTION
  2
ENTITIES
  0
TEXT
  5
31B30
330
1F
100
AcDbEntity
  8
AM_6
 60
     1
100
AcDbText
 10
3408.785415022811
 20
1879.970675238635
 30
0.0
 40
2.5
  1
!GENTITLE-INSERT
100
AcDbText
  0
TEXT
  5
31B31
330
1F
100
AcDbEntity
  8
AM_6
 60
     1
100
AcDbText
 10
3000.285415022811
 20
1871.470675238635
 30
0.0
 40
2.5
  1
!GENTITLE-LL
100
AcDbText
  0
TEXT
  5
31B32
330
1F
100
AcDbEntity
  8
AM_6
 60
     1
100
AcDbText
 10
3420.285415022811
 20
2168.470675238635
 30
0.0
 40
2.5
  1
!GENTITLE-RU
100
AcDbText
  0
TEXT
  5
31B33
330
1F
100
AcDbEntity
  8
AM_6
 60
     1
100
AcDbText
 10
3420.285415022811
 20
2168.470675238635
 30
0.0
 40
2.5
  1
!GENTITLE-MAX
100
AcDbText
  0
TEXT
  5
31B3B
330
1F
100
AcDbEntity
  8
AM_6
 60
     1
100
AcDbText
 10
3000.285415022811
 20
1871.470675238635
 30
0.0
 40
2.5
  1
!GENTITLE-LL
100
AcDbText
  0
TEXT
  5
31B3C
330
1F
100
AcDbEntity
  8
AM_6
 60
     1
100
AcDbText
 10
3408.785415022811
 20
2159.970675238636
 30
0.0
 40
2.5
  1
!GENTITLE-RU
100
AcDbText
  0
TEXT
  5
31B3D
330
1F
100
AcDbEntity
  8
AM_6
 60
     1
100
AcDbText
 10
3420.285415022811
 20
2168.470675238635
 30
0.0
 40
2.5
  1
!GENTITLE-MAX
100
AcDbText
  0
TEXT
  5
31B3E
330
1F
100
AcDbEntity
  8
AM_6
 60
     1
100
AcDbText
 10
3408.785415022811
 20
1879.970675238635
 30
0.0
 40
2.5
  1
!GENTITLE-INSERT
100
AcDbText
  0
TEXT
  5
32D1D
330
1F
100
AcDbEntity
  8
AM_6
 60
     1
100
AcDbText
 10
3234.949399973154
 20
1839.277532086519
 30
0.0
 40
2.5
  1
!GENTITLE-INSERT
100
AcDbText
  0
TEXT
  5
32D1E
330
1F
100
AcDbEntity
  8
AM_6
 60
     1
100
AcDbText
 10
3246.449399973154
 20
2040.77753208652
 30
0.0
 40
2.5
  1
!GENTITLE-MAX
100
AcDbText
  0
TEXT
  5
32D1F
330
1F
100
AcDbEntity
  8
AM_6
 60
     1
100
AcDbText
 10
3246.449399973154
 20
2040.77753208652
 30
0.0
 40
2.5
  1
!GENTITLE-RU
100
AcDbText
  0
TEXT
  5
32D21
330
1F
100
AcDbEntity
  8
AM_6
 60
     1
100
AcDbText
 10
2949.449399973154
 20
1830.777532086519
 30
0.0
 40
2.5
  1
!GENTITLE-LL
100
AcDbText
  0
TEXT
  5
34534
330
1F
100
AcDbEntity
  8
AM_6
 60
     1
100
AcDbText
 10
3774.506320898737
 20
958.0958490755065
 30
0.0
 40
2.5
  1
!GENTITLE-INSERT
100
AcDbText
  0
TEXT
  5
34535
330
1F
100
AcDbEntity
  8
AM_6
 60
     1
100
AcDbText
 10
3786.006320898738
 20
1159.595849075506
 30
0.0
 40
2.5
  1
!GENTITLE-MAX
100
AcDbText
  0
TEXT
  5
34536
330
1F
100
AcDbEntity
  8
AM_6
 60
     1
100
AcDbText
 10
3786.006320898738
 20
1159.595849075506
 30
0.0
 40
2.5
  1
!GENTITLE-RU
100
AcDbText
  0
TEXT
  5
34538
330
1F
100
AcDbEntity
  8
AM_6
 60
     1
100
AcDbText
 10
3489.006320898738
 20
949.5958490755064
 30
0.0
 40
2.5
  1
!GENTITLE-LL
100
AcDbText
  0
LINE
  5
38603
330
1F
100
AcDbEntity
  8
size
100
AcDbLine
 10
6074.92467570105
 20
-1247.071802358703
 30
0.0
 11
6371.924675701051
 21
-1247.071802358703
 31
0.0
1001
GENIUS_GENREC_14
1002
{
1000
PYDIR
1011
6074.92467570105
1021
-1160.071802358703
1031
0.0
1002
}
1002
{
1000
PXDIR
1011
6494.924675701051
1021
-1457.071802358703
1031
0.0
1002
}
1002
{
1000
PORI
1011
6074.92467570105
1021
-1457.071802358703
1031
0.0
1002
}
1002
{
1000
PINS
1011
6284.92467570105
1021
-1308.571802358703
1031
0.0
1002
}
1002
{
1000
HVAL
1000
297
1002
}
1002
{
1000
H
1070
     2
1002
}
1002
{
1000
WVAL
1000
420
1002
}
1002
{
1000
W
1070
     2
1002
}
1002
{
1000
C
1070
     4
1002
}
1001
GENIUS_GENOBJ-N-REC_13
1002
{
1000
OWNER
1000
GEN
1002
}
1001
GENIUS_GENODEF_13
1002
{
1000
HIER
1070
     0
1002
}
1002
{
1000
MANEDIT
1070
     0
1002
}
1002
{
1000
NOSEL
1070
     0
1002
}
1002
{
1000
BEHIND
1070
     0
1002
}
1002
{
1000
OTHER
1070
     0
1002
}
1002
{
1000
REACTOR
1002
}
  0
LINE
  5
38604
330
1F
100
AcDbEntity
  8
size
100
AcDbLine
 10
6371.924675701051
 20
-1247.071802358703
 30
0.0
 11
6371.924675701051
 21
-1457.071802358703
 31
0.0
1001
GENIUS_GENREC_14
1002
{
1000
PYDIR
1011
6074.92467570105
1021
-1160.071802358703
1031
0.0
1002
}
1002
{
1000
PXDIR
1011
6494.924675701051
1021
-1457.071802358703
1031
0.0
1002
}
1002
{
1000
PORI
1011
6074.92467570105
1021
-1457.071802358703
1031
0.0
1002
}
1002
{
1000
PINS
1011
6284.92467570105
1021
-1308.571802358703
1031
0.0
1002
}
1002
{
1000
HVAL
1000
297
1002
}
1002
{
1000
H
1070
     2
1002
}
1002
{
1000
WVAL
1000
420
1002
}
1002
{
1000
W
1070
     2
1002
}
1002
{
1000
C
1070
     4
1002
}
1001
GENIUS_GENOBJ-N-REC_13
1002
{
1000
OWNER
1000
GEN
1002
}
1001
GENIUS_GENODEF_13
1002
{
1000
HIER
1070
     0
1002
}
1002
{
1000
MANEDIT
1070
     0
1002
}
1002
{
1000
NOSEL
1070
     0
1002
}
1002
{
1000
BEHIND
1070
     0
1002
}
1002
{
1000
OTHER
1070
     0
1002
}
1002
{
1000
REACTOR
1002
}
  0
LINE
  5
38605
330
1F
100
AcDbEntity
  8
waku
100
AcDbLine
 10
6086.42467570105
 20
-1448.571802358703
 30
0.0
 11
6360.42467570105
 21
-1448.571802358703
 31
0.0
1001
GENIUS_GENREC_14
1002
{
1000
PYDIR
1011
6074.92467570105
1021
-1160.071802358703
1031
0.0
1002
}
1002
{
1000
PXDIR
1011
6494.924675701051
1021
-1457.071802358703
1031
0.0
1002
}
1002
{
1000
PORI
1011
6074.92467570105
1021
-1457.071802358703
1031
0.0
1002
}
1002
{
1000
PINS
1011
6284.92467570105
1021
-1308.571802358703
1031
0.0
1002
}
1002
{
1000
HVAL
1000
297
1002
}
1002
{
1000
H
1070
     2
1002
}
1002
{
1000
WVAL
1000
420
1002
}
1002
{
1000
W
1070
     2
1002
}
1002
{
1000
C
1070
     4
1002
}
  0
LINE
  5
38606
330
1F
100
AcDbEntity
  8
waku
100
AcDbLine
 10
6360.42467570105
 20
-1255.571802358703
 30
0.0
 11
6086.42467570105
 21
-1255.571802358703
 31
0.0
1001
GENIUS_GENREC_14
1002
{
1000
PYDIR
1011
5951.92467570105
1021
-1247.071802358703
1031
0.0
1002
}
1002
{
1000
PXDIR
1011
6371.924675701051
1021
-1544.071802358703
1031
0.0
1002
}
1002
{
1000
PORI
1011
5951.92467570105
1021
-1544.071802358703
1031
0.0
1002
}
1002
{
1000
PINS
1011
6161.924675701051
1021
-1395.571802358703
1031
0.0
1002
}
1002
{
1000
HVAL
1000
297
1002
}
1002
{
1000
H
1070
     2
1002
}
1002
{
1000
WVAL
1000
420
1002
}
1002
{
1000
W
1070
     2
1002
}
1002
{
1000
C
1070
     4
1002
}
1001
GENIUS_GENOBJ-N-REC_13
1002
{
1000
OWNER
1000
GEN
1002
}
1001
GENIUS_GENODEF_13
1002
{
1000
HIER
1070
     0
1002
}
1002
{
1000
MANEDIT
1070
     0
1002
}
1002
{
1000
NOSEL
1070
     0
1002
}
1002
{
1000
BEHIND
1070
     0
1002
}
1002
{
1000
OTHER
1070
     0
1002
}
1002
{
1000
REACTOR
1002
}
  0
LINE
  5
38607
330
1F
100
AcDbEntity
  8
waku
100
AcDbLine
 10
6086.42467570105
 20
-1255.571802358703
 30
0.0
 11
6086.42467570105
 21
-1448.571802358703
 31
0.0
1001
GENIUS_GENREC_14
1002
{
1000
PYDIR
1011
6074.92467570105
1021
-1160.071802358703
1031
0.0
1002
}
1002
{
1000
PXDIR
1011
6494.924675701051
1021
-1457.071802358703
1031
0.0
1002
}
1002
{
1000
PORI
1011
6074.92467570105
1021
-1457.071802358703
1031
0.0
1002
}
1002
{
1000
PINS
1011
6284.92467570105
1021
-1308.571802358703
1031
0.0
1002
}
1002
{
1000
HVAL
1000
297
1002
}
1002
{
1000
H
1070
     2
1002
}
1002
{
1000
WVAL
1000
420
1002
}
1002
{
1000
W
1070
     2
1002
}
1002
{
1000
C
1070
     4
1002
}
1001
GENIUS_GENOBJ-N-REC_13
1002
{
1000
OWNER
1000
GEN
1002
}
1001
GENIUS_GENODEF_13
1002
{
1000
HIER
1070
     0
1002
}
1002
{
1000
MANEDIT
1070
     0
1002
}
1002
{
1000
NOSEL
1070
     0
1002
}
1002
{
1000
BEHIND
1070
     0
1002
}
1002
{
1000
OTHER
1070
     0
1002
}
1002
{
1000
REACTOR
1002
}
  0
LINE
  5
38608
330
1F
100
AcDbEntity
  8
waku
100
AcDbLine
 10
6360.42467570105
 20
-1448.571802358703
 30
0.0
 11
6360.42467570105
 21
-1255.571802358703
 31
0.0
1001
GENIUS_GENREC_14
1002
{
1000
PYDIR
1011
5951.92467570105
1021
-1241.071802358703
1031
0.0
1002
}
1002
{
1000
PXDIR
1011
6371.924675701051
1021
-1538.071802358703
1031
0.0
1002
}
1002
{
1000
PORI
1011
5951.92467570105
1021
-1538.071802358703
1031
0.0
1002
}
1002
{
1000
PINS
1011
6161.924675701051
1021
-1389.571802358703
1031
0.0
1002
}
1002
{
1000
HVAL
1000
297
1002
}
1002
{
1000
H
1070
     2
1002
}
1002
{
1000
WVAL
1000
420
1002
}
1002
{
1000
W
1070
     2
1002
}
1002
{
1000
C
1070
     4
1002
}
1001
GENIUS_GENOBJ-N-REC_13
1002
{
1000
OWNER
1000
GEN
1002
}
1001
GENIUS_GENODEF_13
1002
{
1000
HIER
1070
     0
1002
}
1002
{
1000
MANEDIT
1070
     0
1002
}
1002
{
1000
NOSEL
1070
     0
1002
}
1002
{
1000
BEHIND
1070
     0
1002
}
1002
{
1000
OTHER
1070
     0
1002
}
1002
{
1000
REACTOR
1002
}
  0
LINE
  5
38609
330
1F
100
AcDbEntity
  8
size
100
AcDbLine
 10
6074.92467570105
 20
-1247.071802358703
 30
0.0
 11
6074.92467570105
 21
-1457.071802358703
 31
0.0
1001
GENIUS_GENREC_14
1002
{
1000
PYDIR
1011
6074.92467570105
1021
-1160.071802358703
1031
0.0
1002
}
1002
{
1000
PXDIR
1011
6494.924675701051
1021
-1457.071802358703
1031
0.0
1002
}
1002
{
1000
PORI
1011
6074.92467570105
1021
-1457.071802358703
1031
0.0
1002
}
1002
{
1000
PINS
1011
6284.92467570105
1021
-1308.571802358703
1031
0.0
1002
}
1002
{
1000
HVAL
1000
297
1002
}
1002
{
1000
H
1070
     2
1002
}
1002
{
1000
WVAL
1000
420
1002
}
1002
{
1000
W
1070
     2
1002
}
1002
{
1000
C
1070
     4
1002
}
1001
GENIUS_GENOBJ-N-REC_13
1002
{
1000
OWNER
1000
GEN
1002
}
1001
GENIUS_GENODEF_13
1002
{
1000
HIER
1070
     0
1002
}
1002
{
1000
MANEDIT
1070
     0
1002
}
1002
{
1000
NOSEL
1070
     0
1002
}
1002
{
1000
BEHIND
1070
     0
1002
}
1002
{
1000
OTHER
1070
     0
1002
}
1002
{
1000
REACTOR
1002
}
  0
LINE
  5
3860A
330
1F
100
AcDbEntity
  8
size
100
AcDbLine
 10
6074.92467570105
 20
-1457.071802358703
 30
0.0
 11
6371.924675701051
 21
-1457.071802358703
 31
0.0
1001
GENIUS_GENREC_14
1002
{
1000
PYDIR
1011
6074.92467570105
1021
-1160.071802358703
1031
0.0
1002
}
1002
{
1000
PXDIR
1011
6494.924675701051
1021
-1457.071802358703
1031
0.0
1002
}
1002
{
1000
PORI
1011
6074.92467570105
1021
-1457.071802358703
1031
0.0
1002
}
1002
{
1000
PINS
1011
6284.92467570105
1021
-1308.571802358703
1031
0.0
1002
}
1002
{
1000
HVAL
1000
297
1002
}
1002
{
1000
H
1070
     2
1002
}
1002
{
1000
WVAL
1000
420
1002
}
1002
{
1000
W
1070
     2
1002
}
1002
{
1000
C
1070
     4
1002
}
1001
GENIUS_GENOBJ-N-REC_13
1002
{
1000
OWNER
1000
GEN
1002
}
1001
GENIUS_GENODEF_13
1002
{
1000
HIER
1070
     0
1002
}
1002
{
1000
MANEDIT
1070
     0
1002
}
1002
{
1000
NOSEL
1070
     0
1002
}
1002
{
1000
BEHIND
1070
     0
1002
}
1002
{
1000
OTHER
1070
     0
1002
}
1002
{
1000
REACTOR
1002
}
  0
LINE
  5
3860B
330
1F
100
AcDbEntity
  8
AM_2
370
    13
100
AcDbLine
 10
6106.424675701051
 20
-1255.571802358703
 30
0.0
 11
6106.424675701052
 21
-1287.571802358703
 31
0.0
  0
LINE
  5
3860C
330
1F
100
AcDbEntity
  8
AM_2
370
    13
100
AcDbLine
 10
6086.42467570105
 20
-1263.571802358703
 30
0.0
 11
6173.424675701051
 21
-1263.571802358703
 31
0.0
  0
LINE
  5
3860D
330
1F
100
AcDbEntity
  8
AM_2
370
    13
100
AcDbLine
 10
6086.42467570105
 20
-1271.571802358703
 30
0.0
 11
6173.424675701051
 21
-1271.571802358703
 31
0.0
  0
LINE
  5
3860E
330
1F
100
AcDbEntity
  8
AM_2
370
    13
100
AcDbLine
 10
6086.42467570105
 20
-1279.571802358703
 30
0.0
 11
6173.424675701051
 21
-1279.571802358703
 31
0.0
  0
LINE
  5
3860F
330
1F
100
AcDbEntity
  8
AM_1
100
AcDbLine
 10
6086.42467570105
 20
-1287.571802358703
 30
0.0
 11
6173.424675701051
 21
-1287.571802358703
 31
0.0
  0
LINE
  5
38610
330
1F
100
AcDbEntity
  8
AM_1
100
AcDbLine
 10
6086.42467570105
 20
-1255.571802358703
 30
0.0
 11
6086.424675701051
 21
-1287.571802358703
 31
0.0
  0
LINE
  5
38611
330
1F
100
AcDbEntity
  8
AM_1
100
AcDbLine
 10
6086.42467570105
 20
-1255.571802358703
 30
0.0
 11
6173.424675701051
 21
-1255.571802358703
 31
0.0
  0
LINE
  5
38612
330
1F
100
AcDbEntity
  8
AM_1
100
AcDbLine
 10
6173.424675701051
 20
-1255.571802358703
 30
0.0
 11
6173.424675701052
 21
-1287.571802358703
 31
0.0
  0
TEXT
  5
38613
330
1F
100
AcDbEntity
  8
AM_6
100
AcDbText
 10
6092.081675701052
 20
-1261.171802358703
 30
0.0
 40
3.2
  1
品　名
 41
0.85537027
100
AcDbText
  0
TEXT
  5
38614
330
1F
100
AcDbEntity
  8
AM_6
100
AcDbText
 10
6092.081675701052
 20
-1269.171802358703
 30
0.0
 40
3.2
  1
品　番
 41
0.85537027
100
AcDbText
  0
TEXT
  5
38615
330
1F
100
AcDbEntity
  8
AM_6
100
AcDbText
 10
6092.081675701052
 20
-1277.171802358703
 30
0.0
 40
3.2
  1
材　質
 41
0.85537027
100
AcDbText
  0
TEXT
  5
38616
330
1F
100
AcDbEntity
  8
AM_6
100
AcDbText
 10
6092.081675701052
 20
-1285.171802358703
 30
0.0
 40
3.2
  1
仕上げ
 41
0.85537027
100
AcDbText
  0
TEXT
  5
38617
330
1F
100
AcDbEntity
  8
AM_6
100
AcDbText
 10
6109.28167570105
 20
-1261.171802358703
 30
0.0
 40
3.2
  1
セミパチン錠
 41
0.84306961
100
AcDbText
  0
TEXT
  5
38618
330
1F
100
AcDbEntity
  8
AM_6
100
AcDbText
 10
6109.28167570105
 20
-1269.171802358703
 30
0.0
 40
3.2
  1
ELP-108S-1
 41
0.84741102
100
AcDbText
  0
TEXT
  5
38619
330
1F
100
AcDbEntity
  8
AM_6
100
AcDbText
 10
6109.28167570105
 20
-1277.171802358703
 30
0.0
 40
3.2
  1
ステンレス
 41
0.84634979
100
AcDbText
  0
TEXT
  5
3861A
330
1F
100
AcDbEntity
  8
AM_6
100
AcDbText
 10
6109.28167570105
 20
-1285.171802358703
 30
0.0
 40
3.2
  1
光沢バレル研磨
 41
0.84350122
100
AcDbText
  0
TEXT
  5
4E0E8
330
1F
100
AcDbEntity
  8
AM_6
 60
     1
100
AcDbText
 10
5957.394900433246
 20
-5651.939004350452
 30
0.0
 40
2.5
  1
!GENTITLE-INSERT
100
AcDbText
  0
TEXT
  5
4E0E9
330
1F
100
AcDbEntity
  8
AM_6
 60
     1
100
AcDbText
 10
5548.894900433246
 20
-5660.439004350451
 30
0.0
 40
2.5
  1
!GENTITLE-LL
100
AcDbText
  0
TEXT
  5
4E0EA
330
1F
100
AcDbEntity
  8
AM_6
 60
     1
100
AcDbText
 10
5968.894900433246
 20
-5363.439004350452
 30
0.0
 40
2.5
  1
!GENTITLE-RU
100
AcDbText
  0
TEXT
  5
4E0EB
330
1F
100
AcDbEntity
  8
AM_6
 60
     1
100
AcDbText
 10
5968.894900433246
 20
-5363.439004350452
 30
0.0
 40
2.5
  1
!GENTITLE-MAX
100
AcDbText
  0
TEXT
  5
4E0F3
330
1F
100
AcDbEntity
  8
AM_6
 60
     1
100
AcDbText
 10
5548.894900433246
 20
-5660.439004350451
 30
0.0
 40
2.5
  1
!GENTITLE-LL
100
AcDbText
  0
TEXT
  5
4E0F4
330
1F
100
AcDbEntity
  8
AM_6
 60
     1
100
AcDbText
 10
5957.394900433246
 20
-5371.939004350451
 30
0.0
 40
2.5
  1
!GENTITLE-RU
100
AcDbText
  0
TEXT
  5
4E0F5
330
1F
100
AcDbEntity
  8
AM_6
 60
     1
100
AcDbText
 10
5968.894900433246
 20
-5363.439004350452
 30
0.0
 40
2.5
  1
!GENTITLE-MAX
100
AcDbText
  0
TEXT
  5
4E0F6
330
1F
100
AcDbEntity
  8
AM_6
 60
     1
100
AcDbText
 10
5957.394900433246
 20
-5651.939004350452
 30
0.0
 40
2.5
  1
!GENTITLE-INSERT
100
AcDbText
  0
TEXT
  5
5183F
330
1F
100
AcDbEntity
  8
AM_6
 60
     1
100
AcDbText
 10
5973.602012689372
 20
109.7385382224183
 30
0.0
 40
2.5
  1
!GENTITLE-INSERT
100
AcDbText
  0
TEXT
  5
51840
330
1F
100
AcDbEntity
  8
AM_6
 60
     1
100
AcDbText
 10
5565.102012689372
 20
101.2385382224183
 30
0.0
 40
2.5
  1
!GENTITLE-LL
100
AcDbText
  0
TEXT
  5
51841
330
1F
100
AcDbEntity
  8
AM_6
 60
     1
100
AcDbText
 10
5985.102012689372
 20
398.2385382224184
 30
0.0
 40
2.5
  1
!GENTITLE-RU
100
AcDbText
  0
TEXT
  5
51842
330
1F
100
AcDbEntity
  8
AM_6
 60
     1
100
AcDbText
 10
5985.102012689372
 20
398.2385382224184
 30
0.0
 40
2.5
  1
!GENTITLE-MAX
100
AcDbText
  0
TEXT
  5
5184A
330
1F
100
AcDbEntity
  8
AM_6
 60
     1
100
AcDbText
 10
5565.102012689372
 20
101.2385382224183
 30
0.0
 40
2.5
  1
!GENTITLE-LL
100
AcDbText
  0
TEXT
  5
5184B
330
1F
100
AcDbEntity
  8
AM_6
 60
     1
100
AcDbText
 10
5973.602012689372
 20
389.7385382224184
 30
0.0
 40
2.5
  1
!GENTITLE-RU
100
AcDbText
  0
TEXT
  5
5184C
330
1F
100
AcDbEntity
  8
AM_6
 60
     1
100
AcDbText
 10
5985.102012689372
 20
398.2385382224184
 30
0.0
 40
2.5
  1
!GENTITLE-MAX
100
AcDbText
  0
TEXT
  5
5184D
330
1F
100
AcDbEntity
  8
AM_6
 60
     1
100
AcDbText
 10
5973.602012689372
 20
109.7385382224183
 30
0.0
 40
2.5
  1
!GENTITLE-INSERT
100
AcDbText
  0
ARC
  5
55AB7
330
1F
100
AcDbEntity
  8
0部品1
100
AcDbCircle
 10
6220.334897954206
 20
-1348.985920193054
 30
0.0
 40
2.5
100
AcDbArc
 50
70.56284694906077
 51
201.0253954776626
  0
ARC
  5
55AB8
330
1F
100
AcDbEntity
  8
0部品1
100
AcDbCircle
 10
6220.334897954206
 20
-1348.985920193054
 30
0.0
 40
2.5
100
AcDbArc
 50
244.9075695815476
 51
261.8936111497852
  0
ARC
  5
55AB9
330
1F
100
AcDbEntity
  8
0部品1
100
AcDbCircle
 10
6225.852118303979
 20
-1349.76069733007
 30
0.0
 40
1.05
100
AcDbArc
 50
231.9575546865745
 51
140.7881718809878
  0
LINE
  5
55ABA
330
1F
100
AcDbEntity
  8
0部品1
100
AcDbLine
 10
6222.761328658457
 20
-1344.614143204525
 30
0.0
 11
6233.077699099254
 21
-1350.339951739516
 31
0.0
  0
LINE
  5
55ABC
330
1F
100
AcDbEntity
  8
0部品1
100
AcDbLine
 10
6232.109415936649
 20
-1350.946233352415
 30
0.0
 11
6232.592412958402
 21
-1351.214307137222
 31
0.0
  0
ARC
  5
55ABD
330
1F
100
AcDbEntity
  8
0部品1
100
AcDbCircle
 10
6235.018843662657
 20
-1346.842530148691
 30
0.0
 40
5.0
100
AcDbArc
 50
240.9687787221947
 51
285.5132106147242
1001
GENIUS_GENODEF_13
1002
{
1000
HIER
1070
     0
1002
}
1002
{
1000
MANEDIT
1070
     0
1002
}
1002
{
1000
NOSEL
1070
     0
1002
}
1002
{
1000
BEHIND
1070
     0
1002
}
1002
{
1000
OTHER
1070
     0
1002
}
1002
{
1000
REACTOR
1002
}
1001
GENIUS_GENOBJ-N-FIL_13
1002
{
1000
OWNER
1000
GEN
1002
}
  0
ARC
  5
55ABE
330
1F
100
AcDbEntity
  8
0部品1
100
AcDbCircle
 10
6235.018843662657
 20
-1346.842530148691
 30
0.0
 40
4.0
100
AcDbArc
 50
240.9687787221947
 51
285.5132106147242
1001
GENIUS_GENODEF_13
1002
{
1000
HIER
1070
     0
1002
}
1002
{
1000
MANEDIT
1070
     0
1002
}
1002
{
1000
NOSEL
1070
     0
1002
}
1002
{
1000
BEHIND
1070
     0
1002
}
1002
{
1000
OTHER
1070
     0
1002
}
1002
{
1000
REACTOR
1002
}
1001
GENIUS_GENOBJ-N-FIL_13
1002
{
1000
OWNER
1000
GEN
1002
}
  0
ARC
  5
55ABF
330
1F
100
AcDbEntity
  8
0部品1
100
AcDbCircle
 10
6231.624129795799
 20
-1351.820588750122
 30
0.0
 40
1.0
100
AcDbArc
 50
60.96877872219473
 51
107.2982061148707
1001
GENIUS_GENODEF_13
1002
{
1000
HIER
1070
     0
1002
}
1002
{
1000
MANEDIT
1070
     0
1002
}
1002
{
1000
NOSEL
1070
     0
1002
}
1002
{
1000
BEHIND
1070
     0
1002
}
1002
{
1000
OTHER
1070
     0
1002
}
1002
{
1000
REACTOR
1002
}
1001
GENIUS_GENOBJ-N-FIL_13
1002
{
1000
OWNER
1000
GEN
1002
}
  0
LINE
  5
55AC0
330
1F
100
AcDbEntity
  8
AM_0
100
AcDbLine
 10
6223.198506357308
 20
-1344.856786274949
 30
0.0
 11
6223.198506357309
 21
-1344.856786274947
 31
0.0
  0
LINE
  5
55AC3
330
1F
100
AcDbEntity
  8
0部品1
100
AcDbLine
 10
6221.770393717657
 20
-1346.399542047247
 30
0.0
 11
6222.761328658457
 21
-1344.614143204525
 31
0.0
  0
ARC
  5
55AC4
330
1F
100
AcDbEntity
  8
0部品1
100
AcDbCircle
 10
6221.333216018805
 20
-1346.156898976821
 30
0.0
 40
0.5
100
AcDbArc
 50
250.5628469491161
 51
330.9687787221172
1001
GENIUS_GENODEF_13
1002
{
1000
HIER
1070
     0
1002
}
1002
{
1000
MANEDIT
1070
     0
1002
}
1002
{
1000
NOSEL
1070
     0
1002
}
1002
{
1000
BEHIND
1070
     0
1002
}
1002
{
1000
OTHER
1070
     0
1002
}
1002
{
1000
REACTOR
1002
}
1001
GENIUS_GENOBJ-N-FIL_13
1002
{
1000
OWNER
1000
GEN
1002
}
  0
LINE
  5
55AC5
330
1F
100
AcDbEntity
  8
0部品1
100
AcDbLine
 10
6230.891393994905
 20
-1350.631567880052
 30
0.0
 11
6230.087465326842
 21
-1351.251781110454
 31
0.0
  0
LINE
  5
55AC6
330
1F
100
AcDbEntity
  8
0部品1
100
AcDbLine
 10
6231.326784814664
 20
-1350.865818640517
 30
0.0
 11
6226.670592704842
 21
-1352.315901064676
 31
0.0
  0
ARC
  5
55AC7
330
1F
100
AcDbEntity
  8
0部品1
100
AcDbCircle
 10
6232.202689354348
 20
-1352.14170180799
 30
0.0
 40
2.0
100
AcDbArc
 50
60.96877872213529
 51
130.9687787222088
1001
GENIUS_GENOBJ-N-FIL_13
1002
{
1000
OWNER
1000
GEN
1002
}
1001
GENIUS_GENODEF_13
1002
{
1000
HIER
1070
     0
1002
}
1002
{
1000
MANEDIT
1070
     0
1002
}
1002
{
1000
NOSEL
1070
     0
1002
}
1002
{
1000
BEHIND
1070
     0
1002
}
1002
{
1000
OTHER
1070
     0
1002
}
1002
{
1000
REACTOR
1002
}
  0
LINE
  5
55AC8
330
1F
100
AcDbEntity
  8
0部品1
100
AcDbLine
 10
6236.088685870722
 20
-1350.696805391826
 30
0.0
 11
6242.105463541495
 21
-1349.026711197021
 31
0.0
  0
LINE
  5
55AC9
330
1F
100
AcDbEntity
  8
0部品1
100
AcDbLine
 10
6236.356146422739
 20
-1351.66037420261
 30
0.0
 11
6242.372924093512
 21
-1349.990280007805
 31
0.0
  0
LINE
  5
55ACA
330
1F
100
AcDbEntity
  8
0部品1
100
AcDbLine
 10
6234.703730488753
 20
-1350.830098792318
 30
0.0
 11
6234.551294956439
 21
-1351.820621972605
 31
0.0
  0
LINE
  5
55ACB
330
1F
100
AcDbEntity
  8
0部品1
100
AcDbLine
 10
6226.232236098603
 20
-1352.351138895233
 30
0.0
 11
6219.98236889144
 21
-1351.46094004346
 31
0.0
  0
ARC
  5
55ACC
330
1F
100
AcDbEntity
  8
0部品1
100
AcDbCircle
 10
6226.373247723708
 20
-1351.36113095507
 30
0.0
 40
1.0
100
AcDbArc
 50
261.8936111497852
 51
287.2982061148708
1001
GENIUS_GENODEF_13
1002
{
1000
HIER
1070
     0
1002
}
1002
{
1000
MANEDIT
1070
     0
1002
}
1002
{
1000
NOSEL
1070
     0
1002
}
1002
{
1000
BEHIND
1070
     0
1002
}
1002
{
1000
OTHER
1070
     0
1002
}
1002
{
1000
REACTOR
1002
}
1001
GENIUS_GENOBJ-N-FIL_13
1002
{
1000
OWNER
1000
GEN
1002
}
  0
LINE
  5
55ACD
330
1F
100
AcDbEntity
  8
0部品1
100
AcDbLine
 10
6217.834897953522
 20
-1322.321182228596
 30
0.0
 11
6217.834897953522
 21
-1321.321182228596
 31
0.0
  0
LINE
  5
55ACE
330
1F
100
AcDbEntity
  8
0部品1
100
AcDbLine
 10
6222.761328658457
 20
-1321.321182228762
 30
0.0
 11
6222.761328658457
 21
-1310.821182228762
 31
0.0
  0
LINE
  5
55ACF
330
1F
100
AcDbEntity
  8
0部品1
100
AcDbLine
 10
6217.834897953522
 20
-1310.821182228596
 30
0.0
 11
6217.834897953522
 21
-1309.821182228596
 31
0.0
  0
LINE
  5
55AD0
330
1F
100
AcDbEntity
  8
0部品1
100
AcDbLine
 10
6232.153375079136
 20
-1322.321182228596
 30
0.0
 11
6217.834897953522
 21
-1322.321182228596
 31
0.0
  0
LINE
  5
55AD1
330
1F
100
AcDbEntity
  8
0部品1
100
AcDbLine
 10
6222.265861188059
 20
-1321.321182228596
 30
0.0
 11
6217.834897953522
 21
-1321.321182228596
 31
0.0
  0
LINE
  5
55AD2
330
1F
100
AcDbEntity
  8
0部品1
100
AcDbLine
 10
6217.834897953522
 20
-1310.821182228596
 30
0.0
 11
6222.265861188058
 21
-1310.821182228596
 31
0.0
  0
LINE
  5
55AD3
330
1F
100
AcDbEntity
  8
0部品1
100
AcDbLine
 10
6217.834897953522
 20
-1309.821182228596
 30
0.0
 11
6232.15337507888
 21
-1309.821182228596
 31
0.0
  0
LINE
  5
55AD4
330
1F
100
AcDbEntity
  8
0部品1
100
AcDbLine
 10
6232.153375079139
 20
-1322.321182228596
 30
0.0
 11
6234.685486105766
 21
-1319.055846736268
 31
0.0
1001
GENIUS_GENODEF_13
1002
{
1000
HIER
1070
     0
1002
}
1002
{
1000
MANEDIT
1070
     0
1002
}
1002
{
1000
NOSEL
1070
     0
1002
}
1002
{
1000
BEHIND
1070
     0
1002
}
1002
{
1000
OTHER
1070
     0
1002
}
1002
{
1000
REACTOR
1002
}
1001
GENIUS_GENOBJ-N-CEN_13
1002
{
1000
OWNER
1000
GEN
1002
}
1001
GENIUS_GENCEN_19
1002
{
1040
2.5
1002
}
  0
LINE
  5
55AD5
330
1F
100
AcDbEntity
  8
0部品1
100
AcDbLine
 10
6234.685486105766
 20
-1319.055846736268
 30
0.0
 11
6241.181563664299
 21
-1318.476579698418
 31
0.0
  0
LINE
  5
55AD6
330
1F
100
AcDbEntity
  8
0部品1
100
AcDbLine
 10
6222.265861188058
 20
-1321.321182228596
 30
0.0
 11
6222.265861188058
 21
-1310.821182228596
 31
0.0
  0
ELLIPSE
  5
55AD7
330
1F
100
AcDbEntity
  8
0部品1
100
AcDbEllipse
 10
6222.265861188058
 20
-1310.821182228596
 30
0.0
 11
-0.1539085805893363
 21
1.025899553517503
 31
0.0
210
0.0
220
0.0
230
1.0
 40
0.4735186941074891
 41
4.641469399658542
 42
5.976364150292855
  0
ELLIPSE
  5
55AD8
330
1F
100
AcDbEntity
  8
0部品1
100
AcDbEllipse
 10
6222.265861188058
 20
-1321.321182228596
 30
0.0
 11
0.1539085806758797
 21
1.025899553540418
 31
0.0
210
0.0
220
0.0
230
-0.9999999999999998
 40
0.4735186941238365
 41
1.499876746351577
 42
2.834771496557532
  0
ELLIPSE
  5
55AD9
330
1F
100
AcDbEntity
  8
0部品1
100
AcDbEllipse
 10
6241.137030527122
 20
-1316.071182228765
 30
0.0
 11
-0.0000000000001541
 21
2.406960561350254
 31
0.0
210
0.0
220
0.0
230
-1.0
 40
0.5134664797732983
 41
0.036040951322551
 42
3.105551702408875
  0
ELLIPSE
  5
55ADA
330
1F
100
AcDbEntity
  8
0部品1
100
AcDbEllipse
 10
6241.033197568952
 20
-1316.071182228765
 30
0.0
 11
0.0
 21
-2.416824677965678
 31
0.0
210
0.0
220
0.0
230
-1.0
 40
0.5113707989070892
 41
3.141592653589793
 42
6.283185307179586
  0
LINE
  5
55ADB
330
1F
100
AcDbEntity
  8
0部品2
100
AcDbLine
 10
6218.334897954204
 20
-1351.354947109907
 30
0.0
 11
6218.334897954205
 21
-1352.985920193058
 31
0.0
  0
LINE
  5
55ADC
330
1F
100
AcDbEntity
  8
0部品2
100
AcDbLine
 10
6222.334897954205
 20
-1351.796022150171
 30
0.0
 11
6222.334897954205
 21
-1351.985920193057
 31
0.0
  0
LINE
  5
55ADD
330
1F
100
AcDbEntity
  8
0部品2
100
AcDbLine
 10
6218.334897954205
 20
-1352.985920193058
 30
0.0
 11
6235.334897954206
 21
-1352.985920193058
 31
0.0
  0
ARC
  5
55ADE
330
1F
100
AcDbEntity
  8
0部品2
100
AcDbCircle
 10
6223.334897954205
 20
-1351.985920193057
 30
0.0
 40
1.0
100
AcDbArc
 50
180.0
 51
270.0
1001
GENIUS_GENODEF_13
1002
{
1000
HIER
1070
     0
1002
}
1002
{
1000
MANEDIT
1070
     0
1002
}
1002
{
1000
NOSEL
1070
     0
1002
}
1002
{
1000
BEHIND
1070
     0
1002
}
1002
{
1000
OTHER
1070
     0
1002
}
1002
{
1000
REACTOR
1002
}
1001
GENIUS_GENOBJ-N-FIL_13
1002
{
1000
OWNER
1000
GEN
1002
}
  0
LINE
  5
55AE0
330
1F
100
AcDbEntity
  8
0部品2
100
AcDbLine
 10
6223.334897954205
 20
-1351.985920193058
 30
0.0
 11
6223.668125410725
 21
-1351.985920193057
 31
0.0
  0
LINE
  5
55AE1
330
1F
100
AcDbEntity
  8
0部品2
100
AcDbLine
 10
6227.730156151182
 20
-1351.985920193057
 30
0.0
 11
6235.334897954206
 21
-1351.985920193057
 31
0.0
  0
LINE
  5
55AE2
330
1F
100
AcDbEntity
  8
0部品2
100
AcDbLine
 10
6235.334897954206
 20
-1352.985920193058
 30
0.0
 11
6235.334897954206
 21
-1351.985920193057
 31
0.0
  0
LINE
  5
55AE3
330
1F
100
AcDbEntity
  8
0部品2
  6
中心線1
 48
0.15
370
    13
100
AcDbLine
 10
6226.334897954205
 20
-1354.485920193057
 30
0.0
 11
6226.334897954205
 21
-1350.685920193058
 31
0.0
1001
GENIUS_GENODEF_13
1002
{
1000
HIER
1070
     0
1002
}
1002
{
1000
MANEDIT
1070
     0
1002
}
1002
{
1000
NOSEL
1070
     0
1002
}
1002
{
1000
BEHIND
1070
     0
1002
}
1002
{
1000
OTHER
1070
     0
1002
}
1002
{
1000
REACTOR
1002
}
1001
GENIUS_GENOBJ-N-CEN_13
1002
{
1000
OWNER
1000
GEN
1002
}
1001
GENIUS_GENCEN_19
1002
{
1040
2.5
1002
}
  0
LINE
  5
55AE4
330
1F
100
AcDbEntity
  8
0部品2
100
AcDbLine
 10
6222.265861188058
 20
-1321.071182228763
 30
0.0
 11
6218.334897954205
 21
-1321.071182228763
 31
0.0
  0
LINE
  5
55AE5
330
1F
100
AcDbEntity
  8
0部品2
100
AcDbLine
 10
6218.334897954205
 20
-1321.071182228763
 30
0.0
 11
6218.334897954205
 21
-1311.071182228763
 31
0.0
  0
LINE
  5
55AE6
330
1F
100
AcDbEntity
  8
0部品2
100
AcDbLine
 10
6218.334897954205
 20
-1311.071182228763
 30
0.0
 11
6222.265861188058
 21
-1311.071182228763
 31
0.0
  0
LINE
  5
55AE7
330
1F
100
AcDbEntity
  8
0部品2
100
AcDbLine
 10
6222.265861188058
 20
-1320.071182228763
 30
0.0
 11
6218.334897954205
 21
-1320.071182228763
 31
0.0
  0
LINE
  5
55AE8
330
1F
100
AcDbEntity
  8
0部品2
100
AcDbLine
 10
6218.334897954205
 20
-1312.071182228763
 30
0.0
 11
6222.265861188058
 21
-1312.071182228763
 31
0.0
  0
LINE
  5
55AEB
330
1F
100
AcDbEntity
  8
0部品2
100
AcDbLine
 10
6235.334897954203
 20
-1311.821182228763
 30
0.0
 11
6235.334897954204
 21
-1313.138452182746
 31
0.0
  0
LINE
  5
55AEC
330
1F
100
AcDbEntity
  8
0部品2
100
AcDbLine
 10
6235.334897954206
 20
-1319.005662773408
 30
0.0
 11
6235.334897954206
 21
-1320.321182228762
 31
0.0
  0
ARC
  5
55AED
330
1F
100
AcDbEntity
  8
0部品2
100
AcDbCircle
 10
6234.834897954204
 20
-1311.821182228763
 30
0.0
 40
0.5
100
AcDbArc
 50
0.0000000000195413
 51
90.0
1001
GENIUS_GENODEF_13
1002
{
1000
HIER
1070
     0
1002
}
1002
{
1000
MANEDIT
1070
     0
1002
}
1002
{
1000
NOSEL
1070
     0
1002
}
1002
{
1000
BEHIND
1070
     0
1002
}
1002
{
1000
OTHER
1070
     0
1002
}
1002
{
1000
REACTOR
1002
}
1001
GENIUS_GENOBJ-N-FIL_13
1002
{
1000
OWNER
1000
GEN
1002
}
  0
ARC
  5
55AEE
330
1F
100
AcDbEntity
  8
0部品2
100
AcDbCircle
 10
6234.834897954206
 20
-1320.321182228763
 30
0.0
 40
0.5
100
AcDbArc
 50
270.0
 51
0.0000000000130276
1001
GENIUS_GENOBJ-N-FIL_13
1002
{
1000
OWNER
1000
GEN
1002
}
1001
GENIUS_GENODEF_13
1002
{
1000
HIER
1070
     0
1002
}
1002
{
1000
MANEDIT
1070
     0
1002
}
1002
{
1000
NOSEL
1070
     0
1002
}
1002
{
1000
BEHIND
1070
     0
1002
}
1002
{
1000
OTHER
1070
     0
1002
}
1002
{
1000
REACTOR
1002
}
  0
LINE
  5
55AEF
330
1F
100
AcDbEntity
  8
0部品2
  6
中心線1
 48
0.15
370
    13
100
AcDbLine
 10
6231.334897954205
 20
-1354.485920193057
 30
0.0
 11
6231.334897954205
 21
-1350.685920193058
 31
0.0
1001
GENIUS_GENODEF_13
1002
{
1000
HIER
1070
     0
1002
}
1002
{
1000
MANEDIT
1070
     0
1002
}
1002
{
1000
NOSEL
1070
     0
1002
}
1002
{
1000
BEHIND
1070
     0
1002
}
1002
{
1000
OTHER
1070
     0
1002
}
1002
{
1000
REACTOR
1002
}
1001
GENIUS_GENOBJ-N-CEN_13
1002
{
1000
OWNER
1000
GEN
1002
}
1001
GENIUS_GENCEN_19
1002
{
1040
2.5
1002
}
  0
ARC
  5
55AF2
330
1F
100
AcDbEntity
  8
0部品2
100
AcDbCircle
 10
6223.334897954205
 20
-1350.985920193057
 30
0.0
 40
1.0
100
AcDbArc
 50
242.4585110533885
 51
270.0
1001
GENIUS_GENODEF_13
1002
{
1000
HIER
1070
     0
1002
}
1002
{
1000
MANEDIT
1070
     0
1002
}
1002
{
1000
NOSEL
1070
     0
1002
}
1002
{
1000
BEHIND
1070
     0
1002
}
1002
{
1000
OTHER
1070
     0
1002
}
1002
{
1000
REACTOR
1002
}
1001
GENIUS_GENOBJ-N-FIL_13
1002
{
1000
OWNER
1000
GEN
1002
}
  0
LINE
  5
55AF3
330
1F
100
AcDbEntity
  8
0部品2
100
AcDbLine
 10
6233.316553119632
 20
-1320.821182228763
 30
0.0
 11
6234.834897954206
 21
-1320.821182228763
 31
0.0
  0
LINE
  5
55AF4
330
1F
100
AcDbEntity
  8
0部品2
100
AcDbLine
 10
6234.834897954204
 20
-1311.321182228763
 30
0.0
 11
6233.31657166332
 21
-1311.321206142155
 31
0.0
  0
LINE
  5
55B01
330
1F
100
AcDbEntity
  8
0部品1
100
AcDbLine
 10
6217.834897953522
 20
-1388.294409527755
 30
0.0
 11
6217.834897953522
 21
-1389.294409527755
 31
0.0
  0
LINE
  5
55B02
330
1F
100
AcDbEntity
  8
0部品1
100
AcDbLine
 10
6217.834897953522
 20
-1399.794409527755
 30
0.0
 11
6217.834897953522
 21
-1400.794409527755
 31
0.0
  0
LINE
  5
55B03
330
1F
100
AcDbEntity
  8
0部品1
100
AcDbLine
 10
6232.153375079139
 20
-1388.294409527754
 30
0.0
 11
6217.834897953522
 21
-1388.294409527755
 31
0.0
  0
LINE
  5
55B04
330
1F
100
AcDbEntity
  8
0部品1
100
AcDbLine
 10
6232.928827106221
 20
-1389.294409527755
 30
0.0
 11
6217.834897953522
 21
-1389.294409527755
 31
0.0
  0
LINE
  5
55B05
330
1F
100
AcDbEntity
  8
0部品1
100
AcDbLine
 10
6217.834897953522
 20
-1399.794409527755
 30
0.0
 11
6232.928827105961
 21
-1399.794409527755
 31
0.0
  0
LINE
  5
55B06
330
1F
100
AcDbEntity
  8
0部品1
100
AcDbLine
 10
6217.834897953522
 20
-1400.794409527755
 30
0.0
 11
6232.153375079139
 21
-1400.794409527421
 31
0.0
  0
LINE
  5
55B08
330
1F
100
AcDbEntity
  8
0部品1
100
AcDbLine
 10
6222.265861188058
 20
-1389.294409527755
 30
0.0
 11
6222.265861188058
 21
-1389.544409527589
 31
0.0
  0
LINE
  5
55B09
330
1F
100
AcDbEntity
  8
0部品1
100
AcDbLine
 10
6222.265861188058
 20
-1399.544409527588
 30
0.0
 11
6222.265861188058
 21
-1399.794409527755
 31
0.0
  0
ELLIPSE
  5
55B0B
330
1F
100
AcDbEntity
  8
0部品1
100
AcDbEllipse
 10
6241.137030527122
 20
-1394.544409527588
 30
0.0
 11
0.0000000000001541
 21
2.406960561350254
 31
0.0
210
0.0
220
0.0
230
1.0
 40
0.5134664797732983
 41
3.177633604912343
 42
6.247144355998669
  0
LINE
  5
55B0D
330
1F
100
AcDbEntity
  8
0部品2
100
AcDbLine
 10
6222.334897954205
 20
-1389.544409527589
 30
0.0
 11
6218.334897954205
 21
-1389.544409527588
 31
0.0
  0
LINE
  5
55B0E
330
1F
100
AcDbEntity
  8
0部品2
100
AcDbLine
 10
6218.334897954205
 20
-1389.544409527588
 30
0.0
 11
6218.334897954205
 21
-1399.544409527588
 31
0.0
  0
LINE
  5
55B0F
330
1F
100
AcDbEntity
  8
0部品2
100
AcDbLine
 10
6218.334897954205
 20
-1399.544409527588
 30
0.0
 11
6222.334897954205
 21
-1399.544409527588
 31
0.0
  0
CIRCLE
  5
55B13
330
1F
100
AcDbEntity
  8
0部品2
100
AcDbCircle
 10
6226.334897954205
 20
-1394.544409527588
 30
0.0
 40
1.05
  0
CIRCLE
  5
55B14
330
1F
100
AcDbEntity
  8
0部品2
100
AcDbCircle
 10
6231.334897954205
 20
-1394.544409527588
 30
0.0
 40
1.05
  0
LINE
  5
55B15
330
1F
100
AcDbEntity
  8
0部品2
  6
中心線1
 48
0.3
370
    13
100
AcDbLine
 10
6226.334897954205
 20
-1396.094409527588
 30
0.0
 11
6226.334897954205
 21
-1392.994409527588
 31
0.0
1001
GENIUS_GENODEF_13
1002
{
1000
HIER
1070
     0
1002
}
1002
{
1000
MANEDIT
1070
     0
1002
}
1002
{
1000
NOSEL
1070
     0
1002
}
1002
{
1000
BEHIND
1070
     0
1002
}
1002
{
1000
OTHER
1070
     0
1002
}
1002
{
1000
REACTOR
1002
}
1001
GENIUS_GENOBJ-N-CEN_13
1002
{
1000
OWNER
1000
GEN
1002
}
1001
GENIUS_GENCEN_19
1002
{
1040
2.5
1002
}
  0
LINE
  5
55B16
330
1F
100
AcDbEntity
  8
0部品2
  6
中心線1
 48
0.3
370
    13
100
AcDbLine
 10
6231.334897954205
 20
-1396.094409527588
 30
0.0
 11
6231.334897954205
 21
-1392.994409527588
 31
0.0
1001
GENIUS_GENODEF_13
1002
{
1000
HIER
1070
     0
1002
}
1002
{
1000
MANEDIT
1070
     0
1002
}
1002
{
1000
NOSEL
1070
     0
1002
}
1002
{
1000
BEHIND
1070
     0
1002
}
1002
{
1000
OTHER
1070
     0
1002
}
1002
{
1000
REACTOR
1002
}
1001
GENIUS_GENOBJ-N-CEN_13
1002
{
1000
OWNER
1000
GEN
1002
}
1001
GENIUS_GENCEN_19
1002
{
1040
2.5
1002
}
  0
LINE
  5
55B1B
330
1F
100
AcDbEntity
  8
0部品2
100
AcDbLine
 10
6235.334897954203
 20
-1398.794409527588
 30
0.0
 11
6235.334897954206
 21
-1390.294409527588
 31
0.0
  0
ARC
  5
55B1C
330
1F
100
AcDbEntity
  8
0部品2
100
AcDbCircle
 10
6234.834897954204
 20
-1398.794409527588
 30
0.0
 40
0.5
100
AcDbArc
 50
270.0
 51
359.9999999999805
1001
GENIUS_GENODEF_13
1002
{
1000
HIER
1070
     0
1002
}
1002
{
1000
MANEDIT
1070
     0
1002
}
1002
{
1000
NOSEL
1070
     0
1002
}
1002
{
1000
BEHIND
1070
     0
1002
}
1002
{
1000
OTHER
1070
     0
1002
}
1002
{
1000
REACTOR
1002
}
1001
GENIUS_GENOBJ-N-FIL_13
1002
{
1000
OWNER
1000
GEN
1002
}
  0
ARC
  5
55B1D
330
1F
100
AcDbEntity
  8
0部品2
100
AcDbCircle
 10
6234.834897954206
 20
-1390.294409527588
 30
0.0
 40
0.5
100
AcDbArc
 50
359.9999999999805
 51
90.0
1001
GENIUS_GENOBJ-N-FIL_13
1002
{
1000
OWNER
1000
GEN
1002
}
1001
GENIUS_GENODEF_13
1002
{
1000
HIER
1070
     0
1002
}
1002
{
1000
MANEDIT
1070
     0
1002
}
1002
{
1000
NOSEL
1070
     0
1002
}
1002
{
1000
BEHIND
1070
     0
1002
}
1002
{
1000
OTHER
1070
     0
1002
}
1002
{
1000
REACTOR
1002
}
  0
LINE
  5
55B1E
330
1F
100
AcDbEntity
  8
0部品2
100
AcDbLine
 10
6223.321106162637
 20
-1389.794409527588
 30
0.0
 11
6234.834897954206
 21
-1389.794409527588
 31
0.0
  0
LINE
  5
55B1F
330
1F
100
AcDbEntity
  8
0部品2
100
AcDbLine
 10
6234.834897954204
 20
-1399.294409527588
 30
0.0
 11
6223.321106162637
 21
-1399.294228187235
 31
0.0
  0
LWPOLYLINE
  5
55B20
330
1F
100
AcDbEntity
  8
0部品2
100
AcDbPolyline
 90
        2
 70
     0
 43
0.0
 10
6223.321106162637
 20
-1399.294409527588
 42
0.1316882562844615
 10
6222.334897954205
 20
-1399.544409527588
 42
3.400995756368007
  0
LWPOLYLINE
  5
55B22
330
1F
100
AcDbEntity
  8
0部品2
100
AcDbPolyline
 90
        2
 70
     0
 43
0.0
 10
6223.321106162637
 20
-1389.794409527588
 42
-0.1316882562844615
 10
6222.334897954205
 20
-1389.544409527588
 42
-3.400995756368007
  0
LINE
  5
55B24
330
1F
100
AcDbEntity
  8
0部品1
100
AcDbLine
 10
6232.153375079139
 20
-1309.821182228929
 30
0.0
 11
6234.685486105766
 21
-1313.086517721257
 31
0.0
1001
GENIUS_GENODEF_13
1002
{
1000
HIER
1070
     0
1002
}
1002
{
1000
MANEDIT
1070
     0
1002
}
1002
{
1000
NOSEL
1070
     0
1002
}
1002
{
1000
BEHIND
1070
     0
1002
}
1002
{
1000
OTHER
1070
     0
1002
}
1002
{
1000
REACTOR
1002
}
1001
GENIUS_GENOBJ-N-CEN_13
1002
{
1000
OWNER
1000
GEN
1002
}
1001
GENIUS_GENCEN_19
1002
{
1040
2.5
1002
}
  0
LINE
  5
55B25
330
1F
100
AcDbEntity
  8
0部品1
100
AcDbLine
 10
6234.685486105766
 20
-1313.086517721257
 30
0.0
 11
6241.181563664299
 21
-1313.665784759111
 31
0.0
  0
LINE
  5
55B26
330
1F
100
AcDbEntity
  8
0部品1
100
AcDbLine
 10
6232.153375079139
 20
-1400.794409527421
 30
0.0
 11
6233.31657166332
 21
-1399.294385614195
 31
0.0
1001
GENIUS_GENODEF_13
1002
{
1000
HIER
1070
     0
1002
}
1002
{
1000
MANEDIT
1070
     0
1002
}
1002
{
1000
NOSEL
1070
     0
1002
}
1002
{
1000
BEHIND
1070
     0
1002
}
1002
{
1000
OTHER
1070
     0
1002
}
1002
{
1000
REACTOR
1002
}
1001
GENIUS_GENOBJ-N-CEN_13
1002
{
1000
OWNER
1000
GEN
1002
}
1001
GENIUS_GENCEN_19
1002
{
1040
2.5
1002
}
  0
LINE
  5
55B27
330
1F
100
AcDbEntity
  8
0部品1
100
AcDbLine
 10
6235.334897954203
 20
-1397.478890072234
 30
0.0
 11
6241.181563664299
 21
-1396.949806997241
 31
0.0
  0
LINE
  5
55B28
330
1F
100
AcDbEntity
  8
0部品1
100
AcDbLine
 10
6232.153375079139
 20
-1388.294409527754
 30
0.0
 11
6233.316553119632
 21
-1389.794409527588
 31
0.0
1001
GENIUS_GENODEF_13
1002
{
1000
HIER
1070
     0
1002
}
1002
{
1000
MANEDIT
1070
     0
1002
}
1002
{
1000
NOSEL
1070
     0
1002
}
1002
{
1000
BEHIND
1070
     0
1002
}
1002
{
1000
OTHER
1070
     0
1002
}
1002
{
1000
REACTOR
1002
}
1001
GENIUS_GENOBJ-N-CEN_13
1002
{
1000
OWNER
1000
GEN
1002
}
1001
GENIUS_GENCEN_19
1002
{
1040
2.5
1002
}
  0
LINE
  5
55B29
330
1F
100
AcDbEntity
  8
0部品1
100
AcDbLine
 10
6235.334897954206
 20
-1391.609928982942
 30
0.0
 11
6241.181563664299
 21
-1392.139012057934
 31
0.0
  0
LINE
  5
55B2A
330
1F
100
AcDbEntity
  8
0部品6
  6
中心線1
 48
0.3
370
    13
100
AcDbLine
 10
6205.334897954205
 20
-1306.571182228763
 30
0.0
 11
6205.334897954205
 21
-1325.571182228763
 31
0.0
1001
GENIUS_GENODEF_13
1002
{
1000
HIER
1070
     0
1002
}
1002
{
1000
MANEDIT
1070
     0
1002
}
1002
{
1000
NOSEL
1070
     0
1002
}
1002
{
1000
BEHIND
1070
     0
1002
}
1002
{
1000
OTHER
1070
     0
1002
}
1002
{
1000
REACTOR
1002
}
1001
GENIUS_GENOBJ-N-CEN_13
1002
{
1000
OWNER
1000
GEN
1002
}
1001
GENIUS_GENCEN_19
1002
{
1040
2.5
1002
}
  0
LINE
  5
55B2B
330
1F
100
AcDbEntity
  8
0部品6
  6
中心線1
 48
0.3
370
    13
100
AcDbLine
 10
6202.834897954205
 20
-1309.071182228763
 30
0.0
 11
6207.834897954206
 21
-1309.071182228763
 31
0.0
1001
GENIUS_GENOBJ-N-CEN_13
1002
{
1000
OWNER
1000
GEN
1002
}
1001
GENIUS_GENODEF_13
1002
{
1000
HIER
1070
     0
1002
}
1002
{
1000
MANEDIT
1070
     0
1002
}
1002
{
1000
NOSEL
1070
     0
1002
}
1002
{
1000
BEHIND
1070
     0
1002
}
1002
{
1000
OTHER
1070
     0
1002
}
1002
{
1000
REACTOR
1002
}
1001
GENIUS_GENCEN_19
1002
{
1040
2.5
1002
}
  0
LINE
  5
55B2C
330
1F
100
AcDbEntity
  8
0部品6
100
AcDbLine
 10
6207.834897954206
 20
-1311.071182228763
 30
0.0
 11
6215.334897954205
 21
-1311.071182228763
 31
0.0
  0
LINE
  5
55B2D
330
1F
100
AcDbEntity
  8
0部品6
100
AcDbLine
 10
6215.334897954205
 20
-1311.071182228763
 30
0.0
 11
6215.334897954205
 21
-1321.071182228763
 31
0.0
  0
LINE
  5
55B2E
330
1F
100
AcDbEntity
  8
0部品6
100
AcDbLine
 10
6213.411392296227
 20
-1321.071182228763
 30
0.0
 11
6215.334897954205
 21
-1321.071182228763
 31
0.0
  0
LINE
  5
55B2F
330
1F
100
AcDbEntity
  8
0部品6
  6
中心線1
 48
0.3
370
    13
100
AcDbLine
 10
6202.834897954205
 20
-1323.071182228763
 30
0.0
 11
6207.834897954206
 21
-1323.071182228763
 31
0.0
1001
GENIUS_GENOBJ-N-CEN_13
1002
{
1000
OWNER
1000
GEN
1002
}
1001
GENIUS_GENODEF_13
1002
{
1000
HIER
1070
     0
1002
}
1002
{
1000
MANEDIT
1070
     0
1002
}
1002
{
1000
NOSEL
1070
     0
1002
}
1002
{
1000
BEHIND
1070
     0
1002
}
1002
{
1000
OTHER
1070
     0
1002
}
1002
{
1000
REACTOR
1002
}
1001
GENIUS_GENCEN_19
1002
{
1040
2.5
1002
}
  0
LINE
  5
55B30
330
1F
100
AcDbEntity
  8
0部品6
100
AcDbLine
 10
6211.451550124039
 20
-1312.071182228763
 30
0.0
 11
6211.451550124039
 21
-1320.071182228763
 31
0.0
  0
LINE
  5
55B31
330
1F
100
AcDbEntity
  8
0部品6
100
AcDbLine
 10
6210.877973687689
 20
-1312.071182228763
 30
0.0
 11
6210.877973687689
 21
-1320.071182228763
 31
0.0
  0
LINE
  5
55B32
330
1F
100
AcDbEntity
  8
0部品6
100
AcDbLine
 10
6207.834897954206
 20
-1321.071182228763
 30
0.0
 11
6215.334897954205
 21
-1321.071182228763
 31
0.0
  0
ARC
  5
55B33
330
1F
100
AcDbEntity
  8
0部品6
100
AcDbCircle
 10
6205.334897954205
 20
-1323.071182228763
 30
0.0
 40
2.0
100
AcDbArc
 50
179.999999999987
 51
0.0000000000130276
  0
LINE
  5
55B34
330
1F
100
AcDbEntity
  8
0部品6
100
AcDbLine
 10
6203.334897954206
 20
-1323.071182228763
 30
0.0
 11
6203.334897954206
 21
-1309.071182228763
 31
0.0
  0
ARC
  5
55B35
330
1F
100
AcDbEntity
  8
0部品6
 48
0.3
100
AcDbCircle
 10
6205.334897954205
 20
-1309.071182228763
 30
0.0
 40
2.0
100
AcDbArc
 50
0.0
 51
180.0
  0
CIRCLE
  5
55B36
330
1F
100
AcDbEntity
  8
0部品6
100
AcDbCircle
 10
6205.334897954205
 20
-1323.071182228763
 30
0.0
 40
1.024999999999999
  0
CIRCLE
  5
55B37
330
1F
100
AcDbEntity
  8
0部品6
100
AcDbCircle
 10
6205.334897954205
 20
-1309.071182228763
 30
0.0
 40
1.024999999999999
  0
LINE
  5
55B38
330
1F
100
AcDbEntity
  8
0部品6
100
AcDbLine
 10
6207.334897954205
 20
-1323.071182228763
 30
0.0
 11
6207.334897954205
 21
-1321.571182228763
 31
0.0
  0
ARC
  5
55B39
330
1F
100
AcDbEntity
  8
0部品6
100
AcDbCircle
 10
6207.834897954206
 20
-1321.571182228763
 30
0.0
 40
0.5
100
AcDbArc
 50
90.0
 51
180.0
1001
GENIUS_GENODEF_13
1002
{
1000
HIER
1070
     0
1002
}
1002
{
1000
MANEDIT
1070
     0
1002
}
1002
{
1000
NOSEL
1070
     0
1002
}
1002
{
1000
BEHIND
1070
     0
1002
}
1002
{
1000
OTHER
1070
     0
1002
}
1002
{
1000
REACTOR
1002
}
1001
GENIUS_GENOBJ-N-FIL_13
1002
{
1000
OWNER
1000
GEN
1002
}
  0
LINE
  5
55B3A
330
1F
100
AcDbEntity
  8
0部品6
100
AcDbLine
 10
6207.334897954205
 20
-1310.571182228763
 30
0.0
 11
6207.334897954205
 21
-1309.071182228763
 31
0.0
  0
ARC
  5
55B3B
330
1F
100
AcDbEntity
  8
0部品6
100
AcDbCircle
 10
6207.834897954206
 20
-1310.571182228763
 30
0.0
 40
0.5
100
AcDbArc
 50
180.0
 51
270.0
1001
GENIUS_GENODEF_13
1002
{
1000
HIER
1070
     0
1002
}
1002
{
1000
MANEDIT
1070
     0
1002
}
1002
{
1000
NOSEL
1070
     0
1002
}
1002
{
1000
BEHIND
1070
     0
1002
}
1002
{
1000
OTHER
1070
     0
1002
}
1002
{
1000
REACTOR
1002
}
1001
GENIUS_GENOBJ-N-FIL_13
1002
{
1000
OWNER
1000
GEN
1002
}
  0
ELLIPSE
  5
55B3C
330
1F
100
AcDbEntity
  8
0部品6
100
AcDbEllipse
 10
6212.270702168328
 20
-1312.071182228763
 30
0.0
 11
0.0
 21
-1.0
 31
0.0
210
0.0
220
0.0
230
1.0
 40
0.8191520442887849
 41
3.141592653589793
 42
4.712388980384689
  0
ELLIPSE
  5
55B3D
330
1F
100
AcDbEntity
  8
0部品6
100
AcDbEllipse
 10
6211.697125731977
 20
-1312.071182228763
 30
0.0
 11
0.0
 21
-1.0
 31
0.0
210
0.0
220
0.0
230
1.0
 40
0.8191520442887849
 41
3.141592653589793
 42
4.712388980384689
  0
ELLIPSE
  5
55B3E
330
1F
100
AcDbEntity
  8
0部品6
100
AcDbEllipse
 10
6212.270702168328
 20
-1320.071182228763
 30
0.0
 11
0.0
 21
1.0
 31
0.0
210
0.0
220
0.0
230
-1.0
 40
0.8191520442887849
 41
3.141592653589793
 42
4.712388980384689
  0
ELLIPSE
  5
55B3F
330
1F
100
AcDbEntity
  8
0部品6
100
AcDbEllipse
 10
6211.697125731977
 20
-1320.071182228763
 30
0.0
 11
0.0
 21
1.0
 31
0.0
210
0.0
220
0.0
230
-1.0
 40
0.8191520442887849
 41
3.141592653589793
 42
4.712388980384689
  0
LINE
  5
55B40
330
1F
100
AcDbEntity
  8
0部品6
100
AcDbLine
 10
6203.334897954206
 20
-1351.985920193057
 30
0.0
 11
6203.334897954203
 21
-1352.985920193058
 31
0.0
  0
LINE
  5
55B41
330
1F
100
AcDbEntity
  8
0部品6
100
AcDbLine
 10
6203.334897954203
 20
-1352.985920193058
 30
0.0
 11
6213.834897954205
 21
-1352.985920193058
 31
0.0
  0
LINE
  5
55B42
330
1F
100
AcDbEntity
  8
0部品6
100
AcDbLine
 10
6203.334897954206
 20
-1351.985920193057
 30
0.0
 11
6213.834897954207
 21
-1351.985920193057
 31
0.0
  0
LINE
  5
55B43
330
1F
100
AcDbEntity
  8
0部品6
  6
中心線1
 48
0.15
370
    13
100
AcDbLine
 10
6205.334897954205
 20
-1353.985920193057
 30
0.0
 11
6205.334897954205
 21
-1350.785920193057
 31
0.0
1001
GENIUS_GENODEF_13
1002
{
1000
HIER
1070
     0
1002
}
1002
{
1000
MANEDIT
1070
     0
1002
}
1002
{
1000
NOSEL
1070
     0
1002
}
1002
{
1000
BEHIND
1070
     0
1002
}
1002
{
1000
OTHER
1070
     0
1002
}
1002
{
1000
REACTOR
1002
}
1001
GENIUS_GENOBJ-N-CEN_13
1002
{
1000
OWNER
1000
GEN
1002
}
1001
GENIUS_GENCEN_19
1002
{
1040
2.5
1002
}
  0
LINE
  5
55B46
330
1F
100
AcDbEntity
  8
0部品6
100
AcDbLine
 10
6214.698269114706
 20
-1350.251789685108
 30
0.0
 11
6211.775687697929
 21
-1347.785920193057
 31
0.0
  0
LINE
  5
55B47
330
1F
100
AcDbEntity
  8
0部品6
100
AcDbLine
 10
6213.283751067596
 20
-1350.36670684773
 30
0.0
 11
6211.130825707297
 21
-1348.550219226839
 31
0.0
  0
LINE
  5
55B48
330
1F
100
AcDbEntity
  8
0部品6
100
AcDbLine
 10
6207.334897954205
 20
-1351.985920193057
 30
0.0
 11
6207.334897954203
 21
-1352.985920193058
 31
0.0
  0
ARC
  5
55B49
330
1F
100
AcDbEntity
  8
0部品6
100
AcDbCircle
 10
6213.834897954207
 20
-1351.485920193058
 30
0.0
 40
1.5
100
AcDbArc
 50
269.9999999999479
 51
352.1189845135607
1001
GENIUS_GENODEF_13
1002
{
1000
HIER
1070
     0
1002
}
1002
{
1000
MANEDIT
1070
     0
1002
}
1002
{
1000
NOSEL
1070
     0
1002
}
1002
{
1000
BEHIND
1070
     0
1002
}
1002
{
1000
OTHER
1070
     0
1002
}
1002
{
1000
REACTOR
1002
}
1001
GENIUS_GENOBJ-N-FIL_13
1002
{
1000
OWNER
1000
GEN
1002
}
  0
ARC
  5
55B4A
330
1F
100
AcDbEntity
  8
0部品6
100
AcDbCircle
 10
6213.834897954207
 20
-1351.485920193058
 30
0.0
 40
0.5
100
AcDbArc
 50
269.9999999999479
 51
318.755749155795
1001
GENIUS_GENODEF_13
1002
{
1000
HIER
1070
     0
1002
}
1002
{
1000
MANEDIT
1070
     0
1002
}
1002
{
1000
NOSEL
1070
     0
1002
}
1002
{
1000
BEHIND
1070
     0
1002
}
1002
{
1000
OTHER
1070
     0
1002
}
1002
{
1000
REACTOR
1002
}
1001
GENIUS_GENOBJ-N-FIL_13
1002
{
1000
OWNER
1000
GEN
1002
}
  0
LINE
  5
55B4D
330
1F
100
AcDbEntity
  8
0部品6
100
AcDbLine
 10
6211.130825707297
 20
-1348.550219226839
 30
0.0
 11
6211.775687697929
 21
-1347.785920193057
 31
0.0
  0
LINE
  5
55B4E
330
1F
100
AcDbEntity
  8
0部品6
  6
中心線1
 48
0.3
370
    13
100
AcDbLine
 10
6205.334897954205
 20
-1385.044409527588
 30
0.0
 11
6205.334897954205
 21
-1404.044409527588
 31
0.0
1001
GENIUS_GENODEF_13
1002
{
1000
HIER
1070
     0
1002
}
1002
{
1000
MANEDIT
1070
     0
1002
}
1002
{
1000
NOSEL
1070
     0
1002
}
1002
{
1000
BEHIND
1070
     0
1002
}
1002
{
1000
OTHER
1070
     0
1002
}
1002
{
1000
REACTOR
1002
}
1001
GENIUS_GENOBJ-N-CEN_13
1002
{
1000
OWNER
1000
GEN
1002
}
1001
GENIUS_GENCEN_19
1002
{
1040
2.5
1002
}
  0
LINE
  5
55B4F
330
1F
100
AcDbEntity
  8
0部品6
  6
中心線1
 48
0.3
370
    13
100
AcDbLine
 10
6202.834897954205
 20
-1387.544409527588
 30
0.0
 11
6207.834897954206
 21
-1387.544409527588
 31
0.0
1001
GENIUS_GENOBJ-N-CEN_13
1002
{
1000
OWNER
1000
GEN
1002
}
1001
GENIUS_GENODEF_13
1002
{
1000
HIER
1070
     0
1002
}
1002
{
1000
MANEDIT
1070
     0
1002
}
1002
{
1000
NOSEL
1070
     0
1002
}
1002
{
1000
BEHIND
1070
     0
1002
}
1002
{
1000
OTHER
1070
     0
1002
}
1002
{
1000
REACTOR
1002
}
1001
GENIUS_GENCEN_19
1002
{
1040
2.5
1002
}
  0
LINE
  5
55B51
330
1F
100
AcDbEntity
  8
0部品6
100
AcDbLine
 10
6207.834897954206
 20
-1389.544409527588
 30
0.0
 11
6215.334897954205
 21
-1389.544409527588
 31
0.0
  0
LINE
  5
55B52
330
1F
100
AcDbEntity
  8
0部品6
100
AcDbLine
 10
6215.334897954205
 20
-1389.544409527588
 30
0.0
 11
6215.334897954205
 21
-1399.544409527588
 31
0.0
  0
LINE
  5
55B53
330
1F
100
AcDbEntity
  8
0部品6
  6
中心線1
 48
0.3
370
    13
100
AcDbLine
 10
6201.834897954205
 20
-1394.544409527592
 30
0.0
 11
6243.872924093512
 21
-1394.544409527493
 31
0.0
1001
GENIUS_GENODEF_13
1002
{
1000
HIER
1070
     0
1002
}
1002
{
1000
MANEDIT
1070
     0
1002
}
1002
{
1000
NOSEL
1070
     0
1002
}
1002
{
1000
BEHIND
1070
     0
1002
}
1002
{
1000
OTHER
1070
     0
1002
}
1002
{
1000
REACTOR
1002
}
1001
GENIUS_GENOBJ-N-CEN_13
1002
{
1000
OWNER
1000
GEN
1002
}
1001
GENIUS_GENCEN_19
1002
{
1040
2.5
1002
}
  0
LINE
  5
55B54
330
1F
100
AcDbEntity
  8
0部品6
100
AcDbLine
 10
6213.411392296227
 20
-1399.544409527588
 30
0.0
 11
6215.334897954205
 21
-1399.544409527588
 31
0.0
  0
LINE
  5
55B55
330
1F
100
AcDbEntity
  8
0部品6
  6
中心線1
 48
0.3
370
    13
100
AcDbLine
 10
6202.834897954205
 20
-1401.544409527588
 30
0.0
 11
6207.834897954206
 21
-1401.544409527588
 31
0.0
1001
GENIUS_GENOBJ-N-CEN_13
1002
{
1000
OWNER
1000
GEN
1002
}
1001
GENIUS_GENODEF_13
1002
{
1000
HIER
1070
     0
1002
}
1002
{
1000
MANEDIT
1070
     0
1002
}
1002
{
1000
NOSEL
1070
     0
1002
}
1002
{
1000
BEHIND
1070
     0
1002
}
1002
{
1000
OTHER
1070
     0
1002
}
1002
{
1000
REACTOR
1002
}
1001
GENIUS_GENCEN_19
1002
{
1040
2.5
1002
}
  0
LINE
  5
55B56
330
1F
100
AcDbEntity
  8
0部品6
100
AcDbLine
 10
6207.834897954206
 20
-1399.544409527588
 30
0.0
 11
6215.334897954205
 21
-1399.544409527588
 31
0.0
  0
ARC
  5
55B57
330
1F
100
AcDbEntity
  8
0部品6
100
AcDbCircle
 10
6205.334897954205
 20
-1401.544409527588
 30
0.0
 40
2.0
100
AcDbArc
 50
179.999999999987
 51
0.0000000000130276
  0
LINE
  5
55B58
330
1F
100
AcDbEntity
  8
0部品6
100
AcDbLine
 10
6203.334897954206
 20
-1401.544409527588
 30
0.0
 11
6203.334897954206
 21
-1387.544409527588
 31
0.0
  0
ARC
  5
55B59
330
1F
100
AcDbEntity
  8
0部品6
 48
0.3
100
AcDbCircle
 10
6205.334897954205
 20
-1387.544409527588
 30
0.0
 40
2.0
100
AcDbArc
 50
0.0
 51
180.0
  0
CIRCLE
  5
55B5A
330
1F
100
AcDbEntity
  8
0部品6
100
AcDbCircle
 10
6205.334897954205
 20
-1401.544409527588
 30
0.0
 40
1.024999999999999
  0
CIRCLE
  5
55B5B
330
1F
100
AcDbEntity
  8
0部品6
100
AcDbCircle
 10
6205.334897954205
 20
-1387.544409527588
 30
0.0
 40
1.024999999999999
  0
LINE
  5
55B5C
330
1F
100
AcDbEntity
  8
0部品6
100
AcDbLine
 10
6207.334897954205
 20
-1401.544409527588
 30
0.0
 11
6207.334897954205
 21
-1400.044409527589
 31
0.0
  0
ARC
  5
55B5D
330
1F
100
AcDbEntity
  8
0部品6
100
AcDbCircle
 10
6207.834897954206
 20
-1400.044409527589
 30
0.0
 40
0.5
100
AcDbArc
 50
90.0
 51
180.0
1001
GENIUS_GENODEF_13
1002
{
1000
HIER
1070
     0
1002
}
1002
{
1000
MANEDIT
1070
     0
1002
}
1002
{
1000
NOSEL
1070
     0
1002
}
1002
{
1000
BEHIND
1070
     0
1002
}
1002
{
1000
OTHER
1070
     0
1002
}
1002
{
1000
REACTOR
1002
}
1001
GENIUS_GENOBJ-N-FIL_13
1002
{
1000
OWNER
1000
GEN
1002
}
  0
LINE
  5
55B5E
330
1F
100
AcDbEntity
  8
0部品6
100
AcDbLine
 10
6207.334897954205
 20
-1389.044409527588
 30
0.0
 11
6207.334897954205
 21
-1387.544409527588
 31
0.0
  0
ARC
  5
55B5F
330
1F
100
AcDbEntity
  8
0部品6
100
AcDbCircle
 10
6207.834897954206
 20
-1389.044409527588
 30
0.0
 40
0.5
100
AcDbArc
 50
180.0
 51
270.0
1001
GENIUS_GENODEF_13
1002
{
1000
HIER
1070
     0
1002
}
1002
{
1000
MANEDIT
1070
     0
1002
}
1002
{
1000
NOSEL
1070
     0
1002
}
1002
{
1000
BEHIND
1070
     0
1002
}
1002
{
1000
OTHER
1070
     0
1002
}
1002
{
1000
REACTOR
1002
}
1001
GENIUS_GENOBJ-N-FIL_13
1002
{
1000
OWNER
1000
GEN
1002
}
  0
LINE
  5
55B60
330
1F
100
AcDbEntity
  8
0部品3
100
AcDbLine
 10
6219.334897953522
 20
-1309.821182228762
 30
0.0
 11
6219.334897953522
 21
-1309.721182228596
 31
0.0
1001
GENIUS_GENREC_14
1002
{
1000
PYDIR
1011
6219.334897953522
1021
-1322.321182228761
1031
0.0
1002
}
1002
{
1000
PXDIR
1011
6221.834897953521
1021
-1309.121182228763
1031
0.0
1002
}
1002
{
1000
PORI
1011
6219.334897953522
1021
-1309.721182228596
1031
0.0
1002
}
1002
{
1000
PINS
1011
6219.334897953522
1021
-1309.721182228596
1031
0.0
1002
}
1002
{
1000
PINS2
1011
6221.834897953521
1021
-1322.321182228761
1031
0.0
1002
}
1002
{
1000
C
1070
     1
1002
}
1001
GENIUS_GENODEF_13
1002
{
1000
HIER
1070
     0
1002
}
1002
{
1000
MANEDIT
1070
     0
1002
}
1002
{
1000
NOSEL
1070
     0
1002
}
1002
{
1000
BEHIND
1070
     0
1002
}
1002
{
1000
OTHER
1070
     0
1002
}
1002
{
1000
REACTOR
1002
}
1001
GENIUS_GENOBJ-N-REC_13
1002
{
1000
OWNER
1000
GEN
1002
}
  0
LINE
  5
55B61
330
1F
100
AcDbEntity
  8
0部品3
100
AcDbLine
 10
6221.334897953522
 20
-1309.821182228762
 30
0.0
 11
6221.334897953522
 21
-1309.721182228596
 31
0.0
1001
GENIUS_GENREC_14
1002
{
1000
PYDIR
1011
6221.334897953521
1021
-1322.321182228761
1031
0.0
1002
}
1002
{
1000
PXDIR
1011
6218.834897953521
1021
-1309.121182228763
1031
0.0
1002
}
1002
{
1000
PORI
1011
6221.334897953522
1021
-1309.721182228596
1031
0.0
1002
}
1002
{
1000
PINS
1011
6221.334897953522
1021
-1309.721182228596
1031
0.0
1002
}
1002
{
1000
PINS2
1011
6218.834897953521
1021
-1322.321182228761
1031
0.0
1002
}
1002
{
1000
C
1070
     1
1002
}
1001
GENIUS_GENODEF_13
1002
{
1000
HIER
1070
     0
1002
}
1002
{
1000
MANEDIT
1070
     0
1002
}
1002
{
1000
NOSEL
1070
     0
1002
}
1002
{
1000
BEHIND
1070
     0
1002
}
1002
{
1000
OTHER
1070
     0
1002
}
1002
{
1000
REACTOR
1002
}
1001
GENIUS_GENOBJ-N-REC_13
1002
{
1000
OWNER
1000
GEN
1002
}
  0
LINE
  5
55B62
330
1F
100
AcDbEntity
  8
0部品3
100
AcDbLine
 10
6219.33489795352
 20
-1320.071182228763
 30
0.0
 11
6219.334897953522
 21
-1312.071182228762
 31
0.0
1001
GENIUS_GENREC_14
1002
{
1000
PYDIR
1011
6219.334897953522
1021
-1322.321182228761
1031
0.0
1002
}
1002
{
1000
PXDIR
1011
6221.834897953521
1021
-1309.121182228763
1031
0.0
1002
}
1002
{
1000
PORI
1011
6219.334897953522
1021
-1309.121182228763
1031
0.0
1002
}
1002
{
1000
PINS
1011
6219.334897953522
1021
-1309.121182228763
1031
0.0
1002
}
1002
{
1000
PINS2
1011
6221.834897953521
1021
-1322.321182228761
1031
0.0
1002
}
1002
{
1000
C
1070
     1
1002
}
1001
GENIUS_GENODEF_13
1002
{
1000
HIER
1070
     0
1002
}
1002
{
1000
MANEDIT
1070
     0
1002
}
1002
{
1000
NOSEL
1070
     0
1002
}
1002
{
1000
BEHIND
1070
     0
1002
}
1002
{
1000
OTHER
1070
     0
1002
}
1002
{
1000
REACTOR
1002
}
1001
GENIUS_GENOBJ-N-REC_13
1002
{
1000
OWNER
1000
GEN
1002
}
  0
LINE
  5
55B63
330
1F
100
AcDbEntity
  8
0部品3
100
AcDbLine
 10
6219.334897953523
 20
-1311.071182228763
 30
0.0
 11
6219.334897953522
 21
-1310.821182228762
 31
0.0
1001
GENIUS_GENREC_14
1002
{
1000
PYDIR
1011
6219.334897953522
1021
-1322.321182228761
1031
0.0
1002
}
1002
{
1000
PXDIR
1011
6221.834897953521
1021
-1309.121182228763
1031
0.0
1002
}
1002
{
1000
PORI
1011
6219.334897953522
1021
-1309.121182228763
1031
0.0
1002
}
1002
{
1000
PINS
1011
6219.334897953522
1021
-1309.121182228763
1031
0.0
1002
}
1002
{
1000
PINS2
1011
6221.834897953521
1021
-1322.321182228761
1031
0.0
1002
}
1002
{
1000
C
1070
     1
1002
}
1001
GENIUS_GENODEF_13
1002
{
1000
HIER
1070
     0
1002
}
1002
{
1000
MANEDIT
1070
     0
1002
}
1002
{
1000
NOSEL
1070
     0
1002
}
1002
{
1000
BEHIND
1070
     0
1002
}
1002
{
1000
OTHER
1070
     0
1002
}
1002
{
1000
REACTOR
1002
}
1001
GENIUS_GENOBJ-N-REC_13
1002
{
1000
OWNER
1000
GEN
1002
}
  0
LINE
  5
55B64
330
1F
100
AcDbEntity
  8
0部品3
100
AcDbLine
 10
6221.334897953521
 20
-1320.071182228763
 30
0.0
 11
6221.334897953521
 21
-1312.071182228762
 31
0.0
1001
GENIUS_GENREC_14
1002
{
1000
PYDIR
1011
6221.334897953521
1021
-1322.321182228761
1031
0.0
1002
}
1002
{
1000
PXDIR
1011
6218.834897953521
1021
-1309.121182228763
1031
0.0
1002
}
1002
{
1000
PORI
1011
6221.334897953521
1021
-1309.121182228763
1031
0.0
1002
}
1002
{
1000
PINS
1011
6221.334897953521
1021
-1309.121182228763
1031
0.0
1002
}
1002
{
1000
PINS2
1011
6218.834897953521
1021
-1322.321182228761
1031
0.0
1002
}
1002
{
1000
C
1070
     1
1002
}
1001
GENIUS_GENODEF_13
1002
{
1000
HIER
1070
     0
1002
}
1002
{
1000
MANEDIT
1070
     0
1002
}
1002
{
1000
NOSEL
1070
     0
1002
}
1002
{
1000
BEHIND
1070
     0
1002
}
1002
{
1000
OTHER
1070
     0
1002
}
1002
{
1000
REACTOR
1002
}
1001
GENIUS_GENOBJ-N-REC_13
1002
{
1000
OWNER
1000
GEN
1002
}
  0
LINE
  5
55B65
330
1F
100
AcDbEntity
  8
0部品3
100
AcDbLine
 10
6221.334897953521
 20
-1311.071182228763
 30
0.0
 11
6221.334897953521
 21
-1310.821182228762
 31
0.0
1001
GENIUS_GENREC_14
1002
{
1000
PYDIR
1011
6221.334897953521
1021
-1322.321182228761
1031
0.0
1002
}
1002
{
1000
PXDIR
1011
6218.834897953521
1021
-1309.121182228763
1031
0.0
1002
}
1002
{
1000
PORI
1011
6221.334897953521
1021
-1309.121182228763
1031
0.0
1002
}
1002
{
1000
PINS
1011
6221.334897953521
1021
-1309.121182228763
1031
0.0
1002
}
1002
{
1000
PINS2
1011
6218.834897953521
1021
-1322.321182228761
1031
0.0
1002
}
1002
{
1000
C
1070
     1
1002
}
1001
GENIUS_GENODEF_13
1002
{
1000
HIER
1070
     0
1002
}
1002
{
1000
MANEDIT
1070
     0
1002
}
1002
{
1000
NOSEL
1070
     0
1002
}
1002
{
1000
BEHIND
1070
     0
1002
}
1002
{
1000
OTHER
1070
     0
1002
}
1002
{
1000
REACTOR
1002
}
1001
GENIUS_GENOBJ-N-REC_13
1002
{
1000
OWNER
1000
GEN
1002
}
  0
LINE
  5
55B66
330
1F
100
AcDbEntity
  8
0部品3
100
AcDbLine
 10
6218.834897954206
 20
-1322.371182228596
 30
0.0
 11
6221.834897954205
 21
-1322.371182228596
 31
0.0
1001
GENIUS_GENREC_14
1002
{
1000
PYDIR
1011
6219.334897953522
1021
-1309.821182228764
1031
0.0
1002
}
1002
{
1000
PXDIR
1011
6221.334897953521
1021
-1323.021182228763
1031
0.0
1002
}
1002
{
1000
PORI
1011
6219.334897953522
1021
-1323.021182228763
1031
0.0
1002
}
1002
{
1000
PINS
1011
6219.334897953522
1021
-1323.021182228763
1031
0.0
1002
}
1002
{
1000
PINS2
1011
6221.334897953521
1021
-1309.821182228764
1031
0.0
1002
}
1002
{
1000
C
1070
     1
1002
}
1001
GENIUS_GENODEF_13
1002
{
1000
HIER
1070
     0
1002
}
1002
{
1000
MANEDIT
1070
     0
1002
}
1002
{
1000
NOSEL
1070
     0
1002
}
1002
{
1000
BEHIND
1070
     0
1002
}
1002
{
1000
OTHER
1070
     0
1002
}
1002
{
1000
REACTOR
1002
}
1001
GENIUS_GENOBJ-N-REC_13
1002
{
1000
OWNER
1000
GEN
1002
}
  0
LINE
  5
55B67
330
1F
100
AcDbEntity
  8
0部品3
100
AcDbLine
 10
6218.834897954206
 20
-1322.371182228596
 30
0.0
 11
6218.834897954206
 21
-1323.121182228596
 31
0.0
1001
GENIUS_GENREC_14
1002
{
1000
PYDIR
1011
6219.334897953522
1021
-1309.821182228764
1031
0.0
1002
}
1002
{
1000
PXDIR
1011
6221.834897953521
1021
-1323.021182228763
1031
0.0
1002
}
1002
{
1000
PORI
1011
6219.334897953522
1021
-1323.021182228763
1031
0.0
1002
}
1002
{
1000
PINS
1011
6219.334897953522
1021
-1323.021182228763
1031
0.0
1002
}
1002
{
1000
PINS2
1011
6221.834897953521
1021
-1309.821182228764
1031
0.0
1002
}
1002
{
1000
C
1070
     1
1002
}
1001
GENIUS_GENODEF_13
1002
{
1000
HIER
1070
     0
1002
}
1002
{
1000
MANEDIT
1070
     0
1002
}
1002
{
1000
NOSEL
1070
     0
1002
}
1002
{
1000
BEHIND
1070
     0
1002
}
1002
{
1000
OTHER
1070
     0
1002
}
1002
{
1000
REACTOR
1002
}
1001
GENIUS_GENOBJ-N-REC_13
1002
{
1000
OWNER
1000
GEN
1002
}
  0
LINE
  5
55B68
330
1F
100
AcDbEntity
  8
0部品3
100
AcDbLine
 10
6221.834897954205
 20
-1322.371182228596
 30
0.0
 11
6221.834897954205
 21
-1323.121182228596
 31
0.0
1001
GENIUS_GENREC_14
1002
{
1000
PYDIR
1011
6221.334897953521
1021
-1309.821182228764
1031
0.0
1002
}
1002
{
1000
PXDIR
1011
6218.834897953521
1021
-1323.021182228763
1031
0.0
1002
}
1002
{
1000
PORI
1011
6221.834897954205
1021
-1323.121182228596
1031
0.0
1002
}
1002
{
1000
PINS
1011
6221.834897954205
1021
-1323.121182228596
1031
0.0
1002
}
1002
{
1000
PINS2
1011
6218.834897953521
1021
-1309.821182228764
1031
0.0
1002
}
1002
{
1000
C
1070
     1
1002
}
1001
GENIUS_GENODEF_13
1002
{
1000
HIER
1070
     0
1002
}
1002
{
1000
MANEDIT
1070
     0
1002
}
1002
{
1000
NOSEL
1070
     0
1002
}
1002
{
1000
BEHIND
1070
     0
1002
}
1002
{
1000
OTHER
1070
     0
1002
}
1002
{
1000
REACTOR
1002
}
1001
GENIUS_GENOBJ-N-REC_13
1002
{
1000
OWNER
1000
GEN
1002
}
  0
LINE
  5
55B69
330
1F
100
AcDbEntity
  8
0部品3
100
AcDbLine
 10
6219.334897953523
 20
-1321.071182228763
 30
0.0
 11
6219.334897953522
 21
-1321.321182228763
 31
0.0
1001
GENIUS_GENREC_14
1002
{
1000
PYDIR
1011
6219.334897953522
1021
-1309.821182228764
1031
0.0
1002
}
1002
{
1000
PXDIR
1011
6221.834897953521
1021
-1323.021182228763
1031
0.0
1002
}
1002
{
1000
PORI
1011
6219.334897953522
1021
-1323.021182228763
1031
0.0
1002
}
1002
{
1000
PINS
1011
6219.334897953522
1021
-1323.021182228763
1031
0.0
1002
}
1002
{
1000
PINS2
1011
6221.834897953521
1021
-1309.821182228764
1031
0.0
1002
}
1002
{
1000
C
1070
     1
1002
}
1001
GENIUS_GENODEF_13
1002
{
1000
HIER
1070
     0
1002
}
1002
{
1000
MANEDIT
1070
     0
1002
}
1002
{
1000
NOSEL
1070
     0
1002
}
1002
{
1000
BEHIND
1070
     0
1002
}
1002
{
1000
OTHER
1070
     0
1002
}
1002
{
1000
REACTOR
1002
}
1001
GENIUS_GENOBJ-N-REC_13
1002
{
1000
OWNER
1000
GEN
1002
}
  0
LINE
  5
55B6A
330
1F
100
AcDbEntity
  8
0部品3
100
AcDbLine
 10
6221.334897953521
 20
-1321.071182228763
 30
0.0
 11
6221.334897953521
 21
-1321.321182228763
 31
0.0
1001
GENIUS_GENREC_14
1002
{
1000
PYDIR
1011
6221.334897953521
1021
-1309.821182228764
1031
0.0
1002
}
1002
{
1000
PXDIR
1011
6218.834897953521
1021
-1323.021182228763
1031
0.0
1002
}
1002
{
1000
PORI
1011
6221.334897953521
1021
-1323.021182228763
1031
0.0
1002
}
1002
{
1000
PINS
1011
6221.334897953521
1021
-1323.021182228763
1031
0.0
1002
}
1002
{
1000
PINS2
1011
6218.834897953521
1021
-1309.821182228764
1031
0.0
1002
}
1002
{
1000
C
1070
     1
1002
}
1001
GENIUS_GENODEF_13
1002
{
1000
HIER
1070
     0
1002
}
1002
{
1000
MANEDIT
1070
     0
1002
}
1002
{
1000
NOSEL
1070
     0
1002
}
1002
{
1000
BEHIND
1070
     0
1002
}
1002
{
1000
OTHER
1070
     0
1002
}
1002
{
1000
REACTOR
1002
}
1001
GENIUS_GENOBJ-N-REC_13
1002
{
1000
OWNER
1000
GEN
1002
}
  0
LINE
  5
55B6B
330
1F
100
AcDbEntity
  8
0部品3
100
AcDbLine
 10
6218.834897954206
 20
-1323.121182228596
 30
0.0
 11
6221.834897954205
 21
-1323.121182228596
 31
0.0
1001
GENIUS_GENREC_14
1002
{
1000
PYDIR
1011
6219.334897953522
1021
-1310.521182228764
1031
0.0
1002
}
1002
{
1000
PXDIR
1011
6221.334897953521
1021
-1323.721182228763
1031
0.0
1002
}
1002
{
1000
PORI
1011
6219.334897953522
1021
-1323.721182228763
1031
0.0
1002
}
1002
{
1000
PINS
1011
6219.334897953522
1021
-1323.721182228763
1031
0.0
1002
}
1002
{
1000
PINS2
1011
6221.334897953521
1021
-1310.521182228764
1031
0.0
1002
}
1002
{
1000
C
1070
     1
1002
}
1001
GENIUS_GENODEF_13
1002
{
1000
HIER
1070
     0
1002
}
1002
{
1000
MANEDIT
1070
     0
1002
}
1002
{
1000
NOSEL
1070
     0
1002
}
1002
{
1000
BEHIND
1070
     0
1002
}
1002
{
1000
OTHER
1070
     0
1002
}
1002
{
1000
REACTOR
1002
}
1001
GENIUS_GENOBJ-N-REC_13
1002
{
1000
OWNER
1000
GEN
1002
}
  0
LINE
  5
55B6C
330
1F
100
AcDbEntity
  8
0部品3
100
AcDbLine
 10
6219.334897953522
 20
-1322.321182228763
 30
0.0
 11
6219.334897953522
 21
-1322.371182228596
 31
0.0
  0
LINE
  5
55B6D
330
1F
100
AcDbEntity
  8
0部品3
100
AcDbLine
 10
6221.334897953521
 20
-1322.321182228596
 30
0.0
 11
6221.334897953521
 21
-1322.371182228596
 31
0.0
  0
LINE
  5
55B6E
330
1F
100
AcDbEntity
  8
0部品3
100
AcDbLine
 10
6219.334897953522
 20
-1309.721182228596
 30
0.0
 11
6219.134897953521
 21
-1308.971182228596
 31
0.0
  0
LINE
  5
55B6F
330
1F
100
AcDbEntity
  8
0部品3
100
AcDbLine
 10
6219.134897953521
 20
-1308.971182228596
 30
0.0
 11
6221.534897953521
 21
-1308.971182228596
 31
0.0
  0
LINE
  5
55B70
330
1F
100
AcDbEntity
  8
0部品3
100
AcDbLine
 10
6221.534897953521
 20
-1308.971182228596
 30
0.0
 11
6221.334897953522
 21
-1309.721182228596
 31
0.0
  0
LINE
  5
55B71
330
1F
100
AcDbEntity
  8
0部品3
100
AcDbLine
 10
6221.334897953522
 20
-1309.721182228596
 30
0.0
 11
6219.334897953522
 21
-1309.721182228596
 31
0.0
  0
ARC
  5
55B73
330
1F
100
AcDbEntity
  8
0部品3
100
AcDbCircle
 10
6220.334897953521
 20
-1348.985920193057
 30
0.0
 40
1.5
100
AcDbArc
 50
341.4375878028217
 51
211.3081387647858
  0
LINE
  5
55B75
330
1F
100
AcDbEntity
  8
0部品3
100
AcDbLine
 10
6219.334897953522
 20
-1400.794409527303
 30
0.0
 11
6219.334897953522
 21
-1400.894409527469
 31
0.0
1001
GENIUS_GENREC_14
1002
{
1000
PYDIR
1011
6219.334897953522
1021
-1388.294409527304
1031
0.0
1002
}
1002
{
1000
PXDIR
1011
6221.834897953521
1021
-1401.394409527302
1031
0.0
1002
}
1002
{
1000
PORI
1011
6219.334897953522
1021
-1400.894409527469
1031
0.0
1002
}
1002
{
1000
PINS
1011
6219.334897953522
1021
-1400.894409527469
1031
0.0
1002
}
1002
{
1000
PINS2
1011
6221.834897953521
1021
-1388.294409527304
1031
0.0
1002
}
1002
{
1000
C
1070
     1
1002
}
1001
GENIUS_GENODEF_13
1002
{
1000
HIER
1070
     0
1002
}
1002
{
1000
MANEDIT
1070
     0
1002
}
1002
{
1000
NOSEL
1070
     0
1002
}
1002
{
1000
BEHIND
1070
     0
1002
}
1002
{
1000
OTHER
1070
     0
1002
}
1002
{
1000
REACTOR
1002
}
1001
GENIUS_GENOBJ-N-REC_13
1002
{
1000
OWNER
1000
GEN
1002
}
  0
LINE
  5
55B76
330
1F
100
AcDbEntity
  8
0部品3
100
AcDbLine
 10
6221.334897953522
 20
-1400.794409527303
 30
0.0
 11
6221.334897953522
 21
-1400.894409527469
 31
0.0
1001
GENIUS_GENREC_14
1002
{
1000
PYDIR
1011
6221.334897953521
1021
-1388.294409527304
1031
0.0
1002
}
1002
{
1000
PXDIR
1011
6218.834897953521
1021
-1401.494409527303
1031
0.0
1002
}
1002
{
1000
PORI
1011
6221.334897953522
1021
-1400.894409527469
1031
0.0
1002
}
1002
{
1000
PINS
1011
6221.334897953522
1021
-1400.894409527469
1031
0.0
1002
}
1002
{
1000
PINS2
1011
6218.834897953521
1021
-1388.294409527304
1031
0.0
1002
}
1002
{
1000
C
1070
     1
1002
}
1001
GENIUS_GENODEF_13
1002
{
1000
HIER
1070
     0
1002
}
1002
{
1000
MANEDIT
1070
     0
1002
}
1002
{
1000
NOSEL
1070
     0
1002
}
1002
{
1000
BEHIND
1070
     0
1002
}
1002
{
1000
OTHER
1070
     0
1002
}
1002
{
1000
REACTOR
1002
}
1001
GENIUS_GENOBJ-N-REC_13
1002
{
1000
OWNER
1000
GEN
1002
}
  0
LINE
  5
55B77
330
1F
100
AcDbEntity
  8
0部品3
100
AcDbLine
 10
6218.834897954206
 20
-1388.244409527469
 30
0.0
 11
6221.834897954205
 21
-1388.244409527469
 31
0.0
1001
GENIUS_GENREC_14
1002
{
1000
PYDIR
1011
6219.334897953522
1021
-1400.794409527302
1031
0.0
1002
}
1002
{
1000
PXDIR
1011
6221.334897953521
1021
-1387.594409527302
1031
0.0
1002
}
1002
{
1000
PORI
1011
6219.334897953522
1021
-1387.594409527302
1031
0.0
1002
}
1002
{
1000
PINS
1011
6219.334897953522
1021
-1387.594409527302
1031
0.0
1002
}
1002
{
1000
PINS2
1011
6221.334897953521
1021
-1400.794409527302
1031
0.0
1002
}
1002
{
1000
C
1070
     1
1002
}
1001
GENIUS_GENODEF_13
1002
{
1000
HIER
1070
     0
1002
}
1002
{
1000
MANEDIT
1070
     0
1002
}
1002
{
1000
NOSEL
1070
     0
1002
}
1002
{
1000
BEHIND
1070
     0
1002
}
1002
{
1000
OTHER
1070
     0
1002
}
1002
{
1000
REACTOR
1002
}
1001
GENIUS_GENOBJ-N-REC_13
1002
{
1000
OWNER
1000
GEN
1002
}
  0
LINE
  5
55B78
330
1F
100
AcDbEntity
  8
0部品3
100
AcDbLine
 10
6218.834897954206
 20
-1388.244409527469
 30
0.0
 11
6218.834897954206
 21
-1387.494409527469
 31
0.0
1001
GENIUS_GENREC_14
1002
{
1000
PYDIR
1011
6219.334897953522
1021
-1400.794409527302
1031
0.0
1002
}
1002
{
1000
PXDIR
1011
6221.834897953521
1021
-1387.594409527302
1031
0.0
1002
}
1002
{
1000
PORI
1011
6219.334897953522
1021
-1387.594409527302
1031
0.0
1002
}
1002
{
1000
PINS
1011
6219.334897953522
1021
-1387.594409527302
1031
0.0
1002
}
1002
{
1000
PINS2
1011
6221.834897953521
1021
-1400.794409527302
1031
0.0
1002
}
1002
{
1000
C
1070
     1
1002
}
1001
GENIUS_GENODEF_13
1002
{
1000
HIER
1070
     0
1002
}
1002
{
1000
MANEDIT
1070
     0
1002
}
1002
{
1000
NOSEL
1070
     0
1002
}
1002
{
1000
BEHIND
1070
     0
1002
}
1002
{
1000
OTHER
1070
     0
1002
}
1002
{
1000
REACTOR
1002
}
1001
GENIUS_GENOBJ-N-REC_13
1002
{
1000
OWNER
1000
GEN
1002
}
  0
LINE
  5
55B79
330
1F
100
AcDbEntity
  8
0部品3
100
AcDbLine
 10
6221.834897954205
 20
-1388.244409527469
 30
0.0
 11
6221.834897954205
 21
-1387.494409527469
 31
0.0
1001
GENIUS_GENREC_14
1002
{
1000
PYDIR
1011
6221.334897953521
1021
-1400.794409527302
1031
0.0
1002
}
1002
{
1000
PXDIR
1011
6218.834897953521
1021
-1387.594409527302
1031
0.0
1002
}
1002
{
1000
PORI
1011
6221.834897954205
1021
-1387.494409527469
1031
0.0
1002
}
1002
{
1000
PINS
1011
6221.834897954205
1021
-1387.494409527469
1031
0.0
1002
}
1002
{
1000
PINS2
1011
6218.834897953521
1021
-1400.794409527302
1031
0.0
1002
}
1002
{
1000
C
1070
     1
1002
}
1001
GENIUS_GENODEF_13
1002
{
1000
HIER
1070
     0
1002
}
1002
{
1000
MANEDIT
1070
     0
1002
}
1002
{
1000
NOSEL
1070
     0
1002
}
1002
{
1000
BEHIND
1070
     0
1002
}
1002
{
1000
OTHER
1070
     0
1002
}
1002
{
1000
REACTOR
1002
}
1001
GENIUS_GENOBJ-N-REC_13
1002
{
1000
OWNER
1000
GEN
1002
}
  0
LINE
  5
55B7A
330
1F
100
AcDbEntity
  8
0部品3
100
AcDbLine
 10
6218.834897954206
 20
-1387.494409527469
 30
0.0
 11
6221.834897954205
 21
-1387.494409527469
 31
0.0
1001
GENIUS_GENREC_14
1002
{
1000
PYDIR
1011
6219.334897953522
1021
-1400.094409527302
1031
0.0
1002
}
1002
{
1000
PXDIR
1011
6221.334897953521
1021
-1386.894409527303
1031
0.0
1002
}
1002
{
1000
PORI
1011
6219.334897953522
1021
-1386.894409527303
1031
0.0
1002
}
1002
{
1000
PINS
1011
6219.334897953522
1021
-1386.894409527303
1031
0.0
1002
}
1002
{
1000
PINS2
1011
6221.334897953521
1021
-1400.094409527302
1031
0.0
1002
}
1002
{
1000
C
1070
     1
1002
}
1001
GENIUS_GENODEF_13
1002
{
1000
HIER
1070
     0
1002
}
1002
{
1000
MANEDIT
1070
     0
1002
}
1002
{
1000
NOSEL
1070
     0
1002
}
1002
{
1000
BEHIND
1070
     0
1002
}
1002
{
1000
OTHER
1070
     0
1002
}
1002
{
1000
REACTOR
1002
}
1001
GENIUS_GENOBJ-N-REC_13
1002
{
1000
OWNER
1000
GEN
1002
}
  0
LINE
  5
55B7B
330
1F
100
AcDbEntity
  8
0部品3
100
AcDbLine
 10
6219.334897953522
 20
-1388.294409527303
 30
0.0
 11
6219.334897953522
 21
-1388.244409527469
 31
0.0
  0
LINE
  5
55B7C
330
1F
100
AcDbEntity
  8
0部品3
100
AcDbLine
 10
6221.334897953521
 20
-1388.294409527469
 30
0.0
 11
6221.334897953521
 21
-1388.244409527469
 31
0.0
  0
LINE
  5
55B7D
330
1F
100
AcDbEntity
  8
0部品3
100
AcDbLine
 10
6219.334897953522
 20
-1400.894409527469
 30
0.0
 11
6219.134897953521
 21
-1401.644409527469
 31
0.0
  0
LINE
  5
55B7E
330
1F
100
AcDbEntity
  8
0部品3
100
AcDbLine
 10
6219.134897953521
 20
-1401.644409527469
 30
0.0
 11
6221.534897953521
 21
-1401.644409527469
 31
0.0
  0
LINE
  5
55B7F
330
1F
100
AcDbEntity
  8
0部品3
100
AcDbLine
 10
6221.534897953521
 20
-1401.644409527469
 30
0.0
 11
6221.334897953522
 21
-1400.894409527469
 31
0.0
  0
LINE
  5
55B80
330
1F
100
AcDbEntity
  8
0部品3
100
AcDbLine
 10
6221.334897953522
 20
-1400.894409527469
 30
0.0
 11
6219.334897953522
 21
-1400.894409527469
 31
0.0
  0
LINE
  5
55B81
330
1F
100
AcDbEntity
  8
0部品3
100
AcDbLine
 10
6219.334897952943
 20
-1389.544409527921
 30
0.0
 11
6219.334897952943
 21
-1389.294409527921
 31
0.0
1001
GENIUS_GENREC_14
1002
{
1000
PYDIR
1011
6219.334897952943
1021
-1400.79440952792
1031
0.0
1002
}
1002
{
1000
PXDIR
1011
6221.834897952943
1021
-1387.594409527921
1031
0.0
1002
}
1002
{
1000
PORI
1011
6219.334897952943
1021
-1387.594409527921
1031
0.0
1002
}
1002
{
1000
PINS
1011
6219.334897952943
1021
-1387.594409527921
1031
0.0
1002
}
1002
{
1000
PINS2
1011
6221.834897952943
1021
-1400.79440952792
1031
0.0
1002
}
1002
{
1000
C
1070
     1
1002
}
1001
GENIUS_GENODEF_13
1002
{
1000
HIER
1070
     0
1002
}
1002
{
1000
MANEDIT
1070
     0
1002
}
1002
{
1000
NOSEL
1070
     0
1002
}
1002
{
1000
BEHIND
1070
     0
1002
}
1002
{
1000
OTHER
1070
     0
1002
}
1002
{
1000
REACTOR
1002
}
1001
GENIUS_GENOBJ-N-REC_13
1002
{
1000
OWNER
1000
GEN
1002
}
  0
LINE
  5
55B82
330
1F
100
AcDbEntity
  8
0部品3
100
AcDbLine
 10
6221.334897952942
 20
-1389.544409527921
 30
0.0
 11
6221.334897952942
 21
-1389.294409527921
 31
0.0
1001
GENIUS_GENREC_14
1002
{
1000
PYDIR
1011
6221.334897952942
1021
-1400.79440952792
1031
0.0
1002
}
1002
{
1000
PXDIR
1011
6218.834897952943
1021
-1387.594409527921
1031
0.0
1002
}
1002
{
1000
PORI
1011
6221.334897952942
1021
-1387.594409527921
1031
0.0
1002
}
1002
{
1000
PINS
1011
6221.334897952942
1021
-1387.594409527921
1031
0.0
1002
}
1002
{
1000
PINS2
1011
6218.834897952943
1021
-1400.79440952792
1031
0.0
1002
}
1002
{
1000
C
1070
     1
1002
}
1001
GENIUS_GENODEF_13
1002
{
1000
HIER
1070
     0
1002
}
1002
{
1000
MANEDIT
1070
     0
1002
}
1002
{
1000
NOSEL
1070
     0
1002
}
1002
{
1000
BEHIND
1070
     0
1002
}
1002
{
1000
OTHER
1070
     0
1002
}
1002
{
1000
REACTOR
1002
}
1001
GENIUS_GENOBJ-N-REC_13
1002
{
1000
OWNER
1000
GEN
1002
}
  0
LINE
  5
55B83
330
1F
100
AcDbEntity
  8
0部品3
100
AcDbLine
 10
6219.334897952943
 20
-1399.544409527921
 30
0.0
 11
6219.334897952943
 21
-1399.794409527921
 31
0.0
1001
GENIUS_GENREC_14
1002
{
1000
PYDIR
1011
6219.334897952943
1021
-1388.294409527922
1031
0.0
1002
}
1002
{
1000
PXDIR
1011
6221.834897952943
1021
-1401.494409527921
1031
0.0
1002
}
1002
{
1000
PORI
1011
6219.334897952943
1021
-1401.494409527921
1031
0.0
1002
}
1002
{
1000
PINS
1011
6219.334897952943
1021
-1401.494409527921
1031
0.0
1002
}
1002
{
1000
PINS2
1011
6221.834897952943
1021
-1388.294409527922
1031
0.0
1002
}
1002
{
1000
C
1070
     1
1002
}
1001
GENIUS_GENODEF_13
1002
{
1000
HIER
1070
     0
1002
}
1002
{
1000
MANEDIT
1070
     0
1002
}
1002
{
1000
NOSEL
1070
     0
1002
}
1002
{
1000
BEHIND
1070
     0
1002
}
1002
{
1000
OTHER
1070
     0
1002
}
1002
{
1000
REACTOR
1002
}
1001
GENIUS_GENOBJ-N-REC_13
1002
{
1000
OWNER
1000
GEN
1002
}
  0
LINE
  5
55B84
330
1F
100
AcDbEntity
  8
0部品3
100
AcDbLine
 10
6221.334897952942
 20
-1399.544409527921
 30
0.0
 11
6221.334897952942
 21
-1399.794409527921
 31
0.0
1001
GENIUS_GENREC_14
1002
{
1000
PYDIR
1011
6221.334897952942
1021
-1388.294409527922
1031
0.0
1002
}
1002
{
1000
PXDIR
1011
6218.834897952943
1021
-1401.494409527921
1031
0.0
1002
}
1002
{
1000
PORI
1011
6221.334897952942
1021
-1401.494409527921
1031
0.0
1002
}
1002
{
1000
PINS
1011
6221.334897952942
1021
-1401.494409527921
1031
0.0
1002
}
1002
{
1000
PINS2
1011
6218.834897952943
1021
-1388.294409527922
1031
0.0
1002
}
1002
{
1000
C
1070
     1
1002
}
1001
GENIUS_GENODEF_13
1002
{
1000
HIER
1070
     0
1002
}
1002
{
1000
MANEDIT
1070
     0
1002
}
1002
{
1000
NOSEL
1070
     0
1002
}
1002
{
1000
BEHIND
1070
     0
1002
}
1002
{
1000
OTHER
1070
     0
1002
}
1002
{
1000
REACTOR
1002
}
1001
GENIUS_GENOBJ-N-REC_13
1002
{
1000
OWNER
1000
GEN
1002
}
  0
ARC
  5
55B86
330
1F
100
AcDbEntity
  8
0部品4
100
AcDbCircle
 10
6225.102118303981
 20
-1331.571182228763
 30
0.0
 40
25.0
100
AcDbArc
 50
95.33755684941363
 51
113.2921231473243
  0
ARC
  5
55B87
330
1F
100
AcDbEntity
  8
0部品4
100
AcDbCircle
 10
6225.102118303981
 20
-1331.571182228763
 30
0.0
 40
23.5
100
AcDbArc
 50
95.33755684941363
 51
113.2921231473243
  0
ARC
  5
55B88
330
1F
100
AcDbEntity
  8
0部品4
100
AcDbCircle
 10
6217.193733632786
 20
-1313.201167207201
 30
0.0
 40
5.0
100
AcDbArc
 50
113.2921231473243
 51
154.786213681736
1001
GENIUS_GENODEF_13
1002
{
1000
HIER
1070
     0
1002
}
1002
{
1000
MANEDIT
1070
     0
1002
}
1002
{
1000
NOSEL
1070
     0
1002
}
1002
{
1000
BEHIND
1070
     0
1002
}
1002
{
1000
OTHER
1070
     0
1002
}
1002
{
1000
REACTOR
1002
}
1001
GENIUS_GENOBJ-N-FIL_13
1002
{
1000
OWNER
1000
GEN
1002
}
  0
ARC
  5
55B89
330
1F
100
AcDbEntity
  8
0部品4
100
AcDbCircle
 10
6217.193733632786
 20
-1313.201167207201
 30
0.0
 40
3.5
100
AcDbArc
 50
113.2921231473243
 51
142.5140304240788
1001
GENIUS_GENODEF_13
1002
{
1000
HIER
1070
     0
1002
}
1002
{
1000
MANEDIT
1070
     0
1002
}
1002
{
1000
NOSEL
1070
     0
1002
}
1002
{
1000
BEHIND
1070
     0
1002
}
1002
{
1000
OTHER
1070
     0
1002
}
1002
{
1000
REACTOR
1002
}
1001
GENIUS_GENOBJ-N-FIL_13
1002
{
1000
OWNER
1000
GEN
1002
}
  0
ARC
  5
55B8A
330
1F
100
AcDbEntity
  8
0部品4
100
AcDbCircle
 10
6223.102118303981
 20
-1310.164407600155
 30
0.0
 40
3.5
100
AcDbArc
 50
5.627720419968925
 51
95.33755684941363
1001
GENIUS_GENOBJ-N-FIL_13
1002
{
1000
OWNER
1000
GEN
1002
}
1001
GENIUS_GENODEF_13
1002
{
1000
HIER
1070
     0
1002
}
1002
{
1000
MANEDIT
1070
     0
1002
}
1002
{
1000
NOSEL
1070
     0
1002
}
1002
{
1000
BEHIND
1070
     0
1002
}
1002
{
1000
OTHER
1070
     0
1002
}
1002
{
1000
REACTOR
1002
}
  0
ARC
  5
55B8B
330
1F
100
AcDbEntity
  8
0部品4
100
AcDbCircle
 10
6223.102118303981
 20
-1310.164407600155
 30
0.0
 40
2.0
100
AcDbArc
 50
9.881597263230586
 51
95.33755684941363
1001
GENIUS_GENOBJ-N-FIL_13
1002
{
1000
OWNER
1000
GEN
1002
}
1001
GENIUS_GENODEF_13
1002
{
1000
HIER
1070
     0
1002
}
1002
{
1000
MANEDIT
1070
     0
1002
}
1002
{
1000
NOSEL
1070
     0
1002
}
1002
{
1000
BEHIND
1070
     0
1002
}
1002
{
1000
OTHER
1070
     0
1002
}
1002
{
1000
REACTOR
1002
}
  0
ARC
  5
55B8C
330
1F
100
AcDbEntity
  8
0部品4
100
AcDbCircle
 10
6225.102118303981
 20
-1300.571182228763
 30
0.0
 40
25.0
100
AcDbArc
 50
246.7078768526757
 51
264.6624431505864
  0
ARC
  5
55B8D
330
1F
100
AcDbEntity
  8
0部品4
100
AcDbCircle
 10
6225.102118303981
 20
-1300.571182228763
 30
0.0
 40
23.5
100
AcDbArc
 50
246.7078768526757
 51
264.6624431505864
  0
ARC
  5
55B8E
330
1F
100
AcDbEntity
  8
0部品4
100
AcDbCircle
 10
6217.193733632786
 20
-1318.941197250325
 30
0.0
 40
5.0
100
AcDbArc
 50
205.2137863182933
 51
246.7078768526757
1001
GENIUS_GENODEF_13
1002
{
1000
HIER
1070
     0
1002
}
1002
{
1000
MANEDIT
1070
     0
1002
}
1002
{
1000
NOSEL
1070
     0
1002
}
1002
{
1000
BEHIND
1070
     0
1002
}
1002
{
1000
OTHER
1070
     0
1002
}
1002
{
1000
REACTOR
1002
}
1001
GENIUS_GENOBJ-N-FIL_13
1002
{
1000
OWNER
1000
GEN
1002
}
  0
ARC
  5
55B8F
330
1F
100
AcDbEntity
  8
0部品4
100
AcDbCircle
 10
6217.193733632786
 20
-1318.941197250325
 30
0.0
 40
3.5
100
AcDbArc
 50
217.4859695759212
 51
246.7078768526757
1001
GENIUS_GENODEF_13
1002
{
1000
HIER
1070
     0
1002
}
1002
{
1000
MANEDIT
1070
     0
1002
}
1002
{
1000
NOSEL
1070
     0
1002
}
1002
{
1000
BEHIND
1070
     0
1002
}
1002
{
1000
OTHER
1070
     0
1002
}
1002
{
1000
REACTOR
1002
}
1001
GENIUS_GENOBJ-N-FIL_13
1002
{
1000
OWNER
1000
GEN
1002
}
  0
ARC
  5
55B90
330
1F
100
AcDbEntity
  8
0部品4
100
AcDbCircle
 10
6223.102118303981
 20
-1321.97795685737
 30
0.0
 40
3.5
100
AcDbArc
 50
264.6624431505864
 51
354.3722795855094
1001
GENIUS_GENOBJ-N-FIL_13
1002
{
1000
OWNER
1000
GEN
1002
}
1001
GENIUS_GENODEF_13
1002
{
1000
HIER
1070
     0
1002
}
1002
{
1000
MANEDIT
1070
     0
1002
}
1002
{
1000
NOSEL
1070
     0
1002
}
1002
{
1000
BEHIND
1070
     0
1002
}
1002
{
1000
OTHER
1070
     0
1002
}
1002
{
1000
REACTOR
1002
}
  0
ARC
  5
55B91
330
1F
100
AcDbEntity
  8
0部品4
100
AcDbCircle
 10
6223.102118303981
 20
-1321.97795685737
 30
0.0
 40
2.0
100
AcDbArc
 50
264.6624431505864
 51
350.1184027464657
1001
GENIUS_GENOBJ-N-FIL_13
1002
{
1000
OWNER
1000
GEN
1002
}
1001
GENIUS_GENODEF_13
1002
{
1000
HIER
1070
     0
1002
}
1002
{
1000
MANEDIT
1070
     0
1002
}
1002
{
1000
NOSEL
1070
     0
1002
}
1002
{
1000
BEHIND
1070
     0
1002
}
1002
{
1000
OTHER
1070
     0
1002
}
1002
{
1000
REACTOR
1002
}
  0
ARC
  5
55B92
330
1F
100
AcDbEntity
  8
0部品4
100
AcDbCircle
 10
6225.852118303981
 20
-1349.760697330069
 30
0.0
 40
0.75
100
AcDbArc
 50
276.3728632838352
 51
96.37286328383519
  0
ARC
  5
55B93
330
1F
100
AcDbEntity
  8
0部品4
100
AcDbCircle
 10
6212.932450475701
 20
-1351.203674532557
 30
0.0
 40
0.75
100
AcDbArc
 50
96.37286328383519
 51
276.3728632838352
  0
LINE
  5
55B94
330
1F
100
AcDbEntity
  8
0部品4
100
AcDbLine
 10
6213.01569916046
 20
-1351.949039984189
 30
0.0
 11
6225.935366988739
 21
-1350.506062781701
 31
0.0
  0
LINE
  5
55B95
330
1F
100
AcDbEntity
  8
0部品4
100
AcDbLine
 10
6212.849201790942
 20
-1350.458309080926
 30
0.0
 11
6225.768869619222
 21
-1349.015331878438
 31
0.0
  0
ARC
  5
55B97
330
1F
100
AcDbEntity
  8
0部品4
100
AcDbCircle
 10
6225.102118303981
 20
-1410.044409527588
 30
0.0
 40
25.0
100
AcDbArc
 50
95.33755684941363
 51
113.2921231473243
  0
ARC
  5
55B98
330
1F
100
AcDbEntity
  8
0部品4
100
AcDbCircle
 10
6225.102118303981
 20
-1410.044409527588
 30
0.0
 40
23.5
100
AcDbArc
 50
95.33755684941363
 51
113.2921231473243
  0
ARC
  5
55B99
330
1F
100
AcDbEntity
  8
0部品4
100
AcDbCircle
 10
6217.193733632786
 20
-1391.674394506026
 30
0.0
 40
5.0
100
AcDbArc
 50
113.2921231473243
 51
154.7862136817066
1001
GENIUS_GENODEF_13
1002
{
1000
HIER
1070
     0
1002
}
1002
{
1000
MANEDIT
1070
     0
1002
}
1002
{
1000
NOSEL
1070
     0
1002
}
1002
{
1000
BEHIND
1070
     0
1002
}
1002
{
1000
OTHER
1070
     0
1002
}
1002
{
1000
REACTOR
1002
}
1001
GENIUS_GENOBJ-N-FIL_13
1002
{
1000
OWNER
1000
GEN
1002
}
  0
ARC
  5
55B9A
330
1F
100
AcDbEntity
  8
0部品4
100
AcDbCircle
 10
6217.193733632786
 20
-1391.674394506026
 30
0.0
 40
3.5
100
AcDbArc
 50
113.2921231473243
 51
142.5140304240788
1001
GENIUS_GENODEF_13
1002
{
1000
HIER
1070
     0
1002
}
1002
{
1000
MANEDIT
1070
     0
1002
}
1002
{
1000
NOSEL
1070
     0
1002
}
1002
{
1000
BEHIND
1070
     0
1002
}
1002
{
1000
OTHER
1070
     0
1002
}
1002
{
1000
REACTOR
1002
}
1001
GENIUS_GENOBJ-N-FIL_13
1002
{
1000
OWNER
1000
GEN
1002
}
  0
ARC
  5
55B9B
330
1F
100
AcDbEntity
  8
0部品4
100
AcDbCircle
 10
6223.102118303981
 20
-1388.63763489898
 30
0.0
 40
3.5
100
AcDbArc
 50
5.627720419968925
 51
95.33755684941363
1001
GENIUS_GENOBJ-N-FIL_13
1002
{
1000
OWNER
1000
GEN
1002
}
1001
GENIUS_GENODEF_13
1002
{
1000
HIER
1070
     0
1002
}
1002
{
1000
MANEDIT
1070
     0
1002
}
1002
{
1000
NOSEL
1070
     0
1002
}
1002
{
1000
BEHIND
1070
     0
1002
}
1002
{
1000
OTHER
1070
     0
1002
}
1002
{
1000
REACTOR
1002
}
  0
ARC
  5
55B9C
330
1F
100
AcDbEntity
  8
0部品4
100
AcDbCircle
 10
6223.102118303981
 20
-1388.63763489898
 30
0.0
 40
2.0
100
AcDbArc
 50
9.881597263230586
 51
95.33755684941363
1001
GENIUS_GENOBJ-N-FIL_13
1002
{
1000
OWNER
1000
GEN
1002
}
1001
GENIUS_GENODEF_13
1002
{
1000
HIER
1070
     0
1002
}
1002
{
1000
MANEDIT
1070
     0
1002
}
1002
{
1000
NOSEL
1070
     0
1002
}
1002
{
1000
BEHIND
1070
     0
1002
}
1002
{
1000
OTHER
1070
     0
1002
}
1002
{
1000
REACTOR
1002
}
  0
ARC
  5
55B9D
330
1F
100
AcDbEntity
  8
0部品4
100
AcDbCircle
 10
6225.102118303981
 20
-1379.044409527588
 30
0.0
 40
25.0
100
AcDbArc
 50
246.7078768526757
 51
264.6624431505864
  0
ARC
  5
55B9E
330
1F
100
AcDbEntity
  8
0部品4
100
AcDbCircle
 10
6225.102118303981
 20
-1379.044409527588
 30
0.0
 40
23.5
100
AcDbArc
 50
246.7078768526757
 51
264.6624431505864
  0
ARC
  5
55B9F
330
1F
100
AcDbEntity
  8
0部品4
100
AcDbCircle
 10
6217.193733632786
 20
-1397.41442454915
 30
0.0
 40
5.0
100
AcDbArc
 50
205.2137863182933
 51
246.7078768526757
1001
GENIUS_GENODEF_13
1002
{
1000
HIER
1070
     0
1002
}
1002
{
1000
MANEDIT
1070
     0
1002
}
1002
{
1000
NOSEL
1070
     0
1002
}
1002
{
1000
BEHIND
1070
     0
1002
}
1002
{
1000
OTHER
1070
     0
1002
}
1002
{
1000
REACTOR
1002
}
1001
GENIUS_GENOBJ-N-FIL_13
1002
{
1000
OWNER
1000
GEN
1002
}
  0
ARC
  5
55BA0
330
1F
100
AcDbEntity
  8
0部品4
100
AcDbCircle
 10
6217.193733632786
 20
-1397.41442454915
 30
0.0
 40
3.5
100
AcDbArc
 50
217.4859695759212
 51
246.7078768526757
1001
GENIUS_GENODEF_13
1002
{
1000
HIER
1070
     0
1002
}
1002
{
1000
MANEDIT
1070
     0
1002
}
1002
{
1000
NOSEL
1070
     0
1002
}
1002
{
1000
BEHIND
1070
     0
1002
}
1002
{
1000
OTHER
1070
     0
1002
}
1002
{
1000
REACTOR
1002
}
1001
GENIUS_GENOBJ-N-FIL_13
1002
{
1000
OWNER
1000
GEN
1002
}
  0
ARC
  5
55BA1
330
1F
100
AcDbEntity
  8
0部品4
100
AcDbCircle
 10
6223.102118303981
 20
-1400.451184156195
 30
0.0
 40
3.5
100
AcDbArc
 50
264.6624431505864
 51
354.3722795855094
1001
GENIUS_GENOBJ-N-FIL_13
1002
{
1000
OWNER
1000
GEN
1002
}
1001
GENIUS_GENODEF_13
1002
{
1000
HIER
1070
     0
1002
}
1002
{
1000
MANEDIT
1070
     0
1002
}
1002
{
1000
NOSEL
1070
     0
1002
}
1002
{
1000
BEHIND
1070
     0
1002
}
1002
{
1000
OTHER
1070
     0
1002
}
1002
{
1000
REACTOR
1002
}
  0
ARC
  5
55BA2
330
1F
100
AcDbEntity
  8
0部品4
100
AcDbCircle
 10
6223.102118303981
 20
-1400.451184156195
 30
0.0
 40
2.0
100
AcDbArc
 50
264.6624431505864
 51
350.1184027464657
1001
GENIUS_GENOBJ-N-FIL_13
1002
{
1000
OWNER
1000
GEN
1002
}
1001
GENIUS_GENODEF_13
1002
{
1000
HIER
1070
     0
1002
}
1002
{
1000
MANEDIT
1070
     0
1002
}
1002
{
1000
NOSEL
1070
     0
1002
}
1002
{
1000
BEHIND
1070
     0
1002
}
1002
{
1000
OTHER
1070
     0
1002
}
1002
{
1000
REACTOR
1002
}
  0
LINE
  5
55BA3
330
1F
100
AcDbEntity
  8
0部品6
  6
中心線1
 48
0.3
370
    13
100
AcDbLine
 10
6201.834897954205
 20
-1316.071182228766
 30
0.0
 11
6243.872924093512
 21
-1316.07118222867
 31
0.0
1001
GENIUS_GENODEF_13
1002
{
1000
HIER
1070
     0
1002
}
1002
{
1000
MANEDIT
1070
     0
1002
}
1002
{
1000
NOSEL
1070
     0
1002
}
1002
{
1000
BEHIND
1070
     0
1002
}
1002
{
1000
OTHER
1070
     0
1002
}
1002
{
1000
REACTOR
1002
}
1001
GENIUS_GENOBJ-N-CEN_13
1002
{
1000
OWNER
1000
GEN
1002
}
1001
GENIUS_GENCEN_19
1002
{
1040
2.5
1002
}
  0
DIMENSION
  5
55BA4
330
1F
100
AcDbEntity
  8
AM_5
100
AcDbDimension
  2
*D7
 10
6195.334897954205
 20
-1352.985920193058
 30
0.0
 11
6192.734897954205
 21
-1356.252586859723
 31
0.0
 70
    32
  1
<>
 71
     5
  3
SYS$0
100
AcDbAlignedDimension
 13
6203.334897954206
 23
-1351.985920193057
 33
0.0
 14
6203.334897954203
 24
-1352.985920193058
 34
0.0
 50
90.0
100
AcDbRotatedDimension
1001
ACAD
1000
DSTYLE
1002
{
1070
    48
1040
0.0
1070
   179
1070
     2
1002
}
  0
DIMENSION
  5
55BA5
330
1F
100
AcDbEntity
  8
AM_5
100
AcDbDimension
  2
*D8
 10
6187.334897954205
 20
-1347.785920193057
 30
0.0
 11
6187.334897954205
 21
-1350.385920193057
 31
0.0
 70
   160
  1
5.4
 71
     5
 42
5.200000000000045
  3
SYS$0
100
AcDbAlignedDimension
 13
6203.334897954203
 23
-1352.985920193058
 33
0.0
 14
6211.775687697929
 24
-1347.785920193057
 34
0.0
 50
90.0
100
AcDbRotatedDimension
1001
ACAD
1000
DSTYLE
1002
{
1070
    48
1040
0.0
1070
   179
1070
     2
1002
}
  0
DIMENSION
  5
55BA7
330
1F
100
AcDbEntity
  8
AM_5
100
AcDbDimension
  2
*D9
 10
6250.372924093512
 20
-1352.985920193058
 30
0.0
 11
6250.372924093512
 21
-1356.252586859723
 31
0.0
 70
   160
  1
<>
 71
     5
 42
1.000000000000227
  3
SYS$0
100
AcDbAlignedDimension
 13
6235.334897954206
 23
-1351.985920193057
 33
0.0
 14
6235.334897954206
 24
-1352.985920193058
 34
0.0
 50
90.0
100
AcDbRotatedDimension
1001
ACAD
1000
DSTYLE
1002
{
1070
    48
1040
0.0
1070
   179
1070
     2
1002
}
  0
DIMENSION
  5
55BA8
330
1F
100
AcDbEntity
  8
AM_5
100
AcDbDimension
  2
*D10
 10
6258.372924093512
 20
-1344.614143204525
 30
0.0
 11
6258.372924093512
 21
-1348.80003169879
 31
0.0
 70
   160
  1
（8.2）
 71
     5
 42
8.371776988532474
  3
SYS$0
100
AcDbAlignedDimension
 13
6235.334897954206
 23
-1352.985920193058
 33
0.0
 14
6222.761328658457
 24
-1344.614143204525
 34
0.0
 50
90.0
100
AcDbRotatedDimension
1001
ACAD
1000
DSTYLE
1002
{
1070
    48
1040
0.0
1070
   179
1070
     2
1002
}
  0
DIMENSION
  5
55BA9
330
1F
100
AcDbEntity
  8
AM_5
100
AcDbDimension
  2
*D11
 10
6250.372924093512
 20
-1322.321182228596
 30
0.0
 11
6250.372924093512
 21
-1316.071182229024
 31
0.0
 70
   160
 71
     5
 42
12.49999999957163
  3
SYS$0
100
AcDbAlignedDimension
 13
6232.153375079214
 23
-1309.821182229024
 33
0.0
 14
6232.153375079139
 24
-1322.321182228596
 34
0.0
 50
90.0
100
AcDbRotatedDimension
1001
ACAD
1000
DSTYLE
1002
{
1070
    48
1040
0.0
1070
   179
1070
     2
1002
}
  0
DIMENSION
  5
55BAA
330
1F
100
AcDbEntity
  8
AM_5
100
AcDbDimension
  2
*D12
 10
6258.372924093512
 20
-1325.47795685737
 30
0.0
 11
6258.372924093512
 21
-1316.071182228762
 31
0.0
 70
   160
  1
（<>）
 71
     5
 42
18.8135492572153
  3
SYS$0
100
AcDbAlignedDimension
 13
6223.102118303981
 23
-1306.664407600155
 33
0.0
 14
6223.102118303981
 24
-1325.47795685737
 34
0.0
 50
90.0
100
AcDbRotatedDimension
1001
ACAD
1000
DSTYLE
1002
{
1070
    48
1040
0.0
1070
   179
1070
     2
1070
   271
1070
     0
1002
}
  0
DIMENSION
  5
55BAB
330
1F
100
AcDbEntity
  8
AM_5
100
AcDbDimension
  2
*D13
 10
6242.372924093512
 20
-1298.664407600155
 30
0.0
 11
6230.353911023517
 21
-1298.664407600155
 31
0.0
 70
   160
  1
（<>）
 71
     5
 42
24.03802613999051
  3
SYS$0
100
AcDbAlignedDimension
 13
6218.334897953521
 23
-1311.071182228763
 33
0.0
 14
6242.372924093512
 24
-1316.071182228861
 34
0.0
100
AcDbRotatedDimension
1001
ACAD
1000
DSTYLE
1002
{
1070
    48
1040
0.0
1070
   179
1070
     2
1070
   271
1070
     0
1002
}
  0
DIMENSION
  5
55BAC
330
1F
100
AcDbEntity
  8
AM_5
100
AcDbDimension
  2
*D14
 10
6203.334897953521
 20
-1298.664407600155
 30
0.0
 11
6209.334897953521
 21
-1298.664407600155
 31
0.0
 70
   160
  1
（<>）
 71
     5
 42
12.0
  3
SYS$0
100
AcDbAlignedDimension
 13
6215.334897953521
 23
-1311.071182228763
 33
0.0
 14
6203.334897953521
 24
-1309.071182228763
 34
0.0
100
AcDbRotatedDimension
1001
ACAD
1000
DSTYLE
1002
{
1070
    48
1040
0.0
1070
   179
1070
     2
1070
   271
1070
     0
1002
}
  0
LINE
  5
55BAD
330
1F
100
AcDbEntity
  8
0部品1
100
AcDbLine
 10
6242.372924093512
 20
-1349.990280007805
 30
0.0
 11
6242.105463541495
 21
-1349.026711197021
 31
0.0
  0
DIMENSION
  5
55BAE
330
1F
100
AcDbEntity
  8
AM_5
100
AcDbDimension
  2
*D15
 10
6195.334897954205
 20
-1325.071182228763
 30
0.0
 11
6195.334897954205
 21
-1316.071182228762
 31
0.0
 70
   160
  1
（<>）
 71
     5
 42
18.0
  3
SYS$0
100
AcDbAlignedDimension
 13
6205.334897954205
 23
-1307.071182228762
 33
0.0
 14
6205.334897954205
 24
-1325.071182228763
 34
0.0
 50
90.0
100
AcDbRotatedDimension
1001
ACAD
1000
DSTYLE
1002
{
1070
    48
1040
0.0
1070
   179
1070
     2
1002
}
  0
DIMENSION
  5
55BAF
330
1F
100
AcDbEntity
  8
AM_5
100
AcDbDimension
  2
*D16
 10
6226.334897954205
 20
-1411.951184156196
 30
0.0
 11
6222.334897954205
 21
-1411.951184156196
 31
0.0
 70
   160
 71
     5
 42
8.0
  3
SYS$0
100
AcDbAlignedDimension
 13
6218.334897954205
 23
-1399.544409527588
 33
0.0
 14
6226.334897954205
 24
-1396.094409527588
 34
0.0
100
AcDbRotatedDimension
1001
ACAD
1000
DSTYLE
1002
{
1070
    48
1040
0.0
1070
   179
1070
     2
1002
}
  0
DIMENSION
  5
55BB0
330
1F
100
AcDbEntity
  8
AM_5
100
AcDbDimension
  2
*D17
 10
6231.334897954205
 20
-1419.951184156196
 30
0.0
 11
6228.834897954205
 21
-1419.951184156196
 31
0.0
 70
   160
 71
     5
 42
5.0
  3
SYS$0
100
AcDbAlignedDimension
 13
6226.334897954205
 23
-1396.094409527588
 33
0.0
 14
6231.334897954205
 24
-1396.094409527588
 34
0.0
100
AcDbRotatedDimension
1001
ACAD
1000
DSTYLE
1002
{
1070
    48
1040
0.0
1070
   179
1070
     2
1002
}
  0
DIMENSION
  5
55BB3
330
1F
100
AcDbEntity
  8
AM_5
100
AcDbDimension
  2
*D18
 10
6230.738080410469
 20
-1395.408301198742
 30
0.0
 11
6245.945142521658
 21
-1385.726868106567
 31
0.0
 70
   163
  1
2-<>
 71
     5
 42
2.099999999998544
  3
SYS$3
100
AcDbDiametricDimension
 15
6231.931715497935
 25
-1393.680517856432
 35
0.0
 40
0.0
1001
ACAD
1000
DSTYLE
1002
{
1070
    41
1040
1.0
1070
   172
1070
     1
1070
   173
1070
     1
1070
   342
1005
0
1070
   343
1005
6C4
1070
   344
1005
6C4
1002
}
  0
DIMENSION
  5
55BB4
330
1F
100
AcDbEntity
  8
AM_5
100
AcDbDimension
  2
*D19
 10
6226.334897954205
 20
-1419.951184156196
 30
0.0
 11
6215.834897954206
 21
-1419.951184156196
 31
0.0
 70
   160
  1
（<>）
 71
     5
 42
21.0
  3
SYS$0
100
AcDbAlignedDimension
 13
6205.334897954205
 23
-1404.044409527588
 33
0.0
 14
6226.334897954205
 24
-1396.094409527588
 34
0.0
100
AcDbRotatedDimension
1001
ACAD
1000
DSTYLE
1002
{
1070
    48
1040
0.0
1070
   179
1070
     2
1070
   271
1070
     1
1002
}
  0
DIMENSION
  5
55BB5
330
1F
100
AcDbEntity
  8
AM_5
100
AcDbDimension
  2
*D20
 10
6215.334897954205
 20
-1411.951184156196
 30
0.0
 11
6210.334897954205
 21
-1411.951184156196
 31
0.0
 70
   160
  1
（<>）
 71
     5
 42
10.0
  3
SYS$0
100
AcDbAlignedDimension
 13
6205.334897954205
 23
-1404.044409527588
 33
0.0
 14
6215.334897954205
 24
-1399.544409527588
 34
0.0
100
AcDbRotatedDimension
1001
ACAD
1000
DSTYLE
1002
{
1070
    48
1040
0.0
1070
   179
1070
     2
1002
}
  0
DIMENSION
  5
55BB6
330
1F
100
AcDbEntity
  8
AM_5
100
AcDbDimension
  2
*D21
 10
6195.334897954205
 20
-1401.544409527588
 30
0.0
 11
6195.334897954205
 21
-1394.544409527587
 31
0.0
 70
   160
 71
     5
 42
14.0
  3
SYS$0
100
AcDbAlignedDimension
 13
6202.834897954205
 23
-1387.544409527588
 33
0.0
 14
6202.834897954205
 24
-1401.544409527588
 34
0.0
 50
90.0
100
AcDbRotatedDimension
1001
ACAD
1000
DSTYLE
1002
{
1070
    48
1040
0.0
1070
   179
1070
     2
1002
}
  0
DIMENSION
  5
55BB8
330
1F
100
AcDbEntity
  8
AM_5
100
AcDbDimension
  2
*D22
 10
6206.031791137982
 20
-1388.329801079871
 30
0.0
 11
6192.126952440933
 21
-1382.259639812333
 31
0.0
 70
   163
  1
2-<>
 71
     5
 42
2.100000000000363
  3
SYS$3
100
AcDbDiametricDimension
 15
6204.638004770419
 25
-1386.759017975304
 35
0.0
 40
0.0
1001
ACAD
1000
DSTYLE
1002
{
1070
    41
1040
1.0
1070
   172
1070
     1
1070
   173
1070
     1
1070
   342
1005
0
1070
   343
1005
6C4
1070
   344
1005
6C4
1002
}
  0
DIMENSION
  5
562F6
330
1F
100
AcDbEntity
  8
AM_5
100
AcDbDimension
  2
*D23
 10
6216.48049434872
 20
-1324.037490097698
 30
0.0
 11
6211.847093668304
 21
-1329.111068532563
 31
0.0
 70
    33
  1
%%c<>
 71
     5
 42
1.500000000000227
  3
SYS$0
100
AcDbAlignedDimension
 13
6216.999689490232
 23
-1322.63020866508
 33
0.0
 14
6216.482513182972
 24
-1324.0382316291
 34
0.0
  0
ENDSEC
  0
SECTION
  2
OBJECTS
  0
DICTIONARY
  5
C
330
0
100
AcDbDictionary
281
     1
  3
ACAD_2007HEADERVARS_RT
350
5B2AA
  3
ACAD_BGPLOT_KEY
350
AB06
  3
ACAD_COLOR
350
A91D
  3
ACAD_GROUP
350
D
  3
ACAD_LAYOUT
350
1A
  3
ACAD_MATERIAL
350
A91C
  3
ACAD_MLINESTYLE
350
17
  3
ACAD_PLOTSETTINGS
350
19
  3
ACAD_PLOTSTYLENAME
350
E
  3
ACAD_TABLESTYLE
350
AAB9
  3
ACAD_VISUALSTYLE
350
B0F1
  3
AcAsAppObject
350
3DA1
  3
ACASGREF_MASTER
350
3DE9
  3
AcDbVariableDictionary
350
34
  3
AcmDictionary
350
47
  3
AD_GREF_MODULE
350
3DEA
  3
AD_MAPI_MODULE
350
3E06
  3
AMG
350
2B
  3
AMGSNAPSETTINGS
350
7D
  3
ASE_INDEX_DICTIONARY
350
57912
  3
DWGPROPS
350
5B2A9
  3
MAPISURF_MODULE
350
3DEB
  0
DICTIONARY
  5
3F95
330
2
100
AcDbDictionary
280
     1
281
     1
  3
ACAD_LAYERFILTERS
360
5369F
  3
ACAD_LAYERSTATES
360
3F96
  3
ACLYDICTIONARY
360
5369E
  3
AMLAYER_GROUPCOLORS
360
AAB4
  0
DICTIONARY
  5
2E416
330
2E415
100
AcDbDictionary
280
     1
281
     1
  3
ADSK_XREC_LAYER_RECONCILED
360
2E417
  0
DICTIONARY
  5
8A
330
1F
100
AcDbDictionary
280
     1
281
     1
  3
ACAD_SORTENTS
360
B1BA
  0
DICTIONARY
  5
5B2AA
102
{ACAD_REACTORS
330
C
102
}
330
C
100
AcDbDictionary
281
     1
  3
DIMARCSYM
350
5B2AB
  0
DICTIONARY
  5
AB06
102
{ACAD_REACTORS
330
C
102
}
330
C
100
AcDbDictionary
280
     1
281
     1
  0
DICTIONARY
  5
A91D
102
{ACAD_REACTORS
330
C
102
}
330
C
100
AcDbDictionary
281
     1
  0
DICTIONARY
  5
D
102
{ACAD_REACTORS
330
C
102
}
330
C
100
AcDbDictionary
281
     1
  0
DICTIONARY
  5
1A
102
{ACAD_REACTORS
330
C
102
}
330
C
100
AcDbDictionary
281
     1
  3
Model
350
22
  3
ﾚｲｱｳﾄ1
350
1E
  3
ﾚｲｱｳﾄ2
350
26
  0
DICTIONARY
  5
A91C
102
{ACAD_REACTORS
330
C
102
}
330
C
100
AcDbDictionary
281
     1
  3
ByBlock
350
B0EF
  3
ByLayer
350
B0EE
  3
Global
350
B0F0
  0
DICTIONARY
  5
17
102
{ACAD_REACTORS
330
C
102
}
330
C
100
AcDbDictionary
281
     1
  3
Standard
350
18
  0
DICTIONARY
  5
19
102
{ACAD_REACTORS
330
C
102
}
330
C
100
AcDbDictionary
281
     1
  0
ACDBDICTIONARYWDFLT
  5
E
102
{ACAD_REACTORS
330
C
102
}
330
C
100
AcDbDictionary
281
     1
  3
Normal
350
F
100
AcDbDictionaryWithDefault
340
F
  0
DICTIONARY
  5
AAB9
102
{ACAD_REACTORS
330
C
102
}
330
C
100
AcDbDictionary
281
     1
  3
Standard
350
AABA
  0
DICTIONARY
  5
B0F1
102
{ACAD_REACTORS
330
C
102
}
330
C
100
AcDbDictionary
281
     1
  3
2dWireframe
350
B0F7
  3
3D Hidden
350
B0F9
  3
3dWireframe
350
B0F8
  3
Basic
350
B0F6
  3
Brighten
350
B0FD
  3
ColorChange
350
B101
  3
Conceptual
350
B0FA
  3
Dim
350
B0FC
  3
Facepattern
350
B100
  3
Flat
350
B0F2
  3
FlatWithEdges
350
B0F3
  3
Gouraud
350
B0F4
  3
GouraudWithEdges
350
B0F5
  3
Linepattern
350
B0FF
  3
Realistic
350
B0FB
  3
Thicken
350
B0FE
  0
ACAD_PROXY_OBJECT
  5
3DA1
102
{ACAD_REACTORS
330
C
102
}
330
C
100
AcDbProxyObject
 90
      499
 91
      576
 95
   917527
 70
     0
 93
       10
310
407F
 94
        0
1001
ACAD
1000
AcRTDxfName
1000
ASAPP
  0
ACAD_PROXY_OBJECT
  5
3DE9
102
{ACAD_REACTORS
330
C
102
}
330
C
100
AcDbProxyObject
 90
      499
 91
      581
 95
   917527
 70
     0
 93
       34
310
010000407F
 94
        0
1001
ACAD
1000
AcRTDxfName
1000
ACASGREFMASTER
  0
DICTIONARY
  5
34
102
{ACAD_REACTORS
330
C
102
}
330
C
100
AcDbDictionary
281
     1
  3
CTABLESTYLE
350
AAF3
  3
DIMASSOC
350
A10C
  3
FIELDEVAL
350
AB07
  3
INDEXCTL
350
35
  3
SORTENTS
350
194C
  0
DICTIONARY
  5
47
102
{ACAD_REACTORS
330
C
102
}
330
C
100
AcDbDictionary
281
     1
  3
AcmBOM
350
7E8
  3
AcmStdDictionary
350
4C
  3
AMDTSECTSYM_ARROWCOLOR
350
A929
  0
ACAD_PROXY_OBJECT
  5
3DEA
102
{ACAD_REACTORS
330
C
102
}
330
C
100
AcDbProxyObject
 90
      499
 91
      582
 95
   917527
 70
     0
 93
      114
310
00000043800000000000000000003F
 94
        0
1001
ACAD
1000
AcRTDxfName
1000
ACADGREFMODULE
  0
ACAD_PROXY_OBJECT
  5
3E06
102
{ACAD_REACTORS
330
C
102
}
330
C
100
AcDbProxyObject
 90
      499
 91
      594
 95
   917527
 70
     0
 93
       34
310
05000044FF
 94
        0
1001
ACAD
1000
AcRTDxfName
1000
MAPIADMODULE
  0
DICTIONARY
  5
2B
102
{ACAD_REACTORS
330
C
102
}
330
C
100
AcDbDictionary
281
     1
  0
DICTIONARY
  5
7D
102
{ACAD_REACTORS
330
C
102
}
330
C
100
AcDbDictionary
281
     1
  0
DICTIONARY
  5
57912
102
{ACAD_REACTORS
330
C
102
}
330
C
100
AcDbDictionary
281
     1
  3
ASEBlockHierarchyIndexRecord
350
57913
1001
DCO15
1040
1757428023.343
  0
XRECORD
  5
5B2A9
102
{ACAD_REACTORS
330
C
102
}
330
C
100
AcDbXrecord
280
     1
  1
DWGPROPS COOKIE
  2

  3

  4

  6

  7

  8
Administrator
  9

300
AmdtFileType=84
301
=
302
=
303
=
304
=
305
=
306
=
307
=
308
=
309
=
 40
7.980772152777777
 41
2455567.680725081
 42
2456267.734852431
  1

 90
        1
  0
ACAD_PROXY_OBJECT
  5
3DEB
102
{ACAD_REACTORS
330
C
102
}
330
C
100
AcDbProxyObject
 90
      499
 91
      583
 95
   917527
 70
     0
 93
        8
310
047E
 94
        0
1001
ACAD
1000
AcRTDxfName
1000
AMDTMAPISURFMOUDULE
  0
DICTIONARY
  5
5369F
102
{ACAD_REACTORS
330
3F95
102
}
330
3F95
100
AcDbDictionary
281
     1
  0
DICTIONARY
  5
3F96
102
{ACAD_REACTORS
330
3F95
102
}
330
3F95
100
AcDbDictionary
281
     1
  3
20011210
350
3FB7
  0
DICTIONARY
  5
5369E
102
{ACAD_REACTORS
330
3F95
102
}
330
3F95
100
AcDbDictionary
281
     1
1001
ACAD
1000
<All
  0
DICTIONARY
  5
AAB4
102
{ACAD_REACTORS
330
3F95
102
}
330
3F95
100
AcDbDictionary
280
     1
281
     1
  0
XRECORD
  5
2E417
102
{ACAD_REACTORS
330
2E416
102
}
330
2E416
100
AcDbXrecord
280
     1
290
     1
  0
SORTENTSTABLE
  5
B1BA
102
{ACAD_REACTORS
330
8A
102
}
330
8A
100
AcDbSortentsTable
330
1F
331
51840
  5
B5AE
331
55BAA
  5
55BB7
331
55B65
  5
55B70
331
31B3E
  5
3273F
331
55AE3
  5
55AEE
331
55B8D
  5
55B98
331
55B48
  5
55B53
331
3860E
  5
38632
331
55AC6
  5
55AD1
331
55B2B
  5
55B36
331
55B5B
  5
55B66
331
55B0E
  5
55B19
331
55AD9
  5
55AE4
331
4E0F4
  5
4E1DF
331
55B9E
  5
55BAA
331
55B3E
  5
55B49
331
31B32
  5
3273A
331
55ABC
  5
55AC7
331
55B81
  5
55B8C
331
55B6C
  5
55B77
331
32D1D
  5
32D3A
331
55B94
  5
55B9F
331
55B4F
  5
55B5A
331
55B02
  5
55B0D
331
55ACD
  5
55AD8
331
4E0E8
  5
4E1D3
331
55B32
  5
55B3D
331
38613
  5
38637
331
55B15
  5
55B20
331
34536
  5
3454E
331
55BA5
  5
55BB3
331
55B60
  5
55B6B
331
55B88
  5
55B93
331
55B43
  5
55B4E
331
38609
  5
3862D
331
55B73
  5
55B7E
331
55B26
  5
55B31
331
5184C
  5
B8D7
331
55B56
  5
55B61
331
55B09
  5
55B14
331
55AD4
  5
55ADF
331
55B99
  5
55BA4
331
55B39
  5
55B44
331
3861A
  5
38A58
331
55AB7
  5
55AC2
331
55B7C
  5
55B87
331
55B1C
  5
55B27
331
51842
  5
B5E3
331
55BAC
  5
55BB9
331
55B67
  5
55B72
331
55AE5
  5
55AF0
331
55B8F
  5
55B9A
331
55B4A
  5
55B55
331
55AC8
  5
55AD3
331
55B2D
  5
55B38
331
55B5D
  5
55B68
331
55ADB
  5
55AE6
331
4E0F6
  5
4E1E1
331
55BA0
  5
55BAC
331
55ABE
  5
55AC9
331
55B83
  5
55B8E
331
38604
  5
38628
331
55BB3
  5
55EC7
331
55B6E
  5
55B79
331
32D1F
  5
32D3C
331
55AEC
  5
55AF7
331
55B51
  5
55B5C
331
55B04
  5
55B0F
331
55ACF
  5
55ADA
331
4E0EA
  5
4E1D5
331
562F6
  5
566B2
331
55B34
  5
55B3F
331
38615
  5
38A45
331
34538
  5
34550
331
55BA7
  5
55BB4
331
55B62
  5
55B6D
331
31B3B
  5
3273C
331
55AE0
  5
55AEB
331
55B8A
  5
55B95
331
3860B
  5
3862F
331
55AC3
  5
55ACE
331
55B75
  5
55B80
331
55B28
  5
55B33
331
55AF3
  5
55AFE
331
55BB8
  5
55ECC
331
55B58
  5
55B63
331
55B0B
  5
55B16
331
55AD6
  5
55AE1
331
55B9B
  5
55BA7
331
55B3B
  5
55B46
331
55AB9
  5
55AC4
331
55B7E
  5
55B89
331
55B1E
  5
55B29
331
55BAE
  5
55BBB
331
55B69
  5
55B74
331
55AE7
  5
55AF2
331
55B91
  5
55B9C
331
55ACA
  5
55AD5
331
55B2F
  5
55B3A
331
38610
  5
38634
331
55B5F
  5
55B6A
331
55ADD
  5
55AE8
331
55BA2
  5
55BAE
331
55B40
  5
55B4B
331
38606
  5
3862A
331
55BB5
  5
55EC9
331
55B70
  5
55B7B
331
32D21
  5
32D3E
331
55AEE
  5
55AF9
331
55B53
  5
55B5E
331
55B06
  5
55B11
331
55AD1
  5
55ADC
331
55B36
  5
55B41
331
38617
  5
38A55
331
55B79
  5
55B84
331
5183F
  5
B5AD
331
55BA9
  5
55BB6
331
55B64
  5
55B6F
331
31B3D
  5
3273E
331
55AE2
  5
55AED
331
55B8C
  5
55B97
331
55B47
  5
55B52
331
3860D
  5
38631
331
55AC5
  5
55AD0
331
55B77
  5
55B82
331
55B2A
  5
55B35
331
55B5A
  5
55B65
331
55B0D
  5
55B18
331
55AD8
  5
55AE3
331
4E0F3
  5
4E1DE
331
55B9D
  5
55BA9
331
55B3D
  5
55B48
331
31B31
  5
32739
331
55B80
  5
55B8B
331
55BB0
  5
55EC6
331
55B6B
  5
55B76
331
55B93
  5
55B9E
331
55B4E
  5
55B59
331
55B01
  5
55B0C
331
55ACC
  5
55AD7
331
55B31
  5
55B3C
331
38612
  5
38636
331
55B14
  5
55B1F
331
34535
  5
3454D
331
55BA4
  5
55BB0
331
55B87
  5
55B92
331
55B42
  5
55B4D
331
38608
  5
3862C
331
55AC0
  5
55ACB
331
55B25
  5
55B30
331
5184B
  5
B8D6
331
55B55
  5
55B60
331
55B08
  5
55B13
331
55AD3
  5
55ADE
331
55B98
  5
55BA3
331
55B38
  5
55B43
331
38619
  5
38A57
331
55B7B
  5
55B86
331
55B1B
  5
55B26
331
51841
  5
B5E2
331
55BAB
  5
55BB8
331
55B66
  5
55B71
331
55AE4
  5
55AEF
331
55B8E
  5
55B99
331
55B49
  5
55B54
331
3860F
  5
38633
331
55AC7
  5
55AD2
331
55B2C
  5
55B37
331
55B5C
  5
55B67
331
55B0F
  5
55B1A
331
55ADA
  5
55AE5
331
4E0F5
  5
4E1E0
331
55B9F
  5
55BAB
331
55B3F
  5
55B4A
331
31B33
  5
3273B
331
55ABD
  5
55AC8
331
55B82
  5
55B8D
331
38603
  5
38627
331
55B6D
  5
55B78
331
55B20
  5
55B2B
331
32D1E
  5
32D3B
331
55AEB
  5
55AF6
331
55B95
  5
55BA0
331
55B03
  5
55B0E
331
55ACE
  5
55AD9
331
4E0E9
  5
4E1D4
331
55B33
  5
55B3E
331
38614
  5
38638
331
55B16
  5
55B21
331
55B61
  5
55B6C
331
55B89
  5
55B94
331
3860A
  5
3862E
331
55B27
  5
55B32
331
55AF2
  5
55AFD
331
5184D
  5
B8D8
331
55B57
  5
55B62
331
55AD5
  5
55AE0
331
55B9A
  5
55BA5
331
55B3A
  5
55B45
331
55AB8
  5
55AC3
331
55B7D
  5
55B88
331
55B1D
  5
55B28
331
55BAD
  5
55BBA
331
55B68
  5
55B73
331
55AE6
  5
55AF1
331
55B90
  5
55B9B
331
55AC9
  5
55AD4
331
55B2E
  5
55B39
331
55B5E
  5
55B69
331
55ADC
  5
55AE7
331
55BA1
  5
55BAD
331
55ABF
  5
55ACA
331
55B84
  5
55B8F
331
38605
  5
38629
331
55BB4
  5
55EC8
331
55B6F
  5
55B7A
331
55B22
  5
55B2D
331
55AED
  5
55AF8
331
55B97
  5
55BA2
331
55B52
  5
55B5D
331
55B05
  5
55B10
331
55AD0
  5
55ADB
331
4E0EB
  5
4E1D6
331
55B35
  5
55B40
331
38616
  5
38A46
331
55B78
  5
55B83
331
55BA8
  5
55BB5
331
55B63
  5
55B6E
331
31B3C
  5
3273D
331
55AE1
  5
55AEC
331
55B8B
  5
55B96
331
55B46
  5
55B51
331
3860C
  5
38630
331
55AC4
  5
55ACF
331
55B76
  5
55B81
331
55B29
  5
55B34
331
55AF4
  5
55AFF
331
55B59
  5
55B64
331
55AD7
  5
55AE2
331
55B9C
  5
55BA8
331
55B3C
  5
55B47
331
31B30
  5
32738
331
55ABA
  5
55AC5
331
55B7F
  5
55B8A
331
55B1F
  5
55B2A
331
55BAF
  5
55EC5
331
55B6A
  5
55B75
331
55AE8
  5
55AF3
331
55B92
  5
55B9D
331
55B4D
  5
55B58
331
55ACB
  5
55AD6
331
55B30
  5
55B3B
331
38611
  5
38635
331
55B13
  5
55B1E
331
34534
  5
3454C
331
55ADE
  5
55AE9
331
55BA3
  5
55BAF
331
55B86
  5
55B91
331
55B41
  5
55B4C
331
38607
  5
3862B
331
55BB6
  5
55ECA
331
55B71
  5
55B7C
331
55B24
  5
55B2F
331
55AEF
  5
55AFA
331
5184A
  5
B8D5
331
55B54
  5
55B5F
331
55AD2
  5
55ADD
331
55B37
  5
55B42
331
38618
  5
38A56
331
55B7A
  5
55B85
  0
XRECORD
  5
5B2AB
102
{ACAD_REACTORS
330
5B2AA
102
}
330
5B2AA
100
AcDbXrecord
280
     1
 70
     1
  0
LAYOUT
  5
22
102
{ACAD_XDICTIONARY
360
5B2AE
102
}
102
{ACAD_REACTORS
330
1A
102
}
330
1A
100
AcDbPlotSettings
  1

  2
FX DocuWide 2050/2051
  4
A3
  6
AM_VIEW1
 40
3.174999952316284
 41
3.174999952316284
 42
3.17498779296875
 43
3.17498779296875
 44
296.989501953125
 45
419.9889831542968
 46
0.0
 47
1.295841228961961
 48
214.3704939521119
 49
367.5855324241176
140
275.6727856380065
141
407.629191407817
142
1.0
143
0.7225445603030646
 70
  3764
 72
     1
 73
     1
 74
     2
  7
monochrome.ctb
 75
     0
147
1.383997686703999
148
-1700.85588156276
149
-1647.985052086429
100
AcDbLayout
  1
Model
 70
     1
 71
     0
 10
0.0
 20
0.0
 11
12.0
 21
9.0
 12
0.0
 22
0.0
 32
0.0
 14
0.0
 24
0.0
 34
0.0
 15
0.0
 25
0.0
 35
0.0
146
0.0
 13
0.0
 23
0.0
 33
0.0
 16
1.0
 26
0.0
 36
0.0
 17
0.0
 27
1.0
 37
0.0
 76
     0
330
1F
331
B0EC
1001
ACAD_PSEXT
1000
FX DocuWide 2050/2051
1000
FX DocuWide 2050/2051
1000
IP_192.200.15.252
1000

1070
     0
  0
LAYOUT
  5
1E
102
{ACAD_XDICTIONARY
360
5B2AC
102
}
102
{ACAD_REACTORS
330
1A
102
}
330
1A
100
AcDbPlotSettings
  1

  2
\\ML370\XEROX
  4
A4
  6

 40
3.174999952316284
 41
3.174999952316284
 42
3.175003051757812
 43
3.17498779296875
 44
209.8674926757813
 45
296.6719970703125
 46
0.0
 47
0.0
 48
0.0
 49
0.0
140
0.0
141
0.0
142
1.0
143
1.0
 70
   688
 72
     1
 73
     1
 74
     5
  7
monochrome.ctb
 75
    16
147
1.0
148
0.0
149
0.0
100
AcDbLayout
  1
ﾚｲｱｳﾄ1
 70
     1
 71
     1
 10
-3.17498779296875
 20
-3.174999952316284
 11
293.4970092773438
 21
206.692492723465
 12
0.0
 22
0.0
 32
0.0
 14
1.000000000000000E+20
 24
1.000000000000000E+20
 34
1.000000000000000E+20
 15
-1.000000000000000E+20
 25
-1.000000000000000E+20
 35
-1.000000000000000E+20
146
0.0
 13
0.0
 23
0.0
 33
0.0
 16
1.0
 26
0.0
 36
0.0
 17
0.0
 27
1.0
 37
0.0
 76
     0
330
1B
  0
LAYOUT
  5
26
102
{ACAD_XDICTIONARY
360
5B2B0
102
}
102
{ACAD_REACTORS
330
1A
102
}
330
1A
100
AcDbPlotSettings
  1

  2
\\ML370\XEROX
  4

  6

 40
0.0
 41
0.0
 42
0.0
 43
0.0
 44
0.0
 45
0.0
 46
0.0
 47
0.0
 48
0.0
 49
0.0
140
0.0
141
0.0
142
1.0
143
1.0
 70
   688
 72
     0
 73
     0
 74
     5
  7
monochrome.ctb
 75
    16
147
1.0
148
0.0
149
0.0
100
AcDbLayout
  1
ﾚｲｱｳﾄ2
 70
     1
 71
     2
 10
0.0
 20
0.0
 11
12.0
 21
9.0
 12
0.0
 22
0.0
 32
0.0
 14
0.0
 24
0.0
 34
0.0
 15
0.0
 25
0.0
 35
0.0
146
0.0
 13
0.0
 23
0.0
 33
0.0
 16
1.0
 26
0.0
 36
0.0
 17
0.0
 27
1.0
 37
0.0
 76
     0
330
23
  0
MATERIAL
  5
B0EF
102
{ACAD_XDICTIONARY
360
5B2B6
102
}
102
{ACAD_REACTORS
330
A91C
102
}
330
A91C
100
AcDbMaterial
  1
ByBlock
  0
MATERIAL
  5
B0EE
102
{ACAD_XDICTIONARY
360
5B2B4
102
}
102
{ACAD_REACTORS
330
A91C
102
}
330
A91C
100
AcDbMaterial
  1
ByLayer
  0
MATERIAL
  5
B0F0
102
{ACAD_XDICTIONARY
360
5B2B8
102
}
102
{ACAD_REACTORS
330
A91C
102
}
330
A91C
100
AcDbMaterial
  1
Global
  0
MLINESTYLE
  5
18
102
{ACAD_REACTORS
330
17
102
}
330
17
100
AcDbMlineStyle
  2
STANDARD
 70
     0
  3

 62
   256
 51
90.0
 52
90.0
 71
     2
 49
0.5
 62
   256
  6
BYLAYER
 49
-0.5
 62
   256
  6
BYLAYER
  0
ACDBPLACEHOLDER
  5
F
102
{ACAD_REACTORS
330
E
102
}
330
E
  0
TABLESTYLE
  5
AABA
102
{ACAD_XDICTIONARY
360
5B2B2
102
}
102
{ACAD_REACTORS
330
AAB9
102
}
330
AAB9
100
AcDbTableStyle
  3
Standard
 70
     0
 71
     0
 40
1.5
 41
1.5
280
     0
281
     0
  7
STANDARD
140
4.5
170
     2
 62
     0
 63
     7
283
     0
274
    -2
284
     1
 64
     0
275
    -2
285
     1
 65
     0
276
    -2
286
     1
 66
     0
277
    -2
287
     1
 67
     0
278
    -2
288
     1
 68
     0
279
    -2
289
     1
 69
     0
  7
STANDARD
140
6.0
170
     5
 62
     0
 63
     7
283
     0
274
    -2
284
     1
 64
     0
275
    -2
285
     1
 65
     0
276
    -2
286
     1
 66
     0
277
    -2
287
     1
 67
     0
278
    -2
288
     1
 68
     0
279
    -2
289
     1
 69
     0
  7
STANDARD
140
4.5
170
     5
 62
     0
 63
     7
283
     0
274
    -2
284
     1
 64
     0
275
    -2
285
     1
 65
     0
276
    -2
286
     1
 66
     0
277
    -2
287
     1
 67
     0
278
    -2
288
     1
 68
     0
279
    -2
289
     1
 69
     0
  0
VISUALSTYLE
  5
B0F7
102
{ACAD_REACTORS
330
B0F1
102
}
330
B0F1
100
AcDbVisualStyle
  2
2dWireframe
 70
     4
 71
     0
 72
     2
 73
     0
 90
        0
 40
-0.6
 41
-30.0
 62
     5
 63
     7
 74
     1
 91
        4
 64
     7
 65
   257
 75
     1
175
     1
 42
1.0
 92
        0
 66
   257
 43
1.0
 76
     1
 77
     6
 78
     2
 67
     7
 79
     5
170
     0
171
     0
290
     0
174
     0
 93
        1
 44
0.0
173
     0
291
     0
 45
0.0
1001
ACAD
1000
AcDbSavedByObjectVersion
1070
     0
  0
VISUALSTYLE
  5
B0F9
102
{ACAD_REACTORS
330
B0F1
102
}
330
B0F1
100
AcDbVisualStyle
  2
3D Hidden
 70
     6
 71
     1
 72
     2
 73
     2
 90
        0
 40
-0.6
 41
-30.0
 62
     5
 63
     7
 74
     2
 91
        2
 64
     7
 65
   257
 75
     2
175
     1
 42
40.0
 92
        0
 66
   257
 43
1.0
 76
     1
 77
     6
 78
     2
 67
     7
 79
     3
170
     0
171
     0
290
     0
174
     0
 93
        1
 44
0.0
173
     0
291
     0
 45
0.0
1001
ACAD
1000
AcDbSavedByObjectVersion
1070
     0
  0
VISUALSTYLE
  5
B0F8
102
{ACAD_REACTORS
330
B0F1
102
}
330
B0F1
100
AcDbVisualStyle
  2
3dWireframe
 70
     5
 71
     0
 72
     2
 73
     0
 90
        0
 40
-0.6
 41
-30.0
 62
     5
 63
     7
 74
     1
 91
        4
 64
     7
 65
   257
 75
     1
175
     1
 42
1.0
 92
        0
 66
   257
 43
1.0
 76
     1
 77
     6
 78
     2
 67
     7
 79
     5
170
     0
171
     0
290
     0
174
     0
 93
        1
 44
0.0
173
     0
291
     0
 45
0.0
1001
ACAD
1000
AcDbSavedByObjectVersion
1070
     0
  0
VISUALSTYLE
  5
B0F6
102
{ACAD_REACTORS
330
B0F1
102
}
330
B0F1
100
AcDbVisualStyle
  2
Basic
 70
     7
 71
     1
 72
     0
 73
     1
 90
        0
 40
-0.6
 41
-30.0
 62
     5
 63
     7
 74
     0
 91
        4
 64
     7
 65
   257
 75
     1
175
     1
 42
1.0
 92
        8
 66
     7
 43
1.0
 76
     1
 77
     6
 78
     2
 67
     7
 79
     5
170
     0
171
     0
290
     0
174
     0
 93
        1
 44
0.0
173
     0
291
     1
 45
0.0
1001
ACAD
1000
AcDbSavedByObjectVersion
1070
     0
  0
VISUALSTYLE
  5
B0FD
102
{ACAD_REACTORS
330
B0F1
102
}
330
B0F1
100
AcDbVisualStyle
  2
Brighten
 70
    12
 71
     2
 72
     2
 73
     0
 90
        0
 40
-0.6
 41
-30.0
 62
     5
 63
     7
 74
     1
 91
        4
 64
     7
 65
   257
 75
     1
175
     1
 42
1.0
 92
        8
 66
     7
 43
1.0
 76
     1
 77
     6
 78
     2
 67
     7
 79
     5
170
     0
171
     0
290
     0
174
     0
 93
        1
 44
50.0
173
     0
291
     1
 45
0.0
1001
ACAD
1000
AcDbSavedByObjectVersion
1070
     0
  0
VISUALSTYLE
  5
B101
102
{ACAD_REACTORS
330
B0F1
102
}
330
B0F1
100
AcDbVisualStyle
  2
ColorChange
 70
    16
 71
     2
 72
     2
 73
     3
 90
        0
 40
-0.6
 41
-30.0
 62
     5
 63
     8
 74
     1
 91
        4
 64
     7
 65
   257
 75
     1
175
     1
 42
1.0
 92
        8
 66
     8
 43
1.0
 76
     1
 77
     6
 78
     2
 67
     7
 79
     5
170
     0
171
     0
290
     0
174
     0
 93
        1
 44
0.0
173
     0
291
     1
 45
0.0
1001
ACAD
1000
AcDbSavedByObjectVersion
1070
     0
  0
VISUALSTYLE
  5
B0FA
102
{ACAD_REACTORS
330
B0F1
102
}
330
B0F1
100
AcDbVisualStyle
  2
Conceptual
 70
     9
 71
     3
 72
     2
 73
     0
 90
        0
 40
-0.6
 41
-30.0
 62
     5
 63
     7
 74
     2
 91
        2
 64
     7
 65
   257
 75
     1
175
     1
 42
40.0
 92
        8
 66
     7
 43
1.0
 76
     1
 77
     6
 78
     2
 67
     7
 79
     3
170
     0
171
     0
290
     0
174
     0
 93
        1
 44
0.0
173
     0
291
     0
 45
0.0
1001
ACAD
1000
AcDbSavedByObjectVersion
1070
     0
  0
VISUALSTYLE
  5
B0FC
102
{ACAD_REACTORS
330
B0F1
102
}
330
B0F1
100
AcDbVisualStyle
  2
Dim
 70
    11
 71
     2
 72
     2
 73
     0
 90
        0
 40
-0.6
 41
-30.0
 62
     5
 63
     7
 74
     1
 91
        4
 64
     7
 65
   257
 75
     1
175
     1
 42
1.0
 92
        8
 66
     7
 43
1.0
 76
     1
 77
     6
 78
     2
 67
     7
 79
     5
170
     0
171
     0
290
     0
174
     0
 93
        1
 44
-50.0
173
     0
291
     1
 45
0.0
1001
ACAD
1000
AcDbSavedByObjectVersion
1070
     0
  0
VISUALSTYLE
  5
B100
102
{ACAD_REACTORS
330
B0F1
102
}
330
B0F1
100
AcDbVisualStyle
  2
Facepattern
 70
    15
 71
     2
 72
     2
 73
     0
 90
        0
 40
-0.6
 41
-30.0
 62
     5
 63
     7
 74
     1
 91
        4
 64
     7
 65
   257
 75
     1
175
     1
 42
1.0
 92
        8
 66
     7
 43
1.0
 76
     1
 77
     6
 78
     2
 67
     7
 79
     5
170
     0
171
     0
290
     0
174
     0
 93
        1
 44
0.0
173
     0
291
     1
 45
0.0
1001
ACAD
1000
AcDbSavedByObjectVersion
1070
     0
  0
VISUALSTYLE
  5
B0F2
102
{ACAD_REACTORS
330
B0F1
102
}
330
B0F1
100
AcDbVisualStyle
  2
Flat
 70
     0
 71
     2
 72
     1
 73
     1
 90
        2
 40
-0.6
 41
30.0
 62
     5
 63
     7
 74
     0
 91
        4
 64
     7
 65
   257
 75
     1
175
     1
 42
1.0
 92
        8
 66
     7
 43
1.0
 76
     1
 77
     6
 78
     2
 67
     7
 79
     5
170
     0
171
     0
290
     0
174
     0
 93
       13
 44
0.0
173
     0
291
     1
 45
0.0
1001
ACAD
1000
AcDbSavedByObjectVersion
1070
     0
  0
VISUALSTYLE
  5
B0F3
102
{ACAD_REACTORS
330
B0F1
102
}
330
B0F1
100
AcDbVisualStyle
  2
FlatWithEdges
 70
     1
 71
     2
 72
     1
 73
     1
 90
        2
 40
-0.6
 41
30.0
 62
     5
 63
     7
 74
     1
 91
        4
 64
     7
 65
   257
 75
     1
175
     1
 42
1.0
 92
        0
 66
   257
 43
1.0
 76
     1
 77
     6
 78
     2
 67
     7
 79
     5
170
     0
171
     0
290
     0
174
     0
 93
       13
 44
0.0
173
     0
291
     1
 45
0.0
1001
ACAD
1000
AcDbSavedByObjectVersion
1070
     0
  0
VISUALSTYLE
  5
B0F4
102
{ACAD_REACTORS
330
B0F1
102
}
330
B0F1
100
AcDbVisualStyle
  2
Gouraud
 70
     2
 71
     2
 72
     2
 73
     1
 90
        2
 40
-0.6
 41
30.0
 62
     5
 63
     7
 74
     0
 91
        4
 64
     7
 65
   257
 75
     1
175
     1
 42
1.0
 92
        0
 66
     7
 43
1.0
 76
     1
 77
     6
 78
     2
 67
     7
 79
     5
170
     0
171
     0
290
     0
174
     0
 93
       13
 44
0.0
173
     0
291
     1
 45
0.0
1001
ACAD
1000
AcDbSavedByObjectVersion
1070
     0
  0
VISUALSTYLE
  5
B0F5
102
{ACAD_REACTORS
330
B0F1
102
}
330
B0F1
100
AcDbVisualStyle
  2
GouraudWithEdges
 70
     3
 71
     2
 72
     2
 73
     1
 90
        2
 40
-0.6
 41
30.0
 62
     5
 63
     7
 74
     1
 91
        4
 64
     7
 65
   257
 75
     1
175
     1
 42
1.0
 92
        0
 66
   257
 43
1.0
 76
     1
 77
     6
 78
     2
 67
     7
 79
     5
170
     0
171
     0
290
     0
174
     0
 93
       13
 44
0.0
173
     0
291
     1
 45
0.0
1001
ACAD
1000
AcDbSavedByObjectVersion
1070
     0
  0
VISUALSTYLE
  5
B0FF
102
{ACAD_REACTORS
330
B0F1
102
}
330
B0F1
100
AcDbVisualStyle
  2
Linepattern
 70
    14
 71
     2
 72
     2
 73
     0
 90
        0
 40
-0.6
 41
-30.0
 62
     5
 63
     7
 74
     1
 91
        4
 64
     7
 65
   257
 75
     7
175
     7
 42
1.0
 92
        8
 66
     7
 43
1.0
 76
     1
 77
     6
 78
     2
 67
     7
 79
     5
170
     0
171
     0
290
     0
174
     0
 93
        1
 44
0.0
173
     0
291
     1
 45
0.0
1001
ACAD
1000
AcDbSavedByObjectVersion
1070
     0
  0
VISUALSTYLE
  5
B0FB
102
{ACAD_REACTORS
330
B0F1
102
}
330
B0F1
100
AcDbVisualStyle
  2
Realistic
 70
     8
 71
     2
 72
     2
 73
     0
 90
        0
 40
-0.6
 41
-30.0
 62
     5
 63
     7
 74
     1
 91
        0
 64
     7
 65
   257
 75
     1
175
     1
 42
1.0
 92
        8
 66
     8
 43
1.0
 76
     1
 77
     6
 78
     2
 67
     7
 79
     5
170
     0
171
     0
290
     0
174
     0
 93
       13
 44
0.0
173
     0
291
     0
 45
0.0
1001
ACAD
1000
AcDbSavedByObjectVersion
1070
     0
  0
VISUALSTYLE
  5
B0FE
102
{ACAD_REACTORS
330
B0F1
102
}
330
B0F1
100
AcDbVisualStyle
  2
Thicken
 70
    13
 71
     2
 72
     2
 73
     0
 90
        0
 40
-0.6
 41
-30.0
 62
     5
 63
     7
 74
     1
 91
        4
 64
     7
 65
   257
 75
     1
175
     1
 42
1.0
 92
       12
 66
     7
 43
1.0
 76
     1
 77
     6
 78
     2
 67
     7
 79
     5
170
     0
171
     0
290
     0
174
     0
 93
        1
 44
0.0
173
     0
291
     1
 45
0.0
1001
ACAD
1000
AcDbSavedByObjectVersion
1070
     0
  0
DICTIONARYVAR
  5
AAF3
102
{ACAD_REACTORS
330
34
102
}
330
34
100
DictionaryVariables
280
     0
  1
STANDARD
  0
DICTIONARYVAR
  5
A10C
102
{ACAD_REACTORS
330
34
102
}
330
34
100
DictionaryVariables
280
     0
  1
1
  0
DICTIONARYVAR
  5
AB07
102
{ACAD_REACTORS
330
34
102
}
330
34
100
DictionaryVariables
280
     0
  1
4
  0
DICTIONARYVAR
  5
35
102
{ACAD_REACTORS
330
34
102
}
330
34
100
DictionaryVariables
280
     0
  1
0
  0
DICTIONARYVAR
  5
194C
102
{ACAD_REACTORS
330
34
102
}
330
34
100
DictionaryVariables
280
     0
  1
127
  0
DICTIONARY
  5
7E8
102
{ACAD_REACTORS
330
47
102
}
330
47
100
AcDbDictionary
281
     1
  0
DICTIONARY
  5
4C
102
{ACAD_REACTORS
330
47
102
}
330
47
100
AcDbDictionary
281
     1
  0
XRECORD
  5
A929
102
{ACAD_REACTORS
330
47
102
}
330
47
100
AcDbXrecord
280
     1
 90
-1023410169
  0
XRECORD
  5
57913
102
{ACAD_REACTORS
330
57912
102
}
330
57912
100
AcDbXrecord
280
     1
330
0
330
0
330
0
330
0
330
0
330
0
330
0
330
0
330
0
330
0
330
0
330
0
330
0
330
0
330
0
330
0
330
0
330
0
330
0
330
0
330
0
330
0
330
0
330
0
330
0
330
0
330
0
330
0
330
0
330
0
330
0
330
0
330
0
330
0
330
0
330
0
330
0
330
0
330
0
330
0
330
0
330
0
330
0
330
0
330
0
330
0
330
0
330
0
330
0
330
0
330
0
330
0
330
0
330
0
330
0
330
0
330
0
330
0
330
0
330
0
330
0
330
0
330
0
330
0
330
0
330
0
330
0
330
0
330
0
330
0
330
0
330
0
330
0
330
0
330
0
330
0
330
0
330
0
330
0
330
0
330
0
330
0
330
0
330
0
330
0
330
0
330
0
330
0
330
0
330
0
330
0
330
0
330
0
330
0
330
0
330
0
330
0
330
0
330
0
330
0
330
0
330
0
330
0
330
0
330
0
330
0
330
0
330
0
330
0
330
0
330
0
330
0
330
0
330
0
330
0
330
0
330
0
330
0
330
0
330
0
330
0
330
0
330
0
330
0
330
0
330
0
330
0
330
0
330
0
330
0
330
0
330
0
330
0
330
0
330
0
330
0
330
0
330
0
330
0
330
0
330
0
330
0
330
0
330
0
330
0
330
0
330
0
330
0
330
0
330
0
330
0
330
0
330
0
330
0
330
0
330
0
330
0
330
0
330
0
330
0
330
0
330
0
330
0
330
0
330
0
330
0
330
0
330
0
330
0
330
0
330
0
330
0
330
0
330
0
330
0
330
0
330
0
330
0
330
0
330
0
330
0
330
0
330
0
330
0
330
0
330
0
330
0
330
0
330
0
330
0
330
0
330
0
330
0
330
0
330
0
330
0
330
0
330
0
330
0
330
0
330
0
330
0
330
0
330
0
330
0
330
0
330
0
330
0
330
0
330
0
330
0
330
0
330
0
330
0
330
0
330
0
330
0
330
0
330
0
330
0
330
0
330
0
330
0
330
0
330
0
330
0
330
0
330
0
330
0
330
0
330
0
330
0
330
0
330
0
330
0
330
0
330
0
330
0
330
0
330
0
330
0
330
0
330
0
330
0
330
0
330
0
330
0
330
0
330
0
330
0
330
0
330
0
330
0
330
0
330
0
330
0
330
0
330
0
330
0
330
0
330
0
330
0
330
0
330
0
330
0
330
0
330
0
330
0
330
0
330
0
330
0
330
0
330
0
330
0
330
0
330
0
330
0
330
0
330
0
330
0
330
0
330
0
330
0
330
0
330
0
330
0
330
0
330
0
330
0
330
0
330
0
330
0
330
0
330
0
330
0
330
0
330
0
330
0
330
0
330
0
330
0
330
0
330
0
330
0
330
0
330
0
330
0
330
0
330
0
330
0
330
0
330
0
330
0
330
0
330
0
330
0
330
0
330
0
330
0
330
0
330
0
330
0
330
0
330
0
330
0
330
0
330
0
330
0
330
0
330
0
330
0
330
0
330
0
330
0
330
0
330
0
330
0
330
0
330
0
330
0
330
0
330
0
330
0
330
0
330
0
330
0
330
0
330
0
330
0
330
0
330
0
330
0
330
0
330
0
330
0
330
0
330
0
330
0
330
0
330
0
330
0
330
0
330
0
330
0
330
0
330
0
330
0
330
0
330
0
330
0
330
0
330
0
330
0
330
0
330
0
330
0
330
0
330
0
330
0
330
0
330
0
330
0
330
0
330
0
330
0
330
0
330
0
330
0
330
0
330
0
330
0
330
0
330
0
330
0
330
0
330
0
330
0
330
0
330
0
330
0
330
0
330
0
330
0
330
0
330
0
330
0
330
0
330
0
330
0
330
0
330
0
330
0
330
0
330
0
330
0
330
0
330
0
330
0
330
0
330
0
330
0
330
0
330
0
330
0
330
0
330
0
330
0
330
0
330
0
330
0
330
0
330
0
330
0
330
0
330
0
330
0
330
0
330
0
330
0
330
0
330
0
330
0
330
0
330
0
330
0
330
0
330
0
330
0
330
0
330
0
330
0
330
0
330
0
330
0
330
0
330
0
330
0
330
0
330
0
330
0
330
0
330
0
330
0
330
0
330
0
330
0
330
0
330
0
330
0
330
0
330
0
330
0
330
0
330
0
330
0
330
0
330
0
330
0
330
0
330
0
330
0
330
0
330
0
330
0
330
0
330
0
330
0
330
0
330
0
330
0
330
0
330
0
330
0
330
0
330
0
330
0
330
0
330
0
330
0
330
0
330
0
330
0
330
0
330
0
330
0
330
0
330
0
330
0
330
0
330
0
330
0
330
0
330
0
330
0
330
0
330
0
330
0
330
0
330
0
330
0
330
0
330
0
330
0
330
0
330
0
330
0
330
0
330
0
330
0
330
0
330
0
330
0
330
0
330
0
330
0
330
0
330
0
330
0
330
0
330
0
330
0
330
0
330
0
330
0
330
0
330
0
330
0
330
0
330
0
330
0
330
0
330
0
330
0
330
0
330
0
330
0
330
0
330
0
330
0
330
0
330
0
330
0
330
0
330
0
330
0
330
0
330
0
330
0
330
0
330
0
330
0
330
0
330
0
330
0
330
0
330
0
330
0
330
0
330
0
330
0
330
0
330
0
330
0
330
0
330
0
330
0
330
0
330
0
330
0
330
0
330
0
330
0
330
0
330
0
330
0
330
0
330
0
330
0
330
0
330
0
330
0
330
0
330
0
330
0
330
0
330
0
330
0
330
0
330
0
330
0
330
0
330
0
330
0
330
0
330
0
330
0
330
0
330
0
330
0
330
0
330
0
330
0
330
0
330
0
330
0
330
0
330
0
330
0
330
0
330
0
330
0
330
0
330
0
330
0
330
0
330
0
330
0
330
0
330
0
330
0
330
0
330
0
330
0
330
0
330
0
330
0
330
0
330
0
330
0
330
0
330
0
330
0
330
0
330
0
330
0
330
0
330
0
330
0
330
0
330
0
330
0
330
0
330
0
330
0
330
0
330
0
330
0
330
0
330
0
330
0
330
0
330
0
330
0
330
0
330
0
330
0
330
0
330
0
330
0
330
0
330
0
330
0
330
0
330
0
330
0
330
0
330
0
330
0
330
0
330
0
330
0
330
0
330
0
330
0
330
0
330
0
330
0
330
0
330
0
330
0
330
0
330
0
330
0
330
0
330
0
330
0
330
0
330
0
330
0
330
0
330
0
330
0
330
0
330
0
330
0
330
0
330
0
330
0
330
0
330
0
330
0
330
0
330
0
330
0
330
0
330
0
330
0
330
0
330
0
330
0
330
0
330
0
330
0
330
0
330
0
330
0
330
0
330
0
330
0
330
0
330
0
330
0
330
0
330
0
330
0
330
0
330
0
330
0
330
0
330
0
330
0
330
0
330
0
330
0
330
0
330
0
330
0
330
0
330
0
330
0
330
0
330
0
330
0
330
0
330
0
330
0
330
0
330
0
330
0
330
0
330
0
330
0
330
0
330
0
330
0
330
0
330
0
330
0
330
0
330
0
330
0
330
0
330
0
330
0
330
0
330
0
330
0
330
0
330
0
330
0
330
0
330
0
330
0
330
0
330
0
330
0
330
0
330
0
330
0
330
0
330
0
330
0
330
0
330
0
330
0
330
0
330
0
330
0
330
0
330
0
330
0
330
0
330
0
330
0
330
0
330
0
330
0
330
0
330
0
330
0
330
0
330
0
330
0
330
0
330
0
330
0
330
0
330
0
330
0
330
0
330
0
330
0
330
0
330
0
330
0
330
0
330
0
330
0
330
0
330
0
330
0
330
0
330
0
330
0
330
0
330
0
330
0
330
0
330
0
330
0
330
0
330
0
330
0
330
0
330
0
330
0
330
0
330
0
330
0
330
0
330
0
330
0
330
0
330
0
330
0
330
0
330
0
330
0
330
0
330
0
330
0
330
0
330
0
330
0
330
0
330
0
330
0
330
0
330
0
330
0
330
0
330
0
330
0
330
0
330
0
330
0
330
0
330
0
330
0
330
0
330
0
330
0
330
0
330
0
330
0
330
0
330
0
330
0
330
0
330
0
330
0
330
0
330
0
330
0
330
0
330
0
330
0
330
0
330
0
330
0
330
0
330
0
330
0
330
0
330
0
330
0
330
0
330
0
330
0
330
0
330
0
330
0
330
0
330
0
330
0
330
0
330
0
330
0
330
0
330
0
330
0
330
0
330
0
330
0
330
0
330
0
330
0
330
0
330
0
330
0
330
0
330
0
330
0
330
0
330
0
330
0
330
0
330
0
330
0
330
0
330
0
330
0
330
0
330
0
330
0
330
0
330
0
330
0
330
0
330
0
330
0
330
0
330
0
330
0
330
0
330
0
330
0
330
0
330
0
330
0
330
0
330
0
330
0
330
0
330
0
330
0
330
0
330
0
330
0
330
0
330
0
330
0
330
0
330
0
330
0
330
0
330
0
330
0
330
0
330
0
330
0
330
0
330
0
330
0
330
0
330
0
330
0
330
0
330
0
330
0
330
0
330
0
330
0
330
0
330
0
330
0
330
0
330
0
330
0
330
0
330
0
330
0
330
0
330
0
330
0
330
0
330
0
330
0
330
0
330
0
330
0
330
0
330
0
330
0
330
0
330
0
330
0
330
0
330
0
330
0
330
0
330
0
330
0
330
0
330
0
330
0
330
0
330
0
330
0
330
0
330
0
330
0
330
0
330
0
330
0
330
0
330
0
330
0
330
0
330
0
330
0
330
0
330
0
330
0
330
0
330
0
330
0
330
0
330
0
330
0
330
0
330
0
330
0
330
0
330
0
330
0
330
0
330
0
330
0
330
0
330
0
330
0
330
0
330
0
330
0
330
0
330
0
330
0
330
0
330
0
330
0
330
0
330
0
330
0
330
0
330
0
330
0
330
0
330
0
330
0
330
0
330
0
330
0
330
0
330
0
330
0
330
0
330
0
330
0
330
0
330
0
330
0
330
0
330
0
330
0
330
0
330
0
330
0
330
0
330
0
330
0
330
0
330
0
330
0
330
0
330
0
330
0
330
0
330
0
330
0
330
0
330
0
330
0
330
0
330
0
330
0
330
0
330
0
330
0
330
0
330
0
330
0
330
0
330
0
330
0
330
0
330
0
330
0
330
0
330
0
330
0
330
0
330
0
330
0
330
0
330
0
330
0
330
0
330
0
330
0
330
0
330
0
330
0
330
0
330
0
330
0
330
0
330
0
330
0
330
0
330
0
330
0
330
0
330
0
330
0
330
0
330
0
330
0
330
0
330
0
330
0
330
0
330
0
330
0
330
0
330
0
330
0
330
0
330
0
330
0
330
0
330
0
330
0
330
0
330
0
330
0
330
0
330
0
330
0
330
0
330
0
330
0
330
0
330
0
330
0
330
0
330
0
330
0
330
0
330
0
330
0
330
0
330
0
330
0
330
0
330
0
330
0
330
0
330
0
330
0
330
0
330
0
330
0
330
0
330
0
330
0
330
0
330
0
330
0
330
0
330
0
330
0
330
0
330
0
330
0
330
0
330
0
330
0
330
0
330
0
330
0
330
0
330
0
330
0
330
0
330
0
330
0
330
0
330
0
330
0
330
0
330
0
330
0
330
0
330
0
330
0
330
0
330
0
330
0
330
0
330
0
330
0
330
0
330
0
330
0
330
0
330
0
330
0
330
0
330
0
330
0
330
0
330
0
330
0
330
0
330
0
330
0
330
0
330
0
330
0
330
0
330
0
330
0
330
0
330
0
330
0
330
0
330
0
330
0
330
0
330
0
330
0
330
0
330
0
330
0
330
0
330
0
330
0
330
0
330
0
330
0
330
0
330
0
330
0
330
0
330
0
330
0
330
0
330
0
330
0
330
0
330
0
330
0
330
0
330
0
330
0
330
0
330
0
330
0
330
0
330
0
330
0
330
0
330
0
330
0
330
0
330
0
330
0
330
0
330
0
330
0
330
0
330
0
330
0
330
0
330
0
330
0
330
0
330
0
330
0
330
0
330
0
330
0
330
0
330
0
330
0
330
0
330
0
330
0
330
0
330
0
330
0
330
0
330
0
330
0
330
0
330
0
330
0
330
0
330
0
330
0
330
0
330
0
330
0
330
0
330
0
330
0
330
0
330
0
330
0
330
0
330
0
330
0
330
0
330
0
330
0
330
0
330
0
330
0
330
0
330
0
330
0
330
0
330
0
330
0
330
0
330
0
330
0
330
0
330
0
330
0
330
0
330
0
330
0
330
0
330
0
330
0
330
0
330
0
330
0
330
0
330
0
330
0
330
0
330
0
330
0
330
0
330
0
330
0
330
0
330
0
330
0
330
0
330
0
330
0
330
0
330
0
330
0
330
0
330
0
330
0
330
0
330
0
330
0
330
0
330
0
330
0
330
0
330
0
330
0
330
0
330
0
330
0
330
0
330
0
330
0
330
0
330
0
330
0
330
0
330
0
330
0
330
0
330
0
330
0
330
0
330
0
330
0
330
0
330
0
330
0
330
0
330
0
330
0
330
0
330
0
330
0
330
0
330
0
330
0
330
0
330
0
330
0
330
0
330
0
330
0
330
0
330
0
330
0
330
0
330
0
330
0
330
0
330
0
330
0
330
0
330
0
330
0
330
0
330
0
330
0
330
0
330
0
330
0
330
0
330
0
330
0
330
0
330
0
330
0
330
0
330
0
330
0
330
0
330
0
330
0
330
0
330
0
330
0
330
0
330
0
330
0
330
0
330
0
330
0
330
0
330
0
330
0
330
0
330
0
330
0
330
0
330
0
330
0
330
0
330
0
330
0
330
0
330
0
330
0
330
0
330
0
330
0
330
0
330
0
330
0
330
0
330
0
330
0
330
0
330
0
330
0
330
0
330
0
330
0
330
0
330
0
330
0
330
0
330
0
330
0
330
0
330
0
330
0
330
0
330
0
330
0
330
0
330
0
330
0
330
0
330
0
330
0
330
0
330
0
330
0
330
0
330
0
330
0
330
0
330
0
330
0
330
0
330
0
330
0
330
0
330
0
330
0
330
0
330
0
330
0
330
0
330
0
330
0
330
0
330
0
330
0
330
0
330
0
330
0
330
0
330
0
330
0
330
0
330
0
330
0
330
0
330
0
330
0
330
0
330
0
330
0
330
0
330
0
330
0
330
0
330
0
330
0
330
0
330
0
330
0
330
0
330
0
330
0
330
0
330
0
330
0
330
0
330
0
330
0
330
0
330
0
330
0
330
0
330
0
330
0
330
0
330
0
330
0
330
0
330
0
330
0
330
0
330
0
330
0
330
0
330
562C4
330
562C5
330
55DBC
330
55DBD
330
562EF
330
562F0
330
55D24
330
55D25
330
55D2D
330
55D2E
330
55D36
330
55D37
330
55D3F
330
55D40
330
55D48
330
55D49
330
55D51
330
55D52
330
55D5A
330
55D5B
330
55DE0
330
55DE1
330
0
330
0
330
5793E
330
5793F
330
55DF2
330
55DF3
330
55D90
330
55D91
330
55D99
330
55D9A
330
57947
330
57948
330
0
330
0
330
0
330
0
330
0
330
0
330
0
330
0
330
0
330
0
330
0
330
0
330
0
330
0
330
0
330
0
330
0
330
0
330
0
330
0
330
0
330
0
330
0
330
0
330
0
330
0
330
0
330
0
330
0
330
0
330
0
330
0
330
5632B
330
5632C
330
0
330
0
330
0
330
0
330
0
330
0
330
0
330
0
330
0
330
0
330
0
330
0
330
0
330
0
330
0
330
0
330
0
330
0
330
0
330
0
330
0
330
0
330
0
330
0
330
0
330
0
330
0
330
0
330
0
330
0
330
0
330
0
330
0
330
0
330
0
330
0
330
0
330
0
330
0
330
0
330
0
330
0
330
0
330
0
330
0
330
0
330
0
330
0
330
0
330
0
330
0
330
0
330
0
330
0
330
0
330
0
330
0
330
0
330
0
330
0
330
0
330
0
330
0
330
0
330
0
330
0
330
0
330
0
330
0
330
0
330
0
330
0
330
0
330
0
330
0
330
0
330
0
330
0
330
0
330
0
330
0
330
0
330
0
330
0
330
0
330
0
330
0
330
0
330
0
330
0
330
0
330
0
330
0
330
0
330
0
330
0
330
0
330
0
330
0
330
0
330
0
330
0
330
0
330
0
330
0
330
0
330
0
330
0
330
0
330
0
330
0
330
0
330
0
330
0
330
0
330
0
330
0
330
0
330
0
330
0
330
0
330
0
330
0
330
0
330
0
330
0
330
0
330
0
330
0
330
0
330
0
330
0
330
0
330
0
330
0
330
0
330
0
330
0
330
0
330
0
330
0
330
0
330
0
330
0
330
0
330
0
330
0
330
0
330
0
330
0
330
0
330
0
330
0
330
0
330
0
330
0
330
0
330
0
330
0
330
0
330
0
330
0
330
0
330
0
330
0
330
0
330
0
330
0
330
0
330
0
330
0
330
0
330
0
330
0
330
0
330
0
330
0
330
0
330
0
330
0
330
0
330
0
330
0
330
0
330
0
330
0
330
0
330
0
330
0
330
0
330
0
330
0
330
0
330
0
330
0
330
0
330
0
330
0
330
0
330
0
330
0
330
0
330
0
330
0
330
0
330
0
330
0
330
0
330
0
330
0
330
0
330
0
  0
XRECORD
  5
3FB7
102
{ACAD_REACTORS
330
3F96
102
}
330
3F96
100
AcDbXrecord
280
     1
 91
        3
330
0
 90
        8
 62
     7
370
    40
331
16
  1
Color_7
330
0
 90
        0
 62
    14
370
    -3
331
16
  1
Color_14
330
0
 90
        8
 62
     7
370
    20
331
16
  1
Color_7
330
6D1
 90
        0
 62
     7
370
    -3
331
16
  1
Color_7
330
0
 90
        8
 62
     7
370
    50
331
16
  1
Color_7
330
0
 90
        8
 62
     2
370
    35
331
16
  1
Color_2
330
0
 90
        8
 62
     7
370
    -3
331
16
  1
Color_7
330
10
 90
        8
 62
     7
370
    -3
331
16
  1
Color_7
  0
DICTIONARY
  5
5B2AE
330
22
100
AcDbDictionary
280
     1
281
     1
  3
ACAD_XREC_ROUNDTRIP
360
5B2AF
  0
DICTIONARY
  5
5B2AC
330
1E
100
AcDbDictionary
280
     1
281
     1
  3
ACAD_XREC_ROUNDTRIP
360
5B2AD
  0
DICTIONARY
  5
5B2B0
330
26
100
AcDbDictionary
280
     1
281
     1
  3
ACAD_XREC_ROUNDTRIP
360
5B2B1
  0
DICTIONARY
  5
5B2B6
330
B0EF
100
AcDbDictionary
280
     1
281
     1
  3
ACAD_XREC_ROUNDTRIP
360
5B2B7
  0
DICTIONARY
  5
5B2B4
330
B0EE
100
AcDbDictionary
280
     1
281
     1
  3
ACAD_XREC_ROUNDTRIP
360
5B2B5
  0
DICTIONARY
  5
5B2B8
330
B0F0
100
AcDbDictionary
280
     1
281
     1
  3
ACAD_XREC_ROUNDTRIP
360
5B2B9
  0
DICTIONARY
  5
5B2B2
330
AABA
100
AcDbDictionary
280
     1
281
     1
  3
ACAD_XREC_ROUNDTRIP
360
5B2B3
  0
XRECORD
  5
5B2AF
102
{ACAD_REACTORS
330
5B2AE
102
}
330
5B2AE
100
AcDbXrecord
280
     1
102
SHADEPLOT
 70
     0
102
SHADEPLOTRESLEVEL
 70
     2
102
SHADEPLOTCUSTOMDPI
 70
   200
  0
XRECORD
  5
5B2AD
102
{ACAD_REACTORS
330
5B2AC
102
}
330
5B2AC
100
AcDbXrecord
280
     1
102
SHADEPLOT
 70
     0
102
SHADEPLOTRESLEVEL
 70
     2
102
SHADEPLOTCUSTOMDPI
 70
   300
  0
XRECORD
  5
5B2B1
102
{ACAD_REACTORS
330
5B2B0
102
}
330
5B2B0
100
AcDbXrecord
280
     1
102
SHADEPLOT
 70
     0
102
SHADEPLOTRESLEVEL
 70
     2
102
SHADEPLOTCUSTOMDPI
 70
   300
  0
XRECORD
  5
5B2B7
102
{ACAD_REACTORS
330
5B2B6
102
}
330
5B2B6
100
AcDbXrecord
280
     1
102
MATERIAL
148
0.0
149
0.0
149
0.0
 93
        0
 94
       63
282
     0
 72
     1
 77
     1
171
     1
175
     1
179
     1
273
     0
  0
XRECORD
  5
5B2B5
102
{ACAD_REACTORS
330
5B2B4
102
}
330
5B2B4
100
AcDbXrecord
280
     1
102
MATERIAL
148
0.0
149
0.0
149
0.0
 93
        0
 94
       63
282
     0
 72
     1
 77
     1
171
     1
175
     1
179
     1
273
     0
  0
XRECORD
  5
5B2B9
102
{ACAD_REACTORS
330
5B2B8
102
}
330
5B2B8
100
AcDbXrecord
280
     1
102
MATERIAL
148
0.0
149
0.0
149
0.0
 93
        0
 94
       63
282
     0
 72
     1
 77
     1
171
     1
175
     1
179
     1
273
     0
  0
XRECORD
  5
5B2B3
102
{ACAD_REACTORS
330
5B2B2
102
}
330
5B2B2
100
AcDbXrecord
280
     1
102
ACAD_ROUNDTRIP_PRE2007_TABLESTYLE
 90
        4
 91
        0
  1

 92
        4
 93
        0
  2

 94
        4
 95
        0
  3

  0
ENDSEC
  0
EOF
