  0
SECTION
  2
HEADER
  9
$ACADVER
  1
AC1015
  9
$ACADMAINTVER
 70
    20
  9
$DWGCODEPAGE
  3
ANSI_932
  9
$INSBASE
 10
0.0
 20
0.0
 30
0.0
  9
$EXTMIN
 10
6074.92467570105
 20
-1714.836657042883
 30
0.0
  9
$EXTMAX
 10
6371.924675701051
 20
-1504.836657042882
 30
0.0
  9
$LIMMIN
 10
3779.599158088851
 20
100.7134268036752
  9
$LIMMAX
 10
9719.599158088852
 20
4300.713426803675
  9
$ORTHOMODE
 70
     0
  9
$REGENMODE
 70
     1
  9
$FILLMODE
 70
     1
  9
$QTEXTMODE
 70
     0
  9
$MIRRTEXT
 70
     0
  9
$LTSCALE
 40
1.0
  9
$ATTMODE
 70
     1
  9
$TEXTSIZE
 40
3.2
  9
$TRACEWID
 40
1.0
  9
$TEXTSTYLE
  7
STANDARD
  9
$CLAYER
  8
0部品18
  9
$CELTYPE
  6
ByLayer
  9
$CECOLOR
 62
   256
  9
$CELTSCALE
 40
1.0
  9
$DISPSILH
 70
     0
  9
$DIMSCALE
 40
1.0
  9
$DIMASZ
 40
1.0
  9
$DIMEXO
 40
1.0
  9
$DIMDLI
 40
10.0
  9
$DIMRND
 40
0.0
  9
$DIMDLE
 40
0.0
  9
$DIMEXE
 40
1.0
  9
$DIMTP
 40
0.1
  9
$DIMTM
 40
0.1
  9
$DIMTXT
 40
3.5
  9
$DIMCEN
 40
0.0
  9
$DIMTSZ
 40
0.0
  9
$DIMTOL
 70
     0
  9
$DIMLIM
 70
     0
  9
$DIMTIH
 70
     0
  9
$DIMTOH
 70
     0
  9
$DIMSE1
 70
     0
  9
$DIMSE2
 70
     0
  9
$DIMTAD
 70
     1
  9
$DIMZIN
 70
     8
  9
$DIMBLK
  1

  9
$DIMASO
 70
     1
  9
$DIMSHO
 70
     1
  9
$DIMPOST
  1

  9
$DIMAPOST
  1
"
  9
$DIMALT
 70
     0
  9
$DIMALTD
 70
     2
  9
$DIMALTF
 40
0.0393701
  9
$DIMLFAC
 40
1.0
  9
$DIMTOFL
 70
     1
  9
$DIMTVP
 40
0.0
  9
$DIMTIX
 70
     0
  9
$DIMSOXD
 70
     0
  9
$DIMSAH
 70
     0
  9
$DIMBLK1
  1

  9
$DIMBLK2
  1

  9
$DIMSTYLE
  2
SYS
  9
$DIMCLRD
 70
   256
  9
$DIMCLRE
 70
   256
  9
$DIMCLRT
 70
     7
  9
$DIMTFAC
 40
0.71
  9
$DIMGAP
 40
1.5
  9
$DIMJUST
 70
     0
  9
$DIMSD1
 70
     0
  9
$DIMSD2
 70
     0
  9
$DIMTOLJ
 70
     0
  9
$DIMTZIN
 70
     8
  9
$DIMALTZ
 70
     0
  9
$DIMALTTZ
 70
     0
  9
$DIMUPT
 70
     0
  9
$DIMDEC
 70
     2
  9
$DIMTDEC
 70
     2
  9
$DIMALTU
 70
     2
  9
$DIMALTTD
 70
     2
  9
$DIMTXSTY
  7
STANDARD
  9
$DIMAUNIT
 70
     0
  9
$DIMADEC
 70
     0
  9
$DIMALTRND
 40
0.0
  9
$DIMAZIN
 70
     2
  9
$DIMDSEP
 70
    46
  9
$DIMATFIT
 70
     3
  9
$DIMFRAC
 70
     0
  9
$DIMLDRBLK
  1

  9
$DIMLUNIT
 70
     2
  9
$DIMLWD
 70
    -1
  9
$DIMLWE
 70
    -1
  9
$DIMTMOVE
 70
     0
  9
$LUNITS
 70
     2
  9
$LUPREC
 70
     2
  9
$SKETCHINC
 40
1.0
  9
$FILLETRAD
 40
2.0
  9
$AUNITS
 70
     0
  9
$AUPREC
 70
     0
  9
$MENU
  1
.
  9
$ELEVATION
 40
0.0
  9
$PELEVATION
 40
0.0
  9
$THICKNESS
 40
0.0
  9
$LIMCHECK
 70
     0
  9
$CHAMFERA
 40
0.0
  9
$CHAMFERB
 40
0.0
  9
$CHAMFERC
 40
20.0
  9
$CHAMFERD
 40
0.0
  9
$SKPOLY
 70
     0
  9
$TDCREATE
 40
2455567.680725081
  9
$TDUCREATE
 40
2455567.305725081
  9
$TDUPDATE
 40
2456343.632169595
  9
$TDUUPDATE
 40
2456343.257169595
  9
$TDINDWG
 40
8.3857112269
  9
$TDUSRTIMER
 40
8.3857095949
  9
$USRTIMER
 70
     1
  9
$ANGBASE
 50
0.0
  9
$ANGDIR
 70
     0
  9
$PDMODE
 70
     0
  9
$PDSIZE
 40
-3.0
  9
$PLINEWID
 40
0.0
  9
$SPLFRAME
 70
     0
  9
$SPLINETYPE
 70
     6
  9
$SPLINESEGS
 70
     8
  9
$HANDSEED
  5
5B741
  9
$SURFTAB1
 70
     6
  9
$SURFTAB2
 70
     6
  9
$SURFTYPE
 70
     6
  9
$SURFU
 70
     6
  9
$SURFV
 70
     6
  9
$UCSBASE
  2

  9
$UCSNAME
  2

  9
$UCSORG
 10
0.0
 20
0.0
 30
0.0
  9
$UCSXDIR
 10
1.0
 20
0.0
 30
0.0
  9
$UCSYDIR
 10
0.0
 20
1.0
 30
0.0
  9
$UCSORTHOREF
  2

  9
$UCSORTHOVIEW
 70
     0
  9
$UCSORGTOP
 10
0.0
 20
0.0
 30
0.0
  9
$UCSORGBOTTOM
 10
0.0
 20
0.0
 30
0.0
  9
$UCSORGLEFT
 10
0.0
 20
0.0
 30
0.0
  9
$UCSORGRIGHT
 10
0.0
 20
0.0
 30
0.0
  9
$UCSORGFRONT
 10
0.0
 20
0.0
 30
0.0
  9
$UCSORGBACK
 10
0.0
 20
0.0
 30
0.0
  9
$PUCSBASE
  2

  9
$PUCSNAME
  2

  9
$PUCSORG
 10
0.0
 20
0.0
 30
0.0
  9
$PUCSXDIR
 10
1.0
 20
0.0
 30
0.0
  9
$PUCSYDIR
 10
0.0
 20
1.0
 30
0.0
  9
$PUCSORTHOREF
  2

  9
$PUCSORTHOVIEW
 70
     0
  9
$PUCSORGTOP
 10
0.0
 20
0.0
 30
0.0
  9
$PUCSORGBOTTOM
 10
0.0
 20
0.0
 30
0.0
  9
$PUCSORGLEFT
 10
0.0
 20
0.0
 30
0.0
  9
$PUCSORGRIGHT
 10
0.0
 20
0.0
 30
0.0
  9
$PUCSORGFRONT
 10
0.0
 20
0.0
 30
0.0
  9
$PUCSORGBACK
 10
0.0
 20
0.0
 30
0.0
  9
$USERI1
 70
     0
  9
$USERI2
 70
     0
  9
$USERI3
 70
     0
  9
$USERI4
 70
     0
  9
$USERI5
 70
     0
  9
$USERR1
 40
0.0
  9
$USERR2
 40
0.0
  9
$USERR3
 40
0.0
  9
$USERR4
 40
0.0
  9
$USERR5
 40
0.0
  9
$WORLDVIEW
 70
     1
  9
$SHADEDGE
 70
     3
  9
$SHADEDIF
 70
    70
  9
$TILEMODE
 70
     1
  9
$MAXACTVP
 70
    64
  9
$PINSBASE
 10
0.0
 20
0.0
 30
0.0
  9
$PLIMCHECK
 70
     0
  9
$PEXTMIN
 10
1.000000000000000E+20
 20
1.000000000000000E+20
 30
1.000000000000000E+20
  9
$PEXTMAX
 10
-1.000000000000000E+20
 20
-1.000000000000000E+20
 30
-1.000000000000000E+20
  9
$PLIMMIN
 10
-3.17498779296875
 20
-3.174999952316284
  9
$PLIMMAX
 10
293.4970092773438
 20
206.692492723465
  9
$UNITMODE
 70
     0
  9
$VISRETAIN
 70
     1
  9
$PLINEGEN
 70
     0
  9
$PSLTSCALE
 70
     1
  9
$TREEDEPTH
 70
  3020
  9
$CMLSTYLE
  2
Standard
  9
$CMLJUST
 70
     0
  9
$CMLSCALE
 40
20.0
  9
$PROXYGRAPHICS
 70
     1
  9
$MEASUREMENT
 70
     1
  9
$CELWEIGHT
370
    -1
  9
$ENDCAPS
280
     0
  9
$JOINSTYLE
280
     0
  9
$LWDISPLAY
290
     1
  9
$INSUNITS
 70
     4
  9
$HYPERLINKBASE
  1

  9
$STYLESHEET
  1
monochrome.ctb
  9
$XEDIT
290
     1
  9
$CEPSNTYPE
380
     0
  9
$PSTYLEMODE
290
     1
  9
$FINGERPRINTGUID
  2
{487E49EE-344A-43F6-800E-CE119D8346FF}
  9
$VERSIONGUID
  2
{0928AEDD-6723-4142-B137-EFFCB02CF129}
  9
$EXTNAMES
290
     1
  9
$PSVPSCALE
 40
0.0
  9
$OLESTARTUP
290
     0
  0
ENDSEC
  0
SECTION
  2
CLASSES
  0
CLASS
  1
ACDBDICTIONARYWDFLT
  2
AcDbDictionaryWithDefault
  3
ObjectDBX Classes
 90
        0
280
     0
281
     0
  0
CLASS
  1
ACDBPLACEHOLDER
  2
AcDbPlaceHolder
  3
ObjectDBX Classes
 90
        0
280
     0
281
     0
  0
CLASS
  1
LAYOUT
  2
AcDbLayout
  3
ObjectDBX Classes
 90
        0
280
     0
281
     0
  0
CLASS
  1
AMGSETTINGSOBJ
  2
AmgSettingsObj
  3
"AcadM|Product Description: AutoCAD Mechanical|Company: Autodesk"
 90
        0
280
     0
281
     0
  0
CLASS
  1
ACME_DOCUMENT
  2
AcMeDbDoc
  3
AcMeServices
 90
        0
280
     0
281
     0
  0
CLASS
  1
ACMESCOPE
  2
AcMeScope
  3
AcMeServices
 90
        0
280
     0
281
     0
  0
CLASS
  1
ACMECOMMANDHISTORY
  2
AcMeCommandHistory
  3
AcMeServices
 90
        0
280
     0
281
     0
  0
CLASS
  1
DICTIONARYVAR
  2
AcDbDictionaryVar
  3
ObjectDBX Classes
 90
        0
280
     0
281
     0
  0
CLASS
  1
ACIMSYSVARMAN
  2
AcImSysVarManager
  3
AcMeServices
 90
        0
280
     0
281
     0
  0
CLASS
  1
ACIMREALSYSVAR
  2
AcImRealSysVar
  3
AcMeServices
 90
        0
280
     0
281
     0
  0
CLASS
  1
ACIMINTSYSVAR
  2
AcImIntSysVar
  3
AcMeServices
 90
        0
280
     0
281
     0
  0
CLASS
  1
ACMEDRAWINGMAN
  2
AcMeDrawingMan
  3
AcMeServices
 90
        0
280
     0
281
     0
  0
CLASS
  1
ACMEVIEW
  2
AcMeView
  3
AcMeServices
 90
        0
280
     0
281
     0
  0
CLASS
  1
ACDBENTITYCACHE
  2
AcMeEntityCache
  3
AcMeServices
 90
        0
280
     0
281
     0
  0
CLASS
  1
GSMANAGER
  2
AcMeGSManager
  3
AcMeServices
 90
        0
280
     0
281
     0
  0
CLASS
  1
AMDTINTERNALREACTOR
  2
AmdtInternalReactor
  3
AcMeServices
 90
        0
280
     0
281
     0
  0
CLASS
  1
ACMESTATEMGR
  2
AcMeStateMgr
  3
AcMeServices
 90
        0
280
     0
281
     0
  0
CLASS
  1
ACGREFMASTER
  2
AcGrefMaster
  3
AcAttribServices
 90
        0
280
     0
281
     0
  0
CLASS
  1
ACME_DATABASE
  2
AcMeDbDatabase
  3
AcMeServices
 90
        0
280
     0
281
     0
  0
CLASS
  1
ACRFINSADJUSTERMGR
  2
AcRfInsAdjusterMgr
  3
AcMeServices
 90
        0
280
     0
281
     0
  0
CLASS
  1
ACGREFACADMASTER
  2
AcGrefacadMaster
  3
AcGrefServices
 90
        0
280
     0
281
     0
  0
CLASS
  1
AMIMASTER
  2
AmiMaster
  3
AmiServices
 90
        0
280
     0
281
     0
  0
CLASS
  1
ACMDATADICTIONARY
  2
AcmDataDictionary
  3
"AcmSymBB|Product Description: AutoCAD Mechanical|Company: Autodesk"
 90
        0
280
     0
281
     0
  0
CLASS
  1
ACMDATAENTRYBLOCK
  2
AcmDataEntryBlock
  3
"AcmSymBB|Product Description: AutoCAD Mechanical|Company: Autodesk"
 90
        0
280
     0
281
     0
  0
CLASS
  1
ACIMSTRSYSVAR
  2
AcImStrSysVar
  3
AcMeServices
 90
        0
280
     0
281
     0
  0
CLASS
  1
ACMSTANDARDISO
  2
AcmStandardISO
  3
"Amdt_StdImp|Product Description: AutoCAD Mechanical|Company: Autodesk"
 90
        0
280
     0
281
     0
  0
CLASS
  1
AMGOBJPROPCFG
  2
AmgObjPropCfg
  3
"AmgLay|Product Description: AutoCAD Mechanical|Company: Autodesk"
 90
        1
280
     0
281
     0
  0
CLASS
  1
AMDTEDGESTANDARDISO
  2
AmdtEdgeStdISO
  3
"Amdt_StdImp|Product Description: AutoCAD Mechanical|Company: Autodesk"
 90
        0
280
     0
281
     0
  0
CLASS
  1
ACMSURFSTANDARDISO
  2
AcmSurfTextStdISO
  3
"Amdt_StdImp|Product Description: AutoCAD Mechanical|Company: Autodesk"
 90
        0
280
     0
281
     0
  0
CLASS
  1
ACMFCFSTANDARDISO
  2
AcmFCFStdISO
  3
"Amdt_StdImp|Product Description: AutoCAD Mechanical|Company: Autodesk"
 90
        0
280
     0
281
     0
  0
CLASS
  1
ACMWELDSTANDARDISO
  2
AcmWeldingStdISO
  3
"Amdt_StdImp|Product Description: AutoCAD Mechanical|Company: Autodesk"
 90
        0
280
     0
281
     0
  0
CLASS
  1
ACMIDSTANDARDISO
  2
AcmIdStdISO
  3
"Amdt_StdImp|Product Description: AutoCAD Mechanical|Company: Autodesk"
 90
        0
280
     0
281
     0
  0
CLASS
  1
ACMDATUMSTANDARDISO
  2
AcmDatumStdISO
  3
"Amdt_StdImp|Product Description: AutoCAD Mechanical|Company: Autodesk"
 90
        0
280
     0
281
     0
  0
CLASS
  1
ACMBOMSTANDARDISO
  2
AcmBOMStdISO
  3
"Amdt_StdImp|Product Description: AutoCAD Mechanical|Company: Autodesk"
 90
        0
280
     0
281
     0
  0
CLASS
  1
ACMDETAILSTANDARDISO
  2
AmdtDetailSymStdISO
  3
"Amdt_StdImp|Product Description: AutoCAD Mechanical|Company: Autodesk"
 90
        0
280
     0
281
     0
  0
CLASS
  1
ACMSECTIONSTANDARDISO
  2
AmdtSectionSymStdISO
  3
"Amdt_StdImp|Product Description: AutoCAD Mechanical|Company: Autodesk"
 90
        0
280
     0
281
     0
  0
CLASS
  1
ACMCENTERLINESTANDARDISO
  2
AmdtCenterLineStdISO
  3
"Amdt_StdImp|Product Description: AutoCAD Mechanical|Company: Autodesk"
 90
        0
280
     0
281
     0
  0
CLASS
  1
ACAMGLAYSTD
  2
AcAmgLayStd
  3
"AmgLay|Product Description: AutoCAD Mechanical|Company: Autodesk"
 90
        0
280
     0
281
     0
  0
CLASS
  1
ACAMGDIMSTD
  2
AcAmgDimStd
  3
"AmgDim|Product Description: AutoCAD Mechanical|Company: Autodesk"
 90
        0
280
     0
281
     0
  0
CLASS
  1
ACAMGTITLESTD
  2
AcAmgTitleStd
  3
"AmgTitle|Product Description: AutoCAD Mechanical|Company: Autodesk"
 90
        0
280
     0
281
     0
  0
CLASS
  1
ACAMGFILTERDAT
  2
AcAmgFilterDat
  3
"AcadM|Product Description: AutoCAD Mechanical|Company: Autodesk"
 90
        0
280
     0
281
     0
  0
CLASS
  1
LAYER_INDEX
  2
AcDbLayerIndex
  3
ObjectDBX Classes
 90
    32768
280
     0
281
     0
  0
CLASS
  1
IDBUFFER
  2
AcDbIdBuffer
  3
ObjectDBX Classes
 90
    32768
280
     0
281
     0
  0
CLASS
  1
PLOTSETTINGS
  2
AcDbPlotSettings
  3
ObjectDBX Classes
 90
    32768
280
     0
281
     0
  0
CLASS
  1
AMDTFORMULAUPDATEDISPATCHER
  2
AmdtFormulaUpdateDispatcher
  3
AcMeServices
 90
        0
280
     0
281
     0
  0
CLASS
  1
ACMSTANDARDANSI
  2
AcmStandardANSI
  3
"Amdt_StdImp|Product Description: AutoCAD Mechanical|Company: Autodesk"
 90
        0
280
     0
281
     0
  0
CLASS
  1
ACMSURFSTANDARDANSI
  2
AcmSurfTextStdANSI
  3
"Amdt_StdImp|Product Description: AutoCAD Mechanical|Company: Autodesk"
 90
        0
280
     0
281
     0
  0
CLASS
  1
ACMFCFSTANDARDANSI
  2
AcmFCFStdANSI
  3
"Amdt_StdImp|Product Description: AutoCAD Mechanical|Company: Autodesk"
 90
        0
280
     0
281
     0
  0
CLASS
  1
ACMWELDSTANDARDANSI
  2
AcmWeldingStdANSI
  3
"Amdt_StdImp|Product Description: AutoCAD Mechanical|Company: Autodesk"
 90
        0
280
     0
281
     0
  0
CLASS
  1
ACMIDSTANDARDANSI
  2
AcmIdStdANSI
  3
"Amdt_StdImp|Product Description: AutoCAD Mechanical|Company: Autodesk"
 90
        0
280
     0
281
     0
  0
CLASS
  1
ACMDATUMSTANDARDANSI
  2
AcmDatumStdANSI
  3
"Amdt_StdImp|Product Description: AutoCAD Mechanical|Company: Autodesk"
 90
        0
280
     0
281
     0
  0
CLASS
  1
ACMBOMSTANDARDANSI
  2
AcmBOMStdANSI
  3
"Amdt_StdImp|Product Description: AutoCAD Mechanical|Company: Autodesk"
 90
        0
280
     0
281
     0
  0
CLASS
  1
ACMDETAILSTANDARDANSI
  2
AmdtDetailSymStdANSI
  3
"Amdt_StdImp|Product Description: AutoCAD Mechanical|Company: Autodesk"
 90
        0
280
     0
281
     0
  0
CLASS
  1
ACMSECTIONSTANDARDANSI
  2
AmdtSectionSymStdANSI
  3
"Amdt_StdImp|Product Description: AutoCAD Mechanical|Company: Autodesk"
 90
        0
280
     0
281
     0
  0
CLASS
  1
ACMCENTERLINESTANDARDANSI
  2
AmdtCenterLineStdANSI
  3
"Amdt_StdImp|Product Description: AutoCAD Mechanical|Company: Autodesk"
 90
        0
280
     0
281
     0
  0
CLASS
  1
ACMBOM
  2
AcmBom
  3
"AcmSymBB|Product Description: AutoCAD Mechanical|Company: Autodesk"
 90
        0
280
     0
281
     0
  0
CLASS
  1
ACMDATAENTRYPART
  2
AcmDataEntryPart
  3
"AcmSymBB|Product Description: AutoCAD Mechanical|Company: Autodesk"
 90
    32768
280
     0
281
     0
  0
CLASS
  1
ACMPARTREF
  2
AcmPartRef
  3
"AcmSymBB|Product Description: AutoCAD Mechanical|Company: Autodesk"
 90
    35839
280
     0
281
     1
  0
CLASS
  1
ACDBCIRCARCRES
  2
AcDbCircArcRes
  3
AcGrefServices
 90
    32768
280
     0
281
     0
  0
CLASS
  1
ACMBOMROW
  2
AcmBomRow
  3
"AcmSymBB|Product Description: AutoCAD Mechanical|Company: Autodesk"
 90
    32768
280
     0
281
     0
  0
CLASS
  1
ACMBALLOON
  2
AcmBalloon
  3
"AcmSymBB|Product Description: AutoCAD Mechanical|Company: Autodesk"
 90
    35839
280
     0
281
     1
  0
CLASS
  1
AMDTNOTE
  2
AmdtNote
  3
"AcmSymBB|Product Description: AutoCAD Mechanical|Company: Autodesk"
 90
    35839
280
     0
281
     1
  0
CLASS
  1
STDPART2D
  2
AmgStdPart
  3
"AmgStdPart|Product Description: AutoCAD Mechanical|Company: Autodesk"
 90
    35839
280
     0
281
     1
  0
CLASS
  1
ACDBSTDPARTRES_LINE
  2
AcDbStdPartRes_Line
  3
"AmgStdPart|Product Description: AutoCAD Mechanical|Company: Autodesk"
 90
    32768
280
     0
281
     0
  0
CLASS
  1
ACMDATAENTRY
  2
AcmDataEntry
  3
"AcmSymBB|Product Description: AutoCAD Mechanical|Company: Autodesk"
 90
        0
280
     0
281
     0
  0
CLASS
  1
ACDBOPPOLYLINERES
  2
AcDbOpPolylineRes
  3
AcGrefServices
 90
    32768
280
     0
281
     0
  0
CLASS
  1
ACMPARTLIST
  2
AcmPartList
  3
"AcmSymBB|Product Description: AutoCAD Mechanical|Company: Autodesk"
 90
    35839
280
     0
281
     1
  0
CLASS
  1
ACDBLINERES
  2
AcDbLineRes
  3
AcGrefServices
 90
        0
280
     0
281
     0
  0
CLASS
  1
ACRFINSADJ
  2
AcRfInsAdjuster
  3
AcMeServices
 90
    32768
280
     0
281
     0
  0
CLASS
  1
AM_DRAWING_MGR
  2
AcDmDwgMgr
  3
AcMechDwgViewMgmt
 90
        0
280
     0
281
     0
  0
CLASS
  1
AM_DWG_DOCUMENT
  2
AcDmDwgDocument
  3
AcMechDwgViewMgmt
 90
        0
280
     0
281
     0
  0
CLASS
  1
AM_DWG_SHEET
  2
AcDmSheet
  3
AcMechDwgViewMgmt
 90
        0
280
     0
281
     0
  0
CLASS
  1
AM_VIEWDIMPARMAP
  2
AcDmViewDimParMap
  3
AcMechDwgViewMgmt
 90
        0
280
     0
281
     0
  0
CLASS
  1
AM_DWGMGR_NAME
  2
AcDmDwgMgrName
  3
AcMechDwgViewMgmt
 90
        0
280
     0
281
     0
  0
CLASS
  1
AMDTMENUSTATEMGR
  2
AmdtMenuStateMgr
  3
McadcomServices
 90
        0
280
     0
281
     0
  0
CLASS
  1
AMDTMCOMMENUSTATE
  2
AmdtMcomMenuState
  3
McadcomServices
 90
        0
280
     0
281
     0
  0
CLASS
  1
ASAPP
  2
AcAsAppObject
  3
AutoSurfServices
 90
        0
280
     0
281
     0
  0
CLASS
  1
IM_STATIC_MAN
  2
AcImStaticVarManager
  3
AcMeServices
 90
        0
280
     0
281
     0
  0
CLASS
  1
ACIMDBLSTATICVAR
  2
AcImDblStaticVar
  3
AcMeServices
 90
        0
280
     0
281
     0
  0
CLASS
  1
ACIMSTRSTATICVAR
  2
AcImStrStaticVar
  3
AcMeServices
 90
        0
280
     0
281
     0
  0
CLASS
  1
ACIMINTSTATICVAR
  2
AcImIntStaticVar
  3
AcMeServices
 90
        0
280
     0
281
     0
  0
CLASS
  1
ACASGREFMASTER
  2
AcAsGrefMaster
  3
AutoSurfResolverServices
 90
        0
280
     0
281
     0
  0
CLASS
  1
ACADGREFMODULE
  2
AcAdGrefModule
  3
AdGrefServices
 90
        0
280
     0
281
     0
  0
CLASS
  1
AMDTMAPISURFMOUDULE
  2
AmdtMApiSurfModule
  3
MApiSurfServices
 90
        0
280
     0
281
     0
  0
CLASS
  1
MAPIAMMOUDLE
  2
MApiAmModule
  3
MApiAmServices
 90
        0
280
     0
281
     0
  0
CLASS
  1
AMDTADMENUSTATE
  2
AmdtAdMenuState
  3
DesignerServices
 90
        0
280
     0
281
     0
  0
CLASS
  1
ADAPPL
  2
AcAdAppl
  3
DesignerServices
 90
        0
280
     0
281
     0
  0
CLASS
  1
DEPMGR
  2
AcAdDepMgr
  3
DesignerServices
 90
        0
280
     0
281
     0
  0
CLASS
  1
PARAMMGR
  2
AcAdParamMgr
  3
DesignerServices
 90
        0
280
     0
281
     0
  0
CLASS
  1
PARAMSCOPE
  2
AcAdParamScope
  3
DesignerServices
 90
        0
280
     0
281
     0
  0
CLASS
  1
NAMEDAPPL
  2
AcAdNamedAppl
  3
DesignerServices
 90
        0
280
     0
281
     0
  0
CLASS
  1
ADHNTMPLT
  2
AdHoleNoteTemplateMgr
  3
DesignerServices
 90
    32768
280
     0
281
     0
  0
CLASS
  1
AM_HNTEMPLATE_MGR_NAME
  2
AdHoleNoteTemplateMgrName
  3
DesignerServices
 90
    32768
280
     0
281
     0
  0
CLASS
  1
AMDTDMMENUSTATE
  2
AmdtDmMenuState
  3
AcMechDwgViewMgmt
 90
        0
280
     0
281
     0
  0
CLASS
  1
MAPIADMODULE
  2
MApiAdModule
  3
MApiAdServices
 90
        0
280
     0
281
     0
  0
CLASS
  1
AMDTAMMENUSTATE
  2
AmdtAmMenuState
  3
DesignerAssemblies
 90
        0
280
     0
281
     0
  0
CLASS
  1
ACAMPROJECT
  2
AcAmProject
  3
DesignerAssemblies
 90
        0
280
     0
281
     0
  0
CLASS
  1
ACAMGRCOMPDEF
  2
AcAmGrCompDef
  3
DesignerAssemblies
 90
        0
280
     0
281
     0
  0
CLASS
  1
ACCMCONTEXT
  2
AcCmContext
  3
DesignerAssemblies
 90
        0
280
     0
281
     0
  0
CLASS
  1
ACAMCOMPDEF
  2
AcAmCompDef
  3
DesignerAssemblies
 90
        0
280
     0
281
     0
  0
CLASS
  1
ACAMCOMPDEFMGR
  2
AcAmCompDefMgr
  3
DesignerAssemblies
 90
        0
280
     0
281
     0
  0
CLASS
  1
AMCONTEXTMGR
  2
AcAmContextMgr
  3
DesignerAssemblies
 90
        0
280
     0
281
     0
  0
CLASS
  1
ACAMCONTEXTMODELER
  2
AcAmContextModeler
  3
DesignerAssemblies
 90
        0
280
     0
281
     0
  0
CLASS
  1
CATALOGSTATE
  2
AcAmCatalogState
  3
DesignerAssemblies
 90
        0
280
     0
281
     0
  0
CLASS
  1
ACAMGRCOMPDEFSET
  2
AcAmGrCompDefSet
  3
DesignerAssemblies
 90
        0
280
     0
281
     0
  0
CLASS
  1
AMDTBROWSERDBTAB
  2
AmdtBrowserDbTab
  3
McadcomServices
 90
        0
280
     0
281
     0
  0
CLASS
  1
CBROWSERAPPOBJECT
  2
CBrowserAppObject
  3
McadcomServices
 90
        0
280
     0
281
     0
  0
CLASS
  1
DM_PLACEHOLDER
  2
AcDmSelsetPlaceholder
  3
AcMechDwgViewMgmt
 90
        0
280
     0
281
     0
  0
CLASS
  1
ACMPICKOBJ
  2
AcmPickEnt
  3
"AcmSymBB|Product Description: AutoCAD Mechanical|Company: Autodesk"
 90
    32768
280
     0
281
     1
  0
CLASS
  1
ACMNOTESTANDARDISO
  2
AmdtNoteStdISO
  3
"Amdt_StdImp|Product Description: AutoCAD Mechanical|Company: Autodesk"
 90
        0
280
     0
281
     0
  0
CLASS
  1
ACMNOTESTANDARDANSI
  2
AmdtNoteStdANSI
  3
"Amdt_StdImp|Product Description: AutoCAD Mechanical|Company: Autodesk"
 90
        0
280
     0
281
     0
  0
CLASS
  1
ACMTHREADLINESTANDARDISO
  2
AmdtThreadLineStdISO
  3
"Amdt_StdImp|Product Description: AutoCAD Mechanical|Company: Autodesk"
 90
        0
280
     0
281
     0
  0
CLASS
  1
ACMTHREADLINESTANDARDANSI
  2
AmdtThreadLineStdANSI
  3
"Amdt_StdImp|Product Description: AutoCAD Mechanical|Company: Autodesk"
 90
        0
280
     0
281
     0
  0
CLASS
  1
TABLESTYLE
  2
AcDbTableStyle
  3
ObjectDBX Classes
 90
     4095
280
     0
281
     0
  0
CLASS
  1
SORTENTSTABLE
  2
AcDbSortentsTable
  3
ObjectDBX Classes
 90
        0
280
     0
281
     0
  0
CLASS
  1
MATERIAL
  2
AcDbMaterial
  3
ObjectDBX Classes
 90
     1153
280
     0
281
     0
  0
CLASS
  1
VISUALSTYLE
  2
AcDbVisualStyle
  3
ObjectDBX Classes
 90
     4095
280
     0
281
     0
  0
CLASS
  1
ACRFATTGENMGR
  2
AcRfAttGeneralMgr
  3
AcAttribServices
 90
        0
280
     0
281
     0
  0
CLASS
  1
ACRFOBJATTMGR
  2
AcRfObjAttGroupMgr
  3
AcAttribServices
 90
        0
280
     0
281
     0
  0
CLASS
  1
ACRFMCADAPIATTHOLDER
  2
AcRfMCADAPIAttHolder
  3
AcAttribServices
 90
        0
280
     0
281
     0
  0
CLASS
  1
AMDTSYSATTR
  2
AmdtSystemAttribute
  3
AcAttribServices
 90
        0
280
     0
281
     0
  0
CLASS
  1
ACMTAPERSTANDARDISO
  2
AcmTaperStdISO
  3
"Amdt_StdImp|Product Description: AutoCAD Mechanical|Company: Autodesk"
 90
        0
280
     0
281
     0
  0
CLASS
  1
CAMSSTRUCTBTNSTATE
  2
StructBtnState
  3
L"DesignerAssemblies"
 90
        0
280
     0
281
     0
  0
CLASS
  1
DIMASSOC
  2
AcDbDimAssoc
  3
"AcDbDimAssoc|Product Desc:     AcDim ARX App For Dimension|Company:          Autodesk, Inc.|WEB Address:      www.autodesk.com"
 90
    32768
280
     0
281
     0
  0
CLASS
  1
EXACXREFPANELOBJECT
  2
ExAcXREFPanelObject
  3
EXAC_ESW
 90
    33793
280
     0
281
     0
  0
CLASS
  1
NPOCOLLECTION
  2
AcDbImpNonPersistentObjectsCollection
  3
ObjectDBX Classes
 90
    33921
280
     0
281
     0
  0
CLASS
  1
AMDTEDGESTANDARDISO13715
  2
AmdtEdgeStdISO13715
  3
"Amdt_StdImp|Product Description: AutoCAD Mechanical|Company: Autodesk"
 90
        0
280
     0
281
     0
  0
CLASS
  1
AMDTNOTETEMPLATEDB
  2
AmdtNoteTemplateDB
  3
AMDT_STDIMP_MODULE_NAME
 90
        0
280
     0
281
     0
  0
CLASS
  1
ACAMGHOLECHARTSTDISO
  2
AcAmgHoleChartStdISO
  3
ACMSYMBB_MODULE_NAME
 90
        0
280
     0
281
     0
  0
CLASS
  1
ACMTAPERSTANDARDANSI
  2
AcmTaperStdANSI
  3
"Amdt_StdImp|Product Description: AutoCAD Mechanical|Company: Autodesk"
 90
        0
280
     0
281
     0
  0
CLASS
  1
ACAMGHOLECHARTSTDANSI
  2
AcAmgHoleChartStdANSI
  3
ACMSYMBB_MODULE_NAME
 90
        0
280
     0
281
     0
  0
CLASS
  1
ACAMSTDPCOMPDEF
  2
AcAmStdpCompDef
  3
DesignerAssemblies
 90
    32768
280
     0
281
     0
  0
CLASS
  1
ACAMCOMP
  2
AcAmComp
  3
DesignerAssemblies
 90
    32768
280
     0
281
     0
  0
CLASS
  1
AC_AM_STDP_VIEW_DEF
  2
AcAmStdpViewDef
  3
DesignerAssemblies
 90
    32768
280
     0
281
     0
  0
CLASS
  1
AC_AM_MVD_DEP_MGR
  2
AcAmMVDdepMgr
  3
DesignerAssemblies
 90
        0
280
     0
281
     0
  0
CLASS
  1
AC_AM_MASTER_VIEW_DEF
  2
AcAmMasterViewDef
  3
DesignerAssemblies
 90
        0
280
     0
281
     0
  0
CLASS
  1
AC_AM_DIRTY_NODES
  2
AcAmDirtyNodes
  3
DesignerAssemblies
 90
        0
280
     0
281
     0
  0
CLASS
  1
AC_AM_MAPPER_CACHE
  2
AcAmMapperCache
  3
DesignerAssemblies
 90
        0
280
     0
281
     0
  0
CLASS
  1
ACAMMVDBACKUPOBJECT
  2
AcAmMVDBackupObject
  3
DesignerAssemblies
 90
        0
280
     0
281
     0
  0
CLASS
  1
AC_AM_COMP_VIEW_INST
  2
AcAmCompView
  3
DesignerAssemblies
 90
    32768
280
     0
281
     0
  0
CLASS
  1
AC_AM_2D_XREF_MGR
  2
AcAmXrefMgr2d
  3
DesignerAssemblies
 90
        0
280
     0
281
     0
  0
CLASS
  1
AC_AM_HIDE_SITUATION
  2
AcAmHideSituation
  3
DesignerAssemblies
 90
    32768
280
     0
281
     0
  0
CLASS
  1
AC_AM_TRANSFORM_GHOST
  2
AcDbTransformGhost
  3
DesignerAssemblies
 90
    32768
280
     0
281
     1
  0
CLASS
  1
L"OBJCLONER"
  2
ObjCloner
  3
DesignerAssemblies
 90
    32768
280
     0
281
     1
  0
ENDSEC
  0
SECTION
  2
TABLES
  0
TABLE
  2
VPORT
  5
8
330
0
100
AcDbSymbolTable
 70
     1
  0
VPORT
  5
B0EC
330
8
100
AcDbSymbolTableRecord
100
AcDbViewportTableRecord
  2
*Active
 70
     0
 10
0.0
 20
0.0
 11
1.0
 21
1.0
 12
6192.306618132887
 22
-1565.838522451352
 13
0.0
 23
0.0
 14
2.5
 24
2.5
 15
10.0
 25
10.0
 16
0.0
 26
0.0
 36
1.0
 17
0.0
 27
0.0
 37
0.0
 40
322.4918707048583
 41
1.702970297029702
 42
50.0
 43
-1370.695619172058
 44
-1370.695619172058
 50
0.0
 51
0.0
 71
     0
 72
   100
 73
     1
 74
     3
 75
     0
 76
     0
 77
     0
 78
     0
281
     0
 65
     0
110
0.0
120
0.0
130
0.0
111
1.0
121
0.0
131
0.0
112
0.0
122
1.0
132
0.0
 79
     0
146
0.0
  0
ENDTAB
  0
TABLE
  2
LTYPE
  5
5
330
0
100
AcDbSymbolTable
 70
    23
  0
LTYPE
  5
14
330
5
100
AcDbSymbolTableRecord
100
AcDbLinetypeTableRecord
  2
ByBlock
 70
     0
  3

 72
    65
 73
     0
 40
0.0
  0
LTYPE
  5
15
330
5
100
AcDbSymbolTableRecord
100
AcDbLinetypeTableRecord
  2
ByLayer
 70
     0
  3

 72
    65
 73
     0
 40
0.0
  0
LTYPE
  5
16
330
5
100
AcDbSymbolTableRecord
100
AcDbLinetypeTableRecord
  2
Continuous
 70
     0
  3
Solid line
 72
    65
 73
     0
 40
0.0
  0
LTYPE
  5
4F
330
5
100
AcDbSymbolTableRecord
100
AcDbLinetypeTableRecord
  2
AM_ISO02W050
 70
     0
  3
__ __ __ __ __ __ __ __ __ __ __ __ __ __ __
 72
    65
 73
     2
 40
7.5
 49
6.0
 74
     0
 49
-1.5
 74
     0
  0
LTYPE
  5
52
330
5
100
AcDbSymbolTableRecord
100
AcDbLinetypeTableRecord
  2
Amconstr
 70
     0
  3
_______________________
 72
    65
 73
     2
 40
9999.0
 49
9999.0
 74
     0
 49
0.0
 74
     0
  0
LTYPE
  5
64
330
5
100
AcDbSymbolTableRecord
100
AcDbLinetypeTableRecord
  2
ACISOWELD
 70
     0
  3
_ _ _ _ _
 72
    65
 73
     2
 40
2.0
 49
2.0
 74
     0
 49
-1.0
 74
     0
  0
LTYPE
  5
65
330
5
100
AcDbSymbolTableRecord
100
AcDbLinetypeTableRecord
  2
ACISOTGB
 70
     0
  3
__ . . __ . .
 72
    65
 73
     6
 40
9.0
 49
4.0
 74
     0
 49
-1.0
 74
     0
 49
1.0
 74
     0
 49
-1.0
 74
     0
 49
1.0
 74
     0
 49
-1.0
 74
     0
  0
LTYPE
  5
66
330
5
100
AcDbSymbolTableRecord
100
AcDbLinetypeTableRecord
  2
ACISOTGL
 70
     0
  3
_ _ _ _ _
 72
    65
 73
     2
 40
3.0
 49
2.0
 74
     0
 49
-1.0
 74
     0
  0
LTYPE
  5
69
330
5
100
AcDbSymbolTableRecord
100
AcDbLinetypeTableRecord
  2
CENTER
 70
     0
  3
__ . __
 72
    65
 73
     4
 40
7.0
 49
4.0
 74
     0
 49
-1.0
 74
     0
 49
1.0
 74
     0
 49
-1.0
 74
     0
  0
LTYPE
  5
A6E
330
5
100
AcDbSymbolTableRecord
100
AcDbLinetypeTableRecord
  2
PHANTOM2
 70
     0
  3
Phantom (.5x) ___ _ _ ___ _ _ ___ _ _ ___ _ _
 72
    65
 73
     6
 40
31.75
 49
15.875
 74
     0
 49
-3.174999999999999
 74
     0
 49
3.174999999999999
 74
     0
 49
-3.174999999999999
 74
     0
 49
3.174999999999999
 74
     0
 49
-3.174999999999999
 74
     0
  0
LTYPE
  5
4DED
330
5
100
AcDbSymbolTableRecord
100
AcDbLinetypeTableRecord
  2
中線
 70
     0
  3
___________________
 72
    65
 73
     2
 40
2.0
 49
1.0
 74
     0
 49
1.0
 74
     0
  0
LTYPE
  5
4DF6
330
5
100
AcDbSymbolTableRecord
100
AcDbLinetypeTableRecord
  2
細線
 70
     0
  3
___________________
 72
    65
 73
     2
 40
2.0
 49
1.0
 74
     0
 49
1.0
 74
     0
  0
LTYPE
  5
4DF7
330
5
100
AcDbSymbolTableRecord
100
AcDbLinetypeTableRecord
  2
太線
 70
     0
  3
___________________
 72
    65
 73
     2
 40
2.0
 49
1.0
 74
     0
 49
1.0
 74
     0
  0
LTYPE
  5
4EA7
330
5
100
AcDbSymbolTableRecord
100
AcDbLinetypeTableRecord
  2
文字
 70
     0
  3
_________________
 72
    65
 73
     2
 40
2.0
 49
1.0
 74
     0
 49
1.0
 74
     0
  0
LTYPE
  5
4EA9
330
5
100
AcDbSymbolTableRecord
100
AcDbLinetypeTableRecord
  2
寸法線
 70
     0
  3
________________
 72
    65
 73
     2
 40
2.0
 49
1.0
 74
     0
 49
1.0
 74
     0
  0
LTYPE
  5
4F12
330
5
100
AcDbSymbolTableRecord
100
AcDbLinetypeTableRecord
  2
ハッチング
 70
     0
  3
_________________
 72
    65
 73
     2
 40
2.0
 49
1.0
 74
     0
 49
1.0
 74
     0
  0
LTYPE
  5
5180
330
5
100
AcDbSymbolTableRecord
100
AcDbLinetypeTableRecord
  2
陰線1
 70
     0
  3
__ __ __ __
 72
    65
 73
     2
 40
4.0
 49
2.2
 74
     0
 49
-1.8
 74
     0
  0
LTYPE
  5
5182
330
5
100
AcDbSymbolTableRecord
100
AcDbLinetypeTableRecord
  2
切断線
 70
     0
  3
/\/-/\/-/\/-/\/-/\/-/\/
 72
    65
 73
     2
 40
11.0001
 49
0.0001
 74
     4
 75
   135
340
56
 46
0.04
 50
0.0
 44
0.0
 45
0.0
 49
-11.0
 74
     0
  0
LTYPE
  5
5183
330
5
100
AcDbSymbolTableRecord
100
AcDbLinetypeTableRecord
  2
想像線1
 70
     0
  3
__ __ __ _____ __ __ ____
 72
    65
 73
     6
 40
14.5
 49
6.0
 74
     0
 49
-1.5
 74
     0
 49
2.0
 74
     0
 49
-1.5
 74
     0
 49
2.0
 74
     0
 49
-1.5
 74
     0
  0
LTYPE
  5
5185
330
5
100
AcDbSymbolTableRecord
100
AcDbLinetypeTableRecord
  2
中心線1
 70
     0
  3
___ _ ___ _ ___
 72
    65
 73
     4
 40
18.0
 49
12.0
 74
     0
 49
-2.0
 74
     0
 49
2.0
 74
     0
 49
-2.0
 74
     0
  0
LTYPE
  5
5188
330
5
100
AcDbSymbolTableRecord
100
AcDbLinetypeTableRecord
  2
補助線
 70
     0
  3
______________
 72
    65
 73
     2
 40
2.0
 49
1.0
 74
     0
 49
1.0
 74
     0
  0
LTYPE
  5
6427
330
5
100
AcDbSymbolTableRecord
100
AcDbLinetypeTableRecord
  2
HIDDEN
 70
     0
  3
Hidden __ __ __ __ __ __ __ __ __ __ __ __ __ _
 72
    65
 73
     2
 40
0.375
 49
0.25
 74
     0
 49
-0.125
 74
     0
  0
LTYPE
  5
AF95
330
5
100
AcDbSymbolTableRecord
100
AcDbLinetypeTableRecord
  2
AM_ISO08W050
 70
     0
  3
____ . ____ . ____ . ____ . ____ . ____ . ____
 72
    65
 73
     4
 40
18.0
 49
12.0
 74
     0
 49
-1.5
 74
     0
 49
3.0
 74
     0
 49
-1.5
 74
     0
  0
LTYPE
  5
FD15
330
5
100
AcDbSymbolTableRecord
100
AcDbLinetypeTableRecord
  2
ACANSTGB
 70
     0
  3
__ . . __ . .
 72
    65
 73
     6
 40
0.35433070866
 49
0.15748031496
 74
     0
 49
-0.03937007874
 74
     0
 49
0.03937007874
 74
     0
 49
-0.03937007874
 74
     0
 49
0.03937007874
 74
     0
 49
-0.03937007874
 74
     0
  0
LTYPE
  5
FD16
330
5
100
AcDbSymbolTableRecord
100
AcDbLinetypeTableRecord
  2
ACANSTGL
 70
     0
  3
_ _ _ _ _
 72
    65
 73
     2
 40
0.11811023622
 49
0.07874015748
 74
     0
 49
-0.03937007874
 74
     0
  0
ENDTAB
  0
TABLE
  2
LAYER
  5
2
102
{ACAD_XDICTIONARY
360
3F95
102
}
330
0
100
AcDbSymbolTable
 70
    10
  0
LAYER
  5
10
330
2
100
AcDbSymbolTableRecord
100
AcDbLayerTableRecord
  2
0
 70
     0
 62
     7
  6
Continuous
370
    -3
390
F
  0
LAYER
  5
6D1
330
2
100
AcDbSymbolTableRecord
100
AcDbLayerTableRecord
  2
Defpoints
 70
     0
 62
     7
  6
Continuous
290
     0
370
    -3
390
F
  0
LAYER
  5
AC9F
330
2
100
AcDbSymbolTableRecord
100
AcDbLayerTableRecord
  2
size
 70
     0
 62
     5
  6
Continuous
290
     0
370
    25
390
F
  0
LAYER
  5
ACA0
330
2
100
AcDbSymbolTableRecord
100
AcDbLayerTableRecord
  2
waku
 70
     0
 62
     7
  6
Continuous
370
    35
390
F
  0
LAYER
  5
ACA1
330
2
100
AcDbSymbolTableRecord
100
AcDbLayerTableRecord
  2
AM_6
 70
     0
 62
     2
  6
文字
370
    15
390
F
1001
AcAecLayerStandard
1000

1000

  0
LAYER
  5
AD68
330
2
100
AcDbSymbolTableRecord
100
AcDbLayerTableRecord
  2
AM_5
 70
     0
 62
     3
  6
寸法線
370
    15
390
F
1001
AcAecLayerStandard
1000

1000

  0
LAYER
  5
B5FB
330
2
100
AcDbSymbolTableRecord
100
AcDbLayerTableRecord
  2
0部品18
 70
     0
 62
   254
  6
細線
370
    30
390
F
1001
AcAecLayerStandard
1000

1000

  0
LAYER
  5
5B4F8
330
2
100
AcDbSymbolTableRecord
100
AcDbLayerTableRecord
  2
AM_0
 70
     0
 62
     7
  6
中線
370
    25
390
F
1001
AcAecLayerStandard
1000

1000

  0
LAYER
  5
5B4F9
330
2
100
AcDbSymbolTableRecord
100
AcDbLayerTableRecord
  2
AM_7
 70
     0
 62
     4
  6
中心線1
370
    15
390
F
1001
AcAecLayerStandard
1000

1000

  0
LAYER
  5
5B4FA
102
{ACAD_XDICTIONARY
360
5B4FB
102
}
330
2
100
AcDbSymbolTableRecord
100
AcDbLayerTableRecord
  2
AM_3
 70
     0
 62
     6
  6
陰線1
370
    15
390
F
1001
AcAecLayerStandard
1000

1000

  0
ENDTAB
  0
TABLE
  2
STYLE
  5
3
330
0
100
AcDbSymbolTable
 70
     7
  0
STYLE
  5
11
330
3
100
AcDbSymbolTableRecord
100
AcDbTextStyleTableRecord
  2
STANDARD
 70
     0
 40
0.0
 41
0.7
 50
0.0
 71
     0
 42
3.2
  3
romans.shx
  4
extfont.shx
  0
STYLE
  5
56
330
3
100
AcDbSymbolTableRecord
100
AcDbTextStyleTableRecord
  2

 70
     1
 40
0.0
 41
1.0
 50
0.0
 71
     0
 42
2.5
  3
ltypeshp.shx
  4

  0
STYLE
  5
58
330
3
100
AcDbSymbolTableRecord
100
AcDbTextStyleTableRecord
  2
ACISOTS
 70
     0
 40
1.0
 41
1.0
 50
0.0
 71
     0
 42
2.5
  3
isocp.shx
  4
extfont.shx
  0
STYLE
  5
63
330
3
100
AcDbSymbolTableRecord
100
AcDbTextStyleTableRecord
  2
ACISOGDT
 70
     0
 40
0.0
 41
1.0
 50
0.0
 71
     0
 42
2.5
  3
amgdt.shx
  4

  0
STYLE
  5
A74
330
3
100
AcDbSymbolTableRecord
100
AcDbTextStyleTableRecord
  2
DIM
 70
     0
 40
0.0
 41
1.0
 50
0.0
 71
     0
 42
2.5
  3
monotxt.shx
  4
extfont.shx
  0
STYLE
  5
FD18
330
3
100
AcDbSymbolTableRecord
100
AcDbTextStyleTableRecord
  2
ACANSTS
 70
     0
 40
1.0
 41
1.0
 50
0.0
 71
     0
 42
0.2
  3
romans.shx
  4
extfont.shx
  0
STYLE
  5
FD19
330
3
100
AcDbSymbolTableRecord
100
AcDbTextStyleTableRecord
  2
ACANSGDT
 70
     0
 40
0.0
 41
1.0
 50
0.0
 71
     0
 42
0.2
  3
amgdt.shx
  4

  0
ENDTAB
  0
TABLE
  2
VIEW
  5
6
330
0
100
AcDbSymbolTable
 70
     6
  0
VIEW
  5
AE1
330
6
100
AcDbSymbolTableRecord
100
AcDbViewTableRecord
  2
AM_VIEW1
 70
     0
 40
2203.896457765668
 10
5264.599158088851
 20
3198.765197920841
 41
2970.0
 11
0.0
 21
0.0
 31
1.0
 12
0.0
 22
0.0
 32
0.0
 42
50.0
 43
-1370.695619172058
 44
-1370.695619172058
 50
0.0
 71
     0
281
     0
 72
     0
  0
VIEW
  5
AE2
330
6
100
AcDbSymbolTableRecord
100
AcDbViewTableRecord
  2
AM_VIEW2
 70
     0
 40
2203.896457765668
 10
8234.599158088851
 20
3198.765197920841
 41
2970.0
 11
0.0
 21
0.0
 31
1.0
 12
0.0
 22
0.0
 32
0.0
 42
50.0
 43
-1370.695619172058
 44
-1370.695619172058
 50
0.0
 71
     0
281
     0
 72
     0
  0
VIEW
  5
AE3
330
6
100
AcDbSymbolTableRecord
100
AcDbViewTableRecord
  2
AM_VIEW3
 70
     0
 40
2203.896457765668
 10
5264.599158088851
 20
1202.661655686509
 41
2970.0
 11
0.0
 21
0.0
 31
1.0
 12
0.0
 22
0.0
 32
0.0
 42
50.0
 43
-1370.695619172058
 44
-1370.695619172058
 50
0.0
 71
     0
281
     0
 72
     0
  0
VIEW
  5
AE4
330
6
100
AcDbSymbolTableRecord
100
AcDbViewTableRecord
  2
AM_VIEW4
 70
     0
 40
2203.896457765668
 10
8234.599158088851
 20
1202.661655686509
 41
2970.0
 11
0.0
 21
0.0
 31
1.0
 12
0.0
 22
0.0
 32
0.0
 42
50.0
 43
-1370.695619172058
 44
-1370.695619172058
 50
0.0
 71
     0
281
     0
 72
     0
  0
VIEW
  5
AE5
330
6
100
AcDbSymbolTableRecord
100
AcDbViewTableRecord
  2
AM_VIEW5
 70
     0
 40
2203.896457765668
 10
6749.599158088852
 20
2200.713426803675
 41
2970.0
 11
0.0
 21
0.0
 31
1.0
 12
0.0
 22
0.0
 32
0.0
 42
50.0
 43
-1370.695619172058
 44
-1370.695619172058
 50
0.0
 71
     0
281
     0
 72
     0
  0
VIEW
  5
AE6
330
6
100
AcDbSymbolTableRecord
100
AcDbViewTableRecord
  2
AM_VIEW6
 70
     0
 40
4407.748837602181
 10
6749.599158088852
 20
2200.713426803675
 41
5939.9406
 11
0.0
 21
0.0
 31
1.0
 12
0.0
 22
0.0
 32
0.0
 42
50.0
 43
-1370.695619172058
 44
-1370.695619172058
 50
0.0
 71
     0
281
     0
 72
     0
  0
ENDTAB
  0
TABLE
  2
UCS
  5
7
330
0
100
AcDbSymbolTable
 70
     0
  0
ENDTAB
  0
TABLE
  2
APPID
  5
9
330
0
100
AcDbSymbolTable
 70
    67
  0
APPID
  5
12
330
9
100
AcDbSymbolTableRecord
100
AcDbRegAppTableRecord
  2
ACAD
 70
     0
  0
APPID
  5
30
330
9
100
AcDbSymbolTableRecord
100
AcDbRegAppTableRecord
  2
MCAD_NO_VIS
 70
     0
  0
APPID
  5
31
330
9
100
AcDbSymbolTableRecord
100
AcDbRegAppTableRecord
  2
ACAD_TEMP_GRAPHIC
 70
     0
  0
APPID
  5
44
330
9
100
AcDbSymbolTableRecord
100
AcDbRegAppTableRecord
  2
ACATTRIBSERVICES
 70
     0
  0
APPID
  5
7A1
330
9
100
AcDbSymbolTableRecord
100
AcDbRegAppTableRecord
  2
GENIUS_GENDIMSH_14
 70
     0
  0
APPID
  5
A49
330
9
100
AcDbSymbolTableRecord
100
AcDbRegAppTableRecord
  2
GENIUS_GENREC_14
 70
     0
  0
APPID
  5
A4A
330
9
100
AcDbSymbolTableRecord
100
AcDbRegAppTableRecord
  2
GENIUS_GENOBJ-N-REC_13
 70
     0
  0
APPID
  5
A4B
330
9
100
AcDbSymbolTableRecord
100
AcDbRegAppTableRecord
  2
GENIUS_GENODEF_13
 70
     0
  0
APPID
  5
A4C
330
9
100
AcDbSymbolTableRecord
100
AcDbRegAppTableRecord
  2
DCO15
 70
     0
  0
APPID
  5
ADC
330
9
100
AcDbSymbolTableRecord
100
AcDbRegAppTableRecord
  2
GENIUS_GENOLIS_13
 70
     0
  0
APPID
  5
ADD
330
9
100
AcDbSymbolTableRecord
100
AcDbRegAppTableRecord
  2
GENIUS_GENOENT_13
 70
     0
  0
APPID
  5
ADE
330
9
100
AcDbSymbolTableRecord
100
AcDbRegAppTableRecord
  2
GENIUS_GENOBJ-N-TIT_13
 70
     0
  0
APPID
  5
ADF
330
9
100
AcDbSymbolTableRecord
100
AcDbRegAppTableRecord
  2
GENIUS_GENTITLE_13
 70
     0
  0
APPID
  5
AE0
330
9
100
AcDbSymbolTableRecord
100
AcDbRegAppTableRecord
  2
GENIUS_GENOREF_13
 70
     0
  0
APPID
  5
AE7
330
9
100
AcDbSymbolTableRecord
100
AcDbRegAppTableRecord
  2
GENIUS_GENSCREG_15
 70
     0
  0
APPID
  5
AE8
330
9
100
AcDbSymbolTableRecord
100
AcDbRegAppTableRecord
  2
GENIUS_GENOBJ-N-SDF_13
 70
     0
  0
APPID
  5
FAF
330
9
100
AcDbSymbolTableRecord
100
AcDbRegAppTableRecord
  2
GENIUS_GENBLLY_14
 70
     0
  0
APPID
  5
FB0
330
9
100
AcDbSymbolTableRecord
100
AcDbRegAppTableRecord
  2
GENIUS_GENTRA_14
 70
     0
  0
APPID
  5
1285
330
9
100
AcDbSymbolTableRecord
100
AcDbRegAppTableRecord
  2
GENIUS_GENDTOL_13
 70
     0
  0
APPID
  5
142D
330
9
100
AcDbSymbolTableRecord
100
AcDbRegAppTableRecord
  2
GENIUS_GENOBJ-N-CEN_13
 70
     0
  0
APPID
  5
1AB5
330
9
100
AcDbSymbolTableRecord
100
AcDbRegAppTableRecord
  2
GENIUS_GENOBJ-N-CRS_13
 70
     0
  0
APPID
  5
1B36
330
9
100
AcDbSymbolTableRecord
100
AcDbRegAppTableRecord
  2
GENIUS_GENOBJ-N-HTC_13
 70
     0
  0
APPID
  5
1B37
330
9
100
AcDbSymbolTableRecord
100
AcDbRegAppTableRecord
  2
GENIUS_GENHATCH_13
 70
     0
  0
APPID
  5
216D
330
9
100
AcDbSymbolTableRecord
100
AcDbRegAppTableRecord
  2
GENIUS_GENOBJ-N-FIL_13
 70
     0
  0
APPID
  5
2356
330
9
100
AcDbSymbolTableRecord
100
AcDbRegAppTableRecord
  2
GEVID990412420
 70
     0
  0
APPID
  5
2357
330
9
100
AcDbSymbolTableRecord
100
AcDbRegAppTableRecord
  2
GEVDC
 70
     0
  0
APPID
  5
2358
330
9
100
AcDbSymbolTableRecord
100
AcDbRegAppTableRecord
  2
GEVCON
 70
     0
  0
APPID
  5
235B
330
9
100
AcDbSymbolTableRecord
100
AcDbRegAppTableRecord
  2
GEVRADREF
 70
     0
  0
APPID
  5
2360
330
9
100
AcDbSymbolTableRecord
100
AcDbRegAppTableRecord
  2
GENIUS_GENBH_13
 70
     0
  0
APPID
  5
2362
330
9
100
AcDbSymbolTableRecord
100
AcDbRegAppTableRecord
  2
GENIUS_GENOBJ-NBEHI-BHF_13
 70
     0
  0
APPID
  5
2364
330
9
100
AcDbSymbolTableRecord
100
AcDbRegAppTableRecord
  2
GENIUS_GENOBJ-NBEHI-BHB_13
 70
     0
  0
APPID
  5
2379
330
9
100
AcDbSymbolTableRecord
100
AcDbRegAppTableRecord
  2
GENIUS_GENOBJ-F-SCPASSM_13
 70
     0
  0
APPID
  5
3D74
330
9
100
AcDbSymbolTableRecord
100
AcDbRegAppTableRecord
  2
GENIUS_GENDIM_13
 70
     0
  0
APPID
  5
3D76
330
9
100
AcDbSymbolTableRecord
100
AcDbRegAppTableRecord
  2
GENIUS_GE3DTOL_13
 70
     0
  0
APPID
  5
3D9C
330
9
100
AcDbSymbolTableRecord
100
AcDbRegAppTableRecord
  2
AD_DRAW
 70
     0
  0
APPID
  5
3DE8
330
9
100
AcDbSymbolTableRecord
100
AcDbRegAppTableRecord
  2
ASURF_PCURVE_APPNAME
 70
     0
  0
APPID
  5
3DED
330
9
100
AcDbSymbolTableRecord
100
AcDbRegAppTableRecord
  2
AMG_3D2D_5.0
 70
     0
  0
APPID
  5
3E1B
330
9
100
AcDbSymbolTableRecord
100
AcDbRegAppTableRecord
  2
DESIGNERASSEMBLIES
 70
     0
  0
APPID
  5
3E20
330
9
100
AcDbSymbolTableRecord
100
AcDbRegAppTableRecord
  2
ACADM_DIM_EDIT
 70
     0
  0
APPID
  5
3E21
330
9
100
AcDbSymbolTableRecord
100
AcDbRegAppTableRecord
  2
AMDT_DM_ADJ
 70
     0
  0
APPID
  5
4143
330
9
100
AcDbSymbolTableRecord
100
AcDbRegAppTableRecord
  2
GENIUS_GENFIL_13
 70
     0
  0
APPID
  5
4144
330
9
100
AcDbSymbolTableRecord
100
AcDbRegAppTableRecord
  2
GENIUS_GENOBJ-N-CHA_13
 70
     0
  0
APPID
  5
4E17
330
9
100
AcDbSymbolTableRecord
100
AcDbRegAppTableRecord
  2
GEVID1008153417
 70
     0
  0
APPID
  5
4E58
330
9
100
AcDbSymbolTableRecord
100
AcDbRegAppTableRecord
  2
GEVID1008153418
 70
     0
  0
APPID
  5
4E5E
330
9
100
AcDbSymbolTableRecord
100
AcDbRegAppTableRecord
  2
GEVID1008153419
 70
     0
  0
APPID
  5
4E64
330
9
100
AcDbSymbolTableRecord
100
AcDbRegAppTableRecord
  2
GEVID1008153420
 70
     0
  0
APPID
  5
4E75
330
9
100
AcDbSymbolTableRecord
100
AcDbRegAppTableRecord
  2
GEVID1008153421
 70
     0
  0
APPID
  5
4EB7
330
9
100
AcDbSymbolTableRecord
100
AcDbRegAppTableRecord
  2
GENIUS_AMGTXT_16
 70
     0
  0
APPID
  5
7645
330
9
100
AcDbSymbolTableRecord
100
AcDbRegAppTableRecord
  2
GENIUS_GENOBJ-N-DIM_13
 70
     0
  0
APPID
  5
AAD0
330
9
100
AcDbSymbolTableRecord
100
AcDbRegAppTableRecord
  2
ACAD_DSTYLE_DIMARC_LENGTH_SYMBOL
 70
     0
  0
APPID
  5
AAD1
330
9
100
AcDbSymbolTableRecord
100
AcDbRegAppTableRecord
  2
ACAD_DSTYLE_DIMJOGGED_JOGANGLE_SYMBOL
 70
     0
  0
APPID
  5
AAFD
330
9
100
AcDbSymbolTableRecord
100
AcDbRegAppTableRecord
  2
ACAD_PSEXT
 70
     0
  0
APPID
  5
AD61
330
9
100
AcDbSymbolTableRecord
100
AcDbRegAppTableRecord
  2
AcAecLayerStandard
 70
     0
  0
APPID
  5
AEE3
330
9
100
AcDbSymbolTableRecord
100
AcDbRegAppTableRecord
  2
ACAD_EXEMPT_FROM_CAD_STANDARDS
 70
     0
  0
APPID
  5
B1BE
330
9
100
AcDbSymbolTableRecord
100
AcDbRegAppTableRecord
  2
GENIUS_GENCEN_19
 70
     0
  0
APPID
  5
B4E1
330
9
100
AcDbSymbolTableRecord
100
AcDbRegAppTableRecord
  2
ACAD_MLEADERVER
 70
     0
  0
APPID
  5
C488
330
9
100
AcDbSymbolTableRecord
100
AcDbRegAppTableRecord
  2
ACAD_DSTYLE_DIMINSPECT
 70
     0
  0
APPID
  5
C489
330
9
100
AcDbSymbolTableRecord
100
AcDbRegAppTableRecord
  2
ACAD_DSTYLE_DIMRADIAL_EXTENSION
 70
     0
  0
APPID
  5
1980E
330
9
100
AcDbSymbolTableRecord
100
AcDbRegAppTableRecord
  2
GEVID1311583542
 70
     0
  0
APPID
  5
19825
330
9
100
AcDbSymbolTableRecord
100
AcDbRegAppTableRecord
  2
AMG_2DHIDE
 70
     0
  0
APPID
  5
19826
330
9
100
AcDbSymbolTableRecord
100
AcDbRegAppTableRecord
  2
AMG_2DSTRUCT_BTR
 70
     0
  0
APPID
  5
19837
330
9
100
AcDbSymbolTableRecord
100
AcDbRegAppTableRecord
  2
ACADM_2DVIEW_IGN_NOTIFY
 70
     0
  0
APPID
  5
1B56B
330
9
100
AcDbSymbolTableRecord
100
AcDbRegAppTableRecord
  2
GEVID1311583543
 70
     0
  0
APPID
  5
1B5F6
330
9
100
AcDbSymbolTableRecord
100
AcDbRegAppTableRecord
  2
GEVID1311583544
 70
     0
  0
APPID
  5
1B61B
330
9
100
AcDbSymbolTableRecord
100
AcDbRegAppTableRecord
  2
GEVID1311583545
 70
     0
  0
APPID
  5
1B63D
330
9
100
AcDbSymbolTableRecord
100
AcDbRegAppTableRecord
  2
GEVID1311583546
 70
     0
  0
APPID
  5
1B675
330
9
100
AcDbSymbolTableRecord
100
AcDbRegAppTableRecord
  2
GEVID1311583547
 70
     0
  0
ENDTAB
  0
TABLE
  2
DIMSTYLE
  5
A
330
0
100
AcDbSymbolTable
 70
    25
100
AcDbDimStyleTable
 71
     3
340
2515
340
251A
340
251B
  0
DIMSTYLE
105
A76
330
A
100
AcDbSymbolTableRecord
100
AcDbDimStyleTableRecord
  2
STANDARD
 70
     0
 41
3.0
 42
1.0
 43
7.0
 44
2.0
 73
     0
 74
     0
 77
     1
140
2.799999999999999
141
0.0
143
0.0394
147
0.7
171
     4
172
     1
173
     1
176
     3
177
     3
178
     2
271
     3
272
     3
273
     8
274
     4
289
     0
340
A74
341
A66
343
A66
344
A66
  0
DIMSTYLE
105
2515
330
A
100
AcDbSymbolTableRecord
100
AcDbDimStyleTableRecord
  2
SYS
 70
     0
  4
"
 41
1.0
 42
1.0
 43
10.0
 44
1.0
 47
0.1
 48
0.1
 73
     0
 74
     0
 77
     1
 78
     8
 79
     2
140
3.5
141
0.0
143
0.0393701
146
0.71
147
1.5
172
     1
176
   256
177
   256
178
     7
271
     2
272
     2
283
     0
284
     8
340
11
371
    -1
372
    -1
1001
ACAD_DSTYLE_DIMJOGGED_JOGANGLE_SYMBOL
1070
   384
1040
0.7853981633974483
1001
ACAD_DSTYLE_DIMARC_LENGTH_SYMBOL
1070
   379
1070
     1
  0
DIMSTYLE
105
2516
102
{ACAD_REACTORS
330
561AD
330
5621B
102
}
330
A
100
AcDbSymbolTableRecord
100
AcDbDimStyleTableRecord
  2
SYS$3
 70
     0
  4
"
 41
2.0
 42
1.0
 43
10.0
 44
1.0
 47
0.1
 48
0.1
 73
     0
 77
     1
 78
     8
 79
     2
140
3.2
141
0.0
143
0.0393701
146
0.71
147
1.0
176
   256
177
   256
178
     2
271
     2
272
     2
283
     0
284
     8
288
     1
340
11
342
A66
371
    -1
372
    -1
1001
ACAD_DSTYLE_DIMJOGGED_JOGANGLE_SYMBOL
1070
   384
1040
0.7853981633974483
1001
ACAD_DSTYLE_DIMARC_LENGTH_SYMBOL
1070
   379
1070
     1
  0
DIMSTYLE
105
2517
330
A
100
AcDbSymbolTableRecord
100
AcDbDimStyleTableRecord
  2
SYS$4
 70
     0
  4
"
 41
2.0
 42
1.0
 43
10.0
 44
1.0
 47
0.1
 48
0.1
 73
     0
 77
     1
 78
     8
 79
     2
140
3.2
141
0.0
143
0.0393701
146
0.71
147
1.0
173
     1
176
   256
177
   256
178
     2
271
     2
272
     2
283
     0
284
     8
288
     1
340
11
344
A66
371
    -1
372
    -1
1001
ACAD_DSTYLE_DIMJOGGED_JOGANGLE_SYMBOL
1070
   384
1040
0.7853981633974483
1001
ACAD_DSTYLE_DIMARC_LENGTH_SYMBOL
1070
   379
1070
     1
  0
DIMSTYLE
105
2518
330
A
100
AcDbSymbolTableRecord
100
AcDbDimStyleTableRecord
  2
SYS$6
 70
     0
  4
"
 41
2.0
 42
1.0
 43
10.0
 44
1.0
 47
0.1
 48
0.1
 73
     0
 74
     0
 78
     8
 79
     2
140
3.2
141
0.0
143
0.0393701
146
0.71
147
1.0
172
     1
176
   256
177
   256
178
     2
271
     2
272
     2
283
     0
284
     8
340
11
341
A66
371
    -1
372
    -1
1001
ACAD_DSTYLE_DIMJOGGED_JOGANGLE_SYMBOL
1070
   384
1040
0.7853981633974483
1001
ACAD_DSTYLE_DIMARC_LENGTH_SYMBOL
1070
   379
1070
     1
  0
DIMSTYLE
105
2519
330
A
100
AcDbSymbolTableRecord
100
AcDbDimStyleTableRecord
  2
SYS$7
 70
     0
  4
"
 41
2.0
 42
1.0
 43
10.0
 44
1.0
 47
0.1
 48
0.1
 73
     0
 74
     0
 77
     1
 78
     8
 79
     2
140
3.2
141
0.0
143
0.0393701
146
0.71
147
1.0
172
     1
176
   256
177
   256
178
     2
271
     2
272
     2
283
     0
284
     8
340
11
341
A66
342
A66
371
    -1
372
    -1
1001
ACAD_DSTYLE_DIMJOGGED_JOGANGLE_SYMBOL
1070
   384
1040
0.7853981633974483
1001
ACAD_DSTYLE_DIMARC_LENGTH_SYMBOL
1070
   379
1070
     1
  0
DIMSTYLE
105
251A
330
A
100
AcDbSymbolTableRecord
100
AcDbDimStyleTableRecord
  2
SYS$SF
 70
     0
  4
"
 41
2.5
 42
1.0
 43
10.0
 44
1.0
 47
0.1
 48
0.1
 73
     0
 74
     0
 75
     1
 76
     1
 77
     1
 78
     8
 79
     2
140
3.2
141
0.0
143
0.0393701
146
0.71
147
1.0
172
     1
176
   256
177
   256
178
     2
271
     2
272
     2
283
     0
284
     8
340
11
341
6C4
342
6C4
371
    -1
372
    -1
1001
ACAD_DSTYLE_DIMJOGGED_JOGANGLE_SYMBOL
1070
   384
1040
0.7853981633974483
1001
ACAD_DSTYLE_DIMARC_LENGTH_SYMBOL
1070
   379
1070
     1
  0
DIMSTYLE
105
251B
330
A
100
AcDbSymbolTableRecord
100
AcDbDimStyleTableRecord
  2
SYS$SH
 70
     0
  4
"
 41
2.5
 42
1.0
 43
10.0
 44
1.0
 47
0.1
 48
0.1
 73
     0
 74
     0
 75
     1
 76
     1
 77
     1
 78
     8
 79
     2
140
3.2
141
0.0
143
0.0393701
144
2.0
146
0.71
147
1.0
172
     1
173
     1
176
   256
177
   256
178
     2
271
     2
272
     2
283
     0
284
     8
340
11
341
6C4
343
72
344
6C4
371
    -1
372
    -1
1001
ACAD_DSTYLE_DIMJOGGED_JOGANGLE_SYMBOL
1070
   384
1040
0.7853981633974483
1001
ACAD_DSTYLE_DIMARC_LENGTH_SYMBOL
1070
   379
1070
     1
  0
DIMSTYLE
105
2A59
330
A
100
AcDbSymbolTableRecord
100
AcDbDimStyleTableRecord
  2
SYS$2
 70
     0
  4
"
 41
1.0
 42
1.0
 43
10.0
 44
1.0
 47
0.1
 48
0.1
 73
     0
 74
     0
 77
     1
 78
     8
 79
     2
140
3.2
141
0.0
143
0.0393701
146
0.71
147
1.0
172
     1
176
   256
177
   256
178
     2
271
     2
272
     2
283
     0
284
     8
340
11
342
6C4
371
    -1
372
    -1
1001
ACAD_DSTYLE_DIMJOGGED_JOGANGLE_SYMBOL
1070
   384
1040
0.7853981633974483
1001
ACAD_DSTYLE_DIMARC_LENGTH_SYMBOL
1070
   379
1070
     1
  0
DIMSTYLE
105
2AAB
102
{ACAD_REACTORS
330
55F0E
330
55F59
330
55F5A
330
55F5B
330
55F7F
330
55F80
330
55F86
330
55F87
330
55F89
330
55F8A
330
55F8B
330
55F8C
330
55F8D
330
55F8E
330
5B6ED
102
}
330
A
100
AcDbSymbolTableRecord
100
AcDbDimStyleTableRecord
  2
SYS$0
 70
     0
  4
"
 41
1.0
 42
1.0
 43
10.0
 44
1.0
 47
0.1
 48
0.1
 73
     0
 74
     0
 77
     1
 78
     8
 79
     2
140
3.200000000000001
141
0.0
143
0.0393701
146
0.71
147
1.0
172
     1
176
   256
177
   256
178
     2
271
     2
272
     2
283
     0
284
     8
340
11
341
A66
342
6C4
371
    -1
372
    -1
1001
ACAD_DSTYLE_DIMJOGGED_JOGANGLE_SYMBOL
1070
   384
1040
0.7853981633974483
1001
ACAD_DSTYLE_DIMARC_LENGTH_SYMBOL
1070
   379
1070
     1
  0
DIMSTYLE
105
AF99
330
A
100
AcDbSymbolTableRecord
100
AcDbDimStyleTableRecord
  2
AM_ISO
 70
     0
  4
"
 41
2.5
 42
1.0
 43
10.0
 44
1.0
 47
0.1
 48
0.1
 73
     0
 74
     0
 77
     1
 78
     8
 79
     2
140
3.5
141
0.0
143
0.0393701
146
0.71
147
1.5
172
     1
176
   256
177
   256
178
     2
271
     2
272
     3
274
     4
283
     0
284
     8
340
11
371
    -1
372
    -1
  0
DIMSTYLE
105
AF9A
330
A
100
AcDbSymbolTableRecord
100
AcDbDimStyleTableRecord
  2
AM_ISO$3
 70
     0
  4
"
 41
2.5
 42
1.0
 43
10.0
 44
1.0
 47
0.1
 48
0.1
 73
     0
 77
     1
 78
     8
 79
     2
140
3.5
141
0.0
143
0.0393701
146
0.71
147
1.5
176
   256
177
   256
178
     2
271
     2
272
     3
274
     4
283
     0
284
     8
288
     1
289
     0
340
11
371
    -1
372
    -1
  0
DIMSTYLE
105
AF9B
330
A
100
AcDbSymbolTableRecord
100
AcDbDimStyleTableRecord
  2
AM_ISO$4
 70
     0
  4
"
 41
2.5
 42
1.0
 43
10.0
 44
1.0
 47
0.1
 48
0.1
 73
     0
 77
     1
 78
     8
 79
     2
140
3.5
141
0.0
143
0.0393701
146
0.71
147
1.5
176
   256
177
   256
178
     2
271
     2
272
     3
274
     4
283
     0
284
     8
288
     1
289
     0
340
11
371
    -1
372
    -1
  0
DIMSTYLE
105
AF9C
330
A
100
AcDbSymbolTableRecord
100
AcDbDimStyleTableRecord
  2
AM_ISO$6
 70
     0
  4
"
 41
2.5
 42
1.0
 43
10.0
 44
1.0
 47
0.1
 48
0.1
 73
     0
 74
     0
 78
     8
 79
     2
140
3.5
141
0.0
143
0.0393701
146
0.71
147
1.5
172
     1
176
   256
177
   256
178
     2
271
     2
272
     3
274
     4
283
     0
284
     8
340
11
371
    -1
372
    -1
  0
DIMSTYLE
105
AF9D
330
A
100
AcDbSymbolTableRecord
100
AcDbDimStyleTableRecord
  2
AM_ISO$7
 70
     0
  4
"
 41
2.5
 42
1.0
 43
10.0
 44
1.0
 47
0.1
 48
0.1
 73
     0
 74
     0
 77
     1
 78
     8
 79
     2
140
5.0
141
0.0
143
0.0393701
146
0.71
147
1.5
172
     1
176
   256
177
   256
178
     2
271
     2
272
     3
274
     4
283
     0
284
     8
340
11
371
    -1
372
    -1
  0
DIMSTYLE
105
AF9E
330
A
100
AcDbSymbolTableRecord
100
AcDbDimStyleTableRecord
  2
AM_ISO$SF
 70
     0
  4
"
 41
2.5
 42
1.0
 43
10.0
 44
1.0
 47
0.1
 48
0.1
 73
     0
 74
     0
 75
     1
 76
     1
 77
     1
 78
     8
 79
     2
140
3.5
141
0.0
143
0.0393701
146
0.71
147
1.5
172
     1
176
   256
177
   256
178
     2
271
     2
272
     3
274
     4
283
     0
284
     8
340
11
371
    -1
372
    -1
  0
DIMSTYLE
105
AF9F
330
A
100
AcDbSymbolTableRecord
100
AcDbDimStyleTableRecord
  2
AM_ISO$SH
 70
     0
  4
"
 41
2.5
 42
1.0
 43
10.0
 44
1.0
 47
0.1
 48
0.1
 73
     0
 74
     0
 75
     1
 76
     1
 77
     1
 78
     8
 79
     2
140
3.5
141
0.0
143
0.0393701
144
2.0
146
0.71
147
1.5
172
     1
173
     1
176
   256
177
   256
178
     2
271
     2
272
     3
274
     4
283
     0
284
     8
340
11
343
72
371
    -1
372
    -1
  0
DIMSTYLE
105
B60C
330
A
100
AcDbSymbolTableRecord
100
AcDbDimStyleTableRecord
  2
AM_ANSI
 70
     0
  4
mm
 41
0.1
 42
0.05
 43
0.5
 44
0.1
 47
0.1
 48
0.1
 78
     7
 79
     2
140
0.12
141
0.0
146
0.71
147
0.06
176
   256
177
   256
178
     2
274
     4
284
     7
340
11
371
    -1
372
    -1
  0
DIMSTYLE
105
C485
330
A
100
AcDbSymbolTableRecord
100
AcDbDimStyleTableRecord
  2
AM_ISO$0
 70
     0
  4
"
 41
0.8
 42
1.0
 43
10.0
 44
1.0
 47
0.1
 48
0.1
 73
     0
 74
     0
 77
     1
 78
     8
 79
     2
140
3.2
141
0.0
143
0.0393701
146
0.71
147
0.9999999999999996
172
     1
176
   256
177
   256
178
     2
271
     2
272
     2
283
     0
284
     8
340
11
341
6C4
342
6C4
371
    -1
372
    -1
1001
ACAD_DSTYLE_DIMJOGGED_JOGANGLE_SYMBOL
1070
   384
1040
0.7853981633974483
1001
ACAD_DSTYLE_DIMARC_LENGTH_SYMBOL
1070
   379
1070
     1
  0
DIMSTYLE
105
C486
330
A
100
AcDbSymbolTableRecord
100
AcDbDimStyleTableRecord
  2
AM_ISO$2
 70
     0
  4
"
 41
0.8
 42
1.0
 43
10.0
 44
1.0
 47
0.1
 48
0.1
 73
     0
 74
     0
 77
     3
 78
     8
 79
     2
140
3.200000000000001
141
0.0
143
0.0393701
146
0.71
147
0.9999999999999996
172
     1
176
   256
177
   256
178
     2
271
     2
272
     2
283
     0
284
     8
340
11
342
6C4
371
    -1
372
    -1
1001
ACAD_DSTYLE_DIMJOGGED_JOGANGLE_SYMBOL
1070
   384
1040
0.7853981633974483
1001
ACAD_DSTYLE_DIMARC_LENGTH_SYMBOL
1070
   379
1070
     1
  0
DIMSTYLE
105
FD1A
330
A
100
AcDbSymbolTableRecord
100
AcDbDimStyleTableRecord
  2
AM_ANSI$3
 70
     0
  4
mm
 41
0.1
 42
0.05
 43
0.5
 44
0.1
 47
0.1
 48
0.1
 78
     7
 79
     2
140
0.12
141
0.0
146
0.71
147
0.06
176
   256
177
   256
178
     2
274
     4
284
     7
288
     1
289
     0
340
11
371
    -1
372
    -1
1001
ACAD_DSTYLE_DIMARC_LENGTH_SYMBOL
1070
   379
1070
     1
  0
DIMSTYLE
105
FD1B
330
A
100
AcDbSymbolTableRecord
100
AcDbDimStyleTableRecord
  2
AM_ANSI$4
 70
     0
  4
mm
 41
0.1
 42
0.05
 43
0.5
 44
0.1
 47
0.1
 48
0.1
 78
     7
 79
     2
140
0.12
141
0.0
146
0.71
147
0.06
176
   256
177
   256
178
     2
274
     4
284
     7
288
     1
289
     0
340
11
371
    -1
372
    -1
1001
ACAD_DSTYLE_DIMARC_LENGTH_SYMBOL
1070
   379
1070
     1
  0
DIMSTYLE
105
FD1C
330
A
100
AcDbSymbolTableRecord
100
AcDbDimStyleTableRecord
  2
AM_ANSI$7
 70
     0
  4
mm
 41
0.1
 42
0.05
 43
0.5
 44
0.1
 47
0.1
 48
0.1
 78
     7
 79
     2
140
0.24
141
0.0
146
0.71
147
0.06
176
   256
177
   256
178
     2
274
     4
284
     7
340
11
371
    -1
372
    -1
1001
ACAD_DSTYLE_DIMARC_LENGTH_SYMBOL
1070
   379
1070
     1
  0
DIMSTYLE
105
FD1D
330
A
100
AcDbSymbolTableRecord
100
AcDbDimStyleTableRecord
  2
AM_ANSI$SF
 70
     0
  4
mm
 41
0.1
 42
0.05
 43
0.5
 44
0.1
 47
0.1
 48
0.1
 75
     1
 76
     1
 78
     7
 79
     2
140
0.12
141
0.0
146
0.71
147
0.06
176
   256
177
   256
178
     2
274
     4
284
     7
340
11
371
    -1
372
    -1
1001
ACAD_DSTYLE_DIMARC_LENGTH_SYMBOL
1070
   379
1070
     1
  0
DIMSTYLE
105
FD1E
330
A
100
AcDbSymbolTableRecord
100
AcDbDimStyleTableRecord
  2
AM_ANSI$SH
 70
     0
  4
mm
 41
0.1
 42
0.05
 43
0.5
 44
0.1
 47
0.1
 48
0.1
 75
     1
 76
     1
 78
     7
 79
     2
140
0.12
141
0.0
146
0.71
147
0.06
173
     1
176
   256
177
   256
178
     2
274
     4
284
     7
340
11
343
72
371
    -1
372
    -1
1001
ACAD_DSTYLE_DIMARC_LENGTH_SYMBOL
1070
   379
1070
     1
  0
ENDTAB
  0
TABLE
  2
BLOCK_RECORD
  5
1
330
0
100
AcDbSymbolTable
 70
    24
  0
BLOCK_RECORD
  5
1F
102
{ACAD_XDICTIONARY
360
8A
102
}
330
1
100
AcDbSymbolTableRecord
100
AcDbBlockTableRecord
  2
*Model_Space
340
22
  0
BLOCK_RECORD
  5
1B
330
1
100
AcDbSymbolTableRecord
100
AcDbBlockTableRecord
  2
*Paper_Space
340
1E
  0
BLOCK_RECORD
  5
23
330
1
100
AcDbSymbolTableRecord
100
AcDbBlockTableRecord
  2
*Paper_Space0
340
26
  0
BLOCK_RECORD
  5
72
330
1
100
AcDbSymbolTableRecord
100
AcDbBlockTableRecord
  2
GENAXEH
340
0
  0
BLOCK_RECORD
  5
6C4
330
1
100
AcDbSymbolTableRecord
100
AcDbBlockTableRecord
  2
_Dot
340
0
102
{BLKREFS
331
560FF
331
56100
331
56142
331
56143
331
56155
331
56156
331
5620D
331
5620E
331
56236
331
56237
331
563B7
331
563B8
331
563C0
331
563C1
331
563D4
331
563D5
331
5B2C6
331
5B2C7
331
5B41D
331
5B41E
331
5B432
331
5B433
331
5B43B
331
5B43C
331
5B445
331
5B446
331
5B453
331
5B454
331
5B6D9
331
5B6DA
331
5B6E4
331
5B6E5
331
5B70C
331
5B70D
102
}
  0
BLOCK_RECORD
  5
A66
330
1
100
AcDbSymbolTableRecord
100
AcDbBlockTableRecord
  2
_OPEN30
340
0
  0
BLOCK_RECORD
  5
55FFF
330
1
100
AcDbSymbolTableRecord
100
AcDbBlockTableRecord
  2
*D7
340
0
  0
BLOCK_RECORD
  5
5600B
330
1
100
AcDbSymbolTableRecord
100
AcDbBlockTableRecord
  2
*D8
340
0
  0
BLOCK_RECORD
  5
56017
330
1
100
AcDbSymbolTableRecord
100
AcDbBlockTableRecord
  2
*D9
340
0
  0
BLOCK_RECORD
  5
56023
330
1
100
AcDbSymbolTableRecord
100
AcDbBlockTableRecord
  2
*D10
340
0
  0
BLOCK_RECORD
  5
5602F
330
1
100
AcDbSymbolTableRecord
100
AcDbBlockTableRecord
  2
*D11
340
0
  0
BLOCK_RECORD
  5
5603D
330
1
100
AcDbSymbolTableRecord
100
AcDbBlockTableRecord
  2
*D12
340
0
  0
BLOCK_RECORD
  5
56049
330
1
100
AcDbSymbolTableRecord
100
AcDbBlockTableRecord
  2
*D13
340
0
  0
BLOCK_RECORD
  5
56057
330
1
100
AcDbSymbolTableRecord
100
AcDbBlockTableRecord
  2
*D14
340
0
  0
BLOCK_RECORD
  5
5606F
330
1
100
AcDbSymbolTableRecord
100
AcDbBlockTableRecord
  2
*D15
340
0
  0
BLOCK_RECORD
  5
5607B
330
1
100
AcDbSymbolTableRecord
100
AcDbBlockTableRecord
  2
*D16
340
0
  0
BLOCK_RECORD
  5
56087
330
1
100
AcDbSymbolTableRecord
100
AcDbBlockTableRecord
  2
*D17
340
0
  0
BLOCK_RECORD
  5
56094
330
1
100
AcDbSymbolTableRecord
100
AcDbBlockTableRecord
  2
*D18
340
0
  0
BLOCK_RECORD
  5
560A0
330
1
100
AcDbSymbolTableRecord
100
AcDbBlockTableRecord
  2
*D19
340
0
  0
BLOCK_RECORD
  5
560AC
330
1
100
AcDbSymbolTableRecord
100
AcDbBlockTableRecord
  2
*D20
340
0
  0
BLOCK_RECORD
  5
561AE
330
1
100
AcDbSymbolTableRecord
100
AcDbBlockTableRecord
  2
*D21
340
0
  0
BLOCK_RECORD
  5
5621C
330
1
100
AcDbSymbolTableRecord
100
AcDbBlockTableRecord
  2
*D22
340
0
  0
BLOCK_RECORD
  5
5B6EE
330
1
100
AcDbSymbolTableRecord
100
AcDbBlockTableRecord
  2
*D23
340
0
  0
ENDTAB
  0
ENDSEC
  0
SECTION
  2
BLOCKS
  0
BLOCK
  5
20
330
1F
100
AcDbEntity
  8
0
100
AcDbBlockBegin
  2
*Model_Space
 70
     0
 10
0.0
 20
0.0
 30
0.0
  3
*Model_Space
  1

  0
ENDBLK
  5
21
330
1F
100
AcDbEntity
  8
0
100
AcDbBlockEnd
  0
BLOCK
  5
1C
330
1B
100
AcDbEntity
 67
     1
  8
0
100
AcDbBlockBegin
  2
*Paper_Space
 70
     0
 10
0.0
 20
0.0
 30
0.0
  3
*Paper_Space
  1

  0
ENDBLK
  5
1D
330
1B
100
AcDbEntity
 67
     1
  8
0
100
AcDbBlockEnd
  0
BLOCK
  5
24
330
23
100
AcDbEntity
 67
     1
  8
0
100
AcDbBlockBegin
  2
*Paper_Space0
 70
     0
 10
0.0
 20
0.0
 30
0.0
  3
*Paper_Space0
  1

  0
ENDBLK
  5
25
330
23
100
AcDbEntity
 67
     1
  8
0
100
AcDbBlockEnd
  0
BLOCK
  5
74
330
72
100
AcDbEntity
  8
0
100
AcDbBlockBegin
  2
GENAXEH
 70
     0
 10
0.0
 20
0.0
 30
0.0
  3
GENAXEH
  1

  0
LINE
  5
73
330
72
100
AcDbEntity
  8
0
100
AcDbLine
 10
-1.0
 20
0.0
 30
0.0
 11
1.0
 21
0.0
 31
0.0
  0
ENDBLK
  5
75
330
72
100
AcDbEntity
  8
0
100
AcDbBlockEnd
  0
BLOCK
  5
6C7
330
6C4
100
AcDbEntity
  8
0
100
AcDbBlockBegin
  2
_Dot
 70
     0
 10
0.0
 20
0.0
 30
0.0
  3
_Dot
  1

  0
LWPOLYLINE
  5
6C5
330
6C4
100
AcDbEntity
  8
0
  6
ByBlock
 62
     0
100
AcDbPolyline
 90
        2
 70
     1
 43
0.5
 10
-0.25
 20
0.0
 42
1.0
 10
0.25
 20
0.0
 42
1.0
  0
LINE
  5
6C6
330
6C4
100
AcDbEntity
  8
0
  6
ByBlock
 62
     0
370
    -2
100
AcDbLine
 10
-0.5
 20
0.0
 30
0.0
 11
-1.0
 21
0.0
 31
0.0
  0
ENDBLK
  5
6C8
330
6C4
100
AcDbEntity
  8
0
100
AcDbBlockEnd
  0
BLOCK
  5
A6A
330
A66
100
AcDbEntity
  8
0
100
AcDbBlockBegin
  2
_OPEN30
 70
     0
 10
0.0
 20
0.0
 30
0.0
  3
_OPEN30
  1

  0
LINE
  5
A67
330
A66
100
AcDbEntity
  8
0
  6
ByBlock
 62
     0
100
AcDbLine
 10
-1.0
 20
0.26794919
 30
0.0
 11
0.0
 21
0.0
 31
0.0
  0
LINE
  5
A68
330
A66
100
AcDbEntity
  8
0
  6
ByBlock
 62
     0
100
AcDbLine
 10
0.0
 20
0.0
 30
0.0
 11
-1.0
 21
-0.26794919
 31
0.0
  0
LINE
  5
A69
330
A66
100
AcDbEntity
  8
0
  6
ByBlock
 62
     0
100
AcDbLine
 10
0.0
 20
0.0
 30
0.0
 11
-1.0
 21
0.0
 31
0.0
  0
ENDBLK
  5
A6B
330
A66
100
AcDbEntity
  8
0
100
AcDbBlockEnd
  0
BLOCK
  5
56009
330
55FFF
100
AcDbEntity
  8
0
100
AcDbBlockBegin
  2
*D7
 70
     1
 10
0.0
 20
0.0
 30
0.0
  3
*D7
  1

  0
LINE
  5
5B438
330
55FFF
100
AcDbEntity
  8
AM_5
100
AcDbLine
 10
6244.898178584268
 20
-1563.203746872434
 30
0.0
 11
6255.940335969482
 21
-1563.203746872434
 31
0.0
  0
LINE
  5
5B439
330
55FFF
100
AcDbEntity
  8
AM_5
100
AcDbLine
 10
6244.898178584268
 20
-1577.403746872434
 30
0.0
 11
6255.940335969482
 21
-1577.403746872434
 31
0.0
  0
LINE
  5
5B43A
330
55FFF
100
AcDbEntity
  8
AM_5
100
AcDbLine
 10
6254.940335969481
 20
-1564.203746872434
 30
0.0
 11
6254.940335969481
 21
-1576.403746872434
 31
0.0
  0
INSERT
  5
5B43B
330
55FFF
100
AcDbEntity
  8
AM_5
100
AcDbBlockReference
  2
_Dot
 10
6254.940335969481
 20
-1563.203746872434
 30
0.0
 50
90.0
  0
INSERT
  5
5B43C
330
55FFF
100
AcDbEntity
  8
AM_5
100
AcDbBlockReference
  2
_Dot
 10
6254.940335969481
 20
-1577.403746872434
 30
0.0
 50
270.0
  0
MTEXT
  5
5B43D
330
55FFF
100
AcDbEntity
  8
AM_5
 62
     2
100
AcDbMText
 10
6252.340335969481
 20
-1570.303746872433
 30
0.0
 40
3.200000000000001
 41
0.0
 71
     5
 72
     1
  1
14.2
 11
0.0000000000000001
 21
1.0
 31
0.0
 73
     1
 44
1.0
1001
ACAD
1000
MTEXTBEGIN
1070
    73
1070
     1
1070
    44
1040
1.0
1070
    74
1070
     0
1000
MTEXTEND
  0
POINT
  5
5B43E
330
55FFF
100
AcDbEntity
  8
Defpoints
 62
     0
100
AcDbPoint
 10
6243.898178584267
 20
-1563.203746872434
 30
0.0
  0
POINT
  5
5B43F
330
55FFF
100
AcDbEntity
  8
Defpoints
 62
     0
100
AcDbPoint
 10
6243.898178584267
 20
-1577.403746872434
 30
0.0
  0
POINT
  5
5B440
330
55FFF
100
AcDbEntity
  8
Defpoints
 62
     0
100
AcDbPoint
 10
6254.940335969481
 20
-1577.403746872434
 30
0.0
  0
ENDBLK
  5
5600A
330
55FFF
100
AcDbEntity
  8
0
100
AcDbBlockEnd
  0
BLOCK
  5
56015
330
5600B
100
AcDbEntity
  8
0
100
AcDbBlockBegin
  2
*D8
 70
     1
 10
0.0
 20
0.0
 30
0.0
  3
*D8
  1

  0
LINE
  5
5B2C3
330
5600B
100
AcDbEntity
  8
AM_5
100
AcDbLine
 10
6202.29903894207
 20
-1559.203746872434
 30
0.0
 11
6190.76522425469
 21
-1559.203746872434
 31
0.0
  0
LINE
  5
5B2C4
330
5600B
100
AcDbEntity
  8
AM_5
100
AcDbLine
 10
6202.353543179894
 20
-1581.403746872433
 30
0.0
 11
6190.76522425469
 21
-1581.403746872433
 31
0.0
  0
LINE
  5
5B2C5
330
5600B
100
AcDbEntity
  8
AM_5
100
AcDbLine
 10
6191.765224254689
 20
-1560.203746872433
 30
0.0
 11
6191.765224254689
 21
-1580.403746872433
 31
0.0
  0
INSERT
  5
5B2C6
330
5600B
100
AcDbEntity
  8
AM_5
100
AcDbBlockReference
  2
_Dot
 10
6191.765224254689
 20
-1559.203746872434
 30
0.0
 50
90.0
  0
INSERT
  5
5B2C7
330
5600B
100
AcDbEntity
  8
AM_5
100
AcDbBlockReference
  2
_Dot
 10
6191.765224254689
 20
-1581.403746872433
 30
0.0
 50
270.0
  0
MTEXT
  5
5B2C8
330
5600B
100
AcDbEntity
  8
AM_5
 62
     2
100
AcDbMText
 10
6189.165224254689
 20
-1570.303746872433
 30
0.0
 40
3.200000000000001
 41
0.0
 71
     5
 72
     1
  1
22.2
 11
0.0000000000000001
 21
1.0
 31
0.0
 73
     1
 44
1.0
1001
ACAD
1000
MTEXTBEGIN
1070
    73
1070
     1
1070
    44
1040
1.0
1070
    74
1070
     0
1000
MTEXTEND
  0
POINT
  5
5B2C9
330
5600B
100
AcDbEntity
  8
Defpoints
 62
     0
100
AcDbPoint
 10
6203.29903894207
 20
-1559.203746872434
 30
0.0
  0
POINT
  5
5B2CA
330
5600B
100
AcDbEntity
  8
Defpoints
 62
     0
100
AcDbPoint
 10
6203.353543179893
 20
-1581.403746872433
 30
0.0
  0
POINT
  5
5B2CB
330
5600B
100
AcDbEntity
  8
Defpoints
 62
     0
100
AcDbPoint
 10
6191.765224254689
 20
-1581.403746872433
 30
0.0
  0
ENDBLK
  5
56016
330
5600B
100
AcDbEntity
  8
0
100
AcDbBlockEnd
  0
BLOCK
  5
56021
330
56017
100
AcDbEntity
  8
0
100
AcDbBlockBegin
  2
*D9
 70
     1
 10
0.0
 20
0.0
 30
0.0
  3
*D9
  1

  0
LINE
  5
560FC
330
56017
100
AcDbEntity
  8
AM_5
100
AcDbLine
 10
6199.765224254689
 20
-1569.303746872433
 30
0.0
 11
6199.765224254689
 21
-1550.303746872433
 31
0.0
  0
LINE
  5
560FD
330
56017
100
AcDbEntity
  8
AM_5
100
AcDbLine
 10
6213.265224254691
 20
-1560.053746872432
 30
0.0
 11
6213.265224254691
 21
-1550.303746872433
 31
0.0
  0
LINE
  5
560FE
330
56017
100
AcDbEntity
  8
AM_5
100
AcDbLine
 10
6200.76522425469
 20
-1551.303746872433
 30
0.0
 11
6212.26522425469
 21
-1551.303746872433
 31
0.0
  0
INSERT
  5
560FF
330
56017
100
AcDbEntity
  8
AM_5
100
AcDbBlockReference
  2
_Dot
 10
6199.765224254689
 20
-1551.303746872433
 30
0.0
 50
180.0
  0
INSERT
  5
56100
330
56017
100
AcDbEntity
  8
AM_5
100
AcDbBlockReference
  2
_Dot
 10
6213.265224254691
 20
-1551.303746872433
 30
0.0
  0
MTEXT
  5
56101
330
56017
100
AcDbEntity
  8
AM_5
 62
     2
100
AcDbMText
 10
6206.51522425469
 20
-1548.703746872434
 30
0.0
 40
3.200000000000001
 41
0.0
 71
     5
 72
     1
  1
（13.5）
 73
     1
 44
1.0
1001
ACAD
1000
MTEXTBEGIN
1070
    73
1070
     1
1070
    44
1040
1.0
1070
    74
1070
     0
1000
MTEXTEND
  0
POINT
  5
56102
330
56017
100
AcDbEntity
  8
Defpoints
 62
     0
100
AcDbPoint
 10
6199.765224254689
 20
-1570.303746872433
 30
0.0
  0
POINT
  5
56103
330
56017
100
AcDbEntity
  8
Defpoints
 62
     0
100
AcDbPoint
 10
6213.265224254691
 20
-1561.053746872432
 30
0.0
  0
POINT
  5
56104
330
56017
100
AcDbEntity
  8
Defpoints
 62
     0
100
AcDbPoint
 10
6213.265224254691
 20
-1551.303746872433
 30
0.0
  0
ENDBLK
  5
56022
330
56017
100
AcDbEntity
  8
0
100
AcDbBlockEnd
  0
BLOCK
  5
5602D
330
56023
100
AcDbEntity
  8
0
100
AcDbBlockBegin
  2
*D10
 70
     1
 10
0.0
 20
0.0
 30
0.0
  3
*D10
  1

  0
LINE
  5
5B42F
330
56023
100
AcDbEntity
  8
AM_5
100
AcDbLine
 10
6224.937468524744
 20
-1559.80372113573
 30
0.0
 11
6263.940335969482
 21
-1559.80372113573
 31
0.0
  0
LINE
  5
5B430
330
56023
100
AcDbEntity
  8
AM_5
100
AcDbLine
 10
6224.937467725501
 20
-1580.8036522908
 30
0.0
 11
6263.940335969482
 21
-1580.8036522908
 31
0.0
  0
LINE
  5
5B431
330
56023
100
AcDbEntity
  8
AM_5
100
AcDbLine
 10
6262.940335969481
 20
-1560.80372113573
 30
0.0
 11
6262.940335969481
 21
-1579.8036522908
 31
0.0
  0
INSERT
  5
5B432
330
56023
100
AcDbEntity
  8
AM_5
100
AcDbBlockReference
  2
_Dot
 10
6262.940335969481
 20
-1559.80372113573
 30
0.0
 50
90.0
  0
INSERT
  5
5B433
330
56023
100
AcDbEntity
  8
AM_5
100
AcDbBlockReference
  2
_Dot
 10
6262.940335969481
 20
-1580.8036522908
 30
0.0
 50
270.0
  0
MTEXT
  5
5B434
330
56023
100
AcDbEntity
  8
AM_5
 62
     2
100
AcDbMText
 10
6260.340335969481
 20
-1570.303686713265
 30
0.0
 40
3.200000000000001
 41
0.0
 71
     5
 72
     1
  1
（21）
 11
0.0000000000000001
 21
1.0
 31
0.0
 73
     1
 44
1.0
1001
ACAD
1000
MTEXTBEGIN
1070
    73
1070
     1
1070
    44
1040
1.0
1070
    74
1070
     0
1000
MTEXTEND
  0
POINT
  5
5B435
330
56023
100
AcDbEntity
  8
Defpoints
 62
     0
100
AcDbPoint
 10
6223.937468524744
 20
-1559.80372113573
 30
0.0
  0
POINT
  5
5B436
330
56023
100
AcDbEntity
  8
Defpoints
 62
     0
100
AcDbPoint
 10
6223.937467725501
 20
-1580.8036522908
 30
0.0
  0
POINT
  5
5B437
330
56023
100
AcDbEntity
  8
Defpoints
 62
     0
100
AcDbPoint
 10
6262.940335969481
 20
-1580.8036522908
 30
0.0
  0
ENDBLK
  5
5602E
330
56023
100
AcDbEntity
  8
0
100
AcDbBlockEnd
  0
BLOCK
  5
5603B
330
5602F
100
AcDbEntity
  8
0
100
AcDbBlockBegin
  2
*D11
 70
     1
 10
0.0
 20
0.0
 30
0.0
  3
*D11
  1

  0
LINE
  5
563CF
330
5602F
100
AcDbEntity
  8
AM_5
100
AcDbLine
 10
6245.265224254691
 20
-1609.781478341907
 30
0.0
 11
6256.440335969482
 21
-1609.781478341907
 31
0.0
  0
LINE
  5
563D0
330
5602F
100
AcDbEntity
  8
AM_5
100
AcDbLine
 10
6245.265224254691
 20
-1610.781478341907
 30
0.0
 11
6256.440335969482
 21
-1610.781478341907
 31
0.0
  0
LINE
  5
563D1
330
5602F
100
AcDbEntity
  8
AM_5
100
AcDbLine
 10
6255.440335969481
 20
-1608.781478341908
 30
0.0
 11
6255.440335969481
 21
-1607.781478341907
 31
0.0
  0
LINE
  5
563D2
330
5602F
100
AcDbEntity
  8
AM_5
100
AcDbLine
 10
6255.440335969481
 20
-1611.781478341907
 30
0.0
 11
6255.440335969481
 21
-1615.314811675241
 31
0.0
  0
LINE
  5
563D3
330
5602F
100
AcDbEntity
  8
AM_5
100
AcDbLine
 10
6255.440335969481
 20
-1609.781478341907
 30
0.0
 11
6255.440335969481
 21
-1610.781478341907
 31
0.0
  0
INSERT
  5
563D4
330
5602F
100
AcDbEntity
  8
AM_5
100
AcDbBlockReference
  2
_Dot
 10
6255.440335969481
 20
-1609.781478341907
 30
0.0
 50
270.0
  0
INSERT
  5
563D5
330
5602F
100
AcDbEntity
  8
AM_5
100
AcDbBlockReference
  2
_Dot
 10
6255.440335969481
 20
-1610.781478341907
 30
0.0
 50
90.0
  0
MTEXT
  5
563D6
330
5602F
100
AcDbEntity
  8
AM_5
 62
     2
100
AcDbMText
 10
6252.840335969481
 20
-1614.048145008573
 30
0.0
 40
3.200000000000001
 41
0.0
 71
     5
 72
     1
  1
1
 11
0.0000000000000001
 21
1.0
 31
0.0
 73
     1
 44
1.0
1001
ACAD
1000
MTEXTBEGIN
1070
    73
1070
     1
1070
    44
1040
1.0
1070
    74
1070
     0
1000
MTEXTEND
  0
POINT
  5
563D7
330
5602F
100
AcDbEntity
  8
Defpoints
 62
     0
100
AcDbPoint
 10
6244.26522425469
 20
-1609.781478341907
 30
0.0
  0
POINT
  5
563D8
330
5602F
100
AcDbEntity
  8
Defpoints
 62
     0
100
AcDbPoint
 10
6244.26522425469
 20
-1610.781478341907
 30
0.0
  0
POINT
  5
563D9
330
5602F
100
AcDbEntity
  8
Defpoints
 62
     0
100
AcDbPoint
 10
6255.440335969481
 20
-1610.781478341907
 30
0.0
  0
ENDBLK
  5
5603C
330
5602F
100
AcDbEntity
  8
0
100
AcDbBlockEnd
  0
BLOCK
  5
56047
330
5603D
100
AcDbEntity
  8
0
100
AcDbBlockBegin
  2
*D12
 70
     1
 10
0.0
 20
0.0
 30
0.0
  3
*D12
  1

  0
LINE
  5
5B450
330
5603D
100
AcDbEntity
  8
AM_5
100
AcDbLine
 10
6245.265224254691
 20
-1610.781478341907
 30
0.0
 11
6264.440335969482
 21
-1610.781478341907
 31
0.0
  0
LINE
  5
5B451
330
5603D
100
AcDbEntity
  8
AM_5
100
AcDbLine
 10
6222.445669022382
 20
-1601.93460863357
 30
0.0
 11
6264.440335969482
 21
-1601.93460863357
 31
0.0
  0
LINE
  5
5B452
330
5603D
100
AcDbEntity
  8
AM_5
100
AcDbLine
 10
6263.440335969481
 20
-1609.781478341907
 30
0.0
 11
6263.440335969481
 21
-1602.93460863357
 31
0.0
  0
INSERT
  5
5B453
330
5603D
100
AcDbEntity
  8
AM_5
100
AcDbBlockReference
  2
_Dot
 10
6263.440335969481
 20
-1610.781478341907
 30
0.0
 50
270.0
  0
INSERT
  5
5B454
330
5603D
100
AcDbEntity
  8
AM_5
100
AcDbBlockReference
  2
_Dot
 10
6263.440335969481
 20
-1601.93460863357
 30
0.0
 50
90.0
  0
MTEXT
  5
5B455
330
5603D
100
AcDbEntity
  8
AM_5
 62
     2
100
AcDbMText
 10
6260.840335969481
 20
-1606.454851569129
 30
0.0
 40
3.200000000000001
 41
0.0
 71
     5
 72
     1
  1
（9）
 11
0.0000000000000001
 21
1.0
 31
0.0
 73
     1
 44
1.0
1001
ACAD
1000
MTEXTBEGIN
1070
    73
1070
     1
1070
    44
1040
1.0
1070
    74
1070
     0
1000
MTEXTEND
  0
POINT
  5
5B456
330
5603D
100
AcDbEntity
  8
Defpoints
 62
     0
100
AcDbPoint
 10
6244.26522425469
 20
-1610.781478341907
 30
0.0
  0
POINT
  5
5B457
330
5603D
100
AcDbEntity
  8
Defpoints
 62
     0
100
AcDbPoint
 10
6221.445669022383
 20
-1601.93460863357
 30
0.0
  0
POINT
  5
5B458
330
5603D
100
AcDbEntity
  8
Defpoints
 62
     0
100
AcDbPoint
 10
6263.440335969481
 20
-1601.93460863357
 30
0.0
  0
ENDBLK
  5
56048
330
5603D
100
AcDbEntity
  8
0
100
AcDbBlockEnd
  0
BLOCK
  5
56055
330
56049
100
AcDbEntity
  8
0
100
AcDbBlockBegin
  2
*D13
 70
     1
 10
0.0
 20
0.0
 30
0.0
  3
*D13
  1

  0
LINE
  5
5B6DF
330
56049
100
AcDbEntity
  8
AM_5
100
AcDbLine
 10
6198.765224254689
 20
-1610.781478341907
 30
0.0
 11
6190.76522425469
 21
-1610.781478341907
 31
0.0
  0
LINE
  5
5B6E0
330
56049
100
AcDbEntity
  8
AM_5
100
AcDbLine
 10
6198.76522425469
 20
-1609.781478341907
 30
0.0
 11
6190.76522425469
 21
-1609.781478341907
 31
0.0
  0
LINE
  5
5B6E1
330
56049
100
AcDbEntity
  8
AM_5
100
AcDbLine
 10
6191.765224254689
 20
-1608.781478341907
 30
0.0
 11
6191.765224254689
 21
-1607.781478341907
 31
0.0
  0
LINE
  5
5B6E2
330
56049
100
AcDbEntity
  8
AM_5
100
AcDbLine
 10
6191.765224254689
 20
-1611.781478341907
 30
0.0
 11
6191.765224254689
 21
-1615.314811675241
 31
0.0
  0
LINE
  5
5B6E3
330
56049
100
AcDbEntity
  8
AM_5
100
AcDbLine
 10
6191.765224254689
 20
-1609.781478341907
 30
0.0
 11
6191.765224254689
 21
-1610.781478341907
 31
0.0
  0
INSERT
  5
5B6E4
330
56049
100
AcDbEntity
  8
AM_5
100
AcDbBlockReference
  2
_Dot
 10
6191.765224254689
 20
-1609.781478341907
 30
0.0
 50
270.0
  0
INSERT
  5
5B6E5
330
56049
100
AcDbEntity
  8
AM_5
100
AcDbBlockReference
  2
_Dot
 10
6191.765224254689
 20
-1610.781478341907
 30
0.0
 50
90.0
  0
MTEXT
  5
5B6E6
330
56049
100
AcDbEntity
  8
AM_5
 62
     2
100
AcDbMText
 10
6189.165224254689
 20
-1614.048145008573
 30
0.0
 40
3.200000000000001
 41
0.0
 71
     5
 72
     1
  1
1
 11
0.0000000000000001
 21
1.0
 31
0.0
 73
     1
 44
1.0
1001
ACAD
1000
MTEXTBEGIN
1070
    73
1070
     1
1070
    44
1040
1.0
1070
    74
1070
     0
1000
MTEXTEND
  0
POINT
  5
5B6E7
330
56049
100
AcDbEntity
  8
Defpoints
 62
     0
100
AcDbPoint
 10
6199.765224254689
 20
-1610.781478341907
 30
0.0
  0
POINT
  5
5B6E8
330
56049
100
AcDbEntity
  8
Defpoints
 62
     0
100
AcDbPoint
 10
6199.76522425469
 20
-1609.781478341907
 30
0.0
  0
POINT
  5
5B6E9
330
56049
100
AcDbEntity
  8
Defpoints
 62
     0
100
AcDbPoint
 10
6191.765224254689
 20
-1609.781478341907
 30
0.0
  0
ENDBLK
  5
56056
330
56049
100
AcDbEntity
  8
0
100
AcDbBlockEnd
  0
BLOCK
  5
56061
330
56057
100
AcDbEntity
  8
0
100
AcDbBlockBegin
  2
*D14
 70
     1
 10
0.0
 20
0.0
 30
0.0
  3
*D14
  1

  0
LINE
  5
5B6D6
330
56057
100
AcDbEntity
  8
AM_5
100
AcDbLine
 10
6209.312988853525
 20
-1604.281478341907
 30
0.0
 11
6182.76522425469
 21
-1604.281478341907
 31
0.0
  0
LINE
  5
5B6D7
330
56057
100
AcDbEntity
  8
AM_5
100
AcDbLine
 10
6198.765224254689
 20
-1610.781478341907
 30
0.0
 11
6182.76522425469
 21
-1610.781478341907
 31
0.0
  0
LINE
  5
5B6D8
330
56057
100
AcDbEntity
  8
AM_5
100
AcDbLine
 10
6183.765224254689
 20
-1605.281478341908
 30
0.0
 11
6183.765224254689
 21
-1609.781478341907
 31
0.0
  0
INSERT
  5
5B6D9
330
56057
100
AcDbEntity
  8
AM_5
100
AcDbBlockReference
  2
_Dot
 10
6183.765224254689
 20
-1604.281478341907
 30
0.0
 50
90.0
  0
INSERT
  5
5B6DA
330
56057
100
AcDbEntity
  8
AM_5
100
AcDbBlockReference
  2
_Dot
 10
6183.765224254689
 20
-1610.781478341907
 30
0.0
 50
270.0
  0
MTEXT
  5
5B6DB
330
56057
100
AcDbEntity
  8
AM_5
 62
     2
100
AcDbMText
 10
6181.165224254689
 20
-1607.359490157393
 30
0.0
 40
3.200000000000001
 41
0.0
 71
     5
 72
     1
  1
6.5
 11
0.0000000000000001
 21
1.0
 31
0.0
 73
     1
 44
1.0
1001
ACAD
1000
MTEXTBEGIN
1070
    73
1070
     1
1070
    44
1040
1.0
1070
    74
1070
     0
1000
MTEXTEND
  0
POINT
  5
5B6DC
330
56057
100
AcDbEntity
  8
Defpoints
 62
     0
100
AcDbPoint
 10
6210.312988853526
 20
-1604.281478341907
 30
0.0
  0
POINT
  5
5B6DD
330
56057
100
AcDbEntity
  8
Defpoints
 62
     0
100
AcDbPoint
 10
6199.765224254689
 20
-1610.781478341907
 30
0.0
  0
POINT
  5
5B6DE
330
56057
100
AcDbEntity
  8
Defpoints
 62
     0
100
AcDbPoint
 10
6183.765224254689
 20
-1610.781478341907
 30
0.0
  0
ENDBLK
  5
56062
330
56057
100
AcDbEntity
  8
0
100
AcDbBlockEnd
  0
BLOCK
  5
56079
330
5606F
100
AcDbEntity
  8
0
100
AcDbBlockBegin
  2
*D15
 70
     1
 10
0.0
 20
0.0
 30
0.0
  3
*D15
  1

  0
LINE
  5
5613F
330
5606F
100
AcDbEntity
  8
AM_5
100
AcDbLine
 10
6202.16522425469
 20
-1645.010870271217
 30
0.0
 11
6190.76522425469
 21
-1645.010870271217
 31
0.0
  0
LINE
  5
56140
330
5606F
100
AcDbEntity
  8
AM_5
100
AcDbLine
 10
6202.16522425469
 20
-1658.510870271217
 30
0.0
 11
6190.76522425469
 21
-1658.510870271217
 31
0.0
  0
LINE
  5
56141
330
5606F
100
AcDbEntity
  8
AM_5
100
AcDbLine
 10
6191.765224254689
 20
-1646.010870271217
 30
0.0
 11
6191.765224254689
 21
-1657.510870271217
 31
0.0
  0
INSERT
  5
56142
330
5606F
100
AcDbEntity
  8
AM_5
100
AcDbBlockReference
  2
_Dot
 10
6191.765224254689
 20
-1645.010870271217
 30
0.0
 50
90.0
  0
INSERT
  5
56143
330
5606F
100
AcDbEntity
  8
AM_5
100
AcDbBlockReference
  2
_Dot
 10
6191.765224254689
 20
-1658.510870271217
 30
0.0
 50
270.0
  0
MTEXT
  5
56144
330
5606F
100
AcDbEntity
  8
AM_5
 62
     2
100
AcDbMText
 10
6189.165224254689
 20
-1651.760870271217
 30
0.0
 40
3.200000000000001
 41
0.0
 71
     5
 72
     1
  1
13.5
 11
0.0000000000000001
 21
1.0
 31
0.0
 73
     1
 44
1.0
1001
ACAD
1000
MTEXTBEGIN
1070
    73
1070
     1
1070
    44
1040
1.0
1070
    74
1070
     0
1000
MTEXTEND
  0
POINT
  5
56145
330
5606F
100
AcDbEntity
  8
Defpoints
 62
     0
100
AcDbPoint
 10
6203.165224254689
 20
-1645.010870271217
 30
0.0
  0
POINT
  5
56146
330
5606F
100
AcDbEntity
  8
Defpoints
 62
     0
100
AcDbPoint
 10
6203.165224254689
 20
-1658.510870271217
 30
0.0
  0
POINT
  5
56147
330
5606F
100
AcDbEntity
  8
Defpoints
 62
     0
100
AcDbPoint
 10
6191.765224254689
 20
-1658.510870271217
 30
0.0
  0
ENDBLK
  5
5607A
330
5606F
100
AcDbEntity
  8
0
100
AcDbBlockEnd
  0
BLOCK
  5
56085
330
5607B
100
AcDbEntity
  8
0
100
AcDbBlockBegin
  2
*D16
 70
     1
 10
0.0
 20
0.0
 30
0.0
  3
*D16
  1

  0
LINE
  5
5B442
330
5607B
100
AcDbEntity
  8
AM_5
100
AcDbLine
 10
6216.76522425469
 20
-1562.303746872433
 30
0.0
 11
6216.76522425469
 21
-1550.303746872433
 31
0.0
  0
LINE
  5
5B443
330
5607B
100
AcDbEntity
  8
AM_5
100
AcDbLine
 10
6246.940335969481
 20
-1569.303746872434
 30
0.0
 11
6246.940335969481
 21
-1550.303746872433
 31
0.0
  0
LINE
  5
5B444
330
5607B
100
AcDbEntity
  8
AM_5
100
AcDbLine
 10
6217.765224254691
 20
-1551.303746872433
 30
0.0
 11
6245.940335969482
 21
-1551.303746872433
 31
0.0
  0
INSERT
  5
5B445
330
5607B
100
AcDbEntity
  8
AM_5
100
AcDbBlockReference
  2
_Dot
 10
6216.76522425469
 20
-1551.303746872433
 30
0.0
 50
180.0
  0
INSERT
  5
5B446
330
5607B
100
AcDbEntity
  8
AM_5
100
AcDbBlockReference
  2
_Dot
 10
6246.940335969481
 20
-1551.303746872433
 30
0.0
  0
MTEXT
  5
5B447
330
5607B
100
AcDbEntity
  8
AM_5
 62
     2
100
AcDbMText
 10
6231.852780112085
 20
-1548.703746872433
 30
0.0
 40
3.200000000000001
 41
0.0
 71
     5
 72
     1
  1
（30）
 73
     1
 44
1.0
1001
ACAD
1000
MTEXTBEGIN
1070
    73
1070
     1
1070
    44
1040
1.0
1070
    74
1070
     0
1000
MTEXTEND
  0
POINT
  5
5B448
330
5607B
100
AcDbEntity
  8
Defpoints
 62
     0
100
AcDbPoint
 10
6216.76522425469
 20
-1563.303746872433
 30
0.0
  0
POINT
  5
5B449
330
5607B
100
AcDbEntity
  8
Defpoints
 62
     0
100
AcDbPoint
 10
6246.940335969481
 20
-1570.303746872435
 30
0.0
  0
POINT
  5
5B44A
330
5607B
100
AcDbEntity
  8
Defpoints
 62
     0
100
AcDbPoint
 10
6246.940335969481
 20
-1551.303746872433
 30
0.0
  0
ENDBLK
  5
56086
330
5607B
100
AcDbEntity
  8
0
100
AcDbBlockEnd
  0
BLOCK
  5
56092
330
56087
100
AcDbEntity
  8
0
100
AcDbBlockBegin
  2
*D17
 70
     1
 10
0.0
 20
0.0
 30
0.0
  3
*D17
  1

  0
LINE
  5
56151
330
56087
100
AcDbEntity
  8
AM_5
100
AcDbLine
 10
6207.26522425469
 20
-1663.610870271216
 30
0.0
 11
6207.26522425469
 21
-1671.760870271218
 31
0.0
  0
LINE
  5
56152
330
56087
100
AcDbEntity
  8
AM_5
100
AcDbLine
 10
6213.265224254691
 20
-1662.010870271218
 30
0.0
 11
6213.265224254691
 21
-1671.760870271218
 31
0.0
  0
LINE
  5
56153
330
56087
100
AcDbEntity
  8
AM_5
100
AcDbLine
 10
6212.26522425469
 20
-1670.760870271218
 30
0.0
 11
6208.26522425469
 21
-1670.760870271218
 31
0.0
  0
LINE
  5
56154
330
56087
100
AcDbEntity
  8
AM_5
100
AcDbLine
 10
6207.26522425469
 20
-1670.760870271218
 30
0.0
 11
6199.54122425469
 21
-1670.760870271218
 31
0.0
  0
INSERT
  5
56155
330
56087
100
AcDbEntity
  8
AM_5
100
AcDbBlockReference
  2
_Dot
 10
6213.265224254691
 20
-1670.760870271218
 30
0.0
  0
INSERT
  5
56156
330
56087
100
AcDbEntity
  8
AM_5
100
AcDbBlockReference
  2
_Dot
 10
6207.26522425469
 20
-1670.760870271218
 30
0.0
 50
180.0
  0
MTEXT
  5
56157
330
56087
100
AcDbEntity
  8
AM_5
 62
     2
100
AcDbMText
 10
6202.65322425469
 20
-1668.160870271218
 30
0.0
 40
3.200000000000001
 41
0.0
 71
     5
 72
     1
  1
（6）
 73
     1
 44
1.0
1001
ACAD
1000
MTEXTBEGIN
1070
    73
1070
     1
1070
    44
1040
1.0
1070
    74
1070
     0
1000
MTEXTEND
  0
POINT
  5
56158
330
56087
100
AcDbEntity
  8
Defpoints
 62
     0
100
AcDbPoint
 10
6207.26522425469
 20
-1662.610870271216
 30
0.0
  0
POINT
  5
56159
330
56087
100
AcDbEntity
  8
Defpoints
 62
     0
100
AcDbPoint
 10
6213.265224254691
 20
-1661.010870271218
 30
0.0
  0
POINT
  5
5615A
330
56087
100
AcDbEntity
  8
Defpoints
 62
     0
100
AcDbPoint
 10
6213.265224254691
 20
-1670.760870271218
 30
0.0
  0
ENDBLK
  5
56093
330
56087
100
AcDbEntity
  8
0
100
AcDbBlockEnd
  0
BLOCK
  5
5609E
330
56094
100
AcDbEntity
  8
0
100
AcDbBlockBegin
  2
*D18
 70
     1
 10
0.0
 20
0.0
 30
0.0
  3
*D18
  1

  0
LINE
  5
5B41A
330
56094
100
AcDbEntity
  8
AM_5
100
AcDbLine
 10
6216.76522425469
 20
-1658.860870271217
 30
0.0
 11
6216.76522425469
 21
-1671.760870271218
 31
0.0
  0
LINE
  5
5B41B
330
56094
100
AcDbEntity
  8
AM_5
100
AcDbLine
 10
6224.26522425469
 20
-1656.160870271217
 30
0.0
 11
6224.26522425469
 21
-1671.760870271218
 31
0.0
  0
LINE
  5
5B41C
330
56094
100
AcDbEntity
  8
AM_5
100
AcDbLine
 10
6217.765224254691
 20
-1670.760870271218
 30
0.0
 11
6223.26522425469
 21
-1670.760870271218
 31
0.0
  0
INSERT
  5
5B41D
330
56094
100
AcDbEntity
  8
AM_5
100
AcDbBlockReference
  2
_Dot
 10
6216.76522425469
 20
-1670.760870271218
 30
0.0
 50
180.0
  0
INSERT
  5
5B41E
330
56094
100
AcDbEntity
  8
AM_5
100
AcDbBlockReference
  2
_Dot
 10
6224.26522425469
 20
-1670.760870271218
 30
0.0
  0
MTEXT
  5
5B41F
330
56094
100
AcDbEntity
  8
AM_5
 62
     2
100
AcDbMText
 10
6220.51522425469
 20
-1668.160870271218
 30
0.0
 40
3.200000000000001
 41
0.0
 71
     5
 72
     1
  1
7.5
 73
     1
 44
1.0
1001
ACAD
1000
MTEXTBEGIN
1070
    73
1070
     1
1070
    44
1040
1.0
1070
    74
1070
     0
1000
MTEXTEND
  0
POINT
  5
5B420
330
56094
100
AcDbEntity
  8
Defpoints
 62
     0
100
AcDbPoint
 10
6216.76522425469
 20
-1657.860870271217
 30
0.0
  0
POINT
  5
5B421
330
56094
100
AcDbEntity
  8
Defpoints
 62
     0
100
AcDbPoint
 10
6224.26522425469
 20
-1655.160870271217
 30
0.0
  0
POINT
  5
5B422
330
56094
100
AcDbEntity
  8
Defpoints
 62
     0
100
AcDbPoint
 10
6224.26522425469
 20
-1670.760870271218
 30
0.0
  0
ENDBLK
  5
5609F
330
56094
100
AcDbEntity
  8
0
100
AcDbBlockEnd
  0
BLOCK
  5
560AA
330
560A0
100
AcDbEntity
  8
0
100
AcDbBlockBegin
  2
*D19
 70
     1
 10
0.0
 20
0.0
 30
0.0
  3
*D19
  1

  0
LINE
  5
563BD
330
560A0
100
AcDbEntity
  8
AM_5
100
AcDbLine
 10
6224.26522425469
 20
-1657.560870271217
 30
0.0
 11
6224.26522425469
 21
-1679.760870271218
 31
0.0
  0
LINE
  5
563BE
330
560A0
100
AcDbEntity
  8
AM_5
100
AcDbLine
 10
6237.265224254691
 20
-1656.160870271217
 30
0.0
 11
6237.265224254691
 21
-1679.760870271218
 31
0.0
  0
LINE
  5
563BF
330
560A0
100
AcDbEntity
  8
AM_5
100
AcDbLine
 10
6225.26522425469
 20
-1678.760870271218
 30
0.0
 11
6236.26522425469
 21
-1678.760870271218
 31
0.0
  0
INSERT
  5
563C0
330
560A0
100
AcDbEntity
  8
AM_5
100
AcDbBlockReference
  2
_Dot
 10
6224.26522425469
 20
-1678.760870271218
 30
0.0
 50
180.0
  0
INSERT
  5
563C1
330
560A0
100
AcDbEntity
  8
AM_5
100
AcDbBlockReference
  2
_Dot
 10
6237.265224254691
 20
-1678.760870271218
 30
0.0
  0
MTEXT
  5
563C2
330
560A0
100
AcDbEntity
  8
AM_5
 62
     2
100
AcDbMText
 10
6230.76522425469
 20
-1676.160870271218
 30
0.0
 40
3.200000000000001
 41
0.0
 71
     5
 72
     1
  1
13
 73
     1
 44
1.0
1001
ACAD
1000
MTEXTBEGIN
1070
    73
1070
     1
1070
    44
1040
1.0
1070
    74
1070
     0
1000
MTEXTEND
  0
POINT
  5
563C3
330
560A0
100
AcDbEntity
  8
Defpoints
 62
     0
100
AcDbPoint
 10
6224.26522425469
 20
-1656.560870271217
 30
0.0
  0
POINT
  5
563C4
330
560A0
100
AcDbEntity
  8
Defpoints
 62
     0
100
AcDbPoint
 10
6237.265224254691
 20
-1655.160870271217
 30
0.0
  0
POINT
  5
563C5
330
560A0
100
AcDbEntity
  8
Defpoints
 62
     0
100
AcDbPoint
 10
6237.265224254691
 20
-1678.760870271218
 30
0.0
  0
ENDBLK
  5
560AB
330
560A0
100
AcDbEntity
  8
0
100
AcDbBlockEnd
  0
BLOCK
  5
560B6
330
560AC
100
AcDbEntity
  8
0
100
AcDbBlockBegin
  2
*D20
 70
     1
 10
0.0
 20
0.0
 30
0.0
  3
*D20
  1

  0
LINE
  5
563B4
330
560AC
100
AcDbEntity
  8
AM_5
100
AcDbLine
 10
6207.26522425469
 20
-1663.610870271216
 30
0.0
 11
6207.26522425469
 21
-1679.760870271218
 31
0.0
  0
LINE
  5
563B5
330
560AC
100
AcDbEntity
  8
AM_5
100
AcDbLine
 10
6224.26522425469
 20
-1656.160870271217
 30
0.0
 11
6224.26522425469
 21
-1679.760870271218
 31
0.0
  0
LINE
  5
563B6
330
560AC
100
AcDbEntity
  8
AM_5
100
AcDbLine
 10
6208.26522425469
 20
-1678.760870271218
 30
0.0
 11
6223.26522425469
 21
-1678.760870271218
 31
0.0
  0
INSERT
  5
563B7
330
560AC
100
AcDbEntity
  8
AM_5
100
AcDbBlockReference
  2
_Dot
 10
6207.26522425469
 20
-1678.760870271218
 30
0.0
 50
180.0
  0
INSERT
  5
563B8
330
560AC
100
AcDbEntity
  8
AM_5
100
AcDbBlockReference
  2
_Dot
 10
6224.26522425469
 20
-1678.760870271218
 30
0.0
  0
MTEXT
  5
563B9
330
560AC
100
AcDbEntity
  8
AM_5
 62
     2
100
AcDbMText
 10
6215.76522425469
 20
-1676.160870271218
 30
0.0
 40
3.200000000000001
 41
0.0
 71
     5
 72
     1
  1
（17）
 73
     1
 44
1.0
1001
ACAD
1000
MTEXTBEGIN
1070
    73
1070
     1
1070
    44
1040
1.0
1070
    74
1070
     0
1000
MTEXTEND
  0
POINT
  5
563BA
330
560AC
100
AcDbEntity
  8
Defpoints
 62
     0
100
AcDbPoint
 10
6207.26522425469
 20
-1662.610870271216
 30
0.0
  0
POINT
  5
563BB
330
560AC
100
AcDbEntity
  8
Defpoints
 62
     0
100
AcDbPoint
 10
6224.26522425469
 20
-1655.160870271217
 30
0.0
  0
POINT
  5
563BC
330
560AC
100
AcDbEntity
  8
Defpoints
 62
     0
100
AcDbPoint
 10
6224.26522425469
 20
-1678.760870271218
 30
0.0
  0
ENDBLK
  5
560B7
330
560AC
100
AcDbEntity
  8
0
100
AcDbBlockEnd
  0
BLOCK
  5
561B5
330
561AE
100
AcDbEntity
  8
0
100
AcDbBlockBegin
  2
*D21
 70
     1
 10
0.0
 20
0.0
 30
0.0
  3
*D21
  1

  0
LINE
  5
56208
330
561AE
100
AcDbEntity
  8
AM_5
100
AcDbLine
 10
6170.826300146657
 20
-1636.526347615771
 30
0.0
 11
6198.300966813324
 21
-1636.526347615771
 31
0.0
  0
LINE
  5
56209
330
561AE
100
AcDbEntity
  8
AM_5
100
AcDbLine
 10
6198.300966813324
 20
-1636.526347615771
 30
0.0
 11
6204.287503122734
 21
-1642.192506054108
 31
0.0
  0
LINE
  5
5620A
330
561AE
100
AcDbEntity
  8
AM_5
100
AcDbLine
 10
6210.242945386653
 20
-1647.829234488327
 30
0.0
 11
6210.969218833473
 21
-1648.516640394939
 31
0.0
  0
MTEXT
  5
5620B
330
561AE
100
AcDbEntity
  8
AM_5
 62
     2
100
AcDbMText
 10
6184.06363347999
 20
-1633.926347615771
 30
0.0
 40
3.2
 41
0.0
 71
     5
 72
     1
  1
2-%%c4.7×\U+22056.2サラ
 73
     1
 44
1.0
1001
ACAD
1000
MTEXTBEGIN
1070
    73
1070
     1
1070
    44
1040
1.0
1070
    74
1070
     0
1000
MTEXTEND
  0
LINE
  5
5620C
330
561AE
100
AcDbEntity
  8
AM_5
100
AcDbLine
 10
6209.516671939834
 20
-1647.141828581714
 30
0.0
 11
6205.013776569553
 21
-1642.87991196072
 31
0.0
  0
INSERT
  5
5620D
330
561AE
100
AcDbEntity
  8
AM_5
100
AcDbBlockReference
  2
_Dot
 10
6209.516671939834
 20
-1647.141828581714
 30
0.0
 50
136.5748869335035
  0
INSERT
  5
5620E
330
561AE
100
AcDbEntity
  8
AM_5
100
AcDbBlockReference
  2
_Dot
 10
6205.013776569553
 20
-1642.87991196072
 30
0.0
 50
316.5748869335035
  0
POINT
  5
5620F
330
561AE
100
AcDbEntity
  8
Defpoints
 62
     0
100
AcDbPoint
 10
6205.013776569553
 20
-1642.87991196072
 30
0.0
  0
POINT
  5
56210
330
561AE
100
AcDbEntity
  8
Defpoints
 62
     0
100
AcDbPoint
 10
6209.516671939834
 20
-1647.141828581714
 30
0.0
  0
ENDBLK
  5
561B6
330
561AE
100
AcDbEntity
  8
0
100
AcDbBlockEnd
  0
BLOCK
  5
56226
330
5621C
100
AcDbEntity
  8
0
100
AcDbBlockBegin
  2
*D22
 70
     1
 10
0.0
 20
0.0
 30
0.0
  3
*D22
  1

  0
LINE
  5
56231
330
5621C
100
AcDbEntity
  8
AM_5
100
AcDbLine
 10
6275.45684812619
 20
-1641.009761691908
 30
0.0
 11
6247.982181459525
 21
-1641.009761691908
 31
0.0
  0
LINE
  5
56232
330
5621C
100
AcDbEntity
  8
AM_5
100
AcDbLine
 10
6247.982181459525
 20
-1641.009761691908
 30
0.0
 11
6240.159746449963
 21
-1648.857124197421
 31
0.0
  0
LINE
  5
56233
330
5621C
100
AcDbEntity
  8
AM_5
100
AcDbLine
 10
6234.370702059421
 20
-1654.664616345015
 30
0.0
 11
6233.664721036184
 21
-1655.372847094721
 31
0.0
  0
MTEXT
  5
56234
330
5621C
100
AcDbEntity
  8
AM_5
 62
     2
100
AcDbMText
 10
6262.219514792858
 20
-1638.409761691908
 30
0.0
 40
3.2
 41
0.0
 71
     5
 72
     1
  1
2-%%c4.7×\U+22056.2サラ
 73
     1
 44
1.0
1001
ACAD
1000
MTEXTBEGIN
1070
    73
1070
     1
1070
    44
1040
1.0
1070
    74
1070
     0
1000
MTEXTEND
  0
LINE
  5
56235
330
5621C
100
AcDbEntity
  8
AM_5
100
AcDbLine
 10
6235.076683082657
 20
-1653.956385595308
 30
0.0
 11
6239.453765426726
 21
-1649.565354947128
 31
0.0
  0
INSERT
  5
56236
330
5621C
100
AcDbEntity
  8
AM_5
100
AcDbBlockReference
  2
_Dot
 10
6235.076683082657
 20
-1653.956385595308
 30
0.0
 50
45.09114598358285
  0
INSERT
  5
56237
330
5621C
100
AcDbEntity
  8
AM_5
100
AcDbBlockReference
  2
_Dot
 10
6239.453765426726
 20
-1649.565354947128
 30
0.0
 50
225.0911459835828
  0
POINT
  5
56238
330
5621C
100
AcDbEntity
  8
Defpoints
 62
     0
100
AcDbPoint
 10
6239.453765426726
 20
-1649.565354947128
 30
0.0
  0
POINT
  5
56239
330
5621C
100
AcDbEntity
  8
Defpoints
 62
     0
100
AcDbPoint
 10
6235.076683082657
 20
-1653.956385595308
 30
0.0
  0
ENDBLK
  5
56227
330
5621C
100
AcDbEntity
  8
0
100
AcDbBlockEnd
  0
BLOCK
  5
5B6FA
330
5B6EE
100
AcDbEntity
  8
0
100
AcDbBlockBegin
  2
*D23
 70
     1
 10
0.0
 20
0.0
 30
0.0
  3
*D23
  1

  0
LINE
  5
5B707
330
5B6EE
100
AcDbEntity
  8
AM_5
100
AcDbLine
 10
6216.538451822635
 20
-1577.730540961788
 30
0.0
 11
6216.273623381221
 21
-1577.668876991697
 31
0.0
  0
LINE
  5
5B708
330
5B6EE
100
AcDbEntity
  8
AM_5
100
AcDbLine
 10
6216.084894804684
 20
-1579.678433677383
 30
0.0
 11
6215.820066363271
 21
-1579.616769707292
 31
0.0
  0
LINE
  5
5B709
330
5B6EE
100
AcDbEntity
  8
AM_5
100
AcDbLine
 10
6217.474348247993
 20
-1576.921709142874
 30
0.0
 11
6217.701126756969
 21
-1575.947762785077
 31
0.0
  0
LINE
  5
5B70A
330
5B6EE
100
AcDbEntity
  8
AM_5
100
AcDbLine
 10
6216.567234212092
 20
-1580.817494574064
 30
0.0
 11
6215.088638333574
 21
-1587.167624826904
 31
0.0
  0
LINE
  5
5B70B
330
5B6EE
100
AcDbEntity
  8
AM_5
100
AcDbLine
 10
6217.247569739019
 20
-1577.895655500672
 30
0.0
 11
6216.794012721067
 21
-1579.843548216267
 31
0.0
  0
INSERT
  5
5B70C
330
5B6EE
100
AcDbEntity
  8
AM_5
100
AcDbBlockReference
  2
_Dot
 10
6217.247569739019
 20
-1577.895655500672
 30
0.0
 50
256.8925170411631
  0
INSERT
  5
5B70D
330
5B6EE
100
AcDbEntity
  8
AM_5
100
AcDbBlockReference
  2
_Dot
 10
6216.794012721067
 20
-1579.843548216267
 30
0.0
 50
76.8925170411631
  0
MTEXT
  5
5B70E
330
5B6EE
100
AcDbEntity
  8
AM_5
 62
     2
100
AcDbMText
 10
6213.18228648807
 20
-1583.889908756047
 30
0.0
 40
3.200000000000001
 41
0.0
 71
     5
 72
     1
  1
%%c2
 11
0.2267785089752635
 21
0.9739463577974694
 31
0.0
 73
     1
 44
1.0
1001
ACAD
1000
MTEXTBEGIN
1070
    73
1070
     1
1070
    44
1040
1.0
1070
    74
1070
     0
1000
MTEXTEND
  0
POINT
  5
5B70F
330
5B6EE
100
AcDbEntity
  8
Defpoints
 62
     0
100
AcDbPoint
 10
6217.512398180431
 20
-1577.957319470764
 30
0.0
  0
POINT
  5
5B710
330
5B6EE
100
AcDbEntity
  8
Defpoints
 62
     0
100
AcDbPoint
 10
6217.058841162481
 20
-1579.905212186358
 30
0.0
  0
POINT
  5
5B711
330
5B6EE
100
AcDbEntity
  8
Defpoints
 62
     0
100
AcDbPoint
 10
6216.794012721067
 20
-1579.843548216267
 30
0.0
  0
ENDBLK
  5
5B6FB
330
5B6EE
100
AcDbEntity
  8
0
100
AcDbBlockEnd
  0
ENDSEC
  0
SECTION
  2
ENTITIES
  0
TEXT
  5
31B30
330
1F
100
AcDbEntity
  8
AM_6
 60
     1
100
AcDbText
 10
3408.785415022811
 20
1879.970675238635
 30
0.0
 40
2.5
  1
!GENTITLE-INSERT
100
AcDbText
  0
TEXT
  5
31B31
330
1F
100
AcDbEntity
  8
AM_6
 60
     1
100
AcDbText
 10
3000.285415022811
 20
1871.470675238635
 30
0.0
 40
2.5
  1
!GENTITLE-LL
100
AcDbText
  0
TEXT
  5
31B32
330
1F
100
AcDbEntity
  8
AM_6
 60
     1
100
AcDbText
 10
3420.285415022811
 20
2168.470675238635
 30
0.0
 40
2.5
  1
!GENTITLE-RU
100
AcDbText
  0
TEXT
  5
31B33
330
1F
100
AcDbEntity
  8
AM_6
 60
     1
100
AcDbText
 10
3420.285415022811
 20
2168.470675238635
 30
0.0
 40
2.5
  1
!GENTITLE-MAX
100
AcDbText
  0
TEXT
  5
31B3B
330
1F
100
AcDbEntity
  8
AM_6
 60
     1
100
AcDbText
 10
3000.285415022811
 20
1871.470675238635
 30
0.0
 40
2.5
  1
!GENTITLE-LL
100
AcDbText
  0
TEXT
  5
31B3C
330
1F
100
AcDbEntity
  8
AM_6
 60
     1
100
AcDbText
 10
3408.785415022811
 20
2159.970675238636
 30
0.0
 40
2.5
  1
!GENTITLE-RU
100
AcDbText
  0
TEXT
  5
31B3D
330
1F
100
AcDbEntity
  8
AM_6
 60
     1
100
AcDbText
 10
3420.285415022811
 20
2168.470675238635
 30
0.0
 40
2.5
  1
!GENTITLE-MAX
100
AcDbText
  0
TEXT
  5
31B3E
330
1F
100
AcDbEntity
  8
AM_6
 60
     1
100
AcDbText
 10
3408.785415022811
 20
1879.970675238635
 30
0.0
 40
2.5
  1
!GENTITLE-INSERT
100
AcDbText
  0
TEXT
  5
32D1D
330
1F
100
AcDbEntity
  8
AM_6
 60
     1
100
AcDbText
 10
3234.949399973154
 20
1839.277532086519
 30
0.0
 40
2.5
  1
!GENTITLE-INSERT
100
AcDbText
  0
TEXT
  5
32D1E
330
1F
100
AcDbEntity
  8
AM_6
 60
     1
100
AcDbText
 10
3246.449399973154
 20
2040.77753208652
 30
0.0
 40
2.5
  1
!GENTITLE-MAX
100
AcDbText
  0
TEXT
  5
32D1F
330
1F
100
AcDbEntity
  8
AM_6
 60
     1
100
AcDbText
 10
3246.449399973154
 20
2040.77753208652
 30
0.0
 40
2.5
  1
!GENTITLE-RU
100
AcDbText
  0
TEXT
  5
32D21
330
1F
100
AcDbEntity
  8
AM_6
 60
     1
100
AcDbText
 10
2949.449399973154
 20
1830.777532086519
 30
0.0
 40
2.5
  1
!GENTITLE-LL
100
AcDbText
  0
TEXT
  5
34534
330
1F
100
AcDbEntity
  8
AM_6
 60
     1
100
AcDbText
 10
3774.506320898737
 20
958.0958490755065
 30
0.0
 40
2.5
  1
!GENTITLE-INSERT
100
AcDbText
  0
TEXT
  5
34535
330
1F
100
AcDbEntity
  8
AM_6
 60
     1
100
AcDbText
 10
3786.006320898738
 20
1159.595849075506
 30
0.0
 40
2.5
  1
!GENTITLE-MAX
100
AcDbText
  0
TEXT
  5
34536
330
1F
100
AcDbEntity
  8
AM_6
 60
     1
100
AcDbText
 10
3786.006320898738
 20
1159.595849075506
 30
0.0
 40
2.5
  1
!GENTITLE-RU
100
AcDbText
  0
TEXT
  5
34538
330
1F
100
AcDbEntity
  8
AM_6
 60
     1
100
AcDbText
 10
3489.006320898738
 20
949.5958490755064
 30
0.0
 40
2.5
  1
!GENTITLE-LL
100
AcDbText
  0
LINE
  5
3861E
330
1F
100
AcDbEntity
  8
size
100
AcDbLine
 10
6074.92467570105
 20
-1504.836657042882
 30
0.0
 11
6371.924675701051
 21
-1504.836657042882
 31
0.0
1001
GENIUS_GENREC_14
1002
{
1000
PYDIR
1011
6074.92467570105
1021
-1417.836657042882
1031
0.0
1002
}
1002
{
1000
PXDIR
1011
6494.924675701051
1021
-1714.836657042883
1031
0.0
1002
}
1002
{
1000
PORI
1011
6074.92467570105
1021
-1714.836657042883
1031
0.0
1002
}
1002
{
1000
PINS
1011
6284.92467570105
1021
-1566.336657042882
1031
0.0
1002
}
1002
{
1000
HVAL
1000
297
1002
}
1002
{
1000
H
1070
     2
1002
}
1002
{
1000
WVAL
1000
420
1002
}
1002
{
1000
W
1070
     2
1002
}
1002
{
1000
C
1070
     4
1002
}
1001
GENIUS_GENOBJ-N-REC_13
1002
{
1000
OWNER
1000
GEN
1002
}
1001
GENIUS_GENODEF_13
1002
{
1000
HIER
1070
     0
1002
}
1002
{
1000
MANEDIT
1070
     0
1002
}
1002
{
1000
NOSEL
1070
     0
1002
}
1002
{
1000
BEHIND
1070
     0
1002
}
1002
{
1000
OTHER
1070
     0
1002
}
1002
{
1000
REACTOR
1002
}
  0
LINE
  5
3861F
330
1F
100
AcDbEntity
  8
size
100
AcDbLine
 10
6371.924675701051
 20
-1504.836657042882
 30
0.0
 11
6371.924675701051
 21
-1714.836657042883
 31
0.0
1001
GENIUS_GENREC_14
1002
{
1000
PYDIR
1011
6074.92467570105
1021
-1417.836657042882
1031
0.0
1002
}
1002
{
1000
PXDIR
1011
6494.924675701051
1021
-1714.836657042883
1031
0.0
1002
}
1002
{
1000
PORI
1011
6074.92467570105
1021
-1714.836657042883
1031
0.0
1002
}
1002
{
1000
PINS
1011
6284.92467570105
1021
-1566.336657042882
1031
0.0
1002
}
1002
{
1000
HVAL
1000
297
1002
}
1002
{
1000
H
1070
     2
1002
}
1002
{
1000
WVAL
1000
420
1002
}
1002
{
1000
W
1070
     2
1002
}
1002
{
1000
C
1070
     4
1002
}
1001
GENIUS_GENOBJ-N-REC_13
1002
{
1000
OWNER
1000
GEN
1002
}
1001
GENIUS_GENODEF_13
1002
{
1000
HIER
1070
     0
1002
}
1002
{
1000
MANEDIT
1070
     0
1002
}
1002
{
1000
NOSEL
1070
     0
1002
}
1002
{
1000
BEHIND
1070
     0
1002
}
1002
{
1000
OTHER
1070
     0
1002
}
1002
{
1000
REACTOR
1002
}
  0
LINE
  5
38620
330
1F
100
AcDbEntity
  8
waku
100
AcDbLine
 10
6086.42467570105
 20
-1706.336657042882
 30
0.0
 11
6360.42467570105
 21
-1706.336657042882
 31
0.0
1001
GENIUS_GENREC_14
1002
{
1000
PYDIR
1011
6074.92467570105
1021
-1417.836657042882
1031
0.0
1002
}
1002
{
1000
PXDIR
1011
6494.924675701051
1021
-1714.836657042883
1031
0.0
1002
}
1002
{
1000
PORI
1011
6074.92467570105
1021
-1714.836657042883
1031
0.0
1002
}
1002
{
1000
PINS
1011
6284.92467570105
1021
-1566.336657042882
1031
0.0
1002
}
1002
{
1000
HVAL
1000
297
1002
}
1002
{
1000
H
1070
     2
1002
}
1002
{
1000
WVAL
1000
420
1002
}
1002
{
1000
W
1070
     2
1002
}
1002
{
1000
C
1070
     4
1002
}
  0
LINE
  5
38621
330
1F
100
AcDbEntity
  8
waku
100
AcDbLine
 10
6360.42467570105
 20
-1513.336657042882
 30
0.0
 11
6086.42467570105
 21
-1513.336657042882
 31
0.0
1001
GENIUS_GENREC_14
1002
{
1000
PYDIR
1011
5951.92467570105
1021
-1504.836657042882
1031
0.0
1002
}
1002
{
1000
PXDIR
1011
6371.924675701051
1021
-1801.836657042882
1031
0.0
1002
}
1002
{
1000
PORI
1011
5951.92467570105
1021
-1801.836657042882
1031
0.0
1002
}
1002
{
1000
PINS
1011
6161.924675701051
1021
-1653.336657042882
1031
0.0
1002
}
1002
{
1000
HVAL
1000
297
1002
}
1002
{
1000
H
1070
     2
1002
}
1002
{
1000
WVAL
1000
420
1002
}
1002
{
1000
W
1070
     2
1002
}
1002
{
1000
C
1070
     4
1002
}
1001
GENIUS_GENOBJ-N-REC_13
1002
{
1000
OWNER
1000
GEN
1002
}
1001
GENIUS_GENODEF_13
1002
{
1000
HIER
1070
     0
1002
}
1002
{
1000
MANEDIT
1070
     0
1002
}
1002
{
1000
NOSEL
1070
     0
1002
}
1002
{
1000
BEHIND
1070
     0
1002
}
1002
{
1000
OTHER
1070
     0
1002
}
1002
{
1000
REACTOR
1002
}
  0
LINE
  5
38622
330
1F
100
AcDbEntity
  8
waku
100
AcDbLine
 10
6086.42467570105
 20
-1513.336657042882
 30
0.0
 11
6086.42467570105
 21
-1706.336657042882
 31
0.0
1001
GENIUS_GENREC_14
1002
{
1000
PYDIR
1011
6074.92467570105
1021
-1417.836657042882
1031
0.0
1002
}
1002
{
1000
PXDIR
1011
6494.924675701051
1021
-1714.836657042883
1031
0.0
1002
}
1002
{
1000
PORI
1011
6074.92467570105
1021
-1714.836657042883
1031
0.0
1002
}
1002
{
1000
PINS
1011
6284.92467570105
1021
-1566.336657042882
1031
0.0
1002
}
1002
{
1000
HVAL
1000
297
1002
}
1002
{
1000
H
1070
     2
1002
}
1002
{
1000
WVAL
1000
420
1002
}
1002
{
1000
W
1070
     2
1002
}
1002
{
1000
C
1070
     4
1002
}
1001
GENIUS_GENOBJ-N-REC_13
1002
{
1000
OWNER
1000
GEN
1002
}
1001
GENIUS_GENODEF_13
1002
{
1000
HIER
1070
     0
1002
}
1002
{
1000
MANEDIT
1070
     0
1002
}
1002
{
1000
NOSEL
1070
     0
1002
}
1002
{
1000
BEHIND
1070
     0
1002
}
1002
{
1000
OTHER
1070
     0
1002
}
1002
{
1000
REACTOR
1002
}
  0
LINE
  5
38623
330
1F
100
AcDbEntity
  8
waku
100
AcDbLine
 10
6360.42467570105
 20
-1706.336657042882
 30
0.0
 11
6360.42467570105
 21
-1513.336657042882
 31
0.0
1001
GENIUS_GENREC_14
1002
{
1000
PYDIR
1011
5951.92467570105
1021
-1498.836657042882
1031
0.0
1002
}
1002
{
1000
PXDIR
1011
6371.924675701051
1021
-1795.836657042882
1031
0.0
1002
}
1002
{
1000
PORI
1011
5951.92467570105
1021
-1795.836657042882
1031
0.0
1002
}
1002
{
1000
PINS
1011
6161.924675701051
1021
-1647.336657042882
1031
0.0
1002
}
1002
{
1000
HVAL
1000
297
1002
}
1002
{
1000
H
1070
     2
1002
}
1002
{
1000
WVAL
1000
420
1002
}
1002
{
1000
W
1070
     2
1002
}
1002
{
1000
C
1070
     4
1002
}
1001
GENIUS_GENOBJ-N-REC_13
1002
{
1000
OWNER
1000
GEN
1002
}
1001
GENIUS_GENODEF_13
1002
{
1000
HIER
1070
     0
1002
}
1002
{
1000
MANEDIT
1070
     0
1002
}
1002
{
1000
NOSEL
1070
     0
1002
}
1002
{
1000
BEHIND
1070
     0
1002
}
1002
{
1000
OTHER
1070
     0
1002
}
1002
{
1000
REACTOR
1002
}
  0
LINE
  5
38624
330
1F
100
AcDbEntity
  8
size
100
AcDbLine
 10
6074.92467570105
 20
-1504.836657042882
 30
0.0
 11
6074.92467570105
 21
-1714.836657042883
 31
0.0
1001
GENIUS_GENREC_14
1002
{
1000
PYDIR
1011
6074.92467570105
1021
-1417.836657042882
1031
0.0
1002
}
1002
{
1000
PXDIR
1011
6494.924675701051
1021
-1714.836657042883
1031
0.0
1002
}
1002
{
1000
PORI
1011
6074.92467570105
1021
-1714.836657042883
1031
0.0
1002
}
1002
{
1000
PINS
1011
6284.92467570105
1021
-1566.336657042882
1031
0.0
1002
}
1002
{
1000
HVAL
1000
297
1002
}
1002
{
1000
H
1070
     2
1002
}
1002
{
1000
WVAL
1000
420
1002
}
1002
{
1000
W
1070
     2
1002
}
1002
{
1000
C
1070
     4
1002
}
1001
GENIUS_GENOBJ-N-REC_13
1002
{
1000
OWNER
1000
GEN
1002
}
1001
GENIUS_GENODEF_13
1002
{
1000
HIER
1070
     0
1002
}
1002
{
1000
MANEDIT
1070
     0
1002
}
1002
{
1000
NOSEL
1070
     0
1002
}
1002
{
1000
BEHIND
1070
     0
1002
}
1002
{
1000
OTHER
1070
     0
1002
}
1002
{
1000
REACTOR
1002
}
  0
LINE
  5
38625
330
1F
100
AcDbEntity
  8
size
100
AcDbLine
 10
6074.92467570105
 20
-1714.836657042883
 30
0.0
 11
6371.924675701051
 21
-1714.836657042883
 31
0.0
1001
GENIUS_GENREC_14
1002
{
1000
PYDIR
1011
6074.92467570105
1021
-1417.836657042882
1031
0.0
1002
}
1002
{
1000
PXDIR
1011
6494.924675701051
1021
-1714.836657042883
1031
0.0
1002
}
1002
{
1000
PORI
1011
6074.92467570105
1021
-1714.836657042883
1031
0.0
1002
}
1002
{
1000
PINS
1011
6284.92467570105
1021
-1566.336657042882
1031
0.0
1002
}
1002
{
1000
HVAL
1000
297
1002
}
1002
{
1000
H
1070
     2
1002
}
1002
{
1000
WVAL
1000
420
1002
}
1002
{
1000
W
1070
     2
1002
}
1002
{
1000
C
1070
     4
1002
}
1001
GENIUS_GENOBJ-N-REC_13
1002
{
1000
OWNER
1000
GEN
1002
}
1001
GENIUS_GENODEF_13
1002
{
1000
HIER
1070
     0
1002
}
1002
{
1000
MANEDIT
1070
     0
1002
}
1002
{
1000
NOSEL
1070
     0
1002
}
1002
{
1000
BEHIND
1070
     0
1002
}
1002
{
1000
OTHER
1070
     0
1002
}
1002
{
1000
REACTOR
1002
}
  0
LINE
  5
38626
330
1F
100
AcDbEntity
  8
AM_5
370
    13
100
AcDbLine
 10
6106.424675701051
 20
-1513.336657042882
 30
0.0
 11
6106.424675701051
 21
-1545.336657042882
 31
0.0
  0
LINE
  5
38627
330
1F
100
AcDbEntity
  8
AM_5
370
    13
100
AcDbLine
 10
6086.42467570105
 20
-1521.336657042882
 30
0.0
 11
6173.424675701051
 21
-1521.336657042882
 31
0.0
  0
LINE
  5
38628
330
1F
100
AcDbEntity
  8
AM_5
370
    13
100
AcDbLine
 10
6086.42467570105
 20
-1529.336657042882
 30
0.0
 11
6173.424675701051
 21
-1529.336657042882
 31
0.0
  0
LINE
  5
38629
330
1F
100
AcDbEntity
  8
AM_5
370
    13
100
AcDbLine
 10
6086.42467570105
 20
-1537.336657042882
 30
0.0
 11
6173.424675701051
 21
-1537.336657042882
 31
0.0
  0
LINE
  5
3862A
330
1F
100
AcDbEntity
  8
AM_0
  6
中線
 48
0.5
370
    30
100
AcDbLine
 10
6086.42467570105
 20
-1545.336657042882
 30
0.0
 11
6173.424675701051
 21
-1545.336657042882
 31
0.0
  0
LINE
  5
3862B
330
1F
100
AcDbEntity
  8
AM_0
  6
中線
 48
0.5
370
    30
100
AcDbLine
 10
6086.42467570105
 20
-1513.336657042882
 30
0.0
 11
6086.42467570105
 21
-1545.336657042882
 31
0.0
  0
LINE
  5
3862C
330
1F
100
AcDbEntity
  8
AM_0
  6
中線
 48
0.5
370
    30
100
AcDbLine
 10
6086.42467570105
 20
-1513.336657042882
 30
0.0
 11
6173.424675701051
 21
-1513.336657042882
 31
0.0
  0
LINE
  5
3862D
330
1F
100
AcDbEntity
  8
AM_0
  6
中線
 48
0.5
370
    30
100
AcDbLine
 10
6173.424675701051
 20
-1513.336657042882
 30
0.0
 11
6173.424675701052
 21
-1545.336657042882
 31
0.0
  0
TEXT
  5
3862E
330
1F
100
AcDbEntity
  8
AM_6
100
AcDbText
 10
6092.081675701052
 20
-1518.936657042883
 30
0.0
 40
3.2
  1
品　名
 41
0.85537027
100
AcDbText
  0
TEXT
  5
3862F
330
1F
100
AcDbEntity
  8
AM_6
100
AcDbText
 10
6092.081675701052
 20
-1526.936657042883
 30
0.0
 40
3.2
  1
品　番
 41
0.85537027
100
AcDbText
  0
TEXT
  5
38630
330
1F
100
AcDbEntity
  8
AM_6
100
AcDbText
 10
6092.081675701052
 20
-1534.936657042883
 30
0.0
 40
3.2
  1
材　質
 41
0.85537027
100
AcDbText
  0
TEXT
  5
38631
330
1F
100
AcDbEntity
  8
AM_6
100
AcDbText
 10
6092.081675701052
 20
-1542.936657042883
 30
0.0
 40
3.2
  1
仕上げ
 41
0.85537027
100
AcDbText
  0
TEXT
  5
38632
330
1F
100
AcDbEntity
  8
AM_6
100
AcDbText
 10
6109.28167570105
 20
-1518.936657042883
 30
0.0
 40
3.2
  1
セミパチン錠
 41
0.84306961
100
AcDbText
  0
TEXT
  5
38633
330
1F
100
AcDbEntity
  8
AM_6
100
AcDbText
 10
6109.28167570105
 20
-1526.936657042883
 30
0.0
 40
3.2
  1
ELP-108S-2
 41
0.84741102
100
AcDbText
  0
TEXT
  5
38634
330
1F
100
AcDbEntity
  8
AM_6
100
AcDbText
 10
6109.28167570105
 20
-1534.936657042883
 30
0.0
 40
3.2
  1
ステンレス
 41
0.84634979
100
AcDbText
  0
TEXT
  5
38635
330
1F
100
AcDbEntity
  8
AM_6
100
AcDbText
 10
6109.28167570105
 20
-1542.936657042883
 30
0.0
 40
3.2
  1
光沢バレル研磨
 41
0.84350122
100
AcDbText
  0
TEXT
  5
4E0E8
330
1F
100
AcDbEntity
  8
AM_6
 60
     1
100
AcDbText
 10
5957.394900433246
 20
-5651.939004350452
 30
0.0
 40
2.5
  1
!GENTITLE-INSERT
100
AcDbText
  0
TEXT
  5
4E0E9
330
1F
100
AcDbEntity
  8
AM_6
 60
     1
100
AcDbText
 10
5548.894900433246
 20
-5660.439004350451
 30
0.0
 40
2.5
  1
!GENTITLE-LL
100
AcDbText
  0
TEXT
  5
4E0EA
330
1F
100
AcDbEntity
  8
AM_6
 60
     1
100
AcDbText
 10
5968.894900433246
 20
-5363.439004350452
 30
0.0
 40
2.5
  1
!GENTITLE-RU
100
AcDbText
  0
TEXT
  5
4E0EB
330
1F
100
AcDbEntity
  8
AM_6
 60
     1
100
AcDbText
 10
5968.894900433246
 20
-5363.439004350452
 30
0.0
 40
2.5
  1
!GENTITLE-MAX
100
AcDbText
  0
TEXT
  5
4E0F3
330
1F
100
AcDbEntity
  8
AM_6
 60
     1
100
AcDbText
 10
5548.894900433246
 20
-5660.439004350451
 30
0.0
 40
2.5
  1
!GENTITLE-LL
100
AcDbText
  0
TEXT
  5
4E0F4
330
1F
100
AcDbEntity
  8
AM_6
 60
     1
100
AcDbText
 10
5957.394900433246
 20
-5371.939004350451
 30
0.0
 40
2.5
  1
!GENTITLE-RU
100
AcDbText
  0
TEXT
  5
4E0F5
330
1F
100
AcDbEntity
  8
AM_6
 60
     1
100
AcDbText
 10
5968.894900433246
 20
-5363.439004350452
 30
0.0
 40
2.5
  1
!GENTITLE-MAX
100
AcDbText
  0
TEXT
  5
4E0F6
330
1F
100
AcDbEntity
  8
AM_6
 60
     1
100
AcDbText
 10
5957.394900433246
 20
-5651.939004350452
 30
0.0
 40
2.5
  1
!GENTITLE-INSERT
100
AcDbText
  0
TEXT
  5
5183F
330
1F
100
AcDbEntity
  8
AM_6
 60
     1
100
AcDbText
 10
5973.602012689372
 20
109.7385382224183
 30
0.0
 40
2.5
  1
!GENTITLE-INSERT
100
AcDbText
  0
TEXT
  5
51840
330
1F
100
AcDbEntity
  8
AM_6
 60
     1
100
AcDbText
 10
5565.102012689372
 20
101.2385382224183
 30
0.0
 40
2.5
  1
!GENTITLE-LL
100
AcDbText
  0
TEXT
  5
51841
330
1F
100
AcDbEntity
  8
AM_6
 60
     1
100
AcDbText
 10
5985.102012689372
 20
398.2385382224184
 30
0.0
 40
2.5
  1
!GENTITLE-RU
100
AcDbText
  0
TEXT
  5
51842
330
1F
100
AcDbEntity
  8
AM_6
 60
     1
100
AcDbText
 10
5985.102012689372
 20
398.2385382224184
 30
0.0
 40
2.5
  1
!GENTITLE-MAX
100
AcDbText
  0
TEXT
  5
5184A
330
1F
100
AcDbEntity
  8
AM_6
 60
     1
100
AcDbText
 10
5565.102012689372
 20
101.2385382224183
 30
0.0
 40
2.5
  1
!GENTITLE-LL
100
AcDbText
  0
TEXT
  5
5184B
330
1F
100
AcDbEntity
  8
AM_6
 60
     1
100
AcDbText
 10
5973.602012689372
 20
389.7385382224184
 30
0.0
 40
2.5
  1
!GENTITLE-RU
100
AcDbText
  0
TEXT
  5
5184C
330
1F
100
AcDbEntity
  8
AM_6
 60
     1
100
AcDbText
 10
5985.102012689372
 20
398.2385382224184
 30
0.0
 40
2.5
  1
!GENTITLE-MAX
100
AcDbText
  0
TEXT
  5
5184D
330
1F
100
AcDbEntity
  8
AM_6
 60
     1
100
AcDbText
 10
5973.602012689372
 20
109.7385382224183
 30
0.0
 40
2.5
  1
!GENTITLE-INSERT
100
AcDbText
  0
ARC
  5
55EC8
330
1F
100
AcDbEntity
  8
AM_0
  6
中線
 48
0.5
370
    30
100
AcDbCircle
 10
6219.76522425469
 20
-1605.289546324386
 30
0.0
 40
2.999999999999999
100
AcDbArc
 50
69.00000000001679
 51
207.4501305730211
  0
ARC
  5
55EC9
330
1F
100
AcDbEntity
  8
AM_0
  6
中線
 48
0.5
370
    30
100
AcDbCircle
 10
6220.265224254689
 20
-1605.481478341904
 30
0.0
 40
2.999999999999999
100
AcDbArc
 50
250.3744033560438
 51
266.0000000000165
  0
ARC
  5
55ECA
330
1F
100
AcDbEntity
  8
AM_0
  6
中線
 48
0.5
370
    30
100
AcDbCircle
 10
6225.937468524745
 20
-1606.052131424662
 30
0.0
 40
1.049999999999999
100
AcDbArc
 50
262.7472098381687
 51
118.2527901620324
  0
LINE
  5
55ECB
330
1F
100
AcDbEntity
  8
AM_0
  6
中線
 48
0.5
370
    30
100
AcDbLine
 10
6222.879140820563
 20
-1602.200286927582
 30
0.0
 11
6239.436724156318
 21
-1608.556147677279
 31
0.0
  0
LINE
  5
55ECC
330
1F
100
AcDbEntity
  8
AM_0
  6
中線
 48
0.5
370
    30
100
AcDbLine
 10
6239.128856007639
 20
-1609.294884162378
 30
0.0
 11
6239.150029796681
 21
-1609.303012018477
 31
0.0
  0
LINE
  5
55ECF
330
1F
100
AcDbEntity
  8
AM_0
  6
中線
 48
0.5
370
    30
100
AcDbLine
 10
6222.053982657771
 20
-1602.954683379303
 30
0.0
 11
6222.401107517664
 21
-1602.050392202714
 31
0.0
  0
LINE
  5
55ED0
330
1F
100
AcDbEntity
  8
AM_0
  6
中線
 48
0.5
370
    30
100
AcDbLine
 10
6222.053982657771
 20
-1602.954683379303
 30
0.0
 11
6220.840328103325
 21
-1602.488805044895
 31
0.0
  0
ARC
  5
55ED1
330
1F
100
AcDbEntity
  8
AM_0
  6
中線
 48
0.5
370
    30
100
AcDbCircle
 10
6221.445669022383
 20
-1605.934608633571
 30
0.0
 40
3.999999999999999
100
AcDbArc
 50
69.00000000001679
 51
114.325390435516
1001
GENIUS_GENODEF_13
1002
{
1000
HIER
1070
     0
1002
}
1002
{
1000
MANEDIT
1070
     0
1002
}
1002
{
1000
NOSEL
1070
     0
1002
}
1002
{
1000
BEHIND
1070
     0
1002
}
1002
{
1000
OTHER
1070
     0
1002
}
1002
{
1000
REACTOR
1002
}
1001
GENIUS_GENOBJ-N-FIL_13
1002
{
1000
OWNER
1000
GEN
1002
}
  0
LINE
  5
55ED2
330
1F
100
AcDbEntity
  8
AM_0
  6
中線
 48
0.5
370
    30
100
AcDbLine
 10
6239.264442097965
 20
-1609.004957783533
 30
0.0
 11
6239.225920930573
 21
-1609.105308855466
 31
0.0
  0
LINE
  5
55ED3
330
1F
100
AcDbEntity
  8
AM_0
  6
中線
 48
0.5
370
    30
100
AcDbLine
 10
6238.222584030332
 20
-1609.744504956181
 30
0.0
 11
6220.055954833458
 21
-1608.474170492684
 31
0.0
  0
ARC
  5
55ED4
330
1F
100
AcDbEntity
  8
AM_0
  6
中線
 48
0.5
370
    30
100
AcDbCircle
 10
6241.586931853589
 20
-1602.954665118296
 30
0.0
 40
6.000000000000112
100
AcDbArc
 50
249.0000000000168
 51
321.9306799697222
  0
ARC
  5
55ED5
330
1F
100
AcDbEntity
  8
AM_0
  6
中線
 48
0.5
370
    30
100
AcDbCircle
 10
6239.731232311214
 20
-1609.184141758306
 30
0.0
 40
0.5
100
AcDbArc
 50
73.41172578573652
 51
159.0000000000122
1001
GENIUS_GENODEF_13
1002
{
1000
HIER
1070
     0
1002
}
1002
{
1000
MANEDIT
1070
     0
1002
}
1002
{
1000
NOSEL
1070
     0
1002
}
1002
{
1000
BEHIND
1070
     0
1002
}
1002
{
1000
OTHER
1070
     0
1002
}
1002
{
1000
REACTOR
1002
}
1001
GENIUS_GENOBJ-N-FIL_13
1002
{
1000
OWNER
1000
GEN
1002
}
  0
ARC
  5
55ED6
330
1F
100
AcDbEntity
  8
AM_0
  6
中線
 48
0.5
370
    30
100
AcDbCircle
 10
6241.586931853589
 20
-1602.954665118296
 30
0.0
 40
6.800000000000112
100
AcDbArc
 50
249.0000000000168
 51
321.9306799697253
  0
ARC
  5
55EDA
330
1F
100
AcDbEntity
  8
AM_0
  6
中線
 48
0.5
370
    30
100
AcDbCircle
 10
6219.76522425469
 20
-1605.481478341907
 30
0.0
 40
3.0
100
AcDbArc
 50
179.9944737866223
 51
180.0
  0
LINE
  5
55EDB
330
1F
100
AcDbEntity
  8
AM_0
  6
中線
 48
0.5
370
    30
100
AcDbLine
 10
6216.76522425469
 20
-1605.289546324389
 30
0.0
 11
6216.765224254689
 21
-1606.735076151742
 31
0.0
  0
LINE
  5
55EDC
330
1F
100
AcDbEntity
  8
AM_0
  6
中線
 48
0.5
370
    30
100
AcDbLine
 10
6216.76522425469
 20
-1608.769136683364
 30
0.0
 11
6216.76522425469
 21
-1610.781478341907
 31
0.0
  0
LINE
  5
55EDD
330
1F
100
AcDbEntity
  8
AM_0
  6
中線
 48
0.5
370
    30
100
AcDbLine
 10
6216.76522425469
 20
-1610.781478341907
 30
0.0
 11
6244.26522425469
 21
-1610.781478341907
 31
0.0
  0
LINE
  5
55EDF
330
1F
100
AcDbEntity
  8
AM_0
  6
中線
 48
0.5
370
    30
100
AcDbLine
 10
6224.26522425469
 20
-1609.781478341906
 30
0.0
 11
6244.26522425469
 21
-1609.781478341907
 31
0.0
  0
LINE
  5
55EE0
330
1F
100
AcDbEntity
  8
AM_0
  6
中線
 48
0.5
370
    30
100
AcDbLine
 10
6244.26522425469
 20
-1610.781478341907
 30
0.0
 11
6244.26522425469
 21
-1609.781478341907
 31
0.0
  0
LINE
  5
55EE1
330
1F
100
AcDbEntity
  8
AM_7
  6
中心線1
 48
0.2
370
    13
100
AcDbLine
 10
6224.26522425469
 20
-1612.281478341907
 30
0.0
 11
6224.26522425469
 21
-1608.481478341908
 31
0.0
1001
GENIUS_GENODEF_13
1002
{
1000
HIER
1070
     0
1002
}
1002
{
1000
MANEDIT
1070
     0
1002
}
1002
{
1000
NOSEL
1070
     0
1002
}
1002
{
1000
BEHIND
1070
     0
1002
}
1002
{
1000
OTHER
1070
     0
1002
}
1002
{
1000
REACTOR
1002
}
1001
GENIUS_GENOBJ-N-CEN_13
1002
{
1000
OWNER
1000
GEN
1002
}
1001
GENIUS_GENCEN_19
1002
{
1040
2.5
1002
}
  0
LINE
  5
55EE2
330
1F
100
AcDbEntity
  8
AM_7
  6
中心線1
 48
0.2
370
    13
100
AcDbLine
 10
6231.76522425469
 20
-1612.281478341907
 30
0.0
 11
6231.76522425469
 21
-1608.481478341908
 31
0.0
1001
GENIUS_GENODEF_13
1002
{
1000
HIER
1070
     0
1002
}
1002
{
1000
MANEDIT
1070
     0
1002
}
1002
{
1000
NOSEL
1070
     0
1002
}
1002
{
1000
BEHIND
1070
     0
1002
}
1002
{
1000
OTHER
1070
     0
1002
}
1002
{
1000
REACTOR
1002
}
1001
GENIUS_GENOBJ-N-CEN_13
1002
{
1000
OWNER
1000
GEN
1002
}
1001
GENIUS_GENCEN_19
1002
{
1040
2.5
1002
}
  0
LINE
  5
55EE3
330
1F
100
AcDbEntity
  8
AM_7
  6
中心線1
 48
0.2
370
    13
100
AcDbLine
 10
6237.265224254691
 20
-1612.281478341907
 30
0.0
 11
6237.265224254691
 21
-1608.481478341908
 31
0.0
1001
GENIUS_GENODEF_13
1002
{
1000
HIER
1070
     0
1002
}
1002
{
1000
MANEDIT
1070
     0
1002
}
1002
{
1000
NOSEL
1070
     0
1002
}
1002
{
1000
BEHIND
1070
     0
1002
}
1002
{
1000
OTHER
1070
     0
1002
}
1002
{
1000
REACTOR
1002
}
1001
GENIUS_GENOBJ-N-CEN_13
1002
{
1000
OWNER
1000
GEN
1002
}
1001
GENIUS_GENCEN_19
1002
{
1040
2.5
1002
}
  0
LINE
  5
55EE4
330
1F
100
AcDbEntity
  8
AM_0
  6
中線
 48
0.5
370
    30
100
AcDbLine
 10
6225.755232999254
 20
-1605.068876517098
 30
0.0
 11
6211.301385858063
 21
-1607.747738741833
 31
0.0
  0
LINE
  5
55EE5
330
1F
100
AcDbEntity
  8
AM_0
  6
中線
 48
0.5
370
    30
100
AcDbLine
 10
6226.119704050237
 20
-1607.035386332226
 30
0.0
 11
6211.665856909046
 21
-1609.714248556961
 31
0.0
  0
ARC
  5
55EE6
330
1F
100
AcDbEntity
  8
AM_0
  6
中線
 48
0.5
370
    30
100
AcDbCircle
 10
6225.937468524745
 20
-1606.052131424662
 30
0.0
 40
0.9999999999999998
100
AcDbArc
 50
280.5000000000272
 51
100.4999999999742
1001
GENIUS_GENODEF_13
1002
{
1000
HIER
1070
     0
1002
}
1002
{
1000
MANEDIT
1070
     0
1002
}
1002
{
1000
NOSEL
1070
     0
1002
}
1002
{
1000
BEHIND
1070
     0
1002
}
1002
{
1000
OTHER
1070
     0
1002
}
1002
{
1000
REACTOR
1002
}
1001
GENIUS_GENOBJ-N-FIL_13
1002
{
1000
OWNER
1000
GEN
1002
}
  0
ARC
  5
55EE7
330
1F
100
AcDbEntity
  8
AM_0
  6
中線
 48
0.5
370
    30
100
AcDbCircle
 10
6211.483621383554
 20
-1608.730993649397
 30
0.0
 40
0.9999999999999998
100
AcDbArc
 50
100.5000000000272
 51
280.5000000000272
1001
GENIUS_GENOBJ-N-FIL_13
1002
{
1000
OWNER
1000
GEN
1002
}
1001
GENIUS_GENODEF_13
1002
{
1000
HIER
1070
     0
1002
}
1002
{
1000
MANEDIT
1070
     0
1002
}
1002
{
1000
NOSEL
1070
     0
1002
}
1002
{
1000
BEHIND
1070
     0
1002
}
1002
{
1000
OTHER
1070
     0
1002
}
1002
{
1000
REACTOR
1002
}
  0
LINE
  5
55EE8
330
1F
100
AcDbEntity
  8
AM_0
  6
中線
 48
0.5
370
    30
100
AcDbLine
 10
6199.76522425469
 20
-1609.781478341907
 30
0.0
 11
6199.765224254689
 21
-1610.781478341907
 31
0.0
  0
LINE
  5
55EE9
330
1F
100
AcDbEntity
  8
AM_0
  6
中線
 48
0.5
370
    30
100
AcDbLine
 10
6199.765224254689
 20
-1610.781478341907
 30
0.0
 11
6213.66522425469
 21
-1610.781478341907
 31
0.0
  0
LINE
  5
55EEA
330
1F
100
AcDbEntity
  8
AM_0
  6
中線
 48
0.5
370
    30
100
AcDbLine
 10
6199.76522425469
 20
-1609.781478341907
 30
0.0
 11
6213.66522425469
 21
-1609.781478341907
 31
0.0
  0
LINE
  5
55EEB
330
1F
100
AcDbEntity
  8
AM_7
  6
中心線1
 48
0.15
370
    13
100
AcDbLine
 10
6207.26522425469
 20
-1611.781478341907
 30
0.0
 11
6207.26522425469
 21
-1608.581478341907
 31
0.0
1001
GENIUS_GENODEF_13
1002
{
1000
HIER
1070
     0
1002
}
1002
{
1000
MANEDIT
1070
     0
1002
}
1002
{
1000
NOSEL
1070
     0
1002
}
1002
{
1000
BEHIND
1070
     0
1002
}
1002
{
1000
OTHER
1070
     0
1002
}
1002
{
1000
REACTOR
1002
}
1001
GENIUS_GENOBJ-N-CEN_13
1002
{
1000
OWNER
1000
GEN
1002
}
1001
GENIUS_GENCEN_19
1002
{
1040
2.5
1002
}
  0
LINE
  5
55EF2
330
1F
100
AcDbEntity
  8
AM_0
  6
中線
 48
0.5
370
    30
100
AcDbLine
 10
6211.67614617159
 20
-1607.678281023245
 30
0.0
 11
6209.521995579056
 21
-1604.893303185914
 31
0.0
  0
LINE
  5
55EF4
330
1F
100
AcDbEntity
  8
AM_0
  6
中線
 48
0.5
370
    30
100
AcDbLine
 10
6212.781865907864
 20
-1607.473347983362
 30
0.0
 11
6210.312988853525
 21
-1604.281478341907
 31
0.0
  0
ARC
  5
55EF5
330
1F
100
AcDbEntity
  8
AM_0
  6
中線
 48
0.5
370
    30
100
AcDbCircle
 10
6211.265224254689
 20
-1608.781478341907
 30
0.0
 40
1.0
100
AcDbArc
 50
270.0
 51
289.450998741279
1001
GENIUS_GENODEF_13
1002
{
1000
HIER
1070
     0
1002
}
1002
{
1000
MANEDIT
1070
     0
1002
}
1002
{
1000
NOSEL
1070
     0
1002
}
1002
{
1000
BEHIND
1070
     0
1002
}
1002
{
1000
OTHER
1070
     0
1002
}
1002
{
1000
REACTOR
1002
}
1001
GENIUS_GENOBJ-N-FIL_13
1002
{
1000
OWNER
1000
GEN
1002
}
  0
ARC
  5
55EF8
330
1F
100
AcDbEntity
  8
AM_0
  6
中線
 48
0.5
370
    30
100
AcDbCircle
 10
6211.265224254689
 20
-1608.781478341907
 30
0.0
 40
2.0
100
AcDbArc
 50
329.9999999999727
 51
340.8249612472711
1001
GENIUS_GENODEF_13
1002
{
1000
HIER
1070
     0
1002
}
1002
{
1000
MANEDIT
1070
     0
1002
}
1002
{
1000
NOSEL
1070
     0
1002
}
1002
{
1000
BEHIND
1070
     0
1002
}
1002
{
1000
OTHER
1070
     0
1002
}
1002
{
1000
REACTOR
1002
}
1001
GENIUS_GENOBJ-N-FIL_13
1002
{
1000
OWNER
1000
GEN
1002
}
  0
LINE
  5
55EFA
330
1F
100
AcDbEntity
  8
AM_0
  6
中線
 48
0.5
370
    30
100
AcDbLine
 10
6210.312988853525
 20
-1604.281478341907
 30
0.0
 11
6209.521995579056
 21
-1604.893303185914
 31
0.0
  0
LINE
  5
55EFB
330
1F
100
AcDbEntity
  8
AM_0
  6
中線
 48
0.5
370
    30
100
AcDbLine
 10
6213.66522425469
 20
-1609.781478341907
 30
0.0
 11
6213.66522425469
 21
-1610.781478341907
 31
0.0
  0
LINE
  5
55EFD
330
1F
100
AcDbEntity
  8
AM_0
  6
中線
 48
0.5
370
    30
100
AcDbLine
 10
6216.76522425469
 20
-1577.403746872433
 30
0.0
 11
6216.76522425469
 21
-1576.603746872433
 31
0.0
  0
LINE
  5
55EFE
330
1F
100
AcDbEntity
  8
AM_0
  6
中線
 48
0.5
370
    30
100
AcDbLine
 10
6216.88710103244
 20
-1574.403746872433
 30
0.0
 11
6216.88710103244
 21
-1566.203746872433
 31
0.0
  0
LINE
  5
55EFF
330
1F
100
AcDbEntity
  8
AM_0
  6
中線
 48
0.5
370
    30
100
AcDbLine
 10
6216.76522425469
 20
-1564.003746872433
 30
0.0
 11
6216.76522425469
 21
-1563.203746872433
 31
0.0
  0
LINE
  5
55F00
330
1F
100
AcDbEntity
  8
AM_0
  6
中線
 48
0.5
370
    30
100
AcDbLine
 10
6222.401107517665
 20
-1574.903746872433
 30
0.0
 11
6217.066285007213
 21
-1574.903746872433
 31
0.0
  0
LINE
  5
55F01
330
1F
100
AcDbEntity
  8
AM_0
  6
中線
 48
0.5
370
    30
100
AcDbLine
 10
6217.066285007213
 20
-1565.703746872433
 30
0.0
 11
6222.401107517666
 21
-1565.703746872434
 31
0.0
  0
LINE
  5
55F02
330
1F
100
AcDbEntity
  8
AM_0
  6
中線
 48
0.5
370
    30
100
AcDbLine
 10
6222.901107517666
 20
-1565.203746872433
 30
0.0
 11
6222.901107517665
 21
-1564.503746872433
 31
0.0
  0
LINE
  5
55F03
330
1F
100
AcDbEntity
  8
AM_0
  6
中線
 48
0.5
370
    30
100
AcDbLine
 10
6243.898178584267
 20
-1577.403746872434
 30
0.0
 11
6216.76522425469
 21
-1577.403746872433
 31
0.0
  0
LINE
  5
55F04
330
1F
100
AcDbEntity
  8
AM_0
  6
中線
 48
0.5
370
    30
100
AcDbLine
 10
6222.401107517665
 20
-1576.603746872433
 30
0.0
 11
6216.76522425469
 21
-1576.603746872433
 31
0.0
  0
LINE
  5
55F05
330
1F
100
AcDbEntity
  8
AM_0
  6
中線
 48
0.5
370
    30
100
AcDbLine
 10
6216.76522425469
 20
-1564.003746872433
 30
0.0
 11
6222.401107517665
 21
-1564.003746872433
 31
0.0
  0
LINE
  5
55F06
330
1F
100
AcDbEntity
  8
AM_0
  6
中線
 48
0.5
370
    30
100
AcDbLine
 10
6222.901107517665
 20
-1575.403746872433
 30
0.0
 11
6222.901107517665
 21
-1576.103746872433
 31
0.0
  0
ARC
  5
55F07
330
1F
100
AcDbEntity
  8
AM_0
  6
中線
 48
0.5
370
    30
100
AcDbCircle
 10
6222.401107517665
 20
-1575.403746872433
 30
0.0
 40
0.5
100
AcDbArc
 50
0.0
 51
90.0
1001
GENIUS_GENOBJ-N-FIL_13
1002
{
1000
OWNER
1000
GEN
1002
}
1001
GENIUS_GENODEF_13
1002
{
1000
HIER
1070
     0
1002
}
1002
{
1000
MANEDIT
1070
     0
1002
}
1002
{
1000
NOSEL
1070
     0
1002
}
1002
{
1000
BEHIND
1070
     0
1002
}
1002
{
1000
OTHER
1070
     0
1002
}
1002
{
1000
REACTOR
1002
}
  0
ARC
  5
55F08
330
1F
100
AcDbEntity
  8
AM_0
  6
中線
 48
0.5
370
    30
100
AcDbCircle
 10
6222.401107517665
 20
-1576.103746872433
 30
0.0
 40
0.5
100
AcDbArc
 50
270.0
 51
0.0000000000130276
1001
GENIUS_GENOBJ-N-FIL_13
1002
{
1000
OWNER
1000
GEN
1002
}
1001
GENIUS_GENODEF_13
1002
{
1000
HIER
1070
     0
1002
}
1002
{
1000
MANEDIT
1070
     0
1002
}
1002
{
1000
NOSEL
1070
     0
1002
}
1002
{
1000
BEHIND
1070
     0
1002
}
1002
{
1000
OTHER
1070
     0
1002
}
1002
{
1000
REACTOR
1002
}
  0
LINE
  5
55F09
330
1F
100
AcDbEntity
  8
AM_0
  6
中線
 48
0.5
370
    30
100
AcDbLine
 10
6216.76522425469
 20
-1563.203746872433
 30
0.0
 11
6243.898178584267
 21
-1563.203746872434
 31
0.0
  0
ARC
  5
55F0A
330
1F
100
AcDbEntity
  8
AM_0
  6
中線
 48
0.5
370
    30
100
AcDbCircle
 10
6222.401107517665
 20
-1564.503746872433
 30
0.0
 40
0.5
100
AcDbArc
 50
0.0
 51
90.0
1001
GENIUS_GENODEF_13
1002
{
1000
HIER
1070
     0
1002
}
1002
{
1000
MANEDIT
1070
     0
1002
}
1002
{
1000
NOSEL
1070
     0
1002
}
1002
{
1000
BEHIND
1070
     0
1002
}
1002
{
1000
OTHER
1070
     0
1002
}
1002
{
1000
REACTOR
1002
}
1001
GENIUS_GENOBJ-N-FIL_13
1002
{
1000
OWNER
1000
GEN
1002
}
  0
ARC
  5
55F0B
330
1F
100
AcDbEntity
  8
AM_0
  6
中線
 48
0.5
370
    30
100
AcDbCircle
 10
6222.401107517666
 20
-1565.203746872433
 30
0.0
 40
0.5
100
AcDbArc
 50
270.0
 51
0.0000000000130276
1001
GENIUS_GENOBJ-N-FIL_13
1002
{
1000
OWNER
1000
GEN
1002
}
1001
GENIUS_GENODEF_13
1002
{
1000
HIER
1070
     0
1002
}
1002
{
1000
MANEDIT
1070
     0
1002
}
1002
{
1000
NOSEL
1070
     0
1002
}
1002
{
1000
BEHIND
1070
     0
1002
}
1002
{
1000
OTHER
1070
     0
1002
}
1002
{
1000
REACTOR
1002
}
  0
LINE
  5
55F0C
330
1F
100
AcDbEntity
  8
AM_7
  6
中心線1
 48
0.15
370
    13
100
AcDbLine
 10
6219.76522425469
 20
-1565.003746872434
 30
0.0
 11
6219.76522425469
 21
-1562.203746872433
 31
0.0
1001
GENIUS_GENODEF_13
1002
{
1000
HIER
1070
     0
1002
}
1002
{
1000
MANEDIT
1070
     0
1002
}
1002
{
1000
NOSEL
1070
     0
1002
}
1002
{
1000
BEHIND
1070
     0
1002
}
1002
{
1000
OTHER
1070
     0
1002
}
1002
{
1000
REACTOR
1002
}
1001
GENIUS_GENOBJ-N-CEN_13
1002
{
1000
OWNER
1000
GEN
1002
}
1001
GENIUS_GENCEN_19
1002
{
1040
2.5
1002
}
  0
LINE
  5
55F0D
330
1F
100
AcDbEntity
  8
AM_7
  6
中心線1
 48
0.15
370
    13
100
AcDbLine
 10
6219.76522425469
 20
-1575.603746872433
 30
0.0
 11
6219.76522425469
 21
-1578.403746872433
 31
0.0
1001
GENIUS_GENODEF_13
1002
{
1000
HIER
1070
     0
1002
}
1002
{
1000
MANEDIT
1070
     0
1002
}
1002
{
1000
NOSEL
1070
     0
1002
}
1002
{
1000
BEHIND
1070
     0
1002
}
1002
{
1000
OTHER
1070
     0
1002
}
1002
{
1000
REACTOR
1002
}
1001
GENIUS_GENOBJ-N-CEN_13
1002
{
1000
OWNER
1000
GEN
1002
}
1001
GENIUS_GENCEN_19
1002
{
1040
2.5
1002
}
  0
DIMENSION
  5
55F0E
330
1F
100
AcDbEntity
  8
AM_5
100
AcDbDimension
  2
*D7
 10
6254.940335969481
 20
-1577.403746872434
 30
0.0
 11
6254.940335969481
 21
-1570.303746872433
 31
0.0
 70
   160
  1
<>
 71
     5
 42
14.19999999999936
  3
SYS$0
100
AcDbAlignedDimension
 13
6243.898178584267
 23
-1563.203746872434
 33
0.0
 14
6243.898178584267
 24
-1577.403746872434
 34
0.0
 50
90.0
100
AcDbRotatedDimension
1001
ACAD
1000
DSTYLE
1002
{
1070
    47
1040
0.05
1070
    48
1040
0.03
1070
   179
1070
     2
1070
   271
1070
     3
1002
}
  0
LINE
  5
55F0F
330
1F
100
AcDbEntity
  8
AM_0
  6
中線
 48
0.5
370
    30
100
AcDbLine
 10
6222.553982657774
 20
-1565.203746872433
 30
0.0
 11
6222.553982657772
 21
-1564.503746872433
 31
0.0
  0
LINE
  5
55F10
330
1F
100
AcDbEntity
  8
AM_0
  6
中線
 48
0.5
370
    30
100
AcDbLine
 10
6222.553982657772
 20
-1575.403746872433
 30
0.0
 11
6222.553982657772
 21
-1576.103746872433
 31
0.0
  0
ARC
  5
55F11
330
1F
100
AcDbEntity
  8
AM_0
  6
中線
 48
0.5
370
    30
100
AcDbCircle
 10
6222.053982657772
 20
-1575.403746872433
 30
0.0
 40
0.5
100
AcDbArc
 50
0.0
 51
90.0
1001
GENIUS_GENOBJ-N-FIL_13
1002
{
1000
OWNER
1000
GEN
1002
}
1001
GENIUS_GENODEF_13
1002
{
1000
HIER
1070
     0
1002
}
1002
{
1000
MANEDIT
1070
     0
1002
}
1002
{
1000
NOSEL
1070
     0
1002
}
1002
{
1000
BEHIND
1070
     0
1002
}
1002
{
1000
OTHER
1070
     0
1002
}
1002
{
1000
REACTOR
1002
}
  0
ARC
  5
55F12
330
1F
100
AcDbEntity
  8
AM_0
  6
中線
 48
0.5
370
    30
100
AcDbCircle
 10
6222.053982657772
 20
-1576.103746872433
 30
0.0
 40
0.5
100
AcDbArc
 50
270.0
 51
0.0000000000130276
1001
GENIUS_GENOBJ-N-FIL_13
1002
{
1000
OWNER
1000
GEN
1002
}
1001
GENIUS_GENODEF_13
1002
{
1000
HIER
1070
     0
1002
}
1002
{
1000
MANEDIT
1070
     0
1002
}
1002
{
1000
NOSEL
1070
     0
1002
}
1002
{
1000
BEHIND
1070
     0
1002
}
1002
{
1000
OTHER
1070
     0
1002
}
1002
{
1000
REACTOR
1002
}
  0
ARC
  5
55F13
330
1F
100
AcDbEntity
  8
AM_0
  6
中線
 48
0.5
370
    30
100
AcDbCircle
 10
6222.053982657772
 20
-1564.503746872433
 30
0.0
 40
0.5
100
AcDbArc
 50
0.0
 51
90.0
1001
GENIUS_GENODEF_13
1002
{
1000
HIER
1070
     0
1002
}
1002
{
1000
MANEDIT
1070
     0
1002
}
1002
{
1000
NOSEL
1070
     0
1002
}
1002
{
1000
BEHIND
1070
     0
1002
}
1002
{
1000
OTHER
1070
     0
1002
}
1002
{
1000
REACTOR
1002
}
1001
GENIUS_GENOBJ-N-FIL_13
1002
{
1000
OWNER
1000
GEN
1002
}
  0
ARC
  5
55F14
330
1F
100
AcDbEntity
  8
AM_0
  6
中線
 48
0.5
370
    30
100
AcDbCircle
 10
6222.053982657773
 20
-1565.203746872433
 30
0.0
 40
0.5
100
AcDbArc
 50
270.0
 51
0.0000000000130276
1001
GENIUS_GENOBJ-N-FIL_13
1002
{
1000
OWNER
1000
GEN
1002
}
1001
GENIUS_GENODEF_13
1002
{
1000
HIER
1070
     0
1002
}
1002
{
1000
MANEDIT
1070
     0
1002
}
1002
{
1000
NOSEL
1070
     0
1002
}
1002
{
1000
BEHIND
1070
     0
1002
}
1002
{
1000
OTHER
1070
     0
1002
}
1002
{
1000
REACTOR
1002
}
  0
ELLIPSE
  5
55F15
330
1F
100
AcDbEntity
  8
AM_0
  6
中線
 48
0.5
370
    30
100
AcDbEllipse
 10
6217.066285007213
 20
-1566.203746872433
 30
0.0
 11
0.0
 21
0.5
 31
0.0
210
0.0
220
0.0
230
1.0
 40
0.3583679495459364
 41
6.283185307179586
 42
7.853981633974482
  0
ELLIPSE
  5
55F16
330
1F
100
AcDbEntity
  8
AM_0
  6
中線
 48
0.5
370
    30
100
AcDbEllipse
 10
6217.066285007213
 20
-1574.403746872433
 30
0.0
 11
0.0
 21
-0.5
 31
0.0
210
0.0
220
0.0
230
-1.0
 40
0.3583679495459364
 41
6.283185307179586
 42
7.853981633974482
  0
LINE
  5
55F17
330
1F
100
AcDbEntity
  8
AM_0
  6
中線
 48
0.5
370
    30
100
AcDbLine
 10
6223.26522425469
 20
-1657.860870271217
 30
0.0
 11
6216.76522425469
 21
-1657.860870271217
 31
0.0
  0
LINE
  5
55F18
330
1F
100
AcDbEntity
  8
AM_0
  6
中線
 48
0.5
370
    30
100
AcDbLine
 10
6216.76522425469
 20
-1657.860870271217
 30
0.0
 11
6216.76522425469
 21
-1645.660870271217
 31
0.0
  0
LINE
  5
55F19
330
1F
100
AcDbEntity
  8
AM_7
  6
中心線1
 48
0.2
370
    13
100
AcDbLine
 10
6232.26522425469
 20
-1654.285870271217
 30
0.0
 11
6232.26522425469
 21
-1649.235870271217
 31
0.0
  0
LINE
  5
55F1A
330
1F
100
AcDbEntity
  8
AM_0
  6
中線
 48
0.5
370
    30
100
AcDbLine
 10
6216.76522425469
 20
-1645.660870271217
 30
0.0
 11
6223.26522425469
 21
-1645.660870271217
 31
0.0
  0
CIRCLE
  5
55F1D
330
1F
100
AcDbEntity
  8
AM_0
  6
中線
 48
0.5
370
    30
100
AcDbCircle
 10
6224.26522425469
 20
-1651.760870271217
 30
0.0
 40
2.35
  0
CIRCLE
  5
55F1E
330
1F
100
AcDbEntity
  8
AM_0
  6
中線
 48
0.5
370
    30
100
AcDbCircle
 10
6237.265224254691
 20
-1651.760870271217
 30
0.0
 40
2.35
  0
LINE
  5
55F1F
330
1F
100
AcDbEntity
  8
AM_7
  6
中心線1
 48
0.3
370
    13
100
AcDbLine
 10
6224.26522425469
 20
-1648.360870271217
 30
0.0
 11
6224.26522425469
 21
-1655.160870271217
 31
0.0
1001
GENIUS_GENODEF_13
1002
{
1000
HIER
1070
     0
1002
}
1002
{
1000
MANEDIT
1070
     0
1002
}
1002
{
1000
NOSEL
1070
     0
1002
}
1002
{
1000
BEHIND
1070
     0
1002
}
1002
{
1000
OTHER
1070
     0
1002
}
1002
{
1000
REACTOR
1002
}
1001
GENIUS_GENOBJ-N-CEN_13
1002
{
1000
OWNER
1000
GEN
1002
}
1001
GENIUS_GENCEN_19
1002
{
1040
2.5
1002
}
  0
LINE
  5
55F20
330
1F
100
AcDbEntity
  8
AM_7
  6
中心線1
 48
0.5
370
    13
100
AcDbLine
 10
6198.265224254689
 20
-1651.760870271217
 30
0.0
 11
6248.440335969482
 21
-1651.760870271217
 31
0.0
1001
GENIUS_GENOBJ-N-CEN_13
1002
{
1000
OWNER
1000
GEN
1002
}
1001
GENIUS_GENODEF_13
1002
{
1000
HIER
1070
     0
1002
}
1002
{
1000
MANEDIT
1070
     0
1002
}
1002
{
1000
NOSEL
1070
     0
1002
}
1002
{
1000
BEHIND
1070
     0
1002
}
1002
{
1000
OTHER
1070
     0
1002
}
1002
{
1000
REACTOR
1002
}
1001
GENIUS_GENCEN_19
1002
{
1040
2.5
1002
}
  0
LINE
  5
55F21
330
1F
100
AcDbEntity
  8
AM_7
  6
中心線1
 48
0.3
370
    13
100
AcDbLine
 10
6237.265224254691
 20
-1648.360870271217
 30
0.0
 11
6237.265224254691
 21
-1655.160870271217
 31
0.0
1001
GENIUS_GENODEF_13
1002
{
1000
HIER
1070
     0
1002
}
1002
{
1000
MANEDIT
1070
     0
1002
}
1002
{
1000
NOSEL
1070
     0
1002
}
1002
{
1000
BEHIND
1070
     0
1002
}
1002
{
1000
OTHER
1070
     0
1002
}
1002
{
1000
REACTOR
1002
}
1001
GENIUS_GENOBJ-N-CEN_13
1002
{
1000
OWNER
1000
GEN
1002
}
1001
GENIUS_GENCEN_19
1002
{
1040
2.5
1002
}
  0
LINE
  5
55F22
330
1F
100
AcDbEntity
  8
AM_0
  6
中線
 48
0.5
370
    30
100
AcDbLine
 10
6224.765224254691
 20
-1646.260870271216
 30
0.0
 11
6241.095351273611
 21
-1646.260870271216
 31
0.0
1001
GENIUS_GENOBJ-N-CEN_13
1002
{
1000
OWNER
1000
GEN
1002
}
1001
GENIUS_GENODEF_13
1002
{
1000
HIER
1070
     0
1002
}
1002
{
1000
MANEDIT
1070
     0
1002
}
1002
{
1000
NOSEL
1070
     0
1002
}
1002
{
1000
BEHIND
1070
     0
1002
}
1002
{
1000
OTHER
1070
     0
1002
}
1002
{
1000
REACTOR
1002
}
1001
GENIUS_GENCEN_19
1002
{
1040
2.5
1002
}
  0
LINE
  5
55F23
330
1F
100
AcDbEntity
  8
AM_0
  6
中線
 48
0.5
370
    30
100
AcDbLine
 10
6224.76522425469
 20
-1657.260870271217
 30
0.0
 11
6241.095351273612
 21
-1657.260870271217
 31
0.0
1001
GENIUS_GENOBJ-N-CEN_13
1002
{
1000
OWNER
1000
GEN
1002
}
1001
GENIUS_GENODEF_13
1002
{
1000
HIER
1070
     0
1002
}
1002
{
1000
MANEDIT
1070
     0
1002
}
1002
{
1000
NOSEL
1070
     0
1002
}
1002
{
1000
BEHIND
1070
     0
1002
}
1002
{
1000
OTHER
1070
     0
1002
}
1002
{
1000
REACTOR
1002
}
1001
GENIUS_GENCEN_19
1002
{
1040
2.5
1002
}
  0
CIRCLE
  5
55F2A
330
1F
100
AcDbEntity
  8
AM_0
  6
中線
 48
0.5
370
    30
100
AcDbCircle
 10
6232.26522425469
 20
-1651.760870271217
 30
0.0
 40
1.524999999999999
  0
ARC
  5
55F2B
330
1F
100
AcDbEntity
  8
AM_0
  6
中線
 48
0.5
370
    30
100
AcDbCircle
 10
6236.76522425469
 20
-1651.760870271217
 30
0.0
 40
7.0
100
AcDbArc
 50
308.213210701744
 51
51.78678929825601
  0
LINE
  5
55F2C
330
1F
100
AcDbEntity
  8
AM_0
  6
中線
 48
0.5
370
    30
100
AcDbLine
 10
6222.453982657773
 20
-1576.403746872433
 30
0.0
 11
6216.76522425469
 21
-1576.403746872433
 31
0.0
  0
LINE
  5
55F2D
330
1F
100
AcDbEntity
  8
AM_0
  6
中線
 48
0.5
370
    30
100
AcDbLine
 10
6216.76522425469
 20
-1576.403746872433
 30
0.0
 11
6216.76522425469
 21
-1564.203746872433
 31
0.0
  0
LINE
  5
55F2E
330
1F
100
AcDbEntity
  8
AM_0
  6
中線
 48
0.5
370
    30
100
AcDbLine
 10
6216.76522425469
 20
-1564.203746872433
 30
0.0
 11
6222.453982657773
 21
-1564.203746872433
 31
0.0
  0
LINE
  5
55F2F
330
1F
100
AcDbEntity
  8
AM_0
  6
中線
 48
0.5
370
    30
100
AcDbLine
 10
6222.553982657772
 20
-1575.403746872433
 30
0.0
 11
6216.76522425469
 21
-1575.403746872433
 31
0.0
  0
LINE
  5
55F30
330
1F
100
AcDbEntity
  8
AM_0
  6
中線
 48
0.5
370
    30
100
AcDbLine
 10
6216.76522425469
 20
-1565.203746872433
 30
0.0
 11
6222.553982657774
 21
-1565.203746872433
 31
0.0
  0
LINE
  5
55F31
330
1F
100
AcDbEntity
  8
AM_0
  6
中線
 48
0.5
370
    30
100
AcDbLine
 10
6218.015224254689
 20
-1577.603746872433
 30
0.0
 11
6218.015224254689
 21
-1577.403746872433
 31
0.0
1001
GENIUS_GENREC_14
1002
{
1000
PYDIR
1011
6222.01522425469
1021
-1578.003746872433
1031
0.0
1002
}
1002
{
1000
PXDIR
1011
6218.015224254689
1021
-1577.403746872433
1031
0.0
1002
}
1002
{
1000
PORI
1011
6218.015224254689
1021
-1578.003746872433
1031
0.0
1002
}
1002
{
1000
PINS
1011
6218.015224254689
1021
-1578.003746872433
1031
0.0
1002
}
1002
{
1000
PINS2
1011
6222.01522425469
1021
-1577.403746872433
1031
0.0
1002
}
1002
{
1000
C
1070
     1
1002
}
1001
GENIUS_GENOBJ-N-REC_13
1002
{
1000
OWNER
1000
GEN
1002
}
1001
GENIUS_GENODEF_13
1002
{
1000
HIER
1070
     0
1002
}
1002
{
1000
MANEDIT
1070
     0
1002
}
1002
{
1000
NOSEL
1070
     0
1002
}
1002
{
1000
BEHIND
1070
     0
1002
}
1002
{
1000
OTHER
1070
     0
1002
}
1002
{
1000
REACTOR
1002
}
  0
LINE
  5
55F32
330
1F
100
AcDbEntity
  8
AM_0
  6
中線
 48
0.5
370
    30
100
AcDbLine
 10
6218.015224254689
 20
-1577.403746872433
 30
0.0
 11
6221.515224254689
 21
-1577.403746872433
 31
0.0
1001
GENIUS_GENREC_14
1002
{
1000
PYDIR
1011
6221.515224254689
1021
-1578.203746872433
1031
0.0
1002
}
1002
{
1000
PXDIR
1011
6218.015224254689
1021
-1577.403746872433
1031
0.0
1002
}
1002
{
1000
PORI
1011
6218.015224254689
1021
-1578.203746872433
1031
0.0
1002
}
1002
{
1000
PINS
1011
6218.015224254689
1021
-1578.203746872433
1031
0.0
1002
}
1002
{
1000
PINS2
1011
6221.515224254689
1021
-1577.403746872433
1031
0.0
1002
}
1002
{
1000
C
1070
     1
1002
}
1001
GENIUS_GENOBJ-N-REC_13
1002
{
1000
OWNER
1000
GEN
1002
}
1001
GENIUS_GENODEF_13
1002
{
1000
HIER
1070
     0
1002
}
1002
{
1000
MANEDIT
1070
     0
1002
}
1002
{
1000
NOSEL
1070
     0
1002
}
1002
{
1000
BEHIND
1070
     0
1002
}
1002
{
1000
OTHER
1070
     0
1002
}
1002
{
1000
REACTOR
1002
}
  0
LINE
  5
55F33
330
1F
100
AcDbEntity
  8
AM_0
  6
中線
 48
0.5
370
    30
100
AcDbLine
 10
6221.515224254689
 20
-1577.403746872433
 30
0.0
 11
6221.515224254689
 21
-1577.603746872433
 31
0.0
1001
GENIUS_GENREC_14
1002
{
1000
PYDIR
1011
6221.515224254689
1021
-1578.003746872433
1031
0.0
1002
}
1002
{
1000
PXDIR
1011
6217.51522425469
1021
-1577.403746872433
1031
0.0
1002
}
1002
{
1000
PORI
1011
6217.51522425469
1021
-1578.003746872433
1031
0.0
1002
}
1002
{
1000
PINS
1011
6217.51522425469
1021
-1578.003746872433
1031
0.0
1002
}
1002
{
1000
PINS2
1011
6221.515224254689
1021
-1577.403746872433
1031
0.0
1002
}
1002
{
1000
C
1070
     1
1002
}
1001
GENIUS_GENOBJ-N-REC_13
1002
{
1000
OWNER
1000
GEN
1002
}
1001
GENIUS_GENODEF_13
1002
{
1000
HIER
1070
     0
1002
}
1002
{
1000
MANEDIT
1070
     0
1002
}
1002
{
1000
NOSEL
1070
     0
1002
}
1002
{
1000
BEHIND
1070
     0
1002
}
1002
{
1000
OTHER
1070
     0
1002
}
1002
{
1000
REACTOR
1002
}
  0
LINE
  5
55F34
330
1F
100
AcDbEntity
  8
AM_0
  6
中線
 48
0.5
370
    30
100
AcDbLine
 10
6220.765224254689
 20
-1564.003746872433
 30
0.0
 11
6220.765224254689
 21
-1564.203746872433
 31
0.0
1001
GENIUS_GENREC_14
1002
{
1000
PYDIR
1011
6218.26522425469
1021
-1577.203746872432
1031
0.0
1002
}
1002
{
1000
PXDIR
1011
6220.765224254689
1021
-1562.203746872433
1031
0.0
1002
}
1002
{
1000
PORI
1011
6218.26522425469
1021
-1562.203746872433
1031
0.0
1002
}
1002
{
1000
PINS
1011
6218.26522425469
1021
-1562.203746872433
1031
0.0
1002
}
1002
{
1000
PINS2
1011
6220.765224254689
1021
-1577.203746872432
1031
0.0
1002
}
1002
{
1000
C
1070
     1
1002
}
1001
GENIUS_GENODEF_13
1002
{
1000
HIER
1070
     0
1002
}
1002
{
1000
MANEDIT
1070
     0
1002
}
1002
{
1000
NOSEL
1070
     0
1002
}
1002
{
1000
BEHIND
1070
     0
1002
}
1002
{
1000
OTHER
1070
     0
1002
}
1002
{
1000
REACTOR
1002
}
1001
GENIUS_GENOBJ-N-REC_13
1002
{
1000
OWNER
1000
GEN
1002
}
  0
LINE
  5
55F35
330
1F
100
AcDbEntity
  8
AM_0
  6
中線
 48
0.5
370
    30
100
AcDbLine
 10
6220.765224254689
 20
-1565.203746872433
 30
0.0
 11
6220.765224254689
 21
-1565.703746872434
 31
0.0
1001
GENIUS_GENREC_14
1002
{
1000
PYDIR
1011
6218.26522425469
1021
-1577.203746872432
1031
0.0
1002
}
1002
{
1000
PXDIR
1011
6220.765224254689
1021
-1562.203746872433
1031
0.0
1002
}
1002
{
1000
PORI
1011
6218.26522425469
1021
-1562.203746872433
1031
0.0
1002
}
1002
{
1000
PINS
1011
6218.26522425469
1021
-1562.203746872433
1031
0.0
1002
}
1002
{
1000
PINS2
1011
6220.765224254689
1021
-1577.203746872432
1031
0.0
1002
}
1002
{
1000
C
1070
     1
1002
}
1001
GENIUS_GENODEF_13
1002
{
1000
HIER
1070
     0
1002
}
1002
{
1000
MANEDIT
1070
     0
1002
}
1002
{
1000
NOSEL
1070
     0
1002
}
1002
{
1000
BEHIND
1070
     0
1002
}
1002
{
1000
OTHER
1070
     0
1002
}
1002
{
1000
REACTOR
1002
}
1001
GENIUS_GENOBJ-N-REC_13
1002
{
1000
OWNER
1000
GEN
1002
}
  0
LINE
  5
55F36
330
1F
100
AcDbEntity
  8
AM_0
  6
中線
 48
0.5
370
    30
100
AcDbLine
 10
6218.765224254689
 20
-1565.703746872434
 30
0.0
 11
6218.765224254689
 21
-1565.203746872433
 31
0.0
1001
GENIUS_GENREC_14
1002
{
1000
PYDIR
1011
6218.765224254689
1021
-1577.203746872432
1031
0.0
1002
}
1002
{
1000
PXDIR
1011
6221.26522425469
1021
-1562.203746872433
1031
0.0
1002
}
1002
{
1000
PORI
1011
6218.765224254689
1021
-1562.203746872433
1031
0.0
1002
}
1002
{
1000
PINS
1011
6218.765224254689
1021
-1562.203746872433
1031
0.0
1002
}
1002
{
1000
PINS2
1011
6221.26522425469
1021
-1577.203746872432
1031
0.0
1002
}
1002
{
1000
C
1070
     1
1002
}
1001
GENIUS_GENODEF_13
1002
{
1000
HIER
1070
     0
1002
}
1002
{
1000
MANEDIT
1070
     0
1002
}
1002
{
1000
NOSEL
1070
     0
1002
}
1002
{
1000
BEHIND
1070
     0
1002
}
1002
{
1000
OTHER
1070
     0
1002
}
1002
{
1000
REACTOR
1002
}
1001
GENIUS_GENOBJ-N-REC_13
1002
{
1000
OWNER
1000
GEN
1002
}
  0
LINE
  5
55F37
330
1F
100
AcDbEntity
  8
AM_0
  6
中線
 48
0.5
370
    30
100
AcDbLine
 10
6218.765224254688
 20
-1564.203746872433
 30
0.0
 11
6218.765224254689
 21
-1564.003746872433
 31
0.0
1001
GENIUS_GENREC_14
1002
{
1000
PYDIR
1011
6218.765224254689
1021
-1577.203746872432
1031
0.0
1002
}
1002
{
1000
PXDIR
1011
6221.26522425469
1021
-1562.203746872433
1031
0.0
1002
}
1002
{
1000
PORI
1011
6218.765224254689
1021
-1562.203746872433
1031
0.0
1002
}
1002
{
1000
PINS
1011
6218.765224254689
1021
-1562.203746872433
1031
0.0
1002
}
1002
{
1000
PINS2
1011
6221.26522425469
1021
-1577.203746872432
1031
0.0
1002
}
1002
{
1000
C
1070
     1
1002
}
1001
GENIUS_GENODEF_13
1002
{
1000
HIER
1070
     0
1002
}
1002
{
1000
MANEDIT
1070
     0
1002
}
1002
{
1000
NOSEL
1070
     0
1002
}
1002
{
1000
BEHIND
1070
     0
1002
}
1002
{
1000
OTHER
1070
     0
1002
}
1002
{
1000
REACTOR
1002
}
1001
GENIUS_GENOBJ-N-REC_13
1002
{
1000
OWNER
1000
GEN
1002
}
  0
LINE
  5
55F39
330
1F
100
AcDbEntity
  8
AM_7
  6
中心線1
 48
0.3
370
    13
100
AcDbLine
 10
6207.26522425469
 20
-1559.453746872433
 30
0.0
 11
6207.26522425469
 21
-1567.653746872433
 31
0.0
1001
GENIUS_GENODEF_13
1002
{
1000
HIER
1070
     0
1002
}
1002
{
1000
MANEDIT
1070
     0
1002
}
1002
{
1000
NOSEL
1070
     0
1002
}
1002
{
1000
BEHIND
1070
     0
1002
}
1002
{
1000
OTHER
1070
     0
1002
}
1002
{
1000
REACTOR
1002
}
1001
GENIUS_GENOBJ-N-CEN_13
1002
{
1000
OWNER
1000
GEN
1002
}
1001
GENIUS_GENCEN_19
1002
{
1040
2.5
1002
}
  0
LINE
  5
55F3A
330
1F
100
AcDbEntity
  8
AM_7
  6
中心線1
 48
0.3
370
    13
100
AcDbLine
 10
6203.16522425469
 20
-1563.553746872433
 30
0.0
 11
6211.36522425469
 21
-1563.553746872433
 31
0.0
1001
GENIUS_GENOBJ-N-CEN_13
1002
{
1000
OWNER
1000
GEN
1002
}
1001
GENIUS_GENODEF_13
1002
{
1000
HIER
1070
     0
1002
}
1002
{
1000
MANEDIT
1070
     0
1002
}
1002
{
1000
NOSEL
1070
     0
1002
}
1002
{
1000
BEHIND
1070
     0
1002
}
1002
{
1000
OTHER
1070
     0
1002
}
1002
{
1000
REACTOR
1002
}
1001
GENIUS_GENCEN_19
1002
{
1040
2.5
1002
}
  0
LINE
  5
55F3B
330
1F
100
AcDbEntity
  8
AM_0
  6
中線
 48
0.5
370
    30
100
AcDbLine
 10
6210.382360233582
 20
-1565.303746872433
 30
0.0
 11
6213.26522425469
 21
-1565.303746872433
 31
0.0
  0
LINE
  5
55F3C
330
1F
100
AcDbEntity
  8
AM_0
  6
中線
 48
0.5
370
    30
100
AcDbLine
 10
6213.26522425469
 20
-1565.303746872433
 30
0.0
 11
6213.265224254691
 21
-1575.303746872434
 31
0.0
  0
LINE
  5
55F3D
330
1F
100
AcDbEntity
  8
AM_7
  6
中心線1
 48
0.5
370
    13
100
AcDbLine
 10
6198.265224254689
 20
-1570.303746872433
 30
0.0
 11
6248.440335969482
 21
-1570.303746872435
 31
0.0
1001
GENIUS_GENODEF_13
1002
{
1000
HIER
1070
     0
1002
}
1002
{
1000
MANEDIT
1070
     0
1002
}
1002
{
1000
NOSEL
1070
     0
1002
}
1002
{
1000
BEHIND
1070
     0
1002
}
1002
{
1000
OTHER
1070
     0
1002
}
1002
{
1000
REACTOR
1002
}
1001
GENIUS_GENOBJ-N-CEN_13
1002
{
1000
OWNER
1000
GEN
1002
}
1001
GENIUS_GENCEN_19
1002
{
1040
2.5
1002
}
  0
LINE
  5
55F3E
330
1F
100
AcDbEntity
  8
AM_0
  6
中線
 48
0.5
370
    30
100
AcDbLine
 10
6203.353543179893
 20
-1581.403746872433
 30
0.0
 11
6211.515224254696
 21
-1581.403746872434
 31
0.0
1001
GENIUS_GENODEF_13
1002
{
1000
HIER
1070
     0
1002
}
1002
{
1000
MANEDIT
1070
     0
1002
}
1002
{
1000
NOSEL
1070
     0
1002
}
1002
{
1000
BEHIND
1070
     0
1002
}
1002
{
1000
OTHER
1070
     0
1002
}
1002
{
1000
REACTOR
1002
}
1001
GENIUS_GENOBJ-N-CEN_13
1002
{
1000
OWNER
1000
GEN
1002
}
1001
GENIUS_GENCEN_19
1002
{
1040
2.5
1002
}
  0
LINE
  5
55F3F
330
1F
100
AcDbEntity
  8
AM_0
  6
中線
 48
0.5
370
    30
100
AcDbLine
 10
6203.353543179893
 20
-1559.203746872434
 30
0.0
 11
6211.515224254697
 21
-1559.203746872432
 31
0.0
1001
GENIUS_GENODEF_13
1002
{
1000
HIER
1070
     0
1002
}
1002
{
1000
MANEDIT
1070
     0
1002
}
1002
{
1000
NOSEL
1070
     0
1002
}
1002
{
1000
BEHIND
1070
     0
1002
}
1002
{
1000
OTHER
1070
     0
1002
}
1002
{
1000
REACTOR
1002
}
1001
GENIUS_GENOBJ-N-CEN_13
1002
{
1000
OWNER
1000
GEN
1002
}
1001
GENIUS_GENCEN_19
1002
{
1040
2.5
1002
}
  0
LINE
  5
55F40
330
1F
100
AcDbEntity
  8
AM_0
  6
中線
 48
0.5
370
    30
100
AcDbLine
 10
6211.34171859671
 20
-1575.303746872433
 30
0.0
 11
6213.26522425469
 21
-1575.303746872433
 31
0.0
  0
LINE
  5
55F41
330
1F
100
AcDbEntity
  8
AM_7
  6
中心線1
 48
0.3
370
    13
100
AcDbLine
 10
6207.26522425469
 20
-1572.953746872433
 30
0.0
 11
6207.26522425469
 21
-1581.153746872433
 31
0.0
1001
GENIUS_GENODEF_13
1002
{
1000
HIER
1070
     0
1002
}
1002
{
1000
MANEDIT
1070
     0
1002
}
1002
{
1000
NOSEL
1070
     0
1002
}
1002
{
1000
BEHIND
1070
     0
1002
}
1002
{
1000
OTHER
1070
     0
1002
}
1002
{
1000
REACTOR
1002
}
1001
GENIUS_GENOBJ-N-CEN_13
1002
{
1000
OWNER
1000
GEN
1002
}
1001
GENIUS_GENCEN_19
1002
{
1040
2.5
1002
}
  0
LINE
  5
55F42
330
1F
100
AcDbEntity
  8
AM_7
  6
中心線1
 48
0.3
370
    13
100
AcDbLine
 10
6203.16522425469
 20
-1577.053746872433
 30
0.0
 11
6211.36522425469
 21
-1577.053746872433
 31
0.0
1001
GENIUS_GENOBJ-N-CEN_13
1002
{
1000
OWNER
1000
GEN
1002
}
1001
GENIUS_GENODEF_13
1002
{
1000
HIER
1070
     0
1002
}
1002
{
1000
MANEDIT
1070
     0
1002
}
1002
{
1000
NOSEL
1070
     0
1002
}
1002
{
1000
BEHIND
1070
     0
1002
}
1002
{
1000
OTHER
1070
     0
1002
}
1002
{
1000
REACTOR
1002
}
1001
GENIUS_GENCEN_19
1002
{
1040
2.5
1002
}
  0
ARC
  5
55F43
330
1F
100
AcDbEntity
  8
AM_0
  6
中線
 48
0.5
370
    30
100
AcDbCircle
 10
6221.765224254689
 20
-1570.303746872433
 30
0.0
 40
22.0
100
AcDbArc
 50
151.2523779965492
 51
208.7476220034524
1001
GENIUS_GENOBJ-N-FIL_13
1002
{
1000
OWNER
1000
GEN
1002
}
1001
GENIUS_GENODEF_13
1002
{
1000
HIER
1070
     0
1002
}
1002
{
1000
MANEDIT
1070
     0
1002
}
1002
{
1000
NOSEL
1070
     0
1002
}
1002
{
1000
BEHIND
1070
     0
1002
}
1002
{
1000
OTHER
1070
     0
1002
}
1002
{
1000
REACTOR
1002
}
  0
LINE
  5
55F46
330
1F
100
AcDbEntity
  8
AM_0
  6
中線
 48
0.5
370
    30
100
AcDbLine
 10
6210.312988853525
 20
-1566.803746872433
 30
0.0
 11
6210.312988853525
 21
-1573.803746872434
 31
0.0
  0
LINE
  5
55F47
330
1F
100
AcDbEntity
  8
AM_0
  6
中線
 48
0.5
370
    30
100
AcDbLine
 10
6209.521995579056
 20
-1566.803746872433
 30
0.0
 11
6209.521995579056
 21
-1573.803746872434
 31
0.0
  0
LINE
  5
55F48
330
1F
100
AcDbEntity
  8
AM_0
  6
中線
 48
0.5
370
    30
100
AcDbLine
 10
6210.382360233581
 20
-1575.303746872434
 30
0.0
 11
6213.26522425469
 21
-1575.303746872434
 31
0.0
  0
ELLIPSE
  5
55F49
330
1F
100
AcDbEntity
  8
AM_0
  6
中線
 48
0.5
370
    30
100
AcDbEllipse
 10
6210.382360233582
 20
-1566.803746872433
 30
0.0
 11
0.0
 21
-1.5
 31
0.0
210
0.0
220
0.0
230
1.0
 40
0.5735764363510802
 41
3.141592653589793
 42
4.712388980384689
  0
ELLIPSE
  5
55F4A
330
1F
100
AcDbEntity
  8
AM_0
  6
中線
 48
0.5
370
    30
100
AcDbEllipse
 10
6211.173353508052
 20
-1566.803746872433
 30
0.0
 11
0.0
 21
-1.5
 31
0.0
210
0.0
220
0.0
230
1.0
 40
0.5735764363510802
 41
3.141592653589793
 42
4.712388980384689
  0
ELLIPSE
  5
55F4B
330
1F
100
AcDbEntity
  8
AM_0
  6
中線
 48
0.5
370
    30
100
AcDbEllipse
 10
6210.382360233581
 20
-1573.803746872434
 30
0.0
 11
0.0000000000001992
 21
1.5
 31
0.0
210
0.0
220
0.0
230
-1.0
 40
0.5735764363510802
 41
3.141592653589793
 42
4.712388980384689
  0
ELLIPSE
  5
55F4C
330
1F
100
AcDbEntity
  8
AM_0
  6
中線
 48
0.5
370
    30
100
AcDbEllipse
 10
6211.17335350805
 20
-1573.803746872434
 30
0.0
 11
0.0000000000001992
 21
1.5
 31
0.0
210
0.0
220
0.0
230
-1.0
 40
0.5735764363510802
 41
3.141592653589793
 42
4.712388980384689
  0
LINE
  5
55F4D
330
1F
100
AcDbEntity
  8
AM_0
  6
中線
 48
0.5
370
    30
100
AcDbLine
 10
6239.128856007639
 20
-1609.294884162378
 30
0.0
 11
6239.150029796681
 21
-1609.303012018477
 31
0.0
  0
ARC
  5
55F50
330
1F
100
AcDbEntity
  8
AM_0
  6
中線
 48
0.5
370
    30
100
AcDbCircle
 10
6238.292340504075
 20
-1608.746940905921
 30
0.0
 40
0.9999999999999998
100
AcDbArc
 50
266.0000000000165
 51
338.9999999999512
1001
GENIUS_GENOBJ-N-FIL_13
1002
{
1000
OWNER
1000
GEN
1002
}
1001
GENIUS_GENODEF_13
1002
{
1000
HIER
1070
     0
1002
}
1002
{
1000
MANEDIT
1070
     0
1002
}
1002
{
1000
NOSEL
1070
     0
1002
}
1002
{
1000
BEHIND
1070
     0
1002
}
1002
{
1000
OTHER
1070
     0
1002
}
1002
{
1000
REACTOR
1002
}
  0
LINE
  5
55F51
330
1F
100
AcDbEntity
  8
AM_7
  6
中心線1
 48
0.2
370
    13
100
AcDbLine
 10
6231.76522425469
 20
-1612.281478341907
 30
0.0
 11
6231.76522425469
 21
-1608.481478341908
 31
0.0
1001
GENIUS_GENODEF_13
1002
{
1000
HIER
1070
     0
1002
}
1002
{
1000
MANEDIT
1070
     0
1002
}
1002
{
1000
NOSEL
1070
     0
1002
}
1002
{
1000
BEHIND
1070
     0
1002
}
1002
{
1000
OTHER
1070
     0
1002
}
1002
{
1000
REACTOR
1002
}
1001
GENIUS_GENOBJ-N-CEN_13
1002
{
1000
OWNER
1000
GEN
1002
}
1001
GENIUS_GENCEN_19
1002
{
1040
2.5
1002
}
  0
LINE
  5
55F52
330
1F
100
AcDbEntity
  8
AM_0
  6
中線
 48
0.5
370
    30
100
AcDbLine
 10
6228.76522425469
 20
-1609.281478341908
 30
0.0
 11
6231.600994951635
 21
-1609.281478341907
 31
0.0
  0
LINE
  5
55F53
330
1F
100
AcDbEntity
  8
AM_0
  6
中線
 48
0.5
370
    30
100
AcDbLine
 10
6233.765224254689
 20
-1609.432815997385
 30
0.0
 11
6233.76522425469
 21
-1609.781478341907
 31
0.0
  0
DIMENSION
  5
55F59
330
1F
100
AcDbEntity
  8
AM_5
100
AcDbDimension
  2
*D8
 10
6191.765224254689
 20
-1581.403746872433
 30
0.0
 11
6191.765224254689
 21
-1570.303746872433
 31
0.0
 70
   160
  1
<>
 71
     5
 42
22.19999999999982
  3
SYS$0
100
AcDbAlignedDimension
 13
6203.29903894207
 23
-1559.203746872434
 33
0.0
 14
6203.353543179893
 24
-1581.403746872433
 34
0.0
 50
90.0
100
AcDbRotatedDimension
1001
ACAD
1000
DSTYLE
1002
{
1070
   286
1070
     0
1070
   284
1070
     8
1070
    47
1040
0.05
1070
    48
1040
0.03
1070
   179
1070
     2
1070
   271
1070
     3
1070
   272
1070
     3
1070
   274
1070
     4
1002
}
  0
DIMENSION
  5
55F5A
330
1F
100
AcDbEntity
  8
AM_5
100
AcDbDimension
  2
*D9
 10
6213.265224254691
 20
-1551.303746872433
 30
0.0
 11
6206.51522425469
 21
-1551.303746872433
 31
0.0
 70
   160
  1
（<>）
 71
     5
 42
13.50000000000091
  3
SYS$0
100
AcDbAlignedDimension
 13
6199.765224254689
 23
-1570.303746872433
 33
0.0
 14
6213.265224254691
 24
-1561.053746872432
 34
0.0
100
AcDbRotatedDimension
1001
ACAD
1000
DSTYLE
1002
{
1070
    47
1040
0.05
1070
    48
1040
0.03
1070
   179
1070
     2
1070
   271
1070
     3
1002
}
  0
DIMENSION
  5
55F5B
330
1F
100
AcDbEntity
  8
AM_5
100
AcDbDimension
  2
*D10
 10
6262.940335969481
 20
-1580.8036522908
 30
0.0
 11
6262.940335969481
 21
-1570.303686713265
 31
0.0
 70
   160
  1
（<>）
 71
     5
 42
20.99993115506959
  3
SYS$0
100
AcDbAlignedDimension
 13
6223.937468524744
 23
-1559.80372113573
 33
0.0
 14
6223.937467725501
 24
-1580.8036522908
 34
0.0
 50
90.0
100
AcDbRotatedDimension
1001
ACAD
1000
DSTYLE
1002
{
1070
    47
1040
0.05
1070
    48
1040
0.03
1070
   179
1070
     2
1070
   271
1070
     3
1002
}
  0
LINE
  5
55F5C
330
1F
100
AcDbEntity
  8
AM_7
  6
中心線1
 48
0.3
370
    13
100
AcDbLine
 10
6207.26522425469
 20
-1662.610870271216
 30
0.0
 11
6207.26522425469
 21
-1654.410870271216
 31
0.0
1001
GENIUS_GENODEF_13
1002
{
1000
HIER
1070
     0
1002
}
1002
{
1000
MANEDIT
1070
     0
1002
}
1002
{
1000
NOSEL
1070
     0
1002
}
1002
{
1000
BEHIND
1070
     0
1002
}
1002
{
1000
OTHER
1070
     0
1002
}
1002
{
1000
REACTOR
1002
}
1001
GENIUS_GENOBJ-N-CEN_13
1002
{
1000
OWNER
1000
GEN
1002
}
1001
GENIUS_GENCEN_19
1002
{
1040
2.5
1002
}
  0
LINE
  5
55F5D
330
1F
100
AcDbEntity
  8
AM_7
  6
中心線1
 48
0.3
370
    13
100
AcDbLine
 10
6203.165224254689
 20
-1658.510870271217
 30
0.0
 11
6211.365224254691
 21
-1658.510870271217
 31
0.0
1001
GENIUS_GENOBJ-N-CEN_13
1002
{
1000
OWNER
1000
GEN
1002
}
1001
GENIUS_GENODEF_13
1002
{
1000
HIER
1070
     0
1002
}
1002
{
1000
MANEDIT
1070
     0
1002
}
1002
{
1000
NOSEL
1070
     0
1002
}
1002
{
1000
BEHIND
1070
     0
1002
}
1002
{
1000
OTHER
1070
     0
1002
}
1002
{
1000
REACTOR
1002
}
1001
GENIUS_GENCEN_19
1002
{
1040
2.5
1002
}
  0
LINE
  5
55F5F
330
1F
100
AcDbEntity
  8
AM_0
  6
中線
 48
0.5
370
    30
100
AcDbLine
 10
6211.71522425469
 20
-1656.760870271217
 30
0.0
 11
6213.265224254691
 21
-1656.760870271217
 31
0.0
  0
LINE
  5
55F60
330
1F
100
AcDbEntity
  8
AM_0
  6
中線
 48
0.5
370
    30
100
AcDbLine
 10
6213.265224254691
 20
-1656.760870271217
 30
0.0
 11
6213.265224254691
 21
-1646.760870271217
 31
0.0
  0
LINE
  5
55F61
330
1F
100
AcDbEntity
  8
AM_0
  6
中線
 48
0.5
370
    30
100
AcDbLine
 10
6203.353543179893
 20
-1640.660870271217
 30
0.0
 11
6211.515224254688
 21
-1640.660870271215
 31
0.0
1001
GENIUS_GENODEF_13
1002
{
1000
HIER
1070
     0
1002
}
1002
{
1000
MANEDIT
1070
     0
1002
}
1002
{
1000
NOSEL
1070
     0
1002
}
1002
{
1000
BEHIND
1070
     0
1002
}
1002
{
1000
OTHER
1070
     0
1002
}
1002
{
1000
REACTOR
1002
}
1001
GENIUS_GENOBJ-N-CEN_13
1002
{
1000
OWNER
1000
GEN
1002
}
1001
GENIUS_GENCEN_19
1002
{
1040
2.5
1002
}
  0
LINE
  5
55F62
330
1F
100
AcDbEntity
  8
AM_0
  6
中線
 48
0.5
370
    30
100
AcDbLine
 10
6203.353543179893
 20
-1662.860870271217
 30
0.0
 11
6211.515224254695
 21
-1662.860870271218
 31
0.0
1001
GENIUS_GENODEF_13
1002
{
1000
HIER
1070
     0
1002
}
1002
{
1000
MANEDIT
1070
     0
1002
}
1002
{
1000
NOSEL
1070
     0
1002
}
1002
{
1000
BEHIND
1070
     0
1002
}
1002
{
1000
OTHER
1070
     0
1002
}
1002
{
1000
REACTOR
1002
}
1001
GENIUS_GENOBJ-N-CEN_13
1002
{
1000
OWNER
1000
GEN
1002
}
1001
GENIUS_GENCEN_19
1002
{
1040
2.5
1002
}
  0
LINE
  5
55F64
330
1F
100
AcDbEntity
  8
AM_7
  6
中心線1
 48
0.3
370
    13
100
AcDbLine
 10
6207.26522425469
 20
-1649.110870271216
 30
0.0
 11
6207.26522425469
 21
-1640.910870271216
 31
0.0
1001
GENIUS_GENODEF_13
1002
{
1000
HIER
1070
     0
1002
}
1002
{
1000
MANEDIT
1070
     0
1002
}
1002
{
1000
NOSEL
1070
     0
1002
}
1002
{
1000
BEHIND
1070
     0
1002
}
1002
{
1000
OTHER
1070
     0
1002
}
1002
{
1000
REACTOR
1002
}
1001
GENIUS_GENOBJ-N-CEN_13
1002
{
1000
OWNER
1000
GEN
1002
}
1001
GENIUS_GENCEN_19
1002
{
1040
2.5
1002
}
  0
LINE
  5
55F65
330
1F
100
AcDbEntity
  8
AM_7
  6
中心線1
 48
0.3
370
    13
100
AcDbLine
 10
6203.165224254689
 20
-1645.010870271217
 30
0.0
 11
6211.365224254691
 21
-1645.010870271217
 31
0.0
1001
GENIUS_GENOBJ-N-CEN_13
1002
{
1000
OWNER
1000
GEN
1002
}
1001
GENIUS_GENODEF_13
1002
{
1000
HIER
1070
     0
1002
}
1002
{
1000
MANEDIT
1070
     0
1002
}
1002
{
1000
NOSEL
1070
     0
1002
}
1002
{
1000
BEHIND
1070
     0
1002
}
1002
{
1000
OTHER
1070
     0
1002
}
1002
{
1000
REACTOR
1002
}
1001
GENIUS_GENCEN_19
1002
{
1040
2.5
1002
}
  0
LINE
  5
55F66
330
1F
100
AcDbEntity
  8
AM_0
  6
中線
 48
0.5
370
    30
100
AcDbLine
 10
6210.91522425469
 20
-1658.860870271218
 30
0.0
 11
6210.91522425469
 21
-1657.560870271217
 31
0.0
  0
ARC
  5
55F67
330
1F
100
AcDbEntity
  8
AM_0
  6
中線
 48
0.5
370
    30
100
AcDbCircle
 10
6221.765224254689
 20
-1651.760870271217
 30
0.0
 40
22.0
100
AcDbArc
 50
151.2523779965492
 51
208.7476220034508
  0
ARC
  5
55F6A
330
1F
100
AcDbEntity
  8
AM_0
  6
中線
 48
0.5
370
    30
100
AcDbCircle
 10
6211.51522425469
 20
-1661.110870271218
 30
0.0
 40
1.75
100
AcDbArc
 50
269.9999999999479
 51
90.00000000005213
1001
GENIUS_GENOBJ-N-FIL_13
1002
{
1000
OWNER
1000
GEN
1002
}
1001
GENIUS_GENODEF_13
1002
{
1000
HIER
1070
     0
1002
}
1002
{
1000
MANEDIT
1070
     0
1002
}
1002
{
1000
NOSEL
1070
     0
1002
}
1002
{
1000
BEHIND
1070
     0
1002
}
1002
{
1000
OTHER
1070
     0
1002
}
1002
{
1000
REACTOR
1002
}
  0
LINE
  5
55F6B
330
1F
100
AcDbEntity
  8
AM_0
  6
中線
 48
0.5
370
    30
100
AcDbLine
 10
6211.41522425469
 20
-1659.360870271218
 30
0.0
 11
6211.51522425469
 21
-1659.360870271218
 31
0.0
  0
ARC
  5
55F6C
330
1F
100
AcDbEntity
  8
AM_0
  6
中線
 48
0.5
370
    30
100
AcDbCircle
 10
6211.41522425469
 20
-1658.860870271218
 30
0.0
 40
0.5
100
AcDbArc
 50
179.9999999999479
 51
270.0000000000521
1001
GENIUS_GENODEF_13
1002
{
1000
HIER
1070
     0
1002
}
1002
{
1000
MANEDIT
1070
     0
1002
}
1002
{
1000
NOSEL
1070
     0
1002
}
1002
{
1000
BEHIND
1070
     0
1002
}
1002
{
1000
OTHER
1070
     0
1002
}
1002
{
1000
REACTOR
1002
}
1001
GENIUS_GENOBJ-N-FIL_13
1002
{
1000
OWNER
1000
GEN
1002
}
  0
ARC
  5
55F6D
330
1F
100
AcDbEntity
  8
AM_0
  6
中線
 48
0.5
370
    30
100
AcDbCircle
 10
6211.71522425469
 20
-1657.560870271217
 30
0.0
 40
0.8
100
AcDbArc
 50
90.0
 51
180.000000000026
1001
GENIUS_GENOBJ-N-FIL_13
1002
{
1000
OWNER
1000
GEN
1002
}
1001
GENIUS_GENODEF_13
1002
{
1000
HIER
1070
     0
1002
}
1002
{
1000
MANEDIT
1070
     0
1002
}
1002
{
1000
NOSEL
1070
     0
1002
}
1002
{
1000
BEHIND
1070
     0
1002
}
1002
{
1000
OTHER
1070
     0
1002
}
1002
{
1000
REACTOR
1002
}
  0
LINE
  5
55F6E
330
1F
100
AcDbEntity
  8
AM_0
  6
中線
 48
0.5
370
    30
100
AcDbLine
 10
6211.715224254689
 20
-1646.760870271216
 30
0.0
 11
6213.265224254691
 21
-1646.760870271217
 31
0.0
  0
ARC
  5
55F6F
330
1F
100
AcDbEntity
  8
AM_0
  6
中線
 48
0.5
370
    30
100
AcDbCircle
 10
6211.715224254689
 20
-1645.960870271216
 30
0.0
 40
0.8
100
AcDbArc
 50
180.0
 51
270.0
1001
GENIUS_GENOBJ-N-FIL_13
1002
{
1000
OWNER
1000
GEN
1002
}
1001
GENIUS_GENODEF_13
1002
{
1000
HIER
1070
     0
1002
}
1002
{
1000
MANEDIT
1070
     0
1002
}
1002
{
1000
NOSEL
1070
     0
1002
}
1002
{
1000
BEHIND
1070
     0
1002
}
1002
{
1000
OTHER
1070
     0
1002
}
1002
{
1000
REACTOR
1002
}
  0
LINE
  5
55F70
330
1F
100
AcDbEntity
  8
AM_0
  6
中線
 48
0.5
370
    30
100
AcDbLine
 10
6210.91522425469
 20
-1644.660870271215
 30
0.0
 11
6210.915224254689
 21
-1645.960870271216
 31
0.0
  0
ARC
  5
55F71
330
1F
100
AcDbEntity
  8
AM_0
  6
中線
 48
0.5
370
    30
100
AcDbCircle
 10
6211.51522425469
 20
-1642.410870271216
 30
0.0
 40
1.75
100
AcDbArc
 50
269.9999999999479
 51
90.00000000005213
1001
GENIUS_GENOBJ-N-FIL_13
1002
{
1000
OWNER
1000
GEN
1002
}
1001
GENIUS_GENODEF_13
1002
{
1000
HIER
1070
     0
1002
}
1002
{
1000
MANEDIT
1070
     0
1002
}
1002
{
1000
NOSEL
1070
     0
1002
}
1002
{
1000
BEHIND
1070
     0
1002
}
1002
{
1000
OTHER
1070
     0
1002
}
1002
{
1000
REACTOR
1002
}
  0
ARC
  5
55F72
330
1F
100
AcDbEntity
  8
AM_0
  6
中線
 48
0.5
370
    30
100
AcDbCircle
 10
6211.41522425469
 20
-1644.660870271215
 30
0.0
 40
0.5
100
AcDbArc
 50
89.99999999994789
 51
180.0000000000521
1001
GENIUS_GENODEF_13
1002
{
1000
HIER
1070
     0
1002
}
1002
{
1000
MANEDIT
1070
     0
1002
}
1002
{
1000
NOSEL
1070
     0
1002
}
1002
{
1000
BEHIND
1070
     0
1002
}
1002
{
1000
OTHER
1070
     0
1002
}
1002
{
1000
REACTOR
1002
}
1001
GENIUS_GENOBJ-N-FIL_13
1002
{
1000
OWNER
1000
GEN
1002
}
  0
LINE
  5
55F73
330
1F
100
AcDbEntity
  8
AM_0
  6
中線
 48
0.5
370
    30
100
AcDbLine
 10
6211.51522425469
 20
-1644.160870271215
 30
0.0
 11
6211.41522425469
 21
-1644.160870271215
 31
0.0
  0
LINE
  5
55F74
330
1F
100
AcDbEntity
  8
AM_0
  6
中線
 48
0.5
370
    30
100
AcDbLine
 10
6216.76522425469
 20
-1658.860870271217
 30
0.0
 11
6216.76522425469
 21
-1658.060870271217
 31
0.0
  0
LINE
  5
55F75
330
1F
100
AcDbEntity
  8
AM_0
  6
中線
 48
0.5
370
    30
100
AcDbLine
 10
6216.76522425469
 20
-1645.460870271216
 30
0.0
 11
6216.76522425469
 21
-1644.660870271217
 31
0.0
  0
LINE
  5
55F76
330
1F
100
AcDbEntity
  8
AM_0
  6
中線
 48
0.5
370
    30
100
AcDbLine
 10
6243.898178584267
 20
-1658.860870271217
 30
0.0
 11
6216.76522425469
 21
-1658.860870271217
 31
0.0
  0
LINE
  5
55F77
330
1F
100
AcDbEntity
  8
AM_0
  6
中線
 48
0.5
370
    30
100
AcDbLine
 10
6238.465224254691
 20
-1658.060870271217
 30
0.0
 11
6222.053982657772
 21
-1658.060870271217
 31
0.0
  0
LINE
  5
55F78
330
1F
100
AcDbEntity
  8
AM_0
  6
中線
 48
0.5
370
    30
100
AcDbLine
 10
6222.053982657772
 20
-1658.060870271217
 30
0.0
 11
6216.76522425469
 21
-1658.060870271217
 31
0.0
  0
LINE
  5
55F79
330
1F
100
AcDbEntity
  8
AM_0
  6
中線
 48
0.5
370
    30
100
AcDbLine
 10
6216.76522425469
 20
-1645.460870271216
 30
0.0
 11
6238.465224254691
 21
-1645.460870271217
 31
0.0
  0
LINE
  5
55F7A
330
1F
100
AcDbEntity
  8
AM_0
  6
中線
 48
0.5
370
    30
100
AcDbLine
 10
6216.76522425469
 20
-1644.660870271217
 30
0.0
 11
6243.898178584267
 21
-1644.660870271217
 31
0.0
  0
ARC
  5
55F7B
330
1F
100
AcDbEntity
  8
AM_0
  6
中線
 48
0.5
370
    30
100
AcDbCircle
 10
6238.465224254691
 20
-1658.860870271216
 30
0.0
 40
0.8
100
AcDbArc
 50
359.999999999974
 51
90.00000000010421
1001
GENIUS_GENODEF_13
1002
{
1000
HIER
1070
     0
1002
}
1002
{
1000
MANEDIT
1070
     0
1002
}
1002
{
1000
NOSEL
1070
     0
1002
}
1002
{
1000
BEHIND
1070
     0
1002
}
1002
{
1000
OTHER
1070
     0
1002
}
1002
{
1000
REACTOR
1002
}
1001
GENIUS_GENOBJ-N-FIL_13
1002
{
1000
OWNER
1000
GEN
1002
}
  0
ARC
  5
55F7C
330
1F
100
AcDbEntity
  8
AM_0
  6
中線
 48
0.5
370
    30
100
AcDbCircle
 10
6222.053982657772
 20
-1657.560870271217
 30
0.0
 40
0.5
100
AcDbArc
 50
270.0
 51
323.1301023541673
1001
GENIUS_GENOBJ-N-FIL_13
1002
{
1000
OWNER
1000
GEN
1002
}
1001
GENIUS_GENODEF_13
1002
{
1000
HIER
1070
     0
1002
}
1002
{
1000
MANEDIT
1070
     0
1002
}
1002
{
1000
NOSEL
1070
     0
1002
}
1002
{
1000
BEHIND
1070
     0
1002
}
1002
{
1000
OTHER
1070
     0
1002
}
1002
{
1000
REACTOR
1002
}
  0
ARC
  5
55F7D
330
1F
100
AcDbEntity
  8
AM_0
  6
中線
 48
0.5
370
    30
100
AcDbCircle
 10
6222.053982657772
 20
-1645.960870271217
 30
0.0
 40
0.5
100
AcDbArc
 50
36.86989764582151
 51
90.0
1001
GENIUS_GENODEF_13
1002
{
1000
HIER
1070
     0
1002
}
1002
{
1000
MANEDIT
1070
     0
1002
}
1002
{
1000
NOSEL
1070
     0
1002
}
1002
{
1000
BEHIND
1070
     0
1002
}
1002
{
1000
OTHER
1070
     0
1002
}
1002
{
1000
REACTOR
1002
}
1001
GENIUS_GENOBJ-N-FIL_13
1002
{
1000
OWNER
1000
GEN
1002
}
  0
ARC
  5
55F7E
330
1F
100
AcDbEntity
  8
AM_0
  6
中線
 48
0.5
370
    30
100
AcDbCircle
 10
6238.465224254691
 20
-1644.660870271217
 30
0.0
 40
0.8
100
AcDbArc
 50
269.9999999998958
 51
0.0000000000260551
1001
GENIUS_GENODEF_13
1002
{
1000
HIER
1070
     0
1002
}
1002
{
1000
MANEDIT
1070
     0
1002
}
1002
{
1000
NOSEL
1070
     0
1002
}
1002
{
1000
BEHIND
1070
     0
1002
}
1002
{
1000
OTHER
1070
     0
1002
}
1002
{
1000
REACTOR
1002
}
1001
GENIUS_GENOBJ-N-FIL_13
1002
{
1000
OWNER
1000
GEN
1002
}
  0
DIMENSION
  5
55F7F
330
1F
100
AcDbEntity
  8
AM_5
100
AcDbDimension
  2
*D11
 10
6255.440335969481
 20
-1610.781478341907
 30
0.0
 11
6255.440335969481
 21
-1614.048145008573
 31
0.0
 70
   160
  1
<>
 71
     5
  3
SYS$0
100
AcDbAlignedDimension
 13
6244.26522425469
 23
-1609.781478341907
 33
0.0
 14
6244.26522425469
 24
-1610.781478341907
 34
0.0
 50
90.0
100
AcDbRotatedDimension
1001
ACAD
1000
DSTYLE
1002
{
1070
    47
1040
0.05
1070
    48
1040
0.03
1070
   179
1070
     2
1070
   271
1070
     3
1002
}
  0
DIMENSION
  5
55F80
330
1F
100
AcDbEntity
  8
AM_5
100
AcDbDimension
  2
*D12
 10
6263.440335969481
 20
-1601.93460863357
 30
0.0
 11
6263.440335969481
 21
-1606.454851569129
 31
0.0
 70
   160
  1
（<>）
 71
     5
 42
8.846869708336953
  3
SYS$0
100
AcDbAlignedDimension
 13
6244.26522425469
 23
-1610.781478341907
 33
0.0
 14
6221.445669022383
 24
-1601.93460863357
 34
0.0
 50
90.0
100
AcDbRotatedDimension
1001
ACAD
1000
DSTYLE
1002
{
1070
    47
1040
0.05
1070
    48
1040
0.03
1070
   179
1070
     2
1070
   271
1070
     0
1002
}
  0
ARC
  5
55F81
330
1F
100
AcDbEntity
  8
AM_0
  6
中線
 48
0.5
370
    30
100
AcDbCircle
 10
6219.76522425469
 20
-1605.289546324389
 30
0.0
 40
1.75
100
AcDbArc
 50
340.5144511888551
 51
220.4855488111449
  0
LINE
  5
55F82
330
1F
100
AcDbEntity
  8
AM_0
  6
中線
 48
0.5
370
    30
100
AcDbLine
 10
6220.765224254689
 20
-1576.603746872433
 30
0.0
 11
6220.765224254689
 21
-1576.403746872433
 31
0.0
1001
GENIUS_GENREC_14
1002
{
1000
PYDIR
1011
6218.26522425469
1021
-1563.403746872434
1031
0.0
1002
}
1002
{
1000
PXDIR
1011
6220.765224254689
1021
-1578.403746872433
1031
0.0
1002
}
1002
{
1000
PORI
1011
6218.26522425469
1021
-1578.403746872433
1031
0.0
1002
}
1002
{
1000
PINS
1011
6218.26522425469
1021
-1578.403746872433
1031
0.0
1002
}
1002
{
1000
PINS2
1011
6220.765224254689
1021
-1563.403746872434
1031
0.0
1002
}
1002
{
1000
C
1070
     1
1002
}
1001
GENIUS_GENODEF_13
1002
{
1000
HIER
1070
     0
1002
}
1002
{
1000
MANEDIT
1070
     0
1002
}
1002
{
1000
NOSEL
1070
     0
1002
}
1002
{
1000
BEHIND
1070
     0
1002
}
1002
{
1000
OTHER
1070
     0
1002
}
1002
{
1000
REACTOR
1002
}
1001
GENIUS_GENOBJ-N-REC_13
1002
{
1000
OWNER
1000
GEN
1002
}
  0
LINE
  5
55F83
330
1F
100
AcDbEntity
  8
AM_0
  6
中線
 48
0.5
370
    30
100
AcDbLine
 10
6220.765224254689
 20
-1575.403746872433
 30
0.0
 11
6220.765224254689
 21
-1574.903746872433
 31
0.0
1001
GENIUS_GENREC_14
1002
{
1000
PYDIR
1011
6218.26522425469
1021
-1563.403746872434
1031
0.0
1002
}
1002
{
1000
PXDIR
1011
6220.765224254689
1021
-1578.403746872433
1031
0.0
1002
}
1002
{
1000
PORI
1011
6218.26522425469
1021
-1578.403746872433
1031
0.0
1002
}
1002
{
1000
PINS
1011
6218.26522425469
1021
-1578.403746872433
1031
0.0
1002
}
1002
{
1000
PINS2
1011
6220.765224254689
1021
-1563.403746872434
1031
0.0
1002
}
1002
{
1000
C
1070
     1
1002
}
1001
GENIUS_GENODEF_13
1002
{
1000
HIER
1070
     0
1002
}
1002
{
1000
MANEDIT
1070
     0
1002
}
1002
{
1000
NOSEL
1070
     0
1002
}
1002
{
1000
BEHIND
1070
     0
1002
}
1002
{
1000
OTHER
1070
     0
1002
}
1002
{
1000
REACTOR
1002
}
1001
GENIUS_GENOBJ-N-REC_13
1002
{
1000
OWNER
1000
GEN
1002
}
  0
LINE
  5
55F84
330
1F
100
AcDbEntity
  8
AM_0
  6
中線
 48
0.5
370
    30
100
AcDbLine
 10
6218.765224254689
 20
-1574.903746872433
 30
0.0
 11
6218.765224254689
 21
-1575.403746872433
 31
0.0
1001
GENIUS_GENREC_14
1002
{
1000
PYDIR
1011
6218.765224254689
1021
-1563.403746872434
1031
0.0
1002
}
1002
{
1000
PXDIR
1011
6221.26522425469
1021
-1578.403746872433
1031
0.0
1002
}
1002
{
1000
PORI
1011
6218.765224254689
1021
-1578.403746872433
1031
0.0
1002
}
1002
{
1000
PINS
1011
6218.765224254689
1021
-1578.403746872433
1031
0.0
1002
}
1002
{
1000
PINS2
1011
6221.26522425469
1021
-1563.403746872434
1031
0.0
1002
}
1002
{
1000
C
1070
     1
1002
}
1001
GENIUS_GENODEF_13
1002
{
1000
HIER
1070
     0
1002
}
1002
{
1000
MANEDIT
1070
     0
1002
}
1002
{
1000
NOSEL
1070
     0
1002
}
1002
{
1000
BEHIND
1070
     0
1002
}
1002
{
1000
OTHER
1070
     0
1002
}
1002
{
1000
REACTOR
1002
}
1001
GENIUS_GENOBJ-N-REC_13
1002
{
1000
OWNER
1000
GEN
1002
}
  0
LINE
  5
55F85
330
1F
100
AcDbEntity
  8
AM_0
  6
中線
 48
0.5
370
    30
100
AcDbLine
 10
6218.765224254688
 20
-1576.403746872433
 30
0.0
 11
6218.765224254689
 21
-1576.603746872433
 31
0.0
1001
GENIUS_GENREC_14
1002
{
1000
PYDIR
1011
6218.765224254689
1021
-1563.403746872434
1031
0.0
1002
}
1002
{
1000
PXDIR
1011
6221.26522425469
1021
-1578.403746872433
1031
0.0
1002
}
1002
{
1000
PORI
1011
6218.765224254689
1021
-1578.403746872433
1031
0.0
1002
}
1002
{
1000
PINS
1011
6218.765224254689
1021
-1578.403746872433
1031
0.0
1002
}
1002
{
1000
PINS2
1011
6221.26522425469
1021
-1563.403746872434
1031
0.0
1002
}
1002
{
1000
C
1070
     1
1002
}
1001
GENIUS_GENODEF_13
1002
{
1000
HIER
1070
     0
1002
}
1002
{
1000
MANEDIT
1070
     0
1002
}
1002
{
1000
NOSEL
1070
     0
1002
}
1002
{
1000
BEHIND
1070
     0
1002
}
1002
{
1000
OTHER
1070
     0
1002
}
1002
{
1000
REACTOR
1002
}
1001
GENIUS_GENOBJ-N-REC_13
1002
{
1000
OWNER
1000
GEN
1002
}
  0
DIMENSION
  5
55F86
330
1F
100
AcDbEntity
  8
AM_5
100
AcDbDimension
  2
*D13
 10
6191.765224254689
 20
-1609.781478341907
 30
0.0
 11
6191.765224254689
 21
-1614.048145008573
 31
0.0
 70
   160
  1
<>
 71
     5
  3
SYS$0
100
AcDbAlignedDimension
 13
6199.765224254689
 23
-1610.781478341907
 33
0.0
 14
6199.76522425469
 24
-1609.781478341907
 34
0.0
 50
90.0
100
AcDbRotatedDimension
1001
ACAD
1000
DSTYLE
1002
{
1070
    47
1040
0.05
1070
    48
1040
0.03
1070
   179
1070
     2
1070
   271
1070
     1
1002
}
  0
DIMENSION
  5
55F87
330
1F
100
AcDbEntity
  8
AM_5
100
AcDbDimension
  2
*D14
 10
6183.765224254689
 20
-1610.781478341907
 30
0.0
 11
6183.765224254689
 21
-1607.359490157393
 31
0.0
 70
   160
  1
6.5
 71
     5
 42
6.499999999999772
  3
SYS$0
100
AcDbAlignedDimension
 13
6210.312988853526
 23
-1604.281478341907
 33
0.0
 14
6199.765224254689
 24
-1610.781478341907
 34
0.0
 50
90.0
100
AcDbRotatedDimension
1001
ACAD
1000
DSTYLE
1002
{
1070
    47
1040
0.05
1070
    48
1040
0.03
1070
   179
1070
     2
1070
   271
1070
     1
1002
}
  0
DIMENSION
  5
55F89
330
1F
100
AcDbEntity
  8
AM_5
100
AcDbDimension
  2
*D15
 10
6191.765224254689
 20
-1658.510870271217
 30
0.0
 11
6191.765224254689
 21
-1651.760870271217
 31
0.0
 70
   160
 71
     5
 42
13.5
  3
SYS$0
100
AcDbAlignedDimension
 13
6203.165224254689
 23
-1645.010870271217
 33
0.0
 14
6203.165224254689
 24
-1658.510870271217
 34
0.0
 50
90.0
100
AcDbRotatedDimension
1001
ACAD
1000
DSTYLE
1002
{
1070
    47
1040
0.05
1070
    48
1040
0.03
1070
   179
1070
     2
1070
   271
1070
     1
1002
}
  0
DIMENSION
  5
55F8A
330
1F
100
AcDbEntity
  8
AM_5
100
AcDbDimension
  2
*D16
 10
6246.940335969481
 20
-1551.303746872433
 30
0.0
 11
6231.852780112085
 21
-1551.303746872433
 31
0.0
 70
   160
  1
（<>）
 71
     5
 42
30.17511171479146
  3
SYS$0
100
AcDbAlignedDimension
 13
6216.76522425469
 23
-1563.303746872433
 33
0.0
 14
6246.940335969481
 24
-1570.303746872435
 34
0.0
100
AcDbRotatedDimension
1001
ACAD
1000
DSTYLE
1002
{
1070
    47
1040
0.05
1070
    48
1040
0.03
1070
   179
1070
     2
1070
   271
1070
     0
1002
}
  0
DIMENSION
  5
55F8B
330
1F
100
AcDbEntity
  8
AM_5
100
AcDbDimension
  2
*D17
 10
6213.265224254691
 20
-1670.760870271218
 30
0.0
 11
6202.65322425469
 21
-1670.760870271218
 31
0.0
 70
   160
  1
（<>）
 71
     5
 42
6.0
  3
SYS$0
100
AcDbAlignedDimension
 13
6207.26522425469
 23
-1662.610870271216
 33
0.0
 14
6213.265224254691
 24
-1661.010870271218
 34
0.0
100
AcDbRotatedDimension
1001
ACAD
1000
DSTYLE
1002
{
1070
    47
1040
0.05
1070
    48
1040
0.03
1070
   179
1070
     2
1070
   271
1070
     3
1002
}
  0
DIMENSION
  5
55F8C
330
1F
100
AcDbEntity
  8
AM_5
100
AcDbDimension
  2
*D18
 10
6224.26522425469
 20
-1670.760870271218
 30
0.0
 11
6220.51522425469
 21
-1670.760870271218
 31
0.0
 70
   160
  1
<>
 71
     5
 42
7.5
  3
SYS$0
100
AcDbAlignedDimension
 13
6216.76522425469
 23
-1657.860870271217
 33
0.0
 14
6224.26522425469
 24
-1655.160870271217
 34
0.0
100
AcDbRotatedDimension
1001
ACAD
1000
DSTYLE
1002
{
1070
    47
1040
0.05
1070
    48
1040
0.03
1070
   179
1070
     2
1070
   271
1070
     1
1002
}
  0
DIMENSION
  5
55F8D
330
1F
100
AcDbEntity
  8
AM_5
100
AcDbDimension
  2
*D19
 10
6237.265224254691
 20
-1678.760870271218
 30
0.0
 11
6230.76522425469
 21
-1678.760870271218
 31
0.0
 70
   160
 71
     5
 42
13.0
  3
SYS$0
100
AcDbAlignedDimension
 13
6224.26522425469
 23
-1656.560870271217
 33
0.0
 14
6237.265224254691
 24
-1655.160870271217
 34
0.0
100
AcDbRotatedDimension
1001
ACAD
1000
DSTYLE
1002
{
1070
    47
1040
0.05
1070
    48
1040
0.03
1070
   179
1070
     2
1070
   271
1070
     1
1002
}
  0
DIMENSION
  5
55F8E
330
1F
100
AcDbEntity
  8
AM_5
100
AcDbDimension
  2
*D20
 10
6224.26522425469
 20
-1678.760870271218
 30
0.0
 11
6215.76522425469
 21
-1678.760870271218
 31
0.0
 70
   160
  1
（<>）
 71
     5
 42
17.0
  3
SYS$0
100
AcDbAlignedDimension
 13
6207.26522425469
 23
-1662.610870271216
 33
0.0
 14
6224.26522425469
 24
-1655.160870271217
 34
0.0
100
AcDbRotatedDimension
1001
ACAD
1000
DSTYLE
1002
{
1070
    47
1040
0.05
1070
    48
1040
0.03
1070
   179
1070
     2
1070
   271
1070
     1
1002
}
  0
ARC
  5
55F90
330
1F
100
AcDbEntity
  8
AM_0
  6
中線
 48
0.5
370
    30
100
AcDbCircle
 10
6231.940335969482
 20
-1570.303746872434
 30
0.0
 40
15.0
100
AcDbArc
 50
336.9018328300374
 51
23.0981671699642
  0
ARC
  5
55F93
330
1F
100
AcDbEntity
  8
AM_0
  6
中線
 48
0.5
370
    30
100
AcDbCircle
 10
6226.151525331736
 20
-1570.303746872435
 30
0.0
 40
20.0
100
AcDbArc
 50
343.5407503717435
 51
16.45924962826286
  0
ARC
  5
55F96
330
1F
100
AcDbEntity
  8
AM_0
  6
中線
 48
0.5
370
    30
100
AcDbCircle
 10
6231.940335969482
 20
-1651.760870271217
 30
0.0
 40
15.0
100
AcDbArc
 50
336.9018328300358
 51
23.09816716996341
  0
CIRCLE
  5
55F99
330
1F
100
AcDbEntity
  8
AM_0
  6
中線
 48
0.5
370
    30
100
AcDbCircle
 10
6207.26522425469
 20
-1577.053746872433
 30
0.0
 40
2.40000000000009
  0
CIRCLE
  5
55F9A
330
1F
100
AcDbEntity
  8
AM_0
  6
中線
 48
0.5
370
    30
100
AcDbCircle
 10
6207.26522425469
 20
-1563.553746872433
 30
0.0
 40
2.40000000000009
  0
CIRCLE
  5
55F9B
330
1F
100
AcDbEntity
  8
AM_0
  6
中線
 48
0.5
370
    30
100
AcDbCircle
 10
6207.26522425469
 20
-1563.553746872433
 30
0.0
 40
3.099999999999909
  0
CIRCLE
  5
55F9C
330
1F
100
AcDbEntity
  8
AM_0
  6
中線
 48
0.5
370
    30
100
AcDbCircle
 10
6207.26522425469
 20
-1577.053746872433
 30
0.0
 40
3.099999999999909
  0
CIRCLE
  5
55F9D
330
1F
100
AcDbEntity
  8
AM_0
  6
中線
 48
0.5
370
    30
100
AcDbCircle
 10
6207.26522425469
 20
-1658.510870271217
 30
0.0
 40
2.35
  0
CIRCLE
  5
55F9E
330
1F
100
AcDbEntity
  8
AM_0
  6
中線
 48
0.5
370
    30
100
AcDbCircle
 10
6207.26522425469
 20
-1645.010870271217
 30
0.0
 40
2.35
  0
ARC
  5
55F9F
330
1F
100
AcDbEntity
  8
AM_0
  6
中線
 48
0.5
370
    30
100
AcDbCircle
 10
6211.51522425469
 20
-1579.653746872434
 30
0.0
 40
1.75
100
AcDbArc
 50
269.9999999999479
 51
33.71464517151075
1001
GENIUS_GENOBJ-N-FIL_13
1002
{
1000
OWNER
1000
GEN
1002
}
1001
GENIUS_GENODEF_13
1002
{
1000
HIER
1070
     0
1002
}
1002
{
1000
MANEDIT
1070
     0
1002
}
1002
{
1000
NOSEL
1070
     0
1002
}
1002
{
1000
BEHIND
1070
     0
1002
}
1002
{
1000
OTHER
1070
     0
1002
}
1002
{
1000
REACTOR
1002
}
  0
ARC
  5
55FA0
330
1F
100
AcDbEntity
  8
AM_0
  6
中線
 48
0.5
370
    30
100
AcDbCircle
 10
6211.51522425469
 20
-1579.653746872434
 30
0.0
 40
1.75
100
AcDbArc
 50
81.45020799091851
 51
90.00000000005213
1001
GENIUS_GENOBJ-N-FIL_13
1002
{
1000
OWNER
1000
GEN
1002
}
1001
GENIUS_GENODEF_13
1002
{
1000
HIER
1070
     0
1002
}
1002
{
1000
MANEDIT
1070
     0
1002
}
1002
{
1000
NOSEL
1070
     0
1002
}
1002
{
1000
BEHIND
1070
     0
1002
}
1002
{
1000
OTHER
1070
     0
1002
}
1002
{
1000
REACTOR
1002
}
  0
ARC
  5
55FA1
330
1F
100
AcDbEntity
  8
AM_0
  6
中線
 48
0.5
370
    30
100
AcDbCircle
 10
6211.515224254691
 20
-1560.953746872432
 30
0.0
 40
1.75
100
AcDbArc
 50
269.9999999999479
 51
278.5446169690342
1001
GENIUS_GENOBJ-N-FIL_13
1002
{
1000
OWNER
1000
GEN
1002
}
1001
GENIUS_GENODEF_13
1002
{
1000
HIER
1070
     0
1002
}
1002
{
1000
MANEDIT
1070
     0
1002
}
1002
{
1000
NOSEL
1070
     0
1002
}
1002
{
1000
BEHIND
1070
     0
1002
}
1002
{
1000
OTHER
1070
     0
1002
}
1002
{
1000
REACTOR
1002
}
  0
ARC
  5
55FA2
330
1F
100
AcDbEntity
  8
AM_0
  6
中線
 48
0.5
370
    30
100
AcDbCircle
 10
6211.51522425469
 20
-1560.953746872432
 30
0.0
 40
1.75
100
AcDbArc
 50
326.2918647382822
 51
90.00000000005213
1001
GENIUS_GENOBJ-N-FIL_13
1002
{
1000
OWNER
1000
GEN
1002
}
1001
GENIUS_GENODEF_13
1002
{
1000
HIER
1070
     0
1002
}
1002
{
1000
MANEDIT
1070
     0
1002
}
1002
{
1000
NOSEL
1070
     0
1002
}
1002
{
1000
BEHIND
1070
     0
1002
}
1002
{
1000
OTHER
1070
     0
1002
}
1002
{
1000
REACTOR
1002
}
  0
ARC
  5
55FB3
330
1F
100
AcDbEntity
  8
AM_0
  6
中線
 48
0.5
370
    30
100
AcDbCircle
 10
6219.76522425469
 20
-1573.975621872426
 30
0.0
 40
4.028125000006358
100
AcDbArc
 50
244.2499968808039
 51
295.7500031191961
  0
LINE
  5
55FB4
330
1F
100
AcDbEntity
  8
AM_0
  6
中線
 48
0.5
370
    30
100
AcDbLine
 10
6221.015224254689
 20
-1563.203746872433
 30
0.0
 11
6221.015224254689
 21
-1562.703746872433
 31
0.0
  0
LINE
  5
55FB5
330
1F
100
AcDbEntity
  8
AM_0
  6
中線
 48
0.5
370
    30
100
AcDbLine
 10
6218.515224254689
 20
-1563.203746872433
 30
0.0
 11
6218.515224254689
 21
-1562.703746872433
 31
0.0
  0
LINE
  5
55FB6
330
1F
100
AcDbEntity
  8
AM_0
  6
中線
 48
0.5
370
    30
100
AcDbLine
 10
6218.515224254689
 20
-1562.703746872433
 30
0.0
 11
6221.015224254689
 21
-1562.703746872433
 31
0.0
  0
LINE
  5
55FC1
330
1F
100
AcDbEntity
  8
AM_0
  6
中線
 48
0.5
370
    30
100
AcDbLine
 10
6218.015224254689
 20
-1577.603746872433
 30
0.0
 11
6221.515224254689
 21
-1577.603746872433
 31
0.0
1001
GENIUS_GENREC_14
1002
{
1000
PYDIR
1011
6221.515224254689
1021
-1578.403746872433
1031
0.0
1002
}
1002
{
1000
PXDIR
1011
6218.015224254689
1021
-1577.603746872433
1031
0.0
1002
}
1002
{
1000
PORI
1011
6218.015224254689
1021
-1578.403746872433
1031
0.0
1002
}
1002
{
1000
PINS
1011
6218.015224254689
1021
-1578.403746872433
1031
0.0
1002
}
1002
{
1000
PINS2
1011
6221.515224254689
1021
-1577.603746872433
1031
0.0
1002
}
1002
{
1000
C
1070
     1
1002
}
1001
GENIUS_GENOBJ-N-REC_13
1002
{
1000
OWNER
1000
GEN
1002
}
1001
GENIUS_GENODEF_13
1002
{
1000
HIER
1070
     0
1002
}
1002
{
1000
MANEDIT
1070
     0
1002
}
1002
{
1000
NOSEL
1070
     0
1002
}
1002
{
1000
BEHIND
1070
     0
1002
}
1002
{
1000
OTHER
1070
     0
1002
}
1002
{
1000
REACTOR
1002
}
  0
LINE
  5
55FC2
330
1F
100
AcDbEntity
  8
AM_0
  6
中線
 48
0.5
370
    30
100
AcDbLine
 10
6210.91522425469
 20
-1577.403746872434
 30
0.0
 11
6210.91522425469
 21
-1576.78682871497
 31
0.0
  0
ARC
  5
55FC3
330
1F
100
AcDbEntity
  8
AM_0
  6
中線
 48
0.5
370
    30
100
AcDbCircle
 10
6211.41522425469
 20
-1577.403746872435
 30
0.0
 40
0.5
100
AcDbArc
 50
179.9999999999479
 51
270.0000000000521
1001
GENIUS_GENODEF_13
1002
{
1000
HIER
1070
     0
1002
}
1002
{
1000
MANEDIT
1070
     0
1002
}
1002
{
1000
NOSEL
1070
     0
1002
}
1002
{
1000
BEHIND
1070
     0
1002
}
1002
{
1000
OTHER
1070
     0
1002
}
1002
{
1000
REACTOR
1002
}
1001
GENIUS_GENOBJ-N-FIL_13
1002
{
1000
OWNER
1000
GEN
1002
}
  0
LINE
  5
55FC4
330
1F
100
AcDbEntity
  8
AM_0
  6
中線
 48
0.5
370
    30
100
AcDbLine
 10
6210.91522425469
 20
-1563.203746872432
 30
0.0
 11
6210.91522425469
 21
-1563.820544711554
 31
0.0
  0
ARC
  5
55FC5
330
1F
100
AcDbEntity
  8
AM_0
  6
中線
 48
0.5
370
    30
100
AcDbCircle
 10
6211.41522425469
 20
-1563.203746872432
 30
0.0
 40
0.5
100
AcDbArc
 50
89.99999999994789
 51
180.0000000000521
1001
GENIUS_GENODEF_13
1002
{
1000
HIER
1070
     0
1002
}
1002
{
1000
MANEDIT
1070
     0
1002
}
1002
{
1000
NOSEL
1070
     0
1002
}
1002
{
1000
BEHIND
1070
     0
1002
}
1002
{
1000
OTHER
1070
     0
1002
}
1002
{
1000
REACTOR
1002
}
1001
GENIUS_GENOBJ-N-FIL_13
1002
{
1000
OWNER
1000
GEN
1002
}
  0
LINE
  5
55FC6
330
1F
100
AcDbEntity
  8
AM_0
  6
中線
 48
0.5
370
    30
100
AcDbLine
 10
6211.515224254688
 20
-1562.703746872432
 30
0.0
 11
6211.415224254691
 21
-1562.703746872431
 31
0.0
  0
LINE
  5
55FC7
330
1F
100
AcDbEntity
  8
AM_0
  6
中線
 48
0.5
370
    30
100
AcDbLine
 10
6211.515224254686
 20
-1577.903746872435
 30
0.0
 11
6211.415224254689
 21
-1577.903746872435
 31
0.0
  0
LINE
  5
55FC8
330
1F
100
AcDbEntity
  8
AM_0
  6
中線
 48
0.5
370
    30
100
AcDbLine
 10
6223.26522425469
 20
-1608.698584471978
 30
0.0
 11
6223.26522425469
 21
-1609.781478341907
 31
0.0
  0
ARC
  5
55FC9
330
1F
100
AcDbEntity
  8
AM_0
  6
中線
 48
0.5
370
    30
100
AcDbCircle
 10
6224.26522425469
 20
-1609.781478341908
 30
0.0
 40
1.0
100
AcDbArc
 50
179.9999999999479
 51
270.0
1001
GENIUS_GENOBJ-N-FIL_13
1002
{
1000
OWNER
1000
GEN
1002
}
1001
GENIUS_GENODEF_13
1002
{
1000
HIER
1070
     0
1002
}
1002
{
1000
MANEDIT
1070
     0
1002
}
1002
{
1000
NOSEL
1070
     0
1002
}
1002
{
1000
BEHIND
1070
     0
1002
}
1002
{
1000
OTHER
1070
     0
1002
}
1002
{
1000
REACTOR
1002
}
  0
LWPOLYLINE
  5
55FCA
330
1F
100
AcDbEntity
  8
AM_0
  6
中線
 48
0.5
370
    30
100
AcDbPolyline
 90
        2
 70
     0
 43
0.0
 10
6224.76522425469
 20
-1646.260870271216
 42
-0.1026593962638121
 10
6223.26522425469
 20
-1645.660870271217
 42
-3.400995756368007
  0
LWPOLYLINE
  5
55FCB
330
1F
100
AcDbEntity
  8
AM_0
  6
中線
 48
0.5
370
    30
100
AcDbPolyline
 90
        2
 70
     0
 43
0.0
 10
6224.76522425469
 20
-1657.260870271217
 42
0.1026593962635187
 10
6223.26522425469
 20
-1657.860870271217
 42
3.400995756368007
  0
ARC
  5
55FCE
330
1F
100
AcDbEntity
  8
AM_0
  6
中線
 48
0.5
370
    30
100
AcDbCircle
 10
6214.483621383555
 20
-1647.085146149415
 30
0.0
 40
4.0
100
AcDbArc
 50
108.2732706805275
 51
112.2210805836432
1001
GENIUS_GENODEF_13
1002
{
1000
HIER
1070
     0
1002
}
1002
{
1000
MANEDIT
1070
     0
1002
}
1002
{
1000
NOSEL
1070
     0
1002
}
1002
{
1000
BEHIND
1070
     0
1002
}
1002
{
1000
OTHER
1070
     0
1002
}
1002
{
1000
REACTOR
1002
}
1001
GENIUS_GENOBJ-N-FIL_13
1002
{
1000
OWNER
1000
GEN
1002
}
  0
ARC
  5
55FCF
330
1F
100
AcDbEntity
  8
AM_0
  6
中線
 48
0.5
370
    30
100
AcDbCircle
 10
6214.483621383555
 20
-1647.085146149415
 30
0.0
 40
4.0
100
AcDbArc
 50
132.6140662539181
 51
153.138238736865
1001
GENIUS_GENODEF_13
1002
{
1000
HIER
1070
     0
1002
}
1002
{
1000
MANEDIT
1070
     0
1002
}
1002
{
1000
NOSEL
1070
     0
1002
}
1002
{
1000
BEHIND
1070
     0
1002
}
1002
{
1000
OTHER
1070
     0
1002
}
1002
{
1000
REACTOR
1002
}
1001
GENIUS_GENOBJ-N-FIL_13
1002
{
1000
OWNER
1000
GEN
1002
}
  0
ARC
  5
55FD0
330
1F
100
AcDbEntity
  8
AM_0
  6
中線
 48
0.5
370
    30
100
AcDbCircle
 10
6214.483621383555
 20
-1647.085146149415
 30
0.0
 40
2.0
100
AcDbArc
 50
107.6705129679086
 51
170.6689883088075
1001
GENIUS_GENODEF_13
1002
{
1000
HIER
1070
     0
1002
}
1002
{
1000
MANEDIT
1070
     0
1002
}
1002
{
1000
NOSEL
1070
     0
1002
}
1002
{
1000
BEHIND
1070
     0
1002
}
1002
{
1000
OTHER
1070
     0
1002
}
1002
{
1000
REACTOR
1002
}
1001
GENIUS_GENOBJ-N-FIL_13
1002
{
1000
OWNER
1000
GEN
1002
}
  0
LINE
  5
55FD1
330
1F
100
AcDbEntity
  8
AM_0
  6
中線
 48
0.5
370
    30
100
AcDbLine
 10
6226.937467725501
 20
-1644.260964852851
 30
0.0
 11
6226.937478043411
 21
-1644.660870271217
 31
0.0
  0
LINE
  5
55FD2
330
1F
100
AcDbEntity
  8
AM_0
  6
中線
 48
0.5
370
    30
100
AcDbLine
 10
6224.937467764229
 20
-1644.262491720103
 30
0.0
 11
6224.937478042744
 21
-1644.660870271217
 31
0.0
  0
ARC
  5
55FD3
330
1F
100
AcDbEntity
  8
AM_0
  6
中線
 48
0.5
370
    30
100
AcDbCircle
 10
6223.937467764562
 20
-1644.262517520977
 30
0.0
 40
1.0
100
AcDbArc
 50
0.0014782812417976
 51
84.24452423109674
1001
GENIUS_GENODEF_13
1002
{
1000
HIER
1070
     0
1002
}
1002
{
1000
MANEDIT
1070
     0
1002
}
1002
{
1000
NOSEL
1070
     0
1002
}
1002
{
1000
BEHIND
1070
     0
1002
}
1002
{
1000
OTHER
1070
     0
1002
}
1002
{
1000
REACTOR
1002
}
1001
GENIUS_GENOBJ-N-FIL_13
1002
{
1000
OWNER
1000
GEN
1002
}
  0
ARC
  5
55FD7
330
1F
100
AcDbEntity
  8
AM_0
  6
中線
 48
0.5
370
    30
100
AcDbCircle
 10
6223.937467725501
 20
-1644.260964852851
 30
0.0
 40
3.000000000000089
100
AcDbArc
 50
359.9999996154267
 51
86.90657387179513
  0
LINE
  5
55FE0
330
1F
100
AcDbEntity
  8
AM_0
  6
中線
 48
0.5
370
    30
100
AcDbLine
 10
6218.015224254689
 20
-1644.460870271217
 30
0.0
 11
6218.015224254689
 21
-1644.660870271217
 31
0.0
1001
GENIUS_GENREC_14
1002
{
1000
PYDIR
1011
6222.01522425469
1021
-1644.060870271217
1031
0.0
1002
}
1002
{
1000
PXDIR
1011
6218.015224254689
1021
-1644.660870271217
1031
0.0
1002
}
1002
{
1000
PORI
1011
6218.015224254689
1021
-1644.060870271217
1031
0.0
1002
}
1002
{
1000
PINS
1011
6218.015224254689
1021
-1644.060870271217
1031
0.0
1002
}
1002
{
1000
PINS2
1011
6222.01522425469
1021
-1644.660870271217
1031
0.0
1002
}
1002
{
1000
C
1070
     1
1002
}
1001
GENIUS_GENOBJ-N-REC_13
1002
{
1000
OWNER
1000
GEN
1002
}
1001
GENIUS_GENODEF_13
1002
{
1000
HIER
1070
     0
1002
}
1002
{
1000
MANEDIT
1070
     0
1002
}
1002
{
1000
NOSEL
1070
     0
1002
}
1002
{
1000
BEHIND
1070
     0
1002
}
1002
{
1000
OTHER
1070
     0
1002
}
1002
{
1000
REACTOR
1002
}
  0
LINE
  5
55FE1
330
1F
100
AcDbEntity
  8
AM_0
  6
中線
 48
0.5
370
    30
100
AcDbLine
 10
6218.015224254689
 20
-1644.660870271217
 30
0.0
 11
6221.515224254689
 21
-1644.660870271217
 31
0.0
1001
GENIUS_GENREC_14
1002
{
1000
PYDIR
1011
6221.515224254689
1021
-1643.860870271217
1031
0.0
1002
}
1002
{
1000
PXDIR
1011
6218.015224254689
1021
-1644.660870271217
1031
0.0
1002
}
1002
{
1000
PORI
1011
6218.015224254689
1021
-1643.860870271217
1031
0.0
1002
}
1002
{
1000
PINS
1011
6218.015224254689
1021
-1643.860870271217
1031
0.0
1002
}
1002
{
1000
PINS2
1011
6221.515224254689
1021
-1644.660870271217
1031
0.0
1002
}
1002
{
1000
C
1070
     1
1002
}
1001
GENIUS_GENOBJ-N-REC_13
1002
{
1000
OWNER
1000
GEN
1002
}
1001
GENIUS_GENODEF_13
1002
{
1000
HIER
1070
     0
1002
}
1002
{
1000
MANEDIT
1070
     0
1002
}
1002
{
1000
NOSEL
1070
     0
1002
}
1002
{
1000
BEHIND
1070
     0
1002
}
1002
{
1000
OTHER
1070
     0
1002
}
1002
{
1000
REACTOR
1002
}
  0
LINE
  5
55FE2
330
1F
100
AcDbEntity
  8
AM_0
  6
中線
 48
0.5
370
    30
100
AcDbLine
 10
6221.515224254689
 20
-1644.660870271217
 30
0.0
 11
6221.515224254689
 21
-1644.460870271217
 31
0.0
1001
GENIUS_GENREC_14
1002
{
1000
PYDIR
1011
6221.515224254689
1021
-1644.060870271217
1031
0.0
1002
}
1002
{
1000
PXDIR
1011
6217.51522425469
1021
-1644.660870271217
1031
0.0
1002
}
1002
{
1000
PORI
1011
6217.51522425469
1021
-1644.060870271217
1031
0.0
1002
}
1002
{
1000
PINS
1011
6217.51522425469
1021
-1644.060870271217
1031
0.0
1002
}
1002
{
1000
PINS2
1011
6221.515224254689
1021
-1644.660870271217
1031
0.0
1002
}
1002
{
1000
C
1070
     1
1002
}
1001
GENIUS_GENOBJ-N-REC_13
1002
{
1000
OWNER
1000
GEN
1002
}
1001
GENIUS_GENODEF_13
1002
{
1000
HIER
1070
     0
1002
}
1002
{
1000
MANEDIT
1070
     0
1002
}
1002
{
1000
NOSEL
1070
     0
1002
}
1002
{
1000
BEHIND
1070
     0
1002
}
1002
{
1000
OTHER
1070
     0
1002
}
1002
{
1000
REACTOR
1002
}
  0
ARC
  5
55FE3
330
1F
100
AcDbEntity
  8
AM_0
  6
中線
 48
0.5
370
    30
100
AcDbCircle
 10
6219.76522425469
 20
-1648.088995271224
 30
0.0
 40
4.028125000006358
100
AcDbArc
 50
64.24999688080387
 51
115.7500031191961
  0
LINE
  5
55FE4
330
1F
100
AcDbEntity
  8
AM_0
  6
中線
 48
0.5
370
    30
100
AcDbLine
 10
6221.015224254689
 20
-1658.860870271217
 30
0.0
 11
6221.015224254689
 21
-1659.360870271217
 31
0.0
  0
LINE
  5
55FE5
330
1F
100
AcDbEntity
  8
AM_0
  6
中線
 48
0.5
370
    30
100
AcDbLine
 10
6218.515224254689
 20
-1658.860870271217
 30
0.0
 11
6218.515224254689
 21
-1659.360870271217
 31
0.0
  0
LINE
  5
55FE6
330
1F
100
AcDbEntity
  8
AM_0
  6
中線
 48
0.5
370
    30
100
AcDbLine
 10
6218.515224254689
 20
-1659.360870271217
 30
0.0
 11
6221.015224254689
 21
-1659.360870271217
 31
0.0
  0
LINE
  5
55FE7
330
1F
100
AcDbEntity
  8
AM_0
  6
中線
 48
0.5
370
    30
100
AcDbLine
 10
6218.015224254689
 20
-1644.460870271217
 30
0.0
 11
6221.515224254689
 21
-1644.460870271217
 31
0.0
1001
GENIUS_GENREC_14
1002
{
1000
PYDIR
1011
6221.515224254689
1021
-1643.660870271217
1031
0.0
1002
}
1002
{
1000
PXDIR
1011
6218.015224254689
1021
-1644.460870271217
1031
0.0
1002
}
1002
{
1000
PORI
1011
6218.015224254689
1021
-1643.660870271217
1031
0.0
1002
}
1002
{
1000
PINS
1011
6218.015224254689
1021
-1643.660870271217
1031
0.0
1002
}
1002
{
1000
PINS2
1011
6221.515224254689
1021
-1644.460870271217
1031
0.0
1002
}
1002
{
1000
C
1070
     1
1002
}
1001
GENIUS_GENOBJ-N-REC_13
1002
{
1000
OWNER
1000
GEN
1002
}
1001
GENIUS_GENODEF_13
1002
{
1000
HIER
1070
     0
1002
}
1002
{
1000
MANEDIT
1070
     0
1002
}
1002
{
1000
NOSEL
1070
     0
1002
}
1002
{
1000
BEHIND
1070
     0
1002
}
1002
{
1000
OTHER
1070
     0
1002
}
1002
{
1000
REACTOR
1002
}
  0
LINE
  5
55FE8
330
1F
100
AcDbEntity
  8
AM_0
  6
中線
 48
0.5
370
    30
100
AcDbLine
 10
6228.76522425469
 20
-1609.281478341908
 30
0.0
 11
6227.3749364317
 21
-1608.985963542522
 31
0.0
  0
LINE
  5
55FE9
330
1F
100
AcDbEntity
  8
AM_0
  6
中線
 48
0.5
370
    30
100
AcDbLine
 10
6228.661268409282
 20
-1609.770552142275
 30
0.0
 11
6223.791039675153
 21
-1608.735353068002
 31
0.0
  0
ARC
  5
55FEA
330
1F
100
AcDbEntity
  8
AM_0
  6
中線
 48
0.5
370
    30
100
AcDbCircle
 10
6224.26522425469
 20
-1608.781478341908
 30
0.0
 40
1.0
100
AcDbArc
 50
179.9999999999479
 51
270.0
1001
GENIUS_GENOBJ-N-FIL_13
1002
{
1000
OWNER
1000
GEN
1002
}
1001
GENIUS_GENODEF_13
1002
{
1000
HIER
1070
     0
1002
}
1002
{
1000
MANEDIT
1070
     0
1002
}
1002
{
1000
NOSEL
1070
     0
1002
}
1002
{
1000
BEHIND
1070
     0
1002
}
1002
{
1000
OTHER
1070
     0
1002
}
1002
{
1000
REACTOR
1002
}
  0
CIRCLE
  5
55FEC
330
1F
100
AcDbEntity
  8
AM_3
  6
陰線1
 48
0.3
370
    13
100
AcDbCircle
 10
6224.26522425469
 20
-1651.760870271217
 30
0.0
 40
3.1
  0
CIRCLE
  5
55FED
330
1F
100
AcDbEntity
  8
AM_3
  6
陰線1
 48
0.3
370
    13
100
AcDbCircle
 10
6237.265224254691
 20
-1651.760870271217
 30
0.0
 40
3.1
  0
CIRCLE
  5
55FEF
330
1F
100
AcDbEntity
  8
AM_3
  6
陰線1
 48
0.3
370
    13
100
AcDbCircle
 10
6207.26522425469
 20
-1645.010870271216
 30
0.0
 40
3.1
  0
CIRCLE
  5
55FF0
330
1F
100
AcDbEntity
  8
AM_3
  6
陰線1
 48
0.3
370
    13
100
AcDbCircle
 10
6207.26522425469
 20
-1658.510870271216
 30
0.0
 40
3.1
  0
DIMENSION
  5
561AD
330
1F
100
AcDbEntity
  8
AM_5
100
AcDbDimension
  2
*D21
 10
6209.516671939834
 20
-1647.141828581714
 30
0.0
 11
6184.06363347999
 21
-1636.526347615771
 31
0.0
 70
   163
  1
2-%%c4.7×<>サラ
 71
     5
 42
6.200000000000727
  3
SYS$3
100
AcDbDiametricDimension
 15
6205.013776569553
 25
-1642.87991196072
 35
0.0
 40
0.0
1001
ACAD
1000
DSTYLE
1002
{
1070
    41
1040
1.0
1070
   172
1070
     1
1070
   173
1070
     1
1070
   342
1005
0
1070
   343
1005
6C4
1070
   344
1005
6C4
1002
}
  0
DIMENSION
  5
5621B
330
1F
100
AcDbEntity
  8
AM_5
100
AcDbDimension
  2
*D22
 10
6235.076683082657
 20
-1653.956385595308
 30
0.0
 11
6262.219514792858
 21
-1641.009761691908
 31
0.0
 70
   163
  1
2-%%c4.7×<>サラ
 71
     5
 42
6.200000000001637
  3
SYS$3
100
AcDbDiametricDimension
 15
6239.453765426726
 25
-1649.565354947128
 35
0.0
 40
0.0
1001
ACAD
1000
DSTYLE
1002
{
1070
    41
1040
1.0
1070
   172
1070
     1
1070
   173
1070
     1
1070
   342
1005
0
1070
   343
1005
6C4
1070
   344
1005
6C4
1002
}
  0
ARC
  5
5B2A9
330
1F
100
AcDbEntity
  8
AM_0
  6
中線
 48
0.5
370
    30
100
AcDbCircle
 10
6203.353543179893
 20
-1560.203746872433
 30
0.0
 40
1.0
100
AcDbArc
 50
90.0
 51
151.2523779965404
1001
GENIUS_GENOBJ-N-FIL_13
1002
{
1000
OWNER
1000
GEN
1002
}
1001
GENIUS_GENODEF_13
1002
{
1000
HIER
1070
     0
1002
}
1002
{
1000
MANEDIT
1070
     0
1002
}
1002
{
1000
NOSEL
1070
     0
1002
}
1002
{
1000
BEHIND
1070
     0
1002
}
1002
{
1000
OTHER
1070
     0
1002
}
1002
{
1000
REACTOR
1002
}
  0
ARC
  5
5B2BC
330
1F
100
AcDbEntity
  8
AM_0
  6
中線
 48
0.5
370
    30
100
AcDbCircle
 10
6203.353543179893
 20
-1580.403746872433
 30
0.0
 40
1.0
100
AcDbArc
 50
208.7476220034574
 51
270.0
1001
GENIUS_GENODEF_13
1002
{
1000
HIER
1070
     0
1002
}
1002
{
1000
MANEDIT
1070
     0
1002
}
1002
{
1000
NOSEL
1070
     0
1002
}
1002
{
1000
BEHIND
1070
     0
1002
}
1002
{
1000
OTHER
1070
     0
1002
}
1002
{
1000
REACTOR
1002
}
1001
GENIUS_GENOBJ-N-FIL_13
1002
{
1000
OWNER
1000
GEN
1002
}
  0
ARC
  5
5B2CC
330
1F
100
AcDbEntity
  8
AM_0
  6
中線
 48
0.5
370
    30
100
AcDbCircle
 10
6203.353543179893
 20
-1641.660870271217
 30
0.0
 40
1.0
100
AcDbArc
 50
90.0
 51
151.2523779965404
1001
GENIUS_GENODEF_13
1002
{
1000
HIER
1070
     0
1002
}
1002
{
1000
MANEDIT
1070
     0
1002
}
1002
{
1000
NOSEL
1070
     0
1002
}
1002
{
1000
BEHIND
1070
     0
1002
}
1002
{
1000
OTHER
1070
     0
1002
}
1002
{
1000
REACTOR
1002
}
1001
GENIUS_GENOBJ-N-FIL_13
1002
{
1000
OWNER
1000
GEN
1002
}
  0
ARC
  5
5B2CD
330
1F
100
AcDbEntity
  8
AM_0
  6
中線
 48
0.5
370
    30
100
AcDbCircle
 10
6203.353543179893
 20
-1661.860870271217
 30
0.0
 40
1.0
100
AcDbArc
 50
208.7476220034596
 51
270.0
1001
GENIUS_GENODEF_13
1002
{
1000
HIER
1070
     0
1002
}
1002
{
1000
MANEDIT
1070
     0
1002
}
1002
{
1000
NOSEL
1070
     0
1002
}
1002
{
1000
BEHIND
1070
     0
1002
}
1002
{
1000
OTHER
1070
     0
1002
}
1002
{
1000
REACTOR
1002
}
1001
GENIUS_GENOBJ-N-FIL_13
1002
{
1000
OWNER
1000
GEN
1002
}
  0
ARC
  5
5B2CE
330
1F
100
AcDbEntity
  8
AM_0
  6
中線
 48
0.5
370
    30
100
AcDbCircle
 10
6243.898178584267
 20
-1565.203746872434
 30
0.0
 40
2.0
100
AcDbArc
 50
23.09816716996341
 51
90.0
1001
GENIUS_GENODEF_13
1002
{
1000
HIER
1070
     0
1002
}
1002
{
1000
MANEDIT
1070
     0
1002
}
1002
{
1000
NOSEL
1070
     0
1002
}
1002
{
1000
BEHIND
1070
     0
1002
}
1002
{
1000
OTHER
1070
     0
1002
}
1002
{
1000
REACTOR
1002
}
1001
GENIUS_GENOBJ-N-FIL_13
1002
{
1000
OWNER
1000
GEN
1002
}
  0
ARC
  5
5B2CF
330
1F
100
AcDbEntity
  8
AM_0
  6
中線
 48
0.5
370
    30
100
AcDbCircle
 10
6243.413912188715
 20
-1565.203746872434
 30
0.0
 40
2.0
100
AcDbArc
 50
16.45924962826427
 51
90.0
1001
GENIUS_GENODEF_13
1002
{
1000
HIER
1070
     0
1002
}
1002
{
1000
MANEDIT
1070
     0
1002
}
1002
{
1000
NOSEL
1070
     0
1002
}
1002
{
1000
BEHIND
1070
     0
1002
}
1002
{
1000
OTHER
1070
     0
1002
}
1002
{
1000
REACTOR
1002
}
1001
GENIUS_GENOBJ-N-FIL_13
1002
{
1000
OWNER
1000
GEN
1002
}
  0
ARC
  5
5B2D9
330
1F
100
AcDbEntity
  8
AM_0
  6
中線
 48
0.5
370
    30
100
AcDbCircle
 10
6243.898178584267
 20
-1575.403746872434
 30
0.0
 40
2.0
100
AcDbArc
 50
270.0
 51
336.9018328300366
1001
GENIUS_GENODEF_13
1002
{
1000
HIER
1070
     0
1002
}
1002
{
1000
MANEDIT
1070
     0
1002
}
1002
{
1000
NOSEL
1070
     0
1002
}
1002
{
1000
BEHIND
1070
     0
1002
}
1002
{
1000
OTHER
1070
     0
1002
}
1002
{
1000
REACTOR
1002
}
1001
GENIUS_GENOBJ-N-FIL_13
1002
{
1000
OWNER
1000
GEN
1002
}
  0
ARC
  5
5B2DA
330
1F
100
AcDbEntity
  8
AM_0
  6
中線
 48
0.5
370
    30
100
AcDbCircle
 10
6243.413912188715
 20
-1575.403746872434
 30
0.0
 40
2.0
100
AcDbArc
 50
270.0
 51
343.5407503717431
1001
GENIUS_GENOBJ-N-FIL_13
1002
{
1000
OWNER
1000
GEN
1002
}
1001
GENIUS_GENODEF_13
1002
{
1000
HIER
1070
     0
1002
}
1002
{
1000
MANEDIT
1070
     0
1002
}
1002
{
1000
NOSEL
1070
     0
1002
}
1002
{
1000
BEHIND
1070
     0
1002
}
1002
{
1000
OTHER
1070
     0
1002
}
1002
{
1000
REACTOR
1002
}
  0
ARC
  5
5B30B
330
1F
100
AcDbEntity
  8
AM_0
  6
中線
 48
0.5
370
    30
100
AcDbCircle
 10
6243.898178584267
 20
-1646.660870271217
 30
0.0
 40
2.0
100
AcDbArc
 50
23.09816716996341
 51
90.0
1001
GENIUS_GENOBJ-N-FIL_13
1002
{
1000
OWNER
1000
GEN
1002
}
1001
GENIUS_GENODEF_13
1002
{
1000
HIER
1070
     0
1002
}
1002
{
1000
MANEDIT
1070
     0
1002
}
1002
{
1000
NOSEL
1070
     0
1002
}
1002
{
1000
BEHIND
1070
     0
1002
}
1002
{
1000
OTHER
1070
     0
1002
}
1002
{
1000
REACTOR
1002
}
  0
ARC
  5
5B315
330
1F
100
AcDbEntity
  8
AM_0
  6
中線
 48
0.5
370
    30
100
AcDbCircle
 10
6243.898178584267
 20
-1656.860870271217
 30
0.0
 40
2.0
100
AcDbArc
 50
270.0
 51
336.9018328300366
1001
GENIUS_GENOBJ-N-FIL_13
1002
{
1000
OWNER
1000
GEN
1002
}
1001
GENIUS_GENODEF_13
1002
{
1000
HIER
1070
     0
1002
}
1002
{
1000
MANEDIT
1070
     0
1002
}
1002
{
1000
NOSEL
1070
     0
1002
}
1002
{
1000
BEHIND
1070
     0
1002
}
1002
{
1000
OTHER
1070
     0
1002
}
1002
{
1000
REACTOR
1002
}
  0
LINE
  5
5B425
330
1F
100
AcDbEntity
  8
AM_0
  6
中線
 48
0.5
370
    30
100
AcDbLine
 10
6246.940335969481
 20
-1607.147643102013
 30
0.0
 11
6246.310523720553
 21
-1606.654351574517
 31
0.0
  0
ARC
  5
5B45C
330
1F
100
AcDbEntity
  8
AM_0
  6
中線
 48
0.5
370
    30
100
AcDbCircle
 10
6224.927015607125
 20
-1675.950877868498
 30
0.0
 40
34.6954148353943
100
AcDbArc
 50
91.36691392066699
 51
109.7033895717203
  0
ARC
  5
5B45E
330
1F
100
AcDbEntity
  8
AM_0
  6
中線
 48
0.5
370
    30
100
AcDbCircle
 10
6224.927015607125
 20
-1675.950877868498
 30
0.0
 40
32.6954148353943
100
AcDbArc
 50
91.55854874365529
 51
109.7540077268856
  0
ARC
  5
5B45F
330
1F
100
AcDbEntity
  8
AM_0
  6
中線
 48
0.5
370
    30
100
AcDbCircle
 10
6214.483621383555
 20
-1656.436594393018
 30
0.0
 40
4.0
100
AcDbArc
 50
206.8617612631377
 51
227.385933746088
1001
GENIUS_GENODEF_13
1002
{
1000
HIER
1070
     0
1002
}
1002
{
1000
MANEDIT
1070
     0
1002
}
1002
{
1000
NOSEL
1070
     0
1002
}
1002
{
1000
BEHIND
1070
     0
1002
}
1002
{
1000
OTHER
1070
     0
1002
}
1002
{
1000
REACTOR
1002
}
1001
GENIUS_GENOBJ-N-FIL_13
1002
{
1000
OWNER
1000
GEN
1002
}
  0
ARC
  5
5B460
330
1F
100
AcDbEntity
  8
AM_0
  6
中線
 48
0.5
370
    30
100
AcDbCircle
 10
6214.483621383555
 20
-1656.436594393018
 30
0.0
 40
2.0
100
AcDbArc
 50
189.3310116912044
 51
252.3294870320885
1001
GENIUS_GENODEF_13
1002
{
1000
HIER
1070
     0
1002
}
1002
{
1000
MANEDIT
1070
     0
1002
}
1002
{
1000
NOSEL
1070
     0
1002
}
1002
{
1000
BEHIND
1070
     0
1002
}
1002
{
1000
OTHER
1070
     0
1002
}
1002
{
1000
REACTOR
1002
}
1001
GENIUS_GENOBJ-N-FIL_13
1002
{
1000
OWNER
1000
GEN
1002
}
  0
LINE
  5
5B461
330
1F
100
AcDbEntity
  8
AM_0
  6
中線
 48
0.5
370
    30
100
AcDbLine
 10
6226.937467725501
 20
-1659.260775689583
 30
0.0
 11
6226.937478043411
 21
-1658.860870271217
 31
0.0
  0
LINE
  5
5B462
330
1F
100
AcDbEntity
  8
AM_0
  6
中線
 48
0.5
370
    30
100
AcDbLine
 10
6224.937467764229
 20
-1659.259248822331
 30
0.0
 11
6224.937478042744
 21
-1658.860870271217
 31
0.0
  0
ARC
  5
5B463
330
1F
100
AcDbEntity
  8
AM_0
  6
中線
 48
0.5
370
    30
100
AcDbCircle
 10
6223.937467764562
 20
-1659.259223021456
 30
0.0
 40
1.0
100
AcDbArc
 50
275.7554757689037
 51
359.9985217187582
1001
GENIUS_GENODEF_13
1002
{
1000
HIER
1070
     0
1002
}
1002
{
1000
MANEDIT
1070
     0
1002
}
1002
{
1000
NOSEL
1070
     0
1002
}
1002
{
1000
BEHIND
1070
     0
1002
}
1002
{
1000
OTHER
1070
     0
1002
}
1002
{
1000
REACTOR
1002
}
1001
GENIUS_GENOBJ-N-FIL_13
1002
{
1000
OWNER
1000
GEN
1002
}
  0
ARC
  5
5B464
330
1F
100
AcDbEntity
  8
AM_0
  6
中線
 48
0.5
370
    30
100
AcDbCircle
 10
6223.937467725501
 20
-1659.260775689583
 30
0.0
 40
3.000000000000089
100
AcDbArc
 50
273.093426128205
 51
0.0000003845733343
  0
ARC
  5
5B465
330
1F
100
AcDbEntity
  8
AM_0
  6
中線
 48
0.5
370
    30
100
AcDbCircle
 10
6224.927015607125
 20
-1627.570862673936
 30
0.0
 40
34.6954148353943
100
AcDbArc
 50
249.8449927721714
 51
268.6330860793332
  0
ARC
  5
5B466
330
1F
100
AcDbEntity
  8
AM_0
  6
中線
 48
0.5
370
    30
100
AcDbCircle
 10
6224.927015607125
 20
-1627.570862673936
 30
0.0
 40
32.6954148353943
100
AcDbArc
 50
250.2459922731111
 51
268.4414512563448
  0
ARC
  5
5B6C4
330
1F
100
AcDbEntity
  8
AM_0
  6
中線
 48
0.5
370
    30
100
AcDbCircle
 10
6214.483621383557
 20
-1565.628022750632
 30
0.0
 40
4.0
100
AcDbArc
 50
108.2732706803905
 51
175.3499872267432
1001
GENIUS_GENODEF_13
1002
{
1000
HIER
1070
     0
1002
}
1002
{
1000
MANEDIT
1070
     0
1002
}
1002
{
1000
NOSEL
1070
     0
1002
}
1002
{
1000
BEHIND
1070
     0
1002
}
1002
{
1000
OTHER
1070
     0
1002
}
1002
{
1000
REACTOR
1002
}
1001
GENIUS_GENOBJ-N-FIL_13
1002
{
1000
OWNER
1000
GEN
1002
}
  0
ARC
  5
5B6C5
330
1F
100
AcDbEntity
  8
AM_0
  6
中線
 48
0.5
370
    30
100
AcDbCircle
 10
6214.483621383557
 20
-1565.628022750632
 30
0.0
 40
2.0
100
AcDbArc
 50
107.6705129679085
 51
170.6689883088077
1001
GENIUS_GENODEF_13
1002
{
1000
HIER
1070
     0
1002
}
1002
{
1000
MANEDIT
1070
     0
1002
}
1002
{
1000
NOSEL
1070
     0
1002
}
1002
{
1000
BEHIND
1070
     0
1002
}
1002
{
1000
OTHER
1070
     0
1002
}
1002
{
1000
REACTOR
1002
}
1001
GENIUS_GENOBJ-N-FIL_13
1002
{
1000
OWNER
1000
GEN
1002
}
  0
LINE
  5
5B6C6
330
1F
100
AcDbEntity
  8
AM_0
  6
中線
 48
0.5
370
    30
100
AcDbLine
 10
6226.937467725503
 20
-1562.803841454068
 30
0.0
 11
6226.937478043413
 21
-1563.203746872434
 31
0.0
  0
LINE
  5
5B6C7
330
1F
100
AcDbEntity
  8
AM_0
  6
中線
 48
0.5
370
    30
100
AcDbLine
 10
6224.937467764231
 20
-1562.80536832132
 30
0.0
 11
6224.937478042746
 21
-1563.203746872434
 31
0.0
  0
ARC
  5
5B6C8
330
1F
100
AcDbEntity
  8
AM_0
  6
中線
 48
0.5
370
    30
100
AcDbCircle
 10
6223.937467764564
 20
-1562.805394122195
 30
0.0
 40
1.0
100
AcDbArc
 50
0.0014782812417976
 51
84.24452423109675
1001
GENIUS_GENODEF_13
1002
{
1000
HIER
1070
     0
1002
}
1002
{
1000
MANEDIT
1070
     0
1002
}
1002
{
1000
NOSEL
1070
     0
1002
}
1002
{
1000
BEHIND
1070
     0
1002
}
1002
{
1000
OTHER
1070
     0
1002
}
1002
{
1000
REACTOR
1002
}
1001
GENIUS_GENOBJ-N-FIL_13
1002
{
1000
OWNER
1000
GEN
1002
}
  0
ARC
  5
5B6C9
330
1F
100
AcDbEntity
  8
AM_0
  6
中線
 48
0.5
370
    30
100
AcDbCircle
 10
6223.937467725503
 20
-1562.803841454068
 30
0.0
 40
3.000000000000089
100
AcDbArc
 50
359.9999996154267
 51
86.90657387179513
  0
ARC
  5
5B6CA
330
1F
100
AcDbEntity
  8
AM_0
  6
中線
 48
0.5
370
    30
100
AcDbCircle
 10
6224.927015607126
 20
-1594.493754469715
 30
0.0
 40
34.6954148353943
100
AcDbArc
 50
91.36691392066699
 51
109.7033895717204
  0
ARC
  5
5B6CB
330
1F
100
AcDbEntity
  8
AM_0
  6
中線
 48
0.5
370
    30
100
AcDbCircle
 10
6224.927015607126
 20
-1594.493754469715
 30
0.0
 40
32.6954148353943
100
AcDbArc
 50
91.55854874365529
 51
109.7540077268855
  0
ARC
  5
5B6CC
330
1F
100
AcDbEntity
  8
AM_0
  6
中線
 48
0.5
370
    30
100
AcDbCircle
 10
6214.483621383557
 20
-1574.979470994235
 30
0.0
 40
4.0
100
AcDbArc
 50
184.6500127732536
 51
248.4938215931826
1001
GENIUS_GENODEF_13
1002
{
1000
HIER
1070
     0
1002
}
1002
{
1000
MANEDIT
1070
     0
1002
}
1002
{
1000
NOSEL
1070
     0
1002
}
1002
{
1000
BEHIND
1070
     0
1002
}
1002
{
1000
OTHER
1070
     0
1002
}
1002
{
1000
REACTOR
1002
}
1001
GENIUS_GENOBJ-N-FIL_13
1002
{
1000
OWNER
1000
GEN
1002
}
  0
ARC
  5
5B6CD
330
1F
100
AcDbEntity
  8
AM_0
  6
中線
 48
0.5
370
    30
100
AcDbCircle
 10
6214.483621383557
 20
-1574.979470994235
 30
0.0
 40
2.0
100
AcDbArc
 50
189.3310116912046
 51
252.3294870320885
1001
GENIUS_GENODEF_13
1002
{
1000
HIER
1070
     0
1002
}
1002
{
1000
MANEDIT
1070
     0
1002
}
1002
{
1000
NOSEL
1070
     0
1002
}
1002
{
1000
BEHIND
1070
     0
1002
}
1002
{
1000
OTHER
1070
     0
1002
}
1002
{
1000
REACTOR
1002
}
1001
GENIUS_GENOBJ-N-FIL_13
1002
{
1000
OWNER
1000
GEN
1002
}
  0
LINE
  5
5B6CE
330
1F
100
AcDbEntity
  8
AM_0
  6
中線
 48
0.5
370
    30
100
AcDbLine
 10
6226.937467725503
 20
-1577.8036522908
 30
0.0
 11
6226.937478043413
 21
-1577.403746872434
 31
0.0
  0
LINE
  5
5B6CF
330
1F
100
AcDbEntity
  8
AM_0
  6
中線
 48
0.5
370
    30
100
AcDbLine
 10
6224.937467764231
 20
-1577.802125423548
 30
0.0
 11
6224.937478042746
 21
-1577.403746872434
 31
0.0
  0
ARC
  5
5B6D0
330
1F
100
AcDbEntity
  8
AM_0
  6
中線
 48
0.5
370
    30
100
AcDbCircle
 10
6223.937467764564
 20
-1577.802099622673
 30
0.0
 40
1.0
100
AcDbArc
 50
275.7554757689037
 51
359.9985217187582
1001
GENIUS_GENODEF_13
1002
{
1000
HIER
1070
     0
1002
}
1002
{
1000
MANEDIT
1070
     0
1002
}
1002
{
1000
NOSEL
1070
     0
1002
}
1002
{
1000
BEHIND
1070
     0
1002
}
1002
{
1000
OTHER
1070
     0
1002
}
1002
{
1000
REACTOR
1002
}
1001
GENIUS_GENOBJ-N-FIL_13
1002
{
1000
OWNER
1000
GEN
1002
}
  0
ARC
  5
5B6D1
330
1F
100
AcDbEntity
  8
AM_0
  6
中線
 48
0.5
370
    30
100
AcDbCircle
 10
6223.937467725503
 20
-1577.8036522908
 30
0.0
 40
3.000000000000089
100
AcDbArc
 50
273.093426128205
 51
0.0000003845733343
  0
ARC
  5
5B6D2
330
1F
100
AcDbEntity
  8
AM_0
  6
中線
 48
0.5
370
    30
100
AcDbCircle
 10
6224.927015607126
 20
-1546.113739275153
 30
0.0
 40
34.6954148353943
100
AcDbArc
 50
249.8449927721714
 51
268.6330860793332
  0
ARC
  5
5B6D3
330
1F
100
AcDbEntity
  8
AM_0
  6
中線
 48
0.5
370
    30
100
AcDbCircle
 10
6224.927015607126
 20
-1546.113739275153
 30
0.0
 40
32.6954148353943
100
AcDbArc
 50
250.2459922731112
 51
268.4414512563448
  0
DIMENSION
  5
5B6ED
330
1F
100
AcDbEntity
  8
AM_5
100
AcDbDimension
  2
*D23
 10
6216.794012721067
 20
-1579.843548216267
 30
0.0
 11
6213.18228648807
 21
-1583.889908756047
 31
0.0
 70
    33
  1
%%c<>
 71
     5
 42
2.0
  3
SYS$0
100
AcDbAlignedDimension
 13
6217.512398180431
 23
-1577.957319470763
 33
0.0
 14
6217.05884116248
 24
-1579.905212186358
 34
0.0
  0
ENDSEC
  0
SECTION
  2
OBJECTS
  0
DICTIONARY
  5
C
330
0
100
AcDbDictionary
281
     1
  3
ACAD_2007HEADERVARS_RT
350
5B731
  3
ACAD_BGPLOT_KEY
350
AB06
  3
ACAD_COLOR
350
A91D
  3
ACAD_GROUP
350
D
  3
ACAD_LAYOUT
350
1A
  3
ACAD_MATERIAL
350
A91C
  3
ACAD_MLINESTYLE
350
17
  3
ACAD_PLOTSETTINGS
350
19
  3
ACAD_PLOTSTYLENAME
350
E
  3
ACAD_TABLESTYLE
350
AAB9
  3
ACAD_VISUALSTYLE
350
B0F1
  3
AcAsAppObject
350
3DA1
  3
ACASGREF_MASTER
350
3DE9
  3
AcDbVariableDictionary
350
34
  3
AcmDictionary
350
47
  3
AD_GREF_MODULE
350
3DEA
  3
AD_MAPI_MODULE
350
3E06
  3
AMG
350
2B
  3
AMGSNAPSETTINGS
350
7D
  3
ASE_INDEX_DICTIONARY
350
57912
  3
DWGPROPS
350
5B730
  3
MAPISURF_MODULE
350
3DEB
  0
DICTIONARY
  5
3F95
330
2
100
AcDbDictionary
280
     1
281
     1
  3
ACAD_LAYERFILTERS
360
5369F
  3
ACAD_LAYERSTATES
360
3F96
  3
ACLYDICTIONARY
360
5369E
  3
AMLAYER_GROUPCOLORS
360
AAB4
  0
DICTIONARY
  5
5B4FB
330
5B4FA
100
AcDbDictionary
280
     1
281
     1
  3
ADSK_XREC_LAYER_RECONCILED
360
5B4FC
  0
DICTIONARY
  5
8A
330
1F
100
AcDbDictionary
280
     1
281
     1
  3
ACAD_SORTENTS
360
B1BA
  0
DICTIONARY
  5
5B731
102
{ACAD_REACTORS
330
C
102
}
330
C
100
AcDbDictionary
281
     1
  3
DIMARCSYM
350
5B732
  0
DICTIONARY
  5
AB06
102
{ACAD_REACTORS
330
C
102
}
330
C
100
AcDbDictionary
280
     1
281
     1
  0
DICTIONARY
  5
A91D
102
{ACAD_REACTORS
330
C
102
}
330
C
100
AcDbDictionary
281
     1
  0
DICTIONARY
  5
D
102
{ACAD_REACTORS
330
C
102
}
330
C
100
AcDbDictionary
281
     1
  0
DICTIONARY
  5
1A
102
{ACAD_REACTORS
330
C
102
}
330
C
100
AcDbDictionary
281
     1
  3
Model
350
22
  3
ﾚｲｱｳﾄ1
350
1E
  3
ﾚｲｱｳﾄ2
350
26
  0
DICTIONARY
  5
A91C
102
{ACAD_REACTORS
330
C
102
}
330
C
100
AcDbDictionary
281
     1
  3
ByBlock
350
B0EF
  3
ByLayer
350
B0EE
  3
Global
350
B0F0
  0
DICTIONARY
  5
17
102
{ACAD_REACTORS
330
C
102
}
330
C
100
AcDbDictionary
281
     1
  3
Standard
350
18
  0
DICTIONARY
  5
19
102
{ACAD_REACTORS
330
C
102
}
330
C
100
AcDbDictionary
281
     1
  0
ACDBDICTIONARYWDFLT
  5
E
102
{ACAD_REACTORS
330
C
102
}
330
C
100
AcDbDictionary
281
     1
  3
Normal
350
F
100
AcDbDictionaryWithDefault
340
F
  0
DICTIONARY
  5
AAB9
102
{ACAD_REACTORS
330
C
102
}
330
C
100
AcDbDictionary
281
     1
  3
Standard
350
AABA
  0
DICTIONARY
  5
B0F1
102
{ACAD_REACTORS
330
C
102
}
330
C
100
AcDbDictionary
281
     1
  3
2dWireframe
350
B0F7
  3
3D Hidden
350
B0F9
  3
3dWireframe
350
B0F8
  3
Basic
350
B0F6
  3
Brighten
350
B0FD
  3
ColorChange
350
B101
  3
Conceptual
350
B0FA
  3
Dim
350
B0FC
  3
Facepattern
350
B100
  3
Flat
350
B0F2
  3
FlatWithEdges
350
B0F3
  3
Gouraud
350
B0F4
  3
GouraudWithEdges
350
B0F5
  3
Linepattern
350
B0FF
  3
Realistic
350
B0FB
  3
Thicken
350
B0FE
  0
ACAD_PROXY_OBJECT
  5
3DA1
102
{ACAD_REACTORS
330
C
102
}
330
C
100
AcDbProxyObject
 90
      499
 91
      576
 95
   917527
 70
     0
 93
       10
310
407F
 94
        0
1001
ACAD
1000
AcRTDxfName
1000
ASAPP
  0
ACAD_PROXY_OBJECT
  5
3DE9
102
{ACAD_REACTORS
330
C
102
}
330
C
100
AcDbProxyObject
 90
      499
 91
      581
 95
   917527
 70
     0
 93
       34
310
010000407F
 94
        0
1001
ACAD
1000
AcRTDxfName
1000
ACASGREFMASTER
  0
DICTIONARY
  5
34
102
{ACAD_REACTORS
330
C
102
}
330
C
100
AcDbDictionary
281
     1
  3
CTABLESTYLE
350
AAF3
  3
DIMASSOC
350
A10C
  3
FIELDEVAL
350
AB07
  3
INDEXCTL
350
35
  3
SORTENTS
350
194C
  0
DICTIONARY
  5
47
102
{ACAD_REACTORS
330
C
102
}
330
C
100
AcDbDictionary
281
     1
  3
AcmBOM
350
7E8
  3
AcmStdDictionary
350
4C
  3
AMDTSECTSYM_ARROWCOLOR
350
A929
  0
ACAD_PROXY_OBJECT
  5
3DEA
102
{ACAD_REACTORS
330
C
102
}
330
C
100
AcDbProxyObject
 90
      499
 91
      582
 95
   917527
 70
     0
 93
      114
310
00000043800000000000000000003F
 94
        0
1001
ACAD
1000
AcRTDxfName
1000
ACADGREFMODULE
  0
ACAD_PROXY_OBJECT
  5
3E06
102
{ACAD_REACTORS
330
C
102
}
330
C
100
AcDbProxyObject
 90
      499
 91
      594
 95
   917527
 70
     0
 93
       34
310
05000044FF
 94
        0
1001
ACAD
1000
AcRTDxfName
1000
MAPIADMODULE
  0
DICTIONARY
  5
2B
102
{ACAD_REACTORS
330
C
102
}
330
C
100
AcDbDictionary
281
     1
  0
DICTIONARY
  5
7D
102
{ACAD_REACTORS
330
C
102
}
330
C
100
AcDbDictionary
281
     1
  0
DICTIONARY
  5
57912
102
{ACAD_REACTORS
330
C
102
}
330
C
100
AcDbDictionary
281
     1
  3
ASEBlockHierarchyIndexRecord
350
57913
1001
DCO15
1040
1757428023.343
  0
XRECORD
  5
5B730
102
{ACAD_REACTORS
330
C
102
}
330
C
100
AcDbXrecord
280
     1
  1
DWGPROPS COOKIE
  2

  3

  4

  6

  7

  8
Administrator
  9

300
AmdtFileType=84
301
=
302
=
303
=
304
=
305
=
306
=
307
=
308
=
309
=
 40
8.385711041666667
 41
2455567.680725081
 42
2456343.632169595
  1

 90
        1
  0
ACAD_PROXY_OBJECT
  5
3DEB
102
{ACAD_REACTORS
330
C
102
}
330
C
100
AcDbProxyObject
 90
      499
 91
      583
 95
   917527
 70
     0
 93
        8
310
0478
 94
        0
1001
ACAD
1000
AcRTDxfName
1000
AMDTMAPISURFMOUDULE
  0
DICTIONARY
  5
5369F
102
{ACAD_REACTORS
330
3F95
102
}
330
3F95
100
AcDbDictionary
281
     1
  0
DICTIONARY
  5
3F96
102
{ACAD_REACTORS
330
3F95
102
}
330
3F95
100
AcDbDictionary
281
     1
  3
20011210
350
3FB7
  0
DICTIONARY
  5
5369E
102
{ACAD_REACTORS
330
3F95
102
}
330
3F95
100
AcDbDictionary
281
     1
1001
ACAD
1000
<All
  0
DICTIONARY
  5
AAB4
102
{ACAD_REACTORS
330
3F95
102
}
330
3F95
100
AcDbDictionary
280
     1
281
     1
  0
XRECORD
  5
5B4FC
102
{ACAD_REACTORS
330
5B4FB
102
}
330
5B4FB
100
AcDbXrecord
280
     1
290
     1
  0
SORTENTSTABLE
  5
B1BA
102
{ACAD_REACTORS
330
8A
102
}
330
8A
100
AcDbSortentsTable
330
1F
331
4E0E9
  5
4E1D4
331
3862C
  5
38A6A
331
31B3D
  5
3273E
331
38634
  5
38A72
331
55EE0
  5
55EEB
331
32D1D
  5
32D3A
331
55EE8
  5
55EF3
331
51841
  5
B5E2
331
55FE2
  5
56331
331
55F15
  5
55F20
331
55F8B
  5
55F9B
331
55FEA
  5
5B2CC
331
55F1D
  5
55F28
331
55F5C
  5
55F6A
331
55F93
  5
55FA5
331
55F64
  5
55F71
331
55F9B
  5
55FB0
331
5B2CC
  5
55F78
331
55F2D
  5
55F38
331
55F6C
  5
55F7B
331
5B6CA
  5
5B6CA
331
5B6D2
  5
5B6D2
331
34535
  5
3454D
331
55EF8
  5
55F03
331
55F00
  5
55F0B
331
55EC9
  5
55ED4
331
55F08
  5
55F13
331
38625
  5
38A63
331
55ED1
  5
55EDC
331
55FB3
  5
55FD2
331
55F35
  5
55F40
331
55F74
  5
55F83
331
55FC3
  5
55FDA
331
55F3D
  5
55F48
331
55F7C
  5
55F8C
331
55F84
  5
55F95
331
55FCB
  5
55FE2
331
55FD3
  5
55FE8
331
55F4D
  5
55F5C
331
5B463
  5
5B463
331
4E0EA
  5
4E1D5
331
3862D
  5
38A6B
331
31B3E
  5
3273F
331
38635
  5
38A73
331
55EE1
  5
55EEC
331
32D1E
  5
32D3B
331
55EE9
  5
55EF4
331
51842
  5
B5E3
331
55FE3
  5
566A9
331
55F16
  5
55F21
331
55F8C
  5
55F9C
331
55F1E
  5
55F29
331
55F5D
  5
55F6B
331
55F65
  5
55F72
331
55F9C
  5
55FB1
331
5B2CD
  5
55F75
331
55F2E
  5
55F39
331
55F6D
  5
55F7C
331
5B6CB
  5
5B6CB
331
5B6D3
  5
5B6D3
331
5B315
  5
55FAA
331
5184A
  5
B8D5
331
34536
  5
3454E
331
55F01
  5
55F0C
331
3861E
  5
38A5C
331
55ECA
  5
55ED5
331
55F09
  5
55F14
331
38626
  5
38A64
331
55ED2
  5
55EDD
331
55F75
  5
55F84
331
55FB4
  5
55FD3
331
55F36
  5
55F41
331
55F3E
  5
55F49
331
55F7D
  5
55F8D
331
55FC4
  5
55FDB
331
55F46
  5
55F53
331
55F85
  5
55F96
331
5B425
  5
5B425
331
5B45C
  5
5B45C
331
5B464
  5
5B464
331
4E0EB
  5
4E1D6
331
3862E
  5
38A6C
331
55EDA
  5
55EE5
331
4E0F3
  5
4E1DE
331
55EE2
  5
55EED
331
55EEA
  5
55EF5
331
32D1F
  5
32D3C
331
55EF2
  5
55EFD
331
55FE4
  5
566AA
331
55F17
  5
55F22
331
55F8D
  5
55F9D
331
55F1F
  5
55F2A
331
55FEC
  5
5B2CD
331
55F9D
  5
55FB2
331
55F66
  5
55F73
331
5B2CE
  5
55FA3
331
55F2F
  5
55F3A
331
55F6E
  5
55F7D
331
5B6C4
  5
5B6C4
331
5B6CC
  5
5B6CC
331
5184B
  5
B8D6
331
55EFA
  5
55F05
331
55F02
  5
55F0D
331
3861F
  5
38A5D
331
55ECB
  5
55ED6
331
55F0A
  5
55F15
331
38627
  5
38A65
331
55ED3
  5
55EDE
331
55F37
  5
55F42
331
55F76
  5
55F85
331
55FB5
  5
55FD4
331
55FC5
  5
55FDC
331
55F3F
  5
55F4A
331
55F7E
  5
55F8E
331
55F47
  5
55F54
331
55F86
  5
55F97
331
5B465
  5
5B465
331
31B30
  5
32738
331
3862F
  5
38A6D
331
55EDB
  5
55EE6
331
4E0F4
  5
4E1DF
331
55EE3
  5
55EEE
331
55EEB
  5
55EF6
331
55F10
  5
55F1B
331
55FE5
  5
566B0
331
55F18
  5
55F23
331
55F8E
  5
55F9E
331
55F96
  5
55FA9
331
55FED
  5
5B2CE
331
55F20
  5
55F2B
331
55F5F
  5
55F6C
331
55F67
  5
55F74
331
55F9E
  5
55FB3
331
5B2CF
  5
55FA8
331
55F6F
  5
55F7E
331
5B6C5
  5
5B6C5
331
5B6CD
  5
5B6CD
331
55EFB
  5
55F06
331
34538
  5
34550
331
5184C
  5
B8D7
331
55F03
  5
55F0E
331
38620
  5
38A5E
331
55ECC
  5
55ED7
331
55F0B
  5
55F16
331
55ED4
  5
55EDF
331
55F30
  5
55F3B
331
55FB6
  5
55FD5
331
55F77
  5
55F86
331
55F40
  5
55F4B
331
55F7F
  5
55F90
331
55FC6
  5
55FDD
331
55FCE
  5
55FE3
331
55F48
  5
55F55
331
55F87
  5
55F98
331
5B45E
  5
5B45E
331
5B466
  5
5B466
331
31B31
  5
32739
331
38628
  5
38A66
331
38630
  5
38A6E
331
55EDC
  5
55EE7
331
4E0F5
  5
4E1E0
331
55EE4
  5
55EEF
331
32D21
  5
32D3E
331
55EF4
  5
55EFF
331
55F11
  5
55F1C
331
55F50
  5
55F5D
331
55FE6
  5
566B1
331
55F19
  5
55F24
331
55F21
  5
55F2C
331
55F60
  5
55F6D
331
55F9F
  5
55FB4
331
5B6C6
  5
5B6C6
331
5B6CE
  5
5B6CE
331
5184D
  5
B8D8
331
55F04
  5
55F0F
331
55F0C
  5
55F17
331
38621
  5
38A5F
331
55ED5
  5
55EE0
331
55F31
  5
55F3C
331
55F70
  5
55F7F
331
55F39
  5
55F44
331
55F78
  5
55F87
331
55FC7
  5
55FDE
331
55F41
  5
55F4C
331
55F80
  5
55F91
331
55FCF
  5
55FE4
331
55F49
  5
55F56
331
5B2A9
  5
55F52
331
55FD7
  5
55FED
331
5B45F
  5
5B45F
331
31B32
  5
3273A
331
38629
  5
38A67
331
38631
  5
38A6F
331
55EDD
  5
55EE8
331
4E0F6
  5
4E1E1
331
55EE5
  5
55EF0
331
55EF5
  5
55F00
331
55F51
  5
55F5E
331
55F12
  5
55F1D
331
55FE7
  5
566B3
331
55F1A
  5
55F25
331
55F59
  5
55F66
331
55F90
  5
55F9F
331
55FEF
  5
5B2CF
331
55F22
  5
55F2D
331
55F61
  5
55F6E
331
55F2A
  5
55F35
331
55FA0
  5
55FB5
331
5B2D9
  5
55FA0
331
5621B
  5
5B30B
331
5B6C7
  5
5B6C7
331
5B6CF
  5
5B6CF
331
55EFD
  5
55F08
331
55F05
  5
55F10
331
38622
  5
38A60
331
55F0D
  5
55F18
331
55ED6
  5
55EE1
331
55F32
  5
55F3D
331
55F71
  5
55F80
331
55F3A
  5
55F45
331
55F79
  5
55F89
331
55F81
  5
55F92
331
55FC8
  5
55FDF
331
55F42
  5
55F4D
331
55F4A
  5
55F57
331
55FD0
  5
55FE5
331
5B460
  5
5B460
331
31B33
  5
3273B
331
3862A
  5
38A68
331
31B3B
  5
3273C
331
38632
  5
38A70
331
55EE6
  5
55EF1
331
5183F
  5
B5AD
331
55FE0
  5
5621B
331
55F13
  5
55F1E
331
55F52
  5
55F64
331
55F89
  5
55F99
331
55FE8
  5
5B2A9
331
55F5A
  5
55F67
331
55FF0
  5
5B2D9
331
55F23
  5
55F2E
331
55F62
  5
55F6F
331
55F99
  5
55FAE
331
55F2B
  5
55F36
331
55F6A
  5
55F79
331
55FA1
  5
55FB6
331
5B6C8
  5
5B6C8
331
5B2DA
  5
55FA7
331
5B6D0
  5
5B6D0
331
55EFE
  5
55F09
331
55F06
  5
55F11
331
55F0E
  5
55F19
331
38623
  5
38A61
331
55ECF
  5
55EDA
331
55F33
  5
55F3E
331
55F72
  5
55F81
331
55F3B
  5
55F46
331
55F7A
  5
55F8A
331
55FC1
  5
55FD6
331
55F43
  5
55F4E
331
55F82
  5
55F93
331
55FC9
  5
55FE0
331
55FD1
  5
55FE6
331
55F4B
  5
55F58
331
561AD
  5
5B2DA
331
5B461
  5
5B461
331
3862B
  5
38A69
331
4E0E8
  5
4E1D3
331
31B3C
  5
3273D
331
38633
  5
38A71
331
55EDF
  5
55EEA
331
55EE7
  5
55EF2
331
51840
  5
B5AE
331
55F8A
  5
55F9A
331
55FE1
  5
562F6
331
55F14
  5
55F1F
331
55F53
  5
55F65
331
55FE9
  5
5B2BC
331
55F5B
  5
55F68
331
55F9A
  5
55FAF
331
55F6B
  5
55F7A
331
55FA2
  5
55FB7
331
55F2C
  5
55F37
331
5B6C9
  5
5B6C9
331
5B30B
  5
55FAD
331
5B6D1
  5
5B6D1
331
34534
  5
3454C
331
55EFF
  5
55F0A
331
55F07
  5
55F12
331
55EC8
  5
55ED3
331
38624
  5
38A62
331
55ED0
  5
55EDB
331
55F0F
  5
55F1A
331
55F34
  5
55F3F
331
55F73
  5
55F82
331
55FC2
  5
55FD9
331
55F3C
  5
55F47
331
55F7B
  5
55F8B
331
55FCA
  5
55FE1
331
55F83
  5
55F94
331
55F4C
  5
55F5B
331
55FD2
  5
55FE7
331
5B2BC
  5
55F50
331
5B462
  5
5B462
  0
XRECORD
  5
5B732
102
{ACAD_REACTORS
330
5B731
102
}
330
5B731
100
AcDbXrecord
280
     1
 70
     1
  0
LAYOUT
  5
22
102
{ACAD_XDICTIONARY
360
5B735
102
}
102
{ACAD_REACTORS
330
1A
102
}
330
1A
100
AcDbPlotSettings
  1

  2
FX DocuWide 2050/2051
  4
A3
  6
AM_VIEW1
 40
3.174999952316284
 41
3.174999952316284
 42
3.17498779296875
 43
3.17498779296875
 44
296.989501953125
 45
419.9889831542968
 46
0.0
 47
1.295841228961961
 48
214.3704939521119
 49
367.5855324241176
140
275.6727856380065
141
407.629191407817
142
1.0
143
0.7225445603030646
 70
  3764
 72
     1
 73
     1
 74
     2
  7
monochrome.ctb
 75
     0
147
1.383997686703999
148
-1700.85588156276
149
-1647.985052086429
100
AcDbLayout
  1
Model
 70
     1
 71
     0
 10
0.0
 20
0.0
 11
12.0
 21
9.0
 12
0.0
 22
0.0
 32
0.0
 14
0.0
 24
0.0
 34
0.0
 15
0.0
 25
0.0
 35
0.0
146
0.0
 13
0.0
 23
0.0
 33
0.0
 16
1.0
 26
0.0
 36
0.0
 17
0.0
 27
1.0
 37
0.0
 76
     0
330
1F
331
B0EC
1001
ACAD_PSEXT
1000
FX DocuWide 2050/2051
1000
FX DocuWide 2050/2051
1000
IP_192.200.15.252
1000

1070
     0
  0
LAYOUT
  5
1E
102
{ACAD_XDICTIONARY
360
5B733
102
}
102
{ACAD_REACTORS
330
1A
102
}
330
1A
100
AcDbPlotSettings
  1

  2
\\ML370\XEROX
  4
A4
  6

 40
3.174999952316284
 41
3.174999952316284
 42
3.175003051757812
 43
3.17498779296875
 44
209.8674926757813
 45
296.6719970703125
 46
0.0
 47
0.0
 48
0.0
 49
0.0
140
0.0
141
0.0
142
1.0
143
1.0
 70
   688
 72
     1
 73
     1
 74
     5
  7
monochrome.ctb
 75
    16
147
1.0
148
0.0
149
0.0
100
AcDbLayout
  1
ﾚｲｱｳﾄ1
 70
     1
 71
     1
 10
-3.17498779296875
 20
-3.174999952316284
 11
293.4970092773438
 21
206.692492723465
 12
0.0
 22
0.0
 32
0.0
 14
1.000000000000000E+20
 24
1.000000000000000E+20
 34
1.000000000000000E+20
 15
-1.000000000000000E+20
 25
-1.000000000000000E+20
 35
-1.000000000000000E+20
146
0.0
 13
0.0
 23
0.0
 33
0.0
 16
1.0
 26
0.0
 36
0.0
 17
0.0
 27
1.0
 37
0.0
 76
     0
330
1B
  0
LAYOUT
  5
26
102
{ACAD_XDICTIONARY
360
5B737
102
}
102
{ACAD_REACTORS
330
1A
102
}
330
1A
100
AcDbPlotSettings
  1

  2
\\ML370\XEROX
  4

  6

 40
0.0
 41
0.0
 42
0.0
 43
0.0
 44
0.0
 45
0.0
 46
0.0
 47
0.0
 48
0.0
 49
0.0
140
0.0
141
0.0
142
1.0
143
1.0
 70
   688
 72
     0
 73
     0
 74
     5
  7
monochrome.ctb
 75
    16
147
1.0
148
0.0
149
0.0
100
AcDbLayout
  1
ﾚｲｱｳﾄ2
 70
     1
 71
     2
 10
0.0
 20
0.0
 11
12.0
 21
9.0
 12
0.0
 22
0.0
 32
0.0
 14
0.0
 24
0.0
 34
0.0
 15
0.0
 25
0.0
 35
0.0
146
0.0
 13
0.0
 23
0.0
 33
0.0
 16
1.0
 26
0.0
 36
0.0
 17
0.0
 27
1.0
 37
0.0
 76
     0
330
23
  0
MATERIAL
  5
B0EF
102
{ACAD_XDICTIONARY
360
5B73D
102
}
102
{ACAD_REACTORS
330
A91C
102
}
330
A91C
100
AcDbMaterial
  1
ByBlock
  0
MATERIAL
  5
B0EE
102
{ACAD_XDICTIONARY
360
5B73B
102
}
102
{ACAD_REACTORS
330
A91C
102
}
330
A91C
100
AcDbMaterial
  1
ByLayer
  0
MATERIAL
  5
B0F0
102
{ACAD_XDICTIONARY
360
5B73F
102
}
102
{ACAD_REACTORS
330
A91C
102
}
330
A91C
100
AcDbMaterial
  1
Global
  0
MLINESTYLE
  5
18
102
{ACAD_REACTORS
330
17
102
}
330
17
100
AcDbMlineStyle
  2
STANDARD
 70
     0
  3

 62
   256
 51
90.0
 52
90.0
 71
     2
 49
0.5
 62
   256
  6
BYLAYER
 49
-0.5
 62
   256
  6
BYLAYER
  0
ACDBPLACEHOLDER
  5
F
102
{ACAD_REACTORS
330
E
102
}
330
E
  0
TABLESTYLE
  5
AABA
102
{ACAD_XDICTIONARY
360
5B739
102
}
102
{ACAD_REACTORS
330
AAB9
102
}
330
AAB9
100
AcDbTableStyle
  3
Standard
 70
     0
 71
     0
 40
1.5
 41
1.5
280
     0
281
     0
  7
STANDARD
140
4.5
170
     2
 62
     0
 63
     7
283
     0
274
    -2
284
     1
 64
     0
275
    -2
285
     1
 65
     0
276
    -2
286
     1
 66
     0
277
    -2
287
     1
 67
     0
278
    -2
288
     1
 68
     0
279
    -2
289
     1
 69
     0
  7
STANDARD
140
6.0
170
     5
 62
     0
 63
     7
283
     0
274
    -2
284
     1
 64
     0
275
    -2
285
     1
 65
     0
276
    -2
286
     1
 66
     0
277
    -2
287
     1
 67
     0
278
    -2
288
     1
 68
     0
279
    -2
289
     1
 69
     0
  7
STANDARD
140
4.5
170
     5
 62
     0
 63
     7
283
     0
274
    -2
284
     1
 64
     0
275
    -2
285
     1
 65
     0
276
    -2
286
     1
 66
     0
277
    -2
287
     1
 67
     0
278
    -2
288
     1
 68
     0
279
    -2
289
     1
 69
     0
  0
VISUALSTYLE
  5
B0F7
102
{ACAD_REACTORS
330
B0F1
102
}
330
B0F1
100
AcDbVisualStyle
  2
2dWireframe
 70
     4
 71
     0
 72
     2
 73
     0
 90
        0
 40
-0.6
 41
-30.0
 62
     5
 63
     7
 74
     1
 91
        4
 64
     7
 65
   257
 75
     1
175
     1
 42
1.0
 92
        0
 66
   257
 43
1.0
 76
     1
 77
     6
 78
     2
 67
     7
 79
     5
170
     0
171
     0
290
     0
174
     0
 93
        1
 44
0.0
173
     0
291
     0
 45
0.0
1001
ACAD
1000
AcDbSavedByObjectVersion
1070
     0
  0
VISUALSTYLE
  5
B0F9
102
{ACAD_REACTORS
330
B0F1
102
}
330
B0F1
100
AcDbVisualStyle
  2
3D Hidden
 70
     6
 71
     1
 72
     2
 73
     2
 90
        0
 40
-0.6
 41
-30.0
 62
     5
 63
     7
 74
     2
 91
        2
 64
     7
 65
   257
 75
     2
175
     1
 42
40.0
 92
        0
 66
   257
 43
1.0
 76
     1
 77
     6
 78
     2
 67
     7
 79
     3
170
     0
171
     0
290
     0
174
     0
 93
        1
 44
0.0
173
     0
291
     0
 45
0.0
1001
ACAD
1000
AcDbSavedByObjectVersion
1070
     0
  0
VISUALSTYLE
  5
B0F8
102
{ACAD_REACTORS
330
B0F1
102
}
330
B0F1
100
AcDbVisualStyle
  2
3dWireframe
 70
     5
 71
     0
 72
     2
 73
     0
 90
        0
 40
-0.6
 41
-30.0
 62
     5
 63
     7
 74
     1
 91
        4
 64
     7
 65
   257
 75
     1
175
     1
 42
1.0
 92
        0
 66
   257
 43
1.0
 76
     1
 77
     6
 78
     2
 67
     7
 79
     5
170
     0
171
     0
290
     0
174
     0
 93
        1
 44
0.0
173
     0
291
     0
 45
0.0
1001
ACAD
1000
AcDbSavedByObjectVersion
1070
     0
  0
VISUALSTYLE
  5
B0F6
102
{ACAD_REACTORS
330
B0F1
102
}
330
B0F1
100
AcDbVisualStyle
  2
Basic
 70
     7
 71
     1
 72
     0
 73
     1
 90
        0
 40
-0.6
 41
-30.0
 62
     5
 63
     7
 74
     0
 91
        4
 64
     7
 65
   257
 75
     1
175
     1
 42
1.0
 92
        8
 66
     7
 43
1.0
 76
     1
 77
     6
 78
     2
 67
     7
 79
     5
170
     0
171
     0
290
     0
174
     0
 93
        1
 44
0.0
173
     0
291
     1
 45
0.0
1001
ACAD
1000
AcDbSavedByObjectVersion
1070
     0
  0
VISUALSTYLE
  5
B0FD
102
{ACAD_REACTORS
330
B0F1
102
}
330
B0F1
100
AcDbVisualStyle
  2
Brighten
 70
    12
 71
     2
 72
     2
 73
     0
 90
        0
 40
-0.6
 41
-30.0
 62
     5
 63
     7
 74
     1
 91
        4
 64
     7
 65
   257
 75
     1
175
     1
 42
1.0
 92
        8
 66
     7
 43
1.0
 76
     1
 77
     6
 78
     2
 67
     7
 79
     5
170
     0
171
     0
290
     0
174
     0
 93
        1
 44
50.0
173
     0
291
     1
 45
0.0
1001
ACAD
1000
AcDbSavedByObjectVersion
1070
     0
  0
VISUALSTYLE
  5
B101
102
{ACAD_REACTORS
330
B0F1
102
}
330
B0F1
100
AcDbVisualStyle
  2
ColorChange
 70
    16
 71
     2
 72
     2
 73
     3
 90
        0
 40
-0.6
 41
-30.0
 62
     5
 63
     8
 74
     1
 91
        4
 64
     7
 65
   257
 75
     1
175
     1
 42
1.0
 92
        8
 66
     8
 43
1.0
 76
     1
 77
     6
 78
     2
 67
     7
 79
     5
170
     0
171
     0
290
     0
174
     0
 93
        1
 44
0.0
173
     0
291
     1
 45
0.0
1001
ACAD
1000
AcDbSavedByObjectVersion
1070
     0
  0
VISUALSTYLE
  5
B0FA
102
{ACAD_REACTORS
330
B0F1
102
}
330
B0F1
100
AcDbVisualStyle
  2
Conceptual
 70
     9
 71
     3
 72
     2
 73
     0
 90
        0
 40
-0.6
 41
-30.0
 62
     5
 63
     7
 74
     2
 91
        2
 64
     7
 65
   257
 75
     1
175
     1
 42
40.0
 92
        8
 66
     7
 43
1.0
 76
     1
 77
     6
 78
     2
 67
     7
 79
     3
170
     0
171
     0
290
     0
174
     0
 93
        1
 44
0.0
173
     0
291
     0
 45
0.0
1001
ACAD
1000
AcDbSavedByObjectVersion
1070
     0
  0
VISUALSTYLE
  5
B0FC
102
{ACAD_REACTORS
330
B0F1
102
}
330
B0F1
100
AcDbVisualStyle
  2
Dim
 70
    11
 71
     2
 72
     2
 73
     0
 90
        0
 40
-0.6
 41
-30.0
 62
     5
 63
     7
 74
     1
 91
        4
 64
     7
 65
   257
 75
     1
175
     1
 42
1.0
 92
        8
 66
     7
 43
1.0
 76
     1
 77
     6
 78
     2
 67
     7
 79
     5
170
     0
171
     0
290
     0
174
     0
 93
        1
 44
-50.0
173
     0
291
     1
 45
0.0
1001
ACAD
1000
AcDbSavedByObjectVersion
1070
     0
  0
VISUALSTYLE
  5
B100
102
{ACAD_REACTORS
330
B0F1
102
}
330
B0F1
100
AcDbVisualStyle
  2
Facepattern
 70
    15
 71
     2
 72
     2
 73
     0
 90
        0
 40
-0.6
 41
-30.0
 62
     5
 63
     7
 74
     1
 91
        4
 64
     7
 65
   257
 75
     1
175
     1
 42
1.0
 92
        8
 66
     7
 43
1.0
 76
     1
 77
     6
 78
     2
 67
     7
 79
     5
170
     0
171
     0
290
     0
174
     0
 93
        1
 44
0.0
173
     0
291
     1
 45
0.0
1001
ACAD
1000
AcDbSavedByObjectVersion
1070
     0
  0
VISUALSTYLE
  5
B0F2
102
{ACAD_REACTORS
330
B0F1
102
}
330
B0F1
100
AcDbVisualStyle
  2
Flat
 70
     0
 71
     2
 72
     1
 73
     1
 90
        2
 40
-0.6
 41
30.0
 62
     5
 63
     7
 74
     0
 91
        4
 64
     7
 65
   257
 75
     1
175
     1
 42
1.0
 92
        8
 66
     7
 43
1.0
 76
     1
 77
     6
 78
     2
 67
     7
 79
     5
170
     0
171
     0
290
     0
174
     0
 93
       13
 44
0.0
173
     0
291
     1
 45
0.0
1001
ACAD
1000
AcDbSavedByObjectVersion
1070
     0
  0
VISUALSTYLE
  5
B0F3
102
{ACAD_REACTORS
330
B0F1
102
}
330
B0F1
100
AcDbVisualStyle
  2
FlatWithEdges
 70
     1
 71
     2
 72
     1
 73
     1
 90
        2
 40
-0.6
 41
30.0
 62
     5
 63
     7
 74
     1
 91
        4
 64
     7
 65
   257
 75
     1
175
     1
 42
1.0
 92
        0
 66
   257
 43
1.0
 76
     1
 77
     6
 78
     2
 67
     7
 79
     5
170
     0
171
     0
290
     0
174
     0
 93
       13
 44
0.0
173
     0
291
     1
 45
0.0
1001
ACAD
1000
AcDbSavedByObjectVersion
1070
     0
  0
VISUALSTYLE
  5
B0F4
102
{ACAD_REACTORS
330
B0F1
102
}
330
B0F1
100
AcDbVisualStyle
  2
Gouraud
 70
     2
 71
     2
 72
     2
 73
     1
 90
        2
 40
-0.6
 41
30.0
 62
     5
 63
     7
 74
     0
 91
        4
 64
     7
 65
   257
 75
     1
175
     1
 42
1.0
 92
        0
 66
     7
 43
1.0
 76
     1
 77
     6
 78
     2
 67
     7
 79
     5
170
     0
171
     0
290
     0
174
     0
 93
       13
 44
0.0
173
     0
291
     1
 45
0.0
1001
ACAD
1000
AcDbSavedByObjectVersion
1070
     0
  0
VISUALSTYLE
  5
B0F5
102
{ACAD_REACTORS
330
B0F1
102
}
330
B0F1
100
AcDbVisualStyle
  2
GouraudWithEdges
 70
     3
 71
     2
 72
     2
 73
     1
 90
        2
 40
-0.6
 41
30.0
 62
     5
 63
     7
 74
     1
 91
        4
 64
     7
 65
   257
 75
     1
175
     1
 42
1.0
 92
        0
 66
   257
 43
1.0
 76
     1
 77
     6
 78
     2
 67
     7
 79
     5
170
     0
171
     0
290
     0
174
     0
 93
       13
 44
0.0
173
     0
291
     1
 45
0.0
1001
ACAD
1000
AcDbSavedByObjectVersion
1070
     0
  0
VISUALSTYLE
  5
B0FF
102
{ACAD_REACTORS
330
B0F1
102
}
330
B0F1
100
AcDbVisualStyle
  2
Linepattern
 70
    14
 71
     2
 72
     2
 73
     0
 90
        0
 40
-0.6
 41
-30.0
 62
     5
 63
     7
 74
     1
 91
        4
 64
     7
 65
   257
 75
     7
175
     7
 42
1.0
 92
        8
 66
     7
 43
1.0
 76
     1
 77
     6
 78
     2
 67
     7
 79
     5
170
     0
171
     0
290
     0
174
     0
 93
        1
 44
0.0
173
     0
291
     1
 45
0.0
1001
ACAD
1000
AcDbSavedByObjectVersion
1070
     0
  0
VISUALSTYLE
  5
B0FB
102
{ACAD_REACTORS
330
B0F1
102
}
330
B0F1
100
AcDbVisualStyle
  2
Realistic
 70
     8
 71
     2
 72
     2
 73
     0
 90
        0
 40
-0.6
 41
-30.0
 62
     5
 63
     7
 74
     1
 91
        0
 64
     7
 65
   257
 75
     1
175
     1
 42
1.0
 92
        8
 66
     8
 43
1.0
 76
     1
 77
     6
 78
     2
 67
     7
 79
     5
170
     0
171
     0
290
     0
174
     0
 93
       13
 44
0.0
173
     0
291
     0
 45
0.0
1001
ACAD
1000
AcDbSavedByObjectVersion
1070
     0
  0
VISUALSTYLE
  5
B0FE
102
{ACAD_REACTORS
330
B0F1
102
}
330
B0F1
100
AcDbVisualStyle
  2
Thicken
 70
    13
 71
     2
 72
     2
 73
     0
 90
        0
 40
-0.6
 41
-30.0
 62
     5
 63
     7
 74
     1
 91
        4
 64
     7
 65
   257
 75
     1
175
     1
 42
1.0
 92
       12
 66
     7
 43
1.0
 76
     1
 77
     6
 78
     2
 67
     7
 79
     5
170
     0
171
     0
290
     0
174
     0
 93
        1
 44
0.0
173
     0
291
     1
 45
0.0
1001
ACAD
1000
AcDbSavedByObjectVersion
1070
     0
  0
DICTIONARYVAR
  5
AAF3
102
{ACAD_REACTORS
330
34
102
}
330
34
100
DictionaryVariables
280
     0
  1
STANDARD
  0
DICTIONARYVAR
  5
A10C
102
{ACAD_REACTORS
330
34
102
}
330
34
100
DictionaryVariables
280
     0
  1
1
  0
DICTIONARYVAR
  5
AB07
102
{ACAD_REACTORS
330
34
102
}
330
34
100
DictionaryVariables
280
     0
  1
4
  0
DICTIONARYVAR
  5
35
102
{ACAD_REACTORS
330
34
102
}
330
34
100
DictionaryVariables
280
     0
  1
0
  0
DICTIONARYVAR
  5
194C
102
{ACAD_REACTORS
330
34
102
}
330
34
100
DictionaryVariables
280
     0
  1
127
  0
DICTIONARY
  5
7E8
102
{ACAD_REACTORS
330
47
102
}
330
47
100
AcDbDictionary
281
     1
  0
DICTIONARY
  5
4C
102
{ACAD_REACTORS
330
47
102
}
330
47
100
AcDbDictionary
281
     1
  0
XRECORD
  5
A929
102
{ACAD_REACTORS
330
47
102
}
330
47
100
AcDbXrecord
280
     1
 90
-1023410169
  0
XRECORD
  5
57913
102
{ACAD_REACTORS
330
57912
102
}
330
57912
100
AcDbXrecord
280
     1
330
0
330
0
330
0
330
0
330
0
330
0
330
0
330
0
330
0
330
0
330
0
330
0
330
0
330
0
330
0
330
0
330
0
330
0
330
0
330
0
330
0
330
0
330
0
330
0
330
0
330
0
330
0
330
0
330
0
330
0
330
0
330
0
330
0
330
0
330
0
330
0
330
0
330
0
330
0
330
0
330
0
330
0
330
0
330
0
330
0
330
0
330
0
330
0
330
0
330
0
330
0
330
0
330
0
330
0
330
0
330
0
330
0
330
0
330
0
330
0
330
0
330
0
330
0
330
0
330
0
330
0
330
0
330
0
330
0
330
0
330
0
330
0
330
0
330
0
330
0
330
0
330
0
330
0
330
0
330
0
330
0
330
0
330
0
330
0
330
0
330
0
330
0
330
0
330
0
330
0
330
0
330
0
330
0
330
0
330
0
330
0
330
0
330
0
330
0
330
0
330
0
330
0
330
0
330
0
330
0
330
0
330
0
330
0
330
0
330
0
330
0
330
0
330
0
330
0
330
0
330
0
330
0
330
0
330
0
330
0
330
0
330
0
330
0
330
0
330
0
330
0
330
0
330
0
330
0
330
0
330
0
330
0
330
0
330
0
330
0
330
0
330
0
330
0
330
0
330
0
330
0
330
0
330
0
330
0
330
0
330
0
330
0
330
0
330
0
330
0
330
0
330
0
330
0
330
0
330
0
330
0
330
0
330
0
330
0
330
0
330
0
330
0
330
0
330
0
330
0
330
0
330
0
330
0
330
0
330
0
330
0
330
0
330
0
330
0
330
0
330
0
330
0
330
0
330
0
330
0
330
0
330
0
330
0
330
0
330
0
330
0
330
0
330
0
330
0
330
0
330
0
330
0
330
0
330
0
330
0
330
0
330
0
330
0
330
0
330
0
330
0
330
0
330
0
330
0
330
0
330
0
330
0
330
0
330
0
330
0
330
0
330
0
330
0
330
0
330
0
330
0
330
0
330
0
330
0
330
0
330
0
330
0
330
0
330
0
330
0
330
0
330
0
330
0
330
0
330
0
330
0
330
0
330
0
330
0
330
0
330
0
330
0
330
0
330
0
330
0
330
0
330
0
330
0
330
0
330
0
330
0
330
0
330
0
330
0
330
0
330
0
330
0
330
0
330
0
330
0
330
0
330
0
330
0
330
0
330
0
330
0
330
0
330
0
330
0
330
0
330
0
330
0
330
0
330
0
330
0
330
0
330
0
330
0
330
0
330
0
330
0
330
0
330
0
330
0
330
0
330
0
330
0
330
0
330
0
330
0
330
0
330
0
330
0
330
0
330
0
330
0
330
0
330
0
330
0
330
0
330
0
330
0
330
0
330
0
330
0
330
0
330
0
330
0
330
0
330
0
330
0
330
0
330
0
330
0
330
0
330
0
330
0
330
0
330
0
330
0
330
0
330
0
330
0
330
0
330
0
330
0
330
0
330
0
330
0
330
0
330
0
330
0
330
0
330
0
330
0
330
0
330
0
330
0
330
0
330
0
330
0
330
0
330
0
330
0
330
0
330
0
330
0
330
0
330
0
330
0
330
0
330
0
330
0
330
0
330
0
330
0
330
0
330
0
330
0
330
0
330
0
330
0
330
0
330
0
330
0
330
0
330
0
330
0
330
0
330
0
330
0
330
0
330
0
330
0
330
0
330
0
330
0
330
0
330
0
330
0
330
0
330
0
330
0
330
0
330
0
330
0
330
0
330
0
330
0
330
0
330
0
330
0
330
0
330
0
330
0
330
0
330
0
330
0
330
0
330
0
330
0
330
0
330
0
330
0
330
0
330
0
330
0
330
0
330
0
330
0
330
0
330
0
330
0
330
0
330
0
330
0
330
0
330
0
330
0
330
0
330
0
330
0
330
0
330
0
330
0
330
0
330
0
330
0
330
0
330
0
330
0
330
0
330
0
330
0
330
0
330
0
330
0
330
0
330
0
330
0
330
0
330
0
330
0
330
0
330
0
330
0
330
0
330
0
330
0
330
0
330
0
330
0
330
0
330
0
330
0
330
0
330
0
330
0
330
0
330
0
330
0
330
0
330
0
330
0
330
0
330
0
330
0
330
0
330
0
330
0
330
0
330
0
330
0
330
0
330
0
330
0
330
0
330
0
330
0
330
0
330
0
330
0
330
0
330
0
330
0
330
0
330
0
330
0
330
0
330
0
330
0
330
0
330
0
330
0
330
0
330
0
330
0
330
0
330
0
330
0
330
0
330
0
330
0
330
0
330
0
330
0
330
0
330
0
330
0
330
0
330
0
330
0
330
0
330
0
330
0
330
0
330
0
330
0
330
0
330
0
330
0
330
0
330
0
330
0
330
0
330
0
330
0
330
0
330
0
330
0
330
0
330
0
330
0
330
0
330
0
330
0
330
0
330
0
330
0
330
0
330
0
330
0
330
0
330
0
330
0
330
0
330
0
330
0
330
0
330
0
330
0
330
0
330
0
330
0
330
0
330
0
330
0
330
0
330
0
330
0
330
0
330
0
330
0
330
0
330
0
330
0
330
0
330
0
330
0
330
0
330
0
330
0
330
0
330
0
330
0
330
0
330
0
330
0
330
0
330
0
330
0
330
0
330
0
330
0
330
0
330
0
330
0
330
0
330
0
330
0
330
0
330
0
330
0
330
0
330
0
330
0
330
0
330
0
330
0
330
0
330
0
330
0
330
0
330
0
330
0
330
0
330
0
330
0
330
0
330
0
330
0
330
0
330
0
330
0
330
0
330
0
330
0
330
0
330
0
330
0
330
0
330
0
330
0
330
0
330
0
330
0
330
0
330
0
330
0
330
0
330
0
330
0
330
0
330
0
330
0
330
0
330
0
330
0
330
0
330
0
330
0
330
0
330
0
330
0
330
0
330
0
330
0
330
0
330
0
330
0
330
0
330
0
330
0
330
0
330
0
330
0
330
0
330
0
330
0
330
0
330
0
330
0
330
0
330
0
330
0
330
0
330
0
330
0
330
0
330
0
330
0
330
0
330
0
330
0
330
0
330
0
330
0
330
0
330
0
330
0
330
0
330
0
330
0
330
0
330
0
330
0
330
0
330
0
330
0
330
0
330
0
330
0
330
0
330
0
330
0
330
0
330
0
330
0
330
0
330
0
330
0
330
0
330
0
330
0
330
0
330
0
330
0
330
0
330
0
330
0
330
0
330
0
330
0
330
0
330
0
330
0
330
0
330
0
330
0
330
0
330
0
330
0
330
0
330
0
330
0
330
0
330
0
330
0
330
0
330
0
330
0
330
0
330
0
330
0
330
0
330
0
330
0
330
0
330
0
330
0
330
0
330
0
330
0
330
0
330
0
330
0
330
0
330
0
330
0
330
0
330
0
330
0
330
0
330
0
330
0
330
0
330
0
330
0
330
0
330
0
330
0
330
0
330
0
330
0
330
0
330
0
330
0
330
0
330
0
330
0
330
0
330
0
330
0
330
0
330
0
330
0
330
0
330
0
330
0
330
0
330
0
330
0
330
0
330
0
330
0
330
0
330
0
330
0
330
0
330
0
330
0
330
0
330
0
330
0
330
0
330
0
330
0
330
0
330
0
330
0
330
0
330
0
330
0
330
0
330
0
330
0
330
0
330
0
330
0
330
0
330
0
330
0
330
0
330
0
330
0
330
0
330
0
330
0
330
0
330
0
330
0
330
0
330
0
330
0
330
0
330
0
330
0
330
0
330
0
330
0
330
0
330
0
330
0
330
0
330
0
330
0
330
0
330
0
330
0
330
0
330
0
330
0
330
0
330
0
330
0
330
0
330
0
330
0
330
0
330
0
330
0
330
0
330
0
330
0
330
0
330
0
330
0
330
0
330
0
330
0
330
0
330
0
330
0
330
0
330
0
330
0
330
0
330
0
330
0
330
0
330
0
330
0
330
0
330
0
330
0
330
0
330
0
330
0
330
0
330
0
330
0
330
0
330
0
330
0
330
0
330
0
330
0
330
0
330
0
330
0
330
0
330
0
330
0
330
0
330
0
330
0
330
0
330
0
330
0
330
0
330
0
330
0
330
0
330
0
330
0
330
0
330
0
330
0
330
0
330
0
330
0
330
0
330
0
330
0
330
0
330
0
330
0
330
0
330
0
330
0
330
0
330
0
330
0
330
0
330
0
330
0
330
0
330
0
330
0
330
0
330
0
330
0
330
0
330
0
330
0
330
0
330
0
330
0
330
0
330
0
330
0
330
0
330
0
330
0
330
0
330
0
330
0
330
0
330
0
330
0
330
0
330
0
330
0
330
0
330
0
330
0
330
0
330
0
330
0
330
0
330
0
330
0
330
0
330
0
330
0
330
0
330
0
330
0
330
0
330
0
330
0
330
0
330
0
330
0
330
0
330
0
330
0
330
0
330
0
330
0
330
0
330
0
330
0
330
0
330
0
330
0
330
0
330
0
330
0
330
0
330
0
330
0
330
0
330
0
330
0
330
0
330
0
330
0
330
0
330
0
330
0
330
0
330
0
330
0
330
0
330
0
330
0
330
0
330
0
330
0
330
0
330
0
330
0
330
0
330
0
330
0
330
0
330
0
330
0
330
0
330
0
330
0
330
0
330
0
330
0
330
0
330
0
330
0
330
0
330
0
330
0
330
0
330
0
330
0
330
0
330
0
330
0
330
0
330
0
330
0
330
0
330
0
330
0
330
0
330
0
330
0
330
0
330
0
330
0
330
0
330
0
330
0
330
0
330
0
330
0
330
0
330
0
330
0
330
0
330
0
330
0
330
0
330
0
330
0
330
0
330
0
330
0
330
0
330
0
330
0
330
0
330
0
330
0
330
0
330
0
330
0
330
0
330
0
330
0
330
0
330
0
330
0
330
0
330
0
330
0
330
0
330
0
330
0
330
0
330
0
330
0
330
0
330
0
330
0
330
0
330
0
330
0
330
0
330
0
330
0
330
0
330
0
330
0
330
0
330
0
330
0
330
0
330
0
330
0
330
0
330
0
330
0
330
0
330
0
330
0
330
0
330
0
330
0
330
0
330
0
330
0
330
0
330
0
330
0
330
0
330
0
330
0
330
0
330
0
330
0
330
0
330
0
330
0
330
0
330
0
330
0
330
0
330
0
330
0
330
0
330
0
330
0
330
0
330
0
330
0
330
0
330
0
330
0
330
0
330
0
330
0
330
0
330
0
330
0
330
0
330
0
330
0
330
0
330
0
330
0
330
0
330
0
330
0
330
0
330
0
330
0
330
0
330
0
330
0
330
0
330
0
330
0
330
0
330
0
330
0
330
0
330
0
330
0
330
0
330
0
330
0
330
0
330
0
330
0
330
0
330
0
330
0
330
0
330
0
330
0
330
0
330
0
330
0
330
0
330
0
330
0
330
0
330
0
330
0
330
0
330
0
330
0
330
0
330
0
330
0
330
0
330
0
330
0
330
0
330
0
330
0
330
0
330
0
330
0
330
0
330
0
330
0
330
0
330
0
330
0
330
0
330
0
330
0
330
0
330
0
330
0
330
0
330
0
330
0
330
0
330
0
330
0
330
0
330
0
330
0
330
0
330
0
330
0
330
0
330
0
330
0
330
0
330
0
330
0
330
0
330
0
330
0
330
0
330
0
330
0
330
0
330
0
330
0
330
0
330
0
330
0
330
0
330
0
330
0
330
0
330
0
330
0
330
0
330
0
330
0
330
0
330
0
330
0
330
0
330
0
330
0
330
0
330
0
330
0
330
0
330
0
330
0
330
0
330
0
330
0
330
0
330
0
330
0
330
0
330
0
330
0
330
0
330
0
330
0
330
0
330
0
330
0
330
0
330
0
330
0
330
0
330
0
330
0
330
0
330
0
330
0
330
0
330
0
330
0
330
0
330
0
330
0
330
0
330
0
330
0
330
0
330
0
330
0
330
0
330
0
330
0
330
0
330
0
330
0
330
0
330
0
330
0
330
0
330
0
330
0
330
0
330
0
330
0
330
0
330
0
330
0
330
0
330
0
330
0
330
0
330
0
330
0
330
0
330
0
330
0
330
0
330
0
330
0
330
0
330
0
330
0
330
0
330
0
330
0
330
0
330
0
330
0
330
0
330
0
330
0
330
0
330
0
330
0
330
0
330
0
330
0
330
0
330
0
330
0
330
0
330
0
330
0
330
0
330
0
330
0
330
0
330
0
330
0
330
0
330
0
330
0
330
0
330
0
330
0
330
0
330
0
330
0
330
0
330
0
330
0
330
0
330
0
330
0
330
0
330
0
330
0
330
0
330
0
330
0
330
0
330
0
330
0
330
0
330
0
330
0
330
0
330
0
330
0
330
0
330
0
330
0
330
0
330
0
330
0
330
0
330
0
330
0
330
0
330
0
330
0
330
0
330
0
330
0
330
0
330
0
330
0
330
0
330
0
330
0
330
0
330
0
330
0
330
0
330
0
330
0
330
0
330
0
330
0
330
0
330
0
330
0
330
0
330
0
330
0
330
0
330
0
330
0
330
0
330
0
330
0
330
0
330
0
330
0
330
0
330
0
330
0
330
0
330
0
330
0
330
0
330
0
330
0
330
0
330
0
330
0
330
0
330
0
330
0
330
0
330
0
330
0
330
0
330
0
330
0
330
0
330
0
330
0
330
0
330
0
330
0
330
0
330
0
330
0
330
0
330
0
330
0
330
0
330
0
330
0
330
0
330
0
330
0
330
0
330
0
330
0
330
0
330
0
330
0
330
0
330
0
330
0
330
0
330
0
330
0
330
0
330
0
330
0
330
0
330
0
330
0
330
0
330
0
330
0
330
0
330
0
330
0
330
0
330
0
330
0
330
0
330
0
330
0
330
0
330
0
330
0
330
0
330
0
330
0
330
0
330
0
330
0
330
0
330
0
330
0
330
0
330
0
330
0
330
0
330
0
330
0
330
0
330
0
330
0
330
0
330
0
330
0
330
0
330
0
330
0
330
0
330
0
330
0
330
0
330
0
330
0
330
0
330
0
330
0
330
0
330
0
330
0
330
0
330
0
330
0
330
0
330
0
330
0
330
0
330
0
330
0
330
0
330
0
330
0
330
0
330
0
330
0
330
0
330
0
330
0
330
0
330
0
330
0
330
0
330
0
330
0
330
0
330
0
330
0
330
0
330
0
330
0
330
0
330
0
330
0
330
0
330
0
330
0
330
0
330
0
330
0
330
0
330
0
330
0
330
0
330
0
330
0
330
0
330
0
330
0
330
0
330
0
330
0
330
0
330
0
330
0
330
0
330
0
330
0
330
0
330
0
330
0
330
0
330
0
330
0
330
0
330
0
330
0
330
0
330
0
330
0
330
0
330
0
330
0
330
0
330
0
330
0
330
0
330
0
330
0
330
0
330
0
330
0
330
0
330
0
330
0
330
0
330
0
330
0
330
0
330
0
330
0
330
0
330
0
330
0
330
0
330
0
330
0
330
0
330
0
330
0
330
0
330
0
330
0
330
0
330
560FF
330
56100
330
0
330
0
330
563D4
330
563D5
330
0
330
0
330
0
330
0
330
0
330
0
330
56142
330
56143
330
0
330
0
330
56155
330
56156
330
0
330
0
330
563C0
330
563C1
330
563B7
330
563B8
330
5620D
330
5620E
330
56236
330
56237
330
0
330
0
330
0
330
0
330
0
330
0
330
0
330
0
330
0
330
0
330
0
330
0
330
0
330
0
330
0
330
0
330
0
330
0
330
0
330
0
330
0
330
0
330
0
330
0
330
0
330
0
330
0
330
0
330
0
330
0
330
0
330
0
330
0
330
0
330
0
330
0
330
0
330
0
330
0
330
0
330
0
330
0
330
0
330
0
330
0
330
0
330
0
330
0
330
0
330
0
330
0
330
0
330
0
330
0
330
0
330
0
330
0
330
0
330
0
330
0
330
0
330
0
330
0
330
0
330
0
330
0
330
0
330
0
330
0
330
0
330
0
330
0
330
0
330
0
330
0
330
0
330
0
330
0
330
0
330
0
330
0
330
0
330
0
330
0
330
0
330
0
330
0
330
0
330
0
330
0
330
0
330
0
330
0
330
0
330
0
330
0
330
0
330
0
330
0
330
0
330
0
330
0
330
0
330
0
330
0
330
0
330
0
330
0
330
0
330
0
330
0
330
0
330
0
330
0
330
0
330
0
330
0
330
0
330
0
330
0
330
0
330
0
330
0
330
0
330
0
330
0
330
0
330
0
330
0
330
0
330
0
330
0
330
0
330
0
330
0
330
0
330
0
330
0
330
0
330
0
330
0
330
0
330
0
330
0
330
0
330
0
330
0
330
0
330
0
330
0
330
0
330
0
330
0
330
0
330
0
330
0
330
0
330
0
330
0
330
0
330
0
330
0
330
0
330
0
330
0
330
0
330
0
330
0
330
0
330
0
330
0
330
0
330
0
330
0
330
0
330
0
330
0
330
0
330
0
330
0
330
0
330
0
330
0
330
0
330
0
330
0
330
0
330
0
330
0
330
0
330
0
330
0
330
0
330
0
330
0
330
0
330
0
330
0
330
0
330
0
330
0
330
0
330
0
330
0
330
0
330
0
330
0
330
0
330
0
330
0
330
0
330
0
330
0
330
0
  0
XRECORD
  5
3FB7
102
{ACAD_REACTORS
330
3F96
102
}
330
3F96
100
AcDbXrecord
280
     1
 91
        3
330
0
 90
        8
 62
     7
370
    40
331
16
  1
Color_7
330
0
 90
        0
 62
    14
370
    -3
331
16
  1
Color_14
330
0
 90
        8
 62
     7
370
    20
331
16
  1
Color_7
330
6D1
 90
        0
 62
     7
370
    -3
331
16
  1
Color_7
330
0
 90
        8
 62
     7
370
    50
331
16
  1
Color_7
330
0
 90
        8
 62
     2
370
    35
331
16
  1
Color_2
330
0
 90
        8
 62
     7
370
    -3
331
16
  1
Color_7
330
10
 90
        8
 62
     7
370
    -3
331
16
  1
Color_7
  0
DICTIONARY
  5
5B735
330
22
100
AcDbDictionary
280
     1
281
     1
  3
ACAD_XREC_ROUNDTRIP
360
5B736
  0
DICTIONARY
  5
5B733
330
1E
100
AcDbDictionary
280
     1
281
     1
  3
ACAD_XREC_ROUNDTRIP
360
5B734
  0
DICTIONARY
  5
5B737
330
26
100
AcDbDictionary
280
     1
281
     1
  3
ACAD_XREC_ROUNDTRIP
360
5B738
  0
DICTIONARY
  5
5B73D
330
B0EF
100
AcDbDictionary
280
     1
281
     1
  3
ACAD_XREC_ROUNDTRIP
360
5B73E
  0
DICTIONARY
  5
5B73B
330
B0EE
100
AcDbDictionary
280
     1
281
     1
  3
ACAD_XREC_ROUNDTRIP
360
5B73C
  0
DICTIONARY
  5
5B73F
330
B0F0
100
AcDbDictionary
280
     1
281
     1
  3
ACAD_XREC_ROUNDTRIP
360
5B740
  0
DICTIONARY
  5
5B739
330
AABA
100
AcDbDictionary
280
     1
281
     1
  3
ACAD_XREC_ROUNDTRIP
360
5B73A
  0
XRECORD
  5
5B736
102
{ACAD_REACTORS
330
5B735
102
}
330
5B735
100
AcDbXrecord
280
     1
102
SHADEPLOT
 70
     0
102
SHADEPLOTRESLEVEL
 70
     2
102
SHADEPLOTCUSTOMDPI
 70
   200
  0
XRECORD
  5
5B734
102
{ACAD_REACTORS
330
5B733
102
}
330
5B733
100
AcDbXrecord
280
     1
102
SHADEPLOT
 70
     0
102
SHADEPLOTRESLEVEL
 70
     2
102
SHADEPLOTCUSTOMDPI
 70
   300
  0
XRECORD
  5
5B738
102
{ACAD_REACTORS
330
5B737
102
}
330
5B737
100
AcDbXrecord
280
     1
102
SHADEPLOT
 70
     0
102
SHADEPLOTRESLEVEL
 70
     2
102
SHADEPLOTCUSTOMDPI
 70
   300
  0
XRECORD
  5
5B73E
102
{ACAD_REACTORS
330
5B73D
102
}
330
5B73D
100
AcDbXrecord
280
     1
102
MATERIAL
148
0.0
149
0.0
149
0.0
 93
        0
 94
       63
282
     0
 72
     1
 77
     1
171
     1
175
     1
179
     1
273
     0
  0
XRECORD
  5
5B73C
102
{ACAD_REACTORS
330
5B73B
102
}
330
5B73B
100
AcDbXrecord
280
     1
102
MATERIAL
148
0.0
149
0.0
149
0.0
 93
        0
 94
       63
282
     0
 72
     1
 77
     1
171
     1
175
     1
179
     1
273
     0
  0
XRECORD
  5
5B740
102
{ACAD_REACTORS
330
5B73F
102
}
330
5B73F
100
AcDbXrecord
280
     1
102
MATERIAL
148
0.0
149
0.0
149
0.0
 93
        0
 94
       63
282
     0
 72
     1
 77
     1
171
     1
175
     1
179
     1
273
     0
  0
XRECORD
  5
5B73A
102
{ACAD_REACTORS
330
5B739
102
}
330
5B739
100
AcDbXrecord
280
     1
102
ACAD_ROUNDTRIP_PRE2007_TABLESTYLE
 90
        4
 91
        0
  1

 92
        4
 93
        0
  2

 94
        4
 95
        0
  3

  0
ENDSEC
  0
EOF
