  0
SECTION
  2
HEADER
  9
$ACADVER
  1
AC1015
  9
$ACADMAINTVER
 70
    20
  9
$DWGCODEPAGE
  3
ANSI_932
  9
$INSBASE
 10
0.0
 20
0.0
 30
0.0
  9
$EXTMIN
 10
6074.805168243305
 20
-2460.93200938977
 30
-0.0015258207003583
  9
$EXTMAX
 10
6372.095200736827
 20
-2249.518795681375
 30
0.0000000349246037
  9
$LIMMIN
 10
3779.599158088851
 20
100.7134268036752
  9
$LIMMAX
 10
9719.599158088852
 20
4300.713426803675
  9
$ORTHOMODE
 70
     0
  9
$REGENMODE
 70
     1
  9
$FILLMODE
 70
     1
  9
$QTEXTMODE
 70
     0
  9
$MIRRTEXT
 70
     0
  9
$LTSCALE
 40
1.0
  9
$ATTMODE
 70
     1
  9
$TEXTSIZE
 40
3.2
  9
$TRACEWID
 40
1.0
  9
$TEXTSTYLE
  7
STANDARD
  9
$CLAYER
  8
0部品18
  9
$CELTYPE
  6
ByLayer
  9
$CECOLOR
 62
   256
  9
$CELTSCALE
 40
1.0
  9
$DISPSILH
 70
     0
  9
$DIMSCALE
 40
1.0
  9
$DIMASZ
 40
1.0
  9
$DIMEXO
 40
1.0
  9
$DIMDLI
 40
10.0
  9
$DIMRND
 40
0.0
  9
$DIMDLE
 40
0.0
  9
$DIMEXE
 40
1.0
  9
$DIMTP
 40
0.1
  9
$DIMTM
 40
0.1
  9
$DIMTXT
 40
3.5
  9
$DIMCEN
 40
0.0
  9
$DIMTSZ
 40
0.0
  9
$DIMTOL
 70
     0
  9
$DIMLIM
 70
     0
  9
$DIMTIH
 70
     0
  9
$DIMTOH
 70
     0
  9
$DIMSE1
 70
     0
  9
$DIMSE2
 70
     0
  9
$DIMTAD
 70
     1
  9
$DIMZIN
 70
     8
  9
$DIMBLK
  1

  9
$DIMASO
 70
     1
  9
$DIMSHO
 70
     1
  9
$DIMPOST
  1

  9
$DIMAPOST
  1
"
  9
$DIMALT
 70
     0
  9
$DIMALTD
 70
     2
  9
$DIMALTF
 40
0.0393701
  9
$DIMLFAC
 40
1.0
  9
$DIMTOFL
 70
     1
  9
$DIMTVP
 40
0.0
  9
$DIMTIX
 70
     0
  9
$DIMSOXD
 70
     0
  9
$DIMSAH
 70
     0
  9
$DIMBLK1
  1

  9
$DIMBLK2
  1

  9
$DIMSTYLE
  2
SYS
  9
$DIMCLRD
 70
   256
  9
$DIMCLRE
 70
   256
  9
$DIMCLRT
 70
     7
  9
$DIMTFAC
 40
0.71
  9
$DIMGAP
 40
1.5
  9
$DIMJUST
 70
     0
  9
$DIMSD1
 70
     0
  9
$DIMSD2
 70
     0
  9
$DIMTOLJ
 70
     0
  9
$DIMTZIN
 70
     8
  9
$DIMALTZ
 70
     0
  9
$DIMALTTZ
 70
     0
  9
$DIMUPT
 70
     0
  9
$DIMDEC
 70
     2
  9
$DIMTDEC
 70
     2
  9
$DIMALTU
 70
     2
  9
$DIMALTTD
 70
     2
  9
$DIMTXSTY
  7
STANDARD
  9
$DIMAUNIT
 70
     0
  9
$DIMADEC
 70
     0
  9
$DIMALTRND
 40
0.0
  9
$DIMAZIN
 70
     2
  9
$DIMDSEP
 70
    46
  9
$DIMATFIT
 70
     3
  9
$DIMFRAC
 70
     0
  9
$DIMLDRBLK
  1

  9
$DIMLUNIT
 70
     2
  9
$DIMLWD
 70
    -1
  9
$DIMLWE
 70
    -1
  9
$DIMTMOVE
 70
     0
  9
$LUNITS
 70
     2
  9
$LUPREC
 70
     2
  9
$SKETCHINC
 40
1.0
  9
$FILLETRAD
 40
1.5
  9
$AUNITS
 70
     0
  9
$AUPREC
 70
     0
  9
$MENU
  1
.
  9
$ELEVATION
 40
0.0
  9
$PELEVATION
 40
0.0
  9
$THICKNESS
 40
0.0
  9
$LIMCHECK
 70
     0
  9
$CHAMFERA
 40
0.0
  9
$CHAMFERB
 40
0.0
  9
$CHAMFERC
 40
20.0
  9
$CHAMFERD
 40
0.0
  9
$SKPOLY
 70
     0
  9
$TDCREATE
 40
2455567.680725081
  9
$TDUCREATE
 40
2455567.305725081
  9
$TDUPDATE
 40
2456267.735503831
  9
$TDUUPDATE
 40
2456267.360503831
  9
$TDINDWG
 40
7.8212098148
  9
$TDUSRTIMER
 40
7.8212081829
  9
$USRTIMER
 70
     1
  9
$ANGBASE
 50
0.0
  9
$ANGDIR
 70
     0
  9
$PDMODE
 70
     0
  9
$PDSIZE
 40
-3.0
  9
$PLINEWID
 40
0.0
  9
$SPLFRAME
 70
     0
  9
$SPLINETYPE
 70
     6
  9
$SPLINESEGS
 70
     8
  9
$HANDSEED
  5
5B2FF
  9
$SURFTAB1
 70
     6
  9
$SURFTAB2
 70
     6
  9
$SURFTYPE
 70
     6
  9
$SURFU
 70
     6
  9
$SURFV
 70
     6
  9
$UCSBASE
  2

  9
$UCSNAME
  2

  9
$UCSORG
 10
0.0
 20
0.0
 30
0.0
  9
$UCSXDIR
 10
1.0
 20
0.0
 30
0.0
  9
$UCSYDIR
 10
0.0
 20
1.0
 30
0.0
  9
$UCSORTHOREF
  2

  9
$UCSORTHOVIEW
 70
     0
  9
$UCSORGTOP
 10
0.0
 20
0.0
 30
0.0
  9
$UCSORGBOTTOM
 10
0.0
 20
0.0
 30
0.0
  9
$UCSORGLEFT
 10
0.0
 20
0.0
 30
0.0
  9
$UCSORGRIGHT
 10
0.0
 20
0.0
 30
0.0
  9
$UCSORGFRONT
 10
0.0
 20
0.0
 30
0.0
  9
$UCSORGBACK
 10
0.0
 20
0.0
 30
0.0
  9
$PUCSBASE
  2

  9
$PUCSNAME
  2

  9
$PUCSORG
 10
0.0
 20
0.0
 30
0.0
  9
$PUCSXDIR
 10
1.0
 20
0.0
 30
0.0
  9
$PUCSYDIR
 10
0.0
 20
1.0
 30
0.0
  9
$PUCSORTHOREF
  2

  9
$PUCSORTHOVIEW
 70
     0
  9
$PUCSORGTOP
 10
0.0
 20
0.0
 30
0.0
  9
$PUCSORGBOTTOM
 10
0.0
 20
0.0
 30
0.0
  9
$PUCSORGLEFT
 10
0.0
 20
0.0
 30
0.0
  9
$PUCSORGRIGHT
 10
0.0
 20
0.0
 30
0.0
  9
$PUCSORGFRONT
 10
0.0
 20
0.0
 30
0.0
  9
$PUCSORGBACK
 10
0.0
 20
0.0
 30
0.0
  9
$USERI1
 70
     0
  9
$USERI2
 70
     0
  9
$USERI3
 70
     0
  9
$USERI4
 70
     0
  9
$USERI5
 70
     0
  9
$USERR1
 40
0.0
  9
$USERR2
 40
0.0
  9
$USERR3
 40
0.0
  9
$USERR4
 40
0.0
  9
$USERR5
 40
0.0
  9
$WORLDVIEW
 70
     1
  9
$SHADEDGE
 70
     3
  9
$SHADEDIF
 70
    70
  9
$TILEMODE
 70
     1
  9
$MAXACTVP
 70
    64
  9
$PINSBASE
 10
0.0
 20
0.0
 30
0.0
  9
$PLIMCHECK
 70
     0
  9
$PEXTMIN
 10
1.000000000000000E+20
 20
1.000000000000000E+20
 30
1.000000000000000E+20
  9
$PEXTMAX
 10
-1.000000000000000E+20
 20
-1.000000000000000E+20
 30
-1.000000000000000E+20
  9
$PLIMMIN
 10
-3.17498779296875
 20
-3.174999952316284
  9
$PLIMMAX
 10
293.4970092773438
 20
206.692492723465
  9
$UNITMODE
 70
     0
  9
$VISRETAIN
 70
     1
  9
$PLINEGEN
 70
     0
  9
$PSLTSCALE
 70
     1
  9
$TREEDEPTH
 70
  3020
  9
$CMLSTYLE
  2
Standard
  9
$CMLJUST
 70
     0
  9
$CMLSCALE
 40
20.0
  9
$PROXYGRAPHICS
 70
     1
  9
$MEASUREMENT
 70
     1
  9
$CELWEIGHT
370
    -1
  9
$ENDCAPS
280
     0
  9
$JOINSTYLE
280
     0
  9
$LWDISPLAY
290
     1
  9
$INSUNITS
 70
     4
  9
$HYPERLINKBASE
  1

  9
$STYLESHEET
  1
monochrome.ctb
  9
$XEDIT
290
     1
  9
$CEPSNTYPE
380
     0
  9
$PSTYLEMODE
290
     1
  9
$FINGERPRINTGUID
  2
{487E49EE-344A-43F6-800E-CE119D8346FF}
  9
$VERSIONGUID
  2
{1D8E57C2-A9D2-4D55-B6E3-2A2F787726E5}
  9
$EXTNAMES
290
     1
  9
$PSVPSCALE
 40
0.0
  9
$OLESTARTUP
290
     0
  0
ENDSEC
  0
SECTION
  2
CLASSES
  0
CLASS
  1
ACDBDICTIONARYWDFLT
  2
AcDbDictionaryWithDefault
  3
ObjectDBX Classes
 90
        0
280
     0
281
     0
  0
CLASS
  1
ACDBPLACEHOLDER
  2
AcDbPlaceHolder
  3
ObjectDBX Classes
 90
        0
280
     0
281
     0
  0
CLASS
  1
LAYOUT
  2
AcDbLayout
  3
ObjectDBX Classes
 90
        0
280
     0
281
     0
  0
CLASS
  1
AMGSETTINGSOBJ
  2
AmgSettingsObj
  3
"AcadM|Product Description: AutoCAD Mechanical|Company: Autodesk"
 90
        0
280
     0
281
     0
  0
CLASS
  1
ACME_DOCUMENT
  2
AcMeDbDoc
  3
AcMeServices
 90
        0
280
     0
281
     0
  0
CLASS
  1
ACMESCOPE
  2
AcMeScope
  3
AcMeServices
 90
        0
280
     0
281
     0
  0
CLASS
  1
ACMECOMMANDHISTORY
  2
AcMeCommandHistory
  3
AcMeServices
 90
        0
280
     0
281
     0
  0
CLASS
  1
DICTIONARYVAR
  2
AcDbDictionaryVar
  3
ObjectDBX Classes
 90
        0
280
     0
281
     0
  0
CLASS
  1
ACIMSYSVARMAN
  2
AcImSysVarManager
  3
AcMeServices
 90
        0
280
     0
281
     0
  0
CLASS
  1
ACIMREALSYSVAR
  2
AcImRealSysVar
  3
AcMeServices
 90
        0
280
     0
281
     0
  0
CLASS
  1
ACIMINTSYSVAR
  2
AcImIntSysVar
  3
AcMeServices
 90
        0
280
     0
281
     0
  0
CLASS
  1
ACMEDRAWINGMAN
  2
AcMeDrawingMan
  3
AcMeServices
 90
        0
280
     0
281
     0
  0
CLASS
  1
ACMEVIEW
  2
AcMeView
  3
AcMeServices
 90
        0
280
     0
281
     0
  0
CLASS
  1
ACDBENTITYCACHE
  2
AcMeEntityCache
  3
AcMeServices
 90
        0
280
     0
281
     0
  0
CLASS
  1
GSMANAGER
  2
AcMeGSManager
  3
AcMeServices
 90
        0
280
     0
281
     0
  0
CLASS
  1
AMDTINTERNALREACTOR
  2
AmdtInternalReactor
  3
AcMeServices
 90
        0
280
     0
281
     0
  0
CLASS
  1
ACMESTATEMGR
  2
AcMeStateMgr
  3
AcMeServices
 90
        0
280
     0
281
     0
  0
CLASS
  1
ACGREFMASTER
  2
AcGrefMaster
  3
AcAttribServices
 90
        0
280
     0
281
     0
  0
CLASS
  1
ACME_DATABASE
  2
AcMeDbDatabase
  3
AcMeServices
 90
        0
280
     0
281
     0
  0
CLASS
  1
ACRFINSADJUSTERMGR
  2
AcRfInsAdjusterMgr
  3
AcMeServices
 90
        0
280
     0
281
     0
  0
CLASS
  1
ACGREFACADMASTER
  2
AcGrefacadMaster
  3
AcGrefServices
 90
        0
280
     0
281
     0
  0
CLASS
  1
AMIMASTER
  2
AmiMaster
  3
AmiServices
 90
        0
280
     0
281
     0
  0
CLASS
  1
ACMDATADICTIONARY
  2
AcmDataDictionary
  3
"AcmSymBB|Product Description: AutoCAD Mechanical|Company: Autodesk"
 90
        0
280
     0
281
     0
  0
CLASS
  1
ACMDATAENTRYBLOCK
  2
AcmDataEntryBlock
  3
"AcmSymBB|Product Description: AutoCAD Mechanical|Company: Autodesk"
 90
        0
280
     0
281
     0
  0
CLASS
  1
ACIMSTRSYSVAR
  2
AcImStrSysVar
  3
AcMeServices
 90
        0
280
     0
281
     0
  0
CLASS
  1
ACMSTANDARDISO
  2
AcmStandardISO
  3
"Amdt_StdImp|Product Description: AutoCAD Mechanical|Company: Autodesk"
 90
        0
280
     0
281
     0
  0
CLASS
  1
AMGOBJPROPCFG
  2
AmgObjPropCfg
  3
"AmgLay|Product Description: AutoCAD Mechanical|Company: Autodesk"
 90
        1
280
     0
281
     0
  0
CLASS
  1
AMDTEDGESTANDARDISO
  2
AmdtEdgeStdISO
  3
"Amdt_StdImp|Product Description: AutoCAD Mechanical|Company: Autodesk"
 90
        0
280
     0
281
     0
  0
CLASS
  1
ACMSURFSTANDARDISO
  2
AcmSurfTextStdISO
  3
"Amdt_StdImp|Product Description: AutoCAD Mechanical|Company: Autodesk"
 90
        0
280
     0
281
     0
  0
CLASS
  1
ACMFCFSTANDARDISO
  2
AcmFCFStdISO
  3
"Amdt_StdImp|Product Description: AutoCAD Mechanical|Company: Autodesk"
 90
        0
280
     0
281
     0
  0
CLASS
  1
ACMWELDSTANDARDISO
  2
AcmWeldingStdISO
  3
"Amdt_StdImp|Product Description: AutoCAD Mechanical|Company: Autodesk"
 90
        0
280
     0
281
     0
  0
CLASS
  1
ACMIDSTANDARDISO
  2
AcmIdStdISO
  3
"Amdt_StdImp|Product Description: AutoCAD Mechanical|Company: Autodesk"
 90
        0
280
     0
281
     0
  0
CLASS
  1
ACMDATUMSTANDARDISO
  2
AcmDatumStdISO
  3
"Amdt_StdImp|Product Description: AutoCAD Mechanical|Company: Autodesk"
 90
        0
280
     0
281
     0
  0
CLASS
  1
ACMBOMSTANDARDISO
  2
AcmBOMStdISO
  3
"Amdt_StdImp|Product Description: AutoCAD Mechanical|Company: Autodesk"
 90
        0
280
     0
281
     0
  0
CLASS
  1
ACMDETAILSTANDARDISO
  2
AmdtDetailSymStdISO
  3
"Amdt_StdImp|Product Description: AutoCAD Mechanical|Company: Autodesk"
 90
        0
280
     0
281
     0
  0
CLASS
  1
ACMSECTIONSTANDARDISO
  2
AmdtSectionSymStdISO
  3
"Amdt_StdImp|Product Description: AutoCAD Mechanical|Company: Autodesk"
 90
        0
280
     0
281
     0
  0
CLASS
  1
ACMCENTERLINESTANDARDISO
  2
AmdtCenterLineStdISO
  3
"Amdt_StdImp|Product Description: AutoCAD Mechanical|Company: Autodesk"
 90
        0
280
     0
281
     0
  0
CLASS
  1
ACAMGLAYSTD
  2
AcAmgLayStd
  3
"AmgLay|Product Description: AutoCAD Mechanical|Company: Autodesk"
 90
        0
280
     0
281
     0
  0
CLASS
  1
ACAMGDIMSTD
  2
AcAmgDimStd
  3
"AmgDim|Product Description: AutoCAD Mechanical|Company: Autodesk"
 90
        0
280
     0
281
     0
  0
CLASS
  1
ACAMGTITLESTD
  2
AcAmgTitleStd
  3
"AmgTitle|Product Description: AutoCAD Mechanical|Company: Autodesk"
 90
        0
280
     0
281
     0
  0
CLASS
  1
ACAMGFILTERDAT
  2
AcAmgFilterDat
  3
"AcadM|Product Description: AutoCAD Mechanical|Company: Autodesk"
 90
        0
280
     0
281
     0
  0
CLASS
  1
LAYER_INDEX
  2
AcDbLayerIndex
  3
ObjectDBX Classes
 90
    32768
280
     0
281
     0
  0
CLASS
  1
IDBUFFER
  2
AcDbIdBuffer
  3
ObjectDBX Classes
 90
    32768
280
     0
281
     0
  0
CLASS
  1
PLOTSETTINGS
  2
AcDbPlotSettings
  3
ObjectDBX Classes
 90
    32768
280
     0
281
     0
  0
CLASS
  1
AMDTFORMULAUPDATEDISPATCHER
  2
AmdtFormulaUpdateDispatcher
  3
AcMeServices
 90
        0
280
     0
281
     0
  0
CLASS
  1
ACMSTANDARDANSI
  2
AcmStandardANSI
  3
"Amdt_StdImp|Product Description: AutoCAD Mechanical|Company: Autodesk"
 90
        0
280
     0
281
     0
  0
CLASS
  1
ACMSURFSTANDARDANSI
  2
AcmSurfTextStdANSI
  3
"Amdt_StdImp|Product Description: AutoCAD Mechanical|Company: Autodesk"
 90
        0
280
     0
281
     0
  0
CLASS
  1
ACMFCFSTANDARDANSI
  2
AcmFCFStdANSI
  3
"Amdt_StdImp|Product Description: AutoCAD Mechanical|Company: Autodesk"
 90
        0
280
     0
281
     0
  0
CLASS
  1
ACMWELDSTANDARDANSI
  2
AcmWeldingStdANSI
  3
"Amdt_StdImp|Product Description: AutoCAD Mechanical|Company: Autodesk"
 90
        0
280
     0
281
     0
  0
CLASS
  1
ACMIDSTANDARDANSI
  2
AcmIdStdANSI
  3
"Amdt_StdImp|Product Description: AutoCAD Mechanical|Company: Autodesk"
 90
        0
280
     0
281
     0
  0
CLASS
  1
ACMDATUMSTANDARDANSI
  2
AcmDatumStdANSI
  3
"Amdt_StdImp|Product Description: AutoCAD Mechanical|Company: Autodesk"
 90
        0
280
     0
281
     0
  0
CLASS
  1
ACMBOMSTANDARDANSI
  2
AcmBOMStdANSI
  3
"Amdt_StdImp|Product Description: AutoCAD Mechanical|Company: Autodesk"
 90
        0
280
     0
281
     0
  0
CLASS
  1
ACMDETAILSTANDARDANSI
  2
AmdtDetailSymStdANSI
  3
"Amdt_StdImp|Product Description: AutoCAD Mechanical|Company: Autodesk"
 90
        0
280
     0
281
     0
  0
CLASS
  1
ACMSECTIONSTANDARDANSI
  2
AmdtSectionSymStdANSI
  3
"Amdt_StdImp|Product Description: AutoCAD Mechanical|Company: Autodesk"
 90
        0
280
     0
281
     0
  0
CLASS
  1
ACMCENTERLINESTANDARDANSI
  2
AmdtCenterLineStdANSI
  3
"Amdt_StdImp|Product Description: AutoCAD Mechanical|Company: Autodesk"
 90
        0
280
     0
281
     0
  0
CLASS
  1
ACMBOM
  2
AcmBom
  3
"AcmSymBB|Product Description: AutoCAD Mechanical|Company: Autodesk"
 90
        0
280
     0
281
     0
  0
CLASS
  1
ACMDATAENTRYPART
  2
AcmDataEntryPart
  3
"AcmSymBB|Product Description: AutoCAD Mechanical|Company: Autodesk"
 90
    32768
280
     0
281
     0
  0
CLASS
  1
ACMPARTREF
  2
AcmPartRef
  3
"AcmSymBB|Product Description: AutoCAD Mechanical|Company: Autodesk"
 90
    35839
280
     0
281
     1
  0
CLASS
  1
ACDBCIRCARCRES
  2
AcDbCircArcRes
  3
AcGrefServices
 90
    32768
280
     0
281
     0
  0
CLASS
  1
ACMBOMROW
  2
AcmBomRow
  3
"AcmSymBB|Product Description: AutoCAD Mechanical|Company: Autodesk"
 90
    32768
280
     0
281
     0
  0
CLASS
  1
ACMBALLOON
  2
AcmBalloon
  3
"AcmSymBB|Product Description: AutoCAD Mechanical|Company: Autodesk"
 90
    35839
280
     0
281
     1
  0
CLASS
  1
AMDTNOTE
  2
AmdtNote
  3
"AcmSymBB|Product Description: AutoCAD Mechanical|Company: Autodesk"
 90
    35839
280
     0
281
     1
  0
CLASS
  1
STDPART2D
  2
AmgStdPart
  3
"g3vace|Class: AmgStdPart|Product Description: AutoCAD Mechanical|Company: Autodesk"
 90
    35839
280
     0
281
     1
  0
CLASS
  1
ACDBSTDPARTRES_LINE
  2
AcDbStdPartRes_Line
  3
"g3vace|Class: AcDbStdPartRes_Line|Product Description: AutoCAD Mechanical|Company: Autodesk"
 90
    32768
280
     0
281
     0
  0
CLASS
  1
ACMDATAENTRY
  2
AcmDataEntry
  3
"AcmSymBB|Product Description: AutoCAD Mechanical|Company: Autodesk"
 90
        0
280
     0
281
     0
  0
CLASS
  1
ACDBOPPOLYLINERES
  2
AcDbOpPolylineRes
  3
AcGrefServices
 90
    32768
280
     0
281
     0
  0
CLASS
  1
ACMPARTLIST
  2
AcmPartList
  3
"AcmSymBB|Product Description: AutoCAD Mechanical|Company: Autodesk"
 90
    35839
280
     0
281
     1
  0
CLASS
  1
ACDBLINERES
  2
AcDbLineRes
  3
AcGrefServices
 90
        0
280
     0
281
     0
  0
CLASS
  1
ACRFINSADJ
  2
AcRfInsAdjuster
  3
AcMeServices
 90
    32768
280
     0
281
     0
  0
CLASS
  1
AM_DRAWING_MGR
  2
AcDmDwgMgr
  3
AcMechDwgViewMgmt
 90
        0
280
     0
281
     0
  0
CLASS
  1
AM_DWG_DOCUMENT
  2
AcDmDwgDocument
  3
AcMechDwgViewMgmt
 90
        0
280
     0
281
     0
  0
CLASS
  1
AM_DWG_SHEET
  2
AcDmSheet
  3
AcMechDwgViewMgmt
 90
        0
280
     0
281
     0
  0
CLASS
  1
AM_VIEWDIMPARMAP
  2
AcDmViewDimParMap
  3
AcMechDwgViewMgmt
 90
        0
280
     0
281
     0
  0
CLASS
  1
AM_DWGMGR_NAME
  2
AcDmDwgMgrName
  3
AcMechDwgViewMgmt
 90
        0
280
     0
281
     0
  0
CLASS
  1
AMDTMENUSTATEMGR
  2
AmdtMenuStateMgr
  3
McadcomServices
 90
        0
280
     0
281
     0
  0
CLASS
  1
AMDTMCOMMENUSTATE
  2
AmdtMcomMenuState
  3
McadcomServices
 90
        0
280
     0
281
     0
  0
CLASS
  1
ASAPP
  2
AcAsAppObject
  3
AutoSurfServices
 90
        0
280
     0
281
     0
  0
CLASS
  1
IM_STATIC_MAN
  2
AcImStaticVarManager
  3
AcMeServices
 90
        0
280
     0
281
     0
  0
CLASS
  1
ACIMDBLSTATICVAR
  2
AcImDblStaticVar
  3
AcMeServices
 90
        0
280
     0
281
     0
  0
CLASS
  1
ACIMSTRSTATICVAR
  2
AcImStrStaticVar
  3
AcMeServices
 90
        0
280
     0
281
     0
  0
CLASS
  1
ACIMINTSTATICVAR
  2
AcImIntStaticVar
  3
AcMeServices
 90
        0
280
     0
281
     0
  0
CLASS
  1
ACASGREFMASTER
  2
AcAsGrefMaster
  3
AutoSurfResolverServices
 90
        0
280
     0
281
     0
  0
CLASS
  1
ACADGREFMODULE
  2
AcAdGrefModule
  3
AdGrefServices
 90
        0
280
     0
281
     0
  0
CLASS
  1
AMDTMAPISURFMOUDULE
  2
AmdtMApiSurfModule
  3
MApiSurfServices
 90
        0
280
     0
281
     0
  0
CLASS
  1
MAPIAMMOUDLE
  2
MApiAmModule
  3
MApiAmServices
 90
        0
280
     0
281
     0
  0
CLASS
  1
AMDTADMENUSTATE
  2
AmdtAdMenuState
  3
DesignerServices
 90
        0
280
     0
281
     0
  0
CLASS
  1
ADAPPL
  2
AcAdAppl
  3
DesignerServices
 90
        0
280
     0
281
     0
  0
CLASS
  1
DEPMGR
  2
AcAdDepMgr
  3
DesignerServices
 90
        0
280
     0
281
     0
  0
CLASS
  1
PARAMMGR
  2
AcAdParamMgr
  3
DesignerServices
 90
        0
280
     0
281
     0
  0
CLASS
  1
PARAMSCOPE
  2
AcAdParamScope
  3
DesignerServices
 90
        0
280
     0
281
     0
  0
CLASS
  1
NAMEDAPPL
  2
AcAdNamedAppl
  3
DesignerServices
 90
        0
280
     0
281
     0
  0
CLASS
  1
ADHNTMPLT
  2
AdHoleNoteTemplateMgr
  3
DesignerServices
 90
    32768
280
     0
281
     0
  0
CLASS
  1
AM_HNTEMPLATE_MGR_NAME
  2
AdHoleNoteTemplateMgrName
  3
DesignerServices
 90
    32768
280
     0
281
     0
  0
CLASS
  1
AMDTDMMENUSTATE
  2
AmdtDmMenuState
  3
AcMechDwgViewMgmt
 90
        0
280
     0
281
     0
  0
CLASS
  1
MAPIADMODULE
  2
MApiAdModule
  3
MApiAdServices
 90
        0
280
     0
281
     0
  0
CLASS
  1
AMDTAMMENUSTATE
  2
AmdtAmMenuState
  3
DesignerAssemblies
 90
        0
280
     0
281
     0
  0
CLASS
  1
ACAMPROJECT
  2
AcAmProject
  3
DesignerAssemblies
 90
        0
280
     0
281
     0
  0
CLASS
  1
ACAMGRCOMPDEF
  2
AcAmGrCompDef
  3
DesignerAssemblies
 90
        0
280
     0
281
     0
  0
CLASS
  1
ACCMCONTEXT
  2
AcCmContext
  3
DesignerAssemblies
 90
        0
280
     0
281
     0
  0
CLASS
  1
ACAMCOMPDEF
  2
AcAmCompDef
  3
DesignerAssemblies
 90
        0
280
     0
281
     0
  0
CLASS
  1
ACAMCOMPDEFMGR
  2
AcAmCompDefMgr
  3
DesignerAssemblies
 90
        0
280
     0
281
     0
  0
CLASS
  1
AMCONTEXTMGR
  2
AcAmContextMgr
  3
DesignerAssemblies
 90
        0
280
     0
281
     0
  0
CLASS
  1
ACAMCONTEXTMODELER
  2
AcAmContextModeler
  3
DesignerAssemblies
 90
        0
280
     0
281
     0
  0
CLASS
  1
CATALOGSTATE
  2
AcAmCatalogState
  3
DesignerAssemblies
 90
        0
280
     0
281
     0
  0
CLASS
  1
ACAMGRCOMPDEFSET
  2
AcAmGrCompDefSet
  3
DesignerAssemblies
 90
        0
280
     0
281
     0
  0
CLASS
  1
AMDTBROWSERDBTAB
  2
AmdtBrowserDbTab
  3
McadcomServices
 90
        0
280
     0
281
     0
  0
CLASS
  1
CBROWSERAPPOBJECT
  2
CBrowserAppObject
  3
McadcomServices
 90
        0
280
     0
281
     0
  0
CLASS
  1
DM_PLACEHOLDER
  2
AcDmSelsetPlaceholder
  3
AcMechDwgViewMgmt
 90
        0
280
     0
281
     0
  0
CLASS
  1
ACMPICKOBJ
  2
AcmPickEnt
  3
"AcmSymBB|Product Description: AutoCAD Mechanical|Company: Autodesk"
 90
    32768
280
     0
281
     1
  0
CLASS
  1
ACMNOTESTANDARDISO
  2
AmdtNoteStdISO
  3
"Amdt_StdImp|Product Description: AutoCAD Mechanical|Company: Autodesk"
 90
        0
280
     0
281
     0
  0
CLASS
  1
ACMNOTESTANDARDANSI
  2
AmdtNoteStdANSI
  3
"Amdt_StdImp|Product Description: AutoCAD Mechanical|Company: Autodesk"
 90
        0
280
     0
281
     0
  0
CLASS
  1
ACMTHREADLINESTANDARDISO
  2
AmdtThreadLineStdISO
  3
"Amdt_StdImp|Product Description: AutoCAD Mechanical|Company: Autodesk"
 90
        0
280
     0
281
     0
  0
CLASS
  1
ACMTHREADLINESTANDARDANSI
  2
AmdtThreadLineStdANSI
  3
"Amdt_StdImp|Product Description: AutoCAD Mechanical|Company: Autodesk"
 90
        0
280
     0
281
     0
  0
CLASS
  1
TABLESTYLE
  2
AcDbTableStyle
  3
ObjectDBX Classes
 90
     4095
280
     0
281
     0
  0
CLASS
  1
SORTENTSTABLE
  2
AcDbSortentsTable
  3
ObjectDBX Classes
 90
        0
280
     0
281
     0
  0
CLASS
  1
MATERIAL
  2
AcDbMaterial
  3
ObjectDBX Classes
 90
     1024
280
     0
281
     0
  0
CLASS
  1
VISUALSTYLE
  2
AcDbVisualStyle
  3
ObjectDBX Classes
 90
     4095
280
     0
281
     0
  0
CLASS
  1
ACRFATTGENMGR
  2
AcRfAttGeneralMgr
  3
AcAttribServices
 90
        0
280
     0
281
     0
  0
CLASS
  1
ACRFOBJATTMGR
  2
AcRfObjAttGroupMgr
  3
AcAttribServices
 90
        0
280
     0
281
     0
  0
CLASS
  1
ACRFMCADAPIATTHOLDER
  2
AcRfMCADAPIAttHolder
  3
AcAttribServices
 90
        0
280
     0
281
     0
  0
CLASS
  1
AMDTSYSATTR
  2
AmdtSystemAttribute
  3
AcAttribServices
 90
        0
280
     0
281
     0
  0
CLASS
  1
ACMTAPERSTANDARDISO
  2
AcmTaperStdISO
  3
"Amdt_StdImp|Product Description: AutoCAD Mechanical|Company: Autodesk"
 90
        0
280
     0
281
     0
  0
CLASS
  1
CAMSSTRUCTBTNSTATE
  2
StructBtnState
  3
L"DesignerAssemblies"
 90
        0
280
     0
281
     0
  0
CLASS
  1
DIMASSOC
  2
AcDbDimAssoc
  3
"AcDbDimAssoc|Product Desc:     AcDim ARX App For Dimension|Company:          Autodesk, Inc.|WEB Address:      www.autodesk.com"
 90
    32768
280
     0
281
     0
  0
CLASS
  1
EXACXREFPANELOBJECT
  2
ExAcXREFPanelObject
  3
EXAC_ESW
 90
    33793
280
     0
281
     0
  0
CLASS
  1
NPOCOLLECTION
  2
AcDbImpNonPersistentObjectsCollection
  3
ObjectDBX Classes
 90
    33921
280
     0
281
     0
  0
CLASS
  1
AMDTEDGESTANDARDISO13715
  2
AmdtEdgeStdISO13715
  3
"Amdt_StdImp|Product Description: AutoCAD Mechanical|Company: Autodesk"
 90
        0
280
     0
281
     0
  0
CLASS
  1
AMDTNOTETEMPLATEDB
  2
AmdtNoteTemplateDB
  3
AMDT_STDIMP_MODULE_NAME
 90
        0
280
     0
281
     0
  0
CLASS
  1
ACAMGHOLECHARTSTDISO
  2
AcAmgHoleChartStdISO
  3
ACMSYMBB_MODULE_NAME
 90
        0
280
     0
281
     0
  0
CLASS
  1
ACMTAPERSTANDARDANSI
  2
AcmTaperStdANSI
  3
"Amdt_StdImp|Product Description: AutoCAD Mechanical|Company: Autodesk"
 90
        0
280
     0
281
     0
  0
CLASS
  1
ACAMGHOLECHARTSTDANSI
  2
AcAmgHoleChartStdANSI
  3
ACMSYMBB_MODULE_NAME
 90
        0
280
     0
281
     0
  0
CLASS
  1
ACAMSTDPCOMPDEF
  2
AcAmStdpCompDef
  3
DesignerAssemblies
 90
    32768
280
     0
281
     0
  0
CLASS
  1
ACAMCOMP
  2
AcAmComp
  3
DesignerAssemblies
 90
    32768
280
     0
281
     0
  0
CLASS
  1
AC_AM_STDP_VIEW_DEF
  2
AcAmStdpViewDef
  3
DesignerAssemblies
 90
    32768
280
     0
281
     0
  0
CLASS
  1
AC_AM_MVD_DEP_MGR
  2
AcAmMVDdepMgr
  3
DesignerAssemblies
 90
        0
280
     0
281
     0
  0
CLASS
  1
AC_AM_MASTER_VIEW_DEF
  2
AcAmMasterViewDef
  3
DesignerAssemblies
 90
        0
280
     0
281
     0
  0
CLASS
  1
AC_AM_DIRTY_NODES
  2
AcAmDirtyNodes
  3
DesignerAssemblies
 90
        0
280
     0
281
     0
  0
CLASS
  1
AC_AM_MAPPER_CACHE
  2
AcAmMapperCache
  3
DesignerAssemblies
 90
        0
280
     0
281
     0
  0
CLASS
  1
ACAMMVDBACKUPOBJECT
  2
AcAmMVDBackupObject
  3
DesignerAssemblies
 90
        0
280
     0
281
     0
  0
CLASS
  1
AC_AM_COMP_VIEW_INST
  2
AcAmCompView
  3
DesignerAssemblies
 90
    32768
280
     0
281
     0
  0
CLASS
  1
AC_AM_2D_XREF_MGR
  2
AcAmXrefMgr2d
  3
DesignerAssemblies
 90
        0
280
     0
281
     0
  0
CLASS
  1
AC_AM_HIDE_SITUATION
  2
AcAmHideSituation
  3
DesignerAssemblies
 90
    32768
280
     0
281
     0
  0
CLASS
  1
AC_AM_TRANSFORM_GHOST
  2
AcDbTransformGhost
  3
DesignerAssemblies
 90
    32768
280
     0
281
     1
  0
CLASS
  1
L"OBJCLONER"
  2
ObjCloner
  3
DesignerAssemblies
 90
    32768
280
     0
281
     1
  0
ENDSEC
  0
SECTION
  2
TABLES
  0
TABLE
  2
VPORT
  5
8
330
0
100
AcDbSymbolTable
 70
     1
  0
VPORT
  5
B0EC
330
8
100
AcDbSymbolTableRecord
100
AcDbViewportTableRecord
  2
*Active
 70
     0
 10
0.0
 20
0.0
 11
1.0
 21
1.0
 12
6223.450184490066
 22
-2355.225402535572
 13
0.0
 23
0.0
 14
2.5
 24
2.5
 15
10.0
 25
10.0
 16
0.0
 26
0.0
 36
1.0
 17
0.0
 27
0.0
 37
0.0
 40
212.9696300056339
 41
1.648648648648648
 42
50.0
 43
-1370.695619172058
 44
-1370.695619172058
 50
0.0
 51
0.0
 71
     0
 72
   100
 73
     1
 74
     3
 75
     0
 76
     0
 77
     0
 78
     0
281
     0
 65
     0
110
0.0
120
0.0
130
0.0
111
1.0
121
0.0
131
0.0
112
0.0
122
1.0
132
0.0
 79
     0
146
0.0
  0
ENDTAB
  0
TABLE
  2
LTYPE
  5
5
330
0
100
AcDbSymbolTable
 70
    23
  0
LTYPE
  5
14
330
5
100
AcDbSymbolTableRecord
100
AcDbLinetypeTableRecord
  2
ByBlock
 70
     0
  3

 72
    65
 73
     0
 40
0.0
  0
LTYPE
  5
15
330
5
100
AcDbSymbolTableRecord
100
AcDbLinetypeTableRecord
  2
ByLayer
 70
     0
  3

 72
    65
 73
     0
 40
0.0
  0
LTYPE
  5
16
330
5
100
AcDbSymbolTableRecord
100
AcDbLinetypeTableRecord
  2
Continuous
 70
     0
  3
Solid line
 72
    65
 73
     0
 40
0.0
  0
LTYPE
  5
4F
330
5
100
AcDbSymbolTableRecord
100
AcDbLinetypeTableRecord
  2
AM_ISO02W050
 70
     0
  3
__ __ __ __ __ __ __ __ __ __ __ __ __ __ __
 72
    65
 73
     2
 40
7.5
 49
6.0
 74
     0
 49
-1.5
 74
     0
  0
LTYPE
  5
52
330
5
100
AcDbSymbolTableRecord
100
AcDbLinetypeTableRecord
  2
Amconstr
 70
     0
  3
_______________________
 72
    65
 73
     2
 40
9999.0
 49
9999.0
 74
     0
 49
0.0
 74
     0
  0
LTYPE
  5
64
330
5
100
AcDbSymbolTableRecord
100
AcDbLinetypeTableRecord
  2
ACISOWELD
 70
     0
  3
_ _ _ _ _
 72
    65
 73
     2
 40
2.0
 49
2.0
 74
     0
 49
-1.0
 74
     0
  0
LTYPE
  5
65
330
5
100
AcDbSymbolTableRecord
100
AcDbLinetypeTableRecord
  2
ACISOTGB
 70
     0
  3
__ . . __ . .
 72
    65
 73
     6
 40
9.0
 49
4.0
 74
     0
 49
-1.0
 74
     0
 49
1.0
 74
     0
 49
-1.0
 74
     0
 49
1.0
 74
     0
 49
-1.0
 74
     0
  0
LTYPE
  5
66
330
5
100
AcDbSymbolTableRecord
100
AcDbLinetypeTableRecord
  2
ACISOTGL
 70
     0
  3
_ _ _ _ _
 72
    65
 73
     2
 40
3.0
 49
2.0
 74
     0
 49
-1.0
 74
     0
  0
LTYPE
  5
69
330
5
100
AcDbSymbolTableRecord
100
AcDbLinetypeTableRecord
  2
CENTER
 70
     0
  3
__ . __
 72
    65
 73
     4
 40
7.0
 49
4.0
 74
     0
 49
-1.0
 74
     0
 49
1.0
 74
     0
 49
-1.0
 74
     0
  0
LTYPE
  5
A6E
330
5
100
AcDbSymbolTableRecord
100
AcDbLinetypeTableRecord
  2
PHANTOM2
 70
     0
  3
Phantom (.5x) ___ _ _ ___ _ _ ___ _ _ ___ _ _
 72
    65
 73
     6
 40
31.75
 49
15.875
 74
     0
 49
-3.174999999999999
 74
     0
 49
3.174999999999999
 74
     0
 49
-3.174999999999999
 74
     0
 49
3.174999999999999
 74
     0
 49
-3.174999999999999
 74
     0
  0
LTYPE
  5
4DED
330
5
100
AcDbSymbolTableRecord
100
AcDbLinetypeTableRecord
  2
中線
 70
     0
  3
___________________
 72
    65
 73
     2
 40
2.0
 49
1.0
 74
     0
 49
1.0
 74
     0
  0
LTYPE
  5
4DF6
330
5
100
AcDbSymbolTableRecord
100
AcDbLinetypeTableRecord
  2
細線
 70
     0
  3
___________________
 72
    65
 73
     2
 40
2.0
 49
1.0
 74
     0
 49
1.0
 74
     0
  0
LTYPE
  5
4DF7
330
5
100
AcDbSymbolTableRecord
100
AcDbLinetypeTableRecord
  2
太線
 70
     0
  3
___________________
 72
    65
 73
     2
 40
2.0
 49
1.0
 74
     0
 49
1.0
 74
     0
  0
LTYPE
  5
4EA7
330
5
100
AcDbSymbolTableRecord
100
AcDbLinetypeTableRecord
  2
文字
 70
     0
  3
_________________
 72
    65
 73
     2
 40
2.0
 49
1.0
 74
     0
 49
1.0
 74
     0
  0
LTYPE
  5
4EA9
330
5
100
AcDbSymbolTableRecord
100
AcDbLinetypeTableRecord
  2
寸法線
 70
     0
  3
________________
 72
    65
 73
     2
 40
2.0
 49
1.0
 74
     0
 49
1.0
 74
     0
  0
LTYPE
  5
4F12
330
5
100
AcDbSymbolTableRecord
100
AcDbLinetypeTableRecord
  2
ハッチング
 70
     0
  3
_________________
 72
    65
 73
     2
 40
2.0
 49
1.0
 74
     0
 49
1.0
 74
     0
  0
LTYPE
  5
5180
330
5
100
AcDbSymbolTableRecord
100
AcDbLinetypeTableRecord
  2
陰線1
 70
     0
  3
__ __ __ __
 72
    65
 73
     2
 40
4.0
 49
2.2
 74
     0
 49
-1.8
 74
     0
  0
LTYPE
  5
5182
330
5
100
AcDbSymbolTableRecord
100
AcDbLinetypeTableRecord
  2
切断線
 70
     0
  3
/\/-/\/-/\/-/\/-/\/-/\/
 72
    65
 73
     2
 40
11.0001
 49
0.0001
 74
     4
 75
   135
340
56
 46
0.04
 50
0.0
 44
0.0
 45
0.0
 49
-11.0
 74
     0
  0
LTYPE
  5
5183
330
5
100
AcDbSymbolTableRecord
100
AcDbLinetypeTableRecord
  2
想像線1
 70
     0
  3
__ __ __ _____ __ __ ____
 72
    65
 73
     6
 40
14.5
 49
6.0
 74
     0
 49
-1.5
 74
     0
 49
2.0
 74
     0
 49
-1.5
 74
     0
 49
2.0
 74
     0
 49
-1.5
 74
     0
  0
LTYPE
  5
5185
330
5
100
AcDbSymbolTableRecord
100
AcDbLinetypeTableRecord
  2
中心線1
 70
     0
  3
___ _ ___ _ ___
 72
    65
 73
     4
 40
18.0
 49
12.0
 74
     0
 49
-2.0
 74
     0
 49
2.0
 74
     0
 49
-2.0
 74
     0
  0
LTYPE
  5
5188
330
5
100
AcDbSymbolTableRecord
100
AcDbLinetypeTableRecord
  2
補助線
 70
     0
  3
______________
 72
    65
 73
     2
 40
2.0
 49
1.0
 74
     0
 49
1.0
 74
     0
  0
LTYPE
  5
6427
330
5
100
AcDbSymbolTableRecord
100
AcDbLinetypeTableRecord
  2
HIDDEN
 70
     0
  3
Hidden __ __ __ __ __ __ __ __ __ __ __ __ __ _
 72
    65
 73
     2
 40
0.375
 49
0.25
 74
     0
 49
-0.125
 74
     0
  0
LTYPE
  5
AF95
330
5
100
AcDbSymbolTableRecord
100
AcDbLinetypeTableRecord
  2
AM_ISO08W050
 70
     0
  3
____ . ____ . ____ . ____ . ____ . ____ . ____
 72
    65
 73
     4
 40
18.0
 49
12.0
 74
     0
 49
-1.5
 74
     0
 49
3.0
 74
     0
 49
-1.5
 74
     0
  0
LTYPE
  5
FD15
330
5
100
AcDbSymbolTableRecord
100
AcDbLinetypeTableRecord
  2
ACANSTGB
 70
     0
  3
__ . . __ . .
 72
    65
 73
     6
 40
0.35433070866
 49
0.15748031496
 74
     0
 49
-0.03937007874
 74
     0
 49
0.03937007874
 74
     0
 49
-0.03937007874
 74
     0
 49
0.03937007874
 74
     0
 49
-0.03937007874
 74
     0
  0
LTYPE
  5
FD16
330
5
100
AcDbSymbolTableRecord
100
AcDbLinetypeTableRecord
  2
ACANSTGL
 70
     0
  3
_ _ _ _ _
 72
    65
 73
     2
 40
0.11811023622
 49
0.07874015748
 74
     0
 49
-0.03937007874
 74
     0
  0
ENDTAB
  0
TABLE
  2
LAYER
  5
2
102
{ACAD_XDICTIONARY
360
3F95
102
}
330
0
100
AcDbSymbolTable
 70
    14
  0
LAYER
  5
10
330
2
100
AcDbSymbolTableRecord
100
AcDbLayerTableRecord
  2
0
 70
     0
 62
     7
  6
Continuous
370
    -3
390
F
  0
LAYER
  5
6D1
330
2
100
AcDbSymbolTableRecord
100
AcDbLayerTableRecord
  2
Defpoints
 70
     0
 62
     7
  6
Continuous
290
     0
370
    -3
390
F
  0
LAYER
  5
AC9F
330
2
100
AcDbSymbolTableRecord
100
AcDbLayerTableRecord
  2
size
 70
     0
 62
     5
  6
Continuous
290
     0
370
    25
390
F
  0
LAYER
  5
ACA0
330
2
100
AcDbSymbolTableRecord
100
AcDbLayerTableRecord
  2
waku
 70
     0
 62
     7
  6
Continuous
370
    35
390
F
  0
LAYER
  5
ACA1
330
2
100
AcDbSymbolTableRecord
100
AcDbLayerTableRecord
  2
AM_6
 70
     0
 62
     2
  6
文字
370
    15
390
F
1001
AcAecLayerStandard
1000

1000

  0
LAYER
  5
AD64
330
2
100
AcDbSymbolTableRecord
100
AcDbLayerTableRecord
  2
AM_2
 70
     0
 62
     1
  6
細線
370
    15
390
F
1001
AcAecLayerStandard
1000

1000

  0
LAYER
  5
AD68
330
2
100
AcDbSymbolTableRecord
100
AcDbLayerTableRecord
  2
AM_5
 70
     0
 62
     3
  6
寸法線
370
    15
390
F
1001
AcAecLayerStandard
1000

1000

  0
LAYER
  5
B5F5
330
2
100
AcDbSymbolTableRecord
100
AcDbLayerTableRecord
  2
0部品6
 70
     0
 62
    13
  6
細線
370
    30
390
F
1001
AcAecLayerStandard
1000

1000

  0
LAYER
  5
B5F7
330
2
100
AcDbSymbolTableRecord
100
AcDbLayerTableRecord
  2
0部品4
 70
     0
 62
    70
  6
細線
370
    30
390
F
1001
AcAecLayerStandard
1000

1000

  0
LAYER
  5
B5FB
330
2
100
AcDbSymbolTableRecord
100
AcDbLayerTableRecord
  2
0部品18
 70
     0
 62
   254
  6
細線
370
    30
390
F
1001
AcAecLayerStandard
1000

1000

  0
LAYER
  5
B5FC
330
2
100
AcDbSymbolTableRecord
100
AcDbLayerTableRecord
  2
0部品1
 70
     0
 62
   213
  6
細線
370
    30
390
F
1001
AcAecLayerStandard
1000

1000

  0
LAYER
  5
B5FD
330
2
100
AcDbSymbolTableRecord
100
AcDbLayerTableRecord
  2
0部品2
 70
     0
 62
   163
  6
細線
370
    30
390
F
1001
AcAecLayerStandard
1000

1000

  0
LAYER
  5
B5FE
330
2
100
AcDbSymbolTableRecord
100
AcDbLayerTableRecord
  2
0部品3
 70
     0
 62
   122
  6
細線
370
    30
390
F
1001
AcAecLayerStandard
1000

1000

  0
LAYER
  5
2E415
102
{ACAD_XDICTIONARY
360
2E416
102
}
330
2
100
AcDbSymbolTableRecord
100
AcDbLayerTableRecord
  2
AM_1
 70
     0
 62
    30
  6
太線
370
    25
390
F
1001
AcAecLayerStandard
1000

1000

  0
ENDTAB
  0
TABLE
  2
STYLE
  5
3
330
0
100
AcDbSymbolTable
 70
     7
  0
STYLE
  5
11
330
3
100
AcDbSymbolTableRecord
100
AcDbTextStyleTableRecord
  2
STANDARD
 70
     0
 40
0.0
 41
0.7
 50
0.0
 71
     0
 42
3.2
  3
romans.shx
  4
extfont.shx
  0
STYLE
  5
56
330
3
100
AcDbSymbolTableRecord
100
AcDbTextStyleTableRecord
  2

 70
     1
 40
0.0
 41
1.0
 50
0.0
 71
     0
 42
2.5
  3
ltypeshp.shx
  4

  0
STYLE
  5
58
330
3
100
AcDbSymbolTableRecord
100
AcDbTextStyleTableRecord
  2
ACISOTS
 70
     0
 40
1.0
 41
1.0
 50
0.0
 71
     0
 42
2.5
  3
isocp.shx
  4
extfont.shx
  0
STYLE
  5
63
330
3
100
AcDbSymbolTableRecord
100
AcDbTextStyleTableRecord
  2
ACISOGDT
 70
     0
 40
0.0
 41
1.0
 50
0.0
 71
     0
 42
2.5
  3
amgdt.shx
  4

  0
STYLE
  5
A74
330
3
100
AcDbSymbolTableRecord
100
AcDbTextStyleTableRecord
  2
DIM
 70
     0
 40
0.0
 41
1.0
 50
0.0
 71
     0
 42
2.5
  3
monotxt.shx
  4
extfont.shx
  0
STYLE
  5
FD18
330
3
100
AcDbSymbolTableRecord
100
AcDbTextStyleTableRecord
  2
ACANSTS
 70
     0
 40
1.0
 41
1.0
 50
0.0
 71
     0
 42
0.2
  3
romans.shx
  4
extfont.shx
  0
STYLE
  5
FD19
330
3
100
AcDbSymbolTableRecord
100
AcDbTextStyleTableRecord
  2
ACANSGDT
 70
     0
 40
0.0
 41
1.0
 50
0.0
 71
     0
 42
0.2
  3
amgdt.shx
  4

  0
ENDTAB
  0
TABLE
  2
VIEW
  5
6
330
0
100
AcDbSymbolTable
 70
     6
  0
VIEW
  5
AE1
330
6
100
AcDbSymbolTableRecord
100
AcDbViewTableRecord
  2
AM_VIEW1
 70
     0
 40
2203.896457765668
 10
5264.599158088851
 20
3198.765197920841
 41
2970.0
 11
0.0
 21
0.0
 31
1.0
 12
0.0
 22
0.0
 32
0.0
 42
50.0
 43
-1370.695619172058
 44
-1370.695619172058
 50
0.0
 71
     0
281
     0
 72
     0
  0
VIEW
  5
AE2
330
6
100
AcDbSymbolTableRecord
100
AcDbViewTableRecord
  2
AM_VIEW2
 70
     0
 40
2203.896457765668
 10
8234.599158088851
 20
3198.765197920841
 41
2970.0
 11
0.0
 21
0.0
 31
1.0
 12
0.0
 22
0.0
 32
0.0
 42
50.0
 43
-1370.695619172058
 44
-1370.695619172058
 50
0.0
 71
     0
281
     0
 72
     0
  0
VIEW
  5
AE3
330
6
100
AcDbSymbolTableRecord
100
AcDbViewTableRecord
  2
AM_VIEW3
 70
     0
 40
2203.896457765668
 10
5264.599158088851
 20
1202.661655686509
 41
2970.0
 11
0.0
 21
0.0
 31
1.0
 12
0.0
 22
0.0
 32
0.0
 42
50.0
 43
-1370.695619172058
 44
-1370.695619172058
 50
0.0
 71
     0
281
     0
 72
     0
  0
VIEW
  5
AE4
330
6
100
AcDbSymbolTableRecord
100
AcDbViewTableRecord
  2
AM_VIEW4
 70
     0
 40
2203.896457765668
 10
8234.599158088851
 20
1202.661655686509
 41
2970.0
 11
0.0
 21
0.0
 31
1.0
 12
0.0
 22
0.0
 32
0.0
 42
50.0
 43
-1370.695619172058
 44
-1370.695619172058
 50
0.0
 71
     0
281
     0
 72
     0
  0
VIEW
  5
AE5
330
6
100
AcDbSymbolTableRecord
100
AcDbViewTableRecord
  2
AM_VIEW5
 70
     0
 40
2203.896457765668
 10
6749.599158088852
 20
2200.713426803675
 41
2970.0
 11
0.0
 21
0.0
 31
1.0
 12
0.0
 22
0.0
 32
0.0
 42
50.0
 43
-1370.695619172058
 44
-1370.695619172058
 50
0.0
 71
     0
281
     0
 72
     0
  0
VIEW
  5
AE6
330
6
100
AcDbSymbolTableRecord
100
AcDbViewTableRecord
  2
AM_VIEW6
 70
     0
 40
4407.748837602181
 10
6749.599158088852
 20
2200.713426803675
 41
5939.9406
 11
0.0
 21
0.0
 31
1.0
 12
0.0
 22
0.0
 32
0.0
 42
50.0
 43
-1370.695619172058
 44
-1370.695619172058
 50
0.0
 71
     0
281
     0
 72
     0
  0
ENDTAB
  0
TABLE
  2
UCS
  5
7
330
0
100
AcDbSymbolTable
 70
     0
  0
ENDTAB
  0
TABLE
  2
APPID
  5
9
330
0
100
AcDbSymbolTable
 70
    67
  0
APPID
  5
12
330
9
100
AcDbSymbolTableRecord
100
AcDbRegAppTableRecord
  2
ACAD
 70
     0
  0
APPID
  5
30
330
9
100
AcDbSymbolTableRecord
100
AcDbRegAppTableRecord
  2
MCAD_NO_VIS
 70
     0
  0
APPID
  5
31
330
9
100
AcDbSymbolTableRecord
100
AcDbRegAppTableRecord
  2
ACAD_TEMP_GRAPHIC
 70
     0
  0
APPID
  5
44
330
9
100
AcDbSymbolTableRecord
100
AcDbRegAppTableRecord
  2
ACATTRIBSERVICES
 70
     0
  0
APPID
  5
7A1
330
9
100
AcDbSymbolTableRecord
100
AcDbRegAppTableRecord
  2
GENIUS_GENDIMSH_14
 70
     0
  0
APPID
  5
A49
330
9
100
AcDbSymbolTableRecord
100
AcDbRegAppTableRecord
  2
GENIUS_GENREC_14
 70
     0
  0
APPID
  5
A4A
330
9
100
AcDbSymbolTableRecord
100
AcDbRegAppTableRecord
  2
GENIUS_GENOBJ-N-REC_13
 70
     0
  0
APPID
  5
A4B
330
9
100
AcDbSymbolTableRecord
100
AcDbRegAppTableRecord
  2
GENIUS_GENODEF_13
 70
     0
  0
APPID
  5
A4C
330
9
100
AcDbSymbolTableRecord
100
AcDbRegAppTableRecord
  2
DCO15
 70
     0
  0
APPID
  5
ADC
330
9
100
AcDbSymbolTableRecord
100
AcDbRegAppTableRecord
  2
GENIUS_GENOLIS_13
 70
     0
  0
APPID
  5
ADD
330
9
100
AcDbSymbolTableRecord
100
AcDbRegAppTableRecord
  2
GENIUS_GENOENT_13
 70
     0
  0
APPID
  5
ADE
330
9
100
AcDbSymbolTableRecord
100
AcDbRegAppTableRecord
  2
GENIUS_GENOBJ-N-TIT_13
 70
     0
  0
APPID
  5
ADF
330
9
100
AcDbSymbolTableRecord
100
AcDbRegAppTableRecord
  2
GENIUS_GENTITLE_13
 70
     0
  0
APPID
  5
AE0
330
9
100
AcDbSymbolTableRecord
100
AcDbRegAppTableRecord
  2
GENIUS_GENOREF_13
 70
     0
  0
APPID
  5
AE7
330
9
100
AcDbSymbolTableRecord
100
AcDbRegAppTableRecord
  2
GENIUS_GENSCREG_15
 70
     0
  0
APPID
  5
AE8
330
9
100
AcDbSymbolTableRecord
100
AcDbRegAppTableRecord
  2
GENIUS_GENOBJ-N-SDF_13
 70
     0
  0
APPID
  5
FAF
330
9
100
AcDbSymbolTableRecord
100
AcDbRegAppTableRecord
  2
GENIUS_GENBLLY_14
 70
     0
  0
APPID
  5
FB0
330
9
100
AcDbSymbolTableRecord
100
AcDbRegAppTableRecord
  2
GENIUS_GENTRA_14
 70
     0
  0
APPID
  5
1285
330
9
100
AcDbSymbolTableRecord
100
AcDbRegAppTableRecord
  2
GENIUS_GENDTOL_13
 70
     0
  0
APPID
  5
142D
330
9
100
AcDbSymbolTableRecord
100
AcDbRegAppTableRecord
  2
GENIUS_GENOBJ-N-CEN_13
 70
     0
  0
APPID
  5
1AB5
330
9
100
AcDbSymbolTableRecord
100
AcDbRegAppTableRecord
  2
GENIUS_GENOBJ-N-CRS_13
 70
     0
  0
APPID
  5
1B36
330
9
100
AcDbSymbolTableRecord
100
AcDbRegAppTableRecord
  2
GENIUS_GENOBJ-N-HTC_13
 70
     0
  0
APPID
  5
1B37
330
9
100
AcDbSymbolTableRecord
100
AcDbRegAppTableRecord
  2
GENIUS_GENHATCH_13
 70
     0
  0
APPID
  5
216D
330
9
100
AcDbSymbolTableRecord
100
AcDbRegAppTableRecord
  2
GENIUS_GENOBJ-N-FIL_13
 70
     0
  0
APPID
  5
2356
330
9
100
AcDbSymbolTableRecord
100
AcDbRegAppTableRecord
  2
GEVID990412420
 70
     0
  0
APPID
  5
2357
330
9
100
AcDbSymbolTableRecord
100
AcDbRegAppTableRecord
  2
GEVDC
 70
     0
  0
APPID
  5
2358
330
9
100
AcDbSymbolTableRecord
100
AcDbRegAppTableRecord
  2
GEVCON
 70
     0
  0
APPID
  5
235B
330
9
100
AcDbSymbolTableRecord
100
AcDbRegAppTableRecord
  2
GEVRADREF
 70
     0
  0
APPID
  5
2360
330
9
100
AcDbSymbolTableRecord
100
AcDbRegAppTableRecord
  2
GENIUS_GENBH_13
 70
     0
  0
APPID
  5
2362
330
9
100
AcDbSymbolTableRecord
100
AcDbRegAppTableRecord
  2
GENIUS_GENOBJ-NBEHI-BHF_13
 70
     0
  0
APPID
  5
2364
330
9
100
AcDbSymbolTableRecord
100
AcDbRegAppTableRecord
  2
GENIUS_GENOBJ-NBEHI-BHB_13
 70
     0
  0
APPID
  5
2379
330
9
100
AcDbSymbolTableRecord
100
AcDbRegAppTableRecord
  2
GENIUS_GENOBJ-F-SCPASSM_13
 70
     0
  0
APPID
  5
3D74
330
9
100
AcDbSymbolTableRecord
100
AcDbRegAppTableRecord
  2
GENIUS_GENDIM_13
 70
     0
  0
APPID
  5
3D76
330
9
100
AcDbSymbolTableRecord
100
AcDbRegAppTableRecord
  2
GENIUS_GE3DTOL_13
 70
     0
  0
APPID
  5
3D9C
330
9
100
AcDbSymbolTableRecord
100
AcDbRegAppTableRecord
  2
AD_DRAW
 70
     0
  0
APPID
  5
3DE8
330
9
100
AcDbSymbolTableRecord
100
AcDbRegAppTableRecord
  2
ASURF_PCURVE_APPNAME
 70
     0
  0
APPID
  5
3DED
330
9
100
AcDbSymbolTableRecord
100
AcDbRegAppTableRecord
  2
AMG_3D2D_5.0
 70
     0
  0
APPID
  5
3E1B
330
9
100
AcDbSymbolTableRecord
100
AcDbRegAppTableRecord
  2
DESIGNERASSEMBLIES
 70
     0
  0
APPID
  5
3E20
330
9
100
AcDbSymbolTableRecord
100
AcDbRegAppTableRecord
  2
ACADM_DIM_EDIT
 70
     0
  0
APPID
  5
3E21
330
9
100
AcDbSymbolTableRecord
100
AcDbRegAppTableRecord
  2
AMDT_DM_ADJ
 70
     0
  0
APPID
  5
4143
330
9
100
AcDbSymbolTableRecord
100
AcDbRegAppTableRecord
  2
GENIUS_GENFIL_13
 70
     0
  0
APPID
  5
4144
330
9
100
AcDbSymbolTableRecord
100
AcDbRegAppTableRecord
  2
GENIUS_GENOBJ-N-CHA_13
 70
     0
  0
APPID
  5
4E17
330
9
100
AcDbSymbolTableRecord
100
AcDbRegAppTableRecord
  2
GEVID1008153417
 70
     0
  0
APPID
  5
4E58
330
9
100
AcDbSymbolTableRecord
100
AcDbRegAppTableRecord
  2
GEVID1008153418
 70
     0
  0
APPID
  5
4E5E
330
9
100
AcDbSymbolTableRecord
100
AcDbRegAppTableRecord
  2
GEVID1008153419
 70
     0
  0
APPID
  5
4E64
330
9
100
AcDbSymbolTableRecord
100
AcDbRegAppTableRecord
  2
GEVID1008153420
 70
     0
  0
APPID
  5
4E75
330
9
100
AcDbSymbolTableRecord
100
AcDbRegAppTableRecord
  2
GEVID1008153421
 70
     0
  0
APPID
  5
4EB7
330
9
100
AcDbSymbolTableRecord
100
AcDbRegAppTableRecord
  2
GENIUS_AMGTXT_16
 70
     0
  0
APPID
  5
7645
330
9
100
AcDbSymbolTableRecord
100
AcDbRegAppTableRecord
  2
GENIUS_GENOBJ-N-DIM_13
 70
     0
  0
APPID
  5
AAD0
330
9
100
AcDbSymbolTableRecord
100
AcDbRegAppTableRecord
  2
ACAD_DSTYLE_DIMARC_LENGTH_SYMBOL
 70
     0
  0
APPID
  5
AAD1
330
9
100
AcDbSymbolTableRecord
100
AcDbRegAppTableRecord
  2
ACAD_DSTYLE_DIMJOGGED_JOGANGLE_SYMBOL
 70
     0
  0
APPID
  5
AAFD
330
9
100
AcDbSymbolTableRecord
100
AcDbRegAppTableRecord
  2
ACAD_PSEXT
 70
     0
  0
APPID
  5
AD61
330
9
100
AcDbSymbolTableRecord
100
AcDbRegAppTableRecord
  2
AcAecLayerStandard
 70
     0
  0
APPID
  5
AEE3
330
9
100
AcDbSymbolTableRecord
100
AcDbRegAppTableRecord
  2
ACAD_EXEMPT_FROM_CAD_STANDARDS
 70
     0
  0
APPID
  5
B1BE
330
9
100
AcDbSymbolTableRecord
100
AcDbRegAppTableRecord
  2
GENIUS_GENCEN_19
 70
     0
  0
APPID
  5
B4E1
330
9
100
AcDbSymbolTableRecord
100
AcDbRegAppTableRecord
  2
ACAD_MLEADERVER
 70
     0
  0
APPID
  5
C488
330
9
100
AcDbSymbolTableRecord
100
AcDbRegAppTableRecord
  2
ACAD_DSTYLE_DIMINSPECT
 70
     0
  0
APPID
  5
C489
330
9
100
AcDbSymbolTableRecord
100
AcDbRegAppTableRecord
  2
ACAD_DSTYLE_DIMRADIAL_EXTENSION
 70
     0
  0
APPID
  5
1980E
330
9
100
AcDbSymbolTableRecord
100
AcDbRegAppTableRecord
  2
GEVID1311583542
 70
     0
  0
APPID
  5
19825
330
9
100
AcDbSymbolTableRecord
100
AcDbRegAppTableRecord
  2
AMG_2DHIDE
 70
     0
  0
APPID
  5
19826
330
9
100
AcDbSymbolTableRecord
100
AcDbRegAppTableRecord
  2
AMG_2DSTRUCT_BTR
 70
     0
  0
APPID
  5
19837
330
9
100
AcDbSymbolTableRecord
100
AcDbRegAppTableRecord
  2
ACADM_2DVIEW_IGN_NOTIFY
 70
     0
  0
APPID
  5
1B56B
330
9
100
AcDbSymbolTableRecord
100
AcDbRegAppTableRecord
  2
GEVID1311583543
 70
     0
  0
APPID
  5
1B5F6
330
9
100
AcDbSymbolTableRecord
100
AcDbRegAppTableRecord
  2
GEVID1311583544
 70
     0
  0
APPID
  5
1B61B
330
9
100
AcDbSymbolTableRecord
100
AcDbRegAppTableRecord
  2
GEVID1311583545
 70
     0
  0
APPID
  5
1B63D
330
9
100
AcDbSymbolTableRecord
100
AcDbRegAppTableRecord
  2
GEVID1311583546
 70
     0
  0
APPID
  5
1B675
330
9
100
AcDbSymbolTableRecord
100
AcDbRegAppTableRecord
  2
GEVID1311583547
 70
     0
  0
ENDTAB
  0
TABLE
  2
DIMSTYLE
  5
A
330
0
100
AcDbSymbolTable
 70
    25
100
AcDbDimStyleTable
 71
     3
340
2515
340
251A
340
251B
  0
DIMSTYLE
105
A76
330
A
100
AcDbSymbolTableRecord
100
AcDbDimStyleTableRecord
  2
STANDARD
 70
     0
 41
3.0
 42
1.0
 43
7.0
 44
2.0
 73
     0
 74
     0
 77
     1
140
2.799999999999999
141
0.0
143
0.0394
147
0.7
171
     4
172
     1
173
     1
176
     3
177
     3
178
     2
271
     3
272
     3
273
     8
274
     4
289
     0
340
A74
341
A66
343
A66
344
A66
  0
DIMSTYLE
105
2515
330
A
100
AcDbSymbolTableRecord
100
AcDbDimStyleTableRecord
  2
SYS
 70
     0
  4
"
 41
1.0
 42
1.0
 43
10.0
 44
1.0
 47
0.1
 48
0.1
 73
     0
 74
     0
 77
     1
 78
     8
 79
     2
140
3.5
141
0.0
143
0.0393701
146
0.71
147
1.5
172
     1
176
   256
177
   256
178
     7
271
     2
272
     2
283
     0
284
     8
340
11
371
    -1
372
    -1
1001
ACAD_DSTYLE_DIMJOGGED_JOGANGLE_SYMBOL
1070
   384
1040
0.7853981633974483
1001
ACAD_DSTYLE_DIMARC_LENGTH_SYMBOL
1070
   379
1070
     1
  0
DIMSTYLE
105
2516
102
{ACAD_REACTORS
330
53309
330
53388
102
}
330
A
100
AcDbSymbolTableRecord
100
AcDbDimStyleTableRecord
  2
SYS$3
 70
     0
  4
"
 41
2.0
 42
1.0
 43
10.0
 44
1.0
 47
0.1
 48
0.1
 73
     0
 77
     1
 78
     8
 79
     2
140
3.2
141
0.0
143
0.0393701
146
0.71
147
1.0
176
   256
177
   256
178
     2
271
     2
272
     2
283
     0
284
     8
288
     1
340
11
342
A66
371
    -1
372
    -1
1001
ACAD_DSTYLE_DIMJOGGED_JOGANGLE_SYMBOL
1070
   384
1040
0.7853981633974483
1001
ACAD_DSTYLE_DIMARC_LENGTH_SYMBOL
1070
   379
1070
     1
  0
DIMSTYLE
105
2517
330
A
100
AcDbSymbolTableRecord
100
AcDbDimStyleTableRecord
  2
SYS$4
 70
     0
  4
"
 41
2.0
 42
1.0
 43
10.0
 44
1.0
 47
0.1
 48
0.1
 73
     0
 77
     1
 78
     8
 79
     2
140
3.2
141
0.0
143
0.0393701
146
0.71
147
1.0
173
     1
176
   256
177
   256
178
     2
271
     2
272
     2
283
     0
284
     8
288
     1
340
11
344
A66
371
    -1
372
    -1
1001
ACAD_DSTYLE_DIMJOGGED_JOGANGLE_SYMBOL
1070
   384
1040
0.7853981633974483
1001
ACAD_DSTYLE_DIMARC_LENGTH_SYMBOL
1070
   379
1070
     1
  0
DIMSTYLE
105
2518
330
A
100
AcDbSymbolTableRecord
100
AcDbDimStyleTableRecord
  2
SYS$6
 70
     0
  4
"
 41
2.0
 42
1.0
 43
10.0
 44
1.0
 47
0.1
 48
0.1
 73
     0
 74
     0
 78
     8
 79
     2
140
3.2
141
0.0
143
0.0393701
146
0.71
147
1.0
172
     1
176
   256
177
   256
178
     2
271
     2
272
     2
283
     0
284
     8
340
11
341
A66
371
    -1
372
    -1
1001
ACAD_DSTYLE_DIMJOGGED_JOGANGLE_SYMBOL
1070
   384
1040
0.7853981633974483
1001
ACAD_DSTYLE_DIMARC_LENGTH_SYMBOL
1070
   379
1070
     1
  0
DIMSTYLE
105
2519
330
A
100
AcDbSymbolTableRecord
100
AcDbDimStyleTableRecord
  2
SYS$7
 70
     0
  4
"
 41
2.0
 42
1.0
 43
10.0
 44
1.0
 47
0.1
 48
0.1
 73
     0
 74
     0
 77
     1
 78
     8
 79
     2
140
3.2
141
0.0
143
0.0393701
146
0.71
147
1.0
172
     1
176
   256
177
   256
178
     2
271
     2
272
     2
283
     0
284
     8
340
11
341
A66
342
A66
371
    -1
372
    -1
1001
ACAD_DSTYLE_DIMJOGGED_JOGANGLE_SYMBOL
1070
   384
1040
0.7853981633974483
1001
ACAD_DSTYLE_DIMARC_LENGTH_SYMBOL
1070
   379
1070
     1
  0
DIMSTYLE
105
251A
330
A
100
AcDbSymbolTableRecord
100
AcDbDimStyleTableRecord
  2
SYS$SF
 70
     0
  4
"
 41
2.5
 42
1.0
 43
10.0
 44
1.0
 47
0.1
 48
0.1
 73
     0
 74
     0
 75
     1
 76
     1
 77
     1
 78
     8
 79
     2
140
3.2
141
0.0
143
0.0393701
146
0.71
147
1.0
172
     1
176
   256
177
   256
178
     2
271
     2
272
     2
283
     0
284
     8
340
11
341
6C4
342
6C4
371
    -1
372
    -1
1001
ACAD_DSTYLE_DIMJOGGED_JOGANGLE_SYMBOL
1070
   384
1040
0.7853981633974483
1001
ACAD_DSTYLE_DIMARC_LENGTH_SYMBOL
1070
   379
1070
     1
  0
DIMSTYLE
105
251B
330
A
100
AcDbSymbolTableRecord
100
AcDbDimStyleTableRecord
  2
SYS$SH
 70
     0
  4
"
 41
2.5
 42
1.0
 43
10.0
 44
1.0
 47
0.1
 48
0.1
 73
     0
 74
     0
 75
     1
 76
     1
 77
     1
 78
     8
 79
     2
140
3.2
141
0.0
143
0.0393701
144
2.0
146
0.71
147
1.0
172
     1
173
     1
176
   256
177
   256
178
     2
271
     2
272
     2
283
     0
284
     8
340
11
341
6C4
343
72
344
6C4
371
    -1
372
    -1
1001
ACAD_DSTYLE_DIMJOGGED_JOGANGLE_SYMBOL
1070
   384
1040
0.7853981633974483
1001
ACAD_DSTYLE_DIMARC_LENGTH_SYMBOL
1070
   379
1070
     1
  0
DIMSTYLE
105
2A59
330
A
100
AcDbSymbolTableRecord
100
AcDbDimStyleTableRecord
  2
SYS$2
 70
     0
  4
"
 41
1.0
 42
1.0
 43
10.0
 44
1.0
 47
0.1
 48
0.1
 73
     0
 74
     0
 77
     1
 78
     8
 79
     2
140
3.2
141
0.0
143
0.0393701
146
0.71
147
1.0
172
     1
176
   256
177
   256
178
     2
271
     2
272
     2
283
     0
284
     8
340
11
342
6C4
371
    -1
372
    -1
1001
ACAD_DSTYLE_DIMJOGGED_JOGANGLE_SYMBOL
1070
   384
1040
0.7853981633974483
1001
ACAD_DSTYLE_DIMARC_LENGTH_SYMBOL
1070
   379
1070
     1
  0
DIMSTYLE
105
2AAB
102
{ACAD_REACTORS
330
53126
330
5314E
330
53188
330
5319E
330
531BD
330
531E5
330
531FB
330
53211
330
5324C
330
5327D
330
532B7
330
532CE
330
532F3
330
53325
330
5334C
330
59343
102
}
330
A
100
AcDbSymbolTableRecord
100
AcDbDimStyleTableRecord
  2
SYS$0
 70
     0
  4
"
 41
1.0
 42
1.0
 43
10.0
 44
1.0
 47
0.1
 48
0.1
 73
     0
 74
     0
 77
     1
 78
     8
 79
     2
140
3.200000000000001
141
0.0
143
0.0393701
146
0.71
147
1.0
172
     1
176
   256
177
   256
178
     2
271
     2
272
     2
283
     0
284
     8
340
11
341
A66
342
6C4
371
    -1
372
    -1
1001
ACAD_DSTYLE_DIMJOGGED_JOGANGLE_SYMBOL
1070
   384
1040
0.7853981633974483
1001
ACAD_DSTYLE_DIMARC_LENGTH_SYMBOL
1070
   379
1070
     1
  0
DIMSTYLE
105
AF99
330
A
100
AcDbSymbolTableRecord
100
AcDbDimStyleTableRecord
  2
AM_ISO
 70
     0
  4
"
 41
2.5
 42
1.0
 43
10.0
 44
1.0
 47
0.1
 48
0.1
 73
     0
 74
     0
 77
     1
 78
     8
 79
     2
140
3.5
141
0.0
143
0.0393701
146
0.71
147
1.5
172
     1
176
   256
177
   256
178
     2
271
     2
272
     3
274
     4
283
     0
284
     8
340
11
371
    -1
372
    -1
  0
DIMSTYLE
105
AF9A
330
A
100
AcDbSymbolTableRecord
100
AcDbDimStyleTableRecord
  2
AM_ISO$3
 70
     0
  4
"
 41
2.5
 42
1.0
 43
10.0
 44
1.0
 47
0.1
 48
0.1
 73
     0
 77
     1
 78
     8
 79
     2
140
3.5
141
0.0
143
0.0393701
146
0.71
147
1.5
176
   256
177
   256
178
     2
271
     2
272
     3
274
     4
283
     0
284
     8
288
     1
289
     0
340
11
371
    -1
372
    -1
  0
DIMSTYLE
105
AF9B
330
A
100
AcDbSymbolTableRecord
100
AcDbDimStyleTableRecord
  2
AM_ISO$4
 70
     0
  4
"
 41
2.5
 42
1.0
 43
10.0
 44
1.0
 47
0.1
 48
0.1
 73
     0
 77
     1
 78
     8
 79
     2
140
3.5
141
0.0
143
0.0393701
146
0.71
147
1.5
176
   256
177
   256
178
     2
271
     2
272
     3
274
     4
283
     0
284
     8
288
     1
289
     0
340
11
371
    -1
372
    -1
  0
DIMSTYLE
105
AF9C
330
A
100
AcDbSymbolTableRecord
100
AcDbDimStyleTableRecord
  2
AM_ISO$6
 70
     0
  4
"
 41
2.5
 42
1.0
 43
10.0
 44
1.0
 47
0.1
 48
0.1
 73
     0
 74
     0
 78
     8
 79
     2
140
3.5
141
0.0
143
0.0393701
146
0.71
147
1.5
172
     1
176
   256
177
   256
178
     2
271
     2
272
     3
274
     4
283
     0
284
     8
340
11
371
    -1
372
    -1
  0
DIMSTYLE
105
AF9D
330
A
100
AcDbSymbolTableRecord
100
AcDbDimStyleTableRecord
  2
AM_ISO$7
 70
     0
  4
"
 41
2.5
 42
1.0
 43
10.0
 44
1.0
 47
0.1
 48
0.1
 73
     0
 74
     0
 77
     1
 78
     8
 79
     2
140
5.0
141
0.0
143
0.0393701
146
0.71
147
1.5
172
     1
176
   256
177
   256
178
     2
271
     2
272
     3
274
     4
283
     0
284
     8
340
11
371
    -1
372
    -1
  0
DIMSTYLE
105
AF9E
330
A
100
AcDbSymbolTableRecord
100
AcDbDimStyleTableRecord
  2
AM_ISO$SF
 70
     0
  4
"
 41
2.5
 42
1.0
 43
10.0
 44
1.0
 47
0.1
 48
0.1
 73
     0
 74
     0
 75
     1
 76
     1
 77
     1
 78
     8
 79
     2
140
3.5
141
0.0
143
0.0393701
146
0.71
147
1.5
172
     1
176
   256
177
   256
178
     2
271
     2
272
     3
274
     4
283
     0
284
     8
340
11
371
    -1
372
    -1
  0
DIMSTYLE
105
AF9F
330
A
100
AcDbSymbolTableRecord
100
AcDbDimStyleTableRecord
  2
AM_ISO$SH
 70
     0
  4
"
 41
2.5
 42
1.0
 43
10.0
 44
1.0
 47
0.1
 48
0.1
 73
     0
 74
     0
 75
     1
 76
     1
 77
     1
 78
     8
 79
     2
140
3.5
141
0.0
143
0.0393701
144
2.0
146
0.71
147
1.5
172
     1
173
     1
176
   256
177
   256
178
     2
271
     2
272
     3
274
     4
283
     0
284
     8
340
11
343
72
371
    -1
372
    -1
  0
DIMSTYLE
105
B60C
330
A
100
AcDbSymbolTableRecord
100
AcDbDimStyleTableRecord
  2
AM_ANSI
 70
     0
  4
mm
 41
0.1
 42
0.05
 43
0.5
 44
0.1
 47
0.1
 48
0.1
 78
     7
 79
     2
140
0.12
141
0.0
146
0.71
147
0.06
176
   256
177
   256
178
     2
274
     4
284
     7
340
11
371
    -1
372
    -1
  0
DIMSTYLE
105
C485
330
A
100
AcDbSymbolTableRecord
100
AcDbDimStyleTableRecord
  2
AM_ISO$0
 70
     0
  4
"
 41
0.8
 42
1.0
 43
10.0
 44
1.0
 47
0.1
 48
0.1
 73
     0
 74
     0
 77
     1
 78
     8
 79
     2
140
3.2
141
0.0
143
0.0393701
146
0.71
147
0.9999999999999996
172
     1
176
   256
177
   256
178
     2
271
     2
272
     2
283
     0
284
     8
340
11
341
6C4
342
6C4
371
    -1
372
    -1
1001
ACAD_DSTYLE_DIMJOGGED_JOGANGLE_SYMBOL
1070
   384
1040
0.7853981633974483
1001
ACAD_DSTYLE_DIMARC_LENGTH_SYMBOL
1070
   379
1070
     1
  0
DIMSTYLE
105
C486
330
A
100
AcDbSymbolTableRecord
100
AcDbDimStyleTableRecord
  2
AM_ISO$2
 70
     0
  4
"
 41
0.8
 42
1.0
 43
10.0
 44
1.0
 47
0.1
 48
0.1
 73
     0
 74
     0
 77
     3
 78
     8
 79
     2
140
3.200000000000001
141
0.0
143
0.0393701
146
0.71
147
0.9999999999999996
172
     1
176
   256
177
   256
178
     2
271
     2
272
     2
283
     0
284
     8
340
11
342
6C4
371
    -1
372
    -1
1001
ACAD_DSTYLE_DIMJOGGED_JOGANGLE_SYMBOL
1070
   384
1040
0.7853981633974483
1001
ACAD_DSTYLE_DIMARC_LENGTH_SYMBOL
1070
   379
1070
     1
  0
DIMSTYLE
105
FD1A
330
A
100
AcDbSymbolTableRecord
100
AcDbDimStyleTableRecord
  2
AM_ANSI$3
 70
     0
  4
mm
 41
0.1
 42
0.05
 43
0.5
 44
0.1
 47
0.1
 48
0.1
 78
     7
 79
     2
140
0.12
141
0.0
146
0.71
147
0.06
176
   256
177
   256
178
     2
274
     4
284
     7
288
     1
289
     0
340
11
371
    -1
372
    -1
1001
ACAD_DSTYLE_DIMARC_LENGTH_SYMBOL
1070
   379
1070
     1
  0
DIMSTYLE
105
FD1B
330
A
100
AcDbSymbolTableRecord
100
AcDbDimStyleTableRecord
  2
AM_ANSI$4
 70
     0
  4
mm
 41
0.1
 42
0.05
 43
0.5
 44
0.1
 47
0.1
 48
0.1
 78
     7
 79
     2
140
0.12
141
0.0
146
0.71
147
0.06
176
   256
177
   256
178
     2
274
     4
284
     7
288
     1
289
     0
340
11
371
    -1
372
    -1
1001
ACAD_DSTYLE_DIMARC_LENGTH_SYMBOL
1070
   379
1070
     1
  0
DIMSTYLE
105
FD1C
330
A
100
AcDbSymbolTableRecord
100
AcDbDimStyleTableRecord
  2
AM_ANSI$7
 70
     0
  4
mm
 41
0.1
 42
0.05
 43
0.5
 44
0.1
 47
0.1
 48
0.1
 78
     7
 79
     2
140
0.24
141
0.0
146
0.71
147
0.06
176
   256
177
   256
178
     2
274
     4
284
     7
340
11
371
    -1
372
    -1
1001
ACAD_DSTYLE_DIMARC_LENGTH_SYMBOL
1070
   379
1070
     1
  0
DIMSTYLE
105
FD1D
330
A
100
AcDbSymbolTableRecord
100
AcDbDimStyleTableRecord
  2
AM_ANSI$SF
 70
     0
  4
mm
 41
0.1
 42
0.05
 43
0.5
 44
0.1
 47
0.1
 48
0.1
 75
     1
 76
     1
 78
     7
 79
     2
140
0.12
141
0.0
146
0.71
147
0.06
176
   256
177
   256
178
     2
274
     4
284
     7
340
11
371
    -1
372
    -1
1001
ACAD_DSTYLE_DIMARC_LENGTH_SYMBOL
1070
   379
1070
     1
  0
DIMSTYLE
105
FD1E
330
A
100
AcDbSymbolTableRecord
100
AcDbDimStyleTableRecord
  2
AM_ANSI$SH
 70
     0
  4
mm
 41
0.1
 42
0.05
 43
0.5
 44
0.1
 47
0.1
 48
0.1
 75
     1
 76
     1
 78
     7
 79
     2
140
0.12
141
0.0
146
0.71
147
0.06
173
     1
176
   256
177
   256
178
     2
274
     4
284
     7
340
11
343
72
371
    -1
372
    -1
1001
ACAD_DSTYLE_DIMARC_LENGTH_SYMBOL
1070
   379
1070
     1
  0
ENDTAB
  0
TABLE
  2
BLOCK_RECORD
  5
1
330
0
100
AcDbSymbolTable
 70
    25
  0
BLOCK_RECORD
  5
1F
102
{ACAD_XDICTIONARY
360
8A
102
}
330
1
100
AcDbSymbolTableRecord
100
AcDbBlockTableRecord
  2
*Model_Space
340
22
  0
BLOCK_RECORD
  5
1B
330
1
100
AcDbSymbolTableRecord
100
AcDbBlockTableRecord
  2
*Paper_Space
340
1E
  0
BLOCK_RECORD
  5
23
330
1
100
AcDbSymbolTableRecord
100
AcDbBlockTableRecord
  2
*Paper_Space0
340
26
  0
BLOCK_RECORD
  5
72
330
1
100
AcDbSymbolTableRecord
100
AcDbBlockTableRecord
  2
GENAXEH
340
0
  0
BLOCK_RECORD
  5
6C4
330
1
100
AcDbSymbolTableRecord
100
AcDbBlockTableRecord
  2
_Dot
340
0
102
{BLKREFS
331
565CB
331
565CC
331
565DD
331
565DE
331
565E6
331
565E7
331
565EF
331
565F0
331
565F8
331
565F9
331
56601
331
56602
331
5660C
331
5660D
331
56615
331
56616
331
56629
331
5662A
331
56634
331
56635
331
5663D
331
5663E
331
56658
331
56659
331
56663
331
56664
331
5667C
331
5667D
331
5668E
331
5668F
331
566A3
331
566A4
331
59377
331
59378
331
5A46E
331
5A46F
102
}
  0
BLOCK_RECORD
  5
A66
330
1
100
AcDbSymbolTableRecord
100
AcDbBlockTableRecord
  2
_OPEN30
340
0
  0
BLOCK_RECORD
  5
53127
330
1
100
AcDbSymbolTableRecord
100
AcDbBlockTableRecord
  2
*D7
340
0
  0
BLOCK_RECORD
  5
5314F
330
1
100
AcDbSymbolTableRecord
100
AcDbBlockTableRecord
  2
*D8
340
0
  0
BLOCK_RECORD
  5
53189
330
1
100
AcDbSymbolTableRecord
100
AcDbBlockTableRecord
  2
*D9
340
0
  0
BLOCK_RECORD
  5
5319F
330
1
100
AcDbSymbolTableRecord
100
AcDbBlockTableRecord
  2
*D10
340
0
  0
BLOCK_RECORD
  5
531BE
330
1
100
AcDbSymbolTableRecord
100
AcDbBlockTableRecord
  2
*D11
340
0
  0
BLOCK_RECORD
  5
531E6
330
1
100
AcDbSymbolTableRecord
100
AcDbBlockTableRecord
  2
*D12
340
0
  0
BLOCK_RECORD
  5
531FC
330
1
100
AcDbSymbolTableRecord
100
AcDbBlockTableRecord
  2
*D13
340
0
  0
BLOCK_RECORD
  5
53212
330
1
100
AcDbSymbolTableRecord
100
AcDbBlockTableRecord
  2
*D14
340
0
  0
BLOCK_RECORD
  5
5324D
330
1
100
AcDbSymbolTableRecord
100
AcDbBlockTableRecord
  2
*D15
340
0
  0
BLOCK_RECORD
  5
5327E
330
1
100
AcDbSymbolTableRecord
100
AcDbBlockTableRecord
  2
*D16
340
0
  0
BLOCK_RECORD
  5
532B8
330
1
100
AcDbSymbolTableRecord
100
AcDbBlockTableRecord
  2
*D17
340
0
  0
BLOCK_RECORD
  5
532CF
330
1
100
AcDbSymbolTableRecord
100
AcDbBlockTableRecord
  2
*D18
340
0
  0
BLOCK_RECORD
  5
532F4
330
1
100
AcDbSymbolTableRecord
100
AcDbBlockTableRecord
  2
*D19
340
0
  0
BLOCK_RECORD
  5
5330A
330
1
100
AcDbSymbolTableRecord
100
AcDbBlockTableRecord
  2
*D20
340
0
  0
BLOCK_RECORD
  5
53326
330
1
100
AcDbSymbolTableRecord
100
AcDbBlockTableRecord
  2
*D21
340
0
  0
BLOCK_RECORD
  5
5334D
330
1
100
AcDbSymbolTableRecord
100
AcDbBlockTableRecord
  2
*D22
340
0
  0
BLOCK_RECORD
  5
53389
330
1
100
AcDbSymbolTableRecord
100
AcDbBlockTableRecord
  2
*D23
340
0
  0
BLOCK_RECORD
  5
59344
330
1
100
AcDbSymbolTableRecord
100
AcDbBlockTableRecord
  2
*D24
340
0
  0
ENDTAB
  0
ENDSEC
  0
SECTION
  2
BLOCKS
  0
BLOCK
  5
20
330
1F
100
AcDbEntity
  8
0
100
AcDbBlockBegin
  2
*Model_Space
 70
     0
 10
0.0
 20
0.0
 30
0.0
  3
*Model_Space
  1

  0
ENDBLK
  5
21
330
1F
100
AcDbEntity
  8
0
100
AcDbBlockEnd
  0
BLOCK
  5
1C
330
1B
100
AcDbEntity
 67
     1
  8
0
100
AcDbBlockBegin
  2
*Paper_Space
 70
     0
 10
0.0
 20
0.0
 30
0.0
  3
*Paper_Space
  1

  0
ENDBLK
  5
1D
330
1B
100
AcDbEntity
 67
     1
  8
0
100
AcDbBlockEnd
  0
BLOCK
  5
24
330
23
100
AcDbEntity
 67
     1
  8
0
100
AcDbBlockBegin
  2
*Paper_Space0
 70
     0
 10
0.0
 20
0.0
 30
0.0
  3
*Paper_Space0
  1

  0
ENDBLK
  5
25
330
23
100
AcDbEntity
 67
     1
  8
0
100
AcDbBlockEnd
  0
BLOCK
  5
74
330
72
100
AcDbEntity
  8
0
100
AcDbBlockBegin
  2
GENAXEH
 70
     0
 10
0.0
 20
0.0
 30
0.0
  3
GENAXEH
  1

  0
LINE
  5
73
330
72
100
AcDbEntity
  8
0
100
AcDbLine
 10
-1.0
 20
0.0
 30
0.0
 11
1.0
 21
0.0
 31
0.0
  0
ENDBLK
  5
75
330
72
100
AcDbEntity
  8
0
100
AcDbBlockEnd
  0
BLOCK
  5
6C7
330
6C4
100
AcDbEntity
  8
0
100
AcDbBlockBegin
  2
_Dot
 70
     0
 10
0.0
 20
0.0
 30
0.0
  3
_Dot
  1

  0
LWPOLYLINE
  5
6C5
330
6C4
100
AcDbEntity
  8
0
  6
ByBlock
 62
     0
100
AcDbPolyline
 90
        2
 70
     1
 43
0.5
 10
-0.25
 20
0.0
 42
1.0
 10
0.25
 20
0.0
 42
1.0
  0
LINE
  5
6C6
330
6C4
100
AcDbEntity
  8
0
  6
ByBlock
 62
     0
370
    -2
100
AcDbLine
 10
-0.5
 20
0.0
 30
0.0
 11
-1.0
 21
0.0
 31
0.0
  0
ENDBLK
  5
6C8
330
6C4
100
AcDbEntity
  8
0
100
AcDbBlockEnd
  0
BLOCK
  5
A6A
330
A66
100
AcDbEntity
  8
0
100
AcDbBlockBegin
  2
_OPEN30
 70
     0
 10
0.0
 20
0.0
 30
0.0
  3
_OPEN30
  1

  0
LINE
  5
A67
330
A66
100
AcDbEntity
  8
0
  6
ByBlock
 62
     0
100
AcDbLine
 10
-1.0
 20
0.26794919
 30
0.0
 11
0.0
 21
0.0
 31
0.0
  0
LINE
  5
A68
330
A66
100
AcDbEntity
  8
0
  6
ByBlock
 62
     0
100
AcDbLine
 10
0.0
 20
0.0
 30
0.0
 11
-1.0
 21
-0.26794919
 31
0.0
  0
LINE
  5
A69
330
A66
100
AcDbEntity
  8
0
  6
ByBlock
 62
     0
100
AcDbLine
 10
0.0
 20
0.0
 30
0.0
 11
-1.0
 21
0.0
 31
0.0
  0
ENDBLK
  5
A6B
330
A66
100
AcDbEntity
  8
0
100
AcDbBlockEnd
  0
BLOCK
  5
53131
330
53127
100
AcDbEntity
  8
0
100
AcDbBlockBegin
  2
*D7
 70
     1
 10
0.0
 20
0.0
 30
0.0
  3
*D7
  1

  0
LINE
  5
565C8
330
53127
100
AcDbEntity
  8
AM_5
100
AcDbLine
 10
6249.036870655327
 20
-2343.949904955702
 30
0.0
 11
6249.036870655327
 21
-2318.199904955702
 31
0.0
  0
LINE
  5
565C9
330
53127
100
AcDbEntity
  8
AM_5
100
AcDbLine
 10
6217.036870655328
 20
-2335.949904955702
 30
0.0
 11
6217.036870655328
 21
-2318.199904955702
 31
0.0
  0
LINE
  5
565CA
330
53127
100
AcDbEntity
  8
AM_5
100
AcDbLine
 10
6248.036870655327
 20
-2319.199904955702
 30
0.0
 11
6218.036870655328
 21
-2319.199904955702
 31
0.0
  0
INSERT
  5
565CB
330
53127
100
AcDbEntity
  8
AM_5
100
AcDbBlockReference
  2
_Dot
 10
6249.036870655327
 20
-2319.199904955702
 30
0.0
  0
INSERT
  5
565CC
330
53127
100
AcDbEntity
  8
AM_5
100
AcDbBlockReference
  2
_Dot
 10
6217.036870655328
 20
-2319.199904955702
 30
0.0
 50
180.0
  0
MTEXT
  5
565CD
330
53127
100
AcDbEntity
  8
AM_5
 62
     2
100
AcDbMText
 10
6233.036870655327
 20
-2316.599904955702
 30
0.0
 40
3.200000000000001
 41
0.0
 71
     5
 72
     1
  1
（32）
 73
     1
 44
1.0
1001
ACAD
1000
MTEXTBEGIN
1070
    73
1070
     1
1070
    44
1040
1.0
1070
    74
1070
     0
1000
MTEXTEND
  0
POINT
  5
565CE
330
53127
100
AcDbEntity
  8
Defpoints
 62
     0
100
AcDbPoint
 10
6249.036870655327
 20
-2344.949904955702
 30
0.0
  0
POINT
  5
565CF
330
53127
100
AcDbEntity
  8
Defpoints
 62
     0
100
AcDbPoint
 10
6217.036870655328
 20
-2336.949904955702
 30
0.0
  0
POINT
  5
565D0
330
53127
100
AcDbEntity
  8
Defpoints
 62
     0
100
AcDbPoint
 10
6217.036870655328
 20
-2319.199904955702
 30
0.0
  0
ENDBLK
  5
53132
330
53127
100
AcDbEntity
  8
0
100
AcDbBlockEnd
  0
BLOCK
  5
53159
330
5314F
100
AcDbEntity
  8
0
100
AcDbBlockBegin
  2
*D8
 70
     1
 10
0.0
 20
0.0
 30
0.0
  3
*D8
  1

  0
LINE
  5
5668B
330
5314F
100
AcDbEntity
  8
AM_5
100
AcDbLine
 10
6227.536870655328
 20
-2356.449904955702
 30
0.0
 11
6266.036870655327
 21
-2356.449904955702
 31
0.0
  0
LINE
  5
5668C
330
5314F
100
AcDbEntity
  8
AM_5
100
AcDbLine
 10
6227.536870655328
 20
-2333.449904955702
 30
0.0
 11
6266.036870655327
 21
-2333.449904955702
 31
0.0
  0
LINE
  5
5668D
330
5314F
100
AcDbEntity
  8
AM_5
100
AcDbLine
 10
6265.036870655326
 20
-2355.449904955702
 30
0.0
 11
6265.036870655326
 21
-2334.449904955702
 31
0.0
  0
INSERT
  5
5668E
330
5314F
100
AcDbEntity
  8
AM_5
100
AcDbBlockReference
  2
_Dot
 10
6265.036870655326
 20
-2356.449904955702
 30
0.0
 50
270.0
  0
INSERT
  5
5668F
330
5314F
100
AcDbEntity
  8
AM_5
100
AcDbBlockReference
  2
_Dot
 10
6265.036870655326
 20
-2333.449904955702
 30
0.0
 50
90.0
  0
MTEXT
  5
56690
330
5314F
100
AcDbEntity
  8
AM_5
 62
     2
100
AcDbMText
 10
6262.436870655327
 20
-2344.9499049557
 30
0.0
 40
3.200000000000001
 41
0.0
 71
     5
 72
     1
  1
（23）
 11
0.0000000000000001
 21
1.0
 31
0.0
 73
     1
 44
1.0
1001
ACAD
1000
MTEXTBEGIN
1070
    73
1070
     1
1070
    44
1040
1.0
1070
    74
1070
     0
1000
MTEXTEND
  0
POINT
  5
56691
330
5314F
100
AcDbEntity
  8
Defpoints
 62
     0
100
AcDbPoint
 10
6226.536870655328
 20
-2356.449904955702
 30
0.0
  0
POINT
  5
56692
330
5314F
100
AcDbEntity
  8
Defpoints
 62
     0
100
AcDbPoint
 10
6226.536870655328
 20
-2333.449904955702
 30
0.0
  0
POINT
  5
56693
330
5314F
100
AcDbEntity
  8
Defpoints
 62
     0
100
AcDbPoint
 10
6265.036870655326
 20
-2333.449904955702
 30
0.0
  0
ENDBLK
  5
5315A
330
5314F
100
AcDbEntity
  8
0
100
AcDbBlockEnd
  0
BLOCK
  5
53193
330
53189
100
AcDbEntity
  8
0
100
AcDbBlockBegin
  2
*D9
 70
     1
 10
0.0
 20
0.0
 30
0.0
  3
*D9
  1

  0
LINE
  5
565DA
330
53189
100
AcDbEntity
  8
AM_5
100
AcDbLine
 10
6248.536870655328
 20
-2352.949904955702
 30
0.0
 11
6258.036870655327
 21
-2352.949904955702
 31
0.0
  0
LINE
  5
565DB
330
53189
100
AcDbEntity
  8
AM_5
100
AcDbLine
 10
6248.536870655328
 20
-2336.949904955702
 30
0.0
 11
6258.036870655327
 21
-2336.949904955702
 31
0.0
  0
LINE
  5
565DC
330
53189
100
AcDbEntity
  8
AM_5
100
AcDbLine
 10
6257.036870655326
 20
-2351.949904955702
 30
0.0
 11
6257.036870655326
 21
-2337.949904955701
 31
0.0
  0
INSERT
  5
565DD
330
53189
100
AcDbEntity
  8
AM_5
100
AcDbBlockReference
  2
_Dot
 10
6257.036870655326
 20
-2352.949904955702
 30
0.0
 50
270.0
  0
INSERT
  5
565DE
330
53189
100
AcDbEntity
  8
AM_5
100
AcDbBlockReference
  2
_Dot
 10
6257.036870655326
 20
-2336.949904955702
 30
0.0
 50
90.0
  0
MTEXT
  5
565DF
330
53189
100
AcDbEntity
  8
AM_5
 62
     2
100
AcDbMText
 10
6254.436870655327
 20
-2344.9499049557
 30
0.0
 40
3.200000000000001
 41
0.0
 71
     5
 72
     1
  1
16
 11
0.0000000000000001
 21
1.0
 31
0.0
 73
     1
 44
1.0
1001
ACAD
1000
MTEXTBEGIN
1070
    73
1070
     1
1070
    44
1040
1.0
1070
    74
1070
     0
1000
MTEXTEND
  0
POINT
  5
565E0
330
53189
100
AcDbEntity
  8
Defpoints
 62
     0
100
AcDbPoint
 10
6247.536870655328
 20
-2352.949904955702
 30
0.0
  0
POINT
  5
565E1
330
53189
100
AcDbEntity
  8
Defpoints
 62
     0
100
AcDbPoint
 10
6247.536870655328
 20
-2336.949904955702
 30
0.0
  0
POINT
  5
565E2
330
53189
100
AcDbEntity
  8
Defpoints
 62
     0
100
AcDbPoint
 10
6257.036870655326
 20
-2336.949904955702
 30
0.0
  0
ENDBLK
  5
53194
330
53189
100
AcDbEntity
  8
0
100
AcDbBlockEnd
  0
BLOCK
  5
531A9
330
5319F
100
AcDbEntity
  8
0
100
AcDbBlockBegin
  2
*D10
 70
     1
 10
0.0
 20
0.0
 30
0.0
  3
*D10
  1

  0
LINE
  5
565E3
330
5319F
100
AcDbEntity
  8
AM_5
100
AcDbLine
 10
6237.529050510996
 20
-2358.949904955702
 30
0.0
 11
6274.036870655326
 21
-2358.949904955702
 31
0.0
  0
LINE
  5
565E4
330
5319F
100
AcDbEntity
  8
AM_5
100
AcDbLine
 10
6237.536870655328
 20
-2330.949904955701
 30
0.0
 11
6274.036870655326
 21
-2330.949904955701
 31
0.0
  0
LINE
  5
565E5
330
5319F
100
AcDbEntity
  8
AM_5
100
AcDbLine
 10
6273.036870655326
 20
-2357.949904955702
 30
0.0
 11
6273.036870655326
 21
-2331.949904955702
 31
0.0
  0
INSERT
  5
565E6
330
5319F
100
AcDbEntity
  8
AM_5
100
AcDbBlockReference
  2
_Dot
 10
6273.036870655326
 20
-2358.949904955702
 30
0.0
 50
270.0
  0
INSERT
  5
565E7
330
5319F
100
AcDbEntity
  8
AM_5
100
AcDbBlockReference
  2
_Dot
 10
6273.036870655326
 20
-2330.949904955701
 30
0.0
 50
90.0
  0
MTEXT
  5
565E8
330
5319F
100
AcDbEntity
  8
AM_5
 62
     2
100
AcDbMText
 10
6270.436870655327
 20
-2344.9499049557
 30
0.0
 40
3.200000000000001
 41
0.0
 71
     5
 72
     1
  1
28
 11
0.0000000000000001
 21
1.0
 31
0.0
 73
     1
 44
1.0
1001
ACAD
1000
MTEXTBEGIN
1070
    73
1070
     1
1070
    44
1040
1.0
1070
    74
1070
     0
1000
MTEXTEND
  0
POINT
  5
565E9
330
5319F
100
AcDbEntity
  8
Defpoints
 62
     0
100
AcDbPoint
 10
6236.529050510996
 20
-2358.949904955702
 30
0.0
  0
POINT
  5
565EA
330
5319F
100
AcDbEntity
  8
Defpoints
 62
     0
100
AcDbPoint
 10
6236.536870655328
 20
-2330.949904955701
 30
0.0
  0
POINT
  5
565EB
330
5319F
100
AcDbEntity
  8
Defpoints
 62
     0
100
AcDbPoint
 10
6273.036870655326
 20
-2330.949904955701
 30
0.0
  0
ENDBLK
  5
531AA
330
5319F
100
AcDbEntity
  8
0
100
AcDbBlockEnd
  0
BLOCK
  5
531C8
330
531BE
100
AcDbEntity
  8
0
100
AcDbBlockBegin
  2
*D11
 70
     1
 10
0.0
 20
0.0
 30
0.0
  3
*D11
  1

  0
LINE
  5
565EC
330
531BE
100
AcDbEntity
  8
AM_5
100
AcDbLine
 10
6198.799478655327
 20
-2332.949904955702
 30
0.0
 11
6198.799478655327
 21
-2318.199904955702
 31
0.0
  0
LINE
  5
565ED
330
531BE
100
AcDbEntity
  8
AM_5
100
AcDbLine
 10
6212.799478655328
 20
-2336.449904955702
 30
0.0
 11
6212.799478655328
 21
-2318.199904955702
 31
0.0
  0
LINE
  5
565EE
330
531BE
100
AcDbEntity
  8
AM_5
100
AcDbLine
 10
6199.799478655329
 20
-2319.199904955702
 30
0.0
 11
6211.799478655328
 21
-2319.199904955702
 31
0.0
  0
INSERT
  5
565EF
330
531BE
100
AcDbEntity
  8
AM_5
100
AcDbBlockReference
  2
_Dot
 10
6198.799478655327
 20
-2319.199904955702
 30
0.0
 50
180.0
  0
INSERT
  5
565F0
330
531BE
100
AcDbEntity
  8
AM_5
100
AcDbBlockReference
  2
_Dot
 10
6212.799478655328
 20
-2319.199904955702
 30
0.0
  0
MTEXT
  5
565F1
330
531BE
100
AcDbEntity
  8
AM_5
 62
     2
100
AcDbMText
 10
6205.799478655328
 20
-2316.599904955702
 30
0.0
 40
3.200000000000001
 41
0.0
 71
     5
 72
     1
  1
（14）
 73
     1
 44
1.0
1001
ACAD
1000
MTEXTBEGIN
1070
    73
1070
     1
1070
    44
1040
1.0
1070
    74
1070
     0
1000
MTEXTEND
  0
POINT
  5
565F2
330
531BE
100
AcDbEntity
  8
Defpoints
 62
     0
100
AcDbPoint
 10
6198.799478655327
 20
-2333.949904955701
 30
0.0
  0
POINT
  5
565F3
330
531BE
100
AcDbEntity
  8
Defpoints
 62
     0
100
AcDbPoint
 10
6212.799478655328
 20
-2337.449904955702
 30
0.0
  0
POINT
  5
565F4
330
531BE
100
AcDbEntity
  8
Defpoints
 62
     0
100
AcDbPoint
 10
6212.799478655328
 20
-2319.199904955702
 30
0.0
  0
ENDBLK
  5
531C9
330
531BE
100
AcDbEntity
  8
0
100
AcDbBlockEnd
  0
BLOCK
  5
531F0
330
531E6
100
AcDbEntity
  8
0
100
AcDbBlockBegin
  2
*D12
 70
     1
 10
0.0
 20
0.0
 30
0.0
  3
*D12
  1

  0
LINE
  5
565F5
330
531E6
100
AcDbEntity
  8
AM_5
100
AcDbLine
 10
6201.753889655329
 20
-2329.949904955702
 30
0.0
 11
6181.799478655327
 21
-2329.949904955702
 31
0.0
  0
LINE
  5
565F6
330
531E6
100
AcDbEntity
  8
AM_5
100
AcDbLine
 10
6201.753889655329
 20
-2359.949904955701
 30
0.0
 11
6181.799478655327
 21
-2359.949904955701
 31
0.0
  0
LINE
  5
565F7
330
531E6
100
AcDbEntity
  8
AM_5
100
AcDbLine
 10
6182.799478655327
 20
-2330.949904955701
 30
0.0
 11
6182.799478655327
 21
-2358.949904955701
 31
0.0
  0
INSERT
  5
565F8
330
531E6
100
AcDbEntity
  8
AM_5
100
AcDbBlockReference
  2
_Dot
 10
6182.799478655327
 20
-2329.949904955702
 30
0.0
 50
90.0
  0
INSERT
  5
565F9
330
531E6
100
AcDbEntity
  8
AM_5
100
AcDbBlockReference
  2
_Dot
 10
6182.799478655327
 20
-2359.949904955701
 30
0.0
 50
270.0
  0
MTEXT
  5
565FA
330
531E6
100
AcDbEntity
  8
AM_5
 62
     2
100
AcDbMText
 10
6180.199478655328
 20
-2344.949904955702
 30
0.0
 40
3.200000000000001
 41
0.0
 71
     5
 72
     1
  1
30
 11
0.0000000000000001
 21
1.0
 31
0.0
 73
     1
 44
1.0
1001
ACAD
1000
MTEXTBEGIN
1070
    73
1070
     1
1070
    44
1040
1.0
1070
    74
1070
     0
1000
MTEXTEND
  0
POINT
  5
565FB
330
531E6
100
AcDbEntity
  8
Defpoints
 62
     0
100
AcDbPoint
 10
6202.753889655328
 20
-2329.949904955702
 30
0.0
  0
POINT
  5
565FC
330
531E6
100
AcDbEntity
  8
Defpoints
 62
     0
100
AcDbPoint
 10
6202.753889655328
 20
-2359.949904955701
 30
0.0
  0
POINT
  5
565FD
330
531E6
100
AcDbEntity
  8
Defpoints
 62
     0
100
AcDbPoint
 10
6182.799478655327
 20
-2359.949904955701
 30
0.0
  0
ENDBLK
  5
531F1
330
531E6
100
AcDbEntity
  8
0
100
AcDbBlockEnd
  0
BLOCK
  5
53206
330
531FC
100
AcDbEntity
  8
0
100
AcDbBlockBegin
  2
*D13
 70
     1
 10
0.0
 20
0.0
 30
0.0
  3
*D13
  1

  0
LINE
  5
565FE
330
531FC
100
AcDbEntity
  8
AM_5
100
AcDbLine
 10
6197.799478655328
 20
-2333.949904955701
 30
0.0
 11
6189.799478655327
 21
-2333.949904955701
 31
0.0
  0
LINE
  5
565FF
330
531FC
100
AcDbEntity
  8
AM_5
100
AcDbLine
 10
6197.799478655328
 20
-2355.949904955702
 30
0.0
 11
6189.799478655327
 21
-2355.949904955702
 31
0.0
  0
LINE
  5
56600
330
531FC
100
AcDbEntity
  8
AM_5
100
AcDbLine
 10
6190.799478655327
 20
-2334.949904955702
 30
0.0
 11
6190.799478655327
 21
-2354.949904955702
 31
0.0
  0
INSERT
  5
56601
330
531FC
100
AcDbEntity
  8
AM_5
100
AcDbBlockReference
  2
_Dot
 10
6190.799478655327
 20
-2333.949904955701
 30
0.0
 50
90.0
  0
INSERT
  5
56602
330
531FC
100
AcDbEntity
  8
AM_5
100
AcDbBlockReference
  2
_Dot
 10
6190.799478655327
 20
-2355.949904955702
 30
0.0
 50
270.0
  0
MTEXT
  5
56603
330
531FC
100
AcDbEntity
  8
AM_5
 62
     2
100
AcDbMText
 10
6188.199478655327
 20
-2344.9499049557
 30
0.0
 40
3.200000000000001
 41
0.0
 71
     5
 72
     1
  1
22
 11
0.0000000000000001
 21
1.0
 31
0.0
 73
     1
 44
1.0
1001
ACAD
1000
MTEXTBEGIN
1070
    73
1070
     1
1070
    44
1040
1.0
1070
    74
1070
     0
1000
MTEXTEND
  0
POINT
  5
56604
330
531FC
100
AcDbEntity
  8
Defpoints
 62
     0
100
AcDbPoint
 10
6198.799478655327
 20
-2333.949904955701
 30
0.0
  0
POINT
  5
56605
330
531FC
100
AcDbEntity
  8
Defpoints
 62
     0
100
AcDbPoint
 10
6198.799478655327
 20
-2355.949904955702
 30
0.0
  0
POINT
  5
56606
330
531FC
100
AcDbEntity
  8
Defpoints
 62
     0
100
AcDbPoint
 10
6190.799478655327
 20
-2355.949904955702
 30
0.0
  0
ENDBLK
  5
53207
330
531FC
100
AcDbEntity
  8
0
100
AcDbBlockEnd
  0
BLOCK
  5
5321E
330
53212
100
AcDbEntity
  8
0
100
AcDbBlockBegin
  2
*D14
 70
     1
 10
0.0
 20
0.0
 30
0.0
  3
*D14
  1

  0
LINE
  5
56607
330
53212
100
AcDbEntity
  8
AM_5
100
AcDbLine
 10
6218.286870655329
 20
-2356.449904955702
 30
0.0
 11
6210.425405665485
 21
-2356.449904955702
 31
0.0
  0
LINE
  5
56608
330
53212
100
AcDbEntity
  8
AM_5
100
AcDbLine
 10
6216.286870655328
 20
-2354.449904955702
 30
0.0
 11
6210.425405665485
 21
-2354.449904955702
 31
0.0
  0
LINE
  5
56609
330
53212
100
AcDbEntity
  8
AM_5
100
AcDbLine
 10
6211.425405665486
 20
-2353.449904955702
 30
0.0
 11
6211.425405665486
 21
-2352.449904955702
 31
0.0
  0
LINE
  5
5660A
330
53212
100
AcDbEntity
  8
AM_5
100
AcDbLine
 10
6211.425405665486
 20
-2357.449904955702
 30
0.0
 11
6211.425405665486
 21
-2363.969904955702
 31
0.0
  0
LINE
  5
5660B
330
53212
100
AcDbEntity
  8
AM_5
100
AcDbLine
 10
6211.425405665486
 20
-2354.449904955702
 30
0.0
 11
6211.425405665486
 21
-2356.449904955702
 31
0.0
  0
INSERT
  5
5660C
330
53212
100
AcDbEntity
  8
AM_5
100
AcDbBlockReference
  2
_Dot
 10
6211.425405665486
 20
-2354.449904955702
 30
0.0
 50
270.0
  0
INSERT
  5
5660D
330
53212
100
AcDbEntity
  8
AM_5
100
AcDbBlockReference
  2
_Dot
 10
6211.425405665486
 20
-2356.449904955702
 30
0.0
 50
90.0
  0
MTEXT
  5
5660E
330
53212
100
AcDbEntity
  8
AM_5
 62
     2
100
AcDbMText
 10
6208.825405665486
 20
-2361.209904955701
 30
0.0
 40
3.200000000000001
 41
0.0
 71
     5
 72
     1
  1
%%c2
 11
0.0000000000000001
 21
1.0
 31
0.0
 73
     1
 44
1.0
1001
ACAD
1000
MTEXTBEGIN
1070
    73
1070
     1
1070
    44
1040
1.0
1070
    74
1070
     0
1000
MTEXTEND
  0
POINT
  5
5660F
330
53212
100
AcDbEntity
  8
Defpoints
 62
     0
100
AcDbPoint
 10
6219.286870655328
 20
-2356.449904955702
 30
0.0
  0
POINT
  5
56610
330
53212
100
AcDbEntity
  8
Defpoints
 62
     0
100
AcDbPoint
 10
6217.286870655328
 20
-2354.449904955702
 30
0.0
  0
POINT
  5
56611
330
53212
100
AcDbEntity
  8
Defpoints
 62
     0
100
AcDbPoint
 10
6211.425405665486
 20
-2354.449904955702
 30
0.0
  0
ENDBLK
  5
5321F
330
53212
100
AcDbEntity
  8
0
100
AcDbBlockEnd
  0
BLOCK
  5
53257
330
5324D
100
AcDbEntity
  8
0
100
AcDbBlockBegin
  2
*D15
 70
     1
 10
0.0
 20
0.0
 30
0.0
  3
*D15
  1

  0
LINE
  5
56612
330
5324D
100
AcDbEntity
  8
AM_5
100
AcDbLine
 10
6237.536870655328
 20
-2405.764661955702
 30
0.0
 11
6258.036870655327
 21
-2405.764661955702
 31
0.0
  0
LINE
  5
56613
330
5324D
100
AcDbEntity
  8
AM_5
100
AcDbLine
 10
6248.536870655328
 20
-2392.764661955702
 30
0.0
 11
6258.036870655327
 21
-2392.764661955702
 31
0.0
  0
LINE
  5
56614
330
5324D
100
AcDbEntity
  8
AM_5
100
AcDbLine
 10
6257.036870655326
 20
-2404.764661955702
 30
0.0
 11
6257.036870655326
 21
-2393.764661955702
 31
0.0
  0
INSERT
  5
56615
330
5324D
100
AcDbEntity
  8
AM_5
100
AcDbBlockReference
  2
_Dot
 10
6257.036870655326
 20
-2405.764661955702
 30
0.0
 50
270.0
  0
INSERT
  5
56616
330
5324D
100
AcDbEntity
  8
AM_5
100
AcDbBlockReference
  2
_Dot
 10
6257.036870655326
 20
-2392.764661955702
 30
0.0
 50
90.0
  0
MTEXT
  5
56617
330
5324D
100
AcDbEntity
  8
AM_5
 62
     2
100
AcDbMText
 10
6254.436870655327
 20
-2399.2646619557
 30
0.0
 40
3.200000000000001
 41
0.0
 71
     5
 72
     1
  1
（13）
 11
0.0000000000000001
 21
1.0
 31
0.0
 73
     1
 44
1.0
1001
ACAD
1000
MTEXTBEGIN
1070
    73
1070
     1
1070
    44
1040
1.0
1070
    74
1070
     0
1000
MTEXTEND
  0
POINT
  5
56618
330
5324D
100
AcDbEntity
  8
Defpoints
 62
     0
100
AcDbPoint
 10
6236.536870655328
 20
-2405.764661955702
 30
0.0
  0
POINT
  5
56619
330
5324D
100
AcDbEntity
  8
Defpoints
 62
     0
100
AcDbPoint
 10
6247.536870655328
 20
-2392.764661955702
 30
0.0
  0
POINT
  5
5661A
330
5324D
100
AcDbEntity
  8
Defpoints
 62
     0
100
AcDbPoint
 10
6257.036870655326
 20
-2392.764661955702
 30
0.0
  0
ENDBLK
  5
53258
330
5324D
100
AcDbEntity
  8
0
100
AcDbBlockEnd
  0
BLOCK
  5
5328A
330
5327E
100
AcDbEntity
  8
0
100
AcDbBlockBegin
  2
*D16
 70
     1
 10
0.0
 20
0.0
 30
0.0
  3
*D16
  1

  0
LINE
  5
5669E
330
5327E
100
AcDbEntity
  8
AM_5
100
AcDbLine
 10
6237.536870655328
 20
-2405.764661955702
 30
0.0
 11
6250.036870655327
 21
-2405.764661955702
 31
0.0
  0
LINE
  5
5669F
330
5327E
100
AcDbEntity
  8
AM_5
100
AcDbLine
 10
6237.536870655327
 20
-2404.264661955703
 30
0.0
 11
6250.036870655327
 21
-2404.264661955703
 31
0.0
  0
LINE
  5
566A0
330
5327E
100
AcDbEntity
  8
AM_5
100
AcDbLine
 10
6249.036870655326
 20
-2403.264661955703
 30
0.0
 11
6249.036870655326
 21
-2402.264661955703
 31
0.0
  0
LINE
  5
566A1
330
5327E
100
AcDbEntity
  8
AM_5
100
AcDbLine
 10
6249.036870655326
 20
-2406.764661955702
 30
0.0
 11
6249.036870655326
 21
-2414.137995289035
 31
0.0
  0
LINE
  5
566A2
330
5327E
100
AcDbEntity
  8
AM_5
100
AcDbLine
 10
6249.036870655326
 20
-2404.264661955703
 30
0.0
 11
6249.036870655326
 21
-2405.764661955702
 31
0.0
  0
INSERT
  5
566A3
330
5327E
100
AcDbEntity
  8
AM_5
100
AcDbBlockReference
  2
_Dot
 10
6249.036870655326
 20
-2404.264661955703
 30
0.0
 50
270.0
  0
INSERT
  5
566A4
330
5327E
100
AcDbEntity
  8
AM_5
100
AcDbBlockReference
  2
_Dot
 10
6249.036870655326
 20
-2405.764661955702
 30
0.0
 50
90.0
  0
MTEXT
  5
566A5
330
5327E
100
AcDbEntity
  8
AM_5
 62
     2
100
AcDbMText
 10
6246.436870655327
 20
-2410.951328622367
 30
0.0
 40
3.200000000000001
 41
0.0
 71
     5
 72
     1
  1
1.5
 11
0.0000000000000001
 21
1.0
 31
0.0
 73
     1
 44
1.0
1001
ACAD
1000
MTEXTBEGIN
1070
    73
1070
     1
1070
    44
1040
1.0
1070
    74
1070
     0
1000
MTEXTEND
  0
POINT
  5
566A6
330
5327E
100
AcDbEntity
  8
Defpoints
 62
     0
100
AcDbPoint
 10
6236.536870655328
 20
-2405.764661955702
 30
0.0
  0
POINT
  5
566A7
330
5327E
100
AcDbEntity
  8
Defpoints
 62
     0
100
AcDbPoint
 10
6236.536870655328
 20
-2404.264661955703
 30
0.0
  0
POINT
  5
566A8
330
5327E
100
AcDbEntity
  8
Defpoints
 62
     0
100
AcDbPoint
 10
6249.036870655326
 20
-2404.264661955703
 30
0.0
  0
ENDBLK
  5
5328B
330
5327E
100
AcDbEntity
  8
0
100
AcDbBlockEnd
  0
BLOCK
  5
532C3
330
532B8
100
AcDbEntity
  8
0
100
AcDbBlockBegin
  2
*D17
 70
     1
 10
0.0
 20
0.0
 30
0.0
  3
*D17
  1

  0
LINE
  5
56626
330
532B8
100
AcDbEntity
  8
AM_5
100
AcDbLine
 10
6197.799478655328
 20
-2405.764661955702
 30
0.0
 11
6181.799478655327
 21
-2405.764661955702
 31
0.0
  0
LINE
  5
56627
330
532B8
100
AcDbEntity
  8
AM_5
100
AcDbLine
 10
6206.799478655328
 20
-2398.264661955701
 30
0.0
 11
6181.799478655327
 21
-2398.264661955701
 31
0.0
  0
LINE
  5
56628
330
532B8
100
AcDbEntity
  8
AM_5
100
AcDbLine
 10
6182.799478655327
 20
-2404.764661955702
 30
0.0
 11
6182.799478655327
 21
-2399.264661955702
 31
0.0
  0
INSERT
  5
56629
330
532B8
100
AcDbEntity
  8
AM_5
100
AcDbBlockReference
  2
_Dot
 10
6182.799478655327
 20
-2405.764661955702
 30
0.0
 50
270.0
  0
INSERT
  5
5662A
330
532B8
100
AcDbEntity
  8
AM_5
100
AcDbBlockReference
  2
_Dot
 10
6182.799478655327
 20
-2398.264661955701
 30
0.0
 50
90.0
  0
MTEXT
  5
5662B
330
532B8
100
AcDbEntity
  8
AM_5
 62
     2
100
AcDbMText
 10
6180.199478655328
 20
-2402.0146619557
 30
0.0
 40
3.200000000000001
 41
0.0
 71
     5
 72
     1
  1
7.5
 11
0.0000000000000001
 21
1.0
 31
0.0
 73
     1
 44
1.0
1001
ACAD
1000
MTEXTBEGIN
1070
    73
1070
     1
1070
    44
1040
1.0
1070
    74
1070
     0
1000
MTEXTEND
  0
POINT
  5
5662C
330
532B8
100
AcDbEntity
  8
Defpoints
 62
     0
100
AcDbPoint
 10
6198.799478655327
 20
-2405.764661955702
 30
0.0
  0
POINT
  5
5662D
330
532B8
100
AcDbEntity
  8
Defpoints
 62
     0
100
AcDbPoint
 10
6207.799478655328
 20
-2398.264661955701
 30
0.0
  0
POINT
  5
5662E
330
532B8
100
AcDbEntity
  8
Defpoints
 62
     0
100
AcDbPoint
 10
6182.799478655327
 20
-2398.264661955701
 30
0.0
  0
ENDBLK
  5
532C4
330
532B8
100
AcDbEntity
  8
0
100
AcDbBlockEnd
  0
BLOCK
  5
532DB
330
532CF
100
AcDbEntity
  8
0
100
AcDbBlockBegin
  2
*D18
 70
     1
 10
0.0
 20
0.0
 30
0.0
  3
*D18
  1

  0
LINE
  5
5662F
330
532CF
100
AcDbEntity
  8
AM_5
100
AcDbLine
 10
6197.799478655328
 20
-2405.764661955702
 30
0.0
 11
6189.799478655327
 21
-2405.764661955702
 31
0.0
  0
LINE
  5
56630
330
532CF
100
AcDbEntity
  8
AM_5
100
AcDbLine
 10
6197.799478655328
 20
-2404.264661955702
 30
0.0
 11
6189.799478655327
 21
-2404.264661955702
 31
0.0
  0
LINE
  5
56631
330
532CF
100
AcDbEntity
  8
AM_5
100
AcDbLine
 10
6190.799478655327
 20
-2403.264661955702
 30
0.0
 11
6190.799478655327
 21
-2402.264661955702
 31
0.0
  0
LINE
  5
56632
330
532CF
100
AcDbEntity
  8
AM_5
100
AcDbLine
 10
6190.799478655327
 20
-2406.764661955702
 30
0.0
 11
6190.799478655327
 21
-2414.137995289035
 31
0.0
  0
LINE
  5
56633
330
532CF
100
AcDbEntity
  8
AM_5
100
AcDbLine
 10
6190.799478655327
 20
-2404.264661955702
 30
0.0
 11
6190.799478655327
 21
-2405.764661955702
 31
0.0
  0
INSERT
  5
56634
330
532CF
100
AcDbEntity
  8
AM_5
100
AcDbBlockReference
  2
_Dot
 10
6190.799478655327
 20
-2404.264661955702
 30
0.0
 50
270.0
  0
INSERT
  5
56635
330
532CF
100
AcDbEntity
  8
AM_5
100
AcDbBlockReference
  2
_Dot
 10
6190.799478655327
 20
-2405.764661955702
 30
0.0
 50
90.0
  0
MTEXT
  5
56636
330
532CF
100
AcDbEntity
  8
AM_5
 62
     2
100
AcDbMText
 10
6188.199478655327
 20
-2410.951328622367
 30
0.0
 40
3.200000000000001
 41
0.0
 71
     5
 72
     1
  1
1.5
 11
0.0000000000000001
 21
1.0
 31
0.0
 73
     1
 44
1.0
1001
ACAD
1000
MTEXTBEGIN
1070
    73
1070
     1
1070
    44
1040
1.0
1070
    74
1070
     0
1000
MTEXTEND
  0
POINT
  5
56637
330
532CF
100
AcDbEntity
  8
Defpoints
 62
     0
100
AcDbPoint
 10
6198.799478655327
 20
-2405.764661955702
 30
0.0
  0
POINT
  5
56638
330
532CF
100
AcDbEntity
  8
Defpoints
 62
     0
100
AcDbPoint
 10
6198.799478655327
 20
-2404.264661955702
 30
0.0
  0
POINT
  5
56639
330
532CF
100
AcDbEntity
  8
Defpoints
 62
     0
100
AcDbPoint
 10
6190.799478655327
 20
-2404.264661955702
 30
0.0
  0
ENDBLK
  5
532DC
330
532CF
100
AcDbEntity
  8
0
100
AcDbBlockEnd
  0
BLOCK
  5
532FE
330
532F4
100
AcDbEntity
  8
0
100
AcDbBlockBegin
  2
*D19
 70
     1
 10
0.0
 20
0.0
 30
0.0
  3
*D19
  1

  0
LINE
  5
5663A
330
532F4
100
AcDbEntity
  8
AM_5
100
AcDbLine
 10
6232.536870655328
 20
-2363.949904955702
 30
0.0
 11
6232.536870655328
 21
-2371.699904955702
 31
0.0
  0
LINE
  5
5663B
330
532F4
100
AcDbEntity
  8
AM_5
100
AcDbLine
 10
6217.036870655328
 20
-2353.949904955701
 30
0.0
 11
6217.036870655328
 21
-2371.699904955702
 31
0.0
  0
LINE
  5
5663C
330
532F4
100
AcDbEntity
  8
AM_5
100
AcDbLine
 10
6231.536870655328
 20
-2370.699904955702
 30
0.0
 11
6218.036870655328
 21
-2370.699904955702
 31
0.0
  0
INSERT
  5
5663D
330
532F4
100
AcDbEntity
  8
AM_5
100
AcDbBlockReference
  2
_Dot
 10
6232.536870655328
 20
-2370.699904955702
 30
0.0
  0
INSERT
  5
5663E
330
532F4
100
AcDbEntity
  8
AM_5
100
AcDbBlockReference
  2
_Dot
 10
6217.036870655328
 20
-2370.699904955702
 30
0.0
 50
180.0
  0
MTEXT
  5
5663F
330
532F4
100
AcDbEntity
  8
AM_5
 62
     2
100
AcDbMText
 10
6224.786870655329
 20
-2368.099904955702
 30
0.0
 40
3.200000000000001
 41
0.0
 71
     5
 72
     1
  1
15.5
 73
     1
 44
1.0
1001
ACAD
1000
MTEXTBEGIN
1070
    73
1070
     1
1070
    44
1040
1.0
1070
    74
1070
     0
1000
MTEXTEND
  0
POINT
  5
56640
330
532F4
100
AcDbEntity
  8
Defpoints
 62
     0
100
AcDbPoint
 10
6232.536870655328
 20
-2362.949904955701
 30
0.0
  0
POINT
  5
56641
330
532F4
100
AcDbEntity
  8
Defpoints
 62
     0
100
AcDbPoint
 10
6217.036870655328
 20
-2352.949904955702
 30
0.0
  0
POINT
  5
56642
330
532F4
100
AcDbEntity
  8
Defpoints
 62
     0
100
AcDbPoint
 10
6217.036870655328
 20
-2370.699904955702
 30
0.0
  0
ENDBLK
  5
532FF
330
532F4
100
AcDbEntity
  8
0
100
AcDbBlockEnd
  0
BLOCK
  5
53311
330
5330A
100
AcDbEntity
  8
0
100
AcDbBlockBegin
  2
*D20
 70
     1
 10
0.0
 20
0.0
 30
0.0
  3
*D20
  1

  0
LINE
  5
5A469
330
5330A
100
AcDbEntity
  8
AM_5
100
AcDbLine
 10
6250.531077589741
 20
-2368.705301302994
 30
0.0
 11
6240.997744256408
 21
-2368.705301302993
 31
0.0
  0
LINE
  5
5A46A
330
5330A
100
AcDbEntity
  8
AM_5
100
AcDbLine
 10
6240.997744256408
 20
-2368.705301302993
 30
0.0
 11
6234.502484259831
 21
-2361.216259552362
 31
0.0
  0
LINE
  5
5A46B
330
5330A
100
AcDbEntity
  8
AM_5
100
AcDbLine
 10
6230.571257050828
 20
-2356.683550359047
 30
0.0
 11
6229.916052515993
 21
-2355.928098826828
 31
0.0
  0
MTEXT
  5
5A46C
330
5330A
100
AcDbEntity
  8
AM_5
 62
     2
100
AcDbMText
 10
6246.264410923075
 20
-2366.105301302995
 30
0.0
 40
3.2
 41
0.0
 71
     5
 72
     1
  1
2-\U+22054
 73
     1
 44
1.0
1001
ACAD
1000
MTEXTBEGIN
1070
    73
1070
     1
1070
    44
1040
1.0
1070
    74
1070
     0
1000
MTEXTEND
  0
LINE
  5
5A46D
330
5330A
100
AcDbEntity
  8
AM_5
100
AcDbLine
 10
6231.226461585661
 20
-2357.439001891267
 30
0.0
 11
6233.847279724997
 21
-2360.460808020143
 31
0.0
  0
INSERT
  5
5A46E
330
5330A
100
AcDbEntity
  8
AM_5
100
AcDbBlockReference
  2
_Dot
 10
6231.226461585661
 20
-2357.439001891267
 30
0.0
 50
310.9351606882967
  0
INSERT
  5
5A46F
330
5330A
100
AcDbEntity
  8
AM_5
100
AcDbBlockReference
  2
_Dot
 10
6233.847279724997
 20
-2360.460808020143
 30
0.0
 50
130.9351606882967
  0
POINT
  5
5A470
330
5330A
100
AcDbEntity
  8
Defpoints
 62
     0
100
AcDbPoint
 10
6233.847279724997
 20
-2360.460808020143
 30
0.0
  0
POINT
  5
5A471
330
5330A
100
AcDbEntity
  8
Defpoints
 62
     0
100
AcDbPoint
 10
6231.226461585661
 20
-2357.439001891267
 30
0.0
  0
ENDBLK
  5
53312
330
5330A
100
AcDbEntity
  8
0
100
AcDbBlockEnd
  0
BLOCK
  5
53330
330
53326
100
AcDbEntity
  8
0
100
AcDbBlockBegin
  2
*D21
 70
     1
 10
0.0
 20
0.0
 30
0.0
  3
*D21
  1

  0
LINE
  5
56679
330
53326
100
AcDbEntity
  8
AM_5
100
AcDbLine
 10
6232.536870655328
 20
-2363.949904955702
 30
0.0
 11
6232.536870655328
 21
-2379.699904955701
 31
0.0
  0
LINE
  5
5667A
330
53326
100
AcDbEntity
  8
AM_5
100
AcDbLine
 10
6202.799478655329
 20
-2360.949904955702
 30
0.0
 11
6202.799478655329
 21
-2379.699904955701
 31
0.0
  0
LINE
  5
5667B
330
53326
100
AcDbEntity
  8
AM_5
100
AcDbLine
 10
6231.536870655328
 20
-2378.699904955702
 30
0.0
 11
6203.799478655328
 21
-2378.699904955702
 31
0.0
  0
INSERT
  5
5667C
330
53326
100
AcDbEntity
  8
AM_5
100
AcDbBlockReference
  2
_Dot
 10
6232.536870655328
 20
-2378.699904955702
 30
0.0
  0
INSERT
  5
5667D
330
53326
100
AcDbEntity
  8
AM_5
100
AcDbBlockReference
  2
_Dot
 10
6202.799478655329
 20
-2378.699904955702
 30
0.0
 50
180.0
  0
MTEXT
  5
5667E
330
53326
100
AcDbEntity
  8
AM_5
 62
     2
100
AcDbMText
 10
6217.668174655328
 20
-2376.099904955702
 30
0.0
 40
3.200000000000001
 41
0.0
 71
     5
 72
     1
  1
（30）
 73
     1
 44
1.0
1001
ACAD
1000
MTEXTBEGIN
1070
    73
1070
     1
1070
    44
1040
1.0
1070
    74
1070
     0
1000
MTEXTEND
  0
POINT
  5
5667F
330
53326
100
AcDbEntity
  8
Defpoints
 62
     0
100
AcDbPoint
 10
6232.536870655328
 20
-2362.949904955701
 30
0.0
  0
POINT
  5
56680
330
53326
100
AcDbEntity
  8
Defpoints
 62
     0
100
AcDbPoint
 10
6202.799478655329
 20
-2359.949904955702
 30
0.0
  0
POINT
  5
56681
330
53326
100
AcDbEntity
  8
Defpoints
 62
     0
100
AcDbPoint
 10
6202.799478655329
 20
-2378.699904955702
 30
0.0
  0
ENDBLK
  5
53331
330
53326
100
AcDbEntity
  8
0
100
AcDbBlockEnd
  0
BLOCK
  5
53358
330
5334D
100
AcDbEntity
  8
0
100
AcDbBlockBegin
  2
*D22
 70
     1
 10
0.0
 20
0.0
 30
0.0
  3
*D22
  1

  0
LINE
  5
56655
330
5334D
100
AcDbEntity
  8
AM_5
100
AcDbLine
 10
6202.799478655329
 20
-2360.949904955702
 30
0.0
 11
6202.799478655329
 21
-2371.699904955702
 31
0.0
  0
LINE
  5
56656
330
5334D
100
AcDbEntity
  8
AM_5
100
AcDbLine
 10
6212.799478655328
 20
-2353.449904955702
 30
0.0
 11
6212.799478655328
 21
-2371.699904955702
 31
0.0
  0
LINE
  5
56657
330
5334D
100
AcDbEntity
  8
AM_5
100
AcDbLine
 10
6203.799478655328
 20
-2370.699904955702
 30
0.0
 11
6211.799478655328
 21
-2370.699904955702
 31
0.0
  0
INSERT
  5
56658
330
5334D
100
AcDbEntity
  8
AM_5
100
AcDbBlockReference
  2
_Dot
 10
6202.799478655329
 20
-2370.699904955702
 30
0.0
 50
180.0
  0
INSERT
  5
56659
330
5334D
100
AcDbEntity
  8
AM_5
100
AcDbBlockReference
  2
_Dot
 10
6212.799478655328
 20
-2370.699904955702
 30
0.0
  0
MTEXT
  5
5665A
330
5334D
100
AcDbEntity
  8
AM_5
 62
     2
100
AcDbMText
 10
6207.799478655328
 20
-2368.099904955702
 30
0.0
 40
3.200000000000001
 41
0.0
 71
     5
 72
     1
  1
（10）
 73
     1
 44
1.0
1001
ACAD
1000
MTEXTBEGIN
1070
    73
1070
     1
1070
    44
1040
1.0
1070
    74
1070
     0
1000
MTEXTEND
  0
POINT
  5
5665B
330
5334D
100
AcDbEntity
  8
Defpoints
 62
     0
100
AcDbPoint
 10
6202.799478655329
 20
-2359.949904955702
 30
0.0
  0
POINT
  5
5665C
330
5334D
100
AcDbEntity
  8
Defpoints
 62
     0
100
AcDbPoint
 10
6212.799478655328
 20
-2352.449904955702
 30
0.0
  0
POINT
  5
5665D
330
5334D
100
AcDbEntity
  8
Defpoints
 62
     0
100
AcDbPoint
 10
6212.799478655328
 20
-2370.699904955702
 30
0.0
  0
ENDBLK
  5
53359
330
5334D
100
AcDbEntity
  8
0
100
AcDbBlockEnd
  0
BLOCK
  5
53390
330
53389
100
AcDbEntity
  8
0
100
AcDbBlockBegin
  2
*D23
 70
     1
 10
0.0
 20
0.0
 30
0.0
  3
*D23
  1

  0
LINE
  5
5665E
330
53389
100
AcDbEntity
  8
AM_5
100
AcDbLine
 10
6186.548925147813
 20
-2366.598866611436
 30
0.0
 11
6196.082258481147
 21
-2366.598866611436
 31
0.0
  0
LINE
  5
5665F
330
53389
100
AcDbEntity
  8
AM_5
100
AcDbLine
 10
6196.082258481147
 20
-2366.598866611436
 30
0.0
 11
6201.198937499228
 21
-2358.487279190544
 31
0.0
  0
LINE
  5
56660
330
53389
100
AcDbEntity
  8
AM_5
100
AcDbLine
 10
6204.400019811427
 20
-2353.412530720861
 30
0.0
 11
6204.933533530128
 21
-2352.566739309247
 31
0.0
  0
MTEXT
  5
56661
330
53389
100
AcDbEntity
  8
AM_5
 62
     2
100
AcDbMText
 10
6190.815591814479
 20
-2363.998866611435
 30
0.0
 40
3.2
 41
0.0
 71
     5
 72
     1
  1
2-\U+22054
 73
     1
 44
1.0
1001
ACAD
1000
MTEXTBEGIN
1070
    73
1070
     1
1070
    44
1040
1.0
1070
    74
1070
     0
1000
MTEXTEND
  0
LINE
  5
56662
330
53389
100
AcDbEntity
  8
AM_5
100
AcDbLine
 10
6203.866506092728
 20
-2354.258322132475
 30
0.0
 11
6201.732451217928
 21
-2357.641487778931
 31
0.0
  0
INSERT
  5
56663
330
53389
100
AcDbEntity
  8
AM_5
100
AcDbBlockReference
  2
_Dot
 10
6203.866506092728
 20
-2354.258322132475
 30
0.0
 50
237.7568284828756
  0
INSERT
  5
56664
330
53389
100
AcDbEntity
  8
AM_5
100
AcDbBlockReference
  2
_Dot
 10
6201.732451217928
 20
-2357.641487778931
 30
0.0
 50
57.75682848287562
  0
POINT
  5
56665
330
53389
100
AcDbEntity
  8
Defpoints
 62
     0
100
AcDbPoint
 10
6201.732451217928
 20
-2357.641487778931
 30
0.0
  0
POINT
  5
56666
330
53389
100
AcDbEntity
  8
Defpoints
 62
     0
100
AcDbPoint
 10
6203.866506092728
 20
-2354.258322132475
 30
0.0
  0
ENDBLK
  5
53391
330
53389
100
AcDbEntity
  8
0
100
AcDbBlockEnd
  0
BLOCK
  5
5934E
330
59344
100
AcDbEntity
  8
0
100
AcDbBlockBegin
  2
*D24
 70
     1
 10
0.0
 20
0.0
 30
0.0
  3
*D24
  1

  0
LINE
  5
59374
330
59344
100
AcDbEntity
  8
AM_5
100
AcDbLine
 10
6233.536870655328
 20
-2362.699904955702
 30
0.0
 11
6282.036870655327
 21
-2362.699904955702
 31
0.0
  0
LINE
  5
59375
330
59344
100
AcDbEntity
  8
AM_5
100
AcDbLine
 10
6233.536870655328
 20
-2327.199904955702
 30
0.0
 11
6282.036870655327
 21
-2327.199904955702
 31
0.0
  0
LINE
  5
59376
330
59344
100
AcDbEntity
  8
AM_5
100
AcDbLine
 10
6281.036870655326
 20
-2361.699904955702
 30
0.0
 11
6281.036870655326
 21
-2328.199904955702
 31
0.0
  0
INSERT
  5
59377
330
59344
100
AcDbEntity
  8
AM_5
100
AcDbBlockReference
  2
_Dot
 10
6281.036870655326
 20
-2362.699904955702
 30
0.0
 50
270.0
  0
INSERT
  5
59378
330
59344
100
AcDbEntity
  8
AM_5
100
AcDbBlockReference
  2
_Dot
 10
6281.036870655326
 20
-2327.199904955702
 30
0.0
 50
90.0
  0
MTEXT
  5
59379
330
59344
100
AcDbEntity
  8
AM_5
 62
     2
100
AcDbMText
 10
6278.436870655327
 20
-2344.949904955702
 30
0.0
 40
3.200000000000001
 41
0.0
 71
     5
 72
     1
  1
35.5
 11
0.0000000000000001
 21
1.0
 31
0.0
 73
     1
 44
1.0
1001
ACAD
1000
MTEXTBEGIN
1070
    73
1070
     1
1070
    44
1040
1.0
1070
    74
1070
     0
1000
MTEXTEND
  0
POINT
  5
5937A
330
59344
100
AcDbEntity
  8
Defpoints
 62
     0
100
AcDbPoint
 10
6232.536870655328
 20
-2362.699904955702
 30
0.0
  0
POINT
  5
5937B
330
59344
100
AcDbEntity
  8
Defpoints
 62
     0
100
AcDbPoint
 10
6232.536870655328
 20
-2327.199904955702
 30
0.0
  0
POINT
  5
5937C
330
59344
100
AcDbEntity
  8
Defpoints
 62
     0
100
AcDbPoint
 10
6281.036870655326
 20
-2327.199904955702
 30
0.0
  0
ENDBLK
  5
5934F
330
59344
100
AcDbEntity
  8
0
100
AcDbBlockEnd
  0
ENDSEC
  0
SECTION
  2
ENTITIES
  0
TEXT
  5
31B30
330
1F
100
AcDbEntity
  8
AM_6
 60
     1
100
AcDbText
 10
3408.785415022811
 20
1879.970675238635
 30
0.0
 40
2.5
  1
!GENTITLE-INSERT
100
AcDbText
  0
TEXT
  5
31B31
330
1F
100
AcDbEntity
  8
AM_6
 60
     1
100
AcDbText
 10
3000.285415022811
 20
1871.470675238635
 30
0.0
 40
2.5
  1
!GENTITLE-LL
100
AcDbText
  0
TEXT
  5
31B32
330
1F
100
AcDbEntity
  8
AM_6
 60
     1
100
AcDbText
 10
3420.285415022811
 20
2168.470675238635
 30
0.0
 40
2.5
  1
!GENTITLE-RU
100
AcDbText
  0
TEXT
  5
31B33
330
1F
100
AcDbEntity
  8
AM_6
 60
     1
100
AcDbText
 10
3420.285415022811
 20
2168.470675238635
 30
0.0
 40
2.5
  1
!GENTITLE-MAX
100
AcDbText
  0
TEXT
  5
31B3B
330
1F
100
AcDbEntity
  8
AM_6
 60
     1
100
AcDbText
 10
3000.285415022811
 20
1871.470675238635
 30
0.0
 40
2.5
  1
!GENTITLE-LL
100
AcDbText
  0
TEXT
  5
31B3C
330
1F
100
AcDbEntity
  8
AM_6
 60
     1
100
AcDbText
 10
3408.785415022811
 20
2159.970675238636
 30
0.0
 40
2.5
  1
!GENTITLE-RU
100
AcDbText
  0
TEXT
  5
31B3D
330
1F
100
AcDbEntity
  8
AM_6
 60
     1
100
AcDbText
 10
3420.285415022811
 20
2168.470675238635
 30
0.0
 40
2.5
  1
!GENTITLE-MAX
100
AcDbText
  0
TEXT
  5
31B3E
330
1F
100
AcDbEntity
  8
AM_6
 60
     1
100
AcDbText
 10
3408.785415022811
 20
1879.970675238635
 30
0.0
 40
2.5
  1
!GENTITLE-INSERT
100
AcDbText
  0
TEXT
  5
32D1D
330
1F
100
AcDbEntity
  8
AM_6
 60
     1
100
AcDbText
 10
3234.949399973154
 20
1839.277532086519
 30
0.0
 40
2.5
  1
!GENTITLE-INSERT
100
AcDbText
  0
TEXT
  5
32D1E
330
1F
100
AcDbEntity
  8
AM_6
 60
     1
100
AcDbText
 10
3246.449399973154
 20
2040.77753208652
 30
0.0
 40
2.5
  1
!GENTITLE-MAX
100
AcDbText
  0
TEXT
  5
32D1F
330
1F
100
AcDbEntity
  8
AM_6
 60
     1
100
AcDbText
 10
3246.449399973154
 20
2040.77753208652
 30
0.0
 40
2.5
  1
!GENTITLE-RU
100
AcDbText
  0
TEXT
  5
32D21
330
1F
100
AcDbEntity
  8
AM_6
 60
     1
100
AcDbText
 10
2949.449399973154
 20
1830.777532086519
 30
0.0
 40
2.5
  1
!GENTITLE-LL
100
AcDbText
  0
TEXT
  5
34534
330
1F
100
AcDbEntity
  8
AM_6
 60
     1
100
AcDbText
 10
3774.506320898737
 20
958.0958490755065
 30
0.0
 40
2.5
  1
!GENTITLE-INSERT
100
AcDbText
  0
TEXT
  5
34535
330
1F
100
AcDbEntity
  8
AM_6
 60
     1
100
AcDbText
 10
3786.006320898738
 20
1159.595849075506
 30
0.0
 40
2.5
  1
!GENTITLE-MAX
100
AcDbText
  0
TEXT
  5
34536
330
1F
100
AcDbEntity
  8
AM_6
 60
     1
100
AcDbText
 10
3786.006320898738
 20
1159.595849075506
 30
0.0
 40
2.5
  1
!GENTITLE-RU
100
AcDbText
  0
TEXT
  5
34538
330
1F
100
AcDbEntity
  8
AM_6
 60
     1
100
AcDbText
 10
3489.006320898738
 20
949.5958490755064
 30
0.0
 40
2.5
  1
!GENTITLE-LL
100
AcDbText
  0
LINE
  5
35AD1
330
1F
100
AcDbEntity
  8
size
100
AcDbLine
 10
6074.924675701049
 20
-2250.273085584031
 30
0.0
 11
6371.924675701049
 21
-2250.273085584031
 31
0.0
1001
GENIUS_GENREC_14
1002
{
1000
PYDIR
1011
6074.924675701049
1021
-2163.273085584031
1031
0.0
1002
}
1002
{
1000
PXDIR
1011
6494.924675701049
1021
-2460.273085584031
1031
0.0
1002
}
1002
{
1000
PORI
1011
6074.924675701049
1021
-2460.273085584031
1031
0.0
1002
}
1002
{
1000
PINS
1011
6284.924675701049
1021
-2311.773085584031
1031
0.0
1002
}
1002
{
1000
HVAL
1000
297
1002
}
1002
{
1000
H
1070
     2
1002
}
1002
{
1000
WVAL
1000
420
1002
}
1002
{
1000
W
1070
     2
1002
}
1002
{
1000
C
1070
     4
1002
}
1001
GENIUS_GENOBJ-N-REC_13
1002
{
1000
OWNER
1000
GEN
1002
}
1001
GENIUS_GENODEF_13
1002
{
1000
HIER
1070
     0
1002
}
1002
{
1000
MANEDIT
1070
     0
1002
}
1002
{
1000
NOSEL
1070
     0
1002
}
1002
{
1000
BEHIND
1070
     0
1002
}
1002
{
1000
OTHER
1070
     0
1002
}
1002
{
1000
REACTOR
1002
}
  0
LINE
  5
35AD2
330
1F
100
AcDbEntity
  8
size
100
AcDbLine
 10
6371.924675701049
 20
-2250.273085584031
 30
0.0
 11
6371.924675701049
 21
-2460.273085584031
 31
0.0
1001
GENIUS_GENREC_14
1002
{
1000
PYDIR
1011
6074.924675701049
1021
-2163.273085584031
1031
0.0
1002
}
1002
{
1000
PXDIR
1011
6494.924675701049
1021
-2460.273085584031
1031
0.0
1002
}
1002
{
1000
PORI
1011
6074.924675701049
1021
-2460.273085584031
1031
0.0
1002
}
1002
{
1000
PINS
1011
6284.924675701049
1021
-2311.773085584031
1031
0.0
1002
}
1002
{
1000
HVAL
1000
297
1002
}
1002
{
1000
H
1070
     2
1002
}
1002
{
1000
WVAL
1000
420
1002
}
1002
{
1000
W
1070
     2
1002
}
1002
{
1000
C
1070
     4
1002
}
1001
GENIUS_GENOBJ-N-REC_13
1002
{
1000
OWNER
1000
GEN
1002
}
1001
GENIUS_GENODEF_13
1002
{
1000
HIER
1070
     0
1002
}
1002
{
1000
MANEDIT
1070
     0
1002
}
1002
{
1000
NOSEL
1070
     0
1002
}
1002
{
1000
BEHIND
1070
     0
1002
}
1002
{
1000
OTHER
1070
     0
1002
}
1002
{
1000
REACTOR
1002
}
  0
LINE
  5
35AD3
330
1F
100
AcDbEntity
  8
waku
100
AcDbLine
 10
6086.424675701049
 20
-2451.773085584031
 30
0.0
 11
6360.42467570105
 21
-2451.773085584031
 31
0.0
1001
GENIUS_GENREC_14
1002
{
1000
PYDIR
1011
6074.924675701049
1021
-2163.273085584031
1031
0.0
1002
}
1002
{
1000
PXDIR
1011
6494.924675701049
1021
-2460.273085584031
1031
0.0
1002
}
1002
{
1000
PORI
1011
6074.924675701049
1021
-2460.273085584031
1031
0.0
1002
}
1002
{
1000
PINS
1011
6284.924675701049
1021
-2311.773085584031
1031
0.0
1002
}
1002
{
1000
HVAL
1000
297
1002
}
1002
{
1000
H
1070
     2
1002
}
1002
{
1000
WVAL
1000
420
1002
}
1002
{
1000
W
1070
     2
1002
}
1002
{
1000
C
1070
     4
1002
}
  0
LINE
  5
35AD4
330
1F
100
AcDbEntity
  8
waku
100
AcDbLine
 10
6360.42467570105
 20
-2258.773085584031
 30
0.0
 11
6086.424675701049
 21
-2258.773085584031
 31
0.0
1001
GENIUS_GENREC_14
1002
{
1000
PYDIR
1011
5951.92467570105
1021
-2250.273085584031
1031
0.0
1002
}
1002
{
1000
PXDIR
1011
6371.924675701049
1021
-2547.273085584031
1031
0.0
1002
}
1002
{
1000
PORI
1011
5951.92467570105
1021
-2547.273085584031
1031
0.0
1002
}
1002
{
1000
PINS
1011
6161.92467570105
1021
-2398.773085584031
1031
0.0
1002
}
1002
{
1000
HVAL
1000
297
1002
}
1002
{
1000
H
1070
     2
1002
}
1002
{
1000
WVAL
1000
420
1002
}
1002
{
1000
W
1070
     2
1002
}
1002
{
1000
C
1070
     4
1002
}
1001
GENIUS_GENOBJ-N-REC_13
1002
{
1000
OWNER
1000
GEN
1002
}
1001
GENIUS_GENODEF_13
1002
{
1000
HIER
1070
     0
1002
}
1002
{
1000
MANEDIT
1070
     0
1002
}
1002
{
1000
NOSEL
1070
     0
1002
}
1002
{
1000
BEHIND
1070
     0
1002
}
1002
{
1000
OTHER
1070
     0
1002
}
1002
{
1000
REACTOR
1002
}
  0
LINE
  5
35AD5
330
1F
100
AcDbEntity
  8
waku
100
AcDbLine
 10
6086.424675701049
 20
-2258.773085584031
 30
0.0
 11
6086.424675701049
 21
-2451.773085584031
 31
0.0
1001
GENIUS_GENREC_14
1002
{
1000
PYDIR
1011
6074.924675701049
1021
-2163.273085584031
1031
0.0
1002
}
1002
{
1000
PXDIR
1011
6494.924675701049
1021
-2460.273085584031
1031
0.0
1002
}
1002
{
1000
PORI
1011
6074.924675701049
1021
-2460.273085584031
1031
0.0
1002
}
1002
{
1000
PINS
1011
6284.924675701049
1021
-2311.773085584031
1031
0.0
1002
}
1002
{
1000
HVAL
1000
297
1002
}
1002
{
1000
H
1070
     2
1002
}
1002
{
1000
WVAL
1000
420
1002
}
1002
{
1000
W
1070
     2
1002
}
1002
{
1000
C
1070
     4
1002
}
1001
GENIUS_GENOBJ-N-REC_13
1002
{
1000
OWNER
1000
GEN
1002
}
1001
GENIUS_GENODEF_13
1002
{
1000
HIER
1070
     0
1002
}
1002
{
1000
MANEDIT
1070
     0
1002
}
1002
{
1000
NOSEL
1070
     0
1002
}
1002
{
1000
BEHIND
1070
     0
1002
}
1002
{
1000
OTHER
1070
     0
1002
}
1002
{
1000
REACTOR
1002
}
  0
LINE
  5
35AD6
330
1F
100
AcDbEntity
  8
waku
100
AcDbLine
 10
6360.42467570105
 20
-2451.773085584031
 30
0.0
 11
6360.42467570105
 21
-2258.773085584031
 31
0.0
1001
GENIUS_GENREC_14
1002
{
1000
PYDIR
1011
5951.92467570105
1021
-2244.273085584031
1031
0.0
1002
}
1002
{
1000
PXDIR
1011
6371.924675701049
1021
-2541.273085584031
1031
0.0
1002
}
1002
{
1000
PORI
1011
5951.92467570105
1021
-2541.273085584031
1031
0.0
1002
}
1002
{
1000
PINS
1011
6161.92467570105
1021
-2392.773085584031
1031
0.0
1002
}
1002
{
1000
HVAL
1000
297
1002
}
1002
{
1000
H
1070
     2
1002
}
1002
{
1000
WVAL
1000
420
1002
}
1002
{
1000
W
1070
     2
1002
}
1002
{
1000
C
1070
     4
1002
}
1001
GENIUS_GENOBJ-N-REC_13
1002
{
1000
OWNER
1000
GEN
1002
}
1001
GENIUS_GENODEF_13
1002
{
1000
HIER
1070
     0
1002
}
1002
{
1000
MANEDIT
1070
     0
1002
}
1002
{
1000
NOSEL
1070
     0
1002
}
1002
{
1000
BEHIND
1070
     0
1002
}
1002
{
1000
OTHER
1070
     0
1002
}
1002
{
1000
REACTOR
1002
}
  0
LINE
  5
35AD7
330
1F
100
AcDbEntity
  8
size
100
AcDbLine
 10
6074.924675701049
 20
-2250.273085584031
 30
0.0
 11
6074.924675701049
 21
-2460.273085584031
 31
0.0
1001
GENIUS_GENREC_14
1002
{
1000
PYDIR
1011
6074.924675701049
1021
-2163.273085584031
1031
0.0
1002
}
1002
{
1000
PXDIR
1011
6494.924675701049
1021
-2460.273085584031
1031
0.0
1002
}
1002
{
1000
PORI
1011
6074.924675701049
1021
-2460.273085584031
1031
0.0
1002
}
1002
{
1000
PINS
1011
6284.924675701049
1021
-2311.773085584031
1031
0.0
1002
}
1002
{
1000
HVAL
1000
297
1002
}
1002
{
1000
H
1070
     2
1002
}
1002
{
1000
WVAL
1000
420
1002
}
1002
{
1000
W
1070
     2
1002
}
1002
{
1000
C
1070
     4
1002
}
1001
GENIUS_GENOBJ-N-REC_13
1002
{
1000
OWNER
1000
GEN
1002
}
1001
GENIUS_GENODEF_13
1002
{
1000
HIER
1070
     0
1002
}
1002
{
1000
MANEDIT
1070
     0
1002
}
1002
{
1000
NOSEL
1070
     0
1002
}
1002
{
1000
BEHIND
1070
     0
1002
}
1002
{
1000
OTHER
1070
     0
1002
}
1002
{
1000
REACTOR
1002
}
  0
LINE
  5
35AD8
330
1F
100
AcDbEntity
  8
size
100
AcDbLine
 10
6074.924675701049
 20
-2460.273085584031
 30
0.0
 11
6371.924675701049
 21
-2460.273085584031
 31
0.0
1001
GENIUS_GENREC_14
1002
{
1000
PYDIR
1011
6074.924675701049
1021
-2163.273085584031
1031
0.0
1002
}
1002
{
1000
PXDIR
1011
6494.924675701049
1021
-2460.273085584031
1031
0.0
1002
}
1002
{
1000
PORI
1011
6074.924675701049
1021
-2460.273085584031
1031
0.0
1002
}
1002
{
1000
PINS
1011
6284.924675701049
1021
-2311.773085584031
1031
0.0
1002
}
1002
{
1000
HVAL
1000
297
1002
}
1002
{
1000
H
1070
     2
1002
}
1002
{
1000
WVAL
1000
420
1002
}
1002
{
1000
W
1070
     2
1002
}
1002
{
1000
C
1070
     4
1002
}
1001
GENIUS_GENOBJ-N-REC_13
1002
{
1000
OWNER
1000
GEN
1002
}
1001
GENIUS_GENODEF_13
1002
{
1000
HIER
1070
     0
1002
}
1002
{
1000
MANEDIT
1070
     0
1002
}
1002
{
1000
NOSEL
1070
     0
1002
}
1002
{
1000
BEHIND
1070
     0
1002
}
1002
{
1000
OTHER
1070
     0
1002
}
1002
{
1000
REACTOR
1002
}
  0
LINE
  5
35AD9
330
1F
100
AcDbEntity
  8
AM_2
370
    13
100
AcDbLine
 10
6106.424675701049
 20
-2258.773085584031
 30
0.0
 11
6106.424675701048
 21
-2290.773085584031
 31
0.0
  0
LINE
  5
35ADA
330
1F
100
AcDbEntity
  8
AM_2
370
    13
100
AcDbLine
 10
6086.424675701049
 20
-2266.773085584031
 30
0.0
 11
6173.424675701049
 21
-2266.773085584031
 31
0.0
  0
LINE
  5
35ADB
330
1F
100
AcDbEntity
  8
AM_2
370
    13
100
AcDbLine
 10
6086.424675701049
 20
-2274.773085584031
 30
0.0
 11
6173.424675701049
 21
-2274.773085584031
 31
0.0
  0
LINE
  5
35ADC
330
1F
100
AcDbEntity
  8
AM_2
370
    13
100
AcDbLine
 10
6086.424675701049
 20
-2282.773085584031
 30
0.0
 11
6173.424675701049
 21
-2282.773085584031
 31
0.0
  0
LINE
  5
35ADD
330
1F
100
AcDbEntity
  8
AM_1
100
AcDbLine
 10
6086.424675701049
 20
-2290.773085584031
 30
0.0
 11
6173.424675701049
 21
-2290.773085584031
 31
0.0
  0
LINE
  5
35ADE
330
1F
100
AcDbEntity
  8
AM_1
100
AcDbLine
 10
6086.424675701049
 20
-2258.773085584031
 30
0.0
 11
6086.42467570105
 21
-2290.773085584032
 31
0.0
  0
LINE
  5
35ADF
330
1F
100
AcDbEntity
  8
AM_1
100
AcDbLine
 10
6086.424675701049
 20
-2258.773085584031
 30
0.0
 11
6173.424675701049
 21
-2258.773085584031
 31
0.0
  0
LINE
  5
35AE0
330
1F
100
AcDbEntity
  8
AM_1
100
AcDbLine
 10
6173.424675701049
 20
-2258.773085584031
 30
0.0
 11
6173.424675701049
 21
-2290.773085584031
 31
0.0
  0
TEXT
  5
35AE1
330
1F
100
AcDbEntity
  8
AM_6
100
AcDbText
 10
6092.08167570105
 20
-2264.373085584031
 30
0.0
 40
3.2
  1
品　名
 41
0.85537027
100
AcDbText
  0
TEXT
  5
35AE2
330
1F
100
AcDbEntity
  8
AM_6
100
AcDbText
 10
6092.08167570105
 20
-2272.373085584031
 30
0.0
 40
3.2
  1
品　番
 41
0.85537027
100
AcDbText
  0
TEXT
  5
35AE3
330
1F
100
AcDbEntity
  8
AM_6
100
AcDbText
 10
6092.08167570105
 20
-2280.373085584031
 30
0.0
 40
3.2
  1
材　質
 41
0.85537027
100
AcDbText
  0
TEXT
  5
35AE4
330
1F
100
AcDbEntity
  8
AM_6
100
AcDbText
 10
6092.08167570105
 20
-2288.373085584031
 30
0.0
 40
3.2
  1
仕上げ
 41
0.85537027
100
AcDbText
  0
TEXT
  5
35AE5
330
1F
100
AcDbEntity
  8
AM_6
100
AcDbText
 10
6109.281675701049
 20
-2264.373085584031
 30
0.0
 40
3.2
  1
パチン錠
 41
0.84306961
100
AcDbText
  0
TEXT
  5
35AE6
330
1F
100
AcDbEntity
  8
AM_6
100
AcDbText
 10
6109.281675701049
 20
-2272.373085584031
 30
0.0
 40
3.2
  1
ELP-111
 41
0.84741102
100
AcDbText
  0
TEXT
  5
35AE7
330
1F
100
AcDbEntity
  8
AM_6
100
AcDbText
 10
6109.281675701049
 20
-2280.373085584031
 30
0.0
 40
3.2
  1
ステンレス
 41
0.84634979
100
AcDbText
  0
TEXT
  5
35AE8
330
1F
100
AcDbEntity
  8
AM_6
100
AcDbText
 10
6109.281675701049
 20
-2288.373085584031
 30
0.0
 40
3.2
  1
バレル研磨
 41
0.84350122
100
AcDbText
  0
TEXT
  5
4E0E8
330
1F
100
AcDbEntity
  8
AM_6
 60
     1
100
AcDbText
 10
5957.394900433246
 20
-5651.939004350452
 30
0.0
 40
2.5
  1
!GENTITLE-INSERT
100
AcDbText
  0
TEXT
  5
4E0E9
330
1F
100
AcDbEntity
  8
AM_6
 60
     1
100
AcDbText
 10
5548.894900433246
 20
-5660.439004350451
 30
0.0
 40
2.5
  1
!GENTITLE-LL
100
AcDbText
  0
TEXT
  5
4E0EA
330
1F
100
AcDbEntity
  8
AM_6
 60
     1
100
AcDbText
 10
5968.894900433246
 20
-5363.439004350452
 30
0.0
 40
2.5
  1
!GENTITLE-RU
100
AcDbText
  0
TEXT
  5
4E0EB
330
1F
100
AcDbEntity
  8
AM_6
 60
     1
100
AcDbText
 10
5968.894900433246
 20
-5363.439004350452
 30
0.0
 40
2.5
  1
!GENTITLE-MAX
100
AcDbText
  0
TEXT
  5
4E0F3
330
1F
100
AcDbEntity
  8
AM_6
 60
     1
100
AcDbText
 10
5548.894900433246
 20
-5660.439004350451
 30
0.0
 40
2.5
  1
!GENTITLE-LL
100
AcDbText
  0
TEXT
  5
4E0F4
330
1F
100
AcDbEntity
  8
AM_6
 60
     1
100
AcDbText
 10
5957.394900433246
 20
-5371.939004350451
 30
0.0
 40
2.5
  1
!GENTITLE-RU
100
AcDbText
  0
TEXT
  5
4E0F5
330
1F
100
AcDbEntity
  8
AM_6
 60
     1
100
AcDbText
 10
5968.894900433246
 20
-5363.439004350452
 30
0.0
 40
2.5
  1
!GENTITLE-MAX
100
AcDbText
  0
TEXT
  5
4E0F6
330
1F
100
AcDbEntity
  8
AM_6
 60
     1
100
AcDbText
 10
5957.394900433246
 20
-5651.939004350452
 30
0.0
 40
2.5
  1
!GENTITLE-INSERT
100
AcDbText
  0
LINE
  5
507FE
330
1F
100
AcDbEntity
  8
0部品1
100
AcDbLine
 10
6217.036870655328
 20
-2351.449904955702
 30
0.0
 11
6217.036870655328
 21
-2352.949904955702
 31
0.0
  0
LINE
  5
50800
330
1F
100
AcDbEntity
  8
0部品1
100
AcDbLine
 10
6217.036870655328
 20
-2336.949904955702
 30
0.0
 11
6217.036870655328
 21
-2338.449904955702
 31
0.0
  0
ARC
  5
50801
330
1F
100
AcDbEntity
  8
0部品1
100
AcDbCircle
 10
6195.005620655329
 20
-2344.949904955702
 30
0.0
 40
30.53125
100
AcDbArc
 50
345.2952410000038
 51
14.70475899999621
  0
LINE
  5
50802
330
1F
100
AcDbEntity
  8
0部品1
100
AcDbLine
 10
6224.890311655327
 20
-2351.449904955702
 30
0.0
 11
6217.036870655328
 21
-2351.449904955702
 31
0.0
  0
LINE
  5
50803
330
1F
100
AcDbEntity
  8
0部品1
100
AcDbLine
 10
6224.890311655327
 20
-2338.449904955702
 30
0.0
 11
6217.036870655328
 21
-2338.449904955702
 31
0.0
  0
LINE
  5
50804
330
1F
100
AcDbEntity
  8
0部品1
100
AcDbLine
 10
6247.536870655328
 20
-2336.949904955702
 30
0.0
 11
6247.536870655328
 21
-2352.949904955702
 31
0.0
  0
LINE
  5
50805
330
1F
100
AcDbEntity
  8
0部品1
100
AcDbLine
 10
6217.036870655328
 20
-2336.949904955702
 30
0.0
 11
6247.536870655328
 21
-2336.949904955702
 31
0.0
  0
ARC
  5
50806
330
1F
100
AcDbEntity
  8
0部品1
100
AcDbCircle
 10
6228.266037655328
 20
-2344.949904955702
 30
0.0
 40
20.770833
100
AcDbArc
 50
338.0918750000397
 51
21.90812499996032
  0
LINE
  5
50807
330
1F
100
AcDbEntity
  8
0部品1
100
AcDbLine
 10
6217.036870655328
 20
-2352.949904955702
 30
0.0
 11
6247.536870655328
 21
-2352.949904955702
 31
0.0
  0
LINE
  5
50808
330
1F
100
AcDbEntity
  8
0部品3
100
AcDbLine
 10
6219.536870655328
 20
-2353.449904955702
 30
0.0
 11
6222.536870655329
 21
-2353.449904955702
 31
0.0
  0
LINE
  5
50809
330
1F
100
AcDbEntity
  8
0部品3
100
AcDbLine
 10
6219.036870655328
 20
-2336.449904955702
 30
0.0
 11
6223.036870655328
 21
-2336.449904955702
 31
0.0
  0
LINE
  5
5080A
330
1F
100
AcDbEntity
  8
0部品3
100
AcDbLine
 10
6219.036870655328
 20
-2336.949904955702
 30
0.0
 11
6223.036870655328
 21
-2336.949904955702
 31
0.0
  0
LINE
  5
5080B
330
1F
100
AcDbEntity
  8
0部品3
100
AcDbLine
 10
6219.036870655328
 20
-2336.949904955702
 30
0.0
 11
6219.036870655328
 21
-2336.449904955702
 31
0.0
  0
LINE
  5
5080C
330
1F
100
AcDbEntity
  8
0部品3
100
AcDbLine
 10
6223.036870655328
 20
-2336.949904955702
 30
0.0
 11
6223.036870655328
 21
-2336.449904955702
 31
0.0
  0
LINE
  5
5080D
330
1F
100
AcDbEntity
  8
0部品3
100
AcDbLine
 10
6219.286870655328
 20
-2353.449904955702
 30
0.0
 11
6222.786870655328
 21
-2353.449904955702
 31
0.0
  0
LINE
  5
5080E
330
1F
100
AcDbEntity
  8
0部品3
100
AcDbLine
 10
6219.286870655328
 20
-2352.949904955702
 30
0.0
 11
6219.286870655328
 21
-2353.449904955702
 31
0.0
  0
LINE
  5
5080F
330
1F
100
AcDbEntity
  8
0部品3
100
AcDbLine
 10
6222.786870655328
 20
-2352.949904955702
 30
0.0
 11
6222.786870655328
 21
-2353.449904955702
 31
0.0
  0
ARC
  5
50810
330
1F
100
AcDbEntity
  8
0部品4
100
AcDbCircle
 10
6226.536870655328
 20
-2336.449904955702
 30
0.0
 40
1.0
100
AcDbArc
 50
0.0
 51
90.0
  0
ARC
  5
50811
330
1F
100
AcDbEntity
  8
0部品4
100
AcDbCircle
 10
6226.536870655328
 20
-2353.449904955702
 30
0.0
 40
1.0
100
AcDbArc
 50
270.0
 51
0.0
  0
LINE
  5
50812
330
1F
100
AcDbEntity
  8
0部品4
100
AcDbLine
 10
6212.036870655328
 20
-2354.449904955702
 30
0.0
 11
6226.536870655328
 21
-2354.449904955702
 31
0.0
  0
ARC
  5
50813
330
1F
100
AcDbEntity
  8
0部品4
100
AcDbCircle
 10
6212.036870655328
 20
-2353.449904955702
 30
0.0
 40
1.0
100
AcDbArc
 50
180.0
 51
270.0
  0
LINE
  5
50814
330
1F
100
AcDbEntity
  8
0部品4
100
AcDbLine
 10
6212.036870655328
 20
-2335.449904955702
 30
0.0
 11
6226.536870655328
 21
-2335.449904955702
 31
0.0
  0
ARC
  5
50815
330
1F
100
AcDbEntity
  8
0部品4
100
AcDbCircle
 10
6212.036870655328
 20
-2336.449904955702
 30
0.0
 40
1.0
100
AcDbArc
 50
90.0
 51
180.0
  0
ARC
  5
50816
330
1F
100
AcDbEntity
  8
0部品4
100
AcDbCircle
 10
6226.536870655328
 20
-2336.449904955702
 30
0.0
 40
3.0
100
AcDbArc
 50
0.0
 51
90.0
  0
LINE
  5
50817
330
1F
100
AcDbEntity
  8
0部品4
100
AcDbLine
 10
6212.036870655328
 20
-2333.449904955702
 30
0.0
 11
6226.536870655328
 21
-2333.449904955702
 31
0.0
  0
ARC
  5
50818
330
1F
100
AcDbEntity
  8
0部品4
100
AcDbCircle
 10
6212.036870655328
 20
-2336.449904955702
 30
0.0
 40
3.0
100
AcDbArc
 50
90.0
 51
180.0
  0
ARC
  5
50819
330
1F
100
AcDbEntity
  8
0部品4
100
AcDbCircle
 10
6212.036870655328
 20
-2353.449904955702
 30
0.0
 40
3.0
100
AcDbArc
 50
180.0
 51
270.0
  0
LINE
  5
5081A
330
1F
100
AcDbEntity
  8
0部品4
100
AcDbLine
 10
6212.036870655328
 20
-2356.449904955702
 30
0.0
 11
6226.536870655328
 21
-2356.449904955702
 31
0.0
  0
ARC
  5
5081B
330
1F
100
AcDbEntity
  8
0部品4
100
AcDbCircle
 10
6226.536870655328
 20
-2353.449904955702
 30
0.0
 40
3.0
100
AcDbArc
 50
270.0
 51
0.0
  0
LINE
  5
50824
330
1F
100
AcDbEntity
  8
0部品4
100
AcDbLine
 10
6211.036870655328
 20
-2353.449904955702
 30
0.0
 11
6211.036870655328
 21
-2352.449904955702
 31
0.0
  0
LINE
  5
50825
330
1F
100
AcDbEntity
  8
0部品4
100
AcDbLine
 10
6211.036870655328
 20
-2337.449904955702
 30
0.0
 11
6211.036870655328
 21
-2336.449904955702
 31
0.0
  0
LINE
  5
50826
330
1F
100
AcDbEntity
  8
0部品4
100
AcDbLine
 10
6209.036870655328
 20
-2353.449904955702
 30
0.0
 11
6209.036870655328
 21
-2352.449904955702
 31
0.0
  0
LINE
  5
50827
330
1F
100
AcDbEntity
  8
0部品4
100
AcDbLine
 10
6209.036870655328
 20
-2337.449904955702
 30
0.0
 11
6209.036870655328
 21
-2336.449904955702
 31
0.0
  0
LINE
  5
50828
330
1F
100
AcDbEntity
  8
0部品2
100
AcDbLine
 10
6217.676842002546
 20
-2336.949904955702
 30
0.0
 11
6219.596754489243
 21
-2335.449904955703
 31
0.0
  0
LINE
  5
50829
330
1F
100
AcDbEntity
  8
0部品2
100
AcDbLine
 10
6217.676842007862
 20
-2352.949904955702
 30
0.0
 11
6219.596754655327
 21
-2354.449904955702
 31
0.0
  0
LINE
  5
5082A
330
1F
100
AcDbEntity
  8
0部品4
100
AcDbLine
 10
6229.536870655328
 20
-2353.449904955702
 30
0.0
 11
6229.536870655328
 21
-2352.949904955702
 31
0.0
  0
LINE
  5
5082B
330
1F
100
AcDbEntity
  8
0部品4
100
AcDbLine
 10
6229.536870655328
 20
-2336.949904955702
 30
0.0
 11
6229.536870655328
 21
-2336.449904955702
 31
0.0
  0
LINE
  5
5082C
330
1F
100
AcDbEntity
  8
0部品4
100
AcDbLine
 10
6227.536870655328
 20
-2353.449904955702
 30
0.0
 11
6227.536870655328
 21
-2352.949904955702
 31
0.0
  0
LINE
  5
5082D
330
1F
100
AcDbEntity
  8
0部品4
100
AcDbLine
 10
6227.536870655328
 20
-2336.949904955702
 30
0.0
 11
6227.536870655328
 21
-2336.449904955702
 31
0.0
  0
LINE
  5
50830
330
1F
100
AcDbEntity
  8
0部品6
  6
中心線1
 48
0.3
370
    13
100
AcDbLine
 10
6202.799478655329
 20
-2359.949904955702
 30
0.0
 11
6202.799478655329
 21
-2329.949904955702
 31
0.0
  0
CIRCLE
  5
50831
330
1F
100
AcDbEntity
  8
0部品6
100
AcDbCircle
 10
6202.799478655329
 20
-2333.949904955701
 30
0.0
 40
2.0
  0
CIRCLE
  5
50832
330
1F
100
AcDbEntity
  8
0部品6
100
AcDbCircle
 10
6202.799478655329
 20
-2355.949904955702
 30
0.0
 40
2.0
  0
LINE
  5
50833
330
1F
100
AcDbEntity
  8
0部品6
100
AcDbLine
 10
6198.799478655327
 20
-2355.949904955702
 30
0.0
 11
6198.799478655327
 21
-2333.949904955701
 31
0.0
  0
ARC
  5
50834
330
1F
100
AcDbEntity
  8
0部品6
100
AcDbCircle
 10
6202.799478655329
 20
-2355.949904955702
 30
0.0
 40
4.0
100
AcDbArc
 50
180.0
 51
270.0
  0
LINE
  5
50835
330
1F
100
AcDbEntity
  8
0部品6
100
AcDbLine
 10
6212.799478655328
 20
-2352.449904955702
 30
0.0
 11
6212.799478655328
 21
-2337.449904955702
 31
0.0
  0
LINE
  5
50836
330
1F
100
AcDbEntity
  8
0部品6
100
AcDbLine
 10
6207.799478655328
 20
-2337.449904955702
 30
0.0
 11
6212.799478655328
 21
-2337.449904955702
 31
0.0
  0
LINE
  5
50837
330
1F
100
AcDbEntity
  8
0部品6
100
AcDbLine
 10
6207.799478655328
 20
-2352.449904955702
 30
0.0
 11
6212.799478655328
 21
-2352.449904955702
 31
0.0
  0
ARC
  5
50839
330
1F
100
AcDbEntity
  8
0部品6
100
AcDbCircle
 10
6202.799478655329
 20
-2333.949904955701
 30
0.0
 40
4.0
100
AcDbArc
 50
90.56528100000335
 51
180.0
  0
LINE
  5
5083A
330
1F
100
AcDbEntity
  8
0部品6
100
AcDbLine
 10
6207.799478655328
 20
-2337.449904955702
 30
0.0
 11
6207.799478655328
 21
-2352.449904955702
 31
0.0
  0
LINE
  5
5083B
330
1F
100
AcDbEntity
  8
0部品6
  6
中心線1
 48
0.3
370
    13
100
AcDbLine
 10
6198.799478655327
 20
-2333.949904955701
 30
0.0
 11
6206.799478655328
 21
-2333.949904955701
 31
0.0
  0
LINE
  5
5083C
330
1F
100
AcDbEntity
  8
0部品6
  6
中心線1
 48
0.3
370
    13
100
AcDbLine
 10
6198.799478655327
 20
-2355.949904955702
 30
0.0
 11
6206.799478655328
 21
-2355.949904955702
 31
0.0
  0
LINE
  5
5083E
330
1F
100
AcDbEntity
  8
0部品6
100
AcDbLine
 10
6208.799478655328
 20
-2352.449904955702
 30
0.0
 11
6206.379120655328
 21
-2357.640377955701
 31
0.0
  0
ARC
  5
5083F
330
1F
100
AcDbEntity
  8
0部品6
100
AcDbCircle
 10
6202.753889655328
 20
-2355.949904955702
 30
0.0
 40
4.0
100
AcDbArc
 50
270.0
 51
335.0000000000199
  0
LINE
  5
50840
330
1F
100
AcDbEntity
  8
0部品6
100
AcDbLine
 10
6208.799478655328
 20
-2337.449904955702
 30
0.0
 11
6206.379120655328
 21
-2332.259431955701
 31
0.0
  0
ARC
  5
50841
330
1F
100
AcDbEntity
  8
0部品6
100
AcDbCircle
 10
6202.753889655328
 20
-2333.949904955701
 30
0.0
 40
4.0
100
AcDbArc
 50
24.99999999998007
 51
90.0
  0
LINE
  5
50845
330
1F
100
AcDbEntity
  8
0部品2
100
AcDbLine
 10
6217.036870655328
 20
-2405.764661955702
 30
0.0
 11
6236.536870655328
 21
-2405.764661955702
 31
0.0
  0
LINE
  5
50846
330
1F
100
AcDbEntity
  8
0部品2
100
AcDbLine
 10
6217.036870655328
 20
-2404.264661955702
 30
0.0
 11
6236.536870655328
 21
-2404.264661955702
 31
0.0
  0
LINE
  5
50848
330
1F
100
AcDbEntity
  8
0部品2
  6
中心線1
 48
0.3
370
    13
100
AcDbLine
 10
6232.536870655328
 20
-2401.264661955701
 30
0.0
 11
6232.536870655328
 21
-2408.764661955702
 31
0.0
  0
LINE
  5
5084B
330
1F
100
AcDbEntity
  8
0部品1
100
AcDbLine
 10
6221.536870655328
 20
-2394.264661955702
 30
0.0
 11
6224.536870655328
 21
-2394.264661955702
 31
0.0
  0
LINE
  5
5084D
330
1F
100
AcDbEntity
  8
0部品1
100
AcDbLine
 10
6225.536870655329
 20
-2392.764661955702
 30
0.0
 11
6247.536870655328
 21
-2392.764661955702
 31
0.0
  0
LINE
  5
5084E
330
1F
100
AcDbEntity
  8
0部品1
100
AcDbLine
 10
6224.536870655328
 20
-2394.264661955702
 30
0.0
 11
6225.536870655329
 21
-2392.764661955702
 31
0.0
  0
LINE
  5
50850
330
1F
100
AcDbEntity
  8
0部品1
100
AcDbLine
 10
6221.536870655328
 20
-2403.264661955702
 30
0.0
 11
6236.036870655328
 21
-2403.264661955702
 31
0.0
  0
ARC
  5
50851
330
1F
100
AcDbEntity
  8
0部品1
100
AcDbCircle
 10
6245.404367655328
 20
-2406.764661955702
 30
0.0
 40
10.0
100
AcDbArc
 50
90.0
 51
159.5126850000167
  0
LINE
  5
50852
330
1F
100
AcDbEntity
  8
0部品1
100
AcDbLine
 10
6245.404367655328
 20
-2396.764661955702
 30
0.0
 11
6245.536870655328
 21
-2396.764661955702
 31
0.0
  0
LINE
  5
50853
330
1F
100
AcDbEntity
  8
0部品1
100
AcDbLine
 10
6247.536870655328
 20
-2392.764661955702
 30
0.0
 11
6247.536870655328
 21
-2394.764661955702
 31
0.0
  0
ARC
  5
50854
330
1F
100
AcDbEntity
  8
0部品1
100
AcDbCircle
 10
6245.536870655328
 20
-2394.764661955702
 30
0.0
 40
2.0
100
AcDbArc
 50
270.0
 51
0.0
  0
ARC
  5
50855
330
1F
100
AcDbEntity
  8
0部品1
100
AcDbCircle
 10
6228.536870655329
 20
-2399.764661955702
 30
0.0
 40
1.25
100
AcDbArc
 50
209.068650679656
 51
102.7765452833662
  0
LINE
  5
50858
330
1F
100
AcDbEntity
  8
0部品1
100
AcDbLine
 10
6247.536870655328
 20
-2394.264661955702
 30
0.0
 11
6249.036870655328
 21
-2393.764661955702
 31
0.0
  0
LINE
  5
50859
330
1F
100
AcDbEntity
  8
0部品1
100
AcDbLine
 10
6247.536870655328
 20
-2392.764661955702
 30
0.0
 11
6248.378756655328
 21
-2392.484032955701
 31
0.0
  0
LINE
  5
5085A
330
1F
100
AcDbEntity
  8
0部品1
100
AcDbLine
 10
6249.036870655328
 20
-2392.958374955702
 30
0.0
 11
6249.036870655328
 21
-2393.764661955702
 31
0.0
  0
ARC
  5
5085B
330
1F
100
AcDbEntity
  8
0部品1
100
AcDbCircle
 10
6248.536870655328
 20
-2392.958374955702
 30
0.0
 40
0.5
100
AcDbArc
 50
0.0
 51
108.4349489999991
  0
ARC
  5
5085C
330
1F
100
AcDbEntity
  8
0部品4
100
AcDbCircle
 10
6228.536870655329
 20
-2399.764661955702
 30
0.0
 40
1.0
100
AcDbArc
 50
244.7519790427611
 51
64.7519787190603
  0
ARC
  5
5085D
330
1F
100
AcDbEntity
  8
0部品4
100
AcDbCircle
 10
6210.107268655328
 20
-2401.377042955701
 30
0.0
 40
1.0
100
AcDbArc
 50
125.2873556129893
 51
305.2480131036385
  0
ARC
  5
50861
330
1F
100
AcDbEntity
  8
0部品4
100
AcDbCircle
 10
6220.704577655328
 20
-2416.372990955701
 30
0.0
 40
17.3625
100
AcDbArc
 50
64.75198499996934
 51
125.2480150000124
  0
ARC
  5
50862
330
1F
100
AcDbEntity
  8
0部品4
100
AcDbCircle
 10
6220.704577655328
 20
-2416.372990955701
 30
0.0
 40
19.3625
100
AcDbArc
 50
64.75198499996934
 51
125.2500462285249
  0
LINE
  5
50863
330
1F
100
AcDbEntity
  8
0部品6
100
AcDbLine
 10
6198.799478655327
 20
-2404.264661955702
 30
0.0
 11
6198.799478655327
 21
-2405.764661955702
 31
0.0
  0
LINE
  5
50864
330
1F
100
AcDbEntity
  8
0部品6
100
AcDbLine
 10
6198.799478655327
 20
-2405.764661955702
 30
0.0
 11
6209.049478655328
 21
-2405.764661955702
 31
0.0
  0
LINE
  5
50866
330
1F
100
AcDbEntity
  8
0部品6
100
AcDbLine
 10
6198.799478655327
 20
-2404.264661955702
 30
0.0
 11
6209.049478655328
 21
-2404.264661955702
 31
0.0
  0
LINE
  5
50867
330
1F
100
AcDbEntity
  8
0部品6
100
AcDbLine
 10
6207.799478655328
 20
-2398.264661955701
 30
0.0
 11
6209.049478655328
 21
-2398.264661955701
 31
0.0
  0
LINE
  5
50868
330
1F
100
AcDbEntity
  8
0部品6
100
AcDbLine
 10
6207.799478655328
 20
-2398.264661955701
 30
0.0
 11
6207.799478655328
 21
-2399.764661955702
 31
0.0
  0
LINE
  5
50869
330
1F
100
AcDbEntity
  8
0部品6
100
AcDbLine
 10
6207.799478655328
 20
-2399.764661955702
 30
0.0
 11
6209.049478655328
 21
-2399.764661955702
 31
0.0
  0
LINE
  5
5086A
330
1F
100
AcDbEntity
  8
0部品6
100
AcDbLine
 10
6208.799478655328
 20
-2404.264661955702
 30
0.0
 11
6208.799478655328
 21
-2405.764661955702
 31
0.0
  0
ARC
  5
5086C
330
1F
100
AcDbEntity
  8
0部品6
100
AcDbCircle
 10
6209.049478655328
 20
-2402.014661955702
 30
0.0
 40
3.75
100
AcDbArc
 50
270.0
 51
14.52462400001554
  0
ARC
  5
5086D
330
1F
100
AcDbEntity
  8
0部品6
100
AcDbCircle
 10
6209.049478655328
 20
-2402.014661955702
 30
0.0
 40
3.75
100
AcDbArc
 50
47.39388899997613
 51
90.0
  0
ARC
  5
5086E
330
1F
100
AcDbEntity
  8
0部品6
100
AcDbCircle
 10
6209.049478655328
 20
-2402.014661955702
 30
0.0
 40
2.25
100
AcDbArc
 50
270.0
 51
5.833672999972563
  0
ARC
  5
5086F
330
1F
100
AcDbEntity
  8
0部品6
100
AcDbCircle
 10
6209.049478655328
 20
-2402.014661955702
 30
0.0
 40
2.25
100
AcDbArc
 50
58.61227299998663
 51
90.0
  0
ARC
  5
50870
330
1F
100
AcDbEntity
  8
0部品1
100
AcDbCircle
 10
6221.536870655328
 20
-2398.764661955702
 30
0.0
 40
4.5
100
AcDbArc
 50
90.0
 51
160.1619090000052
  0
ARC
  5
50871
330
1F
100
AcDbEntity
  8
0部品1
100
AcDbCircle
 10
6221.536870655328
 20
-2398.764661955702
 30
0.0
 40
4.5
100
AcDbArc
 50
188.0243930000011
 51
270.0
  0
LINE
  5
50872
330
1F
100
AcDbEntity
  8
0部品2
100
AcDbLine
 10
6217.036870655328
 20
-2394.764661955702
 30
0.0
 11
6217.036870655328
 21
-2397.333018955701
 31
0.0
  0
LINE
  5
50873
330
1F
100
AcDbEntity
  8
0部品2
100
AcDbLine
 10
6217.036870655328
 20
-2399.365259955701
 30
0.0
 11
6217.036870655328
 21
-2405.764661955702
 31
0.0
  0
LINE
  5
50874
330
1F
100
AcDbEntity
  8
0部品2
100
AcDbLine
 10
6236.536870655328
 20
-2402.142162955701
 30
0.0
 11
6236.536870655328
 21
-2405.764661955702
 31
0.0
  0
LINE
  5
50875
330
1F
100
AcDbEntity
  8
0部品2
100
AcDbLine
 10
6217.036870655328
 20
-2394.764661955702
 30
0.0
 11
6219.475318655327
 21
-2394.764661955702
 31
0.0
  0
ARC
  5
50877
330
1F
100
AcDbEntity
  8
0部品3
100
AcDbCircle
 10
6221.036870655328
 20
-2398.764661955702
 30
0.0
 40
1.5
100
AcDbArc
 50
190.8882550000231
 51
346.9495040000167
  0
LINE
  5
5087C
330
1F
100
AcDbEntity
  8
0部品6
  6
中心線1
 48
0.5
370
    13
100
AcDbLine
 10
6195.463856655328
 20
-2344.949904955702
 30
0.0
 11
6252.036870655327
 21
-2344.949904955702
 31
0.0
  0
LINE
  5
50880
330
1F
100
AcDbEntity
  8
0部品2
  6
中心線1
 48
0.3
370
    13
100
AcDbLine
 10
6228.536870655329
 20
-2358.949904955702
 30
0.0
 11
6236.536870655328
 21
-2358.949904955702
 31
0.0
  0
CIRCLE
  5
50881
330
1F
100
AcDbEntity
  8
0部品2
100
AcDbCircle
 10
6232.536870655328
 20
-2358.949904955702
 30
0.0
 40
2.0
  0
CIRCLE
  5
50883
330
1F
100
AcDbEntity
  8
0部品2
100
AcDbCircle
 10
6232.536870655328
 20
-2330.949904955701
 30
0.0
 40
2.0
  0
LINE
  5
50888
330
1F
100
AcDbEntity
  8
0部品2
100
AcDbLine
 10
6236.536870655328
 20
-2358.699904955702
 30
0.0
 11
6236.536870655328
 21
-2352.949904955702
 31
0.0
  0
LINE
  5
50889
330
1F
100
AcDbEntity
  8
0部品2
100
AcDbLine
 10
6232.173553655328
 20
-2362.699904955702
 30
0.0
 11
6232.536870655328
 21
-2362.699904955702
 31
0.0
  0
ARC
  5
5088A
330
1F
100
AcDbEntity
  8
0部品2
100
AcDbCircle
 10
6232.173553655328
 20
-2358.699904955702
 30
0.0
 40
4.0
100
AcDbArc
 50
232.0000000000002
 51
270.0
  0
ARC
  5
5088B
330
1F
100
AcDbEntity
  8
0部品2
100
AcDbCircle
 10
6232.173553655328
 20
-2331.199904955702
 30
0.0
 40
4.0
100
AcDbArc
 50
87.3970379999819
 51
127.9999999999998
  0
ARC
  5
5088C
330
1F
100
AcDbEntity
  8
0部品2
100
AcDbCircle
 10
6232.536870655328
 20
-2331.199904955702
 30
0.0
 40
4.0
100
AcDbArc
 50
0.0
 51
92.60296200001809
  0
LINE
  5
5088D
330
1F
100
AcDbEntity
  8
0部品2
100
AcDbLine
 10
6222.156637655328
 20
-2333.449904955702
 30
0.0
 11
6229.710907655328
 21
-2328.047861955702
 31
0.0
  0
LINE
  5
5088E
330
1F
100
AcDbEntity
  8
0部品2
100
AcDbLine
 10
6222.134049855504
 20
-2356.449904955702
 30
0.0
 11
6229.710907655328
 21
-2361.851947955702
 31
0.0
  0
LINE
  5
5088F
330
1F
100
AcDbEntity
  8
0部品2
  6
中心線1
 48
0.3
370
    13
100
AcDbLine
 10
6232.536870655328
 20
-2362.949904955701
 30
0.0
 11
6232.536870655328
 21
-2354.949904955702
 31
0.0
  0
ARC
  5
50891
330
1F
100
AcDbEntity
  8
0部品2
100
AcDbCircle
 10
6232.536870655328
 20
-2358.699904955702
 30
0.0
 40
4.0
100
AcDbArc
 50
270.0
 51
0.0
  0
TEXT
  5
5183F
330
1F
100
AcDbEntity
  8
AM_6
 60
     1
100
AcDbText
 10
5973.602012689372
 20
109.7385382224183
 30
0.0
 40
2.5
  1
!GENTITLE-INSERT
100
AcDbText
  0
TEXT
  5
51840
330
1F
100
AcDbEntity
  8
AM_6
 60
     1
100
AcDbText
 10
5565.102012689372
 20
101.2385382224183
 30
0.0
 40
2.5
  1
!GENTITLE-LL
100
AcDbText
  0
TEXT
  5
51841
330
1F
100
AcDbEntity
  8
AM_6
 60
     1
100
AcDbText
 10
5985.102012689372
 20
398.2385382224184
 30
0.0
 40
2.5
  1
!GENTITLE-RU
100
AcDbText
  0
TEXT
  5
51842
330
1F
100
AcDbEntity
  8
AM_6
 60
     1
100
AcDbText
 10
5985.102012689372
 20
398.2385382224184
 30
0.0
 40
2.5
  1
!GENTITLE-MAX
100
AcDbText
  0
TEXT
  5
5184A
330
1F
100
AcDbEntity
  8
AM_6
 60
     1
100
AcDbText
 10
5565.102012689372
 20
101.2385382224183
 30
0.0
 40
2.5
  1
!GENTITLE-LL
100
AcDbText
  0
TEXT
  5
5184B
330
1F
100
AcDbEntity
  8
AM_6
 60
     1
100
AcDbText
 10
5973.602012689372
 20
389.7385382224184
 30
0.0
 40
2.5
  1
!GENTITLE-RU
100
AcDbText
  0
TEXT
  5
5184C
330
1F
100
AcDbEntity
  8
AM_6
 60
     1
100
AcDbText
 10
5985.102012689372
 20
398.2385382224184
 30
0.0
 40
2.5
  1
!GENTITLE-MAX
100
AcDbText
  0
TEXT
  5
5184D
330
1F
100
AcDbEntity
  8
AM_6
 60
     1
100
AcDbText
 10
5973.602012689372
 20
109.7385382224183
 30
0.0
 40
2.5
  1
!GENTITLE-INSERT
100
AcDbText
  0
LINE
  5
53115
330
1F
100
AcDbEntity
  8
0部品2
100
AcDbLine
 10
6236.536870655328
 20
-2336.949904955702
 30
0.0
 11
6236.536870655328
 21
-2331.199904955702
 31
0.0
  0
LINE
  5
53116
330
1F
100
AcDbEntity
  8
0部品2
100
AcDbLine
 10
6217.036870655328
 20
-2351.449904955702
 30
0.0
 11
6217.036870655328
 21
-2338.449904955702
 31
0.0
  0
LINE
  5
5311A
330
1F
100
AcDbEntity
  8
0部品2
  6
中心線1
 48
0.3
370
    13
100
AcDbLine
 10
6228.536870655329
 20
-2330.949904955701
 30
0.0
 11
6236.536870655328
 21
-2330.949904955701
 31
0.0
  0
LINE
  5
5311B
330
1F
100
AcDbEntity
  8
0部品2
  6
中心線1
 48
0.3
370
    13
100
AcDbLine
 10
6232.536870655328
 20
-2334.949904955702
 30
0.0
 11
6232.536870655328
 21
-2326.949904955702
 31
0.0
  0
LINE
  5
53123
330
1F
100
AcDbEntity
  8
0部品6
  6
中心線1
 48
0.3
370
    13
100
AcDbLine
 10
6202.799478655329
 20
-2401.264661955702
 30
0.0
 11
6202.799478655329
 21
-2408.764661955702
 31
0.0
  0
DIMENSION
  5
53126
330
1F
100
AcDbEntity
  8
AM_5
100
AcDbDimension
  2
*D7
 10
6217.036870655328
 20
-2319.199904955702
 30
0.0
 11
6233.036870655327
 21
-2319.199904955702
 31
0.0
 70
   160
  1
（<>）
 71
     5
 42
31.99999999999909
  3
SYS$0
100
AcDbAlignedDimension
 13
6249.036870655327
 23
-2344.949904955702
 33
0.0
 14
6217.036870655328
 24
-2336.949904955702
 34
0.0
100
AcDbRotatedDimension
  0
DIMENSION
  5
5314E
330
1F
100
AcDbEntity
  8
AM_5
100
AcDbDimension
  2
*D8
 10
6265.036870655326
 20
-2333.449904955702
 30
0.0
 11
6265.036870655327
 21
-2344.9499049557
 31
0.0
 70
   160
  1
（<>）
 71
     5
 42
23.0
  3
SYS$0
100
AcDbAlignedDimension
 13
6226.536870655328
 23
-2356.449904955702
 33
0.0
 14
6226.536870655328
 24
-2333.449904955702
 34
0.0
 50
90.0
100
AcDbRotatedDimension
  0
DIMENSION
  5
53188
330
1F
100
AcDbEntity
  8
AM_5
100
AcDbDimension
  2
*D9
 10
6257.036870655326
 20
-2336.949904955702
 30
0.0
 11
6257.036870655327
 21
-2344.9499049557
 31
0.0
 70
   160
 71
     5
 42
16.0
  3
SYS$0
100
AcDbAlignedDimension
 13
6247.536870655328
 23
-2352.949904955702
 33
0.0
 14
6247.536870655328
 24
-2336.949904955702
 34
0.0
 50
90.0
100
AcDbRotatedDimension
  0
DIMENSION
  5
5319E
330
1F
100
AcDbEntity
  8
AM_5
100
AcDbDimension
  2
*D10
 10
6273.036870655326
 20
-2330.949904955701
 30
0.0
 11
6273.036870655327
 21
-2344.9499049557
 31
0.0
 70
   160
 71
     5
 42
28.0
  3
SYS$0
100
AcDbAlignedDimension
 13
6236.529050510996
 23
-2358.949904955702
 33
0.0
 14
6236.536870655328
 24
-2330.949904955701
 34
0.0
 50
90.0
100
AcDbRotatedDimension
  0
DIMENSION
  5
531BD
330
1F
100
AcDbEntity
  8
AM_5
100
AcDbDimension
  2
*D11
 10
6212.799478655328
 20
-2319.199904955702
 30
0.0
 11
6205.799478655328
 21
-2319.199904955702
 31
0.0
 70
   160
  1
（<>）
 71
     5
 42
14.0
  3
SYS$0
100
AcDbAlignedDimension
 13
6198.799478655327
 23
-2333.949904955701
 33
0.0
 14
6212.799478655328
 24
-2337.449904955702
 34
0.0
100
AcDbRotatedDimension
  0
DIMENSION
  5
531E5
330
1F
100
AcDbEntity
  8
AM_5
100
AcDbDimension
  2
*D12
 10
6182.799478655327
 20
-2359.949904955701
 30
0.0
 11
6182.799478655328
 21
-2344.949904955702
 31
0.0
 70
   160
 71
     5
 42
29.99999999999909
  3
SYS$0
100
AcDbAlignedDimension
 13
6202.753889655328
 23
-2329.949904955702
 33
0.0
 14
6202.753889655328
 24
-2359.949904955701
 34
0.0
 50
90.0
100
AcDbRotatedDimension
  0
DIMENSION
  5
531FB
330
1F
100
AcDbEntity
  8
AM_5
100
AcDbDimension
  2
*D13
 10
6190.799478655327
 20
-2355.949904955702
 30
0.0
 11
6190.799478655328
 21
-2344.9499049557
 31
0.0
 70
   160
 71
     5
 42
22.0
  3
SYS$0
100
AcDbAlignedDimension
 13
6198.799478655327
 23
-2333.949904955701
 33
0.0
 14
6198.799478655327
 24
-2355.949904955702
 34
0.0
 50
90.0
100
AcDbRotatedDimension
  0
DIMENSION
  5
53211
330
1F
100
AcDbEntity
  8
AM_5
100
AcDbDimension
  2
*D14
 10
6211.425405665486
 20
-2354.449904955702
 30
0.0
 11
6211.425405665487
 21
-2361.209904955701
 31
0.0
 70
   160
  1
%%c<>
 71
     5
 42
2.0
  3
SYS$0
100
AcDbAlignedDimension
 13
6219.286870655328
 23
-2356.449904955702
 33
0.0
 14
6217.286870655328
 24
-2354.449904955702
 34
0.0
 50
90.0
100
AcDbRotatedDimension
  0
DIMENSION
  5
5324C
330
1F
100
AcDbEntity
  8
AM_5
100
AcDbDimension
  2
*D15
 10
6257.036870655326
 20
-2392.764661955702
 30
0.0
 11
6257.036870655327
 21
-2399.2646619557
 31
0.0
 70
   160
  1
（<>）
 71
     5
 42
13.0
  3
SYS$0
100
AcDbAlignedDimension
 13
6236.536870655328
 23
-2405.764661955702
 33
0.0
 14
6247.536870655328
 24
-2392.764661955702
 34
0.0
 50
90.0
100
AcDbRotatedDimension
  0
DIMENSION
  5
5327D
330
1F
100
AcDbEntity
  8
AM_5
100
AcDbDimension
  2
*D16
 10
6249.036870655326
 20
-2404.264661955703
 30
0.0
 11
6249.036870655327
 21
-2410.951328622367
 31
0.0
 70
   160
  1
<>
 71
     5
 42
1.49999999999909
  3
SYS$0
100
AcDbAlignedDimension
 13
6236.536870655328
 23
-2405.764661955702
 33
0.0
 14
6236.536870655328
 24
-2404.264661955703
 34
0.0
 50
90.0
100
AcDbRotatedDimension
  0
DIMENSION
  5
532B7
330
1F
100
AcDbEntity
  8
AM_5
100
AcDbDimension
  2
*D17
 10
6182.799478655327
 20
-2398.264661955701
 30
0.0
 11
6182.799478655328
 21
-2402.0146619557
 31
0.0
 70
   160
 71
     5
 42
7.5
  3
SYS$0
100
AcDbAlignedDimension
 13
6198.799478655327
 23
-2405.764661955702
 33
0.0
 14
6207.799478655328
 24
-2398.264661955701
 34
0.0
 50
90.0
100
AcDbRotatedDimension
  0
DIMENSION
  5
532CE
330
1F
100
AcDbEntity
  8
AM_5
100
AcDbDimension
  2
*D18
 10
6190.799478655327
 20
-2404.264661955702
 30
0.0
 11
6190.799478655328
 21
-2410.951328622367
 31
0.0
 70
   160
 71
     5
 42
1.5
  3
SYS$0
100
AcDbAlignedDimension
 13
6198.799478655327
 23
-2405.764661955702
 33
0.0
 14
6198.799478655327
 24
-2404.264661955702
 34
0.0
 50
90.0
100
AcDbRotatedDimension
  0
DIMENSION
  5
532F3
330
1F
100
AcDbEntity
  8
AM_5
100
AcDbDimension
  2
*D19
 10
6217.036870655328
 20
-2370.699904955702
 30
0.0
 11
6224.786870655329
 21
-2370.699904955702
 31
0.0
 70
   160
 71
     5
 42
15.5
  3
SYS$0
100
AcDbAlignedDimension
 13
6232.536870655328
 23
-2362.949904955701
 33
0.0
 14
6217.036870655328
 24
-2352.949904955702
 34
0.0
100
AcDbRotatedDimension
  0
DIMENSION
  5
53309
330
1F
100
AcDbEntity
  8
AM_5
100
AcDbDimension
  2
*D20
 10
6231.226461585661
 20
-2357.439001891267
 30
0.0
 11
6246.264410923075
 21
-2368.705301302995
 31
0.0
 70
   163
  1
2-<>
 71
     5
 42
3.999999999998181
  3
SYS$3
100
AcDbDiametricDimension
 15
6233.847279724997
 25
-2360.460808020143
 35
0.0
 40
0.0
1001
ACAD
1000
DSTYLE
1002
{
1070
    41
1040
1.0
1070
   172
1070
     1
1070
   342
1005
6C4
1002
}
  0
DIMENSION
  5
53325
330
1F
100
AcDbEntity
  8
AM_5
100
AcDbDimension
  2
*D21
 10
6202.799478655329
 20
-2378.699904955702
 30
0.0
 11
6217.668174655328
 21
-2378.699904955702
 31
0.0
 70
   160
  1
（<>）
 71
     5
 42
29.737392
  3
SYS$0
100
AcDbAlignedDimension
 13
6232.536870655328
 23
-2362.949904955701
 33
0.0
 14
6202.799478655329
 24
-2359.949904955702
 34
0.0
100
AcDbRotatedDimension
1001
ACAD
1000
DSTYLE
1002
{
1070
   271
1070
     0
1002
}
  0
DIMENSION
  5
5334C
330
1F
100
AcDbEntity
  8
AM_5
100
AcDbDimension
  2
*D22
 10
6212.799478655328
 20
-2370.699904955702
 30
0.0
 11
6207.799478655328
 21
-2370.699904955702
 31
0.0
 70
   160
  1
（<>）
 71
     5
 42
10.0
  3
SYS$0
100
AcDbAlignedDimension
 13
6202.799478655329
 23
-2359.949904955702
 33
0.0
 14
6212.799478655328
 24
-2352.449904955702
 34
0.0
100
AcDbRotatedDimension
  0
DIMENSION
  5
53388
330
1F
100
AcDbEntity
  8
AM_5
100
AcDbDimension
  2
*D23
 10
6203.866506092728
 20
-2354.258322132475
 30
0.0
 11
6190.815591814479
 21
-2366.598866611436
 31
0.0
 70
   163
  1
2-<>
 71
     5
 42
4.000000000002273
  3
SYS$3
100
AcDbDiametricDimension
 15
6201.732451217928
 25
-2357.641487778931
 35
0.0
 40
0.0
1001
ACAD
1000
DSTYLE
1002
{
1070
    41
1040
1.0
1070
   172
1070
     1
1070
   342
1005
6C4
1002
}
  0
DIMENSION
  5
59343
330
1F
100
AcDbEntity
  8
AM_5
100
AcDbDimension
  2
*D24
 10
6281.036870655326
 20
-2327.199904955702
 30
0.0
 11
6281.036870655327
 21
-2344.949904955702
 31
0.0
 70
   160
 71
     5
 42
35.5
  3
SYS$0
100
AcDbAlignedDimension
 13
6232.536870655328
 23
-2362.699904955702
 33
0.0
 14
6232.536870655328
 24
-2327.199904955702
 34
0.0
 50
90.0
100
AcDbRotatedDimension
  0
ENDSEC
  0
SECTION
  2
OBJECTS
  0
DICTIONARY
  5
C
330
0
100
AcDbDictionary
281
     1
  3
ACAD_2007HEADERVARS_RT
350
5B2EF
  3
ACAD_BGPLOT_KEY
350
AB06
  3
ACAD_COLOR
350
A91D
  3
ACAD_GROUP
350
D
  3
ACAD_LAYOUT
350
1A
  3
ACAD_MATERIAL
350
A91C
  3
ACAD_MLINESTYLE
350
17
  3
ACAD_PLOTSETTINGS
350
19
  3
ACAD_PLOTSTYLENAME
350
E
  3
ACAD_TABLESTYLE
350
AAB9
  3
ACAD_VISUALSTYLE
350
B0F1
  3
AcAsAppObject
350
3DA1
  3
ACASGREF_MASTER
350
3DE9
  3
AcDbVariableDictionary
350
34
  3
AcmDictionary
350
47
  3
AD_GREF_MODULE
350
3DEA
  3
AD_MAPI_MODULE
350
3E06
  3
AMG
350
2B
  3
AMGSNAPSETTINGS
350
7D
  3
ASE_INDEX_DICTIONARY
350
57912
  3
DWGPROPS
350
5B2EE
  3
MAPISURF_MODULE
350
3DEB
  0
DICTIONARY
  5
3F95
330
2
100
AcDbDictionary
280
     1
281
     1
  3
ACAD_LAYERFILTERS
360
5369F
  3
ACAD_LAYERSTATES
360
3F96
  3
ACLYDICTIONARY
360
5369E
  3
AMLAYER_GROUPCOLORS
360
AAB4
  0
DICTIONARY
  5
2E416
330
2E415
100
AcDbDictionary
280
     1
281
     1
  3
ADSK_XREC_LAYER_RECONCILED
360
2E417
  0
DICTIONARY
  5
8A
330
1F
100
AcDbDictionary
280
     1
281
     1
  3
ACAD_SORTENTS
360
B1BA
  0
DICTIONARY
  5
5B2EF
102
{ACAD_REACTORS
330
C
102
}
330
C
100
AcDbDictionary
281
     1
  3
DIMARCSYM
350
5B2F0
  0
DICTIONARY
  5
AB06
102
{ACAD_REACTORS
330
C
102
}
330
C
100
AcDbDictionary
280
     1
281
     1
  0
DICTIONARY
  5
A91D
102
{ACAD_REACTORS
330
C
102
}
330
C
100
AcDbDictionary
281
     1
  0
DICTIONARY
  5
D
102
{ACAD_REACTORS
330
C
102
}
330
C
100
AcDbDictionary
281
     1
  0
DICTIONARY
  5
1A
102
{ACAD_REACTORS
330
C
102
}
330
C
100
AcDbDictionary
281
     1
  3
Model
350
22
  3
ﾚｲｱｳﾄ1
350
1E
  3
ﾚｲｱｳﾄ2
350
26
  0
DICTIONARY
  5
A91C
102
{ACAD_REACTORS
330
C
102
}
330
C
100
AcDbDictionary
281
     1
  3
ByBlock
350
B0EF
  3
ByLayer
350
B0EE
  3
Global
350
B0F0
  0
DICTIONARY
  5
17
102
{ACAD_REACTORS
330
C
102
}
330
C
100
AcDbDictionary
281
     1
  3
Standard
350
18
  0
DICTIONARY
  5
19
102
{ACAD_REACTORS
330
C
102
}
330
C
100
AcDbDictionary
281
     1
  0
ACDBDICTIONARYWDFLT
  5
E
102
{ACAD_REACTORS
330
C
102
}
330
C
100
AcDbDictionary
281
     1
  3
Normal
350
F
100
AcDbDictionaryWithDefault
340
F
  0
DICTIONARY
  5
AAB9
102
{ACAD_REACTORS
330
C
102
}
330
C
100
AcDbDictionary
281
     1
  3
Standard
350
AABA
  0
DICTIONARY
  5
B0F1
102
{ACAD_REACTORS
330
C
102
}
330
C
100
AcDbDictionary
281
     1
  3
2dWireframe
350
B0F7
  3
3D Hidden
350
B0F9
  3
3dWireframe
350
B0F8
  3
Basic
350
B0F6
  3
Brighten
350
B0FD
  3
ColorChange
350
B101
  3
Conceptual
350
B0FA
  3
Dim
350
B0FC
  3
Facepattern
350
B100
  3
Flat
350
B0F2
  3
FlatWithEdges
350
B0F3
  3
Gouraud
350
B0F4
  3
GouraudWithEdges
350
B0F5
  3
Linepattern
350
B0FF
  3
Realistic
350
B0FB
  3
Thicken
350
B0FE
  0
ACAD_PROXY_OBJECT
  5
3DA1
102
{ACAD_REACTORS
330
C
102
}
330
C
100
AcDbProxyObject
 90
      499
 91
      576
 95
   917527
 70
     0
 93
       10
310
407F
 94
        0
1001
ACAD
1000
AcRTDxfName
1000
ASAPP
  0
ACAD_PROXY_OBJECT
  5
3DE9
102
{ACAD_REACTORS
330
C
102
}
330
C
100
AcDbProxyObject
 90
      499
 91
      581
 95
   917527
 70
     0
 93
       34
310
010000407F
 94
        0
1001
ACAD
1000
AcRTDxfName
1000
ACASGREFMASTER
  0
DICTIONARY
  5
34
102
{ACAD_REACTORS
330
C
102
}
330
C
100
AcDbDictionary
281
     1
  3
CTABLESTYLE
350
AAF3
  3
DIMASSOC
350
A10C
  3
FIELDEVAL
350
AB07
  3
INDEXCTL
350
35
  3
SORTENTS
350
194C
  0
DICTIONARY
  5
47
102
{ACAD_REACTORS
330
C
102
}
330
C
100
AcDbDictionary
281
     1
  3
AcmBOM
350
7E8
  3
AcmStdDictionary
350
4C
  3
AMDTSECTSYM_ARROWCOLOR
350
A929
  0
ACAD_PROXY_OBJECT
  5
3DEA
102
{ACAD_REACTORS
330
C
102
}
330
C
100
AcDbProxyObject
 90
      499
 91
      582
 95
   917527
 70
     0
 93
      114
310
00000043800000000000000000003F
 94
        0
1001
ACAD
1000
AcRTDxfName
1000
ACADGREFMODULE
  0
ACAD_PROXY_OBJECT
  5
3E06
102
{ACAD_REACTORS
330
C
102
}
330
C
100
AcDbProxyObject
 90
      499
 91
      594
 95
   917527
 70
     0
 93
       34
310
05000044FF
 94
        0
1001
ACAD
1000
AcRTDxfName
1000
MAPIADMODULE
  0
DICTIONARY
  5
2B
102
{ACAD_REACTORS
330
C
102
}
330
C
100
AcDbDictionary
281
     1
  0
DICTIONARY
  5
7D
102
{ACAD_REACTORS
330
C
102
}
330
C
100
AcDbDictionary
281
     1
  0
DICTIONARY
  5
57912
102
{ACAD_REACTORS
330
C
102
}
330
C
100
AcDbDictionary
281
     1
  3
ASEBlockHierarchyIndexRecord
350
57913
1001
DCO15
1040
1757428023.343
  0
XRECORD
  5
5B2EE
102
{ACAD_REACTORS
330
C
102
}
330
C
100
AcDbXrecord
280
     1
  1
DWGPROPS COOKIE
  2

  3

  4

  6

  7

  8
Administrator
  9

300
AmdtFileType=84
301
=
302
=
303
=
304
=
305
=
306
=
307
=
308
=
309
=
 40
7.821209629629629
 41
2455567.680725081
 42
2456267.735503831
  1

 90
        1
  0
ACAD_PROXY_OBJECT
  5
3DEB
102
{ACAD_REACTORS
330
C
102
}
330
C
100
AcDbProxyObject
 90
      499
 91
      583
 95
   917527
 70
     0
 93
        8
310
047E
 94
        0
1001
ACAD
1000
AcRTDxfName
1000
AMDTMAPISURFMOUDULE
  0
DICTIONARY
  5
5369F
102
{ACAD_REACTORS
330
3F95
102
}
330
3F95
100
AcDbDictionary
281
     1
  0
DICTIONARY
  5
3F96
102
{ACAD_REACTORS
330
3F95
102
}
330
3F95
100
AcDbDictionary
281
     1
  3
20011210
350
3FB7
  0
DICTIONARY
  5
5369E
102
{ACAD_REACTORS
330
3F95
102
}
330
3F95
100
AcDbDictionary
281
     1
1001
ACAD
1000
<All
  0
DICTIONARY
  5
AAB4
102
{ACAD_REACTORS
330
3F95
102
}
330
3F95
100
AcDbDictionary
280
     1
281
     1
  0
XRECORD
  5
2E417
102
{ACAD_REACTORS
330
2E416
102
}
330
2E416
100
AcDbXrecord
280
     1
290
     1
  0
SORTENTSTABLE
  5
B1BA
102
{ACAD_REACTORS
330
8A
102
}
330
8A
100
AcDbSortentsTable
330
1F
331
532F3
  5
537C5
331
53325
  5
537C7
331
31B30
  5
32738
331
31B31
  5
32739
331
35AE0
  5
362B0
331
31B32
  5
3273A
331
35AE1
  5
362B1
331
31B33
  5
3273B
331
53388
  5
53832
331
35AE2
  5
362B2
331
5327D
  5
53707
331
34534
  5
3454C
331
35AE3
  5
362B3
331
34535
  5
3454D
331
35AE4
  5
362B4
331
34536
  5
3454E
331
35AE5
  5
362B5
331
35AE6
  5
362B6
331
4E0E8
  5
4E1D3
331
35AE7
  5
362B7
331
34538
  5
34550
331
50808
  5
50841
331
4E0E9
  5
4E1D4
331
35AE8
  5
362B8
331
50809
  5
50845
331
50828
  5
50866
331
4E0EA
  5
4E1D5
331
53309
  5
537C6
331
31B3B
  5
3273C
331
50848
  5
5088D
331
5080A
  5
50846
331
50829
  5
50867
331
4E0EB
  5
4E1D6
331
31B3C
  5
3273D
331
5080B
  5
50848
331
5082A
  5
50869
331
31B3D
  5
3273E
331
5080C
  5
50849
331
5082B
  5
5086A
331
31B3E
  5
3273F
331
5080D
  5
5084A
331
5082C
  5
5086C
331
5084B
  5
50891
331
59343
  5
5976B
331
532CE
  5
5370B
331
5334C
  5
5380D
331
5080E
  5
5084B
331
5082D
  5
5086D
331
5080F
  5
5084D
331
5084D
  5
50BE7
331
50880
  5
50C11
331
50861
  5
50BFA
331
5084E
  5
50BE8
331
50810
  5
5084E
331
35AD1
  5
362A1
331
50862
  5
50BFB
331
50881
  5
50C12
331
50830
  5
5086E
331
51840
  5
B5AE
331
50811
  5
50850
331
35AD2
  5
362A2
331
50863
  5
50BFC
331
50831
  5
50870
331
50850
  5
50BE9
331
51841
  5
B5E2
331
4E0F3
  5
4E1DE
331
50812
  5
50851
331
35AD3
  5
362A3
331
50864
  5
50BFF
331
50883
  5
50C13
331
50832
  5
50872
331
50851
  5
50BEA
331
51842
  5
B5E3
331
4E0F4
  5
4E1DF
331
50813
  5
50852
331
32D1D
  5
32D3A
331
35AD4
  5
362A4
331
50833
  5
50873
331
50852
  5
50BEC
331
4E0F5
  5
4E1E0
331
50814
  5
50853
331
35AD5
  5
362A5
331
32D1E
  5
32D3B
331
50866
  5
50C00
331
50834
  5
50874
331
50853
  5
50BEE
331
4E0F6
  5
4E1E1
331
50815
  5
50854
331
53123
  5
5334C
331
532B7
  5
53708
331
35AD6
  5
362A6
331
32D1F
  5
32D3C
331
50835
  5
50875
331
50854
  5
50BEF
331
50816
  5
50855
331
50867
  5
50C01
331
35AD7
  5
362A7
331
50836
  5
50876
331
50855
  5
50BF0
331
50868
  5
50C02
331
50817
  5
50856
331
35AD8
  5
362A8
331
32D21
  5
32D3E
331
50888
  5
50C14
331
50837
  5
50877
331
50869
  5
50C03
331
50818
  5
50858
331
53126
  5
53388
331
35AD9
  5
362A9
331
50889
  5
50C16
331
5086A
  5
50C04
331
50819
  5
5085A
331
35ADA
  5
362AA
331
50839
  5
5087C
331
50858
  5
50BF3
331
5088A
  5
50C17
331
5081A
  5
5085B
331
35ADB
  5
362AB
331
53188
  5
53487
331
5184A
  5
B8D5
331
5083A
  5
50880
331
50859
  5
50BF4
331
5081B
  5
5085C
331
5086C
  5
50C05
331
5088B
  5
50C18
331
35ADC
  5
362AC
331
5184B
  5
B8D6
331
5083B
  5
50881
331
5085A
  5
50BF5
331
5086D
  5
50C06
331
5088C
  5
50C19
331
35ADD
  5
362AD
331
5184C
  5
B8D7
331
5083C
  5
50882
331
5085B
  5
50BF7
331
507FE
  5
50837
331
5086E
  5
50C07
331
5088D
  5
50C1A
331
35ADE
  5
362AE
331
5184D
  5
B8D8
331
5085C
  5
50BF8
331
5086F
  5
50C08
331
5088E
  5
50C1B
331
35ADF
  5
362AF
331
5088F
  5
50C1C
331
5083E
  5
50883
331
5085D
  5
50BF9
331
50800
  5
50839
331
50870
  5
50C09
331
531FB
  5
53696
331
5083F
  5
50888
331
50801
  5
5083A
331
50871
  5
50C0A
331
531BD
  5
5362D
331
50891
  5
50C1D
331
50840
  5
50889
331
50802
  5
5083B
331
50872
  5
50C0B
331
5324C
  5
53706
331
50841
  5
5088A
331
50803
  5
5083C
331
50873
  5
50C0C
331
50804
  5
5083D
331
50874
  5
50C0D
331
50824
  5
5085D
331
50805
  5
5083E
331
50875
  5
50C0E
331
50825
  5
50861
331
50806
  5
5083F
331
53115
  5
50C15
331
50845
  5
5088B
331
50807
  5
50840
331
50826
  5
50863
331
50877
  5
50C0F
331
50846
  5
5088C
331
50827
  5
50864
331
53116
  5
532F3
331
5314E
  5
53486
331
5087C
  5
50C10
331
5311A
  5
53309
331
5311B
  5
53325
331
53211
  5
536A2
331
5183F
  5
B5AD
331
5319E
  5
535F2
331
531E5
  5
53695
  0
XRECORD
  5
5B2F0
102
{ACAD_REACTORS
330
5B2EF
102
}
330
5B2EF
100
AcDbXrecord
280
     1
 70
     1
  0
LAYOUT
  5
22
102
{ACAD_XDICTIONARY
360
5B2F3
102
}
102
{ACAD_REACTORS
330
1A
102
}
330
1A
100
AcDbPlotSettings
  1

  2
FX DocuWide 2050/2051
  4
A3
  6
AM_VIEW1
 40
3.174999952316284
 41
3.174999952316284
 42
3.17498779296875
 43
3.17498779296875
 44
296.989501953125
 45
419.9889831542968
 46
0.0
 47
1.295841228961961
 48
214.3704939521119
 49
367.5855324241176
140
275.6727856380065
141
407.629191407817
142
1.0
143
0.7225445603030646
 70
  3764
 72
     1
 73
     1
 74
     2
  7
monochrome.ctb
 75
     0
147
1.383997686703999
148
-1700.85588156276
149
-1647.985052086429
100
AcDbLayout
  1
Model
 70
     1
 71
     0
 10
0.0
 20
0.0
 11
12.0
 21
9.0
 12
0.0
 22
0.0
 32
0.0
 14
0.0
 24
0.0
 34
0.0
 15
0.0
 25
0.0
 35
0.0
146
0.0
 13
0.0
 23
0.0
 33
0.0
 16
1.0
 26
0.0
 36
0.0
 17
0.0
 27
1.0
 37
0.0
 76
     0
330
1F
331
B0EC
1001
ACAD_PSEXT
1000
FX DocuWide 2050/2051
1000
FX DocuWide 2050/2051
1000
IP_192.200.15.252
1000

1070
     0
  0
LAYOUT
  5
1E
102
{ACAD_XDICTIONARY
360
5B2F1
102
}
102
{ACAD_REACTORS
330
1A
102
}
330
1A
100
AcDbPlotSettings
  1

  2
\\ML370\XEROX
  4
A4
  6

 40
3.174999952316284
 41
3.174999952316284
 42
3.175003051757812
 43
3.17498779296875
 44
209.8674926757813
 45
296.6719970703125
 46
0.0
 47
0.0
 48
0.0
 49
0.0
140
0.0
141
0.0
142
1.0
143
1.0
 70
   688
 72
     1
 73
     1
 74
     5
  7
monochrome.ctb
 75
    16
147
1.0
148
0.0
149
0.0
100
AcDbLayout
  1
ﾚｲｱｳﾄ1
 70
     1
 71
     1
 10
-3.17498779296875
 20
-3.174999952316284
 11
293.4970092773438
 21
206.692492723465
 12
0.0
 22
0.0
 32
0.0
 14
1.000000000000000E+20
 24
1.000000000000000E+20
 34
1.000000000000000E+20
 15
-1.000000000000000E+20
 25
-1.000000000000000E+20
 35
-1.000000000000000E+20
146
0.0
 13
0.0
 23
0.0
 33
0.0
 16
1.0
 26
0.0
 36
0.0
 17
0.0
 27
1.0
 37
0.0
 76
     0
330
1B
  0
LAYOUT
  5
26
102
{ACAD_XDICTIONARY
360
5B2F5
102
}
102
{ACAD_REACTORS
330
1A
102
}
330
1A
100
AcDbPlotSettings
  1

  2
\\ML370\XEROX
  4

  6

 40
0.0
 41
0.0
 42
0.0
 43
0.0
 44
0.0
 45
0.0
 46
0.0
 47
0.0
 48
0.0
 49
0.0
140
0.0
141
0.0
142
1.0
143
1.0
 70
   688
 72
     0
 73
     0
 74
     5
  7
monochrome.ctb
 75
    16
147
1.0
148
0.0
149
0.0
100
AcDbLayout
  1
ﾚｲｱｳﾄ2
 70
     1
 71
     2
 10
0.0
 20
0.0
 11
12.0
 21
9.0
 12
0.0
 22
0.0
 32
0.0
 14
0.0
 24
0.0
 34
0.0
 15
0.0
 25
0.0
 35
0.0
146
0.0
 13
0.0
 23
0.0
 33
0.0
 16
1.0
 26
0.0
 36
0.0
 17
0.0
 27
1.0
 37
0.0
 76
     0
330
23
  0
MATERIAL
  5
B0EF
102
{ACAD_XDICTIONARY
360
5B2FB
102
}
102
{ACAD_REACTORS
330
A91C
102
}
330
A91C
100
AcDbMaterial
  1
ByBlock
  0
MATERIAL
  5
B0EE
102
{ACAD_XDICTIONARY
360
5B2F9
102
}
102
{ACAD_REACTORS
330
A91C
102
}
330
A91C
100
AcDbMaterial
  1
ByLayer
  0
MATERIAL
  5
B0F0
102
{ACAD_XDICTIONARY
360
5B2FD
102
}
102
{ACAD_REACTORS
330
A91C
102
}
330
A91C
100
AcDbMaterial
  1
Global
  0
MLINESTYLE
  5
18
102
{ACAD_REACTORS
330
17
102
}
330
17
100
AcDbMlineStyle
  2
STANDARD
 70
     0
  3

 62
   256
 51
90.0
 52
90.0
 71
     2
 49
0.5
 62
   256
  6
BYLAYER
 49
-0.5
 62
   256
  6
BYLAYER
  0
ACDBPLACEHOLDER
  5
F
102
{ACAD_REACTORS
330
E
102
}
330
E
  0
TABLESTYLE
  5
AABA
102
{ACAD_XDICTIONARY
360
5B2F7
102
}
102
{ACAD_REACTORS
330
AAB9
102
}
330
AAB9
100
AcDbTableStyle
  3
Standard
 70
     0
 71
     0
 40
1.5
 41
1.5
280
     0
281
     0
  7
STANDARD
140
4.5
170
     2
 62
     0
 63
     7
283
     0
274
    -2
284
     1
 64
     0
275
    -2
285
     1
 65
     0
276
    -2
286
     1
 66
     0
277
    -2
287
     1
 67
     0
278
    -2
288
     1
 68
     0
279
    -2
289
     1
 69
     0
  7
STANDARD
140
6.0
170
     5
 62
     0
 63
     7
283
     0
274
    -2
284
     1
 64
     0
275
    -2
285
     1
 65
     0
276
    -2
286
     1
 66
     0
277
    -2
287
     1
 67
     0
278
    -2
288
     1
 68
     0
279
    -2
289
     1
 69
     0
  7
STANDARD
140
4.5
170
     5
 62
     0
 63
     7
283
     0
274
    -2
284
     1
 64
     0
275
    -2
285
     1
 65
     0
276
    -2
286
     1
 66
     0
277
    -2
287
     1
 67
     0
278
    -2
288
     1
 68
     0
279
    -2
289
     1
 69
     0
  0
VISUALSTYLE
  5
B0F7
102
{ACAD_REACTORS
330
B0F1
102
}
330
B0F1
100
AcDbVisualStyle
  2
2dWireframe
 70
     4
 71
     0
 72
     2
 73
     0
 90
        0
 40
-0.6
 41
-30.0
 62
     5
 63
     7
 74
     1
 91
        4
 64
     7
 65
   257
 75
     1
175
     1
 42
1.0
 92
        0
 66
   257
 43
1.0
 76
     1
 77
     6
 78
     2
 67
     7
 79
     5
170
     0
171
     0
290
     0
174
     0
 93
        1
 44
0.0
173
     0
291
     0
 45
0.0
1001
ACAD
1000
AcDbSavedByObjectVersion
1070
     0
  0
VISUALSTYLE
  5
B0F9
102
{ACAD_REACTORS
330
B0F1
102
}
330
B0F1
100
AcDbVisualStyle
  2
3D Hidden
 70
     6
 71
     1
 72
     2
 73
     2
 90
        0
 40
-0.6
 41
-30.0
 62
     5
 63
     7
 74
     2
 91
        2
 64
     7
 65
   257
 75
     2
175
     1
 42
40.0
 92
        0
 66
   257
 43
1.0
 76
     1
 77
     6
 78
     2
 67
     7
 79
     3
170
     0
171
     0
290
     0
174
     0
 93
        1
 44
0.0
173
     0
291
     0
 45
0.0
1001
ACAD
1000
AcDbSavedByObjectVersion
1070
     0
  0
VISUALSTYLE
  5
B0F8
102
{ACAD_REACTORS
330
B0F1
102
}
330
B0F1
100
AcDbVisualStyle
  2
3dWireframe
 70
     5
 71
     0
 72
     2
 73
     0
 90
        0
 40
-0.6
 41
-30.0
 62
     5
 63
     7
 74
     1
 91
        4
 64
     7
 65
   257
 75
     1
175
     1
 42
1.0
 92
        0
 66
   257
 43
1.0
 76
     1
 77
     6
 78
     2
 67
     7
 79
     5
170
     0
171
     0
290
     0
174
     0
 93
        1
 44
0.0
173
     0
291
     0
 45
0.0
1001
ACAD
1000
AcDbSavedByObjectVersion
1070
     0
  0
VISUALSTYLE
  5
B0F6
102
{ACAD_REACTORS
330
B0F1
102
}
330
B0F1
100
AcDbVisualStyle
  2
Basic
 70
     7
 71
     1
 72
     0
 73
     1
 90
        0
 40
-0.6
 41
-30.0
 62
     5
 63
     7
 74
     0
 91
        4
 64
     7
 65
   257
 75
     1
175
     1
 42
1.0
 92
        8
 66
     7
 43
1.0
 76
     1
 77
     6
 78
     2
 67
     7
 79
     5
170
     0
171
     0
290
     0
174
     0
 93
        1
 44
0.0
173
     0
291
     1
 45
0.0
1001
ACAD
1000
AcDbSavedByObjectVersion
1070
     0
  0
VISUALSTYLE
  5
B0FD
102
{ACAD_REACTORS
330
B0F1
102
}
330
B0F1
100
AcDbVisualStyle
  2
Brighten
 70
    12
 71
     2
 72
     2
 73
     0
 90
        0
 40
-0.6
 41
-30.0
 62
     5
 63
     7
 74
     1
 91
        4
 64
     7
 65
   257
 75
     1
175
     1
 42
1.0
 92
        8
 66
     7
 43
1.0
 76
     1
 77
     6
 78
     2
 67
     7
 79
     5
170
     0
171
     0
290
     0
174
     0
 93
        1
 44
50.0
173
     0
291
     1
 45
0.0
1001
ACAD
1000
AcDbSavedByObjectVersion
1070
     0
  0
VISUALSTYLE
  5
B101
102
{ACAD_REACTORS
330
B0F1
102
}
330
B0F1
100
AcDbVisualStyle
  2
ColorChange
 70
    16
 71
     2
 72
     2
 73
     3
 90
        0
 40
-0.6
 41
-30.0
 62
     5
 63
     8
 74
     1
 91
        4
 64
     7
 65
   257
 75
     1
175
     1
 42
1.0
 92
        8
 66
     8
 43
1.0
 76
     1
 77
     6
 78
     2
 67
     7
 79
     5
170
     0
171
     0
290
     0
174
     0
 93
        1
 44
0.0
173
     0
291
     1
 45
0.0
1001
ACAD
1000
AcDbSavedByObjectVersion
1070
     0
  0
VISUALSTYLE
  5
B0FA
102
{ACAD_REACTORS
330
B0F1
102
}
330
B0F1
100
AcDbVisualStyle
  2
Conceptual
 70
     9
 71
     3
 72
     2
 73
     0
 90
        0
 40
-0.6
 41
-30.0
 62
     5
 63
     7
 74
     2
 91
        2
 64
     7
 65
   257
 75
     1
175
     1
 42
40.0
 92
        8
 66
     7
 43
1.0
 76
     1
 77
     6
 78
     2
 67
     7
 79
     3
170
     0
171
     0
290
     0
174
     0
 93
        1
 44
0.0
173
     0
291
     0
 45
0.0
1001
ACAD
1000
AcDbSavedByObjectVersion
1070
     0
  0
VISUALSTYLE
  5
B0FC
102
{ACAD_REACTORS
330
B0F1
102
}
330
B0F1
100
AcDbVisualStyle
  2
Dim
 70
    11
 71
     2
 72
     2
 73
     0
 90
        0
 40
-0.6
 41
-30.0
 62
     5
 63
     7
 74
     1
 91
        4
 64
     7
 65
   257
 75
     1
175
     1
 42
1.0
 92
        8
 66
     7
 43
1.0
 76
     1
 77
     6
 78
     2
 67
     7
 79
     5
170
     0
171
     0
290
     0
174
     0
 93
        1
 44
-50.0
173
     0
291
     1
 45
0.0
1001
ACAD
1000
AcDbSavedByObjectVersion
1070
     0
  0
VISUALSTYLE
  5
B100
102
{ACAD_REACTORS
330
B0F1
102
}
330
B0F1
100
AcDbVisualStyle
  2
Facepattern
 70
    15
 71
     2
 72
     2
 73
     0
 90
        0
 40
-0.6
 41
-30.0
 62
     5
 63
     7
 74
     1
 91
        4
 64
     7
 65
   257
 75
     1
175
     1
 42
1.0
 92
        8
 66
     7
 43
1.0
 76
     1
 77
     6
 78
     2
 67
     7
 79
     5
170
     0
171
     0
290
     0
174
     0
 93
        1
 44
0.0
173
     0
291
     1
 45
0.0
1001
ACAD
1000
AcDbSavedByObjectVersion
1070
     0
  0
VISUALSTYLE
  5
B0F2
102
{ACAD_REACTORS
330
B0F1
102
}
330
B0F1
100
AcDbVisualStyle
  2
Flat
 70
     0
 71
     2
 72
     1
 73
     1
 90
        2
 40
-0.6
 41
30.0
 62
     5
 63
     7
 74
     0
 91
        4
 64
     7
 65
   257
 75
     1
175
     1
 42
1.0
 92
        8
 66
     7
 43
1.0
 76
     1
 77
     6
 78
     2
 67
     7
 79
     5
170
     0
171
     0
290
     0
174
     0
 93
       13
 44
0.0
173
     0
291
     1
 45
0.0
1001
ACAD
1000
AcDbSavedByObjectVersion
1070
     0
  0
VISUALSTYLE
  5
B0F3
102
{ACAD_REACTORS
330
B0F1
102
}
330
B0F1
100
AcDbVisualStyle
  2
FlatWithEdges
 70
     1
 71
     2
 72
     1
 73
     1
 90
        2
 40
-0.6
 41
30.0
 62
     5
 63
     7
 74
     1
 91
        4
 64
     7
 65
   257
 75
     1
175
     1
 42
1.0
 92
        0
 66
   257
 43
1.0
 76
     1
 77
     6
 78
     2
 67
     7
 79
     5
170
     0
171
     0
290
     0
174
     0
 93
       13
 44
0.0
173
     0
291
     1
 45
0.0
1001
ACAD
1000
AcDbSavedByObjectVersion
1070
     0
  0
VISUALSTYLE
  5
B0F4
102
{ACAD_REACTORS
330
B0F1
102
}
330
B0F1
100
AcDbVisualStyle
  2
Gouraud
 70
     2
 71
     2
 72
     2
 73
     1
 90
        2
 40
-0.6
 41
30.0
 62
     5
 63
     7
 74
     0
 91
        4
 64
     7
 65
   257
 75
     1
175
     1
 42
1.0
 92
        0
 66
     7
 43
1.0
 76
     1
 77
     6
 78
     2
 67
     7
 79
     5
170
     0
171
     0
290
     0
174
     0
 93
       13
 44
0.0
173
     0
291
     1
 45
0.0
1001
ACAD
1000
AcDbSavedByObjectVersion
1070
     0
  0
VISUALSTYLE
  5
B0F5
102
{ACAD_REACTORS
330
B0F1
102
}
330
B0F1
100
AcDbVisualStyle
  2
GouraudWithEdges
 70
     3
 71
     2
 72
     2
 73
     1
 90
        2
 40
-0.6
 41
30.0
 62
     5
 63
     7
 74
     1
 91
        4
 64
     7
 65
   257
 75
     1
175
     1
 42
1.0
 92
        0
 66
   257
 43
1.0
 76
     1
 77
     6
 78
     2
 67
     7
 79
     5
170
     0
171
     0
290
     0
174
     0
 93
       13
 44
0.0
173
     0
291
     1
 45
0.0
1001
ACAD
1000
AcDbSavedByObjectVersion
1070
     0
  0
VISUALSTYLE
  5
B0FF
102
{ACAD_REACTORS
330
B0F1
102
}
330
B0F1
100
AcDbVisualStyle
  2
Linepattern
 70
    14
 71
     2
 72
     2
 73
     0
 90
        0
 40
-0.6
 41
-30.0
 62
     5
 63
     7
 74
     1
 91
        4
 64
     7
 65
   257
 75
     7
175
     7
 42
1.0
 92
        8
 66
     7
 43
1.0
 76
     1
 77
     6
 78
     2
 67
     7
 79
     5
170
     0
171
     0
290
     0
174
     0
 93
        1
 44
0.0
173
     0
291
     1
 45
0.0
1001
ACAD
1000
AcDbSavedByObjectVersion
1070
     0
  0
VISUALSTYLE
  5
B0FB
102
{ACAD_REACTORS
330
B0F1
102
}
330
B0F1
100
AcDbVisualStyle
  2
Realistic
 70
     8
 71
     2
 72
     2
 73
     0
 90
        0
 40
-0.6
 41
-30.0
 62
     5
 63
     7
 74
     1
 91
        0
 64
     7
 65
   257
 75
     1
175
     1
 42
1.0
 92
        8
 66
     8
 43
1.0
 76
     1
 77
     6
 78
     2
 67
     7
 79
     5
170
     0
171
     0
290
     0
174
     0
 93
       13
 44
0.0
173
     0
291
     0
 45
0.0
1001
ACAD
1000
AcDbSavedByObjectVersion
1070
     0
  0
VISUALSTYLE
  5
B0FE
102
{ACAD_REACTORS
330
B0F1
102
}
330
B0F1
100
AcDbVisualStyle
  2
Thicken
 70
    13
 71
     2
 72
     2
 73
     0
 90
        0
 40
-0.6
 41
-30.0
 62
     5
 63
     7
 74
     1
 91
        4
 64
     7
 65
   257
 75
     1
175
     1
 42
1.0
 92
       12
 66
     7
 43
1.0
 76
     1
 77
     6
 78
     2
 67
     7
 79
     5
170
     0
171
     0
290
     0
174
     0
 93
        1
 44
0.0
173
     0
291
     1
 45
0.0
1001
ACAD
1000
AcDbSavedByObjectVersion
1070
     0
  0
DICTIONARYVAR
  5
AAF3
102
{ACAD_REACTORS
330
34
102
}
330
34
100
DictionaryVariables
280
     0
  1
STANDARD
  0
DICTIONARYVAR
  5
A10C
102
{ACAD_REACTORS
330
34
102
}
330
34
100
DictionaryVariables
280
     0
  1
1
  0
DICTIONARYVAR
  5
AB07
102
{ACAD_REACTORS
330
34
102
}
330
34
100
DictionaryVariables
280
     0
  1
4
  0
DICTIONARYVAR
  5
35
102
{ACAD_REACTORS
330
34
102
}
330
34
100
DictionaryVariables
280
     0
  1
0
  0
DICTIONARYVAR
  5
194C
102
{ACAD_REACTORS
330
34
102
}
330
34
100
DictionaryVariables
280
     0
  1
127
  0
DICTIONARY
  5
7E8
102
{ACAD_REACTORS
330
47
102
}
330
47
100
AcDbDictionary
281
     1
  0
DICTIONARY
  5
4C
102
{ACAD_REACTORS
330
47
102
}
330
47
100
AcDbDictionary
281
     1
  0
XRECORD
  5
A929
102
{ACAD_REACTORS
330
47
102
}
330
47
100
AcDbXrecord
280
     1
 90
-1023410169
  0
XRECORD
  5
57913
102
{ACAD_REACTORS
330
57912
102
}
330
57912
100
AcDbXrecord
280
     1
330
0
330
0
330
0
330
0
330
0
330
0
330
0
330
0
330
0
330
0
330
0
330
0
330
0
330
0
330
0
330
0
330
0
330
0
330
0
330
0
330
0
330
0
330
0
330
0
330
0
330
0
330
0
330
0
330
0
330
0
330
0
330
0
330
0
330
0
330
0
330
0
330
0
330
0
330
0
330
0
330
0
330
0
330
0
330
0
330
0
330
0
330
0
330
0
330
0
330
0
330
0
330
0
330
0
330
0
330
0
330
0
330
0
330
0
330
0
330
0
330
0
330
0
330
0
330
0
330
0
330
0
330
0
330
0
330
0
330
0
330
0
330
0
330
0
330
0
330
0
330
0
330
0
330
0
330
0
330
0
330
0
330
0
330
0
330
0
330
0
330
0
330
0
330
0
330
0
330
0
330
0
330
0
330
0
330
0
330
0
330
0
330
0
330
0
330
0
330
0
330
0
330
0
330
0
330
0
330
0
330
0
330
0
330
0
330
0
330
0
330
0
330
0
330
0
330
0
330
0
330
0
330
0
330
0
330
0
330
0
330
0
330
0
330
0
330
0
330
0
330
0
330
0
330
0
330
0
330
0
330
0
330
0
330
0
330
0
330
0
330
0
330
0
330
0
330
0
330
0
330
0
330
0
330
0
330
0
330
0
330
0
330
0
330
0
330
0
330
0
330
0
330
0
330
0
330
0
330
0
330
0
330
0
330
0
330
0
330
0
330
0
330
0
330
0
330
0
330
0
330
0
330
0
330
0
330
0
330
0
330
0
330
0
330
0
330
0
330
0
330
0
330
0
330
0
330
0
330
0
330
0
330
0
330
0
330
0
330
0
330
0
330
0
330
0
330
0
330
0
330
0
330
0
330
0
330
0
330
0
330
0
330
0
330
0
330
0
330
0
330
0
330
0
330
0
330
0
330
0
330
0
330
0
330
0
330
0
330
0
330
0
330
0
330
0
330
0
330
0
330
0
330
0
330
0
330
0
330
0
330
0
330
0
330
0
330
0
330
0
330
0
330
0
330
0
330
0
330
0
330
0
330
0
330
0
330
0
330
0
330
0
330
0
330
0
330
0
330
0
330
0
330
0
330
0
330
0
330
0
330
0
330
0
330
0
330
0
330
0
330
0
330
0
330
0
330
0
330
0
330
0
330
0
330
0
330
0
330
0
330
0
330
0
330
0
330
0
330
0
330
0
330
0
330
0
330
0
330
0
330
0
330
0
330
0
330
0
330
0
330
0
330
0
330
0
330
0
330
0
330
0
330
0
330
0
330
0
330
0
330
0
330
0
330
0
330
0
330
0
330
0
330
0
330
0
330
0
330
0
330
0
330
0
330
0
330
0
330
0
330
0
330
0
330
0
330
0
330
0
330
0
330
0
330
0
330
0
330
0
330
0
330
0
330
0
330
0
330
0
330
0
330
0
330
0
330
0
330
0
330
0
330
0
330
0
330
0
330
0
330
0
330
0
330
0
330
0
330
0
330
0
330
0
330
0
330
0
330
0
330
0
330
0
330
0
330
0
330
0
330
0
330
0
330
0
330
0
330
0
330
0
330
0
330
0
330
0
330
0
330
0
330
0
330
0
330
0
330
0
330
0
330
0
330
0
330
0
330
0
330
0
330
0
330
0
330
0
330
0
330
0
330
0
330
0
330
0
330
0
330
0
330
0
330
0
330
0
330
0
330
0
330
0
330
0
330
0
330
0
330
0
330
0
330
0
330
0
330
0
330
0
330
0
330
0
330
0
330
0
330
0
330
0
330
0
330
0
330
0
330
0
330
0
330
0
330
0
330
0
330
0
330
0
330
0
330
0
330
0
330
0
330
0
330
0
330
0
330
0
330
0
330
0
330
0
330
0
330
0
330
0
330
0
330
0
330
0
330
0
330
0
330
0
330
0
330
0
330
0
330
0
330
0
330
0
330
0
330
0
330
0
330
0
330
0
330
0
330
0
330
0
330
0
330
0
330
0
330
0
330
0
330
0
330
0
330
0
330
0
330
0
330
0
330
0
330
0
330
0
330
0
330
0
330
0
330
0
330
0
330
0
330
0
330
0
330
0
330
0
330
0
330
0
330
0
330
0
330
0
330
0
330
0
330
0
330
0
330
0
330
0
330
0
330
0
330
0
330
0
330
0
330
0
330
0
330
0
330
0
330
0
330
0
330
0
330
0
330
0
330
0
330
0
330
0
330
0
330
0
330
0
330
0
330
0
330
0
330
0
330
0
330
0
330
0
330
0
330
0
330
0
330
0
330
0
330
0
330
0
330
0
330
0
330
0
330
0
330
0
330
0
330
0
330
0
330
0
330
0
330
0
330
0
330
0
330
0
330
0
330
0
330
0
330
0
330
0
330
0
330
0
330
0
330
0
330
0
330
0
330
0
330
0
330
0
330
0
330
0
330
0
330
0
330
0
330
0
330
0
330
0
330
0
330
0
330
0
330
0
330
0
330
0
330
0
330
0
330
0
330
0
330
0
330
0
330
0
330
0
330
0
330
0
330
0
330
0
330
0
330
0
330
0
330
0
330
0
330
0
330
0
330
0
330
0
330
0
330
0
330
0
330
0
330
0
330
0
330
0
330
0
330
0
330
0
330
0
330
0
330
0
330
0
330
0
330
0
330
0
330
0
330
0
330
0
330
0
330
0
330
0
330
0
330
0
330
0
330
0
330
0
330
0
330
0
330
0
330
0
330
0
330
0
330
0
330
0
330
0
330
0
330
0
330
0
330
0
330
0
330
0
330
0
330
0
330
0
330
0
330
0
330
0
330
0
330
0
330
0
330
0
330
0
330
0
330
0
330
0
330
0
330
0
330
0
330
0
330
0
330
0
330
0
330
0
330
0
330
0
330
0
330
0
330
0
330
0
330
0
330
0
330
0
330
0
330
0
330
0
330
0
330
0
330
0
330
0
330
0
330
0
330
0
330
0
330
0
330
0
330
0
330
0
330
0
330
0
330
0
330
0
330
0
330
0
330
0
330
0
330
0
330
0
330
0
330
0
330
0
330
0
330
0
330
0
330
0
330
0
330
0
330
0
330
0
330
0
330
0
330
0
330
0
330
0
330
0
330
0
330
0
330
0
330
0
330
0
330
0
330
0
330
0
330
0
330
0
330
0
330
0
330
0
330
0
330
0
330
0
330
0
330
0
330
0
330
0
330
0
330
0
330
0
330
0
330
0
330
0
330
0
330
0
330
0
330
0
330
0
330
0
330
0
330
0
330
0
330
0
330
0
330
0
330
0
330
0
330
0
330
0
330
0
330
0
330
0
330
0
330
0
330
0
330
0
330
0
330
0
330
0
330
0
330
0
330
0
330
0
330
0
330
0
330
0
330
0
330
0
330
0
330
0
330
0
330
0
330
0
330
0
330
0
330
0
330
0
330
0
330
0
330
0
330
0
330
0
330
0
330
0
330
0
330
0
330
0
330
0
330
0
330
0
330
0
330
0
330
0
330
0
330
0
330
0
330
0
330
0
330
0
330
0
330
0
330
0
330
0
330
0
330
0
330
0
330
0
330
0
330
0
330
0
330
0
330
0
330
0
330
0
330
0
330
0
330
0
330
0
330
0
330
0
330
0
330
0
330
0
330
0
330
0
330
0
330
0
330
0
330
0
330
0
330
0
330
0
330
0
330
0
330
0
330
0
330
0
330
0
330
0
330
0
330
0
330
0
330
0
330
0
330
0
330
0
330
0
330
0
330
0
330
0
330
0
330
0
330
0
330
0
330
0
330
0
330
0
330
0
330
0
330
0
330
0
330
0
330
0
330
0
330
0
330
0
330
0
330
0
330
0
330
0
330
0
330
0
330
0
330
0
330
0
330
0
330
0
330
0
330
0
330
0
330
0
330
0
330
0
330
0
330
0
330
0
330
0
330
0
330
0
330
0
330
0
330
0
330
0
330
0
330
0
330
0
330
0
330
0
330
0
330
0
330
0
330
0
330
0
330
0
330
0
330
0
330
0
330
0
330
0
330
0
330
0
330
0
330
0
330
0
330
0
330
0
330
0
330
0
330
0
330
0
330
0
330
0
330
0
330
0
330
0
330
0
330
0
330
0
330
0
330
0
330
0
330
0
330
0
330
0
330
0
330
0
330
0
330
0
330
0
330
0
330
0
330
0
330
0
330
0
330
0
330
0
330
0
330
0
330
0
330
0
330
0
330
0
330
0
330
0
330
0
330
0
330
0
330
0
330
0
330
0
330
0
330
0
330
0
330
0
330
0
330
0
330
0
330
0
330
0
330
0
330
0
330
0
330
0
330
0
330
0
330
0
330
0
330
0
330
0
330
0
330
0
330
0
330
0
330
0
330
0
330
0
330
0
330
0
330
0
330
0
330
0
330
0
330
0
330
0
330
0
330
0
330
0
330
0
330
0
330
0
330
0
330
0
330
0
330
0
330
0
330
0
330
0
330
0
330
0
330
0
330
0
330
0
330
0
330
0
330
0
330
0
330
0
330
0
330
0
330
0
330
0
330
0
330
0
330
0
330
0
330
0
330
0
330
0
330
0
330
0
330
0
330
0
330
0
330
0
330
0
330
0
330
0
330
0
330
0
330
0
330
0
330
0
330
0
330
0
330
0
330
0
330
0
330
0
330
0
330
0
330
0
330
0
330
0
330
0
330
0
330
0
330
0
330
0
330
0
330
0
330
0
330
0
330
0
330
0
330
0
330
0
330
0
330
0
330
0
330
0
330
0
330
0
330
0
330
0
330
0
330
0
330
0
330
0
330
0
330
0
330
0
330
0
330
0
330
0
330
0
330
0
330
0
330
0
330
0
330
0
330
0
330
0
330
0
330
0
330
0
330
0
330
0
330
0
330
0
330
0
330
0
330
0
330
0
330
0
330
0
330
0
330
0
330
0
330
0
330
0
330
0
330
0
330
0
330
0
330
0
330
0
330
0
330
0
330
0
330
0
330
0
330
0
330
0
330
0
330
0
330
0
330
0
330
0
330
0
330
0
330
0
330
0
330
0
330
0
330
0
330
0
330
0
330
0
330
0
330
0
330
0
330
0
330
0
330
0
330
0
330
0
330
0
330
0
330
0
330
0
330
0
330
0
330
0
330
0
330
0
330
0
330
0
330
0
330
0
330
0
330
0
330
0
330
0
330
0
330
0
330
0
330
0
330
0
330
0
330
0
330
0
330
0
330
0
330
0
330
0
330
0
330
0
330
0
330
0
330
0
330
0
330
0
330
0
330
0
330
0
330
0
330
0
330
0
330
0
330
0
330
0
330
0
330
0
330
0
330
0
330
0
330
0
330
0
330
0
330
0
330
0
330
0
330
0
330
0
330
0
330
0
330
0
330
0
330
0
330
0
330
0
330
0
330
0
330
0
330
0
330
0
330
0
330
0
330
0
330
0
330
0
330
0
330
0
330
0
330
0
330
0
330
0
330
0
330
0
330
0
330
0
330
0
330
0
330
0
330
0
330
0
330
0
330
0
330
0
330
0
330
0
330
0
330
0
330
0
330
0
330
0
330
0
330
0
330
0
330
0
330
0
330
0
330
0
330
0
330
0
330
0
330
0
330
0
330
0
330
0
330
0
330
0
330
0
330
0
330
0
330
0
330
0
330
0
330
0
330
0
330
0
330
0
330
0
330
0
330
0
330
0
330
0
330
0
330
0
330
0
330
0
330
0
330
0
330
0
330
0
330
0
330
0
330
0
330
0
330
0
330
0
330
0
330
0
330
0
330
0
330
0
330
0
330
0
330
0
330
0
330
0
330
0
330
0
330
0
330
0
330
0
330
0
330
0
330
0
330
0
330
0
330
0
330
0
330
0
330
0
330
0
330
0
330
0
330
0
330
0
330
0
330
0
330
0
330
0
330
0
330
0
330
0
330
0
330
0
330
0
330
0
330
0
330
0
330
0
330
0
330
0
330
0
330
0
330
0
330
0
330
0
330
0
330
0
330
0
330
0
330
0
330
0
330
0
330
0
330
0
330
0
330
0
330
0
330
0
330
0
330
0
330
0
330
0
330
0
330
0
330
0
330
0
330
0
330
0
330
0
330
0
330
0
330
0
330
0
330
0
330
0
330
0
330
0
330
0
330
0
330
0
330
0
330
0
330
0
330
0
330
0
330
0
330
0
330
0
330
0
330
0
330
0
330
0
330
0
330
0
330
0
330
0
330
0
330
0
330
0
330
0
330
0
330
0
330
0
330
0
330
0
330
0
330
0
330
0
330
0
330
0
330
0
330
565CB
330
565CC
330
5668E
330
5668F
330
565DD
330
565DE
330
565E6
330
565E7
330
565EF
330
565F0
330
565F8
330
565F9
330
56601
330
56602
330
5660C
330
5660D
330
56615
330
56616
330
566A3
330
566A4
330
56629
330
5662A
330
56634
330
56635
330
5663D
330
5663E
330
0
330
0
330
5667C
330
5667D
330
56658
330
56659
330
56663
330
56664
330
0
330
0
330
0
330
0
330
0
330
0
330
0
330
0
330
0
330
0
330
0
330
0
330
0
330
0
330
0
330
0
330
0
330
0
330
0
330
0
330
0
330
0
330
0
330
0
330
0
330
0
330
0
330
0
330
0
330
0
330
0
330
0
330
0
330
0
330
0
330
0
330
0
330
0
330
0
330
0
330
0
330
0
330
0
330
0
330
0
330
0
330
0
330
0
330
0
330
0
330
0
330
0
330
0
330
0
330
0
330
0
330
0
330
0
330
0
330
0
330
0
330
0
330
0
330
0
330
0
330
0
330
0
330
0
330
0
330
0
330
0
330
0
330
0
330
0
330
0
330
0
330
0
330
0
330
0
330
0
330
0
330
0
330
0
330
0
330
0
330
0
330
0
330
0
330
0
330
0
330
0
330
0
330
0
330
0
330
0
330
0
330
0
330
0
330
0
330
0
330
0
330
0
330
0
330
0
330
0
330
0
330
0
330
0
330
0
330
0
330
0
330
0
330
0
330
0
330
0
330
0
330
0
330
0
330
0
330
0
330
0
330
0
330
0
330
0
330
0
330
0
330
0
330
0
330
0
330
0
330
0
330
0
330
0
330
0
330
0
330
0
330
0
330
0
330
0
330
0
330
0
330
0
330
0
330
0
330
0
330
0
330
0
330
0
330
0
330
0
330
0
330
0
330
0
330
0
330
0
330
0
330
0
330
0
330
0
330
0
330
0
330
0
330
0
330
0
330
0
330
0
330
0
330
0
330
0
330
0
330
0
330
0
330
0
330
0
330
0
330
0
330
0
330
0
330
0
330
0
330
0
330
0
330
0
330
0
330
0
330
0
330
0
330
0
330
0
330
0
330
0
330
0
330
0
330
0
330
0
330
0
330
0
330
0
330
0
330
0
330
0
330
0
330
0
330
0
330
0
330
0
330
0
330
0
330
0
330
0
330
0
330
0
330
0
330
0
330
0
330
0
330
0
330
0
330
0
330
0
330
0
330
0
330
0
330
0
330
0
330
0
330
0
330
0
330
0
330
0
330
0
330
0
330
0
330
0
330
0
330
0
330
0
330
0
330
0
330
0
330
0
330
0
330
0
330
0
330
0
330
0
330
0
330
0
330
0
330
0
330
0
330
0
330
0
330
0
330
0
330
0
330
0
330
0
330
0
330
0
330
0
330
0
330
0
330
0
330
0
330
0
330
0
330
0
330
0
330
0
330
0
330
0
330
0
330
0
330
0
330
0
330
0
330
0
330
0
330
0
330
0
330
0
330
0
330
0
330
0
330
0
330
0
330
0
330
0
330
0
330
0
330
0
330
0
330
0
330
0
330
0
330
0
330
0
330
0
330
0
330
0
330
0
330
0
330
0
330
0
330
0
330
0
330
0
330
0
330
0
330
0
330
0
330
0
330
0
330
0
330
0
330
0
330
0
330
0
330
0
330
0
330
0
330
0
330
0
330
0
330
0
330
0
330
0
330
0
330
0
330
0
330
0
330
0
330
0
330
0
330
0
330
0
330
0
330
0
330
0
330
0
330
0
330
0
330
0
330
0
330
0
330
0
330
0
330
0
330
0
330
0
330
0
330
0
330
0
330
0
330
0
330
0
330
0
330
0
330
0
330
0
330
0
330
0
330
0
330
0
330
0
330
0
330
0
330
0
330
0
330
0
330
0
330
0
330
0
330
0
330
0
330
0
330
0
330
0
330
0
330
0
330
0
330
0
330
0
330
0
330
0
330
0
330
0
330
0
330
0
330
0
330
0
330
0
330
0
330
0
330
0
330
0
330
0
330
0
330
0
330
0
330
0
330
0
330
0
330
0
330
0
330
0
330
0
330
0
330
0
330
0
330
0
330
0
330
0
330
0
330
0
330
0
330
0
330
0
330
0
330
0
330
0
330
0
330
0
330
0
330
0
330
0
330
0
330
0
330
0
330
0
330
0
330
0
330
0
330
0
330
0
330
0
330
0
330
0
330
0
330
0
330
0
330
0
330
0
330
0
330
0
330
0
330
0
330
0
330
0
330
0
330
0
330
0
330
0
330
0
330
0
330
0
330
0
330
0
330
0
330
0
330
0
330
0
330
0
330
0
330
0
330
0
330
0
330
0
330
0
330
0
330
0
330
0
330
0
330
0
330
0
330
0
330
0
  0
XRECORD
  5
3FB7
102
{ACAD_REACTORS
330
3F96
102
}
330
3F96
100
AcDbXrecord
280
     1
 91
        3
330
0
 90
        8
 62
     7
370
    40
331
16
  1
Color_7
330
0
 90
        0
 62
    14
370
    -3
331
16
  1
Color_14
330
0
 90
        8
 62
     7
370
    20
331
16
  1
Color_7
330
6D1
 90
        0
 62
     7
370
    -3
331
16
  1
Color_7
330
0
 90
        8
 62
     7
370
    50
331
16
  1
Color_7
330
0
 90
        8
 62
     2
370
    35
331
16
  1
Color_2
330
0
 90
        8
 62
     7
370
    -3
331
16
  1
Color_7
330
10
 90
        8
 62
     7
370
    -3
331
16
  1
Color_7
  0
DICTIONARY
  5
5B2F3
330
22
100
AcDbDictionary
280
     1
281
     1
  3
ACAD_XREC_ROUNDTRIP
360
5B2F4
  0
DICTIONARY
  5
5B2F1
330
1E
100
AcDbDictionary
280
     1
281
     1
  3
ACAD_XREC_ROUNDTRIP
360
5B2F2
  0
DICTIONARY
  5
5B2F5
330
26
100
AcDbDictionary
280
     1
281
     1
  3
ACAD_XREC_ROUNDTRIP
360
5B2F6
  0
DICTIONARY
  5
5B2FB
330
B0EF
100
AcDbDictionary
280
     1
281
     1
  3
ACAD_XREC_ROUNDTRIP
360
5B2FC
  0
DICTIONARY
  5
5B2F9
330
B0EE
100
AcDbDictionary
280
     1
281
     1
  3
ACAD_XREC_ROUNDTRIP
360
5B2FA
  0
DICTIONARY
  5
5B2FD
330
B0F0
100
AcDbDictionary
280
     1
281
     1
  3
ACAD_XREC_ROUNDTRIP
360
5B2FE
  0
DICTIONARY
  5
5B2F7
330
AABA
100
AcDbDictionary
280
     1
281
     1
  3
ACAD_XREC_ROUNDTRIP
360
5B2F8
  0
XRECORD
  5
5B2F4
102
{ACAD_REACTORS
330
5B2F3
102
}
330
5B2F3
100
AcDbXrecord
280
     1
102
SHADEPLOT
 70
     0
102
SHADEPLOTRESLEVEL
 70
     2
102
SHADEPLOTCUSTOMDPI
 70
   200
  0
XRECORD
  5
5B2F2
102
{ACAD_REACTORS
330
5B2F1
102
}
330
5B2F1
100
AcDbXrecord
280
     1
102
SHADEPLOT
 70
     0
102
SHADEPLOTRESLEVEL
 70
     2
102
SHADEPLOTCUSTOMDPI
 70
   300
  0
XRECORD
  5
5B2F6
102
{ACAD_REACTORS
330
5B2F5
102
}
330
5B2F5
100
AcDbXrecord
280
     1
102
SHADEPLOT
 70
     0
102
SHADEPLOTRESLEVEL
 70
     2
102
SHADEPLOTCUSTOMDPI
 70
   300
  0
XRECORD
  5
5B2FC
102
{ACAD_REACTORS
330
5B2FB
102
}
330
5B2FB
100
AcDbXrecord
280
     1
102
MATERIAL
148
0.0
149
0.0
149
0.0
 93
        0
 94
       63
282
     0
 72
     1
 77
     1
171
     1
175
     1
179
     1
273
     0
  0
XRECORD
  5
5B2FA
102
{ACAD_REACTORS
330
5B2F9
102
}
330
5B2F9
100
AcDbXrecord
280
     1
102
MATERIAL
148
0.0
149
0.0
149
0.0
 93
        0
 94
       63
282
     0
 72
     1
 77
     1
171
     1
175
     1
179
     1
273
     0
  0
XRECORD
  5
5B2FE
102
{ACAD_REACTORS
330
5B2FD
102
}
330
5B2FD
100
AcDbXrecord
280
     1
102
MATERIAL
148
0.0
149
0.0
149
0.0
 93
        0
 94
       63
282
     0
 72
     1
 77
     1
171
     1
175
     1
179
     1
273
     0
  0
XRECORD
  5
5B2F8
102
{ACAD_REACTORS
330
5B2F7
102
}
330
5B2F7
100
AcDbXrecord
280
     1
102
ACAD_ROUNDTRIP_PRE2007_TABLESTYLE
 90
        4
 91
        0
  1

 92
        4
 93
        0
  2

 94
        4
 95
        0
  3

  0
ENDSEC
  0
EOF
