  0
SECTION
  2
HEADER
  9
$ACADVER
  1
AC1015
  9
$ACADMAINTVER
 70
    20
  9
$DWGCODEPAGE
  3
ANSI_932
  9
$INSBASE
 10
0.0
 20
0.0
 30
0.0
  9
$EXTMIN
 10
6074.514852621241
 20
-2727.635036330772
 30
-0.0015258207003583
  9
$EXTMAX
 10
6372.43854128965
 20
-2516.272587742573
 30
0.0000000349246037
  9
$LIMMIN
 10
3779.599158088851
 20
100.7134268036752
  9
$LIMMAX
 10
9719.599158088852
 20
4300.713426803675
  9
$ORTHOMODE
 70
     0
  9
$REGENMODE
 70
     1
  9
$FILLMODE
 70
     1
  9
$QTEXTMODE
 70
     0
  9
$MIRRTEXT
 70
     0
  9
$LTSCALE
 40
1.0
  9
$ATTMODE
 70
     1
  9
$TEXTSIZE
 40
3.2
  9
$TRACEWID
 40
1.0
  9
$TEXTSTYLE
  7
STANDARD
  9
$CLAYER
  8
0部品18
  9
$CELTYPE
  6
ByLayer
  9
$CECOLOR
 62
   256
  9
$CELTSCALE
 40
1.0
  9
$DISPSILH
 70
     0
  9
$DIMSCALE
 40
1.0
  9
$DIMASZ
 40
1.0
  9
$DIMEXO
 40
1.0
  9
$DIMDLI
 40
10.0
  9
$DIMRND
 40
0.0
  9
$DIMDLE
 40
0.0
  9
$DIMEXE
 40
1.0
  9
$DIMTP
 40
0.1
  9
$DIMTM
 40
0.1
  9
$DIMTXT
 40
3.5
  9
$DIMCEN
 40
0.0
  9
$DIMTSZ
 40
0.0
  9
$DIMTOL
 70
     0
  9
$DIMLIM
 70
     0
  9
$DIMTIH
 70
     0
  9
$DIMTOH
 70
     0
  9
$DIMSE1
 70
     0
  9
$DIMSE2
 70
     0
  9
$DIMTAD
 70
     1
  9
$DIMZIN
 70
     8
  9
$DIMBLK
  1

  9
$DIMASO
 70
     1
  9
$DIMSHO
 70
     1
  9
$DIMPOST
  1

  9
$DIMAPOST
  1
"
  9
$DIMALT
 70
     0
  9
$DIMALTD
 70
     2
  9
$DIMALTF
 40
0.0393701
  9
$DIMLFAC
 40
1.0
  9
$DIMTOFL
 70
     1
  9
$DIMTVP
 40
0.0
  9
$DIMTIX
 70
     0
  9
$DIMSOXD
 70
     0
  9
$DIMSAH
 70
     0
  9
$DIMBLK1
  1

  9
$DIMBLK2
  1

  9
$DIMSTYLE
  2
SYS
  9
$DIMCLRD
 70
   256
  9
$DIMCLRE
 70
   256
  9
$DIMCLRT
 70
     7
  9
$DIMTFAC
 40
0.71
  9
$DIMGAP
 40
1.5
  9
$DIMJUST
 70
     0
  9
$DIMSD1
 70
     0
  9
$DIMSD2
 70
     0
  9
$DIMTOLJ
 70
     0
  9
$DIMTZIN
 70
     8
  9
$DIMALTZ
 70
     0
  9
$DIMALTTZ
 70
     0
  9
$DIMUPT
 70
     0
  9
$DIMDEC
 70
     2
  9
$DIMTDEC
 70
     2
  9
$DIMALTU
 70
     2
  9
$DIMALTTD
 70
     2
  9
$DIMTXSTY
  7
STANDARD
  9
$DIMAUNIT
 70
     0
  9
$DIMADEC
 70
     0
  9
$DIMALTRND
 40
0.0
  9
$DIMAZIN
 70
     2
  9
$DIMDSEP
 70
    46
  9
$DIMATFIT
 70
     3
  9
$DIMFRAC
 70
     0
  9
$DIMLDRBLK
  1

  9
$DIMLUNIT
 70
     2
  9
$DIMLWD
 70
    -1
  9
$DIMLWE
 70
    -1
  9
$DIMTMOVE
 70
     0
  9
$LUNITS
 70
     2
  9
$LUPREC
 70
     2
  9
$SKETCHINC
 40
1.0
  9
$FILLETRAD
 40
1.0
  9
$AUNITS
 70
     0
  9
$AUPREC
 70
     0
  9
$MENU
  1
.
  9
$ELEVATION
 40
0.0
  9
$PELEVATION
 40
0.0
  9
$THICKNESS
 40
0.0
  9
$LIMCHECK
 70
     0
  9
$CHAMFERA
 40
0.0
  9
$CHAMFERB
 40
0.0
  9
$CHAMFERC
 40
20.0
  9
$CHAMFERD
 40
0.0
  9
$SKPOLY
 70
     0
  9
$TDCREATE
 40
2455567.680725081
  9
$TDUCREATE
 40
2455567.305725081
  9
$TDUPDATE
 40
2456267.735657362
  9
$TDUUPDATE
 40
2456267.360657361
  9
$TDINDWG
 40
8.0379663426
  9
$TDUSRTIMER
 40
8.0379647106
  9
$USRTIMER
 70
     1
  9
$ANGBASE
 50
0.0
  9
$ANGDIR
 70
     0
  9
$PDMODE
 70
     0
  9
$PDSIZE
 40
-3.0
  9
$PLINEWID
 40
0.0
  9
$SPLFRAME
 70
     0
  9
$SPLINETYPE
 70
     6
  9
$SPLINESEGS
 70
     8
  9
$HANDSEED
  5
5B470
  9
$SURFTAB1
 70
     6
  9
$SURFTAB2
 70
     6
  9
$SURFTYPE
 70
     6
  9
$SURFU
 70
     6
  9
$SURFV
 70
     6
  9
$UCSBASE
  2

  9
$UCSNAME
  2

  9
$UCSORG
 10
0.0
 20
0.0
 30
0.0
  9
$UCSXDIR
 10
1.0
 20
0.0
 30
0.0
  9
$UCSYDIR
 10
0.0
 20
1.0
 30
0.0
  9
$UCSORTHOREF
  2

  9
$UCSORTHOVIEW
 70
     0
  9
$UCSORGTOP
 10
0.0
 20
0.0
 30
0.0
  9
$UCSORGBOTTOM
 10
0.0
 20
0.0
 30
0.0
  9
$UCSORGLEFT
 10
0.0
 20
0.0
 30
0.0
  9
$UCSORGRIGHT
 10
0.0
 20
0.0
 30
0.0
  9
$UCSORGFRONT
 10
0.0
 20
0.0
 30
0.0
  9
$UCSORGBACK
 10
0.0
 20
0.0
 30
0.0
  9
$PUCSBASE
  2

  9
$PUCSNAME
  2

  9
$PUCSORG
 10
0.0
 20
0.0
 30
0.0
  9
$PUCSXDIR
 10
1.0
 20
0.0
 30
0.0
  9
$PUCSYDIR
 10
0.0
 20
1.0
 30
0.0
  9
$PUCSORTHOREF
  2

  9
$PUCSORTHOVIEW
 70
     0
  9
$PUCSORGTOP
 10
0.0
 20
0.0
 30
0.0
  9
$PUCSORGBOTTOM
 10
0.0
 20
0.0
 30
0.0
  9
$PUCSORGLEFT
 10
0.0
 20
0.0
 30
0.0
  9
$PUCSORGRIGHT
 10
0.0
 20
0.0
 30
0.0
  9
$PUCSORGFRONT
 10
0.0
 20
0.0
 30
0.0
  9
$PUCSORGBACK
 10
0.0
 20
0.0
 30
0.0
  9
$USERI1
 70
     0
  9
$USERI2
 70
     0
  9
$USERI3
 70
     0
  9
$USERI4
 70
     0
  9
$USERI5
 70
     0
  9
$USERR1
 40
0.0
  9
$USERR2
 40
0.0
  9
$USERR3
 40
0.0
  9
$USERR4
 40
0.0
  9
$USERR5
 40
0.0
  9
$WORLDVIEW
 70
     1
  9
$SHADEDGE
 70
     3
  9
$SHADEDIF
 70
    70
  9
$TILEMODE
 70
     1
  9
$MAXACTVP
 70
    64
  9
$PINSBASE
 10
0.0
 20
0.0
 30
0.0
  9
$PLIMCHECK
 70
     0
  9
$PEXTMIN
 10
1.000000000000000E+20
 20
1.000000000000000E+20
 30
1.000000000000000E+20
  9
$PEXTMAX
 10
-1.000000000000000E+20
 20
-1.000000000000000E+20
 30
-1.000000000000000E+20
  9
$PLIMMIN
 10
-3.17498779296875
 20
-3.174999952316284
  9
$PLIMMAX
 10
293.4970092773438
 20
206.692492723465
  9
$UNITMODE
 70
     0
  9
$VISRETAIN
 70
     1
  9
$PLINEGEN
 70
     0
  9
$PSLTSCALE
 70
     1
  9
$TREEDEPTH
 70
  3020
  9
$CMLSTYLE
  2
Standard
  9
$CMLJUST
 70
     0
  9
$CMLSCALE
 40
20.0
  9
$PROXYGRAPHICS
 70
     1
  9
$MEASUREMENT
 70
     1
  9
$CELWEIGHT
370
    -1
  9
$ENDCAPS
280
     0
  9
$JOINSTYLE
280
     0
  9
$LWDISPLAY
290
     1
  9
$INSUNITS
 70
     4
  9
$HYPERLINKBASE
  1

  9
$STYLESHEET
  1
monochrome.ctb
  9
$XEDIT
290
     1
  9
$CEPSNTYPE
380
     0
  9
$PSTYLEMODE
290
     1
  9
$FINGERPRINTGUID
  2
{487E49EE-344A-43F6-800E-CE119D8346FF}
  9
$VERSIONGUID
  2
{3399131C-ECC6-4B29-A19F-39CB0AC38C2D}
  9
$EXTNAMES
290
     1
  9
$PSVPSCALE
 40
0.0
  9
$OLESTARTUP
290
     0
  0
ENDSEC
  0
SECTION
  2
CLASSES
  0
CLASS
  1
ACDBDICTIONARYWDFLT
  2
AcDbDictionaryWithDefault
  3
ObjectDBX Classes
 90
        0
280
     0
281
     0
  0
CLASS
  1
ACDBPLACEHOLDER
  2
AcDbPlaceHolder
  3
ObjectDBX Classes
 90
        0
280
     0
281
     0
  0
CLASS
  1
LAYOUT
  2
AcDbLayout
  3
ObjectDBX Classes
 90
        0
280
     0
281
     0
  0
CLASS
  1
AMGSETTINGSOBJ
  2
AmgSettingsObj
  3
"AcadM|Product Description: AutoCAD Mechanical|Company: Autodesk"
 90
        0
280
     0
281
     0
  0
CLASS
  1
ACME_DOCUMENT
  2
AcMeDbDoc
  3
AcMeServices
 90
        0
280
     0
281
     0
  0
CLASS
  1
ACMESCOPE
  2
AcMeScope
  3
AcMeServices
 90
        0
280
     0
281
     0
  0
CLASS
  1
ACMECOMMANDHISTORY
  2
AcMeCommandHistory
  3
AcMeServices
 90
        0
280
     0
281
     0
  0
CLASS
  1
DICTIONARYVAR
  2
AcDbDictionaryVar
  3
ObjectDBX Classes
 90
        0
280
     0
281
     0
  0
CLASS
  1
ACIMSYSVARMAN
  2
AcImSysVarManager
  3
AcMeServices
 90
        0
280
     0
281
     0
  0
CLASS
  1
ACIMREALSYSVAR
  2
AcImRealSysVar
  3
AcMeServices
 90
        0
280
     0
281
     0
  0
CLASS
  1
ACIMINTSYSVAR
  2
AcImIntSysVar
  3
AcMeServices
 90
        0
280
     0
281
     0
  0
CLASS
  1
ACMEDRAWINGMAN
  2
AcMeDrawingMan
  3
AcMeServices
 90
        0
280
     0
281
     0
  0
CLASS
  1
ACMEVIEW
  2
AcMeView
  3
AcMeServices
 90
        0
280
     0
281
     0
  0
CLASS
  1
ACDBENTITYCACHE
  2
AcMeEntityCache
  3
AcMeServices
 90
        0
280
     0
281
     0
  0
CLASS
  1
GSMANAGER
  2
AcMeGSManager
  3
AcMeServices
 90
        0
280
     0
281
     0
  0
CLASS
  1
AMDTINTERNALREACTOR
  2
AmdtInternalReactor
  3
AcMeServices
 90
        0
280
     0
281
     0
  0
CLASS
  1
ACMESTATEMGR
  2
AcMeStateMgr
  3
AcMeServices
 90
        0
280
     0
281
     0
  0
CLASS
  1
ACGREFMASTER
  2
AcGrefMaster
  3
AcAttribServices
 90
        0
280
     0
281
     0
  0
CLASS
  1
ACME_DATABASE
  2
AcMeDbDatabase
  3
AcMeServices
 90
        0
280
     0
281
     0
  0
CLASS
  1
ACRFINSADJUSTERMGR
  2
AcRfInsAdjusterMgr
  3
AcMeServices
 90
        0
280
     0
281
     0
  0
CLASS
  1
ACGREFACADMASTER
  2
AcGrefacadMaster
  3
AcGrefServices
 90
        0
280
     0
281
     0
  0
CLASS
  1
AMIMASTER
  2
AmiMaster
  3
AmiServices
 90
        0
280
     0
281
     0
  0
CLASS
  1
ACMDATADICTIONARY
  2
AcmDataDictionary
  3
"AcmSymBB|Product Description: AutoCAD Mechanical|Company: Autodesk"
 90
        0
280
     0
281
     0
  0
CLASS
  1
ACMDATAENTRYBLOCK
  2
AcmDataEntryBlock
  3
"AcmSymBB|Product Description: AutoCAD Mechanical|Company: Autodesk"
 90
        0
280
     0
281
     0
  0
CLASS
  1
ACIMSTRSYSVAR
  2
AcImStrSysVar
  3
AcMeServices
 90
        0
280
     0
281
     0
  0
CLASS
  1
ACMSTANDARDISO
  2
AcmStandardISO
  3
"Amdt_StdImp|Product Description: AutoCAD Mechanical|Company: Autodesk"
 90
        0
280
     0
281
     0
  0
CLASS
  1
AMGOBJPROPCFG
  2
AmgObjPropCfg
  3
"AmgLay|Product Description: AutoCAD Mechanical|Company: Autodesk"
 90
        1
280
     0
281
     0
  0
CLASS
  1
AMDTEDGESTANDARDISO
  2
AmdtEdgeStdISO
  3
"Amdt_StdImp|Product Description: AutoCAD Mechanical|Company: Autodesk"
 90
        0
280
     0
281
     0
  0
CLASS
  1
ACMSURFSTANDARDISO
  2
AcmSurfTextStdISO
  3
"Amdt_StdImp|Product Description: AutoCAD Mechanical|Company: Autodesk"
 90
        0
280
     0
281
     0
  0
CLASS
  1
ACMFCFSTANDARDISO
  2
AcmFCFStdISO
  3
"Amdt_StdImp|Product Description: AutoCAD Mechanical|Company: Autodesk"
 90
        0
280
     0
281
     0
  0
CLASS
  1
ACMWELDSTANDARDISO
  2
AcmWeldingStdISO
  3
"Amdt_StdImp|Product Description: AutoCAD Mechanical|Company: Autodesk"
 90
        0
280
     0
281
     0
  0
CLASS
  1
ACMIDSTANDARDISO
  2
AcmIdStdISO
  3
"Amdt_StdImp|Product Description: AutoCAD Mechanical|Company: Autodesk"
 90
        0
280
     0
281
     0
  0
CLASS
  1
ACMDATUMSTANDARDISO
  2
AcmDatumStdISO
  3
"Amdt_StdImp|Product Description: AutoCAD Mechanical|Company: Autodesk"
 90
        0
280
     0
281
     0
  0
CLASS
  1
ACMBOMSTANDARDISO
  2
AcmBOMStdISO
  3
"Amdt_StdImp|Product Description: AutoCAD Mechanical|Company: Autodesk"
 90
        0
280
     0
281
     0
  0
CLASS
  1
ACMDETAILSTANDARDISO
  2
AmdtDetailSymStdISO
  3
"Amdt_StdImp|Product Description: AutoCAD Mechanical|Company: Autodesk"
 90
        0
280
     0
281
     0
  0
CLASS
  1
ACMSECTIONSTANDARDISO
  2
AmdtSectionSymStdISO
  3
"Amdt_StdImp|Product Description: AutoCAD Mechanical|Company: Autodesk"
 90
        0
280
     0
281
     0
  0
CLASS
  1
ACMCENTERLINESTANDARDISO
  2
AmdtCenterLineStdISO
  3
"Amdt_StdImp|Product Description: AutoCAD Mechanical|Company: Autodesk"
 90
        0
280
     0
281
     0
  0
CLASS
  1
ACAMGLAYSTD
  2
AcAmgLayStd
  3
"AmgLay|Product Description: AutoCAD Mechanical|Company: Autodesk"
 90
        0
280
     0
281
     0
  0
CLASS
  1
ACAMGDIMSTD
  2
AcAmgDimStd
  3
"AmgDim|Product Description: AutoCAD Mechanical|Company: Autodesk"
 90
        0
280
     0
281
     0
  0
CLASS
  1
ACAMGTITLESTD
  2
AcAmgTitleStd
  3
"AmgTitle|Product Description: AutoCAD Mechanical|Company: Autodesk"
 90
        0
280
     0
281
     0
  0
CLASS
  1
ACAMGFILTERDAT
  2
AcAmgFilterDat
  3
"AcadM|Product Description: AutoCAD Mechanical|Company: Autodesk"
 90
        0
280
     0
281
     0
  0
CLASS
  1
LAYER_INDEX
  2
AcDbLayerIndex
  3
ObjectDBX Classes
 90
    32768
280
     0
281
     0
  0
CLASS
  1
IDBUFFER
  2
AcDbIdBuffer
  3
ObjectDBX Classes
 90
    32768
280
     0
281
     0
  0
CLASS
  1
PLOTSETTINGS
  2
AcDbPlotSettings
  3
ObjectDBX Classes
 90
    32768
280
     0
281
     0
  0
CLASS
  1
AMDTFORMULAUPDATEDISPATCHER
  2
AmdtFormulaUpdateDispatcher
  3
AcMeServices
 90
        0
280
     0
281
     0
  0
CLASS
  1
ACMSTANDARDANSI
  2
AcmStandardANSI
  3
"Amdt_StdImp|Product Description: AutoCAD Mechanical|Company: Autodesk"
 90
        0
280
     0
281
     0
  0
CLASS
  1
ACMSURFSTANDARDANSI
  2
AcmSurfTextStdANSI
  3
"Amdt_StdImp|Product Description: AutoCAD Mechanical|Company: Autodesk"
 90
        0
280
     0
281
     0
  0
CLASS
  1
ACMFCFSTANDARDANSI
  2
AcmFCFStdANSI
  3
"Amdt_StdImp|Product Description: AutoCAD Mechanical|Company: Autodesk"
 90
        0
280
     0
281
     0
  0
CLASS
  1
ACMWELDSTANDARDANSI
  2
AcmWeldingStdANSI
  3
"Amdt_StdImp|Product Description: AutoCAD Mechanical|Company: Autodesk"
 90
        0
280
     0
281
     0
  0
CLASS
  1
ACMIDSTANDARDANSI
  2
AcmIdStdANSI
  3
"Amdt_StdImp|Product Description: AutoCAD Mechanical|Company: Autodesk"
 90
        0
280
     0
281
     0
  0
CLASS
  1
ACMDATUMSTANDARDANSI
  2
AcmDatumStdANSI
  3
"Amdt_StdImp|Product Description: AutoCAD Mechanical|Company: Autodesk"
 90
        0
280
     0
281
     0
  0
CLASS
  1
ACMBOMSTANDARDANSI
  2
AcmBOMStdANSI
  3
"Amdt_StdImp|Product Description: AutoCAD Mechanical|Company: Autodesk"
 90
        0
280
     0
281
     0
  0
CLASS
  1
ACMDETAILSTANDARDANSI
  2
AmdtDetailSymStdANSI
  3
"Amdt_StdImp|Product Description: AutoCAD Mechanical|Company: Autodesk"
 90
        0
280
     0
281
     0
  0
CLASS
  1
ACMSECTIONSTANDARDANSI
  2
AmdtSectionSymStdANSI
  3
"Amdt_StdImp|Product Description: AutoCAD Mechanical|Company: Autodesk"
 90
        0
280
     0
281
     0
  0
CLASS
  1
ACMCENTERLINESTANDARDANSI
  2
AmdtCenterLineStdANSI
  3
"Amdt_StdImp|Product Description: AutoCAD Mechanical|Company: Autodesk"
 90
        0
280
     0
281
     0
  0
CLASS
  1
ACMBOM
  2
AcmBom
  3
"AcmSymBB|Product Description: AutoCAD Mechanical|Company: Autodesk"
 90
        0
280
     0
281
     0
  0
CLASS
  1
ACMDATAENTRYPART
  2
AcmDataEntryPart
  3
"AcmSymBB|Product Description: AutoCAD Mechanical|Company: Autodesk"
 90
    32768
280
     0
281
     0
  0
CLASS
  1
ACMPARTREF
  2
AcmPartRef
  3
"AcmSymBB|Product Description: AutoCAD Mechanical|Company: Autodesk"
 90
    35839
280
     0
281
     1
  0
CLASS
  1
ACDBCIRCARCRES
  2
AcDbCircArcRes
  3
AcGrefServices
 90
    32768
280
     0
281
     0
  0
CLASS
  1
ACMBOMROW
  2
AcmBomRow
  3
"AcmSymBB|Product Description: AutoCAD Mechanical|Company: Autodesk"
 90
    32768
280
     0
281
     0
  0
CLASS
  1
ACMBALLOON
  2
AcmBalloon
  3
"AcmSymBB|Product Description: AutoCAD Mechanical|Company: Autodesk"
 90
    35839
280
     0
281
     1
  0
CLASS
  1
AMDTNOTE
  2
AmdtNote
  3
"AcmSymBB|Product Description: AutoCAD Mechanical|Company: Autodesk"
 90
    35839
280
     0
281
     1
  0
CLASS
  1
STDPART2D
  2
AmgStdPart
  3
"g3vace|Class: AmgStdPart|Product Description: AutoCAD Mechanical|Company: Autodesk"
 90
    35839
280
     0
281
     1
  0
CLASS
  1
ACDBSTDPARTRES_LINE
  2
AcDbStdPartRes_Line
  3
"g3vace|Class: AcDbStdPartRes_Line|Product Description: AutoCAD Mechanical|Company: Autodesk"
 90
    32768
280
     0
281
     0
  0
CLASS
  1
ACMDATAENTRY
  2
AcmDataEntry
  3
"AcmSymBB|Product Description: AutoCAD Mechanical|Company: Autodesk"
 90
        0
280
     0
281
     0
  0
CLASS
  1
ACDBOPPOLYLINERES
  2
AcDbOpPolylineRes
  3
AcGrefServices
 90
    32768
280
     0
281
     0
  0
CLASS
  1
ACMPARTLIST
  2
AcmPartList
  3
"AcmSymBB|Product Description: AutoCAD Mechanical|Company: Autodesk"
 90
    35839
280
     0
281
     1
  0
CLASS
  1
ACDBLINERES
  2
AcDbLineRes
  3
AcGrefServices
 90
        0
280
     0
281
     0
  0
CLASS
  1
ACRFINSADJ
  2
AcRfInsAdjuster
  3
AcMeServices
 90
    32768
280
     0
281
     0
  0
CLASS
  1
AM_DRAWING_MGR
  2
AcDmDwgMgr
  3
AcMechDwgViewMgmt
 90
        0
280
     0
281
     0
  0
CLASS
  1
AM_DWG_DOCUMENT
  2
AcDmDwgDocument
  3
AcMechDwgViewMgmt
 90
        0
280
     0
281
     0
  0
CLASS
  1
AM_DWG_SHEET
  2
AcDmSheet
  3
AcMechDwgViewMgmt
 90
        0
280
     0
281
     0
  0
CLASS
  1
AM_VIEWDIMPARMAP
  2
AcDmViewDimParMap
  3
AcMechDwgViewMgmt
 90
        0
280
     0
281
     0
  0
CLASS
  1
AM_DWGMGR_NAME
  2
AcDmDwgMgrName
  3
AcMechDwgViewMgmt
 90
        0
280
     0
281
     0
  0
CLASS
  1
AMDTMENUSTATEMGR
  2
AmdtMenuStateMgr
  3
McadcomServices
 90
        0
280
     0
281
     0
  0
CLASS
  1
AMDTMCOMMENUSTATE
  2
AmdtMcomMenuState
  3
McadcomServices
 90
        0
280
     0
281
     0
  0
CLASS
  1
ASAPP
  2
AcAsAppObject
  3
AutoSurfServices
 90
        0
280
     0
281
     0
  0
CLASS
  1
IM_STATIC_MAN
  2
AcImStaticVarManager
  3
AcMeServices
 90
        0
280
     0
281
     0
  0
CLASS
  1
ACIMDBLSTATICVAR
  2
AcImDblStaticVar
  3
AcMeServices
 90
        0
280
     0
281
     0
  0
CLASS
  1
ACIMSTRSTATICVAR
  2
AcImStrStaticVar
  3
AcMeServices
 90
        0
280
     0
281
     0
  0
CLASS
  1
ACIMINTSTATICVAR
  2
AcImIntStaticVar
  3
AcMeServices
 90
        0
280
     0
281
     0
  0
CLASS
  1
ACASGREFMASTER
  2
AcAsGrefMaster
  3
AutoSurfResolverServices
 90
        0
280
     0
281
     0
  0
CLASS
  1
ACADGREFMODULE
  2
AcAdGrefModule
  3
AdGrefServices
 90
        0
280
     0
281
     0
  0
CLASS
  1
AMDTMAPISURFMOUDULE
  2
AmdtMApiSurfModule
  3
MApiSurfServices
 90
        0
280
     0
281
     0
  0
CLASS
  1
MAPIAMMOUDLE
  2
MApiAmModule
  3
MApiAmServices
 90
        0
280
     0
281
     0
  0
CLASS
  1
AMDTADMENUSTATE
  2
AmdtAdMenuState
  3
DesignerServices
 90
        0
280
     0
281
     0
  0
CLASS
  1
ADAPPL
  2
AcAdAppl
  3
DesignerServices
 90
        0
280
     0
281
     0
  0
CLASS
  1
DEPMGR
  2
AcAdDepMgr
  3
DesignerServices
 90
        0
280
     0
281
     0
  0
CLASS
  1
PARAMMGR
  2
AcAdParamMgr
  3
DesignerServices
 90
        0
280
     0
281
     0
  0
CLASS
  1
PARAMSCOPE
  2
AcAdParamScope
  3
DesignerServices
 90
        0
280
     0
281
     0
  0
CLASS
  1
NAMEDAPPL
  2
AcAdNamedAppl
  3
DesignerServices
 90
        0
280
     0
281
     0
  0
CLASS
  1
ADHNTMPLT
  2
AdHoleNoteTemplateMgr
  3
DesignerServices
 90
    32768
280
     0
281
     0
  0
CLASS
  1
AM_HNTEMPLATE_MGR_NAME
  2
AdHoleNoteTemplateMgrName
  3
DesignerServices
 90
    32768
280
     0
281
     0
  0
CLASS
  1
AMDTDMMENUSTATE
  2
AmdtDmMenuState
  3
AcMechDwgViewMgmt
 90
        0
280
     0
281
     0
  0
CLASS
  1
MAPIADMODULE
  2
MApiAdModule
  3
MApiAdServices
 90
        0
280
     0
281
     0
  0
CLASS
  1
AMDTAMMENUSTATE
  2
AmdtAmMenuState
  3
DesignerAssemblies
 90
        0
280
     0
281
     0
  0
CLASS
  1
ACAMPROJECT
  2
AcAmProject
  3
DesignerAssemblies
 90
        0
280
     0
281
     0
  0
CLASS
  1
ACAMGRCOMPDEF
  2
AcAmGrCompDef
  3
DesignerAssemblies
 90
        0
280
     0
281
     0
  0
CLASS
  1
ACCMCONTEXT
  2
AcCmContext
  3
DesignerAssemblies
 90
        0
280
     0
281
     0
  0
CLASS
  1
ACAMCOMPDEF
  2
AcAmCompDef
  3
DesignerAssemblies
 90
        0
280
     0
281
     0
  0
CLASS
  1
ACAMCOMPDEFMGR
  2
AcAmCompDefMgr
  3
DesignerAssemblies
 90
        0
280
     0
281
     0
  0
CLASS
  1
AMCONTEXTMGR
  2
AcAmContextMgr
  3
DesignerAssemblies
 90
        0
280
     0
281
     0
  0
CLASS
  1
ACAMCONTEXTMODELER
  2
AcAmContextModeler
  3
DesignerAssemblies
 90
        0
280
     0
281
     0
  0
CLASS
  1
CATALOGSTATE
  2
AcAmCatalogState
  3
DesignerAssemblies
 90
        0
280
     0
281
     0
  0
CLASS
  1
ACAMGRCOMPDEFSET
  2
AcAmGrCompDefSet
  3
DesignerAssemblies
 90
        0
280
     0
281
     0
  0
CLASS
  1
AMDTBROWSERDBTAB
  2
AmdtBrowserDbTab
  3
McadcomServices
 90
        0
280
     0
281
     0
  0
CLASS
  1
CBROWSERAPPOBJECT
  2
CBrowserAppObject
  3
McadcomServices
 90
        0
280
     0
281
     0
  0
CLASS
  1
DM_PLACEHOLDER
  2
AcDmSelsetPlaceholder
  3
AcMechDwgViewMgmt
 90
        0
280
     0
281
     0
  0
CLASS
  1
ACMPICKOBJ
  2
AcmPickEnt
  3
"AcmSymBB|Product Description: AutoCAD Mechanical|Company: Autodesk"
 90
    32768
280
     0
281
     1
  0
CLASS
  1
ACMNOTESTANDARDISO
  2
AmdtNoteStdISO
  3
"Amdt_StdImp|Product Description: AutoCAD Mechanical|Company: Autodesk"
 90
        0
280
     0
281
     0
  0
CLASS
  1
ACMNOTESTANDARDANSI
  2
AmdtNoteStdANSI
  3
"Amdt_StdImp|Product Description: AutoCAD Mechanical|Company: Autodesk"
 90
        0
280
     0
281
     0
  0
CLASS
  1
ACMTHREADLINESTANDARDISO
  2
AmdtThreadLineStdISO
  3
"Amdt_StdImp|Product Description: AutoCAD Mechanical|Company: Autodesk"
 90
        0
280
     0
281
     0
  0
CLASS
  1
ACMTHREADLINESTANDARDANSI
  2
AmdtThreadLineStdANSI
  3
"Amdt_StdImp|Product Description: AutoCAD Mechanical|Company: Autodesk"
 90
        0
280
     0
281
     0
  0
CLASS
  1
TABLESTYLE
  2
AcDbTableStyle
  3
ObjectDBX Classes
 90
     4095
280
     0
281
     0
  0
CLASS
  1
SORTENTSTABLE
  2
AcDbSortentsTable
  3
ObjectDBX Classes
 90
        0
280
     0
281
     0
  0
CLASS
  1
MATERIAL
  2
AcDbMaterial
  3
ObjectDBX Classes
 90
     1024
280
     0
281
     0
  0
CLASS
  1
VISUALSTYLE
  2
AcDbVisualStyle
  3
ObjectDBX Classes
 90
     4095
280
     0
281
     0
  0
CLASS
  1
ACRFATTGENMGR
  2
AcRfAttGeneralMgr
  3
AcAttribServices
 90
        0
280
     0
281
     0
  0
CLASS
  1
ACRFOBJATTMGR
  2
AcRfObjAttGroupMgr
  3
AcAttribServices
 90
        0
280
     0
281
     0
  0
CLASS
  1
ACRFMCADAPIATTHOLDER
  2
AcRfMCADAPIAttHolder
  3
AcAttribServices
 90
        0
280
     0
281
     0
  0
CLASS
  1
AMDTSYSATTR
  2
AmdtSystemAttribute
  3
AcAttribServices
 90
        0
280
     0
281
     0
  0
CLASS
  1
ACMTAPERSTANDARDISO
  2
AcmTaperStdISO
  3
"Amdt_StdImp|Product Description: AutoCAD Mechanical|Company: Autodesk"
 90
        0
280
     0
281
     0
  0
CLASS
  1
CAMSSTRUCTBTNSTATE
  2
StructBtnState
  3
L"DesignerAssemblies"
 90
        0
280
     0
281
     0
  0
CLASS
  1
DIMASSOC
  2
AcDbDimAssoc
  3
"AcDbDimAssoc|Product Desc:     AcDim ARX App For Dimension|Company:          Autodesk, Inc.|WEB Address:      www.autodesk.com"
 90
    32768
280
     0
281
     0
  0
CLASS
  1
EXACXREFPANELOBJECT
  2
ExAcXREFPanelObject
  3
EXAC_ESW
 90
    33793
280
     0
281
     0
  0
CLASS
  1
NPOCOLLECTION
  2
AcDbImpNonPersistentObjectsCollection
  3
ObjectDBX Classes
 90
    33921
280
     0
281
     0
  0
CLASS
  1
AMDTEDGESTANDARDISO13715
  2
AmdtEdgeStdISO13715
  3
"Amdt_StdImp|Product Description: AutoCAD Mechanical|Company: Autodesk"
 90
        0
280
     0
281
     0
  0
CLASS
  1
AMDTNOTETEMPLATEDB
  2
AmdtNoteTemplateDB
  3
AMDT_STDIMP_MODULE_NAME
 90
        0
280
     0
281
     0
  0
CLASS
  1
ACAMGHOLECHARTSTDISO
  2
AcAmgHoleChartStdISO
  3
ACMSYMBB_MODULE_NAME
 90
        0
280
     0
281
     0
  0
CLASS
  1
ACMTAPERSTANDARDANSI
  2
AcmTaperStdANSI
  3
"Amdt_StdImp|Product Description: AutoCAD Mechanical|Company: Autodesk"
 90
        0
280
     0
281
     0
  0
CLASS
  1
ACAMGHOLECHARTSTDANSI
  2
AcAmgHoleChartStdANSI
  3
ACMSYMBB_MODULE_NAME
 90
        0
280
     0
281
     0
  0
CLASS
  1
ACAMSTDPCOMPDEF
  2
AcAmStdpCompDef
  3
DesignerAssemblies
 90
    32768
280
     0
281
     0
  0
CLASS
  1
ACAMCOMP
  2
AcAmComp
  3
DesignerAssemblies
 90
    32768
280
     0
281
     0
  0
CLASS
  1
AC_AM_STDP_VIEW_DEF
  2
AcAmStdpViewDef
  3
DesignerAssemblies
 90
    32768
280
     0
281
     0
  0
CLASS
  1
AC_AM_MVD_DEP_MGR
  2
AcAmMVDdepMgr
  3
DesignerAssemblies
 90
        0
280
     0
281
     0
  0
CLASS
  1
AC_AM_MASTER_VIEW_DEF
  2
AcAmMasterViewDef
  3
DesignerAssemblies
 90
        0
280
     0
281
     0
  0
CLASS
  1
AC_AM_DIRTY_NODES
  2
AcAmDirtyNodes
  3
DesignerAssemblies
 90
        0
280
     0
281
     0
  0
CLASS
  1
AC_AM_MAPPER_CACHE
  2
AcAmMapperCache
  3
DesignerAssemblies
 90
        0
280
     0
281
     0
  0
CLASS
  1
ACAMMVDBACKUPOBJECT
  2
AcAmMVDBackupObject
  3
DesignerAssemblies
 90
        0
280
     0
281
     0
  0
CLASS
  1
AC_AM_COMP_VIEW_INST
  2
AcAmCompView
  3
DesignerAssemblies
 90
    32768
280
     0
281
     0
  0
CLASS
  1
AC_AM_2D_XREF_MGR
  2
AcAmXrefMgr2d
  3
DesignerAssemblies
 90
        0
280
     0
281
     0
  0
CLASS
  1
AC_AM_HIDE_SITUATION
  2
AcAmHideSituation
  3
DesignerAssemblies
 90
    32768
280
     0
281
     0
  0
CLASS
  1
AC_AM_TRANSFORM_GHOST
  2
AcDbTransformGhost
  3
DesignerAssemblies
 90
    32768
280
     0
281
     1
  0
CLASS
  1
L"OBJCLONER"
  2
ObjCloner
  3
DesignerAssemblies
 90
    32768
280
     0
281
     1
  0
ENDSEC
  0
SECTION
  2
TABLES
  0
TABLE
  2
VPORT
  5
8
330
0
100
AcDbSymbolTable
 70
     1
  0
VPORT
  5
B0EC
330
8
100
AcDbSymbolTableRecord
100
AcDbViewportTableRecord
  2
*Active
 70
     0
 10
0.0
 20
0.0
 11
1.0
 21
1.0
 12
6223.476696955446
 22
-2621.953812036672
 13
0.0
 23
0.0
 14
2.5
 24
2.5
 15
10.0
 25
10.0
 16
0.0
 26
0.0
 36
1.0
 17
0.0
 27
0.0
 37
0.0
 40
212.9184911544926
 41
1.648648648648648
 42
50.0
 43
-1370.695619172058
 44
-1370.695619172058
 50
0.0
 51
0.0
 71
     0
 72
   100
 73
     1
 74
     3
 75
     0
 76
     0
 77
     0
 78
     0
281
     0
 65
     0
110
0.0
120
0.0
130
0.0
111
1.0
121
0.0
131
0.0
112
0.0
122
1.0
132
0.0
 79
     0
146
0.0
  0
ENDTAB
  0
TABLE
  2
LTYPE
  5
5
330
0
100
AcDbSymbolTable
 70
    23
  0
LTYPE
  5
14
330
5
100
AcDbSymbolTableRecord
100
AcDbLinetypeTableRecord
  2
ByBlock
 70
     0
  3

 72
    65
 73
     0
 40
0.0
  0
LTYPE
  5
15
330
5
100
AcDbSymbolTableRecord
100
AcDbLinetypeTableRecord
  2
ByLayer
 70
     0
  3

 72
    65
 73
     0
 40
0.0
  0
LTYPE
  5
16
330
5
100
AcDbSymbolTableRecord
100
AcDbLinetypeTableRecord
  2
Continuous
 70
     0
  3
Solid line
 72
    65
 73
     0
 40
0.0
  0
LTYPE
  5
4F
330
5
100
AcDbSymbolTableRecord
100
AcDbLinetypeTableRecord
  2
AM_ISO02W050
 70
     0
  3
__ __ __ __ __ __ __ __ __ __ __ __ __ __ __
 72
    65
 73
     2
 40
7.5
 49
6.0
 74
     0
 49
-1.5
 74
     0
  0
LTYPE
  5
52
330
5
100
AcDbSymbolTableRecord
100
AcDbLinetypeTableRecord
  2
Amconstr
 70
     0
  3
_______________________
 72
    65
 73
     2
 40
9999.0
 49
9999.0
 74
     0
 49
0.0
 74
     0
  0
LTYPE
  5
64
330
5
100
AcDbSymbolTableRecord
100
AcDbLinetypeTableRecord
  2
ACISOWELD
 70
     0
  3
_ _ _ _ _
 72
    65
 73
     2
 40
2.0
 49
2.0
 74
     0
 49
-1.0
 74
     0
  0
LTYPE
  5
65
330
5
100
AcDbSymbolTableRecord
100
AcDbLinetypeTableRecord
  2
ACISOTGB
 70
     0
  3
__ . . __ . .
 72
    65
 73
     6
 40
9.0
 49
4.0
 74
     0
 49
-1.0
 74
     0
 49
1.0
 74
     0
 49
-1.0
 74
     0
 49
1.0
 74
     0
 49
-1.0
 74
     0
  0
LTYPE
  5
66
330
5
100
AcDbSymbolTableRecord
100
AcDbLinetypeTableRecord
  2
ACISOTGL
 70
     0
  3
_ _ _ _ _
 72
    65
 73
     2
 40
3.0
 49
2.0
 74
     0
 49
-1.0
 74
     0
  0
LTYPE
  5
69
330
5
100
AcDbSymbolTableRecord
100
AcDbLinetypeTableRecord
  2
CENTER
 70
     0
  3
__ . __
 72
    65
 73
     4
 40
7.0
 49
4.0
 74
     0
 49
-1.0
 74
     0
 49
1.0
 74
     0
 49
-1.0
 74
     0
  0
LTYPE
  5
A6E
330
5
100
AcDbSymbolTableRecord
100
AcDbLinetypeTableRecord
  2
PHANTOM2
 70
     0
  3
Phantom (.5x) ___ _ _ ___ _ _ ___ _ _ ___ _ _
 72
    65
 73
     6
 40
31.75
 49
15.875
 74
     0
 49
-3.174999999999999
 74
     0
 49
3.174999999999999
 74
     0
 49
-3.174999999999999
 74
     0
 49
3.174999999999999
 74
     0
 49
-3.174999999999999
 74
     0
  0
LTYPE
  5
4DED
330
5
100
AcDbSymbolTableRecord
100
AcDbLinetypeTableRecord
  2
中線
 70
     0
  3
___________________
 72
    65
 73
     2
 40
2.0
 49
1.0
 74
     0
 49
1.0
 74
     0
  0
LTYPE
  5
4DF6
330
5
100
AcDbSymbolTableRecord
100
AcDbLinetypeTableRecord
  2
細線
 70
     0
  3
___________________
 72
    65
 73
     2
 40
2.0
 49
1.0
 74
     0
 49
1.0
 74
     0
  0
LTYPE
  5
4DF7
330
5
100
AcDbSymbolTableRecord
100
AcDbLinetypeTableRecord
  2
太線
 70
     0
  3
___________________
 72
    65
 73
     2
 40
2.0
 49
1.0
 74
     0
 49
1.0
 74
     0
  0
LTYPE
  5
4EA7
330
5
100
AcDbSymbolTableRecord
100
AcDbLinetypeTableRecord
  2
文字
 70
     0
  3
_________________
 72
    65
 73
     2
 40
2.0
 49
1.0
 74
     0
 49
1.0
 74
     0
  0
LTYPE
  5
4EA9
330
5
100
AcDbSymbolTableRecord
100
AcDbLinetypeTableRecord
  2
寸法線
 70
     0
  3
________________
 72
    65
 73
     2
 40
2.0
 49
1.0
 74
     0
 49
1.0
 74
     0
  0
LTYPE
  5
4F12
330
5
100
AcDbSymbolTableRecord
100
AcDbLinetypeTableRecord
  2
ハッチング
 70
     0
  3
_________________
 72
    65
 73
     2
 40
2.0
 49
1.0
 74
     0
 49
1.0
 74
     0
  0
LTYPE
  5
5180
330
5
100
AcDbSymbolTableRecord
100
AcDbLinetypeTableRecord
  2
陰線1
 70
     0
  3
__ __ __ __
 72
    65
 73
     2
 40
4.0
 49
2.2
 74
     0
 49
-1.8
 74
     0
  0
LTYPE
  5
5182
330
5
100
AcDbSymbolTableRecord
100
AcDbLinetypeTableRecord
  2
切断線
 70
     0
  3
/\/-/\/-/\/-/\/-/\/-/\/
 72
    65
 73
     2
 40
11.0001
 49
0.0001
 74
     4
 75
   135
340
56
 46
0.04
 50
0.0
 44
0.0
 45
0.0
 49
-11.0
 74
     0
  0
LTYPE
  5
5183
330
5
100
AcDbSymbolTableRecord
100
AcDbLinetypeTableRecord
  2
想像線1
 70
     0
  3
__ __ __ _____ __ __ ____
 72
    65
 73
     6
 40
14.5
 49
6.0
 74
     0
 49
-1.5
 74
     0
 49
2.0
 74
     0
 49
-1.5
 74
     0
 49
2.0
 74
     0
 49
-1.5
 74
     0
  0
LTYPE
  5
5185
330
5
100
AcDbSymbolTableRecord
100
AcDbLinetypeTableRecord
  2
中心線1
 70
     0
  3
___ _ ___ _ ___
 72
    65
 73
     4
 40
18.0
 49
12.0
 74
     0
 49
-2.0
 74
     0
 49
2.0
 74
     0
 49
-2.0
 74
     0
  0
LTYPE
  5
5188
330
5
100
AcDbSymbolTableRecord
100
AcDbLinetypeTableRecord
  2
補助線
 70
     0
  3
______________
 72
    65
 73
     2
 40
2.0
 49
1.0
 74
     0
 49
1.0
 74
     0
  0
LTYPE
  5
6427
330
5
100
AcDbSymbolTableRecord
100
AcDbLinetypeTableRecord
  2
HIDDEN
 70
     0
  3
Hidden __ __ __ __ __ __ __ __ __ __ __ __ __ _
 72
    65
 73
     2
 40
0.375
 49
0.25
 74
     0
 49
-0.125
 74
     0
  0
LTYPE
  5
AF95
330
5
100
AcDbSymbolTableRecord
100
AcDbLinetypeTableRecord
  2
AM_ISO08W050
 70
     0
  3
____ . ____ . ____ . ____ . ____ . ____ . ____
 72
    65
 73
     4
 40
18.0
 49
12.0
 74
     0
 49
-1.5
 74
     0
 49
3.0
 74
     0
 49
-1.5
 74
     0
  0
LTYPE
  5
FD15
330
5
100
AcDbSymbolTableRecord
100
AcDbLinetypeTableRecord
  2
ACANSTGB
 70
     0
  3
__ . . __ . .
 72
    65
 73
     6
 40
0.35433070866
 49
0.15748031496
 74
     0
 49
-0.03937007874
 74
     0
 49
0.03937007874
 74
     0
 49
-0.03937007874
 74
     0
 49
0.03937007874
 74
     0
 49
-0.03937007874
 74
     0
  0
LTYPE
  5
FD16
330
5
100
AcDbSymbolTableRecord
100
AcDbLinetypeTableRecord
  2
ACANSTGL
 70
     0
  3
_ _ _ _ _
 72
    65
 73
     2
 40
0.11811023622
 49
0.07874015748
 74
     0
 49
-0.03937007874
 74
     0
  0
ENDTAB
  0
TABLE
  2
LAYER
  5
2
102
{ACAD_XDICTIONARY
360
3F95
102
}
330
0
100
AcDbSymbolTable
 70
    16
  0
LAYER
  5
10
330
2
100
AcDbSymbolTableRecord
100
AcDbLayerTableRecord
  2
0
 70
     0
 62
     7
  6
Continuous
370
    -3
390
F
  0
LAYER
  5
6D1
330
2
100
AcDbSymbolTableRecord
100
AcDbLayerTableRecord
  2
Defpoints
 70
     0
 62
     7
  6
Continuous
290
     0
370
    -3
390
F
  0
LAYER
  5
AC9F
330
2
100
AcDbSymbolTableRecord
100
AcDbLayerTableRecord
  2
size
 70
     0
 62
     5
  6
Continuous
290
     0
370
    25
390
F
  0
LAYER
  5
ACA0
330
2
100
AcDbSymbolTableRecord
100
AcDbLayerTableRecord
  2
waku
 70
     0
 62
     7
  6
Continuous
370
    35
390
F
  0
LAYER
  5
ACA1
330
2
100
AcDbSymbolTableRecord
100
AcDbLayerTableRecord
  2
AM_6
 70
     0
 62
     2
  6
文字
370
    15
390
F
1001
AcAecLayerStandard
1000

1000

  0
LAYER
  5
AD64
330
2
100
AcDbSymbolTableRecord
100
AcDbLayerTableRecord
  2
AM_2
 70
     0
 62
     1
  6
細線
370
    15
390
F
1001
AcAecLayerStandard
1000

1000

  0
LAYER
  5
AD68
330
2
100
AcDbSymbolTableRecord
100
AcDbLayerTableRecord
  2
AM_5
 70
     0
 62
     3
  6
寸法線
370
    15
390
F
1001
AcAecLayerStandard
1000

1000

  0
LAYER
  5
B5F5
330
2
100
AcDbSymbolTableRecord
100
AcDbLayerTableRecord
  2
0部品6
 70
     0
 62
    13
  6
細線
370
    30
390
F
1001
AcAecLayerStandard
1000

1000

  0
LAYER
  5
B5F6
330
2
100
AcDbSymbolTableRecord
100
AcDbLayerTableRecord
  2
0部品7
 70
     0
 62
   210
  6
細線
370
    30
390
F
1001
AcAecLayerStandard
1000

1000

  0
LAYER
  5
B5F7
330
2
100
AcDbSymbolTableRecord
100
AcDbLayerTableRecord
  2
0部品4
 70
     0
 62
    70
  6
細線
370
    30
390
F
1001
AcAecLayerStandard
1000

1000

  0
LAYER
  5
B5FB
330
2
100
AcDbSymbolTableRecord
100
AcDbLayerTableRecord
  2
0部品18
 70
     0
 62
   254
  6
細線
370
    30
390
F
1001
AcAecLayerStandard
1000

1000

  0
LAYER
  5
B5FC
330
2
100
AcDbSymbolTableRecord
100
AcDbLayerTableRecord
  2
0部品1
 70
     0
 62
   213
  6
細線
370
    30
390
F
1001
AcAecLayerStandard
1000

1000

  0
LAYER
  5
B5FD
330
2
100
AcDbSymbolTableRecord
100
AcDbLayerTableRecord
  2
0部品2
 70
     0
 62
   163
  6
細線
370
    30
390
F
1001
AcAecLayerStandard
1000

1000

  0
LAYER
  5
B5FE
330
2
100
AcDbSymbolTableRecord
100
AcDbLayerTableRecord
  2
0部品3
 70
     0
 62
   122
  6
細線
370
    30
390
F
1001
AcAecLayerStandard
1000

1000

  0
LAYER
  5
B5FF
330
2
100
AcDbSymbolTableRecord
100
AcDbLayerTableRecord
  2
0部品5
 70
     0
 62
    52
  6
細線
370
    30
390
F
1001
AcAecLayerStandard
1000

1000

  0
LAYER
  5
2E415
102
{ACAD_XDICTIONARY
360
2E416
102
}
330
2
100
AcDbSymbolTableRecord
100
AcDbLayerTableRecord
  2
AM_1
 70
     0
 62
    30
  6
太線
370
    25
390
F
1001
AcAecLayerStandard
1000

1000

  0
ENDTAB
  0
TABLE
  2
STYLE
  5
3
330
0
100
AcDbSymbolTable
 70
     7
  0
STYLE
  5
11
330
3
100
AcDbSymbolTableRecord
100
AcDbTextStyleTableRecord
  2
STANDARD
 70
     0
 40
0.0
 41
0.7
 50
0.0
 71
     0
 42
3.2
  3
romans.shx
  4
extfont.shx
  0
STYLE
  5
56
330
3
100
AcDbSymbolTableRecord
100
AcDbTextStyleTableRecord
  2

 70
     1
 40
0.0
 41
1.0
 50
0.0
 71
     0
 42
2.5
  3
ltypeshp.shx
  4

  0
STYLE
  5
58
330
3
100
AcDbSymbolTableRecord
100
AcDbTextStyleTableRecord
  2
ACISOTS
 70
     0
 40
1.0
 41
1.0
 50
0.0
 71
     0
 42
2.5
  3
isocp.shx
  4
extfont.shx
  0
STYLE
  5
63
330
3
100
AcDbSymbolTableRecord
100
AcDbTextStyleTableRecord
  2
ACISOGDT
 70
     0
 40
0.0
 41
1.0
 50
0.0
 71
     0
 42
2.5
  3
amgdt.shx
  4

  0
STYLE
  5
A74
330
3
100
AcDbSymbolTableRecord
100
AcDbTextStyleTableRecord
  2
DIM
 70
     0
 40
0.0
 41
1.0
 50
0.0
 71
     0
 42
2.5
  3
monotxt.shx
  4
extfont.shx
  0
STYLE
  5
FD18
330
3
100
AcDbSymbolTableRecord
100
AcDbTextStyleTableRecord
  2
ACANSTS
 70
     0
 40
1.0
 41
1.0
 50
0.0
 71
     0
 42
0.2
  3
romans.shx
  4
extfont.shx
  0
STYLE
  5
FD19
330
3
100
AcDbSymbolTableRecord
100
AcDbTextStyleTableRecord
  2
ACANSGDT
 70
     0
 40
0.0
 41
1.0
 50
0.0
 71
     0
 42
0.2
  3
amgdt.shx
  4

  0
ENDTAB
  0
TABLE
  2
VIEW
  5
6
330
0
100
AcDbSymbolTable
 70
     6
  0
VIEW
  5
AE1
330
6
100
AcDbSymbolTableRecord
100
AcDbViewTableRecord
  2
AM_VIEW1
 70
     0
 40
2203.896457765668
 10
5264.599158088851
 20
3198.765197920841
 41
2970.0
 11
0.0
 21
0.0
 31
1.0
 12
0.0
 22
0.0
 32
0.0
 42
50.0
 43
-1370.695619172058
 44
-1370.695619172058
 50
0.0
 71
     0
281
     0
 72
     0
  0
VIEW
  5
AE2
330
6
100
AcDbSymbolTableRecord
100
AcDbViewTableRecord
  2
AM_VIEW2
 70
     0
 40
2203.896457765668
 10
8234.599158088851
 20
3198.765197920841
 41
2970.0
 11
0.0
 21
0.0
 31
1.0
 12
0.0
 22
0.0
 32
0.0
 42
50.0
 43
-1370.695619172058
 44
-1370.695619172058
 50
0.0
 71
     0
281
     0
 72
     0
  0
VIEW
  5
AE3
330
6
100
AcDbSymbolTableRecord
100
AcDbViewTableRecord
  2
AM_VIEW3
 70
     0
 40
2203.896457765668
 10
5264.599158088851
 20
1202.661655686509
 41
2970.0
 11
0.0
 21
0.0
 31
1.0
 12
0.0
 22
0.0
 32
0.0
 42
50.0
 43
-1370.695619172058
 44
-1370.695619172058
 50
0.0
 71
     0
281
     0
 72
     0
  0
VIEW
  5
AE4
330
6
100
AcDbSymbolTableRecord
100
AcDbViewTableRecord
  2
AM_VIEW4
 70
     0
 40
2203.896457765668
 10
8234.599158088851
 20
1202.661655686509
 41
2970.0
 11
0.0
 21
0.0
 31
1.0
 12
0.0
 22
0.0
 32
0.0
 42
50.0
 43
-1370.695619172058
 44
-1370.695619172058
 50
0.0
 71
     0
281
     0
 72
     0
  0
VIEW
  5
AE5
330
6
100
AcDbSymbolTableRecord
100
AcDbViewTableRecord
  2
AM_VIEW5
 70
     0
 40
2203.896457765668
 10
6749.599158088852
 20
2200.713426803675
 41
2970.0
 11
0.0
 21
0.0
 31
1.0
 12
0.0
 22
0.0
 32
0.0
 42
50.0
 43
-1370.695619172058
 44
-1370.695619172058
 50
0.0
 71
     0
281
     0
 72
     0
  0
VIEW
  5
AE6
330
6
100
AcDbSymbolTableRecord
100
AcDbViewTableRecord
  2
AM_VIEW6
 70
     0
 40
4407.748837602181
 10
6749.599158088852
 20
2200.713426803675
 41
5939.9406
 11
0.0
 21
0.0
 31
1.0
 12
0.0
 22
0.0
 32
0.0
 42
50.0
 43
-1370.695619172058
 44
-1370.695619172058
 50
0.0
 71
     0
281
     0
 72
     0
  0
ENDTAB
  0
TABLE
  2
UCS
  5
7
330
0
100
AcDbSymbolTable
 70
     0
  0
ENDTAB
  0
TABLE
  2
APPID
  5
9
330
0
100
AcDbSymbolTable
 70
    67
  0
APPID
  5
12
330
9
100
AcDbSymbolTableRecord
100
AcDbRegAppTableRecord
  2
ACAD
 70
     0
  0
APPID
  5
30
330
9
100
AcDbSymbolTableRecord
100
AcDbRegAppTableRecord
  2
MCAD_NO_VIS
 70
     0
  0
APPID
  5
31
330
9
100
AcDbSymbolTableRecord
100
AcDbRegAppTableRecord
  2
ACAD_TEMP_GRAPHIC
 70
     0
  0
APPID
  5
44
330
9
100
AcDbSymbolTableRecord
100
AcDbRegAppTableRecord
  2
ACATTRIBSERVICES
 70
     0
  0
APPID
  5
7A1
330
9
100
AcDbSymbolTableRecord
100
AcDbRegAppTableRecord
  2
GENIUS_GENDIMSH_14
 70
     0
  0
APPID
  5
A49
330
9
100
AcDbSymbolTableRecord
100
AcDbRegAppTableRecord
  2
GENIUS_GENREC_14
 70
     0
  0
APPID
  5
A4A
330
9
100
AcDbSymbolTableRecord
100
AcDbRegAppTableRecord
  2
GENIUS_GENOBJ-N-REC_13
 70
     0
  0
APPID
  5
A4B
330
9
100
AcDbSymbolTableRecord
100
AcDbRegAppTableRecord
  2
GENIUS_GENODEF_13
 70
     0
  0
APPID
  5
A4C
330
9
100
AcDbSymbolTableRecord
100
AcDbRegAppTableRecord
  2
DCO15
 70
     0
  0
APPID
  5
ADC
330
9
100
AcDbSymbolTableRecord
100
AcDbRegAppTableRecord
  2
GENIUS_GENOLIS_13
 70
     0
  0
APPID
  5
ADD
330
9
100
AcDbSymbolTableRecord
100
AcDbRegAppTableRecord
  2
GENIUS_GENOENT_13
 70
     0
  0
APPID
  5
ADE
330
9
100
AcDbSymbolTableRecord
100
AcDbRegAppTableRecord
  2
GENIUS_GENOBJ-N-TIT_13
 70
     0
  0
APPID
  5
ADF
330
9
100
AcDbSymbolTableRecord
100
AcDbRegAppTableRecord
  2
GENIUS_GENTITLE_13
 70
     0
  0
APPID
  5
AE0
330
9
100
AcDbSymbolTableRecord
100
AcDbRegAppTableRecord
  2
GENIUS_GENOREF_13
 70
     0
  0
APPID
  5
AE7
330
9
100
AcDbSymbolTableRecord
100
AcDbRegAppTableRecord
  2
GENIUS_GENSCREG_15
 70
     0
  0
APPID
  5
AE8
330
9
100
AcDbSymbolTableRecord
100
AcDbRegAppTableRecord
  2
GENIUS_GENOBJ-N-SDF_13
 70
     0
  0
APPID
  5
FAF
330
9
100
AcDbSymbolTableRecord
100
AcDbRegAppTableRecord
  2
GENIUS_GENBLLY_14
 70
     0
  0
APPID
  5
FB0
330
9
100
AcDbSymbolTableRecord
100
AcDbRegAppTableRecord
  2
GENIUS_GENTRA_14
 70
     0
  0
APPID
  5
1285
330
9
100
AcDbSymbolTableRecord
100
AcDbRegAppTableRecord
  2
GENIUS_GENDTOL_13
 70
     0
  0
APPID
  5
142D
330
9
100
AcDbSymbolTableRecord
100
AcDbRegAppTableRecord
  2
GENIUS_GENOBJ-N-CEN_13
 70
     0
  0
APPID
  5
1AB5
330
9
100
AcDbSymbolTableRecord
100
AcDbRegAppTableRecord
  2
GENIUS_GENOBJ-N-CRS_13
 70
     0
  0
APPID
  5
1B36
330
9
100
AcDbSymbolTableRecord
100
AcDbRegAppTableRecord
  2
GENIUS_GENOBJ-N-HTC_13
 70
     0
  0
APPID
  5
1B37
330
9
100
AcDbSymbolTableRecord
100
AcDbRegAppTableRecord
  2
GENIUS_GENHATCH_13
 70
     0
  0
APPID
  5
216D
330
9
100
AcDbSymbolTableRecord
100
AcDbRegAppTableRecord
  2
GENIUS_GENOBJ-N-FIL_13
 70
     0
  0
APPID
  5
2356
330
9
100
AcDbSymbolTableRecord
100
AcDbRegAppTableRecord
  2
GEVID990412420
 70
     0
  0
APPID
  5
2357
330
9
100
AcDbSymbolTableRecord
100
AcDbRegAppTableRecord
  2
GEVDC
 70
     0
  0
APPID
  5
2358
330
9
100
AcDbSymbolTableRecord
100
AcDbRegAppTableRecord
  2
GEVCON
 70
     0
  0
APPID
  5
235B
330
9
100
AcDbSymbolTableRecord
100
AcDbRegAppTableRecord
  2
GEVRADREF
 70
     0
  0
APPID
  5
2360
330
9
100
AcDbSymbolTableRecord
100
AcDbRegAppTableRecord
  2
GENIUS_GENBH_13
 70
     0
  0
APPID
  5
2362
330
9
100
AcDbSymbolTableRecord
100
AcDbRegAppTableRecord
  2
GENIUS_GENOBJ-NBEHI-BHF_13
 70
     0
  0
APPID
  5
2364
330
9
100
AcDbSymbolTableRecord
100
AcDbRegAppTableRecord
  2
GENIUS_GENOBJ-NBEHI-BHB_13
 70
     0
  0
APPID
  5
2379
330
9
100
AcDbSymbolTableRecord
100
AcDbRegAppTableRecord
  2
GENIUS_GENOBJ-F-SCPASSM_13
 70
     0
  0
APPID
  5
3D74
330
9
100
AcDbSymbolTableRecord
100
AcDbRegAppTableRecord
  2
GENIUS_GENDIM_13
 70
     0
  0
APPID
  5
3D76
330
9
100
AcDbSymbolTableRecord
100
AcDbRegAppTableRecord
  2
GENIUS_GE3DTOL_13
 70
     0
  0
APPID
  5
3D9C
330
9
100
AcDbSymbolTableRecord
100
AcDbRegAppTableRecord
  2
AD_DRAW
 70
     0
  0
APPID
  5
3DE8
330
9
100
AcDbSymbolTableRecord
100
AcDbRegAppTableRecord
  2
ASURF_PCURVE_APPNAME
 70
     0
  0
APPID
  5
3DED
330
9
100
AcDbSymbolTableRecord
100
AcDbRegAppTableRecord
  2
AMG_3D2D_5.0
 70
     0
  0
APPID
  5
3E1B
330
9
100
AcDbSymbolTableRecord
100
AcDbRegAppTableRecord
  2
DESIGNERASSEMBLIES
 70
     0
  0
APPID
  5
3E20
330
9
100
AcDbSymbolTableRecord
100
AcDbRegAppTableRecord
  2
ACADM_DIM_EDIT
 70
     0
  0
APPID
  5
3E21
330
9
100
AcDbSymbolTableRecord
100
AcDbRegAppTableRecord
  2
AMDT_DM_ADJ
 70
     0
  0
APPID
  5
4143
330
9
100
AcDbSymbolTableRecord
100
AcDbRegAppTableRecord
  2
GENIUS_GENFIL_13
 70
     0
  0
APPID
  5
4144
330
9
100
AcDbSymbolTableRecord
100
AcDbRegAppTableRecord
  2
GENIUS_GENOBJ-N-CHA_13
 70
     0
  0
APPID
  5
4E17
330
9
100
AcDbSymbolTableRecord
100
AcDbRegAppTableRecord
  2
GEVID1008153417
 70
     0
  0
APPID
  5
4E58
330
9
100
AcDbSymbolTableRecord
100
AcDbRegAppTableRecord
  2
GEVID1008153418
 70
     0
  0
APPID
  5
4E5E
330
9
100
AcDbSymbolTableRecord
100
AcDbRegAppTableRecord
  2
GEVID1008153419
 70
     0
  0
APPID
  5
4E64
330
9
100
AcDbSymbolTableRecord
100
AcDbRegAppTableRecord
  2
GEVID1008153420
 70
     0
  0
APPID
  5
4E75
330
9
100
AcDbSymbolTableRecord
100
AcDbRegAppTableRecord
  2
GEVID1008153421
 70
     0
  0
APPID
  5
4EB7
330
9
100
AcDbSymbolTableRecord
100
AcDbRegAppTableRecord
  2
GENIUS_AMGTXT_16
 70
     0
  0
APPID
  5
7645
330
9
100
AcDbSymbolTableRecord
100
AcDbRegAppTableRecord
  2
GENIUS_GENOBJ-N-DIM_13
 70
     0
  0
APPID
  5
AAD0
330
9
100
AcDbSymbolTableRecord
100
AcDbRegAppTableRecord
  2
ACAD_DSTYLE_DIMARC_LENGTH_SYMBOL
 70
     0
  0
APPID
  5
AAD1
330
9
100
AcDbSymbolTableRecord
100
AcDbRegAppTableRecord
  2
ACAD_DSTYLE_DIMJOGGED_JOGANGLE_SYMBOL
 70
     0
  0
APPID
  5
AAFD
330
9
100
AcDbSymbolTableRecord
100
AcDbRegAppTableRecord
  2
ACAD_PSEXT
 70
     0
  0
APPID
  5
AD61
330
9
100
AcDbSymbolTableRecord
100
AcDbRegAppTableRecord
  2
AcAecLayerStandard
 70
     0
  0
APPID
  5
AEE3
330
9
100
AcDbSymbolTableRecord
100
AcDbRegAppTableRecord
  2
ACAD_EXEMPT_FROM_CAD_STANDARDS
 70
     0
  0
APPID
  5
B1BE
330
9
100
AcDbSymbolTableRecord
100
AcDbRegAppTableRecord
  2
GENIUS_GENCEN_19
 70
     0
  0
APPID
  5
B4E1
330
9
100
AcDbSymbolTableRecord
100
AcDbRegAppTableRecord
  2
ACAD_MLEADERVER
 70
     0
  0
APPID
  5
C488
330
9
100
AcDbSymbolTableRecord
100
AcDbRegAppTableRecord
  2
ACAD_DSTYLE_DIMINSPECT
 70
     0
  0
APPID
  5
C489
330
9
100
AcDbSymbolTableRecord
100
AcDbRegAppTableRecord
  2
ACAD_DSTYLE_DIMRADIAL_EXTENSION
 70
     0
  0
APPID
  5
1980E
330
9
100
AcDbSymbolTableRecord
100
AcDbRegAppTableRecord
  2
GEVID1311583542
 70
     0
  0
APPID
  5
19825
330
9
100
AcDbSymbolTableRecord
100
AcDbRegAppTableRecord
  2
AMG_2DHIDE
 70
     0
  0
APPID
  5
19826
330
9
100
AcDbSymbolTableRecord
100
AcDbRegAppTableRecord
  2
AMG_2DSTRUCT_BTR
 70
     0
  0
APPID
  5
19837
330
9
100
AcDbSymbolTableRecord
100
AcDbRegAppTableRecord
  2
ACADM_2DVIEW_IGN_NOTIFY
 70
     0
  0
APPID
  5
1B56B
330
9
100
AcDbSymbolTableRecord
100
AcDbRegAppTableRecord
  2
GEVID1311583543
 70
     0
  0
APPID
  5
1B5F6
330
9
100
AcDbSymbolTableRecord
100
AcDbRegAppTableRecord
  2
GEVID1311583544
 70
     0
  0
APPID
  5
1B61B
330
9
100
AcDbSymbolTableRecord
100
AcDbRegAppTableRecord
  2
GEVID1311583545
 70
     0
  0
APPID
  5
1B63D
330
9
100
AcDbSymbolTableRecord
100
AcDbRegAppTableRecord
  2
GEVID1311583546
 70
     0
  0
APPID
  5
1B675
330
9
100
AcDbSymbolTableRecord
100
AcDbRegAppTableRecord
  2
GEVID1311583547
 70
     0
  0
ENDTAB
  0
TABLE
  2
DIMSTYLE
  5
A
330
0
100
AcDbSymbolTable
 70
    25
100
AcDbDimStyleTable
 71
     3
340
2515
340
251A
340
251B
  0
DIMSTYLE
105
A76
330
A
100
AcDbSymbolTableRecord
100
AcDbDimStyleTableRecord
  2
STANDARD
 70
     0
 41
3.0
 42
1.0
 43
7.0
 44
2.0
 73
     0
 74
     0
 77
     1
140
2.799999999999999
141
0.0
143
0.0394
147
0.7
171
     4
172
     1
173
     1
176
     3
177
     3
178
     2
271
     3
272
     3
273
     8
274
     4
289
     0
340
A74
341
A66
343
A66
344
A66
  0
DIMSTYLE
105
2515
330
A
100
AcDbSymbolTableRecord
100
AcDbDimStyleTableRecord
  2
SYS
 70
     0
  4
"
 41
1.0
 42
1.0
 43
10.0
 44
1.0
 47
0.1
 48
0.1
 73
     0
 74
     0
 77
     1
 78
     8
 79
     2
140
3.5
141
0.0
143
0.0393701
146
0.71
147
1.5
172
     1
176
   256
177
   256
178
     7
271
     2
272
     2
283
     0
284
     8
340
11
371
    -1
372
    -1
1001
ACAD_DSTYLE_DIMJOGGED_JOGANGLE_SYMBOL
1070
   384
1040
0.7853981633974483
1001
ACAD_DSTYLE_DIMARC_LENGTH_SYMBOL
1070
   379
1070
     1
  0
DIMSTYLE
105
2516
102
{ACAD_REACTORS
330
59BA7
330
5A472
102
}
330
A
100
AcDbSymbolTableRecord
100
AcDbDimStyleTableRecord
  2
SYS$3
 70
     0
  4
"
 41
2.0
 42
1.0
 43
10.0
 44
1.0
 47
0.1
 48
0.1
 73
     0
 77
     1
 78
     8
 79
     2
140
3.2
141
0.0
143
0.0393701
146
0.71
147
1.0
176
   256
177
   256
178
     2
271
     2
272
     2
283
     0
284
     8
288
     1
340
11
342
A66
371
    -1
372
    -1
1001
ACAD_DSTYLE_DIMJOGGED_JOGANGLE_SYMBOL
1070
   384
1040
0.7853981633974483
1001
ACAD_DSTYLE_DIMARC_LENGTH_SYMBOL
1070
   379
1070
     1
  0
DIMSTYLE
105
2517
330
A
100
AcDbSymbolTableRecord
100
AcDbDimStyleTableRecord
  2
SYS$4
 70
     0
  4
"
 41
2.0
 42
1.0
 43
10.0
 44
1.0
 47
0.1
 48
0.1
 73
     0
 77
     1
 78
     8
 79
     2
140
3.2
141
0.0
143
0.0393701
146
0.71
147
1.0
173
     1
176
   256
177
   256
178
     2
271
     2
272
     2
283
     0
284
     8
288
     1
340
11
344
A66
371
    -1
372
    -1
1001
ACAD_DSTYLE_DIMJOGGED_JOGANGLE_SYMBOL
1070
   384
1040
0.7853981633974483
1001
ACAD_DSTYLE_DIMARC_LENGTH_SYMBOL
1070
   379
1070
     1
  0
DIMSTYLE
105
2518
330
A
100
AcDbSymbolTableRecord
100
AcDbDimStyleTableRecord
  2
SYS$6
 70
     0
  4
"
 41
2.0
 42
1.0
 43
10.0
 44
1.0
 47
0.1
 48
0.1
 73
     0
 74
     0
 78
     8
 79
     2
140
3.2
141
0.0
143
0.0393701
146
0.71
147
1.0
172
     1
176
   256
177
   256
178
     2
271
     2
272
     2
283
     0
284
     8
340
11
341
A66
371
    -1
372
    -1
1001
ACAD_DSTYLE_DIMJOGGED_JOGANGLE_SYMBOL
1070
   384
1040
0.7853981633974483
1001
ACAD_DSTYLE_DIMARC_LENGTH_SYMBOL
1070
   379
1070
     1
  0
DIMSTYLE
105
2519
330
A
100
AcDbSymbolTableRecord
100
AcDbDimStyleTableRecord
  2
SYS$7
 70
     0
  4
"
 41
2.0
 42
1.0
 43
10.0
 44
1.0
 47
0.1
 48
0.1
 73
     0
 74
     0
 77
     1
 78
     8
 79
     2
140
3.2
141
0.0
143
0.0393701
146
0.71
147
1.0
172
     1
176
   256
177
   256
178
     2
271
     2
272
     2
283
     0
284
     8
340
11
341
A66
342
A66
371
    -1
372
    -1
1001
ACAD_DSTYLE_DIMJOGGED_JOGANGLE_SYMBOL
1070
   384
1040
0.7853981633974483
1001
ACAD_DSTYLE_DIMARC_LENGTH_SYMBOL
1070
   379
1070
     1
  0
DIMSTYLE
105
251A
330
A
100
AcDbSymbolTableRecord
100
AcDbDimStyleTableRecord
  2
SYS$SF
 70
     0
  4
"
 41
2.5
 42
1.0
 43
10.0
 44
1.0
 47
0.1
 48
0.1
 73
     0
 74
     0
 75
     1
 76
     1
 77
     1
 78
     8
 79
     2
140
3.2
141
0.0
143
0.0393701
146
0.71
147
1.0
172
     1
176
   256
177
   256
178
     2
271
     2
272
     2
283
     0
284
     8
340
11
341
6C4
342
6C4
371
    -1
372
    -1
1001
ACAD_DSTYLE_DIMJOGGED_JOGANGLE_SYMBOL
1070
   384
1040
0.7853981633974483
1001
ACAD_DSTYLE_DIMARC_LENGTH_SYMBOL
1070
   379
1070
     1
  0
DIMSTYLE
105
251B
330
A
100
AcDbSymbolTableRecord
100
AcDbDimStyleTableRecord
  2
SYS$SH
 70
     0
  4
"
 41
2.5
 42
1.0
 43
10.0
 44
1.0
 47
0.1
 48
0.1
 73
     0
 74
     0
 75
     1
 76
     1
 77
     1
 78
     8
 79
     2
140
3.2
141
0.0
143
0.0393701
144
2.0
146
0.71
147
1.0
172
     1
173
     1
176
   256
177
   256
178
     2
271
     2
272
     2
283
     0
284
     8
340
11
341
6C4
343
72
344
6C4
371
    -1
372
    -1
1001
ACAD_DSTYLE_DIMJOGGED_JOGANGLE_SYMBOL
1070
   384
1040
0.7853981633974483
1001
ACAD_DSTYLE_DIMARC_LENGTH_SYMBOL
1070
   379
1070
     1
  0
DIMSTYLE
105
2A59
330
A
100
AcDbSymbolTableRecord
100
AcDbDimStyleTableRecord
  2
SYS$2
 70
     0
  4
"
 41
1.0
 42
1.0
 43
10.0
 44
1.0
 47
0.1
 48
0.1
 73
     0
 74
     0
 77
     1
 78
     8
 79
     2
140
3.2
141
0.0
143
0.0393701
146
0.71
147
1.0
172
     1
176
   256
177
   256
178
     2
271
     2
272
     2
283
     0
284
     8
340
11
342
6C4
371
    -1
372
    -1
1001
ACAD_DSTYLE_DIMJOGGED_JOGANGLE_SYMBOL
1070
   384
1040
0.7853981633974483
1001
ACAD_DSTYLE_DIMARC_LENGTH_SYMBOL
1070
   379
1070
     1
  0
DIMSTYLE
105
2AAB
102
{ACAD_REACTORS
330
58324
330
58325
330
58374
330
58393
330
583BB
330
583F5
330
583F6
330
58451
330
58452
330
58503
330
58504
330
58553
330
5859F
330
585B5
102
}
330
A
100
AcDbSymbolTableRecord
100
AcDbDimStyleTableRecord
  2
SYS$0
 70
     0
  4
"
 41
1.0
 42
1.0
 43
10.0
 44
1.0
 47
0.1
 48
0.1
 73
     0
 74
     0
 77
     1
 78
     8
 79
     2
140
3.200000000000001
141
0.0
143
0.0393701
146
0.71
147
1.0
172
     1
176
   256
177
   256
178
     2
271
     2
272
     2
283
     0
284
     8
340
11
341
A66
342
6C4
371
    -1
372
    -1
1001
ACAD_DSTYLE_DIMJOGGED_JOGANGLE_SYMBOL
1070
   384
1040
0.7853981633974483
1001
ACAD_DSTYLE_DIMARC_LENGTH_SYMBOL
1070
   379
1070
     1
  0
DIMSTYLE
105
AF99
330
A
100
AcDbSymbolTableRecord
100
AcDbDimStyleTableRecord
  2
AM_ISO
 70
     0
  4
"
 41
2.5
 42
1.0
 43
10.0
 44
1.0
 47
0.1
 48
0.1
 73
     0
 74
     0
 77
     1
 78
     8
 79
     2
140
3.5
141
0.0
143
0.0393701
146
0.71
147
1.5
172
     1
176
   256
177
   256
178
     2
271
     2
272
     3
274
     4
283
     0
284
     8
340
11
371
    -1
372
    -1
  0
DIMSTYLE
105
AF9A
330
A
100
AcDbSymbolTableRecord
100
AcDbDimStyleTableRecord
  2
AM_ISO$3
 70
     0
  4
"
 41
2.5
 42
1.0
 43
10.0
 44
1.0
 47
0.1
 48
0.1
 73
     0
 77
     1
 78
     8
 79
     2
140
3.5
141
0.0
143
0.0393701
146
0.71
147
1.5
176
   256
177
   256
178
     2
271
     2
272
     3
274
     4
283
     0
284
     8
288
     1
289
     0
340
11
371
    -1
372
    -1
  0
DIMSTYLE
105
AF9B
330
A
100
AcDbSymbolTableRecord
100
AcDbDimStyleTableRecord
  2
AM_ISO$4
 70
     0
  4
"
 41
2.5
 42
1.0
 43
10.0
 44
1.0
 47
0.1
 48
0.1
 73
     0
 77
     1
 78
     8
 79
     2
140
3.5
141
0.0
143
0.0393701
146
0.71
147
1.5
176
   256
177
   256
178
     2
271
     2
272
     3
274
     4
283
     0
284
     8
288
     1
289
     0
340
11
371
    -1
372
    -1
  0
DIMSTYLE
105
AF9C
330
A
100
AcDbSymbolTableRecord
100
AcDbDimStyleTableRecord
  2
AM_ISO$6
 70
     0
  4
"
 41
2.5
 42
1.0
 43
10.0
 44
1.0
 47
0.1
 48
0.1
 73
     0
 74
     0
 78
     8
 79
     2
140
3.5
141
0.0
143
0.0393701
146
0.71
147
1.5
172
     1
176
   256
177
   256
178
     2
271
     2
272
     3
274
     4
283
     0
284
     8
340
11
371
    -1
372
    -1
  0
DIMSTYLE
105
AF9D
330
A
100
AcDbSymbolTableRecord
100
AcDbDimStyleTableRecord
  2
AM_ISO$7
 70
     0
  4
"
 41
2.5
 42
1.0
 43
10.0
 44
1.0
 47
0.1
 48
0.1
 73
     0
 74
     0
 77
     1
 78
     8
 79
     2
140
5.0
141
0.0
143
0.0393701
146
0.71
147
1.5
172
     1
176
   256
177
   256
178
     2
271
     2
272
     3
274
     4
283
     0
284
     8
340
11
371
    -1
372
    -1
  0
DIMSTYLE
105
AF9E
330
A
100
AcDbSymbolTableRecord
100
AcDbDimStyleTableRecord
  2
AM_ISO$SF
 70
     0
  4
"
 41
2.5
 42
1.0
 43
10.0
 44
1.0
 47
0.1
 48
0.1
 73
     0
 74
     0
 75
     1
 76
     1
 77
     1
 78
     8
 79
     2
140
3.5
141
0.0
143
0.0393701
146
0.71
147
1.5
172
     1
176
   256
177
   256
178
     2
271
     2
272
     3
274
     4
283
     0
284
     8
340
11
371
    -1
372
    -1
  0
DIMSTYLE
105
AF9F
330
A
100
AcDbSymbolTableRecord
100
AcDbDimStyleTableRecord
  2
AM_ISO$SH
 70
     0
  4
"
 41
2.5
 42
1.0
 43
10.0
 44
1.0
 47
0.1
 48
0.1
 73
     0
 74
     0
 75
     1
 76
     1
 77
     1
 78
     8
 79
     2
140
3.5
141
0.0
143
0.0393701
144
2.0
146
0.71
147
1.5
172
     1
173
     1
176
   256
177
   256
178
     2
271
     2
272
     3
274
     4
283
     0
284
     8
340
11
343
72
371
    -1
372
    -1
  0
DIMSTYLE
105
B60C
330
A
100
AcDbSymbolTableRecord
100
AcDbDimStyleTableRecord
  2
AM_ANSI
 70
     0
  4
mm
 41
0.1
 42
0.05
 43
0.5
 44
0.1
 47
0.1
 48
0.1
 78
     7
 79
     2
140
0.12
141
0.0
146
0.71
147
0.06
176
   256
177
   256
178
     2
274
     4
284
     7
340
11
371
    -1
372
    -1
  0
DIMSTYLE
105
C485
330
A
100
AcDbSymbolTableRecord
100
AcDbDimStyleTableRecord
  2
AM_ISO$0
 70
     0
  4
"
 41
0.8
 42
1.0
 43
10.0
 44
1.0
 47
0.1
 48
0.1
 73
     0
 74
     0
 77
     1
 78
     8
 79
     2
140
3.2
141
0.0
143
0.0393701
146
0.71
147
0.9999999999999996
172
     1
176
   256
177
   256
178
     2
271
     2
272
     2
283
     0
284
     8
340
11
341
6C4
342
6C4
371
    -1
372
    -1
1001
ACAD_DSTYLE_DIMJOGGED_JOGANGLE_SYMBOL
1070
   384
1040
0.7853981633974483
1001
ACAD_DSTYLE_DIMARC_LENGTH_SYMBOL
1070
   379
1070
     1
  0
DIMSTYLE
105
C486
330
A
100
AcDbSymbolTableRecord
100
AcDbDimStyleTableRecord
  2
AM_ISO$2
 70
     0
  4
"
 41
0.8
 42
1.0
 43
10.0
 44
1.0
 47
0.1
 48
0.1
 73
     0
 74
     0
 77
     3
 78
     8
 79
     2
140
3.200000000000001
141
0.0
143
0.0393701
146
0.71
147
0.9999999999999996
172
     1
176
   256
177
   256
178
     2
271
     2
272
     2
283
     0
284
     8
340
11
342
6C4
371
    -1
372
    -1
1001
ACAD_DSTYLE_DIMJOGGED_JOGANGLE_SYMBOL
1070
   384
1040
0.7853981633974483
1001
ACAD_DSTYLE_DIMARC_LENGTH_SYMBOL
1070
   379
1070
     1
  0
DIMSTYLE
105
FD1A
330
A
100
AcDbSymbolTableRecord
100
AcDbDimStyleTableRecord
  2
AM_ANSI$3
 70
     0
  4
mm
 41
0.1
 42
0.05
 43
0.5
 44
0.1
 47
0.1
 48
0.1
 78
     7
 79
     2
140
0.12
141
0.0
146
0.71
147
0.06
176
   256
177
   256
178
     2
274
     4
284
     7
288
     1
289
     0
340
11
371
    -1
372
    -1
1001
ACAD_DSTYLE_DIMARC_LENGTH_SYMBOL
1070
   379
1070
     1
  0
DIMSTYLE
105
FD1B
330
A
100
AcDbSymbolTableRecord
100
AcDbDimStyleTableRecord
  2
AM_ANSI$4
 70
     0
  4
mm
 41
0.1
 42
0.05
 43
0.5
 44
0.1
 47
0.1
 48
0.1
 78
     7
 79
     2
140
0.12
141
0.0
146
0.71
147
0.06
176
   256
177
   256
178
     2
274
     4
284
     7
288
     1
289
     0
340
11
371
    -1
372
    -1
1001
ACAD_DSTYLE_DIMARC_LENGTH_SYMBOL
1070
   379
1070
     1
  0
DIMSTYLE
105
FD1C
330
A
100
AcDbSymbolTableRecord
100
AcDbDimStyleTableRecord
  2
AM_ANSI$7
 70
     0
  4
mm
 41
0.1
 42
0.05
 43
0.5
 44
0.1
 47
0.1
 48
0.1
 78
     7
 79
     2
140
0.24
141
0.0
146
0.71
147
0.06
176
   256
177
   256
178
     2
274
     4
284
     7
340
11
371
    -1
372
    -1
1001
ACAD_DSTYLE_DIMARC_LENGTH_SYMBOL
1070
   379
1070
     1
  0
DIMSTYLE
105
FD1D
330
A
100
AcDbSymbolTableRecord
100
AcDbDimStyleTableRecord
  2
AM_ANSI$SF
 70
     0
  4
mm
 41
0.1
 42
0.05
 43
0.5
 44
0.1
 47
0.1
 48
0.1
 75
     1
 76
     1
 78
     7
 79
     2
140
0.12
141
0.0
146
0.71
147
0.06
176
   256
177
   256
178
     2
274
     4
284
     7
340
11
371
    -1
372
    -1
1001
ACAD_DSTYLE_DIMARC_LENGTH_SYMBOL
1070
   379
1070
     1
  0
DIMSTYLE
105
FD1E
330
A
100
AcDbSymbolTableRecord
100
AcDbDimStyleTableRecord
  2
AM_ANSI$SH
 70
     0
  4
mm
 41
0.1
 42
0.05
 43
0.5
 44
0.1
 47
0.1
 48
0.1
 75
     1
 76
     1
 78
     7
 79
     2
140
0.12
141
0.0
146
0.71
147
0.06
173
     1
176
   256
177
   256
178
     2
274
     4
284
     7
340
11
343
72
371
    -1
372
    -1
1001
ACAD_DSTYLE_DIMARC_LENGTH_SYMBOL
1070
   379
1070
     1
  0
ENDTAB
  0
TABLE
  2
BLOCK_RECORD
  5
1
330
0
100
AcDbSymbolTable
 70
    23
  0
BLOCK_RECORD
  5
1F
102
{ACAD_XDICTIONARY
360
8A
102
}
330
1
100
AcDbSymbolTableRecord
100
AcDbBlockTableRecord
  2
*Model_Space
340
22
  0
BLOCK_RECORD
  5
1B
330
1
100
AcDbSymbolTableRecord
100
AcDbBlockTableRecord
  2
*Paper_Space
340
1E
  0
BLOCK_RECORD
  5
23
330
1
100
AcDbSymbolTableRecord
100
AcDbBlockTableRecord
  2
*Paper_Space0
340
26
  0
BLOCK_RECORD
  5
72
330
1
100
AcDbSymbolTableRecord
100
AcDbBlockTableRecord
  2
GENAXEH
340
0
  0
BLOCK_RECORD
  5
6C4
330
1
100
AcDbSymbolTableRecord
100
AcDbBlockTableRecord
  2
_Dot
340
0
102
{BLKREFS
331
58647
331
58648
331
58650
331
58651
331
58662
331
58663
331
5868A
331
5868B
331
58693
331
58694
331
59A3F
331
59A40
331
59A5A
331
59A5B
331
59AA2
331
59AA3
331
59AB4
331
59AB5
331
59B56
331
59B57
331
59B7D
331
59B7E
331
59BF8
331
59BF9
331
59C6F
331
59C70
331
59CA3
331
59CA4
331
59CEF
331
59CF0
331
5A48D
331
5A48E
102
}
  0
BLOCK_RECORD
  5
A66
330
1
100
AcDbSymbolTableRecord
100
AcDbBlockTableRecord
  2
_OPEN30
340
0
  0
BLOCK_RECORD
  5
58326
330
1
100
AcDbSymbolTableRecord
100
AcDbBlockTableRecord
  2
*D7
340
0
  0
BLOCK_RECORD
  5
58332
330
1
100
AcDbSymbolTableRecord
100
AcDbBlockTableRecord
  2
*D8
340
0
  0
BLOCK_RECORD
  5
58375
330
1
100
AcDbSymbolTableRecord
100
AcDbBlockTableRecord
  2
*D9
340
0
  0
BLOCK_RECORD
  5
58394
330
1
100
AcDbSymbolTableRecord
100
AcDbBlockTableRecord
  2
*D10
340
0
  0
BLOCK_RECORD
  5
583BC
330
1
100
AcDbSymbolTableRecord
100
AcDbBlockTableRecord
  2
*D11
340
0
  0
BLOCK_RECORD
  5
583F7
330
1
100
AcDbSymbolTableRecord
100
AcDbBlockTableRecord
  2
*D12
340
0
  0
BLOCK_RECORD
  5
58405
330
1
100
AcDbSymbolTableRecord
100
AcDbBlockTableRecord
  2
*D13
340
0
  0
BLOCK_RECORD
  5
58453
330
1
100
AcDbSymbolTableRecord
100
AcDbBlockTableRecord
  2
*D14
340
0
  0
BLOCK_RECORD
  5
5845F
330
1
100
AcDbSymbolTableRecord
100
AcDbBlockTableRecord
  2
*D15
340
0
  0
BLOCK_RECORD
  5
58505
330
1
100
AcDbSymbolTableRecord
100
AcDbBlockTableRecord
  2
*D16
340
0
  0
BLOCK_RECORD
  5
58511
330
1
100
AcDbSymbolTableRecord
100
AcDbBlockTableRecord
  2
*D17
340
0
  0
BLOCK_RECORD
  5
58554
330
1
100
AcDbSymbolTableRecord
100
AcDbBlockTableRecord
  2
*D18
340
0
  0
BLOCK_RECORD
  5
585A0
330
1
100
AcDbSymbolTableRecord
100
AcDbBlockTableRecord
  2
*D19
340
0
  0
BLOCK_RECORD
  5
585B6
330
1
100
AcDbSymbolTableRecord
100
AcDbBlockTableRecord
  2
*D20
340
0
  0
BLOCK_RECORD
  5
59BA8
330
1
100
AcDbSymbolTableRecord
100
AcDbBlockTableRecord
  2
*D21
340
0
  0
BLOCK_RECORD
  5
5A473
330
1
100
AcDbSymbolTableRecord
100
AcDbBlockTableRecord
  2
*D22
340
0
  0
ENDTAB
  0
ENDSEC
  0
SECTION
  2
BLOCKS
  0
BLOCK
  5
20
330
1F
100
AcDbEntity
  8
0
100
AcDbBlockBegin
  2
*Model_Space
 70
     0
 10
0.0
 20
0.0
 30
0.0
  3
*Model_Space
  1

  0
ENDBLK
  5
21
330
1F
100
AcDbEntity
  8
0
100
AcDbBlockEnd
  0
BLOCK
  5
1C
330
1B
100
AcDbEntity
 67
     1
  8
0
100
AcDbBlockBegin
  2
*Paper_Space
 70
     0
 10
0.0
 20
0.0
 30
0.0
  3
*Paper_Space
  1

  0
ENDBLK
  5
1D
330
1B
100
AcDbEntity
 67
     1
  8
0
100
AcDbBlockEnd
  0
BLOCK
  5
24
330
23
100
AcDbEntity
 67
     1
  8
0
100
AcDbBlockBegin
  2
*Paper_Space0
 70
     0
 10
0.0
 20
0.0
 30
0.0
  3
*Paper_Space0
  1

  0
ENDBLK
  5
25
330
23
100
AcDbEntity
 67
     1
  8
0
100
AcDbBlockEnd
  0
BLOCK
  5
74
330
72
100
AcDbEntity
  8
0
100
AcDbBlockBegin
  2
GENAXEH
 70
     0
 10
0.0
 20
0.0
 30
0.0
  3
GENAXEH
  1

  0
LINE
  5
73
330
72
100
AcDbEntity
  8
0
100
AcDbLine
 10
-1.0
 20
0.0
 30
0.0
 11
1.0
 21
0.0
 31
0.0
  0
ENDBLK
  5
75
330
72
100
AcDbEntity
  8
0
100
AcDbBlockEnd
  0
BLOCK
  5
6C7
330
6C4
100
AcDbEntity
  8
0
100
AcDbBlockBegin
  2
_Dot
 70
     0
 10
0.0
 20
0.0
 30
0.0
  3
_Dot
  1

  0
LWPOLYLINE
  5
6C5
330
6C4
100
AcDbEntity
  8
0
  6
ByBlock
 62
     0
100
AcDbPolyline
 90
        2
 70
     1
 43
0.5
 10
-0.25
 20
0.0
 42
1.0
 10
0.25
 20
0.0
 42
1.0
  0
LINE
  5
6C6
330
6C4
100
AcDbEntity
  8
0
  6
ByBlock
 62
     0
370
    -2
100
AcDbLine
 10
-0.5
 20
0.0
 30
0.0
 11
-1.0
 21
0.0
 31
0.0
  0
ENDBLK
  5
6C8
330
6C4
100
AcDbEntity
  8
0
100
AcDbBlockEnd
  0
BLOCK
  5
A6A
330
A66
100
AcDbEntity
  8
0
100
AcDbBlockBegin
  2
_OPEN30
 70
     0
 10
0.0
 20
0.0
 30
0.0
  3
_OPEN30
  1

  0
LINE
  5
A67
330
A66
100
AcDbEntity
  8
0
  6
ByBlock
 62
     0
100
AcDbLine
 10
-1.0
 20
0.26794919
 30
0.0
 11
0.0
 21
0.0
 31
0.0
  0
LINE
  5
A68
330
A66
100
AcDbEntity
  8
0
  6
ByBlock
 62
     0
100
AcDbLine
 10
0.0
 20
0.0
 30
0.0
 11
-1.0
 21
-0.26794919
 31
0.0
  0
LINE
  5
A69
330
A66
100
AcDbEntity
  8
0
  6
ByBlock
 62
     0
100
AcDbLine
 10
0.0
 20
0.0
 30
0.0
 11
-1.0
 21
0.0
 31
0.0
  0
ENDBLK
  5
A6B
330
A66
100
AcDbEntity
  8
0
100
AcDbBlockEnd
  0
BLOCK
  5
58330
330
58326
100
AcDbEntity
  8
0
100
AcDbBlockBegin
  2
*D7
 70
     1
 10
0.0
 20
0.0
 30
0.0
  3
*D7
  1

  0
LINE
  5
5864D
330
58326
100
AcDbEntity
  8
AM_5
100
AcDbLine
 10
6244.90787372458
 20
-2594.460554572839
 30
0.0
 11
6252.907873724579
 21
-2594.460554572839
 31
0.0
  0
LINE
  5
5864E
330
58326
100
AcDbEntity
  8
AM_5
100
AcDbLine
 10
6244.90787372458
 20
-2612.06055457284
 30
0.0
 11
6252.907873724579
 21
-2612.06055457284
 31
0.0
  0
LINE
  5
5864F
330
58326
100
AcDbEntity
  8
AM_5
100
AcDbLine
 10
6251.907873724579
 20
-2595.460554572839
 30
0.0
 11
6251.907873724579
 21
-2611.060554572839
 31
0.0
  0
INSERT
  5
58650
330
58326
100
AcDbEntity
  8
AM_5
100
AcDbBlockReference
  2
_Dot
 10
6251.907873724579
 20
-2594.460554572839
 30
0.0
 50
90.0
  0
INSERT
  5
58651
330
58326
100
AcDbEntity
  8
AM_5
100
AcDbBlockReference
  2
_Dot
 10
6251.907873724579
 20
-2612.06055457284
 30
0.0
 50
270.0
  0
MTEXT
  5
58652
330
58326
100
AcDbEntity
  8
AM_5
 62
     2
100
AcDbMText
 10
6249.307873724579
 20
-2603.260554572838
 30
0.0
 40
3.200000000000001
 41
0.0
 71
     5
 72
     1
  1
17.6
 11
0.0000000000000001
 21
1.0
 31
0.0
 73
     1
 44
1.0
1001
ACAD
1000
MTEXTBEGIN
1070
    73
1070
     1
1070
    44
1040
1.0
1070
    74
1070
     0
1000
MTEXTEND
  0
POINT
  5
58653
330
58326
100
AcDbEntity
  8
Defpoints
 62
     0
100
AcDbPoint
 10
6243.90787372458
 20
-2594.460554572839
 30
0.0
  0
POINT
  5
58654
330
58326
100
AcDbEntity
  8
Defpoints
 62
     0
100
AcDbPoint
 10
6243.90787372458
 20
-2612.06055457284
 30
0.0
  0
POINT
  5
58655
330
58326
100
AcDbEntity
  8
Defpoints
 62
     0
100
AcDbPoint
 10
6251.907873724579
 20
-2612.06055457284
 30
0.0
  0
ENDBLK
  5
58331
330
58326
100
AcDbEntity
  8
0
100
AcDbBlockEnd
  0
BLOCK
  5
5833C
330
58332
100
AcDbEntity
  8
0
100
AcDbBlockBegin
  2
*D8
 70
     1
 10
0.0
 20
0.0
 30
0.0
  3
*D8
  1

  0
LINE
  5
58644
330
58332
100
AcDbEntity
  8
AM_5
100
AcDbLine
 10
6224.775591724577
 20
-2592.760554572839
 30
0.0
 11
6260.90787372458
 21
-2592.760554572839
 31
0.0
  0
LINE
  5
58645
330
58332
100
AcDbEntity
  8
AM_5
100
AcDbLine
 10
6224.775591724579
 20
-2613.76055457284
 30
0.0
 11
6260.90787372458
 21
-2613.76055457284
 31
0.0
  0
LINE
  5
58646
330
58332
100
AcDbEntity
  8
AM_5
100
AcDbLine
 10
6259.907873724579
 20
-2593.760554572839
 30
0.0
 11
6259.907873724579
 21
-2612.760554572839
 31
0.0
  0
INSERT
  5
58647
330
58332
100
AcDbEntity
  8
AM_5
100
AcDbBlockReference
  2
_Dot
 10
6259.907873724579
 20
-2592.760554572839
 30
0.0
 50
90.0
  0
INSERT
  5
58648
330
58332
100
AcDbEntity
  8
AM_5
100
AcDbBlockReference
  2
_Dot
 10
6259.907873724579
 20
-2613.76055457284
 30
0.0
 50
270.0
  0
MTEXT
  5
58649
330
58332
100
AcDbEntity
  8
AM_5
 62
     2
100
AcDbMText
 10
6257.30787372458
 20
-2603.260554572838
 30
0.0
 40
3.200000000000001
 41
0.0
 71
     5
 72
     1
  1
（21）
 11
0.0000000000000001
 21
1.0
 31
0.0
 73
     1
 44
1.0
1001
ACAD
1000
MTEXTBEGIN
1070
    73
1070
     1
1070
    44
1040
1.0
1070
    74
1070
     0
1000
MTEXTEND
  0
POINT
  5
5864A
330
58332
100
AcDbEntity
  8
Defpoints
 62
     0
100
AcDbPoint
 10
6223.775591724577
 20
-2592.760554572839
 30
0.0
  0
POINT
  5
5864B
330
58332
100
AcDbEntity
  8
Defpoints
 62
     0
100
AcDbPoint
 10
6223.77559172458
 20
-2613.76055457284
 30
0.0
  0
POINT
  5
5864C
330
58332
100
AcDbEntity
  8
Defpoints
 62
     0
100
AcDbPoint
 10
6259.907873724579
 20
-2613.76055457284
 30
0.0
  0
ENDBLK
  5
5833D
330
58332
100
AcDbEntity
  8
0
100
AcDbBlockEnd
  0
BLOCK
  5
5837F
330
58375
100
AcDbEntity
  8
0
100
AcDbBlockBegin
  2
*D9
 70
     1
 10
0.0
 20
0.0
 30
0.0
  3
*D9
  1

  0
LINE
  5
5865F
330
58375
100
AcDbEntity
  8
AM_5
100
AcDbLine
 10
6216.90787372458
 20
-2591.760554572839
 30
0.0
 11
6216.90787372458
 21
-2582.76055457284
 31
0.0
  0
LINE
  5
58660
330
58375
100
AcDbEntity
  8
AM_5
100
AcDbLine
 10
6243.90787372458
 20
-2593.460554572839
 30
0.0
 11
6243.90787372458
 21
-2582.76055457284
 31
0.0
  0
LINE
  5
58661
330
58375
100
AcDbEntity
  8
AM_5
100
AcDbLine
 10
6217.90787372458
 20
-2583.760554572839
 30
0.0
 11
6242.90787372458
 21
-2583.760554572839
 31
0.0
  0
INSERT
  5
58662
330
58375
100
AcDbEntity
  8
AM_5
100
AcDbBlockReference
  2
_Dot
 10
6216.90787372458
 20
-2583.760554572839
 30
0.0
 50
180.0
  0
INSERT
  5
58663
330
58375
100
AcDbEntity
  8
AM_5
100
AcDbBlockReference
  2
_Dot
 10
6243.90787372458
 20
-2583.760554572839
 30
0.0
  0
MTEXT
  5
58664
330
58375
100
AcDbEntity
  8
AM_5
 62
     2
100
AcDbMText
 10
6230.40787372458
 20
-2581.16055457284
 30
0.0
 40
3.200000000000001
 41
0.0
 71
     5
 72
     1
  1
（27）
 73
     1
 44
1.0
1001
ACAD
1000
MTEXTBEGIN
1070
    73
1070
     1
1070
    44
1040
1.0
1070
    74
1070
     0
1000
MTEXTEND
  0
POINT
  5
58665
330
58375
100
AcDbEntity
  8
Defpoints
 62
     0
100
AcDbPoint
 10
6216.90787372458
 20
-2592.760554572839
 30
0.0
  0
POINT
  5
58666
330
58375
100
AcDbEntity
  8
Defpoints
 62
     0
100
AcDbPoint
 10
6243.90787372458
 20
-2594.460554572839
 30
0.0
  0
POINT
  5
58667
330
58375
100
AcDbEntity
  8
Defpoints
 62
     0
100
AcDbPoint
 10
6243.90787372458
 20
-2583.760554572839
 30
0.0
  0
ENDBLK
  5
58380
330
58375
100
AcDbEntity
  8
0
100
AcDbBlockEnd
  0
BLOCK
  5
5839E
330
58394
100
AcDbEntity
  8
0
100
AcDbBlockBegin
  2
*D10
 70
     1
 10
0.0
 20
0.0
 30
0.0
  3
*D10
  1

  0
LINE
  5
59A9F
330
58394
100
AcDbEntity
  8
AM_5
100
AcDbLine
 10
6199.25787372458
 20
-2597.260554572839
 30
0.0
 11
6192.907873724579
 21
-2597.260554572839
 31
0.0
  0
LINE
  5
59AA0
330
58394
100
AcDbEntity
  8
AM_5
100
AcDbLine
 10
6199.25787372458
 20
-2609.26055457284
 30
0.0
 11
6192.907873724579
 21
-2609.26055457284
 31
0.0
  0
LINE
  5
59AA1
330
58394
100
AcDbEntity
  8
AM_5
100
AcDbLine
 10
6193.90787372458
 20
-2598.260554572839
 30
0.0
 11
6193.90787372458
 21
-2608.26055457284
 31
0.0
  0
INSERT
  5
59AA2
330
58394
100
AcDbEntity
  8
AM_5
100
AcDbBlockReference
  2
_Dot
 10
6193.90787372458
 20
-2597.260554572839
 30
0.0
 50
90.0
  0
INSERT
  5
59AA3
330
58394
100
AcDbEntity
  8
AM_5
100
AcDbBlockReference
  2
_Dot
 10
6193.90787372458
 20
-2609.26055457284
 30
0.0
 50
270.0
  0
MTEXT
  5
59AA4
330
58394
100
AcDbEntity
  8
AM_5
 62
     2
100
AcDbMText
 10
6191.307873724579
 20
-2603.260554572838
 30
0.0
 40
3.200000000000001
 41
0.0
 71
     5
 72
     1
  1
12
 11
0.0000000000000001
 21
1.0
 31
0.0
 73
     1
 44
1.0
1001
ACAD
1000
MTEXTBEGIN
1070
    73
1070
     1
1070
    44
1040
1.0
1070
    74
1070
     0
1000
MTEXTEND
  0
POINT
  5
59AA5
330
58394
100
AcDbEntity
  8
Defpoints
 62
     0
100
AcDbPoint
 10
6200.25787372458
 20
-2597.260554572839
 30
0.0
  0
POINT
  5
59AA6
330
58394
100
AcDbEntity
  8
Defpoints
 62
     0
100
AcDbPoint
 10
6200.25787372458
 20
-2609.26055457284
 30
0.0
  0
POINT
  5
59AA7
330
58394
100
AcDbEntity
  8
Defpoints
 62
     0
100
AcDbPoint
 10
6193.90787372458
 20
-2609.26055457284
 30
0.0
  0
ENDBLK
  5
5839F
330
58394
100
AcDbEntity
  8
0
100
AcDbBlockEnd
  0
BLOCK
  5
583C6
330
583BC
100
AcDbEntity
  8
0
100
AcDbBlockBegin
  2
*D11
 70
     1
 10
0.0
 20
0.0
 30
0.0
  3
*D11
  1

  0
LINE
  5
59AB1
330
583BC
100
AcDbEntity
  8
AM_5
100
AcDbLine
 10
6201.90787372458
 20
-2593.260554572839
 30
0.0
 11
6184.907873724579
 21
-2593.260554572839
 31
0.0
  0
LINE
  5
59AB2
330
583BC
100
AcDbEntity
  8
AM_5
100
AcDbLine
 10
6201.90787372458
 20
-2613.26055457284
 30
0.0
 11
6184.907873724579
 21
-2613.26055457284
 31
0.0
  0
LINE
  5
59AB3
330
583BC
100
AcDbEntity
  8
AM_5
100
AcDbLine
 10
6185.90787372458
 20
-2594.260554572839
 30
0.0
 11
6185.90787372458
 21
-2612.26055457284
 31
0.0
  0
INSERT
  5
59AB4
330
583BC
100
AcDbEntity
  8
AM_5
100
AcDbBlockReference
  2
_Dot
 10
6185.90787372458
 20
-2593.260554572839
 30
0.0
 50
90.0
  0
INSERT
  5
59AB5
330
583BC
100
AcDbEntity
  8
AM_5
100
AcDbBlockReference
  2
_Dot
 10
6185.90787372458
 20
-2613.26055457284
 30
0.0
 50
270.0
  0
MTEXT
  5
59AB6
330
583BC
100
AcDbEntity
  8
AM_5
 62
     2
100
AcDbMText
 10
6183.307873724579
 20
-2603.26055457284
 30
0.0
 40
3.200000000000001
 41
0.0
 71
     5
 72
     1
  1
20
 11
0.0000000000000001
 21
1.0
 31
0.0
 73
     1
 44
1.0
1001
ACAD
1000
MTEXTBEGIN
1070
    73
1070
     1
1070
    44
1040
1.0
1070
    74
1070
     0
1000
MTEXTEND
  0
POINT
  5
59AB7
330
583BC
100
AcDbEntity
  8
Defpoints
 62
     0
100
AcDbPoint
 10
6202.90787372458
 20
-2593.260554572839
 30
0.0
  0
POINT
  5
59AB8
330
583BC
100
AcDbEntity
  8
Defpoints
 62
     0
100
AcDbPoint
 10
6202.90787372458
 20
-2613.26055457284
 30
0.0
  0
POINT
  5
59AB9
330
583BC
100
AcDbEntity
  8
Defpoints
 62
     0
100
AcDbPoint
 10
6185.90787372458
 20
-2613.26055457284
 30
0.0
  0
ENDBLK
  5
583C7
330
583BC
100
AcDbEntity
  8
0
100
AcDbBlockEnd
  0
BLOCK
  5
58403
330
583F7
100
AcDbEntity
  8
0
100
AcDbBlockBegin
  2
*D12
 70
     1
 10
0.0
 20
0.0
 30
0.0
  3
*D12
  1

  0
LINE
  5
59B51
330
583F7
100
AcDbEntity
  8
AM_5
100
AcDbLine
 10
6200.90787372458
 20
-2659.610488507175
 30
0.0
 11
6192.907873724579
 21
-2659.610488507175
 31
0.0
  0
LINE
  5
59B52
330
583F7
100
AcDbEntity
  8
AM_5
100
AcDbLine
 10
6200.90787372458
 20
-2658.110488507176
 30
0.0
 11
6192.907873724579
 21
-2658.110488507176
 31
0.0
  0
LINE
  5
59B53
330
583F7
100
AcDbEntity
  8
AM_5
100
AcDbLine
 10
6193.90787372458
 20
-2657.110488507175
 30
0.0
 11
6193.90787372458
 21
-2656.110488507176
 31
0.0
  0
LINE
  5
59B54
330
583F7
100
AcDbEntity
  8
AM_5
100
AcDbLine
 10
6193.90787372458
 20
-2660.610488507176
 30
0.0
 11
6193.90787372458
 21
-2667.983821840509
 31
0.0
  0
LINE
  5
59B55
330
583F7
100
AcDbEntity
  8
AM_5
100
AcDbLine
 10
6193.90787372458
 20
-2658.110488507176
 30
0.0
 11
6193.90787372458
 21
-2659.610488507175
 31
0.0
  0
INSERT
  5
59B56
330
583F7
100
AcDbEntity
  8
AM_5
100
AcDbBlockReference
  2
_Dot
 10
6193.90787372458
 20
-2658.110488507176
 30
0.0
 50
270.0
  0
INSERT
  5
59B57
330
583F7
100
AcDbEntity
  8
AM_5
100
AcDbBlockReference
  2
_Dot
 10
6193.90787372458
 20
-2659.610488507175
 30
0.0
 50
90.0
  0
MTEXT
  5
59B58
330
583F7
100
AcDbEntity
  8
AM_5
 62
     2
100
AcDbMText
 10
6191.307873724579
 20
-2664.797155173841
 30
0.0
 40
3.200000000000001
 41
0.0
 71
     5
 72
     1
  1
1.5
 11
0.0000000000000001
 21
1.0
 31
0.0
 73
     1
 44
1.0
1001
ACAD
1000
MTEXTBEGIN
1070
    73
1070
     1
1070
    44
1040
1.0
1070
    74
1070
     0
1000
MTEXTEND
  0
POINT
  5
59B59
330
583F7
100
AcDbEntity
  8
Defpoints
 62
     0
100
AcDbPoint
 10
6201.90787372458
 20
-2659.610488507175
 30
0.0
  0
POINT
  5
59B5A
330
583F7
100
AcDbEntity
  8
Defpoints
 62
     0
100
AcDbPoint
 10
6201.90787372458
 20
-2658.110488507176
 30
0.0
  0
POINT
  5
59B5B
330
583F7
100
AcDbEntity
  8
Defpoints
 62
     0
100
AcDbPoint
 10
6193.90787372458
 20
-2658.110488507176
 30
0.0
  0
ENDBLK
  5
58404
330
583F7
100
AcDbEntity
  8
0
100
AcDbBlockEnd
  0
BLOCK
  5
5840F
330
58405
100
AcDbEntity
  8
0
100
AcDbBlockBegin
  2
*D13
 70
     1
 10
0.0
 20
0.0
 30
0.0
  3
*D13
  1

  0
LINE
  5
59CA0
330
58405
100
AcDbEntity
  8
AM_5
100
AcDbLine
 10
6200.90787372458
 20
-2659.610488507175
 30
0.0
 11
6184.907873724579
 21
-2659.610488507175
 31
0.0
  0
LINE
  5
59CA1
330
58405
100
AcDbEntity
  8
AM_5
100
AcDbLine
 10
6208.718464724579
 20
-2651.508043507175
 30
0.0
 11
6184.907873724579
 21
-2651.508043507175
 31
0.0
  0
LINE
  5
59CA2
330
58405
100
AcDbEntity
  8
AM_5
100
AcDbLine
 10
6185.90787372458
 20
-2658.610488507175
 30
0.0
 11
6185.90787372458
 21
-2652.508043507175
 31
0.0
  0
INSERT
  5
59CA3
330
58405
100
AcDbEntity
  8
AM_5
100
AcDbBlockReference
  2
_Dot
 10
6185.90787372458
 20
-2659.610488507175
 30
0.0
 50
270.0
  0
INSERT
  5
59CA4
330
58405
100
AcDbEntity
  8
AM_5
100
AcDbBlockReference
  2
_Dot
 10
6185.90787372458
 20
-2651.508043507175
 30
0.0
 50
90.0
  0
MTEXT
  5
59CA5
330
58405
100
AcDbEntity
  8
AM_5
 62
     2
100
AcDbMText
 10
6183.307873724579
 20
-2655.559266007174
 30
0.0
 40
3.200000000000001
 41
0.0
 71
     5
 72
     1
  1
8
 11
0.0000000000000001
 21
1.0
 31
0.0
 73
     1
 44
1.0
1001
ACAD
1000
MTEXTBEGIN
1070
    73
1070
     1
1070
    44
1040
1.0
1070
    74
1070
     0
1000
MTEXTEND
  0
POINT
  5
59CA6
330
58405
100
AcDbEntity
  8
Defpoints
 62
     0
100
AcDbPoint
 10
6201.90787372458
 20
-2659.610488507175
 30
0.0
  0
POINT
  5
59CA7
330
58405
100
AcDbEntity
  8
Defpoints
 62
     0
100
AcDbPoint
 10
6209.71846472458
 20
-2651.508043507175
 30
0.0
  0
POINT
  5
59CA8
330
58405
100
AcDbEntity
  8
Defpoints
 62
     0
100
AcDbPoint
 10
6185.90787372458
 20
-2651.508043507175
 30
0.0
  0
ENDBLK
  5
58410
330
58405
100
AcDbEntity
  8
0
100
AcDbBlockEnd
  0
BLOCK
  5
5845D
330
58453
100
AcDbEntity
  8
0
100
AcDbBlockBegin
  2
*D14
 70
     1
 10
0.0
 20
0.0
 30
0.0
  3
*D14
  1

  0
LINE
  5
59C6C
330
58453
100
AcDbEntity
  8
AM_5
100
AcDbLine
 10
6241.929680512108
 20
-2659.610488507175
 30
0.0
 11
6260.90787372458
 21
-2659.610488507175
 31
0.0
  0
LINE
  5
59C6D
330
58453
100
AcDbEntity
  8
AM_5
100
AcDbLine
 10
6235.407873724579
 20
-2650.110488507175
 30
0.0
 11
6260.90787372458
 21
-2650.110488507175
 31
0.0
  0
LINE
  5
59C6E
330
58453
100
AcDbEntity
  8
AM_5
100
AcDbLine
 10
6259.907873724579
 20
-2658.610488507175
 30
0.0
 11
6259.907873724579
 21
-2651.110488507175
 31
0.0
  0
INSERT
  5
59C6F
330
58453
100
AcDbEntity
  8
AM_5
100
AcDbBlockReference
  2
_Dot
 10
6259.907873724579
 20
-2659.610488507175
 30
0.0
 50
270.0
  0
INSERT
  5
59C70
330
58453
100
AcDbEntity
  8
AM_5
100
AcDbBlockReference
  2
_Dot
 10
6259.907873724579
 20
-2650.110488507175
 30
0.0
 50
90.0
  0
MTEXT
  5
59C71
330
58453
100
AcDbEntity
  8
AM_5
 62
     2
100
AcDbMText
 10
6257.30787372458
 20
-2654.610488507175
 30
0.0
 40
3.200000000000001
 41
0.0
 71
     5
 72
     1
  1
（9.5）
 11
0.0000000000000001
 21
1.0
 31
0.0
 73
     1
 44
1.0
1001
ACAD
1000
MTEXTBEGIN
1070
    73
1070
     1
1070
    44
1040
1.0
1070
    74
1070
     0
1000
MTEXTEND
  0
POINT
  5
59C72
330
58453
100
AcDbEntity
  8
Defpoints
 62
     0
100
AcDbPoint
 10
6240.929680512109
 20
-2659.610488507175
 30
0.0
  0
POINT
  5
59C73
330
58453
100
AcDbEntity
  8
Defpoints
 62
     0
100
AcDbPoint
 10
6234.407873724579
 20
-2650.110488507175
 30
0.0
  0
POINT
  5
59C74
330
58453
100
AcDbEntity
  8
Defpoints
 62
     0
100
AcDbPoint
 10
6259.907873724579
 20
-2650.110488507175
 30
0.0
  0
ENDBLK
  5
5845E
330
58453
100
AcDbEntity
  8
0
100
AcDbBlockEnd
  0
BLOCK
  5
5846B
330
5845F
100
AcDbEntity
  8
0
100
AcDbBlockBegin
  2
*D15
 70
     1
 10
0.0
 20
0.0
 30
0.0
  3
*D15
  1

  0
LINE
  5
59B78
330
5845F
100
AcDbEntity
  8
AM_5
100
AcDbLine
 10
6241.929680512108
 20
-2659.610488507175
 30
0.0
 11
6252.881278323274
 21
-2659.610488507175
 31
0.0
  0
LINE
  5
59B79
330
5845F
100
AcDbEntity
  8
AM_5
100
AcDbLine
 10
6241.929680512108
 20
-2658.110488507176
 30
0.0
 11
6252.881278323274
 21
-2658.110488507176
 31
0.0
  0
LINE
  5
59B7A
330
5845F
100
AcDbEntity
  8
AM_5
100
AcDbLine
 10
6251.881278323273
 20
-2657.110488507175
 30
0.0
 11
6251.881278323273
 21
-2656.110488507176
 31
0.0
  0
LINE
  5
59B7B
330
5845F
100
AcDbEntity
  8
AM_5
100
AcDbLine
 10
6251.881278323273
 20
-2660.610488507176
 30
0.0
 11
6251.881278323273
 21
-2667.983821840509
 31
0.0
  0
LINE
  5
59B7C
330
5845F
100
AcDbEntity
  8
AM_5
100
AcDbLine
 10
6251.881278323273
 20
-2658.110488507176
 30
0.0
 11
6251.881278323273
 21
-2659.610488507175
 31
0.0
  0
INSERT
  5
59B7D
330
5845F
100
AcDbEntity
  8
AM_5
100
AcDbBlockReference
  2
_Dot
 10
6251.881278323273
 20
-2658.110488507176
 30
0.0
 50
270.0
  0
INSERT
  5
59B7E
330
5845F
100
AcDbEntity
  8
AM_5
100
AcDbBlockReference
  2
_Dot
 10
6251.881278323273
 20
-2659.610488507175
 30
0.0
 50
90.0
  0
MTEXT
  5
59B7F
330
5845F
100
AcDbEntity
  8
AM_5
 62
     2
100
AcDbMText
 10
6249.281278323274
 20
-2664.797155173841
 30
0.0
 40
3.200000000000001
 41
0.0
 71
     5
 72
     1
  1
1.5
 11
0.0000000000000001
 21
1.0
 31
0.0
 73
     1
 44
1.0
1001
ACAD
1000
MTEXTBEGIN
1070
    73
1070
     1
1070
    44
1040
1.0
1070
    74
1070
     0
1000
MTEXTEND
  0
POINT
  5
59B80
330
5845F
100
AcDbEntity
  8
Defpoints
 62
     0
100
AcDbPoint
 10
6240.929680512109
 20
-2659.610488507175
 30
0.0
  0
POINT
  5
59B81
330
5845F
100
AcDbEntity
  8
Defpoints
 62
     0
100
AcDbPoint
 10
6240.929680512109
 20
-2658.110488507176
 30
0.0
  0
POINT
  5
59B82
330
5845F
100
AcDbEntity
  8
Defpoints
 62
     0
100
AcDbPoint
 10
6251.881278323273
 20
-2658.110488507176
 30
0.0
  0
ENDBLK
  5
5846C
330
5845F
100
AcDbEntity
  8
0
100
AcDbBlockEnd
  0
BLOCK
  5
5850F
330
58505
100
AcDbEntity
  8
0
100
AcDbBlockBegin
  2
*D16
 70
     1
 10
0.0
 20
0.0
 30
0.0
  3
*D16
  1

  0
LINE
  5
58687
330
58505
100
AcDbEntity
  8
AM_5
100
AcDbLine
 10
6223.90787372458
 20
-2609.410554572839
 30
0.0
 11
6223.90787372458
 21
-2631.760554572839
 31
0.0
  0
LINE
  5
58688
330
58505
100
AcDbEntity
  8
AM_5
100
AcDbLine
 10
6236.90787372458
 20
-2609.410554572839
 30
0.0
 11
6236.90787372458
 21
-2631.760554572839
 31
0.0
  0
LINE
  5
58689
330
58505
100
AcDbEntity
  8
AM_5
100
AcDbLine
 10
6224.90787372458
 20
-2630.76055457284
 30
0.0
 11
6235.90787372458
 21
-2630.76055457284
 31
0.0
  0
INSERT
  5
5868A
330
58505
100
AcDbEntity
  8
AM_5
100
AcDbBlockReference
  2
_Dot
 10
6223.90787372458
 20
-2630.76055457284
 30
0.0
 50
180.0
  0
INSERT
  5
5868B
330
58505
100
AcDbEntity
  8
AM_5
100
AcDbBlockReference
  2
_Dot
 10
6236.90787372458
 20
-2630.76055457284
 30
0.0
  0
MTEXT
  5
5868C
330
58505
100
AcDbEntity
  8
AM_5
 62
     2
100
AcDbMText
 10
6230.40787372458
 20
-2628.160554572839
 30
0.0
 40
3.200000000000001
 41
0.0
 71
     5
 72
     1
  1
13
 73
     1
 44
1.0
1001
ACAD
1000
MTEXTBEGIN
1070
    73
1070
     1
1070
    44
1040
1.0
1070
    74
1070
     0
1000
MTEXTEND
  0
POINT
  5
5868D
330
58505
100
AcDbEntity
  8
Defpoints
 62
     0
100
AcDbPoint
 10
6223.90787372458
 20
-2608.410554572839
 30
0.0
  0
POINT
  5
5868E
330
58505
100
AcDbEntity
  8
Defpoints
 62
     0
100
AcDbPoint
 10
6236.90787372458
 20
-2608.410554572839
 30
0.0
  0
POINT
  5
5868F
330
58505
100
AcDbEntity
  8
Defpoints
 62
     0
100
AcDbPoint
 10
6236.90787372458
 20
-2630.76055457284
 30
0.0
  0
ENDBLK
  5
58510
330
58505
100
AcDbEntity
  8
0
100
AcDbBlockEnd
  0
BLOCK
  5
5851B
330
58511
100
AcDbEntity
  8
0
100
AcDbBlockBegin
  2
*D17
 70
     1
 10
0.0
 20
0.0
 30
0.0
  3
*D17
  1

  0
LINE
  5
59A3C
330
58511
100
AcDbEntity
  8
AM_5
100
AcDbLine
 10
6223.90787372458
 20
-2609.410554572839
 30
0.0
 11
6223.90787372458
 21
-2631.760554572839
 31
0.0
  0
LINE
  5
59A3D
330
58511
100
AcDbEntity
  8
AM_5
100
AcDbLine
 10
6205.40787372458
 20
-2615.410554572839
 30
0.0
 11
6205.40787372458
 21
-2631.760554572839
 31
0.0
  0
LINE
  5
59A3E
330
58511
100
AcDbEntity
  8
AM_5
100
AcDbLine
 10
6222.907873724579
 20
-2630.76055457284
 30
0.0
 11
6206.40787372458
 21
-2630.76055457284
 31
0.0
  0
INSERT
  5
59A3F
330
58511
100
AcDbEntity
  8
AM_5
100
AcDbBlockReference
  2
_Dot
 10
6223.90787372458
 20
-2630.76055457284
 30
0.0
  0
INSERT
  5
59A40
330
58511
100
AcDbEntity
  8
AM_5
100
AcDbBlockReference
  2
_Dot
 10
6205.40787372458
 20
-2630.76055457284
 30
0.0
 50
180.0
  0
MTEXT
  5
59A41
330
58511
100
AcDbEntity
  8
AM_5
 62
     2
100
AcDbMText
 10
6213.65787372458
 20
-2628.160554572839
 30
0.0
 40
3.200000000000001
 41
0.0
 71
     5
 72
     1
  1
18.5
 73
     1
 44
1.0
1001
ACAD
1000
MTEXTBEGIN
1070
    73
1070
     1
1070
    44
1040
1.0
1070
    74
1070
     0
1000
MTEXTEND
  0
POINT
  5
59A42
330
58511
100
AcDbEntity
  8
Defpoints
 62
     0
100
AcDbPoint
 10
6223.90787372458
 20
-2608.410554572839
 30
0.0
  0
POINT
  5
59A43
330
58511
100
AcDbEntity
  8
Defpoints
 62
     0
100
AcDbPoint
 10
6205.40787372458
 20
-2614.410554572839
 30
0.0
  0
POINT
  5
59A44
330
58511
100
AcDbEntity
  8
Defpoints
 62
     0
100
AcDbPoint
 10
6205.40787372458
 20
-2630.76055457284
 30
0.0
  0
ENDBLK
  5
5851C
330
58511
100
AcDbEntity
  8
0
100
AcDbBlockEnd
  0
BLOCK
  5
5855E
330
58554
100
AcDbEntity
  8
0
100
AcDbBlockBegin
  2
*D18
 70
     1
 10
0.0
 20
0.0
 30
0.0
  3
*D18
  1

  0
LINE
  5
58690
330
58554
100
AcDbEntity
  8
AM_5
100
AcDbLine
 10
6216.90787372458
 20
-2614.76055457284
 30
0.0
 11
6216.90787372458
 21
-2623.760554572839
 31
0.0
  0
LINE
  5
58691
330
58554
100
AcDbEntity
  8
AM_5
100
AcDbLine
 10
6223.90787372458
 20
-2609.410554572839
 30
0.0
 11
6223.90787372458
 21
-2623.760554572839
 31
0.0
  0
LINE
  5
58692
330
58554
100
AcDbEntity
  8
AM_5
100
AcDbLine
 10
6217.90787372458
 20
-2622.76055457284
 30
0.0
 11
6222.907873724579
 21
-2622.76055457284
 31
0.0
  0
INSERT
  5
58693
330
58554
100
AcDbEntity
  8
AM_5
100
AcDbBlockReference
  2
_Dot
 10
6216.90787372458
 20
-2622.76055457284
 30
0.0
 50
180.0
  0
INSERT
  5
58694
330
58554
100
AcDbEntity
  8
AM_5
100
AcDbBlockReference
  2
_Dot
 10
6223.90787372458
 20
-2622.76055457284
 30
0.0
  0
MTEXT
  5
58695
330
58554
100
AcDbEntity
  8
AM_5
 62
     2
100
AcDbMText
 10
6220.40787372458
 20
-2620.160554572839
 30
0.0
 40
3.200000000000001
 41
0.0
 71
     5
 72
     1
  1
7
 73
     1
 44
1.0
1001
ACAD
1000
MTEXTBEGIN
1070
    73
1070
     1
1070
    44
1040
1.0
1070
    74
1070
     0
1000
MTEXTEND
  0
POINT
  5
58696
330
58554
100
AcDbEntity
  8
Defpoints
 62
     0
100
AcDbPoint
 10
6216.90787372458
 20
-2613.76055457284
 30
0.0
  0
POINT
  5
58697
330
58554
100
AcDbEntity
  8
Defpoints
 62
     0
100
AcDbPoint
 10
6223.90787372458
 20
-2608.410554572839
 30
0.0
  0
POINT
  5
58698
330
58554
100
AcDbEntity
  8
Defpoints
 62
     0
100
AcDbPoint
 10
6223.90787372458
 20
-2622.76055457284
 30
0.0
  0
ENDBLK
  5
5855F
330
58554
100
AcDbEntity
  8
0
100
AcDbBlockEnd
  0
BLOCK
  5
585AA
330
585A0
100
AcDbEntity
  8
0
100
AcDbBlockBegin
  2
*D19
 70
     1
 10
0.0
 20
0.0
 30
0.0
  3
*D19
  1

  0
LINE
  5
59CEC
330
585A0
100
AcDbEntity
  8
AM_5
100
AcDbLine
 10
6213.90787372458
 20
-2598.26055457284
 30
0.0
 11
6213.90787372458
 21
-2582.76055457284
 31
0.0
  0
LINE
  5
59CED
330
585A0
100
AcDbEntity
  8
AM_5
100
AcDbLine
 10
6201.90787372458
 20
-2593.260554572839
 30
0.0
 11
6201.90787372458
 21
-2582.76055457284
 31
0.0
  0
LINE
  5
59CEE
330
585A0
100
AcDbEntity
  8
AM_5
100
AcDbLine
 10
6212.90787372458
 20
-2583.76055457284
 30
0.0
 11
6202.90787372458
 21
-2583.76055457284
 31
0.0
  0
INSERT
  5
59CEF
330
585A0
100
AcDbEntity
  8
AM_5
100
AcDbBlockReference
  2
_Dot
 10
6213.90787372458
 20
-2583.76055457284
 30
0.0
  0
INSERT
  5
59CF0
330
585A0
100
AcDbEntity
  8
AM_5
100
AcDbBlockReference
  2
_Dot
 10
6201.90787372458
 20
-2583.76055457284
 30
0.0
 50
180.0
  0
MTEXT
  5
59CF1
330
585A0
100
AcDbEntity
  8
AM_5
 62
     2
100
AcDbMText
 10
6207.295550141585
 20
-2581.16055457284
 30
0.0
 40
3.200000000000001
 41
0.0
 71
     5
 72
     1
  1
（12）
 73
     1
 44
1.0
1001
ACAD
1000
MTEXTBEGIN
1070
    73
1070
     1
1070
    44
1040
1.0
1070
    74
1070
     0
1000
MTEXTEND
  0
POINT
  5
59CF2
330
585A0
100
AcDbEntity
  8
Defpoints
 62
     0
100
AcDbPoint
 10
6213.90787372458
 20
-2599.26055457284
 30
0.0
  0
POINT
  5
59CF3
330
585A0
100
AcDbEntity
  8
Defpoints
 62
     0
100
AcDbPoint
 10
6201.90787372458
 20
-2594.260554572839
 30
0.0
  0
POINT
  5
59CF4
330
585A0
100
AcDbEntity
  8
Defpoints
 62
     0
100
AcDbPoint
 10
6201.90787372458
 20
-2583.76055457284
 30
0.0
  0
ENDBLK
  5
585AB
330
585A0
100
AcDbEntity
  8
0
100
AcDbBlockEnd
  0
BLOCK
  5
585C0
330
585B6
100
AcDbEntity
  8
0
100
AcDbBlockBegin
  2
*D20
 70
     1
 10
0.0
 20
0.0
 30
0.0
  3
*D20
  1

  0
LINE
  5
59A57
330
585B6
100
AcDbEntity
  8
AM_5
100
AcDbLine
 10
6205.40787372458
 20
-2615.410554572839
 30
0.0
 11
6205.40787372458
 21
-2623.760554572839
 31
0.0
  0
LINE
  5
59A58
330
585B6
100
AcDbEntity
  8
AM_5
100
AcDbLine
 10
6213.90787372458
 20
-2608.26055457284
 30
0.0
 11
6213.90787372458
 21
-2623.760554572839
 31
0.0
  0
LINE
  5
59A59
330
585B6
100
AcDbEntity
  8
AM_5
100
AcDbLine
 10
6206.40787372458
 20
-2622.76055457284
 30
0.0
 11
6212.90787372458
 21
-2622.76055457284
 31
0.0
  0
INSERT
  5
59A5A
330
585B6
100
AcDbEntity
  8
AM_5
100
AcDbBlockReference
  2
_Dot
 10
6205.40787372458
 20
-2622.76055457284
 30
0.0
 50
180.0
  0
INSERT
  5
59A5B
330
585B6
100
AcDbEntity
  8
AM_5
100
AcDbBlockReference
  2
_Dot
 10
6213.90787372458
 20
-2622.76055457284
 30
0.0
  0
MTEXT
  5
59A5C
330
585B6
100
AcDbEntity
  8
AM_5
 62
     2
100
AcDbMText
 10
6209.575888200394
 20
-2620.160554572839
 30
0.0
 40
3.200000000000001
 41
0.0
 71
     5
 72
     1
  1
8.5
 73
     1
 44
1.0
1001
ACAD
1000
MTEXTBEGIN
1070
    73
1070
     1
1070
    44
1040
1.0
1070
    74
1070
     0
1000
MTEXTEND
  0
POINT
  5
59A5D
330
585B6
100
AcDbEntity
  8
Defpoints
 62
     0
100
AcDbPoint
 10
6205.40787372458
 20
-2614.410554572839
 30
0.0
  0
POINT
  5
59A5E
330
585B6
100
AcDbEntity
  8
Defpoints
 62
     0
100
AcDbPoint
 10
6213.90787372458
 20
-2607.260554572839
 30
0.0
  0
POINT
  5
59A5F
330
585B6
100
AcDbEntity
  8
Defpoints
 62
     0
100
AcDbPoint
 10
6213.90787372458
 20
-2622.76055457284
 30
0.0
  0
ENDBLK
  5
585C1
330
585B6
100
AcDbEntity
  8
0
100
AcDbBlockEnd
  0
BLOCK
  5
59BAF
330
59BA8
100
AcDbEntity
  8
0
100
AcDbBlockBegin
  2
*D21
 70
     1
 10
0.0
 20
0.0
 30
0.0
  3
*D21
  1

  0
LINE
  5
59BF3
330
59BA8
100
AcDbEntity
  8
AM_5
100
AcDbLine
 10
6272.076152861695
 20
-2621.961984160924
 30
0.0
 11
6247.801486195023
 21
-2621.961984160924
 31
0.0
  0
LINE
  5
59BF4
330
59BA8
100
AcDbEntity
  8
AM_5
100
AcDbLine
 10
6247.801486195023
 20
-2621.961984160924
 30
0.0
 11
6238.996712706908
 21
-2606.846534453695
 31
0.0
  0
LINE
  5
59BF5
330
59BA8
100
AcDbEntity
  8
AM_5
100
AcDbLine
 10
6234.819034742255
 20
-2599.674574691984
 30
0.0
 11
6234.315700047717
 21
-2598.810483154429
 31
0.0
  0
MTEXT
  5
59BF6
330
59BA8
100
AcDbEntity
  8
AM_5
 62
     2
100
AcDbMText
 10
6260.438819528363
 20
-2619.361984160923
 30
0.0
 40
3.2
 41
0.0
 71
     5
 72
     1
  1
2-%%c4×\U+22056.3サラ
 73
     1
 44
1.0
1001
ACAD
1000
MTEXTBEGIN
1070
    73
1070
     1
1070
    44
1040
1.0
1070
    74
1070
     0
1000
MTEXTEND
  0
LINE
  5
59BF7
330
59BA8
100
AcDbEntity
  8
AM_5
100
AcDbLine
 10
6235.32236943679
 20
-2600.53866622954
 30
0.0
 11
6238.493378012372
 21
-2605.982442916138
 31
0.0
  0
INSERT
  5
59BF8
330
59BA8
100
AcDbEntity
  8
AM_5
100
AcDbBlockReference
  2
_Dot
 10
6235.32236943679
 20
-2600.53866622954
 30
0.0
 50
300.2208679445433
  0
INSERT
  5
59BF9
330
59BA8
100
AcDbEntity
  8
AM_5
100
AcDbBlockReference
  2
_Dot
 10
6238.493378012372
 20
-2605.982442916138
 30
0.0
 50
120.2208679445432
  0
POINT
  5
59BFA
330
59BA8
100
AcDbEntity
  8
Defpoints
 62
     0
100
AcDbPoint
 10
6238.493378012372
 20
-2605.982442916138
 30
0.0
  0
POINT
  5
59BFB
330
59BA8
100
AcDbEntity
  8
Defpoints
 62
     0
100
AcDbPoint
 10
6235.32236943679
 20
-2600.53866622954
 30
0.0
  0
ENDBLK
  5
59BB0
330
59BA8
100
AcDbEntity
  8
0
100
AcDbBlockEnd
  0
BLOCK
  5
5A47D
330
5A473
100
AcDbEntity
  8
0
100
AcDbBlockBegin
  2
*D22
 70
     1
 10
0.0
 20
0.0
 30
0.0
  3
*D22
  1

  0
LINE
  5
5A488
330
5A473
100
AcDbEntity
  8
AM_5
100
AcDbLine
 10
6173.830292420658
 20
-2621.246571591561
 30
0.0
 11
6198.104959087324
 21
-2621.246571591561
 31
0.0
  0
LINE
  5
5A489
330
5A473
100
AcDbEntity
  8
AM_5
100
AcDbLine
 10
6198.104959087324
 20
-2621.246571591561
 30
0.0
 11
6203.248567028301
 21
-2612.804548730762
 31
0.0
  0
LINE
  5
5A48A
330
5A473
100
AcDbEntity
  8
AM_5
100
AcDbLine
 10
6207.567180420862
 20
-2605.716560414916
 30
0.0
 11
6208.087495287434
 21
-2604.862585919031
 31
0.0
  0
MTEXT
  5
5A48B
330
5A473
100
AcDbEntity
  8
AM_5
 62
     2
100
AcDbMText
 10
6185.46762575399
 20
-2618.646571591561
 30
0.0
 40
3.2
 41
0.0
 71
     5
 72
     1
  1
2-%%c4×\U+22056.3サラ
 73
     1
 44
1.0
1001
ACAD
1000
MTEXTBEGIN
1070
    73
1070
     1
1070
    44
1040
1.0
1070
    74
1070
     0
1000
MTEXTEND
  0
LINE
  5
5A48C
330
5A473
100
AcDbEntity
  8
AM_5
100
AcDbLine
 10
6207.046865554287
 20
-2606.570534910801
 30
0.0
 11
6203.768881894876
 21
-2611.950574234877
 31
0.0
  0
INSERT
  5
5A48D
330
5A473
100
AcDbEntity
  8
AM_5
100
AcDbBlockReference
  2
_Dot
 10
6207.046865554287
 20
-2606.570534910801
 30
0.0
 50
238.6466255059434
  0
INSERT
  5
5A48E
330
5A473
100
AcDbEntity
  8
AM_5
100
AcDbBlockReference
  2
_Dot
 10
6203.768881894876
 20
-2611.950574234877
 30
0.0
 50
58.64662550594339
  0
POINT
  5
5A48F
330
5A473
100
AcDbEntity
  8
Defpoints
 62
     0
100
AcDbPoint
 10
6203.768881894876
 20
-2611.950574234877
 30
0.0
  0
POINT
  5
5A490
330
5A473
100
AcDbEntity
  8
Defpoints
 62
     0
100
AcDbPoint
 10
6207.046865554287
 20
-2606.570534910801
 30
0.0
  0
ENDBLK
  5
5A47E
330
5A473
100
AcDbEntity
  8
0
100
AcDbBlockEnd
  0
ENDSEC
  0
SECTION
  2
ENTITIES
  0
TEXT
  5
31B30
330
1F
100
AcDbEntity
  8
AM_6
 60
     1
100
AcDbText
 10
3408.785415022811
 20
1879.970675238635
 30
0.0
 40
2.5
  1
!GENTITLE-INSERT
100
AcDbText
  0
TEXT
  5
31B31
330
1F
100
AcDbEntity
  8
AM_6
 60
     1
100
AcDbText
 10
3000.285415022811
 20
1871.470675238635
 30
0.0
 40
2.5
  1
!GENTITLE-LL
100
AcDbText
  0
TEXT
  5
31B32
330
1F
100
AcDbEntity
  8
AM_6
 60
     1
100
AcDbText
 10
3420.285415022811
 20
2168.470675238635
 30
0.0
 40
2.5
  1
!GENTITLE-RU
100
AcDbText
  0
TEXT
  5
31B33
330
1F
100
AcDbEntity
  8
AM_6
 60
     1
100
AcDbText
 10
3420.285415022811
 20
2168.470675238635
 30
0.0
 40
2.5
  1
!GENTITLE-MAX
100
AcDbText
  0
TEXT
  5
31B3B
330
1F
100
AcDbEntity
  8
AM_6
 60
     1
100
AcDbText
 10
3000.285415022811
 20
1871.470675238635
 30
0.0
 40
2.5
  1
!GENTITLE-LL
100
AcDbText
  0
TEXT
  5
31B3C
330
1F
100
AcDbEntity
  8
AM_6
 60
     1
100
AcDbText
 10
3408.785415022811
 20
2159.970675238636
 30
0.0
 40
2.5
  1
!GENTITLE-RU
100
AcDbText
  0
TEXT
  5
31B3D
330
1F
100
AcDbEntity
  8
AM_6
 60
     1
100
AcDbText
 10
3420.285415022811
 20
2168.470675238635
 30
0.0
 40
2.5
  1
!GENTITLE-MAX
100
AcDbText
  0
TEXT
  5
31B3E
330
1F
100
AcDbEntity
  8
AM_6
 60
     1
100
AcDbText
 10
3408.785415022811
 20
1879.970675238635
 30
0.0
 40
2.5
  1
!GENTITLE-INSERT
100
AcDbText
  0
TEXT
  5
32D1D
330
1F
100
AcDbEntity
  8
AM_6
 60
     1
100
AcDbText
 10
3234.949399973154
 20
1839.277532086519
 30
0.0
 40
2.5
  1
!GENTITLE-INSERT
100
AcDbText
  0
TEXT
  5
32D1E
330
1F
100
AcDbEntity
  8
AM_6
 60
     1
100
AcDbText
 10
3246.449399973154
 20
2040.77753208652
 30
0.0
 40
2.5
  1
!GENTITLE-MAX
100
AcDbText
  0
TEXT
  5
32D1F
330
1F
100
AcDbEntity
  8
AM_6
 60
     1
100
AcDbText
 10
3246.449399973154
 20
2040.77753208652
 30
0.0
 40
2.5
  1
!GENTITLE-RU
100
AcDbText
  0
TEXT
  5
32D21
330
1F
100
AcDbEntity
  8
AM_6
 60
     1
100
AcDbText
 10
2949.449399973154
 20
1830.777532086519
 30
0.0
 40
2.5
  1
!GENTITLE-LL
100
AcDbText
  0
TEXT
  5
34534
330
1F
100
AcDbEntity
  8
AM_6
 60
     1
100
AcDbText
 10
3774.506320898737
 20
958.0958490755065
 30
0.0
 40
2.5
  1
!GENTITLE-INSERT
100
AcDbText
  0
TEXT
  5
34535
330
1F
100
AcDbEntity
  8
AM_6
 60
     1
100
AcDbText
 10
3786.006320898738
 20
1159.595849075506
 30
0.0
 40
2.5
  1
!GENTITLE-MAX
100
AcDbText
  0
TEXT
  5
34536
330
1F
100
AcDbEntity
  8
AM_6
 60
     1
100
AcDbText
 10
3786.006320898738
 20
1159.595849075506
 30
0.0
 40
2.5
  1
!GENTITLE-RU
100
AcDbText
  0
TEXT
  5
34538
330
1F
100
AcDbEntity
  8
AM_6
 60
     1
100
AcDbText
 10
3489.006320898738
 20
949.5958490755064
 30
0.0
 40
2.5
  1
!GENTITLE-LL
100
AcDbText
  0
LINE
  5
41A59
330
1F
100
AcDbEntity
  8
size
100
AcDbLine
 10
6074.924675701049
 20
-2517.023605417009
 30
0.0
 11
6371.924675701049
 21
-2517.023605417009
 31
0.0
1001
GENIUS_GENREC_14
1002
{
1000
PYDIR
1011
6074.924675701049
1021
-2430.023605417009
1031
0.0
1002
}
1002
{
1000
PXDIR
1011
6494.924675701049
1021
-2727.023605417009
1031
0.0
1002
}
1002
{
1000
PORI
1011
6074.924675701049
1021
-2727.023605417009
1031
0.0
1002
}
1002
{
1000
PINS
1011
6284.924675701049
1021
-2578.523605417009
1031
0.0
1002
}
1002
{
1000
HVAL
1000
297
1002
}
1002
{
1000
H
1070
     2
1002
}
1002
{
1000
WVAL
1000
420
1002
}
1002
{
1000
W
1070
     2
1002
}
1002
{
1000
C
1070
     4
1002
}
1001
GENIUS_GENOBJ-N-REC_13
1002
{
1000
OWNER
1000
GEN
1002
}
1001
GENIUS_GENODEF_13
1002
{
1000
HIER
1070
     0
1002
}
1002
{
1000
MANEDIT
1070
     0
1002
}
1002
{
1000
NOSEL
1070
     0
1002
}
1002
{
1000
BEHIND
1070
     0
1002
}
1002
{
1000
OTHER
1070
     0
1002
}
1002
{
1000
REACTOR
1002
}
  0
LINE
  5
41A5A
330
1F
100
AcDbEntity
  8
size
100
AcDbLine
 10
6371.924675701049
 20
-2517.023605417009
 30
0.0
 11
6371.924675701049
 21
-2727.023605417009
 31
0.0
1001
GENIUS_GENREC_14
1002
{
1000
PYDIR
1011
6074.924675701049
1021
-2430.023605417009
1031
0.0
1002
}
1002
{
1000
PXDIR
1011
6494.924675701049
1021
-2727.023605417009
1031
0.0
1002
}
1002
{
1000
PORI
1011
6074.924675701049
1021
-2727.023605417009
1031
0.0
1002
}
1002
{
1000
PINS
1011
6284.924675701049
1021
-2578.523605417009
1031
0.0
1002
}
1002
{
1000
HVAL
1000
297
1002
}
1002
{
1000
H
1070
     2
1002
}
1002
{
1000
WVAL
1000
420
1002
}
1002
{
1000
W
1070
     2
1002
}
1002
{
1000
C
1070
     4
1002
}
1001
GENIUS_GENOBJ-N-REC_13
1002
{
1000
OWNER
1000
GEN
1002
}
1001
GENIUS_GENODEF_13
1002
{
1000
HIER
1070
     0
1002
}
1002
{
1000
MANEDIT
1070
     0
1002
}
1002
{
1000
NOSEL
1070
     0
1002
}
1002
{
1000
BEHIND
1070
     0
1002
}
1002
{
1000
OTHER
1070
     0
1002
}
1002
{
1000
REACTOR
1002
}
  0
LINE
  5
41A5B
330
1F
100
AcDbEntity
  8
waku
100
AcDbLine
 10
6086.424675701049
 20
-2718.523605417009
 30
0.0
 11
6360.42467570105
 21
-2718.523605417009
 31
0.0
1001
GENIUS_GENREC_14
1002
{
1000
PYDIR
1011
6074.924675701049
1021
-2430.023605417009
1031
0.0
1002
}
1002
{
1000
PXDIR
1011
6494.924675701049
1021
-2727.023605417009
1031
0.0
1002
}
1002
{
1000
PORI
1011
6074.924675701049
1021
-2727.023605417009
1031
0.0
1002
}
1002
{
1000
PINS
1011
6284.924675701049
1021
-2578.523605417009
1031
0.0
1002
}
1002
{
1000
HVAL
1000
297
1002
}
1002
{
1000
H
1070
     2
1002
}
1002
{
1000
WVAL
1000
420
1002
}
1002
{
1000
W
1070
     2
1002
}
1002
{
1000
C
1070
     4
1002
}
  0
LINE
  5
41A5C
330
1F
100
AcDbEntity
  8
waku
100
AcDbLine
 10
6360.42467570105
 20
-2525.523605417009
 30
0.0
 11
6086.424675701049
 21
-2525.523605417009
 31
0.0
1001
GENIUS_GENREC_14
1002
{
1000
PYDIR
1011
5951.92467570105
1021
-2517.023605417009
1031
0.0
1002
}
1002
{
1000
PXDIR
1011
6371.924675701049
1021
-2814.023605417009
1031
0.0
1002
}
1002
{
1000
PORI
1011
5951.92467570105
1021
-2814.023605417009
1031
0.0
1002
}
1002
{
1000
PINS
1011
6161.92467570105
1021
-2665.523605417009
1031
0.0
1002
}
1002
{
1000
HVAL
1000
297
1002
}
1002
{
1000
H
1070
     2
1002
}
1002
{
1000
WVAL
1000
420
1002
}
1002
{
1000
W
1070
     2
1002
}
1002
{
1000
C
1070
     4
1002
}
1001
GENIUS_GENOBJ-N-REC_13
1002
{
1000
OWNER
1000
GEN
1002
}
1001
GENIUS_GENODEF_13
1002
{
1000
HIER
1070
     0
1002
}
1002
{
1000
MANEDIT
1070
     0
1002
}
1002
{
1000
NOSEL
1070
     0
1002
}
1002
{
1000
BEHIND
1070
     0
1002
}
1002
{
1000
OTHER
1070
     0
1002
}
1002
{
1000
REACTOR
1002
}
  0
LINE
  5
41A5D
330
1F
100
AcDbEntity
  8
waku
100
AcDbLine
 10
6086.424675701049
 20
-2525.523605417009
 30
0.0
 11
6086.424675701049
 21
-2718.523605417009
 31
0.0
1001
GENIUS_GENREC_14
1002
{
1000
PYDIR
1011
6074.924675701049
1021
-2430.023605417009
1031
0.0
1002
}
1002
{
1000
PXDIR
1011
6494.924675701049
1021
-2727.023605417009
1031
0.0
1002
}
1002
{
1000
PORI
1011
6074.924675701049
1021
-2727.023605417009
1031
0.0
1002
}
1002
{
1000
PINS
1011
6284.924675701049
1021
-2578.523605417009
1031
0.0
1002
}
1002
{
1000
HVAL
1000
297
1002
}
1002
{
1000
H
1070
     2
1002
}
1002
{
1000
WVAL
1000
420
1002
}
1002
{
1000
W
1070
     2
1002
}
1002
{
1000
C
1070
     4
1002
}
1001
GENIUS_GENOBJ-N-REC_13
1002
{
1000
OWNER
1000
GEN
1002
}
1001
GENIUS_GENODEF_13
1002
{
1000
HIER
1070
     0
1002
}
1002
{
1000
MANEDIT
1070
     0
1002
}
1002
{
1000
NOSEL
1070
     0
1002
}
1002
{
1000
BEHIND
1070
     0
1002
}
1002
{
1000
OTHER
1070
     0
1002
}
1002
{
1000
REACTOR
1002
}
  0
LINE
  5
41A5E
330
1F
100
AcDbEntity
  8
waku
100
AcDbLine
 10
6360.42467570105
 20
-2718.523605417009
 30
0.0
 11
6360.42467570105
 21
-2525.523605417009
 31
0.0
1001
GENIUS_GENREC_14
1002
{
1000
PYDIR
1011
5951.92467570105
1021
-2511.023605417009
1031
0.0
1002
}
1002
{
1000
PXDIR
1011
6371.924675701049
1021
-2808.023605417009
1031
0.0
1002
}
1002
{
1000
PORI
1011
5951.92467570105
1021
-2808.023605417009
1031
0.0
1002
}
1002
{
1000
PINS
1011
6161.92467570105
1021
-2659.523605417009
1031
0.0
1002
}
1002
{
1000
HVAL
1000
297
1002
}
1002
{
1000
H
1070
     2
1002
}
1002
{
1000
WVAL
1000
420
1002
}
1002
{
1000
W
1070
     2
1002
}
1002
{
1000
C
1070
     4
1002
}
1001
GENIUS_GENOBJ-N-REC_13
1002
{
1000
OWNER
1000
GEN
1002
}
1001
GENIUS_GENODEF_13
1002
{
1000
HIER
1070
     0
1002
}
1002
{
1000
MANEDIT
1070
     0
1002
}
1002
{
1000
NOSEL
1070
     0
1002
}
1002
{
1000
BEHIND
1070
     0
1002
}
1002
{
1000
OTHER
1070
     0
1002
}
1002
{
1000
REACTOR
1002
}
  0
LINE
  5
41A5F
330
1F
100
AcDbEntity
  8
size
100
AcDbLine
 10
6074.924675701049
 20
-2517.023605417009
 30
0.0
 11
6074.924675701049
 21
-2727.023605417009
 31
0.0
1001
GENIUS_GENREC_14
1002
{
1000
PYDIR
1011
6074.924675701049
1021
-2430.023605417009
1031
0.0
1002
}
1002
{
1000
PXDIR
1011
6494.924675701049
1021
-2727.023605417009
1031
0.0
1002
}
1002
{
1000
PORI
1011
6074.924675701049
1021
-2727.023605417009
1031
0.0
1002
}
1002
{
1000
PINS
1011
6284.924675701049
1021
-2578.523605417009
1031
0.0
1002
}
1002
{
1000
HVAL
1000
297
1002
}
1002
{
1000
H
1070
     2
1002
}
1002
{
1000
WVAL
1000
420
1002
}
1002
{
1000
W
1070
     2
1002
}
1002
{
1000
C
1070
     4
1002
}
1001
GENIUS_GENOBJ-N-REC_13
1002
{
1000
OWNER
1000
GEN
1002
}
1001
GENIUS_GENODEF_13
1002
{
1000
HIER
1070
     0
1002
}
1002
{
1000
MANEDIT
1070
     0
1002
}
1002
{
1000
NOSEL
1070
     0
1002
}
1002
{
1000
BEHIND
1070
     0
1002
}
1002
{
1000
OTHER
1070
     0
1002
}
1002
{
1000
REACTOR
1002
}
  0
LINE
  5
41A60
330
1F
100
AcDbEntity
  8
size
100
AcDbLine
 10
6074.924675701049
 20
-2727.023605417009
 30
0.0
 11
6371.924675701049
 21
-2727.023605417009
 31
0.0
1001
GENIUS_GENREC_14
1002
{
1000
PYDIR
1011
6074.924675701049
1021
-2430.023605417009
1031
0.0
1002
}
1002
{
1000
PXDIR
1011
6494.924675701049
1021
-2727.023605417009
1031
0.0
1002
}
1002
{
1000
PORI
1011
6074.924675701049
1021
-2727.023605417009
1031
0.0
1002
}
1002
{
1000
PINS
1011
6284.924675701049
1021
-2578.523605417009
1031
0.0
1002
}
1002
{
1000
HVAL
1000
297
1002
}
1002
{
1000
H
1070
     2
1002
}
1002
{
1000
WVAL
1000
420
1002
}
1002
{
1000
W
1070
     2
1002
}
1002
{
1000
C
1070
     4
1002
}
1001
GENIUS_GENOBJ-N-REC_13
1002
{
1000
OWNER
1000
GEN
1002
}
1001
GENIUS_GENODEF_13
1002
{
1000
HIER
1070
     0
1002
}
1002
{
1000
MANEDIT
1070
     0
1002
}
1002
{
1000
NOSEL
1070
     0
1002
}
1002
{
1000
BEHIND
1070
     0
1002
}
1002
{
1000
OTHER
1070
     0
1002
}
1002
{
1000
REACTOR
1002
}
  0
LINE
  5
41A61
330
1F
100
AcDbEntity
  8
AM_2
370
    13
100
AcDbLine
 10
6106.424675701049
 20
-2525.523605417009
 30
0.0
 11
6106.424675701049
 21
-2557.52360541701
 31
0.0
  0
LINE
  5
41A62
330
1F
100
AcDbEntity
  8
AM_2
370
    13
100
AcDbLine
 10
6086.424675701049
 20
-2533.52360541701
 30
0.0
 11
6173.424675701049
 21
-2533.52360541701
 31
0.0
  0
LINE
  5
41A63
330
1F
100
AcDbEntity
  8
AM_2
370
    13
100
AcDbLine
 10
6086.424675701049
 20
-2541.523605417009
 30
0.0
 11
6173.424675701049
 21
-2541.523605417009
 31
0.0
  0
LINE
  5
41A64
330
1F
100
AcDbEntity
  8
AM_2
370
    13
100
AcDbLine
 10
6086.424675701049
 20
-2549.52360541701
 30
0.0
 11
6173.424675701049
 21
-2549.52360541701
 31
0.0
  0
LINE
  5
41A65
330
1F
100
AcDbEntity
  8
AM_1
100
AcDbLine
 10
6086.424675701049
 20
-2557.523605417009
 30
0.0
 11
6173.424675701049
 21
-2557.523605417009
 31
0.0
  0
LINE
  5
41A66
330
1F
100
AcDbEntity
  8
AM_1
100
AcDbLine
 10
6086.424675701049
 20
-2525.523605417009
 30
0.0
 11
6086.424675701049
 21
-2557.52360541701
 31
0.0
  0
LINE
  5
41A67
330
1F
100
AcDbEntity
  8
AM_1
100
AcDbLine
 10
6086.424675701049
 20
-2525.523605417009
 30
0.0
 11
6173.424675701049
 21
-2525.523605417009
 31
0.0
  0
LINE
  5
41A68
330
1F
100
AcDbEntity
  8
AM_1
100
AcDbLine
 10
6173.424675701049
 20
-2525.523605417009
 30
0.0
 11
6173.424675701049
 21
-2557.52360541701
 31
0.0
  0
TEXT
  5
41A69
330
1F
100
AcDbEntity
  8
AM_6
100
AcDbText
 10
6092.08167570105
 20
-2531.12360541701
 30
0.0
 40
3.2
  1
品　名
 41
0.85537027
100
AcDbText
  0
TEXT
  5
41A6A
330
1F
100
AcDbEntity
  8
AM_6
100
AcDbText
 10
6092.08167570105
 20
-2539.123605417009
 30
0.0
 40
3.2
  1
品　番
 41
0.85537027
100
AcDbText
  0
TEXT
  5
41A6B
330
1F
100
AcDbEntity
  8
AM_6
100
AcDbText
 10
6092.08167570105
 20
-2547.12360541701
 30
0.0
 40
3.2
  1
材　質
 41
0.85537027
100
AcDbText
  0
TEXT
  5
41A6C
330
1F
100
AcDbEntity
  8
AM_6
100
AcDbText
 10
6092.08167570105
 20
-2555.123605417009
 30
0.0
 40
3.2
  1
仕上げ
 41
0.85537027
100
AcDbText
  0
TEXT
  5
41A6D
330
1F
100
AcDbEntity
  8
AM_6
100
AcDbText
 10
6109.281675701049
 20
-2531.12360541701
 30
0.0
 40
3.2
  1
パチン錠
 41
0.84306961
100
AcDbText
  0
TEXT
  5
41A6E
330
1F
100
AcDbEntity
  8
AM_6
100
AcDbText
 10
6109.281675701049
 20
-2539.123605417009
 30
0.0
 40
3.2
  1
ELP-112
 41
0.84741102
100
AcDbText
  0
TEXT
  5
41A6F
330
1F
100
AcDbEntity
  8
AM_6
100
AcDbText
 10
6109.281675701049
 20
-2547.12360541701
 30
0.0
 40
3.2
  1
黄銅板
 41
0.84634979
100
AcDbText
  0
TEXT
  5
41A70
330
1F
100
AcDbEntity
  8
AM_6
100
AcDbText
 10
6109.281675701049
 20
-2555.123605417009
 30
0.0
 40
3.2
  1
ニッケルメッキ
 41
0.84350122
100
AcDbText
  0
LINE
  5
49966
330
1F
100
AcDbEntity
  8
0部品6
  6
中心線1
 48
0.5
370
    13
100
AcDbLine
 10
6205.40787372458
 20
-2592.11055457284
 30
0.0
 11
6205.40787372458
 21
-2602.410554572839
 31
0.0
  0
LINE
  5
49967
330
1F
100
AcDbEntity
  8
0部品1
100
AcDbLine
 10
6232.168981806649
 20
-2657.991230872536
 30
0.0
 11
6234.234873623865
 21
-2657.390664366661
 31
0.0
  0
ARC
  5
49968
330
1F
100
AcDbEntity
  8
0部品1
100
AcDbCircle
 10
6236.273226366015
 20
-2650.821879121216
 30
0.0
 40
0.7499999999999999
100
AcDbArc
 50
177.5009794708723
 51
357.5009794708723
  0
LINE
  5
49969
330
1F
100
AcDbEntity
  8
0部品1
100
AcDbLine
 10
6237.022513091346
 20
-2650.854580852695
 30
0.0
 11
6242.017757926891
 21
-2651.072592395884
 31
0.0
  0
LINE
  5
4996A
330
1F
100
AcDbEntity
  8
0部品1
100
AcDbLine
 10
6228.716214163839
 20
-2657.698240588722
 30
0.0
 11
6229.030121354474
 21
-2650.505762383591
 31
0.0
  0
LINE
  5
4996B
330
1F
100
AcDbEntity
  8
0部品1
100
AcDbLine
 10
6223.749405620329
 20
-2656.828675284456
 30
0.0
 11
6224.03487651893
 21
-2650.287750840401
 31
0.0
  0
ARC
  5
4996E
330
1F
100
AcDbEntity
  8
0部品1
100
AcDbCircle
 10
6223.77559172458
 20
-2612.960554572839
 30
0.0
 40
0.8
100
AcDbArc
 50
270.0
 51
288.7780332224158
  0
ARC
  5
4996F
330
1F
100
AcDbEntity
  8
0部品1
100
AcDbCircle
 10
6228.90787372458
 20
-2612.06055457284
 30
0.0
 40
0.8
100
AcDbArc
 50
90.0
 51
108.778033222416
  0
ARC
  5
49970
330
1F
100
AcDbEntity
  8
0部品1
100
AcDbCircle
 10
6228.90787372458
 20
-2594.460554572839
 30
0.0
 40
0.8
100
AcDbArc
 50
251.221966777584
 51
270.0
  0
ARC
  5
49971
330
1F
100
AcDbEntity
  8
0部品1
100
AcDbCircle
 10
6223.77559172458
 20
-2593.56055457284
 30
0.0
 40
0.8
100
AcDbArc
 50
71.22196677758397
 51
90.0
  0
LINE
  5
49972
330
1F
100
AcDbEntity
  8
0部品4
100
AcDbLine
 10
6214.272495724578
 20
-2652.610488507176
 30
0.0
 11
6216.207873724579
 21
-2652.610488507176
 31
0.0
  0
ARC
  5
49975
330
1F
100
AcDbEntity
  8
0部品4
100
AcDbCircle
 10
6210.90787372458
 20
-2656.110488507176
 30
0.0
 40
2.5
100
AcDbArc
 50
109.9999999999803
 51
289.9999999999803
  0
LINE
  5
49976
330
1F
100
AcDbEntity
  8
0部品4
100
AcDbLine
 10
6211.76292372458
 20
-2658.459719507176
 30
0.0
 11
6213.10200972458
 21
-2657.972332507176
 31
0.0
  0
LINE
  5
49977
330
1F
100
AcDbEntity
  8
0部品4
100
AcDbLine
 10
6210.05282272458
 20
-2653.761256507175
 30
0.0
 11
6212.22037472458
 21
-2652.972332507176
 31
0.0
  0
ARC
  5
49978
330
1F
100
AcDbEntity
  8
0部品4
100
AcDbCircle
 10
6214.272495724578
 20
-2658.610488507175
 30
0.0
 40
5.999999999999999
100
AcDbArc
 50
90.0
 51
109.9999999999803
  0
ARC
  5
49979
330
1F
100
AcDbEntity
  8
0部品4
100
AcDbCircle
 10
6215.154130724579
 20
-2663.610488507176
 30
0.0
 40
5.999999999999999
100
AcDbArc
 50
90.0
 51
109.9999999999803
  0
LINE
  5
4997A
330
1F
100
AcDbEntity
  8
0部品4
100
AcDbLine
 10
6208.40787372458
 20
-2609.06055457284
 30
0.0
 11
6216.207873724579
 21
-2609.06055457284
 31
0.0
  0
LINE
  5
4997B
330
1F
100
AcDbEntity
  8
0部品4
100
AcDbLine
 10
6208.40787372458
 20
-2608.26055457284
 30
0.0
 11
6216.207873724579
 21
-2608.26055457284
 31
0.0
  0
LINE
  5
4997C
330
1F
100
AcDbEntity
  8
0部品4
100
AcDbLine
 10
6216.207873724579
 20
-2598.260554572839
 30
0.0
 11
6208.40787372458
 21
-2598.260554572839
 31
0.0
  0
LINE
  5
4997D
330
1F
100
AcDbEntity
  8
0部品4
100
AcDbLine
 10
6208.40787372458
 20
-2609.06055457284
 30
0.0
 11
6208.40787372458
 21
-2608.26055457284
 31
0.0
  0
LINE
  5
4997E
330
1F
100
AcDbEntity
  8
0部品4
100
AcDbLine
 10
6208.40787372458
 20
-2598.260554572839
 30
0.0
 11
6208.40787372458
 21
-2597.460554572839
 31
0.0
  0
LINE
  5
4997F
330
1F
100
AcDbEntity
  8
0部品4
100
AcDbLine
 10
6208.40787372458
 20
-2597.460554572839
 30
0.0
 11
6216.207873724579
 21
-2597.460554572839
 31
0.0
  0
LINE
  5
49983
330
1F
100
AcDbEntity
  8
0部品4
100
AcDbLine
 10
6216.207873724579
 20
-2610.76055457284
 30
0.0
 11
6216.207873724579
 21
-2609.06055457284
 31
0.0
  0
LINE
  5
49984
330
1F
100
AcDbEntity
  8
0部品4
100
AcDbLine
 10
6216.207873724579
 20
-2598.51055457284
 30
0.0
 11
6216.207873724579
 21
-2595.760554572839
 31
0.0
  0
LINE
  5
49985
330
1F
100
AcDbEntity
  8
0部品4
100
AcDbLine
 10
6216.207873724579
 20
-2608.010554572839
 30
0.0
 11
6215.40787372458
 21
-2608.010554572839
 31
0.0
  0
LINE
  5
49986
330
1F
100
AcDbEntity
  8
0部品4
100
AcDbLine
 10
6215.40787372458
 20
-2598.51055457284
 30
0.0
 11
6216.207873724579
 21
-2598.51055457284
 31
0.0
  0
LINE
  5
49987
330
1F
100
AcDbEntity
  8
0部品6
  6
中心線1
 48
0.5
370
    13
100
AcDbLine
 10
6198.907873724579
 20
-2603.26055457284
 30
0.0
 11
6215.40787372458
 21
-2603.26055457284
 31
0.0
  0
LINE
  5
49988
330
1F
100
AcDbEntity
  8
0部品4
100
AcDbLine
 10
6215.40787372458
 20
-2608.010554572839
 30
0.0
 11
6215.40787372458
 21
-2598.51055457284
 31
0.0
  0
LINE
  5
49989
330
1F
100
AcDbEntity
  8
0部品4
100
AcDbLine
 10
6215.40787372458
 20
-2658.110488507176
 30
0.0
 11
6216.90787372458
 21
-2658.110488507176
 31
0.0
  0
LINE
  5
4998A
330
1F
100
AcDbEntity
  8
0部品4
100
AcDbLine
 10
6234.40787372458
 20
-2658.110488507176
 30
0.0
 11
6234.40787372458
 21
-2657.34037223413
 31
0.0
  0
LINE
  5
4998B
330
1F
100
AcDbEntity
  8
0部品4
100
AcDbLine
 10
6234.40787372458
 20
-2650.110488507176
 30
0.0
 11
6216.207873724579
 21
-2650.110488507176
 31
0.0
  0
LINE
  5
4998C
330
1F
100
AcDbEntity
  8
0部品4
100
AcDbLine
 10
6216.207873724579
 20
-2658.110488507176
 30
0.0
 11
6216.207873724579
 21
-2650.110488507176
 31
0.0
  0
LINE
  5
4998D
330
1F
100
AcDbEntity
  8
0部品4
100
AcDbLine
 10
6215.40787372458
 20
-2658.110488507176
 30
0.0
 11
6215.40787372458
 21
-2657.610488507176
 31
0.0
  0
ARC
  5
4998E
330
1F
100
AcDbEntity
  8
0部品4
100
AcDbCircle
 10
6216.207873724579
 20
-2650.910488507176
 30
0.0
 40
0.8
100
AcDbArc
 50
90.0
 51
180.0
  0
CIRCLE
  5
4998F
330
1F
100
AcDbEntity
  8
0部品7
100
AcDbCircle
 10
6231.331533383376
 20
-2655.110488507175
 30
0.0
 40
1.6
  0
LINE
  5
49990
330
1F
100
AcDbEntity
  8
0部品5
100
AcDbLine
 10
6209.40787372458
 20
-2608.26055457284
 30
0.0
 11
6209.40787372458
 21
-2607.126579976624
 31
0.0
  0
LINE
  5
49991
330
1F
100
AcDbEntity
  8
0部品6
100
AcDbLine
 10
6202.90787372458
 20
-2613.26055457284
 30
0.0
 11
6207.90787372458
 21
-2613.26055457284
 31
0.0
  0
LINE
  5
49992
330
1F
100
AcDbEntity
  8
0部品5
100
AcDbLine
 10
6212.40787372458
 20
-2598.260554572839
 30
0.0
 11
6212.40787372458
 21
-2599.26055457284
 31
0.0
  0
ARC
  5
49993
330
1F
100
AcDbEntity
  8
0部品5
100
AcDbCircle
 10
6210.90787372458
 20
-2608.43555457284
 30
0.0
 40
1.625
100
AcDbArc
 50
202.6198649480284
 51
337.3801350519716
  0
ARC
  5
49994
330
1F
100
AcDbEntity
  8
0部品5
100
AcDbCircle
 10
6210.90787372458
 20
-2598.085554572839
 30
0.0
 40
1.625
100
AcDbArc
 50
22.61986494802838
 51
157.3801350519716
  0
CIRCLE
  5
49995
330
1F
100
AcDbEntity
  8
0部品5
100
AcDbCircle
 10
6210.90787372458
 20
-2656.110488507176
 30
0.0
 40
1.5
  0
LINE
  5
49996
330
1F
100
AcDbEntity
  8
0部品6
100
AcDbLine
 10
6202.90787372458
 20
-2593.260554572839
 30
0.0
 11
6207.90787372458
 21
-2593.260554572839
 31
0.0
  0
LINE
  5
49997
330
1F
100
AcDbEntity
  8
0部品4
100
AcDbLine
 10
6215.40787372458
 20
-2652.610488507176
 30
0.0
 11
6215.40787372458
 21
-2650.910488507176
 31
0.0
  0
LINE
  5
49998
330
1F
100
AcDbEntity
  8
0部品4
100
AcDbLine
 10
6216.207873724579
 20
-2657.610488507176
 30
0.0
 11
6215.154130724579
 21
-2657.610488507176
 31
0.0
  0
LINE
  5
4999A
330
1F
100
AcDbEntity
  8
0部品4
100
AcDbLine
 10
6222.907873724579
 20
-2658.110488507176
 30
0.0
 11
6234.40787372458
 21
-2658.110488507176
 31
0.0
  0
LINE
  5
4999B
330
1F
100
AcDbEntity
  8
0部品2
100
AcDbLine
 10
6222.907873724579
 20
-2657.610488507176
 30
0.0
 11
6222.907873724579
 21
-2656.527204507175
 31
0.0
  0
LINE
  5
4999C
330
1F
100
AcDbEntity
  8
0部品1
100
AcDbLine
 10
6234.234873623865
 20
-2657.390664366661
 30
0.0
 11
6242.488852272998
 21
-2654.991184907325
 31
0.0
  0
LINE
  5
4999D
330
1F
100
AcDbEntity
  8
0部品4
100
AcDbLine
 10
6234.40787372458
 20
-2650.740468014986
 30
0.0
 11
6234.40787372458
 21
-2650.110488507176
 31
0.0
  0
LINE
  5
4999E
330
1F
100
AcDbEntity
  8
0部品1
100
AcDbLine
 10
6234.524890673574
 20
-2650.745575081099
 30
0.0
 11
6235.523939640684
 21
-2650.789177389738
 31
0.0
  0
LINE
  5
4999F
330
1F
100
AcDbEntity
  8
0部品1
100
AcDbLine
 10
6222.756043920347
 20
-2656.654762023793
 30
0.0
 11
6219.390516551122
 21
-2656.065541892987
 31
0.0
  0
LINE
  5
499A0
330
1F
100
AcDbEntity
  8
0部品4
100
AcDbLine
 10
6216.207873724579
 20
-2608.26055457284
 30
0.0
 11
6216.207873724579
 21
-2608.010554572839
 31
0.0
  0
LINE
  5
499A1
330
1F
100
AcDbEntity
  8
0部品4
100
AcDbLine
 10
6216.207873724579
 20
-2609.06055457284
 30
0.0
 11
6216.207873724579
 21
-2608.26055457284
 31
0.0
  0
LINE
  5
499A2
330
1F
100
AcDbEntity
  8
0部品4
100
AcDbLine
 10
6234.40787372458
 20
-2610.76055457284
 30
0.0
 11
6216.207873724579
 21
-2610.76055457284
 31
0.0
  0
LINE
  5
499A3
330
1F
100
AcDbEntity
  8
0部品2
100
AcDbLine
 10
6216.90787372458
 20
-2595.760554572839
 30
0.0
 11
6216.90787372458
 21
-2593.760554572839
 31
0.0
  0
LINE
  5
499A4
330
1F
100
AcDbEntity
  8
0部品6
100
AcDbLine
 10
6201.90787372458
 20
-2612.26055457284
 30
0.0
 11
6201.90787372458
 21
-2594.260554572839
 31
0.0
  0
LINE
  5
499A8
330
1F
100
AcDbEntity
  8
0部品4
100
AcDbLine
 10
6216.207873724579
 20
-2595.760554572839
 30
0.0
 11
6234.40787372458
 21
-2595.760554572839
 31
0.0
  0
LINE
  5
499A9
330
1F
100
AcDbEntity
  8
0部品2
100
AcDbLine
 10
6234.40787372458
 20
-2609.760554572839
 30
0.0
 11
6236.90787372458
 21
-2609.760554572839
 31
0.0
  0
LINE
  5
499AA
330
1F
100
AcDbEntity
  8
0部品4
100
AcDbLine
 10
6234.40787372458
 20
-2610.76055457284
 30
0.0
 11
6234.40787372458
 21
-2595.760554572839
 31
0.0
  0
LINE
  5
499AE
330
1F
100
AcDbEntity
  8
0部品6
100
AcDbLine
 10
6208.90787372458
 20
-2594.260554572839
 30
0.0
 11
6208.90787372458
 21
-2597.460554572839
 31
0.0
  0
LINE
  5
499B0
330
1F
100
AcDbEntity
  8
0部品2
100
AcDbLine
 10
6234.40787372458
 20
-2596.760554572839
 30
0.0
 11
6236.90787372458
 21
-2596.760554572839
 31
0.0
  0
LINE
  5
499B3
330
1F
100
AcDbEntity
  8
0部品2
100
AcDbLine
 10
6222.907873724579
 20
-2595.760554572839
 30
0.0
 11
6222.907873724579
 21
-2593.760554572839
 31
0.0
  0
LINE
  5
499B4
330
1F
100
AcDbEntity
  8
0部品7
100
AcDbLine
 10
6229.40787372458
 20
-2612.06055457284
 30
0.0
 11
6229.40787372458
 21
-2613.06055457284
 31
0.0
  0
LINE
  5
499B5
330
1F
100
AcDbEntity
  8
0部品7
100
AcDbLine
 10
6233.40787372458
 20
-2612.06055457284
 30
0.0
 11
6233.40787372458
 21
-2613.06055457284
 31
0.0
  0
LINE
  5
499B6
330
1F
100
AcDbEntity
  8
0部品6
100
AcDbLine
 10
6208.90787372458
 20
-2607.260554572839
 30
0.0
 11
6208.90787372458
 21
-2608.26055457284
 31
0.0
  0
LINE
  5
499B7
330
1F
100
AcDbEntity
  8
0部品7
100
AcDbLine
 10
6233.40787372458
 20
-2613.06055457284
 30
0.0
 11
6229.40787372458
 21
-2613.06055457284
 31
0.0
  0
LINE
  5
499B8
330
1F
100
AcDbEntity
  8
0部品7
100
AcDbLine
 10
6229.65787372458
 20
-2593.06055457284
 30
0.0
 11
6233.15787372458
 21
-2593.06055457284
 31
0.0
  0
LINE
  5
499B9
330
1F
100
AcDbEntity
  8
0部品7
100
AcDbLine
 10
6229.65787372458
 20
-2593.06055457284
 30
0.0
 11
6229.90787372458
 21
-2594.460554572839
 31
0.0
  0
LINE
  5
499BA
330
1F
100
AcDbEntity
  8
0部品7
100
AcDbLine
 10
6233.15787372458
 20
-2593.06055457284
 30
0.0
 11
6232.90787372458
 21
-2594.460554572839
 31
0.0
  0
LINE
  5
499BB
330
1F
100
AcDbEntity
  8
0部品3
100
AcDbLine
 10
6218.15787372458
 20
-2614.76055457284
 30
0.0
 11
6221.657873724581
 21
-2614.76055457284
 31
0.0
  0
LINE
  5
499BC
330
1F
100
AcDbEntity
  8
0部品3
100
AcDbLine
 10
6218.15787372458
 20
-2591.760554572839
 30
0.0
 11
6221.657873724581
 21
-2591.760554572839
 31
0.0
  0
ARC
  5
499BD
330
1F
100
AcDbEntity
  8
0部品6
100
AcDbCircle
 10
6202.90787372458
 20
-2612.26055457284
 30
0.0
 40
1.0
100
AcDbArc
 50
180.0
 51
270.0
  0
LINE
  5
499BE
330
1F
100
AcDbEntity
  8
0部品3
100
AcDbLine
 10
6218.15787372458
 20
-2591.760554572839
 30
0.0
 11
6218.407873724579
 21
-2592.760554572839
 31
0.0
  0
LINE
  5
499BF
330
1F
100
AcDbEntity
  8
0部品3
100
AcDbLine
 10
6221.657873724581
 20
-2591.760554572839
 30
0.0
 11
6221.407873724579
 21
-2592.760554572839
 31
0.0
  0
LINE
  5
499C0
330
1F
100
AcDbEntity
  8
0部品3
100
AcDbLine
 10
6221.657873724581
 20
-2614.76055457284
 30
0.0
 11
6221.407873724579
 21
-2613.76055457284
 31
0.0
  0
LINE
  5
499C1
330
1F
100
AcDbEntity
  8
0部品3
100
AcDbLine
 10
6218.15787372458
 20
-2614.76055457284
 30
0.0
 11
6218.407873724579
 21
-2613.76055457284
 31
0.0
  0
ARC
  5
499C2
330
1F
100
AcDbEntity
  8
0部品6
100
AcDbCircle
 10
6207.90787372458
 20
-2612.26055457284
 30
0.0
 40
1.0
100
AcDbArc
 50
270.0
 51
0.0
  0
LINE
  5
499C3
330
1F
100
AcDbEntity
  8
0部品6
  6
中心線1
 48
0.5
370
    13
100
AcDbLine
 10
6205.40787372458
 20
-2603.26055457284
 30
0.0
 11
6246.90787372458
 21
-2603.26055457284
 31
0.0
  0
ARC
  5
499C4
330
1F
100
AcDbEntity
  8
0部品6
100
AcDbCircle
 10
6207.90787372458
 20
-2594.260554572839
 30
0.0
 40
1.0
100
AcDbArc
 50
0.0
 51
90.0
  0
ARC
  5
499C5
330
1F
100
AcDbEntity
  8
0部品6
100
AcDbCircle
 10
6202.90787372458
 20
-2594.260554572839
 30
0.0
 40
1.0
100
AcDbArc
 50
90.0
 51
180.0
  0
LINE
  5
499C6
330
1F
100
AcDbEntity
  8
0部品6
100
AcDbLine
 10
6208.90787372458
 20
-2607.260554572839
 30
0.0
 11
6209.40787372458
 21
-2607.260554572839
 31
0.0
  0
LINE
  5
499C7
330
1F
100
AcDbEntity
  8
0部品6
100
AcDbLine
 10
6208.90787372458
 20
-2599.26055457284
 30
0.0
 11
6209.40787372458
 21
-2599.26055457284
 31
0.0
  0
LINE
  5
499C8
330
1F
100
AcDbEntity
  8
0部品6
100
AcDbLine
 10
6213.90787372458
 20
-2607.260554572839
 30
0.0
 11
6213.90787372458
 21
-2599.26055457284
 31
0.0
  0
LINE
  5
499C9
330
1F
100
AcDbEntity
  8
0部品6
100
AcDbLine
 10
6208.90787372458
 20
-2606.260554572839
 30
0.0
 11
6208.90787372458
 21
-2600.26055457284
 31
0.0
  0
ARC
  5
499CA
330
1F
100
AcDbEntity
  8
0部品6
100
AcDbCircle
 10
6209.90787372458
 20
-2606.260554572839
 30
0.0
 40
1.0
100
AcDbArc
 50
180.0
 51
270.0
  0
ARC
  5
499CB
330
1F
100
AcDbEntity
  8
0部品6
100
AcDbCircle
 10
6209.90787372458
 20
-2600.26055457284
 30
0.0
 40
1.0
100
AcDbArc
 50
90.0
 51
180.0
  0
CIRCLE
  5
499CC
330
1F
100
AcDbEntity
  8
0部品6
100
AcDbCircle
 10
6205.40787372458
 20
-2609.26055457284
 30
0.0
 40
2.0
  0
CIRCLE
  5
499CD
330
1F
100
AcDbEntity
  8
0部品6
100
AcDbCircle
 10
6205.40787372458
 20
-2597.260554572839
 30
0.0
 40
2.0
  0
CIRCLE
  5
499CE
330
1F
100
AcDbEntity
  8
0部品2
  6
陰線1
 48
0.5
370
    13
100
AcDbCircle
 10
6223.90787372458
 20
-2603.26055457284
 30
0.0
 40
2.0
  0
ARC
  5
499CF
330
1F
100
AcDbEntity
  8
0部品2
100
AcDbCircle
 10
6236.90787372458
 20
-2603.26055457284
 30
0.0
 40
2.0
100
AcDbArc
 50
90.0
 51
270.0
  0
ARC
  5
499D0
330
1F
100
AcDbEntity
  8
0部品6
100
AcDbCircle
 10
6205.40787372458
 20
-2609.26055457284
 30
0.0
 40
3.149999999999999
100
AcDbArc
 50
17.75279016195042
 51
3.640275875619918
  0
ARC
  5
499D1
330
1F
100
AcDbEntity
  8
0部品6
100
AcDbCircle
 10
6205.40787372458
 20
-2597.260554572839
 30
0.0
 40
3.149999999999999
100
AcDbArc
 50
356.3597241243883
 51
342.2472098380496
  0
CIRCLE
  5
499D2
330
1F
100
AcDbEntity
  8
0部品2
  6
陰線1
 48
0.5
370
    13
100
AcDbCircle
 10
6223.90787372458
 20
-2603.26055457284
 30
0.0
 40
3.149999999999999
  0
ARC
  5
499D3
330
1F
100
AcDbEntity
  8
0部品2
100
AcDbCircle
 10
6236.90787372458
 20
-2603.26055457284
 30
0.0
 40
3.149999999999999
100
AcDbArc
 50
90.0
 51
142.5280048171741
  0
ARC
  5
499D6
330
1F
100
AcDbEntity
  8
0部品2
100
AcDbCircle
 10
6236.90787372458
 20
-2603.26055457284
 30
0.0
 40
3.149999999999999
100
AcDbArc
 50
217.4719951828259
 51
270.0
  0
ARC
  5
499D8
330
1F
100
AcDbEntity
  8
0部品2
  6
陰線1
 48
0.5
370
    13
100
AcDbCircle
 10
6236.90787372458
 20
-2603.26055457284
 30
0.0
 40
3.149999999999999
100
AcDbArc
 50
270.0
 51
90.0
  0
ARC
  5
499DA
330
1F
100
AcDbEntity
  8
0部品2
  6
陰線1
 48
0.5
370
    13
100
AcDbCircle
 10
6236.90787372458
 20
-2603.26055457284
 30
0.0
 40
2.0
100
AcDbArc
 50
270.0
 51
90.0
  0
ARC
  5
499DC
330
1F
100
AcDbEntity
  8
0部品2
  6
陰線1
 48
0.5
370
    13
100
AcDbCircle
 10
6236.90787372458
 20
-2603.26055457284
 30
0.0
 40
3.149999999999999
100
AcDbArc
 50
142.5280048171741
 51
217.4719951828259
  0
LINE
  5
499DD
330
1F
100
AcDbEntity
  8
0部品6
100
AcDbLine
 10
6209.71846472458
 20
-2600.26055457284
 30
0.0
 11
6209.71846472458
 21
-2606.260554572839
 31
0.0
  0
ARC
  5
499DE
330
1F
100
AcDbEntity
  8
0部品6
100
AcDbCircle
 10
6210.718464724579
 20
-2606.260554572839
 30
0.0
 40
1.0
100
AcDbArc
 50
180.0
 51
270.0
  0
ARC
  5
499DF
330
1F
100
AcDbEntity
  8
0部品6
100
AcDbCircle
 10
6210.718464724579
 20
-2600.26055457284
 30
0.0
 40
1.0
100
AcDbArc
 50
90.0
 51
180.0
  0
LINE
  5
499E0
330
1F
100
AcDbEntity
  8
0部品2
100
AcDbLine
 10
6216.90787372458
 20
-2612.760554572839
 30
0.0
 11
6216.90787372458
 21
-2610.76055457284
 31
0.0
  0
LINE
  5
499E1
330
1F
100
AcDbEntity
  8
0部品2
100
AcDbLine
 10
6216.90787372458
 20
-2612.760554572839
 30
0.0
 11
6222.907873724579
 21
-2612.760554572839
 31
0.0
  0
LINE
  5
499E2
330
1F
100
AcDbEntity
  8
0部品2
100
AcDbLine
 10
6216.90787372458
 20
-2593.760554572839
 30
0.0
 11
6222.907873724579
 21
-2593.760554572839
 31
0.0
  0
LINE
  5
499E5
330
1F
100
AcDbEntity
  8
0部品2
100
AcDbLine
 10
6222.907873724579
 20
-2612.760554572839
 30
0.0
 11
6222.907873724579
 21
-2610.76055457284
 31
0.0
  0
LINE
  5
499E6
330
1F
100
AcDbEntity
  8
0部品2
100
AcDbLine
 10
6216.90787372458
 20
-2611.260554572839
 30
0.0
 11
6222.907873724579
 21
-2611.260554572839
 31
0.0
  0
LINE
  5
499E7
330
1F
100
AcDbEntity
  8
0部品2
100
AcDbLine
 10
6216.90787372458
 20
-2595.260554572839
 30
0.0
 11
6222.907873724579
 21
-2595.260554572839
 31
0.0
  0
LINE
  5
499EB
330
1F
100
AcDbEntity
  8
0部品2
100
AcDbLine
 10
6216.90787372458
 20
-2659.610488507175
 30
0.0
 11
6240.90787372458
 21
-2659.610488507175
 31
0.0
  0
LINE
  5
499EC
330
1F
100
AcDbEntity
  8
0部品2
100
AcDbLine
 10
6216.90787372458
 20
-2659.610488507175
 30
0.0
 11
6216.90787372458
 21
-2653.110488507176
 31
0.0
  0
LINE
  5
499ED
330
1F
100
AcDbEntity
  8
0部品2
100
AcDbLine
 10
6222.907873724579
 20
-2659.610488507175
 30
0.0
 11
6222.907873724579
 21
-2657.610488507176
 31
0.0
  0
LINE
  5
499EE
330
1F
100
AcDbEntity
  8
0部品2
100
AcDbLine
 10
6240.90787372458
 20
-2659.610488507175
 30
0.0
 11
6240.90787372458
 21
-2658.110488507176
 31
0.0
  0
LINE
  5
499EF
330
1F
100
AcDbEntity
  8
0部品2
100
AcDbLine
 10
6222.907873724579
 20
-2658.110488507176
 30
0.0
 11
6240.90787372458
 21
-2658.110488507176
 31
0.0
  0
CIRCLE
  5
499F0
330
1F
100
AcDbEntity
  8
0部品3
100
AcDbCircle
 10
6219.907873724579
 20
-2653.110488507176
 30
0.0
 40
1.6
  0
LINE
  5
499F1
330
1F
100
AcDbEntity
  8
0部品1
100
AcDbLine
 10
6228.90787372458
 20
-2611.260554572839
 30
0.0
 11
6236.90787372458
 21
-2611.260554572839
 31
0.0
  0
LINE
  5
499F2
330
1F
100
AcDbEntity
  8
0部品1
100
AcDbLine
 10
6228.90787372458
 20
-2595.260554572839
 30
0.0
 11
6236.90787372458
 21
-2595.260554572839
 31
0.0
  0
LINE
  5
499F4
330
1F
100
AcDbEntity
  8
0部品1
100
AcDbLine
 10
6216.90787372458
 20
-2613.76055457284
 30
0.0
 11
6216.90787372458
 21
-2612.960554572839
 31
0.0
  0
LINE
  5
499F5
330
1F
100
AcDbEntity
  8
0部品1
100
AcDbLine
 10
6216.90787372458
 20
-2593.56055457284
 30
0.0
 11
6216.90787372458
 21
-2592.760554572839
 31
0.0
  0
LINE
  5
499F6
330
1F
100
AcDbEntity
  8
0部品1
100
AcDbLine
 10
6216.90787372458
 20
-2612.960554572839
 30
0.0
 11
6223.77559172458
 21
-2612.960554572839
 31
0.0
  0
LINE
  5
499F7
330
1F
100
AcDbEntity
  8
0部品1
100
AcDbLine
 10
6216.90787372458
 20
-2593.56055457284
 30
0.0
 11
6223.77559172458
 21
-2593.56055457284
 31
0.0
  0
LINE
  5
499F8
330
1F
100
AcDbEntity
  8
0部品1
100
AcDbLine
 10
6216.90787372458
 20
-2613.76055457284
 30
0.0
 11
6223.77559172458
 21
-2613.76055457284
 31
0.0
  0
LINE
  5
499F9
330
1F
100
AcDbEntity
  8
0部品1
100
AcDbLine
 10
6216.90787372458
 20
-2592.760554572839
 30
0.0
 11
6223.77559172458
 21
-2592.760554572839
 31
0.0
  0
LINE
  5
499FA
330
1F
100
AcDbEntity
  8
0部品1
100
AcDbLine
 10
6228.90787372458
 20
-2612.06055457284
 30
0.0
 11
6243.90787372458
 21
-2612.06055457284
 31
0.0
  0
LINE
  5
499FB
330
1F
100
AcDbEntity
  8
0部品1
100
AcDbLine
 10
6228.90787372458
 20
-2594.460554572839
 30
0.0
 11
6243.90787372458
 21
-2594.460554572839
 31
0.0
  0
LINE
  5
499FC
330
1F
100
AcDbEntity
  8
0部品1
100
AcDbLine
 10
6224.03311372458
 20
-2613.717972572839
 30
0.0
 11
6228.90787372458
 21
-2612.06055457284
 31
0.0
  0
LINE
  5
499FD
330
1F
100
AcDbEntity
  8
0部品1
100
AcDbLine
 10
6228.90787372458
 20
-2594.460554572839
 30
0.0
 11
6224.03311372458
 21
-2592.803135572839
 31
0.0
  0
LINE
  5
499FE
330
1F
100
AcDbEntity
  8
0部品1
100
AcDbLine
 10
6223.77559172458
 20
-2612.960554572839
 30
0.0
 11
6228.650351724581
 21
-2611.303135572839
 31
0.0
  0
LINE
  5
499FF
330
1F
100
AcDbEntity
  8
0部品1
100
AcDbLine
 10
6228.650351724581
 20
-2595.217972572839
 30
0.0
 11
6223.77559172458
 21
-2593.56055457284
 31
0.0
  0
LINE
  5
49A00
330
1F
100
AcDbEntity
  8
0部品1
100
AcDbLine
 10
6243.90787372458
 20
-2612.06055457284
 30
0.0
 11
6243.90787372458
 21
-2594.460554572839
 31
0.0
  0
LINE
  5
49A01
330
1F
100
AcDbEntity
  8
0部品1
100
AcDbLine
 10
6236.90787372458
 20
-2612.06055457284
 30
0.0
 11
6236.90787372458
 21
-2594.460554572839
 31
0.0
  0
LINE
  5
49A02
330
1F
100
AcDbEntity
  8
0部品1
100
AcDbLine
 10
6235.40787372458
 20
-2611.260554572839
 30
0.0
 11
6235.40787372458
 21
-2612.06055457284
 31
0.0
  0
LINE
  5
49A03
330
1F
100
AcDbEntity
  8
0部品1
100
AcDbLine
 10
6235.40787372458
 20
-2595.260554572839
 30
0.0
 11
6235.40787372458
 21
-2594.460554572839
 31
0.0
  0
LINE
  5
49A05
330
1F
100
AcDbEntity
  8
0部品1
100
AcDbLine
 10
6220.038680650493
 20
-2650.113341605849
 30
0.0
 11
6234.524890673574
 21
-2650.745575081099
 31
0.0
  0
ARC
  5
49A06
330
1F
100
AcDbEntity
  8
0部品1
100
AcDbCircle
 10
6219.907873724579
 20
-2653.110488507176
 30
0.0
 40
2.999999999999999
100
AcDbArc
 50
87.50097947087231
 51
260.0695714996728
  0
ARC
  5
49A07
330
1F
100
AcDbEntity
  8
0部品1
100
AcDbCircle
 10
6241.930553309614
 20
-2653.070690330102
 30
0.0
 40
1.999999999999999
100
AcDbArc
 50
286.209452382676
 51
87.50097947087231
  0
ARC
  5
49A08
330
1F
100
AcDbEntity
  8
0部品1
100
AcDbCircle
 10
6231.331533383376
 20
-2655.110488507175
 30
0.0
 40
2.999999999999999
100
AcDbArc
 50
260.0695714996728
 51
286.209452382676
  0
LINE
  5
49A09
330
1F
100
AcDbEntity
  8
0部品1
100
AcDbLine
 10
6230.814176209917
 20
-2658.065541892986
 30
0.0
 11
6222.756043920347
 21
-2656.654762023793
 31
0.0
  0
LINE
  5
49A97
330
1F
100
AcDbEntity
  8
0部品7
100
AcDbLine
 10
6230.40787372458
 20
-2611.260554572839
 30
0.0
 11
6230.40787372458
 21
-2610.76055457284
 31
0.0
  0
LINE
  5
49A98
330
1F
100
AcDbEntity
  8
0部品7
100
AcDbLine
 10
6232.40787372458
 20
-2611.260554572839
 30
0.0
 11
6232.40787372458
 21
-2610.76055457284
 31
0.0
  0
LINE
  5
49A99
330
1F
100
AcDbEntity
  8
0部品7
100
AcDbLine
 10
6232.40787372458
 20
-2595.76055457284
 30
0.0
 11
6232.40787372458
 21
-2595.260554572839
 31
0.0
  0
LINE
  5
49A9A
330
1F
100
AcDbEntity
  8
0部品7
100
AcDbLine
 10
6230.40787372458
 20
-2595.76055457284
 30
0.0
 11
6230.40787372458
 21
-2595.260554572839
 31
0.0
  0
LINE
  5
49AB8
330
1F
100
AcDbEntity
  8
0部品6
  6
中心線1
 48
0.3
370
    13
100
AcDbLine
 10
6205.40787372458
 20
-2655.110488507176
 30
0.0
 11
6205.40787372458
 21
-2662.610488507175
 31
0.0
  0
LINE
  5
49AB9
330
1F
100
AcDbEntity
  8
0部品6
100
AcDbLine
 10
6201.90787372458
 20
-2658.110488507176
 30
0.0
 11
6201.90787372458
 21
-2659.610488507175
 31
0.0
  0
LINE
  5
49ABA
330
1F
100
AcDbEntity
  8
0部品6
100
AcDbLine
 10
6201.90787372458
 20
-2659.610488507175
 30
0.0
 11
6210.40787372458
 21
-2659.610488507175
 31
0.0
  0
LINE
  5
49ABB
330
1F
100
AcDbEntity
  8
0部品6
100
AcDbLine
 10
6201.90787372458
 20
-2658.110488507176
 30
0.0
 11
6209.40787372458
 21
-2658.110488507176
 31
0.0
  0
LINE
  5
49ABD
330
1F
100
AcDbEntity
  8
0部品6
100
AcDbLine
 10
6210.306998176058
 20
-2653.668744256543
 30
0.0
 11
6208.90787372458
 21
-2652.770161507176
 31
0.0
  0
LINE
  5
49ABE
330
1F
100
AcDbEntity
  8
0部品6
100
AcDbLine
 10
6208.90787372458
 20
-2652.770161507176
 30
0.0
 11
6209.71846472458
 21
-2651.508043507175
 31
0.0
  0
LINE
  5
49ABF
330
1F
100
AcDbEntity
  8
0部品6
100
AcDbLine
 10
6209.71846472458
 20
-2651.508043507175
 30
0.0
 11
6212.078701556548
 21
-2653.023897296586
 31
0.0
  0
ARC
  5
49AC0
330
1F
100
AcDbEntity
  8
0部品6
100
AcDbCircle
 10
6210.40787372458
 20
-2656.110488507176
 30
0.0
 40
3.499999999999998
100
AcDbArc
 50
270.0
 51
329.9914572364327
  0
LINE
  5
4A182
330
1F
100
AcDbEntity
  8
0部品6
  6
中心線1
 48
0.5
370
    13
100
AcDbLine
 10
6210.55787372458
 20
-2609.26055457284
 30
0.0
 11
6200.25787372458
 21
-2609.26055457284
 31
0.0
1001
GENIUS_GENODEF_13
1002
{
1000
HIER
1070
     0
1002
}
1002
{
1000
MANEDIT
1070
     0
1002
}
1002
{
1000
NOSEL
1070
     0
1002
}
1002
{
1000
BEHIND
1070
     0
1002
}
1002
{
1000
OTHER
1070
     0
1002
}
1002
{
1000
REACTOR
1002
}
1001
GENIUS_GENOBJ-N-CEN_13
1002
{
1000
OWNER
1000
GEN
1002
}
1001
GENIUS_GENCEN_19
1002
{
1040
3.0
1002
}
  0
LINE
  5
4A183
330
1F
100
AcDbEntity
  8
0部品6
  6
中心線1
 48
0.5
370
    13
100
AcDbLine
 10
6210.55787372458
 20
-2597.260554572839
 30
0.0
 11
6200.25787372458
 21
-2597.260554572839
 31
0.0
1001
GENIUS_GENOBJ-N-CEN_13
1002
{
1000
OWNER
1000
GEN
1002
}
1001
GENIUS_GENODEF_13
1002
{
1000
HIER
1070
     0
1002
}
1002
{
1000
MANEDIT
1070
     0
1002
}
1002
{
1000
NOSEL
1070
     0
1002
}
1002
{
1000
BEHIND
1070
     0
1002
}
1002
{
1000
OTHER
1070
     0
1002
}
1002
{
1000
REACTOR
1002
}
1001
GENIUS_GENCEN_19
1002
{
1040
3.0
1002
}
  0
LINE
  5
4A186
330
1F
100
AcDbEntity
  8
0部品6
  6
中心線1
 48
0.5
370
    13
100
AcDbLine
 10
6205.40787372458
 20
-2604.11055457284
 30
0.0
 11
6205.40787372458
 21
-2614.410554572839
 31
0.0
  0
LINE
  5
4A19C
330
1F
100
AcDbEntity
  8
0部品2
  6
中心線1
 48
0.3
370
    13
100
AcDbLine
 10
6223.90787372458
 20
-2608.410554572839
 30
0.0
 11
6223.90787372458
 21
-2598.11055457284
 31
0.0
1001
GENIUS_GENODEF_13
1002
{
1000
HIER
1070
     0
1002
}
1002
{
1000
MANEDIT
1070
     0
1002
}
1002
{
1000
NOSEL
1070
     0
1002
}
1002
{
1000
BEHIND
1070
     0
1002
}
1002
{
1000
OTHER
1070
     0
1002
}
1002
{
1000
REACTOR
1002
}
1001
GENIUS_GENOBJ-N-CEN_13
1002
{
1000
OWNER
1000
GEN
1002
}
1001
GENIUS_GENCEN_19
1002
{
1040
3.0
1002
}
  0
LINE
  5
4A19E
330
1F
100
AcDbEntity
  8
0部品2
  6
中心線1
 48
0.3
370
    13
100
AcDbLine
 10
6223.90787372458
 20
-2655.110488507176
 30
0.0
 11
6223.90787372458
 21
-2662.610488507175
 31
0.0
1001
GENIUS_GENODEF_13
1002
{
1000
HIER
1070
     0
1002
}
1002
{
1000
MANEDIT
1070
     0
1002
}
1002
{
1000
NOSEL
1070
     0
1002
}
1002
{
1000
BEHIND
1070
     0
1002
}
1002
{
1000
OTHER
1070
     0
1002
}
1002
{
1000
REACTOR
1002
}
1001
GENIUS_GENOBJ-N-CEN_13
1002
{
1000
OWNER
1000
GEN
1002
}
1001
GENIUS_GENCEN_19
1002
{
1040
3.0
1002
}
  0
LINE
  5
4A19F
330
1F
100
AcDbEntity
  8
0部品2
  6
中心線1
 48
0.3
370
    13
100
AcDbLine
 10
6236.90787372458
 20
-2608.410554572839
 30
0.0
 11
6236.90787372458
 21
-2598.11055457284
 31
0.0
1001
GENIUS_GENODEF_13
1002
{
1000
HIER
1070
     0
1002
}
1002
{
1000
MANEDIT
1070
     0
1002
}
1002
{
1000
NOSEL
1070
     0
1002
}
1002
{
1000
BEHIND
1070
     0
1002
}
1002
{
1000
OTHER
1070
     0
1002
}
1002
{
1000
REACTOR
1002
}
1001
GENIUS_GENOBJ-N-CEN_13
1002
{
1000
OWNER
1000
GEN
1002
}
1001
GENIUS_GENCEN_19
1002
{
1040
3.0
1002
}
  0
LINE
  5
4A1A0
330
1F
100
AcDbEntity
  8
0部品2
  6
中心線1
 48
0.3
370
    13
100
AcDbLine
 10
6236.90787372458
 20
-2662.610488507175
 30
0.0
 11
6236.90787372458
 21
-2655.110488507176
 31
0.0
1001
GENIUS_GENODEF_13
1002
{
1000
HIER
1070
     0
1002
}
1002
{
1000
MANEDIT
1070
     0
1002
}
1002
{
1000
NOSEL
1070
     0
1002
}
1002
{
1000
BEHIND
1070
     0
1002
}
1002
{
1000
OTHER
1070
     0
1002
}
1002
{
1000
REACTOR
1002
}
1001
GENIUS_GENOBJ-N-CEN_13
1002
{
1000
OWNER
1000
GEN
1002
}
1001
GENIUS_GENCEN_19
1002
{
1040
3.0
1002
}
  0
TEXT
  5
4E0E8
330
1F
100
AcDbEntity
  8
AM_6
 60
     1
100
AcDbText
 10
5957.394900433246
 20
-5651.939004350452
 30
0.0
 40
2.5
  1
!GENTITLE-INSERT
100
AcDbText
  0
TEXT
  5
4E0E9
330
1F
100
AcDbEntity
  8
AM_6
 60
     1
100
AcDbText
 10
5548.894900433246
 20
-5660.439004350451
 30
0.0
 40
2.5
  1
!GENTITLE-LL
100
AcDbText
  0
TEXT
  5
4E0EA
330
1F
100
AcDbEntity
  8
AM_6
 60
     1
100
AcDbText
 10
5968.894900433246
 20
-5363.439004350452
 30
0.0
 40
2.5
  1
!GENTITLE-RU
100
AcDbText
  0
TEXT
  5
4E0EB
330
1F
100
AcDbEntity
  8
AM_6
 60
     1
100
AcDbText
 10
5968.894900433246
 20
-5363.439004350452
 30
0.0
 40
2.5
  1
!GENTITLE-MAX
100
AcDbText
  0
TEXT
  5
4E0F3
330
1F
100
AcDbEntity
  8
AM_6
 60
     1
100
AcDbText
 10
5548.894900433246
 20
-5660.439004350451
 30
0.0
 40
2.5
  1
!GENTITLE-LL
100
AcDbText
  0
TEXT
  5
4E0F4
330
1F
100
AcDbEntity
  8
AM_6
 60
     1
100
AcDbText
 10
5957.394900433246
 20
-5371.939004350451
 30
0.0
 40
2.5
  1
!GENTITLE-RU
100
AcDbText
  0
TEXT
  5
4E0F5
330
1F
100
AcDbEntity
  8
AM_6
 60
     1
100
AcDbText
 10
5968.894900433246
 20
-5363.439004350452
 30
0.0
 40
2.5
  1
!GENTITLE-MAX
100
AcDbText
  0
TEXT
  5
4E0F6
330
1F
100
AcDbEntity
  8
AM_6
 60
     1
100
AcDbText
 10
5957.394900433246
 20
-5651.939004350452
 30
0.0
 40
2.5
  1
!GENTITLE-INSERT
100
AcDbText
  0
TEXT
  5
5183F
330
1F
100
AcDbEntity
  8
AM_6
 60
     1
100
AcDbText
 10
5973.602012689372
 20
109.7385382224183
 30
0.0
 40
2.5
  1
!GENTITLE-INSERT
100
AcDbText
  0
TEXT
  5
51840
330
1F
100
AcDbEntity
  8
AM_6
 60
     1
100
AcDbText
 10
5565.102012689372
 20
101.2385382224183
 30
0.0
 40
2.5
  1
!GENTITLE-LL
100
AcDbText
  0
TEXT
  5
51841
330
1F
100
AcDbEntity
  8
AM_6
 60
     1
100
AcDbText
 10
5985.102012689372
 20
398.2385382224184
 30
0.0
 40
2.5
  1
!GENTITLE-RU
100
AcDbText
  0
TEXT
  5
51842
330
1F
100
AcDbEntity
  8
AM_6
 60
     1
100
AcDbText
 10
5985.102012689372
 20
398.2385382224184
 30
0.0
 40
2.5
  1
!GENTITLE-MAX
100
AcDbText
  0
TEXT
  5
5184A
330
1F
100
AcDbEntity
  8
AM_6
 60
     1
100
AcDbText
 10
5565.102012689372
 20
101.2385382224183
 30
0.0
 40
2.5
  1
!GENTITLE-LL
100
AcDbText
  0
TEXT
  5
5184B
330
1F
100
AcDbEntity
  8
AM_6
 60
     1
100
AcDbText
 10
5973.602012689372
 20
389.7385382224184
 30
0.0
 40
2.5
  1
!GENTITLE-RU
100
AcDbText
  0
TEXT
  5
5184C
330
1F
100
AcDbEntity
  8
AM_6
 60
     1
100
AcDbText
 10
5985.102012689372
 20
398.2385382224184
 30
0.0
 40
2.5
  1
!GENTITLE-MAX
100
AcDbText
  0
TEXT
  5
5184D
330
1F
100
AcDbEntity
  8
AM_6
 60
     1
100
AcDbText
 10
5973.602012689372
 20
109.7385382224183
 30
0.0
 40
2.5
  1
!GENTITLE-INSERT
100
AcDbText
  0
DIMENSION
  5
58324
330
1F
100
AcDbEntity
  8
AM_5
100
AcDbDimension
  2
*D7
 10
6251.907873724579
 20
-2612.06055457284
 30
0.0
 11
6249.307873724579
 21
-2603.260554572838
 31
0.0
 70
    32
  1
17.6
 71
     5
 42
17.60000000000036
  3
SYS$0
100
AcDbAlignedDimension
 13
6243.90787372458
 23
-2594.460554572839
 33
0.0
 14
6243.90787372458
 24
-2612.06055457284
 34
0.0
 50
90.0
100
AcDbRotatedDimension
  0
DIMENSION
  5
58325
330
1F
100
AcDbEntity
  8
AM_5
100
AcDbDimension
  2
*D8
 10
6259.907873724579
 20
-2613.76055457284
 30
0.0
 11
6257.30787372458
 21
-2603.260554572838
 31
0.0
 70
    32
  1
（<>）
 71
     5
 42
21.0
  3
SYS$0
100
AcDbAlignedDimension
 13
6223.775591724577
 23
-2592.760554572839
 33
0.0
 14
6223.77559172458
 24
-2613.76055457284
 34
0.0
 50
90.0
100
AcDbRotatedDimension
  0
DIMENSION
  5
58374
330
1F
100
AcDbEntity
  8
AM_5
100
AcDbDimension
  2
*D9
 10
6243.90787372458
 20
-2583.760554572839
 30
0.0
 11
6230.40787372458
 21
-2581.16055457284
 31
0.0
 70
    32
  1
（<>）
 71
     5
 42
27.0
  3
SYS$0
100
AcDbAlignedDimension
 13
6216.90787372458
 23
-2592.760554572839
 33
0.0
 14
6243.90787372458
 24
-2594.460554572839
 34
0.0
100
AcDbRotatedDimension
  0
DIMENSION
  5
58393
330
1F
100
AcDbEntity
  8
AM_5
100
AcDbDimension
  2
*D10
 10
6193.90787372458
 20
-2609.26055457284
 30
0.0
 11
6193.90787372458
 21
-2603.260554572838
 31
0.0
 70
   160
 71
     5
 42
12.0
  3
SYS$0
100
AcDbAlignedDimension
 13
6200.25787372458
 23
-2597.260554572839
 33
0.0
 14
6200.25787372458
 24
-2609.26055457284
 34
0.0
 50
90.0
100
AcDbRotatedDimension
  0
DIMENSION
  5
583BB
330
1F
100
AcDbEntity
  8
AM_5
100
AcDbDimension
  2
*D11
 10
6185.90787372458
 20
-2613.26055457284
 30
0.0
 11
6185.90787372458
 21
-2603.26055457284
 31
0.0
 70
   160
 71
     5
 42
20.0
  3
SYS$0
100
AcDbAlignedDimension
 13
6202.90787372458
 23
-2593.260554572839
 33
0.0
 14
6202.90787372458
 24
-2613.26055457284
 34
0.0
 50
90.0
100
AcDbRotatedDimension
  0
DIMENSION
  5
583F5
330
1F
100
AcDbEntity
  8
AM_5
100
AcDbDimension
  2
*D12
 10
6193.90787372458
 20
-2658.110488507176
 30
0.0
 11
6193.90787372458
 21
-2664.797155173841
 31
0.0
 70
   160
 71
     5
 42
1.5
  3
SYS$0
100
AcDbAlignedDimension
 13
6201.90787372458
 23
-2659.610488507175
 33
0.0
 14
6201.90787372458
 24
-2658.110488507176
 34
0.0
 50
90.0
100
AcDbRotatedDimension
  0
DIMENSION
  5
583F6
330
1F
100
AcDbEntity
  8
AM_5
100
AcDbDimension
  2
*D13
 10
6185.90787372458
 20
-2651.508043507175
 30
0.0
 11
6185.90787372458
 21
-2655.559266007174
 31
0.0
 70
   160
  1
<>
 71
     5
 42
8.102445000000443
  3
SYS$0
100
AcDbAlignedDimension
 13
6201.90787372458
 23
-2659.610488507175
 33
0.0
 14
6209.71846472458
 24
-2651.508043507175
 34
0.0
 50
90.0
100
AcDbRotatedDimension
1001
ACAD
1000
DSTYLE
1002
{
1070
   271
1070
     0
1002
}
  0
DIMENSION
  5
58451
330
1F
100
AcDbEntity
  8
AM_5
100
AcDbDimension
  2
*D14
 10
6259.907873724579
 20
-2650.110488507175
 30
0.0
 11
6259.90787372458
 21
-2654.610488507175
 31
0.0
 70
   160
  1
（<>）
 71
     5
 42
9.500000000000454
  3
SYS$0
100
AcDbAlignedDimension
 13
6240.929680512109
 23
-2659.610488507175
 33
0.0
 14
6234.407873724579
 24
-2650.110488507175
 34
0.0
 50
90.0
100
AcDbRotatedDimension
  0
DIMENSION
  5
58452
330
1F
100
AcDbEntity
  8
AM_5
100
AcDbDimension
  2
*D15
 10
6251.881278323273
 20
-2658.110488507176
 30
0.0
 11
6251.881278323274
 21
-2664.797155173841
 31
0.0
 70
   160
 71
     5
 42
1.5
  3
SYS$0
100
AcDbAlignedDimension
 13
6240.929680512109
 23
-2659.610488507175
 33
0.0
 14
6240.929680512109
 24
-2658.110488507176
 34
0.0
 50
90.0
100
AcDbRotatedDimension
  0
DIMENSION
  5
58503
330
1F
100
AcDbEntity
  8
AM_5
100
AcDbDimension
  2
*D16
 10
6236.90787372458
 20
-2630.76055457284
 30
0.0
 11
6230.40787372458
 21
-2630.76055457284
 31
0.0
 70
   160
 71
     5
 42
13.0
  3
SYS$0
100
AcDbAlignedDimension
 13
6223.90787372458
 23
-2608.410554572839
 33
0.0
 14
6236.90787372458
 24
-2608.410554572839
 34
0.0
100
AcDbRotatedDimension
  0
DIMENSION
  5
58504
330
1F
100
AcDbEntity
  8
AM_5
100
AcDbDimension
  2
*D17
 10
6205.40787372458
 20
-2630.76055457284
 30
0.0
 11
6213.65787372458
 21
-2630.76055457284
 31
0.0
 70
   160
 71
     5
 42
18.5
  3
SYS$0
100
AcDbAlignedDimension
 13
6223.90787372458
 23
-2608.410554572839
 33
0.0
 14
6205.40787372458
 24
-2614.410554572839
 34
0.0
100
AcDbRotatedDimension
  0
DIMENSION
  5
58553
330
1F
100
AcDbEntity
  8
AM_5
100
AcDbDimension
  2
*D18
 10
6223.90787372458
 20
-2622.76055457284
 30
0.0
 11
6220.40787372458
 21
-2622.76055457284
 31
0.0
 70
   160
 71
     5
 42
7.0
  3
SYS$0
100
AcDbAlignedDimension
 13
6216.90787372458
 23
-2613.76055457284
 33
0.0
 14
6223.90787372458
 24
-2608.410554572839
 34
0.0
100
AcDbRotatedDimension
  0
DIMENSION
  5
5859F
330
1F
100
AcDbEntity
  8
AM_5
100
AcDbDimension
  2
*D19
 10
6201.90787372458
 20
-2583.76055457284
 30
0.0
 11
6207.295550141585
 21
-2583.76055457284
 31
0.0
 70
   160
  1
（<>）
 71
     5
 42
12.0
  3
SYS$0
100
AcDbAlignedDimension
 13
6213.90787372458
 23
-2599.26055457284
 33
0.0
 14
6201.90787372458
 24
-2594.260554572839
 34
0.0
100
AcDbRotatedDimension
  0
DIMENSION
  5
585B5
330
1F
100
AcDbEntity
  8
AM_5
100
AcDbDimension
  2
*D20
 10
6213.90787372458
 20
-2622.76055457284
 30
0.0
 11
6209.575888200394
 21
-2622.76055457284
 31
0.0
 70
   160
 71
     5
 42
8.5
  3
SYS$0
100
AcDbAlignedDimension
 13
6205.40787372458
 23
-2614.410554572839
 33
0.0
 14
6213.90787372458
 24
-2607.260554572839
 34
0.0
 50
0.0000000000001132
100
AcDbRotatedDimension
  0
DIMENSION
  5
59BA7
330
1F
100
AcDbEntity
  8
AM_5
100
AcDbDimension
  2
*D21
 10
6235.32236943679
 20
-2600.53866622954
 30
0.0
 11
6260.438819528363
 21
-2621.961984160922
 31
0.0
 70
   163
  1
2-%%c4×<>サラ
 71
     5
 42
6.299999999997453
  3
SYS$3
100
AcDbDiametricDimension
 15
6238.493378012372
 25
-2605.982442916138
 35
0.0
 40
0.0
1001
ACAD
1000
DSTYLE
1002
{
1070
    41
1040
1.0
1070
   172
1070
     1
1070
   342
1005
6C4
1002
}
  0
LINE
  5
59CA9
330
1F
100
AcDbEntity
  8
0部品5
100
AcDbLine
 10
6212.40787372458
 20
-2607.260554572839
 30
0.0
 11
6212.40787372458
 21
-2608.26055457284
 31
0.0
  0
LINE
  5
59CAA
330
1F
100
AcDbEntity
  8
0部品5
100
AcDbLine
 10
6209.40787372458
 20
-2599.394529169055
 30
0.0
 11
6209.40787372458
 21
-2598.260554572839
 31
0.0
  0
LINE
  5
59CAB
330
1F
100
AcDbEntity
  8
0部品6
100
AcDbLine
 10
6208.90787372458
 20
-2598.26055457284
 30
0.0
 11
6208.90787372458
 21
-2599.26055457284
 31
0.0
  0
LINE
  5
59CAC
330
1F
100
AcDbEntity
  8
0部品6
100
AcDbLine
 10
6208.90787372458
 20
-2609.06055457284
 30
0.0
 11
6208.90787372458
 21
-2612.26055457284
 31
0.0
  0
LINE
  5
59CAD
330
1F
100
AcDbEntity
  8
0部品6
100
AcDbLine
 10
6209.90787372458
 20
-2607.260554572839
 30
0.0
 11
6213.90787372458
 21
-2607.260554572839
 31
0.0
  0
LINE
  5
59CAE
330
1F
100
AcDbEntity
  8
0部品6
100
AcDbLine
 10
6209.90787372458
 20
-2599.26055457284
 30
0.0
 11
6213.90787372458
 21
-2599.26055457284
 31
0.0
  0
DIMENSION
  5
5A472
330
1F
100
AcDbEntity
  8
AM_5
100
AcDbDimension
  2
*D22
 10
6207.046865554287
 20
-2606.570534910801
 30
0.0
 11
6185.46762575399
 21
-2621.246571591561
 31
0.0
 70
   163
  1
2-%%c4×<>サラ
 71
     5
 42
6.299999999997453
  3
SYS$3
100
AcDbDiametricDimension
 15
6203.768881894876
 25
-2611.950574234877
 35
0.0
 40
0.0
1001
ACAD
1000
DSTYLE
1002
{
1070
    41
1040
1.0
1070
   172
1070
     1
1070
   342
1005
6C4
1002
}
  0
ENDSEC
  0
SECTION
  2
OBJECTS
  0
DICTIONARY
  5
C
330
0
100
AcDbDictionary
281
     1
  3
ACAD_2007HEADERVARS_RT
350
5B460
  3
ACAD_BGPLOT_KEY
350
AB06
  3
ACAD_COLOR
350
A91D
  3
ACAD_GROUP
350
D
  3
ACAD_LAYOUT
350
1A
  3
ACAD_MATERIAL
350
A91C
  3
ACAD_MLINESTYLE
350
17
  3
ACAD_PLOTSETTINGS
350
19
  3
ACAD_PLOTSTYLENAME
350
E
  3
ACAD_TABLESTYLE
350
AAB9
  3
ACAD_VISUALSTYLE
350
B0F1
  3
AcAsAppObject
350
3DA1
  3
ACASGREF_MASTER
350
3DE9
  3
AcDbVariableDictionary
350
34
  3
AcmDictionary
350
47
  3
AD_GREF_MODULE
350
3DEA
  3
AD_MAPI_MODULE
350
3E06
  3
AMG
350
2B
  3
AMGSNAPSETTINGS
350
7D
  3
ASE_INDEX_DICTIONARY
350
57912
  3
DWGPROPS
350
5B45F
  3
MAPISURF_MODULE
350
3DEB
  0
DICTIONARY
  5
3F95
330
2
100
AcDbDictionary
280
     1
281
     1
  3
ACAD_LAYERFILTERS
360
5369F
  3
ACAD_LAYERSTATES
360
3F96
  3
ACLYDICTIONARY
360
5369E
  3
AMLAYER_GROUPCOLORS
360
AAB4
  0
DICTIONARY
  5
2E416
330
2E415
100
AcDbDictionary
280
     1
281
     1
  3
ADSK_XREC_LAYER_RECONCILED
360
2E417
  0
DICTIONARY
  5
8A
330
1F
100
AcDbDictionary
280
     1
281
     1
  3
ACAD_SORTENTS
360
B1BA
  0
DICTIONARY
  5
5B460
102
{ACAD_REACTORS
330
C
102
}
330
C
100
AcDbDictionary
281
     1
  3
DIMARCSYM
350
5B461
  0
DICTIONARY
  5
AB06
102
{ACAD_REACTORS
330
C
102
}
330
C
100
AcDbDictionary
280
     1
281
     1
  0
DICTIONARY
  5
A91D
102
{ACAD_REACTORS
330
C
102
}
330
C
100
AcDbDictionary
281
     1
  0
DICTIONARY
  5
D
102
{ACAD_REACTORS
330
C
102
}
330
C
100
AcDbDictionary
281
     1
  0
DICTIONARY
  5
1A
102
{ACAD_REACTORS
330
C
102
}
330
C
100
AcDbDictionary
281
     1
  3
Model
350
22
  3
ﾚｲｱｳﾄ1
350
1E
  3
ﾚｲｱｳﾄ2
350
26
  0
DICTIONARY
  5
A91C
102
{ACAD_REACTORS
330
C
102
}
330
C
100
AcDbDictionary
281
     1
  3
ByBlock
350
B0EF
  3
ByLayer
350
B0EE
  3
Global
350
B0F0
  0
DICTIONARY
  5
17
102
{ACAD_REACTORS
330
C
102
}
330
C
100
AcDbDictionary
281
     1
  3
Standard
350
18
  0
DICTIONARY
  5
19
102
{ACAD_REACTORS
330
C
102
}
330
C
100
AcDbDictionary
281
     1
  0
ACDBDICTIONARYWDFLT
  5
E
102
{ACAD_REACTORS
330
C
102
}
330
C
100
AcDbDictionary
281
     1
  3
Normal
350
F
100
AcDbDictionaryWithDefault
340
F
  0
DICTIONARY
  5
AAB9
102
{ACAD_REACTORS
330
C
102
}
330
C
100
AcDbDictionary
281
     1
  3
Standard
350
AABA
  0
DICTIONARY
  5
B0F1
102
{ACAD_REACTORS
330
C
102
}
330
C
100
AcDbDictionary
281
     1
  3
2dWireframe
350
B0F7
  3
3D Hidden
350
B0F9
  3
3dWireframe
350
B0F8
  3
Basic
350
B0F6
  3
Brighten
350
B0FD
  3
ColorChange
350
B101
  3
Conceptual
350
B0FA
  3
Dim
350
B0FC
  3
Facepattern
350
B100
  3
Flat
350
B0F2
  3
FlatWithEdges
350
B0F3
  3
Gouraud
350
B0F4
  3
GouraudWithEdges
350
B0F5
  3
Linepattern
350
B0FF
  3
Realistic
350
B0FB
  3
Thicken
350
B0FE
  0
ACAD_PROXY_OBJECT
  5
3DA1
102
{ACAD_REACTORS
330
C
102
}
330
C
100
AcDbProxyObject
 90
      499
 91
      576
 95
   917527
 70
     0
 93
       10
310
407F
 94
        0
1001
ACAD
1000
AcRTDxfName
1000
ASAPP
  0
ACAD_PROXY_OBJECT
  5
3DE9
102
{ACAD_REACTORS
330
C
102
}
330
C
100
AcDbProxyObject
 90
      499
 91
      581
 95
   917527
 70
     0
 93
       34
310
010000407F
 94
        0
1001
ACAD
1000
AcRTDxfName
1000
ACASGREFMASTER
  0
DICTIONARY
  5
34
102
{ACAD_REACTORS
330
C
102
}
330
C
100
AcDbDictionary
281
     1
  3
CTABLESTYLE
350
AAF3
  3
DIMASSOC
350
A10C
  3
FIELDEVAL
350
AB07
  3
INDEXCTL
350
35
  3
SORTENTS
350
194C
  0
DICTIONARY
  5
47
102
{ACAD_REACTORS
330
C
102
}
330
C
100
AcDbDictionary
281
     1
  3
AcmBOM
350
7E8
  3
AcmStdDictionary
350
4C
  3
AMDTSECTSYM_ARROWCOLOR
350
A929
  0
ACAD_PROXY_OBJECT
  5
3DEA
102
{ACAD_REACTORS
330
C
102
}
330
C
100
AcDbProxyObject
 90
      499
 91
      582
 95
   917527
 70
     0
 93
      114
310
00000043800000000000000000003F
 94
        0
1001
ACAD
1000
AcRTDxfName
1000
ACADGREFMODULE
  0
ACAD_PROXY_OBJECT
  5
3E06
102
{ACAD_REACTORS
330
C
102
}
330
C
100
AcDbProxyObject
 90
      499
 91
      594
 95
   917527
 70
     0
 93
       34
310
05000044FF
 94
        0
1001
ACAD
1000
AcRTDxfName
1000
MAPIADMODULE
  0
DICTIONARY
  5
2B
102
{ACAD_REACTORS
330
C
102
}
330
C
100
AcDbDictionary
281
     1
  0
DICTIONARY
  5
7D
102
{ACAD_REACTORS
330
C
102
}
330
C
100
AcDbDictionary
281
     1
  0
DICTIONARY
  5
57912
102
{ACAD_REACTORS
330
C
102
}
330
C
100
AcDbDictionary
281
     1
  3
ASEBlockHierarchyIndexRecord
350
57913
1001
DCO15
1040
1757428023.343
  0
XRECORD
  5
5B45F
102
{ACAD_REACTORS
330
C
102
}
330
C
100
AcDbXrecord
280
     1
  1
DWGPROPS COOKIE
  2

  3

  4

  6

  7

  8
Administrator
  9

300
AmdtFileType=84
301
=
302
=
303
=
304
=
305
=
306
=
307
=
308
=
309
=
 40
8.037966157407407
 41
2455567.680725081
 42
2456267.735657362
  1

 90
        1
  0
ACAD_PROXY_OBJECT
  5
3DEB
102
{ACAD_REACTORS
330
C
102
}
330
C
100
AcDbProxyObject
 90
      499
 91
      583
 95
   917527
 70
     0
 93
        8
310
047E
 94
        0
1001
ACAD
1000
AcRTDxfName
1000
AMDTMAPISURFMOUDULE
  0
DICTIONARY
  5
5369F
102
{ACAD_REACTORS
330
3F95
102
}
330
3F95
100
AcDbDictionary
281
     1
  0
DICTIONARY
  5
3F96
102
{ACAD_REACTORS
330
3F95
102
}
330
3F95
100
AcDbDictionary
281
     1
  3
20011210
350
3FB7
  0
DICTIONARY
  5
5369E
102
{ACAD_REACTORS
330
3F95
102
}
330
3F95
100
AcDbDictionary
281
     1
1001
ACAD
1000
<All
  0
DICTIONARY
  5
AAB4
102
{ACAD_REACTORS
330
3F95
102
}
330
3F95
100
AcDbDictionary
280
     1
281
     1
  0
XRECORD
  5
2E417
102
{ACAD_REACTORS
330
2E416
102
}
330
2E416
100
AcDbXrecord
280
     1
290
     1
  0
SORTENTSTABLE
  5
B1BA
102
{ACAD_REACTORS
330
8A
102
}
330
8A
100
AcDbSortentsTable
330
1F
331
51842
  5
B5E3
331
499BD
  5
49A97
331
49970
  5
499B5
331
49A00
  5
49B83
331
499CE
  5
49B56
331
4E0F6
  5
4E1E4
331
499F6
  5
49B79
331
41A68
  5
41B59
331
49994
  5
499E2
331
49977
  5
499BE
331
49A07
  5
49B8E
331
499C2
  5
49AB9
331
41A5E
  5
41B4F
331
32D21
  5
32D3E
331
49988
  5
499CC
331
59CAB
  5
499FC
331
49A98
  5
49B88
331
499B8
  5
49A05
331
4996B
  5
499B0
331
41A6F
  5
41B60
331
4E0E8
  5
4E1D5
331
499FB
  5
49B7E
331
4999B
  5
499E8
331
499DE
  5
49B61
331
4997E
  5
499C5
331
31B3D
  5
3273E
331
499C9
  5
49B51
331
41A65
  5
41B56
331
499F1
  5
49B74
331
4A19C
  5
4A1E3
331
4998F
  5
499D8
331
499BF
  5
49A99
331
49972
  5
499B7
331
31B31
  5
32739
331
49A02
  5
49B85
331
41A59
  5
41B4A
331
4A182
  5
4A1DD
331
499E5
  5
49B68
331
499A0
  5
499ED
331
499D0
  5
49B58
331
49983
  5
499C7
331
499B3
  5
499FF
331
49966
  5
499A8
331
5859F
  5
5887E
331
58452
  5
5887A
331
41A6A
  5
41B5B
331
49996
  5
499E4
331
583F5
  5
587B9
331
34535
  5
3454D
331
5184B
  5
B8D6
331
49ABE
  5
49B97
331
49979
  5
499C0
331
49A09
  5
49B91
331
499C4
  5
49ABB
331
41A60
  5
41B51
331
499EC
  5
49B6F
331
4998A
  5
499CE
331
59CAD
  5
49ABE
331
5183F
  5
B5AD
331
49A9A
  5
49B8B
331
499BA
  5
49A07
331
4E0EA
  5
4E1DE
331
499FD
  5
49B80
331
4999D
  5
499EA
331
499E0
  5
49B63
331
499CB
  5
49B53
331
41A67
  5
41B58
331
4E0F3
  5
4E1E0
331
499AE
  5
499FB
331
4A19E
  5
4A1E4
331
49991
  5
499DD
331
59BA7
  5
59CF5
331
49AB9
  5
49B93
331
31B33
  5
3273B
331
41A5B
  5
41B4C
331
499E7
  5
49B6A
331
499A2
  5
499EF
331
32D1E
  5
32D3B
331
49A97
  5
49B8A
331
499D2
  5
49B5A
331
49985
  5
499C9
331
499B5
  5
49A01
331
49968
  5
499AB
331
41A6C
  5
41B5D
331
499F8
  5
49B7B
331
49998
  5
499E6
331
5184D
  5
B8D8
331
49AC0
  5
49B99
331
4997B
  5
499C2
331
499C6
  5
49ABD
331
41A62
  5
41B53
331
499EE
  5
49B71
331
499A9
  5
499F5
331
4998C
  5
499D0
331
51841
  5
B5E2
331
499BC
  5
49A09
331
4996F
  5
499B4
331
499FF
  5
49B82
331
4999F
  5
499EC
331
499E2
  5
49B65
331
499CD
  5
49B55
331
58504
  5
5887C
331
4E0F5
  5
4E1E3
331
499F5
  5
49B78
331
499B0
  5
499FD
331
58325
  5
586E7
331
4A1A0
  5
4A1E6
331
49993
  5
499E1
331
49ABB
  5
49B95
331
49976
  5
499BD
331
58393
  5
587B7
331
49A06
  5
49B8D
331
499C1
  5
49AB8
331
41A5D
  5
41B4E
331
4A186
  5
499A9
331
499A4
  5
499F1
331
49987
  5
499CB
331
59CAA
  5
499DC
331
499B7
  5
49A04
331
4996A
  5
499AE
331
41A6E
  5
41B5F
331
499FA
  5
49B7D
331
4999A
  5
499E7
331
499DD
  5
49B60
331
4997D
  5
499C4
331
31B3C
  5
3273D
331
499C8
  5
49AC6
331
41A64
  5
41B55
331
499F0
  5
49B73
331
4998E
  5
499D3
331
499BE
  5
49A98
331
49971
  5
499B6
331
31B30
  5
32738
331
49A01
  5
49B84
331
5A472
  5
5A492
331
58553
  5
5887D
331
499CF
  5
49B57
331
499F7
  5
49B7A
331
58451
  5
58879
331
41A69
  5
41B5A
331
49995
  5
499E3
331
34534
  5
3454C
331
5184A
  5
B8D5
331
49ABD
  5
49B96
331
499D8
  5
49B5D
331
49978
  5
499BF
331
49A08
  5
49B90
331
499C3
  5
49ABA
331
41A5F
  5
41B50
331
499EB
  5
49B6E
331
499D6
  5
49B5C
331
49989
  5
499CD
331
59CAC
  5
49A03
331
49A99
  5
49B89
331
499B9
  5
49A06
331
41A70
  5
41B61
331
4E0E9
  5
4E1D6
331
499FC
  5
49B7F
331
4999C
  5
499E9
331
499DF
  5
49B62
331
4997F
  5
499C6
331
31B3E
  5
3273F
331
499CA
  5
49B52
331
41A66
  5
41B57
331
499F2
  5
49B75
331
49990
  5
499DA
331
49AB8
  5
49B92
331
31B32
  5
3273A
331
49A03
  5
49B86
331
41A5A
  5
41B4B
331
4A183
  5
4A1DE
331
499E6
  5
49B69
331
499A1
  5
499EE
331
32D1D
  5
32D3A
331
583BB
  5
587B8
331
499D1
  5
49B59
331
49984
  5
499C8
331
585B5
  5
5887F
331
499B4
  5
49A00
331
49967
  5
499AA
331
41A6B
  5
41B5C
331
49997
  5
499E5
331
583F6
  5
58878
331
34536
  5
3454E
331
5184C
  5
B8D7
331
49ABF
  5
49B98
331
499DA
  5
49B5E
331
4997A
  5
499C1
331
499C5
  5
49ABC
331
41A61
  5
41B52
331
499ED
  5
49B70
331
499A8
  5
499F3
331
4998B
  5
499CF
331
59CAE
  5
49AC0
331
51840
  5
B5AE
331
499BB
  5
49A08
331
4996E
  5
499B3
331
4E0EB
  5
4E1DF
331
499FE
  5
49B81
331
4999E
  5
499EB
331
499E1
  5
49B64
331
499CC
  5
49B54
331
58503
  5
5887B
331
4E0F4
  5
4E1E1
331
499F4
  5
49B77
331
58324
  5
585B5
331
4A19F
  5
4A1E5
331
49992
  5
499DE
331
49ABA
  5
49B94
331
49975
  5
499BC
331
49A05
  5
49B8C
331
499C0
  5
49A9A
331
41A5C
  5
41B4D
331
499A3
  5
499F0
331
32D1F
  5
32D3C
331
499D3
  5
49B5B
331
49986
  5
499CA
331
59CA9
  5
499E0
331
499B6
  5
49A02
331
49969
  5
499AD
331
41A6D
  5
41B5E
331
499F9
  5
49B7C
331
34538
  5
34550
331
499DC
  5
49B5F
331
4997C
  5
499C3
331
31B3B
  5
3273C
331
499C7
  5
49ABF
331
41A63
  5
41B54
331
58374
  5
587B6
331
499EF
  5
49B72
331
499AA
  5
499F6
331
4998D
  5
499D1
  0
XRECORD
  5
5B461
102
{ACAD_REACTORS
330
5B460
102
}
330
5B460
100
AcDbXrecord
280
     1
 70
     1
  0
LAYOUT
  5
22
102
{ACAD_XDICTIONARY
360
5B464
102
}
102
{ACAD_REACTORS
330
1A
102
}
330
1A
100
AcDbPlotSettings
  1

  2
FX DocuWide 2050/2051
  4
A3
  6
AM_VIEW1
 40
3.174999952316284
 41
3.174999952316284
 42
3.17498779296875
 43
3.17498779296875
 44
296.989501953125
 45
419.9889831542968
 46
0.0
 47
1.295841228961961
 48
214.3704939521119
 49
367.5855324241176
140
275.6727856380065
141
407.629191407817
142
1.0
143
0.7225445603030646
 70
  3764
 72
     1
 73
     1
 74
     2
  7
monochrome.ctb
 75
     0
147
1.383997686703999
148
-1700.85588156276
149
-1647.985052086429
100
AcDbLayout
  1
Model
 70
     1
 71
     0
 10
0.0
 20
0.0
 11
12.0
 21
9.0
 12
0.0
 22
0.0
 32
0.0
 14
0.0
 24
0.0
 34
0.0
 15
0.0
 25
0.0
 35
0.0
146
0.0
 13
0.0
 23
0.0
 33
0.0
 16
1.0
 26
0.0
 36
0.0
 17
0.0
 27
1.0
 37
0.0
 76
     0
330
1F
331
B0EC
1001
ACAD_PSEXT
1000
FX DocuWide 2050/2051
1000
FX DocuWide 2050/2051
1000
IP_192.200.15.252
1000

1070
     0
  0
LAYOUT
  5
1E
102
{ACAD_XDICTIONARY
360
5B462
102
}
102
{ACAD_REACTORS
330
1A
102
}
330
1A
100
AcDbPlotSettings
  1

  2
\\ML370\XEROX
  4
A4
  6

 40
3.174999952316284
 41
3.174999952316284
 42
3.175003051757812
 43
3.17498779296875
 44
209.8674926757813
 45
296.6719970703125
 46
0.0
 47
0.0
 48
0.0
 49
0.0
140
0.0
141
0.0
142
1.0
143
1.0
 70
   688
 72
     1
 73
     1
 74
     5
  7
monochrome.ctb
 75
    16
147
1.0
148
0.0
149
0.0
100
AcDbLayout
  1
ﾚｲｱｳﾄ1
 70
     1
 71
     1
 10
-3.17498779296875
 20
-3.174999952316284
 11
293.4970092773438
 21
206.692492723465
 12
0.0
 22
0.0
 32
0.0
 14
1.000000000000000E+20
 24
1.000000000000000E+20
 34
1.000000000000000E+20
 15
-1.000000000000000E+20
 25
-1.000000000000000E+20
 35
-1.000000000000000E+20
146
0.0
 13
0.0
 23
0.0
 33
0.0
 16
1.0
 26
0.0
 36
0.0
 17
0.0
 27
1.0
 37
0.0
 76
     0
330
1B
  0
LAYOUT
  5
26
102
{ACAD_XDICTIONARY
360
5B466
102
}
102
{ACAD_REACTORS
330
1A
102
}
330
1A
100
AcDbPlotSettings
  1

  2
\\ML370\XEROX
  4

  6

 40
0.0
 41
0.0
 42
0.0
 43
0.0
 44
0.0
 45
0.0
 46
0.0
 47
0.0
 48
0.0
 49
0.0
140
0.0
141
0.0
142
1.0
143
1.0
 70
   688
 72
     0
 73
     0
 74
     5
  7
monochrome.ctb
 75
    16
147
1.0
148
0.0
149
0.0
100
AcDbLayout
  1
ﾚｲｱｳﾄ2
 70
     1
 71
     2
 10
0.0
 20
0.0
 11
12.0
 21
9.0
 12
0.0
 22
0.0
 32
0.0
 14
0.0
 24
0.0
 34
0.0
 15
0.0
 25
0.0
 35
0.0
146
0.0
 13
0.0
 23
0.0
 33
0.0
 16
1.0
 26
0.0
 36
0.0
 17
0.0
 27
1.0
 37
0.0
 76
     0
330
23
  0
MATERIAL
  5
B0EF
102
{ACAD_XDICTIONARY
360
5B46C
102
}
102
{ACAD_REACTORS
330
A91C
102
}
330
A91C
100
AcDbMaterial
  1
ByBlock
  0
MATERIAL
  5
B0EE
102
{ACAD_XDICTIONARY
360
5B46A
102
}
102
{ACAD_REACTORS
330
A91C
102
}
330
A91C
100
AcDbMaterial
  1
ByLayer
  0
MATERIAL
  5
B0F0
102
{ACAD_XDICTIONARY
360
5B46E
102
}
102
{ACAD_REACTORS
330
A91C
102
}
330
A91C
100
AcDbMaterial
  1
Global
  0
MLINESTYLE
  5
18
102
{ACAD_REACTORS
330
17
102
}
330
17
100
AcDbMlineStyle
  2
STANDARD
 70
     0
  3

 62
   256
 51
90.0
 52
90.0
 71
     2
 49
0.5
 62
   256
  6
BYLAYER
 49
-0.5
 62
   256
  6
BYLAYER
  0
ACDBPLACEHOLDER
  5
F
102
{ACAD_REACTORS
330
E
102
}
330
E
  0
TABLESTYLE
  5
AABA
102
{ACAD_XDICTIONARY
360
5B468
102
}
102
{ACAD_REACTORS
330
AAB9
102
}
330
AAB9
100
AcDbTableStyle
  3
Standard
 70
     0
 71
     0
 40
1.5
 41
1.5
280
     0
281
     0
  7
STANDARD
140
4.5
170
     2
 62
     0
 63
     7
283
     0
274
    -2
284
     1
 64
     0
275
    -2
285
     1
 65
     0
276
    -2
286
     1
 66
     0
277
    -2
287
     1
 67
     0
278
    -2
288
     1
 68
     0
279
    -2
289
     1
 69
     0
  7
STANDARD
140
6.0
170
     5
 62
     0
 63
     7
283
     0
274
    -2
284
     1
 64
     0
275
    -2
285
     1
 65
     0
276
    -2
286
     1
 66
     0
277
    -2
287
     1
 67
     0
278
    -2
288
     1
 68
     0
279
    -2
289
     1
 69
     0
  7
STANDARD
140
4.5
170
     5
 62
     0
 63
     7
283
     0
274
    -2
284
     1
 64
     0
275
    -2
285
     1
 65
     0
276
    -2
286
     1
 66
     0
277
    -2
287
     1
 67
     0
278
    -2
288
     1
 68
     0
279
    -2
289
     1
 69
     0
  0
VISUALSTYLE
  5
B0F7
102
{ACAD_REACTORS
330
B0F1
102
}
330
B0F1
100
AcDbVisualStyle
  2
2dWireframe
 70
     4
 71
     0
 72
     2
 73
     0
 90
        0
 40
-0.6
 41
-30.0
 62
     5
 63
     7
 74
     1
 91
        4
 64
     7
 65
   257
 75
     1
175
     1
 42
1.0
 92
        0
 66
   257
 43
1.0
 76
     1
 77
     6
 78
     2
 67
     7
 79
     5
170
     0
171
     0
290
     0
174
     0
 93
        1
 44
0.0
173
     0
291
     0
 45
0.0
1001
ACAD
1000
AcDbSavedByObjectVersion
1070
     0
  0
VISUALSTYLE
  5
B0F9
102
{ACAD_REACTORS
330
B0F1
102
}
330
B0F1
100
AcDbVisualStyle
  2
3D Hidden
 70
     6
 71
     1
 72
     2
 73
     2
 90
        0
 40
-0.6
 41
-30.0
 62
     5
 63
     7
 74
     2
 91
        2
 64
     7
 65
   257
 75
     2
175
     1
 42
40.0
 92
        0
 66
   257
 43
1.0
 76
     1
 77
     6
 78
     2
 67
     7
 79
     3
170
     0
171
     0
290
     0
174
     0
 93
        1
 44
0.0
173
     0
291
     0
 45
0.0
1001
ACAD
1000
AcDbSavedByObjectVersion
1070
     0
  0
VISUALSTYLE
  5
B0F8
102
{ACAD_REACTORS
330
B0F1
102
}
330
B0F1
100
AcDbVisualStyle
  2
3dWireframe
 70
     5
 71
     0
 72
     2
 73
     0
 90
        0
 40
-0.6
 41
-30.0
 62
     5
 63
     7
 74
     1
 91
        4
 64
     7
 65
   257
 75
     1
175
     1
 42
1.0
 92
        0
 66
   257
 43
1.0
 76
     1
 77
     6
 78
     2
 67
     7
 79
     5
170
     0
171
     0
290
     0
174
     0
 93
        1
 44
0.0
173
     0
291
     0
 45
0.0
1001
ACAD
1000
AcDbSavedByObjectVersion
1070
     0
  0
VISUALSTYLE
  5
B0F6
102
{ACAD_REACTORS
330
B0F1
102
}
330
B0F1
100
AcDbVisualStyle
  2
Basic
 70
     7
 71
     1
 72
     0
 73
     1
 90
        0
 40
-0.6
 41
-30.0
 62
     5
 63
     7
 74
     0
 91
        4
 64
     7
 65
   257
 75
     1
175
     1
 42
1.0
 92
        8
 66
     7
 43
1.0
 76
     1
 77
     6
 78
     2
 67
     7
 79
     5
170
     0
171
     0
290
     0
174
     0
 93
        1
 44
0.0
173
     0
291
     1
 45
0.0
1001
ACAD
1000
AcDbSavedByObjectVersion
1070
     0
  0
VISUALSTYLE
  5
B0FD
102
{ACAD_REACTORS
330
B0F1
102
}
330
B0F1
100
AcDbVisualStyle
  2
Brighten
 70
    12
 71
     2
 72
     2
 73
     0
 90
        0
 40
-0.6
 41
-30.0
 62
     5
 63
     7
 74
     1
 91
        4
 64
     7
 65
   257
 75
     1
175
     1
 42
1.0
 92
        8
 66
     7
 43
1.0
 76
     1
 77
     6
 78
     2
 67
     7
 79
     5
170
     0
171
     0
290
     0
174
     0
 93
        1
 44
50.0
173
     0
291
     1
 45
0.0
1001
ACAD
1000
AcDbSavedByObjectVersion
1070
     0
  0
VISUALSTYLE
  5
B101
102
{ACAD_REACTORS
330
B0F1
102
}
330
B0F1
100
AcDbVisualStyle
  2
ColorChange
 70
    16
 71
     2
 72
     2
 73
     3
 90
        0
 40
-0.6
 41
-30.0
 62
     5
 63
     8
 74
     1
 91
        4
 64
     7
 65
   257
 75
     1
175
     1
 42
1.0
 92
        8
 66
     8
 43
1.0
 76
     1
 77
     6
 78
     2
 67
     7
 79
     5
170
     0
171
     0
290
     0
174
     0
 93
        1
 44
0.0
173
     0
291
     1
 45
0.0
1001
ACAD
1000
AcDbSavedByObjectVersion
1070
     0
  0
VISUALSTYLE
  5
B0FA
102
{ACAD_REACTORS
330
B0F1
102
}
330
B0F1
100
AcDbVisualStyle
  2
Conceptual
 70
     9
 71
     3
 72
     2
 73
     0
 90
        0
 40
-0.6
 41
-30.0
 62
     5
 63
     7
 74
     2
 91
        2
 64
     7
 65
   257
 75
     1
175
     1
 42
40.0
 92
        8
 66
     7
 43
1.0
 76
     1
 77
     6
 78
     2
 67
     7
 79
     3
170
     0
171
     0
290
     0
174
     0
 93
        1
 44
0.0
173
     0
291
     0
 45
0.0
1001
ACAD
1000
AcDbSavedByObjectVersion
1070
     0
  0
VISUALSTYLE
  5
B0FC
102
{ACAD_REACTORS
330
B0F1
102
}
330
B0F1
100
AcDbVisualStyle
  2
Dim
 70
    11
 71
     2
 72
     2
 73
     0
 90
        0
 40
-0.6
 41
-30.0
 62
     5
 63
     7
 74
     1
 91
        4
 64
     7
 65
   257
 75
     1
175
     1
 42
1.0
 92
        8
 66
     7
 43
1.0
 76
     1
 77
     6
 78
     2
 67
     7
 79
     5
170
     0
171
     0
290
     0
174
     0
 93
        1
 44
-50.0
173
     0
291
     1
 45
0.0
1001
ACAD
1000
AcDbSavedByObjectVersion
1070
     0
  0
VISUALSTYLE
  5
B100
102
{ACAD_REACTORS
330
B0F1
102
}
330
B0F1
100
AcDbVisualStyle
  2
Facepattern
 70
    15
 71
     2
 72
     2
 73
     0
 90
        0
 40
-0.6
 41
-30.0
 62
     5
 63
     7
 74
     1
 91
        4
 64
     7
 65
   257
 75
     1
175
     1
 42
1.0
 92
        8
 66
     7
 43
1.0
 76
     1
 77
     6
 78
     2
 67
     7
 79
     5
170
     0
171
     0
290
     0
174
     0
 93
        1
 44
0.0
173
     0
291
     1
 45
0.0
1001
ACAD
1000
AcDbSavedByObjectVersion
1070
     0
  0
VISUALSTYLE
  5
B0F2
102
{ACAD_REACTORS
330
B0F1
102
}
330
B0F1
100
AcDbVisualStyle
  2
Flat
 70
     0
 71
     2
 72
     1
 73
     1
 90
        2
 40
-0.6
 41
30.0
 62
     5
 63
     7
 74
     0
 91
        4
 64
     7
 65
   257
 75
     1
175
     1
 42
1.0
 92
        8
 66
     7
 43
1.0
 76
     1
 77
     6
 78
     2
 67
     7
 79
     5
170
     0
171
     0
290
     0
174
     0
 93
       13
 44
0.0
173
     0
291
     1
 45
0.0
1001
ACAD
1000
AcDbSavedByObjectVersion
1070
     0
  0
VISUALSTYLE
  5
B0F3
102
{ACAD_REACTORS
330
B0F1
102
}
330
B0F1
100
AcDbVisualStyle
  2
FlatWithEdges
 70
     1
 71
     2
 72
     1
 73
     1
 90
        2
 40
-0.6
 41
30.0
 62
     5
 63
     7
 74
     1
 91
        4
 64
     7
 65
   257
 75
     1
175
     1
 42
1.0
 92
        0
 66
   257
 43
1.0
 76
     1
 77
     6
 78
     2
 67
     7
 79
     5
170
     0
171
     0
290
     0
174
     0
 93
       13
 44
0.0
173
     0
291
     1
 45
0.0
1001
ACAD
1000
AcDbSavedByObjectVersion
1070
     0
  0
VISUALSTYLE
  5
B0F4
102
{ACAD_REACTORS
330
B0F1
102
}
330
B0F1
100
AcDbVisualStyle
  2
Gouraud
 70
     2
 71
     2
 72
     2
 73
     1
 90
        2
 40
-0.6
 41
30.0
 62
     5
 63
     7
 74
     0
 91
        4
 64
     7
 65
   257
 75
     1
175
     1
 42
1.0
 92
        0
 66
     7
 43
1.0
 76
     1
 77
     6
 78
     2
 67
     7
 79
     5
170
     0
171
     0
290
     0
174
     0
 93
       13
 44
0.0
173
     0
291
     1
 45
0.0
1001
ACAD
1000
AcDbSavedByObjectVersion
1070
     0
  0
VISUALSTYLE
  5
B0F5
102
{ACAD_REACTORS
330
B0F1
102
}
330
B0F1
100
AcDbVisualStyle
  2
GouraudWithEdges
 70
     3
 71
     2
 72
     2
 73
     1
 90
        2
 40
-0.6
 41
30.0
 62
     5
 63
     7
 74
     1
 91
        4
 64
     7
 65
   257
 75
     1
175
     1
 42
1.0
 92
        0
 66
   257
 43
1.0
 76
     1
 77
     6
 78
     2
 67
     7
 79
     5
170
     0
171
     0
290
     0
174
     0
 93
       13
 44
0.0
173
     0
291
     1
 45
0.0
1001
ACAD
1000
AcDbSavedByObjectVersion
1070
     0
  0
VISUALSTYLE
  5
B0FF
102
{ACAD_REACTORS
330
B0F1
102
}
330
B0F1
100
AcDbVisualStyle
  2
Linepattern
 70
    14
 71
     2
 72
     2
 73
     0
 90
        0
 40
-0.6
 41
-30.0
 62
     5
 63
     7
 74
     1
 91
        4
 64
     7
 65
   257
 75
     7
175
     7
 42
1.0
 92
        8
 66
     7
 43
1.0
 76
     1
 77
     6
 78
     2
 67
     7
 79
     5
170
     0
171
     0
290
     0
174
     0
 93
        1
 44
0.0
173
     0
291
     1
 45
0.0
1001
ACAD
1000
AcDbSavedByObjectVersion
1070
     0
  0
VISUALSTYLE
  5
B0FB
102
{ACAD_REACTORS
330
B0F1
102
}
330
B0F1
100
AcDbVisualStyle
  2
Realistic
 70
     8
 71
     2
 72
     2
 73
     0
 90
        0
 40
-0.6
 41
-30.0
 62
     5
 63
     7
 74
     1
 91
        0
 64
     7
 65
   257
 75
     1
175
     1
 42
1.0
 92
        8
 66
     8
 43
1.0
 76
     1
 77
     6
 78
     2
 67
     7
 79
     5
170
     0
171
     0
290
     0
174
     0
 93
       13
 44
0.0
173
     0
291
     0
 45
0.0
1001
ACAD
1000
AcDbSavedByObjectVersion
1070
     0
  0
VISUALSTYLE
  5
B0FE
102
{ACAD_REACTORS
330
B0F1
102
}
330
B0F1
100
AcDbVisualStyle
  2
Thicken
 70
    13
 71
     2
 72
     2
 73
     0
 90
        0
 40
-0.6
 41
-30.0
 62
     5
 63
     7
 74
     1
 91
        4
 64
     7
 65
   257
 75
     1
175
     1
 42
1.0
 92
       12
 66
     7
 43
1.0
 76
     1
 77
     6
 78
     2
 67
     7
 79
     5
170
     0
171
     0
290
     0
174
     0
 93
        1
 44
0.0
173
     0
291
     1
 45
0.0
1001
ACAD
1000
AcDbSavedByObjectVersion
1070
     0
  0
DICTIONARYVAR
  5
AAF3
102
{ACAD_REACTORS
330
34
102
}
330
34
100
DictionaryVariables
280
     0
  1
STANDARD
  0
DICTIONARYVAR
  5
A10C
102
{ACAD_REACTORS
330
34
102
}
330
34
100
DictionaryVariables
280
     0
  1
1
  0
DICTIONARYVAR
  5
AB07
102
{ACAD_REACTORS
330
34
102
}
330
34
100
DictionaryVariables
280
     0
  1
4
  0
DICTIONARYVAR
  5
35
102
{ACAD_REACTORS
330
34
102
}
330
34
100
DictionaryVariables
280
     0
  1
0
  0
DICTIONARYVAR
  5
194C
102
{ACAD_REACTORS
330
34
102
}
330
34
100
DictionaryVariables
280
     0
  1
127
  0
DICTIONARY
  5
7E8
102
{ACAD_REACTORS
330
47
102
}
330
47
100
AcDbDictionary
281
     1
  0
DICTIONARY
  5
4C
102
{ACAD_REACTORS
330
47
102
}
330
47
100
AcDbDictionary
281
     1
  0
XRECORD
  5
A929
102
{ACAD_REACTORS
330
47
102
}
330
47
100
AcDbXrecord
280
     1
 90
-1023410169
  0
XRECORD
  5
57913
102
{ACAD_REACTORS
330
57912
102
}
330
57912
100
AcDbXrecord
280
     1
330
0
330
0
330
0
330
0
330
0
330
0
330
0
330
0
330
0
330
0
330
0
330
0
330
0
330
0
330
0
330
0
330
0
330
0
330
0
330
0
330
0
330
0
330
0
330
0
330
0
330
0
330
0
330
0
330
0
330
0
330
0
330
0
330
0
330
0
330
0
330
0
330
0
330
0
330
0
330
0
330
0
330
0
330
0
330
0
330
0
330
0
330
0
330
0
330
0
330
0
330
0
330
0
330
0
330
0
330
0
330
0
330
0
330
0
330
0
330
0
330
0
330
0
330
0
330
0
330
0
330
0
330
0
330
0
330
0
330
0
330
0
330
0
330
0
330
0
330
0
330
0
330
0
330
0
330
0
330
0
330
0
330
0
330
0
330
0
330
0
330
0
330
0
330
0
330
0
330
0
330
0
330
0
330
0
330
0
330
0
330
0
330
0
330
0
330
0
330
0
330
0
330
0
330
0
330
0
330
0
330
0
330
0
330
0
330
0
330
0
330
0
330
0
330
0
330
0
330
0
330
0
330
0
330
0
330
0
330
0
330
0
330
0
330
0
330
0
330
0
330
0
330
0
330
0
330
0
330
0
330
0
330
0
330
0
330
0
330
0
330
0
330
0
330
0
330
0
330
0
330
0
330
0
330
0
330
0
330
0
330
0
330
0
330
0
330
0
330
0
330
0
330
0
330
0
330
0
330
0
330
0
330
0
330
0
330
0
330
0
330
0
330
0
330
0
330
0
330
0
330
0
330
0
330
0
330
0
330
0
330
0
330
0
330
0
330
0
330
0
330
0
330
0
330
0
330
0
330
0
330
0
330
0
330
0
330
0
330
0
330
0
330
0
330
0
330
0
330
0
330
0
330
0
330
0
330
0
330
0
330
0
330
0
330
0
330
0
330
0
330
0
330
0
330
0
330
0
330
0
330
0
330
0
330
0
330
0
330
0
330
0
330
0
330
0
330
0
330
0
330
0
330
0
330
0
330
0
330
0
330
0
330
0
330
0
330
0
330
0
330
0
330
0
330
0
330
0
330
0
330
0
330
0
330
0
330
0
330
0
330
0
330
0
330
0
330
0
330
0
330
0
330
0
330
0
330
0
330
0
330
0
330
0
330
0
330
0
330
0
330
0
330
0
330
0
330
0
330
0
330
0
330
0
330
0
330
0
330
0
330
0
330
0
330
0
330
0
330
0
330
0
330
0
330
0
330
0
330
0
330
0
330
0
330
0
330
0
330
0
330
0
330
0
330
0
330
0
330
0
330
0
330
0
330
0
330
0
330
0
330
0
330
0
330
0
330
0
330
0
330
0
330
0
330
0
330
0
330
0
330
0
330
0
330
0
330
0
330
0
330
0
330
0
330
0
330
0
330
0
330
0
330
0
330
0
330
0
330
0
330
0
330
0
330
0
330
0
330
0
330
0
330
0
330
0
330
0
330
0
330
0
330
0
330
0
330
0
330
0
330
0
330
0
330
0
330
0
330
0
330
0
330
0
330
0
330
0
330
0
330
0
330
0
330
0
330
0
330
0
330
0
330
0
330
0
330
0
330
0
330
0
330
0
330
0
330
0
330
0
330
0
330
0
330
0
330
0
330
0
330
0
330
0
330
0
330
0
330
0
330
0
330
0
330
0
330
0
330
0
330
0
330
0
330
0
330
0
330
0
330
0
330
0
330
0
330
0
330
0
330
0
330
0
330
0
330
0
330
0
330
0
330
0
330
0
330
0
330
0
330
0
330
0
330
0
330
0
330
0
330
0
330
0
330
0
330
0
330
0
330
0
330
0
330
0
330
0
330
0
330
0
330
0
330
0
330
0
330
0
330
0
330
0
330
0
330
0
330
0
330
0
330
0
330
0
330
0
330
0
330
0
330
0
330
0
330
0
330
0
330
0
330
0
330
0
330
0
330
0
330
0
330
0
330
0
330
0
330
0
330
0
330
0
330
0
330
0
330
0
330
0
330
0
330
0
330
0
330
0
330
0
330
0
330
0
330
0
330
0
330
0
330
0
330
0
330
0
330
0
330
0
330
0
330
0
330
0
330
0
330
0
330
0
330
0
330
0
330
0
330
0
330
0
330
0
330
0
330
0
330
0
330
0
330
0
330
0
330
0
330
0
330
0
330
0
330
0
330
0
330
0
330
0
330
0
330
0
330
0
330
0
330
0
330
0
330
0
330
0
330
0
330
0
330
0
330
0
330
0
330
0
330
0
330
0
330
0
330
0
330
0
330
0
330
0
330
0
330
0
330
0
330
0
330
0
330
0
330
0
330
0
330
0
330
0
330
0
330
0
330
0
330
0
330
0
330
0
330
0
330
0
330
0
330
0
330
0
330
0
330
0
330
0
330
0
330
0
330
0
330
0
330
0
330
0
330
0
330
0
330
0
330
0
330
0
330
0
330
0
330
0
330
0
330
0
330
0
330
0
330
0
330
0
330
0
330
0
330
0
330
0
330
0
330
0
330
0
330
0
330
0
330
0
330
0
330
0
330
0
330
0
330
0
330
0
330
0
330
0
330
0
330
0
330
0
330
0
330
0
330
0
330
0
330
0
330
0
330
0
330
0
330
0
330
0
330
0
330
0
330
0
330
0
330
0
330
0
330
0
330
0
330
0
330
0
330
0
330
0
330
0
330
0
330
0
330
0
330
0
330
0
330
0
330
0
330
0
330
0
330
0
330
0
330
0
330
0
330
0
330
0
330
0
330
0
330
0
330
0
330
0
330
0
330
0
330
0
330
0
330
0
330
0
330
0
330
0
330
0
330
0
330
0
330
0
330
0
330
0
330
0
330
0
330
0
330
0
330
0
330
0
330
0
330
0
330
0
330
0
330
0
330
0
330
0
330
0
330
0
330
0
330
0
330
0
330
0
330
0
330
0
330
0
330
0
330
0
330
0
330
0
330
0
330
0
330
0
330
0
330
0
330
0
330
0
330
0
330
0
330
0
330
0
330
0
330
0
330
0
330
0
330
0
330
0
330
0
330
0
330
0
330
0
330
0
330
0
330
0
330
0
330
0
330
0
330
0
330
0
330
0
330
0
330
0
330
0
330
0
330
0
330
0
330
0
330
0
330
0
330
0
330
0
330
0
330
0
330
0
330
0
330
0
330
0
330
0
330
0
330
0
330
0
330
0
330
0
330
0
330
0
330
0
330
0
330
0
330
0
330
0
330
0
330
0
330
0
330
0
330
0
330
0
330
0
330
0
330
0
330
0
330
0
330
0
330
0
330
0
330
0
330
0
330
0
330
0
330
0
330
0
330
0
330
0
330
0
330
0
330
0
330
0
330
0
330
0
330
0
330
0
330
0
330
0
330
0
330
0
330
0
330
0
330
0
330
0
330
0
330
0
330
0
330
0
330
0
330
0
330
0
330
0
330
0
330
0
330
0
330
0
330
0
330
0
330
0
330
0
330
0
330
0
330
0
330
0
330
0
330
0
330
0
330
0
330
0
330
0
330
0
330
0
330
0
330
0
330
0
330
0
330
0
330
0
330
0
330
0
330
0
330
0
330
0
330
0
330
0
330
0
330
0
330
0
330
0
330
0
330
0
330
0
330
0
330
0
330
0
330
0
330
0
330
0
330
0
330
0
330
0
330
0
330
0
330
0
330
0
330
0
330
0
330
0
330
0
330
0
330
0
330
0
330
0
330
0
330
0
330
0
330
0
330
0
330
0
330
0
330
0
330
0
330
0
330
0
330
0
330
0
330
0
330
0
330
0
330
0
330
0
330
0
330
0
330
0
330
0
330
0
330
0
330
0
330
0
330
0
330
0
330
0
330
0
330
0
330
0
330
0
330
0
330
0
330
0
330
0
330
0
330
0
330
0
330
0
330
0
330
0
330
0
330
0
330
0
330
0
330
0
330
0
330
0
330
0
330
0
330
0
330
0
330
0
330
0
330
0
330
0
330
0
330
0
330
0
330
0
330
0
330
0
330
0
330
0
330
0
330
0
330
0
330
0
330
0
330
0
330
0
330
0
330
0
330
0
330
0
330
0
330
0
330
0
330
0
330
0
330
0
330
0
330
0
330
0
330
0
330
0
330
0
330
0
330
0
330
0
330
0
330
0
330
0
330
0
330
0
330
0
330
0
330
0
330
0
330
0
330
0
330
0
330
0
330
0
330
0
330
0
330
0
330
0
330
0
330
0
330
0
330
0
330
0
330
0
330
0
330
0
330
0
330
0
330
0
330
0
330
0
330
0
330
0
330
0
330
0
330
0
330
0
330
0
330
0
330
0
330
0
330
0
330
0
330
0
330
0
330
0
330
0
330
0
330
0
330
0
330
0
330
0
330
0
330
0
330
0
330
0
330
0
330
0
330
0
330
0
330
0
330
0
330
0
330
0
330
0
330
0
330
0
330
0
330
0
330
0
330
0
330
0
330
0
330
0
330
0
330
0
330
0
330
0
330
0
330
0
330
0
330
0
330
0
330
0
330
0
330
0
330
0
330
0
330
0
330
0
330
0
330
0
330
0
330
0
330
0
330
0
330
0
330
0
330
0
330
0
330
0
330
0
330
0
330
0
330
0
330
0
330
0
330
0
330
0
330
0
330
0
330
0
330
0
330
0
330
0
330
0
330
0
330
0
330
0
330
0
330
0
330
0
330
0
330
0
330
0
330
0
330
0
330
0
330
0
330
0
330
0
330
0
330
0
330
0
330
0
330
0
330
0
330
0
330
0
330
0
330
0
330
0
330
0
330
0
330
0
330
0
330
0
330
0
330
0
330
0
330
0
330
0
330
0
330
0
330
0
330
0
330
0
330
0
330
0
330
0
330
0
330
0
330
0
330
0
330
0
330
0
330
0
330
0
330
0
330
0
330
0
330
0
330
0
330
0
330
0
330
0
330
0
330
0
330
0
330
0
330
0
330
0
330
0
330
0
330
0
330
0
330
0
330
0
330
0
330
0
330
0
330
0
330
0
330
0
330
0
330
0
330
0
330
0
330
0
330
0
330
0
330
0
330
0
330
0
330
0
330
0
330
0
330
0
330
0
330
0
330
0
330
0
330
0
330
0
330
0
330
0
330
0
330
0
330
0
330
0
330
0
330
0
330
0
330
0
330
0
330
0
330
0
330
0
330
0
330
0
330
0
330
0
330
0
330
0
330
0
330
0
330
0
330
0
330
0
330
0
330
0
330
0
330
0
330
0
330
0
330
0
330
0
330
0
330
0
330
0
330
0
330
0
330
0
330
0
330
0
330
0
330
0
330
0
330
0
330
0
330
0
330
0
330
0
330
0
330
0
330
0
330
0
330
0
330
0
330
0
330
0
330
0
330
0
330
0
330
0
330
0
330
0
330
0
330
0
330
0
330
0
330
0
330
0
330
0
330
0
330
0
330
0
330
0
330
0
330
0
330
0
330
0
330
0
330
0
330
0
330
0
330
0
330
0
330
0
330
0
330
0
330
0
330
0
330
0
330
0
330
0
330
0
330
0
330
0
330
0
330
0
330
0
330
0
330
0
330
0
330
0
330
0
330
0
330
0
330
0
330
0
330
0
330
0
330
0
330
0
330
0
330
0
330
0
330
0
330
0
330
0
330
0
330
0
330
0
330
0
330
0
330
0
330
0
330
0
330
0
330
0
330
0
330
0
330
0
330
0
330
0
330
0
330
0
330
0
330
0
330
0
330
0
330
0
330
0
330
0
330
0
330
0
330
0
330
0
330
0
330
0
330
0
330
0
330
0
330
0
330
0
330
0
330
0
330
0
330
0
330
0
330
0
330
0
330
0
330
0
330
0
330
0
330
0
330
0
330
0
330
0
330
0
330
0
330
0
330
0
330
0
330
0
330
0
330
0
330
0
330
0
330
0
330
0
330
0
330
0
330
0
330
0
330
0
330
0
330
0
330
0
330
0
330
0
330
0
330
0
330
0
330
0
330
0
330
0
330
0
330
0
330
0
330
0
330
0
330
0
330
0
330
0
330
0
330
0
330
0
330
0
330
0
330
0
330
0
330
0
330
0
330
0
330
0
330
0
330
0
330
0
330
0
330
0
330
0
330
0
330
0
330
0
330
0
330
0
330
0
330
0
330
0
330
0
330
0
330
0
330
0
330
0
330
0
330
0
330
0
330
0
330
0
330
0
330
0
330
0
330
0
330
0
330
0
330
0
330
0
330
0
330
0
330
0
330
0
330
0
330
0
330
0
330
0
330
0
330
0
330
0
330
0
330
0
330
0
330
0
330
0
330
0
330
0
330
0
330
0
330
0
330
0
330
0
330
0
330
0
330
0
330
0
330
0
330
0
330
0
330
0
330
0
330
0
330
0
330
0
330
0
330
0
330
0
330
0
330
0
330
0
330
0
330
0
330
0
330
0
330
0
330
0
330
0
330
0
330
0
330
0
330
0
330
0
330
0
330
0
330
0
330
0
330
0
330
0
330
0
330
0
330
0
330
0
330
0
330
0
330
0
330
0
330
0
330
0
330
0
330
0
330
0
330
0
330
0
330
0
330
0
330
0
330
0
330
0
330
0
330
0
330
0
330
0
330
0
330
0
330
0
330
0
330
0
330
0
330
0
330
0
330
0
330
0
330
0
330
0
330
0
330
0
330
0
330
0
330
0
330
0
330
0
330
0
330
0
330
0
330
0
330
0
330
0
330
0
330
0
330
0
330
0
330
0
330
0
330
0
330
0
330
0
330
0
330
0
330
0
330
0
330
0
330
0
330
0
330
0
330
0
330
0
330
0
330
0
330
0
330
0
330
0
330
0
330
0
330
0
330
0
330
0
330
0
330
0
330
0
330
0
330
0
330
0
330
0
330
0
330
0
330
0
330
0
330
0
330
0
330
0
330
0
330
0
330
0
330
0
330
0
330
0
330
0
330
0
330
0
330
0
330
0
330
0
330
0
330
0
330
0
330
0
330
0
330
0
330
0
330
0
330
0
330
0
330
0
330
0
330
0
330
0
330
0
330
0
330
0
330
0
330
0
330
0
330
0
330
0
330
0
330
0
330
0
330
0
330
0
330
0
330
0
330
0
330
0
330
0
330
0
330
0
330
0
330
0
330
0
330
0
330
0
330
0
330
0
330
0
330
0
330
0
330
0
330
0
330
0
330
0
330
0
330
0
330
0
330
0
330
0
330
0
330
0
330
0
330
0
330
0
330
0
330
0
330
0
330
0
330
0
330
0
330
0
330
0
330
0
330
0
330
0
330
0
330
0
330
0
330
0
330
0
330
0
330
0
330
0
330
0
330
0
330
0
330
0
330
0
330
0
330
0
330
0
330
0
330
0
330
0
330
0
330
0
330
0
330
0
330
0
330
0
330
0
330
0
330
0
330
0
330
0
330
0
330
0
330
0
330
0
330
0
330
0
330
0
330
0
330
0
330
0
330
0
330
0
330
0
330
0
330
0
330
0
330
0
330
0
330
0
330
0
330
0
330
0
330
0
330
0
330
0
330
0
330
0
330
0
330
0
330
0
330
0
330
0
330
0
330
0
330
0
330
0
330
0
330
0
330
0
330
0
330
0
330
0
330
0
330
0
330
0
330
0
330
0
330
0
330
0
330
0
330
0
330
0
330
0
330
0
330
0
330
0
330
0
330
0
330
0
330
0
330
0
330
0
330
0
330
0
330
0
330
0
330
0
330
0
330
0
330
0
330
0
330
0
330
0
330
0
330
0
330
0
330
0
330
0
330
0
330
0
330
0
330
0
330
0
330
0
330
0
330
0
330
0
330
0
330
0
330
0
330
0
330
0
330
0
330
0
330
0
330
0
330
0
330
0
330
0
330
0
330
0
330
0
330
0
330
0
330
0
330
0
330
0
330
0
330
0
330
0
330
0
330
0
330
0
330
0
330
0
330
0
330
0
330
0
330
0
330
0
330
0
330
0
330
0
330
0
330
0
330
0
330
0
330
0
330
0
330
0
330
0
330
0
330
0
330
0
330
0
330
0
330
0
330
0
330
0
330
0
330
0
330
0
330
0
330
0
330
0
330
0
330
0
330
0
330
0
330
0
330
0
330
0
330
0
330
0
330
0
330
0
330
0
330
0
330
0
330
0
330
0
330
0
330
0
330
0
330
0
330
0
330
0
330
0
330
0
330
0
330
0
330
0
330
0
330
0
330
0
330
0
330
0
330
0
330
0
330
0
330
0
330
0
330
0
330
0
330
0
330
0
330
0
330
0
330
0
330
0
330
0
330
0
330
0
330
0
330
0
330
0
330
0
330
0
330
0
330
0
330
0
330
0
330
0
330
0
330
0
330
0
330
0
330
0
330
0
330
0
330
0
330
0
330
0
330
0
330
0
330
0
330
0
330
0
330
0
330
0
330
0
330
0
330
0
330
0
330
0
330
0
330
0
330
0
330
0
330
0
330
0
330
0
330
0
330
0
330
0
330
0
330
0
330
0
330
0
330
0
330
0
330
0
330
0
330
0
330
0
330
0
330
0
330
0
330
0
330
0
330
0
330
0
330
0
330
0
330
0
330
0
330
0
330
0
330
0
330
0
330
0
330
0
330
0
330
0
330
0
330
0
330
0
330
0
330
0
  0
XRECORD
  5
3FB7
102
{ACAD_REACTORS
330
3F96
102
}
330
3F96
100
AcDbXrecord
280
     1
 91
        3
330
0
 90
        8
 62
     7
370
    40
331
16
  1
Color_7
330
0
 90
        0
 62
    14
370
    -3
331
16
  1
Color_14
330
0
 90
        8
 62
     7
370
    20
331
16
  1
Color_7
330
6D1
 90
        0
 62
     7
370
    -3
331
16
  1
Color_7
330
0
 90
        8
 62
     7
370
    50
331
16
  1
Color_7
330
0
 90
        8
 62
     2
370
    35
331
16
  1
Color_2
330
0
 90
        8
 62
     7
370
    -3
331
16
  1
Color_7
330
10
 90
        8
 62
     7
370
    -3
331
16
  1
Color_7
  0
DICTIONARY
  5
5B464
330
22
100
AcDbDictionary
280
     1
281
     1
  3
ACAD_XREC_ROUNDTRIP
360
5B465
  0
DICTIONARY
  5
5B462
330
1E
100
AcDbDictionary
280
     1
281
     1
  3
ACAD_XREC_ROUNDTRIP
360
5B463
  0
DICTIONARY
  5
5B466
330
26
100
AcDbDictionary
280
     1
281
     1
  3
ACAD_XREC_ROUNDTRIP
360
5B467
  0
DICTIONARY
  5
5B46C
330
B0EF
100
AcDbDictionary
280
     1
281
     1
  3
ACAD_XREC_ROUNDTRIP
360
5B46D
  0
DICTIONARY
  5
5B46A
330
B0EE
100
AcDbDictionary
280
     1
281
     1
  3
ACAD_XREC_ROUNDTRIP
360
5B46B
  0
DICTIONARY
  5
5B46E
330
B0F0
100
AcDbDictionary
280
     1
281
     1
  3
ACAD_XREC_ROUNDTRIP
360
5B46F
  0
DICTIONARY
  5
5B468
330
AABA
100
AcDbDictionary
280
     1
281
     1
  3
ACAD_XREC_ROUNDTRIP
360
5B469
  0
XRECORD
  5
5B465
102
{ACAD_REACTORS
330
5B464
102
}
330
5B464
100
AcDbXrecord
280
     1
102
SHADEPLOT
 70
     0
102
SHADEPLOTRESLEVEL
 70
     2
102
SHADEPLOTCUSTOMDPI
 70
   200
  0
XRECORD
  5
5B463
102
{ACAD_REACTORS
330
5B462
102
}
330
5B462
100
AcDbXrecord
280
     1
102
SHADEPLOT
 70
     0
102
SHADEPLOTRESLEVEL
 70
     2
102
SHADEPLOTCUSTOMDPI
 70
   300
  0
XRECORD
  5
5B467
102
{ACAD_REACTORS
330
5B466
102
}
330
5B466
100
AcDbXrecord
280
     1
102
SHADEPLOT
 70
     0
102
SHADEPLOTRESLEVEL
 70
     2
102
SHADEPLOTCUSTOMDPI
 70
   300
  0
XRECORD
  5
5B46D
102
{ACAD_REACTORS
330
5B46C
102
}
330
5B46C
100
AcDbXrecord
280
     1
102
MATERIAL
148
0.0
149
0.0
149
0.0
 93
        0
 94
       63
282
     0
 72
     1
 77
     1
171
     1
175
     1
179
     1
273
     0
  0
XRECORD
  5
5B46B
102
{ACAD_REACTORS
330
5B46A
102
}
330
5B46A
100
AcDbXrecord
280
     1
102
MATERIAL
148
0.0
149
0.0
149
0.0
 93
        0
 94
       63
282
     0
 72
     1
 77
     1
171
     1
175
     1
179
     1
273
     0
  0
XRECORD
  5
5B46F
102
{ACAD_REACTORS
330
5B46E
102
}
330
5B46E
100
AcDbXrecord
280
     1
102
MATERIAL
148
0.0
149
0.0
149
0.0
 93
        0
 94
       63
282
     0
 72
     1
 77
     1
171
     1
175
     1
179
     1
273
     0
  0
XRECORD
  5
5B469
102
{ACAD_REACTORS
330
5B468
102
}
330
5B468
100
AcDbXrecord
280
     1
102
ACAD_ROUNDTRIP_PRE2007_TABLESTYLE
 90
        4
 91
        0
  1

 92
        4
 93
        0
  2

 94
        4
 95
        0
  3

  0
ENDSEC
  0
EOF
