  0
SECTION
  2
HEADER
  9
$ACADVER
  1
AC1015
  9
$ACADMAINTVER
 70
    20
  9
$DWGCODEPAGE
  3
ANSI_932
  9
$INSBASE
 10
0.0
 20
0.0
 30
0.0
  9
$EXTMIN
 10
6074.924675701049
 20
-3233.516283439393
 30
0.0
  9
$EXTMAX
 10
6371.924675701048
 20
-3023.516283439392
 30
0.0
  9
$LIMMIN
 10
3779.599158088851
 20
100.7134268036752
  9
$LIMMAX
 10
9719.599158088854
 20
4300.713426803675
  9
$ORTHOMODE
 70
     0
  9
$REGENMODE
 70
     1
  9
$FILLMODE
 70
     1
  9
$QTEXTMODE
 70
     0
  9
$MIRRTEXT
 70
     0
  9
$LTSCALE
 40
1.0
  9
$ATTMODE
 70
     1
  9
$TEXTSIZE
 40
3.2
  9
$TRACEWID
 40
1.0
  9
$TEXTSTYLE
  7
STANDARD
  9
$CLAYER
  8
0部品18
  9
$CELTYPE
  6
ByLayer
  9
$CECOLOR
 62
   256
  9
$CELTSCALE
 40
1.0
  9
$DISPSILH
 70
     0
  9
$DIMSCALE
 40
1.0
  9
$DIMASZ
 40
1.0
  9
$DIMEXO
 40
1.0
  9
$DIMDLI
 40
10.0
  9
$DIMRND
 40
0.0
  9
$DIMDLE
 40
0.0
  9
$DIMEXE
 40
1.0
  9
$DIMTP
 40
0.1
  9
$DIMTM
 40
0.1
  9
$DIMTXT
 40
3.5
  9
$DIMCEN
 40
0.0
  9
$DIMTSZ
 40
0.0
  9
$DIMTOL
 70
     0
  9
$DIMLIM
 70
     0
  9
$DIMTIH
 70
     0
  9
$DIMTOH
 70
     0
  9
$DIMSE1
 70
     0
  9
$DIMSE2
 70
     0
  9
$DIMTAD
 70
     1
  9
$DIMZIN
 70
     8
  9
$DIMBLK
  1

  9
$DIMASO
 70
     1
  9
$DIMSHO
 70
     1
  9
$DIMPOST
  1

  9
$DIMAPOST
  1
"
  9
$DIMALT
 70
     0
  9
$DIMALTD
 70
     2
  9
$DIMALTF
 40
0.0393701
  9
$DIMLFAC
 40
1.0
  9
$DIMTOFL
 70
     1
  9
$DIMTVP
 40
0.0
  9
$DIMTIX
 70
     0
  9
$DIMSOXD
 70
     0
  9
$DIMSAH
 70
     0
  9
$DIMBLK1
  1

  9
$DIMBLK2
  1

  9
$DIMSTYLE
  2
SYS
  9
$DIMCLRD
 70
   256
  9
$DIMCLRE
 70
   256
  9
$DIMCLRT
 70
     7
  9
$DIMTFAC
 40
0.71
  9
$DIMGAP
 40
1.5
  9
$DIMJUST
 70
     0
  9
$DIMSD1
 70
     0
  9
$DIMSD2
 70
     0
  9
$DIMTOLJ
 70
     0
  9
$DIMTZIN
 70
     8
  9
$DIMALTZ
 70
     0
  9
$DIMALTTZ
 70
     0
  9
$DIMUPT
 70
     0
  9
$DIMDEC
 70
     2
  9
$DIMTDEC
 70
     2
  9
$DIMALTU
 70
     2
  9
$DIMALTTD
 70
     2
  9
$DIMTXSTY
  7
STANDARD
  9
$DIMAUNIT
 70
     0
  9
$DIMADEC
 70
     0
  9
$DIMALTRND
 40
0.0
  9
$DIMAZIN
 70
     2
  9
$DIMDSEP
 70
    46
  9
$DIMATFIT
 70
     3
  9
$DIMFRAC
 70
     0
  9
$DIMLDRBLK
  1

  9
$DIMLUNIT
 70
     2
  9
$DIMLWD
 70
    -1
  9
$DIMLWE
 70
    -1
  9
$DIMTMOVE
 70
     0
  9
$LUNITS
 70
     2
  9
$LUPREC
 70
     2
  9
$SKETCHINC
 40
1.0
  9
$FILLETRAD
 40
0.5
  9
$AUNITS
 70
     0
  9
$AUPREC
 70
     0
  9
$MENU
  1
.
  9
$ELEVATION
 40
0.0
  9
$PELEVATION
 40
0.0
  9
$THICKNESS
 40
0.0
  9
$LIMCHECK
 70
     0
  9
$CHAMFERA
 40
0.0
  9
$CHAMFERB
 40
0.0
  9
$CHAMFERC
 40
20.0
  9
$CHAMFERD
 40
0.0
  9
$SKPOLY
 70
     0
  9
$TDCREATE
 40
2455567.680725081
  9
$TDUCREATE
 40
2455567.305725081
  9
$TDUPDATE
 40
2456343.614541736
  9
$TDUUPDATE
 40
2456343.239541736
  9
$TDINDWG
 40
8.2440870602
  9
$TDUSRTIMER
 40
8.2440846991
  9
$USRTIMER
 70
     1
  9
$ANGBASE
 50
0.0
  9
$ANGDIR
 70
     0
  9
$PDMODE
 70
     0
  9
$PDSIZE
 40
-3.0
  9
$PLINEWID
 40
0.0
  9
$SPLFRAME
 70
     0
  9
$SPLINETYPE
 70
     6
  9
$SPLINESEGS
 70
     8
  9
$HANDSEED
  5
5B9BB
  9
$SURFTAB1
 70
     6
  9
$SURFTAB2
 70
     6
  9
$SURFTYPE
 70
     6
  9
$SURFU
 70
     6
  9
$SURFV
 70
     6
  9
$UCSBASE
  2

  9
$UCSNAME
  2

  9
$UCSORG
 10
0.0
 20
0.0
 30
0.0
  9
$UCSXDIR
 10
1.0
 20
0.0
 30
0.0
  9
$UCSYDIR
 10
0.0
 20
1.0
 30
0.0
  9
$UCSORTHOREF
  2

  9
$UCSORTHOVIEW
 70
     0
  9
$UCSORGTOP
 10
0.0
 20
0.0
 30
0.0
  9
$UCSORGBOTTOM
 10
0.0
 20
0.0
 30
0.0
  9
$UCSORGLEFT
 10
0.0
 20
0.0
 30
0.0
  9
$UCSORGRIGHT
 10
0.0
 20
0.0
 30
0.0
  9
$UCSORGFRONT
 10
0.0
 20
0.0
 30
0.0
  9
$UCSORGBACK
 10
0.0
 20
0.0
 30
0.0
  9
$PUCSBASE
  2

  9
$PUCSNAME
  2

  9
$PUCSORG
 10
0.0
 20
0.0
 30
0.0
  9
$PUCSXDIR
 10
1.0
 20
0.0
 30
0.0
  9
$PUCSYDIR
 10
0.0
 20
1.0
 30
0.0
  9
$PUCSORTHOREF
  2

  9
$PUCSORTHOVIEW
 70
     0
  9
$PUCSORGTOP
 10
0.0
 20
0.0
 30
0.0
  9
$PUCSORGBOTTOM
 10
0.0
 20
0.0
 30
0.0
  9
$PUCSORGLEFT
 10
0.0
 20
0.0
 30
0.0
  9
$PUCSORGRIGHT
 10
0.0
 20
0.0
 30
0.0
  9
$PUCSORGFRONT
 10
0.0
 20
0.0
 30
0.0
  9
$PUCSORGBACK
 10
0.0
 20
0.0
 30
0.0
  9
$USERI1
 70
     0
  9
$USERI2
 70
     0
  9
$USERI3
 70
     0
  9
$USERI4
 70
     0
  9
$USERI5
 70
     0
  9
$USERR1
 40
0.0
  9
$USERR2
 40
0.0
  9
$USERR3
 40
0.0
  9
$USERR4
 40
0.0
  9
$USERR5
 40
0.0
  9
$WORLDVIEW
 70
     1
  9
$SHADEDGE
 70
     3
  9
$SHADEDIF
 70
    70
  9
$TILEMODE
 70
     1
  9
$MAXACTVP
 70
    64
  9
$PINSBASE
 10
0.0
 20
0.0
 30
0.0
  9
$PLIMCHECK
 70
     0
  9
$PEXTMIN
 10
1.000000000000000E+20
 20
1.000000000000000E+20
 30
1.000000000000000E+20
  9
$PEXTMAX
 10
-1.000000000000000E+20
 20
-1.000000000000000E+20
 30
-1.000000000000000E+20
  9
$PLIMMIN
 10
-3.17498779296875
 20
-3.174999952316283
  9
$PLIMMAX
 10
293.4970092773438
 20
206.692492723465
  9
$UNITMODE
 70
     0
  9
$VISRETAIN
 70
     1
  9
$PLINEGEN
 70
     0
  9
$PSLTSCALE
 70
     1
  9
$TREEDEPTH
 70
  3020
  9
$CMLSTYLE
  2
Standard
  9
$CMLJUST
 70
     0
  9
$CMLSCALE
 40
20.0
  9
$PROXYGRAPHICS
 70
     1
  9
$MEASUREMENT
 70
     1
  9
$CELWEIGHT
370
    -1
  9
$ENDCAPS
280
     0
  9
$JOINSTYLE
280
     0
  9
$LWDISPLAY
290
     1
  9
$INSUNITS
 70
     4
  9
$HYPERLINKBASE
  1

  9
$STYLESHEET
  1
MONOCHROME.CTB
  9
$XEDIT
290
     1
  9
$CEPSNTYPE
380
     0
  9
$PSTYLEMODE
290
     1
  9
$FINGERPRINTGUID
  2
{487E49EE-344A-43F6-800E-CE119D8346FF}
  9
$VERSIONGUID
  2
{C5D1A854-9B87-401E-985F-5394517EA2AA}
  9
$EXTNAMES
290
     1
  9
$PSVPSCALE
 40
0.0
  9
$OLESTARTUP
290
     0
  0
ENDSEC
  0
SECTION
  2
CLASSES
  0
CLASS
  1
ACDBDICTIONARYWDFLT
  2
AcDbDictionaryWithDefault
  3
ObjectDBX Classes
 90
        0
280
     0
281
     0
  0
CLASS
  1
ACDBPLACEHOLDER
  2
AcDbPlaceHolder
  3
ObjectDBX Classes
 90
        0
280
     0
281
     0
  0
CLASS
  1
LAYOUT
  2
AcDbLayout
  3
ObjectDBX Classes
 90
        0
280
     0
281
     0
  0
CLASS
  1
AMGSETTINGSOBJ
  2
AmgSettingsObj
  3
"AcadM|Product Description: AutoCAD Mechanical|Company: Autodesk"
 90
        0
280
     0
281
     0
  0
CLASS
  1
ACME_DOCUMENT
  2
AcMeDbDoc
  3
AcMeServices
 90
        0
280
     0
281
     0
  0
CLASS
  1
ACMESCOPE
  2
AcMeScope
  3
AcMeServices
 90
        0
280
     0
281
     0
  0
CLASS
  1
ACMECOMMANDHISTORY
  2
AcMeCommandHistory
  3
AcMeServices
 90
        0
280
     0
281
     0
  0
CLASS
  1
DICTIONARYVAR
  2
AcDbDictionaryVar
  3
ObjectDBX Classes
 90
        0
280
     0
281
     0
  0
CLASS
  1
ACIMSYSVARMAN
  2
AcImSysVarManager
  3
AcMeServices
 90
        0
280
     0
281
     0
  0
CLASS
  1
ACIMREALSYSVAR
  2
AcImRealSysVar
  3
AcMeServices
 90
        0
280
     0
281
     0
  0
CLASS
  1
ACIMINTSYSVAR
  2
AcImIntSysVar
  3
AcMeServices
 90
        0
280
     0
281
     0
  0
CLASS
  1
ACMEDRAWINGMAN
  2
AcMeDrawingMan
  3
AcMeServices
 90
        0
280
     0
281
     0
  0
CLASS
  1
ACMEVIEW
  2
AcMeView
  3
AcMeServices
 90
        0
280
     0
281
     0
  0
CLASS
  1
ACDBENTITYCACHE
  2
AcMeEntityCache
  3
AcMeServices
 90
        0
280
     0
281
     0
  0
CLASS
  1
GSMANAGER
  2
AcMeGSManager
  3
AcMeServices
 90
        0
280
     0
281
     0
  0
CLASS
  1
AMDTINTERNALREACTOR
  2
AmdtInternalReactor
  3
AcMeServices
 90
        0
280
     0
281
     0
  0
CLASS
  1
ACMESTATEMGR
  2
AcMeStateMgr
  3
AcMeServices
 90
        0
280
     0
281
     0
  0
CLASS
  1
ACGREFMASTER
  2
AcGrefMaster
  3
AcAttribServices
 90
        0
280
     0
281
     0
  0
CLASS
  1
ACME_DATABASE
  2
AcMeDbDatabase
  3
AcMeServices
 90
        0
280
     0
281
     0
  0
CLASS
  1
ACRFINSADJUSTERMGR
  2
AcRfInsAdjusterMgr
  3
AcMeServices
 90
        0
280
     0
281
     0
  0
CLASS
  1
ACGREFACADMASTER
  2
AcGrefacadMaster
  3
AcGrefServices
 90
        0
280
     0
281
     0
  0
CLASS
  1
AMIMASTER
  2
AmiMaster
  3
AmiServices
 90
        0
280
     0
281
     0
  0
CLASS
  1
ACMDATADICTIONARY
  2
AcmDataDictionary
  3
"AcmSymBB|Product Description: AutoCAD Mechanical|Company: Autodesk"
 90
        0
280
     0
281
     0
  0
CLASS
  1
ACMDATAENTRYBLOCK
  2
AcmDataEntryBlock
  3
"AcmSymBB|Product Description: AutoCAD Mechanical|Company: Autodesk"
 90
    32768
280
     0
281
     0
  0
CLASS
  1
ACIMSTRSYSVAR
  2
AcImStrSysVar
  3
AcMeServices
 90
        0
280
     0
281
     0
  0
CLASS
  1
ACMSTANDARDISO
  2
AcmStandardISO
  3
"Amdt_StdImp|Product Description: AutoCAD Mechanical|Company: Autodesk"
 90
        0
280
     0
281
     0
  0
CLASS
  1
AMGOBJPROPCFG
  2
AmgObjPropCfg
  3
"AmgLay|Product Description: AutoCAD Mechanical|Company: Autodesk"
 90
        1
280
     0
281
     0
  0
CLASS
  1
AMDTEDGESTANDARDISO
  2
AmdtEdgeStdISO
  3
"Amdt_StdImp|Product Description: AutoCAD Mechanical|Company: Autodesk"
 90
    32768
280
     0
281
     0
  0
CLASS
  1
ACMSURFSTANDARDISO
  2
AcmSurfTextStdISO
  3
"Amdt_StdImp|Product Description: AutoCAD Mechanical|Company: Autodesk"
 90
        0
280
     0
281
     0
  0
CLASS
  1
ACMFCFSTANDARDISO
  2
AcmFCFStdISO
  3
"Amdt_StdImp|Product Description: AutoCAD Mechanical|Company: Autodesk"
 90
        0
280
     0
281
     0
  0
CLASS
  1
ACMWELDSTANDARDISO
  2
AcmWeldingStdISO
  3
"Amdt_StdImp|Product Description: AutoCAD Mechanical|Company: Autodesk"
 90
        0
280
     0
281
     0
  0
CLASS
  1
ACMIDSTANDARDISO
  2
AcmIdStdISO
  3
"Amdt_StdImp|Product Description: AutoCAD Mechanical|Company: Autodesk"
 90
        0
280
     0
281
     0
  0
CLASS
  1
ACMDATUMSTANDARDISO
  2
AcmDatumStdISO
  3
"Amdt_StdImp|Product Description: AutoCAD Mechanical|Company: Autodesk"
 90
        0
280
     0
281
     0
  0
CLASS
  1
ACMBOMSTANDARDISO
  2
AcmBOMStdISO
  3
"Amdt_StdImp|Product Description: AutoCAD Mechanical|Company: Autodesk"
 90
        0
280
     0
281
     0
  0
CLASS
  1
ACMDETAILSTANDARDISO
  2
AmdtDetailSymStdISO
  3
"Amdt_StdImp|Product Description: AutoCAD Mechanical|Company: Autodesk"
 90
        0
280
     0
281
     0
  0
CLASS
  1
ACMSECTIONSTANDARDISO
  2
AmdtSectionSymStdISO
  3
"Amdt_StdImp|Product Description: AutoCAD Mechanical|Company: Autodesk"
 90
        0
280
     0
281
     0
  0
CLASS
  1
ACMCENTERLINESTANDARDISO
  2
AmdtCenterLineStdISO
  3
"Amdt_StdImp|Product Description: AutoCAD Mechanical|Company: Autodesk"
 90
        0
280
     0
281
     0
  0
CLASS
  1
ACAMGLAYSTD
  2
AcAmgLayStd
  3
"AmgLay|Product Description: AutoCAD Mechanical|Company: Autodesk"
 90
        0
280
     0
281
     0
  0
CLASS
  1
ACAMGDIMSTD
  2
AcAmgDimStd
  3
"AmgDim|Product Description: AutoCAD Mechanical|Company: Autodesk"
 90
        0
280
     0
281
     0
  0
CLASS
  1
ACAMGTITLESTD
  2
AcAmgTitleStd
  3
"AmgTitle|Product Description: AutoCAD Mechanical|Company: Autodesk"
 90
        0
280
     0
281
     0
  0
CLASS
  1
ACAMGFILTERDAT
  2
AcAmgFilterDat
  3
"AcadM|Product Description: AutoCAD Mechanical|Company: Autodesk"
 90
    32768
280
     0
281
     0
  0
CLASS
  1
LAYER_INDEX
  2
AcDbLayerIndex
  3
ObjectDBX Classes
 90
    32768
280
     0
281
     0
  0
CLASS
  1
IDBUFFER
  2
AcDbIdBuffer
  3
ObjectDBX Classes
 90
    32768
280
     0
281
     0
  0
CLASS
  1
PLOTSETTINGS
  2
AcDbPlotSettings
  3
ObjectDBX Classes
 90
    32768
280
     0
281
     0
  0
CLASS
  1
AMDTFORMULAUPDATEDISPATCHER
  2
AmdtFormulaUpdateDispatcher
  3
AcMeServices
 90
    32768
280
     0
281
     0
  0
CLASS
  1
ACMSTANDARDANSI
  2
AcmStandardANSI
  3
"Amdt_StdImp|Product Description: AutoCAD Mechanical|Company: Autodesk"
 90
    32768
280
     0
281
     0
  0
CLASS
  1
ACMSURFSTANDARDANSI
  2
AcmSurfTextStdANSI
  3
"Amdt_StdImp|Product Description: AutoCAD Mechanical|Company: Autodesk"
 90
    32768
280
     0
281
     0
  0
CLASS
  1
ACMFCFSTANDARDANSI
  2
AcmFCFStdANSI
  3
"Amdt_StdImp|Product Description: AutoCAD Mechanical|Company: Autodesk"
 90
    32768
280
     0
281
     0
  0
CLASS
  1
ACMWELDSTANDARDANSI
  2
AcmWeldingStdANSI
  3
"Amdt_StdImp|Product Description: AutoCAD Mechanical|Company: Autodesk"
 90
    32768
280
     0
281
     0
  0
CLASS
  1
ACMIDSTANDARDANSI
  2
AcmIdStdANSI
  3
"Amdt_StdImp|Product Description: AutoCAD Mechanical|Company: Autodesk"
 90
    32768
280
     0
281
     0
  0
CLASS
  1
ACMDATUMSTANDARDANSI
  2
AcmDatumStdANSI
  3
"Amdt_StdImp|Product Description: AutoCAD Mechanical|Company: Autodesk"
 90
    32768
280
     0
281
     0
  0
CLASS
  1
ACMBOMSTANDARDANSI
  2
AcmBOMStdANSI
  3
"Amdt_StdImp|Product Description: AutoCAD Mechanical|Company: Autodesk"
 90
    32768
280
     0
281
     0
  0
CLASS
  1
ACMDETAILSTANDARDANSI
  2
AmdtDetailSymStdANSI
  3
"Amdt_StdImp|Product Description: AutoCAD Mechanical|Company: Autodesk"
 90
    32768
280
     0
281
     0
  0
CLASS
  1
ACMSECTIONSTANDARDANSI
  2
AmdtSectionSymStdANSI
  3
"Amdt_StdImp|Product Description: AutoCAD Mechanical|Company: Autodesk"
 90
    32768
280
     0
281
     0
  0
CLASS
  1
ACMCENTERLINESTANDARDANSI
  2
AmdtCenterLineStdANSI
  3
"Amdt_StdImp|Product Description: AutoCAD Mechanical|Company: Autodesk"
 90
    32768
280
     0
281
     0
  0
CLASS
  1
ACMBOM
  2
AcmBom
  3
"AcmSymBB|Product Description: AutoCAD Mechanical|Company: Autodesk"
 90
    32768
280
     0
281
     0
  0
CLASS
  1
ACMDATAENTRYPART
  2
AcmDataEntryPart
  3
"AcmSymBB|Product Description: AutoCAD Mechanical|Company: Autodesk"
 90
    32768
280
     0
281
     0
  0
CLASS
  1
ACMPARTREF
  2
AcmPartRef
  3
"AcmSymBB|Product Description: AutoCAD Mechanical|Company: Autodesk"
 90
    35839
280
     0
281
     1
  0
CLASS
  1
ACDBCIRCARCRES
  2
AcDbCircArcRes
  3
AcGrefServices
 90
    32768
280
     0
281
     0
  0
CLASS
  1
ACMBOMROW
  2
AcmBomRow
  3
"AcmSymBB|Product Description: AutoCAD Mechanical|Company: Autodesk"
 90
    32768
280
     0
281
     0
  0
CLASS
  1
ACMBALLOON
  2
AcmBalloon
  3
"AcmSymBB|Product Description: AutoCAD Mechanical|Company: Autodesk"
 90
    35839
280
     0
281
     1
  0
CLASS
  1
AMDTNOTE
  2
AmdtNote
  3
"AcmSymBB|Product Description: AutoCAD Mechanical|Company: Autodesk"
 90
    35839
280
     0
281
     1
  0
CLASS
  1
STDPART2D
  2
AmgStdPart
  3
"AmgStdPart|Product Description: AutoCAD Mechanical|Company: Autodesk"
 90
    35839
280
     0
281
     1
  0
CLASS
  1
ACDBSTDPARTRES_LINE
  2
AcDbStdPartRes_Line
  3
"AmgStdPart|Product Description: AutoCAD Mechanical|Company: Autodesk"
 90
    32768
280
     0
281
     0
  0
CLASS
  1
ACMDATAENTRY
  2
AcmDataEntry
  3
"AcmSymBB|Product Description: AutoCAD Mechanical|Company: Autodesk"
 90
    32768
280
     0
281
     0
  0
CLASS
  1
ACDBOPPOLYLINERES
  2
AcDbOpPolylineRes
  3
AcGrefServices
 90
    32768
280
     0
281
     0
  0
CLASS
  1
ACMPARTLIST
  2
AcmPartList
  3
"AcmSymBB|Product Description: AutoCAD Mechanical|Company: Autodesk"
 90
    35839
280
     0
281
     1
  0
CLASS
  1
ACDBLINERES
  2
AcDbLineRes
  3
AcGrefServices
 90
    32768
280
     0
281
     0
  0
CLASS
  1
ACRFINSADJ
  2
AcRfInsAdjuster
  3
AcMeServices
 90
    32768
280
     0
281
     0
  0
CLASS
  1
AM_DRAWING_MGR
  2
AcDmDwgMgr
  3
AcMechDwgViewMgmt
 90
        0
280
     0
281
     0
  0
CLASS
  1
AM_DWG_DOCUMENT
  2
AcDmDwgDocument
  3
AcMechDwgViewMgmt
 90
        0
280
     0
281
     0
  0
CLASS
  1
AM_DWG_SHEET
  2
AcDmSheet
  3
AcMechDwgViewMgmt
 90
        0
280
     0
281
     0
  0
CLASS
  1
AM_VIEWDIMPARMAP
  2
AcDmViewDimParMap
  3
AcMechDwgViewMgmt
 90
        0
280
     0
281
     0
  0
CLASS
  1
AM_DWGMGR_NAME
  2
AcDmDwgMgrName
  3
AcMechDwgViewMgmt
 90
        0
280
     0
281
     0
  0
CLASS
  1
AMDTMENUSTATEMGR
  2
AmdtMenuStateMgr
  3
McadcomServices
 90
        0
280
     0
281
     0
  0
CLASS
  1
AMDTMCOMMENUSTATE
  2
AmdtMcomMenuState
  3
McadcomServices
 90
        0
280
     0
281
     0
  0
CLASS
  1
ASAPP
  2
AcAsAppObject
  3
AutoSurfServices
 90
        0
280
     0
281
     0
  0
CLASS
  1
IM_STATIC_MAN
  2
AcImStaticVarManager
  3
AcMeServices
 90
    32768
280
     0
281
     0
  0
CLASS
  1
ACIMDBLSTATICVAR
  2
AcImDblStaticVar
  3
AcMeServices
 90
    32768
280
     0
281
     0
  0
CLASS
  1
ACIMSTRSTATICVAR
  2
AcImStrStaticVar
  3
AcMeServices
 90
    32768
280
     0
281
     0
  0
CLASS
  1
ACIMINTSTATICVAR
  2
AcImIntStaticVar
  3
AcMeServices
 90
    32768
280
     0
281
     0
  0
CLASS
  1
ACASGREFMASTER
  2
AcAsGrefMaster
  3
AutoSurfResolverServices
 90
        0
280
     0
281
     0
  0
CLASS
  1
ACADGREFMODULE
  2
AcAdGrefModule
  3
AdGrefServices
 90
        0
280
     0
281
     0
  0
CLASS
  1
AMDTMAPISURFMOUDULE
  2
AmdtMApiSurfModule
  3
MApiSurfServices
 90
        0
280
     0
281
     0
  0
CLASS
  1
MAPIAMMOUDLE
  2
MApiAmModule
  3
MApiAmServices
 90
        0
280
     0
281
     0
  0
CLASS
  1
AMDTADMENUSTATE
  2
AmdtAdMenuState
  3
DesignerServices
 90
        0
280
     0
281
     0
  0
CLASS
  1
ADAPPL
  2
AcAdAppl
  3
DesignerServices
 90
        0
280
     0
281
     0
  0
CLASS
  1
DEPMGR
  2
AcAdDepMgr
  3
DesignerServices
 90
        0
280
     0
281
     0
  0
CLASS
  1
PARAMMGR
  2
AcAdParamMgr
  3
DesignerServices
 90
        0
280
     0
281
     0
  0
CLASS
  1
PARAMSCOPE
  2
AcAdParamScope
  3
DesignerServices
 90
        0
280
     0
281
     0
  0
CLASS
  1
NAMEDAPPL
  2
AcAdNamedAppl
  3
DesignerServices
 90
        0
280
     0
281
     0
  0
CLASS
  1
ADHNTMPLT
  2
AdHoleNoteTemplateMgr
  3
DesignerServices
 90
    32768
280
     0
281
     0
  0
CLASS
  1
AM_HNTEMPLATE_MGR_NAME
  2
AdHoleNoteTemplateMgrName
  3
DesignerServices
 90
    32768
280
     0
281
     0
  0
CLASS
  1
AMDTDMMENUSTATE
  2
AmdtDmMenuState
  3
AcMechDwgViewMgmt
 90
        0
280
     0
281
     0
  0
CLASS
  1
MAPIADMODULE
  2
MApiAdModule
  3
MApiAdServices
 90
        0
280
     0
281
     0
  0
CLASS
  1
AMDTAMMENUSTATE
  2
AmdtAmMenuState
  3
DesignerAssemblies
 90
        0
280
     0
281
     0
  0
CLASS
  1
ACAMPROJECT
  2
AcAmProject
  3
DesignerAssemblies
 90
        0
280
     0
281
     0
  0
CLASS
  1
ACAMGRCOMPDEF
  2
AcAmGrCompDef
  3
DesignerAssemblies
 90
        0
280
     0
281
     0
  0
CLASS
  1
ACCMCONTEXT
  2
AcCmContext
  3
DesignerAssemblies
 90
        0
280
     0
281
     0
  0
CLASS
  1
ACAMCOMPDEF
  2
AcAmCompDef
  3
DesignerAssemblies
 90
        0
280
     0
281
     0
  0
CLASS
  1
ACAMCOMPDEFMGR
  2
AcAmCompDefMgr
  3
DesignerAssemblies
 90
        0
280
     0
281
     0
  0
CLASS
  1
AMCONTEXTMGR
  2
AcAmContextMgr
  3
DesignerAssemblies
 90
        0
280
     0
281
     0
  0
CLASS
  1
ACAMCONTEXTMODELER
  2
AcAmContextModeler
  3
DesignerAssemblies
 90
        0
280
     0
281
     0
  0
CLASS
  1
CATALOGSTATE
  2
AcAmCatalogState
  3
DesignerAssemblies
 90
        0
280
     0
281
     0
  0
CLASS
  1
ACAMGRCOMPDEFSET
  2
AcAmGrCompDefSet
  3
DesignerAssemblies
 90
        0
280
     0
281
     0
  0
CLASS
  1
AMDTBROWSERDBTAB
  2
AmdtBrowserDbTab
  3
McadcomServices
 90
        0
280
     0
281
     0
  0
CLASS
  1
CBROWSERAPPOBJECT
  2
CBrowserAppObject
  3
McadcomServices
 90
        0
280
     0
281
     0
  0
CLASS
  1
DM_PLACEHOLDER
  2
AcDmSelsetPlaceholder
  3
AcMechDwgViewMgmt
 90
        0
280
     0
281
     0
  0
CLASS
  1
ACMPICKOBJ
  2
AcmPickEnt
  3
"AcmSymBB|Product Description: AutoCAD Mechanical|Company: Autodesk"
 90
    32768
280
     0
281
     1
  0
CLASS
  1
ACMNOTESTANDARDISO
  2
AmdtNoteStdISO
  3
"Amdt_StdImp|Product Description: AutoCAD Mechanical|Company: Autodesk"
 90
        0
280
     0
281
     0
  0
CLASS
  1
ACMNOTESTANDARDANSI
  2
AmdtNoteStdANSI
  3
"Amdt_StdImp|Product Description: AutoCAD Mechanical|Company: Autodesk"
 90
    32768
280
     0
281
     0
  0
CLASS
  1
ACMTHREADLINESTANDARDISO
  2
AmdtThreadLineStdISO
  3
"Amdt_StdImp|Product Description: AutoCAD Mechanical|Company: Autodesk"
 90
        0
280
     0
281
     0
  0
CLASS
  1
ACMTHREADLINESTANDARDANSI
  2
AmdtThreadLineStdANSI
  3
"Amdt_StdImp|Product Description: AutoCAD Mechanical|Company: Autodesk"
 90
    32768
280
     0
281
     0
  0
CLASS
  1
TABLESTYLE
  2
AcDbTableStyle
  3
ObjectDBX Classes
 90
     4095
280
     0
281
     0
  0
CLASS
  1
SORTENTSTABLE
  2
AcDbSortentsTable
  3
ObjectDBX Classes
 90
        0
280
     0
281
     0
  0
CLASS
  1
MATERIAL
  2
AcDbMaterial
  3
ObjectDBX Classes
 90
     1153
280
     0
281
     0
  0
CLASS
  1
VISUALSTYLE
  2
AcDbVisualStyle
  3
ObjectDBX Classes
 90
     4095
280
     0
281
     0
  0
CLASS
  1
ACRFATTGENMGR
  2
AcRfAttGeneralMgr
  3
AcAttribServices
 90
    32768
280
     0
281
     0
  0
CLASS
  1
ACRFOBJATTMGR
  2
AcRfObjAttGroupMgr
  3
AcAttribServices
 90
    32768
280
     0
281
     0
  0
CLASS
  1
ACRFMCADAPIATTHOLDER
  2
AcRfMCADAPIAttHolder
  3
AcAttribServices
 90
    32768
280
     0
281
     0
  0
CLASS
  1
AMDTSYSATTR
  2
AmdtSystemAttribute
  3
AcAttribServices
 90
    32768
280
     0
281
     0
  0
CLASS
  1
ACMTAPERSTANDARDISO
  2
AcmTaperStdISO
  3
"Amdt_StdImp|Product Description: AutoCAD Mechanical|Company: Autodesk"
 90
        0
280
     0
281
     0
  0
CLASS
  1
CAMSSTRUCTBTNSTATE
  2
StructBtnState
  3
L"DesignerAssemblies"
 90
    32768
280
     0
281
     0
  0
CLASS
  1
DIMASSOC
  2
AcDbDimAssoc
  3
"AcDbDimAssoc|Product Desc:     AcDim ARX App For Dimension|Company:          Autodesk, Inc.|WEB Address:      www.autodesk.com"
 90
    32768
280
     0
281
     0
  0
CLASS
  1
EXACXREFPANELOBJECT
  2
ExAcXREFPanelObject
  3
EXAC_ESW
 90
    33793
280
     0
281
     0
  0
CLASS
  1
NPOCOLLECTION
  2
AcDbImpNonPersistentObjectsCollection
  3
ObjectDBX Classes
 90
    33921
280
     0
281
     0
  0
CLASS
  1
AMDTEDGESTANDARDISO13715
  2
AmdtEdgeStdISO13715
  3
"Amdt_StdImp|Product Description: AutoCAD Mechanical|Company: Autodesk"
 90
        0
280
     0
281
     0
  0
CLASS
  1
AMDTNOTETEMPLATEDB
  2
AmdtNoteTemplateDB
  3
AMDT_STDIMP_MODULE_NAME
 90
        0
280
     0
281
     0
  0
CLASS
  1
ACAMGHOLECHARTSTDISO
  2
AcAmgHoleChartStdISO
  3
ACMSYMBB_MODULE_NAME
 90
        0
280
     0
281
     0
  0
CLASS
  1
ACMTAPERSTANDARDANSI
  2
AcmTaperStdANSI
  3
"Amdt_StdImp|Product Description: AutoCAD Mechanical|Company: Autodesk"
 90
    32768
280
     0
281
     0
  0
CLASS
  1
ACAMGHOLECHARTSTDANSI
  2
AcAmgHoleChartStdANSI
  3
ACMSYMBB_MODULE_NAME
 90
    32768
280
     0
281
     0
  0
CLASS
  1
ACAMSTDPCOMPDEF
  2
AcAmStdpCompDef
  3
DesignerAssemblies
 90
    32768
280
     0
281
     0
  0
CLASS
  1
ACAMCOMP
  2
AcAmComp
  3
DesignerAssemblies
 90
    32768
280
     0
281
     0
  0
CLASS
  1
AC_AM_STDP_VIEW_DEF
  2
AcAmStdpViewDef
  3
DesignerAssemblies
 90
    32768
280
     0
281
     0
  0
CLASS
  1
AC_AM_MVD_DEP_MGR
  2
AcAmMVDdepMgr
  3
DesignerAssemblies
 90
    32768
280
     0
281
     0
  0
CLASS
  1
AC_AM_MASTER_VIEW_DEF
  2
AcAmMasterViewDef
  3
DesignerAssemblies
 90
    32768
280
     0
281
     0
  0
CLASS
  1
AC_AM_DIRTY_NODES
  2
AcAmDirtyNodes
  3
DesignerAssemblies
 90
    32768
280
     0
281
     0
  0
CLASS
  1
AC_AM_MAPPER_CACHE
  2
AcAmMapperCache
  3
DesignerAssemblies
 90
    32768
280
     0
281
     0
  0
CLASS
  1
ACAMMVDBACKUPOBJECT
  2
AcAmMVDBackupObject
  3
DesignerAssemblies
 90
    32768
280
     0
281
     0
  0
CLASS
  1
AC_AM_COMP_VIEW_INST
  2
AcAmCompView
  3
DesignerAssemblies
 90
    32768
280
     0
281
     0
  0
CLASS
  1
AC_AM_2D_XREF_MGR
  2
AcAmXrefMgr2d
  3
DesignerAssemblies
 90
    32768
280
     0
281
     0
  0
CLASS
  1
AC_AM_HIDE_SITUATION
  2
AcAmHideSituation
  3
DesignerAssemblies
 90
    32768
280
     0
281
     0
  0
CLASS
  1
AC_AM_TRANSFORM_GHOST
  2
AcDbTransformGhost
  3
DesignerAssemblies
 90
    32768
280
     0
281
     1
  0
CLASS
  1
L"OBJCLONER"
  2
ObjCloner
  3
DesignerAssemblies
 90
    32768
280
     0
281
     1
  0
ENDSEC
  0
SECTION
  2
TABLES
  0
TABLE
  2
VPORT
  5
8
330
0
100
AcDbSymbolTable
 70
     1
  0
VPORT
  5
B0EC
330
8
100
AcDbSymbolTableRecord
100
AcDbViewportTableRecord
  2
*Active
 70
     0
 10
0.0
 20
0.0
 11
1.0
 21
1.0
 12
6263.821225761729
 22
-3136.335997122978
 13
0.0
 23
0.0
 14
2.5
 24
2.5
 15
10.0
 25
10.0
 16
0.0
 26
0.0
 36
1.0
 17
0.0
 27
0.0
 37
0.0
 40
368.1939869406325
 41
1.702970297029702
 42
50.0
 43
-1370.695619172058
 44
-1370.695619172058
 50
0.0
 51
0.0
 71
     0
 72
   100
 73
     1
 74
     3
 75
     0
 76
     0
 77
     0
 78
     0
281
     0
 65
     0
110
0.0
120
0.0
130
0.0
111
1.0
121
0.0
131
0.0
112
0.0
122
1.0
132
0.0
 79
     0
146
0.0
  0
ENDTAB
  0
TABLE
  2
LTYPE
  5
5
330
0
100
AcDbSymbolTable
 70
    27
  0
LTYPE
  5
14
330
5
100
AcDbSymbolTableRecord
100
AcDbLinetypeTableRecord
  2
ByBlock
 70
     0
  3

 72
    65
 73
     0
 40
0.0
  0
LTYPE
  5
15
330
5
100
AcDbSymbolTableRecord
100
AcDbLinetypeTableRecord
  2
ByLayer
 70
     0
  3

 72
    65
 73
     0
 40
0.0
  0
LTYPE
  5
16
330
5
100
AcDbSymbolTableRecord
100
AcDbLinetypeTableRecord
  2
Continuous
 70
     0
  3
Solid line
 72
    65
 73
     0
 40
0.0
  0
LTYPE
  5
4F
330
5
100
AcDbSymbolTableRecord
100
AcDbLinetypeTableRecord
  2
AM_ISO02W050
 70
     0
  3
__ __ __ __ __ __ __ __ __ __ __ __ __ __ __
 72
    65
 73
     2
 40
7.5
 49
6.0
 74
     0
 49
-1.5
 74
     0
  0
LTYPE
  5
52
330
5
100
AcDbSymbolTableRecord
100
AcDbLinetypeTableRecord
  2
Amconstr
 70
     0
  3
_______________________
 72
    65
 73
     2
 40
9999.0
 49
9999.0
 74
     0
 49
0.0
 74
     0
  0
LTYPE
  5
64
330
5
100
AcDbSymbolTableRecord
100
AcDbLinetypeTableRecord
  2
ACISOWELD
 70
     0
  3
_ _ _ _ _
 72
    65
 73
     2
 40
2.0
 49
2.0
 74
     0
 49
-1.0
 74
     0
  0
LTYPE
  5
65
330
5
100
AcDbSymbolTableRecord
100
AcDbLinetypeTableRecord
  2
ACISOTGB
 70
     0
  3
__ . . __ . .
 72
    65
 73
     6
 40
9.0
 49
4.0
 74
     0
 49
-1.0
 74
     0
 49
1.0
 74
     0
 49
-1.0
 74
     0
 49
1.0
 74
     0
 49
-1.0
 74
     0
  0
LTYPE
  5
66
330
5
100
AcDbSymbolTableRecord
100
AcDbLinetypeTableRecord
  2
ACISOTGL
 70
     0
  3
_ _ _ _ _
 72
    65
 73
     2
 40
3.0
 49
2.0
 74
     0
 49
-1.0
 74
     0
  0
LTYPE
  5
69
330
5
100
AcDbSymbolTableRecord
100
AcDbLinetypeTableRecord
  2
CENTER
 70
     0
  3
__ . __
 72
    65
 73
     4
 40
7.0
 49
4.0
 74
     0
 49
-1.0
 74
     0
 49
1.0
 74
     0
 49
-1.0
 74
     0
  0
LTYPE
  5
A6E
330
5
100
AcDbSymbolTableRecord
100
AcDbLinetypeTableRecord
  2
PHANTOM2
 70
     0
  3
Phantom (.5x) ___ _ _ ___ _ _ ___ _ _ ___ _ _
 72
    65
 73
     6
 40
31.75
 49
15.875
 74
     0
 49
-3.174999999999998
 74
     0
 49
3.174999999999998
 74
     0
 49
-3.174999999999998
 74
     0
 49
3.174999999999998
 74
     0
 49
-3.174999999999998
 74
     0
  0
LTYPE
  5
4DED
330
5
100
AcDbSymbolTableRecord
100
AcDbLinetypeTableRecord
  2
中線
 70
     0
  3
___________________
 72
    65
 73
     2
 40
2.0
 49
1.0
 74
     0
 49
1.0
 74
     0
  0
LTYPE
  5
4DF6
330
5
100
AcDbSymbolTableRecord
100
AcDbLinetypeTableRecord
  2
細線
 70
     0
  3
___________________
 72
    65
 73
     2
 40
2.0
 49
1.0
 74
     0
 49
1.0
 74
     0
  0
LTYPE
  5
4DF7
330
5
100
AcDbSymbolTableRecord
100
AcDbLinetypeTableRecord
  2
太線
 70
     0
  3
___________________
 72
    65
 73
     2
 40
2.0
 49
1.0
 74
     0
 49
1.0
 74
     0
  0
LTYPE
  5
4EA7
330
5
100
AcDbSymbolTableRecord
100
AcDbLinetypeTableRecord
  2
文字
 70
     0
  3
_________________
 72
    65
 73
     2
 40
2.0
 49
1.0
 74
     0
 49
1.0
 74
     0
  0
LTYPE
  5
4EA9
330
5
100
AcDbSymbolTableRecord
100
AcDbLinetypeTableRecord
  2
寸法線
 70
     0
  3
________________
 72
    65
 73
     2
 40
2.0
 49
1.0
 74
     0
 49
1.0
 74
     0
  0
LTYPE
  5
4F12
330
5
100
AcDbSymbolTableRecord
100
AcDbLinetypeTableRecord
  2
ハッチング
 70
     0
  3
_________________
 72
    65
 73
     2
 40
2.0
 49
1.0
 74
     0
 49
1.0
 74
     0
  0
LTYPE
  5
5180
330
5
100
AcDbSymbolTableRecord
100
AcDbLinetypeTableRecord
  2
陰線1
 70
     0
  3
__ __ __ __
 72
    65
 73
     2
 40
4.0
 49
2.2
 74
     0
 49
-1.8
 74
     0
  0
LTYPE
  5
5182
330
5
100
AcDbSymbolTableRecord
100
AcDbLinetypeTableRecord
  2
切断線
 70
     0
  3
/\/-/\/-/\/-/\/-/\/-/\/
 72
    65
 73
     2
 40
11.0001
 49
0.0001
 74
     4
 75
   135
340
56
 46
0.04
 50
0.0
 44
0.0
 45
0.0
 49
-11.0
 74
     0
  0
LTYPE
  5
5183
330
5
100
AcDbSymbolTableRecord
100
AcDbLinetypeTableRecord
  2
想像線1
 70
     0
  3
__ __ __ _____ __ __ ____
 72
    65
 73
     6
 40
14.5
 49
6.0
 74
     0
 49
-1.5
 74
     0
 49
2.0
 74
     0
 49
-1.5
 74
     0
 49
2.0
 74
     0
 49
-1.5
 74
     0
  0
LTYPE
  5
5185
330
5
100
AcDbSymbolTableRecord
100
AcDbLinetypeTableRecord
  2
中心線1
 70
     0
  3
___ _ ___ _ ___
 72
    65
 73
     4
 40
18.0
 49
12.0
 74
     0
 49
-2.0
 74
     0
 49
2.0
 74
     0
 49
-2.0
 74
     0
  0
LTYPE
  5
5188
330
5
100
AcDbSymbolTableRecord
100
AcDbLinetypeTableRecord
  2
補助線
 70
     0
  3
______________
 72
    65
 73
     2
 40
2.0
 49
1.0
 74
     0
 49
1.0
 74
     0
  0
LTYPE
  5
6427
330
5
100
AcDbSymbolTableRecord
100
AcDbLinetypeTableRecord
  2
HIDDEN
 70
     0
  3
Hidden __ __ __ __ __ __ __ __ __ __ __ __ __ _
 72
    65
 73
     2
 40
0.375
 49
0.25
 74
     0
 49
-0.125
 74
     0
  0
LTYPE
  5
AF95
330
5
100
AcDbSymbolTableRecord
100
AcDbLinetypeTableRecord
  2
AM_ISO08W050
 70
     0
  3
____ . ____ . ____ . ____ . ____ . ____ . ____
 72
    65
 73
     4
 40
18.0
 49
12.0
 74
     0
 49
-1.5
 74
     0
 49
3.0
 74
     0
 49
-1.5
 74
     0
  0
LTYPE
  5
FD15
330
5
100
AcDbSymbolTableRecord
100
AcDbLinetypeTableRecord
  2
ACANSTGB
 70
     0
  3
__ . . __ . .
 72
    65
 73
     6
 40
0.35433070866
 49
0.15748031496
 74
     0
 49
-0.03937007874
 74
     0
 49
0.03937007874
 74
     0
 49
-0.03937007874
 74
     0
 49
0.03937007874
 74
     0
 49
-0.03937007874
 74
     0
  0
LTYPE
  5
FD16
330
5
100
AcDbSymbolTableRecord
100
AcDbLinetypeTableRecord
  2
ACANSTGL
 70
     0
  3
_ _ _ _ _
 72
    65
 73
     2
 40
0.11811023622
 49
0.07874015748
 74
     0
 49
-0.03937007874
 74
     0
  0
LTYPE
  5
5B96A
330
5
100
AcDbSymbolTableRecord
100
AcDbLinetypeTableRecord
  2
AM_ISO09W050
 70
     0
  3
_____ . . _____ . . _____ . . ____ .. ____
 72
    65
 73
     6
 40
22.5
 49
12.0
 74
     0
 49
-1.5
 74
     0
 49
3.0
 74
     0
 49
-1.5
 74
     0
 49
3.0
 74
     0
 49
-1.5
 74
     0
  0
LTYPE
  5
5B96B
330
5
100
AcDbSymbolTableRecord
100
AcDbLinetypeTableRecord
  2
AM_ISO08W050x2
 70
     0
  3
__ . __ . __ . __ . __ . __
 72
    65
 73
     4
 40
9.0
 49
6.0
 74
     0
 49
-0.75
 74
     0
 49
1.5
 74
     0
 49
-0.75
 74
     0
  0
LTYPE
  5
5B96C
330
5
100
AcDbSymbolTableRecord
100
AcDbLinetypeTableRecord
  2
AM_ISO02W050x2
 70
     0
  3
 _ _ _ _ _ _ _ _ _ _ _ _
 72
    65
 73
     2
 40
3.75
 49
3.0
 74
     0
 49
-0.75
 74
     0
  0
LTYPE
  5
5B96F
330
5
100
AcDbSymbolTableRecord
100
AcDbLinetypeTableRecord
  2
Amzigzag
 70
     0
  3
/\/-/\/-/\/-/\/-/\/-/\/
 72
    65
 73
     2
 40
11.0001
 49
0.0001
 74
     4
 75
   136
340
5B96E
 46
0.04
 50
0.0
 44
0.0
 45
0.0
 49
-11.0
 74
     0
  0
ENDTAB
  0
TABLE
  2
LAYER
  5
2
102
{ACAD_XDICTIONARY
360
3F95
102
}
330
0
100
AcDbSymbolTable
 70
    13
  0
LAYER
  5
10
330
2
100
AcDbSymbolTableRecord
100
AcDbLayerTableRecord
  2
0
 70
     0
 62
     7
  6
Continuous
370
    -3
390
F
  0
LAYER
  5
6D1
330
2
100
AcDbSymbolTableRecord
100
AcDbLayerTableRecord
  2
Defpoints
 70
     0
 62
     7
  6
Continuous
290
     0
370
    -3
390
F
  0
LAYER
  5
AC9F
330
2
100
AcDbSymbolTableRecord
100
AcDbLayerTableRecord
  2
size
 70
     0
 62
     5
  6
Continuous
290
     0
370
    25
390
F
  0
LAYER
  5
ACA0
330
2
100
AcDbSymbolTableRecord
100
AcDbLayerTableRecord
  2
waku
 70
     0
 62
     7
  6
Continuous
370
    35
390
F
  0
LAYER
  5
ACA1
330
2
100
AcDbSymbolTableRecord
100
AcDbLayerTableRecord
  2
AM_6
 70
     0
 62
     2
  6
文字
370
    15
390
F
1001
AcAecLayerStandard
1000

1000

  0
LAYER
  5
AD68
330
2
100
AcDbSymbolTableRecord
100
AcDbLayerTableRecord
  2
AM_5
 70
     0
 62
     3
  6
寸法線
370
    15
390
F
1001
AcAecLayerStandard
1000

1000

  0
LAYER
  5
B5FB
330
2
100
AcDbSymbolTableRecord
100
AcDbLayerTableRecord
  2
0部品18
 70
     0
 62
   254
  6
細線
370
    30
390
F
1001
AcAecLayerStandard
1000

1000

  0
LAYER
  5
B5FC
330
2
100
AcDbSymbolTableRecord
100
AcDbLayerTableRecord
  2
0部品1
 70
     0
 62
   213
  6
細線
370
    30
390
F
1001
AcAecLayerStandard
1000

1000

  0
LAYER
  5
B5FD
330
2
100
AcDbSymbolTableRecord
100
AcDbLayerTableRecord
  2
0部品2
 70
     0
 62
   163
  6
細線
370
    30
390
F
1001
AcAecLayerStandard
1000

1000

  0
LAYER
  5
2D624
330
2
100
AcDbSymbolTableRecord
100
AcDbLayerTableRecord
  2
1
 70
     0
 62
     7
  6
Continuous
370
    -3
390
F
  0
LAYER
  5
5B5F5
330
2
100
AcDbSymbolTableRecord
100
AcDbLayerTableRecord
  2
AM_0
 70
     0
 62
     7
  6
中線
370
    25
390
F
1001
AcAecLayerStandard
1000

1000

  0
LAYER
  5
5B5F6
330
2
100
AcDbSymbolTableRecord
100
AcDbLayerTableRecord
  2
AM_7
 70
     0
 62
     4
  6
中心線1
370
    15
390
F
1001
AcAecLayerStandard
1000

1000

  0
LAYER
  5
5B5F7
102
{ACAD_XDICTIONARY
360
5B5F8
102
}
330
2
100
AcDbSymbolTableRecord
100
AcDbLayerTableRecord
  2
AM_3
 70
     0
 62
     6
  6
陰線1
370
    15
390
F
1001
AcAecLayerStandard
1000

1000

  0
ENDTAB
  0
TABLE
  2
STYLE
  5
3
330
0
100
AcDbSymbolTable
 70
     8
  0
STYLE
  5
11
330
3
100
AcDbSymbolTableRecord
100
AcDbTextStyleTableRecord
  2
STANDARD
 70
     0
 40
0.0
 41
0.7
 50
0.0
 71
     0
 42
3.2
  3
romans.shx
  4
extfont.shx
  0
STYLE
  5
56
330
3
100
AcDbSymbolTableRecord
100
AcDbTextStyleTableRecord
  2

 70
     1
 40
0.0
 41
1.0
 50
0.0
 71
     0
 42
2.5
  3
ltypeshp.shx
  4

  0
STYLE
  5
58
330
3
100
AcDbSymbolTableRecord
100
AcDbTextStyleTableRecord
  2
ACISOTS
 70
     0
 40
1.0
 41
1.0
 50
0.0
 71
     0
 42
2.5
  3
isocp.shx
  4
extfont.shx
  0
STYLE
  5
63
330
3
100
AcDbSymbolTableRecord
100
AcDbTextStyleTableRecord
  2
ACISOGDT
 70
     0
 40
0.0
 41
1.0
 50
0.0
 71
     0
 42
2.5
  3
amgdt.shx
  4

  0
STYLE
  5
A74
330
3
100
AcDbSymbolTableRecord
100
AcDbTextStyleTableRecord
  2
DIM
 70
     0
 40
0.0
 41
1.0
 50
0.0
 71
     0
 42
2.5
  3
monotxt.shx
  4
extfont.shx
  0
STYLE
  5
FD18
330
3
100
AcDbSymbolTableRecord
100
AcDbTextStyleTableRecord
  2
ACANSTS
 70
     0
 40
1.0
 41
1.0
 50
0.0
 71
     0
 42
0.2
  3
romans.shx
  4
extfont.shx
  0
STYLE
  5
FD19
330
3
100
AcDbSymbolTableRecord
100
AcDbTextStyleTableRecord
  2
ACANSGDT
 70
     0
 40
0.0
 41
1.0
 50
0.0
 71
     0
 42
0.2
  3
amgdt.shx
  4

  0
STYLE
  5
5B96E
330
3
100
AcDbSymbolTableRecord
100
AcDbTextStyleTableRecord
  2

 70
     1
 40
0.0
 41
1.0
 50
0.0
 71
     0
 42
3.2
  3
genltshp.shx
  4

  0
ENDTAB
  0
TABLE
  2
VIEW
  5
6
330
0
100
AcDbSymbolTable
 70
     6
  0
VIEW
  5
AE1
330
6
100
AcDbSymbolTableRecord
100
AcDbViewTableRecord
  2
AM_VIEW1
 70
     0
 40
2203.896457765668
 10
5264.59915808885
 20
3198.765197920841
 41
2970.0
 11
0.0
 21
0.0
 31
1.0
 12
0.0
 22
0.0
 32
0.0
 42
50.0
 43
-1370.695619172058
 44
-1370.695619172058
 50
0.0
 71
     0
281
     0
 72
     0
  0
VIEW
  5
AE2
330
6
100
AcDbSymbolTableRecord
100
AcDbViewTableRecord
  2
AM_VIEW2
 70
     0
 40
2203.896457765668
 10
8234.599158088851
 20
3198.765197920841
 41
2970.0
 11
0.0
 21
0.0
 31
1.0
 12
0.0
 22
0.0
 32
0.0
 42
50.0
 43
-1370.695619172058
 44
-1370.695619172058
 50
0.0
 71
     0
281
     0
 72
     0
  0
VIEW
  5
AE3
330
6
100
AcDbSymbolTableRecord
100
AcDbViewTableRecord
  2
AM_VIEW3
 70
     0
 40
2203.896457765668
 10
5264.59915808885
 20
1202.661655686509
 41
2970.0
 11
0.0
 21
0.0
 31
1.0
 12
0.0
 22
0.0
 32
0.0
 42
50.0
 43
-1370.695619172058
 44
-1370.695619172058
 50
0.0
 71
     0
281
     0
 72
     0
  0
VIEW
  5
AE4
330
6
100
AcDbSymbolTableRecord
100
AcDbViewTableRecord
  2
AM_VIEW4
 70
     0
 40
2203.896457765668
 10
8234.599158088851
 20
1202.661655686509
 41
2970.0
 11
0.0
 21
0.0
 31
1.0
 12
0.0
 22
0.0
 32
0.0
 42
50.0
 43
-1370.695619172058
 44
-1370.695619172058
 50
0.0
 71
     0
281
     0
 72
     0
  0
VIEW
  5
AE5
330
6
100
AcDbSymbolTableRecord
100
AcDbViewTableRecord
  2
AM_VIEW5
 70
     0
 40
2203.896457765668
 10
6749.599158088853
 20
2200.713426803675
 41
2970.0
 11
0.0
 21
0.0
 31
1.0
 12
0.0
 22
0.0
 32
0.0
 42
50.0
 43
-1370.695619172058
 44
-1370.695619172058
 50
0.0
 71
     0
281
     0
 72
     0
  0
VIEW
  5
AE6
330
6
100
AcDbSymbolTableRecord
100
AcDbViewTableRecord
  2
AM_VIEW6
 70
     0
 40
4407.748837602181
 10
6749.599158088853
 20
2200.713426803675
 41
5939.940599999999
 11
0.0
 21
0.0
 31
1.0
 12
0.0
 22
0.0
 32
0.0
 42
50.0
 43
-1370.695619172058
 44
-1370.695619172058
 50
0.0
 71
     0
281
     0
 72
     0
  0
ENDTAB
  0
TABLE
  2
UCS
  5
7
330
0
100
AcDbSymbolTable
 70
     0
  0
ENDTAB
  0
TABLE
  2
APPID
  5
9
330
0
100
AcDbSymbolTable
 70
    67
  0
APPID
  5
12
330
9
100
AcDbSymbolTableRecord
100
AcDbRegAppTableRecord
  2
ACAD
 70
     0
  0
APPID
  5
30
330
9
100
AcDbSymbolTableRecord
100
AcDbRegAppTableRecord
  2
MCAD_NO_VIS
 70
     0
  0
APPID
  5
31
330
9
100
AcDbSymbolTableRecord
100
AcDbRegAppTableRecord
  2
ACAD_TEMP_GRAPHIC
 70
     0
  0
APPID
  5
44
330
9
100
AcDbSymbolTableRecord
100
AcDbRegAppTableRecord
  2
ACATTRIBSERVICES
 70
     0
  0
APPID
  5
7A1
330
9
100
AcDbSymbolTableRecord
100
AcDbRegAppTableRecord
  2
GENIUS_GENDIMSH_14
 70
     0
  0
APPID
  5
A49
330
9
100
AcDbSymbolTableRecord
100
AcDbRegAppTableRecord
  2
GENIUS_GENREC_14
 70
     0
  0
APPID
  5
A4A
330
9
100
AcDbSymbolTableRecord
100
AcDbRegAppTableRecord
  2
GENIUS_GENOBJ-N-REC_13
 70
     0
  0
APPID
  5
A4B
330
9
100
AcDbSymbolTableRecord
100
AcDbRegAppTableRecord
  2
GENIUS_GENODEF_13
 70
     0
  0
APPID
  5
A4C
330
9
100
AcDbSymbolTableRecord
100
AcDbRegAppTableRecord
  2
DCO15
 70
     0
  0
APPID
  5
ADC
330
9
100
AcDbSymbolTableRecord
100
AcDbRegAppTableRecord
  2
GENIUS_GENOLIS_13
 70
     0
  0
APPID
  5
ADD
330
9
100
AcDbSymbolTableRecord
100
AcDbRegAppTableRecord
  2
GENIUS_GENOENT_13
 70
     0
  0
APPID
  5
ADE
330
9
100
AcDbSymbolTableRecord
100
AcDbRegAppTableRecord
  2
GENIUS_GENOBJ-N-TIT_13
 70
     0
  0
APPID
  5
ADF
330
9
100
AcDbSymbolTableRecord
100
AcDbRegAppTableRecord
  2
GENIUS_GENTITLE_13
 70
     0
  0
APPID
  5
AE0
330
9
100
AcDbSymbolTableRecord
100
AcDbRegAppTableRecord
  2
GENIUS_GENOREF_13
 70
     0
  0
APPID
  5
AE7
330
9
100
AcDbSymbolTableRecord
100
AcDbRegAppTableRecord
  2
GENIUS_GENSCREG_15
 70
     0
  0
APPID
  5
AE8
330
9
100
AcDbSymbolTableRecord
100
AcDbRegAppTableRecord
  2
GENIUS_GENOBJ-N-SDF_13
 70
     0
  0
APPID
  5
FAF
330
9
100
AcDbSymbolTableRecord
100
AcDbRegAppTableRecord
  2
GENIUS_GENBLLY_14
 70
     0
  0
APPID
  5
FB0
330
9
100
AcDbSymbolTableRecord
100
AcDbRegAppTableRecord
  2
GENIUS_GENTRA_14
 70
     0
  0
APPID
  5
1285
330
9
100
AcDbSymbolTableRecord
100
AcDbRegAppTableRecord
  2
GENIUS_GENDTOL_13
 70
     0
  0
APPID
  5
142D
330
9
100
AcDbSymbolTableRecord
100
AcDbRegAppTableRecord
  2
GENIUS_GENOBJ-N-CEN_13
 70
     0
  0
APPID
  5
1AB5
330
9
100
AcDbSymbolTableRecord
100
AcDbRegAppTableRecord
  2
GENIUS_GENOBJ-N-CRS_13
 70
     0
  0
APPID
  5
1B36
330
9
100
AcDbSymbolTableRecord
100
AcDbRegAppTableRecord
  2
GENIUS_GENOBJ-N-HTC_13
 70
     0
  0
APPID
  5
1B37
330
9
100
AcDbSymbolTableRecord
100
AcDbRegAppTableRecord
  2
GENIUS_GENHATCH_13
 70
     0
  0
APPID
  5
216D
330
9
100
AcDbSymbolTableRecord
100
AcDbRegAppTableRecord
  2
GENIUS_GENOBJ-N-FIL_13
 70
     0
  0
APPID
  5
2356
330
9
100
AcDbSymbolTableRecord
100
AcDbRegAppTableRecord
  2
GEVID990412420
 70
     0
  0
APPID
  5
2357
330
9
100
AcDbSymbolTableRecord
100
AcDbRegAppTableRecord
  2
GEVDC
 70
     0
  0
APPID
  5
2358
330
9
100
AcDbSymbolTableRecord
100
AcDbRegAppTableRecord
  2
GEVCON
 70
     0
  0
APPID
  5
235B
330
9
100
AcDbSymbolTableRecord
100
AcDbRegAppTableRecord
  2
GEVRADREF
 70
     0
  0
APPID
  5
2360
330
9
100
AcDbSymbolTableRecord
100
AcDbRegAppTableRecord
  2
GENIUS_GENBH_13
 70
     0
  0
APPID
  5
2362
330
9
100
AcDbSymbolTableRecord
100
AcDbRegAppTableRecord
  2
GENIUS_GENOBJ-NBEHI-BHF_13
 70
     0
  0
APPID
  5
2364
330
9
100
AcDbSymbolTableRecord
100
AcDbRegAppTableRecord
  2
GENIUS_GENOBJ-NBEHI-BHB_13
 70
     0
  0
APPID
  5
2379
330
9
100
AcDbSymbolTableRecord
100
AcDbRegAppTableRecord
  2
GENIUS_GENOBJ-F-SCPASSM_13
 70
     0
  0
APPID
  5
3D74
330
9
100
AcDbSymbolTableRecord
100
AcDbRegAppTableRecord
  2
GENIUS_GENDIM_13
 70
     0
  0
APPID
  5
3D76
330
9
100
AcDbSymbolTableRecord
100
AcDbRegAppTableRecord
  2
GENIUS_GE3DTOL_13
 70
     0
  0
APPID
  5
3D9C
330
9
100
AcDbSymbolTableRecord
100
AcDbRegAppTableRecord
  2
AD_DRAW
 70
     0
  0
APPID
  5
3DE8
330
9
100
AcDbSymbolTableRecord
100
AcDbRegAppTableRecord
  2
ASURF_PCURVE_APPNAME
 70
     0
  0
APPID
  5
3DED
330
9
100
AcDbSymbolTableRecord
100
AcDbRegAppTableRecord
  2
AMG_3D2D_5.0
 70
     0
  0
APPID
  5
3E1B
330
9
100
AcDbSymbolTableRecord
100
AcDbRegAppTableRecord
  2
DESIGNERASSEMBLIES
 70
     0
  0
APPID
  5
3E20
330
9
100
AcDbSymbolTableRecord
100
AcDbRegAppTableRecord
  2
ACADM_DIM_EDIT
 70
     0
  0
APPID
  5
3E21
330
9
100
AcDbSymbolTableRecord
100
AcDbRegAppTableRecord
  2
AMDT_DM_ADJ
 70
     0
  0
APPID
  5
4143
330
9
100
AcDbSymbolTableRecord
100
AcDbRegAppTableRecord
  2
GENIUS_GENFIL_13
 70
     0
  0
APPID
  5
4144
330
9
100
AcDbSymbolTableRecord
100
AcDbRegAppTableRecord
  2
GENIUS_GENOBJ-N-CHA_13
 70
     0
  0
APPID
  5
4E17
330
9
100
AcDbSymbolTableRecord
100
AcDbRegAppTableRecord
  2
GEVID1008153417
 70
     0
  0
APPID
  5
4E58
330
9
100
AcDbSymbolTableRecord
100
AcDbRegAppTableRecord
  2
GEVID1008153418
 70
     0
  0
APPID
  5
4E5E
330
9
100
AcDbSymbolTableRecord
100
AcDbRegAppTableRecord
  2
GEVID1008153419
 70
     0
  0
APPID
  5
4E64
330
9
100
AcDbSymbolTableRecord
100
AcDbRegAppTableRecord
  2
GEVID1008153420
 70
     0
  0
APPID
  5
4E75
330
9
100
AcDbSymbolTableRecord
100
AcDbRegAppTableRecord
  2
GEVID1008153421
 70
     0
  0
APPID
  5
4EB7
330
9
100
AcDbSymbolTableRecord
100
AcDbRegAppTableRecord
  2
GENIUS_AMGTXT_16
 70
     0
  0
APPID
  5
7645
330
9
100
AcDbSymbolTableRecord
100
AcDbRegAppTableRecord
  2
GENIUS_GENOBJ-N-DIM_13
 70
     0
  0
APPID
  5
AAD0
330
9
100
AcDbSymbolTableRecord
100
AcDbRegAppTableRecord
  2
ACAD_DSTYLE_DIMARC_LENGTH_SYMBOL
 70
     0
  0
APPID
  5
AAD1
330
9
100
AcDbSymbolTableRecord
100
AcDbRegAppTableRecord
  2
ACAD_DSTYLE_DIMJOGGED_JOGANGLE_SYMBOL
 70
     0
  0
APPID
  5
AAFD
330
9
100
AcDbSymbolTableRecord
100
AcDbRegAppTableRecord
  2
ACAD_PSEXT
 70
     0
  0
APPID
  5
AD61
330
9
100
AcDbSymbolTableRecord
100
AcDbRegAppTableRecord
  2
AcAecLayerStandard
 70
     0
  0
APPID
  5
AEE3
330
9
100
AcDbSymbolTableRecord
100
AcDbRegAppTableRecord
  2
ACAD_EXEMPT_FROM_CAD_STANDARDS
 70
     0
  0
APPID
  5
B1BE
330
9
100
AcDbSymbolTableRecord
100
AcDbRegAppTableRecord
  2
GENIUS_GENCEN_19
 70
     0
  0
APPID
  5
B4E1
330
9
100
AcDbSymbolTableRecord
100
AcDbRegAppTableRecord
  2
ACAD_MLEADERVER
 70
     0
  0
APPID
  5
C488
330
9
100
AcDbSymbolTableRecord
100
AcDbRegAppTableRecord
  2
ACAD_DSTYLE_DIMINSPECT
 70
     0
  0
APPID
  5
C489
330
9
100
AcDbSymbolTableRecord
100
AcDbRegAppTableRecord
  2
ACAD_DSTYLE_DIMRADIAL_EXTENSION
 70
     0
  0
APPID
  5
1980E
330
9
100
AcDbSymbolTableRecord
100
AcDbRegAppTableRecord
  2
GEVID1311583542
 70
     0
  0
APPID
  5
19825
330
9
100
AcDbSymbolTableRecord
100
AcDbRegAppTableRecord
  2
AMG_2DHIDE
 70
     0
  0
APPID
  5
19826
330
9
100
AcDbSymbolTableRecord
100
AcDbRegAppTableRecord
  2
AMG_2DSTRUCT_BTR
 70
     0
  0
APPID
  5
19837
330
9
100
AcDbSymbolTableRecord
100
AcDbRegAppTableRecord
  2
ACADM_2DVIEW_IGN_NOTIFY
 70
     0
  0
APPID
  5
1B56B
330
9
100
AcDbSymbolTableRecord
100
AcDbRegAppTableRecord
  2
GEVID1311583543
 70
     0
  0
APPID
  5
1B5F6
330
9
100
AcDbSymbolTableRecord
100
AcDbRegAppTableRecord
  2
GEVID1311583544
 70
     0
  0
APPID
  5
1B61B
330
9
100
AcDbSymbolTableRecord
100
AcDbRegAppTableRecord
  2
GEVID1311583545
 70
     0
  0
APPID
  5
1B63D
330
9
100
AcDbSymbolTableRecord
100
AcDbRegAppTableRecord
  2
GEVID1311583546
 70
     0
  0
APPID
  5
1B675
330
9
100
AcDbSymbolTableRecord
100
AcDbRegAppTableRecord
  2
GEVID1311583547
 70
     0
  0
ENDTAB
  0
TABLE
  2
DIMSTYLE
  5
A
330
0
100
AcDbSymbolTable
 70
    25
100
AcDbDimStyleTable
 71
     3
340
2515
340
251A
340
251B
  0
DIMSTYLE
105
A76
330
A
100
AcDbSymbolTableRecord
100
AcDbDimStyleTableRecord
  2
STANDARD
 70
     0
 41
3.0
 42
1.0
 43
7.0
 44
2.0
 73
     0
 74
     0
 77
     1
140
2.799999999999998
141
0.0
143
0.0394
147
0.7
171
     4
172
     1
173
     1
176
     3
177
     3
178
     2
271
     3
272
     3
273
     8
274
     4
289
     0
340
A74
341
A66
343
A66
344
A66
  0
DIMSTYLE
105
2515
330
A
100
AcDbSymbolTableRecord
100
AcDbDimStyleTableRecord
  2
SYS
 70
     0
  4
"
 41
1.0
 42
1.0
 43
10.0
 44
1.0
 47
0.1
 48
0.1
 73
     0
 74
     0
 77
     1
 78
     8
 79
     2
140
3.5
141
0.0
143
0.0393701
146
0.71
147
1.5
172
     1
176
   256
177
   256
178
     7
271
     2
272
     2
283
     0
284
     8
340
11
371
    -1
372
    -1
1001
ACAD_DSTYLE_DIMJOGGED_JOGANGLE_SYMBOL
1070
   384
1040
0.7853981633974483
1001
ACAD_DSTYLE_DIMARC_LENGTH_SYMBOL
1070
   379
1070
     1
  0
DIMSTYLE
105
2516
102
{ACAD_REACTORS
330
53AC7
330
596EA
330
59733
330
5AD1A
330
5AD24
102
}
330
A
100
AcDbSymbolTableRecord
100
AcDbDimStyleTableRecord
  2
SYS$3
 70
     0
  4
"
 41
2.0
 42
1.0
 43
10.0
 44
1.0
 47
0.1
 48
0.1
 73
     0
 77
     1
 78
     8
 79
     2
140
3.2
141
0.0
143
0.0393701
146
0.71
147
1.0
176
   256
177
   256
178
     2
271
     2
272
     2
283
     0
284
     8
288
     1
340
11
342
A66
371
    -1
372
    -1
1001
ACAD_DSTYLE_DIMJOGGED_JOGANGLE_SYMBOL
1070
   384
1040
0.7853981633974483
1001
ACAD_DSTYLE_DIMARC_LENGTH_SYMBOL
1070
   379
1070
     1
  0
DIMSTYLE
105
2517
330
A
100
AcDbSymbolTableRecord
100
AcDbDimStyleTableRecord
  2
SYS$4
 70
     0
  4
"
 41
2.0
 42
1.0
 43
10.0
 44
1.0
 47
0.1
 48
0.1
 73
     0
 77
     1
 78
     8
 79
     2
140
3.2
141
0.0
143
0.0393701
146
0.71
147
1.0
173
     1
176
   256
177
   256
178
     2
271
     2
272
     2
283
     0
284
     8
288
     1
340
11
344
A66
371
    -1
372
    -1
1001
ACAD_DSTYLE_DIMJOGGED_JOGANGLE_SYMBOL
1070
   384
1040
0.7853981633974483
1001
ACAD_DSTYLE_DIMARC_LENGTH_SYMBOL
1070
   379
1070
     1
  0
DIMSTYLE
105
2518
330
A
100
AcDbSymbolTableRecord
100
AcDbDimStyleTableRecord
  2
SYS$6
 70
     0
  4
"
 41
2.0
 42
1.0
 43
10.0
 44
1.0
 47
0.1
 48
0.1
 73
     0
 74
     0
 78
     8
 79
     2
140
3.2
141
0.0
143
0.0393701
146
0.71
147
1.0
172
     1
176
   256
177
   256
178
     2
271
     2
272
     2
283
     0
284
     8
340
11
341
A66
371
    -1
372
    -1
1001
ACAD_DSTYLE_DIMJOGGED_JOGANGLE_SYMBOL
1070
   384
1040
0.7853981633974483
1001
ACAD_DSTYLE_DIMARC_LENGTH_SYMBOL
1070
   379
1070
     1
  0
DIMSTYLE
105
2519
330
A
100
AcDbSymbolTableRecord
100
AcDbDimStyleTableRecord
  2
SYS$7
 70
     0
  4
"
 41
2.0
 42
1.0
 43
10.0
 44
1.0
 47
0.1
 48
0.1
 73
     0
 74
     0
 77
     1
 78
     8
 79
     2
140
3.2
141
0.0
143
0.0393701
146
0.71
147
1.0
172
     1
176
   256
177
   256
178
     2
271
     2
272
     2
283
     0
284
     8
340
11
341
A66
342
A66
371
    -1
372
    -1
1001
ACAD_DSTYLE_DIMJOGGED_JOGANGLE_SYMBOL
1070
   384
1040
0.7853981633974483
1001
ACAD_DSTYLE_DIMARC_LENGTH_SYMBOL
1070
   379
1070
     1
  0
DIMSTYLE
105
251A
330
A
100
AcDbSymbolTableRecord
100
AcDbDimStyleTableRecord
  2
SYS$SF
 70
     0
  4
"
 41
2.5
 42
1.0
 43
10.0
 44
1.0
 47
0.1
 48
0.1
 73
     0
 74
     0
 75
     1
 76
     1
 77
     1
 78
     8
 79
     2
140
3.2
141
0.0
143
0.0393701
146
0.71
147
1.0
172
     1
176
   256
177
   256
178
     2
271
     2
272
     2
283
     0
284
     8
340
11
341
6C4
342
6C4
371
    -1
372
    -1
1001
ACAD_DSTYLE_DIMJOGGED_JOGANGLE_SYMBOL
1070
   384
1040
0.7853981633974483
1001
ACAD_DSTYLE_DIMARC_LENGTH_SYMBOL
1070
   379
1070
     1
  0
DIMSTYLE
105
251B
330
A
100
AcDbSymbolTableRecord
100
AcDbDimStyleTableRecord
  2
SYS$SH
 70
     0
  4
"
 41
2.5
 42
1.0
 43
10.0
 44
1.0
 47
0.1
 48
0.1
 73
     0
 74
     0
 75
     1
 76
     1
 77
     1
 78
     8
 79
     2
140
3.2
141
0.0
143
0.0393701
144
2.0
146
0.71
147
1.0
172
     1
173
     1
176
   256
177
   256
178
     2
271
     2
272
     2
283
     0
284
     8
340
11
341
6C4
343
72
344
6C4
371
    -1
372
    -1
1001
ACAD_DSTYLE_DIMJOGGED_JOGANGLE_SYMBOL
1070
   384
1040
0.7853981633974483
1001
ACAD_DSTYLE_DIMARC_LENGTH_SYMBOL
1070
   379
1070
     1
  0
DIMSTYLE
105
2A59
330
A
100
AcDbSymbolTableRecord
100
AcDbDimStyleTableRecord
  2
SYS$2
 70
     0
  4
"
 41
1.0
 42
1.0
 43
10.0
 44
1.0
 47
0.1
 48
0.1
 73
     0
 74
     0
 77
     1
 78
     8
 79
     2
140
3.2
141
0.0
143
0.0393701
146
0.71
147
1.0
172
     1
176
   256
177
   256
178
     2
271
     2
272
     2
283
     0
284
     8
340
11
342
6C4
371
    -1
372
    -1
1001
ACAD_DSTYLE_DIMJOGGED_JOGANGLE_SYMBOL
1070
   384
1040
0.7853981633974483
1001
ACAD_DSTYLE_DIMARC_LENGTH_SYMBOL
1070
   379
1070
     1
  0
DIMSTYLE
105
2AAB
102
{ACAD_REACTORS
330
4A7C5
330
4A7DB
330
4A8C5
330
4A922
330
4A938
330
4A9FC
330
4AA4C
330
4AA66
330
4AA80
330
4AAEF
330
4AB14
330
4AB42
330
4ACCD
330
53A5A
330
5ACCA
330
5ACE2
330
5ACF8
330
4A984
330
4A9E1
102
}
330
A
100
AcDbSymbolTableRecord
100
AcDbDimStyleTableRecord
  2
SYS$0
 70
     0
  4
"
 41
1.0
 42
1.0
 43
10.0
 44
1.0
 47
0.1
 48
0.1
 73
     0
 74
     0
 77
     1
 78
     8
 79
     2
140
3.200000000000001
141
0.0
143
0.0393701
146
0.71
147
1.0
172
     1
176
   256
177
   256
178
     2
271
     2
272
     2
283
     0
284
     8
340
11
341
A66
342
6C4
371
    -1
372
    -1
1001
ACAD_DSTYLE_DIMJOGGED_JOGANGLE_SYMBOL
1070
   384
1040
0.7853981633974483
1001
ACAD_DSTYLE_DIMARC_LENGTH_SYMBOL
1070
   379
1070
     1
  0
DIMSTYLE
105
AF99
330
A
100
AcDbSymbolTableRecord
100
AcDbDimStyleTableRecord
  2
AM_ISO
 70
     0
  4
"
 41
2.5
 42
1.0
 43
10.0
 44
1.0
 47
0.1
 48
0.1
 73
     0
 74
     0
 77
     1
 78
     8
 79
     2
140
3.5
141
0.0
143
0.0393701
146
0.71
147
1.5
172
     1
176
   256
177
   256
178
     2
271
     2
272
     3
274
     4
283
     0
284
     8
340
11
371
    -1
372
    -1
  0
DIMSTYLE
105
AF9A
330
A
100
AcDbSymbolTableRecord
100
AcDbDimStyleTableRecord
  2
AM_ISO$3
 70
     0
  4
"
 41
2.5
 42
1.0
 43
10.0
 44
1.0
 47
0.1
 48
0.1
 73
     0
 77
     1
 78
     8
 79
     2
140
3.5
141
0.0
143
0.0393701
146
0.71
147
1.5
176
   256
177
   256
178
     2
271
     2
272
     3
274
     4
283
     0
284
     8
288
     1
289
     0
340
11
371
    -1
372
    -1
  0
DIMSTYLE
105
AF9B
330
A
100
AcDbSymbolTableRecord
100
AcDbDimStyleTableRecord
  2
AM_ISO$4
 70
     0
  4
"
 41
2.5
 42
1.0
 43
10.0
 44
1.0
 47
0.1
 48
0.1
 73
     0
 77
     1
 78
     8
 79
     2
140
3.5
141
0.0
143
0.0393701
146
0.71
147
1.5
176
   256
177
   256
178
     2
271
     2
272
     3
274
     4
283
     0
284
     8
288
     1
289
     0
340
11
371
    -1
372
    -1
  0
DIMSTYLE
105
AF9C
330
A
100
AcDbSymbolTableRecord
100
AcDbDimStyleTableRecord
  2
AM_ISO$6
 70
     0
  4
"
 41
2.5
 42
1.0
 43
10.0
 44
1.0
 47
0.1
 48
0.1
 73
     0
 74
     0
 78
     8
 79
     2
140
3.5
141
0.0
143
0.0393701
146
0.71
147
1.5
172
     1
176
   256
177
   256
178
     2
271
     2
272
     3
274
     4
283
     0
284
     8
340
11
371
    -1
372
    -1
  0
DIMSTYLE
105
AF9D
330
A
100
AcDbSymbolTableRecord
100
AcDbDimStyleTableRecord
  2
AM_ISO$7
 70
     0
  4
"
 41
2.5
 42
1.0
 43
10.0
 44
1.0
 47
0.1
 48
0.1
 73
     0
 74
     0
 77
     1
 78
     8
 79
     2
140
5.0
141
0.0
143
0.0393701
146
0.71
147
1.5
172
     1
176
   256
177
   256
178
     2
271
     2
272
     3
274
     4
283
     0
284
     8
340
11
371
    -1
372
    -1
  0
DIMSTYLE
105
AF9E
330
A
100
AcDbSymbolTableRecord
100
AcDbDimStyleTableRecord
  2
AM_ISO$SF
 70
     0
  4
"
 41
2.5
 42
1.0
 43
10.0
 44
1.0
 47
0.1
 48
0.1
 73
     0
 74
     0
 75
     1
 76
     1
 77
     1
 78
     8
 79
     2
140
3.5
141
0.0
143
0.0393701
146
0.71
147
1.5
172
     1
176
   256
177
   256
178
     2
271
     2
272
     3
274
     4
283
     0
284
     8
340
11
371
    -1
372
    -1
  0
DIMSTYLE
105
AF9F
330
A
100
AcDbSymbolTableRecord
100
AcDbDimStyleTableRecord
  2
AM_ISO$SH
 70
     0
  4
"
 41
2.5
 42
1.0
 43
10.0
 44
1.0
 47
0.1
 48
0.1
 73
     0
 74
     0
 75
     1
 76
     1
 77
     1
 78
     8
 79
     2
140
3.5
141
0.0
143
0.0393701
144
2.0
146
0.71
147
1.5
172
     1
173
     1
176
   256
177
   256
178
     2
271
     2
272
     3
274
     4
283
     0
284
     8
340
11
343
72
371
    -1
372
    -1
  0
DIMSTYLE
105
B60C
330
A
100
AcDbSymbolTableRecord
100
AcDbDimStyleTableRecord
  2
AM_ANSI
 70
     0
  4
mm
 41
0.1
 42
0.05
 43
0.5
 44
0.1
 47
0.1
 48
0.1
 78
     7
 79
     2
140
0.12
141
0.0
146
0.71
147
0.06
176
   256
177
   256
178
     2
274
     4
284
     7
340
11
371
    -1
372
    -1
  0
DIMSTYLE
105
C485
330
A
100
AcDbSymbolTableRecord
100
AcDbDimStyleTableRecord
  2
AM_ISO$0
 70
     0
  4
"
 41
0.8
 42
1.0
 43
10.0
 44
1.0
 47
0.1
 48
0.1
 73
     0
 74
     0
 77
     1
 78
     8
 79
     2
140
3.2
141
0.0
143
0.0393701
146
0.71
147
0.9999999999999996
172
     1
176
   256
177
   256
178
     2
271
     2
272
     2
283
     0
284
     8
340
11
341
6C4
342
6C4
371
    -1
372
    -1
1001
ACAD_DSTYLE_DIMJOGGED_JOGANGLE_SYMBOL
1070
   384
1040
0.7853981633974483
1001
ACAD_DSTYLE_DIMARC_LENGTH_SYMBOL
1070
   379
1070
     1
  0
DIMSTYLE
105
C486
330
A
100
AcDbSymbolTableRecord
100
AcDbDimStyleTableRecord
  2
AM_ISO$2
 70
     0
  4
"
 41
0.8
 42
1.0
 43
10.0
 44
1.0
 47
0.1
 48
0.1
 73
     0
 74
     0
 77
     3
 78
     8
 79
     2
140
3.200000000000001
141
0.0
143
0.0393701
146
0.71
147
0.9999999999999996
172
     1
176
   256
177
   256
178
     2
271
     2
272
     2
283
     0
284
     8
340
11
342
6C4
371
    -1
372
    -1
1001
ACAD_DSTYLE_DIMJOGGED_JOGANGLE_SYMBOL
1070
   384
1040
0.7853981633974483
1001
ACAD_DSTYLE_DIMARC_LENGTH_SYMBOL
1070
   379
1070
     1
  0
DIMSTYLE
105
FD1A
330
A
100
AcDbSymbolTableRecord
100
AcDbDimStyleTableRecord
  2
AM_ANSI$3
 70
     0
  4
mm
 41
0.1
 42
0.05
 43
0.5
 44
0.1
 47
0.1
 48
0.1
 78
     7
 79
     2
140
0.12
141
0.0
146
0.71
147
0.06
176
   256
177
   256
178
     2
274
     4
284
     7
288
     1
289
     0
340
11
371
    -1
372
    -1
1001
ACAD_DSTYLE_DIMARC_LENGTH_SYMBOL
1070
   379
1070
     1
  0
DIMSTYLE
105
FD1B
330
A
100
AcDbSymbolTableRecord
100
AcDbDimStyleTableRecord
  2
AM_ANSI$4
 70
     0
  4
mm
 41
0.1
 42
0.05
 43
0.5
 44
0.1
 47
0.1
 48
0.1
 78
     7
 79
     2
140
0.12
141
0.0
146
0.71
147
0.06
176
   256
177
   256
178
     2
274
     4
284
     7
288
     1
289
     0
340
11
371
    -1
372
    -1
1001
ACAD_DSTYLE_DIMARC_LENGTH_SYMBOL
1070
   379
1070
     1
  0
DIMSTYLE
105
FD1C
330
A
100
AcDbSymbolTableRecord
100
AcDbDimStyleTableRecord
  2
AM_ANSI$7
 70
     0
  4
mm
 41
0.1
 42
0.05
 43
0.5
 44
0.1
 47
0.1
 48
0.1
 78
     7
 79
     2
140
0.24
141
0.0
146
0.71
147
0.06
176
   256
177
   256
178
     2
274
     4
284
     7
340
11
371
    -1
372
    -1
1001
ACAD_DSTYLE_DIMARC_LENGTH_SYMBOL
1070
   379
1070
     1
  0
DIMSTYLE
105
FD1D
330
A
100
AcDbSymbolTableRecord
100
AcDbDimStyleTableRecord
  2
AM_ANSI$SF
 70
     0
  4
mm
 41
0.1
 42
0.05
 43
0.5
 44
0.1
 47
0.1
 48
0.1
 75
     1
 76
     1
 78
     7
 79
     2
140
0.12
141
0.0
146
0.71
147
0.06
176
   256
177
   256
178
     2
274
     4
284
     7
340
11
371
    -1
372
    -1
1001
ACAD_DSTYLE_DIMARC_LENGTH_SYMBOL
1070
   379
1070
     1
  0
DIMSTYLE
105
FD1E
330
A
100
AcDbSymbolTableRecord
100
AcDbDimStyleTableRecord
  2
AM_ANSI$SH
 70
     0
  4
mm
 41
0.1
 42
0.05
 43
0.5
 44
0.1
 47
0.1
 48
0.1
 75
     1
 76
     1
 78
     7
 79
     2
140
0.12
141
0.0
146
0.71
147
0.06
173
     1
176
   256
177
   256
178
     2
274
     4
284
     7
340
11
343
72
371
    -1
372
    -1
1001
ACAD_DSTYLE_DIMARC_LENGTH_SYMBOL
1070
   379
1070
     1
  0
ENDTAB
  0
TABLE
  2
BLOCK_RECORD
  5
1
330
0
100
AcDbSymbolTable
 70
    30
  0
BLOCK_RECORD
  5
1F
102
{ACAD_XDICTIONARY
360
8A
102
}
330
1
100
AcDbSymbolTableRecord
100
AcDbBlockTableRecord
  2
*Model_Space
340
22
  0
BLOCK_RECORD
  5
1B
330
1
100
AcDbSymbolTableRecord
100
AcDbBlockTableRecord
  2
*Paper_Space
340
1E
  0
BLOCK_RECORD
  5
23
330
1
100
AcDbSymbolTableRecord
100
AcDbBlockTableRecord
  2
*Paper_Space0
340
26
  0
BLOCK_RECORD
  5
72
330
1
100
AcDbSymbolTableRecord
100
AcDbBlockTableRecord
  2
GENAXEH
340
0
  0
BLOCK_RECORD
  5
6C4
330
1
100
AcDbSymbolTableRecord
100
AcDbBlockTableRecord
  2
_Dot
340
0
102
{BLKREFS
331
5B05F
331
5B060
331
5B089
331
5B08A
331
5B093
331
5B094
331
5B09C
331
5B09D
331
5B0A5
331
5B0A6
331
5B0BB
331
5B0BC
331
5B0C4
331
5B0C5
331
5B0D4
331
5B0D5
331
5B0DD
331
5B0DE
331
5B0E6
331
5B0E7
331
5B2D1
331
5B2D2
331
5B2E3
331
5B2E4
331
5B345
331
5B346
331
5B35A
331
5B35B
331
5B365
331
5B366
331
5B3EB
331
5B3EC
331
5B49B
331
5B49C
331
5B4BF
331
5B4C0
331
5B4E2
331
5B4E3
331
5B8C6
331
5B8C7
331
5B8D1
331
5B8D2
331
5B8EE
331
5B8EF
102
}
  0
BLOCK_RECORD
  5
A66
330
1
100
AcDbSymbolTableRecord
100
AcDbBlockTableRecord
  2
_OPEN30
340
0
  0
BLOCK_RECORD
  5
4A7C6
330
1
100
AcDbSymbolTableRecord
100
AcDbBlockTableRecord
  2
*D4
340
0
  0
BLOCK_RECORD
  5
4A7DC
330
1
100
AcDbSymbolTableRecord
100
AcDbBlockTableRecord
  2
*D5
340
0
  0
BLOCK_RECORD
  5
4A8C6
330
1
100
AcDbSymbolTableRecord
100
AcDbBlockTableRecord
  2
*D6
340
0
  0
BLOCK_RECORD
  5
4A923
330
1
100
AcDbSymbolTableRecord
100
AcDbBlockTableRecord
  2
*D7
340
0
  0
BLOCK_RECORD
  5
4A939
330
1
100
AcDbSymbolTableRecord
100
AcDbBlockTableRecord
  2
*D8
340
0
  0
BLOCK_RECORD
  5
4A985
330
1
100
AcDbSymbolTableRecord
100
AcDbBlockTableRecord
  2
*D9
340
0
  0
BLOCK_RECORD
  5
4A9E2
330
1
100
AcDbSymbolTableRecord
100
AcDbBlockTableRecord
  2
*D10
340
0
  0
BLOCK_RECORD
  5
4A9FD
330
1
100
AcDbSymbolTableRecord
100
AcDbBlockTableRecord
  2
*D11
340
0
  0
BLOCK_RECORD
  5
4AA4D
330
1
100
AcDbSymbolTableRecord
100
AcDbBlockTableRecord
  2
*D12
340
0
  0
BLOCK_RECORD
  5
4AA67
330
1
100
AcDbSymbolTableRecord
100
AcDbBlockTableRecord
  2
*D13
340
0
  0
BLOCK_RECORD
  5
4AA81
330
1
100
AcDbSymbolTableRecord
100
AcDbBlockTableRecord
  2
*D14
340
0
  0
BLOCK_RECORD
  5
4AAF0
330
1
100
AcDbSymbolTableRecord
100
AcDbBlockTableRecord
  2
*D15
340
0
  0
BLOCK_RECORD
  5
4AB15
330
1
100
AcDbSymbolTableRecord
100
AcDbBlockTableRecord
  2
*D16
340
0
  0
BLOCK_RECORD
  5
4AB43
330
1
100
AcDbSymbolTableRecord
100
AcDbBlockTableRecord
  2
*D17
340
0
  0
BLOCK_RECORD
  5
4ACCE
330
1
100
AcDbSymbolTableRecord
100
AcDbBlockTableRecord
  2
*D18
340
0
  0
BLOCK_RECORD
  5
53A5B
330
1
100
AcDbSymbolTableRecord
100
AcDbBlockTableRecord
  2
*D19
340
0
  0
BLOCK_RECORD
  5
53AC8
330
1
100
AcDbSymbolTableRecord
100
AcDbBlockTableRecord
  2
*D20
340
0
  0
BLOCK_RECORD
  5
596EB
330
1
100
AcDbSymbolTableRecord
100
AcDbBlockTableRecord
  2
*D21
340
0
  0
BLOCK_RECORD
  5
59734
330
1
100
AcDbSymbolTableRecord
100
AcDbBlockTableRecord
  2
*D22
340
0
  0
BLOCK_RECORD
  5
5ACCB
330
1
100
AcDbSymbolTableRecord
100
AcDbBlockTableRecord
  2
*D23
340
0
  0
BLOCK_RECORD
  5
5ACE3
330
1
100
AcDbSymbolTableRecord
100
AcDbBlockTableRecord
  2
*D24
340
0
  0
BLOCK_RECORD
  5
5ACF9
330
1
100
AcDbSymbolTableRecord
100
AcDbBlockTableRecord
  2
*D25
340
0
  0
BLOCK_RECORD
  5
5AD1B
330
1
100
AcDbSymbolTableRecord
100
AcDbBlockTableRecord
  2
*D26
340
0
  0
BLOCK_RECORD
  5
5AD25
330
1
100
AcDbSymbolTableRecord
100
AcDbBlockTableRecord
  2
*D27
340
0
  0
BLOCK_RECORD
  5
5B987
330
1
100
AcDbSymbolTableRecord
100
AcDbBlockTableRecord
  2
GENDOT
340
0
102
{BLKREFS
331
5B99A
331
5B99B
331
5B9AC
331
5B9AD
102
}
  0
ENDTAB
  0
ENDSEC
  0
SECTION
  2
BLOCKS
  0
BLOCK
  5
20
330
1F
100
AcDbEntity
  8
0
100
AcDbBlockBegin
  2
*Model_Space
 70
     0
 10
0.0
 20
0.0
 30
0.0
  3
*Model_Space
  1

  0
ENDBLK
  5
21
330
1F
100
AcDbEntity
  8
0
100
AcDbBlockEnd
  0
BLOCK
  5
1C
330
1B
100
AcDbEntity
 67
     1
  8
0
100
AcDbBlockBegin
  2
*Paper_Space
 70
     0
 10
0.0
 20
0.0
 30
0.0
  3
*Paper_Space
  1

  0
ENDBLK
  5
1D
330
1B
100
AcDbEntity
 67
     1
  8
0
100
AcDbBlockEnd
  0
BLOCK
  5
24
330
23
100
AcDbEntity
 67
     1
  8
0
100
AcDbBlockBegin
  2
*Paper_Space0
 70
     0
 10
0.0
 20
0.0
 30
0.0
  3
*Paper_Space0
  1

  0
ENDBLK
  5
25
330
23
100
AcDbEntity
 67
     1
  8
0
100
AcDbBlockEnd
  0
BLOCK
  5
74
330
72
100
AcDbEntity
  8
0
100
AcDbBlockBegin
  2
GENAXEH
 70
     0
 10
0.0
 20
0.0
 30
0.0
  3
GENAXEH
  1

  0
LINE
  5
73
330
72
100
AcDbEntity
  8
0
100
AcDbLine
 10
-1.0
 20
0.0
 30
0.0
 11
1.0
 21
0.0
 31
0.0
  0
ENDBLK
  5
75
330
72
100
AcDbEntity
  8
0
100
AcDbBlockEnd
  0
BLOCK
  5
6C7
330
6C4
100
AcDbEntity
  8
0
100
AcDbBlockBegin
  2
_Dot
 70
     0
 10
0.0
 20
0.0
 30
0.0
  3
_Dot
  1

  0
LWPOLYLINE
  5
6C5
330
6C4
100
AcDbEntity
  8
0
  6
ByBlock
 62
     0
100
AcDbPolyline
 90
        2
 70
     1
 43
0.5
 10
-0.25
 20
0.0
 42
1.0
 10
0.25
 20
0.0
 42
1.0
  0
LINE
  5
6C6
330
6C4
100
AcDbEntity
  8
0
  6
ByBlock
 62
     0
370
    -2
100
AcDbLine
 10
-0.5
 20
0.0
 30
0.0
 11
-1.0
 21
0.0
 31
0.0
  0
ENDBLK
  5
6C8
330
6C4
100
AcDbEntity
  8
0
100
AcDbBlockEnd
  0
BLOCK
  5
A6A
330
A66
100
AcDbEntity
  8
0
100
AcDbBlockBegin
  2
_OPEN30
 70
     0
 10
0.0
 20
0.0
 30
0.0
  3
_OPEN30
  1

  0
LINE
  5
A67
330
A66
100
AcDbEntity
  8
0
  6
ByBlock
 62
     0
100
AcDbLine
 10
-1.0
 20
0.26794919
 30
0.0
 11
0.0
 21
0.0
 31
0.0
  0
LINE
  5
A68
330
A66
100
AcDbEntity
  8
0
  6
ByBlock
 62
     0
100
AcDbLine
 10
0.0
 20
0.0
 30
0.0
 11
-1.0
 21
-0.26794919
 31
0.0
  0
LINE
  5
A69
330
A66
100
AcDbEntity
  8
0
  6
ByBlock
 62
     0
100
AcDbLine
 10
0.0
 20
0.0
 30
0.0
 11
-1.0
 21
0.0
 31
0.0
  0
ENDBLK
  5
A6B
330
A66
100
AcDbEntity
  8
0
100
AcDbBlockEnd
  0
BLOCK
  5
4A7D0
330
4A7C6
100
AcDbEntity
  8
0
100
AcDbBlockBegin
  2
*D4
 70
     1
 10
0.0
 20
0.0
 30
0.0
  3
*D4
  1

  0
LINE
  5
5B498
330
4A7C6
100
AcDbEntity
  8
AM_5
100
AcDbLine
 10
6226.338893295856
 20
-3089.104205424678
 30
0.0
 11
6238.424585442856
 21
-3089.104205424678
 31
0.0
  0
LINE
  5
5B499
330
4A7C6
100
AcDbEntity
  8
AM_5
100
AcDbLine
 10
6226.338893295856
 20
-3101.404205424677
 30
0.0
 11
6238.424585442856
 21
-3101.404205424677
 31
0.0
  0
LINE
  5
5B49A
330
4A7C6
100
AcDbEntity
  8
AM_5
100
AcDbLine
 10
6237.424585442854
 20
-3090.104205424677
 30
0.0
 11
6237.424585442854
 21
-3100.404205424677
 31
0.0
  0
INSERT
  5
5B49B
330
4A7C6
100
AcDbEntity
  8
AM_5
100
AcDbBlockReference
  2
_Dot
 10
6237.424585442854
 20
-3089.104205424678
 30
0.0
 50
90.0
  0
INSERT
  5
5B49C
330
4A7C6
100
AcDbEntity
  8
AM_5
100
AcDbBlockReference
  2
_Dot
 10
6237.424585442854
 20
-3101.404205424677
 30
0.0
 50
270.0
  0
MTEXT
  5
5B49D
330
4A7C6
100
AcDbEntity
  8
AM_5
 62
     2
100
AcDbMText
 10
6234.824585442855
 20
-3095.254205424677
 30
0.0
 40
3.200000000000001
 41
0.0
 71
     5
 72
     1
  1
12.3
 11
0.0000000000000001
 21
1.0
 31
0.0
 73
     1
 44
1.0
1001
ACAD
1000
MTEXTBEGIN
1070
    73
1070
     1
1070
    44
1040
1.0
1070
    74
1070
     0
1000
MTEXTEND
  0
POINT
  5
5B49E
330
4A7C6
100
AcDbEntity
  8
Defpoints
 62
     0
100
AcDbPoint
 10
6225.338893295854
 20
-3089.104205424678
 30
0.0
  0
POINT
  5
5B49F
330
4A7C6
100
AcDbEntity
  8
Defpoints
 62
     0
100
AcDbPoint
 10
6225.338893295854
 20
-3101.404205424677
 30
0.0
  0
POINT
  5
5B4A0
330
4A7C6
100
AcDbEntity
  8
Defpoints
 62
     0
100
AcDbPoint
 10
6237.424585442854
 20
-3101.404205424677
 30
0.0
  0
ENDBLK
  5
4A7D1
330
4A7C6
100
AcDbEntity
  8
0
100
AcDbBlockEnd
  0
BLOCK
  5
4A7E6
330
4A7DC
100
AcDbEntity
  8
0
100
AcDbBlockBegin
  2
*D5
 70
     1
 10
0.0
 20
0.0
 30
0.0
  3
*D5
  1

  0
LINE
  5
5B3E8
330
4A7DC
100
AcDbEntity
  8
AM_5
100
AcDbLine
 10
6224.126891250856
 20
-3085.754205424678
 30
0.0
 11
6246.424585442856
 21
-3085.754205424678
 31
0.0
  0
LINE
  5
5B3E9
330
4A7DC
100
AcDbEntity
  8
AM_5
100
AcDbLine
 10
6224.126891250856
 20
-3104.754205424678
 30
0.0
 11
6246.424585442856
 21
-3104.754205424678
 31
0.0
  0
LINE
  5
5B3EA
330
4A7DC
100
AcDbEntity
  8
AM_5
100
AcDbLine
 10
6245.424585442855
 20
-3086.754205424677
 30
0.0
 11
6245.424585442855
 21
-3103.754205424678
 31
0.0
  0
INSERT
  5
5B3EB
330
4A7DC
100
AcDbEntity
  8
AM_5
100
AcDbBlockReference
  2
_Dot
 10
6245.424585442855
 20
-3085.754205424678
 30
0.0
 50
90.0
  0
INSERT
  5
5B3EC
330
4A7DC
100
AcDbEntity
  8
AM_5
100
AcDbBlockReference
  2
_Dot
 10
6245.424585442855
 20
-3104.754205424678
 30
0.0
 50
270.0
  0
MTEXT
  5
5B3ED
330
4A7DC
100
AcDbEntity
  8
AM_5
 62
     2
100
AcDbMText
 10
6242.824585442856
 20
-3095.254205424677
 30
0.0
 40
3.200000000000001
 41
0.0
 71
     5
 72
     1
  1
（19）
 11
0.0000000000000001
 21
1.0
 31
0.0
 73
     1
 44
1.0
1001
ACAD
1000
MTEXTBEGIN
1070
    73
1070
     1
1070
    44
1040
1.0
1070
    74
1070
     0
1000
MTEXTEND
  0
POINT
  5
5B3EE
330
4A7DC
100
AcDbEntity
  8
Defpoints
 62
     0
100
AcDbPoint
 10
6223.126891250856
 20
-3085.754205424678
 30
0.0
  0
POINT
  5
5B3EF
330
4A7DC
100
AcDbEntity
  8
Defpoints
 62
     0
100
AcDbPoint
 10
6223.126891250856
 20
-3104.754205424678
 30
0.0
  0
POINT
  5
5B3F0
330
4A7DC
100
AcDbEntity
  8
Defpoints
 62
     0
100
AcDbPoint
 10
6245.424585442855
 20
-3104.754205424678
 30
0.0
  0
ENDBLK
  5
4A7E7
330
4A7DC
100
AcDbEntity
  8
0
100
AcDbBlockEnd
  0
BLOCK
  5
4A8D0
330
4A8C6
100
AcDbEntity
  8
0
100
AcDbBlockBegin
  2
*D6
 70
     1
 10
0.0
 20
0.0
 30
0.0
  3
*D6
  1

  0
LINE
  5
5B4BC
330
4A8C6
100
AcDbEntity
  8
AM_5
100
AcDbLine
 10
6211.838893295855
 20
-3088.204205424677
 30
0.0
 11
6211.838893295855
 21
-3077.254205424678
 31
0.0
  0
LINE
  5
5B4BD
330
4A8C6
100
AcDbEntity
  8
AM_5
100
AcDbLine
 10
6227.838893295854
 20
-3091.704205424677
 30
0.0
 11
6227.838893295854
 21
-3077.254205424678
 31
0.0
  0
LINE
  5
5B4BE
330
4A8C6
100
AcDbEntity
  8
AM_5
100
AcDbLine
 10
6212.838893295854
 20
-3078.254205424677
 30
0.0
 11
6226.838893295854
 21
-3078.254205424677
 31
0.0
  0
INSERT
  5
5B4BF
330
4A8C6
100
AcDbEntity
  8
AM_5
100
AcDbBlockReference
  2
_Dot
 10
6211.838893295855
 20
-3078.254205424677
 30
0.0
 50
180.0
  0
INSERT
  5
5B4C0
330
4A8C6
100
AcDbEntity
  8
AM_5
100
AcDbBlockReference
  2
_Dot
 10
6227.838893295854
 20
-3078.254205424677
 30
0.0
  0
MTEXT
  5
5B4C1
330
4A8C6
100
AcDbEntity
  8
AM_5
 62
     2
100
AcDbMText
 10
6219.160639322396
 20
-3075.654205424678
 30
0.0
 40
3.200000000000001
 41
0.0
 71
     5
 72
     1
  1
16
 73
     1
 44
1.0
1001
ACAD
1000
MTEXTBEGIN
1070
    73
1070
     1
1070
    44
1040
1.0
1070
    74
1070
     0
1000
MTEXTEND
  0
POINT
  5
5B4C2
330
4A8C6
100
AcDbEntity
  8
Defpoints
 62
     0
100
AcDbPoint
 10
6211.838893295855
 20
-3089.204205424677
 30
0.0
  0
POINT
  5
5B4C3
330
4A8C6
100
AcDbEntity
  8
Defpoints
 62
     0
100
AcDbPoint
 10
6227.838893295854
 20
-3092.704205424678
 30
0.0
  0
POINT
  5
5B4C4
330
4A8C6
100
AcDbEntity
  8
Defpoints
 62
     0
100
AcDbPoint
 10
6227.838893295854
 20
-3078.254205424677
 30
0.0
  0
ENDBLK
  5
4A8D1
330
4A8C6
100
AcDbEntity
  8
0
100
AcDbBlockEnd
  0
BLOCK
  5
4A92D
330
4A923
100
AcDbEntity
  8
0
100
AcDbBlockBegin
  2
*D7
 70
     1
 10
0.0
 20
0.0
 30
0.0
  3
*D7
  1

  0
LINE
  5
5B2E0
330
4A923
100
AcDbEntity
  8
AM_5
100
AcDbLine
 10
6199.126891250855
 20
-3089.254205424678
 30
0.0
 11
6189.026891250854
 21
-3089.254205424678
 31
0.0
  0
LINE
  5
5B2E1
330
4A923
100
AcDbEntity
  8
AM_5
100
AcDbLine
 10
6199.126891250855
 20
-3101.254205424678
 30
0.0
 11
6189.026891250854
 21
-3101.254205424678
 31
0.0
  0
LINE
  5
5B2E2
330
4A923
100
AcDbEntity
  8
AM_5
100
AcDbLine
 10
6190.026891250854
 20
-3090.254205424677
 30
0.0
 11
6190.026891250854
 21
-3100.254205424678
 31
0.0
  0
INSERT
  5
5B2E3
330
4A923
100
AcDbEntity
  8
AM_5
100
AcDbBlockReference
  2
_Dot
 10
6190.026891250854
 20
-3089.254205424678
 30
0.0
 50
90.0
  0
INSERT
  5
5B2E4
330
4A923
100
AcDbEntity
  8
AM_5
100
AcDbBlockReference
  2
_Dot
 10
6190.026891250854
 20
-3101.254205424678
 30
0.0
 50
270.0
  0
MTEXT
  5
5B2E5
330
4A923
100
AcDbEntity
  8
AM_5
 62
     2
100
AcDbMText
 10
6187.426891250854
 20
-3095.254205424677
 30
0.0
 40
3.200000000000001
 41
0.0
 71
     5
 72
     1
  1
12
 11
0.0000000000000001
 21
1.0
 31
0.0
 73
     1
 44
1.0
1001
ACAD
1000
MTEXTBEGIN
1070
    73
1070
     1
1070
    44
1040
1.0
1070
    74
1070
     0
1000
MTEXTEND
  0
POINT
  5
5B2E6
330
4A923
100
AcDbEntity
  8
Defpoints
 62
     0
100
AcDbPoint
 10
6200.126891250856
 20
-3089.254205424678
 30
0.0
  0
POINT
  5
5B2E7
330
4A923
100
AcDbEntity
  8
Defpoints
 62
     0
100
AcDbPoint
 10
6200.126891250856
 20
-3101.254205424678
 30
0.0
  0
POINT
  5
5B2E8
330
4A923
100
AcDbEntity
  8
Defpoints
 62
     0
100
AcDbPoint
 10
6190.026891250854
 20
-3101.254205424678
 30
0.0
  0
ENDBLK
  5
4A92E
330
4A923
100
AcDbEntity
  8
0
100
AcDbBlockEnd
  0
BLOCK
  5
4A944
330
4A939
100
AcDbEntity
  8
0
100
AcDbBlockBegin
  2
*D8
 70
     1
 10
0.0
 20
0.0
 30
0.0
  3
*D8
  1

  0
LINE
  5
5B2CE
330
4A939
100
AcDbEntity
  8
AM_5
100
AcDbLine
 10
6198.126891250856
 20
-3090.254205424677
 30
0.0
 11
6198.126891250856
 21
-3077.254205424677
 31
0.0
  0
LINE
  5
5B2CF
330
4A939
100
AcDbEntity
  8
AM_5
100
AcDbLine
 10
6210.126891250855
 20
-3088.254205424677
 30
0.0
 11
6210.126891250855
 21
-3077.254205424677
 31
0.0
  0
LINE
  5
5B2D0
330
4A939
100
AcDbEntity
  8
AM_5
100
AcDbLine
 10
6199.126891250855
 20
-3078.254205424677
 30
0.0
 11
6209.126891250855
 21
-3078.254205424677
 31
0.0
  0
INSERT
  5
5B2D1
330
4A939
100
AcDbEntity
  8
AM_5
100
AcDbBlockReference
  2
_Dot
 10
6198.126891250856
 20
-3078.254205424677
 30
0.0
 50
180.0
  0
INSERT
  5
5B2D2
330
4A939
100
AcDbEntity
  8
AM_5
100
AcDbBlockReference
  2
_Dot
 10
6210.126891250855
 20
-3078.254205424677
 30
0.0
  0
MTEXT
  5
5B2D3
330
4A939
100
AcDbEntity
  8
AM_5
 62
     2
100
AcDbMText
 10
6204.051891250855
 20
-3075.654205424677
 30
0.0
 40
3.200000000000001
 41
0.0
 71
     5
 72
     1
  1
12
 73
     1
 44
1.0
1001
ACAD
1000
MTEXTBEGIN
1070
    73
1070
     1
1070
    44
1040
1.0
1070
    74
1070
     0
1000
MTEXTEND
  0
POINT
  5
5B2D4
330
4A939
100
AcDbEntity
  8
Defpoints
 62
     0
100
AcDbPoint
 10
6198.126891250856
 20
-3091.254205424677
 30
0.0
  0
POINT
  5
5B2D5
330
4A939
100
AcDbEntity
  8
Defpoints
 62
     0
100
AcDbPoint
 10
6210.126891250855
 20
-3089.254205424678
 30
0.0
  0
POINT
  5
5B2D6
330
4A939
100
AcDbEntity
  8
Defpoints
 62
     0
100
AcDbPoint
 10
6210.126891250855
 20
-3078.254205424677
 30
0.0
  0
ENDBLK
  5
4A945
330
4A939
100
AcDbEntity
  8
0
100
AcDbBlockEnd
  0
BLOCK
  5
4A991
330
4A985
100
AcDbEntity
  8
0
100
AcDbBlockBegin
  2
*D9
 70
     1
 10
0.0
 20
0.0
 30
0.0
  3
*D9
  1

  0
LINE
  5
5B8C1
330
4A985
100
AcDbEntity
  8
AM_5
100
AcDbLine
 10
6209.576891250854
 20
-3102.254205424678
 30
0.0
 11
6212.104510370142
 21
-3102.254205424678
 31
0.0
  0
LINE
  5
5B8C2
330
4A985
100
AcDbEntity
  8
AM_5
100
AcDbLine
 10
6209.576891250854
 20
-3104.754205424678
 30
0.0
 11
6212.104510370142
 21
-3104.754205424678
 31
0.0
  0
LINE
  5
5B8C3
330
4A985
100
AcDbEntity
  8
AM_5
100
AcDbLine
 10
6211.104510370144
 20
-3101.254205424678
 30
0.0
 11
6211.104510370144
 21
-3100.254205424678
 31
0.0
  0
LINE
  5
5B8C4
330
4A985
100
AcDbEntity
  8
AM_5
100
AcDbLine
 10
6211.104510370144
 20
-3105.754205424677
 30
0.0
 11
6211.104510370144
 21
-3115.474205424677
 31
0.0
  0
LINE
  5
5B8C5
330
4A985
100
AcDbEntity
  8
AM_5
100
AcDbLine
 10
6211.104510370144
 20
-3102.254205424678
 30
0.0
 11
6211.104510370144
 21
-3104.754205424678
 31
0.0
  0
INSERT
  5
5B8C6
330
4A985
100
AcDbEntity
  8
AM_5
100
AcDbBlockReference
  2
_Dot
 10
6211.104510370144
 20
-3102.254205424678
 30
0.0
 50
270.0
  0
INSERT
  5
5B8C7
330
4A985
100
AcDbEntity
  8
AM_5
100
AcDbBlockReference
  2
_Dot
 10
6211.104510370144
 20
-3104.754205424678
 30
0.0
 50
90.0
  0
MTEXT
  5
5B8C8
330
4A985
100
AcDbEntity
  8
AM_5
 62
     2
100
AcDbMText
 10
6208.504510370143
 20
-3111.114205424677
 30
0.0
 40
3.200000000000001
 41
0.0
 71
     5
 72
     1
  1
%%c2.5
 11
0.0000000000000001
 21
1.0
 31
0.0
 73
     1
 44
1.0
1001
ACAD
1000
MTEXTBEGIN
1070
    73
1070
     1
1070
    44
1040
1.0
1070
    74
1070
     0
1000
MTEXTEND
  0
POINT
  5
5B8C9
330
4A985
100
AcDbEntity
  8
Defpoints
 62
     0
100
AcDbPoint
 10
6208.576891250855
 20
-3102.254205424678
 30
0.0
  0
POINT
  5
5B8CA
330
4A985
100
AcDbEntity
  8
Defpoints
 62
     0
100
AcDbPoint
 10
6208.576891250855
 20
-3104.754205424678
 30
0.0
  0
POINT
  5
5B8CB
330
4A985
100
AcDbEntity
  8
Defpoints
 62
     0
100
AcDbPoint
 10
6211.104510370144
 20
-3104.754205424678
 30
0.0
  0
ENDBLK
  5
4A992
330
4A985
100
AcDbEntity
  8
0
100
AcDbBlockEnd
  0
BLOCK
  5
4A9EE
330
4A9E2
100
AcDbEntity
  8
0
100
AcDbBlockBegin
  2
*D10
 70
     1
 10
0.0
 20
0.0
 30
0.0
  3
*D10
  1

  0
LINE
  5
5B8CC
330
4A9E2
100
AcDbEntity
  8
AM_5
100
AcDbLine
 10
6225.826891250854
 20
-3134.340808339231
 30
0.0
 11
6238.424585443438
 21
-3134.340808339231
 31
0.0
  0
LINE
  5
5B8CD
330
4A9E2
100
AcDbEntity
  8
AM_5
100
AcDbLine
 10
6216.826891250855
 20
-3135.340808339231
 30
0.0
 11
6238.424585443438
 21
-3135.340808339231
 31
0.0
  0
LINE
  5
5B8CE
330
4A9E2
100
AcDbEntity
  8
AM_5
100
AcDbLine
 10
6237.424585443438
 20
-3133.340808339231
 30
0.0
 11
6237.424585443438
 21
-3132.340808339231
 31
0.0
  0
LINE
  5
5B8CF
330
4A9E2
100
AcDbEntity
  8
AM_5
100
AcDbLine
 10
6237.424585443438
 20
-3136.340808339231
 30
0.0
 11
6237.424585443438
 21
-3139.874141672563
 31
0.0
  0
LINE
  5
5B8D0
330
4A9E2
100
AcDbEntity
  8
AM_5
100
AcDbLine
 10
6237.424585443438
 20
-3134.340808339231
 30
0.0
 11
6237.424585443438
 21
-3135.340808339231
 31
0.0
  0
INSERT
  5
5B8D1
330
4A9E2
100
AcDbEntity
  8
AM_5
100
AcDbBlockReference
  2
_Dot
 10
6237.424585443438
 20
-3134.340808339231
 30
0.0
 50
270.0
  0
INSERT
  5
5B8D2
330
4A9E2
100
AcDbEntity
  8
AM_5
100
AcDbBlockReference
  2
_Dot
 10
6237.424585443438
 20
-3135.340808339231
 30
0.0
 50
90.0
  0
MTEXT
  5
5B8D3
330
4A9E2
100
AcDbEntity
  8
AM_5
 62
     2
100
AcDbMText
 10
6234.82458544344
 20
-3138.607475005896
 30
0.0
 40
3.200000000000001
 41
0.0
 71
     5
 72
     1
  1
1
 11
0.0000000000000001
 21
1.0
 31
0.0
 73
     1
 44
1.0
1001
ACAD
1000
MTEXTBEGIN
1070
    73
1070
     1
1070
    44
1040
1.0
1070
    74
1070
     0
1000
MTEXTEND
  0
POINT
  5
5B8D4
330
4A9E2
100
AcDbEntity
  8
Defpoints
 62
     0
100
AcDbPoint
 10
6224.826891250855
 20
-3134.340808339231
 30
0.0
  0
POINT
  5
5B8D5
330
4A9E2
100
AcDbEntity
  8
Defpoints
 62
     0
100
AcDbPoint
 10
6215.826891250855
 20
-3135.340808339231
 30
0.0
  0
POINT
  5
5B8D6
330
4A9E2
100
AcDbEntity
  8
Defpoints
 62
     0
100
AcDbPoint
 10
6237.424585443438
 20
-3135.340808339231
 30
0.0
  0
ENDBLK
  5
4A9EF
330
4A9E2
100
AcDbEntity
  8
0
100
AcDbBlockEnd
  0
BLOCK
  5
4AA08
330
4A9FD
100
AcDbEntity
  8
0
100
AcDbBlockBegin
  2
*D11
 70
     1
 10
0.0
 20
0.0
 30
0.0
  3
*D11
  1

  0
LINE
  5
5B05C
330
4A9FD
100
AcDbEntity
  8
AM_5
100
AcDbLine
 10
6225.826891250854
 20
-3134.340808339231
 30
0.0
 11
6238.424585443438
 21
-3134.340808339231
 31
0.0
  0
LINE
  5
5B05D
330
4A9FD
100
AcDbEntity
  8
AM_5
100
AcDbLine
 10
6215.768168591855
 20
-3125.90982920023
 30
0.0
 11
6238.424585443438
 21
-3125.90982920023
 31
0.0
  0
LINE
  5
5B05E
330
4A9FD
100
AcDbEntity
  8
AM_5
100
AcDbLine
 10
6237.424585443438
 20
-3133.340808339231
 30
0.0
 11
6237.424585443438
 21
-3126.90982920023
 31
0.0
  0
INSERT
  5
5B05F
330
4A9FD
100
AcDbEntity
  8
AM_5
100
AcDbBlockReference
  2
_Dot
 10
6237.424585443438
 20
-3134.340808339231
 30
0.0
 50
270.0
  0
INSERT
  5
5B060
330
4A9FD
100
AcDbEntity
  8
AM_5
100
AcDbBlockReference
  2
_Dot
 10
6237.424585443438
 20
-3125.90982920023
 30
0.0
 50
90.0
  0
MTEXT
  5
5B061
330
4A9FD
100
AcDbEntity
  8
AM_5
 62
     2
100
AcDbMText
 10
6234.82458544344
 20
-3130.125318769729
 30
0.0
 40
3.200000000000001
 41
0.0
 71
     5
 72
     1
  1
（8.5）
 11
0.0000000000000001
 21
1.0
 31
0.0
 73
     1
 44
1.0
1001
ACAD
1000
MTEXTBEGIN
1070
    73
1070
     1
1070
    44
1040
1.0
1070
    74
1070
     0
1000
MTEXTEND
  0
POINT
  5
5B062
330
4A9FD
100
AcDbEntity
  8
Defpoints
 62
     0
100
AcDbPoint
 10
6224.826891250855
 20
-3134.340808339231
 30
0.0
  0
POINT
  5
5B063
330
4A9FD
100
AcDbEntity
  8
Defpoints
 62
     0
100
AcDbPoint
 10
6214.768168591855
 20
-3125.90982920023
 30
0.0
  0
POINT
  5
5B064
330
4A9FD
100
AcDbEntity
  8
Defpoints
 62
     0
100
AcDbPoint
 10
6237.424585443438
 20
-3125.90982920023
 30
0.0
  0
ENDBLK
  5
4AA09
330
4A9FD
100
AcDbEntity
  8
0
100
AcDbBlockEnd
  0
BLOCK
  5
4AA59
330
4AA4D
100
AcDbEntity
  8
0
100
AcDbBlockBegin
  2
*D12
 70
     1
 10
0.0
 20
0.0
 30
0.0
  3
*D12
  1

  0
LINE
  5
5B360
330
4AA4D
100
AcDbEntity
  8
AM_5
100
AcDbLine
 10
6197.126891250856
 20
-3134.340808339231
 30
0.0
 11
6189.026891250854
 21
-3134.340808339231
 31
0.0
  0
LINE
  5
5B361
330
4AA4D
100
AcDbEntity
  8
AM_5
100
AcDbLine
 10
6197.126891250856
 20
-3132.840808339231
 30
0.0
 11
6189.026891250854
 21
-3132.840808339231
 31
0.0
  0
LINE
  5
5B362
330
4AA4D
100
AcDbEntity
  8
AM_5
100
AcDbLine
 10
6190.026891250854
 20
-3131.840808339231
 30
0.0
 11
6190.026891250854
 21
-3130.840808339231
 31
0.0
  0
LINE
  5
5B363
330
4AA4D
100
AcDbEntity
  8
AM_5
100
AcDbLine
 10
6190.026891250854
 20
-3135.340808339231
 30
0.0
 11
6190.026891250854
 21
-3142.714141672563
 31
0.0
  0
LINE
  5
5B364
330
4AA4D
100
AcDbEntity
  8
AM_5
100
AcDbLine
 10
6190.026891250854
 20
-3132.840808339231
 30
0.0
 11
6190.026891250854
 21
-3134.340808339231
 31
0.0
  0
INSERT
  5
5B365
330
4AA4D
100
AcDbEntity
  8
AM_5
100
AcDbBlockReference
  2
_Dot
 10
6190.026891250854
 20
-3132.840808339231
 30
0.0
 50
270.0
  0
INSERT
  5
5B366
330
4AA4D
100
AcDbEntity
  8
AM_5
100
AcDbBlockReference
  2
_Dot
 10
6190.026891250854
 20
-3134.340808339231
 30
0.0
 50
90.0
  0
MTEXT
  5
5B367
330
4AA4D
100
AcDbEntity
  8
AM_5
 62
     2
100
AcDbMText
 10
6187.426891250854
 20
-3139.527475005895
 30
0.0
 40
3.200000000000001
 41
0.0
 71
     5
 72
     1
  1
1.5
 11
0.0000000000000001
 21
1.0
 31
0.0
 73
     1
 44
1.0
1001
ACAD
1000
MTEXTBEGIN
1070
    73
1070
     1
1070
    44
1040
1.0
1070
    74
1070
     0
1000
MTEXTEND
  0
POINT
  5
5B368
330
4AA4D
100
AcDbEntity
  8
Defpoints
 62
     0
100
AcDbPoint
 10
6198.126891250856
 20
-3134.340808339231
 30
0.0
  0
POINT
  5
5B369
330
4AA4D
100
AcDbEntity
  8
Defpoints
 62
     0
100
AcDbPoint
 10
6198.126891250856
 20
-3132.840808339231
 30
0.0
  0
POINT
  5
5B36A
330
4AA4D
100
AcDbEntity
  8
Defpoints
 62
     0
100
AcDbPoint
 10
6190.026891250854
 20
-3132.840808339231
 30
0.0
  0
ENDBLK
  5
4AA5A
330
4AA4D
100
AcDbEntity
  8
0
100
AcDbBlockEnd
  0
BLOCK
  5
4AA73
330
4AA67
100
AcDbEntity
  8
0
100
AcDbBlockBegin
  2
*D13
 70
     1
 10
0.0
 20
0.0
 30
0.0
  3
*D13
  1

  0
LINE
  5
5B355
330
4AA67
100
AcDbEntity
  8
AM_5
100
AcDbLine
 10
6197.126891250856
 20
-3134.340808339231
 30
0.0
 11
6181.026891250855
 21
-3134.340808339231
 31
0.0
  0
LINE
  5
5B356
330
4AA67
100
AcDbEntity
  8
AM_5
100
AcDbLine
 10
6204.326891250855
 20
-3135.340808339231
 30
0.0
 11
6181.026891250855
 21
-3135.340808339231
 31
0.0
  0
LINE
  5
5B357
330
4AA67
100
AcDbEntity
  8
AM_5
100
AcDbLine
 10
6182.026891250854
 20
-3133.340808339231
 30
0.0
 11
6182.026891250854
 21
-3132.340808339231
 31
0.0
  0
LINE
  5
5B358
330
4AA67
100
AcDbEntity
  8
AM_5
100
AcDbLine
 10
6182.026891250854
 20
-3136.340808339231
 30
0.0
 11
6182.026891250854
 21
-3139.874141672563
 31
0.0
  0
LINE
  5
5B359
330
4AA67
100
AcDbEntity
  8
AM_5
100
AcDbLine
 10
6182.026891250854
 20
-3134.340808339231
 30
0.0
 11
6182.026891250854
 21
-3135.340808339231
 31
0.0
  0
INSERT
  5
5B35A
330
4AA67
100
AcDbEntity
  8
AM_5
100
AcDbBlockReference
  2
_Dot
 10
6182.026891250854
 20
-3134.340808339231
 30
0.0
 50
270.0
  0
INSERT
  5
5B35B
330
4AA67
100
AcDbEntity
  8
AM_5
100
AcDbBlockReference
  2
_Dot
 10
6182.026891250854
 20
-3135.340808339231
 30
0.0
 50
90.0
  0
MTEXT
  5
5B35C
330
4AA67
100
AcDbEntity
  8
AM_5
 62
     2
100
AcDbMText
 10
6179.426891250854
 20
-3138.607475005896
 30
0.0
 40
3.200000000000001
 41
0.0
 71
     5
 72
     1
  1
1
 11
0.0000000000000001
 21
1.0
 31
0.0
 73
     1
 44
1.0
1001
ACAD
1000
MTEXTBEGIN
1070
    73
1070
     1
1070
    44
1040
1.0
1070
    74
1070
     0
1000
MTEXTEND
  0
POINT
  5
5B35D
330
4AA67
100
AcDbEntity
  8
Defpoints
 62
     0
100
AcDbPoint
 10
6198.126891250856
 20
-3134.340808339231
 30
0.0
  0
POINT
  5
5B35E
330
4AA67
100
AcDbEntity
  8
Defpoints
 62
     0
100
AcDbPoint
 10
6205.326891250855
 20
-3135.340808339231
 30
0.0
  0
POINT
  5
5B35F
330
4AA67
100
AcDbEntity
  8
Defpoints
 62
     0
100
AcDbPoint
 10
6182.026891250854
 20
-3135.340808339231
 30
0.0
  0
ENDBLK
  5
4AA74
330
4AA67
100
AcDbEntity
  8
0
100
AcDbBlockEnd
  0
BLOCK
  5
4AA8C
330
4AA81
100
AcDbEntity
  8
0
100
AcDbBlockBegin
  2
*D14
 70
     1
 10
0.0
 20
0.0
 30
0.0
  3
*D14
  1

  0
LINE
  5
5B4DF
330
4AA81
100
AcDbEntity
  8
AM_5
100
AcDbLine
 10
6197.126891250856
 20
-3134.340808339231
 30
0.0
 11
6181.026891250855
 21
-3134.340808339231
 31
0.0
  0
LINE
  5
5B4E0
330
4AA81
100
AcDbEntity
  8
AM_5
100
AcDbLine
 10
6206.326891250855
 20
-3128.340808339231
 30
0.0
 11
6181.026891250855
 21
-3128.340808339231
 31
0.0
  0
LINE
  5
5B4E1
330
4AA81
100
AcDbEntity
  8
AM_5
100
AcDbLine
 10
6182.026891250854
 20
-3133.340808339231
 30
0.0
 11
6182.026891250854
 21
-3129.340808339231
 31
0.0
  0
INSERT
  5
5B4E2
330
4AA81
100
AcDbEntity
  8
AM_5
100
AcDbBlockReference
  2
_Dot
 10
6182.026891250854
 20
-3134.340808339231
 30
0.0
 50
270.0
  0
INSERT
  5
5B4E3
330
4AA81
100
AcDbEntity
  8
AM_5
100
AcDbBlockReference
  2
_Dot
 10
6182.026891250854
 20
-3128.340808339231
 30
0.0
 50
90.0
  0
MTEXT
  5
5B4E4
330
4AA81
100
AcDbEntity
  8
AM_5
 62
     2
100
AcDbMText
 10
6179.426891250854
 20
-3131.590808339228
 30
0.0
 40
3.200000000000001
 41
0.0
 71
     5
 72
     1
  1
6
 11
0.0000000000000001
 21
1.0
 31
0.0
 73
     1
 44
1.0
1001
ACAD
1000
MTEXTBEGIN
1070
    73
1070
     1
1070
    44
1040
1.0
1070
    74
1070
     0
1000
MTEXTEND
  0
POINT
  5
5B4E5
330
4AA81
100
AcDbEntity
  8
Defpoints
 62
     0
100
AcDbPoint
 10
6198.126891250856
 20
-3134.340808339231
 30
0.0
  0
POINT
  5
5B4E6
330
4AA81
100
AcDbEntity
  8
Defpoints
 62
     0
100
AcDbPoint
 10
6207.326891250854
 20
-3128.340808339231
 30
0.0
  0
POINT
  5
5B4E7
330
4AA81
100
AcDbEntity
  8
Defpoints
 62
     0
100
AcDbPoint
 10
6182.026891250854
 20
-3128.340808339231
 30
0.0
  0
ENDBLK
  5
4AA8D
330
4AA81
100
AcDbEntity
  8
0
100
AcDbBlockEnd
  0
BLOCK
  5
4AAFC
330
4AAF0
100
AcDbEntity
  8
0
100
AcDbBlockBegin
  2
*D15
 70
     1
 10
0.0
 20
0.0
 30
0.0
  3
*D15
  1

  0
LINE
  5
5B084
330
4AAF0
100
AcDbEntity
  8
AM_5
100
AcDbLine
 10
6214.826891250854
 20
-3179.299739035688
 30
0.0
 11
6214.826891250854
 21
-3193.433571275026
 31
0.0
  0
LINE
  5
5B085
330
4AAF0
100
AcDbEntity
  8
AM_5
100
AcDbLine
 10
6212.326891250855
 20
-3180.799739035688
 30
0.0
 11
6212.326891250855
 21
-3193.433571275026
 31
0.0
  0
LINE
  5
5B086
330
4AAF0
100
AcDbEntity
  8
AM_5
100
AcDbLine
 10
6215.826891250855
 20
-3192.433571275027
 30
0.0
 11
6216.826891250855
 21
-3192.433571275027
 31
0.0
  0
LINE
  5
5B087
330
4AAF0
100
AcDbEntity
  8
AM_5
100
AcDbLine
 10
6211.326891250855
 20
-3192.433571275027
 30
0.0
 11
6203.633557917521
 21
-3192.433571275027
 31
0.0
  0
LINE
  5
5B088
330
4AAF0
100
AcDbEntity
  8
AM_5
100
AcDbLine
 10
6214.826891250854
 20
-3192.433571275027
 30
0.0
 11
6212.326891250855
 21
-3192.433571275027
 31
0.0
  0
INSERT
  5
5B089
330
4AAF0
100
AcDbEntity
  8
AM_5
100
AcDbBlockReference
  2
_Dot
 10
6214.826891250854
 20
-3192.433571275027
 30
0.0
 50
180.0
  0
INSERT
  5
5B08A
330
4AAF0
100
AcDbEntity
  8
AM_5
100
AcDbBlockReference
  2
_Dot
 10
6212.326891250855
 20
-3192.433571275027
 30
0.0
  0
MTEXT
  5
5B08B
330
4AAF0
100
AcDbEntity
  8
AM_5
 62
     2
100
AcDbMText
 10
6206.980224584189
 20
-3189.833571275026
 30
0.0
 40
3.200000000000001
 41
0.0
 71
     5
 72
     1
  1
2.5
 73
     1
 44
1.0
1001
ACAD
1000
MTEXTBEGIN
1070
    73
1070
     1
1070
    44
1040
1.0
1070
    74
1070
     0
1000
MTEXTEND
  0
POINT
  5
5B08C
330
4AAF0
100
AcDbEntity
  8
Defpoints
 62
     0
100
AcDbPoint
 10
6214.826891250854
 20
-3178.299739035687
 30
0.0
  0
POINT
  5
5B08D
330
4AAF0
100
AcDbEntity
  8
Defpoints
 62
     0
100
AcDbPoint
 10
6212.326891250855
 20
-3179.799739035687
 30
0.0
  0
POINT
  5
5B08E
330
4AAF0
100
AcDbEntity
  8
Defpoints
 62
     0
100
AcDbPoint
 10
6212.326891250855
 20
-3192.433571275027
 30
0.0
  0
ENDBLK
  5
4AAFD
330
4AAF0
100
AcDbEntity
  8
0
100
AcDbBlockEnd
  0
BLOCK
  5
4AB20
330
4AB15
100
AcDbEntity
  8
0
100
AcDbBlockBegin
  2
*D16
 70
     1
 10
0.0
 20
0.0
 30
0.0
  3
*D16
  1

  0
LINE
  5
5B08F
330
4AB15
100
AcDbEntity
  8
AM_5
100
AcDbLine
 10
6214.826891250854
 20
-3179.299739035688
 30
0.0
 11
6214.826891250854
 21
-3193.433571275026
 31
0.0
  0
LINE
  5
5B090
330
4AB15
100
AcDbEntity
  8
AM_5
100
AcDbLine
 10
6221.326891250854
 20
-3181.299739035687
 30
0.0
 11
6221.326891250854
 21
-3193.433571275026
 31
0.0
  0
LINE
  5
5B091
330
4AB15
100
AcDbEntity
  8
AM_5
100
AcDbLine
 10
6215.826891250855
 20
-3192.433571275027
 30
0.0
 11
6220.326891250855
 21
-3192.433571275027
 31
0.0
  0
LINE
  5
5B092
330
4AB15
100
AcDbEntity
  8
AM_5
100
AcDbLine
 10
6221.326891250854
 20
-3192.433571275027
 30
0.0
 11
6228.913557917522
 21
-3192.433571275027
 31
0.0
  0
INSERT
  5
5B093
330
4AB15
100
AcDbEntity
  8
AM_5
100
AcDbBlockReference
  2
_Dot
 10
6214.826891250854
 20
-3192.433571275027
 30
0.0
 50
180.0
  0
INSERT
  5
5B094
330
4AB15
100
AcDbEntity
  8
AM_5
100
AcDbBlockReference
  2
_Dot
 10
6221.326891250854
 20
-3192.433571275027
 30
0.0
  0
MTEXT
  5
5B095
330
4AB15
100
AcDbEntity
  8
AM_5
 62
     2
100
AcDbMText
 10
6225.620224584186
 20
-3189.833571275026
 30
0.0
 40
3.200000000000001
 41
0.0
 71
     5
 72
     1
  1
6.5
 73
     1
 44
1.0
1001
ACAD
1000
MTEXTBEGIN
1070
    73
1070
     1
1070
    44
1040
1.0
1070
    74
1070
     0
1000
MTEXTEND
  0
POINT
  5
5B096
330
4AB15
100
AcDbEntity
  8
Defpoints
 62
     0
100
AcDbPoint
 10
6214.826891250854
 20
-3178.299739035687
 30
0.0
  0
POINT
  5
5B097
330
4AB15
100
AcDbEntity
  8
Defpoints
 62
     0
100
AcDbPoint
 10
6221.326891250854
 20
-3180.299739035687
 30
0.0
  0
POINT
  5
5B098
330
4AB15
100
AcDbEntity
  8
Defpoints
 62
     0
100
AcDbPoint
 10
6221.326891250854
 20
-3192.433571275027
 30
0.0
  0
ENDBLK
  5
4AB21
330
4AB15
100
AcDbEntity
  8
0
100
AcDbBlockEnd
  0
BLOCK
  5
4AB4F
330
4AB43
100
AcDbEntity
  8
0
100
AcDbBlockBegin
  2
*D17
 70
     1
 10
0.0
 20
0.0
 30
0.0
  3
*D17
  1

  0
LINE
  5
5B099
330
4AB43
100
AcDbEntity
  8
AM_5
100
AcDbLine
 10
6206.326891250855
 20
-3171.299739035687
 30
0.0
 11
6206.326891250855
 21
-3149.299739035687
 31
0.0
  0
LINE
  5
5B09A
330
4AB43
100
AcDbEntity
  8
AM_5
100
AcDbLine
 10
6201.326891250855
 20
-3169.299739035687
 30
0.0
 11
6201.326891250855
 21
-3149.299739035687
 31
0.0
  0
LINE
  5
5B09B
330
4AB43
100
AcDbEntity
  8
AM_5
100
AcDbLine
 10
6205.326891250855
 20
-3150.299739035688
 30
0.0
 11
6202.326891250855
 21
-3150.299739035688
 31
0.0
  0
INSERT
  5
5B09C
330
4AB43
100
AcDbEntity
  8
AM_5
100
AcDbBlockReference
  2
_Dot
 10
6206.326891250855
 20
-3150.299739035688
 30
0.0
  0
INSERT
  5
5B09D
330
4AB43
100
AcDbEntity
  8
AM_5
100
AcDbBlockReference
  2
_Dot
 10
6201.326891250855
 20
-3150.299739035688
 30
0.0
 50
180.0
  0
MTEXT
  5
5B09E
330
4AB43
100
AcDbEntity
  8
AM_5
 62
     2
100
AcDbMText
 10
6203.835819359875
 20
-3147.699739035688
 30
0.0
 40
3.200000000000001
 41
0.0
 71
     5
 72
     1
  1
5
 73
     1
 44
1.0
1001
ACAD
1000
MTEXTBEGIN
1070
    73
1070
     1
1070
    44
1040
1.0
1070
    74
1070
     0
1000
MTEXTEND
  0
POINT
  5
5B09F
330
4AB43
100
AcDbEntity
  8
Defpoints
 62
     0
100
AcDbPoint
 10
6206.326891250855
 20
-3172.299739035687
 30
0.0
  0
POINT
  5
5B0A0
330
4AB43
100
AcDbEntity
  8
Defpoints
 62
     0
100
AcDbPoint
 10
6201.326891250855
 20
-3170.299739035688
 30
0.0
  0
POINT
  5
5B0A1
330
4AB43
100
AcDbEntity
  8
Defpoints
 62
     0
100
AcDbPoint
 10
6201.326891250855
 20
-3150.299739035688
 30
0.0
  0
ENDBLK
  5
4AB50
330
4AB43
100
AcDbEntity
  8
0
100
AcDbBlockEnd
  0
BLOCK
  5
4ACD8
330
4ACCE
100
AcDbEntity
  8
0
100
AcDbBlockBegin
  2
*D18
 70
     1
 10
0.0
 20
0.0
 30
0.0
  3
*D18
  1

  0
LINE
  5
5B0A2
330
4ACCE
100
AcDbEntity
  8
AM_5
100
AcDbLine
 10
6214.826891250854
 20
-3171.299739035687
 30
0.0
 11
6214.826891250854
 21
-3149.299739035687
 31
0.0
  0
LINE
  5
5B0A3
330
4ACCE
100
AcDbEntity
  8
AM_5
100
AcDbLine
 10
6206.326891250855
 20
-3171.299739035687
 30
0.0
 11
6206.326891250855
 21
-3149.299739035687
 31
0.0
  0
LINE
  5
5B0A4
330
4ACCE
100
AcDbEntity
  8
AM_5
100
AcDbLine
 10
6213.826891250855
 20
-3150.299739035688
 30
0.0
 11
6207.326891250854
 21
-3150.299739035688
 31
0.0
  0
INSERT
  5
5B0A5
330
4ACCE
100
AcDbEntity
  8
AM_5
100
AcDbBlockReference
  2
_Dot
 10
6214.826891250854
 20
-3150.299739035688
 30
0.0
  0
INSERT
  5
5B0A6
330
4ACCE
100
AcDbEntity
  8
AM_5
100
AcDbBlockReference
  2
_Dot
 10
6206.326891250855
 20
-3150.299739035688
 30
0.0
 50
180.0
  0
MTEXT
  5
5B0A7
330
4ACCE
100
AcDbEntity
  8
AM_5
 62
     2
100
AcDbMText
 10
6210.576891250855
 20
-3147.699739035688
 30
0.0
 40
3.200000000000001
 41
0.0
 71
     5
 72
     1
  1
（8.1）
 73
     1
 44
1.0
1001
ACAD
1000
MTEXTBEGIN
1070
    73
1070
     1
1070
    44
1040
1.0
1070
    74
1070
     0
1000
MTEXTEND
  0
POINT
  5
5B0A8
330
4ACCE
100
AcDbEntity
  8
Defpoints
 62
     0
100
AcDbPoint
 10
6214.826891250854
 20
-3172.299739035687
 30
0.0
  0
POINT
  5
5B0A9
330
4ACCE
100
AcDbEntity
  8
Defpoints
 62
     0
100
AcDbPoint
 10
6206.326891250855
 20
-3172.299739035687
 30
0.0
  0
POINT
  5
5B0AA
330
4ACCE
100
AcDbEntity
  8
Defpoints
 62
     0
100
AcDbPoint
 10
6206.326891250855
 20
-3150.299739035688
 30
0.0
  0
ENDBLK
  5
4ACD9
330
4ACCE
100
AcDbEntity
  8
0
100
AcDbBlockEnd
  0
BLOCK
  5
53A65
330
53A5B
100
AcDbEntity
  8
0
100
AcDbBlockBegin
  2
*D19
 70
     1
 10
0.0
 20
0.0
 30
0.0
  3
*D19
  1

  0
LINE
  5
5B340
330
53A5B
100
AcDbEntity
  8
AM_5
100
AcDbLine
 10
6206.326891250855
 20
-3171.299739035687
 30
0.0
 11
6206.326891250855
 21
-3157.299739035688
 31
0.0
  0
LINE
  5
5B341
330
53A5B
100
AcDbEntity
  8
AM_5
100
AcDbLine
 10
6210.126891250855
 20
-3168.299739035687
 30
0.0
 11
6210.126891250855
 21
-3157.299739035688
 31
0.0
  0
LINE
  5
5B342
330
53A5B
100
AcDbEntity
  8
AM_5
100
AcDbLine
 10
6205.326891250855
 20
-3158.299739035687
 30
0.0
 11
6204.326891250855
 21
-3158.299739035687
 31
0.0
  0
LINE
  5
5B343
330
53A5B
100
AcDbEntity
  8
AM_5
100
AcDbLine
 10
6211.126891250855
 20
-3158.299739035687
 30
0.0
 11
6224.729412860295
 21
-3158.299739035687
 31
0.0
  0
LINE
  5
5B344
330
53A5B
100
AcDbEntity
  8
AM_5
100
AcDbLine
 10
6206.326891250855
 20
-3158.299739035687
 30
0.0
 11
6210.126891250855
 21
-3158.299739035687
 31
0.0
  0
INSERT
  5
5B345
330
53A5B
100
AcDbEntity
  8
AM_5
100
AcDbBlockReference
  2
_Dot
 10
6206.326891250855
 20
-3158.299739035687
 30
0.0
  0
INSERT
  5
5B346
330
53A5B
100
AcDbEntity
  8
AM_5
100
AcDbBlockReference
  2
_Dot
 10
6210.126891250855
 20
-3158.299739035687
 30
0.0
 50
180.0
  0
MTEXT
  5
5B347
330
53A5B
100
AcDbEntity
  8
AM_5
 62
     2
100
AcDbMText
 10
6220.017412860296
 20
-3155.699739035688
 30
0.0
 40
3.200000000000001
 41
0.0
 71
     5
 72
     1
  1
（3.8）
 73
     1
 44
1.0
1001
ACAD
1000
MTEXTBEGIN
1070
    73
1070
     1
1070
    44
1040
1.0
1070
    74
1070
     0
1000
MTEXTEND
  0
POINT
  5
5B348
330
53A5B
100
AcDbEntity
  8
Defpoints
 62
     0
100
AcDbPoint
 10
6206.326891250855
 20
-3172.299739035687
 30
0.0
  0
POINT
  5
5B349
330
53A5B
100
AcDbEntity
  8
Defpoints
 62
     0
100
AcDbPoint
 10
6210.126891250855
 20
-3169.299739035687
 30
0.0
  0
POINT
  5
5B34A
330
53A5B
100
AcDbEntity
  8
Defpoints
 62
     0
100
AcDbPoint
 10
6210.126891250855
 20
-3158.299739035687
 30
0.0
  0
ENDBLK
  5
53A66
330
53A5B
100
AcDbEntity
  8
0
100
AcDbBlockEnd
  0
BLOCK
  5
53ACF
330
53AC8
100
AcDbEntity
  8
0
100
AcDbBlockBegin
  2
*D20
 70
     1
 10
0.0
 20
0.0
 30
0.0
  3
*D20
  1

  0
LINE
  5
5B0B6
330
53AC8
100
AcDbEntity
  8
AM_5
100
AcDbLine
 10
6179.39922435691
 20
-3187.850813865649
 30
0.0
 11
6197.956557690243
 21
-3187.850813865649
 31
0.0
  0
LINE
  5
5B0B7
330
53AC8
100
AcDbEntity
  8
AM_5
100
AcDbLine
 10
6197.956557690243
 20
-3187.850813865649
 30
0.0
 11
6205.217220089181
 21
-3176.963659079726
 31
0.0
  0
LINE
  5
5B0B8
330
53AC8
100
AcDbEntity
  8
AM_5
100
AcDbLine
 10
6207.436562412524
 20
-3173.635818991647
 30
0.0
 11
6207.991397993362
 21
-3172.803858969629
 31
0.0
  0
MTEXT
  5
5B0B9
330
53AC8
100
AcDbEntity
  8
AM_5
 62
     2
100
AcDbMText
 10
6188.177891023578
 20
-3185.250813865649
 30
0.0
 40
3.2
 41
0.0
 71
     5
 72
     1
  1
2-\U+22052（ボス）
 73
     1
 44
1.0
1001
ACAD
1000
MTEXTBEGIN
1070
    73
1070
     1
1070
    44
1040
1.0
1070
    74
1070
     0
1000
MTEXTEND
  0
LINE
  5
5B0BA
330
53AC8
100
AcDbEntity
  8
AM_5
100
AcDbLine
 10
6206.88172683169
 20
-3174.467779013667
 30
0.0
 11
6205.772055670017
 21
-3176.131699057706
 31
0.0
  0
INSERT
  5
5B0BB
330
53AC8
100
AcDbEntity
  8
AM_5
100
AcDbBlockReference
  2
_Dot
 10
6206.88172683169
 20
-3174.467779013667
 30
0.0
 50
236.300609254444
  0
INSERT
  5
5B0BC
330
53AC8
100
AcDbEntity
  8
AM_5
100
AcDbBlockReference
  2
_Dot
 10
6205.772055670017
 20
-3176.131699057706
 30
0.0
 50
56.30060925444411
  0
POINT
  5
5B0BD
330
53AC8
100
AcDbEntity
  8
Defpoints
 62
     0
100
AcDbPoint
 10
6205.772055670017
 20
-3176.131699057706
 30
0.0
  0
POINT
  5
5B0BE
330
53AC8
100
AcDbEntity
  8
Defpoints
 62
     0
100
AcDbPoint
 10
6206.88172683169
 20
-3174.467779013667
 30
0.0
  0
ENDBLK
  5
53AD0
330
53AC8
100
AcDbEntity
  8
0
100
AcDbBlockEnd
  0
BLOCK
  5
596F2
330
596EB
100
AcDbEntity
  8
0
100
AcDbBlockBegin
  2
*D21
 70
     1
 10
0.0
 20
0.0
 30
0.0
  3
*D21
  1

  0
LINE
  5
5B0BF
330
596EB
100
AcDbEntity
  8
AM_5
100
AcDbLine
 10
6174.347014872061
 20
-3165.672502732806
 30
0.0
 11
6193.71501487206
 21
-3165.672502732806
 31
0.0
  0
LINE
  5
5B0C0
330
596EB
100
AcDbEntity
  8
AM_5
100
AcDbLine
 10
6193.71501487206
 20
-3165.672502732806
 30
0.0
 11
6198.970064041496
 21
-3172.318906013653
 31
0.0
  0
LINE
  5
5B0C1
330
596EB
100
AcDbEntity
  8
AM_5
100
AcDbLine
 10
6203.68371846021
 20
-3178.280572057719
 30
0.0
 11
6204.303936146883
 21
-3179.065001800359
 31
0.0
  0
MTEXT
  5
5B0C2
330
596EB
100
AcDbEntity
  8
AM_5
 62
     2
100
AcDbMText
 10
6183.531014872063
 20
-3163.072502732806
 30
0.0
 40
3.2
 41
0.0
 71
     5
 72
     1
  1
%%c4×\U+22055.6サラ
 73
     1
 44
1.0
1001
ACAD
1000
MTEXTBEGIN
1070
    73
1070
     1
1070
    44
1040
1.0
1070
    74
1070
     0
1000
MTEXTEND
  0
LINE
  5
5B0C3
330
596EB
100
AcDbEntity
  8
AM_5
100
AcDbLine
 10
6203.063500773536
 20
-3177.49614231508
 30
0.0
 11
6199.590281728169
 21
-3173.103335756293
 31
0.0
  0
INSERT
  5
5B0C4
330
596EB
100
AcDbEntity
  8
AM_5
100
AcDbBlockReference
  2
_Dot
 10
6203.063500773536
 20
-3177.49614231508
 30
0.0
 50
128.3320328506027
  0
INSERT
  5
5B0C5
330
596EB
100
AcDbEntity
  8
AM_5
100
AcDbBlockReference
  2
_Dot
 10
6199.590281728169
 20
-3173.103335756293
 30
0.0
 50
308.3320328506027
  0
POINT
  5
5B0C6
330
596EB
100
AcDbEntity
  8
Defpoints
 62
     0
100
AcDbPoint
 10
6199.590281728169
 20
-3173.103335756293
 30
0.0
  0
POINT
  5
5B0C7
330
596EB
100
AcDbEntity
  8
Defpoints
 62
     0
100
AcDbPoint
 10
6203.063500773536
 20
-3177.49614231508
 30
0.0
  0
ENDBLK
  5
596F3
330
596EB
100
AcDbEntity
  8
0
100
AcDbBlockEnd
  0
BLOCK
  5
5973E
330
59734
100
AcDbEntity
  8
0
100
AcDbBlockBegin
  2
*D22
 70
     1
 10
0.0
 20
0.0
 30
0.0
  3
*D22
  1

  0
LINE
  5
5B8E9
330
59734
100
AcDbEntity
  8
AM_5
 48
0.5
100
AcDbLine
 10
6250.411381951134
 20
-3165.672502732812
 30
0.0
 11
6231.043381951131
 21
-3165.672502732811
 31
0.0
  0
LINE
  5
5B8EA
330
59734
100
AcDbEntity
  8
AM_5
 48
0.5
100
AcDbLine
 10
6231.043381951131
 20
-3165.672502732811
 30
0.0
 11
6224.026266468142
 21
-3172.625159921827
 31
0.0
  0
LINE
  5
5B8EB
330
59734
100
AcDbEntity
  8
AM_5
 48
0.5
100
AcDbLine
 10
6218.627516033564
 20
-3177.974318149545
 30
0.0
 11
6217.917154134276
 21
-3178.678154758455
 31
0.0
  0
MTEXT
  5
5B8EC
330
59734
100
AcDbEntity
  8
AM_5
 62
     2
 48
0.5
370
    13
100
AcDbMText
 10
6241.227381951134
 20
-3163.072502732811
 30
0.0
 40
3.2
 41
0.0
 71
     5
 72
     1
  1
%%c4×\U+22055.6サラ
 73
     1
 44
1.0
1001
ACAD
1000
MTEXTBEGIN
1070
    73
1070
     1
1070
    44
1040
1.0
1070
    74
1070
     0
1000
MTEXTEND
  0
LINE
  5
5B8ED
330
59734
100
AcDbEntity
  8
AM_5
 48
0.5
100
AcDbLine
 10
6219.337877932851
 20
-3177.270481540635
 30
0.0
 11
6223.315904568855
 21
-3173.328996530737
 31
0.0
  0
INSERT
  5
5B8EE
330
59734
100
AcDbEntity
  8
AM_5
 48
0.5
100
AcDbBlockReference
  2
_Dot
 10
6219.337877932851
 20
-3177.270481540635
 30
0.0
 50
44.73563191923161
  0
INSERT
  5
5B8EF
330
59734
100
AcDbEntity
  8
AM_5
 48
0.5
100
AcDbBlockReference
  2
_Dot
 10
6223.315904568855
 20
-3173.328996530737
 30
0.0
 50
224.7356319192316
  0
POINT
  5
5B8F0
330
59734
100
AcDbEntity
  8
Defpoints
 62
     0
 48
0.5
100
AcDbPoint
 10
6223.315904568855
 20
-3173.328996530737
 30
0.0
  0
POINT
  5
5B8F1
330
59734
100
AcDbEntity
  8
Defpoints
 62
     0
 48
0.5
100
AcDbPoint
 10
6219.337877932851
 20
-3177.270481540635
 30
0.0
  0
ENDBLK
  5
5973F
330
59734
100
AcDbEntity
  8
0
100
AcDbBlockEnd
  0
BLOCK
  5
5ACD7
330
5ACCB
100
AcDbEntity
  8
0
100
AcDbBlockBegin
  2
*D23
 70
     1
 10
0.0
 20
0.0
 30
0.0
  3
*D23
  1

  0
LINE
  5
5B0D1
330
5ACCB
100
AcDbEntity
  8
AM_5
100
AcDbLine
 10
6284.264914088147
 20
-3170.549739035688
 30
0.0
 11
6284.264914088147
 21
-3164.549739035688
 31
0.0
  0
LINE
  5
5B0D2
330
5ACCB
100
AcDbEntity
  8
AM_5
100
AcDbLine
 10
6289.264914088149
 20
-3171.249739035688
 30
0.0
 11
6289.264914088149
 21
-3164.549739035688
 31
0.0
  0
LINE
  5
5B0D3
330
5ACCB
100
AcDbEntity
  8
AM_5
100
AcDbLine
 10
6285.264914088148
 20
-3165.549739035688
 30
0.0
 11
6288.264914088149
 21
-3165.549739035688
 31
0.0
  0
INSERT
  5
5B0D4
330
5ACCB
100
AcDbEntity
  8
AM_5
100
AcDbBlockReference
  2
_Dot
 10
6284.264914088147
 20
-3165.549739035688
 30
0.0
 50
180.0
  0
INSERT
  5
5B0D5
330
5ACCB
100
AcDbEntity
  8
AM_5
100
AcDbBlockReference
  2
_Dot
 10
6289.264914088149
 20
-3165.549739035688
 30
0.0
  0
MTEXT
  5
5B0D6
330
5ACCB
100
AcDbEntity
  8
AM_5
 62
     2
100
AcDbMText
 10
6286.764914088148
 20
-3162.949739035688
 30
0.0
 40
3.200000000000001
 41
0.0
 71
     5
 72
     1
  1
5
 73
     1
 44
1.0
1001
ACAD
1000
MTEXTBEGIN
1070
    73
1070
     1
1070
    44
1040
1.0
1070
    74
1070
     0
1000
MTEXTEND
  0
POINT
  5
5B0D7
330
5ACCB
100
AcDbEntity
  8
Defpoints
 62
     0
100
AcDbPoint
 10
6284.264914088147
 20
-3171.549739035688
 30
0.0
  0
POINT
  5
5B0D8
330
5ACCB
100
AcDbEntity
  8
Defpoints
 62
     0
100
AcDbPoint
 10
6289.264914088149
 20
-3172.249739035688
 30
0.0
  0
POINT
  5
5B0D9
330
5ACCB
100
AcDbEntity
  8
Defpoints
 62
     0
100
AcDbPoint
 10
6289.264914088149
 20
-3165.549739035688
 30
0.0
  0
ENDBLK
  5
5ACD8
330
5ACCB
100
AcDbEntity
  8
0
100
AcDbBlockEnd
  0
BLOCK
  5
5ACED
330
5ACE3
100
AcDbEntity
  8
0
100
AcDbBlockBegin
  2
*D24
 70
     1
 10
0.0
 20
0.0
 30
0.0
  3
*D24
  1

  0
LINE
  5
5B0DA
330
5ACE3
100
AcDbEntity
  8
AM_5
100
AcDbLine
 10
6289.264914088149
 20
-3171.249739035688
 30
0.0
 11
6289.264914088149
 21
-3164.549739035688
 31
0.0
  0
LINE
  5
5B0DB
330
5ACE3
100
AcDbEntity
  8
AM_5
100
AcDbLine
 10
6297.764914088149
 20
-3171.249739035688
 30
0.0
 11
6297.764914088149
 21
-3164.549739035688
 31
0.0
  0
LINE
  5
5B0DC
330
5ACE3
100
AcDbEntity
  8
AM_5
100
AcDbLine
 10
6290.264914088147
 20
-3165.549739035688
 30
0.0
 11
6296.764914088146
 21
-3165.549739035688
 31
0.0
  0
INSERT
  5
5B0DD
330
5ACE3
100
AcDbEntity
  8
AM_5
100
AcDbBlockReference
  2
_Dot
 10
6289.264914088149
 20
-3165.549739035688
 30
0.0
 50
180.0
  0
INSERT
  5
5B0DE
330
5ACE3
100
AcDbEntity
  8
AM_5
100
AcDbBlockReference
  2
_Dot
 10
6297.764914088149
 20
-3165.549739035688
 30
0.0
  0
MTEXT
  5
5B0DF
330
5ACE3
100
AcDbEntity
  8
AM_5
 62
     2
100
AcDbMText
 10
6293.514914088149
 20
-3162.949739035688
 30
0.0
 40
3.200000000000001
 41
0.0
 71
     5
 72
     1
  1
8.5
 73
     1
 44
1.0
1001
ACAD
1000
MTEXTBEGIN
1070
    73
1070
     1
1070
    44
1040
1.0
1070
    74
1070
     0
1000
MTEXTEND
  0
POINT
  5
5B0E0
330
5ACE3
100
AcDbEntity
  8
Defpoints
 62
     0
100
AcDbPoint
 10
6289.264914088149
 20
-3172.249739035688
 30
0.0
  0
POINT
  5
5B0E1
330
5ACE3
100
AcDbEntity
  8
Defpoints
 62
     0
100
AcDbPoint
 10
6297.764914088149
 20
-3172.249739035688
 30
0.0
  0
POINT
  5
5B0E2
330
5ACE3
100
AcDbEntity
  8
Defpoints
 62
     0
100
AcDbPoint
 10
6297.764914088149
 20
-3165.549739035688
 30
0.0
  0
ENDBLK
  5
5ACEE
330
5ACE3
100
AcDbEntity
  8
0
100
AcDbBlockEnd
  0
BLOCK
  5
5AD04
330
5ACF9
100
AcDbEntity
  8
0
100
AcDbBlockBegin
  2
*D25
 70
     1
 10
0.0
 20
0.0
 30
0.0
  3
*D25
  1

  0
LINE
  5
5B0E3
330
5ACF9
100
AcDbEntity
  8
AM_5
100
AcDbLine
 10
6297.764914088149
 20
-3171.249739035688
 30
0.0
 11
6297.764914088149
 21
-3164.549739035688
 31
0.0
  0
LINE
  5
5B0E4
330
5ACF9
100
AcDbEntity
  8
AM_5
100
AcDbLine
 10
6304.264914088149
 20
-3170.549739035688
 30
0.0
 11
6304.264914088149
 21
-3164.549739035688
 31
0.0
  0
LINE
  5
5B0E5
330
5ACF9
100
AcDbEntity
  8
AM_5
100
AcDbLine
 10
6298.764914088149
 20
-3165.549739035688
 30
0.0
 11
6303.264914088146
 21
-3165.549739035688
 31
0.0
  0
INSERT
  5
5B0E6
330
5ACF9
100
AcDbEntity
  8
AM_5
100
AcDbBlockReference
  2
_Dot
 10
6297.764914088149
 20
-3165.549739035688
 30
0.0
 50
180.0
  0
INSERT
  5
5B0E7
330
5ACF9
100
AcDbEntity
  8
AM_5
100
AcDbBlockReference
  2
_Dot
 10
6304.264914088149
 20
-3165.549739035688
 30
0.0
  0
MTEXT
  5
5B0E8
330
5ACF9
100
AcDbEntity
  8
AM_5
 62
     2
100
AcDbMText
 10
6300.890218028885
 20
-3162.949739035688
 30
0.0
 40
3.200000000000001
 41
0.0
 71
     5
 72
     1
  1
6.5
 73
     1
 44
1.0
1001
ACAD
1000
MTEXTBEGIN
1070
    73
1070
     1
1070
    44
1040
1.0
1070
    74
1070
     0
1000
MTEXTEND
  0
POINT
  5
5B0E9
330
5ACF9
100
AcDbEntity
  8
Defpoints
 62
     0
100
AcDbPoint
 10
6297.764914088149
 20
-3172.249739035688
 30
0.0
  0
POINT
  5
5B0EA
330
5ACF9
100
AcDbEntity
  8
Defpoints
 62
     0
100
AcDbPoint
 10
6304.264914088149
 20
-3171.549739035688
 30
0.0
  0
POINT
  5
5B0EB
330
5ACF9
100
AcDbEntity
  8
Defpoints
 62
     0
100
AcDbPoint
 10
6304.264914088149
 20
-3165.549739035688
 30
0.0
  0
ENDBLK
  5
5AD05
330
5ACF9
100
AcDbEntity
  8
0
100
AcDbBlockEnd
  0
BLOCK
  5
5AD22
330
5AD1B
100
AcDbEntity
  8
0
100
AcDbBlockBegin
  2
*D26
 70
     1
 10
0.0
 20
0.0
 30
0.0
  3
*D26
  1

  0
LINE
  5
5B995
330
5AD1B
100
AcDbEntity
  8
AM_5
100
AcDbLine
 10
6266.103116876466
 20
-3183.047656893401
 30
0.0
 11
6278.729783543138
 21
-3183.047656893402
 31
0.0
  0
LINE
  5
5B996
330
5AD1B
100
AcDbEntity
  8
AM_5
100
AcDbLine
 10
6278.729783543138
 20
-3183.047656893402
 30
0.0
 11
6282.08503525543
 21
-3178.351071248783
 31
0.0
  0
LINE
  5
5B997
330
5AD1B
100
AcDbEntity
  8
AM_5
100
AcDbLine
 10
6286.444792920869
 20
-3172.248406822596
 30
0.0
 11
6287.607394964986
 21
-3170.621029642279
 31
0.0
  0
MTEXT
  5
5B998
330
5AD1B
100
AcDbEntity
  8
AM_5
 62
     2
100
AcDbMText
 10
6271.9164502098
 20
-3180.447656893402
 30
0.0
 40
3.2
 41
0.0
 71
     5
 72
     1
  1
2-\U+22053.5
 73
     1
 44
1.0
1001
ACAD
1000
MTEXTBEGIN
1070
    73
1070
     1
1070
    44
1040
1.0
1070
    74
1070
     0
1000
MTEXTEND
  0
LINE
  5
5B999
330
5AD1B
100
AcDbEntity
  8
AM_5
100
AcDbLine
 10
6285.282190876753
 20
-3173.875784002912
 30
0.0
 11
6283.247637299548
 21
-3176.723694068466
 31
0.0
  0
INSERT
  5
5B99A
330
5AD1B
100
AcDbEntity
  8
AM_5
100
AcDbBlockReference
  2
GENDOT
 10
6285.282190876753
 20
-3173.875784002912
 30
0.0
 41
2.0
 42
2.0
 43
2.0
 50
234.4578982804343
  0
INSERT
  5
5B99B
330
5AD1B
100
AcDbEntity
  8
AM_5
100
AcDbBlockReference
  2
GENDOT
 10
6283.247637299548
 20
-3176.723694068466
 30
0.0
 41
2.0
 42
2.0
 43
2.0
 50
54.45789828043428
  0
POINT
  5
5B99C
330
5AD1B
100
AcDbEntity
  8
Defpoints
 62
     0
100
AcDbPoint
 10
6283.247637299548
 20
-3176.723694068466
 30
0.0
  0
POINT
  5
5B99D
330
5AD1B
100
AcDbEntity
  8
Defpoints
 62
     0
100
AcDbPoint
 10
6285.282190876753
 20
-3173.875784002912
 30
0.0
  0
ENDBLK
  5
5AD23
330
5AD1B
100
AcDbEntity
  8
0
100
AcDbBlockEnd
  0
BLOCK
  5
5AD2C
330
5AD25
100
AcDbEntity
  8
0
100
AcDbBlockBegin
  2
*D27
 70
     1
 10
0.0
 20
0.0
 30
0.0
  3
*D27
  1

  0
LINE
  5
5B9A7
330
5AD25
100
AcDbEntity
  8
AM_5
100
AcDbLine
 10
6316.542032294901
 20
-3183.070236562189
 30
0.0
 11
6304.555365628231
 21
-3183.070236562189
 31
0.0
  0
LINE
  5
5B9A8
330
5AD25
100
AcDbEntity
  8
AM_5
100
AcDbLine
 10
6304.555365628231
 20
-3183.070236562189
 30
0.0
 11
6299.771890731899
 21
-3177.596376741434
 31
0.0
  0
LINE
  5
5B9A9
330
5AD25
100
AcDbEntity
  8
AM_5
100
AcDbLine
 10
6295.757937444403
 20
-3173.003101329941
 30
0.0
 11
6294.441887186208
 21
-3171.497109391748
 31
0.0
  0
MTEXT
  5
5B9AA
330
5AD25
100
AcDbEntity
  8
AM_5
 62
     2
100
AcDbMText
 10
6311.048698961567
 20
-3180.470236562189
 30
0.0
 40
3.2
 41
0.0
 71
     5
 72
     1
  1
2-\U+22052.1
 73
     1
 44
1.0
1001
ACAD
1000
MTEXTBEGIN
1070
    73
1070
     1
1070
    44
1040
1.0
1070
    74
1070
     0
1000
MTEXTEND
  0
LINE
  5
5B9AB
330
5AD25
100
AcDbEntity
  8
AM_5
100
AcDbLine
 10
6297.073987702597
 20
-3174.509093268135
 30
0.0
 11
6298.455840473703
 21
-3176.09038480324
 31
0.0
  0
INSERT
  5
5B9AC
330
5AD25
100
AcDbEntity
  8
AM_5
100
AcDbBlockReference
  2
GENDOT
 10
6297.073987702597
 20
-3174.509093268135
 30
0.0
 41
2.0
 42
2.0
 43
2.0
 50
311.1494312658474
  0
INSERT
  5
5B9AD
330
5AD25
100
AcDbEntity
  8
AM_5
100
AcDbBlockReference
  2
GENDOT
 10
6298.455840473703
 20
-3176.09038480324
 30
0.0
 41
2.0
 42
2.0
 43
2.0
 50
131.1494312658474
  0
POINT
  5
5B9AE
330
5AD25
100
AcDbEntity
  8
Defpoints
 62
     0
100
AcDbPoint
 10
6298.455840473703
 20
-3176.09038480324
 30
0.0
  0
POINT
  5
5B9AF
330
5AD25
100
AcDbEntity
  8
Defpoints
 62
     0
100
AcDbPoint
 10
6297.073987702597
 20
-3174.509093268135
 30
0.0
  0
ENDBLK
  5
5AD2D
330
5AD25
100
AcDbEntity
  8
0
100
AcDbBlockEnd
  0
BLOCK
  5
5B98A
330
5B987
100
AcDbEntity
  8
0
100
AcDbBlockBegin
  2
GENDOT
 70
     0
 10
0.0
 20
0.0
 30
0.0
  3
GENDOT
  1

  0
LINE
  5
5B988
330
5B987
100
AcDbEntity
  8
0
100
AcDbLine
 10
0.0
 20
0.0
 30
0.0
 11
-1.0
 21
0.0
 31
0.0
  0
LWPOLYLINE
  5
5B989
330
5B987
100
AcDbEntity
  8
0
100
AcDbPolyline
 90
        2
 70
     1
 43
0.25
 10
-0.125
 20
0.0
 42
1.0
 10
0.125
 20
0.0
 42
1.0
  0
ENDBLK
  5
5B98B
330
5B987
100
AcDbEntity
  8
0
100
AcDbBlockEnd
  0
ENDSEC
  0
SECTION
  2
ENTITIES
  0
TEXT
  5
31B30
330
1F
100
AcDbEntity
  8
AM_6
 60
     1
100
AcDbText
 10
3408.785415022811
 20
1879.970675238635
 30
0.0
 40
2.5
  1
!GENTITLE-INSERT
100
AcDbText
  0
TEXT
  5
31B31
330
1F
100
AcDbEntity
  8
AM_6
 60
     1
100
AcDbText
 10
3000.285415022811
 20
1871.470675238635
 30
0.0
 40
2.5
  1
!GENTITLE-LL
100
AcDbText
  0
TEXT
  5
31B32
330
1F
100
AcDbEntity
  8
AM_6
 60
     1
100
AcDbText
 10
3420.285415022811
 20
2168.470675238635
 30
0.0
 40
2.5
  1
!GENTITLE-RU
100
AcDbText
  0
TEXT
  5
31B33
330
1F
100
AcDbEntity
  8
AM_6
 60
     1
100
AcDbText
 10
3420.285415022811
 20
2168.470675238635
 30
0.0
 40
2.5
  1
!GENTITLE-MAX
100
AcDbText
  0
TEXT
  5
31B3B
330
1F
100
AcDbEntity
  8
AM_6
 60
     1
100
AcDbText
 10
3000.285415022811
 20
1871.470675238635
 30
0.0
 40
2.5
  1
!GENTITLE-LL
100
AcDbText
  0
TEXT
  5
31B3C
330
1F
100
AcDbEntity
  8
AM_6
 60
     1
100
AcDbText
 10
3408.785415022811
 20
2159.970675238636
 30
0.0
 40
2.5
  1
!GENTITLE-RU
100
AcDbText
  0
TEXT
  5
31B3D
330
1F
100
AcDbEntity
  8
AM_6
 60
     1
100
AcDbText
 10
3420.285415022811
 20
2168.470675238635
 30
0.0
 40
2.5
  1
!GENTITLE-MAX
100
AcDbText
  0
TEXT
  5
31B3E
330
1F
100
AcDbEntity
  8
AM_6
 60
     1
100
AcDbText
 10
3408.785415022811
 20
1879.970675238635
 30
0.0
 40
2.5
  1
!GENTITLE-INSERT
100
AcDbText
  0
TEXT
  5
32D1D
330
1F
100
AcDbEntity
  8
AM_6
 60
     1
100
AcDbText
 10
3234.949399973154
 20
1839.277532086519
 30
0.0
 40
2.5
  1
!GENTITLE-INSERT
100
AcDbText
  0
TEXT
  5
32D1E
330
1F
100
AcDbEntity
  8
AM_6
 60
     1
100
AcDbText
 10
3246.449399973155
 20
2040.77753208652
 30
0.0
 40
2.5
  1
!GENTITLE-MAX
100
AcDbText
  0
TEXT
  5
32D1F
330
1F
100
AcDbEntity
  8
AM_6
 60
     1
100
AcDbText
 10
3246.449399973155
 20
2040.77753208652
 30
0.0
 40
2.5
  1
!GENTITLE-RU
100
AcDbText
  0
TEXT
  5
32D21
330
1F
100
AcDbEntity
  8
AM_6
 60
     1
100
AcDbText
 10
2949.449399973154
 20
1830.777532086519
 30
0.0
 40
2.5
  1
!GENTITLE-LL
100
AcDbText
  0
TEXT
  5
34534
330
1F
100
AcDbEntity
  8
AM_6
 60
     1
100
AcDbText
 10
3774.506320898737
 20
958.0958490755064
 30
0.0
 40
2.5
  1
!GENTITLE-INSERT
100
AcDbText
  0
TEXT
  5
34535
330
1F
100
AcDbEntity
  8
AM_6
 60
     1
100
AcDbText
 10
3786.006320898738
 20
1159.595849075506
 30
0.0
 40
2.5
  1
!GENTITLE-MAX
100
AcDbText
  0
TEXT
  5
34536
330
1F
100
AcDbEntity
  8
AM_6
 60
     1
100
AcDbText
 10
3786.006320898738
 20
1159.595849075506
 30
0.0
 40
2.5
  1
!GENTITLE-RU
100
AcDbText
  0
TEXT
  5
34538
330
1F
100
AcDbEntity
  8
AM_6
 60
     1
100
AcDbText
 10
3489.006320898738
 20
949.5958490755064
 30
0.0
 40
2.5
  1
!GENTITLE-LL
100
AcDbText
  0
LINE
  5
41F72
330
1F
100
AcDbEntity
  8
size
100
AcDbLine
 10
6074.924675701049
 20
-3023.516283439392
 30
0.0
 11
6371.924675701048
 21
-3023.516283439392
 31
0.0
1001
GENIUS_GENREC_14
1002
{
1000
PYDIR
1011
6074.924675701049
1021
-2936.516283439392
1031
0.0
1002
}
1002
{
1000
PXDIR
1011
6494.924675701049
1021
-3233.516283439393
1031
0.0
1002
}
1002
{
1000
PORI
1011
6074.924675701049
1021
-3233.516283439393
1031
0.0
1002
}
1002
{
1000
PINS
1011
6284.924675701049
1021
-3085.016283439392
1031
0.0
1002
}
1002
{
1000
HVAL
1000
297
1002
}
1002
{
1000
H
1070
     2
1002
}
1002
{
1000
WVAL
1000
420
1002
}
1002
{
1000
W
1070
     2
1002
}
1002
{
1000
C
1070
     4
1002
}
1001
GENIUS_GENOBJ-N-REC_13
1002
{
1000
OWNER
1000
GEN
1002
}
1001
GENIUS_GENODEF_13
1002
{
1000
HIER
1070
     0
1002
}
1002
{
1000
MANEDIT
1070
     0
1002
}
1002
{
1000
NOSEL
1070
     0
1002
}
1002
{
1000
BEHIND
1070
     0
1002
}
1002
{
1000
OTHER
1070
     0
1002
}
1002
{
1000
REACTOR
1002
}
  0
LINE
  5
41F73
330
1F
100
AcDbEntity
  8
size
100
AcDbLine
 10
6371.924675701048
 20
-3023.516283439392
 30
0.0
 11
6371.924675701048
 21
-3233.516283439393
 31
0.0
1001
GENIUS_GENREC_14
1002
{
1000
PYDIR
1011
6074.924675701049
1021
-2936.516283439392
1031
0.0
1002
}
1002
{
1000
PXDIR
1011
6494.924675701049
1021
-3233.516283439393
1031
0.0
1002
}
1002
{
1000
PORI
1011
6074.924675701049
1021
-3233.516283439393
1031
0.0
1002
}
1002
{
1000
PINS
1011
6284.924675701049
1021
-3085.016283439392
1031
0.0
1002
}
1002
{
1000
HVAL
1000
297
1002
}
1002
{
1000
H
1070
     2
1002
}
1002
{
1000
WVAL
1000
420
1002
}
1002
{
1000
W
1070
     2
1002
}
1002
{
1000
C
1070
     4
1002
}
1001
GENIUS_GENOBJ-N-REC_13
1002
{
1000
OWNER
1000
GEN
1002
}
1001
GENIUS_GENODEF_13
1002
{
1000
HIER
1070
     0
1002
}
1002
{
1000
MANEDIT
1070
     0
1002
}
1002
{
1000
NOSEL
1070
     0
1002
}
1002
{
1000
BEHIND
1070
     0
1002
}
1002
{
1000
OTHER
1070
     0
1002
}
1002
{
1000
REACTOR
1002
}
  0
LINE
  5
41F74
330
1F
100
AcDbEntity
  8
waku
100
AcDbLine
 10
6086.424675701049
 20
-3225.016283439393
 30
0.0
 11
6360.42467570105
 21
-3225.016283439393
 31
0.0
1001
GENIUS_GENREC_14
1002
{
1000
PYDIR
1011
6074.924675701049
1021
-2936.516283439392
1031
0.0
1002
}
1002
{
1000
PXDIR
1011
6494.924675701049
1021
-3233.516283439393
1031
0.0
1002
}
1002
{
1000
PORI
1011
6074.924675701049
1021
-3233.516283439393
1031
0.0
1002
}
1002
{
1000
PINS
1011
6284.924675701049
1021
-3085.016283439392
1031
0.0
1002
}
1002
{
1000
HVAL
1000
297
1002
}
1002
{
1000
H
1070
     2
1002
}
1002
{
1000
WVAL
1000
420
1002
}
1002
{
1000
W
1070
     2
1002
}
1002
{
1000
C
1070
     4
1002
}
  0
LINE
  5
41F75
330
1F
100
AcDbEntity
  8
waku
100
AcDbLine
 10
6360.42467570105
 20
-3032.016283439392
 30
0.0
 11
6086.424675701049
 21
-3032.016283439392
 31
0.0
1001
GENIUS_GENREC_14
1002
{
1000
PYDIR
1011
5951.92467570105
1021
-3023.516283439392
1031
0.0
1002
}
1002
{
1000
PXDIR
1011
6371.924675701048
1021
-3320.516283439392
1031
0.0
1002
}
1002
{
1000
PORI
1011
5951.92467570105
1021
-3320.516283439392
1031
0.0
1002
}
1002
{
1000
PINS
1011
6161.92467570105
1021
-3172.016283439393
1031
0.0
1002
}
1002
{
1000
HVAL
1000
297
1002
}
1002
{
1000
H
1070
     2
1002
}
1002
{
1000
WVAL
1000
420
1002
}
1002
{
1000
W
1070
     2
1002
}
1002
{
1000
C
1070
     4
1002
}
1001
GENIUS_GENOBJ-N-REC_13
1002
{
1000
OWNER
1000
GEN
1002
}
1001
GENIUS_GENODEF_13
1002
{
1000
HIER
1070
     0
1002
}
1002
{
1000
MANEDIT
1070
     0
1002
}
1002
{
1000
NOSEL
1070
     0
1002
}
1002
{
1000
BEHIND
1070
     0
1002
}
1002
{
1000
OTHER
1070
     0
1002
}
1002
{
1000
REACTOR
1002
}
  0
LINE
  5
41F76
330
1F
100
AcDbEntity
  8
waku
100
AcDbLine
 10
6086.424675701049
 20
-3032.016283439392
 30
0.0
 11
6086.424675701049
 21
-3225.016283439393
 31
0.0
1001
GENIUS_GENREC_14
1002
{
1000
PYDIR
1011
6074.924675701049
1021
-2936.516283439392
1031
0.0
1002
}
1002
{
1000
PXDIR
1011
6494.924675701049
1021
-3233.516283439393
1031
0.0
1002
}
1002
{
1000
PORI
1011
6074.924675701049
1021
-3233.516283439393
1031
0.0
1002
}
1002
{
1000
PINS
1011
6284.924675701049
1021
-3085.016283439392
1031
0.0
1002
}
1002
{
1000
HVAL
1000
297
1002
}
1002
{
1000
H
1070
     2
1002
}
1002
{
1000
WVAL
1000
420
1002
}
1002
{
1000
W
1070
     2
1002
}
1002
{
1000
C
1070
     4
1002
}
1001
GENIUS_GENOBJ-N-REC_13
1002
{
1000
OWNER
1000
GEN
1002
}
1001
GENIUS_GENODEF_13
1002
{
1000
HIER
1070
     0
1002
}
1002
{
1000
MANEDIT
1070
     0
1002
}
1002
{
1000
NOSEL
1070
     0
1002
}
1002
{
1000
BEHIND
1070
     0
1002
}
1002
{
1000
OTHER
1070
     0
1002
}
1002
{
1000
REACTOR
1002
}
  0
LINE
  5
41F77
330
1F
100
AcDbEntity
  8
waku
100
AcDbLine
 10
6360.42467570105
 20
-3225.016283439393
 30
0.0
 11
6360.42467570105
 21
-3032.016283439392
 31
0.0
1001
GENIUS_GENREC_14
1002
{
1000
PYDIR
1011
5951.92467570105
1021
-3017.516283439392
1031
0.0
1002
}
1002
{
1000
PXDIR
1011
6371.924675701048
1021
-3314.516283439392
1031
0.0
1002
}
1002
{
1000
PORI
1011
5951.92467570105
1021
-3314.516283439392
1031
0.0
1002
}
1002
{
1000
PINS
1011
6161.92467570105
1021
-3166.016283439392
1031
0.0
1002
}
1002
{
1000
HVAL
1000
297
1002
}
1002
{
1000
H
1070
     2
1002
}
1002
{
1000
WVAL
1000
420
1002
}
1002
{
1000
W
1070
     2
1002
}
1002
{
1000
C
1070
     4
1002
}
1001
GENIUS_GENOBJ-N-REC_13
1002
{
1000
OWNER
1000
GEN
1002
}
1001
GENIUS_GENODEF_13
1002
{
1000
HIER
1070
     0
1002
}
1002
{
1000
MANEDIT
1070
     0
1002
}
1002
{
1000
NOSEL
1070
     0
1002
}
1002
{
1000
BEHIND
1070
     0
1002
}
1002
{
1000
OTHER
1070
     0
1002
}
1002
{
1000
REACTOR
1002
}
  0
LINE
  5
41F78
330
1F
100
AcDbEntity
  8
size
100
AcDbLine
 10
6074.924675701049
 20
-3023.516283439392
 30
0.0
 11
6074.924675701049
 21
-3233.516283439393
 31
0.0
1001
GENIUS_GENREC_14
1002
{
1000
PYDIR
1011
6074.924675701049
1021
-2936.516283439392
1031
0.0
1002
}
1002
{
1000
PXDIR
1011
6494.924675701049
1021
-3233.516283439393
1031
0.0
1002
}
1002
{
1000
PORI
1011
6074.924675701049
1021
-3233.516283439393
1031
0.0
1002
}
1002
{
1000
PINS
1011
6284.924675701049
1021
-3085.016283439392
1031
0.0
1002
}
1002
{
1000
HVAL
1000
297
1002
}
1002
{
1000
H
1070
     2
1002
}
1002
{
1000
WVAL
1000
420
1002
}
1002
{
1000
W
1070
     2
1002
}
1002
{
1000
C
1070
     4
1002
}
1001
GENIUS_GENOBJ-N-REC_13
1002
{
1000
OWNER
1000
GEN
1002
}
1001
GENIUS_GENODEF_13
1002
{
1000
HIER
1070
     0
1002
}
1002
{
1000
MANEDIT
1070
     0
1002
}
1002
{
1000
NOSEL
1070
     0
1002
}
1002
{
1000
BEHIND
1070
     0
1002
}
1002
{
1000
OTHER
1070
     0
1002
}
1002
{
1000
REACTOR
1002
}
  0
LINE
  5
41F79
330
1F
100
AcDbEntity
  8
size
100
AcDbLine
 10
6074.924675701049
 20
-3233.516283439393
 30
0.0
 11
6371.924675701048
 21
-3233.516283439393
 31
0.0
1001
GENIUS_GENREC_14
1002
{
1000
PYDIR
1011
6074.924675701049
1021
-2936.516283439392
1031
0.0
1002
}
1002
{
1000
PXDIR
1011
6494.924675701049
1021
-3233.516283439393
1031
0.0
1002
}
1002
{
1000
PORI
1011
6074.924675701049
1021
-3233.516283439393
1031
0.0
1002
}
1002
{
1000
PINS
1011
6284.924675701049
1021
-3085.016283439392
1031
0.0
1002
}
1002
{
1000
HVAL
1000
297
1002
}
1002
{
1000
H
1070
     2
1002
}
1002
{
1000
WVAL
1000
420
1002
}
1002
{
1000
W
1070
     2
1002
}
1002
{
1000
C
1070
     4
1002
}
1001
GENIUS_GENOBJ-N-REC_13
1002
{
1000
OWNER
1000
GEN
1002
}
1001
GENIUS_GENODEF_13
1002
{
1000
HIER
1070
     0
1002
}
1002
{
1000
MANEDIT
1070
     0
1002
}
1002
{
1000
NOSEL
1070
     0
1002
}
1002
{
1000
BEHIND
1070
     0
1002
}
1002
{
1000
OTHER
1070
     0
1002
}
1002
{
1000
REACTOR
1002
}
  0
LINE
  5
41F7A
330
1F
100
AcDbEntity
  8
AM_5
370
    13
100
AcDbLine
 10
6106.424675701049
 20
-3032.016283439392
 30
0.0
 11
6106.424675701049
 21
-3064.016283439392
 31
0.0
  0
LINE
  5
41F7B
330
1F
100
AcDbEntity
  8
AM_5
370
    13
100
AcDbLine
 10
6086.424675701049
 20
-3040.016283439392
 30
0.0
 11
6173.424675701049
 21
-3040.016283439392
 31
0.0
  0
LINE
  5
41F7C
330
1F
100
AcDbEntity
  8
AM_5
370
    13
100
AcDbLine
 10
6086.424675701049
 20
-3048.016283439392
 30
0.0
 11
6173.424675701049
 21
-3048.016283439392
 31
0.0
  0
LINE
  5
41F7D
330
1F
100
AcDbEntity
  8
AM_5
370
    13
100
AcDbLine
 10
6086.424675701049
 20
-3056.016283439392
 30
0.0
 11
6173.424675701049
 21
-3056.016283439392
 31
0.0
  0
LINE
  5
41F7E
330
1F
100
AcDbEntity
  8
AM_0
  6
中線
 48
0.5
370
    30
100
AcDbLine
 10
6086.424675701049
 20
-3064.016283439392
 30
0.0
 11
6173.424675701049
 21
-3064.016283439392
 31
0.0
  0
LINE
  5
41F7F
330
1F
100
AcDbEntity
  8
AM_0
  6
中線
 48
0.5
370
    30
100
AcDbLine
 10
6086.424675701049
 20
-3032.016283439392
 30
0.0
 11
6086.424675701049
 21
-3064.016283439392
 31
0.0
  0
LINE
  5
41F80
330
1F
100
AcDbEntity
  8
AM_0
  6
中線
 48
0.5
370
    30
100
AcDbLine
 10
6086.424675701049
 20
-3032.016283439392
 30
0.0
 11
6173.424675701049
 21
-3032.016283439392
 31
0.0
  0
LINE
  5
41F81
330
1F
100
AcDbEntity
  8
AM_0
  6
中線
 48
0.5
370
    30
100
AcDbLine
 10
6173.424675701049
 20
-3032.016283439392
 30
0.0
 11
6173.424675701049
 21
-3064.016283439392
 31
0.0
  0
TEXT
  5
41F82
330
1F
100
AcDbEntity
  8
AM_6
100
AcDbText
 10
6092.08167570105
 20
-3037.616283439393
 30
0.0
 40
3.2
  1
品　名
 41
0.85537027
100
AcDbText
  0
TEXT
  5
41F83
330
1F
100
AcDbEntity
  8
AM_6
100
AcDbText
 10
6092.08167570105
 20
-3045.616283439393
 30
0.0
 40
3.2
  1
品　番
 41
0.85537027
100
AcDbText
  0
TEXT
  5
41F84
330
1F
100
AcDbEntity
  8
AM_6
100
AcDbText
 10
6092.08167570105
 20
-3053.616283439393
 30
0.0
 40
3.2
  1
材　質
 41
0.85537027
100
AcDbText
  0
TEXT
  5
41F85
330
1F
100
AcDbEntity
  8
AM_6
100
AcDbText
 10
6092.08167570105
 20
-3061.616283439393
 30
0.0
 40
3.2
  1
仕上げ
 41
0.85537027
100
AcDbText
  0
TEXT
  5
41F86
330
1F
100
AcDbEntity
  8
AM_6
100
AcDbText
 10
6109.281675701049
 20
-3037.616283439393
 30
0.0
 40
3.2
  1
フックパチン錠
 41
0.84306961
100
AcDbText
  0
TEXT
  5
41F87
330
1F
100
AcDbEntity
  8
AM_6
100
AcDbText
 10
6109.281675701049
 20
-3045.616283439393
 30
0.0
 40
3.2
  1
ELP-114S
 41
0.84741102
100
AcDbText
  0
TEXT
  5
41F88
330
1F
100
AcDbEntity
  8
AM_6
100
AcDbText
 10
6109.281675701049
 20
-3053.616283439393
 30
0.0
 40
3.2
  1
ステンレス
 41
0.84634979
100
AcDbText
  0
TEXT
  5
41F89
330
1F
100
AcDbEntity
  8
AM_6
100
AcDbText
 10
6109.281675701049
 20
-3061.616283439393
 30
0.0
 40
3.2
  1
バレル研磨
 41
0.84350122
100
AcDbText
  0
LINE
  5
4A5D2
330
1F
100
AcDbEntity
  8
1
  6
Continuous
 62
     7
100
AcDbLine
 10
6213.576891250855
 20
-3179.849739035688
 30
0.0
 11
6213.576891250855
 21
-3179.799739035687
 31
0.0
  0
LINE
  5
4A5D3
330
1F
100
AcDbEntity
  8
1
  6
Continuous
 62
     7
100
AcDbLine
 10
6216.076891250855
 20
-3179.799739035687
 30
0.0
 11
6216.076891250855
 21
-3179.849739035688
 31
0.0
  0
LINE
  5
4A5D4
330
1F
100
AcDbEntity
  8
1
  6
Continuous
 62
     7
100
AcDbLine
 10
6213.576891250855
 20
-3170.799739035687
 30
0.0
 11
6213.576891250855
 21
-3170.749739035687
 31
0.0
  0
LINE
  5
4A5D5
330
1F
100
AcDbEntity
  8
1
  6
Continuous
 62
     7
100
AcDbLine
 10
6216.076891250855
 20
-3170.749739035687
 30
0.0
 11
6216.076891250855
 21
-3170.799739035687
 31
0.0
  0
ARC
  5
4A5D6
330
1F
100
AcDbEntity
  8
AM_0
  6
中線
 48
0.5
370
    30
100
AcDbCircle
 10
6208.626891250855
 20
-3168.799739035688
 30
0.0
 40
2.5
100
AcDbArc
 50
90.0
 51
180.0
  0
ARC
  5
4A5D7
330
1F
100
AcDbEntity
  8
AM_0
  6
中線
 48
0.5
370
    30
100
AcDbCircle
 10
6223.120386676815
 20
-3168.799739035688
 30
0.0
 40
2.5
100
AcDbArc
 50
0.0
 51
90.0
  0
ARC
  5
4A5D8
330
1F
100
AcDbEntity
  8
AM_0
  6
中線
 48
0.5
370
    30
100
AcDbCircle
 10
6223.120386676815
 20
-3181.799739035688
 30
0.0
 40
2.5
100
AcDbArc
 50
270.0
 51
0.0
  0
ARC
  5
4A5D9
330
1F
100
AcDbEntity
  8
AM_0
  6
中線
 48
0.5
370
    30
100
AcDbCircle
 10
6208.626891250855
 20
-3181.799739035688
 30
0.0
 40
2.5
100
AcDbArc
 50
180.0
 51
270.0
  0
ARC
  5
4A5DA
330
1F
100
AcDbEntity
  8
AM_0
  6
中線
 48
0.5
370
    30
100
AcDbCircle
 10
6208.626891250855
 20
-3088.254205424677
 30
0.0
 40
2.5
100
AcDbArc
 50
90.0
 51
180.0
  0
ARC
  5
4A5DB
330
1F
100
AcDbEntity
  8
AM_0
  6
中線
 48
0.5
370
    30
100
AcDbCircle
 10
6223.126891250856
 20
-3088.254205424677
 30
0.0
 40
2.5
100
AcDbArc
 50
0.0
 51
90.0
  0
ARC
  5
4A5DC
330
1F
100
AcDbEntity
  8
AM_0
  6
中線
 48
0.5
370
    30
100
AcDbCircle
 10
6223.126891250856
 20
-3102.254205424678
 30
0.0
 40
2.5
100
AcDbArc
 50
270.0
 51
0.0
  0
ARC
  5
4A5DD
330
1F
100
AcDbEntity
  8
AM_0
  6
中線
 48
0.5
370
    30
100
AcDbCircle
 10
6208.626891250855
 20
-3102.254205424678
 30
0.0
 40
2.5
100
AcDbArc
 50
180.0
 51
270.0
  0
ARC
  5
4A5DE
330
1F
100
AcDbEntity
  8
AM_0
  6
中線
 48
0.5
370
    30
100
AcDbCircle
 10
6207.326891250854
 20
-3131.590808339231
 30
0.0
 40
1.25
100
AcDbArc
 50
90.0
 51
270.0
  0
ARC
  5
4A5DF
330
1F
100
AcDbEntity
  8
AM_0
  6
中線
 48
0.5
370
    30
100
AcDbCircle
 10
6224.370386676817
 20
-3131.590808339231
 30
0.0
 40
1.25
100
AcDbArc
 50
270.0
 51
90.0
  0
LINE
  5
4A5E0
330
1F
100
AcDbEntity
  8
AM_0
  6
中線
 48
0.5
370
    30
100
AcDbLine
 10
6223.120386676815
 20
-3179.849739035688
 30
0.0
 11
6223.120386676815
 21
-3179.299739035688
 31
0.0
  0
LINE
  5
4A5E1
330
1F
100
AcDbEntity
  8
AM_0
  6
中線
 48
0.5
370
    30
100
AcDbLine
 10
6223.120386676815
 20
-3171.299739035687
 30
0.0
 11
6223.120386676815
 21
-3170.749739035687
 31
0.0
  0
LINE
  5
4A5E2
330
1F
100
AcDbEntity
  8
AM_0
  6
中線
 48
0.5
370
    30
100
AcDbLine
 10
6223.120386676815
 20
-3169.249739035687
 30
0.0
 11
6223.120386676815
 21
-3168.799739035688
 31
0.0
  0
LINE
  5
4A5E3
330
1F
100
AcDbEntity
  8
AM_0
  6
中線
 48
0.5
370
    30
100
AcDbLine
 10
6206.126891250855
 20
-3169.299739035687
 30
0.0
 11
6206.126891250855
 21
-3168.799739035688
 31
0.0
  0
LINE
  5
4A5E4
330
1F
100
AcDbEntity
  8
AM_0
  6
中線
 48
0.5
370
    30
100
AcDbLine
 10
6208.626891250855
 20
-3181.299739035687
 30
0.0
 11
6208.626891250855
 21
-3181.799739035688
 31
0.0
  0
LINE
  5
4A5E5
330
1F
100
AcDbEntity
  8
AM_0
  6
中線
 48
0.5
370
    30
100
AcDbLine
 10
6225.626891250856
 20
-3099.804205424677
 30
0.0
 11
6225.626891250856
 21
-3102.254205424678
 31
0.0
  0
LINE
  5
4A5E6
330
1F
100
AcDbEntity
  8
AM_0
  6
中線
 48
0.5
370
    30
100
AcDbLine
 10
6223.126891250856
 20
-3089.104205424678
 30
0.0
 11
6223.126891250856
 21
-3088.254205424677
 31
0.0
  0
LINE
  5
4A5E7
330
1F
100
AcDbEntity
  8
AM_0
  6
中線
 48
0.5
370
    30
100
AcDbLine
 10
6208.626891250855
 20
-3101.254205424678
 30
0.0
 11
6208.626891250855
 21
-3102.254205424678
 31
0.0
  0
LINE
  5
4A5E8
330
1F
100
AcDbEntity
  8
AM_0
  6
中線
 48
0.5
370
    30
100
AcDbLine
 10
6206.126891250855
 20
-3089.254205424678
 30
0.0
 11
6206.126891250855
 21
-3088.254205424677
 31
0.0
  0
LINE
  5
4A5E9
330
1F
100
AcDbEntity
  8
AM_0
  6
中線
 48
0.5
370
    30
100
AcDbLine
 10
6208.626891250855
 20
-3166.299739035688
 30
0.0
 11
6223.120386676815
 21
-3166.299739035688
 31
0.0
  0
LINE
  5
4A5EA
330
1F
100
AcDbEntity
  8
AM_0
  6
中線
 48
0.5
370
    30
100
AcDbLine
 10
6225.620386676816
 20
-3168.799739035688
 30
0.0
 11
6225.620386676816
 21
-3181.799739035688
 31
0.0
  0
LINE
  5
4A5EB
330
1F
100
AcDbEntity
  8
AM_0
  6
中線
 48
0.5
370
    30
100
AcDbLine
 10
6223.120386676815
 20
-3184.299739035687
 30
0.0
 11
6208.626891250855
 21
-3184.299739035687
 31
0.0
  0
LINE
  5
4A5EC
330
1F
100
AcDbEntity
  8
AM_0
  6
中線
 48
0.5
370
    30
100
AcDbLine
 10
6206.126891250855
 20
-3181.799739035688
 30
0.0
 11
6206.126891250855
 21
-3181.299739035687
 31
0.0
  0
LINE
  5
4A5ED
330
1F
100
AcDbEntity
  8
AM_0
  6
中線
 48
0.5
370
    30
100
AcDbLine
 10
6208.626891250855
 20
-3181.799739035688
 30
0.0
 11
6223.120386676815
 21
-3181.799739035688
 31
0.0
  0
LINE
  5
4A5EE
330
1F
100
AcDbEntity
  8
AM_0
  6
中線
 48
0.5
370
    30
100
AcDbLine
 10
6223.120386676815
 20
-3181.799739035688
 30
0.0
 11
6223.120386676815
 21
-3181.349739035688
 31
0.0
  0
LINE
  5
4A5EF
330
1F
100
AcDbEntity
  8
AM_0
  6
中線
 48
0.5
370
    30
100
AcDbLine
 10
6223.120386676815
 20
-3168.799739035688
 30
0.0
 11
6208.626891250855
 21
-3168.799739035688
 31
0.0
  0
LINE
  5
4A5F0
330
1F
100
AcDbEntity
  8
AM_0
  6
中線
 48
0.5
370
    30
100
AcDbLine
 10
6208.626891250855
 20
-3168.799739035688
 30
0.0
 11
6208.626891250855
 21
-3169.299739035687
 31
0.0
  0
LINE
  5
4A5F1
330
1F
100
AcDbEntity
  8
AM_0
  6
中線
 48
0.5
370
    30
100
AcDbLine
 10
6224.370386676817
 20
-3132.840808339231
 30
0.0
 11
6207.326891250854
 21
-3132.840808339231
 31
0.0
  0
LINE
  5
4A5F2
330
1F
100
AcDbEntity
  8
AM_0
  6
中線
 48
0.5
370
    30
100
AcDbLine
 10
6207.326891250854
 20
-3130.340808339231
 30
0.0
 11
6224.370386676817
 21
-3130.340808339231
 31
0.0
  0
LINE
  5
4A5F3
330
1F
100
AcDbEntity
  8
AM_0
  6
中線
 48
0.5
370
    30
100
AcDbLine
 10
6208.626891250855
 20
-3085.754205424678
 30
0.0
 11
6223.126891250856
 21
-3085.754205424678
 31
0.0
  0
LINE
  5
4A5F4
330
1F
100
AcDbEntity
  8
AM_0
  6
中線
 48
0.5
370
    30
100
AcDbLine
 10
6225.626891250856
 20
-3088.254205424677
 30
0.0
 11
6225.626891250856
 21
-3090.704205424677
 31
0.0
  0
LINE
  5
4A5F5
330
1F
100
AcDbEntity
  8
AM_0
  6
中線
 48
0.5
370
    30
100
AcDbLine
 10
6223.126891250856
 20
-3104.754205424678
 30
0.0
 11
6208.626891250855
 21
-3104.754205424678
 31
0.0
  0
LINE
  5
4A5F6
330
1F
100
AcDbEntity
  8
AM_0
  6
中線
 48
0.5
370
    30
100
AcDbLine
 10
6206.126891250855
 20
-3102.254205424678
 30
0.0
 11
6206.126891250855
 21
-3101.254205424678
 31
0.0
  0
LINE
  5
4A5F7
330
1F
100
AcDbEntity
  8
AM_0
  6
中線
 48
0.5
370
    30
100
AcDbLine
 10
6208.626891250855
 20
-3102.254205424678
 30
0.0
 11
6223.126891250856
 21
-3102.254205424678
 31
0.0
  0
LINE
  5
4A5F8
330
1F
100
AcDbEntity
  8
AM_0
  6
中線
 48
0.5
370
    30
100
AcDbLine
 10
6223.126891250856
 20
-3102.254205424678
 30
0.0
 11
6223.126891250856
 21
-3101.404205424677
 31
0.0
  0
LINE
  5
4A5F9
330
1F
100
AcDbEntity
  8
AM_0
  6
中線
 48
0.5
370
    30
100
AcDbLine
 10
6223.126891250856
 20
-3088.254205424677
 30
0.0
 11
6208.626891250855
 21
-3088.254205424677
 31
0.0
  0
LINE
  5
4A5FA
330
1F
100
AcDbEntity
  8
AM_0
  6
中線
 48
0.5
370
    30
100
AcDbLine
 10
6208.626891250855
 20
-3088.254205424677
 30
0.0
 11
6208.626891250855
 21
-3089.254205424678
 31
0.0
  0
ARC
  5
4A5FB
330
1F
100
AcDbEntity
  8
AM_0
  6
中線
 48
0.5
370
    30
100
AcDbCircle
 10
6225.838893295854
 20
-3177.849739035688
 30
0.0
 40
2.0
100
AcDbArc
 50
270.0
 51
0.0
  0
ARC
  5
4A5FC
330
1F
100
AcDbEntity
  8
AM_0
  6
中線
 48
0.5
370
    30
100
AcDbCircle
 10
6225.838893295854
 20
-3172.749739035687
 30
0.0
 40
2.0
100
AcDbArc
 50
0.0
 51
90.0
  0
ARC
  5
4A5FD
330
1F
100
AcDbEntity
  8
AM_0
  6
中線
 48
0.5
370
    30
100
AcDbCircle
 10
6225.559983095436
 20
-3097.804205424677
 30
0.0
 40
2.0
100
AcDbArc
 50
270.0
 51
0.0
  0
ARC
  5
4A5FE
330
1F
100
AcDbEntity
  8
AM_0
  6
中線
 48
0.5
370
    30
100
AcDbCircle
 10
6225.559983095436
 20
-3092.704205424678
 30
0.0
 40
2.0
100
AcDbArc
 50
0.0
 51
90.0
  0
ARC
  5
4A5FF
330
1F
100
AcDbEntity
  8
AM_0
  6
中線
 48
0.5
370
    30
100
AcDbCircle
 10
6225.838893295854
 20
-3092.704205424678
 30
0.0
 40
2.0
100
AcDbArc
 50
0.0
 51
90.0
  0
ARC
  5
4A600
330
1F
100
AcDbEntity
  8
AM_0
  6
中線
 48
0.5
370
    30
100
AcDbCircle
 10
6225.838893295854
 20
-3097.804205424677
 30
0.0
 40
2.0
100
AcDbArc
 50
270.0
 51
0.0
  0
ARC
  5
4A601
330
1F
100
AcDbEntity
  8
AM_0
  6
中線
 48
0.5
370
    30
100
AcDbCircle
 10
6214.336965761855
 20
-3131.397017379231
 30
0.0
 40
2.5
100
AcDbArc
 50
215.2760472590056
 51
270.7187351030242
  0
ARC
  5
4A602
330
1F
100
AcDbEntity
  8
AM_0
  6
中線
 48
0.5
370
    30
100
AcDbCircle
 10
6214.826891250854
 20
-3130.590808339231
 30
0.0
 40
1.75
100
AcDbArc
 50
8.21321070201602
 51
171.7867892979839
  0
ARC
  5
4A603
330
1F
100
AcDbEntity
  8
AM_0
  6
中線
 48
0.5
370
    30
100
AcDbCircle
 10
6214.823528432855
 20
-3130.32274694223
 30
0.0
 40
3.0
100
AcDbArc
 50
98.64037723801407
 51
180.3449493519945
  0
LINE
  5
4A608
330
1F
100
AcDbEntity
  8
0部品1
100
AcDbLine
 10
6225.838893295856
 20
-3170.749739035687
 30
0.0
 11
6225.620386676816
 21
-3170.749739035687
 31
0.0
  0
LINE
  5
4A609
330
1F
100
AcDbEntity
  8
AM_0
  6
中線
 48
0.5
370
    30
100
AcDbLine
 10
6225.838893295856
 20
-3179.849739035688
 30
0.0
 11
6225.620386676816
 21
-3179.849739035688
 31
0.0
  0
LINE
  5
4A60A
330
1F
100
AcDbEntity
  8
1
  6
Continuous
 62
     7
100
AcDbLine
 10
6214.413435216854
 20
-3179.799739035687
 30
0.0
 11
6214.413435216854
 21
-3179.849739035688
 31
0.0
  0
LINE
  5
4A60C
330
1F
100
AcDbEntity
  8
AM_0
  6
中線
 48
0.5
370
    30
100
AcDbLine
 10
6214.413435216854
 20
-3099.904205424677
 30
0.0
 11
6211.838893295855
 21
-3099.904205424677
 31
0.0
  0
LINE
  5
4A60D
330
1F
100
AcDbEntity
  8
AM_0
  6
中線
 48
0.5
370
    30
100
AcDbLine
 10
6214.413435216854
 20
-3090.604205424677
 30
0.0
 11
6214.413435216854
 21
-3099.904205424677
 31
0.0
  0
LINE
  5
4A60E
330
1F
100
AcDbEntity
  8
AM_0
  6
中線
 48
0.5
370
    30
100
AcDbLine
 10
6224.026891250854
 20
-3179.849739035688
 30
0.0
 11
6224.026891250854
 21
-3181.349739035688
 31
0.0
  0
LINE
  5
4A60F
330
1F
100
AcDbEntity
  8
AM_0
  6
中線
 48
0.5
370
    30
100
AcDbLine
 10
6224.026891250854
 20
-3169.249739035687
 30
0.0
 11
6224.026891250854
 21
-3170.749739035687
 31
0.0
  0
LINE
  5
4A610
330
1F
100
AcDbEntity
  8
AM_0
  6
中線
 48
0.5
370
    30
100
AcDbLine
 10
6211.838893295855
 20
-3169.249739035687
 30
0.0
 11
6224.026891250854
 21
-3169.249739035687
 31
0.0
  0
LINE
  5
4A611
330
1F
100
AcDbEntity
  8
AM_0
  6
中線
 48
0.5
370
    30
100
AcDbLine
 10
6211.838893295855
 20
-3181.349739035688
 30
0.0
 11
6224.026891250854
 21
-3181.349739035688
 31
0.0
  0
LINE
  5
4A612
330
1F
100
AcDbEntity
  8
AM_0
  6
中線
 48
0.5
370
    30
100
AcDbLine
 10
6227.838893295854
 20
-3172.749739035687
 30
0.0
 11
6227.838893295854
 21
-3177.849739035688
 31
0.0
  0
LINE
  5
4A613
330
1F
100
AcDbEntity
  8
AM_0
  6
中線
 48
0.5
370
    30
100
AcDbLine
 10
6211.838893295855
 20
-3179.849739035688
 30
0.0
 11
6211.838893295855
 21
-3181.349739035688
 31
0.0
  0
LINE
  5
4A614
330
1F
100
AcDbEntity
  8
AM_0
  6
中線
 48
0.5
370
    30
100
AcDbLine
 10
6211.838893295855
 20
-3170.749739035687
 30
0.0
 11
6211.838893295855
 21
-3169.249739035687
 31
0.0
  0
LINE
  5
4A615
330
1F
100
AcDbEntity
  8
1
  6
Continuous
 62
     7
100
AcDbLine
 10
6214.413435216854
 20
-3170.749739035687
 30
0.0
 11
6214.413435216854
 21
-3170.799739035687
 31
0.0
  0
LINE
  5
4A616
330
1F
100
AcDbEntity
  8
AM_0
  6
中線
 48
0.5
370
    30
100
AcDbLine
 10
6211.838893295855
 20
-3170.749739035687
 30
0.0
 11
6224.026891250854
 21
-3170.749739035687
 31
0.0
  0
LINE
  5
4A617
330
1F
100
AcDbEntity
  8
AM_0
  6
中線
 48
0.5
370
    30
100
AcDbLine
 10
6211.838893295855
 20
-3179.849739035688
 30
0.0
 11
6224.026891250854
 21
-3179.849739035688
 31
0.0
  0
LINE
  5
4A618
330
1F
100
AcDbEntity
  8
AM_0
  6
中線
 48
0.5
370
    30
100
AcDbLine
 10
6225.338893295854
 20
-3101.404205424677
 30
0.0
 11
6211.838893295855
 21
-3101.404205424677
 31
0.0
  0
LINE
  5
4A619
330
1F
100
AcDbEntity
  8
AM_0
  6
中線
 48
0.5
370
    30
100
AcDbLine
 10
6225.338893295854
 20
-3089.104205424678
 30
0.0
 11
6211.838893295855
 21
-3089.104205424678
 31
0.0
  0
LINE
  5
4A61A
330
1F
100
AcDbEntity
  8
AM_0
  6
中線
 48
0.5
370
    30
100
AcDbLine
 10
6225.338893295854
 20
-3099.804205424677
 30
0.0
 11
6225.838893295854
 21
-3099.804205424677
 31
0.0
  0
LINE
  5
4A61B
330
1F
100
AcDbEntity
  8
AM_0
  6
中線
 48
0.5
370
    30
100
AcDbLine
 10
6227.559983095436
 20
-3097.804205424677
 30
0.0
 11
6227.559983095436
 21
-3092.704205424678
 31
0.0
  0
LINE
  5
4A61C
330
1F
100
AcDbEntity
  8
AM_0
  6
中線
 48
0.5
370
    30
100
AcDbLine
 10
6227.838893295854
 20
-3092.704205424678
 30
0.0
 11
6227.838893295854
 21
-3097.804205424677
 31
0.0
  0
LINE
  5
4A61D
330
1F
100
AcDbEntity
  8
AM_0
  6
中線
 48
0.5
370
    30
100
AcDbLine
 10
6225.338893295854
 20
-3090.704205424677
 30
0.0
 11
6225.338893295854
 21
-3089.104205424678
 31
0.0
  0
LINE
  5
4A61E
330
1F
100
AcDbEntity
  8
AM_0
  6
中線
 48
0.5
370
    30
100
AcDbLine
 10
6225.338893295854
 20
-3101.404205424677
 30
0.0
 11
6225.338893295854
 21
-3099.804205424677
 31
0.0
  0
LINE
  5
4A61F
330
1F
100
AcDbEntity
  8
AM_0
  6
中線
 48
0.5
370
    30
100
AcDbLine
 10
6211.838893295855
 20
-3089.104205424678
 30
0.0
 11
6211.838893295855
 21
-3090.604205424677
 31
0.0
  0
LINE
  5
4A620
330
1F
100
AcDbEntity
  8
AM_0
  6
中線
 48
0.5
370
    30
100
AcDbLine
 10
6211.838893295855
 20
-3101.404205424677
 30
0.0
 11
6211.838893295855
 21
-3099.904205424677
 31
0.0
  0
LINE
  5
4A621
330
1F
100
AcDbEntity
  8
AM_0
  6
中線
 48
0.5
370
    30
100
AcDbLine
 10
6225.338893295854
 20
-3090.704205424677
 30
0.0
 11
6225.838893295854
 21
-3090.704205424677
 31
0.0
  0
LINE
  5
4A622
330
1F
100
AcDbEntity
  8
AM_0
  6
中線
 48
0.5
370
    30
100
AcDbLine
 10
6211.838893295855
 20
-3090.604205424677
 30
0.0
 11
6214.413435216854
 21
-3090.604205424677
 31
0.0
  0
LINE
  5
4A623
330
1F
100
AcDbEntity
  8
AM_0
  6
中線
 48
0.5
370
    30
100
AcDbLine
 10
6223.837288340501
 20
-3129.942650812485
 30
0.0
 11
6225.100468263234
 21
-3130.287773815551
 31
0.0
  0
LINE
  5
4A625
330
1F
100
AcDbEntity
  8
AM_0
  6
中線
 48
0.5
370
    30
100
AcDbLine
 10
6214.768168591855
 20
-3125.90982920023
 30
0.0
 11
6214.372832137855
 21
-3127.356794676229
 31
0.0
  0
LINE
  5
4A626
330
1F
100
AcDbEntity
  8
AM_0
  6
中線
 48
0.5
370
    30
100
AcDbLine
 10
6214.768168591855
 20
-3125.90982920023
 30
0.0
 11
6225.384464301857
 21
-3128.810388176443
 31
0.0
  0
LINE
  5
4A628
330
1F
100
AcDbEntity
  8
AM_0
  6
中線
 48
0.5
370
    30
100
AcDbLine
 10
6214.368325674854
 20
-3133.89682068223
 30
0.0
 11
6223.167633302855
 21
-3133.786433790229
 31
0.0
  0
ARC
  5
4A629
330
1F
100
AcDbEntity
  8
AM_0
  6
中線
 48
0.5
370
    30
100
AcDbCircle
 10
6223.826891250855
 20
-3178.299739035687
 30
0.0
 40
1.0
100
AcDbArc
 50
270.0
 51
0.0
  0
ARC
  5
4A62A
330
1F
100
AcDbEntity
  8
AM_0
  6
中線
 48
0.5
370
    30
100
AcDbCircle
 10
6223.826891250855
 20
-3172.299739035687
 30
0.0
 40
1.0
100
AcDbArc
 50
0.0
 51
90.0
  0
ARC
  5
4A62B
330
1F
100
AcDbEntity
  8
AM_0
  6
中線
 48
0.5
370
    30
100
AcDbCircle
 10
6220.263382923855
 20
-3172.299739035687
 30
0.0
 40
1.0
100
AcDbArc
 50
90.0
 51
165.5224878139893
  0
ARC
  5
4A62C
330
1F
100
AcDbEntity
  8
AM_0
  6
中線
 48
0.5
370
    30
100
AcDbCircle
 10
6220.263382923855
 20
-3178.299739035687
 30
0.0
 40
1.0
100
AcDbArc
 50
194.4775121860106
 51
270.0
  0
CIRCLE
  5
4A62D
330
1F
100
AcDbEntity
  8
AM_0
  6
中線
 48
0.5
370
    30
100
AcDbCircle
 10
6214.826891250854
 20
-3175.299739035688
 30
0.0
 40
1.0
  0
CIRCLE
  5
4A62E
330
1F
100
AcDbEntity
  8
0部品2
  6
陰線1
 48
0.5
370
    13
100
AcDbCircle
 10
6221.326891250854
 20
-3175.299739035688
 30
0.0
 40
2.799999999999998
  0
CIRCLE
  5
4A62F
330
1F
100
AcDbEntity
  8
AM_0
  6
中線
 48
0.5
370
    30
100
AcDbCircle
 10
6221.326891250854
 20
-3175.299739035688
 30
0.0
 40
2.0
  0
ARC
  5
4A630
330
1F
100
AcDbEntity
  8
AM_0
  6
中線
 48
0.5
370
    30
100
AcDbCircle
 10
6218.326891250854
 20
-3171.799739035688
 30
0.0
 40
1.0
100
AcDbArc
 50
180.0
 51
345.5224878139893
  0
ARC
  5
4A631
330
1F
100
AcDbEntity
  8
AM_0
  6
中線
 48
0.5
370
    30
100
AcDbCircle
 10
6218.326891250854
 20
-3178.799739035687
 30
0.0
 40
1.0
100
AcDbArc
 50
14.47751218601066
 51
180.0
  0
LINE
  5
4A632
330
1F
100
AcDbEntity
  8
AM_0
  6
中線
 48
0.5
370
    30
100
AcDbLine
 10
6212.326891250855
 20
-3132.88354796123
 30
0.0
 11
6212.326891250855
 21
-3134.340808339231
 31
0.0
  0
LINE
  5
4A633
330
1F
100
AcDbEntity
  8
AM_0
  6
中線
 48
0.5
370
    30
100
AcDbLine
 10
6217.326891250855
 20
-3133.85970561923
 30
0.0
 11
6217.326891250855
 21
-3134.340808339231
 31
0.0
  0
LINE
  5
4A634
330
1F
100
AcDbEntity
  8
AM_0
  6
中線
 48
0.5
370
    30
100
AcDbLine
 10
6224.826891250855
 20
-3172.299739035687
 30
0.0
 11
6224.826891250855
 21
-3178.299739035687
 31
0.0
  0
LINE
  5
4A635
330
1F
100
AcDbEntity
  8
AM_0
  6
中線
 48
0.5
370
    30
100
AcDbLine
 10
6220.263382923855
 20
-3171.299739035687
 30
0.0
 11
6223.826891250855
 21
-3171.299739035687
 31
0.0
  0
LINE
  5
4A636
330
1F
100
AcDbEntity
  8
AM_0
  6
中線
 48
0.5
370
    30
100
AcDbLine
 10
6220.263382923855
 20
-3179.299739035688
 30
0.0
 11
6223.826891250855
 21
-3179.299739035688
 31
0.0
  0
LINE
  5
4A637
330
1F
100
AcDbEntity
  8
AM_0
  6
中線
 48
0.5
370
    30
100
AcDbLine
 10
6212.326891250855
 20
-3179.799739035687
 30
0.0
 11
6217.326891250855
 21
-3179.799739035687
 31
0.0
  0
LINE
  5
4A638
330
1F
100
AcDbEntity
  8
AM_0
  6
中線
 48
0.5
370
    30
100
AcDbLine
 10
6217.326891250855
 20
-3178.799739035687
 30
0.0
 11
6217.326891250855
 21
-3179.799739035687
 31
0.0
  0
LINE
  5
4A639
330
1F
100
AcDbEntity
  8
AM_0
  6
中線
 48
0.5
370
    30
100
AcDbLine
 10
6212.326891250855
 20
-3170.799739035687
 30
0.0
 11
6217.326891250855
 21
-3170.799739035687
 31
0.0
  0
LINE
  5
4A63A
330
1F
100
AcDbEntity
  8
AM_0
  6
中線
 48
0.5
370
    30
100
AcDbLine
 10
6212.326891250855
 20
-3170.799739035687
 30
0.0
 11
6212.326891250855
 21
-3179.799739035687
 31
0.0
  0
LINE
  5
4A63B
330
1F
100
AcDbEntity
  8
AM_0
  6
中線
 48
0.5
370
    30
100
AcDbLine
 10
6217.326891250855
 20
-3171.799739035688
 30
0.0
 11
6217.326891250855
 21
-3170.799739035687
 31
0.0
  0
LINE
  5
4A63C
330
1F
100
AcDbEntity
  8
AM_0
  6
中線
 48
0.5
370
    30
100
AcDbLine
 10
6212.326891250855
 20
-3099.854205424677
 30
0.0
 11
6214.413435216854
 21
-3099.854205424677
 31
0.0
  0
LINE
  5
4A63D
330
1F
100
AcDbEntity
  8
AM_0
  6
中線
 48
0.5
370
    30
100
AcDbLine
 10
6212.326891250855
 20
-3098.354205424677
 30
0.0
 11
6214.413435216854
 21
-3098.354205424677
 31
0.0
  0
LINE
  5
4A63E
330
1F
100
AcDbEntity
  8
AM_0
  6
中線
 48
0.5
370
    30
100
AcDbLine
 10
6212.326891250855
 20
-3090.654205424677
 30
0.0
 11
6214.413435216854
 21
-3090.654205424677
 31
0.0
  0
LINE
  5
4A63F
330
1F
100
AcDbEntity
  8
AM_0
  6
中線
 48
0.5
370
    30
100
AcDbLine
 10
6212.326891250855
 20
-3092.154205424678
 30
0.0
 11
6214.413435216854
 21
-3092.154205424678
 31
0.0
  0
LINE
  5
4A640
330
1F
100
AcDbEntity
  8
AM_0
  6
中線
 48
0.5
370
    30
100
AcDbLine
 10
6212.326891250855
 20
-3090.654205424677
 30
0.0
 11
6212.326891250855
 21
-3099.854205424677
 31
0.0
  0
LINE
  5
4A641
330
1F
100
AcDbEntity
  8
AM_0
  6
中線
 48
0.5
370
    30
100
AcDbLine
 10
6215.826891250855
 20
-3135.340808339231
 30
0.0
 11
6215.826891250855
 21
-3134.340808339231
 31
0.0
  0
LINE
  5
4A642
330
1F
100
AcDbEntity
  8
AM_0
  6
中線
 48
0.5
370
    30
100
AcDbLine
 10
6213.826891250855
 20
-3135.340808339231
 30
0.0
 11
6215.826891250855
 21
-3135.340808339231
 31
0.0
  0
LINE
  5
4A643
330
1F
100
AcDbEntity
  8
AM_0
  6
中線
 48
0.5
370
    30
100
AcDbLine
 10
6213.826891250855
 20
-3134.340808339231
 30
0.0
 11
6213.826891250855
 21
-3135.340808339231
 31
0.0
  0
LINE
  5
4A644
330
1F
100
AcDbEntity
  8
AM_0
  6
中線
 48
0.5
370
    30
100
AcDbLine
 10
6224.826891250855
 20
-3132.840808339231
 30
0.0
 11
6224.826891250855
 21
-3134.340808339231
 31
0.0
  0
LINE
  5
4A645
330
1F
100
AcDbEntity
  8
AM_0
  6
中線
 48
0.5
370
    30
100
AcDbLine
 10
6212.326891250855
 20
-3134.340808339231
 30
0.0
 11
6224.826891250855
 21
-3134.340808339231
 31
0.0
  0
ARC
  5
4A646
330
1F
100
AcDbEntity
  8
AM_0
  6
中線
 48
0.5
370
    30
100
AcDbCircle
 10
6200.126891250856
 20
-3099.254205424677
 30
0.0
 40
2.0
100
AcDbArc
 50
180.0
 51
270.0
  0
ARC
  5
4A647
330
1F
100
AcDbEntity
  8
AM_0
  6
中線
 48
0.5
370
    30
100
AcDbCircle
 10
6200.126891250856
 20
-3091.254205424677
 30
0.0
 40
2.0
100
AcDbArc
 50
90.0
 51
180.0
  0
ARC
  5
4A648
330
1F
100
AcDbEntity
  8
AM_0
  6
中線
 48
0.5
370
    30
100
AcDbCircle
 10
6199.126891250855
 20
-3180.299739035687
 30
0.0
 40
1.0
100
AcDbArc
 50
180.0
 51
270.0
  0
ARC
  5
4A649
330
1F
100
AcDbEntity
  8
AM_0
  6
中線
 48
0.5
370
    30
100
AcDbCircle
 10
6199.126891250855
 20
-3170.299739035688
 30
0.0
 40
1.0
100
AcDbArc
 50
90.0
 51
180.0
  0
CIRCLE
  5
4A64A
330
1F
100
AcDbEntity
  8
AM_0
  6
中線
 48
0.5
370
    30
100
AcDbCircle
 10
6201.326891250855
 20
-3095.254205424677
 30
0.0
 40
1.75
  0
CIRCLE
  5
4A64B
330
1F
100
AcDbEntity
  8
AM_0
  6
中線
 48
0.5
370
    30
100
AcDbCircle
 10
6201.326891250855
 20
-3095.254205424677
 30
0.0
 40
3.0
  0
CIRCLE
  5
4A64C
330
1F
100
AcDbEntity
  8
AM_0
  6
中線
 48
0.5
370
    30
100
AcDbCircle
 10
6201.326891250855
 20
-3175.299739035688
 30
0.0
 40
2.0
  0
CIRCLE
  5
4A64D
330
1F
100
AcDbEntity
  8
AM_3
  6
陰線1
 48
0.5
370
    13
100
AcDbCircle
 10
6201.326891250855
 20
-3175.299739035688
 30
0.0
 40
2.799999999999998
  0
CIRCLE
  5
4A64E
330
1F
100
AcDbEntity
  8
AM_0
  6
中線
 48
0.5
370
    30
100
AcDbCircle
 10
6206.326891250855
 20
-3175.299739035688
 30
0.0
 40
1.0
  0
LINE
  5
4A652
330
1F
100
AcDbEntity
  8
AM_0
  6
中線
 48
0.5
370
    30
100
AcDbLine
 10
6198.126891250856
 20
-3132.840808339231
 30
0.0
 11
6198.126891250856
 21
-3134.340808339231
 31
0.0
  0
LINE
  5
4A653
330
1F
100
AcDbEntity
  8
AM_0
  6
中線
 48
0.5
370
    30
100
AcDbLine
 10
6207.326891250854
 20
-3132.840808339231
 30
0.0
 11
6198.126891250856
 21
-3132.840808339231
 31
0.0
  0
LINE
  5
4A654
330
1F
100
AcDbEntity
  8
AM_0
  6
中線
 48
0.5
370
    30
100
AcDbLine
 10
6205.326891250855
 20
-3134.340808339231
 30
0.0
 11
6205.326891250855
 21
-3135.340808339231
 31
0.0
  0
LINE
  5
4A655
330
1F
100
AcDbEntity
  8
AM_0
  6
中線
 48
0.5
370
    30
100
AcDbLine
 10
6207.326891250854
 20
-3134.340808339231
 30
0.0
 11
6198.126891250856
 21
-3134.340808339231
 31
0.0
  0
LINE
  5
4A656
330
1F
100
AcDbEntity
  8
AM_0
  6
中線
 48
0.5
370
    30
100
AcDbLine
 10
6205.326891250855
 20
-3135.340808339231
 30
0.0
 11
6207.326891250854
 21
-3135.340808339231
 31
0.0
  0
LINE
  5
4A657
330
1F
100
AcDbEntity
  8
AM_0
  6
中線
 48
0.5
370
    30
100
AcDbLine
 10
6207.326891250854
 20
-3135.340808339231
 30
0.0
 11
6207.326891250854
 21
-3134.340808339231
 31
0.0
  0
LINE
  5
4A658
330
1F
100
AcDbEntity
  8
AM_0
  6
中線
 48
0.5
370
    30
100
AcDbLine
 10
6210.126891250855
 20
-3101.254205424678
 30
0.0
 11
6210.126891250855
 21
-3089.254205424678
 31
0.0
  0
LINE
  5
4A659
330
1F
100
AcDbEntity
  8
AM_0
  6
中線
 48
0.5
370
    30
100
AcDbLine
 10
6198.126891250856
 20
-3091.254205424677
 30
0.0
 11
6198.126891250856
 21
-3099.254205424677
 31
0.0
  0
LINE
  5
4A65A
330
1F
100
AcDbEntity
  8
AM_0
  6
中線
 48
0.5
370
    30
100
AcDbLine
 10
6204.626891250855
 20
-3089.254205424678
 30
0.0
 11
6204.626891250855
 21
-3101.254205424678
 31
0.0
  0
LINE
  5
4A65B
330
1F
100
AcDbEntity
  8
AM_0
  6
中線
 48
0.5
370
    30
100
AcDbLine
 10
6200.126891250856
 20
-3089.254205424678
 30
0.0
 11
6210.126891250855
 21
-3089.254205424678
 31
0.0
  0
LINE
  5
4A65C
330
1F
100
AcDbEntity
  8
AM_0
  6
中線
 48
0.5
370
    30
100
AcDbLine
 10
6210.126891250855
 20
-3101.254205424678
 30
0.0
 11
6200.126891250856
 21
-3101.254205424678
 31
0.0
  0
LINE
  5
4A65D
330
1F
100
AcDbEntity
  8
AM_0
  6
中線
 48
0.5
370
    30
100
AcDbLine
 10
6210.126891250855
 20
-3181.299739035687
 30
0.0
 11
6210.126891250855
 21
-3169.299739035687
 31
0.0
  0
LINE
  5
4A65E
330
1F
100
AcDbEntity
  8
AM_0
  6
中線
 48
0.5
370
    30
100
AcDbLine
 10
6198.126891250856
 20
-3170.299739035688
 30
0.0
 11
6198.126891250856
 21
-3180.299739035687
 31
0.0
  0
LINE
  5
4A65F
330
1F
100
AcDbEntity
  8
AM_0
  6
中線
 48
0.5
370
    30
100
AcDbLine
 10
6199.126891250855
 20
-3181.299739035687
 30
0.0
 11
6210.126891250855
 21
-3181.299739035687
 31
0.0
  0
LINE
  5
4A660
330
1F
100
AcDbEntity
  8
AM_0
  6
中線
 48
0.5
370
    30
100
AcDbLine
 10
6210.126891250855
 20
-3169.299739035687
 30
0.0
 11
6199.126891250855
 21
-3169.299739035687
 31
0.0
  0
LINE
  5
4A669
330
1F
100
AcDbEntity
  8
AM_0
  6
中線
 48
0.5
370
    30
100
AcDbLine
 10
6214.768621715855
 20
-3090.604205424677
 30
0.0
 11
6214.768621715855
 21
-3099.904205424677
 31
0.0
  0
POLYLINE
  5
4A66A
330
1F
100
AcDbEntity
  8
AM_0
  6
中線
 48
0.5
370
    30
100
AcDb2dPolyline
 66
     1
 10
0.0
 20
0.0
 30
0.0
  0
VERTEX
  5
4A66B
330
4A66A
100
AcDbEntity
  8
AM_0
  6
中線
 48
0.5
370
    30
100
AcDbVertex
100
AcDb2dVertex
 10
6214.355165681855
 20
-3089.104205424678
 30
0.0
  0
VERTEX
  5
4A66C
330
4A66A
100
AcDbEntity
  8
AM_0
  6
中線
 48
0.5
370
    30
100
AcDbVertex
100
AcDb2dVertex
 10
6214.360175391854
 20
-3089.105301013678
 30
0.0
  0
VERTEX
  5
4A66D
330
4A66A
100
AcDbEntity
  8
AM_0
  6
中線
 48
0.5
370
    30
100
AcDbVertex
100
AcDb2dVertex
 10
6214.365181120855
 20
-3089.106414650677
 30
0.0
  0
VERTEX
  5
4A66E
330
4A66A
100
AcDbEntity
  8
AM_0
  6
中線
 48
0.5
370
    30
100
AcDbVertex
100
AcDb2dVertex
 10
6214.370182803855
 20
-3089.107546319677
 30
0.0
  0
VERTEX
  5
4A66F
330
4A66A
100
AcDbEntity
  8
AM_0
  6
中線
 48
0.5
370
    30
100
AcDbVertex
100
AcDb2dVertex
 10
6214.375146876855
 20
-3089.108707160677
 30
0.0
  0
VERTEX
  5
4A670
330
4A66A
100
AcDbEntity
  8
AM_0
  6
中線
 48
0.5
370
    30
100
AcDbVertex
100
AcDb2dVertex
 10
6214.380097952854
 20
-3089.109922239678
 30
0.0
  0
VERTEX
  5
4A671
330
4A66A
100
AcDbEntity
  8
AM_0
  6
中線
 48
0.5
370
    30
100
AcDbVertex
100
AcDb2dVertex
 10
6214.385035438855
 20
-3089.111191410677
 30
0.0
  0
VERTEX
  5
4A672
330
4A66A
100
AcDbEntity
  8
AM_0
  6
中線
 48
0.5
370
    30
100
AcDbVertex
100
AcDb2dVertex
 10
6214.389902781856
 20
-3089.112519006678
 30
0.0
  0
VERTEX
  5
4A673
330
4A66A
100
AcDbEntity
  8
AM_0
  6
中線
 48
0.5
370
    30
100
AcDbVertex
100
AcDb2dVertex
 10
6214.394744562856
 20
-3089.113936997677
 30
0.0
  0
VERTEX
  5
4A674
330
4A66A
100
AcDbEntity
  8
AM_0
  6
中線
 48
0.5
370
    30
100
AcDbVertex
100
AcDb2dVertex
 10
6214.399559102855
 20
-3089.115444889678
 30
0.0
  0
VERTEX
  5
4A675
330
4A66A
100
AcDbEntity
  8
AM_0
  6
中線
 48
0.5
370
    30
100
AcDbVertex
100
AcDb2dVertex
 10
6214.404281276856
 20
-3089.117041791678
 30
0.0
  0
VERTEX
  5
4A676
330
4A66A
100
AcDbEntity
  8
AM_0
  6
中線
 48
0.5
370
    30
100
AcDbVertex
100
AcDb2dVertex
 10
6214.408959123855
 20
-3089.118764222678
 30
0.0
  0
VERTEX
  5
4A677
330
4A66A
100
AcDbEntity
  8
AM_0
  6
中線
 48
0.5
370
    30
100
AcDbVertex
100
AcDb2dVertex
 10
6214.413589307856
 20
-3089.120610952678
 30
0.0
  0
VERTEX
  5
4A678
330
4A66A
100
AcDbEntity
  8
AM_0
  6
中線
 48
0.5
370
    30
100
AcDbVertex
100
AcDb2dVertex
 10
6214.418120206856
 20
-3089.122582290678
 30
0.0
  0
VERTEX
  5
4A679
330
4A66A
100
AcDbEntity
  8
AM_0
  6
中線
 48
0.5
370
    30
100
AcDbVertex
100
AcDb2dVertex
 10
6214.422579442855
 20
-3089.124710771677
 30
0.0
  0
VERTEX
  5
4A67A
330
4A66A
100
AcDbEntity
  8
AM_0
  6
中線
 48
0.5
370
    30
100
AcDbVertex
100
AcDb2dVertex
 10
6214.426961568856
 20
-3089.126993794677
 30
0.0
  0
VERTEX
  5
4A67B
330
4A66A
100
AcDbEntity
  8
AM_0
  6
中線
 48
0.5
370
    30
100
AcDbVertex
100
AcDb2dVertex
 10
6214.432478155854
 20
-3089.130189260678
 30
0.0
  0
VERTEX
  5
4A67C
330
4A66A
100
AcDbEntity
  8
AM_0
  6
中線
 48
0.5
370
    30
100
AcDbVertex
100
AcDb2dVertex
 10
6214.437842403855
 20
-3089.133634341678
 30
0.0
  0
VERTEX
  5
4A67D
330
4A66A
100
AcDbEntity
  8
AM_0
  6
中線
 48
0.5
370
    30
100
AcDbVertex
100
AcDb2dVertex
 10
6214.443043024854
 20
-3089.137321790677
 30
0.0
  0
VERTEX
  5
4A67E
330
4A66A
100
AcDbEntity
  8
AM_0
  6
中線
 48
0.5
370
    30
100
AcDbVertex
100
AcDb2dVertex
 10
6214.448147499854
 20
-3089.141268751677
 30
0.0
  0
VERTEX
  5
4A67F
330
4A66A
100
AcDbEntity
  8
AM_0
  6
中線
 48
0.5
370
    30
100
AcDbVertex
100
AcDb2dVertex
 10
6214.453102651855
 20
-3089.145401624677
 30
0.0
  0
VERTEX
  5
4A680
330
4A66A
100
AcDbEntity
  8
AM_0
  6
中線
 48
0.5
370
    30
100
AcDbVertex
100
AcDb2dVertex
 10
6214.457901712855
 20
-3089.149714765679
 30
0.0
  0
VERTEX
  5
4A681
330
4A66A
100
AcDbEntity
  8
AM_0
  6
中線
 48
0.5
370
    30
100
AcDbVertex
100
AcDb2dVertex
 10
6214.462627307856
 20
-3089.154248526677
 30
0.0
  0
VERTEX
  5
4A682
330
4A66A
100
AcDbEntity
  8
AM_0
  6
中線
 48
0.5
370
    30
100
AcDbVertex
100
AcDb2dVertex
 10
6214.467221686856
 20
-3089.158915208678
 30
0.0
  0
VERTEX
  5
4A683
330
4A66A
100
AcDbEntity
  8
AM_0
  6
中線
 48
0.5
370
    30
100
AcDbVertex
100
AcDb2dVertex
 10
6214.471681113855
 20
-3089.163711013677
 30
0.0
  0
VERTEX
  5
4A684
330
4A66A
100
AcDbEntity
  8
AM_0
  6
中線
 48
0.5
370
    30
100
AcDbVertex
100
AcDb2dVertex
 10
6214.476067739854
 20
-3089.168666865677
 30
0.0
  0
VERTEX
  5
4A685
330
4A66A
100
AcDbEntity
  8
AM_0
  6
中線
 48
0.5
370
    30
100
AcDbVertex
100
AcDb2dVertex
 10
6214.480349564855
 20
-3089.173713541678
 30
0.0
  0
VERTEX
  5
4A686
330
4A66A
100
AcDbEntity
  8
AM_0
  6
中線
 48
0.5
370
    30
100
AcDbVertex
100
AcDb2dVertex
 10
6214.484524707856
 20
-3089.178848825678
 30
0.0
  0
VERTEX
  5
4A687
330
4A66A
100
AcDbEntity
  8
AM_0
  6
中線
 48
0.5
370
    30
100
AcDbVertex
100
AcDb2dVertex
 10
6214.488616370854
 20
-3089.184064285678
 30
0.0
  0
VERTEX
  5
4A688
330
4A66A
100
AcDbEntity
  8
AM_0
  6
中線
 48
0.5
370
    30
100
AcDbVertex
100
AcDb2dVertex
 10
6214.492633727854
 20
-3089.189337194677
 30
0.0
  0
VERTEX
  5
4A689
330
4A66A
100
AcDbEntity
  8
AM_0
  6
中線
 48
0.5
370
    30
100
AcDbVertex
100
AcDb2dVertex
 10
6214.496575973855
 20
-3089.194666493677
 30
0.0
  0
VERTEX
  5
4A68A
330
4A66A
100
AcDbEntity
  8
AM_0
  6
中線
 48
0.5
370
    30
100
AcDbVertex
100
AcDb2dVertex
 10
6214.501650767854
 20
-3089.201712346677
 30
0.0
  0
VERTEX
  5
4A68B
330
4A66A
100
AcDbEntity
  8
AM_0
  6
中線
 48
0.5
370
    30
100
AcDbVertex
100
AcDb2dVertex
 10
6214.506625396855
 20
-3089.208829274677
 30
0.0
  0
VERTEX
  5
4A68C
330
4A66A
100
AcDbEntity
  8
AM_0
  6
中線
 48
0.5
370
    30
100
AcDbVertex
100
AcDb2dVertex
 10
6214.511498863855
 20
-3089.216015852677
 30
0.0
  0
VERTEX
  5
4A68D
330
4A66A
100
AcDbEntity
  8
AM_0
  6
中線
 48
0.5
370
    30
100
AcDbVertex
100
AcDb2dVertex
 10
6214.516225405854
 20
-3089.223196607679
 30
0.0
  0
VERTEX
  5
4A68E
330
4A66A
100
AcDbEntity
  8
AM_0
  6
中線
 48
0.5
370
    30
100
AcDbVertex
100
AcDb2dVertex
 10
6214.520855991856
 20
-3089.230439611677
 30
0.0
  0
VERTEX
  5
4A68F
330
4A66A
100
AcDbEntity
  8
AM_0
  6
中線
 48
0.5
370
    30
100
AcDbVertex
100
AcDb2dVertex
 10
6214.525389804855
 20
-3089.237743581678
 30
0.0
  0
VERTEX
  5
4A690
330
4A66A
100
AcDbEntity
  8
AM_0
  6
中線
 48
0.5
370
    30
100
AcDbVertex
100
AcDb2dVertex
 10
6214.529800883855
 20
-3089.245057880678
 30
0.0
  0
VERTEX
  5
4A691
330
4A66A
100
AcDbEntity
  8
AM_0
  6
中線
 48
0.5
370
    30
100
AcDbVertex
100
AcDb2dVertex
 10
6214.534121525854
 20
-3089.252425963677
 30
0.0
  0
VERTEX
  5
4A692
330
4A66A
100
AcDbEntity
  8
AM_0
  6
中線
 48
0.5
370
    30
100
AcDbVertex
100
AcDb2dVertex
 10
6214.538351072857
 20
-3089.259846713677
 30
0.0
  0
VERTEX
  5
4A693
330
4A66A
100
AcDbEntity
  8
AM_0
  6
中線
 48
0.5
370
    30
100
AcDbVertex
100
AcDb2dVertex
 10
6214.542479626856
 20
-3089.267293054677
 30
0.0
  0
VERTEX
  5
4A694
330
4A66A
100
AcDbEntity
  8
AM_0
  6
中線
 48
0.5
370
    30
100
AcDbVertex
100
AcDb2dVertex
 10
6214.546524420854
 20
-3089.274785224677
 30
0.0
  0
VERTEX
  5
4A695
330
4A66A
100
AcDbEntity
  8
AM_0
  6
中線
 48
0.5
370
    30
100
AcDbVertex
100
AcDb2dVertex
 10
6214.550484944854
 20
-3089.282322281678
 30
0.0
  0
VERTEX
  5
4A696
330
4A66A
100
AcDbEntity
  8
AM_0
  6
中線
 48
0.5
370
    30
100
AcDbVertex
100
AcDb2dVertex
 10
6214.554364079855
 20
-3089.289899071677
 30
0.0
  0
VERTEX
  5
4A697
330
4A66A
100
AcDbEntity
  8
AM_0
  6
中線
 48
0.5
370
    30
100
AcDbVertex
100
AcDb2dVertex
 10
6214.558167125854
 20
-3089.297514338678
 30
0.0
  0
VERTEX
  5
4A698
330
4A66A
100
AcDbEntity
  8
AM_0
  6
中線
 48
0.5
370
    30
100
AcDbVertex
100
AcDb2dVertex
 10
6214.561893698855
 20
-3089.305167318677
 30
0.0
  0
VERTEX
  5
4A699
330
4A66A
100
AcDbEntity
  8
AM_0
  6
中線
 48
0.5
370
    30
100
AcDbVertex
100
AcDb2dVertex
 10
6214.566480839855
 20
-3089.314846906678
 30
0.0
  0
VERTEX
  5
4A69A
330
4A66A
100
AcDbEntity
  8
AM_0
  6
中線
 48
0.5
370
    30
100
AcDbVertex
100
AcDb2dVertex
 10
6214.570959541855
 20
-3089.324577142678
 30
0.0
  0
VERTEX
  5
4A69B
330
4A66A
100
AcDbEntity
  8
AM_0
  6
中線
 48
0.5
370
    30
100
AcDbVertex
100
AcDb2dVertex
 10
6214.575329246855
 20
-3089.334356813678
 30
0.0
  0
VERTEX
  5
4A69C
330
4A66A
100
AcDbEntity
  8
AM_0
  6
中線
 48
0.5
370
    30
100
AcDbVertex
100
AcDb2dVertex
 10
6214.579606837855
 20
-3089.344208245677
 30
0.0
  0
VERTEX
  5
4A69D
330
4A66A
100
AcDbEntity
  8
AM_0
  6
中線
 48
0.5
370
    30
100
AcDbVertex
100
AcDb2dVertex
 10
6214.583786144856
 20
-3089.354101772677
 30
0.0
  0
VERTEX
  5
4A69E
330
4A66A
100
AcDbEntity
  8
AM_0
  6
中線
 48
0.5
370
    30
100
AcDbVertex
100
AcDb2dVertex
 10
6214.587866753856
 20
-3089.364036414677
 30
0.0
  0
VERTEX
  5
4A69F
330
4A66A
100
AcDbEntity
  8
AM_0
  6
中線
 48
0.5
370
    30
100
AcDbVertex
100
AcDb2dVertex
 10
6214.591862458855
 20
-3089.374029337677
 30
0.0
  0
VERTEX
  5
4A6A0
330
4A66A
100
AcDbEntity
  8
AM_0
  6
中線
 48
0.5
370
    30
100
AcDbVertex
100
AcDb2dVertex
 10
6214.595770350855
 20
-3089.384056926677
 30
0.0
  0
VERTEX
  5
4A6A1
330
4A66A
100
AcDbEntity
  8
AM_0
  6
中線
 48
0.5
370
    30
100
AcDbVertex
100
AcDb2dVertex
 10
6214.599590127853
 20
-3089.394118411678
 30
0.0
  0
VERTEX
  5
4A6A2
330
4A66A
100
AcDbEntity
  8
AM_0
  6
中線
 48
0.5
370
    30
100
AcDbVertex
100
AcDb2dVertex
 10
6214.603331727855
 20
-3089.404222602678
 30
0.0
  0
VERTEX
  5
4A6A3
330
4A66A
100
AcDbEntity
  8
AM_0
  6
中線
 48
0.5
370
    30
100
AcDbVertex
100
AcDb2dVertex
 10
6214.606996180854
 20
-3089.414355026677
 30
0.0
  0
VERTEX
  5
4A6A4
330
4A66A
100
AcDbEntity
  8
AM_0
  6
中線
 48
0.5
370
    30
100
AcDbVertex
100
AcDb2dVertex
 10
6214.610583273855
 20
-3089.424515095677
 30
0.0
  0
VERTEX
  5
4A6A5
330
4A66A
100
AcDbEntity
  8
AM_0
  6
中線
 48
0.5
370
    30
100
AcDbVertex
100
AcDb2dVertex
 10
6214.614098632855
 20
-3089.434700463677
 30
0.0
  0
VERTEX
  5
4A6A6
330
4A66A
100
AcDbEntity
  8
AM_0
  6
中線
 48
0.5
370
    30
100
AcDbVertex
100
AcDb2dVertex
 10
6214.617547622856
 20
-3089.444908495677
 30
0.0
  0
VERTEX
  5
4A6A7
330
4A66A
100
AcDbEntity
  8
AM_0
  6
中線
 48
0.5
370
    30
100
AcDbVertex
100
AcDb2dVertex
 10
6214.620930097855
 20
-3089.455138759677
 30
0.0
  0
VERTEX
  5
4A6A8
330
4A66A
100
AcDbEntity
  8
AM_0
  6
中線
 48
0.5
370
    30
100
AcDbVertex
100
AcDb2dVertex
 10
6214.624870971856
 20
-3089.467324118678
 30
0.0
  0
VERTEX
  5
4A6A9
330
4A66A
100
AcDbEntity
  8
AM_0
  6
中線
 48
0.5
370
    30
100
AcDbVertex
100
AcDb2dVertex
 10
6214.628728102855
 20
-3089.479536244677
 30
0.0
  0
VERTEX
  5
4A6AA
330
4A66A
100
AcDbEntity
  8
AM_0
  6
中線
 48
0.5
370
    30
100
AcDbVertex
100
AcDb2dVertex
 10
6214.632501306855
 20
-3089.491774561678
 30
0.0
  0
VERTEX
  5
4A6AB
330
4A66A
100
AcDbEntity
  8
AM_0
  6
中線
 48
0.5
370
    30
100
AcDbVertex
100
AcDb2dVertex
 10
6214.636189294854
 20
-3089.504024606677
 30
0.0
  0
VERTEX
  5
4A6AC
330
4A66A
100
AcDbEntity
  8
AM_0
  6
中線
 48
0.5
370
    30
100
AcDbVertex
100
AcDb2dVertex
 10
6214.639798783855
 20
-3089.516298010678
 30
0.0
  0
VERTEX
  5
4A6AD
330
4A66A
100
AcDbEntity
  8
AM_0
  6
中線
 48
0.5
370
    30
100
AcDbVertex
100
AcDb2dVertex
 10
6214.643329625855
 20
-3089.528594269677
 30
0.0
  0
VERTEX
  5
4A6AE
330
4A66A
100
AcDbEntity
  8
AM_0
  6
中線
 48
0.5
370
    30
100
AcDbVertex
100
AcDb2dVertex
 10
6214.646782359855
 20
-3089.540904260678
 30
0.0
  0
VERTEX
  5
4A6AF
330
4A66A
100
AcDbEntity
  8
AM_0
  6
中線
 48
0.5
370
    30
100
AcDbVertex
100
AcDb2dVertex
 10
6214.650162013855
 20
-3089.553234516677
 30
0.0
  0
VERTEX
  5
4A6B0
330
4A66A
100
AcDbEntity
  8
AM_0
  6
中線
 48
0.5
370
    30
100
AcDbVertex
100
AcDb2dVertex
 10
6214.653468467855
 20
-3089.565584601678
 30
0.0
  0
VERTEX
  5
4A6B1
330
4A66A
100
AcDbEntity
  8
AM_0
  6
中線
 48
0.5
370
    30
100
AcDbVertex
100
AcDb2dVertex
 10
6214.656703612855
 20
-3089.577949813677
 30
0.0
  0
VERTEX
  5
4A6B2
330
4A66A
100
AcDbEntity
  8
AM_0
  6
中線
 48
0.5
370
    30
100
AcDbVertex
100
AcDb2dVertex
 10
6214.659871237856
 20
-3089.590332494677
 30
0.0
  0
VERTEX
  5
4A6B3
330
4A66A
100
AcDbEntity
  8
AM_0
  6
中線
 48
0.5
370
    30
100
AcDbVertex
100
AcDb2dVertex
 10
6214.662971246855
 20
-3089.602732275678
 30
0.0
  0
VERTEX
  5
4A6B4
330
4A66A
100
AcDbEntity
  8
AM_0
  6
中線
 48
0.5
370
    30
100
AcDbVertex
100
AcDb2dVertex
 10
6214.666006494855
 20
-3089.615148000678
 30
0.0
  0
VERTEX
  5
4A6B5
330
4A66A
100
AcDbEntity
  8
AM_0
  6
中線
 48
0.5
370
    30
100
AcDbVertex
100
AcDb2dVertex
 10
6214.668979896856
 20
-3089.627578680677
 30
0.0
  0
VERTEX
  5
4A6B6
330
4A66A
100
AcDbEntity
  8
AM_0
  6
中線
 48
0.5
370
    30
100
AcDbVertex
100
AcDb2dVertex
 10
6214.671891378857
 20
-3089.640024009677
 30
0.0
  0
VERTEX
  5
4A6B7
330
4A66A
100
AcDbEntity
  8
AM_0
  6
中線
 48
0.5
370
    30
100
AcDbVertex
100
AcDb2dVertex
 10
6214.675131850854
 20
-3089.654198870678
 30
0.0
  0
VERTEX
  5
4A6B8
330
4A66A
100
AcDbEntity
  8
AM_0
  6
中線
 48
0.5
370
    30
100
AcDbVertex
100
AcDb2dVertex
 10
6214.678297962855
 20
-3089.668390525677
 30
0.0
  0
VERTEX
  5
4A6B9
330
4A66A
100
AcDbEntity
  8
AM_0
  6
中線
 48
0.5
370
    30
100
AcDbVertex
100
AcDb2dVertex
 10
6214.681389627855
 20
-3089.682598583677
 30
0.0
  0
VERTEX
  5
4A6BA
330
4A66A
100
AcDbEntity
  8
AM_0
  6
中線
 48
0.5
370
    30
100
AcDbVertex
100
AcDb2dVertex
 10
6214.684409532855
 20
-3089.696825455678
 30
0.0
  0
VERTEX
  5
4A6BB
330
4A66A
100
AcDbEntity
  8
AM_0
  6
中線
 48
0.5
370
    30
100
AcDbVertex
100
AcDb2dVertex
 10
6214.687358968855
 20
-3089.711067104677
 30
0.0
  0
VERTEX
  5
4A6BC
330
4A66A
100
AcDbEntity
  8
AM_0
  6
中線
 48
0.5
370
    30
100
AcDbVertex
100
AcDb2dVertex
 10
6214.690237861855
 20
-3089.725323179677
 30
0.0
  0
VERTEX
  5
4A6BD
330
4A66A
100
AcDbEntity
  8
AM_0
  6
中線
 48
0.5
370
    30
100
AcDbVertex
100
AcDb2dVertex
 10
6214.693048724854
 20
-3089.739595488678
 30
0.0
  0
VERTEX
  5
4A6BE
330
4A66A
100
AcDbEntity
  8
AM_0
  6
中線
 48
0.5
370
    30
100
AcDbVertex
100
AcDb2dVertex
 10
6214.695793038855
 20
-3089.753880741677
 30
0.0
  0
VERTEX
  5
4A6BF
330
4A66A
100
AcDbEntity
  8
AM_0
  6
中線
 48
0.5
370
    30
100
AcDbVertex
100
AcDb2dVertex
 10
6214.698470744856
 20
-3089.768178630678
 30
0.0
  0
VERTEX
  5
4A6C0
330
4A66A
100
AcDbEntity
  8
AM_0
  6
中線
 48
0.5
370
    30
100
AcDbVertex
100
AcDb2dVertex
 10
6214.701084096855
 20
-3089.782489809678
 30
0.0
  0
VERTEX
  5
4A6C1
330
4A66A
100
AcDbEntity
  8
AM_0
  6
中線
 48
0.5
370
    30
100
AcDbVertex
100
AcDb2dVertex
 10
6214.703634844854
 20
-3089.796812280678
 30
0.0
  0
VERTEX
  5
4A6C2
330
4A66A
100
AcDbEntity
  8
AM_0
  6
中線
 48
0.5
370
    30
100
AcDbVertex
100
AcDb2dVertex
 10
6214.706122939855
 20
-3089.811145767678
 30
0.0
  0
VERTEX
  5
4A6C3
330
4A66A
100
AcDbEntity
  8
AM_0
  6
中線
 48
0.5
370
    30
100
AcDbVertex
100
AcDb2dVertex
 10
6214.708550322855
 20
-3089.825489264678
 30
0.0
  0
VERTEX
  5
4A6C4
330
4A66A
100
AcDbEntity
  8
AM_0
  6
中線
 48
0.5
370
    30
100
AcDbVertex
100
AcDb2dVertex
 10
6214.710919059855
 20
-3089.839842563677
 30
0.0
  0
VERTEX
  5
4A6C5
330
4A66A
100
AcDbEntity
  8
AM_0
  6
中線
 48
0.5
370
    30
100
AcDbVertex
100
AcDb2dVertex
 10
6214.713229110856
 20
-3089.854205424678
 30
0.0
  0
VERTEX
  5
4A6C6
330
4A66A
100
AcDbEntity
  8
AM_0
  6
中線
 48
0.5
370
    30
100
AcDbVertex
100
AcDb2dVertex
 10
6214.715693879854
 20
-3089.869944944677
 30
0.0
  0
VERTEX
  5
4A6C7
330
4A66A
100
AcDbEntity
  8
AM_0
  6
中線
 48
0.5
370
    30
100
AcDbVertex
100
AcDb2dVertex
 10
6214.718092335854
 20
-3089.885694706678
 30
0.0
  0
VERTEX
  5
4A6C8
330
4A66A
100
AcDbEntity
  8
AM_0
  6
中線
 48
0.5
370
    30
100
AcDbVertex
100
AcDb2dVertex
 10
6214.720424434855
 20
-3089.901454429678
 30
0.0
  0
VERTEX
  5
4A6C9
330
4A66A
100
AcDbEntity
  8
AM_0
  6
中線
 48
0.5
370
    30
100
AcDbVertex
100
AcDb2dVertex
 10
6214.722691637855
 20
-3089.917222001677
 30
0.0
  0
VERTEX
  5
4A6CA
330
4A66A
100
AcDbEntity
  8
AM_0
  6
中線
 48
0.5
370
    30
100
AcDbVertex
100
AcDb2dVertex
 10
6214.724895873855
 20
-3089.932998499678
 30
0.0
  0
VERTEX
  5
4A6CB
330
4A66A
100
AcDbEntity
  8
AM_0
  6
中線
 48
0.5
370
    30
100
AcDbVertex
100
AcDb2dVertex
 10
6214.727037109855
 20
-3089.948783671677
 30
0.0
  0
VERTEX
  5
4A6CC
330
4A66A
100
AcDbEntity
  8
AM_0
  6
中線
 48
0.5
370
    30
100
AcDbVertex
100
AcDb2dVertex
 10
6214.729116985854
 20
-3089.964576585677
 30
0.0
  0
VERTEX
  5
4A6CD
330
4A66A
100
AcDbEntity
  8
AM_0
  6
中線
 48
0.5
370
    30
100
AcDbVertex
100
AcDb2dVertex
 10
6214.731137270856
 20
-3089.980377232678
 30
0.0
  0
VERTEX
  5
4A6CE
330
4A66A
100
AcDbEntity
  8
AM_0
  6
中線
 48
0.5
370
    30
100
AcDbVertex
100
AcDb2dVertex
 10
6214.733097936855
 20
-3089.996185388678
 30
0.0
  0
VERTEX
  5
4A6CF
330
4A66A
100
AcDbEntity
  8
AM_0
  6
中線
 48
0.5
370
    30
100
AcDbVertex
100
AcDb2dVertex
 10
6214.735000733856
 20
-3090.012000940677
 30
0.0
  0
VERTEX
  5
4A6D0
330
4A66A
100
AcDbEntity
  8
AM_0
  6
中線
 48
0.5
370
    30
100
AcDbVertex
100
AcDb2dVertex
 10
6214.736847335855
 20
-3090.027823150677
 30
0.0
  0
VERTEX
  5
4A6D1
330
4A66A
100
AcDbEntity
  8
AM_0
  6
中線
 48
0.5
370
    30
100
AcDbVertex
100
AcDb2dVertex
 10
6214.738637721855
 20
-3090.043651821678
 30
0.0
  0
VERTEX
  5
4A6D2
330
4A66A
100
AcDbEntity
  8
AM_0
  6
中線
 48
0.5
370
    30
100
AcDbVertex
100
AcDb2dVertex
 10
6214.740373689855
 20
-3090.059487312677
 30
0.0
  0
VERTEX
  5
4A6D3
330
4A66A
100
AcDbEntity
  8
AM_0
  6
中線
 48
0.5
370
    30
100
AcDbVertex
100
AcDb2dVertex
 10
6214.742056877856
 20
-3090.075328500677
 30
0.0
  0
VERTEX
  5
4A6D4
330
4A66A
100
AcDbEntity
  8
AM_0
  6
中線
 48
0.5
370
    30
100
AcDbVertex
100
AcDb2dVertex
 10
6214.743687265855
 20
-3090.091175209677
 30
0.0
  0
VERTEX
  5
4A6D5
330
4A66A
100
AcDbEntity
  8
AM_0
  6
中線
 48
0.5
370
    30
100
AcDbVertex
100
AcDb2dVertex
 10
6214.745359735855
 20
-3090.107978592677
 30
0.0
  0
VERTEX
  5
4A6D6
330
4A66A
100
AcDbEntity
  8
AM_0
  6
中線
 48
0.5
370
    30
100
AcDbVertex
100
AcDb2dVertex
 10
6214.746973747855
 20
-3090.124787692678
 30
0.0
  0
VERTEX
  5
4A6D7
330
4A66A
100
AcDbEntity
  8
AM_0
  6
中線
 48
0.5
370
    30
100
AcDbVertex
100
AcDb2dVertex
 10
6214.748529281855
 20
-3090.141602303678
 30
0.0
  0
VERTEX
  5
4A6D8
330
4A66A
100
AcDbEntity
  8
AM_0
  6
中線
 48
0.5
370
    30
100
AcDbVertex
100
AcDb2dVertex
 10
6214.750025273857
 20
-3090.158422379677
 30
0.0
  0
VERTEX
  5
4A6D9
330
4A66A
100
AcDbEntity
  8
AM_0
  6
中線
 48
0.5
370
    30
100
AcDbVertex
100
AcDb2dVertex
 10
6214.751460637856
 20
-3090.175247736678
 30
0.0
  0
VERTEX
  5
4A6DA
330
4A66A
100
AcDbEntity
  8
AM_0
  6
中線
 48
0.5
370
    30
100
AcDbVertex
100
AcDb2dVertex
 10
6214.752835356855
 20
-3090.192078157679
 30
0.0
  0
VERTEX
  5
4A6DB
330
4A66A
100
AcDbEntity
  8
AM_0
  6
中線
 48
0.5
370
    30
100
AcDbVertex
100
AcDb2dVertex
 10
6214.754148296855
 20
-3090.208912822677
 30
0.0
  0
VERTEX
  5
4A6DC
330
4A66A
100
AcDbEntity
  8
AM_0
  6
中線
 48
0.5
370
    30
100
AcDbVertex
100
AcDb2dVertex
 10
6214.755398428856
 20
-3090.225752267679
 30
0.0
  0
VERTEX
  5
4A6DD
330
4A66A
100
AcDbEntity
  8
AM_0
  6
中線
 48
0.5
370
    30
100
AcDbVertex
100
AcDb2dVertex
 10
6214.756585734854
 20
-3090.242596259678
 30
0.0
  0
VERTEX
  5
4A6DE
330
4A66A
100
AcDbEntity
  8
AM_0
  6
中線
 48
0.5
370
    30
100
AcDbVertex
100
AcDb2dVertex
 10
6214.757709048853
 20
-3090.259443413677
 30
0.0
  0
VERTEX
  5
4A6DF
330
4A66A
100
AcDbEntity
  8
AM_0
  6
中線
 48
0.5
370
    30
100
AcDbVertex
100
AcDb2dVertex
 10
6214.758767363854
 20
-3090.276294776677
 30
0.0
  0
VERTEX
  5
4A6E0
330
4A66A
100
AcDbEntity
  8
AM_0
  6
中線
 48
0.5
370
    30
100
AcDbVertex
100
AcDb2dVertex
 10
6214.759760663855
 20
-3090.293150096678
 30
0.0
  0
VERTEX
  5
4A6E1
330
4A66A
100
AcDbEntity
  8
AM_0
  6
中線
 48
0.5
370
    30
100
AcDbVertex
100
AcDb2dVertex
 10
6214.760687773855
 20
-3090.310007644677
 30
0.0
  0
VERTEX
  5
4A6E2
330
4A66A
100
AcDbEntity
  8
AM_0
  6
中線
 48
0.5
370
    30
100
AcDbVertex
100
AcDb2dVertex
 10
6214.761547686856
 20
-3090.326868754678
 30
0.0
  0
VERTEX
  5
4A6E3
330
4A66A
100
AcDbEntity
  8
AM_0
  6
中線
 48
0.5
370
    30
100
AcDbVertex
100
AcDb2dVertex
 10
6214.762340389855
 20
-3090.343733157677
 30
0.0
  0
VERTEX
  5
4A6E4
330
4A66A
100
AcDbEntity
  8
AM_0
  6
中線
 48
0.5
370
    30
100
AcDbVertex
100
AcDb2dVertex
 10
6214.763084603855
 20
-3090.361085771677
 30
0.0
  0
VERTEX
  5
4A6E5
330
4A66A
100
AcDbEntity
  8
AM_0
  6
中線
 48
0.5
370
    30
100
AcDbVertex
100
AcDb2dVertex
 10
6214.763763734854
 20
-3090.378441054677
 30
0.0
  0
VERTEX
  5
4A6E6
330
4A66A
100
AcDbEntity
  8
AM_0
  6
中線
 48
0.5
370
    30
100
AcDbVertex
100
AcDb2dVertex
 10
6214.764377773855
 20
-3090.395798762677
 30
0.0
  0
VERTEX
  5
4A6E7
330
4A66A
100
AcDbEntity
  8
AM_0
  6
中線
 48
0.5
370
    30
100
AcDbVertex
100
AcDb2dVertex
 10
6214.764933958855
 20
-3090.413158875677
 30
0.0
  0
VERTEX
  5
4A6E8
330
4A66A
100
AcDbEntity
  8
AM_0
  6
中線
 48
0.5
370
    30
100
AcDbVertex
100
AcDb2dVertex
 10
6214.765439505854
 20
-3090.430520536677
 30
0.0
  0
VERTEX
  5
4A6E9
330
4A66A
100
AcDbEntity
  8
AM_0
  6
中線
 48
0.5
370
    30
100
AcDbVertex
100
AcDb2dVertex
 10
6214.765894411854
 20
-3090.447883599678
 30
0.0
  0
VERTEX
  5
4A6EA
330
4A66A
100
AcDbEntity
  8
AM_0
  6
中線
 48
0.5
370
    30
100
AcDbVertex
100
AcDb2dVertex
 10
6214.766305945856
 20
-3090.465249225677
 30
0.0
  0
VERTEX
  5
4A6EB
330
4A66A
100
AcDbEntity
  8
AM_0
  6
中線
 48
0.5
370
    30
100
AcDbVertex
100
AcDb2dVertex
 10
6214.766681305855
 20
-3090.482615670677
 30
0.0
  0
VERTEX
  5
4A6EC
330
4A66A
100
AcDbEntity
  8
AM_0
  6
中線
 48
0.5
370
    30
100
AcDbVertex
100
AcDb2dVertex
 10
6214.767020490856
 20
-3090.499982860678
 30
0.0
  0
VERTEX
  5
4A6ED
330
4A66A
100
AcDbEntity
  8
AM_0
  6
中線
 48
0.5
370
    30
100
AcDbVertex
100
AcDb2dVertex
 10
6214.767330763855
 20
-3090.517352121678
 30
0.0
  0
VERTEX
  5
4A6EE
330
4A66A
100
AcDbEntity
  8
AM_0
  6
中線
 48
0.5
370
    30
100
AcDbVertex
100
AcDb2dVertex
 10
6214.767619332857
 20
-3090.534721756677
 30
0.0
  0
VERTEX
  5
4A6EF
330
4A66A
100
AcDbEntity
  8
AM_0
  6
中線
 48
0.5
370
    30
100
AcDbVertex
100
AcDb2dVertex
 10
6214.767886195854
 20
-3090.552091738678
 30
0.0
  0
VERTEX
  5
4A6F0
330
4A66A
100
AcDbEntity
  8
AM_0
  6
中線
 48
0.5
370
    30
100
AcDbVertex
100
AcDb2dVertex
 10
6214.768138603854
 20
-3090.569462864678
 30
0.0
  0
VERTEX
  5
4A6F1
330
4A66A
100
AcDbEntity
  8
AM_0
  6
中線
 48
0.5
370
    30
100
AcDbVertex
100
AcDb2dVertex
 10
6214.768383777855
 20
-3090.586834094677
 30
0.0
  0
VERTEX
  5
4A6F2
330
4A66A
100
AcDbEntity
  8
AM_0
  6
中線
 48
0.5
370
    30
100
AcDbVertex
100
AcDb2dVertex
 10
6214.768621715855
 20
-3090.604205424677
 30
0.0
  0
SEQEND
  5
4A6F3
330
4A66A
100
AcDbEntity
  8
AM_0
  6
中線
 48
0.5
370
    30
  0
POLYLINE
  5
4A6F4
330
1F
100
AcDbEntity
  8
AM_0
  6
中線
 48
0.5
370
    30
100
AcDb2dPolyline
 66
     1
 10
0.0
 20
0.0
 30
0.0
  0
VERTEX
  5
4A6F5
330
4A6F4
100
AcDbEntity
  8
AM_0
  6
中線
 48
0.5
370
    30
100
AcDbVertex
100
AcDb2dVertex
 10
6214.355165681855
 20
-3101.404205424677
 30
0.0
  0
VERTEX
  5
4A6F6
330
4A6F4
100
AcDbEntity
  8
AM_0
  6
中線
 48
0.5
370
    30
100
AcDbVertex
100
AcDb2dVertex
 10
6214.360175391854
 20
-3101.403109834678
 30
0.0
  0
VERTEX
  5
4A6F7
330
4A6F4
100
AcDbEntity
  8
AM_0
  6
中線
 48
0.5
370
    30
100
AcDbVertex
100
AcDb2dVertex
 10
6214.365181120855
 20
-3101.401996197677
 30
0.0
  0
VERTEX
  5
4A6F8
330
4A6F4
100
AcDbEntity
  8
AM_0
  6
中線
 48
0.5
370
    30
100
AcDbVertex
100
AcDb2dVertex
 10
6214.370182803855
 20
-3101.400864528677
 30
0.0
  0
VERTEX
  5
4A6F9
330
4A6F4
100
AcDbEntity
  8
AM_0
  6
中線
 48
0.5
370
    30
100
AcDbVertex
100
AcDb2dVertex
 10
6214.375146825855
 20
-3101.399703480677
 30
0.0
  0
VERTEX
  5
4A6FA
330
4A6F4
100
AcDbEntity
  8
AM_0
  6
中線
 48
0.5
370
    30
100
AcDbVertex
100
AcDb2dVertex
 10
6214.380097900854
 20
-3101.398488402677
 30
0.0
  0
VERTEX
  5
4A6FB
330
4A6F4
100
AcDbEntity
  8
AM_0
  6
中線
 48
0.5
370
    30
100
AcDbVertex
100
AcDb2dVertex
 10
6214.385035438855
 20
-3101.397219438677
 30
0.0
  0
VERTEX
  5
4A6FC
330
4A6F4
100
AcDbEntity
  8
AM_0
  6
中線
 48
0.5
370
    30
100
AcDbVertex
100
AcDb2dVertex
 10
6214.389902745854
 20
-3101.395891714677
 30
0.0
  0
VERTEX
  5
4A6FD
330
4A6F4
100
AcDbEntity
  8
AM_0
  6
中線
 48
0.5
370
    30
100
AcDbVertex
100
AcDb2dVertex
 10
6214.394744524855
 20
-3101.394473724677
 30
0.0
  0
VERTEX
  5
4A6FE
330
4A6F4
100
AcDbEntity
  8
AM_0
  6
中線
 48
0.5
370
    30
100
AcDbVertex
100
AcDb2dVertex
 10
6214.399559102855
 20
-3101.392965959677
 30
0.0
  0
VERTEX
  5
4A6FF
330
4A6F4
100
AcDbEntity
  8
AM_0
  6
中線
 48
0.5
370
    30
100
AcDbVertex
100
AcDb2dVertex
 10
6214.404281226855
 20
-3101.391368919677
 30
0.0
  0
VERTEX
  5
4A700
330
4A6F4
100
AcDbEntity
  8
AM_0
  6
中線
 48
0.5
370
    30
100
AcDbVertex
100
AcDb2dVertex
 10
6214.408959071856
 20
-3101.389646489677
 30
0.0
  0
VERTEX
  5
4A701
330
4A6F4
100
AcDbEntity
  8
AM_0
  6
中線
 48
0.5
370
    30
100
AcDbVertex
100
AcDb2dVertex
 10
6214.413589307856
 20
-3101.387799895678
 30
0.0
  0
VERTEX
  5
4A702
330
4A6F4
100
AcDbEntity
  8
AM_0
  6
中線
 48
0.5
370
    30
100
AcDbVertex
100
AcDb2dVertex
 10
6214.418120325855
 20
-3101.385828814677
 30
0.0
  0
VERTEX
  5
4A703
330
4A6F4
100
AcDbEntity
  8
AM_0
  6
中線
 48
0.5
370
    30
100
AcDbVertex
100
AcDb2dVertex
 10
6214.422579567855
 20
-3101.383700330677
 30
0.0
  0
VERTEX
  5
4A704
330
4A6F4
100
AcDbEntity
  8
AM_0
  6
中線
 48
0.5
370
    30
100
AcDbVertex
100
AcDb2dVertex
 10
6214.426961568856
 20
-3101.381417053677
 30
0.0
  0
VERTEX
  5
4A705
330
4A6F4
100
AcDbEntity
  8
AM_0
  6
中線
 48
0.5
370
    30
100
AcDbVertex
100
AcDb2dVertex
 10
6214.432487625854
 20
-3101.378236857677
 30
0.0
  0
VERTEX
  5
4A706
330
4A6F4
100
AcDbEntity
  8
AM_0
  6
中線
 48
0.5
370
    30
100
AcDbVertex
100
AcDb2dVertex
 10
6214.437852349854
 20
-3101.374791469678
 30
0.0
  0
VERTEX
  5
4A707
330
4A6F4
100
AcDbEntity
  8
AM_0
  6
中線
 48
0.5
370
    30
100
AcDbVertex
100
AcDb2dVertex
 10
6214.443043024854
 20
-3101.371089058677
 30
0.0
  0
VERTEX
  5
4A708
330
4A6F4
100
AcDbEntity
  8
AM_0
  6
中線
 48
0.5
370
    30
100
AcDbVertex
100
AcDb2dVertex
 10
6214.448136085856
 20
-3101.367128077678
 30
0.0
  0
VERTEX
  5
4A709
330
4A6F4
100
AcDbEntity
  8
AM_0
  6
中線
 48
0.5
370
    30
100
AcDbVertex
100
AcDb2dVertex
 10
6214.453090908855
 20
-3101.362995478677
 30
0.0
  0
VERTEX
  5
4A70A
330
4A6F4
100
AcDbEntity
  8
AM_0
  6
中線
 48
0.5
370
    30
100
AcDbVertex
100
AcDb2dVertex
 10
6214.457901712855
 20
-3101.358696082677
 30
0.0
  0
VERTEX
  5
4A70B
330
4A6F4
100
AcDbEntity
  8
AM_0
  6
中線
 48
0.5
370
    30
100
AcDbVertex
100
AcDb2dVertex
 10
6214.462639701856
 20
-3101.354174769678
 30
0.0
  0
VERTEX
  5
4A70C
330
4A6F4
100
AcDbEntity
  8
AM_0
  6
中線
 48
0.5
370
    30
100
AcDbVertex
100
AcDb2dVertex
 10
6214.467234326856
 20
-3101.349507838677
 30
0.0
  0
VERTEX
  5
4A70D
330
4A6F4
100
AcDbEntity
  8
AM_0
  6
中線
 48
0.5
370
    30
100
AcDbVertex
100
AcDb2dVertex
 10
6214.471681113855
 20
-3101.344699834677
 30
0.0
  0
VERTEX
  5
4A70E
330
4A6F4
100
AcDbEntity
  8
AM_0
  6
中線
 48
0.5
370
    30
100
AcDbVertex
100
AcDb2dVertex
 10
6214.476053566856
 20
-3101.339731797677
 30
0.0
  0
VERTEX
  5
4A70F
330
4A6F4
100
AcDbEntity
  8
AM_0
  6
中線
 48
0.5
370
    30
100
AcDbVertex
100
AcDb2dVertex
 10
6214.480335233854
 20
-3101.334685307677
 30
0.0
  0
VERTEX
  5
4A710
330
4A6F4
100
AcDbEntity
  8
AM_0
  6
中線
 48
0.5
370
    30
100
AcDbVertex
100
AcDb2dVertex
 10
6214.484524707856
 20
-3101.329562022677
 30
0.0
  0
VERTEX
  5
4A711
330
4A6F4
100
AcDbEntity
  8
AM_0
  6
中線
 48
0.5
370
    30
100
AcDbVertex
100
AcDb2dVertex
 10
6214.488630644854
 20
-3101.324357555677
 30
0.0
  0
VERTEX
  5
4A712
330
4A6F4
100
AcDbEntity
  8
AM_0
  6
中線
 48
0.5
370
    30
100
AcDbVertex
100
AcDb2dVertex
 10
6214.492648114855
 20
-3101.319084498677
 30
0.0
  0
VERTEX
  5
4A713
330
4A6F4
100
AcDbEntity
  8
AM_0
  6
中線
 48
0.5
370
    30
100
AcDbVertex
100
AcDb2dVertex
 10
6214.496575973855
 20
-3101.313744355677
 30
0.0
  0
VERTEX
  5
4A714
330
4A6F4
100
AcDbEntity
  8
AM_0
  6
中線
 48
0.5
370
    30
100
AcDbVertex
100
AcDb2dVertex
 10
6214.501624622855
 20
-3101.306680066678
 30
0.0
  0
VERTEX
  5
4A715
330
4A6F4
100
AcDbEntity
  8
AM_0
  6
中線
 48
0.5
370
    30
100
AcDbVertex
100
AcDb2dVertex
 10
6214.506599100854
 20
-3101.299563353677
 30
0.0
  0
VERTEX
  5
4A716
330
4A6F4
100
AcDbEntity
  8
AM_0
  6
中線
 48
0.5
370
    30
100
AcDbVertex
100
AcDb2dVertex
 10
6214.511498863855
 20
-3101.292394995677
 30
0.0
  0
VERTEX
  5
4A717
330
4A6F4
100
AcDbEntity
  8
AM_0
  6
中線
 48
0.5
370
    30
100
AcDbVertex
100
AcDb2dVertex
 10
6214.516252201856
 20
-3101.285231563677
 30
0.0
  0
VERTEX
  5
4A718
330
4A6F4
100
AcDbEntity
  8
AM_0
  6
中線
 48
0.5
370
    30
100
AcDbVertex
100
AcDb2dVertex
 10
6214.520882961855
 20
-3101.277988288677
 30
0.0
  0
VERTEX
  5
4A719
330
4A6F4
100
AcDbEntity
  8
AM_0
  6
中線
 48
0.5
370
    30
100
AcDbVertex
100
AcDb2dVertex
 10
6214.525389804855
 20
-3101.270667266677
 30
0.0
  0
VERTEX
  5
4A71A
330
4A6F4
100
AcDbEntity
  8
AM_0
  6
中線
 48
0.5
370
    30
100
AcDbVertex
100
AcDb2dVertex
 10
6214.529773762855
 20
-3101.263336936677
 30
0.0
  0
VERTEX
  5
4A71B
330
4A6F4
100
AcDbEntity
  8
AM_0
  6
中線
 48
0.5
370
    30
100
AcDbVertex
100
AcDb2dVertex
 10
6214.534094292855
 20
-3101.255969043677
 30
0.0
  0
VERTEX
  5
4A71C
330
4A6F4
100
AcDbEntity
  8
AM_0
  6
中線
 48
0.5
370
    30
100
AcDbVertex
100
AcDb2dVertex
 10
6214.538351072857
 20
-3101.248564135677
 30
0.0
  0
VERTEX
  5
4A71D
330
4A6F4
100
AcDbEntity
  8
AM_0
  6
中線
 48
0.5
370
    30
100
AcDbVertex
100
AcDb2dVertex
 10
6214.542507333855
 20
-3101.241132907678
 30
0.0
  0
VERTEX
  5
4A71E
330
4A6F4
100
AcDbEntity
  8
AM_0
  6
中線
 48
0.5
370
    30
100
AcDbVertex
100
AcDb2dVertex
 10
6214.546552257855
 20
-3101.233640495677
 30
0.0
  0
VERTEX
  5
4A71F
330
4A6F4
100
AcDbEntity
  8
AM_0
  6
中線
 48
0.5
370
    30
100
AcDbVertex
100
AcDb2dVertex
 10
6214.550484944854
 20
-3101.226088567677
 30
0.0
  0
VERTEX
  5
4A720
330
4A6F4
100
AcDbEntity
  8
AM_0
  6
中線
 48
0.5
370
    30
100
AcDbVertex
100
AcDb2dVertex
 10
6214.554335993855
 20
-3101.218497654678
 30
0.0
  0
VERTEX
  5
4A721
330
4A6F4
100
AcDbEntity
  8
AM_0
  6
中線
 48
0.5
370
    30
100
AcDbVertex
100
AcDb2dVertex
 10
6214.558138962855
 20
-3101.210882540677
 30
0.0
  0
VERTEX
  5
4A722
330
4A6F4
100
AcDbEntity
  8
AM_0
  6
中線
 48
0.5
370
    30
100
AcDbVertex
100
AcDb2dVertex
 10
6214.561893698855
 20
-3101.203243529677
 30
0.0
  0
VERTEX
  5
4A723
330
4A6F4
100
AcDbEntity
  8
AM_0
  6
中線
 48
0.5
370
    30
100
AcDbVertex
100
AcDb2dVertex
 10
6214.566516731856
 20
-3101.193580651677
 30
0.0
  0
VERTEX
  5
4A724
330
4A6F4
100
AcDbEntity
  8
AM_0
  6
中線
 48
0.5
370
    30
100
AcDbVertex
100
AcDb2dVertex
 10
6214.570995577854
 20
-3101.183850103677
 30
0.0
  0
VERTEX
  5
4A725
330
4A6F4
100
AcDbEntity
  8
AM_0
  6
中線
 48
0.5
370
    30
100
AcDbVertex
100
AcDb2dVertex
 10
6214.575329246855
 20
-3101.174054034677
 30
0.0
  0
VERTEX
  5
4A726
330
4A6F4
100
AcDbEntity
  8
AM_0
  6
中線
 48
0.5
370
    30
100
AcDbVertex
100
AcDb2dVertex
 10
6214.579570261856
 20
-3101.164187035677
 30
0.0
  0
VERTEX
  5
4A727
330
4A6F4
100
AcDbEntity
  8
AM_0
  6
中線
 48
0.5
370
    30
100
AcDbVertex
100
AcDb2dVertex
 10
6214.583749485854
 20
-3101.154293706678
 30
0.0
  0
VERTEX
  5
4A728
330
4A6F4
100
AcDbEntity
  8
AM_0
  6
中線
 48
0.5
370
    30
100
AcDbVertex
100
AcDb2dVertex
 10
6214.587866753856
 20
-3101.144374434677
 30
0.0
  0
VERTEX
  5
4A729
330
4A6F4
100
AcDbEntity
  8
AM_0
  6
中線
 48
0.5
370
    30
100
AcDbVertex
100
AcDb2dVertex
 10
6214.591899465855
 20
-3101.134396084678
 30
0.0
  0
VERTEX
  5
4A72A
330
4A6F4
100
AcDbEntity
  8
AM_0
  6
中線
 48
0.5
370
    30
100
AcDbVertex
100
AcDb2dVertex
 10
6214.595807459854
 20
-3101.124368232677
 30
0.0
  0
VERTEX
  5
4A72B
330
4A6F4
100
AcDbEntity
  8
AM_0
  6
中線
 48
0.5
370
    30
100
AcDbVertex
100
AcDb2dVertex
 10
6214.599590127853
 20
-3101.114292437677
 30
0.0
  0
VERTEX
  5
4A72C
330
4A6F4
100
AcDbEntity
  8
AM_0
  6
中線
 48
0.5
370
    30
100
AcDbVertex
100
AcDb2dVertex
 10
6214.603294253855
 20
-3101.104174612677
 30
0.0
  0
VERTEX
  5
4A72D
330
4A6F4
100
AcDbEntity
  8
AM_0
  6
中線
 48
0.5
370
    30
100
AcDbVertex
100
AcDb2dVertex
 10
6214.606958654854
 20
-3101.094042332677
 30
0.0
  0
VERTEX
  5
4A72E
330
4A6F4
100
AcDbEntity
  8
AM_0
  6
中線
 48
0.5
370
    30
100
AcDbVertex
100
AcDb2dVertex
 10
6214.610583273855
 20
-3101.083895752677
 30
0.0
  0
VERTEX
  5
4A72F
330
4A6F4
100
AcDbEntity
  8
AM_0
  6
中線
 48
0.5
370
    30
100
AcDbVertex
100
AcDb2dVertex
 10
6214.614136327855
 20
-3101.073723238677
 30
0.0
  0
VERTEX
  5
4A730
330
4A6F4
100
AcDbEntity
  8
AM_0
  6
中線
 48
0.5
370
    30
100
AcDbVertex
100
AcDb2dVertex
 10
6214.617585388857
 20
-3101.063514996678
 30
0.0
  0
VERTEX
  5
4A731
330
4A6F4
100
AcDbEntity
  8
AM_0
  6
中線
 48
0.5
370
    30
100
AcDbVertex
100
AcDb2dVertex
 10
6214.620930097855
 20
-3101.053272088677
 30
0.0
  0
VERTEX
  5
4A732
330
4A6F4
100
AcDbEntity
  8
AM_0
  6
中線
 48
0.5
370
    30
100
AcDbVertex
100
AcDb2dVertex
 10
6214.624824545856
 20
-3101.041071981678
 30
0.0
  0
VERTEX
  5
4A733
330
4A6F4
100
AcDbEntity
  8
AM_0
  6
中線
 48
0.5
370
    30
100
AcDbVertex
100
AcDb2dVertex
 10
6214.628681627855
 20
-3101.028860009677
 30
0.0
  0
VERTEX
  5
4A734
330
4A6F4
100
AcDbEntity
  8
AM_0
  6
中線
 48
0.5
370
    30
100
AcDbVertex
100
AcDb2dVertex
 10
6214.632501306855
 20
-3101.016636286678
 30
0.0
  0
VERTEX
  5
4A735
330
4A6F4
100
AcDbEntity
  8
AM_0
  6
中線
 48
0.5
370
    30
100
AcDbVertex
100
AcDb2dVertex
 10
6214.636235958855
 20
-3101.004400106678
 30
0.0
  0
VERTEX
  5
4A736
330
4A6F4
100
AcDbEntity
  8
AM_0
  6
中線
 48
0.5
370
    30
100
AcDbVertex
100
AcDb2dVertex
 10
6214.639845523855
 20
-3100.992126443677
 30
0.0
  0
VERTEX
  5
4A737
330
4A6F4
100
AcDbEntity
  8
AM_0
  6
中線
 48
0.5
370
    30
100
AcDbVertex
100
AcDb2dVertex
 10
6214.643329625855
 20
-3100.979816578677
 30
0.0
  0
VERTEX
  5
4A738
330
4A6F4
100
AcDbEntity
  8
AM_0
  6
中線
 48
0.5
370
    30
100
AcDbVertex
100
AcDb2dVertex
 10
6214.646735472856
 20
-3100.967493668677
 30
0.0
  0
VERTEX
  5
4A739
330
4A6F4
100
AcDbEntity
  8
AM_0
  6
中線
 48
0.5
370
    30
100
AcDbVertex
100
AcDb2dVertex
 10
6214.650115091854
 20
-3100.955163539677
 30
0.0
  0
VERTEX
  5
4A73A
330
4A6F4
100
AcDbEntity
  8
AM_0
  6
中線
 48
0.5
370
    30
100
AcDbVertex
100
AcDb2dVertex
 10
6214.653468467855
 20
-3100.942826246678
 30
0.0
  0
VERTEX
  5
4A73B
330
4A6F4
100
AcDbEntity
  8
AM_0
  6
中線
 48
0.5
370
    30
100
AcDbVertex
100
AcDb2dVertex
 10
6214.656750696856
 20
-3100.930473202677
 30
0.0
  0
VERTEX
  5
4A73C
330
4A6F4
100
AcDbEntity
  8
AM_0
  6
中線
 48
0.5
370
    30
100
AcDbVertex
100
AcDb2dVertex
 10
6214.659918380855
 20
-3100.918090290677
 30
0.0
  0
VERTEX
  5
4A73D
330
4A6F4
100
AcDbEntity
  8
AM_0
  6
中線
 48
0.5
370
    30
100
AcDbVertex
100
AcDb2dVertex
 10
6214.662971246855
 20
-3100.905678572677
 30
0.0
  0
VERTEX
  5
4A73E
330
4A6F4
100
AcDbEntity
  8
AM_0
  6
中線
 48
0.5
370
    30
100
AcDbVertex
100
AcDb2dVertex
 10
6214.665959216855
 20
-3100.893251488677
 30
0.0
  0
VERTEX
  5
4A73F
330
4A6F4
100
AcDbEntity
  8
AM_0
  6
中線
 48
0.5
370
    30
100
AcDbVertex
100
AcDb2dVertex
 10
6214.668932595856
 20
-3100.880820904677
 30
0.0
  0
VERTEX
  5
4A740
330
4A6F4
100
AcDbEntity
  8
AM_0
  6
中線
 48
0.5
370
    30
100
AcDbVertex
100
AcDb2dVertex
 10
6214.671891378857
 20
-3100.868386838677
 30
0.0
  0
VERTEX
  5
4A741
330
4A6F4
100
AcDbEntity
  8
AM_0
  6
中線
 48
0.5
370
    30
100
AcDbVertex
100
AcDb2dVertex
 10
6214.675185371856
 20
-3100.854224052677
 30
0.0
  0
VERTEX
  5
4A742
330
4A6F4
100
AcDbEntity
  8
AM_0
  6
中線
 48
0.5
370
    30
100
AcDbVertex
100
AcDb2dVertex
 10
6214.678351540854
 20
-3100.840032142677
 30
0.0
  0
VERTEX
  5
4A743
330
4A6F4
100
AcDbEntity
  8
AM_0
  6
中線
 48
0.5
370
    30
100
AcDbVertex
100
AcDb2dVertex
 10
6214.681389627855
 20
-3100.825812264677
 30
0.0
  0
VERTEX
  5
4A744
330
4A6F4
100
AcDbEntity
  8
AM_0
  6
中線
 48
0.5
370
    30
100
AcDbVertex
100
AcDb2dVertex
 10
6214.684355803855
 20
-3100.811574207677
 30
0.0
  0
VERTEX
  5
4A745
330
4A6F4
100
AcDbEntity
  8
AM_0
  6
中線
 48
0.5
370
    30
100
AcDbVertex
100
AcDb2dVertex
 10
6214.687305215854
 20
-3100.797332669677
 30
0.0
  0
VERTEX
  5
4A746
330
4A6F4
100
AcDbEntity
  8
AM_0
  6
中線
 48
0.5
370
    30
100
AcDbVertex
100
AcDb2dVertex
 10
6214.690237861855
 20
-3100.783087668677
 30
0.0
  0
VERTEX
  5
4A747
330
4A6F4
100
AcDbEntity
  8
AM_0
  6
中線
 48
0.5
370
    30
100
AcDbVertex
100
AcDb2dVertex
 10
6214.693102603855
 20
-3100.768825833677
 30
0.0
  0
VERTEX
  5
4A748
330
4A6F4
100
AcDbEntity
  8
AM_0
  6
中線
 48
0.5
370
    30
100
AcDbVertex
100
AcDb2dVertex
 10
6214.695846962855
 20
-3100.754540344677
 30
0.0
  0
VERTEX
  5
4A749
330
4A6F4
100
AcDbEntity
  8
AM_0
  6
中線
 48
0.5
370
    30
100
AcDbVertex
100
AcDb2dVertex
 10
6214.698470744856
 20
-3100.740232218678
 30
0.0
  0
VERTEX
  5
4A74A
330
4A6F4
100
AcDbEntity
  8
AM_0
  6
中線
 48
0.5
370
    30
100
AcDbVertex
100
AcDb2dVertex
 10
6214.701030058855
 20
-3100.725911368678
 30
0.0
  0
VERTEX
  5
4A74B
330
4A6F4
100
AcDbEntity
  8
AM_0
  6
中線
 48
0.5
370
    30
100
AcDbVertex
100
AcDb2dVertex
 10
6214.703580790854
 20
-3100.711588987677
 30
0.0
  0
VERTEX
  5
4A74C
330
4A6F4
100
AcDbEntity
  8
AM_0
  6
中線
 48
0.5
370
    30
100
AcDbVertex
100
AcDb2dVertex
 10
6214.706122939855
 20
-3100.697265080677
 30
0.0
  0
VERTEX
  5
4A74D
330
4A6F4
100
AcDbEntity
  8
AM_0
  6
中線
 48
0.5
370
    30
100
AcDbVertex
100
AcDb2dVertex
 10
6214.708604463855
 20
-3100.682930629677
 30
0.0
  0
VERTEX
  5
4A74E
330
4A6F4
100
AcDbEntity
  8
AM_0
  6
中線
 48
0.5
370
    30
100
AcDbVertex
100
AcDb2dVertex
 10
6214.710973235855
 20
-3100.668577114678
 30
0.0
  0
VERTEX
  5
4A74F
330
4A6F4
100
AcDbEntity
  8
AM_0
  6
中線
 48
0.5
370
    30
100
AcDbVertex
100
AcDb2dVertex
 10
6214.713229110856
 20
-3100.654205424677
 30
0.0
  0
VERTEX
  5
4A750
330
4A6F4
100
AcDbEntity
  8
AM_0
  6
中線
 48
0.5
370
    30
100
AcDbVertex
100
AcDb2dVertex
 10
6214.715634289856
 20
-3100.638456782677
 30
0.0
  0
VERTEX
  5
4A751
330
4A6F4
100
AcDbEntity
  8
AM_0
  6
中線
 48
0.5
370
    30
100
AcDbVertex
100
AcDb2dVertex
 10
6214.718032731855
 20
-3100.622707112677
 30
0.0
  0
VERTEX
  5
4A752
330
4A6F4
100
AcDbEntity
  8
AM_0
  6
中線
 48
0.5
370
    30
100
AcDbVertex
100
AcDb2dVertex
 10
6214.720424434855
 20
-3100.606956418678
 30
0.0
  0
VERTEX
  5
4A753
330
4A6F4
100
AcDbEntity
  8
AM_0
  6
中線
 48
0.5
370
    30
100
AcDbVertex
100
AcDb2dVertex
 10
6214.722751321856
 20
-3100.591197304678
 30
0.0
  0
VERTEX
  5
4A754
330
4A6F4
100
AcDbEntity
  8
AM_0
  6
中線
 48
0.5
370
    30
100
AcDbVertex
100
AcDb2dVertex
 10
6214.724955590855
 20
-3100.575420572677
 30
0.0
  0
VERTEX
  5
4A755
330
4A6F4
100
AcDbEntity
  8
AM_0
  6
中線
 48
0.5
370
    30
100
AcDbVertex
100
AcDb2dVertex
 10
6214.727037109855
 20
-3100.559627177677
 30
0.0
  0
VERTEX
  5
4A756
330
4A6F4
100
AcDbEntity
  8
AM_0
  6
中線
 48
0.5
370
    30
100
AcDbVertex
100
AcDb2dVertex
 10
6214.729116985854
 20
-3100.543834263677
 30
0.0
  0
VERTEX
  5
4A757
330
4A6F4
100
AcDbEntity
  8
AM_0
  6
中線
 48
0.5
370
    30
100
AcDbVertex
100
AcDb2dVertex
 10
6214.731137270856
 20
-3100.528033615677
 30
0.0
  0
VERTEX
  5
4A758
330
4A6F4
100
AcDbEntity
  8
AM_0
  6
中線
 48
0.5
370
    30
100
AcDbVertex
100
AcDb2dVertex
 10
6214.733097936855
 20
-3100.512225459678
 30
0.0
  0
VERTEX
  5
4A759
330
4A6F4
100
AcDbEntity
  8
AM_0
  6
中線
 48
0.5
370
    30
100
AcDbVertex
100
AcDb2dVertex
 10
6214.735000733856
 20
-3100.496409908677
 30
0.0
  0
VERTEX
  5
4A75A
330
4A6F4
100
AcDbEntity
  8
AM_0
  6
中線
 48
0.5
370
    30
100
AcDbVertex
100
AcDb2dVertex
 10
6214.736847336855
 20
-3100.480587697677
 30
0.0
  0
VERTEX
  5
4A75B
330
4A6F4
100
AcDbEntity
  8
AM_0
  6
中線
 48
0.5
370
    30
100
AcDbVertex
100
AcDb2dVertex
 10
6214.738637721855
 20
-3100.464759026678
 30
0.0
  0
VERTEX
  5
4A75C
330
4A6F4
100
AcDbEntity
  8
AM_0
  6
中線
 48
0.5
370
    30
100
AcDbVertex
100
AcDb2dVertex
 10
6214.740373689855
 20
-3100.448923536677
 30
0.0
  0
VERTEX
  5
4A75D
330
4A6F4
100
AcDbEntity
  8
AM_0
  6
中線
 48
0.5
370
    30
100
AcDbVertex
100
AcDb2dVertex
 10
6214.742056876856
 20
-3100.433082348677
 30
0.0
  0
VERTEX
  5
4A75E
330
4A6F4
100
AcDbEntity
  8
AM_0
  6
中線
 48
0.5
370
    30
100
AcDbVertex
100
AcDb2dVertex
 10
6214.743687265855
 20
-3100.417235639677
 30
0.0
  0
VERTEX
  5
4A75F
330
4A6F4
100
AcDbEntity
  8
AM_0
  6
中線
 48
0.5
370
    30
100
AcDbVertex
100
AcDb2dVertex
 10
6214.745358770854
 20
-3100.400432161678
 30
0.0
  0
VERTEX
  5
4A760
330
4A6F4
100
AcDbEntity
  8
AM_0
  6
中線
 48
0.5
370
    30
100
AcDbVertex
100
AcDb2dVertex
 10
6214.746972781855
 20
-3100.383623064677
 30
0.0
  0
VERTEX
  5
4A761
330
4A6F4
100
AcDbEntity
  8
AM_0
  6
中線
 48
0.5
370
    30
100
AcDbVertex
100
AcDb2dVertex
 10
6214.748529281855
 20
-3100.366808544678
 30
0.0
  0
VERTEX
  5
4A762
330
4A6F4
100
AcDbEntity
  8
AM_0
  6
中線
 48
0.5
370
    30
100
AcDbVertex
100
AcDb2dVertex
 10
6214.750026236856
 20
-3100.349988552677
 30
0.0
  0
VERTEX
  5
4A763
330
4A6F4
100
AcDbEntity
  8
AM_0
  6
中線
 48
0.5
370
    30
100
AcDbVertex
100
AcDb2dVertex
 10
6214.751461601855
 20
-3100.333163193677
 30
0.0
  0
VERTEX
  5
4A764
330
4A6F4
100
AcDbEntity
  8
AM_0
  6
中線
 48
0.5
370
    30
100
AcDbVertex
100
AcDb2dVertex
 10
6214.752835356855
 20
-3100.316332690677
 30
0.0
  0
VERTEX
  5
4A765
330
4A6F4
100
AcDbEntity
  8
AM_0
  6
中線
 48
0.5
370
    30
100
AcDbVertex
100
AcDb2dVertex
 10
6214.754147329855
 20
-3100.299497953677
 30
0.0
  0
VERTEX
  5
4A766
330
4A6F4
100
AcDbEntity
  8
AM_0
  6
中線
 48
0.5
370
    30
100
AcDbVertex
100
AcDb2dVertex
 10
6214.755397461856
 20
-3100.282658510677
 30
0.0
  0
VERTEX
  5
4A767
330
4A6F4
100
AcDbEntity
  8
AM_0
  6
中線
 48
0.5
370
    30
100
AcDbVertex
100
AcDb2dVertex
 10
6214.756585734854
 20
-3100.265814589677
 30
0.0
  0
VERTEX
  5
4A768
330
4A6F4
100
AcDbEntity
  8
AM_0
  6
中線
 48
0.5
370
    30
100
AcDbVertex
100
AcDb2dVertex
 10
6214.757710013856
 20
-3100.248967496677
 30
0.0
  0
VERTEX
  5
4A769
330
4A6F4
100
AcDbEntity
  8
AM_0
  6
中線
 48
0.5
370
    30
100
AcDbVertex
100
AcDb2dVertex
 10
6214.758768328855
 20
-3100.232116131677
 30
0.0
  0
VERTEX
  5
4A76A
330
4A6F4
100
AcDbEntity
  8
AM_0
  6
中線
 48
0.5
370
    30
100
AcDbVertex
100
AcDb2dVertex
 10
6214.759760663855
 20
-3100.215260752678
 30
0.0
  0
VERTEX
  5
4A76B
330
4A6F4
100
AcDbEntity
  8
AM_0
  6
中線
 48
0.5
370
    30
100
AcDbVertex
100
AcDb2dVertex
 10
6214.760686805854
 20
-3100.198403152678
 30
0.0
  0
VERTEX
  5
4A76C
330
4A6F4
100
AcDbEntity
  8
AM_0
  6
中線
 48
0.5
370
    30
100
AcDbVertex
100
AcDb2dVertex
 10
6214.761546718855
 20
-3100.181542045679
 30
0.0
  0
VERTEX
  5
4A76D
330
4A6F4
100
AcDbEntity
  8
AM_0
  6
中線
 48
0.5
370
    30
100
AcDbVertex
100
AcDb2dVertex
 10
6214.762340389855
 20
-3100.164677690678
 30
0.0
  0
VERTEX
  5
4A76E
330
4A6F4
100
AcDbEntity
  8
AM_0
  6
中線
 48
0.5
370
    30
100
AcDbVertex
100
AcDb2dVertex
 10
6214.763088381856
 20
-3100.147325229678
 30
0.0
  0
VERTEX
  5
4A76F
330
4A6F4
100
AcDbEntity
  8
AM_0
  6
中線
 48
0.5
370
    30
100
AcDbVertex
100
AcDb2dVertex
 10
6214.763767512856
 20
-3100.129969937678
 30
0.0
  0
VERTEX
  5
4A770
330
4A6F4
100
AcDbEntity
  8
AM_0
  6
中線
 48
0.5
370
    30
100
AcDbVertex
100
AcDb2dVertex
 10
6214.764377773855
 20
-3100.112612086677
 30
0.0
  0
VERTEX
  5
4A771
330
4A6F4
100
AcDbEntity
  8
AM_0
  6
中線
 48
0.5
370
    30
100
AcDbVertex
100
AcDb2dVertex
 10
6214.764930180854
 20
-3100.095251859678
 30
0.0
  0
VERTEX
  5
4A772
330
4A6F4
100
AcDbEntity
  8
AM_0
  6
中線
 48
0.5
370
    30
100
AcDbVertex
100
AcDb2dVertex
 10
6214.765435727855
 20
-3100.077890205677
 30
0.0
  0
VERTEX
  5
4A773
330
4A6F4
100
AcDbEntity
  8
AM_0
  6
中線
 48
0.5
370
    30
100
AcDbVertex
100
AcDb2dVertex
 10
6214.765894411854
 20
-3100.060527249678
 30
0.0
  0
VERTEX
  5
4A774
330
4A6F4
100
AcDbEntity
  8
AM_0
  6
中線
 48
0.5
370
    30
100
AcDbVertex
100
AcDb2dVertex
 10
6214.766309723855
 20
-3100.043161707677
 30
0.0
  0
VERTEX
  5
4A775
330
4A6F4
100
AcDbEntity
  8
AM_0
  6
中線
 48
0.5
370
    30
100
AcDbVertex
100
AcDb2dVertex
 10
6214.766685084857
 20
-3100.025795256677
 30
0.0
  0
VERTEX
  5
4A776
330
4A6F4
100
AcDbEntity
  8
AM_0
  6
中線
 48
0.5
370
    30
100
AcDbVertex
100
AcDb2dVertex
 10
6214.767020490856
 20
-3100.008427987677
 30
0.0
  0
VERTEX
  5
4A777
330
4A6F4
100
AcDbEntity
  8
AM_0
  6
中線
 48
0.5
370
    30
100
AcDbVertex
100
AcDb2dVertex
 10
6214.767326983857
 20
-3099.991058662677
 30
0.0
  0
VERTEX
  5
4A778
330
4A6F4
100
AcDbEntity
  8
AM_0
  6
中線
 48
0.5
370
    30
100
AcDbVertex
100
AcDb2dVertex
 10
6214.767615552855
 20
-3099.973689030677
 30
0.0
  0
VERTEX
  5
4A779
330
4A6F4
100
AcDbEntity
  8
AM_0
  6
中線
 48
0.5
370
    30
100
AcDbVertex
100
AcDb2dVertex
 10
6214.767886195854
 20
-3099.956319110678
 30
0.0
  0
VERTEX
  5
4A77A
330
4A6F4
100
AcDbEntity
  8
AM_0
  6
中線
 48
0.5
370
    30
100
AcDbVertex
100
AcDb2dVertex
 10
6214.768142383855
 20
-3099.938948038677
 30
0.0
  0
VERTEX
  5
4A77B
330
4A6F4
100
AcDbEntity
  8
AM_0
  6
中線
 48
0.5
370
    30
100
AcDbVertex
100
AcDb2dVertex
 10
6214.768387556855
 20
-3099.921576807677
 30
0.0
  0
VERTEX
  5
4A77C
330
4A6F4
100
AcDbEntity
  8
AM_0
  6
中線
 48
0.5
370
    30
100
AcDbVertex
100
AcDb2dVertex
 10
6214.768621715855
 20
-3099.904205424677
 30
0.0
  0
SEQEND
  5
4A77D
330
4A6F4
100
AcDbEntity
  8
AM_0
  6
中線
 48
0.5
370
    30
  0
LINE
  5
4A780
330
1F
100
AcDbEntity
  8
AM_7
  6
中心線1
 48
0.2
370
    13
100
AcDbLine
 10
6221.326891250854
 20
-3131.340808339231
 30
0.0
 11
6221.326891250854
 21
-3135.840808339231
 31
0.0
  0
LINE
  5
4A784
330
1F
100
AcDbEntity
  8
AM_7
  6
中心線1
 48
0.2
370
    13
100
AcDbLine
 10
6206.326891250855
 20
-3132.840808339231
 30
0.0
 11
6206.326891250855
 21
-3136.840808339231
 31
0.0
  0
LINE
  5
4A785
330
1F
100
AcDbEntity
  8
AM_7
  6
中心線1
 48
0.2
370
    13
100
AcDbLine
 10
6201.326891250856
 20
-3131.340808339231
 30
0.0
 11
6201.326891250855
 21
-3135.840808339231
 31
0.0
  0
LINE
  5
4A78B
330
1F
100
AcDbEntity
  8
AM_7
  6
中心線1
 48
0.3
370
    13
100
AcDbLine
 10
6232.424585442855
 20
-3095.254205424677
 30
0.0
 11
6195.026891250854
 21
-3095.254205424677
 31
0.0
  0
LINE
  5
4A78C
330
1F
100
AcDbEntity
  8
AM_7
  6
中心線1
 48
0.3
370
    13
100
AcDbLine
 10
6201.326891250855
 20
-3090.254205424677
 30
0.0
 11
6201.326891250855
 21
-3100.254205424678
 31
0.0
  0
LINE
  5
4A78F
330
1F
100
AcDbEntity
  8
AM_7
  6
中心線1
 48
0.3
370
    13
100
AcDbLine
 10
6214.826891250854
 20
-3172.299739035687
 30
0.0
 11
6214.826891250854
 21
-3178.299739035687
 31
0.0
  0
LINE
  5
4A790
330
1F
100
AcDbEntity
  8
AM_7
  6
中心線1
 48
0.3
370
    13
100
AcDbLine
 10
6221.326891250854
 20
-3170.299739035688
 30
0.0
 11
6221.326891250854
 21
-3180.299739035687
 31
0.0
  0
LINE
  5
4A791
330
1F
100
AcDbEntity
  8
AM_7
  6
中心線1
 48
0.3
370
    13
100
AcDbLine
 10
6230.838893295857
 20
-3175.299739035688
 30
0.0
 11
6195.026891250854
 21
-3175.299739035688
 31
0.0
  0
LINE
  5
4A794
330
1F
100
AcDbEntity
  8
AM_7
  6
中心線1
 48
0.3
370
    13
100
AcDbLine
 10
6201.326891250855
 20
-3170.299739035688
 30
0.0
 11
6201.326891250855
 21
-3180.299739035687
 31
0.0
  0
LINE
  5
4A795
330
1F
100
AcDbEntity
  8
AM_7
  6
中心線1
 48
0.3
370
    13
100
AcDbLine
 10
6206.326891250855
 20
-3172.299739035687
 30
0.0
 11
6206.326891250855
 21
-3178.299739035687
 31
0.0
  0
ELLIPSE
  5
4A797
330
1F
100
AcDbEntity
  8
AM_0
  6
中線
 48
0.5
370
    30
100
AcDbEllipse
 10
6223.156343733855
 20
-3132.886504601229
 30
0.0
 11
-0.6364269039318426
 21
0.6364269039318426
 31
0.0
210
0.0
220
0.0
230
0.9999999999999998
 40
0.9999032046857717
 41
2.368690383817513
 42
3.977834682164642
  0
DIMENSION
  5
4A7C5
330
1F
100
AcDbEntity
  8
AM_5
100
AcDbDimension
  2
*D4
 10
6237.424585442854
 20
-3101.404205424677
 30
0.0
 11
6237.424585442855
 21
-3095.254205424677
 31
0.0
 70
   160
  1
<>
 71
     5
 42
12.29999999999973
  3
SYS$0
100
AcDbAlignedDimension
 13
6225.338893295854
 23
-3089.104205424678
 33
0.0
 14
6225.338893295854
 24
-3101.404205424677
 34
0.0
 50
90.0
100
AcDbRotatedDimension
  0
DIMENSION
  5
4A7DB
330
1F
100
AcDbEntity
  8
AM_5
100
AcDbDimension
  2
*D5
 10
6245.424585442855
 20
-3104.754205424678
 30
0.0
 11
6245.424585442856
 21
-3095.254205424677
 31
0.0
 70
   160
  1
（<>）
 71
     5
 42
19.0
  3
SYS$0
100
AcDbAlignedDimension
 13
6223.126891250856
 23
-3085.754205424678
 33
0.0
 14
6223.126891250856
 24
-3104.754205424678
 34
0.0
 50
90.0
100
AcDbRotatedDimension
  0
DIMENSION
  5
4A8C5
330
1F
100
AcDbEntity
  8
AM_5
100
AcDbDimension
  2
*D6
 10
6227.838893295854
 20
-3078.254205424677
 30
0.0
 11
6219.160639322396
 21
-3078.254205424677
 31
0.0
 70
   160
  1
<>
 71
     5
 42
16.0
  3
SYS$0
100
AcDbAlignedDimension
 13
6211.838893295855
 23
-3089.204205424677
 33
0.0
 14
6227.838893295854
 24
-3092.704205424678
 34
0.0
100
AcDbRotatedDimension
  0
DIMENSION
  5
4A922
330
1F
100
AcDbEntity
  8
AM_5
100
AcDbDimension
  2
*D7
 10
6190.026891250854
 20
-3101.254205424678
 30
0.0
 11
6190.026891250854
 21
-3095.254205424677
 31
0.0
 70
   160
 71
     5
 42
12.0
  3
SYS$0
100
AcDbAlignedDimension
 13
6200.126891250856
 23
-3089.254205424678
 33
0.0
 14
6200.126891250856
 24
-3101.254205424678
 34
0.0
 50
90.0
100
AcDbRotatedDimension
  0
DIMENSION
  5
4A938
330
1F
100
AcDbEntity
  8
AM_5
100
AcDbDimension
  2
*D8
 10
6210.126891250855
 20
-3078.254205424677
 30
0.0
 11
6204.051891250855
 21
-3078.254205424677
 31
0.0
 70
   160
  1
12
 71
     5
 42
11.99999999999909
  3
SYS$0
100
AcDbAlignedDimension
 13
6198.126891250856
 23
-3091.254205424677
 33
0.0
 14
6210.126891250855
 24
-3089.254205424678
 34
0.0
100
AcDbRotatedDimension
  0
DIMENSION
  5
4A984
330
1F
100
AcDbEntity
  8
AM_5
100
AcDbDimension
  2
*D9
 10
6211.104510370144
 20
-3104.754205424678
 30
0.0
 11
6208.504510370143
 21
-3111.114205424677
 31
0.0
 70
    32
  1
%%c<>
 71
     5
 42
2.5
  3
SYS$0
100
AcDbAlignedDimension
 13
6208.576891250855
 23
-3102.254205424678
 33
0.0
 14
6208.576891250855
 24
-3104.754205424678
 34
0.0
 50
90.0
100
AcDbRotatedDimension
  0
DIMENSION
  5
4A9E1
330
1F
100
AcDbEntity
  8
AM_5
100
AcDbDimension
  2
*D10
 10
6237.424585443438
 20
-3135.340808339231
 30
0.0
 11
6234.82458544344
 21
-3138.607475005896
 31
0.0
 70
    32
 71
     5
 42
-1.0
  3
SYS$0
100
AcDbAlignedDimension
 13
6224.826891250855
 23
-3134.340808339231
 33
0.0
 14
6215.826891250855
 24
-3135.340808339231
 34
0.0
 50
90.0
100
AcDbRotatedDimension
  0
DIMENSION
  5
4A9FC
330
1F
100
AcDbEntity
  8
AM_5
100
AcDbDimension
  2
*D11
 10
6237.424585443438
 20
-3125.90982920023
 30
0.0
 11
6237.424585443442
 21
-3130.125318769729
 31
0.0
 70
   160
  1
（8.5）
 71
     5
 42
8.430979139000099
  3
SYS$0
100
AcDbAlignedDimension
 13
6224.826891250855
 23
-3134.340808339231
 33
0.0
 14
6214.768168591855
 24
-3125.90982920023
 34
0.0
 50
90.0
100
AcDbRotatedDimension
  0
DIMENSION
  5
4AA4C
330
1F
100
AcDbEntity
  8
AM_5
100
AcDbDimension
  2
*D12
 10
6190.026891250854
 20
-3132.840808339231
 30
0.0
 11
6190.026891250854
 21
-3139.527475005895
 31
0.0
 70
   160
 71
     5
 42
1.5
  3
SYS$0
100
AcDbAlignedDimension
 13
6198.126891250856
 23
-3134.340808339231
 33
0.0
 14
6198.126891250856
 24
-3132.840808339231
 34
0.0
 50
90.0
100
AcDbRotatedDimension
  0
DIMENSION
  5
4AA66
330
1F
100
AcDbEntity
  8
AM_5
100
AcDbDimension
  2
*D13
 10
6182.026891250854
 20
-3135.340808339231
 30
0.0
 11
6182.026891250854
 21
-3138.607475005896
 31
0.0
 70
   160
 71
     5
 42
-1.0
  3
SYS$0
100
AcDbAlignedDimension
 13
6198.126891250856
 23
-3134.340808339231
 33
0.0
 14
6205.326891250855
 24
-3135.340808339231
 34
0.0
 50
90.0
100
AcDbRotatedDimension
  0
DIMENSION
  5
4AA80
330
1F
100
AcDbEntity
  8
AM_5
100
AcDbDimension
  2
*D14
 10
6182.026891250854
 20
-3128.340808339231
 30
0.0
 11
6182.026891250854
 21
-3131.590808339228
 31
0.0
 70
   160
  1
<>
 71
     5
 42
6.0
  3
SYS$0
100
AcDbAlignedDimension
 13
6198.126891250856
 23
-3134.340808339231
 33
0.0
 14
6207.326891250854
 24
-3128.340808339231
 34
0.0
 50
90.0
100
AcDbRotatedDimension
  0
DIMENSION
  5
4AAEF
330
1F
100
AcDbEntity
  8
AM_5
100
AcDbDimension
  2
*D15
 10
6212.326891250855
 20
-3192.433571275027
 30
0.0
 11
6206.980224584189
 21
-3192.433571275027
 31
0.0
 70
   160
 71
     5
 42
2.5
  3
SYS$0
100
AcDbAlignedDimension
 13
6214.826891250854
 23
-3178.299739035687
 33
0.0
 14
6212.326891250855
 24
-3179.799739035687
 34
0.0
100
AcDbRotatedDimension
  0
DIMENSION
  5
4AB14
330
1F
100
AcDbEntity
  8
AM_5
100
AcDbDimension
  2
*D16
 10
6221.326891250854
 20
-3192.433571275027
 30
0.0
 11
6225.620224584186
 21
-3192.433571275027
 31
0.0
 70
   160
 71
     5
 42
6.5
  3
SYS$0
100
AcDbAlignedDimension
 13
6214.826891250854
 23
-3178.299739035687
 33
0.0
 14
6221.326891250854
 24
-3180.299739035687
 34
0.0
100
AcDbRotatedDimension
  0
DIMENSION
  5
4AB42
330
1F
100
AcDbEntity
  8
AM_5
100
AcDbDimension
  2
*D17
 10
6201.326891250855
 20
-3150.299739035688
 30
0.0
 11
6203.835819359875
 21
-3150.299739035688
 31
0.0
 70
   160
  1
<>
 71
     5
 42
5.0
  3
SYS$0
100
AcDbAlignedDimension
 13
6206.326891250855
 23
-3172.299739035687
 33
0.0
 14
6201.326891250855
 24
-3170.299739035688
 34
0.0
100
AcDbRotatedDimension
  0
DIMENSION
  5
4ACCD
330
1F
100
AcDbEntity
  8
AM_5
100
AcDbDimension
  2
*D18
 10
6206.326891250855
 20
-3150.299739035688
 30
0.0
 11
6210.576891250855
 21
-3150.299739035688
 31
0.0
 70
   160
  1
（8.1）
 71
     5
 42
8.5
  3
SYS$0
100
AcDbAlignedDimension
 13
6214.826891250854
 23
-3172.299739035687
 33
0.0
 14
6206.326891250855
 24
-3172.299739035687
 34
0.0
100
AcDbRotatedDimension
  0
TEXT
  5
4E0E8
330
1F
100
AcDbEntity
  8
AM_6
 60
     1
100
AcDbText
 10
5957.394900433246
 20
-5651.939004350452
 30
0.0
 40
2.5
  1
!GENTITLE-INSERT
100
AcDbText
  0
TEXT
  5
4E0E9
330
1F
100
AcDbEntity
  8
AM_6
 60
     1
100
AcDbText
 10
5548.894900433246
 20
-5660.43900435045
 30
0.0
 40
2.5
  1
!GENTITLE-LL
100
AcDbText
  0
TEXT
  5
4E0EA
330
1F
100
AcDbEntity
  8
AM_6
 60
     1
100
AcDbText
 10
5968.894900433246
 20
-5363.439004350453
 30
0.0
 40
2.5
  1
!GENTITLE-RU
100
AcDbText
  0
TEXT
  5
4E0EB
330
1F
100
AcDbEntity
  8
AM_6
 60
     1
100
AcDbText
 10
5968.894900433246
 20
-5363.439004350453
 30
0.0
 40
2.5
  1
!GENTITLE-MAX
100
AcDbText
  0
TEXT
  5
4E0F3
330
1F
100
AcDbEntity
  8
AM_6
 60
     1
100
AcDbText
 10
5548.894900433246
 20
-5660.43900435045
 30
0.0
 40
2.5
  1
!GENTITLE-LL
100
AcDbText
  0
TEXT
  5
4E0F4
330
1F
100
AcDbEntity
  8
AM_6
 60
     1
100
AcDbText
 10
5957.394900433246
 20
-5371.939004350451
 30
0.0
 40
2.5
  1
!GENTITLE-RU
100
AcDbText
  0
TEXT
  5
4E0F5
330
1F
100
AcDbEntity
  8
AM_6
 60
     1
100
AcDbText
 10
5968.894900433246
 20
-5363.439004350453
 30
0.0
 40
2.5
  1
!GENTITLE-MAX
100
AcDbText
  0
TEXT
  5
4E0F6
330
1F
100
AcDbEntity
  8
AM_6
 60
     1
100
AcDbText
 10
5957.394900433246
 20
-5651.939004350452
 30
0.0
 40
2.5
  1
!GENTITLE-INSERT
100
AcDbText
  0
TEXT
  5
5183F
330
1F
100
AcDbEntity
  8
AM_6
 60
     1
100
AcDbText
 10
5973.602012689372
 20
109.7385382224183
 30
0.0
 40
2.5
  1
!GENTITLE-INSERT
100
AcDbText
  0
TEXT
  5
51840
330
1F
100
AcDbEntity
  8
AM_6
 60
     1
100
AcDbText
 10
5565.102012689372
 20
101.2385382224183
 30
0.0
 40
2.5
  1
!GENTITLE-LL
100
AcDbText
  0
TEXT
  5
51841
330
1F
100
AcDbEntity
  8
AM_6
 60
     1
100
AcDbText
 10
5985.102012689373
 20
398.2385382224184
 30
0.0
 40
2.5
  1
!GENTITLE-RU
100
AcDbText
  0
TEXT
  5
51842
330
1F
100
AcDbEntity
  8
AM_6
 60
     1
100
AcDbText
 10
5985.102012689373
 20
398.2385382224184
 30
0.0
 40
2.5
  1
!GENTITLE-MAX
100
AcDbText
  0
TEXT
  5
5184A
330
1F
100
AcDbEntity
  8
AM_6
 60
     1
100
AcDbText
 10
5565.102012689372
 20
101.2385382224183
 30
0.0
 40
2.5
  1
!GENTITLE-LL
100
AcDbText
  0
TEXT
  5
5184B
330
1F
100
AcDbEntity
  8
AM_6
 60
     1
100
AcDbText
 10
5973.602012689372
 20
389.7385382224184
 30
0.0
 40
2.5
  1
!GENTITLE-RU
100
AcDbText
  0
TEXT
  5
5184C
330
1F
100
AcDbEntity
  8
AM_6
 60
     1
100
AcDbText
 10
5985.102012689373
 20
398.2385382224184
 30
0.0
 40
2.5
  1
!GENTITLE-MAX
100
AcDbText
  0
TEXT
  5
5184D
330
1F
100
AcDbEntity
  8
AM_6
 60
     1
100
AcDbText
 10
5973.602012689372
 20
109.7385382224183
 30
0.0
 40
2.5
  1
!GENTITLE-INSERT
100
AcDbText
  0
DIMENSION
  5
53A5A
330
1F
100
AcDbEntity
  8
AM_5
100
AcDbDimension
  2
*D19
 10
6210.126891250855
 20
-3158.299739035687
 30
0.0
 11
6220.017412860296
 21
-3158.299739035687
 31
0.0
 70
   160
  1
（3.8）
 71
     5
 42
3.800000000000181
  3
SYS$0
100
AcDbAlignedDimension
 13
6206.326891250855
 23
-3172.299739035687
 33
0.0
 14
6210.126891250855
 24
-3169.299739035687
 34
0.0
100
AcDbRotatedDimension
  0
DIMENSION
  5
53AC7
330
1F
100
AcDbEntity
  8
AM_5
100
AcDbDimension
  2
*D20
 10
6206.88172683169
 20
-3174.467779013667
 30
0.0
 11
6188.177891023578
 21
-3187.850813865649
 31
0.0
 70
   163
  1
2-<>（ボス）
 71
     5
 42
2.000000000000909
  3
SYS$3
100
AcDbDiametricDimension
 15
6205.772055670017
 25
-3176.131699057706
 35
0.0
 40
0.0
1001
ACAD
1000
DSTYLE
1002
{
1070
    41
1040
1.0
1070
   172
1070
     1
1070
   173
1070
     1
1070
   342
1005
0
1070
   343
1005
6C4
1070
   344
1005
6C4
1002
}
  0
DIMENSION
  5
596EA
330
1F
100
AcDbEntity
  8
AM_5
100
AcDbDimension
  2
*D21
 10
6203.063500773536
 20
-3177.49614231508
 30
0.0
 11
6183.531014872063
 21
-3165.672502732805
 31
0.0
 70
   163
  1
%%c4×<>サラ
 71
     5
 42
5.600000000002181
  3
SYS$3
100
AcDbDiametricDimension
 15
6199.590281728169
 25
-3173.103335756293
 35
0.0
 40
0.0
1001
ACAD
1000
DSTYLE
1002
{
1070
    41
1040
1.0
1070
   172
1070
     1
1070
   173
1070
     1
1070
   342
1005
0
1070
   343
1005
6C4
1070
   344
1005
6C4
1002
}
  0
DIMENSION
  5
59733
330
1F
100
AcDbEntity
  8
AM_5
 48
0.5
370
    13
100
AcDbDimension
  2
*D22
 10
6219.337877932851
 20
-3177.270481540635
 30
0.0
 11
6241.227381951134
 21
-3165.672502732811
 31
0.0
 70
   163
  1
%%c4×<>サラ
 71
     5
 42
5.600000000002181
  3
SYS$3
100
AcDbDiametricDimension
 15
6223.315904568855
 25
-3173.328996530737
 35
0.0
 40
0.0
1001
ACAD
1000
DSTYLE
1002
{
1070
    41
1040
1.0
1070
   172
1070
     1
1070
   173
1070
     1
1070
   342
1005
0
1070
   343
1005
6C4
1070
   344
1005
6C4
1002
}
  0
LINE
  5
5A493
330
1F
100
AcDbEntity
  8
AM_7
  6
中心線1
 48
0.2
370
    13
100
AcDbLine
 10
6214.826891250854
 20
-3132.840808339231
 30
0.0
 11
6214.826891250854
 21
-3136.840808339231
 31
0.0
  0
CIRCLE
  5
5ACBC
330
1F
100
AcDbEntity
  8
AM_0
  6
中線
 48
0.5
370
    30
100
AcDbCircle
 10
6304.264914088149
 20
-3175.299739035688
 30
0.0
 40
1.75
  0
CIRCLE
  5
5ACBD
330
1F
100
AcDbEntity
  8
AM_0
  6
中線
 48
0.5
370
    30
100
AcDbCircle
 10
6284.264914088147
 20
-3175.299739035688
 30
0.0
 40
1.75
  0
CIRCLE
  5
5ACBE
330
1F
100
AcDbEntity
  8
AM_0
  6
中線
 48
0.5
370
    30
100
AcDbCircle
 10
6297.764914088149
 20
-3175.299739035688
 30
0.0
 40
1.05
  0
CIRCLE
  5
5ACBF
330
1F
100
AcDbEntity
  8
AM_0
  6
中線
 48
0.5
370
    30
100
AcDbCircle
 10
6289.264914088149
 20
-3175.299739035688
 30
0.0
 40
1.05
  0
LINE
  5
5ACC0
330
1F
100
AcDbEntity
  8
AM_7
  6
中心線1
 48
0.3
370
    13
100
AcDbLine
 10
6304.264914088149
 20
-3171.549739035688
 30
0.0
 11
6304.264914088149
 21
-3179.049739035688
 31
0.0
  0
LINE
  5
5ACC1
330
1F
100
AcDbEntity
  8
AM_7
  6
中心線1
 48
0.3
370
    13
100
AcDbLine
 10
6297.764914088149
 20
-3172.249739035688
 30
0.0
 11
6297.764914088149
 21
-3178.349739035688
 31
0.0
  0
LINE
  5
5ACC2
330
1F
100
AcDbEntity
  8
AM_7
  6
中心線1
 48
0.3
370
    13
100
AcDbLine
 10
6289.264914088149
 20
-3172.249739035688
 30
0.0
 11
6289.264914088149
 21
-3178.349739035688
 31
0.0
  0
LINE
  5
5ACC3
330
1F
100
AcDbEntity
  8
AM_7
  6
中心線1
 48
0.3
370
    13
100
AcDbLine
 10
6284.264914088147
 20
-3171.549739035688
 30
0.0
 11
6284.264914088147
 21
-3179.049739035688
 31
0.0
  0
LINE
  5
5ACC4
330
1F
100
AcDbEntity
  8
AM_7
  6
中心線1
 48
0.3
370
    13
100
AcDbLine
 10
6280.514914088147
 20
-3175.299739035688
 30
0.0
 11
6308.014914088149
 21
-3175.299739035688
 31
0.0
  0
MTEXT
  5
5ACC5
330
1F
100
AcDbEntity
  8
AM_6
100
AcDbMText
 10
6286.826068509139
 20
-3189.862689594154
 30
0.0
 40
3.2
 41
27.0420365087266
 71
     1
 72
     5
  1
{\L切欠推奨寸法}
 73
     1
 44
1.0
1001
ACAD
1000
MTEXTBEGIN
1070
    73
1070
     1
1070
    44
1040
1.0
1070
    74
1070
     0
1000
MTEXTEND
  0
DIMENSION
  5
5ACCA
330
1F
100
AcDbEntity
  8
AM_5
100
AcDbDimension
  2
*D23
 10
6289.264914088149
 20
-3165.549739035688
 30
0.0
 11
6286.764914088148
 21
-3165.549739035688
 31
0.0
 70
   160
 71
     5
 42
5.0
  3
SYS$0
100
AcDbAlignedDimension
 13
6284.264914088147
 23
-3171.549739035688
 33
0.0
 14
6289.264914088149
 24
-3172.249739035688
 34
0.0
100
AcDbRotatedDimension
  0
DIMENSION
  5
5ACE2
330
1F
100
AcDbEntity
  8
AM_5
100
AcDbDimension
  2
*D24
 10
6297.764914088149
 20
-3165.549739035688
 30
0.0
 11
6293.514914088149
 21
-3165.549739035688
 31
0.0
 70
   160
 71
     5
 42
8.5
  3
SYS$0
100
AcDbAlignedDimension
 13
6289.264914088149
 23
-3172.249739035688
 33
0.0
 14
6297.764914088149
 24
-3172.249739035688
 34
0.0
100
AcDbRotatedDimension
  0
DIMENSION
  5
5ACF8
330
1F
100
AcDbEntity
  8
AM_5
100
AcDbDimension
  2
*D25
 10
6304.264914088149
 20
-3165.549739035688
 30
0.0
 11
6300.890218028885
 21
-3165.549739035688
 31
0.0
 70
   160
 71
     5
 42
6.5
  3
SYS$0
100
AcDbAlignedDimension
 13
6297.764914088149
 23
-3172.249739035688
 33
0.0
 14
6304.264914088149
 24
-3171.549739035688
 34
0.0
100
AcDbRotatedDimension
  0
DIMENSION
  5
5AD1A
330
1F
100
AcDbEntity
  8
AM_5
100
AcDbDimension
  2
*D26
 10
6285.282190876753
 20
-3173.875784002912
 30
0.0
 11
6271.9164502098
 21
-3183.047656893402
 31
0.0
 70
   163
  1
2-<>
 71
     5
 42
3.5
  3
SYS$3
100
AcDbDiametricDimension
 15
6283.247637299548
 25
-3176.723694068466
 35
0.0
 40
0.0
1001
ACAD
1000
DSTYLE
1002
{
1070
   172
1070
     1
1070
   342
1005
5B987
1002
}
  0
DIMENSION
  5
5AD24
330
1F
100
AcDbEntity
  8
AM_5
100
AcDbDimension
  2
*D27
 10
6297.073987702597
 20
-3174.509093268135
 30
0.0
 11
6311.048698961567
 21
-3183.070236562189
 31
0.0
 70
   163
  1
2-<>
 71
     5
 42
2.100000000002182
  3
SYS$3
100
AcDbDiametricDimension
 15
6298.455840473703
 25
-3176.09038480324
 35
0.0
 40
0.0
1001
ACAD
1000
DSTYLE
1002
{
1070
   172
1070
     1
1070
   342
1005
5B987
1002
}
  0
LINE
  5
5B427
330
1F
100
AcDbEntity
  8
AM_0
  6
中線
 48
0.5
370
    30
100
AcDbLine
 10
6224.826891250855
 20
-3132.840808339231
 30
0.0
 11
6224.370386676817
 21
-3132.840808339231
 31
0.0
  0
ARC
  5
5B46B
330
1F
100
AcDbEntity
  8
AM_0
  6
中線
 48
0.5
370
    30
100
AcDbCircle
 10
6226.731024911987
 20
-3132.181338630045
 30
0.0
 40
3.658611005509721
100
AcDbArc
 50
112.3651674499023
 51
149.7968112522858
  0
LINE
  5
5B489
330
1F
100
AcDbEntity
  8
AM_0
  6
中線
 48
0.5
370
    30
100
AcDbLine
 10
6227.838893295854
 20
-3129.924024256824
 30
0.0
 11
6225.774714916858
 21
-3130.314649952504
 31
0.0
  0
LINE
  5
5B48A
330
1F
100
AcDbEntity
  8
AM_0
  6
中線
 48
0.5
370
    30
100
AcDbLine
 10
6227.559983095437
 20
-3128.450182643861
 30
0.0
 11
6225.609213186618
 21
-3128.81934688882
 31
0.0
  0
LINE
  5
5B48B
330
1F
100
AcDbEntity
  8
AM_0
  6
中線
 48
0.5
370
    30
100
AcDbLine
 10
6227.838893295854
 20
-3129.924024256824
 30
0.0
 11
6227.559983095436
 21
-3128.450182643861
 31
0.0
  0
ARC
  5
5B48C
330
1F
100
AcDbEntity
  8
AM_0
  6
中線
 48
0.5
370
    30
100
AcDbCircle
 10
6225.495804716439
 20
-3128.840808339541
 30
0.0
 40
1.5
100
AcDbArc
 50
254.7187351328849
 51
280.7159491637289
1001
GENIUS_GENOBJ-N-FIL_13
1002
{
1000
OWNER
1000
GEN
1002
}
1001
GENIUS_GENODEF_13
1002
{
1000
HIER
1070
     0
1002
}
1002
{
1000
MANEDIT
1070
     0
1002
}
1002
{
1000
NOSEL
1070
     0
1002
}
1002
{
1000
BEHIND
1070
     0
1002
}
1002
{
1000
OTHER
1070
     0
1002
}
1002
{
1000
REACTOR
1002
}
  0
ARC
  5
5B48D
330
1F
100
AcDbEntity
  8
AM_0
  6
中線
 48
0.5
370
    30
100
AcDbCircle
 10
6225.516243119812
 20
-3128.328066351165
 30
0.0
 40
0.5
100
AcDbArc
 50
254.7187351067251
 51
280.7159491637167
1001
GENIUS_GENOBJ-N-FIL_13
1002
{
1000
OWNER
1000
GEN
1002
}
1001
GENIUS_GENODEF_13
1002
{
1000
HIER
1070
     0
1002
}
1002
{
1000
MANEDIT
1070
     0
1002
}
1002
{
1000
NOSEL
1070
     0
1002
}
1002
{
1000
BEHIND
1070
     0
1002
}
1002
{
1000
OTHER
1070
     0
1002
}
1002
{
1000
REACTOR
1002
}
  0
ARC
  5
5B4C7
330
1F
100
AcDbEntity
  8
AM_0
  6
中線
 48
0.5
370
    30
100
AcDbCircle
 10
6207.126891250855
 20
-3131.340808339231
 30
0.0
 40
1.5
100
AcDbArc
 50
270.0
 51
273.9971761275672
  0
ARC
  5
5B4C8
330
1F
100
AcDbEntity
  8
AM_0
  6
中線
 48
0.5
370
    30
100
AcDbCircle
 10
6207.126891250855
 20
-3131.340808339231
 30
0.0
 40
3.0
100
AcDbArc
 50
270.0
 51
329.9999999999983
  0
LINE
  5
5B4D3
330
1F
100
AcDbEntity
  8
AM_0
  6
中線
 48
0.5
370
    30
100
AcDbLine
 10
6204.528815039502
 20
-3132.840808339231
 30
0.0
 11
6205.827853145178
 21
-3132.09080833923
 31
0.0
  0
ARC
  5
5B4D5
330
1F
100
AcDbEntity
  8
AM_0
  6
中線
 48
0.5
370
    30
100
AcDbCircle
 10
6207.126891250855
 20
-3131.340808339231
 30
0.0
 40
3.0
100
AcDbArc
 50
19.47122063449344
 51
210.0000000000016
  0
ARC
  5
5B4D6
330
1F
100
AcDbEntity
  8
AM_0
  6
中線
 48
0.5
370
    30
100
AcDbCircle
 10
6207.126891250855
 20
-3131.340808339231
 30
0.0
 40
1.5
100
AcDbArc
 50
41.81031489578534
 51
209.9999999999478
  0
ENDSEC
  0
SECTION
  2
OBJECTS
  0
DICTIONARY
  5
C
330
0
100
AcDbDictionary
281
     1
  3
ACAD_2007HEADERVARS_RT
350
5B9B1
  3
ACAD_BGPLOT_KEY
350
AB06
  3
ACAD_COLOR
350
A91D
  3
ACAD_GROUP
350
D
  3
ACAD_LAYOUT
350
1A
  3
ACAD_MATERIAL
350
A91C
  3
ACAD_MLINESTYLE
350
17
  3
ACAD_PLOTSETTINGS
350
19
  3
ACAD_PLOTSTYLENAME
350
E
  3
ACAD_TABLESTYLE
350
AAB9
  3
ACAD_VISUALSTYLE
350
B0F1
  3
AcAsAppObject
350
3DA1
  3
ACASGREF_MASTER
350
3DE9
  3
AcDbVariableDictionary
350
34
  3
AcmDictionary
350
47
  3
AD_GREF_MODULE
350
3DEA
  3
AD_MAPI_MODULE
350
3E06
  3
AMG
350
2B
  3
AMGSNAPSETTINGS
350
7D
  3
ASE_INDEX_DICTIONARY
350
57912
  3
DWGPROPS
350
5B9B0
  3
MAPISURF_MODULE
350
3DEB
  0
DICTIONARY
  5
3F95
330
2
100
AcDbDictionary
280
     1
281
     1
  3
ACAD_LAYERFILTERS
360
5369F
  3
ACAD_LAYERSTATES
360
3F96
  3
ACLYDICTIONARY
360
5369E
  3
AMLAYER_GROUPCOLORS
360
AAB4
  0
DICTIONARY
  5
5B5F8
330
5B5F7
100
AcDbDictionary
280
     1
281
     1
  3
ADSK_XREC_LAYER_RECONCILED
360
5B5F9
  0
DICTIONARY
  5
8A
330
1F
100
AcDbDictionary
280
     1
281
     1
  3
ACAD_SORTENTS
360
B1BA
  0
DICTIONARY
  5
5B9B1
102
{ACAD_REACTORS
330
C
102
}
330
C
100
AcDbDictionary
281
     1
  3
DIMARCSYM
350
5B9B2
  0
DICTIONARY
  5
AB06
102
{ACAD_REACTORS
330
C
102
}
330
C
100
AcDbDictionary
280
     1
281
     1
  0
DICTIONARY
  5
A91D
102
{ACAD_REACTORS
330
C
102
}
330
C
100
AcDbDictionary
281
     1
  0
DICTIONARY
  5
D
102
{ACAD_REACTORS
330
C
102
}
330
C
100
AcDbDictionary
281
     1
  0
DICTIONARY
  5
1A
102
{ACAD_REACTORS
330
C
102
}
330
C
100
AcDbDictionary
281
     1
  3
Model
350
22
  3
ﾚｲｱｳﾄ1
350
1E
  3
ﾚｲｱｳﾄ2
350
26
  0
DICTIONARY
  5
A91C
102
{ACAD_REACTORS
330
C
102
}
330
C
100
AcDbDictionary
281
     1
  3
ByBlock
350
B0EF
  3
ByLayer
350
B0EE
  3
Global
350
B0F0
  0
DICTIONARY
  5
17
102
{ACAD_REACTORS
330
C
102
}
330
C
100
AcDbDictionary
281
     1
  3
Standard
350
18
  0
DICTIONARY
  5
19
102
{ACAD_REACTORS
330
C
102
}
330
C
100
AcDbDictionary
281
     1
  0
ACDBDICTIONARYWDFLT
  5
E
102
{ACAD_REACTORS
330
C
102
}
330
C
100
AcDbDictionary
281
     1
  3
Normal
350
F
100
AcDbDictionaryWithDefault
340
F
  0
DICTIONARY
  5
AAB9
102
{ACAD_REACTORS
330
C
102
}
330
C
100
AcDbDictionary
281
     1
  3
Standard
350
AABA
  0
DICTIONARY
  5
B0F1
102
{ACAD_REACTORS
330
C
102
}
330
C
100
AcDbDictionary
281
     1
  3
2dWireframe
350
B0F7
  3
3D Hidden
350
B0F9
  3
3dWireframe
350
B0F8
  3
Basic
350
B0F6
  3
Brighten
350
B0FD
  3
ColorChange
350
B101
  3
Conceptual
350
B0FA
  3
Dim
350
B0FC
  3
Facepattern
350
B100
  3
Flat
350
B0F2
  3
FlatWithEdges
350
B0F3
  3
Gouraud
350
B0F4
  3
GouraudWithEdges
350
B0F5
  3
Linepattern
350
B0FF
  3
Realistic
350
B0FB
  3
Thicken
350
B0FE
  0
ACAD_PROXY_OBJECT
  5
3DA1
102
{ACAD_REACTORS
330
C
102
}
330
C
100
AcDbProxyObject
 90
      499
 91
      576
 95
   917527
 70
     0
 93
       10
310
407F
 94
        0
1001
ACAD
1000
AcRTDxfName
1000
ASAPP
1000
AcRTDxfName
1000
ASAPP
  0
ACAD_PROXY_OBJECT
  5
3DE9
102
{ACAD_REACTORS
330
C
102
}
330
C
100
AcDbProxyObject
 90
      499
 91
      581
 95
   917527
 70
     0
 93
       34
310
010000407F
 94
        0
1001
ACAD
1000
AcRTDxfName
1000
ACASGREFMASTER
1000
AcRTDxfName
1000
ACASGREFMASTER
  0
DICTIONARY
  5
34
102
{ACAD_REACTORS
330
C
102
}
330
C
100
AcDbDictionary
281
     1
  3
CTABLESTYLE
350
AAF3
  3
DIMASSOC
350
A10C
  3
FIELDEVAL
350
AB07
  3
INDEXCTL
350
35
  3
SORTENTS
350
194C
  0
DICTIONARY
  5
47
102
{ACAD_REACTORS
330
C
102
}
330
C
100
AcDbDictionary
281
     1
  3
AcmBOM
350
7E8
  3
AcmStdDictionary
350
4C
  3
AMDTSECTSYM_ARROWCOLOR
350
A929
  0
ACAD_PROXY_OBJECT
  5
3DEA
102
{ACAD_REACTORS
330
C
102
}
330
C
100
AcDbProxyObject
 90
      499
 91
      582
 95
   917527
 70
     0
 93
      114
310
00000043800000000000000000003F
 94
        0
1001
ACAD
1000
AcRTDxfName
1000
ACADGREFMODULE
1000
AcRTDxfName
1000
ACADGREFMODULE
  0
ACAD_PROXY_OBJECT
  5
3E06
102
{ACAD_REACTORS
330
C
102
}
330
C
100
AcDbProxyObject
 90
      499
 91
      594
 95
   917527
 70
     0
 93
       34
310
05000044FF
 94
        0
1001
ACAD
1000
AcRTDxfName
1000
MAPIADMODULE
1000
AcRTDxfName
1000
MAPIADMODULE
  0
DICTIONARY
  5
2B
102
{ACAD_REACTORS
330
C
102
}
330
C
100
AcDbDictionary
281
     1
  0
DICTIONARY
  5
7D
102
{ACAD_REACTORS
330
C
102
}
330
C
100
AcDbDictionary
281
     1
  0
DICTIONARY
  5
57912
102
{ACAD_REACTORS
330
C
102
}
330
C
100
AcDbDictionary
281
     1
  3
ASEBlockHierarchyIndexRecord
350
57913
1001
DCO15
1040
1757428023.343
  0
XRECORD
  5
5B9B0
102
{ACAD_REACTORS
330
C
102
}
330
C
100
AcDbXrecord
280
     1
  1
DWGPROPS COOKIE
  2

  3

  4

  6

  7

  8
Administrator
  9

300
AmdtFileType=84
301
=
302
=
303
=
304
=
305
=
306
=
307
=
308
=
309
=
 40
8.244086157407407
 41
2455567.680725081
 42
2456343.614541736
  1

 90
        1
  0
ACAD_PROXY_OBJECT
  5
3DEB
102
{ACAD_REACTORS
330
C
102
}
330
C
100
AcDbProxyObject
 90
      499
 91
      583
 95
   917527
 70
     0
 93
        8
310
0478
 94
        0
1001
ACAD
1000
AcRTDxfName
1000
AMDTMAPISURFMOUDULE
1000
AcRTDxfName
1000
AMDTMAPISURFMOUDULE
  0
DICTIONARY
  5
5369F
102
{ACAD_REACTORS
330
3F95
102
}
330
3F95
100
AcDbDictionary
281
     1
  0
DICTIONARY
  5
3F96
102
{ACAD_REACTORS
330
3F95
102
}
330
3F95
100
AcDbDictionary
281
     1
  3
20011210
350
3FB7
  0
DICTIONARY
  5
5369E
102
{ACAD_REACTORS
330
3F95
102
}
330
3F95
100
AcDbDictionary
281
     1
1001
ACAD
1000
<All
  0
DICTIONARY
  5
AAB4
102
{ACAD_REACTORS
330
3F95
102
}
330
3F95
100
AcDbDictionary
280
     1
281
     1
  0
XRECORD
  5
5B5F9
102
{ACAD_REACTORS
330
5B5F8
102
}
330
5B5F8
100
AcDbXrecord
280
     1
290
     1
  0
SORTENTSTABLE
  5
B1BA
102
{ACAD_REACTORS
330
8A
102
}
330
8A
100
AcDbSortentsTable
330
1F
331
5B427
  5
5B42D
331
4A62F
  5
4A7A3
331
4A791
  5
4ADD5
331
4A637
  5
4A984
331
4E0E9
  5
4E1D6
331
4A63F
  5
4AB14
331
4A6F4
  5
4ADCC
331
4A647
  5
4AD4A
331
4A5F0
  5
4A633
331
4A5F8
  5
4A63B
331
41F79
  5
420D8
331
41F81
  5
420E0
331
4A600
  5
4A643
331
41F89
  5
420EB
331
4A608
  5
4A64C
331
53AC7
  5
59773
331
4A7DB
  5
4ADE7
331
4AB42
  5
4E1D3
331
4A9E1
  5
4ADEE
331
31B3D
  5
3273E
331
32D1D
  5
32D3A
331
5ACBF
  5
5ACC7
331
51841
  5
B5E2
331
4A657
  5
4ADBD
331
4A65F
  5
4ADC5
331
4A610
  5
4A656
331
4A618
  5
4A65E
331
4A5D9
  5
4A61A
331
4A5E1
  5
4A622
331
4A620
  5
4A781
331
4A5E9
  5
4A62A
331
53A5A
  5
59772
331
34535
  5
3454D
331
5B4C7
  5
5B4C7
331
4A628
  5
4A793
331
4A630
  5
4A7A4
331
4E0EA
  5
4E1DE
331
4A638
  5
4A9E1
331
4A640
  5
4AB42
331
41F72
  5
420D1
331
4A5F1
  5
4A634
331
41F7A
  5
420D9
331
4A5F9
  5
4A63C
331
41F82
  5
420E1
331
4A601
  5
4A644
331
4A609
  5
4A64D
331
31B3E
  5
3273F
331
32D1E
  5
32D3B
331
5ACC0
  5
5ACC8
331
4A648
  5
4AD7B
331
51842
  5
B5E3
331
5184A
  5
B8D5
331
4A658
  5
4ADBE
331
4A660
  5
4ADC6
331
4A78B
  5
4ADD1
331
4A5D2
  5
4A613
331
4A611
  5
4A657
331
4A5DA
  5
4A61B
331
4A619
  5
4A65F
331
4A5E2
  5
4A623
331
4A621
  5
4A782
331
4A5EA
  5
4A62B
331
4A9FC
  5
4ADF0
331
5ACF8
  5
5ADE7
331
4AA4C
  5
4ADF1
331
34536
  5
3454E
331
5B4C8
  5
5B4D2
331
4A629
  5
4A797
331
4A631
  5
4A7A5
331
4A639
  5
4A9FB
331
4E0EB
  5
4E1DF
331
4A641
  5
4AB9A
331
4E0F3
  5
4E1E0
331
4A5F2
  5
4A635
331
41F73
  5
420D2
331
4A5FA
  5
4A63D
331
41F7B
  5
420DA
331
41F83
  5
420E2
331
4A602
  5
4A645
331
4A60A
  5
4A64E
331
4A7C5
  5
4ADE6
331
4A8C5
  5
4ADE8
331
4AB14
  5
4ADF5
331
32D1F
  5
32D3C
331
5ACC1
  5
5ACC9
331
5B489
  5
5B48B
331
4A649
  5
4AD7C
331
4A784
  5
4ADCF
331
4A659
  5
4ADBF
331
5184B
  5
B8D6
331
4A78C
  5
4ADD2
331
5A493
  5
5ACC2
331
4A5D3
  5
4A614
331
4A612
  5
4A658
331
4A61A
  5
4A660
331
4A5DB
  5
4A61C
331
4A5E3
  5
4A624
331
4A622
  5
4A783
331
4A5EB
  5
4A62C
331
4A984
  5
4ADED
331
4A62A
  5
4A799
331
4A669
  5
4ADC7
331
4A632
  5
4A7C5
331
4A794
  5
4ADE3
331
4A63A
  5
4A9FC
331
4A642
  5
4ABD5
331
4E0F4
  5
4E1E1
331
41F74
  5
420D3
331
4A5F3
  5
4A636
331
41F7C
  5
420DB
331
4A5FB
  5
4A63E
331
4A603
  5
4A646
331
41F84
  5
420E3
331
596EA
  5
5A493
331
5AD1A
  5
5B427
331
31B30
  5
32738
331
5ACC2
  5
5ACCA
331
5B48A
  5
5B48C
331
4A64A
  5
4ADB0
331
4A652
  5
4ADB8
331
5184C
  5
B8D7
331
4A785
  5
4ADD0
331
4A65A
  5
4ADC0
331
4A5D4
  5
4A615
331
4A613
  5
4A659
331
4A5DC
  5
4A61D
331
4A61B
  5
4A662
331
4A5E4
  5
4A625
331
4A623
  5
4A784
331
4A5EC
  5
4A62D
331
4ACCD
  5
4E1D4
331
5ACCA
  5
5AD1A
331
5ACE2
  5
5AD2E
331
4AA66
  5
4ADF2
331
34538
  5
34550
331
4A62B
  5
4A79A
331
4A66A
  5
4ADC9
331
4A633
  5
4A7DB
331
4A795
  5
4ADE4
331
4A63B
  5
4AA4C
331
4A643
  5
4ACAD
331
4E0F5
  5
53B4F
331
4A5F4
  5
4A637
331
41F75
  5
420D4
331
4A5FC
  5
4A63F
331
41F7D
  5
420DC
331
41F85
  5
420E4
331
4A60C
  5
4A651
331
59733
  5
5ACC0
331
31B31
  5
32739
331
5ACC3
  5
5ACE2
331
5B46B
  5
5B48A
331
5B48B
  5
5B48D
331
4A64B
  5
4ADB1
331
4A653
  5
4ADB9
331
4A65B
  5
4ADC1
331
5184D
  5
B8D8
331
4A614
  5
4A65A
331
4A5D5
  5
4A616
331
4A61C
  5
4A663
331
4A5DD
  5
4A61E
331
4A5E5
  5
4A626
331
4A5ED
  5
4A62E
331
32D21
  5
32D3E
331
5B4D3
  5
5B4D6
331
4A62C
  5
4A79B
331
4A634
  5
4A8C5
331
4A63C
  5
4AA66
331
4A644
  5
4ACAE
331
4E0F6
  5
53B50
331
41F76
  5
420D5
331
4A5F5
  5
4A638
331
41F7E
  5
420DD
331
4A5FD
  5
4A640
331
41F86
  5
420E8
331
4A60D
  5
4A652
331
4AAEF
  5
4ADF4
331
31B32
  5
3273A
331
5ACBC
  5
5ACC4
331
5ACC4
  5
5ACF8
331
5B48C
  5
4A787
331
4A64C
  5
4ADB2
331
4A654
  5
4ADBA
331
4A65C
  5
4ADC2
331
4A78F
  5
4ADD3
331
4A5D6
  5
4A617
331
4A615
  5
4A65B
331
4A5DE
  5
4A61F
331
4A61D
  5
4A664
331
4A625
  5
4A788
331
4A5E6
  5
4A627
331
5AD24
  5
5B42B
331
4A5EE
  5
4A630
331
4A938
  5
4ADEC
331
4A62D
  5
4A79C
331
4A635
  5
4A922
331
4A797
  5
4A647
331
4A63D
  5
4AA80
331
4A645
  5
4ACCD
331
5183F
  5
B5AD
331
4A5F6
  5
4A639
331
41F77
  5
420D6
331
41F7F
  5
420DE
331
4A5FE
  5
4A641
331
41F87
  5
420E9
331
4A60E
  5
4A654
331
4AA80
  5
4ADF3
331
31B33
  5
3273B
331
31B3B
  5
3273C
331
5ACBD
  5
5ACC5
331
5ACC5
  5
5AD10
331
5B48D
  5
4A792
331
4A64D
  5
4ADB3
331
4A780
  5
4ADCE
331
4A655
  5
4ADBB
331
4A65D
  5
4ADC3
331
4A616
  5
4A65C
331
4A5D7
  5
4A618
331
4A61E
  5
4A665
331
4A5DF
  5
4A620
331
4A5E7
  5
4A628
331
4A626
  5
4A78F
331
4A5EF
  5
4A632
331
5B4D5
  5
5B4D3
331
4A62E
  5
4A79D
331
4A790
  5
4ADD4
331
4E0E8
  5
4E1D5
331
4A636
  5
4A938
331
4A63E
  5
4AAEF
331
4A646
  5
4AD25
331
41F78
  5
420D7
331
4A5F7
  5
4A63A
331
41F80
  5
420DF
331
4A5FF
  5
4A642
331
41F88
  5
420EA
331
4A60F
  5
4A655
331
4A922
  5
4ADEB
331
31B3C
  5
3273D
331
5ACBE
  5
5ACC6
331
4A64E
  5
4ADB4
331
51840
  5
B5AE
331
4A656
  5
4ADBC
331
4A65E
  5
4ADC4
331
4A5D8
  5
4A619
331
4A617
  5
4A65D
331
4A5E0
  5
4A621
331
4A61F
  5
4A780
331
4A5E8
  5
4A629
331
34534
  5
3454C
331
5B4D6
  5
5B4C8
  0
XRECORD
  5
5B9B2
102
{ACAD_REACTORS
330
5B9B1
102
}
330
5B9B1
100
AcDbXrecord
280
     1
 70
     1
  0
LAYOUT
  5
22
102
{ACAD_XDICTIONARY
360
5B9B5
102
}
102
{ACAD_REACTORS
330
1A
102
}
330
1A
100
AcDbPlotSettings
  1

  2
FX DocuWide 2050/2051
  4
A3
  6
AM_VIEW1
 40
3.174999952316283
 41
3.174999952316283
 42
3.17498779296875
 43
3.17498779296875
 44
296.989501953125
 45
419.9889831542968
 46
0.0
 47
1.29584122896196
 48
214.3704939521119
 49
367.5855324241177
140
275.6727856380065
141
407.6291914078169
142
1.0
143
0.7225445603030646
 70
  3764
 72
     1
 73
     1
 74
     2
  7
monochrome.ctb
 75
     0
147
1.383997686703999
148
-1700.85588156276
149
-1647.985052086429
100
AcDbLayout
  1
Model
 70
     1
 71
     0
 10
0.0
 20
0.0
 11
12.0
 21
9.0
 12
0.0
 22
0.0
 32
0.0
 14
0.0
 24
0.0
 34
0.0
 15
0.0
 25
0.0
 35
0.0
146
0.0
 13
0.0
 23
0.0
 33
0.0
 16
1.0
 26
0.0
 36
0.0
 17
0.0
 27
1.0
 37
0.0
 76
     0
330
1F
331
B0EC
1001
ACAD_PSEXT
1000
FX DocuWide 2050/2051
1000
FX DocuWide 2050/2051
1000
IP_192.200.15.252
1000

1070
     0
  0
LAYOUT
  5
1E
102
{ACAD_XDICTIONARY
360
5B9B3
102
}
102
{ACAD_REACTORS
330
1A
102
}
330
1A
100
AcDbPlotSettings
  1

  2
\\ML370\XEROX
  4
A4
  6

 40
3.174999952316283
 41
3.174999952316283
 42
3.175003051757812
 43
3.17498779296875
 44
209.8674926757813
 45
296.6719970703125
 46
0.0
 47
0.0
 48
0.0
 49
0.0
140
0.0
141
0.0
142
1.0
143
1.0
 70
   688
 72
     1
 73
     1
 74
     5
  7
monochrome.ctb
 75
    16
147
1.0
148
0.0
149
0.0
100
AcDbLayout
  1
ﾚｲｱｳﾄ1
 70
     1
 71
     1
 10
-3.17498779296875
 20
-3.174999952316283
 11
293.4970092773438
 21
206.692492723465
 12
0.0
 22
0.0
 32
0.0
 14
1.000000000000000E+20
 24
1.000000000000000E+20
 34
1.000000000000000E+20
 15
-1.000000000000000E+20
 25
-1.000000000000000E+20
 35
-1.000000000000000E+20
146
0.0
 13
0.0
 23
0.0
 33
0.0
 16
1.0
 26
0.0
 36
0.0
 17
0.0
 27
1.0
 37
0.0
 76
     0
330
1B
  0
LAYOUT
  5
26
102
{ACAD_XDICTIONARY
360
5B9B7
102
}
102
{ACAD_REACTORS
330
1A
102
}
330
1A
100
AcDbPlotSettings
  1

  2
\\ML370\XEROX
  4

  6

 40
0.0
 41
0.0
 42
0.0
 43
0.0
 44
0.0
 45
0.0
 46
0.0
 47
0.0
 48
0.0
 49
0.0
140
0.0
141
0.0
142
1.0
143
1.0
 70
   688
 72
     0
 73
     0
 74
     5
  7
monochrome.ctb
 75
    16
147
1.0
148
0.0
149
0.0
100
AcDbLayout
  1
ﾚｲｱｳﾄ2
 70
     1
 71
     2
 10
0.0
 20
0.0
 11
12.0
 21
9.0
 12
0.0
 22
0.0
 32
0.0
 14
0.0
 24
0.0
 34
0.0
 15
0.0
 25
0.0
 35
0.0
146
0.0
 13
0.0
 23
0.0
 33
0.0
 16
1.0
 26
0.0
 36
0.0
 17
0.0
 27
1.0
 37
0.0
 76
     0
330
23
  0
MATERIAL
  5
B0EF
102
{ACAD_XDICTIONARY
360
5B8FF
102
}
102
{ACAD_REACTORS
330
A91C
102
}
330
A91C
100
AcDbMaterial
  1
ByBlock
  0
MATERIAL
  5
B0EE
102
{ACAD_XDICTIONARY
360
5B8FD
102
}
102
{ACAD_REACTORS
330
A91C
102
}
330
A91C
100
AcDbMaterial
  1
ByLayer
  0
MATERIAL
  5
B0F0
102
{ACAD_XDICTIONARY
360
5B901
102
}
102
{ACAD_REACTORS
330
A91C
102
}
330
A91C
100
AcDbMaterial
  1
Global
  0
MLINESTYLE
  5
18
102
{ACAD_REACTORS
330
17
102
}
330
17
100
AcDbMlineStyle
  2
STANDARD
 70
     0
  3

 62
   256
 51
90.0
 52
90.0
 71
     2
 49
0.5
 62
   256
  6
BYLAYER
 49
-0.5
 62
   256
  6
BYLAYER
  0
ACDBPLACEHOLDER
  5
F
102
{ACAD_REACTORS
330
E
102
}
330
E
  0
TABLESTYLE
  5
AABA
102
{ACAD_XDICTIONARY
360
5B9B9
102
}
102
{ACAD_REACTORS
330
AAB9
102
}
330
AAB9
100
AcDbTableStyle
  3
Standard
 70
     0
 71
     0
 40
1.5
 41
1.5
280
     0
281
     0
  7
STANDARD
140
4.5
170
     2
 62
     0
 63
     7
283
     0
274
    -2
284
     1
 64
     0
275
    -2
285
     1
 65
     0
276
    -2
286
     1
 66
     0
277
    -2
287
     1
 67
     0
278
    -2
288
     1
 68
     0
279
    -2
289
     1
 69
     0
  7
STANDARD
140
6.0
170
     5
 62
     0
 63
     7
283
     0
274
    -2
284
     1
 64
     0
275
    -2
285
     1
 65
     0
276
    -2
286
     1
 66
     0
277
    -2
287
     1
 67
     0
278
    -2
288
     1
 68
     0
279
    -2
289
     1
 69
     0
  7
STANDARD
140
4.5
170
     5
 62
     0
 63
     7
283
     0
274
    -2
284
     1
 64
     0
275
    -2
285
     1
 65
     0
276
    -2
286
     1
 66
     0
277
    -2
287
     1
 67
     0
278
    -2
288
     1
 68
     0
279
    -2
289
     1
 69
     0
  0
VISUALSTYLE
  5
B0F7
102
{ACAD_REACTORS
330
B0F1
102
}
330
B0F1
100
AcDbVisualStyle
  2
2dWireframe
 70
     4
 71
     0
 72
     2
 73
     0
 90
        0
 40
-0.6
 41
-30.0
 62
     5
 63
     7
 74
     1
 91
        4
 64
     7
 65
   257
 75
     1
175
     1
 42
1.0
 92
        0
 66
   257
 43
1.0
 76
     1
 77
     6
 78
     2
 67
     7
 79
     5
170
     0
171
     0
290
     0
174
     0
 93
        1
 44
0.0
173
     0
291
     0
 45
0.0
1001
ACAD
1000
AcDbSavedByObjectVersion
1070
     0
1000
AcDbSavedByObjectVersion
1070
     0
  0
VISUALSTYLE
  5
B0F9
102
{ACAD_REACTORS
330
B0F1
102
}
330
B0F1
100
AcDbVisualStyle
  2
3D Hidden
 70
     6
 71
     1
 72
     2
 73
     2
 90
        0
 40
-0.6
 41
-30.0
 62
     5
 63
     7
 74
     2
 91
        2
 64
     7
 65
   257
 75
     2
175
     1
 42
40.0
 92
        0
 66
   257
 43
1.0
 76
     1
 77
     6
 78
     2
 67
     7
 79
     3
170
     0
171
     0
290
     0
174
     0
 93
        1
 44
0.0
173
     0
291
     0
 45
0.0
1001
ACAD
1000
AcDbSavedByObjectVersion
1070
     0
1000
AcDbSavedByObjectVersion
1070
     0
  0
VISUALSTYLE
  5
B0F8
102
{ACAD_REACTORS
330
B0F1
102
}
330
B0F1
100
AcDbVisualStyle
  2
3dWireframe
 70
     5
 71
     0
 72
     2
 73
     0
 90
        0
 40
-0.6
 41
-30.0
 62
     5
 63
     7
 74
     1
 91
        4
 64
     7
 65
   257
 75
     1
175
     1
 42
1.0
 92
        0
 66
   257
 43
1.0
 76
     1
 77
     6
 78
     2
 67
     7
 79
     5
170
     0
171
     0
290
     0
174
     0
 93
        1
 44
0.0
173
     0
291
     0
 45
0.0
1001
ACAD
1000
AcDbSavedByObjectVersion
1070
     0
1000
AcDbSavedByObjectVersion
1070
     0
  0
VISUALSTYLE
  5
B0F6
102
{ACAD_REACTORS
330
B0F1
102
}
330
B0F1
100
AcDbVisualStyle
  2
Basic
 70
     7
 71
     1
 72
     0
 73
     1
 90
        0
 40
-0.6
 41
-30.0
 62
     5
 63
     7
 74
     0
 91
        4
 64
     7
 65
   257
 75
     1
175
     1
 42
1.0
 92
        8
 66
     7
 43
1.0
 76
     1
 77
     6
 78
     2
 67
     7
 79
     5
170
     0
171
     0
290
     0
174
     0
 93
        1
 44
0.0
173
     0
291
     1
 45
0.0
1001
ACAD
1000
AcDbSavedByObjectVersion
1070
     0
1000
AcDbSavedByObjectVersion
1070
     0
  0
VISUALSTYLE
  5
B0FD
102
{ACAD_REACTORS
330
B0F1
102
}
330
B0F1
100
AcDbVisualStyle
  2
Brighten
 70
    12
 71
     2
 72
     2
 73
     0
 90
        0
 40
-0.6
 41
-30.0
 62
     5
 63
     7
 74
     1
 91
        4
 64
     7
 65
   257
 75
     1
175
     1
 42
1.0
 92
        8
 66
     7
 43
1.0
 76
     1
 77
     6
 78
     2
 67
     7
 79
     5
170
     0
171
     0
290
     0
174
     0
 93
        1
 44
50.0
173
     0
291
     1
 45
0.0
1001
ACAD
1000
AcDbSavedByObjectVersion
1070
     0
1000
AcDbSavedByObjectVersion
1070
     0
  0
VISUALSTYLE
  5
B101
102
{ACAD_REACTORS
330
B0F1
102
}
330
B0F1
100
AcDbVisualStyle
  2
ColorChange
 70
    16
 71
     2
 72
     2
 73
     3
 90
        0
 40
-0.6
 41
-30.0
 62
     5
 63
     8
 74
     1
 91
        4
 64
     7
 65
   257
 75
     1
175
     1
 42
1.0
 92
        8
 66
     8
 43
1.0
 76
     1
 77
     6
 78
     2
 67
     7
 79
     5
170
     0
171
     0
290
     0
174
     0
 93
        1
 44
0.0
173
     0
291
     1
 45
0.0
1001
ACAD
1000
AcDbSavedByObjectVersion
1070
     0
1000
AcDbSavedByObjectVersion
1070
     0
  0
VISUALSTYLE
  5
B0FA
102
{ACAD_REACTORS
330
B0F1
102
}
330
B0F1
100
AcDbVisualStyle
  2
Conceptual
 70
     9
 71
     3
 72
     2
 73
     0
 90
        0
 40
-0.6
 41
-30.0
 62
     5
 63
     7
 74
     2
 91
        2
 64
     7
 65
   257
 75
     1
175
     1
 42
40.0
 92
        8
 66
     7
 43
1.0
 76
     1
 77
     6
 78
     2
 67
     7
 79
     3
170
     0
171
     0
290
     0
174
     0
 93
        1
 44
0.0
173
     0
291
     0
 45
0.0
1001
ACAD
1000
AcDbSavedByObjectVersion
1070
     0
1000
AcDbSavedByObjectVersion
1070
     0
  0
VISUALSTYLE
  5
B0FC
102
{ACAD_REACTORS
330
B0F1
102
}
330
B0F1
100
AcDbVisualStyle
  2
Dim
 70
    11
 71
     2
 72
     2
 73
     0
 90
        0
 40
-0.6
 41
-30.0
 62
     5
 63
     7
 74
     1
 91
        4
 64
     7
 65
   257
 75
     1
175
     1
 42
1.0
 92
        8
 66
     7
 43
1.0
 76
     1
 77
     6
 78
     2
 67
     7
 79
     5
170
     0
171
     0
290
     0
174
     0
 93
        1
 44
-50.0
173
     0
291
     1
 45
0.0
1001
ACAD
1000
AcDbSavedByObjectVersion
1070
     0
1000
AcDbSavedByObjectVersion
1070
     0
  0
VISUALSTYLE
  5
B100
102
{ACAD_REACTORS
330
B0F1
102
}
330
B0F1
100
AcDbVisualStyle
  2
Facepattern
 70
    15
 71
     2
 72
     2
 73
     0
 90
        0
 40
-0.6
 41
-30.0
 62
     5
 63
     7
 74
     1
 91
        4
 64
     7
 65
   257
 75
     1
175
     1
 42
1.0
 92
        8
 66
     7
 43
1.0
 76
     1
 77
     6
 78
     2
 67
     7
 79
     5
170
     0
171
     0
290
     0
174
     0
 93
        1
 44
0.0
173
     0
291
     1
 45
0.0
1001
ACAD
1000
AcDbSavedByObjectVersion
1070
     0
1000
AcDbSavedByObjectVersion
1070
     0
  0
VISUALSTYLE
  5
B0F2
102
{ACAD_REACTORS
330
B0F1
102
}
330
B0F1
100
AcDbVisualStyle
  2
Flat
 70
     0
 71
     2
 72
     1
 73
     1
 90
        2
 40
-0.6
 41
30.0
 62
     5
 63
     7
 74
     0
 91
        4
 64
     7
 65
   257
 75
     1
175
     1
 42
1.0
 92
        8
 66
     7
 43
1.0
 76
     1
 77
     6
 78
     2
 67
     7
 79
     5
170
     0
171
     0
290
     0
174
     0
 93
       13
 44
0.0
173
     0
291
     1
 45
0.0
1001
ACAD
1000
AcDbSavedByObjectVersion
1070
     0
1000
AcDbSavedByObjectVersion
1070
     0
  0
VISUALSTYLE
  5
B0F3
102
{ACAD_REACTORS
330
B0F1
102
}
330
B0F1
100
AcDbVisualStyle
  2
FlatWithEdges
 70
     1
 71
     2
 72
     1
 73
     1
 90
        2
 40
-0.6
 41
30.0
 62
     5
 63
     7
 74
     1
 91
        4
 64
     7
 65
   257
 75
     1
175
     1
 42
1.0
 92
        0
 66
   257
 43
1.0
 76
     1
 77
     6
 78
     2
 67
     7
 79
     5
170
     0
171
     0
290
     0
174
     0
 93
       13
 44
0.0
173
     0
291
     1
 45
0.0
1001
ACAD
1000
AcDbSavedByObjectVersion
1070
     0
1000
AcDbSavedByObjectVersion
1070
     0
  0
VISUALSTYLE
  5
B0F4
102
{ACAD_REACTORS
330
B0F1
102
}
330
B0F1
100
AcDbVisualStyle
  2
Gouraud
 70
     2
 71
     2
 72
     2
 73
     1
 90
        2
 40
-0.6
 41
30.0
 62
     5
 63
     7
 74
     0
 91
        4
 64
     7
 65
   257
 75
     1
175
     1
 42
1.0
 92
        0
 66
     7
 43
1.0
 76
     1
 77
     6
 78
     2
 67
     7
 79
     5
170
     0
171
     0
290
     0
174
     0
 93
       13
 44
0.0
173
     0
291
     1
 45
0.0
1001
ACAD
1000
AcDbSavedByObjectVersion
1070
     0
1000
AcDbSavedByObjectVersion
1070
     0
  0
VISUALSTYLE
  5
B0F5
102
{ACAD_REACTORS
330
B0F1
102
}
330
B0F1
100
AcDbVisualStyle
  2
GouraudWithEdges
 70
     3
 71
     2
 72
     2
 73
     1
 90
        2
 40
-0.6
 41
30.0
 62
     5
 63
     7
 74
     1
 91
        4
 64
     7
 65
   257
 75
     1
175
     1
 42
1.0
 92
        0
 66
   257
 43
1.0
 76
     1
 77
     6
 78
     2
 67
     7
 79
     5
170
     0
171
     0
290
     0
174
     0
 93
       13
 44
0.0
173
     0
291
     1
 45
0.0
1001
ACAD
1000
AcDbSavedByObjectVersion
1070
     0
1000
AcDbSavedByObjectVersion
1070
     0
  0
VISUALSTYLE
  5
B0FF
102
{ACAD_REACTORS
330
B0F1
102
}
330
B0F1
100
AcDbVisualStyle
  2
Linepattern
 70
    14
 71
     2
 72
     2
 73
     0
 90
        0
 40
-0.6
 41
-30.0
 62
     5
 63
     7
 74
     1
 91
        4
 64
     7
 65
   257
 75
     7
175
     7
 42
1.0
 92
        8
 66
     7
 43
1.0
 76
     1
 77
     6
 78
     2
 67
     7
 79
     5
170
     0
171
     0
290
     0
174
     0
 93
        1
 44
0.0
173
     0
291
     1
 45
0.0
1001
ACAD
1000
AcDbSavedByObjectVersion
1070
     0
1000
AcDbSavedByObjectVersion
1070
     0
  0
VISUALSTYLE
  5
B0FB
102
{ACAD_REACTORS
330
B0F1
102
}
330
B0F1
100
AcDbVisualStyle
  2
Realistic
 70
     8
 71
     2
 72
     2
 73
     0
 90
        0
 40
-0.6
 41
-30.0
 62
     5
 63
     7
 74
     1
 91
        0
 64
     7
 65
   257
 75
     1
175
     1
 42
1.0
 92
        8
 66
     8
 43
1.0
 76
     1
 77
     6
 78
     2
 67
     7
 79
     5
170
     0
171
     0
290
     0
174
     0
 93
       13
 44
0.0
173
     0
291
     0
 45
0.0
1001
ACAD
1000
AcDbSavedByObjectVersion
1070
     0
1000
AcDbSavedByObjectVersion
1070
     0
  0
VISUALSTYLE
  5
B0FE
102
{ACAD_REACTORS
330
B0F1
102
}
330
B0F1
100
AcDbVisualStyle
  2
Thicken
 70
    13
 71
     2
 72
     2
 73
     0
 90
        0
 40
-0.6
 41
-30.0
 62
     5
 63
     7
 74
     1
 91
        4
 64
     7
 65
   257
 75
     1
175
     1
 42
1.0
 92
       12
 66
     7
 43
1.0
 76
     1
 77
     6
 78
     2
 67
     7
 79
     5
170
     0
171
     0
290
     0
174
     0
 93
        1
 44
0.0
173
     0
291
     1
 45
0.0
1001
ACAD
1000
AcDbSavedByObjectVersion
1070
     0
1000
AcDbSavedByObjectVersion
1070
     0
  0
DICTIONARYVAR
  5
AAF3
102
{ACAD_REACTORS
330
34
102
}
330
34
100
DictionaryVariables
280
     0
  1
STANDARD
  0
DICTIONARYVAR
  5
A10C
102
{ACAD_REACTORS
330
34
102
}
330
34
100
DictionaryVariables
280
     0
  1
1
  0
DICTIONARYVAR
  5
AB07
102
{ACAD_REACTORS
330
34
102
}
330
34
100
DictionaryVariables
280
     0
  1
4
  0
DICTIONARYVAR
  5
35
102
{ACAD_REACTORS
330
34
102
}
330
34
100
DictionaryVariables
280
     0
  1
0
  0
DICTIONARYVAR
  5
194C
102
{ACAD_REACTORS
330
34
102
}
330
34
100
DictionaryVariables
280
     0
  1
127
  0
DICTIONARY
  5
7E8
102
{ACAD_REACTORS
330
47
102
}
330
47
100
AcDbDictionary
281
     1
  0
DICTIONARY
  5
4C
102
{ACAD_REACTORS
330
47
102
}
330
47
100
AcDbDictionary
281
     1
  0
XRECORD
  5
A929
102
{ACAD_REACTORS
330
47
102
}
330
47
100
AcDbXrecord
280
     1
 90
-1023410169
  0
XRECORD
  5
57913
102
{ACAD_REACTORS
330
57912
102
}
330
57912
100
AcDbXrecord
280
     1
330
0
330
0
330
0
330
0
330
0
330
0
330
0
330
0
330
0
330
0
330
0
330
0
330
0
330
0
330
0
330
0
330
0
330
0
330
0
330
0
330
0
330
0
330
0
330
0
330
0
330
0
330
0
330
0
330
0
330
0
330
0
330
0
330
0
330
0
330
0
330
0
330
0
330
0
330
0
330
0
330
0
330
0
330
0
330
0
330
0
330
0
330
0
330
0
330
0
330
0
330
0
330
0
330
0
330
0
330
0
330
0
330
0
330
0
330
0
330
0
330
0
330
0
330
0
330
0
330
0
330
0
330
0
330
0
330
0
330
0
330
0
330
0
330
0
330
0
330
0
330
0
330
0
330
0
330
0
330
0
330
0
330
0
330
0
330
0
330
0
330
0
330
0
330
0
330
0
330
0
330
0
330
0
330
0
330
0
330
0
330
0
330
0
330
0
330
0
330
0
330
0
330
0
330
0
330
0
330
0
330
0
330
0
330
0
330
0
330
0
330
0
330
0
330
0
330
0
330
0
330
0
330
0
330
0
330
0
330
0
330
0
330
0
330
0
330
0
330
0
330
0
330
0
330
0
330
0
330
0
330
0
330
0
330
0
330
0
330
0
330
0
330
0
330
0
330
0
330
0
330
0
330
0
330
0
330
0
330
0
330
0
330
0
330
0
330
0
330
0
330
0
330
0
330
0
330
0
330
0
330
0
330
0
330
0
330
0
330
0
330
0
330
0
330
0
330
0
330
0
330
0
330
0
330
0
330
0
330
0
330
0
330
0
330
0
330
0
330
0
330
0
330
0
330
0
330
0
330
0
330
0
330
0
330
0
330
0
330
0
330
0
330
0
330
0
330
0
330
0
330
0
330
0
330
0
330
0
330
0
330
0
330
0
330
0
330
0
330
0
330
0
330
0
330
0
330
0
330
0
330
0
330
0
330
0
330
0
330
0
330
0
330
0
330
0
330
0
330
0
330
0
330
0
330
0
330
0
330
0
330
0
330
0
330
0
330
0
330
0
330
0
330
0
330
0
330
0
330
0
330
0
330
0
330
0
330
0
330
0
330
0
330
0
330
0
330
0
330
0
330
0
330
0
330
0
330
0
330
0
330
0
330
0
330
0
330
0
330
0
330
0
330
0
330
0
330
0
330
0
330
0
330
0
330
0
330
0
330
0
330
0
330
0
330
0
330
0
330
0
330
0
330
0
330
0
330
0
330
0
330
0
330
0
330
0
330
0
330
0
330
0
330
0
330
0
330
0
330
0
330
0
330
0
330
0
330
0
330
0
330
0
330
0
330
0
330
0
330
0
330
0
330
0
330
0
330
0
330
0
330
0
330
0
330
0
330
0
330
0
330
0
330
0
330
0
330
0
330
0
330
0
330
0
330
0
330
0
330
0
330
0
330
0
330
0
330
0
330
0
330
0
330
0
330
0
330
0
330
0
330
0
330
0
330
0
330
0
330
0
330
0
330
0
330
0
330
0
330
0
330
0
330
0
330
0
330
0
330
0
330
0
330
0
330
0
330
0
330
0
330
0
330
0
330
0
330
0
330
0
330
0
330
0
330
0
330
0
330
0
330
0
330
0
330
0
330
0
330
0
330
0
330
0
330
0
330
0
330
0
330
0
330
0
330
0
330
0
330
0
330
0
330
0
330
0
330
0
330
0
330
0
330
0
330
0
330
0
330
0
330
0
330
0
330
0
330
0
330
0
330
0
330
0
330
0
330
0
330
0
330
0
330
0
330
0
330
0
330
0
330
0
330
0
330
0
330
0
330
0
330
0
330
0
330
0
330
0
330
0
330
0
330
0
330
0
330
0
330
0
330
0
330
0
330
0
330
0
330
0
330
0
330
0
330
0
330
0
330
0
330
0
330
0
330
0
330
0
330
0
330
0
330
0
330
0
330
0
330
0
330
0
330
0
330
0
330
0
330
0
330
0
330
0
330
0
330
0
330
0
330
0
330
0
330
0
330
0
330
0
330
0
330
0
330
0
330
0
330
0
330
0
330
0
330
0
330
0
330
0
330
0
330
0
330
0
330
0
330
0
330
0
330
0
330
0
330
0
330
0
330
0
330
0
330
0
330
0
330
0
330
0
330
0
330
0
330
0
330
0
330
0
330
0
330
0
330
0
330
0
330
0
330
0
330
0
330
0
330
0
330
0
330
0
330
0
330
0
330
0
330
0
330
0
330
0
330
0
330
0
330
0
330
0
330
0
330
0
330
0
330
0
330
0
330
0
330
0
330
0
330
0
330
0
330
0
330
0
330
0
330
0
330
0
330
0
330
0
330
0
330
0
330
0
330
0
330
0
330
0
330
0
330
0
330
0
330
0
330
0
330
0
330
0
330
0
330
0
330
0
330
0
330
0
330
0
330
0
330
0
330
0
330
0
330
0
330
0
330
0
330
0
330
0
330
0
330
0
330
0
330
0
330
0
330
0
330
0
330
0
330
0
330
0
330
0
330
0
330
0
330
0
330
0
330
0
330
0
330
0
330
0
330
0
330
0
330
0
330
0
330
0
330
0
330
0
330
0
330
0
330
0
330
0
330
0
330
0
330
0
330
0
330
0
330
0
330
0
330
0
330
0
330
0
330
0
330
0
330
0
330
0
330
0
330
0
330
0
330
0
330
0
330
0
330
0
330
0
330
0
330
0
330
0
330
0
330
0
330
0
330
0
330
0
330
0
330
0
330
0
330
0
330
0
330
0
330
0
330
0
330
0
330
0
330
0
330
0
330
0
330
0
330
0
330
0
330
0
330
0
330
0
330
0
330
0
330
0
330
0
330
0
330
0
330
0
330
0
330
0
330
0
330
0
330
0
330
0
330
0
330
0
330
0
330
0
330
0
330
0
330
0
330
0
330
0
330
0
330
0
330
0
330
0
330
0
330
0
330
0
330
0
330
0
330
0
330
0
330
0
330
0
330
0
330
0
330
0
330
0
330
0
330
0
330
0
330
0
330
0
330
0
330
0
330
0
330
0
330
0
330
0
330
0
330
0
330
0
330
0
330
0
330
0
330
0
330
0
330
0
330
0
330
0
330
0
330
0
330
0
330
0
330
0
330
0
330
0
330
0
330
0
330
0
330
0
330
0
330
0
330
0
330
0
330
0
330
0
330
0
330
0
330
0
330
0
330
0
330
0
330
0
330
0
330
0
330
0
330
0
330
0
330
0
330
0
330
0
330
0
330
0
330
0
330
0
330
0
330
0
330
0
330
0
330
0
330
0
330
0
330
0
330
0
330
0
330
0
330
0
330
0
330
0
330
0
330
0
330
0
330
0
330
0
330
0
330
0
330
0
330
0
330
0
330
0
330
0
330
0
330
0
330
0
330
0
330
0
330
0
330
0
330
0
330
0
330
0
330
0
330
0
330
0
330
0
330
0
330
0
330
0
330
0
330
0
330
0
330
0
330
0
330
0
330
0
330
0
330
0
330
0
330
0
330
0
330
0
330
0
330
0
330
0
330
0
330
0
330
0
330
0
330
0
330
0
330
0
330
0
330
0
330
0
330
0
330
0
330
0
330
0
330
0
330
0
330
0
330
0
330
0
330
0
330
0
330
0
330
0
330
0
330
0
330
0
330
0
330
0
330
0
330
0
330
0
330
0
330
0
330
0
330
0
330
0
330
0
330
0
330
0
330
0
330
0
330
0
330
0
330
0
330
0
330
0
330
0
330
0
330
0
330
0
330
0
330
0
330
0
330
0
330
0
330
0
330
0
330
0
330
0
330
0
330
0
330
0
330
0
330
0
330
0
330
0
330
0
330
0
330
0
330
0
330
0
330
0
330
0
330
0
330
0
330
0
330
0
330
0
330
0
330
0
330
0
330
0
330
0
330
0
330
0
330
0
330
0
330
0
330
0
330
0
330
0
330
0
330
0
330
0
330
0
330
0
330
0
330
0
330
0
330
0
330
0
330
0
330
0
330
0
330
0
330
0
330
0
330
0
330
0
330
0
330
0
330
0
330
0
330
0
330
0
330
0
330
0
330
0
330
0
330
0
330
0
330
0
330
0
330
0
330
0
330
0
330
0
330
0
330
0
330
0
330
0
330
0
330
0
330
0
330
0
330
0
330
0
330
0
330
0
330
0
330
0
330
0
330
0
330
0
330
0
330
0
330
0
330
0
330
0
330
0
330
0
330
0
330
0
330
0
330
0
330
0
330
0
330
0
330
0
330
0
330
0
330
0
330
0
330
0
330
0
330
0
330
0
330
0
330
0
330
0
330
0
330
0
330
0
330
0
330
0
330
0
330
0
330
0
330
0
330
0
330
0
330
0
330
0
330
0
330
0
330
0
330
0
330
0
330
0
330
0
330
0
330
0
330
0
330
0
330
0
330
0
330
0
330
0
330
0
330
0
330
0
330
0
330
0
330
0
330
0
330
0
330
0
330
0
330
0
330
0
330
0
330
0
330
0
330
0
330
0
330
0
330
0
330
0
330
0
330
0
330
0
330
0
330
0
330
0
330
0
330
0
330
0
330
0
330
0
330
0
330
0
330
0
330
0
330
0
330
0
330
0
330
0
330
0
330
0
330
0
330
0
330
0
330
0
330
0
330
0
330
0
330
0
330
0
330
0
330
0
330
0
330
0
330
0
330
0
330
0
330
0
330
0
330
0
330
0
330
0
330
0
330
0
330
0
330
0
330
0
330
0
330
0
330
0
330
0
330
0
330
0
330
0
330
0
330
0
330
0
330
0
330
0
330
0
330
0
330
0
330
0
330
0
330
0
330
0
330
0
330
0
330
0
330
0
330
0
330
0
330
0
330
0
330
0
330
0
330
0
330
0
330
0
330
0
330
0
330
0
330
0
330
0
330
0
330
0
330
0
330
0
330
0
330
0
330
0
330
0
330
0
330
0
330
0
330
0
330
0
330
0
330
0
330
0
330
0
330
0
330
0
330
0
330
0
330
0
330
0
330
0
330
0
330
0
330
0
330
0
330
0
330
0
330
0
330
0
330
0
330
0
330
0
330
0
330
0
330
0
330
0
330
0
330
0
330
0
330
0
330
0
330
0
330
0
330
0
330
0
330
0
330
0
330
0
330
0
330
0
330
0
330
0
330
0
330
0
330
0
330
0
330
0
330
0
330
0
330
0
330
0
330
0
330
0
330
0
330
0
330
0
330
0
330
0
330
0
330
0
330
0
330
0
330
0
330
0
330
0
330
0
330
0
330
0
330
0
330
0
330
0
330
0
330
0
330
0
330
0
330
0
330
0
330
0
330
0
330
0
330
0
330
0
330
0
330
0
330
0
330
0
330
0
330
0
330
0
330
0
330
0
330
0
330
0
330
0
330
0
330
0
330
0
330
0
330
0
330
0
330
0
330
0
330
0
330
0
330
0
330
0
330
0
330
0
330
0
330
0
330
0
330
0
330
0
330
0
330
0
330
0
330
0
330
0
330
0
330
0
330
0
330
0
330
0
330
0
330
0
330
0
330
0
330
0
330
0
330
0
330
0
330
0
330
0
330
0
330
0
330
0
330
0
330
0
330
0
330
0
330
0
330
0
330
0
330
0
330
0
330
0
330
0
330
0
330
0
330
0
330
0
330
0
330
0
330
0
330
0
330
0
330
0
330
0
330
0
330
0
330
0
330
0
330
0
330
0
330
0
330
0
330
0
330
0
330
0
330
0
330
0
330
0
330
0
330
0
330
0
330
0
330
0
330
0
330
0
330
0
330
0
330
0
330
0
330
0
330
0
330
0
330
0
330
0
330
0
330
0
330
0
330
0
330
0
330
0
330
0
330
0
330
0
330
0
330
0
330
0
330
0
330
0
330
0
330
0
330
0
330
0
330
0
330
0
330
0
330
0
330
0
330
0
330
0
330
0
330
0
330
0
330
0
330
0
330
0
330
0
330
0
330
0
330
0
330
0
330
0
330
0
330
0
330
0
330
0
330
0
330
0
330
0
330
0
330
0
330
0
330
0
330
0
330
0
330
0
330
0
330
0
330
0
330
0
330
0
330
0
330
0
330
0
330
0
330
0
330
0
330
0
330
0
330
0
330
0
330
0
330
0
330
0
330
0
330
0
330
0
330
0
330
0
330
0
330
0
330
0
330
0
330
0
330
0
330
0
330
0
330
0
330
0
330
0
330
0
330
0
330
0
330
0
330
0
330
0
330
0
330
0
330
0
330
0
330
0
330
0
330
0
330
0
330
0
330
0
330
0
330
0
330
0
330
0
330
0
330
0
330
0
330
0
330
0
330
0
330
0
330
0
330
0
330
0
330
0
330
0
330
0
330
0
330
0
330
0
330
0
330
0
330
0
330
0
330
0
330
0
330
0
330
0
330
0
330
0
330
0
330
0
330
0
330
0
330
0
330
0
330
0
330
0
330
0
330
0
330
0
330
0
330
0
330
0
330
0
330
0
330
0
330
0
330
0
330
0
330
0
330
0
330
0
330
0
330
0
330
0
330
0
330
0
330
0
330
0
330
0
330
0
330
0
330
0
330
0
330
0
330
0
330
0
330
0
330
0
330
0
330
0
330
0
330
0
330
0
330
0
330
0
330
0
330
0
330
0
330
0
330
0
330
0
330
0
330
0
330
0
330
0
330
0
330
0
330
0
330
0
330
0
330
0
330
0
330
0
330
0
330
0
330
0
330
0
330
0
330
0
330
0
330
0
330
0
330
0
330
0
330
0
330
0
330
0
330
0
330
0
330
0
330
0
330
0
330
0
330
0
330
0
330
0
330
0
330
0
330
0
330
0
330
0
330
0
330
0
330
0
330
0
330
0
330
0
330
0
330
0
330
0
330
0
330
0
330
0
330
0
330
0
330
0
330
0
330
0
330
0
330
0
330
0
330
0
330
0
330
0
330
0
330
0
330
0
330
0
330
0
330
0
330
0
330
0
330
0
330
0
330
0
330
0
330
0
330
0
330
0
330
0
330
0
330
0
330
0
330
0
330
0
330
0
330
0
330
0
330
0
330
0
330
0
330
0
330
0
330
0
330
0
330
0
330
0
330
0
330
0
330
0
330
0
330
0
330
0
330
0
330
0
330
0
330
0
330
0
330
0
330
0
330
0
330
0
330
0
330
0
330
0
330
0
330
0
330
0
330
0
330
0
330
0
330
0
330
0
330
0
330
0
330
0
330
0
330
0
330
0
330
0
330
0
330
0
330
0
330
0
330
0
330
0
330
0
330
0
330
0
330
0
330
0
330
0
330
0
330
0
330
0
330
0
330
0
330
0
330
0
330
0
330
0
330
0
330
0
330
0
330
0
330
0
330
0
330
0
330
0
330
0
330
0
330
0
330
0
330
0
330
0
330
0
330
0
330
0
330
0
330
0
330
0
330
0
330
0
330
0
330
0
330
0
330
0
330
0
330
0
330
0
330
0
330
0
330
0
330
0
330
0
330
0
330
0
330
0
330
0
330
0
330
0
330
0
330
0
330
0
330
0
330
0
330
0
330
0
330
0
330
0
330
0
330
0
330
0
330
0
330
0
330
0
330
0
330
0
330
0
330
0
330
0
330
0
330
0
330
0
330
0
330
0
330
0
330
0
330
0
330
0
330
0
330
0
330
0
330
0
330
0
330
0
330
0
330
0
330
0
330
0
330
0
330
0
330
0
330
0
330
0
330
0
330
0
330
0
330
0
330
0
330
0
330
0
330
0
330
0
330
0
330
0
330
0
330
0
330
0
330
0
330
0
330
0
330
0
330
0
330
0
330
0
330
0
330
0
330
0
330
0
330
0
330
0
330
0
330
0
330
0
330
0
330
0
330
0
330
0
330
0
330
0
330
0
330
0
330
0
330
0
330
0
330
0
330
0
330
0
330
0
330
0
330
0
330
0
330
0
330
0
330
0
330
0
330
0
330
0
330
0
330
0
330
0
330
0
330
0
330
0
330
0
330
0
330
0
330
0
330
0
330
0
330
0
330
0
330
0
330
0
330
0
330
0
330
0
330
0
330
0
330
0
330
0
330
0
330
0
330
0
330
0
330
0
330
0
330
0
330
0
330
0
330
0
330
0
330
0
330
0
330
0
330
0
330
0
330
0
330
0
330
0
330
0
330
0
330
0
330
0
330
0
330
0
330
0
330
0
330
0
330
0
330
0
330
0
330
0
330
0
330
0
330
0
330
0
330
0
330
0
330
0
330
0
330
0
330
0
330
0
330
0
330
0
330
0
330
0
330
0
330
0
330
0
330
0
330
0
330
0
330
0
330
0
330
0
330
0
330
0
330
0
330
0
330
0
330
0
330
0
330
0
330
0
330
0
330
0
330
0
330
0
330
0
330
0
330
0
330
0
330
0
330
0
330
0
330
0
330
0
330
0
330
0
330
0
330
0
330
0
330
0
330
0
330
0
330
0
330
0
330
0
330
0
330
0
330
0
330
0
330
0
330
0
330
0
330
0
330
0
330
0
330
0
330
0
330
0
330
0
330
0
330
0
330
0
330
0
330
0
330
0
330
0
330
0
330
0
330
0
330
0
330
0
330
0
330
0
330
0
330
0
330
0
330
0
330
0
330
0
330
0
330
0
330
0
  0
XRECORD
  5
3FB7
102
{ACAD_REACTORS
330
3F96
102
}
330
3F96
100
AcDbXrecord
280
     1
 91
        3
330
0
 90
        8
 62
     7
370
    40
331
16
  1
Color_7
330
0
 90
        0
 62
    14
370
    -3
331
16
  1
Color_14
330
0
 90
        8
 62
     7
370
    20
331
16
  1
Color_7
330
6D1
 90
        0
 62
     7
370
    -3
331
16
  1
Color_7
330
0
 90
        8
 62
     7
370
    50
331
16
  1
Color_7
330
0
 90
        8
 62
     2
370
    35
331
16
  1
Color_2
330
0
 90
        8
 62
     7
370
    -3
331
16
  1
Color_7
330
10
 90
        8
 62
     7
370
    -3
331
16
  1
Color_7
  0
DICTIONARY
  5
5B9B5
330
22
100
AcDbDictionary
280
     1
281
     1
  3
ACAD_XREC_ROUNDTRIP
360
5B9B6
  0
DICTIONARY
  5
5B9B3
330
1E
100
AcDbDictionary
280
     1
281
     1
  3
ACAD_XREC_ROUNDTRIP
360
5B9B4
  0
DICTIONARY
  5
5B9B7
330
26
100
AcDbDictionary
280
     1
281
     1
  3
ACAD_XREC_ROUNDTRIP
360
5B9B8
  0
DICTIONARY
  5
5B8FF
330
B0EF
100
AcDbDictionary
280
     1
281
     1
  3
ACAD_XREC_ROUNDTRIP
360
5B900
  0
DICTIONARY
  5
5B8FD
330
B0EE
100
AcDbDictionary
280
     1
281
     1
  3
ACAD_XREC_ROUNDTRIP
360
5B8FE
  0
DICTIONARY
  5
5B901
330
B0F0
100
AcDbDictionary
280
     1
281
     1
  3
ACAD_XREC_ROUNDTRIP
360
5B902
  0
DICTIONARY
  5
5B9B9
330
AABA
100
AcDbDictionary
280
     1
281
     1
  3
ACAD_XREC_ROUNDTRIP
360
5B9BA
  0
XRECORD
  5
5B9B6
102
{ACAD_REACTORS
330
5B9B5
102
}
330
5B9B5
100
AcDbXrecord
280
     1
102
SHADEPLOT
 70
     0
102
SHADEPLOTRESLEVEL
 70
     2
102
SHADEPLOTCUSTOMDPI
 70
   200
  0
XRECORD
  5
5B9B4
102
{ACAD_REACTORS
330
5B9B3
102
}
330
5B9B3
100
AcDbXrecord
280
     1
102
SHADEPLOT
 70
     0
102
SHADEPLOTRESLEVEL
 70
     2
102
SHADEPLOTCUSTOMDPI
 70
   300
  0
XRECORD
  5
5B9B8
102
{ACAD_REACTORS
330
5B9B7
102
}
330
5B9B7
100
AcDbXrecord
280
     1
102
SHADEPLOT
 70
     0
102
SHADEPLOTRESLEVEL
 70
     2
102
SHADEPLOTCUSTOMDPI
 70
   300
  0
XRECORD
  5
5B900
102
{ACAD_REACTORS
330
5B8FF
102
}
330
5B8FF
100
AcDbXrecord
280
     1
102
MATERIAL
148
0.0
149
0.0
149
0.0
 93
        0
 94
       63
282
     0
 72
     1
 77
     1
171
     1
175
     1
179
     1
273
     0
  0
XRECORD
  5
5B8FE
102
{ACAD_REACTORS
330
5B8FD
102
}
330
5B8FD
100
AcDbXrecord
280
     1
102
MATERIAL
148
0.0
149
0.0
149
0.0
 93
        0
 94
       63
282
     0
 72
     1
 77
     1
171
     1
175
     1
179
     1
273
     0
  0
XRECORD
  5
5B902
102
{ACAD_REACTORS
330
5B901
102
}
330
5B901
100
AcDbXrecord
280
     1
102
MATERIAL
148
0.0
149
0.0
149
0.0
 93
        0
 94
       63
282
     0
 72
     1
 77
     1
171
     1
175
     1
179
     1
273
     0
  0
XRECORD
  5
5B9BA
102
{ACAD_REACTORS
330
5B9B9
102
}
330
5B9B9
100
AcDbXrecord
280
     1
102
ACAD_ROUNDTRIP_PRE2007_TABLESTYLE
 90
        4
 91
        0
  1

 92
        4
 93
        0
  2

 94
        4
 95
        0
  3

  0
ENDSEC
  0
EOF
