  0
SECTION
  2
HEADER
  9
$ACADVER
  1
AC1015
  9
$ACADMAINTVER
 70
    20
  9
$DWGCODEPAGE
  3
ANSI_932
  9
$INSBASE
 10
0.0
 20
0.0
 30
0.0
  9
$EXTMIN
 10
6074.805168243305
 20
-3993.677898728864
 30
-0.0015258207003583
  9
$EXTMAX
 10
6372.095200736827
 20
-3783.077812813222
 30
0.0000000349246037
  9
$LIMMIN
 10
3779.599158088851
 20
100.7134268036752
  9
$LIMMAX
 10
9719.599158088852
 20
4300.713426803675
  9
$ORTHOMODE
 70
     0
  9
$REGENMODE
 70
     1
  9
$FILLMODE
 70
     1
  9
$QTEXTMODE
 70
     0
  9
$MIRRTEXT
 70
     0
  9
$LTSCALE
 40
1.0
  9
$ATTMODE
 70
     1
  9
$TEXTSIZE
 40
3.2
  9
$TRACEWID
 40
1.0
  9
$TEXTSTYLE
  7
STANDARD
  9
$CLAYER
  8
0部品18
  9
$CELTYPE
  6
ByLayer
  9
$CECOLOR
 62
   256
  9
$CELTSCALE
 40
1.0
  9
$DISPSILH
 70
     0
  9
$DIMSCALE
 40
1.0
  9
$DIMASZ
 40
1.0
  9
$DIMEXO
 40
1.0
  9
$DIMDLI
 40
10.0
  9
$DIMRND
 40
0.0
  9
$DIMDLE
 40
0.0
  9
$DIMEXE
 40
1.0
  9
$DIMTP
 40
0.1
  9
$DIMTM
 40
0.1
  9
$DIMTXT
 40
3.5
  9
$DIMCEN
 40
0.0
  9
$DIMTSZ
 40
0.0
  9
$DIMTOL
 70
     0
  9
$DIMLIM
 70
     0
  9
$DIMTIH
 70
     0
  9
$DIMTOH
 70
     0
  9
$DIMSE1
 70
     0
  9
$DIMSE2
 70
     0
  9
$DIMTAD
 70
     1
  9
$DIMZIN
 70
     8
  9
$DIMBLK
  1

  9
$DIMASO
 70
     1
  9
$DIMSHO
 70
     1
  9
$DIMPOST
  1

  9
$DIMAPOST
  1
"
  9
$DIMALT
 70
     0
  9
$DIMALTD
 70
     2
  9
$DIMALTF
 40
0.0393701
  9
$DIMLFAC
 40
1.0
  9
$DIMTOFL
 70
     1
  9
$DIMTVP
 40
0.0
  9
$DIMTIX
 70
     0
  9
$DIMSOXD
 70
     0
  9
$DIMSAH
 70
     0
  9
$DIMBLK1
  1

  9
$DIMBLK2
  1

  9
$DIMSTYLE
  2
SYS
  9
$DIMCLRD
 70
   256
  9
$DIMCLRE
 70
   256
  9
$DIMCLRT
 70
     7
  9
$DIMTFAC
 40
0.71
  9
$DIMGAP
 40
1.5
  9
$DIMJUST
 70
     0
  9
$DIMSD1
 70
     0
  9
$DIMSD2
 70
     0
  9
$DIMTOLJ
 70
     0
  9
$DIMTZIN
 70
     8
  9
$DIMALTZ
 70
     0
  9
$DIMALTTZ
 70
     0
  9
$DIMUPT
 70
     0
  9
$DIMDEC
 70
     2
  9
$DIMTDEC
 70
     2
  9
$DIMALTU
 70
     2
  9
$DIMALTTD
 70
     2
  9
$DIMTXSTY
  7
STANDARD
  9
$DIMAUNIT
 70
     0
  9
$DIMADEC
 70
     0
  9
$DIMALTRND
 40
0.0
  9
$DIMAZIN
 70
     2
  9
$DIMDSEP
 70
    46
  9
$DIMATFIT
 70
     3
  9
$DIMFRAC
 70
     0
  9
$DIMLDRBLK
  1

  9
$DIMLUNIT
 70
     2
  9
$DIMLWD
 70
    -1
  9
$DIMLWE
 70
    -1
  9
$DIMTMOVE
 70
     0
  9
$LUNITS
 70
     2
  9
$LUPREC
 70
     2
  9
$SKETCHINC
 40
1.0
  9
$FILLETRAD
 40
1.5
  9
$AUNITS
 70
     0
  9
$AUPREC
 70
     0
  9
$MENU
  1
.
  9
$ELEVATION
 40
0.0
  9
$PELEVATION
 40
0.0
  9
$THICKNESS
 40
0.0
  9
$LIMCHECK
 70
     0
  9
$CHAMFERA
 40
0.0
  9
$CHAMFERB
 40
0.0
  9
$CHAMFERC
 40
20.0
  9
$CHAMFERD
 40
0.0
  9
$SKPOLY
 70
     0
  9
$TDCREATE
 40
2455567.680725081
  9
$TDUCREATE
 40
2455567.305725081
  9
$TDUPDATE
 40
2456338.842444109
  9
$TDUUPDATE
 40
2456338.467444109
  9
$TDINDWG
 40
7.9846889236
  9
$TDUSRTIMER
 40
7.9846872917
  9
$USRTIMER
 70
     1
  9
$ANGBASE
 50
0.0
  9
$ANGDIR
 70
     0
  9
$PDMODE
 70
     0
  9
$PDSIZE
 40
-3.0
  9
$PLINEWID
 40
0.0
  9
$SPLFRAME
 70
     0
  9
$SPLINETYPE
 70
     6
  9
$SPLINESEGS
 70
     8
  9
$HANDSEED
  5
5B666
  9
$SURFTAB1
 70
     6
  9
$SURFTAB2
 70
     6
  9
$SURFTYPE
 70
     6
  9
$SURFU
 70
     6
  9
$SURFV
 70
     6
  9
$UCSBASE
  2

  9
$UCSNAME
  2

  9
$UCSORG
 10
0.0
 20
0.0
 30
0.0
  9
$UCSXDIR
 10
1.0
 20
0.0
 30
0.0
  9
$UCSYDIR
 10
0.0
 20
1.0
 30
0.0
  9
$UCSORTHOREF
  2

  9
$UCSORTHOVIEW
 70
     0
  9
$UCSORGTOP
 10
0.0
 20
0.0
 30
0.0
  9
$UCSORGBOTTOM
 10
0.0
 20
0.0
 30
0.0
  9
$UCSORGLEFT
 10
0.0
 20
0.0
 30
0.0
  9
$UCSORGRIGHT
 10
0.0
 20
0.0
 30
0.0
  9
$UCSORGFRONT
 10
0.0
 20
0.0
 30
0.0
  9
$UCSORGBACK
 10
0.0
 20
0.0
 30
0.0
  9
$PUCSBASE
  2

  9
$PUCSNAME
  2

  9
$PUCSORG
 10
0.0
 20
0.0
 30
0.0
  9
$PUCSXDIR
 10
1.0
 20
0.0
 30
0.0
  9
$PUCSYDIR
 10
0.0
 20
1.0
 30
0.0
  9
$PUCSORTHOREF
  2

  9
$PUCSORTHOVIEW
 70
     0
  9
$PUCSORGTOP
 10
0.0
 20
0.0
 30
0.0
  9
$PUCSORGBOTTOM
 10
0.0
 20
0.0
 30
0.0
  9
$PUCSORGLEFT
 10
0.0
 20
0.0
 30
0.0
  9
$PUCSORGRIGHT
 10
0.0
 20
0.0
 30
0.0
  9
$PUCSORGFRONT
 10
0.0
 20
0.0
 30
0.0
  9
$PUCSORGBACK
 10
0.0
 20
0.0
 30
0.0
  9
$USERI1
 70
     0
  9
$USERI2
 70
     0
  9
$USERI3
 70
     0
  9
$USERI4
 70
     0
  9
$USERI5
 70
     0
  9
$USERR1
 40
0.0
  9
$USERR2
 40
0.0
  9
$USERR3
 40
0.0
  9
$USERR4
 40
0.0
  9
$USERR5
 40
0.0
  9
$WORLDVIEW
 70
     1
  9
$SHADEDGE
 70
     3
  9
$SHADEDIF
 70
    70
  9
$TILEMODE
 70
     1
  9
$MAXACTVP
 70
    64
  9
$PINSBASE
 10
0.0
 20
0.0
 30
0.0
  9
$PLIMCHECK
 70
     0
  9
$PEXTMIN
 10
1.000000000000000E+20
 20
1.000000000000000E+20
 30
1.000000000000000E+20
  9
$PEXTMAX
 10
-1.000000000000000E+20
 20
-1.000000000000000E+20
 30
-1.000000000000000E+20
  9
$PLIMMIN
 10
-3.17498779296875
 20
-3.174999952316284
  9
$PLIMMAX
 10
293.4970092773438
 20
206.692492723465
  9
$UNITMODE
 70
     0
  9
$VISRETAIN
 70
     1
  9
$PLINEGEN
 70
     0
  9
$PSLTSCALE
 70
     1
  9
$TREEDEPTH
 70
  3020
  9
$CMLSTYLE
  2
Standard
  9
$CMLJUST
 70
     0
  9
$CMLSCALE
 40
20.0
  9
$PROXYGRAPHICS
 70
     1
  9
$MEASUREMENT
 70
     1
  9
$CELWEIGHT
370
    -1
  9
$ENDCAPS
280
     0
  9
$JOINSTYLE
280
     0
  9
$LWDISPLAY
290
     1
  9
$INSUNITS
 70
     4
  9
$HYPERLINKBASE
  1

  9
$STYLESHEET
  1
monochrome.ctb
  9
$XEDIT
290
     1
  9
$CEPSNTYPE
380
     0
  9
$PSTYLEMODE
290
     1
  9
$FINGERPRINTGUID
  2
{487E49EE-344A-43F6-800E-CE119D8346FF}
  9
$VERSIONGUID
  2
{A967E2F2-555A-4CA4-92B6-308B3FF5E3A7}
  9
$EXTNAMES
290
     1
  9
$PSVPSCALE
 40
0.0
  9
$OLESTARTUP
290
     0
  0
ENDSEC
  0
SECTION
  2
CLASSES
  0
CLASS
  1
ACDBDICTIONARYWDFLT
  2
AcDbDictionaryWithDefault
  3
ObjectDBX Classes
 90
        0
280
     0
281
     0
  0
CLASS
  1
ACDBPLACEHOLDER
  2
AcDbPlaceHolder
  3
ObjectDBX Classes
 90
        0
280
     0
281
     0
  0
CLASS
  1
LAYOUT
  2
AcDbLayout
  3
ObjectDBX Classes
 90
        0
280
     0
281
     0
  0
CLASS
  1
AMGSETTINGSOBJ
  2
AmgSettingsObj
  3
"AcadM|Product Description: AutoCAD Mechanical|Company: Autodesk"
 90
        0
280
     0
281
     0
  0
CLASS
  1
ACME_DOCUMENT
  2
AcMeDbDoc
  3
AcMeServices
 90
        0
280
     0
281
     0
  0
CLASS
  1
ACMESCOPE
  2
AcMeScope
  3
AcMeServices
 90
        0
280
     0
281
     0
  0
CLASS
  1
ACMECOMMANDHISTORY
  2
AcMeCommandHistory
  3
AcMeServices
 90
        0
280
     0
281
     0
  0
CLASS
  1
DICTIONARYVAR
  2
AcDbDictionaryVar
  3
ObjectDBX Classes
 90
        0
280
     0
281
     0
  0
CLASS
  1
ACIMSYSVARMAN
  2
AcImSysVarManager
  3
AcMeServices
 90
        0
280
     0
281
     0
  0
CLASS
  1
ACIMREALSYSVAR
  2
AcImRealSysVar
  3
AcMeServices
 90
        0
280
     0
281
     0
  0
CLASS
  1
ACIMINTSYSVAR
  2
AcImIntSysVar
  3
AcMeServices
 90
        0
280
     0
281
     0
  0
CLASS
  1
ACMEDRAWINGMAN
  2
AcMeDrawingMan
  3
AcMeServices
 90
        0
280
     0
281
     0
  0
CLASS
  1
ACMEVIEW
  2
AcMeView
  3
AcMeServices
 90
        0
280
     0
281
     0
  0
CLASS
  1
ACDBENTITYCACHE
  2
AcMeEntityCache
  3
AcMeServices
 90
        0
280
     0
281
     0
  0
CLASS
  1
GSMANAGER
  2
AcMeGSManager
  3
AcMeServices
 90
        0
280
     0
281
     0
  0
CLASS
  1
AMDTINTERNALREACTOR
  2
AmdtInternalReactor
  3
AcMeServices
 90
        0
280
     0
281
     0
  0
CLASS
  1
ACMESTATEMGR
  2
AcMeStateMgr
  3
AcMeServices
 90
        0
280
     0
281
     0
  0
CLASS
  1
ACGREFMASTER
  2
AcGrefMaster
  3
AcAttribServices
 90
        0
280
     0
281
     0
  0
CLASS
  1
ACME_DATABASE
  2
AcMeDbDatabase
  3
AcMeServices
 90
        0
280
     0
281
     0
  0
CLASS
  1
ACRFINSADJUSTERMGR
  2
AcRfInsAdjusterMgr
  3
AcMeServices
 90
        0
280
     0
281
     0
  0
CLASS
  1
ACGREFACADMASTER
  2
AcGrefacadMaster
  3
AcGrefServices
 90
        0
280
     0
281
     0
  0
CLASS
  1
AMIMASTER
  2
AmiMaster
  3
AmiServices
 90
        0
280
     0
281
     0
  0
CLASS
  1
ACMDATADICTIONARY
  2
AcmDataDictionary
  3
"AcmSymBB|Product Description: AutoCAD Mechanical|Company: Autodesk"
 90
        0
280
     0
281
     0
  0
CLASS
  1
ACMDATAENTRYBLOCK
  2
AcmDataEntryBlock
  3
"AcmSymBB|Product Description: AutoCAD Mechanical|Company: Autodesk"
 90
        0
280
     0
281
     0
  0
CLASS
  1
ACIMSTRSYSVAR
  2
AcImStrSysVar
  3
AcMeServices
 90
        0
280
     0
281
     0
  0
CLASS
  1
ACMSTANDARDISO
  2
AcmStandardISO
  3
"Amdt_StdImp|Product Description: AutoCAD Mechanical|Company: Autodesk"
 90
        0
280
     0
281
     0
  0
CLASS
  1
AMGOBJPROPCFG
  2
AmgObjPropCfg
  3
"AmgLay|Product Description: AutoCAD Mechanical|Company: Autodesk"
 90
        1
280
     0
281
     0
  0
CLASS
  1
AMDTEDGESTANDARDISO
  2
AmdtEdgeStdISO
  3
"Amdt_StdImp|Product Description: AutoCAD Mechanical|Company: Autodesk"
 90
        0
280
     0
281
     0
  0
CLASS
  1
ACMSURFSTANDARDISO
  2
AcmSurfTextStdISO
  3
"Amdt_StdImp|Product Description: AutoCAD Mechanical|Company: Autodesk"
 90
        0
280
     0
281
     0
  0
CLASS
  1
ACMFCFSTANDARDISO
  2
AcmFCFStdISO
  3
"Amdt_StdImp|Product Description: AutoCAD Mechanical|Company: Autodesk"
 90
        0
280
     0
281
     0
  0
CLASS
  1
ACMWELDSTANDARDISO
  2
AcmWeldingStdISO
  3
"Amdt_StdImp|Product Description: AutoCAD Mechanical|Company: Autodesk"
 90
        0
280
     0
281
     0
  0
CLASS
  1
ACMIDSTANDARDISO
  2
AcmIdStdISO
  3
"Amdt_StdImp|Product Description: AutoCAD Mechanical|Company: Autodesk"
 90
        0
280
     0
281
     0
  0
CLASS
  1
ACMDATUMSTANDARDISO
  2
AcmDatumStdISO
  3
"Amdt_StdImp|Product Description: AutoCAD Mechanical|Company: Autodesk"
 90
        0
280
     0
281
     0
  0
CLASS
  1
ACMBOMSTANDARDISO
  2
AcmBOMStdISO
  3
"Amdt_StdImp|Product Description: AutoCAD Mechanical|Company: Autodesk"
 90
        0
280
     0
281
     0
  0
CLASS
  1
ACMDETAILSTANDARDISO
  2
AmdtDetailSymStdISO
  3
"Amdt_StdImp|Product Description: AutoCAD Mechanical|Company: Autodesk"
 90
        0
280
     0
281
     0
  0
CLASS
  1
ACMSECTIONSTANDARDISO
  2
AmdtSectionSymStdISO
  3
"Amdt_StdImp|Product Description: AutoCAD Mechanical|Company: Autodesk"
 90
        0
280
     0
281
     0
  0
CLASS
  1
ACMCENTERLINESTANDARDISO
  2
AmdtCenterLineStdISO
  3
"Amdt_StdImp|Product Description: AutoCAD Mechanical|Company: Autodesk"
 90
        0
280
     0
281
     0
  0
CLASS
  1
ACAMGLAYSTD
  2
AcAmgLayStd
  3
"AmgLay|Product Description: AutoCAD Mechanical|Company: Autodesk"
 90
        0
280
     0
281
     0
  0
CLASS
  1
ACAMGDIMSTD
  2
AcAmgDimStd
  3
"AmgDim|Product Description: AutoCAD Mechanical|Company: Autodesk"
 90
        0
280
     0
281
     0
  0
CLASS
  1
ACAMGTITLESTD
  2
AcAmgTitleStd
  3
"AmgTitle|Product Description: AutoCAD Mechanical|Company: Autodesk"
 90
        0
280
     0
281
     0
  0
CLASS
  1
ACAMGFILTERDAT
  2
AcAmgFilterDat
  3
"AcadM|Product Description: AutoCAD Mechanical|Company: Autodesk"
 90
        0
280
     0
281
     0
  0
CLASS
  1
LAYER_INDEX
  2
AcDbLayerIndex
  3
ObjectDBX Classes
 90
    32768
280
     0
281
     0
  0
CLASS
  1
IDBUFFER
  2
AcDbIdBuffer
  3
ObjectDBX Classes
 90
    32768
280
     0
281
     0
  0
CLASS
  1
PLOTSETTINGS
  2
AcDbPlotSettings
  3
ObjectDBX Classes
 90
    32768
280
     0
281
     0
  0
CLASS
  1
AMDTFORMULAUPDATEDISPATCHER
  2
AmdtFormulaUpdateDispatcher
  3
AcMeServices
 90
        0
280
     0
281
     0
  0
CLASS
  1
ACMSTANDARDANSI
  2
AcmStandardANSI
  3
"Amdt_StdImp|Product Description: AutoCAD Mechanical|Company: Autodesk"
 90
        0
280
     0
281
     0
  0
CLASS
  1
ACMSURFSTANDARDANSI
  2
AcmSurfTextStdANSI
  3
"Amdt_StdImp|Product Description: AutoCAD Mechanical|Company: Autodesk"
 90
        0
280
     0
281
     0
  0
CLASS
  1
ACMFCFSTANDARDANSI
  2
AcmFCFStdANSI
  3
"Amdt_StdImp|Product Description: AutoCAD Mechanical|Company: Autodesk"
 90
        0
280
     0
281
     0
  0
CLASS
  1
ACMWELDSTANDARDANSI
  2
AcmWeldingStdANSI
  3
"Amdt_StdImp|Product Description: AutoCAD Mechanical|Company: Autodesk"
 90
        0
280
     0
281
     0
  0
CLASS
  1
ACMIDSTANDARDANSI
  2
AcmIdStdANSI
  3
"Amdt_StdImp|Product Description: AutoCAD Mechanical|Company: Autodesk"
 90
        0
280
     0
281
     0
  0
CLASS
  1
ACMDATUMSTANDARDANSI
  2
AcmDatumStdANSI
  3
"Amdt_StdImp|Product Description: AutoCAD Mechanical|Company: Autodesk"
 90
        0
280
     0
281
     0
  0
CLASS
  1
ACMBOMSTANDARDANSI
  2
AcmBOMStdANSI
  3
"Amdt_StdImp|Product Description: AutoCAD Mechanical|Company: Autodesk"
 90
        0
280
     0
281
     0
  0
CLASS
  1
ACMDETAILSTANDARDANSI
  2
AmdtDetailSymStdANSI
  3
"Amdt_StdImp|Product Description: AutoCAD Mechanical|Company: Autodesk"
 90
        0
280
     0
281
     0
  0
CLASS
  1
ACMSECTIONSTANDARDANSI
  2
AmdtSectionSymStdANSI
  3
"Amdt_StdImp|Product Description: AutoCAD Mechanical|Company: Autodesk"
 90
        0
280
     0
281
     0
  0
CLASS
  1
ACMCENTERLINESTANDARDANSI
  2
AmdtCenterLineStdANSI
  3
"Amdt_StdImp|Product Description: AutoCAD Mechanical|Company: Autodesk"
 90
        0
280
     0
281
     0
  0
CLASS
  1
ACMBOM
  2
AcmBom
  3
"AcmSymBB|Product Description: AutoCAD Mechanical|Company: Autodesk"
 90
        0
280
     0
281
     0
  0
CLASS
  1
ACMDATAENTRYPART
  2
AcmDataEntryPart
  3
"AcmSymBB|Product Description: AutoCAD Mechanical|Company: Autodesk"
 90
    32768
280
     0
281
     0
  0
CLASS
  1
ACMPARTREF
  2
AcmPartRef
  3
"AcmSymBB|Product Description: AutoCAD Mechanical|Company: Autodesk"
 90
    35839
280
     0
281
     1
  0
CLASS
  1
ACDBCIRCARCRES
  2
AcDbCircArcRes
  3
AcGrefServices
 90
    32768
280
     0
281
     0
  0
CLASS
  1
ACMBOMROW
  2
AcmBomRow
  3
"AcmSymBB|Product Description: AutoCAD Mechanical|Company: Autodesk"
 90
    32768
280
     0
281
     0
  0
CLASS
  1
ACMBALLOON
  2
AcmBalloon
  3
"AcmSymBB|Product Description: AutoCAD Mechanical|Company: Autodesk"
 90
    35839
280
     0
281
     1
  0
CLASS
  1
AMDTNOTE
  2
AmdtNote
  3
"AcmSymBB|Product Description: AutoCAD Mechanical|Company: Autodesk"
 90
    35839
280
     0
281
     1
  0
CLASS
  1
STDPART2D
  2
AmgStdPart
  3
"AmgStdPart|Product Description: AutoCAD Mechanical|Company: Autodesk"
 90
    35839
280
     0
281
     1
  0
CLASS
  1
ACDBSTDPARTRES_LINE
  2
AcDbStdPartRes_Line
  3
"AmgStdPart|Product Description: AutoCAD Mechanical|Company: Autodesk"
 90
    32768
280
     0
281
     0
  0
CLASS
  1
ACMDATAENTRY
  2
AcmDataEntry
  3
"AcmSymBB|Product Description: AutoCAD Mechanical|Company: Autodesk"
 90
        0
280
     0
281
     0
  0
CLASS
  1
ACDBOPPOLYLINERES
  2
AcDbOpPolylineRes
  3
AcGrefServices
 90
    32768
280
     0
281
     0
  0
CLASS
  1
ACMPARTLIST
  2
AcmPartList
  3
"AcmSymBB|Product Description: AutoCAD Mechanical|Company: Autodesk"
 90
    35839
280
     0
281
     1
  0
CLASS
  1
ACDBLINERES
  2
AcDbLineRes
  3
AcGrefServices
 90
        0
280
     0
281
     0
  0
CLASS
  1
ACRFINSADJ
  2
AcRfInsAdjuster
  3
AcMeServices
 90
    32768
280
     0
281
     0
  0
CLASS
  1
AM_DRAWING_MGR
  2
AcDmDwgMgr
  3
AcMechDwgViewMgmt
 90
        0
280
     0
281
     0
  0
CLASS
  1
AM_DWG_DOCUMENT
  2
AcDmDwgDocument
  3
AcMechDwgViewMgmt
 90
        0
280
     0
281
     0
  0
CLASS
  1
AM_DWG_SHEET
  2
AcDmSheet
  3
AcMechDwgViewMgmt
 90
        0
280
     0
281
     0
  0
CLASS
  1
AM_VIEWDIMPARMAP
  2
AcDmViewDimParMap
  3
AcMechDwgViewMgmt
 90
        0
280
     0
281
     0
  0
CLASS
  1
AM_DWGMGR_NAME
  2
AcDmDwgMgrName
  3
AcMechDwgViewMgmt
 90
        0
280
     0
281
     0
  0
CLASS
  1
AMDTMENUSTATEMGR
  2
AmdtMenuStateMgr
  3
McadcomServices
 90
        0
280
     0
281
     0
  0
CLASS
  1
AMDTMCOMMENUSTATE
  2
AmdtMcomMenuState
  3
McadcomServices
 90
        0
280
     0
281
     0
  0
CLASS
  1
ASAPP
  2
AcAsAppObject
  3
AutoSurfServices
 90
        0
280
     0
281
     0
  0
CLASS
  1
IM_STATIC_MAN
  2
AcImStaticVarManager
  3
AcMeServices
 90
        0
280
     0
281
     0
  0
CLASS
  1
ACIMDBLSTATICVAR
  2
AcImDblStaticVar
  3
AcMeServices
 90
        0
280
     0
281
     0
  0
CLASS
  1
ACIMSTRSTATICVAR
  2
AcImStrStaticVar
  3
AcMeServices
 90
        0
280
     0
281
     0
  0
CLASS
  1
ACIMINTSTATICVAR
  2
AcImIntStaticVar
  3
AcMeServices
 90
        0
280
     0
281
     0
  0
CLASS
  1
ACASGREFMASTER
  2
AcAsGrefMaster
  3
AutoSurfResolverServices
 90
        0
280
     0
281
     0
  0
CLASS
  1
ACADGREFMODULE
  2
AcAdGrefModule
  3
AdGrefServices
 90
        0
280
     0
281
     0
  0
CLASS
  1
AMDTMAPISURFMOUDULE
  2
AmdtMApiSurfModule
  3
MApiSurfServices
 90
        0
280
     0
281
     0
  0
CLASS
  1
MAPIAMMOUDLE
  2
MApiAmModule
  3
MApiAmServices
 90
        0
280
     0
281
     0
  0
CLASS
  1
AMDTADMENUSTATE
  2
AmdtAdMenuState
  3
DesignerServices
 90
        0
280
     0
281
     0
  0
CLASS
  1
ADAPPL
  2
AcAdAppl
  3
DesignerServices
 90
        0
280
     0
281
     0
  0
CLASS
  1
DEPMGR
  2
AcAdDepMgr
  3
DesignerServices
 90
        0
280
     0
281
     0
  0
CLASS
  1
PARAMMGR
  2
AcAdParamMgr
  3
DesignerServices
 90
        0
280
     0
281
     0
  0
CLASS
  1
PARAMSCOPE
  2
AcAdParamScope
  3
DesignerServices
 90
        0
280
     0
281
     0
  0
CLASS
  1
NAMEDAPPL
  2
AcAdNamedAppl
  3
DesignerServices
 90
        0
280
     0
281
     0
  0
CLASS
  1
ADHNTMPLT
  2
AdHoleNoteTemplateMgr
  3
DesignerServices
 90
    32768
280
     0
281
     0
  0
CLASS
  1
AM_HNTEMPLATE_MGR_NAME
  2
AdHoleNoteTemplateMgrName
  3
DesignerServices
 90
    32768
280
     0
281
     0
  0
CLASS
  1
AMDTDMMENUSTATE
  2
AmdtDmMenuState
  3
AcMechDwgViewMgmt
 90
        0
280
     0
281
     0
  0
CLASS
  1
MAPIADMODULE
  2
MApiAdModule
  3
MApiAdServices
 90
        0
280
     0
281
     0
  0
CLASS
  1
AMDTAMMENUSTATE
  2
AmdtAmMenuState
  3
DesignerAssemblies
 90
        0
280
     0
281
     0
  0
CLASS
  1
ACAMPROJECT
  2
AcAmProject
  3
DesignerAssemblies
 90
        0
280
     0
281
     0
  0
CLASS
  1
ACAMGRCOMPDEF
  2
AcAmGrCompDef
  3
DesignerAssemblies
 90
        0
280
     0
281
     0
  0
CLASS
  1
ACCMCONTEXT
  2
AcCmContext
  3
DesignerAssemblies
 90
        0
280
     0
281
     0
  0
CLASS
  1
ACAMCOMPDEF
  2
AcAmCompDef
  3
DesignerAssemblies
 90
        0
280
     0
281
     0
  0
CLASS
  1
ACAMCOMPDEFMGR
  2
AcAmCompDefMgr
  3
DesignerAssemblies
 90
        0
280
     0
281
     0
  0
CLASS
  1
AMCONTEXTMGR
  2
AcAmContextMgr
  3
DesignerAssemblies
 90
        0
280
     0
281
     0
  0
CLASS
  1
ACAMCONTEXTMODELER
  2
AcAmContextModeler
  3
DesignerAssemblies
 90
        0
280
     0
281
     0
  0
CLASS
  1
CATALOGSTATE
  2
AcAmCatalogState
  3
DesignerAssemblies
 90
        0
280
     0
281
     0
  0
CLASS
  1
ACAMGRCOMPDEFSET
  2
AcAmGrCompDefSet
  3
DesignerAssemblies
 90
        0
280
     0
281
     0
  0
CLASS
  1
AMDTBROWSERDBTAB
  2
AmdtBrowserDbTab
  3
McadcomServices
 90
        0
280
     0
281
     0
  0
CLASS
  1
CBROWSERAPPOBJECT
  2
CBrowserAppObject
  3
McadcomServices
 90
        0
280
     0
281
     0
  0
CLASS
  1
DM_PLACEHOLDER
  2
AcDmSelsetPlaceholder
  3
AcMechDwgViewMgmt
 90
        0
280
     0
281
     0
  0
CLASS
  1
ACMPICKOBJ
  2
AcmPickEnt
  3
"AcmSymBB|Product Description: AutoCAD Mechanical|Company: Autodesk"
 90
    32768
280
     0
281
     1
  0
CLASS
  1
ACMNOTESTANDARDISO
  2
AmdtNoteStdISO
  3
"Amdt_StdImp|Product Description: AutoCAD Mechanical|Company: Autodesk"
 90
        0
280
     0
281
     0
  0
CLASS
  1
ACMNOTESTANDARDANSI
  2
AmdtNoteStdANSI
  3
"Amdt_StdImp|Product Description: AutoCAD Mechanical|Company: Autodesk"
 90
        0
280
     0
281
     0
  0
CLASS
  1
ACMTHREADLINESTANDARDISO
  2
AmdtThreadLineStdISO
  3
"Amdt_StdImp|Product Description: AutoCAD Mechanical|Company: Autodesk"
 90
        0
280
     0
281
     0
  0
CLASS
  1
ACMTHREADLINESTANDARDANSI
  2
AmdtThreadLineStdANSI
  3
"Amdt_StdImp|Product Description: AutoCAD Mechanical|Company: Autodesk"
 90
        0
280
     0
281
     0
  0
CLASS
  1
TABLESTYLE
  2
AcDbTableStyle
  3
ObjectDBX Classes
 90
     4095
280
     0
281
     0
  0
CLASS
  1
SORTENTSTABLE
  2
AcDbSortentsTable
  3
ObjectDBX Classes
 90
        0
280
     0
281
     0
  0
CLASS
  1
MATERIAL
  2
AcDbMaterial
  3
ObjectDBX Classes
 90
     1153
280
     0
281
     0
  0
CLASS
  1
VISUALSTYLE
  2
AcDbVisualStyle
  3
ObjectDBX Classes
 90
     4095
280
     0
281
     0
  0
CLASS
  1
ACRFATTGENMGR
  2
AcRfAttGeneralMgr
  3
AcAttribServices
 90
        0
280
     0
281
     0
  0
CLASS
  1
ACRFOBJATTMGR
  2
AcRfObjAttGroupMgr
  3
AcAttribServices
 90
        0
280
     0
281
     0
  0
CLASS
  1
ACRFMCADAPIATTHOLDER
  2
AcRfMCADAPIAttHolder
  3
AcAttribServices
 90
        0
280
     0
281
     0
  0
CLASS
  1
AMDTSYSATTR
  2
AmdtSystemAttribute
  3
AcAttribServices
 90
        0
280
     0
281
     0
  0
CLASS
  1
ACMTAPERSTANDARDISO
  2
AcmTaperStdISO
  3
"Amdt_StdImp|Product Description: AutoCAD Mechanical|Company: Autodesk"
 90
        0
280
     0
281
     0
  0
CLASS
  1
CAMSSTRUCTBTNSTATE
  2
StructBtnState
  3
L"DesignerAssemblies"
 90
        0
280
     0
281
     0
  0
CLASS
  1
DIMASSOC
  2
AcDbDimAssoc
  3
"AcDbDimAssoc|Product Desc:     AcDim ARX App For Dimension|Company:          Autodesk, Inc.|WEB Address:      www.autodesk.com"
 90
    32768
280
     0
281
     0
  0
CLASS
  1
EXACXREFPANELOBJECT
  2
ExAcXREFPanelObject
  3
EXAC_ESW
 90
    33793
280
     0
281
     0
  0
CLASS
  1
NPOCOLLECTION
  2
AcDbImpNonPersistentObjectsCollection
  3
ObjectDBX Classes
 90
    33921
280
     0
281
     0
  0
CLASS
  1
AMDTEDGESTANDARDISO13715
  2
AmdtEdgeStdISO13715
  3
"Amdt_StdImp|Product Description: AutoCAD Mechanical|Company: Autodesk"
 90
        0
280
     0
281
     0
  0
CLASS
  1
AMDTNOTETEMPLATEDB
  2
AmdtNoteTemplateDB
  3
AMDT_STDIMP_MODULE_NAME
 90
        0
280
     0
281
     0
  0
CLASS
  1
ACAMGHOLECHARTSTDISO
  2
AcAmgHoleChartStdISO
  3
ACMSYMBB_MODULE_NAME
 90
        0
280
     0
281
     0
  0
CLASS
  1
ACMTAPERSTANDARDANSI
  2
AcmTaperStdANSI
  3
"Amdt_StdImp|Product Description: AutoCAD Mechanical|Company: Autodesk"
 90
        0
280
     0
281
     0
  0
CLASS
  1
ACAMGHOLECHARTSTDANSI
  2
AcAmgHoleChartStdANSI
  3
ACMSYMBB_MODULE_NAME
 90
        0
280
     0
281
     0
  0
CLASS
  1
ACAMSTDPCOMPDEF
  2
AcAmStdpCompDef
  3
DesignerAssemblies
 90
    32768
280
     0
281
     0
  0
CLASS
  1
ACAMCOMP
  2
AcAmComp
  3
DesignerAssemblies
 90
    32768
280
     0
281
     0
  0
CLASS
  1
AC_AM_STDP_VIEW_DEF
  2
AcAmStdpViewDef
  3
DesignerAssemblies
 90
    32768
280
     0
281
     0
  0
CLASS
  1
AC_AM_MVD_DEP_MGR
  2
AcAmMVDdepMgr
  3
DesignerAssemblies
 90
        0
280
     0
281
     0
  0
CLASS
  1
AC_AM_MASTER_VIEW_DEF
  2
AcAmMasterViewDef
  3
DesignerAssemblies
 90
        0
280
     0
281
     0
  0
CLASS
  1
AC_AM_DIRTY_NODES
  2
AcAmDirtyNodes
  3
DesignerAssemblies
 90
        0
280
     0
281
     0
  0
CLASS
  1
AC_AM_MAPPER_CACHE
  2
AcAmMapperCache
  3
DesignerAssemblies
 90
        0
280
     0
281
     0
  0
CLASS
  1
ACAMMVDBACKUPOBJECT
  2
AcAmMVDBackupObject
  3
DesignerAssemblies
 90
        0
280
     0
281
     0
  0
CLASS
  1
AC_AM_COMP_VIEW_INST
  2
AcAmCompView
  3
DesignerAssemblies
 90
    32768
280
     0
281
     0
  0
CLASS
  1
AC_AM_2D_XREF_MGR
  2
AcAmXrefMgr2d
  3
DesignerAssemblies
 90
        0
280
     0
281
     0
  0
CLASS
  1
AC_AM_HIDE_SITUATION
  2
AcAmHideSituation
  3
DesignerAssemblies
 90
    32768
280
     0
281
     0
  0
CLASS
  1
AC_AM_TRANSFORM_GHOST
  2
AcDbTransformGhost
  3
DesignerAssemblies
 90
    32768
280
     0
281
     1
  0
CLASS
  1
L"OBJCLONER"
  2
ObjCloner
  3
DesignerAssemblies
 90
    32768
280
     0
281
     1
  0
ENDSEC
  0
SECTION
  2
TABLES
  0
TABLE
  2
VPORT
  5
8
330
0
100
AcDbSymbolTable
 70
     1
  0
VPORT
  5
B0EC
330
8
100
AcDbSymbolTableRecord
100
AcDbViewportTableRecord
  2
*Active
 70
     0
 10
0.0
 20
0.0
 11
1.0
 21
1.0
 12
6208.176081442349
 22
-3898.799658502039
 13
0.0
 23
0.0
 14
2.5
 24
2.5
 15
10.0
 25
10.0
 16
0.0
 26
0.0
 36
1.0
 17
0.0
 27
0.0
 37
0.0
 40
452.5350855221413
 41
1.702970297029702
 42
50.0
 43
-1370.695619172058
 44
-1370.695619172058
 50
0.0
 51
0.0
 71
     0
 72
   100
 73
     1
 74
     3
 75
     0
 76
     0
 77
     0
 78
     0
281
     0
 65
     0
110
0.0
120
0.0
130
0.0
111
1.0
121
0.0
131
0.0
112
0.0
122
1.0
132
0.0
 79
     0
146
0.0
  0
ENDTAB
  0
TABLE
  2
LTYPE
  5
5
330
0
100
AcDbSymbolTable
 70
    24
  0
LTYPE
  5
14
330
5
100
AcDbSymbolTableRecord
100
AcDbLinetypeTableRecord
  2
ByBlock
 70
     0
  3

 72
    65
 73
     0
 40
0.0
  0
LTYPE
  5
15
330
5
100
AcDbSymbolTableRecord
100
AcDbLinetypeTableRecord
  2
ByLayer
 70
     0
  3

 72
    65
 73
     0
 40
0.0
  0
LTYPE
  5
16
330
5
100
AcDbSymbolTableRecord
100
AcDbLinetypeTableRecord
  2
Continuous
 70
     0
  3
Solid line
 72
    65
 73
     0
 40
0.0
  0
LTYPE
  5
4F
330
5
100
AcDbSymbolTableRecord
100
AcDbLinetypeTableRecord
  2
AM_ISO02W050
 70
     0
  3
__ __ __ __ __ __ __ __ __ __ __ __ __ __ __
 72
    65
 73
     2
 40
7.5
 49
6.0
 74
     0
 49
-1.5
 74
     0
  0
LTYPE
  5
52
330
5
100
AcDbSymbolTableRecord
100
AcDbLinetypeTableRecord
  2
Amconstr
 70
     0
  3
_______________________
 72
    65
 73
     2
 40
9999.0
 49
9999.0
 74
     0
 49
0.0
 74
     0
  0
LTYPE
  5
64
330
5
100
AcDbSymbolTableRecord
100
AcDbLinetypeTableRecord
  2
ACISOWELD
 70
     0
  3
_ _ _ _ _
 72
    65
 73
     2
 40
2.0
 49
2.0
 74
     0
 49
-1.0
 74
     0
  0
LTYPE
  5
65
330
5
100
AcDbSymbolTableRecord
100
AcDbLinetypeTableRecord
  2
ACISOTGB
 70
     0
  3
__ . . __ . .
 72
    65
 73
     6
 40
9.0
 49
4.0
 74
     0
 49
-1.0
 74
     0
 49
1.0
 74
     0
 49
-1.0
 74
     0
 49
1.0
 74
     0
 49
-1.0
 74
     0
  0
LTYPE
  5
66
330
5
100
AcDbSymbolTableRecord
100
AcDbLinetypeTableRecord
  2
ACISOTGL
 70
     0
  3
_ _ _ _ _
 72
    65
 73
     2
 40
3.0
 49
2.0
 74
     0
 49
-1.0
 74
     0
  0
LTYPE
  5
69
330
5
100
AcDbSymbolTableRecord
100
AcDbLinetypeTableRecord
  2
CENTER
 70
     0
  3
__ . __
 72
    65
 73
     4
 40
7.0
 49
4.0
 74
     0
 49
-1.0
 74
     0
 49
1.0
 74
     0
 49
-1.0
 74
     0
  0
LTYPE
  5
A6E
330
5
100
AcDbSymbolTableRecord
100
AcDbLinetypeTableRecord
  2
PHANTOM2
 70
     0
  3
Phantom (.5x) ___ _ _ ___ _ _ ___ _ _ ___ _ _
 72
    65
 73
     6
 40
31.75
 49
15.875
 74
     0
 49
-3.174999999999999
 74
     0
 49
3.174999999999999
 74
     0
 49
-3.174999999999999
 74
     0
 49
3.174999999999999
 74
     0
 49
-3.174999999999999
 74
     0
  0
LTYPE
  5
4DED
330
5
100
AcDbSymbolTableRecord
100
AcDbLinetypeTableRecord
  2
中線
 70
     0
  3
___________________
 72
    65
 73
     2
 40
2.0
 49
1.0
 74
     0
 49
1.0
 74
     0
  0
LTYPE
  5
4DF6
330
5
100
AcDbSymbolTableRecord
100
AcDbLinetypeTableRecord
  2
細線
 70
     0
  3
___________________
 72
    65
 73
     2
 40
2.0
 49
1.0
 74
     0
 49
1.0
 74
     0
  0
LTYPE
  5
4DF7
330
5
100
AcDbSymbolTableRecord
100
AcDbLinetypeTableRecord
  2
太線
 70
     0
  3
___________________
 72
    65
 73
     2
 40
2.0
 49
1.0
 74
     0
 49
1.0
 74
     0
  0
LTYPE
  5
4EA7
330
5
100
AcDbSymbolTableRecord
100
AcDbLinetypeTableRecord
  2
文字
 70
     0
  3
_________________
 72
    65
 73
     2
 40
2.0
 49
1.0
 74
     0
 49
1.0
 74
     0
  0
LTYPE
  5
4EA9
330
5
100
AcDbSymbolTableRecord
100
AcDbLinetypeTableRecord
  2
寸法線
 70
     0
  3
________________
 72
    65
 73
     2
 40
2.0
 49
1.0
 74
     0
 49
1.0
 74
     0
  0
LTYPE
  5
4F12
330
5
100
AcDbSymbolTableRecord
100
AcDbLinetypeTableRecord
  2
ハッチング
 70
     0
  3
_________________
 72
    65
 73
     2
 40
2.0
 49
1.0
 74
     0
 49
1.0
 74
     0
  0
LTYPE
  5
5180
330
5
100
AcDbSymbolTableRecord
100
AcDbLinetypeTableRecord
  2
陰線1
 70
     0
  3
__ __ __ __
 72
    65
 73
     2
 40
4.0
 49
2.2
 74
     0
 49
-1.8
 74
     0
  0
LTYPE
  5
5182
330
5
100
AcDbSymbolTableRecord
100
AcDbLinetypeTableRecord
  2
切断線
 70
     0
  3
/\/-/\/-/\/-/\/-/\/-/\/
 72
    65
 73
     2
 40
11.0001
 49
0.0001
 74
     4
 75
   135
340
56
 46
0.04
 50
0.0
 44
0.0
 45
0.0
 49
-11.0
 74
     0
  0
LTYPE
  5
5183
330
5
100
AcDbSymbolTableRecord
100
AcDbLinetypeTableRecord
  2
想像線1
 70
     0
  3
__ __ __ _____ __ __ ____
 72
    65
 73
     6
 40
14.5
 49
6.0
 74
     0
 49
-1.5
 74
     0
 49
2.0
 74
     0
 49
-1.5
 74
     0
 49
2.0
 74
     0
 49
-1.5
 74
     0
  0
LTYPE
  5
5185
330
5
100
AcDbSymbolTableRecord
100
AcDbLinetypeTableRecord
  2
中心線1
 70
     0
  3
___ _ ___ _ ___
 72
    65
 73
     4
 40
18.0
 49
12.0
 74
     0
 49
-2.0
 74
     0
 49
2.0
 74
     0
 49
-2.0
 74
     0
  0
LTYPE
  5
5188
330
5
100
AcDbSymbolTableRecord
100
AcDbLinetypeTableRecord
  2
補助線
 70
     0
  3
______________
 72
    65
 73
     2
 40
2.0
 49
1.0
 74
     0
 49
1.0
 74
     0
  0
LTYPE
  5
6427
330
5
100
AcDbSymbolTableRecord
100
AcDbLinetypeTableRecord
  2
HIDDEN
 70
     0
  3
Hidden __ __ __ __ __ __ __ __ __ __ __ __ __ _
 72
    65
 73
     2
 40
0.375
 49
0.25
 74
     0
 49
-0.125
 74
     0
  0
LTYPE
  5
AF95
330
5
100
AcDbSymbolTableRecord
100
AcDbLinetypeTableRecord
  2
AM_ISO08W050
 70
     0
  3
____ . ____ . ____ . ____ . ____ . ____ . ____
 72
    65
 73
     4
 40
18.0
 49
12.0
 74
     0
 49
-1.5
 74
     0
 49
3.0
 74
     0
 49
-1.5
 74
     0
  0
LTYPE
  5
FD15
330
5
100
AcDbSymbolTableRecord
100
AcDbLinetypeTableRecord
  2
ACANSTGB
 70
     0
  3
__ . . __ . .
 72
    65
 73
     6
 40
0.35433070866
 49
0.15748031496
 74
     0
 49
-0.03937007874
 74
     0
 49
0.03937007874
 74
     0
 49
-0.03937007874
 74
     0
 49
0.03937007874
 74
     0
 49
-0.03937007874
 74
     0
  0
LTYPE
  5
FD16
330
5
100
AcDbSymbolTableRecord
100
AcDbLinetypeTableRecord
  2
ACANSTGL
 70
     0
  3
_ _ _ _ _
 72
    65
 73
     2
 40
0.11811023622
 49
0.07874015748
 74
     0
 49
-0.03937007874
 74
     0
  0
ENDTAB
  0
TABLE
  2
LAYER
  5
2
102
{ACAD_XDICTIONARY
360
3F95
102
}
330
0
100
AcDbSymbolTable
 70
    18
  0
LAYER
  5
10
330
2
100
AcDbSymbolTableRecord
100
AcDbLayerTableRecord
  2
0
 70
     0
 62
     7
  6
Continuous
370
    -3
390
F
  0
LAYER
  5
6D1
330
2
100
AcDbSymbolTableRecord
100
AcDbLayerTableRecord
  2
Defpoints
 70
     0
 62
     7
  6
Continuous
290
     0
370
    -3
390
F
  0
LAYER
  5
AC9F
330
2
100
AcDbSymbolTableRecord
100
AcDbLayerTableRecord
  2
size
 70
     0
 62
     5
  6
Continuous
290
     0
370
    25
390
F
  0
LAYER
  5
ACA0
330
2
100
AcDbSymbolTableRecord
100
AcDbLayerTableRecord
  2
waku
 70
     0
 62
     7
  6
Continuous
370
    35
390
F
  0
LAYER
  5
ACA1
330
2
100
AcDbSymbolTableRecord
100
AcDbLayerTableRecord
  2
AM_6
 70
     0
 62
     2
  6
文字
370
    15
390
F
1001
AcAecLayerStandard
1000

1000

  0
LAYER
  5
AD68
330
2
100
AcDbSymbolTableRecord
100
AcDbLayerTableRecord
  2
AM_5
 70
     0
 62
     3
  6
寸法線
370
    15
390
F
1001
AcAecLayerStandard
1000

1000

  0
LAYER
  5
B5FB
330
2
100
AcDbSymbolTableRecord
100
AcDbLayerTableRecord
  2
0部品18
 70
     0
 62
   254
  6
細線
370
    30
390
F
1001
AcAecLayerStandard
1000

1000

  0
LAYER
  5
B5FD
330
2
100
AcDbSymbolTableRecord
100
AcDbLayerTableRecord
  2
0部品2
 70
     0
 62
   163
  6
細線
370
    30
390
F
1001
AcAecLayerStandard
1000

1000

  0
LAYER
  5
5B4A4
330
2
100
AcDbSymbolTableRecord
100
AcDbLayerTableRecord
  2
AM_0
 70
     0
 62
     7
  6
中線
370
    25
390
F
1001
AcAecLayerStandard
1000

1000

  0
LAYER
  5
5B4A5
330
2
100
AcDbSymbolTableRecord
100
AcDbLayerTableRecord
  2
AM_7
 70
     0
 62
     4
  6
中心線1
370
    15
390
F
1001
AcAecLayerStandard
1000

1000

  0
ENDTAB
  0
TABLE
  2
STYLE
  5
3
330
0
100
AcDbSymbolTable
 70
     8
  0
STYLE
  5
11
330
3
100
AcDbSymbolTableRecord
100
AcDbTextStyleTableRecord
  2
STANDARD
 70
     0
 40
0.0
 41
0.7
 50
0.0
 71
     0
 42
3.2
  3
romans.shx
  4
extfont.shx
  0
STYLE
  5
56
330
3
100
AcDbSymbolTableRecord
100
AcDbTextStyleTableRecord
  2

 70
     1
 40
0.0
 41
1.0
 50
0.0
 71
     0
 42
2.5
  3
ltypeshp.shx
  4

  0
STYLE
  5
58
330
3
100
AcDbSymbolTableRecord
100
AcDbTextStyleTableRecord
  2
ACISOTS
 70
     0
 40
1.0
 41
1.0
 50
0.0
 71
     0
 42
2.5
  3
isocp.shx
  4
extfont.shx
  0
STYLE
  5
63
330
3
100
AcDbSymbolTableRecord
100
AcDbTextStyleTableRecord
  2
ACISOGDT
 70
     0
 40
0.0
 41
1.0
 50
0.0
 71
     0
 42
2.5
  3
amgdt.shx
  4

  0
STYLE
  5
A74
330
3
100
AcDbSymbolTableRecord
100
AcDbTextStyleTableRecord
  2
DIM
 70
     0
 40
0.0
 41
1.0
 50
0.0
 71
     0
 42
2.5
  3
monotxt.shx
  4
extfont.shx
  0
STYLE
  5
FD18
330
3
100
AcDbSymbolTableRecord
100
AcDbTextStyleTableRecord
  2
ACANSTS
 70
     0
 40
1.0
 41
1.0
 50
0.0
 71
     0
 42
0.2
  3
romans.shx
  4
extfont.shx
  0
STYLE
  5
FD19
330
3
100
AcDbSymbolTableRecord
100
AcDbTextStyleTableRecord
  2
ACANSGDT
 70
     0
 40
0.0
 41
1.0
 50
0.0
 71
     0
 42
0.2
  3
amgdt.shx
  4

  0
ENDTAB
  0
TABLE
  2
VIEW
  5
6
330
0
100
AcDbSymbolTable
 70
     6
  0
VIEW
  5
AE1
330
6
100
AcDbSymbolTableRecord
100
AcDbViewTableRecord
  2
AM_VIEW1
 70
     0
 40
2203.896457765668
 10
5264.599158088851
 20
3198.765197920841
 41
2970.0
 11
0.0
 21
0.0
 31
1.0
 12
0.0
 22
0.0
 32
0.0
 42
50.0
 43
-1370.695619172058
 44
-1370.695619172058
 50
0.0
 71
     0
281
     0
 72
     0
  0
VIEW
  5
AE2
330
6
100
AcDbSymbolTableRecord
100
AcDbViewTableRecord
  2
AM_VIEW2
 70
     0
 40
2203.896457765668
 10
8234.599158088851
 20
3198.765197920841
 41
2970.0
 11
0.0
 21
0.0
 31
1.0
 12
0.0
 22
0.0
 32
0.0
 42
50.0
 43
-1370.695619172058
 44
-1370.695619172058
 50
0.0
 71
     0
281
     0
 72
     0
  0
VIEW
  5
AE3
330
6
100
AcDbSymbolTableRecord
100
AcDbViewTableRecord
  2
AM_VIEW3
 70
     0
 40
2203.896457765668
 10
5264.599158088851
 20
1202.661655686509
 41
2970.0
 11
0.0
 21
0.0
 31
1.0
 12
0.0
 22
0.0
 32
0.0
 42
50.0
 43
-1370.695619172058
 44
-1370.695619172058
 50
0.0
 71
     0
281
     0
 72
     0
  0
VIEW
  5
AE4
330
6
100
AcDbSymbolTableRecord
100
AcDbViewTableRecord
  2
AM_VIEW4
 70
     0
 40
2203.896457765668
 10
8234.599158088851
 20
1202.661655686509
 41
2970.0
 11
0.0
 21
0.0
 31
1.0
 12
0.0
 22
0.0
 32
0.0
 42
50.0
 43
-1370.695619172058
 44
-1370.695619172058
 50
0.0
 71
     0
281
     0
 72
     0
  0
VIEW
  5
AE5
330
6
100
AcDbSymbolTableRecord
100
AcDbViewTableRecord
  2
AM_VIEW5
 70
     0
 40
2203.896457765668
 10
6749.599158088852
 20
2200.713426803675
 41
2970.0
 11
0.0
 21
0.0
 31
1.0
 12
0.0
 22
0.0
 32
0.0
 42
50.0
 43
-1370.695619172058
 44
-1370.695619172058
 50
0.0
 71
     0
281
     0
 72
     0
  0
VIEW
  5
AE6
330
6
100
AcDbSymbolTableRecord
100
AcDbViewTableRecord
  2
AM_VIEW6
 70
     0
 40
4407.748837602181
 10
6749.599158088852
 20
2200.713426803675
 41
5939.9406
 11
0.0
 21
0.0
 31
1.0
 12
0.0
 22
0.0
 32
0.0
 42
50.0
 43
-1370.695619172058
 44
-1370.695619172058
 50
0.0
 71
     0
281
     0
 72
     0
  0
ENDTAB
  0
TABLE
  2
UCS
  5
7
330
0
100
AcDbSymbolTable
 70
     0
  0
ENDTAB
  0
TABLE
  2
APPID
  5
9
330
0
100
AcDbSymbolTable
 70
    67
  0
APPID
  5
12
330
9
100
AcDbSymbolTableRecord
100
AcDbRegAppTableRecord
  2
ACAD
 70
     0
  0
APPID
  5
30
330
9
100
AcDbSymbolTableRecord
100
AcDbRegAppTableRecord
  2
MCAD_NO_VIS
 70
     0
  0
APPID
  5
31
330
9
100
AcDbSymbolTableRecord
100
AcDbRegAppTableRecord
  2
ACAD_TEMP_GRAPHIC
 70
     0
  0
APPID
  5
44
330
9
100
AcDbSymbolTableRecord
100
AcDbRegAppTableRecord
  2
ACATTRIBSERVICES
 70
     0
  0
APPID
  5
7A1
330
9
100
AcDbSymbolTableRecord
100
AcDbRegAppTableRecord
  2
GENIUS_GENDIMSH_14
 70
     0
  0
APPID
  5
A49
330
9
100
AcDbSymbolTableRecord
100
AcDbRegAppTableRecord
  2
GENIUS_GENREC_14
 70
     0
  0
APPID
  5
A4A
330
9
100
AcDbSymbolTableRecord
100
AcDbRegAppTableRecord
  2
GENIUS_GENOBJ-N-REC_13
 70
     0
  0
APPID
  5
A4B
330
9
100
AcDbSymbolTableRecord
100
AcDbRegAppTableRecord
  2
GENIUS_GENODEF_13
 70
     0
  0
APPID
  5
A4C
330
9
100
AcDbSymbolTableRecord
100
AcDbRegAppTableRecord
  2
DCO15
 70
     0
  0
APPID
  5
ADC
330
9
100
AcDbSymbolTableRecord
100
AcDbRegAppTableRecord
  2
GENIUS_GENOLIS_13
 70
     0
  0
APPID
  5
ADD
330
9
100
AcDbSymbolTableRecord
100
AcDbRegAppTableRecord
  2
GENIUS_GENOENT_13
 70
     0
  0
APPID
  5
ADE
330
9
100
AcDbSymbolTableRecord
100
AcDbRegAppTableRecord
  2
GENIUS_GENOBJ-N-TIT_13
 70
     0
  0
APPID
  5
ADF
330
9
100
AcDbSymbolTableRecord
100
AcDbRegAppTableRecord
  2
GENIUS_GENTITLE_13
 70
     0
  0
APPID
  5
AE0
330
9
100
AcDbSymbolTableRecord
100
AcDbRegAppTableRecord
  2
GENIUS_GENOREF_13
 70
     0
  0
APPID
  5
AE7
330
9
100
AcDbSymbolTableRecord
100
AcDbRegAppTableRecord
  2
GENIUS_GENSCREG_15
 70
     0
  0
APPID
  5
AE8
330
9
100
AcDbSymbolTableRecord
100
AcDbRegAppTableRecord
  2
GENIUS_GENOBJ-N-SDF_13
 70
     0
  0
APPID
  5
FAF
330
9
100
AcDbSymbolTableRecord
100
AcDbRegAppTableRecord
  2
GENIUS_GENBLLY_14
 70
     0
  0
APPID
  5
FB0
330
9
100
AcDbSymbolTableRecord
100
AcDbRegAppTableRecord
  2
GENIUS_GENTRA_14
 70
     0
  0
APPID
  5
1285
330
9
100
AcDbSymbolTableRecord
100
AcDbRegAppTableRecord
  2
GENIUS_GENDTOL_13
 70
     0
  0
APPID
  5
142D
330
9
100
AcDbSymbolTableRecord
100
AcDbRegAppTableRecord
  2
GENIUS_GENOBJ-N-CEN_13
 70
     0
  0
APPID
  5
1AB5
330
9
100
AcDbSymbolTableRecord
100
AcDbRegAppTableRecord
  2
GENIUS_GENOBJ-N-CRS_13
 70
     0
  0
APPID
  5
1B36
330
9
100
AcDbSymbolTableRecord
100
AcDbRegAppTableRecord
  2
GENIUS_GENOBJ-N-HTC_13
 70
     0
  0
APPID
  5
1B37
330
9
100
AcDbSymbolTableRecord
100
AcDbRegAppTableRecord
  2
GENIUS_GENHATCH_13
 70
     0
  0
APPID
  5
216D
330
9
100
AcDbSymbolTableRecord
100
AcDbRegAppTableRecord
  2
GENIUS_GENOBJ-N-FIL_13
 70
     0
  0
APPID
  5
2356
330
9
100
AcDbSymbolTableRecord
100
AcDbRegAppTableRecord
  2
GEVID990412420
 70
     0
  0
APPID
  5
2357
330
9
100
AcDbSymbolTableRecord
100
AcDbRegAppTableRecord
  2
GEVDC
 70
     0
  0
APPID
  5
2358
330
9
100
AcDbSymbolTableRecord
100
AcDbRegAppTableRecord
  2
GEVCON
 70
     0
  0
APPID
  5
235B
330
9
100
AcDbSymbolTableRecord
100
AcDbRegAppTableRecord
  2
GEVRADREF
 70
     0
  0
APPID
  5
2360
330
9
100
AcDbSymbolTableRecord
100
AcDbRegAppTableRecord
  2
GENIUS_GENBH_13
 70
     0
  0
APPID
  5
2362
330
9
100
AcDbSymbolTableRecord
100
AcDbRegAppTableRecord
  2
GENIUS_GENOBJ-NBEHI-BHF_13
 70
     0
  0
APPID
  5
2364
330
9
100
AcDbSymbolTableRecord
100
AcDbRegAppTableRecord
  2
GENIUS_GENOBJ-NBEHI-BHB_13
 70
     0
  0
APPID
  5
2379
330
9
100
AcDbSymbolTableRecord
100
AcDbRegAppTableRecord
  2
GENIUS_GENOBJ-F-SCPASSM_13
 70
     0
  0
APPID
  5
3D74
330
9
100
AcDbSymbolTableRecord
100
AcDbRegAppTableRecord
  2
GENIUS_GENDIM_13
 70
     0
  0
APPID
  5
3D76
330
9
100
AcDbSymbolTableRecord
100
AcDbRegAppTableRecord
  2
GENIUS_GE3DTOL_13
 70
     0
  0
APPID
  5
3D9C
330
9
100
AcDbSymbolTableRecord
100
AcDbRegAppTableRecord
  2
AD_DRAW
 70
     0
  0
APPID
  5
3DE8
330
9
100
AcDbSymbolTableRecord
100
AcDbRegAppTableRecord
  2
ASURF_PCURVE_APPNAME
 70
     0
  0
APPID
  5
3DED
330
9
100
AcDbSymbolTableRecord
100
AcDbRegAppTableRecord
  2
AMG_3D2D_5.0
 70
     0
  0
APPID
  5
3E1B
330
9
100
AcDbSymbolTableRecord
100
AcDbRegAppTableRecord
  2
DESIGNERASSEMBLIES
 70
     0
  0
APPID
  5
3E20
330
9
100
AcDbSymbolTableRecord
100
AcDbRegAppTableRecord
  2
ACADM_DIM_EDIT
 70
     0
  0
APPID
  5
3E21
330
9
100
AcDbSymbolTableRecord
100
AcDbRegAppTableRecord
  2
AMDT_DM_ADJ
 70
     0
  0
APPID
  5
4143
330
9
100
AcDbSymbolTableRecord
100
AcDbRegAppTableRecord
  2
GENIUS_GENFIL_13
 70
     0
  0
APPID
  5
4144
330
9
100
AcDbSymbolTableRecord
100
AcDbRegAppTableRecord
  2
GENIUS_GENOBJ-N-CHA_13
 70
     0
  0
APPID
  5
4E17
330
9
100
AcDbSymbolTableRecord
100
AcDbRegAppTableRecord
  2
GEVID1008153417
 70
     0
  0
APPID
  5
4E58
330
9
100
AcDbSymbolTableRecord
100
AcDbRegAppTableRecord
  2
GEVID1008153418
 70
     0
  0
APPID
  5
4E5E
330
9
100
AcDbSymbolTableRecord
100
AcDbRegAppTableRecord
  2
GEVID1008153419
 70
     0
  0
APPID
  5
4E64
330
9
100
AcDbSymbolTableRecord
100
AcDbRegAppTableRecord
  2
GEVID1008153420
 70
     0
  0
APPID
  5
4E75
330
9
100
AcDbSymbolTableRecord
100
AcDbRegAppTableRecord
  2
GEVID1008153421
 70
     0
  0
APPID
  5
4EB7
330
9
100
AcDbSymbolTableRecord
100
AcDbRegAppTableRecord
  2
GENIUS_AMGTXT_16
 70
     0
  0
APPID
  5
7645
330
9
100
AcDbSymbolTableRecord
100
AcDbRegAppTableRecord
  2
GENIUS_GENOBJ-N-DIM_13
 70
     0
  0
APPID
  5
AAD0
330
9
100
AcDbSymbolTableRecord
100
AcDbRegAppTableRecord
  2
ACAD_DSTYLE_DIMARC_LENGTH_SYMBOL
 70
     0
  0
APPID
  5
AAD1
330
9
100
AcDbSymbolTableRecord
100
AcDbRegAppTableRecord
  2
ACAD_DSTYLE_DIMJOGGED_JOGANGLE_SYMBOL
 70
     0
  0
APPID
  5
AAFD
330
9
100
AcDbSymbolTableRecord
100
AcDbRegAppTableRecord
  2
ACAD_PSEXT
 70
     0
  0
APPID
  5
AD61
330
9
100
AcDbSymbolTableRecord
100
AcDbRegAppTableRecord
  2
AcAecLayerStandard
 70
     0
  0
APPID
  5
AEE3
330
9
100
AcDbSymbolTableRecord
100
AcDbRegAppTableRecord
  2
ACAD_EXEMPT_FROM_CAD_STANDARDS
 70
     0
  0
APPID
  5
B1BE
330
9
100
AcDbSymbolTableRecord
100
AcDbRegAppTableRecord
  2
GENIUS_GENCEN_19
 70
     0
  0
APPID
  5
B4E1
330
9
100
AcDbSymbolTableRecord
100
AcDbRegAppTableRecord
  2
ACAD_MLEADERVER
 70
     0
  0
APPID
  5
C488
330
9
100
AcDbSymbolTableRecord
100
AcDbRegAppTableRecord
  2
ACAD_DSTYLE_DIMINSPECT
 70
     0
  0
APPID
  5
C489
330
9
100
AcDbSymbolTableRecord
100
AcDbRegAppTableRecord
  2
ACAD_DSTYLE_DIMRADIAL_EXTENSION
 70
     0
  0
APPID
  5
1980E
330
9
100
AcDbSymbolTableRecord
100
AcDbRegAppTableRecord
  2
GEVID1311583542
 70
     0
  0
APPID
  5
19825
330
9
100
AcDbSymbolTableRecord
100
AcDbRegAppTableRecord
  2
AMG_2DHIDE
 70
     0
  0
APPID
  5
19826
330
9
100
AcDbSymbolTableRecord
100
AcDbRegAppTableRecord
  2
AMG_2DSTRUCT_BTR
 70
     0
  0
APPID
  5
19837
330
9
100
AcDbSymbolTableRecord
100
AcDbRegAppTableRecord
  2
ACADM_2DVIEW_IGN_NOTIFY
 70
     0
  0
APPID
  5
1B56B
330
9
100
AcDbSymbolTableRecord
100
AcDbRegAppTableRecord
  2
GEVID1311583543
 70
     0
  0
APPID
  5
1B5F6
330
9
100
AcDbSymbolTableRecord
100
AcDbRegAppTableRecord
  2
GEVID1311583544
 70
     0
  0
APPID
  5
1B61B
330
9
100
AcDbSymbolTableRecord
100
AcDbRegAppTableRecord
  2
GEVID1311583545
 70
     0
  0
APPID
  5
1B63D
330
9
100
AcDbSymbolTableRecord
100
AcDbRegAppTableRecord
  2
GEVID1311583546
 70
     0
  0
APPID
  5
1B675
330
9
100
AcDbSymbolTableRecord
100
AcDbRegAppTableRecord
  2
GEVID1311583547
 70
     0
  0
ENDTAB
  0
TABLE
  2
DIMSTYLE
  5
A
330
0
100
AcDbSymbolTable
 70
    27
100
AcDbDimStyleTable
 71
     3
340
2515
340
251A
340
251B
  0
DIMSTYLE
105
A76
330
A
100
AcDbSymbolTableRecord
100
AcDbDimStyleTableRecord
  2
STANDARD
 70
     0
 41
3.0
 42
1.0
 43
7.0
 44
2.0
 73
     0
 74
     0
 77
     1
140
2.799999999999999
141
0.0
143
0.0394
147
0.7
171
     4
172
     1
173
     1
176
     3
177
     3
178
     2
271
     3
272
     3
273
     8
274
     4
289
     0
340
A74
341
A66
343
A66
344
A66
  0
DIMSTYLE
105
2515
330
A
100
AcDbSymbolTableRecord
100
AcDbDimStyleTableRecord
  2
SYS
 70
     0
  4
"
 41
1.0
 42
1.0
 43
10.0
 44
1.0
 47
0.1
 48
0.1
 73
     0
 74
     0
 77
     1
 78
     8
 79
     2
140
3.5
141
0.0
143
0.0393701
146
0.71
147
1.5
172
     1
176
   256
177
   256
178
     7
271
     2
272
     2
283
     0
284
     8
340
11
371
    -1
372
    -1
1001
ACAD_DSTYLE_DIMJOGGED_JOGANGLE_SYMBOL
1070
   384
1040
0.7853981633974483
1001
ACAD_DSTYLE_DIMARC_LENGTH_SYMBOL
1070
   379
1070
     1
  0
DIMSTYLE
105
2516
102
{ACAD_REACTORS
330
4C177
330
4C193
102
}
330
A
100
AcDbSymbolTableRecord
100
AcDbDimStyleTableRecord
  2
SYS$3
 70
     0
  4
"
 41
2.0
 42
1.0
 43
10.0
 44
1.0
 47
0.1
 48
0.1
 73
     0
 77
     1
 78
     8
 79
     2
140
3.2
141
0.0
143
0.0393701
146
0.71
147
1.0
176
   256
177
   256
178
     2
271
     2
272
     2
283
     0
284
     8
288
     1
340
11
342
A66
371
    -1
372
    -1
1001
ACAD_DSTYLE_DIMJOGGED_JOGANGLE_SYMBOL
1070
   384
1040
0.7853981633974483
1001
ACAD_DSTYLE_DIMARC_LENGTH_SYMBOL
1070
   379
1070
     1
  0
DIMSTYLE
105
2517
330
A
100
AcDbSymbolTableRecord
100
AcDbDimStyleTableRecord
  2
SYS$4
 70
     0
  4
"
 41
2.0
 42
1.0
 43
10.0
 44
1.0
 47
0.1
 48
0.1
 73
     0
 77
     1
 78
     8
 79
     2
140
3.2
141
0.0
143
0.0393701
146
0.71
147
1.0
173
     1
176
   256
177
   256
178
     2
271
     2
272
     2
283
     0
284
     8
288
     1
340
11
344
A66
371
    -1
372
    -1
1001
ACAD_DSTYLE_DIMJOGGED_JOGANGLE_SYMBOL
1070
   384
1040
0.7853981633974483
1001
ACAD_DSTYLE_DIMARC_LENGTH_SYMBOL
1070
   379
1070
     1
  0
DIMSTYLE
105
2518
330
A
100
AcDbSymbolTableRecord
100
AcDbDimStyleTableRecord
  2
SYS$6
 70
     0
  4
"
 41
2.0
 42
1.0
 43
10.0
 44
1.0
 47
0.1
 48
0.1
 73
     0
 74
     0
 78
     8
 79
     2
140
3.2
141
0.0
143
0.0393701
146
0.71
147
1.0
172
     1
176
   256
177
   256
178
     2
271
     2
272
     2
283
     0
284
     8
340
11
341
A66
371
    -1
372
    -1
1001
ACAD_DSTYLE_DIMJOGGED_JOGANGLE_SYMBOL
1070
   384
1040
0.7853981633974483
1001
ACAD_DSTYLE_DIMARC_LENGTH_SYMBOL
1070
   379
1070
     1
  0
DIMSTYLE
105
2519
330
A
100
AcDbSymbolTableRecord
100
AcDbDimStyleTableRecord
  2
SYS$7
 70
     0
  4
"
 41
2.0
 42
1.0
 43
10.0
 44
1.0
 47
0.1
 48
0.1
 73
     0
 74
     0
 77
     1
 78
     8
 79
     2
140
3.2
141
0.0
143
0.0393701
146
0.71
147
1.0
172
     1
176
   256
177
   256
178
     2
271
     2
272
     2
283
     0
284
     8
340
11
341
A66
342
A66
371
    -1
372
    -1
1001
ACAD_DSTYLE_DIMJOGGED_JOGANGLE_SYMBOL
1070
   384
1040
0.7853981633974483
1001
ACAD_DSTYLE_DIMARC_LENGTH_SYMBOL
1070
   379
1070
     1
  0
DIMSTYLE
105
251A
330
A
100
AcDbSymbolTableRecord
100
AcDbDimStyleTableRecord
  2
SYS$SF
 70
     0
  4
"
 41
2.5
 42
1.0
 43
10.0
 44
1.0
 47
0.1
 48
0.1
 73
     0
 74
     0
 75
     1
 76
     1
 77
     1
 78
     8
 79
     2
140
3.2
141
0.0
143
0.0393701
146
0.71
147
1.0
172
     1
176
   256
177
   256
178
     2
271
     2
272
     2
283
     0
284
     8
340
11
341
6C4
342
6C4
371
    -1
372
    -1
1001
ACAD_DSTYLE_DIMJOGGED_JOGANGLE_SYMBOL
1070
   384
1040
0.7853981633974483
1001
ACAD_DSTYLE_DIMARC_LENGTH_SYMBOL
1070
   379
1070
     1
  0
DIMSTYLE
105
251B
330
A
100
AcDbSymbolTableRecord
100
AcDbDimStyleTableRecord
  2
SYS$SH
 70
     0
  4
"
 41
2.5
 42
1.0
 43
10.0
 44
1.0
 47
0.1
 48
0.1
 73
     0
 74
     0
 75
     1
 76
     1
 77
     1
 78
     8
 79
     2
140
3.2
141
0.0
143
0.0393701
144
2.0
146
0.71
147
1.0
172
     1
173
     1
176
   256
177
   256
178
     2
271
     2
272
     2
283
     0
284
     8
340
11
341
6C4
343
72
344
6C4
371
    -1
372
    -1
1001
ACAD_DSTYLE_DIMJOGGED_JOGANGLE_SYMBOL
1070
   384
1040
0.7853981633974483
1001
ACAD_DSTYLE_DIMARC_LENGTH_SYMBOL
1070
   379
1070
     1
  0
DIMSTYLE
105
2A59
330
A
100
AcDbSymbolTableRecord
100
AcDbDimStyleTableRecord
  2
SYS$2
 70
     0
  4
"
 41
1.0
 42
1.0
 43
10.0
 44
1.0
 47
0.1
 48
0.1
 73
     0
 74
     0
 77
     1
 78
     8
 79
     2
140
3.2
141
0.0
143
0.0393701
146
0.71
147
1.0
172
     1
176
   256
177
   256
178
     2
271
     2
272
     2
283
     0
284
     8
340
11
342
6C4
371
    -1
372
    -1
1001
ACAD_DSTYLE_DIMJOGGED_JOGANGLE_SYMBOL
1070
   384
1040
0.7853981633974483
1001
ACAD_DSTYLE_DIMARC_LENGTH_SYMBOL
1070
   379
1070
     1
  0
DIMSTYLE
105
2AAB
102
{ACAD_REACTORS
330
4BD70
330
4BE71
330
4BE72
330
4BEE1
330
4BF3D
330
4BF53
330
4BF9E
330
4BFB4
330
4C008
330
4C0AF
330
4C1BB
102
}
330
A
100
AcDbSymbolTableRecord
100
AcDbDimStyleTableRecord
  2
SYS$0
 70
     0
  4
"
 41
1.0
 42
1.0
 43
10.0
 44
1.0
 47
0.1
 48
0.1
 73
     0
 74
     0
 77
     1
 78
     8
 79
     2
140
3.200000000000001
141
0.0
143
0.0393701
146
0.71
147
1.0
172
     1
176
   256
177
   256
178
     2
271
     2
272
     2
283
     0
284
     8
340
11
341
A66
342
6C4
371
    -1
372
    -1
1001
ACAD_DSTYLE_DIMJOGGED_JOGANGLE_SYMBOL
1070
   384
1040
0.7853981633974483
1001
ACAD_DSTYLE_DIMARC_LENGTH_SYMBOL
1070
   379
1070
     1
  0
DIMSTYLE
105
AF99
330
A
100
AcDbSymbolTableRecord
100
AcDbDimStyleTableRecord
  2
AM_ISO
 70
     0
  4
"
 41
2.5
 42
1.0
 43
10.0
 44
1.0
 47
0.1
 48
0.1
 73
     0
 74
     0
 77
     1
 78
     8
 79
     2
140
3.5
141
0.0
143
0.0393701
146
0.71
147
1.5
172
     1
176
   256
177
   256
178
     2
271
     2
272
     3
274
     4
283
     0
284
     8
340
11
371
    -1
372
    -1
  0
DIMSTYLE
105
AF9A
330
A
100
AcDbSymbolTableRecord
100
AcDbDimStyleTableRecord
  2
AM_ISO$3
 70
     0
  4
"
 41
2.5
 42
1.0
 43
10.0
 44
1.0
 47
0.1
 48
0.1
 73
     0
 77
     1
 78
     8
 79
     2
140
3.5
141
0.0
143
0.0393701
146
0.71
147
1.5
176
   256
177
   256
178
     2
271
     2
272
     3
274
     4
283
     0
284
     8
288
     1
289
     0
340
11
371
    -1
372
    -1
  0
DIMSTYLE
105
AF9B
330
A
100
AcDbSymbolTableRecord
100
AcDbDimStyleTableRecord
  2
AM_ISO$4
 70
     0
  4
"
 41
2.5
 42
1.0
 43
10.0
 44
1.0
 47
0.1
 48
0.1
 73
     0
 77
     1
 78
     8
 79
     2
140
3.5
141
0.0
143
0.0393701
146
0.71
147
1.5
176
   256
177
   256
178
     2
271
     2
272
     3
274
     4
283
     0
284
     8
288
     1
289
     0
340
11
371
    -1
372
    -1
  0
DIMSTYLE
105
AF9C
330
A
100
AcDbSymbolTableRecord
100
AcDbDimStyleTableRecord
  2
AM_ISO$6
 70
     0
  4
"
 41
2.5
 42
1.0
 43
10.0
 44
1.0
 47
0.1
 48
0.1
 73
     0
 74
     0
 78
     8
 79
     2
140
3.5
141
0.0
143
0.0393701
146
0.71
147
1.5
172
     1
176
   256
177
   256
178
     2
271
     2
272
     3
274
     4
283
     0
284
     8
340
11
371
    -1
372
    -1
  0
DIMSTYLE
105
AF9D
330
A
100
AcDbSymbolTableRecord
100
AcDbDimStyleTableRecord
  2
AM_ISO$7
 70
     0
  4
"
 41
2.5
 42
1.0
 43
10.0
 44
1.0
 47
0.1
 48
0.1
 73
     0
 74
     0
 77
     1
 78
     8
 79
     2
140
5.0
141
0.0
143
0.0393701
146
0.71
147
1.5
172
     1
176
   256
177
   256
178
     2
271
     2
272
     3
274
     4
283
     0
284
     8
340
11
371
    -1
372
    -1
  0
DIMSTYLE
105
AF9E
330
A
100
AcDbSymbolTableRecord
100
AcDbDimStyleTableRecord
  2
AM_ISO$SF
 70
     0
  4
"
 41
2.5
 42
1.0
 43
10.0
 44
1.0
 47
0.1
 48
0.1
 73
     0
 74
     0
 75
     1
 76
     1
 77
     1
 78
     8
 79
     2
140
3.5
141
0.0
143
0.0393701
146
0.71
147
1.5
172
     1
176
   256
177
   256
178
     2
271
     2
272
     3
274
     4
283
     0
284
     8
340
11
371
    -1
372
    -1
  0
DIMSTYLE
105
AF9F
330
A
100
AcDbSymbolTableRecord
100
AcDbDimStyleTableRecord
  2
AM_ISO$SH
 70
     0
  4
"
 41
2.5
 42
1.0
 43
10.0
 44
1.0
 47
0.1
 48
0.1
 73
     0
 74
     0
 75
     1
 76
     1
 77
     1
 78
     8
 79
     2
140
3.5
141
0.0
143
0.0393701
144
2.0
146
0.71
147
1.5
172
     1
173
     1
176
   256
177
   256
178
     2
271
     2
272
     3
274
     4
283
     0
284
     8
340
11
343
72
371
    -1
372
    -1
  0
DIMSTYLE
105
B60C
330
A
100
AcDbSymbolTableRecord
100
AcDbDimStyleTableRecord
  2
AM_ANSI
 70
     0
  4
mm
 41
0.1
 42
0.05
 43
0.5
 44
0.1
 47
0.1
 48
0.1
 78
     7
 79
     2
140
0.12
141
0.0
146
0.71
147
0.06
176
   256
177
   256
178
     2
274
     4
284
     7
340
11
371
    -1
372
    -1
  0
DIMSTYLE
105
C485
330
A
100
AcDbSymbolTableRecord
100
AcDbDimStyleTableRecord
  2
AM_ISO$0
 70
     0
  4
"
 41
0.8
 42
1.0
 43
10.0
 44
1.0
 47
0.1
 48
0.1
 73
     0
 74
     0
 77
     1
 78
     8
 79
     2
140
3.2
141
0.0
143
0.0393701
146
0.71
147
0.9999999999999996
172
     1
176
   256
177
   256
178
     2
271
     2
272
     2
283
     0
284
     8
340
11
341
6C4
342
6C4
371
    -1
372
    -1
1001
ACAD_DSTYLE_DIMJOGGED_JOGANGLE_SYMBOL
1070
   384
1040
0.7853981633974483
1001
ACAD_DSTYLE_DIMARC_LENGTH_SYMBOL
1070
   379
1070
     1
  0
DIMSTYLE
105
C486
330
A
100
AcDbSymbolTableRecord
100
AcDbDimStyleTableRecord
  2
AM_ISO$2
 70
     0
  4
"
 41
0.8
 42
1.0
 43
10.0
 44
1.0
 47
0.1
 48
0.1
 73
     0
 74
     0
 77
     3
 78
     8
 79
     2
140
3.200000000000001
141
0.0
143
0.0393701
146
0.71
147
0.9999999999999996
172
     1
176
   256
177
   256
178
     2
271
     2
272
     2
283
     0
284
     8
340
11
342
6C4
371
    -1
372
    -1
1001
ACAD_DSTYLE_DIMJOGGED_JOGANGLE_SYMBOL
1070
   384
1040
0.7853981633974483
1001
ACAD_DSTYLE_DIMARC_LENGTH_SYMBOL
1070
   379
1070
     1
  0
DIMSTYLE
105
FD1A
330
A
100
AcDbSymbolTableRecord
100
AcDbDimStyleTableRecord
  2
AM_ANSI$3
 70
     0
  4
mm
 41
0.1
 42
0.05
 43
0.5
 44
0.1
 47
0.1
 48
0.1
 78
     7
 79
     2
140
0.12
141
0.0
146
0.71
147
0.06
176
   256
177
   256
178
     2
274
     4
284
     7
288
     1
289
     0
340
11
371
    -1
372
    -1
1001
ACAD_DSTYLE_DIMARC_LENGTH_SYMBOL
1070
   379
1070
     1
  0
DIMSTYLE
105
FD1B
330
A
100
AcDbSymbolTableRecord
100
AcDbDimStyleTableRecord
  2
AM_ANSI$4
 70
     0
  4
mm
 41
0.1
 42
0.05
 43
0.5
 44
0.1
 47
0.1
 48
0.1
 78
     7
 79
     2
140
0.12
141
0.0
146
0.71
147
0.06
176
   256
177
   256
178
     2
274
     4
284
     7
288
     1
289
     0
340
11
371
    -1
372
    -1
1001
ACAD_DSTYLE_DIMARC_LENGTH_SYMBOL
1070
   379
1070
     1
  0
DIMSTYLE
105
FD1C
330
A
100
AcDbSymbolTableRecord
100
AcDbDimStyleTableRecord
  2
AM_ANSI$7
 70
     0
  4
mm
 41
0.1
 42
0.05
 43
0.5
 44
0.1
 47
0.1
 48
0.1
 78
     7
 79
     2
140
0.24
141
0.0
146
0.71
147
0.06
176
   256
177
   256
178
     2
274
     4
284
     7
340
11
371
    -1
372
    -1
1001
ACAD_DSTYLE_DIMARC_LENGTH_SYMBOL
1070
   379
1070
     1
  0
DIMSTYLE
105
FD1D
330
A
100
AcDbSymbolTableRecord
100
AcDbDimStyleTableRecord
  2
AM_ANSI$SF
 70
     0
  4
mm
 41
0.1
 42
0.05
 43
0.5
 44
0.1
 47
0.1
 48
0.1
 75
     1
 76
     1
 78
     7
 79
     2
140
0.12
141
0.0
146
0.71
147
0.06
176
   256
177
   256
178
     2
274
     4
284
     7
340
11
371
    -1
372
    -1
1001
ACAD_DSTYLE_DIMARC_LENGTH_SYMBOL
1070
   379
1070
     1
  0
DIMSTYLE
105
FD1E
330
A
100
AcDbSymbolTableRecord
100
AcDbDimStyleTableRecord
  2
AM_ANSI$SH
 70
     0
  4
mm
 41
0.1
 42
0.05
 43
0.5
 44
0.1
 47
0.1
 48
0.1
 75
     1
 76
     1
 78
     7
 79
     2
140
0.12
141
0.0
146
0.71
147
0.06
173
     1
176
   256
177
   256
178
     2
274
     4
284
     7
340
11
343
72
371
    -1
372
    -1
1001
ACAD_DSTYLE_DIMARC_LENGTH_SYMBOL
1070
   379
1070
     1
  0
ENDTAB
  0
TABLE
  2
BLOCK_RECORD
  5
1
330
0
100
AcDbSymbolTable
 70
    37
  0
BLOCK_RECORD
  5
1F
102
{ACAD_XDICTIONARY
360
8A
102
}
330
1
100
AcDbSymbolTableRecord
100
AcDbBlockTableRecord
  2
*Model_Space
340
22
  0
BLOCK_RECORD
  5
1B
330
1
100
AcDbSymbolTableRecord
100
AcDbBlockTableRecord
  2
*Paper_Space
340
1E
  0
BLOCK_RECORD
  5
23
330
1
100
AcDbSymbolTableRecord
100
AcDbBlockTableRecord
  2
*Paper_Space0
340
26
  0
BLOCK_RECORD
  5
72
330
1
100
AcDbSymbolTableRecord
100
AcDbBlockTableRecord
  2
GENAXEH
340
0
  0
BLOCK_RECORD
  5
6C4
330
1
100
AcDbSymbolTableRecord
100
AcDbBlockTableRecord
  2
_Dot
340
0
102
{BLKREFS
331
529ED
331
529EE
331
52A01
331
52A02
331
52A1C
331
52A1D
331
59C3E
331
59C3F
331
5AC68
331
5AC69
331
5B347
331
5B348
331
5B39E
331
5B39F
331
5B3FA
331
5B3FB
331
5B405
331
5B406
331
5B40E
331
5B40F
331
5B41E
331
5B41F
331
5B430
331
5B431
331
5B455
331
5B456
331
5B461
331
5B462
331
5B46D
331
5B46E
331
5B479
331
5B47A
331
5B485
331
5B486
331
5B493
331
5B494
331
5B49F
331
5B4A0
331
5B5FA
331
5B5FB
331
5B603
331
5B604
331
5B60C
331
5B60D
331
5B615
331
5B616
331
5B61E
331
5B61F
331
5B629
331
5B62A
331
5B632
331
5B633
331
5B646
331
5B647
102
}
  0
BLOCK_RECORD
  5
A66
330
1
100
AcDbSymbolTableRecord
100
AcDbBlockTableRecord
  2
_OPEN30
340
0
  0
BLOCK_RECORD
  5
4BD71
330
1
100
AcDbSymbolTableRecord
100
AcDbBlockTableRecord
  2
*D7
340
0
  0
BLOCK_RECORD
  5
4BE75
330
1
100
AcDbSymbolTableRecord
100
AcDbBlockTableRecord
  2
*D8
340
0
  0
BLOCK_RECORD
  5
4BE81
330
1
100
AcDbSymbolTableRecord
100
AcDbBlockTableRecord
  2
*D9
340
0
  0
BLOCK_RECORD
  5
4BEE2
330
1
100
AcDbSymbolTableRecord
100
AcDbBlockTableRecord
  2
*D10
340
0
  0
BLOCK_RECORD
  5
4BF3E
330
1
100
AcDbSymbolTableRecord
100
AcDbBlockTableRecord
  2
*D11
340
0
  0
BLOCK_RECORD
  5
4BF54
330
1
100
AcDbSymbolTableRecord
100
AcDbBlockTableRecord
  2
*D12
340
0
  0
BLOCK_RECORD
  5
4BF9F
330
1
100
AcDbSymbolTableRecord
100
AcDbBlockTableRecord
  2
*D13
340
0
  0
BLOCK_RECORD
  5
4BFB5
330
1
100
AcDbSymbolTableRecord
100
AcDbBlockTableRecord
  2
*D14
340
0
  0
BLOCK_RECORD
  5
4C009
330
1
100
AcDbSymbolTableRecord
100
AcDbBlockTableRecord
  2
*D15
340
0
  0
BLOCK_RECORD
  5
4C0B0
330
1
100
AcDbSymbolTableRecord
100
AcDbBlockTableRecord
  2
*D16
340
0
  0
BLOCK_RECORD
  5
4C178
330
1
100
AcDbSymbolTableRecord
100
AcDbBlockTableRecord
  2
*D17
340
0
  0
BLOCK_RECORD
  5
4C194
330
1
100
AcDbSymbolTableRecord
100
AcDbBlockTableRecord
  2
*D18
340
0
  0
BLOCK_RECORD
  5
4C1BC
330
1
100
AcDbSymbolTableRecord
100
AcDbBlockTableRecord
  2
*D19
340
0
  0
ENDTAB
  0
ENDSEC
  0
SECTION
  2
BLOCKS
  0
BLOCK
  5
20
330
1F
100
AcDbEntity
  8
0
100
AcDbBlockBegin
  2
*Model_Space
 70
     0
 10
0.0
 20
0.0
 30
0.0
  3
*Model_Space
  1

  0
ENDBLK
  5
21
330
1F
100
AcDbEntity
  8
0
100
AcDbBlockEnd
  0
BLOCK
  5
1C
330
1B
100
AcDbEntity
 67
     1
  8
0
100
AcDbBlockBegin
  2
*Paper_Space
 70
     0
 10
0.0
 20
0.0
 30
0.0
  3
*Paper_Space
  1

  0
ENDBLK
  5
1D
330
1B
100
AcDbEntity
 67
     1
  8
0
100
AcDbBlockEnd
  0
BLOCK
  5
24
330
23
100
AcDbEntity
 67
     1
  8
0
100
AcDbBlockBegin
  2
*Paper_Space0
 70
     0
 10
0.0
 20
0.0
 30
0.0
  3
*Paper_Space0
  1

  0
ENDBLK
  5
25
330
23
100
AcDbEntity
 67
     1
  8
0
100
AcDbBlockEnd
  0
BLOCK
  5
74
330
72
100
AcDbEntity
  8
0
100
AcDbBlockBegin
  2
GENAXEH
 70
     0
 10
0.0
 20
0.0
 30
0.0
  3
GENAXEH
  1

  0
LINE
  5
73
330
72
100
AcDbEntity
  8
0
100
AcDbLine
 10
-1.0
 20
0.0
 30
0.0
 11
1.0
 21
0.0
 31
0.0
  0
ENDBLK
  5
75
330
72
100
AcDbEntity
  8
0
100
AcDbBlockEnd
  0
BLOCK
  5
6C7
330
6C4
100
AcDbEntity
  8
0
100
AcDbBlockBegin
  2
_Dot
 70
     0
 10
0.0
 20
0.0
 30
0.0
  3
_Dot
  1

  0
LWPOLYLINE
  5
6C5
330
6C4
100
AcDbEntity
  8
0
  6
ByBlock
 62
     0
100
AcDbPolyline
 90
        2
 70
     1
 43
0.5
 10
-0.25
 20
0.0
 42
1.0
 10
0.25
 20
0.0
 42
1.0
  0
LINE
  5
6C6
330
6C4
100
AcDbEntity
  8
0
  6
ByBlock
 62
     0
370
    -2
100
AcDbLine
 10
-0.5
 20
0.0
 30
0.0
 11
-1.0
 21
0.0
 31
0.0
  0
ENDBLK
  5
6C8
330
6C4
100
AcDbEntity
  8
0
100
AcDbBlockEnd
  0
BLOCK
  5
A6A
330
A66
100
AcDbEntity
  8
0
100
AcDbBlockBegin
  2
_OPEN30
 70
     0
 10
0.0
 20
0.0
 30
0.0
  3
_OPEN30
  1

  0
LINE
  5
A67
330
A66
100
AcDbEntity
  8
0
  6
ByBlock
 62
     0
100
AcDbLine
 10
-1.0
 20
0.26794919
 30
0.0
 11
0.0
 21
0.0
 31
0.0
  0
LINE
  5
A68
330
A66
100
AcDbEntity
  8
0
  6
ByBlock
 62
     0
100
AcDbLine
 10
0.0
 20
0.0
 30
0.0
 11
-1.0
 21
-0.26794919
 31
0.0
  0
LINE
  5
A69
330
A66
100
AcDbEntity
  8
0
  6
ByBlock
 62
     0
100
AcDbLine
 10
0.0
 20
0.0
 30
0.0
 11
-1.0
 21
0.0
 31
0.0
  0
ENDBLK
  5
A6B
330
A66
100
AcDbEntity
  8
0
100
AcDbBlockEnd
  0
BLOCK
  5
4BD7B
330
4BD71
100
AcDbEntity
  8
0
100
AcDbBlockBegin
  2
*D7
 70
     1
 10
0.0
 20
0.0
 30
0.0
  3
*D7
  1

  0
LINE
  5
529EA
330
4BD71
100
AcDbEntity
  8
AM_5
100
AcDbLine
 10
6243.995266855492
 20
-3894.674967998188
 30
0.0
 11
6261.995266855492
 21
-3894.674967998188
 31
0.0
  0
LINE
  5
529EB
330
4BD71
100
AcDbEntity
  8
AM_5
100
AcDbLine
 10
6246.817149532588
 20
-3885.102014867187
 30
0.0
 11
6261.995266855492
 21
-3885.102014867187
 31
0.0
  0
LINE
  5
529EC
330
4BD71
100
AcDbEntity
  8
AM_5
100
AcDbLine
 10
6260.995266855491
 20
-3893.674967998188
 30
0.0
 11
6260.995266855491
 21
-3886.102014867187
 31
0.0
  0
INSERT
  5
529ED
330
4BD71
100
AcDbEntity
  8
AM_5
100
AcDbBlockReference
  2
_Dot
 10
6260.995266855491
 20
-3894.674967998188
 30
0.0
 50
270.0
  0
INSERT
  5
529EE
330
4BD71
100
AcDbEntity
  8
AM_5
100
AcDbBlockReference
  2
_Dot
 10
6260.995266855491
 20
-3885.102014867187
 30
0.0
 50
90.0
  0
MTEXT
  5
529EF
330
4BD71
100
AcDbEntity
  8
AM_5
 62
     2
100
AcDbMText
 10
6258.395266855492
 20
-3889.674967998187
 30
0.0
 40
3.200000000000001
 41
0.0
 71
     5
 72
     1
  1
（9.5）
 11
0.0000000000000001
 21
1.0
 31
0.0
 73
     1
 44
1.0
1001
ACAD
1000
MTEXTBEGIN
1070
    73
1070
     1
1070
    44
1040
1.0
1070
    74
1070
     0
1000
MTEXTEND
  0
POINT
  5
529F0
330
4BD71
100
AcDbEntity
  8
Defpoints
 62
     0
100
AcDbPoint
 10
6242.995266855491
 20
-3894.674967998188
 30
0.0
  0
POINT
  5
529F1
330
4BD71
100
AcDbEntity
  8
Defpoints
 62
     0
100
AcDbPoint
 10
6245.817149532587
 20
-3885.102014867187
 30
0.0
  0
POINT
  5
529F2
330
4BD71
100
AcDbEntity
  8
Defpoints
 62
     0
100
AcDbPoint
 10
6260.995266855491
 20
-3885.102014867187
 30
0.0
  0
ENDBLK
  5
4BD7C
330
4BD71
100
AcDbEntity
  8
0
100
AcDbBlockEnd
  0
BLOCK
  5
4BE7F
330
4BE75
100
AcDbEntity
  8
0
100
AcDbBlockBegin
  2
*D8
 70
     1
 10
0.0
 20
0.0
 30
0.0
  3
*D8
  1

  0
LINE
  5
529FE
330
4BE75
100
AcDbEntity
  8
AM_5
100
AcDbLine
 10
6245.862652708696
 20
-3866.51307216168
 30
0.0
 11
6255.362652708695
 21
-3866.51307216168
 31
0.0
  0
LINE
  5
529FF
330
4BE75
100
AcDbEntity
  8
AM_5
100
AcDbLine
 10
6245.862652708696
 20
-3839.513072161681
 30
0.0
 11
6255.362652708695
 21
-3839.513072161681
 31
0.0
  0
LINE
  5
52A00
330
4BE75
100
AcDbEntity
  8
AM_5
100
AcDbLine
 10
6254.362652708696
 20
-3865.513072161681
 30
0.0
 11
6254.362652708696
 21
-3840.513072161681
 31
0.0
  0
INSERT
  5
52A01
330
4BE75
100
AcDbEntity
  8
AM_5
100
AcDbBlockReference
  2
_Dot
 10
6254.362652708696
 20
-3866.51307216168
 30
0.0
 50
270.0
  0
INSERT
  5
52A02
330
4BE75
100
AcDbEntity
  8
AM_5
100
AcDbBlockReference
  2
_Dot
 10
6254.362652708696
 20
-3839.513072161681
 30
0.0
 50
90.0
  0
MTEXT
  5
52A03
330
4BE75
100
AcDbEntity
  8
AM_5
 62
     2
100
AcDbMText
 10
6251.762652708696
 20
-3853.013072161681
 30
0.0
 40
3.200000000000001
 41
0.0
 71
     5
 72
     1
  1
27
 11
0.0000000000000001
 21
1.0
 31
0.0
 73
     1
 44
1.0
1001
ACAD
1000
MTEXTBEGIN
1070
    73
1070
     1
1070
    44
1040
1.0
1070
    74
1070
     0
1000
MTEXTEND
  0
POINT
  5
52A04
330
4BE75
100
AcDbEntity
  8
Defpoints
 62
     0
100
AcDbPoint
 10
6244.862652708697
 20
-3866.51307216168
 30
0.0
  0
POINT
  5
52A05
330
4BE75
100
AcDbEntity
  8
Defpoints
 62
     0
100
AcDbPoint
 10
6244.862652708697
 20
-3839.513072161681
 30
0.0
  0
POINT
  5
52A06
330
4BE75
100
AcDbEntity
  8
Defpoints
 62
     0
100
AcDbPoint
 10
6254.362652708696
 20
-3839.513072161681
 30
0.0
  0
ENDBLK
  5
4BE80
330
4BE75
100
AcDbEntity
  8
0
100
AcDbBlockEnd
  0
BLOCK
  5
4BE8B
330
4BE81
100
AcDbEntity
  8
0
100
AcDbBlockBegin
  2
*D9
 70
     1
 10
0.0
 20
0.0
 30
0.0
  3
*D9
  1

  0
LINE
  5
5AC65
330
4BE81
100
AcDbEntity
  8
AM_5
100
AcDbLine
 10
6246.362652708697
 20
-3840.263072161681
 30
0.0
 11
6246.362652708697
 21
-3830.013072161681
 31
0.0
  0
LINE
  5
5AC66
330
4BE81
100
AcDbEntity
  8
AM_5
100
AcDbLine
 10
6208.362652708697
 20
-3839.513072161681
 30
0.0
 11
6208.362652708697
 21
-3830.013072161681
 31
0.0
  0
LINE
  5
5AC67
330
4BE81
100
AcDbEntity
  8
AM_5
100
AcDbLine
 10
6245.362652708696
 20
-3831.013072161681
 30
0.0
 11
6209.362652708696
 21
-3831.013072161681
 31
0.0
  0
INSERT
  5
5AC68
330
4BE81
100
AcDbEntity
  8
AM_5
100
AcDbBlockReference
  2
_Dot
 10
6246.362652708697
 20
-3831.013072161681
 30
0.0
  0
INSERT
  5
5AC69
330
4BE81
100
AcDbEntity
  8
AM_5
100
AcDbBlockReference
  2
_Dot
 10
6208.362652708697
 20
-3831.013072161681
 30
0.0
 50
180.0
  0
MTEXT
  5
5AC6A
330
4BE81
100
AcDbEntity
  8
AM_5
 62
     2
100
AcDbMText
 10
6227.362652708696
 20
-3828.41307216168
 30
0.0
 40
3.200000000000001
 41
0.0
 71
     5
 72
     1
  1
38
 73
     1
 44
1.0
1001
ACAD
1000
MTEXTBEGIN
1070
    73
1070
     1
1070
    44
1040
1.0
1070
    74
1070
     0
1000
MTEXTEND
  0
POINT
  5
5AC6B
330
4BE81
100
AcDbEntity
  8
Defpoints
 62
     0
100
AcDbPoint
 10
6246.362652708697
 20
-3841.263072161681
 30
0.0
  0
POINT
  5
5AC6C
330
4BE81
100
AcDbEntity
  8
Defpoints
 62
     0
100
AcDbPoint
 10
6208.362652708697
 20
-3840.513072161681
 30
0.0
  0
POINT
  5
5AC6D
330
4BE81
100
AcDbEntity
  8
Defpoints
 62
     0
100
AcDbPoint
 10
6208.362652708697
 20
-3831.013072161681
 30
0.0
  0
ENDBLK
  5
4BE8C
330
4BE81
100
AcDbEntity
  8
0
100
AcDbBlockEnd
  0
BLOCK
  5
4BEEC
330
4BEE2
100
AcDbEntity
  8
0
100
AcDbBlockBegin
  2
*D10
 70
     1
 10
0.0
 20
0.0
 30
0.0
  3
*D10
  1

  0
LINE
  5
52A19
330
4BEE2
100
AcDbEntity
  8
AM_5
100
AcDbLine
 10
6208.862652708696
 20
-3867.26307216168
 30
0.0
 11
6199.362652708695
 21
-3867.26307216168
 31
0.0
  0
LINE
  5
52A1A
330
4BEE2
100
AcDbEntity
  8
AM_5
100
AcDbLine
 10
6208.862652708696
 20
-3838.763072161681
 30
0.0
 11
6199.362652708695
 21
-3838.763072161681
 31
0.0
  0
LINE
  5
52A1B
330
4BEE2
100
AcDbEntity
  8
AM_5
100
AcDbLine
 10
6200.362652708696
 20
-3866.263072161681
 30
0.0
 11
6200.362652708696
 21
-3839.763072161681
 31
0.0
  0
INSERT
  5
52A1C
330
4BEE2
100
AcDbEntity
  8
AM_5
100
AcDbBlockReference
  2
_Dot
 10
6200.362652708696
 20
-3867.26307216168
 30
0.0
 50
270.0
  0
INSERT
  5
52A1D
330
4BEE2
100
AcDbEntity
  8
AM_5
100
AcDbBlockReference
  2
_Dot
 10
6200.362652708696
 20
-3838.763072161681
 30
0.0
 50
90.0
  0
MTEXT
  5
52A1E
330
4BEE2
100
AcDbEntity
  8
AM_5
 62
     2
100
AcDbMText
 10
6197.762652708696
 20
-3853.013072161681
 30
0.0
 40
3.200000000000001
 41
0.0
 71
     5
 72
     1
  1
28.5
 11
0.0000000000000001
 21
1.0
 31
0.0
 73
     1
 44
1.0
1001
ACAD
1000
MTEXTBEGIN
1070
    73
1070
     1
1070
    44
1040
1.0
1070
    74
1070
     0
1000
MTEXTEND
  0
POINT
  5
52A1F
330
4BEE2
100
AcDbEntity
  8
Defpoints
 62
     0
100
AcDbPoint
 10
6209.862652708697
 20
-3867.26307216168
 30
0.0
  0
POINT
  5
52A20
330
4BEE2
100
AcDbEntity
  8
Defpoints
 62
     0
100
AcDbPoint
 10
6209.862652708697
 20
-3838.763072161681
 30
0.0
  0
POINT
  5
52A21
330
4BEE2
100
AcDbEntity
  8
Defpoints
 62
     0
100
AcDbPoint
 10
6200.362652708696
 20
-3838.763072161681
 30
0.0
  0
ENDBLK
  5
4BEED
330
4BEE2
100
AcDbEntity
  8
0
100
AcDbBlockEnd
  0
BLOCK
  5
4BF48
330
4BF3E
100
AcDbEntity
  8
0
100
AcDbBlockBegin
  2
*D11
 70
     1
 10
0.0
 20
0.0
 30
0.0
  3
*D11
  1

  0
LINE
  5
5B39B
330
4BF3E
100
AcDbEntity
  8
AM_5
100
AcDbLine
 10
6242.362652708696
 20
-3950.181584894024
 30
0.0
 11
6263.362652708695
 21
-3950.181584894024
 31
0.0
  0
LINE
  5
5B39C
330
4BF3E
100
AcDbEntity
  8
AM_5
100
AcDbLine
 10
6242.362652708696
 20
-3925.181584894024
 30
0.0
 11
6263.362652708695
 21
-3925.181584894024
 31
0.0
  0
LINE
  5
5B39D
330
4BF3E
100
AcDbEntity
  8
AM_5
100
AcDbLine
 10
6262.362652708695
 20
-3949.181584894024
 30
0.0
 11
6262.362652708695
 21
-3926.181584894024
 31
0.0
  0
INSERT
  5
5B39E
330
4BF3E
100
AcDbEntity
  8
AM_5
100
AcDbBlockReference
  2
_Dot
 10
6262.362652708695
 20
-3950.181584894024
 30
0.0
 50
270.0
  0
INSERT
  5
5B39F
330
4BF3E
100
AcDbEntity
  8
AM_5
100
AcDbBlockReference
  2
_Dot
 10
6262.362652708695
 20
-3925.181584894024
 30
0.0
 50
90.0
  0
MTEXT
  5
5B3A0
330
4BF3E
100
AcDbEntity
  8
AM_5
 62
     2
100
AcDbMText
 10
6259.762652708696
 20
-3937.681584894024
 30
0.0
 40
3.200000000000001
 41
0.0
 71
     5
 72
     1
  1
25
 11
0.0000000000000001
 21
1.0
 31
0.0
 73
     1
 44
1.0
1001
ACAD
1000
MTEXTBEGIN
1070
    73
1070
     1
1070
    44
1040
1.0
1070
    74
1070
     0
1000
MTEXTEND
  0
POINT
  5
5B3A1
330
4BF3E
100
AcDbEntity
  8
Defpoints
 62
     0
100
AcDbPoint
 10
6241.362652708696
 20
-3950.181584894024
 30
0.0
  0
POINT
  5
5B3A2
330
4BF3E
100
AcDbEntity
  8
Defpoints
 62
     0
100
AcDbPoint
 10
6241.362652708696
 20
-3925.181584894024
 30
0.0
  0
POINT
  5
5B3A3
330
4BF3E
100
AcDbEntity
  8
Defpoints
 62
     0
100
AcDbPoint
 10
6262.362652708695
 20
-3925.181584894024
 30
0.0
  0
ENDBLK
  5
4BF49
330
4BF3E
100
AcDbEntity
  8
0
100
AcDbBlockEnd
  0
BLOCK
  5
4BF5E
330
4BF54
100
AcDbEntity
  8
0
100
AcDbBlockBegin
  2
*D12
 70
     1
 10
0.0
 20
0.0
 30
0.0
  3
*D12
  1

  0
LINE
  5
5B41B
330
4BF54
100
AcDbEntity
  8
AM_5
100
AcDbLine
 10
6241.962652708696
 20
-3929.181584894024
 30
0.0
 11
6255.362652708695
 21
-3929.181584894024
 31
0.0
  0
LINE
  5
5B41C
330
4BF54
100
AcDbEntity
  8
AM_5
100
AcDbLine
 10
6241.962652708696
 20
-3946.181584894024
 30
0.0
 11
6255.362652708695
 21
-3946.181584894024
 31
0.0
  0
LINE
  5
5B41D
330
4BF54
100
AcDbEntity
  8
AM_5
100
AcDbLine
 10
6254.362652708696
 20
-3930.181584894024
 30
0.0
 11
6254.362652708696
 21
-3945.181584894024
 31
0.0
  0
INSERT
  5
5B41E
330
4BF54
100
AcDbEntity
  8
AM_5
100
AcDbBlockReference
  2
_Dot
 10
6254.362652708696
 20
-3929.181584894024
 30
0.0
 50
90.0
  0
INSERT
  5
5B41F
330
4BF54
100
AcDbEntity
  8
AM_5
100
AcDbBlockReference
  2
_Dot
 10
6254.362652708696
 20
-3946.181584894024
 30
0.0
 50
270.0
  0
MTEXT
  5
5B420
330
4BF54
100
AcDbEntity
  8
AM_5
 62
     2
100
AcDbMText
 10
6251.762652708696
 20
-3937.681584894024
 30
0.0
 40
3.200000000000001
 41
0.0
 71
     5
 72
     1
  1
17
 11
0.0000000000000001
 21
1.0
 31
0.0
 73
     1
 44
1.0
1001
ACAD
1000
MTEXTBEGIN
1070
    73
1070
     1
1070
    44
1040
1.0
1070
    74
1070
     0
1000
MTEXTEND
  0
POINT
  5
5B421
330
4BF54
100
AcDbEntity
  8
Defpoints
 62
     0
100
AcDbPoint
 10
6240.962652708697
 20
-3929.181584894024
 30
0.0
  0
POINT
  5
5B422
330
4BF54
100
AcDbEntity
  8
Defpoints
 62
     0
100
AcDbPoint
 10
6240.962652708697
 20
-3946.181584894024
 30
0.0
  0
POINT
  5
5B423
330
4BF54
100
AcDbEntity
  8
Defpoints
 62
     0
100
AcDbPoint
 10
6254.362652708696
 20
-3946.181584894024
 30
0.0
  0
ENDBLK
  5
4BF5F
330
4BF54
100
AcDbEntity
  8
0
100
AcDbBlockEnd
  0
BLOCK
  5
4BFA9
330
4BF9F
100
AcDbEntity
  8
0
100
AcDbBlockBegin
  2
*D13
 70
     1
 10
0.0
 20
0.0
 30
0.0
  3
*D13
  1

  0
LINE
  5
5B344
330
4BF9F
100
AcDbEntity
  8
AM_5
100
AcDbLine
 10
6208.175585890306
 20
-3949.431584894024
 30
0.0
 11
6191.362652708695
 21
-3949.431584894024
 31
0.0
  0
LINE
  5
5B345
330
4BF9F
100
AcDbEntity
  8
AM_5
100
AcDbLine
 10
6208.375585890306
 20
-3925.931584894024
 30
0.0
 11
6191.362652708695
 21
-3925.931584894024
 31
0.0
  0
LINE
  5
5B346
330
4BF9F
100
AcDbEntity
  8
AM_5
100
AcDbLine
 10
6192.362652708695
 20
-3948.431584894024
 30
0.0
 11
6192.362652708695
 21
-3926.931584894024
 31
0.0
  0
INSERT
  5
5B347
330
4BF9F
100
AcDbEntity
  8
AM_5
100
AcDbBlockReference
  2
_Dot
 10
6192.362652708695
 20
-3949.431584894024
 30
0.0
 50
270.0
  0
INSERT
  5
5B348
330
4BF9F
100
AcDbEntity
  8
AM_5
100
AcDbBlockReference
  2
_Dot
 10
6192.362652708695
 20
-3925.931584894024
 30
0.0
 50
90.0
  0
MTEXT
  5
5B349
330
4BF9F
100
AcDbEntity
  8
AM_5
 62
     2
100
AcDbMText
 10
6189.762652708696
 20
-3937.681584894022
 30
0.0
 40
3.200000000000001
 41
0.0
 71
     5
 72
     1
  1
23.5
 11
0.0000000000000001
 21
1.0
 31
0.0
 73
     1
 44
1.0
1001
ACAD
1000
MTEXTBEGIN
1070
    73
1070
     1
1070
    44
1040
1.0
1070
    74
1070
     0
1000
MTEXTEND
  0
POINT
  5
5B34A
330
4BF9F
100
AcDbEntity
  8
Defpoints
 62
     0
100
AcDbPoint
 10
6209.175585890307
 20
-3949.431584894024
 30
0.0
  0
POINT
  5
5B34B
330
4BF9F
100
AcDbEntity
  8
Defpoints
 62
     0
100
AcDbPoint
 10
6209.375585890306
 20
-3925.931584894024
 30
0.0
  0
POINT
  5
5B34C
330
4BF9F
100
AcDbEntity
  8
Defpoints
 62
     0
100
AcDbPoint
 10
6192.362652708695
 20
-3925.931584894024
 30
0.0
  0
ENDBLK
  5
4BFAA
330
4BF9F
100
AcDbEntity
  8
0
100
AcDbBlockEnd
  0
BLOCK
  5
4BFBF
330
4BFB5
100
AcDbEntity
  8
0
100
AcDbBlockBegin
  2
*D14
 70
     1
 10
0.0
 20
0.0
 30
0.0
  3
*D14
  1

  0
LINE
  5
5B42D
330
4BFB5
100
AcDbEntity
  8
AM_5
100
AcDbLine
 10
6212.762652708696
 20
-3929.181584894024
 30
0.0
 11
6199.362652708695
 21
-3929.181584894024
 31
0.0
  0
LINE
  5
5B42E
330
4BFB5
100
AcDbEntity
  8
AM_5
100
AcDbLine
 10
6212.762652708696
 20
-3946.181584894024
 30
0.0
 11
6199.362652708695
 21
-3946.181584894024
 31
0.0
  0
LINE
  5
5B42F
330
4BFB5
100
AcDbEntity
  8
AM_5
100
AcDbLine
 10
6200.362652708696
 20
-3930.181584894024
 30
0.0
 11
6200.362652708696
 21
-3945.181584894024
 31
0.0
  0
INSERT
  5
5B430
330
4BFB5
100
AcDbEntity
  8
AM_5
100
AcDbBlockReference
  2
_Dot
 10
6200.362652708696
 20
-3929.181584894024
 30
0.0
 50
90.0
  0
INSERT
  5
5B431
330
4BFB5
100
AcDbEntity
  8
AM_5
100
AcDbBlockReference
  2
_Dot
 10
6200.362652708696
 20
-3946.181584894024
 30
0.0
 50
270.0
  0
MTEXT
  5
5B432
330
4BFB5
100
AcDbEntity
  8
AM_5
 62
     2
100
AcDbMText
 10
6197.762652708696
 20
-3937.681584894024
 30
0.0
 40
3.200000000000001
 41
0.0
 71
     5
 72
     1
  1
17
 11
0.0000000000000001
 21
1.0
 31
0.0
 73
     1
 44
1.0
1001
ACAD
1000
MTEXTBEGIN
1070
    73
1070
     1
1070
    44
1040
1.0
1070
    74
1070
     0
1000
MTEXTEND
  0
POINT
  5
5B433
330
4BFB5
100
AcDbEntity
  8
Defpoints
 62
     0
100
AcDbPoint
 10
6213.762652708695
 20
-3929.181584894024
 30
0.0
  0
POINT
  5
5B434
330
4BFB5
100
AcDbEntity
  8
Defpoints
 62
     0
100
AcDbPoint
 10
6213.762652708695
 20
-3946.181584894024
 30
0.0
  0
POINT
  5
5B435
330
4BFB5
100
AcDbEntity
  8
Defpoints
 62
     0
100
AcDbPoint
 10
6200.362652708696
 20
-3946.181584894024
 30
0.0
  0
ENDBLK
  5
4BFC0
330
4BFB5
100
AcDbEntity
  8
0
100
AcDbBlockEnd
  0
BLOCK
  5
4C013
330
4C009
100
AcDbEntity
  8
0
100
AcDbBlockBegin
  2
*D15
 70
     1
 10
0.0
 20
0.0
 30
0.0
  3
*D15
  1

  0
LINE
  5
5B3F7
330
4C009
100
AcDbEntity
  8
AM_5
100
AcDbLine
 10
6217.362652708697
 20
-3924.587734864024
 30
0.0
 11
6217.362652708697
 21
-3913.431584894024
 31
0.0
  0
LINE
  5
5B3F8
330
4C009
100
AcDbEntity
  8
AM_5
100
AcDbLine
 10
6237.362652708696
 20
-3924.581584894024
 30
0.0
 11
6237.362652708696
 21
-3913.431584894024
 31
0.0
  0
LINE
  5
5B3F9
330
4C009
100
AcDbEntity
  8
AM_5
100
AcDbLine
 10
6218.362652708696
 20
-3914.431584894025
 30
0.0
 11
6236.362652708696
 21
-3914.431584894025
 31
0.0
  0
INSERT
  5
5B3FA
330
4C009
100
AcDbEntity
  8
AM_5
100
AcDbBlockReference
  2
_Dot
 10
6217.362652708697
 20
-3914.431584894025
 30
0.0
 50
180.0
  0
INSERT
  5
5B3FB
330
4C009
100
AcDbEntity
  8
AM_5
100
AcDbBlockReference
  2
_Dot
 10
6237.362652708696
 20
-3914.431584894025
 30
0.0
  0
MTEXT
  5
5B3FC
330
4C009
100
AcDbEntity
  8
AM_5
 62
     2
100
AcDbMText
 10
6227.462652708696
 20
-3911.831584894024
 30
0.0
 40
3.200000000000001
 41
0.0
 71
     5
 72
     1
  1
（20）
 73
     1
 44
1.0
1001
ACAD
1000
MTEXTBEGIN
1070
    73
1070
     1
1070
    44
1040
1.0
1070
    74
1070
     0
1000
MTEXTEND
  0
POINT
  5
5B3FD
330
4C009
100
AcDbEntity
  8
Defpoints
 62
     0
100
AcDbPoint
 10
6217.362652708697
 20
-3925.587734864024
 30
0.0
  0
POINT
  5
5B3FE
330
4C009
100
AcDbEntity
  8
Defpoints
 62
     0
100
AcDbPoint
 10
6237.362652708696
 20
-3925.581584894024
 30
0.0
  0
POINT
  5
5B3FF
330
4C009
100
AcDbEntity
  8
Defpoints
 62
     0
100
AcDbPoint
 10
6237.362652708696
 20
-3914.431584894025
 30
0.0
  0
ENDBLK
  5
4C014
330
4C009
100
AcDbEntity
  8
0
100
AcDbBlockEnd
  0
BLOCK
  5
4C0BA
330
4C0B0
100
AcDbEntity
  8
0
100
AcDbBlockBegin
  2
*D16
 70
     1
 10
0.0
 20
0.0
 30
0.0
  3
*D16
  1

  0
LINE
  5
59C39
330
4C0B0
100
AcDbEntity
  8
AM_5
100
AcDbLine
 10
6243.862652708696
 20
-3894.674967998188
 30
0.0
 11
6253.995266855492
 21
-3894.674967998188
 31
0.0
  0
LINE
  5
59C3A
330
4C0B0
100
AcDbEntity
  8
AM_5
100
AcDbLine
 10
6243.862652708696
 20
-3893.674967998188
 30
0.0
 11
6253.995266855492
 21
-3893.674967998188
 31
0.0
  0
LINE
  5
59C3B
330
4C0B0
100
AcDbEntity
  8
AM_5
100
AcDbLine
 10
6252.995266855492
 20
-3892.674967998188
 30
0.0
 11
6252.995266855492
 21
-3891.674967998188
 31
0.0
  0
LINE
  5
59C3C
330
4C0B0
100
AcDbEntity
  8
AM_5
100
AcDbLine
 10
6252.995266855492
 20
-3895.674967998188
 30
0.0
 11
6252.995266855492
 21
-3899.40812256402
 31
0.0
  0
LINE
  5
59C3D
330
4C0B0
100
AcDbEntity
  8
AM_5
100
AcDbLine
 10
6252.995266855492
 20
-3893.674967998188
 30
0.0
 11
6252.995266855492
 21
-3894.674967998188
 31
0.0
  0
INSERT
  5
59C3E
330
4C0B0
100
AcDbEntity
  8
AM_5
100
AcDbBlockReference
  2
_Dot
 10
6252.995266855492
 20
-3893.674967998188
 30
0.0
 50
270.0
  0
INSERT
  5
59C3F
330
4C0B0
100
AcDbEntity
  8
AM_5
100
AcDbBlockReference
  2
_Dot
 10
6252.995266855492
 20
-3894.674967998188
 30
0.0
 50
90.0
  0
MTEXT
  5
59C40
330
4C0B0
100
AcDbEntity
  8
AM_5
 62
     2
100
AcDbMText
 10
6250.395266855492
 20
-3898.141455897352
 30
0.0
 40
3.200000000000001
 41
0.0
 71
     5
 72
     1
  1
1
 11
0.0000000000000001
 21
1.0
 31
0.0
 73
     1
 44
1.0
1001
ACAD
1000
MTEXTBEGIN
1070
    73
1070
     1
1070
    44
1040
1.0
1070
    74
1070
     0
1000
MTEXTEND
  0
POINT
  5
59C41
330
4C0B0
100
AcDbEntity
  8
Defpoints
 62
     0
100
AcDbPoint
 10
6242.862652708696
 20
-3894.674967998188
 30
0.0
  0
POINT
  5
59C42
330
4C0B0
100
AcDbEntity
  8
Defpoints
 62
     0
100
AcDbPoint
 10
6242.862652708696
 20
-3893.674967998188
 30
0.0
  0
POINT
  5
59C43
330
4C0B0
100
AcDbEntity
  8
Defpoints
 62
     0
100
AcDbPoint
 10
6252.995266855492
 20
-3893.674967998188
 30
0.0
  0
ENDBLK
  5
4C0BB
330
4C0B0
100
AcDbEntity
  8
0
100
AcDbBlockEnd
  0
BLOCK
  5
4C17F
330
4C178
100
AcDbEntity
  8
0
100
AcDbBlockBegin
  2
*D17
 70
     1
 10
0.0
 20
0.0
 30
0.0
  3
*D17
  1

  0
LINE
  5
5B400
330
4C178
100
AcDbEntity
  8
AM_5
100
AcDbLine
 10
6258.582523834182
 20
-3958.139013729912
 30
0.0
 11
6245.955857167516
 21
-3958.139013729912
 31
0.0
  0
LINE
  5
5B401
330
4C178
100
AcDbEntity
  8
AM_5
100
AcDbLine
 10
6245.955857167516
 20
-3958.139013729912
 30
0.0
 11
6238.879967008817
 21
-3948.292925064307
 31
0.0
  0
LINE
  5
5B402
330
4C178
100
AcDbEntity
  8
AM_5
100
AcDbLine
 10
6235.845338408577
 20
-3944.07024472374
 30
0.0
 11
6235.261755985455
 21
-3943.258190812093
 31
0.0
  0
MTEXT
  5
5B403
330
4C178
100
AcDbEntity
  8
AM_5
 62
     2
100
AcDbMText
 10
6252.769190500849
 20
-3955.539013729911
 30
0.0
 40
3.2
 41
0.0
 71
     5
 72
     1
  1
2-\U+22053.2
 73
     1
 44
1.0
1001
ACAD
1000
MTEXTBEGIN
1070
    73
1070
     1
1070
    44
1040
1.0
1070
    74
1070
     0
1000
MTEXTEND
  0
LINE
  5
5B404
330
4C178
100
AcDbEntity
  8
AM_5
100
AcDbLine
 10
6236.4289208317
 20
-3944.882298635388
 30
0.0
 11
6238.296384585694
 21
-3947.480871152659
 31
0.0
  0
INSERT
  5
5B405
330
4C178
100
AcDbEntity
  8
AM_5
100
AcDbBlockReference
  2
_Dot
 10
6236.4289208317
 20
-3944.882298635388
 30
0.0
 50
305.702907709968
  0
INSERT
  5
5B406
330
4C178
100
AcDbEntity
  8
AM_5
100
AcDbBlockReference
  2
_Dot
 10
6238.296384585694
 20
-3947.480871152659
 30
0.0
 50
125.702907709968
  0
POINT
  5
5B407
330
4C178
100
AcDbEntity
  8
Defpoints
 62
     0
100
AcDbPoint
 10
6238.296384585694
 20
-3947.480871152659
 30
0.0
  0
POINT
  5
5B408
330
4C178
100
AcDbEntity
  8
Defpoints
 62
     0
100
AcDbPoint
 10
6236.4289208317
 20
-3944.882298635388
 30
0.0
  0
ENDBLK
  5
4C180
330
4C178
100
AcDbEntity
  8
0
100
AcDbBlockEnd
  0
BLOCK
  5
4C19E
330
4C194
100
AcDbEntity
  8
0
100
AcDbBlockBegin
  2
*D18
 70
     1
 10
0.0
 20
0.0
 30
0.0
  3
*D18
  1

  0
LINE
  5
5B409
330
4C194
100
AcDbEntity
  8
AM_5
100
AcDbLine
 10
6194.754941054754
 20
-3956.320675858798
 30
0.0
 11
6207.381607721422
 21
-3956.320675858798
 31
0.0
  0
LINE
  5
5B40A
330
4C194
100
AcDbEntity
  8
AM_5
100
AcDbLine
 10
6207.381607721422
 20
-3956.320675858798
 30
0.0
 11
6215.538110845753
 21
-3948.040043422036
 31
0.0
  0
LINE
  5
5B40B
330
4C194
100
AcDbEntity
  8
AM_5
100
AcDbLine
 10
6219.187194571635
 20
-3944.335426308013
 30
0.0
 11
6219.888941441996
 21
-3943.622999939931
 31
0.0
  0
MTEXT
  5
5B40C
330
4C194
100
AcDbEntity
  8
AM_5
 62
     2
100
AcDbMText
 10
6200.568274388088
 20
-3953.720675858798
 30
0.0
 40
3.2
 41
0.0
 71
     5
 72
     1
  1
2-\U+22053.2
 73
     1
 44
1.0
1001
ACAD
1000
MTEXTBEGIN
1070
    73
1070
     1
1070
    44
1040
1.0
1070
    74
1070
     0
1000
MTEXTEND
  0
LINE
  5
5B40D
330
4C194
100
AcDbEntity
  8
AM_5
100
AcDbLine
 10
6218.485447701272
 20
-3945.047852676094
 30
0.0
 11
6216.239857716114
 21
-3947.327617053954
 31
0.0
  0
INSERT
  5
5B40E
330
4C194
100
AcDbEntity
  8
AM_5
100
AcDbBlockReference
  2
_Dot
 10
6218.485447701272
 20
-3945.047852676094
 30
0.0
 50
225.4326757843966
  0
INSERT
  5
5B40F
330
4C194
100
AcDbEntity
  8
AM_5
100
AcDbBlockReference
  2
_Dot
 10
6216.239857716114
 20
-3947.327617053954
 30
0.0
 50
45.43267578439655
  0
POINT
  5
5B410
330
4C194
100
AcDbEntity
  8
Defpoints
 62
     0
100
AcDbPoint
 10
6216.239857716114
 20
-3947.327617053954
 30
0.0
  0
POINT
  5
5B411
330
4C194
100
AcDbEntity
  8
Defpoints
 62
     0
100
AcDbPoint
 10
6218.485447701272
 20
-3945.047852676094
 30
0.0
  0
ENDBLK
  5
4C19F
330
4C194
100
AcDbEntity
  8
0
100
AcDbBlockEnd
  0
BLOCK
  5
4C1C8
330
4C1BC
100
AcDbEntity
  8
0
100
AcDbBlockBegin
  2
*D19
 70
     1
 10
0.0
 20
0.0
 30
0.0
  3
*D19
  1

  0
LINE
  5
5B641
330
4C1BC
100
AcDbEntity
  8
AM_5
100
AcDbLine
 10
6220.862652708696
 20
-3948.431584894024
 30
0.0
 11
6220.862652708696
 21
-3960.931584894024
 31
0.0
  0
LINE
  5
5B642
330
4C1BC
100
AcDbEntity
  8
AM_5
100
AcDbLine
 10
6217.362652708697
 20
-3950.781584894025
 30
0.0
 11
6217.362652708697
 21
-3960.931584894024
 31
0.0
  0
LINE
  5
5B643
330
4C1BC
100
AcDbEntity
  8
AM_5
100
AcDbLine
 10
6221.862652708696
 20
-3959.931584894024
 30
0.0
 11
6222.862652708696
 21
-3959.931584894024
 31
0.0
  0
LINE
  5
5B644
330
4C1BC
100
AcDbEntity
  8
AM_5
100
AcDbLine
 10
6216.362652708696
 20
-3959.931584894024
 30
0.0
 11
6208.669319375363
 21
-3959.931584894024
 31
0.0
  0
LINE
  5
5B645
330
4C1BC
100
AcDbEntity
  8
AM_5
100
AcDbLine
 10
6220.862652708696
 20
-3959.931584894024
 30
0.0
 11
6217.362652708697
 21
-3959.931584894024
 31
0.0
  0
INSERT
  5
5B646
330
4C1BC
100
AcDbEntity
  8
AM_5
100
AcDbBlockReference
  2
_Dot
 10
6220.862652708696
 20
-3959.931584894024
 30
0.0
 50
180.0
  0
INSERT
  5
5B647
330
4C1BC
100
AcDbEntity
  8
AM_5
100
AcDbBlockReference
  2
_Dot
 10
6217.362652708697
 20
-3959.931584894024
 30
0.0
  0
MTEXT
  5
5B648
330
4C1BC
100
AcDbEntity
  8
AM_5
 62
     2
100
AcDbMText
 10
6212.01598604203
 20
-3957.331584894024
 30
0.0
 40
3.200000000000001
 41
0.0
 71
     5
 72
     1
  1
3.5
 73
     1
 44
1.0
1001
ACAD
1000
MTEXTBEGIN
1070
    73
1070
     1
1070
    44
1040
1.0
1070
    74
1070
     0
1000
MTEXTEND
  0
POINT
  5
5B649
330
4C1BC
100
AcDbEntity
  8
Defpoints
 62
     0
100
AcDbPoint
 10
6220.862652708696
 20
-3947.431584894025
 30
0.0
  0
POINT
  5
5B64A
330
4C1BC
100
AcDbEntity
  8
Defpoints
 62
     0
100
AcDbPoint
 10
6217.362652708697
 20
-3949.781584894025
 30
0.0
  0
POINT
  5
5B64B
330
4C1BC
100
AcDbEntity
  8
Defpoints
 62
     0
100
AcDbPoint
 10
6217.362652708697
 20
-3959.931584894024
 30
0.0
  0
ENDBLK
  5
4C1C9
330
4C1BC
100
AcDbEntity
  8
0
100
AcDbBlockEnd
  0
ENDSEC
  0
SECTION
  2
ENTITIES
  0
TEXT
  5
31B30
330
1F
100
AcDbEntity
  8
AM_6
 60
     1
100
AcDbText
 10
3408.785415022811
 20
1879.970675238635
 30
0.0
 40
2.5
  1
!GENTITLE-INSERT
100
AcDbText
  0
TEXT
  5
31B31
330
1F
100
AcDbEntity
  8
AM_6
 60
     1
100
AcDbText
 10
3000.285415022811
 20
1871.470675238635
 30
0.0
 40
2.5
  1
!GENTITLE-LL
100
AcDbText
  0
TEXT
  5
31B32
330
1F
100
AcDbEntity
  8
AM_6
 60
     1
100
AcDbText
 10
3420.285415022811
 20
2168.470675238635
 30
0.0
 40
2.5
  1
!GENTITLE-RU
100
AcDbText
  0
TEXT
  5
31B33
330
1F
100
AcDbEntity
  8
AM_6
 60
     1
100
AcDbText
 10
3420.285415022811
 20
2168.470675238635
 30
0.0
 40
2.5
  1
!GENTITLE-MAX
100
AcDbText
  0
TEXT
  5
31B3B
330
1F
100
AcDbEntity
  8
AM_6
 60
     1
100
AcDbText
 10
3000.285415022811
 20
1871.470675238635
 30
0.0
 40
2.5
  1
!GENTITLE-LL
100
AcDbText
  0
TEXT
  5
31B3C
330
1F
100
AcDbEntity
  8
AM_6
 60
     1
100
AcDbText
 10
3408.785415022811
 20
2159.970675238636
 30
0.0
 40
2.5
  1
!GENTITLE-RU
100
AcDbText
  0
TEXT
  5
31B3D
330
1F
100
AcDbEntity
  8
AM_6
 60
     1
100
AcDbText
 10
3420.285415022811
 20
2168.470675238635
 30
0.0
 40
2.5
  1
!GENTITLE-MAX
100
AcDbText
  0
TEXT
  5
31B3E
330
1F
100
AcDbEntity
  8
AM_6
 60
     1
100
AcDbText
 10
3408.785415022811
 20
1879.970675238635
 30
0.0
 40
2.5
  1
!GENTITLE-INSERT
100
AcDbText
  0
TEXT
  5
32D1D
330
1F
100
AcDbEntity
  8
AM_6
 60
     1
100
AcDbText
 10
3234.949399973154
 20
1839.277532086519
 30
0.0
 40
2.5
  1
!GENTITLE-INSERT
100
AcDbText
  0
TEXT
  5
32D1E
330
1F
100
AcDbEntity
  8
AM_6
 60
     1
100
AcDbText
 10
3246.449399973154
 20
2040.77753208652
 30
0.0
 40
2.5
  1
!GENTITLE-MAX
100
AcDbText
  0
TEXT
  5
32D1F
330
1F
100
AcDbEntity
  8
AM_6
 60
     1
100
AcDbText
 10
3246.449399973154
 20
2040.77753208652
 30
0.0
 40
2.5
  1
!GENTITLE-RU
100
AcDbText
  0
TEXT
  5
32D21
330
1F
100
AcDbEntity
  8
AM_6
 60
     1
100
AcDbText
 10
2949.449399973154
 20
1830.777532086519
 30
0.0
 40
2.5
  1
!GENTITLE-LL
100
AcDbText
  0
TEXT
  5
34534
330
1F
100
AcDbEntity
  8
AM_6
 60
     1
100
AcDbText
 10
3774.506320898737
 20
958.0958490755065
 30
0.0
 40
2.5
  1
!GENTITLE-INSERT
100
AcDbText
  0
TEXT
  5
34535
330
1F
100
AcDbEntity
  8
AM_6
 60
     1
100
AcDbText
 10
3786.006320898738
 20
1159.595849075506
 30
0.0
 40
2.5
  1
!GENTITLE-MAX
100
AcDbText
  0
TEXT
  5
34536
330
1F
100
AcDbEntity
  8
AM_6
 60
     1
100
AcDbText
 10
3786.006320898738
 20
1159.595849075506
 30
0.0
 40
2.5
  1
!GENTITLE-RU
100
AcDbText
  0
TEXT
  5
34538
330
1F
100
AcDbEntity
  8
AM_6
 60
     1
100
AcDbText
 10
3489.006320898738
 20
949.5958490755064
 30
0.0
 40
2.5
  1
!GENTITLE-LL
100
AcDbText
  0
LINE
  5
427E6
330
1F
100
AcDbEntity
  8
size
100
AcDbLine
 10
6074.924675701049
 20
-3783.255300472967
 30
0.0
 11
6371.924675701049
 21
-3783.255300472967
 31
0.0
1001
GENIUS_GENREC_14
1002
{
1000
PYDIR
1011
6074.924675701049
1021
-3696.255300472967
1031
0.0
1002
}
1002
{
1000
PXDIR
1011
6494.924675701049
1021
-3993.255300472967
1031
0.0
1002
}
1002
{
1000
PORI
1011
6074.924675701049
1021
-3993.255300472967
1031
0.0
1002
}
1002
{
1000
PINS
1011
6284.924675701049
1021
-3844.755300472967
1031
0.0
1002
}
1002
{
1000
HVAL
1000
297
1002
}
1002
{
1000
H
1070
     2
1002
}
1002
{
1000
WVAL
1000
420
1002
}
1002
{
1000
W
1070
     2
1002
}
1002
{
1000
C
1070
     4
1002
}
1001
GENIUS_GENOBJ-N-REC_13
1002
{
1000
OWNER
1000
GEN
1002
}
1001
GENIUS_GENODEF_13
1002
{
1000
HIER
1070
     0
1002
}
1002
{
1000
MANEDIT
1070
     0
1002
}
1002
{
1000
NOSEL
1070
     0
1002
}
1002
{
1000
BEHIND
1070
     0
1002
}
1002
{
1000
OTHER
1070
     0
1002
}
1002
{
1000
REACTOR
1002
}
  0
LINE
  5
427E7
330
1F
100
AcDbEntity
  8
size
100
AcDbLine
 10
6371.924675701049
 20
-3783.255300472967
 30
0.0
 11
6371.924675701049
 21
-3993.255300472967
 31
0.0
1001
GENIUS_GENREC_14
1002
{
1000
PYDIR
1011
6074.924675701049
1021
-3696.255300472967
1031
0.0
1002
}
1002
{
1000
PXDIR
1011
6494.924675701049
1021
-3993.255300472967
1031
0.0
1002
}
1002
{
1000
PORI
1011
6074.924675701049
1021
-3993.255300472967
1031
0.0
1002
}
1002
{
1000
PINS
1011
6284.924675701049
1021
-3844.755300472967
1031
0.0
1002
}
1002
{
1000
HVAL
1000
297
1002
}
1002
{
1000
H
1070
     2
1002
}
1002
{
1000
WVAL
1000
420
1002
}
1002
{
1000
W
1070
     2
1002
}
1002
{
1000
C
1070
     4
1002
}
1001
GENIUS_GENOBJ-N-REC_13
1002
{
1000
OWNER
1000
GEN
1002
}
1001
GENIUS_GENODEF_13
1002
{
1000
HIER
1070
     0
1002
}
1002
{
1000
MANEDIT
1070
     0
1002
}
1002
{
1000
NOSEL
1070
     0
1002
}
1002
{
1000
BEHIND
1070
     0
1002
}
1002
{
1000
OTHER
1070
     0
1002
}
1002
{
1000
REACTOR
1002
}
  0
LINE
  5
427E8
330
1F
100
AcDbEntity
  8
waku
100
AcDbLine
 10
6086.424675701049
 20
-3984.755300472967
 30
0.0
 11
6360.42467570105
 21
-3984.755300472967
 31
0.0
1001
GENIUS_GENREC_14
1002
{
1000
PYDIR
1011
6074.924675701049
1021
-3696.255300472967
1031
0.0
1002
}
1002
{
1000
PXDIR
1011
6494.924675701049
1021
-3993.255300472967
1031
0.0
1002
}
1002
{
1000
PORI
1011
6074.924675701049
1021
-3993.255300472967
1031
0.0
1002
}
1002
{
1000
PINS
1011
6284.924675701049
1021
-3844.755300472967
1031
0.0
1002
}
1002
{
1000
HVAL
1000
297
1002
}
1002
{
1000
H
1070
     2
1002
}
1002
{
1000
WVAL
1000
420
1002
}
1002
{
1000
W
1070
     2
1002
}
1002
{
1000
C
1070
     4
1002
}
  0
LINE
  5
427E9
330
1F
100
AcDbEntity
  8
waku
100
AcDbLine
 10
6360.42467570105
 20
-3791.755300472967
 30
0.0
 11
6086.424675701049
 21
-3791.755300472967
 31
0.0
1001
GENIUS_GENREC_14
1002
{
1000
PYDIR
1011
5951.92467570105
1021
-3783.255300472967
1031
0.0
1002
}
1002
{
1000
PXDIR
1011
6371.924675701049
1021
-4080.255300472967
1031
0.0
1002
}
1002
{
1000
PORI
1011
5951.92467570105
1021
-4080.255300472967
1031
0.0
1002
}
1002
{
1000
PINS
1011
6161.92467570105
1021
-3931.755300472968
1031
0.0
1002
}
1002
{
1000
HVAL
1000
297
1002
}
1002
{
1000
H
1070
     2
1002
}
1002
{
1000
WVAL
1000
420
1002
}
1002
{
1000
W
1070
     2
1002
}
1002
{
1000
C
1070
     4
1002
}
1001
GENIUS_GENOBJ-N-REC_13
1002
{
1000
OWNER
1000
GEN
1002
}
1001
GENIUS_GENODEF_13
1002
{
1000
HIER
1070
     0
1002
}
1002
{
1000
MANEDIT
1070
     0
1002
}
1002
{
1000
NOSEL
1070
     0
1002
}
1002
{
1000
BEHIND
1070
     0
1002
}
1002
{
1000
OTHER
1070
     0
1002
}
1002
{
1000
REACTOR
1002
}
  0
LINE
  5
427EA
330
1F
100
AcDbEntity
  8
waku
100
AcDbLine
 10
6086.424675701049
 20
-3791.755300472967
 30
0.0
 11
6086.424675701049
 21
-3984.755300472967
 31
0.0
1001
GENIUS_GENREC_14
1002
{
1000
PYDIR
1011
6074.924675701049
1021
-3696.255300472967
1031
0.0
1002
}
1002
{
1000
PXDIR
1011
6494.924675701049
1021
-3993.255300472967
1031
0.0
1002
}
1002
{
1000
PORI
1011
6074.924675701049
1021
-3993.255300472967
1031
0.0
1002
}
1002
{
1000
PINS
1011
6284.924675701049
1021
-3844.755300472967
1031
0.0
1002
}
1002
{
1000
HVAL
1000
297
1002
}
1002
{
1000
H
1070
     2
1002
}
1002
{
1000
WVAL
1000
420
1002
}
1002
{
1000
W
1070
     2
1002
}
1002
{
1000
C
1070
     4
1002
}
1001
GENIUS_GENOBJ-N-REC_13
1002
{
1000
OWNER
1000
GEN
1002
}
1001
GENIUS_GENODEF_13
1002
{
1000
HIER
1070
     0
1002
}
1002
{
1000
MANEDIT
1070
     0
1002
}
1002
{
1000
NOSEL
1070
     0
1002
}
1002
{
1000
BEHIND
1070
     0
1002
}
1002
{
1000
OTHER
1070
     0
1002
}
1002
{
1000
REACTOR
1002
}
  0
LINE
  5
427EB
330
1F
100
AcDbEntity
  8
waku
100
AcDbLine
 10
6360.42467570105
 20
-3984.755300472967
 30
0.0
 11
6360.42467570105
 21
-3791.755300472967
 31
0.0
1001
GENIUS_GENREC_14
1002
{
1000
PYDIR
1011
5951.92467570105
1021
-3777.255300472968
1031
0.0
1002
}
1002
{
1000
PXDIR
1011
6371.924675701049
1021
-4074.255300472967
1031
0.0
1002
}
1002
{
1000
PORI
1011
5951.92467570105
1021
-4074.255300472967
1031
0.0
1002
}
1002
{
1000
PINS
1011
6161.92467570105
1021
-3925.755300472967
1031
0.0
1002
}
1002
{
1000
HVAL
1000
297
1002
}
1002
{
1000
H
1070
     2
1002
}
1002
{
1000
WVAL
1000
420
1002
}
1002
{
1000
W
1070
     2
1002
}
1002
{
1000
C
1070
     4
1002
}
1001
GENIUS_GENOBJ-N-REC_13
1002
{
1000
OWNER
1000
GEN
1002
}
1001
GENIUS_GENODEF_13
1002
{
1000
HIER
1070
     0
1002
}
1002
{
1000
MANEDIT
1070
     0
1002
}
1002
{
1000
NOSEL
1070
     0
1002
}
1002
{
1000
BEHIND
1070
     0
1002
}
1002
{
1000
OTHER
1070
     0
1002
}
1002
{
1000
REACTOR
1002
}
  0
LINE
  5
427EC
330
1F
100
AcDbEntity
  8
size
100
AcDbLine
 10
6074.924675701049
 20
-3783.255300472967
 30
0.0
 11
6074.924675701049
 21
-3993.255300472967
 31
0.0
1001
GENIUS_GENREC_14
1002
{
1000
PYDIR
1011
6074.924675701049
1021
-3696.255300472967
1031
0.0
1002
}
1002
{
1000
PXDIR
1011
6494.924675701049
1021
-3993.255300472967
1031
0.0
1002
}
1002
{
1000
PORI
1011
6074.924675701049
1021
-3993.255300472967
1031
0.0
1002
}
1002
{
1000
PINS
1011
6284.924675701049
1021
-3844.755300472967
1031
0.0
1002
}
1002
{
1000
HVAL
1000
297
1002
}
1002
{
1000
H
1070
     2
1002
}
1002
{
1000
WVAL
1000
420
1002
}
1002
{
1000
W
1070
     2
1002
}
1002
{
1000
C
1070
     4
1002
}
1001
GENIUS_GENOBJ-N-REC_13
1002
{
1000
OWNER
1000
GEN
1002
}
1001
GENIUS_GENODEF_13
1002
{
1000
HIER
1070
     0
1002
}
1002
{
1000
MANEDIT
1070
     0
1002
}
1002
{
1000
NOSEL
1070
     0
1002
}
1002
{
1000
BEHIND
1070
     0
1002
}
1002
{
1000
OTHER
1070
     0
1002
}
1002
{
1000
REACTOR
1002
}
  0
LINE
  5
427ED
330
1F
100
AcDbEntity
  8
size
100
AcDbLine
 10
6074.924675701049
 20
-3993.255300472967
 30
0.0
 11
6371.924675701049
 21
-3993.255300472967
 31
0.0
1001
GENIUS_GENREC_14
1002
{
1000
PYDIR
1011
6074.924675701049
1021
-3696.255300472967
1031
0.0
1002
}
1002
{
1000
PXDIR
1011
6494.924675701049
1021
-3993.255300472967
1031
0.0
1002
}
1002
{
1000
PORI
1011
6074.924675701049
1021
-3993.255300472967
1031
0.0
1002
}
1002
{
1000
PINS
1011
6284.924675701049
1021
-3844.755300472967
1031
0.0
1002
}
1002
{
1000
HVAL
1000
297
1002
}
1002
{
1000
H
1070
     2
1002
}
1002
{
1000
WVAL
1000
420
1002
}
1002
{
1000
W
1070
     2
1002
}
1002
{
1000
C
1070
     4
1002
}
1001
GENIUS_GENOBJ-N-REC_13
1002
{
1000
OWNER
1000
GEN
1002
}
1001
GENIUS_GENODEF_13
1002
{
1000
HIER
1070
     0
1002
}
1002
{
1000
MANEDIT
1070
     0
1002
}
1002
{
1000
NOSEL
1070
     0
1002
}
1002
{
1000
BEHIND
1070
     0
1002
}
1002
{
1000
OTHER
1070
     0
1002
}
1002
{
1000
REACTOR
1002
}
  0
LINE
  5
427EE
330
1F
100
AcDbEntity
  8
AM_5
370
    13
100
AcDbLine
 10
6106.424675701049
 20
-3791.755300472967
 30
0.0
 11
6106.424675701048
 21
-3823.755300472967
 31
0.0
  0
LINE
  5
427EF
330
1F
100
AcDbEntity
  8
AM_5
370
    13
100
AcDbLine
 10
6086.424675701049
 20
-3799.755300472968
 30
0.0
 11
6173.424675701049
 21
-3799.755300472968
 31
0.0
  0
LINE
  5
427F0
330
1F
100
AcDbEntity
  8
AM_5
370
    13
100
AcDbLine
 10
6086.424675701049
 20
-3807.755300472967
 30
0.0
 11
6173.424675701049
 21
-3807.755300472967
 31
0.0
  0
LINE
  5
427F1
330
1F
100
AcDbEntity
  8
AM_5
370
    13
100
AcDbLine
 10
6086.424675701049
 20
-3815.755300472967
 30
0.0
 11
6173.424675701049
 21
-3815.755300472967
 31
0.0
  0
LINE
  5
427F2
330
1F
100
AcDbEntity
  8
AM_0
  6
中線
 48
0.5
370
    30
100
AcDbLine
 10
6086.424675701049
 20
-3823.755300472967
 30
0.0
 11
6173.424675701049
 21
-3823.755300472967
 31
0.0
  0
LINE
  5
427F3
330
1F
100
AcDbEntity
  8
AM_0
  6
中線
 48
0.5
370
    30
100
AcDbLine
 10
6086.424675701049
 20
-3791.755300472967
 30
0.0
 11
6086.42467570105
 21
-3823.755300472967
 31
0.0
  0
LINE
  5
427F4
330
1F
100
AcDbEntity
  8
AM_0
  6
中線
 48
0.5
370
    30
100
AcDbLine
 10
6086.424675701049
 20
-3791.755300472967
 30
0.0
 11
6173.424675701049
 21
-3791.755300472967
 31
0.0
  0
LINE
  5
427F5
330
1F
100
AcDbEntity
  8
AM_0
  6
中線
 48
0.5
370
    30
100
AcDbLine
 10
6173.424675701049
 20
-3791.755300472967
 30
0.0
 11
6173.424675701048
 21
-3823.755300472967
 31
0.0
  0
TEXT
  5
427F6
330
1F
100
AcDbEntity
  8
AM_6
100
AcDbText
 10
6092.08167570105
 20
-3797.355300472967
 30
0.0
 40
3.2
  1
品　名
 41
0.85537027
100
AcDbText
  0
TEXT
  5
427F7
330
1F
100
AcDbEntity
  8
AM_6
100
AcDbText
 10
6092.08167570105
 20
-3805.355300472967
 30
0.0
 40
3.2
  1
品　番
 41
0.85537027
100
AcDbText
  0
TEXT
  5
427F8
330
1F
100
AcDbEntity
  8
AM_6
100
AcDbText
 10
6092.08167570105
 20
-3813.355300472968
 30
0.0
 40
3.2
  1
材　質
 41
0.85537027
100
AcDbText
  0
TEXT
  5
427F9
330
1F
100
AcDbEntity
  8
AM_6
100
AcDbText
 10
6092.08167570105
 20
-3821.355300472968
 30
0.0
 40
3.2
  1
仕上げ
 41
0.85537027
100
AcDbText
  0
TEXT
  5
427FA
330
1F
100
AcDbEntity
  8
AM_6
100
AcDbText
 10
6109.281675701049
 20
-3797.355300472967
 30
0.0
 40
3.2
  1
角型パチン錠
 41
0.84306961
100
AcDbText
  0
TEXT
  5
427FB
330
1F
100
AcDbEntity
  8
AM_6
100
AcDbText
 10
6109.281675701049
 20
-3805.355300472967
 30
0.0
 40
3.2
  1
ELP-117S
 41
0.84741102
100
AcDbText
  0
TEXT
  5
427FC
330
1F
100
AcDbEntity
  8
AM_6
100
AcDbText
 10
6109.281675701049
 20
-3813.355300472968
 30
0.0
 40
3.2
  1
ステンレス
 41
0.84634979
100
AcDbText
  0
TEXT
  5
427FD
330
1F
100
AcDbEntity
  8
AM_6
100
AcDbText
 10
6109.281675701049
 20
-3821.355300472968
 30
0.0
 40
3.2
  1
バレル研磨
 41
0.84350122
100
AcDbText
  0
LINE
  5
4BC19
330
1F
100
AcDbEntity
  8
AM_0
  6
中線
 48
0.5
370
    30
100
AcDbLine
 10
6208.362652708697
 20
-3840.513072161681
 30
0.0
 11
6208.362652708697
 21
-3865.513072161681
 31
0.0
  0
LINE
  5
4BC1A
330
1F
100
AcDbEntity
  8
AM_0
  6
中線
 48
0.5
370
    30
100
AcDbLine
 10
6209.862652708697
 20
-3867.26307216168
 30
0.0
 11
6237.862652708696
 21
-3867.26307216168
 31
0.0
  0
LINE
  5
4BC1B
330
1F
100
AcDbEntity
  8
AM_0
  6
中線
 48
0.5
370
    30
100
AcDbLine
 10
6246.362652708697
 20
-3865.01307216168
 30
0.0
 11
6246.362652708697
 21
-3841.013072161681
 31
0.0
  0
LINE
  5
4BC1C
330
1F
100
AcDbEntity
  8
AM_0
  6
中線
 48
0.5
370
    30
100
AcDbLine
 10
6237.862652708696
 20
-3838.763072161681
 30
0.0
 11
6209.862652708697
 21
-3838.763072161681
 31
0.0
  0
LINE
  5
4BC1E
330
1F
100
AcDbEntity
  8
AM_0
  6
中線
 48
0.5
370
    30
100
AcDbLine
 10
6228.362652708696
 20
-3866.51307216168
 30
0.0
 11
6244.862652708697
 21
-3866.51307216168
 31
0.0
  0
LINE
  5
4BC1F
330
1F
100
AcDbEntity
  8
AM_0
  6
中線
 48
0.5
370
    30
100
AcDbLine
 10
6244.862652708697
 20
-3839.513072161681
 30
0.0
 11
6228.362652708696
 21
-3839.513072161681
 31
0.0
  0
LINE
  5
4BC20
330
1F
100
AcDbEntity
  8
AM_0
  6
中線
 48
0.5
370
    30
100
AcDbLine
 10
6236.612652708696
 20
-3868.263072161681
 30
0.0
 11
6236.612652708696
 21
-3867.26307216168
 31
0.0
  0
LINE
  5
4BC21
330
1F
100
AcDbEntity
  8
AM_0
  6
中線
 48
0.5
370
    30
100
AcDbLine
 10
6233.112652708697
 20
-3868.263072161681
 30
0.0
 11
6233.112652708697
 21
-3867.26307216168
 31
0.0
  0
LINE
  5
4BC22
330
1F
100
AcDbEntity
  8
AM_0
  6
中線
 48
0.5
370
    30
100
AcDbLine
 10
6236.612652708696
 20
-3837.76307216168
 30
0.0
 11
6233.112652708697
 21
-3837.76307216168
 31
0.0
  0
LINE
  5
4BC23
330
1F
100
AcDbEntity
  8
AM_0
  6
中線
 48
0.5
370
    30
100
AcDbLine
 10
6233.112652708697
 20
-3868.263072161681
 30
0.0
 11
6236.612652708696
 21
-3868.263072161681
 31
0.0
  0
LINE
  5
4BC24
330
1F
100
AcDbEntity
  8
AM_0
  6
中線
 48
0.5
370
    30
100
AcDbLine
 10
6233.112652708697
 20
-3838.763072161681
 30
0.0
 11
6233.112652708697
 21
-3837.76307216168
 31
0.0
  0
LINE
  5
4BC25
330
1F
100
AcDbEntity
  8
AM_0
  6
中線
 48
0.5
370
    30
100
AcDbLine
 10
6236.612652708696
 20
-3838.763072161681
 30
0.0
 11
6236.612652708696
 21
-3837.76307216168
 31
0.0
  0
ARC
  5
4BC27
330
1F
100
AcDbEntity
  8
AM_0
  6
中線
 48
0.5
370
    30
100
AcDbCircle
 10
6209.987652708696
 20
-3840.388072161681
 30
0.0
 40
1.629800600999999
100
AcDbArc
 50
94.39870535502276
 51
184.3987053549967
  0
ARC
  5
4BC28
330
1F
100
AcDbEntity
  8
AM_0
  6
中線
 48
0.5
370
    30
100
AcDbCircle
 10
6209.987652708696
 20
-3865.638072161681
 30
0.0
 40
1.629800600999999
100
AcDbArc
 50
175.6012946450033
 51
265.6012946449772
  0
ARC
  5
4BC29
330
1F
100
AcDbEntity
  8
AM_0
  6
中線
 48
0.5
370
    30
100
AcDbCircle
 10
6244.862652708697
 20
-3841.013072161681
 30
0.0
 40
1.5
100
AcDbArc
 50
0.0
 51
90.0
  0
ARC
  5
4BC2A
330
1F
100
AcDbEntity
  8
AM_0
  6
中線
 48
0.5
370
    30
100
AcDbCircle
 10
6244.862652708697
 20
-3865.01307216168
 30
0.0
 40
1.5
100
AcDbArc
 50
270.0
 51
0.0
  0
LINE
  5
4BC2B
330
1F
100
AcDbEntity
  8
AM_0
  6
中線
 48
0.5
370
    30
100
AcDbLine
 10
6212.362652708696
 20
-3894.674967998188
 30
0.0
 11
6220.862652708696
 21
-3894.674967998188
 31
0.0
  0
CIRCLE
  5
4BC2E
330
1F
100
AcDbEntity
  8
AM_0
  6
中線
 48
0.5
370
    30
100
AcDbCircle
 10
6234.861971054696
 20
-3890.674967998188
 30
0.0
 40
1.0
  0
LINE
  5
4BC2F
330
1F
100
AcDbEntity
  8
AM_0
  6
中線
 48
0.5
370
    30
100
AcDbLine
 10
6242.862652708696
 20
-3893.674967998188
 30
0.0
 11
6242.862652708696
 21
-3894.674967998188
 31
0.0
  0
LINE
  5
4BC30
330
1F
100
AcDbEntity
  8
AM_0
  6
中線
 48
0.5
370
    30
100
AcDbLine
 10
6237.862652708696
 20
-3867.26307216168
 30
0.0
 11
6237.862652708696
 21
-3866.51307216168
 31
0.0
  0
LINE
  5
4BC31
330
1F
100
AcDbEntity
  8
AM_0
  6
中線
 48
0.5
370
    30
100
AcDbLine
 10
6237.862652708696
 20
-3839.513072161681
 30
0.0
 11
6237.862652708696
 21
-3838.763072161681
 31
0.0
  0
LINE
  5
4BC32
330
1F
100
AcDbEntity
  8
AM_7
  6
中心線1
 48
0.3
370
    13
100
AcDbLine
 10
6217.362652708697
 20
-3890.674967997976
 30
0.0
 11
6217.362652708697
 21
-3897.674967998188
 31
0.0
  0
LINE
  5
4BC33
330
1F
100
AcDbEntity
  8
AM_0
  6
中線
 48
0.5
370
    30
100
AcDbLine
 10
6222.862652708696
 20
-3893.674967998188
 30
0.0
 11
6242.862652708696
 21
-3893.674967998188
 31
0.0
  0
ARC
  5
4BC34
330
1F
100
AcDbEntity
  8
AM_0
  6
中線
 48
0.5
370
    30
100
AcDbCircle
 10
6210.111971054697
 20
-3891.949617234188
 30
0.0
 40
1.75
100
AcDbArc
 50
96.08427920802169
 51
279.6278967580154
  0
LINE
  5
4BC35
330
1F
100
AcDbEntity
  8
AM_0
  6
中線
 48
0.5
370
    30
100
AcDbLine
 10
6228.362652708696
 20
-3838.763072161681
 30
0.0
 11
6228.362652708696
 21
-3867.26307216168
 31
0.0
  0
ARC
  5
4BC36
330
1F
100
AcDbEntity
  8
AM_0
  6
中線
 48
0.5
370
    30
100
AcDbCircle
 10
6229.861971054696
 20
-3885.174967998188
 30
0.0
 40
1.5
100
AcDbArc
 50
180.0
 51
254.8306791690008
  0
ARC
  5
4BC37
330
1F
100
AcDbEntity
  8
AM_0
  6
中線
 48
0.5
370
    30
100
AcDbCircle
 10
6236.497022868697
 20
-3951.235122160188
 30
0.0
 40
66.559169435
100
AcDbArc
 50
97.02040736399139
 51
113.5282850929823
  0
ARC
  5
4BC38
330
1F
100
AcDbEntity
  8
AM_0
  6
中線
 48
0.5
370
    30
100
AcDbCircle
 10
6234.218540997696
 20
-3891.174967998188
 30
0.0
 40
2.5
100
AcDbArc
 50
270.0
 51
68.63006206800783
  0
LINE
  5
4BC39
330
1F
100
AcDbEntity
  8
AM_0
  6
中線
 48
0.5
370
    30
100
AcDbLine
 10
6229.315388715696
 20
-3886.571838696188
 30
0.0
 11
6235.129511561695
 21
-3888.846850168187
 31
0.0
  0
ARC
  5
4BC3A
330
1F
100
AcDbEntity
  8
AM_0
  6
中線
 48
0.5
370
    30
100
AcDbCircle
 10
6241.605261835696
 20
-3969.418696264187
 30
0.0
 40
84.31668139699999
100
AcDbArc
 50
87.61639568798569
 51
98.81784751098699
  0
ARC
  5
4BC3B
330
1F
100
AcDbEntity
  8
AM_0
  6
中線
 48
0.5
370
    30
100
AcDbCircle
 10
6245.111971054696
 20
-3886.424967998188
 30
0.0
 40
1.25
100
AcDbArc
 50
282.4404993460226
 51
90.0
  0
LINE
  5
4BC3C
330
1F
100
AcDbEntity
  8
AM_0
  6
中線
 48
0.5
370
    30
100
AcDbLine
 10
6241.979789013696
 20
-3893.674967998188
 30
0.0
 11
6243.436989934696
 21
-3889.794397295187
 31
0.0
  0
ARC
  5
4BC3D
330
1F
100
AcDbEntity
  8
AM_0
  6
中線
 48
0.5
370
    30
100
AcDbCircle
 10
6245.919817171696
 20
-3890.086918933188
 30
0.0
 40
2.5
100
AcDbArc
 50
102.4404993460225
 51
173.2805051929954
  0
LINE
  5
4BC3E
330
1F
100
AcDbEntity
  8
AM_0
  6
中線
 48
0.5
370
    30
100
AcDbLine
 10
6237.862652708696
 20
-3924.181584894024
 30
0.0
 11
6237.862652708696
 21
-3923.431584894024
 31
0.0
  0
LINE
  5
4BC3F
330
1F
100
AcDbEntity
  8
AM_0
  6
中線
 48
0.5
370
    30
100
AcDbLine
 10
6237.862652708696
 20
-3951.931584894025
 30
0.0
 11
6237.862652708696
 21
-3951.181584894025
 31
0.0
  0
ARC
  5
4BC40
330
1F
100
AcDbEntity
  8
AM_0
  6
中線
 48
0.5
370
    30
100
AcDbCircle
 10
6244.862652708697
 20
-3949.681584894025
 30
0.0
 40
1.5
100
AcDbArc
 50
270.0
 51
0.0
  0
ARC
  5
4BC42
330
1F
100
AcDbEntity
  8
AM_0
  6
中線
 48
0.5
370
    30
100
AcDbCircle
 10
6209.987652708696
 20
-3950.306584894025
 30
0.0
 40
1.629800600999999
100
AcDbArc
 50
175.6012946450033
 51
265.6012946449772
  0
ARC
  5
4BC43
330
1F
100
AcDbEntity
  8
AM_0
  6
中線
 48
0.5
370
    30
100
AcDbCircle
 10
6209.987652708696
 20
-3925.056584894024
 30
0.0
 40
1.629800600999999
100
AcDbArc
 50
94.39870535502276
 51
184.3987053549967
  0
LINE
  5
4BC44
330
1F
100
AcDbEntity
  8
AM_7
  6
中心線1
 48
0.5
370
    13
100
AcDbLine
 10
6249.362652708697
 20
-3937.681584894024
 30
0.0
 11
6205.362652708696
 21
-3937.681584894024
 31
0.0
  0
LINE
  5
4BC45
330
1F
100
AcDbEntity
  8
AM_0
  6
中線
 48
0.5
370
    30
100
AcDbLine
 10
6236.612652708696
 20
-3923.431584894024
 30
0.0
 11
6236.612652708696
 21
-3922.431584894024
 31
0.0
  0
LINE
  5
4BC46
330
1F
100
AcDbEntity
  8
AM_0
  6
中線
 48
0.5
370
    30
100
AcDbLine
 10
6233.112652708697
 20
-3923.431584894024
 30
0.0
 11
6233.112652708697
 21
-3922.431584894024
 31
0.0
  0
LINE
  5
4BC47
330
1F
100
AcDbEntity
  8
AM_0
  6
中線
 48
0.5
370
    30
100
AcDbLine
 10
6233.112652708697
 20
-3952.931584894024
 30
0.0
 11
6236.612652708696
 21
-3952.931584894024
 31
0.0
  0
LINE
  5
4BC48
330
1F
100
AcDbEntity
  8
AM_0
  6
中線
 48
0.5
370
    30
100
AcDbLine
 10
6236.612652708696
 20
-3922.431584894024
 30
0.0
 11
6233.112652708697
 21
-3922.431584894024
 31
0.0
  0
LINE
  5
4BC49
330
1F
100
AcDbEntity
  8
AM_0
  6
中線
 48
0.5
370
    30
100
AcDbLine
 10
6233.112652708697
 20
-3952.931584894024
 30
0.0
 11
6233.112652708697
 21
-3951.931584894025
 31
0.0
  0
LINE
  5
4BC4A
330
1F
100
AcDbEntity
  8
AM_0
  6
中線
 48
0.5
370
    30
100
AcDbLine
 10
6236.612652708696
 20
-3952.931584894024
 30
0.0
 11
6236.612652708696
 21
-3951.931584894025
 31
0.0
  0
LINE
  5
4BC4C
330
1F
100
AcDbEntity
  8
AM_0
  6
中線
 48
0.5
370
    30
100
AcDbLine
 10
6237.862652708696
 20
-3923.431584894024
 30
0.0
 11
6209.862652708697
 21
-3923.431584894024
 31
0.0
  0
LINE
  5
4BC4D
330
1F
100
AcDbEntity
  8
AM_0
  6
中線
 48
0.5
370
    30
100
AcDbLine
 10
6246.362652708697
 20
-3949.681584894025
 30
0.0
 11
6246.362652708695
 21
-3925.681584894024
 31
0.0
  0
LINE
  5
4BC4E
330
1F
100
AcDbEntity
  8
AM_0
  6
中線
 48
0.5
370
    30
100
AcDbLine
 10
6209.862652708697
 20
-3951.931584894025
 30
0.0
 11
6237.862652708696
 21
-3951.931584894025
 31
0.0
  0
LINE
  5
4BC4F
330
1F
100
AcDbEntity
  8
AM_0
  6
中線
 48
0.5
370
    30
100
AcDbLine
 10
6208.362652708697
 20
-3925.181584894024
 30
0.0
 11
6208.362652708697
 21
-3950.181584894024
 31
0.0
  0
CIRCLE
  5
4BC52
330
1F
100
AcDbEntity
  8
AM_0
  6
中線
 48
0.5
370
    30
100
AcDbCircle
 10
6217.362652708697
 20
-3929.181584894024
 30
0.0
 40
1.6
  0
LINE
  5
4BC53
330
1F
100
AcDbEntity
  8
AM_0
  6
中線
 48
0.5
370
    30
100
AcDbLine
 10
6212.862652708697
 20
-3932.611064598024
 30
0.0
 11
6212.862652707874
 21
-3942.752105189427
 31
0.0
  0
ARC
  5
4BC54
330
1F
100
AcDbEntity
  8
AM_0
  6
中線
 48
0.5
370
    30
100
AcDbCircle
 10
6205.698921615696
 20
-3932.473142531024
 30
0.0
 40
7.165058665
100
AcDbArc
 50
358.897030605997
 51
55.02844427398341
  0
LINE
  5
4BC55
330
1F
100
AcDbEntity
  8
AM_0
  6
中線
 48
0.5
370
    30
100
AcDbLine
 10
6220.866326004696
 20
-3928.056584894024
 30
0.0
 11
6220.862652708696
 21
-3947.431584894025
 31
0.0
  0
LINE
  5
4BC56
330
1F
100
AcDbEntity
  8
AM_7
  6
中心線1
 48
0.3
370
    13
100
AcDbLine
 10
6237.362652708696
 20
-3925.581584894024
 30
0.0
 11
6237.362652708696
 21
-3932.781584894025
 31
0.0
  0
LINE
  5
4BC57
330
1F
100
AcDbEntity
  8
AM_0
  6
中線
 48
0.5
370
    30
100
AcDbLine
 10
6242.862652708696
 20
-3926.681584894024
 30
0.0
 11
6242.862652708696
 21
-3937.681584894024
 31
0.0
  0
LINE
  5
4BC59
330
1F
100
AcDbEntity
  8
AM_0
  6
中線
 48
0.5
370
    30
100
AcDbLine
 10
6218.862652708697
 20
-3925.931584894024
 30
0.0
 11
6209.375585890306
 21
-3925.931584894024
 31
0.0
  0
ARC
  5
4BC5A
330
1F
100
AcDbEntity
  8
AM_0
  6
中線
 48
0.5
370
    30
100
AcDbCircle
 10
6218.737652708696
 20
-3928.056584894024
 30
0.0
 40
2.128673296
100
AcDbArc
 50
356.6335393369961
 51
86.6335393369961
  0
LINE
  5
4BC5B
330
1F
100
AcDbEntity
  8
AM_0
  6
中線
 48
0.5
370
    30
100
AcDbLine
 10
6241.362652708696
 20
-3925.181584894024
 30
0.0
 11
6233.297790850376
 21
-3925.181584894024
 31
0.0
  0
LINE
  5
4BC5C
330
1F
100
AcDbEntity
  8
AM_0
  6
中線
 48
0.5
370
    30
100
AcDbLine
 10
6244.862652708696
 20
-3924.181584894024
 30
0.0
 11
6231.169663239696
 21
-3924.181584894024
 31
0.0
  0
LINE
  5
4BC5D
330
1F
100
AcDbEntity
  8
AM_0
  6
中線
 48
0.5
370
    30
100
AcDbLine
 10
6244.862652708697
 20
-3924.981584894024
 30
0.0
 11
6231.351674642696
 21
-3924.981584894024
 31
0.0
  0
LINE
  5
4BC5E
330
1F
100
AcDbEntity
  8
AM_0
  6
中線
 48
0.5
370
    30
100
AcDbLine
 10
6209.362652708696
 20
-3925.431584894024
 30
0.0
 11
6209.362652708696
 21
-3925.771275518023
 31
0.0
  0
LINE
  5
4BC5F
330
1F
100
AcDbEntity
  8
AM_0
  6
中線
 48
0.5
370
    30
100
AcDbLine
 10
6244.862652708697
 20
-3924.981584894024
 30
0.0
 11
6242.147683318163
 21
-3925.403411610702
 31
0.0
  0
ARC
  5
4BC61
330
1F
100
AcDbEntity
  8
AM_0
  6
中線
 48
0.5
370
    30
100
AcDbCircle
 10
6230.362652708696
 20
-3928.431584894024
 30
0.0
 40
1.0
100
AcDbArc
 50
180.0
 51
335.031648683986
  0
LINE
  5
4BC62
330
1F
100
AcDbEntity
  8
AM_0
  6
中線
 48
0.5
370
    30
100
AcDbLine
 10
6229.362652708696
 20
-3928.431584894024
 30
0.0
 11
6222.862652708696
 21
-3928.431584894024
 31
0.0
  0
LINE
  5
4BC63
330
1F
100
AcDbEntity
  8
AM_0
  6
中線
 48
0.5
370
    30
100
AcDbLine
 10
6232.844520304411
 20
-3925.470526105625
 30
0.0
 11
6231.269193800696
 21
-3928.853702470024
 31
0.0
  0
LINE
  5
4BC64
330
1F
100
AcDbEntity
  8
AM_0
  6
中線
 48
0.5
370
    30
100
AcDbLine
 10
6224.862652708696
 20
-3928.431584894024
 30
0.0
 11
6224.862652708696
 21
-3929.364345276024
 31
0.0
  0
LINE
  5
4BC65
330
1F
100
AcDbEntity
  8
AM_0
  6
中線
 48
0.5
370
    30
100
AcDbLine
 10
6222.862652708696
 20
-3932.765049876024
 30
0.0
 11
6222.862652708696
 21
-3937.681584894024
 31
0.0
  0
LINE
  5
4BC66
330
1F
100
AcDbEntity
  8
AM_0
  6
中線
 48
0.5
370
    30
100
AcDbLine
 10
6224.487313618696
 20
-3930.356886377023
 30
0.0
 11
6223.237991798697
 21
-3931.772508775024
 31
0.0
  0
ARC
  5
4BC67
330
1F
100
AcDbEntity
  8
AM_0
  6
中線
 48
0.5
370
    30
100
AcDbCircle
 10
6224.362652708697
 20
-3932.765049876024
 30
0.0
 40
1.5
100
AcDbArc
 50
138.5707996520058
 51
180.0
  0
ARC
  5
4BC68
330
1F
100
AcDbEntity
  8
AM_0
  6
中線
 48
0.5
370
    30
100
AcDbCircle
 10
6223.362652708696
 20
-3929.364345276024
 30
0.0
 40
1.5
100
AcDbArc
 50
318.5707996520059
 51
0.0
  0
LINE
  5
4BC6B
330
1F
100
AcDbEntity
  8
AM_0
  6
中線
 48
0.5
370
    30
100
AcDbLine
 10
6222.862652708696
 20
-3933.681584894024
 30
0.0
 11
6222.062454457695
 21
-3934.282353616023
 31
0.0
  0
ARC
  5
4BC6C
330
1F
100
AcDbEntity
  8
AM_0
  6
中線
 48
0.5
370
    30
100
AcDbCircle
 10
6222.362652708696
 20
-3934.682204851024
 30
0.0
 40
0.5
100
AcDbArc
 50
126.8983002919841
 51
180.0
  0
LINE
  5
4BC6D
330
1F
100
AcDbEntity
  8
AM_0
  6
中線
 48
0.5
370
    30
100
AcDbLine
 10
6224.862652708696
 20
-3929.231584894024
 30
0.0
 11
6222.862652708696
 21
-3929.231584894024
 31
0.0
  0
LINE
  5
4BC6E
330
1F
100
AcDbEntity
  8
AM_0
  6
中線
 48
0.5
370
    30
100
AcDbLine
 10
6222.862652708696
 20
-3929.231584894024
 30
0.0
 11
6222.862652708696
 21
-3928.431584894024
 31
0.0
  0
LINE
  5
4BC6F
330
1F
100
AcDbEntity
  8
AM_0
  6
中線
 48
0.5
370
    30
100
AcDbLine
 10
6222.468568560696
 20
-3927.159958463024
 30
0.0
 11
6222.468568560696
 21
-3926.359958463024
 31
0.0
  0
LINE
  5
4BC70
330
1F
100
AcDbEntity
  8
AM_0
  6
中線
 48
0.5
370
    30
100
AcDbLine
 10
6222.468568560696
 20
-3926.359958463024
 30
0.0
 11
6225.558511547696
 21
-3926.359958463024
 31
0.0
  0
LINE
  5
4BC71
330
1F
100
AcDbEntity
  8
AM_0
  6
中線
 48
0.5
370
    30
100
AcDbLine
 10
6222.468568560696
 20
-3927.159958463024
 30
0.0
 11
6225.740522950696
 21
-3927.159958463024
 31
0.0
  0
LINE
  5
4BC72
330
1F
100
AcDbEntity
  8
AM_0
  6
中線
 48
0.5
370
    30
100
AcDbLine
 10
6229.871760705696
 20
-3924.476876220024
 30
0.0
 11
6227.289048259695
 21
-3925.716236695024
 31
0.0
  0
LINE
  5
4BC73
330
1F
100
AcDbEntity
  8
AM_0
  6
中線
 48
0.5
370
    30
100
AcDbLine
 10
6230.053772108696
 20
-3925.276876220023
 30
0.0
 11
6227.471059662697
 21
-3926.516236695024
 31
0.0
  0
ARC
  5
4BC74
330
1F
100
AcDbEntity
  8
AM_0
  6
中線
 48
0.5
370
    30
100
AcDbCircle
 10
6225.191106822697
 20
-3923.034958463024
 30
0.0
 40
4.161428009999999
100
AcDbArc
 50
277.5866749580205
 51
303.2215231809854
  0
ARC
  5
4BC75
330
1F
100
AcDbEntity
  8
AM_0
  6
中線
 48
0.5
370
    30
100
AcDbCircle
 10
6225.009095419696
 20
-3922.234958463024
 30
0.0
 40
4.161428009999999
100
AcDbArc
 50
277.5866749580205
 51
303.2215231809854
  0
ARC
  5
4BC76
330
1F
100
AcDbEntity
  8
AM_0
  6
中線
 48
0.5
370
    30
100
AcDbCircle
 10
6231.169663239696
 20
-3927.181584894024
 30
0.0
 40
3.0
100
AcDbArc
 50
90.0
 51
115.6348482240258
  0
ARC
  5
4BC77
330
1F
100
AcDbEntity
  8
AM_0
  6
中線
 48
0.5
370
    30
100
AcDbCircle
 10
6231.351674642696
 20
-3927.981584894024
 30
0.0
 40
3.0
100
AcDbArc
 50
90.0
 51
115.6348482240258
  0
ARC
  5
4BC78
330
1F
100
AcDbEntity
  8
AM_0
  6
中線
 48
0.5
370
    30
100
AcDbCircle
 10
6210.302884271696
 20
-3925.152333095024
 30
0.0
 40
0.9808246329999999
100
AcDbArc
 50
98.2199249490163
 51
196.5415889090044
  0
LINE
  5
4BC79
330
1F
100
AcDbEntity
  8
AM_0
  6
中線
 48
0.5
370
    30
100
AcDbLine
 10
6226.362652708696
 20
-3925.359958463024
 30
0.0
 11
6226.362652708696
 21
-3926.17010340925
 31
0.0
  0
LINE
  5
4BC7A
330
1F
100
AcDbEntity
  8
AM_0
  6
中線
 48
0.5
370
    30
100
AcDbLine
 10
6224.362652708697
 20
-3925.359958463024
 30
0.0
 11
6224.362652708697
 21
-3926.359958463024
 31
0.0
  0
LINE
  5
4BC7B
330
1F
100
AcDbEntity
  8
AM_0
  6
中線
 48
0.5
370
    30
100
AcDbLine
 10
6224.362652708697
 20
-3925.359958463024
 30
0.0
 11
6226.362652708696
 21
-3925.359958463024
 31
0.0
  0
LINE
  5
4BC7C
330
1F
100
AcDbEntity
  8
AM_0
  6
中線
 48
0.5
370
    30
100
AcDbLine
 10
6224.362652708697
 20
-3929.231584894024
 30
0.0
 11
6224.362652708697
 21
-3930.498141235024
 31
0.0
  0
LINE
  5
4BC7D
330
1F
100
AcDbEntity
  8
AM_0
  6
中線
 48
0.5
370
    30
100
AcDbLine
 10
6226.362652708695
 20
-3927.028072951667
 30
0.0
 11
6226.362652708696
 21
-3928.431584894024
 31
0.0
  0
LINE
  5
4BC7E
330
1F
100
AcDbEntity
  8
AM_0
  6
中線
 48
0.5
370
    30
100
AcDbLine
 10
6224.362652708697
 20
-3927.159958463024
 30
0.0
 11
6224.362652708697
 21
-3928.431584894024
 31
0.0
  0
ARC
  5
4BC7F
330
1F
100
AcDbEntity
  8
AM_0
  6
中線
 48
0.5
370
    30
100
AcDbCircle
 10
6210.362652708696
 20
-3925.771275518023
 30
0.0
 40
1.0
100
AcDbArc
 50
180.0
 51
236.1557957559881
  0
LINE
  5
4BC80
330
1F
100
AcDbEntity
  8
AM_0
  6
中線
 48
0.5
370
    30
100
AcDbLine
 10
6212.362652708696
 20
-3925.931584894024
 30
0.0
 11
6212.362652708696
 21
-3929.840130264992
 31
0.0
  0
LINE
  5
4BC81
330
1F
100
AcDbEntity
  8
AM_7
  6
中心線1
 48
0.3
370
    13
100
AcDbLine
 10
6240.962652708697
 20
-3929.181584894024
 30
0.0
 11
6233.762652708696
 21
-3929.181584894024
 31
0.0
  0
CIRCLE
  5
4BC82
330
1F
100
AcDbEntity
  8
AM_0
  6
中線
 48
0.5
370
    30
100
AcDbCircle
 10
6237.362652708696
 20
-3929.181584894024
 30
0.0
 40
1.6
  0
LINE
  5
4BC83
330
1F
100
AcDbEntity
  8
AM_0
  6
中線
 48
0.5
370
    30
100
AcDbLine
 10
6238.362652708697
 20
-3932.181584894024
 30
0.0
 11
6233.362652708696
 21
-3932.181584894024
 31
0.0
  0
LINE
  5
4BC84
330
1F
100
AcDbEntity
  8
AM_0
  6
中線
 48
0.5
370
    30
100
AcDbLine
 10
6239.862652708696
 20
-3933.681584894024
 30
0.0
 11
6239.862652708696
 21
-3941.681584894024
 31
0.0
  0
LINE
  5
4BC85
330
1F
100
AcDbEntity
  8
AM_0
  6
中線
 48
0.5
370
    30
100
AcDbLine
 10
6232.862652708696
 20
-3932.681584894024
 30
0.0
 11
6232.862652708696
 21
-3942.681584894025
 31
0.0
  0
LINE
  5
4BC86
330
1F
100
AcDbEntity
  8
AM_0
  6
中線
 48
0.5
370
    30
100
AcDbLine
 10
6237.862652708696
 20
-3934.181584894025
 30
0.0
 11
6232.862652708696
 21
-3934.181584894025
 31
0.0
  0
LINE
  5
4BC87
330
1F
100
AcDbEntity
  8
AM_0
  6
中線
 48
0.5
370
    30
100
AcDbLine
 10
6238.862652708696
 20
-3935.181584894024
 30
0.0
 11
6238.862652708696
 21
-3940.181584894025
 31
0.0
  0
ARC
  5
4BC88
330
1F
100
AcDbEntity
  8
AM_0
  6
中線
 48
0.5
370
    30
100
AcDbCircle
 10
6238.362652708697
 20
-3933.681584894024
 30
0.0
 40
1.5
100
AcDbArc
 50
0.0
 51
90.0
  0
ARC
  5
4BC89
330
1F
100
AcDbEntity
  8
AM_0
  6
中線
 48
0.5
370
    30
100
AcDbCircle
 10
6237.862652708696
 20
-3935.181584894024
 30
0.0
 40
1.0
100
AcDbArc
 50
0.0
 51
90.0
  0
LINE
  5
4BC8A
330
1F
100
AcDbEntity
  8
0部品2
  6
中心線1
 48
0.3
370
    13
100
AcDbLine
 10
6235.862652708696
 20
-3934.181584894025
 30
0.0
 11
6235.862652708696
 21
-3941.181584894025
 31
0.0
  0
CIRCLE
  5
4BC8C
330
1F
100
AcDbEntity
  8
AM_0
  6
中線
 48
0.5
370
    30
100
AcDbCircle
 10
6235.862652708696
 20
-3937.681584894024
 30
0.0
 40
1.5
  0
ARC
  5
4BC8D
330
1F
100
AcDbEntity
  8
AM_0
  6
中線
 48
0.5
370
    30
100
AcDbCircle
 10
6237.862652708696
 20
-3940.181584894025
 30
0.0
 40
1.0
100
AcDbArc
 50
270.0
 51
0.0
  0
ARC
  5
4BC8E
330
1F
100
AcDbEntity
  8
AM_0
  6
中線
 48
0.5
370
    30
100
AcDbCircle
 10
6238.362652708697
 20
-3941.681584894024
 30
0.0
 40
1.5
100
AcDbArc
 50
270.0
 51
0.0
  0
LINE
  5
4BC90
330
1F
100
AcDbEntity
  8
AM_0
  6
中線
 48
0.5
370
    30
100
AcDbLine
 10
6237.862652708696
 20
-3941.181584894025
 30
0.0
 11
6232.862652708696
 21
-3941.181584894025
 31
0.0
  0
LINE
  5
4BC93
330
1F
100
AcDbEntity
  8
AM_0
  6
中線
 48
0.5
370
    30
100
AcDbLine
 10
6238.362652708697
 20
-3943.181584894024
 30
0.0
 11
6233.362652708696
 21
-3943.181584894024
 31
0.0
  0
CIRCLE
  5
4BC94
330
1F
100
AcDbEntity
  8
AM_0
  6
中線
 48
0.5
370
    30
100
AcDbCircle
 10
6237.362652708696
 20
-3946.181584894024
 30
0.0
 40
1.6
  0
LINE
  5
4BC95
330
1F
100
AcDbEntity
  8
AM_7
  6
中心線1
 48
0.3
370
    13
100
AcDbLine
 10
6220.962652708696
 20
-3929.181584894024
 30
0.0
 11
6213.762652708695
 21
-3929.181584894024
 31
0.0
  0
LINE
  5
4BC96
330
1F
100
AcDbEntity
  8
AM_0
  6
中線
 48
0.5
370
    30
100
AcDbLine
 10
6212.362652708696
 20
-3949.431584894024
 30
0.0
 11
6212.362652708696
 21
-3945.321453585023
 31
0.0
  0
ARC
  5
4BC97
330
1F
100
AcDbEntity
  8
AM_0
  6
中線
 48
0.5
370
    30
100
AcDbCircle
 10
6210.162652708696
 20
-3949.591894270024
 30
0.0
 40
1.0
100
AcDbArc
 50
123.8442042440119
 51
180.0
  0
LINE
  5
4BC98
330
1F
100
AcDbEntity
  8
AM_0
  6
中線
 48
0.5
370
    30
100
AcDbLine
 10
6224.362652708697
 20
-3948.203211324024
 30
0.0
 11
6224.362652708697
 21
-3946.931584894024
 31
0.0
  0
LINE
  5
4BC99
330
1F
100
AcDbEntity
  8
AM_0
  6
中線
 48
0.5
370
    30
100
AcDbLine
 10
6226.362652708695
 20
-3948.335096835381
 30
0.0
 11
6226.362652708696
 21
-3946.931584894024
 31
0.0
  0
LINE
  5
4BC9A
330
1F
100
AcDbEntity
  8
AM_0
  6
中線
 48
0.5
370
    30
100
AcDbLine
 10
6224.362652708697
 20
-3946.131584894023
 30
0.0
 11
6224.362652708697
 21
-3944.865028553024
 31
0.0
  0
LINE
  5
4BC9B
330
1F
100
AcDbEntity
  8
AM_0
  6
中線
 48
0.5
370
    30
100
AcDbLine
 10
6224.362652708697
 20
-3950.003211324023
 30
0.0
 11
6226.362652708696
 21
-3950.003211324023
 31
0.0
  0
LINE
  5
4BC9C
330
1F
100
AcDbEntity
  8
AM_0
  6
中線
 48
0.5
370
    30
100
AcDbLine
 10
6224.362652708697
 20
-3950.003211324023
 30
0.0
 11
6224.362652708697
 21
-3949.003211324023
 31
0.0
  0
LINE
  5
4BC9D
330
1F
100
AcDbEntity
  8
AM_0
  6
中線
 48
0.5
370
    30
100
AcDbLine
 10
6226.362652708696
 20
-3950.003211324023
 30
0.0
 11
6226.362652708696
 21
-3949.193066377798
 31
0.0
  0
ARC
  5
4BC9E
330
1F
100
AcDbEntity
  8
AM_0
  6
中線
 48
0.5
370
    30
100
AcDbCircle
 10
6210.287652708696
 20
-3950.056584894024
 30
0.0
 40
1.131923141999999
100
AcDbArc
 50
173.6598082540032
 51
263.6598082540031
  0
ARC
  5
4BC9F
330
1F
100
AcDbEntity
  8
AM_0
  6
中線
 48
0.5
370
    30
100
AcDbCircle
 10
6231.351674642696
 20
-3947.381584894023
 30
0.0
 40
3.0
100
AcDbArc
 50
244.3651517759741
 51
270.0
  0
ARC
  5
4BCA0
330
1F
100
AcDbEntity
  8
AM_0
  6
中線
 48
0.5
370
    30
100
AcDbCircle
 10
6231.169663239696
 20
-3948.181584894025
 30
0.0
 40
3.0
100
AcDbArc
 50
244.3651517759741
 51
270.0
  0
ARC
  5
4BCA1
330
1F
100
AcDbEntity
  8
AM_0
  6
中線
 48
0.5
370
    30
100
AcDbCircle
 10
6225.009095419696
 20
-3953.128211324023
 30
0.0
 40
4.161428009999999
100
AcDbArc
 50
56.7784768190146
 51
82.41332504297487
  0
ARC
  5
4BCA2
330
1F
100
AcDbEntity
  8
AM_0
  6
中線
 48
0.5
370
    30
100
AcDbCircle
 10
6225.191106822697
 20
-3952.328211324024
 30
0.0
 40
4.161428009999999
100
AcDbArc
 50
56.7784768190146
 51
82.41332504297487
  0
LINE
  5
4BCA3
330
1F
100
AcDbEntity
  8
AM_0
  6
中線
 48
0.5
370
    30
100
AcDbLine
 10
6230.053772108696
 20
-3950.086293568023
 30
0.0
 11
6227.471059662697
 21
-3948.846933092023
 31
0.0
  0
LINE
  5
4BCA4
330
1F
100
AcDbEntity
  8
AM_0
  6
中線
 48
0.5
370
    30
100
AcDbLine
 10
6229.871760705696
 20
-3950.886293568024
 30
0.0
 11
6227.289048259695
 21
-3949.646933092024
 31
0.0
  0
LINE
  5
4BCA5
330
1F
100
AcDbEntity
  8
AM_0
  6
中線
 48
0.5
370
    30
100
AcDbLine
 10
6222.468568560696
 20
-3948.203211324024
 30
0.0
 11
6225.740522950696
 21
-3948.203211324024
 31
0.0
  0
LINE
  5
4BCA6
330
1F
100
AcDbEntity
  8
AM_0
  6
中線
 48
0.5
370
    30
100
AcDbLine
 10
6222.468568560696
 20
-3949.003211324023
 30
0.0
 11
6225.558511547696
 21
-3949.003211324023
 31
0.0
  0
LINE
  5
4BCA7
330
1F
100
AcDbEntity
  8
AM_0
  6
中線
 48
0.5
370
    30
100
AcDbLine
 10
6222.468568560696
 20
-3948.203211324024
 30
0.0
 11
6222.468568560696
 21
-3949.003211324023
 31
0.0
  0
LINE
  5
4BCA8
330
1F
100
AcDbEntity
  8
AM_0
  6
中線
 48
0.5
370
    30
100
AcDbLine
 10
6222.862652708696
 20
-3946.131584894023
 30
0.0
 11
6222.862652708696
 21
-3946.931584894024
 31
0.0
  0
LINE
  5
4BCA9
330
1F
100
AcDbEntity
  8
AM_0
  6
中線
 48
0.5
370
    30
100
AcDbLine
 10
6224.862652708696
 20
-3946.131584894023
 30
0.0
 11
6222.862652708696
 21
-3946.131584894023
 31
0.0
  0
ARC
  5
4BCAA
330
1F
100
AcDbEntity
  8
AM_0
  6
中線
 48
0.5
370
    30
100
AcDbCircle
 10
6222.362652708696
 20
-3940.680964937024
 30
0.0
 40
0.5
100
AcDbArc
 50
180.0
 51
233.1016997080159
  0
LINE
  5
4BCAB
330
1F
100
AcDbEntity
  8
AM_0
  6
中線
 48
0.5
370
    30
100
AcDbLine
 10
6222.862652708696
 20
-3941.681584894024
 30
0.0
 11
6222.062454457695
 21
-3941.080816172024
 31
0.0
  0
LINE
  5
4BCAC
330
1F
100
AcDbEntity
  8
AM_0
  6
中線
 48
0.5
370
    30
100
AcDbLine
 10
6221.862652708696
 20
-3940.680964937024
 30
0.0
 11
6221.862652708696
 21
-3934.682204851024
 31
0.0
  0
ARC
  5
4BCAE
330
1F
100
AcDbEntity
  8
AM_0
  6
中線
 48
0.5
370
    30
100
AcDbCircle
 10
6223.362652708696
 20
-3945.998824512024
 30
0.0
 40
1.5
100
AcDbArc
 50
0.0
 51
41.42920034799422
  0
ARC
  5
4BCAF
330
1F
100
AcDbEntity
  8
AM_0
  6
中線
 48
0.5
370
    30
100
AcDbCircle
 10
6224.362652708697
 20
-3942.598119911024
 30
0.0
 40
1.5
100
AcDbArc
 50
180.0
 51
221.4292003479942
  0
LINE
  5
4BCB0
330
1F
100
AcDbEntity
  8
AM_0
  6
中線
 48
0.5
370
    30
100
AcDbLine
 10
6224.487313618696
 20
-3945.006283410024
 30
0.0
 11
6223.237991798697
 21
-3943.590661013024
 31
0.0
  0
LINE
  5
4BCB1
330
1F
100
AcDbEntity
  8
AM_0
  6
中線
 48
0.5
370
    30
100
AcDbLine
 10
6222.862652708696
 20
-3942.598119911024
 30
0.0
 11
6222.862652708696
 21
-3937.681584894024
 31
0.0
  0
LINE
  5
4BCB2
330
1F
100
AcDbEntity
  8
AM_0
  6
中線
 48
0.5
370
    30
100
AcDbLine
 10
6224.862652708696
 20
-3946.931584894024
 30
0.0
 11
6224.862652708696
 21
-3945.998824512024
 31
0.0
  0
LINE
  5
4BCB3
330
1F
100
AcDbEntity
  8
AM_0
  6
中線
 48
0.5
370
    30
100
AcDbLine
 10
6232.844520304878
 20
-3949.892643682423
 30
0.0
 11
6231.269193800696
 21
-3946.509467317024
 31
0.0
  0
LINE
  5
4BCB4
330
1F
100
AcDbEntity
  8
AM_0
  6
中線
 48
0.5
370
    30
100
AcDbLine
 10
6229.362652708696
 20
-3946.931584894024
 30
0.0
 11
6222.862652708696
 21
-3946.931584894024
 31
0.0
  0
ARC
  5
4BCB5
330
1F
100
AcDbEntity
  8
AM_0
  6
中線
 48
0.5
370
    30
100
AcDbCircle
 10
6230.362652708696
 20
-3946.931584894024
 30
0.0
 40
1.0
100
AcDbArc
 50
24.96835131601393
 51
180.0
  0
LINE
  5
4BCB7
330
1F
100
AcDbEntity
  8
AM_0
  6
中線
 48
0.5
370
    30
100
AcDbLine
 10
6244.862652708697
 20
-3950.381584894023
 30
0.0
 11
6242.147683319283
 21
-3949.959758176659
 31
0.0
  0
LINE
  5
4BCB8
330
1F
100
AcDbEntity
  8
AM_0
  6
中線
 48
0.5
370
    30
100
AcDbLine
 10
6209.162652708696
 20
-3949.931584894024
 30
0.0
 11
6209.162652708696
 21
-3949.591894270024
 31
0.0
  0
LINE
  5
4BCB9
330
1F
100
AcDbEntity
  8
AM_0
  6
中線
 48
0.5
370
    30
100
AcDbLine
 10
6244.862652708697
 20
-3950.381584894023
 30
0.0
 11
6231.351674642696
 21
-3950.381584894023
 31
0.0
  0
LINE
  5
4BCBA
330
1F
100
AcDbEntity
  8
AM_0
  6
中線
 48
0.5
370
    30
100
AcDbLine
 10
6244.862652708697
 20
-3951.181584894025
 30
0.0
 11
6231.169663239696
 21
-3951.181584894025
 31
0.0
  0
LINE
  5
4BCBB
330
1F
100
AcDbEntity
  8
AM_0
  6
中線
 48
0.5
370
    30
100
AcDbLine
 10
6241.362652708696
 20
-3950.181584894024
 30
0.0
 11
6233.297790850843
 21
-3950.181584894024
 31
0.0
  0
ARC
  5
4BCBC
330
1F
100
AcDbEntity
  8
AM_0
  6
中線
 48
0.5
370
    30
100
AcDbCircle
 10
6218.862652708697
 20
-3947.431584894025
 30
0.0
 40
2.0
100
AcDbArc
 50
270.0
 51
0.0
  0
LINE
  5
4BCBD
330
1F
100
AcDbEntity
  8
AM_0
  6
中線
 48
0.5
370
    30
100
AcDbLine
 10
6218.862652708697
 20
-3949.431584894024
 30
0.0
 11
6209.175585890307
 21
-3949.431584894024
 31
0.0
  0
LINE
  5
4BCBE
330
1F
100
AcDbEntity
  8
AM_0
  6
中線
 48
0.5
370
    30
100
AcDbLine
 10
6242.862652708696
 20
-3948.681584894024
 30
0.0
 11
6242.862652708696
 21
-3937.681584894024
 31
0.0
  0
LINE
  5
4BCBF
330
1F
100
AcDbEntity
  8
AM_7
  6
中心線1
 48
0.3
370
    13
100
AcDbLine
 10
6217.362652708697
 20
-3925.581584894024
 30
0.0
 11
6217.362652708697
 21
-3932.781584894025
 31
0.0
  0
ARC
  5
4BCC1
330
1F
100
AcDbEntity
  8
AM_0
  6
中線
 48
0.5
370
    30
100
AcDbCircle
 10
6205.510894078695
 20
-3942.654763884024
 30
0.0
 40
7.352403027
100
AcDbArc
 50
303.8442042440119
 51
359.2414168680045
  0
CIRCLE
  5
4BCC3
330
1F
100
AcDbEntity
  8
AM_0
  6
中線
 48
0.5
370
    30
100
AcDbCircle
 10
6217.362652708697
 20
-3946.181584894024
 30
0.0
 40
1.6
  0
ARC
  5
4BCC6
330
1F
100
AcDbEntity
  8
AM_0
  6
中線
 48
0.5
370
    30
100
AcDbCircle
 10
6233.362652708696
 20
-3942.681584894025
 30
0.0
 40
0.5
100
AcDbArc
 50
180.0
 51
270.0
  0
ARC
  5
4BCC7
330
1F
100
AcDbEntity
  8
AM_0
  6
中線
 48
0.5
370
    30
100
AcDbCircle
 10
6233.362652708696
 20
-3932.681584894024
 30
0.0
 40
0.5
100
AcDbArc
 50
90.0
 51
180.0
  0
LINE
  5
4BCC8
330
1F
100
AcDbEntity
  8
AM_0
  6
中線
 48
0.5
370
    30
100
AcDbLine
 10
6212.362652708696
 20
-3894.674967998188
 30
0.0
 11
6212.362652708696
 21
-3893.674967998188
 31
0.0
  0
LINE
  5
4BCC9
330
1F
100
AcDbEntity
  8
AM_0
  6
中線
 48
0.5
370
    30
100
AcDbLine
 10
6220.862652708696
 20
-3894.674967998188
 30
0.0
 11
6220.862652708696
 21
-3893.674967998188
 31
0.0
  0
LINE
  5
4BCCA
330
1F
100
AcDbEntity
  8
AM_0
  6
中線
 48
0.5
370
    30
100
AcDbLine
 10
6222.862652708696
 20
-3894.674967998188
 30
0.0
 11
6222.862652708696
 21
-3893.674967998188
 31
0.0
  0
LINE
  5
4BCCB
330
1F
100
AcDbEntity
  8
AM_0
  6
中線
 48
0.5
370
    30
100
AcDbLine
 10
6222.862652708696
 20
-3894.674967998188
 30
0.0
 11
6242.862652708696
 21
-3894.674967998188
 31
0.0
  0
LINE
  5
4BCCC
330
1F
100
AcDbEntity
  8
AM_0
  6
中線
 48
0.5
370
    30
100
AcDbLine
 10
6229.362652708696
 20
-3894.674967998188
 30
0.0
 11
6229.362652708696
 21
-3893.674967998188
 31
0.0
  0
LINE
  5
4BCCD
330
1F
100
AcDbEntity
  8
AM_0
  6
中線
 48
0.5
370
    30
100
AcDbLine
 10
6232.728111467697
 20
-3894.674967998188
 30
0.0
 11
6232.728111467697
 21
-3893.674967998188
 31
0.0
  0
LINE
  5
4BCCE
330
1F
100
AcDbEntity
  8
AM_7
  6
中心線1
 48
0.3
370
    13
100
AcDbLine
 10
6237.362652708696
 20
-3890.674967998211
 30
0.0
 11
6237.362652708696
 21
-3897.674967998188
 31
0.0
  0
LINE
  5
4BCD5
330
1F
100
AcDbEntity
  8
AM_0
  6
中線
 48
0.5
370
    30
100
AcDbLine
 10
6237.862652708696
 20
-3951.181584894025
 30
0.0
 11
6210.162652708724
 21
-3951.181584893759
 31
0.0
  0
LINE
  5
4BCD6
330
1F
100
AcDbEntity
  8
AM_0
  6
中線
 48
0.5
370
    30
100
AcDbLine
 10
6237.862652708696
 20
-3924.181584894024
 30
0.0
 11
6210.162652708191
 21
-3924.181584894255
 31
0.0
  0
LINE
  5
4BCD7
330
1F
100
AcDbEntity
  8
AM_0
  6
中線
 48
0.5
370
    30
100
AcDbLine
 10
6234.218540997696
 20
-3893.674967998188
 30
0.0
 11
6210.404656452621
 21
-3893.674967997899
 31
0.0
  0
LINE
  5
4BCD9
330
1F
100
AcDbEntity
  8
AM_7
  6
中心線1
 48
0.3
370
    13
100
AcDbLine
 10
6220.962652708696
 20
-3946.181584894024
 30
0.0
 11
6213.762652708695
 21
-3946.181584894024
 31
0.0
  0
LINE
  5
4BCDA
330
1F
100
AcDbEntity
  8
AM_7
  6
中心線1
 48
0.3
370
    13
100
AcDbLine
 10
6217.362652708697
 20
-3942.581584894024
 30
0.0
 11
6217.362652708697
 21
-3949.781584894025
 31
0.0
  0
ARC
  5
4BCDC
330
1F
100
AcDbEntity
  8
AM_0
  6
中線
 48
0.5
370
    30
100
AcDbCircle
 10
6244.862652708696
 20
-3925.681584894024
 30
0.0
 40
1.5
100
AcDbArc
 50
0.0
 51
90.0
1001
GENIUS_GENOBJ-N-FIL_13
1002
{
1000
OWNER
1000
GEN
1002
}
1001
GENIUS_GENODEF_13
1002
{
1000
HIER
1070
     0
1002
}
1002
{
1000
MANEDIT
1070
     0
1002
}
1002
{
1000
NOSEL
1070
     0
1002
}
1002
{
1000
BEHIND
1070
     0
1002
}
1002
{
1000
OTHER
1070
     0
1002
}
1002
{
1000
REACTOR
1002
}
  0
LINE
  5
4BCDE
330
1F
100
AcDbEntity
  8
AM_7
  6
中心線1
 48
0.3
370
    13
100
AcDbLine
 10
6237.362652708696
 20
-3942.581584894024
 30
0.0
 11
6237.362652708696
 21
-3949.781584894025
 31
0.0
  0
LINE
  5
4BCDF
330
1F
100
AcDbEntity
  8
AM_7
  6
中心線1
 48
0.3
370
    13
100
AcDbLine
 10
6240.962652708697
 20
-3946.181584894024
 30
0.0
 11
6233.762652708696
 21
-3946.181584894024
 31
0.0
  0
LINE
  5
4BD6F
330
1F
100
AcDbEntity
  8
AM_7
  6
中心線1
 48
0.5
370
    13
100
AcDbLine
 10
6249.362652708697
 20
-3853.013072161681
 30
0.0
 11
6205.362652708696
 21
-3853.013072161681
 31
0.0
  0
DIMENSION
  5
4BD70
330
1F
100
AcDbEntity
  8
AM_5
100
AcDbDimension
  2
*D7
 10
6260.995266855491
 20
-3885.102014867187
 30
0.0
 11
6260.995266855492
 21
-3889.674967998187
 31
0.0
 70
   160
  1
（9.5）
 71
     5
 42
9.572953131000758
  3
SYS$0
100
AcDbAlignedDimension
 13
6242.995266855491
 23
-3894.674967998188
 33
0.0
 14
6245.817149532587
 24
-3885.102014867187
 34
0.0
 50
90.0
100
AcDbRotatedDimension
  0
DIMENSION
  5
4BE71
330
1F
100
AcDbEntity
  8
AM_5
100
AcDbDimension
  2
*D8
 10
6254.362652708696
 20
-3839.513072161681
 30
0.0
 11
6254.362652708696
 21
-3853.013072161681
 31
0.0
 70
   160
 71
     5
 42
27.0
  3
SYS$0
100
AcDbAlignedDimension
 13
6244.862652708697
 23
-3866.51307216168
 33
0.0
 14
6244.862652708697
 24
-3839.513072161681
 34
0.0
 50
90.0
100
AcDbRotatedDimension
  0
DIMENSION
  5
4BE72
330
1F
100
AcDbEntity
  8
AM_5
100
AcDbDimension
  2
*D9
 10
6208.362652708697
 20
-3831.013072161681
 30
0.0
 11
6227.362652708696
 21
-3828.41307216168
 31
0.0
 70
    32
 71
     5
 42
38.0
  3
SYS$0
100
AcDbAlignedDimension
 13
6246.362652708697
 23
-3841.263072161681
 33
0.0
 14
6208.362652708697
 24
-3840.513072161681
 34
0.0
100
AcDbRotatedDimension
  0
DIMENSION
  5
4BEE1
330
1F
100
AcDbEntity
  8
AM_5
100
AcDbDimension
  2
*D10
 10
6200.362652708696
 20
-3838.763072161681
 30
0.0
 11
6200.362652708697
 21
-3853.013072161681
 31
0.0
 70
   160
 71
     5
 42
28.5
  3
SYS$0
100
AcDbAlignedDimension
 13
6209.862652708697
 23
-3867.26307216168
 33
0.0
 14
6209.862652708697
 24
-3838.763072161681
 34
0.0
 50
90.0
100
AcDbRotatedDimension
  0
DIMENSION
  5
4BF3D
330
1F
100
AcDbEntity
  8
AM_5
100
AcDbDimension
  2
*D11
 10
6262.362652708695
 20
-3925.181584894024
 30
0.0
 11
6262.362652708696
 21
-3937.681584894024
 31
0.0
 70
   160
  1
<>
 71
     5
 42
25.0
  3
SYS$0
100
AcDbAlignedDimension
 13
6241.362652708696
 23
-3950.181584894024
 33
0.0
 14
6241.362652708696
 24
-3925.181584894024
 34
0.0
 50
90.0
100
AcDbRotatedDimension
  0
DIMENSION
  5
4BF53
330
1F
100
AcDbEntity
  8
AM_5
100
AcDbDimension
  2
*D12
 10
6254.362652708696
 20
-3946.181584894024
 30
0.0
 11
6254.362652708696
 21
-3937.681584894024
 31
0.0
 70
   160
 71
     5
 42
17.0
  3
SYS$0
100
AcDbAlignedDimension
 13
6240.962652708697
 23
-3929.181584894024
 33
0.0
 14
6240.962652708697
 24
-3946.181584894024
 34
0.0
 50
90.0
100
AcDbRotatedDimension
  0
DIMENSION
  5
4BF9E
330
1F
100
AcDbEntity
  8
AM_5
100
AcDbDimension
  2
*D13
 10
6192.362652708695
 20
-3925.931584894024
 30
0.0
 11
6192.362652708697
 21
-3937.681584894022
 31
0.0
 70
   160
  1
<>
 71
     5
 42
23.5
  3
SYS$0
100
AcDbAlignedDimension
 13
6209.175585890307
 23
-3949.431584894024
 33
0.0
 14
6209.375585890306
 24
-3925.931584894024
 34
0.0
 50
90.0
100
AcDbRotatedDimension
  0
DIMENSION
  5
4BFB4
330
1F
100
AcDbEntity
  8
AM_5
100
AcDbDimension
  2
*D14
 10
6200.362652708696
 20
-3946.181584894024
 30
0.0
 11
6200.362652708697
 21
-3937.681584894024
 31
0.0
 70
   160
 71
     5
 42
17.0
  3
SYS$0
100
AcDbAlignedDimension
 13
6213.762652708695
 23
-3929.181584894024
 33
0.0
 14
6213.762652708695
 24
-3946.181584894024
 34
0.0
 50
90.0
100
AcDbRotatedDimension
1001
ACAD
1000
DSTYLE
1002
{
1070
   271
1070
     0
1002
}
  0
DIMENSION
  5
4C008
330
1F
100
AcDbEntity
  8
AM_5
100
AcDbDimension
  2
*D15
 10
6237.362652708696
 20
-3914.431584894025
 30
0.0
 11
6227.462652708696
 21
-3914.431584894025
 31
0.0
 70
   160
  1
（<>）
 71
     5
 42
20.0
  3
SYS$0
100
AcDbAlignedDimension
 13
6217.362652708697
 23
-3925.587734864024
 33
0.0
 14
6237.362652708696
 24
-3925.581584894024
 34
0.0
100
AcDbRotatedDimension
  0
DIMENSION
  5
4C0AF
330
1F
100
AcDbEntity
  8
AM_5
100
AcDbDimension
  2
*D16
 10
6252.995266855492
 20
-3893.674967998188
 30
0.0
 11
6252.995266855492
 21
-3898.141455897352
 31
0.0
 70
   160
  1
<>
 71
     5
  3
SYS$0
100
AcDbAlignedDimension
 13
6242.862652708696
 23
-3894.674967998188
 33
0.0
 14
6242.862652708696
 24
-3893.674967998188
 34
0.0
 50
90.0
100
AcDbRotatedDimension
  0
DIMENSION
  5
4C177
330
1F
100
AcDbEntity
  8
AM_5
100
AcDbDimension
  2
*D17
 10
6236.4289208317
 20
-3944.882298635388
 30
0.0
 11
6252.769190500849
 21
-3958.13901372991
 31
0.0
 70
   163
  1
2-<>
 71
     5
 42
3.199999999999818
  3
SYS$3
100
AcDbDiametricDimension
 15
6238.296384585694
 25
-3947.480871152659
 35
0.0
 40
0.0
1001
ACAD
1000
DSTYLE
1002
{
1070
    41
1040
1.0
1070
   172
1070
     1
1070
   342
1005
6C4
1002
}
  0
DIMENSION
  5
4C193
330
1F
100
AcDbEntity
  8
AM_5
100
AcDbDimension
  2
*D18
 10
6218.485447701272
 20
-3945.047852676094
 30
0.0
 11
6200.568274388088
 21
-3956.320675858798
 31
0.0
 70
   163
  1
2-<>
 71
     5
 42
3.199999999999818
  3
SYS$3
100
AcDbDiametricDimension
 15
6216.239857716114
 25
-3947.327617053954
 35
0.0
 40
0.0
1001
ACAD
1000
DSTYLE
1002
{
1070
    41
1040
1.0
1070
   172
1070
     1
1070
   342
1005
6C4
1002
}
  0
DIMENSION
  5
4C1BB
330
1F
100
AcDbEntity
  8
AM_5
100
AcDbDimension
  2
*D19
 10
6217.362652708697
 20
-3959.931584894024
 30
0.0
 11
6212.01598604203
 21
-3959.931584894024
 31
0.0
 70
   160
  1
3.5
 71
     5
 42
3.5
  3
SYS$0
100
AcDbAlignedDimension
 13
6220.862652708696
 23
-3947.431584894025
 33
0.0
 14
6217.362652708697
 24
-3949.781584894025
 34
0.0
100
AcDbRotatedDimension
1001
ACAD
1000
DSTYLE
1002
{
1070
   271
1070
     0
1002
}
  0
TEXT
  5
4E0E8
330
1F
100
AcDbEntity
  8
AM_6
 60
     1
100
AcDbText
 10
5957.394900433246
 20
-5651.939004350452
 30
0.0
 40
2.5
  1
!GENTITLE-INSERT
100
AcDbText
  0
TEXT
  5
4E0E9
330
1F
100
AcDbEntity
  8
AM_6
 60
     1
100
AcDbText
 10
5548.894900433246
 20
-5660.439004350451
 30
0.0
 40
2.5
  1
!GENTITLE-LL
100
AcDbText
  0
TEXT
  5
4E0EA
330
1F
100
AcDbEntity
  8
AM_6
 60
     1
100
AcDbText
 10
5968.894900433246
 20
-5363.439004350452
 30
0.0
 40
2.5
  1
!GENTITLE-RU
100
AcDbText
  0
TEXT
  5
4E0EB
330
1F
100
AcDbEntity
  8
AM_6
 60
     1
100
AcDbText
 10
5968.894900433246
 20
-5363.439004350452
 30
0.0
 40
2.5
  1
!GENTITLE-MAX
100
AcDbText
  0
TEXT
  5
4E0F3
330
1F
100
AcDbEntity
  8
AM_6
 60
     1
100
AcDbText
 10
5548.894900433246
 20
-5660.439004350451
 30
0.0
 40
2.5
  1
!GENTITLE-LL
100
AcDbText
  0
TEXT
  5
4E0F4
330
1F
100
AcDbEntity
  8
AM_6
 60
     1
100
AcDbText
 10
5957.394900433246
 20
-5371.939004350451
 30
0.0
 40
2.5
  1
!GENTITLE-RU
100
AcDbText
  0
TEXT
  5
4E0F5
330
1F
100
AcDbEntity
  8
AM_6
 60
     1
100
AcDbText
 10
5968.894900433246
 20
-5363.439004350452
 30
0.0
 40
2.5
  1
!GENTITLE-MAX
100
AcDbText
  0
TEXT
  5
4E0F6
330
1F
100
AcDbEntity
  8
AM_6
 60
     1
100
AcDbText
 10
5957.394900433246
 20
-5651.939004350452
 30
0.0
 40
2.5
  1
!GENTITLE-INSERT
100
AcDbText
  0
TEXT
  5
5183F
330
1F
100
AcDbEntity
  8
AM_6
 60
     1
100
AcDbText
 10
5973.602012689372
 20
109.7385382224183
 30
0.0
 40
2.5
  1
!GENTITLE-INSERT
100
AcDbText
  0
TEXT
  5
51840
330
1F
100
AcDbEntity
  8
AM_6
 60
     1
100
AcDbText
 10
5565.102012689372
 20
101.2385382224183
 30
0.0
 40
2.5
  1
!GENTITLE-LL
100
AcDbText
  0
TEXT
  5
51841
330
1F
100
AcDbEntity
  8
AM_6
 60
     1
100
AcDbText
 10
5985.102012689372
 20
398.2385382224184
 30
0.0
 40
2.5
  1
!GENTITLE-RU
100
AcDbText
  0
TEXT
  5
51842
330
1F
100
AcDbEntity
  8
AM_6
 60
     1
100
AcDbText
 10
5985.102012689372
 20
398.2385382224184
 30
0.0
 40
2.5
  1
!GENTITLE-MAX
100
AcDbText
  0
TEXT
  5
5184A
330
1F
100
AcDbEntity
  8
AM_6
 60
     1
100
AcDbText
 10
5565.102012689372
 20
101.2385382224183
 30
0.0
 40
2.5
  1
!GENTITLE-LL
100
AcDbText
  0
TEXT
  5
5184B
330
1F
100
AcDbEntity
  8
AM_6
 60
     1
100
AcDbText
 10
5973.602012689372
 20
389.7385382224184
 30
0.0
 40
2.5
  1
!GENTITLE-RU
100
AcDbText
  0
TEXT
  5
5184C
330
1F
100
AcDbEntity
  8
AM_6
 60
     1
100
AcDbText
 10
5985.102012689372
 20
398.2385382224184
 30
0.0
 40
2.5
  1
!GENTITLE-MAX
100
AcDbText
  0
TEXT
  5
5184D
330
1F
100
AcDbEntity
  8
AM_6
 60
     1
100
AcDbText
 10
5973.602012689372
 20
109.7385382224183
 30
0.0
 40
2.5
  1
!GENTITLE-INSERT
100
AcDbText
  0
ARC
  5
5B37D
330
1F
100
AcDbEntity
  8
AM_0
  6
中線
 48
0.5
370
    30
100
AcDbCircle
 10
6241.362652708696
 20
-3926.681584894024
 30
0.0
 40
1.5
100
AcDbArc
 50
0.0
 51
90.0
1001
GENIUS_GENODEF_13
1002
{
1000
HIER
1070
     0
1002
}
1002
{
1000
MANEDIT
1070
     0
1002
}
1002
{
1000
NOSEL
1070
     0
1002
}
1002
{
1000
BEHIND
1070
     0
1002
}
1002
{
1000
OTHER
1070
     0
1002
}
1002
{
1000
REACTOR
1002
}
1001
GENIUS_GENOBJ-N-FIL_13
1002
{
1000
OWNER
1000
GEN
1002
}
  0
ARC
  5
5B387
330
1F
100
AcDbEntity
  8
AM_0
  6
中線
 48
0.5
370
    30
100
AcDbCircle
 10
6233.297790850376
 20
-3925.681584894024
 30
0.0
 40
0.5
100
AcDbArc
 50
90.0
 51
155.0316486758792
1001
GENIUS_GENOBJ-N-FIL_13
1002
{
1000
OWNER
1000
GEN
1002
}
1001
GENIUS_GENODEF_13
1002
{
1000
HIER
1070
     0
1002
}
1002
{
1000
MANEDIT
1070
     0
1002
}
1002
{
1000
NOSEL
1070
     0
1002
}
1002
{
1000
BEHIND
1070
     0
1002
}
1002
{
1000
OTHER
1070
     0
1002
}
1002
{
1000
REACTOR
1002
}
  0
ARC
  5
5B388
330
1F
100
AcDbEntity
  8
AM_0
  6
中線
 48
0.5
370
    30
100
AcDbCircle
 10
6233.297790850843
 20
-3949.681584894025
 30
0.0
 40
0.5
100
AcDbArc
 50
204.9683513241208
 51
270.0
1001
GENIUS_GENODEF_13
1002
{
1000
HIER
1070
     0
1002
}
1002
{
1000
MANEDIT
1070
     0
1002
}
1002
{
1000
NOSEL
1070
     0
1002
}
1002
{
1000
BEHIND
1070
     0
1002
}
1002
{
1000
OTHER
1070
     0
1002
}
1002
{
1000
REACTOR
1002
}
1001
GENIUS_GENOBJ-N-FIL_13
1002
{
1000
OWNER
1000
GEN
1002
}
  0
ARC
  5
5B389
330
1F
100
AcDbEntity
  8
AM_0
  6
中線
 48
0.5
370
    30
100
AcDbCircle
 10
6241.362652708696
 20
-3948.681584894024
 30
0.0
 40
1.5
100
AcDbArc
 50
270.0
 51
0.0
1001
GENIUS_GENODEF_13
1002
{
1000
HIER
1070
     0
1002
}
1002
{
1000
MANEDIT
1070
     0
1002
}
1002
{
1000
NOSEL
1070
     0
1002
}
1002
{
1000
BEHIND
1070
     0
1002
}
1002
{
1000
OTHER
1070
     0
1002
}
1002
{
1000
REACTOR
1002
}
1001
GENIUS_GENOBJ-N-FIL_13
1002
{
1000
OWNER
1000
GEN
1002
}
  0
ENDSEC
  0
SECTION
  2
OBJECTS
  0
DICTIONARY
  5
C
330
0
100
AcDbDictionary
281
     1
  3
ACAD_2007HEADERVARS_RT
350
5B656
  3
ACAD_BGPLOT_KEY
350
AB06
  3
ACAD_COLOR
350
A91D
  3
ACAD_GROUP
350
D
  3
ACAD_LAYOUT
350
1A
  3
ACAD_MATERIAL
350
A91C
  3
ACAD_MLINESTYLE
350
17
  3
ACAD_PLOTSETTINGS
350
19
  3
ACAD_PLOTSTYLENAME
350
E
  3
ACAD_TABLESTYLE
350
AAB9
  3
ACAD_VISUALSTYLE
350
B0F1
  3
AcAsAppObject
350
3DA1
  3
ACASGREF_MASTER
350
3DE9
  3
AcDbVariableDictionary
350
34
  3
AcmDictionary
350
47
  3
AD_GREF_MODULE
350
3DEA
  3
AD_MAPI_MODULE
350
3E06
  3
AMG
350
2B
  3
AMGSNAPSETTINGS
350
7D
  3
ASE_INDEX_DICTIONARY
350
57912
  3
DWGPROPS
350
5B655
  3
MAPISURF_MODULE
350
3DEB
  0
DICTIONARY
  5
3F95
330
2
100
AcDbDictionary
280
     1
281
     1
  3
ACAD_LAYERFILTERS
360
5369F
  3
ACAD_LAYERSTATES
360
3F96
  3
ACLYDICTIONARY
360
5369E
  3
AMLAYER_GROUPCOLORS
360
AAB4
  0
DICTIONARY
  5
8A
330
1F
100
AcDbDictionary
280
     1
281
     1
  3
ACAD_SORTENTS
360
B1BA
  0
DICTIONARY
  5
5B656
102
{ACAD_REACTORS
330
C
102
}
330
C
100
AcDbDictionary
281
     1
  3
DIMARCSYM
350
5B657
  0
DICTIONARY
  5
AB06
102
{ACAD_REACTORS
330
C
102
}
330
C
100
AcDbDictionary
280
     1
281
     1
  0
DICTIONARY
  5
A91D
102
{ACAD_REACTORS
330
C
102
}
330
C
100
AcDbDictionary
281
     1
  0
DICTIONARY
  5
D
102
{ACAD_REACTORS
330
C
102
}
330
C
100
AcDbDictionary
281
     1
  0
DICTIONARY
  5
1A
102
{ACAD_REACTORS
330
C
102
}
330
C
100
AcDbDictionary
281
     1
  3
Model
350
22
  3
ﾚｲｱｳﾄ1
350
1E
  3
ﾚｲｱｳﾄ2
350
26
  0
DICTIONARY
  5
A91C
102
{ACAD_REACTORS
330
C
102
}
330
C
100
AcDbDictionary
281
     1
  3
ByBlock
350
B0EF
  3
ByLayer
350
B0EE
  3
Global
350
B0F0
  0
DICTIONARY
  5
17
102
{ACAD_REACTORS
330
C
102
}
330
C
100
AcDbDictionary
281
     1
  3
Standard
350
18
  0
DICTIONARY
  5
19
102
{ACAD_REACTORS
330
C
102
}
330
C
100
AcDbDictionary
281
     1
  0
ACDBDICTIONARYWDFLT
  5
E
102
{ACAD_REACTORS
330
C
102
}
330
C
100
AcDbDictionary
281
     1
  3
Normal
350
F
100
AcDbDictionaryWithDefault
340
F
  0
DICTIONARY
  5
AAB9
102
{ACAD_REACTORS
330
C
102
}
330
C
100
AcDbDictionary
281
     1
  3
Standard
350
AABA
  0
DICTIONARY
  5
B0F1
102
{ACAD_REACTORS
330
C
102
}
330
C
100
AcDbDictionary
281
     1
  3
2dWireframe
350
B0F7
  3
3D Hidden
350
B0F9
  3
3dWireframe
350
B0F8
  3
Basic
350
B0F6
  3
Brighten
350
B0FD
  3
ColorChange
350
B101
  3
Conceptual
350
B0FA
  3
Dim
350
B0FC
  3
Facepattern
350
B100
  3
Flat
350
B0F2
  3
FlatWithEdges
350
B0F3
  3
Gouraud
350
B0F4
  3
GouraudWithEdges
350
B0F5
  3
Linepattern
350
B0FF
  3
Realistic
350
B0FB
  3
Thicken
350
B0FE
  0
ACAD_PROXY_OBJECT
  5
3DA1
102
{ACAD_REACTORS
330
C
102
}
330
C
100
AcDbProxyObject
 90
      499
 91
      576
 95
   917527
 70
     0
 93
       10
310
407F
 94
        0
1001
ACAD
1000
AcRTDxfName
1000
ASAPP
  0
ACAD_PROXY_OBJECT
  5
3DE9
102
{ACAD_REACTORS
330
C
102
}
330
C
100
AcDbProxyObject
 90
      499
 91
      581
 95
   917527
 70
     0
 93
       34
310
010000407F
 94
        0
1001
ACAD
1000
AcRTDxfName
1000
ACASGREFMASTER
  0
DICTIONARY
  5
34
102
{ACAD_REACTORS
330
C
102
}
330
C
100
AcDbDictionary
281
     1
  3
CTABLESTYLE
350
AAF3
  3
DIMASSOC
350
A10C
  3
FIELDEVAL
350
AB07
  3
INDEXCTL
350
35
  3
SORTENTS
350
194C
  0
DICTIONARY
  5
47
102
{ACAD_REACTORS
330
C
102
}
330
C
100
AcDbDictionary
281
     1
  3
AcmBOM
350
7E8
  3
AcmStdDictionary
350
4C
  3
AMDTSECTSYM_ARROWCOLOR
350
A929
  0
ACAD_PROXY_OBJECT
  5
3DEA
102
{ACAD_REACTORS
330
C
102
}
330
C
100
AcDbProxyObject
 90
      499
 91
      582
 95
   917527
 70
     0
 93
      114
310
00000043800000000000000000003F
 94
        0
1001
ACAD
1000
AcRTDxfName
1000
ACADGREFMODULE
  0
ACAD_PROXY_OBJECT
  5
3E06
102
{ACAD_REACTORS
330
C
102
}
330
C
100
AcDbProxyObject
 90
      499
 91
      594
 95
   917527
 70
     0
 93
       34
310
05000044FF
 94
        0
1001
ACAD
1000
AcRTDxfName
1000
MAPIADMODULE
  0
DICTIONARY
  5
2B
102
{ACAD_REACTORS
330
C
102
}
330
C
100
AcDbDictionary
281
     1
  0
DICTIONARY
  5
7D
102
{ACAD_REACTORS
330
C
102
}
330
C
100
AcDbDictionary
281
     1
  0
DICTIONARY
  5
57912
102
{ACAD_REACTORS
330
C
102
}
330
C
100
AcDbDictionary
281
     1
  3
ASEBlockHierarchyIndexRecord
350
57913
1001
DCO15
1040
1757428023.343
  0
XRECORD
  5
5B655
102
{ACAD_REACTORS
330
C
102
}
330
C
100
AcDbXrecord
280
     1
  1
DWGPROPS COOKIE
  2

  3

  4

  6

  7

  8
Administrator
  9

300
AmdtFileType=84
301
=
302
=
303
=
304
=
305
=
306
=
307
=
308
=
309
=
 40
7.984688564814814
 41
2455567.680725081
 42
2456338.842444109
  1

 90
        1
  0
ACAD_PROXY_OBJECT
  5
3DEB
102
{ACAD_REACTORS
330
C
102
}
330
C
100
AcDbProxyObject
 90
      499
 91
      583
 95
   917527
 70
     0
 93
        8
310
0478
 94
        0
1001
ACAD
1000
AcRTDxfName
1000
AMDTMAPISURFMOUDULE
  0
DICTIONARY
  5
5369F
102
{ACAD_REACTORS
330
3F95
102
}
330
3F95
100
AcDbDictionary
281
     1
  0
DICTIONARY
  5
3F96
102
{ACAD_REACTORS
330
3F95
102
}
330
3F95
100
AcDbDictionary
281
     1
  3
20011210
350
3FB7
  0
DICTIONARY
  5
5369E
102
{ACAD_REACTORS
330
3F95
102
}
330
3F95
100
AcDbDictionary
281
     1
1001
ACAD
1000
<All
  0
DICTIONARY
  5
AAB4
102
{ACAD_REACTORS
330
3F95
102
}
330
3F95
100
AcDbDictionary
280
     1
281
     1
  0
SORTENTSTABLE
  5
B1BA
102
{ACAD_REACTORS
330
8A
102
}
330
8A
100
AcDbSortentsTable
330
1F
331
4BCA4
  5
4C177
331
4BC6D
  5
4BCB7
331
4BC2E
  5
4BC73
331
4BCAC
  5
4C216
331
4BC36
  5
4BC7B
331
5183F
  5
B5AD
331
31B3D
  5
3273E
331
4BCB4
  5
4C221
331
4BC75
  5
4BCBF
331
4BC3E
  5
4BC83
331
427E7
  5
4280F
331
5B388
  5
4C220
331
32D1D
  5
32D3A
331
4BCBC
  5
4C22A
331
4BC7D
  5
4BCCB
331
4BC46
  5
4BC8C
331
427EF
  5
42817
331
4BC85
  5
4BCD9
331
4BC4E
  5
4BC98
331
427F7
  5
4281F
331
4BCCC
  5
4C23A
331
4BC8D
  5
4BD69
331
4BC56
  5
4BC9E
331
34535
  5
3454D
331
4BC95
  5
4BDFD
331
4BC5E
  5
4BCA8
331
4BC1F
  5
4BC64
331
4BC9D
  5
4BF9E
331
4BC66
  5
4BCB1
331
4BCDC
  5
4BCA6
331
4BC27
  5
4BC6C
331
4E0E8
  5
4E1DE
331
4BCA5
  5
4C193
331
4BC6E
  5
4BCB8
331
4BC2F
  5
4BC74
331
4BC37
  5
4BC7C
331
51840
  5
B5AE
331
31B3E
  5
3273F
331
4BCB5
  5
4C223
331
4BC76
  5
4BCC1
331
4BC3F
  5
4BC84
331
427E8
  5
42810
331
5B389
  5
4C229
331
32D1E
  5
32D3B
331
4BCBD
  5
4C22B
331
4BC7E
  5
4BCCC
331
4BC47
  5
4BC8D
331
427F0
  5
42818
331
4BF53
  5
4C255
331
4BC86
  5
4BCDA
331
4BC4F
  5
4BC99
331
427F8
  5
42820
331
4BCCD
  5
4C23B
331
4BC8E
  5
4BD6E
331
4BC57
  5
4BC9F
331
34536
  5
3454E
331
4BCD5
  5
4C23D
331
4BC96
  5
4BE71
331
4BC20
  5
4BC65
331
4BC5F
  5
4BCAA
331
4BC9E
  5
4BFB4
331
4BC67
  5
4BCB3
331
4BC28
  5
4BC6D
331
4E0E9
  5
4E1DF
331
4BCA6
  5
4C1BB
331
4BC6F
  5
4BCB9
331
4BC30
  5
4BC75
331
4BCAE
  5
4C218
331
51841
  5
B5E2
331
4BC38
  5
4BC7D
331
4BC77
  5
4BCC3
331
4BC40
  5
4BC86
331
427E9
  5
42811
331
32D1F
  5
32D3C
331
4BCBE
  5
4C22C
331
4BC7F
  5
4BCCD
331
4BC48
  5
4BC8E
331
427F1
  5
42819
331
4BCC6
  5
4C230
331
4BC87
  5
4BCDB
331
427F9
  5
42821
331
4BCCE
  5
4C23C
331
4BC19
  5
4BC5F
331
4BCD6
  5
4C23F
331
4BC97
  5
4BE72
331
4BC21
  5
4BC66
331
4BCDE
  5
4C24A
331
4BC9F
  5
4C008
331
4BC68
  5
4BCB4
331
4BC29
  5
4BC6E
331
4E0EA
  5
4E1E0
331
4BFB4
  5
4C257
331
4BCA7
  5
4C20C
331
4BC31
  5
4BC76
331
4BCAF
  5
4C219
331
31B30
  5
32738
331
51842
  5
B5E3
331
4BC70
  5
4BCBA
331
4BC39
  5
4BC7E
331
5184A
  5
B8D5
331
4BF3D
  5
4C254
331
4BCB7
  5
4C224
331
4BC78
  5
4BCC4
331
427EA
  5
42812
331
4BCBF
  5
4C22D
331
4BC80
  5
4BCCE
331
427F2
  5
4281A
331
4BC49
  5
4BC90
331
4C193
  5
4E1D5
331
4BCC7
  5
4C232
331
4BC88
  5
4BCDD
331
427FA
  5
42822
331
34538
  5
34550
331
4BC90
  5
4BD6F
331
4BC59
  5
4BCA1
331
4BC1A
  5
4BC60
331
4C1BB
  5
4E1D6
331
4BCD7
  5
4C243
331
4BC98
  5
4BE73
331
4BC61
  5
4BCAB
331
4BC22
  5
4BC67
331
4BCDF
  5
4C24B
331
4BCA0
  5
4C030
331
4BC2A
  5
4BC6F
331
4E0EB
  5
4E1E1
331
4BD6F
  5
4C24F
331
4BCA8
  5
4C210
331
4BC32
  5
4BC77
331
4E0F3
  5
5B37D
331
31B31
  5
32739
331
4BCB0
  5
4C21A
331
4BC71
  5
4BCBB
331
5184B
  5
B8D6
331
4BC3A
  5
4BC7F
331
4BCB8
  5
4C225
331
4BC79
  5
4BCC7
331
427EB
  5
42813
331
32D21
  5
32D3E
331
4BC42
  5
4BC87
331
4BC81
  5
4BCD5
331
427F3
  5
4281B
331
4BC4A
  5
4BC94
331
4BCC8
  5
4C233
331
4BC89
  5
4BCDE
331
427FB
  5
42823
331
4BC52
  5
4BC9A
331
4BC5A
  5
4BCA2
331
4BC1B
  5
4BC61
331
4BF9E
  5
4C256
331
4BC99
  5
4BE74
331
4BC62
  5
4BCAC
331
4BC23
  5
4BC68
331
4BCA1
  5
4C0AF
331
4BC2B
  5
4BC70
331
4BCA9
  5
4C211
331
4BC33
  5
4BC78
331
4E0F4
  5
5B387
331
31B32
  5
3273A
331
5B37D
  5
4BCA4
331
4BD70
  5
4C250
331
4BCB1
  5
4C21B
331
4BC72
  5
4BCBC
331
5184C
  5
B8D7
331
4BC3B
  5
4BC80
331
4BCB9
  5
4C226
331
4BC7A
  5
4BCC8
331
427EC
  5
42814
331
4BC43
  5
4BC88
331
4BCC1
  5
4C22E
331
4BC82
  5
4BCD6
331
427F4
  5
4281C
331
4BCC9
  5
4C236
331
4BC8A
  5
4BCDF
331
427FC
  5
42824
331
4BC53
  5
4BC9B
331
4BC5B
  5
4BCA3
331
4BC1C
  5
4BC62
331
4BCD9
  5
4C245
331
4BC9A
  5
4BEE1
331
4BC63
  5
4BCAD
331
4BC24
  5
4BC69
331
4BCA2
  5
4C110
331
4BC6B
  5
4BCB5
331
4BCAA
  5
4C214
331
4BC34
  5
4BC79
331
4E0F5
  5
5B388
331
31B33
  5
3273B
331
31B3B
  5
3273C
331
4BCB2
  5
4C21D
331
4BC73
  5
4BCBD
331
5184D
  5
B8D8
331
4BC3C
  5
4BC81
331
4BCBA
  5
4C227
331
4BC7B
  5
4BCC9
331
427ED
  5
42815
331
4BC44
  5
4BC89
331
4BE71
  5
4C251
331
4BC83
  5
4BCD7
331
427F5
  5
4281D
331
4BC4C
  5
4BC96
331
4BCCA
  5
4C238
331
427FD
  5
42825
331
4BC54
  5
4BC9C
331
4BC93
  5
4BD70
331
4BC5C
  5
4BCA5
331
4C0AF
  5
4E1D3
331
4BCDA
  5
4C248
331
4BC9B
  5
4BF3D
331
4BC64
  5
4BCAF
331
4BC25
  5
4BC6B
331
4BEE1
  5
4C253
331
4BCA3
  5
4C111
331
4BC6C
  5
4BCB6
331
4BCAB
  5
4C215
331
4BC35
  5
4BC7A
331
4C177
  5
4E1D4
331
4E0F6
  5
5B389
331
31B3C
  5
3273D
331
4BCB3
  5
4C21F
331
4BC74
  5
4BCBE
331
5B387
  5
4BCAE
331
427E6
  5
4280E
331
4BC3D
  5
4BC82
331
4BCBB
  5
4C228
331
4BC7C
  5
4BCCA
331
427EE
  5
42816
331
4BC45
  5
4BC8A
331
4C008
  5
4C258
331
4BE72
  5
4C252
331
4BCC3
  5
4C22F
331
4BC84
  5
4BCD8
331
427F6
  5
4281E
331
4BC4D
  5
4BC97
331
4BCCB
  5
4C239
331
4BC8C
  5
4BCE0
331
4BC55
  5
4BC9D
331
34534
  5
3454C
331
4BC94
  5
4BDB3
331
4BC5D
  5
4BCA7
331
4BC1E
  5
4BC63
331
4BC9C
  5
4BF53
331
4BC65
  5
4BCB0
  0
XRECORD
  5
5B657
102
{ACAD_REACTORS
330
5B656
102
}
330
5B656
100
AcDbXrecord
280
     1
 70
     1
  0
LAYOUT
  5
22
102
{ACAD_XDICTIONARY
360
5B65A
102
}
102
{ACAD_REACTORS
330
1A
102
}
330
1A
100
AcDbPlotSettings
  1

  2
FX DocuWide 2050/2051
  4
A3
  6
AM_VIEW1
 40
3.174999952316284
 41
3.174999952316284
 42
3.17498779296875
 43
3.17498779296875
 44
296.989501953125
 45
419.9889831542968
 46
0.0
 47
1.295841228961961
 48
214.3704939521119
 49
367.5855324241176
140
275.6727856380065
141
407.629191407817
142
1.0
143
0.7225445603030646
 70
  3764
 72
     1
 73
     1
 74
     2
  7
monochrome.ctb
 75
     0
147
1.383997686703999
148
-1700.85588156276
149
-1647.985052086429
100
AcDbLayout
  1
Model
 70
     1
 71
     0
 10
0.0
 20
0.0
 11
12.0
 21
9.0
 12
0.0
 22
0.0
 32
0.0
 14
0.0
 24
0.0
 34
0.0
 15
0.0
 25
0.0
 35
0.0
146
0.0
 13
0.0
 23
0.0
 33
0.0
 16
1.0
 26
0.0
 36
0.0
 17
0.0
 27
1.0
 37
0.0
 76
     0
330
1F
331
B0EC
1001
ACAD_PSEXT
1000
FX DocuWide 2050/2051
1000
FX DocuWide 2050/2051
1000
IP_192.200.15.252
1000

1070
     0
  0
LAYOUT
  5
1E
102
{ACAD_XDICTIONARY
360
5B658
102
}
102
{ACAD_REACTORS
330
1A
102
}
330
1A
100
AcDbPlotSettings
  1

  2
\\ML370\XEROX
  4
A4
  6

 40
3.174999952316284
 41
3.174999952316284
 42
3.175003051757812
 43
3.17498779296875
 44
209.8674926757813
 45
296.6719970703125
 46
0.0
 47
0.0
 48
0.0
 49
0.0
140
0.0
141
0.0
142
1.0
143
1.0
 70
   688
 72
     1
 73
     1
 74
     5
  7
monochrome.ctb
 75
    16
147
1.0
148
0.0
149
0.0
100
AcDbLayout
  1
ﾚｲｱｳﾄ1
 70
     1
 71
     1
 10
-3.17498779296875
 20
-3.174999952316284
 11
293.4970092773438
 21
206.692492723465
 12
0.0
 22
0.0
 32
0.0
 14
1.000000000000000E+20
 24
1.000000000000000E+20
 34
1.000000000000000E+20
 15
-1.000000000000000E+20
 25
-1.000000000000000E+20
 35
-1.000000000000000E+20
146
0.0
 13
0.0
 23
0.0
 33
0.0
 16
1.0
 26
0.0
 36
0.0
 17
0.0
 27
1.0
 37
0.0
 76
     0
330
1B
  0
LAYOUT
  5
26
102
{ACAD_XDICTIONARY
360
5B65C
102
}
102
{ACAD_REACTORS
330
1A
102
}
330
1A
100
AcDbPlotSettings
  1

  2
\\ML370\XEROX
  4

  6

 40
0.0
 41
0.0
 42
0.0
 43
0.0
 44
0.0
 45
0.0
 46
0.0
 47
0.0
 48
0.0
 49
0.0
140
0.0
141
0.0
142
1.0
143
1.0
 70
   688
 72
     0
 73
     0
 74
     5
  7
monochrome.ctb
 75
    16
147
1.0
148
0.0
149
0.0
100
AcDbLayout
  1
ﾚｲｱｳﾄ2
 70
     1
 71
     2
 10
0.0
 20
0.0
 11
12.0
 21
9.0
 12
0.0
 22
0.0
 32
0.0
 14
0.0
 24
0.0
 34
0.0
 15
0.0
 25
0.0
 35
0.0
146
0.0
 13
0.0
 23
0.0
 33
0.0
 16
1.0
 26
0.0
 36
0.0
 17
0.0
 27
1.0
 37
0.0
 76
     0
330
23
  0
MATERIAL
  5
B0EF
102
{ACAD_XDICTIONARY
360
5B662
102
}
102
{ACAD_REACTORS
330
A91C
102
}
330
A91C
100
AcDbMaterial
  1
ByBlock
  0
MATERIAL
  5
B0EE
102
{ACAD_XDICTIONARY
360
5B660
102
}
102
{ACAD_REACTORS
330
A91C
102
}
330
A91C
100
AcDbMaterial
  1
ByLayer
  0
MATERIAL
  5
B0F0
102
{ACAD_XDICTIONARY
360
5B664
102
}
102
{ACAD_REACTORS
330
A91C
102
}
330
A91C
100
AcDbMaterial
  1
Global
  0
MLINESTYLE
  5
18
102
{ACAD_REACTORS
330
17
102
}
330
17
100
AcDbMlineStyle
  2
STANDARD
 70
     0
  3

 62
   256
 51
90.0
 52
90.0
 71
     2
 49
0.5
 62
   256
  6
BYLAYER
 49
-0.5
 62
   256
  6
BYLAYER
  0
ACDBPLACEHOLDER
  5
F
102
{ACAD_REACTORS
330
E
102
}
330
E
  0
TABLESTYLE
  5
AABA
102
{ACAD_XDICTIONARY
360
5B65E
102
}
102
{ACAD_REACTORS
330
AAB9
102
}
330
AAB9
100
AcDbTableStyle
  3
Standard
 70
     0
 71
     0
 40
1.5
 41
1.5
280
     0
281
     0
  7
STANDARD
140
4.5
170
     2
 62
     0
 63
     7
283
     0
274
    -2
284
     1
 64
     0
275
    -2
285
     1
 65
     0
276
    -2
286
     1
 66
     0
277
    -2
287
     1
 67
     0
278
    -2
288
     1
 68
     0
279
    -2
289
     1
 69
     0
  7
STANDARD
140
6.0
170
     5
 62
     0
 63
     7
283
     0
274
    -2
284
     1
 64
     0
275
    -2
285
     1
 65
     0
276
    -2
286
     1
 66
     0
277
    -2
287
     1
 67
     0
278
    -2
288
     1
 68
     0
279
    -2
289
     1
 69
     0
  7
STANDARD
140
4.5
170
     5
 62
     0
 63
     7
283
     0
274
    -2
284
     1
 64
     0
275
    -2
285
     1
 65
     0
276
    -2
286
     1
 66
     0
277
    -2
287
     1
 67
     0
278
    -2
288
     1
 68
     0
279
    -2
289
     1
 69
     0
  0
VISUALSTYLE
  5
B0F7
102
{ACAD_REACTORS
330
B0F1
102
}
330
B0F1
100
AcDbVisualStyle
  2
2dWireframe
 70
     4
 71
     0
 72
     2
 73
     0
 90
        0
 40
-0.6
 41
-30.0
 62
     5
 63
     7
 74
     1
 91
        4
 64
     7
 65
   257
 75
     1
175
     1
 42
1.0
 92
        0
 66
   257
 43
1.0
 76
     1
 77
     6
 78
     2
 67
     7
 79
     5
170
     0
171
     0
290
     0
174
     0
 93
        1
 44
0.0
173
     0
291
     0
 45
0.0
1001
ACAD
1000
AcDbSavedByObjectVersion
1070
     0
  0
VISUALSTYLE
  5
B0F9
102
{ACAD_REACTORS
330
B0F1
102
}
330
B0F1
100
AcDbVisualStyle
  2
3D Hidden
 70
     6
 71
     1
 72
     2
 73
     2
 90
        0
 40
-0.6
 41
-30.0
 62
     5
 63
     7
 74
     2
 91
        2
 64
     7
 65
   257
 75
     2
175
     1
 42
40.0
 92
        0
 66
   257
 43
1.0
 76
     1
 77
     6
 78
     2
 67
     7
 79
     3
170
     0
171
     0
290
     0
174
     0
 93
        1
 44
0.0
173
     0
291
     0
 45
0.0
1001
ACAD
1000
AcDbSavedByObjectVersion
1070
     0
  0
VISUALSTYLE
  5
B0F8
102
{ACAD_REACTORS
330
B0F1
102
}
330
B0F1
100
AcDbVisualStyle
  2
3dWireframe
 70
     5
 71
     0
 72
     2
 73
     0
 90
        0
 40
-0.6
 41
-30.0
 62
     5
 63
     7
 74
     1
 91
        4
 64
     7
 65
   257
 75
     1
175
     1
 42
1.0
 92
        0
 66
   257
 43
1.0
 76
     1
 77
     6
 78
     2
 67
     7
 79
     5
170
     0
171
     0
290
     0
174
     0
 93
        1
 44
0.0
173
     0
291
     0
 45
0.0
1001
ACAD
1000
AcDbSavedByObjectVersion
1070
     0
  0
VISUALSTYLE
  5
B0F6
102
{ACAD_REACTORS
330
B0F1
102
}
330
B0F1
100
AcDbVisualStyle
  2
Basic
 70
     7
 71
     1
 72
     0
 73
     1
 90
        0
 40
-0.6
 41
-30.0
 62
     5
 63
     7
 74
     0
 91
        4
 64
     7
 65
   257
 75
     1
175
     1
 42
1.0
 92
        8
 66
     7
 43
1.0
 76
     1
 77
     6
 78
     2
 67
     7
 79
     5
170
     0
171
     0
290
     0
174
     0
 93
        1
 44
0.0
173
     0
291
     1
 45
0.0
1001
ACAD
1000
AcDbSavedByObjectVersion
1070
     0
  0
VISUALSTYLE
  5
B0FD
102
{ACAD_REACTORS
330
B0F1
102
}
330
B0F1
100
AcDbVisualStyle
  2
Brighten
 70
    12
 71
     2
 72
     2
 73
     0
 90
        0
 40
-0.6
 41
-30.0
 62
     5
 63
     7
 74
     1
 91
        4
 64
     7
 65
   257
 75
     1
175
     1
 42
1.0
 92
        8
 66
     7
 43
1.0
 76
     1
 77
     6
 78
     2
 67
     7
 79
     5
170
     0
171
     0
290
     0
174
     0
 93
        1
 44
50.0
173
     0
291
     1
 45
0.0
1001
ACAD
1000
AcDbSavedByObjectVersion
1070
     0
  0
VISUALSTYLE
  5
B101
102
{ACAD_REACTORS
330
B0F1
102
}
330
B0F1
100
AcDbVisualStyle
  2
ColorChange
 70
    16
 71
     2
 72
     2
 73
     3
 90
        0
 40
-0.6
 41
-30.0
 62
     5
 63
     8
 74
     1
 91
        4
 64
     7
 65
   257
 75
     1
175
     1
 42
1.0
 92
        8
 66
     8
 43
1.0
 76
     1
 77
     6
 78
     2
 67
     7
 79
     5
170
     0
171
     0
290
     0
174
     0
 93
        1
 44
0.0
173
     0
291
     1
 45
0.0
1001
ACAD
1000
AcDbSavedByObjectVersion
1070
     0
  0
VISUALSTYLE
  5
B0FA
102
{ACAD_REACTORS
330
B0F1
102
}
330
B0F1
100
AcDbVisualStyle
  2
Conceptual
 70
     9
 71
     3
 72
     2
 73
     0
 90
        0
 40
-0.6
 41
-30.0
 62
     5
 63
     7
 74
     2
 91
        2
 64
     7
 65
   257
 75
     1
175
     1
 42
40.0
 92
        8
 66
     7
 43
1.0
 76
     1
 77
     6
 78
     2
 67
     7
 79
     3
170
     0
171
     0
290
     0
174
     0
 93
        1
 44
0.0
173
     0
291
     0
 45
0.0
1001
ACAD
1000
AcDbSavedByObjectVersion
1070
     0
  0
VISUALSTYLE
  5
B0FC
102
{ACAD_REACTORS
330
B0F1
102
}
330
B0F1
100
AcDbVisualStyle
  2
Dim
 70
    11
 71
     2
 72
     2
 73
     0
 90
        0
 40
-0.6
 41
-30.0
 62
     5
 63
     7
 74
     1
 91
        4
 64
     7
 65
   257
 75
     1
175
     1
 42
1.0
 92
        8
 66
     7
 43
1.0
 76
     1
 77
     6
 78
     2
 67
     7
 79
     5
170
     0
171
     0
290
     0
174
     0
 93
        1
 44
-50.0
173
     0
291
     1
 45
0.0
1001
ACAD
1000
AcDbSavedByObjectVersion
1070
     0
  0
VISUALSTYLE
  5
B100
102
{ACAD_REACTORS
330
B0F1
102
}
330
B0F1
100
AcDbVisualStyle
  2
Facepattern
 70
    15
 71
     2
 72
     2
 73
     0
 90
        0
 40
-0.6
 41
-30.0
 62
     5
 63
     7
 74
     1
 91
        4
 64
     7
 65
   257
 75
     1
175
     1
 42
1.0
 92
        8
 66
     7
 43
1.0
 76
     1
 77
     6
 78
     2
 67
     7
 79
     5
170
     0
171
     0
290
     0
174
     0
 93
        1
 44
0.0
173
     0
291
     1
 45
0.0
1001
ACAD
1000
AcDbSavedByObjectVersion
1070
     0
  0
VISUALSTYLE
  5
B0F2
102
{ACAD_REACTORS
330
B0F1
102
}
330
B0F1
100
AcDbVisualStyle
  2
Flat
 70
     0
 71
     2
 72
     1
 73
     1
 90
        2
 40
-0.6
 41
30.0
 62
     5
 63
     7
 74
     0
 91
        4
 64
     7
 65
   257
 75
     1
175
     1
 42
1.0
 92
        8
 66
     7
 43
1.0
 76
     1
 77
     6
 78
     2
 67
     7
 79
     5
170
     0
171
     0
290
     0
174
     0
 93
       13
 44
0.0
173
     0
291
     1
 45
0.0
1001
ACAD
1000
AcDbSavedByObjectVersion
1070
     0
  0
VISUALSTYLE
  5
B0F3
102
{ACAD_REACTORS
330
B0F1
102
}
330
B0F1
100
AcDbVisualStyle
  2
FlatWithEdges
 70
     1
 71
     2
 72
     1
 73
     1
 90
        2
 40
-0.6
 41
30.0
 62
     5
 63
     7
 74
     1
 91
        4
 64
     7
 65
   257
 75
     1
175
     1
 42
1.0
 92
        0
 66
   257
 43
1.0
 76
     1
 77
     6
 78
     2
 67
     7
 79
     5
170
     0
171
     0
290
     0
174
     0
 93
       13
 44
0.0
173
     0
291
     1
 45
0.0
1001
ACAD
1000
AcDbSavedByObjectVersion
1070
     0
  0
VISUALSTYLE
  5
B0F4
102
{ACAD_REACTORS
330
B0F1
102
}
330
B0F1
100
AcDbVisualStyle
  2
Gouraud
 70
     2
 71
     2
 72
     2
 73
     1
 90
        2
 40
-0.6
 41
30.0
 62
     5
 63
     7
 74
     0
 91
        4
 64
     7
 65
   257
 75
     1
175
     1
 42
1.0
 92
        0
 66
     7
 43
1.0
 76
     1
 77
     6
 78
     2
 67
     7
 79
     5
170
     0
171
     0
290
     0
174
     0
 93
       13
 44
0.0
173
     0
291
     1
 45
0.0
1001
ACAD
1000
AcDbSavedByObjectVersion
1070
     0
  0
VISUALSTYLE
  5
B0F5
102
{ACAD_REACTORS
330
B0F1
102
}
330
B0F1
100
AcDbVisualStyle
  2
GouraudWithEdges
 70
     3
 71
     2
 72
     2
 73
     1
 90
        2
 40
-0.6
 41
30.0
 62
     5
 63
     7
 74
     1
 91
        4
 64
     7
 65
   257
 75
     1
175
     1
 42
1.0
 92
        0
 66
   257
 43
1.0
 76
     1
 77
     6
 78
     2
 67
     7
 79
     5
170
     0
171
     0
290
     0
174
     0
 93
       13
 44
0.0
173
     0
291
     1
 45
0.0
1001
ACAD
1000
AcDbSavedByObjectVersion
1070
     0
  0
VISUALSTYLE
  5
B0FF
102
{ACAD_REACTORS
330
B0F1
102
}
330
B0F1
100
AcDbVisualStyle
  2
Linepattern
 70
    14
 71
     2
 72
     2
 73
     0
 90
        0
 40
-0.6
 41
-30.0
 62
     5
 63
     7
 74
     1
 91
        4
 64
     7
 65
   257
 75
     7
175
     7
 42
1.0
 92
        8
 66
     7
 43
1.0
 76
     1
 77
     6
 78
     2
 67
     7
 79
     5
170
     0
171
     0
290
     0
174
     0
 93
        1
 44
0.0
173
     0
291
     1
 45
0.0
1001
ACAD
1000
AcDbSavedByObjectVersion
1070
     0
  0
VISUALSTYLE
  5
B0FB
102
{ACAD_REACTORS
330
B0F1
102
}
330
B0F1
100
AcDbVisualStyle
  2
Realistic
 70
     8
 71
     2
 72
     2
 73
     0
 90
        0
 40
-0.6
 41
-30.0
 62
     5
 63
     7
 74
     1
 91
        0
 64
     7
 65
   257
 75
     1
175
     1
 42
1.0
 92
        8
 66
     8
 43
1.0
 76
     1
 77
     6
 78
     2
 67
     7
 79
     5
170
     0
171
     0
290
     0
174
     0
 93
       13
 44
0.0
173
     0
291
     0
 45
0.0
1001
ACAD
1000
AcDbSavedByObjectVersion
1070
     0
  0
VISUALSTYLE
  5
B0FE
102
{ACAD_REACTORS
330
B0F1
102
}
330
B0F1
100
AcDbVisualStyle
  2
Thicken
 70
    13
 71
     2
 72
     2
 73
     0
 90
        0
 40
-0.6
 41
-30.0
 62
     5
 63
     7
 74
     1
 91
        4
 64
     7
 65
   257
 75
     1
175
     1
 42
1.0
 92
       12
 66
     7
 43
1.0
 76
     1
 77
     6
 78
     2
 67
     7
 79
     5
170
     0
171
     0
290
     0
174
     0
 93
        1
 44
0.0
173
     0
291
     1
 45
0.0
1001
ACAD
1000
AcDbSavedByObjectVersion
1070
     0
  0
DICTIONARYVAR
  5
AAF3
102
{ACAD_REACTORS
330
34
102
}
330
34
100
DictionaryVariables
280
     0
  1
STANDARD
  0
DICTIONARYVAR
  5
A10C
102
{ACAD_REACTORS
330
34
102
}
330
34
100
DictionaryVariables
280
     0
  1
1
  0
DICTIONARYVAR
  5
AB07
102
{ACAD_REACTORS
330
34
102
}
330
34
100
DictionaryVariables
280
     0
  1
4
  0
DICTIONARYVAR
  5
35
102
{ACAD_REACTORS
330
34
102
}
330
34
100
DictionaryVariables
280
     0
  1
0
  0
DICTIONARYVAR
  5
194C
102
{ACAD_REACTORS
330
34
102
}
330
34
100
DictionaryVariables
280
     0
  1
127
  0
DICTIONARY
  5
7E8
102
{ACAD_REACTORS
330
47
102
}
330
47
100
AcDbDictionary
281
     1
  0
DICTIONARY
  5
4C
102
{ACAD_REACTORS
330
47
102
}
330
47
100
AcDbDictionary
281
     1
  0
XRECORD
  5
A929
102
{ACAD_REACTORS
330
47
102
}
330
47
100
AcDbXrecord
280
     1
 90
-1023410169
  0
XRECORD
  5
57913
102
{ACAD_REACTORS
330
57912
102
}
330
57912
100
AcDbXrecord
280
     1
330
0
330
0
330
0
330
0
330
0
330
0
330
0
330
0
330
0
330
0
330
0
330
0
330
0
330
0
330
0
330
0
330
0
330
0
330
0
330
0
330
0
330
0
330
0
330
0
330
0
330
0
330
0
330
0
330
0
330
0
330
0
330
0
330
0
330
0
330
0
330
0
330
0
330
0
330
0
330
0
330
0
330
0
330
0
330
0
330
0
330
0
330
0
330
0
330
0
330
0
330
0
330
0
330
0
330
0
330
0
330
0
330
0
330
0
330
0
330
0
330
0
330
0
330
0
330
0
330
0
330
0
330
0
330
0
330
0
330
0
330
0
330
0
330
0
330
0
330
0
330
0
330
0
330
0
330
0
330
0
330
0
330
0
330
0
330
0
330
0
330
0
330
0
330
0
330
0
330
0
330
0
330
0
330
0
330
0
330
0
330
0
330
0
330
0
330
0
330
0
330
0
330
0
330
0
330
0
330
0
330
0
330
0
330
0
330
0
330
0
330
0
330
0
330
0
330
0
330
0
330
0
330
0
330
0
330
0
330
0
330
0
330
0
330
0
330
0
330
0
330
0
330
0
330
0
330
0
330
0
330
0
330
0
330
0
330
0
330
0
330
0
330
0
330
0
330
0
330
0
330
0
330
0
330
0
330
0
330
0
330
0
330
0
330
0
330
0
330
0
330
0
330
0
330
0
330
0
330
0
330
0
330
0
330
0
330
0
330
0
330
0
330
0
330
0
330
0
330
0
330
0
330
0
330
0
330
0
330
0
330
0
330
0
330
0
330
0
330
0
330
0
330
0
330
0
330
0
330
0
330
0
330
0
330
0
330
0
330
0
330
0
330
0
330
0
330
0
330
0
330
0
330
0
330
0
330
0
330
0
330
0
330
0
330
0
330
0
330
0
330
0
330
0
330
0
330
0
330
0
330
0
330
0
330
0
330
0
330
0
330
0
330
0
330
0
330
0
330
0
330
0
330
0
330
0
330
0
330
0
330
0
330
0
330
0
330
0
330
0
330
0
330
0
330
0
330
0
330
0
330
0
330
0
330
0
330
0
330
0
330
0
330
0
330
0
330
0
330
0
330
0
330
0
330
0
330
0
330
0
330
0
330
0
330
0
330
0
330
0
330
0
330
0
330
0
330
0
330
0
330
0
330
0
330
0
330
0
330
0
330
0
330
0
330
0
330
0
330
0
330
0
330
0
330
0
330
0
330
0
330
0
330
0
330
0
330
0
330
0
330
0
330
0
330
0
330
0
330
0
330
0
330
0
330
0
330
0
330
0
330
0
330
0
330
0
330
0
330
0
330
0
330
0
330
0
330
0
330
0
330
0
330
0
330
0
330
0
330
0
330
0
330
0
330
0
330
0
330
0
330
0
330
0
330
0
330
0
330
0
330
0
330
0
330
0
330
0
330
0
330
0
330
0
330
0
330
0
330
0
330
0
330
0
330
0
330
0
330
0
330
0
330
0
330
0
330
0
330
0
330
0
330
0
330
0
330
0
330
0
330
0
330
0
330
0
330
0
330
0
330
0
330
0
330
0
330
0
330
0
330
0
330
0
330
0
330
0
330
0
330
0
330
0
330
0
330
0
330
0
330
0
330
0
330
0
330
0
330
0
330
0
330
0
330
0
330
0
330
0
330
0
330
0
330
0
330
0
330
0
330
0
330
0
330
0
330
0
330
0
330
0
330
0
330
0
330
0
330
0
330
0
330
0
330
0
330
0
330
0
330
0
330
0
330
0
330
0
330
0
330
0
330
0
330
0
330
0
330
0
330
0
330
0
330
0
330
0
330
0
330
0
330
0
330
0
330
0
330
0
330
0
330
0
330
0
330
0
330
0
330
0
330
0
330
0
330
0
330
0
330
0
330
0
330
0
330
0
330
0
330
0
330
0
330
0
330
0
330
0
330
0
330
0
330
0
330
0
330
0
330
0
330
0
330
0
330
0
330
0
330
0
330
0
330
0
330
0
330
0
330
0
330
0
330
0
330
0
330
0
330
0
330
0
330
0
330
0
330
0
330
0
330
0
330
0
330
0
330
0
330
0
330
0
330
0
330
0
330
0
330
0
330
0
330
0
330
0
330
0
330
0
330
0
330
0
330
0
330
0
330
0
330
0
330
0
330
0
330
0
330
0
330
0
330
0
330
0
330
0
330
0
330
0
330
0
330
0
330
0
330
0
330
0
330
0
330
0
330
0
330
0
330
0
330
0
330
0
330
0
330
0
330
0
330
0
330
0
330
0
330
0
330
0
330
0
330
0
330
0
330
0
330
0
330
0
330
0
330
0
330
0
330
0
330
0
330
0
330
0
330
0
330
0
330
0
330
0
330
0
330
0
330
0
330
0
330
0
330
0
330
0
330
0
330
0
330
0
330
0
330
0
330
0
330
0
330
0
330
0
330
0
330
0
330
0
330
0
330
0
330
0
330
0
330
0
330
0
330
0
330
0
330
0
330
0
330
0
330
0
330
0
330
0
330
0
330
0
330
0
330
0
330
0
330
0
330
0
330
0
330
0
330
0
330
0
330
0
330
0
330
0
330
0
330
0
330
0
330
0
330
0
330
0
330
0
330
0
330
0
330
0
330
0
330
0
330
0
330
0
330
0
330
0
330
0
330
0
330
0
330
0
330
0
330
0
330
0
330
0
330
0
330
0
330
0
330
0
330
0
330
0
330
0
330
0
330
0
330
0
330
0
330
0
330
0
330
0
330
0
330
0
330
0
330
0
330
0
330
0
330
0
330
0
330
0
330
0
330
0
330
0
330
0
330
0
330
0
330
0
330
0
330
0
330
0
330
0
330
0
330
0
330
0
330
0
330
0
330
0
330
0
330
0
330
0
330
0
330
0
330
0
330
0
330
0
330
0
330
0
330
0
330
0
330
0
330
0
330
0
330
0
330
0
330
0
330
0
330
0
330
0
330
0
330
0
330
0
330
0
330
0
330
0
330
0
330
0
330
0
330
0
330
0
330
0
330
0
330
0
330
0
330
0
330
0
330
0
330
0
330
0
330
0
330
0
330
0
330
0
330
0
330
0
330
0
330
0
330
0
330
0
330
0
330
0
330
0
330
0
330
0
330
0
330
0
330
0
330
0
330
0
330
0
330
0
330
0
330
0
330
0
330
0
330
0
330
0
330
0
330
0
330
0
330
0
330
0
330
0
330
0
330
0
330
0
330
0
330
0
330
0
330
0
330
0
330
0
330
0
330
0
330
0
330
0
330
0
330
0
330
0
330
0
330
0
330
0
330
0
330
0
330
0
330
0
330
0
330
0
330
0
330
0
330
0
330
0
330
0
330
0
330
0
330
0
330
0
330
0
330
0
330
0
330
0
330
0
330
0
330
0
330
0
330
0
330
0
330
0
330
0
330
0
330
0
330
0
330
0
330
0
330
0
330
0
330
0
330
0
330
0
330
0
330
0
330
0
330
0
330
0
330
0
330
0
330
0
330
0
330
0
330
0
330
0
330
0
330
0
330
0
330
0
330
0
330
0
330
0
330
0
330
0
330
0
330
0
330
0
330
0
330
0
330
0
330
0
330
0
330
0
330
0
330
0
330
0
330
0
330
0
330
0
330
0
330
0
330
0
330
0
330
0
330
0
330
0
330
0
330
0
330
0
330
0
330
0
330
0
330
0
330
0
330
0
330
0
330
0
330
0
330
0
330
0
330
0
330
0
330
0
330
0
330
0
330
0
330
0
330
0
330
0
330
0
330
0
330
0
330
0
330
0
330
0
330
0
330
0
330
0
330
0
330
0
330
0
330
0
330
0
330
0
330
0
330
0
330
0
330
0
330
0
330
0
330
0
330
0
330
0
330
0
330
0
330
0
330
0
330
0
330
0
330
0
330
0
330
0
330
0
330
0
330
0
330
0
330
0
330
0
330
0
330
0
330
0
330
0
330
0
330
0
330
0
330
0
330
0
330
0
330
0
330
0
330
0
330
0
330
0
330
0
330
0
330
0
330
0
330
0
330
0
330
0
330
0
330
0
330
0
330
0
330
0
330
0
330
0
330
0
330
0
330
0
330
0
330
0
330
0
330
0
330
0
330
0
330
0
330
0
330
0
330
0
330
0
330
0
330
0
330
0
330
0
330
0
330
0
330
0
330
0
330
0
330
0
330
0
330
0
330
0
330
0
330
0
330
0
330
0
330
0
330
0
330
0
330
0
330
0
330
0
330
0
330
0
330
0
330
0
330
0
330
0
330
0
330
0
330
0
330
0
330
0
330
0
330
0
330
0
330
0
330
0
330
0
330
0
330
0
330
0
330
0
330
0
330
0
330
0
330
0
330
0
330
0
330
0
330
0
330
0
330
0
330
0
330
0
330
0
330
0
330
0
330
0
330
0
330
0
330
0
330
0
330
0
330
529ED
330
529EE
330
0
330
0
330
52A01
330
52A02
330
0
330
0
330
0
330
0
330
52A1C
330
52A1D
330
52A25
330
52A26
330
52A2E
330
52A2F
330
52A37
330
52A38
330
52A40
330
52A41
330
52A49
330
52A4A
330
0
330
0
330
52A5F
330
52A60
330
0
330
0
330
0
330
0
330
0
330
0
330
0
330
0
330
0
330
0
330
0
330
0
330
0
330
0
330
0
330
0
330
0
330
0
330
0
330
0
330
0
330
0
330
0
330
0
330
0
330
0
330
0
330
0
330
0
330
0
330
0
330
0
330
0
330
0
330
0
330
0
330
0
330
0
330
0
330
0
330
0
330
0
330
0
330
0
330
0
330
0
330
0
330
0
330
0
330
0
330
0
330
0
330
0
330
0
330
0
330
0
330
0
330
0
330
0
330
0
330
0
330
0
330
0
330
0
330
0
330
0
330
0
330
0
330
0
330
0
330
0
330
0
330
0
330
0
330
0
330
0
330
0
330
0
330
0
330
0
330
0
330
0
330
0
330
0
330
0
330
0
330
0
330
0
330
0
330
0
330
0
330
0
330
0
330
0
330
0
330
0
330
0
330
0
330
0
330
0
330
0
330
0
330
0
330
0
330
0
330
0
330
0
330
0
330
0
330
0
330
0
330
0
330
0
330
0
330
0
330
0
330
0
330
0
330
0
330
0
330
0
330
0
330
0
330
0
330
0
330
0
330
0
330
0
330
0
330
0
330
0
330
0
330
0
330
0
330
0
330
0
330
0
330
0
330
0
330
0
330
0
330
0
330
0
330
0
330
0
330
0
330
0
330
0
330
0
330
0
330
0
330
0
330
0
330
0
330
0
330
0
330
0
330
0
330
0
330
0
330
0
330
0
330
0
330
0
330
0
330
0
330
0
330
0
330
0
330
0
330
0
330
0
330
0
330
0
330
0
330
0
330
0
330
0
330
0
330
0
330
0
330
0
330
0
330
0
330
0
330
0
330
0
330
0
330
0
330
0
330
0
330
0
330
0
330
0
330
0
330
0
330
0
330
0
330
0
330
0
330
0
330
0
330
0
330
0
330
0
330
0
330
0
330
0
330
0
330
0
330
0
330
0
330
0
330
0
330
0
330
0
330
0
330
0
330
0
330
0
330
0
330
0
330
0
330
0
330
0
330
0
330
0
330
0
330
0
330
0
330
0
330
0
330
0
330
0
330
0
330
0
330
0
330
0
330
0
330
0
330
0
330
0
330
0
330
0
330
0
330
0
330
0
330
0
330
0
330
0
330
0
330
0
330
0
330
0
330
0
330
0
330
0
330
0
330
0
330
0
330
0
330
0
330
0
330
0
330
0
330
0
330
0
330
0
330
0
330
0
330
0
330
0
330
0
330
0
330
0
330
0
330
0
330
0
330
0
330
0
330
0
330
0
330
0
330
0
330
0
330
0
330
0
330
0
330
0
330
0
330
0
330
0
330
0
330
0
330
0
330
0
330
0
330
0
330
0
330
0
330
0
330
0
330
0
330
0
330
0
330
0
330
0
330
0
330
0
330
0
330
0
330
0
330
0
330
0
330
0
330
0
330
0
330
0
330
0
330
0
330
0
330
0
330
0
330
0
330
0
330
0
330
0
330
0
330
0
330
0
330
0
330
0
330
0
330
0
330
0
330
0
330
0
330
0
330
0
330
0
330
0
330
0
330
0
330
0
330
0
330
0
330
0
330
0
330
0
330
0
330
0
330
0
330
0
330
0
330
0
330
0
330
0
330
0
330
0
330
0
330
0
330
0
330
0
330
0
330
0
330
0
330
0
330
0
330
0
330
0
330
0
330
0
330
0
330
0
330
0
330
0
330
0
330
0
330
0
330
0
330
0
330
0
330
0
330
0
330
0
330
0
330
0
330
0
330
0
330
0
330
0
330
0
330
0
330
0
330
0
330
0
330
0
330
0
330
0
330
0
330
0
330
0
330
0
330
0
330
0
330
0
330
0
330
0
330
0
330
0
330
0
330
0
330
0
330
0
330
0
330
0
330
0
330
0
330
0
330
0
330
0
330
0
330
0
330
0
330
0
330
0
330
0
330
0
330
0
330
0
330
0
330
0
330
0
330
0
330
0
330
0
330
0
330
0
330
0
330
0
330
0
330
0
330
0
330
0
330
0
330
0
330
0
330
0
330
0
330
0
330
0
330
0
330
0
330
0
330
0
330
0
330
0
330
0
330
0
330
0
330
0
330
0
330
0
330
0
330
0
330
0
330
0
330
0
330
0
330
0
330
0
330
0
330
0
330
0
330
0
330
0
330
0
330
0
330
0
330
0
330
0
330
0
330
0
330
0
330
0
330
0
330
0
330
0
330
0
330
0
330
0
330
0
330
0
330
0
330
0
330
0
330
0
330
0
330
0
330
0
330
0
330
0
330
0
330
0
330
0
330
0
330
0
330
0
330
0
330
0
330
0
330
0
330
0
330
0
330
0
330
0
330
0
330
0
330
0
330
0
330
0
330
0
330
0
330
0
330
0
330
0
330
0
330
0
330
0
330
0
330
0
330
0
330
0
330
0
330
0
330
0
330
0
330
0
330
0
330
0
330
0
330
0
330
0
330
0
330
0
330
0
330
0
330
0
330
0
330
0
330
0
330
0
330
0
330
0
330
0
330
0
330
0
330
0
330
0
330
0
330
0
330
0
330
0
330
0
330
0
330
0
330
0
330
0
330
0
330
0
330
0
330
0
330
0
330
0
330
0
330
0
330
0
330
0
330
0
330
0
330
0
330
0
330
0
330
0
330
0
330
0
330
0
330
0
330
0
330
0
330
0
330
0
330
0
330
0
330
0
330
0
330
0
330
0
330
0
330
0
330
0
330
0
330
0
330
0
330
0
330
0
330
0
330
0
330
0
330
0
330
0
330
0
330
0
330
0
330
0
330
0
330
0
330
0
330
0
330
0
330
0
330
0
330
0
330
0
330
0
330
0
330
0
330
0
330
0
330
0
330
0
330
0
330
0
330
0
330
0
330
0
330
0
330
0
330
0
330
0
330
0
330
0
330
0
330
0
330
0
330
0
330
0
330
0
330
0
330
0
330
0
330
0
330
0
330
0
330
0
330
0
330
0
330
0
330
0
330
0
330
0
330
0
330
0
330
0
330
0
330
0
330
0
330
0
330
0
330
0
330
0
330
0
330
0
330
0
330
0
330
0
330
0
330
0
330
0
330
0
330
0
330
0
330
0
330
0
330
0
330
0
330
0
330
0
330
0
330
0
330
0
330
0
330
0
330
0
330
0
330
0
330
0
330
0
330
0
330
0
330
0
330
0
330
0
330
0
330
0
330
0
330
0
330
0
330
0
330
0
330
0
330
0
330
0
330
0
330
0
330
0
330
0
330
0
330
0
330
0
330
0
330
0
330
0
330
0
330
0
330
0
330
0
330
0
330
0
330
0
330
0
330
0
330
0
330
0
330
0
330
0
330
0
330
0
330
0
330
0
330
0
330
0
330
0
330
0
330
0
330
0
330
0
330
0
330
0
330
0
330
0
330
0
330
0
330
0
330
0
330
0
330
0
330
0
330
0
330
0
330
0
330
0
330
0
330
0
330
0
330
0
330
0
330
0
330
0
330
0
330
0
330
0
330
0
330
0
330
0
330
0
330
0
330
0
330
0
330
0
330
0
330
0
330
0
330
0
330
0
330
0
330
0
330
0
330
0
330
0
330
0
330
0
330
0
330
0
330
0
330
0
330
0
330
0
330
0
330
0
330
0
330
0
330
0
330
0
330
0
330
0
330
0
330
0
330
0
330
0
330
0
330
0
330
0
330
0
330
0
330
0
330
0
330
0
330
0
330
0
330
0
330
0
330
0
330
0
330
0
330
0
330
0
330
0
330
0
330
0
330
0
330
0
330
0
330
0
330
0
330
0
330
0
330
0
330
0
330
0
330
0
330
0
330
0
330
0
330
0
330
0
330
0
330
0
330
0
330
0
330
0
330
0
330
0
330
0
330
0
330
0
330
0
330
0
330
0
330
0
330
0
330
0
330
0
330
0
330
0
330
0
330
0
330
0
330
0
330
0
330
0
330
0
330
0
330
0
330
0
330
0
330
0
330
0
330
0
330
0
330
0
330
0
330
0
330
0
330
0
330
0
330
0
330
0
330
0
330
0
330
0
330
0
330
0
330
0
330
0
330
0
  0
XRECORD
  5
3FB7
102
{ACAD_REACTORS
330
3F96
102
}
330
3F96
100
AcDbXrecord
280
     1
 91
        3
330
0
 90
        8
 62
     7
370
    40
331
16
  1
Color_7
330
0
 90
        0
 62
    14
370
    -3
331
16
  1
Color_14
330
0
 90
        8
 62
     7
370
    20
331
16
  1
Color_7
330
6D1
 90
        0
 62
     7
370
    -3
331
16
  1
Color_7
330
0
 90
        8
 62
     7
370
    50
331
16
  1
Color_7
330
0
 90
        8
 62
     2
370
    35
331
16
  1
Color_2
330
0
 90
        8
 62
     7
370
    -3
331
16
  1
Color_7
330
10
 90
        8
 62
     7
370
    -3
331
16
  1
Color_7
  0
DICTIONARY
  5
5B65A
330
22
100
AcDbDictionary
280
     1
281
     1
  3
ACAD_XREC_ROUNDTRIP
360
5B65B
  0
DICTIONARY
  5
5B658
330
1E
100
AcDbDictionary
280
     1
281
     1
  3
ACAD_XREC_ROUNDTRIP
360
5B659
  0
DICTIONARY
  5
5B65C
330
26
100
AcDbDictionary
280
     1
281
     1
  3
ACAD_XREC_ROUNDTRIP
360
5B65D
  0
DICTIONARY
  5
5B662
330
B0EF
100
AcDbDictionary
280
     1
281
     1
  3
ACAD_XREC_ROUNDTRIP
360
5B663
  0
DICTIONARY
  5
5B660
330
B0EE
100
AcDbDictionary
280
     1
281
     1
  3
ACAD_XREC_ROUNDTRIP
360
5B661
  0
DICTIONARY
  5
5B664
330
B0F0
100
AcDbDictionary
280
     1
281
     1
  3
ACAD_XREC_ROUNDTRIP
360
5B665
  0
DICTIONARY
  5
5B65E
330
AABA
100
AcDbDictionary
280
     1
281
     1
  3
ACAD_XREC_ROUNDTRIP
360
5B65F
  0
XRECORD
  5
5B65B
102
{ACAD_REACTORS
330
5B65A
102
}
330
5B65A
100
AcDbXrecord
280
     1
102
SHADEPLOT
 70
     0
102
SHADEPLOTRESLEVEL
 70
     2
102
SHADEPLOTCUSTOMDPI
 70
   200
  0
XRECORD
  5
5B659
102
{ACAD_REACTORS
330
5B658
102
}
330
5B658
100
AcDbXrecord
280
     1
102
SHADEPLOT
 70
     0
102
SHADEPLOTRESLEVEL
 70
     2
102
SHADEPLOTCUSTOMDPI
 70
   300
  0
XRECORD
  5
5B65D
102
{ACAD_REACTORS
330
5B65C
102
}
330
5B65C
100
AcDbXrecord
280
     1
102
SHADEPLOT
 70
     0
102
SHADEPLOTRESLEVEL
 70
     2
102
SHADEPLOTCUSTOMDPI
 70
   300
  0
XRECORD
  5
5B663
102
{ACAD_REACTORS
330
5B662
102
}
330
5B662
100
AcDbXrecord
280
     1
102
MATERIAL
148
0.0
149
0.0
149
0.0
 93
        0
 94
       63
282
     0
 72
     1
 77
     1
171
     1
175
     1
179
     1
273
     0
  0
XRECORD
  5
5B661
102
{ACAD_REACTORS
330
5B660
102
}
330
5B660
100
AcDbXrecord
280
     1
102
MATERIAL
148
0.0
149
0.0
149
0.0
 93
        0
 94
       63
282
     0
 72
     1
 77
     1
171
     1
175
     1
179
     1
273
     0
  0
XRECORD
  5
5B665
102
{ACAD_REACTORS
330
5B664
102
}
330
5B664
100
AcDbXrecord
280
     1
102
MATERIAL
148
0.0
149
0.0
149
0.0
 93
        0
 94
       63
282
     0
 72
     1
 77
     1
171
     1
175
     1
179
     1
273
     0
  0
XRECORD
  5
5B65F
102
{ACAD_REACTORS
330
5B65E
102
}
330
5B65E
100
AcDbXrecord
280
     1
102
ACAD_ROUNDTRIP_PRE2007_TABLESTYLE
 90
        4
 91
        0
  1

 92
        4
 93
        0
  2

 94
        4
 95
        0
  3

  0
ENDSEC
  0
EOF
