  0
SECTION
  2
HEADER
  9
$ACADVER
  1
AC1015
  9
$ACADMAINTVER
 70
    20
  9
$DWGCODEPAGE
  3
ANSI_932
  9
$INSBASE
 10
0.0
 20
0.0
 30
0.0
  9
$EXTMIN
 10
6074.924675701049
 20
-4246.501639484159
 30
0.0
  9
$EXTMAX
 10
6509.212859842138
 20
-4036.501639484159
 30
0.0
  9
$LIMMIN
 10
3779.599158088851
 20
100.7134268036752
  9
$LIMMAX
 10
9719.599158088852
 20
4300.713426803675
  9
$ORTHOMODE
 70
     0
  9
$REGENMODE
 70
     1
  9
$FILLMODE
 70
     1
  9
$QTEXTMODE
 70
     0
  9
$MIRRTEXT
 70
     0
  9
$LTSCALE
 40
1.0
  9
$ATTMODE
 70
     1
  9
$TEXTSIZE
 40
3.2
  9
$TRACEWID
 40
1.0
  9
$TEXTSTYLE
  7
STANDARD
  9
$CLAYER
  8
0部品18
  9
$CELTYPE
  6
ByLayer
  9
$CECOLOR
 62
   256
  9
$CELTSCALE
 40
1.0
  9
$DISPSILH
 70
     0
  9
$DIMSCALE
 40
1.0
  9
$DIMASZ
 40
1.0
  9
$DIMEXO
 40
1.0
  9
$DIMDLI
 40
10.0
  9
$DIMRND
 40
0.0
  9
$DIMDLE
 40
0.0
  9
$DIMEXE
 40
1.0
  9
$DIMTP
 40
0.1
  9
$DIMTM
 40
0.1
  9
$DIMTXT
 40
3.5
  9
$DIMCEN
 40
0.0
  9
$DIMTSZ
 40
0.0
  9
$DIMTOL
 70
     0
  9
$DIMLIM
 70
     0
  9
$DIMTIH
 70
     0
  9
$DIMTOH
 70
     0
  9
$DIMSE1
 70
     0
  9
$DIMSE2
 70
     0
  9
$DIMTAD
 70
     1
  9
$DIMZIN
 70
     8
  9
$DIMBLK
  1

  9
$DIMASO
 70
     1
  9
$DIMSHO
 70
     1
  9
$DIMPOST
  1

  9
$DIMAPOST
  1
"
  9
$DIMALT
 70
     0
  9
$DIMALTD
 70
     2
  9
$DIMALTF
 40
0.0393701
  9
$DIMLFAC
 40
1.0
  9
$DIMTOFL
 70
     1
  9
$DIMTVP
 40
0.0
  9
$DIMTIX
 70
     0
  9
$DIMSOXD
 70
     0
  9
$DIMSAH
 70
     0
  9
$DIMBLK1
  1

  9
$DIMBLK2
  1

  9
$DIMSTYLE
  2
SYS
  9
$DIMCLRD
 70
   256
  9
$DIMCLRE
 70
   256
  9
$DIMCLRT
 70
     7
  9
$DIMTFAC
 40
0.71
  9
$DIMGAP
 40
1.5
  9
$DIMJUST
 70
     0
  9
$DIMSD1
 70
     0
  9
$DIMSD2
 70
     0
  9
$DIMTOLJ
 70
     0
  9
$DIMTZIN
 70
     8
  9
$DIMALTZ
 70
     0
  9
$DIMALTTZ
 70
     0
  9
$DIMUPT
 70
     0
  9
$DIMDEC
 70
     2
  9
$DIMTDEC
 70
     2
  9
$DIMALTU
 70
     2
  9
$DIMALTTD
 70
     2
  9
$DIMTXSTY
  7
STANDARD
  9
$DIMAUNIT
 70
     0
  9
$DIMADEC
 70
     0
  9
$DIMALTRND
 40
0.0
  9
$DIMAZIN
 70
     2
  9
$DIMDSEP
 70
    46
  9
$DIMATFIT
 70
     3
  9
$DIMFRAC
 70
     0
  9
$DIMLDRBLK
  1

  9
$DIMLUNIT
 70
     2
  9
$DIMLWD
 70
    -1
  9
$DIMLWE
 70
    -1
  9
$DIMTMOVE
 70
     0
  9
$LUNITS
 70
     2
  9
$LUPREC
 70
     2
  9
$SKETCHINC
 40
1.0
  9
$FILLETRAD
 40
1.5
  9
$AUNITS
 70
     0
  9
$AUPREC
 70
     0
  9
$MENU
  1
.
  9
$ELEVATION
 40
0.0
  9
$PELEVATION
 40
0.0
  9
$THICKNESS
 40
0.0
  9
$LIMCHECK
 70
     0
  9
$CHAMFERA
 40
0.0
  9
$CHAMFERB
 40
0.0
  9
$CHAMFERC
 40
20.0
  9
$CHAMFERD
 40
0.0
  9
$SKPOLY
 70
     0
  9
$TDCREATE
 40
2455567.680725081
  9
$TDUCREATE
 40
2455567.305725081
  9
$TDUPDATE
 40
2456338.842933298
  9
$TDUUPDATE
 40
2456338.467933299
  9
$TDINDWG
 40
8.1332463079
  9
$TDUSRTIMER
 40
8.1332446759
  9
$USRTIMER
 70
     1
  9
$ANGBASE
 50
0.0
  9
$ANGDIR
 70
     0
  9
$PDMODE
 70
     0
  9
$PDSIZE
 40
-3.0
  9
$PLINEWID
 40
0.0
  9
$SPLFRAME
 70
     0
  9
$SPLINETYPE
 70
     6
  9
$SPLINESEGS
 70
     8
  9
$HANDSEED
  5
5B561
  9
$SURFTAB1
 70
     6
  9
$SURFTAB2
 70
     6
  9
$SURFTYPE
 70
     6
  9
$SURFU
 70
     6
  9
$SURFV
 70
     6
  9
$UCSBASE
  2

  9
$UCSNAME
  2

  9
$UCSORG
 10
0.0
 20
0.0
 30
0.0
  9
$UCSXDIR
 10
1.0
 20
0.0
 30
0.0
  9
$UCSYDIR
 10
0.0
 20
1.0
 30
0.0
  9
$UCSORTHOREF
  2

  9
$UCSORTHOVIEW
 70
     0
  9
$UCSORGTOP
 10
0.0
 20
0.0
 30
0.0
  9
$UCSORGBOTTOM
 10
0.0
 20
0.0
 30
0.0
  9
$UCSORGLEFT
 10
0.0
 20
0.0
 30
0.0
  9
$UCSORGRIGHT
 10
0.0
 20
0.0
 30
0.0
  9
$UCSORGFRONT
 10
0.0
 20
0.0
 30
0.0
  9
$UCSORGBACK
 10
0.0
 20
0.0
 30
0.0
  9
$PUCSBASE
  2

  9
$PUCSNAME
  2

  9
$PUCSORG
 10
0.0
 20
0.0
 30
0.0
  9
$PUCSXDIR
 10
1.0
 20
0.0
 30
0.0
  9
$PUCSYDIR
 10
0.0
 20
1.0
 30
0.0
  9
$PUCSORTHOREF
  2

  9
$PUCSORTHOVIEW
 70
     0
  9
$PUCSORGTOP
 10
0.0
 20
0.0
 30
0.0
  9
$PUCSORGBOTTOM
 10
0.0
 20
0.0
 30
0.0
  9
$PUCSORGLEFT
 10
0.0
 20
0.0
 30
0.0
  9
$PUCSORGRIGHT
 10
0.0
 20
0.0
 30
0.0
  9
$PUCSORGFRONT
 10
0.0
 20
0.0
 30
0.0
  9
$PUCSORGBACK
 10
0.0
 20
0.0
 30
0.0
  9
$USERI1
 70
     0
  9
$USERI2
 70
     0
  9
$USERI3
 70
     0
  9
$USERI4
 70
     0
  9
$USERI5
 70
     0
  9
$USERR1
 40
0.0
  9
$USERR2
 40
0.0
  9
$USERR3
 40
0.0
  9
$USERR4
 40
0.0
  9
$USERR5
 40
0.0
  9
$WORLDVIEW
 70
     1
  9
$SHADEDGE
 70
     3
  9
$SHADEDIF
 70
    70
  9
$TILEMODE
 70
     1
  9
$MAXACTVP
 70
    64
  9
$PINSBASE
 10
0.0
 20
0.0
 30
0.0
  9
$PLIMCHECK
 70
     0
  9
$PEXTMIN
 10
1.000000000000000E+20
 20
1.000000000000000E+20
 30
1.000000000000000E+20
  9
$PEXTMAX
 10
-1.000000000000000E+20
 20
-1.000000000000000E+20
 30
-1.000000000000000E+20
  9
$PLIMMIN
 10
-3.17498779296875
 20
-3.174999952316284
  9
$PLIMMAX
 10
293.4970092773438
 20
206.692492723465
  9
$UNITMODE
 70
     0
  9
$VISRETAIN
 70
     1
  9
$PLINEGEN
 70
     0
  9
$PSLTSCALE
 70
     1
  9
$TREEDEPTH
 70
  3020
  9
$CMLSTYLE
  2
Standard
  9
$CMLJUST
 70
     0
  9
$CMLSCALE
 40
20.0
  9
$PROXYGRAPHICS
 70
     1
  9
$MEASUREMENT
 70
     1
  9
$CELWEIGHT
370
    -1
  9
$ENDCAPS
280
     0
  9
$JOINSTYLE
280
     0
  9
$LWDISPLAY
290
     1
  9
$INSUNITS
 70
     4
  9
$HYPERLINKBASE
  1

  9
$STYLESHEET
  1
monochrome.ctb
  9
$XEDIT
290
     1
  9
$CEPSNTYPE
380
     0
  9
$PSTYLEMODE
290
     1
  9
$FINGERPRINTGUID
  2
{487E49EE-344A-43F6-800E-CE119D8346FF}
  9
$VERSIONGUID
  2
{DFE7CD15-6205-4209-BC51-8A249E7D695F}
  9
$EXTNAMES
290
     1
  9
$PSVPSCALE
 40
0.0
  9
$OLESTARTUP
290
     0
  0
ENDSEC
  0
SECTION
  2
CLASSES
  0
CLASS
  1
ACDBDICTIONARYWDFLT
  2
AcDbDictionaryWithDefault
  3
ObjectDBX Classes
 90
        0
280
     0
281
     0
  0
CLASS
  1
ACDBPLACEHOLDER
  2
AcDbPlaceHolder
  3
ObjectDBX Classes
 90
        0
280
     0
281
     0
  0
CLASS
  1
LAYOUT
  2
AcDbLayout
  3
ObjectDBX Classes
 90
        0
280
     0
281
     0
  0
CLASS
  1
AMGSETTINGSOBJ
  2
AmgSettingsObj
  3
"AcadM|Product Description: AutoCAD Mechanical|Company: Autodesk"
 90
        0
280
     0
281
     0
  0
CLASS
  1
ACME_DOCUMENT
  2
AcMeDbDoc
  3
AcMeServices
 90
        0
280
     0
281
     0
  0
CLASS
  1
ACMESCOPE
  2
AcMeScope
  3
AcMeServices
 90
        0
280
     0
281
     0
  0
CLASS
  1
ACMECOMMANDHISTORY
  2
AcMeCommandHistory
  3
AcMeServices
 90
        0
280
     0
281
     0
  0
CLASS
  1
DICTIONARYVAR
  2
AcDbDictionaryVar
  3
ObjectDBX Classes
 90
        0
280
     0
281
     0
  0
CLASS
  1
ACIMSYSVARMAN
  2
AcImSysVarManager
  3
AcMeServices
 90
        0
280
     0
281
     0
  0
CLASS
  1
ACIMREALSYSVAR
  2
AcImRealSysVar
  3
AcMeServices
 90
        0
280
     0
281
     0
  0
CLASS
  1
ACIMINTSYSVAR
  2
AcImIntSysVar
  3
AcMeServices
 90
        0
280
     0
281
     0
  0
CLASS
  1
ACMEDRAWINGMAN
  2
AcMeDrawingMan
  3
AcMeServices
 90
        0
280
     0
281
     0
  0
CLASS
  1
ACMEVIEW
  2
AcMeView
  3
AcMeServices
 90
        0
280
     0
281
     0
  0
CLASS
  1
ACDBENTITYCACHE
  2
AcMeEntityCache
  3
AcMeServices
 90
        0
280
     0
281
     0
  0
CLASS
  1
GSMANAGER
  2
AcMeGSManager
  3
AcMeServices
 90
        0
280
     0
281
     0
  0
CLASS
  1
AMDTINTERNALREACTOR
  2
AmdtInternalReactor
  3
AcMeServices
 90
        0
280
     0
281
     0
  0
CLASS
  1
ACMESTATEMGR
  2
AcMeStateMgr
  3
AcMeServices
 90
        0
280
     0
281
     0
  0
CLASS
  1
ACGREFMASTER
  2
AcGrefMaster
  3
AcAttribServices
 90
        0
280
     0
281
     0
  0
CLASS
  1
ACME_DATABASE
  2
AcMeDbDatabase
  3
AcMeServices
 90
        0
280
     0
281
     0
  0
CLASS
  1
ACRFINSADJUSTERMGR
  2
AcRfInsAdjusterMgr
  3
AcMeServices
 90
        0
280
     0
281
     0
  0
CLASS
  1
ACGREFACADMASTER
  2
AcGrefacadMaster
  3
AcGrefServices
 90
        0
280
     0
281
     0
  0
CLASS
  1
AMIMASTER
  2
AmiMaster
  3
AmiServices
 90
        0
280
     0
281
     0
  0
CLASS
  1
ACMDATADICTIONARY
  2
AcmDataDictionary
  3
"AcmSymBB|Product Description: AutoCAD Mechanical|Company: Autodesk"
 90
        0
280
     0
281
     0
  0
CLASS
  1
ACMDATAENTRYBLOCK
  2
AcmDataEntryBlock
  3
"AcmSymBB|Product Description: AutoCAD Mechanical|Company: Autodesk"
 90
        0
280
     0
281
     0
  0
CLASS
  1
ACIMSTRSYSVAR
  2
AcImStrSysVar
  3
AcMeServices
 90
        0
280
     0
281
     0
  0
CLASS
  1
ACMSTANDARDISO
  2
AcmStandardISO
  3
"Amdt_StdImp|Product Description: AutoCAD Mechanical|Company: Autodesk"
 90
        0
280
     0
281
     0
  0
CLASS
  1
AMGOBJPROPCFG
  2
AmgObjPropCfg
  3
"AmgLay|Product Description: AutoCAD Mechanical|Company: Autodesk"
 90
        1
280
     0
281
     0
  0
CLASS
  1
AMDTEDGESTANDARDISO
  2
AmdtEdgeStdISO
  3
"Amdt_StdImp|Product Description: AutoCAD Mechanical|Company: Autodesk"
 90
        0
280
     0
281
     0
  0
CLASS
  1
ACMSURFSTANDARDISO
  2
AcmSurfTextStdISO
  3
"Amdt_StdImp|Product Description: AutoCAD Mechanical|Company: Autodesk"
 90
        0
280
     0
281
     0
  0
CLASS
  1
ACMFCFSTANDARDISO
  2
AcmFCFStdISO
  3
"Amdt_StdImp|Product Description: AutoCAD Mechanical|Company: Autodesk"
 90
        0
280
     0
281
     0
  0
CLASS
  1
ACMWELDSTANDARDISO
  2
AcmWeldingStdISO
  3
"Amdt_StdImp|Product Description: AutoCAD Mechanical|Company: Autodesk"
 90
        0
280
     0
281
     0
  0
CLASS
  1
ACMIDSTANDARDISO
  2
AcmIdStdISO
  3
"Amdt_StdImp|Product Description: AutoCAD Mechanical|Company: Autodesk"
 90
        0
280
     0
281
     0
  0
CLASS
  1
ACMDATUMSTANDARDISO
  2
AcmDatumStdISO
  3
"Amdt_StdImp|Product Description: AutoCAD Mechanical|Company: Autodesk"
 90
        0
280
     0
281
     0
  0
CLASS
  1
ACMBOMSTANDARDISO
  2
AcmBOMStdISO
  3
"Amdt_StdImp|Product Description: AutoCAD Mechanical|Company: Autodesk"
 90
        0
280
     0
281
     0
  0
CLASS
  1
ACMDETAILSTANDARDISO
  2
AmdtDetailSymStdISO
  3
"Amdt_StdImp|Product Description: AutoCAD Mechanical|Company: Autodesk"
 90
        0
280
     0
281
     0
  0
CLASS
  1
ACMSECTIONSTANDARDISO
  2
AmdtSectionSymStdISO
  3
"Amdt_StdImp|Product Description: AutoCAD Mechanical|Company: Autodesk"
 90
        0
280
     0
281
     0
  0
CLASS
  1
ACMCENTERLINESTANDARDISO
  2
AmdtCenterLineStdISO
  3
"Amdt_StdImp|Product Description: AutoCAD Mechanical|Company: Autodesk"
 90
        0
280
     0
281
     0
  0
CLASS
  1
ACAMGLAYSTD
  2
AcAmgLayStd
  3
"AmgLay|Product Description: AutoCAD Mechanical|Company: Autodesk"
 90
        0
280
     0
281
     0
  0
CLASS
  1
ACAMGDIMSTD
  2
AcAmgDimStd
  3
"AmgDim|Product Description: AutoCAD Mechanical|Company: Autodesk"
 90
        0
280
     0
281
     0
  0
CLASS
  1
ACAMGTITLESTD
  2
AcAmgTitleStd
  3
"AmgTitle|Product Description: AutoCAD Mechanical|Company: Autodesk"
 90
        0
280
     0
281
     0
  0
CLASS
  1
ACAMGFILTERDAT
  2
AcAmgFilterDat
  3
"AcadM|Product Description: AutoCAD Mechanical|Company: Autodesk"
 90
        0
280
     0
281
     0
  0
CLASS
  1
LAYER_INDEX
  2
AcDbLayerIndex
  3
ObjectDBX Classes
 90
    32768
280
     0
281
     0
  0
CLASS
  1
IDBUFFER
  2
AcDbIdBuffer
  3
ObjectDBX Classes
 90
    32768
280
     0
281
     0
  0
CLASS
  1
PLOTSETTINGS
  2
AcDbPlotSettings
  3
ObjectDBX Classes
 90
    32768
280
     0
281
     0
  0
CLASS
  1
AMDTFORMULAUPDATEDISPATCHER
  2
AmdtFormulaUpdateDispatcher
  3
AcMeServices
 90
        0
280
     0
281
     0
  0
CLASS
  1
ACMSTANDARDANSI
  2
AcmStandardANSI
  3
"Amdt_StdImp|Product Description: AutoCAD Mechanical|Company: Autodesk"
 90
        0
280
     0
281
     0
  0
CLASS
  1
ACMSURFSTANDARDANSI
  2
AcmSurfTextStdANSI
  3
"Amdt_StdImp|Product Description: AutoCAD Mechanical|Company: Autodesk"
 90
        0
280
     0
281
     0
  0
CLASS
  1
ACMFCFSTANDARDANSI
  2
AcmFCFStdANSI
  3
"Amdt_StdImp|Product Description: AutoCAD Mechanical|Company: Autodesk"
 90
        0
280
     0
281
     0
  0
CLASS
  1
ACMWELDSTANDARDANSI
  2
AcmWeldingStdANSI
  3
"Amdt_StdImp|Product Description: AutoCAD Mechanical|Company: Autodesk"
 90
        0
280
     0
281
     0
  0
CLASS
  1
ACMIDSTANDARDANSI
  2
AcmIdStdANSI
  3
"Amdt_StdImp|Product Description: AutoCAD Mechanical|Company: Autodesk"
 90
        0
280
     0
281
     0
  0
CLASS
  1
ACMDATUMSTANDARDANSI
  2
AcmDatumStdANSI
  3
"Amdt_StdImp|Product Description: AutoCAD Mechanical|Company: Autodesk"
 90
        0
280
     0
281
     0
  0
CLASS
  1
ACMBOMSTANDARDANSI
  2
AcmBOMStdANSI
  3
"Amdt_StdImp|Product Description: AutoCAD Mechanical|Company: Autodesk"
 90
        0
280
     0
281
     0
  0
CLASS
  1
ACMDETAILSTANDARDANSI
  2
AmdtDetailSymStdANSI
  3
"Amdt_StdImp|Product Description: AutoCAD Mechanical|Company: Autodesk"
 90
        0
280
     0
281
     0
  0
CLASS
  1
ACMSECTIONSTANDARDANSI
  2
AmdtSectionSymStdANSI
  3
"Amdt_StdImp|Product Description: AutoCAD Mechanical|Company: Autodesk"
 90
        0
280
     0
281
     0
  0
CLASS
  1
ACMCENTERLINESTANDARDANSI
  2
AmdtCenterLineStdANSI
  3
"Amdt_StdImp|Product Description: AutoCAD Mechanical|Company: Autodesk"
 90
        0
280
     0
281
     0
  0
CLASS
  1
ACMBOM
  2
AcmBom
  3
"AcmSymBB|Product Description: AutoCAD Mechanical|Company: Autodesk"
 90
        0
280
     0
281
     0
  0
CLASS
  1
ACMDATAENTRYPART
  2
AcmDataEntryPart
  3
"AcmSymBB|Product Description: AutoCAD Mechanical|Company: Autodesk"
 90
    32768
280
     0
281
     0
  0
CLASS
  1
ACMPARTREF
  2
AcmPartRef
  3
"AcmSymBB|Product Description: AutoCAD Mechanical|Company: Autodesk"
 90
    35839
280
     0
281
     1
  0
CLASS
  1
ACDBCIRCARCRES
  2
AcDbCircArcRes
  3
AcGrefServices
 90
    32768
280
     0
281
     0
  0
CLASS
  1
ACMBOMROW
  2
AcmBomRow
  3
"AcmSymBB|Product Description: AutoCAD Mechanical|Company: Autodesk"
 90
    32768
280
     0
281
     0
  0
CLASS
  1
ACMBALLOON
  2
AcmBalloon
  3
"AcmSymBB|Product Description: AutoCAD Mechanical|Company: Autodesk"
 90
    35839
280
     0
281
     1
  0
CLASS
  1
AMDTNOTE
  2
AmdtNote
  3
"AcmSymBB|Product Description: AutoCAD Mechanical|Company: Autodesk"
 90
    35839
280
     0
281
     1
  0
CLASS
  1
STDPART2D
  2
AmgStdPart
  3
"AmgStdPart|Product Description: AutoCAD Mechanical|Company: Autodesk"
 90
    35839
280
     0
281
     1
  0
CLASS
  1
ACDBSTDPARTRES_LINE
  2
AcDbStdPartRes_Line
  3
"AmgStdPart|Product Description: AutoCAD Mechanical|Company: Autodesk"
 90
    32768
280
     0
281
     0
  0
CLASS
  1
ACMDATAENTRY
  2
AcmDataEntry
  3
"AcmSymBB|Product Description: AutoCAD Mechanical|Company: Autodesk"
 90
        0
280
     0
281
     0
  0
CLASS
  1
ACDBOPPOLYLINERES
  2
AcDbOpPolylineRes
  3
AcGrefServices
 90
    32768
280
     0
281
     0
  0
CLASS
  1
ACMPARTLIST
  2
AcmPartList
  3
"AcmSymBB|Product Description: AutoCAD Mechanical|Company: Autodesk"
 90
    35839
280
     0
281
     1
  0
CLASS
  1
ACDBLINERES
  2
AcDbLineRes
  3
AcGrefServices
 90
        0
280
     0
281
     0
  0
CLASS
  1
ACRFINSADJ
  2
AcRfInsAdjuster
  3
AcMeServices
 90
    32768
280
     0
281
     0
  0
CLASS
  1
AM_DRAWING_MGR
  2
AcDmDwgMgr
  3
AcMechDwgViewMgmt
 90
        0
280
     0
281
     0
  0
CLASS
  1
AM_DWG_DOCUMENT
  2
AcDmDwgDocument
  3
AcMechDwgViewMgmt
 90
        0
280
     0
281
     0
  0
CLASS
  1
AM_DWG_SHEET
  2
AcDmSheet
  3
AcMechDwgViewMgmt
 90
        0
280
     0
281
     0
  0
CLASS
  1
AM_VIEWDIMPARMAP
  2
AcDmViewDimParMap
  3
AcMechDwgViewMgmt
 90
        0
280
     0
281
     0
  0
CLASS
  1
AM_DWGMGR_NAME
  2
AcDmDwgMgrName
  3
AcMechDwgViewMgmt
 90
        0
280
     0
281
     0
  0
CLASS
  1
AMDTMENUSTATEMGR
  2
AmdtMenuStateMgr
  3
McadcomServices
 90
        0
280
     0
281
     0
  0
CLASS
  1
AMDTMCOMMENUSTATE
  2
AmdtMcomMenuState
  3
McadcomServices
 90
        0
280
     0
281
     0
  0
CLASS
  1
ASAPP
  2
AcAsAppObject
  3
AutoSurfServices
 90
        0
280
     0
281
     0
  0
CLASS
  1
IM_STATIC_MAN
  2
AcImStaticVarManager
  3
AcMeServices
 90
        0
280
     0
281
     0
  0
CLASS
  1
ACIMDBLSTATICVAR
  2
AcImDblStaticVar
  3
AcMeServices
 90
        0
280
     0
281
     0
  0
CLASS
  1
ACIMSTRSTATICVAR
  2
AcImStrStaticVar
  3
AcMeServices
 90
        0
280
     0
281
     0
  0
CLASS
  1
ACIMINTSTATICVAR
  2
AcImIntStaticVar
  3
AcMeServices
 90
        0
280
     0
281
     0
  0
CLASS
  1
ACASGREFMASTER
  2
AcAsGrefMaster
  3
AutoSurfResolverServices
 90
        0
280
     0
281
     0
  0
CLASS
  1
ACADGREFMODULE
  2
AcAdGrefModule
  3
AdGrefServices
 90
        0
280
     0
281
     0
  0
CLASS
  1
AMDTMAPISURFMOUDULE
  2
AmdtMApiSurfModule
  3
MApiSurfServices
 90
        0
280
     0
281
     0
  0
CLASS
  1
MAPIAMMOUDLE
  2
MApiAmModule
  3
MApiAmServices
 90
        0
280
     0
281
     0
  0
CLASS
  1
AMDTADMENUSTATE
  2
AmdtAdMenuState
  3
DesignerServices
 90
        0
280
     0
281
     0
  0
CLASS
  1
ADAPPL
  2
AcAdAppl
  3
DesignerServices
 90
        0
280
     0
281
     0
  0
CLASS
  1
DEPMGR
  2
AcAdDepMgr
  3
DesignerServices
 90
        0
280
     0
281
     0
  0
CLASS
  1
PARAMMGR
  2
AcAdParamMgr
  3
DesignerServices
 90
        0
280
     0
281
     0
  0
CLASS
  1
PARAMSCOPE
  2
AcAdParamScope
  3
DesignerServices
 90
        0
280
     0
281
     0
  0
CLASS
  1
NAMEDAPPL
  2
AcAdNamedAppl
  3
DesignerServices
 90
        0
280
     0
281
     0
  0
CLASS
  1
ADHNTMPLT
  2
AdHoleNoteTemplateMgr
  3
DesignerServices
 90
    32768
280
     0
281
     0
  0
CLASS
  1
AM_HNTEMPLATE_MGR_NAME
  2
AdHoleNoteTemplateMgrName
  3
DesignerServices
 90
    32768
280
     0
281
     0
  0
CLASS
  1
AMDTDMMENUSTATE
  2
AmdtDmMenuState
  3
AcMechDwgViewMgmt
 90
        0
280
     0
281
     0
  0
CLASS
  1
MAPIADMODULE
  2
MApiAdModule
  3
MApiAdServices
 90
        0
280
     0
281
     0
  0
CLASS
  1
AMDTAMMENUSTATE
  2
AmdtAmMenuState
  3
DesignerAssemblies
 90
        0
280
     0
281
     0
  0
CLASS
  1
ACAMPROJECT
  2
AcAmProject
  3
DesignerAssemblies
 90
        0
280
     0
281
     0
  0
CLASS
  1
ACAMGRCOMPDEF
  2
AcAmGrCompDef
  3
DesignerAssemblies
 90
        0
280
     0
281
     0
  0
CLASS
  1
ACCMCONTEXT
  2
AcCmContext
  3
DesignerAssemblies
 90
        0
280
     0
281
     0
  0
CLASS
  1
ACAMCOMPDEF
  2
AcAmCompDef
  3
DesignerAssemblies
 90
        0
280
     0
281
     0
  0
CLASS
  1
ACAMCOMPDEFMGR
  2
AcAmCompDefMgr
  3
DesignerAssemblies
 90
        0
280
     0
281
     0
  0
CLASS
  1
AMCONTEXTMGR
  2
AcAmContextMgr
  3
DesignerAssemblies
 90
        0
280
     0
281
     0
  0
CLASS
  1
ACAMCONTEXTMODELER
  2
AcAmContextModeler
  3
DesignerAssemblies
 90
        0
280
     0
281
     0
  0
CLASS
  1
CATALOGSTATE
  2
AcAmCatalogState
  3
DesignerAssemblies
 90
        0
280
     0
281
     0
  0
CLASS
  1
ACAMGRCOMPDEFSET
  2
AcAmGrCompDefSet
  3
DesignerAssemblies
 90
        0
280
     0
281
     0
  0
CLASS
  1
AMDTBROWSERDBTAB
  2
AmdtBrowserDbTab
  3
McadcomServices
 90
        0
280
     0
281
     0
  0
CLASS
  1
CBROWSERAPPOBJECT
  2
CBrowserAppObject
  3
McadcomServices
 90
        0
280
     0
281
     0
  0
CLASS
  1
DM_PLACEHOLDER
  2
AcDmSelsetPlaceholder
  3
AcMechDwgViewMgmt
 90
        0
280
     0
281
     0
  0
CLASS
  1
ACMPICKOBJ
  2
AcmPickEnt
  3
"AcmSymBB|Product Description: AutoCAD Mechanical|Company: Autodesk"
 90
    32768
280
     0
281
     1
  0
CLASS
  1
ACMNOTESTANDARDISO
  2
AmdtNoteStdISO
  3
"Amdt_StdImp|Product Description: AutoCAD Mechanical|Company: Autodesk"
 90
        0
280
     0
281
     0
  0
CLASS
  1
ACMNOTESTANDARDANSI
  2
AmdtNoteStdANSI
  3
"Amdt_StdImp|Product Description: AutoCAD Mechanical|Company: Autodesk"
 90
        0
280
     0
281
     0
  0
CLASS
  1
ACMTHREADLINESTANDARDISO
  2
AmdtThreadLineStdISO
  3
"Amdt_StdImp|Product Description: AutoCAD Mechanical|Company: Autodesk"
 90
        0
280
     0
281
     0
  0
CLASS
  1
ACMTHREADLINESTANDARDANSI
  2
AmdtThreadLineStdANSI
  3
"Amdt_StdImp|Product Description: AutoCAD Mechanical|Company: Autodesk"
 90
        0
280
     0
281
     0
  0
CLASS
  1
TABLESTYLE
  2
AcDbTableStyle
  3
ObjectDBX Classes
 90
     4095
280
     0
281
     0
  0
CLASS
  1
SORTENTSTABLE
  2
AcDbSortentsTable
  3
ObjectDBX Classes
 90
        0
280
     0
281
     0
  0
CLASS
  1
MATERIAL
  2
AcDbMaterial
  3
ObjectDBX Classes
 90
     1153
280
     0
281
     0
  0
CLASS
  1
VISUALSTYLE
  2
AcDbVisualStyle
  3
ObjectDBX Classes
 90
     4095
280
     0
281
     0
  0
CLASS
  1
ACRFATTGENMGR
  2
AcRfAttGeneralMgr
  3
AcAttribServices
 90
        0
280
     0
281
     0
  0
CLASS
  1
ACRFOBJATTMGR
  2
AcRfObjAttGroupMgr
  3
AcAttribServices
 90
        0
280
     0
281
     0
  0
CLASS
  1
ACRFMCADAPIATTHOLDER
  2
AcRfMCADAPIAttHolder
  3
AcAttribServices
 90
        0
280
     0
281
     0
  0
CLASS
  1
AMDTSYSATTR
  2
AmdtSystemAttribute
  3
AcAttribServices
 90
        0
280
     0
281
     0
  0
CLASS
  1
ACMTAPERSTANDARDISO
  2
AcmTaperStdISO
  3
"Amdt_StdImp|Product Description: AutoCAD Mechanical|Company: Autodesk"
 90
        0
280
     0
281
     0
  0
CLASS
  1
CAMSSTRUCTBTNSTATE
  2
StructBtnState
  3
L"DesignerAssemblies"
 90
        0
280
     0
281
     0
  0
CLASS
  1
DIMASSOC
  2
AcDbDimAssoc
  3
"AcDbDimAssoc|Product Desc:     AcDim ARX App For Dimension|Company:          Autodesk, Inc.|WEB Address:      www.autodesk.com"
 90
    32768
280
     0
281
     0
  0
CLASS
  1
EXACXREFPANELOBJECT
  2
ExAcXREFPanelObject
  3
EXAC_ESW
 90
    33793
280
     0
281
     0
  0
CLASS
  1
NPOCOLLECTION
  2
AcDbImpNonPersistentObjectsCollection
  3
ObjectDBX Classes
 90
    33921
280
     0
281
     0
  0
CLASS
  1
AMDTEDGESTANDARDISO13715
  2
AmdtEdgeStdISO13715
  3
"Amdt_StdImp|Product Description: AutoCAD Mechanical|Company: Autodesk"
 90
        0
280
     0
281
     0
  0
CLASS
  1
AMDTNOTETEMPLATEDB
  2
AmdtNoteTemplateDB
  3
AMDT_STDIMP_MODULE_NAME
 90
        0
280
     0
281
     0
  0
CLASS
  1
ACAMGHOLECHARTSTDISO
  2
AcAmgHoleChartStdISO
  3
ACMSYMBB_MODULE_NAME
 90
        0
280
     0
281
     0
  0
CLASS
  1
ACMTAPERSTANDARDANSI
  2
AcmTaperStdANSI
  3
"Amdt_StdImp|Product Description: AutoCAD Mechanical|Company: Autodesk"
 90
        0
280
     0
281
     0
  0
CLASS
  1
ACAMGHOLECHARTSTDANSI
  2
AcAmgHoleChartStdANSI
  3
ACMSYMBB_MODULE_NAME
 90
        0
280
     0
281
     0
  0
CLASS
  1
ACAMSTDPCOMPDEF
  2
AcAmStdpCompDef
  3
DesignerAssemblies
 90
    32768
280
     0
281
     0
  0
CLASS
  1
ACAMCOMP
  2
AcAmComp
  3
DesignerAssemblies
 90
    32768
280
     0
281
     0
  0
CLASS
  1
AC_AM_STDP_VIEW_DEF
  2
AcAmStdpViewDef
  3
DesignerAssemblies
 90
    32768
280
     0
281
     0
  0
CLASS
  1
AC_AM_MVD_DEP_MGR
  2
AcAmMVDdepMgr
  3
DesignerAssemblies
 90
        0
280
     0
281
     0
  0
CLASS
  1
AC_AM_MASTER_VIEW_DEF
  2
AcAmMasterViewDef
  3
DesignerAssemblies
 90
        0
280
     0
281
     0
  0
CLASS
  1
AC_AM_DIRTY_NODES
  2
AcAmDirtyNodes
  3
DesignerAssemblies
 90
        0
280
     0
281
     0
  0
CLASS
  1
AC_AM_MAPPER_CACHE
  2
AcAmMapperCache
  3
DesignerAssemblies
 90
        0
280
     0
281
     0
  0
CLASS
  1
ACAMMVDBACKUPOBJECT
  2
AcAmMVDBackupObject
  3
DesignerAssemblies
 90
        0
280
     0
281
     0
  0
CLASS
  1
AC_AM_COMP_VIEW_INST
  2
AcAmCompView
  3
DesignerAssemblies
 90
    32768
280
     0
281
     0
  0
CLASS
  1
AC_AM_2D_XREF_MGR
  2
AcAmXrefMgr2d
  3
DesignerAssemblies
 90
        0
280
     0
281
     0
  0
CLASS
  1
AC_AM_HIDE_SITUATION
  2
AcAmHideSituation
  3
DesignerAssemblies
 90
    32768
280
     0
281
     0
  0
CLASS
  1
AC_AM_TRANSFORM_GHOST
  2
AcDbTransformGhost
  3
DesignerAssemblies
 90
    32768
280
     0
281
     1
  0
CLASS
  1
L"OBJCLONER"
  2
ObjCloner
  3
DesignerAssemblies
 90
    32768
280
     0
281
     1
  0
ENDSEC
  0
SECTION
  2
TABLES
  0
TABLE
  2
VPORT
  5
8
330
0
100
AcDbSymbolTable
 70
     1
  0
VPORT
  5
B0EC
330
8
100
AcDbSymbolTableRecord
100
AcDbViewportTableRecord
  2
*Active
 70
     0
 10
0.0
 20
0.0
 11
1.0
 21
1.0
 12
6210.316437652041
 22
-4159.216638779198
 13
0.0
 23
0.0
 14
2.5
 24
2.5
 15
10.0
 25
10.0
 16
0.0
 26
0.0
 36
1.0
 17
0.0
 27
0.0
 37
0.0
 40
350.4088275151452
 41
1.702970297029702
 42
50.0
 43
-1370.695619172058
 44
-1370.695619172058
 50
0.0
 51
0.0
 71
     0
 72
   100
 73
     1
 74
     3
 75
     0
 76
     0
 77
     0
 78
     0
281
     0
 65
     0
110
0.0
120
0.0
130
0.0
111
1.0
121
0.0
131
0.0
112
0.0
122
1.0
132
0.0
 79
     0
146
0.0
  0
ENDTAB
  0
TABLE
  2
LTYPE
  5
5
330
0
100
AcDbSymbolTable
 70
    24
  0
LTYPE
  5
14
330
5
100
AcDbSymbolTableRecord
100
AcDbLinetypeTableRecord
  2
ByBlock
 70
     0
  3

 72
    65
 73
     0
 40
0.0
  0
LTYPE
  5
15
330
5
100
AcDbSymbolTableRecord
100
AcDbLinetypeTableRecord
  2
ByLayer
 70
     0
  3

 72
    65
 73
     0
 40
0.0
  0
LTYPE
  5
16
330
5
100
AcDbSymbolTableRecord
100
AcDbLinetypeTableRecord
  2
Continuous
 70
     0
  3
Solid line
 72
    65
 73
     0
 40
0.0
  0
LTYPE
  5
4F
330
5
100
AcDbSymbolTableRecord
100
AcDbLinetypeTableRecord
  2
AM_ISO02W050
 70
     0
  3
__ __ __ __ __ __ __ __ __ __ __ __ __ __ __
 72
    65
 73
     2
 40
7.5
 49
6.0
 74
     0
 49
-1.5
 74
     0
  0
LTYPE
  5
52
330
5
100
AcDbSymbolTableRecord
100
AcDbLinetypeTableRecord
  2
Amconstr
 70
     0
  3
_______________________
 72
    65
 73
     2
 40
9999.0
 49
9999.0
 74
     0
 49
0.0
 74
     0
  0
LTYPE
  5
64
330
5
100
AcDbSymbolTableRecord
100
AcDbLinetypeTableRecord
  2
ACISOWELD
 70
     0
  3
_ _ _ _ _
 72
    65
 73
     2
 40
2.0
 49
2.0
 74
     0
 49
-1.0
 74
     0
  0
LTYPE
  5
65
330
5
100
AcDbSymbolTableRecord
100
AcDbLinetypeTableRecord
  2
ACISOTGB
 70
     0
  3
__ . . __ . .
 72
    65
 73
     6
 40
9.0
 49
4.0
 74
     0
 49
-1.0
 74
     0
 49
1.0
 74
     0
 49
-1.0
 74
     0
 49
1.0
 74
     0
 49
-1.0
 74
     0
  0
LTYPE
  5
66
330
5
100
AcDbSymbolTableRecord
100
AcDbLinetypeTableRecord
  2
ACISOTGL
 70
     0
  3
_ _ _ _ _
 72
    65
 73
     2
 40
3.0
 49
2.0
 74
     0
 49
-1.0
 74
     0
  0
LTYPE
  5
69
330
5
100
AcDbSymbolTableRecord
100
AcDbLinetypeTableRecord
  2
CENTER
 70
     0
  3
__ . __
 72
    65
 73
     4
 40
7.0
 49
4.0
 74
     0
 49
-1.0
 74
     0
 49
1.0
 74
     0
 49
-1.0
 74
     0
  0
LTYPE
  5
A6E
330
5
100
AcDbSymbolTableRecord
100
AcDbLinetypeTableRecord
  2
PHANTOM2
 70
     0
  3
Phantom (.5x) ___ _ _ ___ _ _ ___ _ _ ___ _ _
 72
    65
 73
     6
 40
31.75
 49
15.875
 74
     0
 49
-3.174999999999999
 74
     0
 49
3.174999999999999
 74
     0
 49
-3.174999999999999
 74
     0
 49
3.174999999999999
 74
     0
 49
-3.174999999999999
 74
     0
  0
LTYPE
  5
4DED
330
5
100
AcDbSymbolTableRecord
100
AcDbLinetypeTableRecord
  2
中線
 70
     0
  3
___________________
 72
    65
 73
     2
 40
2.0
 49
1.0
 74
     0
 49
1.0
 74
     0
  0
LTYPE
  5
4DF6
330
5
100
AcDbSymbolTableRecord
100
AcDbLinetypeTableRecord
  2
細線
 70
     0
  3
___________________
 72
    65
 73
     2
 40
2.0
 49
1.0
 74
     0
 49
1.0
 74
     0
  0
LTYPE
  5
4DF7
330
5
100
AcDbSymbolTableRecord
100
AcDbLinetypeTableRecord
  2
太線
 70
     0
  3
___________________
 72
    65
 73
     2
 40
2.0
 49
1.0
 74
     0
 49
1.0
 74
     0
  0
LTYPE
  5
4EA7
330
5
100
AcDbSymbolTableRecord
100
AcDbLinetypeTableRecord
  2
文字
 70
     0
  3
_________________
 72
    65
 73
     2
 40
2.0
 49
1.0
 74
     0
 49
1.0
 74
     0
  0
LTYPE
  5
4EA9
330
5
100
AcDbSymbolTableRecord
100
AcDbLinetypeTableRecord
  2
寸法線
 70
     0
  3
________________
 72
    65
 73
     2
 40
2.0
 49
1.0
 74
     0
 49
1.0
 74
     0
  0
LTYPE
  5
4F12
330
5
100
AcDbSymbolTableRecord
100
AcDbLinetypeTableRecord
  2
ハッチング
 70
     0
  3
_________________
 72
    65
 73
     2
 40
2.0
 49
1.0
 74
     0
 49
1.0
 74
     0
  0
LTYPE
  5
5180
330
5
100
AcDbSymbolTableRecord
100
AcDbLinetypeTableRecord
  2
陰線1
 70
     0
  3
__ __ __ __
 72
    65
 73
     2
 40
4.0
 49
2.2
 74
     0
 49
-1.8
 74
     0
  0
LTYPE
  5
5182
330
5
100
AcDbSymbolTableRecord
100
AcDbLinetypeTableRecord
  2
切断線
 70
     0
  3
/\/-/\/-/\/-/\/-/\/-/\/
 72
    65
 73
     2
 40
11.0001
 49
0.0001
 74
     4
 75
   135
340
56
 46
0.04
 50
0.0
 44
0.0
 45
0.0
 49
-11.0
 74
     0
  0
LTYPE
  5
5183
330
5
100
AcDbSymbolTableRecord
100
AcDbLinetypeTableRecord
  2
想像線1
 70
     0
  3
__ __ __ _____ __ __ ____
 72
    65
 73
     6
 40
14.5
 49
6.0
 74
     0
 49
-1.5
 74
     0
 49
2.0
 74
     0
 49
-1.5
 74
     0
 49
2.0
 74
     0
 49
-1.5
 74
     0
  0
LTYPE
  5
5185
330
5
100
AcDbSymbolTableRecord
100
AcDbLinetypeTableRecord
  2
中心線1
 70
     0
  3
___ _ ___ _ ___
 72
    65
 73
     4
 40
18.0
 49
12.0
 74
     0
 49
-2.0
 74
     0
 49
2.0
 74
     0
 49
-2.0
 74
     0
  0
LTYPE
  5
5188
330
5
100
AcDbSymbolTableRecord
100
AcDbLinetypeTableRecord
  2
補助線
 70
     0
  3
______________
 72
    65
 73
     2
 40
2.0
 49
1.0
 74
     0
 49
1.0
 74
     0
  0
LTYPE
  5
6427
330
5
100
AcDbSymbolTableRecord
100
AcDbLinetypeTableRecord
  2
HIDDEN
 70
     0
  3
Hidden __ __ __ __ __ __ __ __ __ __ __ __ __ _
 72
    65
 73
     2
 40
0.375
 49
0.25
 74
     0
 49
-0.125
 74
     0
  0
LTYPE
  5
AF95
330
5
100
AcDbSymbolTableRecord
100
AcDbLinetypeTableRecord
  2
AM_ISO08W050
 70
     0
  3
____ . ____ . ____ . ____ . ____ . ____ . ____
 72
    65
 73
     4
 40
18.0
 49
12.0
 74
     0
 49
-1.5
 74
     0
 49
3.0
 74
     0
 49
-1.5
 74
     0
  0
LTYPE
  5
FD15
330
5
100
AcDbSymbolTableRecord
100
AcDbLinetypeTableRecord
  2
ACANSTGB
 70
     0
  3
__ . . __ . .
 72
    65
 73
     6
 40
0.35433070866
 49
0.15748031496
 74
     0
 49
-0.03937007874
 74
     0
 49
0.03937007874
 74
     0
 49
-0.03937007874
 74
     0
 49
0.03937007874
 74
     0
 49
-0.03937007874
 74
     0
  0
LTYPE
  5
FD16
330
5
100
AcDbSymbolTableRecord
100
AcDbLinetypeTableRecord
  2
ACANSTGL
 70
     0
  3
_ _ _ _ _
 72
    65
 73
     2
 40
0.11811023622
 49
0.07874015748
 74
     0
 49
-0.03937007874
 74
     0
  0
ENDTAB
  0
TABLE
  2
LAYER
  5
2
102
{ACAD_XDICTIONARY
360
3F95
102
}
330
0
100
AcDbSymbolTable
 70
    17
  0
LAYER
  5
10
330
2
100
AcDbSymbolTableRecord
100
AcDbLayerTableRecord
  2
0
 70
     0
 62
     7
  6
Continuous
370
    -3
390
F
  0
LAYER
  5
6D1
330
2
100
AcDbSymbolTableRecord
100
AcDbLayerTableRecord
  2
Defpoints
 70
     0
 62
     7
  6
Continuous
290
     0
370
    -3
390
F
  0
LAYER
  5
AC9F
330
2
100
AcDbSymbolTableRecord
100
AcDbLayerTableRecord
  2
size
 70
     0
 62
     5
  6
Continuous
290
     0
370
    25
390
F
  0
LAYER
  5
ACA0
330
2
100
AcDbSymbolTableRecord
100
AcDbLayerTableRecord
  2
waku
 70
     0
 62
     7
  6
Continuous
370
    35
390
F
  0
LAYER
  5
ACA1
330
2
100
AcDbSymbolTableRecord
100
AcDbLayerTableRecord
  2
AM_6
 70
     0
 62
     2
  6
文字
370
    15
390
F
1001
AcAecLayerStandard
1000

1000

  0
LAYER
  5
AD64
330
2
100
AcDbSymbolTableRecord
100
AcDbLayerTableRecord
  2
AM_2
 70
     0
 62
     1
  6
細線
370
    15
390
F
1001
AcAecLayerStandard
1000

1000

  0
LAYER
  5
AD68
330
2
100
AcDbSymbolTableRecord
100
AcDbLayerTableRecord
  2
AM_5
 70
     0
 62
     3
  6
寸法線
370
    15
390
F
1001
AcAecLayerStandard
1000

1000

  0
LAYER
  5
B5FB
330
2
100
AcDbSymbolTableRecord
100
AcDbLayerTableRecord
  2
0部品18
 70
     0
 62
   254
  6
細線
370
    30
390
F
1001
AcAecLayerStandard
1000

1000

  0
LAYER
  5
5B3BE
330
2
100
AcDbSymbolTableRecord
100
AcDbLayerTableRecord
  2
AM_0
 70
     0
 62
     7
  6
中線
370
    25
390
F
1001
AcAecLayerStandard
1000

1000

  0
LAYER
  5
5B3BF
330
2
100
AcDbSymbolTableRecord
100
AcDbLayerTableRecord
  2
AM_7
 70
     0
 62
     4
  6
中心線1
370
    15
390
F
1001
AcAecLayerStandard
1000

1000

  0
ENDTAB
  0
TABLE
  2
STYLE
  5
3
330
0
100
AcDbSymbolTable
 70
     7
  0
STYLE
  5
11
330
3
100
AcDbSymbolTableRecord
100
AcDbTextStyleTableRecord
  2
STANDARD
 70
     0
 40
0.0
 41
0.7
 50
0.0
 71
     0
 42
3.2
  3
romans.shx
  4
extfont.shx
  0
STYLE
  5
56
330
3
100
AcDbSymbolTableRecord
100
AcDbTextStyleTableRecord
  2

 70
     1
 40
0.0
 41
1.0
 50
0.0
 71
     0
 42
2.5
  3
ltypeshp.shx
  4

  0
STYLE
  5
58
330
3
100
AcDbSymbolTableRecord
100
AcDbTextStyleTableRecord
  2
ACISOTS
 70
     0
 40
1.0
 41
1.0
 50
0.0
 71
     0
 42
2.5
  3
isocp.shx
  4
extfont.shx
  0
STYLE
  5
63
330
3
100
AcDbSymbolTableRecord
100
AcDbTextStyleTableRecord
  2
ACISOGDT
 70
     0
 40
0.0
 41
1.0
 50
0.0
 71
     0
 42
2.5
  3
amgdt.shx
  4

  0
STYLE
  5
A74
330
3
100
AcDbSymbolTableRecord
100
AcDbTextStyleTableRecord
  2
DIM
 70
     0
 40
0.0
 41
1.0
 50
0.0
 71
     0
 42
2.5
  3
monotxt.shx
  4
extfont.shx
  0
STYLE
  5
FD18
330
3
100
AcDbSymbolTableRecord
100
AcDbTextStyleTableRecord
  2
ACANSTS
 70
     0
 40
1.0
 41
1.0
 50
0.0
 71
     0
 42
0.2
  3
romans.shx
  4
extfont.shx
  0
STYLE
  5
FD19
330
3
100
AcDbSymbolTableRecord
100
AcDbTextStyleTableRecord
  2
ACANSGDT
 70
     0
 40
0.0
 41
1.0
 50
0.0
 71
     0
 42
0.2
  3
amgdt.shx
  4

  0
ENDTAB
  0
TABLE
  2
VIEW
  5
6
330
0
100
AcDbSymbolTable
 70
     6
  0
VIEW
  5
AE1
330
6
100
AcDbSymbolTableRecord
100
AcDbViewTableRecord
  2
AM_VIEW1
 70
     0
 40
2203.896457765668
 10
5264.599158088851
 20
3198.765197920841
 41
2970.0
 11
0.0
 21
0.0
 31
1.0
 12
0.0
 22
0.0
 32
0.0
 42
50.0
 43
-1370.695619172058
 44
-1370.695619172058
 50
0.0
 71
     0
281
     0
 72
     0
  0
VIEW
  5
AE2
330
6
100
AcDbSymbolTableRecord
100
AcDbViewTableRecord
  2
AM_VIEW2
 70
     0
 40
2203.896457765668
 10
8234.599158088851
 20
3198.765197920841
 41
2970.0
 11
0.0
 21
0.0
 31
1.0
 12
0.0
 22
0.0
 32
0.0
 42
50.0
 43
-1370.695619172058
 44
-1370.695619172058
 50
0.0
 71
     0
281
     0
 72
     0
  0
VIEW
  5
AE3
330
6
100
AcDbSymbolTableRecord
100
AcDbViewTableRecord
  2
AM_VIEW3
 70
     0
 40
2203.896457765668
 10
5264.599158088851
 20
1202.661655686509
 41
2970.0
 11
0.0
 21
0.0
 31
1.0
 12
0.0
 22
0.0
 32
0.0
 42
50.0
 43
-1370.695619172058
 44
-1370.695619172058
 50
0.0
 71
     0
281
     0
 72
     0
  0
VIEW
  5
AE4
330
6
100
AcDbSymbolTableRecord
100
AcDbViewTableRecord
  2
AM_VIEW4
 70
     0
 40
2203.896457765668
 10
8234.599158088851
 20
1202.661655686509
 41
2970.0
 11
0.0
 21
0.0
 31
1.0
 12
0.0
 22
0.0
 32
0.0
 42
50.0
 43
-1370.695619172058
 44
-1370.695619172058
 50
0.0
 71
     0
281
     0
 72
     0
  0
VIEW
  5
AE5
330
6
100
AcDbSymbolTableRecord
100
AcDbViewTableRecord
  2
AM_VIEW5
 70
     0
 40
2203.896457765668
 10
6749.599158088852
 20
2200.713426803675
 41
2970.0
 11
0.0
 21
0.0
 31
1.0
 12
0.0
 22
0.0
 32
0.0
 42
50.0
 43
-1370.695619172058
 44
-1370.695619172058
 50
0.0
 71
     0
281
     0
 72
     0
  0
VIEW
  5
AE6
330
6
100
AcDbSymbolTableRecord
100
AcDbViewTableRecord
  2
AM_VIEW6
 70
     0
 40
4407.748837602181
 10
6749.599158088852
 20
2200.713426803675
 41
5939.9406
 11
0.0
 21
0.0
 31
1.0
 12
0.0
 22
0.0
 32
0.0
 42
50.0
 43
-1370.695619172058
 44
-1370.695619172058
 50
0.0
 71
     0
281
     0
 72
     0
  0
ENDTAB
  0
TABLE
  2
UCS
  5
7
330
0
100
AcDbSymbolTable
 70
     0
  0
ENDTAB
  0
TABLE
  2
APPID
  5
9
330
0
100
AcDbSymbolTable
 70
    67
  0
APPID
  5
12
330
9
100
AcDbSymbolTableRecord
100
AcDbRegAppTableRecord
  2
ACAD
 70
     0
  0
APPID
  5
30
330
9
100
AcDbSymbolTableRecord
100
AcDbRegAppTableRecord
  2
MCAD_NO_VIS
 70
     0
  0
APPID
  5
31
330
9
100
AcDbSymbolTableRecord
100
AcDbRegAppTableRecord
  2
ACAD_TEMP_GRAPHIC
 70
     0
  0
APPID
  5
44
330
9
100
AcDbSymbolTableRecord
100
AcDbRegAppTableRecord
  2
ACATTRIBSERVICES
 70
     0
  0
APPID
  5
7A1
330
9
100
AcDbSymbolTableRecord
100
AcDbRegAppTableRecord
  2
GENIUS_GENDIMSH_14
 70
     0
  0
APPID
  5
A49
330
9
100
AcDbSymbolTableRecord
100
AcDbRegAppTableRecord
  2
GENIUS_GENREC_14
 70
     0
  0
APPID
  5
A4A
330
9
100
AcDbSymbolTableRecord
100
AcDbRegAppTableRecord
  2
GENIUS_GENOBJ-N-REC_13
 70
     0
  0
APPID
  5
A4B
330
9
100
AcDbSymbolTableRecord
100
AcDbRegAppTableRecord
  2
GENIUS_GENODEF_13
 70
     0
  0
APPID
  5
A4C
330
9
100
AcDbSymbolTableRecord
100
AcDbRegAppTableRecord
  2
DCO15
 70
     0
  0
APPID
  5
ADC
330
9
100
AcDbSymbolTableRecord
100
AcDbRegAppTableRecord
  2
GENIUS_GENOLIS_13
 70
     0
  0
APPID
  5
ADD
330
9
100
AcDbSymbolTableRecord
100
AcDbRegAppTableRecord
  2
GENIUS_GENOENT_13
 70
     0
  0
APPID
  5
ADE
330
9
100
AcDbSymbolTableRecord
100
AcDbRegAppTableRecord
  2
GENIUS_GENOBJ-N-TIT_13
 70
     0
  0
APPID
  5
ADF
330
9
100
AcDbSymbolTableRecord
100
AcDbRegAppTableRecord
  2
GENIUS_GENTITLE_13
 70
     0
  0
APPID
  5
AE0
330
9
100
AcDbSymbolTableRecord
100
AcDbRegAppTableRecord
  2
GENIUS_GENOREF_13
 70
     0
  0
APPID
  5
AE7
330
9
100
AcDbSymbolTableRecord
100
AcDbRegAppTableRecord
  2
GENIUS_GENSCREG_15
 70
     0
  0
APPID
  5
AE8
330
9
100
AcDbSymbolTableRecord
100
AcDbRegAppTableRecord
  2
GENIUS_GENOBJ-N-SDF_13
 70
     0
  0
APPID
  5
FAF
330
9
100
AcDbSymbolTableRecord
100
AcDbRegAppTableRecord
  2
GENIUS_GENBLLY_14
 70
     0
  0
APPID
  5
FB0
330
9
100
AcDbSymbolTableRecord
100
AcDbRegAppTableRecord
  2
GENIUS_GENTRA_14
 70
     0
  0
APPID
  5
1285
330
9
100
AcDbSymbolTableRecord
100
AcDbRegAppTableRecord
  2
GENIUS_GENDTOL_13
 70
     0
  0
APPID
  5
142D
330
9
100
AcDbSymbolTableRecord
100
AcDbRegAppTableRecord
  2
GENIUS_GENOBJ-N-CEN_13
 70
     0
  0
APPID
  5
1AB5
330
9
100
AcDbSymbolTableRecord
100
AcDbRegAppTableRecord
  2
GENIUS_GENOBJ-N-CRS_13
 70
     0
  0
APPID
  5
1B36
330
9
100
AcDbSymbolTableRecord
100
AcDbRegAppTableRecord
  2
GENIUS_GENOBJ-N-HTC_13
 70
     0
  0
APPID
  5
1B37
330
9
100
AcDbSymbolTableRecord
100
AcDbRegAppTableRecord
  2
GENIUS_GENHATCH_13
 70
     0
  0
APPID
  5
216D
330
9
100
AcDbSymbolTableRecord
100
AcDbRegAppTableRecord
  2
GENIUS_GENOBJ-N-FIL_13
 70
     0
  0
APPID
  5
2356
330
9
100
AcDbSymbolTableRecord
100
AcDbRegAppTableRecord
  2
GEVID990412420
 70
     0
  0
APPID
  5
2357
330
9
100
AcDbSymbolTableRecord
100
AcDbRegAppTableRecord
  2
GEVDC
 70
     0
  0
APPID
  5
2358
330
9
100
AcDbSymbolTableRecord
100
AcDbRegAppTableRecord
  2
GEVCON
 70
     0
  0
APPID
  5
235B
330
9
100
AcDbSymbolTableRecord
100
AcDbRegAppTableRecord
  2
GEVRADREF
 70
     0
  0
APPID
  5
2360
330
9
100
AcDbSymbolTableRecord
100
AcDbRegAppTableRecord
  2
GENIUS_GENBH_13
 70
     0
  0
APPID
  5
2362
330
9
100
AcDbSymbolTableRecord
100
AcDbRegAppTableRecord
  2
GENIUS_GENOBJ-NBEHI-BHF_13
 70
     0
  0
APPID
  5
2364
330
9
100
AcDbSymbolTableRecord
100
AcDbRegAppTableRecord
  2
GENIUS_GENOBJ-NBEHI-BHB_13
 70
     0
  0
APPID
  5
2379
330
9
100
AcDbSymbolTableRecord
100
AcDbRegAppTableRecord
  2
GENIUS_GENOBJ-F-SCPASSM_13
 70
     0
  0
APPID
  5
3D74
330
9
100
AcDbSymbolTableRecord
100
AcDbRegAppTableRecord
  2
GENIUS_GENDIM_13
 70
     0
  0
APPID
  5
3D76
330
9
100
AcDbSymbolTableRecord
100
AcDbRegAppTableRecord
  2
GENIUS_GE3DTOL_13
 70
     0
  0
APPID
  5
3D9C
330
9
100
AcDbSymbolTableRecord
100
AcDbRegAppTableRecord
  2
AD_DRAW
 70
     0
  0
APPID
  5
3DE8
330
9
100
AcDbSymbolTableRecord
100
AcDbRegAppTableRecord
  2
ASURF_PCURVE_APPNAME
 70
     0
  0
APPID
  5
3DED
330
9
100
AcDbSymbolTableRecord
100
AcDbRegAppTableRecord
  2
AMG_3D2D_5.0
 70
     0
  0
APPID
  5
3E1B
330
9
100
AcDbSymbolTableRecord
100
AcDbRegAppTableRecord
  2
DESIGNERASSEMBLIES
 70
     0
  0
APPID
  5
3E20
330
9
100
AcDbSymbolTableRecord
100
AcDbRegAppTableRecord
  2
ACADM_DIM_EDIT
 70
     0
  0
APPID
  5
3E21
330
9
100
AcDbSymbolTableRecord
100
AcDbRegAppTableRecord
  2
AMDT_DM_ADJ
 70
     0
  0
APPID
  5
4143
330
9
100
AcDbSymbolTableRecord
100
AcDbRegAppTableRecord
  2
GENIUS_GENFIL_13
 70
     0
  0
APPID
  5
4144
330
9
100
AcDbSymbolTableRecord
100
AcDbRegAppTableRecord
  2
GENIUS_GENOBJ-N-CHA_13
 70
     0
  0
APPID
  5
4E17
330
9
100
AcDbSymbolTableRecord
100
AcDbRegAppTableRecord
  2
GEVID1008153417
 70
     0
  0
APPID
  5
4E58
330
9
100
AcDbSymbolTableRecord
100
AcDbRegAppTableRecord
  2
GEVID1008153418
 70
     0
  0
APPID
  5
4E5E
330
9
100
AcDbSymbolTableRecord
100
AcDbRegAppTableRecord
  2
GEVID1008153419
 70
     0
  0
APPID
  5
4E64
330
9
100
AcDbSymbolTableRecord
100
AcDbRegAppTableRecord
  2
GEVID1008153420
 70
     0
  0
APPID
  5
4E75
330
9
100
AcDbSymbolTableRecord
100
AcDbRegAppTableRecord
  2
GEVID1008153421
 70
     0
  0
APPID
  5
4EB7
330
9
100
AcDbSymbolTableRecord
100
AcDbRegAppTableRecord
  2
GENIUS_AMGTXT_16
 70
     0
  0
APPID
  5
7645
330
9
100
AcDbSymbolTableRecord
100
AcDbRegAppTableRecord
  2
GENIUS_GENOBJ-N-DIM_13
 70
     0
  0
APPID
  5
AAD0
330
9
100
AcDbSymbolTableRecord
100
AcDbRegAppTableRecord
  2
ACAD_DSTYLE_DIMARC_LENGTH_SYMBOL
 70
     0
  0
APPID
  5
AAD1
330
9
100
AcDbSymbolTableRecord
100
AcDbRegAppTableRecord
  2
ACAD_DSTYLE_DIMJOGGED_JOGANGLE_SYMBOL
 70
     0
  0
APPID
  5
AAFD
330
9
100
AcDbSymbolTableRecord
100
AcDbRegAppTableRecord
  2
ACAD_PSEXT
 70
     0
  0
APPID
  5
AD61
330
9
100
AcDbSymbolTableRecord
100
AcDbRegAppTableRecord
  2
AcAecLayerStandard
 70
     0
  0
APPID
  5
AEE3
330
9
100
AcDbSymbolTableRecord
100
AcDbRegAppTableRecord
  2
ACAD_EXEMPT_FROM_CAD_STANDARDS
 70
     0
  0
APPID
  5
B1BE
330
9
100
AcDbSymbolTableRecord
100
AcDbRegAppTableRecord
  2
GENIUS_GENCEN_19
 70
     0
  0
APPID
  5
B4E1
330
9
100
AcDbSymbolTableRecord
100
AcDbRegAppTableRecord
  2
ACAD_MLEADERVER
 70
     0
  0
APPID
  5
C488
330
9
100
AcDbSymbolTableRecord
100
AcDbRegAppTableRecord
  2
ACAD_DSTYLE_DIMINSPECT
 70
     0
  0
APPID
  5
C489
330
9
100
AcDbSymbolTableRecord
100
AcDbRegAppTableRecord
  2
ACAD_DSTYLE_DIMRADIAL_EXTENSION
 70
     0
  0
APPID
  5
1980E
330
9
100
AcDbSymbolTableRecord
100
AcDbRegAppTableRecord
  2
GEVID1311583542
 70
     0
  0
APPID
  5
19825
330
9
100
AcDbSymbolTableRecord
100
AcDbRegAppTableRecord
  2
AMG_2DHIDE
 70
     0
  0
APPID
  5
19826
330
9
100
AcDbSymbolTableRecord
100
AcDbRegAppTableRecord
  2
AMG_2DSTRUCT_BTR
 70
     0
  0
APPID
  5
19837
330
9
100
AcDbSymbolTableRecord
100
AcDbRegAppTableRecord
  2
ACADM_2DVIEW_IGN_NOTIFY
 70
     0
  0
APPID
  5
1B56B
330
9
100
AcDbSymbolTableRecord
100
AcDbRegAppTableRecord
  2
GEVID1311583543
 70
     0
  0
APPID
  5
1B5F6
330
9
100
AcDbSymbolTableRecord
100
AcDbRegAppTableRecord
  2
GEVID1311583544
 70
     0
  0
APPID
  5
1B61B
330
9
100
AcDbSymbolTableRecord
100
AcDbRegAppTableRecord
  2
GEVID1311583545
 70
     0
  0
APPID
  5
1B63D
330
9
100
AcDbSymbolTableRecord
100
AcDbRegAppTableRecord
  2
GEVID1311583546
 70
     0
  0
APPID
  5
1B675
330
9
100
AcDbSymbolTableRecord
100
AcDbRegAppTableRecord
  2
GEVID1311583547
 70
     0
  0
ENDTAB
  0
TABLE
  2
DIMSTYLE
  5
A
330
0
100
AcDbSymbolTable
 70
    26
100
AcDbDimStyleTable
 71
     3
340
2515
340
251A
340
251B
  0
DIMSTYLE
105
A76
330
A
100
AcDbSymbolTableRecord
100
AcDbDimStyleTableRecord
  2
STANDARD
 70
     0
 41
3.0
 42
1.0
 43
7.0
 44
2.0
 73
     0
 74
     0
 77
     1
140
2.799999999999999
141
0.0
143
0.0394
147
0.7
171
     4
172
     1
173
     1
176
     3
177
     3
178
     2
271
     3
272
     3
273
     8
274
     4
289
     0
340
A74
341
A66
343
A66
344
A66
  0
DIMSTYLE
105
2515
330
A
100
AcDbSymbolTableRecord
100
AcDbDimStyleTableRecord
  2
SYS
 70
     0
  4
"
 41
1.0
 42
1.0
 43
10.0
 44
1.0
 47
0.1
 48
0.1
 73
     0
 74
     0
 77
     1
 78
     8
 79
     2
140
3.5
141
0.0
143
0.0393701
146
0.71
147
1.5
172
     1
176
   256
177
   256
178
     7
271
     2
272
     2
283
     0
284
     8
340
11
371
    -1
372
    -1
1001
ACAD_DSTYLE_DIMJOGGED_JOGANGLE_SYMBOL
1070
   384
1040
0.7853981633974483
1001
ACAD_DSTYLE_DIMARC_LENGTH_SYMBOL
1070
   379
1070
     1
  0
DIMSTYLE
105
2516
102
{ACAD_REACTORS
330
4C531
330
4C55C
102
}
330
A
100
AcDbSymbolTableRecord
100
AcDbDimStyleTableRecord
  2
SYS$3
 70
     0
  4
"
 41
2.0
 42
1.0
 43
10.0
 44
1.0
 47
0.1
 48
0.1
 73
     0
 77
     1
 78
     8
 79
     2
140
3.2
141
0.0
143
0.0393701
146
0.71
147
1.0
176
   256
177
   256
178
     2
271
     2
272
     2
283
     0
284
     8
288
     1
340
11
342
A66
371
    -1
372
    -1
1001
ACAD_DSTYLE_DIMJOGGED_JOGANGLE_SYMBOL
1070
   384
1040
0.7853981633974483
1001
ACAD_DSTYLE_DIMARC_LENGTH_SYMBOL
1070
   379
1070
     1
  0
DIMSTYLE
105
2517
330
A
100
AcDbSymbolTableRecord
100
AcDbDimStyleTableRecord
  2
SYS$4
 70
     0
  4
"
 41
2.0
 42
1.0
 43
10.0
 44
1.0
 47
0.1
 48
0.1
 73
     0
 77
     1
 78
     8
 79
     2
140
3.2
141
0.0
143
0.0393701
146
0.71
147
1.0
173
     1
176
   256
177
   256
178
     2
271
     2
272
     2
283
     0
284
     8
288
     1
340
11
344
A66
371
    -1
372
    -1
1001
ACAD_DSTYLE_DIMJOGGED_JOGANGLE_SYMBOL
1070
   384
1040
0.7853981633974483
1001
ACAD_DSTYLE_DIMARC_LENGTH_SYMBOL
1070
   379
1070
     1
  0
DIMSTYLE
105
2518
330
A
100
AcDbSymbolTableRecord
100
AcDbDimStyleTableRecord
  2
SYS$6
 70
     0
  4
"
 41
2.0
 42
1.0
 43
10.0
 44
1.0
 47
0.1
 48
0.1
 73
     0
 74
     0
 78
     8
 79
     2
140
3.2
141
0.0
143
0.0393701
146
0.71
147
1.0
172
     1
176
   256
177
   256
178
     2
271
     2
272
     2
283
     0
284
     8
340
11
341
A66
371
    -1
372
    -1
1001
ACAD_DSTYLE_DIMJOGGED_JOGANGLE_SYMBOL
1070
   384
1040
0.7853981633974483
1001
ACAD_DSTYLE_DIMARC_LENGTH_SYMBOL
1070
   379
1070
     1
  0
DIMSTYLE
105
2519
330
A
100
AcDbSymbolTableRecord
100
AcDbDimStyleTableRecord
  2
SYS$7
 70
     0
  4
"
 41
2.0
 42
1.0
 43
10.0
 44
1.0
 47
0.1
 48
0.1
 73
     0
 74
     0
 77
     1
 78
     8
 79
     2
140
3.2
141
0.0
143
0.0393701
146
0.71
147
1.0
172
     1
176
   256
177
   256
178
     2
271
     2
272
     2
283
     0
284
     8
340
11
341
A66
342
A66
371
    -1
372
    -1
1001
ACAD_DSTYLE_DIMJOGGED_JOGANGLE_SYMBOL
1070
   384
1040
0.7853981633974483
1001
ACAD_DSTYLE_DIMARC_LENGTH_SYMBOL
1070
   379
1070
     1
  0
DIMSTYLE
105
251A
330
A
100
AcDbSymbolTableRecord
100
AcDbDimStyleTableRecord
  2
SYS$SF
 70
     0
  4
"
 41
2.5
 42
1.0
 43
10.0
 44
1.0
 47
0.1
 48
0.1
 73
     0
 74
     0
 75
     1
 76
     1
 77
     1
 78
     8
 79
     2
140
3.2
141
0.0
143
0.0393701
146
0.71
147
1.0
172
     1
176
   256
177
   256
178
     2
271
     2
272
     2
283
     0
284
     8
340
11
341
6C4
342
6C4
371
    -1
372
    -1
1001
ACAD_DSTYLE_DIMJOGGED_JOGANGLE_SYMBOL
1070
   384
1040
0.7853981633974483
1001
ACAD_DSTYLE_DIMARC_LENGTH_SYMBOL
1070
   379
1070
     1
  0
DIMSTYLE
105
251B
330
A
100
AcDbSymbolTableRecord
100
AcDbDimStyleTableRecord
  2
SYS$SH
 70
     0
  4
"
 41
2.5
 42
1.0
 43
10.0
 44
1.0
 47
0.1
 48
0.1
 73
     0
 74
     0
 75
     1
 76
     1
 77
     1
 78
     8
 79
     2
140
3.2
141
0.0
143
0.0393701
144
2.0
146
0.71
147
1.0
172
     1
173
     1
176
   256
177
   256
178
     2
271
     2
272
     2
283
     0
284
     8
340
11
341
6C4
343
72
344
6C4
371
    -1
372
    -1
1001
ACAD_DSTYLE_DIMJOGGED_JOGANGLE_SYMBOL
1070
   384
1040
0.7853981633974483
1001
ACAD_DSTYLE_DIMARC_LENGTH_SYMBOL
1070
   379
1070
     1
  0
DIMSTYLE
105
2A59
330
A
100
AcDbSymbolTableRecord
100
AcDbDimStyleTableRecord
  2
SYS$2
 70
     0
  4
"
 41
1.0
 42
1.0
 43
10.0
 44
1.0
 47
0.1
 48
0.1
 73
     0
 74
     0
 77
     1
 78
     8
 79
     2
140
3.2
141
0.0
143
0.0393701
146
0.71
147
1.0
172
     1
176
   256
177
   256
178
     2
271
     2
272
     2
283
     0
284
     8
340
11
342
6C4
371
    -1
372
    -1
1001
ACAD_DSTYLE_DIMJOGGED_JOGANGLE_SYMBOL
1070
   384
1040
0.7853981633974483
1001
ACAD_DSTYLE_DIMARC_LENGTH_SYMBOL
1070
   379
1070
     1
  0
DIMSTYLE
105
2AAB
102
{ACAD_REACTORS
330
4C33E
330
4C365
330
4C38C
330
4C3A2
330
4C3C9
330
4C3DF
330
4C40F
330
4C436
330
4C45B
330
4C485
330
4C4B4
330
4C4CA
330
4C59A
330
4C5C2
330
4C5E9
102
}
330
A
100
AcDbSymbolTableRecord
100
AcDbDimStyleTableRecord
  2
SYS$0
 70
     0
  4
"
 41
1.0
 42
1.0
 43
10.0
 44
1.0
 47
0.1
 48
0.1
 73
     0
 74
     0
 77
     1
 78
     8
 79
     2
140
3.200000000000001
141
0.0
143
0.0393701
146
0.71
147
1.0
172
     1
176
   256
177
   256
178
     2
271
     2
272
     2
283
     0
284
     8
340
11
341
A66
342
6C4
371
    -1
372
    -1
1001
ACAD_DSTYLE_DIMJOGGED_JOGANGLE_SYMBOL
1070
   384
1040
0.7853981633974483
1001
ACAD_DSTYLE_DIMARC_LENGTH_SYMBOL
1070
   379
1070
     1
  0
DIMSTYLE
105
AF99
330
A
100
AcDbSymbolTableRecord
100
AcDbDimStyleTableRecord
  2
AM_ISO
 70
     0
  4
"
 41
2.5
 42
1.0
 43
10.0
 44
1.0
 47
0.1
 48
0.1
 73
     0
 74
     0
 77
     1
 78
     8
 79
     2
140
3.5
141
0.0
143
0.0393701
146
0.71
147
1.5
172
     1
176
   256
177
   256
178
     2
271
     2
272
     3
274
     4
283
     0
284
     8
340
11
371
    -1
372
    -1
  0
DIMSTYLE
105
AF9A
330
A
100
AcDbSymbolTableRecord
100
AcDbDimStyleTableRecord
  2
AM_ISO$3
 70
     0
  4
"
 41
2.5
 42
1.0
 43
10.0
 44
1.0
 47
0.1
 48
0.1
 73
     0
 77
     1
 78
     8
 79
     2
140
3.5
141
0.0
143
0.0393701
146
0.71
147
1.5
176
   256
177
   256
178
     2
271
     2
272
     3
274
     4
283
     0
284
     8
288
     1
289
     0
340
11
371
    -1
372
    -1
  0
DIMSTYLE
105
AF9B
330
A
100
AcDbSymbolTableRecord
100
AcDbDimStyleTableRecord
  2
AM_ISO$4
 70
     0
  4
"
 41
2.5
 42
1.0
 43
10.0
 44
1.0
 47
0.1
 48
0.1
 73
     0
 77
     1
 78
     8
 79
     2
140
3.5
141
0.0
143
0.0393701
146
0.71
147
1.5
176
   256
177
   256
178
     2
271
     2
272
     3
274
     4
283
     0
284
     8
288
     1
289
     0
340
11
371
    -1
372
    -1
  0
DIMSTYLE
105
AF9C
330
A
100
AcDbSymbolTableRecord
100
AcDbDimStyleTableRecord
  2
AM_ISO$6
 70
     0
  4
"
 41
2.5
 42
1.0
 43
10.0
 44
1.0
 47
0.1
 48
0.1
 73
     0
 74
     0
 78
     8
 79
     2
140
3.5
141
0.0
143
0.0393701
146
0.71
147
1.5
172
     1
176
   256
177
   256
178
     2
271
     2
272
     3
274
     4
283
     0
284
     8
340
11
371
    -1
372
    -1
  0
DIMSTYLE
105
AF9D
330
A
100
AcDbSymbolTableRecord
100
AcDbDimStyleTableRecord
  2
AM_ISO$7
 70
     0
  4
"
 41
2.5
 42
1.0
 43
10.0
 44
1.0
 47
0.1
 48
0.1
 73
     0
 74
     0
 77
     1
 78
     8
 79
     2
140
5.0
141
0.0
143
0.0393701
146
0.71
147
1.5
172
     1
176
   256
177
   256
178
     2
271
     2
272
     3
274
     4
283
     0
284
     8
340
11
371
    -1
372
    -1
  0
DIMSTYLE
105
AF9E
330
A
100
AcDbSymbolTableRecord
100
AcDbDimStyleTableRecord
  2
AM_ISO$SF
 70
     0
  4
"
 41
2.5
 42
1.0
 43
10.0
 44
1.0
 47
0.1
 48
0.1
 73
     0
 74
     0
 75
     1
 76
     1
 77
     1
 78
     8
 79
     2
140
3.5
141
0.0
143
0.0393701
146
0.71
147
1.5
172
     1
176
   256
177
   256
178
     2
271
     2
272
     3
274
     4
283
     0
284
     8
340
11
371
    -1
372
    -1
  0
DIMSTYLE
105
AF9F
330
A
100
AcDbSymbolTableRecord
100
AcDbDimStyleTableRecord
  2
AM_ISO$SH
 70
     0
  4
"
 41
2.5
 42
1.0
 43
10.0
 44
1.0
 47
0.1
 48
0.1
 73
     0
 74
     0
 75
     1
 76
     1
 77
     1
 78
     8
 79
     2
140
3.5
141
0.0
143
0.0393701
144
2.0
146
0.71
147
1.5
172
     1
173
     1
176
   256
177
   256
178
     2
271
     2
272
     3
274
     4
283
     0
284
     8
340
11
343
72
371
    -1
372
    -1
  0
DIMSTYLE
105
B60C
330
A
100
AcDbSymbolTableRecord
100
AcDbDimStyleTableRecord
  2
AM_ANSI
 70
     0
  4
mm
 41
0.1
 42
0.05
 43
0.5
 44
0.1
 47
0.1
 48
0.1
 78
     7
 79
     2
140
0.12
141
0.0
146
0.71
147
0.06
176
   256
177
   256
178
     2
274
     4
284
     7
340
11
371
    -1
372
    -1
  0
DIMSTYLE
105
C485
330
A
100
AcDbSymbolTableRecord
100
AcDbDimStyleTableRecord
  2
AM_ISO$0
 70
     0
  4
"
 41
0.8
 42
1.0
 43
10.0
 44
1.0
 47
0.1
 48
0.1
 73
     0
 74
     0
 77
     1
 78
     8
 79
     2
140
3.2
141
0.0
143
0.0393701
146
0.71
147
0.9999999999999996
172
     1
176
   256
177
   256
178
     2
271
     2
272
     2
283
     0
284
     8
340
11
341
6C4
342
6C4
371
    -1
372
    -1
1001
ACAD_DSTYLE_DIMJOGGED_JOGANGLE_SYMBOL
1070
   384
1040
0.7853981633974483
1001
ACAD_DSTYLE_DIMARC_LENGTH_SYMBOL
1070
   379
1070
     1
  0
DIMSTYLE
105
C486
330
A
100
AcDbSymbolTableRecord
100
AcDbDimStyleTableRecord
  2
AM_ISO$2
 70
     0
  4
"
 41
0.8
 42
1.0
 43
10.0
 44
1.0
 47
0.1
 48
0.1
 73
     0
 74
     0
 77
     3
 78
     8
 79
     2
140
3.200000000000001
141
0.0
143
0.0393701
146
0.71
147
0.9999999999999996
172
     1
176
   256
177
   256
178
     2
271
     2
272
     2
283
     0
284
     8
340
11
342
6C4
371
    -1
372
    -1
1001
ACAD_DSTYLE_DIMJOGGED_JOGANGLE_SYMBOL
1070
   384
1040
0.7853981633974483
1001
ACAD_DSTYLE_DIMARC_LENGTH_SYMBOL
1070
   379
1070
     1
  0
DIMSTYLE
105
FD1A
330
A
100
AcDbSymbolTableRecord
100
AcDbDimStyleTableRecord
  2
AM_ANSI$3
 70
     0
  4
mm
 41
0.1
 42
0.05
 43
0.5
 44
0.1
 47
0.1
 48
0.1
 78
     7
 79
     2
140
0.12
141
0.0
146
0.71
147
0.06
176
   256
177
   256
178
     2
274
     4
284
     7
288
     1
289
     0
340
11
371
    -1
372
    -1
1001
ACAD_DSTYLE_DIMARC_LENGTH_SYMBOL
1070
   379
1070
     1
  0
DIMSTYLE
105
FD1B
330
A
100
AcDbSymbolTableRecord
100
AcDbDimStyleTableRecord
  2
AM_ANSI$4
 70
     0
  4
mm
 41
0.1
 42
0.05
 43
0.5
 44
0.1
 47
0.1
 48
0.1
 78
     7
 79
     2
140
0.12
141
0.0
146
0.71
147
0.06
176
   256
177
   256
178
     2
274
     4
284
     7
288
     1
289
     0
340
11
371
    -1
372
    -1
1001
ACAD_DSTYLE_DIMARC_LENGTH_SYMBOL
1070
   379
1070
     1
  0
DIMSTYLE
105
FD1C
330
A
100
AcDbSymbolTableRecord
100
AcDbDimStyleTableRecord
  2
AM_ANSI$7
 70
     0
  4
mm
 41
0.1
 42
0.05
 43
0.5
 44
0.1
 47
0.1
 48
0.1
 78
     7
 79
     2
140
0.24
141
0.0
146
0.71
147
0.06
176
   256
177
   256
178
     2
274
     4
284
     7
340
11
371
    -1
372
    -1
1001
ACAD_DSTYLE_DIMARC_LENGTH_SYMBOL
1070
   379
1070
     1
  0
DIMSTYLE
105
FD1D
330
A
100
AcDbSymbolTableRecord
100
AcDbDimStyleTableRecord
  2
AM_ANSI$SF
 70
     0
  4
mm
 41
0.1
 42
0.05
 43
0.5
 44
0.1
 47
0.1
 48
0.1
 75
     1
 76
     1
 78
     7
 79
     2
140
0.12
141
0.0
146
0.71
147
0.06
176
   256
177
   256
178
     2
274
     4
284
     7
340
11
371
    -1
372
    -1
1001
ACAD_DSTYLE_DIMARC_LENGTH_SYMBOL
1070
   379
1070
     1
  0
DIMSTYLE
105
FD1E
330
A
100
AcDbSymbolTableRecord
100
AcDbDimStyleTableRecord
  2
AM_ANSI$SH
 70
     0
  4
mm
 41
0.1
 42
0.05
 43
0.5
 44
0.1
 47
0.1
 48
0.1
 75
     1
 76
     1
 78
     7
 79
     2
140
0.12
141
0.0
146
0.71
147
0.06
173
     1
176
   256
177
   256
178
     2
274
     4
284
     7
340
11
343
72
371
    -1
372
    -1
1001
ACAD_DSTYLE_DIMARC_LENGTH_SYMBOL
1070
   379
1070
     1
  0
ENDTAB
  0
TABLE
  2
BLOCK_RECORD
  5
1
330
0
100
AcDbSymbolTable
 70
    40
  0
BLOCK_RECORD
  5
1F
102
{ACAD_XDICTIONARY
360
8A
102
}
330
1
100
AcDbSymbolTableRecord
100
AcDbBlockTableRecord
  2
*Model_Space
340
22
  0
BLOCK_RECORD
  5
1B
330
1
100
AcDbSymbolTableRecord
100
AcDbBlockTableRecord
  2
*Paper_Space
340
1E
  0
BLOCK_RECORD
  5
23
330
1
100
AcDbSymbolTableRecord
100
AcDbBlockTableRecord
  2
*Paper_Space0
340
26
  0
BLOCK_RECORD
  5
72
330
1
100
AcDbSymbolTableRecord
100
AcDbBlockTableRecord
  2
GENAXEH
340
0
  0
BLOCK_RECORD
  5
6C4
330
1
100
AcDbSymbolTableRecord
100
AcDbBlockTableRecord
  2
_Dot
340
0
102
{BLKREFS
331
52A8B
331
52A8C
331
52A9D
331
52A9E
331
52ABC
331
52ABD
331
52AD1
331
52AD2
331
52ADA
331
52ADB
331
52AE3
331
52AE4
331
52B00
331
52B01
331
52B09
331
52B0A
331
52B10
331
52B11
331
52B22
331
52B23
331
53B21
331
53B22
331
5B2B5
331
5B2B6
331
5B2D9
331
5B2DA
331
5B2EB
331
5B2EC
331
5B31C
331
5B31D
331
5B32A
331
5B32B
331
5B34E
331
5B34F
331
5B36F
331
5B370
331
5B37B
331
5B37C
331
5B387
331
5B388
331
5B393
331
5B394
331
5B39F
331
5B3A0
331
5B3AD
331
5B3AE
331
5B3B9
331
5B3BA
331
5B514
331
5B515
331
5B51D
331
5B51E
331
5B526
331
5B527
331
5B52F
331
5B530
331
5B538
331
5B539
331
5B543
331
5B544
331
5B54C
331
5B54D
102
}
  0
BLOCK_RECORD
  5
A66
330
1
100
AcDbSymbolTableRecord
100
AcDbBlockTableRecord
  2
_OPEN30
340
0
  0
BLOCK_RECORD
  5
4C33F
330
1
100
AcDbSymbolTableRecord
100
AcDbBlockTableRecord
  2
*D7
340
0
  0
BLOCK_RECORD
  5
4C366
330
1
100
AcDbSymbolTableRecord
100
AcDbBlockTableRecord
  2
*D8
340
0
  0
BLOCK_RECORD
  5
4C38D
330
1
100
AcDbSymbolTableRecord
100
AcDbBlockTableRecord
  2
*D9
340
0
  0
BLOCK_RECORD
  5
4C3A3
330
1
100
AcDbSymbolTableRecord
100
AcDbBlockTableRecord
  2
*D10
340
0
  0
BLOCK_RECORD
  5
4C3CA
330
1
100
AcDbSymbolTableRecord
100
AcDbBlockTableRecord
  2
*D11
340
0
  0
BLOCK_RECORD
  5
4C3E0
330
1
100
AcDbSymbolTableRecord
100
AcDbBlockTableRecord
  2
*D12
340
0
  0
BLOCK_RECORD
  5
4C410
330
1
100
AcDbSymbolTableRecord
100
AcDbBlockTableRecord
  2
*D13
340
0
  0
BLOCK_RECORD
  5
4C437
330
1
100
AcDbSymbolTableRecord
100
AcDbBlockTableRecord
  2
*D14
340
0
  0
BLOCK_RECORD
  5
4C45C
330
1
100
AcDbSymbolTableRecord
100
AcDbBlockTableRecord
  2
*D15
340
0
  0
BLOCK_RECORD
  5
4C486
330
1
100
AcDbSymbolTableRecord
100
AcDbBlockTableRecord
  2
*D16
340
0
  0
BLOCK_RECORD
  5
4C4B5
330
1
100
AcDbSymbolTableRecord
100
AcDbBlockTableRecord
  2
*D17
340
0
  0
BLOCK_RECORD
  5
4C4CB
330
1
100
AcDbSymbolTableRecord
100
AcDbBlockTableRecord
  2
*D18
340
0
  0
BLOCK_RECORD
  5
4C532
330
1
100
AcDbSymbolTableRecord
100
AcDbBlockTableRecord
  2
*D19
340
0
  0
BLOCK_RECORD
  5
4C55D
330
1
100
AcDbSymbolTableRecord
100
AcDbBlockTableRecord
  2
*D20
340
0
  0
BLOCK_RECORD
  5
4C59B
330
1
100
AcDbSymbolTableRecord
100
AcDbBlockTableRecord
  2
*D21
340
0
  0
BLOCK_RECORD
  5
4C5C3
330
1
100
AcDbSymbolTableRecord
100
AcDbBlockTableRecord
  2
*D22
340
0
  0
BLOCK_RECORD
  5
4C5EA
330
1
100
AcDbSymbolTableRecord
100
AcDbBlockTableRecord
  2
*D23
340
0
  0
ENDTAB
  0
ENDSEC
  0
SECTION
  2
BLOCKS
  0
BLOCK
  5
20
330
1F
100
AcDbEntity
  8
0
100
AcDbBlockBegin
  2
*Model_Space
 70
     0
 10
0.0
 20
0.0
 30
0.0
  3
*Model_Space
  1

  0
ENDBLK
  5
21
330
1F
100
AcDbEntity
  8
0
100
AcDbBlockEnd
  0
BLOCK
  5
1C
330
1B
100
AcDbEntity
 67
     1
  8
0
100
AcDbBlockBegin
  2
*Paper_Space
 70
     0
 10
0.0
 20
0.0
 30
0.0
  3
*Paper_Space
  1

  0
ENDBLK
  5
1D
330
1B
100
AcDbEntity
 67
     1
  8
0
100
AcDbBlockEnd
  0
BLOCK
  5
24
330
23
100
AcDbEntity
 67
     1
  8
0
100
AcDbBlockBegin
  2
*Paper_Space0
 70
     0
 10
0.0
 20
0.0
 30
0.0
  3
*Paper_Space0
  1

  0
ENDBLK
  5
25
330
23
100
AcDbEntity
 67
     1
  8
0
100
AcDbBlockEnd
  0
BLOCK
  5
74
330
72
100
AcDbEntity
  8
0
100
AcDbBlockBegin
  2
GENAXEH
 70
     0
 10
0.0
 20
0.0
 30
0.0
  3
GENAXEH
  1

  0
LINE
  5
73
330
72
100
AcDbEntity
  8
0
100
AcDbLine
 10
-1.0
 20
0.0
 30
0.0
 11
1.0
 21
0.0
 31
0.0
  0
ENDBLK
  5
75
330
72
100
AcDbEntity
  8
0
100
AcDbBlockEnd
  0
BLOCK
  5
6C7
330
6C4
100
AcDbEntity
  8
0
100
AcDbBlockBegin
  2
_Dot
 70
     0
 10
0.0
 20
0.0
 30
0.0
  3
_Dot
  1

  0
LWPOLYLINE
  5
6C5
330
6C4
100
AcDbEntity
  8
0
  6
ByBlock
 62
     0
100
AcDbPolyline
 90
        2
 70
     1
 43
0.5
 10
-0.25
 20
0.0
 42
1.0
 10
0.25
 20
0.0
 42
1.0
  0
LINE
  5
6C6
330
6C4
100
AcDbEntity
  8
0
  6
ByBlock
 62
     0
370
    -2
100
AcDbLine
 10
-0.5
 20
0.0
 30
0.0
 11
-1.0
 21
0.0
 31
0.0
  0
ENDBLK
  5
6C8
330
6C4
100
AcDbEntity
  8
0
100
AcDbBlockEnd
  0
BLOCK
  5
A6A
330
A66
100
AcDbEntity
  8
0
100
AcDbBlockBegin
  2
_OPEN30
 70
     0
 10
0.0
 20
0.0
 30
0.0
  3
_OPEN30
  1

  0
LINE
  5
A67
330
A66
100
AcDbEntity
  8
0
  6
ByBlock
 62
     0
100
AcDbLine
 10
-1.0
 20
0.26794919
 30
0.0
 11
0.0
 21
0.0
 31
0.0
  0
LINE
  5
A68
330
A66
100
AcDbEntity
  8
0
  6
ByBlock
 62
     0
100
AcDbLine
 10
0.0
 20
0.0
 30
0.0
 11
-1.0
 21
-0.26794919
 31
0.0
  0
LINE
  5
A69
330
A66
100
AcDbEntity
  8
0
  6
ByBlock
 62
     0
100
AcDbLine
 10
0.0
 20
0.0
 30
0.0
 11
-1.0
 21
0.0
 31
0.0
  0
ENDBLK
  5
A6B
330
A66
100
AcDbEntity
  8
0
100
AcDbBlockEnd
  0
BLOCK
  5
4C349
330
4C33F
100
AcDbEntity
  8
0
100
AcDbBlockBegin
  2
*D7
 70
     1
 10
0.0
 20
0.0
 30
0.0
  3
*D7
  1

  0
LINE
  5
5B2D6
330
4C33F
100
AcDbEntity
  8
AM_5
100
AcDbLine
 10
6229.727133345864
 20
-4095.350841878256
 30
0.0
 11
6229.727133345864
 21
-4083.850841878256
 31
0.0
  0
LINE
  5
5B2D7
330
4C33F
100
AcDbEntity
  8
AM_5
100
AcDbLine
 10
6263.001854345865
 20
-4098.875198878256
 30
0.0
 11
6263.001854345865
 21
-4083.850841878256
 31
0.0
  0
LINE
  5
5B2D8
330
4C33F
100
AcDbEntity
  8
AM_5
100
AcDbLine
 10
6230.727133345864
 20
-4084.850841878256
 30
0.0
 11
6262.001854345864
 21
-4084.850841878256
 31
0.0
  0
INSERT
  5
5B2D9
330
4C33F
100
AcDbEntity
  8
AM_5
100
AcDbBlockReference
  2
_Dot
 10
6229.727133345864
 20
-4084.850841878256
 30
0.0
 50
180.0
  0
INSERT
  5
5B2DA
330
4C33F
100
AcDbEntity
  8
AM_5
100
AcDbBlockReference
  2
_Dot
 10
6263.001854345865
 20
-4084.850841878256
 30
0.0
  0
MTEXT
  5
5B2DB
330
4C33F
100
AcDbEntity
  8
AM_5
 62
     2
100
AcDbMText
 10
6246.364493845863
 20
-4082.250841878257
 30
0.0
 40
3.200000000000001
 41
0.0
 71
     5
 72
     1
  1
（33）
 73
     1
 44
1.0
1001
ACAD
1000
MTEXTBEGIN
1070
    73
1070
     1
1070
    44
1040
1.0
1070
    74
1070
     0
1000
MTEXTEND
  0
POINT
  5
5B2DC
330
4C33F
100
AcDbEntity
  8
Defpoints
 62
     0
100
AcDbPoint
 10
6229.727133345864
 20
-4096.350841878257
 30
0.0
  0
POINT
  5
5B2DD
330
4C33F
100
AcDbEntity
  8
Defpoints
 62
     0
100
AcDbPoint
 10
6263.001854345865
 20
-4099.875198878256
 30
0.0
  0
POINT
  5
5B2DE
330
4C33F
100
AcDbEntity
  8
Defpoints
 62
     0
100
AcDbPoint
 10
6263.001854345865
 20
-4084.850841878256
 30
0.0
  0
ENDBLK
  5
4C34A
330
4C33F
100
AcDbEntity
  8
0
100
AcDbBlockEnd
  0
BLOCK
  5
4C370
330
4C366
100
AcDbEntity
  8
0
100
AcDbBlockBegin
  2
*D8
 70
     1
 10
0.0
 20
0.0
 30
0.0
  3
*D8
  1

  0
LINE
  5
5B34B
330
4C366
100
AcDbEntity
  8
AM_5
100
AcDbLine
 10
6242.227133345863
 20
-4093.350841878256
 30
0.0
 11
6280.001854345864
 21
-4093.350841878256
 31
0.0
  0
LINE
  5
5B34C
330
4C366
100
AcDbEntity
  8
AM_5
100
AcDbLine
 10
6242.227133345863
 20
-4114.350841878256
 30
0.0
 11
6280.001854345864
 21
-4114.350841878256
 31
0.0
  0
LINE
  5
5B34D
330
4C366
100
AcDbEntity
  8
AM_5
100
AcDbLine
 10
6279.001854345864
 20
-4094.350841878257
 30
0.0
 11
6279.001854345864
 21
-4113.350841878257
 31
0.0
  0
INSERT
  5
5B34E
330
4C366
100
AcDbEntity
  8
AM_5
100
AcDbBlockReference
  2
_Dot
 10
6279.001854345864
 20
-4093.350841878256
 30
0.0
 50
90.0
  0
INSERT
  5
5B34F
330
4C366
100
AcDbEntity
  8
AM_5
100
AcDbBlockReference
  2
_Dot
 10
6279.001854345864
 20
-4114.350841878256
 30
0.0
 50
270.0
  0
MTEXT
  5
5B350
330
4C366
100
AcDbEntity
  8
AM_5
 62
     2
100
AcDbMText
 10
6276.401854345864
 20
-4103.850841378256
 30
0.0
 40
3.200000000000001
 41
0.0
 71
     5
 72
     1
  1
（21）
 11
0.0000000000000001
 21
1.0
 31
0.0
 73
     1
 44
1.0
1001
ACAD
1000
MTEXTBEGIN
1070
    73
1070
     1
1070
    44
1040
1.0
1070
    74
1070
     0
1000
MTEXTEND
  0
POINT
  5
5B351
330
4C366
100
AcDbEntity
  8
Defpoints
 62
     0
100
AcDbPoint
 10
6241.227133345864
 20
-4093.350841878256
 30
0.0
  0
POINT
  5
5B352
330
4C366
100
AcDbEntity
  8
Defpoints
 62
     0
100
AcDbPoint
 10
6241.227133345864
 20
-4114.350841878256
 30
0.0
  0
POINT
  5
5B353
330
4C366
100
AcDbEntity
  8
Defpoints
 62
     0
100
AcDbPoint
 10
6279.001854345864
 20
-4114.350841878256
 30
0.0
  0
ENDBLK
  5
4C371
330
4C366
100
AcDbEntity
  8
0
100
AcDbBlockEnd
  0
BLOCK
  5
4C397
330
4C38D
100
AcDbEntity
  8
0
100
AcDbBlockBegin
  2
*D9
 70
     1
 10
0.0
 20
0.0
 30
0.0
  3
*D9
  1

  0
LINE
  5
52A88
330
4C38D
100
AcDbEntity
  8
AM_5
100
AcDbLine
 10
6256.727133345864
 20
-4111.350841878256
 30
0.0
 11
6272.001854345863
 21
-4111.350841878256
 31
0.0
  0
LINE
  5
52A89
330
4C38D
100
AcDbEntity
  8
AM_5
100
AcDbLine
 10
6256.727133345864
 20
-4096.350841878257
 30
0.0
 11
6272.001854345863
 21
-4096.350841878257
 31
0.0
  0
LINE
  5
52A8A
330
4C38D
100
AcDbEntity
  8
AM_5
100
AcDbLine
 10
6271.001854345864
 20
-4110.350841878257
 30
0.0
 11
6271.001854345864
 21
-4097.350841878256
 31
0.0
  0
INSERT
  5
52A8B
330
4C38D
100
AcDbEntity
  8
AM_5
100
AcDbBlockReference
  2
_Dot
 10
6271.001854345864
 20
-4111.350841878256
 30
0.0
 50
270.0
  0
INSERT
  5
52A8C
330
4C38D
100
AcDbEntity
  8
AM_5
100
AcDbBlockReference
  2
_Dot
 10
6271.001854345864
 20
-4096.350841878257
 30
0.0
 50
90.0
  0
MTEXT
  5
52A8D
330
4C38D
100
AcDbEntity
  8
AM_5
 62
     2
100
AcDbMText
 10
6268.401854345864
 20
-4103.850841878257
 30
0.0
 40
3.200000000000001
 41
0.0
 71
     5
 72
     1
  1
15
 11
0.0000000000000001
 21
1.0
 31
0.0
 73
     1
 44
1.0
1001
ACAD
1000
MTEXTBEGIN
1070
    73
1070
     1
1070
    44
1040
1.0
1070
    74
1070
     0
1000
MTEXTEND
  0
POINT
  5
52A8E
330
4C38D
100
AcDbEntity
  8
Defpoints
 62
     0
100
AcDbPoint
 10
6255.727133345864
 20
-4111.350841878256
 30
0.0
  0
POINT
  5
52A8F
330
4C38D
100
AcDbEntity
  8
Defpoints
 62
     0
100
AcDbPoint
 10
6255.727133345864
 20
-4096.350841878257
 30
0.0
  0
POINT
  5
52A90
330
4C38D
100
AcDbEntity
  8
Defpoints
 62
     0
100
AcDbPoint
 10
6271.001854345864
 20
-4096.350841878257
 30
0.0
  0
ENDBLK
  5
4C398
330
4C38D
100
AcDbEntity
  8
0
100
AcDbBlockEnd
  0
BLOCK
  5
4C3AD
330
4C3A3
100
AcDbEntity
  8
0
100
AcDbBlockBegin
  2
*D10
 70
     1
 10
0.0
 20
0.0
 30
0.0
  3
*D10
  1

  0
LINE
  5
5B2B2
330
4C3A3
100
AcDbEntity
  8
AM_5
100
AcDbLine
 10
6219.727133345863
 20
-4096.850841878256
 30
0.0
 11
6219.727133345863
 21
-4083.850841878256
 31
0.0
  0
LINE
  5
5B2B3
330
4C3A3
100
AcDbEntity
  8
AM_5
100
AcDbLine
 10
6194.727133345864
 20
-4098.850841878256
 30
0.0
 11
6194.727133345864
 21
-4083.850841878256
 31
0.0
  0
LINE
  5
5B2B4
330
4C3A3
100
AcDbEntity
  8
AM_5
100
AcDbLine
 10
6218.727133345864
 20
-4084.850841878256
 30
0.0
 11
6195.727133345864
 21
-4084.850841878256
 31
0.0
  0
INSERT
  5
5B2B5
330
4C3A3
100
AcDbEntity
  8
AM_5
100
AcDbBlockReference
  2
_Dot
 10
6219.727133345863
 20
-4084.850841878256
 30
0.0
  0
INSERT
  5
5B2B6
330
4C3A3
100
AcDbEntity
  8
AM_5
100
AcDbBlockReference
  2
_Dot
 10
6194.727133345864
 20
-4084.850841878256
 30
0.0
 50
180.0
  0
MTEXT
  5
5B2B7
330
4C3A3
100
AcDbEntity
  8
AM_5
 62
     2
100
AcDbMText
 10
6207.227133345863
 20
-4082.250841878257
 30
0.0
 40
3.200000000000001
 41
0.0
 71
     5
 72
     1
  1
（25）
 73
     1
 44
1.0
1001
ACAD
1000
MTEXTBEGIN
1070
    73
1070
     1
1070
    44
1040
1.0
1070
    74
1070
     0
1000
MTEXTEND
  0
POINT
  5
5B2B8
330
4C3A3
100
AcDbEntity
  8
Defpoints
 62
     0
100
AcDbPoint
 10
6219.727133345863
 20
-4097.850841878257
 30
0.0
  0
POINT
  5
5B2B9
330
4C3A3
100
AcDbEntity
  8
Defpoints
 62
     0
100
AcDbPoint
 10
6194.727133345864
 20
-4099.850841878256
 30
0.0
  0
POINT
  5
5B2BA
330
4C3A3
100
AcDbEntity
  8
Defpoints
 62
     0
100
AcDbPoint
 10
6194.727133345864
 20
-4084.850841878256
 30
0.0
  0
ENDBLK
  5
4C3AE
330
4C3A3
100
AcDbEntity
  8
0
100
AcDbBlockEnd
  0
BLOCK
  5
4C3D4
330
4C3CA
100
AcDbEntity
  8
0
100
AcDbBlockBegin
  2
*D11
 70
     1
 10
0.0
 20
0.0
 30
0.0
  3
*D11
  1

  0
LINE
  5
52A9A
330
4C3CA
100
AcDbEntity
  8
AM_5
100
AcDbLine
 10
6195.727133345864
 20
-4109.850841878256
 30
0.0
 11
6185.727133345864
 21
-4109.850841878256
 31
0.0
  0
LINE
  5
52A9B
330
4C3CA
100
AcDbEntity
  8
AM_5
100
AcDbLine
 10
6195.727133345864
 20
-4097.850841878257
 30
0.0
 11
6185.727133345864
 21
-4097.850841878257
 31
0.0
  0
LINE
  5
52A9C
330
4C3CA
100
AcDbEntity
  8
AM_5
100
AcDbLine
 10
6186.727133345863
 20
-4108.850841878257
 30
0.0
 11
6186.727133345863
 21
-4098.850841878256
 31
0.0
  0
INSERT
  5
52A9D
330
4C3CA
100
AcDbEntity
  8
AM_5
100
AcDbBlockReference
  2
_Dot
 10
6186.727133345863
 20
-4109.850841878256
 30
0.0
 50
270.0
  0
INSERT
  5
52A9E
330
4C3CA
100
AcDbEntity
  8
AM_5
100
AcDbBlockReference
  2
_Dot
 10
6186.727133345863
 20
-4097.850841878257
 30
0.0
 50
90.0
  0
MTEXT
  5
52A9F
330
4C3CA
100
AcDbEntity
  8
AM_5
 62
     2
100
AcDbMText
 10
6184.127133345864
 20
-4103.850841878257
 30
0.0
 40
3.200000000000001
 41
0.0
 71
     5
 72
     1
  1
12
 11
0.0000000000000001
 21
1.0
 31
0.0
 73
     1
 44
1.0
1001
ACAD
1000
MTEXTBEGIN
1070
    73
1070
     1
1070
    44
1040
1.0
1070
    74
1070
     0
1000
MTEXTEND
  0
POINT
  5
52AA0
330
4C3CA
100
AcDbEntity
  8
Defpoints
 62
     0
100
AcDbPoint
 10
6196.727133345864
 20
-4109.850841878256
 30
0.0
  0
POINT
  5
52AA1
330
4C3CA
100
AcDbEntity
  8
Defpoints
 62
     0
100
AcDbPoint
 10
6196.727133345864
 20
-4097.850841878257
 30
0.0
  0
POINT
  5
52AA2
330
4C3CA
100
AcDbEntity
  8
Defpoints
 62
     0
100
AcDbPoint
 10
6186.727133345863
 20
-4097.850841878257
 30
0.0
  0
ENDBLK
  5
4C3D5
330
4C3CA
100
AcDbEntity
  8
0
100
AcDbBlockEnd
  0
BLOCK
  5
4C3EC
330
4C3E0
100
AcDbEntity
  8
0
100
AcDbBlockBegin
  2
*D12
 70
     1
 10
0.0
 20
0.0
 30
0.0
  3
*D12
  1

  0
LINE
  5
5B325
330
4C3E0
100
AcDbEntity
  8
AM_5
100
AcDbLine
 10
6225.250430345864
 20
-4114.350841878256
 30
0.0
 11
6226.433233406012
 21
-4114.350841878256
 31
0.0
  0
LINE
  5
5B326
330
4C3E0
100
AcDbEntity
  8
AM_5
100
AcDbLine
 10
6225.250430345864
 20
-4112.350841878257
 30
0.0
 11
6224.433233406012
 21
-4112.350841878257
 31
0.0
  0
LINE
  5
5B327
330
4C3E0
100
AcDbEntity
  8
AM_5
100
AcDbLine
 10
6225.433233406011
 20
-4111.350841878256
 30
0.0
 11
6225.433233406011
 21
-4110.350841878257
 31
0.0
  0
LINE
  5
5B328
330
4C3E0
100
AcDbEntity
  8
AM_5
100
AcDbLine
 10
6225.433233406011
 20
-4115.350841878256
 30
0.0
 11
6225.433233406011
 21
-4121.870841878257
 31
0.0
  0
LINE
  5
5B329
330
4C3E0
100
AcDbEntity
  8
AM_5
100
AcDbLine
 10
6225.433233406011
 20
-4112.350841878257
 30
0.0
 11
6225.433233406011
 21
-4114.350841878256
 31
0.0
  0
INSERT
  5
5B32A
330
4C3E0
100
AcDbEntity
  8
AM_5
100
AcDbBlockReference
  2
_Dot
 10
6225.433233406011
 20
-4112.350841878257
 30
0.0
 50
270.0
  0
INSERT
  5
5B32B
330
4C3E0
100
AcDbEntity
  8
AM_5
100
AcDbBlockReference
  2
_Dot
 10
6225.433233406011
 20
-4114.350841878256
 30
0.0
 50
90.0
  0
MTEXT
  5
5B32C
330
4C3E0
100
AcDbEntity
  8
AM_5
 62
     2
100
AcDbMText
 10
6222.833233406013
 20
-4119.110841878256
 30
0.0
 40
3.200000000000001
 41
0.0
 71
     5
 72
     1
  1
%%c2
 11
0.0000000000000001
 21
1.0
 31
0.0
 73
     1
 44
1.0
1001
ACAD
1000
MTEXTBEGIN
1070
    73
1070
     1
1070
    44
1040
1.0
1070
    74
1070
     0
1000
MTEXTEND
  0
POINT
  5
5B32D
330
4C3E0
100
AcDbEntity
  8
Defpoints
 62
     0
100
AcDbPoint
 10
6224.250430345865
 20
-4114.350841878256
 30
0.0
  0
POINT
  5
5B32E
330
4C3E0
100
AcDbEntity
  8
Defpoints
 62
     0
100
AcDbPoint
 10
6226.250430345865
 20
-4112.350841878257
 30
0.0
  0
POINT
  5
5B32F
330
4C3E0
100
AcDbEntity
  8
Defpoints
 62
     0
100
AcDbPoint
 10
6225.433233406011
 20
-4112.350841878257
 30
0.0
  0
ENDBLK
  5
4C3ED
330
4C3E0
100
AcDbEntity
  8
0
100
AcDbBlockEnd
  0
BLOCK
  5
4C41A
330
4C410
100
AcDbEntity
  8
0
100
AcDbBlockBegin
  2
*D13
 70
     1
 10
0.0
 20
0.0
 30
0.0
  3
*D13
  1

  0
LINE
  5
5B2E8
330
4C410
100
AcDbEntity
  8
AM_5
100
AcDbLine
 10
6256.727133345864
 20
-4152.403787728213
 30
0.0
 11
6272.001854345865
 21
-4152.403787728213
 31
0.0
  0
LINE
  5
5B2E9
330
4C410
100
AcDbEntity
  8
AM_5
100
AcDbLine
 10
6237.380980345864
 20
-4142.403787728214
 30
0.0
 11
6272.001854345865
 21
-4142.403787728214
 31
0.0
  0
LINE
  5
5B2EA
330
4C410
100
AcDbEntity
  8
AM_5
100
AcDbLine
 10
6271.001854345865
 20
-4151.403787728213
 30
0.0
 11
6271.001854345865
 21
-4143.403787728213
 31
0.0
  0
INSERT
  5
5B2EB
330
4C410
100
AcDbEntity
  8
AM_5
100
AcDbBlockReference
  2
_Dot
 10
6271.001854345865
 20
-4152.403787728213
 30
0.0
 50
270.0
  0
INSERT
  5
5B2EC
330
4C410
100
AcDbEntity
  8
AM_5
100
AcDbBlockReference
  2
_Dot
 10
6271.001854345865
 20
-4142.403787728214
 30
0.0
 50
90.0
  0
MTEXT
  5
5B2ED
330
4C410
100
AcDbEntity
  8
AM_5
 62
     2
100
AcDbMText
 10
6268.401854345865
 20
-4147.403787728211
 30
0.0
 40
3.200000000000001
 41
0.0
 71
     5
 72
     1
  1
（10）
 11
0.0000000000000001
 21
1.0
 31
0.0
 73
     1
 44
1.0
1001
ACAD
1000
MTEXTBEGIN
1070
    73
1070
     1
1070
    44
1040
1.0
1070
    74
1070
     0
1000
MTEXTEND
  0
POINT
  5
5B2EE
330
4C410
100
AcDbEntity
  8
Defpoints
 62
     0
100
AcDbPoint
 10
6255.727133345864
 20
-4152.403787728213
 30
0.0
  0
POINT
  5
5B2EF
330
4C410
100
AcDbEntity
  8
Defpoints
 62
     0
100
AcDbPoint
 10
6236.380980345864
 20
-4142.403787728214
 30
0.0
  0
POINT
  5
5B2F0
330
4C410
100
AcDbEntity
  8
Defpoints
 62
     0
100
AcDbPoint
 10
6271.001854345865
 20
-4142.403787728214
 30
0.0
  0
ENDBLK
  5
4C41B
330
4C410
100
AcDbEntity
  8
0
100
AcDbBlockEnd
  0
BLOCK
  5
4C443
330
4C437
100
AcDbEntity
  8
0
100
AcDbBlockBegin
  2
*D14
 70
     1
 10
0.0
 20
0.0
 30
0.0
  3
*D14
  1

  0
LINE
  5
52AB7
330
4C437
100
AcDbEntity
  8
AM_5
100
AcDbLine
 10
6256.727133345864
 20
-4152.403787728213
 30
0.0
 11
6264.001854345863
 21
-4152.403787728213
 31
0.0
  0
LINE
  5
52AB8
330
4C437
100
AcDbEntity
  8
AM_5
100
AcDbLine
 10
6256.727133345864
 20
-4151.403787728213
 30
0.0
 11
6264.001854345863
 21
-4151.403787728213
 31
0.0
  0
LINE
  5
52AB9
330
4C437
100
AcDbEntity
  8
AM_5
100
AcDbLine
 10
6263.001854345864
 20
-4150.403787728214
 30
0.0
 11
6263.001854345864
 21
-4149.403787728213
 31
0.0
  0
LINE
  5
52ABA
330
4C437
100
AcDbEntity
  8
AM_5
100
AcDbLine
 10
6263.001854345864
 20
-4153.403787728214
 30
0.0
 11
6263.001854345864
 21
-4156.937121061547
 31
0.0
  0
LINE
  5
52ABB
330
4C437
100
AcDbEntity
  8
AM_5
100
AcDbLine
 10
6263.001854345864
 20
-4151.403787728213
 30
0.0
 11
6263.001854345864
 21
-4152.403787728213
 31
0.0
  0
INSERT
  5
52ABC
330
4C437
100
AcDbEntity
  8
AM_5
100
AcDbBlockReference
  2
_Dot
 10
6263.001854345864
 20
-4151.403787728213
 30
0.0
 50
270.0
  0
INSERT
  5
52ABD
330
4C437
100
AcDbEntity
  8
AM_5
100
AcDbBlockReference
  2
_Dot
 10
6263.001854345864
 20
-4152.403787728213
 30
0.0
 50
90.0
  0
MTEXT
  5
52ABE
330
4C437
100
AcDbEntity
  8
AM_5
 62
     2
100
AcDbMText
 10
6260.401854345865
 20
-4155.670454394878
 30
0.0
 40
3.200000000000001
 41
0.0
 71
     5
 72
     1
  1
1
 11
0.0000000000000001
 21
1.0
 31
0.0
 73
     1
 44
1.0
1001
ACAD
1000
MTEXTBEGIN
1070
    73
1070
     1
1070
    44
1040
1.0
1070
    74
1070
     0
1000
MTEXTEND
  0
POINT
  5
52ABF
330
4C437
100
AcDbEntity
  8
Defpoints
 62
     0
100
AcDbPoint
 10
6255.727133345864
 20
-4152.403787728213
 30
0.0
  0
POINT
  5
52AC0
330
4C437
100
AcDbEntity
  8
Defpoints
 62
     0
100
AcDbPoint
 10
6255.727133345864
 20
-4151.403787728213
 30
0.0
  0
POINT
  5
52AC1
330
4C437
100
AcDbEntity
  8
Defpoints
 62
     0
100
AcDbPoint
 10
6263.001854345864
 20
-4151.403787728213
 30
0.0
  0
ENDBLK
  5
4C444
330
4C437
100
AcDbEntity
  8
0
100
AcDbBlockEnd
  0
BLOCK
  5
4C468
330
4C45C
100
AcDbEntity
  8
0
100
AcDbBlockBegin
  2
*D15
 70
     1
 10
0.0
 20
0.0
 30
0.0
  3
*D15
  1

  0
LINE
  5
5B318
330
4C45C
100
AcDbEntity
  8
AM_5
100
AcDbLine
 10
6193.727133345864
 20
-4152.403787728213
 30
0.0
 11
6177.727133345863
 21
-4152.403787728213
 31
0.0
  0
LINE
  5
5B319
330
4C45C
100
AcDbEntity
  8
AM_5
100
AcDbLine
 10
6214.727133345864
 20
-4146.903787728213
 30
0.0
 11
6177.727133345863
 21
-4146.903787728213
 31
0.0
  0
LINE
  5
5B31A
330
4C45C
100
AcDbEntity
  8
AM_5
100
AcDbLine
 10
6178.727133345863
 20
-4147.903787728213
 30
0.0
 11
6178.727133345863
 21
-4151.403787728213
 31
0.0
  0
LINE
  5
5B31B
330
4C45C
100
AcDbEntity
  8
AM_5
100
AcDbLine
 10
6178.727133345863
 20
-4152.403787728213
 30
0.0
 11
6178.727133345863
 21
-4160.097121061546
 31
0.0
  0
INSERT
  5
5B31C
330
4C45C
100
AcDbEntity
  8
AM_5
100
AcDbBlockReference
  2
_Dot
 10
6178.727133345863
 20
-4146.903787728213
 30
0.0
 50
90.0
  0
INSERT
  5
5B31D
330
4C45C
100
AcDbEntity
  8
AM_5
100
AcDbBlockReference
  2
_Dot
 10
6178.727133345863
 20
-4152.403787728213
 30
0.0
 50
270.0
  0
MTEXT
  5
5B31E
330
4C45C
100
AcDbEntity
  8
AM_5
 62
     2
100
AcDbMText
 10
6176.127133345864
 20
-4156.750454394877
 30
0.0
 40
3.200000000000001
 41
0.0
 71
     5
 72
     1
  1
5.5
 11
0.0000000000000001
 21
1.0
 31
0.0
 73
     1
 44
1.0
1001
ACAD
1000
MTEXTBEGIN
1070
    73
1070
     1
1070
    44
1040
1.0
1070
    74
1070
     0
1000
MTEXTEND
  0
POINT
  5
5B31F
330
4C45C
100
AcDbEntity
  8
Defpoints
 62
     0
100
AcDbPoint
 10
6194.727133345864
 20
-4152.403787728213
 30
0.0
  0
POINT
  5
5B320
330
4C45C
100
AcDbEntity
  8
Defpoints
 62
     0
100
AcDbPoint
 10
6215.727133345864
 20
-4146.903787728213
 30
0.0
  0
POINT
  5
5B321
330
4C45C
100
AcDbEntity
  8
Defpoints
 62
     0
100
AcDbPoint
 10
6178.727133345863
 20
-4146.903787728213
 30
0.0
  0
ENDBLK
  5
4C469
330
4C45C
100
AcDbEntity
  8
0
100
AcDbBlockEnd
  0
BLOCK
  5
4C492
330
4C486
100
AcDbEntity
  8
0
100
AcDbBlockBegin
  2
*D16
 70
     1
 10
0.0
 20
0.0
 30
0.0
  3
*D16
  1

  0
LINE
  5
52ACC
330
4C486
100
AcDbEntity
  8
AM_5
100
AcDbLine
 10
6193.727133345864
 20
-4152.403787728213
 30
0.0
 11
6185.727133345864
 21
-4152.403787728213
 31
0.0
  0
LINE
  5
52ACD
330
4C486
100
AcDbEntity
  8
AM_5
100
AcDbLine
 10
6193.727133345864
 20
-4151.403787728213
 30
0.0
 11
6185.727133345864
 21
-4151.403787728213
 31
0.0
  0
LINE
  5
52ACE
330
4C486
100
AcDbEntity
  8
AM_5
100
AcDbLine
 10
6186.727133345863
 20
-4150.403787728214
 30
0.0
 11
6186.727133345863
 21
-4149.403787728213
 31
0.0
  0
LINE
  5
52ACF
330
4C486
100
AcDbEntity
  8
AM_5
100
AcDbLine
 10
6186.727133345863
 20
-4153.403787728214
 30
0.0
 11
6186.727133345863
 21
-4156.937121061547
 31
0.0
  0
LINE
  5
52AD0
330
4C486
100
AcDbEntity
  8
AM_5
100
AcDbLine
 10
6186.727133345863
 20
-4151.403787728213
 30
0.0
 11
6186.727133345863
 21
-4152.403787728213
 31
0.0
  0
INSERT
  5
52AD1
330
4C486
100
AcDbEntity
  8
AM_5
100
AcDbBlockReference
  2
_Dot
 10
6186.727133345863
 20
-4151.403787728213
 30
0.0
 50
270.0
  0
INSERT
  5
52AD2
330
4C486
100
AcDbEntity
  8
AM_5
100
AcDbBlockReference
  2
_Dot
 10
6186.727133345863
 20
-4152.403787728213
 30
0.0
 50
90.0
  0
MTEXT
  5
52AD3
330
4C486
100
AcDbEntity
  8
AM_5
 62
     2
100
AcDbMText
 10
6184.127133345864
 20
-4155.670454394878
 30
0.0
 40
3.200000000000001
 41
0.0
 71
     5
 72
     1
  1
1
 11
0.0000000000000001
 21
1.0
 31
0.0
 73
     1
 44
1.0
1001
ACAD
1000
MTEXTBEGIN
1070
    73
1070
     1
1070
    44
1040
1.0
1070
    74
1070
     0
1000
MTEXTEND
  0
POINT
  5
52AD4
330
4C486
100
AcDbEntity
  8
Defpoints
 62
     0
100
AcDbPoint
 10
6194.727133345864
 20
-4152.403787728213
 30
0.0
  0
POINT
  5
52AD5
330
4C486
100
AcDbEntity
  8
Defpoints
 62
     0
100
AcDbPoint
 10
6194.727133345864
 20
-4151.403787728213
 30
0.0
  0
POINT
  5
52AD6
330
4C486
100
AcDbEntity
  8
Defpoints
 62
     0
100
AcDbPoint
 10
6186.727133345863
 20
-4151.403787728213
 30
0.0
  0
ENDBLK
  5
4C493
330
4C486
100
AcDbEntity
  8
0
100
AcDbBlockEnd
  0
BLOCK
  5
4C4BF
330
4C4B5
100
AcDbEntity
  8
0
100
AcDbBlockBegin
  2
*D17
 70
     1
 10
0.0
 20
0.0
 30
0.0
  3
*D17
  1

  0
LINE
  5
52AD7
330
4C4B5
100
AcDbEntity
  8
AM_5
100
AcDbLine
 10
6240.727133345863
 20
-4194.210480435386
 30
0.0
 11
6240.727133345863
 21
-4209.610480435386
 31
0.0
  0
LINE
  5
52AD8
330
4C4B5
100
AcDbEntity
  8
AM_5
100
AcDbLine
 10
6250.727133345864
 20
-4194.210480435386
 30
0.0
 11
6250.727133345864
 21
-4209.610480435386
 31
0.0
  0
LINE
  5
52AD9
330
4C4B5
100
AcDbEntity
  8
AM_5
100
AcDbLine
 10
6241.727133345865
 20
-4208.610480435386
 30
0.0
 11
6249.727133345864
 21
-4208.610480435386
 31
0.0
  0
INSERT
  5
52ADA
330
4C4B5
100
AcDbEntity
  8
AM_5
100
AcDbBlockReference
  2
_Dot
 10
6240.727133345863
 20
-4208.610480435386
 30
0.0
 50
180.0
  0
INSERT
  5
52ADB
330
4C4B5
100
AcDbEntity
  8
AM_5
100
AcDbBlockReference
  2
_Dot
 10
6250.727133345864
 20
-4208.610480435386
 30
0.0
  0
MTEXT
  5
52ADC
330
4C4B5
100
AcDbEntity
  8
AM_5
 62
     2
100
AcDbMText
 10
6245.727133345864
 20
-4206.010480435386
 30
0.0
 40
3.200000000000001
 41
0.0
 71
     5
 72
     1
  1
10
 73
     1
 44
1.0
1001
ACAD
1000
MTEXTBEGIN
1070
    73
1070
     1
1070
    44
1040
1.0
1070
    74
1070
     0
1000
MTEXTEND
  0
POINT
  5
52ADD
330
4C4B5
100
AcDbEntity
  8
Defpoints
 62
     0
100
AcDbPoint
 10
6240.727133345863
 20
-4193.210480435385
 30
0.0
  0
POINT
  5
52ADE
330
4C4B5
100
AcDbEntity
  8
Defpoints
 62
     0
100
AcDbPoint
 10
6250.727133345864
 20
-4193.210480435385
 30
0.0
  0
POINT
  5
52ADF
330
4C4B5
100
AcDbEntity
  8
Defpoints
 62
     0
100
AcDbPoint
 10
6250.727133345864
 20
-4208.610480435386
 30
0.0
  0
ENDBLK
  5
4C4C0
330
4C4B5
100
AcDbEntity
  8
0
100
AcDbBlockEnd
  0
BLOCK
  5
4C4D5
330
4C4CB
100
AcDbEntity
  8
0
100
AcDbBlockBegin
  2
*D18
 70
     1
 10
0.0
 20
0.0
 30
0.0
  3
*D18
  1

  0
LINE
  5
52AE0
330
4C4CB
100
AcDbEntity
  8
AM_5
100
AcDbLine
 10
6240.727133345863
 20
-4194.210480435386
 30
0.0
 11
6240.727133345863
 21
-4209.610480435386
 31
0.0
  0
LINE
  5
52AE1
330
4C4CB
100
AcDbEntity
  8
AM_5
100
AcDbLine
 10
6229.727133345864
 20
-4198.110480435386
 30
0.0
 11
6229.727133345864
 21
-4209.610480435386
 31
0.0
  0
LINE
  5
52AE2
330
4C4CB
100
AcDbEntity
  8
AM_5
100
AcDbLine
 10
6239.727133345864
 20
-4208.610480435386
 30
0.0
 11
6230.727133345864
 21
-4208.610480435386
 31
0.0
  0
INSERT
  5
52AE3
330
4C4CB
100
AcDbEntity
  8
AM_5
100
AcDbBlockReference
  2
_Dot
 10
6240.727133345863
 20
-4208.610480435386
 30
0.0
  0
INSERT
  5
52AE4
330
4C4CB
100
AcDbEntity
  8
AM_5
100
AcDbBlockReference
  2
_Dot
 10
6229.727133345864
 20
-4208.610480435386
 30
0.0
 50
180.0
  0
MTEXT
  5
52AE5
330
4C4CB
100
AcDbEntity
  8
AM_5
 62
     2
100
AcDbMText
 10
6235.227133345864
 20
-4206.010480435386
 30
0.0
 40
3.200000000000001
 41
0.0
 71
     5
 72
     1
  1
11
 73
     1
 44
1.0
1001
ACAD
1000
MTEXTBEGIN
1070
    73
1070
     1
1070
    44
1040
1.0
1070
    74
1070
     0
1000
MTEXTEND
  0
POINT
  5
52AE6
330
4C4CB
100
AcDbEntity
  8
Defpoints
 62
     0
100
AcDbPoint
 10
6240.727133345863
 20
-4193.210480435385
 30
0.0
  0
POINT
  5
52AE7
330
4C4CB
100
AcDbEntity
  8
Defpoints
 62
     0
100
AcDbPoint
 10
6229.727133345864
 20
-4197.110480435386
 30
0.0
  0
POINT
  5
52AE8
330
4C4CB
100
AcDbEntity
  8
Defpoints
 62
     0
100
AcDbPoint
 10
6229.727133345864
 20
-4208.610480435386
 30
0.0
  0
ENDBLK
  5
4C4D6
330
4C4CB
100
AcDbEntity
  8
0
100
AcDbBlockEnd
  0
BLOCK
  5
4C539
330
4C532
100
AcDbEntity
  8
0
100
AcDbBlockBegin
  2
*D19
 70
     1
 10
0.0
 20
0.0
 30
0.0
  3
*D19
  1

  0
LINE
  5
52AFB
330
4C532
100
AcDbEntity
  8
AM_5
100
AcDbLine
 10
6273.046574853119
 20
-4201.892284500089
 30
0.0
 11
6260.313241519785
 21
-4201.892284500089
 31
0.0
  0
LINE
  5
52AFC
330
4C532
100
AcDbEntity
  8
AM_5
100
AcDbLine
 10
6260.313241519785
 20
-4201.892284500089
 30
0.0
 11
6252.38839802783
 21
-4191.73890700364
 31
0.0
  0
LINE
  5
52AFD
330
4C532
100
AcDbEntity
  8
AM_5
100
AcDbLine
 10
6249.065868663897
 20
-4187.482053867132
 30
0.0
 11
6248.450585448352
 21
-4186.693747730742
 31
0.0
  0
MTEXT
  5
52AFE
330
4C532
100
AcDbEntity
  8
AM_5
 62
     2
100
AcDbMText
 10
6267.179908186452
 20
-4199.292284500088
 30
0.0
 40
3.2
 41
0.0
 71
     5
 72
     1
  1
2-\U+22053.4
 73
     1
 44
1.0
1001
ACAD
1000
MTEXTBEGIN
1070
    73
1070
     1
1070
    44
1040
1.0
1070
    74
1070
     0
1000
MTEXTEND
  0
LINE
  5
52AFF
330
4C532
100
AcDbEntity
  8
AM_5
100
AcDbLine
 10
6249.68115187944
 20
-4188.270360003522
 30
0.0
 11
6251.773114812287
 21
-4190.950600867249
 31
0.0
  0
INSERT
  5
52B00
330
4C532
100
AcDbEntity
  8
AM_5
100
AcDbBlockReference
  2
_Dot
 10
6249.68115187944
 20
-4188.270360003522
 30
0.0
 50
307.9725021170479
  0
INSERT
  5
52B01
330
4C532
100
AcDbEntity
  8
AM_5
100
AcDbBlockReference
  2
_Dot
 10
6251.773114812287
 20
-4190.950600867249
 30
0.0
 50
127.972502117048
  0
POINT
  5
52B02
330
4C532
100
AcDbEntity
  8
Defpoints
 62
     0
100
AcDbPoint
 10
6251.773114812287
 20
-4190.950600867249
 30
0.0
  0
POINT
  5
52B03
330
4C532
100
AcDbEntity
  8
Defpoints
 62
     0
100
AcDbPoint
 10
6249.68115187944
 20
-4188.270360003522
 30
0.0
  0
ENDBLK
  5
4C53A
330
4C532
100
AcDbEntity
  8
0
100
AcDbBlockEnd
  0
BLOCK
  5
4C567
330
4C55D
100
AcDbEntity
  8
0
100
AcDbBlockBegin
  2
*D20
 70
     1
 10
0.0
 20
0.0
 30
0.0
  3
*D20
  1

  0
LINE
  5
52B04
330
4C55D
100
AcDbEntity
  8
AM_5
100
AcDbLine
 10
6180.022329140172
 20
-4201.892284500088
 30
0.0
 11
6192.755662473508
 21
-4201.892284500088
 31
0.0
  0
LINE
  5
52B05
330
4C55D
100
AcDbEntity
  8
AM_5
100
AcDbLine
 10
6192.755662473508
 20
-4201.892284500088
 30
0.0
 11
6199.257182053361
 21
-4191.875263691609
 31
0.0
  0
LINE
  5
52B06
330
4C55D
100
AcDbEntity
  8
AM_5
100
AcDbLine
 10
6202.197084638367
 20
-4187.345697179162
 30
0.0
 11
6202.741511042998
 21
-4186.506888565745
 31
0.0
  0
MTEXT
  5
52B07
330
4C55D
100
AcDbEntity
  8
AM_5
 62
     2
100
AcDbMText
 10
6185.888995806838
 20
-4199.292284500088
 30
0.0
 40
3.2
 41
0.0
 71
     5
 72
     1
  1
2-\U+22053.4
 73
     1
 44
1.0
1001
ACAD
1000
MTEXTBEGIN
1070
    73
1070
     1
1070
    44
1040
1.0
1070
    74
1070
     0
1000
MTEXTEND
  0
LINE
  5
52B08
330
4C55D
100
AcDbEntity
  8
AM_5
100
AcDbLine
 10
6201.652658233737
 20
-4188.184505792577
 30
0.0
 11
6199.801608457992
 21
-4191.036455078193
 31
0.0
  0
INSERT
  5
52B09
330
4C55D
100
AcDbEntity
  8
AM_5
100
AcDbBlockReference
  2
_Dot
 10
6201.652658233737
 20
-4188.184505792577
 30
0.0
 50
237.014525156177
  0
INSERT
  5
52B0A
330
4C55D
100
AcDbEntity
  8
AM_5
100
AcDbBlockReference
  2
_Dot
 10
6199.801608457992
 20
-4191.036455078193
 30
0.0
 50
57.01452515617707
  0
POINT
  5
52B0B
330
4C55D
100
AcDbEntity
  8
Defpoints
 62
     0
100
AcDbPoint
 10
6199.801608457992
 20
-4191.036455078193
 30
0.0
  0
POINT
  5
52B0C
330
4C55D
100
AcDbEntity
  8
Defpoints
 62
     0
100
AcDbPoint
 10
6201.652658233737
 20
-4188.184505792577
 30
0.0
  0
ENDBLK
  5
4C568
330
4C55D
100
AcDbEntity
  8
0
100
AcDbBlockEnd
  0
BLOCK
  5
4C5A5
330
4C59B
100
AcDbEntity
  8
0
100
AcDbBlockBegin
  2
*D21
 70
     1
 10
0.0
 20
0.0
 30
0.0
  3
*D21
  1

  0
LINE
  5
52B0D
330
4C59B
100
AcDbEntity
  8
AM_5
100
AcDbLine
 10
6240.727133345863
 20
-4185.010480435386
 30
0.0
 11
6240.727133345863
 21
-4169.610480435387
 31
0.0
  0
LINE
  5
52B0E
330
4C59B
100
AcDbEntity
  8
AM_5
100
AcDbLine
 10
6210.727133345864
 20
-4185.010480435386
 30
0.0
 11
6210.727133345864
 21
-4169.610480435387
 31
0.0
  0
LINE
  5
52B0F
330
4C59B
100
AcDbEntity
  8
AM_5
100
AcDbLine
 10
6239.727133345864
 20
-4170.610480435386
 30
0.0
 11
6211.727133345863
 21
-4170.610480435386
 31
0.0
  0
INSERT
  5
52B10
330
4C59B
100
AcDbEntity
  8
AM_5
100
AcDbBlockReference
  2
_Dot
 10
6240.727133345863
 20
-4170.610480435386
 30
0.0
  0
INSERT
  5
52B11
330
4C59B
100
AcDbEntity
  8
AM_5
100
AcDbBlockReference
  2
_Dot
 10
6210.727133345864
 20
-4170.610480435386
 30
0.0
 50
180.0
  0
MTEXT
  5
52B12
330
4C59B
100
AcDbEntity
  8
AM_5
 62
     2
100
AcDbMText
 10
6225.727133345864
 20
-4168.010480435386
 30
0.0
 40
3.200000000000001
 41
0.0
 71
     5
 72
     1
  1
（30）
 73
     1
 44
1.0
1001
ACAD
1000
MTEXTBEGIN
1070
    73
1070
     1
1070
    44
1040
1.0
1070
    74
1070
     0
1000
MTEXTEND
  0
POINT
  5
52B13
330
4C59B
100
AcDbEntity
  8
Defpoints
 62
     0
100
AcDbPoint
 10
6240.727133345863
 20
-4186.010480435386
 30
0.0
  0
POINT
  5
52B14
330
4C59B
100
AcDbEntity
  8
Defpoints
 62
     0
100
AcDbPoint
 10
6210.727133345864
 20
-4186.010480435386
 30
0.0
  0
POINT
  5
52B15
330
4C59B
100
AcDbEntity
  8
Defpoints
 62
     0
100
AcDbPoint
 10
6210.727133345864
 20
-4170.610480435386
 30
0.0
  0
ENDBLK
  5
4C5A6
330
4C59B
100
AcDbEntity
  8
0
100
AcDbBlockEnd
  0
BLOCK
  5
4C5CD
330
4C5C3
100
AcDbEntity
  8
0
100
AcDbBlockBegin
  2
*D22
 70
     1
 10
0.0
 20
0.0
 30
0.0
  3
*D22
  1

  0
LINE
  5
53B1E
330
4C5C3
100
AcDbEntity
  8
AM_5
100
AcDbLine
 10
6219.727133345863
 20
-4196.610480435386
 30
0.0
 11
6219.727133345863
 21
-4209.610480435386
 31
0.0
  0
LINE
  5
53B1F
330
4C5C3
100
AcDbEntity
  8
AM_5
100
AcDbLine
 10
6210.727133345864
 20
-4194.210480435386
 30
0.0
 11
6210.727133345864
 21
-4209.610480435386
 31
0.0
  0
LINE
  5
53B20
330
4C5C3
100
AcDbEntity
  8
AM_5
100
AcDbLine
 10
6218.727133345864
 20
-4208.610480435386
 30
0.0
 11
6211.727133345863
 21
-4208.610480435386
 31
0.0
  0
INSERT
  5
53B21
330
4C5C3
100
AcDbEntity
  8
AM_5
100
AcDbBlockReference
  2
_Dot
 10
6219.727133345863
 20
-4208.610480435386
 30
0.0
  0
INSERT
  5
53B22
330
4C5C3
100
AcDbEntity
  8
AM_5
100
AcDbBlockReference
  2
_Dot
 10
6210.727133345864
 20
-4208.610480435386
 30
0.0
 50
180.0
  0
MTEXT
  5
53B23
330
4C5C3
100
AcDbEntity
  8
AM_5
 62
     2
100
AcDbMText
 10
6215.227133345865
 20
-4206.010480435386
 30
0.0
 40
3.200000000000001
 41
0.0
 71
     5
 72
     1
  1
（9）
 73
     1
 44
1.0
1001
ACAD
1000
MTEXTBEGIN
1070
    73
1070
     1
1070
    44
1040
1.0
1070
    74
1070
     0
1000
MTEXTEND
  0
POINT
  5
53B24
330
4C5C3
100
AcDbEntity
  8
Defpoints
 62
     0
100
AcDbPoint
 10
6219.727133345863
 20
-4195.610480435386
 30
0.0
  0
POINT
  5
53B25
330
4C5C3
100
AcDbEntity
  8
Defpoints
 62
     0
100
AcDbPoint
 10
6210.727133345864
 20
-4193.210480435385
 30
0.0
  0
POINT
  5
53B26
330
4C5C3
100
AcDbEntity
  8
Defpoints
 62
     0
100
AcDbPoint
 10
6210.727133345864
 20
-4208.610480435386
 30
0.0
  0
ENDBLK
  5
4C5CE
330
4C5C3
100
AcDbEntity
  8
0
100
AcDbBlockEnd
  0
BLOCK
  5
4C5F4
330
4C5EA
100
AcDbEntity
  8
0
100
AcDbBlockBegin
  2
*D23
 70
     1
 10
0.0
 20
0.0
 30
0.0
  3
*D23
  1

  0
LINE
  5
52B1F
330
4C5EA
100
AcDbEntity
  8
AM_5
100
AcDbLine
 10
6210.727133345864
 20
-4194.210480435386
 30
0.0
 11
6210.727133345864
 21
-4209.610480435386
 31
0.0
  0
LINE
  5
52B20
330
4C5EA
100
AcDbEntity
  8
AM_5
100
AcDbLine
 10
6200.727133345864
 20
-4194.210480435386
 30
0.0
 11
6200.727133345864
 21
-4209.610480435386
 31
0.0
  0
LINE
  5
52B21
330
4C5EA
100
AcDbEntity
  8
AM_5
100
AcDbLine
 10
6209.727133345865
 20
-4208.610480435386
 30
0.0
 11
6201.727133345864
 21
-4208.610480435386
 31
0.0
  0
INSERT
  5
52B22
330
4C5EA
100
AcDbEntity
  8
AM_5
100
AcDbBlockReference
  2
_Dot
 10
6210.727133345864
 20
-4208.610480435386
 30
0.0
  0
INSERT
  5
52B23
330
4C5EA
100
AcDbEntity
  8
AM_5
100
AcDbBlockReference
  2
_Dot
 10
6200.727133345864
 20
-4208.610480435386
 30
0.0
 50
180.0
  0
MTEXT
  5
52B24
330
4C5EA
100
AcDbEntity
  8
AM_5
 62
     2
100
AcDbMText
 10
6205.727133345863
 20
-4206.010480435386
 30
0.0
 40
3.200000000000001
 41
0.0
 71
     5
 72
     1
  1
10
 73
     1
 44
1.0
1001
ACAD
1000
MTEXTBEGIN
1070
    73
1070
     1
1070
    44
1040
1.0
1070
    74
1070
     0
1000
MTEXTEND
  0
POINT
  5
52B25
330
4C5EA
100
AcDbEntity
  8
Defpoints
 62
     0
100
AcDbPoint
 10
6210.727133345864
 20
-4193.210480435385
 30
0.0
  0
POINT
  5
52B26
330
4C5EA
100
AcDbEntity
  8
Defpoints
 62
     0
100
AcDbPoint
 10
6200.727133345864
 20
-4193.210480435385
 30
0.0
  0
POINT
  5
52B27
330
4C5EA
100
AcDbEntity
  8
Defpoints
 62
     0
100
AcDbPoint
 10
6200.727133345864
 20
-4208.610480435386
 30
0.0
  0
ENDBLK
  5
4C5F5
330
4C5EA
100
AcDbEntity
  8
0
100
AcDbBlockEnd
  0
ENDSEC
  0
SECTION
  2
ENTITIES
  0
TEXT
  5
31B30
330
1F
100
AcDbEntity
  8
AM_6
 60
     1
100
AcDbText
 10
3408.785415022811
 20
1879.970675238635
 30
0.0
 40
2.5
  1
!GENTITLE-INSERT
100
AcDbText
  0
TEXT
  5
31B31
330
1F
100
AcDbEntity
  8
AM_6
 60
     1
100
AcDbText
 10
3000.285415022811
 20
1871.470675238635
 30
0.0
 40
2.5
  1
!GENTITLE-LL
100
AcDbText
  0
TEXT
  5
31B32
330
1F
100
AcDbEntity
  8
AM_6
 60
     1
100
AcDbText
 10
3420.285415022811
 20
2168.470675238635
 30
0.0
 40
2.5
  1
!GENTITLE-RU
100
AcDbText
  0
TEXT
  5
31B33
330
1F
100
AcDbEntity
  8
AM_6
 60
     1
100
AcDbText
 10
3420.285415022811
 20
2168.470675238635
 30
0.0
 40
2.5
  1
!GENTITLE-MAX
100
AcDbText
  0
TEXT
  5
31B3B
330
1F
100
AcDbEntity
  8
AM_6
 60
     1
100
AcDbText
 10
3000.285415022811
 20
1871.470675238635
 30
0.0
 40
2.5
  1
!GENTITLE-LL
100
AcDbText
  0
TEXT
  5
31B3C
330
1F
100
AcDbEntity
  8
AM_6
 60
     1
100
AcDbText
 10
3408.785415022811
 20
2159.970675238636
 30
0.0
 40
2.5
  1
!GENTITLE-RU
100
AcDbText
  0
TEXT
  5
31B3D
330
1F
100
AcDbEntity
  8
AM_6
 60
     1
100
AcDbText
 10
3420.285415022811
 20
2168.470675238635
 30
0.0
 40
2.5
  1
!GENTITLE-MAX
100
AcDbText
  0
TEXT
  5
31B3E
330
1F
100
AcDbEntity
  8
AM_6
 60
     1
100
AcDbText
 10
3408.785415022811
 20
1879.970675238635
 30
0.0
 40
2.5
  1
!GENTITLE-INSERT
100
AcDbText
  0
TEXT
  5
32D1D
330
1F
100
AcDbEntity
  8
AM_6
 60
     1
100
AcDbText
 10
3234.949399973154
 20
1839.277532086519
 30
0.0
 40
2.5
  1
!GENTITLE-INSERT
100
AcDbText
  0
TEXT
  5
32D1E
330
1F
100
AcDbEntity
  8
AM_6
 60
     1
100
AcDbText
 10
3246.449399973154
 20
2040.77753208652
 30
0.0
 40
2.5
  1
!GENTITLE-MAX
100
AcDbText
  0
TEXT
  5
32D1F
330
1F
100
AcDbEntity
  8
AM_6
 60
     1
100
AcDbText
 10
3246.449399973154
 20
2040.77753208652
 30
0.0
 40
2.5
  1
!GENTITLE-RU
100
AcDbText
  0
TEXT
  5
32D21
330
1F
100
AcDbEntity
  8
AM_6
 60
     1
100
AcDbText
 10
2949.449399973154
 20
1830.777532086519
 30
0.0
 40
2.5
  1
!GENTITLE-LL
100
AcDbText
  0
TEXT
  5
34534
330
1F
100
AcDbEntity
  8
AM_6
 60
     1
100
AcDbText
 10
3774.506320898737
 20
958.0958490755065
 30
0.0
 40
2.5
  1
!GENTITLE-INSERT
100
AcDbText
  0
TEXT
  5
34535
330
1F
100
AcDbEntity
  8
AM_6
 60
     1
100
AcDbText
 10
3786.006320898738
 20
1159.595849075506
 30
0.0
 40
2.5
  1
!GENTITLE-MAX
100
AcDbText
  0
TEXT
  5
34536
330
1F
100
AcDbEntity
  8
AM_6
 60
     1
100
AcDbText
 10
3786.006320898738
 20
1159.595849075506
 30
0.0
 40
2.5
  1
!GENTITLE-RU
100
AcDbText
  0
TEXT
  5
34538
330
1F
100
AcDbEntity
  8
AM_6
 60
     1
100
AcDbText
 10
3489.006320898738
 20
949.5958490755064
 30
0.0
 40
2.5
  1
!GENTITLE-LL
100
AcDbText
  0
LINE
  5
42801
330
1F
100
AcDbEntity
  8
size
100
AcDbLine
 10
6074.924675701049
 20
-4036.501639484159
 30
0.0
 11
6371.924675701049
 21
-4036.501639484159
 31
0.0
1001
GENIUS_GENREC_14
1002
{
1000
PYDIR
1011
6074.924675701049
1021
-3949.501639484159
1031
0.0
1002
}
1002
{
1000
PXDIR
1011
6494.924675701049
1021
-4246.501639484159
1031
0.0
1002
}
1002
{
1000
PORI
1011
6074.924675701049
1021
-4246.501639484159
1031
0.0
1002
}
1002
{
1000
PINS
1011
6284.924675701049
1021
-4098.001639484158
1031
0.0
1002
}
1002
{
1000
HVAL
1000
297
1002
}
1002
{
1000
H
1070
     2
1002
}
1002
{
1000
WVAL
1000
420
1002
}
1002
{
1000
W
1070
     2
1002
}
1002
{
1000
C
1070
     4
1002
}
1001
GENIUS_GENOBJ-N-REC_13
1002
{
1000
OWNER
1000
GEN
1002
}
1001
GENIUS_GENODEF_13
1002
{
1000
HIER
1070
     0
1002
}
1002
{
1000
MANEDIT
1070
     0
1002
}
1002
{
1000
NOSEL
1070
     0
1002
}
1002
{
1000
BEHIND
1070
     0
1002
}
1002
{
1000
OTHER
1070
     0
1002
}
1002
{
1000
REACTOR
1002
}
  0
LINE
  5
42802
330
1F
100
AcDbEntity
  8
size
100
AcDbLine
 10
6371.924675701049
 20
-4036.501639484159
 30
0.0
 11
6371.924675701049
 21
-4246.501639484159
 31
0.0
1001
GENIUS_GENREC_14
1002
{
1000
PYDIR
1011
6074.924675701049
1021
-3949.501639484159
1031
0.0
1002
}
1002
{
1000
PXDIR
1011
6494.924675701049
1021
-4246.501639484159
1031
0.0
1002
}
1002
{
1000
PORI
1011
6074.924675701049
1021
-4246.501639484159
1031
0.0
1002
}
1002
{
1000
PINS
1011
6284.924675701049
1021
-4098.001639484158
1031
0.0
1002
}
1002
{
1000
HVAL
1000
297
1002
}
1002
{
1000
H
1070
     2
1002
}
1002
{
1000
WVAL
1000
420
1002
}
1002
{
1000
W
1070
     2
1002
}
1002
{
1000
C
1070
     4
1002
}
1001
GENIUS_GENOBJ-N-REC_13
1002
{
1000
OWNER
1000
GEN
1002
}
1001
GENIUS_GENODEF_13
1002
{
1000
HIER
1070
     0
1002
}
1002
{
1000
MANEDIT
1070
     0
1002
}
1002
{
1000
NOSEL
1070
     0
1002
}
1002
{
1000
BEHIND
1070
     0
1002
}
1002
{
1000
OTHER
1070
     0
1002
}
1002
{
1000
REACTOR
1002
}
  0
LINE
  5
42803
330
1F
100
AcDbEntity
  8
waku
100
AcDbLine
 10
6086.424675701049
 20
-4238.001639484159
 30
0.0
 11
6360.42467570105
 21
-4238.001639484159
 31
0.0
1001
GENIUS_GENREC_14
1002
{
1000
PYDIR
1011
6074.924675701049
1021
-3949.501639484159
1031
0.0
1002
}
1002
{
1000
PXDIR
1011
6494.924675701049
1021
-4246.501639484159
1031
0.0
1002
}
1002
{
1000
PORI
1011
6074.924675701049
1021
-4246.501639484159
1031
0.0
1002
}
1002
{
1000
PINS
1011
6284.924675701049
1021
-4098.001639484158
1031
0.0
1002
}
1002
{
1000
HVAL
1000
297
1002
}
1002
{
1000
H
1070
     2
1002
}
1002
{
1000
WVAL
1000
420
1002
}
1002
{
1000
W
1070
     2
1002
}
1002
{
1000
C
1070
     4
1002
}
  0
LINE
  5
42804
330
1F
100
AcDbEntity
  8
waku
100
AcDbLine
 10
6360.42467570105
 20
-4045.001639484159
 30
0.0
 11
6086.424675701049
 21
-4045.001639484159
 31
0.0
1001
GENIUS_GENREC_14
1002
{
1000
PYDIR
1011
5951.92467570105
1021
-4036.501639484159
1031
0.0
1002
}
1002
{
1000
PXDIR
1011
6371.924675701049
1021
-4333.501639484159
1031
0.0
1002
}
1002
{
1000
PORI
1011
5951.92467570105
1021
-4333.501639484159
1031
0.0
1002
}
1002
{
1000
PINS
1011
6161.92467570105
1021
-4185.001639484158
1031
0.0
1002
}
1002
{
1000
HVAL
1000
297
1002
}
1002
{
1000
H
1070
     2
1002
}
1002
{
1000
WVAL
1000
420
1002
}
1002
{
1000
W
1070
     2
1002
}
1002
{
1000
C
1070
     4
1002
}
1001
GENIUS_GENOBJ-N-REC_13
1002
{
1000
OWNER
1000
GEN
1002
}
1001
GENIUS_GENODEF_13
1002
{
1000
HIER
1070
     0
1002
}
1002
{
1000
MANEDIT
1070
     0
1002
}
1002
{
1000
NOSEL
1070
     0
1002
}
1002
{
1000
BEHIND
1070
     0
1002
}
1002
{
1000
OTHER
1070
     0
1002
}
1002
{
1000
REACTOR
1002
}
  0
LINE
  5
42805
330
1F
100
AcDbEntity
  8
waku
100
AcDbLine
 10
6086.424675701049
 20
-4045.001639484159
 30
0.0
 11
6086.424675701049
 21
-4238.001639484159
 31
0.0
1001
GENIUS_GENREC_14
1002
{
1000
PYDIR
1011
6074.924675701049
1021
-3949.501639484159
1031
0.0
1002
}
1002
{
1000
PXDIR
1011
6494.924675701049
1021
-4246.501639484159
1031
0.0
1002
}
1002
{
1000
PORI
1011
6074.924675701049
1021
-4246.501639484159
1031
0.0
1002
}
1002
{
1000
PINS
1011
6284.924675701049
1021
-4098.001639484158
1031
0.0
1002
}
1002
{
1000
HVAL
1000
297
1002
}
1002
{
1000
H
1070
     2
1002
}
1002
{
1000
WVAL
1000
420
1002
}
1002
{
1000
W
1070
     2
1002
}
1002
{
1000
C
1070
     4
1002
}
1001
GENIUS_GENOBJ-N-REC_13
1002
{
1000
OWNER
1000
GEN
1002
}
1001
GENIUS_GENODEF_13
1002
{
1000
HIER
1070
     0
1002
}
1002
{
1000
MANEDIT
1070
     0
1002
}
1002
{
1000
NOSEL
1070
     0
1002
}
1002
{
1000
BEHIND
1070
     0
1002
}
1002
{
1000
OTHER
1070
     0
1002
}
1002
{
1000
REACTOR
1002
}
  0
LINE
  5
42806
330
1F
100
AcDbEntity
  8
waku
100
AcDbLine
 10
6360.42467570105
 20
-4238.001639484159
 30
0.0
 11
6360.42467570105
 21
-4045.001639484159
 31
0.0
1001
GENIUS_GENREC_14
1002
{
1000
PYDIR
1011
5951.92467570105
1021
-4030.501639484159
1031
0.0
1002
}
1002
{
1000
PXDIR
1011
6371.924675701049
1021
-4327.501639484158
1031
0.0
1002
}
1002
{
1000
PORI
1011
5951.92467570105
1021
-4327.501639484158
1031
0.0
1002
}
1002
{
1000
PINS
1011
6161.92467570105
1021
-4179.001639484158
1031
0.0
1002
}
1002
{
1000
HVAL
1000
297
1002
}
1002
{
1000
H
1070
     2
1002
}
1002
{
1000
WVAL
1000
420
1002
}
1002
{
1000
W
1070
     2
1002
}
1002
{
1000
C
1070
     4
1002
}
1001
GENIUS_GENOBJ-N-REC_13
1002
{
1000
OWNER
1000
GEN
1002
}
1001
GENIUS_GENODEF_13
1002
{
1000
HIER
1070
     0
1002
}
1002
{
1000
MANEDIT
1070
     0
1002
}
1002
{
1000
NOSEL
1070
     0
1002
}
1002
{
1000
BEHIND
1070
     0
1002
}
1002
{
1000
OTHER
1070
     0
1002
}
1002
{
1000
REACTOR
1002
}
  0
LINE
  5
42807
330
1F
100
AcDbEntity
  8
size
100
AcDbLine
 10
6074.924675701049
 20
-4036.501639484159
 30
0.0
 11
6074.924675701049
 21
-4246.501639484159
 31
0.0
1001
GENIUS_GENREC_14
1002
{
1000
PYDIR
1011
6074.924675701049
1021
-3949.501639484159
1031
0.0
1002
}
1002
{
1000
PXDIR
1011
6494.924675701049
1021
-4246.501639484159
1031
0.0
1002
}
1002
{
1000
PORI
1011
6074.924675701049
1021
-4246.501639484159
1031
0.0
1002
}
1002
{
1000
PINS
1011
6284.924675701049
1021
-4098.001639484158
1031
0.0
1002
}
1002
{
1000
HVAL
1000
297
1002
}
1002
{
1000
H
1070
     2
1002
}
1002
{
1000
WVAL
1000
420
1002
}
1002
{
1000
W
1070
     2
1002
}
1002
{
1000
C
1070
     4
1002
}
1001
GENIUS_GENOBJ-N-REC_13
1002
{
1000
OWNER
1000
GEN
1002
}
1001
GENIUS_GENODEF_13
1002
{
1000
HIER
1070
     0
1002
}
1002
{
1000
MANEDIT
1070
     0
1002
}
1002
{
1000
NOSEL
1070
     0
1002
}
1002
{
1000
BEHIND
1070
     0
1002
}
1002
{
1000
OTHER
1070
     0
1002
}
1002
{
1000
REACTOR
1002
}
  0
LINE
  5
42808
330
1F
100
AcDbEntity
  8
size
100
AcDbLine
 10
6074.924675701049
 20
-4246.501639484159
 30
0.0
 11
6371.924675701049
 21
-4246.501639484159
 31
0.0
1001
GENIUS_GENREC_14
1002
{
1000
PYDIR
1011
6074.924675701049
1021
-3949.501639484159
1031
0.0
1002
}
1002
{
1000
PXDIR
1011
6494.924675701049
1021
-4246.501639484159
1031
0.0
1002
}
1002
{
1000
PORI
1011
6074.924675701049
1021
-4246.501639484159
1031
0.0
1002
}
1002
{
1000
PINS
1011
6284.924675701049
1021
-4098.001639484158
1031
0.0
1002
}
1002
{
1000
HVAL
1000
297
1002
}
1002
{
1000
H
1070
     2
1002
}
1002
{
1000
WVAL
1000
420
1002
}
1002
{
1000
W
1070
     2
1002
}
1002
{
1000
C
1070
     4
1002
}
1001
GENIUS_GENOBJ-N-REC_13
1002
{
1000
OWNER
1000
GEN
1002
}
1001
GENIUS_GENODEF_13
1002
{
1000
HIER
1070
     0
1002
}
1002
{
1000
MANEDIT
1070
     0
1002
}
1002
{
1000
NOSEL
1070
     0
1002
}
1002
{
1000
BEHIND
1070
     0
1002
}
1002
{
1000
OTHER
1070
     0
1002
}
1002
{
1000
REACTOR
1002
}
  0
LINE
  5
42809
330
1F
100
AcDbEntity
  8
AM_5
370
    13
100
AcDbLine
 10
6106.424675701049
 20
-4045.001639484159
 30
0.0
 11
6106.424675701047
 21
-4077.001639484159
 31
0.0
  0
LINE
  5
4280A
330
1F
100
AcDbEntity
  8
AM_5
370
    13
100
AcDbLine
 10
6086.424675701049
 20
-4053.001639484159
 30
0.0
 11
6173.424675701049
 21
-4053.001639484159
 31
0.0
  0
LINE
  5
4280B
330
1F
100
AcDbEntity
  8
AM_5
370
    13
100
AcDbLine
 10
6086.424675701049
 20
-4061.001639484159
 30
0.0
 11
6173.424675701049
 21
-4061.001639484159
 31
0.0
  0
LINE
  5
4280C
330
1F
100
AcDbEntity
  8
AM_5
370
    13
100
AcDbLine
 10
6086.424675701049
 20
-4069.001639484159
 30
0.0
 11
6173.424675701049
 21
-4069.001639484159
 31
0.0
  0
LINE
  5
4280D
330
1F
100
AcDbEntity
  8
AM_0
  6
中線
 48
0.5
370
    30
100
AcDbLine
 10
6086.424675701049
 20
-4077.001639484159
 30
0.0
 11
6173.424675701049
 21
-4077.001639484159
 31
0.0
  0
LINE
  5
4280E
330
1F
100
AcDbEntity
  8
AM_0
  6
中線
 48
0.5
370
    30
100
AcDbLine
 10
6086.424675701049
 20
-4045.001639484159
 30
0.0
 11
6086.424675701049
 21
-4077.001639484159
 31
0.0
  0
LINE
  5
4280F
330
1F
100
AcDbEntity
  8
AM_0
  6
中線
 48
0.5
370
    30
100
AcDbLine
 10
6086.424675701049
 20
-4045.001639484159
 30
0.0
 11
6173.424675701049
 21
-4045.001639484159
 31
0.0
  0
LINE
  5
42810
330
1F
100
AcDbEntity
  8
AM_0
  6
中線
 48
0.5
370
    30
100
AcDbLine
 10
6173.424675701049
 20
-4045.001639484159
 30
0.0
 11
6173.424675701046
 21
-4077.001639484159
 31
0.0
  0
TEXT
  5
42811
330
1F
100
AcDbEntity
  8
AM_6
100
AcDbText
 10
6092.08167570105
 20
-4050.601639484159
 30
0.0
 40
3.2
  1
品　名
 41
0.85537027
100
AcDbText
  0
TEXT
  5
42812
330
1F
100
AcDbEntity
  8
AM_6
100
AcDbText
 10
6092.08167570105
 20
-4058.601639484159
 30
0.0
 40
3.2
  1
品　番
 41
0.85537027
100
AcDbText
  0
TEXT
  5
42813
330
1F
100
AcDbEntity
  8
AM_6
100
AcDbText
 10
6092.08167570105
 20
-4066.601639484159
 30
0.0
 40
3.2
  1
材　質
 41
0.85537027
100
AcDbText
  0
TEXT
  5
42814
330
1F
100
AcDbEntity
  8
AM_6
100
AcDbText
 10
6092.08167570105
 20
-4074.601639484159
 30
0.0
 40
3.2
  1
仕上げ
 41
0.85537027
100
AcDbText
  0
TEXT
  5
42815
330
1F
100
AcDbEntity
  8
AM_6
100
AcDbText
 10
6109.281675701049
 20
-4050.601639484159
 30
0.0
 40
3.2
  1
小型パチン錠
 41
0.84306961
100
AcDbText
  0
TEXT
  5
42816
330
1F
100
AcDbEntity
  8
AM_6
100
AcDbText
 10
6109.281675701049
 20
-4058.601639484159
 30
0.0
 40
3.2
  1
ELP-118S
 41
0.84741102
100
AcDbText
  0
TEXT
  5
42817
330
1F
100
AcDbEntity
  8
AM_6
100
AcDbText
 10
6109.281675701049
 20
-4066.601639484159
 30
0.0
 40
3.2
  1
ステンレス
 41
0.84634979
100
AcDbText
  0
TEXT
  5
42818
330
1F
100
AcDbEntity
  8
AM_6
100
AcDbText
 10
6109.281675701049
 20
-4074.601639484159
 30
0.0
 40
3.2
  1
バレル研磨
 41
0.84350122
100
AcDbText
  0
LINE
  5
4C214
330
1F
100
AcDbEntity
  8
AM_0
  6
中線
 48
0.5
370
    30
100
AcDbLine
 10
6239.227133345863
 20
-4151.403787728213
 30
0.0
 11
6239.550997345864
 21
-4152.403787728213
 31
0.0
  0
LINE
  5
4C215
330
1F
100
AcDbEntity
  8
AM_7
  6
中心線1
 48
0.3
370
    13
100
AcDbLine
 10
6200.727133345864
 20
-4148.403787728215
 30
0.0
 11
6200.727133345864
 21
-4155.403787728214
 31
0.0
  0
ARC
  5
4C216
330
1F
100
AcDbEntity
  8
AM_0
  6
中線
 48
0.5
370
    30
100
AcDbCircle
 10
6217.175297345864
 20
-4149.403787728213
 30
0.0
 40
1.0
100
AcDbArc
 50
138.0627989999976
 51
318.0627989999976
  0
ARC
  5
4C217
330
1F
100
AcDbEntity
  8
AM_0
  6
中線
 48
0.5
370
    30
100
AcDbCircle
 10
6243.727133345863
 20
-4148.403787728213
 30
0.0
 40
1.0
100
AcDbArc
 50
252.3579879999881
 51
72.35798799998808
  0
LINE
  5
4C21A
330
1F
100
AcDbEntity
  8
AM_0
  6
中線
 48
0.5
370
    30
100
AcDbLine
 10
6194.727133345864
 20
-4151.403787728213
 30
0.0
 11
6194.727133345864
 21
-4152.403787728213
 31
0.0
  0
LINE
  5
4C21B
330
1F
100
AcDbEntity
  8
AM_0
  6
中線
 48
0.5
370
    30
100
AcDbLine
 10
6194.727133345864
 20
-4152.403787728213
 30
0.0
 11
6216.977133345864
 21
-4152.403787728213
 31
0.0
  0
LINE
  5
4C21C
330
1F
100
AcDbEntity
  8
AM_0
  6
中線
 48
0.5
370
    30
100
AcDbLine
 10
6194.727133345864
 20
-4151.403787728213
 30
0.0
 11
6216.977133345864
 21
-4151.403787728213
 31
0.0
  0
LINE
  5
4C21D
330
1F
100
AcDbEntity
  8
AM_0
  6
中線
 48
0.5
370
    30
100
AcDbLine
 10
6216.977133345864
 20
-4146.903787728213
 30
0.0
 11
6215.727133345864
 21
-4146.903787728213
 31
0.0
  0
LINE
  5
4C21E
330
1F
100
AcDbEntity
  8
AM_0
  6
中線
 48
0.5
370
    30
100
AcDbLine
 10
6215.727133345864
 20
-4146.903787728213
 30
0.0
 11
6215.727133345864
 21
-4147.903787728213
 31
0.0
  0
LINE
  5
4C21F
330
1F
100
AcDbEntity
  8
AM_0
  6
中線
 48
0.5
370
    30
100
AcDbLine
 10
6215.727133345864
 20
-4147.903787728213
 30
0.0
 11
6216.977133345864
 21
-4147.903787728213
 31
0.0
  0
LINE
  5
4C220
330
1F
100
AcDbEntity
  8
AM_0
  6
中線
 48
0.5
370
    30
100
AcDbLine
 10
6221.736011345864
 20
-4142.831125728213
 30
0.0
 11
6216.431419345864
 21
-4148.735471728213
 31
0.0
  0
LINE
  5
4C221
330
1F
100
AcDbEntity
  8
AM_0
  6
中線
 48
0.5
370
    30
100
AcDbLine
 10
6262.727133345864
 20
-4143.403787728213
 30
0.0
 11
6263.001854345865
 21
-4144.365311728214
 31
0.0
  0
ARC
  5
4C222
330
1F
100
AcDbEntity
  8
AM_0
  6
中線
 48
0.5
370
    30
100
AcDbCircle
 10
6255.408793345864
 20
-4140.294663728212
 30
0.0
 40
5.0
100
AcDbArc
 50
261.1853739999956
 51
285.9453959999939
  0
LINE
  5
4C223
330
1F
100
AcDbEntity
  8
AM_0
  6
中線
 48
0.5
370
    30
100
AcDbLine
 10
6253.727133345864
 20
-4151.403787728213
 30
0.0
 11
6255.560336345864
 21
-4145.904179728213
 31
0.0
  0
LINE
  5
4C224
330
1F
100
AcDbEntity
  8
AM_0
  6
中線
 48
0.5
370
    30
100
AcDbLine
 10
6255.851135345864
 20
-4146.408374728212
 30
0.0
 11
6263.001854345865
 21
-4144.365311728214
 31
0.0
  0
ARC
  5
4C225
330
1F
100
AcDbEntity
  8
AM_0
  6
中線
 48
0.5
370
    30
100
AcDbCircle
 10
6256.125856345864
 20
-4147.369898728213
 30
0.0
 40
1.0
100
AcDbArc
 50
105.9453959999939
 51
161.5650509999981
  0
ARC
  5
4C226
330
1F
100
AcDbEntity
  8
AM_0
  6
中線
 48
0.5
370
    30
100
AcDbCircle
 10
6256.509019345863
 20
-4146.220407728213
 30
0.0
 40
1.0
100
AcDbArc
 50
105.9453959999939
 51
161.5650509999981
  0
ARC
  5
4C227
330
1F
100
AcDbEntity
  8
AM_0
  6
中線
 48
0.5
370
    30
100
AcDbCircle
 10
6243.727133345863
 20
-4148.403787728213
 30
0.0
 40
1.1
100
AcDbArc
 50
227.7380110000058
 51
96.97796499999345
  0
LINE
  5
4C228
330
1F
100
AcDbEntity
  8
AM_0
  6
中線
 48
0.5
370
    30
100
AcDbLine
 10
6256.234298345864
 20
-4145.258883728213
 30
0.0
 11
6262.727133345864
 21
-4143.403787728213
 31
0.0
  0
LINE
  5
4C22A
330
1F
100
AcDbEntity
  8
AM_0
  6
中線
 48
0.5
370
    30
100
AcDbLine
 10
6236.380980345864
 20
-4142.403787728214
 30
0.0
 11
6254.642603345864
 21
-4145.235609728213
 31
0.0
  0
LINE
  5
4C22B
330
1F
100
AcDbEntity
  8
AM_0
  6
中線
 48
0.5
370
    30
100
AcDbLine
 10
6236.227133345864
 20
-4143.403787728213
 30
0.0
 11
6236.380980345864
 21
-4142.403787728214
 31
0.0
  0
LINE
  5
4C22C
330
1F
100
AcDbEntity
  8
AM_0
  6
中線
 48
0.5
370
    30
100
AcDbLine
 10
6233.727133345864
 20
-4143.403787728213
 30
0.0
 11
6236.227133345864
 21
-4143.403787728213
 31
0.0
  0
ARC
  5
4C22D
330
1F
100
AcDbEntity
  8
AM_0
  6
中線
 48
0.5
370
    30
100
AcDbCircle
 10
6236.380980345864
 20
-4147.403787728213
 30
0.0
 40
5.0
100
AcDbArc
 50
90.0
 51
127.1939530000096
  0
ARC
  5
4C22E
330
1F
100
AcDbEntity
  8
AM_0
  6
中線
 48
0.5
370
    30
100
AcDbCircle
 10
6233.727133345864
 20
-4147.403787728213
 30
0.0
 40
4.0
100
AcDbArc
 50
90.0
 51
112.0552879999931
  0
LINE
  5
4C230
330
1F
100
AcDbEntity
  8
AM_0
  6
中線
 48
0.5
370
    30
100
AcDbLine
 10
6229.727133345864
 20
-4147.403787728213
 30
0.0
 11
6229.727133345864
 21
-4152.403787728213
 31
0.0
  0
LINE
  5
4C231
330
1F
100
AcDbEntity
  8
AM_0
  6
中線
 48
0.5
370
    30
100
AcDbLine
 10
6229.727133345864
 20
-4152.403787728213
 30
0.0
 11
6255.727133345864
 21
-4152.403787728213
 31
0.0
  0
LINE
  5
4C232
330
1F
100
AcDbEntity
  8
AM_0
  6
中線
 48
0.5
370
    30
100
AcDbLine
 10
6255.727133345864
 20
-4152.403787728213
 30
0.0
 11
6255.727133345864
 21
-4151.403787728213
 31
0.0
  0
LINE
  5
4C233
330
1F
100
AcDbEntity
  8
AM_0
  6
中線
 48
0.5
370
    30
100
AcDbLine
 10
6253.727133345864
 20
-4151.403787728213
 30
0.0
 11
6233.727133345864
 21
-4151.403787728213
 31
0.0
  0
ARC
  5
4C234
330
1F
100
AcDbEntity
  8
AM_0
  6
中線
 48
0.5
370
    30
100
AcDbCircle
 10
6233.727133345864
 20
-4147.403787728213
 30
0.0
 40
1.75
100
AcDbArc
 50
124.3450639999893
 51
20.37091200001042
  0
LINE
  5
4C235
330
1F
100
AcDbEntity
  8
AM_7
  6
中心線1
 48
0.3
370
    13
100
AcDbLine
 10
6210.727133345864
 20
-4148.403787728215
 30
0.0
 11
6210.727133345864
 21
-4155.403787728213
 31
0.0
  0
LINE
  5
4C236
330
1F
100
AcDbEntity
  8
AM_7
  6
中心線1
 48
0.3
370
    13
100
AcDbLine
 10
6250.727133345864
 20
-4148.403787728213
 30
0.0
 11
6250.727133345865
 21
-4155.403787728213
 31
0.0
  0
LINE
  5
4C237
330
1F
100
AcDbEntity
  8
AM_7
  6
中心線1
 48
0.3
370
    13
100
AcDbLine
 10
6240.727133345863
 20
-4148.403787728213
 30
0.0
 11
6240.727133345865
 21
-4155.403787728213
 31
0.0
  0
ARC
  5
4C238
330
1F
100
AcDbEntity
  8
AM_0
  6
中線
 48
0.5
370
    30
100
AcDbCircle
 10
6224.711522345864
 20
-4145.504387728213
 30
0.0
 40
2.0
100
AcDbArc
 50
72.35798799998808
 51
138.0627989999976
  0
LINE
  5
4C239
330
1F
100
AcDbEntity
  8
AM_0
  6
中線
 48
0.5
370
    30
100
AcDbLine
 10
6217.919175345864
 20
-4150.072103728212
 30
0.0
 11
6223.223766345864
 21
-4144.167756728213
 31
0.0
  0
LINE
  5
4C23A
330
1F
100
AcDbEntity
  8
AM_0
  6
中線
 48
0.5
370
    30
100
AcDbLine
 10
6225.317659345864
 20
-4143.598450728213
 30
0.0
 11
6243.424065345863
 21
-4149.356756728213
 31
0.0
  0
ARC
  5
4C23B
330
1F
100
AcDbEntity
  8
AM_0
  6
中線
 48
0.5
370
    30
100
AcDbCircle
 10
6224.711522345864
 20
-4145.504387728213
 30
0.0
 40
4.0
100
AcDbArc
 50
72.35798799998808
 51
138.0627989999976
  0
LINE
  5
4C23C
330
1F
100
AcDbEntity
  8
AM_0
  6
中線
 48
0.5
370
    30
100
AcDbLine
 10
6244.030202345864
 20
-4147.450818728213
 30
0.0
 11
6225.923797345863
 21
-4141.692512728214
 31
0.0
  0
ARC
  5
4C23E
330
1F
100
AcDbEntity
  8
AM_0
  6
中線
 48
0.5
370
    30
100
AcDbCircle
 10
6233.727133345864
 20
-4147.403787728213
 30
0.0
 40
4.0
100
AcDbArc
 50
146.7276569999886
 51
270.0
  0
LINE
  5
4C23F
330
1F
100
AcDbEntity
  8
AM_7
  6
中心線1
 48
0.5
370
    13
100
AcDbLine
 10
6191.727133345864
 20
-4103.850841878257
 30
0.0
 11
6266.001854345865
 21
-4103.850841878257
 31
0.0
  0
LINE
  5
4C241
330
1F
100
AcDbEntity
  8
AM_0
  6
中線
 48
0.5
370
    30
100
AcDbLine
 10
6196.727133345864
 20
-4097.850841878257
 30
0.0
 11
6216.217257454315
 21
-4097.850841878257
 31
0.0
  0
LINE
  5
4C242
330
1F
100
AcDbEntity
  8
AM_0
  6
中線
 48
0.5
370
    30
100
AcDbLine
 10
6219.727133345863
 20
-4097.850841878257
 30
0.0
 11
6219.727133345863
 21
-4109.850841878256
 31
0.0
  0
LINE
  5
4C243
330
1F
100
AcDbEntity
  8
AM_0
  6
中線
 48
0.5
370
    30
100
AcDbLine
 10
6219.727133345863
 20
-4109.850841878256
 30
0.0
 11
6217.727133345864
 21
-4109.850841878256
 31
0.0
  0
LINE
  5
4C244
330
1F
100
AcDbEntity
  8
AM_0
  6
中線
 48
0.5
370
    30
100
AcDbLine
 10
6194.727133345864
 20
-4107.850841878256
 30
0.0
 11
6194.727133345864
 21
-4099.850841878256
 31
0.0
  0
LINE
  5
4C245
330
1F
100
AcDbEntity
  8
AM_0
  6
中線
 48
0.5
370
    30
100
AcDbLine
 10
6215.727133345864
 20
-4099.850841878256
 30
0.0
 11
6215.727133345864
 21
-4107.850841878256
 31
0.0
  0
LINE
  5
4C247
330
1F
100
AcDbEntity
  8
AM_2
  6
細線
370
    13
100
AcDbLine
 10
6255.727133345864
 20
-4096.850841878256
 30
0.0
 11
6255.727133345864
 21
-4110.850841878257
 31
0.0
  0
LINE
  5
4C248
330
1F
100
AcDbEntity
  8
AM_7
  6
中心線1
 48
0.3
370
    13
100
AcDbLine
 10
6210.727133345864
 20
-4100.250841878255
 30
0.0
 11
6210.727133345864
 21
-4107.450841878256
 31
0.0
  0
LINE
  5
4C249
330
1F
100
AcDbEntity
  8
AM_7
  6
中心線1
 48
0.3
370
    13
100
AcDbLine
 10
6200.727133345864
 20
-4100.250841878255
 30
0.0
 11
6200.727133345864
 21
-4107.450841878256
 31
0.0
  0
CIRCLE
  5
4C24A
330
1F
100
AcDbEntity
  8
AM_0
  6
中線
 48
0.5
370
    30
100
AcDbCircle
 10
6210.727133345864
 20
-4103.850841878257
 30
0.0
 40
1.6
  0
CIRCLE
  5
4C24B
330
1F
100
AcDbEntity
  8
AM_0
  6
中線
 48
0.5
370
    30
100
AcDbCircle
 10
6200.727133345864
 20
-4103.850841878257
 30
0.0
 40
1.6
  0
ARC
  5
4C24C
330
1F
100
AcDbEntity
  8
AM_0
  6
中線
 48
0.5
370
    30
100
AcDbCircle
 10
6217.727133345864
 20
-4099.850841878256
 30
0.0
 40
2.0
100
AcDbArc
 50
90.0
 51
180.0
  0
ARC
  5
4C24D
330
1F
100
AcDbEntity
  8
AM_0
  6
中線
 48
0.5
370
    30
100
AcDbCircle
 10
6217.727133345864
 20
-4107.850841878256
 30
0.0
 40
2.0
100
AcDbArc
 50
180.0
 51
270.0
  0
ARC
  5
4C24E
330
1F
100
AcDbEntity
  8
AM_0
  6
中線
 48
0.5
370
    30
100
AcDbCircle
 10
6196.727133345864
 20
-4107.850841878256
 30
0.0
 40
2.0
100
AcDbArc
 50
180.0
 51
270.0
  0
ARC
  5
4C24F
330
1F
100
AcDbEntity
  8
AM_0
  6
中線
 48
0.5
370
    30
100
AcDbCircle
 10
6196.727133345864
 20
-4099.850841878256
 30
0.0
 40
2.0
100
AcDbArc
 50
90.0
 51
180.0
  0
LINE
  5
4C250
330
1F
100
AcDbEntity
  8
AM_0
  6
中線
 48
0.5
370
    30
100
AcDbLine
 10
6229.727133345864
 20
-4195.860480435386
 30
0.0
 11
6239.550997345864
 21
-4195.860480435386
 31
0.0
  0
LINE
  5
4C251
330
1F
100
AcDbEntity
  8
AM_0
  6
中線
 48
0.5
370
    30
100
AcDbLine
 10
6236.380980345864
 20
-4110.100841878256
 30
0.0
 11
6229.727133345864
 21
-4110.100841878256
 31
0.0
  0
LINE
  5
4C252
330
1F
100
AcDbEntity
  8
AM_0
  6
中線
 48
0.5
370
    30
100
AcDbLine
 10
6229.727133345864
 20
-4109.100841878256
 30
0.0
 11
6236.380980345864
 21
-4109.100841878256
 31
0.0
  0
LINE
  5
4C253
330
1F
100
AcDbEntity
  8
AM_0
  6
中線
 48
0.5
370
    30
100
AcDbLine
 10
6236.380980345864
 20
-4098.600841878257
 30
0.0
 11
6229.727133345864
 21
-4098.600841878257
 31
0.0
  0
LINE
  5
4C254
330
1F
100
AcDbEntity
  8
AM_0
  6
中線
 48
0.5
370
    30
100
AcDbLine
 10
6229.727133345864
 20
-4097.600841878256
 30
0.0
 11
6236.380980345864
 21
-4097.600841878256
 31
0.0
  0
CIRCLE
  5
4C255
330
1F
100
AcDbEntity
  8
AM_0
  6
中線
 48
0.5
370
    30
100
AcDbCircle
 10
6200.727133345864
 20
-4189.610480435386
 30
0.0
 40
1.6
  0
LINE
  5
4C256
330
1F
100
AcDbEntity
  8
AM_0
  6
中線
 48
0.5
370
    30
100
AcDbLine
 10
6229.727133345864
 20
-4096.350841878257
 30
0.0
 11
6255.727133345864
 21
-4096.350841878257
 31
0.0
  0
LINE
  5
4C257
330
1F
100
AcDbEntity
  8
AM_0
  6
中線
 48
0.5
370
    30
100
AcDbLine
 10
6255.727133345864
 20
-4096.350841878257
 30
0.0
 11
6261.532032345864
 21
-4097.946750878256
 31
0.0
  0
LINE
  5
4C258
330
1F
100
AcDbEntity
  8
AM_0
  6
中線
 48
0.5
370
    30
100
AcDbLine
 10
6263.001854345865
 20
-4099.875198878256
 30
0.0
 11
6263.001854345865
 21
-4107.826483878255
 31
0.0
  0
LINE
  5
4C259
330
1F
100
AcDbEntity
  8
AM_0
  6
中線
 48
0.5
370
    30
100
AcDbLine
 10
6261.532032345864
 20
-4109.754931878256
 30
0.0
 11
6255.727133345864
 21
-4111.350841878256
 31
0.0
  0
LINE
  5
4C25A
330
1F
100
AcDbEntity
  8
AM_0
  6
中線
 48
0.5
370
    30
100
AcDbLine
 10
6255.727133345864
 20
-4111.350841878256
 30
0.0
 11
6229.727133345864
 21
-4111.350841878256
 31
0.0
  0
CIRCLE
  5
4C25B
330
1F
100
AcDbEntity
  8
AM_0
  6
中線
 48
0.5
370
    30
100
AcDbCircle
 10
6210.727133345864
 20
-4189.610480435386
 30
0.0
 40
1.6
  0
LINE
  5
4C25C
330
1F
100
AcDbEntity
  8
AM_0
  6
中線
 48
0.5
370
    30
100
AcDbLine
 10
6236.380980345864
 20
-4098.850841878256
 30
0.0
 11
6231.380980345864
 21
-4098.850841878256
 31
0.0
  0
LINE
  5
4C25D
330
1F
100
AcDbEntity
  8
AM_0
  6
中線
 48
0.5
370
    30
100
AcDbLine
 10
6229.727133345864
 20
-4097.600841878256
 30
0.0
 11
6229.727133345864
 21
-4110.100841878256
 31
0.0
  0
LINE
  5
4C25E
330
1F
100
AcDbEntity
  8
AM_0
  6
中線
 48
0.5
370
    30
100
AcDbLine
 10
6231.380980345864
 20
-4108.850841878257
 30
0.0
 11
6236.380980345864
 21
-4108.850841878257
 31
0.0
  0
LINE
  5
4C25F
330
1F
100
AcDbEntity
  8
AM_7
  6
中心線1
 48
0.3
370
    13
100
AcDbLine
 10
6200.727133345864
 20
-4186.010480435386
 30
0.0
 11
6200.727133345864
 21
-4193.210480435385
 31
0.0
  0
LINE
  5
4C260
330
1F
100
AcDbEntity
  8
AM_0
  6
中線
 48
0.5
370
    30
100
AcDbLine
 10
6194.727133345864
 20
-4193.610480435387
 30
0.0
 11
6194.727133345864
 21
-4185.610480435386
 31
0.0
  0
LINE
  5
4C261
330
1F
100
AcDbEntity
  8
AM_0
  6
中線
 48
0.5
370
    30
100
AcDbLine
 10
6229.727133345864
 20
-4096.350841878257
 30
0.0
 11
6229.727133345864
 21
-4097.350841878256
 31
0.0
  0
LINE
  5
4C262
330
1F
100
AcDbEntity
  8
AM_0
  6
中線
 48
0.5
370
    30
100
AcDbLine
 10
6229.727133345864
 20
-4097.350841878256
 30
0.0
 11
6236.380980345864
 21
-4097.350841878256
 31
0.0
  0
LINE
  5
4C263
330
1F
100
AcDbEntity
  8
AM_0
  6
中線
 48
0.5
370
    30
100
AcDbLine
 10
6236.380980345864
 20
-4097.350841878256
 30
0.0
 11
6236.380980345864
 21
-4098.850841878256
 31
0.0
  0
LINE
  5
4C264
330
1F
100
AcDbEntity
  8
AM_0
  6
中線
 48
0.5
370
    30
100
AcDbLine
 10
6236.380980345864
 20
-4108.850841878257
 30
0.0
 11
6236.380980345864
 21
-4110.350841878257
 31
0.0
  0
LINE
  5
4C265
330
1F
100
AcDbEntity
  8
AM_0
  6
中線
 48
0.5
370
    30
100
AcDbLine
 10
6236.380980345864
 20
-4110.350841878257
 30
0.0
 11
6229.727133345864
 21
-4110.350841878257
 31
0.0
  0
LINE
  5
4C266
330
1F
100
AcDbEntity
  8
AM_0
  6
中線
 48
0.5
370
    30
100
AcDbLine
 10
6229.727133345864
 20
-4110.350841878257
 30
0.0
 11
6229.727133345864
 21
-4111.350841878256
 31
0.0
  0
LINE
  5
4C267
330
1F
100
AcDbEntity
  8
AM_0
  6
中線
 48
0.5
370
    30
100
AcDbLine
 10
6262.727133345864
 20
-4099.799671878256
 30
0.0
 11
6262.727133345864
 21
-4107.902011878256
 31
0.0
  0
ARC
  5
4C268
330
1F
100
AcDbEntity
  8
AM_0
  6
中線
 48
0.5
370
    30
100
AcDbCircle
 10
6260.727133345864
 20
-4099.799671878256
 30
0.0
 40
2.0
100
AcDbArc
 50
0.0
 51
74.62776399998491
  0
ARC
  5
4C269
330
1F
100
AcDbEntity
  8
AM_0
  6
中線
 48
0.5
370
    30
100
AcDbCircle
 10
6260.727133345864
 20
-4107.902011878256
 30
0.0
 40
2.0
100
AcDbArc
 50
285.372236000015
 51
0.0
  0
ARC
  5
4C26A
330
1F
100
AcDbEntity
  8
AM_0
  6
中線
 48
0.5
370
    30
100
AcDbCircle
 10
6261.001854345864
 20
-4099.875198878256
 30
0.0
 40
2.0
100
AcDbArc
 50
0.0
 51
74.62776399998491
  0
ARC
  5
4C26B
330
1F
100
AcDbEntity
  8
AM_0
  6
中線
 48
0.5
370
    30
100
AcDbCircle
 10
6261.001854345864
 20
-4107.826483878255
 30
0.0
 40
2.0
100
AcDbArc
 50
285.372236000015
 51
0.0
  0
LINE
  5
4C26D
330
1F
100
AcDbEntity
  8
AM_7
  6
中心線1
 48
0.3
370
    13
100
AcDbLine
 10
6210.727133345864
 20
-4186.010480435386
 30
0.0
 11
6210.727133345864
 21
-4193.210480435385
 31
0.0
  0
LINE
  5
4C26E
330
1F
100
AcDbEntity
  8
AM_0
  6
中線
 48
0.5
370
    30
100
AcDbLine
 10
6219.727133345863
 20
-4195.610480435386
 30
0.0
 11
6196.727133345864
 21
-4195.610480435386
 31
0.0
  0
LINE
  5
4C26F
330
1F
100
AcDbEntity
  8
AM_0
  6
中線
 48
0.5
370
    30
100
AcDbLine
 10
6219.727133345863
 20
-4183.610480435386
 30
0.0
 11
6219.727133345863
 21
-4195.610480435386
 31
0.0
  0
LINE
  5
4C270
330
1F
100
AcDbEntity
  8
AM_0
  6
中線
 48
0.5
370
    30
100
AcDbLine
 10
6196.727133345864
 20
-4183.610480435386
 30
0.0
 11
6219.727133345863
 21
-4183.610480435386
 31
0.0
  0
LINE
  5
4C271
330
1F
100
AcDbEntity
  8
AM_0
  6
中線
 48
0.5
370
    30
100
AcDbLine
 10
6229.727133345864
 20
-4183.360480435386
 30
0.0
 11
6229.727133345864
 21
-4195.860480435386
 31
0.0
  0
LINE
  5
4C272
330
1F
100
AcDbEntity
  8
AM_0
  6
中線
 48
0.5
370
    30
100
AcDbLine
 10
6231.727133345864
 20
-4197.110480435386
 30
0.0
 11
6231.727133345864
 21
-4197.810480435386
 31
0.0
  0
LINE
  5
4C273
330
1F
100
AcDbEntity
  8
AM_7
  6
中心線1
 48
0.5
370
    13
100
AcDbLine
 10
6191.727133345864
 20
-4189.610480435386
 30
0.0
 11
6266.001854345865
 21
-4189.610480435386
 31
0.0
  0
ARC
  5
4C274
330
1F
100
AcDbEntity
  8
AM_0
  6
中線
 48
0.5
370
    30
100
AcDbCircle
 10
6224.250430345865
 20
-4110.350841878257
 30
0.0
 40
2.0
100
AcDbArc
 50
247.7065570000118
 51
270.0
  0
ARC
  5
4C275
330
1F
100
AcDbEntity
  8
AM_0
  6
中線
 48
0.5
370
    30
100
AcDbCircle
 10
6224.250430345865
 20
-4097.350841878256
 30
0.0
 40
2.0
100
AcDbArc
 50
90.0
 51
112.2934429999882
  0
ARC
  5
4C276
330
1F
100
AcDbEntity
  8
AM_0
  6
中線
 48
0.5
370
    30
100
AcDbCircle
 10
6219.175297345864
 20
-4098.350841878256
 30
0.0
 40
3.0
100
AcDbArc
 50
112.2934429999882
 51
180.0
  0
LINE
  5
4C277
330
1F
100
AcDbEntity
  8
AM_0
  6
中線
 48
0.5
370
    30
100
AcDbLine
 10
6224.250430345865
 20
-4114.350841878256
 30
0.0
 11
6241.227133345864
 21
-4114.350841878256
 31
0.0
  0
LINE
  5
4C278
330
1F
100
AcDbEntity
  8
AM_0
  6
中線
 48
0.5
370
    30
100
AcDbLine
 10
6218.037246345865
 20
-4095.575081878256
 30
0.0
 11
6222.733029345864
 21
-4093.649828878256
 31
0.0
  0
LINE
  5
4C279
330
1F
100
AcDbEntity
  8
AM_0
  6
中線
 48
0.5
370
    30
100
AcDbLine
 10
6255.727133345864
 20
-4191.610480435386
 30
0.0
 11
6255.727133345864
 21
-4187.610480435386
 31
0.0
  0
LINE
  5
4C27A
330
1F
100
AcDbEntity
  8
AM_0
  6
中線
 48
0.5
370
    30
100
AcDbLine
 10
6224.250430345865
 20
-4093.350841878256
 30
0.0
 11
6241.227133345864
 21
-4093.350841878256
 31
0.0
  0
LINE
  5
4C27B
330
1F
100
AcDbEntity
  8
AM_0
  6
中線
 48
0.5
370
    30
100
AcDbLine
 10
6218.037246345865
 20
-4112.126600878257
 30
0.0
 11
6222.733029345864
 21
-4114.051853878256
 31
0.0
  0
ARC
  5
4C27C
330
1F
100
AcDbEntity
  8
AM_0
  6
中線
 48
0.5
370
    30
100
AcDbCircle
 10
6219.175297345864
 20
-4109.350841878256
 30
0.0
 40
3.0
100
AcDbArc
 50
180.0
 51
247.7065570000118
  0
ARC
  5
4C27D
330
1F
100
AcDbEntity
  8
AM_0
  6
中線
 48
0.5
370
    30
100
AcDbCircle
 10
6241.227133345864
 20
-4096.850841878256
 30
0.0
 40
3.5
100
AcDbArc
 50
8.213210701737303
 51
90.0
  0
LINE
  5
4C27E
330
1F
100
AcDbEntity
  8
AM_0
  6
中線
 48
0.5
370
    30
100
AcDbLine
 10
6244.727133345864
 20
-4194.610480435386
 30
0.0
 11
6244.727133345864
 21
-4196.110480435386
 31
0.0
  0
LINE
  5
4C27F
330
1F
100
AcDbEntity
  8
AM_0
  6
中線
 48
0.5
370
    30
100
AcDbLine
 10
6244.727133345864
 20
-4183.110480435386
 30
0.0
 11
6244.727133345864
 21
-4184.610480435386
 31
0.0
  0
LINE
  5
4C280
330
1F
100
AcDbEntity
  8
AM_0
  6
中線
 48
0.5
370
    30
100
AcDbLine
 10
6241.227133345864
 20
-4095.350841878256
 30
0.0
 11
6224.250430345865
 21
-4095.350841878256
 31
0.0
  0
LINE
  5
4C281
330
1F
100
AcDbEntity
  8
AM_0
  6
中線
 48
0.5
370
    30
100
AcDbLine
 10
6223.491730345864
 20
-4095.500334878257
 30
0.0
 11
6218.795947345864
 21
-4097.425588878256
 31
0.0
  0
ARC
  5
4C283
330
1F
100
AcDbEntity
  8
AM_0
  6
中線
 48
0.5
370
    30
100
AcDbCircle
 10
6219.175297345864
 20
-4098.350841878256
 30
0.0
 40
1.0
100
AcDbArc
 50
112.2934429999882
 51
149.9999999999897
  0
ARC
  5
4C284
330
1F
100
AcDbEntity
  8
AM_0
  6
中線
 48
0.5
370
    30
100
AcDbCircle
 10
6241.227133345864
 20
-4096.850841878256
 30
0.0
 40
1.5
100
AcDbArc
 50
19.47122063448765
 51
90.0
  0
ARC
  5
4C285
330
1F
100
AcDbEntity
  8
AM_0
  6
中線
 48
0.5
370
    30
100
AcDbCircle
 10
6224.250430345865
 20
-4097.350841878256
 30
0.0
 40
4.0
100
AcDbArc
 50
90.0
 51
112.2934429999882
  0
LINE
  5
4C286
330
1F
100
AcDbEntity
  8
AM_0
  6
中線
 48
0.5
370
    30
100
AcDbLine
 10
6217.727133345864
 20
-4097.850841878257
 30
0.0
 11
6219.727133345863
 21
-4097.850841878257
 31
0.0
  0
ARC
  5
4C287
330
1F
100
AcDbEntity
  8
AM_0
  6
中線
 48
0.5
370
    30
100
AcDbCircle
 10
6241.227133345864
 20
-4110.850841878257
 30
0.0
 40
3.5
100
AcDbArc
 50
270.0
 51
351.7867892982627
  0
LINE
  5
4C288
330
1F
100
AcDbEntity
  8
AM_0
  6
中線
 48
0.5
370
    30
100
AcDbLine
 10
6241.227133345864
 20
-4112.350841878257
 30
0.0
 11
6224.250430345865
 21
-4112.350841878257
 31
0.0
  0
LINE
  5
4C289
330
1F
100
AcDbEntity
  8
AM_0
  6
中線
 48
0.5
370
    30
100
AcDbLine
 10
6223.491730345864
 20
-4112.201347878256
 30
0.0
 11
6218.795947345864
 21
-4110.276094878256
 31
0.0
  0
LINE
  5
4C28A
330
1F
100
AcDbEntity
  8
AM_0
  6
中線
 48
0.5
370
    30
100
AcDbLine
 10
6216.175297345863
 20
-4109.112509437125
 30
0.0
 11
6216.175297345865
 21
-4109.350841878256
 31
0.0
  0
ARC
  5
4C28B
330
1F
100
AcDbEntity
  8
AM_0
  6
中線
 48
0.5
370
    30
100
AcDbCircle
 10
6219.175297345864
 20
-4109.350841878256
 30
0.0
 40
1.0
100
AcDbArc
 50
210.0000000000103
 51
247.7065570000118
  0
ARC
  5
4C28C
330
1F
100
AcDbEntity
  8
AM_0
  6
中線
 48
0.5
370
    30
100
AcDbCircle
 10
6241.227133345864
 20
-4110.850841878257
 30
0.0
 40
1.5
100
AcDbArc
 50
270.0
 51
340.5287793655124
  0
ARC
  5
4C28D
330
1F
100
AcDbEntity
  8
AM_0
  6
中線
 48
0.5
370
    30
100
AcDbCircle
 10
6224.250430345865
 20
-4110.350841878257
 30
0.0
 40
4.0
100
AcDbArc
 50
247.7065570000118
 51
270.0
  0
LINE
  5
4C28E
330
1F
100
AcDbEntity
  8
AM_0
  6
中線
 48
0.5
370
    30
100
AcDbLine
 10
6216.217257454315
 20
-4109.850841878256
 30
0.0
 11
6196.727133345864
 21
-4109.850841878256
 31
0.0
  0
LINE
  5
4C290
330
1F
100
AcDbEntity
  8
AM_0
  6
中線
 48
0.5
370
    30
100
AcDbLine
 10
6242.727133345864
 20
-4184.610480435386
 30
0.0
 11
6242.727133345864
 21
-4183.110480435386
 31
0.0
  0
LINE
  5
4C291
330
1F
100
AcDbEntity
  8
AM_7
  6
中心線1
 48
0.3
370
    13
100
AcDbLine
 10
6250.727133345864
 20
-4186.010480435386
 30
0.0
 11
6250.727133345864
 21
-4193.210480435385
 31
0.0
  0
LINE
  5
4C292
330
1F
100
AcDbEntity
  8
AM_0
  6
中線
 48
0.5
370
    30
100
AcDbLine
 10
6219.727133345863
 20
-4183.610480435386
 30
0.0
 11
6219.727133345863
 21
-4195.610480435386
 31
0.0
  0
LINE
  5
4C293
330
1F
100
AcDbEntity
  8
AM_7
  6
中心線1
 48
0.3
370
    13
100
AcDbLine
 10
6240.727133345863
 20
-4186.010480435386
 30
0.0
 11
6240.727133345863
 21
-4193.210480435385
 31
0.0
  0
LINE
  5
4C294
330
1F
100
AcDbEntity
  8
AM_0
  6
中線
 48
0.5
370
    30
100
AcDbLine
 10
6242.727133345864
 20
-4196.110480435386
 30
0.0
 11
6242.727133345864
 21
-4194.610480435386
 31
0.0
  0
LINE
  5
4C295
330
1F
100
AcDbEntity
  8
AM_0
  6
中線
 48
0.5
370
    30
100
AcDbLine
 10
6229.727133345864
 20
-4182.110480435386
 30
0.0
 11
6255.727133345864
 21
-4182.110480435386
 31
0.0
  0
LINE
  5
4C296
330
1F
100
AcDbEntity
  8
AM_0
  6
中線
 48
0.5
370
    30
100
AcDbLine
 10
6255.727133345864
 20
-4182.110480435386
 30
0.0
 11
6261.532032345864
 21
-4183.706390435386
 31
0.0
  0
LINE
  5
4C297
330
1F
100
AcDbEntity
  8
AM_0
  6
中線
 48
0.5
370
    30
100
AcDbLine
 10
6263.001854345865
 20
-4185.634838435386
 30
0.0
 11
6263.001854345865
 21
-4193.586123435386
 31
0.0
  0
LINE
  5
4C298
330
1F
100
AcDbEntity
  8
AM_0
  6
中線
 48
0.5
370
    30
100
AcDbLine
 10
6261.532032345864
 20
-4195.514571435386
 30
0.0
 11
6255.727133345864
 21
-4197.110480435386
 31
0.0
  0
LINE
  5
4C299
330
1F
100
AcDbEntity
  8
AM_0
  6
中線
 48
0.5
370
    30
100
AcDbLine
 10
6255.727133345864
 20
-4197.110480435386
 30
0.0
 11
6229.727133345864
 21
-4197.110480435386
 31
0.0
  0
LINE
  5
4C29A
330
1F
100
AcDbEntity
  8
AM_0
  6
中線
 48
0.5
370
    30
100
AcDbLine
 10
6229.727133345864
 20
-4182.110480435386
 30
0.0
 11
6229.727133345864
 21
-4183.110480435386
 31
0.0
  0
LINE
  5
4C29B
330
1F
100
AcDbEntity
  8
AM_0
  6
中線
 48
0.5
370
    30
100
AcDbLine
 10
6229.727133345864
 20
-4196.110480435386
 30
0.0
 11
6229.727133345864
 21
-4197.110480435386
 31
0.0
  0
ARC
  5
4C29F
330
1F
100
AcDbEntity
  8
AM_0
  6
中線
 48
0.5
370
    30
100
AcDbCircle
 10
6261.001854345864
 20
-4185.634838435386
 30
0.0
 40
2.0
100
AcDbArc
 50
0.0
 51
74.62776399998491
  0
ARC
  5
4C2A0
330
1F
100
AcDbEntity
  8
AM_0
  6
中線
 48
0.5
370
    30
100
AcDbCircle
 10
6261.001854345864
 20
-4193.586123435386
 30
0.0
 40
2.0
100
AcDbArc
 50
285.372236000015
 51
0.0
  0
ARC
  5
4C2B9
330
1F
100
AcDbEntity
  8
AM_0
  6
中線
 48
0.5
370
    30
100
AcDbCircle
 10
6196.727133345864
 20
-4193.610480435387
 30
0.0
 40
2.0
100
AcDbArc
 50
180.0
 51
270.0
  0
ARC
  5
4C2BA
330
1F
100
AcDbEntity
  8
AM_0
  6
中線
 48
0.5
370
    30
100
AcDbCircle
 10
6196.727133345864
 20
-4185.610480435386
 30
0.0
 40
2.0
100
AcDbArc
 50
90.0
 51
180.0
  0
LINE
  5
4C2BC
330
1F
100
AcDbEntity
  8
AM_0
  6
中線
 48
0.5
370
    30
100
AcDbLine
 10
6234.977133345864
 20
-4097.600841878256
 30
0.0
 11
6234.977133345864
 21
-4097.350841878256
 31
0.0
  0
LINE
  5
4C2BD
330
1F
100
AcDbEntity
  8
AM_0
  6
中線
 48
0.5
370
    30
100
AcDbLine
 10
6234.977133345864
 20
-4098.850841878256
 30
0.0
 11
6234.977133345864
 21
-4098.600841878257
 31
0.0
  0
LINE
  5
4C2BE
330
1F
100
AcDbEntity
  8
AM_0
  6
中線
 48
0.5
370
    30
100
AcDbLine
 10
6234.977133345864
 20
-4109.100841878256
 30
0.0
 11
6234.977133345864
 21
-4108.850841878257
 31
0.0
  0
LINE
  5
4C2BF
330
1F
100
AcDbEntity
  8
AM_0
  6
中線
 48
0.5
370
    30
100
AcDbLine
 10
6234.977133345864
 20
-4110.350841878257
 30
0.0
 11
6234.977133345864
 21
-4110.100841878256
 31
0.0
  0
LINE
  5
4C2C0
330
1F
100
AcDbEntity
  8
AM_0
  6
中線
 48
0.5
370
    30
100
AcDbLine
 10
6232.477133345864
 20
-4110.100841878256
 30
0.0
 11
6232.477133345864
 21
-4110.350841878257
 31
0.0
  0
LINE
  5
4C2C1
330
1F
100
AcDbEntity
  8
AM_0
  6
中線
 48
0.5
370
    30
100
AcDbLine
 10
6232.477133345864
 20
-4108.850841878257
 30
0.0
 11
6232.477133345864
 21
-4109.100841878256
 31
0.0
  0
LINE
  5
4C2C2
330
1F
100
AcDbEntity
  8
AM_0
  6
中線
 48
0.5
370
    30
100
AcDbLine
 10
6232.477133345864
 20
-4098.600841878257
 30
0.0
 11
6232.477133345864
 21
-4098.850841878256
 31
0.0
  0
LINE
  5
4C2C3
330
1F
100
AcDbEntity
  8
AM_0
  6
中線
 48
0.5
370
    30
100
AcDbLine
 10
6232.477133345864
 20
-4097.350841878256
 30
0.0
 11
6232.477133345864
 21
-4097.600841878256
 31
0.0
  0
ARC
  5
4C2C4
330
1F
100
AcDbEntity
  8
AM_0
  6
中線
 48
0.5
370
    30
100
AcDbCircle
 10
6233.727133345864
 20
-4108.538341878257
 30
0.0
 40
3.3125
100
AcDbArc
 50
238.1092079999922
 51
301.8907920000077
  0
LINE
  5
4C2C5
330
1F
100
AcDbEntity
  8
AM_0
  6
中線
 48
0.5
370
    30
100
AcDbLine
 10
6231.727133345864
 20
-4197.810480435386
 30
0.0
 11
6235.727133345864
 21
-4197.810480435386
 31
0.0
  0
LINE
  5
4C2C6
330
1F
100
AcDbEntity
  8
AM_0
  6
中線
 48
0.5
370
    30
100
AcDbLine
 10
6235.727133345864
 20
-4197.810480435386
 30
0.0
 11
6235.727133345864
 21
-4197.110480435386
 31
0.0
  0
LINE
  5
4C2C7
330
1F
100
AcDbEntity
  8
AM_0
  6
中線
 48
0.5
370
    30
100
AcDbLine
 10
6235.727133345864
 20
-4095.650841878256
 30
0.0
 11
6235.727133345864
 21
-4096.350841878257
 31
0.0
  0
LINE
  5
4C2C8
330
1F
100
AcDbEntity
  8
AM_0
  6
中線
 48
0.5
370
    30
100
AcDbLine
 10
6231.727133345864
 20
-4095.650841878256
 30
0.0
 11
6235.727133345864
 21
-4095.650841878256
 31
0.0
  0
LINE
  5
4C2C9
330
1F
100
AcDbEntity
  8
AM_0
  6
中線
 48
0.5
370
    30
100
AcDbLine
 10
6231.727133345864
 20
-4096.350841878257
 30
0.0
 11
6231.727133345864
 21
-4095.650841878256
 31
0.0
  0
ARC
  5
4C2CA
330
1F
100
AcDbEntity
  8
AM_0
  6
中線
 48
0.5
370
    30
100
AcDbCircle
 10
6233.727133345864
 20
-4184.922980435386
 30
0.0
 40
3.3125
100
AcDbArc
 50
58.10920799999214
 51
121.8907920000078
  0
LINE
  5
4C2CB
330
1F
100
AcDbEntity
  8
AM_0
  6
中線
 48
0.5
370
    30
100
AcDbLine
 10
6232.477133345864
 20
-4196.110480435386
 30
0.0
 11
6232.477133345864
 21
-4195.860480435386
 31
0.0
  0
LINE
  5
4C2CE
330
1F
100
AcDbEntity
  8
AM_0
  6
中線
 48
0.5
370
    30
100
AcDbLine
 10
6232.477133345864
 20
-4183.360480435386
 30
0.0
 11
6232.477133345864
 21
-4183.110480435386
 31
0.0
  0
LINE
  5
4C2CF
330
1F
100
AcDbEntity
  8
AM_0
  6
中線
 48
0.5
370
    30
100
AcDbLine
 10
6234.977133345864
 20
-4183.110480435386
 30
0.0
 11
6234.977133345864
 21
-4183.360480435386
 31
0.0
  0
ARC
  5
4C2D1
330
1F
100
AcDbEntity
  8
AM_0
  6
中線
 48
0.5
370
    30
100
AcDbCircle
 10
6252.727133345864
 20
-4187.610480435386
 30
0.0
 40
3.0
100
AcDbArc
 50
0.0
 51
90.0
  0
ARC
  5
4C2D2
330
1F
100
AcDbEntity
  8
AM_0
  6
中線
 48
0.5
370
    30
100
AcDbCircle
 10
6252.727133345864
 20
-4191.610480435386
 30
0.0
 40
3.0
100
AcDbArc
 50
270.0
 51
0.0
  0
LINE
  5
4C2D3
330
1F
100
AcDbEntity
  8
AM_0
  6
中線
 48
0.5
370
    30
100
AcDbLine
 10
6239.550997345864
 20
-4183.360480435386
 30
0.0
 11
6229.727133345864
 21
-4183.360480435386
 31
0.0
  0
LINE
  5
4C2D4
330
1F
100
AcDbEntity
  8
AM_0
  6
中線
 48
0.5
370
    30
100
AcDbLine
 10
6239.550997345864
 20
-4183.610480435386
 30
0.0
 11
6239.550997345864
 21
-4183.360480435386
 31
0.0
  0
LINE
  5
4C2D5
330
1F
100
AcDbEntity
  8
AM_0
  6
中線
 48
0.5
370
    30
100
AcDbLine
 10
6252.727133345864
 20
-4184.610480435386
 30
0.0
 11
6240.550997345864
 21
-4184.610480435386
 31
0.0
  0
LINE
  5
4C2D6
330
1F
100
AcDbEntity
  8
AM_0
  6
中線
 48
0.5
370
    30
100
AcDbLine
 10
6240.550997345864
 20
-4194.610480435386
 30
0.0
 11
6252.727133345864
 21
-4194.610480435386
 31
0.0
  0
LINE
  5
4C2D7
330
1F
100
AcDbEntity
  8
AM_0
  6
中線
 48
0.5
370
    30
100
AcDbLine
 10
6239.550997345864
 20
-4195.860480435386
 30
0.0
 11
6239.550997345864
 21
-4195.610480435386
 31
0.0
  0
CIRCLE
  5
4C2D8
330
1F
100
AcDbEntity
  8
AM_0
  6
中線
 48
0.5
370
    30
100
AcDbCircle
 10
6240.727133345863
 20
-4189.610480435386
 30
0.0
 40
1.7
  0
CIRCLE
  5
4C2D9
330
1F
100
AcDbEntity
  8
AM_0
  6
中線
 48
0.5
370
    30
100
AcDbCircle
 10
6250.727133345864
 20
-4189.610480435386
 30
0.0
 40
1.7
  0
LINE
  5
4C2DA
330
1F
100
AcDbEntity
  8
AM_0
  6
中線
 48
0.5
370
    30
100
AcDbLine
 10
6255.727133345864
 20
-4196.110480435386
 30
0.0
 11
6255.727133345864
 21
-4197.110480435386
 31
0.0
  0
LINE
  5
4C2DB
330
1F
100
AcDbEntity
  8
AM_0
  6
中線
 48
0.5
370
    30
100
AcDbLine
 10
6229.727133345864
 20
-4196.110480435386
 30
0.0
 11
6255.727133345864
 21
-4196.110480435386
 31
0.0
  0
LINE
  5
4C2DC
330
1F
100
AcDbEntity
  8
AM_0
  6
中線
 48
0.5
370
    30
100
AcDbLine
 10
6255.727133345864
 20
-4183.110480435386
 30
0.0
 11
6229.727133345864
 21
-4183.110480435386
 31
0.0
  0
LINE
  5
4C2DD
330
1F
100
AcDbEntity
  8
AM_0
  6
中線
 48
0.5
370
    30
100
AcDbLine
 10
6255.727133345864
 20
-4182.110480435386
 30
0.0
 11
6255.727133345864
 21
-4183.110480435386
 31
0.0
  0
LINE
  5
4C2DF
330
1F
100
AcDbEntity
  8
AM_0
  6
中線
 48
0.5
370
    30
100
AcDbLine
 10
6234.977133345864
 20
-4195.860480435386
 30
0.0
 11
6234.977133345864
 21
-4196.110480435386
 31
0.0
  0
ARC
  5
4C2E0
330
1F
100
AcDbEntity
  8
AM_0
  6
中線
 48
0.5
370
    30
100
AcDbCircle
 10
6240.550997345864
 20
-4183.610480435386
 30
0.0
 40
1.0
100
AcDbArc
 50
180.0
 51
270.0
  0
ARC
  5
4C2E1
330
1F
100
AcDbEntity
  8
AM_0
  6
中線
 48
0.5
370
    30
100
AcDbCircle
 10
6240.550997345864
 20
-4195.610480435386
 30
0.0
 40
1.0
100
AcDbArc
 50
90.0
 51
180.0
  0
LINE
  5
4C32E
330
1F
100
AcDbEntity
  8
AM_0
  6
中線
 48
0.5
370
    30
100
AcDbLine
 10
6231.380980345864
 20
-4098.850841878256
 30
0.0
 11
6231.380980345864
 21
-4108.850841878257
 31
0.0
  0
LINE
  5
4C32F
330
1F
100
AcDbEntity
  8
AM_0
  6
中線
 48
0.5
370
    30
100
AcDbLine
 10
6255.727133345864
 20
-4151.403787728213
 30
0.0
 11
6239.227133345863
 21
-4151.403787728213
 31
0.0
  0
DIMENSION
  5
4C33E
330
1F
100
AcDbEntity
  8
AM_5
100
AcDbDimension
  2
*D7
 10
6263.001854345865
 20
-4084.850841878256
 30
0.0
 11
6246.364493845863
 21
-4084.850841878256
 31
0.0
 70
   160
  1
（<>）
 71
     5
 42
33.27472100000068
  3
SYS$0
100
AcDbAlignedDimension
 13
6229.727133345864
 23
-4096.350841878257
 33
0.0
 14
6263.001854345865
 24
-4099.875198878256
 34
0.0
100
AcDbRotatedDimension
1001
ACAD
1000
DSTYLE
1002
{
1070
   271
1070
     0
1002
}
  0
DIMENSION
  5
4C365
330
1F
100
AcDbEntity
  8
AM_5
100
AcDbDimension
  2
*D8
 10
6279.001854345864
 20
-4114.350841878256
 30
0.0
 11
6279.001854345865
 21
-4103.850841378256
 31
0.0
 70
   160
  1
（<>）
 71
     5
 42
20.99999999999955
  3
SYS$0
100
AcDbAlignedDimension
 13
6241.227133345864
 23
-4093.350841878256
 33
0.0
 14
6241.227133345864
 24
-4114.350841878256
 34
0.0
 50
90.0
100
AcDbRotatedDimension
  0
DIMENSION
  5
4C38C
330
1F
100
AcDbEntity
  8
AM_5
100
AcDbDimension
  2
*D9
 10
6271.001854345864
 20
-4096.350841878257
 30
0.0
 11
6271.001854345865
 21
-4103.850841878257
 31
0.0
 70
   160
 71
     5
 42
15.0
  3
SYS$0
100
AcDbAlignedDimension
 13
6255.727133345864
 23
-4111.350841878256
 33
0.0
 14
6255.727133345864
 24
-4096.350841878257
 34
0.0
 50
90.0
100
AcDbRotatedDimension
  0
DIMENSION
  5
4C3A2
330
1F
100
AcDbEntity
  8
AM_5
100
AcDbDimension
  2
*D10
 10
6194.727133345864
 20
-4084.850841878256
 30
0.0
 11
6207.227133345863
 21
-4084.850841878256
 31
0.0
 70
   160
  1
（<>）
 71
     5
 42
25.0
  3
SYS$0
100
AcDbAlignedDimension
 13
6219.727133345863
 23
-4097.850841878257
 33
0.0
 14
6194.727133345864
 24
-4099.850841878256
 34
0.0
100
AcDbRotatedDimension
  0
DIMENSION
  5
4C3C9
330
1F
100
AcDbEntity
  8
AM_5
100
AcDbDimension
  2
*D11
 10
6186.727133345863
 20
-4097.850841878257
 30
0.0
 11
6186.727133345864
 21
-4103.850841878257
 31
0.0
 70
   160
 71
     5
 42
12.0
  3
SYS$0
100
AcDbAlignedDimension
 13
6196.727133345864
 23
-4109.850841878256
 33
0.0
 14
6196.727133345864
 24
-4097.850841878257
 34
0.0
 50
90.0
100
AcDbRotatedDimension
  0
DIMENSION
  5
4C3DF
330
1F
100
AcDbEntity
  8
AM_5
100
AcDbDimension
  2
*D12
 10
6225.433233406011
 20
-4112.350841878257
 30
0.0
 11
6225.433233406013
 21
-4119.110841878256
 31
0.0
 70
   160
  1
%%c<>
 71
     5
 42
2.0
  3
SYS$0
100
AcDbAlignedDimension
 13
6224.250430345865
 23
-4114.350841878256
 33
0.0
 14
6226.250430345865
 24
-4112.350841878257
 34
0.0
 50
90.0
100
AcDbRotatedDimension
  0
DIMENSION
  5
4C40F
330
1F
100
AcDbEntity
  8
AM_5
100
AcDbDimension
  2
*D13
 10
6271.001854345865
 20
-4142.403787728214
 30
0.0
 11
6271.001854345866
 21
-4147.403787728211
 31
0.0
 70
   160
  1
（<>）
 71
     5
 42
10.0
  3
SYS$0
100
AcDbAlignedDimension
 13
6255.727133345864
 23
-4152.403787728213
 33
0.0
 14
6236.380980345864
 24
-4142.403787728214
 34
0.0
 50
90.0
100
AcDbRotatedDimension
  0
DIMENSION
  5
4C436
330
1F
100
AcDbEntity
  8
AM_5
100
AcDbDimension
  2
*D14
 10
6263.001854345864
 20
-4151.403787728213
 30
0.0
 11
6263.001854345865
 21
-4155.670454394878
 31
0.0
 70
   160
 71
     5
  3
SYS$0
100
AcDbAlignedDimension
 13
6255.727133345864
 23
-4152.403787728213
 33
0.0
 14
6255.727133345864
 24
-4151.403787728213
 34
0.0
 50
90.0
100
AcDbRotatedDimension
  0
DIMENSION
  5
4C45B
330
1F
100
AcDbEntity
  8
AM_5
100
AcDbDimension
  2
*D15
 10
6178.727133345863
 20
-4146.903787728213
 30
0.0
 11
6178.727133345864
 21
-4156.750454394877
 31
0.0
 70
   160
  1
<>
 71
     5
 42
5.5
  3
SYS$0
100
AcDbAlignedDimension
 13
6194.727133345864
 23
-4152.403787728213
 33
0.0
 14
6215.727133345864
 24
-4146.903787728213
 34
0.0
 50
90.0
100
AcDbRotatedDimension
  0
DIMENSION
  5
4C485
330
1F
100
AcDbEntity
  8
AM_5
100
AcDbDimension
  2
*D16
 10
6186.727133345863
 20
-4151.403787728213
 30
0.0
 11
6186.727133345864
 21
-4155.670454394878
 31
0.0
 70
   160
 71
     5
  3
SYS$0
100
AcDbAlignedDimension
 13
6194.727133345864
 23
-4152.403787728213
 33
0.0
 14
6194.727133345864
 24
-4151.403787728213
 34
0.0
 50
90.0
100
AcDbRotatedDimension
  0
DIMENSION
  5
4C4B4
330
1F
100
AcDbEntity
  8
AM_5
100
AcDbDimension
  2
*D17
 10
6250.727133345864
 20
-4208.610480435386
 30
0.0
 11
6245.727133345864
 21
-4208.610480435386
 31
0.0
 70
   160
 71
     5
 42
10.0
  3
SYS$0
100
AcDbAlignedDimension
 13
6240.727133345863
 23
-4193.210480435385
 33
0.0
 14
6250.727133345864
 24
-4193.210480435385
 34
0.0
100
AcDbRotatedDimension
  0
DIMENSION
  5
4C4CA
330
1F
100
AcDbEntity
  8
AM_5
100
AcDbDimension
  2
*D18
 10
6229.727133345864
 20
-4208.610480435386
 30
0.0
 11
6235.227133345864
 21
-4208.610480435386
 31
0.0
 70
   160
 71
     5
 42
11.0
  3
SYS$0
100
AcDbAlignedDimension
 13
6240.727133345863
 23
-4193.210480435385
 33
0.0
 14
6229.727133345864
 24
-4197.110480435386
 34
0.0
100
AcDbRotatedDimension
  0
DIMENSION
  5
4C531
330
1F
100
AcDbEntity
  8
AM_5
100
AcDbDimension
  2
*D19
 10
6249.68115187944
 20
-4188.270360003522
 30
0.0
 11
6267.179908186452
 21
-4201.892284500089
 31
0.0
 70
   163
  1
2-<>
 71
     5
 42
3.399999999999636
  3
SYS$3
100
AcDbDiametricDimension
 15
6251.773114812287
 25
-4190.950600867249
 35
0.0
 40
0.0
1001
ACAD
1000
DSTYLE
1002
{
1070
    41
1040
1.0
1070
   172
1070
     1
1070
   342
1005
6C4
1002
}
  0
DIMENSION
  5
4C55C
330
1F
100
AcDbEntity
  8
AM_5
100
AcDbDimension
  2
*D20
 10
6201.652658233737
 20
-4188.184505792577
 30
0.0
 11
6185.888995806838
 21
-4201.892284500088
 31
0.0
 70
   163
  1
2-<>
 71
     5
 42
3.400000000000545
  3
SYS$3
100
AcDbDiametricDimension
 15
6199.801608457992
 25
-4191.036455078193
 35
0.0
 40
0.0
1001
ACAD
1000
DSTYLE
1002
{
1070
    41
1040
1.0
1070
   172
1070
     1
1070
   342
1005
6C4
1002
}
  0
DIMENSION
  5
4C59A
330
1F
100
AcDbEntity
  8
AM_5
100
AcDbDimension
  2
*D21
 10
6210.727133345864
 20
-4170.610480435386
 30
0.0
 11
6225.727133345864
 21
-4170.610480435386
 31
0.0
 70
   160
  1
（<>）
 71
     5
 42
30.0
  3
SYS$0
100
AcDbAlignedDimension
 13
6240.727133345863
 23
-4186.010480435386
 33
0.0
 14
6210.727133345864
 24
-4186.010480435386
 34
0.0
100
AcDbRotatedDimension
  0
DIMENSION
  5
4C5C2
330
1F
100
AcDbEntity
  8
AM_5
100
AcDbDimension
  2
*D22
 10
6210.727133345864
 20
-4208.610480435386
 30
0.0
 11
6215.227133345865
 21
-4208.610480435386
 31
0.0
 70
   160
  1
（<>）
 71
     5
 42
9.0
  3
SYS$0
100
AcDbAlignedDimension
 13
6219.727133345863
 23
-4195.610480435386
 33
0.0
 14
6210.727133345864
 24
-4193.210480435385
 34
0.0
100
AcDbRotatedDimension
  0
DIMENSION
  5
4C5E9
330
1F
100
AcDbEntity
  8
AM_5
100
AcDbDimension
  2
*D23
 10
6200.727133345864
 20
-4208.610480435386
 30
0.0
 11
6205.727133345863
 21
-4208.610480435386
 31
0.0
 70
   160
 71
     5
 42
10.0
  3
SYS$0
100
AcDbAlignedDimension
 13
6210.727133345864
 23
-4193.210480435385
 33
0.0
 14
6200.727133345864
 24
-4193.210480435385
 34
0.0
100
AcDbRotatedDimension
  0
TEXT
  5
4E0E8
330
1F
100
AcDbEntity
  8
AM_6
 60
     1
100
AcDbText
 10
5957.394900433246
 20
-5651.939004350452
 30
0.0
 40
2.5
  1
!GENTITLE-INSERT
100
AcDbText
  0
TEXT
  5
4E0E9
330
1F
100
AcDbEntity
  8
AM_6
 60
     1
100
AcDbText
 10
5548.894900433246
 20
-5660.439004350451
 30
0.0
 40
2.5
  1
!GENTITLE-LL
100
AcDbText
  0
TEXT
  5
4E0EA
330
1F
100
AcDbEntity
  8
AM_6
 60
     1
100
AcDbText
 10
5968.894900433246
 20
-5363.439004350452
 30
0.0
 40
2.5
  1
!GENTITLE-RU
100
AcDbText
  0
TEXT
  5
4E0EB
330
1F
100
AcDbEntity
  8
AM_6
 60
     1
100
AcDbText
 10
5968.894900433246
 20
-5363.439004350452
 30
0.0
 40
2.5
  1
!GENTITLE-MAX
100
AcDbText
  0
TEXT
  5
4E0F3
330
1F
100
AcDbEntity
  8
AM_6
 60
     1
100
AcDbText
 10
5548.894900433246
 20
-5660.439004350451
 30
0.0
 40
2.5
  1
!GENTITLE-LL
100
AcDbText
  0
TEXT
  5
4E0F4
330
1F
100
AcDbEntity
  8
AM_6
 60
     1
100
AcDbText
 10
5957.394900433246
 20
-5371.939004350451
 30
0.0
 40
2.5
  1
!GENTITLE-RU
100
AcDbText
  0
TEXT
  5
4E0F5
330
1F
100
AcDbEntity
  8
AM_6
 60
     1
100
AcDbText
 10
5968.894900433246
 20
-5363.439004350452
 30
0.0
 40
2.5
  1
!GENTITLE-MAX
100
AcDbText
  0
TEXT
  5
4E0F6
330
1F
100
AcDbEntity
  8
AM_6
 60
     1
100
AcDbText
 10
5957.394900433246
 20
-5651.939004350452
 30
0.0
 40
2.5
  1
!GENTITLE-INSERT
100
AcDbText
  0
TEXT
  5
5183F
330
1F
100
AcDbEntity
  8
AM_6
 60
     1
100
AcDbText
 10
5973.602012689372
 20
109.7385382224183
 30
0.0
 40
2.5
  1
!GENTITLE-INSERT
100
AcDbText
  0
TEXT
  5
51840
330
1F
100
AcDbEntity
  8
AM_6
 60
     1
100
AcDbText
 10
5565.102012689372
 20
101.2385382224183
 30
0.0
 40
2.5
  1
!GENTITLE-LL
100
AcDbText
  0
TEXT
  5
51841
330
1F
100
AcDbEntity
  8
AM_6
 60
     1
100
AcDbText
 10
5985.102012689372
 20
398.2385382224184
 30
0.0
 40
2.5
  1
!GENTITLE-RU
100
AcDbText
  0
TEXT
  5
51842
330
1F
100
AcDbEntity
  8
AM_6
 60
     1
100
AcDbText
 10
5985.102012689372
 20
398.2385382224184
 30
0.0
 40
2.5
  1
!GENTITLE-MAX
100
AcDbText
  0
TEXT
  5
5184A
330
1F
100
AcDbEntity
  8
AM_6
 60
     1
100
AcDbText
 10
5565.102012689372
 20
101.2385382224183
 30
0.0
 40
2.5
  1
!GENTITLE-LL
100
AcDbText
  0
TEXT
  5
5184B
330
1F
100
AcDbEntity
  8
AM_6
 60
     1
100
AcDbText
 10
5973.602012689372
 20
389.7385382224184
 30
0.0
 40
2.5
  1
!GENTITLE-RU
100
AcDbText
  0
TEXT
  5
5184C
330
1F
100
AcDbEntity
  8
AM_6
 60
     1
100
AcDbText
 10
5985.102012689372
 20
398.2385382224184
 30
0.0
 40
2.5
  1
!GENTITLE-MAX
100
AcDbText
  0
TEXT
  5
5184D
330
1F
100
AcDbEntity
  8
AM_6
 60
     1
100
AcDbText
 10
5973.602012689372
 20
109.7385382224183
 30
0.0
 40
2.5
  1
!GENTITLE-INSERT
100
AcDbText
  0
ARC
  5
5B2FB
330
1F
100
AcDbEntity
  8
AM_0
  6
中線
 48
0.5
370
    30
100
AcDbCircle
 10
6216.977133345864
 20
-4149.653787728214
 30
0.0
 40
2.75
100
AcDbArc
 50
270.0
 51
27.17837259332442
  0
ARC
  5
5B304
330
1F
100
AcDbEntity
  8
AM_0
  6
中線
 48
0.5
370
    30
100
AcDbCircle
 10
6216.977133345864
 20
-4149.653787728214
 30
0.0
 40
1.75
100
AcDbArc
 50
270.0
 51
13.99391152602827
  0
ARC
  5
5B322
330
1F
100
AcDbEntity
  8
AM_0
  6
中線
 48
0.5
370
    30
100
AcDbCircle
 10
6216.977133345864
 20
-4149.653787728214
 30
0.0
 40
1.75
100
AcDbArc
 50
83.70122823252316
 51
90.0
  0
ARC
  5
5B323
330
1F
100
AcDbEntity
  8
AM_0
  6
中線
 48
0.5
370
    30
100
AcDbCircle
 10
6216.977133345864
 20
-4149.653787728214
 30
0.0
 40
2.75
100
AcDbArc
 50
69.82707167582724
 51
90.0
  0
LINE
  5
5B324
330
1F
100
AcDbEntity
  8
AM_0
  6
中線
 48
0.5
370
    30
100
AcDbLine
 10
6216.175297345865
 20
-4098.350841878256
 30
0.0
 11
6216.175297345865
 21
-4098.589174319386
 31
0.0
  0
ARC
  5
5B354
330
1F
100
AcDbEntity
  8
AM_0
  6
中線
 48
0.5
370
    30
100
AcDbCircle
 10
6224.250430345864
 20
-4196.110480435386
 30
0.0
 40
2.0
100
AcDbArc
 50
247.7065570000116
 51
270.0
  0
ARC
  5
5B355
330
1F
100
AcDbEntity
  8
AM_0
  6
中線
 48
0.5
370
    30
100
AcDbCircle
 10
6224.250430345864
 20
-4183.110480435386
 30
0.0
 40
2.0
100
AcDbArc
 50
90.0
 51
112.2934429999883
  0
ARC
  5
5B356
330
1F
100
AcDbEntity
  8
AM_0
  6
中線
 48
0.5
370
    30
100
AcDbCircle
 10
6219.175297345863
 20
-4184.110480435386
 30
0.0
 40
3.0
100
AcDbArc
 50
112.2934429999883
 51
170.4059317731387
  0
LINE
  5
5B357
330
1F
100
AcDbEntity
  8
AM_0
  6
中線
 48
0.5
370
    30
100
AcDbLine
 10
6224.250430345864
 20
-4200.110480435387
 30
0.0
 11
6241.227133345863
 21
-4200.110480435387
 31
0.0
  0
LINE
  5
5B358
330
1F
100
AcDbEntity
  8
AM_0
  6
中線
 48
0.5
370
    30
100
AcDbLine
 10
6218.037246345864
 20
-4181.334720435386
 30
0.0
 11
6222.733029345863
 21
-4179.409467435386
 31
0.0
  0
LINE
  5
5B359
330
1F
100
AcDbEntity
  8
AM_0
  6
中線
 48
0.5
370
    30
100
AcDbLine
 10
6224.250430345864
 20
-4179.110480435386
 30
0.0
 11
6241.227133345863
 21
-4179.110480435386
 31
0.0
  0
LINE
  5
5B35A
330
1F
100
AcDbEntity
  8
AM_0
  6
中線
 48
0.5
370
    30
100
AcDbLine
 10
6218.037246345864
 20
-4197.886239435386
 30
0.0
 11
6222.733029345863
 21
-4199.811492435386
 31
0.0
  0
ARC
  5
5B35B
330
1F
100
AcDbEntity
  8
AM_0
  6
中線
 48
0.5
370
    30
100
AcDbCircle
 10
6219.175297345863
 20
-4195.110480435386
 30
0.0
 40
3.0
100
AcDbArc
 50
189.5940682268613
 51
247.7065570000116
  0
ARC
  5
5B35C
330
1F
100
AcDbEntity
  8
AM_0
  6
中線
 48
0.5
370
    30
100
AcDbCircle
 10
6241.227133345863
 20
-4182.610480435386
 30
0.0
 40
3.5
100
AcDbArc
 50
8.213210701737136
 51
90.0
  0
LINE
  5
5B35D
330
1F
100
AcDbEntity
  8
AM_0
  6
中線
 48
0.5
370
    30
100
AcDbLine
 10
6241.227133345863
 20
-4181.110480435386
 30
0.0
 11
6224.250430345864
 21
-4181.110480435386
 31
0.0
  0
LINE
  5
5B35E
330
1F
100
AcDbEntity
  8
AM_0
  6
中線
 48
0.5
370
    30
100
AcDbLine
 10
6223.491730345863
 20
-4181.259973435386
 30
0.0
 11
6218.795947345864
 21
-4183.185227435386
 31
0.0
  0
ARC
  5
5B35F
330
1F
100
AcDbEntity
  8
AM_0
  6
中線
 48
0.5
370
    30
100
AcDbCircle
 10
6219.175297345863
 20
-4184.110480435386
 30
0.0
 40
1.0
100
AcDbArc
 50
112.2934429999883
 51
149.9999999999896
  0
ARC
  5
5B360
330
1F
100
AcDbEntity
  8
AM_0
  6
中線
 48
0.5
370
    30
100
AcDbCircle
 10
6241.227133345863
 20
-4182.610480435386
 30
0.0
 40
1.5
100
AcDbArc
 50
19.47122063448779
 51
90.0
  0
ARC
  5
5B361
330
1F
100
AcDbEntity
  8
AM_0
  6
中線
 48
0.5
370
    30
100
AcDbCircle
 10
6224.250430345864
 20
-4183.110480435386
 30
0.0
 40
4.0
100
AcDbArc
 50
90.0
 51
112.2934429999883
  0
ARC
  5
5B362
330
1F
100
AcDbEntity
  8
AM_0
  6
中線
 48
0.5
370
    30
100
AcDbCircle
 10
6241.227133345863
 20
-4196.610480435386
 30
0.0
 40
3.5
100
AcDbArc
 50
270.0
 51
351.7867892982629
  0
LINE
  5
5B363
330
1F
100
AcDbEntity
  8
AM_0
  6
中線
 48
0.5
370
    30
100
AcDbLine
 10
6241.227133345863
 20
-4198.110480435386
 30
0.0
 11
6224.250430345864
 21
-4198.110480435386
 31
0.0
  0
LINE
  5
5B364
330
1F
100
AcDbEntity
  8
AM_0
  6
中線
 48
0.5
370
    30
100
AcDbLine
 10
6223.491730345863
 20
-4197.960986435385
 30
0.0
 11
6218.795947345864
 21
-4196.035733435386
 31
0.0
  0
ARC
  5
5B365
330
1F
100
AcDbEntity
  8
AM_0
  6
中線
 48
0.5
370
    30
100
AcDbCircle
 10
6219.175297345863
 20
-4195.110480435386
 30
0.0
 40
1.0
100
AcDbArc
 50
210.0000000000104
 51
247.7065570000116
  0
ARC
  5
5B366
330
1F
100
AcDbEntity
  8
AM_0
  6
中線
 48
0.5
370
    30
100
AcDbCircle
 10
6241.227133345863
 20
-4196.610480435386
 30
0.0
 40
1.5
100
AcDbArc
 50
270.0
 51
340.5287793655122
  0
ARC
  5
5B367
330
1F
100
AcDbEntity
  8
AM_0
  6
中線
 48
0.5
370
    30
100
AcDbCircle
 10
6224.250430345864
 20
-4196.110480435386
 30
0.0
 40
4.0
100
AcDbArc
 50
247.7065570000116
 51
270.0
  0
ENDSEC
  0
SECTION
  2
OBJECTS
  0
DICTIONARY
  5
C
330
0
100
AcDbDictionary
281
     1
  3
ACAD_2007HEADERVARS_RT
350
5B551
  3
ACAD_BGPLOT_KEY
350
AB06
  3
ACAD_COLOR
350
A91D
  3
ACAD_GROUP
350
D
  3
ACAD_LAYOUT
350
1A
  3
ACAD_MATERIAL
350
A91C
  3
ACAD_MLINESTYLE
350
17
  3
ACAD_PLOTSETTINGS
350
19
  3
ACAD_PLOTSTYLENAME
350
E
  3
ACAD_TABLESTYLE
350
AAB9
  3
ACAD_VISUALSTYLE
350
B0F1
  3
AcAsAppObject
350
3DA1
  3
ACASGREF_MASTER
350
3DE9
  3
AcDbVariableDictionary
350
34
  3
AcmDictionary
350
47
  3
AD_GREF_MODULE
350
3DEA
  3
AD_MAPI_MODULE
350
3E06
  3
AMG
350
2B
  3
AMGSNAPSETTINGS
350
7D
  3
ASE_INDEX_DICTIONARY
350
57912
  3
DWGPROPS
350
5B550
  3
MAPISURF_MODULE
350
3DEB
  0
DICTIONARY
  5
3F95
330
2
100
AcDbDictionary
280
     1
281
     1
  3
ACAD_LAYERFILTERS
360
5369F
  3
ACAD_LAYERSTATES
360
3F96
  3
ACLYDICTIONARY
360
5369E
  3
AMLAYER_GROUPCOLORS
360
AAB4
  0
DICTIONARY
  5
8A
330
1F
100
AcDbDictionary
280
     1
281
     1
  3
ACAD_SORTENTS
360
B1BA
  0
DICTIONARY
  5
5B551
102
{ACAD_REACTORS
330
C
102
}
330
C
100
AcDbDictionary
281
     1
  3
DIMARCSYM
350
5B552
  0
DICTIONARY
  5
AB06
102
{ACAD_REACTORS
330
C
102
}
330
C
100
AcDbDictionary
280
     1
281
     1
  0
DICTIONARY
  5
A91D
102
{ACAD_REACTORS
330
C
102
}
330
C
100
AcDbDictionary
281
     1
  0
DICTIONARY
  5
D
102
{ACAD_REACTORS
330
C
102
}
330
C
100
AcDbDictionary
281
     1
  0
DICTIONARY
  5
1A
102
{ACAD_REACTORS
330
C
102
}
330
C
100
AcDbDictionary
281
     1
  3
Model
350
22
  3
ﾚｲｱｳﾄ1
350
1E
  3
ﾚｲｱｳﾄ2
350
26
  0
DICTIONARY
  5
A91C
102
{ACAD_REACTORS
330
C
102
}
330
C
100
AcDbDictionary
281
     1
  3
ByBlock
350
B0EF
  3
ByLayer
350
B0EE
  3
Global
350
B0F0
  0
DICTIONARY
  5
17
102
{ACAD_REACTORS
330
C
102
}
330
C
100
AcDbDictionary
281
     1
  3
Standard
350
18
  0
DICTIONARY
  5
19
102
{ACAD_REACTORS
330
C
102
}
330
C
100
AcDbDictionary
281
     1
  0
ACDBDICTIONARYWDFLT
  5
E
102
{ACAD_REACTORS
330
C
102
}
330
C
100
AcDbDictionary
281
     1
  3
Normal
350
F
100
AcDbDictionaryWithDefault
340
F
  0
DICTIONARY
  5
AAB9
102
{ACAD_REACTORS
330
C
102
}
330
C
100
AcDbDictionary
281
     1
  3
Standard
350
AABA
  0
DICTIONARY
  5
B0F1
102
{ACAD_REACTORS
330
C
102
}
330
C
100
AcDbDictionary
281
     1
  3
2dWireframe
350
B0F7
  3
3D Hidden
350
B0F9
  3
3dWireframe
350
B0F8
  3
Basic
350
B0F6
  3
Brighten
350
B0FD
  3
ColorChange
350
B101
  3
Conceptual
350
B0FA
  3
Dim
350
B0FC
  3
Facepattern
350
B100
  3
Flat
350
B0F2
  3
FlatWithEdges
350
B0F3
  3
Gouraud
350
B0F4
  3
GouraudWithEdges
350
B0F5
  3
Linepattern
350
B0FF
  3
Realistic
350
B0FB
  3
Thicken
350
B0FE
  0
ACAD_PROXY_OBJECT
  5
3DA1
102
{ACAD_REACTORS
330
C
102
}
330
C
100
AcDbProxyObject
 90
      499
 91
      576
 95
   917527
 70
     0
 93
       10
310
407F
 94
        0
1001
ACAD
1000
AcRTDxfName
1000
ASAPP
  0
ACAD_PROXY_OBJECT
  5
3DE9
102
{ACAD_REACTORS
330
C
102
}
330
C
100
AcDbProxyObject
 90
      499
 91
      581
 95
   917527
 70
     0
 93
       34
310
010000407F
 94
        0
1001
ACAD
1000
AcRTDxfName
1000
ACASGREFMASTER
  0
DICTIONARY
  5
34
102
{ACAD_REACTORS
330
C
102
}
330
C
100
AcDbDictionary
281
     1
  3
CTABLESTYLE
350
AAF3
  3
DIMASSOC
350
A10C
  3
FIELDEVAL
350
AB07
  3
INDEXCTL
350
35
  3
SORTENTS
350
194C
  0
DICTIONARY
  5
47
102
{ACAD_REACTORS
330
C
102
}
330
C
100
AcDbDictionary
281
     1
  3
AcmBOM
350
7E8
  3
AcmStdDictionary
350
4C
  3
AMDTSECTSYM_ARROWCOLOR
350
A929
  0
ACAD_PROXY_OBJECT
  5
3DEA
102
{ACAD_REACTORS
330
C
102
}
330
C
100
AcDbProxyObject
 90
      499
 91
      582
 95
   917527
 70
     0
 93
      114
310
00000043800000000000000000003F
 94
        0
1001
ACAD
1000
AcRTDxfName
1000
ACADGREFMODULE
  0
ACAD_PROXY_OBJECT
  5
3E06
102
{ACAD_REACTORS
330
C
102
}
330
C
100
AcDbProxyObject
 90
      499
 91
      594
 95
   917527
 70
     0
 93
       34
310
05000044FF
 94
        0
1001
ACAD
1000
AcRTDxfName
1000
MAPIADMODULE
  0
DICTIONARY
  5
2B
102
{ACAD_REACTORS
330
C
102
}
330
C
100
AcDbDictionary
281
     1
  0
DICTIONARY
  5
7D
102
{ACAD_REACTORS
330
C
102
}
330
C
100
AcDbDictionary
281
     1
  0
DICTIONARY
  5
57912
102
{ACAD_REACTORS
330
C
102
}
330
C
100
AcDbDictionary
281
     1
  3
ASEBlockHierarchyIndexRecord
350
57913
1001
DCO15
1040
1757428023.343
  0
XRECORD
  5
5B550
102
{ACAD_REACTORS
330
C
102
}
330
C
100
AcDbXrecord
280
     1
  1
DWGPROPS COOKIE
  2

  3

  4

  6

  7

  8
Administrator
  9

300
AmdtFileType=84
301
=
302
=
303
=
304
=
305
=
306
=
307
=
308
=
309
=
 40
8.133246122685184
 41
2455567.680725081
 42
2456338.842933298
  1

 90
        1
  0
ACAD_PROXY_OBJECT
  5
3DEB
102
{ACAD_REACTORS
330
C
102
}
330
C
100
AcDbProxyObject
 90
      499
 91
      583
 95
   917527
 70
     0
 93
        8
310
0478
 94
        0
1001
ACAD
1000
AcRTDxfName
1000
AMDTMAPISURFMOUDULE
  0
DICTIONARY
  5
5369F
102
{ACAD_REACTORS
330
3F95
102
}
330
3F95
100
AcDbDictionary
281
     1
  0
DICTIONARY
  5
3F96
102
{ACAD_REACTORS
330
3F95
102
}
330
3F95
100
AcDbDictionary
281
     1
  3
20011210
350
3FB7
  0
DICTIONARY
  5
5369E
102
{ACAD_REACTORS
330
3F95
102
}
330
3F95
100
AcDbDictionary
281
     1
1001
ACAD
1000
<All
  0
DICTIONARY
  5
AAB4
102
{ACAD_REACTORS
330
3F95
102
}
330
3F95
100
AcDbDictionary
280
     1
281
     1
  0
SORTENTSTABLE
  5
B1BA
102
{ACAD_REACTORS
330
8A
102
}
330
8A
100
AcDbSortentsTable
330
1F
331
4C29B
  5
4C38C
331
4C256
  5
4C29F
331
34536
  5
3454E
331
5184A
  5
B8D5
331
4C27E
  5
4C2EA
331
4C239
  5
4C283
331
4C2D9
  5
4C845
331
4C21C
  5
4C265
331
4C2BC
  5
4C436
331
4C24C
  5
4C295
331
4280F
  5
42837
331
4C2CF
  5
4C822
331
4C272
  5
4C2DB
331
51841
  5
B5E2
331
4C3DF
  5
4D7C4
331
4C25D
  5
4C2C1
331
4C285
  5
4C2F1
331
42803
  5
4282B
331
5B2FB
  5
5B2FB
331
4C4CA
  5
4D7CA
331
4C2E0
  5
4C860
331
4C223
  5
4C26D
331
4C2C3
  5
4C531
331
42816
  5
4283E
331
4E0F5
  5
4E1E0
331
4C296
  5
4C301
331
4C251
  5
4C29A
331
4C2D6
  5
4C83E
331
4C279
  5
4C2E3
331
4C234
  5
4C27E
331
4C264
  5
4C2CA
331
4C217
  5
4C25F
331
4E0EB
  5
4E1D6
331
4C3C9
  5
4D7C3
331
4C247
  5
4C290
331
4280A
  5
42832
331
32D1F
  5
32D3C
331
4C28A
  5
4C2F6
331
4C22A
  5
4C274
331
4C4B4
  5
4D7C9
331
4C2CA
  5
4C816
331
4C26D
  5
4C2D4
331
4C258
  5
4C2A1
331
34538
  5
34550
331
5184C
  5
B8D7
331
4C280
  5
4C2EC
331
4C23B
  5
4C285
331
31B3B
  5
3273C
331
4C2DB
  5
4C851
331
4C21E
  5
4C267
331
4C2BE
  5
4C485
331
4C24E
  5
4C297
331
42811
  5
42839
331
4C291
  5
4C2FC
331
4C2D1
  5
4C825
331
4C274
  5
4C2DD
331
4C25F
  5
4C2C4
331
4C287
  5
4C2F3
331
4C242
  5
4C28B
331
42805
  5
4282D
331
4C225
  5
4C26F
331
4C2C5
  5
4C59A
331
4C268
  5
4C2CF
331
42818
  5
42840
331
5B323
  5
5B303
331
4C298
  5
4C33D
331
4C253
  5
4C29C
331
4C27B
  5
4C2E7
331
4C236
  5
4C280
331
4C266
  5
4C2CD
331
4C32E
  5
4C8A8
331
4C2B9
  5
4C3DF
331
4C249
  5
4C292
331
4280C
  5
42834
331
32D21
  5
32D3E
331
4C436
  5
4D7C6
331
4C28C
  5
4C2F8
331
4C22C
  5
4C276
331
4C26F
  5
4C2D6
331
4C29F
  5
4C3A2
331
4C25A
  5
4C2A3
331
31B3D
  5
3273E
331
4C2DD
  5
4C858
331
4C220
  5
4C269
331
4C2C0
  5
4C4CA
331
42813
  5
4283B
331
4C293
  5
4C2FE
331
4C2D3
  5
4C836
331
4C276
  5
4C2E0
331
4C231
  5
4C27B
331
31B31
  5
32739
331
4C261
  5
4C2C7
331
4C214
  5
4C25B
331
4E0E8
  5
4E1D3
331
4C244
  5
4C28D
331
42807
  5
4282F
331
4C227
  5
4C271
331
4C2C7
  5
4C5E9
331
4C26A
  5
4C2D2
331
4C29A
  5
4C365
331
4C255
  5
4C29E
331
34535
  5
3454D
331
4C3A2
  5
4C8E1
331
4C27D
  5
4C2E9
331
4C238
  5
4C282
331
4C2D8
  5
4C844
331
4C21B
  5
4C264
331
4C485
  5
4D7C8
331
4C24B
  5
4C294
331
4280E
  5
42836
331
4C28E
  5
4C2FA
331
4C22E
  5
4C278
331
4C2CE
  5
4C821
331
4C271
  5
4C2DA
331
51840
  5
B5AE
331
4C25C
  5
4C2A8
331
4C284
  5
4C2F0
331
4C23F
  5
4C289
331
42802
  5
4282A
331
4C38C
  5
4C8DF
331
4C2DF
  5
4C85D
331
4C222
  5
4C26B
331
4C2C2
  5
4C518
331
42815
  5
4283D
331
4E0F4
  5
4E1DF
331
4C295
  5
4C300
331
4C250
  5
4C299
331
4C2D5
  5
4C83D
331
4C278
  5
4C2E2
331
4C233
  5
4C27D
331
31B33
  5
3273B
331
4C59A
  5
4D7D1
331
4C263
  5
4C2C9
331
4C216
  5
4C25E
331
4E0EA
  5
4E1D5
331
42809
  5
42831
331
32D1E
  5
32D3B
331
4C289
  5
4C2F5
331
4C2C9
  5
4C7C2
331
4C257
  5
4C2A0
331
5184B
  5
B8D6
331
4C531
  5
4D7CF
331
4C27F
  5
4C2EB
331
4C23A
  5
4C284
331
4C2DA
  5
4C84C
331
4C21D
  5
4C266
331
4C55C
  5
4D7D0
331
4C2BD
  5
4C45B
331
4C24D
  5
4C296
331
42810
  5
42838
331
4C290
  5
4C2FB
331
4C273
  5
4C2DC
331
51842
  5
B5E3
331
4C25E
  5
4C2C2
331
4C286
  5
4C2F2
331
4C241
  5
4C28A
331
42804
  5
4282C
331
4C2E1
  5
4C86D
331
4C224
  5
4C26E
331
4C2C4
  5
4C55C
331
42817
  5
4283F
331
4E0F6
  5
4E1E1
331
4C297
  5
4C33C
331
4C252
  5
4C29B
331
4C5E9
  5
4D7D4
331
4C2D7
  5
4C840
331
4C27A
  5
4C2E5
331
4C235
  5
4C27F
331
4C265
  5
4C2CC
331
4C248
  5
4C291
331
4280B
  5
42833
331
4C28B
  5
4C2F7
331
4C22B
  5
4C275
331
4C2CB
  5
4C81B
331
4C26E
  5
4C2D5
331
4C259
  5
4C2A2
331
5184D
  5
B8D8
331
4C281
  5
4C2ED
331
4C23C
  5
4C286
331
31B3C
  5
3273D
331
4C2DC
  5
4C857
331
4C21F
  5
4C268
331
4C2BF
  5
4C4B4
331
4C24F
  5
4C298
331
42812
  5
4283A
331
4C292
  5
4C2FD
331
4C40F
  5
4D7C5
331
4C2D2
  5
4C828
331
4C275
  5
4C2DF
331
4C230
  5
4C27A
331
31B30
  5
32738
331
4C365
  5
4C8DA
331
4C260
  5
4C2C5
331
4C243
  5
4C28C
331
42806
  5
4282E
331
4C5C2
  5
4D7D2
331
4C226
  5
4C270
331
4C2C6
  5
4C5C2
331
4C269
  5
4C2D1
331
4C45B
  5
4D7C7
331
4C299
  5
4C33E
331
4C254
  5
4C29D
331
34534
  5
3454C
331
4C27C
  5
4C2E8
331
4C237
  5
4C281
331
4C267
  5
4C2CE
331
4C21A
  5
4C262
331
4C32F
  5
4C8AA
331
4C2BA
  5
4C40F
331
4C24A
  5
4C293
331
4280D
  5
42835
331
4C28D
  5
4C2F9
331
4C22D
  5
4C277
331
4C270
  5
4C2D9
331
5183F
  5
B5AD
331
4C2A0
  5
4C3C9
331
4C25B
  5
4C2A7
331
4C283
  5
4C2EF
331
4C23E
  5
4C288
331
42801
  5
42829
331
31B3E
  5
3273F
331
4C221
  5
4C26A
331
4C33E
  5
4C8AB
331
4C2C1
  5
4C4FC
331
42814
  5
4283C
331
4E0F3
  5
4E1DE
331
4C294
  5
4C2FF
331
4C2D4
  5
4C83C
331
4C277
  5
4C2E1
331
4C232
  5
4C27C
331
31B32
  5
3273A
331
4C262
  5
4C2C8
331
4C215
  5
4C25D
331
4E0E9
  5
4E1D4
331
4C245
  5
4C28E
331
42808
  5
42830
331
32D1D
  5
32D3A
331
4C288
  5
4C2F4
331
4C228
  5
4C272
331
4C2C8
  5
4C7C1
331
4C26B
  5
4C2D3
  0
XRECORD
  5
5B552
102
{ACAD_REACTORS
330
5B551
102
}
330
5B551
100
AcDbXrecord
280
     1
 70
     1
  0
LAYOUT
  5
22
102
{ACAD_XDICTIONARY
360
5B555
102
}
102
{ACAD_REACTORS
330
1A
102
}
330
1A
100
AcDbPlotSettings
  1

  2
FX DocuWide 2050/2051
  4
A3
  6
AM_VIEW1
 40
3.174999952316284
 41
3.174999952316284
 42
3.17498779296875
 43
3.17498779296875
 44
296.989501953125
 45
419.9889831542968
 46
0.0
 47
1.295841228961961
 48
214.3704939521119
 49
367.5855324241176
140
275.6727856380065
141
407.629191407817
142
1.0
143
0.7225445603030646
 70
  3764
 72
     1
 73
     1
 74
     2
  7
monochrome.ctb
 75
     0
147
1.383997686703999
148
-1700.85588156276
149
-1647.985052086429
100
AcDbLayout
  1
Model
 70
     1
 71
     0
 10
0.0
 20
0.0
 11
12.0
 21
9.0
 12
0.0
 22
0.0
 32
0.0
 14
0.0
 24
0.0
 34
0.0
 15
0.0
 25
0.0
 35
0.0
146
0.0
 13
0.0
 23
0.0
 33
0.0
 16
1.0
 26
0.0
 36
0.0
 17
0.0
 27
1.0
 37
0.0
 76
     0
330
1F
331
B0EC
1001
ACAD_PSEXT
1000
FX DocuWide 2050/2051
1000
FX DocuWide 2050/2051
1000
IP_192.200.15.252
1000

1070
     0
  0
LAYOUT
  5
1E
102
{ACAD_XDICTIONARY
360
5B553
102
}
102
{ACAD_REACTORS
330
1A
102
}
330
1A
100
AcDbPlotSettings
  1

  2
\\ML370\XEROX
  4
A4
  6

 40
3.174999952316284
 41
3.174999952316284
 42
3.175003051757812
 43
3.17498779296875
 44
209.8674926757813
 45
296.6719970703125
 46
0.0
 47
0.0
 48
0.0
 49
0.0
140
0.0
141
0.0
142
1.0
143
1.0
 70
   688
 72
     1
 73
     1
 74
     5
  7
monochrome.ctb
 75
    16
147
1.0
148
0.0
149
0.0
100
AcDbLayout
  1
ﾚｲｱｳﾄ1
 70
     1
 71
     1
 10
-3.17498779296875
 20
-3.174999952316284
 11
293.4970092773438
 21
206.692492723465
 12
0.0
 22
0.0
 32
0.0
 14
1.000000000000000E+20
 24
1.000000000000000E+20
 34
1.000000000000000E+20
 15
-1.000000000000000E+20
 25
-1.000000000000000E+20
 35
-1.000000000000000E+20
146
0.0
 13
0.0
 23
0.0
 33
0.0
 16
1.0
 26
0.0
 36
0.0
 17
0.0
 27
1.0
 37
0.0
 76
     0
330
1B
  0
LAYOUT
  5
26
102
{ACAD_XDICTIONARY
360
5B557
102
}
102
{ACAD_REACTORS
330
1A
102
}
330
1A
100
AcDbPlotSettings
  1

  2
\\ML370\XEROX
  4

  6

 40
0.0
 41
0.0
 42
0.0
 43
0.0
 44
0.0
 45
0.0
 46
0.0
 47
0.0
 48
0.0
 49
0.0
140
0.0
141
0.0
142
1.0
143
1.0
 70
   688
 72
     0
 73
     0
 74
     5
  7
monochrome.ctb
 75
    16
147
1.0
148
0.0
149
0.0
100
AcDbLayout
  1
ﾚｲｱｳﾄ2
 70
     1
 71
     2
 10
0.0
 20
0.0
 11
12.0
 21
9.0
 12
0.0
 22
0.0
 32
0.0
 14
0.0
 24
0.0
 34
0.0
 15
0.0
 25
0.0
 35
0.0
146
0.0
 13
0.0
 23
0.0
 33
0.0
 16
1.0
 26
0.0
 36
0.0
 17
0.0
 27
1.0
 37
0.0
 76
     0
330
23
  0
MATERIAL
  5
B0EF
102
{ACAD_XDICTIONARY
360
5B55D
102
}
102
{ACAD_REACTORS
330
A91C
102
}
330
A91C
100
AcDbMaterial
  1
ByBlock
  0
MATERIAL
  5
B0EE
102
{ACAD_XDICTIONARY
360
5B55B
102
}
102
{ACAD_REACTORS
330
A91C
102
}
330
A91C
100
AcDbMaterial
  1
ByLayer
  0
MATERIAL
  5
B0F0
102
{ACAD_XDICTIONARY
360
5B55F
102
}
102
{ACAD_REACTORS
330
A91C
102
}
330
A91C
100
AcDbMaterial
  1
Global
  0
MLINESTYLE
  5
18
102
{ACAD_REACTORS
330
17
102
}
330
17
100
AcDbMlineStyle
  2
STANDARD
 70
     0
  3

 62
   256
 51
90.0
 52
90.0
 71
     2
 49
0.5
 62
   256
  6
BYLAYER
 49
-0.5
 62
   256
  6
BYLAYER
  0
ACDBPLACEHOLDER
  5
F
102
{ACAD_REACTORS
330
E
102
}
330
E
  0
TABLESTYLE
  5
AABA
102
{ACAD_XDICTIONARY
360
5B559
102
}
102
{ACAD_REACTORS
330
AAB9
102
}
330
AAB9
100
AcDbTableStyle
  3
Standard
 70
     0
 71
     0
 40
1.5
 41
1.5
280
     0
281
     0
  7
STANDARD
140
4.5
170
     2
 62
     0
 63
     7
283
     0
274
    -2
284
     1
 64
     0
275
    -2
285
     1
 65
     0
276
    -2
286
     1
 66
     0
277
    -2
287
     1
 67
     0
278
    -2
288
     1
 68
     0
279
    -2
289
     1
 69
     0
  7
STANDARD
140
6.0
170
     5
 62
     0
 63
     7
283
     0
274
    -2
284
     1
 64
     0
275
    -2
285
     1
 65
     0
276
    -2
286
     1
 66
     0
277
    -2
287
     1
 67
     0
278
    -2
288
     1
 68
     0
279
    -2
289
     1
 69
     0
  7
STANDARD
140
4.5
170
     5
 62
     0
 63
     7
283
     0
274
    -2
284
     1
 64
     0
275
    -2
285
     1
 65
     0
276
    -2
286
     1
 66
     0
277
    -2
287
     1
 67
     0
278
    -2
288
     1
 68
     0
279
    -2
289
     1
 69
     0
  0
VISUALSTYLE
  5
B0F7
102
{ACAD_REACTORS
330
B0F1
102
}
330
B0F1
100
AcDbVisualStyle
  2
2dWireframe
 70
     4
 71
     0
 72
     2
 73
     0
 90
        0
 40
-0.6
 41
-30.0
 62
     5
 63
     7
 74
     1
 91
        4
 64
     7
 65
   257
 75
     1
175
     1
 42
1.0
 92
        0
 66
   257
 43
1.0
 76
     1
 77
     6
 78
     2
 67
     7
 79
     5
170
     0
171
     0
290
     0
174
     0
 93
        1
 44
0.0
173
     0
291
     0
 45
0.0
1001
ACAD
1000
AcDbSavedByObjectVersion
1070
     0
  0
VISUALSTYLE
  5
B0F9
102
{ACAD_REACTORS
330
B0F1
102
}
330
B0F1
100
AcDbVisualStyle
  2
3D Hidden
 70
     6
 71
     1
 72
     2
 73
     2
 90
        0
 40
-0.6
 41
-30.0
 62
     5
 63
     7
 74
     2
 91
        2
 64
     7
 65
   257
 75
     2
175
     1
 42
40.0
 92
        0
 66
   257
 43
1.0
 76
     1
 77
     6
 78
     2
 67
     7
 79
     3
170
     0
171
     0
290
     0
174
     0
 93
        1
 44
0.0
173
     0
291
     0
 45
0.0
1001
ACAD
1000
AcDbSavedByObjectVersion
1070
     0
  0
VISUALSTYLE
  5
B0F8
102
{ACAD_REACTORS
330
B0F1
102
}
330
B0F1
100
AcDbVisualStyle
  2
3dWireframe
 70
     5
 71
     0
 72
     2
 73
     0
 90
        0
 40
-0.6
 41
-30.0
 62
     5
 63
     7
 74
     1
 91
        4
 64
     7
 65
   257
 75
     1
175
     1
 42
1.0
 92
        0
 66
   257
 43
1.0
 76
     1
 77
     6
 78
     2
 67
     7
 79
     5
170
     0
171
     0
290
     0
174
     0
 93
        1
 44
0.0
173
     0
291
     0
 45
0.0
1001
ACAD
1000
AcDbSavedByObjectVersion
1070
     0
  0
VISUALSTYLE
  5
B0F6
102
{ACAD_REACTORS
330
B0F1
102
}
330
B0F1
100
AcDbVisualStyle
  2
Basic
 70
     7
 71
     1
 72
     0
 73
     1
 90
        0
 40
-0.6
 41
-30.0
 62
     5
 63
     7
 74
     0
 91
        4
 64
     7
 65
   257
 75
     1
175
     1
 42
1.0
 92
        8
 66
     7
 43
1.0
 76
     1
 77
     6
 78
     2
 67
     7
 79
     5
170
     0
171
     0
290
     0
174
     0
 93
        1
 44
0.0
173
     0
291
     1
 45
0.0
1001
ACAD
1000
AcDbSavedByObjectVersion
1070
     0
  0
VISUALSTYLE
  5
B0FD
102
{ACAD_REACTORS
330
B0F1
102
}
330
B0F1
100
AcDbVisualStyle
  2
Brighten
 70
    12
 71
     2
 72
     2
 73
     0
 90
        0
 40
-0.6
 41
-30.0
 62
     5
 63
     7
 74
     1
 91
        4
 64
     7
 65
   257
 75
     1
175
     1
 42
1.0
 92
        8
 66
     7
 43
1.0
 76
     1
 77
     6
 78
     2
 67
     7
 79
     5
170
     0
171
     0
290
     0
174
     0
 93
        1
 44
50.0
173
     0
291
     1
 45
0.0
1001
ACAD
1000
AcDbSavedByObjectVersion
1070
     0
  0
VISUALSTYLE
  5
B101
102
{ACAD_REACTORS
330
B0F1
102
}
330
B0F1
100
AcDbVisualStyle
  2
ColorChange
 70
    16
 71
     2
 72
     2
 73
     3
 90
        0
 40
-0.6
 41
-30.0
 62
     5
 63
     8
 74
     1
 91
        4
 64
     7
 65
   257
 75
     1
175
     1
 42
1.0
 92
        8
 66
     8
 43
1.0
 76
     1
 77
     6
 78
     2
 67
     7
 79
     5
170
     0
171
     0
290
     0
174
     0
 93
        1
 44
0.0
173
     0
291
     1
 45
0.0
1001
ACAD
1000
AcDbSavedByObjectVersion
1070
     0
  0
VISUALSTYLE
  5
B0FA
102
{ACAD_REACTORS
330
B0F1
102
}
330
B0F1
100
AcDbVisualStyle
  2
Conceptual
 70
     9
 71
     3
 72
     2
 73
     0
 90
        0
 40
-0.6
 41
-30.0
 62
     5
 63
     7
 74
     2
 91
        2
 64
     7
 65
   257
 75
     1
175
     1
 42
40.0
 92
        8
 66
     7
 43
1.0
 76
     1
 77
     6
 78
     2
 67
     7
 79
     3
170
     0
171
     0
290
     0
174
     0
 93
        1
 44
0.0
173
     0
291
     0
 45
0.0
1001
ACAD
1000
AcDbSavedByObjectVersion
1070
     0
  0
VISUALSTYLE
  5
B0FC
102
{ACAD_REACTORS
330
B0F1
102
}
330
B0F1
100
AcDbVisualStyle
  2
Dim
 70
    11
 71
     2
 72
     2
 73
     0
 90
        0
 40
-0.6
 41
-30.0
 62
     5
 63
     7
 74
     1
 91
        4
 64
     7
 65
   257
 75
     1
175
     1
 42
1.0
 92
        8
 66
     7
 43
1.0
 76
     1
 77
     6
 78
     2
 67
     7
 79
     5
170
     0
171
     0
290
     0
174
     0
 93
        1
 44
-50.0
173
     0
291
     1
 45
0.0
1001
ACAD
1000
AcDbSavedByObjectVersion
1070
     0
  0
VISUALSTYLE
  5
B100
102
{ACAD_REACTORS
330
B0F1
102
}
330
B0F1
100
AcDbVisualStyle
  2
Facepattern
 70
    15
 71
     2
 72
     2
 73
     0
 90
        0
 40
-0.6
 41
-30.0
 62
     5
 63
     7
 74
     1
 91
        4
 64
     7
 65
   257
 75
     1
175
     1
 42
1.0
 92
        8
 66
     7
 43
1.0
 76
     1
 77
     6
 78
     2
 67
     7
 79
     5
170
     0
171
     0
290
     0
174
     0
 93
        1
 44
0.0
173
     0
291
     1
 45
0.0
1001
ACAD
1000
AcDbSavedByObjectVersion
1070
     0
  0
VISUALSTYLE
  5
B0F2
102
{ACAD_REACTORS
330
B0F1
102
}
330
B0F1
100
AcDbVisualStyle
  2
Flat
 70
     0
 71
     2
 72
     1
 73
     1
 90
        2
 40
-0.6
 41
30.0
 62
     5
 63
     7
 74
     0
 91
        4
 64
     7
 65
   257
 75
     1
175
     1
 42
1.0
 92
        8
 66
     7
 43
1.0
 76
     1
 77
     6
 78
     2
 67
     7
 79
     5
170
     0
171
     0
290
     0
174
     0
 93
       13
 44
0.0
173
     0
291
     1
 45
0.0
1001
ACAD
1000
AcDbSavedByObjectVersion
1070
     0
  0
VISUALSTYLE
  5
B0F3
102
{ACAD_REACTORS
330
B0F1
102
}
330
B0F1
100
AcDbVisualStyle
  2
FlatWithEdges
 70
     1
 71
     2
 72
     1
 73
     1
 90
        2
 40
-0.6
 41
30.0
 62
     5
 63
     7
 74
     1
 91
        4
 64
     7
 65
   257
 75
     1
175
     1
 42
1.0
 92
        0
 66
   257
 43
1.0
 76
     1
 77
     6
 78
     2
 67
     7
 79
     5
170
     0
171
     0
290
     0
174
     0
 93
       13
 44
0.0
173
     0
291
     1
 45
0.0
1001
ACAD
1000
AcDbSavedByObjectVersion
1070
     0
  0
VISUALSTYLE
  5
B0F4
102
{ACAD_REACTORS
330
B0F1
102
}
330
B0F1
100
AcDbVisualStyle
  2
Gouraud
 70
     2
 71
     2
 72
     2
 73
     1
 90
        2
 40
-0.6
 41
30.0
 62
     5
 63
     7
 74
     0
 91
        4
 64
     7
 65
   257
 75
     1
175
     1
 42
1.0
 92
        0
 66
     7
 43
1.0
 76
     1
 77
     6
 78
     2
 67
     7
 79
     5
170
     0
171
     0
290
     0
174
     0
 93
       13
 44
0.0
173
     0
291
     1
 45
0.0
1001
ACAD
1000
AcDbSavedByObjectVersion
1070
     0
  0
VISUALSTYLE
  5
B0F5
102
{ACAD_REACTORS
330
B0F1
102
}
330
B0F1
100
AcDbVisualStyle
  2
GouraudWithEdges
 70
     3
 71
     2
 72
     2
 73
     1
 90
        2
 40
-0.6
 41
30.0
 62
     5
 63
     7
 74
     1
 91
        4
 64
     7
 65
   257
 75
     1
175
     1
 42
1.0
 92
        0
 66
   257
 43
1.0
 76
     1
 77
     6
 78
     2
 67
     7
 79
     5
170
     0
171
     0
290
     0
174
     0
 93
       13
 44
0.0
173
     0
291
     1
 45
0.0
1001
ACAD
1000
AcDbSavedByObjectVersion
1070
     0
  0
VISUALSTYLE
  5
B0FF
102
{ACAD_REACTORS
330
B0F1
102
}
330
B0F1
100
AcDbVisualStyle
  2
Linepattern
 70
    14
 71
     2
 72
     2
 73
     0
 90
        0
 40
-0.6
 41
-30.0
 62
     5
 63
     7
 74
     1
 91
        4
 64
     7
 65
   257
 75
     7
175
     7
 42
1.0
 92
        8
 66
     7
 43
1.0
 76
     1
 77
     6
 78
     2
 67
     7
 79
     5
170
     0
171
     0
290
     0
174
     0
 93
        1
 44
0.0
173
     0
291
     1
 45
0.0
1001
ACAD
1000
AcDbSavedByObjectVersion
1070
     0
  0
VISUALSTYLE
  5
B0FB
102
{ACAD_REACTORS
330
B0F1
102
}
330
B0F1
100
AcDbVisualStyle
  2
Realistic
 70
     8
 71
     2
 72
     2
 73
     0
 90
        0
 40
-0.6
 41
-30.0
 62
     5
 63
     7
 74
     1
 91
        0
 64
     7
 65
   257
 75
     1
175
     1
 42
1.0
 92
        8
 66
     8
 43
1.0
 76
     1
 77
     6
 78
     2
 67
     7
 79
     5
170
     0
171
     0
290
     0
174
     0
 93
       13
 44
0.0
173
     0
291
     0
 45
0.0
1001
ACAD
1000
AcDbSavedByObjectVersion
1070
     0
  0
VISUALSTYLE
  5
B0FE
102
{ACAD_REACTORS
330
B0F1
102
}
330
B0F1
100
AcDbVisualStyle
  2
Thicken
 70
    13
 71
     2
 72
     2
 73
     0
 90
        0
 40
-0.6
 41
-30.0
 62
     5
 63
     7
 74
     1
 91
        4
 64
     7
 65
   257
 75
     1
175
     1
 42
1.0
 92
       12
 66
     7
 43
1.0
 76
     1
 77
     6
 78
     2
 67
     7
 79
     5
170
     0
171
     0
290
     0
174
     0
 93
        1
 44
0.0
173
     0
291
     1
 45
0.0
1001
ACAD
1000
AcDbSavedByObjectVersion
1070
     0
  0
DICTIONARYVAR
  5
AAF3
102
{ACAD_REACTORS
330
34
102
}
330
34
100
DictionaryVariables
280
     0
  1
STANDARD
  0
DICTIONARYVAR
  5
A10C
102
{ACAD_REACTORS
330
34
102
}
330
34
100
DictionaryVariables
280
     0
  1
1
  0
DICTIONARYVAR
  5
AB07
102
{ACAD_REACTORS
330
34
102
}
330
34
100
DictionaryVariables
280
     0
  1
4
  0
DICTIONARYVAR
  5
35
102
{ACAD_REACTORS
330
34
102
}
330
34
100
DictionaryVariables
280
     0
  1
0
  0
DICTIONARYVAR
  5
194C
102
{ACAD_REACTORS
330
34
102
}
330
34
100
DictionaryVariables
280
     0
  1
127
  0
DICTIONARY
  5
7E8
102
{ACAD_REACTORS
330
47
102
}
330
47
100
AcDbDictionary
281
     1
  0
DICTIONARY
  5
4C
102
{ACAD_REACTORS
330
47
102
}
330
47
100
AcDbDictionary
281
     1
  0
XRECORD
  5
A929
102
{ACAD_REACTORS
330
47
102
}
330
47
100
AcDbXrecord
280
     1
 90
-1023410169
  0
XRECORD
  5
57913
102
{ACAD_REACTORS
330
57912
102
}
330
57912
100
AcDbXrecord
280
     1
330
0
330
0
330
0
330
0
330
0
330
0
330
0
330
0
330
0
330
0
330
0
330
0
330
0
330
0
330
0
330
0
330
0
330
0
330
0
330
0
330
0
330
0
330
0
330
0
330
0
330
0
330
0
330
0
330
0
330
0
330
0
330
0
330
0
330
0
330
0
330
0
330
0
330
0
330
0
330
0
330
0
330
0
330
0
330
0
330
0
330
0
330
0
330
0
330
0
330
0
330
0
330
0
330
0
330
0
330
0
330
0
330
0
330
0
330
0
330
0
330
0
330
0
330
0
330
0
330
0
330
0
330
0
330
0
330
0
330
0
330
0
330
0
330
0
330
0
330
0
330
0
330
0
330
0
330
0
330
0
330
0
330
0
330
0
330
0
330
0
330
0
330
0
330
0
330
0
330
0
330
0
330
0
330
0
330
0
330
0
330
0
330
0
330
0
330
0
330
0
330
0
330
0
330
0
330
0
330
0
330
0
330
0
330
0
330
0
330
0
330
0
330
0
330
0
330
0
330
0
330
0
330
0
330
0
330
0
330
0
330
0
330
0
330
0
330
0
330
0
330
0
330
0
330
0
330
0
330
0
330
0
330
0
330
0
330
0
330
0
330
0
330
0
330
0
330
0
330
0
330
0
330
0
330
0
330
0
330
0
330
0
330
0
330
0
330
0
330
0
330
0
330
0
330
0
330
0
330
0
330
0
330
0
330
0
330
0
330
0
330
0
330
0
330
0
330
0
330
0
330
0
330
0
330
0
330
0
330
0
330
0
330
0
330
0
330
0
330
0
330
0
330
0
330
0
330
0
330
0
330
0
330
0
330
0
330
0
330
0
330
0
330
0
330
0
330
0
330
0
330
0
330
0
330
0
330
0
330
0
330
0
330
0
330
0
330
0
330
0
330
0
330
0
330
0
330
0
330
0
330
0
330
0
330
0
330
0
330
0
330
0
330
0
330
0
330
0
330
0
330
0
330
0
330
0
330
0
330
0
330
0
330
0
330
0
330
0
330
0
330
0
330
0
330
0
330
0
330
0
330
0
330
0
330
0
330
0
330
0
330
0
330
0
330
0
330
0
330
0
330
0
330
0
330
0
330
0
330
0
330
0
330
0
330
0
330
0
330
0
330
0
330
0
330
0
330
0
330
0
330
0
330
0
330
0
330
0
330
0
330
0
330
0
330
0
330
0
330
0
330
0
330
0
330
0
330
0
330
0
330
0
330
0
330
0
330
0
330
0
330
0
330
0
330
0
330
0
330
0
330
0
330
0
330
0
330
0
330
0
330
0
330
0
330
0
330
0
330
0
330
0
330
0
330
0
330
0
330
0
330
0
330
0
330
0
330
0
330
0
330
0
330
0
330
0
330
0
330
0
330
0
330
0
330
0
330
0
330
0
330
0
330
0
330
0
330
0
330
0
330
0
330
0
330
0
330
0
330
0
330
0
330
0
330
0
330
0
330
0
330
0
330
0
330
0
330
0
330
0
330
0
330
0
330
0
330
0
330
0
330
0
330
0
330
0
330
0
330
0
330
0
330
0
330
0
330
0
330
0
330
0
330
0
330
0
330
0
330
0
330
0
330
0
330
0
330
0
330
0
330
0
330
0
330
0
330
0
330
0
330
0
330
0
330
0
330
0
330
0
330
0
330
0
330
0
330
0
330
0
330
0
330
0
330
0
330
0
330
0
330
0
330
0
330
0
330
0
330
0
330
0
330
0
330
0
330
0
330
0
330
0
330
0
330
0
330
0
330
0
330
0
330
0
330
0
330
0
330
0
330
0
330
0
330
0
330
0
330
0
330
0
330
0
330
0
330
0
330
0
330
0
330
0
330
0
330
0
330
0
330
0
330
0
330
0
330
0
330
0
330
0
330
0
330
0
330
0
330
0
330
0
330
0
330
0
330
0
330
0
330
0
330
0
330
0
330
0
330
0
330
0
330
0
330
0
330
0
330
0
330
0
330
0
330
0
330
0
330
0
330
0
330
0
330
0
330
0
330
0
330
0
330
0
330
0
330
0
330
0
330
0
330
0
330
0
330
0
330
0
330
0
330
0
330
0
330
0
330
0
330
0
330
0
330
0
330
0
330
0
330
0
330
0
330
0
330
0
330
0
330
0
330
0
330
0
330
0
330
0
330
0
330
0
330
0
330
0
330
0
330
0
330
0
330
0
330
0
330
0
330
0
330
0
330
0
330
0
330
0
330
0
330
0
330
0
330
0
330
0
330
0
330
0
330
0
330
0
330
0
330
0
330
0
330
0
330
0
330
0
330
0
330
0
330
0
330
0
330
0
330
0
330
0
330
0
330
0
330
0
330
0
330
0
330
0
330
0
330
0
330
0
330
0
330
0
330
0
330
0
330
0
330
0
330
0
330
0
330
0
330
0
330
0
330
0
330
0
330
0
330
0
330
0
330
0
330
0
330
0
330
0
330
0
330
0
330
0
330
0
330
0
330
0
330
0
330
0
330
0
330
0
330
0
330
0
330
0
330
0
330
0
330
0
330
0
330
0
330
0
330
0
330
0
330
0
330
0
330
0
330
0
330
0
330
0
330
0
330
0
330
0
330
0
330
0
330
0
330
0
330
0
330
0
330
0
330
0
330
0
330
0
330
0
330
0
330
0
330
0
330
0
330
0
330
0
330
0
330
0
330
0
330
0
330
0
330
0
330
0
330
0
330
0
330
0
330
0
330
0
330
0
330
0
330
0
330
0
330
0
330
0
330
0
330
0
330
0
330
0
330
0
330
0
330
0
330
0
330
0
330
0
330
0
330
0
330
0
330
0
330
0
330
0
330
0
330
0
330
0
330
0
330
0
330
0
330
0
330
0
330
0
330
0
330
0
330
0
330
0
330
0
330
0
330
0
330
0
330
0
330
0
330
0
330
0
330
0
330
0
330
0
330
0
330
0
330
0
330
0
330
0
330
0
330
0
330
0
330
0
330
0
330
0
330
0
330
0
330
0
330
0
330
0
330
0
330
0
330
0
330
0
330
0
330
0
330
0
330
0
330
0
330
0
330
0
330
0
330
0
330
0
330
0
330
0
330
0
330
0
330
0
330
0
330
0
330
0
330
0
330
0
330
0
330
0
330
0
330
0
330
0
330
0
330
0
330
0
330
0
330
0
330
0
330
0
330
0
330
0
330
0
330
0
330
0
330
0
330
0
330
0
330
0
330
0
330
0
330
0
330
0
330
0
330
0
330
0
330
0
330
0
330
0
330
0
330
0
330
0
330
0
330
0
330
0
330
0
330
0
330
0
330
0
330
0
330
0
330
0
330
0
330
0
330
0
330
0
330
0
330
0
330
0
330
0
330
0
330
0
330
0
330
0
330
0
330
0
330
0
330
0
330
0
330
0
330
0
330
0
330
0
330
0
330
0
330
0
330
0
330
0
330
0
330
0
330
0
330
0
330
0
330
0
330
0
330
0
330
0
330
0
330
0
330
0
330
0
330
0
330
0
330
0
330
0
330
0
330
0
330
0
330
0
330
0
330
0
330
0
330
0
330
0
330
0
330
0
330
0
330
0
330
0
330
0
330
0
330
0
330
0
330
0
330
0
330
0
330
0
330
0
330
0
330
0
330
0
330
0
330
0
330
0
330
0
330
0
330
0
330
0
330
0
330
0
330
0
330
0
330
0
330
0
330
0
330
0
330
0
330
0
330
0
330
0
330
0
330
0
330
0
330
0
330
0
330
0
330
0
330
0
330
0
330
0
330
0
330
0
330
0
330
0
330
0
330
0
330
0
330
0
330
0
330
0
330
0
330
0
330
0
330
0
330
0
330
0
330
0
330
0
330
0
330
0
330
0
330
0
330
0
330
0
330
0
330
0
330
0
330
0
330
0
330
0
330
0
330
0
330
0
330
0
330
0
330
0
330
0
330
0
330
0
330
0
330
0
330
0
330
0
330
0
330
0
330
0
330
0
330
0
330
0
330
0
330
0
330
0
330
0
330
0
330
0
330
0
330
0
330
0
330
0
330
0
330
0
330
0
330
0
330
0
330
0
330
0
330
0
330
0
330
0
330
0
330
0
330
0
330
0
330
0
330
0
330
0
330
0
330
0
330
0
330
0
330
0
330
0
330
0
330
0
330
0
330
0
330
0
330
0
330
0
330
0
330
0
330
0
330
0
330
0
330
0
330
0
330
0
330
0
330
0
330
0
330
0
330
0
330
0
330
0
330
0
330
0
330
0
330
0
330
0
330
0
330
0
330
0
330
0
330
0
330
0
330
0
330
0
330
0
330
0
330
0
330
0
330
0
330
0
330
0
330
0
330
0
330
0
330
0
330
0
330
0
330
0
330
0
330
0
330
0
330
0
330
0
330
0
330
0
330
0
330
0
330
0
330
0
330
0
330
0
330
0
330
0
330
0
330
0
330
0
330
0
330
0
330
0
330
0
330
0
330
0
330
0
330
0
330
0
330
0
330
0
330
0
330
0
330
0
330
0
330
0
330
0
330
0
330
0
330
0
330
0
330
0
330
0
330
0
330
0
330
0
330
0
330
52A79
330
52A7A
330
52A82
330
52A83
330
52A8B
330
52A8C
330
52A94
330
52A95
330
52A9D
330
52A9E
330
52AA8
330
52AA9
330
52AB1
330
52AB2
330
52ABC
330
52ABD
330
52AC6
330
52AC7
330
52AD1
330
52AD2
330
52ADA
330
52ADB
330
52AE3
330
52AE4
330
0
330
0
330
0
330
0
330
52B00
330
52B01
330
52B09
330
52B0A
330
52B10
330
52B11
330
53B21
330
53B22
330
52B22
330
52B23
330
0
330
0
330
0
330
0
330
0
330
0
330
0
330
0
330
0
330
0
330
0
330
0
330
0
330
0
330
0
330
0
330
0
330
0
330
0
330
0
330
0
330
0
330
0
330
0
330
0
330
0
330
0
330
0
330
0
330
0
330
0
330
0
330
0
330
0
330
0
330
0
330
0
330
0
330
0
330
0
330
0
330
0
330
0
330
0
330
0
330
0
330
0
330
0
330
0
330
0
330
0
330
0
330
0
330
0
330
0
330
0
330
0
330
0
330
0
330
0
330
0
330
0
330
0
330
0
330
0
330
0
330
0
330
0
330
0
330
0
330
0
330
0
330
0
330
0
330
0
330
0
330
0
330
0
330
0
330
0
330
0
330
0
330
0
330
0
330
0
330
0
330
0
330
0
330
0
330
0
330
0
330
0
330
0
330
0
330
0
330
0
330
0
330
0
330
0
330
0
330
0
330
0
330
0
330
0
330
0
330
0
330
0
330
0
330
0
330
0
330
0
330
0
330
0
330
0
330
0
330
0
330
0
330
0
330
0
330
0
330
0
330
0
330
0
330
0
330
0
330
0
330
0
330
0
330
0
330
0
330
0
330
0
330
0
330
0
330
0
330
0
330
0
330
0
330
0
330
0
330
0
330
0
330
0
330
0
330
0
330
0
330
0
330
0
330
0
330
0
330
0
330
0
330
0
330
0
330
0
330
0
330
0
330
0
330
0
330
0
330
0
330
0
330
0
330
0
330
0
330
0
330
0
330
0
330
0
330
0
330
0
330
0
330
0
330
0
330
0
330
0
330
0
330
0
330
0
330
0
330
0
330
0
330
0
330
0
330
0
330
0
330
0
330
0
330
0
330
0
330
0
330
0
330
0
330
0
330
0
330
0
330
0
330
0
330
0
330
0
330
0
330
0
330
0
330
0
330
0
330
0
330
0
330
0
330
0
330
0
330
0
330
0
330
0
330
0
330
0
330
0
330
0
330
0
330
0
330
0
330
0
330
0
330
0
330
0
330
0
330
0
330
0
330
0
330
0
330
0
330
0
330
0
330
0
330
0
330
0
330
0
330
0
330
0
330
0
330
0
330
0
330
0
330
0
330
0
330
0
330
0
330
0
330
0
330
0
330
0
330
0
330
0
330
0
330
0
330
0
330
0
330
0
330
0
330
0
330
0
330
0
330
0
330
0
330
0
330
0
330
0
330
0
330
0
330
0
330
0
330
0
330
0
330
0
330
0
330
0
330
0
330
0
330
0
330
0
330
0
330
0
330
0
330
0
330
0
330
0
330
0
330
0
330
0
330
0
330
0
330
0
330
0
330
0
330
0
330
0
330
0
330
0
330
0
330
0
330
0
330
0
330
0
330
0
330
0
330
0
330
0
330
0
330
0
330
0
330
0
330
0
330
0
330
0
330
0
330
0
330
0
330
0
330
0
330
0
330
0
330
0
330
0
330
0
330
0
330
0
330
0
330
0
330
0
330
0
330
0
330
0
330
0
330
0
330
0
330
0
330
0
330
0
330
0
330
0
330
0
330
0
330
0
330
0
330
0
330
0
330
0
330
0
330
0
330
0
330
0
330
0
330
0
330
0
330
0
330
0
330
0
330
0
330
0
330
0
330
0
330
0
330
0
330
0
330
0
330
0
330
0
330
0
330
0
330
0
330
0
330
0
330
0
330
0
330
0
330
0
330
0
330
0
330
0
330
0
330
0
330
0
330
0
330
0
330
0
330
0
330
0
330
0
330
0
330
0
330
0
330
0
330
0
330
0
330
0
330
0
330
0
330
0
330
0
330
0
330
0
330
0
330
0
330
0
330
0
330
0
330
0
330
0
330
0
330
0
330
0
330
0
330
0
330
0
330
0
330
0
330
0
330
0
330
0
330
0
330
0
330
0
330
0
330
0
330
0
330
0
330
0
330
0
330
0
330
0
330
0
330
0
330
0
330
0
330
0
330
0
330
0
330
0
330
0
330
0
330
0
330
0
330
0
330
0
330
0
330
0
330
0
330
0
330
0
330
0
330
0
330
0
330
0
330
0
330
0
330
0
330
0
330
0
330
0
330
0
330
0
330
0
330
0
330
0
330
0
330
0
330
0
330
0
330
0
330
0
330
0
330
0
330
0
330
0
330
0
330
0
330
0
330
0
330
0
330
0
330
0
330
0
330
0
330
0
330
0
330
0
330
0
330
0
330
0
330
0
330
0
330
0
330
0
330
0
330
0
330
0
330
0
330
0
330
0
330
0
330
0
330
0
330
0
330
0
330
0
330
0
330
0
330
0
330
0
330
0
330
0
330
0
330
0
330
0
330
0
330
0
330
0
330
0
330
0
330
0
330
0
330
0
330
0
330
0
330
0
330
0
330
0
330
0
330
0
330
0
330
0
330
0
330
0
330
0
330
0
330
0
330
0
330
0
330
0
330
0
330
0
330
0
330
0
330
0
330
0
330
0
330
0
330
0
330
0
330
0
330
0
330
0
330
0
330
0
330
0
330
0
330
0
330
0
330
0
330
0
330
0
330
0
330
0
330
0
330
0
330
0
330
0
330
0
330
0
330
0
330
0
330
0
330
0
330
0
330
0
330
0
330
0
330
0
330
0
330
0
330
0
330
0
330
0
330
0
330
0
330
0
330
0
330
0
330
0
330
0
330
0
330
0
330
0
330
0
330
0
330
0
330
0
330
0
330
0
330
0
330
0
330
0
330
0
330
0
330
0
330
0
330
0
330
0
330
0
330
0
330
0
330
0
330
0
330
0
330
0
330
0
330
0
330
0
330
0
330
0
330
0
330
0
330
0
330
0
330
0
330
0
330
0
330
0
330
0
330
0
330
0
330
0
330
0
330
0
330
0
330
0
330
0
330
0
330
0
330
0
330
0
330
0
330
0
330
0
330
0
330
0
330
0
330
0
330
0
330
0
330
0
330
0
330
0
330
0
330
0
330
0
330
0
330
0
330
0
330
0
330
0
330
0
330
0
330
0
330
0
330
0
330
0
330
0
330
0
330
0
330
0
330
0
330
0
330
0
330
0
330
0
330
0
330
0
330
0
330
0
330
0
330
0
330
0
330
0
330
0
330
0
330
0
330
0
330
0
330
0
330
0
330
0
330
0
330
0
330
0
330
0
330
0
330
0
330
0
330
0
330
0
330
0
330
0
330
0
330
0
330
0
330
0
330
0
330
0
330
0
330
0
330
0
330
0
330
0
330
0
330
0
330
0
330
0
330
0
330
0
330
0
330
0
330
0
330
0
330
0
330
0
330
0
330
0
330
0
330
0
330
0
330
0
330
0
330
0
330
0
330
0
330
0
330
0
330
0
330
0
330
0
330
0
330
0
330
0
330
0
330
0
330
0
330
0
330
0
330
0
330
0
330
0
330
0
330
0
330
0
330
0
330
0
330
0
330
0
330
0
330
0
330
0
330
0
330
0
330
0
330
0
330
0
330
0
330
0
330
0
330
0
330
0
330
0
330
0
330
0
330
0
330
0
330
0
330
0
330
0
330
0
330
0
330
0
330
0
330
0
330
0
330
0
330
0
330
0
330
0
330
0
330
0
330
0
330
0
330
0
330
0
330
0
330
0
330
0
330
0
330
0
330
0
330
0
330
0
330
0
330
0
330
0
330
0
330
0
330
0
330
0
330
0
330
0
330
0
330
0
330
0
330
0
330
0
330
0
330
0
330
0
330
0
330
0
330
0
330
0
330
0
330
0
330
0
330
0
330
0
330
0
330
0
330
0
330
0
330
0
330
0
330
0
330
0
330
0
330
0
330
0
330
0
330
0
330
0
330
0
330
0
330
0
330
0
330
0
330
0
330
0
330
0
330
0
330
0
330
0
  0
XRECORD
  5
3FB7
102
{ACAD_REACTORS
330
3F96
102
}
330
3F96
100
AcDbXrecord
280
     1
 91
        3
330
0
 90
        8
 62
     7
370
    40
331
16
  1
Color_7
330
0
 90
        0
 62
    14
370
    -3
331
16
  1
Color_14
330
0
 90
        8
 62
     7
370
    20
331
16
  1
Color_7
330
6D1
 90
        0
 62
     7
370
    -3
331
16
  1
Color_7
330
0
 90
        8
 62
     7
370
    50
331
16
  1
Color_7
330
0
 90
        8
 62
     2
370
    35
331
16
  1
Color_2
330
0
 90
        8
 62
     7
370
    -3
331
16
  1
Color_7
330
10
 90
        8
 62
     7
370
    -3
331
16
  1
Color_7
  0
DICTIONARY
  5
5B555
330
22
100
AcDbDictionary
280
     1
281
     1
  3
ACAD_XREC_ROUNDTRIP
360
5B556
  0
DICTIONARY
  5
5B553
330
1E
100
AcDbDictionary
280
     1
281
     1
  3
ACAD_XREC_ROUNDTRIP
360
5B554
  0
DICTIONARY
  5
5B557
330
26
100
AcDbDictionary
280
     1
281
     1
  3
ACAD_XREC_ROUNDTRIP
360
5B558
  0
DICTIONARY
  5
5B55D
330
B0EF
100
AcDbDictionary
280
     1
281
     1
  3
ACAD_XREC_ROUNDTRIP
360
5B55E
  0
DICTIONARY
  5
5B55B
330
B0EE
100
AcDbDictionary
280
     1
281
     1
  3
ACAD_XREC_ROUNDTRIP
360
5B55C
  0
DICTIONARY
  5
5B55F
330
B0F0
100
AcDbDictionary
280
     1
281
     1
  3
ACAD_XREC_ROUNDTRIP
360
5B560
  0
DICTIONARY
  5
5B559
330
AABA
100
AcDbDictionary
280
     1
281
     1
  3
ACAD_XREC_ROUNDTRIP
360
5B55A
  0
XRECORD
  5
5B556
102
{ACAD_REACTORS
330
5B555
102
}
330
5B555
100
AcDbXrecord
280
     1
102
SHADEPLOT
 70
     0
102
SHADEPLOTRESLEVEL
 70
     2
102
SHADEPLOTCUSTOMDPI
 70
   200
  0
XRECORD
  5
5B554
102
{ACAD_REACTORS
330
5B553
102
}
330
5B553
100
AcDbXrecord
280
     1
102
SHADEPLOT
 70
     0
102
SHADEPLOTRESLEVEL
 70
     2
102
SHADEPLOTCUSTOMDPI
 70
   300
  0
XRECORD
  5
5B558
102
{ACAD_REACTORS
330
5B557
102
}
330
5B557
100
AcDbXrecord
280
     1
102
SHADEPLOT
 70
     0
102
SHADEPLOTRESLEVEL
 70
     2
102
SHADEPLOTCUSTOMDPI
 70
   300
  0
XRECORD
  5
5B55E
102
{ACAD_REACTORS
330
5B55D
102
}
330
5B55D
100
AcDbXrecord
280
     1
102
MATERIAL
148
0.0
149
0.0
149
0.0
 93
        0
 94
       63
282
     0
 72
     1
 77
     1
171
     1
175
     1
179
     1
273
     0
  0
XRECORD
  5
5B55C
102
{ACAD_REACTORS
330
5B55B
102
}
330
5B55B
100
AcDbXrecord
280
     1
102
MATERIAL
148
0.0
149
0.0
149
0.0
 93
        0
 94
       63
282
     0
 72
     1
 77
     1
171
     1
175
     1
179
     1
273
     0
  0
XRECORD
  5
5B560
102
{ACAD_REACTORS
330
5B55F
102
}
330
5B55F
100
AcDbXrecord
280
     1
102
MATERIAL
148
0.0
149
0.0
149
0.0
 93
        0
 94
       63
282
     0
 72
     1
 77
     1
171
     1
175
     1
179
     1
273
     0
  0
XRECORD
  5
5B55A
102
{ACAD_REACTORS
330
5B559
102
}
330
5B559
100
AcDbXrecord
280
     1
102
ACAD_ROUNDTRIP_PRE2007_TABLESTYLE
 90
        4
 91
        0
  1

 92
        4
 93
        0
  2

 94
        4
 95
        0
  3

  0
ENDSEC
  0
EOF
