  0
SECTION
  2
HEADER
  9
$ACADVER
  1
AC1015
  9
$ACADMAINTVER
 70
    20
  9
$DWGCODEPAGE
  3
ANSI_932
  9
$INSBASE
 10
0.0
 20
0.0
 30
0.0
  9
$EXTMIN
 10
6074.924675701049
 20
-5995.494061601078
 30
0.0
  9
$EXTMAX
 10
6371.924675701049
 20
-5785.494061601079
 30
0.0
  9
$LIMMIN
 10
3779.599158088851
 20
100.7134268036752
  9
$LIMMAX
 10
9719.599158088852
 20
4300.713426803675
  9
$ORTHOMODE
 70
     0
  9
$REGENMODE
 70
     1
  9
$FILLMODE
 70
     1
  9
$QTEXTMODE
 70
     0
  9
$MIRRTEXT
 70
     0
  9
$LTSCALE
 40
1.0
  9
$ATTMODE
 70
     1
  9
$TEXTSIZE
 40
3.2
  9
$TRACEWID
 40
1.0
  9
$TEXTSTYLE
  7
STANDARD
  9
$CLAYER
  8
0部品18
  9
$CELTYPE
  6
ByLayer
  9
$CECOLOR
 62
   256
  9
$CELTSCALE
 40
1.0
  9
$DISPSILH
 70
     0
  9
$DIMSCALE
 40
1.0
  9
$DIMASZ
 40
1.0
  9
$DIMEXO
 40
1.0
  9
$DIMDLI
 40
10.0
  9
$DIMRND
 40
0.0
  9
$DIMDLE
 40
0.0
  9
$DIMEXE
 40
1.0
  9
$DIMTP
 40
0.1
  9
$DIMTM
 40
0.1
  9
$DIMTXT
 40
3.5
  9
$DIMCEN
 40
0.0
  9
$DIMTSZ
 40
0.0
  9
$DIMTOL
 70
     0
  9
$DIMLIM
 70
     0
  9
$DIMTIH
 70
     0
  9
$DIMTOH
 70
     0
  9
$DIMSE1
 70
     0
  9
$DIMSE2
 70
     0
  9
$DIMTAD
 70
     1
  9
$DIMZIN
 70
     8
  9
$DIMBLK
  1

  9
$DIMASO
 70
     1
  9
$DIMSHO
 70
     1
  9
$DIMPOST
  1

  9
$DIMAPOST
  1
"
  9
$DIMALT
 70
     0
  9
$DIMALTD
 70
     2
  9
$DIMALTF
 40
0.0393701
  9
$DIMLFAC
 40
1.0
  9
$DIMTOFL
 70
     1
  9
$DIMTVP
 40
0.0
  9
$DIMTIX
 70
     0
  9
$DIMSOXD
 70
     0
  9
$DIMSAH
 70
     0
  9
$DIMBLK1
  1

  9
$DIMBLK2
  1

  9
$DIMSTYLE
  2
SYS
  9
$DIMCLRD
 70
   256
  9
$DIMCLRE
 70
   256
  9
$DIMCLRT
 70
     7
  9
$DIMTFAC
 40
0.71
  9
$DIMGAP
 40
1.5
  9
$DIMJUST
 70
     0
  9
$DIMSD1
 70
     0
  9
$DIMSD2
 70
     0
  9
$DIMTOLJ
 70
     0
  9
$DIMTZIN
 70
     8
  9
$DIMALTZ
 70
     0
  9
$DIMALTTZ
 70
     0
  9
$DIMUPT
 70
     0
  9
$DIMDEC
 70
     2
  9
$DIMTDEC
 70
     2
  9
$DIMALTU
 70
     2
  9
$DIMALTTD
 70
     2
  9
$DIMTXSTY
  7
STANDARD
  9
$DIMAUNIT
 70
     0
  9
$DIMADEC
 70
     0
  9
$DIMALTRND
 40
0.0
  9
$DIMAZIN
 70
     2
  9
$DIMDSEP
 70
    46
  9
$DIMATFIT
 70
     3
  9
$DIMFRAC
 70
     0
  9
$DIMLDRBLK
  1

  9
$DIMLUNIT
 70
     2
  9
$DIMLWD
 70
    -1
  9
$DIMLWE
 70
    -1
  9
$DIMTMOVE
 70
     0
  9
$LUNITS
 70
     2
  9
$LUPREC
 70
     2
  9
$SKETCHINC
 40
1.0
  9
$FILLETRAD
 40
1.5
  9
$AUNITS
 70
     0
  9
$AUPREC
 70
     0
  9
$MENU
  1
.
  9
$ELEVATION
 40
0.0
  9
$PELEVATION
 40
0.0
  9
$THICKNESS
 40
0.0
  9
$LIMCHECK
 70
     0
  9
$CHAMFERA
 40
0.0
  9
$CHAMFERB
 40
0.0
  9
$CHAMFERC
 40
20.0
  9
$CHAMFERD
 40
0.0
  9
$SKPOLY
 70
     0
  9
$TDCREATE
 40
2455567.680725081
  9
$TDUCREATE
 40
2455567.305725081
  9
$TDUPDATE
 40
2456343.629329063
  9
$TDUUPDATE
 40
2456343.254329063
  9
$TDINDWG
 40
8.0061474190
  9
$TDUSRTIMER
 40
8.0061457870
  9
$USRTIMER
 70
     1
  9
$ANGBASE
 50
0.0
  9
$ANGDIR
 70
     0
  9
$PDMODE
 70
     0
  9
$PDSIZE
 40
-3.0
  9
$PLINEWID
 40
0.0
  9
$SPLFRAME
 70
     0
  9
$SPLINETYPE
 70
     6
  9
$SPLINESEGS
 70
     8
  9
$HANDSEED
  5
5B66D
  9
$SURFTAB1
 70
     6
  9
$SURFTAB2
 70
     6
  9
$SURFTYPE
 70
     6
  9
$SURFU
 70
     6
  9
$SURFV
 70
     6
  9
$UCSBASE
  2

  9
$UCSNAME
  2

  9
$UCSORG
 10
0.0
 20
0.0
 30
0.0
  9
$UCSXDIR
 10
1.0
 20
0.0
 30
0.0
  9
$UCSYDIR
 10
0.0
 20
1.0
 30
0.0
  9
$UCSORTHOREF
  2

  9
$UCSORTHOVIEW
 70
     0
  9
$UCSORGTOP
 10
0.0
 20
0.0
 30
0.0
  9
$UCSORGBOTTOM
 10
0.0
 20
0.0
 30
0.0
  9
$UCSORGLEFT
 10
0.0
 20
0.0
 30
0.0
  9
$UCSORGRIGHT
 10
0.0
 20
0.0
 30
0.0
  9
$UCSORGFRONT
 10
0.0
 20
0.0
 30
0.0
  9
$UCSORGBACK
 10
0.0
 20
0.0
 30
0.0
  9
$PUCSBASE
  2

  9
$PUCSNAME
  2

  9
$PUCSORG
 10
0.0
 20
0.0
 30
0.0
  9
$PUCSXDIR
 10
1.0
 20
0.0
 30
0.0
  9
$PUCSYDIR
 10
0.0
 20
1.0
 30
0.0
  9
$PUCSORTHOREF
  2

  9
$PUCSORTHOVIEW
 70
     0
  9
$PUCSORGTOP
 10
0.0
 20
0.0
 30
0.0
  9
$PUCSORGBOTTOM
 10
0.0
 20
0.0
 30
0.0
  9
$PUCSORGLEFT
 10
0.0
 20
0.0
 30
0.0
  9
$PUCSORGRIGHT
 10
0.0
 20
0.0
 30
0.0
  9
$PUCSORGFRONT
 10
0.0
 20
0.0
 30
0.0
  9
$PUCSORGBACK
 10
0.0
 20
0.0
 30
0.0
  9
$USERI1
 70
     0
  9
$USERI2
 70
     0
  9
$USERI3
 70
     0
  9
$USERI4
 70
     0
  9
$USERI5
 70
     0
  9
$USERR1
 40
0.0
  9
$USERR2
 40
0.0
  9
$USERR3
 40
0.0
  9
$USERR4
 40
0.0
  9
$USERR5
 40
0.0
  9
$WORLDVIEW
 70
     1
  9
$SHADEDGE
 70
     3
  9
$SHADEDIF
 70
    70
  9
$TILEMODE
 70
     1
  9
$MAXACTVP
 70
    64
  9
$PINSBASE
 10
0.0
 20
0.0
 30
0.0
  9
$PLIMCHECK
 70
     0
  9
$PEXTMIN
 10
1.000000000000000E+20
 20
1.000000000000000E+20
 30
1.000000000000000E+20
  9
$PEXTMAX
 10
-1.000000000000000E+20
 20
-1.000000000000000E+20
 30
-1.000000000000000E+20
  9
$PLIMMIN
 10
-3.17498779296875
 20
-3.174999952316284
  9
$PLIMMAX
 10
293.4970092773438
 20
206.692492723465
  9
$UNITMODE
 70
     0
  9
$VISRETAIN
 70
     1
  9
$PLINEGEN
 70
     0
  9
$PSLTSCALE
 70
     1
  9
$TREEDEPTH
 70
  3020
  9
$CMLSTYLE
  2
Standard
  9
$CMLJUST
 70
     0
  9
$CMLSCALE
 40
20.0
  9
$PROXYGRAPHICS
 70
     1
  9
$MEASUREMENT
 70
     1
  9
$CELWEIGHT
370
    -1
  9
$ENDCAPS
280
     0
  9
$JOINSTYLE
280
     0
  9
$LWDISPLAY
290
     1
  9
$INSUNITS
 70
     4
  9
$HYPERLINKBASE
  1

  9
$STYLESHEET
  1
monochrome.ctb
  9
$XEDIT
290
     1
  9
$CEPSNTYPE
380
     0
  9
$PSTYLEMODE
290
     1
  9
$FINGERPRINTGUID
  2
{487E49EE-344A-43F6-800E-CE119D8346FF}
  9
$VERSIONGUID
  2
{322A1B47-B306-4313-9EF4-CBEA0FBF9376}
  9
$EXTNAMES
290
     1
  9
$PSVPSCALE
 40
0.0
  9
$OLESTARTUP
290
     0
  0
ENDSEC
  0
SECTION
  2
CLASSES
  0
CLASS
  1
ACDBDICTIONARYWDFLT
  2
AcDbDictionaryWithDefault
  3
ObjectDBX Classes
 90
        0
280
     0
281
     0
  0
CLASS
  1
ACDBPLACEHOLDER
  2
AcDbPlaceHolder
  3
ObjectDBX Classes
 90
        0
280
     0
281
     0
  0
CLASS
  1
LAYOUT
  2
AcDbLayout
  3
ObjectDBX Classes
 90
        0
280
     0
281
     0
  0
CLASS
  1
AMGSETTINGSOBJ
  2
AmgSettingsObj
  3
"AcadM|Product Description: AutoCAD Mechanical|Company: Autodesk"
 90
        0
280
     0
281
     0
  0
CLASS
  1
ACME_DOCUMENT
  2
AcMeDbDoc
  3
AcMeServices
 90
        0
280
     0
281
     0
  0
CLASS
  1
ACMESCOPE
  2
AcMeScope
  3
AcMeServices
 90
        0
280
     0
281
     0
  0
CLASS
  1
ACMECOMMANDHISTORY
  2
AcMeCommandHistory
  3
AcMeServices
 90
        0
280
     0
281
     0
  0
CLASS
  1
DICTIONARYVAR
  2
AcDbDictionaryVar
  3
ObjectDBX Classes
 90
        0
280
     0
281
     0
  0
CLASS
  1
ACIMSYSVARMAN
  2
AcImSysVarManager
  3
AcMeServices
 90
        0
280
     0
281
     0
  0
CLASS
  1
ACIMREALSYSVAR
  2
AcImRealSysVar
  3
AcMeServices
 90
        0
280
     0
281
     0
  0
CLASS
  1
ACIMINTSYSVAR
  2
AcImIntSysVar
  3
AcMeServices
 90
        0
280
     0
281
     0
  0
CLASS
  1
ACMEDRAWINGMAN
  2
AcMeDrawingMan
  3
AcMeServices
 90
        0
280
     0
281
     0
  0
CLASS
  1
ACMEVIEW
  2
AcMeView
  3
AcMeServices
 90
        0
280
     0
281
     0
  0
CLASS
  1
ACDBENTITYCACHE
  2
AcMeEntityCache
  3
AcMeServices
 90
        0
280
     0
281
     0
  0
CLASS
  1
GSMANAGER
  2
AcMeGSManager
  3
AcMeServices
 90
        0
280
     0
281
     0
  0
CLASS
  1
AMDTINTERNALREACTOR
  2
AmdtInternalReactor
  3
AcMeServices
 90
        0
280
     0
281
     0
  0
CLASS
  1
ACMESTATEMGR
  2
AcMeStateMgr
  3
AcMeServices
 90
        0
280
     0
281
     0
  0
CLASS
  1
ACGREFMASTER
  2
AcGrefMaster
  3
AcAttribServices
 90
        0
280
     0
281
     0
  0
CLASS
  1
ACME_DATABASE
  2
AcMeDbDatabase
  3
AcMeServices
 90
        0
280
     0
281
     0
  0
CLASS
  1
ACRFINSADJUSTERMGR
  2
AcRfInsAdjusterMgr
  3
AcMeServices
 90
        0
280
     0
281
     0
  0
CLASS
  1
ACGREFACADMASTER
  2
AcGrefacadMaster
  3
AcGrefServices
 90
        0
280
     0
281
     0
  0
CLASS
  1
AMIMASTER
  2
AmiMaster
  3
AmiServices
 90
        0
280
     0
281
     0
  0
CLASS
  1
ACMDATADICTIONARY
  2
AcmDataDictionary
  3
"AcmSymBB|Product Description: AutoCAD Mechanical|Company: Autodesk"
 90
        0
280
     0
281
     0
  0
CLASS
  1
ACMDATAENTRYBLOCK
  2
AcmDataEntryBlock
  3
"AcmSymBB|Product Description: AutoCAD Mechanical|Company: Autodesk"
 90
        0
280
     0
281
     0
  0
CLASS
  1
ACIMSTRSYSVAR
  2
AcImStrSysVar
  3
AcMeServices
 90
        0
280
     0
281
     0
  0
CLASS
  1
ACMSTANDARDISO
  2
AcmStandardISO
  3
"Amdt_StdImp|Product Description: AutoCAD Mechanical|Company: Autodesk"
 90
        0
280
     0
281
     0
  0
CLASS
  1
AMGOBJPROPCFG
  2
AmgObjPropCfg
  3
"AmgLay|Product Description: AutoCAD Mechanical|Company: Autodesk"
 90
        1
280
     0
281
     0
  0
CLASS
  1
AMDTEDGESTANDARDISO
  2
AmdtEdgeStdISO
  3
"Amdt_StdImp|Product Description: AutoCAD Mechanical|Company: Autodesk"
 90
        0
280
     0
281
     0
  0
CLASS
  1
ACMSURFSTANDARDISO
  2
AcmSurfTextStdISO
  3
"Amdt_StdImp|Product Description: AutoCAD Mechanical|Company: Autodesk"
 90
        0
280
     0
281
     0
  0
CLASS
  1
ACMFCFSTANDARDISO
  2
AcmFCFStdISO
  3
"Amdt_StdImp|Product Description: AutoCAD Mechanical|Company: Autodesk"
 90
        0
280
     0
281
     0
  0
CLASS
  1
ACMWELDSTANDARDISO
  2
AcmWeldingStdISO
  3
"Amdt_StdImp|Product Description: AutoCAD Mechanical|Company: Autodesk"
 90
        0
280
     0
281
     0
  0
CLASS
  1
ACMIDSTANDARDISO
  2
AcmIdStdISO
  3
"Amdt_StdImp|Product Description: AutoCAD Mechanical|Company: Autodesk"
 90
        0
280
     0
281
     0
  0
CLASS
  1
ACMDATUMSTANDARDISO
  2
AcmDatumStdISO
  3
"Amdt_StdImp|Product Description: AutoCAD Mechanical|Company: Autodesk"
 90
        0
280
     0
281
     0
  0
CLASS
  1
ACMBOMSTANDARDISO
  2
AcmBOMStdISO
  3
"Amdt_StdImp|Product Description: AutoCAD Mechanical|Company: Autodesk"
 90
        0
280
     0
281
     0
  0
CLASS
  1
ACMDETAILSTANDARDISO
  2
AmdtDetailSymStdISO
  3
"Amdt_StdImp|Product Description: AutoCAD Mechanical|Company: Autodesk"
 90
        0
280
     0
281
     0
  0
CLASS
  1
ACMSECTIONSTANDARDISO
  2
AmdtSectionSymStdISO
  3
"Amdt_StdImp|Product Description: AutoCAD Mechanical|Company: Autodesk"
 90
        0
280
     0
281
     0
  0
CLASS
  1
ACMCENTERLINESTANDARDISO
  2
AmdtCenterLineStdISO
  3
"Amdt_StdImp|Product Description: AutoCAD Mechanical|Company: Autodesk"
 90
        0
280
     0
281
     0
  0
CLASS
  1
ACAMGLAYSTD
  2
AcAmgLayStd
  3
"AmgLay|Product Description: AutoCAD Mechanical|Company: Autodesk"
 90
        0
280
     0
281
     0
  0
CLASS
  1
ACAMGDIMSTD
  2
AcAmgDimStd
  3
"AmgDim|Product Description: AutoCAD Mechanical|Company: Autodesk"
 90
        0
280
     0
281
     0
  0
CLASS
  1
ACAMGTITLESTD
  2
AcAmgTitleStd
  3
"AmgTitle|Product Description: AutoCAD Mechanical|Company: Autodesk"
 90
        0
280
     0
281
     0
  0
CLASS
  1
ACAMGFILTERDAT
  2
AcAmgFilterDat
  3
"AcadM|Product Description: AutoCAD Mechanical|Company: Autodesk"
 90
        0
280
     0
281
     0
  0
CLASS
  1
LAYER_INDEX
  2
AcDbLayerIndex
  3
ObjectDBX Classes
 90
    32768
280
     0
281
     0
  0
CLASS
  1
IDBUFFER
  2
AcDbIdBuffer
  3
ObjectDBX Classes
 90
    32768
280
     0
281
     0
  0
CLASS
  1
PLOTSETTINGS
  2
AcDbPlotSettings
  3
ObjectDBX Classes
 90
    32768
280
     0
281
     0
  0
CLASS
  1
AMDTFORMULAUPDATEDISPATCHER
  2
AmdtFormulaUpdateDispatcher
  3
AcMeServices
 90
        0
280
     0
281
     0
  0
CLASS
  1
ACMSTANDARDANSI
  2
AcmStandardANSI
  3
"Amdt_StdImp|Product Description: AutoCAD Mechanical|Company: Autodesk"
 90
        0
280
     0
281
     0
  0
CLASS
  1
ACMSURFSTANDARDANSI
  2
AcmSurfTextStdANSI
  3
"Amdt_StdImp|Product Description: AutoCAD Mechanical|Company: Autodesk"
 90
        0
280
     0
281
     0
  0
CLASS
  1
ACMFCFSTANDARDANSI
  2
AcmFCFStdANSI
  3
"Amdt_StdImp|Product Description: AutoCAD Mechanical|Company: Autodesk"
 90
        0
280
     0
281
     0
  0
CLASS
  1
ACMWELDSTANDARDANSI
  2
AcmWeldingStdANSI
  3
"Amdt_StdImp|Product Description: AutoCAD Mechanical|Company: Autodesk"
 90
        0
280
     0
281
     0
  0
CLASS
  1
ACMIDSTANDARDANSI
  2
AcmIdStdANSI
  3
"Amdt_StdImp|Product Description: AutoCAD Mechanical|Company: Autodesk"
 90
        0
280
     0
281
     0
  0
CLASS
  1
ACMDATUMSTANDARDANSI
  2
AcmDatumStdANSI
  3
"Amdt_StdImp|Product Description: AutoCAD Mechanical|Company: Autodesk"
 90
        0
280
     0
281
     0
  0
CLASS
  1
ACMBOMSTANDARDANSI
  2
AcmBOMStdANSI
  3
"Amdt_StdImp|Product Description: AutoCAD Mechanical|Company: Autodesk"
 90
        0
280
     0
281
     0
  0
CLASS
  1
ACMDETAILSTANDARDANSI
  2
AmdtDetailSymStdANSI
  3
"Amdt_StdImp|Product Description: AutoCAD Mechanical|Company: Autodesk"
 90
        0
280
     0
281
     0
  0
CLASS
  1
ACMSECTIONSTANDARDANSI
  2
AmdtSectionSymStdANSI
  3
"Amdt_StdImp|Product Description: AutoCAD Mechanical|Company: Autodesk"
 90
        0
280
     0
281
     0
  0
CLASS
  1
ACMCENTERLINESTANDARDANSI
  2
AmdtCenterLineStdANSI
  3
"Amdt_StdImp|Product Description: AutoCAD Mechanical|Company: Autodesk"
 90
        0
280
     0
281
     0
  0
CLASS
  1
ACMBOM
  2
AcmBom
  3
"AcmSymBB|Product Description: AutoCAD Mechanical|Company: Autodesk"
 90
        0
280
     0
281
     0
  0
CLASS
  1
ACMDATAENTRYPART
  2
AcmDataEntryPart
  3
"AcmSymBB|Product Description: AutoCAD Mechanical|Company: Autodesk"
 90
    32768
280
     0
281
     0
  0
CLASS
  1
ACMPARTREF
  2
AcmPartRef
  3
"AcmSymBB|Product Description: AutoCAD Mechanical|Company: Autodesk"
 90
    35839
280
     0
281
     1
  0
CLASS
  1
ACDBCIRCARCRES
  2
AcDbCircArcRes
  3
AcGrefServices
 90
    32768
280
     0
281
     0
  0
CLASS
  1
ACMBOMROW
  2
AcmBomRow
  3
"AcmSymBB|Product Description: AutoCAD Mechanical|Company: Autodesk"
 90
    32768
280
     0
281
     0
  0
CLASS
  1
ACMBALLOON
  2
AcmBalloon
  3
"AcmSymBB|Product Description: AutoCAD Mechanical|Company: Autodesk"
 90
    35839
280
     0
281
     1
  0
CLASS
  1
AMDTNOTE
  2
AmdtNote
  3
"AcmSymBB|Product Description: AutoCAD Mechanical|Company: Autodesk"
 90
    35839
280
     0
281
     1
  0
CLASS
  1
STDPART2D
  2
AmgStdPart
  3
"AmgStdPart|Product Description: AutoCAD Mechanical|Company: Autodesk"
 90
    35839
280
     0
281
     1
  0
CLASS
  1
ACDBSTDPARTRES_LINE
  2
AcDbStdPartRes_Line
  3
"AmgStdPart|Product Description: AutoCAD Mechanical|Company: Autodesk"
 90
    32768
280
     0
281
     0
  0
CLASS
  1
ACMDATAENTRY
  2
AcmDataEntry
  3
"AcmSymBB|Product Description: AutoCAD Mechanical|Company: Autodesk"
 90
        0
280
     0
281
     0
  0
CLASS
  1
ACDBOPPOLYLINERES
  2
AcDbOpPolylineRes
  3
AcGrefServices
 90
    32768
280
     0
281
     0
  0
CLASS
  1
ACMPARTLIST
  2
AcmPartList
  3
"AcmSymBB|Product Description: AutoCAD Mechanical|Company: Autodesk"
 90
    35839
280
     0
281
     1
  0
CLASS
  1
ACDBLINERES
  2
AcDbLineRes
  3
AcGrefServices
 90
        0
280
     0
281
     0
  0
CLASS
  1
ACRFINSADJ
  2
AcRfInsAdjuster
  3
AcMeServices
 90
    32768
280
     0
281
     0
  0
CLASS
  1
AM_DRAWING_MGR
  2
AcDmDwgMgr
  3
AcMechDwgViewMgmt
 90
        0
280
     0
281
     0
  0
CLASS
  1
AM_DWG_DOCUMENT
  2
AcDmDwgDocument
  3
AcMechDwgViewMgmt
 90
        0
280
     0
281
     0
  0
CLASS
  1
AM_DWG_SHEET
  2
AcDmSheet
  3
AcMechDwgViewMgmt
 90
        0
280
     0
281
     0
  0
CLASS
  1
AM_VIEWDIMPARMAP
  2
AcDmViewDimParMap
  3
AcMechDwgViewMgmt
 90
        0
280
     0
281
     0
  0
CLASS
  1
AM_DWGMGR_NAME
  2
AcDmDwgMgrName
  3
AcMechDwgViewMgmt
 90
        0
280
     0
281
     0
  0
CLASS
  1
AMDTMENUSTATEMGR
  2
AmdtMenuStateMgr
  3
McadcomServices
 90
        0
280
     0
281
     0
  0
CLASS
  1
AMDTMCOMMENUSTATE
  2
AmdtMcomMenuState
  3
McadcomServices
 90
        0
280
     0
281
     0
  0
CLASS
  1
ASAPP
  2
AcAsAppObject
  3
AutoSurfServices
 90
        0
280
     0
281
     0
  0
CLASS
  1
IM_STATIC_MAN
  2
AcImStaticVarManager
  3
AcMeServices
 90
        0
280
     0
281
     0
  0
CLASS
  1
ACIMDBLSTATICVAR
  2
AcImDblStaticVar
  3
AcMeServices
 90
        0
280
     0
281
     0
  0
CLASS
  1
ACIMSTRSTATICVAR
  2
AcImStrStaticVar
  3
AcMeServices
 90
        0
280
     0
281
     0
  0
CLASS
  1
ACIMINTSTATICVAR
  2
AcImIntStaticVar
  3
AcMeServices
 90
        0
280
     0
281
     0
  0
CLASS
  1
ACASGREFMASTER
  2
AcAsGrefMaster
  3
AutoSurfResolverServices
 90
        0
280
     0
281
     0
  0
CLASS
  1
ACADGREFMODULE
  2
AcAdGrefModule
  3
AdGrefServices
 90
        0
280
     0
281
     0
  0
CLASS
  1
AMDTMAPISURFMOUDULE
  2
AmdtMApiSurfModule
  3
MApiSurfServices
 90
        0
280
     0
281
     0
  0
CLASS
  1
MAPIAMMOUDLE
  2
MApiAmModule
  3
MApiAmServices
 90
        0
280
     0
281
     0
  0
CLASS
  1
AMDTADMENUSTATE
  2
AmdtAdMenuState
  3
DesignerServices
 90
        0
280
     0
281
     0
  0
CLASS
  1
ADAPPL
  2
AcAdAppl
  3
DesignerServices
 90
        0
280
     0
281
     0
  0
CLASS
  1
DEPMGR
  2
AcAdDepMgr
  3
DesignerServices
 90
        0
280
     0
281
     0
  0
CLASS
  1
PARAMMGR
  2
AcAdParamMgr
  3
DesignerServices
 90
        0
280
     0
281
     0
  0
CLASS
  1
PARAMSCOPE
  2
AcAdParamScope
  3
DesignerServices
 90
        0
280
     0
281
     0
  0
CLASS
  1
NAMEDAPPL
  2
AcAdNamedAppl
  3
DesignerServices
 90
        0
280
     0
281
     0
  0
CLASS
  1
ADHNTMPLT
  2
AdHoleNoteTemplateMgr
  3
DesignerServices
 90
    32768
280
     0
281
     0
  0
CLASS
  1
AM_HNTEMPLATE_MGR_NAME
  2
AdHoleNoteTemplateMgrName
  3
DesignerServices
 90
    32768
280
     0
281
     0
  0
CLASS
  1
AMDTDMMENUSTATE
  2
AmdtDmMenuState
  3
AcMechDwgViewMgmt
 90
        0
280
     0
281
     0
  0
CLASS
  1
MAPIADMODULE
  2
MApiAdModule
  3
MApiAdServices
 90
        0
280
     0
281
     0
  0
CLASS
  1
AMDTAMMENUSTATE
  2
AmdtAmMenuState
  3
DesignerAssemblies
 90
        0
280
     0
281
     0
  0
CLASS
  1
ACAMPROJECT
  2
AcAmProject
  3
DesignerAssemblies
 90
        0
280
     0
281
     0
  0
CLASS
  1
ACAMGRCOMPDEF
  2
AcAmGrCompDef
  3
DesignerAssemblies
 90
        0
280
     0
281
     0
  0
CLASS
  1
ACCMCONTEXT
  2
AcCmContext
  3
DesignerAssemblies
 90
        0
280
     0
281
     0
  0
CLASS
  1
ACAMCOMPDEF
  2
AcAmCompDef
  3
DesignerAssemblies
 90
        0
280
     0
281
     0
  0
CLASS
  1
ACAMCOMPDEFMGR
  2
AcAmCompDefMgr
  3
DesignerAssemblies
 90
        0
280
     0
281
     0
  0
CLASS
  1
AMCONTEXTMGR
  2
AcAmContextMgr
  3
DesignerAssemblies
 90
        0
280
     0
281
     0
  0
CLASS
  1
ACAMCONTEXTMODELER
  2
AcAmContextModeler
  3
DesignerAssemblies
 90
        0
280
     0
281
     0
  0
CLASS
  1
CATALOGSTATE
  2
AcAmCatalogState
  3
DesignerAssemblies
 90
        0
280
     0
281
     0
  0
CLASS
  1
ACAMGRCOMPDEFSET
  2
AcAmGrCompDefSet
  3
DesignerAssemblies
 90
        0
280
     0
281
     0
  0
CLASS
  1
AMDTBROWSERDBTAB
  2
AmdtBrowserDbTab
  3
McadcomServices
 90
        0
280
     0
281
     0
  0
CLASS
  1
CBROWSERAPPOBJECT
  2
CBrowserAppObject
  3
McadcomServices
 90
        0
280
     0
281
     0
  0
CLASS
  1
DM_PLACEHOLDER
  2
AcDmSelsetPlaceholder
  3
AcMechDwgViewMgmt
 90
        0
280
     0
281
     0
  0
CLASS
  1
ACMPICKOBJ
  2
AcmPickEnt
  3
"AcmSymBB|Product Description: AutoCAD Mechanical|Company: Autodesk"
 90
    32768
280
     0
281
     1
  0
CLASS
  1
ACMNOTESTANDARDISO
  2
AmdtNoteStdISO
  3
"Amdt_StdImp|Product Description: AutoCAD Mechanical|Company: Autodesk"
 90
        0
280
     0
281
     0
  0
CLASS
  1
ACMNOTESTANDARDANSI
  2
AmdtNoteStdANSI
  3
"Amdt_StdImp|Product Description: AutoCAD Mechanical|Company: Autodesk"
 90
        0
280
     0
281
     0
  0
CLASS
  1
ACMTHREADLINESTANDARDISO
  2
AmdtThreadLineStdISO
  3
"Amdt_StdImp|Product Description: AutoCAD Mechanical|Company: Autodesk"
 90
        0
280
     0
281
     0
  0
CLASS
  1
ACMTHREADLINESTANDARDANSI
  2
AmdtThreadLineStdANSI
  3
"Amdt_StdImp|Product Description: AutoCAD Mechanical|Company: Autodesk"
 90
        0
280
     0
281
     0
  0
CLASS
  1
TABLESTYLE
  2
AcDbTableStyle
  3
ObjectDBX Classes
 90
     4095
280
     0
281
     0
  0
CLASS
  1
SORTENTSTABLE
  2
AcDbSortentsTable
  3
ObjectDBX Classes
 90
        0
280
     0
281
     0
  0
CLASS
  1
MATERIAL
  2
AcDbMaterial
  3
ObjectDBX Classes
 90
     1153
280
     0
281
     0
  0
CLASS
  1
VISUALSTYLE
  2
AcDbVisualStyle
  3
ObjectDBX Classes
 90
     4095
280
     0
281
     0
  0
CLASS
  1
ACRFATTGENMGR
  2
AcRfAttGeneralMgr
  3
AcAttribServices
 90
        0
280
     0
281
     0
  0
CLASS
  1
ACRFOBJATTMGR
  2
AcRfObjAttGroupMgr
  3
AcAttribServices
 90
        0
280
     0
281
     0
  0
CLASS
  1
ACRFMCADAPIATTHOLDER
  2
AcRfMCADAPIAttHolder
  3
AcAttribServices
 90
        0
280
     0
281
     0
  0
CLASS
  1
AMDTSYSATTR
  2
AmdtSystemAttribute
  3
AcAttribServices
 90
        0
280
     0
281
     0
  0
CLASS
  1
ACMTAPERSTANDARDISO
  2
AcmTaperStdISO
  3
"Amdt_StdImp|Product Description: AutoCAD Mechanical|Company: Autodesk"
 90
        0
280
     0
281
     0
  0
CLASS
  1
CAMSSTRUCTBTNSTATE
  2
StructBtnState
  3
L"DesignerAssemblies"
 90
        0
280
     0
281
     0
  0
CLASS
  1
DIMASSOC
  2
AcDbDimAssoc
  3
"AcDbDimAssoc|Product Desc:     AcDim ARX App For Dimension|Company:          Autodesk, Inc.|WEB Address:      www.autodesk.com"
 90
    32768
280
     0
281
     0
  0
CLASS
  1
EXACXREFPANELOBJECT
  2
ExAcXREFPanelObject
  3
EXAC_ESW
 90
    33793
280
     0
281
     0
  0
CLASS
  1
NPOCOLLECTION
  2
AcDbImpNonPersistentObjectsCollection
  3
ObjectDBX Classes
 90
    33921
280
     0
281
     0
  0
CLASS
  1
AMDTEDGESTANDARDISO13715
  2
AmdtEdgeStdISO13715
  3
"Amdt_StdImp|Product Description: AutoCAD Mechanical|Company: Autodesk"
 90
        0
280
     0
281
     0
  0
CLASS
  1
AMDTNOTETEMPLATEDB
  2
AmdtNoteTemplateDB
  3
AMDT_STDIMP_MODULE_NAME
 90
        0
280
     0
281
     0
  0
CLASS
  1
ACAMGHOLECHARTSTDISO
  2
AcAmgHoleChartStdISO
  3
ACMSYMBB_MODULE_NAME
 90
        0
280
     0
281
     0
  0
CLASS
  1
ACMTAPERSTANDARDANSI
  2
AcmTaperStdANSI
  3
"Amdt_StdImp|Product Description: AutoCAD Mechanical|Company: Autodesk"
 90
        0
280
     0
281
     0
  0
CLASS
  1
ACAMGHOLECHARTSTDANSI
  2
AcAmgHoleChartStdANSI
  3
ACMSYMBB_MODULE_NAME
 90
        0
280
     0
281
     0
  0
CLASS
  1
ACAMSTDPCOMPDEF
  2
AcAmStdpCompDef
  3
DesignerAssemblies
 90
    32768
280
     0
281
     0
  0
CLASS
  1
ACAMCOMP
  2
AcAmComp
  3
DesignerAssemblies
 90
    32768
280
     0
281
     0
  0
CLASS
  1
AC_AM_STDP_VIEW_DEF
  2
AcAmStdpViewDef
  3
DesignerAssemblies
 90
    32768
280
     0
281
     0
  0
CLASS
  1
AC_AM_MVD_DEP_MGR
  2
AcAmMVDdepMgr
  3
DesignerAssemblies
 90
        0
280
     0
281
     0
  0
CLASS
  1
AC_AM_MASTER_VIEW_DEF
  2
AcAmMasterViewDef
  3
DesignerAssemblies
 90
        0
280
     0
281
     0
  0
CLASS
  1
AC_AM_DIRTY_NODES
  2
AcAmDirtyNodes
  3
DesignerAssemblies
 90
        0
280
     0
281
     0
  0
CLASS
  1
AC_AM_MAPPER_CACHE
  2
AcAmMapperCache
  3
DesignerAssemblies
 90
        0
280
     0
281
     0
  0
CLASS
  1
ACAMMVDBACKUPOBJECT
  2
AcAmMVDBackupObject
  3
DesignerAssemblies
 90
        0
280
     0
281
     0
  0
CLASS
  1
AC_AM_COMP_VIEW_INST
  2
AcAmCompView
  3
DesignerAssemblies
 90
    32768
280
     0
281
     0
  0
CLASS
  1
AC_AM_2D_XREF_MGR
  2
AcAmXrefMgr2d
  3
DesignerAssemblies
 90
        0
280
     0
281
     0
  0
CLASS
  1
AC_AM_HIDE_SITUATION
  2
AcAmHideSituation
  3
DesignerAssemblies
 90
    32768
280
     0
281
     0
  0
CLASS
  1
AC_AM_TRANSFORM_GHOST
  2
AcDbTransformGhost
  3
DesignerAssemblies
 90
    32768
280
     0
281
     1
  0
CLASS
  1
L"OBJCLONER"
  2
ObjCloner
  3
DesignerAssemblies
 90
    32768
280
     0
281
     1
  0
ENDSEC
  0
SECTION
  2
TABLES
  0
TABLE
  2
VPORT
  5
8
330
0
100
AcDbSymbolTable
 70
     1
  0
VPORT
  5
B0EC
330
8
100
AcDbSymbolTableRecord
100
AcDbViewportTableRecord
  2
*Active
 70
     0
 10
0.0
 20
0.0
 11
1.0
 21
1.0
 12
6197.450890397271
 22
-5863.724152181338
 13
0.0
 23
0.0
 14
2.5
 24
2.5
 15
10.0
 25
10.0
 16
0.0
 26
0.0
 36
1.0
 17
0.0
 27
0.0
 37
0.0
 40
427.5527733664901
 41
1.702970297029702
 42
50.0
 43
-1370.695619172058
 44
-1370.695619172058
 50
0.0
 51
0.0
 71
     0
 72
   100
 73
     1
 74
     3
 75
     0
 76
     0
 77
     0
 78
     0
281
     0
 65
     0
110
0.0
120
0.0
130
0.0
111
1.0
121
0.0
131
0.0
112
0.0
122
1.0
132
0.0
 79
     0
146
0.0
  0
ENDTAB
  0
TABLE
  2
LTYPE
  5
5
330
0
100
AcDbSymbolTable
 70
    23
  0
LTYPE
  5
14
330
5
100
AcDbSymbolTableRecord
100
AcDbLinetypeTableRecord
  2
ByBlock
 70
     0
  3

 72
    65
 73
     0
 40
0.0
  0
LTYPE
  5
15
330
5
100
AcDbSymbolTableRecord
100
AcDbLinetypeTableRecord
  2
ByLayer
 70
     0
  3

 72
    65
 73
     0
 40
0.0
  0
LTYPE
  5
16
330
5
100
AcDbSymbolTableRecord
100
AcDbLinetypeTableRecord
  2
Continuous
 70
     0
  3
Solid line
 72
    65
 73
     0
 40
0.0
  0
LTYPE
  5
4F
330
5
100
AcDbSymbolTableRecord
100
AcDbLinetypeTableRecord
  2
AM_ISO02W050
 70
     0
  3
__ __ __ __ __ __ __ __ __ __ __ __ __ __ __
 72
    65
 73
     2
 40
7.5
 49
6.0
 74
     0
 49
-1.5
 74
     0
  0
LTYPE
  5
52
330
5
100
AcDbSymbolTableRecord
100
AcDbLinetypeTableRecord
  2
Amconstr
 70
     0
  3
_______________________
 72
    65
 73
     2
 40
9999.0
 49
9999.0
 74
     0
 49
0.0
 74
     0
  0
LTYPE
  5
64
330
5
100
AcDbSymbolTableRecord
100
AcDbLinetypeTableRecord
  2
ACISOWELD
 70
     0
  3
_ _ _ _ _
 72
    65
 73
     2
 40
2.0
 49
2.0
 74
     0
 49
-1.0
 74
     0
  0
LTYPE
  5
65
330
5
100
AcDbSymbolTableRecord
100
AcDbLinetypeTableRecord
  2
ACISOTGB
 70
     0
  3
__ . . __ . .
 72
    65
 73
     6
 40
9.0
 49
4.0
 74
     0
 49
-1.0
 74
     0
 49
1.0
 74
     0
 49
-1.0
 74
     0
 49
1.0
 74
     0
 49
-1.0
 74
     0
  0
LTYPE
  5
66
330
5
100
AcDbSymbolTableRecord
100
AcDbLinetypeTableRecord
  2
ACISOTGL
 70
     0
  3
_ _ _ _ _
 72
    65
 73
     2
 40
3.0
 49
2.0
 74
     0
 49
-1.0
 74
     0
  0
LTYPE
  5
69
330
5
100
AcDbSymbolTableRecord
100
AcDbLinetypeTableRecord
  2
CENTER
 70
     0
  3
__ . __
 72
    65
 73
     4
 40
7.0
 49
4.0
 74
     0
 49
-1.0
 74
     0
 49
1.0
 74
     0
 49
-1.0
 74
     0
  0
LTYPE
  5
A6E
330
5
100
AcDbSymbolTableRecord
100
AcDbLinetypeTableRecord
  2
PHANTOM2
 70
     0
  3
Phantom (.5x) ___ _ _ ___ _ _ ___ _ _ ___ _ _
 72
    65
 73
     6
 40
31.75
 49
15.875
 74
     0
 49
-3.174999999999999
 74
     0
 49
3.174999999999999
 74
     0
 49
-3.174999999999999
 74
     0
 49
3.174999999999999
 74
     0
 49
-3.174999999999999
 74
     0
  0
LTYPE
  5
4DED
330
5
100
AcDbSymbolTableRecord
100
AcDbLinetypeTableRecord
  2
中線
 70
     0
  3
___________________
 72
    65
 73
     2
 40
2.0
 49
1.0
 74
     0
 49
1.0
 74
     0
  0
LTYPE
  5
4DF6
330
5
100
AcDbSymbolTableRecord
100
AcDbLinetypeTableRecord
  2
細線
 70
     0
  3
___________________
 72
    65
 73
     2
 40
2.0
 49
1.0
 74
     0
 49
1.0
 74
     0
  0
LTYPE
  5
4DF7
330
5
100
AcDbSymbolTableRecord
100
AcDbLinetypeTableRecord
  2
太線
 70
     0
  3
___________________
 72
    65
 73
     2
 40
2.0
 49
1.0
 74
     0
 49
1.0
 74
     0
  0
LTYPE
  5
4EA7
330
5
100
AcDbSymbolTableRecord
100
AcDbLinetypeTableRecord
  2
文字
 70
     0
  3
_________________
 72
    65
 73
     2
 40
2.0
 49
1.0
 74
     0
 49
1.0
 74
     0
  0
LTYPE
  5
4EA9
330
5
100
AcDbSymbolTableRecord
100
AcDbLinetypeTableRecord
  2
寸法線
 70
     0
  3
________________
 72
    65
 73
     2
 40
2.0
 49
1.0
 74
     0
 49
1.0
 74
     0
  0
LTYPE
  5
4F12
330
5
100
AcDbSymbolTableRecord
100
AcDbLinetypeTableRecord
  2
ハッチング
 70
     0
  3
_________________
 72
    65
 73
     2
 40
2.0
 49
1.0
 74
     0
 49
1.0
 74
     0
  0
LTYPE
  5
5180
330
5
100
AcDbSymbolTableRecord
100
AcDbLinetypeTableRecord
  2
陰線1
 70
     0
  3
__ __ __ __
 72
    65
 73
     2
 40
4.0
 49
2.2
 74
     0
 49
-1.8
 74
     0
  0
LTYPE
  5
5182
330
5
100
AcDbSymbolTableRecord
100
AcDbLinetypeTableRecord
  2
切断線
 70
     0
  3
/\/-/\/-/\/-/\/-/\/-/\/
 72
    65
 73
     2
 40
11.0001
 49
0.0001
 74
     4
 75
   135
340
56
 46
0.04
 50
0.0
 44
0.0
 45
0.0
 49
-11.0
 74
     0
  0
LTYPE
  5
5183
330
5
100
AcDbSymbolTableRecord
100
AcDbLinetypeTableRecord
  2
想像線1
 70
     0
  3
__ __ __ _____ __ __ ____
 72
    65
 73
     6
 40
14.5
 49
6.0
 74
     0
 49
-1.5
 74
     0
 49
2.0
 74
     0
 49
-1.5
 74
     0
 49
2.0
 74
     0
 49
-1.5
 74
     0
  0
LTYPE
  5
5185
330
5
100
AcDbSymbolTableRecord
100
AcDbLinetypeTableRecord
  2
中心線1
 70
     0
  3
___ _ ___ _ ___
 72
    65
 73
     4
 40
18.0
 49
12.0
 74
     0
 49
-2.0
 74
     0
 49
2.0
 74
     0
 49
-2.0
 74
     0
  0
LTYPE
  5
5188
330
5
100
AcDbSymbolTableRecord
100
AcDbLinetypeTableRecord
  2
補助線
 70
     0
  3
______________
 72
    65
 73
     2
 40
2.0
 49
1.0
 74
     0
 49
1.0
 74
     0
  0
LTYPE
  5
6427
330
5
100
AcDbSymbolTableRecord
100
AcDbLinetypeTableRecord
  2
HIDDEN
 70
     0
  3
Hidden __ __ __ __ __ __ __ __ __ __ __ __ __ _
 72
    65
 73
     2
 40
0.375
 49
0.25
 74
     0
 49
-0.125
 74
     0
  0
LTYPE
  5
AF95
330
5
100
AcDbSymbolTableRecord
100
AcDbLinetypeTableRecord
  2
AM_ISO08W050
 70
     0
  3
____ . ____ . ____ . ____ . ____ . ____ . ____
 72
    65
 73
     4
 40
18.0
 49
12.0
 74
     0
 49
-1.5
 74
     0
 49
3.0
 74
     0
 49
-1.5
 74
     0
  0
LTYPE
  5
FD15
330
5
100
AcDbSymbolTableRecord
100
AcDbLinetypeTableRecord
  2
ACANSTGB
 70
     0
  3
__ . . __ . .
 72
    65
 73
     6
 40
0.35433070866
 49
0.15748031496
 74
     0
 49
-0.03937007874
 74
     0
 49
0.03937007874
 74
     0
 49
-0.03937007874
 74
     0
 49
0.03937007874
 74
     0
 49
-0.03937007874
 74
     0
  0
LTYPE
  5
FD16
330
5
100
AcDbSymbolTableRecord
100
AcDbLinetypeTableRecord
  2
ACANSTGL
 70
     0
  3
_ _ _ _ _
 72
    65
 73
     2
 40
0.11811023622
 49
0.07874015748
 74
     0
 49
-0.03937007874
 74
     0
  0
ENDTAB
  0
TABLE
  2
LAYER
  5
2
102
{ACAD_XDICTIONARY
360
3F95
102
}
330
0
100
AcDbSymbolTable
 70
    18
  0
LAYER
  5
10
330
2
100
AcDbSymbolTableRecord
100
AcDbLayerTableRecord
  2
0
 70
     0
 62
     7
  6
Continuous
370
    -3
390
F
  0
LAYER
  5
6D1
330
2
100
AcDbSymbolTableRecord
100
AcDbLayerTableRecord
  2
Defpoints
 70
     0
 62
     7
  6
Continuous
290
     0
370
    -3
390
F
  0
LAYER
  5
5F85
330
2
100
AcDbSymbolTableRecord
100
AcDbLayerTableRecord
  2
AM_0
 70
     0
 62
     7
  6
中線
370
    25
390
F
1001
AcAecLayerStandard
1000

1000

  0
LAYER
  5
AC9F
330
2
100
AcDbSymbolTableRecord
100
AcDbLayerTableRecord
  2
size
 70
     0
 62
     5
  6
Continuous
290
     0
370
    25
390
F
  0
LAYER
  5
ACA0
330
2
100
AcDbSymbolTableRecord
100
AcDbLayerTableRecord
  2
waku
 70
     0
 62
     7
  6
Continuous
370
    35
390
F
  0
LAYER
  5
ACA1
330
2
100
AcDbSymbolTableRecord
100
AcDbLayerTableRecord
  2
AM_6
 70
     0
 62
     2
  6
文字
370
    15
390
F
1001
AcAecLayerStandard
1000

1000

  0
LAYER
  5
AD64
330
2
100
AcDbSymbolTableRecord
100
AcDbLayerTableRecord
  2
AM_2
 70
     0
 62
     1
  6
細線
370
    15
390
F
1001
AcAecLayerStandard
1000

1000

  0
LAYER
  5
AD68
330
2
100
AcDbSymbolTableRecord
100
AcDbLayerTableRecord
  2
AM_5
 70
     0
 62
     3
  6
寸法線
370
    15
390
F
1001
AcAecLayerStandard
1000

1000

  0
LAYER
  5
B5F5
330
2
100
AcDbSymbolTableRecord
100
AcDbLayerTableRecord
  2
0部品6
 70
     0
 62
    13
  6
細線
370
    30
390
F
1001
AcAecLayerStandard
1000

1000

  0
LAYER
  5
B5F7
330
2
100
AcDbSymbolTableRecord
100
AcDbLayerTableRecord
  2
0部品4
 70
     0
 62
    70
  6
細線
370
    30
390
F
1001
AcAecLayerStandard
1000

1000

  0
LAYER
  5
B5FB
330
2
100
AcDbSymbolTableRecord
100
AcDbLayerTableRecord
  2
0部品18
 70
     0
 62
   254
  6
細線
370
    30
390
F
1001
AcAecLayerStandard
1000

1000

  0
LAYER
  5
B5FC
330
2
100
AcDbSymbolTableRecord
100
AcDbLayerTableRecord
  2
0部品1
 70
     0
 62
   213
  6
細線
370
    30
390
F
1001
AcAecLayerStandard
1000

1000

  0
LAYER
  5
B5FD
330
2
100
AcDbSymbolTableRecord
100
AcDbLayerTableRecord
  2
0部品2
 70
     0
 62
   163
  6
細線
370
    30
390
F
1001
AcAecLayerStandard
1000

1000

  0
LAYER
  5
2E415
102
{ACAD_XDICTIONARY
360
2E416
102
}
330
2
100
AcDbSymbolTableRecord
100
AcDbLayerTableRecord
  2
AM_1
 70
     0
 62
    30
  6
太線
370
    25
390
F
1001
AcAecLayerStandard
1000

1000

  0
LAYER
  5
2EA5A
330
2
100
AcDbSymbolTableRecord
100
AcDbLayerTableRecord
  2
3
 70
     0
 62
     7
  6
Continuous
370
    -3
390
F
  0
LAYER
  5
5B326
330
2
100
AcDbSymbolTableRecord
100
AcDbLayerTableRecord
  2
AM_CL
 70
     0
 62
     1
  6
Amconstr
370
    15
390
F
1001
AcAecLayerStandard
1000

1000

  0
LAYER
  5
5B484
330
2
100
AcDbSymbolTableRecord
100
AcDbLayerTableRecord
  2
AM_7
 70
     0
 62
     4
  6
中心線1
370
    15
390
F
1001
AcAecLayerStandard
1000

1000

  0
LAYER
  5
5B616
102
{ACAD_XDICTIONARY
360
5B617
102
}
330
2
100
AcDbSymbolTableRecord
100
AcDbLayerTableRecord
  2
AM_3
 70
     0
 62
     6
  6
陰線1
370
    15
390
F
1001
AcAecLayerStandard
1000

1000

  0
ENDTAB
  0
TABLE
  2
STYLE
  5
3
330
0
100
AcDbSymbolTable
 70
     7
  0
STYLE
  5
11
330
3
100
AcDbSymbolTableRecord
100
AcDbTextStyleTableRecord
  2
STANDARD
 70
     0
 40
0.0
 41
0.7
 50
0.0
 71
     0
 42
3.2
  3
romans.shx
  4
extfont.shx
  0
STYLE
  5
56
330
3
100
AcDbSymbolTableRecord
100
AcDbTextStyleTableRecord
  2

 70
     1
 40
0.0
 41
1.0
 50
0.0
 71
     0
 42
2.5
  3
ltypeshp.shx
  4

  0
STYLE
  5
58
330
3
100
AcDbSymbolTableRecord
100
AcDbTextStyleTableRecord
  2
ACISOTS
 70
     0
 40
1.0
 41
1.0
 50
0.0
 71
     0
 42
2.5
  3
isocp.shx
  4
extfont.shx
  0
STYLE
  5
63
330
3
100
AcDbSymbolTableRecord
100
AcDbTextStyleTableRecord
  2
ACISOGDT
 70
     0
 40
0.0
 41
1.0
 50
0.0
 71
     0
 42
2.5
  3
amgdt.shx
  4

  0
STYLE
  5
A74
330
3
100
AcDbSymbolTableRecord
100
AcDbTextStyleTableRecord
  2
DIM
 70
     0
 40
0.0
 41
1.0
 50
0.0
 71
     0
 42
2.5
  3
monotxt.shx
  4
extfont.shx
  0
STYLE
  5
FD18
330
3
100
AcDbSymbolTableRecord
100
AcDbTextStyleTableRecord
  2
ACANSTS
 70
     0
 40
1.0
 41
1.0
 50
0.0
 71
     0
 42
0.2
  3
romans.shx
  4
extfont.shx
  0
STYLE
  5
FD19
330
3
100
AcDbSymbolTableRecord
100
AcDbTextStyleTableRecord
  2
ACANSGDT
 70
     0
 40
0.0
 41
1.0
 50
0.0
 71
     0
 42
0.2
  3
amgdt.shx
  4

  0
ENDTAB
  0
TABLE
  2
VIEW
  5
6
330
0
100
AcDbSymbolTable
 70
     6
  0
VIEW
  5
AE1
330
6
100
AcDbSymbolTableRecord
100
AcDbViewTableRecord
  2
AM_VIEW1
 70
     0
 40
2203.896457765668
 10
5264.599158088851
 20
3198.765197920841
 41
2970.0
 11
0.0
 21
0.0
 31
1.0
 12
0.0
 22
0.0
 32
0.0
 42
50.0
 43
-1370.695619172058
 44
-1370.695619172058
 50
0.0
 71
     0
281
     0
 72
     0
  0
VIEW
  5
AE2
330
6
100
AcDbSymbolTableRecord
100
AcDbViewTableRecord
  2
AM_VIEW2
 70
     0
 40
2203.896457765668
 10
8234.599158088851
 20
3198.765197920841
 41
2970.0
 11
0.0
 21
0.0
 31
1.0
 12
0.0
 22
0.0
 32
0.0
 42
50.0
 43
-1370.695619172058
 44
-1370.695619172058
 50
0.0
 71
     0
281
     0
 72
     0
  0
VIEW
  5
AE3
330
6
100
AcDbSymbolTableRecord
100
AcDbViewTableRecord
  2
AM_VIEW3
 70
     0
 40
2203.896457765668
 10
5264.599158088851
 20
1202.661655686509
 41
2970.0
 11
0.0
 21
0.0
 31
1.0
 12
0.0
 22
0.0
 32
0.0
 42
50.0
 43
-1370.695619172058
 44
-1370.695619172058
 50
0.0
 71
     0
281
     0
 72
     0
  0
VIEW
  5
AE4
330
6
100
AcDbSymbolTableRecord
100
AcDbViewTableRecord
  2
AM_VIEW4
 70
     0
 40
2203.896457765668
 10
8234.599158088851
 20
1202.661655686509
 41
2970.0
 11
0.0
 21
0.0
 31
1.0
 12
0.0
 22
0.0
 32
0.0
 42
50.0
 43
-1370.695619172058
 44
-1370.695619172058
 50
0.0
 71
     0
281
     0
 72
     0
  0
VIEW
  5
AE5
330
6
100
AcDbSymbolTableRecord
100
AcDbViewTableRecord
  2
AM_VIEW5
 70
     0
 40
2203.896457765668
 10
6749.599158088852
 20
2200.713426803675
 41
2970.0
 11
0.0
 21
0.0
 31
1.0
 12
0.0
 22
0.0
 32
0.0
 42
50.0
 43
-1370.695619172058
 44
-1370.695619172058
 50
0.0
 71
     0
281
     0
 72
     0
  0
VIEW
  5
AE6
330
6
100
AcDbSymbolTableRecord
100
AcDbViewTableRecord
  2
AM_VIEW6
 70
     0
 40
4407.748837602181
 10
6749.599158088852
 20
2200.713426803675
 41
5939.9406
 11
0.0
 21
0.0
 31
1.0
 12
0.0
 22
0.0
 32
0.0
 42
50.0
 43
-1370.695619172058
 44
-1370.695619172058
 50
0.0
 71
     0
281
     0
 72
     0
  0
ENDTAB
  0
TABLE
  2
UCS
  5
7
330
0
100
AcDbSymbolTable
 70
     0
  0
ENDTAB
  0
TABLE
  2
APPID
  5
9
330
0
100
AcDbSymbolTable
 70
    67
  0
APPID
  5
12
330
9
100
AcDbSymbolTableRecord
100
AcDbRegAppTableRecord
  2
ACAD
 70
     0
  0
APPID
  5
30
330
9
100
AcDbSymbolTableRecord
100
AcDbRegAppTableRecord
  2
MCAD_NO_VIS
 70
     0
  0
APPID
  5
31
330
9
100
AcDbSymbolTableRecord
100
AcDbRegAppTableRecord
  2
ACAD_TEMP_GRAPHIC
 70
     0
  0
APPID
  5
44
330
9
100
AcDbSymbolTableRecord
100
AcDbRegAppTableRecord
  2
ACATTRIBSERVICES
 70
     0
  0
APPID
  5
7A1
330
9
100
AcDbSymbolTableRecord
100
AcDbRegAppTableRecord
  2
GENIUS_GENDIMSH_14
 70
     0
  0
APPID
  5
A49
330
9
100
AcDbSymbolTableRecord
100
AcDbRegAppTableRecord
  2
GENIUS_GENREC_14
 70
     0
  0
APPID
  5
A4A
330
9
100
AcDbSymbolTableRecord
100
AcDbRegAppTableRecord
  2
GENIUS_GENOBJ-N-REC_13
 70
     0
  0
APPID
  5
A4B
330
9
100
AcDbSymbolTableRecord
100
AcDbRegAppTableRecord
  2
GENIUS_GENODEF_13
 70
     0
  0
APPID
  5
A4C
330
9
100
AcDbSymbolTableRecord
100
AcDbRegAppTableRecord
  2
DCO15
 70
     0
  0
APPID
  5
ADC
330
9
100
AcDbSymbolTableRecord
100
AcDbRegAppTableRecord
  2
GENIUS_GENOLIS_13
 70
     0
  0
APPID
  5
ADD
330
9
100
AcDbSymbolTableRecord
100
AcDbRegAppTableRecord
  2
GENIUS_GENOENT_13
 70
     0
  0
APPID
  5
ADE
330
9
100
AcDbSymbolTableRecord
100
AcDbRegAppTableRecord
  2
GENIUS_GENOBJ-N-TIT_13
 70
     0
  0
APPID
  5
ADF
330
9
100
AcDbSymbolTableRecord
100
AcDbRegAppTableRecord
  2
GENIUS_GENTITLE_13
 70
     0
  0
APPID
  5
AE0
330
9
100
AcDbSymbolTableRecord
100
AcDbRegAppTableRecord
  2
GENIUS_GENOREF_13
 70
     0
  0
APPID
  5
AE7
330
9
100
AcDbSymbolTableRecord
100
AcDbRegAppTableRecord
  2
GENIUS_GENSCREG_15
 70
     0
  0
APPID
  5
AE8
330
9
100
AcDbSymbolTableRecord
100
AcDbRegAppTableRecord
  2
GENIUS_GENOBJ-N-SDF_13
 70
     0
  0
APPID
  5
FAF
330
9
100
AcDbSymbolTableRecord
100
AcDbRegAppTableRecord
  2
GENIUS_GENBLLY_14
 70
     0
  0
APPID
  5
FB0
330
9
100
AcDbSymbolTableRecord
100
AcDbRegAppTableRecord
  2
GENIUS_GENTRA_14
 70
     0
  0
APPID
  5
1285
330
9
100
AcDbSymbolTableRecord
100
AcDbRegAppTableRecord
  2
GENIUS_GENDTOL_13
 70
     0
  0
APPID
  5
142D
330
9
100
AcDbSymbolTableRecord
100
AcDbRegAppTableRecord
  2
GENIUS_GENOBJ-N-CEN_13
 70
     0
  0
APPID
  5
1AB5
330
9
100
AcDbSymbolTableRecord
100
AcDbRegAppTableRecord
  2
GENIUS_GENOBJ-N-CRS_13
 70
     0
  0
APPID
  5
1B36
330
9
100
AcDbSymbolTableRecord
100
AcDbRegAppTableRecord
  2
GENIUS_GENOBJ-N-HTC_13
 70
     0
  0
APPID
  5
1B37
330
9
100
AcDbSymbolTableRecord
100
AcDbRegAppTableRecord
  2
GENIUS_GENHATCH_13
 70
     0
  0
APPID
  5
216D
330
9
100
AcDbSymbolTableRecord
100
AcDbRegAppTableRecord
  2
GENIUS_GENOBJ-N-FIL_13
 70
     0
  0
APPID
  5
2356
330
9
100
AcDbSymbolTableRecord
100
AcDbRegAppTableRecord
  2
GEVID990412420
 70
     0
  0
APPID
  5
2357
330
9
100
AcDbSymbolTableRecord
100
AcDbRegAppTableRecord
  2
GEVDC
 70
     0
  0
APPID
  5
2358
330
9
100
AcDbSymbolTableRecord
100
AcDbRegAppTableRecord
  2
GEVCON
 70
     0
  0
APPID
  5
235B
330
9
100
AcDbSymbolTableRecord
100
AcDbRegAppTableRecord
  2
GEVRADREF
 70
     0
  0
APPID
  5
2360
330
9
100
AcDbSymbolTableRecord
100
AcDbRegAppTableRecord
  2
GENIUS_GENBH_13
 70
     0
  0
APPID
  5
2362
330
9
100
AcDbSymbolTableRecord
100
AcDbRegAppTableRecord
  2
GENIUS_GENOBJ-NBEHI-BHF_13
 70
     0
  0
APPID
  5
2364
330
9
100
AcDbSymbolTableRecord
100
AcDbRegAppTableRecord
  2
GENIUS_GENOBJ-NBEHI-BHB_13
 70
     0
  0
APPID
  5
2379
330
9
100
AcDbSymbolTableRecord
100
AcDbRegAppTableRecord
  2
GENIUS_GENOBJ-F-SCPASSM_13
 70
     0
  0
APPID
  5
3D74
330
9
100
AcDbSymbolTableRecord
100
AcDbRegAppTableRecord
  2
GENIUS_GENDIM_13
 70
     0
  0
APPID
  5
3D76
330
9
100
AcDbSymbolTableRecord
100
AcDbRegAppTableRecord
  2
GENIUS_GE3DTOL_13
 70
     0
  0
APPID
  5
3D9C
330
9
100
AcDbSymbolTableRecord
100
AcDbRegAppTableRecord
  2
AD_DRAW
 70
     0
  0
APPID
  5
3DE8
330
9
100
AcDbSymbolTableRecord
100
AcDbRegAppTableRecord
  2
ASURF_PCURVE_APPNAME
 70
     0
  0
APPID
  5
3DED
330
9
100
AcDbSymbolTableRecord
100
AcDbRegAppTableRecord
  2
AMG_3D2D_5.0
 70
     0
  0
APPID
  5
3E1B
330
9
100
AcDbSymbolTableRecord
100
AcDbRegAppTableRecord
  2
DESIGNERASSEMBLIES
 70
     0
  0
APPID
  5
3E20
330
9
100
AcDbSymbolTableRecord
100
AcDbRegAppTableRecord
  2
ACADM_DIM_EDIT
 70
     0
  0
APPID
  5
3E21
330
9
100
AcDbSymbolTableRecord
100
AcDbRegAppTableRecord
  2
AMDT_DM_ADJ
 70
     0
  0
APPID
  5
4143
330
9
100
AcDbSymbolTableRecord
100
AcDbRegAppTableRecord
  2
GENIUS_GENFIL_13
 70
     0
  0
APPID
  5
4144
330
9
100
AcDbSymbolTableRecord
100
AcDbRegAppTableRecord
  2
GENIUS_GENOBJ-N-CHA_13
 70
     0
  0
APPID
  5
4E17
330
9
100
AcDbSymbolTableRecord
100
AcDbRegAppTableRecord
  2
GEVID1008153417
 70
     0
  0
APPID
  5
4E58
330
9
100
AcDbSymbolTableRecord
100
AcDbRegAppTableRecord
  2
GEVID1008153418
 70
     0
  0
APPID
  5
4E5E
330
9
100
AcDbSymbolTableRecord
100
AcDbRegAppTableRecord
  2
GEVID1008153419
 70
     0
  0
APPID
  5
4E64
330
9
100
AcDbSymbolTableRecord
100
AcDbRegAppTableRecord
  2
GEVID1008153420
 70
     0
  0
APPID
  5
4E75
330
9
100
AcDbSymbolTableRecord
100
AcDbRegAppTableRecord
  2
GEVID1008153421
 70
     0
  0
APPID
  5
4EB7
330
9
100
AcDbSymbolTableRecord
100
AcDbRegAppTableRecord
  2
GENIUS_AMGTXT_16
 70
     0
  0
APPID
  5
7645
330
9
100
AcDbSymbolTableRecord
100
AcDbRegAppTableRecord
  2
GENIUS_GENOBJ-N-DIM_13
 70
     0
  0
APPID
  5
AAD0
330
9
100
AcDbSymbolTableRecord
100
AcDbRegAppTableRecord
  2
ACAD_DSTYLE_DIMARC_LENGTH_SYMBOL
 70
     0
  0
APPID
  5
AAD1
330
9
100
AcDbSymbolTableRecord
100
AcDbRegAppTableRecord
  2
ACAD_DSTYLE_DIMJOGGED_JOGANGLE_SYMBOL
 70
     0
  0
APPID
  5
AAFD
330
9
100
AcDbSymbolTableRecord
100
AcDbRegAppTableRecord
  2
ACAD_PSEXT
 70
     0
  0
APPID
  5
AD61
330
9
100
AcDbSymbolTableRecord
100
AcDbRegAppTableRecord
  2
AcAecLayerStandard
 70
     0
  0
APPID
  5
AEE3
330
9
100
AcDbSymbolTableRecord
100
AcDbRegAppTableRecord
  2
ACAD_EXEMPT_FROM_CAD_STANDARDS
 70
     0
  0
APPID
  5
B1BE
330
9
100
AcDbSymbolTableRecord
100
AcDbRegAppTableRecord
  2
GENIUS_GENCEN_19
 70
     0
  0
APPID
  5
B4E1
330
9
100
AcDbSymbolTableRecord
100
AcDbRegAppTableRecord
  2
ACAD_MLEADERVER
 70
     0
  0
APPID
  5
C488
330
9
100
AcDbSymbolTableRecord
100
AcDbRegAppTableRecord
  2
ACAD_DSTYLE_DIMINSPECT
 70
     0
  0
APPID
  5
C489
330
9
100
AcDbSymbolTableRecord
100
AcDbRegAppTableRecord
  2
ACAD_DSTYLE_DIMRADIAL_EXTENSION
 70
     0
  0
APPID
  5
1980E
330
9
100
AcDbSymbolTableRecord
100
AcDbRegAppTableRecord
  2
GEVID1311583542
 70
     0
  0
APPID
  5
19825
330
9
100
AcDbSymbolTableRecord
100
AcDbRegAppTableRecord
  2
AMG_2DHIDE
 70
     0
  0
APPID
  5
19826
330
9
100
AcDbSymbolTableRecord
100
AcDbRegAppTableRecord
  2
AMG_2DSTRUCT_BTR
 70
     0
  0
APPID
  5
19837
330
9
100
AcDbSymbolTableRecord
100
AcDbRegAppTableRecord
  2
ACADM_2DVIEW_IGN_NOTIFY
 70
     0
  0
APPID
  5
1B56B
330
9
100
AcDbSymbolTableRecord
100
AcDbRegAppTableRecord
  2
GEVID1311583543
 70
     0
  0
APPID
  5
1B5F6
330
9
100
AcDbSymbolTableRecord
100
AcDbRegAppTableRecord
  2
GEVID1311583544
 70
     0
  0
APPID
  5
1B61B
330
9
100
AcDbSymbolTableRecord
100
AcDbRegAppTableRecord
  2
GEVID1311583545
 70
     0
  0
APPID
  5
1B63D
330
9
100
AcDbSymbolTableRecord
100
AcDbRegAppTableRecord
  2
GEVID1311583546
 70
     0
  0
APPID
  5
1B675
330
9
100
AcDbSymbolTableRecord
100
AcDbRegAppTableRecord
  2
GEVID1311583547
 70
     0
  0
ENDTAB
  0
TABLE
  2
DIMSTYLE
  5
A
330
0
100
AcDbSymbolTable
 70
    25
100
AcDbDimStyleTable
 71
     3
340
2515
340
251A
340
251B
  0
DIMSTYLE
105
A76
330
A
100
AcDbSymbolTableRecord
100
AcDbDimStyleTableRecord
  2
STANDARD
 70
     0
 41
3.0
 42
1.0
 43
7.0
 44
2.0
 73
     0
 74
     0
 77
     1
140
2.799999999999999
141
0.0
143
0.0394
147
0.7
171
     4
172
     1
173
     1
176
     3
177
     3
178
     2
271
     3
272
     3
273
     8
274
     4
289
     0
340
A74
341
A66
343
A66
344
A66
  0
DIMSTYLE
105
2515
330
A
100
AcDbSymbolTableRecord
100
AcDbDimStyleTableRecord
  2
SYS
 70
     0
  4
"
 41
1.0
 42
1.0
 43
10.0
 44
1.0
 47
0.1
 48
0.1
 73
     0
 74
     0
 77
     1
 78
     8
 79
     2
140
3.5
141
0.0
143
0.0393701
146
0.71
147
1.5
172
     1
176
   256
177
   256
178
     7
271
     2
272
     2
283
     0
284
     8
340
11
371
    -1
372
    -1
1001
ACAD_DSTYLE_DIMJOGGED_JOGANGLE_SYMBOL
1070
   384
1040
0.7853981633974483
1001
ACAD_DSTYLE_DIMARC_LENGTH_SYMBOL
1070
   379
1070
     1
  0
DIMSTYLE
105
2516
102
{ACAD_REACTORS
330
4EBA4
330
5B401
102
}
330
A
100
AcDbSymbolTableRecord
100
AcDbDimStyleTableRecord
  2
SYS$3
 70
     0
  4
"
 41
2.0
 42
1.0
 43
10.0
 44
1.0
 47
0.1
 48
0.1
 73
     0
 77
     1
 78
     8
 79
     2
140
3.2
141
0.0
143
0.0393701
146
0.71
147
1.0
176
   256
177
   256
178
     2
271
     2
272
     2
283
     0
284
     8
288
     1
340
11
342
A66
371
    -1
372
    -1
1001
ACAD_DSTYLE_DIMJOGGED_JOGANGLE_SYMBOL
1070
   384
1040
0.7853981633974483
1001
ACAD_DSTYLE_DIMARC_LENGTH_SYMBOL
1070
   379
1070
     1
  0
DIMSTYLE
105
2517
330
A
100
AcDbSymbolTableRecord
100
AcDbDimStyleTableRecord
  2
SYS$4
 70
     0
  4
"
 41
2.0
 42
1.0
 43
10.0
 44
1.0
 47
0.1
 48
0.1
 73
     0
 77
     1
 78
     8
 79
     2
140
3.2
141
0.0
143
0.0393701
146
0.71
147
1.0
173
     1
176
   256
177
   256
178
     2
271
     2
272
     2
283
     0
284
     8
288
     1
340
11
344
A66
371
    -1
372
    -1
1001
ACAD_DSTYLE_DIMJOGGED_JOGANGLE_SYMBOL
1070
   384
1040
0.7853981633974483
1001
ACAD_DSTYLE_DIMARC_LENGTH_SYMBOL
1070
   379
1070
     1
  0
DIMSTYLE
105
2518
330
A
100
AcDbSymbolTableRecord
100
AcDbDimStyleTableRecord
  2
SYS$6
 70
     0
  4
"
 41
2.0
 42
1.0
 43
10.0
 44
1.0
 47
0.1
 48
0.1
 73
     0
 74
     0
 78
     8
 79
     2
140
3.2
141
0.0
143
0.0393701
146
0.71
147
1.0
172
     1
176
   256
177
   256
178
     2
271
     2
272
     2
283
     0
284
     8
340
11
341
A66
371
    -1
372
    -1
1001
ACAD_DSTYLE_DIMJOGGED_JOGANGLE_SYMBOL
1070
   384
1040
0.7853981633974483
1001
ACAD_DSTYLE_DIMARC_LENGTH_SYMBOL
1070
   379
1070
     1
  0
DIMSTYLE
105
2519
330
A
100
AcDbSymbolTableRecord
100
AcDbDimStyleTableRecord
  2
SYS$7
 70
     0
  4
"
 41
2.0
 42
1.0
 43
10.0
 44
1.0
 47
0.1
 48
0.1
 73
     0
 74
     0
 77
     1
 78
     8
 79
     2
140
3.2
141
0.0
143
0.0393701
146
0.71
147
1.0
172
     1
176
   256
177
   256
178
     2
271
     2
272
     2
283
     0
284
     8
340
11
341
A66
342
A66
371
    -1
372
    -1
1001
ACAD_DSTYLE_DIMJOGGED_JOGANGLE_SYMBOL
1070
   384
1040
0.7853981633974483
1001
ACAD_DSTYLE_DIMARC_LENGTH_SYMBOL
1070
   379
1070
     1
  0
DIMSTYLE
105
251A
330
A
100
AcDbSymbolTableRecord
100
AcDbDimStyleTableRecord
  2
SYS$SF
 70
     0
  4
"
 41
2.5
 42
1.0
 43
10.0
 44
1.0
 47
0.1
 48
0.1
 73
     0
 74
     0
 75
     1
 76
     1
 77
     1
 78
     8
 79
     2
140
3.2
141
0.0
143
0.0393701
146
0.71
147
1.0
172
     1
176
   256
177
   256
178
     2
271
     2
272
     2
283
     0
284
     8
340
11
341
6C4
342
6C4
371
    -1
372
    -1
1001
ACAD_DSTYLE_DIMJOGGED_JOGANGLE_SYMBOL
1070
   384
1040
0.7853981633974483
1001
ACAD_DSTYLE_DIMARC_LENGTH_SYMBOL
1070
   379
1070
     1
  0
DIMSTYLE
105
251B
330
A
100
AcDbSymbolTableRecord
100
AcDbDimStyleTableRecord
  2
SYS$SH
 70
     0
  4
"
 41
2.5
 42
1.0
 43
10.0
 44
1.0
 47
0.1
 48
0.1
 73
     0
 74
     0
 75
     1
 76
     1
 77
     1
 78
     8
 79
     2
140
3.2
141
0.0
143
0.0393701
144
2.0
146
0.71
147
1.0
172
     1
173
     1
176
   256
177
   256
178
     2
271
     2
272
     2
283
     0
284
     8
340
11
341
6C4
343
72
344
6C4
371
    -1
372
    -1
1001
ACAD_DSTYLE_DIMJOGGED_JOGANGLE_SYMBOL
1070
   384
1040
0.7853981633974483
1001
ACAD_DSTYLE_DIMARC_LENGTH_SYMBOL
1070
   379
1070
     1
  0
DIMSTYLE
105
2A59
330
A
100
AcDbSymbolTableRecord
100
AcDbDimStyleTableRecord
  2
SYS$2
 70
     0
  4
"
 41
1.0
 42
1.0
 43
10.0
 44
1.0
 47
0.1
 48
0.1
 73
     0
 74
     0
 77
     1
 78
     8
 79
     2
140
3.2
141
0.0
143
0.0393701
146
0.71
147
1.0
172
     1
176
   256
177
   256
178
     2
271
     2
272
     2
283
     0
284
     8
340
11
342
6C4
371
    -1
372
    -1
1001
ACAD_DSTYLE_DIMJOGGED_JOGANGLE_SYMBOL
1070
   384
1040
0.7853981633974483
1001
ACAD_DSTYLE_DIMARC_LENGTH_SYMBOL
1070
   379
1070
     1
  0
DIMSTYLE
105
2AAB
102
{ACAD_REACTORS
330
4E92A
330
4E964
330
4E99E
330
4E9C5
330
4E9FF
330
4EA28
330
4EA68
330
4EA98
330
4EAC7
330
4EAEE
330
4EB1D
330
4EB33
330
4EB49
330
4EBFF
330
4EC26
330
4EC4D
102
}
330
A
100
AcDbSymbolTableRecord
100
AcDbDimStyleTableRecord
  2
SYS$0
 70
     0
  4
"
 41
1.0
 42
1.0
 43
10.0
 44
1.0
 47
0.1
 48
0.1
 73
     0
 74
     0
 77
     1
 78
     8
 79
     2
140
3.200000000000001
141
0.0
143
0.0393701
146
0.71
147
1.0
172
     1
176
   256
177
   256
178
     2
271
     2
272
     2
283
     0
284
     8
340
11
341
A66
342
6C4
371
    -1
372
    -1
1001
ACAD_DSTYLE_DIMJOGGED_JOGANGLE_SYMBOL
1070
   384
1040
0.7853981633974483
1001
ACAD_DSTYLE_DIMARC_LENGTH_SYMBOL
1070
   379
1070
     1
  0
DIMSTYLE
105
AF99
330
A
100
AcDbSymbolTableRecord
100
AcDbDimStyleTableRecord
  2
AM_ISO
 70
     0
  4
"
 41
2.5
 42
1.0
 43
10.0
 44
1.0
 47
0.1
 48
0.1
 73
     0
 74
     0
 77
     1
 78
     8
 79
     2
140
3.5
141
0.0
143
0.0393701
146
0.71
147
1.5
172
     1
176
   256
177
   256
178
     2
271
     2
272
     3
274
     4
283
     0
284
     8
340
11
371
    -1
372
    -1
  0
DIMSTYLE
105
AF9A
330
A
100
AcDbSymbolTableRecord
100
AcDbDimStyleTableRecord
  2
AM_ISO$3
 70
     0
  4
"
 41
2.5
 42
1.0
 43
10.0
 44
1.0
 47
0.1
 48
0.1
 73
     0
 77
     1
 78
     8
 79
     2
140
3.5
141
0.0
143
0.0393701
146
0.71
147
1.5
176
   256
177
   256
178
     2
271
     2
272
     3
274
     4
283
     0
284
     8
288
     1
289
     0
340
11
371
    -1
372
    -1
  0
DIMSTYLE
105
AF9B
330
A
100
AcDbSymbolTableRecord
100
AcDbDimStyleTableRecord
  2
AM_ISO$4
 70
     0
  4
"
 41
2.5
 42
1.0
 43
10.0
 44
1.0
 47
0.1
 48
0.1
 73
     0
 77
     1
 78
     8
 79
     2
140
3.5
141
0.0
143
0.0393701
146
0.71
147
1.5
176
   256
177
   256
178
     2
271
     2
272
     3
274
     4
283
     0
284
     8
288
     1
289
     0
340
11
371
    -1
372
    -1
  0
DIMSTYLE
105
AF9C
330
A
100
AcDbSymbolTableRecord
100
AcDbDimStyleTableRecord
  2
AM_ISO$6
 70
     0
  4
"
 41
2.5
 42
1.0
 43
10.0
 44
1.0
 47
0.1
 48
0.1
 73
     0
 74
     0
 78
     8
 79
     2
140
3.5
141
0.0
143
0.0393701
146
0.71
147
1.5
172
     1
176
   256
177
   256
178
     2
271
     2
272
     3
274
     4
283
     0
284
     8
340
11
371
    -1
372
    -1
  0
DIMSTYLE
105
AF9D
330
A
100
AcDbSymbolTableRecord
100
AcDbDimStyleTableRecord
  2
AM_ISO$7
 70
     0
  4
"
 41
2.5
 42
1.0
 43
10.0
 44
1.0
 47
0.1
 48
0.1
 73
     0
 74
     0
 77
     1
 78
     8
 79
     2
140
5.0
141
0.0
143
0.0393701
146
0.71
147
1.5
172
     1
176
   256
177
   256
178
     2
271
     2
272
     3
274
     4
283
     0
284
     8
340
11
371
    -1
372
    -1
  0
DIMSTYLE
105
AF9E
330
A
100
AcDbSymbolTableRecord
100
AcDbDimStyleTableRecord
  2
AM_ISO$SF
 70
     0
  4
"
 41
2.5
 42
1.0
 43
10.0
 44
1.0
 47
0.1
 48
0.1
 73
     0
 74
     0
 75
     1
 76
     1
 77
     1
 78
     8
 79
     2
140
3.5
141
0.0
143
0.0393701
146
0.71
147
1.5
172
     1
176
   256
177
   256
178
     2
271
     2
272
     3
274
     4
283
     0
284
     8
340
11
371
    -1
372
    -1
  0
DIMSTYLE
105
AF9F
330
A
100
AcDbSymbolTableRecord
100
AcDbDimStyleTableRecord
  2
AM_ISO$SH
 70
     0
  4
"
 41
2.5
 42
1.0
 43
10.0
 44
1.0
 47
0.1
 48
0.1
 73
     0
 74
     0
 75
     1
 76
     1
 77
     1
 78
     8
 79
     2
140
3.5
141
0.0
143
0.0393701
144
2.0
146
0.71
147
1.5
172
     1
173
     1
176
   256
177
   256
178
     2
271
     2
272
     3
274
     4
283
     0
284
     8
340
11
343
72
371
    -1
372
    -1
  0
DIMSTYLE
105
B60C
330
A
100
AcDbSymbolTableRecord
100
AcDbDimStyleTableRecord
  2
AM_ANSI
 70
     0
  4
mm
 41
0.1
 42
0.05
 43
0.5
 44
0.1
 47
0.1
 48
0.1
 78
     7
 79
     2
140
0.12
141
0.0
146
0.71
147
0.06
176
   256
177
   256
178
     2
274
     4
284
     7
340
11
371
    -1
372
    -1
  0
DIMSTYLE
105
C485
330
A
100
AcDbSymbolTableRecord
100
AcDbDimStyleTableRecord
  2
AM_ISO$0
 70
     0
  4
"
 41
0.8
 42
1.0
 43
10.0
 44
1.0
 47
0.1
 48
0.1
 73
     0
 74
     0
 77
     1
 78
     8
 79
     2
140
3.2
141
0.0
143
0.0393701
146
0.71
147
0.9999999999999996
172
     1
176
   256
177
   256
178
     2
271
     2
272
     2
283
     0
284
     8
340
11
341
6C4
342
6C4
371
    -1
372
    -1
1001
ACAD_DSTYLE_DIMJOGGED_JOGANGLE_SYMBOL
1070
   384
1040
0.7853981633974483
1001
ACAD_DSTYLE_DIMARC_LENGTH_SYMBOL
1070
   379
1070
     1
  0
DIMSTYLE
105
C486
330
A
100
AcDbSymbolTableRecord
100
AcDbDimStyleTableRecord
  2
AM_ISO$2
 70
     0
  4
"
 41
0.8
 42
1.0
 43
10.0
 44
1.0
 47
0.1
 48
0.1
 73
     0
 74
     0
 77
     3
 78
     8
 79
     2
140
3.200000000000001
141
0.0
143
0.0393701
146
0.71
147
0.9999999999999996
172
     1
176
   256
177
   256
178
     2
271
     2
272
     2
283
     0
284
     8
340
11
342
6C4
371
    -1
372
    -1
1001
ACAD_DSTYLE_DIMJOGGED_JOGANGLE_SYMBOL
1070
   384
1040
0.7853981633974483
1001
ACAD_DSTYLE_DIMARC_LENGTH_SYMBOL
1070
   379
1070
     1
  0
DIMSTYLE
105
FD1A
330
A
100
AcDbSymbolTableRecord
100
AcDbDimStyleTableRecord
  2
AM_ANSI$3
 70
     0
  4
mm
 41
0.1
 42
0.05
 43
0.5
 44
0.1
 47
0.1
 48
0.1
 78
     7
 79
     2
140
0.12
141
0.0
146
0.71
147
0.06
176
   256
177
   256
178
     2
274
     4
284
     7
288
     1
289
     0
340
11
371
    -1
372
    -1
1001
ACAD_DSTYLE_DIMARC_LENGTH_SYMBOL
1070
   379
1070
     1
  0
DIMSTYLE
105
FD1B
330
A
100
AcDbSymbolTableRecord
100
AcDbDimStyleTableRecord
  2
AM_ANSI$4
 70
     0
  4
mm
 41
0.1
 42
0.05
 43
0.5
 44
0.1
 47
0.1
 48
0.1
 78
     7
 79
     2
140
0.12
141
0.0
146
0.71
147
0.06
176
   256
177
   256
178
     2
274
     4
284
     7
288
     1
289
     0
340
11
371
    -1
372
    -1
1001
ACAD_DSTYLE_DIMARC_LENGTH_SYMBOL
1070
   379
1070
     1
  0
DIMSTYLE
105
FD1C
330
A
100
AcDbSymbolTableRecord
100
AcDbDimStyleTableRecord
  2
AM_ANSI$7
 70
     0
  4
mm
 41
0.1
 42
0.05
 43
0.5
 44
0.1
 47
0.1
 48
0.1
 78
     7
 79
     2
140
0.24
141
0.0
146
0.71
147
0.06
176
   256
177
   256
178
     2
274
     4
284
     7
340
11
371
    -1
372
    -1
1001
ACAD_DSTYLE_DIMARC_LENGTH_SYMBOL
1070
   379
1070
     1
  0
DIMSTYLE
105
FD1D
330
A
100
AcDbSymbolTableRecord
100
AcDbDimStyleTableRecord
  2
AM_ANSI$SF
 70
     0
  4
mm
 41
0.1
 42
0.05
 43
0.5
 44
0.1
 47
0.1
 48
0.1
 75
     1
 76
     1
 78
     7
 79
     2
140
0.12
141
0.0
146
0.71
147
0.06
176
   256
177
   256
178
     2
274
     4
284
     7
340
11
371
    -1
372
    -1
1001
ACAD_DSTYLE_DIMARC_LENGTH_SYMBOL
1070
   379
1070
     1
  0
DIMSTYLE
105
FD1E
330
A
100
AcDbSymbolTableRecord
100
AcDbDimStyleTableRecord
  2
AM_ANSI$SH
 70
     0
  4
mm
 41
0.1
 42
0.05
 43
0.5
 44
0.1
 47
0.1
 48
0.1
 75
     1
 76
     1
 78
     7
 79
     2
140
0.12
141
0.0
146
0.71
147
0.06
173
     1
176
   256
177
   256
178
     2
274
     4
284
     7
340
11
343
72
371
    -1
372
    -1
1001
ACAD_DSTYLE_DIMARC_LENGTH_SYMBOL
1070
   379
1070
     1
  0
ENDTAB
  0
TABLE
  2
BLOCK_RECORD
  5
1
330
0
100
AcDbSymbolTable
 70
    40
  0
BLOCK_RECORD
  5
1F
102
{ACAD_XDICTIONARY
360
8A
102
}
330
1
100
AcDbSymbolTableRecord
100
AcDbBlockTableRecord
  2
*Model_Space
340
22
  0
BLOCK_RECORD
  5
1B
330
1
100
AcDbSymbolTableRecord
100
AcDbBlockTableRecord
  2
*Paper_Space
340
1E
  0
BLOCK_RECORD
  5
23
330
1
100
AcDbSymbolTableRecord
100
AcDbBlockTableRecord
  2
*Paper_Space0
340
26
  0
BLOCK_RECORD
  5
72
330
1
100
AcDbSymbolTableRecord
100
AcDbBlockTableRecord
  2
GENAXEH
340
0
  0
BLOCK_RECORD
  5
6C4
330
1
100
AcDbSymbolTableRecord
100
AcDbBlockTableRecord
  2
_Dot
340
0
102
{BLKREFS
331
52D72
331
52D73
331
52DAC
331
52DAD
331
52DEB
331
52DEC
331
5B2B7
331
5B2B8
331
5B2BE
331
5B2BF
331
5B2C7
331
5B2C8
331
5B2F4
331
5B2F5
331
5B2FD
331
5B2FE
331
5B317
331
5B318
331
5B349
331
5B34A
331
5B35B
331
5B35C
331
5B37F
331
5B380
331
5B391
331
5B392
331
5B3BE
331
5B3BF
331
5B3C7
331
5B3C8
331
5B3E9
331
5B3EA
331
5B3F2
331
5B3F3
331
5B3FD
331
5B3FE
331
5B435
331
5B436
331
5B441
331
5B442
331
5B44D
331
5B44E
331
5B459
331
5B45A
331
5B465
331
5B466
331
5B473
331
5B474
331
5B47F
331
5B480
331
5B5D9
331
5B5DA
331
5B5E2
331
5B5E3
331
5B5EB
331
5B5EC
331
5B5F4
331
5B5F5
331
5B5FD
331
5B5FE
331
5B608
331
5B609
331
5B611
331
5B612
331
5B657
331
5B658
102
}
  0
BLOCK_RECORD
  5
A66
330
1
100
AcDbSymbolTableRecord
100
AcDbBlockTableRecord
  2
_OPEN30
340
0
  0
BLOCK_RECORD
  5
4E92B
330
1
100
AcDbSymbolTableRecord
100
AcDbBlockTableRecord
  2
*D7
340
0
  0
BLOCK_RECORD
  5
4E965
330
1
100
AcDbSymbolTableRecord
100
AcDbBlockTableRecord
  2
*D8
340
0
  0
BLOCK_RECORD
  5
4E99F
330
1
100
AcDbSymbolTableRecord
100
AcDbBlockTableRecord
  2
*D9
340
0
  0
BLOCK_RECORD
  5
4E9C6
330
1
100
AcDbSymbolTableRecord
100
AcDbBlockTableRecord
  2
*D10
340
0
  0
BLOCK_RECORD
  5
4EA00
330
1
100
AcDbSymbolTableRecord
100
AcDbBlockTableRecord
  2
*D11
340
0
  0
BLOCK_RECORD
  5
4EA29
330
1
100
AcDbSymbolTableRecord
100
AcDbBlockTableRecord
  2
*D12
340
0
  0
BLOCK_RECORD
  5
4EA69
330
1
100
AcDbSymbolTableRecord
100
AcDbBlockTableRecord
  2
*D13
340
0
  0
BLOCK_RECORD
  5
4EA99
330
1
100
AcDbSymbolTableRecord
100
AcDbBlockTableRecord
  2
*D14
340
0
  0
BLOCK_RECORD
  5
4EAC8
330
1
100
AcDbSymbolTableRecord
100
AcDbBlockTableRecord
  2
*D15
340
0
  0
BLOCK_RECORD
  5
4EAEF
330
1
100
AcDbSymbolTableRecord
100
AcDbBlockTableRecord
  2
*D16
340
0
  0
BLOCK_RECORD
  5
4EB1E
330
1
100
AcDbSymbolTableRecord
100
AcDbBlockTableRecord
  2
*D17
340
0
  0
BLOCK_RECORD
  5
4EB34
330
1
100
AcDbSymbolTableRecord
100
AcDbBlockTableRecord
  2
*D18
340
0
  0
BLOCK_RECORD
  5
4EB4A
330
1
100
AcDbSymbolTableRecord
100
AcDbBlockTableRecord
  2
*D19
340
0
  0
BLOCK_RECORD
  5
4EBA5
330
1
100
AcDbSymbolTableRecord
100
AcDbBlockTableRecord
  2
*D20
340
0
  0
BLOCK_RECORD
  5
4EC00
330
1
100
AcDbSymbolTableRecord
100
AcDbBlockTableRecord
  2
*D21
340
0
  0
BLOCK_RECORD
  5
4EC27
330
1
100
AcDbSymbolTableRecord
100
AcDbBlockTableRecord
  2
*D22
340
0
  0
BLOCK_RECORD
  5
4EC4E
330
1
100
AcDbSymbolTableRecord
100
AcDbBlockTableRecord
  2
*D23
340
0
  0
BLOCK_RECORD
  5
5B402
330
1
100
AcDbSymbolTableRecord
100
AcDbBlockTableRecord
  2
*D25
340
0
  0
ENDTAB
  0
ENDSEC
  0
SECTION
  2
BLOCKS
  0
BLOCK
  5
20
330
1F
100
AcDbEntity
  8
0
100
AcDbBlockBegin
  2
*Model_Space
 70
     0
 10
0.0
 20
0.0
 30
0.0
  3
*Model_Space
  1

  0
ENDBLK
  5
21
330
1F
100
AcDbEntity
  8
0
100
AcDbBlockEnd
  0
BLOCK
  5
1C
330
1B
100
AcDbEntity
 67
     1
  8
0
100
AcDbBlockBegin
  2
*Paper_Space
 70
     0
 10
0.0
 20
0.0
 30
0.0
  3
*Paper_Space
  1

  0
ENDBLK
  5
1D
330
1B
100
AcDbEntity
 67
     1
  8
0
100
AcDbBlockEnd
  0
BLOCK
  5
24
330
23
100
AcDbEntity
 67
     1
  8
0
100
AcDbBlockBegin
  2
*Paper_Space0
 70
     0
 10
0.0
 20
0.0
 30
0.0
  3
*Paper_Space0
  1

  0
ENDBLK
  5
25
330
23
100
AcDbEntity
 67
     1
  8
0
100
AcDbBlockEnd
  0
BLOCK
  5
74
330
72
100
AcDbEntity
  8
0
100
AcDbBlockBegin
  2
GENAXEH
 70
     0
 10
0.0
 20
0.0
 30
0.0
  3
GENAXEH
  1

  0
LINE
  5
73
330
72
100
AcDbEntity
  8
0
100
AcDbLine
 10
-1.0
 20
0.0
 30
0.0
 11
1.0
 21
0.0
 31
0.0
  0
ENDBLK
  5
75
330
72
100
AcDbEntity
  8
0
100
AcDbBlockEnd
  0
BLOCK
  5
6C7
330
6C4
100
AcDbEntity
  8
0
100
AcDbBlockBegin
  2
_Dot
 70
     0
 10
0.0
 20
0.0
 30
0.0
  3
_Dot
  1

  0
LWPOLYLINE
  5
6C5
330
6C4
100
AcDbEntity
  8
0
  6
ByBlock
 62
     0
100
AcDbPolyline
 90
        2
 70
     1
 43
0.5
 10
-0.25
 20
0.0
 42
1.0
 10
0.25
 20
0.0
 42
1.0
  0
LINE
  5
6C6
330
6C4
100
AcDbEntity
  8
0
  6
ByBlock
 62
     0
370
    -2
100
AcDbLine
 10
-0.5
 20
0.0
 30
0.0
 11
-1.0
 21
0.0
 31
0.0
  0
ENDBLK
  5
6C8
330
6C4
100
AcDbEntity
  8
0
100
AcDbBlockEnd
  0
BLOCK
  5
A6A
330
A66
100
AcDbEntity
  8
0
100
AcDbBlockBegin
  2
_OPEN30
 70
     0
 10
0.0
 20
0.0
 30
0.0
  3
_OPEN30
  1

  0
LINE
  5
A67
330
A66
100
AcDbEntity
  8
0
  6
ByBlock
 62
     0
100
AcDbLine
 10
-1.0
 20
0.26794919
 30
0.0
 11
0.0
 21
0.0
 31
0.0
  0
LINE
  5
A68
330
A66
100
AcDbEntity
  8
0
  6
ByBlock
 62
     0
100
AcDbLine
 10
0.0
 20
0.0
 30
0.0
 11
-1.0
 21
-0.26794919
 31
0.0
  0
LINE
  5
A69
330
A66
100
AcDbEntity
  8
0
  6
ByBlock
 62
     0
100
AcDbLine
 10
0.0
 20
0.0
 30
0.0
 11
-1.0
 21
0.0
 31
0.0
  0
ENDBLK
  5
A6B
330
A66
100
AcDbEntity
  8
0
100
AcDbBlockEnd
  0
BLOCK
  5
4E935
330
4E92B
100
AcDbEntity
  8
0
100
AcDbBlockBegin
  2
*D7
 70
     1
 10
0.0
 20
0.0
 30
0.0
  3
*D7
  1

  0
LINE
  5
5B346
330
4E92B
100
AcDbEntity
  8
AM_5
100
AcDbLine
 10
6286.123338457229
 20
-5873.732976608533
 30
0.0
 11
6286.123338457229
 21
-5846.232977608533
 31
0.0
  0
LINE
  5
5B347
330
4E92B
100
AcDbEntity
  8
AM_5
100
AcDbLine
 10
6224.123338457229
 20
-5862.232976608533
 30
0.0
 11
6224.123338457229
 21
-5846.232977608533
 31
0.0
  0
LINE
  5
5B348
330
4E92B
100
AcDbEntity
  8
AM_5
100
AcDbLine
 10
6285.123338457228
 20
-5847.232977608534
 30
0.0
 11
6225.12333845723
 21
-5847.232977608534
 31
0.0
  0
INSERT
  5
5B349
330
4E92B
100
AcDbEntity
  8
AM_5
100
AcDbBlockReference
  2
_Dot
 10
6286.123338457229
 20
-5847.232977608534
 30
0.0
  0
INSERT
  5
5B34A
330
4E92B
100
AcDbEntity
  8
AM_5
100
AcDbBlockReference
  2
_Dot
 10
6224.123338457229
 20
-5847.232977608534
 30
0.0
 50
180.0
  0
MTEXT
  5
5B34B
330
4E92B
100
AcDbEntity
  8
AM_5
 62
     2
100
AcDbMText
 10
6255.12333845723
 20
-5844.632977608533
 30
0.0
 40
3.200000000000001
 41
0.0
 71
     5
 72
     1
  1
（A）
 73
     1
 44
1.0
1001
ACAD
1000
MTEXTBEGIN
1070
    73
1070
     1
1070
    44
1040
1.0
1070
    74
1070
     0
1000
MTEXTEND
  0
POINT
  5
5B34C
330
4E92B
100
AcDbEntity
  8
Defpoints
 62
     0
100
AcDbPoint
 10
6286.123338457229
 20
-5874.732976608533
 30
0.0
  0
POINT
  5
5B34D
330
4E92B
100
AcDbEntity
  8
Defpoints
 62
     0
100
AcDbPoint
 10
6224.123338457229
 20
-5863.232976608533
 30
0.0
  0
POINT
  5
5B34E
330
4E92B
100
AcDbEntity
  8
Defpoints
 62
     0
100
AcDbPoint
 10
6224.123338457229
 20
-5847.232977608534
 30
0.0
  0
ENDBLK
  5
4E936
330
4E92B
100
AcDbEntity
  8
0
100
AcDbBlockEnd
  0
BLOCK
  5
4E96F
330
4E965
100
AcDbEntity
  8
0
100
AcDbBlockBegin
  2
*D8
 70
     1
 10
0.0
 20
0.0
 30
0.0
  3
*D8
  1

  0
LINE
  5
5B37C
330
4E965
100
AcDbEntity
  8
AM_5
100
AcDbLine
 10
6227.624533451161
 20
-5893.732976601317
 30
0.0
 11
6303.123338457228
 21
-5893.732976601317
 31
0.0
  0
LINE
  5
5B37D
330
4E965
100
AcDbEntity
  8
AM_5
100
AcDbLine
 10
6227.626745643415
 20
-5855.732977667197
 30
0.0
 11
6303.123338457228
 21
-5855.732977667197
 31
0.0
  0
LINE
  5
5B37E
330
4E965
100
AcDbEntity
  8
AM_5
100
AcDbLine
 10
6302.123338457228
 20
-5892.732976601317
 30
0.0
 11
6302.123338457228
 21
-5856.732977667197
 31
0.0
  0
INSERT
  5
5B37F
330
4E965
100
AcDbEntity
  8
AM_5
100
AcDbBlockReference
  2
_Dot
 10
6302.123338457228
 20
-5893.732976601317
 30
0.0
 50
270.0
  0
INSERT
  5
5B380
330
4E965
100
AcDbEntity
  8
AM_5
100
AcDbBlockReference
  2
_Dot
 10
6302.123338457228
 20
-5855.732977667197
 30
0.0
 50
90.0
  0
MTEXT
  5
5B381
330
4E965
100
AcDbEntity
  8
AM_5
 62
     2
100
AcDbMText
 10
6299.523338457229
 20
-5874.732976608533
 30
0.0
 40
3.200000000000001
 41
0.0
 71
     5
 72
     1
  1
（B）
 11
0.0000000000000001
 21
1.0
 31
0.0
 73
     1
 44
1.0
1001
ACAD
1000
MTEXTBEGIN
1070
    73
1070
     1
1070
    44
1040
1.0
1070
    74
1070
     0
1000
MTEXTEND
  0
POINT
  5
5B382
330
4E965
100
AcDbEntity
  8
Defpoints
 62
     0
100
AcDbPoint
 10
6226.624533451161
 20
-5893.732976601317
 30
0.0
  0
POINT
  5
5B383
330
4E965
100
AcDbEntity
  8
Defpoints
 62
     0
100
AcDbPoint
 10
6226.626745643415
 20
-5855.732977667197
 30
0.0
  0
POINT
  5
5B384
330
4E965
100
AcDbEntity
  8
Defpoints
 62
     0
100
AcDbPoint
 10
6302.123338457228
 20
-5855.732977667197
 30
0.0
  0
ENDBLK
  5
4E970
330
4E965
100
AcDbEntity
  8
0
100
AcDbBlockEnd
  0
BLOCK
  5
4E9A9
330
4E99F
100
AcDbEntity
  8
0
100
AcDbBlockBegin
  2
*D9
 70
     1
 10
0.0
 20
0.0
 30
0.0
  3
*D9
  1

  0
LINE
  5
5B358
330
4E99F
100
AcDbEntity
  8
AM_5
100
AcDbLine
 10
6263.523338457229
 20
-5886.232976608533
 30
0.0
 11
6295.123338457228
 21
-5886.232976608533
 31
0.0
  0
LINE
  5
5B359
330
4E99F
100
AcDbEntity
  8
AM_5
100
AcDbLine
 10
6263.523338457229
 20
-5863.232976608533
 30
0.0
 11
6295.123338457228
 21
-5863.232976608533
 31
0.0
  0
LINE
  5
5B35A
330
4E99F
100
AcDbEntity
  8
AM_5
100
AcDbLine
 10
6294.123338457228
 20
-5885.232976608533
 30
0.0
 11
6294.123338457228
 21
-5864.232976608533
 31
0.0
  0
INSERT
  5
5B35B
330
4E99F
100
AcDbEntity
  8
AM_5
100
AcDbBlockReference
  2
_Dot
 10
6294.123338457228
 20
-5886.232976608533
 30
0.0
 50
270.0
  0
INSERT
  5
5B35C
330
4E99F
100
AcDbEntity
  8
AM_5
100
AcDbBlockReference
  2
_Dot
 10
6294.123338457228
 20
-5863.232976608533
 30
0.0
 50
90.0
  0
MTEXT
  5
5B35D
330
4E99F
100
AcDbEntity
  8
AM_5
 62
     2
100
AcDbMText
 10
6291.523338457228
 20
-5874.732976608533
 30
0.0
 40
3.200000000000001
 41
0.0
 71
     5
 72
     1
  1
C
 11
0.0000000000000001
 21
1.0
 31
0.0
 73
     1
 44
1.0
1001
ACAD
1000
MTEXTBEGIN
1070
    73
1070
     1
1070
    44
1040
1.0
1070
    74
1070
     0
1000
MTEXTEND
  0
POINT
  5
5B35E
330
4E99F
100
AcDbEntity
  8
Defpoints
 62
     0
100
AcDbPoint
 10
6262.52333845723
 20
-5886.232976608533
 30
0.0
  0
POINT
  5
5B35F
330
4E99F
100
AcDbEntity
  8
Defpoints
 62
     0
100
AcDbPoint
 10
6262.52333845723
 20
-5863.232976608533
 30
0.0
  0
POINT
  5
5B360
330
4E99F
100
AcDbEntity
  8
Defpoints
 62
     0
100
AcDbPoint
 10
6294.123338457228
 20
-5863.232976608533
 30
0.0
  0
ENDBLK
  5
4E9AA
330
4E99F
100
AcDbEntity
  8
0
100
AcDbBlockEnd
  0
BLOCK
  5
4E9D0
330
4E9C6
100
AcDbEntity
  8
0
100
AcDbBlockBegin
  2
*D10
 70
     1
 10
0.0
 20
0.0
 30
0.0
  3
*D10
  1

  0
LINE
  5
52D6F
330
4E9C6
100
AcDbEntity
  8
AM_5
100
AcDbLine
 10
6201.623338457229
 20
-5863.232976608533
 30
0.0
 11
6201.623338457229
 21
-5846.232977608533
 31
0.0
  0
LINE
  5
52D70
330
4E9C6
100
AcDbEntity
  8
AM_5
100
AcDbLine
 10
6179.623338457229
 20
-5861.232976608533
 30
0.0
 11
6179.623338457229
 21
-5846.232977608533
 31
0.0
  0
LINE
  5
52D71
330
4E9C6
100
AcDbEntity
  8
AM_5
100
AcDbLine
 10
6200.62333845723
 20
-5847.232977608534
 30
0.0
 11
6180.62333845723
 21
-5847.232977608534
 31
0.0
  0
INSERT
  5
52D72
330
4E9C6
100
AcDbEntity
  8
AM_5
100
AcDbBlockReference
  2
_Dot
 10
6201.623338457229
 20
-5847.232977608534
 30
0.0
  0
INSERT
  5
52D73
330
4E9C6
100
AcDbEntity
  8
AM_5
100
AcDbBlockReference
  2
_Dot
 10
6179.623338457229
 20
-5847.232977608534
 30
0.0
 50
180.0
  0
MTEXT
  5
52D74
330
4E9C6
100
AcDbEntity
  8
AM_5
 62
     2
100
AcDbMText
 10
6190.623338457231
 20
-5844.632977608533
 30
0.0
 40
3.200000000000001
 41
0.0
 71
     5
 72
     1
  1
（D）
 73
     1
 44
1.0
1001
ACAD
1000
MTEXTBEGIN
1070
    73
1070
     1
1070
    44
1040
1.0
1070
    74
1070
     0
1000
MTEXTEND
  0
POINT
  5
52D75
330
4E9C6
100
AcDbEntity
  8
Defpoints
 62
     0
100
AcDbPoint
 10
6201.623338457229
 20
-5864.232976608533
 30
0.0
  0
POINT
  5
52D76
330
4E9C6
100
AcDbEntity
  8
Defpoints
 62
     0
100
AcDbPoint
 10
6179.623338457229
 20
-5862.232976608533
 30
0.0
  0
POINT
  5
52D77
330
4E9C6
100
AcDbEntity
  8
Defpoints
 62
     0
100
AcDbPoint
 10
6179.623338457229
 20
-5847.232977608534
 30
0.0
  0
ENDBLK
  5
4E9D1
330
4E9C6
100
AcDbEntity
  8
0
100
AcDbBlockEnd
  0
BLOCK
  5
4EA0A
330
4EA00
100
AcDbEntity
  8
0
100
AcDbBlockBegin
  2
*D11
 70
     1
 10
0.0
 20
0.0
 30
0.0
  3
*D11
  1

  0
LINE
  5
5B3BB
330
4EA00
100
AcDbEntity
  8
AM_5
100
AcDbLine
 10
6185.12333845723
 20
-5856.232976608533
 30
0.0
 11
6162.623338457229
 21
-5856.232976608533
 31
0.0
  0
LINE
  5
5B3BC
330
4EA00
100
AcDbEntity
  8
AM_5
100
AcDbLine
 10
6185.12333845723
 20
-5893.232976608533
 30
0.0
 11
6162.623338457229
 21
-5893.232976608533
 31
0.0
  0
LINE
  5
5B3BD
330
4EA00
100
AcDbEntity
  8
AM_5
100
AcDbLine
 10
6163.623338457228
 20
-5857.232976608533
 30
0.0
 11
6163.623338457228
 21
-5892.232976608533
 31
0.0
  0
INSERT
  5
5B3BE
330
4EA00
100
AcDbEntity
  8
AM_5
100
AcDbBlockReference
  2
_Dot
 10
6163.623338457228
 20
-5856.232976608533
 30
0.0
 50
90.0
  0
INSERT
  5
5B3BF
330
4EA00
100
AcDbEntity
  8
AM_5
100
AcDbBlockReference
  2
_Dot
 10
6163.623338457228
 20
-5893.232976608533
 30
0.0
 50
270.0
  0
MTEXT
  5
5B3C0
330
4EA00
100
AcDbEntity
  8
AM_5
 62
     2
100
AcDbMText
 10
6161.02333845723
 20
-5874.732976608531
 30
0.0
 40
3.200000000000001
 41
0.0
 71
     5
 72
     1
  1
E
 11
0.0000000000000001
 21
1.0
 31
0.0
 73
     1
 44
1.0
1001
ACAD
1000
MTEXTBEGIN
1070
    73
1070
     1
1070
    44
1040
1.0
1070
    74
1070
     0
1000
MTEXTEND
  0
POINT
  5
5B3C1
330
4EA00
100
AcDbEntity
  8
Defpoints
 62
     0
100
AcDbPoint
 10
6186.12333845723
 20
-5856.232976608533
 30
0.0
  0
POINT
  5
5B3C2
330
4EA00
100
AcDbEntity
  8
Defpoints
 62
     0
100
AcDbPoint
 10
6186.12333845723
 20
-5893.232976608533
 30
0.0
  0
POINT
  5
5B3C3
330
4EA00
100
AcDbEntity
  8
Defpoints
 62
     0
100
AcDbPoint
 10
6163.623338457228
 20
-5893.232976608533
 30
0.0
  0
ENDBLK
  5
4EA0B
330
4EA00
100
AcDbEntity
  8
0
100
AcDbBlockEnd
  0
BLOCK
  5
4EA35
330
4EA29
100
AcDbEntity
  8
0
100
AcDbBlockBegin
  2
*D12
 70
     1
 10
0.0
 20
0.0
 30
0.0
  3
*D12
  1

  0
LINE
  5
5B38E
330
4EA29
100
AcDbEntity
  8
AM_5
100
AcDbLine
 10
6216.974961669207
 20
-5889.314528453633
 30
0.0
 11
6217.076904935602
 21
-5888.319738239348
 31
0.0
  0
LINE
  5
5B38F
330
4EA29
100
AcDbEntity
  8
AM_5
100
AcDbLine
 10
6216.465243905989
 20
-5894.288493491509
 30
0.0
 11
6215.80057380909
 21
-5900.774525688646
 31
0.0
  0
LINE
  5
5B390
330
4EA29
100
AcDbEntity
  8
AM_5
100
AcDbLine
 10
6216.873018402812
 20
-5890.309318667918
 30
0.0
 11
6216.567187172383
 21
-5893.293703277224
 31
0.0
  0
INSERT
  5
5B391
330
4EA29
100
AcDbEntity
  8
AM_5
100
AcDbBlockReference
  2
_Dot
 10
6216.873018402812
 20
-5890.309318667918
 30
0.0
 50
264.1489165886965
  0
INSERT
  5
5B392
330
4EA29
100
AcDbEntity
  8
AM_5
100
AcDbBlockReference
  2
_Dot
 10
6216.567187172383
 20
-5893.293703277224
 30
0.0
 50
84.14891658869644
  0
MTEXT
  5
5B393
330
4EA29
100
AcDbEntity
  8
AM_5
 62
     2
100
AcDbMText
 10
6213.495482667202
 20
-5897.763852204593
 30
0.0
 40
3.200000000000001
 41
0.0
 71
     5
 72
     1
  1
%%cF
 11
0.1019432663953445
 21
0.9947902142847244
 31
0.0
 73
     1
 44
1.0
1001
ACAD
1000
MTEXTBEGIN
1070
    73
1070
     1
1070
    44
1040
1.0
1070
    74
1070
     0
1000
MTEXTEND
  0
POINT
  5
5B394
330
4EA29
100
AcDbEntity
  8
Defpoints
 62
     0
100
AcDbPoint
 10
6216.873018402818
 20
-5890.309318667919
 30
0.0
  0
POINT
  5
5B395
330
4EA29
100
AcDbEntity
  8
Defpoints
 62
     0
100
AcDbPoint
 10
6216.56718717239
 20
-5893.293703277225
 30
0.0
  0
POINT
  5
5B396
330
4EA29
100
AcDbEntity
  8
Defpoints
 62
     0
100
AcDbPoint
 10
6216.567187172383
 20
-5893.293703277224
 30
0.0
  0
ENDBLK
  5
4EA36
330
4EA29
100
AcDbEntity
  8
0
100
AcDbBlockEnd
  0
BLOCK
  5
4EA73
330
4EA69
100
AcDbEntity
  8
0
100
AcDbBlockBegin
  2
*D13
 70
     1
 10
0.0
 20
0.0
 30
0.0
  3
*D13
  1

  0
LINE
  5
5B3C4
330
4EA69
100
AcDbEntity
  8
AM_5
100
AcDbLine
 10
6283.12333845723
 20
-5944.155834757086
 30
0.0
 11
6297.123338457229
 21
-5944.155834757086
 31
0.0
  0
LINE
  5
5B3C5
330
4EA69
100
AcDbEntity
  8
AM_5
100
AcDbLine
 10
6263.11665645723
 20
-5928.155834757086
 30
0.0
 11
6297.123338457229
 21
-5928.155834757086
 31
0.0
  0
LINE
  5
5B3C6
330
4EA69
100
AcDbEntity
  8
AM_5
100
AcDbLine
 10
6296.123338457229
 20
-5943.155834757086
 30
0.0
 11
6296.123338457229
 21
-5929.155834757086
 31
0.0
  0
INSERT
  5
5B3C7
330
4EA69
100
AcDbEntity
  8
AM_5
100
AcDbBlockReference
  2
_Dot
 10
6296.123338457229
 20
-5944.155834757086
 30
0.0
 50
270.0
  0
INSERT
  5
5B3C8
330
4EA69
100
AcDbEntity
  8
AM_5
100
AcDbBlockReference
  2
_Dot
 10
6296.123338457229
 20
-5928.155834757086
 30
0.0
 50
90.0
  0
MTEXT
  5
5B3C9
330
4EA69
100
AcDbEntity
  8
AM_5
 62
     2
100
AcDbMText
 10
6293.523338457229
 20
-5935.905834757084
 30
0.0
 40
3.200000000000001
 41
0.0
 71
     5
 72
     1
  1
（G）
 11
0.0000000000000001
 21
1.0
 31
0.0
 73
     1
 44
1.0
1001
ACAD
1000
MTEXTBEGIN
1070
    73
1070
     1
1070
    44
1040
1.0
1070
    74
1070
     0
1000
MTEXTEND
  0
POINT
  5
5B3CA
330
4EA69
100
AcDbEntity
  8
Defpoints
 62
     0
100
AcDbPoint
 10
6282.123338457229
 20
-5944.155834757086
 30
0.0
  0
POINT
  5
5B3CB
330
4EA69
100
AcDbEntity
  8
Defpoints
 62
     0
100
AcDbPoint
 10
6262.11665645723
 20
-5928.155834757086
 30
0.0
  0
POINT
  5
5B3CC
330
4EA69
100
AcDbEntity
  8
Defpoints
 62
     0
100
AcDbPoint
 10
6296.123338457229
 20
-5928.155834757086
 30
0.0
  0
ENDBLK
  5
4EA74
330
4EA69
100
AcDbEntity
  8
0
100
AcDbBlockEnd
  0
BLOCK
  5
4EAA5
330
4EA99
100
AcDbEntity
  8
0
100
AcDbBlockBegin
  2
*D14
 70
     1
 10
0.0
 20
0.0
 30
0.0
  3
*D14
  1

  0
LINE
  5
5B312
330
4EA99
100
AcDbEntity
  8
AM_5
100
AcDbLine
 10
6283.12333845723
 20
-5944.155834757086
 30
0.0
 11
6289.123338457229
 21
-5944.155834757086
 31
0.0
  0
LINE
  5
5B313
330
4EA99
100
AcDbEntity
  8
AM_5
100
AcDbLine
 10
6283.12333845723
 20
-5942.155834757087
 30
0.0
 11
6289.123338457229
 21
-5942.155834757087
 31
0.0
  0
LINE
  5
5B314
330
4EA99
100
AcDbEntity
  8
AM_5
100
AcDbLine
 10
6288.123338457229
 20
-5941.155834757087
 30
0.0
 11
6288.123338457229
 21
-5940.155834757087
 31
0.0
  0
LINE
  5
5B315
330
4EA99
100
AcDbEntity
  8
AM_5
100
AcDbLine
 10
6288.123338457229
 20
-5945.155834757087
 30
0.0
 11
6288.123338457229
 21
-5949.649168090419
 31
0.0
  0
LINE
  5
5B316
330
4EA99
100
AcDbEntity
  8
AM_5
100
AcDbLine
 10
6288.123338457229
 20
-5942.155834757087
 30
0.0
 11
6288.123338457229
 21
-5944.155834757086
 31
0.0
  0
INSERT
  5
5B317
330
4EA99
100
AcDbEntity
  8
AM_5
100
AcDbBlockReference
  2
_Dot
 10
6288.123338457229
 20
-5942.155834757087
 30
0.0
 50
270.0
  0
INSERT
  5
5B318
330
4EA99
100
AcDbEntity
  8
AM_5
100
AcDbBlockReference
  2
_Dot
 10
6288.123338457229
 20
-5944.155834757086
 30
0.0
 50
90.0
  0
MTEXT
  5
5B319
330
4EA99
100
AcDbEntity
  8
AM_5
 62
     2
100
AcDbMText
 10
6285.523338457229
 20
-5947.902501423751
 30
0.0
 40
3.200000000000001
 41
0.0
 71
     5
 72
     1
  1
H
 11
0.0000000000000001
 21
1.0
 31
0.0
 73
     1
 44
1.0
1001
ACAD
1000
MTEXTBEGIN
1070
    73
1070
     1
1070
    44
1040
1.0
1070
    74
1070
     0
1000
MTEXTEND
  0
POINT
  5
5B31A
330
4EA99
100
AcDbEntity
  8
Defpoints
 62
     0
100
AcDbPoint
 10
6282.123338457229
 20
-5944.155834757086
 30
0.0
  0
POINT
  5
5B31B
330
4EA99
100
AcDbEntity
  8
Defpoints
 62
     0
100
AcDbPoint
 10
6282.123338457229
 20
-5942.155834757087
 30
0.0
  0
POINT
  5
5B31C
330
4EA99
100
AcDbEntity
  8
Defpoints
 62
     0
100
AcDbPoint
 10
6288.123338457229
 20
-5942.155834757087
 30
0.0
  0
ENDBLK
  5
4EAA6
330
4EA99
100
AcDbEntity
  8
0
100
AcDbBlockEnd
  0
BLOCK
  5
4EAD2
330
4EAC8
100
AcDbEntity
  8
0
100
AcDbBlockBegin
  2
*D15
 70
     1
 10
0.0
 20
0.0
 30
0.0
  3
*D15
  1

  0
LINE
  5
5B3EF
330
4EAC8
100
AcDbEntity
  8
AM_5
100
AcDbLine
 10
6178.62333845723
 20
-5944.155834757086
 30
0.0
 11
6162.623338457229
 21
-5944.155834757086
 31
0.0
  0
LINE
  5
5B3F0
330
4EAC8
100
AcDbEntity
  8
AM_5
100
AcDbLine
 10
6191.279522954395
 20
-5931.155834760128
 30
0.0
 11
6162.623338457229
 21
-5931.155834760128
 31
0.0
  0
LINE
  5
5B3F1
330
4EAC8
100
AcDbEntity
  8
AM_5
100
AcDbLine
 10
6163.623338457228
 20
-5943.155834757086
 30
0.0
 11
6163.623338457228
 21
-5932.155834760129
 31
0.0
  0
INSERT
  5
5B3F2
330
4EAC8
100
AcDbEntity
  8
AM_5
100
AcDbBlockReference
  2
_Dot
 10
6163.623338457228
 20
-5944.155834757086
 30
0.0
 50
270.0
  0
INSERT
  5
5B3F3
330
4EAC8
100
AcDbEntity
  8
AM_5
100
AcDbBlockReference
  2
_Dot
 10
6163.623338457228
 20
-5931.155834760128
 30
0.0
 50
90.0
  0
MTEXT
  5
5B3F4
330
4EAC8
100
AcDbEntity
  8
AM_5
 62
     2
100
AcDbMText
 10
6161.02333845723
 20
-5937.624706550876
 30
0.0
 40
3.200000000000001
 41
0.0
 71
     5
 72
     1
  1
I
 11
0.0000000000000001
 21
1.0
 31
0.0
 73
     1
 44
1.0
1001
ACAD
1000
MTEXTBEGIN
1070
    73
1070
     1
1070
    44
1040
1.0
1070
    74
1070
     0
1000
MTEXTEND
  0
POINT
  5
5B3F5
330
4EAC8
100
AcDbEntity
  8
Defpoints
 62
     0
100
AcDbPoint
 10
6179.623338457229
 20
-5944.155834757086
 30
0.0
  0
POINT
  5
5B3F6
330
4EAC8
100
AcDbEntity
  8
Defpoints
 62
     0
100
AcDbPoint
 10
6192.279522954396
 20
-5931.155834760128
 30
0.0
  0
POINT
  5
5B3F7
330
4EAC8
100
AcDbEntity
  8
Defpoints
 62
     0
100
AcDbPoint
 10
6163.623338457228
 20
-5931.155834760128
 30
0.0
  0
ENDBLK
  5
4EAD3
330
4EAC8
100
AcDbEntity
  8
0
100
AcDbBlockEnd
  0
BLOCK
  5
4EAFB
330
4EAEF
100
AcDbEntity
  8
0
100
AcDbBlockBegin
  2
*D16
 70
     1
 10
0.0
 20
0.0
 30
0.0
  3
*D16
  1

  0
LINE
  5
52DA7
330
4EAEF
100
AcDbEntity
  8
AM_5
100
AcDbLine
 10
6178.62333845723
 20
-5944.155834757086
 30
0.0
 11
6170.623338457229
 21
-5944.155834757086
 31
0.0
  0
LINE
  5
52DA8
330
4EAEF
100
AcDbEntity
  8
AM_5
100
AcDbLine
 10
6178.62333845723
 20
-5942.155834757087
 30
0.0
 11
6170.623338457229
 21
-5942.155834757087
 31
0.0
  0
LINE
  5
52DA9
330
4EAEF
100
AcDbEntity
  8
AM_5
100
AcDbLine
 10
6171.623338457229
 20
-5941.155834757086
 30
0.0
 11
6171.623338457229
 21
-5940.155834757086
 31
0.0
  0
LINE
  5
52DAA
330
4EAEF
100
AcDbEntity
  8
AM_5
100
AcDbLine
 10
6171.623338457229
 20
-5945.155834757087
 30
0.0
 11
6171.623338457229
 21
-5949.222501423753
 31
0.0
  0
LINE
  5
52DAB
330
4EAEF
100
AcDbEntity
  8
AM_5
100
AcDbLine
 10
6171.623338457229
 20
-5942.155834757087
 30
0.0
 11
6171.623338457229
 21
-5944.155834757086
 31
0.0
  0
INSERT
  5
52DAC
330
4EAEF
100
AcDbEntity
  8
AM_5
100
AcDbBlockReference
  2
_Dot
 10
6171.623338457229
 20
-5942.155834757087
 30
0.0
 50
270.0
  0
INSERT
  5
52DAD
330
4EAEF
100
AcDbEntity
  8
AM_5
100
AcDbBlockReference
  2
_Dot
 10
6171.623338457229
 20
-5944.155834757086
 30
0.0
 50
90.0
  0
MTEXT
  5
52DAE
330
4EAEF
100
AcDbEntity
  8
AM_5
 62
     2
100
AcDbMText
 10
6169.023338457229
 20
-5947.689168090418
 30
0.0
 40
3.200000000000001
 41
0.0
 71
     5
 72
     1
  1
J
 11
0.0000000000000001
 21
1.0
 31
0.0
 73
     1
 44
1.0
1001
ACAD
1000
MTEXTBEGIN
1070
    73
1070
     1
1070
    44
1040
1.0
1070
    74
1070
     0
1000
MTEXTEND
  0
POINT
  5
52DAF
330
4EAEF
100
AcDbEntity
  8
Defpoints
 62
     0
100
AcDbPoint
 10
6179.623338457229
 20
-5944.155834757086
 30
0.0
  0
POINT
  5
52DB0
330
4EAEF
100
AcDbEntity
  8
Defpoints
 62
     0
100
AcDbPoint
 10
6179.623338457229
 20
-5942.155834757087
 30
0.0
  0
POINT
  5
52DB1
330
4EAEF
100
AcDbEntity
  8
Defpoints
 62
     0
100
AcDbPoint
 10
6171.623338457229
 20
-5942.155834757087
 30
0.0
  0
ENDBLK
  5
4EAFC
330
4EAEF
100
AcDbEntity
  8
0
100
AcDbBlockEnd
  0
BLOCK
  5
4EB28
330
4EB1E
100
AcDbEntity
  8
0
100
AcDbBlockBegin
  2
*D17
 70
     1
 10
0.0
 20
0.0
 30
0.0
  3
*D17
  1

  0
LINE
  5
5B2F1
330
4EB1E
100
AcDbEntity
  8
AM_5
100
AcDbLine
 10
6248.123338457229
 20
-5881.482976608533
 30
0.0
 11
6248.123338457229
 21
-5903.232976608533
 31
0.0
  0
LINE
  5
5B2F2
330
4EB1E
100
AcDbEntity
  8
AM_5
100
AcDbLine
 10
6224.123338457229
 20
-5887.232976608533
 30
0.0
 11
6224.123338457229
 21
-5903.232976608533
 31
0.0
  0
LINE
  5
5B2F3
330
4EB1E
100
AcDbEntity
  8
AM_5
100
AcDbLine
 10
6247.12333845723
 20
-5902.232976608534
 30
0.0
 11
6225.12333845723
 21
-5902.232976608534
 31
0.0
  0
INSERT
  5
5B2F4
330
4EB1E
100
AcDbEntity
  8
AM_5
100
AcDbBlockReference
  2
_Dot
 10
6248.123338457229
 20
-5902.232976608534
 30
0.0
  0
INSERT
  5
5B2F5
330
4EB1E
100
AcDbEntity
  8
AM_5
100
AcDbBlockReference
  2
_Dot
 10
6224.123338457229
 20
-5902.232976608534
 30
0.0
 50
180.0
  0
MTEXT
  5
5B2F6
330
4EB1E
100
AcDbEntity
  8
AM_5
 62
     2
100
AcDbMText
 10
6236.547927814405
 20
-5899.632976608533
 30
0.0
 40
3.200000000000001
 41
0.0
 71
     5
 72
     1
  1
L
 73
     1
 44
1.0
1001
ACAD
1000
MTEXTBEGIN
1070
    73
1070
     1
1070
    44
1040
1.0
1070
    74
1070
     0
1000
MTEXTEND
  0
POINT
  5
5B2F7
330
4EB1E
100
AcDbEntity
  8
Defpoints
 62
     0
100
AcDbPoint
 10
6248.123338457229
 20
-5880.482976608533
 30
0.0
  0
POINT
  5
5B2F8
330
4EB1E
100
AcDbEntity
  8
Defpoints
 62
     0
100
AcDbPoint
 10
6224.123338457229
 20
-5886.232976608533
 30
0.0
  0
POINT
  5
5B2F9
330
4EB1E
100
AcDbEntity
  8
Defpoints
 62
     0
100
AcDbPoint
 10
6224.123338457229
 20
-5902.232976608534
 30
0.0
  0
ENDBLK
  5
4EB29
330
4EB1E
100
AcDbEntity
  8
0
100
AcDbBlockEnd
  0
BLOCK
  5
4EB3E
330
4EB34
100
AcDbEntity
  8
0
100
AcDbBlockBegin
  2
*D18
 70
     1
 10
0.0
 20
0.0
 30
0.0
  3
*D18
  1

  0
LINE
  5
5B2BB
330
4EB34
100
AcDbEntity
  8
AM_5
100
AcDbLine
 10
6248.123338457229
 20
-5881.482976608533
 30
0.0
 11
6248.123338457229
 21
-5911.232976608533
 31
0.0
  0
LINE
  5
5B2BC
330
4EB34
100
AcDbEntity
  8
AM_5
100
AcDbLine
 10
6262.12333845723
 20
-5881.482976608533
 30
0.0
 11
6262.12333845723
 21
-5911.232976608533
 31
0.0
  0
LINE
  5
5B2BD
330
4EB34
100
AcDbEntity
  8
AM_5
100
AcDbLine
 10
6249.12333845723
 20
-5910.232976608533
 30
0.0
 11
6261.12333845723
 21
-5910.232976608533
 31
0.0
  0
INSERT
  5
5B2BE
330
4EB34
100
AcDbEntity
  8
AM_5
100
AcDbBlockReference
  2
_Dot
 10
6248.123338457229
 20
-5910.232976608533
 30
0.0
 50
180.0
  0
INSERT
  5
5B2BF
330
4EB34
100
AcDbEntity
  8
AM_5
100
AcDbBlockReference
  2
_Dot
 10
6262.12333845723
 20
-5910.232976608533
 30
0.0
  0
MTEXT
  5
5B2C0
330
4EB34
100
AcDbEntity
  8
AM_5
 62
     2
100
AcDbMText
 10
6255.12333845723
 20
-5907.632976608533
 30
0.0
 40
3.200000000000001
 41
0.0
 71
     5
 72
     1
  1
K1
 73
     1
 44
1.0
1001
ACAD
1000
MTEXTBEGIN
1070
    73
1070
     1
1070
    44
1040
1.0
1070
    74
1070
     0
1000
MTEXTEND
  0
POINT
  5
5B2C1
330
4EB34
100
AcDbEntity
  8
Defpoints
 62
     0
100
AcDbPoint
 10
6248.123338457229
 20
-5880.482976608533
 30
0.0
  0
POINT
  5
5B2C2
330
4EB34
100
AcDbEntity
  8
Defpoints
 62
     0
100
AcDbPoint
 10
6262.12333845723
 20
-5880.482976608533
 30
0.0
  0
POINT
  5
5B2C3
330
4EB34
100
AcDbEntity
  8
Defpoints
 62
     0
100
AcDbPoint
 10
6262.12333845723
 20
-5910.232976608533
 30
0.0
  0
ENDBLK
  5
4EB3F
330
4EB34
100
AcDbEntity
  8
0
100
AcDbBlockEnd
  0
BLOCK
  5
4EB54
330
4EB4A
100
AcDbEntity
  8
0
100
AcDbBlockBegin
  2
*D19
 70
     1
 10
0.0
 20
0.0
 30
0.0
  3
*D19
  1

  0
LINE
  5
5B2C4
330
4EB4A
100
AcDbEntity
  8
AM_5
100
AcDbLine
 10
6262.12333845723
 20
-5881.482976608533
 30
0.0
 11
6262.12333845723
 21
-5911.232976608533
 31
0.0
  0
LINE
  5
5B2C5
330
4EB4A
100
AcDbEntity
  8
AM_5
100
AcDbLine
 10
6276.12333845723
 20
-5881.482976608533
 30
0.0
 11
6276.12333845723
 21
-5911.232976608533
 31
0.0
  0
LINE
  5
5B2C6
330
4EB4A
100
AcDbEntity
  8
AM_5
100
AcDbLine
 10
6263.12333845723
 20
-5910.232976608533
 30
0.0
 11
6275.12333845723
 21
-5910.232976608533
 31
0.0
  0
INSERT
  5
5B2C7
330
4EB4A
100
AcDbEntity
  8
AM_5
100
AcDbBlockReference
  2
_Dot
 10
6262.12333845723
 20
-5910.232976608533
 30
0.0
 50
180.0
  0
INSERT
  5
5B2C8
330
4EB4A
100
AcDbEntity
  8
AM_5
100
AcDbBlockReference
  2
_Dot
 10
6276.12333845723
 20
-5910.232976608533
 30
0.0
  0
MTEXT
  5
5B2C9
330
4EB4A
100
AcDbEntity
  8
AM_5
 62
     2
100
AcDbMText
 10
6269.12333845723
 20
-5907.632976608533
 30
0.0
 40
3.200000000000001
 41
0.0
 71
     5
 72
     1
  1
K2
 73
     1
 44
1.0
1001
ACAD
1000
MTEXTBEGIN
1070
    73
1070
     1
1070
    44
1040
1.0
1070
    74
1070
     0
1000
MTEXTEND
  0
POINT
  5
5B2CA
330
4EB4A
100
AcDbEntity
  8
Defpoints
 62
     0
100
AcDbPoint
 10
6262.12333845723
 20
-5880.482976608533
 30
0.0
  0
POINT
  5
5B2CB
330
4EB4A
100
AcDbEntity
  8
Defpoints
 62
     0
100
AcDbPoint
 10
6276.12333845723
 20
-5880.482976608533
 30
0.0
  0
POINT
  5
5B2CC
330
4EB4A
100
AcDbEntity
  8
Defpoints
 62
     0
100
AcDbPoint
 10
6276.12333845723
 20
-5910.232976608533
 30
0.0
  0
ENDBLK
  5
4EB55
330
4EB4A
100
AcDbEntity
  8
0
100
AcDbBlockEnd
  0
BLOCK
  5
4EBAC
330
4EBA5
100
AcDbEntity
  8
0
100
AcDbBlockBegin
  2
*D20
 70
     1
 10
0.0
 20
0.0
 30
0.0
  3
*D20
  1

  0
LINE
  5
5B2B2
330
4EBA5
100
AcDbEntity
  8
AM_5
100
AcDbLine
 10
6302.526021240075
 20
-5906.564322517884
 30
0.0
 11
6292.779354573404
 21
-5906.564322517883
 31
0.0
  0
LINE
  5
5B2B3
330
4EBA5
100
AcDbEntity
  8
AM_5
100
AcDbLine
 10
6292.779354573404
 20
-5906.564322517883
 30
0.0
 11
6277.83874617338
 21
-5878.011295746047
 31
0.0
  0
LINE
  5
5B2B4
330
4EBA5
100
AcDbEntity
  8
AM_5
100
AcDbLine
 10
6274.407930741077
 20
-5871.454657471022
 30
0.0
 11
6273.944307034009
 21
-5870.568625271694
 31
0.0
  0
MTEXT
  5
5B2B5
330
4EBA5
100
AcDbEntity
  8
AM_5
 62
     2
100
AcDbMText
 10
6298.152687906743
 20
-5901.297655851216
 30
0.0
 40
3.2
 41
0.0
 71
     5
 72
     1
  1
3-%%cM\P2-%%cN
 73
     1
 44
1.0
1001
ACAD
1000
MTEXTBEGIN
1070
    73
1070
     1
1070
    44
1040
1.0
1070
    74
1070
     0
1000
MTEXTEND
  0
LINE
  5
5B2B6
330
4EBA5
100
AcDbEntity
  8
AM_5
100
AcDbLine
 10
6274.871554448144
 20
-5872.340689670349
 30
0.0
 11
6277.375122466312
 21
-5877.125263546719
 31
0.0
  0
INSERT
  5
5B2B7
330
4EBA5
100
AcDbEntity
  8
AM_5
100
AcDbBlockReference
  2
_Dot
 10
6274.871554448144
 20
-5872.340689670349
 30
0.0
 50
297.6211870448493
  0
INSERT
  5
5B2B8
330
4EBA5
100
AcDbEntity
  8
AM_5
100
AcDbBlockReference
  2
_Dot
 10
6277.375122466312
 20
-5877.125263546719
 30
0.0
 50
117.6211870448492
  0
POINT
  5
5B2B9
330
4EBA5
100
AcDbEntity
  8
Defpoints
 62
     0
100
AcDbPoint
 10
6277.375122466312
 20
-5877.125263546719
 30
0.0
  0
POINT
  5
5B2BA
330
4EBA5
100
AcDbEntity
  8
Defpoints
 62
     0
100
AcDbPoint
 10
6274.871554448144
 20
-5872.340689670349
 30
0.0
  0
ENDBLK
  5
4EBAD
330
4EBA5
100
AcDbEntity
  8
0
100
AcDbBlockEnd
  0
BLOCK
  5
4EC0A
330
4EC00
100
AcDbEntity
  8
0
100
AcDbBlockBegin
  2
*D21
 70
     1
 10
0.0
 20
0.0
 30
0.0
  3
*D21
  1

  0
LINE
  5
5B2FA
330
4EC00
100
AcDbEntity
  8
AM_5
100
AcDbLine
 10
6248.123338457229
 20
-5881.482976608533
 30
0.0
 11
6248.123338457229
 21
-5911.232976608533
 31
0.0
  0
LINE
  5
5B2FB
330
4EC00
100
AcDbEntity
  8
AM_5
100
AcDbLine
 10
6186.12333845723
 20
-5892.932976608533
 30
0.0
 11
6186.12333845723
 21
-5911.232976608533
 31
0.0
  0
LINE
  5
5B2FC
330
4EC00
100
AcDbEntity
  8
AM_5
100
AcDbLine
 10
6247.12333845723
 20
-5910.232976608533
 30
0.0
 11
6187.123338457229
 21
-5910.232976608533
 31
0.0
  0
INSERT
  5
5B2FD
330
4EC00
100
AcDbEntity
  8
AM_5
100
AcDbBlockReference
  2
_Dot
 10
6248.123338457229
 20
-5910.232976608533
 30
0.0
  0
INSERT
  5
5B2FE
330
4EC00
100
AcDbEntity
  8
AM_5
100
AcDbBlockReference
  2
_Dot
 10
6186.12333845723
 20
-5910.232976608533
 30
0.0
 50
180.0
  0
MTEXT
  5
5B2FF
330
4EC00
100
AcDbEntity
  8
AM_5
 62
     2
100
AcDbMText
 10
6217.740944080674
 20
-5907.632976608533
 30
0.0
 40
3.200000000000001
 41
0.0
 71
     5
 72
     1
  1
（O）
 73
     1
 44
1.0
1001
ACAD
1000
MTEXTBEGIN
1070
    73
1070
     1
1070
    44
1040
1.0
1070
    74
1070
     0
1000
MTEXTEND
  0
POINT
  5
5B300
330
4EC00
100
AcDbEntity
  8
Defpoints
 62
     0
100
AcDbPoint
 10
6248.123338457229
 20
-5880.482976608533
 30
0.0
  0
POINT
  5
5B301
330
4EC00
100
AcDbEntity
  8
Defpoints
 62
     0
100
AcDbPoint
 10
6186.12333845723
 20
-5891.932976608533
 30
0.0
  0
POINT
  5
5B302
330
4EC00
100
AcDbEntity
  8
Defpoints
 62
     0
100
AcDbPoint
 10
6186.12333845723
 20
-5910.232976608533
 30
0.0
  0
ENDBLK
  5
4EC0B
330
4EC00
100
AcDbEntity
  8
0
100
AcDbBlockEnd
  0
BLOCK
  5
4EC31
330
4EC27
100
AcDbEntity
  8
0
100
AcDbBlockBegin
  2
*D22
 70
     1
 10
0.0
 20
0.0
 30
0.0
  3
*D22
  1

  0
LINE
  5
5B3E6
330
4EC27
100
AcDbEntity
  8
AM_5
100
AcDbLine
 10
6186.12333845723
 20
-5892.932976608533
 30
0.0
 11
6186.12333845723
 21
-5903.232976608533
 31
0.0
  0
LINE
  5
5B3E7
330
4EC27
100
AcDbEntity
  8
AM_5
100
AcDbLine
 10
6202.12333845723
 20
-5886.232976608533
 30
0.0
 11
6202.12333845723
 21
-5903.232976608533
 31
0.0
  0
LINE
  5
5B3E8
330
4EC27
100
AcDbEntity
  8
AM_5
100
AcDbLine
 10
6187.123338457229
 20
-5902.232976608534
 30
0.0
 11
6201.12333845723
 21
-5902.232976608534
 31
0.0
  0
INSERT
  5
5B3E9
330
4EC27
100
AcDbEntity
  8
AM_5
100
AcDbBlockReference
  2
_Dot
 10
6186.12333845723
 20
-5902.232976608534
 30
0.0
 50
180.0
  0
INSERT
  5
5B3EA
330
4EC27
100
AcDbEntity
  8
AM_5
100
AcDbBlockReference
  2
_Dot
 10
6202.12333845723
 20
-5902.232976608534
 30
0.0
  0
MTEXT
  5
5B3EB
330
4EC27
100
AcDbEntity
  8
AM_5
 62
     2
100
AcDbMText
 10
6193.87333845723
 20
-5899.632976608533
 30
0.0
 40
3.200000000000001
 41
0.0
 71
     5
 72
     1
  1
（P）
 73
     1
 44
1.0
1001
ACAD
1000
MTEXTBEGIN
1070
    73
1070
     1
1070
    44
1040
1.0
1070
    74
1070
     0
1000
MTEXTEND
  0
POINT
  5
5B3EC
330
4EC27
100
AcDbEntity
  8
Defpoints
 62
     0
100
AcDbPoint
 10
6186.12333845723
 20
-5891.932976608533
 30
0.0
  0
POINT
  5
5B3ED
330
4EC27
100
AcDbEntity
  8
Defpoints
 62
     0
100
AcDbPoint
 10
6202.12333845723
 20
-5885.232976608533
 30
0.0
  0
POINT
  5
5B3EE
330
4EC27
100
AcDbEntity
  8
Defpoints
 62
     0
100
AcDbPoint
 10
6202.12333845723
 20
-5902.232976608534
 30
0.0
  0
ENDBLK
  5
4EC32
330
4EC27
100
AcDbEntity
  8
0
100
AcDbBlockEnd
  0
BLOCK
  5
4EC58
330
4EC4E
100
AcDbEntity
  8
0
100
AcDbBlockBegin
  2
*D23
 70
     1
 10
0.0
 20
0.0
 30
0.0
  3
*D23
  1

  0
LINE
  5
52DE8
330
4EC4E
100
AcDbEntity
  8
AM_5
100
AcDbLine
 10
6180.42333845723
 20
-5862.232976608533
 30
0.0
 11
6170.623338457229
 21
-5862.232976608533
 31
0.0
  0
LINE
  5
52DE9
330
4EC4E
100
AcDbEntity
  8
AM_5
100
AcDbLine
 10
6180.42333845723
 20
-5887.232976608533
 30
0.0
 11
6170.623338457229
 21
-5887.232976608533
 31
0.0
  0
LINE
  5
52DEA
330
4EC4E
100
AcDbEntity
  8
AM_5
100
AcDbLine
 10
6171.623338457229
 20
-5863.232976608533
 30
0.0
 11
6171.623338457229
 21
-5886.232976608533
 31
0.0
  0
INSERT
  5
52DEB
330
4EC4E
100
AcDbEntity
  8
AM_5
100
AcDbBlockReference
  2
_Dot
 10
6171.623338457229
 20
-5862.232976608533
 30
0.0
 50
90.0
  0
INSERT
  5
52DEC
330
4EC4E
100
AcDbEntity
  8
AM_5
100
AcDbBlockReference
  2
_Dot
 10
6171.623338457229
 20
-5887.232976608533
 30
0.0
 50
270.0
  0
MTEXT
  5
52DED
330
4EC4E
100
AcDbEntity
  8
AM_5
 62
     2
100
AcDbMText
 10
6168.870957504849
 20
-5874.732976608533
 30
0.0
 40
3.200000000000001
 41
0.0
 71
     5
 72
     1
  1
Q
 11
0.0000000000000001
 21
1.0
 31
0.0
 73
     1
 44
1.0
1001
ACAD
1000
MTEXTBEGIN
1070
    73
1070
     1
1070
    44
1040
1.0
1070
    74
1070
     0
1000
MTEXTEND
  0
POINT
  5
52DEE
330
4EC4E
100
AcDbEntity
  8
Defpoints
 62
     0
100
AcDbPoint
 10
6181.423338457229
 20
-5862.232976608533
 30
0.0
  0
POINT
  5
52DEF
330
4EC4E
100
AcDbEntity
  8
Defpoints
 62
     0
100
AcDbPoint
 10
6181.423338457229
 20
-5887.232976608533
 30
0.0
  0
POINT
  5
52DF0
330
4EC4E
100
AcDbEntity
  8
Defpoints
 62
     0
100
AcDbPoint
 10
6171.623338457229
 20
-5887.232976608533
 30
0.0
  0
ENDBLK
  5
4EC59
330
4EC4E
100
AcDbEntity
  8
0
100
AcDbBlockEnd
  0
BLOCK
  5
5B409
330
5B402
100
AcDbEntity
  8
0
100
AcDbBlockBegin
  2
*D25
 70
     1
 10
0.0
 20
0.0
 30
0.0
  3
*D25
  1

  0
LINE
  5
5B652
330
5B402
100
AcDbEntity
  8
AM_5
100
AcDbLine
 10
6166.341966881834
 20
-5900.243346327218
 30
0.0
 11
6177.42196688184
 21
-5900.243346327218
 31
0.0
  0
LINE
  5
5B653
330
5B402
100
AcDbEntity
  8
AM_5
100
AcDbLine
 10
6177.42196688184
 20
-5900.243346327218
 30
0.0
 11
6184.121994563502
 21
-5890.225404154693
 31
0.0
  0
LINE
  5
5B654
330
5B402
100
AcDbEntity
  8
AM_5
100
AcDbLine
 10
6188.124682350952
 20
-5884.240549062366
 30
0.0
 11
6188.680611210319
 21
-5883.409319188431
 31
0.0
  0
MTEXT
  5
5B655
330
5B402
100
AcDbEntity
  8
AM_5
 62
     2
100
AcDbMText
 10
6170.608633548502
 20
-5897.643346327217
 30
0.0
 40
3.2
 41
0.0
 71
     5
 72
     1
  1
2-%%cR
 73
     1
 44
1.0
1001
ACAD
1000
MTEXTBEGIN
1070
    73
1070
     1
1070
    44
1040
1.0
1070
    74
1070
     0
1000
MTEXTEND
  0
LINE
  5
5B656
330
5B402
100
AcDbEntity
  8
AM_5
100
AcDbLine
 10
6187.568753491583
 20
-5885.071778936301
 30
0.0
 11
6184.677923422871
 21
-5889.394174280758
 31
0.0
  0
INSERT
  5
5B657
330
5B402
100
AcDbEntity
  8
AM_5
100
AcDbBlockReference
  2
_Dot
 10
6187.568753491583
 20
-5885.071778936301
 30
0.0
 50
236.2252838368589
  0
INSERT
  5
5B658
330
5B402
100
AcDbEntity
  8
AM_5
100
AcDbBlockReference
  2
_Dot
 10
6184.677923422871
 20
-5889.394174280758
 30
0.0
 50
56.22528383685889
  0
POINT
  5
5B659
330
5B402
100
AcDbEntity
  8
Defpoints
 62
     0
100
AcDbPoint
 10
6184.677923422871
 20
-5889.394174280758
 30
0.0
  0
POINT
  5
5B65A
330
5B402
100
AcDbEntity
  8
Defpoints
 62
     0
100
AcDbPoint
 10
6187.568753491583
 20
-5885.071778936301
 30
0.0
  0
ENDBLK
  5
5B40A
330
5B402
100
AcDbEntity
  8
0
100
AcDbBlockEnd
  0
ENDSEC
  0
SECTION
  2
ENTITIES
  0
TEXT
  5
31B30
330
1F
100
AcDbEntity
  8
AM_6
 60
     1
100
AcDbText
 10
3408.785415022811
 20
1879.970675238635
 30
0.0
 40
2.5
  1
!GENTITLE-INSERT
100
AcDbText
  0
TEXT
  5
31B31
330
1F
100
AcDbEntity
  8
AM_6
 60
     1
100
AcDbText
 10
3000.285415022811
 20
1871.470675238635
 30
0.0
 40
2.5
  1
!GENTITLE-LL
100
AcDbText
  0
TEXT
  5
31B32
330
1F
100
AcDbEntity
  8
AM_6
 60
     1
100
AcDbText
 10
3420.285415022811
 20
2168.470675238635
 30
0.0
 40
2.5
  1
!GENTITLE-RU
100
AcDbText
  0
TEXT
  5
31B33
330
1F
100
AcDbEntity
  8
AM_6
 60
     1
100
AcDbText
 10
3420.285415022811
 20
2168.470675238635
 30
0.0
 40
2.5
  1
!GENTITLE-MAX
100
AcDbText
  0
TEXT
  5
31B3B
330
1F
100
AcDbEntity
  8
AM_6
 60
     1
100
AcDbText
 10
3000.285415022811
 20
1871.470675238635
 30
0.0
 40
2.5
  1
!GENTITLE-LL
100
AcDbText
  0
TEXT
  5
31B3C
330
1F
100
AcDbEntity
  8
AM_6
 60
     1
100
AcDbText
 10
3408.785415022811
 20
2159.970675238636
 30
0.0
 40
2.5
  1
!GENTITLE-RU
100
AcDbText
  0
TEXT
  5
31B3D
330
1F
100
AcDbEntity
  8
AM_6
 60
     1
100
AcDbText
 10
3420.285415022811
 20
2168.470675238635
 30
0.0
 40
2.5
  1
!GENTITLE-MAX
100
AcDbText
  0
TEXT
  5
31B3E
330
1F
100
AcDbEntity
  8
AM_6
 60
     1
100
AcDbText
 10
3408.785415022811
 20
1879.970675238635
 30
0.0
 40
2.5
  1
!GENTITLE-INSERT
100
AcDbText
  0
TEXT
  5
32D1D
330
1F
100
AcDbEntity
  8
AM_6
 60
     1
100
AcDbText
 10
3234.949399973154
 20
1839.277532086519
 30
0.0
 40
2.5
  1
!GENTITLE-INSERT
100
AcDbText
  0
TEXT
  5
32D1E
330
1F
100
AcDbEntity
  8
AM_6
 60
     1
100
AcDbText
 10
3246.449399973154
 20
2040.77753208652
 30
0.0
 40
2.5
  1
!GENTITLE-MAX
100
AcDbText
  0
TEXT
  5
32D1F
330
1F
100
AcDbEntity
  8
AM_6
 60
     1
100
AcDbText
 10
3246.449399973154
 20
2040.77753208652
 30
0.0
 40
2.5
  1
!GENTITLE-RU
100
AcDbText
  0
TEXT
  5
32D21
330
1F
100
AcDbEntity
  8
AM_6
 60
     1
100
AcDbText
 10
2949.449399973154
 20
1830.777532086519
 30
0.0
 40
2.5
  1
!GENTITLE-LL
100
AcDbText
  0
TEXT
  5
34534
330
1F
100
AcDbEntity
  8
AM_6
 60
     1
100
AcDbText
 10
3774.506320898737
 20
958.0958490755065
 30
0.0
 40
2.5
  1
!GENTITLE-INSERT
100
AcDbText
  0
TEXT
  5
34535
330
1F
100
AcDbEntity
  8
AM_6
 60
     1
100
AcDbText
 10
3786.006320898738
 20
1159.595849075506
 30
0.0
 40
2.5
  1
!GENTITLE-MAX
100
AcDbText
  0
TEXT
  5
34536
330
1F
100
AcDbEntity
  8
AM_6
 60
     1
100
AcDbText
 10
3786.006320898738
 20
1159.595849075506
 30
0.0
 40
2.5
  1
!GENTITLE-RU
100
AcDbText
  0
TEXT
  5
34538
330
1F
100
AcDbEntity
  8
AM_6
 60
     1
100
AcDbText
 10
3489.006320898738
 20
949.5958490755064
 30
0.0
 40
2.5
  1
!GENTITLE-LL
100
AcDbText
  0
LINE
  5
43AEB
330
1F
100
AcDbEntity
  8
size
100
AcDbLine
 10
6074.924675701049
 20
-5785.494061601079
 30
0.0
 11
6371.924675701049
 21
-5785.494061601079
 31
0.0
1001
GENIUS_GENREC_14
1002
{
1000
PYDIR
1011
6074.924675701049
1021
-5698.494061601079
1031
0.0
1002
}
1002
{
1000
PXDIR
1011
6494.924675701049
1021
-5995.494061601078
1031
0.0
1002
}
1002
{
1000
PORI
1011
6074.924675701049
1021
-5995.494061601078
1031
0.0
1002
}
1002
{
1000
PINS
1011
6284.924675701049
1021
-5846.994061601079
1031
0.0
1002
}
1002
{
1000
HVAL
1000
297
1002
}
1002
{
1000
H
1070
     2
1002
}
1002
{
1000
WVAL
1000
420
1002
}
1002
{
1000
W
1070
     2
1002
}
1002
{
1000
C
1070
     4
1002
}
1001
GENIUS_GENOBJ-N-REC_13
1002
{
1000
OWNER
1000
GEN
1002
}
1001
GENIUS_GENODEF_13
1002
{
1000
HIER
1070
     0
1002
}
1002
{
1000
MANEDIT
1070
     0
1002
}
1002
{
1000
NOSEL
1070
     0
1002
}
1002
{
1000
BEHIND
1070
     0
1002
}
1002
{
1000
OTHER
1070
     0
1002
}
1002
{
1000
REACTOR
1002
}
  0
LINE
  5
43AEC
330
1F
100
AcDbEntity
  8
size
100
AcDbLine
 10
6371.924675701049
 20
-5785.494061601079
 30
0.0
 11
6371.924675701049
 21
-5995.494061601078
 31
0.0
1001
GENIUS_GENREC_14
1002
{
1000
PYDIR
1011
6074.924675701049
1021
-5698.494061601079
1031
0.0
1002
}
1002
{
1000
PXDIR
1011
6494.924675701049
1021
-5995.494061601078
1031
0.0
1002
}
1002
{
1000
PORI
1011
6074.924675701049
1021
-5995.494061601078
1031
0.0
1002
}
1002
{
1000
PINS
1011
6284.924675701049
1021
-5846.994061601079
1031
0.0
1002
}
1002
{
1000
HVAL
1000
297
1002
}
1002
{
1000
H
1070
     2
1002
}
1002
{
1000
WVAL
1000
420
1002
}
1002
{
1000
W
1070
     2
1002
}
1002
{
1000
C
1070
     4
1002
}
1001
GENIUS_GENOBJ-N-REC_13
1002
{
1000
OWNER
1000
GEN
1002
}
1001
GENIUS_GENODEF_13
1002
{
1000
HIER
1070
     0
1002
}
1002
{
1000
MANEDIT
1070
     0
1002
}
1002
{
1000
NOSEL
1070
     0
1002
}
1002
{
1000
BEHIND
1070
     0
1002
}
1002
{
1000
OTHER
1070
     0
1002
}
1002
{
1000
REACTOR
1002
}
  0
LINE
  5
43AED
330
1F
100
AcDbEntity
  8
waku
100
AcDbLine
 10
6086.424675701049
 20
-5986.994061601079
 30
0.0
 11
6360.42467570105
 21
-5986.994061601079
 31
0.0
1001
GENIUS_GENREC_14
1002
{
1000
PYDIR
1011
6074.924675701049
1021
-5698.494061601079
1031
0.0
1002
}
1002
{
1000
PXDIR
1011
6494.924675701049
1021
-5995.494061601078
1031
0.0
1002
}
1002
{
1000
PORI
1011
6074.924675701049
1021
-5995.494061601078
1031
0.0
1002
}
1002
{
1000
PINS
1011
6284.924675701049
1021
-5846.994061601079
1031
0.0
1002
}
1002
{
1000
HVAL
1000
297
1002
}
1002
{
1000
H
1070
     2
1002
}
1002
{
1000
WVAL
1000
420
1002
}
1002
{
1000
W
1070
     2
1002
}
1002
{
1000
C
1070
     4
1002
}
  0
LINE
  5
43AEE
330
1F
100
AcDbEntity
  8
waku
100
AcDbLine
 10
6360.42467570105
 20
-5793.994061601079
 30
0.0
 11
6086.424675701049
 21
-5793.994061601079
 31
0.0
1001
GENIUS_GENREC_14
1002
{
1000
PYDIR
1011
5951.92467570105
1021
-5785.494061601079
1031
0.0
1002
}
1002
{
1000
PXDIR
1011
6371.924675701049
1021
-6082.494061601079
1031
0.0
1002
}
1002
{
1000
PORI
1011
5951.92467570105
1021
-6082.494061601079
1031
0.0
1002
}
1002
{
1000
PINS
1011
6161.92467570105
1021
-5933.99406160108
1031
0.0
1002
}
1002
{
1000
HVAL
1000
297
1002
}
1002
{
1000
H
1070
     2
1002
}
1002
{
1000
WVAL
1000
420
1002
}
1002
{
1000
W
1070
     2
1002
}
1002
{
1000
C
1070
     4
1002
}
1001
GENIUS_GENOBJ-N-REC_13
1002
{
1000
OWNER
1000
GEN
1002
}
1001
GENIUS_GENODEF_13
1002
{
1000
HIER
1070
     0
1002
}
1002
{
1000
MANEDIT
1070
     0
1002
}
1002
{
1000
NOSEL
1070
     0
1002
}
1002
{
1000
BEHIND
1070
     0
1002
}
1002
{
1000
OTHER
1070
     0
1002
}
1002
{
1000
REACTOR
1002
}
  0
LINE
  5
43AEF
330
1F
100
AcDbEntity
  8
waku
100
AcDbLine
 10
6086.424675701049
 20
-5793.994061601079
 30
0.0
 11
6086.424675701049
 21
-5986.994061601079
 31
0.0
1001
GENIUS_GENREC_14
1002
{
1000
PYDIR
1011
6074.924675701049
1021
-5698.494061601079
1031
0.0
1002
}
1002
{
1000
PXDIR
1011
6494.924675701049
1021
-5995.494061601078
1031
0.0
1002
}
1002
{
1000
PORI
1011
6074.924675701049
1021
-5995.494061601078
1031
0.0
1002
}
1002
{
1000
PINS
1011
6284.924675701049
1021
-5846.994061601079
1031
0.0
1002
}
1002
{
1000
HVAL
1000
297
1002
}
1002
{
1000
H
1070
     2
1002
}
1002
{
1000
WVAL
1000
420
1002
}
1002
{
1000
W
1070
     2
1002
}
1002
{
1000
C
1070
     4
1002
}
1001
GENIUS_GENOBJ-N-REC_13
1002
{
1000
OWNER
1000
GEN
1002
}
1001
GENIUS_GENODEF_13
1002
{
1000
HIER
1070
     0
1002
}
1002
{
1000
MANEDIT
1070
     0
1002
}
1002
{
1000
NOSEL
1070
     0
1002
}
1002
{
1000
BEHIND
1070
     0
1002
}
1002
{
1000
OTHER
1070
     0
1002
}
1002
{
1000
REACTOR
1002
}
  0
LINE
  5
43AF0
330
1F
100
AcDbEntity
  8
waku
100
AcDbLine
 10
6360.42467570105
 20
-5986.994061601079
 30
0.0
 11
6360.42467570105
 21
-5793.994061601079
 31
0.0
1001
GENIUS_GENREC_14
1002
{
1000
PYDIR
1011
5951.92467570105
1021
-5779.494061601079
1031
0.0
1002
}
1002
{
1000
PXDIR
1011
6371.924675701049
1021
-6076.494061601079
1031
0.0
1002
}
1002
{
1000
PORI
1011
5951.92467570105
1021
-6076.494061601079
1031
0.0
1002
}
1002
{
1000
PINS
1011
6161.92467570105
1021
-5927.994061601079
1031
0.0
1002
}
1002
{
1000
HVAL
1000
297
1002
}
1002
{
1000
H
1070
     2
1002
}
1002
{
1000
WVAL
1000
420
1002
}
1002
{
1000
W
1070
     2
1002
}
1002
{
1000
C
1070
     4
1002
}
1001
GENIUS_GENOBJ-N-REC_13
1002
{
1000
OWNER
1000
GEN
1002
}
1001
GENIUS_GENODEF_13
1002
{
1000
HIER
1070
     0
1002
}
1002
{
1000
MANEDIT
1070
     0
1002
}
1002
{
1000
NOSEL
1070
     0
1002
}
1002
{
1000
BEHIND
1070
     0
1002
}
1002
{
1000
OTHER
1070
     0
1002
}
1002
{
1000
REACTOR
1002
}
  0
LINE
  5
43AF1
330
1F
100
AcDbEntity
  8
size
100
AcDbLine
 10
6074.924675701049
 20
-5785.494061601079
 30
0.0
 11
6074.924675701049
 21
-5995.494061601078
 31
0.0
1001
GENIUS_GENREC_14
1002
{
1000
PYDIR
1011
6074.924675701049
1021
-5698.494061601079
1031
0.0
1002
}
1002
{
1000
PXDIR
1011
6494.924675701049
1021
-5995.494061601078
1031
0.0
1002
}
1002
{
1000
PORI
1011
6074.924675701049
1021
-5995.494061601078
1031
0.0
1002
}
1002
{
1000
PINS
1011
6284.924675701049
1021
-5846.994061601079
1031
0.0
1002
}
1002
{
1000
HVAL
1000
297
1002
}
1002
{
1000
H
1070
     2
1002
}
1002
{
1000
WVAL
1000
420
1002
}
1002
{
1000
W
1070
     2
1002
}
1002
{
1000
C
1070
     4
1002
}
1001
GENIUS_GENOBJ-N-REC_13
1002
{
1000
OWNER
1000
GEN
1002
}
1001
GENIUS_GENODEF_13
1002
{
1000
HIER
1070
     0
1002
}
1002
{
1000
MANEDIT
1070
     0
1002
}
1002
{
1000
NOSEL
1070
     0
1002
}
1002
{
1000
BEHIND
1070
     0
1002
}
1002
{
1000
OTHER
1070
     0
1002
}
1002
{
1000
REACTOR
1002
}
  0
LINE
  5
43AF2
330
1F
100
AcDbEntity
  8
size
100
AcDbLine
 10
6074.924675701049
 20
-5995.494061601078
 30
0.0
 11
6371.924675701049
 21
-5995.494061601078
 31
0.0
1001
GENIUS_GENREC_14
1002
{
1000
PYDIR
1011
6074.924675701049
1021
-5698.494061601079
1031
0.0
1002
}
1002
{
1000
PXDIR
1011
6494.924675701049
1021
-5995.494061601078
1031
0.0
1002
}
1002
{
1000
PORI
1011
6074.924675701049
1021
-5995.494061601078
1031
0.0
1002
}
1002
{
1000
PINS
1011
6284.924675701049
1021
-5846.994061601079
1031
0.0
1002
}
1002
{
1000
HVAL
1000
297
1002
}
1002
{
1000
H
1070
     2
1002
}
1002
{
1000
WVAL
1000
420
1002
}
1002
{
1000
W
1070
     2
1002
}
1002
{
1000
C
1070
     4
1002
}
1001
GENIUS_GENOBJ-N-REC_13
1002
{
1000
OWNER
1000
GEN
1002
}
1001
GENIUS_GENODEF_13
1002
{
1000
HIER
1070
     0
1002
}
1002
{
1000
MANEDIT
1070
     0
1002
}
1002
{
1000
NOSEL
1070
     0
1002
}
1002
{
1000
BEHIND
1070
     0
1002
}
1002
{
1000
OTHER
1070
     0
1002
}
1002
{
1000
REACTOR
1002
}
  0
LINE
  5
43AF3
330
1F
100
AcDbEntity
  8
AM_5
370
    13
100
AcDbLine
 10
6106.424675701049
 20
-5793.994061601079
 30
0.0
 11
6106.424675701049
 21
-5825.994061601079
 31
0.0
  0
LINE
  5
43AF4
330
1F
100
AcDbEntity
  8
AM_5
370
    13
100
AcDbLine
 10
6086.424675701049
 20
-5801.994061601079
 30
0.0
 11
6173.424675701049
 21
-5801.994061601079
 31
0.0
  0
LINE
  5
43AF5
330
1F
100
AcDbEntity
  8
AM_5
370
    13
100
AcDbLine
 10
6086.424675701049
 20
-5809.994061601079
 30
0.0
 11
6173.424675701049
 21
-5809.994061601079
 31
0.0
  0
LINE
  5
43AF6
330
1F
100
AcDbEntity
  8
AM_5
370
    13
100
AcDbLine
 10
6086.424675701049
 20
-5817.994061601079
 30
0.0
 11
6173.424675701049
 21
-5817.994061601079
 31
0.0
  0
LINE
  5
43AF7
330
1F
100
AcDbEntity
  8
AM_0
  6
中線
 48
0.5
370
    30
100
AcDbLine
 10
6086.424675701049
 20
-5825.994061601079
 30
0.0
 11
6173.424675701049
 21
-5825.994061601079
 31
0.0
  0
LINE
  5
43AF8
330
1F
100
AcDbEntity
  8
AM_0
  6
中線
 48
0.5
370
    30
100
AcDbLine
 10
6086.424675701049
 20
-5793.994061601079
 30
0.0
 11
6086.424675701049
 21
-5825.99406160108
 31
0.0
  0
LINE
  5
43AF9
330
1F
100
AcDbEntity
  8
AM_0
  6
中線
 48
0.5
370
    30
100
AcDbLine
 10
6086.424675701049
 20
-5793.994061601079
 30
0.0
 11
6173.424675701049
 21
-5793.994061601079
 31
0.0
  0
LINE
  5
43AFA
330
1F
100
AcDbEntity
  8
AM_0
  6
中線
 48
0.5
370
    30
100
AcDbLine
 10
6173.424675701049
 20
-5793.994061601079
 30
0.0
 11
6173.424675701048
 21
-5825.994061601079
 31
0.0
  0
TEXT
  5
43AFB
330
1F
100
AcDbEntity
  8
AM_6
100
AcDbText
 10
6092.08167570105
 20
-5799.594061601079
 30
0.0
 40
3.2
  1
品　名
 41
0.85537027
100
AcDbText
  0
TEXT
  5
43AFC
330
1F
100
AcDbEntity
  8
AM_6
100
AcDbText
 10
6092.08167570105
 20
-5807.594061601079
 30
0.0
 40
3.2
  1
品　番
 41
0.85537027
100
AcDbText
  0
TEXT
  5
43AFD
330
1F
100
AcDbEntity
  8
AM_6
100
AcDbText
 10
6092.08167570105
 20
-5815.594061601079
 30
0.0
 40
3.2
  1
材　質
 41
0.85537027
100
AcDbText
  0
TEXT
  5
43AFE
330
1F
100
AcDbEntity
  8
AM_6
100
AcDbText
 10
6092.08167570105
 20
-5823.594061601079
 30
0.0
 40
3.2
  1
仕上げ
 41
0.85537027
100
AcDbText
  0
TEXT
  5
43AFF
330
1F
100
AcDbEntity
  8
AM_6
100
AcDbText
 10
6109.281675701049
 20
-5799.594061601079
 30
0.0
 40
3.2
  1
スプリングパチン錠
 41
0.84306961
100
AcDbText
  0
TEXT
  5
43B00
330
1F
100
AcDbEntity
  8
AM_6
100
AcDbText
 10
6109.281675701049
 20
-5807.594061601079
 30
0.0
 40
3.2
  1
ELP-121S
 41
0.84741102
100
AcDbText
  0
TEXT
  5
43B01
330
1F
100
AcDbEntity
  8
AM_6
100
AcDbText
 10
6109.281675701049
 20
-5815.594061601079
 30
0.0
 40
3.2
  1
ステンレス
 41
0.84634979
100
AcDbText
  0
TEXT
  5
43B02
330
1F
100
AcDbEntity
  8
AM_6
100
AcDbText
 10
6109.281675701049
 20
-5823.594061601079
 30
0.0
 40
3.2
  1
バレル研磨
 41
0.84350122
100
AcDbText
  0
TEXT
  5
4E0E8
330
1F
100
AcDbEntity
  8
AM_6
 60
     1
100
AcDbText
 10
5957.394900433246
 20
-5651.939004350452
 30
0.0
 40
2.5
  1
!GENTITLE-INSERT
100
AcDbText
  0
TEXT
  5
4E0E9
330
1F
100
AcDbEntity
  8
AM_6
 60
     1
100
AcDbText
 10
5548.894900433246
 20
-5660.439004350451
 30
0.0
 40
2.5
  1
!GENTITLE-LL
100
AcDbText
  0
TEXT
  5
4E0EA
330
1F
100
AcDbEntity
  8
AM_6
 60
     1
100
AcDbText
 10
5968.894900433246
 20
-5363.439004350452
 30
0.0
 40
2.5
  1
!GENTITLE-RU
100
AcDbText
  0
TEXT
  5
4E0EB
330
1F
100
AcDbEntity
  8
AM_6
 60
     1
100
AcDbText
 10
5968.894900433246
 20
-5363.439004350452
 30
0.0
 40
2.5
  1
!GENTITLE-MAX
100
AcDbText
  0
TEXT
  5
4E0F3
330
1F
100
AcDbEntity
  8
AM_6
 60
     1
100
AcDbText
 10
5548.894900433246
 20
-5660.439004350451
 30
0.0
 40
2.5
  1
!GENTITLE-LL
100
AcDbText
  0
TEXT
  5
4E0F4
330
1F
100
AcDbEntity
  8
AM_6
 60
     1
100
AcDbText
 10
5957.394900433246
 20
-5371.939004350451
 30
0.0
 40
2.5
  1
!GENTITLE-RU
100
AcDbText
  0
TEXT
  5
4E0F5
330
1F
100
AcDbEntity
  8
AM_6
 60
     1
100
AcDbText
 10
5968.894900433246
 20
-5363.439004350452
 30
0.0
 40
2.5
  1
!GENTITLE-MAX
100
AcDbText
  0
TEXT
  5
4E0F6
330
1F
100
AcDbEntity
  8
AM_6
 60
     1
100
AcDbText
 10
5957.394900433246
 20
-5651.939004350452
 30
0.0
 40
2.5
  1
!GENTITLE-INSERT
100
AcDbText
  0
LINE
  5
4E8AC
330
1F
100
AcDbEntity
  8
AM_7
  6
中心線1
 48
0.5
370
    13
100
AcDbLine
 10
6175.819906457229
 20
-5874.732976608533
 30
0.0
 11
6288.494782457229
 21
-5874.732976608533
 31
0.0
  0
LINE
  5
4E8AD
330
1F
100
AcDbEntity
  8
AM_0
  6
中線
 48
0.5
370
    30
100
AcDbLine
 10
6193.623338457229
 20
-5864.232976608533
 30
0.0
 11
6202.12333845723
 21
-5864.232976608533
 31
0.0
  0
LINE
  5
4E8AE
330
1F
100
AcDbEntity
  8
AM_0
  6
中線
 48
0.5
370
    30
100
AcDbLine
 10
6193.623338457229
 20
-5885.232976608533
 30
0.0
 11
6202.12333845723
 21
-5885.232976608533
 31
0.0
  0
LINE
  5
4E8AF
330
1F
100
AcDbEntity
  8
AM_7
  6
中心線1
 48
0.5
370
    13
100
AcDbLine
 10
6262.12333845723
 20
-5880.482976608533
 30
0.0
 11
6262.12333845723
 21
-5868.982976608533
 31
0.0
  0
LINE
  5
4E8B0
330
1F
100
AcDbEntity
  8
AM_0
  6
中線
 48
0.5
370
    30
100
AcDbLine
 10
6224.123338457229
 20
-5886.232976608533
 30
0.0
 11
6224.123338457229
 21
-5863.232976608533
 31
0.0
  0
LINE
  5
4E8B1
330
1F
100
AcDbEntity
  8
AM_0
  6
中線
 48
0.5
370
    30
100
AcDbLine
 10
6224.123338457229
 20
-5863.232976608533
 30
0.0
 11
6262.523338457228
 21
-5863.232976608533
 31
0.0
  0
LINE
  5
4E8B2
330
1F
100
AcDbEntity
  8
AM_0
  6
中線
 48
0.5
370
    30
100
AcDbLine
 10
6224.123338457229
 20
-5886.232976608533
 30
0.0
 11
6262.52333845723
 21
-5886.232976608533
 31
0.0
  0
ARC
  5
4E8B3
330
1F
100
AcDbEntity
  8
AM_0
  6
中線
 48
0.5
370
    30
100
AcDbCircle
 10
6276.473338457229
 20
-5874.732976608533
 30
0.0
 40
9.65
100
AcDbArc
 50
270.0
 51
90.0
  0
LINE
  5
4E8B4
330
1F
100
AcDbEntity
  8
AM_0
  6
中線
 48
0.5
370
    30
100
AcDbLine
 10
6262.52333845723
 20
-5886.232976608533
 30
0.0
 11
6262.52333845723
 21
-5884.382976608534
 31
0.0
  0
LINE
  5
4E8B5
330
1F
100
AcDbEntity
  8
AM_0
  6
中線
 48
0.5
370
    30
100
AcDbLine
 10
6280.62333845723
 20
-5865.082976608533
 30
0.0
 11
6275.473338457229
 21
-5865.082976608534
 31
0.0
  0
LINE
  5
4E8B6
330
1F
100
AcDbEntity
  8
AM_0
  6
中線
 48
0.5
370
    30
100
AcDbLine
 10
6280.62333845723
 20
-5884.382976608534
 30
0.0
 11
6275.473338457228
 21
-5884.382976608533
 31
0.0
  0
LINE
  5
4E8B7
330
1F
100
AcDbEntity
  8
AM_0
  6
中線
 48
0.5
370
    30
100
AcDbLine
 10
6262.52333845723
 20
-5865.082976608533
 30
0.0
 11
6262.52333845723
 21
-5863.232976608533
 31
0.0
  0
CIRCLE
  5
4E8B8
330
1F
100
AcDbEntity
  8
AM_3
  6
陰線1
 48
0.5
370
    13
100
AcDbCircle
 10
6276.12333845723
 20
-5874.732976608533
 30
0.0
 40
2.6
  0
CIRCLE
  5
4E8B9
330
1F
100
AcDbEntity
  8
AM_3
  6
陰線1
 48
0.5
370
    13
100
AcDbCircle
 10
6262.12333845723
 20
-5874.732976608533
 30
0.0
 40
2.6
  0
CIRCLE
  5
4E8BA
330
1F
100
AcDbEntity
  8
AM_3
  6
陰線1
 48
0.5
370
    13
100
AcDbCircle
 10
6248.123338457229
 20
-5874.732976608533
 30
0.0
 40
2.6
  0
CIRCLE
  5
4E8BB
330
1F
100
AcDbEntity
  8
AM_0
  6
中線
 48
0.5
370
    30
100
AcDbCircle
 10
6186.12333845723
 20
-5862.232976608533
 30
0.0
 40
2.6
  0
CIRCLE
  5
4E8BC
330
1F
100
AcDbEntity
  8
AM_0
  6
中線
 48
0.5
370
    30
100
AcDbCircle
 10
6186.12333845723
 20
-5887.232976608533
 30
0.0
 40
2.6
  0
ARC
  5
4E8BD
330
1F
100
AcDbEntity
  8
AM_0
  6
中線
 48
0.5
370
    30
100
AcDbCircle
 10
6186.12333845723
 20
-5862.732976608533
 30
0.0
 40
6.5
100
AcDbArc
 50
0.0
 51
180.0
  0
LINE
  5
4E8BE
330
1F
100
AcDbEntity
  8
AM_0
  6
中線
 48
0.5
370
    30
100
AcDbLine
 10
6179.623338457229
 20
-5862.732976608533
 30
0.0
 11
6179.623338457229
 21
-5886.732976608533
 31
0.0
  0
ARC
  5
4E8BF
330
1F
100
AcDbEntity
  8
AM_0
  6
中線
 48
0.5
370
    30
100
AcDbCircle
 10
6186.12333845723
 20
-5886.732976608533
 30
0.0
 40
6.5
100
AcDbArc
 50
180.0
 51
0.0
  0
LINE
  5
4E8C0
330
1F
100
AcDbEntity
  8
AM_0
  6
中線
 48
0.5
370
    30
100
AcDbLine
 10
6202.12333845723
 20
-5864.232976608533
 30
0.0
 11
6202.12333845723
 21
-5885.232976608533
 31
0.0
  0
LINE
  5
4E8C1
330
1F
100
AcDbEntity
  8
AM_7
  6
中心線1
 48
0.5
370
    13
100
AcDbLine
 10
6248.123338457229
 20
-5880.482976608533
 30
0.0
 11
6248.123338457229
 21
-5868.982976608533
 31
0.0
  0
LINE
  5
4E8C2
330
1F
100
AcDbEntity
  8
AM_7
  6
中心線1
 48
0.5
370
    13
100
AcDbLine
 10
6276.12333845723
 20
-5880.482976608533
 30
0.0
 11
6276.12333845723
 21
-5868.982976608533
 31
0.0
  0
LINE
  5
4E8C4
330
1F
100
AcDbEntity
  8
AM_7
  6
中心線1
 48
0.5
370
    13
100
AcDbLine
 10
6186.12333845723
 20
-5891.932976608533
 30
0.0
 11
6186.12333845723
 21
-5857.532976608533
 31
0.0
  0
LINE
  5
4E8C5
330
1F
100
AcDbEntity
  8
AM_7
  6
中心線1
 48
0.5
370
    13
100
AcDbLine
 10
6190.82333845723
 20
-5887.232976608533
 30
0.0
 11
6181.423338457229
 21
-5887.232976608533
 31
0.0
  0
LINE
  5
4E8C6
330
1F
100
AcDbEntity
  8
AM_7
  6
中心線1
 48
0.5
370
    13
100
AcDbLine
 10
6190.82333845723
 20
-5862.232976608533
 30
0.0
 11
6181.423338457229
 21
-5862.232976608533
 31
0.0
  0
LINE
  5
4E8C7
330
1F
100
AcDbEntity
  8
AM_0
  6
中線
 48
0.5
370
    30
100
AcDbLine
 10
6191.628998950069
 20
-5866.232976608533
 30
0.0
 11
6191.628998950069
 21
-5883.232976608533
 31
0.0
  0
LINE
  5
4E8C8
330
1F
100
AcDbEntity
  8
AM_0
  6
中線
 48
0.5
370
    30
100
AcDbLine
 10
6192.77952295182
 20
-5866.232976608533
 30
0.0
 11
6192.77952295182
 21
-5883.232976608533
 31
0.0
  0
ARC
  5
4E8C9
330
1F
100
AcDbEntity
  8
AM_0
  6
中線
 48
0.5
370
    30
100
AcDbCircle
 10
6193.628998950069
 20
-5883.232976608533
 30
0.0
 40
2.0
100
AcDbArc
 50
180.0
 51
270.0
  0
ARC
  5
4E8CA
330
1F
100
AcDbEntity
  8
AM_0
  6
中線
 48
0.5
370
    30
100
AcDbCircle
 10
6194.77952295182
 20
-5883.232976608533
 30
0.0
 40
2.0
100
AcDbArc
 50
180.0
 51
270.0
  0
ARC
  5
4E8CB
330
1F
100
AcDbEntity
  8
AM_0
  6
中線
 48
0.5
370
    30
100
AcDbCircle
 10
6194.77952295182
 20
-5866.232976608533
 30
0.0
 40
2.0
100
AcDbArc
 50
90.0
 51
180.0
  0
ARC
  5
4E8CC
330
1F
100
AcDbEntity
  8
AM_0
  6
中線
 48
0.5
370
    30
100
AcDbCircle
 10
6193.628998950069
 20
-5866.232976608533
 30
0.0
 40
2.0
100
AcDbArc
 50
90.0
 51
180.0
  0
LINE
  5
4E8CD
330
1F
100
AcDbEntity
  8
AM_0
  6
中線
 48
0.5
370
    30
100
AcDbLine
 10
6262.52333845723
 20
-5928.242264972737
 30
0.0
 11
6262.52333845723
 21
-5941.155834757086
 31
0.0
  0
LINE
  5
4E8CE
330
1F
100
AcDbEntity
  8
AM_0
  6
中線
 48
0.5
370
    30
100
AcDbLine
 10
6232.123338457229
 20
-5944.155834757086
 30
0.0
 11
6241.52333845723
 21
-5944.155834757086
 31
0.0
  0
LINE
  5
4E8CF
330
1F
100
AcDbEntity
  8
AM_0
  6
中線
 48
0.5
370
    30
100
AcDbLine
 10
6262.351765581975
 20
-5942.155834757087
 30
0.0
 11
6282.123338457229
 21
-5942.155834757087
 31
0.0
  0
ARC
  5
4E8D0
330
1F
100
AcDbEntity
  8
AM_0
  6
中線
 48
0.5
370
    30
100
AcDbCircle
 10
6259.523338457229
 20
-5941.155834757086
 30
0.0
 40
3.0
100
AcDbArc
 50
270.0
 51
0.0
  0
ARC
  5
4E8D1
330
1F
100
AcDbEntity
  8
AM_0
  6
中線
 48
0.5
370
    30
100
AcDbCircle
 10
6241.52333845723
 20
-5941.155834757086
 30
0.0
 40
3.0
100
AcDbArc
 50
270.0
 51
321.3178129999948
  0
ARC
  5
4E8D2
330
1F
100
AcDbEntity
  8
AM_0
  6
中線
 48
0.5
370
    30
100
AcDbCircle
 10
6232.123338457229
 20
-5938.155834757086
 30
0.0
 40
6.0
100
AcDbArc
 50
199.8237030823413
 51
270.0
  0
LINE
  5
4E8D3
330
1F
100
AcDbEntity
  8
AM_0
  6
中線
 48
0.5
370
    30
100
AcDbLine
 10
6226.12333845723
 20
-5937.155834757086
 30
0.0
 11
6226.12333845723
 21
-5937.205177041312
 31
0.0
  0
LINE
  5
4E8D4
330
1F
100
AcDbEntity
  8
AM_0
  6
中線
 48
0.5
370
    30
100
AcDbLine
 10
6229.69721345723
 20
-5928.155834757086
 30
0.0
 11
6262.11665645723
 21
-5928.155834757086
 31
0.0
  0
ARC
  5
4E8D5
330
1F
100
AcDbEntity
  8
AM_0
  6
中線
 48
0.5
370
    30
100
AcDbCircle
 10
6234.12333845723
 20
-5936.578879757085
 30
0.0
 40
10.0
100
AcDbArc
 50
129.2202820000161
 51
180.0
  0
ARC
  5
4E8D6
330
1F
100
AcDbEntity
  8
AM_0
  6
中線
 48
0.5
370
    30
100
AcDbCircle
 10
6229.69721345723
 20
-5931.155834757086
 30
0.0
 40
3.0
100
AcDbArc
 50
90.0
 51
129.2202820000161
  0
ARC
  5
4E8D7
330
1F
100
AcDbEntity
  8
AM_0
  6
中線
 48
0.5
370
    30
100
AcDbCircle
 10
6234.257706457229
 20
-5936.608487757087
 30
0.0
 40
8.634418999999999
100
AcDbArc
 50
123.9773699999933
 51
179.8035289999903
  0
LINE
  5
4E8D8
330
1F
100
AcDbEntity
  8
AM_0
  6
中線
 48
0.5
370
    30
100
AcDbLine
 10
6225.623338457229
 20
-5936.578879757085
 30
0.0
 11
6224.123338457229
 21
-5936.578879757085
 31
0.0
  0
ARC
  5
4E8D9
330
1F
100
AcDbEntity
  8
AM_0
  6
中線
 48
0.5
370
    30
100
AcDbCircle
 10
6230.12333845723
 20
-5933.155834757086
 30
0.0
 40
3.0
100
AcDbArc
 50
287.204774999995
 51
41.58597899998579
  0
LINE
  5
4E8DA
330
1F
100
AcDbEntity
  8
AM_0
  6
中線
 48
0.5
370
    30
100
AcDbLine
 10
6230.681872457229
 20
-5929.554515757086
 30
0.0
 11
6232.36722045723
 21
-5931.164604757086
 31
0.0
  0
ARC
  5
4E8DB
330
1F
100
AcDbEntity
  8
AM_0
  6
中線
 48
0.5
370
    30
100
AcDbCircle
 10
6227.62333845723
 20
-5937.655834757086
 30
0.0
 40
1.5
100
AcDbArc
 50
90.0
 51
162.3671951722887
  0
ARC
  5
4E8DC
330
1F
100
AcDbEntity
  8
AM_0
  6
中線
 48
0.5
370
    30
100
AcDbCircle
 10
6250.523338457229
 20
-5943.655834757087
 30
0.0
 40
1.0
100
AcDbArc
 50
14.43126199997528
 51
90.0
  0
ARC
  5
4E8DD
330
1F
100
AcDbEntity
  8
AM_0
  6
中線
 48
0.5
370
    30
100
AcDbCircle
 10
6244.64583745723
 20
-5943.655834757087
 30
0.0
 40
1.0
100
AcDbArc
 50
90.0
 51
141.3178129999948
  0
ARC
  5
4E8DE
330
1F
100
AcDbEntity
  8
AM_0
  6
中線
 48
0.5
370
    30
100
AcDbCircle
 10
6252.45982945723
 20
-5943.155834757086
 30
0.0
 40
1.0
100
AcDbArc
 50
194.5237719999752
 51
270.0
  0
LINE
  5
4E8DF
330
1F
100
AcDbEntity
  8
AM_0
  6
中線
 48
0.5
370
    30
100
AcDbLine
 10
6244.64583745723
 20
-5942.655834757086
 30
0.0
 11
6250.523338457229
 21
-5942.655834757086
 31
0.0
  0
LINE
  5
4E8E0
330
1F
100
AcDbEntity
  8
AM_0
  6
中線
 48
0.5
370
    30
100
AcDbLine
 10
6244.790460457229
 20
-5944.155834757086
 30
0.0
 11
6282.123338457229
 21
-5944.155834757086
 31
0.0
  0
ARC
  5
4E8E1
330
1F
100
AcDbEntity
  8
AM_0
  6
中線
 48
0.5
370
    30
100
AcDbCircle
 10
6229.991093457229
 20
-5930.277581757087
 30
0.0
 40
1.0
100
AcDbArc
 50
46.30824200000886
 51
123.9773699999933
  0
LINE
  5
4E8E2
330
1F
100
AcDbEntity
  8
AM_0
  6
中線
 48
0.5
370
    30
100
AcDbLine
 10
6250.189923457229
 20
-5942.655834757086
 30
0.0
 11
6250.189923457229
 21
-5944.155834757086
 31
0.0
  0
ARC
  5
4E8E3
330
1F
100
AcDbEntity
  8
AM_0
  6
中線
 48
0.5
370
    30
100
AcDbCircle
 10
6244.790460457229
 20
-5940.155834757086
 30
0.0
 40
4.0
100
AcDbArc
 50
243.9253050000255
 51
270.0
  0
LINE
  5
4E8E4
330
1F
100
AcDbEntity
  8
AM_0
  6
中線
 48
0.5
370
    30
100
AcDbLine
 10
6245.189923457229
 20
-5942.655834757086
 30
0.0
 11
6245.189923457229
 21
-5944.155834757086
 31
0.0
  0
LINE
  5
4E8E5
330
1F
100
AcDbEntity
  8
AM_0
  6
中線
 48
0.5
370
    30
100
AcDbLine
 10
6282.123338457229
 20
-5944.155834757086
 30
0.0
 11
6282.123338457229
 21
-5942.155834757087
 31
0.0
  0
ARC
  5
4E8E6
330
1F
100
AcDbEntity
  8
AM_0
  6
中線
 48
0.5
370
    30
100
AcDbCircle
 10
6273.08550845723
 20
-5917.604412757086
 30
0.0
 40
14.929566
100
AcDbArc
 50
226.4818350000235
 51
312.2483669999917
  0
ARC
  5
4E8E7
330
1F
100
AcDbEntity
  8
AM_0
  6
中線
 48
0.5
370
    30
100
AcDbCircle
 10
6273.08550845723
 20
-5917.604412757086
 30
0.0
 40
16.429566
100
AcDbArc
 50
229.9934050000025
 51
312.2483649999973
  0
LINE
  5
4E8E8
330
1F
100
AcDbEntity
  8
AM_0
  6
中線
 48
0.5
370
    30
100
AcDbLine
 10
6283.12333845723
 20
-5928.655834757086
 30
0.0
 11
6284.131856457229
 21
-5929.766190757086
 31
0.0
  0
ARC
  5
4E8E9
330
1F
100
AcDbEntity
  8
AM_0
  6
中線
 48
0.5
370
    30
100
AcDbCircle
 10
6262.11665645723
 20
-5929.155834757086
 30
0.0
 40
1.0
100
AcDbArc
 50
46.48183500002356
 51
90.0
  0
LINE
  5
4E8EA
330
1F
100
AcDbEntity
  8
AM_0
  6
中線
 48
0.5
370
    30
100
AcDbLine
 10
6226.01070145723
 20
-5934.655834757086
 30
0.0
 11
6231.010701457229
 21
-5934.655834757086
 31
0.0
  0
LINE
  5
4E8EB
330
1F
100
AcDbEntity
  8
AM_0
  6
中線
 48
0.5
370
    30
100
AcDbLine
 10
6226.01070145723
 20
-5936.155834757086
 30
0.0
 11
6226.01070145723
 21
-5934.655834757086
 31
0.0
  0
LINE
  5
4E8EC
330
1F
100
AcDbEntity
  8
AM_0
  6
中線
 48
0.5
370
    30
100
AcDbLine
 10
6231.010701457229
 20
-5936.155834757086
 30
0.0
 11
6231.010701457229
 21
-5934.655834757086
 31
0.0
  0
LINE
  5
4E8ED
330
1F
100
AcDbEntity
  8
AM_0
  6
中線
 48
0.5
370
    30
100
AcDbLine
 10
6226.01070145723
 20
-5936.155834757086
 30
0.0
 11
6231.010701457229
 21
-5936.155834757086
 31
0.0
  0
ARC
  5
4E8F0
330
1F
100
AcDbEntity
  8
AM_0
  6
中線
 48
0.5
370
    30
100
AcDbCircle
 10
6254.523338457229
 20
-5937.155834757086
 30
0.0
 40
2.5
100
AcDbArc
 50
221.2578879999857
 51
147.493949999992
  0
LINE
  5
4E8F1
330
1F
100
AcDbEntity
  8
AM_0
  6
中線
 48
0.5
370
    30
100
AcDbLine
 10
6179.623338457229
 20
-5942.155834757087
 30
0.0
 11
6179.623338457229
 21
-5944.155834757086
 31
0.0
  0
LINE
  5
4E8F2
330
1F
100
AcDbEntity
  8
AM_0
  6
中線
 48
0.5
370
    30
100
AcDbLine
 10
6198.12333845723
 20
-5944.155834757086
 30
0.0
 11
6179.623338457229
 21
-5944.155834757086
 31
0.0
  0
LINE
  5
4E8F3
330
1F
100
AcDbEntity
  8
AM_0
  6
中線
 48
0.5
370
    30
100
AcDbLine
 10
6198.12333845723
 20
-5942.155834757087
 30
0.0
 11
6179.623338457229
 21
-5942.155834757087
 31
0.0
  0
ARC
  5
4E8F4
330
1F
100
AcDbEntity
  8
AM_0
  6
中線
 48
0.5
370
    30
100
AcDbCircle
 10
6198.12333845723
 20
-5940.155834757086
 30
0.0
 40
4.0
100
AcDbArc
 50
270.0
 51
340.1570800000087
  0
LINE
  5
4E8F5
330
1F
100
AcDbEntity
  8
AM_0
  6
中線
 48
0.5
370
    30
100
AcDbLine
 10
6192.27952295007
 20
-5931.155834757086
 30
0.0
 11
6200.424385457229
 21
-5936.883957757085
 31
0.0
  0
LINE
  5
4E8F6
330
1F
100
AcDbEntity
  8
AM_0
  6
中線
 48
0.5
370
    30
100
AcDbLine
 10
6191.12899895007
 20
-5932.791773757086
 30
0.0
 11
6199.442189457229
 21
-5938.638277757086
 31
0.0
  0
ARC
  5
4E8F7
330
1F
100
AcDbEntity
  8
AM_0
  6
中線
 48
0.5
370
    30
100
AcDbCircle
 10
6198.12333845723
 20
-5940.155834757086
 30
0.0
 40
2.0
100
AcDbArc
 50
270.0
 51
312.0319579999984
  0
LINE
  5
4E8F8
330
1F
100
AcDbEntity
  8
AM_0
  6
中線
 48
0.5
370
    30
100
AcDbLine
 10
6192.27952295007
 20
-5931.155834757086
 30
0.0
 11
6191.12899895007
 21
-5932.791773757086
 31
0.0
  0
LINE
  5
4E8F9
330
1F
100
AcDbEntity
  8
AM_7
  6
中心線1
 48
0.3
370
    13
100
AcDbLine
 10
6186.12333845723
 20
-5947.155834757086
 30
0.0
 11
6186.12333845723
 21
-5939.155834757086
 31
0.0
  0
LINE
  5
4E8FA
330
1F
100
AcDbEntity
  8
AM_7
  6
中心線1
 48
0.3
370
    13
100
AcDbLine
 10
6248.123338457229
 20
-5947.155834757086
 30
0.0
 11
6248.123338457229
 21
-5939.155834757086
 31
0.0
  0
LINE
  5
4E8FB
330
1F
100
AcDbEntity
  8
AM_7
  6
中心線1
 48
0.3
370
    13
100
AcDbLine
 10
6262.12333845723
 20
-5947.155834757086
 30
0.0
 11
6262.12333845723
 21
-5939.155834757086
 31
0.0
  0
LINE
  5
4E8FC
330
1F
100
AcDbEntity
  8
AM_7
  6
中心線1
 48
0.3
370
    13
100
AcDbLine
 10
6276.12333845723
 20
-5947.155834757086
 30
0.0
 11
6276.12333845723
 21
-5939.155834757086
 31
0.0
  0
LINE
  5
4E8FD
330
1F
100
AcDbEntity
  8
AM_0
  6
中線
 48
0.5
370
    30
100
AcDbLine
 10
6192.62333845723
 20
-5942.155834757087
 30
0.0
 11
6192.62333845723
 21
-5944.155834757086
 31
0.0
  0
ARC
  5
4E8FE
330
1F
100
AcDbEntity
  8
AM_0
  6
中線
 48
0.5
370
    30
100
AcDbCircle
 10
6280.62333845723
 20
-5868.082976608533
 30
0.0
 40
3.0
100
AcDbArc
 50
0.0
 51
90.0
  0
LINE
  5
4E8FF
330
1F
100
AcDbEntity
  8
AM_0
  6
中線
 48
0.5
370
    30
100
AcDbLine
 10
6283.623338457229
 20
-5868.252235910126
 30
0.0
 11
6283.623338457229
 21
-5868.082976608533
 31
0.0
  0
ARC
  5
4E900
330
1F
100
AcDbEntity
  8
AM_0
  6
中線
 48
0.5
370
    30
100
AcDbCircle
 10
6280.62333845723
 20
-5881.382976608534
 30
0.0
 40
3.0
100
AcDbArc
 50
270.0
 51
0.0
  0
LINE
  5
4E901
330
1F
100
AcDbEntity
  8
AM_0
  6
中線
 48
0.5
370
    30
100
AcDbLine
 10
6283.623338457231
 20
-5881.213717306939
 30
0.0
 11
6283.623338457229
 21
-5881.382976608534
 31
0.0
  0
ARC
  5
4E902
330
1F
100
AcDbEntity
  8
AM_0
  6
中線
 48
0.5
370
    30
100
AcDbCircle
 10
6275.473338457229
 20
-5874.732976608533
 30
0.0
 40
9.65
100
AcDbArc
 50
270.0
 51
90.0
  0
LINE
  5
4E903
330
1F
100
AcDbEntity
  8
AM_0
  6
中線
 48
0.5
370
    30
100
AcDbLine
 10
6226.01070145723
 20
-5886.932976608533
 30
0.0
 11
6231.010701457229
 21
-5886.932976608533
 31
0.0
  0
LINE
  5
4E904
330
1F
100
AcDbEntity
  8
AM_0
  6
中線
 48
0.5
370
    30
100
AcDbLine
 10
6226.01070145723
 20
-5886.932976608533
 30
0.0
 11
6226.01070145723
 21
-5886.232976608533
 31
0.0
  0
LINE
  5
4E905
330
1F
100
AcDbEntity
  8
AM_0
  6
中線
 48
0.5
370
    30
100
AcDbLine
 10
6231.010701457229
 20
-5886.932976608533
 30
0.0
 11
6231.010701457229
 21
-5886.232976608533
 31
0.0
  0
LINE
  5
4E906
330
1F
100
AcDbEntity
  8
AM_0
  6
中線
 48
0.5
370
    30
100
AcDbLine
 10
6226.01070145723
 20
-5862.532976608534
 30
0.0
 11
6231.010701457229
 21
-5862.532976608534
 31
0.0
  0
LINE
  5
4E907
330
1F
100
AcDbEntity
  8
AM_0
  6
中線
 48
0.5
370
    30
100
AcDbLine
 10
6226.01070145723
 20
-5862.532976608534
 30
0.0
 11
6226.01070145723
 21
-5863.232976608533
 31
0.0
  0
LINE
  5
4E908
330
1F
100
AcDbEntity
  8
AM_0
  6
中線
 48
0.5
370
    30
100
AcDbLine
 10
6231.010701457229
 20
-5862.532976608534
 30
0.0
 11
6231.010701457229
 21
-5863.232976608533
 31
0.0
  0
LINE
  5
4E909
330
1F
100
AcDbEntity
  8
AM_0
  6
中線
 48
0.5
370
    30
100
AcDbLine
 10
6198.56973445723
 20
-5938.657915757086
 30
0.0
 11
6254.526223457229
 21
-5935.707660757086
 31
0.0
  0
LINE
  5
4E90A
330
1F
100
AcDbEntity
  8
AM_0
  6
中線
 48
0.5
370
    30
100
AcDbLine
 10
6198.727687457228
 20
-5941.653754757086
 30
0.0
 11
6254.68417545723
 21
-5938.703499757086
 31
0.0
  0
ARC
  5
4E90B
330
1F
100
AcDbEntity
  8
AM_0
  6
中線
 48
0.5
370
    30
100
AcDbCircle
 10
6198.64871045723
 20
-5940.155834757086
 30
0.0
 40
1.5
100
AcDbArc
 50
93.01807299997888
 51
273.0180729999789
  0
ARC
  5
4E90C
330
1F
100
AcDbEntity
  8
AM_0
  6
中線
 48
0.5
370
    30
100
AcDbCircle
 10
6254.605199457229
 20
-5937.205580757086
 30
0.0
 40
1.5
100
AcDbArc
 50
273.0180729999789
 51
93.01807299997888
  0
ARC
  5
4E90D
330
1F
100
AcDbEntity
  8
AM_0
  6
中線
 48
0.5
370
    30
100
AcDbCircle
 10
6198.12333845723
 20
-5940.155834757086
 30
0.0
 40
4.0
100
AcDbArc
 50
24.21061899998574
 51
54.88202700001493
  0
ARC
  5
4E90E
330
1F
100
AcDbEntity
  8
AM_0
  6
中線
 48
0.5
370
    30
100
AcDbCircle
 10
6226.62275730167
 20
-5971.0541377131
 30
0.0
 40
115.3211601148702
100
AcDbArc
 50
77.06820819134958
 51
102.9278458086447
  0
ARC
  5
4E90F
330
1F
100
AcDbEntity
  8
AM_0
  6
中線
 48
0.5
370
    30
100
AcDbCircle
 10
6202.12333845723
 20
-5863.483933608534
 30
0.0
 40
5.0
100
AcDbArc
 50
105.0780400000127
 51
180.0
  0
ARC
  5
4E910
330
1F
100
AcDbEntity
  8
AM_0
  6
中線
 48
0.5
370
    30
100
AcDbCircle
 10
6251.12333845723
 20
-5863.483933608534
 30
0.0
 40
5.0
100
AcDbArc
 50
2.876965999987682
 51
74.84386500000849
  0
ARC
  5
4E911
330
1F
100
AcDbEntity
  8
AM_0
  6
中線
 48
0.5
370
    30
100
AcDbCircle
 10
6251.12333845723
 20
-5863.483933608534
 30
0.0
 40
2.0
100
AcDbArc
 50
7.208393000007456
 51
74.94370899999481
  0
ARC
  5
4E912
330
1F
100
AcDbEntity
  8
AM_0
  6
中線
 48
0.5
370
    30
100
AcDbCircle
 10
6202.12333845723
 20
-5863.483933608534
 30
0.0
 40
2.0
100
AcDbArc
 50
105.0562910000051
 51
180.0
  0
ARC
  5
4E913
330
1F
100
AcDbEntity
  8
AM_0
  6
中線
 48
0.5
370
    30
100
AcDbCircle
 10
6226.62333845723
 20
-5971.146845134597
 30
0.0
 40
112.4138675260637
100
AcDbArc
 50
77.14019237372399
 51
102.859807626276
  0
ARC
  5
4E914
330
1F
100
AcDbEntity
  8
AM_0
  6
中線
 48
0.5
370
    30
100
AcDbCircle
 10
6226.623338457229
 20
-5778.32126649665
 30
0.0
 40
112.4117101118834
100
AcDbArc
 50
257.139247446447
 51
282.8607525535539
  0
ARC
  5
4E915
330
1F
100
AcDbEntity
  8
AM_0
  6
中線
 48
0.5
370
    30
100
AcDbCircle
 10
6226.623133594762
 20
-5778.411817784557
 30
0.0
 40
115.3211588252569
100
AcDbArc
 50
257.0708761193293
 51
282.930514880628
  0
ARC
  5
4E916
330
1F
100
AcDbEntity
  8
AM_0
  6
中線
 48
0.5
370
    30
100
AcDbCircle
 10
6202.12333845723
 20
-5885.982019608533
 30
0.0
 40
5.0
100
AcDbArc
 50
180.0
 51
254.8966799999962
  0
ARC
  5
4E917
330
1F
100
AcDbEntity
  8
AM_0
  6
中線
 48
0.5
370
    30
100
AcDbCircle
 10
6202.12333845723
 20
-5885.982019608533
 30
0.0
 40
2.0
100
AcDbArc
 50
180.0
 51
254.9043480000042
  0
ARC
  5
4E918
330
1F
100
AcDbEntity
  8
AM_0
  6
中線
 48
0.5
370
    30
100
AcDbCircle
 10
6251.12333845723
 20
-5885.982019608533
 30
0.0
 40
5.0
100
AcDbArc
 50
285.1308549999858
 51
357.1230340000123
  0
ARC
  5
4E919
330
1F
100
AcDbEntity
  8
AM_0
  6
中線
 48
0.5
370
    30
100
AcDbCircle
 10
6251.12333845723
 20
-5885.982019608533
 30
0.0
 40
2.0
100
AcDbArc
 50
285.0956519999958
 51
352.7916069999926
  0
LINE
  5
4E91A
330
1F
100
AcDbEntity
  8
AM_0
  6
中線
 48
0.5
370
    30
100
AcDbLine
 10
6197.12333845723
 20
-5885.232976608533
 30
0.0
 11
6197.12333845723
 21
-5885.982019608533
 31
0.0
  0
LINE
  5
4E91B
330
1F
100
AcDbEntity
  8
AM_0
  6
中線
 48
0.5
370
    30
100
AcDbLine
 10
6200.123338457229
 20
-5885.232976608533
 30
0.0
 11
6200.123338457229
 21
-5885.982019608533
 31
0.0
  0
LINE
  5
4E91C
330
1F
100
AcDbEntity
  8
AM_0
  6
中線
 48
0.5
370
    30
100
AcDbLine
 10
6200.123338457229
 20
-5863.483933608534
 30
0.0
 11
6200.123338457229
 21
-5864.232976608533
 31
0.0
  0
LINE
  5
4E91D
330
1F
100
AcDbEntity
  8
AM_0
  6
中線
 48
0.5
370
    30
100
AcDbLine
 10
6192.62333845723
 20
-5886.732976608533
 30
0.0
 11
6192.62333845723
 21
-5884.961746973024
 31
0.0
  0
LINE
  5
4E91E
330
1F
100
AcDbEntity
  8
AM_0
  6
中線
 48
0.5
370
    30
100
AcDbLine
 10
6192.62333845723
 20
-5862.732976608533
 30
0.0
 11
6192.62333845723
 21
-5864.504206244042
 31
0.0
  0
LINE
  5
4E91F
330
1F
100
AcDbEntity
  8
AM_0
  6
中線
 48
0.5
370
    30
100
AcDbLine
 10
6197.12333845723
 20
-5863.483933608534
 30
0.0
 11
6197.12333845723
 21
-5864.232976608533
 31
0.0
  0
LINE
  5
4E920
330
1F
100
AcDbEntity
  8
AM_0
  6
中線
 48
0.5
370
    30
100
AcDbLine
 10
6275.473338457229
 20
-5865.082976608533
 30
0.0
 11
6262.52333845723
 21
-5865.082976608533
 31
0.0
  0
LINE
  5
4E921
330
1F
100
AcDbEntity
  8
AM_0
  6
中線
 48
0.5
370
    30
100
AcDbLine
 10
6275.47333845723
 20
-5884.382976608533
 30
0.0
 11
6262.52333845723
 21
-5884.382976608534
 31
0.0
  0
DIMENSION
  5
4E92A
330
1F
100
AcDbEntity
  8
AM_5
100
AcDbDimension
  2
*D7
 10
6224.123338457229
 20
-5847.232977608534
 30
0.0
 11
6255.12333845723
 21
-5844.632977608533
 31
0.0
 70
    32
  1
（A）
 71
     5
 42
61.99999999999909
  3
SYS$0
100
AcDbAlignedDimension
 13
6286.123338457229
 23
-5874.732976608533
 33
0.0
 14
6224.123338457229
 24
-5863.232976608533
 34
0.0
100
AcDbRotatedDimension
  0
DIMENSION
  5
4E964
330
1F
100
AcDbEntity
  8
AM_5
100
AcDbDimension
  2
*D8
 10
6302.123338457228
 20
-5855.732977667197
 30
0.0
 11
6302.123338457229
 21
-5874.732976608533
 31
0.0
 70
   160
  1
（B）
 71
     5
 42
37.99999893412041
  3
SYS$0
100
AcDbAlignedDimension
 13
6226.624533451161
 23
-5893.732976601317
 33
0.0
 14
6226.626745643415
 24
-5855.732977667197
 34
0.0
 50
90.00000000000003
100
AcDbRotatedDimension
  0
DIMENSION
  5
4E99E
330
1F
100
AcDbEntity
  8
AM_5
100
AcDbDimension
  2
*D9
 10
6294.123338457228
 20
-5863.232976608533
 30
0.0
 11
6294.123338457229
 21
-5874.732976608533
 31
0.0
 70
   160
  1
C
 71
     5
 42
23.0
  3
SYS$0
100
AcDbAlignedDimension
 13
6262.52333845723
 23
-5886.232976608533
 33
0.0
 14
6262.52333845723
 24
-5863.232976608533
 34
0.0
 50
90.0
100
AcDbRotatedDimension
  0
DIMENSION
  5
4E9C5
330
1F
100
AcDbEntity
  8
AM_5
100
AcDbDimension
  2
*D10
 10
6179.623338457229
 20
-5847.232977608534
 30
0.0
 11
6190.623338457231
 21
-5847.232977608534
 31
0.0
 70
   160
  1
（D）
 71
     5
 42
22.0
  3
SYS$0
100
AcDbAlignedDimension
 13
6201.623338457229
 23
-5864.232976608533
 33
0.0
 14
6179.623338457229
 24
-5862.232976608533
 34
0.0
100
AcDbRotatedDimension
  0
DIMENSION
  5
4E9FF
330
1F
100
AcDbEntity
  8
AM_5
100
AcDbDimension
  2
*D11
 10
6163.623338457228
 20
-5893.232976608533
 30
0.0
 11
6163.62333845723
 21
-5874.732976608531
 31
0.0
 70
   160
  1
E
 71
     5
 42
37.0
  3
SYS$0
100
AcDbAlignedDimension
 13
6186.12333845723
 23
-5856.232976608533
 33
0.0
 14
6186.12333845723
 24
-5893.232976608533
 34
0.0
 50
90.00000000000003
100
AcDbRotatedDimension
  0
DIMENSION
  5
4EA28
330
1F
100
AcDbEntity
  8
AM_5
100
AcDbDimension
  2
*D12
 10
6216.567187172383
 20
-5893.293703277224
 30
0.0
 11
6213.495482667202
 21
-5897.763852204593
 31
0.0
 70
    33
  1
%%cF
 71
     5
 42
3.000014039595953
  3
SYS$0
100
AcDbAlignedDimension
 13
6216.873018402818
 23
-5890.309318667918
 33
0.0
 14
6216.56718717239
 24
-5893.293703277225
 34
0.0
  0
DIMENSION
  5
4EA68
330
1F
100
AcDbEntity
  8
AM_5
100
AcDbDimension
  2
*D13
 10
6296.123338457229
 20
-5928.155834757086
 30
0.0
 11
6296.123338457229
 21
-5935.905834757084
 31
0.0
 70
   160
  1
（G）
 71
     5
 42
16.0
  3
SYS$0
100
AcDbAlignedDimension
 13
6282.123338457229
 23
-5944.155834757086
 33
0.0
 14
6262.11665645723
 24
-5928.155834757086
 34
0.0
 50
90.0
100
AcDbRotatedDimension
  0
DIMENSION
  5
4EA98
330
1F
100
AcDbEntity
  8
AM_5
100
AcDbDimension
  2
*D14
 10
6288.123338457229
 20
-5942.155834757087
 30
0.0
 11
6288.123338457229
 21
-5947.902501423751
 31
0.0
 70
   160
  1
H
 71
     5
 42
1.99999999999909
  3
SYS$0
100
AcDbAlignedDimension
 13
6282.123338457229
 23
-5944.155834757086
 33
0.0
 14
6282.123338457229
 24
-5942.155834757087
 34
0.0
 50
90.0
100
AcDbRotatedDimension
  0
DIMENSION
  5
4EAC7
330
1F
100
AcDbEntity
  8
AM_5
100
AcDbDimension
  2
*D15
 10
6163.623338457228
 20
-5931.155834760128
 30
0.0
 11
6163.62333845723
 21
-5937.624706550876
 31
0.0
 70
   160
  1
I
 71
     5
 42
12.99999999695774
  3
SYS$0
100
AcDbAlignedDimension
 13
6179.623338457229
 23
-5944.155834757086
 33
0.0
 14
6192.279522954396
 24
-5931.155834760128
 34
0.0
 50
90.00000000000003
100
AcDbRotatedDimension
  0
DIMENSION
  5
4EAEE
330
1F
100
AcDbEntity
  8
AM_5
100
AcDbDimension
  2
*D16
 10
6171.623338457229
 20
-5942.155834757087
 30
0.0
 11
6171.62333845723
 21
-5947.689168090418
 31
0.0
 70
   160
  1
J
 71
     5
 42
2.0
  3
SYS$0
100
AcDbAlignedDimension
 13
6179.623338457229
 23
-5944.155834757086
 33
0.0
 14
6179.623338457229
 24
-5942.155834757087
 34
0.0
 50
90.00000000000003
100
AcDbRotatedDimension
  0
DIMENSION
  5
4EB1D
330
1F
100
AcDbEntity
  8
AM_5
100
AcDbDimension
  2
*D17
 10
6224.123338457229
 20
-5902.232976608534
 30
0.0
 11
6236.547927814405
 21
-5902.232976608534
 31
0.0
 70
   160
  1
L
 71
     5
 42
24.0
  3
SYS$0
100
AcDbAlignedDimension
 13
6248.123338457229
 23
-5880.482976608533
 33
0.0
 14
6224.123338457229
 24
-5886.232976608533
 34
0.0
100
AcDbRotatedDimension
  0
DIMENSION
  5
4EB33
330
1F
100
AcDbEntity
  8
AM_5
100
AcDbDimension
  2
*D18
 10
6262.12333845723
 20
-5910.232976608533
 30
0.0
 11
6255.12333845723
 21
-5910.232976608533
 31
0.0
 70
   160
  1
K1
 71
     5
 42
14.0
  3
SYS$0
100
AcDbAlignedDimension
 13
6248.123338457229
 23
-5880.482976608533
 33
0.0
 14
6262.12333845723
 24
-5880.482976608533
 34
0.0
100
AcDbRotatedDimension
  0
DIMENSION
  5
4EB49
330
1F
100
AcDbEntity
  8
AM_5
100
AcDbDimension
  2
*D19
 10
6276.12333845723
 20
-5910.232976608533
 30
0.0
 11
6269.12333845723
 21
-5910.232976608533
 31
0.0
 70
   160
  1
K2
 71
     5
 42
14.0
  3
SYS$0
100
AcDbAlignedDimension
 13
6262.12333845723
 23
-5880.482976608533
 33
0.0
 14
6276.12333845723
 24
-5880.482976608533
 34
0.0
100
AcDbRotatedDimension
  0
DIMENSION
  5
4EBA4
330
1F
100
AcDbEntity
  8
AM_5
100
AcDbDimension
  2
*D20
 10
6274.871554448144
 20
-5872.340689670349
 30
0.0
 11
6298.152687906743
 21
-5906.564322517883
 31
0.0
 70
   163
  1
3-%%cM\P2-%%cN
 71
     5
 42
5.400000000003274
  3
SYS$3
100
AcDbDiametricDimension
 15
6277.375122466312
 25
-5877.125263546719
 35
0.0
 40
0.0
1001
ACAD
1000
DSTYLE
1002
{
1070
    41
1040
1.0
1070
   172
1070
     1
1070
   342
1005
6C4
1002
}
  0
DIMENSION
  5
4EBFF
330
1F
100
AcDbEntity
  8
AM_5
100
AcDbDimension
  2
*D21
 10
6186.12333845723
 20
-5910.232976608533
 30
0.0
 11
6217.740944080674
 21
-5910.232976608533
 31
0.0
 70
   160
  1
（O）
 71
     5
 42
62.0
  3
SYS$0
100
AcDbAlignedDimension
 13
6248.123338457229
 23
-5880.482976608533
 33
0.0
 14
6186.12333845723
 24
-5891.932976608533
 34
0.0
100
AcDbRotatedDimension
  0
DIMENSION
  5
4EC26
330
1F
100
AcDbEntity
  8
AM_5
100
AcDbDimension
  2
*D22
 10
6202.12333845723
 20
-5902.232976608534
 30
0.0
 11
6193.87333845723
 21
-5902.232976608534
 31
0.0
 70
   160
  1
（P）
 71
     5
 42
16.0
  3
SYS$0
100
AcDbAlignedDimension
 13
6186.12333845723
 23
-5891.932976608533
 33
0.0
 14
6202.12333845723
 24
-5885.232976608533
 34
0.0
100
AcDbRotatedDimension
  0
DIMENSION
  5
4EC4D
330
1F
100
AcDbEntity
  8
AM_5
100
AcDbDimension
  2
*D23
 10
6171.623338457229
 20
-5887.232976608533
 30
0.0
 11
6171.62333845723
 21
-5874.732976608533
 31
0.0
 70
   160
  1
Q
 71
     5
 42
25.0
  3
SYS$0
100
AcDbAlignedDimension
 13
6181.423338457229
 23
-5862.232976608533
 33
0.0
 14
6181.423338457229
 24
-5887.232976608533
 34
0.0
 50
90.00000000000003
100
AcDbRotatedDimension
  0
MTEXT
  5
4EF8F
330
1F
100
AcDbEntity
  8
AM_6
100
AcDbMText
 10
6128.424675701051
 20
-5968.736936899461
 30
0.0
 40
3.200000000000001
 41
0.0
 71
     5
 72
     1
  1
品番
 73
     1
 44
1.0
1001
ACAD
1000
MTEXTBEGIN
1070
    73
1070
     1
1070
    44
1040
1.0
1070
    74
1070
     0
1000
MTEXTEND
  0
LINE
  5
4EF90
330
1F
100
AcDbEntity
  8
AM_0
100
AcDbLine
 10
6114.67467570105
 20
-5971.736936899461
 30
0.0
 11
6332.174675701051
 21
-5971.736936899464
 31
0.0
  0
LINE
  5
4EF91
330
1F
100
AcDbEntity
  8
AM_0
100
AcDbLine
 10
6114.67467570105
 20
-5965.736936899461
 30
0.0
 11
6332.174675701051
 21
-5965.736936899464
 31
0.0
  0
LINE
  5
4EF92
330
1F
100
AcDbEntity
  8
AM_0
100
AcDbLine
 10
6142.174675701051
 20
-5965.736936899461
 30
0.0
 11
6142.174675701051
 21
-5983.736936899461
 31
0.0
  0
LINE
  5
4EF93
330
1F
100
AcDbEntity
  8
AM_0
100
AcDbLine
 10
6114.67467570105
 20
-5965.736936899461
 30
0.0
 11
6114.67467570105
 21
-5983.736936899459
 31
0.0
  0
MTEXT
  5
4EF94
330
1F
100
AcDbEntity
  8
AM_6
100
AcDbMText
 10
6128.14548650704
 20
-5974.736936899461
 30
0.0
 40
3.200000000000001
 41
0.0
 71
     5
 72
     1
  1
ELP-121S-1
 73
     1
 44
1.0
1001
ACAD
1000
MTEXTBEGIN
1070
    73
1070
     1
1070
    44
1040
1.0
1070
    74
1070
     0
1000
MTEXTEND
  0
LINE
  5
4EF95
330
1F
100
AcDbEntity
  8
AM_2
100
AcDbLine
 10
6114.67467570105
 20
-5977.736936899461
 30
0.0
 11
6142.174675701051
 21
-5977.736936899461
 31
0.0
  0
LINE
  5
4EF96
330
1F
100
AcDbEntity
  8
AM_2
100
AcDbLine
 10
6142.174675701049
 20
-5977.736936899461
 30
0.0
 11
6242.174675701051
 21
-5977.736936899463
 31
0.0
  0
LINE
  5
4EF97
330
1F
100
AcDbEntity
  8
AM_0
100
AcDbLine
 10
6114.67467570105
 20
-5983.736936899461
 30
0.0
 11
6332.174675701051
 21
-5983.736936899465
 31
0.0
  0
LINE
  5
4EF99
330
1F
100
AcDbEntity
  8
AM_0
100
AcDbLine
 10
6152.174675701051
 20
-5965.736936899464
 30
0.0
 11
6152.174675701051
 21
-5983.736936899461
 31
0.0
  0
MTEXT
  5
4EF9A
330
1F
100
AcDbEntity
  8
AM_6
100
AcDbMText
 10
6147.174675701051
 20
-5968.736936899463
 30
0.0
 40
3.200000000000001
 41
0.0
 71
     5
 72
     1
  1
A
 73
     1
 44
1.0
1001
ACAD
1000
MTEXTBEGIN
1070
    73
1070
     1
1070
    44
1040
1.0
1070
    74
1070
     0
1000
MTEXTEND
  0
MTEXT
  5
4EF9B
330
1F
100
AcDbEntity
  8
AM_6
100
AcDbMText
 10
6147.174675701051
 20
-5974.736936899463
 30
0.0
 40
3.200000000000001
 41
0.0
 71
     5
 72
     1
  1
42.5
 73
     1
 44
1.0
1001
ACAD
1000
MTEXTBEGIN
1070
    73
1070
     1
1070
    44
1040
1.0
1070
    74
1070
     0
1000
MTEXTEND
  0
MTEXT
  5
4EF9C
330
1F
100
AcDbEntity
  8
AM_6
100
AcDbMText
 10
6147.174675701051
 20
-5980.736936899464
 30
0.0
 40
3.200000000000001
 41
0.0
 71
     5
 72
     1
  1
62
 73
     1
 44
1.0
1001
ACAD
1000
MTEXTBEGIN
1070
    73
1070
     1
1070
    44
1040
1.0
1070
    74
1070
     0
1000
MTEXTEND
  0
LINE
  5
4EF9D
330
1F
100
AcDbEntity
  8
AM_0
100
AcDbLine
 10
6162.17467570105
 20
-5965.736936899464
 30
0.0
 11
6162.17467570105
 21
-5983.736936899461
 31
0.0
  0
MTEXT
  5
4EF9E
330
1F
100
AcDbEntity
  8
AM_6
100
AcDbMText
 10
6157.174675701051
 20
-5968.736936899463
 30
0.0
 40
3.200000000000001
 41
0.0
 71
     5
 72
     1
  1
B
 73
     1
 44
1.0
1001
ACAD
1000
MTEXTBEGIN
1070
    73
1070
     1
1070
    44
1040
1.0
1070
    74
1070
     0
1000
MTEXTEND
  0
MTEXT
  5
4EF9F
330
1F
100
AcDbEntity
  8
AM_6
100
AcDbMText
 10
6157.174675701051
 20
-5974.736936899463
 30
0.0
 40
3.200000000000001
 41
0.0
 71
     5
 72
     1
  1
30
 73
     1
 44
1.0
1001
ACAD
1000
MTEXTBEGIN
1070
    73
1070
     1
1070
    44
1040
1.0
1070
    74
1070
     0
1000
MTEXTEND
  0
MTEXT
  5
4EFA0
330
1F
100
AcDbEntity
  8
AM_6
100
AcDbMText
 10
6157.174675701051
 20
-5980.736936899464
 30
0.0
 40
3.200000000000001
 41
0.0
 71
     5
 72
     1
  1
38
 73
     1
 44
1.0
1001
ACAD
1000
MTEXTBEGIN
1070
    73
1070
     1
1070
    44
1040
1.0
1070
    74
1070
     0
1000
MTEXTEND
  0
LINE
  5
4EFA1
330
1F
100
AcDbEntity
  8
AM_0
100
AcDbLine
 10
6172.17467570105
 20
-5965.736936899464
 30
0.0
 11
6172.17467570105
 21
-5983.736936899462
 31
0.0
  0
MTEXT
  5
4EFA2
330
1F
100
AcDbEntity
  8
AM_6
100
AcDbMText
 10
6167.174675701051
 20
-5968.736936899463
 30
0.0
 40
3.200000000000001
 41
0.0
 71
     5
 72
     1
  1
C
 73
     1
 44
1.0
1001
ACAD
1000
MTEXTBEGIN
1070
    73
1070
     1
1070
    44
1040
1.0
1070
    74
1070
     0
1000
MTEXTEND
  0
MTEXT
  5
4EFA3
330
1F
100
AcDbEntity
  8
AM_6
100
AcDbMText
 10
6167.174675701051
 20
-5974.736936899463
 30
0.0
 40
3.200000000000001
 41
0.0
 71
     5
 72
     1
  1
16
 73
     1
 44
1.0
1001
ACAD
1000
MTEXTBEGIN
1070
    73
1070
     1
1070
    44
1040
1.0
1070
    74
1070
     0
1000
MTEXTEND
  0
MTEXT
  5
4EFA4
330
1F
100
AcDbEntity
  8
AM_6
100
AcDbMText
 10
6167.174675701051
 20
-5980.736936899464
 30
0.0
 40
3.200000000000001
 41
0.0
 71
     5
 72
     1
  1
23
 73
     1
 44
1.0
1001
ACAD
1000
MTEXTBEGIN
1070
    73
1070
     1
1070
    44
1040
1.0
1070
    74
1070
     0
1000
MTEXTEND
  0
LINE
  5
4EFA5
330
1F
100
AcDbEntity
  8
AM_0
100
AcDbLine
 10
6182.174675701051
 20
-5965.736936899464
 30
0.0
 11
6182.174675701051
 21
-5983.736936899462
 31
0.0
  0
MTEXT
  5
4EFA6
330
1F
100
AcDbEntity
  8
AM_6
100
AcDbMText
 10
6177.17467570105
 20
-5968.736936899463
 30
0.0
 40
3.200000000000001
 41
0.0
 71
     5
 72
     1
  1
D
 73
     1
 44
1.0
1001
ACAD
1000
MTEXTBEGIN
1070
    73
1070
     1
1070
    44
1040
1.0
1070
    74
1070
     0
1000
MTEXTEND
  0
MTEXT
  5
4EFA7
330
1F
100
AcDbEntity
  8
AM_6
100
AcDbMText
 10
6177.17467570105
 20
-5974.736936899463
 30
0.0
 40
3.200000000000001
 41
0.0
 71
     5
 72
     1
  1
16
 73
     1
 44
1.0
1001
ACAD
1000
MTEXTBEGIN
1070
    73
1070
     1
1070
    44
1040
1.0
1070
    74
1070
     0
1000
MTEXTEND
  0
MTEXT
  5
4EFA8
330
1F
100
AcDbEntity
  8
AM_6
100
AcDbMText
 10
6177.17467570105
 20
-5980.736936899464
 30
0.0
 40
3.200000000000001
 41
0.0
 71
     5
 72
     1
  1
22
 73
     1
 44
1.0
1001
ACAD
1000
MTEXTBEGIN
1070
    73
1070
     1
1070
    44
1040
1.0
1070
    74
1070
     0
1000
MTEXTEND
  0
LINE
  5
4EFA9
330
1F
100
AcDbEntity
  8
AM_0
100
AcDbLine
 10
6192.174675701051
 20
-5965.736936899464
 30
0.0
 11
6192.174675701051
 21
-5983.736936899462
 31
0.0
  0
MTEXT
  5
4EFAA
330
1F
100
AcDbEntity
  8
AM_6
100
AcDbMText
 10
6187.174675701051
 20
-5968.736936899463
 30
0.0
 40
3.200000000000001
 41
0.0
 71
     5
 72
     1
  1
E
 73
     1
 44
1.0
1001
ACAD
1000
MTEXTBEGIN
1070
    73
1070
     1
1070
    44
1040
1.0
1070
    74
1070
     0
1000
MTEXTEND
  0
MTEXT
  5
4EFAB
330
1F
100
AcDbEntity
  8
AM_6
100
AcDbMText
 10
6187.174675701051
 20
-5974.736936899463
 30
0.0
 40
3.200000000000001
 41
0.0
 71
     5
 72
     1
  1
23
 73
     1
 44
1.0
1001
ACAD
1000
MTEXTBEGIN
1070
    73
1070
     1
1070
    44
1040
1.0
1070
    74
1070
     0
1000
MTEXTEND
  0
MTEXT
  5
4EFAC
330
1F
100
AcDbEntity
  8
AM_6
100
AcDbMText
 10
6187.174675701051
 20
-5980.736936899464
 30
0.0
 40
3.200000000000001
 41
0.0
 71
     5
 72
     1
  1
37
 73
     1
 44
1.0
1001
ACAD
1000
MTEXTBEGIN
1070
    73
1070
     1
1070
    44
1040
1.0
1070
    74
1070
     0
1000
MTEXTEND
  0
LINE
  5
4EFAD
330
1F
100
AcDbEntity
  8
AM_0
100
AcDbLine
 10
6202.17467570105
 20
-5965.736936899464
 30
0.0
 11
6202.17467570105
 21
-5983.736936899462
 31
0.0
  0
MTEXT
  5
4EFAE
330
1F
100
AcDbEntity
  8
AM_6
100
AcDbMText
 10
6197.174675701051
 20
-5968.736936899463
 30
0.0
 40
3.200000000000001
 41
0.0
 71
     5
 72
     1
  1
%%CF
 73
     1
 44
1.0
1001
ACAD
1000
MTEXTBEGIN
1070
    73
1070
     1
1070
    44
1040
1.0
1070
    74
1070
     0
1000
MTEXTEND
  0
MTEXT
  5
4EFAF
330
1F
100
AcDbEntity
  8
AM_6
100
AcDbMText
 10
6197.174675701051
 20
-5974.736936899463
 30
0.0
 40
3.200000000000001
 41
0.0
 71
     5
 72
     1
  1
2
 73
     1
 44
1.0
1001
ACAD
1000
MTEXTBEGIN
1070
    73
1070
     1
1070
    44
1040
1.0
1070
    74
1070
     0
1000
MTEXTEND
  0
MTEXT
  5
4EFB0
330
1F
100
AcDbEntity
  8
AM_6
100
AcDbMText
 10
6197.174675701051
 20
-5980.736936899464
 30
0.0
 40
3.200000000000001
 41
0.0
 71
     5
 72
     1
  1
3
 73
     1
 44
1.0
1001
ACAD
1000
MTEXTBEGIN
1070
    73
1070
     1
1070
    44
1040
1.0
1070
    74
1070
     0
1000
MTEXTEND
  0
LINE
  5
4EFB1
330
1F
100
AcDbEntity
  8
AM_0
100
AcDbLine
 10
6212.17467570105
 20
-5965.736936899464
 30
0.0
 11
6212.17467570105
 21
-5983.736936899462
 31
0.0
  0
MTEXT
  5
4EFB2
330
1F
100
AcDbEntity
  8
AM_6
100
AcDbMText
 10
6207.17467570105
 20
-5968.736936899463
 30
0.0
 40
3.200000000000001
 41
0.0
 71
     5
 72
     1
  1
G
 73
     1
 44
1.0
1001
ACAD
1000
MTEXTBEGIN
1070
    73
1070
     1
1070
    44
1040
1.0
1070
    74
1070
     0
1000
MTEXTEND
  0
MTEXT
  5
4EFB3
330
1F
100
AcDbEntity
  8
AM_6
100
AcDbMText
 10
6207.17467570105
 20
-5974.736936899463
 30
0.0
 40
3.200000000000001
 41
0.0
 71
     5
 72
     1
  1
12
 73
     1
 44
1.0
1001
ACAD
1000
MTEXTBEGIN
1070
    73
1070
     1
1070
    44
1040
1.0
1070
    74
1070
     0
1000
MTEXTEND
  0
MTEXT
  5
4EFB4
330
1F
100
AcDbEntity
  8
AM_6
100
AcDbMText
 10
6207.17467570105
 20
-5980.736936899464
 30
0.0
 40
3.200000000000001
 41
0.0
 71
     5
 72
     1
  1
16
 73
     1
 44
1.0
1001
ACAD
1000
MTEXTBEGIN
1070
    73
1070
     1
1070
    44
1040
1.0
1070
    74
1070
     0
1000
MTEXTEND
  0
LINE
  5
4EFB5
330
1F
100
AcDbEntity
  8
AM_0
100
AcDbLine
 10
6222.174675701051
 20
-5965.736936899464
 30
0.0
 11
6222.174675701051
 21
-5983.736936899464
 31
0.0
  0
MTEXT
  5
4EFB6
330
1F
100
AcDbEntity
  8
AM_6
100
AcDbMText
 10
6217.174675701051
 20
-5968.736936899463
 30
0.0
 40
3.200000000000001
 41
0.0
 71
     5
 72
     1
  1
H
 73
     1
 44
1.0
1001
ACAD
1000
MTEXTBEGIN
1070
    73
1070
     1
1070
    44
1040
1.0
1070
    74
1070
     0
1000
MTEXTEND
  0
MTEXT
  5
4EFB7
330
1F
100
AcDbEntity
  8
AM_6
100
AcDbMText
 10
6217.174675701051
 20
-5974.736936899463
 30
0.0
 40
3.200000000000001
 41
0.0
 71
     5
 72
     1
  1
1.5
 73
     1
 44
1.0
1001
ACAD
1000
MTEXTBEGIN
1070
    73
1070
     1
1070
    44
1040
1.0
1070
    74
1070
     0
1000
MTEXTEND
  0
MTEXT
  5
4EFB8
330
1F
100
AcDbEntity
  8
AM_6
100
AcDbMText
 10
6217.174675701051
 20
-5980.736936899464
 30
0.0
 40
3.200000000000001
 41
0.0
 71
     5
 72
     1
  1
2
 73
     1
 44
1.0
1001
ACAD
1000
MTEXTBEGIN
1070
    73
1070
     1
1070
    44
1040
1.0
1070
    74
1070
     0
1000
MTEXTEND
  0
LINE
  5
4EFB9
330
1F
100
AcDbEntity
  8
AM_0
100
AcDbLine
 10
6232.174675701051
 20
-5965.736936899464
 30
0.0
 11
6232.174675701051
 21
-5983.736936899464
 31
0.0
  0
MTEXT
  5
4EFBA
330
1F
100
AcDbEntity
  8
AM_6
100
AcDbMText
 10
6227.17467570105
 20
-5968.736936899463
 30
0.0
 40
3.200000000000001
 41
0.0
 71
     5
 72
     1
  1
I
 73
     1
 44
1.0
1001
ACAD
1000
MTEXTBEGIN
1070
    73
1070
     1
1070
    44
1040
1.0
1070
    74
1070
     0
1000
MTEXTEND
  0
MTEXT
  5
4EFBB
330
1F
100
AcDbEntity
  8
AM_6
100
AcDbMText
 10
6227.17467570105
 20
-5974.736936899463
 30
0.0
 40
3.200000000000001
 41
0.0
 71
     5
 72
     1
  1
9.2
 73
     1
 44
1.0
1001
ACAD
1000
MTEXTBEGIN
1070
    73
1070
     1
1070
    44
1040
1.0
1070
    74
1070
     0
1000
MTEXTEND
  0
MTEXT
  5
4EFBC
330
1F
100
AcDbEntity
  8
AM_6
100
AcDbMText
 10
6227.17467570105
 20
-5980.736936899464
 30
0.0
 40
3.200000000000001
 41
0.0
 71
     5
 72
     1
  1
13
 73
     1
 44
1.0
1001
ACAD
1000
MTEXTBEGIN
1070
    73
1070
     1
1070
    44
1040
1.0
1070
    74
1070
     0
1000
MTEXTEND
  0
LINE
  5
4EFBD
330
1F
100
AcDbEntity
  8
AM_0
100
AcDbLine
 10
6242.174675701051
 20
-5965.736936899464
 30
0.0
 11
6242.174675701051
 21
-5983.736936899464
 31
0.0
  0
MTEXT
  5
4EFBE
330
1F
100
AcDbEntity
  8
AM_6
100
AcDbMText
 10
6237.174675701051
 20
-5968.736936899463
 30
0.0
 40
3.200000000000001
 41
0.0
 71
     5
 72
     1
  1
J
 73
     1
 44
1.0
1001
ACAD
1000
MTEXTBEGIN
1070
    73
1070
     1
1070
    44
1040
1.0
1070
    74
1070
     0
1000
MTEXTEND
  0
LINE
  5
4EFBF
330
1F
100
AcDbEntity
  8
AM_0
100
AcDbLine
 10
6252.17467570105
 20
-5965.736936899464
 30
0.0
 11
6252.17467570105
 21
-5983.736936899464
 31
0.0
  0
MTEXT
  5
4EFC0
330
1F
100
AcDbEntity
  8
AM_6
100
AcDbMText
 10
6247.17467570105
 20
-5968.736936899463
 30
0.0
 40
3.200000000000001
 41
0.0
 71
     5
 72
     1
  1
K1
 73
     1
 44
1.0
1001
ACAD
1000
MTEXTBEGIN
1070
    73
1070
     1
1070
    44
1040
1.0
1070
    74
1070
     0
1000
MTEXTEND
  0
MTEXT
  5
4EFC2
330
1F
100
AcDbEntity
  8
AM_6
100
AcDbMText
 10
6247.17467570105
 20
-5977.736936899463
 30
0.0
 40
3.200000000000001
 41
0.0
 71
     5
 72
     1
  1
14
 73
     1
 44
1.0
1001
ACAD
1000
MTEXTBEGIN
1070
    73
1070
     1
1070
    44
1040
1.0
1070
    74
1070
     0
1000
MTEXTEND
  0
LINE
  5
4EFC3
330
1F
100
AcDbEntity
  8
AM_0
100
AcDbLine
 10
6272.174675701051
 20
-5965.736936899464
 30
0.0
 11
6272.174675701051
 21
-5983.736936899464
 31
0.0
  0
MTEXT
  5
4EFC4
330
1F
100
AcDbEntity
  8
AM_6
100
AcDbMText
 10
6267.174675701051
 20
-5968.736936899463
 30
0.0
 40
3.200000000000001
 41
0.0
 71
     5
 72
     1
  1
L
 73
     1
 44
1.0
1001
ACAD
1000
MTEXTBEGIN
1070
    73
1070
     1
1070
    44
1040
1.0
1070
    74
1070
     0
1000
MTEXTEND
  0
MTEXT
  5
4EFC5
330
1F
100
AcDbEntity
  8
AM_6
100
AcDbMText
 10
6267.174675701051
 20
-5974.736936899463
 30
0.0
 40
3.200000000000001
 41
0.0
 71
     5
 72
     1
  1
21
 73
     1
 44
1.0
1001
ACAD
1000
MTEXTBEGIN
1070
    73
1070
     1
1070
    44
1040
1.0
1070
    74
1070
     0
1000
MTEXTEND
  0
MTEXT
  5
4EFC6
330
1F
100
AcDbEntity
  8
AM_6
100
AcDbMText
 10
6267.174675701051
 20
-5980.736936899464
 30
0.0
 40
3.200000000000001
 41
0.0
 71
     5
 72
     1
  1
24
 73
     1
 44
1.0
1001
ACAD
1000
MTEXTBEGIN
1070
    73
1070
     1
1070
    44
1040
1.0
1070
    74
1070
     0
1000
MTEXTEND
  0
LINE
  5
4EFC7
330
1F
100
AcDbEntity
  8
AM_0
100
AcDbLine
 10
6282.174675701051
 20
-5965.736936899464
 30
0.0
 11
6282.174675701051
 21
-5983.736936899465
 31
0.0
  0
MTEXT
  5
4EFC8
330
1F
100
AcDbEntity
  8
AM_6
100
AcDbMText
 10
6277.174675701051
 20
-5968.736936899463
 30
0.0
 40
3.200000000000001
 41
0.0
 71
     5
 72
     1
  1
%%CM
 73
     1
 44
1.0
1001
ACAD
1000
MTEXTBEGIN
1070
    73
1070
     1
1070
    44
1040
1.0
1070
    74
1070
     0
1000
MTEXTEND
  0
MTEXT
  5
4EFC9
330
1F
100
AcDbEntity
  8
AM_6
100
AcDbMText
 10
6277.174675701051
 20
-5974.736936899463
 30
0.0
 40
3.200000000000001
 41
0.0
 71
     5
 72
     1
  1
-
 73
     1
 44
1.0
1001
ACAD
1000
MTEXTBEGIN
1070
    73
1070
     1
1070
    44
1040
1.0
1070
    74
1070
     0
1000
MTEXTEND
  0
MTEXT
  5
4EFCA
330
1F
100
AcDbEntity
  8
AM_6
100
AcDbMText
 10
6277.174675701051
 20
-5980.736936899464
 30
0.0
 40
3.200000000000001
 41
0.0
 71
     5
 72
     1
  1
5.2
 73
     1
 44
1.0
1001
ACAD
1000
MTEXTBEGIN
1070
    73
1070
     1
1070
    44
1040
1.0
1070
    74
1070
     0
1000
MTEXTEND
  0
MTEXT
  5
4EFDB
330
1F
100
AcDbEntity
  8
AM_6
100
AcDbMText
 10
6237.174675701051
 20
-5974.736936899463
 30
0.0
 40
3.200000000000001
 41
0.0
 71
     5
 72
     1
  1
1.5
 73
     1
 44
1.0
1001
ACAD
1000
MTEXTBEGIN
1070
    73
1070
     1
1070
    44
1040
1.0
1070
    74
1070
     0
1000
MTEXTEND
  0
MTEXT
  5
4EFDC
330
1F
100
AcDbEntity
  8
AM_6
100
AcDbMText
 10
6237.174675701051
 20
-5980.736936899464
 30
0.0
 40
3.200000000000001
 41
0.0
 71
     5
 72
     1
  1
2
 73
     1
 44
1.0
1001
ACAD
1000
MTEXTBEGIN
1070
    73
1070
     1
1070
    44
1040
1.0
1070
    74
1070
     0
1000
MTEXTEND
  0
MTEXT
  5
4EFE0
330
1F
100
AcDbEntity
  8
AM_6
100
AcDbMText
 10
6128.424675701051
 20
-5980.736936899461
 30
0.0
 40
3.200000000000001
 41
0.0
 71
     5
 72
     1
  1
ELP-121S-2
 73
     1
 44
1.0
1001
ACAD
1000
MTEXTBEGIN
1070
    73
1070
     1
1070
    44
1040
1.0
1070
    74
1070
     0
1000
MTEXTEND
  0
LINE
  5
4F01C
330
1F
100
AcDbEntity
  8
AM_0
100
AcDbLine
 10
6292.174675701051
 20
-5965.736936899464
 30
0.0
 11
6292.174675701051
 21
-5983.736936899465
 31
0.0
  0
MTEXT
  5
4F01D
330
1F
100
AcDbEntity
  8
AM_6
100
AcDbMText
 10
6287.17467570105
 20
-5968.736936899463
 30
0.0
 40
3.200000000000001
 41
0.0
 71
     5
 72
     1
  1
%%CN
 73
     1
 44
1.0
1001
ACAD
1000
MTEXTBEGIN
1070
    73
1070
     1
1070
    44
1040
1.0
1070
    74
1070
     0
1000
MTEXTEND
  0
MTEXT
  5
4F01E
330
1F
100
AcDbEntity
  8
AM_6
100
AcDbMText
 10
6287.17467570105
 20
-5974.736936899463
 30
0.0
 40
3.200000000000001
 41
0.0
 71
     5
 72
     1
  1
3.2
 73
     1
 44
1.0
1001
ACAD
1000
MTEXTBEGIN
1070
    73
1070
     1
1070
    44
1040
1.0
1070
    74
1070
     0
1000
MTEXTEND
  0
MTEXT
  5
4F01F
330
1F
100
AcDbEntity
  8
AM_6
100
AcDbMText
 10
6287.17467570105
 20
-5980.736936899464
 30
0.0
 40
3.200000000000001
 41
0.0
 71
     5
 72
     1
  1
-
 73
     1
 44
1.0
1001
ACAD
1000
MTEXTBEGIN
1070
    73
1070
     1
1070
    44
1040
1.0
1070
    74
1070
     0
1000
MTEXTEND
  0
LINE
  5
4F020
330
1F
100
AcDbEntity
  8
AM_0
100
AcDbLine
 10
6302.17467570105
 20
-5965.736936899464
 30
0.0
 11
6302.17467570105
 21
-5983.736936899465
 31
0.0
  0
MTEXT
  5
4F021
330
1F
100
AcDbEntity
  8
AM_6
100
AcDbMText
 10
6297.17467570105
 20
-5968.736936899463
 30
0.0
 40
3.200000000000001
 41
0.0
 71
     5
 72
     1
  1
O
 73
     1
 44
1.0
1001
ACAD
1000
MTEXTBEGIN
1070
    73
1070
     1
1070
    44
1040
1.0
1070
    74
1070
     0
1000
MTEXTEND
  0
MTEXT
  5
4F022
330
1F
100
AcDbEntity
  8
AM_6
100
AcDbMText
 10
6297.17467570105
 20
-5974.736936899463
 30
0.0
 40
3.200000000000001
 41
0.0
 71
     5
 72
     1
  1
46.5
 73
     1
 44
1.0
1001
ACAD
1000
MTEXTBEGIN
1070
    73
1070
     1
1070
    44
1040
1.0
1070
    74
1070
     0
1000
MTEXTEND
  0
MTEXT
  5
4F023
330
1F
100
AcDbEntity
  8
AM_6
100
AcDbMText
 10
6297.17467570105
 20
-5980.736936899464
 30
0.0
 40
3.200000000000001
 41
0.0
 71
     5
 72
     1
  1
62
 73
     1
 44
1.0
1001
ACAD
1000
MTEXTBEGIN
1070
    73
1070
     1
1070
    44
1040
1.0
1070
    74
1070
     0
1000
MTEXTEND
  0
LINE
  5
4F024
330
1F
100
AcDbEntity
  8
AM_0
100
AcDbLine
 10
6312.174675701051
 20
-5965.736936899464
 30
0.0
 11
6312.174675701051
 21
-5983.736936899465
 31
0.0
  0
MTEXT
  5
4F025
330
1F
100
AcDbEntity
  8
AM_6
100
AcDbMText
 10
6307.174675701051
 20
-5968.736936899463
 30
0.0
 40
3.200000000000001
 41
0.0
 71
     5
 72
     1
  1
P
 73
     1
 44
1.0
1001
ACAD
1000
MTEXTBEGIN
1070
    73
1070
     1
1070
    44
1040
1.0
1070
    74
1070
     0
1000
MTEXTEND
  0
MTEXT
  5
4F026
330
1F
100
AcDbEntity
  8
AM_6
100
AcDbMText
 10
6307.174675701051
 20
-5974.736936899463
 30
0.0
 40
3.200000000000001
 41
0.0
 71
     5
 72
     1
  1
13
 73
     1
 44
1.0
1001
ACAD
1000
MTEXTBEGIN
1070
    73
1070
     1
1070
    44
1040
1.0
1070
    74
1070
     0
1000
MTEXTEND
  0
MTEXT
  5
4F027
330
1F
100
AcDbEntity
  8
AM_6
100
AcDbMText
 10
6307.174675701051
 20
-5980.736936899464
 30
0.0
 40
3.200000000000001
 41
0.0
 71
     5
 72
     1
  1
16
 73
     1
 44
1.0
1001
ACAD
1000
MTEXTBEGIN
1070
    73
1070
     1
1070
    44
1040
1.0
1070
    74
1070
     0
1000
MTEXTEND
  0
LINE
  5
4F028
330
1F
100
AcDbEntity
  8
AM_0
100
AcDbLine
 10
6322.174675701051
 20
-5965.736936899464
 30
0.0
 11
6322.174675701051
 21
-5983.736936899465
 31
0.0
  0
MTEXT
  5
4F029
330
1F
100
AcDbEntity
  8
AM_6
100
AcDbMText
 10
6317.174675701051
 20
-5968.736936899463
 30
0.0
 40
3.200000000000001
 41
0.0
 71
     5
 72
     1
  1
Q
 73
     1
 44
1.0
1001
ACAD
1000
MTEXTBEGIN
1070
    73
1070
     1
1070
    44
1040
1.0
1070
    74
1070
     0
1000
MTEXTEND
  0
MTEXT
  5
4F02A
330
1F
100
AcDbEntity
  8
AM_6
100
AcDbMText
 10
6317.174675701051
 20
-5974.736936899463
 30
0.0
 40
3.200000000000001
 41
0.0
 71
     5
 72
     1
  1
16
 73
     1
 44
1.0
1001
ACAD
1000
MTEXTBEGIN
1070
    73
1070
     1
1070
    44
1040
1.0
1070
    74
1070
     0
1000
MTEXTEND
  0
MTEXT
  5
4F02B
330
1F
100
AcDbEntity
  8
AM_6
100
AcDbMText
 10
6317.174675701051
 20
-5980.736936899464
 30
0.0
 40
3.200000000000001
 41
0.0
 71
     5
 72
     1
  1
25
 73
     1
 44
1.0
1001
ACAD
1000
MTEXTBEGIN
1070
    73
1070
     1
1070
    44
1040
1.0
1070
    74
1070
     0
1000
MTEXTEND
  0
LINE
  5
4F02C
330
1F
100
AcDbEntity
  8
AM_0
100
AcDbLine
 10
6332.17467570105
 20
-5965.736936899464
 30
0.0
 11
6332.17467570105
 21
-5983.736936899465
 31
0.0
  0
MTEXT
  5
4F02D
330
1F
100
AcDbEntity
  8
AM_6
100
AcDbMText
 10
6327.17467570105
 20
-5968.736936899463
 30
0.0
 40
3.200000000000001
 41
0.0
 71
     5
 72
     1
  1
%%CR
 73
     1
 44
1.0
1001
ACAD
1000
MTEXTBEGIN
1070
    73
1070
     1
1070
    44
1040
1.0
1070
    74
1070
     0
1000
MTEXTEND
  0
MTEXT
  5
4F02E
330
1F
100
AcDbEntity
  8
AM_6
100
AcDbMText
 10
6327.17467570105
 20
-5974.736936899463
 30
0.0
 40
3.200000000000001
 41
0.0
 71
     5
 72
     1
  1
3.2
 73
     1
 44
1.0
1001
ACAD
1000
MTEXTBEGIN
1070
    73
1070
     1
1070
    44
1040
1.0
1070
    74
1070
     0
1000
MTEXTEND
  0
MTEXT
  5
4F02F
330
1F
100
AcDbEntity
  8
AM_6
100
AcDbMText
 10
6327.17467570105
 20
-5980.736936899464
 30
0.0
 40
3.200000000000001
 41
0.0
 71
     5
 72
     1
  1
5.2
 73
     1
 44
1.0
1001
ACAD
1000
MTEXTBEGIN
1070
    73
1070
     1
1070
    44
1040
1.0
1070
    74
1070
     0
1000
MTEXTEND
  0
LINE
  5
4F039
330
1F
100
AcDbEntity
  8
AM_0
100
AcDbLine
 10
6262.17467570105
 20
-5965.736936899464
 30
0.0
 11
6262.17467570105
 21
-5983.736936899464
 31
0.0
  0
MTEXT
  5
4F03A
330
1F
100
AcDbEntity
  8
AM_6
100
AcDbMText
 10
6257.174675701051
 20
-5968.736936899463
 30
0.0
 40
3.200000000000001
 41
0.0
 71
     5
 72
     1
  1
K2
 73
     1
 44
1.0
1001
ACAD
1000
MTEXTBEGIN
1070
    73
1070
     1
1070
    44
1040
1.0
1070
    74
1070
     0
1000
MTEXTEND
  0
MTEXT
  5
4F03B
330
1F
100
AcDbEntity
  8
AM_6
100
AcDbMText
 10
6257.174675701051
 20
-5974.736936899463
 30
0.0
 40
3.200000000000001
 41
0.0
 71
     5
 72
     1
  1
-
 73
     1
 44
1.0
1001
ACAD
1000
MTEXTBEGIN
1070
    73
1070
     1
1070
    44
1040
1.0
1070
    74
1070
     0
1000
MTEXTEND
  0
MTEXT
  5
4F03C
330
1F
100
AcDbEntity
  8
AM_6
100
AcDbMText
 10
6257.174675701051
 20
-5980.736936899464
 30
0.0
 40
3.200000000000001
 41
0.0
 71
     5
 72
     1
  1
14
 73
     1
 44
1.0
1001
ACAD
1000
MTEXTBEGIN
1070
    73
1070
     1
1070
    44
1040
1.0
1070
    74
1070
     0
1000
MTEXTEND
  0
TEXT
  5
5183F
330
1F
100
AcDbEntity
  8
AM_6
 60
     1
100
AcDbText
 10
5973.602012689372
 20
109.7385382224183
 30
0.0
 40
2.5
  1
!GENTITLE-INSERT
100
AcDbText
  0
TEXT
  5
51840
330
1F
100
AcDbEntity
  8
AM_6
 60
     1
100
AcDbText
 10
5565.102012689372
 20
101.2385382224183
 30
0.0
 40
2.5
  1
!GENTITLE-LL
100
AcDbText
  0
TEXT
  5
51841
330
1F
100
AcDbEntity
  8
AM_6
 60
     1
100
AcDbText
 10
5985.102012689372
 20
398.2385382224184
 30
0.0
 40
2.5
  1
!GENTITLE-RU
100
AcDbText
  0
TEXT
  5
51842
330
1F
100
AcDbEntity
  8
AM_6
 60
     1
100
AcDbText
 10
5985.102012689372
 20
398.2385382224184
 30
0.0
 40
2.5
  1
!GENTITLE-MAX
100
AcDbText
  0
TEXT
  5
5184A
330
1F
100
AcDbEntity
  8
AM_6
 60
     1
100
AcDbText
 10
5565.102012689372
 20
101.2385382224183
 30
0.0
 40
2.5
  1
!GENTITLE-LL
100
AcDbText
  0
TEXT
  5
5184B
330
1F
100
AcDbEntity
  8
AM_6
 60
     1
100
AcDbText
 10
5973.602012689372
 20
389.7385382224184
 30
0.0
 40
2.5
  1
!GENTITLE-RU
100
AcDbText
  0
TEXT
  5
5184C
330
1F
100
AcDbEntity
  8
AM_6
 60
     1
100
AcDbText
 10
5985.102012689372
 20
398.2385382224184
 30
0.0
 40
2.5
  1
!GENTITLE-MAX
100
AcDbText
  0
TEXT
  5
5184D
330
1F
100
AcDbEntity
  8
AM_6
 60
     1
100
AcDbText
 10
5973.602012689372
 20
109.7385382224183
 30
0.0
 40
2.5
  1
!GENTITLE-INSERT
100
AcDbText
  0
DIMENSION
  5
5B401
330
1F
100
AcDbEntity
  8
AM_5
100
AcDbDimension
  2
*D25
 10
6187.568753491583
 20
-5885.071778936301
 30
0.0
 11
6170.608633548502
 21
-5900.243346327218
 31
0.0
 70
   163
  1
2-%%cR
 71
     5
 42
5.19999999999618
  3
SYS$3
100
AcDbDiametricDimension
 15
6184.677923422871
 25
-5889.394174280758
 35
0.0
 40
0.0
1001
ACAD
1000
DSTYLE
1002
{
1070
    41
1040
1.0
1070
   172
1070
     1
1070
   342
1005
6C4
1002
}
  0
LINE
  5
5B65B
330
1F
100
AcDbEntity
  8
AM_2
100
AcDbLine
 10
6252.17467570105
 20
-5977.736936899463
 30
0.0
 11
6332.17467570105
 21
-5977.736936899463
 31
0.0
  0
ENDSEC
  0
SECTION
  2
OBJECTS
  0
DICTIONARY
  5
C
330
0
100
AcDbDictionary
281
     1
  3
ACAD_2007HEADERVARS_RT
350
5B65D
  3
ACAD_BGPLOT_KEY
350
AB06
  3
ACAD_COLOR
350
A91D
  3
ACAD_GROUP
350
D
  3
ACAD_LAYOUT
350
1A
  3
ACAD_MATERIAL
350
A91C
  3
ACAD_MLINESTYLE
350
17
  3
ACAD_PLOTSETTINGS
350
19
  3
ACAD_PLOTSTYLENAME
350
E
  3
ACAD_TABLESTYLE
350
AAB9
  3
ACAD_VISUALSTYLE
350
B0F1
  3
AcAsAppObject
350
3DA1
  3
ACASGREF_MASTER
350
3DE9
  3
AcDbVariableDictionary
350
34
  3
AcmDictionary
350
47
  3
AD_GREF_MODULE
350
3DEA
  3
AD_MAPI_MODULE
350
3E06
  3
AMG
350
2B
  3
AMGSNAPSETTINGS
350
7D
  3
ASE_INDEX_DICTIONARY
350
57912
  3
DWGPROPS
350
5B65C
  3
MAPISURF_MODULE
350
3DEB
  0
DICTIONARY
  5
3F95
330
2
100
AcDbDictionary
280
     1
281
     1
  3
ACAD_LAYERFILTERS
360
5369F
  3
ACAD_LAYERSTATES
360
3F96
  3
ACLYDICTIONARY
360
5369E
  3
AMLAYER_GROUPCOLORS
360
AAB4
  0
DICTIONARY
  5
2E416
330
2E415
100
AcDbDictionary
280
     1
281
     1
  3
ADSK_XREC_LAYER_RECONCILED
360
2E417
  0
DICTIONARY
  5
5B617
330
5B616
100
AcDbDictionary
280
     1
281
     1
  3
ADSK_XREC_LAYER_RECONCILED
360
5B618
  0
DICTIONARY
  5
8A
330
1F
100
AcDbDictionary
280
     1
281
     1
  3
ACAD_SORTENTS
360
B1BA
  0
DICTIONARY
  5
5B65D
102
{ACAD_REACTORS
330
C
102
}
330
C
100
AcDbDictionary
281
     1
  3
DIMARCSYM
350
5B65E
  0
DICTIONARY
  5
AB06
102
{ACAD_REACTORS
330
C
102
}
330
C
100
AcDbDictionary
280
     1
281
     1
  0
DICTIONARY
  5
A91D
102
{ACAD_REACTORS
330
C
102
}
330
C
100
AcDbDictionary
281
     1
  0
DICTIONARY
  5
D
102
{ACAD_REACTORS
330
C
102
}
330
C
100
AcDbDictionary
281
     1
  0
DICTIONARY
  5
1A
102
{ACAD_REACTORS
330
C
102
}
330
C
100
AcDbDictionary
281
     1
  3
Model
350
22
  3
ﾚｲｱｳﾄ1
350
1E
  3
ﾚｲｱｳﾄ2
350
26
  0
DICTIONARY
  5
A91C
102
{ACAD_REACTORS
330
C
102
}
330
C
100
AcDbDictionary
281
     1
  3
ByBlock
350
B0EF
  3
ByLayer
350
B0EE
  3
Global
350
B0F0
  0
DICTIONARY
  5
17
102
{ACAD_REACTORS
330
C
102
}
330
C
100
AcDbDictionary
281
     1
  3
Standard
350
18
  0
DICTIONARY
  5
19
102
{ACAD_REACTORS
330
C
102
}
330
C
100
AcDbDictionary
281
     1
  0
ACDBDICTIONARYWDFLT
  5
E
102
{ACAD_REACTORS
330
C
102
}
330
C
100
AcDbDictionary
281
     1
  3
Normal
350
F
100
AcDbDictionaryWithDefault
340
F
  0
DICTIONARY
  5
AAB9
102
{ACAD_REACTORS
330
C
102
}
330
C
100
AcDbDictionary
281
     1
  3
Standard
350
AABA
  0
DICTIONARY
  5
B0F1
102
{ACAD_REACTORS
330
C
102
}
330
C
100
AcDbDictionary
281
     1
  3
2dWireframe
350
B0F7
  3
3D Hidden
350
B0F9
  3
3dWireframe
350
B0F8
  3
Basic
350
B0F6
  3
Brighten
350
B0FD
  3
ColorChange
350
B101
  3
Conceptual
350
B0FA
  3
Dim
350
B0FC
  3
Facepattern
350
B100
  3
Flat
350
B0F2
  3
FlatWithEdges
350
B0F3
  3
Gouraud
350
B0F4
  3
GouraudWithEdges
350
B0F5
  3
Linepattern
350
B0FF
  3
Realistic
350
B0FB
  3
Thicken
350
B0FE
  0
ACAD_PROXY_OBJECT
  5
3DA1
102
{ACAD_REACTORS
330
C
102
}
330
C
100
AcDbProxyObject
 90
      499
 91
      576
 95
   917527
 70
     0
 93
       10
310
407F
 94
        0
1001
ACAD
1000
AcRTDxfName
1000
ASAPP
  0
ACAD_PROXY_OBJECT
  5
3DE9
102
{ACAD_REACTORS
330
C
102
}
330
C
100
AcDbProxyObject
 90
      499
 91
      581
 95
   917527
 70
     0
 93
       34
310
010000407F
 94
        0
1001
ACAD
1000
AcRTDxfName
1000
ACASGREFMASTER
  0
DICTIONARY
  5
34
102
{ACAD_REACTORS
330
C
102
}
330
C
100
AcDbDictionary
281
     1
  3
CTABLESTYLE
350
AAF3
  3
DIMASSOC
350
A10C
  3
FIELDEVAL
350
AB07
  3
INDEXCTL
350
35
  3
SORTENTS
350
194C
  0
DICTIONARY
  5
47
102
{ACAD_REACTORS
330
C
102
}
330
C
100
AcDbDictionary
281
     1
  3
AcmBOM
350
7E8
  3
AcmStdDictionary
350
4C
  3
AMDTSECTSYM_ARROWCOLOR
350
A929
  0
ACAD_PROXY_OBJECT
  5
3DEA
102
{ACAD_REACTORS
330
C
102
}
330
C
100
AcDbProxyObject
 90
      499
 91
      582
 95
   917527
 70
     0
 93
      114
310
00000043800000000000000000003F
 94
        0
1001
ACAD
1000
AcRTDxfName
1000
ACADGREFMODULE
  0
ACAD_PROXY_OBJECT
  5
3E06
102
{ACAD_REACTORS
330
C
102
}
330
C
100
AcDbProxyObject
 90
      499
 91
      594
 95
   917527
 70
     0
 93
       34
310
05000044FF
 94
        0
1001
ACAD
1000
AcRTDxfName
1000
MAPIADMODULE
  0
DICTIONARY
  5
2B
102
{ACAD_REACTORS
330
C
102
}
330
C
100
AcDbDictionary
281
     1
  0
DICTIONARY
  5
7D
102
{ACAD_REACTORS
330
C
102
}
330
C
100
AcDbDictionary
281
     1
  0
DICTIONARY
  5
57912
102
{ACAD_REACTORS
330
C
102
}
330
C
100
AcDbDictionary
281
     1
  3
ASEBlockHierarchyIndexRecord
350
57913
1001
DCO15
1040
1757428023.343
  0
XRECORD
  5
5B65C
102
{ACAD_REACTORS
330
C
102
}
330
C
100
AcDbXrecord
280
     1
  1
DWGPROPS COOKIE
  2

  3

  4

  6

  7

  8
Administrator
  9

300
AmdtFileType=84
301
=
302
=
303
=
304
=
305
=
306
=
307
=
308
=
309
=
 40
8.006147060185185
 41
2455567.680725081
 42
2456343.629329063
  1

 90
        1
  0
ACAD_PROXY_OBJECT
  5
3DEB
102
{ACAD_REACTORS
330
C
102
}
330
C
100
AcDbProxyObject
 90
      499
 91
      583
 95
   917527
 70
     0
 93
        8
310
0478
 94
        0
1001
ACAD
1000
AcRTDxfName
1000
AMDTMAPISURFMOUDULE
  0
DICTIONARY
  5
5369F
102
{ACAD_REACTORS
330
3F95
102
}
330
3F95
100
AcDbDictionary
281
     1
  0
DICTIONARY
  5
3F96
102
{ACAD_REACTORS
330
3F95
102
}
330
3F95
100
AcDbDictionary
281
     1
  3
20011210
350
3FB7
  0
DICTIONARY
  5
5369E
102
{ACAD_REACTORS
330
3F95
102
}
330
3F95
100
AcDbDictionary
281
     1
1001
ACAD
1000
<All
  0
DICTIONARY
  5
AAB4
102
{ACAD_REACTORS
330
3F95
102
}
330
3F95
100
AcDbDictionary
280
     1
281
     1
  0
XRECORD
  5
2E417
102
{ACAD_REACTORS
330
2E416
102
}
330
2E416
100
AcDbXrecord
280
     1
290
     1
  0
XRECORD
  5
5B618
102
{ACAD_REACTORS
330
5B617
102
}
330
5B617
100
AcDbXrecord
280
     1
290
     1
  0
SORTENTSTABLE
  5
B1BA
102
{ACAD_REACTORS
330
8A
102
}
330
8A
100
AcDbSortentsTable
330
1F
331
4F02D
  5
4F593
331
4EFBE
  5
4F12B
331
4EFC6
  5
4F2A5
331
31B33
  5
3273B
331
31B3B
  5
3273C
331
4EF8F
  5
4EFC9
331
4EF97
  5
4F020
331
43AEF
  5
43B96
331
4E8BE
  5
4E8FB
331
4E8F5
  5
4EB49
331
43AF7
  5
43BA0
331
4E8C6
  5
4E902
331
4E8FD
  5
4EF91
331
4E964
  5
4EFB8
331
43AFF
  5
43BA8
331
4E8CE
  5
4E90A
331
4E905
  5
4EF9A
331
4E8D6
  5
4E912
331
4E90D
  5
4EFA2
331
4EF9F
  5
4F027
331
5184D
  5
B8D8
331
4F01E
  5
4F581
331
4EFA7
  5
4F02F
331
4F026
  5
4F58A
331
4EFAF
  5
4F03B
331
4EFB7
  5
4F0EB
331
4E8DE
  5
4E91A
331
4E915
  5
4EFAA
331
4EB49
  5
4EFC3
331
4E8E6
  5
4E922
331
4E91D
  5
4EFB2
331
4E8AF
  5
4E8EB
331
4E8B7
  5
4E8F4
331
4F02E
  5
4F594
331
4EFBF
  5
4F141
331
4EFC7
  5
4F2D4
331
4EF90
  5
4EFCA
331
31B3C
  5
3273D
331
43AF0
  5
43B97
331
4E8BF
  5
4E8FC
331
4E8F6
  5
4EBA4
331
43AF8
  5
43BA1
331
4E8C7
  5
4E903
331
4E8FE
  5
4EF92
331
4E906
  5
4EF9B
331
43B00
  5
43BA9
331
4E8CF
  5
4E90B
331
4E8D7
  5
4E913
331
4E90E
  5
4EFA3
331
4EFA0
  5
4F028
331
4F01F
  5
4F582
331
4EFA8
  5
4F031
331
34534
  5
3454C
331
4F027
  5
4F58D
331
4E0E8
  5
4E1D3
331
4EFB0
  5
4F03C
331
4E8DF
  5
4E91B
331
4E916
  5
4EFAB
331
4E8E7
  5
4E928
331
4E91E
  5
4EFB3
331
4E8B0
  5
4E8EC
331
4E9C5
  5
4EFBA
331
4EFB8
  5
4F0EC
331
4F02F
  5
4F59A
331
4EFC0
  5
4F1AA
331
4EFC8
  5
4F2FB
331
4E8B8
  5
4E8F5
331
5183F
  5
B5AD
331
31B3D
  5
3273E
331
4EF91
  5
4EFDB
331
43AF1
  5
43B98
331
4E8C0
  5
4E8FD
331
32D1D
  5
32D3A
331
4E8F7
  5
4EBFF
331
4E8FF
  5
4EF93
331
43AF9
  5
43BA2
331
4E8C8
  5
4E904
331
43B01
  5
43BAA
331
4E8D0
  5
4E90C
331
4E907
  5
4EF9C
331
4EB33
  5
4EFC2
331
4E90F
  5
4EFA4
331
5B65B
  5
4F01F
331
4EFE0
  5
4F3CB
331
4EF99
  5
4F021
331
4EFA1
  5
4F029
331
4F020
  5
4F583
331
34535
  5
3454D
331
4EFA9
  5
4F032
331
4EFB1
  5
4F03E
331
4E0E9
  5
4E1D4
331
4E8D8
  5
4E914
331
4E917
  5
4EFAC
331
4E99E
  5
4EFB9
331
4E8E0
  5
4E91C
331
4E8E8
  5
4E929
331
4E91F
  5
4EFB4
331
4E8B1
  5
4E8ED
331
4F028
  5
4F58E
331
4EFB9
  5
4F0ED
331
4EFC9
  5
4F322
331
4E8B9
  5
4E8F6
331
4EF92
  5
4EFDC
331
51840
  5
B5AE
331
31B3E
  5
3273F
331
4E8F0
  5
4EA98
331
4E8C1
  5
4E8FE
331
4E8F8
  5
4EC26
331
32D1E
  5
32D3B
331
43AF2
  5
43B9A
331
43AFA
  5
43BA3
331
4E8C9
  5
4E905
331
4E900
  5
4EF94
331
43B02
  5
43BAB
331
4E8D1
  5
4E90D
331
4E908
  5
4EF9D
331
5B401
  5
5B65B
331
4EF9A
  5
4F022
331
4EFA2
  5
4F02A
331
4F021
  5
4F584
331
4EFAA
  5
4F033
331
34536
  5
3454E
331
4E910
  5
4EFA5
331
4EFB2
  5
4F0E5
331
4E0EA
  5
4E1D5
331
4E8D9
  5
4E915
331
4E8E1
  5
4E91D
331
4E918
  5
4EFAD
331
4E8E9
  5
4E92A
331
4E920
  5
4EFB5
331
4EBA4
  5
4EFC4
331
4E8B2
  5
4E8EE
331
4F029
  5
4F58F
331
4EFBA
  5
4F0EE
331
4F039
  5
4F59B
331
4EFC2
  5
4F1D1
331
4EFCA
  5
4F356
331
4E8BA
  5
4E8F7
331
4E8F1
  5
4EAC7
331
4EF93
  5
4EFE0
331
51841
  5
B5E2
331
43AEB
  5
43B91
331
4EB1D
  5
4EFC1
331
43AF3
  5
43B9B
331
4E8C2
  5
4E8FF
331
32D1F
  5
32D3C
331
4E8F9
  5
4EC4D
331
4E9FF
  5
4EFBB
331
43AFB
  5
43BA4
331
4E8CA
  5
4E906
331
4E901
  5
4EF95
331
4E8D2
  5
4E90E
331
4E909
  5
4EF9E
331
4EF9B
  5
4F023
331
4EFA3
  5
4F02B
331
4F022
  5
4F585
331
4EFAB
  5
4F034
331
4EFB3
  5
4F0E6
331
4E0EB
  5
4E1D6
331
4E8DA
  5
4E916
331
4E911
  5
4EFA6
331
4E0F3
  5
4E1DE
331
4E8E2
  5
4E91E
331
4E919
  5
4EFAE
331
4E8EA
  5
4E964
331
4E921
  5
4EFB6
331
4EAEE
  5
4EFC0
331
4E8B3
  5
4E8EF
331
4F02A
  5
4F590
331
4EFBB
  5
4F0EF
331
4F03A
  5
4F59C
331
4EFC3
  5
4F21F
331
31B30
  5
32738
331
4EFDB
  5
4F37D
331
4EF94
  5
4F01C
331
51842
  5
B5E3
331
43AEC
  5
43B92
331
4E8BB
  5
4E8F8
331
4E8F2
  5
4EAEE
331
4E8FA
  5
4EC74
331
43AF4
  5
43B9D
331
43AFC
  5
43BA5
331
4E8CB
  5
4E907
331
4E902
  5
4EF96
331
4EAC7
  5
4EFBF
331
4E8D3
  5
4E90F
331
4E90A
  5
4EF9F
331
4EF9C
  5
4F024
331
5184A
  5
B8D5
331
4EFA4
  5
4F02C
331
4F023
  5
4F587
331
4EFAC
  5
4F038
331
34538
  5
34550
331
4EA28
  5
4EFBC
331
4EFB4
  5
4F0E8
331
4E8DB
  5
4E917
331
4E912
  5
4EFA7
331
4E0F4
  5
4E1DF
331
4E8E3
  5
4E91F
331
4E91A
  5
4EFAF
331
4EC4D
  5
4EFC7
331
4E8AC
  5
4E8E8
331
4E8EB
  5
4E99E
331
4EA68
  5
4EFBD
331
4E92A
  5
4EFB7
331
4E8B4
  5
4E8F0
331
4F02B
  5
4F591
331
4EFBC
  5
4F0F0
331
4F03B
  5
4F59D
331
31B31
  5
32739
331
4EFC4
  5
4F24F
331
4E8F3
  5
4EB1D
331
4EA98
  5
4EFBE
331
4EFDC
  5
4F3A4
331
4EF95
  5
4F01D
331
43AED
  5
43B93
331
4E8BC
  5
4E8F9
331
43AF5
  5
43B9E
331
4E8C4
  5
4E900
331
32D21
  5
32D3E
331
4E8FB
  5
4EF8F
331
43AFD
  5
43BA6
331
4E8CC
  5
4E908
331
4E903
  5
4EF97
331
4E8D4
  5
4E910
331
4E90B
  5
4EFA0
331
4EC26
  5
4EFC6
331
4EF9D
  5
4F025
331
5184B
  5
B8D6
331
4F01C
  5
4F57F
331
4EFA5
  5
4F02D
331
4F024
  5
4F588
331
4EFAD
  5
4F039
331
4EFB5
  5
4F0E9
331
4E8DC
  5
4E918
331
4E913
  5
4EFA8
331
4E0F5
  5
4E1E0
331
4E8E4
  5
4E920
331
4E91B
  5
4EFB0
331
4E8AD
  5
4E8E9
331
4E8EC
  5
4E9C5
331
4E8B5
  5
4E8F2
331
4F02C
  5
4F592
331
4EFBD
  5
4F0F1
331
4F03C
  5
5B401
331
4EFC5
  5
4F27E
331
31B32
  5
3273A
331
43AEE
  5
43B95
331
4E8BD
  5
4E8FA
331
4E8F4
  5
4EB33
331
4EF96
  5
4F01E
331
4EBFF
  5
4EFC5
331
43AF6
  5
43B9F
331
4E8C5
  5
4E901
331
4E8FC
  5
4EF90
331
4E8CD
  5
4E909
331
4E904
  5
4EF99
331
43AFE
  5
43BA7
331
4E8D5
  5
4E911
331
4E90C
  5
4EFA1
331
4EF9E
  5
4F026
331
5184C
  5
B8D7
331
4F01D
  5
4F580
331
4EFA6
  5
4F02E
331
4F025
  5
4F589
331
4EFAE
  5
4F03A
331
4EFB6
  5
4F0EA
331
4E8DD
  5
4E919
331
4E914
  5
4EFA9
331
4E8E5
  5
4E921
331
4E91C
  5
4EFB1
331
4E0F6
  5
4E1E1
331
4E8AE
  5
4E8EA
331
4E8ED
  5
4E9FF
331
4E8B6
  5
4E8F3
  0
XRECORD
  5
5B65E
102
{ACAD_REACTORS
330
5B65D
102
}
330
5B65D
100
AcDbXrecord
280
     1
 70
     1
  0
LAYOUT
  5
22
102
{ACAD_XDICTIONARY
360
5B661
102
}
102
{ACAD_REACTORS
330
1A
102
}
330
1A
100
AcDbPlotSettings
  1

  2
FX DocuWide 2050/2051
  4
A3
  6
AM_VIEW1
 40
3.174999952316284
 41
3.174999952316284
 42
3.17498779296875
 43
3.17498779296875
 44
296.989501953125
 45
419.9889831542968
 46
0.0
 47
1.295841228961961
 48
214.3704939521119
 49
367.5855324241176
140
275.6727856380065
141
407.629191407817
142
1.0
143
0.7225445603030646
 70
  3764
 72
     1
 73
     1
 74
     2
  7
monochrome.ctb
 75
     0
147
1.383997686703999
148
-1700.85588156276
149
-1647.985052086429
100
AcDbLayout
  1
Model
 70
     1
 71
     0
 10
0.0
 20
0.0
 11
12.0
 21
9.0
 12
0.0
 22
0.0
 32
0.0
 14
0.0
 24
0.0
 34
0.0
 15
0.0
 25
0.0
 35
0.0
146
0.0
 13
0.0
 23
0.0
 33
0.0
 16
1.0
 26
0.0
 36
0.0
 17
0.0
 27
1.0
 37
0.0
 76
     0
330
1F
331
B0EC
1001
ACAD_PSEXT
1000
FX DocuWide 2050/2051
1000
FX DocuWide 2050/2051
1000
IP_192.200.15.252
1000

1070
     0
  0
LAYOUT
  5
1E
102
{ACAD_XDICTIONARY
360
5B65F
102
}
102
{ACAD_REACTORS
330
1A
102
}
330
1A
100
AcDbPlotSettings
  1

  2
\\ML370\XEROX
  4
A4
  6

 40
3.174999952316284
 41
3.174999952316284
 42
3.175003051757812
 43
3.17498779296875
 44
209.8674926757813
 45
296.6719970703125
 46
0.0
 47
0.0
 48
0.0
 49
0.0
140
0.0
141
0.0
142
1.0
143
1.0
 70
   688
 72
     1
 73
     1
 74
     5
  7
monochrome.ctb
 75
    16
147
1.0
148
0.0
149
0.0
100
AcDbLayout
  1
ﾚｲｱｳﾄ1
 70
     1
 71
     1
 10
-3.17498779296875
 20
-3.174999952316284
 11
293.4970092773438
 21
206.692492723465
 12
0.0
 22
0.0
 32
0.0
 14
1.000000000000000E+20
 24
1.000000000000000E+20
 34
1.000000000000000E+20
 15
-1.000000000000000E+20
 25
-1.000000000000000E+20
 35
-1.000000000000000E+20
146
0.0
 13
0.0
 23
0.0
 33
0.0
 16
1.0
 26
0.0
 36
0.0
 17
0.0
 27
1.0
 37
0.0
 76
     0
330
1B
  0
LAYOUT
  5
26
102
{ACAD_XDICTIONARY
360
5B663
102
}
102
{ACAD_REACTORS
330
1A
102
}
330
1A
100
AcDbPlotSettings
  1

  2
\\ML370\XEROX
  4

  6

 40
0.0
 41
0.0
 42
0.0
 43
0.0
 44
0.0
 45
0.0
 46
0.0
 47
0.0
 48
0.0
 49
0.0
140
0.0
141
0.0
142
1.0
143
1.0
 70
   688
 72
     0
 73
     0
 74
     5
  7
monochrome.ctb
 75
    16
147
1.0
148
0.0
149
0.0
100
AcDbLayout
  1
ﾚｲｱｳﾄ2
 70
     1
 71
     2
 10
0.0
 20
0.0
 11
12.0
 21
9.0
 12
0.0
 22
0.0
 32
0.0
 14
0.0
 24
0.0
 34
0.0
 15
0.0
 25
0.0
 35
0.0
146
0.0
 13
0.0
 23
0.0
 33
0.0
 16
1.0
 26
0.0
 36
0.0
 17
0.0
 27
1.0
 37
0.0
 76
     0
330
23
  0
MATERIAL
  5
B0EF
102
{ACAD_XDICTIONARY
360
5B669
102
}
102
{ACAD_REACTORS
330
A91C
102
}
330
A91C
100
AcDbMaterial
  1
ByBlock
  0
MATERIAL
  5
B0EE
102
{ACAD_XDICTIONARY
360
5B667
102
}
102
{ACAD_REACTORS
330
A91C
102
}
330
A91C
100
AcDbMaterial
  1
ByLayer
  0
MATERIAL
  5
B0F0
102
{ACAD_XDICTIONARY
360
5B66B
102
}
102
{ACAD_REACTORS
330
A91C
102
}
330
A91C
100
AcDbMaterial
  1
Global
  0
MLINESTYLE
  5
18
102
{ACAD_REACTORS
330
17
102
}
330
17
100
AcDbMlineStyle
  2
STANDARD
 70
     0
  3

 62
   256
 51
90.0
 52
90.0
 71
     2
 49
0.5
 62
   256
  6
BYLAYER
 49
-0.5
 62
   256
  6
BYLAYER
  0
ACDBPLACEHOLDER
  5
F
102
{ACAD_REACTORS
330
E
102
}
330
E
  0
TABLESTYLE
  5
AABA
102
{ACAD_XDICTIONARY
360
5B665
102
}
102
{ACAD_REACTORS
330
AAB9
102
}
330
AAB9
100
AcDbTableStyle
  3
Standard
 70
     0
 71
     0
 40
1.5
 41
1.5
280
     0
281
     0
  7
STANDARD
140
4.5
170
     2
 62
     0
 63
     7
283
     0
274
    -2
284
     1
 64
     0
275
    -2
285
     1
 65
     0
276
    -2
286
     1
 66
     0
277
    -2
287
     1
 67
     0
278
    -2
288
     1
 68
     0
279
    -2
289
     1
 69
     0
  7
STANDARD
140
6.0
170
     5
 62
     0
 63
     7
283
     0
274
    -2
284
     1
 64
     0
275
    -2
285
     1
 65
     0
276
    -2
286
     1
 66
     0
277
    -2
287
     1
 67
     0
278
    -2
288
     1
 68
     0
279
    -2
289
     1
 69
     0
  7
STANDARD
140
4.5
170
     5
 62
     0
 63
     7
283
     0
274
    -2
284
     1
 64
     0
275
    -2
285
     1
 65
     0
276
    -2
286
     1
 66
     0
277
    -2
287
     1
 67
     0
278
    -2
288
     1
 68
     0
279
    -2
289
     1
 69
     0
  0
VISUALSTYLE
  5
B0F7
102
{ACAD_REACTORS
330
B0F1
102
}
330
B0F1
100
AcDbVisualStyle
  2
2dWireframe
 70
     4
 71
     0
 72
     2
 73
     0
 90
        0
 40
-0.6
 41
-30.0
 62
     5
 63
     7
 74
     1
 91
        4
 64
     7
 65
   257
 75
     1
175
     1
 42
1.0
 92
        0
 66
   257
 43
1.0
 76
     1
 77
     6
 78
     2
 67
     7
 79
     5
170
     0
171
     0
290
     0
174
     0
 93
        1
 44
0.0
173
     0
291
     0
 45
0.0
1001
ACAD
1000
AcDbSavedByObjectVersion
1070
     0
  0
VISUALSTYLE
  5
B0F9
102
{ACAD_REACTORS
330
B0F1
102
}
330
B0F1
100
AcDbVisualStyle
  2
3D Hidden
 70
     6
 71
     1
 72
     2
 73
     2
 90
        0
 40
-0.6
 41
-30.0
 62
     5
 63
     7
 74
     2
 91
        2
 64
     7
 65
   257
 75
     2
175
     1
 42
40.0
 92
        0
 66
   257
 43
1.0
 76
     1
 77
     6
 78
     2
 67
     7
 79
     3
170
     0
171
     0
290
     0
174
     0
 93
        1
 44
0.0
173
     0
291
     0
 45
0.0
1001
ACAD
1000
AcDbSavedByObjectVersion
1070
     0
  0
VISUALSTYLE
  5
B0F8
102
{ACAD_REACTORS
330
B0F1
102
}
330
B0F1
100
AcDbVisualStyle
  2
3dWireframe
 70
     5
 71
     0
 72
     2
 73
     0
 90
        0
 40
-0.6
 41
-30.0
 62
     5
 63
     7
 74
     1
 91
        4
 64
     7
 65
   257
 75
     1
175
     1
 42
1.0
 92
        0
 66
   257
 43
1.0
 76
     1
 77
     6
 78
     2
 67
     7
 79
     5
170
     0
171
     0
290
     0
174
     0
 93
        1
 44
0.0
173
     0
291
     0
 45
0.0
1001
ACAD
1000
AcDbSavedByObjectVersion
1070
     0
  0
VISUALSTYLE
  5
B0F6
102
{ACAD_REACTORS
330
B0F1
102
}
330
B0F1
100
AcDbVisualStyle
  2
Basic
 70
     7
 71
     1
 72
     0
 73
     1
 90
        0
 40
-0.6
 41
-30.0
 62
     5
 63
     7
 74
     0
 91
        4
 64
     7
 65
   257
 75
     1
175
     1
 42
1.0
 92
        8
 66
     7
 43
1.0
 76
     1
 77
     6
 78
     2
 67
     7
 79
     5
170
     0
171
     0
290
     0
174
     0
 93
        1
 44
0.0
173
     0
291
     1
 45
0.0
1001
ACAD
1000
AcDbSavedByObjectVersion
1070
     0
  0
VISUALSTYLE
  5
B0FD
102
{ACAD_REACTORS
330
B0F1
102
}
330
B0F1
100
AcDbVisualStyle
  2
Brighten
 70
    12
 71
     2
 72
     2
 73
     0
 90
        0
 40
-0.6
 41
-30.0
 62
     5
 63
     7
 74
     1
 91
        4
 64
     7
 65
   257
 75
     1
175
     1
 42
1.0
 92
        8
 66
     7
 43
1.0
 76
     1
 77
     6
 78
     2
 67
     7
 79
     5
170
     0
171
     0
290
     0
174
     0
 93
        1
 44
50.0
173
     0
291
     1
 45
0.0
1001
ACAD
1000
AcDbSavedByObjectVersion
1070
     0
  0
VISUALSTYLE
  5
B101
102
{ACAD_REACTORS
330
B0F1
102
}
330
B0F1
100
AcDbVisualStyle
  2
ColorChange
 70
    16
 71
     2
 72
     2
 73
     3
 90
        0
 40
-0.6
 41
-30.0
 62
     5
 63
     8
 74
     1
 91
        4
 64
     7
 65
   257
 75
     1
175
     1
 42
1.0
 92
        8
 66
     8
 43
1.0
 76
     1
 77
     6
 78
     2
 67
     7
 79
     5
170
     0
171
     0
290
     0
174
     0
 93
        1
 44
0.0
173
     0
291
     1
 45
0.0
1001
ACAD
1000
AcDbSavedByObjectVersion
1070
     0
  0
VISUALSTYLE
  5
B0FA
102
{ACAD_REACTORS
330
B0F1
102
}
330
B0F1
100
AcDbVisualStyle
  2
Conceptual
 70
     9
 71
     3
 72
     2
 73
     0
 90
        0
 40
-0.6
 41
-30.0
 62
     5
 63
     7
 74
     2
 91
        2
 64
     7
 65
   257
 75
     1
175
     1
 42
40.0
 92
        8
 66
     7
 43
1.0
 76
     1
 77
     6
 78
     2
 67
     7
 79
     3
170
     0
171
     0
290
     0
174
     0
 93
        1
 44
0.0
173
     0
291
     0
 45
0.0
1001
ACAD
1000
AcDbSavedByObjectVersion
1070
     0
  0
VISUALSTYLE
  5
B0FC
102
{ACAD_REACTORS
330
B0F1
102
}
330
B0F1
100
AcDbVisualStyle
  2
Dim
 70
    11
 71
     2
 72
     2
 73
     0
 90
        0
 40
-0.6
 41
-30.0
 62
     5
 63
     7
 74
     1
 91
        4
 64
     7
 65
   257
 75
     1
175
     1
 42
1.0
 92
        8
 66
     7
 43
1.0
 76
     1
 77
     6
 78
     2
 67
     7
 79
     5
170
     0
171
     0
290
     0
174
     0
 93
        1
 44
-50.0
173
     0
291
     1
 45
0.0
1001
ACAD
1000
AcDbSavedByObjectVersion
1070
     0
  0
VISUALSTYLE
  5
B100
102
{ACAD_REACTORS
330
B0F1
102
}
330
B0F1
100
AcDbVisualStyle
  2
Facepattern
 70
    15
 71
     2
 72
     2
 73
     0
 90
        0
 40
-0.6
 41
-30.0
 62
     5
 63
     7
 74
     1
 91
        4
 64
     7
 65
   257
 75
     1
175
     1
 42
1.0
 92
        8
 66
     7
 43
1.0
 76
     1
 77
     6
 78
     2
 67
     7
 79
     5
170
     0
171
     0
290
     0
174
     0
 93
        1
 44
0.0
173
     0
291
     1
 45
0.0
1001
ACAD
1000
AcDbSavedByObjectVersion
1070
     0
  0
VISUALSTYLE
  5
B0F2
102
{ACAD_REACTORS
330
B0F1
102
}
330
B0F1
100
AcDbVisualStyle
  2
Flat
 70
     0
 71
     2
 72
     1
 73
     1
 90
        2
 40
-0.6
 41
30.0
 62
     5
 63
     7
 74
     0
 91
        4
 64
     7
 65
   257
 75
     1
175
     1
 42
1.0
 92
        8
 66
     7
 43
1.0
 76
     1
 77
     6
 78
     2
 67
     7
 79
     5
170
     0
171
     0
290
     0
174
     0
 93
       13
 44
0.0
173
     0
291
     1
 45
0.0
1001
ACAD
1000
AcDbSavedByObjectVersion
1070
     0
  0
VISUALSTYLE
  5
B0F3
102
{ACAD_REACTORS
330
B0F1
102
}
330
B0F1
100
AcDbVisualStyle
  2
FlatWithEdges
 70
     1
 71
     2
 72
     1
 73
     1
 90
        2
 40
-0.6
 41
30.0
 62
     5
 63
     7
 74
     1
 91
        4
 64
     7
 65
   257
 75
     1
175
     1
 42
1.0
 92
        0
 66
   257
 43
1.0
 76
     1
 77
     6
 78
     2
 67
     7
 79
     5
170
     0
171
     0
290
     0
174
     0
 93
       13
 44
0.0
173
     0
291
     1
 45
0.0
1001
ACAD
1000
AcDbSavedByObjectVersion
1070
     0
  0
VISUALSTYLE
  5
B0F4
102
{ACAD_REACTORS
330
B0F1
102
}
330
B0F1
100
AcDbVisualStyle
  2
Gouraud
 70
     2
 71
     2
 72
     2
 73
     1
 90
        2
 40
-0.6
 41
30.0
 62
     5
 63
     7
 74
     0
 91
        4
 64
     7
 65
   257
 75
     1
175
     1
 42
1.0
 92
        0
 66
     7
 43
1.0
 76
     1
 77
     6
 78
     2
 67
     7
 79
     5
170
     0
171
     0
290
     0
174
     0
 93
       13
 44
0.0
173
     0
291
     1
 45
0.0
1001
ACAD
1000
AcDbSavedByObjectVersion
1070
     0
  0
VISUALSTYLE
  5
B0F5
102
{ACAD_REACTORS
330
B0F1
102
}
330
B0F1
100
AcDbVisualStyle
  2
GouraudWithEdges
 70
     3
 71
     2
 72
     2
 73
     1
 90
        2
 40
-0.6
 41
30.0
 62
     5
 63
     7
 74
     1
 91
        4
 64
     7
 65
   257
 75
     1
175
     1
 42
1.0
 92
        0
 66
   257
 43
1.0
 76
     1
 77
     6
 78
     2
 67
     7
 79
     5
170
     0
171
     0
290
     0
174
     0
 93
       13
 44
0.0
173
     0
291
     1
 45
0.0
1001
ACAD
1000
AcDbSavedByObjectVersion
1070
     0
  0
VISUALSTYLE
  5
B0FF
102
{ACAD_REACTORS
330
B0F1
102
}
330
B0F1
100
AcDbVisualStyle
  2
Linepattern
 70
    14
 71
     2
 72
     2
 73
     0
 90
        0
 40
-0.6
 41
-30.0
 62
     5
 63
     7
 74
     1
 91
        4
 64
     7
 65
   257
 75
     7
175
     7
 42
1.0
 92
        8
 66
     7
 43
1.0
 76
     1
 77
     6
 78
     2
 67
     7
 79
     5
170
     0
171
     0
290
     0
174
     0
 93
        1
 44
0.0
173
     0
291
     1
 45
0.0
1001
ACAD
1000
AcDbSavedByObjectVersion
1070
     0
  0
VISUALSTYLE
  5
B0FB
102
{ACAD_REACTORS
330
B0F1
102
}
330
B0F1
100
AcDbVisualStyle
  2
Realistic
 70
     8
 71
     2
 72
     2
 73
     0
 90
        0
 40
-0.6
 41
-30.0
 62
     5
 63
     7
 74
     1
 91
        0
 64
     7
 65
   257
 75
     1
175
     1
 42
1.0
 92
        8
 66
     8
 43
1.0
 76
     1
 77
     6
 78
     2
 67
     7
 79
     5
170
     0
171
     0
290
     0
174
     0
 93
       13
 44
0.0
173
     0
291
     0
 45
0.0
1001
ACAD
1000
AcDbSavedByObjectVersion
1070
     0
  0
VISUALSTYLE
  5
B0FE
102
{ACAD_REACTORS
330
B0F1
102
}
330
B0F1
100
AcDbVisualStyle
  2
Thicken
 70
    13
 71
     2
 72
     2
 73
     0
 90
        0
 40
-0.6
 41
-30.0
 62
     5
 63
     7
 74
     1
 91
        4
 64
     7
 65
   257
 75
     1
175
     1
 42
1.0
 92
       12
 66
     7
 43
1.0
 76
     1
 77
     6
 78
     2
 67
     7
 79
     5
170
     0
171
     0
290
     0
174
     0
 93
        1
 44
0.0
173
     0
291
     1
 45
0.0
1001
ACAD
1000
AcDbSavedByObjectVersion
1070
     0
  0
DICTIONARYVAR
  5
AAF3
102
{ACAD_REACTORS
330
34
102
}
330
34
100
DictionaryVariables
280
     0
  1
STANDARD
  0
DICTIONARYVAR
  5
A10C
102
{ACAD_REACTORS
330
34
102
}
330
34
100
DictionaryVariables
280
     0
  1
1
  0
DICTIONARYVAR
  5
AB07
102
{ACAD_REACTORS
330
34
102
}
330
34
100
DictionaryVariables
280
     0
  1
4
  0
DICTIONARYVAR
  5
35
102
{ACAD_REACTORS
330
34
102
}
330
34
100
DictionaryVariables
280
     0
  1
0
  0
DICTIONARYVAR
  5
194C
102
{ACAD_REACTORS
330
34
102
}
330
34
100
DictionaryVariables
280
     0
  1
127
  0
DICTIONARY
  5
7E8
102
{ACAD_REACTORS
330
47
102
}
330
47
100
AcDbDictionary
281
     1
  0
DICTIONARY
  5
4C
102
{ACAD_REACTORS
330
47
102
}
330
47
100
AcDbDictionary
281
     1
  0
XRECORD
  5
A929
102
{ACAD_REACTORS
330
47
102
}
330
47
100
AcDbXrecord
280
     1
 90
-1023410169
  0
XRECORD
  5
57913
102
{ACAD_REACTORS
330
57912
102
}
330
57912
100
AcDbXrecord
280
     1
330
0
330
0
330
0
330
0
330
0
330
0
330
0
330
0
330
0
330
0
330
0
330
0
330
0
330
0
330
0
330
0
330
0
330
0
330
0
330
0
330
0
330
0
330
0
330
0
330
0
330
0
330
0
330
0
330
0
330
0
330
0
330
0
330
0
330
0
330
0
330
0
330
0
330
0
330
0
330
0
330
0
330
0
330
0
330
0
330
0
330
0
330
0
330
0
330
0
330
0
330
0
330
0
330
0
330
0
330
0
330
0
330
0
330
0
330
0
330
0
330
0
330
0
330
0
330
0
330
0
330
0
330
0
330
0
330
0
330
0
330
0
330
0
330
0
330
0
330
0
330
0
330
0
330
0
330
0
330
0
330
0
330
0
330
0
330
0
330
0
330
0
330
0
330
0
330
0
330
0
330
0
330
0
330
0
330
0
330
0
330
0
330
0
330
0
330
0
330
0
330
0
330
0
330
0
330
0
330
0
330
0
330
0
330
0
330
0
330
0
330
0
330
0
330
0
330
0
330
0
330
0
330
0
330
0
330
0
330
0
330
0
330
0
330
0
330
0
330
0
330
0
330
0
330
0
330
0
330
0
330
0
330
0
330
0
330
0
330
0
330
0
330
0
330
0
330
0
330
0
330
0
330
0
330
0
330
0
330
0
330
0
330
0
330
0
330
0
330
0
330
0
330
0
330
0
330
0
330
0
330
0
330
0
330
0
330
0
330
0
330
0
330
0
330
0
330
0
330
0
330
0
330
0
330
0
330
0
330
0
330
0
330
0
330
0
330
0
330
0
330
0
330
0
330
0
330
0
330
0
330
0
330
0
330
0
330
0
330
0
330
0
330
0
330
0
330
0
330
0
330
0
330
0
330
0
330
0
330
0
330
0
330
0
330
0
330
0
330
0
330
0
330
0
330
0
330
0
330
0
330
0
330
0
330
0
330
0
330
0
330
0
330
0
330
0
330
0
330
0
330
0
330
0
330
0
330
0
330
0
330
0
330
0
330
0
330
0
330
0
330
0
330
0
330
0
330
0
330
0
330
0
330
0
330
0
330
0
330
0
330
0
330
0
330
0
330
0
330
0
330
0
330
0
330
0
330
0
330
0
330
0
330
0
330
0
330
0
330
0
330
0
330
0
330
0
330
0
330
0
330
0
330
0
330
0
330
0
330
0
330
0
330
0
330
0
330
0
330
0
330
0
330
0
330
0
330
0
330
0
330
0
330
0
330
0
330
0
330
0
330
0
330
0
330
0
330
0
330
0
330
0
330
0
330
0
330
0
330
0
330
0
330
0
330
0
330
0
330
0
330
0
330
0
330
0
330
0
330
0
330
0
330
0
330
0
330
0
330
0
330
0
330
0
330
0
330
0
330
0
330
0
330
0
330
0
330
0
330
0
330
0
330
0
330
0
330
0
330
0
330
0
330
0
330
0
330
0
330
0
330
0
330
0
330
0
330
0
330
0
330
0
330
0
330
0
330
0
330
0
330
0
330
0
330
0
330
0
330
0
330
0
330
0
330
0
330
0
330
0
330
0
330
0
330
0
330
0
330
0
330
0
330
0
330
0
330
0
330
0
330
0
330
0
330
0
330
0
330
0
330
0
330
0
330
0
330
0
330
0
330
0
330
0
330
0
330
0
330
0
330
0
330
0
330
0
330
0
330
0
330
0
330
0
330
0
330
0
330
0
330
0
330
0
330
0
330
0
330
0
330
0
330
0
330
0
330
0
330
0
330
0
330
0
330
0
330
0
330
0
330
0
330
0
330
0
330
0
330
0
330
0
330
0
330
0
330
0
330
0
330
0
330
0
330
0
330
0
330
0
330
0
330
0
330
0
330
0
330
0
330
0
330
0
330
0
330
0
330
0
330
0
330
0
330
0
330
0
330
0
330
0
330
0
330
0
330
0
330
0
330
0
330
0
330
0
330
0
330
0
330
0
330
0
330
0
330
0
330
0
330
0
330
0
330
0
330
0
330
0
330
0
330
0
330
0
330
0
330
0
330
0
330
0
330
0
330
0
330
0
330
0
330
0
330
0
330
0
330
0
330
0
330
0
330
0
330
0
330
0
330
0
330
0
330
0
330
0
330
0
330
0
330
0
330
0
330
0
330
0
330
0
330
0
330
0
330
0
330
0
330
0
330
0
330
0
330
0
330
0
330
0
330
0
330
0
330
0
330
0
330
0
330
0
330
0
330
0
330
0
330
0
330
0
330
0
330
0
330
0
330
0
330
0
330
0
330
0
330
0
330
0
330
0
330
0
330
0
330
0
330
0
330
0
330
0
330
0
330
0
330
0
330
0
330
0
330
0
330
0
330
0
330
0
330
0
330
0
330
0
330
0
330
0
330
0
330
0
330
0
330
0
330
0
330
0
330
0
330
0
330
0
330
0
330
0
330
0
330
0
330
0
330
0
330
0
330
0
330
0
330
0
330
0
330
0
330
0
330
0
330
0
330
0
330
0
330
0
330
0
330
0
330
0
330
0
330
0
330
0
330
0
330
0
330
0
330
0
330
0
330
0
330
0
330
0
330
0
330
0
330
0
330
0
330
0
330
0
330
0
330
0
330
0
330
0
330
0
330
0
330
0
330
0
330
0
330
0
330
0
330
0
330
0
330
0
330
0
330
0
330
0
330
0
330
0
330
0
330
0
330
0
330
0
330
0
330
0
330
0
330
0
330
0
330
0
330
0
330
0
330
0
330
0
330
0
330
0
330
0
330
0
330
0
330
0
330
0
330
0
330
0
330
0
330
0
330
0
330
0
330
0
330
0
330
0
330
0
330
0
330
0
330
0
330
0
330
0
330
0
330
0
330
0
330
0
330
0
330
0
330
0
330
0
330
0
330
0
330
0
330
0
330
0
330
0
330
0
330
0
330
0
330
0
330
0
330
0
330
0
330
0
330
0
330
0
330
0
330
0
330
0
330
0
330
0
330
0
330
0
330
0
330
0
330
0
330
0
330
0
330
0
330
0
330
0
330
0
330
0
330
0
330
0
330
0
330
0
330
0
330
0
330
0
330
0
330
0
330
0
330
0
330
0
330
0
330
0
330
0
330
0
330
0
330
0
330
0
330
0
330
0
330
0
330
0
330
0
330
0
330
0
330
0
330
0
330
0
330
0
330
0
330
0
330
0
330
0
330
0
330
0
330
0
330
0
330
0
330
0
330
0
330
0
330
0
330
0
330
0
330
0
330
0
330
0
330
0
330
0
330
0
330
0
330
0
330
0
330
0
330
0
330
0
330
0
330
0
330
0
330
0
330
0
330
0
330
0
330
0
330
0
330
0
330
0
330
0
330
0
330
0
330
0
330
0
330
0
330
0
330
0
330
0
330
0
330
0
330
0
330
0
330
0
330
0
330
0
330
0
330
0
330
0
330
0
330
0
330
0
330
0
330
0
330
0
330
0
330
0
330
0
330
0
330
0
330
0
330
0
330
0
330
0
330
0
330
0
330
0
330
0
330
0
330
0
330
0
330
0
330
0
330
0
330
0
330
0
330
0
330
0
330
0
330
0
330
0
330
0
330
0
330
0
330
0
330
0
330
0
330
0
330
0
330
0
330
0
330
0
330
0
330
0
330
0
330
0
330
0
330
0
330
0
330
0
330
0
330
0
330
0
330
0
330
0
330
0
330
0
330
0
330
0
330
0
330
0
330
0
330
0
330
0
330
0
330
0
330
0
330
0
330
0
330
0
330
0
330
0
330
0
330
0
330
0
330
0
330
0
330
0
330
0
330
0
330
0
330
0
330
0
330
0
330
0
330
0
330
0
330
0
330
0
330
0
330
0
330
0
330
0
330
0
330
0
330
0
330
0
330
0
330
0
330
0
330
0
330
0
330
0
330
0
330
0
330
0
330
0
330
0
330
0
330
0
330
0
330
0
330
0
330
0
330
0
330
0
330
0
330
0
330
0
330
0
330
0
330
0
330
0
330
0
330
0
330
0
330
0
330
0
330
0
330
0
330
0
330
0
330
0
330
0
330
0
330
0
330
0
330
0
330
0
330
0
330
0
330
0
330
0
330
0
330
0
330
0
330
0
330
0
330
0
330
0
330
0
330
0
330
0
330
0
330
0
330
0
330
0
330
0
330
0
330
0
330
0
330
0
330
0
330
0
330
0
330
0
330
0
330
0
330
0
330
0
330
0
330
0
330
0
330
0
330
0
330
0
330
0
330
0
330
0
330
0
330
0
330
0
330
0
330
0
330
0
330
0
330
0
330
0
330
0
330
0
330
0
330
0
330
0
330
0
330
0
330
0
330
0
330
0
330
0
330
0
330
0
330
0
330
0
330
0
330
0
330
0
330
0
330
0
330
0
330
0
330
0
330
0
330
0
330
0
330
0
330
0
330
0
330
0
330
0
330
0
330
0
330
0
330
0
330
0
330
0
330
0
330
0
330
0
330
0
330
0
330
0
330
0
330
0
330
0
330
0
330
0
330
0
330
0
330
0
330
0
330
0
330
0
330
0
330
0
330
0
330
0
330
0
330
0
330
0
330
0
330
0
330
0
330
0
330
0
330
0
330
0
330
0
330
0
330
0
330
0
330
0
330
0
330
0
330
0
330
0
330
0
330
0
330
0
330
0
330
0
330
0
330
0
330
0
330
0
330
0
330
0
330
0
330
0
330
0
330
0
330
0
330
0
330
0
330
0
330
0
330
0
330
0
330
0
330
0
330
0
330
0
330
0
330
0
330
0
330
0
330
0
330
0
330
0
330
0
330
0
330
0
330
0
330
0
330
0
330
0
330
0
330
0
330
0
330
0
330
0
330
0
330
0
330
0
330
0
330
0
330
0
330
0
330
0
330
0
330
0
330
0
330
0
330
0
330
0
330
0
330
0
330
0
330
0
330
0
330
0
330
0
330
0
330
0
330
0
330
0
330
0
330
0
330
0
330
0
330
0
330
0
330
0
330
0
330
0
330
0
330
0
330
0
330
0
330
0
330
0
330
0
330
0
330
0
330
0
330
0
330
0
330
0
330
0
330
0
330
0
330
0
330
52D72
330
52D73
330
0
330
0
330
0
330
0
330
0
330
0
330
0
330
0
330
0
330
0
330
52DAC
330
52DAD
330
0
330
0
330
0
330
0
330
0
330
0
330
0
330
0
330
0
330
0
330
0
330
0
330
52DEB
330
52DEC
330
0
330
0
330
0
330
0
330
0
330
0
330
0
330
0
330
0
330
0
330
0
330
0
330
0
330
0
330
0
330
0
330
0
330
0
330
0
330
0
330
0
330
0
330
0
330
0
330
0
330
0
330
0
330
0
330
0
330
0
330
0
330
0
330
0
330
0
330
0
330
0
330
0
330
0
330
0
330
0
330
0
330
0
330
0
330
0
330
0
330
0
330
0
330
0
330
0
330
0
330
0
330
0
330
0
330
0
330
0
330
0
330
0
330
0
330
0
330
0
330
0
330
0
330
0
330
0
330
0
330
0
330
0
330
0
330
0
330
0
330
0
330
0
330
0
330
0
330
0
330
0
330
0
330
0
330
0
330
0
330
0
330
0
330
0
330
0
330
0
330
0
330
0
330
0
330
0
330
0
330
0
330
0
330
0
330
0
330
0
330
0
330
0
330
0
330
0
330
0
330
0
330
0
330
0
330
0
330
0
330
0
330
0
330
0
330
0
330
0
330
0
330
0
330
0
330
0
330
0
330
0
330
0
330
0
330
0
330
0
330
0
330
0
330
0
330
0
330
0
330
0
330
0
330
0
330
0
330
0
330
0
330
0
330
0
330
0
330
0
330
0
330
0
330
0
330
0
330
0
330
0
330
0
330
0
330
0
330
0
330
0
330
0
330
0
330
0
330
0
330
0
330
0
330
0
330
0
330
0
330
0
330
0
330
0
330
0
330
0
330
0
330
0
330
0
330
0
330
0
330
0
330
0
330
0
330
0
330
0
330
0
330
0
330
0
330
0
330
0
330
0
330
0
330
0
330
0
330
0
330
0
330
0
330
0
330
0
330
0
330
0
330
0
330
0
330
0
330
0
330
0
330
0
330
0
330
0
330
0
330
0
330
0
330
0
330
0
330
0
330
0
330
0
330
0
330
0
330
0
330
0
330
0
330
0
330
0
330
0
330
0
330
0
330
0
330
0
330
0
330
0
330
0
330
0
330
0
330
0
330
0
330
0
330
0
330
0
330
0
330
0
330
0
330
0
330
0
330
0
330
0
330
0
330
0
330
0
330
0
330
0
330
0
330
0
330
0
330
0
330
0
330
0
330
0
330
0
330
0
330
0
330
0
330
0
330
0
330
0
330
0
330
0
330
0
330
0
330
0
330
0
330
0
330
0
330
0
330
0
330
0
330
0
330
0
330
0
330
0
330
0
330
0
330
0
330
0
330
0
330
0
330
0
330
0
330
0
330
0
330
0
330
0
330
0
330
0
330
0
330
0
330
0
330
0
330
0
330
0
330
0
330
0
330
0
330
0
330
0
330
0
330
0
330
0
330
0
330
0
330
0
330
0
330
0
330
0
330
0
330
0
330
0
330
0
330
0
330
0
330
0
330
0
330
0
330
0
330
0
330
0
330
0
330
0
330
0
330
0
330
0
330
0
330
0
330
0
330
0
330
0
330
0
330
0
330
0
330
0
330
0
330
0
330
0
330
0
330
0
330
0
330
0
330
0
330
0
330
0
330
0
330
0
330
0
330
0
330
0
330
0
330
0
330
0
330
0
330
0
330
0
330
0
330
0
330
0
330
0
330
0
330
0
330
0
330
0
330
0
330
0
330
0
330
0
330
0
330
0
330
0
330
0
330
0
330
0
330
0
330
0
330
0
330
0
330
0
330
0
330
0
330
0
330
0
330
0
330
0
330
0
330
0
330
0
330
0
330
0
330
0
330
0
330
0
330
0
330
0
330
0
330
0
330
0
330
0
330
0
330
0
330
0
330
0
330
0
330
0
330
0
330
0
330
0
330
0
330
0
330
0
330
0
330
0
330
0
330
0
330
0
330
0
330
0
330
0
330
0
330
0
330
0
330
0
330
0
330
0
330
0
330
0
330
0
330
0
330
0
330
0
330
0
330
0
330
0
330
0
330
0
330
0
330
0
330
0
330
0
330
0
330
0
330
0
330
0
330
0
330
0
330
0
330
0
330
0
330
0
330
0
330
0
330
0
330
0
330
0
330
0
330
0
330
0
330
0
330
0
330
0
330
0
330
0
330
0
330
0
330
0
330
0
330
0
330
0
330
0
330
0
330
0
330
0
330
0
330
0
330
0
330
0
330
0
330
0
330
0
330
0
330
0
330
0
330
0
330
0
330
0
330
0
330
0
330
0
330
0
330
0
330
0
330
0
330
0
330
0
330
0
330
0
330
0
330
0
330
0
330
0
330
0
330
0
330
0
330
0
330
0
330
0
330
0
330
0
330
0
330
0
330
0
330
0
330
0
330
0
330
0
330
0
330
0
330
0
330
0
330
0
330
0
330
0
330
0
330
0
330
0
330
0
330
0
330
0
330
0
330
0
330
0
330
0
330
0
330
0
330
0
330
0
330
0
330
0
330
0
330
0
330
0
330
0
330
0
330
0
330
0
330
0
330
0
330
0
330
0
330
0
330
0
330
0
330
0
330
0
330
0
330
0
330
0
330
0
330
0
330
0
330
0
330
0
330
0
330
0
330
0
330
0
330
0
330
0
330
0
330
0
330
0
330
0
330
0
330
0
330
0
330
0
330
0
330
0
330
0
330
0
330
0
330
0
330
0
330
0
330
0
330
0
330
0
330
0
330
0
330
0
330
0
330
0
330
0
330
0
330
0
330
0
330
0
330
0
330
0
330
0
330
0
330
0
330
0
330
0
330
0
330
0
330
0
330
0
330
0
330
0
330
0
330
0
330
0
330
0
330
0
330
0
330
0
330
0
330
0
330
0
330
0
330
0
330
0
330
0
330
0
330
0
330
0
330
0
330
0
330
0
330
0
330
0
330
0
330
0
330
0
330
0
330
0
330
0
330
0
330
0
330
0
330
0
330
0
330
0
330
0
330
0
330
0
330
0
330
0
330
0
330
0
330
0
330
0
330
0
330
0
330
0
330
0
330
0
330
0
330
0
330
0
330
0
330
0
330
0
330
0
330
0
330
0
330
0
330
0
330
0
330
0
330
0
330
0
330
0
330
0
330
0
330
0
330
0
330
0
330
0
330
0
330
0
330
0
330
0
330
0
330
0
330
0
330
0
330
0
330
0
330
0
330
0
330
0
330
0
330
0
330
0
330
0
330
0
330
0
330
0
330
0
330
0
330
0
330
0
330
0
330
0
330
0
330
0
330
0
330
0
330
0
330
0
330
0
330
0
330
0
330
0
330
0
330
0
330
0
330
0
330
0
330
0
330
0
330
0
330
0
330
0
330
0
330
0
330
0
330
0
330
0
330
0
330
0
330
0
330
0
330
0
330
0
330
0
330
0
330
0
330
0
330
0
330
0
330
0
330
0
330
0
330
0
330
0
330
0
330
0
330
0
330
0
330
0
330
0
330
0
330
0
330
0
330
0
330
0
330
0
330
0
330
0
330
0
  0
XRECORD
  5
3FB7
102
{ACAD_REACTORS
330
3F96
102
}
330
3F96
100
AcDbXrecord
280
     1
 91
        3
330
0
 90
        8
 62
     7
370
    40
331
16
  1
Color_7
330
0
 90
        0
 62
    14
370
    -3
331
16
  1
Color_14
330
0
 90
        8
 62
     7
370
    20
331
16
  1
Color_7
330
6D1
 90
        0
 62
     7
370
    -3
331
16
  1
Color_7
330
0
 90
        8
 62
     7
370
    50
331
16
  1
Color_7
330
0
 90
        8
 62
     2
370
    35
331
16
  1
Color_2
330
0
 90
        8
 62
     7
370
    -3
331
16
  1
Color_7
330
10
 90
        8
 62
     7
370
    -3
331
16
  1
Color_7
  0
DICTIONARY
  5
5B661
330
22
100
AcDbDictionary
280
     1
281
     1
  3
ACAD_XREC_ROUNDTRIP
360
5B662
  0
DICTIONARY
  5
5B65F
330
1E
100
AcDbDictionary
280
     1
281
     1
  3
ACAD_XREC_ROUNDTRIP
360
5B660
  0
DICTIONARY
  5
5B663
330
26
100
AcDbDictionary
280
     1
281
     1
  3
ACAD_XREC_ROUNDTRIP
360
5B664
  0
DICTIONARY
  5
5B669
330
B0EF
100
AcDbDictionary
280
     1
281
     1
  3
ACAD_XREC_ROUNDTRIP
360
5B66A
  0
DICTIONARY
  5
5B667
330
B0EE
100
AcDbDictionary
280
     1
281
     1
  3
ACAD_XREC_ROUNDTRIP
360
5B668
  0
DICTIONARY
  5
5B66B
330
B0F0
100
AcDbDictionary
280
     1
281
     1
  3
ACAD_XREC_ROUNDTRIP
360
5B66C
  0
DICTIONARY
  5
5B665
330
AABA
100
AcDbDictionary
280
     1
281
     1
  3
ACAD_XREC_ROUNDTRIP
360
5B666
  0
XRECORD
  5
5B662
102
{ACAD_REACTORS
330
5B661
102
}
330
5B661
100
AcDbXrecord
280
     1
102
SHADEPLOT
 70
     0
102
SHADEPLOTRESLEVEL
 70
     2
102
SHADEPLOTCUSTOMDPI
 70
   200
  0
XRECORD
  5
5B660
102
{ACAD_REACTORS
330
5B65F
102
}
330
5B65F
100
AcDbXrecord
280
     1
102
SHADEPLOT
 70
     0
102
SHADEPLOTRESLEVEL
 70
     2
102
SHADEPLOTCUSTOMDPI
 70
   300
  0
XRECORD
  5
5B664
102
{ACAD_REACTORS
330
5B663
102
}
330
5B663
100
AcDbXrecord
280
     1
102
SHADEPLOT
 70
     0
102
SHADEPLOTRESLEVEL
 70
     2
102
SHADEPLOTCUSTOMDPI
 70
   300
  0
XRECORD
  5
5B66A
102
{ACAD_REACTORS
330
5B669
102
}
330
5B669
100
AcDbXrecord
280
     1
102
MATERIAL
148
0.0
149
0.0
149
0.0
 93
        0
 94
       63
282
     0
 72
     1
 77
     1
171
     1
175
     1
179
     1
273
     0
  0
XRECORD
  5
5B668
102
{ACAD_REACTORS
330
5B667
102
}
330
5B667
100
AcDbXrecord
280
     1
102
MATERIAL
148
0.0
149
0.0
149
0.0
 93
        0
 94
       63
282
     0
 72
     1
 77
     1
171
     1
175
     1
179
     1
273
     0
  0
XRECORD
  5
5B66C
102
{ACAD_REACTORS
330
5B66B
102
}
330
5B66B
100
AcDbXrecord
280
     1
102
MATERIAL
148
0.0
149
0.0
149
0.0
 93
        0
 94
       63
282
     0
 72
     1
 77
     1
171
     1
175
     1
179
     1
273
     0
  0
XRECORD
  5
5B666
102
{ACAD_REACTORS
330
5B665
102
}
330
5B665
100
AcDbXrecord
280
     1
102
ACAD_ROUNDTRIP_PRE2007_TABLESTYLE
 90
        4
 91
        0
  1

 92
        4
 93
        0
  2

 94
        4
 95
        0
  3

  0
ENDSEC
  0
EOF
