  0
SECTION
  2
HEADER
  9
$ACADVER
  1
AC1015
  9
$ACADMAINTVER
 70
    20
  9
$DWGCODEPAGE
  3
ANSI_932
  9
$INSBASE
 10
0.0
 20
0.0
 30
0.0
  9
$EXTMIN
 10
6142.960641357383
 20
-5602.977855310154
 30
0.0
  9
$EXTMAX
 10
6439.960641357384
 20
-5392.977855310153
 30
0.0
  9
$LIMMIN
 10
3779.599158088851
 20
100.7134268036752
  9
$LIMMAX
 10
9719.599158088852
 20
4300.713426803675
  9
$ORTHOMODE
 70
     0
  9
$REGENMODE
 70
     1
  9
$FILLMODE
 70
     1
  9
$QTEXTMODE
 70
     0
  9
$MIRRTEXT
 70
     0
  9
$LTSCALE
 40
1.0
  9
$ATTMODE
 70
     1
  9
$TEXTSIZE
 40
3.2
  9
$TRACEWID
 40
1.0
  9
$TEXTSTYLE
  7
STANDARD
  9
$CLAYER
  8
0部品18
  9
$CELTYPE
  6
ByLayer
  9
$CECOLOR
 62
   256
  9
$CELTSCALE
 40
1.0
  9
$DISPSILH
 70
     0
  9
$DIMSCALE
 40
1.0
  9
$DIMASZ
 40
1.0
  9
$DIMEXO
 40
1.0
  9
$DIMDLI
 40
10.0
  9
$DIMRND
 40
0.0
  9
$DIMDLE
 40
0.0
  9
$DIMEXE
 40
1.0
  9
$DIMTP
 40
0.1
  9
$DIMTM
 40
0.1
  9
$DIMTXT
 40
3.5
  9
$DIMCEN
 40
0.0
  9
$DIMTSZ
 40
0.0
  9
$DIMTOL
 70
     0
  9
$DIMLIM
 70
     0
  9
$DIMTIH
 70
     0
  9
$DIMTOH
 70
     0
  9
$DIMSE1
 70
     0
  9
$DIMSE2
 70
     0
  9
$DIMTAD
 70
     1
  9
$DIMZIN
 70
     8
  9
$DIMBLK
  1

  9
$DIMASO
 70
     1
  9
$DIMSHO
 70
     1
  9
$DIMPOST
  1

  9
$DIMAPOST
  1
"
  9
$DIMALT
 70
     0
  9
$DIMALTD
 70
     2
  9
$DIMALTF
 40
0.0393701
  9
$DIMLFAC
 40
1.0
  9
$DIMTOFL
 70
     1
  9
$DIMTVP
 40
0.0
  9
$DIMTIX
 70
     0
  9
$DIMSOXD
 70
     0
  9
$DIMSAH
 70
     0
  9
$DIMBLK1
  1

  9
$DIMBLK2
  1

  9
$DIMSTYLE
  2
SYS
  9
$DIMCLRD
 70
   256
  9
$DIMCLRE
 70
   256
  9
$DIMCLRT
 70
     7
  9
$DIMTFAC
 40
0.71
  9
$DIMGAP
 40
1.5
  9
$DIMJUST
 70
     0
  9
$DIMSD1
 70
     0
  9
$DIMSD2
 70
     0
  9
$DIMTOLJ
 70
     0
  9
$DIMTZIN
 70
     8
  9
$DIMALTZ
 70
     0
  9
$DIMALTTZ
 70
     0
  9
$DIMUPT
 70
     0
  9
$DIMDEC
 70
     2
  9
$DIMTDEC
 70
     2
  9
$DIMALTU
 70
     2
  9
$DIMALTTD
 70
     2
  9
$DIMTXSTY
  7
STANDARD
  9
$DIMAUNIT
 70
     0
  9
$DIMADEC
 70
     0
  9
$DIMALTRND
 40
0.0
  9
$DIMAZIN
 70
     2
  9
$DIMDSEP
 70
    46
  9
$DIMATFIT
 70
     3
  9
$DIMFRAC
 70
     0
  9
$DIMLDRBLK
  1

  9
$DIMLUNIT
 70
     2
  9
$DIMLWD
 70
    -1
  9
$DIMLWE
 70
    -1
  9
$DIMTMOVE
 70
     0
  9
$LUNITS
 70
     2
  9
$LUPREC
 70
     2
  9
$SKETCHINC
 40
1.0
  9
$FILLETRAD
 40
1.5
  9
$AUNITS
 70
     0
  9
$AUPREC
 70
     0
  9
$MENU
  1
.
  9
$ELEVATION
 40
0.0
  9
$PELEVATION
 40
0.0
  9
$THICKNESS
 40
0.0
  9
$LIMCHECK
 70
     0
  9
$CHAMFERA
 40
0.0
  9
$CHAMFERB
 40
0.0
  9
$CHAMFERC
 40
20.0
  9
$CHAMFERD
 40
0.0
  9
$SKPOLY
 70
     0
  9
$TDCREATE
 40
2455567.680725081
  9
$TDUCREATE
 40
2455567.305725081
  9
$TDUPDATE
 40
2456343.623195891
  9
$TDUUPDATE
 40
2456343.248195891
  9
$TDINDWG
 40
7.9489913889
  9
$TDUSRTIMER
 40
7.9489897569
  9
$USRTIMER
 70
     1
  9
$ANGBASE
 50
0.0
  9
$ANGDIR
 70
     0
  9
$PDMODE
 70
     0
  9
$PDSIZE
 40
-3.0
  9
$PLINEWID
 40
0.0
  9
$SPLFRAME
 70
     0
  9
$SPLINETYPE
 70
     6
  9
$SPLINESEGS
 70
     8
  9
$HANDSEED
  5
5B723
  9
$SURFTAB1
 70
     6
  9
$SURFTAB2
 70
     6
  9
$SURFTYPE
 70
     6
  9
$SURFU
 70
     6
  9
$SURFV
 70
     6
  9
$UCSBASE
  2

  9
$UCSNAME
  2

  9
$UCSORG
 10
0.0
 20
0.0
 30
0.0
  9
$UCSXDIR
 10
1.0
 20
0.0
 30
0.0
  9
$UCSYDIR
 10
0.0
 20
1.0
 30
0.0
  9
$UCSORTHOREF
  2

  9
$UCSORTHOVIEW
 70
     0
  9
$UCSORGTOP
 10
0.0
 20
0.0
 30
0.0
  9
$UCSORGBOTTOM
 10
0.0
 20
0.0
 30
0.0
  9
$UCSORGLEFT
 10
0.0
 20
0.0
 30
0.0
  9
$UCSORGRIGHT
 10
0.0
 20
0.0
 30
0.0
  9
$UCSORGFRONT
 10
0.0
 20
0.0
 30
0.0
  9
$UCSORGBACK
 10
0.0
 20
0.0
 30
0.0
  9
$PUCSBASE
  2

  9
$PUCSNAME
  2

  9
$PUCSORG
 10
0.0
 20
0.0
 30
0.0
  9
$PUCSXDIR
 10
1.0
 20
0.0
 30
0.0
  9
$PUCSYDIR
 10
0.0
 20
1.0
 30
0.0
  9
$PUCSORTHOREF
  2

  9
$PUCSORTHOVIEW
 70
     0
  9
$PUCSORGTOP
 10
0.0
 20
0.0
 30
0.0
  9
$PUCSORGBOTTOM
 10
0.0
 20
0.0
 30
0.0
  9
$PUCSORGLEFT
 10
0.0
 20
0.0
 30
0.0
  9
$PUCSORGRIGHT
 10
0.0
 20
0.0
 30
0.0
  9
$PUCSORGFRONT
 10
0.0
 20
0.0
 30
0.0
  9
$PUCSORGBACK
 10
0.0
 20
0.0
 30
0.0
  9
$USERI1
 70
     0
  9
$USERI2
 70
     0
  9
$USERI3
 70
     0
  9
$USERI4
 70
     0
  9
$USERI5
 70
     0
  9
$USERR1
 40
0.0
  9
$USERR2
 40
0.0
  9
$USERR3
 40
0.0
  9
$USERR4
 40
0.0
  9
$USERR5
 40
0.0
  9
$WORLDVIEW
 70
     1
  9
$SHADEDGE
 70
     3
  9
$SHADEDIF
 70
    70
  9
$TILEMODE
 70
     1
  9
$MAXACTVP
 70
    64
  9
$PINSBASE
 10
0.0
 20
0.0
 30
0.0
  9
$PLIMCHECK
 70
     0
  9
$PEXTMIN
 10
1.000000000000000E+20
 20
1.000000000000000E+20
 30
1.000000000000000E+20
  9
$PEXTMAX
 10
-1.000000000000000E+20
 20
-1.000000000000000E+20
 30
-1.000000000000000E+20
  9
$PLIMMIN
 10
-3.17498779296875
 20
-3.174999952316284
  9
$PLIMMAX
 10
293.4970092773438
 20
206.692492723465
  9
$UNITMODE
 70
     0
  9
$VISRETAIN
 70
     1
  9
$PLINEGEN
 70
     0
  9
$PSLTSCALE
 70
     1
  9
$TREEDEPTH
 70
  3020
  9
$CMLSTYLE
  2
Standard
  9
$CMLJUST
 70
     0
  9
$CMLSCALE
 40
20.0
  9
$PROXYGRAPHICS
 70
     1
  9
$MEASUREMENT
 70
     1
  9
$CELWEIGHT
370
    -1
  9
$ENDCAPS
280
     0
  9
$JOINSTYLE
280
     0
  9
$LWDISPLAY
290
     1
  9
$INSUNITS
 70
     4
  9
$HYPERLINKBASE
  1

  9
$STYLESHEET
  1
monochrome.ctb
  9
$XEDIT
290
     1
  9
$CEPSNTYPE
380
     0
  9
$PSTYLEMODE
290
     1
  9
$FINGERPRINTGUID
  2
{487E49EE-344A-43F6-800E-CE119D8346FF}
  9
$VERSIONGUID
  2
{A6C4B524-C8CB-4A2B-B039-CD3695FD5B58}
  9
$EXTNAMES
290
     1
  9
$PSVPSCALE
 40
0.0
  9
$OLESTARTUP
290
     0
  0
ENDSEC
  0
SECTION
  2
CLASSES
  0
CLASS
  1
ACDBDICTIONARYWDFLT
  2
AcDbDictionaryWithDefault
  3
ObjectDBX Classes
 90
        0
280
     0
281
     0
  0
CLASS
  1
ACDBPLACEHOLDER
  2
AcDbPlaceHolder
  3
ObjectDBX Classes
 90
        0
280
     0
281
     0
  0
CLASS
  1
LAYOUT
  2
AcDbLayout
  3
ObjectDBX Classes
 90
        0
280
     0
281
     0
  0
CLASS
  1
AMGSETTINGSOBJ
  2
AmgSettingsObj
  3
"AcadM|Product Description: AutoCAD Mechanical|Company: Autodesk"
 90
        0
280
     0
281
     0
  0
CLASS
  1
ACME_DOCUMENT
  2
AcMeDbDoc
  3
AcMeServices
 90
        0
280
     0
281
     0
  0
CLASS
  1
ACMESCOPE
  2
AcMeScope
  3
AcMeServices
 90
        0
280
     0
281
     0
  0
CLASS
  1
ACMECOMMANDHISTORY
  2
AcMeCommandHistory
  3
AcMeServices
 90
        0
280
     0
281
     0
  0
CLASS
  1
DICTIONARYVAR
  2
AcDbDictionaryVar
  3
ObjectDBX Classes
 90
        0
280
     0
281
     0
  0
CLASS
  1
ACIMSYSVARMAN
  2
AcImSysVarManager
  3
AcMeServices
 90
        0
280
     0
281
     0
  0
CLASS
  1
ACIMREALSYSVAR
  2
AcImRealSysVar
  3
AcMeServices
 90
        0
280
     0
281
     0
  0
CLASS
  1
ACIMINTSYSVAR
  2
AcImIntSysVar
  3
AcMeServices
 90
        0
280
     0
281
     0
  0
CLASS
  1
ACMEDRAWINGMAN
  2
AcMeDrawingMan
  3
AcMeServices
 90
        0
280
     0
281
     0
  0
CLASS
  1
ACMEVIEW
  2
AcMeView
  3
AcMeServices
 90
        0
280
     0
281
     0
  0
CLASS
  1
ACDBENTITYCACHE
  2
AcMeEntityCache
  3
AcMeServices
 90
        0
280
     0
281
     0
  0
CLASS
  1
GSMANAGER
  2
AcMeGSManager
  3
AcMeServices
 90
        0
280
     0
281
     0
  0
CLASS
  1
AMDTINTERNALREACTOR
  2
AmdtInternalReactor
  3
AcMeServices
 90
        0
280
     0
281
     0
  0
CLASS
  1
ACMESTATEMGR
  2
AcMeStateMgr
  3
AcMeServices
 90
        0
280
     0
281
     0
  0
CLASS
  1
ACGREFMASTER
  2
AcGrefMaster
  3
AcAttribServices
 90
        0
280
     0
281
     0
  0
CLASS
  1
ACME_DATABASE
  2
AcMeDbDatabase
  3
AcMeServices
 90
        0
280
     0
281
     0
  0
CLASS
  1
ACRFINSADJUSTERMGR
  2
AcRfInsAdjusterMgr
  3
AcMeServices
 90
        0
280
     0
281
     0
  0
CLASS
  1
ACGREFACADMASTER
  2
AcGrefacadMaster
  3
AcGrefServices
 90
        0
280
     0
281
     0
  0
CLASS
  1
AMIMASTER
  2
AmiMaster
  3
AmiServices
 90
        0
280
     0
281
     0
  0
CLASS
  1
ACMDATADICTIONARY
  2
AcmDataDictionary
  3
"AcmSymBB|Product Description: AutoCAD Mechanical|Company: Autodesk"
 90
        0
280
     0
281
     0
  0
CLASS
  1
ACMDATAENTRYBLOCK
  2
AcmDataEntryBlock
  3
"AcmSymBB|Product Description: AutoCAD Mechanical|Company: Autodesk"
 90
        0
280
     0
281
     0
  0
CLASS
  1
ACIMSTRSYSVAR
  2
AcImStrSysVar
  3
AcMeServices
 90
        0
280
     0
281
     0
  0
CLASS
  1
ACMSTANDARDISO
  2
AcmStandardISO
  3
"Amdt_StdImp|Product Description: AutoCAD Mechanical|Company: Autodesk"
 90
        0
280
     0
281
     0
  0
CLASS
  1
AMGOBJPROPCFG
  2
AmgObjPropCfg
  3
"AmgLay|Product Description: AutoCAD Mechanical|Company: Autodesk"
 90
        1
280
     0
281
     0
  0
CLASS
  1
AMDTEDGESTANDARDISO
  2
AmdtEdgeStdISO
  3
"Amdt_StdImp|Product Description: AutoCAD Mechanical|Company: Autodesk"
 90
        0
280
     0
281
     0
  0
CLASS
  1
ACMSURFSTANDARDISO
  2
AcmSurfTextStdISO
  3
"Amdt_StdImp|Product Description: AutoCAD Mechanical|Company: Autodesk"
 90
        0
280
     0
281
     0
  0
CLASS
  1
ACMFCFSTANDARDISO
  2
AcmFCFStdISO
  3
"Amdt_StdImp|Product Description: AutoCAD Mechanical|Company: Autodesk"
 90
        0
280
     0
281
     0
  0
CLASS
  1
ACMWELDSTANDARDISO
  2
AcmWeldingStdISO
  3
"Amdt_StdImp|Product Description: AutoCAD Mechanical|Company: Autodesk"
 90
        0
280
     0
281
     0
  0
CLASS
  1
ACMIDSTANDARDISO
  2
AcmIdStdISO
  3
"Amdt_StdImp|Product Description: AutoCAD Mechanical|Company: Autodesk"
 90
        0
280
     0
281
     0
  0
CLASS
  1
ACMDATUMSTANDARDISO
  2
AcmDatumStdISO
  3
"Amdt_StdImp|Product Description: AutoCAD Mechanical|Company: Autodesk"
 90
        0
280
     0
281
     0
  0
CLASS
  1
ACMBOMSTANDARDISO
  2
AcmBOMStdISO
  3
"Amdt_StdImp|Product Description: AutoCAD Mechanical|Company: Autodesk"
 90
        0
280
     0
281
     0
  0
CLASS
  1
ACMDETAILSTANDARDISO
  2
AmdtDetailSymStdISO
  3
"Amdt_StdImp|Product Description: AutoCAD Mechanical|Company: Autodesk"
 90
        0
280
     0
281
     0
  0
CLASS
  1
ACMSECTIONSTANDARDISO
  2
AmdtSectionSymStdISO
  3
"Amdt_StdImp|Product Description: AutoCAD Mechanical|Company: Autodesk"
 90
        0
280
     0
281
     0
  0
CLASS
  1
ACMCENTERLINESTANDARDISO
  2
AmdtCenterLineStdISO
  3
"Amdt_StdImp|Product Description: AutoCAD Mechanical|Company: Autodesk"
 90
        0
280
     0
281
     0
  0
CLASS
  1
ACAMGLAYSTD
  2
AcAmgLayStd
  3
"AmgLay|Product Description: AutoCAD Mechanical|Company: Autodesk"
 90
        0
280
     0
281
     0
  0
CLASS
  1
ACAMGDIMSTD
  2
AcAmgDimStd
  3
"AmgDim|Product Description: AutoCAD Mechanical|Company: Autodesk"
 90
        0
280
     0
281
     0
  0
CLASS
  1
ACAMGTITLESTD
  2
AcAmgTitleStd
  3
"AmgTitle|Product Description: AutoCAD Mechanical|Company: Autodesk"
 90
        0
280
     0
281
     0
  0
CLASS
  1
ACAMGFILTERDAT
  2
AcAmgFilterDat
  3
"AcadM|Product Description: AutoCAD Mechanical|Company: Autodesk"
 90
        0
280
     0
281
     0
  0
CLASS
  1
LAYER_INDEX
  2
AcDbLayerIndex
  3
ObjectDBX Classes
 90
    32768
280
     0
281
     0
  0
CLASS
  1
IDBUFFER
  2
AcDbIdBuffer
  3
ObjectDBX Classes
 90
    32768
280
     0
281
     0
  0
CLASS
  1
PLOTSETTINGS
  2
AcDbPlotSettings
  3
ObjectDBX Classes
 90
    32768
280
     0
281
     0
  0
CLASS
  1
AMDTFORMULAUPDATEDISPATCHER
  2
AmdtFormulaUpdateDispatcher
  3
AcMeServices
 90
        0
280
     0
281
     0
  0
CLASS
  1
ACMSTANDARDANSI
  2
AcmStandardANSI
  3
"Amdt_StdImp|Product Description: AutoCAD Mechanical|Company: Autodesk"
 90
        0
280
     0
281
     0
  0
CLASS
  1
ACMSURFSTANDARDANSI
  2
AcmSurfTextStdANSI
  3
"Amdt_StdImp|Product Description: AutoCAD Mechanical|Company: Autodesk"
 90
        0
280
     0
281
     0
  0
CLASS
  1
ACMFCFSTANDARDANSI
  2
AcmFCFStdANSI
  3
"Amdt_StdImp|Product Description: AutoCAD Mechanical|Company: Autodesk"
 90
        0
280
     0
281
     0
  0
CLASS
  1
ACMWELDSTANDARDANSI
  2
AcmWeldingStdANSI
  3
"Amdt_StdImp|Product Description: AutoCAD Mechanical|Company: Autodesk"
 90
        0
280
     0
281
     0
  0
CLASS
  1
ACMIDSTANDARDANSI
  2
AcmIdStdANSI
  3
"Amdt_StdImp|Product Description: AutoCAD Mechanical|Company: Autodesk"
 90
        0
280
     0
281
     0
  0
CLASS
  1
ACMDATUMSTANDARDANSI
  2
AcmDatumStdANSI
  3
"Amdt_StdImp|Product Description: AutoCAD Mechanical|Company: Autodesk"
 90
        0
280
     0
281
     0
  0
CLASS
  1
ACMBOMSTANDARDANSI
  2
AcmBOMStdANSI
  3
"Amdt_StdImp|Product Description: AutoCAD Mechanical|Company: Autodesk"
 90
        0
280
     0
281
     0
  0
CLASS
  1
ACMDETAILSTANDARDANSI
  2
AmdtDetailSymStdANSI
  3
"Amdt_StdImp|Product Description: AutoCAD Mechanical|Company: Autodesk"
 90
        0
280
     0
281
     0
  0
CLASS
  1
ACMSECTIONSTANDARDANSI
  2
AmdtSectionSymStdANSI
  3
"Amdt_StdImp|Product Description: AutoCAD Mechanical|Company: Autodesk"
 90
        0
280
     0
281
     0
  0
CLASS
  1
ACMCENTERLINESTANDARDANSI
  2
AmdtCenterLineStdANSI
  3
"Amdt_StdImp|Product Description: AutoCAD Mechanical|Company: Autodesk"
 90
        0
280
     0
281
     0
  0
CLASS
  1
ACMBOM
  2
AcmBom
  3
"AcmSymBB|Product Description: AutoCAD Mechanical|Company: Autodesk"
 90
        0
280
     0
281
     0
  0
CLASS
  1
ACMDATAENTRYPART
  2
AcmDataEntryPart
  3
"AcmSymBB|Product Description: AutoCAD Mechanical|Company: Autodesk"
 90
    32768
280
     0
281
     0
  0
CLASS
  1
ACMPARTREF
  2
AcmPartRef
  3
"AcmSymBB|Product Description: AutoCAD Mechanical|Company: Autodesk"
 90
    35839
280
     0
281
     1
  0
CLASS
  1
ACDBCIRCARCRES
  2
AcDbCircArcRes
  3
AcGrefServices
 90
    32768
280
     0
281
     0
  0
CLASS
  1
ACMBOMROW
  2
AcmBomRow
  3
"AcmSymBB|Product Description: AutoCAD Mechanical|Company: Autodesk"
 90
    32768
280
     0
281
     0
  0
CLASS
  1
ACMBALLOON
  2
AcmBalloon
  3
"AcmSymBB|Product Description: AutoCAD Mechanical|Company: Autodesk"
 90
    35839
280
     0
281
     1
  0
CLASS
  1
AMDTNOTE
  2
AmdtNote
  3
"AcmSymBB|Product Description: AutoCAD Mechanical|Company: Autodesk"
 90
    35839
280
     0
281
     1
  0
CLASS
  1
STDPART2D
  2
AmgStdPart
  3
"AmgStdPart|Product Description: AutoCAD Mechanical|Company: Autodesk"
 90
    35839
280
     0
281
     1
  0
CLASS
  1
ACDBSTDPARTRES_LINE
  2
AcDbStdPartRes_Line
  3
"AmgStdPart|Product Description: AutoCAD Mechanical|Company: Autodesk"
 90
    32768
280
     0
281
     0
  0
CLASS
  1
ACMDATAENTRY
  2
AcmDataEntry
  3
"AcmSymBB|Product Description: AutoCAD Mechanical|Company: Autodesk"
 90
        0
280
     0
281
     0
  0
CLASS
  1
ACDBOPPOLYLINERES
  2
AcDbOpPolylineRes
  3
AcGrefServices
 90
    32768
280
     0
281
     0
  0
CLASS
  1
ACMPARTLIST
  2
AcmPartList
  3
"AcmSymBB|Product Description: AutoCAD Mechanical|Company: Autodesk"
 90
    35839
280
     0
281
     1
  0
CLASS
  1
ACDBLINERES
  2
AcDbLineRes
  3
AcGrefServices
 90
        0
280
     0
281
     0
  0
CLASS
  1
ACRFINSADJ
  2
AcRfInsAdjuster
  3
AcMeServices
 90
    32768
280
     0
281
     0
  0
CLASS
  1
AM_DRAWING_MGR
  2
AcDmDwgMgr
  3
AcMechDwgViewMgmt
 90
        0
280
     0
281
     0
  0
CLASS
  1
AM_DWG_DOCUMENT
  2
AcDmDwgDocument
  3
AcMechDwgViewMgmt
 90
        0
280
     0
281
     0
  0
CLASS
  1
AM_DWG_SHEET
  2
AcDmSheet
  3
AcMechDwgViewMgmt
 90
        0
280
     0
281
     0
  0
CLASS
  1
AM_VIEWDIMPARMAP
  2
AcDmViewDimParMap
  3
AcMechDwgViewMgmt
 90
        0
280
     0
281
     0
  0
CLASS
  1
AM_DWGMGR_NAME
  2
AcDmDwgMgrName
  3
AcMechDwgViewMgmt
 90
        0
280
     0
281
     0
  0
CLASS
  1
AMDTMENUSTATEMGR
  2
AmdtMenuStateMgr
  3
McadcomServices
 90
        0
280
     0
281
     0
  0
CLASS
  1
AMDTMCOMMENUSTATE
  2
AmdtMcomMenuState
  3
McadcomServices
 90
        0
280
     0
281
     0
  0
CLASS
  1
ASAPP
  2
AcAsAppObject
  3
AutoSurfServices
 90
        0
280
     0
281
     0
  0
CLASS
  1
IM_STATIC_MAN
  2
AcImStaticVarManager
  3
AcMeServices
 90
        0
280
     0
281
     0
  0
CLASS
  1
ACIMDBLSTATICVAR
  2
AcImDblStaticVar
  3
AcMeServices
 90
        0
280
     0
281
     0
  0
CLASS
  1
ACIMSTRSTATICVAR
  2
AcImStrStaticVar
  3
AcMeServices
 90
        0
280
     0
281
     0
  0
CLASS
  1
ACIMINTSTATICVAR
  2
AcImIntStaticVar
  3
AcMeServices
 90
        0
280
     0
281
     0
  0
CLASS
  1
ACASGREFMASTER
  2
AcAsGrefMaster
  3
AutoSurfResolverServices
 90
        0
280
     0
281
     0
  0
CLASS
  1
ACADGREFMODULE
  2
AcAdGrefModule
  3
AdGrefServices
 90
        0
280
     0
281
     0
  0
CLASS
  1
AMDTMAPISURFMOUDULE
  2
AmdtMApiSurfModule
  3
MApiSurfServices
 90
        0
280
     0
281
     0
  0
CLASS
  1
MAPIAMMOUDLE
  2
MApiAmModule
  3
MApiAmServices
 90
        0
280
     0
281
     0
  0
CLASS
  1
AMDTADMENUSTATE
  2
AmdtAdMenuState
  3
DesignerServices
 90
        0
280
     0
281
     0
  0
CLASS
  1
ADAPPL
  2
AcAdAppl
  3
DesignerServices
 90
        0
280
     0
281
     0
  0
CLASS
  1
DEPMGR
  2
AcAdDepMgr
  3
DesignerServices
 90
        0
280
     0
281
     0
  0
CLASS
  1
PARAMMGR
  2
AcAdParamMgr
  3
DesignerServices
 90
        0
280
     0
281
     0
  0
CLASS
  1
PARAMSCOPE
  2
AcAdParamScope
  3
DesignerServices
 90
        0
280
     0
281
     0
  0
CLASS
  1
NAMEDAPPL
  2
AcAdNamedAppl
  3
DesignerServices
 90
        0
280
     0
281
     0
  0
CLASS
  1
ADHNTMPLT
  2
AdHoleNoteTemplateMgr
  3
DesignerServices
 90
    32768
280
     0
281
     0
  0
CLASS
  1
AM_HNTEMPLATE_MGR_NAME
  2
AdHoleNoteTemplateMgrName
  3
DesignerServices
 90
    32768
280
     0
281
     0
  0
CLASS
  1
AMDTDMMENUSTATE
  2
AmdtDmMenuState
  3
AcMechDwgViewMgmt
 90
        0
280
     0
281
     0
  0
CLASS
  1
MAPIADMODULE
  2
MApiAdModule
  3
MApiAdServices
 90
        0
280
     0
281
     0
  0
CLASS
  1
AMDTAMMENUSTATE
  2
AmdtAmMenuState
  3
DesignerAssemblies
 90
        0
280
     0
281
     0
  0
CLASS
  1
ACAMPROJECT
  2
AcAmProject
  3
DesignerAssemblies
 90
        0
280
     0
281
     0
  0
CLASS
  1
ACAMGRCOMPDEF
  2
AcAmGrCompDef
  3
DesignerAssemblies
 90
        0
280
     0
281
     0
  0
CLASS
  1
ACCMCONTEXT
  2
AcCmContext
  3
DesignerAssemblies
 90
        0
280
     0
281
     0
  0
CLASS
  1
ACAMCOMPDEF
  2
AcAmCompDef
  3
DesignerAssemblies
 90
        0
280
     0
281
     0
  0
CLASS
  1
ACAMCOMPDEFMGR
  2
AcAmCompDefMgr
  3
DesignerAssemblies
 90
        0
280
     0
281
     0
  0
CLASS
  1
AMCONTEXTMGR
  2
AcAmContextMgr
  3
DesignerAssemblies
 90
        0
280
     0
281
     0
  0
CLASS
  1
ACAMCONTEXTMODELER
  2
AcAmContextModeler
  3
DesignerAssemblies
 90
        0
280
     0
281
     0
  0
CLASS
  1
CATALOGSTATE
  2
AcAmCatalogState
  3
DesignerAssemblies
 90
        0
280
     0
281
     0
  0
CLASS
  1
ACAMGRCOMPDEFSET
  2
AcAmGrCompDefSet
  3
DesignerAssemblies
 90
        0
280
     0
281
     0
  0
CLASS
  1
AMDTBROWSERDBTAB
  2
AmdtBrowserDbTab
  3
McadcomServices
 90
        0
280
     0
281
     0
  0
CLASS
  1
CBROWSERAPPOBJECT
  2
CBrowserAppObject
  3
McadcomServices
 90
        0
280
     0
281
     0
  0
CLASS
  1
DM_PLACEHOLDER
  2
AcDmSelsetPlaceholder
  3
AcMechDwgViewMgmt
 90
        0
280
     0
281
     0
  0
CLASS
  1
ACMPICKOBJ
  2
AcmPickEnt
  3
"AcmSymBB|Product Description: AutoCAD Mechanical|Company: Autodesk"
 90
    32768
280
     0
281
     1
  0
CLASS
  1
ACMNOTESTANDARDISO
  2
AmdtNoteStdISO
  3
"Amdt_StdImp|Product Description: AutoCAD Mechanical|Company: Autodesk"
 90
        0
280
     0
281
     0
  0
CLASS
  1
ACMNOTESTANDARDANSI
  2
AmdtNoteStdANSI
  3
"Amdt_StdImp|Product Description: AutoCAD Mechanical|Company: Autodesk"
 90
        0
280
     0
281
     0
  0
CLASS
  1
ACMTHREADLINESTANDARDISO
  2
AmdtThreadLineStdISO
  3
"Amdt_StdImp|Product Description: AutoCAD Mechanical|Company: Autodesk"
 90
        0
280
     0
281
     0
  0
CLASS
  1
ACMTHREADLINESTANDARDANSI
  2
AmdtThreadLineStdANSI
  3
"Amdt_StdImp|Product Description: AutoCAD Mechanical|Company: Autodesk"
 90
        0
280
     0
281
     0
  0
CLASS
  1
TABLESTYLE
  2
AcDbTableStyle
  3
ObjectDBX Classes
 90
     4095
280
     0
281
     0
  0
CLASS
  1
SORTENTSTABLE
  2
AcDbSortentsTable
  3
ObjectDBX Classes
 90
        0
280
     0
281
     0
  0
CLASS
  1
MATERIAL
  2
AcDbMaterial
  3
ObjectDBX Classes
 90
     1153
280
     0
281
     0
  0
CLASS
  1
VISUALSTYLE
  2
AcDbVisualStyle
  3
ObjectDBX Classes
 90
     4095
280
     0
281
     0
  0
CLASS
  1
ACRFATTGENMGR
  2
AcRfAttGeneralMgr
  3
AcAttribServices
 90
        0
280
     0
281
     0
  0
CLASS
  1
ACRFOBJATTMGR
  2
AcRfObjAttGroupMgr
  3
AcAttribServices
 90
        0
280
     0
281
     0
  0
CLASS
  1
ACRFMCADAPIATTHOLDER
  2
AcRfMCADAPIAttHolder
  3
AcAttribServices
 90
        0
280
     0
281
     0
  0
CLASS
  1
AMDTSYSATTR
  2
AmdtSystemAttribute
  3
AcAttribServices
 90
        0
280
     0
281
     0
  0
CLASS
  1
ACMTAPERSTANDARDISO
  2
AcmTaperStdISO
  3
"Amdt_StdImp|Product Description: AutoCAD Mechanical|Company: Autodesk"
 90
        0
280
     0
281
     0
  0
CLASS
  1
CAMSSTRUCTBTNSTATE
  2
StructBtnState
  3
L"DesignerAssemblies"
 90
        0
280
     0
281
     0
  0
CLASS
  1
DIMASSOC
  2
AcDbDimAssoc
  3
"AcDbDimAssoc|Product Desc:     AcDim ARX App For Dimension|Company:          Autodesk, Inc.|WEB Address:      www.autodesk.com"
 90
    32768
280
     0
281
     0
  0
CLASS
  1
EXACXREFPANELOBJECT
  2
ExAcXREFPanelObject
  3
EXAC_ESW
 90
    33793
280
     0
281
     0
  0
CLASS
  1
NPOCOLLECTION
  2
AcDbImpNonPersistentObjectsCollection
  3
ObjectDBX Classes
 90
    33921
280
     0
281
     0
  0
CLASS
  1
AMDTEDGESTANDARDISO13715
  2
AmdtEdgeStdISO13715
  3
"Amdt_StdImp|Product Description: AutoCAD Mechanical|Company: Autodesk"
 90
        0
280
     0
281
     0
  0
CLASS
  1
AMDTNOTETEMPLATEDB
  2
AmdtNoteTemplateDB
  3
AMDT_STDIMP_MODULE_NAME
 90
        0
280
     0
281
     0
  0
CLASS
  1
ACAMGHOLECHARTSTDISO
  2
AcAmgHoleChartStdISO
  3
ACMSYMBB_MODULE_NAME
 90
        0
280
     0
281
     0
  0
CLASS
  1
ACMTAPERSTANDARDANSI
  2
AcmTaperStdANSI
  3
"Amdt_StdImp|Product Description: AutoCAD Mechanical|Company: Autodesk"
 90
        0
280
     0
281
     0
  0
CLASS
  1
ACAMGHOLECHARTSTDANSI
  2
AcAmgHoleChartStdANSI
  3
ACMSYMBB_MODULE_NAME
 90
        0
280
     0
281
     0
  0
CLASS
  1
ACAMSTDPCOMPDEF
  2
AcAmStdpCompDef
  3
DesignerAssemblies
 90
    32768
280
     0
281
     0
  0
CLASS
  1
ACAMCOMP
  2
AcAmComp
  3
DesignerAssemblies
 90
    32768
280
     0
281
     0
  0
CLASS
  1
AC_AM_STDP_VIEW_DEF
  2
AcAmStdpViewDef
  3
DesignerAssemblies
 90
    32768
280
     0
281
     0
  0
CLASS
  1
AC_AM_MVD_DEP_MGR
  2
AcAmMVDdepMgr
  3
DesignerAssemblies
 90
        0
280
     0
281
     0
  0
CLASS
  1
AC_AM_MASTER_VIEW_DEF
  2
AcAmMasterViewDef
  3
DesignerAssemblies
 90
        0
280
     0
281
     0
  0
CLASS
  1
AC_AM_DIRTY_NODES
  2
AcAmDirtyNodes
  3
DesignerAssemblies
 90
        0
280
     0
281
     0
  0
CLASS
  1
AC_AM_MAPPER_CACHE
  2
AcAmMapperCache
  3
DesignerAssemblies
 90
        0
280
     0
281
     0
  0
CLASS
  1
ACAMMVDBACKUPOBJECT
  2
AcAmMVDBackupObject
  3
DesignerAssemblies
 90
        0
280
     0
281
     0
  0
CLASS
  1
AC_AM_COMP_VIEW_INST
  2
AcAmCompView
  3
DesignerAssemblies
 90
    32768
280
     0
281
     0
  0
CLASS
  1
AC_AM_2D_XREF_MGR
  2
AcAmXrefMgr2d
  3
DesignerAssemblies
 90
        0
280
     0
281
     0
  0
CLASS
  1
AC_AM_HIDE_SITUATION
  2
AcAmHideSituation
  3
DesignerAssemblies
 90
    32768
280
     0
281
     0
  0
CLASS
  1
AC_AM_TRANSFORM_GHOST
  2
AcDbTransformGhost
  3
DesignerAssemblies
 90
    32768
280
     0
281
     1
  0
CLASS
  1
L"OBJCLONER"
  2
ObjCloner
  3
DesignerAssemblies
 90
    32768
280
     0
281
     1
  0
ENDSEC
  0
SECTION
  2
TABLES
  0
TABLE
  2
VPORT
  5
8
330
0
100
AcDbSymbolTable
 70
     1
  0
VPORT
  5
B0EC
330
8
100
AcDbSymbolTableRecord
100
AcDbViewportTableRecord
  2
*Active
 70
     0
 10
0.0
 20
0.0
 11
1.0
 21
1.0
 12
6244.420677552654
 22
-5465.378253798403
 13
0.0
 23
0.0
 14
2.5
 24
2.5
 15
10.0
 25
10.0
 16
0.0
 26
0.0
 36
1.0
 17
0.0
 27
0.0
 37
0.0
 40
361.4940355605027
 41
1.702970297029702
 42
50.0
 43
-1370.695619172058
 44
-1370.695619172058
 50
0.0
 51
0.0
 71
     0
 72
   100
 73
     1
 74
     3
 75
     0
 76
     0
 77
     0
 78
     0
281
     0
 65
     0
110
0.0
120
0.0
130
0.0
111
1.0
121
0.0
131
0.0
112
0.0
122
1.0
132
0.0
 79
     0
146
0.0
  0
ENDTAB
  0
TABLE
  2
LTYPE
  5
5
330
0
100
AcDbSymbolTable
 70
    23
  0
LTYPE
  5
14
330
5
100
AcDbSymbolTableRecord
100
AcDbLinetypeTableRecord
  2
ByBlock
 70
     0
  3

 72
    65
 73
     0
 40
0.0
  0
LTYPE
  5
15
330
5
100
AcDbSymbolTableRecord
100
AcDbLinetypeTableRecord
  2
ByLayer
 70
     0
  3

 72
    65
 73
     0
 40
0.0
  0
LTYPE
  5
16
330
5
100
AcDbSymbolTableRecord
100
AcDbLinetypeTableRecord
  2
Continuous
 70
     0
  3
Solid line
 72
    65
 73
     0
 40
0.0
  0
LTYPE
  5
4F
330
5
100
AcDbSymbolTableRecord
100
AcDbLinetypeTableRecord
  2
AM_ISO02W050
 70
     0
  3
__ __ __ __ __ __ __ __ __ __ __ __ __ __ __
 72
    65
 73
     2
 40
7.5
 49
6.0
 74
     0
 49
-1.5
 74
     0
  0
LTYPE
  5
52
330
5
100
AcDbSymbolTableRecord
100
AcDbLinetypeTableRecord
  2
Amconstr
 70
     0
  3
_______________________
 72
    65
 73
     2
 40
9999.0
 49
9999.0
 74
     0
 49
0.0
 74
     0
  0
LTYPE
  5
64
330
5
100
AcDbSymbolTableRecord
100
AcDbLinetypeTableRecord
  2
ACISOWELD
 70
     0
  3
_ _ _ _ _
 72
    65
 73
     2
 40
2.0
 49
2.0
 74
     0
 49
-1.0
 74
     0
  0
LTYPE
  5
65
330
5
100
AcDbSymbolTableRecord
100
AcDbLinetypeTableRecord
  2
ACISOTGB
 70
     0
  3
__ . . __ . .
 72
    65
 73
     6
 40
9.0
 49
4.0
 74
     0
 49
-1.0
 74
     0
 49
1.0
 74
     0
 49
-1.0
 74
     0
 49
1.0
 74
     0
 49
-1.0
 74
     0
  0
LTYPE
  5
66
330
5
100
AcDbSymbolTableRecord
100
AcDbLinetypeTableRecord
  2
ACISOTGL
 70
     0
  3
_ _ _ _ _
 72
    65
 73
     2
 40
3.0
 49
2.0
 74
     0
 49
-1.0
 74
     0
  0
LTYPE
  5
69
330
5
100
AcDbSymbolTableRecord
100
AcDbLinetypeTableRecord
  2
CENTER
 70
     0
  3
__ . __
 72
    65
 73
     4
 40
7.0
 49
4.0
 74
     0
 49
-1.0
 74
     0
 49
1.0
 74
     0
 49
-1.0
 74
     0
  0
LTYPE
  5
A6E
330
5
100
AcDbSymbolTableRecord
100
AcDbLinetypeTableRecord
  2
PHANTOM2
 70
     0
  3
Phantom (.5x) ___ _ _ ___ _ _ ___ _ _ ___ _ _
 72
    65
 73
     6
 40
31.75
 49
15.875
 74
     0
 49
-3.174999999999999
 74
     0
 49
3.174999999999999
 74
     0
 49
-3.174999999999999
 74
     0
 49
3.174999999999999
 74
     0
 49
-3.174999999999999
 74
     0
  0
LTYPE
  5
4DED
330
5
100
AcDbSymbolTableRecord
100
AcDbLinetypeTableRecord
  2
中線
 70
     0
  3
___________________
 72
    65
 73
     2
 40
2.0
 49
1.0
 74
     0
 49
1.0
 74
     0
  0
LTYPE
  5
4DF6
330
5
100
AcDbSymbolTableRecord
100
AcDbLinetypeTableRecord
  2
細線
 70
     0
  3
___________________
 72
    65
 73
     2
 40
2.0
 49
1.0
 74
     0
 49
1.0
 74
     0
  0
LTYPE
  5
4DF7
330
5
100
AcDbSymbolTableRecord
100
AcDbLinetypeTableRecord
  2
太線
 70
     0
  3
___________________
 72
    65
 73
     2
 40
2.0
 49
1.0
 74
     0
 49
1.0
 74
     0
  0
LTYPE
  5
4EA7
330
5
100
AcDbSymbolTableRecord
100
AcDbLinetypeTableRecord
  2
文字
 70
     0
  3
_________________
 72
    65
 73
     2
 40
2.0
 49
1.0
 74
     0
 49
1.0
 74
     0
  0
LTYPE
  5
4EA9
330
5
100
AcDbSymbolTableRecord
100
AcDbLinetypeTableRecord
  2
寸法線
 70
     0
  3
________________
 72
    65
 73
     2
 40
2.0
 49
1.0
 74
     0
 49
1.0
 74
     0
  0
LTYPE
  5
4F12
330
5
100
AcDbSymbolTableRecord
100
AcDbLinetypeTableRecord
  2
ハッチング
 70
     0
  3
_________________
 72
    65
 73
     2
 40
2.0
 49
1.0
 74
     0
 49
1.0
 74
     0
  0
LTYPE
  5
5180
330
5
100
AcDbSymbolTableRecord
100
AcDbLinetypeTableRecord
  2
陰線1
 70
     0
  3
__ __ __ __
 72
    65
 73
     2
 40
4.0
 49
2.2
 74
     0
 49
-1.8
 74
     0
  0
LTYPE
  5
5182
330
5
100
AcDbSymbolTableRecord
100
AcDbLinetypeTableRecord
  2
切断線
 70
     0
  3
/\/-/\/-/\/-/\/-/\/-/\/
 72
    65
 73
     2
 40
11.0001
 49
0.0001
 74
     4
 75
   135
340
56
 46
0.04
 50
0.0
 44
0.0
 45
0.0
 49
-11.0
 74
     0
  0
LTYPE
  5
5183
330
5
100
AcDbSymbolTableRecord
100
AcDbLinetypeTableRecord
  2
想像線1
 70
     0
  3
__ __ __ _____ __ __ ____
 72
    65
 73
     6
 40
14.5
 49
6.0
 74
     0
 49
-1.5
 74
     0
 49
2.0
 74
     0
 49
-1.5
 74
     0
 49
2.0
 74
     0
 49
-1.5
 74
     0
  0
LTYPE
  5
5185
330
5
100
AcDbSymbolTableRecord
100
AcDbLinetypeTableRecord
  2
中心線1
 70
     0
  3
___ _ ___ _ ___
 72
    65
 73
     4
 40
18.0
 49
12.0
 74
     0
 49
-2.0
 74
     0
 49
2.0
 74
     0
 49
-2.0
 74
     0
  0
LTYPE
  5
5188
330
5
100
AcDbSymbolTableRecord
100
AcDbLinetypeTableRecord
  2
補助線
 70
     0
  3
______________
 72
    65
 73
     2
 40
2.0
 49
1.0
 74
     0
 49
1.0
 74
     0
  0
LTYPE
  5
6427
330
5
100
AcDbSymbolTableRecord
100
AcDbLinetypeTableRecord
  2
HIDDEN
 70
     0
  3
Hidden __ __ __ __ __ __ __ __ __ __ __ __ __ _
 72
    65
 73
     2
 40
0.375
 49
0.25
 74
     0
 49
-0.125
 74
     0
  0
LTYPE
  5
AF95
330
5
100
AcDbSymbolTableRecord
100
AcDbLinetypeTableRecord
  2
AM_ISO08W050
 70
     0
  3
____ . ____ . ____ . ____ . ____ . ____ . ____
 72
    65
 73
     4
 40
18.0
 49
12.0
 74
     0
 49
-1.5
 74
     0
 49
3.0
 74
     0
 49
-1.5
 74
     0
  0
LTYPE
  5
FD15
330
5
100
AcDbSymbolTableRecord
100
AcDbLinetypeTableRecord
  2
ACANSTGB
 70
     0
  3
__ . . __ . .
 72
    65
 73
     6
 40
0.35433070866
 49
0.15748031496
 74
     0
 49
-0.03937007874
 74
     0
 49
0.03937007874
 74
     0
 49
-0.03937007874
 74
     0
 49
0.03937007874
 74
     0
 49
-0.03937007874
 74
     0
  0
LTYPE
  5
FD16
330
5
100
AcDbSymbolTableRecord
100
AcDbLinetypeTableRecord
  2
ACANSTGL
 70
     0
  3
_ _ _ _ _
 72
    65
 73
     2
 40
0.11811023622
 49
0.07874015748
 74
     0
 49
-0.03937007874
 74
     0
  0
ENDTAB
  0
TABLE
  2
LAYER
  5
2
102
{ACAD_XDICTIONARY
360
3F95
102
}
330
0
100
AcDbSymbolTable
 70
    11
  0
LAYER
  5
10
330
2
100
AcDbSymbolTableRecord
100
AcDbLayerTableRecord
  2
0
 70
     0
 62
     7
  6
Continuous
370
    -3
390
F
  0
LAYER
  5
6D1
330
2
100
AcDbSymbolTableRecord
100
AcDbLayerTableRecord
  2
Defpoints
 70
     0
 62
     7
  6
Continuous
290
     0
370
    -3
390
F
  0
LAYER
  5
5F85
330
2
100
AcDbSymbolTableRecord
100
AcDbLayerTableRecord
  2
AM_0
 70
     0
 62
     7
  6
中線
370
    25
390
F
1001
AcAecLayerStandard
1000

1000

  0
LAYER
  5
AC9F
330
2
100
AcDbSymbolTableRecord
100
AcDbLayerTableRecord
  2
size
 70
     0
 62
     5
  6
Continuous
290
     0
370
    25
390
F
  0
LAYER
  5
ACA0
330
2
100
AcDbSymbolTableRecord
100
AcDbLayerTableRecord
  2
waku
 70
     0
 62
     7
  6
Continuous
370
    35
390
F
  0
LAYER
  5
ACA1
330
2
100
AcDbSymbolTableRecord
100
AcDbLayerTableRecord
  2
AM_6
 70
     0
 62
     2
  6
文字
370
    15
390
F
1001
AcAecLayerStandard
1000

1000

  0
LAYER
  5
AD64
330
2
100
AcDbSymbolTableRecord
100
AcDbLayerTableRecord
  2
AM_2
 70
     0
 62
     1
  6
細線
370
    15
390
F
1001
AcAecLayerStandard
1000

1000

  0
LAYER
  5
AD68
330
2
100
AcDbSymbolTableRecord
100
AcDbLayerTableRecord
  2
AM_5
 70
     0
 62
     3
  6
寸法線
370
    15
390
F
1001
AcAecLayerStandard
1000

1000

  0
LAYER
  5
B5FB
330
2
100
AcDbSymbolTableRecord
100
AcDbLayerTableRecord
  2
0部品18
 70
     0
 62
   254
  6
細線
370
    30
390
F
1001
AcAecLayerStandard
1000

1000

  0
LAYER
  5
5B475
102
{ACAD_XDICTIONARY
360
5B476
102
}
330
2
100
AcDbSymbolTableRecord
100
AcDbLayerTableRecord
  2
AM_3
 70
     0
 62
     6
  6
陰線1
370
    15
390
F
1001
AcAecLayerStandard
1000

1000

  0
LAYER
  5
5B52A
330
2
100
AcDbSymbolTableRecord
100
AcDbLayerTableRecord
  2
AM_7
 70
     0
 62
     4
  6
中心線1
370
    15
390
F
1001
AcAecLayerStandard
1000

1000

  0
ENDTAB
  0
TABLE
  2
STYLE
  5
3
330
0
100
AcDbSymbolTable
 70
     7
  0
STYLE
  5
11
330
3
100
AcDbSymbolTableRecord
100
AcDbTextStyleTableRecord
  2
STANDARD
 70
     0
 40
0.0
 41
0.7
 50
0.0
 71
     0
 42
3.2
  3
romans.shx
  4
extfont.shx
  0
STYLE
  5
56
330
3
100
AcDbSymbolTableRecord
100
AcDbTextStyleTableRecord
  2

 70
     1
 40
0.0
 41
1.0
 50
0.0
 71
     0
 42
2.5
  3
ltypeshp.shx
  4

  0
STYLE
  5
58
330
3
100
AcDbSymbolTableRecord
100
AcDbTextStyleTableRecord
  2
ACISOTS
 70
     0
 40
1.0
 41
1.0
 50
0.0
 71
     0
 42
2.5
  3
isocp.shx
  4
extfont.shx
  0
STYLE
  5
63
330
3
100
AcDbSymbolTableRecord
100
AcDbTextStyleTableRecord
  2
ACISOGDT
 70
     0
 40
0.0
 41
1.0
 50
0.0
 71
     0
 42
2.5
  3
amgdt.shx
  4

  0
STYLE
  5
A74
330
3
100
AcDbSymbolTableRecord
100
AcDbTextStyleTableRecord
  2
DIM
 70
     0
 40
0.0
 41
1.0
 50
0.0
 71
     0
 42
2.5
  3
monotxt.shx
  4
extfont.shx
  0
STYLE
  5
FD18
330
3
100
AcDbSymbolTableRecord
100
AcDbTextStyleTableRecord
  2
ACANSTS
 70
     0
 40
1.0
 41
1.0
 50
0.0
 71
     0
 42
0.2
  3
romans.shx
  4
extfont.shx
  0
STYLE
  5
FD19
330
3
100
AcDbSymbolTableRecord
100
AcDbTextStyleTableRecord
  2
ACANSGDT
 70
     0
 40
0.0
 41
1.0
 50
0.0
 71
     0
 42
0.2
  3
amgdt.shx
  4

  0
ENDTAB
  0
TABLE
  2
VIEW
  5
6
330
0
100
AcDbSymbolTable
 70
     6
  0
VIEW
  5
AE1
330
6
100
AcDbSymbolTableRecord
100
AcDbViewTableRecord
  2
AM_VIEW1
 70
     0
 40
2203.896457765668
 10
5264.599158088851
 20
3198.765197920841
 41
2970.0
 11
0.0
 21
0.0
 31
1.0
 12
0.0
 22
0.0
 32
0.0
 42
50.0
 43
-1370.695619172058
 44
-1370.695619172058
 50
0.0
 71
     0
281
     0
 72
     0
  0
VIEW
  5
AE2
330
6
100
AcDbSymbolTableRecord
100
AcDbViewTableRecord
  2
AM_VIEW2
 70
     0
 40
2203.896457765668
 10
8234.599158088851
 20
3198.765197920841
 41
2970.0
 11
0.0
 21
0.0
 31
1.0
 12
0.0
 22
0.0
 32
0.0
 42
50.0
 43
-1370.695619172058
 44
-1370.695619172058
 50
0.0
 71
     0
281
     0
 72
     0
  0
VIEW
  5
AE3
330
6
100
AcDbSymbolTableRecord
100
AcDbViewTableRecord
  2
AM_VIEW3
 70
     0
 40
2203.896457765668
 10
5264.599158088851
 20
1202.661655686509
 41
2970.0
 11
0.0
 21
0.0
 31
1.0
 12
0.0
 22
0.0
 32
0.0
 42
50.0
 43
-1370.695619172058
 44
-1370.695619172058
 50
0.0
 71
     0
281
     0
 72
     0
  0
VIEW
  5
AE4
330
6
100
AcDbSymbolTableRecord
100
AcDbViewTableRecord
  2
AM_VIEW4
 70
     0
 40
2203.896457765668
 10
8234.599158088851
 20
1202.661655686509
 41
2970.0
 11
0.0
 21
0.0
 31
1.0
 12
0.0
 22
0.0
 32
0.0
 42
50.0
 43
-1370.695619172058
 44
-1370.695619172058
 50
0.0
 71
     0
281
     0
 72
     0
  0
VIEW
  5
AE5
330
6
100
AcDbSymbolTableRecord
100
AcDbViewTableRecord
  2
AM_VIEW5
 70
     0
 40
2203.896457765668
 10
6749.599158088852
 20
2200.713426803675
 41
2970.0
 11
0.0
 21
0.0
 31
1.0
 12
0.0
 22
0.0
 32
0.0
 42
50.0
 43
-1370.695619172058
 44
-1370.695619172058
 50
0.0
 71
     0
281
     0
 72
     0
  0
VIEW
  5
AE6
330
6
100
AcDbSymbolTableRecord
100
AcDbViewTableRecord
  2
AM_VIEW6
 70
     0
 40
4407.748837602181
 10
6749.599158088852
 20
2200.713426803675
 41
5939.9406
 11
0.0
 21
0.0
 31
1.0
 12
0.0
 22
0.0
 32
0.0
 42
50.0
 43
-1370.695619172058
 44
-1370.695619172058
 50
0.0
 71
     0
281
     0
 72
     0
  0
ENDTAB
  0
TABLE
  2
UCS
  5
7
330
0
100
AcDbSymbolTable
 70
     0
  0
ENDTAB
  0
TABLE
  2
APPID
  5
9
330
0
100
AcDbSymbolTable
 70
    67
  0
APPID
  5
12
330
9
100
AcDbSymbolTableRecord
100
AcDbRegAppTableRecord
  2
ACAD
 70
     0
  0
APPID
  5
30
330
9
100
AcDbSymbolTableRecord
100
AcDbRegAppTableRecord
  2
MCAD_NO_VIS
 70
     0
  0
APPID
  5
31
330
9
100
AcDbSymbolTableRecord
100
AcDbRegAppTableRecord
  2
ACAD_TEMP_GRAPHIC
 70
     0
  0
APPID
  5
44
330
9
100
AcDbSymbolTableRecord
100
AcDbRegAppTableRecord
  2
ACATTRIBSERVICES
 70
     0
  0
APPID
  5
7A1
330
9
100
AcDbSymbolTableRecord
100
AcDbRegAppTableRecord
  2
GENIUS_GENDIMSH_14
 70
     0
  0
APPID
  5
A49
330
9
100
AcDbSymbolTableRecord
100
AcDbRegAppTableRecord
  2
GENIUS_GENREC_14
 70
     0
  0
APPID
  5
A4A
330
9
100
AcDbSymbolTableRecord
100
AcDbRegAppTableRecord
  2
GENIUS_GENOBJ-N-REC_13
 70
     0
  0
APPID
  5
A4B
330
9
100
AcDbSymbolTableRecord
100
AcDbRegAppTableRecord
  2
GENIUS_GENODEF_13
 70
     0
  0
APPID
  5
A4C
330
9
100
AcDbSymbolTableRecord
100
AcDbRegAppTableRecord
  2
DCO15
 70
     0
  0
APPID
  5
ADC
330
9
100
AcDbSymbolTableRecord
100
AcDbRegAppTableRecord
  2
GENIUS_GENOLIS_13
 70
     0
  0
APPID
  5
ADD
330
9
100
AcDbSymbolTableRecord
100
AcDbRegAppTableRecord
  2
GENIUS_GENOENT_13
 70
     0
  0
APPID
  5
ADE
330
9
100
AcDbSymbolTableRecord
100
AcDbRegAppTableRecord
  2
GENIUS_GENOBJ-N-TIT_13
 70
     0
  0
APPID
  5
ADF
330
9
100
AcDbSymbolTableRecord
100
AcDbRegAppTableRecord
  2
GENIUS_GENTITLE_13
 70
     0
  0
APPID
  5
AE0
330
9
100
AcDbSymbolTableRecord
100
AcDbRegAppTableRecord
  2
GENIUS_GENOREF_13
 70
     0
  0
APPID
  5
AE7
330
9
100
AcDbSymbolTableRecord
100
AcDbRegAppTableRecord
  2
GENIUS_GENSCREG_15
 70
     0
  0
APPID
  5
AE8
330
9
100
AcDbSymbolTableRecord
100
AcDbRegAppTableRecord
  2
GENIUS_GENOBJ-N-SDF_13
 70
     0
  0
APPID
  5
FAF
330
9
100
AcDbSymbolTableRecord
100
AcDbRegAppTableRecord
  2
GENIUS_GENBLLY_14
 70
     0
  0
APPID
  5
FB0
330
9
100
AcDbSymbolTableRecord
100
AcDbRegAppTableRecord
  2
GENIUS_GENTRA_14
 70
     0
  0
APPID
  5
1285
330
9
100
AcDbSymbolTableRecord
100
AcDbRegAppTableRecord
  2
GENIUS_GENDTOL_13
 70
     0
  0
APPID
  5
142D
330
9
100
AcDbSymbolTableRecord
100
AcDbRegAppTableRecord
  2
GENIUS_GENOBJ-N-CEN_13
 70
     0
  0
APPID
  5
1AB5
330
9
100
AcDbSymbolTableRecord
100
AcDbRegAppTableRecord
  2
GENIUS_GENOBJ-N-CRS_13
 70
     0
  0
APPID
  5
1B36
330
9
100
AcDbSymbolTableRecord
100
AcDbRegAppTableRecord
  2
GENIUS_GENOBJ-N-HTC_13
 70
     0
  0
APPID
  5
1B37
330
9
100
AcDbSymbolTableRecord
100
AcDbRegAppTableRecord
  2
GENIUS_GENHATCH_13
 70
     0
  0
APPID
  5
216D
330
9
100
AcDbSymbolTableRecord
100
AcDbRegAppTableRecord
  2
GENIUS_GENOBJ-N-FIL_13
 70
     0
  0
APPID
  5
2356
330
9
100
AcDbSymbolTableRecord
100
AcDbRegAppTableRecord
  2
GEVID990412420
 70
     0
  0
APPID
  5
2357
330
9
100
AcDbSymbolTableRecord
100
AcDbRegAppTableRecord
  2
GEVDC
 70
     0
  0
APPID
  5
2358
330
9
100
AcDbSymbolTableRecord
100
AcDbRegAppTableRecord
  2
GEVCON
 70
     0
  0
APPID
  5
235B
330
9
100
AcDbSymbolTableRecord
100
AcDbRegAppTableRecord
  2
GEVRADREF
 70
     0
  0
APPID
  5
2360
330
9
100
AcDbSymbolTableRecord
100
AcDbRegAppTableRecord
  2
GENIUS_GENBH_13
 70
     0
  0
APPID
  5
2362
330
9
100
AcDbSymbolTableRecord
100
AcDbRegAppTableRecord
  2
GENIUS_GENOBJ-NBEHI-BHF_13
 70
     0
  0
APPID
  5
2364
330
9
100
AcDbSymbolTableRecord
100
AcDbRegAppTableRecord
  2
GENIUS_GENOBJ-NBEHI-BHB_13
 70
     0
  0
APPID
  5
2379
330
9
100
AcDbSymbolTableRecord
100
AcDbRegAppTableRecord
  2
GENIUS_GENOBJ-F-SCPASSM_13
 70
     0
  0
APPID
  5
3D74
330
9
100
AcDbSymbolTableRecord
100
AcDbRegAppTableRecord
  2
GENIUS_GENDIM_13
 70
     0
  0
APPID
  5
3D76
330
9
100
AcDbSymbolTableRecord
100
AcDbRegAppTableRecord
  2
GENIUS_GE3DTOL_13
 70
     0
  0
APPID
  5
3D9C
330
9
100
AcDbSymbolTableRecord
100
AcDbRegAppTableRecord
  2
AD_DRAW
 70
     0
  0
APPID
  5
3DE8
330
9
100
AcDbSymbolTableRecord
100
AcDbRegAppTableRecord
  2
ASURF_PCURVE_APPNAME
 70
     0
  0
APPID
  5
3DED
330
9
100
AcDbSymbolTableRecord
100
AcDbRegAppTableRecord
  2
AMG_3D2D_5.0
 70
     0
  0
APPID
  5
3E1B
330
9
100
AcDbSymbolTableRecord
100
AcDbRegAppTableRecord
  2
DESIGNERASSEMBLIES
 70
     0
  0
APPID
  5
3E20
330
9
100
AcDbSymbolTableRecord
100
AcDbRegAppTableRecord
  2
ACADM_DIM_EDIT
 70
     0
  0
APPID
  5
3E21
330
9
100
AcDbSymbolTableRecord
100
AcDbRegAppTableRecord
  2
AMDT_DM_ADJ
 70
     0
  0
APPID
  5
4143
330
9
100
AcDbSymbolTableRecord
100
AcDbRegAppTableRecord
  2
GENIUS_GENFIL_13
 70
     0
  0
APPID
  5
4144
330
9
100
AcDbSymbolTableRecord
100
AcDbRegAppTableRecord
  2
GENIUS_GENOBJ-N-CHA_13
 70
     0
  0
APPID
  5
4E17
330
9
100
AcDbSymbolTableRecord
100
AcDbRegAppTableRecord
  2
GEVID1008153417
 70
     0
  0
APPID
  5
4E58
330
9
100
AcDbSymbolTableRecord
100
AcDbRegAppTableRecord
  2
GEVID1008153418
 70
     0
  0
APPID
  5
4E5E
330
9
100
AcDbSymbolTableRecord
100
AcDbRegAppTableRecord
  2
GEVID1008153419
 70
     0
  0
APPID
  5
4E64
330
9
100
AcDbSymbolTableRecord
100
AcDbRegAppTableRecord
  2
GEVID1008153420
 70
     0
  0
APPID
  5
4E75
330
9
100
AcDbSymbolTableRecord
100
AcDbRegAppTableRecord
  2
GEVID1008153421
 70
     0
  0
APPID
  5
4EB7
330
9
100
AcDbSymbolTableRecord
100
AcDbRegAppTableRecord
  2
GENIUS_AMGTXT_16
 70
     0
  0
APPID
  5
7645
330
9
100
AcDbSymbolTableRecord
100
AcDbRegAppTableRecord
  2
GENIUS_GENOBJ-N-DIM_13
 70
     0
  0
APPID
  5
AAD0
330
9
100
AcDbSymbolTableRecord
100
AcDbRegAppTableRecord
  2
ACAD_DSTYLE_DIMARC_LENGTH_SYMBOL
 70
     0
  0
APPID
  5
AAD1
330
9
100
AcDbSymbolTableRecord
100
AcDbRegAppTableRecord
  2
ACAD_DSTYLE_DIMJOGGED_JOGANGLE_SYMBOL
 70
     0
  0
APPID
  5
AAFD
330
9
100
AcDbSymbolTableRecord
100
AcDbRegAppTableRecord
  2
ACAD_PSEXT
 70
     0
  0
APPID
  5
AD61
330
9
100
AcDbSymbolTableRecord
100
AcDbRegAppTableRecord
  2
AcAecLayerStandard
 70
     0
  0
APPID
  5
AEE3
330
9
100
AcDbSymbolTableRecord
100
AcDbRegAppTableRecord
  2
ACAD_EXEMPT_FROM_CAD_STANDARDS
 70
     0
  0
APPID
  5
B1BE
330
9
100
AcDbSymbolTableRecord
100
AcDbRegAppTableRecord
  2
GENIUS_GENCEN_19
 70
     0
  0
APPID
  5
B4E1
330
9
100
AcDbSymbolTableRecord
100
AcDbRegAppTableRecord
  2
ACAD_MLEADERVER
 70
     0
  0
APPID
  5
C488
330
9
100
AcDbSymbolTableRecord
100
AcDbRegAppTableRecord
  2
ACAD_DSTYLE_DIMINSPECT
 70
     0
  0
APPID
  5
C489
330
9
100
AcDbSymbolTableRecord
100
AcDbRegAppTableRecord
  2
ACAD_DSTYLE_DIMRADIAL_EXTENSION
 70
     0
  0
APPID
  5
1980E
330
9
100
AcDbSymbolTableRecord
100
AcDbRegAppTableRecord
  2
GEVID1311583542
 70
     0
  0
APPID
  5
19825
330
9
100
AcDbSymbolTableRecord
100
AcDbRegAppTableRecord
  2
AMG_2DHIDE
 70
     0
  0
APPID
  5
19826
330
9
100
AcDbSymbolTableRecord
100
AcDbRegAppTableRecord
  2
AMG_2DSTRUCT_BTR
 70
     0
  0
APPID
  5
19837
330
9
100
AcDbSymbolTableRecord
100
AcDbRegAppTableRecord
  2
ACADM_2DVIEW_IGN_NOTIFY
 70
     0
  0
APPID
  5
1B56B
330
9
100
AcDbSymbolTableRecord
100
AcDbRegAppTableRecord
  2
GEVID1311583543
 70
     0
  0
APPID
  5
1B5F6
330
9
100
AcDbSymbolTableRecord
100
AcDbRegAppTableRecord
  2
GEVID1311583544
 70
     0
  0
APPID
  5
1B61B
330
9
100
AcDbSymbolTableRecord
100
AcDbRegAppTableRecord
  2
GEVID1311583545
 70
     0
  0
APPID
  5
1B63D
330
9
100
AcDbSymbolTableRecord
100
AcDbRegAppTableRecord
  2
GEVID1311583546
 70
     0
  0
APPID
  5
1B675
330
9
100
AcDbSymbolTableRecord
100
AcDbRegAppTableRecord
  2
GEVID1311583547
 70
     0
  0
ENDTAB
  0
TABLE
  2
DIMSTYLE
  5
A
330
0
100
AcDbSymbolTable
 70
    25
100
AcDbDimStyleTable
 71
     3
340
2515
340
251A
340
251B
  0
DIMSTYLE
105
A76
330
A
100
AcDbSymbolTableRecord
100
AcDbDimStyleTableRecord
  2
STANDARD
 70
     0
 41
3.0
 42
1.0
 43
7.0
 44
2.0
 73
     0
 74
     0
 77
     1
140
2.799999999999999
141
0.0
143
0.0394
147
0.7
171
     4
172
     1
173
     1
176
     3
177
     3
178
     2
271
     3
272
     3
273
     8
274
     4
289
     0
340
A74
341
A66
343
A66
344
A66
  0
DIMSTYLE
105
2515
330
A
100
AcDbSymbolTableRecord
100
AcDbDimStyleTableRecord
  2
SYS
 70
     0
  4
"
 41
1.0
 42
1.0
 43
10.0
 44
1.0
 47
0.1
 48
0.1
 73
     0
 74
     0
 77
     1
 78
     8
 79
     2
140
3.5
141
0.0
143
0.0393701
146
0.71
147
1.5
172
     1
176
   256
177
   256
178
     7
271
     2
272
     2
283
     0
284
     8
340
11
371
    -1
372
    -1
1001
ACAD_DSTYLE_DIMJOGGED_JOGANGLE_SYMBOL
1070
   384
1040
0.7853981633974483
1001
ACAD_DSTYLE_DIMARC_LENGTH_SYMBOL
1070
   379
1070
     1
  0
DIMSTYLE
105
2516
102
{ACAD_REACTORS
330
5B408
330
5B448
102
}
330
A
100
AcDbSymbolTableRecord
100
AcDbDimStyleTableRecord
  2
SYS$3
 70
     0
  4
"
 41
2.0
 42
1.0
 43
10.0
 44
1.0
 47
0.1
 48
0.1
 73
     0
 77
     1
 78
     8
 79
     2
140
3.2
141
0.0
143
0.0393701
146
0.71
147
1.0
176
   256
177
   256
178
     2
271
     2
272
     2
283
     0
284
     8
288
     1
340
11
342
A66
371
    -1
372
    -1
1001
ACAD_DSTYLE_DIMJOGGED_JOGANGLE_SYMBOL
1070
   384
1040
0.7853981633974483
1001
ACAD_DSTYLE_DIMARC_LENGTH_SYMBOL
1070
   379
1070
     1
  0
DIMSTYLE
105
2517
330
A
100
AcDbSymbolTableRecord
100
AcDbDimStyleTableRecord
  2
SYS$4
 70
     0
  4
"
 41
2.0
 42
1.0
 43
10.0
 44
1.0
 47
0.1
 48
0.1
 73
     0
 77
     1
 78
     8
 79
     2
140
3.2
141
0.0
143
0.0393701
146
0.71
147
1.0
173
     1
176
   256
177
   256
178
     2
271
     2
272
     2
283
     0
284
     8
288
     1
340
11
344
A66
371
    -1
372
    -1
1001
ACAD_DSTYLE_DIMJOGGED_JOGANGLE_SYMBOL
1070
   384
1040
0.7853981633974483
1001
ACAD_DSTYLE_DIMARC_LENGTH_SYMBOL
1070
   379
1070
     1
  0
DIMSTYLE
105
2518
330
A
100
AcDbSymbolTableRecord
100
AcDbDimStyleTableRecord
  2
SYS$6
 70
     0
  4
"
 41
2.0
 42
1.0
 43
10.0
 44
1.0
 47
0.1
 48
0.1
 73
     0
 74
     0
 78
     8
 79
     2
140
3.2
141
0.0
143
0.0393701
146
0.71
147
1.0
172
     1
176
   256
177
   256
178
     2
271
     2
272
     2
283
     0
284
     8
340
11
341
A66
371
    -1
372
    -1
1001
ACAD_DSTYLE_DIMJOGGED_JOGANGLE_SYMBOL
1070
   384
1040
0.7853981633974483
1001
ACAD_DSTYLE_DIMARC_LENGTH_SYMBOL
1070
   379
1070
     1
  0
DIMSTYLE
105
2519
330
A
100
AcDbSymbolTableRecord
100
AcDbDimStyleTableRecord
  2
SYS$7
 70
     0
  4
"
 41
2.0
 42
1.0
 43
10.0
 44
1.0
 47
0.1
 48
0.1
 73
     0
 74
     0
 77
     1
 78
     8
 79
     2
140
3.2
141
0.0
143
0.0393701
146
0.71
147
1.0
172
     1
176
   256
177
   256
178
     2
271
     2
272
     2
283
     0
284
     8
340
11
341
A66
342
A66
371
    -1
372
    -1
1001
ACAD_DSTYLE_DIMJOGGED_JOGANGLE_SYMBOL
1070
   384
1040
0.7853981633974483
1001
ACAD_DSTYLE_DIMARC_LENGTH_SYMBOL
1070
   379
1070
     1
  0
DIMSTYLE
105
251A
330
A
100
AcDbSymbolTableRecord
100
AcDbDimStyleTableRecord
  2
SYS$SF
 70
     0
  4
"
 41
2.5
 42
1.0
 43
10.0
 44
1.0
 47
0.1
 48
0.1
 73
     0
 74
     0
 75
     1
 76
     1
 77
     1
 78
     8
 79
     2
140
3.2
141
0.0
143
0.0393701
146
0.71
147
1.0
172
     1
176
   256
177
   256
178
     2
271
     2
272
     2
283
     0
284
     8
340
11
341
6C4
342
6C4
371
    -1
372
    -1
1001
ACAD_DSTYLE_DIMJOGGED_JOGANGLE_SYMBOL
1070
   384
1040
0.7853981633974483
1001
ACAD_DSTYLE_DIMARC_LENGTH_SYMBOL
1070
   379
1070
     1
  0
DIMSTYLE
105
251B
330
A
100
AcDbSymbolTableRecord
100
AcDbDimStyleTableRecord
  2
SYS$SH
 70
     0
  4
"
 41
2.5
 42
1.0
 43
10.0
 44
1.0
 47
0.1
 48
0.1
 73
     0
 74
     0
 75
     1
 76
     1
 77
     1
 78
     8
 79
     2
140
3.2
141
0.0
143
0.0393701
144
2.0
146
0.71
147
1.0
172
     1
173
     1
176
   256
177
   256
178
     2
271
     2
272
     2
283
     0
284
     8
340
11
341
6C4
343
72
344
6C4
371
    -1
372
    -1
1001
ACAD_DSTYLE_DIMJOGGED_JOGANGLE_SYMBOL
1070
   384
1040
0.7853981633974483
1001
ACAD_DSTYLE_DIMARC_LENGTH_SYMBOL
1070
   379
1070
     1
  0
DIMSTYLE
105
2A59
330
A
100
AcDbSymbolTableRecord
100
AcDbDimStyleTableRecord
  2
SYS$2
 70
     0
  4
"
 41
1.0
 42
1.0
 43
10.0
 44
1.0
 47
0.1
 48
0.1
 73
     0
 74
     0
 77
     1
 78
     8
 79
     2
140
3.2
141
0.0
143
0.0393701
146
0.71
147
1.0
172
     1
176
   256
177
   256
178
     2
271
     2
272
     2
283
     0
284
     8
340
11
342
6C4
371
    -1
372
    -1
1001
ACAD_DSTYLE_DIMJOGGED_JOGANGLE_SYMBOL
1070
   384
1040
0.7853981633974483
1001
ACAD_DSTYLE_DIMARC_LENGTH_SYMBOL
1070
   379
1070
     1
  0
DIMSTYLE
105
2AAB
102
{ACAD_REACTORS
330
5B05E
330
5B05F
330
5B060
330
5B061
330
5B062
330
5B063
330
5B064
330
5B065
330
5B066
330
5B068
330
5B069
330
5B06A
330
5B05B
330
5B05C
330
5B05D
102
}
330
A
100
AcDbSymbolTableRecord
100
AcDbDimStyleTableRecord
  2
SYS$0
 70
     0
  4
"
 41
1.0
 42
1.0
 43
10.0
 44
1.0
 47
0.1
 48
0.1
 73
     0
 74
     0
 77
     1
 78
     8
 79
     2
140
3.200000000000001
141
0.0
143
0.0393701
146
0.71
147
1.0
172
     1
176
   256
177
   256
178
     2
271
     2
272
     2
283
     0
284
     8
340
11
341
A66
342
6C4
371
    -1
372
    -1
1001
ACAD_DSTYLE_DIMJOGGED_JOGANGLE_SYMBOL
1070
   384
1040
0.7853981633974483
1001
ACAD_DSTYLE_DIMARC_LENGTH_SYMBOL
1070
   379
1070
     1
  0
DIMSTYLE
105
AF99
330
A
100
AcDbSymbolTableRecord
100
AcDbDimStyleTableRecord
  2
AM_ISO
 70
     0
  4
"
 41
2.5
 42
1.0
 43
10.0
 44
1.0
 47
0.1
 48
0.1
 73
     0
 74
     0
 77
     1
 78
     8
 79
     2
140
3.5
141
0.0
143
0.0393701
146
0.71
147
1.5
172
     1
176
   256
177
   256
178
     2
271
     2
272
     3
274
     4
283
     0
284
     8
340
11
371
    -1
372
    -1
  0
DIMSTYLE
105
AF9A
330
A
100
AcDbSymbolTableRecord
100
AcDbDimStyleTableRecord
  2
AM_ISO$3
 70
     0
  4
"
 41
2.5
 42
1.0
 43
10.0
 44
1.0
 47
0.1
 48
0.1
 73
     0
 77
     1
 78
     8
 79
     2
140
3.5
141
0.0
143
0.0393701
146
0.71
147
1.5
176
   256
177
   256
178
     2
271
     2
272
     3
274
     4
283
     0
284
     8
288
     1
289
     0
340
11
371
    -1
372
    -1
  0
DIMSTYLE
105
AF9B
330
A
100
AcDbSymbolTableRecord
100
AcDbDimStyleTableRecord
  2
AM_ISO$4
 70
     0
  4
"
 41
2.5
 42
1.0
 43
10.0
 44
1.0
 47
0.1
 48
0.1
 73
     0
 77
     1
 78
     8
 79
     2
140
3.5
141
0.0
143
0.0393701
146
0.71
147
1.5
176
   256
177
   256
178
     2
271
     2
272
     3
274
     4
283
     0
284
     8
288
     1
289
     0
340
11
371
    -1
372
    -1
  0
DIMSTYLE
105
AF9C
330
A
100
AcDbSymbolTableRecord
100
AcDbDimStyleTableRecord
  2
AM_ISO$6
 70
     0
  4
"
 41
2.5
 42
1.0
 43
10.0
 44
1.0
 47
0.1
 48
0.1
 73
     0
 74
     0
 78
     8
 79
     2
140
3.5
141
0.0
143
0.0393701
146
0.71
147
1.5
172
     1
176
   256
177
   256
178
     2
271
     2
272
     3
274
     4
283
     0
284
     8
340
11
371
    -1
372
    -1
  0
DIMSTYLE
105
AF9D
330
A
100
AcDbSymbolTableRecord
100
AcDbDimStyleTableRecord
  2
AM_ISO$7
 70
     0
  4
"
 41
2.5
 42
1.0
 43
10.0
 44
1.0
 47
0.1
 48
0.1
 73
     0
 74
     0
 77
     1
 78
     8
 79
     2
140
5.0
141
0.0
143
0.0393701
146
0.71
147
1.5
172
     1
176
   256
177
   256
178
     2
271
     2
272
     3
274
     4
283
     0
284
     8
340
11
371
    -1
372
    -1
  0
DIMSTYLE
105
AF9E
330
A
100
AcDbSymbolTableRecord
100
AcDbDimStyleTableRecord
  2
AM_ISO$SF
 70
     0
  4
"
 41
2.5
 42
1.0
 43
10.0
 44
1.0
 47
0.1
 48
0.1
 73
     0
 74
     0
 75
     1
 76
     1
 77
     1
 78
     8
 79
     2
140
3.5
141
0.0
143
0.0393701
146
0.71
147
1.5
172
     1
176
   256
177
   256
178
     2
271
     2
272
     3
274
     4
283
     0
284
     8
340
11
371
    -1
372
    -1
  0
DIMSTYLE
105
AF9F
330
A
100
AcDbSymbolTableRecord
100
AcDbDimStyleTableRecord
  2
AM_ISO$SH
 70
     0
  4
"
 41
2.5
 42
1.0
 43
10.0
 44
1.0
 47
0.1
 48
0.1
 73
     0
 74
     0
 75
     1
 76
     1
 77
     1
 78
     8
 79
     2
140
3.5
141
0.0
143
0.0393701
144
2.0
146
0.71
147
1.5
172
     1
173
     1
176
   256
177
   256
178
     2
271
     2
272
     3
274
     4
283
     0
284
     8
340
11
343
72
371
    -1
372
    -1
  0
DIMSTYLE
105
B60C
330
A
100
AcDbSymbolTableRecord
100
AcDbDimStyleTableRecord
  2
AM_ANSI
 70
     0
  4
mm
 41
0.1
 42
0.05
 43
0.5
 44
0.1
 47
0.1
 48
0.1
 78
     7
 79
     2
140
0.12
141
0.0
146
0.71
147
0.06
176
   256
177
   256
178
     2
274
     4
284
     7
340
11
371
    -1
372
    -1
  0
DIMSTYLE
105
C485
330
A
100
AcDbSymbolTableRecord
100
AcDbDimStyleTableRecord
  2
AM_ISO$0
 70
     0
  4
"
 41
0.8
 42
1.0
 43
10.0
 44
1.0
 47
0.1
 48
0.1
 73
     0
 74
     0
 77
     1
 78
     8
 79
     2
140
3.2
141
0.0
143
0.0393701
146
0.71
147
0.9999999999999996
172
     1
176
   256
177
   256
178
     2
271
     2
272
     2
283
     0
284
     8
340
11
341
6C4
342
6C4
371
    -1
372
    -1
1001
ACAD_DSTYLE_DIMJOGGED_JOGANGLE_SYMBOL
1070
   384
1040
0.7853981633974483
1001
ACAD_DSTYLE_DIMARC_LENGTH_SYMBOL
1070
   379
1070
     1
  0
DIMSTYLE
105
C486
330
A
100
AcDbSymbolTableRecord
100
AcDbDimStyleTableRecord
  2
AM_ISO$2
 70
     0
  4
"
 41
0.8
 42
1.0
 43
10.0
 44
1.0
 47
0.1
 48
0.1
 73
     0
 74
     0
 77
     3
 78
     8
 79
     2
140
3.200000000000001
141
0.0
143
0.0393701
146
0.71
147
0.9999999999999996
172
     1
176
   256
177
   256
178
     2
271
     2
272
     2
283
     0
284
     8
340
11
342
6C4
371
    -1
372
    -1
1001
ACAD_DSTYLE_DIMJOGGED_JOGANGLE_SYMBOL
1070
   384
1040
0.7853981633974483
1001
ACAD_DSTYLE_DIMARC_LENGTH_SYMBOL
1070
   379
1070
     1
  0
DIMSTYLE
105
FD1A
330
A
100
AcDbSymbolTableRecord
100
AcDbDimStyleTableRecord
  2
AM_ANSI$3
 70
     0
  4
mm
 41
0.1
 42
0.05
 43
0.5
 44
0.1
 47
0.1
 48
0.1
 78
     7
 79
     2
140
0.12
141
0.0
146
0.71
147
0.06
176
   256
177
   256
178
     2
274
     4
284
     7
288
     1
289
     0
340
11
371
    -1
372
    -1
1001
ACAD_DSTYLE_DIMARC_LENGTH_SYMBOL
1070
   379
1070
     1
  0
DIMSTYLE
105
FD1B
330
A
100
AcDbSymbolTableRecord
100
AcDbDimStyleTableRecord
  2
AM_ANSI$4
 70
     0
  4
mm
 41
0.1
 42
0.05
 43
0.5
 44
0.1
 47
0.1
 48
0.1
 78
     7
 79
     2
140
0.12
141
0.0
146
0.71
147
0.06
176
   256
177
   256
178
     2
274
     4
284
     7
288
     1
289
     0
340
11
371
    -1
372
    -1
1001
ACAD_DSTYLE_DIMARC_LENGTH_SYMBOL
1070
   379
1070
     1
  0
DIMSTYLE
105
FD1C
330
A
100
AcDbSymbolTableRecord
100
AcDbDimStyleTableRecord
  2
AM_ANSI$7
 70
     0
  4
mm
 41
0.1
 42
0.05
 43
0.5
 44
0.1
 47
0.1
 48
0.1
 78
     7
 79
     2
140
0.24
141
0.0
146
0.71
147
0.06
176
   256
177
   256
178
     2
274
     4
284
     7
340
11
371
    -1
372
    -1
1001
ACAD_DSTYLE_DIMARC_LENGTH_SYMBOL
1070
   379
1070
     1
  0
DIMSTYLE
105
FD1D
330
A
100
AcDbSymbolTableRecord
100
AcDbDimStyleTableRecord
  2
AM_ANSI$SF
 70
     0
  4
mm
 41
0.1
 42
0.05
 43
0.5
 44
0.1
 47
0.1
 48
0.1
 75
     1
 76
     1
 78
     7
 79
     2
140
0.12
141
0.0
146
0.71
147
0.06
176
   256
177
   256
178
     2
274
     4
284
     7
340
11
371
    -1
372
    -1
1001
ACAD_DSTYLE_DIMARC_LENGTH_SYMBOL
1070
   379
1070
     1
  0
DIMSTYLE
105
FD1E
330
A
100
AcDbSymbolTableRecord
100
AcDbDimStyleTableRecord
  2
AM_ANSI$SH
 70
     0
  4
mm
 41
0.1
 42
0.05
 43
0.5
 44
0.1
 47
0.1
 48
0.1
 75
     1
 76
     1
 78
     7
 79
     2
140
0.12
141
0.0
146
0.71
147
0.06
173
     1
176
   256
177
   256
178
     2
274
     4
284
     7
340
11
343
72
371
    -1
372
    -1
1001
ACAD_DSTYLE_DIMARC_LENGTH_SYMBOL
1070
   379
1070
     1
  0
ENDTAB
  0
TABLE
  2
BLOCK_RECORD
  5
1
330
0
100
AcDbSymbolTable
 70
    24
  0
BLOCK_RECORD
  5
1F
102
{ACAD_XDICTIONARY
360
8A
102
}
330
1
100
AcDbSymbolTableRecord
100
AcDbBlockTableRecord
  2
*Model_Space
340
22
  0
BLOCK_RECORD
  5
1B
330
1
100
AcDbSymbolTableRecord
100
AcDbBlockTableRecord
  2
*Paper_Space
340
1E
  0
BLOCK_RECORD
  5
23
330
1
100
AcDbSymbolTableRecord
100
AcDbBlockTableRecord
  2
*Paper_Space0
340
26
  0
BLOCK_RECORD
  5
72
330
1
100
AcDbSymbolTableRecord
100
AcDbBlockTableRecord
  2
GENAXEH
340
0
  0
BLOCK_RECORD
  5
6C4
330
1
100
AcDbSymbolTableRecord
100
AcDbBlockTableRecord
  2
_Dot
340
0
102
{BLKREFS
331
5B1A9
331
5B1AA
331
5B1BB
331
5B1BC
331
5B1C6
331
5B1C7
331
5B1DA
331
5B1DB
331
5B210
331
5B211
331
5B34B
331
5B34C
331
5B366
331
5B367
331
5B38E
331
5B38F
331
5B3A0
331
5B3A1
331
5B3C6
331
5B3C7
331
5B3D2
331
5B3D3
331
5B3DB
331
5B3DC
331
5B3E4
331
5B3E5
331
5B3ED
331
5B3EE
331
5B402
331
5B403
331
5B444
331
5B445
331
5B46C
331
5B46D
102
}
  0
BLOCK_RECORD
  5
A66
330
1
100
AcDbSymbolTableRecord
100
AcDbBlockTableRecord
  2
_OPEN30
340
0
  0
BLOCK_RECORD
  5
5B0CD
330
1
100
AcDbSymbolTableRecord
100
AcDbBlockTableRecord
  2
*D7
340
0
  0
BLOCK_RECORD
  5
5B0D9
330
1
100
AcDbSymbolTableRecord
100
AcDbBlockTableRecord
  2
*D8
340
0
  0
BLOCK_RECORD
  5
5B0E5
330
1
100
AcDbSymbolTableRecord
100
AcDbBlockTableRecord
  2
*D9
340
0
  0
BLOCK_RECORD
  5
5B0F1
330
1
100
AcDbSymbolTableRecord
100
AcDbBlockTableRecord
  2
*D10
340
0
  0
BLOCK_RECORD
  5
5B0FD
330
1
100
AcDbSymbolTableRecord
100
AcDbBlockTableRecord
  2
*D11
340
0
  0
BLOCK_RECORD
  5
5B10B
330
1
100
AcDbSymbolTableRecord
100
AcDbBlockTableRecord
  2
*D12
340
0
  0
BLOCK_RECORD
  5
5B117
330
1
100
AcDbSymbolTableRecord
100
AcDbBlockTableRecord
  2
*D13
340
0
  0
BLOCK_RECORD
  5
5B125
330
1
100
AcDbSymbolTableRecord
100
AcDbBlockTableRecord
  2
*D14
340
0
  0
BLOCK_RECORD
  5
5B131
330
1
100
AcDbSymbolTableRecord
100
AcDbBlockTableRecord
  2
*D15
340
0
  0
BLOCK_RECORD
  5
5B149
330
1
100
AcDbSymbolTableRecord
100
AcDbBlockTableRecord
  2
*D16
340
0
  0
BLOCK_RECORD
  5
5B155
330
1
100
AcDbSymbolTableRecord
100
AcDbBlockTableRecord
  2
*D17
340
0
  0
BLOCK_RECORD
  5
5B161
330
1
100
AcDbSymbolTableRecord
100
AcDbBlockTableRecord
  2
*D18
340
0
  0
BLOCK_RECORD
  5
5B179
330
1
100
AcDbSymbolTableRecord
100
AcDbBlockTableRecord
  2
*D19
340
0
  0
BLOCK_RECORD
  5
5B185
330
1
100
AcDbSymbolTableRecord
100
AcDbBlockTableRecord
  2
*D20
340
0
  0
BLOCK_RECORD
  5
5B191
330
1
100
AcDbSymbolTableRecord
100
AcDbBlockTableRecord
  2
*D21
340
0
  0
BLOCK_RECORD
  5
5B409
330
1
100
AcDbSymbolTableRecord
100
AcDbBlockTableRecord
  2
*D22
340
0
  0
BLOCK_RECORD
  5
5B449
330
1
100
AcDbSymbolTableRecord
100
AcDbBlockTableRecord
  2
*D23
340
0
  0
ENDTAB
  0
ENDSEC
  0
SECTION
  2
BLOCKS
  0
BLOCK
  5
20
330
1F
100
AcDbEntity
  8
0
100
AcDbBlockBegin
  2
*Model_Space
 70
     0
 10
0.0
 20
0.0
 30
0.0
  3
*Model_Space
  1

  0
ENDBLK
  5
21
330
1F
100
AcDbEntity
  8
0
100
AcDbBlockEnd
  0
BLOCK
  5
1C
330
1B
100
AcDbEntity
 67
     1
  8
0
100
AcDbBlockBegin
  2
*Paper_Space
 70
     0
 10
0.0
 20
0.0
 30
0.0
  3
*Paper_Space
  1

  0
ENDBLK
  5
1D
330
1B
100
AcDbEntity
 67
     1
  8
0
100
AcDbBlockEnd
  0
BLOCK
  5
24
330
23
100
AcDbEntity
 67
     1
  8
0
100
AcDbBlockBegin
  2
*Paper_Space0
 70
     0
 10
0.0
 20
0.0
 30
0.0
  3
*Paper_Space0
  1

  0
ENDBLK
  5
25
330
23
100
AcDbEntity
 67
     1
  8
0
100
AcDbBlockEnd
  0
BLOCK
  5
74
330
72
100
AcDbEntity
  8
0
100
AcDbBlockBegin
  2
GENAXEH
 70
     0
 10
0.0
 20
0.0
 30
0.0
  3
GENAXEH
  1

  0
LINE
  5
73
330
72
100
AcDbEntity
  8
0
100
AcDbLine
 10
-1.0
 20
0.0
 30
0.0
 11
1.0
 21
0.0
 31
0.0
  0
ENDBLK
  5
75
330
72
100
AcDbEntity
  8
0
100
AcDbBlockEnd
  0
BLOCK
  5
6C7
330
6C4
100
AcDbEntity
  8
0
100
AcDbBlockBegin
  2
_Dot
 70
     0
 10
0.0
 20
0.0
 30
0.0
  3
_Dot
  1

  0
LWPOLYLINE
  5
6C5
330
6C4
100
AcDbEntity
  8
0
  6
ByBlock
 62
     0
100
AcDbPolyline
 90
        2
 70
     1
 43
0.5
 10
-0.25
 20
0.0
 42
1.0
 10
0.25
 20
0.0
 42
1.0
  0
LINE
  5
6C6
330
6C4
100
AcDbEntity
  8
0
  6
ByBlock
 62
     0
370
    -2
100
AcDbLine
 10
-0.5
 20
0.0
 30
0.0
 11
-1.0
 21
0.0
 31
0.0
  0
ENDBLK
  5
6C8
330
6C4
100
AcDbEntity
  8
0
100
AcDbBlockEnd
  0
BLOCK
  5
A6A
330
A66
100
AcDbEntity
  8
0
100
AcDbBlockBegin
  2
_OPEN30
 70
     0
 10
0.0
 20
0.0
 30
0.0
  3
_OPEN30
  1

  0
LINE
  5
A67
330
A66
100
AcDbEntity
  8
0
  6
ByBlock
 62
     0
100
AcDbLine
 10
-1.0
 20
0.26794919
 30
0.0
 11
0.0
 21
0.0
 31
0.0
  0
LINE
  5
A68
330
A66
100
AcDbEntity
  8
0
  6
ByBlock
 62
     0
100
AcDbLine
 10
0.0
 20
0.0
 30
0.0
 11
-1.0
 21
-0.26794919
 31
0.0
  0
LINE
  5
A69
330
A66
100
AcDbEntity
  8
0
  6
ByBlock
 62
     0
100
AcDbLine
 10
0.0
 20
0.0
 30
0.0
 11
-1.0
 21
0.0
 31
0.0
  0
ENDBLK
  5
A6B
330
A66
100
AcDbEntity
  8
0
100
AcDbBlockEnd
  0
BLOCK
  5
5B0D7
330
5B0CD
100
AcDbEntity
  8
0
100
AcDbBlockBegin
  2
*D7
 70
     1
 10
0.0
 20
0.0
 30
0.0
  3
*D7
  1

  0
LINE
  5
5B3E1
330
5B0CD
100
AcDbEntity
  8
AM_5
100
AcDbLine
 10
6237.24567195329
 20
-5468.75933690343
 30
0.0
 11
6237.24567195329
 21
-5446.25933690343
 31
0.0
  0
LINE
  5
5B3E2
330
5B0CD
100
AcDbEntity
  8
AM_5
100
AcDbLine
 10
6260.24567195329
 20
-5470.75933690343
 30
0.0
 11
6260.24567195329
 21
-5446.25933690343
 31
0.0
  0
LINE
  5
5B3E3
330
5B0CD
100
AcDbEntity
  8
AM_5
100
AcDbLine
 10
6238.24567195329
 20
-5447.259336903431
 30
0.0
 11
6259.245671953291
 21
-5447.259336903431
 31
0.0
  0
INSERT
  5
5B3E4
330
5B0CD
100
AcDbEntity
  8
AM_5
100
AcDbBlockReference
  2
_Dot
 10
6237.24567195329
 20
-5447.259336903431
 30
0.0
 50
180.0
  0
INSERT
  5
5B3E5
330
5B0CD
100
AcDbEntity
  8
AM_5
100
AcDbBlockReference
  2
_Dot
 10
6260.24567195329
 20
-5447.259336903431
 30
0.0
  0
MTEXT
  5
5B3E6
330
5B0CD
100
AcDbEntity
  8
AM_5
 62
     2
100
AcDbMText
 10
6248.49567195329
 20
-5444.659336903431
 30
0.0
 40
3.200000000000001
 41
0.0
 71
     5
 72
     1
  1
（D）
 73
     1
 44
1.0
1001
ACAD
1000
MTEXTBEGIN
1070
    73
1070
     1
1070
    44
1040
1.0
1070
    74
1070
     0
1000
MTEXTEND
  0
POINT
  5
5B3E7
330
5B0CD
100
AcDbEntity
  8
Defpoints
 62
     0
100
AcDbPoint
 10
6237.24567195329
 20
-5469.75933690343
 30
0.0
  0
POINT
  5
5B3E8
330
5B0CD
100
AcDbEntity
  8
Defpoints
 62
     0
100
AcDbPoint
 10
6260.24567195329
 20
-5471.75933690343
 30
0.0
  0
POINT
  5
5B3E9
330
5B0CD
100
AcDbEntity
  8
Defpoints
 62
     0
100
AcDbPoint
 10
6260.24567195329
 20
-5447.259336903431
 30
0.0
  0
ENDBLK
  5
5B0D8
330
5B0CD
100
AcDbEntity
  8
0
100
AcDbBlockEnd
  0
BLOCK
  5
5B0E3
330
5B0D9
100
AcDbEntity
  8
0
100
AcDbBlockBegin
  2
*D8
 70
     1
 10
0.0
 20
0.0
 30
0.0
  3
*D8
  1

  0
LINE
  5
5B1A6
330
5B0D9
100
AcDbEntity
  8
AM_5
100
AcDbLine
 10
6242.24567195329
 20
-5463.75933690343
 30
0.0
 11
6220.245671953289
 21
-5463.75933690343
 31
0.0
  0
LINE
  5
5B1A7
330
5B0D9
100
AcDbEntity
  8
AM_5
100
AcDbLine
 10
6242.24567195329
 20
-5500.75933690343
 30
0.0
 11
6220.245671953289
 21
-5500.75933690343
 31
0.0
  0
LINE
  5
5B1A8
330
5B0D9
100
AcDbEntity
  8
AM_5
100
AcDbLine
 10
6221.24567195329
 20
-5464.75933690343
 30
0.0
 11
6221.24567195329
 21
-5499.75933690343
 31
0.0
  0
INSERT
  5
5B1A9
330
5B0D9
100
AcDbEntity
  8
AM_5
100
AcDbBlockReference
  2
_Dot
 10
6221.24567195329
 20
-5463.75933690343
 30
0.0
 50
90.0
  0
INSERT
  5
5B1AA
330
5B0D9
100
AcDbEntity
  8
AM_5
100
AcDbBlockReference
  2
_Dot
 10
6221.24567195329
 20
-5500.75933690343
 30
0.0
 50
270.0
  0
MTEXT
  5
5B1AB
330
5B0D9
100
AcDbEntity
  8
AM_5
 62
     2
100
AcDbMText
 10
6218.645671953289
 20
-5482.259336903442
 30
0.0
 40
3.200000000000001
 41
0.0
 71
     5
 72
     1
  1
E
 11
0.0000000000000001
 21
1.0
 31
0.0
 73
     1
 44
1.0
1001
ACAD
1000
MTEXTBEGIN
1070
    73
1070
     1
1070
    44
1040
1.0
1070
    74
1070
     0
1000
MTEXTEND
  0
POINT
  5
5B1AC
330
5B0D9
100
AcDbEntity
  8
Defpoints
 62
     0
100
AcDbPoint
 10
6243.24567195329
 20
-5463.75933690343
 30
0.0
  0
POINT
  5
5B1AD
330
5B0D9
100
AcDbEntity
  8
Defpoints
 62
     0
100
AcDbPoint
 10
6243.24567195329
 20
-5500.75933690343
 30
0.0
  0
POINT
  5
5B1AE
330
5B0D9
100
AcDbEntity
  8
Defpoints
 62
     0
100
AcDbPoint
 10
6221.24567195329
 20
-5500.75933690343
 30
0.0
  0
ENDBLK
  5
5B0E4
330
5B0D9
100
AcDbEntity
  8
0
100
AcDbBlockEnd
  0
BLOCK
  5
5B0EF
330
5B0E5
100
AcDbEntity
  8
0
100
AcDbBlockBegin
  2
*D9
 70
     1
 10
0.0
 20
0.0
 30
0.0
  3
*D9
  1

  0
LINE
  5
5B38B
330
5B0E5
100
AcDbEntity
  8
AM_5
100
AcDbLine
 10
6279.419453353291
 20
-5503.75933690343
 30
0.0
 11
6279.419453353291
 21
-5502.75933690343
 31
0.0
  0
LINE
  5
5B38C
330
5B0E5
100
AcDbEntity
  8
AM_5
100
AcDbLine
 10
6279.419453353291
 20
-5509.25933690343
 30
0.0
 11
6279.419453353291
 21
-5515.779336903431
 31
0.0
  0
LINE
  5
5B38D
330
5B0E5
100
AcDbEntity
  8
AM_5
100
AcDbLine
 10
6279.419453353291
 20
-5504.75933690343
 30
0.0
 11
6279.419453353291
 21
-5508.259336903431
 31
0.0
  0
INSERT
  5
5B38E
330
5B0E5
100
AcDbEntity
  8
AM_5
100
AcDbBlockReference
  2
_Dot
 10
6279.419453353291
 20
-5504.75933690343
 30
0.0
 50
270.0
  0
INSERT
  5
5B38F
330
5B0E5
100
AcDbEntity
  8
AM_5
100
AcDbBlockReference
  2
_Dot
 10
6279.419453353291
 20
-5508.259336903431
 30
0.0
 50
90.0
  0
MTEXT
  5
5B390
330
5B0E5
100
AcDbEntity
  8
AM_5
 62
     2
100
AcDbMText
 10
6276.819453353293
 20
-5513.019336903429
 30
0.0
 40
3.200000000000001
 41
0.0
 71
     5
 72
     1
  1
%%cF
 11
0.0000000000000001
 21
1.0
 31
0.0
 73
     1
 44
1.0
1001
ACAD
1000
MTEXTBEGIN
1070
    73
1070
     1
1070
    44
1040
1.0
1070
    74
1070
     0
1000
MTEXTEND
  0
POINT
  5
5B391
330
5B0E5
100
AcDbEntity
  8
Defpoints
 62
     0
100
AcDbPoint
 10
6279.419453353291
 20
-5508.259336903431
 30
0.0
  0
POINT
  5
5B392
330
5B0E5
100
AcDbEntity
  8
Defpoints
 62
     0
100
AcDbPoint
 10
6279.419453353291
 20
-5504.75933690343
 30
0.0
  0
POINT
  5
5B393
330
5B0E5
100
AcDbEntity
  8
Defpoints
 62
     0
100
AcDbPoint
 10
6279.419453353291
 20
-5504.75933690343
 30
0.0
  0
ENDBLK
  5
5B0F0
330
5B0E5
100
AcDbEntity
  8
0
100
AcDbBlockEnd
  0
BLOCK
  5
5B0FB
330
5B0F1
100
AcDbEntity
  8
0
100
AcDbBlockBegin
  2
*D10
 70
     1
 10
0.0
 20
0.0
 30
0.0
  3
*D10
  1

  0
LINE
  5
5B1B8
330
5B0F1
100
AcDbEntity
  8
AM_5
100
AcDbLine
 10
6323.245671953291
 20
-5554.609777669037
 30
0.0
 11
6366.24567195329
 21
-5554.609777669037
 31
0.0
  0
LINE
  5
5B1B9
330
5B0F1
100
AcDbEntity
  8
AM_5
100
AcDbLine
 10
6292.245671953291
 20
-5535.609777669037
 30
0.0
 11
6366.24567195329
 21
-5535.609777669037
 31
0.0
  0
LINE
  5
5B1BA
330
5B0F1
100
AcDbEntity
  8
AM_5
100
AcDbLine
 10
6365.24567195329
 20
-5553.609777669038
 30
0.0
 11
6365.24567195329
 21
-5536.609777669037
 31
0.0
  0
INSERT
  5
5B1BB
330
5B0F1
100
AcDbEntity
  8
AM_5
100
AcDbBlockReference
  2
_Dot
 10
6365.24567195329
 20
-5554.609777669037
 30
0.0
 50
270.0
  0
INSERT
  5
5B1BC
330
5B0F1
100
AcDbEntity
  8
AM_5
100
AcDbBlockReference
  2
_Dot
 10
6365.24567195329
 20
-5535.609777669037
 30
0.0
 50
90.0
  0
MTEXT
  5
5B1BD
330
5B0F1
100
AcDbEntity
  8
AM_5
 62
     2
100
AcDbMText
 10
6362.645671953291
 20
-5545.109777669036
 30
0.0
 40
3.200000000000001
 41
0.0
 71
     5
 72
     1
  1
（G）
 11
0.0000000000000001
 21
1.0
 31
0.0
 73
     1
 44
1.0
1001
ACAD
1000
MTEXTBEGIN
1070
    73
1070
     1
1070
    44
1040
1.0
1070
    74
1070
     0
1000
MTEXTEND
  0
POINT
  5
5B1BE
330
5B0F1
100
AcDbEntity
  8
Defpoints
 62
     0
100
AcDbPoint
 10
6322.245671953291
 20
-5554.609777669037
 30
0.0
  0
POINT
  5
5B1BF
330
5B0F1
100
AcDbEntity
  8
Defpoints
 62
     0
100
AcDbPoint
 10
6291.245671953291
 20
-5535.609777669037
 30
0.0
  0
POINT
  5
5B1C0
330
5B0F1
100
AcDbEntity
  8
Defpoints
 62
     0
100
AcDbPoint
 10
6365.24567195329
 20
-5535.609777669037
 30
0.0
  0
ENDBLK
  5
5B0FC
330
5B0F1
100
AcDbEntity
  8
0
100
AcDbBlockEnd
  0
BLOCK
  5
5B109
330
5B0FD
100
AcDbEntity
  8
0
100
AcDbBlockBegin
  2
*D11
 70
     1
 10
0.0
 20
0.0
 30
0.0
  3
*D11
  1

  0
LINE
  5
5B1C1
330
5B0FD
100
AcDbEntity
  8
AM_5
100
AcDbLine
 10
6323.245671953291
 20
-5554.609777669037
 30
0.0
 11
6358.245671953291
 21
-5554.609777669037
 31
0.0
  0
LINE
  5
5B1C2
330
5B0FD
100
AcDbEntity
  8
AM_5
100
AcDbLine
 10
6323.245671953291
 20
-5553.109777669038
 30
0.0
 11
6358.245671953291
 21
-5553.109777669038
 31
0.0
  0
LINE
  5
5B1C3
330
5B0FD
100
AcDbEntity
  8
AM_5
100
AcDbLine
 10
6357.24567195329
 20
-5552.109777669038
 30
0.0
 11
6357.24567195329
 21
-5551.109777669037
 31
0.0
  0
LINE
  5
5B1C4
330
5B0FD
100
AcDbEntity
  8
AM_5
100
AcDbLine
 10
6357.24567195329
 20
-5555.609777669038
 30
0.0
 11
6357.24567195329
 21
-5560.103111002373
 31
0.0
  0
LINE
  5
5B1C5
330
5B0FD
100
AcDbEntity
  8
AM_5
100
AcDbLine
 10
6357.24567195329
 20
-5553.109777669038
 30
0.0
 11
6357.24567195329
 21
-5554.609777669037
 31
0.0
  0
INSERT
  5
5B1C6
330
5B0FD
100
AcDbEntity
  8
AM_5
100
AcDbBlockReference
  2
_Dot
 10
6357.24567195329
 20
-5553.109777669038
 30
0.0
 50
270.0
  0
INSERT
  5
5B1C7
330
5B0FD
100
AcDbEntity
  8
AM_5
100
AcDbBlockReference
  2
_Dot
 10
6357.24567195329
 20
-5554.609777669037
 30
0.0
 50
90.0
  0
MTEXT
  5
5B1C8
330
5B0FD
100
AcDbEntity
  8
AM_5
 62
     2
100
AcDbMText
 10
6354.64567195329
 20
-5558.356444335704
 30
0.0
 40
3.200000000000001
 41
0.0
 71
     5
 72
     1
  1
H
 11
0.0000000000000001
 21
1.0
 31
0.0
 73
     1
 44
1.0
1001
ACAD
1000
MTEXTBEGIN
1070
    73
1070
     1
1070
    44
1040
1.0
1070
    74
1070
     0
1000
MTEXTEND
  0
POINT
  5
5B1C9
330
5B0FD
100
AcDbEntity
  8
Defpoints
 62
     0
100
AcDbPoint
 10
6322.245671953291
 20
-5554.609777669037
 30
0.0
  0
POINT
  5
5B1CA
330
5B0FD
100
AcDbEntity
  8
Defpoints
 62
     0
100
AcDbPoint
 10
6322.245671953291
 20
-5553.109777669038
 30
0.0
  0
POINT
  5
5B1CB
330
5B0FD
100
AcDbEntity
  8
Defpoints
 62
     0
100
AcDbPoint
 10
6357.24567195329
 20
-5553.109777669038
 30
0.0
  0
ENDBLK
  5
5B10A
330
5B0FD
100
AcDbEntity
  8
0
100
AcDbBlockEnd
  0
BLOCK
  5
5B115
330
5B10B
100
AcDbEntity
  8
0
100
AcDbBlockBegin
  2
*D12
 70
     1
 10
0.0
 20
0.0
 30
0.0
  3
*D12
  1

  0
LINE
  5
5B3FF
330
5B10B
100
AcDbEntity
  8
AM_5
100
AcDbLine
 10
6236.24567195329
 20
-5554.609777669037
 30
0.0
 11
6220.245671953289
 21
-5554.609777669037
 31
0.0
  0
LINE
  5
5B400
330
5B10B
100
AcDbEntity
  8
AM_5
100
AcDbLine
 10
6249.937626350524
 20
-5541.609777669037
 30
0.0
 11
6220.245671953289
 21
-5541.609777669037
 31
0.0
  0
LINE
  5
5B401
330
5B10B
100
AcDbEntity
  8
AM_5
100
AcDbLine
 10
6221.24567195329
 20
-5553.609777669038
 30
0.0
 11
6221.24567195329
 21
-5542.609777669038
 31
0.0
  0
INSERT
  5
5B402
330
5B10B
100
AcDbEntity
  8
AM_5
100
AcDbBlockReference
  2
_Dot
 10
6221.24567195329
 20
-5554.609777669037
 30
0.0
 50
270.0
  0
INSERT
  5
5B403
330
5B10B
100
AcDbEntity
  8
AM_5
100
AcDbBlockReference
  2
_Dot
 10
6221.24567195329
 20
-5541.609777669037
 30
0.0
 50
90.0
  0
MTEXT
  5
5B404
330
5B10B
100
AcDbEntity
  8
AM_5
 62
     2
100
AcDbMText
 10
6218.645671953289
 20
-5547.65613408248
 30
0.0
 40
3.200000000000001
 41
0.0
 71
     5
 72
     1
  1
I
 11
0.0000000000000001
 21
1.0
 31
0.0
 73
     1
 44
1.0
1001
ACAD
1000
MTEXTBEGIN
1070
    73
1070
     1
1070
    44
1040
1.0
1070
    74
1070
     0
1000
MTEXTEND
  0
POINT
  5
5B405
330
5B10B
100
AcDbEntity
  8
Defpoints
 62
     0
100
AcDbPoint
 10
6237.24567195329
 20
-5554.609777669037
 30
0.0
  0
POINT
  5
5B406
330
5B10B
100
AcDbEntity
  8
Defpoints
 62
     0
100
AcDbPoint
 10
6250.937626350523
 20
-5541.609777669037
 30
0.0
  0
POINT
  5
5B407
330
5B10B
100
AcDbEntity
  8
Defpoints
 62
     0
100
AcDbPoint
 10
6221.24567195329
 20
-5541.609777669037
 30
0.0
  0
ENDBLK
  5
5B116
330
5B10B
100
AcDbEntity
  8
0
100
AcDbBlockEnd
  0
BLOCK
  5
5B123
330
5B117
100
AcDbEntity
  8
0
100
AcDbBlockBegin
  2
*D13
 70
     1
 10
0.0
 20
0.0
 30
0.0
  3
*D13
  1

  0
LINE
  5
5B1D5
330
5B117
100
AcDbEntity
  8
AM_5
100
AcDbLine
 10
6236.24567195329
 20
-5554.609777669037
 30
0.0
 11
6228.245671953289
 21
-5554.609777669037
 31
0.0
  0
LINE
  5
5B1D6
330
5B117
100
AcDbEntity
  8
AM_5
100
AcDbLine
 10
6236.24567195329
 20
-5552.609777669037
 30
0.0
 11
6228.245671953289
 21
-5552.609777669037
 31
0.0
  0
LINE
  5
5B1D7
330
5B117
100
AcDbEntity
  8
AM_5
100
AcDbLine
 10
6229.24567195329
 20
-5551.609777669038
 30
0.0
 11
6229.24567195329
 21
-5550.609777669038
 31
0.0
  0
LINE
  5
5B1D8
330
5B117
100
AcDbEntity
  8
AM_5
100
AcDbLine
 10
6229.24567195329
 20
-5555.609777669038
 30
0.0
 11
6229.24567195329
 21
-5559.676444335706
 31
0.0
  0
LINE
  5
5B1D9
330
5B117
100
AcDbEntity
  8
AM_5
100
AcDbLine
 10
6229.24567195329
 20
-5552.609777669037
 30
0.0
 11
6229.24567195329
 21
-5554.609777669037
 31
0.0
  0
INSERT
  5
5B1DA
330
5B117
100
AcDbEntity
  8
AM_5
100
AcDbBlockReference
  2
_Dot
 10
6229.24567195329
 20
-5552.609777669037
 30
0.0
 50
270.0
  0
INSERT
  5
5B1DB
330
5B117
100
AcDbEntity
  8
AM_5
100
AcDbBlockReference
  2
_Dot
 10
6229.24567195329
 20
-5554.609777669037
 30
0.0
 50
90.0
  0
MTEXT
  5
5B1DC
330
5B117
100
AcDbEntity
  8
AM_5
 62
     2
100
AcDbMText
 10
6226.645671953289
 20
-5558.143111002372
 30
0.0
 40
3.200000000000001
 41
0.0
 71
     5
 72
     1
  1
J
 11
0.0000000000000001
 21
1.0
 31
0.0
 73
     1
 44
1.0
1001
ACAD
1000
MTEXTBEGIN
1070
    73
1070
     1
1070
    44
1040
1.0
1070
    74
1070
     0
1000
MTEXTEND
  0
POINT
  5
5B1DD
330
5B117
100
AcDbEntity
  8
Defpoints
 62
     0
100
AcDbPoint
 10
6237.24567195329
 20
-5554.609777669037
 30
0.0
  0
POINT
  5
5B1DE
330
5B117
100
AcDbEntity
  8
Defpoints
 62
     0
100
AcDbPoint
 10
6237.24567195329
 20
-5552.609777669037
 30
0.0
  0
POINT
  5
5B1DF
330
5B117
100
AcDbEntity
  8
Defpoints
 62
     0
100
AcDbPoint
 10
6229.24567195329
 20
-5552.609777669037
 30
0.0
  0
ENDBLK
  5
5B124
330
5B117
100
AcDbEntity
  8
0
100
AcDbBlockEnd
  0
BLOCK
  5
5B12F
330
5B125
100
AcDbEntity
  8
0
100
AcDbBlockBegin
  2
*D14
 70
     1
 10
0.0
 20
0.0
 30
0.0
  3
*D14
  1

  0
LINE
  5
5B348
330
5B125
100
AcDbEntity
  8
AM_5
100
AcDbLine
 10
6298.245671953291
 20
-5488.25455167843
 30
0.0
 11
6298.245671953291
 21
-5526.25933690343
 31
0.0
  0
LINE
  5
5B349
330
5B125
100
AcDbEntity
  8
AM_5
100
AcDbLine
 10
6315.245671953292
 20
-5488.25455167843
 30
0.0
 11
6315.245671953292
 21
-5526.25933690343
 31
0.0
  0
LINE
  5
5B34A
330
5B125
100
AcDbEntity
  8
AM_5
100
AcDbLine
 10
6299.245671953291
 20
-5525.25933690343
 30
0.0
 11
6314.24567195329
 21
-5525.25933690343
 31
0.0
  0
INSERT
  5
5B34B
330
5B125
100
AcDbEntity
  8
AM_5
100
AcDbBlockReference
  2
_Dot
 10
6298.245671953291
 20
-5525.25933690343
 30
0.0
 50
180.0
  0
INSERT
  5
5B34C
330
5B125
100
AcDbEntity
  8
AM_5
100
AcDbBlockReference
  2
_Dot
 10
6315.245671953292
 20
-5525.25933690343
 30
0.0
  0
MTEXT
  5
5B34D
330
5B125
100
AcDbEntity
  8
AM_5
 62
     2
100
AcDbMText
 10
6306.745671953291
 20
-5522.65933690343
 30
0.0
 40
3.200000000000001
 41
0.0
 71
     5
 72
     1
  1
K
 73
     1
 44
1.0
1001
ACAD
1000
MTEXTBEGIN
1070
    73
1070
     1
1070
    44
1040
1.0
1070
    74
1070
     0
1000
MTEXTEND
  0
POINT
  5
5B34E
330
5B125
100
AcDbEntity
  8
Defpoints
 62
     0
100
AcDbPoint
 10
6298.245671953291
 20
-5487.254551678431
 30
0.0
  0
POINT
  5
5B34F
330
5B125
100
AcDbEntity
  8
Defpoints
 62
     0
100
AcDbPoint
 10
6315.245671953292
 20
-5487.254551678431
 30
0.0
  0
POINT
  5
5B350
330
5B125
100
AcDbEntity
  8
Defpoints
 62
     0
100
AcDbPoint
 10
6315.245671953292
 20
-5525.25933690343
 30
0.0
  0
ENDBLK
  5
5B130
330
5B125
100
AcDbEntity
  8
0
100
AcDbBlockEnd
  0
BLOCK
  5
5B13B
330
5B131
100
AcDbEntity
  8
0
100
AcDbBlockBegin
  2
*D15
 70
     1
 10
0.0
 20
0.0
 30
0.0
  3
*D15
  1

  0
LINE
  5
5B3CF
330
5B131
100
AcDbEntity
  8
AM_5
100
AcDbLine
 10
6298.245671953291
 20
-5488.25455167843
 30
0.0
 11
6298.245671953291
 21
-5518.25933690343
 31
0.0
  0
LINE
  5
5B3D0
330
5B131
100
AcDbEntity
  8
AM_5
100
AcDbLine
 10
6285.24567195329
 20
-5494.25933690343
 30
0.0
 11
6285.24567195329
 21
-5518.25933690343
 31
0.0
  0
LINE
  5
5B3D1
330
5B131
100
AcDbEntity
  8
AM_5
100
AcDbLine
 10
6297.245671953291
 20
-5517.25933690343
 30
0.0
 11
6286.24567195329
 21
-5517.25933690343
 31
0.0
  0
INSERT
  5
5B3D2
330
5B131
100
AcDbEntity
  8
AM_5
100
AcDbBlockReference
  2
_Dot
 10
6298.245671953291
 20
-5517.25933690343
 30
0.0
  0
INSERT
  5
5B3D3
330
5B131
100
AcDbEntity
  8
AM_5
100
AcDbBlockReference
  2
_Dot
 10
6285.24567195329
 20
-5517.25933690343
 30
0.0
 50
180.0
  0
MTEXT
  5
5B3D4
330
5B131
100
AcDbEntity
  8
AM_5
 62
     2
100
AcDbMText
 10
6291.745671953291
 20
-5514.65933690343
 30
0.0
 40
3.200000000000001
 41
0.0
 71
     5
 72
     1
  1
L
 73
     1
 44
1.0
1001
ACAD
1000
MTEXTBEGIN
1070
    73
1070
     1
1070
    44
1040
1.0
1070
    74
1070
     0
1000
MTEXTEND
  0
POINT
  5
5B3D5
330
5B131
100
AcDbEntity
  8
Defpoints
 62
     0
100
AcDbPoint
 10
6298.245671953291
 20
-5487.254551678431
 30
0.0
  0
POINT
  5
5B3D6
330
5B131
100
AcDbEntity
  8
Defpoints
 62
     0
100
AcDbPoint
 10
6285.24567195329
 20
-5493.25933690343
 30
0.0
  0
POINT
  5
5B3D7
330
5B131
100
AcDbEntity
  8
Defpoints
 62
     0
100
AcDbPoint
 10
6285.24567195329
 20
-5517.25933690343
 30
0.0
  0
ENDBLK
  5
5B13C
330
5B131
100
AcDbEntity
  8
0
100
AcDbBlockEnd
  0
BLOCK
  5
5B153
330
5B149
100
AcDbEntity
  8
0
100
AcDbBlockBegin
  2
*D16
 70
     1
 10
0.0
 20
0.0
 30
0.0
  3
*D16
  1

  0
LINE
  5
5B363
330
5B149
100
AcDbEntity
  8
AM_5
100
AcDbLine
 10
6298.245671953291
 20
-5488.25455167843
 30
0.0
 11
6298.245671953291
 21
-5526.25933690343
 31
0.0
  0
LINE
  5
5B364
330
5B149
100
AcDbEntity
  8
AM_5
100
AcDbLine
 10
6243.24567195329
 20
-5504.75933690343
 30
0.0
 11
6243.24567195329
 21
-5526.25933690343
 31
0.0
  0
LINE
  5
5B365
330
5B149
100
AcDbEntity
  8
AM_5
100
AcDbLine
 10
6297.245671953291
 20
-5525.25933690343
 30
0.0
 11
6244.24567195329
 21
-5525.25933690343
 31
0.0
  0
INSERT
  5
5B366
330
5B149
100
AcDbEntity
  8
AM_5
100
AcDbBlockReference
  2
_Dot
 10
6298.245671953291
 20
-5525.25933690343
 30
0.0
  0
INSERT
  5
5B367
330
5B149
100
AcDbEntity
  8
AM_5
100
AcDbBlockReference
  2
_Dot
 10
6243.24567195329
 20
-5525.25933690343
 30
0.0
 50
180.0
  0
MTEXT
  5
5B368
330
5B149
100
AcDbEntity
  8
AM_5
 62
     2
100
AcDbMText
 10
6270.245671953291
 20
-5522.65933690343
 30
0.0
 40
3.200000000000001
 41
0.0
 71
     5
 72
     1
  1
（O）
 73
     1
 44
1.0
1001
ACAD
1000
MTEXTBEGIN
1070
    73
1070
     1
1070
    44
1040
1.0
1070
    74
1070
     0
1000
MTEXTEND
  0
POINT
  5
5B369
330
5B149
100
AcDbEntity
  8
Defpoints
 62
     0
100
AcDbPoint
 10
6298.245671953291
 20
-5487.254551678431
 30
0.0
  0
POINT
  5
5B36A
330
5B149
100
AcDbEntity
  8
Defpoints
 62
     0
100
AcDbPoint
 10
6243.24567195329
 20
-5503.75933690343
 30
0.0
  0
POINT
  5
5B36B
330
5B149
100
AcDbEntity
  8
Defpoints
 62
     0
100
AcDbPoint
 10
6243.24567195329
 20
-5525.25933690343
 30
0.0
  0
ENDBLK
  5
5B154
330
5B149
100
AcDbEntity
  8
0
100
AcDbBlockEnd
  0
BLOCK
  5
5B15F
330
5B155
100
AcDbEntity
  8
0
100
AcDbBlockBegin
  2
*D17
 70
     1
 10
0.0
 20
0.0
 30
0.0
  3
*D17
  1

  0
LINE
  5
5B3EA
330
5B155
100
AcDbEntity
  8
AM_5
100
AcDbLine
 10
6243.24567195329
 20
-5504.75933690343
 30
0.0
 11
6243.24567195329
 21
-5518.25933690343
 31
0.0
  0
LINE
  5
5B3EB
330
5B155
100
AcDbEntity
  8
AM_5
100
AcDbLine
 10
6260.24567195329
 20
-5493.75933690343
 30
0.0
 11
6260.24567195329
 21
-5518.25933690343
 31
0.0
  0
LINE
  5
5B3EC
330
5B155
100
AcDbEntity
  8
AM_5
100
AcDbLine
 10
6244.24567195329
 20
-5517.25933690343
 30
0.0
 11
6259.245671953291
 21
-5517.25933690343
 31
0.0
  0
INSERT
  5
5B3ED
330
5B155
100
AcDbEntity
  8
AM_5
100
AcDbBlockReference
  2
_Dot
 10
6243.24567195329
 20
-5517.25933690343
 30
0.0
 50
180.0
  0
INSERT
  5
5B3EE
330
5B155
100
AcDbEntity
  8
AM_5
100
AcDbBlockReference
  2
_Dot
 10
6260.24567195329
 20
-5517.25933690343
 30
0.0
  0
MTEXT
  5
5B3EF
330
5B155
100
AcDbEntity
  8
AM_5
 62
     2
100
AcDbMText
 10
6251.49567195329
 20
-5514.65933690343
 30
0.0
 40
3.200000000000001
 41
0.0
 71
     5
 72
     1
  1
（P）
 73
     1
 44
1.0
1001
ACAD
1000
MTEXTBEGIN
1070
    73
1070
     1
1070
    44
1040
1.0
1070
    74
1070
     0
1000
MTEXTEND
  0
POINT
  5
5B3F0
330
5B155
100
AcDbEntity
  8
Defpoints
 62
     0
100
AcDbPoint
 10
6243.24567195329
 20
-5503.75933690343
 30
0.0
  0
POINT
  5
5B3F1
330
5B155
100
AcDbEntity
  8
Defpoints
 62
     0
100
AcDbPoint
 10
6260.24567195329
 20
-5492.75933690343
 30
0.0
  0
POINT
  5
5B3F2
330
5B155
100
AcDbEntity
  8
Defpoints
 62
     0
100
AcDbPoint
 10
6260.24567195329
 20
-5517.25933690343
 30
0.0
  0
ENDBLK
  5
5B160
330
5B155
100
AcDbEntity
  8
0
100
AcDbBlockEnd
  0
BLOCK
  5
5B16B
330
5B161
100
AcDbEntity
  8
0
100
AcDbBlockBegin
  2
*D18
 70
     1
 10
0.0
 20
0.0
 30
0.0
  3
*D18
  1

  0
LINE
  5
5B20D
330
5B161
100
AcDbEntity
  8
AM_5
100
AcDbLine
 10
6237.695671953289
 20
-5494.75933690343
 30
0.0
 11
6228.245671953289
 21
-5494.75933690343
 31
0.0
  0
LINE
  5
5B20E
330
5B161
100
AcDbEntity
  8
AM_5
100
AcDbLine
 10
6237.695671953289
 20
-5469.75933690343
 30
0.0
 11
6228.245671953289
 21
-5469.75933690343
 31
0.0
  0
LINE
  5
5B20F
330
5B161
100
AcDbEntity
  8
AM_5
100
AcDbLine
 10
6229.24567195329
 20
-5493.75933690343
 30
0.0
 11
6229.24567195329
 21
-5470.75933690343
 31
0.0
  0
INSERT
  5
5B210
330
5B161
100
AcDbEntity
  8
AM_5
100
AcDbBlockReference
  2
_Dot
 10
6229.24567195329
 20
-5494.75933690343
 30
0.0
 50
270.0
  0
INSERT
  5
5B211
330
5B161
100
AcDbEntity
  8
AM_5
100
AcDbBlockReference
  2
_Dot
 10
6229.24567195329
 20
-5469.75933690343
 30
0.0
 50
90.0
  0
MTEXT
  5
5B212
330
5B161
100
AcDbEntity
  8
AM_5
 62
     2
100
AcDbMText
 10
6226.49329100091
 20
-5482.259336903428
 30
0.0
 40
3.200000000000001
 41
0.0
 71
     5
 72
     1
  1
Q
 11
0.0000000000000001
 21
1.0
 31
0.0
 73
     1
 44
1.0
1001
ACAD
1000
MTEXTBEGIN
1070
    73
1070
     1
1070
    44
1040
1.0
1070
    74
1070
     0
1000
MTEXTEND
  0
POINT
  5
5B213
330
5B161
100
AcDbEntity
  8
Defpoints
 62
     0
100
AcDbPoint
 10
6238.695671953291
 20
-5494.75933690343
 30
0.0
  0
POINT
  5
5B214
330
5B161
100
AcDbEntity
  8
Defpoints
 62
     0
100
AcDbPoint
 10
6238.695671953291
 20
-5469.75933690343
 30
0.0
  0
POINT
  5
5B215
330
5B161
100
AcDbEntity
  8
Defpoints
 62
     0
100
AcDbPoint
 10
6229.24567195329
 20
-5469.75933690343
 30
0.0
  0
ENDBLK
  5
5B16C
330
5B161
100
AcDbEntity
  8
0
100
AcDbBlockEnd
  0
BLOCK
  5
5B183
330
5B179
100
AcDbEntity
  8
0
100
AcDbBlockBegin
  2
*D19
 70
     1
 10
0.0
 20
0.0
 30
0.0
  3
*D19
  1

  0
LINE
  5
5B3D8
330
5B179
100
AcDbEntity
  8
AM_5
100
AcDbLine
 10
6357.245671954728
 20
-5470.759336884868
 30
0.0
 11
6357.245671954728
 21
-5446.25933690343
 31
0.0
  0
LINE
  5
5B3D9
330
5B179
100
AcDbEntity
  8
AM_5
100
AcDbLine
 10
6285.24567195329
 20
-5470.25933690343
 30
0.0
 11
6285.24567195329
 21
-5446.25933690343
 31
0.0
  0
LINE
  5
5B3DA
330
5B179
100
AcDbEntity
  8
AM_5
100
AcDbLine
 10
6356.245671954727
 20
-5447.259336903431
 30
0.0
 11
6286.24567195329
 21
-5447.259336903431
 31
0.0
  0
INSERT
  5
5B3DB
330
5B179
100
AcDbEntity
  8
AM_5
100
AcDbBlockReference
  2
_Dot
 10
6357.245671954728
 20
-5447.259336903431
 30
0.0
  0
INSERT
  5
5B3DC
330
5B179
100
AcDbEntity
  8
AM_5
100
AcDbBlockReference
  2
_Dot
 10
6285.24567195329
 20
-5447.259336903431
 30
0.0
 50
180.0
  0
MTEXT
  5
5B3DD
330
5B179
100
AcDbEntity
  8
AM_5
 62
     2
100
AcDbMText
 10
6320.745671954009
 20
-5444.659336903431
 30
0.0
 40
3.200000000000001
 41
0.0
 71
     5
 72
     1
  1
（A）
 73
     1
 44
1.0
1001
ACAD
1000
MTEXTBEGIN
1070
    73
1070
     1
1070
    44
1040
1.0
1070
    74
1070
     0
1000
MTEXTEND
  0
POINT
  5
5B3DE
330
5B179
100
AcDbEntity
  8
Defpoints
 62
     0
100
AcDbPoint
 10
6357.245671954728
 20
-5471.759336884868
 30
0.0
  0
POINT
  5
5B3DF
330
5B179
100
AcDbEntity
  8
Defpoints
 62
     0
100
AcDbPoint
 10
6285.24567195329
 20
-5471.25933690343
 30
0.0
  0
POINT
  5
5B3E0
330
5B179
100
AcDbEntity
  8
Defpoints
 62
     0
100
AcDbPoint
 10
6285.24567195329
 20
-5447.259336903431
 30
0.0
  0
ENDBLK
  5
5B184
330
5B179
100
AcDbEntity
  8
0
100
AcDbBlockEnd
  0
BLOCK
  5
5B18F
330
5B185
100
AcDbEntity
  8
0
100
AcDbBlockBegin
  2
*D20
 70
     1
 10
0.0
 20
0.0
 30
0.0
  3
*D20
  1

  0
LINE
  5
5B39D
330
5B185
100
AcDbEntity
  8
AM_5
100
AcDbLine
 10
6280.419453353291
 20
-5456.25933690343
 30
0.0
 11
6374.24567195329
 21
-5456.25933690343
 31
0.0
  0
LINE
  5
5B39E
330
5B185
100
AcDbEntity
  8
AM_5
100
AcDbLine
 10
6280.419453353291
 20
-5508.259336903431
 30
0.0
 11
6374.24567195329
 21
-5508.259336903431
 31
0.0
  0
LINE
  5
5B39F
330
5B185
100
AcDbEntity
  8
AM_5
100
AcDbLine
 10
6373.245671953291
 20
-5457.25933690343
 30
0.0
 11
6373.245671953291
 21
-5507.25933690343
 31
0.0
  0
INSERT
  5
5B3A0
330
5B185
100
AcDbEntity
  8
AM_5
100
AcDbBlockReference
  2
_Dot
 10
6373.245671953291
 20
-5456.25933690343
 30
0.0
 50
90.0
  0
INSERT
  5
5B3A1
330
5B185
100
AcDbEntity
  8
AM_5
100
AcDbBlockReference
  2
_Dot
 10
6373.245671953291
 20
-5508.259336903431
 30
0.0
 50
270.0
  0
MTEXT
  5
5B3A2
330
5B185
100
AcDbEntity
  8
AM_5
 62
     2
100
AcDbMText
 10
6370.64567195329
 20
-5482.259336903428
 30
0.0
 40
3.200000000000001
 41
0.0
 71
     5
 72
     1
  1
（B）
 11
0.0000000000000001
 21
1.0
 31
0.0
 73
     1
 44
1.0
1001
ACAD
1000
MTEXTBEGIN
1070
    73
1070
     1
1070
    44
1040
1.0
1070
    74
1070
     0
1000
MTEXTEND
  0
POINT
  5
5B3A3
330
5B185
100
AcDbEntity
  8
Defpoints
 62
     0
100
AcDbPoint
 10
6279.419453353291
 20
-5456.25933690343
 30
0.0
  0
POINT
  5
5B3A4
330
5B185
100
AcDbEntity
  8
Defpoints
 62
     0
100
AcDbPoint
 10
6279.419453353291
 20
-5508.259336903431
 30
0.0
  0
POINT
  5
5B3A5
330
5B185
100
AcDbEntity
  8
Defpoints
 62
     0
100
AcDbPoint
 10
6373.245671953291
 20
-5508.259336903431
 30
0.0
  0
ENDBLK
  5
5B190
330
5B185
100
AcDbEntity
  8
0
100
AcDbBlockEnd
  0
BLOCK
  5
5B19B
330
5B191
100
AcDbEntity
  8
0
100
AcDbBlockBegin
  2
*D21
 70
     1
 10
0.0
 20
0.0
 30
0.0
  3
*D21
  1

  0
LINE
  5
5B3C3
330
5B191
100
AcDbEntity
  8
AM_5
100
AcDbLine
 10
6358.245671938345
 20
-5493.259336892546
 30
0.0
 11
6366.24567195329
 21
-5493.259336892546
 31
0.0
  0
LINE
  5
5B3C4
330
5B191
100
AcDbEntity
  8
AM_5
100
AcDbLine
 10
6358.245671953291
 20
-5471.25933690343
 30
0.0
 11
6366.24567195329
 21
-5471.25933690343
 31
0.0
  0
LINE
  5
5B3C5
330
5B191
100
AcDbEntity
  8
AM_5
100
AcDbLine
 10
6365.24567195329
 20
-5492.259336892546
 30
0.0
 11
6365.24567195329
 21
-5472.25933690343
 31
0.0
  0
INSERT
  5
5B3C6
330
5B191
100
AcDbEntity
  8
AM_5
100
AcDbBlockReference
  2
_Dot
 10
6365.24567195329
 20
-5493.259336892546
 30
0.0
 50
270.0
  0
INSERT
  5
5B3C7
330
5B191
100
AcDbEntity
  8
AM_5
100
AcDbBlockReference
  2
_Dot
 10
6365.24567195329
 20
-5471.25933690343
 30
0.0
 50
90.0
  0
MTEXT
  5
5B3C8
330
5B191
100
AcDbEntity
  8
AM_5
 62
     2
100
AcDbMText
 10
6362.645671953291
 20
-5482.259336903428
 30
0.0
 40
3.200000000000001
 41
0.0
 71
     5
 72
     1
  1
C
 11
0.0000000000000001
 21
1.0
 31
0.0
 73
     1
 44
1.0
1001
ACAD
1000
MTEXTBEGIN
1070
    73
1070
     1
1070
    44
1040
1.0
1070
    74
1070
     0
1000
MTEXTEND
  0
POINT
  5
5B3C9
330
5B191
100
AcDbEntity
  8
Defpoints
 62
     0
100
AcDbPoint
 10
6357.245671938345
 20
-5493.259336892546
 30
0.0
  0
POINT
  5
5B3CA
330
5B191
100
AcDbEntity
  8
Defpoints
 62
     0
100
AcDbPoint
 10
6357.245671953291
 20
-5471.25933690343
 30
0.0
  0
POINT
  5
5B3CB
330
5B191
100
AcDbEntity
  8
Defpoints
 62
     0
100
AcDbPoint
 10
6365.24567195329
 20
-5471.25933690343
 30
0.0
  0
ENDBLK
  5
5B19C
330
5B191
100
AcDbEntity
  8
0
100
AcDbBlockEnd
  0
BLOCK
  5
5B410
330
5B409
100
AcDbEntity
  8
0
100
AcDbBlockBegin
  2
*D22
 70
     1
 10
0.0
 20
0.0
 30
0.0
  3
*D22
  1

  0
LINE
  5
5B43F
330
5B409
100
AcDbEntity
  8
AM_5
100
AcDbLine
 10
6339.053247459414
 20
-5498.679629560126
 30
0.0
 11
6329.306580792747
 21
-5498.679629560125
 31
0.0
  0
LINE
  5
5B440
330
5B409
100
AcDbEntity
  8
AM_5
100
AcDbLine
 10
6329.306580792747
 20
-5498.679629560125
 30
0.0
 11
6317.587212385426
 21
-5484.993781710812
 31
0.0
  0
LINE
  5
5B441
330
5B409
100
AcDbEntity
  8
AM_5
100
AcDbLine
 10
6312.90413152115
 20
-5479.524892096041
 30
0.0
 11
6312.253703623334
 21
-5478.765324093988
 31
0.0
  0
MTEXT
  5
5B442
330
5B409
100
AcDbEntity
  8
AM_5
 62
     2
100
AcDbMText
 10
6334.679914126081
 20
-5496.079629560128
 30
0.0
 40
3.2
 41
0.0
 71
     5
 72
     1
  1
2-%%cM
 73
     1
 44
1.0
1001
ACAD
1000
MTEXTBEGIN
1070
    73
1070
     1
1070
    44
1040
1.0
1070
    74
1070
     0
1000
MTEXTEND
  0
LINE
  5
5B443
330
5B409
100
AcDbEntity
  8
AM_5
100
AcDbLine
 10
6313.554559418967
 20
-5480.284460098094
 30
0.0
 11
6316.936784487608
 21
-5484.23421370876
 31
0.0
  0
INSERT
  5
5B444
330
5B409
100
AcDbEntity
  8
AM_5
100
AcDbBlockReference
  2
_Dot
 10
6313.554559418967
 20
-5480.284460098094
 30
0.0
 50
310.5738713077287
  0
INSERT
  5
5B445
330
5B409
100
AcDbEntity
  8
AM_5
100
AcDbBlockReference
  2
_Dot
 10
6316.936784487608
 20
-5484.23421370876
 30
0.0
 50
130.5738713077287
  0
POINT
  5
5B446
330
5B409
100
AcDbEntity
  8
Defpoints
 62
     0
100
AcDbPoint
 10
6316.936784487608
 20
-5484.23421370876
 30
0.0
  0
POINT
  5
5B447
330
5B409
100
AcDbEntity
  8
Defpoints
 62
     0
100
AcDbPoint
 10
6313.554559418967
 20
-5480.284460098094
 30
0.0
  0
ENDBLK
  5
5B411
330
5B409
100
AcDbEntity
  8
0
100
AcDbBlockEnd
  0
BLOCK
  5
5B453
330
5B449
100
AcDbEntity
  8
0
100
AcDbBlockBegin
  2
*D23
 70
     1
 10
0.0
 20
0.0
 30
0.0
  3
*D23
  1

  0
LINE
  5
5B467
330
5B449
100
AcDbEntity
  8
AM_5
100
AcDbLine
 10
6224.872154373479
 20
-5507.025298470518
 30
0.0
 11
6234.512154373483
 21
-5507.025298470519
 31
0.0
  0
LINE
  5
5B468
330
5B449
100
AcDbEntity
  8
AM_5
100
AcDbLine
 10
6234.512154373483
 20
-5507.025298470519
 30
0.0
 11
6241.157631133614
 21
-5497.691927146769
 31
0.0
  0
LINE
  5
5B469
330
5B449
100
AcDbEntity
  8
AM_5
100
AcDbLine
 10
6245.333712772957
 20
-5491.826746660081
 30
0.0
 11
6245.913724111755
 21
-5491.012138259153
 31
0.0
  0
MTEXT
  5
5B46A
330
5B449
100
AcDbEntity
  8
AM_5
 62
     2
100
AcDbMText
 10
6229.138821040146
 20
-5504.425298470518
 30
0.0
 40
3.2
 41
0.0
 71
     5
 72
     1
  1
2-%%cR
 73
     1
 44
1.0
1001
ACAD
1000
MTEXTBEGIN
1070
    73
1070
     1
1070
    44
1040
1.0
1070
    74
1070
     0
1000
MTEXTEND
  0
LINE
  5
5B46B
330
5B449
100
AcDbEntity
  8
AM_5
100
AcDbLine
 10
6244.753701434158
 20
-5492.641355061012
 30
0.0
 11
6241.737642472412
 21
-5496.877318745839
 31
0.0
  0
INSERT
  5
5B46C
330
5B449
100
AcDbEntity
  8
AM_5
100
AcDbBlockReference
  2
_Dot
 10
6244.753701434158
 20
-5492.641355061012
 30
0.0
 50
234.5486598462616
  0
INSERT
  5
5B46D
330
5B449
100
AcDbEntity
  8
AM_5
100
AcDbBlockReference
  2
_Dot
 10
6241.737642472412
 20
-5496.877318745839
 30
0.0
 50
54.5486598462616
  0
POINT
  5
5B46E
330
5B449
100
AcDbEntity
  8
Defpoints
 62
     0
100
AcDbPoint
 10
6241.737642472412
 20
-5496.877318745839
 30
0.0
  0
POINT
  5
5B46F
330
5B449
100
AcDbEntity
  8
Defpoints
 62
     0
100
AcDbPoint
 10
6244.753701434158
 20
-5492.641355061012
 30
0.0
  0
ENDBLK
  5
5B454
330
5B449
100
AcDbEntity
  8
0
100
AcDbBlockEnd
  0
ENDSEC
  0
SECTION
  2
ENTITIES
  0
TEXT
  5
31B30
330
1F
100
AcDbEntity
  8
AM_6
 60
     1
100
AcDbText
 10
3408.785415022811
 20
1879.970675238635
 30
0.0
 40
2.5
  1
!GENTITLE-INSERT
100
AcDbText
  0
TEXT
  5
31B31
330
1F
100
AcDbEntity
  8
AM_6
 60
     1
100
AcDbText
 10
3000.285415022811
 20
1871.470675238635
 30
0.0
 40
2.5
  1
!GENTITLE-LL
100
AcDbText
  0
TEXT
  5
31B32
330
1F
100
AcDbEntity
  8
AM_6
 60
     1
100
AcDbText
 10
3420.285415022811
 20
2168.470675238635
 30
0.0
 40
2.5
  1
!GENTITLE-RU
100
AcDbText
  0
TEXT
  5
31B33
330
1F
100
AcDbEntity
  8
AM_6
 60
     1
100
AcDbText
 10
3420.285415022811
 20
2168.470675238635
 30
0.0
 40
2.5
  1
!GENTITLE-MAX
100
AcDbText
  0
TEXT
  5
31B3B
330
1F
100
AcDbEntity
  8
AM_6
 60
     1
100
AcDbText
 10
3000.285415022811
 20
1871.470675238635
 30
0.0
 40
2.5
  1
!GENTITLE-LL
100
AcDbText
  0
TEXT
  5
31B3C
330
1F
100
AcDbEntity
  8
AM_6
 60
     1
100
AcDbText
 10
3408.785415022811
 20
2159.970675238636
 30
0.0
 40
2.5
  1
!GENTITLE-RU
100
AcDbText
  0
TEXT
  5
31B3D
330
1F
100
AcDbEntity
  8
AM_6
 60
     1
100
AcDbText
 10
3420.285415022811
 20
2168.470675238635
 30
0.0
 40
2.5
  1
!GENTITLE-MAX
100
AcDbText
  0
TEXT
  5
31B3E
330
1F
100
AcDbEntity
  8
AM_6
 60
     1
100
AcDbText
 10
3408.785415022811
 20
1879.970675238635
 30
0.0
 40
2.5
  1
!GENTITLE-INSERT
100
AcDbText
  0
TEXT
  5
32D1D
330
1F
100
AcDbEntity
  8
AM_6
 60
     1
100
AcDbText
 10
3234.949399973154
 20
1839.277532086519
 30
0.0
 40
2.5
  1
!GENTITLE-INSERT
100
AcDbText
  0
TEXT
  5
32D1E
330
1F
100
AcDbEntity
  8
AM_6
 60
     1
100
AcDbText
 10
3246.449399973154
 20
2040.77753208652
 30
0.0
 40
2.5
  1
!GENTITLE-MAX
100
AcDbText
  0
TEXT
  5
32D1F
330
1F
100
AcDbEntity
  8
AM_6
 60
     1
100
AcDbText
 10
3246.449399973154
 20
2040.77753208652
 30
0.0
 40
2.5
  1
!GENTITLE-RU
100
AcDbText
  0
TEXT
  5
32D21
330
1F
100
AcDbEntity
  8
AM_6
 60
     1
100
AcDbText
 10
2949.449399973154
 20
1830.777532086519
 30
0.0
 40
2.5
  1
!GENTITLE-LL
100
AcDbText
  0
TEXT
  5
34534
330
1F
100
AcDbEntity
  8
AM_6
 60
     1
100
AcDbText
 10
3774.506320898737
 20
958.0958490755065
 30
0.0
 40
2.5
  1
!GENTITLE-INSERT
100
AcDbText
  0
TEXT
  5
34535
330
1F
100
AcDbEntity
  8
AM_6
 60
     1
100
AcDbText
 10
3786.006320898738
 20
1159.595849075506
 30
0.0
 40
2.5
  1
!GENTITLE-MAX
100
AcDbText
  0
TEXT
  5
34536
330
1F
100
AcDbEntity
  8
AM_6
 60
     1
100
AcDbText
 10
3786.006320898738
 20
1159.595849075506
 30
0.0
 40
2.5
  1
!GENTITLE-RU
100
AcDbText
  0
TEXT
  5
34538
330
1F
100
AcDbEntity
  8
AM_6
 60
     1
100
AcDbText
 10
3489.006320898738
 20
949.5958490755064
 30
0.0
 40
2.5
  1
!GENTITLE-LL
100
AcDbText
  0
TEXT
  5
4E0E8
330
1F
100
AcDbEntity
  8
AM_6
 60
     1
100
AcDbText
 10
5957.394900433246
 20
-5651.939004350452
 30
0.0
 40
2.5
  1
!GENTITLE-INSERT
100
AcDbText
  0
TEXT
  5
4E0E9
330
1F
100
AcDbEntity
  8
AM_6
 60
     1
100
AcDbText
 10
5548.894900433246
 20
-5660.439004350451
 30
0.0
 40
2.5
  1
!GENTITLE-LL
100
AcDbText
  0
TEXT
  5
4E0EA
330
1F
100
AcDbEntity
  8
AM_6
 60
     1
100
AcDbText
 10
5968.894900433246
 20
-5363.439004350452
 30
0.0
 40
2.5
  1
!GENTITLE-RU
100
AcDbText
  0
TEXT
  5
4E0EB
330
1F
100
AcDbEntity
  8
AM_6
 60
     1
100
AcDbText
 10
5968.894900433246
 20
-5363.439004350452
 30
0.0
 40
2.5
  1
!GENTITLE-MAX
100
AcDbText
  0
TEXT
  5
4E0F3
330
1F
100
AcDbEntity
  8
AM_6
 60
     1
100
AcDbText
 10
5548.894900433246
 20
-5660.439004350451
 30
0.0
 40
2.5
  1
!GENTITLE-LL
100
AcDbText
  0
TEXT
  5
4E0F4
330
1F
100
AcDbEntity
  8
AM_6
 60
     1
100
AcDbText
 10
5957.394900433246
 20
-5371.939004350451
 30
0.0
 40
2.5
  1
!GENTITLE-RU
100
AcDbText
  0
TEXT
  5
4E0F5
330
1F
100
AcDbEntity
  8
AM_6
 60
     1
100
AcDbText
 10
5968.894900433246
 20
-5363.439004350452
 30
0.0
 40
2.5
  1
!GENTITLE-MAX
100
AcDbText
  0
TEXT
  5
4E0F6
330
1F
100
AcDbEntity
  8
AM_6
 60
     1
100
AcDbText
 10
5957.394900433246
 20
-5651.939004350452
 30
0.0
 40
2.5
  1
!GENTITLE-INSERT
100
AcDbText
  0
TEXT
  5
5183F
330
1F
100
AcDbEntity
  8
AM_6
 60
     1
100
AcDbText
 10
5973.602012689372
 20
109.7385382224183
 30
0.0
 40
2.5
  1
!GENTITLE-INSERT
100
AcDbText
  0
TEXT
  5
51840
330
1F
100
AcDbEntity
  8
AM_6
 60
     1
100
AcDbText
 10
5565.102012689372
 20
101.2385382224183
 30
0.0
 40
2.5
  1
!GENTITLE-LL
100
AcDbText
  0
TEXT
  5
51841
330
1F
100
AcDbEntity
  8
AM_6
 60
     1
100
AcDbText
 10
5985.102012689372
 20
398.2385382224184
 30
0.0
 40
2.5
  1
!GENTITLE-RU
100
AcDbText
  0
TEXT
  5
51842
330
1F
100
AcDbEntity
  8
AM_6
 60
     1
100
AcDbText
 10
5985.102012689372
 20
398.2385382224184
 30
0.0
 40
2.5
  1
!GENTITLE-MAX
100
AcDbText
  0
TEXT
  5
5184A
330
1F
100
AcDbEntity
  8
AM_6
 60
     1
100
AcDbText
 10
5565.102012689372
 20
101.2385382224183
 30
0.0
 40
2.5
  1
!GENTITLE-LL
100
AcDbText
  0
TEXT
  5
5184B
330
1F
100
AcDbEntity
  8
AM_6
 60
     1
100
AcDbText
 10
5973.602012689372
 20
389.7385382224184
 30
0.0
 40
2.5
  1
!GENTITLE-RU
100
AcDbText
  0
TEXT
  5
5184C
330
1F
100
AcDbEntity
  8
AM_6
 60
     1
100
AcDbText
 10
5985.102012689372
 20
398.2385382224184
 30
0.0
 40
2.5
  1
!GENTITLE-MAX
100
AcDbText
  0
TEXT
  5
5184D
330
1F
100
AcDbEntity
  8
AM_6
 60
     1
100
AcDbText
 10
5973.602012689372
 20
109.7385382224183
 30
0.0
 40
2.5
  1
!GENTITLE-INSERT
100
AcDbText
  0
LINE
  5
5AFDD
330
1F
100
AcDbEntity
  8
AM_0
  6
中線
 48
0.5
370
    30
100
AcDbLine
 10
6255.24567195329
 20
-5552.609777669037
 30
0.0
 11
6237.24567195329
 21
-5552.609777669037
 31
0.0
  0
ARC
  5
5AFDE
330
1F
100
AcDbEntity
  8
AM_0
  6
中線
 48
0.5
370
    30
100
AcDbCircle
 10
6255.24567195329
 20
-5550.609777669038
 30
0.0
 40
2.0
100
AcDbArc
 50
270.0
 51
293.0825810920246
  0
ARC
  5
5AFDF
330
1F
100
AcDbEntity
  8
AM_0
  6
中線
 48
0.5
370
    30
100
AcDbCircle
 10
6255.74567195329
 20
-5550.609777669038
 30
0.0
 40
4.0
100
AcDbArc
 50
27.93257372400944
 51
51.5002401660044
  0
LINE
  5
5AFE0
330
1F
100
AcDbEntity
  8
AM_7
  6
中心線1
 48
0.3
370
    13
100
AcDbLine
 10
6243.245671953292
 20
-5549.609777669037
 30
0.0
 11
6243.245671953292
 21
-5557.609777669037
 31
0.0
  0
LINE
  5
5AFE1
330
1F
100
AcDbEntity
  8
AM_0
  6
中線
 48
0.5
370
    30
100
AcDbLine
 10
6256.79061136129
 20
-5548.883602203037
 30
0.0
 11
6249.684202545637
 21
-5543.168279758898
 31
0.0
  0
LINE
  5
5AFE2
330
1F
100
AcDbEntity
  8
AM_0
  6
中線
 48
0.5
370
    30
100
AcDbLine
 10
6250.937626350523
 20
-5541.609777669037
 30
0.0
 11
6249.684202545523
 21
-5543.168279759037
 31
0.0
  0
LINE
  5
5AFE3
330
1F
100
AcDbEntity
  8
AM_0
  6
中線
 48
0.5
370
    30
100
AcDbLine
 10
6250.937626350523
 20
-5541.609777669037
 30
0.0
 11
6258.252519563291
 21
-5547.492773488038
 31
0.0
  0
LINE
  5
5AFE4
330
1F
100
AcDbEntity
  8
AM_0
  6
中線
 48
0.5
370
    30
100
AcDbLine
 10
6284.24567195329
 20
-5542.609777669038
 30
0.0
 11
6284.24567195329
 21
-5546.866236517037
 31
0.0
  0
LINE
  5
5AFE5
330
1F
100
AcDbEntity
  8
AM_0
  6
中線
 48
0.5
370
    30
100
AcDbLine
 10
6237.24567195329
 20
-5552.609777669037
 30
0.0
 11
6237.24567195329
 21
-5554.609777669037
 31
0.0
  0
LINE
  5
5AFE6
330
1F
100
AcDbEntity
  8
AM_0
  6
中線
 48
0.5
370
    30
100
AcDbLine
 10
6237.24567195329
 20
-5554.609777669037
 30
0.0
 11
6255.74567195329
 21
-5554.609777669037
 31
0.0
  0
LINE
  5
5AFE7
330
1F
100
AcDbEntity
  8
AM_0
  6
中線
 48
0.5
370
    30
100
AcDbLine
 10
6249.24567195329
 20
-5554.609777669037
 30
0.0
 11
6249.24567195329
 21
-5552.609777669037
 31
0.0
  0
LINE
  5
5AFE8
330
1F
100
AcDbEntity
  8
AM_0
  6
中線
 48
0.5
370
    30
100
AcDbLine
 10
6284.24567195329
 20
-5550.376116360038
 30
0.0
 11
6284.24567195329
 21
-5554.609777669037
 31
0.0
  0
LINE
  5
5AFE9
330
1F
100
AcDbEntity
  8
AM_0
  6
中線
 48
0.5
370
    30
100
AcDbLine
 10
6284.24567195329
 20
-5554.609777669037
 30
0.0
 11
6322.245671953291
 21
-5554.609777669037
 31
0.0
  0
LINE
  5
5AFEA
330
1F
100
AcDbEntity
  8
AM_7
  6
中心線1
 48
0.3
370
    13
100
AcDbLine
 10
6314.245671953292
 20
-5550.109777669038
 30
0.0
 11
6314.24567195329
 21
-5557.609777669037
 31
0.0
  0
LINE
  5
5AFEB
330
1F
100
AcDbEntity
  8
AM_7
  6
中心線1
 48
0.3
370
    13
100
AcDbLine
 10
6297.245671953291
 20
-5557.609777669037
 30
0.0
 11
6297.245671953292
 21
-5550.109777669038
 31
0.0
  0
ARC
  5
5AFEC
330
1F
100
AcDbEntity
  8
AM_0
  6
中線
 48
0.5
370
    30
100
AcDbCircle
 10
6317.186376235291
 20
-5555.609777669038
 30
0.0
 40
5.0
100
AcDbArc
 50
30.00000000001032
 51
32.00780405799541
  0
LINE
  5
5AFED
330
1F
100
AcDbEntity
  8
AM_0
  6
中線
 48
0.5
370
    30
100
AcDbLine
 10
6322.245671953291
 20
-5553.109777669038
 30
0.0
 11
6321.516503254291
 21
-5553.109777669038
 31
0.0
  0
LINE
  5
5AFEE
330
1F
100
AcDbEntity
  8
AM_0
  6
中線
 48
0.5
370
    30
100
AcDbLine
 10
6322.245671953291
 20
-5554.609777669037
 30
0.0
 11
6322.245671953291
 21
-5553.109777669038
 31
0.0
  0
LINE
  5
5AFEF
330
1F
100
AcDbEntity
  8
AM_0
  6
中線
 48
0.5
370
    30
100
AcDbLine
 10
6355.177701242291
 20
-5544.713659899038
 30
0.0
 11
6339.427350963291
 21
-5549.697360897038
 31
0.0
  0
LINE
  5
5AFF0
330
1F
100
AcDbEntity
  8
AM_0
  6
中線
 48
0.5
370
    30
100
AcDbLine
 10
6304.431209072291
 20
-5538.234664998038
 30
0.0
 11
6304.843617443291
 21
-5536.277647027038
 31
0.0
  0
LINE
  5
5AFF1
330
1F
100
AcDbEntity
  8
AM_0
  6
中線
 48
0.5
370
    30
100
AcDbLine
 10
6292.689101251291
 20
-5535.760214773038
 30
0.0
 11
6304.431209072291
 21
-5538.234664998038
 31
0.0
  0
ARC
  5
5AFF2
330
1F
100
AcDbEntity
  8
AM_0
  6
中線
 48
0.5
370
    30
100
AcDbCircle
 10
6291.245671953291
 20
-5542.609777669038
 30
0.0
 40
7.0
100
AcDbArc
 50
78.09999999998654
 51
216.3984186969857
  0
ARC
  5
5AFF3
330
1F
100
AcDbEntity
  8
AM_0
  6
中線
 48
0.5
370
    30
100
AcDbCircle
 10
6302.575371404291
 20
-5547.041245863037
 30
0.0
 40
2.149999999999999
100
AcDbArc
 50
249.3453741860308
 51
138.2127060210018
  0
LINE
  5
5AFF4
330
1F
100
AcDbEntity
  8
AM_0
  6
中線
 48
0.5
370
    30
100
AcDbLine
 10
6290.93974512029
 20
-5549.872786470038
 30
0.0
 11
6301.315582253291
 21
-5553.256228089037
 31
0.0
  0
ARC
  5
5AFF5
330
1F
100
AcDbEntity
  8
AM_0
  6
中線
 48
0.5
370
    30
100
AcDbCircle
 10
6309.841186252291
 20
-5527.111169733037
 30
0.0
 40
27.5
100
AcDbArc
 50
251.9394458760075
 51
280.2719267070115
  0
LINE
  5
5AFF6
330
1F
100
AcDbEntity
  8
AM_0
  6
中線
 48
0.5
370
    30
100
AcDbLine
 10
6304.843617443291
 20
-5536.277647027038
 30
0.0
 11
6339.737496430291
 21
-5543.630940662037
 31
0.0
  0
LINE
  5
5AFF7
330
1F
100
AcDbEntity
  8
AM_0
  6
中線
 48
0.5
370
    30
100
AcDbLine
 10
6342.32189950529
 20
-5543.490974395037
 30
0.0
 11
6356.475866289291
 21
-5539.029051952037
 31
0.0
  0
ARC
  5
5AFF8
330
1F
100
AcDbEntity
  8
AM_0
  6
中線
 48
0.5
370
    30
100
AcDbCircle
 10
6354.245671953291
 20
-5541.862112704037
 30
0.0
 40
3.0
100
AcDbArc
 50
288.1
 51
18.09999999999998
  0
LINE
  5
5AFF9
330
1F
100
AcDbEntity
  8
AM_0
  6
中線
 48
0.5
370
    30
100
AcDbLine
 10
6356.475866289291
 20
-5539.029051952037
 30
0.0
 11
6357.097219148291
 21
-5540.930083415037
 31
0.0
  0
ARC
  5
5AFFA
330
1F
100
AcDbEntity
  8
AM_0
  6
中線
 48
0.5
370
    30
100
AcDbCircle
 10
6340.76851735729
 20
-5538.738395737038
 30
0.0
 40
5.0
100
AcDbArc
 50
258.0999999999865
 51
288.1
  0
LINE
  5
5AFFB
330
1F
100
AcDbEntity
  8
AM_0
  6
中線
 48
0.5
370
    30
100
AcDbLine
 10
6288.245671953291
 20
-5470.65933690343
 30
0.0
 11
6288.245671953291
 21
-5471.25933690343
 31
0.0
  0
LINE
  5
5AFFC
330
1F
100
AcDbEntity
  8
AM_0
  6
中線
 48
0.5
370
    30
100
AcDbLine
 10
6293.745671953291
 20
-5491.25933690343
 30
0.0
 11
6293.74567195329
 21
-5491.759336903431
 31
0.0
  0
LINE
  5
5AFFD
330
1F
100
AcDbEntity
  8
AM_0
  6
中線
 48
0.5
370
    30
100
AcDbLine
 10
6294.245671953291
 20
-5470.65933690343
 30
0.0
 11
6288.245671953291
 21
-5470.65933690343
 31
0.0
  0
LINE
  5
5AFFE
330
1F
100
AcDbEntity
  8
AM_0
  6
中線
 48
0.5
370
    30
100
AcDbLine
 10
6314.74498950229
 20
-5554.170414247037
 30
0.0
 11
6339.427350963291
 21
-5549.697360897038
 31
0.0
  0
LINE
  5
5AFFF
330
1F
100
AcDbEntity
  8
AM_0
  6
中線
 48
0.5
370
    30
100
AcDbLine
 10
6288.74567195329
 20
-5491.759336903431
 30
0.0
 11
6288.745671953291
 21
-5491.25933690343
 31
0.0
  0
LINE
  5
5B000
330
1F
100
AcDbEntity
  8
AM_0
  6
中線
 48
0.5
370
    30
100
AcDbLine
 10
6260.24567195329
 20
-5492.75933690343
 30
0.0
 11
6249.24567195329
 21
-5492.75933690343
 31
0.0
  0
LINE
  5
5B001
330
1F
100
AcDbEntity
  8
AM_0
  6
中線
 48
0.5
370
    30
100
AcDbLine
 10
6260.24567195329
 20
-5471.75933690343
 30
0.0
 11
6260.24567195329
 21
-5492.75933690343
 31
0.0
  0
LINE
  5
5B002
330
1F
100
AcDbEntity
  8
AM_0
  6
中線
 48
0.5
370
    30
100
AcDbLine
 10
6249.24567195329
 20
-5469.75933690343
 30
0.0
 11
6249.24567195329
 21
-5471.75933690343
 31
0.0
  0
LINE
  5
5B003
330
1F
100
AcDbEntity
  8
AM_0
  6
中線
 48
0.5
370
    30
100
AcDbLine
 10
6237.24567195329
 20
-5494.75933690343
 30
0.0
 11
6237.24567195329
 21
-5469.75933690343
 31
0.0
  0
ARC
  5
5B004
330
1F
100
AcDbEntity
  8
AM_0
  6
中線
 48
0.5
370
    30
100
AcDbCircle
 10
6243.24567195329
 20
-5469.75933690343
 30
0.0
 40
6.0
100
AcDbArc
 50
0.0
 51
180.0
  0
ARC
  5
5B005
330
1F
100
AcDbEntity
  8
AM_0
  6
中線
 48
0.5
370
    30
100
AcDbCircle
 10
6243.24567195329
 20
-5494.75933690343
 30
0.0
 40
6.0
100
AcDbArc
 50
180.0
 51
0.0
  0
LINE
  5
5B006
330
1F
100
AcDbEntity
  8
AM_7
  6
中心線1
 48
0.5
370
    13
100
AcDbLine
 10
6238.695671953291
 20
-5494.75933690343
 30
0.0
 11
6247.795671953291
 21
-5494.75933690343
 31
0.0
  0
LINE
  5
5B007
330
1F
100
AcDbEntity
  8
AM_7
  6
中心線1
 48
0.5
370
    13
100
AcDbLine
 10
6247.795671953291
 20
-5469.75933690343
 30
0.0
 11
6238.695671953291
 21
-5469.75933690343
 31
0.0
  0
LINE
  5
5B008
330
1F
100
AcDbEntity
  8
AM_7
  6
中心線1
 48
0.5
370
    13
100
AcDbLine
 10
6243.24567195329
 20
-5503.75933690343
 30
0.0
 11
6243.24567195329
 21
-5460.75933690343
 31
0.0
  0
LINE
  5
5B009
330
1F
100
AcDbEntity
  8
AM_0
  6
中線
 48
0.5
370
    30
100
AcDbLine
 10
6293.745671953291
 20
-5472.859336903431
 30
0.0
 11
6293.745671953291
 21
-5473.259336903431
 31
0.0
  0
CIRCLE
  5
5B00A
330
1F
100
AcDbEntity
  8
AM_0
  6
中線
 48
0.5
370
    30
100
AcDbCircle
 10
6243.24567195329
 20
-5469.75933690343
 30
0.0
 40
2.6
  0
CIRCLE
  5
5B00B
330
1F
100
AcDbEntity
  8
AM_0
  6
中線
 48
0.5
370
    30
100
AcDbCircle
 10
6243.24567195329
 20
-5494.75933690343
 30
0.0
 40
2.6
  0
LINE
  5
5B00C
330
1F
100
AcDbEntity
  8
AM_0
  6
中線
 48
0.5
370
    30
100
AcDbLine
 10
6249.24567195329
 20
-5492.75933690343
 30
0.0
 11
6249.24567195329
 21
-5494.75933690343
 31
0.0
  0
LINE
  5
5B00D
330
1F
100
AcDbEntity
  8
AM_0
  6
中線
 48
0.5
370
    30
100
AcDbLine
 10
6294.245671953291
 20
-5471.25933690343
 30
0.0
 11
6294.245671953291
 21
-5470.65933690343
 31
0.0
  0
LINE
  5
5B00E
330
1F
100
AcDbEntity
  8
AM_0
  6
中線
 48
0.5
370
    30
100
AcDbLine
 10
6249.684202545637
 20
-5490.75933690343
 30
0.0
 11
6249.684202545637
 21
-5473.75933690343
 31
0.0
  0
ARC
  5
5B00F
330
1F
100
AcDbEntity
  8
AM_0
  6
中線
 48
0.5
370
    30
100
AcDbCircle
 10
6252.937626350524
 20
-5490.75933690343
 30
0.0
 40
2.0
100
AcDbArc
 50
180.0
 51
270.0
  0
ARC
  5
5B010
330
1F
100
AcDbEntity
  8
AM_0
  6
中線
 48
0.5
370
    30
100
AcDbCircle
 10
6252.937626350524
 20
-5473.75933690343
 30
0.0
 40
2.0
100
AcDbArc
 50
90.0
 51
180.0
  0
ARC
  5
5B011
330
1F
100
AcDbEntity
  8
AM_0
  6
中線
 48
0.5
370
    30
100
AcDbCircle
 10
6251.684202545636
 20
-5473.75933690343
 30
0.0
 40
2.0
100
AcDbArc
 50
90.0
 51
180.0
  0
ARC
  5
5B012
330
1F
100
AcDbEntity
  8
AM_0
  6
中線
 48
0.5
370
    30
100
AcDbCircle
 10
6251.684202545636
 20
-5490.75933690343
 30
0.0
 40
2.0
100
AcDbArc
 50
180.0
 51
270.0
  0
LINE
  5
5B013
330
1F
100
AcDbEntity
  8
AM_0
  6
中線
 48
0.5
370
    30
100
AcDbLine
 10
6250.937626350523
 20
-5473.75933690343
 30
0.0
 11
6250.937626350523
 21
-5490.75933690343
 31
0.0
  0
LINE
  5
5B014
330
1F
100
AcDbEntity
  8
AM_0
  6
中線
 48
0.5
370
    30
100
AcDbLine
 10
6293.745671953291
 20
-5474.759336903431
 30
0.0
 11
6293.74567195329
 21
-5489.75933690343
 31
0.0
  0
LINE
  5
5B016
330
1F
100
AcDbEntity
  8
AM_0
  6
中線
 48
0.5
370
    30
100
AcDbLine
 10
6285.24567195329
 20
-5471.25933690343
 30
0.0
 11
6357.245671953291
 21
-5471.25933690343
 31
0.0
  0
LINE
  5
5B017
330
1F
100
AcDbEntity
  8
AM_0
  6
中線
 48
0.5
370
    30
100
AcDbLine
 10
6357.245671953291
 20
-5471.25933690343
 30
0.0
 11
6357.245671953291
 21
-5472.75933690343
 31
0.0
  0
LINE
  5
5B018
330
1F
100
AcDbEntity
  8
AM_0
  6
中線
 48
0.5
370
    30
100
AcDbLine
 10
6357.245671953291
 20
-5493.25933690343
 30
0.0
 11
6285.24567195329
 21
-5493.25933690343
 31
0.0
  0
LINE
  5
5B019
330
1F
100
AcDbEntity
  8
AM_0
  6
中線
 48
0.5
370
    30
100
AcDbLine
 10
6285.24567195329
 20
-5493.25933690343
 30
0.0
 11
6285.24567195329
 21
-5491.759336903431
 31
0.0
  0
LINE
  5
5B01A
330
1F
100
AcDbEntity
  8
AM_0
  6
中線
 48
0.5
370
    30
100
AcDbLine
 10
6285.24567195329
 20
-5491.759336903431
 30
0.0
 11
6304.534311165291
 21
-5491.759336903431
 31
0.0
  0
LINE
  5
5B01B
330
1F
100
AcDbEntity
  8
AM_0
  6
中線
 48
0.5
370
    30
100
AcDbLine
 10
6304.534311165291
 20
-5493.25933690343
 30
0.0
 11
6304.534311165291
 21
-5471.25933690343
 31
0.0
  0
LINE
  5
5B01C
330
1F
100
AcDbEntity
  8
AM_0
  6
中線
 48
0.5
370
    30
100
AcDbLine
 10
6304.534311165291
 20
-5472.75933690343
 30
0.0
 11
6285.24567195329
 21
-5472.75933690343
 31
0.0
  0
LINE
  5
5B01D
330
1F
100
AcDbEntity
  8
AM_0
  6
中線
 48
0.5
370
    30
100
AcDbLine
 10
6285.24567195329
 20
-5472.75933690343
 30
0.0
 11
6285.24567195329
 21
-5471.25933690343
 31
0.0
  0
LINE
  5
5B01F
330
1F
100
AcDbEntity
  8
AM_0
  6
中線
 48
0.5
370
    30
100
AcDbLine
 10
6288.745671953291
 20
-5473.259336903431
 30
0.0
 11
6288.745671953291
 21
-5472.859336903431
 31
0.0
  0
ARC
  5
5B020
330
1F
100
AcDbEntity
  8
AM_0
  6
中線
 48
0.5
370
    30
100
AcDbCircle
 10
6291.245671953291
 20
-5491.384336903434
 30
0.0
 40
4.875
100
AcDbArc
 50
202.6198649479803
 51
337.3801350520197
  0
LINE
  5
5B021
330
1F
100
AcDbEntity
  8
AM_0
  6
中線
 48
0.5
370
    30
100
AcDbLine
 10
6288.745671953291
 20
-5489.75933690343
 30
0.0
 11
6288.745671953291
 21
-5474.759336903431
 31
0.0
  0
LINE
  5
5B022
330
1F
100
AcDbEntity
  8
AM_0
  6
中線
 48
0.5
370
    30
100
AcDbLine
 10
6300.041043980591
 20
-5491.25933690343
 30
0.0
 11
6285.24567195329
 21
-5491.25933690343
 31
0.0
  0
LINE
  5
5B023
330
1F
100
AcDbEntity
  8
AM_0
  6
中線
 48
0.5
370
    30
100
AcDbLine
 10
6300.632656788888
 20
-5489.75933690343
 30
0.0
 11
6285.24567195329
 21
-5489.75933690343
 31
0.0
  0
LINE
  5
5B024
330
1F
100
AcDbEntity
  8
AM_0
  6
中線
 48
0.5
370
    30
100
AcDbLine
 10
6356.476327637291
 20
-5472.25933690343
 30
0.0
 11
6356.476327637291
 21
-5492.25933690343
 31
0.0
  0
LINE
  5
5B025
330
1F
100
AcDbEntity
  8
AM_0
  6
中線
 48
0.5
370
    30
100
AcDbLine
 10
6356.942342282291
 20
-5491.759336903431
 30
0.0
 11
6356.942342282291
 21
-5472.75933690343
 31
0.0
  0
LINE
  5
5B026
330
1F
100
AcDbEntity
  8
AM_0
  6
中線
 48
0.5
370
    30
100
AcDbLine
 10
6357.245671953291
 20
-5491.759336903431
 30
0.0
 11
6357.245671953291
 21
-5493.25933690343
 31
0.0
  0
LINE
  5
5B027
330
1F
100
AcDbEntity
  8
AM_0
  6
中線
 48
0.5
370
    30
100
AcDbLine
 10
6357.245671953291
 20
-5472.75933690343
 30
0.0
 11
6356.942342282291
 21
-5472.75933690343
 31
0.0
  0
LINE
  5
5B028
330
1F
100
AcDbEntity
  8
AM_0
  6
中線
 48
0.5
370
    30
100
AcDbLine
 10
6356.942342282291
 20
-5491.759336903431
 30
0.0
 11
6357.245671953291
 21
-5491.759336903431
 31
0.0
  0
ARC
  5
5B029
330
1F
100
AcDbEntity
  8
AM_0
  6
中線
 48
0.5
370
    30
100
AcDbCircle
 10
6357.36099978029
 20
-5492.37466473443
 30
0.0
 40
0.8921576869999999
100
AcDbArc
 50
172.572679064994
 51
262.5726790649939
  0
ARC
  5
5B02A
330
1F
100
AcDbEntity
  8
AM_0
  6
中線
 48
0.5
370
    30
100
AcDbCircle
 10
6357.391676921292
 20
-5472.167610314431
 30
0.0
 40
0.9199337329999998
100
AcDbArc
 50
99.13217201099122
 51
185.7224698580173
  0
LINE
  5
5B02B
330
1F
100
AcDbEntity
  8
AM_7
  6
中心線1
 48
0.5
370
    13
100
AcDbLine
 10
6234.24567195329
 20
-5482.25933690343
 30
0.0
 11
6360.24567195329
 21
-5482.25933690343
 31
0.0
  0
LINE
  5
5B02C
330
1F
100
AcDbEntity
  8
AM_0
  6
中線
 48
0.5
370
    30
100
AcDbLine
 10
6285.24567195329
 20
-5473.259336903431
 30
0.0
 11
6300.041043980591
 21
-5473.259336903431
 31
0.0
  0
LINE
  5
5B02D
330
1F
100
AcDbEntity
  8
AM_0
  6
中線
 48
0.5
370
    30
100
AcDbLine
 10
6285.24567195329
 20
-5491.259336903429
 30
0.0
 11
6285.24567195329
 21
-5473.259336903431
 31
0.0
  0
LINE
  5
5B02E
330
1F
100
AcDbEntity
  8
AM_0
  6
中線
 48
0.5
370
    30
100
AcDbLine
 10
6285.24567195329
 20
-5474.759336903431
 30
0.0
 11
6300.632656788888
 21
-5474.759336903431
 31
0.0
  0
LINE
  5
5B02F
330
1F
100
AcDbEntity
  8
AM_0
  6
中線
 48
0.5
370
    30
100
AcDbLine
 10
6298.245671953291
 20
-5491.25933690343
 30
0.0
 11
6298.245671953291
 21
-5489.75933690343
 31
0.0
  0
LINE
  5
5B030
330
1F
100
AcDbEntity
  8
AM_0
  6
中線
 48
0.5
370
    30
100
AcDbLine
 10
6298.245671953291
 20
-5474.759336903431
 30
0.0
 11
6298.245671953291
 21
-5473.259336903431
 31
0.0
  0
LINE
  5
5B031
330
1F
100
AcDbEntity
  8
AM_7
  6
中心線1
 48
0.3
370
    13
100
AcDbLine
 10
6315.245671953292
 20
-5476.91590798643
 30
0.0
 11
6315.245671953292
 21
-5486.89390131743
 31
0.0
  0
LINE
  5
5B032
330
1F
100
AcDbEntity
  8
AM_7
  6
中心線1
 48
0.3
370
    13
100
AcDbLine
 10
6298.245671953291
 20
-5487.254551678431
 30
0.0
 11
6298.245671953291
 21
-5477.516991922431
 31
0.0
  0
CIRCLE
  5
5B033
330
1F
100
AcDbEntity
  8
AM_0
  6
中線
 48
0.5
370
    30
100
AcDbCircle
 10
6298.245671953291
 20
-5482.25933690343
 30
0.0
 40
2.6
  0
CIRCLE
  5
5B034
330
1F
100
AcDbEntity
  8
AM_3
  6
陰線1
 48
0.5
370
    13
100
AcDbCircle
 10
6315.245671953292
 20
-5482.25933690343
 30
0.0
 40
2.6
  0
ARC
  5
5B036
330
1F
100
AcDbEntity
  8
AM_0
  6
中線
 48
0.5
370
    30
100
AcDbCircle
 10
6291.245671953291
 20
-5542.609777669038
 30
0.0
 40
4.5
100
AcDbArc
 50
308.7626178530154
 51
239.7225234069769
  0
LINE
  5
5B038
330
1F
100
AcDbEntity
  8
AM_0
  6
中線
 48
0.5
370
    30
100
AcDbLine
 10
6249.24567195329
 20
-5471.75933690343
 30
0.0
 11
6260.24567195329
 21
-5471.75933690343
 31
0.0
  0
ARC
  5
5B039
330
1F
100
AcDbEntity
  8
AM_0
  6
中線
 48
0.5
370
    30
100
AcDbCircle
 10
6303.542271259291
 20
-5547.170257849038
 30
0.0
 40
1.75
100
AcDbArc
 50
72.13403278601834
 51
94.24257062998501
  0
LINE
  5
5B03A
330
1F
100
AcDbEntity
  8
AM_0
  6
中線
 48
0.5
370
    30
100
AcDbLine
 10
6301.632351594291
 20
-5545.109093272038
 30
0.0
 11
6301.665984503291
 21
-5545.556396637038
 31
0.0
  0
LINE
  5
5B03B
330
1F
100
AcDbEntity
  8
AM_0
  6
中線
 48
0.5
370
    30
100
AcDbLine
 10
6303.671734822291
 20
-5548.915462474036
 30
0.0
 11
6254.29891691729
 21
-5552.578059315038
 31
0.0
  0
LINE
  5
5B03C
330
1F
100
AcDbEntity
  8
AM_0
  6
中線
 48
0.5
370
    30
100
AcDbLine
 10
6303.41280769529
 20
-5545.425053223038
 30
0.0
 11
6254.039989789291
 21
-5549.087650063038
 31
0.0
  0
ARC
  5
5B03D
330
1F
100
AcDbEntity
  8
AM_0
  6
中線
 48
0.5
370
    30
100
AcDbCircle
 10
6254.169453353291
 20
-5550.832854689037
 30
0.0
 40
1.75
100
AcDbArc
 50
94.29999999998075
 51
274.2999999999808
  0
ARC
  5
5B041
330
1F
100
AcDbEntity
  8
AM_0
  6
中線
 48
0.5
370
    30
100
AcDbCircle
 10
6255.74567195329
 20
-5550.609777669038
 30
0.0
 40
4.0
100
AcDbArc
 50
270.0
 51
336.5993375940176
  0
LINE
  5
5B043
330
1F
100
AcDbEntity
  8
size
100
AcDbLine
 10
6142.960641357383
 20
-5392.977855310153
 30
0.0
 11
6439.960641357384
 21
-5392.977855310153
 31
0.0
1001
GENIUS_GENREC_14
1002
{
1000
PYDIR
1011
6142.960641357383
1021
-5305.977855310153
1031
0.0
1002
}
1002
{
1000
PXDIR
1011
6562.960641357384
1021
-5602.977855310154
1031
0.0
1002
}
1002
{
1000
PORI
1011
6142.960641357383
1021
-5602.977855310154
1031
0.0
1002
}
1002
{
1000
PINS
1011
6352.960641357384
1021
-5454.477855310154
1031
0.0
1002
}
1002
{
1000
HVAL
1000
297
1002
}
1002
{
1000
H
1070
     2
1002
}
1002
{
1000
WVAL
1000
420
1002
}
1002
{
1000
W
1070
     2
1002
}
1002
{
1000
C
1070
     4
1002
}
1001
GENIUS_GENOBJ-N-REC_13
1002
{
1000
OWNER
1000
GEN
1002
}
1001
GENIUS_GENODEF_13
1002
{
1000
HIER
1070
     0
1002
}
1002
{
1000
MANEDIT
1070
     0
1002
}
1002
{
1000
NOSEL
1070
     0
1002
}
1002
{
1000
BEHIND
1070
     0
1002
}
1002
{
1000
OTHER
1070
     0
1002
}
1002
{
1000
REACTOR
1002
}
  0
LINE
  5
5B044
330
1F
100
AcDbEntity
  8
size
100
AcDbLine
 10
6439.960641357384
 20
-5392.977855310153
 30
0.0
 11
6439.960641357384
 21
-5602.977855310154
 31
0.0
1001
GENIUS_GENREC_14
1002
{
1000
PYDIR
1011
6142.960641357383
1021
-5305.977855310153
1031
0.0
1002
}
1002
{
1000
PXDIR
1011
6562.960641357384
1021
-5602.977855310154
1031
0.0
1002
}
1002
{
1000
PORI
1011
6142.960641357383
1021
-5602.977855310154
1031
0.0
1002
}
1002
{
1000
PINS
1011
6352.960641357384
1021
-5454.477855310154
1031
0.0
1002
}
1002
{
1000
HVAL
1000
297
1002
}
1002
{
1000
H
1070
     2
1002
}
1002
{
1000
WVAL
1000
420
1002
}
1002
{
1000
W
1070
     2
1002
}
1002
{
1000
C
1070
     4
1002
}
1001
GENIUS_GENOBJ-N-REC_13
1002
{
1000
OWNER
1000
GEN
1002
}
1001
GENIUS_GENODEF_13
1002
{
1000
HIER
1070
     0
1002
}
1002
{
1000
MANEDIT
1070
     0
1002
}
1002
{
1000
NOSEL
1070
     0
1002
}
1002
{
1000
BEHIND
1070
     0
1002
}
1002
{
1000
OTHER
1070
     0
1002
}
1002
{
1000
REACTOR
1002
}
  0
LINE
  5
5B045
330
1F
100
AcDbEntity
  8
waku
100
AcDbLine
 10
6154.460641357384
 20
-5594.477855310153
 30
0.0
 11
6428.460641357384
 21
-5594.477855310153
 31
0.0
1001
GENIUS_GENREC_14
1002
{
1000
PYDIR
1011
6142.960641357383
1021
-5305.977855310153
1031
0.0
1002
}
1002
{
1000
PXDIR
1011
6562.960641357384
1021
-5602.977855310154
1031
0.0
1002
}
1002
{
1000
PORI
1011
6142.960641357383
1021
-5602.977855310154
1031
0.0
1002
}
1002
{
1000
PINS
1011
6352.960641357384
1021
-5454.477855310154
1031
0.0
1002
}
1002
{
1000
HVAL
1000
297
1002
}
1002
{
1000
H
1070
     2
1002
}
1002
{
1000
WVAL
1000
420
1002
}
1002
{
1000
W
1070
     2
1002
}
1002
{
1000
C
1070
     4
1002
}
  0
LINE
  5
5B046
330
1F
100
AcDbEntity
  8
waku
100
AcDbLine
 10
6428.460641357384
 20
-5401.477855310154
 30
0.0
 11
6154.460641357384
 21
-5401.477855310154
 31
0.0
1001
GENIUS_GENREC_14
1002
{
1000
PYDIR
1011
6019.960641357384
1021
-5392.977855310153
1031
0.0
1002
}
1002
{
1000
PXDIR
1011
6439.960641357384
1021
-5689.977855310154
1031
0.0
1002
}
1002
{
1000
PORI
1011
6019.960641357384
1021
-5689.977855310154
1031
0.0
1002
}
1002
{
1000
PINS
1011
6229.960641357384
1021
-5541.477855310153
1031
0.0
1002
}
1002
{
1000
HVAL
1000
297
1002
}
1002
{
1000
H
1070
     2
1002
}
1002
{
1000
WVAL
1000
420
1002
}
1002
{
1000
W
1070
     2
1002
}
1002
{
1000
C
1070
     4
1002
}
1001
GENIUS_GENOBJ-N-REC_13
1002
{
1000
OWNER
1000
GEN
1002
}
1001
GENIUS_GENODEF_13
1002
{
1000
HIER
1070
     0
1002
}
1002
{
1000
MANEDIT
1070
     0
1002
}
1002
{
1000
NOSEL
1070
     0
1002
}
1002
{
1000
BEHIND
1070
     0
1002
}
1002
{
1000
OTHER
1070
     0
1002
}
1002
{
1000
REACTOR
1002
}
  0
LINE
  5
5B047
330
1F
100
AcDbEntity
  8
waku
100
AcDbLine
 10
6154.460641357384
 20
-5401.477855310154
 30
0.0
 11
6154.460641357384
 21
-5594.477855310153
 31
0.0
1001
GENIUS_GENREC_14
1002
{
1000
PYDIR
1011
6142.960641357383
1021
-5305.977855310153
1031
0.0
1002
}
1002
{
1000
PXDIR
1011
6562.960641357384
1021
-5602.977855310154
1031
0.0
1002
}
1002
{
1000
PORI
1011
6142.960641357383
1021
-5602.977855310154
1031
0.0
1002
}
1002
{
1000
PINS
1011
6352.960641357384
1021
-5454.477855310154
1031
0.0
1002
}
1002
{
1000
HVAL
1000
297
1002
}
1002
{
1000
H
1070
     2
1002
}
1002
{
1000
WVAL
1000
420
1002
}
1002
{
1000
W
1070
     2
1002
}
1002
{
1000
C
1070
     4
1002
}
1001
GENIUS_GENOBJ-N-REC_13
1002
{
1000
OWNER
1000
GEN
1002
}
1001
GENIUS_GENODEF_13
1002
{
1000
HIER
1070
     0
1002
}
1002
{
1000
MANEDIT
1070
     0
1002
}
1002
{
1000
NOSEL
1070
     0
1002
}
1002
{
1000
BEHIND
1070
     0
1002
}
1002
{
1000
OTHER
1070
     0
1002
}
1002
{
1000
REACTOR
1002
}
  0
LINE
  5
5B048
330
1F
100
AcDbEntity
  8
waku
100
AcDbLine
 10
6428.460641357384
 20
-5594.477855310153
 30
0.0
 11
6428.460641357384
 21
-5401.477855310154
 31
0.0
1001
GENIUS_GENREC_14
1002
{
1000
PYDIR
1011
6019.960641357384
1021
-5386.977855310153
1031
0.0
1002
}
1002
{
1000
PXDIR
1011
6439.960641357384
1021
-5683.977855310153
1031
0.0
1002
}
1002
{
1000
PORI
1011
6019.960641357384
1021
-5683.977855310153
1031
0.0
1002
}
1002
{
1000
PINS
1011
6229.960641357384
1021
-5535.477855310153
1031
0.0
1002
}
1002
{
1000
HVAL
1000
297
1002
}
1002
{
1000
H
1070
     2
1002
}
1002
{
1000
WVAL
1000
420
1002
}
1002
{
1000
W
1070
     2
1002
}
1002
{
1000
C
1070
     4
1002
}
1001
GENIUS_GENOBJ-N-REC_13
1002
{
1000
OWNER
1000
GEN
1002
}
1001
GENIUS_GENODEF_13
1002
{
1000
HIER
1070
     0
1002
}
1002
{
1000
MANEDIT
1070
     0
1002
}
1002
{
1000
NOSEL
1070
     0
1002
}
1002
{
1000
BEHIND
1070
     0
1002
}
1002
{
1000
OTHER
1070
     0
1002
}
1002
{
1000
REACTOR
1002
}
  0
LINE
  5
5B049
330
1F
100
AcDbEntity
  8
size
100
AcDbLine
 10
6142.960641357383
 20
-5392.977855310153
 30
0.0
 11
6142.960641357383
 21
-5602.977855310154
 31
0.0
1001
GENIUS_GENREC_14
1002
{
1000
PYDIR
1011
6142.960641357383
1021
-5305.977855310153
1031
0.0
1002
}
1002
{
1000
PXDIR
1011
6562.960641357384
1021
-5602.977855310154
1031
0.0
1002
}
1002
{
1000
PORI
1011
6142.960641357383
1021
-5602.977855310154
1031
0.0
1002
}
1002
{
1000
PINS
1011
6352.960641357384
1021
-5454.477855310154
1031
0.0
1002
}
1002
{
1000
HVAL
1000
297
1002
}
1002
{
1000
H
1070
     2
1002
}
1002
{
1000
WVAL
1000
420
1002
}
1002
{
1000
W
1070
     2
1002
}
1002
{
1000
C
1070
     4
1002
}
1001
GENIUS_GENOBJ-N-REC_13
1002
{
1000
OWNER
1000
GEN
1002
}
1001
GENIUS_GENODEF_13
1002
{
1000
HIER
1070
     0
1002
}
1002
{
1000
MANEDIT
1070
     0
1002
}
1002
{
1000
NOSEL
1070
     0
1002
}
1002
{
1000
BEHIND
1070
     0
1002
}
1002
{
1000
OTHER
1070
     0
1002
}
1002
{
1000
REACTOR
1002
}
  0
LINE
  5
5B04A
330
1F
100
AcDbEntity
  8
size
100
AcDbLine
 10
6142.960641357383
 20
-5602.977855310154
 30
0.0
 11
6439.960641357384
 21
-5602.977855310154
 31
0.0
1001
GENIUS_GENREC_14
1002
{
1000
PYDIR
1011
6142.960641357383
1021
-5305.977855310153
1031
0.0
1002
}
1002
{
1000
PXDIR
1011
6562.960641357384
1021
-5602.977855310154
1031
0.0
1002
}
1002
{
1000
PORI
1011
6142.960641357383
1021
-5602.977855310154
1031
0.0
1002
}
1002
{
1000
PINS
1011
6352.960641357384
1021
-5454.477855310154
1031
0.0
1002
}
1002
{
1000
HVAL
1000
297
1002
}
1002
{
1000
H
1070
     2
1002
}
1002
{
1000
WVAL
1000
420
1002
}
1002
{
1000
W
1070
     2
1002
}
1002
{
1000
C
1070
     4
1002
}
1001
GENIUS_GENOBJ-N-REC_13
1002
{
1000
OWNER
1000
GEN
1002
}
1001
GENIUS_GENODEF_13
1002
{
1000
HIER
1070
     0
1002
}
1002
{
1000
MANEDIT
1070
     0
1002
}
1002
{
1000
NOSEL
1070
     0
1002
}
1002
{
1000
BEHIND
1070
     0
1002
}
1002
{
1000
OTHER
1070
     0
1002
}
1002
{
1000
REACTOR
1002
}
  0
LINE
  5
5B04B
330
1F
100
AcDbEntity
  8
AM_5
370
    13
100
AcDbLine
 10
6174.460641357384
 20
-5401.477855310154
 30
0.0
 11
6174.460641357383
 21
-5433.477855310154
 31
0.0
  0
LINE
  5
5B04C
330
1F
100
AcDbEntity
  8
AM_5
370
    13
100
AcDbLine
 10
6154.460641357384
 20
-5409.477855310154
 30
0.0
 11
6241.460641357384
 21
-5409.477855310154
 31
0.0
  0
LINE
  5
5B04D
330
1F
100
AcDbEntity
  8
AM_5
370
    13
100
AcDbLine
 10
6154.460641357384
 20
-5417.477855310153
 30
0.0
 11
6241.460641357384
 21
-5417.477855310153
 31
0.0
  0
LINE
  5
5B04E
330
1F
100
AcDbEntity
  8
AM_5
370
    13
100
AcDbLine
 10
6154.460641357384
 20
-5425.477855310153
 30
0.0
 11
6241.460641357384
 21
-5425.477855310153
 31
0.0
  0
LINE
  5
5B04F
330
1F
100
AcDbEntity
  8
AM_0
  6
中線
 48
0.5
370
    30
100
AcDbLine
 10
6154.460641357384
 20
-5433.477855310154
 30
0.0
 11
6241.460641357384
 21
-5433.477855310154
 31
0.0
  0
LINE
  5
5B050
330
1F
100
AcDbEntity
  8
AM_0
  6
中線
 48
0.5
370
    30
100
AcDbLine
 10
6154.460641357384
 20
-5401.477855310154
 30
0.0
 11
6154.460641357384
 21
-5433.477855310154
 31
0.0
  0
LINE
  5
5B051
330
1F
100
AcDbEntity
  8
AM_0
  6
中線
 48
0.5
370
    30
100
AcDbLine
 10
6154.460641357384
 20
-5401.477855310154
 30
0.0
 11
6241.460641357384
 21
-5401.477855310154
 31
0.0
  0
LINE
  5
5B052
330
1F
100
AcDbEntity
  8
AM_0
  6
中線
 48
0.5
370
    30
100
AcDbLine
 10
6241.460641357384
 20
-5401.477855310154
 30
0.0
 11
6241.460641357383
 21
-5433.477855310154
 31
0.0
  0
TEXT
  5
5B053
330
1F
100
AcDbEntity
  8
AM_6
100
AcDbText
 10
6160.117641357385
 20
-5407.077855310154
 30
0.0
 40
3.2
  1
品　名
 41
0.85537027
100
AcDbText
  0
TEXT
  5
5B054
330
1F
100
AcDbEntity
  8
AM_6
100
AcDbText
 10
6160.117641357385
 20
-5415.077855310154
 30
0.0
 40
3.2
  1
品　番
 41
0.85537027
100
AcDbText
  0
TEXT
  5
5B055
330
1F
100
AcDbEntity
  8
AM_6
100
AcDbText
 10
6160.117641357385
 20
-5423.077855310154
 30
0.0
 40
3.2
  1
材　質
 41
0.85537027
100
AcDbText
  0
TEXT
  5
5B056
330
1F
100
AcDbEntity
  8
AM_6
100
AcDbText
 10
6160.117641357385
 20
-5431.077855310153
 30
0.0
 40
3.2
  1
仕上げ
 41
0.85537027
100
AcDbText
  0
TEXT
  5
5B057
330
1F
100
AcDbEntity
  8
AM_6
100
AcDbText
 10
6177.317641357383
 20
-5407.077855310154
 30
0.0
 40
3.2
  1
スプリングパチン錠
 41
0.84306961
100
AcDbText
  0
TEXT
  5
5B058
330
1F
100
AcDbEntity
  8
AM_6
100
AcDbText
 10
6177.317641357383
 20
-5415.077855310154
 30
0.0
 40
3.2
  1
ELP-122S
 41
0.84741102
100
AcDbText
  0
TEXT
  5
5B059
330
1F
100
AcDbEntity
  8
AM_6
100
AcDbText
 10
6177.317641357383
 20
-5423.077855310154
 30
0.0
 40
3.2
  1
ステンレス
 41
0.84634979
100
AcDbText
  0
TEXT
  5
5B05A
330
1F
100
AcDbEntity
  8
AM_6
100
AcDbText
 10
6177.317641357383
 20
-5431.077855310153
 30
0.0
 40
3.2
  1
バレル研磨
 41
0.84350122
100
AcDbText
  0
DIMENSION
  5
5B05B
330
1F
100
AcDbEntity
  8
AM_5
100
AcDbDimension
  2
*D19
 10
6285.24567195329
 20
-5447.259336903431
 30
0.0
 11
6320.745671954009
 21
-5447.259336903431
 31
0.0
 70
   160
  1
（A）
 71
     5
 42
72.000000001437
  3
SYS$0
100
AcDbAlignedDimension
 13
6357.245671954728
 23
-5471.759336884868
 33
0.0
 14
6285.24567195329
 24
-5471.25933690343
 34
0.0
100
AcDbRotatedDimension
  0
DIMENSION
  5
5B05C
330
1F
100
AcDbEntity
  8
AM_5
100
AcDbDimension
  2
*D20
 10
6373.245671953291
 20
-5508.259336903431
 30
0.0
 11
6373.245671953291
 21
-5482.259336903428
 31
0.0
 70
   160
  1
（B）
 71
     5
 42
52.0
  3
SYS$0
100
AcDbAlignedDimension
 13
6279.419453353291
 23
-5456.25933690343
 33
0.0
 14
6279.419453353291
 24
-5508.259336903431
 34
0.0
 50
90.0
100
AcDbRotatedDimension
  0
DIMENSION
  5
5B05D
330
1F
100
AcDbEntity
  8
AM_5
100
AcDbDimension
  2
*D21
 10
6365.24567195329
 20
-5471.25933690343
 30
0.0
 11
6365.245671953291
 21
-5482.259336903428
 31
0.0
 70
   160
  1
C
 71
     5
 42
21.99999998911608
  3
SYS$0
100
AcDbAlignedDimension
 13
6357.245671938345
 23
-5493.259336892546
 33
0.0
 14
6357.245671953291
 24
-5471.25933690343
 34
0.0
 50
90.0
100
AcDbRotatedDimension
  0
DIMENSION
  5
5B05E
330
1F
100
AcDbEntity
  8
AM_5
100
AcDbDimension
  2
*D7
 10
6260.24567195329
 20
-5447.259336903431
 30
0.0
 11
6248.49567195329
 21
-5447.259336903431
 31
0.0
 70
   160
  1
（D）
 71
     5
 42
23.0
  3
SYS$0
100
AcDbAlignedDimension
 13
6237.24567195329
 23
-5469.75933690343
 33
0.0
 14
6260.24567195329
 24
-5471.75933690343
 34
0.0
100
AcDbRotatedDimension
  0
DIMENSION
  5
5B05F
330
1F
100
AcDbEntity
  8
AM_5
100
AcDbDimension
  2
*D8
 10
6221.24567195329
 20
-5500.75933690343
 30
0.0
 11
6221.24567195329
 21
-5482.259336903442
 31
0.0
 70
   160
  1
E
 71
     5
 42
37.0
  3
SYS$0
100
AcDbAlignedDimension
 13
6243.24567195329
 23
-5463.75933690343
 33
0.0
 14
6243.24567195329
 24
-5500.75933690343
 34
0.0
 50
90.0
100
AcDbRotatedDimension
  0
DIMENSION
  5
5B060
330
1F
100
AcDbEntity
  8
AM_5
100
AcDbDimension
  2
*D9
 10
6279.419453353291
 20
-5504.75933690343
 30
0.0
 11
6279.419453353293
 21
-5513.019336903429
 31
0.0
 70
   160
  1
%%cF
 71
     5
 42
3.5
  3
SYS$0
100
AcDbAlignedDimension
 13
6279.419453353291
 23
-5508.259336903431
 33
0.0
 14
6279.419453353291
 24
-5504.75933690343
 34
0.0
 50
90.0
100
AcDbRotatedDimension
  0
DIMENSION
  5
5B061
330
1F
100
AcDbEntity
  8
AM_5
100
AcDbDimension
  2
*D10
 10
6365.24567195329
 20
-5535.609777669037
 30
0.0
 11
6365.245671953291
 21
-5545.109777669036
 31
0.0
 70
   160
  1
（G）
 71
     5
 42
19.0
  3
SYS$0
100
AcDbAlignedDimension
 13
6322.245671953291
 23
-5554.609777669037
 33
0.0
 14
6291.245671953291
 24
-5535.609777669037
 34
0.0
 50
90.0
100
AcDbRotatedDimension
  0
DIMENSION
  5
5B062
330
1F
100
AcDbEntity
  8
AM_5
100
AcDbDimension
  2
*D11
 10
6357.24567195329
 20
-5553.109777669038
 30
0.0
 11
6357.245671953291
 21
-5558.356444335704
 31
0.0
 70
   160
  1
H
 71
     5
 42
1.5
  3
SYS$0
100
AcDbAlignedDimension
 13
6322.245671953291
 23
-5554.609777669037
 33
0.0
 14
6322.245671953291
 24
-5553.109777669038
 34
0.0
 50
90.0
100
AcDbRotatedDimension
  0
DIMENSION
  5
5B063
330
1F
100
AcDbEntity
  8
AM_5
100
AcDbDimension
  2
*D12
 10
6221.24567195329
 20
-5541.609777669037
 30
0.0
 11
6221.24567195329
 21
-5547.65613408248
 31
0.0
 70
   160
  1
I
 71
     5
 42
13.0
  3
SYS$0
100
AcDbAlignedDimension
 13
6237.24567195329
 23
-5554.609777669037
 33
0.0
 14
6250.937626350523
 24
-5541.609777669037
 34
0.0
 50
90.0
100
AcDbRotatedDimension
  0
DIMENSION
  5
5B064
330
1F
100
AcDbEntity
  8
AM_5
100
AcDbDimension
  2
*D13
 10
6229.24567195329
 20
-5552.609777669037
 30
0.0
 11
6229.24567195329
 21
-5558.143111002372
 31
0.0
 70
   160
  1
J
 71
     5
 42
2.0
  3
SYS$0
100
AcDbAlignedDimension
 13
6237.24567195329
 23
-5554.609777669037
 33
0.0
 14
6237.24567195329
 24
-5552.609777669037
 34
0.0
 50
90.0
100
AcDbRotatedDimension
  0
DIMENSION
  5
5B065
330
1F
100
AcDbEntity
  8
AM_5
100
AcDbDimension
  2
*D14
 10
6315.245671953292
 20
-5525.25933690343
 30
0.0
 11
6306.745671953291
 21
-5525.25933690343
 31
0.0
 70
   160
  1
K
 71
     5
 42
17.0
  3
SYS$0
100
AcDbAlignedDimension
 13
6298.245671953291
 23
-5487.254551678431
 33
0.0
 14
6315.245671953292
 24
-5487.254551678431
 34
0.0
100
AcDbRotatedDimension
  0
DIMENSION
  5
5B066
330
1F
100
AcDbEntity
  8
AM_5
100
AcDbDimension
  2
*D15
 10
6285.24567195329
 20
-5517.25933690343
 30
0.0
 11
6291.745671953291
 21
-5517.25933690343
 31
0.0
 70
   160
  1
L
 71
     5
 42
13.00000000000091
  3
SYS$0
100
AcDbAlignedDimension
 13
6298.245671953291
 23
-5487.254551678431
 33
0.0
 14
6285.24567195329
 24
-5493.25933690343
 34
0.0
100
AcDbRotatedDimension
  0
DIMENSION
  5
5B068
330
1F
100
AcDbEntity
  8
AM_5
100
AcDbDimension
  2
*D16
 10
6243.24567195329
 20
-5525.25933690343
 30
0.0
 11
6270.245671953291
 21
-5525.25933690343
 31
0.0
 70
   160
  1
（O）
 71
     5
 42
55.00000000000091
  3
SYS$0
100
AcDbAlignedDimension
 13
6298.245671953291
 23
-5487.254551678431
 33
0.0
 14
6243.24567195329
 24
-5503.75933690343
 34
0.0
100
AcDbRotatedDimension
  0
DIMENSION
  5
5B069
330
1F
100
AcDbEntity
  8
AM_5
100
AcDbDimension
  2
*D17
 10
6260.24567195329
 20
-5517.25933690343
 30
0.0
 11
6251.49567195329
 21
-5517.25933690343
 31
0.0
 70
   160
  1
（P）
 71
     5
 42
17.0
  3
SYS$0
100
AcDbAlignedDimension
 13
6243.24567195329
 23
-5503.75933690343
 33
0.0
 14
6260.24567195329
 24
-5492.75933690343
 34
0.0
100
AcDbRotatedDimension
  0
DIMENSION
  5
5B06A
330
1F
100
AcDbEntity
  8
AM_5
100
AcDbDimension
  2
*D18
 10
6229.24567195329
 20
-5469.75933690343
 30
0.0
 11
6229.24567195329
 21
-5482.259336903428
 31
0.0
 70
   160
  1
Q
 71
     5
 42
25.0
  3
SYS$0
100
AcDbAlignedDimension
 13
6238.695671953291
 23
-5494.75933690343
 33
0.0
 14
6238.695671953291
 24
-5469.75933690343
 34
0.0
 50
90.0
100
AcDbRotatedDimension
  0
MTEXT
  5
5B06C
330
1F
100
AcDbEntity
  8
AM_6
100
AcDbMText
 10
6206.460641357384
 20
-5570.193208777793
 30
0.0
 40
3.200000000000001
 41
0.0
 71
     5
 72
     1
  1
品番
 73
     1
 44
1.0
1001
ACAD
1000
MTEXTBEGIN
1070
    73
1070
     1
1070
    44
1040
1.0
1070
    74
1070
     0
1000
MTEXTEND
  0
LINE
  5
5B06D
330
1F
100
AcDbEntity
  8
AM_0
100
AcDbLine
 10
6192.710641357384
 20
-5573.193208777792
 30
0.0
 11
6390.210641357383
 21
-5573.193208777794
 31
0.0
  0
LINE
  5
5B06E
330
1F
100
AcDbEntity
  8
AM_0
100
AcDbLine
 10
6192.710641357384
 20
-5567.193208777792
 30
0.0
 11
6390.210641357383
 21
-5567.193208777794
 31
0.0
  0
LINE
  5
5B06F
330
1F
100
AcDbEntity
  8
AM_0
100
AcDbLine
 10
6220.210641357385
 20
-5567.193208777792
 30
0.0
 11
6220.210641357385
 21
-5591.193208777792
 31
0.0
  0
LINE
  5
5B070
330
1F
100
AcDbEntity
  8
AM_0
100
AcDbLine
 10
6192.710641357384
 20
-5567.193208777792
 30
0.0
 11
6192.710641357384
 21
-5591.193208777792
 31
0.0
  0
MTEXT
  5
5B071
330
1F
100
AcDbEntity
  8
AM_6
100
AcDbMText
 10
6206.181452163374
 20
-5576.193208777792
 30
0.0
 40
3.200000000000001
 41
0.0
 71
     5
 72
     1
  1
ELP-122S-1
 73
     1
 44
1.0
1001
ACAD
1000
MTEXTBEGIN
1070
    73
1070
     1
1070
    44
1040
1.0
1070
    74
1070
     0
1000
MTEXTEND
  0
LINE
  5
5B072
330
1F
100
AcDbEntity
  8
AM_2
100
AcDbLine
 10
6192.710641357384
 20
-5579.193208777792
 30
0.0
 11
6220.210641357385
 21
-5579.193208777792
 31
0.0
  0
LINE
  5
5B073
330
1F
100
AcDbEntity
  8
AM_2
100
AcDbLine
 10
6220.210641357383
 20
-5579.193208777792
 30
0.0
 11
6300.210641357384
 21
-5579.193208777793
 31
0.0
  0
LINE
  5
5B074
330
1F
100
AcDbEntity
  8
AM_2
100
AcDbLine
 10
6192.710641357384
 20
-5585.193208777792
 30
0.0
 11
6290.210641357385
 21
-5585.193208777793
 31
0.0
  0
LINE
  5
5B075
330
1F
100
AcDbEntity
  8
AM_0
100
AcDbLine
 10
6230.210641357384
 20
-5567.193208777794
 30
0.0
 11
6230.210641357386
 21
-5591.193208777794
 31
0.0
  0
MTEXT
  5
5B076
330
1F
100
AcDbEntity
  8
AM_6
100
AcDbMText
 10
6225.210641357385
 20
-5570.193208777794
 30
0.0
 40
3.200000000000001
 41
0.0
 71
     5
 72
     1
  1
A
 73
     1
 44
1.0
1001
ACAD
1000
MTEXTBEGIN
1070
    73
1070
     1
1070
    44
1040
1.0
1070
    74
1070
     0
1000
MTEXTEND
  0
MTEXT
  5
5B077
330
1F
100
AcDbEntity
  8
AM_6
100
AcDbMText
 10
6225.210641357385
 20
-5576.193208777795
 30
0.0
 40
3.200000000000001
 41
0.0
 71
     5
 72
     1
  1
37
 73
     1
 44
1.0
1001
ACAD
1000
MTEXTBEGIN
1070
    73
1070
     1
1070
    44
1040
1.0
1070
    74
1070
     0
1000
MTEXTEND
  0
MTEXT
  5
5B078
330
1F
100
AcDbEntity
  8
AM_6
100
AcDbMText
 10
6225.210641357385
 20
-5582.193208777795
 30
0.0
 40
3.200000000000001
 41
0.0
 71
     5
 72
     1
  1
52
 73
     1
 44
1.0
1001
ACAD
1000
MTEXTBEGIN
1070
    73
1070
     1
1070
    44
1040
1.0
1070
    74
1070
     0
1000
MTEXTEND
  0
LINE
  5
5B079
330
1F
100
AcDbEntity
  8
AM_0
100
AcDbLine
 10
6240.210641357385
 20
-5567.193208777794
 30
0.0
 11
6240.210641357385
 21
-5591.193208777794
 31
0.0
  0
MTEXT
  5
5B07A
330
1F
100
AcDbEntity
  8
AM_6
100
AcDbMText
 10
6235.210641357385
 20
-5570.193208777794
 30
0.0
 40
3.200000000000001
 41
0.0
 71
     5
 72
     1
  1
B
 73
     1
 44
1.0
1001
ACAD
1000
MTEXTBEGIN
1070
    73
1070
     1
1070
    44
1040
1.0
1070
    74
1070
     0
1000
MTEXTEND
  0
MTEXT
  5
5B07B
330
1F
100
AcDbEntity
  8
AM_6
100
AcDbMText
 10
6235.210641357385
 20
-5576.193208777795
 30
0.0
 40
3.200000000000001
 41
0.0
 71
     5
 72
     1
  1
25
 73
     1
 44
1.0
1001
ACAD
1000
MTEXTBEGIN
1070
    73
1070
     1
1070
    44
1040
1.0
1070
    74
1070
     0
1000
MTEXTEND
  0
MTEXT
  5
5B07C
330
1F
100
AcDbEntity
  8
AM_6
100
AcDbMText
 10
6235.210641357385
 20
-5582.193208777795
 30
0.0
 40
3.200000000000001
 41
0.0
 71
     5
 72
     1
  1
38
 73
     1
 44
1.0
1001
ACAD
1000
MTEXTBEGIN
1070
    73
1070
     1
1070
    44
1040
1.0
1070
    74
1070
     0
1000
MTEXTEND
  0
LINE
  5
5B07D
330
1F
100
AcDbEntity
  8
AM_0
100
AcDbLine
 10
6250.210641357385
 20
-5567.193208777794
 30
0.0
 11
6250.210641357384
 21
-5591.193208777792
 31
0.0
  0
MTEXT
  5
5B07E
330
1F
100
AcDbEntity
  8
AM_6
100
AcDbMText
 10
6245.210641357385
 20
-5570.193208777794
 30
0.0
 40
3.200000000000001
 41
0.0
 71
     5
 72
     1
  1
C
 73
     1
 44
1.0
1001
ACAD
1000
MTEXTBEGIN
1070
    73
1070
     1
1070
    44
1040
1.0
1070
    74
1070
     0
1000
MTEXTEND
  0
MTEXT
  5
5B07F
330
1F
100
AcDbEntity
  8
AM_6
100
AcDbMText
 10
6245.210641357385
 20
-5576.193208777795
 30
0.0
 40
3.200000000000001
 41
0.0
 71
     5
 72
     1
  1
12
 73
     1
 44
1.0
1001
ACAD
1000
MTEXTBEGIN
1070
    73
1070
     1
1070
    44
1040
1.0
1070
    74
1070
     0
1000
MTEXTEND
  0
MTEXT
  5
5B080
330
1F
100
AcDbEntity
  8
AM_6
100
AcDbMText
 10
6245.210641357385
 20
-5582.193208777795
 30
0.0
 40
3.200000000000001
 41
0.0
 71
     5
 72
     1
  1
16
 73
     1
 44
1.0
1001
ACAD
1000
MTEXTBEGIN
1070
    73
1070
     1
1070
    44
1040
1.0
1070
    74
1070
     0
1000
MTEXTEND
  0
LINE
  5
5B081
330
1F
100
AcDbEntity
  8
AM_0
100
AcDbLine
 10
6260.210641357385
 20
-5567.193208777794
 30
0.0
 11
6260.210641357385
 21
-5591.193208777792
 31
0.0
  0
MTEXT
  5
5B082
330
1F
100
AcDbEntity
  8
AM_6
100
AcDbMText
 10
6255.210641357384
 20
-5570.193208777794
 30
0.0
 40
3.200000000000001
 41
0.0
 71
     5
 72
     1
  1
D
 73
     1
 44
1.0
1001
ACAD
1000
MTEXTBEGIN
1070
    73
1070
     1
1070
    44
1040
1.0
1070
    74
1070
     0
1000
MTEXTEND
  0
MTEXT
  5
5B083
330
1F
100
AcDbEntity
  8
AM_6
100
AcDbMText
 10
6255.210641357384
 20
-5576.193208777795
 30
0.0
 40
3.200000000000001
 41
0.0
 71
     5
 72
     1
  1
16
 73
     1
 44
1.0
1001
ACAD
1000
MTEXTBEGIN
1070
    73
1070
     1
1070
    44
1040
1.0
1070
    74
1070
     0
1000
MTEXTEND
  0
LINE
  5
5B084
330
1F
100
AcDbEntity
  8
AM_0
100
AcDbLine
 10
6270.210641357385
 20
-5567.193208777794
 30
0.0
 11
6270.210641357383
 21
-5591.193208777793
 31
0.0
  0
MTEXT
  5
5B085
330
1F
100
AcDbEntity
  8
AM_6
100
AcDbMText
 10
6265.210641357384
 20
-5570.193208777794
 30
0.0
 40
3.200000000000001
 41
0.0
 71
     5
 72
     1
  1
E
 73
     1
 44
1.0
1001
ACAD
1000
MTEXTBEGIN
1070
    73
1070
     1
1070
    44
1040
1.0
1070
    74
1070
     0
1000
MTEXTEND
  0
MTEXT
  5
5B086
330
1F
100
AcDbEntity
  8
AM_6
100
AcDbMText
 10
6265.210641357384
 20
-5576.193208777795
 30
0.0
 40
3.200000000000001
 41
0.0
 71
     5
 72
     1
  1
23
 73
     1
 44
1.0
1001
ACAD
1000
MTEXTBEGIN
1070
    73
1070
     1
1070
    44
1040
1.0
1070
    74
1070
     0
1000
MTEXTEND
  0
MTEXT
  5
5B087
330
1F
100
AcDbEntity
  8
AM_6
100
AcDbMText
 10
6265.210641357384
 20
-5582.193208777795
 30
0.0
 40
3.200000000000001
 41
0.0
 71
     5
 72
     1
  1
27
 73
     1
 44
1.0
1001
ACAD
1000
MTEXTBEGIN
1070
    73
1070
     1
1070
    44
1040
1.0
1070
    74
1070
     0
1000
MTEXTEND
  0
LINE
  5
5B088
330
1F
100
AcDbEntity
  8
AM_0
100
AcDbLine
 10
6280.210641357385
 20
-5567.193208777794
 30
0.0
 11
6280.210641357384
 21
-5591.193208777793
 31
0.0
  0
MTEXT
  5
5B089
330
1F
100
AcDbEntity
  8
AM_6
100
AcDbMText
 10
6275.210641357385
 20
-5570.193208777794
 30
0.0
 40
3.200000000000001
 41
0.0
 71
     5
 72
     1
  1
%%CF
 73
     1
 44
1.0
1001
ACAD
1000
MTEXTBEGIN
1070
    73
1070
     1
1070
    44
1040
1.0
1070
    74
1070
     0
1000
MTEXTEND
  0
MTEXT
  5
5B08A
330
1F
100
AcDbEntity
  8
AM_6
100
AcDbMText
 10
6275.210641357385
 20
-5576.193208777795
 30
0.0
 40
3.200000000000001
 41
0.0
 71
     5
 72
     1
  1
2
 73
     1
 44
1.0
1001
ACAD
1000
MTEXTBEGIN
1070
    73
1070
     1
1070
    44
1040
1.0
1070
    74
1070
     0
1000
MTEXTEND
  0
MTEXT
  5
5B08B
330
1F
100
AcDbEntity
  8
AM_6
100
AcDbMText
 10
6275.210641357385
 20
-5582.193208777795
 30
0.0
 40
3.200000000000001
 41
0.0
 71
     5
 72
     1
  1
3
 73
     1
 44
1.0
1001
ACAD
1000
MTEXTBEGIN
1070
    73
1070
     1
1070
    44
1040
1.0
1070
    74
1070
     0
1000
MTEXTEND
  0
LINE
  5
5B08C
330
1F
100
AcDbEntity
  8
AM_0
100
AcDbLine
 10
6290.210641357385
 20
-5567.193208777794
 30
0.0
 11
6290.210641357385
 21
-5591.193208777793
 31
0.0
  0
MTEXT
  5
5B08D
330
1F
100
AcDbEntity
  8
AM_6
100
AcDbMText
 10
6285.210641357385
 20
-5570.193208777794
 30
0.0
 40
3.200000000000001
 41
0.0
 71
     5
 72
     1
  1
G
 73
     1
 44
1.0
1001
ACAD
1000
MTEXTBEGIN
1070
    73
1070
     1
1070
    44
1040
1.0
1070
    74
1070
     0
1000
MTEXTEND
  0
MTEXT
  5
5B08E
330
1F
100
AcDbEntity
  8
AM_6
100
AcDbMText
 10
6285.210641357385
 20
-5576.193208777795
 30
0.0
 40
3.200000000000001
 41
0.0
 71
     5
 72
     1
  1
11
 73
     1
 44
1.0
1001
ACAD
1000
MTEXTBEGIN
1070
    73
1070
     1
1070
    44
1040
1.0
1070
    74
1070
     0
1000
MTEXTEND
  0
MTEXT
  5
5B08F
330
1F
100
AcDbEntity
  8
AM_6
100
AcDbMText
 10
6285.210641357385
 20
-5582.193208777795
 30
0.0
 40
3.200000000000001
 41
0.0
 71
     5
 72
     1
  1
15
 73
     1
 44
1.0
1001
ACAD
1000
MTEXTBEGIN
1070
    73
1070
     1
1070
    44
1040
1.0
1070
    74
1070
     0
1000
MTEXTEND
  0
LINE
  5
5B090
330
1F
100
AcDbEntity
  8
AM_0
100
AcDbLine
 10
6300.210641357384
 20
-5567.193208777794
 30
0.0
 11
6300.210641357384
 21
-5591.193208777794
 31
0.0
  0
MTEXT
  5
5B091
330
1F
100
AcDbEntity
  8
AM_6
100
AcDbMText
 10
6295.210641357385
 20
-5570.193208777794
 30
0.0
 40
3.200000000000001
 41
0.0
 71
     5
 72
     1
  1
H
 73
     1
 44
1.0
1001
ACAD
1000
MTEXTBEGIN
1070
    73
1070
     1
1070
    44
1040
1.0
1070
    74
1070
     0
1000
MTEXTEND
  0
MTEXT
  5
5B092
330
1F
100
AcDbEntity
  8
AM_6
100
AcDbMText
 10
6295.210641357385
 20
-5576.193208777795
 30
0.0
 40
3.200000000000001
 41
0.0
 71
     5
 72
     1
  1
1
 73
     1
 44
1.0
1001
ACAD
1000
MTEXTBEGIN
1070
    73
1070
     1
1070
    44
1040
1.0
1070
    74
1070
     0
1000
MTEXTEND
  0
LINE
  5
5B093
330
1F
100
AcDbEntity
  8
AM_0
100
AcDbLine
 10
6310.210641357385
 20
-5567.193208777794
 30
0.0
 11
6310.210641357384
 21
-5591.193208777794
 31
0.0
  0
MTEXT
  5
5B094
330
1F
100
AcDbEntity
  8
AM_6
100
AcDbMText
 10
6305.210641357384
 20
-5570.193208777794
 30
0.0
 40
3.200000000000001
 41
0.0
 71
     5
 72
     1
  1
I
 73
     1
 44
1.0
1001
ACAD
1000
MTEXTBEGIN
1070
    73
1070
     1
1070
    44
1040
1.0
1070
    74
1070
     0
1000
MTEXTEND
  0
MTEXT
  5
5B096
330
1F
100
AcDbEntity
  8
AM_6
100
AcDbMText
 10
6305.210641357384
 20
-5588.193208777794
 30
0.0
 40
3.200000000000001
 41
0.0
 71
     5
 72
     1
  1
13
 73
     1
 44
1.0
1001
ACAD
1000
MTEXTBEGIN
1070
    73
1070
     1
1070
    44
1040
1.0
1070
    74
1070
     0
1000
MTEXTEND
  0
LINE
  5
5B097
330
1F
100
AcDbEntity
  8
AM_0
100
AcDbLine
 10
6320.210641357385
 20
-5567.193208777794
 30
0.0
 11
6320.210641357384
 21
-5591.193208777795
 31
0.0
  0
MTEXT
  5
5B098
330
1F
100
AcDbEntity
  8
AM_6
100
AcDbMText
 10
6315.210641357385
 20
-5570.193208777794
 30
0.0
 40
3.200000000000001
 41
0.0
 71
     5
 72
     1
  1
J
 73
     1
 44
1.0
1001
ACAD
1000
MTEXTBEGIN
1070
    73
1070
     1
1070
    44
1040
1.0
1070
    74
1070
     0
1000
MTEXTEND
  0
LINE
  5
5B099
330
1F
100
AcDbEntity
  8
AM_0
100
AcDbLine
 10
6330.210641357385
 20
-5567.193208777794
 30
0.0
 11
6330.210641357384
 21
-5591.193208777795
 31
0.0
  0
MTEXT
  5
5B09A
330
1F
100
AcDbEntity
  8
AM_6
100
AcDbMText
 10
6325.210641357385
 20
-5570.193208777794
 30
0.0
 40
3.200000000000001
 41
0.0
 71
     5
 72
     1
  1
K
 73
     1
 44
1.0
1001
ACAD
1000
MTEXTBEGIN
1070
    73
1070
     1
1070
    44
1040
1.0
1070
    74
1070
     0
1000
MTEXTEND
  0
MTEXT
  5
5B09B
330
1F
100
AcDbEntity
  8
AM_6
100
AcDbMText
 10
6325.210641357385
 20
-5576.193208777795
 30
0.0
 40
3.200000000000001
 41
0.0
 71
     5
 72
     1
  1
10
 73
     1
 44
1.0
1001
ACAD
1000
MTEXTBEGIN
1070
    73
1070
     1
1070
    44
1040
1.0
1070
    74
1070
     0
1000
MTEXTEND
  0
MTEXT
  5
5B09C
330
1F
100
AcDbEntity
  8
AM_6
100
AcDbMText
 10
6325.210641357385
 20
-5582.193208777795
 30
0.0
 40
3.200000000000001
 41
0.0
 71
     5
 72
     1
  1
13
 73
     1
 44
1.0
1001
ACAD
1000
MTEXTBEGIN
1070
    73
1070
     1
1070
    44
1040
1.0
1070
    74
1070
     0
1000
MTEXTEND
  0
LINE
  5
5B09D
330
1F
100
AcDbEntity
  8
AM_0
100
AcDbLine
 10
6340.210641357384
 20
-5567.193208777795
 30
0.0
 11
6340.210641357383
 21
-5591.193208777796
 31
0.0
  0
MTEXT
  5
5B09E
330
1F
100
AcDbEntity
  8
AM_6
100
AcDbMText
 10
6335.210641357384
 20
-5570.193208777794
 30
0.0
 40
3.200000000000001
 41
0.0
 71
     5
 72
     1
  1
L
 73
     1
 44
1.0
1001
ACAD
1000
MTEXTBEGIN
1070
    73
1070
     1
1070
    44
1040
1.0
1070
    74
1070
     0
1000
MTEXTEND
  0
MTEXT
  5
5B09F
330
1F
100
AcDbEntity
  8
AM_6
100
AcDbMText
 10
6335.210641357384
 20
-5576.193208777795
 30
0.0
 40
3.200000000000001
 41
0.0
 71
     5
 72
     1
  1
8
 73
     1
 44
1.0
1001
ACAD
1000
MTEXTBEGIN
1070
    73
1070
     1
1070
    44
1040
1.0
1070
    74
1070
     0
1000
MTEXTEND
  0
MTEXT
  5
5B0A0
330
1F
100
AcDbEntity
  8
AM_6
100
AcDbMText
 10
6335.210641357384
 20
-5582.193208777795
 30
0.0
 40
3.200000000000001
 41
0.0
 71
     5
 72
     1
  1
11
 73
     1
 44
1.0
1001
ACAD
1000
MTEXTBEGIN
1070
    73
1070
     1
1070
    44
1040
1.0
1070
    74
1070
     0
1000
MTEXTEND
  0
LINE
  5
5B0A1
330
1F
100
AcDbEntity
  8
AM_0
100
AcDbLine
 10
6350.210641357385
 20
-5567.193208777795
 30
0.0
 11
6350.210641357385
 21
-5591.193208777797
 31
0.0
  0
MTEXT
  5
5B0A2
330
1F
100
AcDbEntity
  8
AM_6
100
AcDbMText
 10
6345.210641357385
 20
-5570.193208777794
 30
0.0
 40
3.200000000000001
 41
0.0
 71
     5
 72
     1
  1
%%CM
 73
     1
 44
1.0
1001
ACAD
1000
MTEXTBEGIN
1070
    73
1070
     1
1070
    44
1040
1.0
1070
    74
1070
     0
1000
MTEXTEND
  0
MTEXT
  5
5B0A3
330
1F
100
AcDbEntity
  8
AM_6
100
AcDbMText
 10
6345.210641357385
 20
-5588.193208777795
 30
0.0
 40
3.200000000000001
 41
0.0
 71
     5
 72
     1
  1
5.2
 73
     1
 44
1.0
1001
ACAD
1000
MTEXTBEGIN
1070
    73
1070
     1
1070
    44
1040
1.0
1070
    74
1070
     0
1000
MTEXTEND
  0
MTEXT
  5
5B0A5
330
1F
100
AcDbEntity
  8
AM_6
100
AcDbMText
 10
6315.210641357385
 20
-5588.193208777794
 30
0.0
 40
3.200000000000001
 41
0.0
 71
     5
 72
     1
  1
2
 73
     1
 44
1.0
1001
ACAD
1000
MTEXTBEGIN
1070
    73
1070
     1
1070
    44
1040
1.0
1070
    74
1070
     0
1000
MTEXTEND
  0
MTEXT
  5
5B0A6
330
1F
100
AcDbEntity
  8
AM_6
100
AcDbMText
 10
6206.460641357384
 20
-5582.193208777792
 30
0.0
 40
3.200000000000001
 41
0.0
 71
     5
 72
     1
  1
ELP-122S-2
 73
     1
 44
1.0
1001
ACAD
1000
MTEXTBEGIN
1070
    73
1070
     1
1070
    44
1040
1.0
1070
    74
1070
     0
1000
MTEXTEND
  0
LINE
  5
5B0A7
330
1F
100
AcDbEntity
  8
AM_0
100
AcDbLine
 10
6360.210641357385
 20
-5567.193208777795
 30
0.0
 11
6360.210641357386
 21
-5591.193208777798
 31
0.0
  0
MTEXT
  5
5B0A8
330
1F
100
AcDbEntity
  8
AM_6
100
AcDbMText
 10
6355.210641357384
 20
-5570.193208777794
 30
0.0
 40
3.200000000000001
 41
0.0
 71
     5
 72
     1
  1
O
 73
     1
 44
1.0
1001
ACAD
1000
MTEXTBEGIN
1070
    73
1070
     1
1070
    44
1040
1.0
1070
    74
1070
     0
1000
MTEXTEND
  0
MTEXT
  5
5B0A9
330
1F
100
AcDbEntity
  8
AM_6
100
AcDbMText
 10
6355.210641357384
 20
-5576.193208777795
 30
0.0
 40
3.200000000000001
 41
0.0
 71
     5
 72
     1
  1
28
 73
     1
 44
1.0
1001
ACAD
1000
MTEXTBEGIN
1070
    73
1070
     1
1070
    44
1040
1.0
1070
    74
1070
     0
1000
MTEXTEND
  0
MTEXT
  5
5B0AA
330
1F
100
AcDbEntity
  8
AM_6
100
AcDbMText
 10
6355.210641357384
 20
-5582.193208777795
 30
0.0
 40
3.200000000000001
 41
0.0
 71
     5
 72
     1
  1
38
 73
     1
 44
1.0
1001
ACAD
1000
MTEXTBEGIN
1070
    73
1070
     1
1070
    44
1040
1.0
1070
    74
1070
     0
1000
MTEXTEND
  0
LINE
  5
5B0AB
330
1F
100
AcDbEntity
  8
AM_0
100
AcDbLine
 10
6370.210641357385
 20
-5567.193208777795
 30
0.0
 11
6370.210641357386
 21
-5591.193208777798
 31
0.0
  0
MTEXT
  5
5B0AC
330
1F
100
AcDbEntity
  8
AM_6
100
AcDbMText
 10
6365.210641357385
 20
-5570.193208777794
 30
0.0
 40
3.200000000000001
 41
0.0
 71
     5
 72
     1
  1
P
 73
     1
 44
1.0
1001
ACAD
1000
MTEXTBEGIN
1070
    73
1070
     1
1070
    44
1040
1.0
1070
    74
1070
     0
1000
MTEXTEND
  0
MTEXT
  5
5B0AD
330
1F
100
AcDbEntity
  8
AM_6
100
AcDbMText
 10
6365.210641357385
 20
-5576.193208777795
 30
0.0
 40
3.200000000000001
 41
0.0
 71
     5
 72
     1
  1
12
 73
     1
 44
1.0
1001
ACAD
1000
MTEXTBEGIN
1070
    73
1070
     1
1070
    44
1040
1.0
1070
    74
1070
     0
1000
MTEXTEND
  0
MTEXT
  5
5B0AE
330
1F
100
AcDbEntity
  8
AM_6
100
AcDbMText
 10
6365.210641357385
 20
-5582.193208777795
 30
0.0
 40
3.200000000000001
 41
0.0
 71
     5
 72
     1
  1
13
 73
     1
 44
1.0
1001
ACAD
1000
MTEXTBEGIN
1070
    73
1070
     1
1070
    44
1040
1.0
1070
    74
1070
     0
1000
MTEXTEND
  0
LINE
  5
5B0AF
330
1F
100
AcDbEntity
  8
AM_0
100
AcDbLine
 10
6380.210641357384
 20
-5567.193208777795
 30
0.0
 11
6380.210641357386
 21
-5591.193208777798
 31
0.0
  0
MTEXT
  5
5B0B0
330
1F
100
AcDbEntity
  8
AM_6
100
AcDbMText
 10
6375.210641357385
 20
-5570.193208777794
 30
0.0
 40
3.200000000000001
 41
0.0
 71
     5
 72
     1
  1
Q
 73
     1
 44
1.0
1001
ACAD
1000
MTEXTBEGIN
1070
    73
1070
     1
1070
    44
1040
1.0
1070
    74
1070
     0
1000
MTEXTEND
  0
MTEXT
  5
5B0B1
330
1F
100
AcDbEntity
  8
AM_6
100
AcDbMText
 10
6375.210641357385
 20
-5576.193208777795
 30
0.0
 40
3.200000000000001
 41
0.0
 71
     5
 72
     1
  1
16
 73
     1
 44
1.0
1001
ACAD
1000
MTEXTBEGIN
1070
    73
1070
     1
1070
    44
1040
1.0
1070
    74
1070
     0
1000
MTEXTEND
  0
MTEXT
  5
5B0B2
330
1F
100
AcDbEntity
  8
AM_6
100
AcDbMText
 10
6375.210641357385
 20
-5582.193208777795
 30
0.0
 40
3.200000000000001
 41
0.0
 71
     5
 72
     1
  1
18
 73
     1
 44
1.0
1001
ACAD
1000
MTEXTBEGIN
1070
    73
1070
     1
1070
    44
1040
1.0
1070
    74
1070
     0
1000
MTEXTEND
  0
LINE
  5
5B0B3
330
1F
100
AcDbEntity
  8
AM_0
100
AcDbLine
 10
6390.210641357384
 20
-5567.193208777795
 30
0.0
 11
6390.210641357385
 21
-5591.193208777798
 31
0.0
  0
MTEXT
  5
5B0B4
330
1F
100
AcDbEntity
  8
AM_6
100
AcDbMText
 10
6385.210641357385
 20
-5570.193208777794
 30
0.0
 40
3.200000000000001
 41
0.0
 71
     5
 72
     1
  1
%%CR
 73
     1
 44
1.0
1001
ACAD
1000
MTEXTBEGIN
1070
    73
1070
     1
1070
    44
1040
1.0
1070
    74
1070
     0
1000
MTEXTEND
  0
MTEXT
  5
5B0B5
330
1F
100
AcDbEntity
  8
AM_6
100
AcDbMText
 10
6385.210641357385
 20
-5576.193208777795
 30
0.0
 40
3.200000000000001
 41
0.0
 71
     5
 72
     1
  1
3.2
 73
     1
 44
1.0
1001
ACAD
1000
MTEXTBEGIN
1070
    73
1070
     1
1070
    44
1040
1.0
1070
    74
1070
     0
1000
MTEXTEND
  0
MTEXT
  5
5B0B6
330
1F
100
AcDbEntity
  8
AM_6
100
AcDbMText
 10
6385.210641357385
 20
-5582.193208777795
 30
0.0
 40
3.200000000000001
 41
0.0
 71
     5
 72
     1
  1
4.2
 73
     1
 44
1.0
1001
ACAD
1000
MTEXTBEGIN
1070
    73
1070
     1
1070
    44
1040
1.0
1070
    74
1070
     0
1000
MTEXTEND
  0
LINE
  5
5B0B7
330
1F
100
AcDbEntity
  8
AM_0
100
AcDbLine
 10
6192.710641357384
 20
-5591.193208777792
 30
0.0
 11
6390.210641357383
 21
-5591.193208777797
 31
0.0
  0
MTEXT
  5
5B0B8
330
1F
100
AcDbEntity
  8
AM_6
100
AcDbMText
 10
6206.460641357384
 20
-5588.193208777792
 30
0.0
 40
3.200000000000001
 41
0.0
 71
     5
 72
     1
  1
ELP-122S-3
 73
     1
 44
1.0
1001
ACAD
1000
MTEXTBEGIN
1070
    73
1070
     1
1070
    44
1040
1.0
1070
    74
1070
     0
1000
MTEXTEND
  0
MTEXT
  5
5B0B9
330
1F
100
AcDbEntity
  8
AM_6
100
AcDbMText
 10
6225.210641357385
 20
-5588.193208777794
 30
0.0
 40
3.200000000000001
 41
0.0
 71
     5
 72
     1
  1
72
 73
     1
 44
1.0
1001
ACAD
1000
MTEXTBEGIN
1070
    73
1070
     1
1070
    44
1040
1.0
1070
    74
1070
     0
1000
MTEXTEND
  0
MTEXT
  5
5B0BA
330
1F
100
AcDbEntity
  8
AM_6
100
AcDbMText
 10
6235.210641357385
 20
-5588.193208777794
 30
0.0
 40
3.200000000000001
 41
0.0
 71
     5
 72
     1
  1
52
 73
     1
 44
1.0
1001
ACAD
1000
MTEXTBEGIN
1070
    73
1070
     1
1070
    44
1040
1.0
1070
    74
1070
     0
1000
MTEXTEND
  0
MTEXT
  5
5B0BB
330
1F
100
AcDbEntity
  8
AM_6
100
AcDbMText
 10
6245.210641357385
 20
-5588.193208777794
 30
0.0
 40
3.200000000000001
 41
0.0
 71
     5
 72
     1
  1
22
 73
     1
 44
1.0
1001
ACAD
1000
MTEXTBEGIN
1070
    73
1070
     1
1070
    44
1040
1.0
1070
    74
1070
     0
1000
MTEXTEND
  0
MTEXT
  5
5B0BC
330
1F
100
AcDbEntity
  8
AM_6
100
AcDbMText
 10
6255.210641357386
 20
-5582.193208777795
 30
0.0
 40
3.200000000000001
 41
0.0
 71
     5
 72
     1
  1
17
 73
     1
 44
1.0
1001
ACAD
1000
MTEXTBEGIN
1070
    73
1070
     1
1070
    44
1040
1.0
1070
    74
1070
     0
1000
MTEXTEND
  0
MTEXT
  5
5B0BD
330
1F
100
AcDbEntity
  8
AM_6
100
AcDbMText
 10
6255.210641357386
 20
-5588.193208777794
 30
0.0
 40
3.200000000000001
 41
0.0
 71
     5
 72
     1
  1
23
 73
     1
 44
1.0
1001
ACAD
1000
MTEXTBEGIN
1070
    73
1070
     1
1070
    44
1040
1.0
1070
    74
1070
     0
1000
MTEXTEND
  0
MTEXT
  5
5B0BE
330
1F
100
AcDbEntity
  8
AM_6
100
AcDbMText
 10
6265.210641357384
 20
-5588.193208777794
 30
0.0
 40
3.200000000000001
 41
0.0
 71
     5
 72
     1
  1
37
 73
     1
 44
1.0
1001
ACAD
1000
MTEXTBEGIN
1070
    73
1070
     1
1070
    44
1040
1.0
1070
    74
1070
     0
1000
MTEXTEND
  0
MTEXT
  5
5B0BF
330
1F
100
AcDbEntity
  8
AM_6
100
AcDbMText
 10
6275.210641357385
 20
-5588.193208777794
 30
0.0
 40
3.200000000000001
 41
0.0
 71
     5
 72
     1
  1
3.5
 73
     1
 44
1.0
1001
ACAD
1000
MTEXTBEGIN
1070
    73
1070
     1
1070
    44
1040
1.0
1070
    74
1070
     0
1000
MTEXTEND
  0
MTEXT
  5
5B0C0
330
1F
100
AcDbEntity
  8
AM_6
100
AcDbMText
 10
6285.210641357385
 20
-5588.193208777793
 30
0.0
 40
3.200000000000001
 41
0.0
 71
     5
 72
     1
  1
19
 73
     1
 44
1.0
1001
ACAD
1000
MTEXTBEGIN
1070
    73
1070
     1
1070
    44
1040
1.0
1070
    74
1070
     0
1000
MTEXTEND
  0
MTEXT
  5
5B0C2
330
1F
100
AcDbEntity
  8
AM_6
100
AcDbMText
 10
6295.210641357385
 20
-5585.193208777794
 30
0.0
 40
3.200000000000001
 41
0.0
 71
     5
 72
     1
  1
1.5
 73
     1
 44
1.0
1001
ACAD
1000
MTEXTBEGIN
1070
    73
1070
     1
1070
    44
1040
1.0
1070
    74
1070
     0
1000
MTEXTEND
  0
MTEXT
  5
5B0C3
330
1F
100
AcDbEntity
  8
AM_6
100
AcDbMText
 10
6305.210641357384
 20
-5579.193208777793
 30
0.0
 40
3.200000000000001
 41
0.0
 71
     5
 72
     1
  1
8.5
 73
     1
 44
1.0
1001
ACAD
1000
MTEXTBEGIN
1070
    73
1070
     1
1070
    44
1040
1.0
1070
    74
1070
     0
1000
MTEXTEND
  0
MTEXT
  5
5B0C4
330
1F
100
AcDbEntity
  8
AM_6
100
AcDbMText
 10
6315.210641357385
 20
-5579.193208777793
 30
0.0
 40
3.200000000000001
 41
0.0
 71
     5
 72
     1
  1
1.5
 73
     1
 44
1.0
1001
ACAD
1000
MTEXTBEGIN
1070
    73
1070
     1
1070
    44
1040
1.0
1070
    74
1070
     0
1000
MTEXTEND
  0
MTEXT
  5
5B0C5
330
1F
100
AcDbEntity
  8
AM_6
100
AcDbMText
 10
6325.210641357385
 20
-5588.193208777793
 30
0.0
 40
3.200000000000001
 41
0.0
 71
     5
 72
     1
  1
17
 73
     1
 44
1.0
1001
ACAD
1000
MTEXTBEGIN
1070
    73
1070
     1
1070
    44
1040
1.0
1070
    74
1070
     0
1000
MTEXTEND
  0
MTEXT
  5
5B0C6
330
1F
100
AcDbEntity
  8
AM_6
100
AcDbMText
 10
6335.210641357384
 20
-5588.193208777795
 30
0.0
 40
3.200000000000001
 41
0.0
 71
     5
 72
     1
  1
13
 73
     1
 44
1.0
1001
ACAD
1000
MTEXTBEGIN
1070
    73
1070
     1
1070
    44
1040
1.0
1070
    74
1070
     0
1000
MTEXTEND
  0
MTEXT
  5
5B0C7
330
1F
100
AcDbEntity
  8
AM_6
100
AcDbMText
 10
6345.210641357386
 20
-5576.193208777795
 30
0.0
 40
3.200000000000001
 41
0.0
 71
     5
 72
     1
  1
3.2
 73
     1
 44
1.0
1001
ACAD
1000
MTEXTBEGIN
1070
    73
1070
     1
1070
    44
1040
1.0
1070
    74
1070
     0
1000
MTEXTEND
  0
MTEXT
  5
5B0C8
330
1F
100
AcDbEntity
  8
AM_6
100
AcDbMText
 10
6345.210641357385
 20
-5582.193208777795
 30
0.0
 40
3.200000000000001
 41
0.0
 71
     5
 72
     1
  1
4.2
 73
     1
 44
1.0
1001
ACAD
1000
MTEXTBEGIN
1070
    73
1070
     1
1070
    44
1040
1.0
1070
    74
1070
     0
1000
MTEXTEND
  0
MTEXT
  5
5B0C9
330
1F
100
AcDbEntity
  8
AM_6
100
AcDbMText
 10
6355.210641357384
 20
-5588.193208777795
 30
0.0
 40
3.200000000000001
 41
0.0
 71
     5
 72
     1
  1
55
 73
     1
 44
1.0
1001
ACAD
1000
MTEXTBEGIN
1070
    73
1070
     1
1070
    44
1040
1.0
1070
    74
1070
     0
1000
MTEXTEND
  0
MTEXT
  5
5B0CA
330
1F
100
AcDbEntity
  8
AM_6
100
AcDbMText
 10
6365.210641357385
 20
-5588.193208777795
 30
0.0
 40
3.200000000000001
 41
0.0
 71
     5
 72
     1
  1
17
 73
     1
 44
1.0
1001
ACAD
1000
MTEXTBEGIN
1070
    73
1070
     1
1070
    44
1040
1.0
1070
    74
1070
     0
1000
MTEXTEND
  0
MTEXT
  5
5B0CB
330
1F
100
AcDbEntity
  8
AM_6
100
AcDbMText
 10
6375.210641357385
 20
-5588.193208777795
 30
0.0
 40
3.200000000000001
 41
0.0
 71
     5
 72
     1
  1
25
 73
     1
 44
1.0
1001
ACAD
1000
MTEXTBEGIN
1070
    73
1070
     1
1070
    44
1040
1.0
1070
    74
1070
     0
1000
MTEXTEND
  0
MTEXT
  5
5B0CC
330
1F
100
AcDbEntity
  8
AM_6
100
AcDbMText
 10
6385.210641357385
 20
-5588.193208777795
 30
0.0
 40
3.200000000000001
 41
0.0
 71
     5
 72
     1
  1
5.2
 73
     1
 44
1.0
1001
ACAD
1000
MTEXTBEGIN
1070
    73
1070
     1
1070
    44
1040
1.0
1070
    74
1070
     0
1000
MTEXTEND
  0
ARC
  5
5B375
330
1F
100
AcDbEntity
  8
AM_0
  6
中線
 48
0.5
370
    30
100
AcDbCircle
 10
6279.419453353291
 20
-5482.25933690343
 30
0.0
 40
26.0
100
AcDbArc
 50
18.63798826643384
 51
21.43125450382489
  0
ARC
  5
5B376
330
1F
100
AcDbEntity
  8
AM_0
  6
中線
 48
0.5
370
    30
100
AcDbCircle
 10
6279.419453353291
 20
-5482.25933690343
 30
0.0
 40
22.5
100
AcDbArc
 50
18.63798826643446
 51
24.97496536765783
  0
CIRCLE
  5
5B379
330
1F
100
AcDbEntity
  8
AM_0
  6
中線
 48
0.5
370
    30
100
AcDbCircle
 10
6302.397703939443
 20
-5474.50933690343
 30
0.0
 40
1.749999999999652
  0
ARC
  5
5B3A6
330
1F
100
AcDbEntity
  8
AM_0
  6
中線
 48
0.5
370
    30
100
AcDbCircle
 10
6279.419453353291
 20
-5482.25933690343
 30
0.0
 40
26.0
100
AcDbArc
 50
25.0289994876149
 51
156.1811586065436
  0
ARC
  5
5B3A7
330
1F
100
AcDbEntity
  8
AM_0
  6
中線
 48
0.5
370
    30
100
AcDbCircle
 10
6279.419453353291
 20
-5482.25933690343
 30
0.0
 40
22.5
100
AcDbArc
 50
29.26757759753171
 51
152.1818607153456
  0
CIRCLE
  5
5B3CC
330
1F
100
AcDbEntity
  8
AM_0
  6
中線
 48
0.5
370
    30
100
AcDbCircle
 10
6302.397703939443
 20
-5490.00933690343
 30
0.0
 40
1.749999999999652
  0
ARC
  5
5B3CD
330
1F
100
AcDbEntity
  8
AM_0
  6
中線
 48
0.5
370
    30
100
AcDbCircle
 10
6279.419453353291
 20
-5482.25933690343
 30
0.0
 40
26.0
100
AcDbArc
 50
338.5687454961657
 51
341.3620117335414
  0
ARC
  5
5B3CE
330
1F
100
AcDbEntity
  8
AM_0
  6
中線
 48
0.5
370
    30
100
AcDbCircle
 10
6279.419453353291
 20
-5482.25933690343
 30
0.0
 40
22.5
100
AcDbArc
 50
335.0250346323761
 51
341.3620117335414
  0
DIMENSION
  5
5B408
330
1F
100
AcDbEntity
  8
AM_5
100
AcDbDimension
  2
*D22
 10
6313.554559418967
 20
-5480.284460098094
 30
0.0
 11
6334.679914126081
 21
-5498.679629560128
 31
0.0
 70
   163
  1
2-%%cM
 71
     5
 42
5.199999999993451
  3
SYS$3
100
AcDbDiametricDimension
 15
6316.936784487608
 25
-5484.23421370876
 35
0.0
 40
0.0
1001
ACAD
1000
DSTYLE
1002
{
1070
    41
1040
1.0
1070
   172
1070
     1
1070
   342
1005
6C4
1002
}
  0
DIMENSION
  5
5B448
330
1F
100
AcDbEntity
  8
AM_5
100
AcDbDimension
  2
*D23
 10
6244.753701434158
 20
-5492.641355061012
 30
0.0
 11
6229.138821040146
 21
-5507.025298470519
 31
0.0
 70
   163
  1
2-%%cR
 71
     5
 42
5.199999999990723
  3
SYS$3
100
AcDbDiametricDimension
 15
6241.737642472412
 25
-5496.877318745839
 35
0.0
 40
0.0
1001
ACAD
1000
DSTYLE
1002
{
1070
    41
1040
1.0
1070
   172
1070
     1
1070
   342
1005
6C4
1002
}
  0
ARC
  5
5B470
330
1F
100
AcDbEntity
  8
0部品18
100
AcDbCircle
 10
6279.419453353291
 20
-5482.25933690343
 30
0.0
 40
22.5
100
AcDbArc
 50
207.8181392846544
 51
330.7324224024683
  0
ARC
  5
5B471
330
1F
100
AcDbEntity
  8
AM_0
  6
中線
 48
0.5
370
    30
100
AcDbCircle
 10
6279.419453353291
 20
-5482.25933690343
 30
0.0
 40
26.0
100
AcDbArc
 50
203.8188413934563
 51
334.9710005123851
  0
LINE
  5
5B710
330
1F
100
AcDbEntity
  8
AM_2
100
AcDbLine
 10
6300.210641357384
 20
-5585.193208777794
 30
0.0
 11
6390.210641357383
 21
-5585.193208777796
 31
0.0
  0
LINE
  5
5B711
330
1F
100
AcDbEntity
  8
AM_2
100
AcDbLine
 10
6320.210641357386
 20
-5579.193208777791
 30
0.0
 11
6390.210641357384
 21
-5579.193208777795
 31
0.0
  0
ENDSEC
  0
SECTION
  2
OBJECTS
  0
DICTIONARY
  5
C
330
0
100
AcDbDictionary
281
     1
  3
ACAD_2007HEADERVARS_RT
350
5B713
  3
ACAD_BGPLOT_KEY
350
AB06
  3
ACAD_COLOR
350
A91D
  3
ACAD_GROUP
350
D
  3
ACAD_LAYOUT
350
1A
  3
ACAD_MATERIAL
350
A91C
  3
ACAD_MLINESTYLE
350
17
  3
ACAD_PLOTSETTINGS
350
19
  3
ACAD_PLOTSTYLENAME
350
E
  3
ACAD_TABLESTYLE
350
AAB9
  3
ACAD_VISUALSTYLE
350
B0F1
  3
AcAsAppObject
350
3DA1
  3
ACASGREF_MASTER
350
3DE9
  3
AcDbVariableDictionary
350
34
  3
AcmDictionary
350
47
  3
AD_GREF_MODULE
350
3DEA
  3
AD_MAPI_MODULE
350
3E06
  3
AMG
350
2B
  3
AMGSNAPSETTINGS
350
7D
  3
ASE_INDEX_DICTIONARY
350
57912
  3
DWGPROPS
350
5B712
  3
MAPISURF_MODULE
350
3DEB
  0
DICTIONARY
  5
3F95
330
2
100
AcDbDictionary
280
     1
281
     1
  3
ACAD_LAYERFILTERS
360
5369F
  3
ACAD_LAYERSTATES
360
3F96
  3
ACLYDICTIONARY
360
5369E
  3
AMLAYER_GROUPCOLORS
360
AAB4
  0
DICTIONARY
  5
5B476
330
5B475
100
AcDbDictionary
280
     1
281
     1
  3
ADSK_XREC_LAYER_RECONCILED
360
5B477
  0
DICTIONARY
  5
8A
330
1F
100
AcDbDictionary
280
     1
281
     1
  3
ACAD_SORTENTS
360
B1BA
  0
DICTIONARY
  5
5B713
102
{ACAD_REACTORS
330
C
102
}
330
C
100
AcDbDictionary
281
     1
  3
DIMARCSYM
350
5B714
  0
DICTIONARY
  5
AB06
102
{ACAD_REACTORS
330
C
102
}
330
C
100
AcDbDictionary
280
     1
281
     1
  0
DICTIONARY
  5
A91D
102
{ACAD_REACTORS
330
C
102
}
330
C
100
AcDbDictionary
281
     1
  0
DICTIONARY
  5
D
102
{ACAD_REACTORS
330
C
102
}
330
C
100
AcDbDictionary
281
     1
  0
DICTIONARY
  5
1A
102
{ACAD_REACTORS
330
C
102
}
330
C
100
AcDbDictionary
281
     1
  3
Model
350
22
  3
ﾚｲｱｳﾄ1
350
1E
  3
ﾚｲｱｳﾄ2
350
26
  0
DICTIONARY
  5
A91C
102
{ACAD_REACTORS
330
C
102
}
330
C
100
AcDbDictionary
281
     1
  3
ByBlock
350
B0EF
  3
ByLayer
350
B0EE
  3
Global
350
B0F0
  0
DICTIONARY
  5
17
102
{ACAD_REACTORS
330
C
102
}
330
C
100
AcDbDictionary
281
     1
  3
Standard
350
18
  0
DICTIONARY
  5
19
102
{ACAD_REACTORS
330
C
102
}
330
C
100
AcDbDictionary
281
     1
  0
ACDBDICTIONARYWDFLT
  5
E
102
{ACAD_REACTORS
330
C
102
}
330
C
100
AcDbDictionary
281
     1
  3
Normal
350
F
100
AcDbDictionaryWithDefault
340
F
  0
DICTIONARY
  5
AAB9
102
{ACAD_REACTORS
330
C
102
}
330
C
100
AcDbDictionary
281
     1
  3
Standard
350
AABA
  0
DICTIONARY
  5
B0F1
102
{ACAD_REACTORS
330
C
102
}
330
C
100
AcDbDictionary
281
     1
  3
2dWireframe
350
B0F7
  3
3D Hidden
350
B0F9
  3
3dWireframe
350
B0F8
  3
Basic
350
B0F6
  3
Brighten
350
B0FD
  3
ColorChange
350
B101
  3
Conceptual
350
B0FA
  3
Dim
350
B0FC
  3
Facepattern
350
B100
  3
Flat
350
B0F2
  3
FlatWithEdges
350
B0F3
  3
Gouraud
350
B0F4
  3
GouraudWithEdges
350
B0F5
  3
Linepattern
350
B0FF
  3
Realistic
350
B0FB
  3
Thicken
350
B0FE
  0
ACAD_PROXY_OBJECT
  5
3DA1
102
{ACAD_REACTORS
330
C
102
}
330
C
100
AcDbProxyObject
 90
      499
 91
      576
 95
   917527
 70
     0
 93
       10
310
407F
 94
        0
1001
ACAD
1000
AcRTDxfName
1000
ASAPP
  0
ACAD_PROXY_OBJECT
  5
3DE9
102
{ACAD_REACTORS
330
C
102
}
330
C
100
AcDbProxyObject
 90
      499
 91
      581
 95
   917527
 70
     0
 93
       34
310
010000407F
 94
        0
1001
ACAD
1000
AcRTDxfName
1000
ACASGREFMASTER
  0
DICTIONARY
  5
34
102
{ACAD_REACTORS
330
C
102
}
330
C
100
AcDbDictionary
281
     1
  3
CTABLESTYLE
350
AAF3
  3
DIMASSOC
350
A10C
  3
FIELDEVAL
350
AB07
  3
INDEXCTL
350
35
  3
SORTENTS
350
194C
  0
DICTIONARY
  5
47
102
{ACAD_REACTORS
330
C
102
}
330
C
100
AcDbDictionary
281
     1
  3
AcmBOM
350
7E8
  3
AcmStdDictionary
350
4C
  3
AMDTSECTSYM_ARROWCOLOR
350
A929
  0
ACAD_PROXY_OBJECT
  5
3DEA
102
{ACAD_REACTORS
330
C
102
}
330
C
100
AcDbProxyObject
 90
      499
 91
      582
 95
   917527
 70
     0
 93
      114
310
00000043800000000000000000003F
 94
        0
1001
ACAD
1000
AcRTDxfName
1000
ACADGREFMODULE
  0
ACAD_PROXY_OBJECT
  5
3E06
102
{ACAD_REACTORS
330
C
102
}
330
C
100
AcDbProxyObject
 90
      499
 91
      594
 95
   917527
 70
     0
 93
       34
310
05000044FF
 94
        0
1001
ACAD
1000
AcRTDxfName
1000
MAPIADMODULE
  0
DICTIONARY
  5
2B
102
{ACAD_REACTORS
330
C
102
}
330
C
100
AcDbDictionary
281
     1
  0
DICTIONARY
  5
7D
102
{ACAD_REACTORS
330
C
102
}
330
C
100
AcDbDictionary
281
     1
  0
DICTIONARY
  5
57912
102
{ACAD_REACTORS
330
C
102
}
330
C
100
AcDbDictionary
281
     1
  3
ASEBlockHierarchyIndexRecord
350
57913
1001
DCO15
1040
1757428023.343
  0
XRECORD
  5
5B712
102
{ACAD_REACTORS
330
C
102
}
330
C
100
AcDbXrecord
280
     1
  1
DWGPROPS COOKIE
  2

  3

  4

  6

  7

  8
Administrator
  9

300
AmdtFileType=84
301
=
302
=
303
=
304
=
305
=
306
=
307
=
308
=
309
=
 40
7.948991030092592
 41
2455567.680725081
 42
2456343.623195891
  1

 90
        1
  0
ACAD_PROXY_OBJECT
  5
3DEB
102
{ACAD_REACTORS
330
C
102
}
330
C
100
AcDbProxyObject
 90
      499
 91
      583
 95
   917527
 70
     0
 93
        8
310
0478
 94
        0
1001
ACAD
1000
AcRTDxfName
1000
AMDTMAPISURFMOUDULE
  0
DICTIONARY
  5
5369F
102
{ACAD_REACTORS
330
3F95
102
}
330
3F95
100
AcDbDictionary
281
     1
  0
DICTIONARY
  5
3F96
102
{ACAD_REACTORS
330
3F95
102
}
330
3F95
100
AcDbDictionary
281
     1
  3
20011210
350
3FB7
  0
DICTIONARY
  5
5369E
102
{ACAD_REACTORS
330
3F95
102
}
330
3F95
100
AcDbDictionary
281
     1
1001
ACAD
1000
<All
  0
DICTIONARY
  5
AAB4
102
{ACAD_REACTORS
330
3F95
102
}
330
3F95
100
AcDbDictionary
280
     1
281
     1
  0
XRECORD
  5
5B477
102
{ACAD_REACTORS
330
5B476
102
}
330
5B476
100
AcDbXrecord
280
     1
290
     1
  0
SORTENTSTABLE
  5
B1BA
102
{ACAD_REACTORS
330
8A
102
}
330
8A
100
AcDbSortentsTable
330
1F
331
31B33
  5
3273B
331
31B3B
  5
3273C
331
5B091
  5
5B093
331
5AFE6
  5
5AFE6
331
5B01B
  5
5B01B
331
5B05A
  5
5B05A
331
5B099
  5
5B09B
331
5AFEE
  5
5AFEE
331
5B023
  5
5B023
331
5B062
  5
5B062
331
5B0A1
  5
5B0A3
331
5183F
  5
B5AD
331
5AFF6
  5
5AFF6
331
5B02B
  5
5B02B
331
5B06A
  5
5B06A
331
5B0A9
  5
5B0AB
331
5AFFE
  5
5AFFE
331
5B033
  5
5B033
331
5B072
  5
5B072
331
5B710
  5
5B076
331
5B471
  5
5B3AA
331
5B0B1
  5
5B0B3
331
5B07A
  5
5B07C
331
5B006
  5
5B006
331
5B03B
  5
5B03B
331
5B0B9
  5
5B0BB
331
5B082
  5
5B084
331
5B00E
  5
5B00E
331
5B043
  5
5B043
331
5B08A
  5
5B08C
331
5B016
  5
5B016
331
5B04B
  5
5B04B
331
5B0C9
  5
5B0CB
331
5AFDF
  5
5AFDF
331
5B053
  5
5B053
331
31B3C
  5
3273D
331
4E0E8
  5
4E1D3
331
5B092
  5
5B094
331
5AFE7
  5
5AFE7
331
5B01C
  5
5B01C
331
5B05B
  5
5B05B
331
5B09A
  5
5B09C
331
5AFEF
  5
5AFEF
331
5B024
  5
5B024
331
5B063
  5
5B063
331
5B0A2
  5
5B0A5
331
51840
  5
B5AE
331
5AFF7
  5
5AFF7
331
5B02C
  5
5B02C
331
5B0AA
  5
5B0AC
331
5AFFF
  5
5AFFF
331
5B034
  5
5B034
331
5B073
  5
5B073
331
5B711
  5
5B074
331
5B3CC
  5
5B448
331
5B375
  5
5B3A6
331
34534
  5
3454C
331
5B0B2
  5
5B0B4
331
5B07B
  5
5B07D
331
5B007
  5
5B007
331
5B03C
  5
5B03C
331
5B0BA
  5
5B0BC
331
5B083
  5
5B085
331
5B00F
  5
5B00F
331
5B044
  5
5B044
331
5B0C2
  5
5B0C4
331
5B08B
  5
5B08D
331
5B017
  5
5B017
331
5B04C
  5
5B04C
331
5B0CA
  5
5B0CC
331
5B054
  5
5B054
331
31B3D
  5
3273E
331
4E0E9
  5
4E1D4
331
5AFE0
  5
5AFE0
331
5B093
  5
5B096
331
32D1D
  5
32D3A
331
5AFE8
  5
5AFE8
331
5B01D
  5
5B01D
331
5B05C
  5
5B05C
331
5B09B
  5
5B09D
331
5AFF0
  5
5AFF0
331
5B025
  5
5B025
331
5B064
  5
5B064
331
5B0A3
  5
5B0A6
331
51841
  5
B5E2
331
5AFF8
  5
5AFF8
331
5B02D
  5
5B02D
331
5B06C
  5
5B06C
331
5B0AB
  5
5B0AD
331
5B074
  5
5B075
331
5B3CD
  5
5B470
331
5B376
  5
5B3CC
331
34535
  5
3454D
331
5B000
  5
5B000
331
5B0B3
  5
5B0B5
331
5B07C
  5
5B07E
331
5B008
  5
5B008
331
5B03D
  5
5B03D
331
5B0BB
  5
5B0BD
331
5B084
  5
5B086
331
5B010
  5
5B010
331
5B045
  5
5B045
331
5B0C3
  5
5B0C5
331
5B08C
  5
5B08E
331
5B04D
  5
5B04D
331
5B0CB
  5
5B375
331
5B055
  5
5B055
331
5B3A6
  5
5B3A7
331
31B3E
  5
3273F
331
4E0EA
  5
4E1D5
331
5AFE1
  5
5AFE1
331
5B094
  5
5B097
331
32D1E
  5
32D3B
331
5AFE9
  5
5AFE9
331
5B05D
  5
5B05D
331
5B09C
  5
5B09E
331
5AFF1
  5
5AFF1
331
5B026
  5
5B026
331
5B065
  5
5B065
331
51842
  5
B5E3
331
5AFF9
  5
5AFF9
331
5B02E
  5
5B02E
331
5B06D
  5
5B06D
331
5B0AC
  5
5B0AE
331
5B075
  5
5B077
331
5B036
  5
5B036
331
5B3CE
  5
5B471
331
34536
  5
3454E
331
5184A
  5
B8D5
331
5B001
  5
5B001
331
5B0B4
  5
5B0B6
331
5B07D
  5
5B07F
331
5B009
  5
5B009
331
5B0BC
  5
5B0BE
331
5B085
  5
5B087
331
5B011
  5
5B011
331
5B046
  5
5B046
331
5B0C4
  5
5B0C6
331
5B08D
  5
5B08F
331
5B04E
  5
5B04E
331
5B0CC
  5
5B377
331
5B056
  5
5B056
331
5B3A7
  5
5B3CD
331
4E0EB
  5
4E1D6
331
5AFE2
  5
5AFE2
331
32D1F
  5
32D3C
331
4E0F3
  5
4E1DE
331
5AFEA
  5
5AFEA
331
5B01F
  5
5B01F
331
5B05E
  5
5B05E
331
5B09D
  5
5B09F
331
5AFF2
  5
5AFF2
331
5B027
  5
5B027
331
5B066
  5
5B066
331
5B0A5
  5
5B0A7
331
5AFFA
  5
5AFFA
331
5B02F
  5
5B02F
331
5B06E
  5
5B06E
331
5B0AD
  5
5B0AF
331
5B076
  5
5B078
331
5184B
  5
B8D6
331
5B002
  5
5B002
331
5B0B5
  5
5B0B7
331
5B07E
  5
5B080
331
5B00A
  5
5B00A
331
5B0BD
  5
5B0BF
331
5B086
  5
5B088
331
5B012
  5
5B012
331
5B047
  5
5B047
331
5B0C5
  5
5B0C7
331
5B08E
  5
5B090
331
5B04F
  5
5B04F
331
5B057
  5
5B057
331
31B30
  5
32738
331
5AFE3
  5
5AFE3
331
5B018
  5
5B018
331
5B096
  5
5B098
331
4E0F4
  5
4E1DF
331
5AFEB
  5
5AFEB
331
5B020
  5
5B020
331
5B05F
  5
5B05F
331
5B09E
  5
5B0A0
331
5AFF3
  5
5AFF3
331
5B028
  5
5B028
331
5B0A6
  5
5B0A8
331
5AFFB
  5
5AFFB
331
5B030
  5
5B030
331
5B06F
  5
5B06F
331
5B0AE
  5
5B0B0
331
5B077
  5
5B079
331
5B379
  5
5B408
331
34538
  5
34550
331
5184C
  5
B8D7
331
5B003
  5
5B003
331
5B038
  5
5B038
331
5B0B6
  5
5B0B8
331
5B07F
  5
5B081
331
5B00B
  5
5B00B
331
5B0BE
  5
5B0C0
331
5B087
  5
5B089
331
5B013
  5
5B013
331
5B048
  5
5B048
331
5B0C6
  5
5B0C8
331
5B08F
  5
5B091
331
5B050
  5
5B050
331
31B31
  5
32739
331
5AFE4
  5
5AFE4
331
5B019
  5
5B019
331
5B058
  5
5B058
331
5B097
  5
5B099
331
32D21
  5
32D3E
331
4E0F5
  5
4E1E0
331
5AFEC
  5
5AFEC
331
5B021
  5
5B021
331
5B060
  5
5B060
331
5B09F
  5
5B0A1
331
5AFF4
  5
5AFF4
331
5B029
  5
5B029
331
5B068
  5
5B068
331
5B0A7
  5
5B0A9
331
5AFFC
  5
5AFFC
331
5B031
  5
5B031
331
5B070
  5
5B070
331
5B0AF
  5
5B0B1
331
5B408
  5
5B710
331
5B078
  5
5B07A
331
5184D
  5
B8D8
331
5B004
  5
5B004
331
5B039
  5
5B039
331
5B0B7
  5
5B0B9
331
5B080
  5
5B082
331
5B00C
  5
5B00C
331
5B041
  5
5B041
331
5B0BF
  5
5B0C2
331
5B088
  5
5B08A
331
5B014
  5
5B014
331
5B049
  5
5B049
331
5B0C7
  5
5B0C9
331
5AFDD
  5
5AFDD
331
5B051
  5
5B051
331
5B448
  5
5B711
331
31B32
  5
3273A
331
5B090
  5
5B092
331
5AFE5
  5
5AFE5
331
5B01A
  5
5B01A
331
5B059
  5
5B059
331
5B098
  5
5B09A
331
4E0F6
  5
4E1E1
331
5AFED
  5
5AFED
331
5B022
  5
5B022
331
5B061
  5
5B061
331
5B0A0
  5
5B0A2
331
5AFF5
  5
5AFF5
331
5B02A
  5
5B02A
331
5B069
  5
5B069
331
5B0A8
  5
5B0AA
331
5AFFD
  5
5AFFD
331
5B032
  5
5B032
331
5B071
  5
5B071
331
5B470
  5
5B3CE
331
5B0B0
  5
5B0B2
331
5B079
  5
5B07B
331
5B005
  5
5B005
331
5B03A
  5
5B03A
331
5B0B8
  5
5B0BA
331
5B081
  5
5B083
331
5B00D
  5
5B00D
331
5B0C0
  5
5B0C3
331
5B089
  5
5B08B
331
5B04A
  5
5B04A
331
5B0C8
  5
5B0CA
331
5AFDE
  5
5AFDE
331
5B052
  5
5B052
  0
XRECORD
  5
5B714
102
{ACAD_REACTORS
330
5B713
102
}
330
5B713
100
AcDbXrecord
280
     1
 70
     1
  0
LAYOUT
  5
22
102
{ACAD_XDICTIONARY
360
5B717
102
}
102
{ACAD_REACTORS
330
1A
102
}
330
1A
100
AcDbPlotSettings
  1

  2
FX DocuWide 2050/2051
  4
A3
  6
AM_VIEW1
 40
3.174999952316284
 41
3.174999952316284
 42
3.17498779296875
 43
3.17498779296875
 44
296.989501953125
 45
419.9889831542968
 46
0.0
 47
1.295841228961961
 48
214.3704939521119
 49
367.5855324241176
140
275.6727856380065
141
407.629191407817
142
1.0
143
0.7225445603030646
 70
  3764
 72
     1
 73
     1
 74
     2
  7
monochrome.ctb
 75
     0
147
1.383997686703999
148
-1700.85588156276
149
-1647.985052086429
100
AcDbLayout
  1
Model
 70
     1
 71
     0
 10
0.0
 20
0.0
 11
12.0
 21
9.0
 12
0.0
 22
0.0
 32
0.0
 14
0.0
 24
0.0
 34
0.0
 15
0.0
 25
0.0
 35
0.0
146
0.0
 13
0.0
 23
0.0
 33
0.0
 16
1.0
 26
0.0
 36
0.0
 17
0.0
 27
1.0
 37
0.0
 76
     0
330
1F
331
B0EC
1001
ACAD_PSEXT
1000
FX DocuWide 2050/2051
1000
FX DocuWide 2050/2051
1000
IP_192.200.15.252
1000

1070
     0
  0
LAYOUT
  5
1E
102
{ACAD_XDICTIONARY
360
5B715
102
}
102
{ACAD_REACTORS
330
1A
102
}
330
1A
100
AcDbPlotSettings
  1

  2
\\ML370\XEROX
  4
A4
  6

 40
3.174999952316284
 41
3.174999952316284
 42
3.175003051757812
 43
3.17498779296875
 44
209.8674926757813
 45
296.6719970703125
 46
0.0
 47
0.0
 48
0.0
 49
0.0
140
0.0
141
0.0
142
1.0
143
1.0
 70
   688
 72
     1
 73
     1
 74
     5
  7
monochrome.ctb
 75
    16
147
1.0
148
0.0
149
0.0
100
AcDbLayout
  1
ﾚｲｱｳﾄ1
 70
     1
 71
     1
 10
-3.17498779296875
 20
-3.174999952316284
 11
293.4970092773438
 21
206.692492723465
 12
0.0
 22
0.0
 32
0.0
 14
1.000000000000000E+20
 24
1.000000000000000E+20
 34
1.000000000000000E+20
 15
-1.000000000000000E+20
 25
-1.000000000000000E+20
 35
-1.000000000000000E+20
146
0.0
 13
0.0
 23
0.0
 33
0.0
 16
1.0
 26
0.0
 36
0.0
 17
0.0
 27
1.0
 37
0.0
 76
     0
330
1B
  0
LAYOUT
  5
26
102
{ACAD_XDICTIONARY
360
5B719
102
}
102
{ACAD_REACTORS
330
1A
102
}
330
1A
100
AcDbPlotSettings
  1

  2
\\ML370\XEROX
  4

  6

 40
0.0
 41
0.0
 42
0.0
 43
0.0
 44
0.0
 45
0.0
 46
0.0
 47
0.0
 48
0.0
 49
0.0
140
0.0
141
0.0
142
1.0
143
1.0
 70
   688
 72
     0
 73
     0
 74
     5
  7
monochrome.ctb
 75
    16
147
1.0
148
0.0
149
0.0
100
AcDbLayout
  1
ﾚｲｱｳﾄ2
 70
     1
 71
     2
 10
0.0
 20
0.0
 11
12.0
 21
9.0
 12
0.0
 22
0.0
 32
0.0
 14
0.0
 24
0.0
 34
0.0
 15
0.0
 25
0.0
 35
0.0
146
0.0
 13
0.0
 23
0.0
 33
0.0
 16
1.0
 26
0.0
 36
0.0
 17
0.0
 27
1.0
 37
0.0
 76
     0
330
23
  0
MATERIAL
  5
B0EF
102
{ACAD_XDICTIONARY
360
5B71F
102
}
102
{ACAD_REACTORS
330
A91C
102
}
330
A91C
100
AcDbMaterial
  1
ByBlock
  0
MATERIAL
  5
B0EE
102
{ACAD_XDICTIONARY
360
5B71D
102
}
102
{ACAD_REACTORS
330
A91C
102
}
330
A91C
100
AcDbMaterial
  1
ByLayer
  0
MATERIAL
  5
B0F0
102
{ACAD_XDICTIONARY
360
5B721
102
}
102
{ACAD_REACTORS
330
A91C
102
}
330
A91C
100
AcDbMaterial
  1
Global
  0
MLINESTYLE
  5
18
102
{ACAD_REACTORS
330
17
102
}
330
17
100
AcDbMlineStyle
  2
STANDARD
 70
     0
  3

 62
   256
 51
90.0
 52
90.0
 71
     2
 49
0.5
 62
   256
  6
BYLAYER
 49
-0.5
 62
   256
  6
BYLAYER
  0
ACDBPLACEHOLDER
  5
F
102
{ACAD_REACTORS
330
E
102
}
330
E
  0
TABLESTYLE
  5
AABA
102
{ACAD_XDICTIONARY
360
5B71B
102
}
102
{ACAD_REACTORS
330
AAB9
102
}
330
AAB9
100
AcDbTableStyle
  3
Standard
 70
     0
 71
     0
 40
1.5
 41
1.5
280
     0
281
     0
  7
STANDARD
140
4.5
170
     2
 62
     0
 63
     7
283
     0
274
    -2
284
     1
 64
     0
275
    -2
285
     1
 65
     0
276
    -2
286
     1
 66
     0
277
    -2
287
     1
 67
     0
278
    -2
288
     1
 68
     0
279
    -2
289
     1
 69
     0
  7
STANDARD
140
6.0
170
     5
 62
     0
 63
     7
283
     0
274
    -2
284
     1
 64
     0
275
    -2
285
     1
 65
     0
276
    -2
286
     1
 66
     0
277
    -2
287
     1
 67
     0
278
    -2
288
     1
 68
     0
279
    -2
289
     1
 69
     0
  7
STANDARD
140
4.5
170
     5
 62
     0
 63
     7
283
     0
274
    -2
284
     1
 64
     0
275
    -2
285
     1
 65
     0
276
    -2
286
     1
 66
     0
277
    -2
287
     1
 67
     0
278
    -2
288
     1
 68
     0
279
    -2
289
     1
 69
     0
  0
VISUALSTYLE
  5
B0F7
102
{ACAD_REACTORS
330
B0F1
102
}
330
B0F1
100
AcDbVisualStyle
  2
2dWireframe
 70
     4
 71
     0
 72
     2
 73
     0
 90
        0
 40
-0.6
 41
-30.0
 62
     5
 63
     7
 74
     1
 91
        4
 64
     7
 65
   257
 75
     1
175
     1
 42
1.0
 92
        0
 66
   257
 43
1.0
 76
     1
 77
     6
 78
     2
 67
     7
 79
     5
170
     0
171
     0
290
     0
174
     0
 93
        1
 44
0.0
173
     0
291
     0
 45
0.0
1001
ACAD
1000
AcDbSavedByObjectVersion
1070
     0
  0
VISUALSTYLE
  5
B0F9
102
{ACAD_REACTORS
330
B0F1
102
}
330
B0F1
100
AcDbVisualStyle
  2
3D Hidden
 70
     6
 71
     1
 72
     2
 73
     2
 90
        0
 40
-0.6
 41
-30.0
 62
     5
 63
     7
 74
     2
 91
        2
 64
     7
 65
   257
 75
     2
175
     1
 42
40.0
 92
        0
 66
   257
 43
1.0
 76
     1
 77
     6
 78
     2
 67
     7
 79
     3
170
     0
171
     0
290
     0
174
     0
 93
        1
 44
0.0
173
     0
291
     0
 45
0.0
1001
ACAD
1000
AcDbSavedByObjectVersion
1070
     0
  0
VISUALSTYLE
  5
B0F8
102
{ACAD_REACTORS
330
B0F1
102
}
330
B0F1
100
AcDbVisualStyle
  2
3dWireframe
 70
     5
 71
     0
 72
     2
 73
     0
 90
        0
 40
-0.6
 41
-30.0
 62
     5
 63
     7
 74
     1
 91
        4
 64
     7
 65
   257
 75
     1
175
     1
 42
1.0
 92
        0
 66
   257
 43
1.0
 76
     1
 77
     6
 78
     2
 67
     7
 79
     5
170
     0
171
     0
290
     0
174
     0
 93
        1
 44
0.0
173
     0
291
     0
 45
0.0
1001
ACAD
1000
AcDbSavedByObjectVersion
1070
     0
  0
VISUALSTYLE
  5
B0F6
102
{ACAD_REACTORS
330
B0F1
102
}
330
B0F1
100
AcDbVisualStyle
  2
Basic
 70
     7
 71
     1
 72
     0
 73
     1
 90
        0
 40
-0.6
 41
-30.0
 62
     5
 63
     7
 74
     0
 91
        4
 64
     7
 65
   257
 75
     1
175
     1
 42
1.0
 92
        8
 66
     7
 43
1.0
 76
     1
 77
     6
 78
     2
 67
     7
 79
     5
170
     0
171
     0
290
     0
174
     0
 93
        1
 44
0.0
173
     0
291
     1
 45
0.0
1001
ACAD
1000
AcDbSavedByObjectVersion
1070
     0
  0
VISUALSTYLE
  5
B0FD
102
{ACAD_REACTORS
330
B0F1
102
}
330
B0F1
100
AcDbVisualStyle
  2
Brighten
 70
    12
 71
     2
 72
     2
 73
     0
 90
        0
 40
-0.6
 41
-30.0
 62
     5
 63
     7
 74
     1
 91
        4
 64
     7
 65
   257
 75
     1
175
     1
 42
1.0
 92
        8
 66
     7
 43
1.0
 76
     1
 77
     6
 78
     2
 67
     7
 79
     5
170
     0
171
     0
290
     0
174
     0
 93
        1
 44
50.0
173
     0
291
     1
 45
0.0
1001
ACAD
1000
AcDbSavedByObjectVersion
1070
     0
  0
VISUALSTYLE
  5
B101
102
{ACAD_REACTORS
330
B0F1
102
}
330
B0F1
100
AcDbVisualStyle
  2
ColorChange
 70
    16
 71
     2
 72
     2
 73
     3
 90
        0
 40
-0.6
 41
-30.0
 62
     5
 63
     8
 74
     1
 91
        4
 64
     7
 65
   257
 75
     1
175
     1
 42
1.0
 92
        8
 66
     8
 43
1.0
 76
     1
 77
     6
 78
     2
 67
     7
 79
     5
170
     0
171
     0
290
     0
174
     0
 93
        1
 44
0.0
173
     0
291
     1
 45
0.0
1001
ACAD
1000
AcDbSavedByObjectVersion
1070
     0
  0
VISUALSTYLE
  5
B0FA
102
{ACAD_REACTORS
330
B0F1
102
}
330
B0F1
100
AcDbVisualStyle
  2
Conceptual
 70
     9
 71
     3
 72
     2
 73
     0
 90
        0
 40
-0.6
 41
-30.0
 62
     5
 63
     7
 74
     2
 91
        2
 64
     7
 65
   257
 75
     1
175
     1
 42
40.0
 92
        8
 66
     7
 43
1.0
 76
     1
 77
     6
 78
     2
 67
     7
 79
     3
170
     0
171
     0
290
     0
174
     0
 93
        1
 44
0.0
173
     0
291
     0
 45
0.0
1001
ACAD
1000
AcDbSavedByObjectVersion
1070
     0
  0
VISUALSTYLE
  5
B0FC
102
{ACAD_REACTORS
330
B0F1
102
}
330
B0F1
100
AcDbVisualStyle
  2
Dim
 70
    11
 71
     2
 72
     2
 73
     0
 90
        0
 40
-0.6
 41
-30.0
 62
     5
 63
     7
 74
     1
 91
        4
 64
     7
 65
   257
 75
     1
175
     1
 42
1.0
 92
        8
 66
     7
 43
1.0
 76
     1
 77
     6
 78
     2
 67
     7
 79
     5
170
     0
171
     0
290
     0
174
     0
 93
        1
 44
-50.0
173
     0
291
     1
 45
0.0
1001
ACAD
1000
AcDbSavedByObjectVersion
1070
     0
  0
VISUALSTYLE
  5
B100
102
{ACAD_REACTORS
330
B0F1
102
}
330
B0F1
100
AcDbVisualStyle
  2
Facepattern
 70
    15
 71
     2
 72
     2
 73
     0
 90
        0
 40
-0.6
 41
-30.0
 62
     5
 63
     7
 74
     1
 91
        4
 64
     7
 65
   257
 75
     1
175
     1
 42
1.0
 92
        8
 66
     7
 43
1.0
 76
     1
 77
     6
 78
     2
 67
     7
 79
     5
170
     0
171
     0
290
     0
174
     0
 93
        1
 44
0.0
173
     0
291
     1
 45
0.0
1001
ACAD
1000
AcDbSavedByObjectVersion
1070
     0
  0
VISUALSTYLE
  5
B0F2
102
{ACAD_REACTORS
330
B0F1
102
}
330
B0F1
100
AcDbVisualStyle
  2
Flat
 70
     0
 71
     2
 72
     1
 73
     1
 90
        2
 40
-0.6
 41
30.0
 62
     5
 63
     7
 74
     0
 91
        4
 64
     7
 65
   257
 75
     1
175
     1
 42
1.0
 92
        8
 66
     7
 43
1.0
 76
     1
 77
     6
 78
     2
 67
     7
 79
     5
170
     0
171
     0
290
     0
174
     0
 93
       13
 44
0.0
173
     0
291
     1
 45
0.0
1001
ACAD
1000
AcDbSavedByObjectVersion
1070
     0
  0
VISUALSTYLE
  5
B0F3
102
{ACAD_REACTORS
330
B0F1
102
}
330
B0F1
100
AcDbVisualStyle
  2
FlatWithEdges
 70
     1
 71
     2
 72
     1
 73
     1
 90
        2
 40
-0.6
 41
30.0
 62
     5
 63
     7
 74
     1
 91
        4
 64
     7
 65
   257
 75
     1
175
     1
 42
1.0
 92
        0
 66
   257
 43
1.0
 76
     1
 77
     6
 78
     2
 67
     7
 79
     5
170
     0
171
     0
290
     0
174
     0
 93
       13
 44
0.0
173
     0
291
     1
 45
0.0
1001
ACAD
1000
AcDbSavedByObjectVersion
1070
     0
  0
VISUALSTYLE
  5
B0F4
102
{ACAD_REACTORS
330
B0F1
102
}
330
B0F1
100
AcDbVisualStyle
  2
Gouraud
 70
     2
 71
     2
 72
     2
 73
     1
 90
        2
 40
-0.6
 41
30.0
 62
     5
 63
     7
 74
     0
 91
        4
 64
     7
 65
   257
 75
     1
175
     1
 42
1.0
 92
        0
 66
     7
 43
1.0
 76
     1
 77
     6
 78
     2
 67
     7
 79
     5
170
     0
171
     0
290
     0
174
     0
 93
       13
 44
0.0
173
     0
291
     1
 45
0.0
1001
ACAD
1000
AcDbSavedByObjectVersion
1070
     0
  0
VISUALSTYLE
  5
B0F5
102
{ACAD_REACTORS
330
B0F1
102
}
330
B0F1
100
AcDbVisualStyle
  2
GouraudWithEdges
 70
     3
 71
     2
 72
     2
 73
     1
 90
        2
 40
-0.6
 41
30.0
 62
     5
 63
     7
 74
     1
 91
        4
 64
     7
 65
   257
 75
     1
175
     1
 42
1.0
 92
        0
 66
   257
 43
1.0
 76
     1
 77
     6
 78
     2
 67
     7
 79
     5
170
     0
171
     0
290
     0
174
     0
 93
       13
 44
0.0
173
     0
291
     1
 45
0.0
1001
ACAD
1000
AcDbSavedByObjectVersion
1070
     0
  0
VISUALSTYLE
  5
B0FF
102
{ACAD_REACTORS
330
B0F1
102
}
330
B0F1
100
AcDbVisualStyle
  2
Linepattern
 70
    14
 71
     2
 72
     2
 73
     0
 90
        0
 40
-0.6
 41
-30.0
 62
     5
 63
     7
 74
     1
 91
        4
 64
     7
 65
   257
 75
     7
175
     7
 42
1.0
 92
        8
 66
     7
 43
1.0
 76
     1
 77
     6
 78
     2
 67
     7
 79
     5
170
     0
171
     0
290
     0
174
     0
 93
        1
 44
0.0
173
     0
291
     1
 45
0.0
1001
ACAD
1000
AcDbSavedByObjectVersion
1070
     0
  0
VISUALSTYLE
  5
B0FB
102
{ACAD_REACTORS
330
B0F1
102
}
330
B0F1
100
AcDbVisualStyle
  2
Realistic
 70
     8
 71
     2
 72
     2
 73
     0
 90
        0
 40
-0.6
 41
-30.0
 62
     5
 63
     7
 74
     1
 91
        0
 64
     7
 65
   257
 75
     1
175
     1
 42
1.0
 92
        8
 66
     8
 43
1.0
 76
     1
 77
     6
 78
     2
 67
     7
 79
     5
170
     0
171
     0
290
     0
174
     0
 93
       13
 44
0.0
173
     0
291
     0
 45
0.0
1001
ACAD
1000
AcDbSavedByObjectVersion
1070
     0
  0
VISUALSTYLE
  5
B0FE
102
{ACAD_REACTORS
330
B0F1
102
}
330
B0F1
100
AcDbVisualStyle
  2
Thicken
 70
    13
 71
     2
 72
     2
 73
     0
 90
        0
 40
-0.6
 41
-30.0
 62
     5
 63
     7
 74
     1
 91
        4
 64
     7
 65
   257
 75
     1
175
     1
 42
1.0
 92
       12
 66
     7
 43
1.0
 76
     1
 77
     6
 78
     2
 67
     7
 79
     5
170
     0
171
     0
290
     0
174
     0
 93
        1
 44
0.0
173
     0
291
     1
 45
0.0
1001
ACAD
1000
AcDbSavedByObjectVersion
1070
     0
  0
DICTIONARYVAR
  5
AAF3
102
{ACAD_REACTORS
330
34
102
}
330
34
100
DictionaryVariables
280
     0
  1
STANDARD
  0
DICTIONARYVAR
  5
A10C
102
{ACAD_REACTORS
330
34
102
}
330
34
100
DictionaryVariables
280
     0
  1
1
  0
DICTIONARYVAR
  5
AB07
102
{ACAD_REACTORS
330
34
102
}
330
34
100
DictionaryVariables
280
     0
  1
4
  0
DICTIONARYVAR
  5
35
102
{ACAD_REACTORS
330
34
102
}
330
34
100
DictionaryVariables
280
     0
  1
0
  0
DICTIONARYVAR
  5
194C
102
{ACAD_REACTORS
330
34
102
}
330
34
100
DictionaryVariables
280
     0
  1
127
  0
DICTIONARY
  5
7E8
102
{ACAD_REACTORS
330
47
102
}
330
47
100
AcDbDictionary
281
     1
  0
DICTIONARY
  5
4C
102
{ACAD_REACTORS
330
47
102
}
330
47
100
AcDbDictionary
281
     1
  0
XRECORD
  5
A929
102
{ACAD_REACTORS
330
47
102
}
330
47
100
AcDbXrecord
280
     1
 90
-1023410169
  0
XRECORD
  5
57913
102
{ACAD_REACTORS
330
57912
102
}
330
57912
100
AcDbXrecord
280
     1
330
0
330
0
330
0
330
0
330
0
330
0
330
0
330
0
330
0
330
0
330
0
330
0
330
0
330
0
330
0
330
0
330
0
330
0
330
0
330
0
330
0
330
0
330
0
330
0
330
0
330
0
330
0
330
0
330
0
330
0
330
0
330
0
330
0
330
0
330
0
330
0
330
0
330
0
330
0
330
0
330
0
330
0
330
0
330
0
330
0
330
0
330
0
330
0
330
0
330
0
330
0
330
0
330
0
330
0
330
0
330
0
330
0
330
0
330
0
330
0
330
0
330
0
330
0
330
0
330
0
330
0
330
0
330
0
330
0
330
0
330
0
330
0
330
0
330
0
330
0
330
0
330
0
330
0
330
0
330
0
330
0
330
0
330
0
330
0
330
0
330
0
330
0
330
0
330
0
330
0
330
0
330
0
330
0
330
0
330
0
330
0
330
0
330
0
330
0
330
0
330
0
330
0
330
0
330
0
330
0
330
0
330
0
330
0
330
0
330
0
330
0
330
0
330
0
330
0
330
0
330
0
330
0
330
0
330
0
330
0
330
0
330
0
330
0
330
0
330
0
330
0
330
0
330
0
330
0
330
0
330
0
330
0
330
0
330
0
330
0
330
0
330
0
330
0
330
0
330
0
330
0
330
0
330
0
330
0
330
0
330
0
330
0
330
0
330
0
330
0
330
0
330
0
330
0
330
0
330
0
330
0
330
0
330
0
330
0
330
0
330
0
330
0
330
0
330
0
330
0
330
0
330
0
330
0
330
0
330
0
330
0
330
0
330
0
330
0
330
0
330
0
330
0
330
0
330
0
330
0
330
0
330
0
330
0
330
0
330
0
330
0
330
0
330
0
330
0
330
0
330
0
330
0
330
0
330
0
330
0
330
0
330
0
330
0
330
0
330
0
330
0
330
0
330
0
330
0
330
0
330
0
330
0
330
0
330
0
330
0
330
0
330
0
330
0
330
0
330
0
330
0
330
0
330
0
330
0
330
0
330
0
330
0
330
0
330
0
330
0
330
0
330
0
330
0
330
0
330
0
330
0
330
0
330
0
330
0
330
0
330
0
330
0
330
0
330
0
330
0
330
0
330
0
330
0
330
0
330
0
330
0
330
0
330
0
330
0
330
0
330
0
330
0
330
0
330
0
330
0
330
0
330
0
330
0
330
0
330
0
330
0
330
0
330
0
330
0
330
0
330
0
330
0
330
0
330
0
330
0
330
0
330
0
330
0
330
0
330
0
330
0
330
0
330
0
330
0
330
0
330
0
330
0
330
0
330
0
330
0
330
0
330
0
330
0
330
0
330
0
330
0
330
0
330
0
330
0
330
0
330
0
330
0
330
0
330
0
330
0
330
0
330
0
330
0
330
0
330
0
330
0
330
0
330
0
330
0
330
0
330
0
330
0
330
0
330
0
330
0
330
0
330
0
330
0
330
0
330
0
330
0
330
0
330
0
330
0
330
0
330
0
330
0
330
0
330
0
330
0
330
0
330
0
330
0
330
0
330
0
330
0
330
0
330
0
330
0
330
0
330
0
330
0
330
0
330
0
330
0
330
0
330
0
330
0
330
0
330
0
330
0
330
0
330
0
330
0
330
0
330
0
330
0
330
0
330
0
330
0
330
0
330
0
330
0
330
0
330
0
330
0
330
0
330
0
330
0
330
0
330
0
330
0
330
0
330
0
330
0
330
0
330
0
330
0
330
0
330
0
330
0
330
0
330
0
330
0
330
0
330
0
330
0
330
0
330
0
330
0
330
0
330
0
330
0
330
0
330
0
330
0
330
0
330
0
330
0
330
0
330
0
330
0
330
0
330
0
330
0
330
0
330
0
330
0
330
0
330
0
330
0
330
0
330
0
330
0
330
0
330
0
330
0
330
0
330
0
330
0
330
0
330
0
330
0
330
0
330
0
330
0
330
0
330
0
330
0
330
0
330
0
330
0
330
0
330
0
330
0
330
0
330
0
330
0
330
0
330
0
330
0
330
0
330
0
330
0
330
0
330
0
330
0
330
0
330
0
330
0
330
0
330
0
330
0
330
0
330
0
330
0
330
0
330
0
330
0
330
0
330
0
330
0
330
0
330
0
330
0
330
0
330
0
330
0
330
0
330
0
330
0
330
0
330
0
330
0
330
0
330
0
330
0
330
0
330
0
330
0
330
0
330
0
330
0
330
0
330
0
330
0
330
0
330
0
330
0
330
0
330
0
330
0
330
0
330
0
330
0
330
0
330
0
330
0
330
0
330
0
330
0
330
0
330
0
330
0
330
0
330
0
330
0
330
0
330
0
330
0
330
0
330
0
330
0
330
0
330
0
330
0
330
0
330
0
330
0
330
0
330
0
330
0
330
0
330
0
330
0
330
0
330
0
330
0
330
0
330
0
330
0
330
0
330
0
330
0
330
0
330
0
330
0
330
0
330
0
330
0
330
0
330
0
330
0
330
0
330
0
330
0
330
0
330
0
330
0
330
0
330
0
330
0
330
0
330
0
330
0
330
0
330
0
330
0
330
0
330
0
330
0
330
0
330
0
330
0
330
0
330
0
330
0
330
0
330
0
330
0
330
0
330
0
330
0
330
0
330
0
330
0
330
0
330
0
330
0
330
0
330
0
330
0
330
0
330
0
330
0
330
0
330
0
330
0
330
0
330
0
330
0
330
0
330
0
330
0
330
0
330
0
330
0
330
0
330
0
330
0
330
0
330
0
330
0
330
0
330
0
330
0
330
0
330
0
330
0
330
0
330
0
330
0
330
0
330
0
330
0
330
0
330
0
330
0
330
0
330
0
330
0
330
0
330
0
330
0
330
0
330
0
330
0
330
0
330
0
330
0
330
0
330
0
330
0
330
0
330
0
330
0
330
0
330
0
330
0
330
0
330
0
330
0
330
0
330
0
330
0
330
0
330
0
330
0
330
0
330
0
330
0
330
0
330
0
330
0
330
0
330
0
330
0
330
0
330
0
330
0
330
0
330
0
330
0
330
0
330
0
330
0
330
0
330
0
330
0
330
0
330
0
330
0
330
0
330
0
330
0
330
0
330
0
330
0
330
0
330
0
330
0
330
0
330
0
330
0
330
0
330
0
330
0
330
0
330
0
330
0
330
0
330
0
330
0
330
0
330
0
330
0
330
0
330
0
330
0
330
0
330
0
330
0
330
0
330
0
330
0
330
0
330
0
330
0
330
0
330
0
330
0
330
0
330
0
330
0
330
0
330
0
330
0
330
0
330
0
330
0
330
0
330
0
330
0
330
0
330
0
330
0
330
0
330
0
330
0
330
0
330
0
330
0
330
0
330
0
330
0
330
0
330
0
330
0
330
0
330
0
330
0
330
0
330
0
330
0
330
0
330
0
330
0
330
0
330
0
330
0
330
0
330
0
330
0
330
0
330
0
330
0
330
0
330
0
330
0
330
0
330
0
330
0
330
0
330
0
330
0
330
0
330
0
330
0
330
0
330
0
330
0
330
0
330
0
330
0
330
0
330
0
330
0
330
0
330
0
330
0
330
0
330
0
330
0
330
0
330
0
330
0
330
0
330
0
330
0
330
0
330
0
330
0
330
0
330
0
330
0
330
0
330
0
330
0
330
0
330
0
330
0
330
0
330
0
330
0
330
0
330
0
330
0
330
0
330
0
330
0
330
0
330
0
330
0
330
0
330
0
330
0
330
0
330
0
330
0
330
0
330
0
330
0
330
0
330
0
330
0
330
0
330
0
330
0
330
0
330
0
330
0
330
0
330
0
330
0
330
0
330
0
330
0
330
0
330
0
330
0
330
0
330
0
330
0
330
0
330
0
330
0
330
0
330
0
330
0
330
0
330
0
330
0
330
0
330
0
330
0
330
0
330
0
330
0
330
0
330
0
330
0
330
0
330
0
330
0
330
0
330
0
330
0
330
0
330
0
330
0
330
0
330
0
330
0
330
0
330
0
330
0
330
0
330
0
330
0
330
0
330
0
330
0
330
0
330
0
330
0
330
0
330
0
330
0
330
0
330
0
330
0
330
0
330
0
330
0
330
0
330
0
330
0
330
0
330
0
330
0
330
0
330
0
330
0
330
0
330
0
330
0
330
0
330
0
330
0
330
0
330
0
330
0
330
0
330
0
330
0
330
0
330
0
330
0
330
0
330
0
330
0
330
0
330
0
330
0
330
0
330
0
330
0
330
0
330
0
330
0
330
0
330
0
330
0
330
0
330
0
330
0
330
0
330
0
330
0
330
0
330
0
330
0
330
0
330
0
330
0
330
0
330
0
330
0
330
0
330
0
330
0
330
0
330
0
330
0
330
0
330
0
330
0
330
0
330
0
330
0
330
0
330
0
330
0
330
0
330
0
330
0
330
0
330
0
330
0
330
0
330
0
330
0
330
0
330
0
330
0
330
0
330
0
330
0
330
0
330
0
330
0
330
0
330
0
330
0
330
0
330
0
330
0
330
0
330
0
330
0
330
0
330
0
330
0
330
0
330
0
330
0
330
0
330
0
330
0
330
0
330
0
330
0
330
0
330
0
330
0
330
0
330
0
330
0
330
0
330
0
330
0
330
0
330
0
330
0
330
0
330
0
330
0
330
0
330
0
330
0
330
0
330
0
330
0
330
0
330
0
330
0
330
0
330
0
330
0
330
0
330
0
330
0
330
0
330
0
330
0
330
0
330
0
330
0
330
0
330
0
330
0
330
0
330
0
330
0
330
0
330
0
330
0
330
0
330
0
330
0
330
0
330
0
330
0
330
0
330
0
330
0
330
0
330
0
330
0
330
0
330
0
330
0
330
0
330
0
330
0
330
0
330
0
330
0
330
0
330
0
330
0
330
0
330
0
330
0
330
0
330
0
330
0
330
0
330
0
330
0
330
0
330
0
330
0
330
0
330
0
330
0
330
0
330
0
330
0
330
0
330
0
330
0
330
0
330
0
330
0
330
0
330
0
330
0
330
0
330
0
330
0
330
0
330
0
330
0
330
0
330
0
330
0
330
0
330
0
330
0
330
0
330
0
330
0
330
0
330
0
330
0
330
0
330
0
330
0
330
0
330
0
330
0
330
0
330
0
330
0
330
0
330
0
330
0
330
0
330
0
330
0
330
0
330
0
330
0
330
0
330
0
330
0
330
0
330
0
330
0
330
0
330
0
330
0
330
0
330
0
330
0
330
0
330
0
330
0
330
0
330
0
330
0
330
0
330
0
330
0
330
0
330
0
330
0
330
0
330
0
330
0
330
0
330
0
330
0
330
0
330
0
330
0
330
0
330
0
330
0
330
0
330
0
330
0
330
0
330
0
330
0
330
0
330
0
330
0
330
0
330
0
330
0
330
0
330
0
330
0
330
0
330
0
330
0
330
0
330
0
330
0
330
0
330
0
330
0
330
0
330
0
330
0
330
0
330
0
330
0
330
0
330
0
330
0
330
0
330
0
330
0
330
0
330
0
330
0
330
0
330
0
330
0
330
0
330
0
330
0
330
0
330
0
330
0
330
0
330
0
330
0
330
0
330
0
330
0
330
0
330
0
330
0
330
0
330
0
330
0
330
0
330
0
330
0
330
0
330
0
330
0
330
0
330
0
330
0
330
0
330
0
330
0
330
0
330
0
330
0
330
0
330
0
330
0
330
0
330
0
330
0
330
0
330
0
330
0
330
0
330
0
330
0
330
0
330
0
330
0
330
0
330
0
330
0
330
0
330
0
330
0
330
0
330
0
330
0
330
0
330
0
330
0
330
0
330
0
330
0
330
0
330
0
330
0
330
0
330
0
330
0
330
0
330
0
330
0
330
0
330
0
330
0
330
0
330
0
330
0
330
0
330
0
330
0
330
0
330
0
330
0
330
0
330
0
330
0
330
0
330
0
330
0
330
0
330
0
330
0
330
0
330
0
330
0
330
0
330
0
330
0
330
0
330
0
330
0
330
0
330
0
330
0
330
0
330
0
330
0
330
0
330
0
330
0
330
0
330
0
330
0
330
0
330
0
330
0
330
0
330
0
330
0
330
0
330
0
330
0
330
0
330
0
330
0
330
0
330
0
330
0
330
0
330
0
330
0
330
0
330
0
330
0
330
0
330
0
330
0
330
0
330
0
330
0
330
0
330
0
330
0
330
0
330
0
330
0
330
0
330
0
330
0
330
0
330
0
330
0
330
0
330
0
330
0
330
0
330
0
330
0
330
0
330
0
330
0
330
0
330
0
330
0
330
0
330
0
330
0
330
0
330
0
330
0
330
0
330
0
330
0
330
0
330
0
330
0
330
0
330
0
330
0
330
0
330
0
330
0
330
0
330
0
330
0
330
0
330
0
330
0
330
0
330
0
330
0
330
0
330
0
330
0
330
0
330
0
330
0
330
0
330
0
330
0
330
0
330
0
330
0
330
0
330
0
330
0
330
0
330
0
330
0
330
0
330
0
330
0
330
0
330
0
330
0
330
0
330
0
330
0
330
0
330
0
330
0
330
0
330
0
330
0
330
0
330
0
330
0
330
0
330
0
330
0
330
0
330
0
330
0
330
0
330
0
330
0
330
0
330
0
330
0
330
0
330
0
330
0
330
0
330
0
330
0
330
0
330
0
330
0
330
0
330
0
330
0
330
0
330
0
330
0
330
0
330
0
330
0
330
0
330
0
330
0
330
0
330
0
330
0
330
0
330
0
330
0
330
0
330
0
330
0
330
0
330
0
330
0
330
0
330
0
330
0
330
0
330
0
330
0
330
0
330
0
330
0
330
0
330
0
330
0
330
0
330
0
330
0
330
0
330
0
330
0
330
0
330
0
330
0
330
0
330
0
330
0
330
0
330
0
330
0
330
0
330
0
330
0
330
0
330
0
330
0
330
0
330
0
330
0
330
0
330
0
330
0
330
0
330
0
330
0
330
0
330
0
330
0
330
0
330
0
330
0
330
0
330
0
330
0
330
0
330
0
330
0
330
0
330
0
330
0
330
0
330
0
330
0
330
0
330
0
330
0
330
0
330
0
330
0
330
0
330
0
330
0
330
0
330
0
330
0
330
0
330
0
330
0
330
0
330
0
330
0
330
0
330
0
330
0
330
0
330
0
330
0
330
0
330
0
330
0
330
0
330
0
330
0
330
0
330
0
330
0
330
0
330
0
330
0
330
0
330
0
330
0
330
0
330
0
330
0
330
0
330
0
330
0
330
0
330
0
330
0
330
0
330
0
330
0
330
0
330
0
330
0
330
0
330
0
330
0
330
0
330
0
330
0
330
0
330
0
330
0
330
0
330
0
330
0
330
0
330
0
330
0
330
0
330
0
330
0
330
0
330
0
330
0
330
0
330
0
330
0
330
0
330
0
330
0
330
0
330
0
330
0
330
0
330
0
330
0
330
0
330
0
330
0
330
0
330
0
330
0
330
0
330
0
330
0
330
0
330
0
330
0
330
0
330
0
330
0
330
0
330
0
330
0
330
0
330
0
330
0
330
0
330
0
330
0
330
0
330
0
330
0
330
0
330
0
330
0
330
0
330
0
330
0
330
0
330
0
330
0
330
0
330
0
330
0
330
0
330
0
330
0
330
0
330
0
330
0
330
0
330
0
330
0
330
0
330
0
330
0
330
0
330
0
330
0
330
0
330
0
330
0
330
0
330
0
330
0
330
0
330
0
330
0
330
0
330
0
330
0
330
0
330
0
330
0
330
0
330
0
330
0
330
0
330
0
330
0
330
0
330
0
330
0
330
0
330
0
330
0
330
0
330
0
330
0
330
0
330
0
330
0
330
0
330
0
330
0
330
0
330
0
330
0
330
0
330
0
330
0
330
0
330
0
330
0
330
0
330
0
330
0
330
0
330
0
330
0
330
0
330
0
330
0
330
0
330
0
330
0
330
0
330
0
330
0
330
0
330
0
330
0
330
0
330
0
330
0
330
0
330
0
330
0
330
0
330
0
330
0
330
0
330
0
330
0
330
0
330
0
330
0
330
0
330
0
330
0
330
0
330
0
330
0
330
0
330
0
330
0
330
0
330
0
330
0
330
0
330
0
330
0
330
0
330
0
330
0
330
0
330
0
330
0
330
0
330
0
330
0
330
0
330
0
330
0
330
0
330
0
330
0
330
0
330
0
330
0
330
0
330
0
330
0
330
0
330
0
330
0
330
0
330
0
330
0
330
0
330
0
330
0
330
0
330
0
330
0
330
0
330
0
330
0
330
0
330
0
330
0
330
0
330
0
330
0
330
0
330
0
330
0
330
0
330
0
330
0
330
0
330
0
330
0
330
0
330
0
330
0
330
0
330
0
330
0
330
0
330
0
330
0
330
0
330
0
330
0
330
0
330
0
330
0
330
0
330
0
330
0
330
0
330
0
330
0
330
0
330
0
330
0
330
0
330
0
330
0
330
0
330
0
330
0
330
0
330
0
330
0
330
0
330
0
330
0
330
0
330
0
330
0
330
0
330
0
330
0
330
0
330
0
330
0
330
0
330
0
330
0
330
0
330
0
330
0
330
0
330
0
330
0
330
0
330
0
330
0
330
0
330
0
330
0
330
0
330
0
330
0
330
0
330
0
330
0
  0
XRECORD
  5
3FB7
102
{ACAD_REACTORS
330
3F96
102
}
330
3F96
100
AcDbXrecord
280
     1
 91
        3
330
0
 90
        8
 62
     7
370
    40
331
16
  1
Color_7
330
0
 90
        0
 62
    14
370
    -3
331
16
  1
Color_14
330
0
 90
        8
 62
     7
370
    20
331
16
  1
Color_7
330
6D1
 90
        0
 62
     7
370
    -3
331
16
  1
Color_7
330
0
 90
        8
 62
     7
370
    50
331
16
  1
Color_7
330
0
 90
        8
 62
     2
370
    35
331
16
  1
Color_2
330
0
 90
        8
 62
     7
370
    -3
331
16
  1
Color_7
330
10
 90
        8
 62
     7
370
    -3
331
16
  1
Color_7
  0
DICTIONARY
  5
5B717
330
22
100
AcDbDictionary
280
     1
281
     1
  3
ACAD_XREC_ROUNDTRIP
360
5B718
  0
DICTIONARY
  5
5B715
330
1E
100
AcDbDictionary
280
     1
281
     1
  3
ACAD_XREC_ROUNDTRIP
360
5B716
  0
DICTIONARY
  5
5B719
330
26
100
AcDbDictionary
280
     1
281
     1
  3
ACAD_XREC_ROUNDTRIP
360
5B71A
  0
DICTIONARY
  5
5B71F
330
B0EF
100
AcDbDictionary
280
     1
281
     1
  3
ACAD_XREC_ROUNDTRIP
360
5B720
  0
DICTIONARY
  5
5B71D
330
B0EE
100
AcDbDictionary
280
     1
281
     1
  3
ACAD_XREC_ROUNDTRIP
360
5B71E
  0
DICTIONARY
  5
5B721
330
B0F0
100
AcDbDictionary
280
     1
281
     1
  3
ACAD_XREC_ROUNDTRIP
360
5B722
  0
DICTIONARY
  5
5B71B
330
AABA
100
AcDbDictionary
280
     1
281
     1
  3
ACAD_XREC_ROUNDTRIP
360
5B71C
  0
XRECORD
  5
5B718
102
{ACAD_REACTORS
330
5B717
102
}
330
5B717
100
AcDbXrecord
280
     1
102
SHADEPLOT
 70
     0
102
SHADEPLOTRESLEVEL
 70
     2
102
SHADEPLOTCUSTOMDPI
 70
   200
  0
XRECORD
  5
5B716
102
{ACAD_REACTORS
330
5B715
102
}
330
5B715
100
AcDbXrecord
280
     1
102
SHADEPLOT
 70
     0
102
SHADEPLOTRESLEVEL
 70
     2
102
SHADEPLOTCUSTOMDPI
 70
   300
  0
XRECORD
  5
5B71A
102
{ACAD_REACTORS
330
5B719
102
}
330
5B719
100
AcDbXrecord
280
     1
102
SHADEPLOT
 70
     0
102
SHADEPLOTRESLEVEL
 70
     2
102
SHADEPLOTCUSTOMDPI
 70
   300
  0
XRECORD
  5
5B720
102
{ACAD_REACTORS
330
5B71F
102
}
330
5B71F
100
AcDbXrecord
280
     1
102
MATERIAL
148
0.0
149
0.0
149
0.0
 93
        0
 94
       63
282
     0
 72
     1
 77
     1
171
     1
175
     1
179
     1
273
     0
  0
XRECORD
  5
5B71E
102
{ACAD_REACTORS
330
5B71D
102
}
330
5B71D
100
AcDbXrecord
280
     1
102
MATERIAL
148
0.0
149
0.0
149
0.0
 93
        0
 94
       63
282
     0
 72
     1
 77
     1
171
     1
175
     1
179
     1
273
     0
  0
XRECORD
  5
5B722
102
{ACAD_REACTORS
330
5B721
102
}
330
5B721
100
AcDbXrecord
280
     1
102
MATERIAL
148
0.0
149
0.0
149
0.0
 93
        0
 94
       63
282
     0
 72
     1
 77
     1
171
     1
175
     1
179
     1
273
     0
  0
XRECORD
  5
5B71C
102
{ACAD_REACTORS
330
5B71B
102
}
330
5B71B
100
AcDbXrecord
280
     1
102
ACAD_ROUNDTRIP_PRE2007_TABLESTYLE
 90
        4
 91
        0
  1

 92
        4
 93
        0
  2

 94
        4
 95
        0
  3

  0
ENDSEC
  0
EOF
