  0
SECTION
  2
HEADER
  9
$ACADVER
  1
AC1015
  9
$ACADMAINTVER
 70
    20
  9
$DWGCODEPAGE
  3
ANSI_932
  9
$INSBASE
 10
0.0
 20
0.0
 30
0.0
  9
$EXTMIN
 10
6074.924675701049
 20
-6751.301868110541
 30
0.0
  9
$EXTMAX
 10
6494.924675701049
 20
-6454.30186811054
 30
0.0
  9
$LIMMIN
 10
3779.599158088851
 20
100.7134268036752
  9
$LIMMAX
 10
9719.599158088852
 20
4300.713426803675
  9
$ORTHOMODE
 70
     0
  9
$REGENMODE
 70
     1
  9
$FILLMODE
 70
     1
  9
$QTEXTMODE
 70
     0
  9
$MIRRTEXT
 70
     0
  9
$LTSCALE
 40
1.0
  9
$ATTMODE
 70
     1
  9
$TEXTSIZE
 40
3.2
  9
$TRACEWID
 40
1.0
  9
$TEXTSTYLE
  7
STANDARD
  9
$CLAYER
  8
0部品18
  9
$CELTYPE
  6
ByLayer
  9
$CECOLOR
 62
   256
  9
$CELTSCALE
 40
1.0
  9
$DISPSILH
 70
     0
  9
$DIMSCALE
 40
1.0
  9
$DIMASZ
 40
1.0
  9
$DIMEXO
 40
1.0
  9
$DIMDLI
 40
10.0
  9
$DIMRND
 40
0.0
  9
$DIMDLE
 40
0.0
  9
$DIMEXE
 40
1.0
  9
$DIMTP
 40
0.1
  9
$DIMTM
 40
0.1
  9
$DIMTXT
 40
3.5
  9
$DIMCEN
 40
0.0
  9
$DIMTSZ
 40
0.0
  9
$DIMTOL
 70
     0
  9
$DIMLIM
 70
     0
  9
$DIMTIH
 70
     0
  9
$DIMTOH
 70
     0
  9
$DIMSE1
 70
     0
  9
$DIMSE2
 70
     0
  9
$DIMTAD
 70
     1
  9
$DIMZIN
 70
     8
  9
$DIMBLK
  1

  9
$DIMASO
 70
     1
  9
$DIMSHO
 70
     1
  9
$DIMPOST
  1

  9
$DIMAPOST
  1
"
  9
$DIMALT
 70
     0
  9
$DIMALTD
 70
     2
  9
$DIMALTF
 40
0.0393701
  9
$DIMLFAC
 40
1.0
  9
$DIMTOFL
 70
     1
  9
$DIMTVP
 40
0.0
  9
$DIMTIX
 70
     0
  9
$DIMSOXD
 70
     0
  9
$DIMSAH
 70
     0
  9
$DIMBLK1
  1

  9
$DIMBLK2
  1

  9
$DIMSTYLE
  2
SYS
  9
$DIMCLRD
 70
   256
  9
$DIMCLRE
 70
   256
  9
$DIMCLRT
 70
     7
  9
$DIMTFAC
 40
0.71
  9
$DIMGAP
 40
1.5
  9
$DIMJUST
 70
     0
  9
$DIMSD1
 70
     0
  9
$DIMSD2
 70
     0
  9
$DIMTOLJ
 70
     0
  9
$DIMTZIN
 70
     8
  9
$DIMALTZ
 70
     0
  9
$DIMALTTZ
 70
     0
  9
$DIMUPT
 70
     0
  9
$DIMDEC
 70
     2
  9
$DIMTDEC
 70
     2
  9
$DIMALTU
 70
     2
  9
$DIMALTTD
 70
     2
  9
$DIMTXSTY
  7
STANDARD
  9
$DIMAUNIT
 70
     0
  9
$DIMADEC
 70
     0
  9
$DIMALTRND
 40
0.0
  9
$DIMAZIN
 70
     2
  9
$DIMDSEP
 70
    46
  9
$DIMATFIT
 70
     3
  9
$DIMFRAC
 70
     0
  9
$DIMLDRBLK
  1

  9
$DIMLUNIT
 70
     2
  9
$DIMLWD
 70
    -1
  9
$DIMLWE
 70
    -1
  9
$DIMTMOVE
 70
     0
  9
$LUNITS
 70
     2
  9
$LUPREC
 70
     2
  9
$SKETCHINC
 40
1.0
  9
$FILLETRAD
 40
1.0
  9
$AUNITS
 70
     0
  9
$AUPREC
 70
     0
  9
$MENU
  1
.
  9
$ELEVATION
 40
0.0
  9
$PELEVATION
 40
0.0
  9
$THICKNESS
 40
0.0
  9
$LIMCHECK
 70
     0
  9
$CHAMFERA
 40
0.0
  9
$CHAMFERB
 40
0.0
  9
$CHAMFERC
 40
20.0
  9
$CHAMFERD
 40
0.0
  9
$SKPOLY
 70
     0
  9
$TDCREATE
 40
2455567.680725081
  9
$TDUCREATE
 40
2455567.305725081
  9
$TDUPDATE
 40
2456343.619263056
  9
$TDUUPDATE
 40
2456343.244263056
  9
$TDINDWG
 40
8.1383824537
  9
$TDUSRTIMER
 40
8.1383808218
  9
$USRTIMER
 70
     1
  9
$ANGBASE
 50
0.0
  9
$ANGDIR
 70
     0
  9
$PDMODE
 70
     0
  9
$PDSIZE
 40
-3.0
  9
$PLINEWID
 40
0.0
  9
$SPLFRAME
 70
     0
  9
$SPLINETYPE
 70
     6
  9
$SPLINESEGS
 70
     8
  9
$HANDSEED
  5
5B7E0
  9
$SURFTAB1
 70
     6
  9
$SURFTAB2
 70
     6
  9
$SURFTYPE
 70
     6
  9
$SURFU
 70
     6
  9
$SURFV
 70
     6
  9
$UCSBASE
  2

  9
$UCSNAME
  2

  9
$UCSORG
 10
0.0
 20
0.0
 30
0.0
  9
$UCSXDIR
 10
1.0
 20
0.0
 30
0.0
  9
$UCSYDIR
 10
0.0
 20
1.0
 30
0.0
  9
$UCSORTHOREF
  2

  9
$UCSORTHOVIEW
 70
     0
  9
$UCSORGTOP
 10
0.0
 20
0.0
 30
0.0
  9
$UCSORGBOTTOM
 10
0.0
 20
0.0
 30
0.0
  9
$UCSORGLEFT
 10
0.0
 20
0.0
 30
0.0
  9
$UCSORGRIGHT
 10
0.0
 20
0.0
 30
0.0
  9
$UCSORGFRONT
 10
0.0
 20
0.0
 30
0.0
  9
$UCSORGBACK
 10
0.0
 20
0.0
 30
0.0
  9
$PUCSBASE
  2

  9
$PUCSNAME
  2

  9
$PUCSORG
 10
0.0
 20
0.0
 30
0.0
  9
$PUCSXDIR
 10
1.0
 20
0.0
 30
0.0
  9
$PUCSYDIR
 10
0.0
 20
1.0
 30
0.0
  9
$PUCSORTHOREF
  2

  9
$PUCSORTHOVIEW
 70
     0
  9
$PUCSORGTOP
 10
0.0
 20
0.0
 30
0.0
  9
$PUCSORGBOTTOM
 10
0.0
 20
0.0
 30
0.0
  9
$PUCSORGLEFT
 10
0.0
 20
0.0
 30
0.0
  9
$PUCSORGRIGHT
 10
0.0
 20
0.0
 30
0.0
  9
$PUCSORGFRONT
 10
0.0
 20
0.0
 30
0.0
  9
$PUCSORGBACK
 10
0.0
 20
0.0
 30
0.0
  9
$USERI1
 70
     0
  9
$USERI2
 70
     0
  9
$USERI3
 70
     0
  9
$USERI4
 70
     0
  9
$USERI5
 70
     0
  9
$USERR1
 40
0.0
  9
$USERR2
 40
0.0
  9
$USERR3
 40
0.0
  9
$USERR4
 40
0.0
  9
$USERR5
 40
0.0
  9
$WORLDVIEW
 70
     1
  9
$SHADEDGE
 70
     3
  9
$SHADEDIF
 70
    70
  9
$TILEMODE
 70
     1
  9
$MAXACTVP
 70
    64
  9
$PINSBASE
 10
0.0
 20
0.0
 30
0.0
  9
$PLIMCHECK
 70
     0
  9
$PEXTMIN
 10
1.000000000000000E+20
 20
1.000000000000000E+20
 30
1.000000000000000E+20
  9
$PEXTMAX
 10
-1.000000000000000E+20
 20
-1.000000000000000E+20
 30
-1.000000000000000E+20
  9
$PLIMMIN
 10
-3.17498779296875
 20
-3.174999952316284
  9
$PLIMMAX
 10
293.4970092773438
 20
206.692492723465
  9
$UNITMODE
 70
     0
  9
$VISRETAIN
 70
     1
  9
$PLINEGEN
 70
     0
  9
$PSLTSCALE
 70
     1
  9
$TREEDEPTH
 70
  3020
  9
$CMLSTYLE
  2
Standard
  9
$CMLJUST
 70
     0
  9
$CMLSCALE
 40
20.0
  9
$PROXYGRAPHICS
 70
     1
  9
$MEASUREMENT
 70
     1
  9
$CELWEIGHT
370
    -1
  9
$ENDCAPS
280
     0
  9
$JOINSTYLE
280
     0
  9
$LWDISPLAY
290
     1
  9
$INSUNITS
 70
     4
  9
$HYPERLINKBASE
  1

  9
$STYLESHEET
  1
monochrome.ctb
  9
$XEDIT
290
     1
  9
$CEPSNTYPE
380
     0
  9
$PSTYLEMODE
290
     1
  9
$FINGERPRINTGUID
  2
{487E49EE-344A-43F6-800E-CE119D8346FF}
  9
$VERSIONGUID
  2
{CAB1AB7C-F6EE-417E-BF61-2B0C07CF0EB5}
  9
$EXTNAMES
290
     1
  9
$PSVPSCALE
 40
0.0
  9
$OLESTARTUP
290
     0
  0
ENDSEC
  0
SECTION
  2
CLASSES
  0
CLASS
  1
ACDBDICTIONARYWDFLT
  2
AcDbDictionaryWithDefault
  3
ObjectDBX Classes
 90
        0
280
     0
281
     0
  0
CLASS
  1
ACDBPLACEHOLDER
  2
AcDbPlaceHolder
  3
ObjectDBX Classes
 90
        0
280
     0
281
     0
  0
CLASS
  1
LAYOUT
  2
AcDbLayout
  3
ObjectDBX Classes
 90
        0
280
     0
281
     0
  0
CLASS
  1
AMGSETTINGSOBJ
  2
AmgSettingsObj
  3
"AcadM|Product Description: AutoCAD Mechanical|Company: Autodesk"
 90
        0
280
     0
281
     0
  0
CLASS
  1
ACME_DOCUMENT
  2
AcMeDbDoc
  3
AcMeServices
 90
        0
280
     0
281
     0
  0
CLASS
  1
ACMESCOPE
  2
AcMeScope
  3
AcMeServices
 90
        0
280
     0
281
     0
  0
CLASS
  1
ACMECOMMANDHISTORY
  2
AcMeCommandHistory
  3
AcMeServices
 90
        0
280
     0
281
     0
  0
CLASS
  1
DICTIONARYVAR
  2
AcDbDictionaryVar
  3
ObjectDBX Classes
 90
        0
280
     0
281
     0
  0
CLASS
  1
ACIMSYSVARMAN
  2
AcImSysVarManager
  3
AcMeServices
 90
        0
280
     0
281
     0
  0
CLASS
  1
ACIMREALSYSVAR
  2
AcImRealSysVar
  3
AcMeServices
 90
        0
280
     0
281
     0
  0
CLASS
  1
ACIMINTSYSVAR
  2
AcImIntSysVar
  3
AcMeServices
 90
        0
280
     0
281
     0
  0
CLASS
  1
ACMEDRAWINGMAN
  2
AcMeDrawingMan
  3
AcMeServices
 90
        0
280
     0
281
     0
  0
CLASS
  1
ACMEVIEW
  2
AcMeView
  3
AcMeServices
 90
        0
280
     0
281
     0
  0
CLASS
  1
ACDBENTITYCACHE
  2
AcMeEntityCache
  3
AcMeServices
 90
        0
280
     0
281
     0
  0
CLASS
  1
GSMANAGER
  2
AcMeGSManager
  3
AcMeServices
 90
        0
280
     0
281
     0
  0
CLASS
  1
AMDTINTERNALREACTOR
  2
AmdtInternalReactor
  3
AcMeServices
 90
        0
280
     0
281
     0
  0
CLASS
  1
ACMESTATEMGR
  2
AcMeStateMgr
  3
AcMeServices
 90
        0
280
     0
281
     0
  0
CLASS
  1
ACGREFMASTER
  2
AcGrefMaster
  3
AcAttribServices
 90
        0
280
     0
281
     0
  0
CLASS
  1
ACME_DATABASE
  2
AcMeDbDatabase
  3
AcMeServices
 90
        0
280
     0
281
     0
  0
CLASS
  1
ACRFINSADJUSTERMGR
  2
AcRfInsAdjusterMgr
  3
AcMeServices
 90
        0
280
     0
281
     0
  0
CLASS
  1
ACGREFACADMASTER
  2
AcGrefacadMaster
  3
AcGrefServices
 90
        0
280
     0
281
     0
  0
CLASS
  1
AMIMASTER
  2
AmiMaster
  3
AmiServices
 90
        0
280
     0
281
     0
  0
CLASS
  1
ACMDATADICTIONARY
  2
AcmDataDictionary
  3
"AcmSymBB|Product Description: AutoCAD Mechanical|Company: Autodesk"
 90
        0
280
     0
281
     0
  0
CLASS
  1
ACMDATAENTRYBLOCK
  2
AcmDataEntryBlock
  3
"AcmSymBB|Product Description: AutoCAD Mechanical|Company: Autodesk"
 90
        0
280
     0
281
     0
  0
CLASS
  1
ACIMSTRSYSVAR
  2
AcImStrSysVar
  3
AcMeServices
 90
        0
280
     0
281
     0
  0
CLASS
  1
ACMSTANDARDISO
  2
AcmStandardISO
  3
"Amdt_StdImp|Product Description: AutoCAD Mechanical|Company: Autodesk"
 90
        0
280
     0
281
     0
  0
CLASS
  1
AMGOBJPROPCFG
  2
AmgObjPropCfg
  3
"AmgLay|Product Description: AutoCAD Mechanical|Company: Autodesk"
 90
        1
280
     0
281
     0
  0
CLASS
  1
AMDTEDGESTANDARDISO
  2
AmdtEdgeStdISO
  3
"Amdt_StdImp|Product Description: AutoCAD Mechanical|Company: Autodesk"
 90
        0
280
     0
281
     0
  0
CLASS
  1
ACMSURFSTANDARDISO
  2
AcmSurfTextStdISO
  3
"Amdt_StdImp|Product Description: AutoCAD Mechanical|Company: Autodesk"
 90
        0
280
     0
281
     0
  0
CLASS
  1
ACMFCFSTANDARDISO
  2
AcmFCFStdISO
  3
"Amdt_StdImp|Product Description: AutoCAD Mechanical|Company: Autodesk"
 90
        0
280
     0
281
     0
  0
CLASS
  1
ACMWELDSTANDARDISO
  2
AcmWeldingStdISO
  3
"Amdt_StdImp|Product Description: AutoCAD Mechanical|Company: Autodesk"
 90
        0
280
     0
281
     0
  0
CLASS
  1
ACMIDSTANDARDISO
  2
AcmIdStdISO
  3
"Amdt_StdImp|Product Description: AutoCAD Mechanical|Company: Autodesk"
 90
        0
280
     0
281
     0
  0
CLASS
  1
ACMDATUMSTANDARDISO
  2
AcmDatumStdISO
  3
"Amdt_StdImp|Product Description: AutoCAD Mechanical|Company: Autodesk"
 90
        0
280
     0
281
     0
  0
CLASS
  1
ACMBOMSTANDARDISO
  2
AcmBOMStdISO
  3
"Amdt_StdImp|Product Description: AutoCAD Mechanical|Company: Autodesk"
 90
        0
280
     0
281
     0
  0
CLASS
  1
ACMDETAILSTANDARDISO
  2
AmdtDetailSymStdISO
  3
"Amdt_StdImp|Product Description: AutoCAD Mechanical|Company: Autodesk"
 90
        0
280
     0
281
     0
  0
CLASS
  1
ACMSECTIONSTANDARDISO
  2
AmdtSectionSymStdISO
  3
"Amdt_StdImp|Product Description: AutoCAD Mechanical|Company: Autodesk"
 90
        0
280
     0
281
     0
  0
CLASS
  1
ACMCENTERLINESTANDARDISO
  2
AmdtCenterLineStdISO
  3
"Amdt_StdImp|Product Description: AutoCAD Mechanical|Company: Autodesk"
 90
        0
280
     0
281
     0
  0
CLASS
  1
ACAMGLAYSTD
  2
AcAmgLayStd
  3
"AmgLay|Product Description: AutoCAD Mechanical|Company: Autodesk"
 90
        0
280
     0
281
     0
  0
CLASS
  1
ACAMGDIMSTD
  2
AcAmgDimStd
  3
"AmgDim|Product Description: AutoCAD Mechanical|Company: Autodesk"
 90
        0
280
     0
281
     0
  0
CLASS
  1
ACAMGTITLESTD
  2
AcAmgTitleStd
  3
"AmgTitle|Product Description: AutoCAD Mechanical|Company: Autodesk"
 90
        0
280
     0
281
     0
  0
CLASS
  1
ACAMGFILTERDAT
  2
AcAmgFilterDat
  3
"AcadM|Product Description: AutoCAD Mechanical|Company: Autodesk"
 90
        0
280
     0
281
     0
  0
CLASS
  1
LAYER_INDEX
  2
AcDbLayerIndex
  3
ObjectDBX Classes
 90
    32768
280
     0
281
     0
  0
CLASS
  1
IDBUFFER
  2
AcDbIdBuffer
  3
ObjectDBX Classes
 90
    32768
280
     0
281
     0
  0
CLASS
  1
PLOTSETTINGS
  2
AcDbPlotSettings
  3
ObjectDBX Classes
 90
    32768
280
     0
281
     0
  0
CLASS
  1
AMDTFORMULAUPDATEDISPATCHER
  2
AmdtFormulaUpdateDispatcher
  3
AcMeServices
 90
        0
280
     0
281
     0
  0
CLASS
  1
ACMSTANDARDANSI
  2
AcmStandardANSI
  3
"Amdt_StdImp|Product Description: AutoCAD Mechanical|Company: Autodesk"
 90
        0
280
     0
281
     0
  0
CLASS
  1
ACMSURFSTANDARDANSI
  2
AcmSurfTextStdANSI
  3
"Amdt_StdImp|Product Description: AutoCAD Mechanical|Company: Autodesk"
 90
        0
280
     0
281
     0
  0
CLASS
  1
ACMFCFSTANDARDANSI
  2
AcmFCFStdANSI
  3
"Amdt_StdImp|Product Description: AutoCAD Mechanical|Company: Autodesk"
 90
        0
280
     0
281
     0
  0
CLASS
  1
ACMWELDSTANDARDANSI
  2
AcmWeldingStdANSI
  3
"Amdt_StdImp|Product Description: AutoCAD Mechanical|Company: Autodesk"
 90
        0
280
     0
281
     0
  0
CLASS
  1
ACMIDSTANDARDANSI
  2
AcmIdStdANSI
  3
"Amdt_StdImp|Product Description: AutoCAD Mechanical|Company: Autodesk"
 90
        0
280
     0
281
     0
  0
CLASS
  1
ACMDATUMSTANDARDANSI
  2
AcmDatumStdANSI
  3
"Amdt_StdImp|Product Description: AutoCAD Mechanical|Company: Autodesk"
 90
        0
280
     0
281
     0
  0
CLASS
  1
ACMBOMSTANDARDANSI
  2
AcmBOMStdANSI
  3
"Amdt_StdImp|Product Description: AutoCAD Mechanical|Company: Autodesk"
 90
        0
280
     0
281
     0
  0
CLASS
  1
ACMDETAILSTANDARDANSI
  2
AmdtDetailSymStdANSI
  3
"Amdt_StdImp|Product Description: AutoCAD Mechanical|Company: Autodesk"
 90
        0
280
     0
281
     0
  0
CLASS
  1
ACMSECTIONSTANDARDANSI
  2
AmdtSectionSymStdANSI
  3
"Amdt_StdImp|Product Description: AutoCAD Mechanical|Company: Autodesk"
 90
        0
280
     0
281
     0
  0
CLASS
  1
ACMCENTERLINESTANDARDANSI
  2
AmdtCenterLineStdANSI
  3
"Amdt_StdImp|Product Description: AutoCAD Mechanical|Company: Autodesk"
 90
        0
280
     0
281
     0
  0
CLASS
  1
ACMBOM
  2
AcmBom
  3
"AcmSymBB|Product Description: AutoCAD Mechanical|Company: Autodesk"
 90
        0
280
     0
281
     0
  0
CLASS
  1
ACMDATAENTRYPART
  2
AcmDataEntryPart
  3
"AcmSymBB|Product Description: AutoCAD Mechanical|Company: Autodesk"
 90
    32768
280
     0
281
     0
  0
CLASS
  1
ACMPARTREF
  2
AcmPartRef
  3
"AcmSymBB|Product Description: AutoCAD Mechanical|Company: Autodesk"
 90
    35839
280
     0
281
     1
  0
CLASS
  1
ACDBCIRCARCRES
  2
AcDbCircArcRes
  3
AcGrefServices
 90
    32768
280
     0
281
     0
  0
CLASS
  1
ACMBOMROW
  2
AcmBomRow
  3
"AcmSymBB|Product Description: AutoCAD Mechanical|Company: Autodesk"
 90
    32768
280
     0
281
     0
  0
CLASS
  1
ACMBALLOON
  2
AcmBalloon
  3
"AcmSymBB|Product Description: AutoCAD Mechanical|Company: Autodesk"
 90
    35839
280
     0
281
     1
  0
CLASS
  1
AMDTNOTE
  2
AmdtNote
  3
"AcmSymBB|Product Description: AutoCAD Mechanical|Company: Autodesk"
 90
    35839
280
     0
281
     1
  0
CLASS
  1
STDPART2D
  2
AmgStdPart
  3
"AmgStdPart|Product Description: AutoCAD Mechanical|Company: Autodesk"
 90
    35839
280
     0
281
     1
  0
CLASS
  1
ACDBSTDPARTRES_LINE
  2
AcDbStdPartRes_Line
  3
"AmgStdPart|Product Description: AutoCAD Mechanical|Company: Autodesk"
 90
    32768
280
     0
281
     0
  0
CLASS
  1
ACMDATAENTRY
  2
AcmDataEntry
  3
"AcmSymBB|Product Description: AutoCAD Mechanical|Company: Autodesk"
 90
        0
280
     0
281
     0
  0
CLASS
  1
ACDBOPPOLYLINERES
  2
AcDbOpPolylineRes
  3
AcGrefServices
 90
    32768
280
     0
281
     0
  0
CLASS
  1
ACMPARTLIST
  2
AcmPartList
  3
"AcmSymBB|Product Description: AutoCAD Mechanical|Company: Autodesk"
 90
    35839
280
     0
281
     1
  0
CLASS
  1
ACDBLINERES
  2
AcDbLineRes
  3
AcGrefServices
 90
        0
280
     0
281
     0
  0
CLASS
  1
ACRFINSADJ
  2
AcRfInsAdjuster
  3
AcMeServices
 90
    32768
280
     0
281
     0
  0
CLASS
  1
AM_DRAWING_MGR
  2
AcDmDwgMgr
  3
AcMechDwgViewMgmt
 90
        0
280
     0
281
     0
  0
CLASS
  1
AM_DWG_DOCUMENT
  2
AcDmDwgDocument
  3
AcMechDwgViewMgmt
 90
        0
280
     0
281
     0
  0
CLASS
  1
AM_DWG_SHEET
  2
AcDmSheet
  3
AcMechDwgViewMgmt
 90
        0
280
     0
281
     0
  0
CLASS
  1
AM_VIEWDIMPARMAP
  2
AcDmViewDimParMap
  3
AcMechDwgViewMgmt
 90
        0
280
     0
281
     0
  0
CLASS
  1
AM_DWGMGR_NAME
  2
AcDmDwgMgrName
  3
AcMechDwgViewMgmt
 90
        0
280
     0
281
     0
  0
CLASS
  1
AMDTMENUSTATEMGR
  2
AmdtMenuStateMgr
  3
McadcomServices
 90
        0
280
     0
281
     0
  0
CLASS
  1
AMDTMCOMMENUSTATE
  2
AmdtMcomMenuState
  3
McadcomServices
 90
        0
280
     0
281
     0
  0
CLASS
  1
ASAPP
  2
AcAsAppObject
  3
AutoSurfServices
 90
        0
280
     0
281
     0
  0
CLASS
  1
IM_STATIC_MAN
  2
AcImStaticVarManager
  3
AcMeServices
 90
        0
280
     0
281
     0
  0
CLASS
  1
ACIMDBLSTATICVAR
  2
AcImDblStaticVar
  3
AcMeServices
 90
        0
280
     0
281
     0
  0
CLASS
  1
ACIMSTRSTATICVAR
  2
AcImStrStaticVar
  3
AcMeServices
 90
        0
280
     0
281
     0
  0
CLASS
  1
ACIMINTSTATICVAR
  2
AcImIntStaticVar
  3
AcMeServices
 90
        0
280
     0
281
     0
  0
CLASS
  1
ACASGREFMASTER
  2
AcAsGrefMaster
  3
AutoSurfResolverServices
 90
        0
280
     0
281
     0
  0
CLASS
  1
ACADGREFMODULE
  2
AcAdGrefModule
  3
AdGrefServices
 90
        0
280
     0
281
     0
  0
CLASS
  1
AMDTMAPISURFMOUDULE
  2
AmdtMApiSurfModule
  3
MApiSurfServices
 90
        0
280
     0
281
     0
  0
CLASS
  1
MAPIAMMOUDLE
  2
MApiAmModule
  3
MApiAmServices
 90
        0
280
     0
281
     0
  0
CLASS
  1
AMDTADMENUSTATE
  2
AmdtAdMenuState
  3
DesignerServices
 90
        0
280
     0
281
     0
  0
CLASS
  1
ADAPPL
  2
AcAdAppl
  3
DesignerServices
 90
        0
280
     0
281
     0
  0
CLASS
  1
DEPMGR
  2
AcAdDepMgr
  3
DesignerServices
 90
        0
280
     0
281
     0
  0
CLASS
  1
PARAMMGR
  2
AcAdParamMgr
  3
DesignerServices
 90
        0
280
     0
281
     0
  0
CLASS
  1
PARAMSCOPE
  2
AcAdParamScope
  3
DesignerServices
 90
        0
280
     0
281
     0
  0
CLASS
  1
NAMEDAPPL
  2
AcAdNamedAppl
  3
DesignerServices
 90
        0
280
     0
281
     0
  0
CLASS
  1
ADHNTMPLT
  2
AdHoleNoteTemplateMgr
  3
DesignerServices
 90
    32768
280
     0
281
     0
  0
CLASS
  1
AM_HNTEMPLATE_MGR_NAME
  2
AdHoleNoteTemplateMgrName
  3
DesignerServices
 90
    32768
280
     0
281
     0
  0
CLASS
  1
AMDTDMMENUSTATE
  2
AmdtDmMenuState
  3
AcMechDwgViewMgmt
 90
        0
280
     0
281
     0
  0
CLASS
  1
MAPIADMODULE
  2
MApiAdModule
  3
MApiAdServices
 90
        0
280
     0
281
     0
  0
CLASS
  1
AMDTAMMENUSTATE
  2
AmdtAmMenuState
  3
DesignerAssemblies
 90
        0
280
     0
281
     0
  0
CLASS
  1
ACAMPROJECT
  2
AcAmProject
  3
DesignerAssemblies
 90
        0
280
     0
281
     0
  0
CLASS
  1
ACAMGRCOMPDEF
  2
AcAmGrCompDef
  3
DesignerAssemblies
 90
        0
280
     0
281
     0
  0
CLASS
  1
ACCMCONTEXT
  2
AcCmContext
  3
DesignerAssemblies
 90
        0
280
     0
281
     0
  0
CLASS
  1
ACAMCOMPDEF
  2
AcAmCompDef
  3
DesignerAssemblies
 90
        0
280
     0
281
     0
  0
CLASS
  1
ACAMCOMPDEFMGR
  2
AcAmCompDefMgr
  3
DesignerAssemblies
 90
        0
280
     0
281
     0
  0
CLASS
  1
AMCONTEXTMGR
  2
AcAmContextMgr
  3
DesignerAssemblies
 90
        0
280
     0
281
     0
  0
CLASS
  1
ACAMCONTEXTMODELER
  2
AcAmContextModeler
  3
DesignerAssemblies
 90
        0
280
     0
281
     0
  0
CLASS
  1
CATALOGSTATE
  2
AcAmCatalogState
  3
DesignerAssemblies
 90
        0
280
     0
281
     0
  0
CLASS
  1
ACAMGRCOMPDEFSET
  2
AcAmGrCompDefSet
  3
DesignerAssemblies
 90
        0
280
     0
281
     0
  0
CLASS
  1
AMDTBROWSERDBTAB
  2
AmdtBrowserDbTab
  3
McadcomServices
 90
        0
280
     0
281
     0
  0
CLASS
  1
CBROWSERAPPOBJECT
  2
CBrowserAppObject
  3
McadcomServices
 90
        0
280
     0
281
     0
  0
CLASS
  1
DM_PLACEHOLDER
  2
AcDmSelsetPlaceholder
  3
AcMechDwgViewMgmt
 90
        0
280
     0
281
     0
  0
CLASS
  1
ACMPICKOBJ
  2
AcmPickEnt
  3
"AcmSymBB|Product Description: AutoCAD Mechanical|Company: Autodesk"
 90
    32768
280
     0
281
     1
  0
CLASS
  1
ACMNOTESTANDARDISO
  2
AmdtNoteStdISO
  3
"Amdt_StdImp|Product Description: AutoCAD Mechanical|Company: Autodesk"
 90
        0
280
     0
281
     0
  0
CLASS
  1
ACMNOTESTANDARDANSI
  2
AmdtNoteStdANSI
  3
"Amdt_StdImp|Product Description: AutoCAD Mechanical|Company: Autodesk"
 90
        0
280
     0
281
     0
  0
CLASS
  1
ACMTHREADLINESTANDARDISO
  2
AmdtThreadLineStdISO
  3
"Amdt_StdImp|Product Description: AutoCAD Mechanical|Company: Autodesk"
 90
        0
280
     0
281
     0
  0
CLASS
  1
ACMTHREADLINESTANDARDANSI
  2
AmdtThreadLineStdANSI
  3
"Amdt_StdImp|Product Description: AutoCAD Mechanical|Company: Autodesk"
 90
        0
280
     0
281
     0
  0
CLASS
  1
TABLESTYLE
  2
AcDbTableStyle
  3
ObjectDBX Classes
 90
     4095
280
     0
281
     0
  0
CLASS
  1
SORTENTSTABLE
  2
AcDbSortentsTable
  3
ObjectDBX Classes
 90
        0
280
     0
281
     0
  0
CLASS
  1
MATERIAL
  2
AcDbMaterial
  3
ObjectDBX Classes
 90
     1153
280
     0
281
     0
  0
CLASS
  1
VISUALSTYLE
  2
AcDbVisualStyle
  3
ObjectDBX Classes
 90
     4095
280
     0
281
     0
  0
CLASS
  1
ACRFATTGENMGR
  2
AcRfAttGeneralMgr
  3
AcAttribServices
 90
        0
280
     0
281
     0
  0
CLASS
  1
ACRFOBJATTMGR
  2
AcRfObjAttGroupMgr
  3
AcAttribServices
 90
        0
280
     0
281
     0
  0
CLASS
  1
ACRFMCADAPIATTHOLDER
  2
AcRfMCADAPIAttHolder
  3
AcAttribServices
 90
        0
280
     0
281
     0
  0
CLASS
  1
AMDTSYSATTR
  2
AmdtSystemAttribute
  3
AcAttribServices
 90
        0
280
     0
281
     0
  0
CLASS
  1
ACMTAPERSTANDARDISO
  2
AcmTaperStdISO
  3
"Amdt_StdImp|Product Description: AutoCAD Mechanical|Company: Autodesk"
 90
        0
280
     0
281
     0
  0
CLASS
  1
CAMSSTRUCTBTNSTATE
  2
StructBtnState
  3
L"DesignerAssemblies"
 90
        0
280
     0
281
     0
  0
CLASS
  1
DIMASSOC
  2
AcDbDimAssoc
  3
"AcDbDimAssoc|Product Desc:     AcDim ARX App For Dimension|Company:          Autodesk, Inc.|WEB Address:      www.autodesk.com"
 90
    32768
280
     0
281
     0
  0
CLASS
  1
EXACXREFPANELOBJECT
  2
ExAcXREFPanelObject
  3
EXAC_ESW
 90
    33793
280
     0
281
     0
  0
CLASS
  1
NPOCOLLECTION
  2
AcDbImpNonPersistentObjectsCollection
  3
ObjectDBX Classes
 90
    33921
280
     0
281
     0
  0
CLASS
  1
AMDTEDGESTANDARDISO13715
  2
AmdtEdgeStdISO13715
  3
"Amdt_StdImp|Product Description: AutoCAD Mechanical|Company: Autodesk"
 90
        0
280
     0
281
     0
  0
CLASS
  1
AMDTNOTETEMPLATEDB
  2
AmdtNoteTemplateDB
  3
AMDT_STDIMP_MODULE_NAME
 90
        0
280
     0
281
     0
  0
CLASS
  1
ACAMGHOLECHARTSTDISO
  2
AcAmgHoleChartStdISO
  3
ACMSYMBB_MODULE_NAME
 90
        0
280
     0
281
     0
  0
CLASS
  1
ACMTAPERSTANDARDANSI
  2
AcmTaperStdANSI
  3
"Amdt_StdImp|Product Description: AutoCAD Mechanical|Company: Autodesk"
 90
        0
280
     0
281
     0
  0
CLASS
  1
ACAMGHOLECHARTSTDANSI
  2
AcAmgHoleChartStdANSI
  3
ACMSYMBB_MODULE_NAME
 90
        0
280
     0
281
     0
  0
CLASS
  1
ACAMSTDPCOMPDEF
  2
AcAmStdpCompDef
  3
DesignerAssemblies
 90
    32768
280
     0
281
     0
  0
CLASS
  1
ACAMCOMP
  2
AcAmComp
  3
DesignerAssemblies
 90
    32768
280
     0
281
     0
  0
CLASS
  1
AC_AM_STDP_VIEW_DEF
  2
AcAmStdpViewDef
  3
DesignerAssemblies
 90
    32768
280
     0
281
     0
  0
CLASS
  1
AC_AM_MVD_DEP_MGR
  2
AcAmMVDdepMgr
  3
DesignerAssemblies
 90
        0
280
     0
281
     0
  0
CLASS
  1
AC_AM_MASTER_VIEW_DEF
  2
AcAmMasterViewDef
  3
DesignerAssemblies
 90
        0
280
     0
281
     0
  0
CLASS
  1
AC_AM_DIRTY_NODES
  2
AcAmDirtyNodes
  3
DesignerAssemblies
 90
        0
280
     0
281
     0
  0
CLASS
  1
AC_AM_MAPPER_CACHE
  2
AcAmMapperCache
  3
DesignerAssemblies
 90
        0
280
     0
281
     0
  0
CLASS
  1
ACAMMVDBACKUPOBJECT
  2
AcAmMVDBackupObject
  3
DesignerAssemblies
 90
        0
280
     0
281
     0
  0
CLASS
  1
AC_AM_COMP_VIEW_INST
  2
AcAmCompView
  3
DesignerAssemblies
 90
    32768
280
     0
281
     0
  0
CLASS
  1
AC_AM_2D_XREF_MGR
  2
AcAmXrefMgr2d
  3
DesignerAssemblies
 90
        0
280
     0
281
     0
  0
CLASS
  1
AC_AM_HIDE_SITUATION
  2
AcAmHideSituation
  3
DesignerAssemblies
 90
    32768
280
     0
281
     0
  0
CLASS
  1
AC_AM_TRANSFORM_GHOST
  2
AcDbTransformGhost
  3
DesignerAssemblies
 90
    32768
280
     0
281
     1
  0
CLASS
  1
L"OBJCLONER"
  2
ObjCloner
  3
DesignerAssemblies
 90
    32768
280
     0
281
     1
  0
ENDSEC
  0
SECTION
  2
TABLES
  0
TABLE
  2
VPORT
  5
8
330
0
100
AcDbSymbolTable
 70
     1
  0
VPORT
  5
B0EC
330
8
100
AcDbSymbolTableRecord
100
AcDbViewportTableRecord
  2
*Active
 70
     0
 10
0.0
 20
0.0
 11
1.0
 21
1.0
 12
5989.12892225665
 22
-6439.178053199665
 13
0.0
 23
0.0
 14
2.5
 24
2.5
 15
10.0
 25
10.0
 16
0.0
 26
0.0
 36
1.0
 17
0.0
 27
0.0
 37
0.0
 40
1981.992297601506
 41
1.702970297029702
 42
50.0
 43
-1370.695619172058
 44
-1370.695619172058
 50
0.0
 51
0.0
 71
     0
 72
   100
 73
     1
 74
     3
 75
     0
 76
     0
 77
     0
 78
     0
281
     0
 65
     0
110
0.0
120
0.0
130
0.0
111
1.0
121
0.0
131
0.0
112
0.0
122
1.0
132
0.0
 79
     0
146
0.0
  0
ENDTAB
  0
TABLE
  2
LTYPE
  5
5
330
0
100
AcDbSymbolTable
 70
    23
  0
LTYPE
  5
14
330
5
100
AcDbSymbolTableRecord
100
AcDbLinetypeTableRecord
  2
ByBlock
 70
     0
  3

 72
    65
 73
     0
 40
0.0
  0
LTYPE
  5
15
330
5
100
AcDbSymbolTableRecord
100
AcDbLinetypeTableRecord
  2
ByLayer
 70
     0
  3

 72
    65
 73
     0
 40
0.0
  0
LTYPE
  5
16
330
5
100
AcDbSymbolTableRecord
100
AcDbLinetypeTableRecord
  2
Continuous
 70
     0
  3
Solid line
 72
    65
 73
     0
 40
0.0
  0
LTYPE
  5
4F
330
5
100
AcDbSymbolTableRecord
100
AcDbLinetypeTableRecord
  2
AM_ISO02W050
 70
     0
  3
__ __ __ __ __ __ __ __ __ __ __ __ __ __ __
 72
    65
 73
     2
 40
7.5
 49
6.0
 74
     0
 49
-1.5
 74
     0
  0
LTYPE
  5
52
330
5
100
AcDbSymbolTableRecord
100
AcDbLinetypeTableRecord
  2
Amconstr
 70
     0
  3
_______________________
 72
    65
 73
     2
 40
9999.0
 49
9999.0
 74
     0
 49
0.0
 74
     0
  0
LTYPE
  5
64
330
5
100
AcDbSymbolTableRecord
100
AcDbLinetypeTableRecord
  2
ACISOWELD
 70
     0
  3
_ _ _ _ _
 72
    65
 73
     2
 40
2.0
 49
2.0
 74
     0
 49
-1.0
 74
     0
  0
LTYPE
  5
65
330
5
100
AcDbSymbolTableRecord
100
AcDbLinetypeTableRecord
  2
ACISOTGB
 70
     0
  3
__ . . __ . .
 72
    65
 73
     6
 40
9.0
 49
4.0
 74
     0
 49
-1.0
 74
     0
 49
1.0
 74
     0
 49
-1.0
 74
     0
 49
1.0
 74
     0
 49
-1.0
 74
     0
  0
LTYPE
  5
66
330
5
100
AcDbSymbolTableRecord
100
AcDbLinetypeTableRecord
  2
ACISOTGL
 70
     0
  3
_ _ _ _ _
 72
    65
 73
     2
 40
3.0
 49
2.0
 74
     0
 49
-1.0
 74
     0
  0
LTYPE
  5
69
330
5
100
AcDbSymbolTableRecord
100
AcDbLinetypeTableRecord
  2
CENTER
 70
     0
  3
__ . __
 72
    65
 73
     4
 40
7.0
 49
4.0
 74
     0
 49
-1.0
 74
     0
 49
1.0
 74
     0
 49
-1.0
 74
     0
  0
LTYPE
  5
A6E
330
5
100
AcDbSymbolTableRecord
100
AcDbLinetypeTableRecord
  2
PHANTOM2
 70
     0
  3
Phantom (.5x) ___ _ _ ___ _ _ ___ _ _ ___ _ _
 72
    65
 73
     6
 40
31.75
 49
15.875
 74
     0
 49
-3.174999999999999
 74
     0
 49
3.174999999999999
 74
     0
 49
-3.174999999999999
 74
     0
 49
3.174999999999999
 74
     0
 49
-3.174999999999999
 74
     0
  0
LTYPE
  5
4DED
330
5
100
AcDbSymbolTableRecord
100
AcDbLinetypeTableRecord
  2
中線
 70
     0
  3
___________________
 72
    65
 73
     2
 40
2.0
 49
1.0
 74
     0
 49
1.0
 74
     0
  0
LTYPE
  5
4DF6
330
5
100
AcDbSymbolTableRecord
100
AcDbLinetypeTableRecord
  2
細線
 70
     0
  3
___________________
 72
    65
 73
     2
 40
2.0
 49
1.0
 74
     0
 49
1.0
 74
     0
  0
LTYPE
  5
4DF7
330
5
100
AcDbSymbolTableRecord
100
AcDbLinetypeTableRecord
  2
太線
 70
     0
  3
___________________
 72
    65
 73
     2
 40
2.0
 49
1.0
 74
     0
 49
1.0
 74
     0
  0
LTYPE
  5
4EA7
330
5
100
AcDbSymbolTableRecord
100
AcDbLinetypeTableRecord
  2
文字
 70
     0
  3
_________________
 72
    65
 73
     2
 40
2.0
 49
1.0
 74
     0
 49
1.0
 74
     0
  0
LTYPE
  5
4EA9
330
5
100
AcDbSymbolTableRecord
100
AcDbLinetypeTableRecord
  2
寸法線
 70
     0
  3
________________
 72
    65
 73
     2
 40
2.0
 49
1.0
 74
     0
 49
1.0
 74
     0
  0
LTYPE
  5
4F12
330
5
100
AcDbSymbolTableRecord
100
AcDbLinetypeTableRecord
  2
ハッチング
 70
     0
  3
_________________
 72
    65
 73
     2
 40
2.0
 49
1.0
 74
     0
 49
1.0
 74
     0
  0
LTYPE
  5
5180
330
5
100
AcDbSymbolTableRecord
100
AcDbLinetypeTableRecord
  2
陰線1
 70
     0
  3
__ __ __ __
 72
    65
 73
     2
 40
4.0
 49
2.2
 74
     0
 49
-1.8
 74
     0
  0
LTYPE
  5
5182
330
5
100
AcDbSymbolTableRecord
100
AcDbLinetypeTableRecord
  2
切断線
 70
     0
  3
/\/-/\/-/\/-/\/-/\/-/\/
 72
    65
 73
     2
 40
11.0001
 49
0.0001
 74
     4
 75
   135
340
56
 46
0.04
 50
0.0
 44
0.0
 45
0.0
 49
-11.0
 74
     0
  0
LTYPE
  5
5183
330
5
100
AcDbSymbolTableRecord
100
AcDbLinetypeTableRecord
  2
想像線1
 70
     0
  3
__ __ __ _____ __ __ ____
 72
    65
 73
     6
 40
14.5
 49
6.0
 74
     0
 49
-1.5
 74
     0
 49
2.0
 74
     0
 49
-1.5
 74
     0
 49
2.0
 74
     0
 49
-1.5
 74
     0
  0
LTYPE
  5
5185
330
5
100
AcDbSymbolTableRecord
100
AcDbLinetypeTableRecord
  2
中心線1
 70
     0
  3
___ _ ___ _ ___
 72
    65
 73
     4
 40
18.0
 49
12.0
 74
     0
 49
-2.0
 74
     0
 49
2.0
 74
     0
 49
-2.0
 74
     0
  0
LTYPE
  5
5188
330
5
100
AcDbSymbolTableRecord
100
AcDbLinetypeTableRecord
  2
補助線
 70
     0
  3
______________
 72
    65
 73
     2
 40
2.0
 49
1.0
 74
     0
 49
1.0
 74
     0
  0
LTYPE
  5
6427
330
5
100
AcDbSymbolTableRecord
100
AcDbLinetypeTableRecord
  2
HIDDEN
 70
     0
  3
Hidden __ __ __ __ __ __ __ __ __ __ __ __ __ _
 72
    65
 73
     2
 40
0.375
 49
0.25
 74
     0
 49
-0.125
 74
     0
  0
LTYPE
  5
AF95
330
5
100
AcDbSymbolTableRecord
100
AcDbLinetypeTableRecord
  2
AM_ISO08W050
 70
     0
  3
____ . ____ . ____ . ____ . ____ . ____ . ____
 72
    65
 73
     4
 40
18.0
 49
12.0
 74
     0
 49
-1.5
 74
     0
 49
3.0
 74
     0
 49
-1.5
 74
     0
  0
LTYPE
  5
FD15
330
5
100
AcDbSymbolTableRecord
100
AcDbLinetypeTableRecord
  2
ACANSTGB
 70
     0
  3
__ . . __ . .
 72
    65
 73
     6
 40
0.35433070866
 49
0.15748031496
 74
     0
 49
-0.03937007874
 74
     0
 49
0.03937007874
 74
     0
 49
-0.03937007874
 74
     0
 49
0.03937007874
 74
     0
 49
-0.03937007874
 74
     0
  0
LTYPE
  5
FD16
330
5
100
AcDbSymbolTableRecord
100
AcDbLinetypeTableRecord
  2
ACANSTGL
 70
     0
  3
_ _ _ _ _
 72
    65
 73
     2
 40
0.11811023622
 49
0.07874015748
 74
     0
 49
-0.03937007874
 74
     0
  0
ENDTAB
  0
TABLE
  2
LAYER
  5
2
102
{ACAD_XDICTIONARY
360
3F95
102
}
330
0
100
AcDbSymbolTable
 70
    10
  0
LAYER
  5
10
330
2
100
AcDbSymbolTableRecord
100
AcDbLayerTableRecord
  2
0
 70
     0
 62
     7
  6
Continuous
370
    -3
390
F
  0
LAYER
  5
6D1
330
2
100
AcDbSymbolTableRecord
100
AcDbLayerTableRecord
  2
Defpoints
 70
     0
 62
     7
  6
Continuous
290
     0
370
    -3
390
F
  0
LAYER
  5
AC9F
330
2
100
AcDbSymbolTableRecord
100
AcDbLayerTableRecord
  2
size
 70
     0
 62
     5
  6
Continuous
290
     0
370
    25
390
F
  0
LAYER
  5
ACA0
330
2
100
AcDbSymbolTableRecord
100
AcDbLayerTableRecord
  2
waku
 70
     0
 62
     7
  6
Continuous
370
    35
390
F
  0
LAYER
  5
ACA1
330
2
100
AcDbSymbolTableRecord
100
AcDbLayerTableRecord
  2
AM_6
 70
     0
 62
     2
  6
文字
370
    15
390
F
1001
AcAecLayerStandard
1000

1000

  0
LAYER
  5
AD68
330
2
100
AcDbSymbolTableRecord
100
AcDbLayerTableRecord
  2
AM_5
 70
     0
 62
     3
  6
寸法線
370
    15
390
F
1001
AcAecLayerStandard
1000

1000

  0
LAYER
  5
B5FB
330
2
100
AcDbSymbolTableRecord
100
AcDbLayerTableRecord
  2
0部品18
 70
     0
 62
   254
  6
細線
370
    30
390
F
1001
AcAecLayerStandard
1000

1000

  0
LAYER
  5
5B59C
330
2
100
AcDbSymbolTableRecord
100
AcDbLayerTableRecord
  2
AM_0
 70
     0
 62
     7
  6
中線
370
    25
390
F
1001
AcAecLayerStandard
1000

1000

  0
LAYER
  5
5B59D
330
2
100
AcDbSymbolTableRecord
100
AcDbLayerTableRecord
  2
AM_7
 70
     0
 62
     4
  6
中心線1
370
    15
390
F
1001
AcAecLayerStandard
1000

1000

  0
LAYER
  5
5B7AA
330
2
100
AcDbSymbolTableRecord
100
AcDbLayerTableRecord
  2
AM_CL
 70
     0
 62
     1
  6
Amconstr
370
    15
390
F
1001
AcAecLayerStandard
1000

1000

  0
ENDTAB
  0
TABLE
  2
STYLE
  5
3
330
0
100
AcDbSymbolTable
 70
     7
  0
STYLE
  5
11
330
3
100
AcDbSymbolTableRecord
100
AcDbTextStyleTableRecord
  2
STANDARD
 70
     0
 40
0.0
 41
0.7
 50
0.0
 71
     0
 42
3.2
  3
romans.shx
  4
extfont.shx
  0
STYLE
  5
56
330
3
100
AcDbSymbolTableRecord
100
AcDbTextStyleTableRecord
  2

 70
     1
 40
0.0
 41
1.0
 50
0.0
 71
     0
 42
2.5
  3
ltypeshp.shx
  4

  0
STYLE
  5
58
330
3
100
AcDbSymbolTableRecord
100
AcDbTextStyleTableRecord
  2
ACISOTS
 70
     0
 40
1.0
 41
1.0
 50
0.0
 71
     0
 42
2.5
  3
isocp.shx
  4
extfont.shx
  0
STYLE
  5
63
330
3
100
AcDbSymbolTableRecord
100
AcDbTextStyleTableRecord
  2
ACISOGDT
 70
     0
 40
0.0
 41
1.0
 50
0.0
 71
     0
 42
2.5
  3
amgdt.shx
  4

  0
STYLE
  5
A74
330
3
100
AcDbSymbolTableRecord
100
AcDbTextStyleTableRecord
  2
DIM
 70
     0
 40
0.0
 41
1.0
 50
0.0
 71
     0
 42
2.5
  3
monotxt.shx
  4
extfont.shx
  0
STYLE
  5
FD18
330
3
100
AcDbSymbolTableRecord
100
AcDbTextStyleTableRecord
  2
ACANSTS
 70
     0
 40
1.0
 41
1.0
 50
0.0
 71
     0
 42
0.2
  3
romans.shx
  4
extfont.shx
  0
STYLE
  5
FD19
330
3
100
AcDbSymbolTableRecord
100
AcDbTextStyleTableRecord
  2
ACANSGDT
 70
     0
 40
0.0
 41
1.0
 50
0.0
 71
     0
 42
0.2
  3
amgdt.shx
  4

  0
ENDTAB
  0
TABLE
  2
VIEW
  5
6
330
0
100
AcDbSymbolTable
 70
     6
  0
VIEW
  5
AE1
330
6
100
AcDbSymbolTableRecord
100
AcDbViewTableRecord
  2
AM_VIEW1
 70
     0
 40
2203.896457765668
 10
5264.599158088851
 20
3198.765197920841
 41
2970.0
 11
0.0
 21
0.0
 31
1.0
 12
0.0
 22
0.0
 32
0.0
 42
50.0
 43
-1370.695619172058
 44
-1370.695619172058
 50
0.0
 71
     0
281
     0
 72
     0
  0
VIEW
  5
AE2
330
6
100
AcDbSymbolTableRecord
100
AcDbViewTableRecord
  2
AM_VIEW2
 70
     0
 40
2203.896457765668
 10
8234.599158088851
 20
3198.765197920841
 41
2970.0
 11
0.0
 21
0.0
 31
1.0
 12
0.0
 22
0.0
 32
0.0
 42
50.0
 43
-1370.695619172058
 44
-1370.695619172058
 50
0.0
 71
     0
281
     0
 72
     0
  0
VIEW
  5
AE3
330
6
100
AcDbSymbolTableRecord
100
AcDbViewTableRecord
  2
AM_VIEW3
 70
     0
 40
2203.896457765668
 10
5264.599158088851
 20
1202.661655686509
 41
2970.0
 11
0.0
 21
0.0
 31
1.0
 12
0.0
 22
0.0
 32
0.0
 42
50.0
 43
-1370.695619172058
 44
-1370.695619172058
 50
0.0
 71
     0
281
     0
 72
     0
  0
VIEW
  5
AE4
330
6
100
AcDbSymbolTableRecord
100
AcDbViewTableRecord
  2
AM_VIEW4
 70
     0
 40
2203.896457765668
 10
8234.599158088851
 20
1202.661655686509
 41
2970.0
 11
0.0
 21
0.0
 31
1.0
 12
0.0
 22
0.0
 32
0.0
 42
50.0
 43
-1370.695619172058
 44
-1370.695619172058
 50
0.0
 71
     0
281
     0
 72
     0
  0
VIEW
  5
AE5
330
6
100
AcDbSymbolTableRecord
100
AcDbViewTableRecord
  2
AM_VIEW5
 70
     0
 40
2203.896457765668
 10
6749.599158088852
 20
2200.713426803675
 41
2970.0
 11
0.0
 21
0.0
 31
1.0
 12
0.0
 22
0.0
 32
0.0
 42
50.0
 43
-1370.695619172058
 44
-1370.695619172058
 50
0.0
 71
     0
281
     0
 72
     0
  0
VIEW
  5
AE6
330
6
100
AcDbSymbolTableRecord
100
AcDbViewTableRecord
  2
AM_VIEW6
 70
     0
 40
4407.748837602181
 10
6749.599158088852
 20
2200.713426803675
 41
5939.9406
 11
0.0
 21
0.0
 31
1.0
 12
0.0
 22
0.0
 32
0.0
 42
50.0
 43
-1370.695619172058
 44
-1370.695619172058
 50
0.0
 71
     0
281
     0
 72
     0
  0
ENDTAB
  0
TABLE
  2
UCS
  5
7
330
0
100
AcDbSymbolTable
 70
     0
  0
ENDTAB
  0
TABLE
  2
APPID
  5
9
330
0
100
AcDbSymbolTable
 70
    67
  0
APPID
  5
12
330
9
100
AcDbSymbolTableRecord
100
AcDbRegAppTableRecord
  2
ACAD
 70
     0
  0
APPID
  5
30
330
9
100
AcDbSymbolTableRecord
100
AcDbRegAppTableRecord
  2
MCAD_NO_VIS
 70
     0
  0
APPID
  5
31
330
9
100
AcDbSymbolTableRecord
100
AcDbRegAppTableRecord
  2
ACAD_TEMP_GRAPHIC
 70
     0
  0
APPID
  5
44
330
9
100
AcDbSymbolTableRecord
100
AcDbRegAppTableRecord
  2
ACATTRIBSERVICES
 70
     0
  0
APPID
  5
7A1
330
9
100
AcDbSymbolTableRecord
100
AcDbRegAppTableRecord
  2
GENIUS_GENDIMSH_14
 70
     0
  0
APPID
  5
A49
330
9
100
AcDbSymbolTableRecord
100
AcDbRegAppTableRecord
  2
GENIUS_GENREC_14
 70
     0
  0
APPID
  5
A4A
330
9
100
AcDbSymbolTableRecord
100
AcDbRegAppTableRecord
  2
GENIUS_GENOBJ-N-REC_13
 70
     0
  0
APPID
  5
A4B
330
9
100
AcDbSymbolTableRecord
100
AcDbRegAppTableRecord
  2
GENIUS_GENODEF_13
 70
     0
  0
APPID
  5
A4C
330
9
100
AcDbSymbolTableRecord
100
AcDbRegAppTableRecord
  2
DCO15
 70
     0
  0
APPID
  5
ADC
330
9
100
AcDbSymbolTableRecord
100
AcDbRegAppTableRecord
  2
GENIUS_GENOLIS_13
 70
     0
  0
APPID
  5
ADD
330
9
100
AcDbSymbolTableRecord
100
AcDbRegAppTableRecord
  2
GENIUS_GENOENT_13
 70
     0
  0
APPID
  5
ADE
330
9
100
AcDbSymbolTableRecord
100
AcDbRegAppTableRecord
  2
GENIUS_GENOBJ-N-TIT_13
 70
     0
  0
APPID
  5
ADF
330
9
100
AcDbSymbolTableRecord
100
AcDbRegAppTableRecord
  2
GENIUS_GENTITLE_13
 70
     0
  0
APPID
  5
AE0
330
9
100
AcDbSymbolTableRecord
100
AcDbRegAppTableRecord
  2
GENIUS_GENOREF_13
 70
     0
  0
APPID
  5
AE7
330
9
100
AcDbSymbolTableRecord
100
AcDbRegAppTableRecord
  2
GENIUS_GENSCREG_15
 70
     0
  0
APPID
  5
AE8
330
9
100
AcDbSymbolTableRecord
100
AcDbRegAppTableRecord
  2
GENIUS_GENOBJ-N-SDF_13
 70
     0
  0
APPID
  5
FAF
330
9
100
AcDbSymbolTableRecord
100
AcDbRegAppTableRecord
  2
GENIUS_GENBLLY_14
 70
     0
  0
APPID
  5
FB0
330
9
100
AcDbSymbolTableRecord
100
AcDbRegAppTableRecord
  2
GENIUS_GENTRA_14
 70
     0
  0
APPID
  5
1285
330
9
100
AcDbSymbolTableRecord
100
AcDbRegAppTableRecord
  2
GENIUS_GENDTOL_13
 70
     0
  0
APPID
  5
142D
330
9
100
AcDbSymbolTableRecord
100
AcDbRegAppTableRecord
  2
GENIUS_GENOBJ-N-CEN_13
 70
     0
  0
APPID
  5
1AB5
330
9
100
AcDbSymbolTableRecord
100
AcDbRegAppTableRecord
  2
GENIUS_GENOBJ-N-CRS_13
 70
     0
  0
APPID
  5
1B36
330
9
100
AcDbSymbolTableRecord
100
AcDbRegAppTableRecord
  2
GENIUS_GENOBJ-N-HTC_13
 70
     0
  0
APPID
  5
1B37
330
9
100
AcDbSymbolTableRecord
100
AcDbRegAppTableRecord
  2
GENIUS_GENHATCH_13
 70
     0
  0
APPID
  5
216D
330
9
100
AcDbSymbolTableRecord
100
AcDbRegAppTableRecord
  2
GENIUS_GENOBJ-N-FIL_13
 70
     0
  0
APPID
  5
2356
330
9
100
AcDbSymbolTableRecord
100
AcDbRegAppTableRecord
  2
GEVID990412420
 70
     0
  0
APPID
  5
2357
330
9
100
AcDbSymbolTableRecord
100
AcDbRegAppTableRecord
  2
GEVDC
 70
     0
  0
APPID
  5
2358
330
9
100
AcDbSymbolTableRecord
100
AcDbRegAppTableRecord
  2
GEVCON
 70
     0
  0
APPID
  5
235B
330
9
100
AcDbSymbolTableRecord
100
AcDbRegAppTableRecord
  2
GEVRADREF
 70
     0
  0
APPID
  5
2360
330
9
100
AcDbSymbolTableRecord
100
AcDbRegAppTableRecord
  2
GENIUS_GENBH_13
 70
     0
  0
APPID
  5
2362
330
9
100
AcDbSymbolTableRecord
100
AcDbRegAppTableRecord
  2
GENIUS_GENOBJ-NBEHI-BHF_13
 70
     0
  0
APPID
  5
2364
330
9
100
AcDbSymbolTableRecord
100
AcDbRegAppTableRecord
  2
GENIUS_GENOBJ-NBEHI-BHB_13
 70
     0
  0
APPID
  5
2379
330
9
100
AcDbSymbolTableRecord
100
AcDbRegAppTableRecord
  2
GENIUS_GENOBJ-F-SCPASSM_13
 70
     0
  0
APPID
  5
3D74
330
9
100
AcDbSymbolTableRecord
100
AcDbRegAppTableRecord
  2
GENIUS_GENDIM_13
 70
     0
  0
APPID
  5
3D76
330
9
100
AcDbSymbolTableRecord
100
AcDbRegAppTableRecord
  2
GENIUS_GE3DTOL_13
 70
     0
  0
APPID
  5
3D9C
330
9
100
AcDbSymbolTableRecord
100
AcDbRegAppTableRecord
  2
AD_DRAW
 70
     0
  0
APPID
  5
3DE8
330
9
100
AcDbSymbolTableRecord
100
AcDbRegAppTableRecord
  2
ASURF_PCURVE_APPNAME
 70
     0
  0
APPID
  5
3DED
330
9
100
AcDbSymbolTableRecord
100
AcDbRegAppTableRecord
  2
AMG_3D2D_5.0
 70
     0
  0
APPID
  5
3E1B
330
9
100
AcDbSymbolTableRecord
100
AcDbRegAppTableRecord
  2
DESIGNERASSEMBLIES
 70
     0
  0
APPID
  5
3E20
330
9
100
AcDbSymbolTableRecord
100
AcDbRegAppTableRecord
  2
ACADM_DIM_EDIT
 70
     0
  0
APPID
  5
3E21
330
9
100
AcDbSymbolTableRecord
100
AcDbRegAppTableRecord
  2
AMDT_DM_ADJ
 70
     0
  0
APPID
  5
4143
330
9
100
AcDbSymbolTableRecord
100
AcDbRegAppTableRecord
  2
GENIUS_GENFIL_13
 70
     0
  0
APPID
  5
4144
330
9
100
AcDbSymbolTableRecord
100
AcDbRegAppTableRecord
  2
GENIUS_GENOBJ-N-CHA_13
 70
     0
  0
APPID
  5
4E17
330
9
100
AcDbSymbolTableRecord
100
AcDbRegAppTableRecord
  2
GEVID1008153417
 70
     0
  0
APPID
  5
4E58
330
9
100
AcDbSymbolTableRecord
100
AcDbRegAppTableRecord
  2
GEVID1008153418
 70
     0
  0
APPID
  5
4E5E
330
9
100
AcDbSymbolTableRecord
100
AcDbRegAppTableRecord
  2
GEVID1008153419
 70
     0
  0
APPID
  5
4E64
330
9
100
AcDbSymbolTableRecord
100
AcDbRegAppTableRecord
  2
GEVID1008153420
 70
     0
  0
APPID
  5
4E75
330
9
100
AcDbSymbolTableRecord
100
AcDbRegAppTableRecord
  2
GEVID1008153421
 70
     0
  0
APPID
  5
4EB7
330
9
100
AcDbSymbolTableRecord
100
AcDbRegAppTableRecord
  2
GENIUS_AMGTXT_16
 70
     0
  0
APPID
  5
7645
330
9
100
AcDbSymbolTableRecord
100
AcDbRegAppTableRecord
  2
GENIUS_GENOBJ-N-DIM_13
 70
     0
  0
APPID
  5
AAD0
330
9
100
AcDbSymbolTableRecord
100
AcDbRegAppTableRecord
  2
ACAD_DSTYLE_DIMARC_LENGTH_SYMBOL
 70
     0
  0
APPID
  5
AAD1
330
9
100
AcDbSymbolTableRecord
100
AcDbRegAppTableRecord
  2
ACAD_DSTYLE_DIMJOGGED_JOGANGLE_SYMBOL
 70
     0
  0
APPID
  5
AAFD
330
9
100
AcDbSymbolTableRecord
100
AcDbRegAppTableRecord
  2
ACAD_PSEXT
 70
     0
  0
APPID
  5
AD61
330
9
100
AcDbSymbolTableRecord
100
AcDbRegAppTableRecord
  2
AcAecLayerStandard
 70
     0
  0
APPID
  5
AEE3
330
9
100
AcDbSymbolTableRecord
100
AcDbRegAppTableRecord
  2
ACAD_EXEMPT_FROM_CAD_STANDARDS
 70
     0
  0
APPID
  5
B1BE
330
9
100
AcDbSymbolTableRecord
100
AcDbRegAppTableRecord
  2
GENIUS_GENCEN_19
 70
     0
  0
APPID
  5
B4E1
330
9
100
AcDbSymbolTableRecord
100
AcDbRegAppTableRecord
  2
ACAD_MLEADERVER
 70
     0
  0
APPID
  5
C488
330
9
100
AcDbSymbolTableRecord
100
AcDbRegAppTableRecord
  2
ACAD_DSTYLE_DIMINSPECT
 70
     0
  0
APPID
  5
C489
330
9
100
AcDbSymbolTableRecord
100
AcDbRegAppTableRecord
  2
ACAD_DSTYLE_DIMRADIAL_EXTENSION
 70
     0
  0
APPID
  5
1980E
330
9
100
AcDbSymbolTableRecord
100
AcDbRegAppTableRecord
  2
GEVID1311583542
 70
     0
  0
APPID
  5
19825
330
9
100
AcDbSymbolTableRecord
100
AcDbRegAppTableRecord
  2
AMG_2DHIDE
 70
     0
  0
APPID
  5
19826
330
9
100
AcDbSymbolTableRecord
100
AcDbRegAppTableRecord
  2
AMG_2DSTRUCT_BTR
 70
     0
  0
APPID
  5
19837
330
9
100
AcDbSymbolTableRecord
100
AcDbRegAppTableRecord
  2
ACADM_2DVIEW_IGN_NOTIFY
 70
     0
  0
APPID
  5
1B56B
330
9
100
AcDbSymbolTableRecord
100
AcDbRegAppTableRecord
  2
GEVID1311583543
 70
     0
  0
APPID
  5
1B5F6
330
9
100
AcDbSymbolTableRecord
100
AcDbRegAppTableRecord
  2
GEVID1311583544
 70
     0
  0
APPID
  5
1B61B
330
9
100
AcDbSymbolTableRecord
100
AcDbRegAppTableRecord
  2
GEVID1311583545
 70
     0
  0
APPID
  5
1B63D
330
9
100
AcDbSymbolTableRecord
100
AcDbRegAppTableRecord
  2
GEVID1311583546
 70
     0
  0
APPID
  5
1B675
330
9
100
AcDbSymbolTableRecord
100
AcDbRegAppTableRecord
  2
GEVID1311583547
 70
     0
  0
ENDTAB
  0
TABLE
  2
DIMSTYLE
  5
A
330
0
100
AcDbSymbolTable
 70
    25
100
AcDbDimStyleTable
 71
     3
340
2515
340
251A
340
251B
  0
DIMSTYLE
105
A76
330
A
100
AcDbSymbolTableRecord
100
AcDbDimStyleTableRecord
  2
STANDARD
 70
     0
 41
3.0
 42
1.0
 43
7.0
 44
2.0
 73
     0
 74
     0
 77
     1
140
2.799999999999999
141
0.0
143
0.0394
147
0.7
171
     4
172
     1
173
     1
176
     3
177
     3
178
     2
271
     3
272
     3
273
     8
274
     4
289
     0
340
A74
341
A66
343
A66
344
A66
  0
DIMSTYLE
105
2515
330
A
100
AcDbSymbolTableRecord
100
AcDbDimStyleTableRecord
  2
SYS
 70
     0
  4
"
 41
1.0
 42
1.0
 43
10.0
 44
1.0
 47
0.1
 48
0.1
 73
     0
 74
     0
 77
     1
 78
     8
 79
     2
140
3.5
141
0.0
143
0.0393701
146
0.71
147
1.5
172
     1
176
   256
177
   256
178
     7
271
     2
272
     2
283
     0
284
     8
340
11
371
    -1
372
    -1
1001
ACAD_DSTYLE_DIMJOGGED_JOGANGLE_SYMBOL
1070
   384
1040
0.7853981633974483
1001
ACAD_DSTYLE_DIMARC_LENGTH_SYMBOL
1070
   379
1070
     1
  0
DIMSTYLE
105
2516
102
{ACAD_REACTORS
330
571B0
330
571C9
330
59CF5
102
}
330
A
100
AcDbSymbolTableRecord
100
AcDbDimStyleTableRecord
  2
SYS$3
 70
     0
  4
"
 41
2.0
 42
1.0
 43
10.0
 44
1.0
 47
0.1
 48
0.1
 73
     0
 77
     1
 78
     8
 79
     2
140
3.2
141
0.0
143
0.0393701
146
0.71
147
1.0
176
   256
177
   256
178
     2
271
     2
272
     2
283
     0
284
     8
288
     1
340
11
342
A66
371
    -1
372
    -1
1001
ACAD_DSTYLE_DIMJOGGED_JOGANGLE_SYMBOL
1070
   384
1040
0.7853981633974483
1001
ACAD_DSTYLE_DIMARC_LENGTH_SYMBOL
1070
   379
1070
     1
  0
DIMSTYLE
105
2517
330
A
100
AcDbSymbolTableRecord
100
AcDbDimStyleTableRecord
  2
SYS$4
 70
     0
  4
"
 41
2.0
 42
1.0
 43
10.0
 44
1.0
 47
0.1
 48
0.1
 73
     0
 77
     1
 78
     8
 79
     2
140
3.2
141
0.0
143
0.0393701
146
0.71
147
1.0
173
     1
176
   256
177
   256
178
     2
271
     2
272
     2
283
     0
284
     8
288
     1
340
11
344
A66
371
    -1
372
    -1
1001
ACAD_DSTYLE_DIMJOGGED_JOGANGLE_SYMBOL
1070
   384
1040
0.7853981633974483
1001
ACAD_DSTYLE_DIMARC_LENGTH_SYMBOL
1070
   379
1070
     1
  0
DIMSTYLE
105
2518
330
A
100
AcDbSymbolTableRecord
100
AcDbDimStyleTableRecord
  2
SYS$6
 70
     0
  4
"
 41
2.0
 42
1.0
 43
10.0
 44
1.0
 47
0.1
 48
0.1
 73
     0
 74
     0
 78
     8
 79
     2
140
3.2
141
0.0
143
0.0393701
146
0.71
147
1.0
172
     1
176
   256
177
   256
178
     2
271
     2
272
     2
283
     0
284
     8
340
11
341
A66
371
    -1
372
    -1
1001
ACAD_DSTYLE_DIMJOGGED_JOGANGLE_SYMBOL
1070
   384
1040
0.7853981633974483
1001
ACAD_DSTYLE_DIMARC_LENGTH_SYMBOL
1070
   379
1070
     1
  0
DIMSTYLE
105
2519
330
A
100
AcDbSymbolTableRecord
100
AcDbDimStyleTableRecord
  2
SYS$7
 70
     0
  4
"
 41
2.0
 42
1.0
 43
10.0
 44
1.0
 47
0.1
 48
0.1
 73
     0
 74
     0
 77
     1
 78
     8
 79
     2
140
3.2
141
0.0
143
0.0393701
146
0.71
147
1.0
172
     1
176
   256
177
   256
178
     2
271
     2
272
     2
283
     0
284
     8
340
11
341
A66
342
A66
371
    -1
372
    -1
1001
ACAD_DSTYLE_DIMJOGGED_JOGANGLE_SYMBOL
1070
   384
1040
0.7853981633974483
1001
ACAD_DSTYLE_DIMARC_LENGTH_SYMBOL
1070
   379
1070
     1
  0
DIMSTYLE
105
251A
330
A
100
AcDbSymbolTableRecord
100
AcDbDimStyleTableRecord
  2
SYS$SF
 70
     0
  4
"
 41
2.5
 42
1.0
 43
10.0
 44
1.0
 47
0.1
 48
0.1
 73
     0
 74
     0
 75
     1
 76
     1
 77
     1
 78
     8
 79
     2
140
3.2
141
0.0
143
0.0393701
146
0.71
147
1.0
172
     1
176
   256
177
   256
178
     2
271
     2
272
     2
283
     0
284
     8
340
11
341
6C4
342
6C4
371
    -1
372
    -1
1001
ACAD_DSTYLE_DIMJOGGED_JOGANGLE_SYMBOL
1070
   384
1040
0.7853981633974483
1001
ACAD_DSTYLE_DIMARC_LENGTH_SYMBOL
1070
   379
1070
     1
  0
DIMSTYLE
105
251B
330
A
100
AcDbSymbolTableRecord
100
AcDbDimStyleTableRecord
  2
SYS$SH
 70
     0
  4
"
 41
2.5
 42
1.0
 43
10.0
 44
1.0
 47
0.1
 48
0.1
 73
     0
 74
     0
 75
     1
 76
     1
 77
     1
 78
     8
 79
     2
140
3.2
141
0.0
143
0.0393701
144
2.0
146
0.71
147
1.0
172
     1
173
     1
176
   256
177
   256
178
     2
271
     2
272
     2
283
     0
284
     8
340
11
341
6C4
343
72
344
6C4
371
    -1
372
    -1
1001
ACAD_DSTYLE_DIMJOGGED_JOGANGLE_SYMBOL
1070
   384
1040
0.7853981633974483
1001
ACAD_DSTYLE_DIMARC_LENGTH_SYMBOL
1070
   379
1070
     1
  0
DIMSTYLE
105
2A59
330
A
100
AcDbSymbolTableRecord
100
AcDbDimStyleTableRecord
  2
SYS$2
 70
     0
  4
"
 41
1.0
 42
1.0
 43
10.0
 44
1.0
 47
0.1
 48
0.1
 73
     0
 74
     0
 77
     1
 78
     8
 79
     2
140
3.2
141
0.0
143
0.0393701
146
0.71
147
1.0
172
     1
176
   256
177
   256
178
     2
271
     2
272
     2
283
     0
284
     8
340
11
342
6C4
371
    -1
372
    -1
1001
ACAD_DSTYLE_DIMJOGGED_JOGANGLE_SYMBOL
1070
   384
1040
0.7853981633974483
1001
ACAD_DSTYLE_DIMARC_LENGTH_SYMBOL
1070
   379
1070
     1
  0
DIMSTYLE
105
2AAB
102
{ACAD_REACTORS
330
56A5E
330
56A5F
330
56B57
330
56B9A
330
56BCB
330
56EF3
330
56EF4
330
56EF5
330
56EF6
330
57038
330
5708B
330
570A5
330
57177
330
57064
330
5704E
102
}
330
A
100
AcDbSymbolTableRecord
100
AcDbDimStyleTableRecord
  2
SYS$0
 70
     0
  4
"
 41
1.0
 42
1.0
 43
10.0
 44
1.0
 47
0.1
 48
0.1
 73
     0
 74
     0
 77
     1
 78
     8
 79
     2
140
3.200000000000001
141
0.0
143
0.0393701
146
0.71
147
1.0
172
     1
176
   256
177
   256
178
     2
271
     2
272
     2
283
     0
284
     8
340
11
341
A66
342
6C4
371
    -1
372
    -1
1001
ACAD_DSTYLE_DIMJOGGED_JOGANGLE_SYMBOL
1070
   384
1040
0.7853981633974483
1001
ACAD_DSTYLE_DIMARC_LENGTH_SYMBOL
1070
   379
1070
     1
  0
DIMSTYLE
105
AF99
330
A
100
AcDbSymbolTableRecord
100
AcDbDimStyleTableRecord
  2
AM_ISO
 70
     0
  4
"
 41
2.5
 42
1.0
 43
10.0
 44
1.0
 47
0.1
 48
0.1
 73
     0
 74
     0
 77
     1
 78
     8
 79
     2
140
3.5
141
0.0
143
0.0393701
146
0.71
147
1.5
172
     1
176
   256
177
   256
178
     2
271
     2
272
     3
274
     4
283
     0
284
     8
340
11
371
    -1
372
    -1
  0
DIMSTYLE
105
AF9A
330
A
100
AcDbSymbolTableRecord
100
AcDbDimStyleTableRecord
  2
AM_ISO$3
 70
     0
  4
"
 41
2.5
 42
1.0
 43
10.0
 44
1.0
 47
0.1
 48
0.1
 73
     0
 77
     1
 78
     8
 79
     2
140
3.5
141
0.0
143
0.0393701
146
0.71
147
1.5
176
   256
177
   256
178
     2
271
     2
272
     3
274
     4
283
     0
284
     8
288
     1
289
     0
340
11
371
    -1
372
    -1
  0
DIMSTYLE
105
AF9B
330
A
100
AcDbSymbolTableRecord
100
AcDbDimStyleTableRecord
  2
AM_ISO$4
 70
     0
  4
"
 41
2.5
 42
1.0
 43
10.0
 44
1.0
 47
0.1
 48
0.1
 73
     0
 77
     1
 78
     8
 79
     2
140
3.5
141
0.0
143
0.0393701
146
0.71
147
1.5
176
   256
177
   256
178
     2
271
     2
272
     3
274
     4
283
     0
284
     8
288
     1
289
     0
340
11
371
    -1
372
    -1
  0
DIMSTYLE
105
AF9C
330
A
100
AcDbSymbolTableRecord
100
AcDbDimStyleTableRecord
  2
AM_ISO$6
 70
     0
  4
"
 41
2.5
 42
1.0
 43
10.0
 44
1.0
 47
0.1
 48
0.1
 73
     0
 74
     0
 78
     8
 79
     2
140
3.5
141
0.0
143
0.0393701
146
0.71
147
1.5
172
     1
176
   256
177
   256
178
     2
271
     2
272
     3
274
     4
283
     0
284
     8
340
11
371
    -1
372
    -1
  0
DIMSTYLE
105
AF9D
330
A
100
AcDbSymbolTableRecord
100
AcDbDimStyleTableRecord
  2
AM_ISO$7
 70
     0
  4
"
 41
2.5
 42
1.0
 43
10.0
 44
1.0
 47
0.1
 48
0.1
 73
     0
 74
     0
 77
     1
 78
     8
 79
     2
140
5.0
141
0.0
143
0.0393701
146
0.71
147
1.5
172
     1
176
   256
177
   256
178
     2
271
     2
272
     3
274
     4
283
     0
284
     8
340
11
371
    -1
372
    -1
  0
DIMSTYLE
105
AF9E
330
A
100
AcDbSymbolTableRecord
100
AcDbDimStyleTableRecord
  2
AM_ISO$SF
 70
     0
  4
"
 41
2.5
 42
1.0
 43
10.0
 44
1.0
 47
0.1
 48
0.1
 73
     0
 74
     0
 75
     1
 76
     1
 77
     1
 78
     8
 79
     2
140
3.5
141
0.0
143
0.0393701
146
0.71
147
1.5
172
     1
176
   256
177
   256
178
     2
271
     2
272
     3
274
     4
283
     0
284
     8
340
11
371
    -1
372
    -1
  0
DIMSTYLE
105
AF9F
330
A
100
AcDbSymbolTableRecord
100
AcDbDimStyleTableRecord
  2
AM_ISO$SH
 70
     0
  4
"
 41
2.5
 42
1.0
 43
10.0
 44
1.0
 47
0.1
 48
0.1
 73
     0
 74
     0
 75
     1
 76
     1
 77
     1
 78
     8
 79
     2
140
3.5
141
0.0
143
0.0393701
144
2.0
146
0.71
147
1.5
172
     1
173
     1
176
   256
177
   256
178
     2
271
     2
272
     3
274
     4
283
     0
284
     8
340
11
343
72
371
    -1
372
    -1
  0
DIMSTYLE
105
B60C
330
A
100
AcDbSymbolTableRecord
100
AcDbDimStyleTableRecord
  2
AM_ANSI
 70
     0
  4
mm
 41
0.1
 42
0.05
 43
0.5
 44
0.1
 47
0.1
 48
0.1
 78
     7
 79
     2
140
0.12
141
0.0
146
0.71
147
0.06
176
   256
177
   256
178
     2
274
     4
284
     7
340
11
371
    -1
372
    -1
  0
DIMSTYLE
105
C485
330
A
100
AcDbSymbolTableRecord
100
AcDbDimStyleTableRecord
  2
AM_ISO$0
 70
     0
  4
"
 41
0.8
 42
1.0
 43
10.0
 44
1.0
 47
0.1
 48
0.1
 73
     0
 74
     0
 77
     1
 78
     8
 79
     2
140
3.2
141
0.0
143
0.0393701
146
0.71
147
0.9999999999999996
172
     1
176
   256
177
   256
178
     2
271
     2
272
     2
283
     0
284
     8
340
11
341
6C4
342
6C4
371
    -1
372
    -1
1001
ACAD_DSTYLE_DIMJOGGED_JOGANGLE_SYMBOL
1070
   384
1040
0.7853981633974483
1001
ACAD_DSTYLE_DIMARC_LENGTH_SYMBOL
1070
   379
1070
     1
  0
DIMSTYLE
105
C486
330
A
100
AcDbSymbolTableRecord
100
AcDbDimStyleTableRecord
  2
AM_ISO$2
 70
     0
  4
"
 41
0.8
 42
1.0
 43
10.0
 44
1.0
 47
0.1
 48
0.1
 73
     0
 74
     0
 77
     3
 78
     8
 79
     2
140
3.200000000000001
141
0.0
143
0.0393701
146
0.71
147
0.9999999999999996
172
     1
176
   256
177
   256
178
     2
271
     2
272
     2
283
     0
284
     8
340
11
342
6C4
371
    -1
372
    -1
1001
ACAD_DSTYLE_DIMJOGGED_JOGANGLE_SYMBOL
1070
   384
1040
0.7853981633974483
1001
ACAD_DSTYLE_DIMARC_LENGTH_SYMBOL
1070
   379
1070
     1
  0
DIMSTYLE
105
FD1A
330
A
100
AcDbSymbolTableRecord
100
AcDbDimStyleTableRecord
  2
AM_ANSI$3
 70
     0
  4
mm
 41
0.1
 42
0.05
 43
0.5
 44
0.1
 47
0.1
 48
0.1
 78
     7
 79
     2
140
0.12
141
0.0
146
0.71
147
0.06
176
   256
177
   256
178
     2
274
     4
284
     7
288
     1
289
     0
340
11
371
    -1
372
    -1
1001
ACAD_DSTYLE_DIMARC_LENGTH_SYMBOL
1070
   379
1070
     1
  0
DIMSTYLE
105
FD1B
330
A
100
AcDbSymbolTableRecord
100
AcDbDimStyleTableRecord
  2
AM_ANSI$4
 70
     0
  4
mm
 41
0.1
 42
0.05
 43
0.5
 44
0.1
 47
0.1
 48
0.1
 78
     7
 79
     2
140
0.12
141
0.0
146
0.71
147
0.06
176
   256
177
   256
178
     2
274
     4
284
     7
288
     1
289
     0
340
11
371
    -1
372
    -1
1001
ACAD_DSTYLE_DIMARC_LENGTH_SYMBOL
1070
   379
1070
     1
  0
DIMSTYLE
105
FD1C
330
A
100
AcDbSymbolTableRecord
100
AcDbDimStyleTableRecord
  2
AM_ANSI$7
 70
     0
  4
mm
 41
0.1
 42
0.05
 43
0.5
 44
0.1
 47
0.1
 48
0.1
 78
     7
 79
     2
140
0.24
141
0.0
146
0.71
147
0.06
176
   256
177
   256
178
     2
274
     4
284
     7
340
11
371
    -1
372
    -1
1001
ACAD_DSTYLE_DIMARC_LENGTH_SYMBOL
1070
   379
1070
     1
  0
DIMSTYLE
105
FD1D
330
A
100
AcDbSymbolTableRecord
100
AcDbDimStyleTableRecord
  2
AM_ANSI$SF
 70
     0
  4
mm
 41
0.1
 42
0.05
 43
0.5
 44
0.1
 47
0.1
 48
0.1
 75
     1
 76
     1
 78
     7
 79
     2
140
0.12
141
0.0
146
0.71
147
0.06
176
   256
177
   256
178
     2
274
     4
284
     7
340
11
371
    -1
372
    -1
1001
ACAD_DSTYLE_DIMARC_LENGTH_SYMBOL
1070
   379
1070
     1
  0
DIMSTYLE
105
FD1E
330
A
100
AcDbSymbolTableRecord
100
AcDbDimStyleTableRecord
  2
AM_ANSI$SH
 70
     0
  4
mm
 41
0.1
 42
0.05
 43
0.5
 44
0.1
 47
0.1
 48
0.1
 75
     1
 76
     1
 78
     7
 79
     2
140
0.12
141
0.0
146
0.71
147
0.06
173
     1
176
   256
177
   256
178
     2
274
     4
284
     7
340
11
343
72
371
    -1
372
    -1
1001
ACAD_DSTYLE_DIMARC_LENGTH_SYMBOL
1070
   379
1070
     1
  0
ENDTAB
  0
TABLE
  2
BLOCK_RECORD
  5
1
330
0
100
AcDbSymbolTable
 70
    25
  0
BLOCK_RECORD
  5
1F
102
{ACAD_XDICTIONARY
360
8A
102
}
330
1
100
AcDbSymbolTableRecord
100
AcDbBlockTableRecord
  2
*Model_Space
340
22
  0
BLOCK_RECORD
  5
1B
330
1
100
AcDbSymbolTableRecord
100
AcDbBlockTableRecord
  2
*Paper_Space
340
1E
  0
BLOCK_RECORD
  5
23
330
1
100
AcDbSymbolTableRecord
100
AcDbBlockTableRecord
  2
*Paper_Space0
340
26
  0
BLOCK_RECORD
  5
72
330
1
100
AcDbSymbolTableRecord
100
AcDbBlockTableRecord
  2
GENAXEH
340
0
  0
BLOCK_RECORD
  5
6C4
330
1
100
AcDbSymbolTableRecord
100
AcDbBlockTableRecord
  2
_Dot
340
0
102
{BLKREFS
331
573D8
331
573D9
331
573E1
331
573E2
331
573EA
331
573EB
331
573F3
331
573F4
331
573FC
331
573FD
331
57405
331
57406
331
5740E
331
5740F
331
57417
331
57418
331
5743D
331
5743E
331
57448
331
57449
331
57451
331
57452
331
5745C
331
5745D
331
57465
331
57466
331
5B475
331
5B476
331
5B495
331
5B496
331
5B4ED
331
5B4EE
331
5B77D
331
5B77E
331
5B786
331
5B787
102
}
  0
BLOCK_RECORD
  5
A66
330
1
100
AcDbSymbolTableRecord
100
AcDbBlockTableRecord
  2
_OPEN30
340
0
  0
BLOCK_RECORD
  5
56A60
330
1
100
AcDbSymbolTableRecord
100
AcDbBlockTableRecord
  2
*D7
340
0
  0
BLOCK_RECORD
  5
56A6C
330
1
100
AcDbSymbolTableRecord
100
AcDbBlockTableRecord
  2
*D8
340
0
  0
BLOCK_RECORD
  5
56B58
330
1
100
AcDbSymbolTableRecord
100
AcDbBlockTableRecord
  2
*D9
340
0
  0
BLOCK_RECORD
  5
56B9B
330
1
100
AcDbSymbolTableRecord
100
AcDbBlockTableRecord
  2
*D10
340
0
  0
BLOCK_RECORD
  5
56BCC
330
1
100
AcDbSymbolTableRecord
100
AcDbBlockTableRecord
  2
*D11
340
0
  0
BLOCK_RECORD
  5
56EF7
330
1
100
AcDbSymbolTableRecord
100
AcDbBlockTableRecord
  2
*D12
340
0
  0
BLOCK_RECORD
  5
56F03
330
1
100
AcDbSymbolTableRecord
100
AcDbBlockTableRecord
  2
*D13
340
0
  0
BLOCK_RECORD
  5
56F0F
330
1
100
AcDbSymbolTableRecord
100
AcDbBlockTableRecord
  2
*D14
340
0
  0
BLOCK_RECORD
  5
56F1B
330
1
100
AcDbSymbolTableRecord
100
AcDbBlockTableRecord
  2
*D15
340
0
  0
BLOCK_RECORD
  5
57039
330
1
100
AcDbSymbolTableRecord
100
AcDbBlockTableRecord
  2
*D16
340
0
  0
BLOCK_RECORD
  5
5704F
330
1
100
AcDbSymbolTableRecord
100
AcDbBlockTableRecord
  2
*D17
340
0
  0
BLOCK_RECORD
  5
57065
330
1
100
AcDbSymbolTableRecord
100
AcDbBlockTableRecord
  2
*D18
340
0
  0
BLOCK_RECORD
  5
5708C
330
1
100
AcDbSymbolTableRecord
100
AcDbBlockTableRecord
  2
*D19
340
0
  0
BLOCK_RECORD
  5
570A6
330
1
100
AcDbSymbolTableRecord
100
AcDbBlockTableRecord
  2
*D20
340
0
  0
BLOCK_RECORD
  5
57178
330
1
100
AcDbSymbolTableRecord
100
AcDbBlockTableRecord
  2
*D21
340
0
  0
BLOCK_RECORD
  5
571B1
330
1
100
AcDbSymbolTableRecord
100
AcDbBlockTableRecord
  2
*D22
340
0
  0
BLOCK_RECORD
  5
571CA
330
1
100
AcDbSymbolTableRecord
100
AcDbBlockTableRecord
  2
*D23
340
0
  0
BLOCK_RECORD
  5
59CF6
330
1
100
AcDbSymbolTableRecord
100
AcDbBlockTableRecord
  2
*D24
340
0
  0
ENDTAB
  0
ENDSEC
  0
SECTION
  2
BLOCKS
  0
BLOCK
  5
20
330
1F
100
AcDbEntity
  8
0
100
AcDbBlockBegin
  2
*Model_Space
 70
     0
 10
0.0
 20
0.0
 30
0.0
  3
*Model_Space
  1

  0
ENDBLK
  5
21
330
1F
100
AcDbEntity
  8
0
100
AcDbBlockEnd
  0
BLOCK
  5
1C
330
1B
100
AcDbEntity
 67
     1
  8
0
100
AcDbBlockBegin
  2
*Paper_Space
 70
     0
 10
0.0
 20
0.0
 30
0.0
  3
*Paper_Space
  1

  0
ENDBLK
  5
1D
330
1B
100
AcDbEntity
 67
     1
  8
0
100
AcDbBlockEnd
  0
BLOCK
  5
24
330
23
100
AcDbEntity
 67
     1
  8
0
100
AcDbBlockBegin
  2
*Paper_Space0
 70
     0
 10
0.0
 20
0.0
 30
0.0
  3
*Paper_Space0
  1

  0
ENDBLK
  5
25
330
23
100
AcDbEntity
 67
     1
  8
0
100
AcDbBlockEnd
  0
BLOCK
  5
74
330
72
100
AcDbEntity
  8
0
100
AcDbBlockBegin
  2
GENAXEH
 70
     0
 10
0.0
 20
0.0
 30
0.0
  3
GENAXEH
  1

  0
LINE
  5
73
330
72
100
AcDbEntity
  8
0
100
AcDbLine
 10
-1.0
 20
0.0
 30
0.0
 11
1.0
 21
0.0
 31
0.0
  0
ENDBLK
  5
75
330
72
100
AcDbEntity
  8
0
100
AcDbBlockEnd
  0
BLOCK
  5
6C7
330
6C4
100
AcDbEntity
  8
0
100
AcDbBlockBegin
  2
_Dot
 70
     0
 10
0.0
 20
0.0
 30
0.0
  3
_Dot
  1

  0
LWPOLYLINE
  5
6C5
330
6C4
100
AcDbEntity
  8
0
  6
ByBlock
 62
     0
100
AcDbPolyline
 90
        2
 70
     1
 43
0.5
 10
-0.25
 20
0.0
 42
1.0
 10
0.25
 20
0.0
 42
1.0
  0
LINE
  5
6C6
330
6C4
100
AcDbEntity
  8
0
  6
ByBlock
 62
     0
370
    -2
100
AcDbLine
 10
-0.5
 20
0.0
 30
0.0
 11
-1.0
 21
0.0
 31
0.0
  0
ENDBLK
  5
6C8
330
6C4
100
AcDbEntity
  8
0
100
AcDbBlockEnd
  0
BLOCK
  5
A6A
330
A66
100
AcDbEntity
  8
0
100
AcDbBlockBegin
  2
_OPEN30
 70
     0
 10
0.0
 20
0.0
 30
0.0
  3
_OPEN30
  1

  0
LINE
  5
A67
330
A66
100
AcDbEntity
  8
0
  6
ByBlock
 62
     0
100
AcDbLine
 10
-1.0
 20
0.26794919
 30
0.0
 11
0.0
 21
0.0
 31
0.0
  0
LINE
  5
A68
330
A66
100
AcDbEntity
  8
0
  6
ByBlock
 62
     0
100
AcDbLine
 10
0.0
 20
0.0
 30
0.0
 11
-1.0
 21
-0.26794919
 31
0.0
  0
LINE
  5
A69
330
A66
100
AcDbEntity
  8
0
  6
ByBlock
 62
     0
100
AcDbLine
 10
0.0
 20
0.0
 30
0.0
 11
-1.0
 21
0.0
 31
0.0
  0
ENDBLK
  5
A6B
330
A66
100
AcDbEntity
  8
0
100
AcDbBlockEnd
  0
BLOCK
  5
56A6A
330
56A60
100
AcDbEntity
  8
0
100
AcDbBlockBegin
  2
*D7
 70
     1
 10
0.0
 20
0.0
 30
0.0
  3
*D7
  1

  0
LINE
  5
5B4EA
330
56A60
100
AcDbEntity
  8
AM_5
100
AcDbLine
 10
6284.907440538913
 20
-6554.991732114891
 30
0.0
 11
6354.781429876359
 21
-6554.991732114891
 31
0.0
  0
LINE
  5
5B4EB
330
56A60
100
AcDbEntity
  8
AM_5
100
AcDbLine
 10
6284.907440538913
 20
-6507.49173211489
 30
0.0
 11
6354.781429876359
 21
-6507.49173211489
 31
0.0
  0
LINE
  5
5B4EC
330
56A60
100
AcDbEntity
  8
AM_5
100
AcDbLine
 10
6353.781429876359
 20
-6553.991732114891
 30
0.0
 11
6353.781429876359
 21
-6508.49173211489
 31
0.0
  0
INSERT
  5
5B4ED
330
56A60
100
AcDbEntity
  8
AM_5
100
AcDbBlockReference
  2
_Dot
 10
6353.781429876359
 20
-6554.991732114891
 30
0.0
 50
270.0
  0
INSERT
  5
5B4EE
330
56A60
100
AcDbEntity
  8
AM_5
100
AcDbBlockReference
  2
_Dot
 10
6353.781429876359
 20
-6507.49173211489
 30
0.0
 50
90.0
  0
MTEXT
  5
5B4EF
330
56A60
100
AcDbEntity
  8
AM_5
 62
     2
100
AcDbMText
 10
6351.18142987636
 20
-6531.24173211489
 30
0.0
 40
3.200000000000001
 41
0.0
 71
     5
 72
     1
  1
（47.5）
 11
0.0000000000000001
 21
1.0
 31
0.0
 73
     1
 44
1.0
1001
ACAD
1000
MTEXTBEGIN
1070
    73
1070
     1
1070
    44
1040
1.0
1070
    74
1070
     0
1000
MTEXTEND
  0
POINT
  5
5B4F0
330
56A60
100
AcDbEntity
  8
Defpoints
 62
     0
100
AcDbPoint
 10
6283.907440538913
 20
-6554.991732114891
 30
0.0
  0
POINT
  5
5B4F1
330
56A60
100
AcDbEntity
  8
Defpoints
 62
     0
100
AcDbPoint
 10
6283.907440538913
 20
-6507.49173211489
 30
0.0
  0
POINT
  5
5B4F2
330
56A60
100
AcDbEntity
  8
Defpoints
 62
     0
100
AcDbPoint
 10
6353.781429876359
 20
-6507.49173211489
 30
0.0
  0
ENDBLK
  5
56A6B
330
56A60
100
AcDbEntity
  8
0
100
AcDbBlockEnd
  0
BLOCK
  5
56A76
330
56A6C
100
AcDbEntity
  8
0
100
AcDbBlockBegin
  2
*D8
 70
     1
 10
0.0
 20
0.0
 30
0.0
  3
*D8
  1

  0
LINE
  5
573D5
330
56A6C
100
AcDbEntity
  8
AM_5
100
AcDbLine
 10
6307.286101538913
 20
-6541.74173211489
 30
0.0
 11
6346.781429876359
 21
-6541.74173211489
 31
0.0
  0
LINE
  5
573D6
330
56A6C
100
AcDbEntity
  8
AM_5
100
AcDbLine
 10
6307.286101538913
 20
-6520.741732114891
 30
0.0
 11
6346.781429876359
 21
-6520.741732114891
 31
0.0
  0
LINE
  5
573D7
330
56A6C
100
AcDbEntity
  8
AM_5
100
AcDbLine
 10
6345.781429876359
 20
-6540.741732114891
 30
0.0
 11
6345.781429876359
 21
-6521.74173211489
 31
0.0
  0
INSERT
  5
573D8
330
56A6C
100
AcDbEntity
  8
AM_5
100
AcDbBlockReference
  2
_Dot
 10
6345.781429876359
 20
-6541.74173211489
 30
0.0
 50
270.0
  0
INSERT
  5
573D9
330
56A6C
100
AcDbEntity
  8
AM_5
100
AcDbBlockReference
  2
_Dot
 10
6345.781429876359
 20
-6520.741732114891
 30
0.0
 50
90.0
  0
MTEXT
  5
573DA
330
56A6C
100
AcDbEntity
  8
AM_5
 62
     2
100
AcDbMText
 10
6343.18142987636
 20
-6531.24173211489
 30
0.0
 40
3.200000000000001
 41
0.0
 71
     5
 72
     1
  1
21
 11
0.0000000000000001
 21
1.0
 31
0.0
 73
     1
 44
1.0
1001
ACAD
1000
MTEXTBEGIN
1070
    73
1070
     1
1070
    44
1040
1.0
1070
    74
1070
     0
1000
MTEXTEND
  0
POINT
  5
573DB
330
56A6C
100
AcDbEntity
  8
Defpoints
 62
     0
100
AcDbPoint
 10
6306.286101538912
 20
-6541.74173211489
 30
0.0
  0
POINT
  5
573DC
330
56A6C
100
AcDbEntity
  8
Defpoints
 62
     0
100
AcDbPoint
 10
6306.286101538912
 20
-6520.741732114891
 30
0.0
  0
POINT
  5
573DD
330
56A6C
100
AcDbEntity
  8
Defpoints
 62
     0
100
AcDbPoint
 10
6345.781429876359
 20
-6520.741732114891
 30
0.0
  0
ENDBLK
  5
56A77
330
56A6C
100
AcDbEntity
  8
0
100
AcDbBlockEnd
  0
BLOCK
  5
56B62
330
56B58
100
AcDbEntity
  8
0
100
AcDbBlockBegin
  2
*D9
 70
     1
 10
0.0
 20
0.0
 30
0.0
  3
*D9
  1

  0
LINE
  5
573DE
330
56B58
100
AcDbEntity
  8
AM_5
100
AcDbLine
 10
6271.286101538913
 20
-6519.741732114891
 30
0.0
 11
6271.286101538913
 21
-6497.74173211489
 31
0.0
  0
LINE
  5
573DF
330
56B58
100
AcDbEntity
  8
AM_5
100
AcDbLine
 10
6337.786101538913
 20
-6530.241732114891
 30
0.0
 11
6337.786101538913
 21
-6497.74173211489
 31
0.0
  0
LINE
  5
573E0
330
56B58
100
AcDbEntity
  8
AM_5
100
AcDbLine
 10
6272.286101538913
 20
-6498.741732114891
 30
0.0
 11
6336.786101538912
 21
-6498.741732114891
 31
0.0
  0
INSERT
  5
573E1
330
56B58
100
AcDbEntity
  8
AM_5
100
AcDbBlockReference
  2
_Dot
 10
6271.286101538913
 20
-6498.741732114891
 30
0.0
 50
180.0
  0
INSERT
  5
573E2
330
56B58
100
AcDbEntity
  8
AM_5
100
AcDbBlockReference
  2
_Dot
 10
6337.786101538913
 20
-6498.741732114891
 30
0.0
  0
MTEXT
  5
573E3
330
56B58
100
AcDbEntity
  8
AM_5
 62
     2
100
AcDbMText
 10
6304.536101538912
 20
-6496.14173211489
 30
0.0
 40
3.200000000000001
 41
0.0
 71
     5
 72
     1
  1
（66.5）
 73
     1
 44
1.0
1001
ACAD
1000
MTEXTBEGIN
1070
    73
1070
     1
1070
    44
1040
1.0
1070
    74
1070
     0
1000
MTEXTEND
  0
POINT
  5
573E4
330
56B58
100
AcDbEntity
  8
Defpoints
 62
     0
100
AcDbPoint
 10
6271.286101538913
 20
-6520.741732114891
 30
0.0
  0
POINT
  5
573E5
330
56B58
100
AcDbEntity
  8
Defpoints
 62
     0
100
AcDbPoint
 10
6337.786101538913
 20
-6531.24173211489
 30
0.0
  0
POINT
  5
573E6
330
56B58
100
AcDbEntity
  8
Defpoints
 62
     0
100
AcDbPoint
 10
6337.786101538913
 20
-6498.741732114891
 30
0.0
  0
ENDBLK
  5
56B63
330
56B58
100
AcDbEntity
  8
0
100
AcDbBlockEnd
  0
BLOCK
  5
56BA5
330
56B9B
100
AcDbEntity
  8
0
100
AcDbBlockBegin
  2
*D10
 70
     1
 10
0.0
 20
0.0
 30
0.0
  3
*D10
  1

  0
LINE
  5
573E7
330
56B9B
100
AcDbEntity
  8
AM_5
100
AcDbLine
 10
6243.286101538913
 20
-6520.741732114891
 30
0.0
 11
6243.286101538913
 21
-6497.74173211489
 31
0.0
  0
LINE
  5
573E8
330
56B9B
100
AcDbEntity
  8
AM_5
100
AcDbLine
 10
6269.286101538913
 20
-6519.741732114891
 30
0.0
 11
6269.286101538913
 21
-6497.74173211489
 31
0.0
  0
LINE
  5
573E9
330
56B9B
100
AcDbEntity
  8
AM_5
100
AcDbLine
 10
6244.286101538913
 20
-6498.741732114891
 30
0.0
 11
6268.286101538913
 21
-6498.741732114891
 31
0.0
  0
INSERT
  5
573EA
330
56B9B
100
AcDbEntity
  8
AM_5
100
AcDbBlockReference
  2
_Dot
 10
6243.286101538913
 20
-6498.741732114891
 30
0.0
 50
180.0
  0
INSERT
  5
573EB
330
56B9B
100
AcDbEntity
  8
AM_5
100
AcDbBlockReference
  2
_Dot
 10
6269.286101538913
 20
-6498.741732114891
 30
0.0
  0
MTEXT
  5
573EC
330
56B9B
100
AcDbEntity
  8
AM_5
 62
     2
100
AcDbMText
 10
6256.286101538912
 20
-6496.14173211489
 30
0.0
 40
3.200000000000001
 41
0.0
 71
     5
 72
     1
  1
（26）
 73
     1
 44
1.0
1001
ACAD
1000
MTEXTBEGIN
1070
    73
1070
     1
1070
    44
1040
1.0
1070
    74
1070
     0
1000
MTEXTEND
  0
POINT
  5
573ED
330
56B9B
100
AcDbEntity
  8
Defpoints
 62
     0
100
AcDbPoint
 10
6243.286101538913
 20
-6521.74173211489
 30
0.0
  0
POINT
  5
573EE
330
56B9B
100
AcDbEntity
  8
Defpoints
 62
     0
100
AcDbPoint
 10
6269.286101538913
 20
-6520.741732114891
 30
0.0
  0
POINT
  5
573EF
330
56B9B
100
AcDbEntity
  8
Defpoints
 62
     0
100
AcDbPoint
 10
6269.286101538913
 20
-6498.741732114891
 30
0.0
  0
ENDBLK
  5
56BA6
330
56B9B
100
AcDbEntity
  8
0
100
AcDbBlockEnd
  0
BLOCK
  5
56BD6
330
56BCC
100
AcDbEntity
  8
0
100
AcDbBlockBegin
  2
*D11
 70
     1
 10
0.0
 20
0.0
 30
0.0
  3
*D11
  1

  0
LINE
  5
573F0
330
56BCC
100
AcDbEntity
  8
AM_5
100
AcDbLine
 10
6245.286101538912
 20
-6518.741732114889
 30
0.0
 11
6234.286101538911
 21
-6518.741732114889
 31
0.0
  0
LINE
  5
573F1
330
56BCC
100
AcDbEntity
  8
AM_5
100
AcDbLine
 10
6245.286101538912
 20
-6543.74173211489
 30
0.0
 11
6234.286101538911
 21
-6543.74173211489
 31
0.0
  0
LINE
  5
573F2
330
56BCC
100
AcDbEntity
  8
AM_5
100
AcDbLine
 10
6235.28610153891
 20
-6519.741732114891
 30
0.0
 11
6235.28610153891
 21
-6542.74173211489
 31
0.0
  0
INSERT
  5
573F3
330
56BCC
100
AcDbEntity
  8
AM_5
100
AcDbBlockReference
  2
_Dot
 10
6235.28610153891
 20
-6518.741732114889
 30
0.0
 50
90.0
  0
INSERT
  5
573F4
330
56BCC
100
AcDbEntity
  8
AM_5
100
AcDbBlockReference
  2
_Dot
 10
6235.28610153891
 20
-6543.74173211489
 30
0.0
 50
270.0
  0
MTEXT
  5
573F5
330
56BCC
100
AcDbEntity
  8
AM_5
 62
     2
100
AcDbMText
 10
6232.686101538912
 20
-6531.24173211489
 30
0.0
 40
3.200000000000001
 41
0.0
 71
     5
 72
     1
  1
25
 11
0.0000000000000001
 21
1.0
 31
0.0
 73
     1
 44
1.0
1001
ACAD
1000
MTEXTBEGIN
1070
    73
1070
     1
1070
    44
1040
1.0
1070
    74
1070
     0
1000
MTEXTEND
  0
POINT
  5
573F6
330
56BCC
100
AcDbEntity
  8
Defpoints
 62
     0
100
AcDbPoint
 10
6246.286101538913
 20
-6518.741732114889
 30
0.0
  0
POINT
  5
573F7
330
56BCC
100
AcDbEntity
  8
Defpoints
 62
     0
100
AcDbPoint
 10
6246.286101538913
 20
-6543.74173211489
 30
0.0
  0
POINT
  5
573F8
330
56BCC
100
AcDbEntity
  8
Defpoints
 62
     0
100
AcDbPoint
 10
6235.28610153891
 20
-6543.74173211489
 30
0.0
  0
ENDBLK
  5
56BD7
330
56BCC
100
AcDbEntity
  8
0
100
AcDbBlockEnd
  0
BLOCK
  5
56F01
330
56EF7
100
AcDbEntity
  8
0
100
AcDbBlockBegin
  2
*D12
 70
     1
 10
0.0
 20
0.0
 30
0.0
  3
*D12
  1

  0
LINE
  5
573F9
330
56EF7
100
AcDbEntity
  8
AM_5
100
AcDbLine
 10
6293.286101538913
 20
-6658.872244675183
 30
0.0
 11
6293.286101538913
 21
-6694.766949675183
 31
0.0
  0
LINE
  5
573FA
330
56EF7
100
AcDbEntity
  8
AM_5
100
AcDbLine
 10
6332.286101538913
 20
-6658.872244675183
 30
0.0
 11
6332.286101538913
 21
-6694.766949675183
 31
0.0
  0
LINE
  5
573FB
330
56EF7
100
AcDbEntity
  8
AM_5
100
AcDbLine
 10
6294.286101538912
 20
-6693.766949675183
 30
0.0
 11
6331.286101538912
 21
-6693.766949675183
 31
0.0
  0
INSERT
  5
573FC
330
56EF7
100
AcDbEntity
  8
AM_5
100
AcDbBlockReference
  2
_Dot
 10
6293.286101538913
 20
-6693.766949675183
 30
0.0
 50
180.0
  0
INSERT
  5
573FD
330
56EF7
100
AcDbEntity
  8
AM_5
100
AcDbBlockReference
  2
_Dot
 10
6332.286101538913
 20
-6693.766949675183
 30
0.0
  0
MTEXT
  5
573FE
330
56EF7
100
AcDbEntity
  8
AM_5
 62
     2
100
AcDbMText
 10
6312.786101538913
 20
-6691.166949675182
 30
0.0
 40
3.200000000000001
 41
0.0
 71
     5
 72
     1
  1
39
 73
     1
 44
1.0
1001
ACAD
1000
MTEXTBEGIN
1070
    73
1070
     1
1070
    44
1040
1.0
1070
    74
1070
     0
1000
MTEXTEND
  0
POINT
  5
573FF
330
56EF7
100
AcDbEntity
  8
Defpoints
 62
     0
100
AcDbPoint
 10
6293.286101538913
 20
-6657.872244675184
 30
0.0
  0
POINT
  5
57400
330
56EF7
100
AcDbEntity
  8
Defpoints
 62
     0
100
AcDbPoint
 10
6332.286101538913
 20
-6657.872244675184
 30
0.0
  0
POINT
  5
57401
330
56EF7
100
AcDbEntity
  8
Defpoints
 62
     0
100
AcDbPoint
 10
6332.286101538913
 20
-6693.766949675183
 30
0.0
  0
ENDBLK
  5
56F02
330
56EF7
100
AcDbEntity
  8
0
100
AcDbBlockEnd
  0
BLOCK
  5
56F0D
330
56F03
100
AcDbEntity
  8
0
100
AcDbBlockBegin
  2
*D13
 70
     1
 10
0.0
 20
0.0
 30
0.0
  3
*D13
  1

  0
LINE
  5
57402
330
56F03
100
AcDbEntity
  8
AM_5
100
AcDbLine
 10
6293.286101538913
 20
-6658.872244675183
 30
0.0
 11
6293.286101538913
 21
-6686.766949675183
 31
0.0
  0
LINE
  5
57403
330
56F03
100
AcDbEntity
  8
AM_5
100
AcDbLine
 10
6271.286101538913
 20
-6664.772244675183
 30
0.0
 11
6271.286101538913
 21
-6686.766949675183
 31
0.0
  0
LINE
  5
57404
330
56F03
100
AcDbEntity
  8
AM_5
100
AcDbLine
 10
6292.286101538913
 20
-6685.766949675183
 30
0.0
 11
6272.286101538913
 21
-6685.766949675183
 31
0.0
  0
INSERT
  5
57405
330
56F03
100
AcDbEntity
  8
AM_5
100
AcDbBlockReference
  2
_Dot
 10
6293.286101538913
 20
-6685.766949675183
 30
0.0
  0
INSERT
  5
57406
330
56F03
100
AcDbEntity
  8
AM_5
100
AcDbBlockReference
  2
_Dot
 10
6271.286101538913
 20
-6685.766949675183
 30
0.0
 50
180.0
  0
MTEXT
  5
57407
330
56F03
100
AcDbEntity
  8
AM_5
 62
     2
100
AcDbMText
 10
6282.286101538913
 20
-6683.166949675181
 30
0.0
 40
3.200000000000001
 41
0.0
 71
     5
 72
     1
  1
22
 73
     1
 44
1.0
1001
ACAD
1000
MTEXTBEGIN
1070
    73
1070
     1
1070
    44
1040
1.0
1070
    74
1070
     0
1000
MTEXTEND
  0
POINT
  5
57408
330
56F03
100
AcDbEntity
  8
Defpoints
 62
     0
100
AcDbPoint
 10
6293.286101538913
 20
-6657.872244675184
 30
0.0
  0
POINT
  5
57409
330
56F03
100
AcDbEntity
  8
Defpoints
 62
     0
100
AcDbPoint
 10
6271.286101538913
 20
-6663.772244675183
 30
0.0
  0
POINT
  5
5740A
330
56F03
100
AcDbEntity
  8
Defpoints
 62
     0
100
AcDbPoint
 10
6271.286101538913
 20
-6685.766949675183
 30
0.0
  0
ENDBLK
  5
56F0E
330
56F03
100
AcDbEntity
  8
0
100
AcDbBlockEnd
  0
BLOCK
  5
56F19
330
56F0F
100
AcDbEntity
  8
0
100
AcDbBlockBegin
  2
*D14
 70
     1
 10
0.0
 20
0.0
 30
0.0
  3
*D14
  1

  0
LINE
  5
5740B
330
56F0F
100
AcDbEntity
  8
AM_5
100
AcDbLine
 10
6293.286101538913
 20
-6658.872244675183
 30
0.0
 11
6293.286101538913
 21
-6694.766949675183
 31
0.0
  0
LINE
  5
5740C
330
56F0F
100
AcDbEntity
  8
AM_5
100
AcDbLine
 10
6248.286101538912
 20
-6665.872244675184
 30
0.0
 11
6248.286101538912
 21
-6694.766949675183
 31
0.0
  0
LINE
  5
5740D
330
56F0F
100
AcDbEntity
  8
AM_5
100
AcDbLine
 10
6292.286101538913
 20
-6693.766949675183
 30
0.0
 11
6249.286101538912
 21
-6693.766949675183
 31
0.0
  0
INSERT
  5
5740E
330
56F0F
100
AcDbEntity
  8
AM_5
100
AcDbBlockReference
  2
_Dot
 10
6293.286101538913
 20
-6693.766949675183
 30
0.0
  0
INSERT
  5
5740F
330
56F0F
100
AcDbEntity
  8
AM_5
100
AcDbBlockReference
  2
_Dot
 10
6248.286101538912
 20
-6693.766949675183
 30
0.0
 50
180.0
  0
MTEXT
  5
57410
330
56F0F
100
AcDbEntity
  8
AM_5
 62
     2
100
AcDbMText
 10
6270.786101538913
 20
-6691.166949675182
 30
0.0
 40
3.200000000000001
 41
0.0
 71
     5
 72
     1
  1
（45）
 73
     1
 44
1.0
1001
ACAD
1000
MTEXTBEGIN
1070
    73
1070
     1
1070
    44
1040
1.0
1070
    74
1070
     0
1000
MTEXTEND
  0
POINT
  5
57411
330
56F0F
100
AcDbEntity
  8
Defpoints
 62
     0
100
AcDbPoint
 10
6293.286101538913
 20
-6657.872244675184
 30
0.0
  0
POINT
  5
57412
330
56F0F
100
AcDbEntity
  8
Defpoints
 62
     0
100
AcDbPoint
 10
6248.286101538912
 20
-6664.872244675184
 30
0.0
  0
POINT
  5
57413
330
56F0F
100
AcDbEntity
  8
Defpoints
 62
     0
100
AcDbPoint
 10
6248.286101538912
 20
-6693.766949675183
 30
0.0
  0
ENDBLK
  5
56F1A
330
56F0F
100
AcDbEntity
  8
0
100
AcDbBlockEnd
  0
BLOCK
  5
56F25
330
56F1B
100
AcDbEntity
  8
0
100
AcDbBlockBegin
  2
*D15
 70
     1
 10
0.0
 20
0.0
 30
0.0
  3
*D15
  1

  0
LINE
  5
57414
330
56F1B
100
AcDbEntity
  8
AM_5
100
AcDbLine
 10
6248.286101538912
 20
-6665.872244675184
 30
0.0
 11
6248.286101538912
 21
-6686.766949675183
 31
0.0
  0
LINE
  5
57415
330
56F1B
100
AcDbEntity
  8
AM_5
100
AcDbLine
 10
6269.286101538913
 20
-6664.772244675183
 30
0.0
 11
6269.286101538913
 21
-6686.766949675183
 31
0.0
  0
LINE
  5
57416
330
56F1B
100
AcDbEntity
  8
AM_5
100
AcDbLine
 10
6249.286101538912
 20
-6685.766949675183
 30
0.0
 11
6268.286101538913
 21
-6685.766949675183
 31
0.0
  0
INSERT
  5
57417
330
56F1B
100
AcDbEntity
  8
AM_5
100
AcDbBlockReference
  2
_Dot
 10
6248.286101538912
 20
-6685.766949675183
 30
0.0
 50
180.0
  0
INSERT
  5
57418
330
56F1B
100
AcDbEntity
  8
AM_5
100
AcDbBlockReference
  2
_Dot
 10
6269.286101538913
 20
-6685.766949675183
 30
0.0
  0
MTEXT
  5
57419
330
56F1B
100
AcDbEntity
  8
AM_5
 62
     2
100
AcDbMText
 10
6258.786101538913
 20
-6683.166949675181
 30
0.0
 40
3.200000000000001
 41
0.0
 71
     5
 72
     1
  1
（21）
 73
     1
 44
1.0
1001
ACAD
1000
MTEXTBEGIN
1070
    73
1070
     1
1070
    44
1040
1.0
1070
    74
1070
     0
1000
MTEXTEND
  0
POINT
  5
5741A
330
56F1B
100
AcDbEntity
  8
Defpoints
 62
     0
100
AcDbPoint
 10
6248.286101538912
 20
-6664.872244675184
 30
0.0
  0
POINT
  5
5741B
330
56F1B
100
AcDbEntity
  8
Defpoints
 62
     0
100
AcDbPoint
 10
6269.286101538913
 20
-6663.772244675183
 30
0.0
  0
POINT
  5
5741C
330
56F1B
100
AcDbEntity
  8
Defpoints
 62
     0
100
AcDbPoint
 10
6269.286101538913
 20
-6685.766949675183
 30
0.0
  0
ENDBLK
  5
56F26
330
56F1B
100
AcDbEntity
  8
0
100
AcDbBlockEnd
  0
BLOCK
  5
57043
330
57039
100
AcDbEntity
  8
0
100
AcDbBlockBegin
  2
*D16
 70
     1
 10
0.0
 20
0.0
 30
0.0
  3
*D16
  1

  0
LINE
  5
5B492
330
57039
100
AcDbEntity
  8
AM_5
100
AcDbLine
 10
6338.786101538913
 20
-6601.484595619186
 30
0.0
 11
6354.786101538911
 21
-6601.484595619186
 31
0.0
  0
LINE
  5
5B493
330
57039
100
AcDbEntity
  8
AM_5
100
AcDbLine
 10
6316.286101538913
 20
-6578.284595619186
 30
0.0
 11
6354.786101538911
 21
-6578.284595619186
 31
0.0
  0
LINE
  5
5B494
330
57039
100
AcDbEntity
  8
AM_5
100
AcDbLine
 10
6353.786101538911
 20
-6600.484595619187
 30
0.0
 11
6353.786101538911
 21
-6579.284595619187
 31
0.0
  0
INSERT
  5
5B495
330
57039
100
AcDbEntity
  8
AM_5
100
AcDbBlockReference
  2
_Dot
 10
6353.786101538911
 20
-6601.484595619186
 30
0.0
 50
270.0
  0
INSERT
  5
5B496
330
57039
100
AcDbEntity
  8
AM_5
100
AcDbBlockReference
  2
_Dot
 10
6353.786101538911
 20
-6578.284595619186
 30
0.0
 50
90.0
  0
MTEXT
  5
5B497
330
57039
100
AcDbEntity
  8
AM_5
 62
     2
100
AcDbMText
 10
6351.186101538912
 20
-6589.984595619185
 30
0.0
 40
3.200000000000001
 41
0.0
 71
     5
 72
     1
  1
（23.2）
 11
0.0000000000000001
 21
1.0
 31
0.0
 73
     1
 44
1.0
1001
ACAD
1000
MTEXTBEGIN
1070
    73
1070
     1
1070
    44
1040
1.0
1070
    74
1070
     0
1000
MTEXTEND
  0
POINT
  5
5B498
330
57039
100
AcDbEntity
  8
Defpoints
 62
     0
100
AcDbPoint
 10
6337.786101538913
 20
-6601.484595619186
 30
0.0
  0
POINT
  5
5B499
330
57039
100
AcDbEntity
  8
Defpoints
 62
     0
100
AcDbPoint
 10
6315.286101538912
 20
-6578.284595619186
 30
0.0
  0
POINT
  5
5B49A
330
57039
100
AcDbEntity
  8
Defpoints
 62
     0
100
AcDbPoint
 10
6353.786101538911
 20
-6578.284595619186
 30
0.0
  0
ENDBLK
  5
57044
330
57039
100
AcDbEntity
  8
0
100
AcDbBlockEnd
  0
BLOCK
  5
57059
330
5704F
100
AcDbEntity
  8
0
100
AcDbBlockBegin
  2
*D17
 70
     1
 10
0.0
 20
0.0
 30
0.0
  3
*D17
  1

  0
LINE
  5
5B783
330
5704F
100
AcDbEntity
  8
AM_5
100
AcDbLine
 10
6242.286101538912
 20
-6601.484595619186
 30
0.0
 11
6226.286101538912
 21
-6601.484595619186
 31
0.0
  0
LINE
  5
5B784
330
5704F
100
AcDbEntity
  8
AM_5
100
AcDbLine
 10
6255.286101538913
 20
-6590.484595619186
 30
0.0
 11
6226.286101538912
 21
-6590.484595619186
 31
0.0
  0
LINE
  5
5B785
330
5704F
100
AcDbEntity
  8
AM_5
100
AcDbLine
 10
6227.286101538911
 20
-6600.484595619187
 30
0.0
 11
6227.286101538911
 21
-6591.484595619187
 31
0.0
  0
INSERT
  5
5B786
330
5704F
100
AcDbEntity
  8
AM_5
100
AcDbBlockReference
  2
_Dot
 10
6227.286101538911
 20
-6601.484595619186
 30
0.0
 50
270.0
  0
INSERT
  5
5B787
330
5704F
100
AcDbEntity
  8
AM_5
100
AcDbBlockReference
  2
_Dot
 10
6227.286101538911
 20
-6590.484595619186
 30
0.0
 50
90.0
  0
MTEXT
  5
5B788
330
5704F
100
AcDbEntity
  8
AM_5
 62
     2
100
AcDbMText
 10
6224.686101538914
 20
-6595.484595619186
 30
0.0
 40
3.200000000000001
 41
0.0
 71
     5
 72
     1
  1
11
 11
0.0000000000000001
 21
1.0
 31
0.0
 73
     1
 44
1.0
1001
ACAD
1000
MTEXTBEGIN
1070
    73
1070
     1
1070
    44
1040
1.0
1070
    74
1070
     0
1000
MTEXTEND
  0
POINT
  5
5B789
330
5704F
100
AcDbEntity
  8
Defpoints
 62
     0
100
AcDbPoint
 10
6243.286101538913
 20
-6601.484595619186
 30
0.0
  0
POINT
  5
5B78A
330
5704F
100
AcDbEntity
  8
Defpoints
 62
     0
100
AcDbPoint
 10
6256.286101538912
 20
-6590.484595619186
 30
0.0
  0
POINT
  5
5B78B
330
5704F
100
AcDbEntity
  8
Defpoints
 62
     0
100
AcDbPoint
 10
6227.286101538911
 20
-6590.484595619186
 30
0.0
  0
ENDBLK
  5
5705A
330
5704F
100
AcDbEntity
  8
0
100
AcDbBlockEnd
  0
BLOCK
  5
5706F
330
57065
100
AcDbEntity
  8
0
100
AcDbBlockBegin
  2
*D18
 70
     1
 10
0.0
 20
0.0
 30
0.0
  3
*D18
  1

  0
LINE
  5
5B77A
330
57065
100
AcDbEntity
  8
AM_5
100
AcDbLine
 10
6242.286101538912
 20
-6601.484595619186
 30
0.0
 11
6218.286101538911
 21
-6601.484595619186
 31
0.0
  0
LINE
  5
5B77B
330
57065
100
AcDbEntity
  8
AM_5
100
AcDbLine
 10
6278.286101538913
 20
-6586.484595619187
 30
0.0
 11
6218.286101538911
 21
-6586.484595619187
 31
0.0
  0
LINE
  5
5B77C
330
57065
100
AcDbEntity
  8
AM_5
100
AcDbLine
 10
6219.28610153891
 20
-6600.484595619187
 30
0.0
 11
6219.28610153891
 21
-6587.484595619186
 31
0.0
  0
INSERT
  5
5B77D
330
57065
100
AcDbEntity
  8
AM_5
100
AcDbBlockReference
  2
_Dot
 10
6219.28610153891
 20
-6601.484595619186
 30
0.0
 50
270.0
  0
INSERT
  5
5B77E
330
57065
100
AcDbEntity
  8
AM_5
100
AcDbBlockReference
  2
_Dot
 10
6219.28610153891
 20
-6586.484595619187
 30
0.0
 50
90.0
  0
MTEXT
  5
5B77F
330
57065
100
AcDbEntity
  8
AM_5
 62
     2
100
AcDbMText
 10
6216.686101538912
 20
-6593.984595619184
 30
0.0
 40
3.200000000000001
 41
0.0
 71
     5
 72
     1
  1
15
 11
0.0000000000000001
 21
1.0
 31
0.0
 73
     1
 44
1.0
1001
ACAD
1000
MTEXTBEGIN
1070
    73
1070
     1
1070
    44
1040
1.0
1070
    74
1070
     0
1000
MTEXTEND
  0
POINT
  5
5B780
330
57065
100
AcDbEntity
  8
Defpoints
 62
     0
100
AcDbPoint
 10
6243.286101538913
 20
-6601.484595619186
 30
0.0
  0
POINT
  5
5B781
330
57065
100
AcDbEntity
  8
Defpoints
 62
     0
100
AcDbPoint
 10
6279.286101538913
 20
-6586.484595619187
 30
0.0
  0
POINT
  5
5B782
330
57065
100
AcDbEntity
  8
Defpoints
 62
     0
100
AcDbPoint
 10
6219.28610153891
 20
-6586.484595619187
 30
0.0
  0
ENDBLK
  5
57070
330
57065
100
AcDbEntity
  8
0
100
AcDbBlockEnd
  0
BLOCK
  5
57098
330
5708C
100
AcDbEntity
  8
0
100
AcDbBlockBegin
  2
*D19
 70
     1
 10
0.0
 20
0.0
 30
0.0
  3
*D19
  1

  0
LINE
  5
57438
330
5708C
100
AcDbEntity
  8
AM_5
100
AcDbLine
 10
6338.786101538913
 20
-6601.484595619186
 30
0.0
 11
6346.786101538911
 21
-6601.484595619186
 31
0.0
  0
LINE
  5
57439
330
5708C
100
AcDbEntity
  8
AM_5
100
AcDbLine
 10
6338.786101538913
 20
-6598.484595619186
 30
0.0
 11
6346.786101538911
 21
-6598.484595619186
 31
0.0
  0
LINE
  5
5743A
330
5708C
100
AcDbEntity
  8
AM_5
100
AcDbLine
 10
6345.78610153891
 20
-6597.484595619187
 30
0.0
 11
6345.78610153891
 21
-6596.484595619187
 31
0.0
  0
LINE
  5
5743B
330
5708C
100
AcDbEntity
  8
AM_5
100
AcDbLine
 10
6345.78610153891
 20
-6602.484595619187
 30
0.0
 11
6345.78610153891
 21
-6606.97792895252
 31
0.0
  0
LINE
  5
5743C
330
5708C
100
AcDbEntity
  8
AM_5
100
AcDbLine
 10
6345.78610153891
 20
-6598.484595619186
 30
0.0
 11
6345.78610153891
 21
-6601.484595619186
 31
0.0
  0
INSERT
  5
5743D
330
5708C
100
AcDbEntity
  8
AM_5
100
AcDbBlockReference
  2
_Dot
 10
6345.78610153891
 20
-6598.484595619186
 30
0.0
 50
270.0
  0
INSERT
  5
5743E
330
5708C
100
AcDbEntity
  8
AM_5
100
AcDbBlockReference
  2
_Dot
 10
6345.78610153891
 20
-6601.484595619186
 30
0.0
 50
90.0
  0
MTEXT
  5
5743F
330
5708C
100
AcDbEntity
  8
AM_5
 62
     2
100
AcDbMText
 10
6343.186101538912
 20
-6605.231262285852
 30
0.0
 40
3.200000000000001
 41
0.0
 71
     5
 72
     1
  1
3
 11
0.0000000000000001
 21
1.0
 31
0.0
 73
     1
 44
1.0
1001
ACAD
1000
MTEXTBEGIN
1070
    73
1070
     1
1070
    44
1040
1.0
1070
    74
1070
     0
1000
MTEXTEND
  0
POINT
  5
57440
330
5708C
100
AcDbEntity
  8
Defpoints
 62
     0
100
AcDbPoint
 10
6337.786101538913
 20
-6601.484595619186
 30
0.0
  0
POINT
  5
57441
330
5708C
100
AcDbEntity
  8
Defpoints
 62
     0
100
AcDbPoint
 10
6337.786101538913
 20
-6598.484595619186
 30
0.0
  0
POINT
  5
57442
330
5708C
100
AcDbEntity
  8
Defpoints
 62
     0
100
AcDbPoint
 10
6345.78610153891
 20
-6598.484595619186
 30
0.0
  0
ENDBLK
  5
57099
330
5708C
100
AcDbEntity
  8
0
100
AcDbBlockEnd
  0
BLOCK
  5
570B2
330
570A6
100
AcDbEntity
  8
0
100
AcDbBlockBegin
  2
*D20
 70
     1
 10
0.0
 20
0.0
 30
0.0
  3
*D20
  1

  0
LINE
  5
57443
330
570A6
100
AcDbEntity
  8
AM_5
100
AcDbLine
 10
6242.286101538912
 20
-6601.484595619186
 30
0.0
 11
6234.286101538911
 21
-6601.484595619186
 31
0.0
  0
LINE
  5
57444
330
570A6
100
AcDbEntity
  8
AM_5
100
AcDbLine
 10
6242.286101538912
 20
-6599.484595619187
 30
0.0
 11
6234.286101538911
 21
-6599.484595619187
 31
0.0
  0
LINE
  5
57445
330
570A6
100
AcDbEntity
  8
AM_5
100
AcDbLine
 10
6235.28610153891
 20
-6598.484595619186
 30
0.0
 11
6235.28610153891
 21
-6597.484595619187
 31
0.0
  0
LINE
  5
57446
330
570A6
100
AcDbEntity
  8
AM_5
100
AcDbLine
 10
6235.28610153891
 20
-6602.484595619187
 30
0.0
 11
6235.28610153891
 21
-6606.97792895252
 31
0.0
  0
LINE
  5
57447
330
570A6
100
AcDbEntity
  8
AM_5
100
AcDbLine
 10
6235.28610153891
 20
-6599.484595619187
 30
0.0
 11
6235.28610153891
 21
-6601.484595619186
 31
0.0
  0
INSERT
  5
57448
330
570A6
100
AcDbEntity
  8
AM_5
100
AcDbBlockReference
  2
_Dot
 10
6235.28610153891
 20
-6599.484595619187
 30
0.0
 50
270.0
  0
INSERT
  5
57449
330
570A6
100
AcDbEntity
  8
AM_5
100
AcDbBlockReference
  2
_Dot
 10
6235.28610153891
 20
-6601.484595619186
 30
0.0
 50
90.0
  0
MTEXT
  5
5744A
330
570A6
100
AcDbEntity
  8
AM_5
 62
     2
100
AcDbMText
 10
6232.686101538912
 20
-6605.231262285852
 30
0.0
 40
3.200000000000001
 41
0.0
 71
     5
 72
     1
  1
2
 11
0.0000000000000001
 21
1.0
 31
0.0
 73
     1
 44
1.0
1001
ACAD
1000
MTEXTBEGIN
1070
    73
1070
     1
1070
    44
1040
1.0
1070
    74
1070
     0
1000
MTEXTEND
  0
POINT
  5
5744B
330
570A6
100
AcDbEntity
  8
Defpoints
 62
     0
100
AcDbPoint
 10
6243.286101538913
 20
-6601.484595619186
 30
0.0
  0
POINT
  5
5744C
330
570A6
100
AcDbEntity
  8
Defpoints
 62
     0
100
AcDbPoint
 10
6243.286101538913
 20
-6599.484595619187
 30
0.0
  0
POINT
  5
5744D
330
570A6
100
AcDbEntity
  8
Defpoints
 62
     0
100
AcDbPoint
 10
6235.28610153891
 20
-6599.484595619187
 30
0.0
  0
ENDBLK
  5
570B3
330
570A6
100
AcDbEntity
  8
0
100
AcDbBlockEnd
  0
BLOCK
  5
57182
330
57178
100
AcDbEntity
  8
0
100
AcDbBlockBegin
  2
*D21
 70
     1
 10
0.0
 20
0.0
 30
0.0
  3
*D21
  1

  0
LINE
  5
5744E
330
57178
100
AcDbEntity
  8
AM_5
100
AcDbLine
 10
6242.686101538912
 20
-6660.272244675183
 30
0.0
 11
6234.286101538912
 21
-6660.272244675183
 31
0.0
  0
LINE
  5
5744F
330
57178
100
AcDbEntity
  8
AM_5
100
AcDbLine
 10
6242.686101538912
 20
-6646.272244675182
 30
0.0
 11
6234.286101538912
 21
-6646.272244675182
 31
0.0
  0
LINE
  5
57450
330
57178
100
AcDbEntity
  8
AM_5
100
AcDbLine
 10
6235.286101538911
 20
-6659.272244675183
 30
0.0
 11
6235.286101538911
 21
-6647.272244675183
 31
0.0
  0
INSERT
  5
57451
330
57178
100
AcDbEntity
  8
AM_5
100
AcDbBlockReference
  2
_Dot
 10
6235.286101538911
 20
-6660.272244675183
 30
0.0
 50
270.0
  0
INSERT
  5
57452
330
57178
100
AcDbEntity
  8
AM_5
100
AcDbBlockReference
  2
_Dot
 10
6235.286101538911
 20
-6646.272244675182
 30
0.0
 50
90.0
  0
MTEXT
  5
57453
330
57178
100
AcDbEntity
  8
AM_5
 62
     2
100
AcDbMText
 10
6232.686101538913
 20
-6653.272244675182
 30
0.0
 40
3.200000000000001
 41
0.0
 71
     5
 72
     1
  1
14
 11
0.0000000000000001
 21
1.0
 31
0.0
 73
     1
 44
1.0
1001
ACAD
1000
MTEXTBEGIN
1070
    73
1070
     1
1070
    44
1040
1.0
1070
    74
1070
     0
1000
MTEXTEND
  0
POINT
  5
57454
330
57178
100
AcDbEntity
  8
Defpoints
 62
     0
100
AcDbPoint
 10
6243.686101538912
 20
-6660.272244675183
 30
0.0
  0
POINT
  5
57455
330
57178
100
AcDbEntity
  8
Defpoints
 62
     0
100
AcDbPoint
 10
6243.686101538912
 20
-6646.272244675182
 30
0.0
  0
POINT
  5
57456
330
57178
100
AcDbEntity
  8
Defpoints
 62
     0
100
AcDbPoint
 10
6235.286101538911
 20
-6646.272244675182
 30
0.0
  0
ENDBLK
  5
57183
330
57178
100
AcDbEntity
  8
0
100
AcDbBlockEnd
  0
BLOCK
  5
571B8
330
571B1
100
AcDbEntity
  8
0
100
AcDbBlockBegin
  2
*D22
 70
     1
 10
0.0
 20
0.0
 30
0.0
  3
*D22
  1

  0
LINE
  5
57457
330
571B1
100
AcDbEntity
  8
AM_5
100
AcDbLine
 10
6227.593813381027
 20
-6668.404193095783
 30
0.0
 11
6240.220480047696
 21
-6668.404193095781
 31
0.0
  0
LINE
  5
57458
330
571B1
100
AcDbEntity
  8
AM_5
100
AcDbLine
 10
6240.220480047696
 20
-6668.404193095781
 30
0.0
 11
6245.750962216185
 21
-6662.828231493294
 31
0.0
  0
LINE
  5
57459
330
571B1
100
AcDbEntity
  8
AM_5
100
AcDbLine
 10
6250.821240861638
 20
-6657.716257857066
 30
0.0
 11
6251.525446229062
 21
-6657.006261518701
 31
0.0
  0
MTEXT
  5
5745A
330
571B1
100
AcDbEntity
  8
AM_5
 62
     2
100
AcDbMText
 10
6233.407146714359
 20
-6665.804193095782
 30
0.0
 40
3.2
 41
0.0
 71
     5
 72
     1
  1
2-\U+22055.2
 73
     1
 44
1.0
1001
ACAD
1000
MTEXTBEGIN
1070
    73
1070
     1
1070
    44
1040
1.0
1070
    74
1070
     0
1000
MTEXTEND
  0
LINE
  5
5745B
330
571B1
100
AcDbEntity
  8
AM_5
100
AcDbLine
 10
6250.117035494215
 20
-6658.426254195432
 30
0.0
 11
6246.455167583609
 21
-6662.118235154931
 31
0.0
  0
INSERT
  5
5745C
330
571B1
100
AcDbEntity
  8
AM_5
100
AcDbBlockReference
  2
_Dot
 10
6250.117035494215
 20
-6658.426254195432
 30
0.0
 50
225.2346174087815
  0
INSERT
  5
5745D
330
571B1
100
AcDbEntity
  8
AM_5
100
AcDbBlockReference
  2
_Dot
 10
6246.455167583609
 20
-6662.118235154931
 30
0.0
 50
45.23461740878155
  0
POINT
  5
5745E
330
571B1
100
AcDbEntity
  8
Defpoints
 62
     0
100
AcDbPoint
 10
6246.455167583609
 20
-6662.118235154931
 30
0.0
  0
POINT
  5
5745F
330
571B1
100
AcDbEntity
  8
Defpoints
 62
     0
100
AcDbPoint
 10
6250.117035494215
 20
-6658.426254195432
 30
0.0
  0
ENDBLK
  5
571B9
330
571B1
100
AcDbEntity
  8
0
100
AcDbBlockEnd
  0
BLOCK
  5
571D1
330
571CA
100
AcDbEntity
  8
0
100
AcDbBlockBegin
  2
*D23
 70
     1
 10
0.0
 20
0.0
 30
0.0
  3
*D23
  1

  0
LINE
  5
57460
330
571CA
100
AcDbEntity
  8
AM_5
100
AcDbLine
 10
6353.630469839135
 20
-6661.951399417084
 30
0.0
 11
6341.003803172458
 21
-6661.951399417083
 31
0.0
  0
LINE
  5
57461
330
571CA
100
AcDbEntity
  8
AM_5
100
AcDbLine
 10
6341.003803172458
 20
-6661.951399417083
 30
0.0
 11
6334.837320039029
 21
-6655.81218250211
 31
0.0
  0
LINE
  5
57462
330
571CA
100
AcDbEntity
  8
AM_5
100
AcDbLine
 10
6329.734883038796
 20
-6650.732306848256
 30
0.0
 11
6329.026211233208
 21
-6650.026768562998
 31
0.0
  0
MTEXT
  5
57463
330
571CA
100
AcDbEntity
  8
AM_5
 62
     2
100
AcDbMText
 10
6347.817136505801
 20
-6659.351399417083
 30
0.0
 40
3.2
 41
0.0
 71
     5
 72
     1
  1
2-\U+22055.2
 73
     1
 44
1.0
1001
ACAD
1000
MTEXTBEGIN
1070
    73
1070
     1
1070
    44
1040
1.0
1070
    74
1070
     0
1000
MTEXTEND
  0
LINE
  5
57464
330
571CA
100
AcDbEntity
  8
AM_5
100
AcDbLine
 10
6330.443554844383
 20
-6651.437845133513
 30
0.0
 11
6334.128648233441
 21
-6655.106644216854
 31
0.0
  0
INSERT
  5
57465
330
571CA
100
AcDbEntity
  8
AM_5
100
AcDbBlockReference
  2
_Dot
 10
6330.443554844383
 20
-6651.437845133513
 30
0.0
 50
315.1269522804954
  0
INSERT
  5
57466
330
571CA
100
AcDbEntity
  8
AM_5
100
AcDbBlockReference
  2
_Dot
 10
6334.128648233441
 20
-6655.106644216854
 30
0.0
 50
135.1269522804954
  0
POINT
  5
57467
330
571CA
100
AcDbEntity
  8
Defpoints
 62
     0
100
AcDbPoint
 10
6334.128648233441
 20
-6655.106644216854
 30
0.0
  0
POINT
  5
57468
330
571CA
100
AcDbEntity
  8
Defpoints
 62
     0
100
AcDbPoint
 10
6330.443554844383
 20
-6651.437845133513
 30
0.0
  0
ENDBLK
  5
571D2
330
571CA
100
AcDbEntity
  8
0
100
AcDbBlockEnd
  0
BLOCK
  5
59CFD
330
59CF6
100
AcDbEntity
  8
0
100
AcDbBlockBegin
  2
*D24
 70
     1
 10
0.0
 20
0.0
 30
0.0
  3
*D24
  1

  0
LINE
  5
5B470
330
59CF6
100
AcDbEntity
  8
AM_5
100
AcDbLine
 10
6332.797576570273
 20
-6574.964674981929
 30
0.0
 11
6326.144243236937
 21
-6574.964674981929
 31
0.0
  0
LINE
  5
5B471
330
59CF6
100
AcDbEntity
  8
AM_5
100
AcDbLine
 10
6326.144243236937
 20
-6574.964674981929
 30
0.0
 11
6319.439504167626
 21
-6581.95455559584
 31
0.0
  0
LINE
  5
5B472
330
59CF6
100
AcDbEntity
  8
AM_5
100
AcDbLine
 10
6311.132698910197
 20
-6590.614635642537
 30
0.0
 11
6310.440465138745
 21
-6591.336308979761
 31
0.0
  0
MTEXT
  5
5B473
330
59CF6
100
AcDbEntity
  8
AM_5
 62
     2
100
AcDbMText
 10
6329.970909903607
 20
-6572.364674981926
 30
0.0
 40
3.2
 41
0.0
 71
     5
 72
     1
  1
\U+220510
 73
     1
 44
1.0
1001
ACAD
1000
MTEXTBEGIN
1070
    73
1070
     1
1070
    44
1040
1.0
1070
    74
1070
     0
1000
MTEXTEND
  0
LINE
  5
5B474
330
59CF6
100
AcDbEntity
  8
AM_5
100
AcDbLine
 10
6311.824932681649
 20
-6589.892962305312
 30
0.0
 11
6318.747270396174
 21
-6582.676228933066
 31
0.0
  0
INSERT
  5
5B475
330
59CF6
100
AcDbEntity
  8
AM_5
100
AcDbBlockReference
  2
_Dot
 10
6311.824932681649
 20
-6589.892962305312
 30
0.0
 50
46.19280762316225
  0
INSERT
  5
5B476
330
59CF6
100
AcDbEntity
  8
AM_5
100
AcDbBlockReference
  2
_Dot
 10
6318.747270396174
 20
-6582.676228933066
 30
0.0
 50
226.1928076231623
  0
POINT
  5
5B477
330
59CF6
100
AcDbEntity
  8
Defpoints
 62
     0
100
AcDbPoint
 10
6318.747270396174
 20
-6582.676228933066
 30
0.0
  0
POINT
  5
5B478
330
59CF6
100
AcDbEntity
  8
Defpoints
 62
     0
100
AcDbPoint
 10
6311.824932681649
 20
-6589.892962305312
 30
0.0
  0
ENDBLK
  5
59CFE
330
59CF6
100
AcDbEntity
  8
0
100
AcDbBlockEnd
  0
ENDSEC
  0
SECTION
  2
ENTITIES
  0
TEXT
  5
31B30
330
1F
100
AcDbEntity
  8
AM_6
 60
     1
100
AcDbText
 10
3408.785415022811
 20
1879.970675238635
 30
0.0
 40
2.5
  1
!GENTITLE-INSERT
100
AcDbText
  0
TEXT
  5
31B31
330
1F
100
AcDbEntity
  8
AM_6
 60
     1
100
AcDbText
 10
3000.285415022811
 20
1871.470675238635
 30
0.0
 40
2.5
  1
!GENTITLE-LL
100
AcDbText
  0
TEXT
  5
31B32
330
1F
100
AcDbEntity
  8
AM_6
 60
     1
100
AcDbText
 10
3420.285415022811
 20
2168.470675238635
 30
0.0
 40
2.5
  1
!GENTITLE-RU
100
AcDbText
  0
TEXT
  5
31B33
330
1F
100
AcDbEntity
  8
AM_6
 60
     1
100
AcDbText
 10
3420.285415022811
 20
2168.470675238635
 30
0.0
 40
2.5
  1
!GENTITLE-MAX
100
AcDbText
  0
TEXT
  5
31B3B
330
1F
100
AcDbEntity
  8
AM_6
 60
     1
100
AcDbText
 10
3000.285415022811
 20
1871.470675238635
 30
0.0
 40
2.5
  1
!GENTITLE-LL
100
AcDbText
  0
TEXT
  5
31B3C
330
1F
100
AcDbEntity
  8
AM_6
 60
     1
100
AcDbText
 10
3408.785415022811
 20
2159.970675238636
 30
0.0
 40
2.5
  1
!GENTITLE-RU
100
AcDbText
  0
TEXT
  5
31B3D
330
1F
100
AcDbEntity
  8
AM_6
 60
     1
100
AcDbText
 10
3420.285415022811
 20
2168.470675238635
 30
0.0
 40
2.5
  1
!GENTITLE-MAX
100
AcDbText
  0
TEXT
  5
31B3E
330
1F
100
AcDbEntity
  8
AM_6
 60
     1
100
AcDbText
 10
3408.785415022811
 20
1879.970675238635
 30
0.0
 40
2.5
  1
!GENTITLE-INSERT
100
AcDbText
  0
TEXT
  5
32D1D
330
1F
100
AcDbEntity
  8
AM_6
 60
     1
100
AcDbText
 10
3234.949399973154
 20
1839.277532086519
 30
0.0
 40
2.5
  1
!GENTITLE-INSERT
100
AcDbText
  0
TEXT
  5
32D1E
330
1F
100
AcDbEntity
  8
AM_6
 60
     1
100
AcDbText
 10
3246.449399973154
 20
2040.77753208652
 30
0.0
 40
2.5
  1
!GENTITLE-MAX
100
AcDbText
  0
TEXT
  5
32D1F
330
1F
100
AcDbEntity
  8
AM_6
 60
     1
100
AcDbText
 10
3246.449399973154
 20
2040.77753208652
 30
0.0
 40
2.5
  1
!GENTITLE-RU
100
AcDbText
  0
TEXT
  5
32D21
330
1F
100
AcDbEntity
  8
AM_6
 60
     1
100
AcDbText
 10
2949.449399973154
 20
1830.777532086519
 30
0.0
 40
2.5
  1
!GENTITLE-LL
100
AcDbText
  0
TEXT
  5
34534
330
1F
100
AcDbEntity
  8
AM_6
 60
     1
100
AcDbText
 10
3774.506320898737
 20
958.0958490755065
 30
0.0
 40
2.5
  1
!GENTITLE-INSERT
100
AcDbText
  0
TEXT
  5
34535
330
1F
100
AcDbEntity
  8
AM_6
 60
     1
100
AcDbText
 10
3786.006320898738
 20
1159.595849075506
 30
0.0
 40
2.5
  1
!GENTITLE-MAX
100
AcDbText
  0
TEXT
  5
34536
330
1F
100
AcDbEntity
  8
AM_6
 60
     1
100
AcDbText
 10
3786.006320898738
 20
1159.595849075506
 30
0.0
 40
2.5
  1
!GENTITLE-RU
100
AcDbText
  0
TEXT
  5
34538
330
1F
100
AcDbEntity
  8
AM_6
 60
     1
100
AcDbText
 10
3489.006320898738
 20
949.5958490755064
 30
0.0
 40
2.5
  1
!GENTITLE-LL
100
AcDbText
  0
LINE
  5
44410
330
1F
100
AcDbEntity
  8
AM_5
370
    13
100
AcDbLine
 10
6106.424675701049
 20
-6462.80186811054
 30
0.0
 11
6106.424675701049
 21
-6510.80186811054
 31
0.0
  0
LINE
  5
44411
330
1F
100
AcDbEntity
  8
AM_5
370
    13
100
AcDbLine
 10
6086.424675701049
 20
-6470.80186811054
 30
0.0
 11
6173.424675701049
 21
-6470.80186811054
 31
0.0
  0
LINE
  5
44412
330
1F
100
AcDbEntity
  8
AM_5
370
    13
100
AcDbLine
 10
6086.424675701049
 20
-6478.80186811054
 30
0.0
 11
6173.424675701049
 21
-6478.80186811054
 31
0.0
  0
LINE
  5
44413
330
1F
100
AcDbEntity
  8
AM_5
370
    13
100
AcDbLine
 10
6086.424675701049
 20
-6494.801868110541
 30
0.0
 11
6173.424675701049
 21
-6494.801868110541
 31
0.0
  0
LINE
  5
44414
330
1F
100
AcDbEntity
  8
AM_0
  6
中線
 48
0.5
370
    30
100
AcDbLine
 10
6086.424675701049
 20
-6510.80186811054
 30
0.0
 11
6173.424675701049
 21
-6510.80186811054
 31
0.0
  0
LINE
  5
44415
330
1F
100
AcDbEntity
  8
AM_0
  6
中線
 48
0.5
370
    30
100
AcDbLine
 10
6086.424675701049
 20
-6462.80186811054
 30
0.0
 11
6086.424675701049
 21
-6510.80186811054
 31
0.0
  0
LINE
  5
44416
330
1F
100
AcDbEntity
  8
AM_0
  6
中線
 48
0.5
370
    30
100
AcDbLine
 10
6086.424675701049
 20
-6462.80186811054
 30
0.0
 11
6173.424675701049
 21
-6462.80186811054
 31
0.0
  0
LINE
  5
44417
330
1F
100
AcDbEntity
  8
AM_0
  6
中線
 48
0.5
370
    30
100
AcDbLine
 10
6173.424675701049
 20
-6462.80186811054
 30
0.0
 11
6173.424675701049
 21
-6510.80186811054
 31
0.0
  0
TEXT
  5
44418
330
1F
100
AcDbEntity
  8
AM_6
100
AcDbText
 10
6092.08167570105
 20
-6468.401868110541
 30
0.0
 40
3.2
  1
品　名
 41
0.85537027
100
AcDbText
  0
TEXT
  5
44419
330
1F
100
AcDbEntity
  8
AM_6
100
AcDbText
 10
6092.08167570105
 20
-6476.401868110541
 30
0.0
 40
3.2
  1
品　番
 41
0.85537027
100
AcDbText
  0
TEXT
  5
4441A
330
1F
100
AcDbEntity
  8
AM_6
100
AcDbText
 10
6092.08167570105
 20
-6484.401868110541
 30
0.0
 40
3.2
  1
材　質
 41
0.85537027
100
AcDbText
  0
TEXT
  5
4441B
330
1F
100
AcDbEntity
  8
AM_6
100
AcDbText
 10
6092.08167570105
 20
-6500.40186811054
 30
0.0
 40
3.2
  1
仕上げ
 41
0.85537027
100
AcDbText
  0
TEXT
  5
4441C
330
1F
100
AcDbEntity
  8
AM_6
100
AcDbText
 10
6109.281675701049
 20
-6468.401868110541
 30
0.0
 40
3.2
  1
パチン錠
 41
0.84306961
100
AcDbText
  0
TEXT
  5
4441D
330
1F
100
AcDbEntity
  8
AM_6
100
AcDbText
 10
6109.281675701049
 20
-6476.401868110541
 30
0.0
 40
3.2
  1
ELP-123（S）
 41
0.84741102
100
AcDbText
  0
TEXT
  5
4441E
330
1F
100
AcDbEntity
  8
AM_6
100
AcDbText
 10
6109.281675701049
 20
-6484.401868110541
 30
0.0
 40
3.2
  1
スチール（ELP-123）
 41
0.84634979
100
AcDbText
  0
TEXT
  5
4441F
330
1F
100
AcDbEntity
  8
AM_6
100
AcDbText
 10
6109.281675701049
 20
-6500.40186811054
 30
0.0
 40
3.2
  1
光沢クロメート（ELP-123）
 41
0.84350122
100
AcDbText
  0
TEXT
  5
4E0E8
330
1F
100
AcDbEntity
  8
AM_6
 60
     1
100
AcDbText
 10
5957.394900433246
 20
-5651.939004350452
 30
0.0
 40
2.5
  1
!GENTITLE-INSERT
100
AcDbText
  0
TEXT
  5
4E0E9
330
1F
100
AcDbEntity
  8
AM_6
 60
     1
100
AcDbText
 10
5548.894900433246
 20
-5660.439004350451
 30
0.0
 40
2.5
  1
!GENTITLE-LL
100
AcDbText
  0
TEXT
  5
4E0EA
330
1F
100
AcDbEntity
  8
AM_6
 60
     1
100
AcDbText
 10
5968.894900433246
 20
-5363.439004350452
 30
0.0
 40
2.5
  1
!GENTITLE-RU
100
AcDbText
  0
TEXT
  5
4E0EB
330
1F
100
AcDbEntity
  8
AM_6
 60
     1
100
AcDbText
 10
5968.894900433246
 20
-5363.439004350452
 30
0.0
 40
2.5
  1
!GENTITLE-MAX
100
AcDbText
  0
TEXT
  5
4E0F3
330
1F
100
AcDbEntity
  8
AM_6
 60
     1
100
AcDbText
 10
5548.894900433246
 20
-5660.439004350451
 30
0.0
 40
2.5
  1
!GENTITLE-LL
100
AcDbText
  0
TEXT
  5
4E0F4
330
1F
100
AcDbEntity
  8
AM_6
 60
     1
100
AcDbText
 10
5957.394900433246
 20
-5371.939004350451
 30
0.0
 40
2.5
  1
!GENTITLE-RU
100
AcDbText
  0
TEXT
  5
4E0F5
330
1F
100
AcDbEntity
  8
AM_6
 60
     1
100
AcDbText
 10
5968.894900433246
 20
-5363.439004350452
 30
0.0
 40
2.5
  1
!GENTITLE-MAX
100
AcDbText
  0
TEXT
  5
4E0F6
330
1F
100
AcDbEntity
  8
AM_6
 60
     1
100
AcDbText
 10
5957.394900433246
 20
-5651.939004350452
 30
0.0
 40
2.5
  1
!GENTITLE-INSERT
100
AcDbText
  0
TEXT
  5
5183F
330
1F
100
AcDbEntity
  8
AM_6
 60
     1
100
AcDbText
 10
5973.602012689372
 20
109.7385382224183
 30
0.0
 40
2.5
  1
!GENTITLE-INSERT
100
AcDbText
  0
TEXT
  5
51840
330
1F
100
AcDbEntity
  8
AM_6
 60
     1
100
AcDbText
 10
5565.102012689372
 20
101.2385382224183
 30
0.0
 40
2.5
  1
!GENTITLE-LL
100
AcDbText
  0
TEXT
  5
51841
330
1F
100
AcDbEntity
  8
AM_6
 60
     1
100
AcDbText
 10
5985.102012689372
 20
398.2385382224184
 30
0.0
 40
2.5
  1
!GENTITLE-RU
100
AcDbText
  0
TEXT
  5
51842
330
1F
100
AcDbEntity
  8
AM_6
 60
     1
100
AcDbText
 10
5985.102012689372
 20
398.2385382224184
 30
0.0
 40
2.5
  1
!GENTITLE-MAX
100
AcDbText
  0
LINE
  5
51843
330
1F
100
AcDbEntity
  8
size
100
AcDbLine
 10
6074.924675701049
 20
-6751.301868110541
 30
0.0
 11
6494.924675701049
 21
-6751.301868110541
 31
0.0
1001
GENIUS_GENREC_14
1002
{
1000
PYDIR
1011
6074.924675701049
1021
-6454.30186811054
1031
0.0
1002
}
1002
{
1000
PXDIR
1011
6494.924675701049
1021
-6751.301868110541
1031
0.0
1002
}
1002
{
1000
PORI
1011
6074.924675701049
1021
-6751.301868110541
1031
0.0
1002
}
1002
{
1000
PINS
1011
6284.924675701049
1021
-6602.801868110541
1031
0.0
1002
}
1002
{
1000
HVAL
1000
297
1002
}
1002
{
1000
H
1070
     2
1002
}
1002
{
1000
WVAL
1000
420
1002
}
1002
{
1000
W
1070
     2
1002
}
1002
{
1000
C
1070
     4
1002
}
1001
GENIUS_GENOBJ-N-REC_13
1002
{
1000
OWNER
1000
GEN
1002
}
1001
GENIUS_GENODEF_13
1002
{
1000
HIER
1070
     0
1002
}
1002
{
1000
MANEDIT
1070
     0
1002
}
1002
{
1000
NOSEL
1070
     0
1002
}
1002
{
1000
BEHIND
1070
     0
1002
}
1002
{
1000
OTHER
1070
     0
1002
}
1002
{
1000
REACTOR
1002
}
  0
LINE
  5
51844
330
1F
100
AcDbEntity
  8
size
100
AcDbLine
 10
6494.924675701049
 20
-6751.301868110541
 30
0.0
 11
6494.924675701049
 21
-6454.30186811054
 31
0.0
1001
GENIUS_GENREC_14
1002
{
1000
PYDIR
1011
6074.924675701049
1021
-6454.30186811054
1031
0.0
1002
}
1002
{
1000
PXDIR
1011
6494.924675701049
1021
-6751.301868110541
1031
0.0
1002
}
1002
{
1000
PORI
1011
6074.924675701049
1021
-6751.301868110541
1031
0.0
1002
}
1002
{
1000
PINS
1011
6284.924675701049
1021
-6602.801868110541
1031
0.0
1002
}
1002
{
1000
HVAL
1000
297
1002
}
1002
{
1000
H
1070
     2
1002
}
1002
{
1000
WVAL
1000
420
1002
}
1002
{
1000
W
1070
     2
1002
}
1002
{
1000
C
1070
     4
1002
}
1001
GENIUS_GENOBJ-N-REC_13
1002
{
1000
OWNER
1000
GEN
1002
}
1001
GENIUS_GENODEF_13
1002
{
1000
HIER
1070
     0
1002
}
1002
{
1000
MANEDIT
1070
     0
1002
}
1002
{
1000
NOSEL
1070
     0
1002
}
1002
{
1000
BEHIND
1070
     0
1002
}
1002
{
1000
OTHER
1070
     0
1002
}
1002
{
1000
REACTOR
1002
}
  0
LINE
  5
51845
330
1F
100
AcDbEntity
  8
size
100
AcDbLine
 10
6494.924675701049
 20
-6454.30186811054
 30
0.0
 11
6074.924675701049
 21
-6454.30186811054
 31
0.0
1001
GENIUS_GENREC_14
1002
{
1000
PYDIR
1011
6074.924675701049
1021
-6454.30186811054
1031
0.0
1002
}
1002
{
1000
PXDIR
1011
6494.924675701049
1021
-6751.301868110541
1031
0.0
1002
}
1002
{
1000
PORI
1011
6074.924675701049
1021
-6751.301868110541
1031
0.0
1002
}
1002
{
1000
PINS
1011
6284.924675701049
1021
-6602.801868110541
1031
0.0
1002
}
1002
{
1000
HVAL
1000
297
1002
}
1002
{
1000
H
1070
     2
1002
}
1002
{
1000
WVAL
1000
420
1002
}
1002
{
1000
W
1070
     2
1002
}
1002
{
1000
C
1070
     4
1002
}
1001
GENIUS_GENOBJ-N-REC_13
1002
{
1000
OWNER
1000
GEN
1002
}
1001
GENIUS_GENODEF_13
1002
{
1000
HIER
1070
     0
1002
}
1002
{
1000
MANEDIT
1070
     0
1002
}
1002
{
1000
NOSEL
1070
     0
1002
}
1002
{
1000
BEHIND
1070
     0
1002
}
1002
{
1000
OTHER
1070
     0
1002
}
1002
{
1000
REACTOR
1002
}
  0
LINE
  5
51846
330
1F
100
AcDbEntity
  8
size
100
AcDbLine
 10
6074.924675701049
 20
-6454.30186811054
 30
0.0
 11
6074.924675701049
 21
-6751.301868110541
 31
0.0
1001
GENIUS_GENREC_14
1002
{
1000
PYDIR
1011
6074.924675701049
1021
-6454.30186811054
1031
0.0
1002
}
1002
{
1000
PXDIR
1011
6494.924675701049
1021
-6751.301868110541
1031
0.0
1002
}
1002
{
1000
PORI
1011
6074.924675701049
1021
-6751.301868110541
1031
0.0
1002
}
1002
{
1000
PINS
1011
6284.924675701049
1021
-6602.801868110541
1031
0.0
1002
}
1002
{
1000
HVAL
1000
297
1002
}
1002
{
1000
H
1070
     2
1002
}
1002
{
1000
WVAL
1000
420
1002
}
1002
{
1000
W
1070
     2
1002
}
1002
{
1000
C
1070
     4
1002
}
1001
GENIUS_GENOBJ-N-REC_13
1002
{
1000
OWNER
1000
GEN
1002
}
1001
GENIUS_GENODEF_13
1002
{
1000
HIER
1070
     0
1002
}
1002
{
1000
MANEDIT
1070
     0
1002
}
1002
{
1000
NOSEL
1070
     0
1002
}
1002
{
1000
BEHIND
1070
     0
1002
}
1002
{
1000
OTHER
1070
     0
1002
}
1002
{
1000
REACTOR
1002
}
  0
LINE
  5
51847
330
1F
100
AcDbEntity
  8
waku
100
AcDbLine
 10
6483.424675701049
 20
-6742.801868110539
 30
0.0
 11
6483.424675701049
 21
-6462.80186811054
 31
0.0
1001
GENIUS_GENREC_14
1002
{
1000
PYDIR
1011
6074.924675701049
1021
-6454.30186811054
1031
0.0
1002
}
1002
{
1000
PXDIR
1011
6494.924675701049
1021
-6751.301868110541
1031
0.0
1002
}
1002
{
1000
PORI
1011
6074.924675701049
1021
-6751.301868110541
1031
0.0
1002
}
1002
{
1000
PINS
1011
6284.924675701049
1021
-6602.801868110541
1031
0.0
1002
}
1002
{
1000
HVAL
1000
297
1002
}
1002
{
1000
H
1070
     2
1002
}
1002
{
1000
WVAL
1000
420
1002
}
1002
{
1000
W
1070
     2
1002
}
1002
{
1000
C
1070
     4
1002
}
1001
GENIUS_GENOBJ-N-REC_13
1002
{
1000
OWNER
1000
GEN
1002
}
1001
GENIUS_GENODEF_13
1002
{
1000
HIER
1070
     0
1002
}
1002
{
1000
MANEDIT
1070
     0
1002
}
1002
{
1000
NOSEL
1070
     0
1002
}
1002
{
1000
BEHIND
1070
     0
1002
}
1002
{
1000
OTHER
1070
     0
1002
}
1002
{
1000
REACTOR
1002
}
  0
LINE
  5
51848
330
1F
100
AcDbEntity
  8
waku
100
AcDbLine
 10
6086.424675701049
 20
-6462.80186811054
 30
0.0
 11
6086.424675701049
 21
-6742.801868110539
 31
0.0
1001
GENIUS_GENREC_14
1002
{
1000
PYDIR
1011
6074.924675701049
1021
-6454.30186811054
1031
0.0
1002
}
1002
{
1000
PXDIR
1011
6494.924675701049
1021
-6751.301868110541
1031
0.0
1002
}
1002
{
1000
PORI
1011
6074.924675701049
1021
-6751.301868110541
1031
0.0
1002
}
1002
{
1000
PINS
1011
6284.924675701049
1021
-6602.801868110541
1031
0.0
1002
}
1002
{
1000
HVAL
1000
297
1002
}
1002
{
1000
H
1070
     2
1002
}
1002
{
1000
WVAL
1000
420
1002
}
1002
{
1000
W
1070
     2
1002
}
1002
{
1000
C
1070
     4
1002
}
1001
GENIUS_GENOBJ-N-REC_13
1002
{
1000
OWNER
1000
GEN
1002
}
1001
GENIUS_GENODEF_13
1002
{
1000
HIER
1070
     0
1002
}
1002
{
1000
MANEDIT
1070
     0
1002
}
1002
{
1000
NOSEL
1070
     0
1002
}
1002
{
1000
BEHIND
1070
     0
1002
}
1002
{
1000
OTHER
1070
     0
1002
}
1002
{
1000
REACTOR
1002
}
  0
LINE
  5
51849
330
1F
100
AcDbEntity
  8
waku
100
AcDbLine
 10
6483.424675701049
 20
-6462.80186811054
 30
0.0
 11
6086.424675701049
 21
-6462.80186811054
 31
0.0
1001
GENIUS_GENREC_14
1002
{
1000
PYDIR
1011
6074.924675701049
1021
-6454.30186811054
1031
0.0
1002
}
1002
{
1000
PXDIR
1011
6494.924675701049
1021
-6751.301868110541
1031
0.0
1002
}
1002
{
1000
PORI
1011
6074.924675701049
1021
-6751.301868110541
1031
0.0
1002
}
1002
{
1000
PINS
1011
6284.924675701049
1021
-6602.801868110541
1031
0.0
1002
}
1002
{
1000
HVAL
1000
297
1002
}
1002
{
1000
H
1070
     2
1002
}
1002
{
1000
WVAL
1000
420
1002
}
1002
{
1000
W
1070
     2
1002
}
1002
{
1000
C
1070
     4
1002
}
1001
GENIUS_GENOBJ-N-REC_13
1002
{
1000
OWNER
1000
GEN
1002
}
1001
GENIUS_GENODEF_13
1002
{
1000
HIER
1070
     0
1002
}
1002
{
1000
MANEDIT
1070
     0
1002
}
1002
{
1000
NOSEL
1070
     0
1002
}
1002
{
1000
BEHIND
1070
     0
1002
}
1002
{
1000
OTHER
1070
     0
1002
}
1002
{
1000
REACTOR
1002
}
  0
TEXT
  5
5184A
330
1F
100
AcDbEntity
  8
AM_6
 60
     1
100
AcDbText
 10
5565.102012689372
 20
101.2385382224183
 30
0.0
 40
2.5
  1
!GENTITLE-LL
100
AcDbText
  0
TEXT
  5
5184B
330
1F
100
AcDbEntity
  8
AM_6
 60
     1
100
AcDbText
 10
5973.602012689372
 20
389.7385382224184
 30
0.0
 40
2.5
  1
!GENTITLE-RU
100
AcDbText
  0
TEXT
  5
5184C
330
1F
100
AcDbEntity
  8
AM_6
 60
     1
100
AcDbText
 10
5985.102012689372
 20
398.2385382224184
 30
0.0
 40
2.5
  1
!GENTITLE-MAX
100
AcDbText
  0
TEXT
  5
5184D
330
1F
100
AcDbEntity
  8
AM_6
 60
     1
100
AcDbText
 10
5973.602012689372
 20
109.7385382224183
 30
0.0
 40
2.5
  1
!GENTITLE-INSERT
100
AcDbText
  0
LINE
  5
5184E
330
1F
100
AcDbEntity
  8
waku
100
AcDbLine
 10
6086.424675701049
 20
-6742.801868110539
 30
0.0
 11
6483.424675701049
 21
-6742.801868110539
 31
0.0
  0
LINE
  5
566BC
330
1F
100
AcDbEntity
  8
AM_0
  6
中線
 48
0.5
370
    30
100
AcDbLine
 10
6243.286101538913
 20
-6662.772244675183
 30
0.0
 11
6243.286101538913
 21
-6643.772244675183
 31
0.0
  0
LINE
  5
566BD
330
1F
100
AcDbEntity
  8
AM_0
  6
中線
 48
0.5
370
    30
100
AcDbLine
 10
6246.286101538913
 20
-6640.772244675183
 30
0.0
 11
6250.786101538913
 21
-6640.772244675183
 31
0.0
  0
LINE
  5
566BE
330
1F
100
AcDbEntity
  8
AM_0
  6
中線
 48
0.5
370
    30
100
AcDbLine
 10
6269.286101538913
 20
-6663.772244675183
 30
0.0
 11
6269.286101538913
 21
-6642.772244675183
 31
0.0
  0
LINE
  5
566BF
330
1F
100
AcDbEntity
  8
AM_7
  6
中心線1
 48
0.5
370
    13
100
AcDbLine
 10
6248.286101538912
 20
-6664.872244675184
 30
0.0
 11
6248.286101538912
 21
-6655.672244675184
 31
0.0
  0
LINE
  5
566C0
330
1F
100
AcDbEntity
  8
AM_7
  6
中心線1
 48
0.5
370
    13
100
AcDbLine
 10
6243.686101538912
 20
-6660.272244675183
 30
0.0
 11
6252.886101538913
 21
-6660.272244675183
 31
0.0
  0
CIRCLE
  5
566C1
330
1F
100
AcDbEntity
  8
AM_0
  6
中線
 48
0.5
370
    30
100
AcDbCircle
 10
6248.286101538912
 20
-6646.272244675182
 30
0.0
 40
2.6
  0
CIRCLE
  5
566C2
330
1F
100
AcDbEntity
  8
AM_0
  6
中線
 48
0.5
370
    30
100
AcDbCircle
 10
6248.286101538912
 20
-6660.272244675183
 30
0.0
 40
2.6
  0
ARC
  5
566C3
330
1F
100
AcDbEntity
  8
AM_0
  6
中線
 48
0.5
370
    30
100
AcDbCircle
 10
6246.286101538913
 20
-6643.772244675183
 30
0.0
 40
3.0
100
AcDbArc
 50
90.0
 51
180.0
  0
ARC
  5
566C4
330
1F
100
AcDbEntity
  8
AM_0
  6
中線
 48
0.5
370
    30
100
AcDbCircle
 10
6246.286101538913
 20
-6662.772244675183
 30
0.0
 40
3.0
100
AcDbArc
 50
180.0
 51
270.0
  0
LINE
  5
566C5
330
1F
100
AcDbEntity
  8
AM_0
  6
中線
 48
0.5
370
    30
100
AcDbLine
 10
6258.265121538912
 20
-6642.772244675183
 30
0.0
 11
6269.286101538913
 21
-6642.772244675183
 31
0.0
  0
LINE
  5
566C6
330
1F
100
AcDbEntity
  8
AM_7
  6
中心線1
 48
0.5
370
    13
100
AcDbLine
 10
6248.286101538912
 20
-6650.872244675183
 30
0.0
 11
6248.286101538912
 21
-6641.672244675183
 31
0.0
  0
LINE
  5
566C7
330
1F
100
AcDbEntity
  8
AM_7
  6
中心線1
 48
0.5
370
    13
100
AcDbLine
 10
6243.686101538912
 20
-6646.272244675182
 30
0.0
 11
6252.886101538913
 21
-6646.272244675182
 31
0.0
  0
ARC
  5
566C8
330
1F
100
AcDbEntity
  8
AM_0
  6
中線
 48
0.5
370
    30
100
AcDbCircle
 10
6256.786101538913
 20
-6642.522244675183
 30
0.0
 40
1.5
100
AcDbArc
 50
239.8532530000095
 51
350.4059320000048
  0
LINE
  5
566C9
330
1F
100
AcDbEntity
  8
AM_0
  6
中線
 48
0.5
370
    30
100
AcDbLine
 10
6250.786101538913
 20
-6640.772244675183
 30
0.0
 11
6256.032776538913
 21
-6643.819357675183
 31
0.0
  0
LINE
  5
566CA
330
1F
100
AcDbEntity
  8
AM_0
  6
中線
 48
0.5
370
    30
100
AcDbLine
 10
6246.286101538913
 20
-6665.772244675183
 30
0.0
 11
6250.786101538913
 21
-6665.772244675183
 31
0.0
  0
LINE
  5
566CB
330
1F
100
AcDbEntity
  8
AM_0
  6
中線
 48
0.5
370
    30
100
AcDbLine
 10
6250.786101538913
 20
-6665.772244675183
 30
0.0
 11
6256.032776538913
 21
-6662.725131675182
 31
0.0
  0
ARC
  5
566CC
330
1F
100
AcDbEntity
  8
AM_0
  6
中線
 48
0.5
370
    30
100
AcDbCircle
 10
6256.786101538913
 20
-6664.022244675184
 30
0.0
 40
1.5
100
AcDbArc
 50
9.594067999995205
 51
120.1467469999905
  0
LINE
  5
566CD
330
1F
100
AcDbEntity
  8
AM_0
  6
中線
 48
0.5
370
    30
100
AcDbLine
 10
6258.265121538912
 20
-6663.772244675183
 30
0.0
 11
6269.286101538913
 21
-6663.772244675183
 31
0.0
  0
LINE
  5
566CF
330
1F
100
AcDbEntity
  8
AM_0
  6
中線
 48
0.5
370
    30
100
AcDbLine
 10
6254.786101538912
 20
-6643.095325675183
 30
0.0
 11
6254.786101538912
 21
-6640.272244675184
 31
0.0
  0
LINE
  5
566D0
330
1F
100
AcDbEntity
  8
AM_0
  6
中線
 48
0.5
370
    30
100
AcDbLine
 10
6254.786101538912
 20
-6638.272244675182
 30
0.0
 11
6258.786101538913
 21
-6638.272244675182
 31
0.0
  0
LINE
  5
566D1
330
1F
100
AcDbEntity
  8
AM_0
  6
中線
 48
0.5
370
    30
100
AcDbLine
 10
6253.286101538913
 20
-6638.772244675184
 30
0.0
 11
6261.286101538913
 21
-6638.772244675184
 31
0.0
  0
LINE
  5
566D2
330
1F
100
AcDbEntity
  8
AM_0
  6
中線
 48
0.5
370
    30
100
AcDbLine
 10
6253.286101538913
 20
-6640.272244675184
 30
0.0
 11
6253.286101538913
 21
-6638.772244675184
 31
0.0
  0
LINE
  5
566D3
330
1F
100
AcDbEntity
  8
AM_0
  6
中線
 48
0.5
370
    30
100
AcDbLine
 10
6253.286101538913
 20
-6640.272244675184
 30
0.0
 11
6261.286101538913
 21
-6640.272244675184
 31
0.0
  0
ARC
  5
566D4
330
1F
100
AcDbEntity
  8
AM_0
  6
中線
 48
0.5
370
    30
100
AcDbCircle
 10
6261.286101538913
 20
-6638.272244675182
 30
0.0
 40
2.0
100
AcDbArc
 50
270.0
 51
0.0
  0
ARC
  5
566D5
330
1F
100
AcDbEntity
  8
AM_0
  6
中線
 48
0.5
370
    30
100
AcDbCircle
 10
6261.286101538913
 20
-6638.272244675182
 30
0.0
 40
0.5
100
AcDbArc
 50
270.0
 51
0.0
  0
LINE
  5
566D6
330
1F
100
AcDbEntity
  8
AM_0
  6
中線
 48
0.5
370
    30
100
AcDbLine
 10
6258.786101538913
 20
-6642.772244675183
 30
0.0
 11
6258.786101538913
 21
-6640.272244675184
 31
0.0
  0
LINE
  5
566D7
330
1F
100
AcDbEntity
  8
AM_0
  6
中線
 48
0.5
370
    30
100
AcDbLine
 10
6254.786101538912
 20
-6638.772244675184
 30
0.0
 11
6254.786101538912
 21
-6638.272244675182
 31
0.0
  0
LINE
  5
566D8
330
1F
100
AcDbEntity
  8
AM_0
  6
中線
 48
0.5
370
    30
100
AcDbLine
 10
6258.786101538913
 20
-6638.772244675184
 30
0.0
 11
6258.786101538913
 21
-6638.272244675182
 31
0.0
  0
LINE
  5
566D9
330
1F
100
AcDbEntity
  8
AM_7
  6
中心線1
 48
0.5
370
    13
100
AcDbLine
 10
6240.286101538913
 20
-6653.272244675183
 30
0.0
 11
6340.786101538913
 21
-6653.272244675183
 31
0.0
  0
LINE
  5
566DB
330
1F
100
AcDbEntity
  8
AM_7
  6
中心線1
 48
0.5
370
    13
100
AcDbLine
 10
6293.286101538913
 20
-6657.872244675184
 30
0.0
 11
6293.286101538913
 21
-6648.672244675182
 31
0.0
  0
LINE
  5
566DC
330
1F
100
AcDbEntity
  8
AM_7
  6
中心線1
 48
0.5
370
    13
100
AcDbLine
 10
6332.286101538913
 20
-6657.872244675184
 30
0.0
 11
6332.286101538913
 21
-6648.672244675182
 31
0.0
  0
CIRCLE
  5
566DD
330
1F
100
AcDbEntity
  8
AM_0
  6
中線
 48
0.5
370
    30
100
AcDbCircle
 10
6293.286101538913
 20
-6653.272244675183
 30
0.0
 40
2.6
  0
CIRCLE
  5
566DE
330
1F
100
AcDbEntity
  8
AM_0
  6
中線
 48
0.5
370
    30
100
AcDbCircle
 10
6332.286101538913
 20
-6653.272244675183
 30
0.0
 40
2.6
  0
ARC
  5
566DF
330
1F
100
AcDbEntity
  8
AM_0
  6
中線
 48
0.5
370
    30
100
AcDbCircle
 10
6332.286101538913
 20
-6653.272244675183
 30
0.0
 40
5.5
100
AcDbArc
 50
180.0
 51
2.361689000001797
  0
LINE
  5
566E0
330
1F
100
AcDbEntity
  8
AM_0
  6
中線
 48
0.5
370
    30
100
AcDbLine
 10
6273.286101538912
 20
-6644.772244675184
 30
0.0
 11
6289.786101538912
 21
-6644.772244675184
 31
0.0
  0
LINE
  5
566E1
330
1F
100
AcDbEntity
  8
AM_0
  6
中線
 48
0.5
370
    30
100
AcDbLine
 10
6273.286101538912
 20
-6661.772244675183
 30
0.0
 11
6289.786101538912
 21
-6661.772244675183
 31
0.0
  0
LINE
  5
566E2
330
1F
100
AcDbEntity
  8
AM_0
  6
中線
 48
0.5
370
    30
100
AcDbLine
 10
6295.441396538913
 20
-6640.272244675184
 30
0.0
 11
6303.286101538913
 21
-6640.272244675184
 31
0.0
  0
LINE
  5
566E3
330
1F
100
AcDbEntity
  8
AM_0
  6
中線
 48
0.5
370
    30
100
AcDbLine
 10
6295.441396538913
 20
-6641.772244675184
 30
0.0
 11
6303.286101538913
 21
-6641.772244675184
 31
0.0
  0
LINE
  5
566E4
330
1F
100
AcDbEntity
  8
AM_0
  6
中線
 48
0.5
370
    30
100
AcDbLine
 10
6296.786101538913
 20
-6661.772244675183
 30
0.0
 11
6296.786101538913
 21
-6661.127815675183
 31
0.0
  0
LINE
  5
566E5
330
1F
100
AcDbEntity
  8
AM_0
  6
中線
 48
0.5
370
    30
100
AcDbLine
 10
6303.286101538913
 20
-6641.772244675184
 30
0.0
 11
6303.286101538913
 21
-6640.272244675184
 31
0.0
  0
LINE
  5
566E6
330
1F
100
AcDbEntity
  8
AM_0
  6
中線
 48
0.5
370
    30
100
AcDbLine
 10
6300.786101538912
 20
-6661.772244675183
 30
0.0
 11
6300.786101538912
 21
-6657.480569675183
 31
0.0
  0
LINE
  5
566E7
330
1F
100
AcDbEntity
  8
AM_0
  6
中線
 48
0.5
370
    30
100
AcDbLine
 10
6297.036101538913
 20
-6639.772244675183
 30
0.0
 11
6300.536101538913
 21
-6639.772244675183
 31
0.0
  0
LINE
  5
566E8
330
1F
100
AcDbEntity
  8
AM_0
  6
中線
 48
0.5
370
    30
100
AcDbLine
 10
6300.536101538913
 20
-6640.272244675184
 30
0.0
 11
6300.536101538913
 21
-6639.772244675183
 31
0.0
  0
LINE
  5
566E9
330
1F
100
AcDbEntity
  8
AM_0
  6
中線
 48
0.5
370
    30
100
AcDbLine
 10
6297.036101538913
 20
-6640.272244675184
 30
0.0
 11
6297.036101538913
 21
-6639.772244675183
 31
0.0
  0
ARC
  5
566EA
330
1F
100
AcDbEntity
  8
AM_0
  6
中線
 48
0.5
370
    30
100
AcDbCircle
 10
6295.441396538913
 20
-6639.772244675183
 30
0.0
 40
2.0
100
AcDbArc
 50
235.4914769999885
 51
270.0
  0
ARC
  5
566EB
330
1F
100
AcDbEntity
  8
AM_0
  6
中線
 48
0.5
370
    30
100
AcDbCircle
 10
6295.441396538913
 20
-6639.772244675183
 30
0.0
 40
0.5
100
AcDbArc
 50
235.4914769999885
 51
270.0
  0
LINE
  5
566EC
330
1F
100
AcDbEntity
  8
AM_0
  6
中線
 48
0.5
370
    30
100
AcDbLine
 10
6271.286101538913
 20
-6663.772244675183
 30
0.0
 11
6271.286101538913
 21
-6642.772244675183
 31
0.0
  0
LINE
  5
566ED
330
1F
100
AcDbEntity
  8
AM_0
  6
中線
 48
0.5
370
    30
100
AcDbLine
 10
6271.286101538913
 20
-6642.772244675183
 30
0.0
 11
6306.286101538912
 21
-6642.772244675183
 31
0.0
  0
LINE
  5
566EE
330
1F
100
AcDbEntity
  8
AM_0
  6
中線
 48
0.5
370
    30
100
AcDbLine
 10
6273.286101538912
 20
-6663.772244675183
 30
0.0
 11
6273.286101538912
 21
-6642.772244675183
 31
0.0
  0
LINE
  5
566EF
330
1F
100
AcDbEntity
  8
AM_0
  6
中線
 48
0.5
370
    30
100
AcDbLine
 10
6306.286101538912
 20
-6644.772244675184
 30
0.0
 11
6306.286101538912
 21
-6642.772244675183
 31
0.0
  0
LINE
  5
566F0
330
1F
100
AcDbEntity
  8
AM_0
  6
中線
 48
0.5
370
    30
100
AcDbLine
 10
6289.786101538912
 20
-6644.772244675184
 30
0.0
 11
6289.786101538912
 21
-6642.772244675183
 31
0.0
  0
LINE
  5
566F1
330
1F
100
AcDbEntity
  8
AM_0
  6
中線
 48
0.5
370
    30
100
AcDbLine
 10
6294.786101538913
 20
-6644.772244675184
 30
0.0
 11
6294.786101538913
 21
-6642.772244675183
 31
0.0
  0
LINE
  5
566F3
330
1F
100
AcDbEntity
  8
AM_0
  6
中線
 48
0.5
370
    30
100
AcDbLine
 10
6280.786101538913
 20
-6645.772244675183
 30
0.0
 11
6288.786101538913
 21
-6645.772244675183
 31
0.0
  0
ARC
  5
566F4
330
1F
100
AcDbEntity
  8
AM_0
  6
中線
 48
0.5
370
    30
100
AcDbCircle
 10
6280.786101538913
 20
-6644.772244675184
 30
0.0
 40
1.0
100
AcDbArc
 50
180.0
 51
270.0
  0
ARC
  5
566F5
330
1F
100
AcDbEntity
  8
AM_0
  6
中線
 48
0.5
370
    30
100
AcDbCircle
 10
6288.786101538913
 20
-6644.772244675184
 30
0.0
 40
1.0
100
AcDbArc
 50
270.0
 51
0.0
  0
ARC
  5
566F6
330
1F
100
AcDbEntity
  8
AM_0
  6
中線
 48
0.5
370
    30
100
AcDbCircle
 10
6329.786101538912
 20
-6652.772244675183
 30
0.0
 40
8.0
100
AcDbArc
 50
358.0418339999754
 51
90.0
  0
LINE
  5
566F7
330
1F
100
AcDbEntity
  8
AM_0
  6
中線
 48
0.5
370
    30
100
AcDbLine
 10
6301.886101538912
 20
-6651.772244675183
 30
0.0
 11
6307.286101538913
 21
-6651.772244675183
 31
0.0
  0
LINE
  5
566F8
330
1F
100
AcDbEntity
  8
AM_0
  6
中線
 48
0.5
370
    30
100
AcDbLine
 10
6307.286101538913
 20
-6654.772244675183
 30
0.0
 11
6323.286101538912
 21
-6654.772244675183
 31
0.0
  0
LINE
  5
566F9
330
1F
100
AcDbEntity
  8
AM_0
  6
中線
 48
0.5
370
    30
100
AcDbLine
 10
6323.286101538912
 20
-6651.772244675183
 30
0.0
 11
6326.786101538913
 21
-6651.772244675183
 31
0.0
  0
LINE
  5
566FA
330
1F
100
AcDbEntity
  8
AM_7
  6
中心線1
 48
0.5
370
    13
100
AcDbLine
 10
6315.286101538912
 20
-6648.772244675183
 30
0.0
 11
6315.286101538912
 21
-6657.772244675183
 31
0.0
  0
ARC
  5
566FB
330
1F
100
AcDbEntity
  8
AM_0
  6
中線
 48
0.5
370
    30
100
AcDbCircle
 10
6293.286101538913
 20
-6653.272244675183
 30
0.0
 40
8.599999999999999
100
AcDbArc
 50
280.0448259999935
 51
0.0
  0
LINE
  5
566FC
330
1F
100
AcDbEntity
  8
AM_0
  6
中線
 48
0.5
370
    30
100
AcDbLine
 10
6271.286101538913
 20
-6663.772244675183
 30
0.0
 11
6306.286101538912
 21
-6663.772244675183
 31
0.0
  0
LINE
  5
566FD
330
1F
100
AcDbEntity
  8
AM_0
  6
中線
 48
0.5
370
    30
100
AcDbLine
 10
6289.786101538912
 20
-6661.772244675183
 30
0.0
 11
6289.786101538912
 21
-6663.772244675183
 31
0.0
  0
ARC
  5
566FE
330
1F
100
AcDbEntity
  8
AM_0
  6
中線
 48
0.5
370
    30
100
AcDbCircle
 10
6288.786101538913
 20
-6661.772244675183
 30
0.0
 40
1.0
100
AcDbArc
 50
0.0
 51
90.0
  0
LINE
  5
566FF
330
1F
100
AcDbEntity
  8
AM_0
  6
中線
 48
0.5
370
    30
100
AcDbLine
 10
6280.786101538913
 20
-6660.772244675183
 30
0.0
 11
6288.786101538913
 21
-6660.772244675183
 31
0.0
  0
ARC
  5
56700
330
1F
100
AcDbEntity
  8
AM_0
  6
中線
 48
0.5
370
    30
100
AcDbCircle
 10
6280.786101538913
 20
-6661.772244675183
 30
0.0
 40
1.0
100
AcDbArc
 50
90.0
 51
180.0
  0
LINE
  5
56701
330
1F
100
AcDbEntity
  8
AM_0
  6
中線
 48
0.5
370
    30
100
AcDbLine
 10
6294.786101538913
 20
-6661.772244675183
 30
0.0
 11
6294.786101538913
 21
-6663.772244675183
 31
0.0
  0
LINE
  5
56702
330
1F
100
AcDbEntity
  8
AM_0
  6
中線
 48
0.5
370
    30
100
AcDbLine
 10
6294.786101538913
 20
-6644.772244675184
 30
0.0
 11
6329.786101538912
 21
-6644.772244675184
 31
0.0
  0
LINE
  5
56703
330
1F
100
AcDbEntity
  8
AM_0
  6
中線
 48
0.5
370
    30
100
AcDbLine
 10
6294.786101538913
 20
-6661.772244675183
 30
0.0
 11
6328.286101538913
 21
-6661.772244675183
 31
0.0
  0
ARC
  5
56704
330
1F
100
AcDbEntity
  8
AM_0
  6
中線
 48
0.5
370
    30
100
AcDbCircle
 10
6328.286101538913
 20
-6653.272244675183
 30
0.0
 40
8.5
100
AcDbArc
 50
270.0
 51
328.5330239999855
  0
LINE
  5
56705
330
1F
100
AcDbEntity
  8
AM_0
  6
中線
 48
0.5
370
    30
100
AcDbLine
 10
6306.286101538912
 20
-6663.772244675183
 30
0.0
 11
6306.286101538912
 21
-6661.772244675183
 31
0.0
  0
LINE
  5
56706
330
1F
100
AcDbEntity
  8
AM_0
  6
中線
 48
0.5
370
    30
100
AcDbLine
 10
6300.786101538912
 20
-6642.772244675183
 30
0.0
 11
6300.786101538912
 21
-6641.772244675184
 31
0.0
  0
LINE
  5
56707
330
1F
100
AcDbEntity
  8
AM_0
  6
中線
 48
0.5
370
    30
100
AcDbLine
 10
6296.786101538913
 20
-6642.772244675183
 30
0.0
 11
6296.786101538913
 21
-6641.772244675184
 31
0.0
  0
LINE
  5
56708
330
1F
100
AcDbEntity
  8
AM_0
  6
中線
 48
0.5
370
    30
100
AcDbLine
 10
6295.441396538913
 20
-6666.272244675183
 30
0.0
 11
6303.286101538913
 21
-6666.272244675183
 31
0.0
  0
LINE
  5
56709
330
1F
100
AcDbEntity
  8
AM_0
  6
中線
 48
0.5
370
    30
100
AcDbLine
 10
6295.441396538913
 20
-6664.772244675183
 30
0.0
 11
6303.286101538913
 21
-6664.772244675183
 31
0.0
  0
LINE
  5
5670A
330
1F
100
AcDbEntity
  8
AM_0
  6
中線
 48
0.5
370
    30
100
AcDbLine
 10
6297.036101538913
 20
-6666.772244675184
 30
0.0
 11
6300.536101538913
 21
-6666.772244675184
 31
0.0
  0
ARC
  5
5670B
330
1F
100
AcDbEntity
  8
AM_0
  6
中線
 48
0.5
370
    30
100
AcDbCircle
 10
6295.441396538913
 20
-6666.772244675184
 30
0.0
 40
0.5
100
AcDbArc
 50
90.0
 51
124.5085230000115
  0
ARC
  5
5670C
330
1F
100
AcDbEntity
  8
AM_0
  6
中線
 48
0.5
370
    30
100
AcDbCircle
 10
6295.441396538913
 20
-6666.772244675184
 30
0.0
 40
2.0
100
AcDbArc
 50
90.0
 51
124.5085230000115
  0
LINE
  5
5670D
330
1F
100
AcDbEntity
  8
AM_0
  6
中線
 48
0.5
370
    30
100
AcDbLine
 10
6296.786101538913
 20
-6663.772244675183
 30
0.0
 11
6296.786101538913
 21
-6664.772244675183
 31
0.0
  0
LINE
  5
5670E
330
1F
100
AcDbEntity
  8
AM_0
  6
中線
 48
0.5
370
    30
100
AcDbLine
 10
6297.036101538913
 20
-6666.272244675183
 30
0.0
 11
6297.036101538913
 21
-6666.772244675184
 31
0.0
  0
LINE
  5
5670F
330
1F
100
AcDbEntity
  8
AM_0
  6
中線
 48
0.5
370
    30
100
AcDbLine
 10
6300.786101538912
 20
-6663.772244675183
 30
0.0
 11
6300.786101538912
 21
-6664.772244675183
 31
0.0
  0
LINE
  5
56710
330
1F
100
AcDbEntity
  8
AM_0
  6
中線
 48
0.5
370
    30
100
AcDbLine
 10
6300.536101538913
 20
-6666.272244675183
 30
0.0
 11
6300.536101538913
 21
-6666.772244675184
 31
0.0
  0
LINE
  5
56711
330
1F
100
AcDbEntity
  8
AM_0
  6
中線
 48
0.5
370
    30
100
AcDbLine
 10
6303.286101538913
 20
-6664.772244675183
 30
0.0
 11
6303.286101538913
 21
-6666.272244675183
 31
0.0
  0
LINE
  5
56712
330
1F
100
AcDbEntity
  8
AM_0
  6
中線
 48
0.5
370
    30
100
AcDbLine
 10
6253.286101538913
 20
-6667.772244675183
 30
0.0
 11
6261.286101538913
 21
-6667.772244675183
 31
0.0
  0
LINE
  5
56713
330
1F
100
AcDbEntity
  8
AM_0
  6
中線
 48
0.5
370
    30
100
AcDbLine
 10
6253.286101538913
 20
-6666.272244675183
 30
0.0
 11
6261.286101538913
 21
-6666.272244675183
 31
0.0
  0
LINE
  5
56714
330
1F
100
AcDbEntity
  8
AM_0
  6
中線
 48
0.5
370
    30
100
AcDbLine
 10
6258.786101538913
 20
-6667.772244675183
 30
0.0
 11
6258.786101538913
 21
-6668.272244675184
 31
0.0
  0
LINE
  5
56715
330
1F
100
AcDbEntity
  8
AM_0
  6
中線
 48
0.5
370
    30
100
AcDbLine
 10
6254.786101538912
 20
-6667.772244675183
 30
0.0
 11
6254.786101538912
 21
-6668.272244675184
 31
0.0
  0
LINE
  5
56716
330
1F
100
AcDbEntity
  8
AM_0
  6
中線
 48
0.5
370
    30
100
AcDbLine
 10
6254.786101538912
 20
-6663.449163675183
 30
0.0
 11
6254.786101538912
 21
-6666.272244675183
 31
0.0
  0
LINE
  5
56717
330
1F
100
AcDbEntity
  8
AM_0
  6
中線
 48
0.5
370
    30
100
AcDbLine
 10
6253.286101538913
 20
-6666.272244675183
 30
0.0
 11
6253.286101538913
 21
-6667.772244675183
 31
0.0
  0
LINE
  5
56718
330
1F
100
AcDbEntity
  8
AM_0
  6
中線
 48
0.5
370
    30
100
AcDbLine
 10
6258.786101538913
 20
-6663.772244675183
 30
0.0
 11
6258.786101538913
 21
-6666.272244675183
 31
0.0
  0
LINE
  5
56719
330
1F
100
AcDbEntity
  8
AM_0
  6
中線
 48
0.5
370
    30
100
AcDbLine
 10
6254.786101538912
 20
-6668.272244675184
 30
0.0
 11
6258.786101538913
 21
-6668.272244675184
 31
0.0
  0
ARC
  5
5671A
330
1F
100
AcDbEntity
  8
AM_0
  6
中線
 48
0.5
370
    30
100
AcDbCircle
 10
6261.286101538913
 20
-6668.272244675184
 30
0.0
 40
0.5
100
AcDbArc
 50
0.0
 51
90.0
  0
ARC
  5
5671B
330
1F
100
AcDbEntity
  8
AM_0
  6
中線
 48
0.5
370
    30
100
AcDbCircle
 10
6261.286101538913
 20
-6668.272244675184
 30
0.0
 40
2.0
100
AcDbArc
 50
0.0
 51
90.0
  0
LINE
  5
5671C
330
1F
100
AcDbEntity
  8
AM_0
  6
中線
 48
0.5
370
    30
100
AcDbLine
 10
6289.171778538912
 20
-6549.991732114889
 30
0.0
 11
6289.171778538912
 21
-6551.491732114889
 31
0.0
  0
ARC
  5
5671D
330
1F
100
AcDbEntity
  8
AM_0
  6
中線
 48
0.5
370
    30
100
AcDbCircle
 10
6263.786101538912
 20
-6549.491732114891
 30
0.0
 40
2.0
100
AcDbArc
 50
180.0
 51
270.0
  0
LINE
  5
5671E
330
1F
100
AcDbEntity
  8
AM_0
  6
中線
 48
0.5
370
    30
100
AcDbLine
 10
6263.786101538912
 20
-6551.491732114889
 30
0.0
 11
6268.657440538913
 21
-6551.491732114889
 31
0.0
  0
LINE
  5
5671F
330
1F
100
AcDbEntity
  8
AM_0
  6
中線
 48
0.5
370
    30
100
AcDbLine
 10
6263.786101538912
 20
-6549.991732114889
 30
0.0
 11
6268.657440538913
 21
-6549.991732114889
 31
0.0
  0
LINE
  5
56720
330
1F
100
AcDbEntity
  8
AM_0
  6
中線
 48
0.5
370
    30
100
AcDbLine
 10
6295.091405538913
 20
-6544.384652114891
 30
0.0
 11
6288.835484119154
 21
-6549.545191095664
 31
0.0
  0
LINE
  5
56721
330
1F
100
AcDbEntity
  8
AM_0
  6
中線
 48
0.5
370
    30
100
AcDbLine
 10
6294.308335538913
 20
-6543.09365011489
 30
0.0
 11
6287.85908371644
 21
-6548.40375041601
 31
0.0
  0
LINE
  5
56723
330
1F
100
AcDbEntity
  8
AM_0
  6
中線
 48
0.5
370
    30
100
AcDbLine
 10
6271.286101538913
 20
-6541.74173211489
 30
0.0
 11
6306.286101538912
 21
-6541.74173211489
 31
0.0
  0
LINE
  5
56724
330
1F
100
AcDbEntity
  8
AM_0
  6
中線
 48
0.5
370
    30
100
AcDbLine
 10
6271.286101538913
 20
-6520.741732114891
 30
0.0
 11
6306.286101538912
 21
-6520.741732114891
 31
0.0
  0
LINE
  5
56725
330
1F
100
AcDbEntity
  8
AM_0
  6
中線
 48
0.5
370
    30
100
AcDbLine
 10
6294.308335538913
 20
-6519.389814114891
 30
0.0
 11
6287.925801443243
 21
-6514.134646979808
 31
0.0
  0
LINE
  5
56726
330
1F
100
AcDbEntity
  8
AM_0
  6
中線
 48
0.5
370
    30
100
AcDbLine
 10
6295.091405538913
 20
-6518.098812114891
 30
0.0
 11
6288.708876331032
 21
-6512.84365050138
 31
0.0
  0
LINE
  5
56727
330
1F
100
AcDbEntity
  8
AM_0
  6
中線
 48
0.5
370
    30
100
AcDbLine
 10
6279.525982538913
 20
-6516.89990011489
 30
0.0
 11
6280.175429538913
 21
-6513.99173211489
 31
0.0
  0
LINE
  5
56728
330
1F
100
AcDbEntity
  8
AM_0
  6
中線
 48
0.5
370
    30
100
AcDbLine
 10
6263.786101538912
 20
-6510.991732114892
 30
0.0
 11
6268.657440538913
 21
-6510.991732114892
 31
0.0
  0
LINE
  5
56729
330
1F
100
AcDbEntity
  8
AM_0
  6
中線
 48
0.5
370
    30
100
AcDbLine
 10
6263.786101538912
 20
-6512.49173211489
 30
0.0
 11
6268.657440538913
 21
-6512.49173211489
 31
0.0
  0
LINE
  5
5672A
330
1F
100
AcDbEntity
  8
AM_0
  6
中線
 48
0.5
370
    30
100
AcDbLine
 10
6253.286101538913
 20
-6544.24173211489
 30
0.0
 11
6261.286101538913
 21
-6544.24173211489
 31
0.0
  0
LINE
  5
5672B
330
1F
100
AcDbEntity
  8
AM_0
  6
中線
 48
0.5
370
    30
100
AcDbLine
 10
6253.286101538913
 20
-6545.74173211489
 30
0.0
 11
6261.286101538913
 21
-6545.74173211489
 31
0.0
  0
LINE
  5
5672C
330
1F
100
AcDbEntity
  8
AM_0
  6
中線
 48
0.5
370
    30
100
AcDbLine
 10
6253.286101538913
 20
-6516.741732114891
 30
0.0
 11
6261.286101538913
 21
-6516.741732114891
 31
0.0
  0
LINE
  5
5672D
330
1F
100
AcDbEntity
  8
AM_0
  6
中線
 48
0.5
370
    30
100
AcDbLine
 10
6253.286101538913
 20
-6518.241732114891
 30
0.0
 11
6261.286101538913
 21
-6518.241732114891
 31
0.0
  0
LINE
  5
5672E
330
1F
100
AcDbEntity
  8
AM_0
  6
中線
 48
0.5
370
    30
100
AcDbLine
 10
6255.286101538913
 20
-6541.74173211489
 30
0.0
 11
6269.286101538913
 21
-6541.74173211489
 31
0.0
  0
LINE
  5
5672F
330
1F
100
AcDbEntity
  8
AM_0
  6
中線
 48
0.5
370
    30
100
AcDbLine
 10
6255.286101538913
 20
-6520.741732114891
 30
0.0
 11
6269.286101538913
 21
-6520.741732114891
 31
0.0
  0
LINE
  5
56732
330
1F
100
AcDbEntity
  8
AM_0
  6
中線
 48
0.5
370
    30
100
AcDbLine
 10
6243.286101538913
 20
-6540.741732114891
 30
0.0
 11
6243.286101538913
 21
-6521.74173211489
 31
0.0
  0
ARC
  5
56733
330
1F
100
AcDbEntity
  8
AM_0
  6
中線
 48
0.5
370
    30
100
AcDbCircle
 10
6246.286101538913
 20
-6540.741732114891
 30
0.0
 40
3.0
100
AcDbArc
 50
180.0
 51
270.0
  0
CIRCLE
  5
56735
330
1F
100
AcDbEntity
  8
AM_0
  6
中線
 48
0.5
370
    30
100
AcDbCircle
 10
6248.286101538912
 20
-6538.24173211489
 30
0.0
 40
2.5
  0
LINE
  5
56736
330
1F
100
AcDbEntity
  8
AM_0
  6
中線
 48
0.5
370
    30
100
AcDbLine
 10
6250.786101538913
 20
-6543.74173211489
 30
0.0
 11
6254.786101538912
 21
-6541.418651114891
 31
0.0
  0
LINE
  5
56737
330
1F
100
AcDbEntity
  8
AM_0
  6
中線
 48
0.5
370
    30
100
AcDbLine
 10
6246.286101538913
 20
-6543.74173211489
 30
0.0
 11
6250.786101538913
 21
-6543.74173211489
 31
0.0
  0
LINE
  5
56738
330
1F
100
AcDbEntity
  8
AM_0
  6
中線
 48
0.5
370
    30
100
AcDbLine
 10
6253.286101538913
 20
-6544.24173211489
 30
0.0
 11
6253.286101538913
 21
-6545.74173211489
 31
0.0
  0
LINE
  5
56739
330
1F
100
AcDbEntity
  8
AM_0
  6
中線
 48
0.5
370
    30
100
AcDbLine
 10
6254.786101538912
 20
-6546.24173211489
 30
0.0
 11
6258.786101538913
 21
-6546.24173211489
 31
0.0
  0
LINE
  5
5673A
330
1F
100
AcDbEntity
  8
AM_0
  6
中線
 48
0.5
370
    30
100
AcDbLine
 10
6254.786101538912
 20
-6545.74173211489
 30
0.0
 11
6254.786101538912
 21
-6546.24173211489
 31
0.0
  0
LINE
  5
5673B
330
1F
100
AcDbEntity
  8
AM_0
  6
中線
 48
0.5
370
    30
100
AcDbLine
 10
6258.786101538913
 20
-6545.74173211489
 30
0.0
 11
6258.786101538913
 21
-6546.24173211489
 31
0.0
  0
LINE
  5
5673C
330
1F
100
AcDbEntity
  8
AM_0
  6
中線
 48
0.5
370
    30
100
AcDbLine
 10
6258.786101538913
 20
-6541.74173211489
 30
0.0
 11
6258.786101538913
 21
-6544.24173211489
 31
0.0
  0
ARC
  5
5673E
330
1F
100
AcDbEntity
  8
AM_0
  6
中線
 48
0.5
370
    30
100
AcDbCircle
 10
6246.286101538913
 20
-6521.74173211489
 30
0.0
 40
3.0
100
AcDbArc
 50
90.0
 51
180.0
  0
LINE
  5
5673F
330
1F
100
AcDbEntity
  8
AM_0
  6
中線
 48
0.5
370
    30
100
AcDbLine
 10
6258.786101538913
 20
-6516.741732114891
 30
0.0
 11
6258.786101538913
 21
-6516.241732114891
 31
0.0
  0
LINE
  5
56740
330
1F
100
AcDbEntity
  8
AM_0
  6
中線
 48
0.5
370
    30
100
AcDbLine
 10
6254.786101538912
 20
-6516.741732114891
 30
0.0
 11
6254.786101538912
 21
-6516.241732114891
 31
0.0
  0
LINE
  5
56741
330
1F
100
AcDbEntity
  8
AM_0
  6
中線
 48
0.5
370
    30
100
AcDbLine
 10
6250.786101538913
 20
-6518.741732114889
 30
0.0
 11
6254.786101538912
 21
-6521.06481311489
 31
0.0
  0
CIRCLE
  5
56743
330
1F
100
AcDbEntity
  8
AM_0
  6
中線
 48
0.5
370
    30
100
AcDbCircle
 10
6248.286101538912
 20
-6524.241732114891
 30
0.0
 40
2.5
  0
LINE
  5
56744
330
1F
100
AcDbEntity
  8
AM_0
  6
中線
 48
0.5
370
    30
100
AcDbLine
 10
6246.286101538913
 20
-6518.741732114889
 30
0.0
 11
6250.786101538913
 21
-6518.741732114889
 31
0.0
  0
LINE
  5
56745
330
1F
100
AcDbEntity
  8
AM_0
  6
中線
 48
0.5
370
    30
100
AcDbLine
 10
6254.786101538912
 20
-6544.24173211489
 30
0.0
 11
6254.786101538912
 21
-6518.241732114891
 31
0.0
  0
LINE
  5
56746
330
1F
100
AcDbEntity
  8
AM_0
  6
中線
 48
0.5
370
    30
100
AcDbLine
 10
6253.286101538913
 20
-6518.241732114891
 30
0.0
 11
6253.286101538913
 21
-6516.741732114891
 31
0.0
  0
LINE
  5
56747
330
1F
100
AcDbEntity
  8
AM_0
  6
中線
 48
0.5
370
    30
100
AcDbLine
 10
6258.786101538913
 20
-6520.741732114891
 30
0.0
 11
6258.786101538913
 21
-6518.241732114891
 31
0.0
  0
LINE
  5
56748
330
1F
100
AcDbEntity
  8
AM_0
  6
中線
 48
0.5
370
    30
100
AcDbLine
 10
6254.786101538912
 20
-6516.241732114891
 30
0.0
 11
6258.786101538913
 21
-6516.241732114891
 31
0.0
  0
LINE
  5
56749
330
1F
100
AcDbEntity
  8
AM_0
  6
中線
 48
0.5
370
    30
100
AcDbLine
 10
6271.286101538913
 20
-6541.74173211489
 30
0.0
 11
6271.286101538913
 21
-6520.741732114891
 31
0.0
  0
LINE
  5
5674A
330
1F
100
AcDbEntity
  8
AM_0
  6
中線
 48
0.5
370
    30
100
AcDbLine
 10
6269.286101538913
 20
-6541.74173211489
 30
0.0
 11
6269.286101538913
 21
-6520.741732114891
 31
0.0
  0
LINE
  5
5674B
330
1F
100
AcDbEntity
  8
AM_0
  6
中線
 48
0.5
370
    30
100
AcDbLine
 10
6265.286101538912
 20
-6548.491732114891
 30
0.0
 11
6268.657440538913
 21
-6548.491732114891
 31
0.0
  0
ARC
  5
5674C
330
1F
100
AcDbEntity
  8
AM_0
  6
中線
 48
0.5
370
    30
100
AcDbCircle
 10
6261.286101538913
 20
-6546.24173211489
 30
0.0
 40
2.0
100
AcDbArc
 50
0.0
 51
90.0
  0
ARC
  5
5674D
330
1F
100
AcDbEntity
  8
AM_0
  6
中線
 48
0.5
370
    30
100
AcDbCircle
 10
6263.786101538912
 20
-6549.491732114891
 30
0.0
 40
0.5
100
AcDbArc
 50
180.0
 51
270.0
  0
LINE
  5
5674E
330
1F
100
AcDbEntity
  8
AM_0
  6
中線
 48
0.5
370
    30
100
AcDbLine
 10
6261.786101538913
 20
-6546.24173211489
 30
0.0
 11
6261.786101538913
 21
-6549.491732114891
 31
0.0
  0
LINE
  5
5674F
330
1F
100
AcDbEntity
  8
AM_0
  6
中線
 48
0.5
370
    30
100
AcDbLine
 10
6263.286101538913
 20
-6546.24173211489
 30
0.0
 11
6263.286101538913
 21
-6549.491732114891
 31
0.0
  0
ARC
  5
56750
330
1F
100
AcDbEntity
  8
AM_0
  6
中線
 48
0.5
370
    30
100
AcDbCircle
 10
6261.286101538913
 20
-6546.24173211489
 30
0.0
 40
0.5
100
AcDbArc
 50
0.0
 51
90.0
  0
LINE
  5
56751
330
1F
100
AcDbEntity
  8
AM_0
  6
中線
 48
0.5
370
    30
100
AcDbLine
 10
6265.286101538912
 20
-6548.491732114891
 30
0.0
 11
6265.286101538912
 21
-6549.991732114889
 31
0.0
  0
ARC
  5
56752
330
1F
100
AcDbEntity
  8
AM_0
  6
中線
 48
0.5
370
    30
100
AcDbCircle
 10
6287.575815434518
 20
-6547.991732114891
 30
0.0
 40
2.0
100
AcDbArc
 50
270.0
 51
310.000862630223
  0
ARC
  5
56753
330
1F
100
AcDbEntity
  8
AM_0
  6
中線
 48
0.5
370
    30
100
AcDbCircle
 10
6287.575815434518
 20
-6547.991732114891
 30
0.0
 40
0.5
100
AcDbArc
 50
270.0
 51
304.5090612187916
  0
LINE
  5
56754
330
1F
100
AcDbEntity
  8
AM_0
  6
中線
 48
0.5
370
    30
100
AcDbLine
 10
6265.286101538912
 20
-6513.99173211489
 30
0.0
 11
6268.657440538913
 21
-6513.99173211489
 31
0.0
  0
ARC
  5
56755
330
1F
100
AcDbEntity
  8
AM_0
  6
中線
 48
0.5
370
    30
100
AcDbCircle
 10
6261.286101538913
 20
-6516.241732114891
 30
0.0
 40
0.5
100
AcDbArc
 50
270.0
 51
0.0
  0
ARC
  5
56756
330
1F
100
AcDbEntity
  8
AM_0
  6
中線
 48
0.5
370
    30
100
AcDbCircle
 10
6261.286101538913
 20
-6516.241732114891
 30
0.0
 40
2.0
100
AcDbArc
 50
270.0
 51
0.0
  0
ARC
  5
56757
330
1F
100
AcDbEntity
  8
AM_0
  6
中線
 48
0.5
370
    30
100
AcDbCircle
 10
6263.786101538912
 20
-6512.99173211489
 30
0.0
 40
0.5
100
AcDbArc
 50
90.0
 51
180.0
  0
ARC
  5
56758
330
1F
100
AcDbEntity
  8
AM_0
  6
中線
 48
0.5
370
    30
100
AcDbCircle
 10
6263.786101538912
 20
-6512.99173211489
 30
0.0
 40
2.0
100
AcDbArc
 50
90.0
 51
167.5781477019482
  0
LINE
  5
56759
330
1F
100
AcDbEntity
  8
AM_0
  6
中線
 48
0.5
370
    30
100
AcDbLine
 10
6263.286101538913
 20
-6516.241732114891
 30
0.0
 11
6263.286101538913
 21
-6512.99173211489
 31
0.0
  0
LINE
  5
5675A
330
1F
100
AcDbEntity
  8
AM_0
  6
中線
 48
0.5
370
    30
100
AcDbLine
 10
6261.786101538913
 20
-6516.241732114891
 30
0.0
 11
6261.832920922075
 21
-6512.561516496842
 31
0.0
  0
LINE
  5
5675B
330
1F
100
AcDbEntity
  8
AM_0
  6
中線
 48
0.5
370
    30
100
AcDbLine
 10
6265.286101538912
 20
-6513.99173211489
 30
0.0
 11
6265.286101538912
 21
-6512.49173211489
 31
0.0
  0
ARC
  5
5675C
330
1F
100
AcDbEntity
  8
AM_0
  6
中線
 48
0.5
370
    30
100
AcDbCircle
 10
6287.575815434518
 20
-6514.49173211489
 30
0.0
 40
0.5
100
AcDbArc
 50
45.57524099997449
 51
90.0
  0
ARC
  5
5675D
330
1F
100
AcDbEntity
  8
AM_0
  6
中線
 48
0.5
370
    30
100
AcDbCircle
 10
6287.575815434518
 20
-6514.49173211489
 30
0.0
 40
2.0
100
AcDbArc
 50
55.49136399998914
 51
90.0
  0
LINE
  5
5675E
330
1F
100
AcDbEntity
  8
AM_0
  6
中線
 48
0.5
370
    30
100
AcDbLine
 10
6306.286101538912
 20
-6522.741732114891
 30
0.0
 11
6328.286101538913
 21
-6522.741732114891
 31
0.0
  0
LINE
  5
5675F
330
1F
100
AcDbEntity
  8
AM_0
  6
中線
 48
0.5
370
    30
100
AcDbLine
 10
6306.286101538912
 20
-6539.74173211489
 30
0.0
 11
6328.286101538913
 21
-6539.74173211489
 31
0.0
  0
LINE
  5
56760
330
1F
100
AcDbEntity
  8
AM_0
  6
中線
 48
0.5
370
    30
100
AcDbLine
 10
6305.286101538913
 20
-6533.74173211489
 30
0.0
 11
6325.286101538913
 21
-6533.74173211489
 31
0.0
  0
LINE
  5
56761
330
1F
100
AcDbEntity
  8
AM_0
  6
中線
 48
0.5
370
    30
100
AcDbLine
 10
6306.286101538912
 20
-6522.741732114891
 30
0.0
 11
6328.286101538913
 21
-6522.741732114891
 31
0.0
  0
LINE
  5
56764
330
1F
100
AcDbEntity
  8
AM_0
  6
中線
 48
0.5
370
    30
100
AcDbLine
 10
6276.275982538913
 20
-6516.89990011489
 30
0.0
 11
6276.925429538913
 21
-6513.99173211489
 31
0.0
  0
LINE
  5
56765
330
1F
100
AcDbEntity
  8
AM_0
  6
中線
 48
0.5
370
    30
100
AcDbLine
 10
6305.286101538913
 20
-6532.74173211489
 30
0.0
 11
6325.286101538913
 21
-6532.74173211489
 31
0.0
  0
LINE
  5
56766
330
1F
100
AcDbEntity
  8
AM_0
  6
中線
 48
0.5
370
    30
100
AcDbLine
 10
6306.286101538912
 20
-6541.74173211489
 30
0.0
 11
6306.286101538912
 21
-6539.74173211489
 31
0.0
  0
LINE
  5
56767
330
1F
100
AcDbEntity
  8
AM_0
  6
中線
 48
0.5
370
    30
100
AcDbLine
 10
6297.036101538913
 20
-6544.74173211489
 30
0.0
 11
6300.536101538913
 21
-6544.74173211489
 31
0.0
  0
LINE
  5
56768
330
1F
100
AcDbEntity
  8
AM_0
  6
中線
 48
0.5
370
    30
100
AcDbLine
 10
6295.441396538913
 20
-6542.74173211489
 30
0.0
 11
6303.286101538913
 21
-6542.74173211489
 31
0.0
  0
LINE
  5
56769
330
1F
100
AcDbEntity
  8
AM_0
  6
中線
 48
0.5
370
    30
100
AcDbLine
 10
6295.441396538913
 20
-6544.24173211489
 30
0.0
 11
6303.286101538913
 21
-6544.24173211489
 31
0.0
  0
ARC
  5
5676A
330
1F
100
AcDbEntity
  8
AM_0
  6
中線
 48
0.5
370
    30
100
AcDbCircle
 10
6295.441396538913
 20
-6544.74173211489
 30
0.0
 40
2.0
100
AcDbArc
 50
90.0
 51
124.5086360000108
  0
ARC
  5
5676B
330
1F
100
AcDbEntity
  8
AM_0
  6
中線
 48
0.5
370
    30
100
AcDbCircle
 10
6295.441396538913
 20
-6544.74173211489
 30
0.0
 40
0.5
100
AcDbArc
 50
90.0
 51
134.4255940000177
  0
LINE
  5
5676C
330
1F
100
AcDbEntity
  8
AM_0
  6
中線
 48
0.5
370
    30
100
AcDbLine
 10
6297.036101538913
 20
-6544.24173211489
 30
0.0
 11
6297.036101538913
 21
-6544.74173211489
 31
0.0
  0
LINE
  5
5676D
330
1F
100
AcDbEntity
  8
AM_0
  6
中線
 48
0.5
370
    30
100
AcDbLine
 10
6296.786101538913
 20
-6541.74173211489
 30
0.0
 11
6296.786101538913
 21
-6542.74173211489
 31
0.0
  0
LINE
  5
5676E
330
1F
100
AcDbEntity
  8
AM_0
  6
中線
 48
0.5
370
    30
100
AcDbLine
 10
6303.286101538913
 20
-6542.74173211489
 30
0.0
 11
6303.286101538913
 21
-6544.24173211489
 31
0.0
  0
LINE
  5
5676F
330
1F
100
AcDbEntity
  8
AM_0
  6
中線
 48
0.5
370
    30
100
AcDbLine
 10
6300.536101538913
 20
-6544.24173211489
 30
0.0
 11
6300.536101538913
 21
-6544.74173211489
 31
0.0
  0
LINE
  5
56770
330
1F
100
AcDbEntity
  8
AM_0
  6
中線
 48
0.5
370
    30
100
AcDbLine
 10
6300.786101538912
 20
-6541.74173211489
 30
0.0
 11
6300.786101538912
 21
-6542.74173211489
 31
0.0
  0
LINE
  5
56771
330
1F
100
AcDbEntity
  8
AM_0
  6
中線
 48
0.5
370
    30
100
AcDbLine
 10
6306.286101538912
 20
-6539.74173211489
 30
0.0
 11
6306.286101538912
 21
-6541.74173211489
 31
0.0
  0
LINE
  5
56772
330
1F
100
AcDbEntity
  8
AM_0
  6
中線
 48
0.5
370
    30
100
AcDbLine
 10
6323.286101538912
 20
-6529.741732114891
 30
0.0
 11
6323.286101538912
 21
-6532.74173211489
 31
0.0
  0
LINE
  5
56773
330
1F
100
AcDbEntity
  8
AM_0
  6
中線
 48
0.5
370
    30
100
AcDbLine
 10
6295.441396538913
 20
-6518.241732114891
 30
0.0
 11
6303.286101538913
 21
-6518.241732114891
 31
0.0
  0
LINE
  5
56774
330
1F
100
AcDbEntity
  8
AM_0
  6
中線
 48
0.5
370
    30
100
AcDbLine
 10
6295.441396538913
 20
-6519.741732114891
 30
0.0
 11
6303.286101538913
 21
-6519.741732114891
 31
0.0
  0
LINE
  5
56775
330
1F
100
AcDbEntity
  8
AM_0
  6
中線
 48
0.5
370
    30
100
AcDbLine
 10
6297.036101538913
 20
-6517.741732114891
 30
0.0
 11
6300.536101538913
 21
-6517.741732114891
 31
0.0
  0
ARC
  5
56776
330
1F
100
AcDbEntity
  8
AM_0
  6
中線
 48
0.5
370
    30
100
AcDbCircle
 10
6295.441396538913
 20
-6517.741732114891
 30
0.0
 40
0.5
100
AcDbArc
 50
225.5744059999823
 51
270.0
  0
ARC
  5
56777
330
1F
100
AcDbEntity
  8
AM_0
  6
中線
 48
0.5
370
    30
100
AcDbCircle
 10
6295.441396538913
 20
-6517.741732114891
 30
0.0
 40
2.0
100
AcDbArc
 50
235.4913639999891
 51
270.0
  0
LINE
  5
56778
330
1F
100
AcDbEntity
  8
AM_0
  6
中線
 48
0.5
370
    30
100
AcDbLine
 10
6296.786101538913
 20
-6520.741732114891
 30
0.0
 11
6296.786101538913
 21
-6519.741732114891
 31
0.0
  0
LINE
  5
56779
330
1F
100
AcDbEntity
  8
AM_0
  6
中線
 48
0.5
370
    30
100
AcDbLine
 10
6297.036101538913
 20
-6518.241732114891
 30
0.0
 11
6297.036101538913
 21
-6517.741732114891
 31
0.0
  0
LINE
  5
5677A
330
1F
100
AcDbEntity
  8
AM_0
  6
中線
 48
0.5
370
    30
100
AcDbLine
 10
6306.286101538912
 20
-6522.741732114891
 30
0.0
 11
6306.286101538912
 21
-6520.741732114891
 31
0.0
  0
LINE
  5
5677B
330
1F
100
AcDbEntity
  8
AM_0
  6
中線
 48
0.5
370
    30
100
AcDbLine
 10
6300.786101538912
 20
-6520.741732114891
 30
0.0
 11
6300.786101538912
 21
-6519.741732114891
 31
0.0
  0
LINE
  5
5677C
330
1F
100
AcDbEntity
  8
AM_0
  6
中線
 48
0.5
370
    30
100
AcDbLine
 10
6300.536101538913
 20
-6518.241732114891
 30
0.0
 11
6300.536101538913
 21
-6517.741732114891
 31
0.0
  0
LINE
  5
5677D
330
1F
100
AcDbEntity
  8
AM_0
  6
中線
 48
0.5
370
    30
100
AcDbLine
 10
6303.286101538913
 20
-6519.741732114891
 30
0.0
 11
6303.286101538913
 21
-6518.241732114891
 31
0.0
  0
LINE
  5
5677E
330
1F
100
AcDbEntity
  8
AM_0
  6
中線
 48
0.5
370
    30
100
AcDbLine
 10
6289.171778538912
 20
-6512.49173211489
 30
0.0
 11
6289.171778538912
 21
-6510.991732114892
 31
0.0
  0
LINE
  5
5677F
330
1F
100
AcDbEntity
  8
AM_0
  6
中線
 48
0.5
370
    30
100
AcDbLine
 10
6279.924215538913
 20
-6508.083993114891
 30
0.0
 11
6279.298670538913
 21
-6510.991732114892
 31
0.0
  0
ARC
  5
56780
330
1F
100
AcDbEntity
  8
AM_0
  6
中線
 48
0.5
370
    30
100
AcDbCircle
 10
6328.286101538913
 20
-6531.24173211489
 30
0.0
 40
8.5
100
AcDbArc
 50
270.0
 51
90.0
  0
LINE
  5
56781
330
1F
100
AcDbEntity
  8
AM_0
  6
中線
 48
0.5
370
    30
100
AcDbLine
 10
6273.025982538913
 20
-6516.89990011489
 30
0.0
 11
6273.675429538912
 21
-6513.99173211489
 31
0.0
  0
LINE
  5
56782
330
1F
100
AcDbEntity
  8
AM_0
  6
中線
 48
0.5
370
    30
100
AcDbLine
 10
6255.286101538913
 20
-6541.74173211489
 30
0.0
 11
6255.286101538913
 21
-6520.741732114891
 31
0.0
  0
LINE
  5
56783
330
1F
100
AcDbEntity
  8
AM_0
  6
中線
 48
0.5
370
    30
100
AcDbLine
 10
6255.286101538913
 20
-6522.741732114891
 30
0.0
 11
6269.286101538913
 21
-6522.741732114891
 31
0.0
  0
LINE
  5
56784
330
1F
100
AcDbEntity
  8
AM_0
  6
中線
 48
0.5
370
    30
100
AcDbLine
 10
6255.286101538913
 20
-6539.74173211489
 30
0.0
 11
6269.286101538913
 21
-6539.74173211489
 31
0.0
  0
LINE
  5
56785
330
1F
100
AcDbEntity
  8
AM_0
  6
中線
 48
0.5
370
    30
100
AcDbLine
 10
6305.286101538913
 20
-6528.741732114891
 30
0.0
 11
6325.286101538913
 21
-6528.741732114891
 31
0.0
  0
LINE
  5
56786
330
1F
100
AcDbEntity
  8
AM_0
  6
中線
 48
0.5
370
    30
100
AcDbLine
 10
6307.286101538913
 20
-6529.741732114891
 30
0.0
 11
6323.286101538912
 21
-6529.741732114891
 31
0.0
  0
ARC
  5
56787
330
1F
100
AcDbEntity
  8
AM_0
  6
中線
 48
0.5
370
    30
100
AcDbCircle
 10
6332.286101538913
 20
-6531.24173211489
 30
0.0
 40
5.5
100
AcDbArc
 50
357.6383109999986
 51
53.77845299997268
  0
ARC
  5
56788
330
1F
100
AcDbEntity
  8
AM_0
  6
中線
 48
0.5
370
    30
100
AcDbCircle
 10
6329.786101538912
 20
-6531.741732114891
 30
0.0
 40
8.0
100
AcDbArc
 50
270.0
 51
1.958166000024607
  0
LINE
  5
56789
330
1F
100
AcDbEntity
  8
AM_0
  6
中線
 48
0.5
370
    30
100
AcDbLine
 10
6325.286101538913
 20
-6528.741732114891
 30
0.0
 11
6325.286101538913
 21
-6533.74173211489
 31
0.0
  0
LINE
  5
5678A
330
1F
100
AcDbEntity
  8
AM_0
  6
中線
 48
0.5
370
    30
100
AcDbLine
 10
6307.286101538913
 20
-6529.741732114891
 30
0.0
 11
6307.286101538913
 21
-6532.74173211489
 31
0.0
  0
LINE
  5
5678B
330
1F
100
AcDbEntity
  8
AM_0
  6
中線
 48
0.5
370
    30
100
AcDbLine
 10
6305.286101538913
 20
-6528.741732114891
 30
0.0
 11
6305.286101538913
 21
-6533.74173211489
 31
0.0
  0
LINE
  5
5678C
330
1F
100
AcDbEntity
  8
AM_0
  6
中線
 48
0.5
370
    30
100
AcDbLine
 10
6305.286101538913
 20
-6655.772244675183
 30
0.0
 11
6325.286101538913
 21
-6655.772244675183
 31
0.0
  0
LINE
  5
5678D
330
1F
100
AcDbEntity
  8
AM_0
  6
中線
 48
0.5
370
    30
100
AcDbLine
 10
6307.286101538913
 20
-6651.772244675183
 30
0.0
 11
6307.286101538913
 21
-6654.772244675183
 31
0.0
  0
LINE
  5
5678E
330
1F
100
AcDbEntity
  8
AM_0
  6
中線
 48
0.5
370
    30
100
AcDbLine
 10
6305.286101538913
 20
-6651.772244675183
 30
0.0
 11
6305.286101538913
 21
-6655.772244675183
 31
0.0
  0
LINE
  5
5678F
330
1F
100
AcDbEntity
  8
AM_0
  6
中線
 48
0.5
370
    30
100
AcDbLine
 10
6323.286101538912
 20
-6651.772244675183
 30
0.0
 11
6323.286101538912
 21
-6654.772244675183
 31
0.0
  0
LINE
  5
56790
330
1F
100
AcDbEntity
  8
AM_0
  6
中線
 48
0.5
370
    30
100
AcDbLine
 10
6325.286101538913
 20
-6651.772244675183
 30
0.0
 11
6325.286101538913
 21
-6655.772244675183
 31
0.0
  0
LINE
  5
56791
330
1F
100
AcDbEntity
  8
AM_0
  6
中線
 48
0.5
370
    30
100
AcDbLine
 10
6243.286101538913
 20
-6601.484595619186
 30
0.0
 11
6243.286101538913
 21
-6599.484595619187
 31
0.0
  0
LINE
  5
56792
330
1F
100
AcDbEntity
  8
AM_0
  6
中線
 48
0.5
370
    30
100
AcDbLine
 10
6269.286101538913
 20
-6601.484595619186
 30
0.0
 11
6269.286101538913
 21
-6599.369501619186
 31
0.0
  0
LINE
  5
56793
330
1F
100
AcDbEntity
  8
AM_0
  6
中線
 48
0.5
370
    30
100
AcDbLine
 10
6255.286101538913
 20
-6593.484595619186
 30
0.0
 11
6255.286101538913
 21
-6591.484595619187
 31
0.0
  0
LINE
  5
56794
330
1F
100
AcDbEntity
  8
AM_0
  6
中線
 48
0.5
370
    30
100
AcDbLine
 10
6243.286101538913
 20
-6601.484595619186
 30
0.0
 11
6269.286101538913
 21
-6601.484595619186
 31
0.0
  0
LINE
  5
56795
330
1F
100
AcDbEntity
  8
AM_0
  6
中線
 48
0.5
370
    30
100
AcDbLine
 10
6243.286101538913
 20
-6599.484595619187
 30
0.0
 11
6259.286101538912
 21
-6599.484595619187
 31
0.0
  0
LINE
  5
56796
330
1F
100
AcDbEntity
  8
AM_0
  6
中線
 48
0.5
370
    30
100
AcDbLine
 10
6256.286101538912
 20
-6590.484595619186
 30
0.0
 11
6259.286101538912
 21
-6590.484595619186
 31
0.0
  0
LINE
  5
56797
330
1F
100
AcDbEntity
  8
AM_0
  6
中線
 48
0.5
370
    30
100
AcDbLine
 10
6259.286101538912
 20
-6601.484595619186
 30
0.0
 11
6259.286101538912
 21
-6598.778927619187
 31
0.0
  0
ARC
  5
56798
330
1F
100
AcDbEntity
  8
AM_0
  6
中線
 48
0.5
370
    30
100
AcDbCircle
 10
6256.286101538912
 20
-6591.484595619187
 30
0.0
 40
1.0
100
AcDbArc
 50
90.0
 51
180.0
  0
ARC
  5
56799
330
1F
100
AcDbEntity
  8
AM_0
  6
中線
 48
0.5
370
    30
100
AcDbCircle
 10
6256.286101538912
 20
-6593.484595619186
 30
0.0
 40
1.0
100
AcDbArc
 50
180.0
 51
196.9196640000104
  0
LINE
  5
5679C
330
1F
100
AcDbEntity
  8
AM_0
  6
中線
 48
0.5
370
    30
100
AcDbLine
 10
6289.786101538912
 20
-6601.484595619186
 30
0.0
 11
6337.786101538913
 21
-6601.484595619186
 31
0.0
  0
LINE
  5
5679D
330
1F
100
AcDbEntity
  8
AM_0
  6
中線
 48
0.5
370
    30
100
AcDbLine
 10
6306.286101538912
 20
-6598.484595619186
 30
0.0
 11
6337.786101538913
 21
-6598.484595619186
 31
0.0
  0
ARC
  5
5679E
330
1F
100
AcDbEntity
  8
AM_0
  6
中線
 48
0.5
370
    30
100
AcDbCircle
 10
6327.286101538913
 20
-6531.24173211489
 30
0.0
 40
8.5
100
AcDbArc
 50
270.0
 51
90.0
  0
LINE
  5
5679F
330
1F
100
AcDbEntity
  8
AM_0
  6
中線
 48
0.5
370
    30
100
AcDbLine
 10
6337.786101538913
 20
-6598.484595619186
 30
0.0
 11
6337.786101538913
 21
-6601.484595619186
 31
0.0
  0
LINE
  5
567A0
330
1F
100
AcDbEntity
  8
AM_0
  6
中線
 48
0.5
370
    30
100
AcDbLine
 10
6289.786101538912
 20
-6601.484595619186
 30
0.0
 11
6289.786101538912
 21
-6598.843144619187
 31
0.0
  0
LINE
  5
567A1
330
1F
100
AcDbEntity
  8
AM_0
  6
中線
 48
0.5
370
    30
100
AcDbLine
 10
6306.286101538912
 20
-6598.984595619187
 30
0.0
 11
6306.286101538912
 21
-6586.484595619187
 31
0.0
  0
LINE
  5
567A2
330
1F
100
AcDbEntity
  8
AM_0
  6
中線
 48
0.5
370
    30
100
AcDbLine
 10
6307.286101538913
 20
-6586.284595619187
 30
0.0
 11
6307.286101538911
 21
-6586.484595619186
 31
0.0
  0
LINE
  5
567A3
330
1F
100
AcDbEntity
  8
AM_0
  6
中線
 48
0.5
370
    30
100
AcDbLine
 10
6323.286101538912
 20
-6586.284595619187
 30
0.0
 11
6323.286101538912
 21
-6596.261039619186
 31
0.0
  0
ARC
  5
567A5
330
1F
100
AcDbEntity
  8
AM_0
  6
中線
 48
0.5
370
    30
100
AcDbCircle
 10
6315.286101538912
 20
-6586.284595619187
 30
0.0
 40
8.0
100
AcDbArc
 50
0.0
 51
180.0
  0
CIRCLE
  5
567A6
330
1F
100
AcDbEntity
  8
AM_0
  6
中線
 48
0.5
370
    30
100
AcDbCircle
 10
6315.286101538912
 20
-6586.284595619187
 30
0.0
 40
5.0
  0
LINE
  5
567A7
330
1F
100
AcDbEntity
  8
AM_0
  6
中線
 48
0.5
370
    30
100
AcDbLine
 10
6296.286101538913
 20
-6600.484595619187
 30
0.0
 11
6304.786101538912
 21
-6600.484595619187
 31
0.0
  0
ARC
  5
567A8
330
1F
100
AcDbEntity
  8
AM_0
  6
中線
 48
0.5
370
    30
100
AcDbCircle
 10
6304.786101538912
 20
-6598.984595619187
 30
0.0
 40
1.5
100
AcDbArc
 50
270.0
 51
0.0
  0
ARC
  5
567A9
330
1F
100
AcDbEntity
  8
AM_0
  6
中線
 48
0.5
370
    30
100
AcDbCircle
 10
6296.286101538913
 20
-6598.984595619187
 30
0.0
 40
1.5
100
AcDbArc
 50
188.4498790000151
 51
270.0
  0
LINE
  5
567AA
330
1F
100
AcDbEntity
  8
AM_0
  6
中線
 48
0.5
370
    30
100
AcDbLine
 10
6294.786101538913
 20
-6599.203837619187
 30
0.0
 11
6294.786101538913
 21
-6601.484595619186
 31
0.0
  0
LINE
  5
567AB
330
1F
100
AcDbEntity
  8
AM_0
  6
中線
 48
0.5
370
    30
100
AcDbLine
 10
6279.286101538913
 20
-6586.484595619187
 30
0.0
 11
6307.985114538912
 21
-6586.484595619187
 31
0.0
  0
ARC
  5
567AC
330
1F
100
AcDbEntity
  8
AM_0
  6
中線
 48
0.5
370
    30
100
AcDbCircle
 10
6279.875452538913
 20
-6593.802255619187
 30
0.0
 40
7.306638999999999
100
AcDbArc
 50
94.62648500000575
 51
155.8501029999948
  0
ARC
  5
567AD
330
1F
100
AcDbEntity
  8
AM_0
  6
中線
 48
0.5
370
    30
100
AcDbCircle
 10
6279.904935538912
 20
-6593.910216619185
 30
0.0
 40
5.408705999999999
100
AcDbArc
 50
96.56984999998975
 51
133.7770519999747
  0
LINE
  5
567AE
330
1F
100
AcDbEntity
  8
AM_0
  6
中線
 48
0.5
370
    30
100
AcDbLine
 10
6279.286101538913
 20
-6586.484595619187
 30
0.0
 11
6279.286101538913
 21
-6590.149017619187
 31
0.0
  0
LINE
  5
567AF
330
1F
100
AcDbEntity
  8
AM_0
  6
中線
 48
0.5
370
    30
100
AcDbLine
 10
6272.371717538913
 20
-6598.246360619187
 30
0.0
 11
6271.402465538913
 21
-6598.009142619186
 31
0.0
  0
ARC
  5
567B0
330
1F
100
AcDbEntity
  8
AM_0
  6
中線
 48
0.5
370
    30
100
AcDbCircle
 10
6321.183448538913
 20
-6586.484595619187
 30
0.0
 40
12.0
100
AcDbArc
 50
214.3353940000286
 51
323.2294249999892
  0
LINE
  5
567B1
330
1F
100
AcDbEntity
  8
AM_0
  6
中線
 48
0.5
370
    30
100
AcDbLine
 10
6306.286101538912
 20
-6588.484595619187
 30
0.0
 11
6307.489363538913
 21
-6588.484595619187
 31
0.0
  0
ARC
  5
567B2
330
1F
100
AcDbEntity
  8
AM_0
  6
中線
 48
0.5
370
    30
100
AcDbCircle
 10
6321.183448538913
 20
-6586.484595619187
 30
0.0
 40
10.0
100
AcDbArc
 50
214.5972259999815
 51
323.2274789999847
  0
ARC
  5
567B3
330
1F
100
AcDbEntity
  8
AM_0
  6
中線
 48
0.5
370
    30
100
AcDbCircle
 10
6307.985114538912
 20
-6588.484595619187
 30
0.0
 40
2.0
100
AcDbArc
 50
34.59722599998148
 51
90.0
  0
LINE
  5
567B4
330
1F
100
AcDbEntity
  8
AM_0
  6
中線
 48
0.5
370
    30
100
AcDbLine
 10
6323.286101538912
 20
-6598.298944619187
 30
0.0
 11
6323.286101538912
 21
-6598.484595619186
 31
0.0
  0
LINE
  5
567B5
330
1F
100
AcDbEntity
  8
AM_0
  6
中線
 48
0.5
370
    30
100
AcDbLine
 10
6336.786101538912
 20
-6585.652116619186
 30
0.0
 11
6335.162249538913
 21
-6584.484595619186
 31
0.0
  0
CIRCLE
  5
567B7
330
1F
100
AcDbEntity
  8
AM_0
  6
中線
 48
0.5
370
    30
100
AcDbCircle
 10
6298.786101538913
 20
-6596.484595619187
 30
0.0
 40
1.5
  0
CIRCLE
  5
567B8
330
1F
100
AcDbEntity
  8
AM_0
  6
中線
 48
0.5
370
    30
100
AcDbCircle
 10
6256.786101538913
 20
-6596.484595619187
 30
0.0
 40
1.5
  0
LINE
  5
567BA
330
1F
100
AcDbEntity
  8
AM_0
  6
中線
 48
0.5
370
    30
100
AcDbLine
 10
6265.615645538913
 20
-6591.083931619187
 30
0.0
 11
6270.077120538913
 21
-6591.405775619186
 31
0.0
  0
LINE
  5
567BB
330
1F
100
AcDbEntity
  8
AM_0
  6
中線
 48
0.5
370
    30
100
AcDbLine
 10
6265.755051538913
 20
-6597.109579619186
 30
0.0
 11
6269.645411538912
 21
-6597.390224619187
 31
0.0
  0
ARC
  5
567BC
330
1F
100
AcDbEntity
  8
AM_0
  6
中線
 48
0.5
370
    30
100
AcDbCircle
 10
6298.786101538913
 20
-6596.484595619187
 30
0.0
 40
3.0
100
AcDbArc
 50
265.8739170000234
 51
85.87391200001292
  0
ARC
  5
567BD
330
1F
100
AcDbEntity
  8
AM_0
  6
中線
 48
0.5
370
    30
100
AcDbCircle
 10
6256.679105538913
 20
-6596.454853619187
 30
0.0
 40
3.0
100
AcDbArc
 50
107.4856620000038
 51
287.4856549999798
  0
LINE
  5
567BE
330
1F
100
AcDbEntity
  8
AM_0
  6
中線
 48
0.5
370
    30
100
AcDbLine
 10
6288.452262538913
 20
-6600.752120619187
 30
0.0
 11
6289.171778538912
 21
-6590.778039619187
 31
0.0
  0
LINE
  5
567BF
330
1F
100
AcDbEntity
  8
AM_0
  6
中線
 48
0.5
370
    30
100
AcDbLine
 10
6285.460038538913
 20
-6600.536265619187
 30
0.0
 11
6288.452262538913
 21
-6600.752120619187
 31
0.0
  0
LINE
  5
567C0
330
1F
100
AcDbEntity
  8
AM_0
  6
中線
 48
0.5
370
    30
100
AcDbLine
 10
6286.179553538913
 20
-6590.562184619186
 30
0.0
 11
6289.171778538912
 21
-6590.778039619187
 31
0.0
  0
LINE
  5
567C1
330
1F
100
AcDbEntity
  8
AM_0
  6
中線
 48
0.5
370
    30
100
AcDbLine
 10
6289.027874538913
 20
-6592.772855619187
 30
0.0
 11
6299.001956538913
 21
-6593.492371619186
 31
0.0
  0
LINE
  5
567C2
330
1F
100
AcDbEntity
  8
AM_0
  6
中線
 48
0.5
370
    30
100
AcDbLine
 10
6288.596165538913
 20
-6598.757304619187
 30
0.0
 11
6298.570247538912
 21
-6599.476819619187
 31
0.0
  0
LINE
  5
567C3
330
1F
100
AcDbEntity
  8
AM_0
  6
中線
 48
0.5
370
    30
100
AcDbLine
 10
6266.509283538912
 20
-6599.169185619186
 30
0.0
 11
6266.653186538913
 21
-6597.174369619186
 31
0.0
  0
LINE
  5
567C4
330
1F
100
AcDbEntity
  8
AM_0
  6
中線
 48
0.5
370
    30
100
AcDbLine
 10
6266.509283538912
 20
-6599.169185619186
 30
0.0
 11
6269.501508538912
 21
-6599.385040619186
 31
0.0
  0
LINE
  5
567C5
330
1F
100
AcDbEntity
  8
AM_0
  6
中線
 48
0.5
370
    30
100
AcDbLine
 10
6267.228799538912
 20
-6589.195104619186
 30
0.0
 11
6270.221023538913
 21
-6589.410959619186
 31
0.0
  0
LINE
  5
567C6
330
1F
100
AcDbEntity
  8
AM_0
  6
中線
 48
0.5
370
    30
100
AcDbLine
 10
6262.636296538913
 20
-6591.432858619187
 30
0.0
 11
6255.777704538913
 21
-6593.593477619186
 31
0.0
  0
LINE
  5
567C7
330
1F
100
AcDbEntity
  8
AM_0
  6
中線
 48
0.5
370
    30
100
AcDbLine
 10
6263.892958538913
 20
-6597.327659619186
 30
0.0
 11
6257.580506538912
 21
-6599.316230619186
 31
0.0
  0
ARC
  5
567C8
330
1F
100
AcDbEntity
  8
AM_0
  6
中線
 48
0.5
370
    30
100
AcDbCircle
 10
6265.040033538912
 20
-6599.063196619187
 30
0.0
 40
8.0
100
AcDbArc
 50
85.87391700002342
 51
107.4856620000038
  0
ARC
  5
567C9
330
1F
100
AcDbEntity
  8
AM_0
  6
中線
 48
0.5
370
    30
100
AcDbCircle
 10
6265.395293538913
 20
-6602.096620619185
 30
0.0
 40
5.0
100
AcDbArc
 50
85.87391200001292
 51
107.4856549999798
  0
LINE
  5
567CA
330
1F
100
AcDbEntity
  8
AM_0
  6
中線
 48
0.5
370
    30
100
AcDbLine
 10
6267.084896538912
 20
-6591.189920619186
 30
0.0
 11
6267.228799538912
 21
-6589.195104619186
 31
0.0
  0
LINE
  5
567CB
330
1F
100
AcDbEntity
  8
AM_0
  6
中線
 48
0.5
370
    30
100
AcDbLine
 10
6269.501508538912
 20
-6599.385040619186
 30
0.0
 11
6269.645411524559
 21
-6597.390224618151
 31
0.0
  0
LINE
  5
567CC
330
1F
100
AcDbEntity
  8
AM_0
  6
中線
 48
0.5
370
    30
100
AcDbLine
 10
6272.435990538912
 20
-6598.960274619186
 30
0.0
 11
6271.664219538912
 21
-6590.387819619187
 31
0.0
  0
ARC
  5
567CD
330
1F
100
AcDbEntity
  8
AM_0
  6
中線
 48
0.5
370
    30
100
AcDbCircle
 10
6270.915116538913
 20
-6590.212979619187
 30
0.0
 40
0.75
100
AcDbArc
 50
355.8739129999946
 51
175.8739129999945
  0
ARC
  5
567CE
330
1F
100
AcDbEntity
  8
AM_0
  6
中線
 48
0.5
370
    30
100
AcDbCircle
 10
6270.303527538914
 20
-6598.690948619188
 30
0.0
 40
0.75
100
AcDbArc
 50
175.8739129999945
 51
355.8739129999946
  0
ARC
  5
567CF
330
1F
100
AcDbEntity
  8
AM_0
  6
中線
 48
0.5
370
    30
100
AcDbCircle
 10
6273.182999538913
 20
-6598.893360619186
 30
0.0
 40
0.75
100
AcDbArc
 50
185.1186160000102
 51
359.2904659999912
  0
LINE
  5
567D0
330
1F
100
AcDbEntity
  8
AM_0
  6
中線
 48
0.5
370
    30
100
AcDbLine
 10
6273.932941538912
 20
-6598.902648619187
 30
0.0
 11
6273.158237538912
 21
-6590.253993619185
 31
0.0
  0
ARC
  5
567D1
330
1F
100
AcDbEntity
  8
AM_0
  6
中線
 48
0.5
370
    30
100
AcDbCircle
 10
6272.411228538913
 20
-6590.320906619187
 30
0.0
 40
0.75
100
AcDbArc
 50
5.118616000010224
 51
185.1186160000102
  0
ARC
  5
567D2
330
1F
100
AcDbEntity
  8
AM_0
  6
中線
 48
0.5
370
    30
100
AcDbCircle
 10
6284.765945538913
 20
-6599.734245619187
 30
0.0
 40
0.75
100
AcDbArc
 50
175.8739129999945
 51
355.8739129999946
  0
LINE
  5
567D3
330
1F
100
AcDbEntity
  8
AM_0
  6
中線
 48
0.5
370
    30
100
AcDbLine
 10
6286.179553538913
 20
-6590.562184619186
 30
0.0
 11
6285.460038538913
 21
-6600.536265619187
 31
0.0
  0
ARC
  5
567D4
330
1F
100
AcDbEntity
  8
AM_0
  6
中線
 48
0.5
370
    30
100
AcDbCircle
 10
6285.377533538913
 20
-6591.256276619187
 30
0.0
 40
0.75
100
AcDbArc
 50
355.8739129999946
 51
175.8739129999945
  0
LINE
  5
567D5
330
1F
100
AcDbEntity
  8
AM_0
  6
中線
 48
0.5
370
    30
100
AcDbLine
 10
6284.629477538913
 20
-6591.202313619186
 30
0.0
 11
6284.017889538913
 21
-6599.680282619186
 31
0.0
  0
ARC
  5
567D6
330
1F
100
AcDbEntity
  8
AM_0
  6
中線
 48
0.5
370
    30
100
AcDbCircle
 10
6276.424575538913
 20
-6599.127203619187
 30
0.0
 40
0.75
100
AcDbArc
 50
185.1186160000102
 51
359.2904659999912
  0
LINE
  5
567D7
330
1F
100
AcDbEntity
  8
AM_0
  6
中線
 48
0.5
370
    30
100
AcDbLine
 10
6277.174518538913
 20
-6599.136491619187
 30
0.0
 11
6276.399813538913
 21
-6590.487835619187
 31
0.0
  0
LINE
  5
567D8
330
1F
100
AcDbEntity
  8
AM_0
  6
中線
 48
0.5
370
    30
100
AcDbLine
 10
6275.677566538912
 20
-6599.194116619186
 30
0.0
 11
6274.905795538913
 21
-6590.621662619188
 31
0.0
  0
ARC
  5
567D9
330
1F
100
AcDbEntity
  8
AM_0
  6
中線
 48
0.5
370
    30
100
AcDbCircle
 10
6275.652804538912
 20
-6590.554749619187
 30
0.0
 40
0.75
100
AcDbArc
 50
5.118616000010224
 51
185.1186160000102
  0
ARC
  5
567DA
330
1F
100
AcDbEntity
  8
AM_0
  6
中線
 48
0.5
370
    30
100
AcDbCircle
 10
6279.666152538912
 20
-6599.361046619186
 30
0.0
 40
0.75
100
AcDbArc
 50
185.1186160000102
 51
359.2904659999912
  0
LINE
  5
567DB
330
1F
100
AcDbEntity
  8
AM_0
  6
中線
 48
0.5
370
    30
100
AcDbLine
 10
6280.416094538914
 20
-6599.370333619187
 30
0.0
 11
6279.641390538913
 21
-6590.721678619186
 31
0.0
  0
LINE
  5
567DC
330
1F
100
AcDbEntity
  8
AM_0
  6
中線
 48
0.5
370
    30
100
AcDbLine
 10
6278.919143538913
 20
-6599.427959619186
 30
0.0
 11
6278.147372538913
 21
-6590.855505619187
 31
0.0
  0
ARC
  5
567DD
330
1F
100
AcDbEntity
  8
AM_0
  6
中線
 48
0.5
370
    30
100
AcDbCircle
 10
6278.894381538913
 20
-6590.788591619186
 30
0.0
 40
0.75
100
AcDbArc
 50
5.118616000010224
 51
185.1186160000102
  0
ARC
  5
567DE
330
1F
100
AcDbEntity
  8
AM_0
  6
中線
 48
0.5
370
    30
100
AcDbCircle
 10
6283.233843538913
 20
-6599.618414619186
 30
0.0
 40
0.75
100
AcDbArc
 50
185.1186160000102
 51
5.118616000010224
  0
LINE
  5
567DF
330
1F
100
AcDbEntity
  8
AM_0
  6
中線
 48
0.5
370
    30
100
AcDbLine
 10
6282.486833538913
 20
-6599.685327619187
 30
0.0
 11
6281.388948538912
 21
-6591.089347619187
 31
0.0
  0
LINE
  5
567E0
330
1F
100
AcDbEntity
  8
AM_0
  6
中線
 48
0.5
370
    30
100
AcDbLine
 10
6283.980852538912
 20
-6599.551500619188
 30
0.0
 11
6282.879919538913
 21
-6590.927461619187
 31
0.0
  0
ARC
  5
567E1
330
1F
100
AcDbEntity
  8
AM_0
  6
中線
 48
0.5
370
    30
100
AcDbCircle
 10
6282.135957538912
 20
-6591.022434619187
 30
0.0
 40
0.75
100
AcDbArc
 50
7.274944999985221
 51
185.1186160000102
  0
LINE
  5
567E2
330
1F
100
AcDbEntity
  8
AM_0
  6
中線
 48
0.5
370
    30
100
AcDbLine
 10
6312.951810538912
 20
-6592.162634619185
 30
0.0
 11
6309.631441538912
 21
-6587.348987619186
 31
0.0
  0
LINE
  5
567E3
330
1F
100
AcDbEntity
  8
AM_0
  6
中線
 48
0.5
370
    30
100
AcDbLine
 10
6311.274448538913
 20
-6593.253030619186
 30
0.0
 11
6308.315113538913
 21
-6588.920559619187
 31
0.0
  0
ARC
  5
567E4
330
1F
100
AcDbEntity
  8
AM_0
  6
中線
 48
0.5
370
    30
100
AcDbCircle
 10
6307.489363538913
 20
-6589.484595619187
 30
0.0
 40
1.0
100
AcDbArc
 50
34.33539400002862
 51
90.0
  0
LINE
  5
567E5
330
1F
100
AcDbEntity
  8
AM_0
  6
中線
 48
0.5
370
    30
100
AcDbLine
 10
6278.173441538913
 20
-6590.581840619186
 30
0.0
 11
6277.777842538912
 21
-6591.961294619186
 31
0.0
  0
LINE
  5
567E6
330
1F
100
AcDbEntity
  8
AM_0
  6
中線
 48
0.5
370
    30
100
AcDbLine
 10
6274.931864538913
 20
-6590.347998619186
 30
0.0
 11
6274.536265538912
 21
-6591.727451619187
 31
0.0
  0
LINE
  5
567E7
330
1F
100
AcDbEntity
  8
AM_0
  6
中線
 48
0.5
370
    30
100
AcDbLine
 10
6330.795915538913
 20
-6593.667942619187
 30
0.0
 11
6336.786101538912
 21
-6585.652116619186
 31
0.0
  0
LINE
  5
567E8
330
1F
100
AcDbEntity
  8
AM_0
  6
中線
 48
0.5
370
    30
100
AcDbLine
 10
6271.051583538913
 20
-6598.744911619187
 30
0.0
 11
6271.663172538913
 21
-6590.266942619186
 31
0.0
  0
LINE
  5
567E9
330
1F
100
AcDbEntity
  8
AM_0
  6
中線
 48
0.5
370
    30
100
AcDbLine
 10
6271.051583538913
 20
-6598.744911619187
 30
0.0
 11
6271.357055538913
 21
-6597.513699619186
 31
0.0
  0
LINE
  5
567EA
330
1F
100
AcDbEntity
  8
AM_0
  6
中線
 48
0.5
370
    30
100
AcDbLine
 10
6271.573232538912
 20
-6591.513702619185
 30
0.0
 11
6271.766838538912
 21
-6591.527669619186
 31
0.0
  0
LINE
  5
567EB
330
1F
100
AcDbEntity
  8
AM_0
  6
中線
 48
0.5
370
    30
100
AcDbLine
 10
6273.282118538913
 20
-6591.636979619187
 30
0.0
 11
6275.008415538913
 21
-6591.761512619186
 31
0.0
  0
LINE
  5
567EC
330
1F
100
AcDbEntity
  8
AM_0
  6
中線
 48
0.5
370
    30
100
AcDbLine
 10
6276.523695538912
 20
-6591.870822619187
 30
0.0
 11
6278.249991538912
 21
-6591.995354619186
 31
0.0
  0
LINE
  5
567ED
330
1F
100
AcDbEntity
  8
AM_0
  6
中線
 48
0.5
370
    30
100
AcDbLine
 10
6279.765271538913
 20
-6592.104664619187
 30
0.0
 11
6281.534458538914
 21
-6592.232291619186
 31
0.0
  0
LINE
  5
567EE
330
1F
100
AcDbEntity
  8
AM_0
  6
中線
 48
0.5
370
    30
100
AcDbLine
 10
6283.060546538912
 20
-6592.342381619186
 30
0.0
 11
6284.539538538913
 21
-6592.449073619187
 31
0.0
  0
LINE
  5
567EF
330
1F
100
AcDbEntity
  8
AM_0
  6
中線
 48
0.5
370
    30
100
AcDbLine
 10
6283.835625538912
 20
-6598.413885619186
 30
0.0
 11
6284.107828538913
 21
-6598.433522619187
 31
0.0
  0
LINE
  5
567F0
330
1F
100
AcDbEntity
  8
AM_0
  6
中線
 48
0.5
370
    30
100
AcDbLine
 10
6280.307623538913
 20
-6598.159380619186
 30
0.0
 11
6282.310304538913
 21
-6598.303851619187
 31
0.0
  0
LINE
  5
567F1
330
1F
100
AcDbEntity
  8
AM_0
  6
中線
 48
0.5
370
    30
100
AcDbLine
 10
6277.066047538912
 20
-6597.925538619186
 30
0.0
 11
6278.795110538913
 21
-6598.050270619187
 31
0.0
  0
LINE
  5
567F2
330
1F
100
AcDbEntity
  8
AM_0
  6
中線
 48
0.5
370
    30
100
AcDbLine
 10
6273.824470538913
 20
-6597.691695619187
 30
0.0
 11
6275.553534538913
 21
-6597.816427619186
 31
0.0
  0
LINE
  5
567F3
330
1F
100
AcDbEntity
  8
AM_0
  6
中線
 48
0.5
370
    30
100
AcDbLine
 10
6271.141523538912
 20
-6597.498151619186
 30
0.0
 11
6272.311958538914
 21
-6597.582585619187
 31
0.0
  0
ARC
  5
567F4
330
1F
100
AcDbEntity
  8
AM_0
  6
中線
 48
0.5
370
    30
100
AcDbCircle
 10
6259.286101538912
 20
-6600.484595619187
 30
0.0
 40
10.0
100
AcDbArc
 50
67.00289538163798
 51
90.0
  0
LINE
  5
567F5
330
1F
100
AcDbEntity
  8
AM_0
  6
中線
 48
0.5
370
    30
100
AcDbLine
 10
6271.520829538913
 20
-6597.525514619187
 30
0.0
 11
6271.402465538913
 21
-6598.009142619186
 31
0.0
  0
LINE
  5
567F7
330
1F
100
AcDbEntity
  8
AM_0
  6
中線
 48
0.5
370
    30
100
AcDbLine
 10
6268.657440538913
 20
-6554.24173211489
 30
0.0
 11
6268.657440538913
 21
-6545.74173211489
 31
0.0
  0
LINE
  5
567F8
330
1F
100
AcDbEntity
  8
AM_0
  6
中線
 48
0.5
370
    30
100
AcDbLine
 10
6274.803754538912
 20
-6554.35692611489
 30
0.0
 11
6273.417236538914
 21
-6545.86255411489
 31
0.0
  0
LINE
  5
567F9
330
1F
100
AcDbEntity
  8
AM_0
  6
中線
 48
0.5
370
    30
100
AcDbLine
 10
6271.553754538913
 20
-6554.35692611489
 30
0.0
 11
6270.167236538913
 21
-6545.86255411489
 31
0.0
  0
LINE
  5
567FA
330
1F
100
AcDbEntity
  8
AM_0
  6
中線
 48
0.5
370
    30
100
AcDbLine
 10
6273.042679538913
 20
-6554.191742114889
 30
0.0
 11
6271.647698538913
 21
-6545.62124411489
 31
0.0
  0
LINE
  5
567FB
330
1F
100
AcDbEntity
  8
AM_0
  6
中線
 48
0.5
370
    30
100
AcDbLine
 10
6283.111232538914
 20
-6554.115949114891
 30
0.0
 11
6281.392640538913
 21
-6545.593476114891
 31
0.0
  0
LINE
  5
567FC
330
1F
100
AcDbEntity
  8
AM_0
  6
中線
 48
0.5
370
    30
100
AcDbLine
 10
6281.641913538912
 20
-6554.412419114891
 30
0.0
 11
6279.922257538913
 21
-6545.89007911489
 31
0.0
  0
LINE
  5
567FD
330
1F
100
AcDbEntity
  8
AM_0
  6
中線
 48
0.5
370
    30
100
AcDbLine
 10
6278.053808538913
 20
-6554.35726011489
 30
0.0
 11
6276.667236538913
 21
-6545.86255411489
 31
0.0
  0
LINE
  5
567FE
330
1F
100
AcDbEntity
  8
AM_0
  6
中線
 48
0.5
370
    30
100
AcDbLine
 10
6279.542679538913
 20
-6554.191742114889
 30
0.0
 11
6278.147698538912
 21
-6545.62124411489
 31
0.0
  0
LINE
  5
567FF
330
1F
100
AcDbEntity
  8
AM_0
  6
中線
 48
0.5
370
    30
100
AcDbLine
 10
6276.292679538913
 20
-6554.191742114889
 30
0.0
 11
6274.897698538913
 21
-6545.62124411489
 31
0.0
  0
LINE
  5
56800
330
1F
100
AcDbEntity
  8
AM_0
  6
中線
 48
0.5
370
    30
100
AcDbLine
 10
6283.157440538913
 20
-6545.74173211489
 30
0.0
 11
6283.157440538913
 21
-6554.24173211489
 31
0.0
  0
LINE
  5
56801
330
1F
100
AcDbEntity
  8
AM_0
  6
中線
 48
0.5
370
    30
100
AcDbLine
 10
6284.657440538913
 20
-6554.24173211489
 30
0.0
 11
6284.657440538913
 21
-6545.74173211489
 31
0.0
  0
LINE
  5
56802
330
1F
100
AcDbEntity
  8
AM_0
  6
中線
 48
0.5
370
    30
100
AcDbLine
 10
6270.157440538913
 20
-6554.24173211489
 30
0.0
 11
6270.157440538913
 21
-6545.74173211489
 31
0.0
  0
ARC
  5
56803
330
1F
100
AcDbEntity
  8
AM_0
  6
中線
 48
0.5
370
    30
100
AcDbCircle
 10
6269.407440538913
 20
-6554.24173211489
 30
0.0
 40
0.75
100
AcDbArc
 50
180.0
 51
0.0
  0
LINE
  5
56804
330
1F
100
AcDbEntity
  8
AM_0
  6
中線
 48
0.5
370
    30
100
AcDbLine
 10
6270.157440538913
 20
-6554.24173211489
 30
0.0
 11
6270.632843538912
 21
-6551.491732114889
 31
0.0
  0
ARC
  5
56805
330
1F
100
AcDbEntity
  8
AM_0
  6
中線
 48
0.5
370
    30
100
AcDbCircle
 10
6272.294012538912
 20
-6554.236438114891
 30
0.0
 40
0.75
100
AcDbArc
 50
189.2447029999991
 51
3.416547000026048
  0
LINE
  5
56806
330
1F
100
AcDbEntity
  8
AM_0
  6
中線
 48
0.5
370
    30
100
AcDbLine
 10
6276.275982538913
 20
-6554.399900114891
 30
0.0
 11
6276.925429538913
 21
-6551.491732114889
 31
0.0
  0
ARC
  5
56807
330
1F
100
AcDbEntity
  8
AM_0
  6
中線
 48
0.5
370
    30
100
AcDbCircle
 10
6275.544012538912
 20
-6554.236438114891
 30
0.0
 40
0.75
100
AcDbArc
 50
189.2447029999991
 51
3.416547000026048
  0
LINE
  5
56808
330
1F
100
AcDbEntity
  8
AM_0
  6
中線
 48
0.5
370
    30
100
AcDbLine
 10
6273.025982538913
 20
-6554.399900114891
 30
0.0
 11
6273.675429538912
 21
-6551.491732114889
 31
0.0
  0
ARC
  5
56809
330
1F
100
AcDbEntity
  8
AM_0
  6
中線
 48
0.5
370
    30
100
AcDbCircle
 10
6282.370974538912
 20
-6554.236438114891
 30
0.0
 40
0.75
100
AcDbArc
 50
193.5704910000324
 51
9.244702999999169
  0
ARC
  5
5680A
330
1F
100
AcDbEntity
  8
AM_0
  6
中線
 48
0.5
370
    30
100
AcDbCircle
 10
6278.794012538913
 20
-6554.236438114891
 30
0.0
 40
0.75
100
AcDbArc
 50
189.2705140000389
 51
3.416547000026048
  0
ARC
  5
5680B
330
1F
100
AcDbEntity
  8
AM_0
  6
中線
 48
0.5
370
    30
100
AcDbCircle
 10
6283.907440538913
 20
-6554.24173211489
 30
0.0
 40
0.75
100
AcDbArc
 50
180.0
 51
0.0
  0
ARC
  5
5680C
330
1F
100
AcDbEntity
  8
AM_0
  6
中線
 48
0.5
370
    30
100
AcDbCircle
 10
6269.407440538913
 20
-6545.74173211489
 30
0.0
 40
0.75
100
AcDbArc
 50
0.0
 51
180.0
  0
ARC
  5
5680D
330
1F
100
AcDbEntity
  8
AM_0
  6
中線
 48
0.5
370
    30
100
AcDbCircle
 10
6277.407440538913
 20
-6545.74173211489
 30
0.0
 40
0.75
100
AcDbArc
 50
9.244702999999169
 51
189.2705140000389
  0
ARC
  5
5680E
330
1F
100
AcDbEntity
  8
AM_0
  6
中線
 48
0.5
370
    30
100
AcDbCircle
 10
6270.907440538913
 20
-6545.74173211489
 30
0.0
 40
0.75
100
AcDbArc
 50
9.244702999999169
 51
189.2705140000389
  0
ARC
  5
5680F
330
1F
100
AcDbEntity
  8
AM_0
  6
中線
 48
0.5
370
    30
100
AcDbCircle
 10
6274.157440538913
 20
-6545.74173211489
 30
0.0
 40
0.75
100
AcDbArc
 50
9.244702999999169
 51
189.2705140000389
  0
LINE
  5
56810
330
1F
100
AcDbEntity
  8
AM_0
  6
中線
 48
0.5
370
    30
100
AcDbLine
 10
6273.407790538914
 20
-6545.718825114891
 30
0.0
 11
6272.798670538914
 21
-6548.491732114891
 31
0.0
  0
LINE
  5
56811
330
1F
100
AcDbEntity
  8
AM_0
  6
中線
 48
0.5
370
    30
100
AcDbLine
 10
6276.652758538913
 20
-6545.74173211489
 30
0.0
 11
6276.048670538913
 21
-6548.491732114891
 31
0.0
  0
ARC
  5
56812
330
1F
100
AcDbEntity
  8
AM_0
  6
中線
 48
0.5
370
    30
100
AcDbCircle
 10
6283.907440538913
 20
-6545.74173211489
 30
0.0
 40
0.75
100
AcDbArc
 50
0.0
 51
180.0
  0
ARC
  5
56813
330
1F
100
AcDbEntity
  8
AM_0
  6
中線
 48
0.5
370
    30
100
AcDbCircle
 10
6280.657440538913
 20
-6545.74173211489
 30
0.0
 40
0.75
100
AcDbArc
 50
11.40103399996345
 51
191.4080769999747
  0
ARC
  5
56814
330
1F
100
AcDbEntity
  8
AM_0
  6
中線
 48
0.5
370
    30
100
AcDbCircle
 10
6280.657440538913
 20
-6545.74173211489
 30
0.0
 40
0.75
100
AcDbArc
 50
189.2963169999899
 51
191.4080780000277
  0
LINE
  5
56815
330
1F
100
AcDbEntity
  8
AM_0
  6
中線
 48
0.5
370
    30
100
AcDbLine
 10
6279.902758538913
 20
-6545.74173211489
 30
0.0
 11
6279.298670538913
 21
-6548.491732114891
 31
0.0
  0
LINE
  5
56816
330
1F
100
AcDbEntity
  8
AM_0
  6
中線
 48
0.5
370
    30
100
AcDbLine
 10
6283.157440538913
 20
-6545.74173211489
 30
0.0
 11
6282.657651538912
 21
-6548.491732114891
 31
0.0
  0
LINE
  5
56817
330
1F
100
AcDbEntity
  8
AM_0
  6
中線
 48
0.5
370
    30
100
AcDbLine
 10
6270.157440538913
 20
-6548.491732114891
 30
0.0
 11
6270.596391538913
 21
-6548.491732114891
 31
0.0
  0
LINE
  5
56818
330
1F
100
AcDbEntity
  8
AM_0
  6
中線
 48
0.5
370
    30
100
AcDbLine
 10
6270.157440538913
 20
-6549.991732114889
 30
0.0
 11
6270.841232538913
 21
-6549.991732114889
 31
0.0
  0
LINE
  5
56819
330
1F
100
AcDbEntity
  8
AM_0
  6
中線
 48
0.5
370
    30
100
AcDbLine
 10
6270.157440538913
 20
-6551.491732114889
 30
0.0
 11
6271.086074538913
 21
-6551.491732114889
 31
0.0
  0
LINE
  5
5681A
330
1F
100
AcDbEntity
  8
AM_0
  6
中線
 48
0.5
370
    30
100
AcDbLine
 10
6272.114914538913
 20
-6548.491732114891
 30
0.0
 11
6273.846391538913
 21
-6548.491732114891
 31
0.0
  0
LINE
  5
5681B
330
1F
100
AcDbEntity
  8
AM_0
  6
中線
 48
0.5
370
    30
100
AcDbLine
 10
6272.359063538913
 20
-6549.991732114889
 30
0.0
 11
6274.091232538912
 21
-6549.991732114889
 31
0.0
  0
LINE
  5
5681C
330
1F
100
AcDbEntity
  8
AM_0
  6
中線
 48
0.5
370
    30
100
AcDbLine
 10
6272.603211538912
 20
-6551.491732114889
 30
0.0
 11
6274.336074538912
 21
-6551.491732114889
 31
0.0
  0
LINE
  5
5681D
330
1F
100
AcDbEntity
  8
AM_0
  6
中線
 48
0.5
370
    30
100
AcDbLine
 10
6275.364914538912
 20
-6548.491732114891
 30
0.0
 11
6277.096391538913
 21
-6548.491732114891
 31
0.0
  0
LINE
  5
5681E
330
1F
100
AcDbEntity
  8
AM_0
  6
中線
 48
0.5
370
    30
100
AcDbLine
 10
6275.609063538913
 20
-6549.991732114889
 30
0.0
 11
6277.341232538913
 21
-6549.991732114889
 31
0.0
  0
LINE
  5
5681F
330
1F
100
AcDbEntity
  8
AM_0
  6
中線
 48
0.5
370
    30
100
AcDbLine
 10
6275.853211538913
 20
-6551.491732114889
 30
0.0
 11
6277.586074538913
 21
-6551.491732114889
 31
0.0
  0
LINE
  5
56820
330
1F
100
AcDbEntity
  8
AM_0
  6
中線
 48
0.5
370
    30
100
AcDbLine
 10
6278.614914538913
 20
-6548.491732114891
 30
0.0
 11
6280.447224538913
 21
-6548.491732114891
 31
0.0
  0
LINE
  5
56821
330
1F
100
AcDbEntity
  8
AM_0
  6
中線
 48
0.5
370
    30
100
AcDbLine
 10
6278.859063538913
 20
-6549.991732114889
 30
0.0
 11
6280.749897538913
 21
-6549.991732114889
 31
0.0
  0
LINE
  5
56822
330
1F
100
AcDbEntity
  8
AM_0
  6
中線
 48
0.5
370
    30
100
AcDbLine
 10
6279.103211538913
 20
-6551.491732114889
 30
0.0
 11
6281.052570538913
 21
-6551.491732114889
 31
0.0
  0
LINE
  5
56823
330
1F
100
AcDbEntity
  8
AM_0
  6
中線
 48
0.5
370
    30
100
AcDbLine
 10
6281.977086538913
 20
-6548.491732114891
 30
0.0
 11
6283.157440538913
 21
-6548.491732114891
 31
0.0
  0
LINE
  5
56824
330
1F
100
AcDbEntity
  8
AM_0
  6
中線
 48
0.5
370
    30
100
AcDbLine
 10
6282.582048538912
 20
-6551.491732114889
 30
0.0
 11
6283.157440538913
 21
-6551.491732114889
 31
0.0
  0
LINE
  5
56825
330
1F
100
AcDbEntity
  8
AM_0
  6
中線
 48
0.5
370
    30
100
AcDbLine
 10
6282.279567538912
 20
-6549.991732114889
 30
0.0
 11
6283.157440538913
 21
-6549.991732114889
 31
0.0
  0
LINE
  5
56826
330
1F
100
AcDbEntity
  8
AM_0
  6
中線
 48
0.5
370
    30
100
AcDbLine
 10
6284.657440538913
 20
-6548.491732114891
 30
0.0
 11
6287.575815434518
 21
-6548.491732114891
 31
0.0
  0
LINE
  5
56827
330
1F
100
AcDbEntity
  8
AM_0
  6
中線
 48
0.5
370
    30
100
AcDbLine
 10
6284.657440538913
 20
-6549.991732114889
 30
0.0
 11
6289.171778538912
 21
-6549.991732114889
 31
0.0
  0
LINE
  5
56828
330
1F
100
AcDbEntity
  8
AM_0
  6
中線
 48
0.5
370
    30
100
AcDbLine
 10
6284.657440538913
 20
-6551.491732114889
 30
0.0
 11
6289.171778538912
 21
-6551.491732114889
 31
0.0
  0
LINE
  5
56829
330
1F
100
AcDbEntity
  8
AM_0
  6
中線
 48
0.5
370
    30
100
AcDbLine
 10
6268.657440538913
 20
-6516.741732114891
 30
0.0
 11
6268.657440538913
 21
-6508.241732114891
 31
0.0
  0
LINE
  5
5682A
330
1F
100
AcDbEntity
  8
AM_0
  6
中線
 48
0.5
370
    30
100
AcDbLine
 10
6274.803754538912
 20
-6516.85692611489
 30
0.0
 11
6273.417236538914
 21
-6508.36255411489
 31
0.0
  0
LINE
  5
5682B
330
1F
100
AcDbEntity
  8
AM_0
  6
中線
 48
0.5
370
    30
100
AcDbLine
 10
6271.553808538913
 20
-6516.857260114891
 30
0.0
 11
6270.167236538913
 21
-6508.36255411489
 31
0.0
  0
LINE
  5
5682C
330
1F
100
AcDbEntity
  8
AM_0
  6
中線
 48
0.5
370
    30
100
AcDbLine
 10
6273.042679538913
 20
-6516.69174211489
 30
0.0
 11
6271.647698538913
 21
-6508.121244114891
 31
0.0
  0
LINE
  5
5682D
330
1F
100
AcDbEntity
  8
AM_0
  6
中線
 48
0.5
370
    30
100
AcDbLine
 10
6279.525982538913
 20
-6554.399900114891
 30
0.0
 11
6280.175429538913
 21
-6551.491732114889
 31
0.0
  0
LINE
  5
5682E
330
1F
100
AcDbEntity
  8
AM_0
  6
中線
 48
0.5
370
    30
100
AcDbLine
 10
6283.111232538914
 20
-6516.61594911489
 30
0.0
 11
6281.392640538913
 21
-6508.093476114891
 31
0.0
  0
LINE
  5
5682F
330
1F
100
AcDbEntity
  8
AM_0
  6
中線
 48
0.5
370
    30
100
AcDbLine
 10
6281.641891538914
 20
-6516.912329114891
 30
0.0
 11
6279.917184538913
 21
-6508.362233114891
 31
0.0
  0
LINE
  5
56830
330
1F
100
AcDbEntity
  8
AM_0
  6
中線
 48
0.5
370
    30
100
AcDbLine
 10
6278.053754538913
 20
-6516.85692611489
 30
0.0
 11
6276.667236538913
 21
-6508.36255411489
 31
0.0
  0
LINE
  5
56831
330
1F
100
AcDbEntity
  8
AM_0
  6
中線
 48
0.5
370
    30
100
AcDbLine
 10
6279.542679538913
 20
-6516.69174211489
 30
0.0
 11
6278.147698538912
 21
-6508.121244114891
 31
0.0
  0
LINE
  5
56832
330
1F
100
AcDbEntity
  8
AM_0
  6
中線
 48
0.5
370
    30
100
AcDbLine
 10
6276.292679538913
 20
-6516.69174211489
 30
0.0
 11
6274.897698538913
 21
-6508.121244114891
 31
0.0
  0
LINE
  5
56833
330
1F
100
AcDbEntity
  8
AM_0
  6
中線
 48
0.5
370
    30
100
AcDbLine
 10
6283.157440538913
 20
-6508.241732114891
 30
0.0
 11
6283.157440538913
 21
-6516.741732114891
 31
0.0
  0
LINE
  5
56834
330
1F
100
AcDbEntity
  8
AM_0
  6
中線
 48
0.5
370
    30
100
AcDbLine
 10
6284.657440538913
 20
-6516.741732114891
 30
0.0
 11
6284.657440538913
 21
-6508.241732114891
 31
0.0
  0
LINE
  5
56835
330
1F
100
AcDbEntity
  8
AM_0
  6
中線
 48
0.5
370
    30
100
AcDbLine
 10
6270.157440538913
 20
-6516.741732114891
 30
0.0
 11
6270.157440538913
 21
-6508.241732114891
 31
0.0
  0
LINE
  5
56836
330
1F
100
AcDbEntity
  8
AM_0
  6
中線
 48
0.5
370
    30
100
AcDbLine
 10
6275.609063538913
 20
-6512.49173211489
 30
0.0
 11
6277.341232538913
 21
-6512.49173211489
 31
0.0
  0
ARC
  5
56837
330
1F
100
AcDbEntity
  8
AM_0
  6
中線
 48
0.5
370
    30
100
AcDbCircle
 10
6275.544012538912
 20
-6516.736438114891
 30
0.0
 40
0.75
100
AcDbArc
 50
189.2447029999991
 51
3.416552000028893
  0
ARC
  5
56838
330
1F
100
AcDbEntity
  8
AM_0
  6
中線
 48
0.5
370
    30
100
AcDbCircle
 10
6269.407440538913
 20
-6516.741732114891
 30
0.0
 40
0.75
100
AcDbArc
 50
180.0
 51
0.0
  0
ARC
  5
56839
330
1F
100
AcDbEntity
  8
AM_0
  6
中線
 48
0.5
370
    30
100
AcDbCircle
 10
6272.294012538912
 20
-6516.736438114891
 30
0.0
 40
0.75
100
AcDbArc
 50
189.2705140000389
 51
3.416552000028893
  0
LINE
  5
5683A
330
1F
100
AcDbEntity
  8
AM_0
  6
中線
 48
0.5
370
    30
100
AcDbLine
 10
6270.157440538913
 20
-6513.99173211489
 30
0.0
 11
6271.086074538913
 21
-6513.99173211489
 31
0.0
  0
LINE
  5
5683B
330
1F
100
AcDbEntity
  8
AM_0
  6
中線
 48
0.5
370
    30
100
AcDbLine
 10
6270.157440538913
 20
-6512.49173211489
 30
0.0
 11
6270.841232538913
 21
-6512.49173211489
 31
0.0
  0
LINE
  5
5683C
330
1F
100
AcDbEntity
  8
AM_0
  6
中線
 48
0.5
370
    30
100
AcDbLine
 10
6270.157440538913
 20
-6516.741732114891
 30
0.0
 11
6270.632843538912
 21
-6513.99173211489
 31
0.0
  0
LINE
  5
5683D
330
1F
100
AcDbEntity
  8
AM_0
  6
中線
 48
0.5
370
    30
100
AcDbLine
 10
6272.603211538912
 20
-6513.99173211489
 30
0.0
 11
6274.336074538912
 21
-6513.99173211489
 31
0.0
  0
LINE
  5
5683E
330
1F
100
AcDbEntity
  8
AM_0
  6
中線
 48
0.5
370
    30
100
AcDbLine
 10
6272.359063538913
 20
-6512.49173211489
 30
0.0
 11
6274.091232538912
 21
-6512.49173211489
 31
0.0
  0
LINE
  5
5683F
330
1F
100
AcDbEntity
  8
AM_0
  6
中線
 48
0.5
370
    30
100
AcDbLine
 10
6276.674215538913
 20
-6508.083993114891
 30
0.0
 11
6276.048670538913
 21
-6510.991732114892
 31
0.0
  0
ARC
  5
56840
330
1F
100
AcDbEntity
  8
AM_0
  6
中線
 48
0.5
370
    30
100
AcDbCircle
 10
6283.907440538913
 20
-6516.741732114891
 30
0.0
 40
0.75
100
AcDbArc
 50
180.0
 51
0.0
  0
ARC
  5
56841
330
1F
100
AcDbEntity
  8
AM_0
  6
中線
 48
0.5
370
    30
100
AcDbCircle
 10
6278.794012538913
 20
-6516.736438114891
 30
0.0
 40
0.75
100
AcDbArc
 50
189.2447029999991
 51
3.416552000028893
  0
ARC
  5
56842
330
1F
100
AcDbEntity
  8
AM_0
  6
中線
 48
0.5
370
    30
100
AcDbCircle
 10
6282.370974538912
 20
-6516.736438114891
 30
0.0
 40
0.75
100
AcDbArc
 50
193.5634189999944
 51
9.244702999999169
  0
LINE
  5
56843
330
1F
100
AcDbEntity
  8
AM_0
  6
中線
 48
0.5
370
    30
100
AcDbLine
 10
6278.859063538913
 20
-6512.49173211489
 30
0.0
 11
6280.749897538913
 21
-6512.49173211489
 31
0.0
  0
LINE
  5
56844
330
1F
100
AcDbEntity
  8
AM_0
  6
中線
 48
0.5
370
    30
100
AcDbLine
 10
6279.103211538913
 20
-6513.99173211489
 30
0.0
 11
6281.052570538913
 21
-6513.99173211489
 31
0.0
  0
LINE
  5
56845
330
1F
100
AcDbEntity
  8
AM_0
  6
中線
 48
0.5
370
    30
100
AcDbLine
 10
6275.853211538913
 20
-6513.99173211489
 30
0.0
 11
6277.586074538913
 21
-6513.99173211489
 31
0.0
  0
LINE
  5
56846
330
1F
100
AcDbEntity
  8
AM_0
  6
中線
 48
0.5
370
    30
100
AcDbLine
 10
6273.424215538913
 20
-6508.083993114891
 30
0.0
 11
6272.798670538914
 21
-6510.991732114892
 31
0.0
  0
LINE
  5
56847
330
1F
100
AcDbEntity
  8
AM_0
  6
中線
 48
0.5
370
    30
100
AcDbLine
 10
6282.582048538912
 20
-6513.99173211489
 30
0.0
 11
6283.157440538913
 21
-6513.99173211489
 31
0.0
  0
LINE
  5
56848
330
1F
100
AcDbEntity
  8
AM_0
  6
中線
 48
0.5
370
    30
100
AcDbLine
 10
6282.279567538912
 20
-6512.49173211489
 30
0.0
 11
6283.157440538913
 21
-6512.49173211489
 31
0.0
  0
LINE
  5
56849
330
1F
100
AcDbEntity
  8
AM_0
  6
中線
 48
0.5
370
    30
100
AcDbLine
 10
6275.364914538912
 20
-6510.991732114892
 30
0.0
 11
6277.096391538913
 21
-6510.991732114892
 31
0.0
  0
LINE
  5
5684A
330
1F
100
AcDbEntity
  8
AM_0
  6
中線
 48
0.5
370
    30
100
AcDbLine
 10
6270.157440538913
 20
-6510.991732114892
 30
0.0
 11
6270.596391538913
 21
-6510.991732114892
 31
0.0
  0
ARC
  5
5684B
330
1F
100
AcDbEntity
  8
AM_0
  6
中線
 48
0.5
370
    30
100
AcDbCircle
 10
6269.407440538913
 20
-6508.241732114891
 30
0.0
 40
0.75
100
AcDbArc
 50
0.0
 51
180.0
  0
ARC
  5
5684C
330
1F
100
AcDbEntity
  8
AM_0
  6
中線
 48
0.5
370
    30
100
AcDbCircle
 10
6270.907440538913
 20
-6508.241732114891
 30
0.0
 40
0.75
100
AcDbArc
 50
9.244702999999169
 51
189.2705140000389
  0
LINE
  5
5684D
330
1F
100
AcDbEntity
  8
AM_0
  6
中線
 48
0.5
370
    30
100
AcDbLine
 10
6272.114914538913
 20
-6510.991732114892
 30
0.0
 11
6273.846391538913
 21
-6510.991732114892
 31
0.0
  0
ARC
  5
5684E
330
1F
100
AcDbEntity
  8
AM_0
  6
中線
 48
0.5
370
    30
100
AcDbCircle
 10
6274.157440538913
 20
-6508.241732114891
 30
0.0
 40
0.75
100
AcDbArc
 50
9.244702999999169
 51
189.2705140000389
  0
ARC
  5
5684F
330
1F
100
AcDbEntity
  8
AM_0
  6
中線
 48
0.5
370
    30
100
AcDbCircle
 10
6283.907440538913
 20
-6508.241732114891
 30
0.0
 40
0.75
100
AcDbArc
 50
0.0
 51
180.0
  0
LINE
  5
56850
330
1F
100
AcDbEntity
  8
AM_0
  6
中線
 48
0.5
370
    30
100
AcDbLine
 10
6278.614914538913
 20
-6510.991732114892
 30
0.0
 11
6280.447224538913
 21
-6510.991732114892
 31
0.0
  0
ARC
  5
56851
330
1F
100
AcDbEntity
  8
AM_0
  6
中線
 48
0.5
370
    30
100
AcDbCircle
 10
6280.657440538913
 20
-6508.241732114891
 30
0.0
 40
0.75
100
AcDbArc
 50
11.40103399996345
 51
189.2456659999967
  0
ARC
  5
56852
330
1F
100
AcDbEntity
  8
AM_0
  6
中線
 48
0.5
370
    30
100
AcDbCircle
 10
6277.407440538913
 20
-6508.241732114891
 30
0.0
 40
0.75
100
AcDbArc
 50
9.244702999999169
 51
189.2705140000389
  0
LINE
  5
56853
330
1F
100
AcDbEntity
  8
AM_0
  6
中線
 48
0.5
370
    30
100
AcDbLine
 10
6281.977086538913
 20
-6510.991732114892
 30
0.0
 11
6283.157440538913
 21
-6510.991732114892
 31
0.0
  0
LINE
  5
56854
330
1F
100
AcDbEntity
  8
AM_0
  6
中線
 48
0.5
370
    30
100
AcDbLine
 10
6301.886101538912
 20
-6653.272244675183
 30
0.0
 11
6301.886101538912
 21
-6651.772244675183
 31
0.0
  0
LINE
  5
56855
330
1F
100
AcDbEntity
  8
AM_0
  6
中線
 48
0.5
370
    30
100
AcDbLine
 10
6270.157440538913
 20
-6510.991732114892
 30
0.0
 11
6270.596391538913
 21
-6510.991732114892
 31
0.0
  0
LINE
  5
56856
330
1F
100
AcDbEntity
  8
AM_0
  6
中線
 48
0.5
370
    30
100
AcDbLine
 10
6272.114914538913
 20
-6510.991732114892
 30
0.0
 11
6273.846391538913
 21
-6510.991732114892
 31
0.0
  0
LINE
  5
56857
330
1F
100
AcDbEntity
  8
AM_0
  6
中線
 48
0.5
370
    30
100
AcDbLine
 10
6275.364914538912
 20
-6510.991732114892
 30
0.0
 11
6277.096391538913
 21
-6510.991732114892
 31
0.0
  0
LINE
  5
56858
330
1F
100
AcDbEntity
  8
AM_0
  6
中線
 48
0.5
370
    30
100
AcDbLine
 10
6278.614914538913
 20
-6510.991732114892
 30
0.0
 11
6280.447224538913
 21
-6510.991732114892
 31
0.0
  0
LINE
  5
56859
330
1F
100
AcDbEntity
  8
AM_0
  6
中線
 48
0.5
370
    30
100
AcDbLine
 10
6281.977086538913
 20
-6510.991732114892
 30
0.0
 11
6283.157440538913
 21
-6510.991732114892
 31
0.0
  0
LINE
  5
5685A
330
1F
100
AcDbEntity
  8
AM_0
  6
中線
 48
0.5
370
    30
100
AcDbLine
 10
6284.657440538913
 20
-6510.991732114892
 30
0.0
 11
6289.171778538912
 21
-6510.991732114892
 31
0.0
  0
LINE
  5
5685B
330
1F
100
AcDbEntity
  8
AM_0
  6
中線
 48
0.5
370
    30
100
AcDbLine
 10
6284.657440538913
 20
-6513.99173211489
 30
0.0
 11
6287.575815434518
 21
-6513.99173211489
 31
0.0
  0
LINE
  5
5685C
330
1F
100
AcDbEntity
  8
AM_0
  6
中線
 48
0.5
370
    30
100
AcDbLine
 10
6282.582048538912
 20
-6513.99173211489
 30
0.0
 11
6283.157440538913
 21
-6513.99173211489
 31
0.0
  0
LINE
  5
5685D
330
1F
100
AcDbEntity
  8
AM_0
  6
中線
 48
0.5
370
    30
100
AcDbLine
 10
6279.103211538913
 20
-6513.99173211489
 30
0.0
 11
6281.052570538913
 21
-6513.99173211489
 31
0.0
  0
LINE
  5
5685E
330
1F
100
AcDbEntity
  8
AM_0
  6
中線
 48
0.5
370
    30
100
AcDbLine
 10
6275.853211538913
 20
-6513.99173211489
 30
0.0
 11
6277.586074538913
 21
-6513.99173211489
 31
0.0
  0
LINE
  5
5685F
330
1F
100
AcDbEntity
  8
AM_0
  6
中線
 48
0.5
370
    30
100
AcDbLine
 10
6272.603211538912
 20
-6513.99173211489
 30
0.0
 11
6274.336074538912
 21
-6513.99173211489
 31
0.0
  0
LINE
  5
56860
330
1F
100
AcDbEntity
  8
AM_0
  6
中線
 48
0.5
370
    30
100
AcDbLine
 10
6270.157440538913
 20
-6513.99173211489
 30
0.0
 11
6271.086074538913
 21
-6513.99173211489
 31
0.0
  0
LINE
  5
56861
330
1F
100
AcDbEntity
  8
AM_0
  6
中線
 48
0.5
370
    30
100
AcDbLine
 10
6270.157440538913
 20
-6512.49173211489
 30
0.0
 11
6270.841232538913
 21
-6512.49173211489
 31
0.0
  0
LINE
  5
56862
330
1F
100
AcDbEntity
  8
AM_0
  6
中線
 48
0.5
370
    30
100
AcDbLine
 10
6272.359063538913
 20
-6512.49173211489
 30
0.0
 11
6274.091232538912
 21
-6512.49173211489
 31
0.0
  0
LINE
  5
56863
330
1F
100
AcDbEntity
  8
AM_0
  6
中線
 48
0.5
370
    30
100
AcDbLine
 10
6275.609063538913
 20
-6512.49173211489
 30
0.0
 11
6277.341232538913
 21
-6512.49173211489
 31
0.0
  0
LINE
  5
56864
330
1F
100
AcDbEntity
  8
AM_0
  6
中線
 48
0.5
370
    30
100
AcDbLine
 10
6278.859063538913
 20
-6512.49173211489
 30
0.0
 11
6280.749897538913
 21
-6512.49173211489
 31
0.0
  0
LINE
  5
56865
330
1F
100
AcDbEntity
  8
AM_0
  6
中線
 48
0.5
370
    30
100
AcDbLine
 10
6282.279567538912
 20
-6512.49173211489
 30
0.0
 11
6283.157440538913
 21
-6512.49173211489
 31
0.0
  0
LINE
  5
56866
330
1F
100
AcDbEntity
  8
AM_0
  6
中線
 48
0.5
370
    30
100
AcDbLine
 10
6284.657440538913
 20
-6512.49173211489
 30
0.0
 11
6289.171778538912
 21
-6512.49173211489
 31
0.0
  0
LINE
  5
56867
330
1F
100
AcDbEntity
  8
AM_0
  6
中線
 48
0.5
370
    30
100
AcDbLine
 10
6326.786101538913
 20
-6653.272244675183
 30
0.0
 11
6326.786101538913
 21
-6651.772244675183
 31
0.0
  0
LINE
  5
56868
330
1F
100
AcDbEntity
  8
AM_0
  6
中線
 48
0.5
370
    30
100
AcDbLine
 10
6261.786101538913
 20
-6668.272244675184
 30
0.0
 11
6261.786101538913
 21
-6671.522244675184
 31
0.0
  0
LINE
  5
56869
330
1F
100
AcDbEntity
  8
AM_0
  6
中線
 48
0.5
370
    30
100
AcDbLine
 10
6263.286101538913
 20
-6668.272244675184
 30
0.0
 11
6263.286101538913
 21
-6671.522244675184
 31
0.0
  0
LINE
  5
5686A
330
1F
100
AcDbEntity
  8
AM_0
  6
中線
 48
0.5
370
    30
100
AcDbLine
 10
6268.657440538913
 20
-6676.272244675184
 30
0.0
 11
6268.657440538913
 21
-6667.772244675183
 31
0.0
  0
LINE
  5
5686B
330
1F
100
AcDbEntity
  8
AM_0
  6
中線
 48
0.5
370
    30
100
AcDbLine
 10
6274.803754538912
 20
-6676.387438675184
 30
0.0
 11
6273.417236538914
 21
-6667.893066675183
 31
0.0
  0
LINE
  5
5686C
330
1F
100
AcDbEntity
  8
AM_0
  6
中線
 48
0.5
370
    30
100
AcDbLine
 10
6271.553754538913
 20
-6676.387438675184
 30
0.0
 11
6270.167236538913
 21
-6667.893066675183
 31
0.0
  0
LINE
  5
5686D
330
1F
100
AcDbEntity
  8
AM_0
  6
中線
 48
0.5
370
    30
100
AcDbLine
 10
6273.042679538913
 20
-6676.222253675184
 30
0.0
 11
6271.647698538913
 21
-6667.651756675183
 31
0.0
  0
LINE
  5
5686E
330
1F
100
AcDbEntity
  8
AM_0
  6
中線
 48
0.5
370
    30
100
AcDbLine
 10
6283.111232538914
 20
-6676.146461675184
 30
0.0
 11
6281.392640538913
 21
-6667.623988675183
 31
0.0
  0
LINE
  5
5686F
330
1F
100
AcDbEntity
  8
AM_0
  6
中線
 48
0.5
370
    30
100
AcDbLine
 10
6281.630715538913
 20
-6676.387438675184
 30
0.0
 11
6279.922257538913
 21
-6667.920591675184
 31
0.0
  0
LINE
  5
56870
330
1F
100
AcDbEntity
  8
AM_0
  6
中線
 48
0.5
370
    30
100
AcDbLine
 10
6278.053754538913
 20
-6676.387438675184
 30
0.0
 11
6276.667236538913
 21
-6667.893066675183
 31
0.0
  0
LINE
  5
56871
330
1F
100
AcDbEntity
  8
AM_0
  6
中線
 48
0.5
370
    30
100
AcDbLine
 10
6279.542679538913
 20
-6676.222253675184
 30
0.0
 11
6278.147698538912
 21
-6667.651756675183
 31
0.0
  0
LINE
  5
56872
330
1F
100
AcDbEntity
  8
AM_0
  6
中線
 48
0.5
370
    30
100
AcDbLine
 10
6276.292679538913
 20
-6676.222253675184
 30
0.0
 11
6274.897698538913
 21
-6667.651756675183
 31
0.0
  0
LINE
  5
56873
330
1F
100
AcDbEntity
  8
AM_0
  6
中線
 48
0.5
370
    30
100
AcDbLine
 10
6283.157440538913
 20
-6667.772244675183
 30
0.0
 11
6283.157440538913
 21
-6676.272244675184
 31
0.0
  0
LINE
  5
56874
330
1F
100
AcDbEntity
  8
AM_0
  6
中線
 48
0.5
370
    30
100
AcDbLine
 10
6284.657440538913
 20
-6676.272244675184
 30
0.0
 11
6284.657440538913
 21
-6667.772244675183
 31
0.0
  0
LINE
  5
56875
330
1F
100
AcDbEntity
  8
AM_0
  6
中線
 48
0.5
370
    30
100
AcDbLine
 10
6270.157440538913
 20
-6676.272244675184
 30
0.0
 11
6270.157440538913
 21
-6667.772244675183
 31
0.0
  0
LINE
  5
56876
330
1F
100
AcDbEntity
  8
AM_0
  6
中線
 48
0.5
370
    30
100
AcDbLine
 10
6273.402758538914
 20
-6667.772244675183
 30
0.0
 11
6272.798670538914
 21
-6670.522244675183
 31
0.0
  0
LINE
  5
56877
330
1F
100
AcDbEntity
  8
AM_0
  6
中線
 48
0.5
370
    30
100
AcDbLine
 10
6279.907790538914
 20
-6667.749337675182
 30
0.0
 11
6279.298670538913
 21
-6670.522244675183
 31
0.0
  0
LINE
  5
56878
330
1F
100
AcDbEntity
  8
AM_0
  6
中線
 48
0.5
370
    30
100
AcDbLine
 10
6276.652758538913
 20
-6667.772244675183
 30
0.0
 11
6276.048670538913
 21
-6670.522244675183
 31
0.0
  0
LINE
  5
56879
330
1F
100
AcDbEntity
  8
AM_0
  6
中線
 48
0.5
370
    30
100
AcDbLine
 10
6283.157440538913
 20
-6667.772244675183
 30
0.0
 11
6282.657651538912
 21
-6670.522244675183
 31
0.0
  0
LINE
  5
5687A
330
1F
100
AcDbEntity
  8
AM_0
  6
中線
 48
0.5
370
    30
100
AcDbLine
 10
6275.609063538913
 20
-6672.022244675183
 30
0.0
 11
6277.341232538913
 21
-6672.022244675183
 31
0.0
  0
ARC
  5
5687B
330
1F
100
AcDbEntity
  8
AM_0
  6
中線
 48
0.5
370
    30
100
AcDbCircle
 10
6275.544012538912
 20
-6676.266949675182
 30
0.0
 40
0.75
100
AcDbArc
 50
189.2447029999987
 51
3.416547000026048
  0
LINE
  5
5687C
330
1F
100
AcDbEntity
  8
AM_0
  6
中線
 48
0.5
370
    30
100
AcDbLine
 10
6275.364914538912
 20
-6670.522244675183
 30
0.0
 11
6277.096391538913
 21
-6670.522244675183
 31
0.0
  0
LINE
  5
5687D
330
1F
100
AcDbEntity
  8
AM_0
  6
中線
 48
0.5
370
    30
100
AcDbLine
 10
6270.157440538913
 20
-6676.272244675184
 30
0.0
 11
6270.632843538912
 21
-6673.522244675183
 31
0.0
  0
LINE
  5
5687E
330
1F
100
AcDbEntity
  8
AM_0
  6
中線
 48
0.5
370
    30
100
AcDbLine
 10
6276.275982538913
 20
-6676.430411675183
 30
0.0
 11
6276.925429538913
 21
-6673.522244675183
 31
0.0
  0
ARC
  5
5687F
330
1F
100
AcDbEntity
  8
AM_0
  6
中線
 48
0.5
370
    30
100
AcDbCircle
 10
6272.294012538912
 20
-6676.266949675182
 30
0.0
 40
0.75
100
AcDbArc
 50
189.2447029999987
 51
3.416547000026048
  0
ARC
  5
56880
330
1F
100
AcDbEntity
  8
AM_0
  6
中線
 48
0.5
370
    30
100
AcDbCircle
 10
6269.407440538913
 20
-6676.272244675184
 30
0.0
 40
0.75
100
AcDbArc
 50
180.0
 51
0.0
  0
LINE
  5
56881
330
1F
100
AcDbEntity
  8
AM_0
  6
中線
 48
0.5
370
    30
100
AcDbLine
 10
6270.157440538913
 20
-6673.522244675183
 30
0.0
 11
6271.086074538913
 21
-6673.522244675183
 31
0.0
  0
LINE
  5
56882
330
1F
100
AcDbEntity
  8
AM_0
  6
中線
 48
0.5
370
    30
100
AcDbLine
 10
6270.157440538913
 20
-6672.022244675183
 30
0.0
 11
6270.841232538913
 21
-6672.022244675183
 31
0.0
  0
LINE
  5
56883
330
1F
100
AcDbEntity
  8
AM_0
  6
中線
 48
0.5
370
    30
100
AcDbLine
 10
6270.157440538913
 20
-6670.522244675183
 30
0.0
 11
6270.596391538913
 21
-6670.522244675183
 31
0.0
  0
LINE
  5
56884
330
1F
100
AcDbEntity
  8
AM_0
  6
中線
 48
0.5
370
    30
100
AcDbLine
 10
6272.603211538912
 20
-6673.522244675183
 30
0.0
 11
6274.336074538912
 21
-6673.522244675183
 31
0.0
  0
LINE
  5
56885
330
1F
100
AcDbEntity
  8
AM_0
  6
中線
 48
0.5
370
    30
100
AcDbLine
 10
6272.359063538913
 20
-6672.022244675183
 30
0.0
 11
6274.091232538912
 21
-6672.022244675183
 31
0.0
  0
LINE
  5
56886
330
1F
100
AcDbEntity
  8
AM_0
  6
中線
 48
0.5
370
    30
100
AcDbLine
 10
6272.114914538913
 20
-6670.522244675183
 30
0.0
 11
6273.846391538913
 21
-6670.522244675183
 31
0.0
  0
ARC
  5
56887
330
1F
100
AcDbEntity
  8
AM_0
  6
中線
 48
0.5
370
    30
100
AcDbCircle
 10
6283.907440538913
 20
-6676.272244675184
 30
0.0
 40
0.75
100
AcDbArc
 50
180.0
 51
0.0
  0
LINE
  5
56888
330
1F
100
AcDbEntity
  8
AM_0
  6
中線
 48
0.5
370
    30
100
AcDbLine
 10
6273.025982538913
 20
-6676.430411675183
 30
0.0
 11
6273.675429538912
 21
-6673.522244675183
 31
0.0
  0
ARC
  5
56889
330
1F
100
AcDbEntity
  8
AM_0
  6
中線
 48
0.5
370
    30
100
AcDbCircle
 10
6278.794012538913
 20
-6676.266949675182
 30
0.0
 40
0.75
100
AcDbArc
 50
189.2447029999987
 51
3.416547000026048
  0
ARC
  5
5688A
330
1F
100
AcDbEntity
  8
AM_0
  6
中線
 48
0.5
370
    30
100
AcDbCircle
 10
6282.370974538912
 20
-6676.266949675182
 30
0.0
 40
0.75
100
AcDbArc
 50
189.2447029999987
 51
9.244702999999169
  0
LINE
  5
5688B
330
1F
100
AcDbEntity
  8
AM_0
  6
中線
 48
0.5
370
    30
100
AcDbLine
 10
6278.859063538913
 20
-6672.022244675183
 30
0.0
 11
6280.749897538913
 21
-6672.022244675183
 31
0.0
  0
LINE
  5
5688C
330
1F
100
AcDbEntity
  8
AM_0
  6
中線
 48
0.5
370
    30
100
AcDbLine
 10
6279.103211538913
 20
-6673.522244675183
 30
0.0
 11
6281.052570538913
 21
-6673.522244675183
 31
0.0
  0
LINE
  5
5688D
330
1F
100
AcDbEntity
  8
AM_0
  6
中線
 48
0.5
370
    30
100
AcDbLine
 10
6278.614914538913
 20
-6670.522244675183
 30
0.0
 11
6280.447224538913
 21
-6670.522244675183
 31
0.0
  0
LINE
  5
5688E
330
1F
100
AcDbEntity
  8
AM_0
  6
中線
 48
0.5
370
    30
100
AcDbLine
 10
6275.853211538913
 20
-6673.522244675183
 30
0.0
 11
6277.586074538913
 21
-6673.522244675183
 31
0.0
  0
LINE
  5
5688F
330
1F
100
AcDbEntity
  8
AM_0
  6
中線
 48
0.5
370
    30
100
AcDbLine
 10
6282.582048538912
 20
-6673.522244675183
 30
0.0
 11
6283.157440538913
 21
-6673.522244675183
 31
0.0
  0
LINE
  5
56890
330
1F
100
AcDbEntity
  8
AM_0
  6
中線
 48
0.5
370
    30
100
AcDbLine
 10
6282.279567538912
 20
-6672.022244675183
 30
0.0
 11
6283.157440538913
 21
-6672.022244675183
 31
0.0
  0
LINE
  5
56891
330
1F
100
AcDbEntity
  8
AM_0
  6
中線
 48
0.5
370
    30
100
AcDbLine
 10
6281.977086538913
 20
-6670.522244675183
 30
0.0
 11
6283.157440538913
 21
-6670.522244675183
 31
0.0
  0
LINE
  5
56892
330
1F
100
AcDbEntity
  8
AM_0
  6
中線
 48
0.5
370
    30
100
AcDbLine
 10
6284.657440538913
 20
-6670.522244675183
 30
0.0
 11
6287.575816291656
 21
-6670.522244675183
 31
0.0
  0
ARC
  5
56893
330
1F
100
AcDbEntity
  8
AM_0
  6
中線
 48
0.5
370
    30
100
AcDbCircle
 10
6287.575816291656
 20
-6670.022244675184
 30
0.0
 40
0.5
100
AcDbArc
 50
270.0
 51
304.5085230000115
  0
ARC
  5
56894
330
1F
100
AcDbEntity
  8
AM_0
  6
中線
 48
0.5
370
    30
100
AcDbCircle
 10
6269.407440538913
 20
-6667.772244675183
 30
0.0
 40
0.75
100
AcDbArc
 50
0.0
 51
180.0
  0
ARC
  5
56895
330
1F
100
AcDbEntity
  8
AM_0
  6
中線
 48
0.5
370
    30
100
AcDbCircle
 10
6270.907440538913
 20
-6667.772244675183
 30
0.0
 40
0.75
100
AcDbArc
 50
9.244702999999169
 51
189.2705140000385
  0
ARC
  5
56896
330
1F
100
AcDbEntity
  8
AM_0
  6
中線
 48
0.5
370
    30
100
AcDbCircle
 10
6274.157440538913
 20
-6667.772244675183
 30
0.0
 40
0.75
100
AcDbArc
 50
9.244702999999169
 51
189.2705140000385
  0
ARC
  5
56897
330
1F
100
AcDbEntity
  8
AM_0
  6
中線
 48
0.5
370
    30
100
AcDbCircle
 10
6283.907440538913
 20
-6667.772244675183
 30
0.0
 40
0.75
100
AcDbArc
 50
0.0
 51
180.0
  0
ARC
  5
56898
330
1F
100
AcDbEntity
  8
AM_0
  6
中線
 48
0.5
370
    30
100
AcDbCircle
 10
6280.657440538913
 20
-6667.772244675183
 30
0.0
 40
0.75
100
AcDbArc
 50
11.40103200000684
 51
191.4080759999724
  0
LINE
  5
56899
330
1F
100
AcDbEntity
  8
AM_0
  6
中線
 48
0.5
370
    30
100
AcDbLine
 10
6279.525982538913
 20
-6676.430411675183
 30
0.0
 11
6280.175429538913
 21
-6673.522244675183
 31
0.0
  0
ARC
  5
5689A
330
1F
100
AcDbEntity
  8
AM_0
  6
中線
 48
0.5
370
    30
100
AcDbCircle
 10
6277.407440538913
 20
-6667.772244675183
 30
0.0
 40
0.75
100
AcDbArc
 50
9.244702999999169
 51
189.2705140000385
  0
LINE
  5
5689B
330
1F
100
AcDbEntity
  8
AM_0
  6
中線
 48
0.5
370
    30
100
AcDbLine
 10
6295.158132538912
 20
-6666.360223675183
 30
0.0
 11
6288.708874104326
 21
-6671.670328408842
 31
0.0
  0
LINE
  5
5689C
330
1F
100
AcDbEntity
  8
AM_0
  6
中線
 48
0.5
370
    30
100
AcDbLine
 10
6294.308338538913
 20
-6665.124160675182
 30
0.0
 11
6287.859080703189
 21
-6670.434265637222
 31
0.0
  0
LINE
  5
5689D
330
1F
100
AcDbEntity
  8
AM_0
  6
中線
 48
0.5
370
    30
100
AcDbLine
 10
6289.171778538912
 20
-6672.022244675183
 30
0.0
 11
6289.171778538912
 21
-6673.522244675183
 31
0.0
  0
LINE
  5
5689E
330
1F
100
AcDbEntity
  8
AM_0
  6
中線
 48
0.5
370
    30
100
AcDbLine
 10
6284.657440538913
 20
-6673.522244675183
 30
0.0
 11
6289.171778538912
 21
-6673.522244675183
 31
0.0
  0
LINE
  5
5689F
330
1F
100
AcDbEntity
  8
AM_0
  6
中線
 48
0.5
370
    30
100
AcDbLine
 10
6284.657440538913
 20
-6672.022244675183
 30
0.0
 11
6289.171778538912
 21
-6672.022244675183
 31
0.0
  0
ARC
  5
568A0
330
1F
100
AcDbEntity
  8
AM_0
  6
中線
 48
0.5
370
    30
100
AcDbCircle
 10
6287.575816291656
 20
-6670.022244675184
 30
0.0
 40
2.0
100
AcDbArc
 50
270.0
 51
304.5085230000115
  0
LINE
  5
568A1
330
1F
100
AcDbEntity
  8
AM_0
  6
中線
 48
0.5
370
    30
100
AcDbLine
 10
6263.786101538912
 20
-6673.522244675183
 30
0.0
 11
6268.657440538913
 21
-6673.522244675183
 31
0.0
  0
LINE
  5
568A2
330
1F
100
AcDbEntity
  8
AM_0
  6
中線
 48
0.5
370
    30
100
AcDbLine
 10
6263.786101538912
 20
-6672.022244675183
 30
0.0
 11
6268.657440538913
 21
-6672.022244675183
 31
0.0
  0
LINE
  5
568A3
330
1F
100
AcDbEntity
  8
AM_0
  6
中線
 48
0.5
370
    30
100
AcDbLine
 10
6265.286101538912
 20
-6670.522244675183
 30
0.0
 11
6268.657440538913
 21
-6670.522244675183
 31
0.0
  0
ARC
  5
568A4
330
1F
100
AcDbEntity
  8
AM_0
  6
中線
 48
0.5
370
    30
100
AcDbCircle
 10
6263.786101538912
 20
-6671.522244675184
 30
0.0
 40
0.5
100
AcDbArc
 50
180.0
 51
270.0
  0
ARC
  5
568A5
330
1F
100
AcDbEntity
  8
AM_0
  6
中線
 48
0.5
370
    30
100
AcDbCircle
 10
6263.786101538912
 20
-6671.522244675184
 30
0.0
 40
2.0
100
AcDbArc
 50
180.0
 51
270.0
  0
LINE
  5
568A6
330
1F
100
AcDbEntity
  8
AM_0
  6
中線
 48
0.5
370
    30
100
AcDbLine
 10
6265.286101538912
 20
-6670.522244675183
 30
0.0
 11
6265.286101538912
 21
-6672.022244675183
 31
0.0
  0
LINE
  5
568A7
330
1F
100
AcDbEntity
  8
AM_0
  6
中線
 48
0.5
370
    30
100
AcDbLine
 10
6263.286101538913
 20
-6638.272244675182
 30
0.0
 11
6263.286101538913
 21
-6635.022244675183
 31
0.0
  0
LINE
  5
568A8
330
1F
100
AcDbEntity
  8
AM_0
  6
中線
 48
0.5
370
    30
100
AcDbLine
 10
6261.786101538913
 20
-6638.272244675182
 30
0.0
 11
6261.786101538913
 21
-6635.022244675183
 31
0.0
  0
ARC
  5
568A9
330
1F
100
AcDbEntity
  8
AM_0
  6
中線
 48
0.5
370
    30
100
AcDbCircle
 10
6263.786101538912
 20
-6635.022244675183
 30
0.0
 40
2.0
100
AcDbArc
 50
90.0
 51
180.0
  0
ARC
  5
568AA
330
1F
100
AcDbEntity
  8
AM_0
  6
中線
 48
0.5
370
    30
100
AcDbCircle
 10
6263.786101538912
 20
-6635.022244675183
 30
0.0
 40
0.5
100
AcDbArc
 50
90.0
 51
180.0
  0
LINE
  5
568AB
330
1F
100
AcDbEntity
  8
AM_0
  6
中線
 48
0.5
370
    30
100
AcDbLine
 10
6270.157440538913
 20
-6638.772244675184
 30
0.0
 11
6270.157440538913
 21
-6630.272244675182
 31
0.0
  0
LINE
  5
568AC
330
1F
100
AcDbEntity
  8
AM_0
  6
中線
 48
0.5
370
    30
100
AcDbLine
 10
6273.042679538913
 20
-6638.722253675183
 30
0.0
 11
6271.647698538913
 21
-6630.151755675182
 31
0.0
  0
LINE
  5
568AD
330
1F
100
AcDbEntity
  8
AM_0
  6
中線
 48
0.5
370
    30
100
AcDbLine
 10
6271.553754538913
 20
-6638.887438675183
 30
0.0
 11
6270.167236538913
 21
-6630.393066675182
 31
0.0
  0
LINE
  5
568AE
330
1F
100
AcDbEntity
  8
AM_0
  6
中線
 48
0.5
370
    30
100
AcDbLine
 10
6268.657440538913
 20
-6638.772244675184
 30
0.0
 11
6268.657440538913
 21
-6630.272244675182
 31
0.0
  0
LINE
  5
568AF
330
1F
100
AcDbEntity
  8
AM_0
  6
中線
 48
0.5
370
    30
100
AcDbLine
 10
6265.286101538912
 20
-6636.022244675183
 30
0.0
 11
6268.657440538913
 21
-6636.022244675183
 31
0.0
  0
ARC
  5
568B0
330
1F
100
AcDbEntity
  8
AM_0
  6
中線
 48
0.5
370
    30
100
AcDbCircle
 10
6272.294012538912
 20
-6638.766949675183
 30
0.0
 40
0.75
100
AcDbArc
 50
189.2447029999987
 51
3.416552000028893
  0
LINE
  5
568B1
330
1F
100
AcDbEntity
  8
AM_0
  6
中線
 48
0.5
370
    30
100
AcDbLine
 10
6270.157440538913
 20
-6636.022244675183
 30
0.0
 11
6271.086074538913
 21
-6636.022244675183
 31
0.0
  0
LINE
  5
568B2
330
1F
100
AcDbEntity
  8
AM_0
  6
中線
 48
0.5
370
    30
100
AcDbLine
 10
6270.157440538913
 20
-6638.772244675184
 30
0.0
 11
6270.632843538912
 21
-6636.022244675183
 31
0.0
  0
LINE
  5
568B3
330
1F
100
AcDbEntity
  8
AM_0
  6
中線
 48
0.5
370
    30
100
AcDbLine
 10
6270.157440538913
 20
-6636.022244675183
 30
0.0
 11
6271.086074538913
 21
-6636.022244675183
 31
0.0
  0
ARC
  5
568B4
330
1F
100
AcDbEntity
  8
AM_0
  6
中線
 48
0.5
370
    30
100
AcDbCircle
 10
6269.407440538913
 20
-6638.772244675184
 30
0.0
 40
0.75
100
AcDbArc
 50
180.0
 51
0.0
  0
LINE
  5
568B5
330
1F
100
AcDbEntity
  8
AM_0
  6
中線
 48
0.5
370
    30
100
AcDbLine
 10
6272.603211538912
 20
-6636.022244675183
 30
0.0
 11
6274.336074538912
 21
-6636.022244675183
 31
0.0
  0
LINE
  5
568B6
330
1F
100
AcDbEntity
  8
AM_0
  6
中線
 48
0.5
370
    30
100
AcDbLine
 10
6272.603211538912
 20
-6636.022244675183
 30
0.0
 11
6274.336074538912
 21
-6636.022244675183
 31
0.0
  0
LINE
  5
568B7
330
1F
100
AcDbEntity
  8
AM_0
  6
中線
 48
0.5
370
    30
100
AcDbLine
 10
6263.786101538912
 20
-6633.022244675183
 30
0.0
 11
6268.657440538913
 21
-6633.022244675183
 31
0.0
  0
LINE
  5
568B8
330
1F
100
AcDbEntity
  8
AM_0
  6
中線
 48
0.5
370
    30
100
AcDbLine
 10
6263.786101538912
 20
-6634.522244675183
 30
0.0
 11
6268.657440538913
 21
-6634.522244675183
 31
0.0
  0
LINE
  5
568B9
330
1F
100
AcDbEntity
  8
AM_0
  6
中線
 48
0.5
370
    30
100
AcDbLine
 10
6270.157440538913
 20
-6633.022244675183
 30
0.0
 11
6270.596391538913
 21
-6633.022244675183
 31
0.0
  0
LINE
  5
568BA
330
1F
100
AcDbEntity
  8
AM_0
  6
中線
 48
0.5
370
    30
100
AcDbLine
 10
6270.157440538913
 20
-6633.022244675183
 30
0.0
 11
6270.596391538913
 21
-6633.022244675183
 31
0.0
  0
LINE
  5
568BB
330
1F
100
AcDbEntity
  8
AM_0
  6
中線
 48
0.5
370
    30
100
AcDbLine
 10
6270.157440538913
 20
-6634.522244675183
 30
0.0
 11
6270.841232538913
 21
-6634.522244675183
 31
0.0
  0
LINE
  5
568BC
330
1F
100
AcDbEntity
  8
AM_0
  6
中線
 48
0.5
370
    30
100
AcDbLine
 10
6270.157440538913
 20
-6634.522244675183
 30
0.0
 11
6270.841232538913
 21
-6634.522244675183
 31
0.0
  0
LINE
  5
568BD
330
1F
100
AcDbEntity
  8
AM_0
  6
中線
 48
0.5
370
    30
100
AcDbLine
 10
6272.114914538913
 20
-6633.022244675183
 30
0.0
 11
6273.846391538913
 21
-6633.022244675183
 31
0.0
  0
LINE
  5
568BE
330
1F
100
AcDbEntity
  8
AM_0
  6
中線
 48
0.5
370
    30
100
AcDbLine
 10
6273.407790538914
 20
-6630.249337675182
 30
0.0
 11
6272.798670538914
 21
-6633.022244675183
 31
0.0
  0
LINE
  5
568BF
330
1F
100
AcDbEntity
  8
AM_0
  6
中線
 48
0.5
370
    30
100
AcDbLine
 10
6272.114914538913
 20
-6633.022244675183
 30
0.0
 11
6273.846391538913
 21
-6633.022244675183
 31
0.0
  0
LINE
  5
568C0
330
1F
100
AcDbEntity
  8
AM_0
  6
中線
 48
0.5
370
    30
100
AcDbLine
 10
6272.359063538913
 20
-6634.522244675183
 30
0.0
 11
6274.091232538912
 21
-6634.522244675183
 31
0.0
  0
LINE
  5
568C1
330
1F
100
AcDbEntity
  8
AM_0
  6
中線
 48
0.5
370
    30
100
AcDbLine
 10
6272.359063538913
 20
-6634.522244675183
 30
0.0
 11
6274.091232538912
 21
-6634.522244675183
 31
0.0
  0
LINE
  5
568C2
330
1F
100
AcDbEntity
  8
AM_0
  6
中線
 48
0.5
370
    30
100
AcDbLine
 10
6265.286101538912
 20
-6636.022244675183
 30
0.0
 11
6265.286101538912
 21
-6634.522244675183
 31
0.0
  0
LINE
  5
568C3
330
1F
100
AcDbEntity
  8
AM_0
  6
中線
 48
0.5
370
    30
100
AcDbLine
 10
6275.609063538913
 20
-6634.522244675183
 30
0.0
 11
6277.341232538913
 21
-6634.522244675183
 31
0.0
  0
LINE
  5
568C4
330
1F
100
AcDbEntity
  8
AM_0
  6
中線
 48
0.5
370
    30
100
AcDbLine
 10
6275.364914538912
 20
-6633.022244675183
 30
0.0
 11
6277.096391538913
 21
-6633.022244675183
 31
0.0
  0
LINE
  5
568C5
330
1F
100
AcDbEntity
  8
AM_0
  6
中線
 48
0.5
370
    30
100
AcDbLine
 10
6275.364914538912
 20
-6633.022244675183
 30
0.0
 11
6277.096391538913
 21
-6633.022244675183
 31
0.0
  0
ARC
  5
568C6
330
1F
100
AcDbEntity
  8
AM_0
  6
中線
 48
0.5
370
    30
100
AcDbCircle
 10
6275.544012538912
 20
-6638.766949675183
 30
0.0
 40
0.75
100
AcDbArc
 50
189.2447029999987
 51
3.416552000028893
  0
LINE
  5
568C7
330
1F
100
AcDbEntity
  8
AM_0
  6
中線
 48
0.5
370
    30
100
AcDbLine
 10
6275.609063538913
 20
-6634.522244675183
 30
0.0
 11
6277.341232538913
 21
-6634.522244675183
 31
0.0
  0
LINE
  5
568C8
330
1F
100
AcDbEntity
  8
AM_0
  6
中線
 48
0.5
370
    30
100
AcDbLine
 10
6276.292679538913
 20
-6638.722253675183
 30
0.0
 11
6274.897698538913
 21
-6630.151755675182
 31
0.0
  0
LINE
  5
568C9
330
1F
100
AcDbEntity
  8
AM_0
  6
中線
 48
0.5
370
    30
100
AcDbLine
 10
6274.803754538912
 20
-6638.887438675183
 30
0.0
 11
6273.417236538914
 21
-6630.393066675182
 31
0.0
  0
LINE
  5
568CA
330
1F
100
AcDbEntity
  8
AM_0
  6
中線
 48
0.5
370
    30
100
AcDbLine
 10
6276.275982538913
 20
-6638.930411675183
 30
0.0
 11
6276.925429538913
 21
-6636.022244675183
 31
0.0
  0
ARC
  5
568CB
330
1F
100
AcDbEntity
  8
AM_0
  6
中線
 48
0.5
370
    30
100
AcDbCircle
 10
6274.157440538913
 20
-6630.272244675182
 30
0.0
 40
0.75
100
AcDbArc
 50
9.244702999999169
 51
189.2705140000385
  0
ARC
  5
568CC
330
1F
100
AcDbEntity
  8
AM_0
  6
中線
 48
0.5
370
    30
100
AcDbCircle
 10
6270.907440538913
 20
-6630.272244675182
 30
0.0
 40
0.75
100
AcDbArc
 50
9.244702999999169
 51
189.2705140000385
  0
ARC
  5
568CD
330
1F
100
AcDbEntity
  8
AM_0
  6
中線
 48
0.5
370
    30
100
AcDbCircle
 10
6269.407440538913
 20
-6630.272244675182
 30
0.0
 40
0.75
100
AcDbArc
 50
0.0
 51
180.0
  0
LINE
  5
568CE
330
1F
100
AcDbEntity
  8
AM_0
  6
中線
 48
0.5
370
    30
100
AcDbLine
 10
6284.657440538913
 20
-6638.772244675184
 30
0.0
 11
6284.657440538913
 21
-6630.272244675182
 31
0.0
  0
LINE
  5
568CF
330
1F
100
AcDbEntity
  8
AM_0
  6
中線
 48
0.5
370
    30
100
AcDbLine
 10
6283.157440538913
 20
-6630.272244675182
 30
0.0
 11
6283.157440538913
 21
-6638.772244675184
 31
0.0
  0
LINE
  5
568D0
330
1F
100
AcDbEntity
  8
AM_0
  6
中線
 48
0.5
370
    30
100
AcDbLine
 10
6279.542679538913
 20
-6638.722253675183
 30
0.0
 11
6278.147698538912
 21
-6630.151755675182
 31
0.0
  0
LINE
  5
568D1
330
1F
100
AcDbEntity
  8
AM_0
  6
中線
 48
0.5
370
    30
100
AcDbLine
 10
6278.053754538913
 20
-6638.887438675183
 30
0.0
 11
6276.667236538913
 21
-6630.393066675182
 31
0.0
  0
LINE
  5
568D2
330
1F
100
AcDbEntity
  8
AM_0
  6
中線
 48
0.5
370
    30
100
AcDbLine
 10
6281.630715538913
 20
-6638.887438675183
 30
0.0
 11
6279.922257538913
 21
-6630.420591675184
 31
0.0
  0
LINE
  5
568D3
330
1F
100
AcDbEntity
  8
AM_0
  6
中線
 48
0.5
370
    30
100
AcDbLine
 10
6283.111232538914
 20
-6638.646461675183
 30
0.0
 11
6281.392640538913
 21
-6630.123987675182
 31
0.0
  0
ARC
  5
568D4
330
1F
100
AcDbEntity
  8
AM_0
  6
中線
 48
0.5
370
    30
100
AcDbCircle
 10
6283.907440538913
 20
-6638.772244675184
 30
0.0
 40
0.75
100
AcDbArc
 50
180.0
 51
0.0
  0
LINE
  5
568D5
330
1F
100
AcDbEntity
  8
AM_0
  6
中線
 48
0.5
370
    30
100
AcDbLine
 10
6279.103211538913
 20
-6636.022244675183
 30
0.0
 11
6281.052570538913
 21
-6636.022244675183
 31
0.0
  0
LINE
  5
568D6
330
1F
100
AcDbEntity
  8
AM_0
  6
中線
 48
0.5
370
    30
100
AcDbLine
 10
6279.103211538913
 20
-6636.022244675183
 30
0.0
 11
6281.052570538913
 21
-6636.022244675183
 31
0.0
  0
LINE
  5
568D7
330
1F
100
AcDbEntity
  8
AM_0
  6
中線
 48
0.5
370
    30
100
AcDbLine
 10
6275.853211538913
 20
-6636.022244675183
 30
0.0
 11
6277.586074538913
 21
-6636.022244675183
 31
0.0
  0
LINE
  5
568D8
330
1F
100
AcDbEntity
  8
AM_0
  6
中線
 48
0.5
370
    30
100
AcDbLine
 10
6273.025982538913
 20
-6638.930411675183
 30
0.0
 11
6273.675429538912
 21
-6636.022244675183
 31
0.0
  0
LINE
  5
568D9
330
1F
100
AcDbEntity
  8
AM_0
  6
中線
 48
0.5
370
    30
100
AcDbLine
 10
6275.853211538913
 20
-6636.022244675183
 30
0.0
 11
6277.586074538913
 21
-6636.022244675183
 31
0.0
  0
ARC
  5
568DA
330
1F
100
AcDbEntity
  8
AM_0
  6
中線
 48
0.5
370
    30
100
AcDbCircle
 10
6278.794012538913
 20
-6638.766949675183
 30
0.0
 40
0.75
100
AcDbArc
 50
189.2447029999987
 51
3.416547000026048
  0
LINE
  5
568DB
330
1F
100
AcDbEntity
  8
AM_0
  6
中線
 48
0.5
370
    30
100
AcDbLine
 10
6282.582048538912
 20
-6636.022244675183
 30
0.0
 11
6283.157440538913
 21
-6636.022244675183
 31
0.0
  0
LINE
  5
568DC
330
1F
100
AcDbEntity
  8
AM_0
  6
中線
 48
0.5
370
    30
100
AcDbLine
 10
6282.582048538912
 20
-6636.022244675183
 30
0.0
 11
6283.157440538913
 21
-6636.022244675183
 31
0.0
  0
ARC
  5
568DD
330
1F
100
AcDbEntity
  8
AM_0
  6
中線
 48
0.5
370
    30
100
AcDbCircle
 10
6282.370974538912
 20
-6638.766949675183
 30
0.0
 40
0.75
100
AcDbArc
 50
189.2447029999987
 51
9.244702999999169
  0
ARC
  5
568DE
330
1F
100
AcDbEntity
  8
AM_0
  6
中線
 48
0.5
370
    30
100
AcDbCircle
 10
6283.907440538913
 20
-6630.272244675182
 30
0.0
 40
0.75
100
AcDbArc
 50
0.0
 51
180.0
  0
ARC
  5
568DF
330
1F
100
AcDbEntity
  8
AM_0
  6
中線
 48
0.5
370
    30
100
AcDbCircle
 10
6277.407440538913
 20
-6630.272244675182
 30
0.0
 40
0.75
100
AcDbArc
 50
9.244702999999169
 51
189.2705140000385
  0
ARC
  5
568E0
330
1F
100
AcDbEntity
  8
AM_0
  6
中線
 48
0.5
370
    30
100
AcDbCircle
 10
6280.657440538913
 20
-6630.272244675182
 30
0.0
 40
0.75
100
AcDbArc
 50
11.40103200000684
 51
191.4080759999724
  0
LINE
  5
568E1
330
1F
100
AcDbEntity
  8
AM_0
  6
中線
 48
0.5
370
    30
100
AcDbLine
 10
6278.614914538913
 20
-6633.022244675183
 30
0.0
 11
6280.447224538913
 21
-6633.022244675183
 31
0.0
  0
LINE
  5
568E2
330
1F
100
AcDbEntity
  8
AM_0
  6
中線
 48
0.5
370
    30
100
AcDbLine
 10
6278.614914538913
 20
-6633.022244675183
 30
0.0
 11
6280.447224538913
 21
-6633.022244675183
 31
0.0
  0
LINE
  5
568E3
330
1F
100
AcDbEntity
  8
AM_0
  6
中線
 48
0.5
370
    30
100
AcDbLine
 10
6278.859063538913
 20
-6634.522244675183
 30
0.0
 11
6280.749897538913
 21
-6634.522244675183
 31
0.0
  0
LINE
  5
568E4
330
1F
100
AcDbEntity
  8
AM_0
  6
中線
 48
0.5
370
    30
100
AcDbLine
 10
6278.859063538913
 20
-6634.522244675183
 30
0.0
 11
6280.749897538913
 21
-6634.522244675183
 31
0.0
  0
LINE
  5
568E5
330
1F
100
AcDbEntity
  8
AM_0
  6
中線
 48
0.5
370
    30
100
AcDbLine
 10
6279.525982538913
 20
-6638.930411675183
 30
0.0
 11
6280.175429538913
 21
-6636.022244675183
 31
0.0
  0
LINE
  5
568E6
330
1F
100
AcDbEntity
  8
AM_0
  6
中線
 48
0.5
370
    30
100
AcDbLine
 10
6276.657790538913
 20
-6630.249337675182
 30
0.0
 11
6276.048670538913
 21
-6633.022244675183
 31
0.0
  0
LINE
  5
568E7
330
1F
100
AcDbEntity
  8
AM_0
  6
中線
 48
0.5
370
    30
100
AcDbLine
 10
6279.907790538914
 20
-6630.249337675182
 30
0.0
 11
6279.298670538913
 21
-6633.022244675183
 31
0.0
  0
LINE
  5
568E8
330
1F
100
AcDbEntity
  8
AM_0
  6
中線
 48
0.5
370
    30
100
AcDbLine
 10
6281.977086538913
 20
-6633.022244675183
 30
0.0
 11
6283.157440538913
 21
-6633.022244675183
 31
0.0
  0
LINE
  5
568E9
330
1F
100
AcDbEntity
  8
AM_0
  6
中線
 48
0.5
370
    30
100
AcDbLine
 10
6283.157440538913
 20
-6630.272244675182
 30
0.0
 11
6282.657651538912
 21
-6633.022244675183
 31
0.0
  0
LINE
  5
568EA
330
1F
100
AcDbEntity
  8
AM_0
  6
中線
 48
0.5
370
    30
100
AcDbLine
 10
6281.977086538913
 20
-6633.022244675183
 30
0.0
 11
6283.157440538913
 21
-6633.022244675183
 31
0.0
  0
LINE
  5
568EB
330
1F
100
AcDbEntity
  8
AM_0
  6
中線
 48
0.5
370
    30
100
AcDbLine
 10
6282.279567538912
 20
-6634.522244675183
 30
0.0
 11
6283.157440538913
 21
-6634.522244675183
 31
0.0
  0
LINE
  5
568EC
330
1F
100
AcDbEntity
  8
AM_0
  6
中線
 48
0.5
370
    30
100
AcDbLine
 10
6282.279567538912
 20
-6634.522244675183
 30
0.0
 11
6283.157440538913
 21
-6634.522244675183
 31
0.0
  0
LINE
  5
568ED
330
1F
100
AcDbEntity
  8
AM_0
  6
中線
 48
0.5
370
    30
100
AcDbLine
 10
6295.158132538912
 20
-6640.184265675184
 30
0.0
 11
6288.708876402339
 21
-6634.874163061673
 31
0.0
  0
LINE
  5
568EE
330
1F
100
AcDbEntity
  8
AM_0
  6
中線
 48
0.5
370
    30
100
AcDbLine
 10
6294.308338538913
 20
-6641.420328675184
 30
0.0
 11
6287.92580151455
 21
-6636.165159540102
 31
0.0
  0
LINE
  5
568EF
330
1F
100
AcDbEntity
  8
AM_0
  6
中線
 48
0.5
370
    30
100
AcDbLine
 10
6284.657440538913
 20
-6634.522244675183
 30
0.0
 11
6289.171778538912
 21
-6634.522244675183
 31
0.0
  0
LINE
  5
568F0
330
1F
100
AcDbEntity
  8
AM_0
  6
中線
 48
0.5
370
    30
100
AcDbLine
 10
6284.657440538913
 20
-6633.022244675183
 30
0.0
 11
6289.171778538912
 21
-6633.022244675183
 31
0.0
  0
LINE
  5
568F1
330
1F
100
AcDbEntity
  8
AM_0
  6
中線
 48
0.5
370
    30
100
AcDbLine
 10
6284.657440538913
 20
-6636.022244675183
 30
0.0
 11
6287.575815505825
 21
-6636.022244675183
 31
0.0
  0
ARC
  5
568F2
330
1F
100
AcDbEntity
  8
AM_0
  6
中線
 48
0.5
370
    30
100
AcDbCircle
 10
6287.575815505825
 20
-6636.522244675183
 30
0.0
 40
0.5
100
AcDbArc
 50
45.57524099997449
 51
90.0
  0
ARC
  5
568F3
330
1F
100
AcDbEntity
  8
AM_0
  6
中線
 48
0.5
370
    30
100
AcDbCircle
 10
6287.575815505825
 20
-6636.522244675183
 30
0.0
 40
2.0
100
AcDbArc
 50
55.49136399998914
 51
90.0
  0
LINE
  5
568F4
330
1F
100
AcDbEntity
  8
AM_0
  6
中線
 48
0.5
370
    30
100
AcDbLine
 10
6289.171778538912
 20
-6634.522244675183
 30
0.0
 11
6289.171778538912
 21
-6633.022244675183
 31
0.0
  0
LINE
  5
568F5
330
1F
100
AcDbEntity
  8
AM_7
  6
中心線1
 48
0.3
370
    13
100
AcDbLine
 10
6248.286101538912
 20
-6596.484595619187
 30
0.0
 11
6248.286101538912
 21
-6604.484595619187
 31
0.0
  0
LINE
  5
568F6
330
1F
100
AcDbEntity
  8
AM_0
  6
中線
 48
0.5
370
    30
100
AcDbLine
 10
6283.168980538913
 20
-6508.110671114891
 30
0.0
 11
6282.657651538912
 21
-6510.991732114892
 31
0.0
  0
LINE
  5
568F7
330
1F
100
AcDbEntity
  8
AM_0
  6
中線
 48
0.5
370
    30
100
AcDbLine
 10
6281.415017538912
 20
-6590.815683619187
 30
0.0
 11
6281.019418538913
 21
-6592.195137619187
 31
0.0
  0
LINE
  5
568F8
330
1F
100
AcDbEntity
  8
AM_0
  6
中線
 48
0.5
370
    30
100
AcDbLine
 10
6273.900508538913
 20
-6599.111719619187
 30
0.0
 11
6274.321746538912
 21
-6597.727568619186
 31
0.0
  0
LINE
  5
568F9
330
1F
100
AcDbEntity
  8
AM_0
  6
中線
 48
0.5
370
    30
100
AcDbLine
 10
6277.142084538913
 20
-6599.345562619186
 30
0.0
 11
6277.563322538913
 21
-6597.961410619186
 31
0.0
  0
LINE
  5
568FA
330
1F
100
AcDbEntity
  8
AM_0
  6
中線
 48
0.5
370
    30
100
AcDbLine
 10
6280.383661538913
 20
-6599.579405619187
 30
0.0
 11
6280.804898538913
 21
-6598.195253619187
 31
0.0
  0
LINE
  5
568FB
330
1F
100
AcDbEntity
  8
AM_0
  6
中線
 48
0.5
370
    30
100
AcDbLine
 10
6284.649598538913
 20
-6591.075693619186
 30
0.0
 11
6284.312950538913
 21
-6592.432727619187
 31
0.0
  0
LINE
  5
568FC
330
1F
100
AcDbEntity
  8
AM_0
  6
中線
 48
0.5
370
    30
100
AcDbLine
 10
6329.193634538913
 20
-6592.470990619187
 30
0.0
 11
6335.162249538913
 21
-6584.484595619186
 31
0.0
  0
LINE
  5
56A3B
330
1F
100
AcDbEntity
  8
AM_0
  6
中線
 48
0.5
370
    30
100
AcDbLine
 10
6269.645411524559
 20
-6597.390224618151
 30
0.0
 11
6270.16706044406
 21
-6590.159015937392
 31
0.0
  0
LINE
  5
56A3C
330
1F
100
AcDbEntity
  8
AM_0
  6
中線
 48
0.5
370
    30
100
AcDbLine
 10
6270.221023538913
 20
-6589.410959619186
 30
0.0
 11
6270.077120538913
 21
-6591.405775619186
 31
0.0
  0
LINE
  5
56A54
330
1F
100
AcDbEntity
  8
AM_7
  6
中心線1
 48
0.5
370
    13
100
AcDbLine
 10
6248.286101538912
 20
-6542.841732114891
 30
0.0
 11
6248.286101538912
 21
-6533.64173211489
 31
0.0
  0
LINE
  5
56A55
330
1F
100
AcDbEntity
  8
AM_7
  6
中心線1
 48
0.5
370
    13
100
AcDbLine
 10
6243.686101538912
 20
-6538.24173211489
 30
0.0
 11
6252.886101538913
 21
-6538.24173211489
 31
0.0
  0
LINE
  5
56A56
330
1F
100
AcDbEntity
  8
AM_7
  6
中心線1
 48
0.5
370
    13
100
AcDbLine
 10
6248.286101538912
 20
-6528.841732114891
 30
0.0
 11
6248.286101538912
 21
-6519.64173211489
 31
0.0
  0
LINE
  5
56A57
330
1F
100
AcDbEntity
  8
AM_7
  6
中心線1
 48
0.5
370
    13
100
AcDbLine
 10
6243.686101538912
 20
-6524.241732114891
 30
0.0
 11
6252.886101538913
 21
-6524.241732114891
 31
0.0
  0
LINE
  5
56A59
330
1F
100
AcDbEntity
  8
AM_7
  6
中心線1
 48
0.5
370
    13
100
AcDbLine
 10
6240.286101538913
 20
-6531.24173211489
 30
0.0
 11
6340.786101538913
 21
-6531.24173211489
 31
0.0
  0
DIMENSION
  5
56A5E
330
1F
100
AcDbEntity
  8
AM_5
100
AcDbDimension
  2
*D7
 10
6353.781429876359
 20
-6507.49173211489
 30
0.0
 11
6353.78142987636
 21
-6531.24173211489
 31
0.0
 70
   160
  1
（<>）
 71
     5
 42
47.5
  3
SYS$0
100
AcDbAlignedDimension
 13
6283.907440538913
 23
-6554.991732114891
 33
0.0
 14
6283.907440538913
 24
-6507.49173211489
 34
0.0
 50
90.0
100
AcDbRotatedDimension
  0
DIMENSION
  5
56A5F
330
1F
100
AcDbEntity
  8
AM_5
100
AcDbDimension
  2
*D8
 10
6345.781429876359
 20
-6520.741732114891
 30
0.0
 11
6345.78142987636
 21
-6531.24173211489
 31
0.0
 70
   160
  1
<>
 71
     5
 42
21.0
  3
SYS$0
100
AcDbAlignedDimension
 13
6306.286101538912
 23
-6541.74173211489
 33
0.0
 14
6306.286101538912
 24
-6520.741732114891
 34
0.0
 50
90.0
100
AcDbRotatedDimension
  0
LINE
  5
56AA5
330
1F
100
AcDbEntity
  8
AM_0
  6
中線
 48
0.5
370
    30
100
AcDbLine
 10
6329.786101538912
 20
-6539.74173211489
 30
0.0
 11
6328.286101538913
 21
-6539.74173211489
 31
0.0
  0
DIMENSION
  5
56B57
330
1F
100
AcDbEntity
  8
AM_5
100
AcDbDimension
  2
*D9
 10
6337.786101538913
 20
-6498.741732114891
 30
0.0
 11
6304.536101538912
 21
-6496.14173211489
 31
0.0
 70
    32
  1
（<>）
 71
     5
 42
66.5
  3
SYS$0
100
AcDbAlignedDimension
 13
6271.286101538913
 23
-6520.741732114891
 33
0.0
 14
6337.786101538913
 24
-6531.24173211489
 34
0.0
100
AcDbRotatedDimension
  0
DIMENSION
  5
56B9A
330
1F
100
AcDbEntity
  8
AM_5
100
AcDbDimension
  2
*D10
 10
6269.286101538913
 20
-6498.741732114891
 30
0.0
 11
6256.286101538912
 21
-6496.14173211489
 31
0.0
 70
    32
  1
（<>）
 71
     5
 42
26.0
  3
SYS$0
100
AcDbAlignedDimension
 13
6243.286101538913
 23
-6521.74173211489
 33
0.0
 14
6269.286101538913
 24
-6520.741732114891
 34
0.0
100
AcDbRotatedDimension
  0
DIMENSION
  5
56BCB
330
1F
100
AcDbEntity
  8
AM_5
100
AcDbDimension
  2
*D11
 10
6235.28610153891
 20
-6543.74173211489
 30
0.0
 11
6235.286101538913
 21
-6531.24173211489
 31
0.0
 70
   160
  1
<>
 71
     5
 42
25.0
  3
SYS$0
100
AcDbAlignedDimension
 13
6246.286101538913
 23
-6518.741732114889
 33
0.0
 14
6246.286101538913
 24
-6543.74173211489
 34
0.0
 50
90.0
100
AcDbRotatedDimension
  0
DIMENSION
  5
56EF3
330
1F
100
AcDbEntity
  8
AM_5
100
AcDbDimension
  2
*D12
 10
6332.286101538913
 20
-6693.766949675183
 30
0.0
 11
6312.786101538913
 21
-6691.166949675182
 31
0.0
 70
    32
  1
<>
 71
     5
 42
39.0
  3
SYS$0
100
AcDbAlignedDimension
 13
6293.286101538913
 23
-6657.872244675184
 33
0.0
 14
6332.286101538913
 24
-6657.872244675184
 34
0.0
100
AcDbRotatedDimension
  0
DIMENSION
  5
56EF4
330
1F
100
AcDbEntity
  8
AM_5
100
AcDbDimension
  2
*D13
 10
6271.286101538913
 20
-6685.766949675183
 30
0.0
 11
6282.286101538913
 21
-6683.166949675181
 31
0.0
 70
    32
  1
<>
 71
     5
 42
22.0
  3
SYS$0
100
AcDbAlignedDimension
 13
6293.286101538913
 23
-6657.872244675184
 33
0.0
 14
6271.286101538913
 24
-6663.772244675183
 34
0.0
100
AcDbRotatedDimension
  0
DIMENSION
  5
56EF5
330
1F
100
AcDbEntity
  8
AM_5
100
AcDbDimension
  2
*D14
 10
6248.286101538912
 20
-6693.766949675183
 30
0.0
 11
6270.786101538913
 21
-6691.166949675182
 31
0.0
 70
    32
  1
（<>）
 71
     5
 42
45.0
  3
SYS$0
100
AcDbAlignedDimension
 13
6293.286101538913
 23
-6657.872244675184
 33
0.0
 14
6248.286101538912
 24
-6664.872244675184
 34
0.0
100
AcDbRotatedDimension
  0
DIMENSION
  5
56EF6
330
1F
100
AcDbEntity
  8
AM_5
100
AcDbDimension
  2
*D15
 10
6269.286101538913
 20
-6685.766949675183
 30
0.0
 11
6258.786101538913
 21
-6683.166949675181
 31
0.0
 70
    32
  1
（<>）
 71
     5
 42
21.0
  3
SYS$0
100
AcDbAlignedDimension
 13
6248.286101538912
 23
-6664.872244675184
 33
0.0
 14
6269.286101538913
 24
-6663.772244675183
 34
0.0
100
AcDbRotatedDimension
  0
DIMENSION
  5
57038
330
1F
100
AcDbEntity
  8
AM_5
100
AcDbDimension
  2
*D16
 10
6353.786101538911
 20
-6578.284595619186
 30
0.0
 11
6353.786101538912
 21
-6589.984595619185
 31
0.0
 70
   160
  1
（<>）
 71
     5
 42
23.19999999999982
  3
SYS$0
100
AcDbAlignedDimension
 13
6337.786101538913
 23
-6601.484595619186
 33
0.0
 14
6315.286101538912
 24
-6578.284595619186
 34
0.0
 50
90.0
100
AcDbRotatedDimension
  0
DIMENSION
  5
5704E
330
1F
100
AcDbEntity
  8
AM_5
100
AcDbDimension
  2
*D17
 10
6227.286101538911
 20
-6590.484595619186
 30
0.0
 11
6227.286101538914
 21
-6595.484595619186
 31
0.0
 70
   160
  1
<>
 71
     5
 42
11.0
  3
SYS$0
100
AcDbAlignedDimension
 13
6243.286101538913
 23
-6601.484595619186
 33
0.0
 14
6256.286101538912
 24
-6590.484595619186
 34
0.0
 50
90.0
100
AcDbRotatedDimension
  0
DIMENSION
  5
57064
330
1F
100
AcDbEntity
  8
AM_5
100
AcDbDimension
  2
*D18
 10
6219.28610153891
 20
-6586.484595619187
 30
0.0
 11
6219.286101538912
 21
-6593.984595619184
 31
0.0
 70
   160
 71
     5
 42
15.0
  3
SYS$0
100
AcDbAlignedDimension
 13
6243.286101538913
 23
-6601.484595619186
 33
0.0
 14
6279.286101538913
 24
-6586.484595619187
 34
0.0
 50
90.0
100
AcDbRotatedDimension
  0
DIMENSION
  5
5708B
330
1F
100
AcDbEntity
  8
AM_5
100
AcDbDimension
  2
*D19
 10
6345.78610153891
 20
-6598.484595619186
 30
0.0
 11
6345.786101538912
 21
-6605.231262285852
 31
0.0
 70
   160
 71
     5
 42
3.0
  3
SYS$0
100
AcDbAlignedDimension
 13
6337.786101538913
 23
-6601.484595619186
 33
0.0
 14
6337.786101538913
 24
-6598.484595619186
 34
0.0
 50
90.0
100
AcDbRotatedDimension
  0
DIMENSION
  5
570A5
330
1F
100
AcDbEntity
  8
AM_5
100
AcDbDimension
  2
*D20
 10
6235.28610153891
 20
-6599.484595619187
 30
0.0
 11
6235.286101538913
 21
-6605.231262285852
 31
0.0
 70
   160
 71
     5
 42
2.0
  3
SYS$0
100
AcDbAlignedDimension
 13
6243.286101538913
 23
-6601.484595619186
 33
0.0
 14
6243.286101538913
 24
-6599.484595619187
 34
0.0
 50
90.0
100
AcDbRotatedDimension
  0
DIMENSION
  5
57177
330
1F
100
AcDbEntity
  8
AM_5
100
AcDbDimension
  2
*D21
 10
6235.286101538911
 20
-6646.272244675182
 30
0.0
 11
6235.286101538914
 21
-6653.272244675182
 31
0.0
 70
   160
  1
<>
 71
     5
 42
14.0
  3
SYS$0
100
AcDbAlignedDimension
 13
6243.686101538912
 23
-6660.272244675183
 33
0.0
 14
6243.686101538912
 24
-6646.272244675182
 34
0.0
 50
90.0
100
AcDbRotatedDimension
  0
DIMENSION
  5
571B0
330
1F
100
AcDbEntity
  8
AM_5
100
AcDbDimension
  2
*D22
 10
6250.117035494215
 20
-6658.426254195432
 30
0.0
 11
6233.407146714359
 21
-6668.404193095783
 31
0.0
 70
   163
  1
2-<>
 71
     5
 42
5.200000000002546
  3
SYS$3
100
AcDbDiametricDimension
 15
6246.455167583609
 25
-6662.118235154931
 35
0.0
 40
0.0
1001
ACAD
1000
DSTYLE
1002
{
1070
    41
1040
1.0
1070
   172
1070
     1
1070
   173
1070
     1
1070
   342
1005
0
1070
   343
1005
6C4
1070
   344
1005
6C4
1002
}
  0
DIMENSION
  5
571C9
330
1F
100
AcDbEntity
  8
AM_5
100
AcDbDimension
  2
*D23
 10
6330.443554844383
 20
-6651.437845133513
 30
0.0
 11
6347.817136505801
 21
-6661.951399417084
 31
0.0
 70
   163
  1
2-<>
 71
     5
 42
5.199999999998908
  3
SYS$3
100
AcDbDiametricDimension
 15
6334.128648233441
 25
-6655.106644216854
 35
0.0
 40
0.0
1001
ACAD
1000
DSTYLE
1002
{
1070
    41
1040
1.0
1070
   172
1070
     1
1070
   173
1070
     1
1070
   342
1005
0
1070
   343
1005
6C4
1070
   344
1005
6C4
1002
}
  0
TEXT
  5
594E3
330
1F
100
AcDbEntity
  8
AM_6
100
AcDbText
 10
6109.281675701049
 20
-6492.40186811054
 30
0.0
 40
3.2
  1
ステンレス（ELP-123S）
 41
0.84634979
100
AcDbText
  0
TEXT
  5
594E4
330
1F
100
AcDbEntity
  8
AM_6
100
AcDbText
 10
6109.281675701049
 20
-6508.40186811054
 30
0.0
 40
3.2
  1
光沢バレル研磨（ELP-123S）
 41
0.84350122
100
AcDbText
  0
DIMENSION
  5
59CF5
330
1F
100
AcDbEntity
  8
AM_5
100
AcDbDimension
  2
*D24
 10
6311.824932681649
 20
-6589.892962305312
 30
0.0
 11
6329.970909903607
 21
-6574.964674981927
 31
0.0
 70
   163
 71
     5
 42
10.00000000000091
  3
SYS$3
100
AcDbDiametricDimension
 15
6318.747270396174
 25
-6582.676228933066
 35
0.0
 40
0.0
1001
ACAD
1000
DSTYLE
1002
{
1070
    41
1040
1.0
1070
   172
1070
     1
1070
   342
1005
6C4
1002
}
  0
LINE
  5
5B488
330
1F
100
AcDbEntity
  8
AM_0
  6
中線
 48
0.5
370
    30
100
AcDbLine
 10
6307.286101538913
 20
-6588.484595619187
 30
0.0
 11
6307.286101538913
 21
-6598.484595619186
 31
0.0
  0
LINE
  5
5B7AD
330
1F
100
AcDbEntity
  8
AM_0
  6
中線
 48
0.5
370
    30
100
AcDbLine
 10
6286.179553506654
 20
-6549.991732114889
 30
0.0
 11
6286.179553506654
 21
-6551.491732114889
 31
0.0
  0
LINE
  5
5B7AE
330
1F
100
AcDbEntity
  8
AM_0
  6
中線
 48
0.5
370
    30
100
AcDbLine
 10
6286.179553506654
 20
-6512.49173211489
 30
0.0
 11
6286.179553506654
 21
-6510.991732114892
 31
0.0
  0
LINE
  5
5B7AF
330
1F
100
AcDbEntity
  8
AM_0
  6
中線
 48
0.5
370
    30
100
AcDbLine
 10
6288.452262538913
 20
-6672.022244675183
 30
0.0
 11
6288.452262538913
 21
-6673.522244675183
 31
0.0
  0
LINE
  5
5B7B0
330
1F
100
AcDbEntity
  8
AM_0
  6
中線
 48
0.5
370
    30
100
AcDbLine
 10
6285.460038538913
 20
-6672.022244675183
 30
0.0
 11
6285.460038538913
 21
-6673.522244675183
 31
0.0
  0
ENDSEC
  0
SECTION
  2
OBJECTS
  0
DICTIONARY
  5
C
330
0
100
AcDbDictionary
281
     1
  3
ACAD_2007HEADERVARS_RT
350
5B7D0
  3
ACAD_BGPLOT_KEY
350
AB06
  3
ACAD_COLOR
350
A91D
  3
ACAD_GROUP
350
D
  3
ACAD_LAYOUT
350
1A
  3
ACAD_MATERIAL
350
A91C
  3
ACAD_MLINESTYLE
350
17
  3
ACAD_PLOTSETTINGS
350
19
  3
ACAD_PLOTSTYLENAME
350
E
  3
ACAD_TABLESTYLE
350
AAB9
  3
ACAD_VISUALSTYLE
350
B0F1
  3
AcAsAppObject
350
3DA1
  3
ACASGREF_MASTER
350
3DE9
  3
AcDbVariableDictionary
350
34
  3
AcmDictionary
350
47
  3
AD_GREF_MODULE
350
3DEA
  3
AD_MAPI_MODULE
350
3E06
  3
AMG
350
2B
  3
AMGSNAPSETTINGS
350
7D
  3
ASE_INDEX_DICTIONARY
350
57912
  3
DWGPROPS
350
5B7CF
  3
MAPISURF_MODULE
350
3DEB
  0
DICTIONARY
  5
3F95
330
2
100
AcDbDictionary
280
     1
281
     1
  3
ACAD_LAYERFILTERS
360
5369F
  3
ACAD_LAYERSTATES
360
3F96
  3
ACLYDICTIONARY
360
5369E
  3
AMLAYER_GROUPCOLORS
360
AAB4
  0
DICTIONARY
  5
8A
330
1F
100
AcDbDictionary
280
     1
281
     1
  3
ACAD_SORTENTS
360
B1BA
  0
DICTIONARY
  5
5B7D0
102
{ACAD_REACTORS
330
C
102
}
330
C
100
AcDbDictionary
281
     1
  3
DIMARCSYM
350
5B7D1
  0
DICTIONARY
  5
AB06
102
{ACAD_REACTORS
330
C
102
}
330
C
100
AcDbDictionary
280
     1
281
     1
  0
DICTIONARY
  5
A91D
102
{ACAD_REACTORS
330
C
102
}
330
C
100
AcDbDictionary
281
     1
  0
DICTIONARY
  5
D
102
{ACAD_REACTORS
330
C
102
}
330
C
100
AcDbDictionary
281
     1
  0
DICTIONARY
  5
1A
102
{ACAD_REACTORS
330
C
102
}
330
C
100
AcDbDictionary
281
     1
  3
Model
350
22
  3
ﾚｲｱｳﾄ1
350
1E
  3
ﾚｲｱｳﾄ2
350
26
  0
DICTIONARY
  5
A91C
102
{ACAD_REACTORS
330
C
102
}
330
C
100
AcDbDictionary
281
     1
  3
ByBlock
350
B0EF
  3
ByLayer
350
B0EE
  3
Global
350
B0F0
  0
DICTIONARY
  5
17
102
{ACAD_REACTORS
330
C
102
}
330
C
100
AcDbDictionary
281
     1
  3
Standard
350
18
  0
DICTIONARY
  5
19
102
{ACAD_REACTORS
330
C
102
}
330
C
100
AcDbDictionary
281
     1
  0
ACDBDICTIONARYWDFLT
  5
E
102
{ACAD_REACTORS
330
C
102
}
330
C
100
AcDbDictionary
281
     1
  3
Normal
350
F
100
AcDbDictionaryWithDefault
340
F
  0
DICTIONARY
  5
AAB9
102
{ACAD_REACTORS
330
C
102
}
330
C
100
AcDbDictionary
281
     1
  3
Standard
350
AABA
  0
DICTIONARY
  5
B0F1
102
{ACAD_REACTORS
330
C
102
}
330
C
100
AcDbDictionary
281
     1
  3
2dWireframe
350
B0F7
  3
3D Hidden
350
B0F9
  3
3dWireframe
350
B0F8
  3
Basic
350
B0F6
  3
Brighten
350
B0FD
  3
ColorChange
350
B101
  3
Conceptual
350
B0FA
  3
Dim
350
B0FC
  3
Facepattern
350
B100
  3
Flat
350
B0F2
  3
FlatWithEdges
350
B0F3
  3
Gouraud
350
B0F4
  3
GouraudWithEdges
350
B0F5
  3
Linepattern
350
B0FF
  3
Realistic
350
B0FB
  3
Thicken
350
B0FE
  0
ACAD_PROXY_OBJECT
  5
3DA1
102
{ACAD_REACTORS
330
C
102
}
330
C
100
AcDbProxyObject
 90
      499
 91
      576
 95
   917527
 70
     0
 93
       10
310
407F
 94
        0
1001
ACAD
1000
AcRTDxfName
1000
ASAPP
  0
ACAD_PROXY_OBJECT
  5
3DE9
102
{ACAD_REACTORS
330
C
102
}
330
C
100
AcDbProxyObject
 90
      499
 91
      581
 95
   917527
 70
     0
 93
       34
310
010000407F
 94
        0
1001
ACAD
1000
AcRTDxfName
1000
ACASGREFMASTER
  0
DICTIONARY
  5
34
102
{ACAD_REACTORS
330
C
102
}
330
C
100
AcDbDictionary
281
     1
  3
CTABLESTYLE
350
AAF3
  3
DIMASSOC
350
A10C
  3
FIELDEVAL
350
AB07
  3
INDEXCTL
350
35
  3
SORTENTS
350
194C
  0
DICTIONARY
  5
47
102
{ACAD_REACTORS
330
C
102
}
330
C
100
AcDbDictionary
281
     1
  3
AcmBOM
350
7E8
  3
AcmStdDictionary
350
4C
  3
AMDTSECTSYM_ARROWCOLOR
350
A929
  0
ACAD_PROXY_OBJECT
  5
3DEA
102
{ACAD_REACTORS
330
C
102
}
330
C
100
AcDbProxyObject
 90
      499
 91
      582
 95
   917527
 70
     0
 93
      114
310
00000043800000000000000000003F
 94
        0
1001
ACAD
1000
AcRTDxfName
1000
ACADGREFMODULE
  0
ACAD_PROXY_OBJECT
  5
3E06
102
{ACAD_REACTORS
330
C
102
}
330
C
100
AcDbProxyObject
 90
      499
 91
      594
 95
   917527
 70
     0
 93
       34
310
05000044FF
 94
        0
1001
ACAD
1000
AcRTDxfName
1000
MAPIADMODULE
  0
DICTIONARY
  5
2B
102
{ACAD_REACTORS
330
C
102
}
330
C
100
AcDbDictionary
281
     1
  0
DICTIONARY
  5
7D
102
{ACAD_REACTORS
330
C
102
}
330
C
100
AcDbDictionary
281
     1
  0
DICTIONARY
  5
57912
102
{ACAD_REACTORS
330
C
102
}
330
C
100
AcDbDictionary
281
     1
  3
ASEBlockHierarchyIndexRecord
350
57913
1001
DCO15
1040
1757428023.343
  0
XRECORD
  5
5B7CF
102
{ACAD_REACTORS
330
C
102
}
330
C
100
AcDbXrecord
280
     1
  1
DWGPROPS COOKIE
  2

  3

  4

  6

  7

  8
Administrator
  9

300
AmdtFileType=84
301
=
302
=
303
=
304
=
305
=
306
=
307
=
308
=
309
=
 40
8.138382280092592
 41
2455567.680725081
 42
2456343.619263056
  1

 90
        1
  0
ACAD_PROXY_OBJECT
  5
3DEB
102
{ACAD_REACTORS
330
C
102
}
330
C
100
AcDbProxyObject
 90
      499
 91
      583
 95
   917527
 70
     0
 93
        8
310
0478
 94
        0
1001
ACAD
1000
AcRTDxfName
1000
AMDTMAPISURFMOUDULE
  0
DICTIONARY
  5
5369F
102
{ACAD_REACTORS
330
3F95
102
}
330
3F95
100
AcDbDictionary
281
     1
  0
DICTIONARY
  5
3F96
102
{ACAD_REACTORS
330
3F95
102
}
330
3F95
100
AcDbDictionary
281
     1
  3
20011210
350
3FB7
  0
DICTIONARY
  5
5369E
102
{ACAD_REACTORS
330
3F95
102
}
330
3F95
100
AcDbDictionary
281
     1
1001
ACAD
1000
<All
  0
DICTIONARY
  5
AAB4
102
{ACAD_REACTORS
330
3F95
102
}
330
3F95
100
AcDbDictionary
280
     1
281
     1
  0
SORTENTSTABLE
  5
B1BA
102
{ACAD_REACTORS
330
8A
102
}
330
8A
100
AcDbSortentsTable
330
1F
331
56B9A
  5
57331
331
56827
  5
56844
331
56866
  5
56883
331
5689D
  5
568BA
331
568DC
  5
568F9
331
5682F
  5
5684C
331
5686E
  5
5688B
331
568A5
  5
568C2
331
568E4
  5
56901
331
56837
  5
56854
331
56876
  5
56893
331
568AD
  5
568CA
331
568EC
  5
56909
331
5683F
  5
5685C
331
5687E
  5
5689B
331
568B5
  5
568D2
331
568F4
  5
56A57
331
44411
  5
44520
331
44419
  5
44528
331
31B3D
  5
3273E
331
56733
  5
5674D
331
4E0E9
  5
4E1D6
331
32D1D
  5
32D3A
331
566BD
  5
566CD
331
566FC
  5
56711
331
56772
  5
56789
331
567A9
  5
567C4
331
567E8
  5
56805
331
566C5
  5
566D6
331
56704
  5
5671A
331
5673B
  5
56754
331
5677A
  5
56791
331
567B1
  5
567CE
331
567F0
  5
5680D
331
566CD
  5
566DF
331
5670C
  5
56722
331
56743
  5
5675A
331
56782
  5
56799
331
567F8
  5
56815
331
56714
  5
5672B
331
566D5
  5
566E9
331
5674B
  5
56762
331
5678A
  5
567A1
331
567C1
  5
567DE
331
56800
  5
5681D
331
594E4
  5
59F23
331
56847
  5
56864
331
56886
  5
568A3
331
568BD
  5
568DA
331
568FC
  5
56AA6
331
5684F
  5
5686C
331
5688E
  5
568AB
331
568C5
  5
568E2
331
56A3C
  5
56AA8
331
56857
  5
56874
331
56896
  5
568B3
331
568CD
  5
568EA
331
56A54
  5
56AA9
331
5685F
  5
5687C
331
568D5
  5
568F2
331
34535
  5
3454D
331
51841
  5
B5E2
331
51849
  5
B8D4
331
566DD
  5
566F3
331
5671C
  5
56734
331
56753
  5
5676A
331
56792
  5
567AA
331
567C9
  5
567E6
331
56808
  5
56825
331
566E5
  5
566FB
331
56724
  5
5673D
331
5675B
  5
56774
331
567D1
  5
567EE
331
56810
  5
5682D
331
566ED
  5
56703
331
5672C
  5
56746
331
567A2
  5
567BD
331
567D9
  5
567F6
331
56818
  5
56835
331
566F5
  5
5670A
331
5676B
  5
56782
331
567E1
  5
567FE
331
56820
  5
5683D
331
56828
  5
56845
331
56867
  5
56884
331
5689E
  5
568BB
331
568DD
  5
568FA
331
56830
  5
5684D
331
5686F
  5
5688C
331
568A6
  5
568C3
331
568E5
  5
56902
331
56BCB
  5
57332
331
56838
  5
56855
331
56877
  5
56894
331
568AE
  5
568CB
331
568ED
  5
5690A
331
5687F
  5
5689C
331
568B6
  5
568D3
331
568F5
  5
56A58
331
44412
  5
44521
331
4441A
  5
4452A
331
31B3E
  5
3273F
331
4E0EA
  5
4E1DE
331
32D1E
  5
32D3B
331
566BE
  5
566CE
331
566FD
  5
56712
331
56773
  5
5678A
331
567AA
  5
567C7
331
567E9
  5
56806
331
566C6
  5
566D7
331
56705
  5
5671B
331
5673C
  5
56755
331
5677B
  5
56792
331
567B2
  5
567CF
331
567F1
  5
5680E
331
5670D
  5
56724
331
56744
  5
5675B
331
56783
  5
5679A
331
567BA
  5
567D7
331
567F9
  5
56816
331
566D6
  5
566EA
331
56715
  5
5672D
331
5674C
  5
56763
331
5678B
  5
567A2
331
567C2
  5
567DF
331
56801
  5
5681E
331
571B0
  5
57AD9
331
59CF5
  5
5B488
331
56840
  5
5685D
331
56848
  5
56865
331
56887
  5
568A4
331
568BE
  5
568DB
331
56EF3
  5
57333
331
56850
  5
5686D
331
5688F
  5
568AC
331
568C6
  5
568E3
331
56858
  5
56875
331
56897
  5
568B4
331
568CE
  5
568EB
331
56A55
  5
56AAB
331
568D6
  5
568F3
331
34536
  5
3454E
331
51842
  5
B5E3
331
5184A
  5
B8D5
331
566DE
  5
566F4
331
5671D
  5
56735
331
56754
  5
5676B
331
56793
  5
567AB
331
567CA
  5
567E7
331
56809
  5
56826
331
56725
  5
5673F
331
566E6
  5
566FC
331
5675C
  5
56775
331
567D2
  5
567EF
331
56811
  5
5682E
331
566EE
  5
56704
331
5672D
  5
56748
331
56764
  5
5677B
331
567A3
  5
567BF
331
567DA
  5
567F7
331
56819
  5
56836
331
566F6
  5
5670B
331
5676C
  5
56783
331
567E2
  5
567FF
331
56860
  5
5687D
331
56821
  5
5683E
331
568DE
  5
568FB
331
5689F
  5
568BC
331
56868
  5
56885
331
56829
  5
56846
331
568E6
  5
56903
331
568A7
  5
568C4
331
56870
  5
5688D
331
56831
  5
5684E
331
568EE
  5
5690B
331
568AF
  5
568CC
331
56878
  5
56895
331
56839
  5
56856
331
568F6
  5
56A59
331
568B7
  5
568D4
331
44413
  5
44522
331
4441B
  5
4452B
331
567EA
  5
56807
331
567AB
  5
567C8
331
32D1F
  5
32D3C
331
4E0EB
  5
4E1DF
331
566BF
  5
566CF
331
566FE
  5
56714
331
56735
  5
5674E
331
56774
  5
5678B
331
567F2
  5
5680F
331
567B3
  5
567D1
331
4E0F3
  5
4E1E0
331
566C7
  5
566D8
331
56706
  5
5671C
331
5677C
  5
56793
331
567BB
  5
567D8
331
566CF
  5
566E0
331
5670E
  5
56725
331
56745
  5
5675C
331
56784
  5
5679B
331
567FA
  5
56817
331
56802
  5
5681F
331
567C3
  5
567E0
331
5674D
  5
56764
331
566D7
  5
566EB
331
56716
  5
5672E
331
5678C
  5
567A3
331
571C9
  5
5976F
331
56880
  5
5689D
331
56841
  5
5685E
331
56EF4
  5
57334
331
56AA5
  5
571B0
331
568BF
  5
568DC
331
56888
  5
568A5
331
56849
  5
56866
331
568C7
  5
568E4
331
56890
  5
568AD
331
56851
  5
5686E
331
56A56
  5
56B54
331
568CF
  5
568EC
331
56859
  5
56876
331
568D7
  5
568F4
331
51843
  5
B8CE
331
5680A
  5
56827
331
567CB
  5
567E8
331
5671E
  5
56736
331
5184B
  5
B8D6
331
566DF
  5
566F5
331
56755
  5
5676E
331
56794
  5
567AC
331
56812
  5
5682F
331
567D3
  5
567F0
331
566E7
  5
566FD
331
56726
  5
56740
331
5675D
  5
56776
331
5679C
  5
567B6
331
5681A
  5
56837
331
567DB
  5
567F8
331
566EF
  5
56705
331
5672E
  5
56749
331
56765
  5
5677C
331
567E3
  5
56800
331
566F7
  5
5670C
331
5676D
  5
56784
331
56898
  5
568B5
331
56861
  5
5687E
331
56822
  5
5683F
331
56A5E
  5
56B57
331
568DF
  5
568FC
331
568A0
  5
568BD
331
56869
  5
56886
331
5682A
  5
56847
331
568E7
  5
56904
331
568A8
  5
568C5
331
56871
  5
5688E
331
56832
  5
5684F
331
5708B
  5
5738A
331
568EF
  5
56A52
331
568B0
  5
568CD
331
5683A
  5
56857
331
56879
  5
56896
331
568F7
  5
56A5A
331
31B30
  5
32738
331
44414
  5
44523
331
4441C
  5
4452D
331
567EB
  5
56808
331
567AC
  5
567C9
331
566C0
  5
566D0
331
566FF
  5
56715
331
56736
  5
5674F
331
56775
  5
5678C
331
567B4
  5
567D2
331
4E0F4
  5
4E1E1
331
566C8
  5
566D9
331
56707
  5
5671D
331
5673E
  5
56756
331
5677D
  5
56794
331
567F3
  5
56811
331
567FB
  5
56818
331
567BC
  5
567D9
331
56746
  5
5675D
331
566D0
  5
566E1
331
5670F
  5
56726
331
56785
  5
5679C
331
56803
  5
56820
331
567C4
  5
567E1
331
56717
  5
5672F
331
5674E
  5
56765
331
5678D
  5
567A4
331
568B8
  5
568D5
331
56881
  5
5689E
331
56842
  5
5685F
331
56EF5
  5
57336
331
568C0
  5
568DD
331
56889
  5
568A6
331
5684A
  5
56867
331
568C8
  5
568E5
331
56891
  5
568AE
331
56852
  5
5686F
331
56A57
  5
56B55
331
568D0
  5
568ED
331
5685A
  5
56877
331
57064
  5
57385
331
34538
  5
34550
331
51844
  5
B8CF
331
566D8
  5
566ED
331
5680B
  5
56828
331
567CC
  5
567E9
331
566E0
  5
566F6
331
5671F
  5
56737
331
56756
  5
5676F
331
56795
  5
567AD
331
5184C
  5
B8D7
331
56813
  5
56830
331
567D4
  5
567F1
331
566E8
  5
566FE
331
56727
  5
56741
331
5675E
  5
56777
331
5679D
  5
567B7
331
5681B
  5
56838
331
567DC
  5
567F9
331
566F0
  5
56706
331
5672F
  5
5674A
331
56766
  5
5677D
331
567A5
  5
567C0
331
567E4
  5
56801
331
5676E
  5
56785
331
568D8
  5
568F5
331
56899
  5
568B6
331
56862
  5
5687F
331
56823
  5
56840
331
56A5F
  5
56B9A
331
568E0
  5
568FD
331
568A1
  5
568BE
331
5686A
  5
56887
331
5682B
  5
56848
331
568E8
  5
56905
331
568A9
  5
568C6
331
56833
  5
56850
331
56872
  5
5688F
331
568F0
  5
56A53
331
568B1
  5
568CE
331
5687A
  5
56897
331
5683B
  5
56858
331
31B31
  5
32739
331
44415
  5
44524
331
566F8
  5
5670D
331
4441D
  5
4452F
331
567EC
  5
56809
331
566C1
  5
566D1
331
56700
  5
56716
331
56737
  5
56750
331
56776
  5
5678D
331
567AD
  5
567CA
331
32D21
  5
32D3E
331
567F4
  5
56812
331
56708
  5
5671E
331
566C9
  5
566DA
331
5673F
  5
56757
331
5677E
  5
56795
331
567B5
  5
567D4
331
4E0F5
  5
4E1E3
331
567FC
  5
56819
331
566D1
  5
566E3
331
56710
  5
56727
331
56747
  5
5675E
331
56786
  5
5679D
331
567BD
  5
567DA
331
56804
  5
56821
331
5674F
  5
56766
331
5678E
  5
567A5
331
567C5
  5
567E2
331
568F8
  5
56A5D
331
568B9
  5
568D6
331
56882
  5
5689F
331
56843
  5
56860
331
56EF6
  5
57339
331
568C1
  5
568DE
331
5684B
  5
56868
331
5688A
  5
568A7
331
56B57
  5
571C9
331
568C9
  5
568E6
331
56892
  5
568AF
331
56853
  5
56870
331
568D1
  5
568EE
331
5685B
  5
56878
331
566D9
  5
566EE
331
56718
  5
56730
331
51845
  5
B8D0
331
5680C
  5
56829
331
56757
  5
56770
331
566E1
  5
566F7
331
56720
  5
56738
331
56796
  5
567AE
331
567CD
  5
567EA
331
5184D
  5
B8D8
331
56814
  5
56831
331
566E9
  5
566FF
331
56728
  5
56742
331
5675F
  5
56778
331
5679E
  5
567B8
331
567D5
  5
567F2
331
5681C
  5
56839
331
567A6
  5
567C1
331
566F1
  5
56707
331
56767
  5
5677E
331
567DD
  5
567FA
331
5676F
  5
56786
331
567E5
  5
56802
331
5B488
  5
567BE
331
568D9
  5
568F6
331
5689A
  5
568B7
331
56863
  5
56880
331
56824
  5
56841
331
568E1
  5
568FE
331
568A2
  5
568BF
331
5686B
  5
56888
331
5682C
  5
56849
331
568E9
  5
56906
331
568AA
  5
568C7
331
56873
  5
56890
331
56834
  5
56851
331
568F1
  5
56A54
331
568B2
  5
568CF
331
5687B
  5
56898
331
5683C
  5
56859
331
570A5
  5
573C3
331
31B32
  5
3273A
331
44416
  5
44525
331
566F9
  5
5670E
331
4441E
  5
44530
331
567ED
  5
5680A
331
56701
  5
56717
331
566C2
  5
566D2
331
56738
  5
56751
331
56777
  5
5678E
331
567AE
  5
567CB
331
566CA
  5
566DB
331
56709
  5
5671F
331
56740
  5
56758
331
5677F
  5
56796
331
567F5
  5
56813
331
4E0F6
  5
4E1E4
331
567FD
  5
5681A
331
56787
  5
5679E
331
566D2
  5
566E5
331
56711
  5
56728
331
56748
  5
5675F
331
567BE
  5
567DB
331
56805
  5
56822
331
5678F
  5
567A6
331
567C6
  5
567E3
331
568F9
  5
56A5E
331
568BA
  5
568D7
331
56844
  5
56861
331
56883
  5
568A0
331
568C2
  5
568DF
331
5688B
  5
568A8
331
5684C
  5
56869
331
5704E
  5
57381
331
568CA
  5
568E7
331
56893
  5
568B0
331
56854
  5
56871
331
568D2
  5
568EF
331
5685C
  5
56879
331
56750
  5
56767
331
56719
  5
56731
331
51846
  5
B8D1
331
5680D
  5
5682A
331
566E2
  5
566F8
331
56721
  5
56739
331
56758
  5
56771
331
56797
  5
567B0
331
567CE
  5
567EB
331
5184E
  5
B8D9
331
56815
  5
56832
331
566EA
  5
56700
331
56729
  5
56743
331
56760
  5
56779
331
5679F
  5
567B9
331
567D6
  5
567F3
331
5681D
  5
5683A
331
567A7
  5
567C2
331
56768
  5
5677F
331
567DE
  5
567FB
331
567E6
  5
56803
331
56A59
  5
56B56
331
56864
  5
56881
331
56825
  5
56842
331
5689B
  5
568B8
331
568DA
  5
568F7
331
5686C
  5
56889
331
5682D
  5
5684A
331
568A3
  5
568C0
331
568E2
  5
568FF
331
56874
  5
56891
331
56835
  5
56852
331
568AB
  5
568C8
331
568EA
  5
56907
331
5687C
  5
56899
331
5683D
  5
5685A
331
568B3
  5
568D0
331
568F2
  5
56A55
331
31B33
  5
3273B
331
44417
  5
44526
331
31B3B
  5
3273C
331
566FA
  5
5670F
331
56770
  5
56787
331
4441F
  5
44531
331
566C3
  5
566D3
331
56702
  5
56718
331
56739
  5
56752
331
56778
  5
5678F
331
567AF
  5
567CC
331
567EE
  5
5680B
331
566CB
  5
566DC
331
5670A
  5
56720
331
56741
  5
56759
331
56780
  5
56797
331
567B7
  5
567D5
331
566D3
  5
566E7
331
56712
  5
56729
331
56749
  5
56760
331
56788
  5
5679F
331
567BF
  5
567DC
331
567FE
  5
5681B
331
567C7
  5
567E4
331
56806
  5
56823
331
56884
  5
568A1
331
56845
  5
56862
331
568BB
  5
568D8
331
568FA
  5
56A5F
331
5688C
  5
568A9
331
5684D
  5
5686A
331
568C3
  5
568E0
331
56894
  5
568B1
331
56855
  5
56872
331
568CB
  5
568E8
331
5685D
  5
5687A
331
568D3
  5
568F0
331
5183F
  5
B5AD
331
566DB
  5
566F0
331
5671A
  5
56732
331
56751
  5
56768
331
56790
  5
567A8
331
51847
  5
B8D2
331
566E3
  5
566F9
331
56759
  5
56772
331
56798
  5
567B4
331
567CF
  5
567EC
331
5680E
  5
5682B
331
566EB
  5
56701
331
5672A
  5
56744
331
56761
  5
5677A
331
567A0
  5
567BA
331
567D7
  5
567F4
331
56816
  5
56833
331
566F3
  5
56708
331
56769
  5
56780
331
567DF
  5
567FC
331
5681E
  5
5683B
331
567E7
  5
56804
331
56865
  5
56882
331
56826
  5
56843
331
5689C
  5
568B9
331
568DB
  5
568F8
331
5686D
  5
5688A
331
5682E
  5
5684B
331
568A4
  5
568C1
331
568E3
  5
56900
331
57038
  5
57376
331
56875
  5
56892
331
56836
  5
56853
331
568AC
  5
568C9
331
568EB
  5
56908
331
5687D
  5
5689A
331
5683E
  5
5685B
331
568B4
  5
568D1
331
568F3
  5
56A56
331
44410
  5
4451F
331
44418
  5
44527
331
31B3C
  5
3273D
331
566BC
  5
566CC
331
566FB
  5
56710
331
56732
  5
5674B
331
56771
  5
56788
331
567A8
  5
567C3
331
4E0E8
  5
4E1D5
331
5673A
  5
56753
331
566C4
  5
566D5
331
56703
  5
56719
331
56779
  5
56790
331
567B0
  5
567CD
331
567EF
  5
5680C
331
566CC
  5
566DE
331
5670B
  5
56721
331
56781
  5
56798
331
567B8
  5
567D6
331
567F7
  5
56814
331
566D4
  5
566E8
331
56713
  5
5672A
331
5674A
  5
56761
331
56789
  5
567A0
331
567C0
  5
567DD
331
567FF
  5
5681C
331
56807
  5
56824
331
594E3
  5
59770
331
56885
  5
568A2
331
56846
  5
56863
331
568BC
  5
568D9
331
568FB
  5
56AA5
331
5688D
  5
568AA
331
5684E
  5
5686B
331
568C4
  5
568E1
331
56A3B
  5
56AA7
331
57177
  5
575B6
331
56895
  5
568B2
331
56856
  5
56873
331
568CC
  5
568E9
331
5685E
  5
5687B
331
568D4
  5
568F1
331
34534
  5
3454C
331
51840
  5
B5AE
331
566DC
  5
566F1
331
5671B
  5
56733
331
56752
  5
56769
331
56791
  5
567A9
331
567C8
  5
567E5
331
51848
  5
B8D3
331
566E4
  5
566FA
331
56723
  5
5673C
331
5675A
  5
56773
331
56799
  5
567B5
331
567D0
  5
567ED
331
5680F
  5
5682C
331
566EC
  5
56702
331
5672B
  5
56745
331
567A1
  5
567BB
331
567D8
  5
567F5
331
56817
  5
56834
331
5676A
  5
56781
331
566F4
  5
56709
331
567E0
  5
567FD
331
5681F
  5
5683C
  0
XRECORD
  5
5B7D1
102
{ACAD_REACTORS
330
5B7D0
102
}
330
5B7D0
100
AcDbXrecord
280
     1
 70
     1
  0
LAYOUT
  5
22
102
{ACAD_XDICTIONARY
360
5B7D4
102
}
102
{ACAD_REACTORS
330
1A
102
}
330
1A
100
AcDbPlotSettings
  1

  2
FX DocuWide 2050/2051
  4
A3
  6
AM_VIEW1
 40
3.174999952316284
 41
3.174999952316284
 42
3.17498779296875
 43
3.17498779296875
 44
296.989501953125
 45
419.9889831542968
 46
0.0
 47
1.295841228961961
 48
214.3704939521119
 49
367.5855324241176
140
275.6727856380065
141
407.629191407817
142
1.0
143
0.7225445603030646
 70
  3764
 72
     1
 73
     1
 74
     2
  7
monochrome.ctb
 75
     0
147
1.383997686703999
148
-1700.85588156276
149
-1647.985052086429
100
AcDbLayout
  1
Model
 70
     1
 71
     0
 10
0.0
 20
0.0
 11
12.0
 21
9.0
 12
0.0
 22
0.0
 32
0.0
 14
0.0
 24
0.0
 34
0.0
 15
0.0
 25
0.0
 35
0.0
146
0.0
 13
0.0
 23
0.0
 33
0.0
 16
1.0
 26
0.0
 36
0.0
 17
0.0
 27
1.0
 37
0.0
 76
     0
330
1F
331
B0EC
1001
ACAD_PSEXT
1000
FX DocuWide 2050/2051
1000
FX DocuWide 2050/2051
1000
IP_192.200.15.252
1000

1070
     0
  0
LAYOUT
  5
1E
102
{ACAD_XDICTIONARY
360
5B7D2
102
}
102
{ACAD_REACTORS
330
1A
102
}
330
1A
100
AcDbPlotSettings
  1

  2
\\ML370\XEROX
  4
A4
  6

 40
3.174999952316284
 41
3.174999952316284
 42
3.175003051757812
 43
3.17498779296875
 44
209.8674926757813
 45
296.6719970703125
 46
0.0
 47
0.0
 48
0.0
 49
0.0
140
0.0
141
0.0
142
1.0
143
1.0
 70
   688
 72
     1
 73
     1
 74
     5
  7
monochrome.ctb
 75
    16
147
1.0
148
0.0
149
0.0
100
AcDbLayout
  1
ﾚｲｱｳﾄ1
 70
     1
 71
     1
 10
-3.17498779296875
 20
-3.174999952316284
 11
293.4970092773438
 21
206.692492723465
 12
0.0
 22
0.0
 32
0.0
 14
1.000000000000000E+20
 24
1.000000000000000E+20
 34
1.000000000000000E+20
 15
-1.000000000000000E+20
 25
-1.000000000000000E+20
 35
-1.000000000000000E+20
146
0.0
 13
0.0
 23
0.0
 33
0.0
 16
1.0
 26
0.0
 36
0.0
 17
0.0
 27
1.0
 37
0.0
 76
     0
330
1B
  0
LAYOUT
  5
26
102
{ACAD_XDICTIONARY
360
5B7D6
102
}
102
{ACAD_REACTORS
330
1A
102
}
330
1A
100
AcDbPlotSettings
  1

  2
\\ML370\XEROX
  4

  6

 40
0.0
 41
0.0
 42
0.0
 43
0.0
 44
0.0
 45
0.0
 46
0.0
 47
0.0
 48
0.0
 49
0.0
140
0.0
141
0.0
142
1.0
143
1.0
 70
   688
 72
     0
 73
     0
 74
     5
  7
monochrome.ctb
 75
    16
147
1.0
148
0.0
149
0.0
100
AcDbLayout
  1
ﾚｲｱｳﾄ2
 70
     1
 71
     2
 10
0.0
 20
0.0
 11
12.0
 21
9.0
 12
0.0
 22
0.0
 32
0.0
 14
0.0
 24
0.0
 34
0.0
 15
0.0
 25
0.0
 35
0.0
146
0.0
 13
0.0
 23
0.0
 33
0.0
 16
1.0
 26
0.0
 36
0.0
 17
0.0
 27
1.0
 37
0.0
 76
     0
330
23
  0
MATERIAL
  5
B0EF
102
{ACAD_XDICTIONARY
360
5B7DC
102
}
102
{ACAD_REACTORS
330
A91C
102
}
330
A91C
100
AcDbMaterial
  1
ByBlock
  0
MATERIAL
  5
B0EE
102
{ACAD_XDICTIONARY
360
5B7DA
102
}
102
{ACAD_REACTORS
330
A91C
102
}
330
A91C
100
AcDbMaterial
  1
ByLayer
  0
MATERIAL
  5
B0F0
102
{ACAD_XDICTIONARY
360
5B7DE
102
}
102
{ACAD_REACTORS
330
A91C
102
}
330
A91C
100
AcDbMaterial
  1
Global
  0
MLINESTYLE
  5
18
102
{ACAD_REACTORS
330
17
102
}
330
17
100
AcDbMlineStyle
  2
STANDARD
 70
     0
  3

 62
   256
 51
90.0
 52
90.0
 71
     2
 49
0.5
 62
   256
  6
BYLAYER
 49
-0.5
 62
   256
  6
BYLAYER
  0
ACDBPLACEHOLDER
  5
F
102
{ACAD_REACTORS
330
E
102
}
330
E
  0
TABLESTYLE
  5
AABA
102
{ACAD_XDICTIONARY
360
5B7D8
102
}
102
{ACAD_REACTORS
330
AAB9
102
}
330
AAB9
100
AcDbTableStyle
  3
Standard
 70
     0
 71
     0
 40
1.5
 41
1.5
280
     0
281
     0
  7
STANDARD
140
4.5
170
     2
 62
     0
 63
     7
283
     0
274
    -2
284
     1
 64
     0
275
    -2
285
     1
 65
     0
276
    -2
286
     1
 66
     0
277
    -2
287
     1
 67
     0
278
    -2
288
     1
 68
     0
279
    -2
289
     1
 69
     0
  7
STANDARD
140
6.0
170
     5
 62
     0
 63
     7
283
     0
274
    -2
284
     1
 64
     0
275
    -2
285
     1
 65
     0
276
    -2
286
     1
 66
     0
277
    -2
287
     1
 67
     0
278
    -2
288
     1
 68
     0
279
    -2
289
     1
 69
     0
  7
STANDARD
140
4.5
170
     5
 62
     0
 63
     7
283
     0
274
    -2
284
     1
 64
     0
275
    -2
285
     1
 65
     0
276
    -2
286
     1
 66
     0
277
    -2
287
     1
 67
     0
278
    -2
288
     1
 68
     0
279
    -2
289
     1
 69
     0
  0
VISUALSTYLE
  5
B0F7
102
{ACAD_REACTORS
330
B0F1
102
}
330
B0F1
100
AcDbVisualStyle
  2
2dWireframe
 70
     4
 71
     0
 72
     2
 73
     0
 90
        0
 40
-0.6
 41
-30.0
 62
     5
 63
     7
 74
     1
 91
        4
 64
     7
 65
   257
 75
     1
175
     1
 42
1.0
 92
        0
 66
   257
 43
1.0
 76
     1
 77
     6
 78
     2
 67
     7
 79
     5
170
     0
171
     0
290
     0
174
     0
 93
        1
 44
0.0
173
     0
291
     0
 45
0.0
1001
ACAD
1000
AcDbSavedByObjectVersion
1070
     0
  0
VISUALSTYLE
  5
B0F9
102
{ACAD_REACTORS
330
B0F1
102
}
330
B0F1
100
AcDbVisualStyle
  2
3D Hidden
 70
     6
 71
     1
 72
     2
 73
     2
 90
        0
 40
-0.6
 41
-30.0
 62
     5
 63
     7
 74
     2
 91
        2
 64
     7
 65
   257
 75
     2
175
     1
 42
40.0
 92
        0
 66
   257
 43
1.0
 76
     1
 77
     6
 78
     2
 67
     7
 79
     3
170
     0
171
     0
290
     0
174
     0
 93
        1
 44
0.0
173
     0
291
     0
 45
0.0
1001
ACAD
1000
AcDbSavedByObjectVersion
1070
     0
  0
VISUALSTYLE
  5
B0F8
102
{ACAD_REACTORS
330
B0F1
102
}
330
B0F1
100
AcDbVisualStyle
  2
3dWireframe
 70
     5
 71
     0
 72
     2
 73
     0
 90
        0
 40
-0.6
 41
-30.0
 62
     5
 63
     7
 74
     1
 91
        4
 64
     7
 65
   257
 75
     1
175
     1
 42
1.0
 92
        0
 66
   257
 43
1.0
 76
     1
 77
     6
 78
     2
 67
     7
 79
     5
170
     0
171
     0
290
     0
174
     0
 93
        1
 44
0.0
173
     0
291
     0
 45
0.0
1001
ACAD
1000
AcDbSavedByObjectVersion
1070
     0
  0
VISUALSTYLE
  5
B0F6
102
{ACAD_REACTORS
330
B0F1
102
}
330
B0F1
100
AcDbVisualStyle
  2
Basic
 70
     7
 71
     1
 72
     0
 73
     1
 90
        0
 40
-0.6
 41
-30.0
 62
     5
 63
     7
 74
     0
 91
        4
 64
     7
 65
   257
 75
     1
175
     1
 42
1.0
 92
        8
 66
     7
 43
1.0
 76
     1
 77
     6
 78
     2
 67
     7
 79
     5
170
     0
171
     0
290
     0
174
     0
 93
        1
 44
0.0
173
     0
291
     1
 45
0.0
1001
ACAD
1000
AcDbSavedByObjectVersion
1070
     0
  0
VISUALSTYLE
  5
B0FD
102
{ACAD_REACTORS
330
B0F1
102
}
330
B0F1
100
AcDbVisualStyle
  2
Brighten
 70
    12
 71
     2
 72
     2
 73
     0
 90
        0
 40
-0.6
 41
-30.0
 62
     5
 63
     7
 74
     1
 91
        4
 64
     7
 65
   257
 75
     1
175
     1
 42
1.0
 92
        8
 66
     7
 43
1.0
 76
     1
 77
     6
 78
     2
 67
     7
 79
     5
170
     0
171
     0
290
     0
174
     0
 93
        1
 44
50.0
173
     0
291
     1
 45
0.0
1001
ACAD
1000
AcDbSavedByObjectVersion
1070
     0
  0
VISUALSTYLE
  5
B101
102
{ACAD_REACTORS
330
B0F1
102
}
330
B0F1
100
AcDbVisualStyle
  2
ColorChange
 70
    16
 71
     2
 72
     2
 73
     3
 90
        0
 40
-0.6
 41
-30.0
 62
     5
 63
     8
 74
     1
 91
        4
 64
     7
 65
   257
 75
     1
175
     1
 42
1.0
 92
        8
 66
     8
 43
1.0
 76
     1
 77
     6
 78
     2
 67
     7
 79
     5
170
     0
171
     0
290
     0
174
     0
 93
        1
 44
0.0
173
     0
291
     1
 45
0.0
1001
ACAD
1000
AcDbSavedByObjectVersion
1070
     0
  0
VISUALSTYLE
  5
B0FA
102
{ACAD_REACTORS
330
B0F1
102
}
330
B0F1
100
AcDbVisualStyle
  2
Conceptual
 70
     9
 71
     3
 72
     2
 73
     0
 90
        0
 40
-0.6
 41
-30.0
 62
     5
 63
     7
 74
     2
 91
        2
 64
     7
 65
   257
 75
     1
175
     1
 42
40.0
 92
        8
 66
     7
 43
1.0
 76
     1
 77
     6
 78
     2
 67
     7
 79
     3
170
     0
171
     0
290
     0
174
     0
 93
        1
 44
0.0
173
     0
291
     0
 45
0.0
1001
ACAD
1000
AcDbSavedByObjectVersion
1070
     0
  0
VISUALSTYLE
  5
B0FC
102
{ACAD_REACTORS
330
B0F1
102
}
330
B0F1
100
AcDbVisualStyle
  2
Dim
 70
    11
 71
     2
 72
     2
 73
     0
 90
        0
 40
-0.6
 41
-30.0
 62
     5
 63
     7
 74
     1
 91
        4
 64
     7
 65
   257
 75
     1
175
     1
 42
1.0
 92
        8
 66
     7
 43
1.0
 76
     1
 77
     6
 78
     2
 67
     7
 79
     5
170
     0
171
     0
290
     0
174
     0
 93
        1
 44
-50.0
173
     0
291
     1
 45
0.0
1001
ACAD
1000
AcDbSavedByObjectVersion
1070
     0
  0
VISUALSTYLE
  5
B100
102
{ACAD_REACTORS
330
B0F1
102
}
330
B0F1
100
AcDbVisualStyle
  2
Facepattern
 70
    15
 71
     2
 72
     2
 73
     0
 90
        0
 40
-0.6
 41
-30.0
 62
     5
 63
     7
 74
     1
 91
        4
 64
     7
 65
   257
 75
     1
175
     1
 42
1.0
 92
        8
 66
     7
 43
1.0
 76
     1
 77
     6
 78
     2
 67
     7
 79
     5
170
     0
171
     0
290
     0
174
     0
 93
        1
 44
0.0
173
     0
291
     1
 45
0.0
1001
ACAD
1000
AcDbSavedByObjectVersion
1070
     0
  0
VISUALSTYLE
  5
B0F2
102
{ACAD_REACTORS
330
B0F1
102
}
330
B0F1
100
AcDbVisualStyle
  2
Flat
 70
     0
 71
     2
 72
     1
 73
     1
 90
        2
 40
-0.6
 41
30.0
 62
     5
 63
     7
 74
     0
 91
        4
 64
     7
 65
   257
 75
     1
175
     1
 42
1.0
 92
        8
 66
     7
 43
1.0
 76
     1
 77
     6
 78
     2
 67
     7
 79
     5
170
     0
171
     0
290
     0
174
     0
 93
       13
 44
0.0
173
     0
291
     1
 45
0.0
1001
ACAD
1000
AcDbSavedByObjectVersion
1070
     0
  0
VISUALSTYLE
  5
B0F3
102
{ACAD_REACTORS
330
B0F1
102
}
330
B0F1
100
AcDbVisualStyle
  2
FlatWithEdges
 70
     1
 71
     2
 72
     1
 73
     1
 90
        2
 40
-0.6
 41
30.0
 62
     5
 63
     7
 74
     1
 91
        4
 64
     7
 65
   257
 75
     1
175
     1
 42
1.0
 92
        0
 66
   257
 43
1.0
 76
     1
 77
     6
 78
     2
 67
     7
 79
     5
170
     0
171
     0
290
     0
174
     0
 93
       13
 44
0.0
173
     0
291
     1
 45
0.0
1001
ACAD
1000
AcDbSavedByObjectVersion
1070
     0
  0
VISUALSTYLE
  5
B0F4
102
{ACAD_REACTORS
330
B0F1
102
}
330
B0F1
100
AcDbVisualStyle
  2
Gouraud
 70
     2
 71
     2
 72
     2
 73
     1
 90
        2
 40
-0.6
 41
30.0
 62
     5
 63
     7
 74
     0
 91
        4
 64
     7
 65
   257
 75
     1
175
     1
 42
1.0
 92
        0
 66
     7
 43
1.0
 76
     1
 77
     6
 78
     2
 67
     7
 79
     5
170
     0
171
     0
290
     0
174
     0
 93
       13
 44
0.0
173
     0
291
     1
 45
0.0
1001
ACAD
1000
AcDbSavedByObjectVersion
1070
     0
  0
VISUALSTYLE
  5
B0F5
102
{ACAD_REACTORS
330
B0F1
102
}
330
B0F1
100
AcDbVisualStyle
  2
GouraudWithEdges
 70
     3
 71
     2
 72
     2
 73
     1
 90
        2
 40
-0.6
 41
30.0
 62
     5
 63
     7
 74
     1
 91
        4
 64
     7
 65
   257
 75
     1
175
     1
 42
1.0
 92
        0
 66
   257
 43
1.0
 76
     1
 77
     6
 78
     2
 67
     7
 79
     5
170
     0
171
     0
290
     0
174
     0
 93
       13
 44
0.0
173
     0
291
     1
 45
0.0
1001
ACAD
1000
AcDbSavedByObjectVersion
1070
     0
  0
VISUALSTYLE
  5
B0FF
102
{ACAD_REACTORS
330
B0F1
102
}
330
B0F1
100
AcDbVisualStyle
  2
Linepattern
 70
    14
 71
     2
 72
     2
 73
     0
 90
        0
 40
-0.6
 41
-30.0
 62
     5
 63
     7
 74
     1
 91
        4
 64
     7
 65
   257
 75
     7
175
     7
 42
1.0
 92
        8
 66
     7
 43
1.0
 76
     1
 77
     6
 78
     2
 67
     7
 79
     5
170
     0
171
     0
290
     0
174
     0
 93
        1
 44
0.0
173
     0
291
     1
 45
0.0
1001
ACAD
1000
AcDbSavedByObjectVersion
1070
     0
  0
VISUALSTYLE
  5
B0FB
102
{ACAD_REACTORS
330
B0F1
102
}
330
B0F1
100
AcDbVisualStyle
  2
Realistic
 70
     8
 71
     2
 72
     2
 73
     0
 90
        0
 40
-0.6
 41
-30.0
 62
     5
 63
     7
 74
     1
 91
        0
 64
     7
 65
   257
 75
     1
175
     1
 42
1.0
 92
        8
 66
     8
 43
1.0
 76
     1
 77
     6
 78
     2
 67
     7
 79
     5
170
     0
171
     0
290
     0
174
     0
 93
       13
 44
0.0
173
     0
291
     0
 45
0.0
1001
ACAD
1000
AcDbSavedByObjectVersion
1070
     0
  0
VISUALSTYLE
  5
B0FE
102
{ACAD_REACTORS
330
B0F1
102
}
330
B0F1
100
AcDbVisualStyle
  2
Thicken
 70
    13
 71
     2
 72
     2
 73
     0
 90
        0
 40
-0.6
 41
-30.0
 62
     5
 63
     7
 74
     1
 91
        4
 64
     7
 65
   257
 75
     1
175
     1
 42
1.0
 92
       12
 66
     7
 43
1.0
 76
     1
 77
     6
 78
     2
 67
     7
 79
     5
170
     0
171
     0
290
     0
174
     0
 93
        1
 44
0.0
173
     0
291
     1
 45
0.0
1001
ACAD
1000
AcDbSavedByObjectVersion
1070
     0
  0
DICTIONARYVAR
  5
AAF3
102
{ACAD_REACTORS
330
34
102
}
330
34
100
DictionaryVariables
280
     0
  1
STANDARD
  0
DICTIONARYVAR
  5
A10C
102
{ACAD_REACTORS
330
34
102
}
330
34
100
DictionaryVariables
280
     0
  1
1
  0
DICTIONARYVAR
  5
AB07
102
{ACAD_REACTORS
330
34
102
}
330
34
100
DictionaryVariables
280
     0
  1
4
  0
DICTIONARYVAR
  5
35
102
{ACAD_REACTORS
330
34
102
}
330
34
100
DictionaryVariables
280
     0
  1
0
  0
DICTIONARYVAR
  5
194C
102
{ACAD_REACTORS
330
34
102
}
330
34
100
DictionaryVariables
280
     0
  1
127
  0
DICTIONARY
  5
7E8
102
{ACAD_REACTORS
330
47
102
}
330
47
100
AcDbDictionary
281
     1
  0
DICTIONARY
  5
4C
102
{ACAD_REACTORS
330
47
102
}
330
47
100
AcDbDictionary
281
     1
  0
XRECORD
  5
A929
102
{ACAD_REACTORS
330
47
102
}
330
47
100
AcDbXrecord
280
     1
 90
-1023410169
  0
XRECORD
  5
57913
102
{ACAD_REACTORS
330
57912
102
}
330
57912
100
AcDbXrecord
280
     1
330
0
330
0
330
0
330
0
330
0
330
0
330
0
330
0
330
0
330
0
330
0
330
0
330
0
330
0
330
0
330
0
330
0
330
0
330
0
330
0
330
0
330
0
330
0
330
0
330
0
330
0
330
0
330
0
330
0
330
0
330
0
330
0
330
0
330
0
330
0
330
0
330
0
330
0
330
0
330
0
330
0
330
0
330
0
330
0
330
0
330
0
330
0
330
0
330
0
330
0
330
0
330
0
330
0
330
0
330
0
330
0
330
0
330
0
330
0
330
0
330
0
330
0
330
0
330
0
330
0
330
0
330
0
330
0
330
0
330
0
330
0
330
0
330
0
330
0
330
0
330
0
330
0
330
0
330
0
330
0
330
0
330
0
330
0
330
0
330
0
330
0
330
0
330
0
330
0
330
0
330
0
330
0
330
0
330
0
330
0
330
0
330
0
330
0
330
0
330
0
330
0
330
0
330
0
330
0
330
0
330
0
330
0
330
0
330
0
330
0
330
0
330
0
330
0
330
0
330
0
330
0
330
0
330
0
330
0
330
0
330
0
330
0
330
0
330
0
330
0
330
0
330
0
330
0
330
0
330
0
330
0
330
0
330
0
330
0
330
0
330
0
330
0
330
0
330
0
330
0
330
0
330
0
330
0
330
0
330
0
330
0
330
0
330
0
330
0
330
0
330
0
330
0
330
0
330
0
330
0
330
0
330
0
330
0
330
0
330
0
330
0
330
0
330
0
330
0
330
0
330
0
330
0
330
0
330
0
330
0
330
0
330
0
330
0
330
0
330
0
330
0
330
0
330
0
330
0
330
0
330
0
330
0
330
0
330
0
330
0
330
0
330
0
330
0
330
0
330
0
330
0
330
0
330
0
330
0
330
0
330
0
330
0
330
0
330
0
330
0
330
0
330
0
330
0
330
0
330
0
330
0
330
0
330
0
330
0
330
0
330
0
330
0
330
0
330
0
330
0
330
0
330
0
330
0
330
0
330
0
330
0
330
0
330
0
330
0
330
0
330
0
330
0
330
0
330
0
330
0
330
0
330
0
330
0
330
0
330
0
330
0
330
0
330
0
330
0
330
0
330
0
330
0
330
0
330
0
330
0
330
0
330
0
330
0
330
0
330
0
330
0
330
0
330
0
330
0
330
0
330
0
330
0
330
0
330
0
330
0
330
0
330
0
330
0
330
0
330
0
330
0
330
0
330
0
330
0
330
0
330
0
330
0
330
0
330
0
330
0
330
0
330
0
330
0
330
0
330
0
330
0
330
0
330
0
330
0
330
0
330
0
330
0
330
0
330
0
330
0
330
0
330
0
330
0
330
0
330
0
330
0
330
0
330
0
330
0
330
0
330
0
330
0
330
0
330
0
330
0
330
0
330
0
330
0
330
0
330
0
330
0
330
0
330
0
330
0
330
0
330
0
330
0
330
0
330
0
330
0
330
0
330
0
330
0
330
0
330
0
330
0
330
0
330
0
330
0
330
0
330
0
330
0
330
0
330
0
330
0
330
0
330
0
330
0
330
0
330
0
330
0
330
0
330
0
330
0
330
0
330
0
330
0
330
0
330
0
330
0
330
0
330
0
330
0
330
0
330
0
330
0
330
0
330
0
330
0
330
0
330
0
330
0
330
0
330
0
330
0
330
0
330
0
330
0
330
0
330
0
330
0
330
0
330
0
330
0
330
0
330
0
330
0
330
0
330
0
330
0
330
0
330
0
330
0
330
0
330
0
330
0
330
0
330
0
330
0
330
0
330
0
330
0
330
0
330
0
330
0
330
0
330
0
330
0
330
0
330
0
330
0
330
0
330
0
330
0
330
0
330
0
330
0
330
0
330
0
330
0
330
0
330
0
330
0
330
0
330
0
330
0
330
0
330
0
330
0
330
0
330
0
330
0
330
0
330
0
330
0
330
0
330
0
330
0
330
0
330
0
330
0
330
0
330
0
330
0
330
0
330
0
330
0
330
0
330
0
330
0
330
0
330
0
330
0
330
0
330
0
330
0
330
0
330
0
330
0
330
0
330
0
330
0
330
0
330
0
330
0
330
0
330
0
330
0
330
0
330
0
330
0
330
0
330
0
330
0
330
0
330
0
330
0
330
0
330
0
330
0
330
0
330
0
330
0
330
0
330
0
330
0
330
0
330
0
330
0
330
0
330
0
330
0
330
0
330
0
330
0
330
0
330
0
330
0
330
0
330
0
330
0
330
0
330
0
330
0
330
0
330
0
330
0
330
0
330
0
330
0
330
0
330
0
330
0
330
0
330
0
330
0
330
0
330
0
330
0
330
0
330
0
330
0
330
0
330
0
330
0
330
0
330
0
330
0
330
0
330
0
330
0
330
0
330
0
330
0
330
0
330
0
330
0
330
0
330
0
330
0
330
0
330
0
330
0
330
0
330
0
330
0
330
0
330
0
330
0
330
0
330
0
330
0
330
0
330
0
330
0
330
0
330
0
330
0
330
0
330
0
330
0
330
0
330
0
330
0
330
0
330
0
330
0
330
0
330
0
330
0
330
0
330
0
330
0
330
0
330
0
330
0
330
0
330
0
330
0
330
0
330
0
330
0
330
0
330
0
330
0
330
0
330
0
330
0
330
0
330
0
330
0
330
0
330
0
330
0
330
0
330
0
330
0
330
0
330
0
330
0
330
0
330
0
330
0
330
0
330
0
330
0
330
0
330
0
330
0
330
0
330
0
330
0
330
0
330
0
330
0
330
0
330
0
330
0
330
0
330
0
330
0
330
0
330
0
330
0
330
0
330
0
330
0
330
0
330
0
330
0
330
0
330
0
330
0
330
0
330
0
330
0
330
0
330
0
330
0
330
0
330
0
330
0
330
0
330
0
330
0
330
0
330
0
330
0
330
0
330
0
330
0
330
0
330
0
330
0
330
0
330
0
330
0
330
0
330
0
330
0
330
0
330
0
330
0
330
0
330
0
330
0
330
0
330
0
330
0
330
0
330
0
330
0
330
0
330
0
330
0
330
0
330
0
330
0
330
0
330
0
330
0
330
0
330
0
330
0
330
0
330
0
330
0
330
0
330
0
330
0
330
0
330
0
330
0
330
0
330
0
330
0
330
0
330
0
330
0
330
0
330
0
330
0
330
0
330
0
330
0
330
0
330
0
330
0
330
0
330
0
330
0
330
0
330
0
330
0
330
0
330
0
330
0
330
0
330
0
330
0
330
0
330
0
330
0
330
0
330
0
330
0
330
0
330
0
330
0
330
0
330
0
330
0
330
0
330
0
330
0
330
0
330
0
330
0
330
0
330
0
330
0
330
0
330
0
330
0
330
0
330
0
330
0
330
0
330
0
330
0
330
0
330
0
330
0
330
0
330
0
330
0
330
0
330
0
330
0
330
0
330
0
330
0
330
0
330
0
330
0
330
0
330
0
330
0
330
0
330
0
330
0
330
0
330
0
330
0
330
0
330
0
330
0
330
0
330
0
330
0
330
0
330
0
330
0
330
0
330
0
330
0
330
0
330
0
330
0
330
0
330
0
330
0
330
0
330
0
330
0
330
0
330
0
330
0
330
0
330
0
330
0
330
0
330
0
330
0
330
0
330
0
330
0
330
0
330
0
330
0
330
0
330
0
330
0
330
0
330
0
330
0
330
0
330
0
330
0
330
0
330
0
330
0
330
0
330
0
330
0
330
0
330
0
330
0
330
0
330
0
330
0
330
0
330
0
330
0
330
0
330
0
330
0
330
0
330
0
330
0
330
0
330
0
330
0
330
0
330
0
330
0
330
0
330
0
330
0
330
0
330
0
330
0
330
0
330
0
330
0
330
0
330
0
330
0
330
0
330
0
330
0
330
0
330
0
330
0
330
0
330
0
330
0
330
0
330
0
330
0
330
0
330
0
330
0
330
0
330
0
330
0
330
0
330
0
330
0
330
0
330
0
330
0
330
0
330
0
330
0
330
0
330
0
330
0
330
0
330
0
330
0
330
0
330
0
330
0
330
0
330
0
330
0
330
0
330
0
330
0
330
0
330
0
330
0
330
0
330
0
330
0
330
0
330
0
330
0
330
0
330
0
330
0
330
0
330
0
330
0
330
0
330
0
330
0
330
0
330
0
330
0
330
0
330
0
330
0
330
0
330
0
330
0
330
0
330
0
330
0
330
0
330
0
330
0
330
0
330
0
330
0
330
0
330
0
330
0
330
0
330
0
330
0
330
0
330
0
330
0
330
0
330
0
330
0
330
0
330
0
330
0
330
0
330
0
330
0
330
0
330
0
330
0
330
0
330
0
330
0
330
0
330
0
330
0
330
0
330
0
330
0
330
0
330
0
330
0
330
0
330
0
330
0
330
0
330
0
330
0
330
0
330
0
330
0
330
0
330
0
330
0
330
0
330
0
330
0
330
0
330
0
330
0
330
0
330
0
330
0
330
0
330
0
330
0
330
0
330
0
330
0
330
0
330
0
330
0
330
0
330
0
330
0
330
0
330
0
330
0
330
0
330
0
330
0
330
0
330
0
330
0
330
0
330
0
330
0
330
0
330
0
330
0
330
0
330
0
330
0
330
0
330
0
330
0
330
0
330
0
330
0
330
0
330
0
330
0
330
0
330
0
330
0
330
0
330
0
330
0
330
0
330
0
330
0
330
0
330
0
330
0
330
0
330
0
330
0
330
0
330
0
330
0
330
0
330
0
330
0
330
0
330
0
330
0
330
0
330
0
330
0
330
0
330
0
330
0
330
0
330
0
330
0
330
0
330
0
330
0
330
0
330
0
330
0
330
0
330
0
330
0
330
0
330
0
330
0
330
0
330
0
330
0
330
0
330
0
330
0
330
0
330
0
330
0
330
0
330
0
330
0
330
0
330
0
330
0
330
0
330
0
330
0
330
0
330
0
330
0
330
0
330
0
330
0
330
0
330
0
330
0
330
0
330
0
330
0
330
0
330
0
330
0
330
0
330
0
330
0
330
0
330
0
330
0
330
0
330
0
330
0
330
0
330
0
330
0
330
0
330
0
330
0
330
0
330
0
330
0
330
0
330
0
330
0
330
0
330
0
330
0
330
0
330
0
330
0
330
0
330
0
330
0
330
0
330
0
330
0
330
0
330
0
330
0
330
0
330
0
330
0
330
0
330
0
330
0
330
0
330
0
330
0
330
0
330
0
330
0
330
0
330
0
330
0
330
0
330
0
330
0
330
0
330
0
330
0
330
0
330
0
330
0
330
0
330
0
330
0
330
0
330
0
330
0
330
0
330
0
330
0
330
0
330
0
330
0
330
0
330
0
330
0
330
0
330
0
330
0
330
0
330
0
330
0
330
0
330
0
330
0
330
0
330
0
330
0
330
0
330
0
330
0
330
0
330
0
330
0
330
0
330
0
330
0
330
0
330
0
330
0
330
0
330
0
330
0
330
0
330
0
330
0
330
0
330
0
330
0
330
0
330
0
330
0
330
0
330
0
330
0
330
0
330
0
330
0
330
0
330
0
330
0
330
0
330
0
330
0
330
0
330
0
330
0
330
0
330
0
330
0
330
0
330
0
330
0
330
0
330
0
330
0
330
0
330
0
330
0
330
0
330
0
330
0
330
0
330
0
330
0
330
0
330
0
330
0
330
0
330
0
330
0
330
0
330
0
330
0
330
0
330
0
330
0
330
0
330
0
330
0
330
0
330
0
330
0
330
0
330
0
330
0
330
0
330
0
330
0
330
0
330
0
330
0
330
0
330
0
330
0
330
0
330
0
330
0
330
0
330
0
330
0
330
0
330
0
330
0
330
0
330
0
330
0
330
0
330
0
330
0
330
0
330
0
330
0
330
0
330
0
330
0
330
0
330
0
330
0
330
0
330
0
330
0
330
0
330
0
330
0
330
0
330
0
330
0
330
0
330
0
330
0
330
0
330
0
330
0
330
0
330
0
330
0
330
0
330
0
330
0
330
0
330
0
330
0
330
0
330
0
330
0
330
0
330
0
330
0
330
0
330
0
330
0
330
0
330
0
330
0
330
0
330
0
330
0
330
0
330
0
330
0
330
0
330
0
330
0
330
0
330
0
330
0
330
0
330
0
330
0
330
0
330
0
330
0
330
0
330
0
330
0
330
0
330
0
330
0
330
0
330
0
330
0
330
0
330
0
330
0
330
0
330
0
330
0
330
0
330
0
330
0
330
0
330
0
330
0
330
0
330
0
330
0
330
0
330
0
330
0
330
0
330
0
330
0
330
0
330
0
330
0
330
0
330
0
330
0
330
0
330
0
330
0
330
0
330
0
330
0
330
0
330
0
330
0
330
0
330
0
330
0
330
0
330
0
330
0
330
0
330
0
330
0
330
0
330
0
330
0
330
0
330
0
330
0
330
0
330
0
330
0
330
0
330
0
330
0
330
0
330
0
330
0
330
0
330
0
330
0
330
0
330
0
330
0
330
0
330
0
330
0
330
0
330
0
330
0
330
0
330
0
330
0
330
0
330
0
330
0
330
0
330
0
330
0
330
0
330
0
330
0
330
0
330
0
330
0
330
0
330
0
330
0
330
0
330
0
330
0
330
0
330
0
330
0
330
0
330
0
330
0
330
0
330
0
330
0
330
0
330
0
330
0
330
0
330
0
330
0
330
0
330
0
330
0
330
0
330
0
330
0
330
0
330
0
330
0
330
0
330
0
330
0
330
0
330
0
330
0
330
0
330
0
330
0
330
0
330
0
330
0
330
0
330
0
330
0
330
0
330
0
330
0
330
0
330
0
330
0
330
0
330
0
330
0
330
0
330
0
330
0
330
0
330
0
330
0
330
0
330
0
330
0
330
0
330
0
330
0
330
0
330
0
330
0
330
0
330
0
330
0
330
0
330
0
330
0
330
0
330
0
330
0
330
0
330
0
330
0
330
0
330
0
330
0
330
0
330
0
330
0
330
0
330
0
330
0
330
0
330
0
330
0
330
0
330
0
330
0
330
0
330
0
330
0
330
0
330
0
330
0
330
0
330
0
330
0
330
0
330
0
330
0
330
0
330
0
330
0
330
0
330
0
330
0
330
0
330
0
330
0
330
0
330
0
330
0
330
0
330
0
330
0
330
0
330
0
330
0
330
0
330
0
330
0
330
0
330
0
330
0
330
0
330
0
330
0
330
0
330
0
330
0
330
0
330
0
330
0
330
0
330
0
330
0
330
0
330
0
330
0
330
0
330
0
330
0
330
0
330
0
330
0
330
0
330
0
330
0
330
0
330
0
330
0
330
0
330
0
330
0
330
0
330
0
330
0
330
0
330
0
330
0
330
0
330
0
330
0
330
0
330
0
330
0
330
0
330
0
330
0
330
0
330
0
330
0
330
0
330
0
330
0
330
0
330
0
330
0
330
0
330
0
330
0
330
0
330
0
330
0
330
0
330
0
330
0
330
0
330
0
330
0
330
0
330
0
330
0
330
0
330
0
330
0
330
0
330
0
330
0
330
0
330
0
330
0
330
0
330
0
330
0
330
0
330
0
330
0
330
0
330
0
330
0
330
0
330
0
330
0
330
0
330
0
330
0
330
0
330
0
330
0
330
0
330
0
330
0
330
0
330
0
330
0
330
0
330
0
330
0
330
0
330
0
330
0
330
0
330
0
330
0
330
0
330
0
330
0
330
0
330
0
330
0
330
0
330
0
330
0
330
0
330
573D8
330
573D9
330
573E1
330
573E2
330
573EA
330
573EB
330
573F3
330
573F4
330
0
330
0
330
0
330
0
330
0
330
0
330
0
330
0
330
0
330
0
330
0
330
0
330
0
330
0
330
0
330
0
330
0
330
0
330
0
330
0
330
0
330
0
330
0
330
0
330
573FC
330
573FD
330
57405
330
57406
330
5740E
330
5740F
330
57417
330
57418
330
0
330
0
330
0
330
0
330
0
330
0
330
5743D
330
5743E
330
57448
330
57449
330
57451
330
57452
330
5745C
330
5745D
330
57465
330
57466
330
0
330
0
330
0
330
0
330
0
330
0
330
0
330
0
330
0
330
0
330
0
330
0
330
0
330
0
330
0
330
0
330
0
330
0
330
0
330
0
330
0
330
0
330
0
330
0
330
0
330
0
330
0
330
0
330
0
330
0
330
0
330
0
330
0
330
0
330
0
330
0
330
0
330
0
330
0
330
0
330
0
330
0
330
0
330
0
330
0
330
0
330
0
330
0
330
0
330
0
330
0
330
0
330
0
330
0
330
0
330
0
330
0
330
0
330
0
330
0
330
0
330
0
330
0
330
0
330
0
330
0
330
0
330
0
330
0
330
0
330
0
330
0
330
0
330
0
330
0
330
0
330
0
330
0
330
0
330
0
330
0
330
0
330
0
330
0
330
0
330
0
330
0
330
0
330
0
330
0
330
0
330
0
330
0
330
0
330
0
330
0
330
0
330
0
330
0
330
0
330
0
330
0
330
0
330
0
330
0
330
0
330
0
330
0
330
0
330
0
330
0
330
0
330
0
330
0
330
0
330
0
330
0
330
0
330
0
330
0
330
0
330
0
330
0
330
0
330
0
330
0
330
0
330
0
330
0
330
0
330
0
330
0
330
0
330
0
330
0
330
0
330
0
330
0
330
0
330
0
330
0
330
0
  0
XRECORD
  5
3FB7
102
{ACAD_REACTORS
330
3F96
102
}
330
3F96
100
AcDbXrecord
280
     1
 91
        3
330
0
 90
        8
 62
     7
370
    40
331
16
  1
Color_7
330
0
 90
        0
 62
    14
370
    -3
331
16
  1
Color_14
330
0
 90
        8
 62
     7
370
    20
331
16
  1
Color_7
330
6D1
 90
        0
 62
     7
370
    -3
331
16
  1
Color_7
330
0
 90
        8
 62
     7
370
    50
331
16
  1
Color_7
330
0
 90
        8
 62
     2
370
    35
331
16
  1
Color_2
330
0
 90
        8
 62
     7
370
    -3
331
16
  1
Color_7
330
10
 90
        8
 62
     7
370
    -3
331
16
  1
Color_7
  0
DICTIONARY
  5
5B7D4
330
22
100
AcDbDictionary
280
     1
281
     1
  3
ACAD_XREC_ROUNDTRIP
360
5B7D5
  0
DICTIONARY
  5
5B7D2
330
1E
100
AcDbDictionary
280
     1
281
     1
  3
ACAD_XREC_ROUNDTRIP
360
5B7D3
  0
DICTIONARY
  5
5B7D6
330
26
100
AcDbDictionary
280
     1
281
     1
  3
ACAD_XREC_ROUNDTRIP
360
5B7D7
  0
DICTIONARY
  5
5B7DC
330
B0EF
100
AcDbDictionary
280
     1
281
     1
  3
ACAD_XREC_ROUNDTRIP
360
5B7DD
  0
DICTIONARY
  5
5B7DA
330
B0EE
100
AcDbDictionary
280
     1
281
     1
  3
ACAD_XREC_ROUNDTRIP
360
5B7DB
  0
DICTIONARY
  5
5B7DE
330
B0F0
100
AcDbDictionary
280
     1
281
     1
  3
ACAD_XREC_ROUNDTRIP
360
5B7DF
  0
DICTIONARY
  5
5B7D8
330
AABA
100
AcDbDictionary
280
     1
281
     1
  3
ACAD_XREC_ROUNDTRIP
360
5B7D9
  0
XRECORD
  5
5B7D5
102
{ACAD_REACTORS
330
5B7D4
102
}
330
5B7D4
100
AcDbXrecord
280
     1
102
SHADEPLOT
 70
     0
102
SHADEPLOTRESLEVEL
 70
     2
102
SHADEPLOTCUSTOMDPI
 70
   200
  0
XRECORD
  5
5B7D3
102
{ACAD_REACTORS
330
5B7D2
102
}
330
5B7D2
100
AcDbXrecord
280
     1
102
SHADEPLOT
 70
     0
102
SHADEPLOTRESLEVEL
 70
     2
102
SHADEPLOTCUSTOMDPI
 70
   300
  0
XRECORD
  5
5B7D7
102
{ACAD_REACTORS
330
5B7D6
102
}
330
5B7D6
100
AcDbXrecord
280
     1
102
SHADEPLOT
 70
     0
102
SHADEPLOTRESLEVEL
 70
     2
102
SHADEPLOTCUSTOMDPI
 70
   300
  0
XRECORD
  5
5B7DD
102
{ACAD_REACTORS
330
5B7DC
102
}
330
5B7DC
100
AcDbXrecord
280
     1
102
MATERIAL
148
0.0
149
0.0
149
0.0
 93
        0
 94
       63
282
     0
 72
     1
 77
     1
171
     1
175
     1
179
     1
273
     0
  0
XRECORD
  5
5B7DB
102
{ACAD_REACTORS
330
5B7DA
102
}
330
5B7DA
100
AcDbXrecord
280
     1
102
MATERIAL
148
0.0
149
0.0
149
0.0
 93
        0
 94
       63
282
     0
 72
     1
 77
     1
171
     1
175
     1
179
     1
273
     0
  0
XRECORD
  5
5B7DF
102
{ACAD_REACTORS
330
5B7DE
102
}
330
5B7DE
100
AcDbXrecord
280
     1
102
MATERIAL
148
0.0
149
0.0
149
0.0
 93
        0
 94
       63
282
     0
 72
     1
 77
     1
171
     1
175
     1
179
     1
273
     0
  0
XRECORD
  5
5B7D9
102
{ACAD_REACTORS
330
5B7D8
102
}
330
5B7D8
100
AcDbXrecord
280
     1
102
ACAD_ROUNDTRIP_PRE2007_TABLESTYLE
 90
        4
 91
        0
  1

 92
        4
 93
        0
  2

 94
        4
 95
        0
  3

  0
ENDSEC
  0
EOF
