  0
SECTION
  2
HEADER
  9
$ACADVER
  1
AC1015
  9
$ACADMAINTVER
 70
    20
  9
$DWGCODEPAGE
  3
ANSI_932
  9
$INSBASE
 10
0.0
 20
0.0
 30
0.0
  9
$EXTMIN
 10
6074.924675701049
 20
-7007.033420435994
 30
0.0
  9
$EXTMAX
 10
6565.809098249619
 20
-6797.033420435993
 30
0.0
  9
$LIMMIN
 10
3779.599158088851
 20
100.7134268036752
  9
$LIMMAX
 10
9719.599158088852
 20
4300.713426803675
  9
$ORTHOMODE
 70
     0
  9
$REGENMODE
 70
     1
  9
$FILLMODE
 70
     1
  9
$QTEXTMODE
 70
     0
  9
$MIRRTEXT
 70
     0
  9
$LTSCALE
 40
1.0
  9
$ATTMODE
 70
     1
  9
$TEXTSIZE
 40
3.2
  9
$TRACEWID
 40
1.0
  9
$TEXTSTYLE
  7
STANDARD
  9
$CLAYER
  8
0部品18
  9
$CELTYPE
  6
ByLayer
  9
$CECOLOR
 62
   256
  9
$CELTSCALE
 40
1.0
  9
$DISPSILH
 70
     0
  9
$DIMSCALE
 40
1.0
  9
$DIMASZ
 40
1.0
  9
$DIMEXO
 40
1.0
  9
$DIMDLI
 40
10.0
  9
$DIMRND
 40
0.0
  9
$DIMDLE
 40
0.0
  9
$DIMEXE
 40
1.0
  9
$DIMTP
 40
0.1
  9
$DIMTM
 40
0.1
  9
$DIMTXT
 40
3.5
  9
$DIMCEN
 40
0.0
  9
$DIMTSZ
 40
0.0
  9
$DIMTOL
 70
     0
  9
$DIMLIM
 70
     0
  9
$DIMTIH
 70
     0
  9
$DIMTOH
 70
     0
  9
$DIMSE1
 70
     0
  9
$DIMSE2
 70
     0
  9
$DIMTAD
 70
     1
  9
$DIMZIN
 70
     8
  9
$DIMBLK
  1

  9
$DIMASO
 70
     1
  9
$DIMSHO
 70
     1
  9
$DIMPOST
  1

  9
$DIMAPOST
  1
"
  9
$DIMALT
 70
     0
  9
$DIMALTD
 70
     2
  9
$DIMALTF
 40
0.0393701
  9
$DIMLFAC
 40
1.0
  9
$DIMTOFL
 70
     1
  9
$DIMTVP
 40
0.0
  9
$DIMTIX
 70
     0
  9
$DIMSOXD
 70
     0
  9
$DIMSAH
 70
     0
  9
$DIMBLK1
  1

  9
$DIMBLK2
  1

  9
$DIMSTYLE
  2
SYS
  9
$DIMCLRD
 70
   256
  9
$DIMCLRE
 70
   256
  9
$DIMCLRT
 70
     7
  9
$DIMTFAC
 40
0.71
  9
$DIMGAP
 40
1.5
  9
$DIMJUST
 70
     0
  9
$DIMSD1
 70
     0
  9
$DIMSD2
 70
     0
  9
$DIMTOLJ
 70
     0
  9
$DIMTZIN
 70
     8
  9
$DIMALTZ
 70
     0
  9
$DIMALTTZ
 70
     0
  9
$DIMUPT
 70
     0
  9
$DIMDEC
 70
     2
  9
$DIMTDEC
 70
     2
  9
$DIMALTU
 70
     2
  9
$DIMALTTD
 70
     2
  9
$DIMTXSTY
  7
STANDARD
  9
$DIMAUNIT
 70
     0
  9
$DIMADEC
 70
     0
  9
$DIMALTRND
 40
0.0
  9
$DIMAZIN
 70
     2
  9
$DIMDSEP
 70
    46
  9
$DIMATFIT
 70
     3
  9
$DIMFRAC
 70
     0
  9
$DIMLDRBLK
  1

  9
$DIMLUNIT
 70
     2
  9
$DIMLWD
 70
    -1
  9
$DIMLWE
 70
    -1
  9
$DIMTMOVE
 70
     0
  9
$LUNITS
 70
     2
  9
$LUPREC
 70
     2
  9
$SKETCHINC
 40
1.0
  9
$FILLETRAD
 40
6.0
  9
$AUNITS
 70
     0
  9
$AUPREC
 70
     0
  9
$MENU
  1
.
  9
$ELEVATION
 40
0.0
  9
$PELEVATION
 40
0.0
  9
$THICKNESS
 40
0.0
  9
$LIMCHECK
 70
     0
  9
$CHAMFERA
 40
0.0
  9
$CHAMFERB
 40
0.0
  9
$CHAMFERC
 40
20.0
  9
$CHAMFERD
 40
0.0
  9
$SKPOLY
 70
     0
  9
$TDCREATE
 40
2455567.680725081
  9
$TDUCREATE
 40
2455567.305725081
  9
$TDUPDATE
 40
2456338.845541620
  9
$TDUUPDATE
 40
2456338.470541620
  9
$TDINDWG
 40
8.0730739468
  9
$TDUSRTIMER
 40
8.0730723148
  9
$USRTIMER
 70
     1
  9
$ANGBASE
 50
0.0
  9
$ANGDIR
 70
     0
  9
$PDMODE
 70
     0
  9
$PDSIZE
 40
-3.0
  9
$PLINEWID
 40
0.0
  9
$SPLFRAME
 70
     0
  9
$SPLINETYPE
 70
     6
  9
$SPLINESEGS
 70
     8
  9
$HANDSEED
  5
5B630
  9
$SURFTAB1
 70
     6
  9
$SURFTAB2
 70
     6
  9
$SURFTYPE
 70
     6
  9
$SURFU
 70
     6
  9
$SURFV
 70
     6
  9
$UCSBASE
  2

  9
$UCSNAME
  2

  9
$UCSORG
 10
0.0
 20
0.0
 30
0.0
  9
$UCSXDIR
 10
1.0
 20
0.0
 30
0.0
  9
$UCSYDIR
 10
0.0
 20
1.0
 30
0.0
  9
$UCSORTHOREF
  2

  9
$UCSORTHOVIEW
 70
     0
  9
$UCSORGTOP
 10
0.0
 20
0.0
 30
0.0
  9
$UCSORGBOTTOM
 10
0.0
 20
0.0
 30
0.0
  9
$UCSORGLEFT
 10
0.0
 20
0.0
 30
0.0
  9
$UCSORGRIGHT
 10
0.0
 20
0.0
 30
0.0
  9
$UCSORGFRONT
 10
0.0
 20
0.0
 30
0.0
  9
$UCSORGBACK
 10
0.0
 20
0.0
 30
0.0
  9
$PUCSBASE
  2

  9
$PUCSNAME
  2

  9
$PUCSORG
 10
0.0
 20
0.0
 30
0.0
  9
$PUCSXDIR
 10
1.0
 20
0.0
 30
0.0
  9
$PUCSYDIR
 10
0.0
 20
1.0
 30
0.0
  9
$PUCSORTHOREF
  2

  9
$PUCSORTHOVIEW
 70
     0
  9
$PUCSORGTOP
 10
0.0
 20
0.0
 30
0.0
  9
$PUCSORGBOTTOM
 10
0.0
 20
0.0
 30
0.0
  9
$PUCSORGLEFT
 10
0.0
 20
0.0
 30
0.0
  9
$PUCSORGRIGHT
 10
0.0
 20
0.0
 30
0.0
  9
$PUCSORGFRONT
 10
0.0
 20
0.0
 30
0.0
  9
$PUCSORGBACK
 10
0.0
 20
0.0
 30
0.0
  9
$USERI1
 70
     0
  9
$USERI2
 70
     0
  9
$USERI3
 70
     0
  9
$USERI4
 70
     0
  9
$USERI5
 70
     0
  9
$USERR1
 40
0.0
  9
$USERR2
 40
0.0
  9
$USERR3
 40
0.0
  9
$USERR4
 40
0.0
  9
$USERR5
 40
0.0
  9
$WORLDVIEW
 70
     1
  9
$SHADEDGE
 70
     3
  9
$SHADEDIF
 70
    70
  9
$TILEMODE
 70
     1
  9
$MAXACTVP
 70
    64
  9
$PINSBASE
 10
0.0
 20
0.0
 30
0.0
  9
$PLIMCHECK
 70
     0
  9
$PEXTMIN
 10
1.000000000000000E+20
 20
1.000000000000000E+20
 30
1.000000000000000E+20
  9
$PEXTMAX
 10
-1.000000000000000E+20
 20
-1.000000000000000E+20
 30
-1.000000000000000E+20
  9
$PLIMMIN
 10
-3.17498779296875
 20
-3.174999952316284
  9
$PLIMMAX
 10
293.4970092773438
 20
206.692492723465
  9
$UNITMODE
 70
     0
  9
$VISRETAIN
 70
     1
  9
$PLINEGEN
 70
     0
  9
$PSLTSCALE
 70
     1
  9
$TREEDEPTH
 70
  3020
  9
$CMLSTYLE
  2
Standard
  9
$CMLJUST
 70
     0
  9
$CMLSCALE
 40
20.0
  9
$PROXYGRAPHICS
 70
     1
  9
$MEASUREMENT
 70
     1
  9
$CELWEIGHT
370
    -1
  9
$ENDCAPS
280
     0
  9
$JOINSTYLE
280
     0
  9
$LWDISPLAY
290
     1
  9
$INSUNITS
 70
     4
  9
$HYPERLINKBASE
  1

  9
$STYLESHEET
  1
monochrome.ctb
  9
$XEDIT
290
     1
  9
$CEPSNTYPE
380
     0
  9
$PSTYLEMODE
290
     1
  9
$FINGERPRINTGUID
  2
{487E49EE-344A-43F6-800E-CE119D8346FF}
  9
$VERSIONGUID
  2
{8A7E9DAA-29B8-4282-B51F-7B741BCEFFF4}
  9
$EXTNAMES
290
     1
  9
$PSVPSCALE
 40
0.0
  9
$OLESTARTUP
290
     0
  0
ENDSEC
  0
SECTION
  2
CLASSES
  0
CLASS
  1
ACDBDICTIONARYWDFLT
  2
AcDbDictionaryWithDefault
  3
ObjectDBX Classes
 90
        0
280
     0
281
     0
  0
CLASS
  1
ACDBPLACEHOLDER
  2
AcDbPlaceHolder
  3
ObjectDBX Classes
 90
        0
280
     0
281
     0
  0
CLASS
  1
LAYOUT
  2
AcDbLayout
  3
ObjectDBX Classes
 90
        0
280
     0
281
     0
  0
CLASS
  1
AMGSETTINGSOBJ
  2
AmgSettingsObj
  3
"AcadM|Product Description: AutoCAD Mechanical|Company: Autodesk"
 90
        0
280
     0
281
     0
  0
CLASS
  1
ACME_DOCUMENT
  2
AcMeDbDoc
  3
AcMeServices
 90
        0
280
     0
281
     0
  0
CLASS
  1
ACMESCOPE
  2
AcMeScope
  3
AcMeServices
 90
        0
280
     0
281
     0
  0
CLASS
  1
ACMECOMMANDHISTORY
  2
AcMeCommandHistory
  3
AcMeServices
 90
        0
280
     0
281
     0
  0
CLASS
  1
DICTIONARYVAR
  2
AcDbDictionaryVar
  3
ObjectDBX Classes
 90
        0
280
     0
281
     0
  0
CLASS
  1
ACIMSYSVARMAN
  2
AcImSysVarManager
  3
AcMeServices
 90
        0
280
     0
281
     0
  0
CLASS
  1
ACIMREALSYSVAR
  2
AcImRealSysVar
  3
AcMeServices
 90
        0
280
     0
281
     0
  0
CLASS
  1
ACIMINTSYSVAR
  2
AcImIntSysVar
  3
AcMeServices
 90
        0
280
     0
281
     0
  0
CLASS
  1
ACMEDRAWINGMAN
  2
AcMeDrawingMan
  3
AcMeServices
 90
        0
280
     0
281
     0
  0
CLASS
  1
ACMEVIEW
  2
AcMeView
  3
AcMeServices
 90
        0
280
     0
281
     0
  0
CLASS
  1
ACDBENTITYCACHE
  2
AcMeEntityCache
  3
AcMeServices
 90
        0
280
     0
281
     0
  0
CLASS
  1
GSMANAGER
  2
AcMeGSManager
  3
AcMeServices
 90
        0
280
     0
281
     0
  0
CLASS
  1
AMDTINTERNALREACTOR
  2
AmdtInternalReactor
  3
AcMeServices
 90
        0
280
     0
281
     0
  0
CLASS
  1
ACMESTATEMGR
  2
AcMeStateMgr
  3
AcMeServices
 90
        0
280
     0
281
     0
  0
CLASS
  1
ACGREFMASTER
  2
AcGrefMaster
  3
AcAttribServices
 90
        0
280
     0
281
     0
  0
CLASS
  1
ACME_DATABASE
  2
AcMeDbDatabase
  3
AcMeServices
 90
        0
280
     0
281
     0
  0
CLASS
  1
ACRFINSADJUSTERMGR
  2
AcRfInsAdjusterMgr
  3
AcMeServices
 90
        0
280
     0
281
     0
  0
CLASS
  1
ACGREFACADMASTER
  2
AcGrefacadMaster
  3
AcGrefServices
 90
        0
280
     0
281
     0
  0
CLASS
  1
AMIMASTER
  2
AmiMaster
  3
AmiServices
 90
        0
280
     0
281
     0
  0
CLASS
  1
ACMDATADICTIONARY
  2
AcmDataDictionary
  3
"AcmSymBB|Product Description: AutoCAD Mechanical|Company: Autodesk"
 90
        0
280
     0
281
     0
  0
CLASS
  1
ACMDATAENTRYBLOCK
  2
AcmDataEntryBlock
  3
"AcmSymBB|Product Description: AutoCAD Mechanical|Company: Autodesk"
 90
        0
280
     0
281
     0
  0
CLASS
  1
ACIMSTRSYSVAR
  2
AcImStrSysVar
  3
AcMeServices
 90
        0
280
     0
281
     0
  0
CLASS
  1
ACMSTANDARDISO
  2
AcmStandardISO
  3
"Amdt_StdImp|Product Description: AutoCAD Mechanical|Company: Autodesk"
 90
        0
280
     0
281
     0
  0
CLASS
  1
AMGOBJPROPCFG
  2
AmgObjPropCfg
  3
"AmgLay|Product Description: AutoCAD Mechanical|Company: Autodesk"
 90
        1
280
     0
281
     0
  0
CLASS
  1
AMDTEDGESTANDARDISO
  2
AmdtEdgeStdISO
  3
"Amdt_StdImp|Product Description: AutoCAD Mechanical|Company: Autodesk"
 90
        0
280
     0
281
     0
  0
CLASS
  1
ACMSURFSTANDARDISO
  2
AcmSurfTextStdISO
  3
"Amdt_StdImp|Product Description: AutoCAD Mechanical|Company: Autodesk"
 90
        0
280
     0
281
     0
  0
CLASS
  1
ACMFCFSTANDARDISO
  2
AcmFCFStdISO
  3
"Amdt_StdImp|Product Description: AutoCAD Mechanical|Company: Autodesk"
 90
        0
280
     0
281
     0
  0
CLASS
  1
ACMWELDSTANDARDISO
  2
AcmWeldingStdISO
  3
"Amdt_StdImp|Product Description: AutoCAD Mechanical|Company: Autodesk"
 90
        0
280
     0
281
     0
  0
CLASS
  1
ACMIDSTANDARDISO
  2
AcmIdStdISO
  3
"Amdt_StdImp|Product Description: AutoCAD Mechanical|Company: Autodesk"
 90
        0
280
     0
281
     0
  0
CLASS
  1
ACMDATUMSTANDARDISO
  2
AcmDatumStdISO
  3
"Amdt_StdImp|Product Description: AutoCAD Mechanical|Company: Autodesk"
 90
        0
280
     0
281
     0
  0
CLASS
  1
ACMBOMSTANDARDISO
  2
AcmBOMStdISO
  3
"Amdt_StdImp|Product Description: AutoCAD Mechanical|Company: Autodesk"
 90
        0
280
     0
281
     0
  0
CLASS
  1
ACMDETAILSTANDARDISO
  2
AmdtDetailSymStdISO
  3
"Amdt_StdImp|Product Description: AutoCAD Mechanical|Company: Autodesk"
 90
        0
280
     0
281
     0
  0
CLASS
  1
ACMSECTIONSTANDARDISO
  2
AmdtSectionSymStdISO
  3
"Amdt_StdImp|Product Description: AutoCAD Mechanical|Company: Autodesk"
 90
        0
280
     0
281
     0
  0
CLASS
  1
ACMCENTERLINESTANDARDISO
  2
AmdtCenterLineStdISO
  3
"Amdt_StdImp|Product Description: AutoCAD Mechanical|Company: Autodesk"
 90
        0
280
     0
281
     0
  0
CLASS
  1
ACAMGLAYSTD
  2
AcAmgLayStd
  3
"AmgLay|Product Description: AutoCAD Mechanical|Company: Autodesk"
 90
        0
280
     0
281
     0
  0
CLASS
  1
ACAMGDIMSTD
  2
AcAmgDimStd
  3
"AmgDim|Product Description: AutoCAD Mechanical|Company: Autodesk"
 90
        0
280
     0
281
     0
  0
CLASS
  1
ACAMGTITLESTD
  2
AcAmgTitleStd
  3
"AmgTitle|Product Description: AutoCAD Mechanical|Company: Autodesk"
 90
        0
280
     0
281
     0
  0
CLASS
  1
ACAMGFILTERDAT
  2
AcAmgFilterDat
  3
"AcadM|Product Description: AutoCAD Mechanical|Company: Autodesk"
 90
        0
280
     0
281
     0
  0
CLASS
  1
LAYER_INDEX
  2
AcDbLayerIndex
  3
ObjectDBX Classes
 90
    32768
280
     0
281
     0
  0
CLASS
  1
IDBUFFER
  2
AcDbIdBuffer
  3
ObjectDBX Classes
 90
    32768
280
     0
281
     0
  0
CLASS
  1
PLOTSETTINGS
  2
AcDbPlotSettings
  3
ObjectDBX Classes
 90
    32768
280
     0
281
     0
  0
CLASS
  1
AMDTFORMULAUPDATEDISPATCHER
  2
AmdtFormulaUpdateDispatcher
  3
AcMeServices
 90
        0
280
     0
281
     0
  0
CLASS
  1
ACMSTANDARDANSI
  2
AcmStandardANSI
  3
"Amdt_StdImp|Product Description: AutoCAD Mechanical|Company: Autodesk"
 90
        0
280
     0
281
     0
  0
CLASS
  1
ACMSURFSTANDARDANSI
  2
AcmSurfTextStdANSI
  3
"Amdt_StdImp|Product Description: AutoCAD Mechanical|Company: Autodesk"
 90
        0
280
     0
281
     0
  0
CLASS
  1
ACMFCFSTANDARDANSI
  2
AcmFCFStdANSI
  3
"Amdt_StdImp|Product Description: AutoCAD Mechanical|Company: Autodesk"
 90
        0
280
     0
281
     0
  0
CLASS
  1
ACMWELDSTANDARDANSI
  2
AcmWeldingStdANSI
  3
"Amdt_StdImp|Product Description: AutoCAD Mechanical|Company: Autodesk"
 90
        0
280
     0
281
     0
  0
CLASS
  1
ACMIDSTANDARDANSI
  2
AcmIdStdANSI
  3
"Amdt_StdImp|Product Description: AutoCAD Mechanical|Company: Autodesk"
 90
        0
280
     0
281
     0
  0
CLASS
  1
ACMDATUMSTANDARDANSI
  2
AcmDatumStdANSI
  3
"Amdt_StdImp|Product Description: AutoCAD Mechanical|Company: Autodesk"
 90
        0
280
     0
281
     0
  0
CLASS
  1
ACMBOMSTANDARDANSI
  2
AcmBOMStdANSI
  3
"Amdt_StdImp|Product Description: AutoCAD Mechanical|Company: Autodesk"
 90
        0
280
     0
281
     0
  0
CLASS
  1
ACMDETAILSTANDARDANSI
  2
AmdtDetailSymStdANSI
  3
"Amdt_StdImp|Product Description: AutoCAD Mechanical|Company: Autodesk"
 90
        0
280
     0
281
     0
  0
CLASS
  1
ACMSECTIONSTANDARDANSI
  2
AmdtSectionSymStdANSI
  3
"Amdt_StdImp|Product Description: AutoCAD Mechanical|Company: Autodesk"
 90
        0
280
     0
281
     0
  0
CLASS
  1
ACMCENTERLINESTANDARDANSI
  2
AmdtCenterLineStdANSI
  3
"Amdt_StdImp|Product Description: AutoCAD Mechanical|Company: Autodesk"
 90
        0
280
     0
281
     0
  0
CLASS
  1
ACMBOM
  2
AcmBom
  3
"AcmSymBB|Product Description: AutoCAD Mechanical|Company: Autodesk"
 90
        0
280
     0
281
     0
  0
CLASS
  1
ACMDATAENTRYPART
  2
AcmDataEntryPart
  3
"AcmSymBB|Product Description: AutoCAD Mechanical|Company: Autodesk"
 90
    32768
280
     0
281
     0
  0
CLASS
  1
ACMPARTREF
  2
AcmPartRef
  3
"AcmSymBB|Product Description: AutoCAD Mechanical|Company: Autodesk"
 90
    35839
280
     0
281
     1
  0
CLASS
  1
ACDBCIRCARCRES
  2
AcDbCircArcRes
  3
AcGrefServices
 90
    32768
280
     0
281
     0
  0
CLASS
  1
ACMBOMROW
  2
AcmBomRow
  3
"AcmSymBB|Product Description: AutoCAD Mechanical|Company: Autodesk"
 90
    32768
280
     0
281
     0
  0
CLASS
  1
ACMBALLOON
  2
AcmBalloon
  3
"AcmSymBB|Product Description: AutoCAD Mechanical|Company: Autodesk"
 90
    35839
280
     0
281
     1
  0
CLASS
  1
AMDTNOTE
  2
AmdtNote
  3
"AcmSymBB|Product Description: AutoCAD Mechanical|Company: Autodesk"
 90
    35839
280
     0
281
     1
  0
CLASS
  1
STDPART2D
  2
AmgStdPart
  3
"AmgStdPart|Product Description: AutoCAD Mechanical|Company: Autodesk"
 90
    35839
280
     0
281
     1
  0
CLASS
  1
ACDBSTDPARTRES_LINE
  2
AcDbStdPartRes_Line
  3
"AmgStdPart|Product Description: AutoCAD Mechanical|Company: Autodesk"
 90
    32768
280
     0
281
     0
  0
CLASS
  1
ACMDATAENTRY
  2
AcmDataEntry
  3
"AcmSymBB|Product Description: AutoCAD Mechanical|Company: Autodesk"
 90
        0
280
     0
281
     0
  0
CLASS
  1
ACDBOPPOLYLINERES
  2
AcDbOpPolylineRes
  3
AcGrefServices
 90
    32768
280
     0
281
     0
  0
CLASS
  1
ACMPARTLIST
  2
AcmPartList
  3
"AcmSymBB|Product Description: AutoCAD Mechanical|Company: Autodesk"
 90
    35839
280
     0
281
     1
  0
CLASS
  1
ACDBLINERES
  2
AcDbLineRes
  3
AcGrefServices
 90
        0
280
     0
281
     0
  0
CLASS
  1
ACRFINSADJ
  2
AcRfInsAdjuster
  3
AcMeServices
 90
    32768
280
     0
281
     0
  0
CLASS
  1
AM_DRAWING_MGR
  2
AcDmDwgMgr
  3
AcMechDwgViewMgmt
 90
        0
280
     0
281
     0
  0
CLASS
  1
AM_DWG_DOCUMENT
  2
AcDmDwgDocument
  3
AcMechDwgViewMgmt
 90
        0
280
     0
281
     0
  0
CLASS
  1
AM_DWG_SHEET
  2
AcDmSheet
  3
AcMechDwgViewMgmt
 90
        0
280
     0
281
     0
  0
CLASS
  1
AM_VIEWDIMPARMAP
  2
AcDmViewDimParMap
  3
AcMechDwgViewMgmt
 90
        0
280
     0
281
     0
  0
CLASS
  1
AM_DWGMGR_NAME
  2
AcDmDwgMgrName
  3
AcMechDwgViewMgmt
 90
        0
280
     0
281
     0
  0
CLASS
  1
AMDTMENUSTATEMGR
  2
AmdtMenuStateMgr
  3
McadcomServices
 90
        0
280
     0
281
     0
  0
CLASS
  1
AMDTMCOMMENUSTATE
  2
AmdtMcomMenuState
  3
McadcomServices
 90
        0
280
     0
281
     0
  0
CLASS
  1
ASAPP
  2
AcAsAppObject
  3
AutoSurfServices
 90
        0
280
     0
281
     0
  0
CLASS
  1
IM_STATIC_MAN
  2
AcImStaticVarManager
  3
AcMeServices
 90
        0
280
     0
281
     0
  0
CLASS
  1
ACIMDBLSTATICVAR
  2
AcImDblStaticVar
  3
AcMeServices
 90
        0
280
     0
281
     0
  0
CLASS
  1
ACIMSTRSTATICVAR
  2
AcImStrStaticVar
  3
AcMeServices
 90
        0
280
     0
281
     0
  0
CLASS
  1
ACIMINTSTATICVAR
  2
AcImIntStaticVar
  3
AcMeServices
 90
        0
280
     0
281
     0
  0
CLASS
  1
ACASGREFMASTER
  2
AcAsGrefMaster
  3
AutoSurfResolverServices
 90
        0
280
     0
281
     0
  0
CLASS
  1
ACADGREFMODULE
  2
AcAdGrefModule
  3
AdGrefServices
 90
        0
280
     0
281
     0
  0
CLASS
  1
AMDTMAPISURFMOUDULE
  2
AmdtMApiSurfModule
  3
MApiSurfServices
 90
        0
280
     0
281
     0
  0
CLASS
  1
MAPIAMMOUDLE
  2
MApiAmModule
  3
MApiAmServices
 90
        0
280
     0
281
     0
  0
CLASS
  1
AMDTADMENUSTATE
  2
AmdtAdMenuState
  3
DesignerServices
 90
        0
280
     0
281
     0
  0
CLASS
  1
ADAPPL
  2
AcAdAppl
  3
DesignerServices
 90
        0
280
     0
281
     0
  0
CLASS
  1
DEPMGR
  2
AcAdDepMgr
  3
DesignerServices
 90
        0
280
     0
281
     0
  0
CLASS
  1
PARAMMGR
  2
AcAdParamMgr
  3
DesignerServices
 90
        0
280
     0
281
     0
  0
CLASS
  1
PARAMSCOPE
  2
AcAdParamScope
  3
DesignerServices
 90
        0
280
     0
281
     0
  0
CLASS
  1
NAMEDAPPL
  2
AcAdNamedAppl
  3
DesignerServices
 90
        0
280
     0
281
     0
  0
CLASS
  1
ADHNTMPLT
  2
AdHoleNoteTemplateMgr
  3
DesignerServices
 90
    32768
280
     0
281
     0
  0
CLASS
  1
AM_HNTEMPLATE_MGR_NAME
  2
AdHoleNoteTemplateMgrName
  3
DesignerServices
 90
    32768
280
     0
281
     0
  0
CLASS
  1
AMDTDMMENUSTATE
  2
AmdtDmMenuState
  3
AcMechDwgViewMgmt
 90
        0
280
     0
281
     0
  0
CLASS
  1
MAPIADMODULE
  2
MApiAdModule
  3
MApiAdServices
 90
        0
280
     0
281
     0
  0
CLASS
  1
AMDTAMMENUSTATE
  2
AmdtAmMenuState
  3
DesignerAssemblies
 90
        0
280
     0
281
     0
  0
CLASS
  1
ACAMPROJECT
  2
AcAmProject
  3
DesignerAssemblies
 90
        0
280
     0
281
     0
  0
CLASS
  1
ACAMGRCOMPDEF
  2
AcAmGrCompDef
  3
DesignerAssemblies
 90
        0
280
     0
281
     0
  0
CLASS
  1
ACCMCONTEXT
  2
AcCmContext
  3
DesignerAssemblies
 90
        0
280
     0
281
     0
  0
CLASS
  1
ACAMCOMPDEF
  2
AcAmCompDef
  3
DesignerAssemblies
 90
        0
280
     0
281
     0
  0
CLASS
  1
ACAMCOMPDEFMGR
  2
AcAmCompDefMgr
  3
DesignerAssemblies
 90
        0
280
     0
281
     0
  0
CLASS
  1
AMCONTEXTMGR
  2
AcAmContextMgr
  3
DesignerAssemblies
 90
        0
280
     0
281
     0
  0
CLASS
  1
ACAMCONTEXTMODELER
  2
AcAmContextModeler
  3
DesignerAssemblies
 90
        0
280
     0
281
     0
  0
CLASS
  1
CATALOGSTATE
  2
AcAmCatalogState
  3
DesignerAssemblies
 90
        0
280
     0
281
     0
  0
CLASS
  1
ACAMGRCOMPDEFSET
  2
AcAmGrCompDefSet
  3
DesignerAssemblies
 90
        0
280
     0
281
     0
  0
CLASS
  1
AMDTBROWSERDBTAB
  2
AmdtBrowserDbTab
  3
McadcomServices
 90
        0
280
     0
281
     0
  0
CLASS
  1
CBROWSERAPPOBJECT
  2
CBrowserAppObject
  3
McadcomServices
 90
        0
280
     0
281
     0
  0
CLASS
  1
DM_PLACEHOLDER
  2
AcDmSelsetPlaceholder
  3
AcMechDwgViewMgmt
 90
        0
280
     0
281
     0
  0
CLASS
  1
ACMPICKOBJ
  2
AcmPickEnt
  3
"AcmSymBB|Product Description: AutoCAD Mechanical|Company: Autodesk"
 90
    32768
280
     0
281
     1
  0
CLASS
  1
ACMNOTESTANDARDISO
  2
AmdtNoteStdISO
  3
"Amdt_StdImp|Product Description: AutoCAD Mechanical|Company: Autodesk"
 90
        0
280
     0
281
     0
  0
CLASS
  1
ACMNOTESTANDARDANSI
  2
AmdtNoteStdANSI
  3
"Amdt_StdImp|Product Description: AutoCAD Mechanical|Company: Autodesk"
 90
        0
280
     0
281
     0
  0
CLASS
  1
ACMTHREADLINESTANDARDISO
  2
AmdtThreadLineStdISO
  3
"Amdt_StdImp|Product Description: AutoCAD Mechanical|Company: Autodesk"
 90
        0
280
     0
281
     0
  0
CLASS
  1
ACMTHREADLINESTANDARDANSI
  2
AmdtThreadLineStdANSI
  3
"Amdt_StdImp|Product Description: AutoCAD Mechanical|Company: Autodesk"
 90
        0
280
     0
281
     0
  0
CLASS
  1
TABLESTYLE
  2
AcDbTableStyle
  3
ObjectDBX Classes
 90
     4095
280
     0
281
     0
  0
CLASS
  1
SORTENTSTABLE
  2
AcDbSortentsTable
  3
ObjectDBX Classes
 90
        0
280
     0
281
     0
  0
CLASS
  1
MATERIAL
  2
AcDbMaterial
  3
ObjectDBX Classes
 90
     1153
280
     0
281
     0
  0
CLASS
  1
VISUALSTYLE
  2
AcDbVisualStyle
  3
ObjectDBX Classes
 90
     4095
280
     0
281
     0
  0
CLASS
  1
ACRFATTGENMGR
  2
AcRfAttGeneralMgr
  3
AcAttribServices
 90
        0
280
     0
281
     0
  0
CLASS
  1
ACRFOBJATTMGR
  2
AcRfObjAttGroupMgr
  3
AcAttribServices
 90
        0
280
     0
281
     0
  0
CLASS
  1
ACRFMCADAPIATTHOLDER
  2
AcRfMCADAPIAttHolder
  3
AcAttribServices
 90
        0
280
     0
281
     0
  0
CLASS
  1
AMDTSYSATTR
  2
AmdtSystemAttribute
  3
AcAttribServices
 90
        0
280
     0
281
     0
  0
CLASS
  1
ACMTAPERSTANDARDISO
  2
AcmTaperStdISO
  3
"Amdt_StdImp|Product Description: AutoCAD Mechanical|Company: Autodesk"
 90
        0
280
     0
281
     0
  0
CLASS
  1
CAMSSTRUCTBTNSTATE
  2
StructBtnState
  3
L"DesignerAssemblies"
 90
        0
280
     0
281
     0
  0
CLASS
  1
DIMASSOC
  2
AcDbDimAssoc
  3
"AcDbDimAssoc|Product Desc:     AcDim ARX App For Dimension|Company:          Autodesk, Inc.|WEB Address:      www.autodesk.com"
 90
    32768
280
     0
281
     0
  0
CLASS
  1
EXACXREFPANELOBJECT
  2
ExAcXREFPanelObject
  3
EXAC_ESW
 90
    33793
280
     0
281
     0
  0
CLASS
  1
NPOCOLLECTION
  2
AcDbImpNonPersistentObjectsCollection
  3
ObjectDBX Classes
 90
    33921
280
     0
281
     0
  0
CLASS
  1
AMDTEDGESTANDARDISO13715
  2
AmdtEdgeStdISO13715
  3
"Amdt_StdImp|Product Description: AutoCAD Mechanical|Company: Autodesk"
 90
        0
280
     0
281
     0
  0
CLASS
  1
AMDTNOTETEMPLATEDB
  2
AmdtNoteTemplateDB
  3
AMDT_STDIMP_MODULE_NAME
 90
        0
280
     0
281
     0
  0
CLASS
  1
ACAMGHOLECHARTSTDISO
  2
AcAmgHoleChartStdISO
  3
ACMSYMBB_MODULE_NAME
 90
        0
280
     0
281
     0
  0
CLASS
  1
ACMTAPERSTANDARDANSI
  2
AcmTaperStdANSI
  3
"Amdt_StdImp|Product Description: AutoCAD Mechanical|Company: Autodesk"
 90
        0
280
     0
281
     0
  0
CLASS
  1
ACAMGHOLECHARTSTDANSI
  2
AcAmgHoleChartStdANSI
  3
ACMSYMBB_MODULE_NAME
 90
        0
280
     0
281
     0
  0
CLASS
  1
ACAMSTDPCOMPDEF
  2
AcAmStdpCompDef
  3
DesignerAssemblies
 90
    32768
280
     0
281
     0
  0
CLASS
  1
ACAMCOMP
  2
AcAmComp
  3
DesignerAssemblies
 90
    32768
280
     0
281
     0
  0
CLASS
  1
AC_AM_STDP_VIEW_DEF
  2
AcAmStdpViewDef
  3
DesignerAssemblies
 90
    32768
280
     0
281
     0
  0
CLASS
  1
AC_AM_MVD_DEP_MGR
  2
AcAmMVDdepMgr
  3
DesignerAssemblies
 90
        0
280
     0
281
     0
  0
CLASS
  1
AC_AM_MASTER_VIEW_DEF
  2
AcAmMasterViewDef
  3
DesignerAssemblies
 90
        0
280
     0
281
     0
  0
CLASS
  1
AC_AM_DIRTY_NODES
  2
AcAmDirtyNodes
  3
DesignerAssemblies
 90
        0
280
     0
281
     0
  0
CLASS
  1
AC_AM_MAPPER_CACHE
  2
AcAmMapperCache
  3
DesignerAssemblies
 90
        0
280
     0
281
     0
  0
CLASS
  1
ACAMMVDBACKUPOBJECT
  2
AcAmMVDBackupObject
  3
DesignerAssemblies
 90
        0
280
     0
281
     0
  0
CLASS
  1
AC_AM_COMP_VIEW_INST
  2
AcAmCompView
  3
DesignerAssemblies
 90
    32768
280
     0
281
     0
  0
CLASS
  1
AC_AM_2D_XREF_MGR
  2
AcAmXrefMgr2d
  3
DesignerAssemblies
 90
        0
280
     0
281
     0
  0
CLASS
  1
AC_AM_HIDE_SITUATION
  2
AcAmHideSituation
  3
DesignerAssemblies
 90
    32768
280
     0
281
     0
  0
CLASS
  1
AC_AM_TRANSFORM_GHOST
  2
AcDbTransformGhost
  3
DesignerAssemblies
 90
    32768
280
     0
281
     1
  0
CLASS
  1
L"OBJCLONER"
  2
ObjCloner
  3
DesignerAssemblies
 90
    32768
280
     0
281
     1
  0
ENDSEC
  0
SECTION
  2
TABLES
  0
TABLE
  2
VPORT
  5
8
330
0
100
AcDbSymbolTable
 70
     1
  0
VPORT
  5
B0EC
330
8
100
AcDbSymbolTableRecord
100
AcDbViewportTableRecord
  2
*Active
 70
     0
 10
0.0
 20
0.0
 11
1.0
 21
1.0
 12
6223.622866970488
 22
-6909.572215041091
 13
0.0
 23
0.0
 14
2.5
 24
2.5
 15
10.0
 25
10.0
 16
0.0
 26
0.0
 36
1.0
 17
0.0
 27
0.0
 37
0.0
 40
326.2689118052583
 41
1.702970297029702
 42
50.0
 43
-1370.695619172058
 44
-1370.695619172058
 50
0.0
 51
0.0
 71
     0
 72
   100
 73
     1
 74
     3
 75
     0
 76
     0
 77
     0
 78
     0
281
     0
 65
     0
110
0.0
120
0.0
130
0.0
111
1.0
121
0.0
131
0.0
112
0.0
122
1.0
132
0.0
 79
     0
146
0.0
  0
ENDTAB
  0
TABLE
  2
LTYPE
  5
5
330
0
100
AcDbSymbolTable
 70
    24
  0
LTYPE
  5
14
330
5
100
AcDbSymbolTableRecord
100
AcDbLinetypeTableRecord
  2
ByBlock
 70
     0
  3

 72
    65
 73
     0
 40
0.0
  0
LTYPE
  5
15
330
5
100
AcDbSymbolTableRecord
100
AcDbLinetypeTableRecord
  2
ByLayer
 70
     0
  3

 72
    65
 73
     0
 40
0.0
  0
LTYPE
  5
16
330
5
100
AcDbSymbolTableRecord
100
AcDbLinetypeTableRecord
  2
Continuous
 70
     0
  3
Solid line
 72
    65
 73
     0
 40
0.0
  0
LTYPE
  5
4F
330
5
100
AcDbSymbolTableRecord
100
AcDbLinetypeTableRecord
  2
AM_ISO02W050
 70
     0
  3
__ __ __ __ __ __ __ __ __ __ __ __ __ __ __
 72
    65
 73
     2
 40
7.5
 49
6.0
 74
     0
 49
-1.5
 74
     0
  0
LTYPE
  5
52
330
5
100
AcDbSymbolTableRecord
100
AcDbLinetypeTableRecord
  2
Amconstr
 70
     0
  3
_______________________
 72
    65
 73
     2
 40
9999.0
 49
9999.0
 74
     0
 49
0.0
 74
     0
  0
LTYPE
  5
64
330
5
100
AcDbSymbolTableRecord
100
AcDbLinetypeTableRecord
  2
ACISOWELD
 70
     0
  3
_ _ _ _ _
 72
    65
 73
     2
 40
2.0
 49
2.0
 74
     0
 49
-1.0
 74
     0
  0
LTYPE
  5
65
330
5
100
AcDbSymbolTableRecord
100
AcDbLinetypeTableRecord
  2
ACISOTGB
 70
     0
  3
__ . . __ . .
 72
    65
 73
     6
 40
9.0
 49
4.0
 74
     0
 49
-1.0
 74
     0
 49
1.0
 74
     0
 49
-1.0
 74
     0
 49
1.0
 74
     0
 49
-1.0
 74
     0
  0
LTYPE
  5
66
330
5
100
AcDbSymbolTableRecord
100
AcDbLinetypeTableRecord
  2
ACISOTGL
 70
     0
  3
_ _ _ _ _
 72
    65
 73
     2
 40
3.0
 49
2.0
 74
     0
 49
-1.0
 74
     0
  0
LTYPE
  5
69
330
5
100
AcDbSymbolTableRecord
100
AcDbLinetypeTableRecord
  2
CENTER
 70
     0
  3
__ . __
 72
    65
 73
     4
 40
7.0
 49
4.0
 74
     0
 49
-1.0
 74
     0
 49
1.0
 74
     0
 49
-1.0
 74
     0
  0
LTYPE
  5
A6E
330
5
100
AcDbSymbolTableRecord
100
AcDbLinetypeTableRecord
  2
PHANTOM2
 70
     0
  3
Phantom (.5x) ___ _ _ ___ _ _ ___ _ _ ___ _ _
 72
    65
 73
     6
 40
31.75
 49
15.875
 74
     0
 49
-3.174999999999999
 74
     0
 49
3.174999999999999
 74
     0
 49
-3.174999999999999
 74
     0
 49
3.174999999999999
 74
     0
 49
-3.174999999999999
 74
     0
  0
LTYPE
  5
4DED
330
5
100
AcDbSymbolTableRecord
100
AcDbLinetypeTableRecord
  2
中線
 70
     0
  3
___________________
 72
    65
 73
     2
 40
2.0
 49
1.0
 74
     0
 49
1.0
 74
     0
  0
LTYPE
  5
4DF6
330
5
100
AcDbSymbolTableRecord
100
AcDbLinetypeTableRecord
  2
細線
 70
     0
  3
___________________
 72
    65
 73
     2
 40
2.0
 49
1.0
 74
     0
 49
1.0
 74
     0
  0
LTYPE
  5
4DF7
330
5
100
AcDbSymbolTableRecord
100
AcDbLinetypeTableRecord
  2
太線
 70
     0
  3
___________________
 72
    65
 73
     2
 40
2.0
 49
1.0
 74
     0
 49
1.0
 74
     0
  0
LTYPE
  5
4EA7
330
5
100
AcDbSymbolTableRecord
100
AcDbLinetypeTableRecord
  2
文字
 70
     0
  3
_________________
 72
    65
 73
     2
 40
2.0
 49
1.0
 74
     0
 49
1.0
 74
     0
  0
LTYPE
  5
4EA9
330
5
100
AcDbSymbolTableRecord
100
AcDbLinetypeTableRecord
  2
寸法線
 70
     0
  3
________________
 72
    65
 73
     2
 40
2.0
 49
1.0
 74
     0
 49
1.0
 74
     0
  0
LTYPE
  5
4F12
330
5
100
AcDbSymbolTableRecord
100
AcDbLinetypeTableRecord
  2
ハッチング
 70
     0
  3
_________________
 72
    65
 73
     2
 40
2.0
 49
1.0
 74
     0
 49
1.0
 74
     0
  0
LTYPE
  5
5180
330
5
100
AcDbSymbolTableRecord
100
AcDbLinetypeTableRecord
  2
陰線1
 70
     0
  3
__ __ __ __
 72
    65
 73
     2
 40
4.0
 49
2.2
 74
     0
 49
-1.8
 74
     0
  0
LTYPE
  5
5182
330
5
100
AcDbSymbolTableRecord
100
AcDbLinetypeTableRecord
  2
切断線
 70
     0
  3
/\/-/\/-/\/-/\/-/\/-/\/
 72
    65
 73
     2
 40
11.0001
 49
0.0001
 74
     4
 75
   135
340
56
 46
0.04
 50
0.0
 44
0.0
 45
0.0
 49
-11.0
 74
     0
  0
LTYPE
  5
5183
330
5
100
AcDbSymbolTableRecord
100
AcDbLinetypeTableRecord
  2
想像線1
 70
     0
  3
__ __ __ _____ __ __ ____
 72
    65
 73
     6
 40
14.5
 49
6.0
 74
     0
 49
-1.5
 74
     0
 49
2.0
 74
     0
 49
-1.5
 74
     0
 49
2.0
 74
     0
 49
-1.5
 74
     0
  0
LTYPE
  5
5185
330
5
100
AcDbSymbolTableRecord
100
AcDbLinetypeTableRecord
  2
中心線1
 70
     0
  3
___ _ ___ _ ___
 72
    65
 73
     4
 40
18.0
 49
12.0
 74
     0
 49
-2.0
 74
     0
 49
2.0
 74
     0
 49
-2.0
 74
     0
  0
LTYPE
  5
5188
330
5
100
AcDbSymbolTableRecord
100
AcDbLinetypeTableRecord
  2
補助線
 70
     0
  3
______________
 72
    65
 73
     2
 40
2.0
 49
1.0
 74
     0
 49
1.0
 74
     0
  0
LTYPE
  5
6427
330
5
100
AcDbSymbolTableRecord
100
AcDbLinetypeTableRecord
  2
HIDDEN
 70
     0
  3
Hidden __ __ __ __ __ __ __ __ __ __ __ __ __ _
 72
    65
 73
     2
 40
0.375
 49
0.25
 74
     0
 49
-0.125
 74
     0
  0
LTYPE
  5
AF95
330
5
100
AcDbSymbolTableRecord
100
AcDbLinetypeTableRecord
  2
AM_ISO08W050
 70
     0
  3
____ . ____ . ____ . ____ . ____ . ____ . ____
 72
    65
 73
     4
 40
18.0
 49
12.0
 74
     0
 49
-1.5
 74
     0
 49
3.0
 74
     0
 49
-1.5
 74
     0
  0
LTYPE
  5
FD15
330
5
100
AcDbSymbolTableRecord
100
AcDbLinetypeTableRecord
  2
ACANSTGB
 70
     0
  3
__ . . __ . .
 72
    65
 73
     6
 40
0.35433070866
 49
0.15748031496
 74
     0
 49
-0.03937007874
 74
     0
 49
0.03937007874
 74
     0
 49
-0.03937007874
 74
     0
 49
0.03937007874
 74
     0
 49
-0.03937007874
 74
     0
  0
LTYPE
  5
FD16
330
5
100
AcDbSymbolTableRecord
100
AcDbLinetypeTableRecord
  2
ACANSTGL
 70
     0
  3
_ _ _ _ _
 72
    65
 73
     2
 40
0.11811023622
 49
0.07874015748
 74
     0
 49
-0.03937007874
 74
     0
  0
ENDTAB
  0
TABLE
  2
LAYER
  5
2
102
{ACAD_XDICTIONARY
360
3F95
102
}
330
0
100
AcDbSymbolTable
 70
    22
  0
LAYER
  5
10
330
2
100
AcDbSymbolTableRecord
100
AcDbLayerTableRecord
  2
0
 70
     0
 62
     7
  6
Continuous
370
    -3
390
F
  0
LAYER
  5
6D1
330
2
100
AcDbSymbolTableRecord
100
AcDbLayerTableRecord
  2
Defpoints
 70
     0
 62
     7
  6
Continuous
290
     0
370
    -3
390
F
  0
LAYER
  5
AC9F
330
2
100
AcDbSymbolTableRecord
100
AcDbLayerTableRecord
  2
size
 70
     0
 62
     5
  6
Continuous
290
     0
370
    25
390
F
  0
LAYER
  5
ACA0
330
2
100
AcDbSymbolTableRecord
100
AcDbLayerTableRecord
  2
waku
 70
     0
 62
     7
  6
Continuous
370
    35
390
F
  0
LAYER
  5
ACA1
330
2
100
AcDbSymbolTableRecord
100
AcDbLayerTableRecord
  2
AM_6
 70
     0
 62
     2
  6
文字
370
    15
390
F
1001
AcAecLayerStandard
1000

1000

  0
LAYER
  5
AD64
330
2
100
AcDbSymbolTableRecord
100
AcDbLayerTableRecord
  2
AM_2
 70
     0
 62
     1
  6
細線
370
    15
390
F
1001
AcAecLayerStandard
1000

1000

  0
LAYER
  5
AD68
330
2
100
AcDbSymbolTableRecord
100
AcDbLayerTableRecord
  2
AM_5
 70
     0
 62
     3
  6
寸法線
370
    15
390
F
1001
AcAecLayerStandard
1000

1000

  0
LAYER
  5
B5F9
330
2
100
AcDbSymbolTableRecord
100
AcDbLayerTableRecord
  2
0部品10
 70
     0
 62
   131
  6
Continuous
370
    30
390
F
1001
AcAecLayerStandard
1000

1000

  0
LAYER
  5
B5FB
330
2
100
AcDbSymbolTableRecord
100
AcDbLayerTableRecord
  2
0部品18
 70
     0
 62
   254
  6
細線
370
    30
390
F
1001
AcAecLayerStandard
1000

1000

  0
LAYER
  5
5B453
330
2
100
AcDbSymbolTableRecord
100
AcDbLayerTableRecord
  2
AM_0
 70
     0
 62
     7
  6
中線
370
    25
390
F
1001
AcAecLayerStandard
1000

1000

  0
LAYER
  5
5B454
330
2
100
AcDbSymbolTableRecord
100
AcDbLayerTableRecord
  2
AM_7
 70
     0
 62
     4
  6
中心線1
370
    15
390
F
1001
AcAecLayerStandard
1000

1000

  0
LAYER
  5
5B455
102
{ACAD_XDICTIONARY
360
5B456
102
}
330
2
100
AcDbSymbolTableRecord
100
AcDbLayerTableRecord
  2
AM_3
 70
     0
 62
     6
  6
陰線1
370
    15
390
F
1001
AcAecLayerStandard
1000

1000

  0
ENDTAB
  0
TABLE
  2
STYLE
  5
3
330
0
100
AcDbSymbolTable
 70
     7
  0
STYLE
  5
11
330
3
100
AcDbSymbolTableRecord
100
AcDbTextStyleTableRecord
  2
STANDARD
 70
     0
 40
0.0
 41
0.7
 50
0.0
 71
     0
 42
3.2
  3
romans.shx
  4
extfont.shx
  0
STYLE
  5
56
330
3
100
AcDbSymbolTableRecord
100
AcDbTextStyleTableRecord
  2

 70
     1
 40
0.0
 41
1.0
 50
0.0
 71
     0
 42
2.5
  3
ltypeshp.shx
  4

  0
STYLE
  5
58
330
3
100
AcDbSymbolTableRecord
100
AcDbTextStyleTableRecord
  2
ACISOTS
 70
     0
 40
1.0
 41
1.0
 50
0.0
 71
     0
 42
2.5
  3
isocp.shx
  4
extfont.shx
  0
STYLE
  5
63
330
3
100
AcDbSymbolTableRecord
100
AcDbTextStyleTableRecord
  2
ACISOGDT
 70
     0
 40
0.0
 41
1.0
 50
0.0
 71
     0
 42
2.5
  3
amgdt.shx
  4

  0
STYLE
  5
A74
330
3
100
AcDbSymbolTableRecord
100
AcDbTextStyleTableRecord
  2
DIM
 70
     0
 40
0.0
 41
1.0
 50
0.0
 71
     0
 42
2.5
  3
monotxt.shx
  4
extfont.shx
  0
STYLE
  5
FD18
330
3
100
AcDbSymbolTableRecord
100
AcDbTextStyleTableRecord
  2
ACANSTS
 70
     0
 40
1.0
 41
1.0
 50
0.0
 71
     0
 42
0.2
  3
romans.shx
  4
extfont.shx
  0
STYLE
  5
FD19
330
3
100
AcDbSymbolTableRecord
100
AcDbTextStyleTableRecord
  2
ACANSGDT
 70
     0
 40
0.0
 41
1.0
 50
0.0
 71
     0
 42
0.2
  3
amgdt.shx
  4

  0
ENDTAB
  0
TABLE
  2
VIEW
  5
6
330
0
100
AcDbSymbolTable
 70
     6
  0
VIEW
  5
AE1
330
6
100
AcDbSymbolTableRecord
100
AcDbViewTableRecord
  2
AM_VIEW1
 70
     0
 40
2203.896457765668
 10
5264.599158088851
 20
3198.765197920841
 41
2970.0
 11
0.0
 21
0.0
 31
1.0
 12
0.0
 22
0.0
 32
0.0
 42
50.0
 43
-1370.695619172058
 44
-1370.695619172058
 50
0.0
 71
     0
281
     0
 72
     0
  0
VIEW
  5
AE2
330
6
100
AcDbSymbolTableRecord
100
AcDbViewTableRecord
  2
AM_VIEW2
 70
     0
 40
2203.896457765668
 10
8234.599158088851
 20
3198.765197920841
 41
2970.0
 11
0.0
 21
0.0
 31
1.0
 12
0.0
 22
0.0
 32
0.0
 42
50.0
 43
-1370.695619172058
 44
-1370.695619172058
 50
0.0
 71
     0
281
     0
 72
     0
  0
VIEW
  5
AE3
330
6
100
AcDbSymbolTableRecord
100
AcDbViewTableRecord
  2
AM_VIEW3
 70
     0
 40
2203.896457765668
 10
5264.599158088851
 20
1202.661655686509
 41
2970.0
 11
0.0
 21
0.0
 31
1.0
 12
0.0
 22
0.0
 32
0.0
 42
50.0
 43
-1370.695619172058
 44
-1370.695619172058
 50
0.0
 71
     0
281
     0
 72
     0
  0
VIEW
  5
AE4
330
6
100
AcDbSymbolTableRecord
100
AcDbViewTableRecord
  2
AM_VIEW4
 70
     0
 40
2203.896457765668
 10
8234.599158088851
 20
1202.661655686509
 41
2970.0
 11
0.0
 21
0.0
 31
1.0
 12
0.0
 22
0.0
 32
0.0
 42
50.0
 43
-1370.695619172058
 44
-1370.695619172058
 50
0.0
 71
     0
281
     0
 72
     0
  0
VIEW
  5
AE5
330
6
100
AcDbSymbolTableRecord
100
AcDbViewTableRecord
  2
AM_VIEW5
 70
     0
 40
2203.896457765668
 10
6749.599158088852
 20
2200.713426803675
 41
2970.0
 11
0.0
 21
0.0
 31
1.0
 12
0.0
 22
0.0
 32
0.0
 42
50.0
 43
-1370.695619172058
 44
-1370.695619172058
 50
0.0
 71
     0
281
     0
 72
     0
  0
VIEW
  5
AE6
330
6
100
AcDbSymbolTableRecord
100
AcDbViewTableRecord
  2
AM_VIEW6
 70
     0
 40
4407.748837602181
 10
6749.599158088852
 20
2200.713426803675
 41
5939.9406
 11
0.0
 21
0.0
 31
1.0
 12
0.0
 22
0.0
 32
0.0
 42
50.0
 43
-1370.695619172058
 44
-1370.695619172058
 50
0.0
 71
     0
281
     0
 72
     0
  0
ENDTAB
  0
TABLE
  2
UCS
  5
7
330
0
100
AcDbSymbolTable
 70
     0
  0
ENDTAB
  0
TABLE
  2
APPID
  5
9
330
0
100
AcDbSymbolTable
 70
    67
  0
APPID
  5
12
330
9
100
AcDbSymbolTableRecord
100
AcDbRegAppTableRecord
  2
ACAD
 70
     0
  0
APPID
  5
30
330
9
100
AcDbSymbolTableRecord
100
AcDbRegAppTableRecord
  2
MCAD_NO_VIS
 70
     0
  0
APPID
  5
31
330
9
100
AcDbSymbolTableRecord
100
AcDbRegAppTableRecord
  2
ACAD_TEMP_GRAPHIC
 70
     0
  0
APPID
  5
44
330
9
100
AcDbSymbolTableRecord
100
AcDbRegAppTableRecord
  2
ACATTRIBSERVICES
 70
     0
  0
APPID
  5
7A1
330
9
100
AcDbSymbolTableRecord
100
AcDbRegAppTableRecord
  2
GENIUS_GENDIMSH_14
 70
     0
  0
APPID
  5
A49
330
9
100
AcDbSymbolTableRecord
100
AcDbRegAppTableRecord
  2
GENIUS_GENREC_14
 70
     0
  0
APPID
  5
A4A
330
9
100
AcDbSymbolTableRecord
100
AcDbRegAppTableRecord
  2
GENIUS_GENOBJ-N-REC_13
 70
     0
  0
APPID
  5
A4B
330
9
100
AcDbSymbolTableRecord
100
AcDbRegAppTableRecord
  2
GENIUS_GENODEF_13
 70
     0
  0
APPID
  5
A4C
330
9
100
AcDbSymbolTableRecord
100
AcDbRegAppTableRecord
  2
DCO15
 70
     0
  0
APPID
  5
ADC
330
9
100
AcDbSymbolTableRecord
100
AcDbRegAppTableRecord
  2
GENIUS_GENOLIS_13
 70
     0
  0
APPID
  5
ADD
330
9
100
AcDbSymbolTableRecord
100
AcDbRegAppTableRecord
  2
GENIUS_GENOENT_13
 70
     0
  0
APPID
  5
ADE
330
9
100
AcDbSymbolTableRecord
100
AcDbRegAppTableRecord
  2
GENIUS_GENOBJ-N-TIT_13
 70
     0
  0
APPID
  5
ADF
330
9
100
AcDbSymbolTableRecord
100
AcDbRegAppTableRecord
  2
GENIUS_GENTITLE_13
 70
     0
  0
APPID
  5
AE0
330
9
100
AcDbSymbolTableRecord
100
AcDbRegAppTableRecord
  2
GENIUS_GENOREF_13
 70
     0
  0
APPID
  5
AE7
330
9
100
AcDbSymbolTableRecord
100
AcDbRegAppTableRecord
  2
GENIUS_GENSCREG_15
 70
     0
  0
APPID
  5
AE8
330
9
100
AcDbSymbolTableRecord
100
AcDbRegAppTableRecord
  2
GENIUS_GENOBJ-N-SDF_13
 70
     0
  0
APPID
  5
FAF
330
9
100
AcDbSymbolTableRecord
100
AcDbRegAppTableRecord
  2
GENIUS_GENBLLY_14
 70
     0
  0
APPID
  5
FB0
330
9
100
AcDbSymbolTableRecord
100
AcDbRegAppTableRecord
  2
GENIUS_GENTRA_14
 70
     0
  0
APPID
  5
1285
330
9
100
AcDbSymbolTableRecord
100
AcDbRegAppTableRecord
  2
GENIUS_GENDTOL_13
 70
     0
  0
APPID
  5
142D
330
9
100
AcDbSymbolTableRecord
100
AcDbRegAppTableRecord
  2
GENIUS_GENOBJ-N-CEN_13
 70
     0
  0
APPID
  5
1AB5
330
9
100
AcDbSymbolTableRecord
100
AcDbRegAppTableRecord
  2
GENIUS_GENOBJ-N-CRS_13
 70
     0
  0
APPID
  5
1B36
330
9
100
AcDbSymbolTableRecord
100
AcDbRegAppTableRecord
  2
GENIUS_GENOBJ-N-HTC_13
 70
     0
  0
APPID
  5
1B37
330
9
100
AcDbSymbolTableRecord
100
AcDbRegAppTableRecord
  2
GENIUS_GENHATCH_13
 70
     0
  0
APPID
  5
216D
330
9
100
AcDbSymbolTableRecord
100
AcDbRegAppTableRecord
  2
GENIUS_GENOBJ-N-FIL_13
 70
     0
  0
APPID
  5
2356
330
9
100
AcDbSymbolTableRecord
100
AcDbRegAppTableRecord
  2
GEVID990412420
 70
     0
  0
APPID
  5
2357
330
9
100
AcDbSymbolTableRecord
100
AcDbRegAppTableRecord
  2
GEVDC
 70
     0
  0
APPID
  5
2358
330
9
100
AcDbSymbolTableRecord
100
AcDbRegAppTableRecord
  2
GEVCON
 70
     0
  0
APPID
  5
235B
330
9
100
AcDbSymbolTableRecord
100
AcDbRegAppTableRecord
  2
GEVRADREF
 70
     0
  0
APPID
  5
2360
330
9
100
AcDbSymbolTableRecord
100
AcDbRegAppTableRecord
  2
GENIUS_GENBH_13
 70
     0
  0
APPID
  5
2362
330
9
100
AcDbSymbolTableRecord
100
AcDbRegAppTableRecord
  2
GENIUS_GENOBJ-NBEHI-BHF_13
 70
     0
  0
APPID
  5
2364
330
9
100
AcDbSymbolTableRecord
100
AcDbRegAppTableRecord
  2
GENIUS_GENOBJ-NBEHI-BHB_13
 70
     0
  0
APPID
  5
2379
330
9
100
AcDbSymbolTableRecord
100
AcDbRegAppTableRecord
  2
GENIUS_GENOBJ-F-SCPASSM_13
 70
     0
  0
APPID
  5
3D74
330
9
100
AcDbSymbolTableRecord
100
AcDbRegAppTableRecord
  2
GENIUS_GENDIM_13
 70
     0
  0
APPID
  5
3D76
330
9
100
AcDbSymbolTableRecord
100
AcDbRegAppTableRecord
  2
GENIUS_GE3DTOL_13
 70
     0
  0
APPID
  5
3D9C
330
9
100
AcDbSymbolTableRecord
100
AcDbRegAppTableRecord
  2
AD_DRAW
 70
     0
  0
APPID
  5
3DE8
330
9
100
AcDbSymbolTableRecord
100
AcDbRegAppTableRecord
  2
ASURF_PCURVE_APPNAME
 70
     0
  0
APPID
  5
3DED
330
9
100
AcDbSymbolTableRecord
100
AcDbRegAppTableRecord
  2
AMG_3D2D_5.0
 70
     0
  0
APPID
  5
3E1B
330
9
100
AcDbSymbolTableRecord
100
AcDbRegAppTableRecord
  2
DESIGNERASSEMBLIES
 70
     0
  0
APPID
  5
3E20
330
9
100
AcDbSymbolTableRecord
100
AcDbRegAppTableRecord
  2
ACADM_DIM_EDIT
 70
     0
  0
APPID
  5
3E21
330
9
100
AcDbSymbolTableRecord
100
AcDbRegAppTableRecord
  2
AMDT_DM_ADJ
 70
     0
  0
APPID
  5
4143
330
9
100
AcDbSymbolTableRecord
100
AcDbRegAppTableRecord
  2
GENIUS_GENFIL_13
 70
     0
  0
APPID
  5
4144
330
9
100
AcDbSymbolTableRecord
100
AcDbRegAppTableRecord
  2
GENIUS_GENOBJ-N-CHA_13
 70
     0
  0
APPID
  5
4E17
330
9
100
AcDbSymbolTableRecord
100
AcDbRegAppTableRecord
  2
GEVID1008153417
 70
     0
  0
APPID
  5
4E58
330
9
100
AcDbSymbolTableRecord
100
AcDbRegAppTableRecord
  2
GEVID1008153418
 70
     0
  0
APPID
  5
4E5E
330
9
100
AcDbSymbolTableRecord
100
AcDbRegAppTableRecord
  2
GEVID1008153419
 70
     0
  0
APPID
  5
4E64
330
9
100
AcDbSymbolTableRecord
100
AcDbRegAppTableRecord
  2
GEVID1008153420
 70
     0
  0
APPID
  5
4E75
330
9
100
AcDbSymbolTableRecord
100
AcDbRegAppTableRecord
  2
GEVID1008153421
 70
     0
  0
APPID
  5
4EB7
330
9
100
AcDbSymbolTableRecord
100
AcDbRegAppTableRecord
  2
GENIUS_AMGTXT_16
 70
     0
  0
APPID
  5
7645
330
9
100
AcDbSymbolTableRecord
100
AcDbRegAppTableRecord
  2
GENIUS_GENOBJ-N-DIM_13
 70
     0
  0
APPID
  5
AAD0
330
9
100
AcDbSymbolTableRecord
100
AcDbRegAppTableRecord
  2
ACAD_DSTYLE_DIMARC_LENGTH_SYMBOL
 70
     0
  0
APPID
  5
AAD1
330
9
100
AcDbSymbolTableRecord
100
AcDbRegAppTableRecord
  2
ACAD_DSTYLE_DIMJOGGED_JOGANGLE_SYMBOL
 70
     0
  0
APPID
  5
AAFD
330
9
100
AcDbSymbolTableRecord
100
AcDbRegAppTableRecord
  2
ACAD_PSEXT
 70
     0
  0
APPID
  5
AD61
330
9
100
AcDbSymbolTableRecord
100
AcDbRegAppTableRecord
  2
AcAecLayerStandard
 70
     0
  0
APPID
  5
AEE3
330
9
100
AcDbSymbolTableRecord
100
AcDbRegAppTableRecord
  2
ACAD_EXEMPT_FROM_CAD_STANDARDS
 70
     0
  0
APPID
  5
B1BE
330
9
100
AcDbSymbolTableRecord
100
AcDbRegAppTableRecord
  2
GENIUS_GENCEN_19
 70
     0
  0
APPID
  5
B4E1
330
9
100
AcDbSymbolTableRecord
100
AcDbRegAppTableRecord
  2
ACAD_MLEADERVER
 70
     0
  0
APPID
  5
C488
330
9
100
AcDbSymbolTableRecord
100
AcDbRegAppTableRecord
  2
ACAD_DSTYLE_DIMINSPECT
 70
     0
  0
APPID
  5
C489
330
9
100
AcDbSymbolTableRecord
100
AcDbRegAppTableRecord
  2
ACAD_DSTYLE_DIMRADIAL_EXTENSION
 70
     0
  0
APPID
  5
1980E
330
9
100
AcDbSymbolTableRecord
100
AcDbRegAppTableRecord
  2
GEVID1311583542
 70
     0
  0
APPID
  5
19825
330
9
100
AcDbSymbolTableRecord
100
AcDbRegAppTableRecord
  2
AMG_2DHIDE
 70
     0
  0
APPID
  5
19826
330
9
100
AcDbSymbolTableRecord
100
AcDbRegAppTableRecord
  2
AMG_2DSTRUCT_BTR
 70
     0
  0
APPID
  5
19837
330
9
100
AcDbSymbolTableRecord
100
AcDbRegAppTableRecord
  2
ACADM_2DVIEW_IGN_NOTIFY
 70
     0
  0
APPID
  5
1B56B
330
9
100
AcDbSymbolTableRecord
100
AcDbRegAppTableRecord
  2
GEVID1311583543
 70
     0
  0
APPID
  5
1B5F6
330
9
100
AcDbSymbolTableRecord
100
AcDbRegAppTableRecord
  2
GEVID1311583544
 70
     0
  0
APPID
  5
1B61B
330
9
100
AcDbSymbolTableRecord
100
AcDbRegAppTableRecord
  2
GEVID1311583545
 70
     0
  0
APPID
  5
1B63D
330
9
100
AcDbSymbolTableRecord
100
AcDbRegAppTableRecord
  2
GEVID1311583546
 70
     0
  0
APPID
  5
1B675
330
9
100
AcDbSymbolTableRecord
100
AcDbRegAppTableRecord
  2
GEVID1311583547
 70
     0
  0
ENDTAB
  0
TABLE
  2
DIMSTYLE
  5
A
330
0
100
AcDbSymbolTable
 70
    26
100
AcDbDimStyleTable
 71
     3
340
2515
340
251A
340
251B
  0
DIMSTYLE
105
A76
330
A
100
AcDbSymbolTableRecord
100
AcDbDimStyleTableRecord
  2
STANDARD
 70
     0
 41
3.0
 42
1.0
 43
7.0
 44
2.0
 73
     0
 74
     0
 77
     1
140
2.799999999999999
141
0.0
143
0.0394
147
0.7
171
     4
172
     1
173
     1
176
     3
177
     3
178
     2
271
     3
272
     3
273
     8
274
     4
289
     0
340
A74
341
A66
343
A66
344
A66
  0
DIMSTYLE
105
2515
330
A
100
AcDbSymbolTableRecord
100
AcDbDimStyleTableRecord
  2
SYS
 70
     0
  4
"
 41
1.0
 42
1.0
 43
10.0
 44
1.0
 47
0.1
 48
0.1
 73
     0
 74
     0
 77
     1
 78
     8
 79
     2
140
3.5
141
0.0
143
0.0393701
146
0.71
147
1.5
172
     1
176
   256
177
   256
178
     7
271
     2
272
     2
283
     0
284
     8
340
11
371
    -1
372
    -1
1001
ACAD_DSTYLE_DIMJOGGED_JOGANGLE_SYMBOL
1070
   384
1040
0.7853981633974483
1001
ACAD_DSTYLE_DIMARC_LENGTH_SYMBOL
1070
   379
1070
     1
  0
DIMSTYLE
105
2516
102
{ACAD_REACTORS
330
5543E
330
5B31B
102
}
330
A
100
AcDbSymbolTableRecord
100
AcDbDimStyleTableRecord
  2
SYS$3
 70
     0
  4
"
 41
2.0
 42
1.0
 43
10.0
 44
1.0
 47
0.1
 48
0.1
 73
     0
 77
     1
 78
     8
 79
     2
140
3.2
141
0.0
143
0.0393701
146
0.71
147
1.0
176
   256
177
   256
178
     2
271
     2
272
     2
283
     0
284
     8
288
     1
340
11
342
A66
371
    -1
372
    -1
1001
ACAD_DSTYLE_DIMJOGGED_JOGANGLE_SYMBOL
1070
   384
1040
0.7853981633974483
1001
ACAD_DSTYLE_DIMARC_LENGTH_SYMBOL
1070
   379
1070
     1
  0
DIMSTYLE
105
2517
330
A
100
AcDbSymbolTableRecord
100
AcDbDimStyleTableRecord
  2
SYS$4
 70
     0
  4
"
 41
2.0
 42
1.0
 43
10.0
 44
1.0
 47
0.1
 48
0.1
 73
     0
 77
     1
 78
     8
 79
     2
140
3.2
141
0.0
143
0.0393701
146
0.71
147
1.0
173
     1
176
   256
177
   256
178
     2
271
     2
272
     2
283
     0
284
     8
288
     1
340
11
344
A66
371
    -1
372
    -1
1001
ACAD_DSTYLE_DIMJOGGED_JOGANGLE_SYMBOL
1070
   384
1040
0.7853981633974483
1001
ACAD_DSTYLE_DIMARC_LENGTH_SYMBOL
1070
   379
1070
     1
  0
DIMSTYLE
105
2518
330
A
100
AcDbSymbolTableRecord
100
AcDbDimStyleTableRecord
  2
SYS$6
 70
     0
  4
"
 41
2.0
 42
1.0
 43
10.0
 44
1.0
 47
0.1
 48
0.1
 73
     0
 74
     0
 78
     8
 79
     2
140
3.2
141
0.0
143
0.0393701
146
0.71
147
1.0
172
     1
176
   256
177
   256
178
     2
271
     2
272
     2
283
     0
284
     8
340
11
341
A66
371
    -1
372
    -1
1001
ACAD_DSTYLE_DIMJOGGED_JOGANGLE_SYMBOL
1070
   384
1040
0.7853981633974483
1001
ACAD_DSTYLE_DIMARC_LENGTH_SYMBOL
1070
   379
1070
     1
  0
DIMSTYLE
105
2519
330
A
100
AcDbSymbolTableRecord
100
AcDbDimStyleTableRecord
  2
SYS$7
 70
     0
  4
"
 41
2.0
 42
1.0
 43
10.0
 44
1.0
 47
0.1
 48
0.1
 73
     0
 74
     0
 77
     1
 78
     8
 79
     2
140
3.2
141
0.0
143
0.0393701
146
0.71
147
1.0
172
     1
176
   256
177
   256
178
     2
271
     2
272
     2
283
     0
284
     8
340
11
341
A66
342
A66
371
    -1
372
    -1
1001
ACAD_DSTYLE_DIMJOGGED_JOGANGLE_SYMBOL
1070
   384
1040
0.7853981633974483
1001
ACAD_DSTYLE_DIMARC_LENGTH_SYMBOL
1070
   379
1070
     1
  0
DIMSTYLE
105
251A
330
A
100
AcDbSymbolTableRecord
100
AcDbDimStyleTableRecord
  2
SYS$SF
 70
     0
  4
"
 41
2.5
 42
1.0
 43
10.0
 44
1.0
 47
0.1
 48
0.1
 73
     0
 74
     0
 75
     1
 76
     1
 77
     1
 78
     8
 79
     2
140
3.2
141
0.0
143
0.0393701
146
0.71
147
1.0
172
     1
176
   256
177
   256
178
     2
271
     2
272
     2
283
     0
284
     8
340
11
341
6C4
342
6C4
371
    -1
372
    -1
1001
ACAD_DSTYLE_DIMJOGGED_JOGANGLE_SYMBOL
1070
   384
1040
0.7853981633974483
1001
ACAD_DSTYLE_DIMARC_LENGTH_SYMBOL
1070
   379
1070
     1
  0
DIMSTYLE
105
251B
330
A
100
AcDbSymbolTableRecord
100
AcDbDimStyleTableRecord
  2
SYS$SH
 70
     0
  4
"
 41
2.5
 42
1.0
 43
10.0
 44
1.0
 47
0.1
 48
0.1
 73
     0
 74
     0
 75
     1
 76
     1
 77
     1
 78
     8
 79
     2
140
3.2
141
0.0
143
0.0393701
144
2.0
146
0.71
147
1.0
172
     1
173
     1
176
   256
177
   256
178
     2
271
     2
272
     2
283
     0
284
     8
340
11
341
6C4
343
72
344
6C4
371
    -1
372
    -1
1001
ACAD_DSTYLE_DIMJOGGED_JOGANGLE_SYMBOL
1070
   384
1040
0.7853981633974483
1001
ACAD_DSTYLE_DIMARC_LENGTH_SYMBOL
1070
   379
1070
     1
  0
DIMSTYLE
105
2A59
330
A
100
AcDbSymbolTableRecord
100
AcDbDimStyleTableRecord
  2
SYS$2
 70
     0
  4
"
 41
1.0
 42
1.0
 43
10.0
 44
1.0
 47
0.1
 48
0.1
 73
     0
 74
     0
 77
     1
 78
     8
 79
     2
140
3.2
141
0.0
143
0.0393701
146
0.71
147
1.0
172
     1
176
   256
177
   256
178
     2
271
     2
272
     2
283
     0
284
     8
340
11
342
6C4
371
    -1
372
    -1
1001
ACAD_DSTYLE_DIMJOGGED_JOGANGLE_SYMBOL
1070
   384
1040
0.7853981633974483
1001
ACAD_DSTYLE_DIMARC_LENGTH_SYMBOL
1070
   379
1070
     1
  0
DIMSTYLE
105
2AAB
102
{ACAD_REACTORS
330
4F890
330
4F8C9
330
4F934
330
4F953
330
4F98C
330
4F9A2
330
4F9CC
330
4FA00
330
4FA25
330
4FA5F
330
4FA84
330
4FA9A
330
4FAB0
330
4FAF1
330
4FB6E
102
}
330
A
100
AcDbSymbolTableRecord
100
AcDbDimStyleTableRecord
  2
SYS$0
 70
     0
  4
"
 41
1.0
 42
1.0
 43
10.0
 44
1.0
 47
0.1
 48
0.1
 73
     0
 74
     0
 77
     1
 78
     8
 79
     2
140
3.200000000000001
141
0.0
143
0.0393701
146
0.71
147
1.0
172
     1
176
   256
177
   256
178
     2
271
     2
272
     2
283
     0
284
     8
340
11
341
A66
342
6C4
371
    -1
372
    -1
1001
ACAD_DSTYLE_DIMJOGGED_JOGANGLE_SYMBOL
1070
   384
1040
0.7853981633974483
1001
ACAD_DSTYLE_DIMARC_LENGTH_SYMBOL
1070
   379
1070
     1
  0
DIMSTYLE
105
AF99
330
A
100
AcDbSymbolTableRecord
100
AcDbDimStyleTableRecord
  2
AM_ISO
 70
     0
  4
"
 41
2.5
 42
1.0
 43
10.0
 44
1.0
 47
0.1
 48
0.1
 73
     0
 74
     0
 77
     1
 78
     8
 79
     2
140
3.5
141
0.0
143
0.0393701
146
0.71
147
1.5
172
     1
176
   256
177
   256
178
     2
271
     2
272
     3
274
     4
283
     0
284
     8
340
11
371
    -1
372
    -1
  0
DIMSTYLE
105
AF9A
330
A
100
AcDbSymbolTableRecord
100
AcDbDimStyleTableRecord
  2
AM_ISO$3
 70
     0
  4
"
 41
2.5
 42
1.0
 43
10.0
 44
1.0
 47
0.1
 48
0.1
 73
     0
 77
     1
 78
     8
 79
     2
140
3.5
141
0.0
143
0.0393701
146
0.71
147
1.5
176
   256
177
   256
178
     2
271
     2
272
     3
274
     4
283
     0
284
     8
288
     1
289
     0
340
11
371
    -1
372
    -1
  0
DIMSTYLE
105
AF9B
330
A
100
AcDbSymbolTableRecord
100
AcDbDimStyleTableRecord
  2
AM_ISO$4
 70
     0
  4
"
 41
2.5
 42
1.0
 43
10.0
 44
1.0
 47
0.1
 48
0.1
 73
     0
 77
     1
 78
     8
 79
     2
140
3.5
141
0.0
143
0.0393701
146
0.71
147
1.5
176
   256
177
   256
178
     2
271
     2
272
     3
274
     4
283
     0
284
     8
288
     1
289
     0
340
11
371
    -1
372
    -1
  0
DIMSTYLE
105
AF9C
330
A
100
AcDbSymbolTableRecord
100
AcDbDimStyleTableRecord
  2
AM_ISO$6
 70
     0
  4
"
 41
2.5
 42
1.0
 43
10.0
 44
1.0
 47
0.1
 48
0.1
 73
     0
 74
     0
 78
     8
 79
     2
140
3.5
141
0.0
143
0.0393701
146
0.71
147
1.5
172
     1
176
   256
177
   256
178
     2
271
     2
272
     3
274
     4
283
     0
284
     8
340
11
371
    -1
372
    -1
  0
DIMSTYLE
105
AF9D
330
A
100
AcDbSymbolTableRecord
100
AcDbDimStyleTableRecord
  2
AM_ISO$7
 70
     0
  4
"
 41
2.5
 42
1.0
 43
10.0
 44
1.0
 47
0.1
 48
0.1
 73
     0
 74
     0
 77
     1
 78
     8
 79
     2
140
5.0
141
0.0
143
0.0393701
146
0.71
147
1.5
172
     1
176
   256
177
   256
178
     2
271
     2
272
     3
274
     4
283
     0
284
     8
340
11
371
    -1
372
    -1
  0
DIMSTYLE
105
AF9E
330
A
100
AcDbSymbolTableRecord
100
AcDbDimStyleTableRecord
  2
AM_ISO$SF
 70
     0
  4
"
 41
2.5
 42
1.0
 43
10.0
 44
1.0
 47
0.1
 48
0.1
 73
     0
 74
     0
 75
     1
 76
     1
 77
     1
 78
     8
 79
     2
140
3.5
141
0.0
143
0.0393701
146
0.71
147
1.5
172
     1
176
   256
177
   256
178
     2
271
     2
272
     3
274
     4
283
     0
284
     8
340
11
371
    -1
372
    -1
  0
DIMSTYLE
105
AF9F
330
A
100
AcDbSymbolTableRecord
100
AcDbDimStyleTableRecord
  2
AM_ISO$SH
 70
     0
  4
"
 41
2.5
 42
1.0
 43
10.0
 44
1.0
 47
0.1
 48
0.1
 73
     0
 74
     0
 75
     1
 76
     1
 77
     1
 78
     8
 79
     2
140
3.5
141
0.0
143
0.0393701
144
2.0
146
0.71
147
1.5
172
     1
173
     1
176
   256
177
   256
178
     2
271
     2
272
     3
274
     4
283
     0
284
     8
340
11
343
72
371
    -1
372
    -1
  0
DIMSTYLE
105
B60C
330
A
100
AcDbSymbolTableRecord
100
AcDbDimStyleTableRecord
  2
AM_ANSI
 70
     0
  4
mm
 41
0.1
 42
0.05
 43
0.5
 44
0.1
 47
0.1
 48
0.1
 78
     7
 79
     2
140
0.12
141
0.0
146
0.71
147
0.06
176
   256
177
   256
178
     2
274
     4
284
     7
340
11
371
    -1
372
    -1
  0
DIMSTYLE
105
C485
330
A
100
AcDbSymbolTableRecord
100
AcDbDimStyleTableRecord
  2
AM_ISO$0
 70
     0
  4
"
 41
0.8
 42
1.0
 43
10.0
 44
1.0
 47
0.1
 48
0.1
 73
     0
 74
     0
 77
     1
 78
     8
 79
     2
140
3.2
141
0.0
143
0.0393701
146
0.71
147
0.9999999999999996
172
     1
176
   256
177
   256
178
     2
271
     2
272
     2
283
     0
284
     8
340
11
341
6C4
342
6C4
371
    -1
372
    -1
1001
ACAD_DSTYLE_DIMJOGGED_JOGANGLE_SYMBOL
1070
   384
1040
0.7853981633974483
1001
ACAD_DSTYLE_DIMARC_LENGTH_SYMBOL
1070
   379
1070
     1
  0
DIMSTYLE
105
C486
330
A
100
AcDbSymbolTableRecord
100
AcDbDimStyleTableRecord
  2
AM_ISO$2
 70
     0
  4
"
 41
0.8
 42
1.0
 43
10.0
 44
1.0
 47
0.1
 48
0.1
 73
     0
 74
     0
 77
     3
 78
     8
 79
     2
140
3.200000000000001
141
0.0
143
0.0393701
146
0.71
147
0.9999999999999996
172
     1
176
   256
177
   256
178
     2
271
     2
272
     2
283
     0
284
     8
340
11
342
6C4
371
    -1
372
    -1
1001
ACAD_DSTYLE_DIMJOGGED_JOGANGLE_SYMBOL
1070
   384
1040
0.7853981633974483
1001
ACAD_DSTYLE_DIMARC_LENGTH_SYMBOL
1070
   379
1070
     1
  0
DIMSTYLE
105
FD1A
330
A
100
AcDbSymbolTableRecord
100
AcDbDimStyleTableRecord
  2
AM_ANSI$3
 70
     0
  4
mm
 41
0.1
 42
0.05
 43
0.5
 44
0.1
 47
0.1
 48
0.1
 78
     7
 79
     2
140
0.12
141
0.0
146
0.71
147
0.06
176
   256
177
   256
178
     2
274
     4
284
     7
288
     1
289
     0
340
11
371
    -1
372
    -1
1001
ACAD_DSTYLE_DIMARC_LENGTH_SYMBOL
1070
   379
1070
     1
  0
DIMSTYLE
105
FD1B
330
A
100
AcDbSymbolTableRecord
100
AcDbDimStyleTableRecord
  2
AM_ANSI$4
 70
     0
  4
mm
 41
0.1
 42
0.05
 43
0.5
 44
0.1
 47
0.1
 48
0.1
 78
     7
 79
     2
140
0.12
141
0.0
146
0.71
147
0.06
176
   256
177
   256
178
     2
274
     4
284
     7
288
     1
289
     0
340
11
371
    -1
372
    -1
1001
ACAD_DSTYLE_DIMARC_LENGTH_SYMBOL
1070
   379
1070
     1
  0
DIMSTYLE
105
FD1C
330
A
100
AcDbSymbolTableRecord
100
AcDbDimStyleTableRecord
  2
AM_ANSI$7
 70
     0
  4
mm
 41
0.1
 42
0.05
 43
0.5
 44
0.1
 47
0.1
 48
0.1
 78
     7
 79
     2
140
0.24
141
0.0
146
0.71
147
0.06
176
   256
177
   256
178
     2
274
     4
284
     7
340
11
371
    -1
372
    -1
1001
ACAD_DSTYLE_DIMARC_LENGTH_SYMBOL
1070
   379
1070
     1
  0
DIMSTYLE
105
FD1D
330
A
100
AcDbSymbolTableRecord
100
AcDbDimStyleTableRecord
  2
AM_ANSI$SF
 70
     0
  4
mm
 41
0.1
 42
0.05
 43
0.5
 44
0.1
 47
0.1
 48
0.1
 75
     1
 76
     1
 78
     7
 79
     2
140
0.12
141
0.0
146
0.71
147
0.06
176
   256
177
   256
178
     2
274
     4
284
     7
340
11
371
    -1
372
    -1
1001
ACAD_DSTYLE_DIMARC_LENGTH_SYMBOL
1070
   379
1070
     1
  0
DIMSTYLE
105
FD1E
330
A
100
AcDbSymbolTableRecord
100
AcDbDimStyleTableRecord
  2
AM_ANSI$SH
 70
     0
  4
mm
 41
0.1
 42
0.05
 43
0.5
 44
0.1
 47
0.1
 48
0.1
 75
     1
 76
     1
 78
     7
 79
     2
140
0.12
141
0.0
146
0.71
147
0.06
173
     1
176
   256
177
   256
178
     2
274
     4
284
     7
340
11
343
72
371
    -1
372
    -1
1001
ACAD_DSTYLE_DIMARC_LENGTH_SYMBOL
1070
   379
1070
     1
  0
ENDTAB
  0
TABLE
  2
BLOCK_RECORD
  5
1
330
0
100
AcDbSymbolTable
 70
    56
  0
BLOCK_RECORD
  5
1F
102
{ACAD_XDICTIONARY
360
8A
102
}
330
1
100
AcDbSymbolTableRecord
100
AcDbBlockTableRecord
  2
*Model_Space
340
22
  0
BLOCK_RECORD
  5
1B
330
1
100
AcDbSymbolTableRecord
100
AcDbBlockTableRecord
  2
*Paper_Space
340
1E
  0
BLOCK_RECORD
  5
23
330
1
100
AcDbSymbolTableRecord
100
AcDbBlockTableRecord
  2
*Paper_Space0
340
26
  0
BLOCK_RECORD
  5
72
330
1
100
AcDbSymbolTableRecord
100
AcDbBlockTableRecord
  2
GENAXEH
340
0
  0
BLOCK_RECORD
  5
6C4
330
1
100
AcDbSymbolTableRecord
100
AcDbBlockTableRecord
  2
_Dot
340
0
102
{BLKREFS
331
52EA3
331
52EA4
331
52EBE
331
52EBF
331
52EC6
331
52EC7
331
52ECF
331
52ED0
331
52EDA
331
52EDB
331
52EEE
331
52EEF
331
52EF7
331
52EF8
331
52F00
331
52F01
331
52F09
331
52F0A
331
52F2D
331
52F2E
331
5548C
331
5548D
331
5B2E6
331
5B2E7
331
5B2F1
331
5B2F2
331
5B312
331
5B313
331
5B333
331
5B334
331
5B34E
331
5B34F
331
5B37E
331
5B37F
331
5B392
331
5B393
331
5B3A4
331
5B3A5
331
5B3B0
331
5B3B1
331
5B3BC
331
5B3BD
331
5B3C8
331
5B3C9
331
5B3D4
331
5B3D5
331
5B3E0
331
5B3E1
331
5B3EC
331
5B3ED
331
5B3F8
331
5B3F9
331
5B404
331
5B405
331
5B410
331
5B411
331
5B41E
331
5B41F
331
5B428
331
5B429
331
5B434
331
5B435
331
5B440
331
5B441
331
5B44E
331
5B44F
331
5B5A4
331
5B5A5
331
5B5AD
331
5B5AE
331
5B5B6
331
5B5B7
331
5B5BF
331
5B5C0
331
5B5C8
331
5B5C9
331
5B5D1
331
5B5D2
331
5B5DA
331
5B5DB
331
5B5E3
331
5B5E4
331
5B5EC
331
5B5ED
331
5B5F7
331
5B5F8
331
5B5FE
331
5B5FF
331
5B607
331
5B608
331
5B610
331
5B611
331
5B61B
331
5B61C
102
}
  0
BLOCK_RECORD
  5
A66
330
1
100
AcDbSymbolTableRecord
100
AcDbBlockTableRecord
  2
_OPEN30
340
0
  0
BLOCK_RECORD
  5
4F891
330
1
100
AcDbSymbolTableRecord
100
AcDbBlockTableRecord
  2
*D7
340
0
  0
BLOCK_RECORD
  5
4F8CA
330
1
100
AcDbSymbolTableRecord
100
AcDbBlockTableRecord
  2
*D8
340
0
  0
BLOCK_RECORD
  5
4F935
330
1
100
AcDbSymbolTableRecord
100
AcDbBlockTableRecord
  2
*D9
340
0
  0
BLOCK_RECORD
  5
4F954
330
1
100
AcDbSymbolTableRecord
100
AcDbBlockTableRecord
  2
*D10
340
0
  0
BLOCK_RECORD
  5
4F98D
330
1
100
AcDbSymbolTableRecord
100
AcDbBlockTableRecord
  2
*D11
340
0
  0
BLOCK_RECORD
  5
4F9A3
330
1
100
AcDbSymbolTableRecord
100
AcDbBlockTableRecord
  2
*D12
340
0
  0
BLOCK_RECORD
  5
4F9CD
330
1
100
AcDbSymbolTableRecord
100
AcDbBlockTableRecord
  2
*D13
340
0
  0
BLOCK_RECORD
  5
4FA01
330
1
100
AcDbSymbolTableRecord
100
AcDbBlockTableRecord
  2
*D14
340
0
  0
BLOCK_RECORD
  5
4FA26
330
1
100
AcDbSymbolTableRecord
100
AcDbBlockTableRecord
  2
*D15
340
0
  0
BLOCK_RECORD
  5
4FA60
330
1
100
AcDbSymbolTableRecord
100
AcDbBlockTableRecord
  2
*D16
340
0
  0
BLOCK_RECORD
  5
4FA85
330
1
100
AcDbSymbolTableRecord
100
AcDbBlockTableRecord
  2
*D17
340
0
  0
BLOCK_RECORD
  5
4FA9B
330
1
100
AcDbSymbolTableRecord
100
AcDbBlockTableRecord
  2
*D18
340
0
  0
BLOCK_RECORD
  5
4FAB1
330
1
100
AcDbSymbolTableRecord
100
AcDbBlockTableRecord
  2
*D19
340
0
  0
BLOCK_RECORD
  5
4FAF2
330
1
100
AcDbSymbolTableRecord
100
AcDbBlockTableRecord
  2
*D20
340
0
  0
BLOCK_RECORD
  5
4FB6F
330
1
100
AcDbSymbolTableRecord
100
AcDbBlockTableRecord
  2
*D21
340
0
  0
BLOCK_RECORD
  5
5543F
330
1
100
AcDbSymbolTableRecord
100
AcDbBlockTableRecord
  2
*D22
340
0
  0
BLOCK_RECORD
  5
5B31C
330
1
100
AcDbSymbolTableRecord
100
AcDbBlockTableRecord
  2
*D25
340
0
  0
ENDTAB
  0
ENDSEC
  0
SECTION
  2
BLOCKS
  0
BLOCK
  5
20
330
1F
100
AcDbEntity
  8
0
100
AcDbBlockBegin
  2
*Model_Space
 70
     0
 10
0.0
 20
0.0
 30
0.0
  3
*Model_Space
  1

  0
ENDBLK
  5
21
330
1F
100
AcDbEntity
  8
0
100
AcDbBlockEnd
  0
BLOCK
  5
1C
330
1B
100
AcDbEntity
 67
     1
  8
0
100
AcDbBlockBegin
  2
*Paper_Space
 70
     0
 10
0.0
 20
0.0
 30
0.0
  3
*Paper_Space
  1

  0
ENDBLK
  5
1D
330
1B
100
AcDbEntity
 67
     1
  8
0
100
AcDbBlockEnd
  0
BLOCK
  5
24
330
23
100
AcDbEntity
 67
     1
  8
0
100
AcDbBlockBegin
  2
*Paper_Space0
 70
     0
 10
0.0
 20
0.0
 30
0.0
  3
*Paper_Space0
  1

  0
ENDBLK
  5
25
330
23
100
AcDbEntity
 67
     1
  8
0
100
AcDbBlockEnd
  0
BLOCK
  5
74
330
72
100
AcDbEntity
  8
0
100
AcDbBlockBegin
  2
GENAXEH
 70
     0
 10
0.0
 20
0.0
 30
0.0
  3
GENAXEH
  1

  0
LINE
  5
73
330
72
100
AcDbEntity
  8
0
100
AcDbLine
 10
-1.0
 20
0.0
 30
0.0
 11
1.0
 21
0.0
 31
0.0
  0
ENDBLK
  5
75
330
72
100
AcDbEntity
  8
0
100
AcDbBlockEnd
  0
BLOCK
  5
6C7
330
6C4
100
AcDbEntity
  8
0
100
AcDbBlockBegin
  2
_Dot
 70
     0
 10
0.0
 20
0.0
 30
0.0
  3
_Dot
  1

  0
LWPOLYLINE
  5
6C5
330
6C4
100
AcDbEntity
  8
0
  6
ByBlock
 62
     0
100
AcDbPolyline
 90
        2
 70
     1
 43
0.5
 10
-0.25
 20
0.0
 42
1.0
 10
0.25
 20
0.0
 42
1.0
  0
LINE
  5
6C6
330
6C4
100
AcDbEntity
  8
0
  6
ByBlock
 62
     0
370
    -2
100
AcDbLine
 10
-0.5
 20
0.0
 30
0.0
 11
-1.0
 21
0.0
 31
0.0
  0
ENDBLK
  5
6C8
330
6C4
100
AcDbEntity
  8
0
100
AcDbBlockEnd
  0
BLOCK
  5
A6A
330
A66
100
AcDbEntity
  8
0
100
AcDbBlockBegin
  2
_OPEN30
 70
     0
 10
0.0
 20
0.0
 30
0.0
  3
_OPEN30
  1

  0
LINE
  5
A67
330
A66
100
AcDbEntity
  8
0
  6
ByBlock
 62
     0
100
AcDbLine
 10
-1.0
 20
0.26794919
 30
0.0
 11
0.0
 21
0.0
 31
0.0
  0
LINE
  5
A68
330
A66
100
AcDbEntity
  8
0
  6
ByBlock
 62
     0
100
AcDbLine
 10
0.0
 20
0.0
 30
0.0
 11
-1.0
 21
-0.26794919
 31
0.0
  0
LINE
  5
A69
330
A66
100
AcDbEntity
  8
0
  6
ByBlock
 62
     0
100
AcDbLine
 10
0.0
 20
0.0
 30
0.0
 11
-1.0
 21
0.0
 31
0.0
  0
ENDBLK
  5
A6B
330
A66
100
AcDbEntity
  8
0
100
AcDbBlockEnd
  0
BLOCK
  5
4F89B
330
4F891
100
AcDbEntity
  8
0
100
AcDbBlockBegin
  2
*D7
 70
     1
 10
0.0
 20
0.0
 30
0.0
  3
*D7
  1

  0
LINE
  5
5B3A1
330
4F891
100
AcDbEntity
  8
AM_5
100
AcDbLine
 10
6236.570496544777
 20
-6876.527797122775
 30
0.0
 11
6236.570496544777
 21
-6863.192010684776
 31
0.0
  0
LINE
  5
5B3A2
330
4F891
100
AcDbEntity
  8
AM_5
100
AcDbLine
 10
6298.570496544776
 20
-6889.777797122775
 30
0.0
 11
6298.570496544776
 21
-6863.192010684776
 31
0.0
  0
LINE
  5
5B3A3
330
4F891
100
AcDbEntity
  8
AM_5
100
AcDbLine
 10
6237.570496544776
 20
-6864.192010684776
 30
0.0
 11
6297.570496544777
 21
-6864.192010684776
 31
0.0
  0
INSERT
  5
5B3A4
330
4F891
100
AcDbEntity
  8
AM_5
100
AcDbBlockReference
  2
_Dot
 10
6236.570496544777
 20
-6864.192010684776
 30
0.0
 50
180.0
  0
INSERT
  5
5B3A5
330
4F891
100
AcDbEntity
  8
AM_5
100
AcDbBlockReference
  2
_Dot
 10
6298.570496544776
 20
-6864.192010684776
 30
0.0
  0
MTEXT
  5
5B3A6
330
4F891
100
AcDbEntity
  8
AM_5
 62
     2
100
AcDbMText
 10
6266.488076932277
 20
-6861.592010684775
 30
0.0
 40
3.200000000000001
 41
0.0
 71
     5
 72
     1
  1
（62）
 73
     1
 44
1.0
1001
ACAD
1000
MTEXTBEGIN
1070
    73
1070
     1
1070
    44
1040
1.0
1070
    74
1070
     0
1000
MTEXTEND
  0
POINT
  5
5B3A7
330
4F891
100
AcDbEntity
  8
Defpoints
 62
     0
100
AcDbPoint
 10
6236.570496544777
 20
-6877.527797122775
 30
0.0
  0
POINT
  5
5B3A8
330
4F891
100
AcDbEntity
  8
Defpoints
 62
     0
100
AcDbPoint
 10
6298.570496544776
 20
-6890.777797122776
 30
0.0
  0
POINT
  5
5B3A9
330
4F891
100
AcDbEntity
  8
Defpoints
 62
     0
100
AcDbPoint
 10
6298.570496544776
 20
-6864.192010684776
 30
0.0
  0
ENDBLK
  5
4F89C
330
4F891
100
AcDbEntity
  8
0
100
AcDbBlockEnd
  0
BLOCK
  5
4F8D4
330
4F8CA
100
AcDbEntity
  8
0
100
AcDbBlockBegin
  2
*D8
 70
     1
 10
0.0
 20
0.0
 30
0.0
  3
*D8
  1

  0
LINE
  5
52EA0
330
4F8CA
100
AcDbEntity
  8
AM_5
100
AcDbLine
 10
6185.070496544777
 20
-6872.192010684776
 30
0.0
 11
6140.570496544775
 21
-6872.192010684774
 31
0.0
  0
LINE
  5
52EA1
330
4F8CA
100
AcDbEntity
  8
AM_5
100
AcDbLine
 10
6185.070496544777
 20
-6909.363583559775
 30
0.0
 11
6140.570496544775
 21
-6909.363583559773
 31
0.0
  0
LINE
  5
52EA2
330
4F8CA
100
AcDbEntity
  8
AM_5
100
AcDbLine
 10
6141.570496544775
 20
-6873.192010684775
 30
0.0
 11
6141.570496544775
 21
-6908.363583559775
 31
0.0
  0
INSERT
  5
52EA3
330
4F8CA
100
AcDbEntity
  8
AM_5
100
AcDbBlockReference
  2
_Dot
 10
6141.570496544775
 20
-6872.192010684774
 30
0.0
 50
90.0
  0
INSERT
  5
52EA4
330
4F8CA
100
AcDbEntity
  8
AM_5
100
AcDbBlockReference
  2
_Dot
 10
6141.570496544775
 20
-6909.363583559773
 30
0.0
 50
270.0
  0
MTEXT
  5
52EA5
330
4F8CA
100
AcDbEntity
  8
AM_5
 62
     2
100
AcDbMText
 10
6138.970496544776
 20
-6890.777797122273
 30
0.0
 40
3.200000000000001
 41
0.0
 71
     5
 72
     1
  1
（37）
 11
0.0000000000000001
 21
1.0
 31
0.0
 73
     1
 44
1.0
1001
ACAD
1000
MTEXTBEGIN
1070
    73
1070
     1
1070
    44
1040
1.0
1070
    74
1070
     0
1000
MTEXTEND
  0
POINT
  5
52EA6
330
4F8CA
100
AcDbEntity
  8
Defpoints
 62
     0
100
AcDbPoint
 10
6186.070496544776
 20
-6872.192010684776
 30
0.0
  0
POINT
  5
52EA7
330
4F8CA
100
AcDbEntity
  8
Defpoints
 62
     0
100
AcDbPoint
 10
6186.070496544776
 20
-6909.363583559775
 30
0.0
  0
POINT
  5
52EA8
330
4F8CA
100
AcDbEntity
  8
Defpoints
 62
     0
100
AcDbPoint
 10
6141.570496544775
 20
-6909.363583559773
 30
0.0
  0
ENDBLK
  5
4F8D5
330
4F8CA
100
AcDbEntity
  8
0
100
AcDbBlockEnd
  0
BLOCK
  5
4F93F
330
4F935
100
AcDbEntity
  8
0
100
AcDbBlockBegin
  2
*D9
 70
     1
 10
0.0
 20
0.0
 30
0.0
  3
*D9
  1

  0
LINE
  5
5B2EE
330
4F935
100
AcDbEntity
  8
AM_5
100
AcDbLine
 10
6276.070496544776
 20
-6878.277797122776
 30
0.0
 11
6307.570496544775
 21
-6878.277797122776
 31
0.0
  0
LINE
  5
5B2EF
330
4F935
100
AcDbEntity
  8
AM_5
100
AcDbLine
 10
6276.070496544776
 20
-6903.277797122775
 30
0.0
 11
6307.570496544775
 21
-6903.277797122775
 31
0.0
  0
LINE
  5
5B2F0
330
4F935
100
AcDbEntity
  8
AM_5
100
AcDbLine
 10
6306.570496544775
 20
-6879.277797122774
 30
0.0
 11
6306.570496544775
 21
-6902.277797122775
 31
0.0
  0
INSERT
  5
5B2F1
330
4F935
100
AcDbEntity
  8
AM_5
100
AcDbBlockReference
  2
_Dot
 10
6306.570496544775
 20
-6878.277797122776
 30
0.0
 50
90.0
  0
INSERT
  5
5B2F2
330
4F935
100
AcDbEntity
  8
AM_5
100
AcDbBlockReference
  2
_Dot
 10
6306.570496544775
 20
-6903.277797122775
 30
0.0
 50
270.0
  0
MTEXT
  5
5B2F3
330
4F935
100
AcDbEntity
  8
AM_5
 62
     2
100
AcDbMText
 10
6303.970496544776
 20
-6890.777797122776
 30
0.0
 40
3.200000000000001
 41
0.0
 71
     5
 72
     1
  1
25
 11
0.0000000000000001
 21
1.0
 31
0.0
 73
     1
 44
1.0
1001
ACAD
1000
MTEXTBEGIN
1070
    73
1070
     1
1070
    44
1040
1.0
1070
    74
1070
     0
1000
MTEXTEND
  0
POINT
  5
5B2F4
330
4F935
100
AcDbEntity
  8
Defpoints
 62
     0
100
AcDbPoint
 10
6275.070496544777
 20
-6878.277797122776
 30
0.0
  0
POINT
  5
5B2F5
330
4F935
100
AcDbEntity
  8
Defpoints
 62
     0
100
AcDbPoint
 10
6275.070496544777
 20
-6903.277797122775
 30
0.0
  0
POINT
  5
5B2F6
330
4F935
100
AcDbEntity
  8
Defpoints
 62
     0
100
AcDbPoint
 10
6306.570496544775
 20
-6903.277797122775
 30
0.0
  0
ENDBLK
  5
4F940
330
4F935
100
AcDbEntity
  8
0
100
AcDbBlockEnd
  0
BLOCK
  5
4F95E
330
4F954
100
AcDbEntity
  8
0
100
AcDbBlockBegin
  2
*D10
 70
     1
 10
0.0
 20
0.0
 30
0.0
  3
*D10
  1

  0
LINE
  5
5B37B
330
4F954
100
AcDbEntity
  8
AM_5
100
AcDbLine
 10
6165.070496544776
 20
-6880.777797122775
 30
0.0
 11
6165.070496544776
 21
-6863.192010684776
 31
0.0
  0
LINE
  5
5B37C
330
4F954
100
AcDbEntity
  8
AM_5
100
AcDbLine
 10
6187.570496544776
 20
-6881.277797122776
 30
0.0
 11
6187.570496544776
 21
-6863.192010684776
 31
0.0
  0
LINE
  5
5B37D
330
4F954
100
AcDbEntity
  8
AM_5
100
AcDbLine
 10
6166.070496544777
 20
-6864.192010684776
 30
0.0
 11
6186.570496544777
 21
-6864.192010684776
 31
0.0
  0
INSERT
  5
5B37E
330
4F954
100
AcDbEntity
  8
AM_5
100
AcDbBlockReference
  2
_Dot
 10
6165.070496544776
 20
-6864.192010684776
 30
0.0
 50
180.0
  0
INSERT
  5
5B37F
330
4F954
100
AcDbEntity
  8
AM_5
100
AcDbBlockReference
  2
_Dot
 10
6187.570496544776
 20
-6864.192010684776
 30
0.0
  0
MTEXT
  5
5B380
330
4F954
100
AcDbEntity
  8
AM_5
 62
     2
100
AcDbMText
 10
6175.708233599484
 20
-6861.592010684775
 30
0.0
 40
3.200000000000001
 41
0.0
 71
     5
 72
     1
  1
（22.5）
 73
     1
 44
1.0
1001
ACAD
1000
MTEXTBEGIN
1070
    73
1070
     1
1070
    44
1040
1.0
1070
    74
1070
     0
1000
MTEXTEND
  0
POINT
  5
5B381
330
4F954
100
AcDbEntity
  8
Defpoints
 62
     0
100
AcDbPoint
 10
6165.070496544776
 20
-6881.777797122776
 30
0.0
  0
POINT
  5
5B382
330
4F954
100
AcDbEntity
  8
Defpoints
 62
     0
100
AcDbPoint
 10
6187.570496544776
 20
-6882.277797122775
 30
0.0
  0
POINT
  5
5B383
330
4F954
100
AcDbEntity
  8
Defpoints
 62
     0
100
AcDbPoint
 10
6187.570496544776
 20
-6864.192010684776
 30
0.0
  0
ENDBLK
  5
4F95F
330
4F954
100
AcDbEntity
  8
0
100
AcDbBlockEnd
  0
BLOCK
  5
4F997
330
4F98D
100
AcDbEntity
  8
0
100
AcDbBlockBegin
  2
*D11
 70
     1
 10
0.0
 20
0.0
 30
0.0
  3
*D11
  1

  0
LINE
  5
52EBB
330
4F98D
100
AcDbEntity
  8
AM_5
100
AcDbLine
 10
6170.570496544776
 20
-6875.777797122776
 30
0.0
 11
6148.570496544775
 21
-6875.777797122776
 31
0.0
  0
LINE
  5
52EBC
330
4F98D
100
AcDbEntity
  8
AM_5
100
AcDbLine
 10
6170.570496544776
 20
-6905.777797122775
 30
0.0
 11
6148.570496544775
 21
-6905.777797122775
 31
0.0
  0
LINE
  5
52EBD
330
4F98D
100
AcDbEntity
  8
AM_5
100
AcDbLine
 10
6149.570496544775
 20
-6876.777797122776
 30
0.0
 11
6149.570496544775
 21
-6904.777797122775
 31
0.0
  0
INSERT
  5
52EBE
330
4F98D
100
AcDbEntity
  8
AM_5
100
AcDbBlockReference
  2
_Dot
 10
6149.570496544775
 20
-6875.777797122776
 30
0.0
 50
90.0
  0
INSERT
  5
52EBF
330
4F98D
100
AcDbEntity
  8
AM_5
100
AcDbBlockReference
  2
_Dot
 10
6149.570496544775
 20
-6905.777797122775
 30
0.0
 50
270.0
  0
MTEXT
  5
52EC0
330
4F98D
100
AcDbEntity
  8
AM_5
 62
     2
100
AcDbMText
 10
6146.970496544777
 20
-6890.777797122776
 30
0.0
 40
3.200000000000001
 41
0.0
 71
     5
 72
     1
  1
30
 11
0.0000000000000001
 21
1.0
 31
0.0
 73
     1
 44
1.0
1001
ACAD
1000
MTEXTBEGIN
1070
    73
1070
     1
1070
    44
1040
1.0
1070
    74
1070
     0
1000
MTEXTEND
  0
POINT
  5
52EC1
330
4F98D
100
AcDbEntity
  8
Defpoints
 62
     0
100
AcDbPoint
 10
6171.570496544777
 20
-6875.777797122776
 30
0.0
  0
POINT
  5
52EC2
330
4F98D
100
AcDbEntity
  8
Defpoints
 62
     0
100
AcDbPoint
 10
6171.570496544777
 20
-6905.777797122775
 30
0.0
  0
POINT
  5
52EC3
330
4F98D
100
AcDbEntity
  8
Defpoints
 62
     0
100
AcDbPoint
 10
6149.570496544775
 20
-6905.777797122775
 30
0.0
  0
ENDBLK
  5
4F998
330
4F98D
100
AcDbEntity
  8
0
100
AcDbBlockEnd
  0
BLOCK
  5
4F9AF
330
4F9A3
100
AcDbEntity
  8
0
100
AcDbBlockBegin
  2
*D12
 70
     1
 10
0.0
 20
0.0
 30
0.0
  3
*D12
  1

  0
LINE
  5
52EC4
330
4F9A3
100
AcDbEntity
  8
AM_5
100
AcDbLine
 10
6193.863389763713
 20
-6898.399117466212
 30
0.0
 11
6195.984710107089
 21
-6900.520437809589
 31
0.0
  0
LINE
  5
52EC5
330
4F9A3
100
AcDbEntity
  8
AM_5
100
AcDbLine
 10
6196.691816888275
 20
-6901.227544590776
 30
0.0
 11
6201.302153101612
 21
-6905.837880804114
 31
0.0
  0
INSERT
  5
52EC6
330
4F9A3
100
AcDbEntity
  8
AM_5
100
AcDbBlockReference
  2
_Dot
 10
6193.156282982526
 20
-6897.692010685026
 30
0.0
 50
134.9999999999926
  0
INSERT
  5
52EC7
330
4F9A3
100
AcDbEntity
  8
AM_5
100
AcDbBlockReference
  2
_Dot
 10
6196.691816888275
 20
-6901.227544590776
 30
0.0
 50
314.9999999999926
  0
MTEXT
  5
52EC8
330
4F9A3
100
AcDbEntity
  8
AM_5
 62
     2
100
AcDbMText
 10
6201.189016016623
 20
-6902.047788456954
 30
0.0
 40
3.200000000000001
 41
0.0
 71
     5
 72
     1
  1
%%c5
 11
0.7071067811864566
 21
-0.7071067811866386
 31
0.0
 73
     1
 44
1.0
1001
ACAD
1000
MTEXTBEGIN
1070
    73
1070
     1
1070
    44
1040
1.0
1070
    74
1070
     0
1000
MTEXTEND
  0
POINT
  5
52EC9
330
4F9A3
100
AcDbEntity
  8
Defpoints
 62
     0
100
AcDbPoint
 10
6196.691816888275
 20
-6901.227544590776
 30
0.0
  0
POINT
  5
52ECA
330
4F9A3
100
AcDbEntity
  8
Defpoints
 62
     0
100
AcDbPoint
 10
6193.156282982526
 20
-6897.692010685026
 30
0.0
  0
POINT
  5
52ECB
330
4F9A3
100
AcDbEntity
  8
Defpoints
 62
     0
100
AcDbPoint
 10
6193.156282982526
 20
-6897.692010685026
 30
0.0
  0
ENDBLK
  5
4F9B0
330
4F9A3
100
AcDbEntity
  8
0
100
AcDbBlockEnd
  0
BLOCK
  5
4F9D7
330
4F9CD
100
AcDbEntity
  8
0
100
AcDbBlockBegin
  2
*D13
 70
     1
 10
0.0
 20
0.0
 30
0.0
  3
*D13
  1

  0
LINE
  5
52ECC
330
4F9CD
100
AcDbEntity
  8
AM_5
100
AcDbLine
 10
6277.570496544776
 20
-6957.98728213136
 30
0.0
 11
6305.405657319774
 21
-6957.98728213136
 31
0.0
  0
LINE
  5
52ECD
330
4F9CD
100
AcDbEntity
  8
AM_5
100
AcDbLine
 10
6243.570496544776
 20
-6941.987282131361
 30
0.0
 11
6305.405657319774
 21
-6941.987282131361
 31
0.0
  0
LINE
  5
52ECE
330
4F9CD
100
AcDbEntity
  8
AM_5
100
AcDbLine
 10
6304.405657319775
 20
-6956.987282131361
 30
0.0
 11
6304.405657319775
 21
-6942.987282131361
 31
0.0
  0
INSERT
  5
52ECF
330
4F9CD
100
AcDbEntity
  8
AM_5
100
AcDbBlockReference
  2
_Dot
 10
6304.405657319775
 20
-6957.98728213136
 30
0.0
 50
270.0
  0
INSERT
  5
52ED0
330
4F9CD
100
AcDbEntity
  8
AM_5
100
AcDbBlockReference
  2
_Dot
 10
6304.405657319775
 20
-6941.987282131361
 30
0.0
 50
90.0
  0
MTEXT
  5
52ED1
330
4F9CD
100
AcDbEntity
  8
AM_5
 62
     2
100
AcDbMText
 10
6301.805657319777
 20
-6949.987282131359
 30
0.0
 40
3.200000000000001
 41
0.0
 71
     5
 72
     1
  1
（16）
 11
0.0000000000000001
 21
1.0
 31
0.0
 73
     1
 44
1.0
1001
ACAD
1000
MTEXTBEGIN
1070
    73
1070
     1
1070
    44
1040
1.0
1070
    74
1070
     0
1000
MTEXTEND
  0
POINT
  5
52ED2
330
4F9CD
100
AcDbEntity
  8
Defpoints
 62
     0
100
AcDbPoint
 10
6276.570496544777
 20
-6957.98728213136
 30
0.0
  0
POINT
  5
52ED3
330
4F9CD
100
AcDbEntity
  8
Defpoints
 62
     0
100
AcDbPoint
 10
6242.570496544777
 20
-6941.987282131361
 30
0.0
  0
POINT
  5
52ED4
330
4F9CD
100
AcDbEntity
  8
Defpoints
 62
     0
100
AcDbPoint
 10
6304.405657319775
 20
-6941.987282131361
 30
0.0
  0
ENDBLK
  5
4F9D8
330
4F9CD
100
AcDbEntity
  8
0
100
AcDbBlockEnd
  0
BLOCK
  5
4FA0D
330
4FA01
100
AcDbEntity
  8
0
100
AcDbBlockBegin
  2
*D14
 70
     1
 10
0.0
 20
0.0
 30
0.0
  3
*D14
  1

  0
LINE
  5
52ED5
330
4FA01
100
AcDbEntity
  8
AM_5
100
AcDbLine
 10
6277.570496544776
 20
-6957.98728213136
 30
0.0
 11
6297.405657319774
 21
-6957.98728213136
 31
0.0
  0
LINE
  5
52ED6
330
4FA01
100
AcDbEntity
  8
AM_5
100
AcDbLine
 10
6277.570496544776
 20
-6954.98728213136
 30
0.0
 11
6297.405657319774
 21
-6954.98728213136
 31
0.0
  0
LINE
  5
52ED7
330
4FA01
100
AcDbEntity
  8
AM_5
100
AcDbLine
 10
6296.405657319775
 20
-6953.987282131361
 30
0.0
 11
6296.405657319775
 21
-6952.98728213136
 31
0.0
  0
LINE
  5
52ED8
330
4FA01
100
AcDbEntity
  8
AM_5
100
AcDbLine
 10
6296.405657319775
 20
-6958.98728213136
 30
0.0
 11
6296.405657319775
 21
-6963.480615464693
 31
0.0
  0
LINE
  5
52ED9
330
4FA01
100
AcDbEntity
  8
AM_5
100
AcDbLine
 10
6296.405657319775
 20
-6954.98728213136
 30
0.0
 11
6296.405657319775
 21
-6957.98728213136
 31
0.0
  0
INSERT
  5
52EDA
330
4FA01
100
AcDbEntity
  8
AM_5
100
AcDbBlockReference
  2
_Dot
 10
6296.405657319775
 20
-6954.98728213136
 30
0.0
 50
270.0
  0
INSERT
  5
52EDB
330
4FA01
100
AcDbEntity
  8
AM_5
100
AcDbBlockReference
  2
_Dot
 10
6296.405657319775
 20
-6957.98728213136
 30
0.0
 50
90.0
  0
MTEXT
  5
52EDC
330
4FA01
100
AcDbEntity
  8
AM_5
 62
     2
100
AcDbMText
 10
6293.805657319776
 20
-6961.733948798026
 30
0.0
 40
3.200000000000001
 41
0.0
 71
     5
 72
     1
  1
3
 11
0.0000000000000001
 21
1.0
 31
0.0
 73
     1
 44
1.0
1001
ACAD
1000
MTEXTBEGIN
1070
    73
1070
     1
1070
    44
1040
1.0
1070
    74
1070
     0
1000
MTEXTEND
  0
POINT
  5
52EDD
330
4FA01
100
AcDbEntity
  8
Defpoints
 62
     0
100
AcDbPoint
 10
6276.570496544777
 20
-6957.98728213136
 30
0.0
  0
POINT
  5
52EDE
330
4FA01
100
AcDbEntity
  8
Defpoints
 62
     0
100
AcDbPoint
 10
6276.570496544777
 20
-6954.98728213136
 30
0.0
  0
POINT
  5
52EDF
330
4FA01
100
AcDbEntity
  8
Defpoints
 62
     0
100
AcDbPoint
 10
6296.405657319775
 20
-6954.98728213136
 30
0.0
  0
ENDBLK
  5
4FA0E
330
4FA01
100
AcDbEntity
  8
0
100
AcDbBlockEnd
  0
BLOCK
  5
4FA30
330
4FA26
100
AcDbEntity
  8
0
100
AcDbBlockBegin
  2
*D15
 70
     1
 10
0.0
 20
0.0
 30
0.0
  3
*D15
  1

  0
LINE
  5
5B2E3
330
4FA26
100
AcDbEntity
  8
AM_5
100
AcDbLine
 10
6164.570496544777
 20
-6957.98728213136
 30
0.0
 11
6148.570496544775
 21
-6957.98728213136
 31
0.0
  0
LINE
  5
5B2E4
330
4FA26
100
AcDbEntity
  8
AM_5
100
AcDbLine
 10
6179.580115488247
 20
-6944.987282131361
 30
0.0
 11
6148.570496544775
 21
-6944.987282131361
 31
0.0
  0
LINE
  5
5B2E5
330
4FA26
100
AcDbEntity
  8
AM_5
100
AcDbLine
 10
6149.570496544775
 20
-6956.987282131361
 30
0.0
 11
6149.570496544775
 21
-6945.987282131361
 31
0.0
  0
INSERT
  5
5B2E6
330
4FA26
100
AcDbEntity
  8
AM_5
100
AcDbBlockReference
  2
_Dot
 10
6149.570496544775
 20
-6957.98728213136
 30
0.0
 50
270.0
  0
INSERT
  5
5B2E7
330
4FA26
100
AcDbEntity
  8
AM_5
100
AcDbBlockReference
  2
_Dot
 10
6149.570496544775
 20
-6944.987282131361
 30
0.0
 50
90.0
  0
MTEXT
  5
5B2E8
330
4FA26
100
AcDbEntity
  8
AM_5
 62
     2
100
AcDbMText
 10
6146.970496544777
 20
-6951.134842661679
 30
0.0
 40
3.200000000000001
 41
0.0
 71
     5
 72
     1
  1
13
 11
0.0000000000000001
 21
1.0
 31
0.0
 73
     1
 44
1.0
1001
ACAD
1000
MTEXTBEGIN
1070
    73
1070
     1
1070
    44
1040
1.0
1070
    74
1070
     0
1000
MTEXTEND
  0
POINT
  5
5B2E9
330
4FA26
100
AcDbEntity
  8
Defpoints
 62
     0
100
AcDbPoint
 10
6165.570496544777
 20
-6957.98728213136
 30
0.0
  0
POINT
  5
5B2EA
330
4FA26
100
AcDbEntity
  8
Defpoints
 62
     0
100
AcDbPoint
 10
6180.580115488247
 20
-6944.987282131361
 30
0.0
  0
POINT
  5
5B2EB
330
4FA26
100
AcDbEntity
  8
Defpoints
 62
     0
100
AcDbPoint
 10
6149.570496544775
 20
-6944.987282131361
 30
0.0
  0
ENDBLK
  5
4FA31
330
4FA26
100
AcDbEntity
  8
0
100
AcDbBlockEnd
  0
BLOCK
  5
4FA6C
330
4FA60
100
AcDbEntity
  8
0
100
AcDbBlockBegin
  2
*D16
 70
     1
 10
0.0
 20
0.0
 30
0.0
  3
*D16
  1

  0
LINE
  5
52EE9
330
4FA60
100
AcDbEntity
  8
AM_5
100
AcDbLine
 10
6164.570496544777
 20
-6957.98728213136
 30
0.0
 11
6156.570496544775
 21
-6957.98728213136
 31
0.0
  0
LINE
  5
52EEA
330
4FA60
100
AcDbEntity
  8
AM_5
100
AcDbLine
 10
6164.570496544777
 20
-6954.98728213136
 30
0.0
 11
6156.570496544775
 21
-6954.98728213136
 31
0.0
  0
LINE
  5
52EEB
330
4FA60
100
AcDbEntity
  8
AM_5
100
AcDbLine
 10
6157.570496544774
 20
-6953.987282131361
 30
0.0
 11
6157.570496544774
 21
-6952.98728213136
 31
0.0
  0
LINE
  5
52EEC
330
4FA60
100
AcDbEntity
  8
AM_5
100
AcDbLine
 10
6157.570496544774
 20
-6958.98728213136
 30
0.0
 11
6157.570496544774
 21
-6963.480615464693
 31
0.0
  0
LINE
  5
52EED
330
4FA60
100
AcDbEntity
  8
AM_5
100
AcDbLine
 10
6157.570496544774
 20
-6954.98728213136
 30
0.0
 11
6157.570496544774
 21
-6957.98728213136
 31
0.0
  0
INSERT
  5
52EEE
330
4FA60
100
AcDbEntity
  8
AM_5
100
AcDbBlockReference
  2
_Dot
 10
6157.570496544774
 20
-6954.98728213136
 30
0.0
 50
270.0
  0
INSERT
  5
52EEF
330
4FA60
100
AcDbEntity
  8
AM_5
100
AcDbBlockReference
  2
_Dot
 10
6157.570496544774
 20
-6957.98728213136
 30
0.0
 50
90.0
  0
MTEXT
  5
52EF0
330
4FA60
100
AcDbEntity
  8
AM_5
 62
     2
100
AcDbMText
 10
6154.970496544777
 20
-6961.733948798026
 30
0.0
 40
3.200000000000001
 41
0.0
 71
     5
 72
     1
  1
3
 11
0.0000000000000001
 21
1.0
 31
0.0
 73
     1
 44
1.0
1001
ACAD
1000
MTEXTBEGIN
1070
    73
1070
     1
1070
    44
1040
1.0
1070
    74
1070
     0
1000
MTEXTEND
  0
POINT
  5
52EF1
330
4FA60
100
AcDbEntity
  8
Defpoints
 62
     0
100
AcDbPoint
 10
6165.570496544777
 20
-6957.98728213136
 30
0.0
  0
POINT
  5
52EF2
330
4FA60
100
AcDbEntity
  8
Defpoints
 62
     0
100
AcDbPoint
 10
6165.570496544777
 20
-6954.98728213136
 30
0.0
  0
POINT
  5
52EF3
330
4FA60
100
AcDbEntity
  8
Defpoints
 62
     0
100
AcDbPoint
 10
6157.570496544774
 20
-6954.98728213136
 30
0.0
  0
ENDBLK
  5
4FA6D
330
4FA60
100
AcDbEntity
  8
0
100
AcDbBlockEnd
  0
BLOCK
  5
4FA8F
330
4FA85
100
AcDbEntity
  8
0
100
AcDbBlockBegin
  2
*D17
 70
     1
 10
0.0
 20
0.0
 30
0.0
  3
*D17
  1

  0
LINE
  5
52EF4
330
4FA85
100
AcDbEntity
  8
AM_5
100
AcDbLine
 10
6255.570496544777
 20
-6898.927797122777
 30
0.0
 11
6255.570496544777
 21
-6926.363583559775
 31
0.0
  0
LINE
  5
52EF5
330
4FA85
100
AcDbEntity
  8
AM_5
100
AcDbLine
 10
6270.570496544777
 20
-6898.927797122777
 30
0.0
 11
6270.570496544777
 21
-6926.363583559775
 31
0.0
  0
LINE
  5
52EF6
330
4FA85
100
AcDbEntity
  8
AM_5
100
AcDbLine
 10
6256.570496544777
 20
-6925.363583559775
 30
0.0
 11
6269.570496544776
 21
-6925.363583559775
 31
0.0
  0
INSERT
  5
52EF7
330
4FA85
100
AcDbEntity
  8
AM_5
100
AcDbBlockReference
  2
_Dot
 10
6255.570496544777
 20
-6925.363583559775
 30
0.0
 50
180.0
  0
INSERT
  5
52EF8
330
4FA85
100
AcDbEntity
  8
AM_5
100
AcDbBlockReference
  2
_Dot
 10
6270.570496544777
 20
-6925.363583559775
 30
0.0
  0
MTEXT
  5
52EF9
330
4FA85
100
AcDbEntity
  8
AM_5
 62
     2
100
AcDbMText
 10
6263.070496544777
 20
-6922.763583559775
 30
0.0
 40
3.200000000000001
 41
0.0
 71
     5
 72
     1
  1
15
 73
     1
 44
1.0
1001
ACAD
1000
MTEXTBEGIN
1070
    73
1070
     1
1070
    44
1040
1.0
1070
    74
1070
     0
1000
MTEXTEND
  0
POINT
  5
52EFA
330
4FA85
100
AcDbEntity
  8
Defpoints
 62
     0
100
AcDbPoint
 10
6255.570496544777
 20
-6897.927797122775
 30
0.0
  0
POINT
  5
52EFB
330
4FA85
100
AcDbEntity
  8
Defpoints
 62
     0
100
AcDbPoint
 10
6270.570496544777
 20
-6897.927797122775
 30
0.0
  0
POINT
  5
52EFC
330
4FA85
100
AcDbEntity
  8
Defpoints
 62
     0
100
AcDbPoint
 10
6270.570496544777
 20
-6925.363583559775
 30
0.0
  0
ENDBLK
  5
4FA90
330
4FA85
100
AcDbEntity
  8
0
100
AcDbBlockEnd
  0
BLOCK
  5
4FAA5
330
4FA9B
100
AcDbEntity
  8
0
100
AcDbBlockBegin
  2
*D18
 70
     1
 10
0.0
 20
0.0
 30
0.0
  3
*D18
  1

  0
LINE
  5
52EFD
330
4FA9B
100
AcDbEntity
  8
AM_5
100
AcDbLine
 10
6255.570496544777
 20
-6898.927797122777
 30
0.0
 11
6255.570496544777
 21
-6918.363583559775
 31
0.0
  0
LINE
  5
52EFE
330
4FA9B
100
AcDbEntity
  8
AM_5
100
AcDbLine
 10
6236.570496544777
 20
-6905.027797122776
 30
0.0
 11
6236.570496544777
 21
-6918.363583559775
 31
0.0
  0
LINE
  5
52EFF
330
4FA9B
100
AcDbEntity
  8
AM_5
100
AcDbLine
 10
6254.570496544777
 20
-6917.363583559775
 30
0.0
 11
6237.570496544776
 21
-6917.363583559775
 31
0.0
  0
INSERT
  5
52F00
330
4FA9B
100
AcDbEntity
  8
AM_5
100
AcDbBlockReference
  2
_Dot
 10
6255.570496544777
 20
-6917.363583559775
 30
0.0
  0
INSERT
  5
52F01
330
4FA9B
100
AcDbEntity
  8
AM_5
100
AcDbBlockReference
  2
_Dot
 10
6236.570496544777
 20
-6917.363583559775
 30
0.0
 50
180.0
  0
MTEXT
  5
52F02
330
4FA9B
100
AcDbEntity
  8
AM_5
 62
     2
100
AcDbMText
 10
6246.070496544777
 20
-6914.763583559775
 30
0.0
 40
3.200000000000001
 41
0.0
 71
     5
 72
     1
  1
19
 73
     1
 44
1.0
1001
ACAD
1000
MTEXTBEGIN
1070
    73
1070
     1
1070
    44
1040
1.0
1070
    74
1070
     0
1000
MTEXTEND
  0
POINT
  5
52F03
330
4FA9B
100
AcDbEntity
  8
Defpoints
 62
     0
100
AcDbPoint
 10
6255.570496544777
 20
-6897.927797122775
 30
0.0
  0
POINT
  5
52F04
330
4FA9B
100
AcDbEntity
  8
Defpoints
 62
     0
100
AcDbPoint
 10
6236.570496544777
 20
-6904.027797122775
 30
0.0
  0
POINT
  5
52F05
330
4FA9B
100
AcDbEntity
  8
Defpoints
 62
     0
100
AcDbPoint
 10
6236.570496544777
 20
-6917.363583559775
 30
0.0
  0
ENDBLK
  5
4FAA6
330
4FA9B
100
AcDbEntity
  8
0
100
AcDbBlockEnd
  0
BLOCK
  5
4FABB
330
4FAB1
100
AcDbEntity
  8
0
100
AcDbBlockBegin
  2
*D19
 70
     1
 10
0.0
 20
0.0
 30
0.0
  3
*D19
  1

  0
LINE
  5
52F06
330
4FAB1
100
AcDbEntity
  8
AM_5
100
AcDbLine
 10
6255.570496544777
 20
-6898.927797122777
 30
0.0
 11
6255.570496544777
 21
-6926.363583559775
 31
0.0
  0
LINE
  5
52F07
330
4FAB1
100
AcDbEntity
  8
AM_5
100
AcDbLine
 10
6171.570496544777
 20
-6907.427797122775
 30
0.0
 11
6171.570496544777
 21
-6926.363583559775
 31
0.0
  0
LINE
  5
52F08
330
4FAB1
100
AcDbEntity
  8
AM_5
100
AcDbLine
 10
6254.570496544777
 20
-6925.363583559775
 30
0.0
 11
6172.570496544777
 21
-6925.363583559775
 31
0.0
  0
INSERT
  5
52F09
330
4FAB1
100
AcDbEntity
  8
AM_5
100
AcDbBlockReference
  2
_Dot
 10
6255.570496544777
 20
-6925.363583559775
 30
0.0
  0
INSERT
  5
52F0A
330
4FAB1
100
AcDbEntity
  8
AM_5
100
AcDbBlockReference
  2
_Dot
 10
6171.570496544777
 20
-6925.363583559775
 30
0.0
 50
180.0
  0
MTEXT
  5
52F0B
330
4FAB1
100
AcDbEntity
  8
AM_5
 62
     2
100
AcDbMText
 10
6213.570496544776
 20
-6922.763583559775
 30
0.0
 40
3.200000000000001
 41
0.0
 71
     5
 72
     1
  1
調整範囲62～85
 73
     1
 44
1.0
1001
ACAD
1000
MTEXTBEGIN
1070
    73
1070
     1
1070
    44
1040
1.0
1070
    74
1070
     0
1000
MTEXTEND
  0
POINT
  5
52F0C
330
4FAB1
100
AcDbEntity
  8
Defpoints
 62
     0
100
AcDbPoint
 10
6255.570496544777
 20
-6897.927797122775
 30
0.0
  0
POINT
  5
52F0D
330
4FAB1
100
AcDbEntity
  8
Defpoints
 62
     0
100
AcDbPoint
 10
6171.570496544777
 20
-6906.427797122775
 30
0.0
  0
POINT
  5
52F0E
330
4FAB1
100
AcDbEntity
  8
Defpoints
 62
     0
100
AcDbPoint
 10
6171.570496544777
 20
-6925.363583559775
 30
0.0
  0
ENDBLK
  5
4FABC
330
4FAB1
100
AcDbEntity
  8
0
100
AcDbBlockEnd
  0
BLOCK
  5
4FAFC
330
4FAF2
100
AcDbEntity
  8
0
100
AcDbBlockBegin
  2
*D20
 70
     1
 10
0.0
 20
0.0
 30
0.0
  3
*D20
  1

  0
LINE
  5
5B38F
330
4FAF2
100
AcDbEntity
  8
AM_5
100
AcDbLine
 10
6171.570496544777
 20
-6907.469688095975
 30
0.0
 11
6171.570496544777
 21
-6918.363583559775
 31
0.0
  0
LINE
  5
5B390
330
4FAF2
100
AcDbEntity
  8
AM_5
100
AcDbLine
 10
6187.570496544776
 20
-6900.277797122775
 30
0.0
 11
6187.570496544776
 21
-6918.363583559775
 31
0.0
  0
LINE
  5
5B391
330
4FAF2
100
AcDbEntity
  8
AM_5
100
AcDbLine
 10
6172.570496544777
 20
-6917.363583559775
 30
0.0
 11
6186.570496544777
 21
-6917.363583559775
 31
0.0
  0
INSERT
  5
5B392
330
4FAF2
100
AcDbEntity
  8
AM_5
100
AcDbBlockReference
  2
_Dot
 10
6171.570496544777
 20
-6917.363583559775
 30
0.0
 50
180.0
  0
INSERT
  5
5B393
330
4FAF2
100
AcDbEntity
  8
AM_5
100
AcDbBlockReference
  2
_Dot
 10
6187.570496544776
 20
-6917.363583559775
 30
0.0
  0
MTEXT
  5
5B394
330
4FAF2
100
AcDbEntity
  8
AM_5
 62
     2
100
AcDbMText
 10
6179.820496544777
 20
-6914.763583559775
 30
0.0
 40
3.200000000000001
 41
0.0
 71
     5
 72
     1
  1
（16）
 73
     1
 44
1.0
1001
ACAD
1000
MTEXTBEGIN
1070
    73
1070
     1
1070
    44
1040
1.0
1070
    74
1070
     0
1000
MTEXTEND
  0
POINT
  5
5B395
330
4FAF2
100
AcDbEntity
  8
Defpoints
 62
     0
100
AcDbPoint
 10
6171.570496544777
 20
-6906.469688095974
 30
0.0
  0
POINT
  5
5B396
330
4FAF2
100
AcDbEntity
  8
Defpoints
 62
     0
100
AcDbPoint
 10
6187.570496544776
 20
-6899.277797122775
 30
0.0
  0
POINT
  5
5B397
330
4FAF2
100
AcDbEntity
  8
Defpoints
 62
     0
100
AcDbPoint
 10
6187.570496544776
 20
-6917.363583559775
 30
0.0
  0
ENDBLK
  5
4FAFD
330
4FAF2
100
AcDbEntity
  8
0
100
AcDbBlockEnd
  0
BLOCK
  5
4FB79
330
4FB6F
100
AcDbEntity
  8
0
100
AcDbBlockBegin
  2
*D21
 70
     1
 10
0.0
 20
0.0
 30
0.0
  3
*D21
  1

  0
LINE
  5
52F2A
330
4FB6F
100
AcDbEntity
  8
AM_5
100
AcDbLine
 10
6163.420496544777
 20
-6882.277797122775
 30
0.0
 11
6156.570496544775
 21
-6882.277797122775
 31
0.0
  0
LINE
  5
52F2B
330
4FB6F
100
AcDbEntity
  8
AM_5
100
AcDbLine
 10
6163.420496544777
 20
-6899.277797122775
 30
0.0
 11
6156.570496544775
 21
-6899.277797122775
 31
0.0
  0
LINE
  5
52F2C
330
4FB6F
100
AcDbEntity
  8
AM_5
100
AcDbLine
 10
6157.570496544774
 20
-6883.277797122776
 30
0.0
 11
6157.570496544774
 21
-6898.277797122775
 31
0.0
  0
INSERT
  5
52F2D
330
4FB6F
100
AcDbEntity
  8
AM_5
100
AcDbBlockReference
  2
_Dot
 10
6157.570496544774
 20
-6882.277797122775
 30
0.0
 50
90.0
  0
INSERT
  5
52F2E
330
4FB6F
100
AcDbEntity
  8
AM_5
100
AcDbBlockReference
  2
_Dot
 10
6157.570496544774
 20
-6899.277797122775
 30
0.0
 50
270.0
  0
MTEXT
  5
52F2F
330
4FB6F
100
AcDbEntity
  8
AM_5
 62
     2
100
AcDbMText
 10
6154.970496544777
 20
-6890.777797122773
 30
0.0
 40
3.200000000000001
 41
0.0
 71
     5
 72
     1
  1
17
 11
0.0000000000000001
 21
1.0
 31
0.0
 73
     1
 44
1.0
1001
ACAD
1000
MTEXTBEGIN
1070
    73
1070
     1
1070
    44
1040
1.0
1070
    74
1070
     0
1000
MTEXTEND
  0
POINT
  5
52F30
330
4FB6F
100
AcDbEntity
  8
Defpoints
 62
     0
100
AcDbPoint
 10
6164.420496544777
 20
-6882.277797122775
 30
0.0
  0
POINT
  5
52F31
330
4FB6F
100
AcDbEntity
  8
Defpoints
 62
     0
100
AcDbPoint
 10
6164.420496544777
 20
-6899.277797122775
 30
0.0
  0
POINT
  5
52F32
330
4FB6F
100
AcDbEntity
  8
Defpoints
 62
     0
100
AcDbPoint
 10
6157.570496544774
 20
-6899.277797122775
 30
0.0
  0
ENDBLK
  5
4FB7A
330
4FB6F
100
AcDbEntity
  8
0
100
AcDbBlockEnd
  0
BLOCK
  5
55446
330
5543F
100
AcDbEntity
  8
0
100
AcDbBlockBegin
  2
*D22
 70
     1
 10
0.0
 20
0.0
 30
0.0
  3
*D22
  1

  0
LINE
  5
55487
330
5543F
100
AcDbEntity
  8
AM_5
100
AcDbLine
 10
6130.670696482997
 20
-6916.050893395797
 30
0.0
 11
6160.278696482999
 21
-6916.050893395797
 31
0.0
  0
LINE
  5
55488
330
5543F
100
AcDbEntity
  8
AM_5
100
AcDbLine
 10
6160.278696482999
 20
-6916.050893395797
 30
0.0
 11
6168.136018020008
 21
-6904.379449527913
 31
0.0
  0
LINE
  5
55489
330
5543F
100
AcDbEntity
  8
AM_5
100
AcDbLine
 10
6175.004975069541
 20
-6894.176144717627
 30
0.0
 11
6175.563426862186
 21
-6893.346607741181
 31
0.0
  0
MTEXT
  5
5548A
330
5543F
100
AcDbEntity
  8
AM_5
 62
     2
100
AcDbMText
 10
6144.974696482999
 20
-6913.450893395797
 30
0.0
 40
3.2
 41
0.0
 71
     5
 72
     1
  1
2-%%c5.3×\U+220510.3サラ
 73
     1
 44
1.0
1001
ACAD
1000
MTEXTBEGIN
1070
    73
1070
     1
1070
    44
1040
1.0
1070
    74
1070
     0
1000
MTEXTEND
  0
LINE
  5
5548B
330
5543F
100
AcDbEntity
  8
AM_5
100
AcDbLine
 10
6174.446523276897
 20
-6895.005681694073
 30
0.0
 11
6168.694469812654
 21
-6903.549912551466
 31
0.0
  0
INSERT
  5
5548C
330
5543F
100
AcDbEntity
  8
AM_5
100
AcDbBlockReference
  2
_Dot
 10
6174.446523276897
 20
-6895.005681694073
 30
0.0
 50
236.0512036310465
  0
INSERT
  5
5548D
330
5543F
100
AcDbEntity
  8
AM_5
100
AcDbBlockReference
  2
_Dot
 10
6168.694469812654
 20
-6903.549912551466
 30
0.0
 50
56.05120363104648
  0
POINT
  5
5548E
330
5543F
100
AcDbEntity
  8
Defpoints
 62
     0
100
AcDbPoint
 10
6168.694469812654
 20
-6903.549912551466
 30
0.0
  0
POINT
  5
5548F
330
5543F
100
AcDbEntity
  8
Defpoints
 62
     0
100
AcDbPoint
 10
6174.446523276897
 20
-6895.005681694073
 30
0.0
  0
ENDBLK
  5
55447
330
5543F
100
AcDbEntity
  8
0
100
AcDbBlockEnd
  0
BLOCK
  5
5B323
330
5B31C
100
AcDbEntity
  8
0
100
AcDbBlockBegin
  2
*D25
 70
     1
 10
0.0
 20
0.0
 30
0.0
  3
*D25
  1

  0
LINE
  5
5B349
330
5B31C
100
AcDbEntity
  8
AM_5
100
AcDbLine
 10
6310.468050953463
 20
-6910.406710546253
 30
0.0
 11
6280.860050953465
 21
-6910.406710546253
 31
0.0
  0
LINE
  5
5B34A
330
5B31C
100
AcDbEntity
  8
AM_5
100
AcDbLine
 10
6280.860050953465
 20
-6910.406710546253
 30
0.0
 11
6273.425825394126
 21
-6896.22477767736
 31
0.0
  0
LINE
  5
5B34B
330
5B31C
100
AcDbEntity
  8
AM_5
100
AcDbLine
 10
6267.715167695424
 20
-6885.330816568187
 30
0.0
 11
6267.250886581707
 21
-6884.445128673132
 31
0.0
  0
MTEXT
  5
5B34C
330
5B31C
100
AcDbEntity
  8
AM_5
 62
     2
100
AcDbMText
 10
6296.164050953464
 20
-6907.806710546253
 30
0.0
 40
3.2
 41
0.0
 71
     5
 72
     1
  1
2-%%c5.3×\U+220510.3サラ
 73
     1
 44
1.0
1001
ACAD
1000
MTEXTBEGIN
1070
    73
1070
     1
1070
    44
1040
1.0
1070
    74
1070
     0
1000
MTEXTEND
  0
LINE
  5
5B34D
330
5B31C
100
AcDbEntity
  8
AM_5
100
AcDbLine
 10
6268.17944880914
 20
-6886.216504463241
 30
0.0
 11
6272.961544280411
 21
-6895.339089782304
 31
0.0
  0
INSERT
  5
5B34E
330
5B31C
100
AcDbEntity
  8
AM_5
100
AcDbBlockReference
  2
_Dot
 10
6268.17944880914
 20
-6886.216504463241
 30
0.0
 50
297.663706881648
  0
INSERT
  5
5B34F
330
5B31C
100
AcDbEntity
  8
AM_5
100
AcDbBlockReference
  2
_Dot
 10
6272.961544280411
 20
-6895.339089782304
 30
0.0
 50
117.663706881648
  0
POINT
  5
5B350
330
5B31C
100
AcDbEntity
  8
Defpoints
 62
     0
100
AcDbPoint
 10
6272.961544280411
 20
-6895.339089782304
 30
0.0
  0
POINT
  5
5B351
330
5B31C
100
AcDbEntity
  8
Defpoints
 62
     0
100
AcDbPoint
 10
6268.17944880914
 20
-6886.216504463241
 30
0.0
  0
ENDBLK
  5
5B324
330
5B31C
100
AcDbEntity
  8
0
100
AcDbBlockEnd
  0
ENDSEC
  0
SECTION
  2
ENTITIES
  0
TEXT
  5
31B30
330
1F
100
AcDbEntity
  8
AM_6
 60
     1
100
AcDbText
 10
3408.785415022811
 20
1879.970675238635
 30
0.0
 40
2.5
  1
!GENTITLE-INSERT
100
AcDbText
  0
TEXT
  5
31B31
330
1F
100
AcDbEntity
  8
AM_6
 60
     1
100
AcDbText
 10
3000.285415022811
 20
1871.470675238635
 30
0.0
 40
2.5
  1
!GENTITLE-LL
100
AcDbText
  0
TEXT
  5
31B32
330
1F
100
AcDbEntity
  8
AM_6
 60
     1
100
AcDbText
 10
3420.285415022811
 20
2168.470675238635
 30
0.0
 40
2.5
  1
!GENTITLE-RU
100
AcDbText
  0
TEXT
  5
31B33
330
1F
100
AcDbEntity
  8
AM_6
 60
     1
100
AcDbText
 10
3420.285415022811
 20
2168.470675238635
 30
0.0
 40
2.5
  1
!GENTITLE-MAX
100
AcDbText
  0
TEXT
  5
31B3B
330
1F
100
AcDbEntity
  8
AM_6
 60
     1
100
AcDbText
 10
3000.285415022811
 20
1871.470675238635
 30
0.0
 40
2.5
  1
!GENTITLE-LL
100
AcDbText
  0
TEXT
  5
31B3C
330
1F
100
AcDbEntity
  8
AM_6
 60
     1
100
AcDbText
 10
3408.785415022811
 20
2159.970675238636
 30
0.0
 40
2.5
  1
!GENTITLE-RU
100
AcDbText
  0
TEXT
  5
31B3D
330
1F
100
AcDbEntity
  8
AM_6
 60
     1
100
AcDbText
 10
3420.285415022811
 20
2168.470675238635
 30
0.0
 40
2.5
  1
!GENTITLE-MAX
100
AcDbText
  0
TEXT
  5
31B3E
330
1F
100
AcDbEntity
  8
AM_6
 60
     1
100
AcDbText
 10
3408.785415022811
 20
1879.970675238635
 30
0.0
 40
2.5
  1
!GENTITLE-INSERT
100
AcDbText
  0
TEXT
  5
32D1D
330
1F
100
AcDbEntity
  8
AM_6
 60
     1
100
AcDbText
 10
3234.949399973154
 20
1839.277532086519
 30
0.0
 40
2.5
  1
!GENTITLE-INSERT
100
AcDbText
  0
TEXT
  5
32D1E
330
1F
100
AcDbEntity
  8
AM_6
 60
     1
100
AcDbText
 10
3246.449399973154
 20
2040.77753208652
 30
0.0
 40
2.5
  1
!GENTITLE-MAX
100
AcDbText
  0
TEXT
  5
32D1F
330
1F
100
AcDbEntity
  8
AM_6
 60
     1
100
AcDbText
 10
3246.449399973154
 20
2040.77753208652
 30
0.0
 40
2.5
  1
!GENTITLE-RU
100
AcDbText
  0
TEXT
  5
32D21
330
1F
100
AcDbEntity
  8
AM_6
 60
     1
100
AcDbText
 10
2949.449399973154
 20
1830.777532086519
 30
0.0
 40
2.5
  1
!GENTITLE-LL
100
AcDbText
  0
TEXT
  5
34534
330
1F
100
AcDbEntity
  8
AM_6
 60
     1
100
AcDbText
 10
3774.506320898737
 20
958.0958490755065
 30
0.0
 40
2.5
  1
!GENTITLE-INSERT
100
AcDbText
  0
TEXT
  5
34535
330
1F
100
AcDbEntity
  8
AM_6
 60
     1
100
AcDbText
 10
3786.006320898738
 20
1159.595849075506
 30
0.0
 40
2.5
  1
!GENTITLE-MAX
100
AcDbText
  0
TEXT
  5
34536
330
1F
100
AcDbEntity
  8
AM_6
 60
     1
100
AcDbText
 10
3786.006320898738
 20
1159.595849075506
 30
0.0
 40
2.5
  1
!GENTITLE-RU
100
AcDbText
  0
TEXT
  5
34538
330
1F
100
AcDbEntity
  8
AM_6
 60
     1
100
AcDbText
 10
3489.006320898738
 20
949.5958490755064
 30
0.0
 40
2.5
  1
!GENTITLE-LL
100
AcDbText
  0
LINE
  5
445D5
330
1F
100
AcDbEntity
  8
size
100
AcDbLine
 10
6074.924675701049
 20
-6797.033420435993
 30
0.0
 11
6371.924675701049
 21
-6797.033420435993
 31
0.0
1001
GENIUS_GENREC_14
1002
{
1000
PYDIR
1011
6074.924675701049
1021
-6710.033420435994
1031
0.0
1002
}
1002
{
1000
PXDIR
1011
6494.924675701049
1021
-7007.033420435994
1031
0.0
1002
}
1002
{
1000
PORI
1011
6074.924675701049
1021
-7007.033420435994
1031
0.0
1002
}
1002
{
1000
PINS
1011
6284.924675701049
1021
-6858.533420435994
1031
0.0
1002
}
1002
{
1000
HVAL
1000
297
1002
}
1002
{
1000
H
1070
     2
1002
}
1002
{
1000
WVAL
1000
420
1002
}
1002
{
1000
W
1070
     2
1002
}
1002
{
1000
C
1070
     4
1002
}
1001
GENIUS_GENOBJ-N-REC_13
1002
{
1000
OWNER
1000
GEN
1002
}
1001
GENIUS_GENODEF_13
1002
{
1000
HIER
1070
     0
1002
}
1002
{
1000
MANEDIT
1070
     0
1002
}
1002
{
1000
NOSEL
1070
     0
1002
}
1002
{
1000
BEHIND
1070
     0
1002
}
1002
{
1000
OTHER
1070
     0
1002
}
1002
{
1000
REACTOR
1002
}
  0
LINE
  5
445D6
330
1F
100
AcDbEntity
  8
size
100
AcDbLine
 10
6371.924675701049
 20
-6797.033420435993
 30
0.0
 11
6371.924675701049
 21
-7007.033420435994
 31
0.0
1001
GENIUS_GENREC_14
1002
{
1000
PYDIR
1011
6074.924675701049
1021
-6710.033420435994
1031
0.0
1002
}
1002
{
1000
PXDIR
1011
6494.924675701049
1021
-7007.033420435994
1031
0.0
1002
}
1002
{
1000
PORI
1011
6074.924675701049
1021
-7007.033420435994
1031
0.0
1002
}
1002
{
1000
PINS
1011
6284.924675701049
1021
-6858.533420435994
1031
0.0
1002
}
1002
{
1000
HVAL
1000
297
1002
}
1002
{
1000
H
1070
     2
1002
}
1002
{
1000
WVAL
1000
420
1002
}
1002
{
1000
W
1070
     2
1002
}
1002
{
1000
C
1070
     4
1002
}
1001
GENIUS_GENOBJ-N-REC_13
1002
{
1000
OWNER
1000
GEN
1002
}
1001
GENIUS_GENODEF_13
1002
{
1000
HIER
1070
     0
1002
}
1002
{
1000
MANEDIT
1070
     0
1002
}
1002
{
1000
NOSEL
1070
     0
1002
}
1002
{
1000
BEHIND
1070
     0
1002
}
1002
{
1000
OTHER
1070
     0
1002
}
1002
{
1000
REACTOR
1002
}
  0
LINE
  5
445D7
330
1F
100
AcDbEntity
  8
waku
100
AcDbLine
 10
6086.424675701049
 20
-6998.533420435993
 30
0.0
 11
6360.42467570105
 21
-6998.533420435993
 31
0.0
1001
GENIUS_GENREC_14
1002
{
1000
PYDIR
1011
6074.924675701049
1021
-6710.033420435994
1031
0.0
1002
}
1002
{
1000
PXDIR
1011
6494.924675701049
1021
-7007.033420435994
1031
0.0
1002
}
1002
{
1000
PORI
1011
6074.924675701049
1021
-7007.033420435994
1031
0.0
1002
}
1002
{
1000
PINS
1011
6284.924675701049
1021
-6858.533420435994
1031
0.0
1002
}
1002
{
1000
HVAL
1000
297
1002
}
1002
{
1000
H
1070
     2
1002
}
1002
{
1000
WVAL
1000
420
1002
}
1002
{
1000
W
1070
     2
1002
}
1002
{
1000
C
1070
     4
1002
}
  0
LINE
  5
445D8
330
1F
100
AcDbEntity
  8
waku
100
AcDbLine
 10
6360.42467570105
 20
-6805.533420435994
 30
0.0
 11
6086.424675701049
 21
-6805.533420435994
 31
0.0
1001
GENIUS_GENREC_14
1002
{
1000
PYDIR
1011
5951.92467570105
1021
-6797.033420435993
1031
0.0
1002
}
1002
{
1000
PXDIR
1011
6371.924675701049
1021
-7094.033420435993
1031
0.0
1002
}
1002
{
1000
PORI
1011
5951.92467570105
1021
-7094.033420435993
1031
0.0
1002
}
1002
{
1000
PINS
1011
6161.92467570105
1021
-6945.533420435992
1031
0.0
1002
}
1002
{
1000
HVAL
1000
297
1002
}
1002
{
1000
H
1070
     2
1002
}
1002
{
1000
WVAL
1000
420
1002
}
1002
{
1000
W
1070
     2
1002
}
1002
{
1000
C
1070
     4
1002
}
1001
GENIUS_GENOBJ-N-REC_13
1002
{
1000
OWNER
1000
GEN
1002
}
1001
GENIUS_GENODEF_13
1002
{
1000
HIER
1070
     0
1002
}
1002
{
1000
MANEDIT
1070
     0
1002
}
1002
{
1000
NOSEL
1070
     0
1002
}
1002
{
1000
BEHIND
1070
     0
1002
}
1002
{
1000
OTHER
1070
     0
1002
}
1002
{
1000
REACTOR
1002
}
  0
LINE
  5
445D9
330
1F
100
AcDbEntity
  8
waku
100
AcDbLine
 10
6086.424675701049
 20
-6805.533420435994
 30
0.0
 11
6086.424675701049
 21
-6998.533420435993
 31
0.0
1001
GENIUS_GENREC_14
1002
{
1000
PYDIR
1011
6074.924675701049
1021
-6710.033420435994
1031
0.0
1002
}
1002
{
1000
PXDIR
1011
6494.924675701049
1021
-7007.033420435994
1031
0.0
1002
}
1002
{
1000
PORI
1011
6074.924675701049
1021
-7007.033420435994
1031
0.0
1002
}
1002
{
1000
PINS
1011
6284.924675701049
1021
-6858.533420435994
1031
0.0
1002
}
1002
{
1000
HVAL
1000
297
1002
}
1002
{
1000
H
1070
     2
1002
}
1002
{
1000
WVAL
1000
420
1002
}
1002
{
1000
W
1070
     2
1002
}
1002
{
1000
C
1070
     4
1002
}
1001
GENIUS_GENOBJ-N-REC_13
1002
{
1000
OWNER
1000
GEN
1002
}
1001
GENIUS_GENODEF_13
1002
{
1000
HIER
1070
     0
1002
}
1002
{
1000
MANEDIT
1070
     0
1002
}
1002
{
1000
NOSEL
1070
     0
1002
}
1002
{
1000
BEHIND
1070
     0
1002
}
1002
{
1000
OTHER
1070
     0
1002
}
1002
{
1000
REACTOR
1002
}
  0
LINE
  5
445DA
330
1F
100
AcDbEntity
  8
waku
100
AcDbLine
 10
6360.42467570105
 20
-6998.533420435993
 30
0.0
 11
6360.42467570105
 21
-6805.533420435994
 31
0.0
1001
GENIUS_GENREC_14
1002
{
1000
PYDIR
1011
5951.92467570105
1021
-6791.033420435994
1031
0.0
1002
}
1002
{
1000
PXDIR
1011
6371.924675701049
1021
-7088.033420435994
1031
0.0
1002
}
1002
{
1000
PORI
1011
5951.92467570105
1021
-7088.033420435994
1031
0.0
1002
}
1002
{
1000
PINS
1011
6161.92467570105
1021
-6939.533420435994
1031
0.0
1002
}
1002
{
1000
HVAL
1000
297
1002
}
1002
{
1000
H
1070
     2
1002
}
1002
{
1000
WVAL
1000
420
1002
}
1002
{
1000
W
1070
     2
1002
}
1002
{
1000
C
1070
     4
1002
}
1001
GENIUS_GENOBJ-N-REC_13
1002
{
1000
OWNER
1000
GEN
1002
}
1001
GENIUS_GENODEF_13
1002
{
1000
HIER
1070
     0
1002
}
1002
{
1000
MANEDIT
1070
     0
1002
}
1002
{
1000
NOSEL
1070
     0
1002
}
1002
{
1000
BEHIND
1070
     0
1002
}
1002
{
1000
OTHER
1070
     0
1002
}
1002
{
1000
REACTOR
1002
}
  0
LINE
  5
445DB
330
1F
100
AcDbEntity
  8
size
100
AcDbLine
 10
6074.924675701049
 20
-6797.033420435993
 30
0.0
 11
6074.924675701049
 21
-7007.033420435994
 31
0.0
1001
GENIUS_GENREC_14
1002
{
1000
PYDIR
1011
6074.924675701049
1021
-6710.033420435994
1031
0.0
1002
}
1002
{
1000
PXDIR
1011
6494.924675701049
1021
-7007.033420435994
1031
0.0
1002
}
1002
{
1000
PORI
1011
6074.924675701049
1021
-7007.033420435994
1031
0.0
1002
}
1002
{
1000
PINS
1011
6284.924675701049
1021
-6858.533420435994
1031
0.0
1002
}
1002
{
1000
HVAL
1000
297
1002
}
1002
{
1000
H
1070
     2
1002
}
1002
{
1000
WVAL
1000
420
1002
}
1002
{
1000
W
1070
     2
1002
}
1002
{
1000
C
1070
     4
1002
}
1001
GENIUS_GENOBJ-N-REC_13
1002
{
1000
OWNER
1000
GEN
1002
}
1001
GENIUS_GENODEF_13
1002
{
1000
HIER
1070
     0
1002
}
1002
{
1000
MANEDIT
1070
     0
1002
}
1002
{
1000
NOSEL
1070
     0
1002
}
1002
{
1000
BEHIND
1070
     0
1002
}
1002
{
1000
OTHER
1070
     0
1002
}
1002
{
1000
REACTOR
1002
}
  0
LINE
  5
445DC
330
1F
100
AcDbEntity
  8
size
100
AcDbLine
 10
6074.924675701049
 20
-7007.033420435994
 30
0.0
 11
6371.924675701049
 21
-7007.033420435994
 31
0.0
1001
GENIUS_GENREC_14
1002
{
1000
PYDIR
1011
6074.924675701049
1021
-6710.033420435994
1031
0.0
1002
}
1002
{
1000
PXDIR
1011
6494.924675701049
1021
-7007.033420435994
1031
0.0
1002
}
1002
{
1000
PORI
1011
6074.924675701049
1021
-7007.033420435994
1031
0.0
1002
}
1002
{
1000
PINS
1011
6284.924675701049
1021
-6858.533420435994
1031
0.0
1002
}
1002
{
1000
HVAL
1000
297
1002
}
1002
{
1000
H
1070
     2
1002
}
1002
{
1000
WVAL
1000
420
1002
}
1002
{
1000
W
1070
     2
1002
}
1002
{
1000
C
1070
     4
1002
}
1001
GENIUS_GENOBJ-N-REC_13
1002
{
1000
OWNER
1000
GEN
1002
}
1001
GENIUS_GENODEF_13
1002
{
1000
HIER
1070
     0
1002
}
1002
{
1000
MANEDIT
1070
     0
1002
}
1002
{
1000
NOSEL
1070
     0
1002
}
1002
{
1000
BEHIND
1070
     0
1002
}
1002
{
1000
OTHER
1070
     0
1002
}
1002
{
1000
REACTOR
1002
}
  0
LINE
  5
445DD
330
1F
100
AcDbEntity
  8
AM_5
370
    13
100
AcDbLine
 10
6106.424675701049
 20
-6805.533420435994
 30
0.0
 11
6106.424675701049
 21
-6837.533420435993
 31
0.0
  0
LINE
  5
445DE
330
1F
100
AcDbEntity
  8
AM_5
370
    13
100
AcDbLine
 10
6086.424675701049
 20
-6813.533420435994
 30
0.0
 11
6173.424675701049
 21
-6813.533420435994
 31
0.0
  0
LINE
  5
445DF
330
1F
100
AcDbEntity
  8
AM_5
370
    13
100
AcDbLine
 10
6086.424675701049
 20
-6821.533420435994
 30
0.0
 11
6173.424675701049
 21
-6821.533420435994
 31
0.0
  0
LINE
  5
445E0
330
1F
100
AcDbEntity
  8
AM_5
370
    13
100
AcDbLine
 10
6086.424675701049
 20
-6829.533420435993
 30
0.0
 11
6173.424675701049
 21
-6829.533420435993
 31
0.0
  0
LINE
  5
445E1
330
1F
100
AcDbEntity
  8
AM_0
  6
中線
 48
0.5
370
    30
100
AcDbLine
 10
6086.424675701049
 20
-6837.533420435993
 30
0.0
 11
6173.424675701049
 21
-6837.533420435993
 31
0.0
  0
LINE
  5
445E2
330
1F
100
AcDbEntity
  8
AM_0
  6
中線
 48
0.5
370
    30
100
AcDbLine
 10
6086.424675701049
 20
-6805.533420435994
 30
0.0
 11
6086.424675701049
 21
-6837.533420435993
 31
0.0
  0
LINE
  5
445E3
330
1F
100
AcDbEntity
  8
AM_0
  6
中線
 48
0.5
370
    30
100
AcDbLine
 10
6086.424675701049
 20
-6805.533420435994
 30
0.0
 11
6173.424675701049
 21
-6805.533420435994
 31
0.0
  0
LINE
  5
445E4
330
1F
100
AcDbEntity
  8
AM_0
  6
中線
 48
0.5
370
    30
100
AcDbLine
 10
6173.424675701049
 20
-6805.533420435994
 30
0.0
 11
6173.424675701049
 21
-6837.533420435993
 31
0.0
  0
TEXT
  5
445E5
330
1F
100
AcDbEntity
  8
AM_6
100
AcDbText
 10
6092.08167570105
 20
-6811.133420435993
 30
0.0
 40
3.2
  1
品　名
 41
0.85537027
100
AcDbText
  0
TEXT
  5
445E6
330
1F
100
AcDbEntity
  8
AM_6
100
AcDbText
 10
6092.08167570105
 20
-6819.133420435993
 30
0.0
 40
3.2
  1
品　番
 41
0.85537027
100
AcDbText
  0
TEXT
  5
445E7
330
1F
100
AcDbEntity
  8
AM_6
100
AcDbText
 10
6092.08167570105
 20
-6827.133420435995
 30
0.0
 40
3.2
  1
材　質
 41
0.85537027
100
AcDbText
  0
TEXT
  5
445E8
330
1F
100
AcDbEntity
  8
AM_6
100
AcDbText
 10
6092.08167570105
 20
-6835.133420435994
 30
0.0
 40
3.2
  1
仕上げ
 41
0.85537027
100
AcDbText
  0
TEXT
  5
445E9
330
1F
100
AcDbEntity
  8
AM_6
100
AcDbText
 10
6109.281675701049
 20
-6811.133420435993
 30
0.0
 40
3.2
  1
アジャストファスナー
 41
0.84306961
100
AcDbText
  0
TEXT
  5
445EA
330
1F
100
AcDbEntity
  8
AM_6
100
AcDbText
 10
6109.281675701049
 20
-6819.133420435993
 30
0.0
 40
3.2
  1
ELP-124S
 41
0.84741102
100
AcDbText
  0
TEXT
  5
445EB
330
1F
100
AcDbEntity
  8
AM_6
100
AcDbText
 10
6109.281675701049
 20
-6827.133420435995
 30
0.0
 40
3.2
  1
ステンレス
 41
0.84634979
100
AcDbText
  0
TEXT
  5
445EC
330
1F
100
AcDbEntity
  8
AM_6
100
AcDbText
 10
6109.281675701049
 20
-6835.133420435994
 30
0.0
 40
3.2
  1
光沢バレル研磨
 41
0.84350122
100
AcDbText
  0
TEXT
  5
4E0E8
330
1F
100
AcDbEntity
  8
AM_6
 60
     1
100
AcDbText
 10
5957.394900433246
 20
-5651.939004350452
 30
0.0
 40
2.5
  1
!GENTITLE-INSERT
100
AcDbText
  0
TEXT
  5
4E0E9
330
1F
100
AcDbEntity
  8
AM_6
 60
     1
100
AcDbText
 10
5548.894900433246
 20
-5660.439004350451
 30
0.0
 40
2.5
  1
!GENTITLE-LL
100
AcDbText
  0
TEXT
  5
4E0EA
330
1F
100
AcDbEntity
  8
AM_6
 60
     1
100
AcDbText
 10
5968.894900433246
 20
-5363.439004350452
 30
0.0
 40
2.5
  1
!GENTITLE-RU
100
AcDbText
  0
TEXT
  5
4E0EB
330
1F
100
AcDbEntity
  8
AM_6
 60
     1
100
AcDbText
 10
5968.894900433246
 20
-5363.439004350452
 30
0.0
 40
2.5
  1
!GENTITLE-MAX
100
AcDbText
  0
TEXT
  5
4E0F3
330
1F
100
AcDbEntity
  8
AM_6
 60
     1
100
AcDbText
 10
5548.894900433246
 20
-5660.439004350451
 30
0.0
 40
2.5
  1
!GENTITLE-LL
100
AcDbText
  0
TEXT
  5
4E0F4
330
1F
100
AcDbEntity
  8
AM_6
 60
     1
100
AcDbText
 10
5957.394900433246
 20
-5371.939004350451
 30
0.0
 40
2.5
  1
!GENTITLE-RU
100
AcDbText
  0
TEXT
  5
4E0F5
330
1F
100
AcDbEntity
  8
AM_6
 60
     1
100
AcDbText
 10
5968.894900433246
 20
-5363.439004350452
 30
0.0
 40
2.5
  1
!GENTITLE-MAX
100
AcDbText
  0
TEXT
  5
4E0F6
330
1F
100
AcDbEntity
  8
AM_6
 60
     1
100
AcDbText
 10
5957.394900433246
 20
-5651.939004350452
 30
0.0
 40
2.5
  1
!GENTITLE-INSERT
100
AcDbText
  0
LINE
  5
4F698
330
1F
100
AcDbEntity
  8
AM_0
  6
中線
 48
0.5
370
    30
100
AcDbLine
 10
6264.963729668777
 20
-6948.218050863362
 30
0.0
 11
6264.891484505778
 21
-6946.50773857136
 31
0.0
  0
LINE
  5
4F699
330
1F
100
AcDbEntity
  8
AM_0
  6
中線
 48
0.5
370
    30
100
AcDbLine
 10
6264.370828340776
 20
-6946.029285691359
 30
0.0
 11
6258.987966209777
 21
-6946.25666273436
 31
0.0
  0
LINE
  5
4F69A
330
1F
100
AcDbEntity
  8
AM_0
  6
中線
 48
0.5
370
    30
100
AcDbLine
 10
6226.904239172777
 20
-6947.61190884936
 30
0.0
 11
6227.157458877776
 21
-6953.606563116361
 31
0.0
  0
LINE
  5
4F69B
330
1F
100
AcDbEntity
  8
AM_0
  6
中線
 48
0.5
370
    30
100
AcDbLine
 10
6227.157458877776
 20
-6953.606563116361
 30
0.0
 11
6236.570496544777
 21
-6953.208947755361
 31
0.0
  0
LINE
  5
4F69D
330
1F
100
AcDbEntity
  8
AM_2
  6
細線
370
    13
100
AcDbLine
 10
6216.944485048777
 20
-6948.77578922436
 30
0.0
 11
6217.145266790777
 21
-6953.529041436361
 31
0.0
  0
LINE
  5
4F69E
330
1F
100
AcDbEntity
  8
AM_0
  6
中線
 48
0.5
370
    30
100
AcDbLine
 10
6236.622184926776
 20
-6947.20141389036
 30
0.0
 11
6226.904239172777
 21
-6947.61190884936
 31
0.0
  0
ARC
  5
4F6A0
330
1F
100
AcDbEntity
  8
AM_0
  6
中線
 48
0.5
370
    30
100
AcDbCircle
 10
6209.274536313778
 20
-6939.598800887361
 30
0.0
 40
16.0
100
AcDbArc
 50
286.6195820270192
 51
299.466899001019
  0
ARC
  5
4F6A1
330
1F
100
AcDbEntity
  8
AM_0
  6
中線
 48
0.5
370
    30
100
AcDbCircle
 10
6210.266313492777
 20
-6963.077863433361
 30
0.0
 40
16.0
100
AcDbArc
 50
65.37067790801663
 51
78.21799488101678
  0
LINE
  5
4F6A6
330
1F
100
AcDbEntity
  8
AM_0
  6
中線
 48
0.5
370
    30
100
AcDbLine
 10
6213.915798243777
 20
-6948.159998756361
 30
0.0
 11
6214.169064649777
 21
-6954.155758600361
 31
0.0
  0
ARC
  5
4F6A7
330
1F
100
AcDbEntity
  8
AM_0
  6
中線
 48
0.5
370
    30
100
AcDbCircle
 10
6209.825677044777
 20
-6939.575520196361
 30
0.0
 40
16.0
100
AcDbArc
 50
245.3706779080166
 51
282.8824719229794
  0
ARC
  5
4F6A8
330
1F
100
AcDbEntity
  8
AM_0
  6
中線
 48
0.5
370
    30
100
AcDbCircle
 10
6210.817454223777
 20
-6963.05458274236
 30
0.0
 40
16.0
100
AcDbArc
 50
81.95510498600496
 51
119.4668990010189
  0
ARC
  5
4F6A9
330
1F
100
AcDbEntity
  8
AM_0
  6
中線
 48
0.5
370
    30
100
AcDbCircle
 10
6212.916689198777
 20
-6948.202202040362
 30
0.0
 40
1.0
100
AcDbArc
 50
2.418788453989304
 51
81.95510498600496
  0
ARC
  5
4F6AA
330
1F
100
AcDbEntity
  8
AM_0
  6
中線
 48
0.5
370
    30
100
AcDbCircle
 10
6213.169955604777
 20
-6954.197961884361
 30
0.0
 40
1.0
100
AcDbArc
 50
282.8824719229794
 51
2.418788453989304
  0
ARC
  5
4F6AB
330
1F
100
AcDbEntity
  8
AM_0
  6
中線
 48
0.5
370
    30
100
AcDbCircle
 10
6182.570496544776
 20
-6952.487282131361
 30
0.0
 40
2.5
100
AcDbArc
 50
92.41878845398927
 51
272.4187884539893
  0
LINE
  5
4F6AC
330
1F
100
AcDbEntity
  8
AM_0
  6
中線
 48
0.5
370
    30
100
AcDbLine
 10
6202.946723746777
 20
-6949.124342193361
 30
0.0
 11
6182.464988333777
 21
-6949.989509519361
 31
0.0
  0
LINE
  5
4F6AD
330
1F
100
AcDbEntity
  8
AM_0
  6
中線
 48
0.5
370
    30
100
AcDbLine
 10
6182.676004755777
 20
-6954.98505474236
 30
0.0
 11
6203.157740167777
 21
-6954.119887415361
 31
0.0
  0
ARC
  5
4F6AE
330
1F
100
AcDbEntity
  8
AM_0
  6
中線
 48
0.5
370
    30
100
AcDbCircle
 10
6181.990369525777
 20
-6898.277797122775
 30
0.0
 40
1.0
100
AcDbArc
 50
180.0
 51
270.0
  0
ARC
  5
4F6AF
330
1F
100
AcDbEntity
  8
AM_0
  6
中線
 48
0.5
370
    30
100
AcDbCircle
 10
6181.990369525777
 20
-6883.277797122776
 30
0.0
 40
1.0
100
AcDbArc
 50
90.0
 51
180.0
  0
LINE
  5
4F6B0
330
1F
100
AcDbEntity
  8
AM_0
  6
中線
 48
0.5
370
    30
100
AcDbLine
 10
6265.046886223776
 20
-6893.277797122775
 30
0.0
 11
6265.046886223776
 21
-6888.277797122775
 31
0.0
  0
LINE
  5
4F6B1
330
1F
100
AcDbEntity
  8
AM_0
  6
中線
 48
0.5
370
    30
100
AcDbLine
 10
6264.546886223777
 20
-6887.777797122776
 30
0.0
 11
6259.570496544776
 21
-6887.777797122776
 31
0.0
  0
LINE
  5
4F6B2
330
1F
100
AcDbEntity
  8
AM_0
  6
中線
 48
0.5
370
    30
100
AcDbLine
 10
6227.046886223777
 20
-6887.777797122776
 30
0.0
 11
6227.046886223777
 21
-6893.777797122776
 31
0.0
  0
LINE
  5
4F6B3
330
1F
100
AcDbEntity
  8
AM_0
  6
中線
 48
0.5
370
    30
100
AcDbLine
 10
6227.046886223777
 20
-6893.777797122776
 30
0.0
 11
6249.570496544777
 21
-6893.777797122776
 31
0.0
  0
LINE
  5
4F6B4
330
1F
100
AcDbEntity
  8
AM_0
  6
中線
 48
0.5
370
    30
100
AcDbLine
 10
6265.046886223776
 20
-6893.277797122775
 30
0.0
 11
6264.546886223777
 21
-6893.777797122776
 31
0.0
  0
LINE
  5
4F6B5
330
1F
100
AcDbEntity
  8
AM_0
  6
中線
 48
0.5
370
    30
100
AcDbLine
 10
6264.546886223777
 20
-6887.777797122776
 30
0.0
 11
6265.046886223776
 21
-6888.277797122775
 31
0.0
  0
LINE
  5
4F6B6
330
1F
100
AcDbEntity
  8
AM_0
  6
中線
 48
0.5
370
    30
100
AcDbLine
 10
6264.546886223777
 20
-6887.777797122776
 30
0.0
 11
6264.546886223777
 21
-6893.777797122776
 31
0.0
  0
LINE
  5
4F6B7
330
1F
100
AcDbEntity
  8
AM_2
  6
細線
370
    13
100
AcDbLine
 10
6265.046886223776
 20
-6888.277797122775
 30
0.0
 11
6259.570496544776
 21
-6888.277797122775
 31
0.0
  0
LINE
  5
4F6B8
330
1F
100
AcDbEntity
  8
0部品10
  6
細線
370
    13
100
AcDbLine
 10
6227.046886223777
 20
-6893.277797122775
 30
0.0
 11
6249.570496544777
 21
-6893.277797122775
 31
0.0
  0
ARC
  5
4F6B9
330
1F
100
AcDbEntity
  8
AM_0
  6
中線
 48
0.5
370
    30
100
AcDbCircle
 10
6182.570496544776
 20
-6952.487282131361
 30
0.0
 40
5.5
100
AcDbArc
 50
29.45448024399801
 51
59.99999999998972
  0
ARC
  5
4F6BA
330
1F
100
AcDbEntity
  8
AM_0
  6
中線
 48
0.5
370
    30
100
AcDbCircle
 10
6182.570496544776
 20
-6952.487282131361
 30
0.0
 40
5.5
100
AcDbArc
 50
270.0
 51
335.3830966650145
  0
LINE
  5
4F6BB
330
1F
100
AcDbEntity
  8
AM_0
  6
中線
 48
0.5
370
    30
100
AcDbLine
 10
6182.570496544776
 20
-6954.98728213136
 30
0.0
 11
6165.570496544777
 21
-6954.98728213136
 31
0.0
  0
LINE
  5
4F6BC
330
1F
100
AcDbEntity
  8
AM_0
  6
中線
 48
0.5
370
    30
100
AcDbLine
 10
6165.570496544777
 20
-6954.98728213136
 30
0.0
 11
6165.570496544777
 21
-6957.98728213136
 31
0.0
  0
LINE
  5
4F6BD
330
1F
100
AcDbEntity
  8
AM_0
  6
中線
 48
0.5
370
    30
100
AcDbLine
 10
6165.570496544777
 20
-6957.98728213136
 30
0.0
 11
6182.570496544776
 21
-6957.98728213136
 31
0.0
  0
LINE
  5
4F6BE
330
1F
100
AcDbEntity
  8
AM_0
  6
中線
 48
0.5
370
    30
100
AcDbLine
 10
6185.320496544776
 20
-6947.724142410361
 30
0.0
 11
6180.580115488247
 21
-6944.987282131361
 31
0.0
  0
LINE
  5
4F6BF
330
1F
100
AcDbEntity
  8
AM_0
  6
中線
 48
0.5
370
    30
100
AcDbLine
 10
6180.580115488247
 20
-6944.987282131361
 30
0.0
 11
6179.080115488247
 21
-6947.58535834236
 31
0.0
  0
LINE
  5
4F6C0
330
1F
100
AcDbEntity
  8
AM_0
  6
中線
 48
0.5
370
    30
100
AcDbLine
 10
6179.080115488272
 20
-6947.585358342315
 30
0.0
 11
6183.191102483777
 21
-6949.958837791361
 31
0.0
  0
LINE
  5
4F6C2
330
1F
100
AcDbEntity
  8
AM_7
  6
中心線1
 48
0.5
370
    13
100
AcDbLine
 10
6171.570496544777
 20
-6951.987282131359
 30
0.0
 11
6171.570496544777
 21
-6960.98728213136
 31
0.0
  0
LINE
  5
4F6C3
330
1F
100
AcDbEntity
  8
AM_0
  6
中線
 48
0.5
370
    30
100
AcDbLine
 10
6240.570496544776
 20
-6883.277797122776
 30
0.0
 11
6240.570496544776
 21
-6885.527797122775
 31
0.0
  0
LINE
  5
4F6C4
330
1F
100
AcDbEntity
  8
AM_7
  6
中心線1
 48
0.5
370
    13
100
AcDbLine
 10
6301.570496544776
 20
-6890.777797122776
 30
0.0
 11
6162.070496544777
 21
-6890.777797122776
 31
0.0
  0
ARC
  5
4F6C5
330
1F
100
AcDbEntity
  8
AM_0
  6
中線
 48
0.5
370
    30
100
AcDbCircle
 10
6275.070496544777
 20
-6901.777797122775
 30
0.0
 40
1.5
100
AcDbArc
 50
270.0
 51
0.0
  0
ARC
  5
4F6C6
330
1F
100
AcDbEntity
  8
AM_0
  6
中線
 48
0.5
370
    30
100
AcDbCircle
 10
6255.070496544777
 20
-6901.777797122775
 30
0.0
 40
1.5
100
AcDbArc
 50
180.0
 51
270.0
  0
ARC
  5
4F6C7
330
1F
100
AcDbEntity
  8
AM_0
  6
中線
 48
0.5
370
    30
100
AcDbCircle
 10
6255.070496544777
 20
-6879.777797122776
 30
0.0
 40
1.5
100
AcDbArc
 50
90.0
 51
180.0
  0
ARC
  5
4F6C8
330
1F
100
AcDbEntity
  8
AM_0
  6
中線
 48
0.5
370
    30
100
AcDbCircle
 10
6275.070496544777
 20
-6879.777797122776
 30
0.0
 40
1.5
100
AcDbArc
 50
0.0
 51
90.0
  0
LINE
  5
4F6C9
330
1F
100
AcDbEntity
  8
AM_0
  6
中線
 48
0.5
370
    30
100
AcDbLine
 10
6253.570496544777
 20
-6901.777797122775
 30
0.0
 11
6253.570496544777
 21
-6900.777797122775
 31
0.0
  0
LINE
  5
4F6CA
330
1F
100
AcDbEntity
  8
AM_0
  6
中線
 48
0.5
370
    30
100
AcDbLine
 10
6275.070496544777
 20
-6903.277797122775
 30
0.0
 11
6255.070496544777
 21
-6903.277797122775
 31
0.0
  0
LINE
  5
4F6CB
330
1F
100
AcDbEntity
  8
AM_0
  6
中線
 48
0.5
370
    30
100
AcDbLine
 10
6276.570496544777
 20
-6879.777797122776
 30
0.0
 11
6276.570496544777
 21
-6880.248535629776
 31
0.0
  0
LINE
  5
4F6CC
330
1F
100
AcDbEntity
  8
AM_0
  6
中線
 48
0.5
370
    30
100
AcDbLine
 10
6255.070496544777
 20
-6878.277797122776
 30
0.0
 11
6275.070496544777
 21
-6878.277797122776
 31
0.0
  0
LINE
  5
4F6CD
330
1F
100
AcDbEntity
  8
AM_0
  6
中線
 48
0.5
370
    30
100
AcDbLine
 10
6253.570496544777
 20
-6880.777797122775
 30
0.0
 11
6253.570496544777
 21
-6879.777797122776
 31
0.0
  0
LINE
  5
4F6CE
330
1F
100
AcDbEntity
  8
AM_0
  6
中線
 48
0.5
370
    30
100
AcDbLine
 10
6276.570496544777
 20
-6885.252493394775
 30
0.0
 11
6276.570496544777
 21
-6896.303100849775
 31
0.0
  0
LINE
  5
4F6CF
330
1F
100
AcDbEntity
  8
AM_0
  6
中線
 48
0.5
370
    30
100
AcDbLine
 10
6276.570496544777
 20
-6901.307058614776
 30
0.0
 11
6276.570496544777
 21
-6901.777797122775
 31
0.0
  0
LINE
  5
4F6D0
330
1F
100
AcDbEntity
  8
AM_0
  6
中線
 48
0.5
370
    30
100
AcDbLine
 10
6236.570496544777
 20
-6901.027797122775
 30
0.0
 11
6248.570496544776
 21
-6901.027797122775
 31
0.0
  0
LINE
  5
4F6D1
330
1F
100
AcDbEntity
  8
AM_0
  6
中線
 48
0.5
370
    30
100
AcDbLine
 10
6248.570496544776
 20
-6880.527797122775
 30
0.0
 11
6236.570496544777
 21
-6880.527797122775
 31
0.0
  0
LINE
  5
4F6D2
330
1F
100
AcDbEntity
  8
AM_0
  6
中線
 48
0.5
370
    30
100
AcDbLine
 10
6248.570496544776
 20
-6877.527797122775
 30
0.0
 11
6248.570496544776
 21
-6880.527797122775
 31
0.0
  0
LINE
  5
4F6D3
330
1F
100
AcDbEntity
  8
AM_0
  6
中線
 48
0.5
370
    30
100
AcDbLine
 10
6236.570496544777
 20
-6877.527797122775
 30
0.0
 11
6248.570496544776
 21
-6877.527797122775
 31
0.0
  0
LINE
  5
4F6D4
330
1F
100
AcDbEntity
  8
AM_0
  6
中線
 48
0.5
370
    30
100
AcDbLine
 10
6248.570496544776
 20
-6904.027797122775
 30
0.0
 11
6248.570496544776
 21
-6901.027797122775
 31
0.0
  0
LINE
  5
4F6D5
330
1F
100
AcDbEntity
  8
AM_0
  6
中線
 48
0.5
370
    30
100
AcDbLine
 10
6236.570496544777
 20
-6904.027797122775
 30
0.0
 11
6248.570496544776
 21
-6904.027797122775
 31
0.0
  0
LINE
  5
4F6D6
330
1F
100
AcDbEntity
  8
AM_0
  6
中線
 48
0.5
370
    30
100
AcDbLine
 10
6236.570496544777
 20
-6877.527797122775
 30
0.0
 11
6236.570496544777
 21
-6887.777797122776
 31
0.0
  0
ARC
  5
4F6D7
330
1F
100
AcDbEntity
  8
AM_0
  6
中線
 48
0.5
370
    30
100
AcDbCircle
 10
6180.490369525777
 20
-6898.277797122775
 30
0.0
 40
1.0
100
AcDbArc
 50
180.0
 51
270.0
  0
LINE
  5
4F6D8
330
1F
100
AcDbEntity
  8
AM_0
  6
中線
 48
0.5
370
    30
100
AcDbLine
 10
6179.490369525777
 20
-6883.277797122776
 30
0.0
 11
6179.490369525777
 21
-6898.277797122775
 31
0.0
  0
LINE
  5
4F6D9
330
1F
100
AcDbEntity
  8
AM_0
  6
中線
 48
0.5
370
    30
100
AcDbLine
 10
6180.990369525777
 20
-6883.277797122776
 30
0.0
 11
6180.990369525777
 21
-6898.277797122775
 31
0.0
  0
CIRCLE
  5
4F6DA
330
1F
100
AcDbEntity
  8
AM_3
  6
陰線1
 48
0.5
370
    13
100
AcDbCircle
 10
6255.570496544777
 20
-6890.777797122776
 30
0.0
 40
5.15
  0
CIRCLE
  5
4F6DB
330
1F
100
AcDbEntity
  8
AM_0
  6
中線
 48
0.5
370
    30
100
AcDbCircle
 10
6270.570496544777
 20
-6890.777797122776
 30
0.0
 40
5.15
  0
CIRCLE
  5
4F6DC
330
1F
100
AcDbEntity
  8
AM_0
  6
中線
 48
0.5
370
    30
100
AcDbCircle
 10
6270.570496544777
 20
-6890.777797122776
 30
0.0
 40
2.649999999999999
  0
CIRCLE
  5
4F6DD
330
1F
100
AcDbEntity
  8
AM_3
  6
陰線1
 48
0.5
370
    13
100
AcDbCircle
 10
6255.570496544777
 20
-6890.777797122776
 30
0.0
 40
2.649999999999999
  0
CIRCLE
  5
4F6DE
330
1F
100
AcDbEntity
  8
AM_0
  6
中線
 48
0.5
370
    30
100
AcDbCircle
 10
6242.570496544777
 20
-6947.987282131361
 30
0.0
 40
4.0
  0
LINE
  5
4F6DF
330
1F
100
AcDbEntity
  8
AM_0
  6
中線
 48
0.5
370
    30
100
AcDbLine
 10
6253.570496544777
 20
-6954.98728213136
 30
0.0
 11
6253.570496544777
 21
-6957.98728213136
 31
0.0
  0
LINE
  5
4F6E0
330
1F
100
AcDbEntity
  8
AM_7
  6
中心線1
 48
0.5
370
    13
100
AcDbLine
 10
6270.570496544777
 20
-6883.627797122776
 30
0.0
 11
6270.570496544777
 21
-6897.927797122775
 31
0.0
  0
LINE
  5
4F6E1
330
1F
100
AcDbEntity
  8
AM_7
  6
中心線1
 48
0.5
370
    13
100
AcDbLine
 10
6270.570496544777
 20
-6951.987282131359
 30
0.0
 11
6270.570496544777
 21
-6960.98728213136
 31
0.0
  0
LINE
  5
4F6E2
330
1F
100
AcDbEntity
  8
AM_7
  6
中心線1
 48
0.5
370
    13
100
AcDbLine
 10
6255.570496544777
 20
-6951.987282131359
 30
0.0
 11
6255.570496544777
 21
-6960.98728213136
 31
0.0
  0
LINE
  5
4F6E4
330
1F
100
AcDbEntity
  8
AM_0
  6
中線
 48
0.5
370
    30
100
AcDbLine
 10
6276.570496544777
 20
-6954.98728213136
 30
0.0
 11
6276.570496544777
 21
-6957.98728213136
 31
0.0
  0
LINE
  5
4F6E5
330
1F
100
AcDbEntity
  8
AM_0
  6
中線
 48
0.5
370
    30
100
AcDbLine
 10
6248.570496544776
 20
-6954.98728213136
 30
0.0
 11
6276.570496544777
 21
-6954.98728213136
 31
0.0
  0
LINE
  5
4F6E6
330
1F
100
AcDbEntity
  8
AM_0
  6
中線
 48
0.5
370
    30
100
AcDbLine
 10
6248.570496544776
 20
-6947.987282131361
 30
0.0
 11
6248.570496544776
 21
-6957.98728213136
 31
0.0
  0
LINE
  5
4F6E7
330
1F
100
AcDbEntity
  8
AM_0
  6
中線
 48
0.5
370
    30
100
AcDbLine
 10
6236.570496544777
 20
-6957.98728213136
 30
0.0
 11
6276.570496544777
 21
-6957.98728213136
 31
0.0
  0
LINE
  5
4F6E8
330
1F
100
AcDbEntity
  8
AM_0
  6
中線
 48
0.5
370
    30
100
AcDbLine
 10
6236.570496544777
 20
-6947.987282131361
 30
0.0
 11
6236.570496544777
 21
-6957.98728213136
 31
0.0
  0
ARC
  5
4F6E9
330
1F
100
AcDbEntity
  8
AM_0
  6
中線
 48
0.5
370
    30
100
AcDbCircle
 10
6180.490369525777
 20
-6883.277797122776
 30
0.0
 40
1.0
100
AcDbArc
 50
90.0
 51
180.0
  0
ARC
  5
4F6EC
330
1F
100
AcDbEntity
  8
AM_0
  6
中線
 48
0.5
370
    30
100
AcDbCircle
 10
6242.570496544777
 20
-6947.987282131361
 30
0.0
 40
6.0
100
AcDbArc
 50
0.0
 51
180.0
  0
LINE
  5
4F6ED
330
1F
100
AcDbEntity
  8
AM_0
  6
中線
 48
0.5
370
    30
100
AcDbLine
 10
6262.820496544777
 20
-6884.527797122776
 30
0.0
 11
6261.570496544777
 21
-6883.277797122776
 31
0.0
  0
LINE
  5
4F6EE
330
1F
100
AcDbEntity
  8
AM_0
  6
中線
 48
0.5
370
    30
100
AcDbLine
 10
6227.046886223777
 20
-6888.277797122775
 30
0.0
 11
6218.296886223777
 21
-6888.277797122775
 31
0.0
  0
LINE
  5
4F6EF
330
1F
100
AcDbEntity
  8
AM_0
  6
中線
 48
0.5
370
    30
100
AcDbLine
 10
6218.296886223777
 20
-6888.277797122775
 30
0.0
 11
6217.046886223776
 21
-6889.527797122775
 31
0.0
  0
LINE
  5
4F6F0
330
1F
100
AcDbEntity
  8
AM_0
  6
中線
 48
0.5
370
    30
100
AcDbLine
 10
6217.046886223776
 20
-6889.527797122775
 30
0.0
 11
6204.046886223776
 21
-6889.527797122775
 31
0.0
  0
LINE
  5
4F6F1
330
1F
100
AcDbEntity
  8
AM_0
  6
中線
 48
0.5
370
    30
100
AcDbLine
 10
6204.046886223776
 20
-6889.527797122775
 30
0.0
 11
6204.046886223776
 21
-6892.027797122775
 31
0.0
  0
LINE
  5
4F6F2
330
1F
100
AcDbEntity
  8
AM_0
  6
中線
 48
0.5
370
    30
100
AcDbLine
 10
6204.046886223776
 20
-6892.027797122775
 30
0.0
 11
6217.046886223776
 21
-6892.027797122775
 31
0.0
  0
LINE
  5
4F6F3
330
1F
100
AcDbEntity
  8
AM_0
  6
中線
 48
0.5
370
    30
100
AcDbLine
 10
6217.046886223776
 20
-6892.027797122775
 30
0.0
 11
6218.296886223777
 21
-6893.277797122775
 31
0.0
  0
LINE
  5
4F6F4
330
1F
100
AcDbEntity
  8
AM_0
  6
中線
 48
0.5
370
    30
100
AcDbLine
 10
6218.296886223777
 20
-6893.277797122775
 30
0.0
 11
6227.046886223777
 21
-6893.277797122775
 31
0.0
  0
LINE
  5
4F6F5
330
1F
100
AcDbEntity
  8
AM_0
  6
中線
 48
0.5
370
    30
100
AcDbLine
 10
6259.570496544776
 20
-6897.277797122775
 30
0.0
 11
6259.570496544776
 21
-6884.277797122774
 31
0.0
  0
LINE
  5
4F6F6
330
1F
100
AcDbEntity
  8
AM_0
  6
中線
 48
0.5
370
    30
100
AcDbLine
 10
6259.070496544777
 20
-6883.777797122775
 30
0.0
 11
6250.070496544776
 21
-6883.777797122775
 31
0.0
  0
LINE
  5
4F6F7
330
1F
100
AcDbEntity
  8
AM_0
  6
中線
 48
0.5
370
    30
100
AcDbLine
 10
6249.570496544777
 20
-6884.277797122774
 30
0.0
 11
6249.570496544777
 21
-6897.277797122775
 31
0.0
  0
LINE
  5
4F6F8
330
1F
100
AcDbEntity
  8
AM_0
  6
中線
 48
0.5
370
    30
100
AcDbLine
 10
6250.070496544776
 20
-6897.777797122775
 30
0.0
 11
6259.070496544777
 21
-6897.777797122775
 31
0.0
  0
LINE
  5
4F6F9
330
1F
100
AcDbEntity
  8
AM_0
  6
中線
 48
0.5
370
    30
100
AcDbLine
 10
6252.570496544777
 20
-6897.777797122775
 30
0.0
 11
6252.570496544777
 21
-6898.277797122775
 31
0.0
  0
LINE
  5
4F6FA
330
1F
100
AcDbEntity
  8
AM_0
  6
中線
 48
0.5
370
    30
100
AcDbLine
 10
6256.570496544777
 20
-6898.277797122775
 30
0.0
 11
6256.570496544777
 21
-6897.777797122775
 31
0.0
  0
LINE
  5
4F6FB
330
1F
100
AcDbEntity
  8
AM_0
  6
中線
 48
0.5
370
    30
100
AcDbLine
 10
6256.570496544777
 20
-6883.777797122775
 30
0.0
 11
6256.570496544777
 21
-6883.277797122776
 31
0.0
  0
LINE
  5
4F6FC
330
1F
100
AcDbEntity
  8
AM_0
  6
中線
 48
0.5
370
    30
100
AcDbLine
 10
6252.570496544777
 20
-6883.277797122776
 30
0.0
 11
6252.570496544777
 21
-6883.777797122775
 31
0.0
  0
LINE
  5
4F6FD
330
1F
100
AcDbEntity
  8
AM_0
  6
中線
 48
0.5
370
    30
100
AcDbLine
 10
6249.570496544777
 20
-6884.277797122774
 30
0.0
 11
6250.070496544776
 21
-6883.777797122775
 31
0.0
  0
LINE
  5
4F6FE
330
1F
100
AcDbEntity
  8
AM_0
  6
中線
 48
0.5
370
    30
100
AcDbLine
 10
6250.070496544776
 20
-6897.777797122775
 30
0.0
 11
6249.570496544777
 21
-6897.277797122775
 31
0.0
  0
LINE
  5
4F6FF
330
1F
100
AcDbEntity
  8
AM_0
  6
中線
 48
0.5
370
    30
100
AcDbLine
 10
6259.570496544776
 20
-6897.277797122775
 30
0.0
 11
6259.070496544777
 21
-6897.777797122775
 31
0.0
  0
LINE
  5
4F700
330
1F
100
AcDbEntity
  8
AM_0
  6
中線
 48
0.5
370
    30
100
AcDbLine
 10
6259.070496544777
 20
-6883.777797122775
 30
0.0
 11
6259.570496544776
 21
-6884.277797122774
 31
0.0
  0
CIRCLE
  5
4F701
330
1F
100
AcDbEntity
  8
AM_0
  6
中線
 48
0.5
370
    30
100
AcDbCircle
 10
6254.481050364777
 20
-6949.449714252361
 30
0.0
 40
2.0
  0
LINE
  5
4F702
330
1F
100
AcDbEntity
  8
AM_2
  6
細線
370
    13
100
AcDbLine
 10
6236.558553578777
 20
-6947.70454761236
 30
0.0
 11
6226.925340814776
 21
-6948.11146337236
 31
0.0
  0
CIRCLE
  5
4F703
330
1F
100
AcDbEntity
  8
AM_0
  6
中線
 48
0.5
370
    30
100
AcDbCircle
 10
6209.046886223777
 20
-6951.368895099361
 30
0.0
 40
4.0
  0
LINE
  5
4F704
330
1F
100
AcDbEntity
  8
AM_0
  6
中線
 48
0.5
370
    30
100
AcDbLine
 10
6249.570496544777
 20
-6884.277797122774
 30
0.0
 11
6259.570496544776
 21
-6884.277797122774
 31
0.0
  0
LINE
  5
4F705
330
1F
100
AcDbEntity
  8
AM_0
  6
中線
 48
0.5
370
    30
100
AcDbLine
 10
6249.570496544777
 20
-6897.277797122775
 30
0.0
 11
6259.570496544776
 21
-6897.277797122775
 31
0.0
  0
LINE
  5
4F706
330
1F
100
AcDbEntity
  8
AM_0
  6
中線
 48
0.5
370
    30
100
AcDbLine
 10
6187.570496544776
 20
-6882.277797122775
 30
0.0
 11
6180.490369525777
 21
-6882.277797122775
 31
0.0
  0
LINE
  5
4F70F
330
1F
100
AcDbEntity
  8
AM_0
  6
中線
 48
0.5
370
    30
100
AcDbLine
 10
6261.124200067777
 20
-6952.78416503536
 30
0.0
 11
6276.645115130222
 21
-6954.689893775209
 31
0.0
  0
LINE
  5
4F710
330
1F
100
AcDbEntity
  8
AM_0
  6
中線
 48
0.5
370
    30
100
AcDbLine
 10
6277.254461846183
 20
-6949.727163017104
 30
0.0
 11
6261.733546784777
 21
-6947.82143427636
 31
0.0
  0
ARC
  5
4F713
330
1F
100
AcDbEntity
  8
AM_2
  6
細線
370
    13
100
AcDbCircle
 10
6259.567849391777
 20
-6950.07429463736
 30
0.0
 40
3.125
100
AcDbArc
 50
306.5113416289977
 51
38.96991015400779
  0
ARC
  5
4F714
330
1F
100
AcDbEntity
  8
AM_0
  6
中線
 48
0.5
370
    30
100
AcDbCircle
 10
6256.934245057777
 20
-6943.70428194036
 30
0.0
 40
10.0
100
AcDbArc
 50
263.295338249004
 51
294.7711855030068
  0
ARC
  5
4F715
330
1F
100
AcDbEntity
  8
AM_0
  6
中線
 48
0.5
370
    30
100
AcDbCircle
 10
6255.471428814777
 20
-6955.617964180361
 30
0.0
 40
10.0
100
AcDbArc
 50
51.2288144970042
 51
82.70466175097423
  0
LINE
  5
4F716
330
1F
100
AcDbEntity
  8
AM_2
  6
細線
370
    13
100
AcDbLine
 10
6261.608924415778
 20
-6948.83640201736
 30
0.0
 11
6261.225963902777
 21
-6951.955365108361
 31
0.0
  0
LINE
  5
4F717
330
1F
100
AcDbEntity
  8
AM_0
  6
中線
 48
0.5
370
    30
100
AcDbLine
 10
6255.766711448777
 20
-6953.636041084362
 30
0.0
 11
6248.570496544776
 21
-6952.750271159361
 31
0.0
  0
LINE
  5
4F718
330
1F
100
AcDbEntity
  8
AM_0
  6
中線
 48
0.5
370
    30
100
AcDbLine
 10
6247.500100005777
 20
-6944.56690061536
 30
0.0
 11
6256.741285942776
 21
-6945.69876878436
 31
0.0
  0
ARC
  5
4F71A
330
1F
100
AcDbEntity
  8
AM_2
  6
細線
370
    13
100
AcDbCircle
 10
6276.570496544777
 20
-6882.566969393775
 30
0.0
 40
3.0
100
AcDbArc
 50
319.3100993770129
 51
35.35496467699279
  0
LINE
  5
4F71B
330
1F
100
AcDbEntity
  8
AM_0
  6
中線
 48
0.5
370
    30
100
AcDbLine
 10
6289.093951381777
 20
-6900.764087476776
 30
0.0
 11
6262.820496544777
 21
-6902.027797122776
 31
0.0
  0
LINE
  5
4F71C
330
1F
100
AcDbEntity
  8
AM_0
  6
中線
 48
0.5
370
    30
100
AcDbLine
 10
6288.833657206778
 20
-6895.770866966775
 30
0.0
 11
6262.820496544777
 21
-6897.027797122776
 31
0.0
  0
LINE
  5
4F71D
330
1F
100
AcDbEntity
  8
AM_0
  6
中線
 48
0.5
370
    30
100
AcDbLine
 10
6288.833657206778
 20
-6885.784727278776
 30
0.0
 11
6262.820496544777
 21
-6884.527797122776
 31
0.0
  0
LINE
  5
4F71E
330
1F
100
AcDbEntity
  8
AM_0
  6
中線
 48
0.5
370
    30
100
AcDbLine
 10
6289.093951381777
 20
-6880.791506768776
 30
0.0
 11
6262.820496544777
 21
-6879.527797122775
 31
0.0
  0
ARC
  5
4F71F
330
1F
100
AcDbEntity
  8
AM_2
  6
細線
370
    13
100
AcDbCircle
 10
6276.570496544777
 20
-6898.988624851776
 30
0.0
 40
3.0
100
AcDbArc
 50
324.6450353230072
 51
40.68990062298707
  0
ARC
  5
4F720
330
1F
100
AcDbEntity
  8
AM_0
  6
中線
 48
0.5
370
    30
100
AcDbCircle
 10
6288.570496544776
 20
-6890.777797122776
 30
0.0
 40
10.0
100
AcDbArc
 50
273.0005466310144
 51
86.9994533689856
  0
ARC
  5
4F721
330
1F
100
AcDbEntity
  8
AM_0
  6
中線
 48
0.5
370
    30
100
AcDbCircle
 10
6288.570496544776
 20
-6890.777797122776
 30
0.0
 40
5.0
100
AcDbArc
 50
273.0169930649833
 51
86.9830069350167
  0
LINE
  5
4F724
330
1F
100
AcDbEntity
  8
AM_2
  6
細線
370
    13
100
AcDbLine
 10
6261.570496544777
 20
-6882.951411017775
 30
0.0
 11
6261.570496544777
 21
-6881.145232822776
 31
0.0
  0
LINE
  5
4F725
330
1F
100
AcDbEntity
  8
AM_0
  6
中線
 48
0.5
370
    30
100
AcDbLine
 10
6261.570496544777
 20
-6880.777797122775
 30
0.0
 11
6262.820496544777
 21
-6879.527797122775
 31
0.0
  0
LINE
  5
4F726
330
1F
100
AcDbEntity
  8
AM_0
  6
中線
 48
0.5
370
    30
100
AcDbLine
 10
6237.570496544776
 20
-6880.777797122775
 30
0.0
 11
6261.570496544777
 21
-6880.777797122775
 31
0.0
  0
LINE
  5
4F727
330
1F
100
AcDbEntity
  8
AM_0
  6
中線
 48
0.5
370
    30
100
AcDbLine
 10
6237.570496544776
 20
-6883.277797122776
 30
0.0
 11
6237.570496544776
 21
-6880.777797122775
 31
0.0
  0
LINE
  5
4F728
330
1F
100
AcDbEntity
  8
AM_2
  6
細線
370
    13
100
AcDbLine
 10
6261.570496544777
 20
-6898.604183226776
 30
0.0
 11
6261.570496544777
 21
-6900.410361421775
 31
0.0
  0
LINE
  5
4F729
330
1F
100
AcDbEntity
  8
AM_0
  6
中線
 48
0.5
370
    30
100
AcDbLine
 10
6261.570496544777
 20
-6883.277797122776
 30
0.0
 11
6237.570496544776
 21
-6883.277797122776
 31
0.0
  0
LINE
  5
4F72A
330
1F
100
AcDbEntity
  8
AM_0
  6
中線
 48
0.5
370
    30
100
AcDbLine
 10
6261.570496544777
 20
-6900.777797122775
 30
0.0
 11
6262.820496544777
 21
-6902.027797122776
 31
0.0
  0
LINE
  5
4F72B
330
1F
100
AcDbEntity
  8
AM_0
  6
中線
 48
0.5
370
    30
100
AcDbLine
 10
6237.570496544776
 20
-6900.777797122775
 30
0.0
 11
6261.570496544777
 21
-6900.777797122775
 31
0.0
  0
LINE
  5
4F72C
330
1F
100
AcDbEntity
  8
AM_0
  6
中線
 48
0.5
370
    30
100
AcDbLine
 10
6237.570496544776
 20
-6898.277797122775
 30
0.0
 11
6237.570496544776
 21
-6900.777797122775
 31
0.0
  0
LINE
  5
4F72D
330
1F
100
AcDbEntity
  8
AM_0
  6
中線
 48
0.5
370
    30
100
AcDbLine
 10
6261.570496544777
 20
-6898.277797122775
 30
0.0
 11
6237.570496544776
 21
-6898.277797122775
 31
0.0
  0
LINE
  5
4F72E
330
1F
100
AcDbEntity
  8
AM_0
  6
中線
 48
0.5
370
    30
100
AcDbLine
 10
6262.820496544777
 20
-6897.027797122776
 30
0.0
 11
6261.570496544777
 21
-6898.277797122775
 31
0.0
  0
LINE
  5
4F72F
330
1F
100
AcDbEntity
  8
AM_0
  6
中線
 48
0.5
370
    30
100
AcDbLine
 10
6227.136357235777
 20
-6953.107008594361
 30
0.0
 11
6217.145266790777
 21
-6953.529041436361
 31
0.0
  0
LINE
  5
4F730
330
1F
100
AcDbEntity
  8
AM_2
  6
細線
370
    13
100
AcDbLine
 10
6227.136357235777
 20
-6953.107008594361
 30
0.0
 11
6236.570496544777
 21
-6952.708501880362
 31
0.0
  0
LINE
  5
4F731
330
1F
100
AcDbEntity
  8
AM_0
  6
中線
 48
0.5
370
    30
100
AcDbLine
 10
6216.934250369777
 20
-6948.533496214361
 30
0.0
 11
6226.925340814776
 21
-6948.11146337236
 31
0.0
  0
LINE
  5
4F732
330
1F
100
AcDbEntity
  8
AM_0
  6
中線
 48
0.5
370
    30
100
AcDbLine
 10
6264.370828340776
 20
-6946.029285691359
 30
0.0
 11
6264.891484505778
 21
-6946.50773857136
 31
0.0
  0
LINE
  5
4F733
330
1F
100
AcDbEntity
  8
AM_0
  6
中線
 48
0.5
370
    30
100
AcDbLine
 10
6264.370828340776
 20
-6946.029285691359
 30
0.0
 11
6264.460674682776
 21
-6948.156283478361
 31
0.0
  0
LINE
  5
4F734
330
1F
100
AcDbEntity
  8
AM_2
  6
細線
370
    13
100
AcDbLine
 10
6264.891484505778
 20
-6946.50773857136
 30
0.0
 11
6260.022159760777
 21
-6946.713423323361
 31
0.0
  0
LINE
  5
4F735
330
1F
100
AcDbEntity
  8
AM_0
  6
中線
 48
0.5
370
    30
100
AcDbLine
 10
6187.570496544776
 20
-6899.277797122775
 30
0.0
 11
6187.570496544776
 21
-6882.277797122775
 31
0.0
  0
LINE
  5
4F736
330
1F
100
AcDbEntity
  8
AM_0
  6
中線
 48
0.5
370
    30
100
AcDbLine
 10
6180.490369525777
 20
-6899.277797122775
 30
0.0
 11
6187.570496544776
 21
-6899.277797122775
 31
0.0
  0
ARC
  5
4F737
330
1F
100
AcDbEntity
  8
AM_2
  6
細線
370
    13
100
AcDbCircle
 10
6215.166429121777
 20
-6951.11039998336
 30
0.0
 40
3.125
100
AcDbArc
 50
318.2062378279757
 51
42.93264901500118
  0
LINE
  5
4F739
330
1F
100
AcDbEntity
  8
AM_0
  6
中線
 48
0.5
370
    30
100
AcDbLine
 10
6165.070496544776
 20
-6881.777797122776
 30
0.0
 11
6165.070496544776
 21
-6900.094583956931
 31
0.0
  0
LINE
  5
4F73B
330
1F
100
AcDbEntity
  8
AM_7
  6
中心線1
 48
0.5
370
    13
100
AcDbLine
 10
6171.570496544777
 20
-6875.127797122775
 30
0.0
 11
6171.570496544777
 21
-6906.427797122775
 31
0.0
  0
LINE
  5
4F73C
330
1F
100
AcDbEntity
  8
AM_7
  6
中心線1
 48
0.5
370
    13
100
AcDbLine
 10
6164.420496544777
 20
-6899.277797122775
 30
0.0
 11
6178.720496544777
 21
-6899.277797122775
 31
0.0
  0
LINE
  5
4F73D
330
1F
100
AcDbEntity
  8
AM_7
  6
中心線1
 48
0.5
370
    13
100
AcDbLine
 10
6164.420496544777
 20
-6882.277797122775
 30
0.0
 11
6178.720496544777
 21
-6882.277797122775
 31
0.0
  0
LINE
  5
4F73E
330
1F
100
AcDbEntity
  8
AM_2
  6
細線
370
    13
100
AcDbLine
 10
6259.570496544776
 20
-6893.277797122775
 30
0.0
 11
6265.046886223776
 21
-6893.277797122775
 31
0.0
  0
CIRCLE
  5
4F740
330
1F
100
AcDbEntity
  8
AM_0
  6
中線
 48
0.5
370
    30
100
AcDbCircle
 10
6171.570496544777
 20
-6882.277797122775
 30
0.0
 40
5.15
  0
CIRCLE
  5
4F741
330
1F
100
AcDbEntity
  8
AM_0
  6
中線
 48
0.5
370
    30
100
AcDbCircle
 10
6171.570496544777
 20
-6899.277797122775
 30
0.0
 40
5.15
  0
CIRCLE
  5
4F742
330
1F
100
AcDbEntity
  8
AM_0
  6
中線
 48
0.5
370
    30
100
AcDbCircle
 10
6171.570496544777
 20
-6899.277797122775
 30
0.0
 40
2.649999999999999
  0
CIRCLE
  5
4F743
330
1F
100
AcDbEntity
  8
AM_0
  6
中線
 48
0.5
370
    30
100
AcDbCircle
 10
6171.570496544777
 20
-6882.277797122775
 30
0.0
 40
2.649999999999999
  0
LINE
  5
4F744
330
1F
100
AcDbEntity
  8
AM_0
  6
中線
 48
0.5
370
    30
100
AcDbLine
 10
6203.070496544777
 20
-6886.706729310775
 30
0.0
 11
6190.313137231776
 21
-6873.949369997776
 31
0.0
  0
LINE
  5
4F745
330
1F
100
AcDbEntity
  8
AM_0
  6
中線
 48
0.5
370
    30
100
AcDbLine
 10
6180.070496544777
 20
-6878.192010684776
 30
0.0
 11
6180.070496544777
 21
-6882.370214244776
 31
0.0
  0
LINE
  5
4F746
330
1F
100
AcDbEntity
  8
AM_0
  6
中線
 48
0.5
370
    30
100
AcDbLine
 10
6190.313137231776
 20
-6907.606224246776
 30
0.0
 11
6203.070496544777
 21
-6894.848864934775
 31
0.0
  0
LINE
  5
4F747
330
1F
100
AcDbEntity
  8
AM_0
  6
中線
 48
0.5
370
    30
100
AcDbLine
 10
6203.070496544777
 20
-6894.848864934775
 30
0.0
 11
6203.070496544777
 21
-6894.027797122776
 31
0.0
  0
LINE
  5
4F748
330
1F
100
AcDbEntity
  8
AM_0
  6
中線
 48
0.5
370
    30
100
AcDbLine
 10
6203.070496544777
 20
-6887.527797122776
 30
0.0
 11
6203.070496544777
 21
-6886.706729310775
 31
0.0
  0
LINE
  5
4F749
330
1F
100
AcDbEntity
  8
AM_0
  6
中線
 48
0.5
370
    30
100
AcDbLine
 10
6197.356030450777
 20
-6888.063331028776
 30
0.0
 11
6186.777603325777
 21
-6877.484903903776
 31
0.0
  0
LINE
  5
4F74A
330
1F
100
AcDbEntity
  8
AM_0
  6
中線
 48
0.5
370
    30
100
AcDbLine
 10
6185.070496544777
 20
-6878.192010684776
 30
0.0
 11
6185.070496544777
 21
-6882.277797122775
 31
0.0
  0
LINE
  5
4F74B
330
1F
100
AcDbEntity
  8
AM_0
  6
中線
 48
0.5
370
    30
100
AcDbLine
 10
6186.777603325777
 20
-6904.070690341775
 30
0.0
 11
6197.356030450777
 21
-6893.492263216775
 31
0.0
  0
ARC
  5
4F74C
330
1F
100
AcDbEntity
  8
AM_0
  6
中線
 48
0.5
370
    30
100
AcDbCircle
 10
6186.070496544776
 20
-6903.363583559775
 30
0.0
 40
1.0
100
AcDbArc
 50
180.0
 51
314.9999999999997
  0
ARC
  5
4F74D
330
1F
100
AcDbEntity
  8
AM_0
  6
中線
 48
0.5
370
    30
100
AcDbCircle
 10
6186.070496544776
 20
-6878.192010684776
 30
0.0
 40
1.0
100
AcDbArc
 50
45.00000000000023
 51
180.0
  0
ARC
  5
4F74E
330
1F
100
AcDbEntity
  8
AM_0
  6
中線
 48
0.5
370
    30
100
AcDbCircle
 10
6186.070496544776
 20
-6878.192010684776
 30
0.0
 40
6.0
100
AcDbArc
 50
45.00000000000023
 51
180.0
  0
ARC
  5
4F74F
330
1F
100
AcDbEntity
  8
AM_0
  6
中線
 48
0.5
370
    30
100
AcDbCircle
 10
6186.070496544776
 20
-6903.363583559775
 30
0.0
 40
6.0
100
AcDbArc
 50
180.0
 51
314.9999999999997
  0
ARC
  5
4F750
330
1F
100
AcDbEntity
  8
AM_0
  6
中線
 48
0.5
370
    30
100
AcDbCircle
 10
6200.891564356777
 20
-6884.527797122776
 30
0.0
 40
5.0
100
AcDbArc
 50
225.0000000000002
 51
270.0
  0
ARC
  5
4F751
330
1F
100
AcDbEntity
  8
AM_0
  6
中線
 48
0.5
370
    30
100
AcDbCircle
 10
6200.891564356777
 20
-6897.027797122776
 30
0.0
 40
5.0
100
AcDbArc
 50
90.0
 51
134.9999999999997
  0
LINE
  5
4F752
330
1F
100
AcDbEntity
  8
AM_0
  6
中線
 48
0.5
370
    30
100
AcDbLine
 10
6185.070496544777
 20
-6899.277797122775
 30
0.0
 11
6185.070496544777
 21
-6903.363583559775
 31
0.0
  0
LINE
  5
4F753
330
1F
100
AcDbEntity
  8
AM_0
  6
中線
 48
0.5
370
    30
100
AcDbLine
 10
6236.570496544777
 20
-6893.777797122776
 30
0.0
 11
6236.570496544777
 21
-6904.027797122775
 31
0.0
  0
LINE
  5
4F754
330
1F
100
AcDbEntity
  8
0部品10
  6
細線
370
    13
100
AcDbLine
 10
6249.570496544777
 20
-6888.277797122775
 30
0.0
 11
6227.046886223777
 21
-6888.277797122775
 31
0.0
  0
LINE
  5
4F755
330
1F
100
AcDbEntity
  8
AM_0
  6
中線
 48
0.5
370
    30
100
AcDbLine
 10
6249.570496544777
 20
-6887.777797122776
 30
0.0
 11
6227.046886223777
 21
-6887.777797122776
 31
0.0
  0
LINE
  5
4F756
330
1F
100
AcDbEntity
  8
AM_0
  6
中線
 48
0.5
370
    30
100
AcDbLine
 10
6180.070496544777
 20
-6899.277797122775
 30
0.0
 11
6180.070496544777
 21
-6903.363583559775
 31
0.0
  0
LINE
  5
4F758
330
1F
100
AcDbEntity
  8
AM_0
  6
中線
 48
0.5
370
    30
100
AcDbLine
 10
6259.570496544776
 20
-6893.777797122776
 30
0.0
 11
6264.546886223777
 21
-6893.777797122776
 31
0.0
  0
LINE
  5
4F759
330
1F
100
AcDbEntity
  8
AM_0
  6
中線
 48
0.5
370
    30
100
AcDbLine
 10
6214.070496544777
 20
-6887.527797122776
 30
0.0
 11
6203.070496544777
 21
-6887.527797122776
 31
0.0
  0
LINE
  5
4F75A
330
1F
100
AcDbEntity
  8
AM_0
  6
中線
 48
0.5
370
    30
100
AcDbLine
 10
6214.070496544777
 20
-6887.527797122776
 30
0.0
 11
6214.070496544777
 21
-6889.527797122775
 31
0.0
  0
LINE
  5
4F75B
330
1F
100
AcDbEntity
  8
AM_0
  6
中線
 48
0.5
370
    30
100
AcDbLine
 10
6214.070496544777
 20
-6889.527797122775
 30
0.0
 11
6200.891564356777
 21
-6889.527797122775
 31
0.0
  0
LINE
  5
4F75C
330
1F
100
AcDbEntity
  8
AM_0
  6
中線
 48
0.5
370
    30
100
AcDbLine
 10
6200.891564356777
 20
-6892.027797122775
 30
0.0
 11
6214.070496544777
 21
-6892.027797122775
 31
0.0
  0
LINE
  5
4F75D
330
1F
100
AcDbEntity
  8
AM_0
  6
中線
 48
0.5
370
    30
100
AcDbLine
 10
6214.070496544777
 20
-6892.027797122775
 30
0.0
 11
6214.070496544777
 21
-6894.027797122776
 31
0.0
  0
LINE
  5
4F75E
330
1F
100
AcDbEntity
  8
AM_0
  6
中線
 48
0.5
370
    30
100
AcDbLine
 10
6214.070496544777
 20
-6894.027797122776
 30
0.0
 11
6203.070496544777
 21
-6894.027797122776
 31
0.0
  0
ARC
  5
4F75F
330
1F
100
AcDbEntity
  8
AM_0
  6
中線
 48
0.5
370
    30
100
AcDbCircle
 10
6209.046886223777
 20
-6893.514967650775
 30
0.0
 40
4.0
100
AcDbArc
 50
187.3487925939891
 51
352.7365255800126
  0
LINE
  5
4F763
330
1F
100
AcDbEntity
  8
AM_0
  6
中線
 48
0.5
370
    30
100
AcDbLine
 10
6240.570496544776
 20
-6898.277797122775
 30
0.0
 11
6240.570496544776
 21
-6896.027797122775
 31
0.0
  0
LINE
  5
4F764
330
1F
100
AcDbEntity
  8
AM_0
  6
中線
 48
0.5
370
    30
100
AcDbLine
 10
6240.570496544776
 20
-6896.027797122775
 30
0.0
 11
6244.570496544777
 21
-6896.027797122775
 31
0.0
  0
LINE
  5
4F765
330
1F
100
AcDbEntity
  8
AM_0
  6
中線
 48
0.5
370
    30
100
AcDbLine
 10
6244.570496544777
 20
-6896.027797122775
 30
0.0
 11
6244.570496544777
 21
-6898.277797122775
 31
0.0
  0
ARC
  5
4F766
330
1F
100
AcDbEntity
  8
AM_0
  6
中線
 48
0.5
370
    30
100
AcDbCircle
 10
6242.546886223777
 20
-6903.514967650775
 30
0.0
 40
4.0
100
AcDbArc
 50
187.3487925939891
 51
352.7365255800126
  0
LINE
  5
4F767
330
1F
100
AcDbEntity
  8
AM_0
  6
中線
 48
0.5
370
    30
100
AcDbLine
 10
6240.570496544776
 20
-6885.527797122775
 30
0.0
 11
6244.570496544777
 21
-6885.527797122775
 31
0.0
  0
LINE
  5
4F768
330
1F
100
AcDbEntity
  8
AM_0
  6
中線
 48
0.5
370
    30
100
AcDbLine
 10
6244.570496544777
 20
-6885.527797122775
 30
0.0
 11
6244.570496544777
 21
-6883.277797122776
 31
0.0
  0
ARC
  5
4F769
330
1F
100
AcDbEntity
  8
AM_0
  6
中線
 48
0.5
370
    30
100
AcDbCircle
 10
6242.546886223777
 20
-6878.040626593776
 30
0.0
 40
4.0
100
AcDbArc
 50
7.263474419987424
 51
172.6512074060075
  0
LINE
  5
4F775
330
1F
100
AcDbEntity
  8
AM_7
  6
中心線1
 48
0.5
370
    13
100
AcDbLine
 10
6255.570496544777
 20
-6883.627797122776
 30
0.0
 11
6255.570496544777
 21
-6897.927797122775
 31
0.0
  0
DIMENSION
  5
4F890
330
1F
100
AcDbEntity
  8
AM_5
100
AcDbDimension
  2
*D7
 10
6298.570496544776
 20
-6864.192010684776
 30
0.0
 11
6266.488076932277
 21
-6864.192010684776
 31
0.0
 70
   160
  1
（<>）
 71
     5
 42
62.0
  3
SYS$0
100
AcDbAlignedDimension
 13
6236.570496544777
 23
-6877.527797122775
 33
0.0
 14
6298.570496544776
 24
-6890.777797122776
 34
0.0
100
AcDbRotatedDimension
1001
ACAD
1000
DSTYLE
1002
{
1070
   271
1070
     0
1002
}
  0
DIMENSION
  5
4F8C9
330
1F
100
AcDbEntity
  8
AM_5
100
AcDbDimension
  2
*D8
 10
6141.570496544775
 20
-6909.363583559773
 30
0.0
 11
6141.570496544776
 21
-6890.777797122273
 31
0.0
 70
   160
  1
（<>）
 71
     5
 42
37.17157287499958
  3
SYS$0
100
AcDbAlignedDimension
 13
6186.070496544776
 23
-6872.192010684776
 33
0.0
 14
6186.070496544776
 24
-6909.363583559775
 34
0.0
 50
90.0
100
AcDbRotatedDimension
1001
ACAD
1000
DSTYLE
1002
{
1070
   271
1070
     0
1002
}
  0
DIMENSION
  5
4F934
330
1F
100
AcDbEntity
  8
AM_5
100
AcDbDimension
  2
*D9
 10
6306.570496544775
 20
-6903.277797122775
 30
0.0
 11
6306.570496544777
 21
-6890.777797122776
 31
0.0
 70
   160
 71
     5
 42
25.0
  3
SYS$0
100
AcDbAlignedDimension
 13
6275.070496544777
 23
-6878.277797122776
 33
0.0
 14
6275.070496544777
 24
-6903.277797122775
 34
0.0
 50
90.0
100
AcDbRotatedDimension
  0
DIMENSION
  5
4F953
330
1F
100
AcDbEntity
  8
AM_5
100
AcDbDimension
  2
*D10
 10
6187.570496544776
 20
-6864.192010684776
 30
0.0
 11
6175.708233599484
 21
-6864.192010684776
 31
0.0
 70
   160
  1
（<>）
 71
     5
 42
22.5
  3
SYS$0
100
AcDbAlignedDimension
 13
6165.070496544776
 23
-6881.777797122776
 33
0.0
 14
6187.570496544776
 24
-6882.277797122775
 34
0.0
100
AcDbRotatedDimension
  0
DIMENSION
  5
4F98C
330
1F
100
AcDbEntity
  8
AM_5
100
AcDbDimension
  2
*D11
 10
6149.570496544775
 20
-6905.777797122775
 30
0.0
 11
6149.570496544777
 21
-6890.777797122776
 31
0.0
 70
   160
 71
     5
 42
30.0
  3
SYS$0
100
AcDbAlignedDimension
 13
6171.570496544777
 23
-6875.777797122776
 33
0.0
 14
6171.570496544777
 24
-6905.777797122775
 34
0.0
 50
90.0
100
AcDbRotatedDimension
  0
DIMENSION
  5
4F9A2
330
1F
100
AcDbEntity
  8
AM_5
100
AcDbDimension
  2
*D12
 10
6193.156282982526
 20
-6897.692010685026
 30
0.0
 11
6199.350538385538
 21
-6903.88626608804
 31
0.0
 70
   161
  1
%%c<>
 71
     5
 42
4.999999999741703
  3
SYS$0
100
AcDbAlignedDimension
 13
6196.691816888277
 23
-6901.227544590778
 33
0.0
 14
6193.156282982528
 24
-6897.692010685027
 34
0.0
  0
DIMENSION
  5
4F9CC
330
1F
100
AcDbEntity
  8
AM_5
100
AcDbDimension
  2
*D13
 10
6304.405657319775
 20
-6941.987282131361
 30
0.0
 11
6304.405657319777
 21
-6949.987282131359
 31
0.0
 70
   160
  1
（<>）
 71
     5
 42
16.0
  3
SYS$0
100
AcDbAlignedDimension
 13
6276.570496544777
 23
-6957.98728213136
 33
0.0
 14
6242.570496544777
 24
-6941.987282131361
 34
0.0
 50
90.0
100
AcDbRotatedDimension
  0
DIMENSION
  5
4FA00
330
1F
100
AcDbEntity
  8
AM_5
100
AcDbDimension
  2
*D14
 10
6296.405657319775
 20
-6954.98728213136
 30
0.0
 11
6296.405657319777
 21
-6961.733948798026
 31
0.0
 70
   160
 71
     5
 42
3.0
  3
SYS$0
100
AcDbAlignedDimension
 13
6276.570496544777
 23
-6957.98728213136
 33
0.0
 14
6276.570496544777
 24
-6954.98728213136
 34
0.0
 50
90.0
100
AcDbRotatedDimension
  0
DIMENSION
  5
4FA25
330
1F
100
AcDbEntity
  8
AM_5
100
AcDbDimension
  2
*D15
 10
6149.570496544775
 20
-6944.987282131361
 30
0.0
 11
6149.570496544777
 21
-6951.134842661679
 31
0.0
 70
   160
  1
<>
 71
     5
 42
13.0
  3
SYS$0
100
AcDbAlignedDimension
 13
6165.570496544777
 23
-6957.98728213136
 33
0.0
 14
6180.580115488247
 24
-6944.987282131361
 34
0.0
 50
90.0
100
AcDbRotatedDimension
1001
ACAD
1000
DSTYLE
1002
{
1070
   271
1070
     0
1002
}
  0
DIMENSION
  5
4FA5F
330
1F
100
AcDbEntity
  8
AM_5
100
AcDbDimension
  2
*D16
 10
6157.570496544774
 20
-6954.98728213136
 30
0.0
 11
6157.570496544777
 21
-6961.733948798026
 31
0.0
 70
   160
 71
     5
 42
3.0
  3
SYS$0
100
AcDbAlignedDimension
 13
6165.570496544777
 23
-6957.98728213136
 33
0.0
 14
6165.570496544777
 24
-6954.98728213136
 34
0.0
 50
90.0
100
AcDbRotatedDimension
  0
DIMENSION
  5
4FA84
330
1F
100
AcDbEntity
  8
AM_5
100
AcDbDimension
  2
*D17
 10
6270.570496544777
 20
-6925.363583559775
 30
0.0
 11
6263.070496544777
 21
-6925.363583559775
 31
0.0
 70
   160
 71
     5
 42
15.0
  3
SYS$0
100
AcDbAlignedDimension
 13
6255.570496544777
 23
-6897.927797122775
 33
0.0
 14
6270.570496544777
 24
-6897.927797122775
 34
0.0
100
AcDbRotatedDimension
  0
DIMENSION
  5
4FA9A
330
1F
100
AcDbEntity
  8
AM_5
100
AcDbDimension
  2
*D18
 10
6236.570496544777
 20
-6917.363583559775
 30
0.0
 11
6246.070496544777
 21
-6917.363583559775
 31
0.0
 70
   160
 71
     5
 42
19.0
  3
SYS$0
100
AcDbAlignedDimension
 13
6255.570496544777
 23
-6897.927797122775
 33
0.0
 14
6236.570496544777
 24
-6904.027797122775
 34
0.0
100
AcDbRotatedDimension
  0
DIMENSION
  5
4FAB0
330
1F
100
AcDbEntity
  8
AM_5
100
AcDbDimension
  2
*D19
 10
6171.570496544777
 20
-6925.363583559775
 30
0.0
 11
6213.570496544776
 21
-6925.363583559775
 31
0.0
 70
   160
  1
調整範囲62～85
 71
     5
 42
84.0
  3
SYS$0
100
AcDbAlignedDimension
 13
6255.570496544777
 23
-6897.927797122775
 33
0.0
 14
6171.570496544777
 24
-6906.427797122775
 34
0.0
100
AcDbRotatedDimension
  0
DIMENSION
  5
4FAF1
330
1F
100
AcDbEntity
  8
AM_5
100
AcDbDimension
  2
*D20
 10
6187.570496544776
 20
-6917.363583559775
 30
0.0
 11
6179.820496544777
 21
-6917.363583559775
 31
0.0
 70
   160
  1
（<>）
 71
     5
 42
16.0
  3
SYS$0
100
AcDbAlignedDimension
 13
6171.570496544777
 23
-6906.469688095974
 33
0.0
 14
6187.570496544776
 24
-6899.277797122775
 34
0.0
100
AcDbRotatedDimension
  0
DIMENSION
  5
4FB6E
330
1F
100
AcDbEntity
  8
AM_5
100
AcDbDimension
  2
*D21
 10
6157.570496544774
 20
-6899.277797122775
 30
0.0
 11
6157.570496544777
 21
-6890.777797122773
 31
0.0
 70
   160
 71
     5
 42
17.0
  3
SYS$0
100
AcDbAlignedDimension
 13
6164.420496544777
 23
-6882.277797122775
 33
0.0
 14
6164.420496544777
 24
-6899.277797122775
 34
0.0
 50
90.0
100
AcDbRotatedDimension
  0
TEXT
  5
5183F
330
1F
100
AcDbEntity
  8
AM_6
 60
     1
100
AcDbText
 10
5973.602012689372
 20
109.7385382224183
 30
0.0
 40
2.5
  1
!GENTITLE-INSERT
100
AcDbText
  0
TEXT
  5
51840
330
1F
100
AcDbEntity
  8
AM_6
 60
     1
100
AcDbText
 10
5565.102012689372
 20
101.2385382224183
 30
0.0
 40
2.5
  1
!GENTITLE-LL
100
AcDbText
  0
TEXT
  5
51841
330
1F
100
AcDbEntity
  8
AM_6
 60
     1
100
AcDbText
 10
5985.102012689372
 20
398.2385382224184
 30
0.0
 40
2.5
  1
!GENTITLE-RU
100
AcDbText
  0
TEXT
  5
51842
330
1F
100
AcDbEntity
  8
AM_6
 60
     1
100
AcDbText
 10
5985.102012689372
 20
398.2385382224184
 30
0.0
 40
2.5
  1
!GENTITLE-MAX
100
AcDbText
  0
TEXT
  5
5184A
330
1F
100
AcDbEntity
  8
AM_6
 60
     1
100
AcDbText
 10
5565.102012689372
 20
101.2385382224183
 30
0.0
 40
2.5
  1
!GENTITLE-LL
100
AcDbText
  0
TEXT
  5
5184B
330
1F
100
AcDbEntity
  8
AM_6
 60
     1
100
AcDbText
 10
5973.602012689372
 20
389.7385382224184
 30
0.0
 40
2.5
  1
!GENTITLE-RU
100
AcDbText
  0
TEXT
  5
5184C
330
1F
100
AcDbEntity
  8
AM_6
 60
     1
100
AcDbText
 10
5985.102012689372
 20
398.2385382224184
 30
0.0
 40
2.5
  1
!GENTITLE-MAX
100
AcDbText
  0
TEXT
  5
5184D
330
1F
100
AcDbEntity
  8
AM_6
 60
     1
100
AcDbText
 10
5973.602012689372
 20
109.7385382224183
 30
0.0
 40
2.5
  1
!GENTITLE-INSERT
100
AcDbText
  0
DIMENSION
  5
5543E
330
1F
100
AcDbEntity
  8
AM_5
100
AcDbDimension
  2
*D22
 10
6174.446523276897
 20
-6895.005681694073
 30
0.0
 11
6144.974696482999
 21
-6916.050893395797
 31
0.0
 70
   163
  1
2-%%c5.3×<>サラ
 71
     5
 42
10.299999999997
  3
SYS$3
100
AcDbDiametricDimension
 15
6168.694469812654
 25
-6903.549912551466
 35
0.0
 40
0.0
1001
ACAD
1000
DSTYLE
1002
{
1070
    41
1040
1.0
1070
   172
1070
     1
1070
   342
1005
6C4
1002
}
  0
ARC
  5
554AF
330
1F
100
AcDbEntity
  8
AM_0
  6
中線
 48
0.5
370
    30
100
AcDbCircle
 10
6209.046886223777
 20
-6888.040626594776
 30
0.0
 40
4.0
100
AcDbArc
 50
7.263474419984193
 51
172.6512074060108
  0
ARC
  5
5B300
330
1F
100
AcDbEntity
  8
AM_0
  6
中線
 48
0.5
370
    30
100
AcDbCircle
 10
6296.070496544777
 20
-6944.727666234185
 30
0.0
 40
2.500000000000408
100
AcDbArc
 50
294.9670120921232
 51
114.967012092132
  0
LINE
  5
5B301
330
1F
100
AcDbEntity
  8
AM_0
  6
中線
 48
0.5
370
    30
100
AcDbLine
 10
6282.628738166089
 20
-6953.743946647957
 30
0.0
 11
6297.12573751274
 21
-6946.99404362984
 31
0.0
  0
LINE
  5
5B318
330
1F
100
AcDbEntity
  8
AM_0
  6
中線
 48
0.5
370
    30
100
AcDbLine
 10
6280.518256229768
 20
-6949.211191856831
 30
0.0
 11
6295.015255576814
 21
-6942.461288838531
 31
0.0
  0
ARC
  5
5B319
330
1F
100
AcDbEntity
  8
AM_0
  6
中線
 48
0.5
370
    30
100
AcDbCircle
 10
6277.985677906657
 20
-6943.771886107261
 30
0.0
 40
6.0
100
AcDbArc
 50
262.9999999995787
 51
294.9670120921238
1001
GENIUS_GENODEF_13
1002
{
1000
HIER
1070
     0
1002
}
1002
{
1000
MANEDIT
1070
     0
1002
}
1002
{
1000
NOSEL
1070
     0
1002
}
1002
{
1000
BEHIND
1070
     0
1002
}
1002
{
1000
OTHER
1070
     0
1002
}
1002
{
1000
REACTOR
1002
}
1001
GENIUS_GENOBJ-N-FIL_13
1002
{
1000
OWNER
1000
GEN
1002
}
  0
ARC
  5
5B31A
330
1F
100
AcDbEntity
  8
0部品18
100
AcDbCircle
 10
6277.985677907053
 20
-6943.771886107078
 30
0.0
 40
11.0
100
AcDbArc
 50
263.0000000032901
 51
294.9670120921238
1001
GENIUS_GENOBJ-N-FIL_13
1002
{
1000
OWNER
1000
GEN
1002
}
1001
GENIUS_GENODEF_13
1002
{
1000
HIER
1070
     0
1002
}
1002
{
1000
MANEDIT
1070
     0
1002
}
1002
{
1000
NOSEL
1070
     0
1002
}
1002
{
1000
BEHIND
1070
     0
1002
}
1002
{
1000
OTHER
1070
     0
1002
}
1002
{
1000
REACTOR
1002
}
  0
DIMENSION
  5
5B31B
330
1F
100
AcDbEntity
  8
AM_5
100
AcDbDimension
  2
*D25
 10
6268.17944880914
 20
-6886.216504463241
 30
0.0
 11
6296.164050953464
 21
-6910.406710546253
 31
0.0
 70
   163
  1
2-%%c5.3×<>サラ
 71
     5
 42
10.29999999999745
  3
SYS$3
100
AcDbDiametricDimension
 15
6272.961544280411
 25
-6895.339089782304
 35
0.0
 40
0.0
1001
ACAD
1000
DSTYLE
1002
{
1070
    41
1040
1.0
1070
   172
1070
     1
1070
   342
1005
6C4
1002
}
  0
ARC
  5
5B370
330
1F
100
AcDbEntity
  8
0部品18
100
AcDbCircle
 10
6171.070496544777
 20
-6881.777797122776
 30
0.0
 40
6.000000000000116
100
AcDbArc
 50
59.04903453525742
 51
180.0
  0
LINE
  5
5B371
330
1F
100
AcDbEntity
  8
0部品18
100
AcDbLine
 10
6180.070496544777
 20
-6880.178859632478
 30
0.0
 11
6174.156322407998
 21
-6876.632150541258
 31
0.0
  0
ARC
  5
5B384
330
1F
100
AcDbEntity
  8
0部品18
100
AcDbCircle
 10
6171.070496544777
 20
-6899.777797122775
 30
0.0
 40
6.000000000000116
100
AcDbArc
 50
180.0
 51
300.9509654647402
  0
LINE
  5
5B385
330
1F
100
AcDbEntity
  8
AM_0
  6
中線
 48
0.5
370
    30
100
AcDbLine
 10
6180.070496544777
 20
-6901.376734613075
 30
0.0
 11
6174.156322407998
 21
-6904.923443704293
 31
0.0
  0
ENDSEC
  0
SECTION
  2
OBJECTS
  0
DICTIONARY
  5
C
330
0
100
AcDbDictionary
281
     1
  3
ACAD_2007HEADERVARS_RT
350
5B620
  3
ACAD_BGPLOT_KEY
350
AB06
  3
ACAD_COLOR
350
A91D
  3
ACAD_GROUP
350
D
  3
ACAD_LAYOUT
350
1A
  3
ACAD_MATERIAL
350
A91C
  3
ACAD_MLINESTYLE
350
17
  3
ACAD_PLOTSETTINGS
350
19
  3
ACAD_PLOTSTYLENAME
350
E
  3
ACAD_TABLESTYLE
350
AAB9
  3
ACAD_VISUALSTYLE
350
B0F1
  3
AcAsAppObject
350
3DA1
  3
ACASGREF_MASTER
350
3DE9
  3
AcDbVariableDictionary
350
34
  3
AcmDictionary
350
47
  3
AD_GREF_MODULE
350
3DEA
  3
AD_MAPI_MODULE
350
3E06
  3
AMG
350
2B
  3
AMGSNAPSETTINGS
350
7D
  3
ASE_INDEX_DICTIONARY
350
57912
  3
DWGPROPS
350
5B61F
  3
MAPISURF_MODULE
350
3DEB
  0
DICTIONARY
  5
3F95
330
2
100
AcDbDictionary
280
     1
281
     1
  3
ACAD_LAYERFILTERS
360
5369F
  3
ACAD_LAYERSTATES
360
3F96
  3
ACLYDICTIONARY
360
5369E
  3
AMLAYER_GROUPCOLORS
360
AAB4
  0
DICTIONARY
  5
5B456
330
5B455
100
AcDbDictionary
280
     1
281
     1
  3
ADSK_XREC_LAYER_RECONCILED
360
5B457
  0
DICTIONARY
  5
8A
330
1F
100
AcDbDictionary
280
     1
281
     1
  3
ACAD_SORTENTS
360
B1BA
  0
DICTIONARY
  5
5B620
102
{ACAD_REACTORS
330
C
102
}
330
C
100
AcDbDictionary
281
     1
  3
DIMARCSYM
350
5B621
  0
DICTIONARY
  5
AB06
102
{ACAD_REACTORS
330
C
102
}
330
C
100
AcDbDictionary
280
     1
281
     1
  0
DICTIONARY
  5
A91D
102
{ACAD_REACTORS
330
C
102
}
330
C
100
AcDbDictionary
281
     1
  0
DICTIONARY
  5
D
102
{ACAD_REACTORS
330
C
102
}
330
C
100
AcDbDictionary
281
     1
  0
DICTIONARY
  5
1A
102
{ACAD_REACTORS
330
C
102
}
330
C
100
AcDbDictionary
281
     1
  3
Model
350
22
  3
ﾚｲｱｳﾄ1
350
1E
  3
ﾚｲｱｳﾄ2
350
26
  0
DICTIONARY
  5
A91C
102
{ACAD_REACTORS
330
C
102
}
330
C
100
AcDbDictionary
281
     1
  3
ByBlock
350
B0EF
  3
ByLayer
350
B0EE
  3
Global
350
B0F0
  0
DICTIONARY
  5
17
102
{ACAD_REACTORS
330
C
102
}
330
C
100
AcDbDictionary
281
     1
  3
Standard
350
18
  0
DICTIONARY
  5
19
102
{ACAD_REACTORS
330
C
102
}
330
C
100
AcDbDictionary
281
     1
  0
ACDBDICTIONARYWDFLT
  5
E
102
{ACAD_REACTORS
330
C
102
}
330
C
100
AcDbDictionary
281
     1
  3
Normal
350
F
100
AcDbDictionaryWithDefault
340
F
  0
DICTIONARY
  5
AAB9
102
{ACAD_REACTORS
330
C
102
}
330
C
100
AcDbDictionary
281
     1
  3
Standard
350
AABA
  0
DICTIONARY
  5
B0F1
102
{ACAD_REACTORS
330
C
102
}
330
C
100
AcDbDictionary
281
     1
  3
2dWireframe
350
B0F7
  3
3D Hidden
350
B0F9
  3
3dWireframe
350
B0F8
  3
Basic
350
B0F6
  3
Brighten
350
B0FD
  3
ColorChange
350
B101
  3
Conceptual
350
B0FA
  3
Dim
350
B0FC
  3
Facepattern
350
B100
  3
Flat
350
B0F2
  3
FlatWithEdges
350
B0F3
  3
Gouraud
350
B0F4
  3
GouraudWithEdges
350
B0F5
  3
Linepattern
350
B0FF
  3
Realistic
350
B0FB
  3
Thicken
350
B0FE
  0
ACAD_PROXY_OBJECT
  5
3DA1
102
{ACAD_REACTORS
330
C
102
}
330
C
100
AcDbProxyObject
 90
      499
 91
      576
 95
   917527
 70
     0
 93
       10
310
407F
 94
        0
1001
ACAD
1000
AcRTDxfName
1000
ASAPP
  0
ACAD_PROXY_OBJECT
  5
3DE9
102
{ACAD_REACTORS
330
C
102
}
330
C
100
AcDbProxyObject
 90
      499
 91
      581
 95
   917527
 70
     0
 93
       34
310
010000407F
 94
        0
1001
ACAD
1000
AcRTDxfName
1000
ACASGREFMASTER
  0
DICTIONARY
  5
34
102
{ACAD_REACTORS
330
C
102
}
330
C
100
AcDbDictionary
281
     1
  3
CTABLESTYLE
350
AAF3
  3
DIMASSOC
350
A10C
  3
FIELDEVAL
350
AB07
  3
INDEXCTL
350
35
  3
SORTENTS
350
194C
  0
DICTIONARY
  5
47
102
{ACAD_REACTORS
330
C
102
}
330
C
100
AcDbDictionary
281
     1
  3
AcmBOM
350
7E8
  3
AcmStdDictionary
350
4C
  3
AMDTSECTSYM_ARROWCOLOR
350
A929
  0
ACAD_PROXY_OBJECT
  5
3DEA
102
{ACAD_REACTORS
330
C
102
}
330
C
100
AcDbProxyObject
 90
      499
 91
      582
 95
   917527
 70
     0
 93
      114
310
00000043800000000000000000003F
 94
        0
1001
ACAD
1000
AcRTDxfName
1000
ACADGREFMODULE
  0
ACAD_PROXY_OBJECT
  5
3E06
102
{ACAD_REACTORS
330
C
102
}
330
C
100
AcDbProxyObject
 90
      499
 91
      594
 95
   917527
 70
     0
 93
       34
310
05000044FF
 94
        0
1001
ACAD
1000
AcRTDxfName
1000
MAPIADMODULE
  0
DICTIONARY
  5
2B
102
{ACAD_REACTORS
330
C
102
}
330
C
100
AcDbDictionary
281
     1
  0
DICTIONARY
  5
7D
102
{ACAD_REACTORS
330
C
102
}
330
C
100
AcDbDictionary
281
     1
  0
DICTIONARY
  5
57912
102
{ACAD_REACTORS
330
C
102
}
330
C
100
AcDbDictionary
281
     1
  3
ASEBlockHierarchyIndexRecord
350
57913
1001
DCO15
1040
1757428023.343
  0
XRECORD
  5
5B61F
102
{ACAD_REACTORS
330
C
102
}
330
C
100
AcDbXrecord
280
     1
  1
DWGPROPS COOKIE
  2

  3

  4

  6

  7

  8
Administrator
  9

300
AmdtFileType=84
301
=
302
=
303
=
304
=
305
=
306
=
307
=
308
=
309
=
 40
8.073073773148149
 41
2455567.680725081
 42
2456338.84554162
  1

 90
        1
  0
ACAD_PROXY_OBJECT
  5
3DEB
102
{ACAD_REACTORS
330
C
102
}
330
C
100
AcDbProxyObject
 90
      499
 91
      583
 95
   917527
 70
     0
 93
        8
310
0476
 94
        0
1001
ACAD
1000
AcRTDxfName
1000
AMDTMAPISURFMOUDULE
  0
DICTIONARY
  5
5369F
102
{ACAD_REACTORS
330
3F95
102
}
330
3F95
100
AcDbDictionary
281
     1
  0
DICTIONARY
  5
3F96
102
{ACAD_REACTORS
330
3F95
102
}
330
3F95
100
AcDbDictionary
281
     1
  3
20011210
350
3FB7
  0
DICTIONARY
  5
5369E
102
{ACAD_REACTORS
330
3F95
102
}
330
3F95
100
AcDbDictionary
281
     1
1001
ACAD
1000
<All
  0
DICTIONARY
  5
AAB4
102
{ACAD_REACTORS
330
3F95
102
}
330
3F95
100
AcDbDictionary
280
     1
281
     1
  0
XRECORD
  5
5B457
102
{ACAD_REACTORS
330
5B456
102
}
330
5B456
100
AcDbXrecord
280
     1
290
     1
  0
SORTENTSTABLE
  5
B1BA
102
{ACAD_REACTORS
330
8A
102
}
330
8A
100
AcDbSortentsTable
330
1F
331
4FA84
  5
50114
331
4F727
  5
4F75F
331
4F6C7
  5
4F6FB
331
445E2
  5
446FD
331
31B31
  5
32739
331
4F6ED
  5
4F728
331
4F6A8
  5
4F6D9
331
51842
  5
B5E3
331
4F71D
  5
4F756
331
4F6D8
  5
4F712
331
4E0EB
  5
4E1D6
331
4F6BB
  5
4F6F0
331
445D6
  5
446F1
331
4FAB0
  5
555A7
331
4F74B
  5
4F793
331
4F69E
  5
4F6D2
331
4F72E
  5
4F766
331
4F6E1
  5
4F71D
331
445E9
  5
44707
331
34535
  5
3454D
331
5B300
  5
5B31A
331
4F6CC
  5
4F700
331
4F6F4
  5
4F72F
331
4F6AF
  5
4F6E2
331
4F6DF
  5
4F71B
331
4F767
  5
50100
331
4F6C2
  5
4F6F6
331
445DD
  5
446F8
331
4F752
  5
4F79F
331
4F705
  5
4F740
331
5183F
  5
B5AD
331
4F9A2
  5
5010F
331
4F735
  5
4F773
331
4F6E8
  5
4F723
331
4F890
  5
50105
331
4F718
  5
4F752
331
4F6D3
  5
4F70C
331
4F75B
  5
4F7A8
331
4F6FB
  5
4F736
331
4F6B6
  5
4F6EB
331
5B31A
  5
4F74A
331
4F746
  5
4F788
331
4F699
  5
4F6CE
331
4F729
  5
4F761
331
445E4
  5
446FF
331
31B33
  5
3273B
331
4F934
  5
50109
331
4F73C
  5
4F77B
331
4F6EF
  5
4F72A
331
4F6AA
  5
4F6DB
331
4F71F
  5
4F759
331
4F6DA
  5
4F714
331
32D1E
  5
32D3B
331
4F6BD
  5
4F6F2
331
445D8
  5
446F3
331
4F74D
  5
4F796
331
4F700
  5
4F73B
331
4F6A0
  5
4F6D5
331
4F775
  5
50103
331
4F730
  5
4F768
331
445EB
  5
44709
331
4F713
  5
4F74D
331
4F6CE
  5
4F702
331
554AF
  5
5B318
331
4F6F6
  5
4F731
331
4F6B1
  5
4F6E5
331
5184B
  5
B8D6
331
4F741
  5
4F780
331
4E0F4
  5
4E1DF
331
4FB6E
  5
5B300
331
4F769
  5
50102
331
4F724
  5
4F75C
331
4F6C4
  5
4F6F8
331
445DF
  5
446FA
331
4F754
  5
4F7A1
331
4F6A7
  5
4F6D8
331
4F737
  5
4F775
331
4F71A
  5
4F753
331
4F6D5
  5
4F70F
331
4E0E8
  5
4E1D3
331
4F75D
  5
4F7AE
331
4F6FD
  5
4F738
331
4F6B8
  5
4F6ED
331
4F748
  5
4F78A
331
4F69B
  5
4F6D0
331
4F72B
  5
4F763
331
445E6
  5
44701
331
4F6C9
  5
4F6FD
331
4F73E
  5
4F77E
331
4F6F1
  5
4F72C
331
4F6AC
  5
4F6DE
331
4F6DC
  5
4F717
331
4F764
  5
4F7B2
331
4F6BF
  5
4F6F4
331
445DA
  5
446F5
331
4F9CC
  5
50110
331
4F74F
  5
4F798
331
4F702
  5
4F73D
331
4F732
  5
4F76F
331
4F6E5
  5
4F720
331
4F715
  5
4F74F
331
4F6D0
  5
4F705
331
31B3C
  5
3273D
331
4F758
  5
4F7A5
331
4F6F8
  5
4F733
331
4F6B3
  5
4F6E7
331
5184D
  5
B8D8
331
4F743
  5
4F785
331
4E0F6
  5
4E1E1
331
4F726
  5
4F75E
331
4F6C6
  5
4F6FA
331
445E1
  5
446FC
331
4F756
  5
4F7A3
331
31B30
  5
32738
331
4F739
  5
4F778
331
4F6EC
  5
4F727
331
51841
  5
B5E2
331
4F71C
  5
4F755
331
4F6D7
  5
4F711
331
4E0EA
  5
4E1D5
331
4F75F
  5
4F7B0
331
4F6FF
  5
4F73A
331
4F6BA
  5
4F6EF
331
445D5
  5
446F0
331
4F74A
  5
4F78E
331
4F69D
  5
4F6D1
331
4F72D
  5
4F765
331
4F6E0
  5
4F71C
331
445E8
  5
44703
331
34534
  5
3454C
331
4F710
  5
4F74B
331
4F6CB
  5
4F6FF
331
4F6F3
  5
4F72E
331
4F6AE
  5
4F6E1
331
4F6DE
  5
4F71A
331
4F953
  5
5010A
331
4F766
  5
4F7B4
331
4F721
  5
4F75B
331
445DC
  5
446F7
331
4F751
  5
4F79A
331
4F704
  5
4F73F
331
4F734
  5
4F771
331
4F6E7
  5
4F722
331
4F98C
  5
5010C
331
4F717
  5
4F751
331
4F6D2
  5
4F708
331
31B3E
  5
3273F
331
4F75A
  5
4F7A7
331
4F6FA
  5
4F735
331
4F6B5
  5
4F6EA
331
5B319
  5
4F74C
331
4FA5F
  5
50113
331
4F745
  5
4F787
331
4F698
  5
4F6CD
331
4F728
  5
4F760
331
445E3
  5
446FE
331
31B32
  5
3273A
331
4F73B
  5
4F77A
331
4F6EE
  5
4F729
331
4F6A9
  5
4F6DA
331
4F71E
  5
4F757
331
4F6D9
  5
4F713
331
32D1D
  5
32D3A
331
4F6BC
  5
4F6F1
331
445D7
  5
446F2
331
4F74C
  5
4F794
331
4F72F
  5
4F767
331
4F6E2
  5
4F71E
331
445EA
  5
44708
331
34536
  5
3454E
331
5B301
  5
5B31B
331
4F6CD
  5
4F701
331
4F6F5
  5
4F730
331
4F6B0
  5
4F6E3
331
5184A
  5
B8D5
331
4F740
  5
4F77F
331
4E0F3
  5
4E1DE
331
4F768
  5
50101
331
4F6C3
  5
4F6F7
331
445DE
  5
446F9
331
4F753
  5
4F7A0
331
4F706
  5
4F745
331
4F6A6
  5
4F6D7
331
4F736
  5
4F774
331
4F6E9
  5
4F726
331
4F6D4
  5
4F70E
331
4F75C
  5
4F7AA
331
4F6FC
  5
4F737
331
4F6B7
  5
4F6EC
331
5B31B
  5
5B36D
331
4F747
  5
4F789
331
4F69A
  5
4F6CF
331
4F72A
  5
4F762
331
445E5
  5
44700
331
4F6C8
  5
4F6FC
331
4FA9A
  5
55549
331
4F73D
  5
4F77C
331
4F6F0
  5
4F72B
331
4F6AB
  5
4F6DD
331
4F6DB
  5
4F715
331
32D1F
  5
32D3C
331
4FA00
  5
50111
331
4F763
  5
4F7B1
331
4F6BE
  5
4F6F3
331
445D9
  5
446F4
331
4F74E
  5
4F797
331
4F701
  5
4F73C
331
4F6A1
  5
4F6D6
331
4F731
  5
4F769
331
4F6E4
  5
4F71F
331
445EC
  5
4470A
331
34538
  5
34550
331
4F714
  5
4F74E
331
4F6CF
  5
4F704
331
31B3B
  5
3273C
331
4F6F7
  5
4F732
331
4F6B2
  5
4F6E6
331
5184C
  5
B8D7
331
4F742
  5
4F781
331
4E0F5
  5
4E1E0
331
5543E
  5
5B301
331
4F725
  5
4F75D
331
4F6C5
  5
4F6F9
331
445E0
  5
446FB
331
4F755
  5
4F7A2
331
51840
  5
B5AE
331
4F71B
  5
4F754
331
4F6D6
  5
4F710
331
4E0E9
  5
4E1D4
331
4F75E
  5
4F7AF
331
4F6FE
  5
4F739
331
4F6B9
  5
4F6EE
331
4F749
  5
4F78D
331
4F72C
  5
4F764
331
445E7
  5
44702
331
4FAF1
  5
555A8
331
4F70F
  5
4F747
331
4F6CA
  5
4F6FE
331
4F6F2
  5
4F72D
331
4F6AD
  5
4F6DF
331
4F6DD
  5
4F718
331
32D21
  5
32D3E
331
4F765
  5
4F7B3
331
4F720
  5
4F75A
331
4F6C0
  5
4F6F5
331
445DB
  5
446F6
331
4F750
  5
4F799
331
4F703
  5
4F73E
331
4FA25
  5
50112
331
4F733
  5
4F770
331
4F6E6
  5
4F721
331
4F716
  5
4F750
331
4F6D1
  5
4F706
331
31B3D
  5
3273E
331
4F759
  5
4F7A6
331
4F6F9
  5
4F734
331
4F6B4
  5
4F6E9
331
5B318
  5
5B36C
331
4F8C9
  5
50106
331
4F744
  5
4F786
  0
XRECORD
  5
5B621
102
{ACAD_REACTORS
330
5B620
102
}
330
5B620
100
AcDbXrecord
280
     1
 70
     1
  0
LAYOUT
  5
22
102
{ACAD_XDICTIONARY
360
5B624
102
}
102
{ACAD_REACTORS
330
1A
102
}
330
1A
100
AcDbPlotSettings
  1

  2
FX DocuWide 2050/2051
  4
A3
  6
AM_VIEW1
 40
3.174999952316284
 41
3.174999952316284
 42
3.17498779296875
 43
3.17498779296875
 44
296.989501953125
 45
419.9889831542968
 46
0.0
 47
1.295841228961961
 48
214.3704939521119
 49
367.5855324241176
140
275.6727856380065
141
407.629191407817
142
1.0
143
0.7225445603030646
 70
  3764
 72
     1
 73
     1
 74
     2
  7
monochrome.ctb
 75
     0
147
1.383997686703999
148
-1700.85588156276
149
-1647.985052086429
100
AcDbLayout
  1
Model
 70
     1
 71
     0
 10
0.0
 20
0.0
 11
12.0
 21
9.0
 12
0.0
 22
0.0
 32
0.0
 14
0.0
 24
0.0
 34
0.0
 15
0.0
 25
0.0
 35
0.0
146
0.0
 13
0.0
 23
0.0
 33
0.0
 16
1.0
 26
0.0
 36
0.0
 17
0.0
 27
1.0
 37
0.0
 76
     0
330
1F
331
B0EC
1001
ACAD_PSEXT
1000
FX DocuWide 2050/2051
1000
FX DocuWide 2050/2051
1000
IP_192.200.15.252
1000

1070
     0
  0
LAYOUT
  5
1E
102
{ACAD_XDICTIONARY
360
5B622
102
}
102
{ACAD_REACTORS
330
1A
102
}
330
1A
100
AcDbPlotSettings
  1

  2
\\ML370\XEROX
  4
A4
  6

 40
3.174999952316284
 41
3.174999952316284
 42
3.175003051757812
 43
3.17498779296875
 44
209.8674926757813
 45
296.6719970703125
 46
0.0
 47
0.0
 48
0.0
 49
0.0
140
0.0
141
0.0
142
1.0
143
1.0
 70
   688
 72
     1
 73
     1
 74
     5
  7
monochrome.ctb
 75
    16
147
1.0
148
0.0
149
0.0
100
AcDbLayout
  1
ﾚｲｱｳﾄ1
 70
     1
 71
     1
 10
-3.17498779296875
 20
-3.174999952316284
 11
293.4970092773438
 21
206.692492723465
 12
0.0
 22
0.0
 32
0.0
 14
1.000000000000000E+20
 24
1.000000000000000E+20
 34
1.000000000000000E+20
 15
-1.000000000000000E+20
 25
-1.000000000000000E+20
 35
-1.000000000000000E+20
146
0.0
 13
0.0
 23
0.0
 33
0.0
 16
1.0
 26
0.0
 36
0.0
 17
0.0
 27
1.0
 37
0.0
 76
     0
330
1B
  0
LAYOUT
  5
26
102
{ACAD_XDICTIONARY
360
5B626
102
}
102
{ACAD_REACTORS
330
1A
102
}
330
1A
100
AcDbPlotSettings
  1

  2
\\ML370\XEROX
  4

  6

 40
0.0
 41
0.0
 42
0.0
 43
0.0
 44
0.0
 45
0.0
 46
0.0
 47
0.0
 48
0.0
 49
0.0
140
0.0
141
0.0
142
1.0
143
1.0
 70
   688
 72
     0
 73
     0
 74
     5
  7
monochrome.ctb
 75
    16
147
1.0
148
0.0
149
0.0
100
AcDbLayout
  1
ﾚｲｱｳﾄ2
 70
     1
 71
     2
 10
0.0
 20
0.0
 11
12.0
 21
9.0
 12
0.0
 22
0.0
 32
0.0
 14
0.0
 24
0.0
 34
0.0
 15
0.0
 25
0.0
 35
0.0
146
0.0
 13
0.0
 23
0.0
 33
0.0
 16
1.0
 26
0.0
 36
0.0
 17
0.0
 27
1.0
 37
0.0
 76
     0
330
23
  0
MATERIAL
  5
B0EF
102
{ACAD_XDICTIONARY
360
5B62C
102
}
102
{ACAD_REACTORS
330
A91C
102
}
330
A91C
100
AcDbMaterial
  1
ByBlock
  0
MATERIAL
  5
B0EE
102
{ACAD_XDICTIONARY
360
5B62A
102
}
102
{ACAD_REACTORS
330
A91C
102
}
330
A91C
100
AcDbMaterial
  1
ByLayer
  0
MATERIAL
  5
B0F0
102
{ACAD_XDICTIONARY
360
5B62E
102
}
102
{ACAD_REACTORS
330
A91C
102
}
330
A91C
100
AcDbMaterial
  1
Global
  0
MLINESTYLE
  5
18
102
{ACAD_REACTORS
330
17
102
}
330
17
100
AcDbMlineStyle
  2
STANDARD
 70
     0
  3

 62
   256
 51
90.0
 52
90.0
 71
     2
 49
0.5
 62
   256
  6
BYLAYER
 49
-0.5
 62
   256
  6
BYLAYER
  0
ACDBPLACEHOLDER
  5
F
102
{ACAD_REACTORS
330
E
102
}
330
E
  0
TABLESTYLE
  5
AABA
102
{ACAD_XDICTIONARY
360
5B628
102
}
102
{ACAD_REACTORS
330
AAB9
102
}
330
AAB9
100
AcDbTableStyle
  3
Standard
 70
     0
 71
     0
 40
1.5
 41
1.5
280
     0
281
     0
  7
STANDARD
140
4.5
170
     2
 62
     0
 63
     7
283
     0
274
    -2
284
     1
 64
     0
275
    -2
285
     1
 65
     0
276
    -2
286
     1
 66
     0
277
    -2
287
     1
 67
     0
278
    -2
288
     1
 68
     0
279
    -2
289
     1
 69
     0
  7
STANDARD
140
6.0
170
     5
 62
     0
 63
     7
283
     0
274
    -2
284
     1
 64
     0
275
    -2
285
     1
 65
     0
276
    -2
286
     1
 66
     0
277
    -2
287
     1
 67
     0
278
    -2
288
     1
 68
     0
279
    -2
289
     1
 69
     0
  7
STANDARD
140
4.5
170
     5
 62
     0
 63
     7
283
     0
274
    -2
284
     1
 64
     0
275
    -2
285
     1
 65
     0
276
    -2
286
     1
 66
     0
277
    -2
287
     1
 67
     0
278
    -2
288
     1
 68
     0
279
    -2
289
     1
 69
     0
  0
VISUALSTYLE
  5
B0F7
102
{ACAD_REACTORS
330
B0F1
102
}
330
B0F1
100
AcDbVisualStyle
  2
2dWireframe
 70
     4
 71
     0
 72
     2
 73
     0
 90
        0
 40
-0.6
 41
-30.0
 62
     5
 63
     7
 74
     1
 91
        4
 64
     7
 65
   257
 75
     1
175
     1
 42
1.0
 92
        0
 66
   257
 43
1.0
 76
     1
 77
     6
 78
     2
 67
     7
 79
     5
170
     0
171
     0
290
     0
174
     0
 93
        1
 44
0.0
173
     0
291
     0
 45
0.0
1001
ACAD
1000
AcDbSavedByObjectVersion
1070
     0
  0
VISUALSTYLE
  5
B0F9
102
{ACAD_REACTORS
330
B0F1
102
}
330
B0F1
100
AcDbVisualStyle
  2
3D Hidden
 70
     6
 71
     1
 72
     2
 73
     2
 90
        0
 40
-0.6
 41
-30.0
 62
     5
 63
     7
 74
     2
 91
        2
 64
     7
 65
   257
 75
     2
175
     1
 42
40.0
 92
        0
 66
   257
 43
1.0
 76
     1
 77
     6
 78
     2
 67
     7
 79
     3
170
     0
171
     0
290
     0
174
     0
 93
        1
 44
0.0
173
     0
291
     0
 45
0.0
1001
ACAD
1000
AcDbSavedByObjectVersion
1070
     0
  0
VISUALSTYLE
  5
B0F8
102
{ACAD_REACTORS
330
B0F1
102
}
330
B0F1
100
AcDbVisualStyle
  2
3dWireframe
 70
     5
 71
     0
 72
     2
 73
     0
 90
        0
 40
-0.6
 41
-30.0
 62
     5
 63
     7
 74
     1
 91
        4
 64
     7
 65
   257
 75
     1
175
     1
 42
1.0
 92
        0
 66
   257
 43
1.0
 76
     1
 77
     6
 78
     2
 67
     7
 79
     5
170
     0
171
     0
290
     0
174
     0
 93
        1
 44
0.0
173
     0
291
     0
 45
0.0
1001
ACAD
1000
AcDbSavedByObjectVersion
1070
     0
  0
VISUALSTYLE
  5
B0F6
102
{ACAD_REACTORS
330
B0F1
102
}
330
B0F1
100
AcDbVisualStyle
  2
Basic
 70
     7
 71
     1
 72
     0
 73
     1
 90
        0
 40
-0.6
 41
-30.0
 62
     5
 63
     7
 74
     0
 91
        4
 64
     7
 65
   257
 75
     1
175
     1
 42
1.0
 92
        8
 66
     7
 43
1.0
 76
     1
 77
     6
 78
     2
 67
     7
 79
     5
170
     0
171
     0
290
     0
174
     0
 93
        1
 44
0.0
173
     0
291
     1
 45
0.0
1001
ACAD
1000
AcDbSavedByObjectVersion
1070
     0
  0
VISUALSTYLE
  5
B0FD
102
{ACAD_REACTORS
330
B0F1
102
}
330
B0F1
100
AcDbVisualStyle
  2
Brighten
 70
    12
 71
     2
 72
     2
 73
     0
 90
        0
 40
-0.6
 41
-30.0
 62
     5
 63
     7
 74
     1
 91
        4
 64
     7
 65
   257
 75
     1
175
     1
 42
1.0
 92
        8
 66
     7
 43
1.0
 76
     1
 77
     6
 78
     2
 67
     7
 79
     5
170
     0
171
     0
290
     0
174
     0
 93
        1
 44
50.0
173
     0
291
     1
 45
0.0
1001
ACAD
1000
AcDbSavedByObjectVersion
1070
     0
  0
VISUALSTYLE
  5
B101
102
{ACAD_REACTORS
330
B0F1
102
}
330
B0F1
100
AcDbVisualStyle
  2
ColorChange
 70
    16
 71
     2
 72
     2
 73
     3
 90
        0
 40
-0.6
 41
-30.0
 62
     5
 63
     8
 74
     1
 91
        4
 64
     7
 65
   257
 75
     1
175
     1
 42
1.0
 92
        8
 66
     8
 43
1.0
 76
     1
 77
     6
 78
     2
 67
     7
 79
     5
170
     0
171
     0
290
     0
174
     0
 93
        1
 44
0.0
173
     0
291
     1
 45
0.0
1001
ACAD
1000
AcDbSavedByObjectVersion
1070
     0
  0
VISUALSTYLE
  5
B0FA
102
{ACAD_REACTORS
330
B0F1
102
}
330
B0F1
100
AcDbVisualStyle
  2
Conceptual
 70
     9
 71
     3
 72
     2
 73
     0
 90
        0
 40
-0.6
 41
-30.0
 62
     5
 63
     7
 74
     2
 91
        2
 64
     7
 65
   257
 75
     1
175
     1
 42
40.0
 92
        8
 66
     7
 43
1.0
 76
     1
 77
     6
 78
     2
 67
     7
 79
     3
170
     0
171
     0
290
     0
174
     0
 93
        1
 44
0.0
173
     0
291
     0
 45
0.0
1001
ACAD
1000
AcDbSavedByObjectVersion
1070
     0
  0
VISUALSTYLE
  5
B0FC
102
{ACAD_REACTORS
330
B0F1
102
}
330
B0F1
100
AcDbVisualStyle
  2
Dim
 70
    11
 71
     2
 72
     2
 73
     0
 90
        0
 40
-0.6
 41
-30.0
 62
     5
 63
     7
 74
     1
 91
        4
 64
     7
 65
   257
 75
     1
175
     1
 42
1.0
 92
        8
 66
     7
 43
1.0
 76
     1
 77
     6
 78
     2
 67
     7
 79
     5
170
     0
171
     0
290
     0
174
     0
 93
        1
 44
-50.0
173
     0
291
     1
 45
0.0
1001
ACAD
1000
AcDbSavedByObjectVersion
1070
     0
  0
VISUALSTYLE
  5
B100
102
{ACAD_REACTORS
330
B0F1
102
}
330
B0F1
100
AcDbVisualStyle
  2
Facepattern
 70
    15
 71
     2
 72
     2
 73
     0
 90
        0
 40
-0.6
 41
-30.0
 62
     5
 63
     7
 74
     1
 91
        4
 64
     7
 65
   257
 75
     1
175
     1
 42
1.0
 92
        8
 66
     7
 43
1.0
 76
     1
 77
     6
 78
     2
 67
     7
 79
     5
170
     0
171
     0
290
     0
174
     0
 93
        1
 44
0.0
173
     0
291
     1
 45
0.0
1001
ACAD
1000
AcDbSavedByObjectVersion
1070
     0
  0
VISUALSTYLE
  5
B0F2
102
{ACAD_REACTORS
330
B0F1
102
}
330
B0F1
100
AcDbVisualStyle
  2
Flat
 70
     0
 71
     2
 72
     1
 73
     1
 90
        2
 40
-0.6
 41
30.0
 62
     5
 63
     7
 74
     0
 91
        4
 64
     7
 65
   257
 75
     1
175
     1
 42
1.0
 92
        8
 66
     7
 43
1.0
 76
     1
 77
     6
 78
     2
 67
     7
 79
     5
170
     0
171
     0
290
     0
174
     0
 93
       13
 44
0.0
173
     0
291
     1
 45
0.0
1001
ACAD
1000
AcDbSavedByObjectVersion
1070
     0
  0
VISUALSTYLE
  5
B0F3
102
{ACAD_REACTORS
330
B0F1
102
}
330
B0F1
100
AcDbVisualStyle
  2
FlatWithEdges
 70
     1
 71
     2
 72
     1
 73
     1
 90
        2
 40
-0.6
 41
30.0
 62
     5
 63
     7
 74
     1
 91
        4
 64
     7
 65
   257
 75
     1
175
     1
 42
1.0
 92
        0
 66
   257
 43
1.0
 76
     1
 77
     6
 78
     2
 67
     7
 79
     5
170
     0
171
     0
290
     0
174
     0
 93
       13
 44
0.0
173
     0
291
     1
 45
0.0
1001
ACAD
1000
AcDbSavedByObjectVersion
1070
     0
  0
VISUALSTYLE
  5
B0F4
102
{ACAD_REACTORS
330
B0F1
102
}
330
B0F1
100
AcDbVisualStyle
  2
Gouraud
 70
     2
 71
     2
 72
     2
 73
     1
 90
        2
 40
-0.6
 41
30.0
 62
     5
 63
     7
 74
     0
 91
        4
 64
     7
 65
   257
 75
     1
175
     1
 42
1.0
 92
        0
 66
     7
 43
1.0
 76
     1
 77
     6
 78
     2
 67
     7
 79
     5
170
     0
171
     0
290
     0
174
     0
 93
       13
 44
0.0
173
     0
291
     1
 45
0.0
1001
ACAD
1000
AcDbSavedByObjectVersion
1070
     0
  0
VISUALSTYLE
  5
B0F5
102
{ACAD_REACTORS
330
B0F1
102
}
330
B0F1
100
AcDbVisualStyle
  2
GouraudWithEdges
 70
     3
 71
     2
 72
     2
 73
     1
 90
        2
 40
-0.6
 41
30.0
 62
     5
 63
     7
 74
     1
 91
        4
 64
     7
 65
   257
 75
     1
175
     1
 42
1.0
 92
        0
 66
   257
 43
1.0
 76
     1
 77
     6
 78
     2
 67
     7
 79
     5
170
     0
171
     0
290
     0
174
     0
 93
       13
 44
0.0
173
     0
291
     1
 45
0.0
1001
ACAD
1000
AcDbSavedByObjectVersion
1070
     0
  0
VISUALSTYLE
  5
B0FF
102
{ACAD_REACTORS
330
B0F1
102
}
330
B0F1
100
AcDbVisualStyle
  2
Linepattern
 70
    14
 71
     2
 72
     2
 73
     0
 90
        0
 40
-0.6
 41
-30.0
 62
     5
 63
     7
 74
     1
 91
        4
 64
     7
 65
   257
 75
     7
175
     7
 42
1.0
 92
        8
 66
     7
 43
1.0
 76
     1
 77
     6
 78
     2
 67
     7
 79
     5
170
     0
171
     0
290
     0
174
     0
 93
        1
 44
0.0
173
     0
291
     1
 45
0.0
1001
ACAD
1000
AcDbSavedByObjectVersion
1070
     0
  0
VISUALSTYLE
  5
B0FB
102
{ACAD_REACTORS
330
B0F1
102
}
330
B0F1
100
AcDbVisualStyle
  2
Realistic
 70
     8
 71
     2
 72
     2
 73
     0
 90
        0
 40
-0.6
 41
-30.0
 62
     5
 63
     7
 74
     1
 91
        0
 64
     7
 65
   257
 75
     1
175
     1
 42
1.0
 92
        8
 66
     8
 43
1.0
 76
     1
 77
     6
 78
     2
 67
     7
 79
     5
170
     0
171
     0
290
     0
174
     0
 93
       13
 44
0.0
173
     0
291
     0
 45
0.0
1001
ACAD
1000
AcDbSavedByObjectVersion
1070
     0
  0
VISUALSTYLE
  5
B0FE
102
{ACAD_REACTORS
330
B0F1
102
}
330
B0F1
100
AcDbVisualStyle
  2
Thicken
 70
    13
 71
     2
 72
     2
 73
     0
 90
        0
 40
-0.6
 41
-30.0
 62
     5
 63
     7
 74
     1
 91
        4
 64
     7
 65
   257
 75
     1
175
     1
 42
1.0
 92
       12
 66
     7
 43
1.0
 76
     1
 77
     6
 78
     2
 67
     7
 79
     5
170
     0
171
     0
290
     0
174
     0
 93
        1
 44
0.0
173
     0
291
     1
 45
0.0
1001
ACAD
1000
AcDbSavedByObjectVersion
1070
     0
  0
DICTIONARYVAR
  5
AAF3
102
{ACAD_REACTORS
330
34
102
}
330
34
100
DictionaryVariables
280
     0
  1
STANDARD
  0
DICTIONARYVAR
  5
A10C
102
{ACAD_REACTORS
330
34
102
}
330
34
100
DictionaryVariables
280
     0
  1
1
  0
DICTIONARYVAR
  5
AB07
102
{ACAD_REACTORS
330
34
102
}
330
34
100
DictionaryVariables
280
     0
  1
4
  0
DICTIONARYVAR
  5
35
102
{ACAD_REACTORS
330
34
102
}
330
34
100
DictionaryVariables
280
     0
  1
0
  0
DICTIONARYVAR
  5
194C
102
{ACAD_REACTORS
330
34
102
}
330
34
100
DictionaryVariables
280
     0
  1
127
  0
DICTIONARY
  5
7E8
102
{ACAD_REACTORS
330
47
102
}
330
47
100
AcDbDictionary
281
     1
  0
DICTIONARY
  5
4C
102
{ACAD_REACTORS
330
47
102
}
330
47
100
AcDbDictionary
281
     1
  0
XRECORD
  5
A929
102
{ACAD_REACTORS
330
47
102
}
330
47
100
AcDbXrecord
280
     1
 90
-1023410169
  0
XRECORD
  5
57913
102
{ACAD_REACTORS
330
57912
102
}
330
57912
100
AcDbXrecord
280
     1
330
0
330
0
330
0
330
0
330
0
330
0
330
0
330
0
330
0
330
0
330
0
330
0
330
0
330
0
330
0
330
0
330
0
330
0
330
0
330
0
330
0
330
0
330
0
330
0
330
0
330
0
330
0
330
0
330
0
330
0
330
0
330
0
330
0
330
0
330
0
330
0
330
0
330
0
330
0
330
0
330
0
330
0
330
0
330
0
330
0
330
0
330
0
330
0
330
0
330
0
330
0
330
0
330
0
330
0
330
0
330
0
330
0
330
0
330
0
330
0
330
0
330
0
330
0
330
0
330
0
330
0
330
0
330
0
330
0
330
0
330
0
330
0
330
0
330
0
330
0
330
0
330
0
330
0
330
0
330
0
330
0
330
0
330
0
330
0
330
0
330
0
330
0
330
0
330
0
330
0
330
0
330
0
330
0
330
0
330
0
330
0
330
0
330
0
330
0
330
0
330
0
330
0
330
0
330
0
330
0
330
0
330
0
330
0
330
0
330
0
330
0
330
0
330
0
330
0
330
0
330
0
330
0
330
0
330
0
330
0
330
0
330
0
330
0
330
0
330
0
330
0
330
0
330
0
330
0
330
0
330
0
330
0
330
0
330
0
330
0
330
0
330
0
330
0
330
0
330
0
330
0
330
0
330
0
330
0
330
0
330
0
330
0
330
0
330
0
330
0
330
0
330
0
330
0
330
0
330
0
330
0
330
0
330
0
330
0
330
0
330
0
330
0
330
0
330
0
330
0
330
0
330
0
330
0
330
0
330
0
330
0
330
0
330
0
330
0
330
0
330
0
330
0
330
0
330
0
330
0
330
0
330
0
330
0
330
0
330
0
330
0
330
0
330
0
330
0
330
0
330
0
330
0
330
0
330
0
330
0
330
0
330
0
330
0
330
0
330
0
330
0
330
0
330
0
330
0
330
0
330
0
330
0
330
0
330
0
330
0
330
0
330
0
330
0
330
0
330
0
330
0
330
0
330
0
330
0
330
0
330
0
330
0
330
0
330
0
330
0
330
0
330
0
330
0
330
0
330
0
330
0
330
0
330
0
330
0
330
0
330
0
330
0
330
0
330
0
330
0
330
0
330
0
330
0
330
0
330
0
330
0
330
0
330
0
330
0
330
0
330
0
330
0
330
0
330
0
330
0
330
0
330
0
330
0
330
0
330
0
330
0
330
0
330
0
330
0
330
0
330
0
330
0
330
0
330
0
330
0
330
0
330
0
330
0
330
0
330
0
330
0
330
0
330
0
330
0
330
0
330
0
330
0
330
0
330
0
330
0
330
0
330
0
330
0
330
0
330
0
330
0
330
0
330
0
330
0
330
0
330
0
330
0
330
0
330
0
330
0
330
0
330
0
330
0
330
0
330
0
330
0
330
0
330
0
330
0
330
0
330
0
330
0
330
0
330
0
330
0
330
0
330
0
330
0
330
0
330
0
330
0
330
0
330
0
330
0
330
0
330
0
330
0
330
0
330
0
330
0
330
0
330
0
330
0
330
0
330
0
330
0
330
0
330
0
330
0
330
0
330
0
330
0
330
0
330
0
330
0
330
0
330
0
330
0
330
0
330
0
330
0
330
0
330
0
330
0
330
0
330
0
330
0
330
0
330
0
330
0
330
0
330
0
330
0
330
0
330
0
330
0
330
0
330
0
330
0
330
0
330
0
330
0
330
0
330
0
330
0
330
0
330
0
330
0
330
0
330
0
330
0
330
0
330
0
330
0
330
0
330
0
330
0
330
0
330
0
330
0
330
0
330
0
330
0
330
0
330
0
330
0
330
0
330
0
330
0
330
0
330
0
330
0
330
0
330
0
330
0
330
0
330
0
330
0
330
0
330
0
330
0
330
0
330
0
330
0
330
0
330
0
330
0
330
0
330
0
330
0
330
0
330
0
330
0
330
0
330
0
330
0
330
0
330
0
330
0
330
0
330
0
330
0
330
0
330
0
330
0
330
0
330
0
330
0
330
0
330
0
330
0
330
0
330
0
330
0
330
0
330
0
330
0
330
0
330
0
330
0
330
0
330
0
330
0
330
0
330
0
330
0
330
0
330
0
330
0
330
0
330
0
330
0
330
0
330
0
330
0
330
0
330
0
330
0
330
0
330
0
330
0
330
0
330
0
330
0
330
0
330
0
330
0
330
0
330
0
330
0
330
0
330
0
330
0
330
0
330
0
330
0
330
0
330
0
330
0
330
0
330
0
330
0
330
0
330
0
330
0
330
0
330
0
330
0
330
0
330
0
330
0
330
0
330
0
330
0
330
0
330
0
330
0
330
0
330
0
330
0
330
0
330
0
330
0
330
0
330
0
330
0
330
0
330
0
330
0
330
0
330
0
330
0
330
0
330
0
330
0
330
0
330
0
330
0
330
0
330
0
330
0
330
0
330
0
330
0
330
0
330
0
330
0
330
0
330
0
330
0
330
0
330
0
330
0
330
0
330
0
330
0
330
0
330
0
330
0
330
0
330
0
330
0
330
0
330
0
330
0
330
0
330
0
330
0
330
0
330
0
330
0
330
0
330
0
330
0
330
0
330
0
330
0
330
0
330
0
330
0
330
0
330
0
330
0
330
0
330
0
330
0
330
0
330
0
330
0
330
0
330
0
330
0
330
0
330
0
330
0
330
0
330
0
330
0
330
0
330
0
330
0
330
0
330
0
330
0
330
0
330
0
330
0
330
0
330
0
330
0
330
0
330
0
330
0
330
0
330
0
330
0
330
0
330
0
330
0
330
0
330
0
330
0
330
0
330
0
330
0
330
0
330
0
330
0
330
0
330
0
330
0
330
0
330
0
330
0
330
0
330
0
330
0
330
0
330
0
330
0
330
0
330
0
330
0
330
0
330
0
330
0
330
0
330
0
330
0
330
0
330
0
330
0
330
0
330
0
330
0
330
0
330
0
330
0
330
0
330
0
330
0
330
0
330
0
330
0
330
0
330
0
330
0
330
0
330
0
330
0
330
0
330
0
330
0
330
0
330
0
330
0
330
0
330
0
330
0
330
0
330
0
330
0
330
0
330
0
330
0
330
0
330
0
330
0
330
0
330
0
330
0
330
0
330
0
330
0
330
0
330
0
330
0
330
0
330
0
330
0
330
0
330
0
330
0
330
0
330
0
330
0
330
0
330
0
330
0
330
0
330
0
330
0
330
0
330
0
330
0
330
0
330
0
330
0
330
0
330
0
330
0
330
0
330
0
330
0
330
0
330
0
330
0
330
0
330
0
330
0
330
0
330
0
330
0
330
0
330
0
330
0
330
0
330
0
330
0
330
0
330
0
330
0
330
0
330
0
330
0
330
0
330
0
330
0
330
0
330
0
330
0
330
0
330
0
330
0
330
0
330
0
330
0
330
0
330
0
330
0
330
0
330
0
330
0
330
0
330
0
330
0
330
0
330
0
330
0
330
0
330
0
330
0
330
0
330
0
330
0
330
0
330
0
330
0
330
0
330
0
330
0
330
0
330
0
330
0
330
0
330
0
330
0
330
0
330
0
330
0
330
0
330
0
330
0
330
0
330
0
330
0
330
0
330
0
330
0
330
0
330
0
330
0
330
0
330
0
330
0
330
0
330
0
330
0
330
0
330
0
330
0
330
0
330
0
330
0
330
0
330
0
330
0
330
0
330
0
330
0
330
0
330
0
330
0
330
0
330
0
330
0
330
0
330
0
330
0
330
0
330
0
330
0
330
0
330
0
330
0
330
0
330
0
330
0
330
0
330
0
330
0
330
0
330
0
330
0
330
0
330
0
330
0
330
0
330
0
330
0
330
0
330
0
330
0
330
0
330
0
330
0
330
0
330
0
330
0
330
0
330
0
330
0
330
0
330
0
330
0
330
0
330
0
330
0
330
0
330
0
330
0
330
0
330
0
330
0
330
0
330
0
330
0
330
0
330
0
330
0
330
0
330
0
330
0
330
0
330
0
330
0
330
0
330
0
330
0
330
0
330
0
330
0
330
0
330
0
330
0
330
0
330
0
330
0
330
0
330
0
330
0
330
0
330
0
330
0
330
0
330
0
330
0
330
0
330
0
330
0
330
0
330
0
330
0
330
0
330
0
330
0
330
0
330
0
330
0
330
0
330
0
330
0
330
0
330
0
330
0
330
0
330
0
330
0
330
0
330
0
330
0
330
0
330
0
330
0
330
0
330
0
330
0
330
0
330
0
330
0
330
0
330
0
330
0
330
0
330
0
330
0
330
0
330
0
330
0
330
0
330
0
330
0
330
0
330
0
330
0
330
0
330
0
330
0
330
0
330
0
330
0
330
0
330
0
330
0
330
0
330
0
330
0
330
0
330
0
330
0
330
0
330
0
330
0
330
0
330
0
330
0
330
0
330
0
330
0
330
0
330
0
330
0
330
0
330
0
330
0
330
0
330
0
330
0
330
0
330
0
330
0
330
0
330
0
330
0
330
0
330
0
330
0
330
0
330
0
330
0
330
0
330
0
330
0
330
0
330
0
330
0
330
0
330
0
330
0
330
0
330
0
330
0
330
0
330
0
330
0
330
0
330
0
330
0
330
0
330
0
330
0
330
0
330
0
330
0
330
0
330
0
330
0
330
0
330
0
330
0
330
0
330
0
330
0
330
0
330
0
330
0
330
0
330
0
330
0
330
0
330
0
330
0
330
0
330
0
330
0
330
0
330
0
330
0
330
0
330
0
330
0
330
0
330
0
330
0
330
0
330
0
330
0
330
0
330
0
330
0
330
0
330
0
330
0
330
0
330
0
330
0
330
0
330
0
330
0
330
0
330
0
330
0
330
0
330
0
330
0
330
0
330
0
330
0
330
0
330
0
330
0
330
0
330
0
330
0
330
0
330
0
330
0
330
0
330
0
330
0
330
0
330
0
330
0
330
0
330
0
330
0
330
0
330
0
330
0
330
0
330
0
330
0
330
0
330
0
330
0
330
0
330
0
330
0
330
0
330
0
330
0
330
0
330
0
330
0
330
0
330
0
330
0
330
0
330
0
330
0
330
0
330
0
330
0
330
0
330
0
330
0
330
0
330
0
330
0
330
0
330
0
330
0
330
0
330
0
330
0
330
0
330
0
330
0
330
0
330
0
330
0
330
0
330
0
330
0
330
0
330
0
330
0
330
0
330
0
330
0
330
0
330
0
330
0
330
0
330
0
330
0
330
0
330
0
330
0
330
0
330
0
330
0
330
0
330
0
330
0
330
0
330
0
330
0
330
0
330
0
330
0
330
0
330
0
330
0
330
0
330
0
330
0
330
0
330
0
330
0
330
0
330
0
330
0
330
0
330
0
330
0
330
0
330
0
330
5523B
330
5523C
330
52EA3
330
52EA4
330
52EAC
330
52EAD
330
52EB5
330
52EB6
330
52EBE
330
52EBF
330
52EC6
330
52EC7
330
52ECF
330
52ED0
330
52EDA
330
52EDB
330
554B3
330
554B4
330
52EEE
330
52EEF
330
52EF7
330
52EF8
330
52F00
330
52F01
330
52F09
330
52F0A
330
52F12
330
52F13
330
52F2D
330
52F2E
330
0
330
0
330
0
330
0
330
0
330
0
330
0
330
0
330
0
330
0
330
0
330
0
330
0
330
0
330
0
330
0
330
0
330
0
330
0
330
0
330
0
330
0
330
0
330
0
330
0
330
0
330
0
330
0
330
0
330
0
330
0
330
0
330
0
330
0
330
0
330
0
330
0
330
0
330
0
330
0
330
0
330
0
330
0
330
0
330
0
330
0
330
0
330
0
330
0
330
0
330
0
330
0
330
0
330
0
330
0
330
0
330
0
330
0
330
0
330
0
330
0
330
0
330
0
330
0
330
0
330
0
330
0
330
0
330
0
330
0
330
0
330
0
330
0
330
0
330
0
330
0
330
0
330
0
330
0
330
0
330
0
330
0
330
0
330
0
330
0
330
0
330
0
330
0
330
0
330
0
330
0
330
0
330
0
330
0
330
0
330
0
330
0
330
0
330
0
330
0
330
0
330
0
330
0
330
0
330
0
330
0
330
0
330
0
330
0
330
0
330
0
330
0
330
0
330
0
330
0
330
0
330
0
330
0
330
0
330
0
330
0
330
0
330
0
330
0
330
0
330
0
330
0
330
0
330
0
330
0
330
0
330
0
330
0
330
0
330
0
330
0
330
0
330
0
330
0
330
0
330
0
330
0
330
0
330
0
330
0
330
0
330
0
330
0
330
0
330
0
330
0
330
0
330
0
330
0
330
0
330
0
330
0
330
0
330
0
330
0
330
0
330
0
330
0
330
0
330
0
330
0
330
0
330
0
330
0
330
0
330
0
330
0
330
0
330
0
330
0
330
0
330
0
330
0
330
0
330
0
330
0
330
0
330
0
330
0
330
0
330
0
330
0
330
0
330
0
330
0
330
0
330
0
330
0
330
0
330
0
330
0
330
0
330
0
330
0
330
0
330
0
330
0
330
0
330
0
330
0
330
0
330
0
330
0
330
0
330
0
330
0
330
0
330
0
330
0
330
0
330
0
330
0
330
0
330
0
330
0
330
0
330
0
330
0
330
0
330
0
330
0
330
0
330
0
330
0
330
0
330
0
330
0
330
0
330
0
330
0
330
0
330
0
330
0
330
0
330
0
330
0
330
0
330
0
330
0
330
0
330
0
330
0
330
0
330
0
330
0
330
0
330
0
330
0
330
0
330
0
330
0
330
0
330
0
330
0
330
0
330
0
330
0
330
0
330
0
330
0
330
0
330
0
330
0
330
0
330
0
330
0
330
0
330
0
330
0
330
0
330
0
330
0
330
0
330
0
330
0
330
0
330
0
330
0
330
0
330
0
330
0
330
0
330
0
330
0
330
0
330
0
330
0
330
0
330
0
330
0
330
0
330
0
330
0
330
0
330
0
330
0
330
0
330
0
330
0
330
0
330
0
330
0
330
0
330
0
330
0
330
0
330
0
330
0
330
0
330
0
330
0
330
0
330
0
330
0
330
0
330
0
330
0
330
0
330
0
330
0
330
0
330
0
330
0
330
0
330
0
330
0
330
0
330
0
330
0
330
0
330
0
330
0
330
0
330
0
330
0
330
0
330
0
330
0
330
0
330
0
330
0
330
0
330
0
330
0
330
0
330
0
330
0
330
0
330
0
330
0
330
0
330
0
330
0
330
0
330
0
330
5548C
330
5548D
330
554AB
330
554AC
330
0
330
0
330
0
330
0
330
0
330
0
330
0
330
0
330
0
330
0
330
0
330
0
330
0
330
0
330
0
330
0
330
0
330
0
330
0
330
0
330
0
330
0
330
0
330
0
330
0
330
0
330
0
330
0
330
0
330
0
330
0
330
0
330
0
330
0
330
0
330
0
330
0
330
0
330
0
330
0
330
0
330
0
330
0
330
0
330
0
330
0
330
0
330
0
330
0
330
0
330
0
330
0
330
0
330
0
330
0
330
0
330
0
330
0
330
0
330
0
330
0
330
0
330
0
330
0
330
0
330
0
330
0
330
0
330
0
330
0
330
0
330
0
330
0
330
0
330
0
330
0
330
0
330
0
330
0
330
0
330
0
330
0
330
0
330
0
330
0
330
0
330
0
330
0
330
0
330
0
330
0
330
0
330
0
330
0
330
0
330
0
330
0
330
0
330
0
330
0
330
0
330
0
330
0
330
0
330
0
330
0
330
0
330
0
330
0
330
0
330
0
330
0
330
0
330
0
330
0
330
0
330
0
330
0
330
0
330
0
330
0
330
0
330
0
330
0
330
0
330
0
330
0
330
0
330
0
330
0
330
0
330
0
330
0
330
0
330
0
330
0
330
0
330
0
330
0
330
0
330
0
330
0
330
0
330
0
330
0
330
0
330
0
330
0
330
0
330
0
330
0
330
0
330
0
330
0
330
0
330
0
330
0
330
0
330
0
330
0
330
0
330
0
330
0
330
0
330
0
330
0
330
0
330
0
330
0
330
0
330
0
330
0
330
0
330
0
330
0
330
0
330
0
330
0
330
0
330
0
330
0
330
0
330
0
330
0
330
0
330
0
330
0
330
0
330
0
330
0
330
0
330
0
330
0
330
0
330
0
330
0
330
0
330
0
330
0
330
0
330
0
330
0
330
0
330
0
330
0
330
0
330
0
330
0
330
0
330
0
330
0
330
0
330
0
330
0
330
0
330
0
330
0
330
0
330
0
330
0
330
0
330
0
330
0
330
0
330
0
330
0
330
0
330
0
330
0
330
0
330
0
330
0
330
0
330
0
330
0
330
0
330
0
330
0
330
0
330
0
330
0
330
0
330
0
330
0
330
0
330
0
330
0
330
0
330
0
330
0
330
0
330
0
330
0
330
0
330
0
330
0
330
0
330
0
330
0
330
0
330
0
330
0
330
0
330
0
330
0
330
0
330
0
330
0
330
0
330
0
330
0
330
0
330
0
330
0
330
0
330
0
330
0
330
0
330
0
330
0
330
0
330
0
330
0
330
0
330
0
330
0
330
0
330
0
330
0
330
0
330
0
330
0
330
0
330
0
330
0
330
0
330
0
330
0
330
0
330
0
330
0
330
0
330
0
330
0
330
0
330
0
330
0
330
0
330
0
330
0
330
0
330
0
330
0
330
0
330
0
330
0
330
0
330
0
330
0
330
0
330
0
330
0
330
0
330
0
  0
XRECORD
  5
3FB7
102
{ACAD_REACTORS
330
3F96
102
}
330
3F96
100
AcDbXrecord
280
     1
 91
        3
330
0
 90
        8
 62
     7
370
    40
331
16
  1
Color_7
330
0
 90
        0
 62
    14
370
    -3
331
16
  1
Color_14
330
0
 90
        8
 62
     7
370
    20
331
16
  1
Color_7
330
6D1
 90
        0
 62
     7
370
    -3
331
16
  1
Color_7
330
0
 90
        8
 62
     7
370
    50
331
16
  1
Color_7
330
0
 90
        8
 62
     2
370
    35
331
16
  1
Color_2
330
0
 90
        8
 62
     7
370
    -3
331
16
  1
Color_7
330
10
 90
        8
 62
     7
370
    -3
331
16
  1
Color_7
  0
DICTIONARY
  5
5B624
330
22
100
AcDbDictionary
280
     1
281
     1
  3
ACAD_XREC_ROUNDTRIP
360
5B625
  0
DICTIONARY
  5
5B622
330
1E
100
AcDbDictionary
280
     1
281
     1
  3
ACAD_XREC_ROUNDTRIP
360
5B623
  0
DICTIONARY
  5
5B626
330
26
100
AcDbDictionary
280
     1
281
     1
  3
ACAD_XREC_ROUNDTRIP
360
5B627
  0
DICTIONARY
  5
5B62C
330
B0EF
100
AcDbDictionary
280
     1
281
     1
  3
ACAD_XREC_ROUNDTRIP
360
5B62D
  0
DICTIONARY
  5
5B62A
330
B0EE
100
AcDbDictionary
280
     1
281
     1
  3
ACAD_XREC_ROUNDTRIP
360
5B62B
  0
DICTIONARY
  5
5B62E
330
B0F0
100
AcDbDictionary
280
     1
281
     1
  3
ACAD_XREC_ROUNDTRIP
360
5B62F
  0
DICTIONARY
  5
5B628
330
AABA
100
AcDbDictionary
280
     1
281
     1
  3
ACAD_XREC_ROUNDTRIP
360
5B629
  0
XRECORD
  5
5B625
102
{ACAD_REACTORS
330
5B624
102
}
330
5B624
100
AcDbXrecord
280
     1
102
SHADEPLOT
 70
     0
102
SHADEPLOTRESLEVEL
 70
     2
102
SHADEPLOTCUSTOMDPI
 70
   200
  0
XRECORD
  5
5B623
102
{ACAD_REACTORS
330
5B622
102
}
330
5B622
100
AcDbXrecord
280
     1
102
SHADEPLOT
 70
     0
102
SHADEPLOTRESLEVEL
 70
     2
102
SHADEPLOTCUSTOMDPI
 70
   300
  0
XRECORD
  5
5B627
102
{ACAD_REACTORS
330
5B626
102
}
330
5B626
100
AcDbXrecord
280
     1
102
SHADEPLOT
 70
     0
102
SHADEPLOTRESLEVEL
 70
     2
102
SHADEPLOTCUSTOMDPI
 70
   300
  0
XRECORD
  5
5B62D
102
{ACAD_REACTORS
330
5B62C
102
}
330
5B62C
100
AcDbXrecord
280
     1
102
MATERIAL
148
0.0
149
0.0
149
0.0
 93
        0
 94
       63
282
     0
 72
     1
 77
     1
171
     1
175
     1
179
     1
273
     0
  0
XRECORD
  5
5B62B
102
{ACAD_REACTORS
330
5B62A
102
}
330
5B62A
100
AcDbXrecord
280
     1
102
MATERIAL
148
0.0
149
0.0
149
0.0
 93
        0
 94
       63
282
     0
 72
     1
 77
     1
171
     1
175
     1
179
     1
273
     0
  0
XRECORD
  5
5B62F
102
{ACAD_REACTORS
330
5B62E
102
}
330
5B62E
100
AcDbXrecord
280
     1
102
MATERIAL
148
0.0
149
0.0
149
0.0
 93
        0
 94
       63
282
     0
 72
     1
 77
     1
171
     1
175
     1
179
     1
273
     0
  0
XRECORD
  5
5B629
102
{ACAD_REACTORS
330
5B628
102
}
330
5B628
100
AcDbXrecord
280
     1
102
ACAD_ROUNDTRIP_PRE2007_TABLESTYLE
 90
        4
 91
        0
  1

 92
        4
 93
        0
  2

 94
        4
 95
        0
  3

  0
ENDSEC
  0
EOF
