  0
SECTION
  2
HEADER
  9
$ACADVER
  1
AC1015
  9
$ACADMAINTVER
 70
    20
  9
$DWGCODEPAGE
  3
ANSI_932
  9
$INSBASE
 10
0.0
 20
0.0
 30
0.0
  9
$EXTMIN
 10
6074.924675701049
 20
-7301.092157567277
 30
0.0
  9
$EXTMAX
 10
6550.8937481774
 20
-7091.092157567276
 30
0.0
  9
$LIMMIN
 10
3779.599158088851
 20
100.7134268036752
  9
$LIMMAX
 10
9719.599158088852
 20
4300.713426803675
  9
$ORTHOMODE
 70
     0
  9
$REGENMODE
 70
     1
  9
$FILLMODE
 70
     1
  9
$QTEXTMODE
 70
     0
  9
$MIRRTEXT
 70
     0
  9
$LTSCALE
 40
1.0
  9
$ATTMODE
 70
     1
  9
$TEXTSIZE
 40
3.2
  9
$TRACEWID
 40
1.0
  9
$TEXTSTYLE
  7
STANDARD
  9
$CLAYER
  8
0部品18
  9
$CELTYPE
  6
ByLayer
  9
$CECOLOR
 62
   256
  9
$CELTSCALE
 40
1.0
  9
$DISPSILH
 70
     0
  9
$DIMSCALE
 40
1.0
  9
$DIMASZ
 40
1.0
  9
$DIMEXO
 40
1.0
  9
$DIMDLI
 40
10.0
  9
$DIMRND
 40
0.0
  9
$DIMDLE
 40
0.0
  9
$DIMEXE
 40
1.0
  9
$DIMTP
 40
0.1
  9
$DIMTM
 40
0.1
  9
$DIMTXT
 40
3.5
  9
$DIMCEN
 40
0.0
  9
$DIMTSZ
 40
0.0
  9
$DIMTOL
 70
     0
  9
$DIMLIM
 70
     0
  9
$DIMTIH
 70
     0
  9
$DIMTOH
 70
     0
  9
$DIMSE1
 70
     0
  9
$DIMSE2
 70
     0
  9
$DIMTAD
 70
     1
  9
$DIMZIN
 70
     8
  9
$DIMBLK
  1

  9
$DIMASO
 70
     1
  9
$DIMSHO
 70
     1
  9
$DIMPOST
  1

  9
$DIMAPOST
  1
"
  9
$DIMALT
 70
     0
  9
$DIMALTD
 70
     2
  9
$DIMALTF
 40
0.0393701
  9
$DIMLFAC
 40
1.0
  9
$DIMTOFL
 70
     1
  9
$DIMTVP
 40
0.0
  9
$DIMTIX
 70
     0
  9
$DIMSOXD
 70
     0
  9
$DIMSAH
 70
     0
  9
$DIMBLK1
  1

  9
$DIMBLK2
  1

  9
$DIMSTYLE
  2
SYS
  9
$DIMCLRD
 70
   256
  9
$DIMCLRE
 70
   256
  9
$DIMCLRT
 70
     7
  9
$DIMTFAC
 40
0.71
  9
$DIMGAP
 40
1.5
  9
$DIMJUST
 70
     0
  9
$DIMSD1
 70
     0
  9
$DIMSD2
 70
     0
  9
$DIMTOLJ
 70
     0
  9
$DIMTZIN
 70
     8
  9
$DIMALTZ
 70
     0
  9
$DIMALTTZ
 70
     0
  9
$DIMUPT
 70
     0
  9
$DIMDEC
 70
     2
  9
$DIMTDEC
 70
     2
  9
$DIMALTU
 70
     2
  9
$DIMALTTD
 70
     2
  9
$DIMTXSTY
  7
STANDARD
  9
$DIMAUNIT
 70
     0
  9
$DIMADEC
 70
     0
  9
$DIMALTRND
 40
0.0
  9
$DIMAZIN
 70
     2
  9
$DIMDSEP
 70
    46
  9
$DIMATFIT
 70
     3
  9
$DIMFRAC
 70
     0
  9
$DIMLDRBLK
  1

  9
$DIMLUNIT
 70
     2
  9
$DIMLWD
 70
    -1
  9
$DIMLWE
 70
    -1
  9
$DIMTMOVE
 70
     0
  9
$LUNITS
 70
     2
  9
$LUPREC
 70
     2
  9
$SKETCHINC
 40
1.0
  9
$FILLETRAD
 40
6.0
  9
$AUNITS
 70
     0
  9
$AUPREC
 70
     0
  9
$MENU
  1
.
  9
$ELEVATION
 40
0.0
  9
$PELEVATION
 40
0.0
  9
$THICKNESS
 40
0.0
  9
$LIMCHECK
 70
     0
  9
$CHAMFERA
 40
0.0
  9
$CHAMFERB
 40
0.0
  9
$CHAMFERC
 40
20.0
  9
$CHAMFERD
 40
0.0
  9
$SKPOLY
 70
     0
  9
$TDCREATE
 40
2455567.680725081
  9
$TDUCREATE
 40
2455567.305725081
  9
$TDUPDATE
 40
2456338.846068067
  9
$TDUUPDATE
 40
2456338.471068067
  9
$TDINDWG
 40
8.0569498264
  9
$TDUSRTIMER
 40
8.0569481944
  9
$USRTIMER
 70
     1
  9
$ANGBASE
 50
0.0
  9
$ANGDIR
 70
     0
  9
$PDMODE
 70
     0
  9
$PDSIZE
 40
-3.0
  9
$PLINEWID
 40
0.0
  9
$SPLFRAME
 70
     0
  9
$SPLINETYPE
 70
     6
  9
$SPLINESEGS
 70
     8
  9
$HANDSEED
  5
5B612
  9
$SURFTAB1
 70
     6
  9
$SURFTAB2
 70
     6
  9
$SURFTYPE
 70
     6
  9
$SURFU
 70
     6
  9
$SURFV
 70
     6
  9
$UCSBASE
  2

  9
$UCSNAME
  2

  9
$UCSORG
 10
0.0
 20
0.0
 30
0.0
  9
$UCSXDIR
 10
1.0
 20
0.0
 30
0.0
  9
$UCSYDIR
 10
0.0
 20
1.0
 30
0.0
  9
$UCSORTHOREF
  2

  9
$UCSORTHOVIEW
 70
     0
  9
$UCSORGTOP
 10
0.0
 20
0.0
 30
0.0
  9
$UCSORGBOTTOM
 10
0.0
 20
0.0
 30
0.0
  9
$UCSORGLEFT
 10
0.0
 20
0.0
 30
0.0
  9
$UCSORGRIGHT
 10
0.0
 20
0.0
 30
0.0
  9
$UCSORGFRONT
 10
0.0
 20
0.0
 30
0.0
  9
$UCSORGBACK
 10
0.0
 20
0.0
 30
0.0
  9
$PUCSBASE
  2

  9
$PUCSNAME
  2

  9
$PUCSORG
 10
0.0
 20
0.0
 30
0.0
  9
$PUCSXDIR
 10
1.0
 20
0.0
 30
0.0
  9
$PUCSYDIR
 10
0.0
 20
1.0
 30
0.0
  9
$PUCSORTHOREF
  2

  9
$PUCSORTHOVIEW
 70
     0
  9
$PUCSORGTOP
 10
0.0
 20
0.0
 30
0.0
  9
$PUCSORGBOTTOM
 10
0.0
 20
0.0
 30
0.0
  9
$PUCSORGLEFT
 10
0.0
 20
0.0
 30
0.0
  9
$PUCSORGRIGHT
 10
0.0
 20
0.0
 30
0.0
  9
$PUCSORGFRONT
 10
0.0
 20
0.0
 30
0.0
  9
$PUCSORGBACK
 10
0.0
 20
0.0
 30
0.0
  9
$USERI1
 70
     0
  9
$USERI2
 70
     0
  9
$USERI3
 70
     0
  9
$USERI4
 70
     0
  9
$USERI5
 70
     0
  9
$USERR1
 40
0.0
  9
$USERR2
 40
0.0
  9
$USERR3
 40
0.0
  9
$USERR4
 40
0.0
  9
$USERR5
 40
0.0
  9
$WORLDVIEW
 70
     1
  9
$SHADEDGE
 70
     3
  9
$SHADEDIF
 70
    70
  9
$TILEMODE
 70
     1
  9
$MAXACTVP
 70
    64
  9
$PINSBASE
 10
0.0
 20
0.0
 30
0.0
  9
$PLIMCHECK
 70
     0
  9
$PEXTMIN
 10
1.000000000000000E+20
 20
1.000000000000000E+20
 30
1.000000000000000E+20
  9
$PEXTMAX
 10
-1.000000000000000E+20
 20
-1.000000000000000E+20
 30
-1.000000000000000E+20
  9
$PLIMMIN
 10
-3.17498779296875
 20
-3.174999952316284
  9
$PLIMMAX
 10
293.4970092773438
 20
206.692492723465
  9
$UNITMODE
 70
     0
  9
$VISRETAIN
 70
     1
  9
$PLINEGEN
 70
     0
  9
$PSLTSCALE
 70
     1
  9
$TREEDEPTH
 70
  3020
  9
$CMLSTYLE
  2
Standard
  9
$CMLJUST
 70
     0
  9
$CMLSCALE
 40
20.0
  9
$PROXYGRAPHICS
 70
     1
  9
$MEASUREMENT
 70
     1
  9
$CELWEIGHT
370
    -1
  9
$ENDCAPS
280
     0
  9
$JOINSTYLE
280
     0
  9
$LWDISPLAY
290
     1
  9
$INSUNITS
 70
     4
  9
$HYPERLINKBASE
  1

  9
$STYLESHEET
  1
monochrome.ctb
  9
$XEDIT
290
     1
  9
$CEPSNTYPE
380
     0
  9
$PSTYLEMODE
290
     1
  9
$FINGERPRINTGUID
  2
{487E49EE-344A-43F6-800E-CE119D8346FF}
  9
$VERSIONGUID
  2
{5008A1EE-B13B-47FA-8335-A5DD9E896515}
  9
$EXTNAMES
290
     1
  9
$PSVPSCALE
 40
0.0
  9
$OLESTARTUP
290
     0
  0
ENDSEC
  0
SECTION
  2
CLASSES
  0
CLASS
  1
ACDBDICTIONARYWDFLT
  2
AcDbDictionaryWithDefault
  3
ObjectDBX Classes
 90
        0
280
     0
281
     0
  0
CLASS
  1
ACDBPLACEHOLDER
  2
AcDbPlaceHolder
  3
ObjectDBX Classes
 90
        0
280
     0
281
     0
  0
CLASS
  1
LAYOUT
  2
AcDbLayout
  3
ObjectDBX Classes
 90
        0
280
     0
281
     0
  0
CLASS
  1
AMGSETTINGSOBJ
  2
AmgSettingsObj
  3
"AcadM|Product Description: AutoCAD Mechanical|Company: Autodesk"
 90
        0
280
     0
281
     0
  0
CLASS
  1
ACME_DOCUMENT
  2
AcMeDbDoc
  3
AcMeServices
 90
        0
280
     0
281
     0
  0
CLASS
  1
ACMESCOPE
  2
AcMeScope
  3
AcMeServices
 90
        0
280
     0
281
     0
  0
CLASS
  1
ACMECOMMANDHISTORY
  2
AcMeCommandHistory
  3
AcMeServices
 90
        0
280
     0
281
     0
  0
CLASS
  1
DICTIONARYVAR
  2
AcDbDictionaryVar
  3
ObjectDBX Classes
 90
        0
280
     0
281
     0
  0
CLASS
  1
ACIMSYSVARMAN
  2
AcImSysVarManager
  3
AcMeServices
 90
        0
280
     0
281
     0
  0
CLASS
  1
ACIMREALSYSVAR
  2
AcImRealSysVar
  3
AcMeServices
 90
        0
280
     0
281
     0
  0
CLASS
  1
ACIMINTSYSVAR
  2
AcImIntSysVar
  3
AcMeServices
 90
        0
280
     0
281
     0
  0
CLASS
  1
ACMEDRAWINGMAN
  2
AcMeDrawingMan
  3
AcMeServices
 90
        0
280
     0
281
     0
  0
CLASS
  1
ACMEVIEW
  2
AcMeView
  3
AcMeServices
 90
        0
280
     0
281
     0
  0
CLASS
  1
ACDBENTITYCACHE
  2
AcMeEntityCache
  3
AcMeServices
 90
        0
280
     0
281
     0
  0
CLASS
  1
GSMANAGER
  2
AcMeGSManager
  3
AcMeServices
 90
        0
280
     0
281
     0
  0
CLASS
  1
AMDTINTERNALREACTOR
  2
AmdtInternalReactor
  3
AcMeServices
 90
        0
280
     0
281
     0
  0
CLASS
  1
ACMESTATEMGR
  2
AcMeStateMgr
  3
AcMeServices
 90
        0
280
     0
281
     0
  0
CLASS
  1
ACGREFMASTER
  2
AcGrefMaster
  3
AcAttribServices
 90
        0
280
     0
281
     0
  0
CLASS
  1
ACME_DATABASE
  2
AcMeDbDatabase
  3
AcMeServices
 90
        0
280
     0
281
     0
  0
CLASS
  1
ACRFINSADJUSTERMGR
  2
AcRfInsAdjusterMgr
  3
AcMeServices
 90
        0
280
     0
281
     0
  0
CLASS
  1
ACGREFACADMASTER
  2
AcGrefacadMaster
  3
AcGrefServices
 90
        0
280
     0
281
     0
  0
CLASS
  1
AMIMASTER
  2
AmiMaster
  3
AmiServices
 90
        0
280
     0
281
     0
  0
CLASS
  1
ACMDATADICTIONARY
  2
AcmDataDictionary
  3
"AcmSymBB|Product Description: AutoCAD Mechanical|Company: Autodesk"
 90
        0
280
     0
281
     0
  0
CLASS
  1
ACMDATAENTRYBLOCK
  2
AcmDataEntryBlock
  3
"AcmSymBB|Product Description: AutoCAD Mechanical|Company: Autodesk"
 90
        0
280
     0
281
     0
  0
CLASS
  1
ACIMSTRSYSVAR
  2
AcImStrSysVar
  3
AcMeServices
 90
        0
280
     0
281
     0
  0
CLASS
  1
ACMSTANDARDISO
  2
AcmStandardISO
  3
"Amdt_StdImp|Product Description: AutoCAD Mechanical|Company: Autodesk"
 90
        0
280
     0
281
     0
  0
CLASS
  1
AMGOBJPROPCFG
  2
AmgObjPropCfg
  3
"AmgLay|Product Description: AutoCAD Mechanical|Company: Autodesk"
 90
        1
280
     0
281
     0
  0
CLASS
  1
AMDTEDGESTANDARDISO
  2
AmdtEdgeStdISO
  3
"Amdt_StdImp|Product Description: AutoCAD Mechanical|Company: Autodesk"
 90
        0
280
     0
281
     0
  0
CLASS
  1
ACMSURFSTANDARDISO
  2
AcmSurfTextStdISO
  3
"Amdt_StdImp|Product Description: AutoCAD Mechanical|Company: Autodesk"
 90
        0
280
     0
281
     0
  0
CLASS
  1
ACMFCFSTANDARDISO
  2
AcmFCFStdISO
  3
"Amdt_StdImp|Product Description: AutoCAD Mechanical|Company: Autodesk"
 90
        0
280
     0
281
     0
  0
CLASS
  1
ACMWELDSTANDARDISO
  2
AcmWeldingStdISO
  3
"Amdt_StdImp|Product Description: AutoCAD Mechanical|Company: Autodesk"
 90
        0
280
     0
281
     0
  0
CLASS
  1
ACMIDSTANDARDISO
  2
AcmIdStdISO
  3
"Amdt_StdImp|Product Description: AutoCAD Mechanical|Company: Autodesk"
 90
        0
280
     0
281
     0
  0
CLASS
  1
ACMDATUMSTANDARDISO
  2
AcmDatumStdISO
  3
"Amdt_StdImp|Product Description: AutoCAD Mechanical|Company: Autodesk"
 90
        0
280
     0
281
     0
  0
CLASS
  1
ACMBOMSTANDARDISO
  2
AcmBOMStdISO
  3
"Amdt_StdImp|Product Description: AutoCAD Mechanical|Company: Autodesk"
 90
        0
280
     0
281
     0
  0
CLASS
  1
ACMDETAILSTANDARDISO
  2
AmdtDetailSymStdISO
  3
"Amdt_StdImp|Product Description: AutoCAD Mechanical|Company: Autodesk"
 90
        0
280
     0
281
     0
  0
CLASS
  1
ACMSECTIONSTANDARDISO
  2
AmdtSectionSymStdISO
  3
"Amdt_StdImp|Product Description: AutoCAD Mechanical|Company: Autodesk"
 90
        0
280
     0
281
     0
  0
CLASS
  1
ACMCENTERLINESTANDARDISO
  2
AmdtCenterLineStdISO
  3
"Amdt_StdImp|Product Description: AutoCAD Mechanical|Company: Autodesk"
 90
        0
280
     0
281
     0
  0
CLASS
  1
ACAMGLAYSTD
  2
AcAmgLayStd
  3
"AmgLay|Product Description: AutoCAD Mechanical|Company: Autodesk"
 90
        0
280
     0
281
     0
  0
CLASS
  1
ACAMGDIMSTD
  2
AcAmgDimStd
  3
"AmgDim|Product Description: AutoCAD Mechanical|Company: Autodesk"
 90
        0
280
     0
281
     0
  0
CLASS
  1
ACAMGTITLESTD
  2
AcAmgTitleStd
  3
"AmgTitle|Product Description: AutoCAD Mechanical|Company: Autodesk"
 90
        0
280
     0
281
     0
  0
CLASS
  1
ACAMGFILTERDAT
  2
AcAmgFilterDat
  3
"AcadM|Product Description: AutoCAD Mechanical|Company: Autodesk"
 90
        0
280
     0
281
     0
  0
CLASS
  1
LAYER_INDEX
  2
AcDbLayerIndex
  3
ObjectDBX Classes
 90
    32768
280
     0
281
     0
  0
CLASS
  1
IDBUFFER
  2
AcDbIdBuffer
  3
ObjectDBX Classes
 90
    32768
280
     0
281
     0
  0
CLASS
  1
PLOTSETTINGS
  2
AcDbPlotSettings
  3
ObjectDBX Classes
 90
    32768
280
     0
281
     0
  0
CLASS
  1
AMDTFORMULAUPDATEDISPATCHER
  2
AmdtFormulaUpdateDispatcher
  3
AcMeServices
 90
        0
280
     0
281
     0
  0
CLASS
  1
ACMSTANDARDANSI
  2
AcmStandardANSI
  3
"Amdt_StdImp|Product Description: AutoCAD Mechanical|Company: Autodesk"
 90
        0
280
     0
281
     0
  0
CLASS
  1
ACMSURFSTANDARDANSI
  2
AcmSurfTextStdANSI
  3
"Amdt_StdImp|Product Description: AutoCAD Mechanical|Company: Autodesk"
 90
        0
280
     0
281
     0
  0
CLASS
  1
ACMFCFSTANDARDANSI
  2
AcmFCFStdANSI
  3
"Amdt_StdImp|Product Description: AutoCAD Mechanical|Company: Autodesk"
 90
        0
280
     0
281
     0
  0
CLASS
  1
ACMWELDSTANDARDANSI
  2
AcmWeldingStdANSI
  3
"Amdt_StdImp|Product Description: AutoCAD Mechanical|Company: Autodesk"
 90
        0
280
     0
281
     0
  0
CLASS
  1
ACMIDSTANDARDANSI
  2
AcmIdStdANSI
  3
"Amdt_StdImp|Product Description: AutoCAD Mechanical|Company: Autodesk"
 90
        0
280
     0
281
     0
  0
CLASS
  1
ACMDATUMSTANDARDANSI
  2
AcmDatumStdANSI
  3
"Amdt_StdImp|Product Description: AutoCAD Mechanical|Company: Autodesk"
 90
        0
280
     0
281
     0
  0
CLASS
  1
ACMBOMSTANDARDANSI
  2
AcmBOMStdANSI
  3
"Amdt_StdImp|Product Description: AutoCAD Mechanical|Company: Autodesk"
 90
        0
280
     0
281
     0
  0
CLASS
  1
ACMDETAILSTANDARDANSI
  2
AmdtDetailSymStdANSI
  3
"Amdt_StdImp|Product Description: AutoCAD Mechanical|Company: Autodesk"
 90
        0
280
     0
281
     0
  0
CLASS
  1
ACMSECTIONSTANDARDANSI
  2
AmdtSectionSymStdANSI
  3
"Amdt_StdImp|Product Description: AutoCAD Mechanical|Company: Autodesk"
 90
        0
280
     0
281
     0
  0
CLASS
  1
ACMCENTERLINESTANDARDANSI
  2
AmdtCenterLineStdANSI
  3
"Amdt_StdImp|Product Description: AutoCAD Mechanical|Company: Autodesk"
 90
        0
280
     0
281
     0
  0
CLASS
  1
ACMBOM
  2
AcmBom
  3
"AcmSymBB|Product Description: AutoCAD Mechanical|Company: Autodesk"
 90
        0
280
     0
281
     0
  0
CLASS
  1
ACMDATAENTRYPART
  2
AcmDataEntryPart
  3
"AcmSymBB|Product Description: AutoCAD Mechanical|Company: Autodesk"
 90
    32768
280
     0
281
     0
  0
CLASS
  1
ACMPARTREF
  2
AcmPartRef
  3
"AcmSymBB|Product Description: AutoCAD Mechanical|Company: Autodesk"
 90
    35839
280
     0
281
     1
  0
CLASS
  1
ACDBCIRCARCRES
  2
AcDbCircArcRes
  3
AcGrefServices
 90
    32768
280
     0
281
     0
  0
CLASS
  1
ACMBOMROW
  2
AcmBomRow
  3
"AcmSymBB|Product Description: AutoCAD Mechanical|Company: Autodesk"
 90
    32768
280
     0
281
     0
  0
CLASS
  1
ACMBALLOON
  2
AcmBalloon
  3
"AcmSymBB|Product Description: AutoCAD Mechanical|Company: Autodesk"
 90
    35839
280
     0
281
     1
  0
CLASS
  1
AMDTNOTE
  2
AmdtNote
  3
"AcmSymBB|Product Description: AutoCAD Mechanical|Company: Autodesk"
 90
    35839
280
     0
281
     1
  0
CLASS
  1
STDPART2D
  2
AmgStdPart
  3
"AmgStdPart|Product Description: AutoCAD Mechanical|Company: Autodesk"
 90
    35839
280
     0
281
     1
  0
CLASS
  1
ACDBSTDPARTRES_LINE
  2
AcDbStdPartRes_Line
  3
"AmgStdPart|Product Description: AutoCAD Mechanical|Company: Autodesk"
 90
    32768
280
     0
281
     0
  0
CLASS
  1
ACMDATAENTRY
  2
AcmDataEntry
  3
"AcmSymBB|Product Description: AutoCAD Mechanical|Company: Autodesk"
 90
        0
280
     0
281
     0
  0
CLASS
  1
ACDBOPPOLYLINERES
  2
AcDbOpPolylineRes
  3
AcGrefServices
 90
    32768
280
     0
281
     0
  0
CLASS
  1
ACMPARTLIST
  2
AcmPartList
  3
"AcmSymBB|Product Description: AutoCAD Mechanical|Company: Autodesk"
 90
    35839
280
     0
281
     1
  0
CLASS
  1
ACDBLINERES
  2
AcDbLineRes
  3
AcGrefServices
 90
        0
280
     0
281
     0
  0
CLASS
  1
ACRFINSADJ
  2
AcRfInsAdjuster
  3
AcMeServices
 90
    32768
280
     0
281
     0
  0
CLASS
  1
AM_DRAWING_MGR
  2
AcDmDwgMgr
  3
AcMechDwgViewMgmt
 90
        0
280
     0
281
     0
  0
CLASS
  1
AM_DWG_DOCUMENT
  2
AcDmDwgDocument
  3
AcMechDwgViewMgmt
 90
        0
280
     0
281
     0
  0
CLASS
  1
AM_DWG_SHEET
  2
AcDmSheet
  3
AcMechDwgViewMgmt
 90
        0
280
     0
281
     0
  0
CLASS
  1
AM_VIEWDIMPARMAP
  2
AcDmViewDimParMap
  3
AcMechDwgViewMgmt
 90
        0
280
     0
281
     0
  0
CLASS
  1
AM_DWGMGR_NAME
  2
AcDmDwgMgrName
  3
AcMechDwgViewMgmt
 90
        0
280
     0
281
     0
  0
CLASS
  1
AMDTMENUSTATEMGR
  2
AmdtMenuStateMgr
  3
McadcomServices
 90
        0
280
     0
281
     0
  0
CLASS
  1
AMDTMCOMMENUSTATE
  2
AmdtMcomMenuState
  3
McadcomServices
 90
        0
280
     0
281
     0
  0
CLASS
  1
ASAPP
  2
AcAsAppObject
  3
AutoSurfServices
 90
        0
280
     0
281
     0
  0
CLASS
  1
IM_STATIC_MAN
  2
AcImStaticVarManager
  3
AcMeServices
 90
        0
280
     0
281
     0
  0
CLASS
  1
ACIMDBLSTATICVAR
  2
AcImDblStaticVar
  3
AcMeServices
 90
        0
280
     0
281
     0
  0
CLASS
  1
ACIMSTRSTATICVAR
  2
AcImStrStaticVar
  3
AcMeServices
 90
        0
280
     0
281
     0
  0
CLASS
  1
ACIMINTSTATICVAR
  2
AcImIntStaticVar
  3
AcMeServices
 90
        0
280
     0
281
     0
  0
CLASS
  1
ACASGREFMASTER
  2
AcAsGrefMaster
  3
AutoSurfResolverServices
 90
        0
280
     0
281
     0
  0
CLASS
  1
ACADGREFMODULE
  2
AcAdGrefModule
  3
AdGrefServices
 90
        0
280
     0
281
     0
  0
CLASS
  1
AMDTMAPISURFMOUDULE
  2
AmdtMApiSurfModule
  3
MApiSurfServices
 90
        0
280
     0
281
     0
  0
CLASS
  1
MAPIAMMOUDLE
  2
MApiAmModule
  3
MApiAmServices
 90
        0
280
     0
281
     0
  0
CLASS
  1
AMDTADMENUSTATE
  2
AmdtAdMenuState
  3
DesignerServices
 90
        0
280
     0
281
     0
  0
CLASS
  1
ADAPPL
  2
AcAdAppl
  3
DesignerServices
 90
        0
280
     0
281
     0
  0
CLASS
  1
DEPMGR
  2
AcAdDepMgr
  3
DesignerServices
 90
        0
280
     0
281
     0
  0
CLASS
  1
PARAMMGR
  2
AcAdParamMgr
  3
DesignerServices
 90
        0
280
     0
281
     0
  0
CLASS
  1
PARAMSCOPE
  2
AcAdParamScope
  3
DesignerServices
 90
        0
280
     0
281
     0
  0
CLASS
  1
NAMEDAPPL
  2
AcAdNamedAppl
  3
DesignerServices
 90
        0
280
     0
281
     0
  0
CLASS
  1
ADHNTMPLT
  2
AdHoleNoteTemplateMgr
  3
DesignerServices
 90
    32768
280
     0
281
     0
  0
CLASS
  1
AM_HNTEMPLATE_MGR_NAME
  2
AdHoleNoteTemplateMgrName
  3
DesignerServices
 90
    32768
280
     0
281
     0
  0
CLASS
  1
AMDTDMMENUSTATE
  2
AmdtDmMenuState
  3
AcMechDwgViewMgmt
 90
        0
280
     0
281
     0
  0
CLASS
  1
MAPIADMODULE
  2
MApiAdModule
  3
MApiAdServices
 90
        0
280
     0
281
     0
  0
CLASS
  1
AMDTAMMENUSTATE
  2
AmdtAmMenuState
  3
DesignerAssemblies
 90
        0
280
     0
281
     0
  0
CLASS
  1
ACAMPROJECT
  2
AcAmProject
  3
DesignerAssemblies
 90
        0
280
     0
281
     0
  0
CLASS
  1
ACAMGRCOMPDEF
  2
AcAmGrCompDef
  3
DesignerAssemblies
 90
        0
280
     0
281
     0
  0
CLASS
  1
ACCMCONTEXT
  2
AcCmContext
  3
DesignerAssemblies
 90
        0
280
     0
281
     0
  0
CLASS
  1
ACAMCOMPDEF
  2
AcAmCompDef
  3
DesignerAssemblies
 90
        0
280
     0
281
     0
  0
CLASS
  1
ACAMCOMPDEFMGR
  2
AcAmCompDefMgr
  3
DesignerAssemblies
 90
        0
280
     0
281
     0
  0
CLASS
  1
AMCONTEXTMGR
  2
AcAmContextMgr
  3
DesignerAssemblies
 90
        0
280
     0
281
     0
  0
CLASS
  1
ACAMCONTEXTMODELER
  2
AcAmContextModeler
  3
DesignerAssemblies
 90
        0
280
     0
281
     0
  0
CLASS
  1
CATALOGSTATE
  2
AcAmCatalogState
  3
DesignerAssemblies
 90
        0
280
     0
281
     0
  0
CLASS
  1
ACAMGRCOMPDEFSET
  2
AcAmGrCompDefSet
  3
DesignerAssemblies
 90
        0
280
     0
281
     0
  0
CLASS
  1
AMDTBROWSERDBTAB
  2
AmdtBrowserDbTab
  3
McadcomServices
 90
        0
280
     0
281
     0
  0
CLASS
  1
CBROWSERAPPOBJECT
  2
CBrowserAppObject
  3
McadcomServices
 90
        0
280
     0
281
     0
  0
CLASS
  1
DM_PLACEHOLDER
  2
AcDmSelsetPlaceholder
  3
AcMechDwgViewMgmt
 90
        0
280
     0
281
     0
  0
CLASS
  1
ACMPICKOBJ
  2
AcmPickEnt
  3
"AcmSymBB|Product Description: AutoCAD Mechanical|Company: Autodesk"
 90
    32768
280
     0
281
     1
  0
CLASS
  1
ACMNOTESTANDARDISO
  2
AmdtNoteStdISO
  3
"Amdt_StdImp|Product Description: AutoCAD Mechanical|Company: Autodesk"
 90
        0
280
     0
281
     0
  0
CLASS
  1
ACMNOTESTANDARDANSI
  2
AmdtNoteStdANSI
  3
"Amdt_StdImp|Product Description: AutoCAD Mechanical|Company: Autodesk"
 90
        0
280
     0
281
     0
  0
CLASS
  1
ACMTHREADLINESTANDARDISO
  2
AmdtThreadLineStdISO
  3
"Amdt_StdImp|Product Description: AutoCAD Mechanical|Company: Autodesk"
 90
        0
280
     0
281
     0
  0
CLASS
  1
ACMTHREADLINESTANDARDANSI
  2
AmdtThreadLineStdANSI
  3
"Amdt_StdImp|Product Description: AutoCAD Mechanical|Company: Autodesk"
 90
        0
280
     0
281
     0
  0
CLASS
  1
TABLESTYLE
  2
AcDbTableStyle
  3
ObjectDBX Classes
 90
     4095
280
     0
281
     0
  0
CLASS
  1
SORTENTSTABLE
  2
AcDbSortentsTable
  3
ObjectDBX Classes
 90
        0
280
     0
281
     0
  0
CLASS
  1
MATERIAL
  2
AcDbMaterial
  3
ObjectDBX Classes
 90
     1153
280
     0
281
     0
  0
CLASS
  1
VISUALSTYLE
  2
AcDbVisualStyle
  3
ObjectDBX Classes
 90
     4095
280
     0
281
     0
  0
CLASS
  1
ACRFATTGENMGR
  2
AcRfAttGeneralMgr
  3
AcAttribServices
 90
        0
280
     0
281
     0
  0
CLASS
  1
ACRFOBJATTMGR
  2
AcRfObjAttGroupMgr
  3
AcAttribServices
 90
        0
280
     0
281
     0
  0
CLASS
  1
ACRFMCADAPIATTHOLDER
  2
AcRfMCADAPIAttHolder
  3
AcAttribServices
 90
        0
280
     0
281
     0
  0
CLASS
  1
AMDTSYSATTR
  2
AmdtSystemAttribute
  3
AcAttribServices
 90
        0
280
     0
281
     0
  0
CLASS
  1
ACMTAPERSTANDARDISO
  2
AcmTaperStdISO
  3
"Amdt_StdImp|Product Description: AutoCAD Mechanical|Company: Autodesk"
 90
        0
280
     0
281
     0
  0
CLASS
  1
CAMSSTRUCTBTNSTATE
  2
StructBtnState
  3
L"DesignerAssemblies"
 90
        0
280
     0
281
     0
  0
CLASS
  1
DIMASSOC
  2
AcDbDimAssoc
  3
"AcDbDimAssoc|Product Desc:     AcDim ARX App For Dimension|Company:          Autodesk, Inc.|WEB Address:      www.autodesk.com"
 90
    32768
280
     0
281
     0
  0
CLASS
  1
EXACXREFPANELOBJECT
  2
ExAcXREFPanelObject
  3
EXAC_ESW
 90
    33793
280
     0
281
     0
  0
CLASS
  1
NPOCOLLECTION
  2
AcDbImpNonPersistentObjectsCollection
  3
ObjectDBX Classes
 90
    33921
280
     0
281
     0
  0
CLASS
  1
AMDTEDGESTANDARDISO13715
  2
AmdtEdgeStdISO13715
  3
"Amdt_StdImp|Product Description: AutoCAD Mechanical|Company: Autodesk"
 90
        0
280
     0
281
     0
  0
CLASS
  1
AMDTNOTETEMPLATEDB
  2
AmdtNoteTemplateDB
  3
AMDT_STDIMP_MODULE_NAME
 90
        0
280
     0
281
     0
  0
CLASS
  1
ACAMGHOLECHARTSTDISO
  2
AcAmgHoleChartStdISO
  3
ACMSYMBB_MODULE_NAME
 90
        0
280
     0
281
     0
  0
CLASS
  1
ACMTAPERSTANDARDANSI
  2
AcmTaperStdANSI
  3
"Amdt_StdImp|Product Description: AutoCAD Mechanical|Company: Autodesk"
 90
        0
280
     0
281
     0
  0
CLASS
  1
ACAMGHOLECHARTSTDANSI
  2
AcAmgHoleChartStdANSI
  3
ACMSYMBB_MODULE_NAME
 90
        0
280
     0
281
     0
  0
CLASS
  1
ACAMSTDPCOMPDEF
  2
AcAmStdpCompDef
  3
DesignerAssemblies
 90
    32768
280
     0
281
     0
  0
CLASS
  1
ACAMCOMP
  2
AcAmComp
  3
DesignerAssemblies
 90
    32768
280
     0
281
     0
  0
CLASS
  1
AC_AM_STDP_VIEW_DEF
  2
AcAmStdpViewDef
  3
DesignerAssemblies
 90
    32768
280
     0
281
     0
  0
CLASS
  1
AC_AM_MVD_DEP_MGR
  2
AcAmMVDdepMgr
  3
DesignerAssemblies
 90
        0
280
     0
281
     0
  0
CLASS
  1
AC_AM_MASTER_VIEW_DEF
  2
AcAmMasterViewDef
  3
DesignerAssemblies
 90
        0
280
     0
281
     0
  0
CLASS
  1
AC_AM_DIRTY_NODES
  2
AcAmDirtyNodes
  3
DesignerAssemblies
 90
        0
280
     0
281
     0
  0
CLASS
  1
AC_AM_MAPPER_CACHE
  2
AcAmMapperCache
  3
DesignerAssemblies
 90
        0
280
     0
281
     0
  0
CLASS
  1
ACAMMVDBACKUPOBJECT
  2
AcAmMVDBackupObject
  3
DesignerAssemblies
 90
        0
280
     0
281
     0
  0
CLASS
  1
AC_AM_COMP_VIEW_INST
  2
AcAmCompView
  3
DesignerAssemblies
 90
    32768
280
     0
281
     0
  0
CLASS
  1
AC_AM_2D_XREF_MGR
  2
AcAmXrefMgr2d
  3
DesignerAssemblies
 90
        0
280
     0
281
     0
  0
CLASS
  1
AC_AM_HIDE_SITUATION
  2
AcAmHideSituation
  3
DesignerAssemblies
 90
    32768
280
     0
281
     0
  0
CLASS
  1
AC_AM_TRANSFORM_GHOST
  2
AcDbTransformGhost
  3
DesignerAssemblies
 90
    32768
280
     0
281
     1
  0
CLASS
  1
L"OBJCLONER"
  2
ObjCloner
  3
DesignerAssemblies
 90
    32768
280
     0
281
     1
  0
ENDSEC
  0
SECTION
  2
TABLES
  0
TABLE
  2
VPORT
  5
8
330
0
100
AcDbSymbolTable
 70
     1
  0
VPORT
  5
B0EC
330
8
100
AcDbSymbolTableRecord
100
AcDbViewportTableRecord
  2
*Active
 70
     0
 10
0.0
 20
0.0
 11
1.0
 21
1.0
 12
6196.87901380175
 22
-7170.51594080432
 13
0.0
 23
0.0
 14
2.5
 24
2.5
 15
10.0
 25
10.0
 16
0.0
 26
0.0
 36
1.0
 17
0.0
 27
0.0
 37
0.0
 40
435.5157393827305
 41
1.702970297029702
 42
50.0
 43
-1370.695619172058
 44
-1370.695619172058
 50
0.0
 51
0.0
 71
     0
 72
   100
 73
     1
 74
     3
 75
     0
 76
     0
 77
     0
 78
     0
281
     0
 65
     0
110
0.0
120
0.0
130
0.0
111
1.0
121
0.0
131
0.0
112
0.0
122
1.0
132
0.0
 79
     0
146
0.0
  0
ENDTAB
  0
TABLE
  2
LTYPE
  5
5
330
0
100
AcDbSymbolTable
 70
    24
  0
LTYPE
  5
14
330
5
100
AcDbSymbolTableRecord
100
AcDbLinetypeTableRecord
  2
ByBlock
 70
     0
  3

 72
    65
 73
     0
 40
0.0
  0
LTYPE
  5
15
330
5
100
AcDbSymbolTableRecord
100
AcDbLinetypeTableRecord
  2
ByLayer
 70
     0
  3

 72
    65
 73
     0
 40
0.0
  0
LTYPE
  5
16
330
5
100
AcDbSymbolTableRecord
100
AcDbLinetypeTableRecord
  2
Continuous
 70
     0
  3
Solid line
 72
    65
 73
     0
 40
0.0
  0
LTYPE
  5
4F
330
5
100
AcDbSymbolTableRecord
100
AcDbLinetypeTableRecord
  2
AM_ISO02W050
 70
     0
  3
__ __ __ __ __ __ __ __ __ __ __ __ __ __ __
 72
    65
 73
     2
 40
7.5
 49
6.0
 74
     0
 49
-1.5
 74
     0
  0
LTYPE
  5
52
330
5
100
AcDbSymbolTableRecord
100
AcDbLinetypeTableRecord
  2
Amconstr
 70
     0
  3
_______________________
 72
    65
 73
     2
 40
9999.0
 49
9999.0
 74
     0
 49
0.0
 74
     0
  0
LTYPE
  5
64
330
5
100
AcDbSymbolTableRecord
100
AcDbLinetypeTableRecord
  2
ACISOWELD
 70
     0
  3
_ _ _ _ _
 72
    65
 73
     2
 40
2.0
 49
2.0
 74
     0
 49
-1.0
 74
     0
  0
LTYPE
  5
65
330
5
100
AcDbSymbolTableRecord
100
AcDbLinetypeTableRecord
  2
ACISOTGB
 70
     0
  3
__ . . __ . .
 72
    65
 73
     6
 40
9.0
 49
4.0
 74
     0
 49
-1.0
 74
     0
 49
1.0
 74
     0
 49
-1.0
 74
     0
 49
1.0
 74
     0
 49
-1.0
 74
     0
  0
LTYPE
  5
66
330
5
100
AcDbSymbolTableRecord
100
AcDbLinetypeTableRecord
  2
ACISOTGL
 70
     0
  3
_ _ _ _ _
 72
    65
 73
     2
 40
3.0
 49
2.0
 74
     0
 49
-1.0
 74
     0
  0
LTYPE
  5
69
330
5
100
AcDbSymbolTableRecord
100
AcDbLinetypeTableRecord
  2
CENTER
 70
     0
  3
__ . __
 72
    65
 73
     4
 40
7.0
 49
4.0
 74
     0
 49
-1.0
 74
     0
 49
1.0
 74
     0
 49
-1.0
 74
     0
  0
LTYPE
  5
A6E
330
5
100
AcDbSymbolTableRecord
100
AcDbLinetypeTableRecord
  2
PHANTOM2
 70
     0
  3
Phantom (.5x) ___ _ _ ___ _ _ ___ _ _ ___ _ _
 72
    65
 73
     6
 40
31.75
 49
15.875
 74
     0
 49
-3.174999999999999
 74
     0
 49
3.174999999999999
 74
     0
 49
-3.174999999999999
 74
     0
 49
3.174999999999999
 74
     0
 49
-3.174999999999999
 74
     0
  0
LTYPE
  5
4DED
330
5
100
AcDbSymbolTableRecord
100
AcDbLinetypeTableRecord
  2
中線
 70
     0
  3
___________________
 72
    65
 73
     2
 40
2.0
 49
1.0
 74
     0
 49
1.0
 74
     0
  0
LTYPE
  5
4DF6
330
5
100
AcDbSymbolTableRecord
100
AcDbLinetypeTableRecord
  2
細線
 70
     0
  3
___________________
 72
    65
 73
     2
 40
2.0
 49
1.0
 74
     0
 49
1.0
 74
     0
  0
LTYPE
  5
4DF7
330
5
100
AcDbSymbolTableRecord
100
AcDbLinetypeTableRecord
  2
太線
 70
     0
  3
___________________
 72
    65
 73
     2
 40
2.0
 49
1.0
 74
     0
 49
1.0
 74
     0
  0
LTYPE
  5
4EA7
330
5
100
AcDbSymbolTableRecord
100
AcDbLinetypeTableRecord
  2
文字
 70
     0
  3
_________________
 72
    65
 73
     2
 40
2.0
 49
1.0
 74
     0
 49
1.0
 74
     0
  0
LTYPE
  5
4EA9
330
5
100
AcDbSymbolTableRecord
100
AcDbLinetypeTableRecord
  2
寸法線
 70
     0
  3
________________
 72
    65
 73
     2
 40
2.0
 49
1.0
 74
     0
 49
1.0
 74
     0
  0
LTYPE
  5
4F12
330
5
100
AcDbSymbolTableRecord
100
AcDbLinetypeTableRecord
  2
ハッチング
 70
     0
  3
_________________
 72
    65
 73
     2
 40
2.0
 49
1.0
 74
     0
 49
1.0
 74
     0
  0
LTYPE
  5
5180
330
5
100
AcDbSymbolTableRecord
100
AcDbLinetypeTableRecord
  2
陰線1
 70
     0
  3
__ __ __ __
 72
    65
 73
     2
 40
4.0
 49
2.2
 74
     0
 49
-1.8
 74
     0
  0
LTYPE
  5
5182
330
5
100
AcDbSymbolTableRecord
100
AcDbLinetypeTableRecord
  2
切断線
 70
     0
  3
/\/-/\/-/\/-/\/-/\/-/\/
 72
    65
 73
     2
 40
11.0001
 49
0.0001
 74
     4
 75
   135
340
56
 46
0.04
 50
0.0
 44
0.0
 45
0.0
 49
-11.0
 74
     0
  0
LTYPE
  5
5183
330
5
100
AcDbSymbolTableRecord
100
AcDbLinetypeTableRecord
  2
想像線1
 70
     0
  3
__ __ __ _____ __ __ ____
 72
    65
 73
     6
 40
14.5
 49
6.0
 74
     0
 49
-1.5
 74
     0
 49
2.0
 74
     0
 49
-1.5
 74
     0
 49
2.0
 74
     0
 49
-1.5
 74
     0
  0
LTYPE
  5
5185
330
5
100
AcDbSymbolTableRecord
100
AcDbLinetypeTableRecord
  2
中心線1
 70
     0
  3
___ _ ___ _ ___
 72
    65
 73
     4
 40
18.0
 49
12.0
 74
     0
 49
-2.0
 74
     0
 49
2.0
 74
     0
 49
-2.0
 74
     0
  0
LTYPE
  5
5188
330
5
100
AcDbSymbolTableRecord
100
AcDbLinetypeTableRecord
  2
補助線
 70
     0
  3
______________
 72
    65
 73
     2
 40
2.0
 49
1.0
 74
     0
 49
1.0
 74
     0
  0
LTYPE
  5
6427
330
5
100
AcDbSymbolTableRecord
100
AcDbLinetypeTableRecord
  2
HIDDEN
 70
     0
  3
Hidden __ __ __ __ __ __ __ __ __ __ __ __ __ _
 72
    65
 73
     2
 40
0.375
 49
0.25
 74
     0
 49
-0.125
 74
     0
  0
LTYPE
  5
AF95
330
5
100
AcDbSymbolTableRecord
100
AcDbLinetypeTableRecord
  2
AM_ISO08W050
 70
     0
  3
____ . ____ . ____ . ____ . ____ . ____ . ____
 72
    65
 73
     4
 40
18.0
 49
12.0
 74
     0
 49
-1.5
 74
     0
 49
3.0
 74
     0
 49
-1.5
 74
     0
  0
LTYPE
  5
FD15
330
5
100
AcDbSymbolTableRecord
100
AcDbLinetypeTableRecord
  2
ACANSTGB
 70
     0
  3
__ . . __ . .
 72
    65
 73
     6
 40
0.35433070866
 49
0.15748031496
 74
     0
 49
-0.03937007874
 74
     0
 49
0.03937007874
 74
     0
 49
-0.03937007874
 74
     0
 49
0.03937007874
 74
     0
 49
-0.03937007874
 74
     0
  0
LTYPE
  5
FD16
330
5
100
AcDbSymbolTableRecord
100
AcDbLinetypeTableRecord
  2
ACANSTGL
 70
     0
  3
_ _ _ _ _
 72
    65
 73
     2
 40
0.11811023622
 49
0.07874015748
 74
     0
 49
-0.03937007874
 74
     0
  0
ENDTAB
  0
TABLE
  2
LAYER
  5
2
102
{ACAD_XDICTIONARY
360
3F95
102
}
330
0
100
AcDbSymbolTable
 70
    23
  0
LAYER
  5
10
330
2
100
AcDbSymbolTableRecord
100
AcDbLayerTableRecord
  2
0
 70
     0
 62
     7
  6
Continuous
370
    -3
390
F
  0
LAYER
  5
6D1
330
2
100
AcDbSymbolTableRecord
100
AcDbLayerTableRecord
  2
Defpoints
 70
     0
 62
     7
  6
Continuous
290
     0
370
    -3
390
F
  0
LAYER
  5
AC9F
330
2
100
AcDbSymbolTableRecord
100
AcDbLayerTableRecord
  2
size
 70
     0
 62
     5
  6
Continuous
290
     0
370
    25
390
F
  0
LAYER
  5
ACA0
330
2
100
AcDbSymbolTableRecord
100
AcDbLayerTableRecord
  2
waku
 70
     0
 62
     7
  6
Continuous
370
    35
390
F
  0
LAYER
  5
ACA1
330
2
100
AcDbSymbolTableRecord
100
AcDbLayerTableRecord
  2
AM_6
 70
     0
 62
     2
  6
文字
370
    15
390
F
1001
AcAecLayerStandard
1000

1000

  0
LAYER
  5
AD64
330
2
100
AcDbSymbolTableRecord
100
AcDbLayerTableRecord
  2
AM_2
 70
     0
 62
     1
  6
細線
370
    15
390
F
1001
AcAecLayerStandard
1000

1000

  0
LAYER
  5
AD68
330
2
100
AcDbSymbolTableRecord
100
AcDbLayerTableRecord
  2
AM_5
 70
     0
 62
     3
  6
寸法線
370
    15
390
F
1001
AcAecLayerStandard
1000

1000

  0
LAYER
  5
B5F9
330
2
100
AcDbSymbolTableRecord
100
AcDbLayerTableRecord
  2
0部品10
 70
     0
 62
   131
  6
Continuous
370
    30
390
F
1001
AcAecLayerStandard
1000

1000

  0
LAYER
  5
B5FB
330
2
100
AcDbSymbolTableRecord
100
AcDbLayerTableRecord
  2
0部品18
 70
     0
 62
   254
  6
細線
370
    30
390
F
1001
AcAecLayerStandard
1000

1000

  0
LAYER
  5
5B435
330
2
100
AcDbSymbolTableRecord
100
AcDbLayerTableRecord
  2
AM_0
 70
     0
 62
     7
  6
中線
370
    25
390
F
1001
AcAecLayerStandard
1000

1000

  0
LAYER
  5
5B436
330
2
100
AcDbSymbolTableRecord
100
AcDbLayerTableRecord
  2
AM_7
 70
     0
 62
     4
  6
中心線1
370
    15
390
F
1001
AcAecLayerStandard
1000

1000

  0
LAYER
  5
5B437
102
{ACAD_XDICTIONARY
360
5B438
102
}
330
2
100
AcDbSymbolTableRecord
100
AcDbLayerTableRecord
  2
AM_3
 70
     0
 62
     6
  6
陰線1
370
    15
390
F
1001
AcAecLayerStandard
1000

1000

  0
ENDTAB
  0
TABLE
  2
STYLE
  5
3
330
0
100
AcDbSymbolTable
 70
     7
  0
STYLE
  5
11
330
3
100
AcDbSymbolTableRecord
100
AcDbTextStyleTableRecord
  2
STANDARD
 70
     0
 40
0.0
 41
0.7
 50
0.0
 71
     0
 42
3.2
  3
romans.shx
  4
extfont.shx
  0
STYLE
  5
56
330
3
100
AcDbSymbolTableRecord
100
AcDbTextStyleTableRecord
  2

 70
     1
 40
0.0
 41
1.0
 50
0.0
 71
     0
 42
2.5
  3
ltypeshp.shx
  4

  0
STYLE
  5
58
330
3
100
AcDbSymbolTableRecord
100
AcDbTextStyleTableRecord
  2
ACISOTS
 70
     0
 40
1.0
 41
1.0
 50
0.0
 71
     0
 42
2.5
  3
isocp.shx
  4
extfont.shx
  0
STYLE
  5
63
330
3
100
AcDbSymbolTableRecord
100
AcDbTextStyleTableRecord
  2
ACISOGDT
 70
     0
 40
0.0
 41
1.0
 50
0.0
 71
     0
 42
2.5
  3
amgdt.shx
  4

  0
STYLE
  5
A74
330
3
100
AcDbSymbolTableRecord
100
AcDbTextStyleTableRecord
  2
DIM
 70
     0
 40
0.0
 41
1.0
 50
0.0
 71
     0
 42
2.5
  3
monotxt.shx
  4
extfont.shx
  0
STYLE
  5
FD18
330
3
100
AcDbSymbolTableRecord
100
AcDbTextStyleTableRecord
  2
ACANSTS
 70
     0
 40
1.0
 41
1.0
 50
0.0
 71
     0
 42
0.2
  3
romans.shx
  4
extfont.shx
  0
STYLE
  5
FD19
330
3
100
AcDbSymbolTableRecord
100
AcDbTextStyleTableRecord
  2
ACANSGDT
 70
     0
 40
0.0
 41
1.0
 50
0.0
 71
     0
 42
0.2
  3
amgdt.shx
  4

  0
ENDTAB
  0
TABLE
  2
VIEW
  5
6
330
0
100
AcDbSymbolTable
 70
     6
  0
VIEW
  5
AE1
330
6
100
AcDbSymbolTableRecord
100
AcDbViewTableRecord
  2
AM_VIEW1
 70
     0
 40
2203.896457765668
 10
5264.599158088851
 20
3198.765197920841
 41
2970.0
 11
0.0
 21
0.0
 31
1.0
 12
0.0
 22
0.0
 32
0.0
 42
50.0
 43
-1370.695619172058
 44
-1370.695619172058
 50
0.0
 71
     0
281
     0
 72
     0
  0
VIEW
  5
AE2
330
6
100
AcDbSymbolTableRecord
100
AcDbViewTableRecord
  2
AM_VIEW2
 70
     0
 40
2203.896457765668
 10
8234.599158088851
 20
3198.765197920841
 41
2970.0
 11
0.0
 21
0.0
 31
1.0
 12
0.0
 22
0.0
 32
0.0
 42
50.0
 43
-1370.695619172058
 44
-1370.695619172058
 50
0.0
 71
     0
281
     0
 72
     0
  0
VIEW
  5
AE3
330
6
100
AcDbSymbolTableRecord
100
AcDbViewTableRecord
  2
AM_VIEW3
 70
     0
 40
2203.896457765668
 10
5264.599158088851
 20
1202.661655686509
 41
2970.0
 11
0.0
 21
0.0
 31
1.0
 12
0.0
 22
0.0
 32
0.0
 42
50.0
 43
-1370.695619172058
 44
-1370.695619172058
 50
0.0
 71
     0
281
     0
 72
     0
  0
VIEW
  5
AE4
330
6
100
AcDbSymbolTableRecord
100
AcDbViewTableRecord
  2
AM_VIEW4
 70
     0
 40
2203.896457765668
 10
8234.599158088851
 20
1202.661655686509
 41
2970.0
 11
0.0
 21
0.0
 31
1.0
 12
0.0
 22
0.0
 32
0.0
 42
50.0
 43
-1370.695619172058
 44
-1370.695619172058
 50
0.0
 71
     0
281
     0
 72
     0
  0
VIEW
  5
AE5
330
6
100
AcDbSymbolTableRecord
100
AcDbViewTableRecord
  2
AM_VIEW5
 70
     0
 40
2203.896457765668
 10
6749.599158088852
 20
2200.713426803675
 41
2970.0
 11
0.0
 21
0.0
 31
1.0
 12
0.0
 22
0.0
 32
0.0
 42
50.0
 43
-1370.695619172058
 44
-1370.695619172058
 50
0.0
 71
     0
281
     0
 72
     0
  0
VIEW
  5
AE6
330
6
100
AcDbSymbolTableRecord
100
AcDbViewTableRecord
  2
AM_VIEW6
 70
     0
 40
4407.748837602181
 10
6749.599158088852
 20
2200.713426803675
 41
5939.9406
 11
0.0
 21
0.0
 31
1.0
 12
0.0
 22
0.0
 32
0.0
 42
50.0
 43
-1370.695619172058
 44
-1370.695619172058
 50
0.0
 71
     0
281
     0
 72
     0
  0
ENDTAB
  0
TABLE
  2
UCS
  5
7
330
0
100
AcDbSymbolTable
 70
     0
  0
ENDTAB
  0
TABLE
  2
APPID
  5
9
330
0
100
AcDbSymbolTable
 70
    67
  0
APPID
  5
12
330
9
100
AcDbSymbolTableRecord
100
AcDbRegAppTableRecord
  2
ACAD
 70
     0
  0
APPID
  5
30
330
9
100
AcDbSymbolTableRecord
100
AcDbRegAppTableRecord
  2
MCAD_NO_VIS
 70
     0
  0
APPID
  5
31
330
9
100
AcDbSymbolTableRecord
100
AcDbRegAppTableRecord
  2
ACAD_TEMP_GRAPHIC
 70
     0
  0
APPID
  5
44
330
9
100
AcDbSymbolTableRecord
100
AcDbRegAppTableRecord
  2
ACATTRIBSERVICES
 70
     0
  0
APPID
  5
7A1
330
9
100
AcDbSymbolTableRecord
100
AcDbRegAppTableRecord
  2
GENIUS_GENDIMSH_14
 70
     0
  0
APPID
  5
A49
330
9
100
AcDbSymbolTableRecord
100
AcDbRegAppTableRecord
  2
GENIUS_GENREC_14
 70
     0
  0
APPID
  5
A4A
330
9
100
AcDbSymbolTableRecord
100
AcDbRegAppTableRecord
  2
GENIUS_GENOBJ-N-REC_13
 70
     0
  0
APPID
  5
A4B
330
9
100
AcDbSymbolTableRecord
100
AcDbRegAppTableRecord
  2
GENIUS_GENODEF_13
 70
     0
  0
APPID
  5
A4C
330
9
100
AcDbSymbolTableRecord
100
AcDbRegAppTableRecord
  2
DCO15
 70
     0
  0
APPID
  5
ADC
330
9
100
AcDbSymbolTableRecord
100
AcDbRegAppTableRecord
  2
GENIUS_GENOLIS_13
 70
     0
  0
APPID
  5
ADD
330
9
100
AcDbSymbolTableRecord
100
AcDbRegAppTableRecord
  2
GENIUS_GENOENT_13
 70
     0
  0
APPID
  5
ADE
330
9
100
AcDbSymbolTableRecord
100
AcDbRegAppTableRecord
  2
GENIUS_GENOBJ-N-TIT_13
 70
     0
  0
APPID
  5
ADF
330
9
100
AcDbSymbolTableRecord
100
AcDbRegAppTableRecord
  2
GENIUS_GENTITLE_13
 70
     0
  0
APPID
  5
AE0
330
9
100
AcDbSymbolTableRecord
100
AcDbRegAppTableRecord
  2
GENIUS_GENOREF_13
 70
     0
  0
APPID
  5
AE7
330
9
100
AcDbSymbolTableRecord
100
AcDbRegAppTableRecord
  2
GENIUS_GENSCREG_15
 70
     0
  0
APPID
  5
AE8
330
9
100
AcDbSymbolTableRecord
100
AcDbRegAppTableRecord
  2
GENIUS_GENOBJ-N-SDF_13
 70
     0
  0
APPID
  5
FAF
330
9
100
AcDbSymbolTableRecord
100
AcDbRegAppTableRecord
  2
GENIUS_GENBLLY_14
 70
     0
  0
APPID
  5
FB0
330
9
100
AcDbSymbolTableRecord
100
AcDbRegAppTableRecord
  2
GENIUS_GENTRA_14
 70
     0
  0
APPID
  5
1285
330
9
100
AcDbSymbolTableRecord
100
AcDbRegAppTableRecord
  2
GENIUS_GENDTOL_13
 70
     0
  0
APPID
  5
142D
330
9
100
AcDbSymbolTableRecord
100
AcDbRegAppTableRecord
  2
GENIUS_GENOBJ-N-CEN_13
 70
     0
  0
APPID
  5
1AB5
330
9
100
AcDbSymbolTableRecord
100
AcDbRegAppTableRecord
  2
GENIUS_GENOBJ-N-CRS_13
 70
     0
  0
APPID
  5
1B36
330
9
100
AcDbSymbolTableRecord
100
AcDbRegAppTableRecord
  2
GENIUS_GENOBJ-N-HTC_13
 70
     0
  0
APPID
  5
1B37
330
9
100
AcDbSymbolTableRecord
100
AcDbRegAppTableRecord
  2
GENIUS_GENHATCH_13
 70
     0
  0
APPID
  5
216D
330
9
100
AcDbSymbolTableRecord
100
AcDbRegAppTableRecord
  2
GENIUS_GENOBJ-N-FIL_13
 70
     0
  0
APPID
  5
2356
330
9
100
AcDbSymbolTableRecord
100
AcDbRegAppTableRecord
  2
GEVID990412420
 70
     0
  0
APPID
  5
2357
330
9
100
AcDbSymbolTableRecord
100
AcDbRegAppTableRecord
  2
GEVDC
 70
     0
  0
APPID
  5
2358
330
9
100
AcDbSymbolTableRecord
100
AcDbRegAppTableRecord
  2
GEVCON
 70
     0
  0
APPID
  5
235B
330
9
100
AcDbSymbolTableRecord
100
AcDbRegAppTableRecord
  2
GEVRADREF
 70
     0
  0
APPID
  5
2360
330
9
100
AcDbSymbolTableRecord
100
AcDbRegAppTableRecord
  2
GENIUS_GENBH_13
 70
     0
  0
APPID
  5
2362
330
9
100
AcDbSymbolTableRecord
100
AcDbRegAppTableRecord
  2
GENIUS_GENOBJ-NBEHI-BHF_13
 70
     0
  0
APPID
  5
2364
330
9
100
AcDbSymbolTableRecord
100
AcDbRegAppTableRecord
  2
GENIUS_GENOBJ-NBEHI-BHB_13
 70
     0
  0
APPID
  5
2379
330
9
100
AcDbSymbolTableRecord
100
AcDbRegAppTableRecord
  2
GENIUS_GENOBJ-F-SCPASSM_13
 70
     0
  0
APPID
  5
3D74
330
9
100
AcDbSymbolTableRecord
100
AcDbRegAppTableRecord
  2
GENIUS_GENDIM_13
 70
     0
  0
APPID
  5
3D76
330
9
100
AcDbSymbolTableRecord
100
AcDbRegAppTableRecord
  2
GENIUS_GE3DTOL_13
 70
     0
  0
APPID
  5
3D9C
330
9
100
AcDbSymbolTableRecord
100
AcDbRegAppTableRecord
  2
AD_DRAW
 70
     0
  0
APPID
  5
3DE8
330
9
100
AcDbSymbolTableRecord
100
AcDbRegAppTableRecord
  2
ASURF_PCURVE_APPNAME
 70
     0
  0
APPID
  5
3DED
330
9
100
AcDbSymbolTableRecord
100
AcDbRegAppTableRecord
  2
AMG_3D2D_5.0
 70
     0
  0
APPID
  5
3E1B
330
9
100
AcDbSymbolTableRecord
100
AcDbRegAppTableRecord
  2
DESIGNERASSEMBLIES
 70
     0
  0
APPID
  5
3E20
330
9
100
AcDbSymbolTableRecord
100
AcDbRegAppTableRecord
  2
ACADM_DIM_EDIT
 70
     0
  0
APPID
  5
3E21
330
9
100
AcDbSymbolTableRecord
100
AcDbRegAppTableRecord
  2
AMDT_DM_ADJ
 70
     0
  0
APPID
  5
4143
330
9
100
AcDbSymbolTableRecord
100
AcDbRegAppTableRecord
  2
GENIUS_GENFIL_13
 70
     0
  0
APPID
  5
4144
330
9
100
AcDbSymbolTableRecord
100
AcDbRegAppTableRecord
  2
GENIUS_GENOBJ-N-CHA_13
 70
     0
  0
APPID
  5
4E17
330
9
100
AcDbSymbolTableRecord
100
AcDbRegAppTableRecord
  2
GEVID1008153417
 70
     0
  0
APPID
  5
4E58
330
9
100
AcDbSymbolTableRecord
100
AcDbRegAppTableRecord
  2
GEVID1008153418
 70
     0
  0
APPID
  5
4E5E
330
9
100
AcDbSymbolTableRecord
100
AcDbRegAppTableRecord
  2
GEVID1008153419
 70
     0
  0
APPID
  5
4E64
330
9
100
AcDbSymbolTableRecord
100
AcDbRegAppTableRecord
  2
GEVID1008153420
 70
     0
  0
APPID
  5
4E75
330
9
100
AcDbSymbolTableRecord
100
AcDbRegAppTableRecord
  2
GEVID1008153421
 70
     0
  0
APPID
  5
4EB7
330
9
100
AcDbSymbolTableRecord
100
AcDbRegAppTableRecord
  2
GENIUS_AMGTXT_16
 70
     0
  0
APPID
  5
7645
330
9
100
AcDbSymbolTableRecord
100
AcDbRegAppTableRecord
  2
GENIUS_GENOBJ-N-DIM_13
 70
     0
  0
APPID
  5
AAD0
330
9
100
AcDbSymbolTableRecord
100
AcDbRegAppTableRecord
  2
ACAD_DSTYLE_DIMARC_LENGTH_SYMBOL
 70
     0
  0
APPID
  5
AAD1
330
9
100
AcDbSymbolTableRecord
100
AcDbRegAppTableRecord
  2
ACAD_DSTYLE_DIMJOGGED_JOGANGLE_SYMBOL
 70
     0
  0
APPID
  5
AAFD
330
9
100
AcDbSymbolTableRecord
100
AcDbRegAppTableRecord
  2
ACAD_PSEXT
 70
     0
  0
APPID
  5
AD61
330
9
100
AcDbSymbolTableRecord
100
AcDbRegAppTableRecord
  2
AcAecLayerStandard
 70
     0
  0
APPID
  5
AEE3
330
9
100
AcDbSymbolTableRecord
100
AcDbRegAppTableRecord
  2
ACAD_EXEMPT_FROM_CAD_STANDARDS
 70
     0
  0
APPID
  5
B1BE
330
9
100
AcDbSymbolTableRecord
100
AcDbRegAppTableRecord
  2
GENIUS_GENCEN_19
 70
     0
  0
APPID
  5
B4E1
330
9
100
AcDbSymbolTableRecord
100
AcDbRegAppTableRecord
  2
ACAD_MLEADERVER
 70
     0
  0
APPID
  5
C488
330
9
100
AcDbSymbolTableRecord
100
AcDbRegAppTableRecord
  2
ACAD_DSTYLE_DIMINSPECT
 70
     0
  0
APPID
  5
C489
330
9
100
AcDbSymbolTableRecord
100
AcDbRegAppTableRecord
  2
ACAD_DSTYLE_DIMRADIAL_EXTENSION
 70
     0
  0
APPID
  5
1980E
330
9
100
AcDbSymbolTableRecord
100
AcDbRegAppTableRecord
  2
GEVID1311583542
 70
     0
  0
APPID
  5
19825
330
9
100
AcDbSymbolTableRecord
100
AcDbRegAppTableRecord
  2
AMG_2DHIDE
 70
     0
  0
APPID
  5
19826
330
9
100
AcDbSymbolTableRecord
100
AcDbRegAppTableRecord
  2
AMG_2DSTRUCT_BTR
 70
     0
  0
APPID
  5
19837
330
9
100
AcDbSymbolTableRecord
100
AcDbRegAppTableRecord
  2
ACADM_2DVIEW_IGN_NOTIFY
 70
     0
  0
APPID
  5
1B56B
330
9
100
AcDbSymbolTableRecord
100
AcDbRegAppTableRecord
  2
GEVID1311583543
 70
     0
  0
APPID
  5
1B5F6
330
9
100
AcDbSymbolTableRecord
100
AcDbRegAppTableRecord
  2
GEVID1311583544
 70
     0
  0
APPID
  5
1B61B
330
9
100
AcDbSymbolTableRecord
100
AcDbRegAppTableRecord
  2
GEVID1311583545
 70
     0
  0
APPID
  5
1B63D
330
9
100
AcDbSymbolTableRecord
100
AcDbRegAppTableRecord
  2
GEVID1311583546
 70
     0
  0
APPID
  5
1B675
330
9
100
AcDbSymbolTableRecord
100
AcDbRegAppTableRecord
  2
GEVID1311583547
 70
     0
  0
ENDTAB
  0
TABLE
  2
DIMSTYLE
  5
A
330
0
100
AcDbSymbolTable
 70
    26
100
AcDbDimStyleTable
 71
     3
340
2515
340
251A
340
251B
  0
DIMSTYLE
105
A76
330
A
100
AcDbSymbolTableRecord
100
AcDbDimStyleTableRecord
  2
STANDARD
 70
     0
 41
3.0
 42
1.0
 43
7.0
 44
2.0
 73
     0
 74
     0
 77
     1
140
2.799999999999999
141
0.0
143
0.0394
147
0.7
171
     4
172
     1
173
     1
176
     3
177
     3
178
     2
271
     3
272
     3
273
     8
274
     4
289
     0
340
A74
341
A66
343
A66
344
A66
  0
DIMSTYLE
105
2515
330
A
100
AcDbSymbolTableRecord
100
AcDbDimStyleTableRecord
  2
SYS
 70
     0
  4
"
 41
1.0
 42
1.0
 43
10.0
 44
1.0
 47
0.1
 48
0.1
 73
     0
 74
     0
 77
     1
 78
     8
 79
     2
140
3.5
141
0.0
143
0.0393701
146
0.71
147
1.5
172
     1
176
   256
177
   256
178
     7
271
     2
272
     2
283
     0
284
     8
340
11
371
    -1
372
    -1
1001
ACAD_DSTYLE_DIMJOGGED_JOGANGLE_SYMBOL
1070
   384
1040
0.7853981633974483
1001
ACAD_DSTYLE_DIMARC_LENGTH_SYMBOL
1070
   379
1070
     1
  0
DIMSTYLE
105
2516
102
{ACAD_REACTORS
330
554C6
330
5B352
102
}
330
A
100
AcDbSymbolTableRecord
100
AcDbDimStyleTableRecord
  2
SYS$3
 70
     0
  4
"
 41
2.0
 42
1.0
 43
10.0
 44
1.0
 47
0.1
 48
0.1
 73
     0
 77
     1
 78
     8
 79
     2
140
3.2
141
0.0
143
0.0393701
146
0.71
147
1.0
176
   256
177
   256
178
     2
271
     2
272
     2
283
     0
284
     8
288
     1
340
11
342
A66
371
    -1
372
    -1
1001
ACAD_DSTYLE_DIMJOGGED_JOGANGLE_SYMBOL
1070
   384
1040
0.7853981633974483
1001
ACAD_DSTYLE_DIMARC_LENGTH_SYMBOL
1070
   379
1070
     1
  0
DIMSTYLE
105
2517
330
A
100
AcDbSymbolTableRecord
100
AcDbDimStyleTableRecord
  2
SYS$4
 70
     0
  4
"
 41
2.0
 42
1.0
 43
10.0
 44
1.0
 47
0.1
 48
0.1
 73
     0
 77
     1
 78
     8
 79
     2
140
3.2
141
0.0
143
0.0393701
146
0.71
147
1.0
173
     1
176
   256
177
   256
178
     2
271
     2
272
     2
283
     0
284
     8
288
     1
340
11
344
A66
371
    -1
372
    -1
1001
ACAD_DSTYLE_DIMJOGGED_JOGANGLE_SYMBOL
1070
   384
1040
0.7853981633974483
1001
ACAD_DSTYLE_DIMARC_LENGTH_SYMBOL
1070
   379
1070
     1
  0
DIMSTYLE
105
2518
330
A
100
AcDbSymbolTableRecord
100
AcDbDimStyleTableRecord
  2
SYS$6
 70
     0
  4
"
 41
2.0
 42
1.0
 43
10.0
 44
1.0
 47
0.1
 48
0.1
 73
     0
 74
     0
 78
     8
 79
     2
140
3.2
141
0.0
143
0.0393701
146
0.71
147
1.0
172
     1
176
   256
177
   256
178
     2
271
     2
272
     2
283
     0
284
     8
340
11
341
A66
371
    -1
372
    -1
1001
ACAD_DSTYLE_DIMJOGGED_JOGANGLE_SYMBOL
1070
   384
1040
0.7853981633974483
1001
ACAD_DSTYLE_DIMARC_LENGTH_SYMBOL
1070
   379
1070
     1
  0
DIMSTYLE
105
2519
330
A
100
AcDbSymbolTableRecord
100
AcDbDimStyleTableRecord
  2
SYS$7
 70
     0
  4
"
 41
2.0
 42
1.0
 43
10.0
 44
1.0
 47
0.1
 48
0.1
 73
     0
 74
     0
 77
     1
 78
     8
 79
     2
140
3.2
141
0.0
143
0.0393701
146
0.71
147
1.0
172
     1
176
   256
177
   256
178
     2
271
     2
272
     2
283
     0
284
     8
340
11
341
A66
342
A66
371
    -1
372
    -1
1001
ACAD_DSTYLE_DIMJOGGED_JOGANGLE_SYMBOL
1070
   384
1040
0.7853981633974483
1001
ACAD_DSTYLE_DIMARC_LENGTH_SYMBOL
1070
   379
1070
     1
  0
DIMSTYLE
105
251A
330
A
100
AcDbSymbolTableRecord
100
AcDbDimStyleTableRecord
  2
SYS$SF
 70
     0
  4
"
 41
2.5
 42
1.0
 43
10.0
 44
1.0
 47
0.1
 48
0.1
 73
     0
 74
     0
 75
     1
 76
     1
 77
     1
 78
     8
 79
     2
140
3.2
141
0.0
143
0.0393701
146
0.71
147
1.0
172
     1
176
   256
177
   256
178
     2
271
     2
272
     2
283
     0
284
     8
340
11
341
6C4
342
6C4
371
    -1
372
    -1
1001
ACAD_DSTYLE_DIMJOGGED_JOGANGLE_SYMBOL
1070
   384
1040
0.7853981633974483
1001
ACAD_DSTYLE_DIMARC_LENGTH_SYMBOL
1070
   379
1070
     1
  0
DIMSTYLE
105
251B
330
A
100
AcDbSymbolTableRecord
100
AcDbDimStyleTableRecord
  2
SYS$SH
 70
     0
  4
"
 41
2.5
 42
1.0
 43
10.0
 44
1.0
 47
0.1
 48
0.1
 73
     0
 74
     0
 75
     1
 76
     1
 77
     1
 78
     8
 79
     2
140
3.2
141
0.0
143
0.0393701
144
2.0
146
0.71
147
1.0
172
     1
173
     1
176
   256
177
   256
178
     2
271
     2
272
     2
283
     0
284
     8
340
11
341
6C4
343
72
344
6C4
371
    -1
372
    -1
1001
ACAD_DSTYLE_DIMJOGGED_JOGANGLE_SYMBOL
1070
   384
1040
0.7853981633974483
1001
ACAD_DSTYLE_DIMARC_LENGTH_SYMBOL
1070
   379
1070
     1
  0
DIMSTYLE
105
2A59
330
A
100
AcDbSymbolTableRecord
100
AcDbDimStyleTableRecord
  2
SYS$2
 70
     0
  4
"
 41
1.0
 42
1.0
 43
10.0
 44
1.0
 47
0.1
 48
0.1
 73
     0
 74
     0
 77
     1
 78
     8
 79
     2
140
3.2
141
0.0
143
0.0393701
146
0.71
147
1.0
172
     1
176
   256
177
   256
178
     2
271
     2
272
     2
283
     0
284
     8
340
11
342
6C4
371
    -1
372
    -1
1001
ACAD_DSTYLE_DIMJOGGED_JOGANGLE_SYMBOL
1070
   384
1040
0.7853981633974483
1001
ACAD_DSTYLE_DIMARC_LENGTH_SYMBOL
1070
   379
1070
     1
  0
DIMSTYLE
105
2AAB
102
{ACAD_REACTORS
330
4FC44
330
4FC45
330
4FC85
330
4FC82
330
4FC83
330
4FC84
330
4FD0F
330
4FD27
330
4FD3D
330
4FD83
330
4FD84
330
4FE27
330
4FEE3
330
4FEF9
330
4FF1E
330
4FF5C
330
4FF8E
102
}
330
A
100
AcDbSymbolTableRecord
100
AcDbDimStyleTableRecord
  2
SYS$0
 70
     0
  4
"
 41
1.0
 42
1.0
 43
10.0
 44
1.0
 47
0.1
 48
0.1
 73
     0
 74
     0
 77
     1
 78
     8
 79
     2
140
3.200000000000001
141
0.0
143
0.0393701
146
0.71
147
1.0
172
     1
176
   256
177
   256
178
     2
271
     2
272
     2
283
     0
284
     8
340
11
341
A66
342
6C4
371
    -1
372
    -1
1001
ACAD_DSTYLE_DIMJOGGED_JOGANGLE_SYMBOL
1070
   384
1040
0.7853981633974483
1001
ACAD_DSTYLE_DIMARC_LENGTH_SYMBOL
1070
   379
1070
     1
  0
DIMSTYLE
105
AF99
330
A
100
AcDbSymbolTableRecord
100
AcDbDimStyleTableRecord
  2
AM_ISO
 70
     0
  4
"
 41
2.5
 42
1.0
 43
10.0
 44
1.0
 47
0.1
 48
0.1
 73
     0
 74
     0
 77
     1
 78
     8
 79
     2
140
3.5
141
0.0
143
0.0393701
146
0.71
147
1.5
172
     1
176
   256
177
   256
178
     2
271
     2
272
     3
274
     4
283
     0
284
     8
340
11
371
    -1
372
    -1
  0
DIMSTYLE
105
AF9A
330
A
100
AcDbSymbolTableRecord
100
AcDbDimStyleTableRecord
  2
AM_ISO$3
 70
     0
  4
"
 41
2.5
 42
1.0
 43
10.0
 44
1.0
 47
0.1
 48
0.1
 73
     0
 77
     1
 78
     8
 79
     2
140
3.5
141
0.0
143
0.0393701
146
0.71
147
1.5
176
   256
177
   256
178
     2
271
     2
272
     3
274
     4
283
     0
284
     8
288
     1
289
     0
340
11
371
    -1
372
    -1
  0
DIMSTYLE
105
AF9B
330
A
100
AcDbSymbolTableRecord
100
AcDbDimStyleTableRecord
  2
AM_ISO$4
 70
     0
  4
"
 41
2.5
 42
1.0
 43
10.0
 44
1.0
 47
0.1
 48
0.1
 73
     0
 77
     1
 78
     8
 79
     2
140
3.5
141
0.0
143
0.0393701
146
0.71
147
1.5
176
   256
177
   256
178
     2
271
     2
272
     3
274
     4
283
     0
284
     8
288
     1
289
     0
340
11
371
    -1
372
    -1
  0
DIMSTYLE
105
AF9C
330
A
100
AcDbSymbolTableRecord
100
AcDbDimStyleTableRecord
  2
AM_ISO$6
 70
     0
  4
"
 41
2.5
 42
1.0
 43
10.0
 44
1.0
 47
0.1
 48
0.1
 73
     0
 74
     0
 78
     8
 79
     2
140
3.5
141
0.0
143
0.0393701
146
0.71
147
1.5
172
     1
176
   256
177
   256
178
     2
271
     2
272
     3
274
     4
283
     0
284
     8
340
11
371
    -1
372
    -1
  0
DIMSTYLE
105
AF9D
330
A
100
AcDbSymbolTableRecord
100
AcDbDimStyleTableRecord
  2
AM_ISO$7
 70
     0
  4
"
 41
2.5
 42
1.0
 43
10.0
 44
1.0
 47
0.1
 48
0.1
 73
     0
 74
     0
 77
     1
 78
     8
 79
     2
140
5.0
141
0.0
143
0.0393701
146
0.71
147
1.5
172
     1
176
   256
177
   256
178
     2
271
     2
272
     3
274
     4
283
     0
284
     8
340
11
371
    -1
372
    -1
  0
DIMSTYLE
105
AF9E
330
A
100
AcDbSymbolTableRecord
100
AcDbDimStyleTableRecord
  2
AM_ISO$SF
 70
     0
  4
"
 41
2.5
 42
1.0
 43
10.0
 44
1.0
 47
0.1
 48
0.1
 73
     0
 74
     0
 75
     1
 76
     1
 77
     1
 78
     8
 79
     2
140
3.5
141
0.0
143
0.0393701
146
0.71
147
1.5
172
     1
176
   256
177
   256
178
     2
271
     2
272
     3
274
     4
283
     0
284
     8
340
11
371
    -1
372
    -1
  0
DIMSTYLE
105
AF9F
330
A
100
AcDbSymbolTableRecord
100
AcDbDimStyleTableRecord
  2
AM_ISO$SH
 70
     0
  4
"
 41
2.5
 42
1.0
 43
10.0
 44
1.0
 47
0.1
 48
0.1
 73
     0
 74
     0
 75
     1
 76
     1
 77
     1
 78
     8
 79
     2
140
3.5
141
0.0
143
0.0393701
144
2.0
146
0.71
147
1.5
172
     1
173
     1
176
   256
177
   256
178
     2
271
     2
272
     3
274
     4
283
     0
284
     8
340
11
343
72
371
    -1
372
    -1
  0
DIMSTYLE
105
B60C
330
A
100
AcDbSymbolTableRecord
100
AcDbDimStyleTableRecord
  2
AM_ANSI
 70
     0
  4
mm
 41
0.1
 42
0.05
 43
0.5
 44
0.1
 47
0.1
 48
0.1
 78
     7
 79
     2
140
0.12
141
0.0
146
0.71
147
0.06
176
   256
177
   256
178
     2
274
     4
284
     7
340
11
371
    -1
372
    -1
  0
DIMSTYLE
105
C485
330
A
100
AcDbSymbolTableRecord
100
AcDbDimStyleTableRecord
  2
AM_ISO$0
 70
     0
  4
"
 41
0.8
 42
1.0
 43
10.0
 44
1.0
 47
0.1
 48
0.1
 73
     0
 74
     0
 77
     1
 78
     8
 79
     2
140
3.2
141
0.0
143
0.0393701
146
0.71
147
0.9999999999999996
172
     1
176
   256
177
   256
178
     2
271
     2
272
     2
283
     0
284
     8
340
11
341
6C4
342
6C4
371
    -1
372
    -1
1001
ACAD_DSTYLE_DIMJOGGED_JOGANGLE_SYMBOL
1070
   384
1040
0.7853981633974483
1001
ACAD_DSTYLE_DIMARC_LENGTH_SYMBOL
1070
   379
1070
     1
  0
DIMSTYLE
105
C486
330
A
100
AcDbSymbolTableRecord
100
AcDbDimStyleTableRecord
  2
AM_ISO$2
 70
     0
  4
"
 41
0.8
 42
1.0
 43
10.0
 44
1.0
 47
0.1
 48
0.1
 73
     0
 74
     0
 77
     3
 78
     8
 79
     2
140
3.200000000000001
141
0.0
143
0.0393701
146
0.71
147
0.9999999999999996
172
     1
176
   256
177
   256
178
     2
271
     2
272
     2
283
     0
284
     8
340
11
342
6C4
371
    -1
372
    -1
1001
ACAD_DSTYLE_DIMJOGGED_JOGANGLE_SYMBOL
1070
   384
1040
0.7853981633974483
1001
ACAD_DSTYLE_DIMARC_LENGTH_SYMBOL
1070
   379
1070
     1
  0
DIMSTYLE
105
FD1A
330
A
100
AcDbSymbolTableRecord
100
AcDbDimStyleTableRecord
  2
AM_ANSI$3
 70
     0
  4
mm
 41
0.1
 42
0.05
 43
0.5
 44
0.1
 47
0.1
 48
0.1
 78
     7
 79
     2
140
0.12
141
0.0
146
0.71
147
0.06
176
   256
177
   256
178
     2
274
     4
284
     7
288
     1
289
     0
340
11
371
    -1
372
    -1
1001
ACAD_DSTYLE_DIMARC_LENGTH_SYMBOL
1070
   379
1070
     1
  0
DIMSTYLE
105
FD1B
330
A
100
AcDbSymbolTableRecord
100
AcDbDimStyleTableRecord
  2
AM_ANSI$4
 70
     0
  4
mm
 41
0.1
 42
0.05
 43
0.5
 44
0.1
 47
0.1
 48
0.1
 78
     7
 79
     2
140
0.12
141
0.0
146
0.71
147
0.06
176
   256
177
   256
178
     2
274
     4
284
     7
288
     1
289
     0
340
11
371
    -1
372
    -1
1001
ACAD_DSTYLE_DIMARC_LENGTH_SYMBOL
1070
   379
1070
     1
  0
DIMSTYLE
105
FD1C
330
A
100
AcDbSymbolTableRecord
100
AcDbDimStyleTableRecord
  2
AM_ANSI$7
 70
     0
  4
mm
 41
0.1
 42
0.05
 43
0.5
 44
0.1
 47
0.1
 48
0.1
 78
     7
 79
     2
140
0.24
141
0.0
146
0.71
147
0.06
176
   256
177
   256
178
     2
274
     4
284
     7
340
11
371
    -1
372
    -1
1001
ACAD_DSTYLE_DIMARC_LENGTH_SYMBOL
1070
   379
1070
     1
  0
DIMSTYLE
105
FD1D
330
A
100
AcDbSymbolTableRecord
100
AcDbDimStyleTableRecord
  2
AM_ANSI$SF
 70
     0
  4
mm
 41
0.1
 42
0.05
 43
0.5
 44
0.1
 47
0.1
 48
0.1
 75
     1
 76
     1
 78
     7
 79
     2
140
0.12
141
0.0
146
0.71
147
0.06
176
   256
177
   256
178
     2
274
     4
284
     7
340
11
371
    -1
372
    -1
1001
ACAD_DSTYLE_DIMARC_LENGTH_SYMBOL
1070
   379
1070
     1
  0
DIMSTYLE
105
FD1E
330
A
100
AcDbSymbolTableRecord
100
AcDbDimStyleTableRecord
  2
AM_ANSI$SH
 70
     0
  4
mm
 41
0.1
 42
0.05
 43
0.5
 44
0.1
 47
0.1
 48
0.1
 75
     1
 76
     1
 78
     7
 79
     2
140
0.12
141
0.0
146
0.71
147
0.06
173
     1
176
   256
177
   256
178
     2
274
     4
284
     7
340
11
343
72
371
    -1
372
    -1
1001
ACAD_DSTYLE_DIMARC_LENGTH_SYMBOL
1070
   379
1070
     1
  0
ENDTAB
  0
TABLE
  2
BLOCK_RECORD
  5
1
330
0
100
AcDbSymbolTable
 70
    57
  0
BLOCK_RECORD
  5
1F
102
{ACAD_XDICTIONARY
360
8A
102
}
330
1
100
AcDbSymbolTableRecord
100
AcDbBlockTableRecord
  2
*Model_Space
340
22
  0
BLOCK_RECORD
  5
1B
330
1
100
AcDbSymbolTableRecord
100
AcDbBlockTableRecord
  2
*Paper_Space
340
1E
  0
BLOCK_RECORD
  5
23
330
1
100
AcDbSymbolTableRecord
100
AcDbBlockTableRecord
  2
*Paper_Space0
340
26
  0
BLOCK_RECORD
  5
72
330
1
100
AcDbSymbolTableRecord
100
AcDbBlockTableRecord
  2
GENAXEH
340
0
  0
BLOCK_RECORD
  5
6C4
330
1
100
AcDbSymbolTableRecord
100
AcDbBlockTableRecord
  2
_Dot
340
0
102
{BLKREFS
331
52F48
331
52F49
331
52F5A
331
52F5B
331
52F63
331
52F64
331
52F7E
331
52F7F
331
52F87
331
52F88
331
52F90
331
52F91
331
52F99
331
52F9A
331
52FB4
331
52FB5
331
52FBF
331
52FC0
331
52FC9
331
52FCA
331
554FC
331
554FD
331
55524
331
55525
331
5B2F7
331
5B2F8
331
5B300
331
5B301
331
5B31B
331
5B31C
331
5B329
331
5B32A
331
5B34C
331
5B34D
331
5B373
331
5B374
331
5B37D
331
5B37E
331
5B386
331
5B387
331
5B392
331
5B393
331
5B39E
331
5B39F
331
5B3AA
331
5B3AB
331
5B3B6
331
5B3B7
331
5B3C2
331
5B3C3
331
5B3CE
331
5B3CF
331
5B3DA
331
5B3DB
331
5B3E6
331
5B3E7
331
5B3F2
331
5B3F3
331
5B400
331
5B401
331
5B40A
331
5B40B
331
5B416
331
5B417
331
5B422
331
5B423
331
5B430
331
5B431
331
5B586
331
5B587
331
5B58F
331
5B590
331
5B598
331
5B599
331
5B5A3
331
5B5A4
331
5B5AA
331
5B5AB
331
5B5B3
331
5B5B4
331
5B5BC
331
5B5BD
331
5B5C7
331
5B5C8
331
5B5CE
331
5B5CF
331
5B5D7
331
5B5D8
331
5B5E0
331
5B5E1
331
5B5E9
331
5B5EA
331
5B5F2
331
5B5F3
331
5B5FB
331
5B5FC
102
}
  0
BLOCK_RECORD
  5
A66
330
1
100
AcDbSymbolTableRecord
100
AcDbBlockTableRecord
  2
_OPEN30
340
0
  0
BLOCK_RECORD
  5
4FC46
330
1
100
AcDbSymbolTableRecord
100
AcDbBlockTableRecord
  2
*D7
340
0
  0
BLOCK_RECORD
  5
4FC52
330
1
100
AcDbSymbolTableRecord
100
AcDbBlockTableRecord
  2
*D8
340
0
  0
BLOCK_RECORD
  5
4FC86
330
1
100
AcDbSymbolTableRecord
100
AcDbBlockTableRecord
  2
*D9
340
0
  0
BLOCK_RECORD
  5
4FC92
330
1
100
AcDbSymbolTableRecord
100
AcDbBlockTableRecord
  2
*D10
340
0
  0
BLOCK_RECORD
  5
4FC9E
330
1
100
AcDbSymbolTableRecord
100
AcDbBlockTableRecord
  2
*D11
340
0
  0
BLOCK_RECORD
  5
4FCAA
330
1
100
AcDbSymbolTableRecord
100
AcDbBlockTableRecord
  2
*D12
340
0
  0
BLOCK_RECORD
  5
4FD10
330
1
100
AcDbSymbolTableRecord
100
AcDbBlockTableRecord
  2
*D13
340
0
  0
BLOCK_RECORD
  5
4FD28
330
1
100
AcDbSymbolTableRecord
100
AcDbBlockTableRecord
  2
*D14
340
0
  0
BLOCK_RECORD
  5
4FD3E
330
1
100
AcDbSymbolTableRecord
100
AcDbBlockTableRecord
  2
*D15
340
0
  0
BLOCK_RECORD
  5
4FD91
330
1
100
AcDbSymbolTableRecord
100
AcDbBlockTableRecord
  2
*D16
340
0
  0
BLOCK_RECORD
  5
4FD9D
330
1
100
AcDbSymbolTableRecord
100
AcDbBlockTableRecord
  2
*D17
340
0
  0
BLOCK_RECORD
  5
4FE28
330
1
100
AcDbSymbolTableRecord
100
AcDbBlockTableRecord
  2
*D18
340
0
  0
BLOCK_RECORD
  5
4FEE4
330
1
100
AcDbSymbolTableRecord
100
AcDbBlockTableRecord
  2
*D19
340
0
  0
BLOCK_RECORD
  5
4FEFA
330
1
100
AcDbSymbolTableRecord
100
AcDbBlockTableRecord
  2
*D20
340
0
  0
BLOCK_RECORD
  5
4FF1F
330
1
100
AcDbSymbolTableRecord
100
AcDbBlockTableRecord
  2
*D21
340
0
  0
BLOCK_RECORD
  5
4FF5D
330
1
100
AcDbSymbolTableRecord
100
AcDbBlockTableRecord
  2
*D22
340
0
  0
BLOCK_RECORD
  5
4FF8F
330
1
100
AcDbSymbolTableRecord
100
AcDbBlockTableRecord
  2
*D23
340
0
  0
BLOCK_RECORD
  5
554C7
330
1
100
AcDbSymbolTableRecord
100
AcDbBlockTableRecord
  2
*D24
340
0
  0
BLOCK_RECORD
  5
5B353
330
1
100
AcDbSymbolTableRecord
100
AcDbBlockTableRecord
  2
*D27
340
0
  0
ENDTAB
  0
ENDSEC
  0
SECTION
  2
BLOCKS
  0
BLOCK
  5
20
330
1F
100
AcDbEntity
  8
0
100
AcDbBlockBegin
  2
*Model_Space
 70
     0
 10
0.0
 20
0.0
 30
0.0
  3
*Model_Space
  1

  0
ENDBLK
  5
21
330
1F
100
AcDbEntity
  8
0
100
AcDbBlockEnd
  0
BLOCK
  5
1C
330
1B
100
AcDbEntity
 67
     1
  8
0
100
AcDbBlockBegin
  2
*Paper_Space
 70
     0
 10
0.0
 20
0.0
 30
0.0
  3
*Paper_Space
  1

  0
ENDBLK
  5
1D
330
1B
100
AcDbEntity
 67
     1
  8
0
100
AcDbBlockEnd
  0
BLOCK
  5
24
330
23
100
AcDbEntity
 67
     1
  8
0
100
AcDbBlockBegin
  2
*Paper_Space0
 70
     0
 10
0.0
 20
0.0
 30
0.0
  3
*Paper_Space0
  1

  0
ENDBLK
  5
25
330
23
100
AcDbEntity
 67
     1
  8
0
100
AcDbBlockEnd
  0
BLOCK
  5
74
330
72
100
AcDbEntity
  8
0
100
AcDbBlockBegin
  2
GENAXEH
 70
     0
 10
0.0
 20
0.0
 30
0.0
  3
GENAXEH
  1

  0
LINE
  5
73
330
72
100
AcDbEntity
  8
0
100
AcDbLine
 10
-1.0
 20
0.0
 30
0.0
 11
1.0
 21
0.0
 31
0.0
  0
ENDBLK
  5
75
330
72
100
AcDbEntity
  8
0
100
AcDbBlockEnd
  0
BLOCK
  5
6C7
330
6C4
100
AcDbEntity
  8
0
100
AcDbBlockBegin
  2
_Dot
 70
     0
 10
0.0
 20
0.0
 30
0.0
  3
_Dot
  1

  0
LWPOLYLINE
  5
6C5
330
6C4
100
AcDbEntity
  8
0
  6
ByBlock
 62
     0
100
AcDbPolyline
 90
        2
 70
     1
 43
0.5
 10
-0.25
 20
0.0
 42
1.0
 10
0.25
 20
0.0
 42
1.0
  0
LINE
  5
6C6
330
6C4
100
AcDbEntity
  8
0
  6
ByBlock
 62
     0
370
    -2
100
AcDbLine
 10
-0.5
 20
0.0
 30
0.0
 11
-1.0
 21
0.0
 31
0.0
  0
ENDBLK
  5
6C8
330
6C4
100
AcDbEntity
  8
0
100
AcDbBlockEnd
  0
BLOCK
  5
A6A
330
A66
100
AcDbEntity
  8
0
100
AcDbBlockBegin
  2
_OPEN30
 70
     0
 10
0.0
 20
0.0
 30
0.0
  3
_OPEN30
  1

  0
LINE
  5
A67
330
A66
100
AcDbEntity
  8
0
  6
ByBlock
 62
     0
100
AcDbLine
 10
-1.0
 20
0.26794919
 30
0.0
 11
0.0
 21
0.0
 31
0.0
  0
LINE
  5
A68
330
A66
100
AcDbEntity
  8
0
  6
ByBlock
 62
     0
100
AcDbLine
 10
0.0
 20
0.0
 30
0.0
 11
-1.0
 21
-0.26794919
 31
0.0
  0
LINE
  5
A69
330
A66
100
AcDbEntity
  8
0
  6
ByBlock
 62
     0
100
AcDbLine
 10
0.0
 20
0.0
 30
0.0
 11
-1.0
 21
0.0
 31
0.0
  0
ENDBLK
  5
A6B
330
A66
100
AcDbEntity
  8
0
100
AcDbBlockEnd
  0
BLOCK
  5
4FC50
330
4FC46
100
AcDbEntity
  8
0
100
AcDbBlockBegin
  2
*D7
 70
     1
 10
0.0
 20
0.0
 30
0.0
  3
*D7
  1

  0
LINE
  5
5B318
330
4FC46
100
AcDbEntity
  8
AM_5
100
AcDbLine
 10
6237.054828957582
 20
-7169.781217146475
 30
0.0
 11
6237.054828957582
 21
-7150.031217146474
 31
0.0
  0
LINE
  5
5B319
330
4FC46
100
AcDbEntity
  8
AM_5
100
AcDbLine
 10
6299.054828957582
 20
-7183.031217146474
 30
0.0
 11
6299.054828957582
 21
-7150.031217146474
 31
0.0
  0
LINE
  5
5B31A
330
4FC46
100
AcDbEntity
  8
AM_5
100
AcDbLine
 10
6238.054828957582
 20
-7151.031217146474
 30
0.0
 11
6298.054828957582
 21
-7151.031217146474
 31
0.0
  0
INSERT
  5
5B31B
330
4FC46
100
AcDbEntity
  8
AM_5
100
AcDbBlockReference
  2
_Dot
 10
6237.054828957582
 20
-7151.031217146474
 30
0.0
 50
180.0
  0
INSERT
  5
5B31C
330
4FC46
100
AcDbEntity
  8
AM_5
100
AcDbBlockReference
  2
_Dot
 10
6299.054828957582
 20
-7151.031217146474
 30
0.0
  0
MTEXT
  5
5B31D
330
4FC46
100
AcDbEntity
  8
AM_5
 62
     2
100
AcDbMText
 10
6269.137248570082
 20
-7148.431217146473
 30
0.0
 40
3.200000000000001
 41
0.0
 71
     5
 72
     1
  1
（62）
 73
     1
 44
1.0
1001
ACAD
1000
MTEXTBEGIN
1070
    73
1070
     1
1070
    44
1040
1.0
1070
    74
1070
     0
1000
MTEXTEND
  0
POINT
  5
5B31E
330
4FC46
100
AcDbEntity
  8
Defpoints
 62
     0
100
AcDbPoint
 10
6237.054828957582
 20
-7170.781217146473
 30
0.0
  0
POINT
  5
5B31F
330
4FC46
100
AcDbEntity
  8
Defpoints
 62
     0
100
AcDbPoint
 10
6299.054828957582
 20
-7184.031217146475
 30
0.0
  0
POINT
  5
5B320
330
4FC46
100
AcDbEntity
  8
Defpoints
 62
     0
100
AcDbPoint
 10
6299.054828957582
 20
-7151.031217146474
 30
0.0
  0
ENDBLK
  5
4FC51
330
4FC46
100
AcDbEntity
  8
0
100
AcDbBlockEnd
  0
BLOCK
  5
4FC5C
330
4FC52
100
AcDbEntity
  8
0
100
AcDbBlockBegin
  2
*D8
 70
     1
 10
0.0
 20
0.0
 30
0.0
  3
*D8
  1

  0
LINE
  5
5B2FD
330
4FC52
100
AcDbEntity
  8
AM_5
100
AcDbLine
 10
6275.554828957582
 20
-7159.031217146474
 30
0.0
 11
6316.05482895758
 21
-7159.031217146474
 31
0.0
  0
LINE
  5
5B2FE
330
4FC52
100
AcDbEntity
  8
AM_5
100
AcDbLine
 10
6275.554828957582
 20
-7209.031217146474
 30
0.0
 11
6316.05482895758
 21
-7209.031217146474
 31
0.0
  0
LINE
  5
5B2FF
330
4FC52
100
AcDbEntity
  8
AM_5
100
AcDbLine
 10
6315.05482895758
 20
-7160.031217146474
 30
0.0
 11
6315.05482895758
 21
-7208.031217146474
 31
0.0
  0
INSERT
  5
5B300
330
4FC52
100
AcDbEntity
  8
AM_5
100
AcDbBlockReference
  2
_Dot
 10
6315.05482895758
 20
-7159.031217146474
 30
0.0
 50
90.0
  0
INSERT
  5
5B301
330
4FC52
100
AcDbEntity
  8
AM_5
100
AcDbBlockReference
  2
_Dot
 10
6315.05482895758
 20
-7209.031217146474
 30
0.0
 50
270.0
  0
MTEXT
  5
5B302
330
4FC52
100
AcDbEntity
  8
AM_5
 62
     2
100
AcDbMText
 10
6312.454828957581
 20
-7184.031217146475
 30
0.0
 40
3.200000000000001
 41
0.0
 71
     5
 72
     1
  1
50
 11
0.0000000000000001
 21
1.0
 31
0.0
 73
     1
 44
1.0
1001
ACAD
1000
MTEXTBEGIN
1070
    73
1070
     1
1070
    44
1040
1.0
1070
    74
1070
     0
1000
MTEXTEND
  0
POINT
  5
5B303
330
4FC52
100
AcDbEntity
  8
Defpoints
 62
     0
100
AcDbPoint
 10
6274.554828957582
 20
-7159.031217146474
 30
0.0
  0
POINT
  5
5B304
330
4FC52
100
AcDbEntity
  8
Defpoints
 62
     0
100
AcDbPoint
 10
6274.554828957582
 20
-7209.031217146474
 30
0.0
  0
POINT
  5
5B305
330
4FC52
100
AcDbEntity
  8
Defpoints
 62
     0
100
AcDbPoint
 10
6315.05482895758
 20
-7209.031217146474
 30
0.0
  0
ENDBLK
  5
4FC5D
330
4FC52
100
AcDbEntity
  8
0
100
AcDbBlockEnd
  0
BLOCK
  5
4FC90
330
4FC86
100
AcDbEntity
  8
0
100
AcDbBlockBegin
  2
*D9
 70
     1
 10
0.0
 20
0.0
 30
0.0
  3
*D9
  1

  0
LINE
  5
52F60
330
4FC86
100
AcDbEntity
  8
AM_5
100
AcDbLine
 10
6163.904828957583
 20
-7175.531217146474
 30
0.0
 11
6157.05482895758
 21
-7175.531217146474
 31
0.0
  0
LINE
  5
52F61
330
4FC86
100
AcDbEntity
  8
AM_5
100
AcDbLine
 10
6163.904828957583
 20
-7192.531217146473
 30
0.0
 11
6157.05482895758
 21
-7192.531217146473
 31
0.0
  0
LINE
  5
52F62
330
4FC86
100
AcDbEntity
  8
AM_5
100
AcDbLine
 10
6158.05482895758
 20
-7176.531217146474
 30
0.0
 11
6158.05482895758
 21
-7191.531217146473
 31
0.0
  0
INSERT
  5
52F63
330
4FC86
100
AcDbEntity
  8
AM_5
100
AcDbBlockReference
  2
_Dot
 10
6158.05482895758
 20
-7175.531217146474
 30
0.0
 50
90.0
  0
INSERT
  5
52F64
330
4FC86
100
AcDbEntity
  8
AM_5
100
AcDbBlockReference
  2
_Dot
 10
6158.05482895758
 20
-7192.531217146473
 30
0.0
 50
270.0
  0
MTEXT
  5
52F65
330
4FC86
100
AcDbEntity
  8
AM_5
 62
     2
100
AcDbMText
 10
6155.454828957581
 20
-7184.031217146472
 30
0.0
 40
3.200000000000001
 41
0.0
 71
     5
 72
     1
  1
17
 11
0.0000000000000001
 21
1.0
 31
0.0
 73
     1
 44
1.0
1001
ACAD
1000
MTEXTBEGIN
1070
    73
1070
     1
1070
    44
1040
1.0
1070
    74
1070
     0
1000
MTEXTEND
  0
POINT
  5
52F66
330
4FC86
100
AcDbEntity
  8
Defpoints
 62
     0
100
AcDbPoint
 10
6164.904828957582
 20
-7175.531217146474
 30
0.0
  0
POINT
  5
52F67
330
4FC86
100
AcDbEntity
  8
Defpoints
 62
     0
100
AcDbPoint
 10
6164.904828957582
 20
-7192.531217146473
 30
0.0
  0
POINT
  5
52F68
330
4FC86
100
AcDbEntity
  8
Defpoints
 62
     0
100
AcDbPoint
 10
6158.05482895758
 20
-7192.531217146473
 30
0.0
  0
ENDBLK
  5
4FC91
330
4FC86
100
AcDbEntity
  8
0
100
AcDbBlockEnd
  0
BLOCK
  5
4FC9C
330
4FC92
100
AcDbEntity
  8
0
100
AcDbBlockBegin
  2
*D10
 70
     1
 10
0.0
 20
0.0
 30
0.0
  3
*D10
  1

  0
LINE
  5
52F45
330
4FC92
100
AcDbEntity
  8
AM_5
100
AcDbLine
 10
6185.554828957582
 20
-7165.445430708475
 30
0.0
 11
6141.05482895758
 21
-7165.445430708473
 31
0.0
  0
LINE
  5
52F46
330
4FC92
100
AcDbEntity
  8
AM_5
100
AcDbLine
 10
6185.554828957582
 20
-7202.617003583474
 30
0.0
 11
6141.05482895758
 21
-7202.617003583474
 31
0.0
  0
LINE
  5
52F47
330
4FC92
100
AcDbEntity
  8
AM_5
100
AcDbLine
 10
6142.054828957579
 20
-7166.445430708474
 30
0.0
 11
6142.054828957579
 21
-7201.617003583473
 31
0.0
  0
INSERT
  5
52F48
330
4FC92
100
AcDbEntity
  8
AM_5
100
AcDbBlockReference
  2
_Dot
 10
6142.054828957579
 20
-7165.445430708473
 30
0.0
 50
90.0
  0
INSERT
  5
52F49
330
4FC92
100
AcDbEntity
  8
AM_5
100
AcDbBlockReference
  2
_Dot
 10
6142.054828957579
 20
-7202.617003583474
 30
0.0
 50
270.0
  0
MTEXT
  5
52F4A
330
4FC92
100
AcDbEntity
  8
AM_5
 62
     2
100
AcDbMText
 10
6139.454828957582
 20
-7184.031217145971
 30
0.0
 40
3.200000000000001
 41
0.0
 71
     5
 72
     1
  1
（37）
 11
0.0000000000000001
 21
1.0
 31
0.0
 73
     1
 44
1.0
1001
ACAD
1000
MTEXTBEGIN
1070
    73
1070
     1
1070
    44
1040
1.0
1070
    74
1070
     0
1000
MTEXTEND
  0
POINT
  5
52F4B
330
4FC92
100
AcDbEntity
  8
Defpoints
 62
     0
100
AcDbPoint
 10
6186.554828957582
 20
-7165.445430708475
 30
0.0
  0
POINT
  5
52F4C
330
4FC92
100
AcDbEntity
  8
Defpoints
 62
     0
100
AcDbPoint
 10
6186.554828957582
 20
-7202.617003583474
 30
0.0
  0
POINT
  5
52F4D
330
4FC92
100
AcDbEntity
  8
Defpoints
 62
     0
100
AcDbPoint
 10
6142.054828957579
 20
-7202.617003583474
 30
0.0
  0
ENDBLK
  5
4FC9D
330
4FC92
100
AcDbEntity
  8
0
100
AcDbBlockEnd
  0
BLOCK
  5
4FCA8
330
4FC9E
100
AcDbEntity
  8
0
100
AcDbBlockBegin
  2
*D11
 70
     1
 10
0.0
 20
0.0
 30
0.0
  3
*D11
  1

  0
LINE
  5
5B349
330
4FC9E
100
AcDbEntity
  8
AM_5
100
AcDbLine
 10
6165.554828957581
 20
-7174.031217146474
 30
0.0
 11
6165.554828957581
 21
-7156.445430708474
 31
0.0
  0
LINE
  5
5B34A
330
4FC9E
100
AcDbEntity
  8
AM_5
100
AcDbLine
 10
6188.054828957582
 20
-7174.531217146475
 30
0.0
 11
6188.054828957582
 21
-7156.445430708474
 31
0.0
  0
LINE
  5
5B34B
330
4FC9E
100
AcDbEntity
  8
AM_5
100
AcDbLine
 10
6166.554828957582
 20
-7157.445430708475
 30
0.0
 11
6187.054828957582
 21
-7157.445430708475
 31
0.0
  0
INSERT
  5
5B34C
330
4FC9E
100
AcDbEntity
  8
AM_5
100
AcDbBlockReference
  2
_Dot
 10
6165.554828957581
 20
-7157.445430708475
 30
0.0
 50
180.0
  0
INSERT
  5
5B34D
330
4FC9E
100
AcDbEntity
  8
AM_5
100
AcDbBlockReference
  2
_Dot
 10
6188.054828957582
 20
-7157.445430708475
 30
0.0
  0
MTEXT
  5
5B34E
330
4FC9E
100
AcDbEntity
  8
AM_5
 62
     2
100
AcDbMText
 10
6176.044161394704
 20
-7154.845430708474
 30
0.0
 40
3.200000000000001
 41
0.0
 71
     5
 72
     1
  1
（22.5）
 73
     1
 44
1.0
1001
ACAD
1000
MTEXTBEGIN
1070
    73
1070
     1
1070
    44
1040
1.0
1070
    74
1070
     0
1000
MTEXTEND
  0
POINT
  5
5B34F
330
4FC9E
100
AcDbEntity
  8
Defpoints
 62
     0
100
AcDbPoint
 10
6165.554828957581
 20
-7175.031217146474
 30
0.0
  0
POINT
  5
5B350
330
4FC9E
100
AcDbEntity
  8
Defpoints
 62
     0
100
AcDbPoint
 10
6188.054828957582
 20
-7175.531217146474
 30
0.0
  0
POINT
  5
5B351
330
4FC9E
100
AcDbEntity
  8
Defpoints
 62
     0
100
AcDbPoint
 10
6188.054828957582
 20
-7157.445430708475
 30
0.0
  0
ENDBLK
  5
4FCA9
330
4FC9E
100
AcDbEntity
  8
0
100
AcDbBlockEnd
  0
BLOCK
  5
4FCB4
330
4FCAA
100
AcDbEntity
  8
0
100
AcDbBlockBegin
  2
*D12
 70
     1
 10
0.0
 20
0.0
 30
0.0
  3
*D12
  1

  0
LINE
  5
52F57
330
4FCAA
100
AcDbEntity
  8
AM_5
100
AcDbLine
 10
6171.054828957582
 20
-7169.031217146474
 30
0.0
 11
6149.05482895758
 21
-7169.031217146474
 31
0.0
  0
LINE
  5
52F58
330
4FCAA
100
AcDbEntity
  8
AM_5
100
AcDbLine
 10
6171.054828957582
 20
-7199.031217146473
 30
0.0
 11
6149.05482895758
 21
-7199.031217146473
 31
0.0
  0
LINE
  5
52F59
330
4FCAA
100
AcDbEntity
  8
AM_5
100
AcDbLine
 10
6150.05482895758
 20
-7170.031217146474
 30
0.0
 11
6150.05482895758
 21
-7198.031217146475
 31
0.0
  0
INSERT
  5
52F5A
330
4FCAA
100
AcDbEntity
  8
AM_5
100
AcDbBlockReference
  2
_Dot
 10
6150.05482895758
 20
-7169.031217146474
 30
0.0
 50
90.0
  0
INSERT
  5
52F5B
330
4FCAA
100
AcDbEntity
  8
AM_5
100
AcDbBlockReference
  2
_Dot
 10
6150.05482895758
 20
-7199.031217146473
 30
0.0
 50
270.0
  0
MTEXT
  5
52F5C
330
4FCAA
100
AcDbEntity
  8
AM_5
 62
     2
100
AcDbMText
 10
6147.454828957581
 20
-7184.031217146475
 30
0.0
 40
3.200000000000001
 41
0.0
 71
     5
 72
     1
  1
30
 11
0.0000000000000001
 21
1.0
 31
0.0
 73
     1
 44
1.0
1001
ACAD
1000
MTEXTBEGIN
1070
    73
1070
     1
1070
    44
1040
1.0
1070
    74
1070
     0
1000
MTEXTEND
  0
POINT
  5
52F5D
330
4FCAA
100
AcDbEntity
  8
Defpoints
 62
     0
100
AcDbPoint
 10
6172.054828957581
 20
-7169.031217146474
 30
0.0
  0
POINT
  5
52F5E
330
4FCAA
100
AcDbEntity
  8
Defpoints
 62
     0
100
AcDbPoint
 10
6172.054828957581
 20
-7199.031217146473
 30
0.0
  0
POINT
  5
52F5F
330
4FCAA
100
AcDbEntity
  8
Defpoints
 62
     0
100
AcDbPoint
 10
6150.05482895758
 20
-7199.031217146473
 30
0.0
  0
ENDBLK
  5
4FCB5
330
4FCAA
100
AcDbEntity
  8
0
100
AcDbBlockEnd
  0
BLOCK
  5
4FD1C
330
4FD10
100
AcDbEntity
  8
0
100
AcDbBlockBegin
  2
*D13
 70
     1
 10
0.0
 20
0.0
 30
0.0
  3
*D13
  1

  0
LINE
  5
52F7B
330
4FD10
100
AcDbEntity
  8
AM_5
100
AcDbLine
 10
6263.054828957582
 20
-7207.181217146474
 30
0.0
 11
6263.054828957582
 21
-7226.031217146474
 31
0.0
  0
LINE
  5
52F7C
330
4FD10
100
AcDbEntity
  8
AM_5
100
AcDbLine
 10
6268.054828957581
 20
-7177.181217146473
 30
0.0
 11
6268.054828957581
 21
-7226.031217146474
 31
0.0
  0
LINE
  5
52F7D
330
4FD10
100
AcDbEntity
  8
AM_5
100
AcDbLine
 10
6264.054828957582
 20
-7225.031217146474
 30
0.0
 11
6267.054828957582
 21
-7225.031217146474
 31
0.0
  0
INSERT
  5
52F7E
330
4FD10
100
AcDbEntity
  8
AM_5
100
AcDbBlockReference
  2
_Dot
 10
6263.054828957582
 20
-7225.031217146474
 30
0.0
 50
180.0
  0
INSERT
  5
52F7F
330
4FD10
100
AcDbEntity
  8
AM_5
100
AcDbBlockReference
  2
_Dot
 10
6268.054828957581
 20
-7225.031217146474
 30
0.0
  0
MTEXT
  5
52F80
330
4FD10
100
AcDbEntity
  8
AM_5
 62
     2
100
AcDbMText
 10
6265.554828957582
 20
-7222.431217146473
 30
0.0
 40
3.200000000000001
 41
0.0
 71
     5
 72
     1
  1
5
 73
     1
 44
1.0
1001
ACAD
1000
MTEXTBEGIN
1070
    73
1070
     1
1070
    44
1040
1.0
1070
    74
1070
     0
1000
MTEXTEND
  0
POINT
  5
52F81
330
4FD10
100
AcDbEntity
  8
Defpoints
 62
     0
100
AcDbPoint
 10
6263.054828957582
 20
-7206.181217146474
 30
0.0
  0
POINT
  5
52F82
330
4FD10
100
AcDbEntity
  8
Defpoints
 62
     0
100
AcDbPoint
 10
6268.054828957581
 20
-7176.181217146474
 30
0.0
  0
POINT
  5
52F83
330
4FD10
100
AcDbEntity
  8
Defpoints
 62
     0
100
AcDbPoint
 10
6268.054828957581
 20
-7225.031217146474
 30
0.0
  0
ENDBLK
  5
4FD1D
330
4FD10
100
AcDbEntity
  8
0
100
AcDbBlockEnd
  0
BLOCK
  5
4FD32
330
4FD28
100
AcDbEntity
  8
0
100
AcDbBlockBegin
  2
*D14
 70
     1
 10
0.0
 20
0.0
 30
0.0
  3
*D14
  1

  0
LINE
  5
52F84
330
4FD28
100
AcDbEntity
  8
AM_5
100
AcDbLine
 10
6263.054828957582
 20
-7207.181217146474
 30
0.0
 11
6263.054828957582
 21
-7226.031217146474
 31
0.0
  0
LINE
  5
52F85
330
4FD28
100
AcDbEntity
  8
AM_5
100
AcDbLine
 10
6251.054828957581
 20
-7192.181217146473
 30
0.0
 11
6251.054828957581
 21
-7226.031217146474
 31
0.0
  0
LINE
  5
52F86
330
4FD28
100
AcDbEntity
  8
AM_5
100
AcDbLine
 10
6262.054828957582
 20
-7225.031217146474
 30
0.0
 11
6252.054828957582
 21
-7225.031217146474
 31
0.0
  0
INSERT
  5
52F87
330
4FD28
100
AcDbEntity
  8
AM_5
100
AcDbBlockReference
  2
_Dot
 10
6263.054828957582
 20
-7225.031217146474
 30
0.0
  0
INSERT
  5
52F88
330
4FD28
100
AcDbEntity
  8
AM_5
100
AcDbBlockReference
  2
_Dot
 10
6251.054828957581
 20
-7225.031217146474
 30
0.0
 50
180.0
  0
MTEXT
  5
52F89
330
4FD28
100
AcDbEntity
  8
AM_5
 62
     2
100
AcDbMText
 10
6257.054828957581
 20
-7222.431217146473
 30
0.0
 40
3.200000000000001
 41
0.0
 71
     5
 72
     1
  1
12
 73
     1
 44
1.0
1001
ACAD
1000
MTEXTBEGIN
1070
    73
1070
     1
1070
    44
1040
1.0
1070
    74
1070
     0
1000
MTEXTEND
  0
POINT
  5
52F8A
330
4FD28
100
AcDbEntity
  8
Defpoints
 62
     0
100
AcDbPoint
 10
6263.054828957582
 20
-7206.181217146474
 30
0.0
  0
POINT
  5
52F8B
330
4FD28
100
AcDbEntity
  8
Defpoints
 62
     0
100
AcDbPoint
 10
6251.054828957581
 20
-7191.181217146473
 30
0.0
  0
POINT
  5
52F8C
330
4FD28
100
AcDbEntity
  8
Defpoints
 62
     0
100
AcDbPoint
 10
6251.054828957581
 20
-7225.031217146474
 30
0.0
  0
ENDBLK
  5
4FD33
330
4FD28
100
AcDbEntity
  8
0
100
AcDbBlockEnd
  0
BLOCK
  5
4FD48
330
4FD3E
100
AcDbEntity
  8
0
100
AcDbBlockBegin
  2
*D15
 70
     1
 10
0.0
 20
0.0
 30
0.0
  3
*D15
  1

  0
LINE
  5
52F8D
330
4FD3E
100
AcDbEntity
  8
AM_5
100
AcDbLine
 10
6251.054828957581
 20
-7192.181217146473
 30
0.0
 11
6251.054828957581
 21
-7218.031217146473
 31
0.0
  0
LINE
  5
52F8E
330
4FD3E
100
AcDbEntity
  8
AM_5
100
AcDbLine
 10
6237.054828957582
 20
-7198.281217146474
 30
0.0
 11
6237.054828957582
 21
-7218.031217146473
 31
0.0
  0
LINE
  5
52F8F
330
4FD3E
100
AcDbEntity
  8
AM_5
100
AcDbLine
 10
6250.054828957582
 20
-7217.031217146474
 30
0.0
 11
6238.054828957582
 21
-7217.031217146474
 31
0.0
  0
INSERT
  5
52F90
330
4FD3E
100
AcDbEntity
  8
AM_5
100
AcDbBlockReference
  2
_Dot
 10
6251.054828957581
 20
-7217.031217146474
 30
0.0
  0
INSERT
  5
52F91
330
4FD3E
100
AcDbEntity
  8
AM_5
100
AcDbBlockReference
  2
_Dot
 10
6237.054828957582
 20
-7217.031217146474
 30
0.0
 50
180.0
  0
MTEXT
  5
52F92
330
4FD3E
100
AcDbEntity
  8
AM_5
 62
     2
100
AcDbMText
 10
6244.054828957582
 20
-7214.431217146473
 30
0.0
 40
3.200000000000001
 41
0.0
 71
     5
 72
     1
  1
14
 73
     1
 44
1.0
1001
ACAD
1000
MTEXTBEGIN
1070
    73
1070
     1
1070
    44
1040
1.0
1070
    74
1070
     0
1000
MTEXTEND
  0
POINT
  5
52F93
330
4FD3E
100
AcDbEntity
  8
Defpoints
 62
     0
100
AcDbPoint
 10
6251.054828957581
 20
-7191.181217146473
 30
0.0
  0
POINT
  5
52F94
330
4FD3E
100
AcDbEntity
  8
Defpoints
 62
     0
100
AcDbPoint
 10
6237.054828957582
 20
-7197.281217146475
 30
0.0
  0
POINT
  5
52F95
330
4FD3E
100
AcDbEntity
  8
Defpoints
 62
     0
100
AcDbPoint
 10
6237.054828957582
 20
-7217.031217146474
 30
0.0
  0
ENDBLK
  5
4FD49
330
4FD3E
100
AcDbEntity
  8
0
100
AcDbBlockEnd
  0
BLOCK
  5
4FD9B
330
4FD91
100
AcDbEntity
  8
0
100
AcDbBlockBegin
  2
*D16
 70
     1
 10
0.0
 20
0.0
 30
0.0
  3
*D16
  1

  0
LINE
  5
52F96
330
4FD91
100
AcDbEntity
  8
AM_5
100
AcDbLine
 10
6251.054828957581
 20
-7192.181217146473
 30
0.0
 11
6251.054828957581
 21
-7226.031217146474
 31
0.0
  0
LINE
  5
52F97
330
4FD91
100
AcDbEntity
  8
AM_5
100
AcDbLine
 10
6172.054828957581
 20
-7200.681217146473
 30
0.0
 11
6172.054828957581
 21
-7226.031217146474
 31
0.0
  0
LINE
  5
52F98
330
4FD91
100
AcDbEntity
  8
AM_5
100
AcDbLine
 10
6250.054828957582
 20
-7225.031217146474
 30
0.0
 11
6173.054828957582
 21
-7225.031217146474
 31
0.0
  0
INSERT
  5
52F99
330
4FD91
100
AcDbEntity
  8
AM_5
100
AcDbBlockReference
  2
_Dot
 10
6251.054828957581
 20
-7225.031217146474
 30
0.0
  0
INSERT
  5
52F9A
330
4FD91
100
AcDbEntity
  8
AM_5
100
AcDbBlockReference
  2
_Dot
 10
6172.054828957581
 20
-7225.031217146474
 30
0.0
 50
180.0
  0
MTEXT
  5
52F9B
330
4FD91
100
AcDbEntity
  8
AM_5
 62
     2
100
AcDbMText
 10
6211.554828957582
 20
-7222.431217146473
 30
0.0
 40
3.200000000000001
 41
0.0
 71
     5
 72
     1
  1
調整範囲57～80
 73
     1
 44
1.0
1001
ACAD
1000
MTEXTBEGIN
1070
    73
1070
     1
1070
    44
1040
1.0
1070
    74
1070
     0
1000
MTEXTEND
  0
POINT
  5
52F9C
330
4FD91
100
AcDbEntity
  8
Defpoints
 62
     0
100
AcDbPoint
 10
6251.054828957581
 20
-7191.181217146473
 30
0.0
  0
POINT
  5
52F9D
330
4FD91
100
AcDbEntity
  8
Defpoints
 62
     0
100
AcDbPoint
 10
6172.054828957581
 20
-7199.681217146474
 30
0.0
  0
POINT
  5
52F9E
330
4FD91
100
AcDbEntity
  8
Defpoints
 62
     0
100
AcDbPoint
 10
6172.054828957581
 20
-7225.031217146474
 30
0.0
  0
ENDBLK
  5
4FD9C
330
4FD91
100
AcDbEntity
  8
0
100
AcDbBlockEnd
  0
BLOCK
  5
4FDA7
330
4FD9D
100
AcDbEntity
  8
0
100
AcDbBlockBegin
  2
*D17
 70
     1
 10
0.0
 20
0.0
 30
0.0
  3
*D17
  1

  0
LINE
  5
5B326
330
4FD9D
100
AcDbEntity
  8
AM_5
100
AcDbLine
 10
6172.054828957581
 20
-7200.723108119674
 30
0.0
 11
6172.054828957581
 21
-7218.031217146473
 31
0.0
  0
LINE
  5
5B327
330
4FD9D
100
AcDbEntity
  8
AM_5
100
AcDbLine
 10
6188.054828957582
 20
-7193.531217146475
 30
0.0
 11
6188.054828957582
 21
-7218.031217146473
 31
0.0
  0
LINE
  5
5B328
330
4FD9D
100
AcDbEntity
  8
AM_5
100
AcDbLine
 10
6173.054828957582
 20
-7217.031217146474
 30
0.0
 11
6187.054828957582
 21
-7217.031217146474
 31
0.0
  0
INSERT
  5
5B329
330
4FD9D
100
AcDbEntity
  8
AM_5
100
AcDbBlockReference
  2
_Dot
 10
6172.054828957581
 20
-7217.031217146474
 30
0.0
 50
180.0
  0
INSERT
  5
5B32A
330
4FD9D
100
AcDbEntity
  8
AM_5
100
AcDbBlockReference
  2
_Dot
 10
6188.054828957582
 20
-7217.031217146474
 30
0.0
  0
MTEXT
  5
5B32B
330
4FD9D
100
AcDbEntity
  8
AM_5
 62
     2
100
AcDbMText
 10
6180.304828957582
 20
-7214.431217146473
 30
0.0
 40
3.200000000000001
 41
0.0
 71
     5
 72
     1
  1
（16）
 73
     1
 44
1.0
1001
ACAD
1000
MTEXTBEGIN
1070
    73
1070
     1
1070
    44
1040
1.0
1070
    74
1070
     0
1000
MTEXTEND
  0
POINT
  5
5B32C
330
4FD9D
100
AcDbEntity
  8
Defpoints
 62
     0
100
AcDbPoint
 10
6172.054828957581
 20
-7199.723108119673
 30
0.0
  0
POINT
  5
5B32D
330
4FD9D
100
AcDbEntity
  8
Defpoints
 62
     0
100
AcDbPoint
 10
6188.054828957582
 20
-7192.531217146473
 30
0.0
  0
POINT
  5
5B32E
330
4FD9D
100
AcDbEntity
  8
Defpoints
 62
     0
100
AcDbPoint
 10
6188.054828957582
 20
-7217.031217146474
 30
0.0
  0
ENDBLK
  5
4FDA8
330
4FD9D
100
AcDbEntity
  8
0
100
AcDbBlockEnd
  0
BLOCK
  5
4FE32
330
4FE28
100
AcDbEntity
  8
0
100
AcDbBlockBegin
  2
*D18
 70
     1
 10
0.0
 20
0.0
 30
0.0
  3
*D18
  1

  0
LINE
  5
5B2F4
330
4FE28
100
AcDbEntity
  8
AM_5
100
AcDbLine
 10
6276.204828957582
 20
-7169.031217146474
 30
0.0
 11
6308.05482895758
 21
-7169.031217146474
 31
0.0
  0
LINE
  5
5B2F5
330
4FE28
100
AcDbEntity
  8
AM_5
100
AcDbLine
 10
6271.204828957582
 20
-7199.031217146473
 30
0.0
 11
6308.05482895758
 21
-7199.031217146473
 31
0.0
  0
LINE
  5
5B2F6
330
4FE28
100
AcDbEntity
  8
AM_5
100
AcDbLine
 10
6307.05482895758
 20
-7170.031217146474
 30
0.0
 11
6307.05482895758
 21
-7198.031217146475
 31
0.0
  0
INSERT
  5
5B2F7
330
4FE28
100
AcDbEntity
  8
AM_5
100
AcDbBlockReference
  2
_Dot
 10
6307.05482895758
 20
-7169.031217146474
 30
0.0
 50
90.0
  0
INSERT
  5
5B2F8
330
4FE28
100
AcDbEntity
  8
AM_5
100
AcDbBlockReference
  2
_Dot
 10
6307.05482895758
 20
-7199.031217146473
 30
0.0
 50
270.0
  0
MTEXT
  5
5B2F9
330
4FE28
100
AcDbEntity
  8
AM_5
 62
     2
100
AcDbMText
 10
6304.454828957581
 20
-7184.031217146475
 30
0.0
 40
3.200000000000001
 41
0.0
 71
     5
 72
     1
  1
30
 11
0.0000000000000001
 21
1.0
 31
0.0
 73
     1
 44
1.0
1001
ACAD
1000
MTEXTBEGIN
1070
    73
1070
     1
1070
    44
1040
1.0
1070
    74
1070
     0
1000
MTEXTEND
  0
POINT
  5
5B2FA
330
4FE28
100
AcDbEntity
  8
Defpoints
 62
     0
100
AcDbPoint
 10
6275.204828957583
 20
-7169.031217146474
 30
0.0
  0
POINT
  5
5B2FB
330
4FE28
100
AcDbEntity
  8
Defpoints
 62
     0
100
AcDbPoint
 10
6270.204828957583
 20
-7199.031217146473
 30
0.0
  0
POINT
  5
5B2FC
330
4FE28
100
AcDbEntity
  8
Defpoints
 62
     0
100
AcDbPoint
 10
6307.05482895758
 20
-7199.031217146473
 30
0.0
  0
ENDBLK
  5
4FE33
330
4FE28
100
AcDbEntity
  8
0
100
AcDbBlockEnd
  0
BLOCK
  5
4FEEE
330
4FEE4
100
AcDbEntity
  8
0
100
AcDbBlockBegin
  2
*D19
 70
     1
 10
0.0
 20
0.0
 30
0.0
  3
*D19
  1

  0
LINE
  5
52FB1
330
4FEE4
100
AcDbEntity
  8
AM_5
100
AcDbLine
 10
6278.054828957582
 20
-7259.646385856601
 30
0.0
 11
6305.88998973258
 21
-7259.646385856601
 31
0.0
  0
LINE
  5
52FB2
330
4FEE4
100
AcDbEntity
  8
AM_5
100
AcDbLine
 10
6244.054828957582
 20
-7243.6463858566
 30
0.0
 11
6305.88998973258
 21
-7243.6463858566
 31
0.0
  0
LINE
  5
52FB3
330
4FEE4
100
AcDbEntity
  8
AM_5
100
AcDbLine
 10
6304.88998973258
 20
-7258.6463858566
 30
0.0
 11
6304.88998973258
 21
-7244.646385856601
 31
0.0
  0
INSERT
  5
52FB4
330
4FEE4
100
AcDbEntity
  8
AM_5
100
AcDbBlockReference
  2
_Dot
 10
6304.88998973258
 20
-7259.646385856601
 30
0.0
 50
270.0
  0
INSERT
  5
52FB5
330
4FEE4
100
AcDbEntity
  8
AM_5
100
AcDbBlockReference
  2
_Dot
 10
6304.88998973258
 20
-7243.6463858566
 30
0.0
 50
90.0
  0
MTEXT
  5
52FB6
330
4FEE4
100
AcDbEntity
  8
AM_5
 62
     2
100
AcDbMText
 10
6302.289989732582
 20
-7251.646385856599
 30
0.0
 40
3.200000000000001
 41
0.0
 71
     5
 72
     1
  1
（16）
 11
0.0000000000000001
 21
1.0
 31
0.0
 73
     1
 44
1.0
1001
ACAD
1000
MTEXTBEGIN
1070
    73
1070
     1
1070
    44
1040
1.0
1070
    74
1070
     0
1000
MTEXTEND
  0
POINT
  5
52FB7
330
4FEE4
100
AcDbEntity
  8
Defpoints
 62
     0
100
AcDbPoint
 10
6277.054828957582
 20
-7259.646385856601
 30
0.0
  0
POINT
  5
52FB8
330
4FEE4
100
AcDbEntity
  8
Defpoints
 62
     0
100
AcDbPoint
 10
6243.054828957582
 20
-7243.6463858566
 30
0.0
  0
POINT
  5
52FB9
330
4FEE4
100
AcDbEntity
  8
Defpoints
 62
     0
100
AcDbPoint
 10
6304.88998973258
 20
-7243.6463858566
 30
0.0
  0
ENDBLK
  5
4FEEF
330
4FEE4
100
AcDbEntity
  8
0
100
AcDbBlockEnd
  0
BLOCK
  5
4FF06
330
4FEFA
100
AcDbEntity
  8
0
100
AcDbBlockBegin
  2
*D20
 70
     1
 10
0.0
 20
0.0
 30
0.0
  3
*D20
  1

  0
LINE
  5
52FBA
330
4FEFA
100
AcDbEntity
  8
AM_5
100
AcDbLine
 10
6278.054828957582
 20
-7259.646385856601
 30
0.0
 11
6297.88998973258
 21
-7259.646385856601
 31
0.0
  0
LINE
  5
52FBB
330
4FEFA
100
AcDbEntity
  8
AM_5
100
AcDbLine
 10
6278.054828957582
 20
-7256.646385856601
 30
0.0
 11
6297.88998973258
 21
-7256.646385856601
 31
0.0
  0
LINE
  5
52FBC
330
4FEFA
100
AcDbEntity
  8
AM_5
100
AcDbLine
 10
6296.88998973258
 20
-7255.6463858566
 30
0.0
 11
6296.88998973258
 21
-7254.6463858566
 31
0.0
  0
LINE
  5
52FBD
330
4FEFA
100
AcDbEntity
  8
AM_5
100
AcDbLine
 10
6296.88998973258
 20
-7260.6463858566
 30
0.0
 11
6296.88998973258
 21
-7265.139719189933
 31
0.0
  0
LINE
  5
52FBE
330
4FEFA
100
AcDbEntity
  8
AM_5
100
AcDbLine
 10
6296.88998973258
 20
-7256.646385856601
 30
0.0
 11
6296.88998973258
 21
-7259.646385856601
 31
0.0
  0
INSERT
  5
52FBF
330
4FEFA
100
AcDbEntity
  8
AM_5
100
AcDbBlockReference
  2
_Dot
 10
6296.88998973258
 20
-7256.646385856601
 30
0.0
 50
270.0
  0
INSERT
  5
52FC0
330
4FEFA
100
AcDbEntity
  8
AM_5
100
AcDbBlockReference
  2
_Dot
 10
6296.88998973258
 20
-7259.646385856601
 30
0.0
 50
90.0
  0
MTEXT
  5
52FC1
330
4FEFA
100
AcDbEntity
  8
AM_5
 62
     2
100
AcDbMText
 10
6294.289989732582
 20
-7263.393052523266
 30
0.0
 40
3.200000000000001
 41
0.0
 71
     5
 72
     1
  1
3
 11
0.0000000000000001
 21
1.0
 31
0.0
 73
     1
 44
1.0
1001
ACAD
1000
MTEXTBEGIN
1070
    73
1070
     1
1070
    44
1040
1.0
1070
    74
1070
     0
1000
MTEXTEND
  0
POINT
  5
52FC2
330
4FEFA
100
AcDbEntity
  8
Defpoints
 62
     0
100
AcDbPoint
 10
6277.054828957582
 20
-7259.646385856601
 30
0.0
  0
POINT
  5
52FC3
330
4FEFA
100
AcDbEntity
  8
Defpoints
 62
     0
100
AcDbPoint
 10
6277.054828957582
 20
-7256.646385856601
 30
0.0
  0
POINT
  5
52FC4
330
4FEFA
100
AcDbEntity
  8
Defpoints
 62
     0
100
AcDbPoint
 10
6296.88998973258
 20
-7256.646385856601
 30
0.0
  0
ENDBLK
  5
4FF07
330
4FEFA
100
AcDbEntity
  8
0
100
AcDbBlockEnd
  0
BLOCK
  5
4FF2B
330
4FF1F
100
AcDbEntity
  8
0
100
AcDbBlockBegin
  2
*D21
 70
     1
 10
0.0
 20
0.0
 30
0.0
  3
*D21
  1

  0
LINE
  5
52FC5
330
4FF1F
100
AcDbEntity
  8
AM_5
100
AcDbLine
 10
6193.258256082295
 20
-7191.327790021813
 30
0.0
 11
6194.347722176726
 21
-7190.238323927468
 31
0.0
  0
LINE
  5
52FC6
330
4FF1F
100
AcDbEntity
  8
AM_5
100
AcDbLine
 10
6196.793789987865
 20
-7194.863323927662
 30
0.0
 11
6197.883256082295
 21
-7193.773857833317
 31
0.0
  0
LINE
  5
52FC7
330
4FF1F
100
AcDbEntity
  8
AM_5
100
AcDbLine
 10
6194.34772217667
 20
-7191.652537489841
 30
0.0
 11
6196.469042519924
 21
-7193.773857833261
 31
0.0
  0
LINE
  5
52FC8
330
4FF1F
100
AcDbEntity
  8
AM_5
100
AcDbLine
 10
6197.176149301082
 20
-7194.480964614474
 30
0.0
 11
6201.786485514237
 21
-7199.091300827994
 31
0.0
  0
INSERT
  5
52FC9
330
4FF1F
100
AcDbEntity
  8
AM_5
100
AcDbBlockReference
  2
_Dot
 10
6193.640615395512
 20
-7190.945430708627
 30
0.0
 50
134.9999999977375
  0
INSERT
  5
52FCA
330
4FF1F
100
AcDbEntity
  8
AM_5
100
AcDbBlockReference
  2
_Dot
 10
6197.176149301082
 20
-7194.480964614474
 30
0.0
 50
314.9999999977375
  0
MTEXT
  5
52FCB
330
4FF1F
100
AcDbEntity
  8
AM_5
 62
     2
100
AcDbMText
 10
6201.673348429397
 20
-7195.301208480829
 30
0.0
 40
3.200000000000001
 41
0.0
 71
     5
 72
     1
  1
%%c5
 11
0.7071067811586257
 21
-0.7071067812144694
 31
0.0
 73
     1
 44
1.0
1001
ACAD
1000
MTEXTBEGIN
1070
    73
1070
     1
1070
    44
1040
1.0
1070
    74
1070
     0
1000
MTEXTEND
  0
POINT
  5
52FCC
330
4FF1F
100
AcDbEntity
  8
Defpoints
 62
     0
100
AcDbPoint
 10
6192.551149301081
 20
-7192.034896802971
 30
0.0
  0
POINT
  5
52FCD
330
4FF1F
100
AcDbEntity
  8
Defpoints
 62
     0
100
AcDbPoint
 10
6196.086683206651
 20
-7195.570430708819
 30
0.0
  0
POINT
  5
52FCE
330
4FF1F
100
AcDbEntity
  8
Defpoints
 62
     0
100
AcDbPoint
 10
6197.176149301082
 20
-7194.480964614474
 30
0.0
  0
ENDBLK
  5
4FF2C
330
4FF1F
100
AcDbEntity
  8
0
100
AcDbBlockEnd
  0
BLOCK
  5
4FF67
330
4FF5D
100
AcDbEntity
  8
0
100
AcDbBlockBegin
  2
*D22
 70
     1
 10
0.0
 20
0.0
 30
0.0
  3
*D22
  1

  0
LINE
  5
5B383
330
4FF5D
100
AcDbEntity
  8
AM_5
100
AcDbLine
 10
6164.554828957582
 20
-7259.646385856601
 30
0.0
 11
6149.05482895758
 21
-7259.646385856601
 31
0.0
  0
LINE
  5
5B384
330
4FF5D
100
AcDbEntity
  8
AM_5
100
AcDbLine
 10
6180.064447901068
 20
-7246.646385856573
 30
0.0
 11
6149.05482895758
 21
-7246.646385856573
 31
0.0
  0
LINE
  5
5B385
330
4FF5D
100
AcDbEntity
  8
AM_5
100
AcDbLine
 10
6150.05482895758
 20
-7258.6463858566
 30
0.0
 11
6150.05482895758
 21
-7247.646385856573
 31
0.0
  0
INSERT
  5
5B386
330
4FF5D
100
AcDbEntity
  8
AM_5
100
AcDbBlockReference
  2
_Dot
 10
6150.05482895758
 20
-7259.646385856601
 30
0.0
 50
270.0
  0
INSERT
  5
5B387
330
4FF5D
100
AcDbEntity
  8
AM_5
100
AcDbBlockReference
  2
_Dot
 10
6150.05482895758
 20
-7246.646385856573
 30
0.0
 50
90.0
  0
MTEXT
  5
5B388
330
4FF5D
100
AcDbEntity
  8
AM_5
 62
     2
100
AcDbMText
 10
6147.454828957581
 20
-7252.743974097102
 30
0.0
 40
3.200000000000001
 41
0.0
 71
     5
 72
     1
  1
13
 11
0.0000000000000001
 21
1.0
 31
0.0
 73
     1
 44
1.0
1001
ACAD
1000
MTEXTBEGIN
1070
    73
1070
     1
1070
    44
1040
1.0
1070
    74
1070
     0
1000
MTEXTEND
  0
POINT
  5
5B389
330
4FF5D
100
AcDbEntity
  8
Defpoints
 62
     0
100
AcDbPoint
 10
6165.554828957581
 20
-7259.646385856601
 30
0.0
  0
POINT
  5
5B38A
330
4FF5D
100
AcDbEntity
  8
Defpoints
 62
     0
100
AcDbPoint
 10
6181.064447901068
 20
-7246.646385856573
 30
0.0
  0
POINT
  5
5B38B
330
4FF5D
100
AcDbEntity
  8
Defpoints
 62
     0
100
AcDbPoint
 10
6150.05482895758
 20
-7246.646385856573
 30
0.0
  0
ENDBLK
  5
4FF68
330
4FF5D
100
AcDbEntity
  8
0
100
AcDbBlockEnd
  0
BLOCK
  5
4FF9B
330
4FF8F
100
AcDbEntity
  8
0
100
AcDbBlockBegin
  2
*D23
 70
     1
 10
0.0
 20
0.0
 30
0.0
  3
*D23
  1

  0
LINE
  5
5B378
330
4FF8F
100
AcDbEntity
  8
AM_5
100
AcDbLine
 10
6164.554828957582
 20
-7259.646385856601
 30
0.0
 11
6157.05482895758
 21
-7259.646385856601
 31
0.0
  0
LINE
  5
5B379
330
4FF8F
100
AcDbEntity
  8
AM_5
100
AcDbLine
 10
6164.554828957582
 20
-7256.646385856601
 30
0.0
 11
6157.05482895758
 21
-7256.646385856601
 31
0.0
  0
LINE
  5
5B37A
330
4FF8F
100
AcDbEntity
  8
AM_5
100
AcDbLine
 10
6158.05482895758
 20
-7255.646385856602
 30
0.0
 11
6158.05482895758
 21
-7254.646385856601
 31
0.0
  0
LINE
  5
5B37B
330
4FF8F
100
AcDbEntity
  8
AM_5
100
AcDbLine
 10
6158.05482895758
 20
-7260.6463858566
 30
0.0
 11
6158.05482895758
 21
-7265.139719189933
 31
0.0
  0
LINE
  5
5B37C
330
4FF8F
100
AcDbEntity
  8
AM_5
100
AcDbLine
 10
6158.05482895758
 20
-7256.646385856601
 30
0.0
 11
6158.05482895758
 21
-7259.646385856601
 31
0.0
  0
INSERT
  5
5B37D
330
4FF8F
100
AcDbEntity
  8
AM_5
100
AcDbBlockReference
  2
_Dot
 10
6158.05482895758
 20
-7256.646385856601
 30
0.0
 50
270.0
  0
INSERT
  5
5B37E
330
4FF8F
100
AcDbEntity
  8
AM_5
100
AcDbBlockReference
  2
_Dot
 10
6158.05482895758
 20
-7259.646385856601
 30
0.0
 50
90.0
  0
MTEXT
  5
5B37F
330
4FF8F
100
AcDbEntity
  8
AM_5
 62
     2
100
AcDbMText
 10
6155.454828957581
 20
-7263.393052523266
 30
0.0
 40
3.200000000000001
 41
0.0
 71
     5
 72
     1
  1
3
 11
0.0000000000000001
 21
1.0
 31
0.0
 73
     1
 44
1.0
1001
ACAD
1000
MTEXTBEGIN
1070
    73
1070
     1
1070
    44
1040
1.0
1070
    74
1070
     0
1000
MTEXTEND
  0
POINT
  5
5B380
330
4FF8F
100
AcDbEntity
  8
Defpoints
 62
     0
100
AcDbPoint
 10
6165.554828957581
 20
-7259.646385856601
 30
0.0
  0
POINT
  5
5B381
330
4FF8F
100
AcDbEntity
  8
Defpoints
 62
     0
100
AcDbPoint
 10
6165.554828957581
 20
-7256.646385856601
 30
0.0
  0
POINT
  5
5B382
330
4FF8F
100
AcDbEntity
  8
Defpoints
 62
     0
100
AcDbPoint
 10
6158.05482895758
 20
-7256.646385856601
 30
0.0
  0
ENDBLK
  5
4FF9C
330
4FF8F
100
AcDbEntity
  8
0
100
AcDbBlockEnd
  0
BLOCK
  5
554CE
330
554C7
100
AcDbEntity
  8
0
100
AcDbBlockBegin
  2
*D24
 70
     1
 10
0.0
 20
0.0
 30
0.0
  3
*D24
  1

  0
LINE
  5
554F7
330
554C7
100
AcDbEntity
  8
AM_5
100
AcDbLine
 10
6132.347050360144
 20
-7209.535011513705
 30
0.0
 11
6161.955050360145
 21
-7209.535011513705
 31
0.0
  0
LINE
  5
554F8
330
554C7
100
AcDbEntity
  8
AM_5
100
AcDbLine
 10
6161.955050360145
 20
-7209.535011513705
 30
0.0
 11
6168.914147583819
 21
-7197.818808328526
 31
0.0
  0
LINE
  5
554F9
330
554C7
100
AcDbEntity
  8
AM_5
100
AcDbLine
 10
6175.195510331348
 20
-7187.243625964429
 30
0.0
 11
6175.706190229521
 21
-7186.383855040517
 31
0.0
  0
MTEXT
  5
554FA
330
554C7
100
AcDbEntity
  8
AM_5
 62
     2
100
AcDbMText
 10
6146.651050360144
 20
-7206.935011513704
 30
0.0
 40
3.2
 41
0.0
 71
     5
 72
     1
  1
2-%%c5.3×\U+220510.3サラ
 73
     1
 44
1.0
1001
ACAD
1000
MTEXTBEGIN
1070
    73
1070
     1
1070
    44
1040
1.0
1070
    74
1070
     0
1000
MTEXTEND
  0
LINE
  5
554FB
330
554C7
100
AcDbEntity
  8
AM_5
100
AcDbLine
 10
6174.684830433174
 20
-7188.103396888338
 30
0.0
 11
6169.424827481993
 21
-7196.959037404615
 31
0.0
  0
INSERT
  5
554FC
330
554C7
100
AcDbEntity
  8
AM_5
100
AcDbBlockReference
  2
_Dot
 10
6174.684830433174
 20
-7188.103396888338
 30
0.0
 50
239.290871964437
  0
INSERT
  5
554FD
330
554C7
100
AcDbEntity
  8
AM_5
100
AcDbBlockReference
  2
_Dot
 10
6169.424827481993
 20
-7196.959037404615
 30
0.0
 50
59.29087196443691
  0
POINT
  5
554FE
330
554C7
100
AcDbEntity
  8
Defpoints
 62
     0
100
AcDbPoint
 10
6169.424827481993
 20
-7196.959037404615
 30
0.0
  0
POINT
  5
554FF
330
554C7
100
AcDbEntity
  8
Defpoints
 62
     0
100
AcDbPoint
 10
6174.684830433174
 20
-7188.103396888338
 30
0.0
  0
ENDBLK
  5
554CF
330
554C7
100
AcDbEntity
  8
0
100
AcDbBlockEnd
  0
BLOCK
  5
5B35A
330
5B353
100
AcDbEntity
  8
0
100
AcDbBlockBegin
  2
*D27
 70
     1
 10
0.0
 20
0.0
 30
0.0
  3
*D27
  1

  0
LINE
  5
5B36E
330
5B353
100
AcDbEntity
  8
AM_5
100
AcDbLine
 10
6303.819955268552
 20
-7216.768995459713
 30
0.0
 11
6274.211955268551
 21
-7216.768995459713
 31
0.0
  0
LINE
  5
5B36F
330
5B353
100
AcDbEntity
  8
AM_5
100
AcDbLine
 10
6274.211955268551
 20
-7216.768995459713
 30
0.0
 11
6266.329296422567
 21
-7204.237018028257
 31
0.0
  0
LINE
  5
5B370
330
5B353
100
AcDbEntity
  8
AM_5
100
AcDbLine
 10
6259.780361492598
 20
-7193.825416264691
 30
0.0
 11
6259.247927758455
 21
-7192.978944576598
 31
0.0
  0
MTEXT
  5
5B371
330
5B353
100
AcDbEntity
  8
AM_5
 62
     2
100
AcDbMText
 10
6289.515955268552
 20
-7214.168995459711
 30
0.0
 40
3.2
 41
0.0
 71
     5
 72
     1
  1
3-%%c5.3×\U+220510.3サラ
 73
     1
 44
1.0
1001
ACAD
1000
MTEXTBEGIN
1070
    73
1070
     1
1070
    44
1040
1.0
1070
    74
1070
     0
1000
MTEXTEND
  0
LINE
  5
5B372
330
5B353
100
AcDbEntity
  8
AM_5
100
AcDbLine
 10
6260.312795226742
 20
-7194.671887952786
 30
0.0
 11
6265.796862688423
 21
-7203.390546340163
 31
0.0
  0
INSERT
  5
5B373
330
5B353
100
AcDbEntity
  8
AM_5
100
AcDbBlockReference
  2
_Dot
 10
6260.312795226742
 20
-7194.671887952786
 30
0.0
 50
302.1700403963202
  0
INSERT
  5
5B374
330
5B353
100
AcDbEntity
  8
AM_5
100
AcDbBlockReference
  2
_Dot
 10
6265.796862688423
 20
-7203.390546340163
 30
0.0
 50
122.1700403963202
  0
POINT
  5
5B375
330
5B353
100
AcDbEntity
  8
Defpoints
 62
     0
100
AcDbPoint
 10
6265.796862688423
 20
-7203.390546340163
 30
0.0
  0
POINT
  5
5B376
330
5B353
100
AcDbEntity
  8
Defpoints
 62
     0
100
AcDbPoint
 10
6260.312795226742
 20
-7194.671887952786
 30
0.0
  0
ENDBLK
  5
5B35B
330
5B353
100
AcDbEntity
  8
0
100
AcDbBlockEnd
  0
ENDSEC
  0
SECTION
  2
ENTITIES
  0
TEXT
  5
31B30
330
1F
100
AcDbEntity
  8
AM_6
 60
     1
100
AcDbText
 10
3408.785415022811
 20
1879.970675238635
 30
0.0
 40
2.5
  1
!GENTITLE-INSERT
100
AcDbText
  0
TEXT
  5
31B31
330
1F
100
AcDbEntity
  8
AM_6
 60
     1
100
AcDbText
 10
3000.285415022811
 20
1871.470675238635
 30
0.0
 40
2.5
  1
!GENTITLE-LL
100
AcDbText
  0
TEXT
  5
31B32
330
1F
100
AcDbEntity
  8
AM_6
 60
     1
100
AcDbText
 10
3420.285415022811
 20
2168.470675238635
 30
0.0
 40
2.5
  1
!GENTITLE-RU
100
AcDbText
  0
TEXT
  5
31B33
330
1F
100
AcDbEntity
  8
AM_6
 60
     1
100
AcDbText
 10
3420.285415022811
 20
2168.470675238635
 30
0.0
 40
2.5
  1
!GENTITLE-MAX
100
AcDbText
  0
TEXT
  5
31B3B
330
1F
100
AcDbEntity
  8
AM_6
 60
     1
100
AcDbText
 10
3000.285415022811
 20
1871.470675238635
 30
0.0
 40
2.5
  1
!GENTITLE-LL
100
AcDbText
  0
TEXT
  5
31B3C
330
1F
100
AcDbEntity
  8
AM_6
 60
     1
100
AcDbText
 10
3408.785415022811
 20
2159.970675238636
 30
0.0
 40
2.5
  1
!GENTITLE-RU
100
AcDbText
  0
TEXT
  5
31B3D
330
1F
100
AcDbEntity
  8
AM_6
 60
     1
100
AcDbText
 10
3420.285415022811
 20
2168.470675238635
 30
0.0
 40
2.5
  1
!GENTITLE-MAX
100
AcDbText
  0
TEXT
  5
31B3E
330
1F
100
AcDbEntity
  8
AM_6
 60
     1
100
AcDbText
 10
3408.785415022811
 20
1879.970675238635
 30
0.0
 40
2.5
  1
!GENTITLE-INSERT
100
AcDbText
  0
TEXT
  5
32D1D
330
1F
100
AcDbEntity
  8
AM_6
 60
     1
100
AcDbText
 10
3234.949399973154
 20
1839.277532086519
 30
0.0
 40
2.5
  1
!GENTITLE-INSERT
100
AcDbText
  0
TEXT
  5
32D1E
330
1F
100
AcDbEntity
  8
AM_6
 60
     1
100
AcDbText
 10
3246.449399973154
 20
2040.77753208652
 30
0.0
 40
2.5
  1
!GENTITLE-MAX
100
AcDbText
  0
TEXT
  5
32D1F
330
1F
100
AcDbEntity
  8
AM_6
 60
     1
100
AcDbText
 10
3246.449399973154
 20
2040.77753208652
 30
0.0
 40
2.5
  1
!GENTITLE-RU
100
AcDbText
  0
TEXT
  5
32D21
330
1F
100
AcDbEntity
  8
AM_6
 60
     1
100
AcDbText
 10
2949.449399973154
 20
1830.777532086519
 30
0.0
 40
2.5
  1
!GENTITLE-LL
100
AcDbText
  0
TEXT
  5
34534
330
1F
100
AcDbEntity
  8
AM_6
 60
     1
100
AcDbText
 10
3774.506320898737
 20
958.0958490755065
 30
0.0
 40
2.5
  1
!GENTITLE-INSERT
100
AcDbText
  0
TEXT
  5
34535
330
1F
100
AcDbEntity
  8
AM_6
 60
     1
100
AcDbText
 10
3786.006320898738
 20
1159.595849075506
 30
0.0
 40
2.5
  1
!GENTITLE-MAX
100
AcDbText
  0
TEXT
  5
34536
330
1F
100
AcDbEntity
  8
AM_6
 60
     1
100
AcDbText
 10
3786.006320898738
 20
1159.595849075506
 30
0.0
 40
2.5
  1
!GENTITLE-RU
100
AcDbText
  0
TEXT
  5
34538
330
1F
100
AcDbEntity
  8
AM_6
 60
     1
100
AcDbText
 10
3489.006320898738
 20
949.5958490755064
 30
0.0
 40
2.5
  1
!GENTITLE-LL
100
AcDbText
  0
LINE
  5
447B9
330
1F
100
AcDbEntity
  8
size
100
AcDbLine
 10
6074.924675701049
 20
-7091.092157567276
 30
0.0
 11
6371.924675701049
 21
-7091.092157567276
 31
0.0
1001
GENIUS_GENREC_14
1002
{
1000
PYDIR
1011
6074.924675701049
1021
-7004.092157567277
1031
0.0
1002
}
1002
{
1000
PXDIR
1011
6494.924675701049
1021
-7301.092157567277
1031
0.0
1002
}
1002
{
1000
PORI
1011
6074.924675701049
1021
-7301.092157567277
1031
0.0
1002
}
1002
{
1000
PINS
1011
6284.924675701049
1021
-7152.592157567276
1031
0.0
1002
}
1002
{
1000
HVAL
1000
297
1002
}
1002
{
1000
H
1070
     2
1002
}
1002
{
1000
WVAL
1000
420
1002
}
1002
{
1000
W
1070
     2
1002
}
1002
{
1000
C
1070
     4
1002
}
1001
GENIUS_GENOBJ-N-REC_13
1002
{
1000
OWNER
1000
GEN
1002
}
1001
GENIUS_GENODEF_13
1002
{
1000
HIER
1070
     0
1002
}
1002
{
1000
MANEDIT
1070
     0
1002
}
1002
{
1000
NOSEL
1070
     0
1002
}
1002
{
1000
BEHIND
1070
     0
1002
}
1002
{
1000
OTHER
1070
     0
1002
}
1002
{
1000
REACTOR
1002
}
  0
LINE
  5
447BA
330
1F
100
AcDbEntity
  8
size
100
AcDbLine
 10
6371.924675701049
 20
-7091.092157567276
 30
0.0
 11
6371.924675701049
 21
-7301.092157567277
 31
0.0
1001
GENIUS_GENREC_14
1002
{
1000
PYDIR
1011
6074.924675701049
1021
-7004.092157567277
1031
0.0
1002
}
1002
{
1000
PXDIR
1011
6494.924675701049
1021
-7301.092157567277
1031
0.0
1002
}
1002
{
1000
PORI
1011
6074.924675701049
1021
-7301.092157567277
1031
0.0
1002
}
1002
{
1000
PINS
1011
6284.924675701049
1021
-7152.592157567276
1031
0.0
1002
}
1002
{
1000
HVAL
1000
297
1002
}
1002
{
1000
H
1070
     2
1002
}
1002
{
1000
WVAL
1000
420
1002
}
1002
{
1000
W
1070
     2
1002
}
1002
{
1000
C
1070
     4
1002
}
1001
GENIUS_GENOBJ-N-REC_13
1002
{
1000
OWNER
1000
GEN
1002
}
1001
GENIUS_GENODEF_13
1002
{
1000
HIER
1070
     0
1002
}
1002
{
1000
MANEDIT
1070
     0
1002
}
1002
{
1000
NOSEL
1070
     0
1002
}
1002
{
1000
BEHIND
1070
     0
1002
}
1002
{
1000
OTHER
1070
     0
1002
}
1002
{
1000
REACTOR
1002
}
  0
LINE
  5
447BB
330
1F
100
AcDbEntity
  8
waku
100
AcDbLine
 10
6086.424675701049
 20
-7292.592157567276
 30
0.0
 11
6360.42467570105
 21
-7292.592157567276
 31
0.0
1001
GENIUS_GENREC_14
1002
{
1000
PYDIR
1011
6074.924675701049
1021
-7004.092157567277
1031
0.0
1002
}
1002
{
1000
PXDIR
1011
6494.924675701049
1021
-7301.092157567277
1031
0.0
1002
}
1002
{
1000
PORI
1011
6074.924675701049
1021
-7301.092157567277
1031
0.0
1002
}
1002
{
1000
PINS
1011
6284.924675701049
1021
-7152.592157567276
1031
0.0
1002
}
1002
{
1000
HVAL
1000
297
1002
}
1002
{
1000
H
1070
     2
1002
}
1002
{
1000
WVAL
1000
420
1002
}
1002
{
1000
W
1070
     2
1002
}
1002
{
1000
C
1070
     4
1002
}
  0
LINE
  5
447BC
330
1F
100
AcDbEntity
  8
waku
100
AcDbLine
 10
6360.42467570105
 20
-7099.592157567276
 30
0.0
 11
6086.424675701049
 21
-7099.592157567276
 31
0.0
1001
GENIUS_GENREC_14
1002
{
1000
PYDIR
1011
5951.92467570105
1021
-7091.092157567276
1031
0.0
1002
}
1002
{
1000
PXDIR
1011
6371.924675701049
1021
-7388.092157567277
1031
0.0
1002
}
1002
{
1000
PORI
1011
5951.92467570105
1021
-7388.092157567277
1031
0.0
1002
}
1002
{
1000
PINS
1011
6161.92467570105
1021
-7239.592157567277
1031
0.0
1002
}
1002
{
1000
HVAL
1000
297
1002
}
1002
{
1000
H
1070
     2
1002
}
1002
{
1000
WVAL
1000
420
1002
}
1002
{
1000
W
1070
     2
1002
}
1002
{
1000
C
1070
     4
1002
}
1001
GENIUS_GENOBJ-N-REC_13
1002
{
1000
OWNER
1000
GEN
1002
}
1001
GENIUS_GENODEF_13
1002
{
1000
HIER
1070
     0
1002
}
1002
{
1000
MANEDIT
1070
     0
1002
}
1002
{
1000
NOSEL
1070
     0
1002
}
1002
{
1000
BEHIND
1070
     0
1002
}
1002
{
1000
OTHER
1070
     0
1002
}
1002
{
1000
REACTOR
1002
}
  0
LINE
  5
447BD
330
1F
100
AcDbEntity
  8
waku
100
AcDbLine
 10
6086.424675701049
 20
-7099.592157567276
 30
0.0
 11
6086.424675701049
 21
-7292.592157567276
 31
0.0
1001
GENIUS_GENREC_14
1002
{
1000
PYDIR
1011
6074.924675701049
1021
-7004.092157567277
1031
0.0
1002
}
1002
{
1000
PXDIR
1011
6494.924675701049
1021
-7301.092157567277
1031
0.0
1002
}
1002
{
1000
PORI
1011
6074.924675701049
1021
-7301.092157567277
1031
0.0
1002
}
1002
{
1000
PINS
1011
6284.924675701049
1021
-7152.592157567276
1031
0.0
1002
}
1002
{
1000
HVAL
1000
297
1002
}
1002
{
1000
H
1070
     2
1002
}
1002
{
1000
WVAL
1000
420
1002
}
1002
{
1000
W
1070
     2
1002
}
1002
{
1000
C
1070
     4
1002
}
1001
GENIUS_GENOBJ-N-REC_13
1002
{
1000
OWNER
1000
GEN
1002
}
1001
GENIUS_GENODEF_13
1002
{
1000
HIER
1070
     0
1002
}
1002
{
1000
MANEDIT
1070
     0
1002
}
1002
{
1000
NOSEL
1070
     0
1002
}
1002
{
1000
BEHIND
1070
     0
1002
}
1002
{
1000
OTHER
1070
     0
1002
}
1002
{
1000
REACTOR
1002
}
  0
LINE
  5
447BE
330
1F
100
AcDbEntity
  8
waku
100
AcDbLine
 10
6360.42467570105
 20
-7292.592157567276
 30
0.0
 11
6360.42467570105
 21
-7099.592157567276
 31
0.0
1001
GENIUS_GENREC_14
1002
{
1000
PYDIR
1011
5951.92467570105
1021
-7085.092157567277
1031
0.0
1002
}
1002
{
1000
PXDIR
1011
6371.924675701049
1021
-7382.092157567277
1031
0.0
1002
}
1002
{
1000
PORI
1011
5951.92467570105
1021
-7382.092157567277
1031
0.0
1002
}
1002
{
1000
PINS
1011
6161.92467570105
1021
-7233.592157567277
1031
0.0
1002
}
1002
{
1000
HVAL
1000
297
1002
}
1002
{
1000
H
1070
     2
1002
}
1002
{
1000
WVAL
1000
420
1002
}
1002
{
1000
W
1070
     2
1002
}
1002
{
1000
C
1070
     4
1002
}
1001
GENIUS_GENOBJ-N-REC_13
1002
{
1000
OWNER
1000
GEN
1002
}
1001
GENIUS_GENODEF_13
1002
{
1000
HIER
1070
     0
1002
}
1002
{
1000
MANEDIT
1070
     0
1002
}
1002
{
1000
NOSEL
1070
     0
1002
}
1002
{
1000
BEHIND
1070
     0
1002
}
1002
{
1000
OTHER
1070
     0
1002
}
1002
{
1000
REACTOR
1002
}
  0
LINE
  5
447BF
330
1F
100
AcDbEntity
  8
size
100
AcDbLine
 10
6074.924675701049
 20
-7091.092157567276
 30
0.0
 11
6074.924675701049
 21
-7301.092157567277
 31
0.0
1001
GENIUS_GENREC_14
1002
{
1000
PYDIR
1011
6074.924675701049
1021
-7004.092157567277
1031
0.0
1002
}
1002
{
1000
PXDIR
1011
6494.924675701049
1021
-7301.092157567277
1031
0.0
1002
}
1002
{
1000
PORI
1011
6074.924675701049
1021
-7301.092157567277
1031
0.0
1002
}
1002
{
1000
PINS
1011
6284.924675701049
1021
-7152.592157567276
1031
0.0
1002
}
1002
{
1000
HVAL
1000
297
1002
}
1002
{
1000
H
1070
     2
1002
}
1002
{
1000
WVAL
1000
420
1002
}
1002
{
1000
W
1070
     2
1002
}
1002
{
1000
C
1070
     4
1002
}
1001
GENIUS_GENOBJ-N-REC_13
1002
{
1000
OWNER
1000
GEN
1002
}
1001
GENIUS_GENODEF_13
1002
{
1000
HIER
1070
     0
1002
}
1002
{
1000
MANEDIT
1070
     0
1002
}
1002
{
1000
NOSEL
1070
     0
1002
}
1002
{
1000
BEHIND
1070
     0
1002
}
1002
{
1000
OTHER
1070
     0
1002
}
1002
{
1000
REACTOR
1002
}
  0
LINE
  5
447C0
330
1F
100
AcDbEntity
  8
size
100
AcDbLine
 10
6074.924675701049
 20
-7301.092157567277
 30
0.0
 11
6371.924675701049
 21
-7301.092157567277
 31
0.0
1001
GENIUS_GENREC_14
1002
{
1000
PYDIR
1011
6074.924675701049
1021
-7004.092157567277
1031
0.0
1002
}
1002
{
1000
PXDIR
1011
6494.924675701049
1021
-7301.092157567277
1031
0.0
1002
}
1002
{
1000
PORI
1011
6074.924675701049
1021
-7301.092157567277
1031
0.0
1002
}
1002
{
1000
PINS
1011
6284.924675701049
1021
-7152.592157567276
1031
0.0
1002
}
1002
{
1000
HVAL
1000
297
1002
}
1002
{
1000
H
1070
     2
1002
}
1002
{
1000
WVAL
1000
420
1002
}
1002
{
1000
W
1070
     2
1002
}
1002
{
1000
C
1070
     4
1002
}
1001
GENIUS_GENOBJ-N-REC_13
1002
{
1000
OWNER
1000
GEN
1002
}
1001
GENIUS_GENODEF_13
1002
{
1000
HIER
1070
     0
1002
}
1002
{
1000
MANEDIT
1070
     0
1002
}
1002
{
1000
NOSEL
1070
     0
1002
}
1002
{
1000
BEHIND
1070
     0
1002
}
1002
{
1000
OTHER
1070
     0
1002
}
1002
{
1000
REACTOR
1002
}
  0
LINE
  5
447C1
330
1F
100
AcDbEntity
  8
AM_5
370
    13
100
AcDbLine
 10
6106.424675701049
 20
-7099.592157567276
 30
0.0
 11
6106.424675701049
 21
-7131.592157567276
 31
0.0
  0
LINE
  5
447C2
330
1F
100
AcDbEntity
  8
AM_5
370
    13
100
AcDbLine
 10
6086.424675701049
 20
-7107.592157567276
 30
0.0
 11
6173.424675701049
 21
-7107.592157567276
 31
0.0
  0
LINE
  5
447C3
330
1F
100
AcDbEntity
  8
AM_5
370
    13
100
AcDbLine
 10
6086.424675701049
 20
-7115.592157567276
 30
0.0
 11
6173.424675701049
 21
-7115.592157567276
 31
0.0
  0
LINE
  5
447C4
330
1F
100
AcDbEntity
  8
AM_5
370
    13
100
AcDbLine
 10
6086.424675701049
 20
-7123.592157567276
 30
0.0
 11
6173.424675701049
 21
-7123.592157567276
 31
0.0
  0
LINE
  5
447C5
330
1F
100
AcDbEntity
  8
AM_0
  6
中線
 48
0.5
370
    30
100
AcDbLine
 10
6086.424675701049
 20
-7131.592157567276
 30
0.0
 11
6173.424675701049
 21
-7131.592157567276
 31
0.0
  0
LINE
  5
447C6
330
1F
100
AcDbEntity
  8
AM_0
  6
中線
 48
0.5
370
    30
100
AcDbLine
 10
6086.424675701049
 20
-7099.592157567276
 30
0.0
 11
6086.424675701049
 21
-7131.592157567276
 31
0.0
  0
LINE
  5
447C7
330
1F
100
AcDbEntity
  8
AM_0
  6
中線
 48
0.5
370
    30
100
AcDbLine
 10
6086.424675701049
 20
-7099.592157567276
 30
0.0
 11
6173.424675701049
 21
-7099.592157567276
 31
0.0
  0
LINE
  5
447C8
330
1F
100
AcDbEntity
  8
AM_0
  6
中線
 48
0.5
370
    30
100
AcDbLine
 10
6173.424675701049
 20
-7099.592157567276
 30
0.0
 11
6173.424675701051
 21
-7131.592157567276
 31
0.0
  0
TEXT
  5
447C9
330
1F
100
AcDbEntity
  8
AM_6
100
AcDbText
 10
6092.08167570105
 20
-7105.192157567277
 30
0.0
 40
3.2
  1
品　名
 41
0.85537027
100
AcDbText
  0
TEXT
  5
447CA
330
1F
100
AcDbEntity
  8
AM_6
100
AcDbText
 10
6092.08167570105
 20
-7113.192157567276
 30
0.0
 40
3.2
  1
品　番
 41
0.85537027
100
AcDbText
  0
TEXT
  5
447CB
330
1F
100
AcDbEntity
  8
AM_6
100
AcDbText
 10
6092.08167570105
 20
-7121.192157567278
 30
0.0
 40
3.2
  1
材　質
 41
0.85537027
100
AcDbText
  0
TEXT
  5
447CC
330
1F
100
AcDbEntity
  8
AM_6
100
AcDbText
 10
6092.08167570105
 20
-7129.192157567278
 30
0.0
 40
3.2
  1
仕上げ
 41
0.85537027
100
AcDbText
  0
TEXT
  5
447CD
330
1F
100
AcDbEntity
  8
AM_6
100
AcDbText
 10
6109.281675701049
 20
-7105.192157567277
 30
0.0
 40
3.2
  1
アジャストファスナー
 41
0.84306961
100
AcDbText
  0
TEXT
  5
447CE
330
1F
100
AcDbEntity
  8
AM_6
100
AcDbText
 10
6109.281675701049
 20
-7113.192157567276
 30
0.0
 40
3.2
  1
ELP-125S
 41
0.84741102
100
AcDbText
  0
TEXT
  5
447CF
330
1F
100
AcDbEntity
  8
AM_6
100
AcDbText
 10
6109.281675701049
 20
-7121.192157567278
 30
0.0
 40
3.2
  1
ステンレス
 41
0.84634979
100
AcDbText
  0
TEXT
  5
447D0
330
1F
100
AcDbEntity
  8
AM_6
100
AcDbText
 10
6109.281675701049
 20
-7129.192157567278
 30
0.0
 40
3.2
  1
光沢バレル研磨
 41
0.84350122
100
AcDbText
  0
TEXT
  5
4E0E8
330
1F
100
AcDbEntity
  8
AM_6
 60
     1
100
AcDbText
 10
5957.394900433246
 20
-5651.939004350452
 30
0.0
 40
2.5
  1
!GENTITLE-INSERT
100
AcDbText
  0
TEXT
  5
4E0E9
330
1F
100
AcDbEntity
  8
AM_6
 60
     1
100
AcDbText
 10
5548.894900433246
 20
-5660.439004350451
 30
0.0
 40
2.5
  1
!GENTITLE-LL
100
AcDbText
  0
TEXT
  5
4E0EA
330
1F
100
AcDbEntity
  8
AM_6
 60
     1
100
AcDbText
 10
5968.894900433246
 20
-5363.439004350452
 30
0.0
 40
2.5
  1
!GENTITLE-RU
100
AcDbText
  0
TEXT
  5
4E0EB
330
1F
100
AcDbEntity
  8
AM_6
 60
     1
100
AcDbText
 10
5968.894900433246
 20
-5363.439004350452
 30
0.0
 40
2.5
  1
!GENTITLE-MAX
100
AcDbText
  0
TEXT
  5
4E0F3
330
1F
100
AcDbEntity
  8
AM_6
 60
     1
100
AcDbText
 10
5548.894900433246
 20
-5660.439004350451
 30
0.0
 40
2.5
  1
!GENTITLE-LL
100
AcDbText
  0
TEXT
  5
4E0F4
330
1F
100
AcDbEntity
  8
AM_6
 60
     1
100
AcDbText
 10
5957.394900433246
 20
-5371.939004350451
 30
0.0
 40
2.5
  1
!GENTITLE-RU
100
AcDbText
  0
TEXT
  5
4E0F5
330
1F
100
AcDbEntity
  8
AM_6
 60
     1
100
AcDbText
 10
5968.894900433246
 20
-5363.439004350452
 30
0.0
 40
2.5
  1
!GENTITLE-MAX
100
AcDbText
  0
TEXT
  5
4E0F6
330
1F
100
AcDbEntity
  8
AM_6
 60
     1
100
AcDbText
 10
5957.394900433246
 20
-5651.939004350452
 30
0.0
 40
2.5
  1
!GENTITLE-INSERT
100
AcDbText
  0
LINE
  5
4F77A
330
1F
100
AcDbEntity
  8
AM_0
  6
中線
 48
0.5
370
    30
100
AcDbLine
 10
6217.531218636582
 20
-7185.281217146473
 30
0.0
 11
6218.781218636582
 21
-7186.531217146473
 31
0.0
  0
LINE
  5
4F77B
330
1F
100
AcDbEntity
  8
AM_0
  6
中線
 48
0.5
370
    30
100
AcDbLine
 10
6204.531218636581
 20
-7185.281217146473
 30
0.0
 11
6217.531218636582
 21
-7185.281217146473
 31
0.0
  0
LINE
  5
4F77C
330
1F
100
AcDbEntity
  8
AM_0
  6
中線
 48
0.5
370
    30
100
AcDbLine
 10
6204.531218636581
 20
-7182.781217146474
 30
0.0
 11
6204.531218636581
 21
-7185.281217146473
 31
0.0
  0
LINE
  5
4F77D
330
1F
100
AcDbEntity
  8
AM_0
  6
中線
 48
0.5
370
    30
100
AcDbLine
 10
6217.531218636582
 20
-7182.781217146474
 30
0.0
 11
6204.531218636581
 21
-7182.781217146474
 31
0.0
  0
LINE
  5
4F77E
330
1F
100
AcDbEntity
  8
AM_0
  6
中線
 48
0.5
370
    30
100
AcDbLine
 10
6218.781218636582
 20
-7181.531217146474
 30
0.0
 11
6217.531218636582
 21
-7182.781217146474
 31
0.0
  0
LINE
  5
4F77F
330
1F
100
AcDbEntity
  8
AM_0
  6
中線
 48
0.5
370
    30
100
AcDbLine
 10
6227.531218636581
 20
-7181.531217146474
 30
0.0
 11
6218.781218636582
 21
-7181.531217146474
 31
0.0
  0
LINE
  5
4F780
330
1F
100
AcDbEntity
  8
AM_0
  6
中線
 48
0.5
370
    30
100
AcDbLine
 10
6263.304828957582
 20
-7177.781217146474
 30
0.0
 11
6262.054828957582
 21
-7176.531217146474
 31
0.0
  0
ARC
  5
4F781
330
1F
100
AcDbEntity
  8
AM_0
  6
中線
 48
0.5
370
    30
100
AcDbCircle
 10
6243.054828957582
 20
-7249.6463858566
 30
0.0
 40
6.0
100
AcDbArc
 50
0.0
 51
180.0
  0
ARC
  5
4F784
330
1F
100
AcDbEntity
  8
AM_0
  6
中線
 48
0.5
370
    30
100
AcDbCircle
 10
6180.974701938582
 20
-7176.531217146474
 30
0.0
 40
1.0
100
AcDbArc
 50
90.0
 51
180.0
  0
LINE
  5
4F785
330
1F
100
AcDbEntity
  8
AM_0
  6
中線
 48
0.5
370
    30
100
AcDbLine
 10
6237.054828957582
 20
-7249.6463858566
 30
0.0
 11
6237.054828957582
 21
-7259.646385856601
 31
0.0
  0
LINE
  5
4F786
330
1F
100
AcDbEntity
  8
AM_0
  6
中線
 48
0.5
370
    30
100
AcDbLine
 10
6237.054828957582
 20
-7259.646385856601
 30
0.0
 11
6277.054828957582
 21
-7259.646385856601
 31
0.0
  0
LINE
  5
4F787
330
1F
100
AcDbEntity
  8
AM_0
  6
中線
 48
0.5
370
    30
100
AcDbLine
 10
6249.054828957582
 20
-7249.6463858566
 30
0.0
 11
6249.054828957582
 21
-7259.646385856601
 31
0.0
  0
LINE
  5
4F788
330
1F
100
AcDbEntity
  8
AM_0
  6
中線
 48
0.5
370
    30
100
AcDbLine
 10
6249.054828957582
 20
-7256.646385856601
 30
0.0
 11
6277.054828957582
 21
-7256.646385856601
 31
0.0
  0
LINE
  5
4F789
330
1F
100
AcDbEntity
  8
AM_0
  6
中線
 48
0.5
370
    30
100
AcDbLine
 10
6277.054828957582
 20
-7256.646385856601
 30
0.0
 11
6277.054828957582
 21
-7259.646385856601
 31
0.0
  0
CIRCLE
  5
4F78A
330
1F
100
AcDbEntity
  8
AM_3
  6
陰線1
 48
0.5
370
    13
100
AcDbCircle
 10
6251.054828957581
 20
-7184.031217146475
 30
0.0
 40
2.649999999999999
  0
LINE
  5
4F78D
330
1F
100
AcDbEntity
  8
AM_0
  6
中線
 48
0.5
370
    30
100
AcDbLine
 10
6277.054828957582
 20
-7178.505913418473
 30
0.0
 11
6277.054828957582
 21
-7189.556520873473
 31
0.0
  0
LINE
  5
4F78E
330
1F
100
AcDbEntity
  8
AM_0
  6
中線
 48
0.5
370
    30
100
AcDbLine
 10
6253.054828957582
 20
-7256.646385856601
 30
0.0
 11
6253.054828957582
 21
-7259.646385856601
 31
0.0
  0
CIRCLE
  5
4F78F
330
1F
100
AcDbEntity
  8
AM_0
  6
中線
 48
0.5
370
    30
100
AcDbCircle
 10
6243.054828957582
 20
-7249.6463858566
 30
0.0
 40
4.0
  0
CIRCLE
  5
4F790
330
1F
100
AcDbEntity
  8
AM_0
  6
中線
 48
0.5
370
    30
100
AcDbCircle
 10
6268.054828957581
 20
-7169.031217146474
 30
0.0
 40
2.649999999999999
  0
LINE
  5
4F792
330
1F
100
AcDbEntity
  8
AM_7
  6
中心線1
 48
0.5
370
    13
100
AcDbLine
 10
6268.054828957581
 20
-7161.881217146474
 30
0.0
 11
6268.054828957581
 21
-7176.181217146474
 31
0.0
  0
LINE
  5
4F794
330
1F
100
AcDbEntity
  8
AM_0
  6
中線
 48
0.5
370
    30
100
AcDbLine
 10
6181.474701938583
 20
-7176.531217146474
 30
0.0
 11
6181.474701938583
 21
-7191.531217146473
 31
0.0
  0
LINE
  5
4F795
330
1F
100
AcDbEntity
  8
AM_0
  6
中線
 48
0.5
370
    30
100
AcDbLine
 10
6179.974701938583
 20
-7176.531217146474
 30
0.0
 11
6179.974701938583
 21
-7191.531217146473
 31
0.0
  0
ARC
  5
4F796
330
1F
100
AcDbEntity
  8
AM_0
  6
中線
 48
0.5
370
    30
100
AcDbCircle
 10
6180.974701938582
 20
-7191.531217146473
 30
0.0
 40
1.0
100
AcDbArc
 50
180.0
 51
270.0
  0
LINE
  5
4F797
330
1F
100
AcDbEntity
  8
AM_0
  6
中線
 48
0.5
370
    30
100
AcDbLine
 10
6237.054828957582
 20
-7170.781217146473
 30
0.0
 11
6237.054828957582
 21
-7181.031217146474
 31
0.0
  0
LINE
  5
4F798
330
1F
100
AcDbEntity
  8
AM_0
  6
中線
 48
0.5
370
    30
100
AcDbLine
 10
6237.054828957582
 20
-7197.281217146474
 30
0.0
 11
6249.054828957582
 21
-7197.281217146474
 31
0.0
  0
LINE
  5
4F799
330
1F
100
AcDbEntity
  8
AM_0
  6
中線
 48
0.5
370
    30
100
AcDbLine
 10
6249.054828957582
 20
-7197.281217146474
 30
0.0
 11
6249.054828957582
 21
-7194.281217146474
 31
0.0
  0
LINE
  5
4F79A
330
1F
100
AcDbEntity
  8
AM_0
  6
中線
 48
0.5
370
    30
100
AcDbLine
 10
6237.054828957582
 20
-7170.781217146473
 30
0.0
 11
6249.054828957582
 21
-7170.781217146473
 31
0.0
  0
LINE
  5
4F79B
330
1F
100
AcDbEntity
  8
AM_0
  6
中線
 48
0.5
370
    30
100
AcDbLine
 10
6249.054828957582
 20
-7170.781217146473
 30
0.0
 11
6249.054828957582
 21
-7173.781217146474
 31
0.0
  0
LINE
  5
4F79C
330
1F
100
AcDbEntity
  8
AM_0
  6
中線
 48
0.5
370
    30
100
AcDbLine
 10
6249.054828957582
 20
-7173.781217146474
 30
0.0
 11
6237.054828957582
 21
-7173.781217146474
 31
0.0
  0
LINE
  5
4F79D
330
1F
100
AcDbEntity
  8
AM_0
  6
中線
 48
0.5
370
    30
100
AcDbLine
 10
6237.054828957582
 20
-7194.281217146474
 30
0.0
 11
6249.054828957582
 21
-7194.281217146474
 31
0.0
  0
ARC
  5
4F79E
330
1F
100
AcDbEntity
  8
AM_0
  6
中線
 48
0.5
370
    30
100
AcDbCircle
 10
6274.554828957582
 20
-7161.531217146474
 30
0.0
 40
2.5
100
AcDbArc
 50
0.0
 51
90.0
  0
LINE
  5
4F79F
330
1F
100
AcDbEntity
  8
AM_0
  6
中線
 48
0.5
370
    30
100
AcDbLine
 10
6277.054828957582
 20
-7178.505913418473
 30
0.0
 11
6277.054828957582
 21
-7189.556520873473
 31
0.0
  0
LINE
  5
4F7A0
330
1F
100
AcDbEntity
  8
AM_0
  6
中線
 48
0.5
370
    30
100
AcDbLine
 10
6255.554828957581
 20
-7159.031217146474
 30
0.0
 11
6274.554828957582
 21
-7159.031217146474
 31
0.0
  0
ARC
  5
4F7A1
330
1F
100
AcDbEntity
  8
AM_0
  6
中線
 48
0.5
370
    30
100
AcDbCircle
 10
6268.054828957581
 20
-7169.031217146474
 30
0.0
 40
5.15
100
AcDbArc
 50
306.1547949759901
 51
227.8441117620313
  0
LINE
  5
4F7A2
330
1F
100
AcDbEntity
  8
AM_0
  6
中線
 48
0.5
370
    30
100
AcDbLine
 10
6274.554828957582
 20
-7209.031217146474
 30
0.0
 11
6255.554828957581
 21
-7209.031217146474
 31
0.0
  0
ARC
  5
4F7A3
330
1F
100
AcDbEntity
  8
AM_3
  6
陰線1
 48
0.5
370
    13
100
AcDbCircle
 10
6251.054828957581
 20
-7184.031217146475
 30
0.0
 40
5.15
100
AcDbArc
 50
144.3717169649752
 51
215.6282830350248
  0
ARC
  5
4F7A4
330
1F
100
AcDbEntity
  8
AM_0
  6
中線
 48
0.5
370
    30
100
AcDbCircle
 10
6251.054828957581
 20
-7184.031217146475
 30
0.0
 40
5.15
100
AcDbArc
 50
101.1965192489784
 51
144.3717169649752
  0
LINE
  5
4F7A5
330
1F
100
AcDbEntity
  8
AM_0
  6
中線
 48
0.5
370
    30
100
AcDbLine
 10
6253.054828957582
 20
-7206.531217146474
 30
0.0
 11
6253.054828957582
 21
-7194.281217146474
 31
0.0
  0
LINE
  5
4F7A6
330
1F
100
AcDbEntity
  8
AM_0
  6
中線
 48
0.5
370
    30
100
AcDbLine
 10
6277.054828957582
 20
-7161.531217146474
 30
0.0
 11
6277.054828957582
 21
-7173.501955653474
 31
0.0
  0
LINE
  5
4F7A7
330
1F
100
AcDbEntity
  8
AM_0
  6
中線
 48
0.5
370
    30
100
AcDbLine
 10
6253.054828957582
 20
-7173.781217146474
 30
0.0
 11
6253.054828957582
 21
-7161.531217146474
 31
0.0
  0
ARC
  5
4F7A8
330
1F
100
AcDbEntity
  8
AM_0
  6
中線
 48
0.5
370
    30
100
AcDbCircle
 10
6255.554828957581
 20
-7161.531217146474
 30
0.0
 40
2.5
100
AcDbArc
 50
90.0
 51
180.0
  0
LINE
  5
4F7AA
330
1F
100
AcDbEntity
  8
AM_0
  6
中線
 48
0.5
370
    30
100
AcDbLine
 10
6241.054828957582
 20
-7176.531217146474
 30
0.0
 11
6241.054828957582
 21
-7178.781217146473
 31
0.0
  0
LINE
  5
4F7AE
330
1F
100
AcDbEntity
  8
AM_0
  6
中線
 48
0.5
370
    30
100
AcDbLine
 10
6179.564447901189
 20
-7249.244462067365
 30
0.0
 11
6183.675434896581
 21
-7251.617941516601
 31
0.0
  0
LINE
  5
4F7AF
330
1F
100
AcDbEntity
  8
AM_0
  6
中線
 48
0.5
370
    30
100
AcDbLine
 10
6181.064447901052
 20
-7246.6463858566
 30
0.0
 11
6179.564447901052
 21
-7249.244462067601
 31
0.0
  0
LINE
  5
4F7B0
330
1F
100
AcDbEntity
  8
AM_0
  6
中線
 48
0.5
370
    30
100
AcDbLine
 10
6185.804828957582
 20
-7249.3832461356
 30
0.0
 11
6181.064447901052
 21
-7246.6463858566
 31
0.0
  0
LINE
  5
4F7B1
330
1F
100
AcDbEntity
  8
AM_0
  6
中線
 48
0.5
370
    30
100
AcDbLine
 10
6165.554828957581
 20
-7259.646385856601
 30
0.0
 11
6183.054828957581
 21
-7259.646385856601
 31
0.0
  0
LINE
  5
4F7B2
330
1F
100
AcDbEntity
  8
AM_0
  6
中線
 48
0.5
370
    30
100
AcDbLine
 10
6165.554828957581
 20
-7256.646385856601
 30
0.0
 11
6165.554828957581
 21
-7259.646385856601
 31
0.0
  0
LINE
  5
4F7B3
330
1F
100
AcDbEntity
  8
AM_0
  6
中線
 48
0.5
370
    30
100
AcDbLine
 10
6183.054828957581
 20
-7256.646385856601
 30
0.0
 11
6165.554828957581
 21
-7256.646385856601
 31
0.0
  0
ARC
  5
4F7B4
330
1F
100
AcDbEntity
  8
AM_0
  6
中線
 48
0.5
370
    30
100
AcDbCircle
 10
6183.054828957581
 20
-7254.1463858566
 30
0.0
 40
5.5
100
AcDbArc
 50
270.0
 51
335.3830966650145
  0
ARC
  5
4F7B5
330
1F
100
AcDbEntity
  8
AM_0
  6
中線
 48
0.5
370
    30
100
AcDbCircle
 10
6183.054828957581
 20
-7254.1463858566
 30
0.0
 40
5.5
100
AcDbArc
 50
29.45448024399806
 51
59.99999999998954
  0
LINE
  5
4F7B6
330
1F
100
AcDbEntity
  8
AM_2
  6
細線
370
    13
100
AcDbLine
 10
6227.531218636581
 20
-7186.531217146473
 30
0.0
 11
6250.054828957582
 21
-7186.531217146473
 31
0.0
  0
LINE
  5
4F7B7
330
1F
100
AcDbEntity
  8
0部品10
  6
細線
370
    13
100
AcDbLine
 10
6265.531218636581
 20
-7181.531217146474
 30
0.0
 11
6260.054828957581
 21
-7181.531217146474
 31
0.0
  0
LINE
  5
4F7B8
330
1F
100
AcDbEntity
  8
AM_0
  6
中線
 48
0.5
370
    30
100
AcDbLine
 10
6265.031218636582
 20
-7181.031217146474
 30
0.0
 11
6265.031218636582
 21
-7187.031217146475
 31
0.0
  0
LINE
  5
4F7B9
330
1F
100
AcDbEntity
  8
AM_0
  6
中線
 48
0.5
370
    30
100
AcDbLine
 10
6265.031218636582
 20
-7181.031217146474
 30
0.0
 11
6265.531218636581
 21
-7181.531217146474
 31
0.0
  0
LINE
  5
4F7BA
330
1F
100
AcDbEntity
  8
AM_0
  6
中線
 48
0.5
370
    30
100
AcDbLine
 10
6265.531218636581
 20
-7186.531217146473
 30
0.0
 11
6265.031218636582
 21
-7187.031217146475
 31
0.0
  0
LINE
  5
4F7BB
330
1F
100
AcDbEntity
  8
AM_0
  6
中線
 48
0.5
370
    30
100
AcDbLine
 10
6227.531218636581
 20
-7187.031217146475
 30
0.0
 11
6250.054828957582
 21
-7187.031217146475
 31
0.0
  0
LINE
  5
4F7BC
330
1F
100
AcDbEntity
  8
AM_0
  6
中線
 48
0.5
370
    30
100
AcDbLine
 10
6227.531218636581
 20
-7181.031217146474
 30
0.0
 11
6227.531218636581
 21
-7187.031217146475
 31
0.0
  0
LINE
  5
4F7BD
330
1F
100
AcDbEntity
  8
AM_0
  6
中線
 48
0.5
370
    30
100
AcDbLine
 10
6265.031218636582
 20
-7181.031217146474
 30
0.0
 11
6260.054828957581
 21
-7181.031217146474
 31
0.0
  0
LINE
  5
4F7BE
330
1F
100
AcDbEntity
  8
AM_0
  6
中線
 48
0.5
370
    30
100
AcDbLine
 10
6265.531218636581
 20
-7186.531217146473
 30
0.0
 11
6265.531218636581
 21
-7181.531217146474
 31
0.0
  0
ARC
  5
4F7BF
330
1F
100
AcDbEntity
  8
AM_0
  6
中線
 48
0.5
370
    30
100
AcDbCircle
 10
6182.474701938582
 20
-7176.531217146474
 30
0.0
 40
1.0
100
AcDbArc
 50
90.0
 51
180.0
  0
ARC
  5
4F7C0
330
1F
100
AcDbEntity
  8
AM_0
  6
中線
 48
0.5
370
    30
100
AcDbCircle
 10
6182.474701938582
 20
-7191.531217146473
 30
0.0
 40
1.0
100
AcDbArc
 50
180.0
 51
270.0
  0
LINE
  5
4F7C1
330
1F
100
AcDbEntity
  8
AM_0
  6
中線
 48
0.5
370
    30
100
AcDbLine
 10
6183.160337168581
 20
-7256.6441584676
 30
0.0
 11
6203.642072580581
 21
-7255.7789911406
 31
0.0
  0
LINE
  5
4F7C2
330
1F
100
AcDbEntity
  8
AM_0
  6
中線
 48
0.5
370
    30
100
AcDbLine
 10
6203.431056159582
 20
-7250.783445918601
 30
0.0
 11
6182.949320746582
 21
-7251.648613244601
 31
0.0
  0
ARC
  5
4F7C3
330
1F
100
AcDbEntity
  8
AM_0
  6
中線
 48
0.5
370
    30
100
AcDbCircle
 10
6183.054828957581
 20
-7254.1463858566
 30
0.0
 40
2.5
100
AcDbArc
 50
92.41878845398927
 51
272.4187884539893
  0
ARC
  5
4F7C4
330
1F
100
AcDbEntity
  8
AM_0
  6
中線
 48
0.5
370
    30
100
AcDbCircle
 10
6213.654288017583
 20
-7255.857065609601
 30
0.0
 40
1.0
100
AcDbArc
 50
282.8824719229794
 51
2.418788453989304
  0
ARC
  5
4F7C5
330
1F
100
AcDbEntity
  8
AM_0
  6
中線
 48
0.5
370
    30
100
AcDbCircle
 10
6213.401021611582
 20
-7249.8613057656
 30
0.0
 40
1.0
100
AcDbArc
 50
2.418788453989304
 51
81.95510498600501
  0
ARC
  5
4F7C6
330
1F
100
AcDbEntity
  8
AM_0
  6
中線
 48
0.5
370
    30
100
AcDbCircle
 10
6211.301786636582
 20
-7264.7136864676
 30
0.0
 40
16.0
100
AcDbArc
 50
81.95510498600501
 51
119.4668990010169
  0
ARC
  5
4F7C7
330
1F
100
AcDbEntity
  8
AM_0
  6
中線
 48
0.5
370
    30
100
AcDbCircle
 10
6210.310009457582
 20
-7241.2346239216
 30
0.0
 40
16.0
100
AcDbArc
 50
245.3706779080166
 51
282.8824719229794
  0
LINE
  5
4F7C8
330
1F
100
AcDbEntity
  8
AM_0
  6
中線
 48
0.5
370
    30
100
AcDbLine
 10
6214.400130656581
 20
-7249.819102481601
 30
0.0
 11
6214.653397062582
 21
-7255.8148623256
 31
0.0
  0
LINE
  5
4F7CB
330
1F
100
AcDbEntity
  8
AM_0
  6
中線
 48
0.5
370
    30
100
AcDbLine
 10
6203.431056159582
 20
-7250.783445918601
 30
0.0
 11
6203.642072580581
 21
-7255.7789911406
 31
0.0
  0
ARC
  5
4F7CD
330
1F
100
AcDbEntity
  8
AM_0
  6
中線
 48
0.5
370
    30
100
AcDbCircle
 10
6210.750645905582
 20
-7264.736967158601
 30
0.0
 40
16.0
100
AcDbArc
 50
65.37067790801663
 51
78.21799488101679
  0
ARC
  5
4F7CE
330
1F
100
AcDbEntity
  8
AM_0
  6
中線
 48
0.5
370
    30
100
AcDbCircle
 10
6209.758868726582
 20
-7241.257904612599
 30
0.0
 40
16.0
100
AcDbArc
 50
286.6195820270192
 51
299.4668990010168
  0
LINE
  5
4F7D0
330
1F
100
AcDbEntity
  8
AM_0
  6
中線
 48
0.5
370
    30
100
AcDbLine
 10
6237.106517339582
 20
-7248.860517615601
 30
0.0
 11
6227.388571585582
 21
-7249.271012574602
 31
0.0
  0
LINE
  5
4F7D1
330
1F
100
AcDbEntity
  8
AM_2
  6
細線
370
    13
100
AcDbLine
 10
6217.428817461582
 20
-7250.4348929496
 30
0.0
 11
6217.629599203583
 21
-7255.1881451616
 31
0.0
  0
LINE
  5
4F7D2
330
1F
100
AcDbEntity
  8
AM_0
  6
中線
 48
0.5
370
    30
100
AcDbLine
 10
6265.448062081582
 20
-7249.8771545886
 30
0.0
 11
6265.375816918582
 21
-7248.166842296601
 31
0.0
  0
LINE
  5
4F7D3
330
1F
100
AcDbEntity
  8
AM_0
  6
中線
 48
0.5
370
    30
100
AcDbLine
 10
6264.855160753582
 20
-7247.688389416601
 30
0.0
 11
6259.472298622582
 21
-7247.9157664596
 31
0.0
  0
LINE
  5
4F7D4
330
1F
100
AcDbEntity
  8
AM_0
  6
中線
 48
0.5
370
    30
100
AcDbLine
 10
6227.388571585582
 20
-7249.271012574602
 30
0.0
 11
6227.641791290582
 21
-7255.265666841601
 31
0.0
  0
LINE
  5
4F7D5
330
1F
100
AcDbEntity
  8
AM_0
  6
中線
 48
0.5
370
    30
100
AcDbLine
 10
6227.641791290582
 20
-7255.265666841601
 30
0.0
 11
6237.054828957582
 21
-7254.868051480601
 31
0.0
  0
LINE
  5
4F7D7
330
1F
100
AcDbEntity
  8
AM_0
  6
中線
 48
0.5
370
    30
100
AcDbLine
 10
6218.781218636582
 20
-7186.531217146473
 30
0.0
 11
6227.531218636581
 21
-7186.531217146473
 31
0.0
  0
LINE
  5
4F7D8
330
1F
100
AcDbEntity
  8
AM_0
  6
中線
 48
0.5
370
    30
100
AcDbLine
 10
6260.054828957581
 20
-7190.531217146475
 30
0.0
 11
6260.054828957581
 21
-7177.531217146473
 31
0.0
  0
LINE
  5
4F7D9
330
1F
100
AcDbEntity
  8
AM_0
  6
中線
 48
0.5
370
    30
100
AcDbLine
 10
6259.554828957582
 20
-7177.031217146474
 30
0.0
 11
6250.554828957582
 21
-7177.031217146474
 31
0.0
  0
LINE
  5
4F7DA
330
1F
100
AcDbEntity
  8
AM_0
  6
中線
 48
0.5
370
    30
100
AcDbLine
 10
6250.054828957582
 20
-7177.531217146473
 30
0.0
 11
6250.054828957582
 21
-7190.531217146475
 31
0.0
  0
LINE
  5
4F7DB
330
1F
100
AcDbEntity
  8
AM_0
  6
中線
 48
0.5
370
    30
100
AcDbLine
 10
6250.554828957582
 20
-7191.031217146473
 30
0.0
 11
6259.554828957582
 21
-7191.031217146473
 31
0.0
  0
LINE
  5
4F7DC
330
1F
100
AcDbEntity
  8
AM_0
  6
中線
 48
0.5
370
    30
100
AcDbLine
 10
6253.054828957582
 20
-7191.031217146473
 30
0.0
 11
6253.054828957582
 21
-7191.531217146473
 31
0.0
  0
LINE
  5
4F7DD
330
1F
100
AcDbEntity
  8
AM_0
  6
中線
 48
0.5
370
    30
100
AcDbLine
 10
6257.054828957581
 20
-7191.531217146473
 30
0.0
 11
6257.054828957581
 21
-7191.031217146473
 31
0.0
  0
LINE
  5
4F7DE
330
1F
100
AcDbEntity
  8
AM_0
  6
中線
 48
0.5
370
    30
100
AcDbLine
 10
6257.054828957581
 20
-7177.031217146474
 30
0.0
 11
6257.054828957581
 21
-7176.531217146474
 31
0.0
  0
LINE
  5
4F7DF
330
1F
100
AcDbEntity
  8
AM_0
  6
中線
 48
0.5
370
    30
100
AcDbLine
 10
6253.054828957582
 20
-7176.531217146474
 30
0.0
 11
6253.054828957582
 21
-7177.031217146474
 31
0.0
  0
LINE
  5
4F7E1
330
1F
100
AcDbEntity
  8
AM_0
  6
中線
 48
0.5
370
    30
100
AcDbLine
 10
6250.054828957582
 20
-7177.531217146473
 30
0.0
 11
6250.554828957582
 21
-7177.031217146474
 31
0.0
  0
LINE
  5
4F7E2
330
1F
100
AcDbEntity
  8
AM_0
  6
中線
 48
0.5
370
    30
100
AcDbLine
 10
6250.554828957582
 20
-7191.031217146473
 30
0.0
 11
6250.054828957582
 21
-7190.531217146475
 31
0.0
  0
LINE
  5
4F7E3
330
1F
100
AcDbEntity
  8
AM_0
  6
中線
 48
0.5
370
    30
100
AcDbLine
 10
6260.054828957581
 20
-7190.531217146475
 30
0.0
 11
6259.554828957582
 21
-7191.031217146473
 31
0.0
  0
LINE
  5
4F7E4
330
1F
100
AcDbEntity
  8
AM_0
  6
中線
 48
0.5
370
    30
100
AcDbLine
 10
6259.554828957582
 20
-7177.031217146474
 30
0.0
 11
6260.054828957581
 21
-7177.531217146473
 31
0.0
  0
CIRCLE
  5
4F7E5
330
1F
100
AcDbEntity
  8
AM_0
  6
中線
 48
0.5
370
    30
100
AcDbCircle
 10
6254.965382777582
 20
-7251.108817977601
 30
0.0
 40
2.0
  0
LINE
  5
4F7E6
330
1F
100
AcDbEntity
  8
AM_2
  6
細線
370
    13
100
AcDbLine
 10
6237.042885991582
 20
-7249.3636513376
 30
0.0
 11
6227.409673227582
 21
-7249.7705670976
 31
0.0
  0
CIRCLE
  5
4F7E7
330
1F
100
AcDbEntity
  8
AM_0
  6
中線
 48
0.5
370
    30
100
AcDbCircle
 10
6209.531218636581
 20
-7253.027998824601
 30
0.0
 40
4.0
  0
LINE
  5
4F7E8
330
1F
100
AcDbEntity
  8
AM_0
  6
中線
 48
0.5
370
    30
100
AcDbLine
 10
6250.054828957582
 20
-7177.531217146473
 30
0.0
 11
6260.054828957581
 21
-7177.531217146473
 31
0.0
  0
LINE
  5
4F7E9
330
1F
100
AcDbEntity
  8
AM_0
  6
中線
 48
0.5
370
    30
100
AcDbLine
 10
6250.054828957582
 20
-7190.531217146475
 30
0.0
 11
6260.054828957581
 21
-7190.531217146475
 31
0.0
  0
LINE
  5
4F7EA
330
1F
100
AcDbEntity
  8
AM_0
  6
中線
 48
0.5
370
    30
100
AcDbLine
 10
6188.054828957582
 20
-7175.531217146474
 30
0.0
 11
6180.974701938582
 21
-7175.531217146474
 31
0.0
  0
LINE
  5
4F7F3
330
1F
100
AcDbEntity
  8
AM_0
  6
中線
 48
0.5
370
    30
100
AcDbLine
 10
6261.608532480582
 20
-7254.4432687606
 30
0.0
 11
6277.129447543025
 21
-7256.348997500447
 31
0.0
  0
LINE
  5
4F7F4
330
1F
100
AcDbEntity
  8
AM_0
  6
中線
 48
0.5
370
    30
100
AcDbLine
 10
6277.609338395164
 20
-7251.370371560945
 30
0.0
 11
6262.217879197581
 21
-7249.4805380016
 31
0.0
  0
ARC
  5
4F7F7
330
1F
100
AcDbEntity
  8
AM_2
  6
細線
370
    13
100
AcDbCircle
 10
6260.052181804582
 20
-7251.7333983626
 30
0.0
 40
3.125
100
AcDbArc
 50
306.5113416289977
 51
38.96991015400775
  0
ARC
  5
4F7F8
330
1F
100
AcDbEntity
  8
AM_0
  6
中線
 48
0.5
370
    30
100
AcDbCircle
 10
6257.418577470582
 20
-7245.363385665601
 30
0.0
 40
10.0
100
AcDbArc
 50
263.295338249004
 51
294.7711855030068
  0
ARC
  5
4F7F9
330
1F
100
AcDbEntity
  8
AM_0
  6
中線
 48
0.5
370
    30
100
AcDbCircle
 10
6255.955761227582
 20
-7257.277067905601
 30
0.0
 40
10.0
100
AcDbArc
 50
51.22881449700415
 51
82.70466175097423
  0
LINE
  5
4F7FA
330
1F
100
AcDbEntity
  8
AM_2
  6
細線
370
    13
100
AcDbLine
 10
6262.093256828581
 20
-7250.4955057426
 30
0.0
 11
6261.710296315582
 21
-7253.614468833601
 31
0.0
  0
LINE
  5
4F7FB
330
1F
100
AcDbEntity
  8
AM_0
  6
中線
 48
0.5
370
    30
100
AcDbLine
 10
6256.251043861581
 20
-7255.2951448096
 30
0.0
 11
6249.054828957582
 21
-7254.409374884601
 31
0.0
  0
LINE
  5
4F7FC
330
1F
100
AcDbEntity
  8
AM_0
  6
中線
 48
0.5
370
    30
100
AcDbLine
 10
6247.984432418582
 20
-7246.2260043406
 30
0.0
 11
6257.225618355582
 21
-7247.3578725096
 31
0.0
  0
ARC
  5
4F7FE
330
1F
100
AcDbEntity
  8
AM_2
  6
細線
370
    13
100
AcDbCircle
 10
6277.054828957582
 20
-7175.820389417474
 30
0.0
 40
3.0
100
AcDbArc
 50
319.3100993770129
 51
35.35496467699278
  0
LINE
  5
4F7FF
330
1F
100
AcDbEntity
  8
AM_0
  6
中線
 48
0.5
370
    30
100
AcDbLine
 10
6289.578283794582
 20
-7194.017507500473
 30
0.0
 11
6263.304828957582
 21
-7195.281217146474
 31
0.0
  0
LINE
  5
4F800
330
1F
100
AcDbEntity
  8
AM_0
  6
中線
 48
0.5
370
    30
100
AcDbLine
 10
6289.317989619582
 20
-7189.024286990473
 30
0.0
 11
6263.304828957582
 21
-7190.281217146474
 31
0.0
  0
LINE
  5
4F801
330
1F
100
AcDbEntity
  8
AM_0
  6
中線
 48
0.5
370
    30
100
AcDbLine
 10
6289.317989619582
 20
-7179.038147302474
 30
0.0
 11
6263.304828957582
 21
-7177.781217146474
 31
0.0
  0
LINE
  5
4F802
330
1F
100
AcDbEntity
  8
AM_0
  6
中線
 48
0.5
370
    30
100
AcDbLine
 10
6289.578283794582
 20
-7174.044926792475
 30
0.0
 11
6263.304828957582
 21
-7172.781217146473
 31
0.0
  0
ARC
  5
4F803
330
1F
100
AcDbEntity
  8
AM_2
  6
細線
370
    13
100
AcDbCircle
 10
6277.054828957582
 20
-7192.242044875474
 30
0.0
 40
3.0
100
AcDbArc
 50
324.6450353230072
 51
40.68990062298712
  0
ARC
  5
4F804
330
1F
100
AcDbEntity
  8
AM_0
  6
中線
 48
0.5
370
    30
100
AcDbCircle
 10
6289.054828957581
 20
-7184.031217146475
 30
0.0
 40
10.0
100
AcDbArc
 50
273.0005466310144
 51
86.99945336898561
  0
ARC
  5
4F805
330
1F
100
AcDbEntity
  8
AM_0
  6
中線
 48
0.5
370
    30
100
AcDbCircle
 10
6289.054828957581
 20
-7184.031217146475
 30
0.0
 40
5.0
100
AcDbArc
 50
273.0169930649833
 51
86.9830069350167
  0
LINE
  5
4F807
330
1F
100
AcDbEntity
  8
AM_0
  6
中線
 48
0.5
370
    30
100
AcDbLine
 10
6277.054828957582
 20
-7194.560478638473
 30
0.0
 11
6277.054828957582
 21
-7206.531217146474
 31
0.0
  0
LINE
  5
4F808
330
1F
100
AcDbEntity
  8
AM_2
  6
細線
370
    13
100
AcDbLine
 10
6262.054828957582
 20
-7176.204831041474
 30
0.0
 11
6262.054828957582
 21
-7174.398652846474
 31
0.0
  0
LINE
  5
4F809
330
1F
100
AcDbEntity
  8
AM_0
  6
中線
 48
0.5
370
    30
100
AcDbLine
 10
6262.054828957582
 20
-7174.031217146474
 30
0.0
 11
6263.304828957582
 21
-7172.781217146473
 31
0.0
  0
LINE
  5
4F80A
330
1F
100
AcDbEntity
  8
AM_0
  6
中線
 48
0.5
370
    30
100
AcDbLine
 10
6238.054828957582
 20
-7174.031217146474
 30
0.0
 11
6262.054828957582
 21
-7174.031217146474
 31
0.0
  0
LINE
  5
4F80B
330
1F
100
AcDbEntity
  8
AM_0
  6
中線
 48
0.5
370
    30
100
AcDbLine
 10
6238.054828957582
 20
-7176.531217146474
 30
0.0
 11
6238.054828957582
 21
-7174.031217146474
 31
0.0
  0
LINE
  5
4F80C
330
1F
100
AcDbEntity
  8
AM_2
  6
細線
370
    13
100
AcDbLine
 10
6262.054828957582
 20
-7191.857603250475
 30
0.0
 11
6262.054828957582
 21
-7193.663781445474
 31
0.0
  0
LINE
  5
4F80D
330
1F
100
AcDbEntity
  8
AM_0
  6
中線
 48
0.5
370
    30
100
AcDbLine
 10
6262.054828957582
 20
-7176.531217146474
 30
0.0
 11
6238.054828957582
 21
-7176.531217146474
 31
0.0
  0
LINE
  5
4F80E
330
1F
100
AcDbEntity
  8
AM_0
  6
中線
 48
0.5
370
    30
100
AcDbLine
 10
6262.054828957582
 20
-7194.031217146473
 30
0.0
 11
6263.304828957582
 21
-7195.281217146474
 31
0.0
  0
LINE
  5
4F80F
330
1F
100
AcDbEntity
  8
AM_0
  6
中線
 48
0.5
370
    30
100
AcDbLine
 10
6238.054828957582
 20
-7194.031217146473
 30
0.0
 11
6262.054828957582
 21
-7194.031217146473
 31
0.0
  0
LINE
  5
4F810
330
1F
100
AcDbEntity
  8
AM_0
  6
中線
 48
0.5
370
    30
100
AcDbLine
 10
6238.054828957582
 20
-7191.531217146473
 30
0.0
 11
6238.054828957582
 21
-7194.031217146473
 31
0.0
  0
LINE
  5
4F811
330
1F
100
AcDbEntity
  8
AM_0
  6
中線
 48
0.5
370
    30
100
AcDbLine
 10
6262.054828957582
 20
-7191.531217146473
 30
0.0
 11
6238.054828957582
 21
-7191.531217146473
 31
0.0
  0
LINE
  5
4F812
330
1F
100
AcDbEntity
  8
AM_0
  6
中線
 48
0.5
370
    30
100
AcDbLine
 10
6263.304828957582
 20
-7190.281217146474
 30
0.0
 11
6262.054828957582
 21
-7191.531217146473
 31
0.0
  0
LINE
  5
4F813
330
1F
100
AcDbEntity
  8
AM_0
  6
中線
 48
0.5
370
    30
100
AcDbLine
 10
6227.620689648581
 20
-7254.7661123196
 30
0.0
 11
6217.629599203583
 21
-7255.1881451616
 31
0.0
  0
LINE
  5
4F814
330
1F
100
AcDbEntity
  8
AM_2
  6
細線
370
    13
100
AcDbLine
 10
6227.620689648581
 20
-7254.7661123196
 30
0.0
 11
6237.054828957582
 21
-7254.3676056056
 31
0.0
  0
LINE
  5
4F815
330
1F
100
AcDbEntity
  8
AM_0
  6
中線
 48
0.5
370
    30
100
AcDbLine
 10
6217.418582782582
 20
-7250.192599939601
 30
0.0
 11
6227.409673227582
 21
-7249.7705670976
 31
0.0
  0
LINE
  5
4F816
330
1F
100
AcDbEntity
  8
AM_0
  6
中線
 48
0.5
370
    30
100
AcDbLine
 10
6264.855160753582
 20
-7247.688389416601
 30
0.0
 11
6265.375816918582
 21
-7248.166842296601
 31
0.0
  0
LINE
  5
4F817
330
1F
100
AcDbEntity
  8
AM_0
  6
中線
 48
0.5
370
    30
100
AcDbLine
 10
6264.855160753582
 20
-7247.688389416601
 30
0.0
 11
6264.945007095582
 21
-7249.8153872036
 31
0.0
  0
LINE
  5
4F818
330
1F
100
AcDbEntity
  8
AM_2
  6
細線
370
    13
100
AcDbLine
 10
6265.375816918582
 20
-7248.166842296601
 30
0.0
 11
6260.506492173583
 21
-7248.372527048601
 31
0.0
  0
LINE
  5
4F819
330
1F
100
AcDbEntity
  8
AM_0
  6
中線
 48
0.5
370
    30
100
AcDbLine
 10
6188.054828957582
 20
-7192.531217146473
 30
0.0
 11
6188.054828957582
 21
-7175.531217146474
 31
0.0
  0
LINE
  5
4F81A
330
1F
100
AcDbEntity
  8
AM_0
  6
中線
 48
0.5
370
    30
100
AcDbLine
 10
6180.974701938582
 20
-7192.531217146473
 30
0.0
 11
6188.054828957582
 21
-7192.531217146473
 31
0.0
  0
ARC
  5
4F81B
330
1F
100
AcDbEntity
  8
AM_2
  6
細線
370
    13
100
AcDbCircle
 10
6215.650761534582
 20
-7252.7695037086
 30
0.0
 40
3.125
100
AcDbArc
 50
318.2062378279715
 51
42.93264901500113
  0
LINE
  5
4F81D
330
1F
100
AcDbEntity
  8
AM_0
  6
中線
 48
0.5
370
    30
100
AcDbLine
 10
6165.554828957581
 20
-7175.031217146474
 30
0.0
 11
6165.554828957581
 21
-7193.031217146473
 31
0.0
  0
LINE
  5
4F822
330
1F
100
AcDbEntity
  8
0部品10
  6
細線
370
    13
100
AcDbLine
 10
6260.054828957581
 20
-7186.531217146473
 30
0.0
 11
6265.531218636581
 21
-7186.531217146473
 31
0.0
  0
CIRCLE
  5
4F824
330
1F
100
AcDbEntity
  8
AM_0
  6
中線
 48
0.5
370
    30
100
AcDbCircle
 10
6172.054828957581
 20
-7175.531217146474
 30
0.0
 40
5.15
  0
CIRCLE
  5
4F825
330
1F
100
AcDbEntity
  8
AM_0
  6
中線
 48
0.5
370
    30
100
AcDbCircle
 10
6172.054828957581
 20
-7192.531217146473
 30
0.0
 40
5.15
  0
CIRCLE
  5
4F826
330
1F
100
AcDbEntity
  8
AM_0
  6
中線
 48
0.5
370
    30
100
AcDbCircle
 10
6172.054828957581
 20
-7192.531217146473
 30
0.0
 40
2.649999999999999
  0
CIRCLE
  5
4F827
330
1F
100
AcDbEntity
  8
AM_0
  6
中線
 48
0.5
370
    30
100
AcDbCircle
 10
6172.054828957581
 20
-7175.531217146474
 30
0.0
 40
2.649999999999999
  0
LINE
  5
4F828
330
1F
100
AcDbEntity
  8
AM_0
  6
中線
 48
0.5
370
    30
100
AcDbLine
 10
6203.554828957582
 20
-7179.960149334474
 30
0.0
 11
6190.797469644582
 21
-7167.202790021474
 31
0.0
  0
LINE
  5
4F829
330
1F
100
AcDbEntity
  8
AM_0
  6
中線
 48
0.5
370
    30
100
AcDbLine
 10
6180.554828957582
 20
-7171.445430708475
 30
0.0
 11
6180.554828957582
 21
-7175.623634268474
 31
0.0
  0
LINE
  5
4F82A
330
1F
100
AcDbEntity
  8
AM_0
  6
中線
 48
0.5
370
    30
100
AcDbLine
 10
6190.797469644582
 20
-7200.859644270474
 30
0.0
 11
6203.554828957582
 21
-7188.102284958474
 31
0.0
  0
LINE
  5
4F82B
330
1F
100
AcDbEntity
  8
AM_0
  6
中線
 48
0.5
370
    30
100
AcDbLine
 10
6203.554828957582
 20
-7188.102284958474
 30
0.0
 11
6203.554828957582
 21
-7187.281217146474
 31
0.0
  0
LINE
  5
4F82C
330
1F
100
AcDbEntity
  8
AM_0
  6
中線
 48
0.5
370
    30
100
AcDbLine
 10
6203.554828957582
 20
-7180.781217146474
 30
0.0
 11
6203.554828957582
 21
-7179.960149334474
 31
0.0
  0
LINE
  5
4F82D
330
1F
100
AcDbEntity
  8
AM_0
  6
中線
 48
0.5
370
    30
100
AcDbLine
 10
6197.840362863582
 20
-7181.316751052474
 30
0.0
 11
6187.261935738582
 21
-7170.738323927475
 31
0.0
  0
LINE
  5
4F82E
330
1F
100
AcDbEntity
  8
AM_0
  6
中線
 48
0.5
370
    30
100
AcDbLine
 10
6185.554828957582
 20
-7171.445430708475
 30
0.0
 11
6185.554828957582
 21
-7175.531217146474
 31
0.0
  0
LINE
  5
4F82F
330
1F
100
AcDbEntity
  8
AM_0
  6
中線
 48
0.5
370
    30
100
AcDbLine
 10
6187.261935738582
 20
-7197.324110365475
 30
0.0
 11
6197.840362863582
 21
-7186.745683240474
 31
0.0
  0
ARC
  5
4F830
330
1F
100
AcDbEntity
  8
AM_0
  6
中線
 48
0.5
370
    30
100
AcDbCircle
 10
6186.554828957582
 20
-7196.617003583473
 30
0.0
 40
1.0
100
AcDbArc
 50
180.0
 51
314.9999999999999
  0
ARC
  5
4F831
330
1F
100
AcDbEntity
  8
AM_0
  6
中線
 48
0.5
370
    30
100
AcDbCircle
 10
6186.554828957582
 20
-7171.445430708475
 30
0.0
 40
1.0
100
AcDbArc
 50
45.00000000000015
 51
180.0
  0
ARC
  5
4F832
330
1F
100
AcDbEntity
  8
AM_0
  6
中線
 48
0.5
370
    30
100
AcDbCircle
 10
6186.554828957582
 20
-7171.445430708475
 30
0.0
 40
6.0
100
AcDbArc
 50
45.00000000000015
 51
180.0
  0
ARC
  5
4F833
330
1F
100
AcDbEntity
  8
AM_0
  6
中線
 48
0.5
370
    30
100
AcDbCircle
 10
6186.554828957582
 20
-7196.617003583473
 30
0.0
 40
6.0
100
AcDbArc
 50
180.0
 51
314.9999999999999
  0
ARC
  5
4F834
330
1F
100
AcDbEntity
  8
AM_0
  6
中線
 48
0.5
370
    30
100
AcDbCircle
 10
6201.375896769582
 20
-7177.781217146474
 30
0.0
 40
5.0
100
AcDbArc
 50
225.0000000000001
 51
270.0
  0
ARC
  5
4F835
330
1F
100
AcDbEntity
  8
AM_0
  6
中線
 48
0.5
370
    30
100
AcDbCircle
 10
6201.375896769582
 20
-7190.281217146474
 30
0.0
 40
5.0
100
AcDbArc
 50
90.0
 51
134.9999999999998
  0
LINE
  5
4F836
330
1F
100
AcDbEntity
  8
AM_0
  6
中線
 48
0.5
370
    30
100
AcDbLine
 10
6185.554828957582
 20
-7192.531217146473
 30
0.0
 11
6185.554828957582
 21
-7196.617003583473
 31
0.0
  0
LINE
  5
4F837
330
1F
100
AcDbEntity
  8
AM_0
  6
中線
 48
0.5
370
    30
100
AcDbLine
 10
6237.054828957582
 20
-7187.031217146475
 30
0.0
 11
6237.054828957582
 21
-7197.281217146474
 31
0.0
  0
LINE
  5
4F838
330
1F
100
AcDbEntity
  8
AM_2
  6
細線
370
    13
100
AcDbLine
 10
6250.054828957582
 20
-7181.531217146474
 30
0.0
 11
6227.531218636581
 21
-7181.531217146474
 31
0.0
  0
LINE
  5
4F839
330
1F
100
AcDbEntity
  8
AM_0
  6
中線
 48
0.5
370
    30
100
AcDbLine
 10
6250.054828957582
 20
-7181.031217146474
 30
0.0
 11
6227.531218636581
 21
-7181.031217146474
 31
0.0
  0
LINE
  5
4F83A
330
1F
100
AcDbEntity
  8
AM_0
  6
中線
 48
0.5
370
    30
100
AcDbLine
 10
6180.554828957582
 20
-7192.531217146473
 30
0.0
 11
6180.554828957582
 21
-7196.617003583473
 31
0.0
  0
LINE
  5
4F83C
330
1F
100
AcDbEntity
  8
AM_0
  6
中線
 48
0.5
370
    30
100
AcDbLine
 10
6260.054828957581
 20
-7187.031217146475
 30
0.0
 11
6265.031218636582
 21
-7187.031217146475
 31
0.0
  0
LINE
  5
4F83D
330
1F
100
AcDbEntity
  8
AM_0
  6
中線
 48
0.5
370
    30
100
AcDbLine
 10
6214.554828957582
 20
-7180.781217146474
 30
0.0
 11
6203.554828957582
 21
-7180.781217146474
 31
0.0
  0
LINE
  5
4F83E
330
1F
100
AcDbEntity
  8
AM_0
  6
中線
 48
0.5
370
    30
100
AcDbLine
 10
6214.554828957582
 20
-7180.781217146474
 30
0.0
 11
6214.554828957582
 21
-7182.781217146474
 31
0.0
  0
LINE
  5
4F83F
330
1F
100
AcDbEntity
  8
AM_0
  6
中線
 48
0.5
370
    30
100
AcDbLine
 10
6214.554828957582
 20
-7182.781217146474
 30
0.0
 11
6201.375896769582
 21
-7182.781217146474
 31
0.0
  0
LINE
  5
4F840
330
1F
100
AcDbEntity
  8
AM_0
  6
中線
 48
0.5
370
    30
100
AcDbLine
 10
6201.375896769582
 20
-7185.281217146473
 30
0.0
 11
6214.554828957582
 21
-7185.281217146473
 31
0.0
  0
LINE
  5
4F841
330
1F
100
AcDbEntity
  8
AM_0
  6
中線
 48
0.5
370
    30
100
AcDbLine
 10
6214.554828957582
 20
-7185.281217146473
 30
0.0
 11
6214.554828957582
 21
-7187.281217146474
 31
0.0
  0
LINE
  5
4F842
330
1F
100
AcDbEntity
  8
AM_0
  6
中線
 48
0.5
370
    30
100
AcDbLine
 10
6214.554828957582
 20
-7187.281217146474
 30
0.0
 11
6203.554828957582
 21
-7187.281217146474
 31
0.0
  0
ARC
  5
4F843
330
1F
100
AcDbEntity
  8
AM_0
  6
中線
 48
0.5
370
    30
100
AcDbCircle
 10
6209.531218636581
 20
-7186.768387674475
 30
0.0
 40
4.0
100
AcDbArc
 50
187.3487925939924
 51
352.7365255800126
  0
LINE
  5
4F847
330
1F
100
AcDbEntity
  8
AM_0
  6
中線
 48
0.5
370
    30
100
AcDbLine
 10
6241.054828957582
 20
-7191.531217146473
 30
0.0
 11
6241.054828957582
 21
-7189.281217146474
 31
0.0
  0
LINE
  5
4F848
330
1F
100
AcDbEntity
  8
AM_0
  6
中線
 48
0.5
370
    30
100
AcDbLine
 10
6241.054828957582
 20
-7189.281217146474
 30
0.0
 11
6245.054828957582
 21
-7189.281217146474
 31
0.0
  0
LINE
  5
4F849
330
1F
100
AcDbEntity
  8
AM_0
  6
中線
 48
0.5
370
    30
100
AcDbLine
 10
6245.054828957582
 20
-7189.281217146474
 30
0.0
 11
6245.054828957582
 21
-7191.531217146473
 31
0.0
  0
ARC
  5
4F84A
330
1F
100
AcDbEntity
  8
AM_0
  6
中線
 48
0.5
370
    30
100
AcDbCircle
 10
6243.031218636581
 20
-7196.768387674474
 30
0.0
 40
4.0
100
AcDbArc
 50
187.3487925939924
 51
352.7365255800126
  0
LINE
  5
4F84B
330
1F
100
AcDbEntity
  8
AM_0
  6
中線
 48
0.5
370
    30
100
AcDbLine
 10
6241.054828957582
 20
-7178.781217146473
 30
0.0
 11
6245.054828957582
 21
-7178.781217146473
 31
0.0
  0
LINE
  5
4F84C
330
1F
100
AcDbEntity
  8
AM_0
  6
中線
 48
0.5
370
    30
100
AcDbLine
 10
6245.054828957582
 20
-7178.781217146473
 30
0.0
 11
6245.054828957582
 21
-7176.531217146474
 31
0.0
  0
ARC
  5
4F84D
330
1F
100
AcDbEntity
  8
AM_0
  6
中線
 48
0.5
370
    30
100
AcDbCircle
 10
6243.031218636581
 20
-7171.294046617474
 30
0.0
 40
4.0
100
AcDbArc
 50
7.263474419987423
 51
172.6512074060075
  0
ARC
  5
4F84E
330
1F
100
AcDbEntity
  8
AM_0
  6
中線
 48
0.5
370
    30
100
AcDbCircle
 10
6255.554828957581
 20
-7206.531217146474
 30
0.0
 40
2.5
100
AcDbArc
 50
180.0
 51
270.0
  0
ARC
  5
4F84F
330
1F
100
AcDbEntity
  8
AM_0
  6
中線
 48
0.5
370
    30
100
AcDbCircle
 10
6274.554828957582
 20
-7206.531217146474
 30
0.0
 40
2.5
100
AcDbArc
 50
270.0
 51
0.0
  0
CIRCLE
  5
4F851
330
1F
100
AcDbEntity
  8
AM_0
  6
中線
 48
0.5
370
    30
100
AcDbCircle
 10
6263.054828957582
 20
-7199.031217146473
 30
0.0
 40
2.649999999999999
  0
LINE
  5
4F853
330
1F
100
AcDbEntity
  8
AM_7
  6
中心線1
 48
0.5
370
    13
100
AcDbLine
 10
6260.904828957582
 20
-7169.031217146474
 30
0.0
 11
6275.204828957583
 21
-7169.031217146474
 31
0.0
  0
ARC
  5
4F855
330
1F
100
AcDbEntity
  8
AM_0
  6
中線
 48
0.5
370
    30
100
AcDbCircle
 10
6251.054828957581
 20
-7184.031217146475
 30
0.0
 40
5.15
100
AcDbArc
 50
215.6282830350248
 51
258.8034807510215
  0
ARC
  5
4F856
330
1F
100
AcDbEntity
  8
AM_3
  6
陰線1
 48
0.5
370
    13
100
AcDbCircle
 10
6251.054828957581
 20
-7184.031217146475
 30
0.0
 40
5.15
100
AcDbArc
 50
258.8034807510215
 51
101.1965192489784
  0
ARC
  5
4F857
330
1F
100
AcDbEntity
  8
AM_0
  6
中線
 48
0.5
370
    30
100
AcDbCircle
 10
6263.054828957582
 20
-7199.031217146473
 30
0.0
 40
5.15
100
AcDbArc
 50
101.3099324740208
 51
49.43746136598099
  0
LINE
  5
4F85A
330
1F
100
AcDbEntity
  8
AM_7
  6
中心線1
 48
0.5
370
    13
100
AcDbLine
 10
6302.054828957582
 20
-7184.031217146475
 30
0.0
 11
6163.054828957582
 21
-7184.031217146475
 31
0.0
  0
LINE
  5
4F85B
330
1F
100
AcDbEntity
  8
AM_7
  6
中心線1
 48
0.5
370
    13
100
AcDbLine
 10
6172.054828957581
 20
-7168.381217146474
 30
0.0
 11
6172.054828957581
 21
-7199.681217146474
 31
0.0
  0
LINE
  5
4F85C
330
1F
100
AcDbEntity
  8
AM_7
  6
中心線1
 48
0.5
370
    13
100
AcDbLine
 10
6164.904828957582
 20
-7192.531217146473
 30
0.0
 11
6179.204828957582
 21
-7192.531217146473
 31
0.0
  0
LINE
  5
4F85D
330
1F
100
AcDbEntity
  8
AM_7
  6
中心線1
 48
0.5
370
    13
100
AcDbLine
 10
6164.904828957582
 20
-7175.531217146474
 30
0.0
 11
6179.204828957582
 21
-7175.531217146474
 31
0.0
  0
LINE
  5
4F882
330
1F
100
AcDbEntity
  8
AM_7
  6
中心線1
 48
0.5
370
    13
100
AcDbLine
 10
6263.054828957582
 20
-7191.881217146475
 30
0.0
 11
6263.054828957582
 21
-7206.181217146474
 31
0.0
  0
LINE
  5
4F883
330
1F
100
AcDbEntity
  8
AM_7
  6
中心線1
 48
0.5
370
    13
100
AcDbLine
 10
6255.904828957582
 20
-7199.031217146473
 30
0.0
 11
6270.204828957583
 21
-7199.031217146473
 31
0.0
  0
LINE
  5
4F884
330
1F
100
AcDbEntity
  8
AM_7
  6
中心線1
 48
0.5
370
    13
100
AcDbLine
 10
6251.054828957581
 20
-7176.881217146474
 30
0.0
 11
6251.054828957581
 21
-7191.181217146473
 31
0.0
  0
LINE
  5
4F88C
330
1F
100
AcDbEntity
  8
AM_7
  6
中心線1
 48
0.5
370
    13
100
AcDbLine
 10
6251.054828957581
 20
-7253.646385856601
 30
0.0
 11
6251.054828957581
 21
-7262.6463858566
 31
0.0
  0
LINE
  5
4F88D
330
1F
100
AcDbEntity
  8
AM_7
  6
中心線1
 48
0.5
370
    13
100
AcDbLine
 10
6263.054828957582
 20
-7253.646385856601
 30
0.0
 11
6263.054828957582
 21
-7262.6463858566
 31
0.0
  0
LINE
  5
4F88E
330
1F
100
AcDbEntity
  8
AM_7
  6
中心線1
 48
0.5
370
    13
100
AcDbLine
 10
6268.054828957581
 20
-7253.646385856601
 30
0.0
 11
6268.054828957581
 21
-7262.6463858566
 31
0.0
  0
LINE
  5
4F88F
330
1F
100
AcDbEntity
  8
AM_7
  6
中心線1
 48
0.5
370
    13
100
AcDbLine
 10
6172.054828957581
 20
-7253.646385856601
 30
0.0
 11
6172.054828957581
 21
-7262.6463858566
 31
0.0
  0
DIMENSION
  5
4FC44
330
1F
100
AcDbEntity
  8
AM_5
100
AcDbDimension
  2
*D7
 10
6299.054828957582
 20
-7151.031217146474
 30
0.0
 11
6269.137248570082
 21
-7151.031217146474
 31
0.0
 70
   160
  1
（<>）
 71
     5
 42
62.0
  3
SYS$0
100
AcDbAlignedDimension
 13
6237.054828957582
 23
-7170.781217146473
 33
0.0
 14
6299.054828957582
 24
-7184.031217146475
 34
0.0
100
AcDbRotatedDimension
1001
ACAD
1000
DSTYLE
1002
{
1070
   271
1070
     0
1002
}
  0
DIMENSION
  5
4FC45
330
1F
100
AcDbEntity
  8
AM_5
100
AcDbDimension
  2
*D8
 10
6315.05482895758
 20
-7209.031217146474
 30
0.0
 11
6315.054828957581
 21
-7184.031217146475
 31
0.0
 70
   160
 71
     5
 42
50.0
  3
SYS$0
100
AcDbAlignedDimension
 13
6274.554828957582
 23
-7159.031217146474
 33
0.0
 14
6274.554828957582
 24
-7209.031217146474
 34
0.0
 50
90.0
100
AcDbRotatedDimension
  0
DIMENSION
  5
4FC82
330
1F
100
AcDbEntity
  8
AM_5
100
AcDbDimension
  2
*D10
 10
6142.054828957579
 20
-7202.617003583474
 30
0.0
 11
6142.054828957582
 21
-7184.031217145971
 31
0.0
 70
   160
  1
（<>）
 71
     5
 42
37.17157287499958
  3
SYS$0
100
AcDbAlignedDimension
 13
6186.554828957582
 23
-7165.445430708475
 33
0.0
 14
6186.554828957582
 24
-7202.617003583474
 34
0.0
 50
90.0
100
AcDbRotatedDimension
1001
ACAD
1000
DSTYLE
1002
{
1070
   271
1070
     0
1002
}
  0
DIMENSION
  5
4FC83
330
1F
100
AcDbEntity
  8
AM_5
100
AcDbDimension
  2
*D11
 10
6188.054828957582
 20
-7157.445430708475
 30
0.0
 11
6176.044161394704
 21
-7157.445430708475
 31
0.0
 70
   160
  1
（<>）
 71
     5
 42
22.5
  3
SYS$0
100
AcDbAlignedDimension
 13
6165.554828957581
 23
-7175.031217146474
 33
0.0
 14
6188.054828957582
 24
-7175.531217146474
 34
0.0
100
AcDbRotatedDimension
  0
DIMENSION
  5
4FC84
330
1F
100
AcDbEntity
  8
AM_5
100
AcDbDimension
  2
*D12
 10
6150.05482895758
 20
-7199.031217146473
 30
0.0
 11
6150.054828957582
 21
-7184.031217146475
 31
0.0
 70
   160
 71
     5
 42
30.0
  3
SYS$0
100
AcDbAlignedDimension
 13
6172.054828957581
 23
-7169.031217146474
 33
0.0
 14
6172.054828957581
 24
-7199.031217146473
 34
0.0
 50
90.0
100
AcDbRotatedDimension
  0
DIMENSION
  5
4FC85
330
1F
100
AcDbEntity
  8
AM_5
100
AcDbDimension
  2
*D9
 10
6158.05482895758
 20
-7192.531217146473
 30
0.0
 11
6158.054828957581
 21
-7184.031217146472
 31
0.0
 70
   160
 71
     5
 42
17.0
  3
SYS$0
100
AcDbAlignedDimension
 13
6164.904828957582
 23
-7175.531217146474
 33
0.0
 14
6164.904828957582
 24
-7192.531217146473
 34
0.0
 50
90.0
100
AcDbRotatedDimension
  0
DIMENSION
  5
4FD0F
330
1F
100
AcDbEntity
  8
AM_5
100
AcDbDimension
  2
*D13
 10
6268.054828957581
 20
-7225.031217146474
 30
0.0
 11
6265.554828957582
 21
-7225.031217146474
 31
0.0
 70
   160
 71
     5
 42
5.0
  3
SYS$0
100
AcDbAlignedDimension
 13
6263.054828957582
 23
-7206.181217146474
 33
0.0
 14
6268.054828957581
 24
-7176.181217146474
 34
0.0
100
AcDbRotatedDimension
  0
DIMENSION
  5
4FD27
330
1F
100
AcDbEntity
  8
AM_5
100
AcDbDimension
  2
*D14
 10
6251.054828957581
 20
-7225.031217146474
 30
0.0
 11
6257.054828957581
 21
-7225.031217146474
 31
0.0
 70
   160
 71
     5
 42
12.0
  3
SYS$0
100
AcDbAlignedDimension
 13
6263.054828957582
 23
-7206.181217146474
 33
0.0
 14
6251.054828957581
 24
-7191.181217146473
 34
0.0
100
AcDbRotatedDimension
  0
DIMENSION
  5
4FD3D
330
1F
100
AcDbEntity
  8
AM_5
100
AcDbDimension
  2
*D15
 10
6237.054828957582
 20
-7217.031217146474
 30
0.0
 11
6244.054828957582
 21
-7217.031217146474
 31
0.0
 70
   160
 71
     5
 42
14.0
  3
SYS$0
100
AcDbAlignedDimension
 13
6251.054828957581
 23
-7191.181217146473
 33
0.0
 14
6237.054828957582
 24
-7197.281217146475
 34
0.0
100
AcDbRotatedDimension
  0
DIMENSION
  5
4FD83
330
1F
100
AcDbEntity
  8
AM_5
100
AcDbDimension
  2
*D16
 10
6172.054828957581
 20
-7225.031217146474
 30
0.0
 11
6211.554828957582
 21
-7222.431217146473
 31
0.0
 70
    32
  1
調整範囲57～80
 71
     5
 42
79.0
  3
SYS$0
100
AcDbAlignedDimension
 13
6251.054828957581
 23
-7191.181217146473
 33
0.0
 14
6172.054828957581
 24
-7199.681217146474
 34
0.0
100
AcDbRotatedDimension
  0
DIMENSION
  5
4FD84
330
1F
100
AcDbEntity
  8
AM_5
100
AcDbDimension
  2
*D17
 10
6188.054828957582
 20
-7217.031217146474
 30
0.0
 11
6180.304828957582
 21
-7217.031217146474
 31
0.0
 70
   160
  1
（16）
 71
     5
 42
16.0
  3
SYS$0
100
AcDbAlignedDimension
 13
6172.054828957581
 23
-7199.723108119673
 33
0.0
 14
6188.054828957582
 24
-7192.531217146473
 34
0.0
100
AcDbRotatedDimension
  0
DIMENSION
  5
4FE27
330
1F
100
AcDbEntity
  8
AM_5
100
AcDbDimension
  2
*D18
 10
6307.05482895758
 20
-7199.031217146473
 30
0.0
 11
6307.054828957582
 21
-7184.031217146475
 31
0.0
 70
   160
 71
     5
 42
30.0
  3
SYS$0
100
AcDbAlignedDimension
 13
6275.204828957583
 23
-7169.031217146474
 33
0.0
 14
6270.204828957583
 24
-7199.031217146473
 34
0.0
 50
90.0
100
AcDbRotatedDimension
  0
DIMENSION
  5
4FEE3
330
1F
100
AcDbEntity
  8
AM_5
100
AcDbDimension
  2
*D19
 10
6304.88998973258
 20
-7243.6463858566
 30
0.0
 11
6304.889989732582
 21
-7251.646385856599
 31
0.0
 70
   160
  1
（<>）
 71
     5
 42
16.0
  3
SYS$0
100
AcDbAlignedDimension
 13
6277.054828957582
 23
-7259.646385856601
 33
0.0
 14
6243.054828957582
 24
-7243.6463858566
 34
0.0
 50
90.0
100
AcDbRotatedDimension
  0
DIMENSION
  5
4FEF9
330
1F
100
AcDbEntity
  8
AM_5
100
AcDbDimension
  2
*D20
 10
6296.88998973258
 20
-7256.646385856601
 30
0.0
 11
6296.889989732582
 21
-7263.393052523266
 31
0.0
 70
   160
 71
     5
 42
3.0
  3
SYS$0
100
AcDbAlignedDimension
 13
6277.054828957582
 23
-7259.646385856601
 33
0.0
 14
6277.054828957582
 24
-7256.646385856601
 34
0.0
 50
90.0
100
AcDbRotatedDimension
  0
DIMENSION
  5
4FF1E
330
1F
100
AcDbEntity
  8
AM_5
100
AcDbDimension
  2
*D21
 10
6197.176149301082
 20
-7194.480964614474
 30
0.0
 11
6199.834870798239
 21
-7197.139686111841
 31
0.0
 70
   161
  1
%%c<>
 71
     5
 42
4.999999999683495
  3
SYS$0
100
AcDbAlignedDimension
 13
6192.551149301081
 23
-7192.034896802972
 33
0.0
 14
6196.086683206651
 24
-7195.570430708821
 34
0.0
  0
DIMENSION
  5
4FF5C
330
1F
100
AcDbEntity
  8
AM_5
100
AcDbDimension
  2
*D22
 10
6150.05482895758
 20
-7246.646385856573
 30
0.0
 11
6150.054828957582
 21
-7252.743974097102
 31
0.0
 70
   160
  1
<>
 71
     5
 42
13.00000000002728
  3
SYS$0
100
AcDbAlignedDimension
 13
6165.554828957581
 23
-7259.646385856601
 33
0.0
 14
6181.064447901068
 24
-7246.646385856573
 34
0.0
 50
90.0
100
AcDbRotatedDimension
1001
ACAD
1000
DSTYLE
1002
{
1070
   271
1070
     0
1002
}
  0
DIMENSION
  5
4FF8E
330
1F
100
AcDbEntity
  8
AM_5
100
AcDbDimension
  2
*D23
 10
6158.05482895758
 20
-7256.646385856601
 30
0.0
 11
6158.054828957581
 21
-7263.393052523266
 31
0.0
 70
   160
 71
     5
 42
2.99999999999909
  3
SYS$0
100
AcDbAlignedDimension
 13
6165.554828957581
 23
-7259.646385856601
 33
0.0
 14
6165.554828957581
 24
-7256.646385856601
 34
0.0
 50
90.0
100
AcDbRotatedDimension
  0
TEXT
  5
5183F
330
1F
100
AcDbEntity
  8
AM_6
 60
     1
100
AcDbText
 10
5973.602012689372
 20
109.7385382224183
 30
0.0
 40
2.5
  1
!GENTITLE-INSERT
100
AcDbText
  0
TEXT
  5
51840
330
1F
100
AcDbEntity
  8
AM_6
 60
     1
100
AcDbText
 10
5565.102012689372
 20
101.2385382224183
 30
0.0
 40
2.5
  1
!GENTITLE-LL
100
AcDbText
  0
TEXT
  5
51841
330
1F
100
AcDbEntity
  8
AM_6
 60
     1
100
AcDbText
 10
5985.102012689372
 20
398.2385382224184
 30
0.0
 40
2.5
  1
!GENTITLE-RU
100
AcDbText
  0
TEXT
  5
51842
330
1F
100
AcDbEntity
  8
AM_6
 60
     1
100
AcDbText
 10
5985.102012689372
 20
398.2385382224184
 30
0.0
 40
2.5
  1
!GENTITLE-MAX
100
AcDbText
  0
TEXT
  5
5184A
330
1F
100
AcDbEntity
  8
AM_6
 60
     1
100
AcDbText
 10
5565.102012689372
 20
101.2385382224183
 30
0.0
 40
2.5
  1
!GENTITLE-LL
100
AcDbText
  0
TEXT
  5
5184B
330
1F
100
AcDbEntity
  8
AM_6
 60
     1
100
AcDbText
 10
5973.602012689372
 20
389.7385382224184
 30
0.0
 40
2.5
  1
!GENTITLE-RU
100
AcDbText
  0
TEXT
  5
5184C
330
1F
100
AcDbEntity
  8
AM_6
 60
     1
100
AcDbText
 10
5985.102012689372
 20
398.2385382224184
 30
0.0
 40
2.5
  1
!GENTITLE-MAX
100
AcDbText
  0
TEXT
  5
5184D
330
1F
100
AcDbEntity
  8
AM_6
 60
     1
100
AcDbText
 10
5973.602012689372
 20
109.7385382224183
 30
0.0
 40
2.5
  1
!GENTITLE-INSERT
100
AcDbText
  0
ARC
  5
554BC
330
1F
100
AcDbEntity
  8
AM_0
  6
中線
 48
0.5
370
    30
100
AcDbCircle
 10
6209.531218636581
 20
-7181.294046618474
 30
0.0
 40
4.0
100
AcDbArc
 50
7.263474419984193
 51
172.6512074060108
  0
DIMENSION
  5
554C6
330
1F
100
AcDbEntity
  8
AM_5
100
AcDbDimension
  2
*D24
 10
6174.684830433174
 20
-7188.103396888338
 30
0.0
 11
6146.651050360144
 21
-7209.535011513705
 31
0.0
 70
   163
  1
2-%%c5.3×<>サラ
 71
     5
 42
10.29999999999745
  3
SYS$3
100
AcDbDiametricDimension
 15
6169.424827481993
 25
-7196.959037404615
 35
0.0
 40
0.0
1001
ACAD
1000
DSTYLE
1002
{
1070
    41
1040
1.0
1070
   172
1070
     1
1070
   342
1005
6C4
1002
}
  0
ARC
  5
5B321
330
1F
100
AcDbEntity
  8
AM_0
  6
中線
 48
0.5
370
    30
100
AcDbCircle
 10
6296.554828957583
 20
-7246.38676995942
 30
0.0
 40
2.499999999999419
100
AcDbArc
 50
294.9670120921333
 51
114.7215813351632
  0
LINE
  5
5B322
330
1F
100
AcDbEntity
  8
AM_0
  6
中線
 48
0.5
370
    30
100
AcDbLine
 10
6283.113070578894
 20
-7255.403050373193
 30
0.0
 11
6297.610069925546
 21
-7248.653147355074
 31
0.0
  0
LINE
  5
5B323
330
1F
100
AcDbEntity
  8
AM_0
  6
中線
 48
0.5
370
    30
100
AcDbLine
 10
6280.849809941874
 20
-7250.865198953298
 30
0.0
 11
6295.509305838319
 21
-7244.115893166839
 31
0.0
  0
ARC
  5
5B324
330
1F
100
AcDbEntity
  8
AM_0
  6
中線
 48
0.5
370
    30
100
AcDbCircle
 10
6278.470010319854
 20
-7245.430989832316
 30
0.0
 40
11.0
100
AcDbArc
 50
263.0000000032898
 51
294.9670120921362
1001
GENIUS_GENOBJ-N-FIL_13
1002
{
1000
OWNER
1000
GEN
1002
}
1001
GENIUS_GENODEF_13
1002
{
1000
HIER
1070
     0
1002
}
1002
{
1000
MANEDIT
1070
     0
1002
}
1002
{
1000
NOSEL
1070
     0
1002
}
1002
{
1000
BEHIND
1070
     0
1002
}
1002
{
1000
OTHER
1070
     0
1002
}
1002
{
1000
REACTOR
1002
}
  0
ARC
  5
5B325
330
1F
100
AcDbEntity
  8
AM_0
  6
中線
 48
0.5
370
    30
100
AcDbCircle
 10
6278.340554455638
 20
-7245.415094651104
 30
0.0
 40
6.0
100
AcDbArc
 50
262.9999999995817
 51
294.7215813351641
1001
GENIUS_GENOBJ-N-FIL_13
1002
{
1000
OWNER
1000
GEN
1002
}
1001
GENIUS_GENODEF_13
1002
{
1000
HIER
1070
     0
1002
}
1002
{
1000
MANEDIT
1070
     0
1002
}
1002
{
1000
NOSEL
1070
     0
1002
}
1002
{
1000
BEHIND
1070
     0
1002
}
1002
{
1000
OTHER
1070
     0
1002
}
1002
{
1000
REACTOR
1002
}
  0
ARC
  5
5B338
330
1F
100
AcDbEntity
  8
0部品18
100
AcDbCircle
 10
6171.554828957582
 20
-7175.031217146474
 30
0.0
 40
6.000000000000162
100
AcDbArc
 50
59.04903453526039
 51
180.0
  0
LINE
  5
5B33D
330
1F
100
AcDbEntity
  8
AM_0
  6
中線
 48
0.5
370
    30
100
AcDbLine
 10
6180.554828957583
 20
-7173.432279656177
 30
0.0
 11
6174.640654820803
 21
-7169.885570564957
 31
0.0
  0
ARC
  5
5B33E
330
1F
100
AcDbEntity
  8
0部品18
100
AcDbCircle
 10
6171.554828957582
 20
-7193.031217146473
 30
0.0
 40
6.000000000000162
100
AcDbArc
 50
180.0
 51
300.9509654647441
  0
LINE
  5
5B33F
330
1F
100
AcDbEntity
  8
AM_0
  6
中線
 48
0.5
370
    30
100
AcDbLine
 10
6180.554828957583
 20
-7194.630154636769
 30
0.0
 11
6174.640654820803
 21
-7198.17686372799
 31
0.0
  0
DIMENSION
  5
5B352
330
1F
100
AcDbEntity
  8
AM_5
100
AcDbDimension
  2
*D27
 10
6260.312795226742
 20
-7194.671887952786
 30
0.0
 11
6289.515955268552
 21
-7216.768995459712
 31
0.0
 70
   163
  1
3-%%c5.3×<>サラ
 71
     5
 42
10.30000000000109
  3
SYS$3
100
AcDbDiametricDimension
 15
6265.796862688423
 25
-7203.390546340163
 35
0.0
 40
0.0
1001
ACAD
1000
DSTYLE
1002
{
1070
    41
1040
1.0
1070
   172
1070
     1
1070
   342
1005
6C4
1002
}
  0
ENDSEC
  0
SECTION
  2
OBJECTS
  0
DICTIONARY
  5
C
330
0
100
AcDbDictionary
281
     1
  3
ACAD_2007HEADERVARS_RT
350
5B602
  3
ACAD_BGPLOT_KEY
350
AB06
  3
ACAD_COLOR
350
A91D
  3
ACAD_GROUP
350
D
  3
ACAD_LAYOUT
350
1A
  3
ACAD_MATERIAL
350
A91C
  3
ACAD_MLINESTYLE
350
17
  3
ACAD_PLOTSETTINGS
350
19
  3
ACAD_PLOTSTYLENAME
350
E
  3
ACAD_TABLESTYLE
350
AAB9
  3
ACAD_VISUALSTYLE
350
B0F1
  3
AcAsAppObject
350
3DA1
  3
ACASGREF_MASTER
350
3DE9
  3
AcDbVariableDictionary
350
34
  3
AcmDictionary
350
47
  3
AD_GREF_MODULE
350
3DEA
  3
AD_MAPI_MODULE
350
3E06
  3
AMG
350
2B
  3
AMGSNAPSETTINGS
350
7D
  3
ASE_INDEX_DICTIONARY
350
57912
  3
DWGPROPS
350
5B601
  3
MAPISURF_MODULE
350
3DEB
  0
DICTIONARY
  5
3F95
330
2
100
AcDbDictionary
280
     1
281
     1
  3
ACAD_LAYERFILTERS
360
5369F
  3
ACAD_LAYERSTATES
360
3F96
  3
ACLYDICTIONARY
360
5369E
  3
AMLAYER_GROUPCOLORS
360
AAB4
  0
DICTIONARY
  5
5B438
330
5B437
100
AcDbDictionary
280
     1
281
     1
  3
ADSK_XREC_LAYER_RECONCILED
360
5B439
  0
DICTIONARY
  5
8A
330
1F
100
AcDbDictionary
280
     1
281
     1
  3
ACAD_SORTENTS
360
B1BA
  0
DICTIONARY
  5
5B602
102
{ACAD_REACTORS
330
C
102
}
330
C
100
AcDbDictionary
281
     1
  3
DIMARCSYM
350
5B603
  0
DICTIONARY
  5
AB06
102
{ACAD_REACTORS
330
C
102
}
330
C
100
AcDbDictionary
280
     1
281
     1
  0
DICTIONARY
  5
A91D
102
{ACAD_REACTORS
330
C
102
}
330
C
100
AcDbDictionary
281
     1
  0
DICTIONARY
  5
D
102
{ACAD_REACTORS
330
C
102
}
330
C
100
AcDbDictionary
281
     1
  0
DICTIONARY
  5
1A
102
{ACAD_REACTORS
330
C
102
}
330
C
100
AcDbDictionary
281
     1
  3
Model
350
22
  3
ﾚｲｱｳﾄ1
350
1E
  3
ﾚｲｱｳﾄ2
350
26
  0
DICTIONARY
  5
A91C
102
{ACAD_REACTORS
330
C
102
}
330
C
100
AcDbDictionary
281
     1
  3
ByBlock
350
B0EF
  3
ByLayer
350
B0EE
  3
Global
350
B0F0
  0
DICTIONARY
  5
17
102
{ACAD_REACTORS
330
C
102
}
330
C
100
AcDbDictionary
281
     1
  3
Standard
350
18
  0
DICTIONARY
  5
19
102
{ACAD_REACTORS
330
C
102
}
330
C
100
AcDbDictionary
281
     1
  0
ACDBDICTIONARYWDFLT
  5
E
102
{ACAD_REACTORS
330
C
102
}
330
C
100
AcDbDictionary
281
     1
  3
Normal
350
F
100
AcDbDictionaryWithDefault
340
F
  0
DICTIONARY
  5
AAB9
102
{ACAD_REACTORS
330
C
102
}
330
C
100
AcDbDictionary
281
     1
  3
Standard
350
AABA
  0
DICTIONARY
  5
B0F1
102
{ACAD_REACTORS
330
C
102
}
330
C
100
AcDbDictionary
281
     1
  3
2dWireframe
350
B0F7
  3
3D Hidden
350
B0F9
  3
3dWireframe
350
B0F8
  3
Basic
350
B0F6
  3
Brighten
350
B0FD
  3
ColorChange
350
B101
  3
Conceptual
350
B0FA
  3
Dim
350
B0FC
  3
Facepattern
350
B100
  3
Flat
350
B0F2
  3
FlatWithEdges
350
B0F3
  3
Gouraud
350
B0F4
  3
GouraudWithEdges
350
B0F5
  3
Linepattern
350
B0FF
  3
Realistic
350
B0FB
  3
Thicken
350
B0FE
  0
ACAD_PROXY_OBJECT
  5
3DA1
102
{ACAD_REACTORS
330
C
102
}
330
C
100
AcDbProxyObject
 90
      499
 91
      576
 95
   917527
 70
     0
 93
       10
310
407F
 94
        0
1001
ACAD
1000
AcRTDxfName
1000
ASAPP
  0
ACAD_PROXY_OBJECT
  5
3DE9
102
{ACAD_REACTORS
330
C
102
}
330
C
100
AcDbProxyObject
 90
      499
 91
      581
 95
   917527
 70
     0
 93
       34
310
010000407F
 94
        0
1001
ACAD
1000
AcRTDxfName
1000
ACASGREFMASTER
  0
DICTIONARY
  5
34
102
{ACAD_REACTORS
330
C
102
}
330
C
100
AcDbDictionary
281
     1
  3
CTABLESTYLE
350
AAF3
  3
DIMASSOC
350
A10C
  3
FIELDEVAL
350
AB07
  3
INDEXCTL
350
35
  3
SORTENTS
350
194C
  0
DICTIONARY
  5
47
102
{ACAD_REACTORS
330
C
102
}
330
C
100
AcDbDictionary
281
     1
  3
AcmBOM
350
7E8
  3
AcmStdDictionary
350
4C
  3
AMDTSECTSYM_ARROWCOLOR
350
A929
  0
ACAD_PROXY_OBJECT
  5
3DEA
102
{ACAD_REACTORS
330
C
102
}
330
C
100
AcDbProxyObject
 90
      499
 91
      582
 95
   917527
 70
     0
 93
      114
310
00000043800000000000000000003F
 94
        0
1001
ACAD
1000
AcRTDxfName
1000
ACADGREFMODULE
  0
ACAD_PROXY_OBJECT
  5
3E06
102
{ACAD_REACTORS
330
C
102
}
330
C
100
AcDbProxyObject
 90
      499
 91
      594
 95
   917527
 70
     0
 93
       34
310
05000044FF
 94
        0
1001
ACAD
1000
AcRTDxfName
1000
MAPIADMODULE
  0
DICTIONARY
  5
2B
102
{ACAD_REACTORS
330
C
102
}
330
C
100
AcDbDictionary
281
     1
  0
DICTIONARY
  5
7D
102
{ACAD_REACTORS
330
C
102
}
330
C
100
AcDbDictionary
281
     1
  0
DICTIONARY
  5
57912
102
{ACAD_REACTORS
330
C
102
}
330
C
100
AcDbDictionary
281
     1
  3
ASEBlockHierarchyIndexRecord
350
57913
1001
DCO15
1040
1757428023.343
  0
XRECORD
  5
5B601
102
{ACAD_REACTORS
330
C
102
}
330
C
100
AcDbXrecord
280
     1
  1
DWGPROPS COOKIE
  2

  3

  4

  6

  7

  8
Administrator
  9

300
AmdtFileType=84
301
=
302
=
303
=
304
=
305
=
306
=
307
=
308
=
309
=
 40
8.056949641203702
 41
2455567.680725081
 42
2456338.846068067
  1

 90
        1
  0
ACAD_PROXY_OBJECT
  5
3DEB
102
{ACAD_REACTORS
330
C
102
}
330
C
100
AcDbProxyObject
 90
      499
 91
      583
 95
   917527
 70
     0
 93
        8
310
0476
 94
        0
1001
ACAD
1000
AcRTDxfName
1000
AMDTMAPISURFMOUDULE
  0
DICTIONARY
  5
5369F
102
{ACAD_REACTORS
330
3F95
102
}
330
3F95
100
AcDbDictionary
281
     1
  0
DICTIONARY
  5
3F96
102
{ACAD_REACTORS
330
3F95
102
}
330
3F95
100
AcDbDictionary
281
     1
  3
20011210
350
3FB7
  0
DICTIONARY
  5
5369E
102
{ACAD_REACTORS
330
3F95
102
}
330
3F95
100
AcDbDictionary
281
     1
1001
ACAD
1000
<All
  0
DICTIONARY
  5
AAB4
102
{ACAD_REACTORS
330
3F95
102
}
330
3F95
100
AcDbDictionary
280
     1
281
     1
  0
XRECORD
  5
5B439
102
{ACAD_REACTORS
330
5B438
102
}
330
5B438
100
AcDbXrecord
280
     1
290
     1
  0
SORTENTSTABLE
  5
B1BA
102
{ACAD_REACTORS
330
8A
102
}
330
8A
100
AcDbSortentsTable
330
1F
331
4F882
  5
500F8
331
4F7BD
  5
4F7FA
331
4F800
  5
4F838
331
4F7A0
  5
4F7DA
331
447C3
  5
449F1
331
4FC45
  5
5011C
331
4F830
  5
4F883
331
4F7E3
  5
4F81D
331
4F813
  5
4F84B
331
4F7C6
  5
4F804
331
4F7B1
  5
4F7E8
331
31B33
  5
3273B
331
4F839
  5
4F98C
331
4F7D9
  5
4F814
331
4F794
  5
4F7CD
331
4F824
  5
4F85D
331
32D1E
  5
32D3B
331
4F84C
  5
4FC85
331
4F807
  5
4F83F
331
4F7A7
  5
4F7E2
331
447CA
  5
449F8
331
4F837
  5
4F934
331
4F7EA
  5
4F827
331
4F81A
  5
4F852
331
5B324
  5
4F82C
331
4F7CD
  5
4F809
331
4F788
  5
4F7C1
331
4F85D
  5
500F6
331
4F7B8
  5
4F7F4
331
4E0EB
  5
4E1D6
331
4FF1E
  5
50129
331
4FC85
  5
50120
331
4F840
  5
4FA5F
331
4F79B
  5
4F7D4
331
447BE
  5
449EC
331
4F82B
  5
4F87E
331
4F77E
  5
4F7B9
331
4F853
  5
4FE27
331
4F80E
  5
4F846
331
4F7C1
  5
4F7FF
331
5183F
  5
B5AD
331
4F7D4
  5
4F810
331
4F78F
  5
4F7C6
331
4F884
  5
500FA
331
4F7BF
  5
4F7FC
331
4FD84
  5
50125
331
4F847
  5
4FAF1
331
4F802
  5
4F83A
331
4F7A2
  5
4F7DC
331
447C5
  5
449F3
331
4F832
  5
4F88D
331
4F7E5
  5
4F822
331
4F785
  5
4F7BE
331
4F815
  5
4F84D
331
4F7C8
  5
4F807
331
4F7F8
  5
4F831
331
4F7B3
  5
4F7EA
331
4F7DB
  5
4F816
331
4F796
  5
4F7CF
331
447B9
  5
449E7
331
4F826
  5
4F879
331
4FF5C
  5
555AC
331
4F84E
  5
4FD27
331
4F809
  5
4F841
331
447CC
  5
449FA
331
4F78A
  5
4F7C3
331
5184A
  5
B8D5
331
4F7FF
  5
4F837
331
4F7BA
  5
4F7F6
331
31B3C
  5
3273D
331
4F842
  5
4FA9A
331
4F79D
  5
4F7D7
331
447C0
  5
449EE
331
4FE27
  5
50126
331
4F82D
  5
4F880
331
4F780
  5
4F7BB
331
4F855
  5
4FEE3
331
4F810
  5
4F848
331
4F7C3
  5
4F801
331
4FD3D
  5
50123
331
4F7F3
  5
4F82B
331
4F7AE
  5
4F7E5
331
51841
  5
B5E2
331
31B30
  5
32738
331
4E0F4
  5
4E1DF
331
4F849
  5
4FC82
331
4F804
  5
4F83D
331
4F7A4
  5
4F7DE
331
447C7
  5
449F5
331
4F834
  5
4F88F
331
4F7E7
  5
4F824
331
4F787
  5
4F7C0
331
4F817
  5
4F84F
331
5B321
  5
5B323
331
34534
  5
3454C
331
4F85A
  5
4FF5C
331
4F7FA
  5
4F833
331
4F7B5
  5
4F7F0
331
4E0E8
  5
4E1D3
331
4FD27
  5
50122
331
4FC82
  5
5011D
331
4F83D
  5
4F9FF
331
4F7DD
  5
4F818
331
4F798
  5
4F7D1
331
447BB
  5
449E9
331
4F88D
  5
500FE
331
4F828
  5
4F87B
331
4F77B
  5
4F7B6
331
4F80B
  5
4F843
331
447CE
  5
449FF
331
4F7D1
  5
4F80D
331
5184C
  5
B8D7
331
4F7BC
  5
4F7F8
331
31B3E
  5
3273F
331
4F79F
  5
4F7D9
331
447C2
  5
449F0
331
4FC44
  5
5011B
331
4F82F
  5
4F882
331
4F7E2
  5
4F81C
331
4FD0F
  5
50121
331
4F857
  5
4FF1E
331
4F812
  5
4F84A
331
4F7C5
  5
4F803
331
4F7B0
  5
4F7E7
331
31B32
  5
3273A
331
4F838
  5
4F953
331
4F7D8
  5
4F813
331
4FF8E
  5
555AD
331
4E0F6
  5
4E1E1
331
32D1D
  5
32D3A
331
4F84B
  5
4FC84
331
4F7A6
  5
4F7E1
331
447C9
  5
449F7
331
4F836
  5
4F8C9
331
4F7E9
  5
4F826
331
4F819
  5
4F851
331
5B323
  5
5B325
331
34536
  5
3454E
331
4F85C
  5
500F5
331
4F7FC
  5
4F835
331
4F7B7
  5
4F7F3
331
4E0EA
  5
4E1D5
331
4FC84
  5
5011F
331
4F83F
  5
4FA25
331
4F7DF
  5
4F81A
331
4F79A
  5
4F7D3
331
447BD
  5
449EB
331
4F88F
  5
50118
331
4F82A
  5
4F87D
331
4F77D
  5
4F7B8
331
4F80D
  5
4F845
331
4F7C0
  5
4F7FE
331
447D0
  5
44A01
331
4F7D3
  5
4F80F
331
4F78E
  5
4F7C5
331
4F883
  5
500F9
331
4F7BE
  5
4F7FB
331
4FD83
  5
50124
331
4F801
  5
4F839
331
4F7A1
  5
4F7DB
331
447C4
  5
449F2
331
554C6
  5
5B2F3
331
4F831
  5
4F88C
331
4F7E4
  5
4F81E
331
4F784
  5
4F7BD
331
4F814
  5
4F84C
331
4F7C7
  5
4F805
331
4F7F7
  5
4F830
331
4F7B2
  5
4F7E9
331
4F83A
  5
4F9A2
331
4F7DA
  5
4F815
331
4F795
  5
4F7CE
331
4FEE3
  5
50127
331
4F825
  5
4F878
331
32D1F
  5
32D3C
331
4F84D
  5
4FCDA
331
4F808
  5
4F840
331
447CB
  5
449F9
331
4F81B
  5
4F854
331
5B325
  5
4F82F
331
4F7CE
  5
4F80A
331
4F789
  5
4F7C2
331
34538
  5
34550
331
4F7FE
  5
4F836
331
4F7B9
  5
4F7F5
331
31B3B
  5
3273C
331
4F841
  5
4FA84
331
4F79C
  5
4F7D5
331
447BF
  5
449ED
331
4F82C
  5
4F87F
331
4F77F
  5
4F7BA
331
4F80F
  5
4F847
331
4F7C2
  5
4F800
331
51840
  5
B5AE
331
4F7D5
  5
4F811
331
4F790
  5
4F7C7
331
4E0F3
  5
4E1DE
331
4F848
  5
4FB49
331
4F803
  5
4F83C
331
4F7A3
  5
4F7DD
331
447C6
  5
449F4
331
4FEF9
  5
50128
331
4F833
  5
4F88E
331
4F7E6
  5
4F823
331
4F786
  5
4F7BF
331
4F816
  5
4F84E
331
4F7F9
  5
4F832
331
4F7B4
  5
4F7EF
331
4F83C
  5
4F9CC
331
4F7DC
  5
4F817
331
4F797
  5
4F7D0
331
447BA
  5
449E8
331
554BC
  5
555AE
331
4F88C
  5
500FB
331
4F827
  5
4F87A
331
4F77A
  5
4F7B5
331
32D21
  5
32D3E
331
4F84F
  5
4FD83
331
4F80A
  5
4F842
331
447CD
  5
449FE
331
4F7A8
  5
4F7E3
331
4F81D
  5
4F856
331
4F7D0
  5
4F80C
331
5184B
  5
B8D6
331
4F7BB
  5
4F7F7
331
31B3D
  5
3273E
331
4F843
  5
4FAB0
331
4F79E
  5
4F7D8
331
447C1
  5
449EF
331
4F82E
  5
4F881
331
4F7E1
  5
4F81B
331
4F781
  5
4F7BC
331
4F856
  5
4FEF9
331
4F811
  5
4F849
331
4F7C4
  5
4F802
331
4F7F4
  5
4F82E
331
4F7AF
  5
4F7E6
331
51842
  5
B5E3
331
31B31
  5
32739
331
4F7D7
  5
4F812
331
4F792
  5
4F7C8
331
4F822
  5
4F85B
331
4E0F5
  5
4E1E0
331
4F84A
  5
4FC83
331
4F805
  5
4F83E
331
4F7A5
  5
4F7DF
331
447C8
  5
449F6
331
4F835
  5
4F890
331
4F7E8
  5
4F825
331
4F818
  5
4F850
331
5B322
  5
5B324
331
4F7CB
  5
4F808
331
34535
  5
3454D
331
4F85B
  5
4FF8E
331
4F7FB
  5
4F834
331
4F7B6
  5
4F7F2
331
4E0E9
  5
4E1D4
331
4FC83
  5
5011E
331
4F83E
  5
4FA00
331
4F7DE
  5
4F819
331
4F799
  5
4F7D2
331
447BC
  5
449EA
331
4F88E
  5
50116
331
4F829
  5
4F87C
331
4F77C
  5
4F7B7
331
4F851
  5
4FD84
331
4F80C
  5
4F844
331
447CF
  5
44A00
331
4F7AA
  5
4F7E4
331
4F7D2
  5
4F80E
331
4F78D
  5
4F7C4
331
5184D
  5
B8D8
  0
XRECORD
  5
5B603
102
{ACAD_REACTORS
330
5B602
102
}
330
5B602
100
AcDbXrecord
280
     1
 70
     1
  0
LAYOUT
  5
22
102
{ACAD_XDICTIONARY
360
5B606
102
}
102
{ACAD_REACTORS
330
1A
102
}
330
1A
100
AcDbPlotSettings
  1

  2
FX DocuWide 2050/2051
  4
A3
  6
AM_VIEW1
 40
3.174999952316284
 41
3.174999952316284
 42
3.17498779296875
 43
3.17498779296875
 44
296.989501953125
 45
419.9889831542968
 46
0.0
 47
1.295841228961961
 48
214.3704939521119
 49
367.5855324241176
140
275.6727856380065
141
407.629191407817
142
1.0
143
0.7225445603030646
 70
  3764
 72
     1
 73
     1
 74
     2
  7
monochrome.ctb
 75
     0
147
1.383997686703999
148
-1700.85588156276
149
-1647.985052086429
100
AcDbLayout
  1
Model
 70
     1
 71
     0
 10
0.0
 20
0.0
 11
12.0
 21
9.0
 12
0.0
 22
0.0
 32
0.0
 14
0.0
 24
0.0
 34
0.0
 15
0.0
 25
0.0
 35
0.0
146
0.0
 13
0.0
 23
0.0
 33
0.0
 16
1.0
 26
0.0
 36
0.0
 17
0.0
 27
1.0
 37
0.0
 76
     0
330
1F
331
B0EC
1001
ACAD_PSEXT
1000
FX DocuWide 2050/2051
1000
FX DocuWide 2050/2051
1000
IP_192.200.15.252
1000

1070
     0
  0
LAYOUT
  5
1E
102
{ACAD_XDICTIONARY
360
5B604
102
}
102
{ACAD_REACTORS
330
1A
102
}
330
1A
100
AcDbPlotSettings
  1

  2
\\ML370\XEROX
  4
A4
  6

 40
3.174999952316284
 41
3.174999952316284
 42
3.175003051757812
 43
3.17498779296875
 44
209.8674926757813
 45
296.6719970703125
 46
0.0
 47
0.0
 48
0.0
 49
0.0
140
0.0
141
0.0
142
1.0
143
1.0
 70
   688
 72
     1
 73
     1
 74
     5
  7
monochrome.ctb
 75
    16
147
1.0
148
0.0
149
0.0
100
AcDbLayout
  1
ﾚｲｱｳﾄ1
 70
     1
 71
     1
 10
-3.17498779296875
 20
-3.174999952316284
 11
293.4970092773438
 21
206.692492723465
 12
0.0
 22
0.0
 32
0.0
 14
1.000000000000000E+20
 24
1.000000000000000E+20
 34
1.000000000000000E+20
 15
-1.000000000000000E+20
 25
-1.000000000000000E+20
 35
-1.000000000000000E+20
146
0.0
 13
0.0
 23
0.0
 33
0.0
 16
1.0
 26
0.0
 36
0.0
 17
0.0
 27
1.0
 37
0.0
 76
     0
330
1B
  0
LAYOUT
  5
26
102
{ACAD_XDICTIONARY
360
5B608
102
}
102
{ACAD_REACTORS
330
1A
102
}
330
1A
100
AcDbPlotSettings
  1

  2
\\ML370\XEROX
  4

  6

 40
0.0
 41
0.0
 42
0.0
 43
0.0
 44
0.0
 45
0.0
 46
0.0
 47
0.0
 48
0.0
 49
0.0
140
0.0
141
0.0
142
1.0
143
1.0
 70
   688
 72
     0
 73
     0
 74
     5
  7
monochrome.ctb
 75
    16
147
1.0
148
0.0
149
0.0
100
AcDbLayout
  1
ﾚｲｱｳﾄ2
 70
     1
 71
     2
 10
0.0
 20
0.0
 11
12.0
 21
9.0
 12
0.0
 22
0.0
 32
0.0
 14
0.0
 24
0.0
 34
0.0
 15
0.0
 25
0.0
 35
0.0
146
0.0
 13
0.0
 23
0.0
 33
0.0
 16
1.0
 26
0.0
 36
0.0
 17
0.0
 27
1.0
 37
0.0
 76
     0
330
23
  0
MATERIAL
  5
B0EF
102
{ACAD_XDICTIONARY
360
5B60E
102
}
102
{ACAD_REACTORS
330
A91C
102
}
330
A91C
100
AcDbMaterial
  1
ByBlock
  0
MATERIAL
  5
B0EE
102
{ACAD_XDICTIONARY
360
5B60C
102
}
102
{ACAD_REACTORS
330
A91C
102
}
330
A91C
100
AcDbMaterial
  1
ByLayer
  0
MATERIAL
  5
B0F0
102
{ACAD_XDICTIONARY
360
5B610
102
}
102
{ACAD_REACTORS
330
A91C
102
}
330
A91C
100
AcDbMaterial
  1
Global
  0
MLINESTYLE
  5
18
102
{ACAD_REACTORS
330
17
102
}
330
17
100
AcDbMlineStyle
  2
STANDARD
 70
     0
  3

 62
   256
 51
90.0
 52
90.0
 71
     2
 49
0.5
 62
   256
  6
BYLAYER
 49
-0.5
 62
   256
  6
BYLAYER
  0
ACDBPLACEHOLDER
  5
F
102
{ACAD_REACTORS
330
E
102
}
330
E
  0
TABLESTYLE
  5
AABA
102
{ACAD_XDICTIONARY
360
5B60A
102
}
102
{ACAD_REACTORS
330
AAB9
102
}
330
AAB9
100
AcDbTableStyle
  3
Standard
 70
     0
 71
     0
 40
1.5
 41
1.5
280
     0
281
     0
  7
STANDARD
140
4.5
170
     2
 62
     0
 63
     7
283
     0
274
    -2
284
     1
 64
     0
275
    -2
285
     1
 65
     0
276
    -2
286
     1
 66
     0
277
    -2
287
     1
 67
     0
278
    -2
288
     1
 68
     0
279
    -2
289
     1
 69
     0
  7
STANDARD
140
6.0
170
     5
 62
     0
 63
     7
283
     0
274
    -2
284
     1
 64
     0
275
    -2
285
     1
 65
     0
276
    -2
286
     1
 66
     0
277
    -2
287
     1
 67
     0
278
    -2
288
     1
 68
     0
279
    -2
289
     1
 69
     0
  7
STANDARD
140
4.5
170
     5
 62
     0
 63
     7
283
     0
274
    -2
284
     1
 64
     0
275
    -2
285
     1
 65
     0
276
    -2
286
     1
 66
     0
277
    -2
287
     1
 67
     0
278
    -2
288
     1
 68
     0
279
    -2
289
     1
 69
     0
  0
VISUALSTYLE
  5
B0F7
102
{ACAD_REACTORS
330
B0F1
102
}
330
B0F1
100
AcDbVisualStyle
  2
2dWireframe
 70
     4
 71
     0
 72
     2
 73
     0
 90
        0
 40
-0.6
 41
-30.0
 62
     5
 63
     7
 74
     1
 91
        4
 64
     7
 65
   257
 75
     1
175
     1
 42
1.0
 92
        0
 66
   257
 43
1.0
 76
     1
 77
     6
 78
     2
 67
     7
 79
     5
170
     0
171
     0
290
     0
174
     0
 93
        1
 44
0.0
173
     0
291
     0
 45
0.0
1001
ACAD
1000
AcDbSavedByObjectVersion
1070
     0
  0
VISUALSTYLE
  5
B0F9
102
{ACAD_REACTORS
330
B0F1
102
}
330
B0F1
100
AcDbVisualStyle
  2
3D Hidden
 70
     6
 71
     1
 72
     2
 73
     2
 90
        0
 40
-0.6
 41
-30.0
 62
     5
 63
     7
 74
     2
 91
        2
 64
     7
 65
   257
 75
     2
175
     1
 42
40.0
 92
        0
 66
   257
 43
1.0
 76
     1
 77
     6
 78
     2
 67
     7
 79
     3
170
     0
171
     0
290
     0
174
     0
 93
        1
 44
0.0
173
     0
291
     0
 45
0.0
1001
ACAD
1000
AcDbSavedByObjectVersion
1070
     0
  0
VISUALSTYLE
  5
B0F8
102
{ACAD_REACTORS
330
B0F1
102
}
330
B0F1
100
AcDbVisualStyle
  2
3dWireframe
 70
     5
 71
     0
 72
     2
 73
     0
 90
        0
 40
-0.6
 41
-30.0
 62
     5
 63
     7
 74
     1
 91
        4
 64
     7
 65
   257
 75
     1
175
     1
 42
1.0
 92
        0
 66
   257
 43
1.0
 76
     1
 77
     6
 78
     2
 67
     7
 79
     5
170
     0
171
     0
290
     0
174
     0
 93
        1
 44
0.0
173
     0
291
     0
 45
0.0
1001
ACAD
1000
AcDbSavedByObjectVersion
1070
     0
  0
VISUALSTYLE
  5
B0F6
102
{ACAD_REACTORS
330
B0F1
102
}
330
B0F1
100
AcDbVisualStyle
  2
Basic
 70
     7
 71
     1
 72
     0
 73
     1
 90
        0
 40
-0.6
 41
-30.0
 62
     5
 63
     7
 74
     0
 91
        4
 64
     7
 65
   257
 75
     1
175
     1
 42
1.0
 92
        8
 66
     7
 43
1.0
 76
     1
 77
     6
 78
     2
 67
     7
 79
     5
170
     0
171
     0
290
     0
174
     0
 93
        1
 44
0.0
173
     0
291
     1
 45
0.0
1001
ACAD
1000
AcDbSavedByObjectVersion
1070
     0
  0
VISUALSTYLE
  5
B0FD
102
{ACAD_REACTORS
330
B0F1
102
}
330
B0F1
100
AcDbVisualStyle
  2
Brighten
 70
    12
 71
     2
 72
     2
 73
     0
 90
        0
 40
-0.6
 41
-30.0
 62
     5
 63
     7
 74
     1
 91
        4
 64
     7
 65
   257
 75
     1
175
     1
 42
1.0
 92
        8
 66
     7
 43
1.0
 76
     1
 77
     6
 78
     2
 67
     7
 79
     5
170
     0
171
     0
290
     0
174
     0
 93
        1
 44
50.0
173
     0
291
     1
 45
0.0
1001
ACAD
1000
AcDbSavedByObjectVersion
1070
     0
  0
VISUALSTYLE
  5
B101
102
{ACAD_REACTORS
330
B0F1
102
}
330
B0F1
100
AcDbVisualStyle
  2
ColorChange
 70
    16
 71
     2
 72
     2
 73
     3
 90
        0
 40
-0.6
 41
-30.0
 62
     5
 63
     8
 74
     1
 91
        4
 64
     7
 65
   257
 75
     1
175
     1
 42
1.0
 92
        8
 66
     8
 43
1.0
 76
     1
 77
     6
 78
     2
 67
     7
 79
     5
170
     0
171
     0
290
     0
174
     0
 93
        1
 44
0.0
173
     0
291
     1
 45
0.0
1001
ACAD
1000
AcDbSavedByObjectVersion
1070
     0
  0
VISUALSTYLE
  5
B0FA
102
{ACAD_REACTORS
330
B0F1
102
}
330
B0F1
100
AcDbVisualStyle
  2
Conceptual
 70
     9
 71
     3
 72
     2
 73
     0
 90
        0
 40
-0.6
 41
-30.0
 62
     5
 63
     7
 74
     2
 91
        2
 64
     7
 65
   257
 75
     1
175
     1
 42
40.0
 92
        8
 66
     7
 43
1.0
 76
     1
 77
     6
 78
     2
 67
     7
 79
     3
170
     0
171
     0
290
     0
174
     0
 93
        1
 44
0.0
173
     0
291
     0
 45
0.0
1001
ACAD
1000
AcDbSavedByObjectVersion
1070
     0
  0
VISUALSTYLE
  5
B0FC
102
{ACAD_REACTORS
330
B0F1
102
}
330
B0F1
100
AcDbVisualStyle
  2
Dim
 70
    11
 71
     2
 72
     2
 73
     0
 90
        0
 40
-0.6
 41
-30.0
 62
     5
 63
     7
 74
     1
 91
        4
 64
     7
 65
   257
 75
     1
175
     1
 42
1.0
 92
        8
 66
     7
 43
1.0
 76
     1
 77
     6
 78
     2
 67
     7
 79
     5
170
     0
171
     0
290
     0
174
     0
 93
        1
 44
-50.0
173
     0
291
     1
 45
0.0
1001
ACAD
1000
AcDbSavedByObjectVersion
1070
     0
  0
VISUALSTYLE
  5
B100
102
{ACAD_REACTORS
330
B0F1
102
}
330
B0F1
100
AcDbVisualStyle
  2
Facepattern
 70
    15
 71
     2
 72
     2
 73
     0
 90
        0
 40
-0.6
 41
-30.0
 62
     5
 63
     7
 74
     1
 91
        4
 64
     7
 65
   257
 75
     1
175
     1
 42
1.0
 92
        8
 66
     7
 43
1.0
 76
     1
 77
     6
 78
     2
 67
     7
 79
     5
170
     0
171
     0
290
     0
174
     0
 93
        1
 44
0.0
173
     0
291
     1
 45
0.0
1001
ACAD
1000
AcDbSavedByObjectVersion
1070
     0
  0
VISUALSTYLE
  5
B0F2
102
{ACAD_REACTORS
330
B0F1
102
}
330
B0F1
100
AcDbVisualStyle
  2
Flat
 70
     0
 71
     2
 72
     1
 73
     1
 90
        2
 40
-0.6
 41
30.0
 62
     5
 63
     7
 74
     0
 91
        4
 64
     7
 65
   257
 75
     1
175
     1
 42
1.0
 92
        8
 66
     7
 43
1.0
 76
     1
 77
     6
 78
     2
 67
     7
 79
     5
170
     0
171
     0
290
     0
174
     0
 93
       13
 44
0.0
173
     0
291
     1
 45
0.0
1001
ACAD
1000
AcDbSavedByObjectVersion
1070
     0
  0
VISUALSTYLE
  5
B0F3
102
{ACAD_REACTORS
330
B0F1
102
}
330
B0F1
100
AcDbVisualStyle
  2
FlatWithEdges
 70
     1
 71
     2
 72
     1
 73
     1
 90
        2
 40
-0.6
 41
30.0
 62
     5
 63
     7
 74
     1
 91
        4
 64
     7
 65
   257
 75
     1
175
     1
 42
1.0
 92
        0
 66
   257
 43
1.0
 76
     1
 77
     6
 78
     2
 67
     7
 79
     5
170
     0
171
     0
290
     0
174
     0
 93
       13
 44
0.0
173
     0
291
     1
 45
0.0
1001
ACAD
1000
AcDbSavedByObjectVersion
1070
     0
  0
VISUALSTYLE
  5
B0F4
102
{ACAD_REACTORS
330
B0F1
102
}
330
B0F1
100
AcDbVisualStyle
  2
Gouraud
 70
     2
 71
     2
 72
     2
 73
     1
 90
        2
 40
-0.6
 41
30.0
 62
     5
 63
     7
 74
     0
 91
        4
 64
     7
 65
   257
 75
     1
175
     1
 42
1.0
 92
        0
 66
     7
 43
1.0
 76
     1
 77
     6
 78
     2
 67
     7
 79
     5
170
     0
171
     0
290
     0
174
     0
 93
       13
 44
0.0
173
     0
291
     1
 45
0.0
1001
ACAD
1000
AcDbSavedByObjectVersion
1070
     0
  0
VISUALSTYLE
  5
B0F5
102
{ACAD_REACTORS
330
B0F1
102
}
330
B0F1
100
AcDbVisualStyle
  2
GouraudWithEdges
 70
     3
 71
     2
 72
     2
 73
     1
 90
        2
 40
-0.6
 41
30.0
 62
     5
 63
     7
 74
     1
 91
        4
 64
     7
 65
   257
 75
     1
175
     1
 42
1.0
 92
        0
 66
   257
 43
1.0
 76
     1
 77
     6
 78
     2
 67
     7
 79
     5
170
     0
171
     0
290
     0
174
     0
 93
       13
 44
0.0
173
     0
291
     1
 45
0.0
1001
ACAD
1000
AcDbSavedByObjectVersion
1070
     0
  0
VISUALSTYLE
  5
B0FF
102
{ACAD_REACTORS
330
B0F1
102
}
330
B0F1
100
AcDbVisualStyle
  2
Linepattern
 70
    14
 71
     2
 72
     2
 73
     0
 90
        0
 40
-0.6
 41
-30.0
 62
     5
 63
     7
 74
     1
 91
        4
 64
     7
 65
   257
 75
     7
175
     7
 42
1.0
 92
        8
 66
     7
 43
1.0
 76
     1
 77
     6
 78
     2
 67
     7
 79
     5
170
     0
171
     0
290
     0
174
     0
 93
        1
 44
0.0
173
     0
291
     1
 45
0.0
1001
ACAD
1000
AcDbSavedByObjectVersion
1070
     0
  0
VISUALSTYLE
  5
B0FB
102
{ACAD_REACTORS
330
B0F1
102
}
330
B0F1
100
AcDbVisualStyle
  2
Realistic
 70
     8
 71
     2
 72
     2
 73
     0
 90
        0
 40
-0.6
 41
-30.0
 62
     5
 63
     7
 74
     1
 91
        0
 64
     7
 65
   257
 75
     1
175
     1
 42
1.0
 92
        8
 66
     8
 43
1.0
 76
     1
 77
     6
 78
     2
 67
     7
 79
     5
170
     0
171
     0
290
     0
174
     0
 93
       13
 44
0.0
173
     0
291
     0
 45
0.0
1001
ACAD
1000
AcDbSavedByObjectVersion
1070
     0
  0
VISUALSTYLE
  5
B0FE
102
{ACAD_REACTORS
330
B0F1
102
}
330
B0F1
100
AcDbVisualStyle
  2
Thicken
 70
    13
 71
     2
 72
     2
 73
     0
 90
        0
 40
-0.6
 41
-30.0
 62
     5
 63
     7
 74
     1
 91
        4
 64
     7
 65
   257
 75
     1
175
     1
 42
1.0
 92
       12
 66
     7
 43
1.0
 76
     1
 77
     6
 78
     2
 67
     7
 79
     5
170
     0
171
     0
290
     0
174
     0
 93
        1
 44
0.0
173
     0
291
     1
 45
0.0
1001
ACAD
1000
AcDbSavedByObjectVersion
1070
     0
  0
DICTIONARYVAR
  5
AAF3
102
{ACAD_REACTORS
330
34
102
}
330
34
100
DictionaryVariables
280
     0
  1
STANDARD
  0
DICTIONARYVAR
  5
A10C
102
{ACAD_REACTORS
330
34
102
}
330
34
100
DictionaryVariables
280
     0
  1
1
  0
DICTIONARYVAR
  5
AB07
102
{ACAD_REACTORS
330
34
102
}
330
34
100
DictionaryVariables
280
     0
  1
4
  0
DICTIONARYVAR
  5
35
102
{ACAD_REACTORS
330
34
102
}
330
34
100
DictionaryVariables
280
     0
  1
0
  0
DICTIONARYVAR
  5
194C
102
{ACAD_REACTORS
330
34
102
}
330
34
100
DictionaryVariables
280
     0
  1
127
  0
DICTIONARY
  5
7E8
102
{ACAD_REACTORS
330
47
102
}
330
47
100
AcDbDictionary
281
     1
  0
DICTIONARY
  5
4C
102
{ACAD_REACTORS
330
47
102
}
330
47
100
AcDbDictionary
281
     1
  0
XRECORD
  5
A929
102
{ACAD_REACTORS
330
47
102
}
330
47
100
AcDbXrecord
280
     1
 90
-1023410169
  0
XRECORD
  5
57913
102
{ACAD_REACTORS
330
57912
102
}
330
57912
100
AcDbXrecord
280
     1
330
0
330
0
330
0
330
0
330
0
330
0
330
0
330
0
330
0
330
0
330
0
330
0
330
0
330
0
330
0
330
0
330
0
330
0
330
0
330
0
330
0
330
0
330
0
330
0
330
0
330
0
330
0
330
0
330
0
330
0
330
0
330
0
330
0
330
0
330
0
330
0
330
0
330
0
330
0
330
0
330
0
330
0
330
0
330
0
330
0
330
0
330
0
330
0
330
0
330
0
330
0
330
0
330
0
330
0
330
0
330
0
330
0
330
0
330
0
330
0
330
0
330
0
330
0
330
0
330
0
330
0
330
0
330
0
330
0
330
0
330
0
330
0
330
0
330
0
330
0
330
0
330
0
330
0
330
0
330
0
330
0
330
0
330
0
330
0
330
0
330
0
330
0
330
0
330
0
330
0
330
0
330
0
330
0
330
0
330
0
330
0
330
0
330
0
330
0
330
0
330
0
330
0
330
0
330
0
330
0
330
0
330
0
330
0
330
0
330
0
330
0
330
0
330
0
330
0
330
0
330
0
330
0
330
0
330
0
330
0
330
0
330
0
330
0
330
0
330
0
330
0
330
0
330
0
330
0
330
0
330
0
330
0
330
0
330
0
330
0
330
0
330
0
330
0
330
0
330
0
330
0
330
0
330
0
330
0
330
0
330
0
330
0
330
0
330
0
330
0
330
0
330
0
330
0
330
0
330
0
330
0
330
0
330
0
330
0
330
0
330
0
330
0
330
0
330
0
330
0
330
0
330
0
330
0
330
0
330
0
330
0
330
0
330
0
330
0
330
0
330
0
330
0
330
0
330
0
330
0
330
0
330
0
330
0
330
0
330
0
330
0
330
0
330
0
330
0
330
0
330
0
330
0
330
0
330
0
330
0
330
0
330
0
330
0
330
0
330
0
330
0
330
0
330
0
330
0
330
0
330
0
330
0
330
0
330
0
330
0
330
0
330
0
330
0
330
0
330
0
330
0
330
0
330
0
330
0
330
0
330
0
330
0
330
0
330
0
330
0
330
0
330
0
330
0
330
0
330
0
330
0
330
0
330
0
330
0
330
0
330
0
330
0
330
0
330
0
330
0
330
0
330
0
330
0
330
0
330
0
330
0
330
0
330
0
330
0
330
0
330
0
330
0
330
0
330
0
330
0
330
0
330
0
330
0
330
0
330
0
330
0
330
0
330
0
330
0
330
0
330
0
330
0
330
0
330
0
330
0
330
0
330
0
330
0
330
0
330
0
330
0
330
0
330
0
330
0
330
0
330
0
330
0
330
0
330
0
330
0
330
0
330
0
330
0
330
0
330
0
330
0
330
0
330
0
330
0
330
0
330
0
330
0
330
0
330
0
330
0
330
0
330
0
330
0
330
0
330
0
330
0
330
0
330
0
330
0
330
0
330
0
330
0
330
0
330
0
330
0
330
0
330
0
330
0
330
0
330
0
330
0
330
0
330
0
330
0
330
0
330
0
330
0
330
0
330
0
330
0
330
0
330
0
330
0
330
0
330
0
330
0
330
0
330
0
330
0
330
0
330
0
330
0
330
0
330
0
330
0
330
0
330
0
330
0
330
0
330
0
330
0
330
0
330
0
330
0
330
0
330
0
330
0
330
0
330
0
330
0
330
0
330
0
330
0
330
0
330
0
330
0
330
0
330
0
330
0
330
0
330
0
330
0
330
0
330
0
330
0
330
0
330
0
330
0
330
0
330
0
330
0
330
0
330
0
330
0
330
0
330
0
330
0
330
0
330
0
330
0
330
0
330
0
330
0
330
0
330
0
330
0
330
0
330
0
330
0
330
0
330
0
330
0
330
0
330
0
330
0
330
0
330
0
330
0
330
0
330
0
330
0
330
0
330
0
330
0
330
0
330
0
330
0
330
0
330
0
330
0
330
0
330
0
330
0
330
0
330
0
330
0
330
0
330
0
330
0
330
0
330
0
330
0
330
0
330
0
330
0
330
0
330
0
330
0
330
0
330
0
330
0
330
0
330
0
330
0
330
0
330
0
330
0
330
0
330
0
330
0
330
0
330
0
330
0
330
0
330
0
330
0
330
0
330
0
330
0
330
0
330
0
330
0
330
0
330
0
330
0
330
0
330
0
330
0
330
0
330
0
330
0
330
0
330
0
330
0
330
0
330
0
330
0
330
0
330
0
330
0
330
0
330
0
330
0
330
0
330
0
330
0
330
0
330
0
330
0
330
0
330
0
330
0
330
0
330
0
330
0
330
0
330
0
330
0
330
0
330
0
330
0
330
0
330
0
330
0
330
0
330
0
330
0
330
0
330
0
330
0
330
0
330
0
330
0
330
0
330
0
330
0
330
0
330
0
330
0
330
0
330
0
330
0
330
0
330
0
330
0
330
0
330
0
330
0
330
0
330
0
330
0
330
0
330
0
330
0
330
0
330
0
330
0
330
0
330
0
330
0
330
0
330
0
330
0
330
0
330
0
330
0
330
0
330
0
330
0
330
0
330
0
330
0
330
0
330
0
330
0
330
0
330
0
330
0
330
0
330
0
330
0
330
0
330
0
330
0
330
0
330
0
330
0
330
0
330
0
330
0
330
0
330
0
330
0
330
0
330
0
330
0
330
0
330
0
330
0
330
0
330
0
330
0
330
0
330
0
330
0
330
0
330
0
330
0
330
0
330
0
330
0
330
0
330
0
330
0
330
0
330
0
330
0
330
0
330
0
330
0
330
0
330
0
330
0
330
0
330
0
330
0
330
0
330
0
330
0
330
0
330
0
330
0
330
0
330
0
330
0
330
0
330
0
330
0
330
0
330
0
330
0
330
0
330
0
330
0
330
0
330
0
330
0
330
0
330
0
330
0
330
0
330
0
330
0
330
0
330
0
330
0
330
0
330
0
330
0
330
0
330
0
330
0
330
0
330
0
330
0
330
0
330
0
330
0
330
0
330
0
330
0
330
0
330
0
330
0
330
0
330
0
330
0
330
0
330
0
330
0
330
0
330
0
330
0
330
0
330
0
330
0
330
0
330
0
330
0
330
0
330
0
330
0
330
0
330
0
330
0
330
0
330
0
330
0
330
0
330
0
330
0
330
0
330
0
330
0
330
0
330
0
330
0
330
0
330
0
330
0
330
0
330
0
330
0
330
0
330
0
330
0
330
0
330
0
330
0
330
0
330
0
330
0
330
0
330
0
330
0
330
0
330
0
330
0
330
0
330
0
330
0
330
0
330
0
330
0
330
0
330
0
330
0
330
0
330
0
330
0
330
0
330
0
330
0
330
0
330
0
330
0
330
0
330
0
330
0
330
0
330
0
330
0
330
0
330
0
330
0
330
0
330
0
330
0
330
0
330
0
330
0
330
0
330
0
330
0
330
0
330
0
330
0
330
0
330
0
330
0
330
0
330
0
330
0
330
0
330
0
330
0
330
0
330
0
330
0
330
0
330
0
330
0
330
0
330
0
330
0
330
0
330
0
330
0
330
0
330
0
330
0
330
0
330
0
330
0
330
0
330
0
330
0
330
0
330
0
330
0
330
0
330
0
330
0
330
0
330
0
330
0
330
0
330
0
330
0
330
0
330
0
330
0
330
0
330
0
330
0
330
0
330
0
330
0
330
0
330
0
330
0
330
0
330
0
330
0
330
0
330
0
330
0
330
0
330
0
330
0
330
0
330
0
330
0
330
0
330
0
330
0
330
0
330
0
330
0
330
0
330
0
330
0
330
0
330
0
330
0
330
0
330
0
330
0
330
0
330
0
330
0
330
0
330
0
330
0
330
0
330
0
330
0
330
0
330
0
330
0
330
0
330
0
330
0
330
0
330
0
330
0
330
0
330
0
330
0
330
0
330
0
330
0
330
0
330
0
330
0
330
0
330
0
330
0
330
0
330
0
330
0
330
0
330
0
330
0
330
0
330
0
330
0
330
0
330
0
330
0
330
0
330
0
330
0
330
0
330
0
330
0
330
0
330
0
330
0
330
0
330
0
330
0
330
0
330
0
330
0
330
0
330
0
330
0
330
0
330
0
330
0
330
0
330
0
330
0
330
0
330
0
330
0
330
0
330
0
330
0
330
0
330
0
330
0
330
0
330
0
330
0
330
0
330
0
330
0
330
0
330
0
330
0
330
0
330
0
330
0
330
0
330
0
330
0
330
0
330
0
330
0
330
0
330
0
330
0
330
0
330
0
330
0
330
0
330
0
330
0
330
0
330
0
330
0
330
0
330
0
330
0
330
0
330
0
330
0
330
0
330
0
330
0
330
0
330
0
330
0
330
0
330
0
330
0
330
0
330
0
330
0
330
0
330
0
330
0
330
0
330
0
330
0
330
0
330
0
330
0
330
0
330
0
330
0
330
0
330
0
330
0
330
0
330
0
330
0
330
0
330
0
330
0
330
0
330
0
330
0
330
0
330
0
330
0
330
0
330
0
330
0
330
0
330
0
330
0
330
0
330
0
330
0
330
0
330
0
330
0
330
0
330
0
330
0
330
0
330
0
330
0
330
0
330
0
330
0
330
0
330
0
330
0
330
0
330
0
330
0
330
0
330
0
330
0
330
0
330
0
330
0
330
0
330
0
330
0
330
0
330
0
330
0
330
0
330
0
330
0
330
0
330
0
330
0
330
0
330
0
330
0
330
0
330
0
330
0
330
0
330
0
330
0
330
0
330
0
330
0
330
0
330
0
330
0
330
0
330
0
330
0
330
0
330
0
330
0
330
0
330
0
330
0
330
0
330
0
330
0
330
0
330
0
330
0
330
0
330
0
330
0
330
0
330
0
330
0
330
0
330
0
330
0
330
0
330
0
330
0
330
0
330
0
330
0
330
0
330
0
330
0
330
0
330
0
330
0
330
0
330
0
330
0
330
0
330
0
330
0
330
0
330
0
330
0
330
0
330
0
330
0
330
0
330
0
330
0
330
0
330
0
330
0
330
0
330
0
330
0
330
0
330
0
330
0
330
0
330
0
330
0
330
0
330
0
330
0
330
0
330
0
330
0
330
0
330
0
330
0
330
0
330
0
330
0
330
0
330
0
330
0
330
0
330
0
330
0
330
0
330
0
330
0
330
0
330
0
330
0
330
0
330
0
330
0
330
0
330
0
330
0
330
0
330
0
330
0
330
0
330
0
330
0
330
0
330
0
330
0
330
0
330
0
330
0
330
0
330
0
330
0
330
0
330
0
330
0
330
0
330
0
330
0
330
0
330
0
330
0
330
0
330
0
330
0
330
0
330
0
330
0
330
0
330
0
330
0
330
0
330
0
330
0
330
0
330
0
330
0
330
0
330
0
330
0
330
0
330
0
330
0
330
0
330
0
330
0
330
0
330
0
330
0
330
0
330
0
330
0
330
0
330
0
330
0
330
0
330
0
330
0
330
0
330
0
330
0
330
0
330
0
330
0
330
0
330
0
330
0
330
0
330
0
330
0
330
0
330
0
330
0
330
0
330
0
330
52F36
330
52F37
330
52F3F
330
52F40
330
52F63
330
52F64
330
52F48
330
52F49
330
52F51
330
52F52
330
52F5A
330
52F5B
330
52F7E
330
52F7F
330
52F87
330
52F88
330
52F90
330
52F91
330
52F99
330
52F9A
330
52FA2
330
52FA3
330
52FAB
330
52FAC
330
52FB4
330
52FB5
330
52FBF
330
52FC0
330
52FC9
330
52FCA
330
554C0
330
554C1
330
52FDD
330
52FDE
330
0
330
0
330
0
330
0
330
0
330
0
330
0
330
0
330
0
330
0
330
0
330
0
330
0
330
0
330
0
330
0
330
0
330
0
330
0
330
0
330
0
330
0
330
0
330
0
330
0
330
0
330
0
330
0
330
0
330
0
330
0
330
0
330
0
330
0
330
0
330
0
330
0
330
0
330
0
330
0
330
0
330
0
330
0
330
0
330
0
330
0
330
0
330
0
330
0
330
0
330
0
330
0
330
0
330
0
330
0
330
0
330
0
330
0
330
0
330
0
330
0
330
0
330
0
330
0
330
0
330
0
330
0
330
0
330
0
330
0
330
0
330
0
330
0
330
0
330
0
330
0
330
0
330
0
330
0
330
0
330
0
330
0
330
0
330
0
330
0
330
0
330
0
330
0
330
0
330
0
330
0
330
0
330
0
330
0
330
0
330
0
330
0
330
0
330
0
330
0
330
0
330
0
330
0
330
0
330
0
330
0
330
0
330
0
330
0
330
0
330
0
330
0
330
0
330
0
330
0
330
0
330
0
330
0
330
0
330
0
330
0
330
0
330
0
330
0
330
0
330
0
330
0
330
0
330
0
330
0
330
0
330
0
330
0
330
0
330
0
330
0
330
0
330
0
330
0
330
0
330
0
330
0
330
0
330
0
330
0
330
0
330
0
330
0
330
0
330
0
330
0
330
0
330
0
330
0
330
0
330
0
330
0
330
0
330
0
330
0
330
0
330
0
330
0
330
0
330
0
330
0
330
0
330
0
330
0
330
0
330
0
330
0
330
0
330
0
330
0
330
0
330
0
330
0
330
0
330
0
330
0
330
0
330
0
330
0
330
0
330
0
330
0
330
0
330
0
330
0
330
0
330
0
330
0
330
0
330
0
330
0
330
0
330
0
330
0
330
0
330
0
330
0
330
0
330
0
330
0
330
0
330
0
330
0
330
0
330
0
330
0
330
0
330
0
330
0
330
0
330
0
330
0
330
0
330
0
330
0
330
0
330
0
330
0
330
0
330
0
330
0
330
0
330
0
330
0
330
0
330
0
330
0
330
0
330
0
330
0
330
0
330
0
330
0
330
0
330
0
330
0
330
0
330
0
330
0
330
0
330
0
330
0
330
0
330
0
330
0
330
0
330
0
330
0
330
0
330
0
330
0
330
0
330
0
330
0
330
0
330
0
330
0
330
0
330
0
330
0
330
0
330
0
330
0
330
0
330
0
330
0
330
0
330
0
330
0
330
0
330
0
330
0
330
0
330
0
330
0
330
0
330
0
330
0
330
0
330
0
330
0
330
0
330
0
330
0
330
0
330
0
330
0
330
0
330
0
330
0
330
0
330
0
330
0
330
0
330
0
330
0
330
0
330
0
330
0
330
0
330
0
330
0
330
0
330
0
330
0
330
0
330
0
330
0
330
0
330
0
330
0
330
0
330
0
330
0
330
0
330
0
330
0
330
0
330
0
330
0
330
0
330
0
330
0
330
0
330
0
330
554FC
330
554FD
330
55524
330
55525
330
0
330
0
330
0
330
0
330
0
330
0
330
0
330
0
330
0
330
0
330
0
330
0
330
0
330
0
330
0
330
0
330
0
330
0
330
0
330
0
330
0
330
0
330
0
330
0
330
0
330
0
330
0
330
0
330
0
330
0
330
0
330
0
330
0
330
0
330
0
330
0
330
0
330
0
330
0
330
0
330
0
330
0
330
0
330
0
330
0
330
0
330
0
330
0
330
0
330
0
330
0
330
0
330
0
330
0
330
0
330
0
330
0
330
0
330
0
330
0
330
0
330
0
330
0
330
0
330
0
330
0
330
0
330
0
330
0
330
0
330
0
330
0
330
0
330
0
330
0
330
0
330
0
330
0
330
0
330
0
330
0
330
0
330
0
330
0
330
0
330
0
330
0
330
0
330
0
330
0
330
0
330
0
330
0
330
0
330
0
330
0
330
0
330
0
330
0
330
0
330
0
330
0
330
0
330
0
330
0
330
0
330
0
330
0
330
0
330
0
330
0
330
0
330
0
330
0
330
0
330
0
330
0
330
0
330
0
330
0
330
0
330
0
330
0
330
0
330
0
330
0
330
0
330
0
330
0
330
0
330
0
330
0
330
0
330
0
330
0
330
0
330
0
330
0
330
0
330
0
330
0
330
0
330
0
330
0
330
0
330
0
330
0
330
0
330
0
330
0
330
0
330
0
330
0
330
0
330
0
330
0
330
0
330
0
330
0
330
0
330
0
330
0
330
0
330
0
330
0
330
0
330
0
330
0
330
0
330
0
330
0
330
0
330
0
330
0
330
0
330
0
330
0
330
0
330
0
330
0
330
0
330
0
330
0
330
0
330
0
330
0
330
0
330
0
330
0
330
0
330
0
330
0
330
0
330
0
330
0
330
0
330
0
330
0
330
0
330
0
330
0
330
0
330
0
330
0
330
0
330
0
330
0
330
0
330
0
330
0
330
0
330
0
330
0
330
0
330
0
330
0
330
0
330
0
330
0
330
0
330
0
330
0
330
0
330
0
330
0
330
0
330
0
330
0
330
0
330
0
330
0
330
0
330
0
330
0
330
0
330
0
330
0
330
0
330
0
330
0
330
0
330
0
330
0
330
0
330
0
330
0
330
0
330
0
330
0
330
0
330
0
330
0
330
0
330
0
330
0
330
0
330
0
330
0
330
0
330
0
330
0
330
0
330
0
330
0
330
0
330
0
330
0
330
0
330
0
330
0
330
0
330
0
330
0
330
0
330
0
330
0
330
0
330
0
330
0
330
0
330
0
330
0
330
0
330
0
330
0
330
0
330
0
330
0
330
0
330
0
330
0
330
0
330
0
330
0
330
0
330
0
330
0
330
0
330
0
330
0
330
0
330
0
330
0
330
0
330
0
330
0
330
0
330
0
330
0
330
0
330
0
330
0
330
0
330
0
330
0
330
0
330
0
330
0
330
0
330
0
  0
XRECORD
  5
3FB7
102
{ACAD_REACTORS
330
3F96
102
}
330
3F96
100
AcDbXrecord
280
     1
 91
        3
330
0
 90
        8
 62
     7
370
    40
331
16
  1
Color_7
330
0
 90
        0
 62
    14
370
    -3
331
16
  1
Color_14
330
0
 90
        8
 62
     7
370
    20
331
16
  1
Color_7
330
6D1
 90
        0
 62
     7
370
    -3
331
16
  1
Color_7
330
0
 90
        8
 62
     7
370
    50
331
16
  1
Color_7
330
0
 90
        8
 62
     2
370
    35
331
16
  1
Color_2
330
0
 90
        8
 62
     7
370
    -3
331
16
  1
Color_7
330
10
 90
        8
 62
     7
370
    -3
331
16
  1
Color_7
  0
DICTIONARY
  5
5B606
330
22
100
AcDbDictionary
280
     1
281
     1
  3
ACAD_XREC_ROUNDTRIP
360
5B607
  0
DICTIONARY
  5
5B604
330
1E
100
AcDbDictionary
280
     1
281
     1
  3
ACAD_XREC_ROUNDTRIP
360
5B605
  0
DICTIONARY
  5
5B608
330
26
100
AcDbDictionary
280
     1
281
     1
  3
ACAD_XREC_ROUNDTRIP
360
5B609
  0
DICTIONARY
  5
5B60E
330
B0EF
100
AcDbDictionary
280
     1
281
     1
  3
ACAD_XREC_ROUNDTRIP
360
5B60F
  0
DICTIONARY
  5
5B60C
330
B0EE
100
AcDbDictionary
280
     1
281
     1
  3
ACAD_XREC_ROUNDTRIP
360
5B60D
  0
DICTIONARY
  5
5B610
330
B0F0
100
AcDbDictionary
280
     1
281
     1
  3
ACAD_XREC_ROUNDTRIP
360
5B611
  0
DICTIONARY
  5
5B60A
330
AABA
100
AcDbDictionary
280
     1
281
     1
  3
ACAD_XREC_ROUNDTRIP
360
5B60B
  0
XRECORD
  5
5B607
102
{ACAD_REACTORS
330
5B606
102
}
330
5B606
100
AcDbXrecord
280
     1
102
SHADEPLOT
 70
     0
102
SHADEPLOTRESLEVEL
 70
     2
102
SHADEPLOTCUSTOMDPI
 70
   200
  0
XRECORD
  5
5B605
102
{ACAD_REACTORS
330
5B604
102
}
330
5B604
100
AcDbXrecord
280
     1
102
SHADEPLOT
 70
     0
102
SHADEPLOTRESLEVEL
 70
     2
102
SHADEPLOTCUSTOMDPI
 70
   300
  0
XRECORD
  5
5B609
102
{ACAD_REACTORS
330
5B608
102
}
330
5B608
100
AcDbXrecord
280
     1
102
SHADEPLOT
 70
     0
102
SHADEPLOTRESLEVEL
 70
     2
102
SHADEPLOTCUSTOMDPI
 70
   300
  0
XRECORD
  5
5B60F
102
{ACAD_REACTORS
330
5B60E
102
}
330
5B60E
100
AcDbXrecord
280
     1
102
MATERIAL
148
0.0
149
0.0
149
0.0
 93
        0
 94
       63
282
     0
 72
     1
 77
     1
171
     1
175
     1
179
     1
273
     0
  0
XRECORD
  5
5B60D
102
{ACAD_REACTORS
330
5B60C
102
}
330
5B60C
100
AcDbXrecord
280
     1
102
MATERIAL
148
0.0
149
0.0
149
0.0
 93
        0
 94
       63
282
     0
 72
     1
 77
     1
171
     1
175
     1
179
     1
273
     0
  0
XRECORD
  5
5B611
102
{ACAD_REACTORS
330
5B610
102
}
330
5B610
100
AcDbXrecord
280
     1
102
MATERIAL
148
0.0
149
0.0
149
0.0
 93
        0
 94
       63
282
     0
 72
     1
 77
     1
171
     1
175
     1
179
     1
273
     0
  0
XRECORD
  5
5B60B
102
{ACAD_REACTORS
330
5B60A
102
}
330
5B60A
100
AcDbXrecord
280
     1
102
ACAD_ROUNDTRIP_PRE2007_TABLESTYLE
 90
        4
 91
        0
  1

 92
        4
 93
        0
  2

 94
        4
 95
        0
  3

  0
ENDSEC
  0
EOF
