  0
SECTION
  2
HEADER
  9
$ACADVER
  1
AC1015
  9
$ACADMAINTVER
 70
    20
  9
$DWGCODEPAGE
  3
ANSI_932
  9
$INSBASE
 10
0.0
 20
0.0
 30
0.0
  9
$EXTMIN
 10
6074.514852621241
 20
-4570.679267436578
 30
-0.0015258207003583
  9
$EXTMAX
 10
6372.43854128965
 20
-4359.316818848379
 30
0.0000000349246037
  9
$LIMMIN
 10
3779.599158088851
 20
100.7134268036752
  9
$LIMMAX
 10
9719.599158088852
 20
4300.713426803675
  9
$ORTHOMODE
 70
     0
  9
$REGENMODE
 70
     1
  9
$FILLMODE
 70
     1
  9
$QTEXTMODE
 70
     0
  9
$MIRRTEXT
 70
     0
  9
$LTSCALE
 40
1.0
  9
$ATTMODE
 70
     1
  9
$TEXTSIZE
 40
3.2
  9
$TRACEWID
 40
1.0
  9
$TEXTSTYLE
  7
STANDARD
  9
$CLAYER
  8
0部品18
  9
$CELTYPE
  6
ByLayer
  9
$CECOLOR
 62
   256
  9
$CELTSCALE
 40
1.0
  9
$DISPSILH
 70
     0
  9
$DIMSCALE
 40
1.0
  9
$DIMASZ
 40
1.0
  9
$DIMEXO
 40
1.0
  9
$DIMDLI
 40
10.0
  9
$DIMRND
 40
0.0
  9
$DIMDLE
 40
0.0
  9
$DIMEXE
 40
1.0
  9
$DIMTP
 40
0.1
  9
$DIMTM
 40
0.1
  9
$DIMTXT
 40
3.5
  9
$DIMCEN
 40
0.0
  9
$DIMTSZ
 40
0.0
  9
$DIMTOL
 70
     0
  9
$DIMLIM
 70
     0
  9
$DIMTIH
 70
     0
  9
$DIMTOH
 70
     0
  9
$DIMSE1
 70
     0
  9
$DIMSE2
 70
     0
  9
$DIMTAD
 70
     1
  9
$DIMZIN
 70
     8
  9
$DIMBLK
  1

  9
$DIMASO
 70
     1
  9
$DIMSHO
 70
     1
  9
$DIMPOST
  1

  9
$DIMAPOST
  1
"
  9
$DIMALT
 70
     0
  9
$DIMALTD
 70
     2
  9
$DIMALTF
 40
0.0393701
  9
$DIMLFAC
 40
1.0
  9
$DIMTOFL
 70
     1
  9
$DIMTVP
 40
0.0
  9
$DIMTIX
 70
     0
  9
$DIMSOXD
 70
     0
  9
$DIMSAH
 70
     0
  9
$DIMBLK1
  1

  9
$DIMBLK2
  1

  9
$DIMSTYLE
  2
SYS
  9
$DIMCLRD
 70
   256
  9
$DIMCLRE
 70
   256
  9
$DIMCLRT
 70
     7
  9
$DIMTFAC
 40
0.71
  9
$DIMGAP
 40
1.5
  9
$DIMJUST
 70
     0
  9
$DIMSD1
 70
     0
  9
$DIMSD2
 70
     0
  9
$DIMTOLJ
 70
     0
  9
$DIMTZIN
 70
     8
  9
$DIMALTZ
 70
     0
  9
$DIMALTTZ
 70
     0
  9
$DIMUPT
 70
     0
  9
$DIMDEC
 70
     2
  9
$DIMTDEC
 70
     2
  9
$DIMALTU
 70
     2
  9
$DIMALTTD
 70
     2
  9
$DIMTXSTY
  7
STANDARD
  9
$DIMAUNIT
 70
     0
  9
$DIMADEC
 70
     0
  9
$DIMALTRND
 40
0.0
  9
$DIMAZIN
 70
     2
  9
$DIMDSEP
 70
    46
  9
$DIMATFIT
 70
     3
  9
$DIMFRAC
 70
     0
  9
$DIMLDRBLK
  1

  9
$DIMLUNIT
 70
     2
  9
$DIMLWD
 70
    -1
  9
$DIMLWE
 70
    -1
  9
$DIMTMOVE
 70
     0
  9
$LUNITS
 70
     2
  9
$LUPREC
 70
     2
  9
$SKETCHINC
 40
1.0
  9
$FILLETRAD
 40
1.5
  9
$AUNITS
 70
     0
  9
$AUPREC
 70
     0
  9
$MENU
  1
.
  9
$ELEVATION
 40
0.0
  9
$PELEVATION
 40
0.0
  9
$THICKNESS
 40
0.0
  9
$LIMCHECK
 70
     0
  9
$CHAMFERA
 40
0.0
  9
$CHAMFERB
 40
0.0
  9
$CHAMFERC
 40
20.0
  9
$CHAMFERD
 40
0.0
  9
$SKPOLY
 70
     0
  9
$TDCREATE
 40
2455567.680725081
  9
$TDUCREATE
 40
2455567.305725081
  9
$TDUPDATE
 40
2456268.496912801
  9
$TDUUPDATE
 40
2456268.121912801
  9
$TDINDWG
 40
7.9809247917
  9
$TDUSRTIMER
 40
7.9809231597
  9
$USRTIMER
 70
     1
  9
$ANGBASE
 50
0.0
  9
$ANGDIR
 70
     0
  9
$PDMODE
 70
     0
  9
$PDSIZE
 40
-3.0
  9
$PLINEWID
 40
0.0
  9
$SPLFRAME
 70
     0
  9
$SPLINETYPE
 70
     6
  9
$SPLINESEGS
 70
     8
  9
$HANDSEED
  5
5B2BA
  9
$SURFTAB1
 70
     6
  9
$SURFTAB2
 70
     6
  9
$SURFTYPE
 70
     6
  9
$SURFU
 70
     6
  9
$SURFV
 70
     6
  9
$UCSBASE
  2

  9
$UCSNAME
  2

  9
$UCSORG
 10
0.0
 20
0.0
 30
0.0
  9
$UCSXDIR
 10
1.0
 20
0.0
 30
0.0
  9
$UCSYDIR
 10
0.0
 20
1.0
 30
0.0
  9
$UCSORTHOREF
  2

  9
$UCSORTHOVIEW
 70
     0
  9
$UCSORGTOP
 10
0.0
 20
0.0
 30
0.0
  9
$UCSORGBOTTOM
 10
0.0
 20
0.0
 30
0.0
  9
$UCSORGLEFT
 10
0.0
 20
0.0
 30
0.0
  9
$UCSORGRIGHT
 10
0.0
 20
0.0
 30
0.0
  9
$UCSORGFRONT
 10
0.0
 20
0.0
 30
0.0
  9
$UCSORGBACK
 10
0.0
 20
0.0
 30
0.0
  9
$PUCSBASE
  2

  9
$PUCSNAME
  2

  9
$PUCSORG
 10
0.0
 20
0.0
 30
0.0
  9
$PUCSXDIR
 10
1.0
 20
0.0
 30
0.0
  9
$PUCSYDIR
 10
0.0
 20
1.0
 30
0.0
  9
$PUCSORTHOREF
  2

  9
$PUCSORTHOVIEW
 70
     0
  9
$PUCSORGTOP
 10
0.0
 20
0.0
 30
0.0
  9
$PUCSORGBOTTOM
 10
0.0
 20
0.0
 30
0.0
  9
$PUCSORGLEFT
 10
0.0
 20
0.0
 30
0.0
  9
$PUCSORGRIGHT
 10
0.0
 20
0.0
 30
0.0
  9
$PUCSORGFRONT
 10
0.0
 20
0.0
 30
0.0
  9
$PUCSORGBACK
 10
0.0
 20
0.0
 30
0.0
  9
$USERI1
 70
     0
  9
$USERI2
 70
     0
  9
$USERI3
 70
     0
  9
$USERI4
 70
     0
  9
$USERI5
 70
     0
  9
$USERR1
 40
0.0
  9
$USERR2
 40
0.0
  9
$USERR3
 40
0.0
  9
$USERR4
 40
0.0
  9
$USERR5
 40
0.0
  9
$WORLDVIEW
 70
     1
  9
$SHADEDGE
 70
     3
  9
$SHADEDIF
 70
    70
  9
$TILEMODE
 70
     1
  9
$MAXACTVP
 70
    64
  9
$PINSBASE
 10
0.0
 20
0.0
 30
0.0
  9
$PLIMCHECK
 70
     0
  9
$PEXTMIN
 10
1.000000000000000E+20
 20
1.000000000000000E+20
 30
1.000000000000000E+20
  9
$PEXTMAX
 10
-1.000000000000000E+20
 20
-1.000000000000000E+20
 30
-1.000000000000000E+20
  9
$PLIMMIN
 10
-3.17498779296875
 20
-3.174999952316284
  9
$PLIMMAX
 10
293.4970092773438
 20
206.692492723465
  9
$UNITMODE
 70
     0
  9
$VISRETAIN
 70
     1
  9
$PLINEGEN
 70
     0
  9
$PSLTSCALE
 70
     1
  9
$TREEDEPTH
 70
  3020
  9
$CMLSTYLE
  2
Standard
  9
$CMLJUST
 70
     0
  9
$CMLSCALE
 40
20.0
  9
$PROXYGRAPHICS
 70
     1
  9
$MEASUREMENT
 70
     1
  9
$CELWEIGHT
370
    -1
  9
$ENDCAPS
280
     0
  9
$JOINSTYLE
280
     0
  9
$LWDISPLAY
290
     1
  9
$INSUNITS
 70
     4
  9
$HYPERLINKBASE
  1

  9
$STYLESHEET
  1
monochrome.ctb
  9
$XEDIT
290
     1
  9
$CEPSNTYPE
380
     0
  9
$PSTYLEMODE
290
     1
  9
$FINGERPRINTGUID
  2
{487E49EE-344A-43F6-800E-CE119D8346FF}
  9
$VERSIONGUID
  2
{BD576260-A569-4920-87BF-CBD29FD2F95E}
  9
$EXTNAMES
290
     1
  9
$PSVPSCALE
 40
0.0
  9
$OLESTARTUP
290
     0
  0
ENDSEC
  0
SECTION
  2
CLASSES
  0
CLASS
  1
ACDBDICTIONARYWDFLT
  2
AcDbDictionaryWithDefault
  3
ObjectDBX Classes
 90
        0
280
     0
281
     0
  0
CLASS
  1
ACDBPLACEHOLDER
  2
AcDbPlaceHolder
  3
ObjectDBX Classes
 90
        0
280
     0
281
     0
  0
CLASS
  1
LAYOUT
  2
AcDbLayout
  3
ObjectDBX Classes
 90
        0
280
     0
281
     0
  0
CLASS
  1
AMGSETTINGSOBJ
  2
AmgSettingsObj
  3
"AcadM|Product Description: AutoCAD Mechanical|Company: Autodesk"
 90
        0
280
     0
281
     0
  0
CLASS
  1
ACME_DOCUMENT
  2
AcMeDbDoc
  3
AcMeServices
 90
        0
280
     0
281
     0
  0
CLASS
  1
ACMESCOPE
  2
AcMeScope
  3
AcMeServices
 90
        0
280
     0
281
     0
  0
CLASS
  1
ACMECOMMANDHISTORY
  2
AcMeCommandHistory
  3
AcMeServices
 90
        0
280
     0
281
     0
  0
CLASS
  1
DICTIONARYVAR
  2
AcDbDictionaryVar
  3
ObjectDBX Classes
 90
        0
280
     0
281
     0
  0
CLASS
  1
ACIMSYSVARMAN
  2
AcImSysVarManager
  3
AcMeServices
 90
        0
280
     0
281
     0
  0
CLASS
  1
ACIMREALSYSVAR
  2
AcImRealSysVar
  3
AcMeServices
 90
        0
280
     0
281
     0
  0
CLASS
  1
ACIMINTSYSVAR
  2
AcImIntSysVar
  3
AcMeServices
 90
        0
280
     0
281
     0
  0
CLASS
  1
ACMEDRAWINGMAN
  2
AcMeDrawingMan
  3
AcMeServices
 90
        0
280
     0
281
     0
  0
CLASS
  1
ACMEVIEW
  2
AcMeView
  3
AcMeServices
 90
        0
280
     0
281
     0
  0
CLASS
  1
ACDBENTITYCACHE
  2
AcMeEntityCache
  3
AcMeServices
 90
        0
280
     0
281
     0
  0
CLASS
  1
GSMANAGER
  2
AcMeGSManager
  3
AcMeServices
 90
        0
280
     0
281
     0
  0
CLASS
  1
AMDTINTERNALREACTOR
  2
AmdtInternalReactor
  3
AcMeServices
 90
        0
280
     0
281
     0
  0
CLASS
  1
ACMESTATEMGR
  2
AcMeStateMgr
  3
AcMeServices
 90
        0
280
     0
281
     0
  0
CLASS
  1
ACGREFMASTER
  2
AcGrefMaster
  3
AcAttribServices
 90
        0
280
     0
281
     0
  0
CLASS
  1
ACME_DATABASE
  2
AcMeDbDatabase
  3
AcMeServices
 90
        0
280
     0
281
     0
  0
CLASS
  1
ACRFINSADJUSTERMGR
  2
AcRfInsAdjusterMgr
  3
AcMeServices
 90
        0
280
     0
281
     0
  0
CLASS
  1
ACGREFACADMASTER
  2
AcGrefacadMaster
  3
AcGrefServices
 90
        0
280
     0
281
     0
  0
CLASS
  1
AMIMASTER
  2
AmiMaster
  3
AmiServices
 90
        0
280
     0
281
     0
  0
CLASS
  1
ACMDATADICTIONARY
  2
AcmDataDictionary
  3
"AcmSymBB|Product Description: AutoCAD Mechanical|Company: Autodesk"
 90
        0
280
     0
281
     0
  0
CLASS
  1
ACMDATAENTRYBLOCK
  2
AcmDataEntryBlock
  3
"AcmSymBB|Product Description: AutoCAD Mechanical|Company: Autodesk"
 90
        0
280
     0
281
     0
  0
CLASS
  1
ACIMSTRSYSVAR
  2
AcImStrSysVar
  3
AcMeServices
 90
        0
280
     0
281
     0
  0
CLASS
  1
ACMSTANDARDISO
  2
AcmStandardISO
  3
"Amdt_StdImp|Product Description: AutoCAD Mechanical|Company: Autodesk"
 90
        0
280
     0
281
     0
  0
CLASS
  1
AMGOBJPROPCFG
  2
AmgObjPropCfg
  3
"AmgLay|Product Description: AutoCAD Mechanical|Company: Autodesk"
 90
        1
280
     0
281
     0
  0
CLASS
  1
AMDTEDGESTANDARDISO
  2
AmdtEdgeStdISO
  3
"Amdt_StdImp|Product Description: AutoCAD Mechanical|Company: Autodesk"
 90
        0
280
     0
281
     0
  0
CLASS
  1
ACMSURFSTANDARDISO
  2
AcmSurfTextStdISO
  3
"Amdt_StdImp|Product Description: AutoCAD Mechanical|Company: Autodesk"
 90
        0
280
     0
281
     0
  0
CLASS
  1
ACMFCFSTANDARDISO
  2
AcmFCFStdISO
  3
"Amdt_StdImp|Product Description: AutoCAD Mechanical|Company: Autodesk"
 90
        0
280
     0
281
     0
  0
CLASS
  1
ACMWELDSTANDARDISO
  2
AcmWeldingStdISO
  3
"Amdt_StdImp|Product Description: AutoCAD Mechanical|Company: Autodesk"
 90
        0
280
     0
281
     0
  0
CLASS
  1
ACMIDSTANDARDISO
  2
AcmIdStdISO
  3
"Amdt_StdImp|Product Description: AutoCAD Mechanical|Company: Autodesk"
 90
        0
280
     0
281
     0
  0
CLASS
  1
ACMDATUMSTANDARDISO
  2
AcmDatumStdISO
  3
"Amdt_StdImp|Product Description: AutoCAD Mechanical|Company: Autodesk"
 90
        0
280
     0
281
     0
  0
CLASS
  1
ACMBOMSTANDARDISO
  2
AcmBOMStdISO
  3
"Amdt_StdImp|Product Description: AutoCAD Mechanical|Company: Autodesk"
 90
        0
280
     0
281
     0
  0
CLASS
  1
ACMDETAILSTANDARDISO
  2
AmdtDetailSymStdISO
  3
"Amdt_StdImp|Product Description: AutoCAD Mechanical|Company: Autodesk"
 90
        0
280
     0
281
     0
  0
CLASS
  1
ACMSECTIONSTANDARDISO
  2
AmdtSectionSymStdISO
  3
"Amdt_StdImp|Product Description: AutoCAD Mechanical|Company: Autodesk"
 90
        0
280
     0
281
     0
  0
CLASS
  1
ACMCENTERLINESTANDARDISO
  2
AmdtCenterLineStdISO
  3
"Amdt_StdImp|Product Description: AutoCAD Mechanical|Company: Autodesk"
 90
        0
280
     0
281
     0
  0
CLASS
  1
ACAMGLAYSTD
  2
AcAmgLayStd
  3
"AmgLay|Product Description: AutoCAD Mechanical|Company: Autodesk"
 90
        0
280
     0
281
     0
  0
CLASS
  1
ACAMGDIMSTD
  2
AcAmgDimStd
  3
"AmgDim|Product Description: AutoCAD Mechanical|Company: Autodesk"
 90
        0
280
     0
281
     0
  0
CLASS
  1
ACAMGTITLESTD
  2
AcAmgTitleStd
  3
"AmgTitle|Product Description: AutoCAD Mechanical|Company: Autodesk"
 90
        0
280
     0
281
     0
  0
CLASS
  1
ACAMGFILTERDAT
  2
AcAmgFilterDat
  3
"AcadM|Product Description: AutoCAD Mechanical|Company: Autodesk"
 90
        0
280
     0
281
     0
  0
CLASS
  1
LAYER_INDEX
  2
AcDbLayerIndex
  3
ObjectDBX Classes
 90
    32768
280
     0
281
     0
  0
CLASS
  1
IDBUFFER
  2
AcDbIdBuffer
  3
ObjectDBX Classes
 90
    32768
280
     0
281
     0
  0
CLASS
  1
PLOTSETTINGS
  2
AcDbPlotSettings
  3
ObjectDBX Classes
 90
    32768
280
     0
281
     0
  0
CLASS
  1
AMDTFORMULAUPDATEDISPATCHER
  2
AmdtFormulaUpdateDispatcher
  3
AcMeServices
 90
        0
280
     0
281
     0
  0
CLASS
  1
ACMSTANDARDANSI
  2
AcmStandardANSI
  3
"Amdt_StdImp|Product Description: AutoCAD Mechanical|Company: Autodesk"
 90
        0
280
     0
281
     0
  0
CLASS
  1
ACMSURFSTANDARDANSI
  2
AcmSurfTextStdANSI
  3
"Amdt_StdImp|Product Description: AutoCAD Mechanical|Company: Autodesk"
 90
        0
280
     0
281
     0
  0
CLASS
  1
ACMFCFSTANDARDANSI
  2
AcmFCFStdANSI
  3
"Amdt_StdImp|Product Description: AutoCAD Mechanical|Company: Autodesk"
 90
        0
280
     0
281
     0
  0
CLASS
  1
ACMWELDSTANDARDANSI
  2
AcmWeldingStdANSI
  3
"Amdt_StdImp|Product Description: AutoCAD Mechanical|Company: Autodesk"
 90
        0
280
     0
281
     0
  0
CLASS
  1
ACMIDSTANDARDANSI
  2
AcmIdStdANSI
  3
"Amdt_StdImp|Product Description: AutoCAD Mechanical|Company: Autodesk"
 90
        0
280
     0
281
     0
  0
CLASS
  1
ACMDATUMSTANDARDANSI
  2
AcmDatumStdANSI
  3
"Amdt_StdImp|Product Description: AutoCAD Mechanical|Company: Autodesk"
 90
        0
280
     0
281
     0
  0
CLASS
  1
ACMBOMSTANDARDANSI
  2
AcmBOMStdANSI
  3
"Amdt_StdImp|Product Description: AutoCAD Mechanical|Company: Autodesk"
 90
        0
280
     0
281
     0
  0
CLASS
  1
ACMDETAILSTANDARDANSI
  2
AmdtDetailSymStdANSI
  3
"Amdt_StdImp|Product Description: AutoCAD Mechanical|Company: Autodesk"
 90
        0
280
     0
281
     0
  0
CLASS
  1
ACMSECTIONSTANDARDANSI
  2
AmdtSectionSymStdANSI
  3
"Amdt_StdImp|Product Description: AutoCAD Mechanical|Company: Autodesk"
 90
        0
280
     0
281
     0
  0
CLASS
  1
ACMCENTERLINESTANDARDANSI
  2
AmdtCenterLineStdANSI
  3
"Amdt_StdImp|Product Description: AutoCAD Mechanical|Company: Autodesk"
 90
        0
280
     0
281
     0
  0
CLASS
  1
ACMBOM
  2
AcmBom
  3
"AcmSymBB|Product Description: AutoCAD Mechanical|Company: Autodesk"
 90
        0
280
     0
281
     0
  0
CLASS
  1
ACMDATAENTRYPART
  2
AcmDataEntryPart
  3
"AcmSymBB|Product Description: AutoCAD Mechanical|Company: Autodesk"
 90
    32768
280
     0
281
     0
  0
CLASS
  1
ACMPARTREF
  2
AcmPartRef
  3
"AcmSymBB|Product Description: AutoCAD Mechanical|Company: Autodesk"
 90
    35839
280
     0
281
     1
  0
CLASS
  1
ACDBCIRCARCRES
  2
AcDbCircArcRes
  3
AcGrefServices
 90
    32768
280
     0
281
     0
  0
CLASS
  1
ACMBOMROW
  2
AcmBomRow
  3
"AcmSymBB|Product Description: AutoCAD Mechanical|Company: Autodesk"
 90
    32768
280
     0
281
     0
  0
CLASS
  1
ACMBALLOON
  2
AcmBalloon
  3
"AcmSymBB|Product Description: AutoCAD Mechanical|Company: Autodesk"
 90
    35839
280
     0
281
     1
  0
CLASS
  1
AMDTNOTE
  2
AmdtNote
  3
"AcmSymBB|Product Description: AutoCAD Mechanical|Company: Autodesk"
 90
    35839
280
     0
281
     1
  0
CLASS
  1
STDPART2D
  2
AmgStdPart
  3
"g3vace|Class: AmgStdPart|Product Description: AutoCAD Mechanical|Company: Autodesk"
 90
    35839
280
     0
281
     1
  0
CLASS
  1
ACDBSTDPARTRES_LINE
  2
AcDbStdPartRes_Line
  3
"g3vace|Class: AcDbStdPartRes_Line|Product Description: AutoCAD Mechanical|Company: Autodesk"
 90
    32768
280
     0
281
     0
  0
CLASS
  1
ACMDATAENTRY
  2
AcmDataEntry
  3
"AcmSymBB|Product Description: AutoCAD Mechanical|Company: Autodesk"
 90
        0
280
     0
281
     0
  0
CLASS
  1
ACDBOPPOLYLINERES
  2
AcDbOpPolylineRes
  3
AcGrefServices
 90
    32768
280
     0
281
     0
  0
CLASS
  1
ACMPARTLIST
  2
AcmPartList
  3
"AcmSymBB|Product Description: AutoCAD Mechanical|Company: Autodesk"
 90
    35839
280
     0
281
     1
  0
CLASS
  1
ACDBLINERES
  2
AcDbLineRes
  3
AcGrefServices
 90
        0
280
     0
281
     0
  0
CLASS
  1
ACRFINSADJ
  2
AcRfInsAdjuster
  3
AcMeServices
 90
    32768
280
     0
281
     0
  0
CLASS
  1
AM_DRAWING_MGR
  2
AcDmDwgMgr
  3
AcMechDwgViewMgmt
 90
        0
280
     0
281
     0
  0
CLASS
  1
AM_DWG_DOCUMENT
  2
AcDmDwgDocument
  3
AcMechDwgViewMgmt
 90
        0
280
     0
281
     0
  0
CLASS
  1
AM_DWG_SHEET
  2
AcDmSheet
  3
AcMechDwgViewMgmt
 90
        0
280
     0
281
     0
  0
CLASS
  1
AM_VIEWDIMPARMAP
  2
AcDmViewDimParMap
  3
AcMechDwgViewMgmt
 90
        0
280
     0
281
     0
  0
CLASS
  1
AM_DWGMGR_NAME
  2
AcDmDwgMgrName
  3
AcMechDwgViewMgmt
 90
        0
280
     0
281
     0
  0
CLASS
  1
AMDTMENUSTATEMGR
  2
AmdtMenuStateMgr
  3
McadcomServices
 90
        0
280
     0
281
     0
  0
CLASS
  1
AMDTMCOMMENUSTATE
  2
AmdtMcomMenuState
  3
McadcomServices
 90
        0
280
     0
281
     0
  0
CLASS
  1
ASAPP
  2
AcAsAppObject
  3
AutoSurfServices
 90
        0
280
     0
281
     0
  0
CLASS
  1
IM_STATIC_MAN
  2
AcImStaticVarManager
  3
AcMeServices
 90
        0
280
     0
281
     0
  0
CLASS
  1
ACIMDBLSTATICVAR
  2
AcImDblStaticVar
  3
AcMeServices
 90
        0
280
     0
281
     0
  0
CLASS
  1
ACIMSTRSTATICVAR
  2
AcImStrStaticVar
  3
AcMeServices
 90
        0
280
     0
281
     0
  0
CLASS
  1
ACIMINTSTATICVAR
  2
AcImIntStaticVar
  3
AcMeServices
 90
        0
280
     0
281
     0
  0
CLASS
  1
ACASGREFMASTER
  2
AcAsGrefMaster
  3
AutoSurfResolverServices
 90
        0
280
     0
281
     0
  0
CLASS
  1
ACADGREFMODULE
  2
AcAdGrefModule
  3
AdGrefServices
 90
        0
280
     0
281
     0
  0
CLASS
  1
AMDTMAPISURFMOUDULE
  2
AmdtMApiSurfModule
  3
MApiSurfServices
 90
        0
280
     0
281
     0
  0
CLASS
  1
MAPIAMMOUDLE
  2
MApiAmModule
  3
MApiAmServices
 90
        0
280
     0
281
     0
  0
CLASS
  1
AMDTADMENUSTATE
  2
AmdtAdMenuState
  3
DesignerServices
 90
        0
280
     0
281
     0
  0
CLASS
  1
ADAPPL
  2
AcAdAppl
  3
DesignerServices
 90
        0
280
     0
281
     0
  0
CLASS
  1
DEPMGR
  2
AcAdDepMgr
  3
DesignerServices
 90
        0
280
     0
281
     0
  0
CLASS
  1
PARAMMGR
  2
AcAdParamMgr
  3
DesignerServices
 90
        0
280
     0
281
     0
  0
CLASS
  1
PARAMSCOPE
  2
AcAdParamScope
  3
DesignerServices
 90
        0
280
     0
281
     0
  0
CLASS
  1
NAMEDAPPL
  2
AcAdNamedAppl
  3
DesignerServices
 90
        0
280
     0
281
     0
  0
CLASS
  1
ADHNTMPLT
  2
AdHoleNoteTemplateMgr
  3
DesignerServices
 90
    32768
280
     0
281
     0
  0
CLASS
  1
AM_HNTEMPLATE_MGR_NAME
  2
AdHoleNoteTemplateMgrName
  3
DesignerServices
 90
    32768
280
     0
281
     0
  0
CLASS
  1
AMDTDMMENUSTATE
  2
AmdtDmMenuState
  3
AcMechDwgViewMgmt
 90
        0
280
     0
281
     0
  0
CLASS
  1
MAPIADMODULE
  2
MApiAdModule
  3
MApiAdServices
 90
        0
280
     0
281
     0
  0
CLASS
  1
AMDTAMMENUSTATE
  2
AmdtAmMenuState
  3
DesignerAssemblies
 90
        0
280
     0
281
     0
  0
CLASS
  1
ACAMPROJECT
  2
AcAmProject
  3
DesignerAssemblies
 90
        0
280
     0
281
     0
  0
CLASS
  1
ACAMGRCOMPDEF
  2
AcAmGrCompDef
  3
DesignerAssemblies
 90
        0
280
     0
281
     0
  0
CLASS
  1
ACCMCONTEXT
  2
AcCmContext
  3
DesignerAssemblies
 90
        0
280
     0
281
     0
  0
CLASS
  1
ACAMCOMPDEF
  2
AcAmCompDef
  3
DesignerAssemblies
 90
        0
280
     0
281
     0
  0
CLASS
  1
ACAMCOMPDEFMGR
  2
AcAmCompDefMgr
  3
DesignerAssemblies
 90
        0
280
     0
281
     0
  0
CLASS
  1
AMCONTEXTMGR
  2
AcAmContextMgr
  3
DesignerAssemblies
 90
        0
280
     0
281
     0
  0
CLASS
  1
ACAMCONTEXTMODELER
  2
AcAmContextModeler
  3
DesignerAssemblies
 90
        0
280
     0
281
     0
  0
CLASS
  1
CATALOGSTATE
  2
AcAmCatalogState
  3
DesignerAssemblies
 90
        0
280
     0
281
     0
  0
CLASS
  1
ACAMGRCOMPDEFSET
  2
AcAmGrCompDefSet
  3
DesignerAssemblies
 90
        0
280
     0
281
     0
  0
CLASS
  1
AMDTBROWSERDBTAB
  2
AmdtBrowserDbTab
  3
McadcomServices
 90
        0
280
     0
281
     0
  0
CLASS
  1
CBROWSERAPPOBJECT
  2
CBrowserAppObject
  3
McadcomServices
 90
        0
280
     0
281
     0
  0
CLASS
  1
DM_PLACEHOLDER
  2
AcDmSelsetPlaceholder
  3
AcMechDwgViewMgmt
 90
        0
280
     0
281
     0
  0
CLASS
  1
ACMPICKOBJ
  2
AcmPickEnt
  3
"AcmSymBB|Product Description: AutoCAD Mechanical|Company: Autodesk"
 90
    32768
280
     0
281
     1
  0
CLASS
  1
ACMNOTESTANDARDISO
  2
AmdtNoteStdISO
  3
"Amdt_StdImp|Product Description: AutoCAD Mechanical|Company: Autodesk"
 90
        0
280
     0
281
     0
  0
CLASS
  1
ACMNOTESTANDARDANSI
  2
AmdtNoteStdANSI
  3
"Amdt_StdImp|Product Description: AutoCAD Mechanical|Company: Autodesk"
 90
        0
280
     0
281
     0
  0
CLASS
  1
ACMTHREADLINESTANDARDISO
  2
AmdtThreadLineStdISO
  3
"Amdt_StdImp|Product Description: AutoCAD Mechanical|Company: Autodesk"
 90
        0
280
     0
281
     0
  0
CLASS
  1
ACMTHREADLINESTANDARDANSI
  2
AmdtThreadLineStdANSI
  3
"Amdt_StdImp|Product Description: AutoCAD Mechanical|Company: Autodesk"
 90
        0
280
     0
281
     0
  0
CLASS
  1
TABLESTYLE
  2
AcDbTableStyle
  3
ObjectDBX Classes
 90
     4095
280
     0
281
     0
  0
CLASS
  1
SORTENTSTABLE
  2
AcDbSortentsTable
  3
ObjectDBX Classes
 90
        0
280
     0
281
     0
  0
CLASS
  1
MATERIAL
  2
AcDbMaterial
  3
ObjectDBX Classes
 90
     1024
280
     0
281
     0
  0
CLASS
  1
VISUALSTYLE
  2
AcDbVisualStyle
  3
ObjectDBX Classes
 90
     4095
280
     0
281
     0
  0
CLASS
  1
ACRFATTGENMGR
  2
AcRfAttGeneralMgr
  3
AcAttribServices
 90
        0
280
     0
281
     0
  0
CLASS
  1
ACRFOBJATTMGR
  2
AcRfObjAttGroupMgr
  3
AcAttribServices
 90
        0
280
     0
281
     0
  0
CLASS
  1
ACRFMCADAPIATTHOLDER
  2
AcRfMCADAPIAttHolder
  3
AcAttribServices
 90
        0
280
     0
281
     0
  0
CLASS
  1
AMDTSYSATTR
  2
AmdtSystemAttribute
  3
AcAttribServices
 90
        0
280
     0
281
     0
  0
CLASS
  1
ACMTAPERSTANDARDISO
  2
AcmTaperStdISO
  3
"Amdt_StdImp|Product Description: AutoCAD Mechanical|Company: Autodesk"
 90
        0
280
     0
281
     0
  0
CLASS
  1
CAMSSTRUCTBTNSTATE
  2
StructBtnState
  3
L"DesignerAssemblies"
 90
        0
280
     0
281
     0
  0
CLASS
  1
DIMASSOC
  2
AcDbDimAssoc
  3
"AcDbDimAssoc|Product Desc:     AcDim ARX App For Dimension|Company:          Autodesk, Inc.|WEB Address:      www.autodesk.com"
 90
    32768
280
     0
281
     0
  0
CLASS
  1
EXACXREFPANELOBJECT
  2
ExAcXREFPanelObject
  3
EXAC_ESW
 90
    33793
280
     0
281
     0
  0
CLASS
  1
NPOCOLLECTION
  2
AcDbImpNonPersistentObjectsCollection
  3
ObjectDBX Classes
 90
    33921
280
     0
281
     0
  0
CLASS
  1
AMDTEDGESTANDARDISO13715
  2
AmdtEdgeStdISO13715
  3
"Amdt_StdImp|Product Description: AutoCAD Mechanical|Company: Autodesk"
 90
        0
280
     0
281
     0
  0
CLASS
  1
AMDTNOTETEMPLATEDB
  2
AmdtNoteTemplateDB
  3
AMDT_STDIMP_MODULE_NAME
 90
        0
280
     0
281
     0
  0
CLASS
  1
ACAMGHOLECHARTSTDISO
  2
AcAmgHoleChartStdISO
  3
ACMSYMBB_MODULE_NAME
 90
        0
280
     0
281
     0
  0
CLASS
  1
ACMTAPERSTANDARDANSI
  2
AcmTaperStdANSI
  3
"Amdt_StdImp|Product Description: AutoCAD Mechanical|Company: Autodesk"
 90
        0
280
     0
281
     0
  0
CLASS
  1
ACAMGHOLECHARTSTDANSI
  2
AcAmgHoleChartStdANSI
  3
ACMSYMBB_MODULE_NAME
 90
        0
280
     0
281
     0
  0
CLASS
  1
ACAMSTDPCOMPDEF
  2
AcAmStdpCompDef
  3
DesignerAssemblies
 90
    32768
280
     0
281
     0
  0
CLASS
  1
ACAMCOMP
  2
AcAmComp
  3
DesignerAssemblies
 90
    32768
280
     0
281
     0
  0
CLASS
  1
AC_AM_STDP_VIEW_DEF
  2
AcAmStdpViewDef
  3
DesignerAssemblies
 90
    32768
280
     0
281
     0
  0
CLASS
  1
AC_AM_MVD_DEP_MGR
  2
AcAmMVDdepMgr
  3
DesignerAssemblies
 90
        0
280
     0
281
     0
  0
CLASS
  1
AC_AM_MASTER_VIEW_DEF
  2
AcAmMasterViewDef
  3
DesignerAssemblies
 90
        0
280
     0
281
     0
  0
CLASS
  1
AC_AM_DIRTY_NODES
  2
AcAmDirtyNodes
  3
DesignerAssemblies
 90
        0
280
     0
281
     0
  0
CLASS
  1
AC_AM_MAPPER_CACHE
  2
AcAmMapperCache
  3
DesignerAssemblies
 90
        0
280
     0
281
     0
  0
CLASS
  1
ACAMMVDBACKUPOBJECT
  2
AcAmMVDBackupObject
  3
DesignerAssemblies
 90
        0
280
     0
281
     0
  0
CLASS
  1
AC_AM_COMP_VIEW_INST
  2
AcAmCompView
  3
DesignerAssemblies
 90
    32768
280
     0
281
     0
  0
CLASS
  1
AC_AM_2D_XREF_MGR
  2
AcAmXrefMgr2d
  3
DesignerAssemblies
 90
        0
280
     0
281
     0
  0
CLASS
  1
AC_AM_HIDE_SITUATION
  2
AcAmHideSituation
  3
DesignerAssemblies
 90
    32768
280
     0
281
     0
  0
CLASS
  1
AC_AM_TRANSFORM_GHOST
  2
AcDbTransformGhost
  3
DesignerAssemblies
 90
    32768
280
     0
281
     1
  0
CLASS
  1
L"OBJCLONER"
  2
ObjCloner
  3
DesignerAssemblies
 90
    32768
280
     0
281
     1
  0
ENDSEC
  0
SECTION
  2
TABLES
  0
TABLE
  2
VPORT
  5
8
330
0
100
AcDbSymbolTable
 70
     1
  0
VPORT
  5
B0EC
330
8
100
AcDbSymbolTableRecord
100
AcDbViewportTableRecord
  2
*Active
 70
     0
 10
0.0
 20
0.0
 11
1.0
 21
1.0
 12
6223.476696955446
 22
-4464.998043142479
 13
0.0
 23
0.0
 14
2.5
 24
2.5
 15
10.0
 25
10.0
 16
0.0
 26
0.0
 36
1.0
 17
0.0
 27
0.0
 37
0.0
 40
212.9184911544926
 41
1.648648648648648
 42
50.0
 43
-1370.695619172058
 44
-1370.695619172058
 50
0.0
 51
0.0
 71
     0
 72
   100
 73
     1
 74
     3
 75
     0
 76
     0
 77
     0
 78
     0
281
     0
 65
     0
110
0.0
120
0.0
130
0.0
111
1.0
121
0.0
131
0.0
112
0.0
122
1.0
132
0.0
 79
     0
146
0.0
  0
ENDTAB
  0
TABLE
  2
LTYPE
  5
5
330
0
100
AcDbSymbolTable
 70
    23
  0
LTYPE
  5
14
330
5
100
AcDbSymbolTableRecord
100
AcDbLinetypeTableRecord
  2
ByBlock
 70
     0
  3

 72
    65
 73
     0
 40
0.0
  0
LTYPE
  5
15
330
5
100
AcDbSymbolTableRecord
100
AcDbLinetypeTableRecord
  2
ByLayer
 70
     0
  3

 72
    65
 73
     0
 40
0.0
  0
LTYPE
  5
16
330
5
100
AcDbSymbolTableRecord
100
AcDbLinetypeTableRecord
  2
Continuous
 70
     0
  3
Solid line
 72
    65
 73
     0
 40
0.0
  0
LTYPE
  5
4F
330
5
100
AcDbSymbolTableRecord
100
AcDbLinetypeTableRecord
  2
AM_ISO02W050
 70
     0
  3
__ __ __ __ __ __ __ __ __ __ __ __ __ __ __
 72
    65
 73
     2
 40
7.5
 49
6.0
 74
     0
 49
-1.5
 74
     0
  0
LTYPE
  5
52
330
5
100
AcDbSymbolTableRecord
100
AcDbLinetypeTableRecord
  2
Amconstr
 70
     0
  3
_______________________
 72
    65
 73
     2
 40
9999.0
 49
9999.0
 74
     0
 49
0.0
 74
     0
  0
LTYPE
  5
64
330
5
100
AcDbSymbolTableRecord
100
AcDbLinetypeTableRecord
  2
ACISOWELD
 70
     0
  3
_ _ _ _ _
 72
    65
 73
     2
 40
2.0
 49
2.0
 74
     0
 49
-1.0
 74
     0
  0
LTYPE
  5
65
330
5
100
AcDbSymbolTableRecord
100
AcDbLinetypeTableRecord
  2
ACISOTGB
 70
     0
  3
__ . . __ . .
 72
    65
 73
     6
 40
9.0
 49
4.0
 74
     0
 49
-1.0
 74
     0
 49
1.0
 74
     0
 49
-1.0
 74
     0
 49
1.0
 74
     0
 49
-1.0
 74
     0
  0
LTYPE
  5
66
330
5
100
AcDbSymbolTableRecord
100
AcDbLinetypeTableRecord
  2
ACISOTGL
 70
     0
  3
_ _ _ _ _
 72
    65
 73
     2
 40
3.0
 49
2.0
 74
     0
 49
-1.0
 74
     0
  0
LTYPE
  5
69
330
5
100
AcDbSymbolTableRecord
100
AcDbLinetypeTableRecord
  2
CENTER
 70
     0
  3
__ . __
 72
    65
 73
     4
 40
7.0
 49
4.0
 74
     0
 49
-1.0
 74
     0
 49
1.0
 74
     0
 49
-1.0
 74
     0
  0
LTYPE
  5
A6E
330
5
100
AcDbSymbolTableRecord
100
AcDbLinetypeTableRecord
  2
PHANTOM2
 70
     0
  3
Phantom (.5x) ___ _ _ ___ _ _ ___ _ _ ___ _ _
 72
    65
 73
     6
 40
31.75
 49
15.875
 74
     0
 49
-3.174999999999999
 74
     0
 49
3.174999999999999
 74
     0
 49
-3.174999999999999
 74
     0
 49
3.174999999999999
 74
     0
 49
-3.174999999999999
 74
     0
  0
LTYPE
  5
4DED
330
5
100
AcDbSymbolTableRecord
100
AcDbLinetypeTableRecord
  2
中線
 70
     0
  3
___________________
 72
    65
 73
     2
 40
2.0
 49
1.0
 74
     0
 49
1.0
 74
     0
  0
LTYPE
  5
4DF6
330
5
100
AcDbSymbolTableRecord
100
AcDbLinetypeTableRecord
  2
細線
 70
     0
  3
___________________
 72
    65
 73
     2
 40
2.0
 49
1.0
 74
     0
 49
1.0
 74
     0
  0
LTYPE
  5
4DF7
330
5
100
AcDbSymbolTableRecord
100
AcDbLinetypeTableRecord
  2
太線
 70
     0
  3
___________________
 72
    65
 73
     2
 40
2.0
 49
1.0
 74
     0
 49
1.0
 74
     0
  0
LTYPE
  5
4EA7
330
5
100
AcDbSymbolTableRecord
100
AcDbLinetypeTableRecord
  2
文字
 70
     0
  3
_________________
 72
    65
 73
     2
 40
2.0
 49
1.0
 74
     0
 49
1.0
 74
     0
  0
LTYPE
  5
4EA9
330
5
100
AcDbSymbolTableRecord
100
AcDbLinetypeTableRecord
  2
寸法線
 70
     0
  3
________________
 72
    65
 73
     2
 40
2.0
 49
1.0
 74
     0
 49
1.0
 74
     0
  0
LTYPE
  5
4F12
330
5
100
AcDbSymbolTableRecord
100
AcDbLinetypeTableRecord
  2
ハッチング
 70
     0
  3
_________________
 72
    65
 73
     2
 40
2.0
 49
1.0
 74
     0
 49
1.0
 74
     0
  0
LTYPE
  5
5180
330
5
100
AcDbSymbolTableRecord
100
AcDbLinetypeTableRecord
  2
陰線1
 70
     0
  3
__ __ __ __
 72
    65
 73
     2
 40
4.0
 49
2.2
 74
     0
 49
-1.8
 74
     0
  0
LTYPE
  5
5182
330
5
100
AcDbSymbolTableRecord
100
AcDbLinetypeTableRecord
  2
切断線
 70
     0
  3
/\/-/\/-/\/-/\/-/\/-/\/
 72
    65
 73
     2
 40
11.0001
 49
0.0001
 74
     4
 75
   135
340
56
 46
0.04
 50
0.0
 44
0.0
 45
0.0
 49
-11.0
 74
     0
  0
LTYPE
  5
5183
330
5
100
AcDbSymbolTableRecord
100
AcDbLinetypeTableRecord
  2
想像線1
 70
     0
  3
__ __ __ _____ __ __ ____
 72
    65
 73
     6
 40
14.5
 49
6.0
 74
     0
 49
-1.5
 74
     0
 49
2.0
 74
     0
 49
-1.5
 74
     0
 49
2.0
 74
     0
 49
-1.5
 74
     0
  0
LTYPE
  5
5185
330
5
100
AcDbSymbolTableRecord
100
AcDbLinetypeTableRecord
  2
中心線1
 70
     0
  3
___ _ ___ _ ___
 72
    65
 73
     4
 40
18.0
 49
12.0
 74
     0
 49
-2.0
 74
     0
 49
2.0
 74
     0
 49
-2.0
 74
     0
  0
LTYPE
  5
5188
330
5
100
AcDbSymbolTableRecord
100
AcDbLinetypeTableRecord
  2
補助線
 70
     0
  3
______________
 72
    65
 73
     2
 40
2.0
 49
1.0
 74
     0
 49
1.0
 74
     0
  0
LTYPE
  5
6427
330
5
100
AcDbSymbolTableRecord
100
AcDbLinetypeTableRecord
  2
HIDDEN
 70
     0
  3
Hidden __ __ __ __ __ __ __ __ __ __ __ __ __ _
 72
    65
 73
     2
 40
0.375
 49
0.25
 74
     0
 49
-0.125
 74
     0
  0
LTYPE
  5
AF95
330
5
100
AcDbSymbolTableRecord
100
AcDbLinetypeTableRecord
  2
AM_ISO08W050
 70
     0
  3
____ . ____ . ____ . ____ . ____ . ____ . ____
 72
    65
 73
     4
 40
18.0
 49
12.0
 74
     0
 49
-1.5
 74
     0
 49
3.0
 74
     0
 49
-1.5
 74
     0
  0
LTYPE
  5
FD15
330
5
100
AcDbSymbolTableRecord
100
AcDbLinetypeTableRecord
  2
ACANSTGB
 70
     0
  3
__ . . __ . .
 72
    65
 73
     6
 40
0.35433070866
 49
0.15748031496
 74
     0
 49
-0.03937007874
 74
     0
 49
0.03937007874
 74
     0
 49
-0.03937007874
 74
     0
 49
0.03937007874
 74
     0
 49
-0.03937007874
 74
     0
  0
LTYPE
  5
FD16
330
5
100
AcDbSymbolTableRecord
100
AcDbLinetypeTableRecord
  2
ACANSTGL
 70
     0
  3
_ _ _ _ _
 72
    65
 73
     2
 40
0.11811023622
 49
0.07874015748
 74
     0
 49
-0.03937007874
 74
     0
  0
ENDTAB
  0
TABLE
  2
LAYER
  5
2
102
{ACAD_XDICTIONARY
360
3F95
102
}
330
0
100
AcDbSymbolTable
 70
    20
  0
LAYER
  5
10
330
2
100
AcDbSymbolTableRecord
100
AcDbLayerTableRecord
  2
0
 70
     0
 62
     7
  6
Continuous
370
    -3
390
F
  0
LAYER
  5
6D1
330
2
100
AcDbSymbolTableRecord
100
AcDbLayerTableRecord
  2
Defpoints
 70
     0
 62
     7
  6
Continuous
290
     0
370
    -3
390
F
  0
LAYER
  5
5F85
330
2
100
AcDbSymbolTableRecord
100
AcDbLayerTableRecord
  2
AM_0
 70
     0
 62
     7
  6
中線
370
    25
390
F
1001
AcAecLayerStandard
1000

1000

  0
LAYER
  5
AC9F
330
2
100
AcDbSymbolTableRecord
100
AcDbLayerTableRecord
  2
size
 70
     0
 62
     5
  6
Continuous
290
     0
370
    25
390
F
  0
LAYER
  5
ACA0
330
2
100
AcDbSymbolTableRecord
100
AcDbLayerTableRecord
  2
waku
 70
     0
 62
     7
  6
Continuous
370
    35
390
F
  0
LAYER
  5
ACA1
330
2
100
AcDbSymbolTableRecord
100
AcDbLayerTableRecord
  2
AM_6
 70
     0
 62
     2
  6
文字
370
    15
390
F
1001
AcAecLayerStandard
1000

1000

  0
LAYER
  5
AD64
330
2
100
AcDbSymbolTableRecord
100
AcDbLayerTableRecord
  2
AM_2
 70
     0
 62
     1
  6
細線
370
    15
390
F
1001
AcAecLayerStandard
1000

1000

  0
LAYER
  5
AD68
330
2
100
AcDbSymbolTableRecord
100
AcDbLayerTableRecord
  2
AM_5
 70
     0
 62
     3
  6
寸法線
370
    15
390
F
1001
AcAecLayerStandard
1000

1000

  0
LAYER
  5
B5F5
330
2
100
AcDbSymbolTableRecord
100
AcDbLayerTableRecord
  2
0部品6
 70
     0
 62
    13
  6
細線
370
    30
390
F
1001
AcAecLayerStandard
1000

1000

  0
LAYER
  5
B5F6
330
2
100
AcDbSymbolTableRecord
100
AcDbLayerTableRecord
  2
0部品7
 70
     0
 62
   210
  6
細線
370
    30
390
F
1001
AcAecLayerStandard
1000

1000

  0
LAYER
  5
B5F7
330
2
100
AcDbSymbolTableRecord
100
AcDbLayerTableRecord
  2
0部品4
 70
     0
 62
    70
  6
細線
370
    30
390
F
1001
AcAecLayerStandard
1000

1000

  0
LAYER
  5
B5F9
330
2
100
AcDbSymbolTableRecord
100
AcDbLayerTableRecord
  2
0部品10
 70
     0
 62
   131
  6
Continuous
370
    30
390
F
1001
AcAecLayerStandard
1000

1000

  0
LAYER
  5
B5FB
330
2
100
AcDbSymbolTableRecord
100
AcDbLayerTableRecord
  2
0部品18
 70
     0
 62
   254
  6
細線
370
    30
390
F
1001
AcAecLayerStandard
1000

1000

  0
LAYER
  5
B5FC
330
2
100
AcDbSymbolTableRecord
100
AcDbLayerTableRecord
  2
0部品1
 70
     0
 62
   213
  6
細線
370
    30
390
F
1001
AcAecLayerStandard
1000

1000

  0
LAYER
  5
B5FD
330
2
100
AcDbSymbolTableRecord
100
AcDbLayerTableRecord
  2
0部品2
 70
     0
 62
   163
  6
細線
370
    30
390
F
1001
AcAecLayerStandard
1000

1000

  0
LAYER
  5
B5FE
330
2
100
AcDbSymbolTableRecord
100
AcDbLayerTableRecord
  2
0部品3
 70
     0
 62
   122
  6
細線
370
    30
390
F
1001
AcAecLayerStandard
1000

1000

  0
LAYER
  5
B5FF
330
2
100
AcDbSymbolTableRecord
100
AcDbLayerTableRecord
  2
0部品5
 70
     0
 62
    52
  6
細線
370
    30
390
F
1001
AcAecLayerStandard
1000

1000

  0
LAYER
  5
B600
330
2
100
AcDbSymbolTableRecord
100
AcDbLayerTableRecord
  2
0部品11
 70
     0
 62
   103
  6
Continuous
370
    30
390
F
1001
AcAecLayerStandard
1000

1000

  0
LAYER
  5
2E415
102
{ACAD_XDICTIONARY
360
2E416
102
}
330
2
100
AcDbSymbolTableRecord
100
AcDbLayerTableRecord
  2
AM_1
 70
     0
 62
    30
  6
太線
370
    25
390
F
1001
AcAecLayerStandard
1000

1000

  0
LAYER
  5
35DAE
330
2
100
AcDbSymbolTableRecord
100
AcDbLayerTableRecord
  2
LAYER001
 70
     0
 62
     7
  6
Continuous
370
    -3
390
F
  0
ENDTAB
  0
TABLE
  2
STYLE
  5
3
330
0
100
AcDbSymbolTable
 70
     7
  0
STYLE
  5
11
330
3
100
AcDbSymbolTableRecord
100
AcDbTextStyleTableRecord
  2
STANDARD
 70
     0
 40
0.0
 41
0.7
 50
0.0
 71
     0
 42
3.2
  3
romans.shx
  4
extfont.shx
  0
STYLE
  5
56
330
3
100
AcDbSymbolTableRecord
100
AcDbTextStyleTableRecord
  2

 70
     1
 40
0.0
 41
1.0
 50
0.0
 71
     0
 42
2.5
  3
ltypeshp.shx
  4

  0
STYLE
  5
58
330
3
100
AcDbSymbolTableRecord
100
AcDbTextStyleTableRecord
  2
ACISOTS
 70
     0
 40
1.0
 41
1.0
 50
0.0
 71
     0
 42
2.5
  3
isocp.shx
  4
extfont.shx
  0
STYLE
  5
63
330
3
100
AcDbSymbolTableRecord
100
AcDbTextStyleTableRecord
  2
ACISOGDT
 70
     0
 40
0.0
 41
1.0
 50
0.0
 71
     0
 42
2.5
  3
amgdt.shx
  4

  0
STYLE
  5
A74
330
3
100
AcDbSymbolTableRecord
100
AcDbTextStyleTableRecord
  2
DIM
 70
     0
 40
0.0
 41
1.0
 50
0.0
 71
     0
 42
2.5
  3
monotxt.shx
  4
extfont.shx
  0
STYLE
  5
FD18
330
3
100
AcDbSymbolTableRecord
100
AcDbTextStyleTableRecord
  2
ACANSTS
 70
     0
 40
1.0
 41
1.0
 50
0.0
 71
     0
 42
0.2
  3
romans.shx
  4
extfont.shx
  0
STYLE
  5
FD19
330
3
100
AcDbSymbolTableRecord
100
AcDbTextStyleTableRecord
  2
ACANSGDT
 70
     0
 40
0.0
 41
1.0
 50
0.0
 71
     0
 42
0.2
  3
amgdt.shx
  4

  0
ENDTAB
  0
TABLE
  2
VIEW
  5
6
330
0
100
AcDbSymbolTable
 70
     6
  0
VIEW
  5
AE1
330
6
100
AcDbSymbolTableRecord
100
AcDbViewTableRecord
  2
AM_VIEW1
 70
     0
 40
2203.896457765668
 10
5264.599158088851
 20
3198.765197920841
 41
2970.0
 11
0.0
 21
0.0
 31
1.0
 12
0.0
 22
0.0
 32
0.0
 42
50.0
 43
-1370.695619172058
 44
-1370.695619172058
 50
0.0
 71
     0
281
     0
 72
     0
  0
VIEW
  5
AE2
330
6
100
AcDbSymbolTableRecord
100
AcDbViewTableRecord
  2
AM_VIEW2
 70
     0
 40
2203.896457765668
 10
8234.599158088851
 20
3198.765197920841
 41
2970.0
 11
0.0
 21
0.0
 31
1.0
 12
0.0
 22
0.0
 32
0.0
 42
50.0
 43
-1370.695619172058
 44
-1370.695619172058
 50
0.0
 71
     0
281
     0
 72
     0
  0
VIEW
  5
AE3
330
6
100
AcDbSymbolTableRecord
100
AcDbViewTableRecord
  2
AM_VIEW3
 70
     0
 40
2203.896457765668
 10
5264.599158088851
 20
1202.661655686509
 41
2970.0
 11
0.0
 21
0.0
 31
1.0
 12
0.0
 22
0.0
 32
0.0
 42
50.0
 43
-1370.695619172058
 44
-1370.695619172058
 50
0.0
 71
     0
281
     0
 72
     0
  0
VIEW
  5
AE4
330
6
100
AcDbSymbolTableRecord
100
AcDbViewTableRecord
  2
AM_VIEW4
 70
     0
 40
2203.896457765668
 10
8234.599158088851
 20
1202.661655686509
 41
2970.0
 11
0.0
 21
0.0
 31
1.0
 12
0.0
 22
0.0
 32
0.0
 42
50.0
 43
-1370.695619172058
 44
-1370.695619172058
 50
0.0
 71
     0
281
     0
 72
     0
  0
VIEW
  5
AE5
330
6
100
AcDbSymbolTableRecord
100
AcDbViewTableRecord
  2
AM_VIEW5
 70
     0
 40
2203.896457765668
 10
6749.599158088852
 20
2200.713426803675
 41
2970.0
 11
0.0
 21
0.0
 31
1.0
 12
0.0
 22
0.0
 32
0.0
 42
50.0
 43
-1370.695619172058
 44
-1370.695619172058
 50
0.0
 71
     0
281
     0
 72
     0
  0
VIEW
  5
AE6
330
6
100
AcDbSymbolTableRecord
100
AcDbViewTableRecord
  2
AM_VIEW6
 70
     0
 40
4407.748837602181
 10
6749.599158088852
 20
2200.713426803675
 41
5939.9406
 11
0.0
 21
0.0
 31
1.0
 12
0.0
 22
0.0
 32
0.0
 42
50.0
 43
-1370.695619172058
 44
-1370.695619172058
 50
0.0
 71
     0
281
     0
 72
     0
  0
ENDTAB
  0
TABLE
  2
UCS
  5
7
330
0
100
AcDbSymbolTable
 70
     0
  0
ENDTAB
  0
TABLE
  2
APPID
  5
9
330
0
100
AcDbSymbolTable
 70
    67
  0
APPID
  5
12
330
9
100
AcDbSymbolTableRecord
100
AcDbRegAppTableRecord
  2
ACAD
 70
     0
  0
APPID
  5
30
330
9
100
AcDbSymbolTableRecord
100
AcDbRegAppTableRecord
  2
MCAD_NO_VIS
 70
     0
  0
APPID
  5
31
330
9
100
AcDbSymbolTableRecord
100
AcDbRegAppTableRecord
  2
ACAD_TEMP_GRAPHIC
 70
     0
  0
APPID
  5
44
330
9
100
AcDbSymbolTableRecord
100
AcDbRegAppTableRecord
  2
ACATTRIBSERVICES
 70
     0
  0
APPID
  5
7A1
330
9
100
AcDbSymbolTableRecord
100
AcDbRegAppTableRecord
  2
GENIUS_GENDIMSH_14
 70
     0
  0
APPID
  5
A49
330
9
100
AcDbSymbolTableRecord
100
AcDbRegAppTableRecord
  2
GENIUS_GENREC_14
 70
     0
  0
APPID
  5
A4A
330
9
100
AcDbSymbolTableRecord
100
AcDbRegAppTableRecord
  2
GENIUS_GENOBJ-N-REC_13
 70
     0
  0
APPID
  5
A4B
330
9
100
AcDbSymbolTableRecord
100
AcDbRegAppTableRecord
  2
GENIUS_GENODEF_13
 70
     0
  0
APPID
  5
A4C
330
9
100
AcDbSymbolTableRecord
100
AcDbRegAppTableRecord
  2
DCO15
 70
     0
  0
APPID
  5
ADC
330
9
100
AcDbSymbolTableRecord
100
AcDbRegAppTableRecord
  2
GENIUS_GENOLIS_13
 70
     0
  0
APPID
  5
ADD
330
9
100
AcDbSymbolTableRecord
100
AcDbRegAppTableRecord
  2
GENIUS_GENOENT_13
 70
     0
  0
APPID
  5
ADE
330
9
100
AcDbSymbolTableRecord
100
AcDbRegAppTableRecord
  2
GENIUS_GENOBJ-N-TIT_13
 70
     0
  0
APPID
  5
ADF
330
9
100
AcDbSymbolTableRecord
100
AcDbRegAppTableRecord
  2
GENIUS_GENTITLE_13
 70
     0
  0
APPID
  5
AE0
330
9
100
AcDbSymbolTableRecord
100
AcDbRegAppTableRecord
  2
GENIUS_GENOREF_13
 70
     0
  0
APPID
  5
AE7
330
9
100
AcDbSymbolTableRecord
100
AcDbRegAppTableRecord
  2
GENIUS_GENSCREG_15
 70
     0
  0
APPID
  5
AE8
330
9
100
AcDbSymbolTableRecord
100
AcDbRegAppTableRecord
  2
GENIUS_GENOBJ-N-SDF_13
 70
     0
  0
APPID
  5
FAF
330
9
100
AcDbSymbolTableRecord
100
AcDbRegAppTableRecord
  2
GENIUS_GENBLLY_14
 70
     0
  0
APPID
  5
FB0
330
9
100
AcDbSymbolTableRecord
100
AcDbRegAppTableRecord
  2
GENIUS_GENTRA_14
 70
     0
  0
APPID
  5
1285
330
9
100
AcDbSymbolTableRecord
100
AcDbRegAppTableRecord
  2
GENIUS_GENDTOL_13
 70
     0
  0
APPID
  5
142D
330
9
100
AcDbSymbolTableRecord
100
AcDbRegAppTableRecord
  2
GENIUS_GENOBJ-N-CEN_13
 70
     0
  0
APPID
  5
1AB5
330
9
100
AcDbSymbolTableRecord
100
AcDbRegAppTableRecord
  2
GENIUS_GENOBJ-N-CRS_13
 70
     0
  0
APPID
  5
1B36
330
9
100
AcDbSymbolTableRecord
100
AcDbRegAppTableRecord
  2
GENIUS_GENOBJ-N-HTC_13
 70
     0
  0
APPID
  5
1B37
330
9
100
AcDbSymbolTableRecord
100
AcDbRegAppTableRecord
  2
GENIUS_GENHATCH_13
 70
     0
  0
APPID
  5
216D
330
9
100
AcDbSymbolTableRecord
100
AcDbRegAppTableRecord
  2
GENIUS_GENOBJ-N-FIL_13
 70
     0
  0
APPID
  5
2356
330
9
100
AcDbSymbolTableRecord
100
AcDbRegAppTableRecord
  2
GEVID990412420
 70
     0
  0
APPID
  5
2357
330
9
100
AcDbSymbolTableRecord
100
AcDbRegAppTableRecord
  2
GEVDC
 70
     0
  0
APPID
  5
2358
330
9
100
AcDbSymbolTableRecord
100
AcDbRegAppTableRecord
  2
GEVCON
 70
     0
  0
APPID
  5
235B
330
9
100
AcDbSymbolTableRecord
100
AcDbRegAppTableRecord
  2
GEVRADREF
 70
     0
  0
APPID
  5
2360
330
9
100
AcDbSymbolTableRecord
100
AcDbRegAppTableRecord
  2
GENIUS_GENBH_13
 70
     0
  0
APPID
  5
2362
330
9
100
AcDbSymbolTableRecord
100
AcDbRegAppTableRecord
  2
GENIUS_GENOBJ-NBEHI-BHF_13
 70
     0
  0
APPID
  5
2364
330
9
100
AcDbSymbolTableRecord
100
AcDbRegAppTableRecord
  2
GENIUS_GENOBJ-NBEHI-BHB_13
 70
     0
  0
APPID
  5
2379
330
9
100
AcDbSymbolTableRecord
100
AcDbRegAppTableRecord
  2
GENIUS_GENOBJ-F-SCPASSM_13
 70
     0
  0
APPID
  5
3D74
330
9
100
AcDbSymbolTableRecord
100
AcDbRegAppTableRecord
  2
GENIUS_GENDIM_13
 70
     0
  0
APPID
  5
3D76
330
9
100
AcDbSymbolTableRecord
100
AcDbRegAppTableRecord
  2
GENIUS_GE3DTOL_13
 70
     0
  0
APPID
  5
3D9C
330
9
100
AcDbSymbolTableRecord
100
AcDbRegAppTableRecord
  2
AD_DRAW
 70
     0
  0
APPID
  5
3DE8
330
9
100
AcDbSymbolTableRecord
100
AcDbRegAppTableRecord
  2
ASURF_PCURVE_APPNAME
 70
     0
  0
APPID
  5
3DED
330
9
100
AcDbSymbolTableRecord
100
AcDbRegAppTableRecord
  2
AMG_3D2D_5.0
 70
     0
  0
APPID
  5
3E1B
330
9
100
AcDbSymbolTableRecord
100
AcDbRegAppTableRecord
  2
DESIGNERASSEMBLIES
 70
     0
  0
APPID
  5
3E20
330
9
100
AcDbSymbolTableRecord
100
AcDbRegAppTableRecord
  2
ACADM_DIM_EDIT
 70
     0
  0
APPID
  5
3E21
330
9
100
AcDbSymbolTableRecord
100
AcDbRegAppTableRecord
  2
AMDT_DM_ADJ
 70
     0
  0
APPID
  5
4143
330
9
100
AcDbSymbolTableRecord
100
AcDbRegAppTableRecord
  2
GENIUS_GENFIL_13
 70
     0
  0
APPID
  5
4144
330
9
100
AcDbSymbolTableRecord
100
AcDbRegAppTableRecord
  2
GENIUS_GENOBJ-N-CHA_13
 70
     0
  0
APPID
  5
4E17
330
9
100
AcDbSymbolTableRecord
100
AcDbRegAppTableRecord
  2
GEVID1008153417
 70
     0
  0
APPID
  5
4E58
330
9
100
AcDbSymbolTableRecord
100
AcDbRegAppTableRecord
  2
GEVID1008153418
 70
     0
  0
APPID
  5
4E5E
330
9
100
AcDbSymbolTableRecord
100
AcDbRegAppTableRecord
  2
GEVID1008153419
 70
     0
  0
APPID
  5
4E64
330
9
100
AcDbSymbolTableRecord
100
AcDbRegAppTableRecord
  2
GEVID1008153420
 70
     0
  0
APPID
  5
4E75
330
9
100
AcDbSymbolTableRecord
100
AcDbRegAppTableRecord
  2
GEVID1008153421
 70
     0
  0
APPID
  5
4EB7
330
9
100
AcDbSymbolTableRecord
100
AcDbRegAppTableRecord
  2
GENIUS_AMGTXT_16
 70
     0
  0
APPID
  5
7645
330
9
100
AcDbSymbolTableRecord
100
AcDbRegAppTableRecord
  2
GENIUS_GENOBJ-N-DIM_13
 70
     0
  0
APPID
  5
AAD0
330
9
100
AcDbSymbolTableRecord
100
AcDbRegAppTableRecord
  2
ACAD_DSTYLE_DIMARC_LENGTH_SYMBOL
 70
     0
  0
APPID
  5
AAD1
330
9
100
AcDbSymbolTableRecord
100
AcDbRegAppTableRecord
  2
ACAD_DSTYLE_DIMJOGGED_JOGANGLE_SYMBOL
 70
     0
  0
APPID
  5
AAFD
330
9
100
AcDbSymbolTableRecord
100
AcDbRegAppTableRecord
  2
ACAD_PSEXT
 70
     0
  0
APPID
  5
AD61
330
9
100
AcDbSymbolTableRecord
100
AcDbRegAppTableRecord
  2
AcAecLayerStandard
 70
     0
  0
APPID
  5
AEE3
330
9
100
AcDbSymbolTableRecord
100
AcDbRegAppTableRecord
  2
ACAD_EXEMPT_FROM_CAD_STANDARDS
 70
     0
  0
APPID
  5
B1BE
330
9
100
AcDbSymbolTableRecord
100
AcDbRegAppTableRecord
  2
GENIUS_GENCEN_19
 70
     0
  0
APPID
  5
B4E1
330
9
100
AcDbSymbolTableRecord
100
AcDbRegAppTableRecord
  2
ACAD_MLEADERVER
 70
     0
  0
APPID
  5
C488
330
9
100
AcDbSymbolTableRecord
100
AcDbRegAppTableRecord
  2
ACAD_DSTYLE_DIMINSPECT
 70
     0
  0
APPID
  5
C489
330
9
100
AcDbSymbolTableRecord
100
AcDbRegAppTableRecord
  2
ACAD_DSTYLE_DIMRADIAL_EXTENSION
 70
     0
  0
APPID
  5
1980E
330
9
100
AcDbSymbolTableRecord
100
AcDbRegAppTableRecord
  2
GEVID1311583542
 70
     0
  0
APPID
  5
19825
330
9
100
AcDbSymbolTableRecord
100
AcDbRegAppTableRecord
  2
AMG_2DHIDE
 70
     0
  0
APPID
  5
19826
330
9
100
AcDbSymbolTableRecord
100
AcDbRegAppTableRecord
  2
AMG_2DSTRUCT_BTR
 70
     0
  0
APPID
  5
19837
330
9
100
AcDbSymbolTableRecord
100
AcDbRegAppTableRecord
  2
ACADM_2DVIEW_IGN_NOTIFY
 70
     0
  0
APPID
  5
1B56B
330
9
100
AcDbSymbolTableRecord
100
AcDbRegAppTableRecord
  2
GEVID1311583543
 70
     0
  0
APPID
  5
1B5F6
330
9
100
AcDbSymbolTableRecord
100
AcDbRegAppTableRecord
  2
GEVID1311583544
 70
     0
  0
APPID
  5
1B61B
330
9
100
AcDbSymbolTableRecord
100
AcDbRegAppTableRecord
  2
GEVID1311583545
 70
     0
  0
APPID
  5
1B63D
330
9
100
AcDbSymbolTableRecord
100
AcDbRegAppTableRecord
  2
GEVID1311583546
 70
     0
  0
APPID
  5
1B675
330
9
100
AcDbSymbolTableRecord
100
AcDbRegAppTableRecord
  2
GEVID1311583547
 70
     0
  0
ENDTAB
  0
TABLE
  2
DIMSTYLE
  5
A
330
0
100
AcDbSymbolTable
 70
    25
100
AcDbDimStyleTable
 71
     3
340
2515
340
251A
340
251B
  0
DIMSTYLE
105
A76
330
A
100
AcDbSymbolTableRecord
100
AcDbDimStyleTableRecord
  2
STANDARD
 70
     0
 41
3.0
 42
1.0
 43
7.0
 44
2.0
 73
     0
 74
     0
 77
     1
140
2.799999999999999
141
0.0
143
0.0394
147
0.7
171
     4
172
     1
173
     1
176
     3
177
     3
178
     2
271
     3
272
     3
273
     8
274
     4
289
     0
340
A74
341
A66
343
A66
344
A66
  0
DIMSTYLE
105
2515
330
A
100
AcDbSymbolTableRecord
100
AcDbDimStyleTableRecord
  2
SYS
 70
     0
  4
"
 41
1.0
 42
1.0
 43
10.0
 44
1.0
 47
0.1
 48
0.1
 73
     0
 74
     0
 77
     1
 78
     8
 79
     2
140
3.5
141
0.0
143
0.0393701
146
0.71
147
1.5
172
     1
176
   256
177
   256
178
     7
271
     2
272
     2
283
     0
284
     8
340
11
371
    -1
372
    -1
1001
ACAD_DSTYLE_DIMJOGGED_JOGANGLE_SYMBOL
1070
   384
1040
0.7853981633974483
1001
ACAD_DSTYLE_DIMARC_LENGTH_SYMBOL
1070
   379
1070
     1
  0
DIMSTYLE
105
2516
102
{ACAD_REACTORS
330
53D95
330
53D96
330
5510B
102
}
330
A
100
AcDbSymbolTableRecord
100
AcDbDimStyleTableRecord
  2
SYS$3
 70
     0
  4
"
 41
2.0
 42
1.0
 43
10.0
 44
1.0
 47
0.1
 48
0.1
 73
     0
 77
     1
 78
     8
 79
     2
140
3.2
141
0.0
143
0.0393701
146
0.71
147
1.0
176
   256
177
   256
178
     2
271
     2
272
     2
283
     0
284
     8
288
     1
340
11
342
A66
371
    -1
372
    -1
1001
ACAD_DSTYLE_DIMJOGGED_JOGANGLE_SYMBOL
1070
   384
1040
0.7853981633974483
1001
ACAD_DSTYLE_DIMARC_LENGTH_SYMBOL
1070
   379
1070
     1
  0
DIMSTYLE
105
2517
330
A
100
AcDbSymbolTableRecord
100
AcDbDimStyleTableRecord
  2
SYS$4
 70
     0
  4
"
 41
2.0
 42
1.0
 43
10.0
 44
1.0
 47
0.1
 48
0.1
 73
     0
 77
     1
 78
     8
 79
     2
140
3.2
141
0.0
143
0.0393701
146
0.71
147
1.0
173
     1
176
   256
177
   256
178
     2
271
     2
272
     2
283
     0
284
     8
288
     1
340
11
344
A66
371
    -1
372
    -1
1001
ACAD_DSTYLE_DIMJOGGED_JOGANGLE_SYMBOL
1070
   384
1040
0.7853981633974483
1001
ACAD_DSTYLE_DIMARC_LENGTH_SYMBOL
1070
   379
1070
     1
  0
DIMSTYLE
105
2518
330
A
100
AcDbSymbolTableRecord
100
AcDbDimStyleTableRecord
  2
SYS$6
 70
     0
  4
"
 41
2.0
 42
1.0
 43
10.0
 44
1.0
 47
0.1
 48
0.1
 73
     0
 74
     0
 78
     8
 79
     2
140
3.2
141
0.0
143
0.0393701
146
0.71
147
1.0
172
     1
176
   256
177
   256
178
     2
271
     2
272
     2
283
     0
284
     8
340
11
341
A66
371
    -1
372
    -1
1001
ACAD_DSTYLE_DIMJOGGED_JOGANGLE_SYMBOL
1070
   384
1040
0.7853981633974483
1001
ACAD_DSTYLE_DIMARC_LENGTH_SYMBOL
1070
   379
1070
     1
  0
DIMSTYLE
105
2519
330
A
100
AcDbSymbolTableRecord
100
AcDbDimStyleTableRecord
  2
SYS$7
 70
     0
  4
"
 41
2.0
 42
1.0
 43
10.0
 44
1.0
 47
0.1
 48
0.1
 73
     0
 74
     0
 77
     1
 78
     8
 79
     2
140
3.2
141
0.0
143
0.0393701
146
0.71
147
1.0
172
     1
176
   256
177
   256
178
     2
271
     2
272
     2
283
     0
284
     8
340
11
341
A66
342
A66
371
    -1
372
    -1
1001
ACAD_DSTYLE_DIMJOGGED_JOGANGLE_SYMBOL
1070
   384
1040
0.7853981633974483
1001
ACAD_DSTYLE_DIMARC_LENGTH_SYMBOL
1070
   379
1070
     1
  0
DIMSTYLE
105
251A
330
A
100
AcDbSymbolTableRecord
100
AcDbDimStyleTableRecord
  2
SYS$SF
 70
     0
  4
"
 41
2.5
 42
1.0
 43
10.0
 44
1.0
 47
0.1
 48
0.1
 73
     0
 74
     0
 75
     1
 76
     1
 77
     1
 78
     8
 79
     2
140
3.2
141
0.0
143
0.0393701
146
0.71
147
1.0
172
     1
176
   256
177
   256
178
     2
271
     2
272
     2
283
     0
284
     8
340
11
341
6C4
342
6C4
371
    -1
372
    -1
1001
ACAD_DSTYLE_DIMJOGGED_JOGANGLE_SYMBOL
1070
   384
1040
0.7853981633974483
1001
ACAD_DSTYLE_DIMARC_LENGTH_SYMBOL
1070
   379
1070
     1
  0
DIMSTYLE
105
251B
330
A
100
AcDbSymbolTableRecord
100
AcDbDimStyleTableRecord
  2
SYS$SH
 70
     0
  4
"
 41
2.5
 42
1.0
 43
10.0
 44
1.0
 47
0.1
 48
0.1
 73
     0
 74
     0
 75
     1
 76
     1
 77
     1
 78
     8
 79
     2
140
3.2
141
0.0
143
0.0393701
144
2.0
146
0.71
147
1.0
172
     1
173
     1
176
   256
177
   256
178
     2
271
     2
272
     2
283
     0
284
     8
340
11
341
6C4
343
72
344
6C4
371
    -1
372
    -1
1001
ACAD_DSTYLE_DIMJOGGED_JOGANGLE_SYMBOL
1070
   384
1040
0.7853981633974483
1001
ACAD_DSTYLE_DIMARC_LENGTH_SYMBOL
1070
   379
1070
     1
  0
DIMSTYLE
105
2A59
330
A
100
AcDbSymbolTableRecord
100
AcDbDimStyleTableRecord
  2
SYS$2
 70
     0
  4
"
 41
1.0
 42
1.0
 43
10.0
 44
1.0
 47
0.1
 48
0.1
 73
     0
 74
     0
 77
     1
 78
     8
 79
     2
140
3.2
141
0.0
143
0.0393701
146
0.71
147
1.0
172
     1
176
   256
177
   256
178
     2
271
     2
272
     2
283
     0
284
     8
340
11
342
6C4
371
    -1
372
    -1
1001
ACAD_DSTYLE_DIMJOGGED_JOGANGLE_SYMBOL
1070
   384
1040
0.7853981633974483
1001
ACAD_DSTYLE_DIMARC_LENGTH_SYMBOL
1070
   379
1070
     1
  0
DIMSTYLE
105
2AAB
102
{ACAD_REACTORS
330
53D87
330
53D88
330
53D89
330
53D8A
330
53D8B
330
53D8C
330
53D8D
330
53D97
330
53D98
330
53DA1
330
53DA2
330
53DA3
330
53DA4
330
53DA5
330
53DA6
330
53D8E
330
53D8F
330
53D90
330
53D91
330
53D92
330
53D93
330
53D94
102
}
330
A
100
AcDbSymbolTableRecord
100
AcDbDimStyleTableRecord
  2
SYS$0
 70
     0
  4
"
 41
1.0
 42
1.0
 43
10.0
 44
1.0
 47
0.1
 48
0.1
 73
     0
 74
     0
 77
     1
 78
     8
 79
     2
140
3.200000000000001
141
0.0
143
0.0393701
146
0.71
147
1.0
172
     1
176
   256
177
   256
178
     2
271
     2
272
     2
283
     0
284
     8
340
11
341
A66
342
6C4
371
    -1
372
    -1
1001
ACAD_DSTYLE_DIMJOGGED_JOGANGLE_SYMBOL
1070
   384
1040
0.7853981633974483
1001
ACAD_DSTYLE_DIMARC_LENGTH_SYMBOL
1070
   379
1070
     1
  0
DIMSTYLE
105
AF99
330
A
100
AcDbSymbolTableRecord
100
AcDbDimStyleTableRecord
  2
AM_ISO
 70
     0
  4
"
 41
2.5
 42
1.0
 43
10.0
 44
1.0
 47
0.1
 48
0.1
 73
     0
 74
     0
 77
     1
 78
     8
 79
     2
140
3.5
141
0.0
143
0.0393701
146
0.71
147
1.5
172
     1
176
   256
177
   256
178
     2
271
     2
272
     3
274
     4
283
     0
284
     8
340
11
371
    -1
372
    -1
  0
DIMSTYLE
105
AF9A
330
A
100
AcDbSymbolTableRecord
100
AcDbDimStyleTableRecord
  2
AM_ISO$3
 70
     0
  4
"
 41
2.5
 42
1.0
 43
10.0
 44
1.0
 47
0.1
 48
0.1
 73
     0
 77
     1
 78
     8
 79
     2
140
3.5
141
0.0
143
0.0393701
146
0.71
147
1.5
176
   256
177
   256
178
     2
271
     2
272
     3
274
     4
283
     0
284
     8
288
     1
289
     0
340
11
371
    -1
372
    -1
  0
DIMSTYLE
105
AF9B
330
A
100
AcDbSymbolTableRecord
100
AcDbDimStyleTableRecord
  2
AM_ISO$4
 70
     0
  4
"
 41
2.5
 42
1.0
 43
10.0
 44
1.0
 47
0.1
 48
0.1
 73
     0
 77
     1
 78
     8
 79
     2
140
3.5
141
0.0
143
0.0393701
146
0.71
147
1.5
176
   256
177
   256
178
     2
271
     2
272
     3
274
     4
283
     0
284
     8
288
     1
289
     0
340
11
371
    -1
372
    -1
  0
DIMSTYLE
105
AF9C
330
A
100
AcDbSymbolTableRecord
100
AcDbDimStyleTableRecord
  2
AM_ISO$6
 70
     0
  4
"
 41
2.5
 42
1.0
 43
10.0
 44
1.0
 47
0.1
 48
0.1
 73
     0
 74
     0
 78
     8
 79
     2
140
3.5
141
0.0
143
0.0393701
146
0.71
147
1.5
172
     1
176
   256
177
   256
178
     2
271
     2
272
     3
274
     4
283
     0
284
     8
340
11
371
    -1
372
    -1
  0
DIMSTYLE
105
AF9D
330
A
100
AcDbSymbolTableRecord
100
AcDbDimStyleTableRecord
  2
AM_ISO$7
 70
     0
  4
"
 41
2.5
 42
1.0
 43
10.0
 44
1.0
 47
0.1
 48
0.1
 73
     0
 74
     0
 77
     1
 78
     8
 79
     2
140
5.0
141
0.0
143
0.0393701
146
0.71
147
1.5
172
     1
176
   256
177
   256
178
     2
271
     2
272
     3
274
     4
283
     0
284
     8
340
11
371
    -1
372
    -1
  0
DIMSTYLE
105
AF9E
330
A
100
AcDbSymbolTableRecord
100
AcDbDimStyleTableRecord
  2
AM_ISO$SF
 70
     0
  4
"
 41
2.5
 42
1.0
 43
10.0
 44
1.0
 47
0.1
 48
0.1
 73
     0
 74
     0
 75
     1
 76
     1
 77
     1
 78
     8
 79
     2
140
3.5
141
0.0
143
0.0393701
146
0.71
147
1.5
172
     1
176
   256
177
   256
178
     2
271
     2
272
     3
274
     4
283
     0
284
     8
340
11
371
    -1
372
    -1
  0
DIMSTYLE
105
AF9F
330
A
100
AcDbSymbolTableRecord
100
AcDbDimStyleTableRecord
  2
AM_ISO$SH
 70
     0
  4
"
 41
2.5
 42
1.0
 43
10.0
 44
1.0
 47
0.1
 48
0.1
 73
     0
 74
     0
 75
     1
 76
     1
 77
     1
 78
     8
 79
     2
140
3.5
141
0.0
143
0.0393701
144
2.0
146
0.71
147
1.5
172
     1
173
     1
176
   256
177
   256
178
     2
271
     2
272
     3
274
     4
283
     0
284
     8
340
11
343
72
371
    -1
372
    -1
  0
DIMSTYLE
105
B60C
330
A
100
AcDbSymbolTableRecord
100
AcDbDimStyleTableRecord
  2
AM_ANSI
 70
     0
  4
mm
 41
0.1
 42
0.05
 43
0.5
 44
0.1
 47
0.1
 48
0.1
 78
     7
 79
     2
140
0.12
141
0.0
146
0.71
147
0.06
176
   256
177
   256
178
     2
274
     4
284
     7
340
11
371
    -1
372
    -1
  0
DIMSTYLE
105
C485
330
A
100
AcDbSymbolTableRecord
100
AcDbDimStyleTableRecord
  2
AM_ISO$0
 70
     0
  4
"
 41
0.8
 42
1.0
 43
10.0
 44
1.0
 47
0.1
 48
0.1
 73
     0
 74
     0
 77
     1
 78
     8
 79
     2
140
3.2
141
0.0
143
0.0393701
146
0.71
147
0.9999999999999996
172
     1
176
   256
177
   256
178
     2
271
     2
272
     2
283
     0
284
     8
340
11
341
6C4
342
6C4
371
    -1
372
    -1
1001
ACAD_DSTYLE_DIMJOGGED_JOGANGLE_SYMBOL
1070
   384
1040
0.7853981633974483
1001
ACAD_DSTYLE_DIMARC_LENGTH_SYMBOL
1070
   379
1070
     1
  0
DIMSTYLE
105
C486
330
A
100
AcDbSymbolTableRecord
100
AcDbDimStyleTableRecord
  2
AM_ISO$2
 70
     0
  4
"
 41
0.8
 42
1.0
 43
10.0
 44
1.0
 47
0.1
 48
0.1
 73
     0
 74
     0
 77
     3
 78
     8
 79
     2
140
3.200000000000001
141
0.0
143
0.0393701
146
0.71
147
0.9999999999999996
172
     1
176
   256
177
   256
178
     2
271
     2
272
     2
283
     0
284
     8
340
11
342
6C4
371
    -1
372
    -1
1001
ACAD_DSTYLE_DIMJOGGED_JOGANGLE_SYMBOL
1070
   384
1040
0.7853981633974483
1001
ACAD_DSTYLE_DIMARC_LENGTH_SYMBOL
1070
   379
1070
     1
  0
DIMSTYLE
105
FD1A
330
A
100
AcDbSymbolTableRecord
100
AcDbDimStyleTableRecord
  2
AM_ANSI$3
 70
     0
  4
mm
 41
0.1
 42
0.05
 43
0.5
 44
0.1
 47
0.1
 48
0.1
 78
     7
 79
     2
140
0.12
141
0.0
146
0.71
147
0.06
176
   256
177
   256
178
     2
274
     4
284
     7
288
     1
289
     0
340
11
371
    -1
372
    -1
1001
ACAD_DSTYLE_DIMARC_LENGTH_SYMBOL
1070
   379
1070
     1
  0
DIMSTYLE
105
FD1B
330
A
100
AcDbSymbolTableRecord
100
AcDbDimStyleTableRecord
  2
AM_ANSI$4
 70
     0
  4
mm
 41
0.1
 42
0.05
 43
0.5
 44
0.1
 47
0.1
 48
0.1
 78
     7
 79
     2
140
0.12
141
0.0
146
0.71
147
0.06
176
   256
177
   256
178
     2
274
     4
284
     7
288
     1
289
     0
340
11
371
    -1
372
    -1
1001
ACAD_DSTYLE_DIMARC_LENGTH_SYMBOL
1070
   379
1070
     1
  0
DIMSTYLE
105
FD1C
330
A
100
AcDbSymbolTableRecord
100
AcDbDimStyleTableRecord
  2
AM_ANSI$7
 70
     0
  4
mm
 41
0.1
 42
0.05
 43
0.5
 44
0.1
 47
0.1
 48
0.1
 78
     7
 79
     2
140
0.24
141
0.0
146
0.71
147
0.06
176
   256
177
   256
178
     2
274
     4
284
     7
340
11
371
    -1
372
    -1
1001
ACAD_DSTYLE_DIMARC_LENGTH_SYMBOL
1070
   379
1070
     1
  0
DIMSTYLE
105
FD1D
330
A
100
AcDbSymbolTableRecord
100
AcDbDimStyleTableRecord
  2
AM_ANSI$SF
 70
     0
  4
mm
 41
0.1
 42
0.05
 43
0.5
 44
0.1
 47
0.1
 48
0.1
 75
     1
 76
     1
 78
     7
 79
     2
140
0.12
141
0.0
146
0.71
147
0.06
176
   256
177
   256
178
     2
274
     4
284
     7
340
11
371
    -1
372
    -1
1001
ACAD_DSTYLE_DIMARC_LENGTH_SYMBOL
1070
   379
1070
     1
  0
DIMSTYLE
105
FD1E
330
A
100
AcDbSymbolTableRecord
100
AcDbDimStyleTableRecord
  2
AM_ANSI$SH
 70
     0
  4
mm
 41
0.1
 42
0.05
 43
0.5
 44
0.1
 47
0.1
 48
0.1
 75
     1
 76
     1
 78
     7
 79
     2
140
0.12
141
0.0
146
0.71
147
0.06
173
     1
176
   256
177
   256
178
     2
274
     4
284
     7
340
11
343
72
371
    -1
372
    -1
1001
ACAD_DSTYLE_DIMARC_LENGTH_SYMBOL
1070
   379
1070
     1
  0
ENDTAB
  0
TABLE
  2
BLOCK_RECORD
  5
1
330
0
100
AcDbSymbolTable
 70
    32
  0
BLOCK_RECORD
  5
1F
102
{ACAD_XDICTIONARY
360
8A
102
}
330
1
100
AcDbSymbolTableRecord
100
AcDbBlockTableRecord
  2
*Model_Space
340
22
  0
BLOCK_RECORD
  5
1B
330
1
100
AcDbSymbolTableRecord
100
AcDbBlockTableRecord
  2
*Paper_Space
340
1E
  0
BLOCK_RECORD
  5
23
330
1
100
AcDbSymbolTableRecord
100
AcDbBlockTableRecord
  2
*Paper_Space0
340
26
  0
BLOCK_RECORD
  5
72
330
1
100
AcDbSymbolTableRecord
100
AcDbBlockTableRecord
  2
GENAXEH
340
0
  0
BLOCK_RECORD
  5
6C4
330
1
100
AcDbSymbolTableRecord
100
AcDbBlockTableRecord
  2
_Dot
340
0
102
{BLKREFS
331
54FDF
331
54FE0
331
54FE8
331
54FE9
331
54FF2
331
54FF3
331
5500C
331
5500D
331
55017
331
55018
331
55071
331
55072
331
5507A
331
5507B
331
55083
331
55084
331
5508C
331
5508D
331
55095
331
55096
331
5509E
331
5509F
331
550A9
331
550AA
331
550BB
331
550BC
331
550C4
331
550C5
331
550CD
331
550CE
331
550D6
331
550D7
331
550DF
331
550E0
331
550E8
331
550E9
331
550F1
331
550F2
331
550FC
331
550FD
331
55105
331
55106
331
55126
331
55127
331
593B2
331
593B3
331
5A4A8
331
5A4A9
331
5A4B1
331
5A4B2
102
}
  0
BLOCK_RECORD
  5
A66
330
1
100
AcDbSymbolTableRecord
100
AcDbBlockTableRecord
  2
_OPEN30
340
0
  0
BLOCK_RECORD
  5
53DA7
330
1
100
AcDbSymbolTableRecord
100
AcDbBlockTableRecord
  2
*D7
340
0
  0
BLOCK_RECORD
  5
53DB3
330
1
100
AcDbSymbolTableRecord
100
AcDbBlockTableRecord
  2
*D8
340
0
  0
BLOCK_RECORD
  5
53DBF
330
1
100
AcDbSymbolTableRecord
100
AcDbBlockTableRecord
  2
*D9
340
0
  0
BLOCK_RECORD
  5
53DCD
330
1
100
AcDbSymbolTableRecord
100
AcDbBlockTableRecord
  2
*D10
340
0
  0
BLOCK_RECORD
  5
53DD9
330
1
100
AcDbSymbolTableRecord
100
AcDbBlockTableRecord
  2
*D11
340
0
  0
BLOCK_RECORD
  5
53DE5
330
1
100
AcDbSymbolTableRecord
100
AcDbBlockTableRecord
  2
*D12
340
0
  0
BLOCK_RECORD
  5
53DF1
330
1
100
AcDbSymbolTableRecord
100
AcDbBlockTableRecord
  2
*D13
340
0
  0
BLOCK_RECORD
  5
53DFF
330
1
100
AcDbSymbolTableRecord
100
AcDbBlockTableRecord
  2
*D14
340
0
  0
BLOCK_RECORD
  5
53E0B
330
1
100
AcDbSymbolTableRecord
100
AcDbBlockTableRecord
  2
*D15
340
0
  0
BLOCK_RECORD
  5
53E17
330
1
100
AcDbSymbolTableRecord
100
AcDbBlockTableRecord
  2
*D16
340
0
  0
BLOCK_RECORD
  5
53E23
330
1
100
AcDbSymbolTableRecord
100
AcDbBlockTableRecord
  2
*D17
340
0
  0
BLOCK_RECORD
  5
53E2F
330
1
100
AcDbSymbolTableRecord
100
AcDbBlockTableRecord
  2
*D18
340
0
  0
BLOCK_RECORD
  5
53E3B
330
1
100
AcDbSymbolTableRecord
100
AcDbBlockTableRecord
  2
*D19
340
0
  0
BLOCK_RECORD
  5
53E47
330
1
100
AcDbSymbolTableRecord
100
AcDbBlockTableRecord
  2
*D20
340
0
  0
BLOCK_RECORD
  5
53E53
330
1
100
AcDbSymbolTableRecord
100
AcDbBlockTableRecord
  2
*D21
340
0
  0
BLOCK_RECORD
  5
53E5F
330
1
100
AcDbSymbolTableRecord
100
AcDbBlockTableRecord
  2
*D22
340
0
  0
BLOCK_RECORD
  5
53E6B
330
1
100
AcDbSymbolTableRecord
100
AcDbBlockTableRecord
  2
*D23
340
0
  0
BLOCK_RECORD
  5
53E77
330
1
100
AcDbSymbolTableRecord
100
AcDbBlockTableRecord
  2
*D24
340
0
  0
BLOCK_RECORD
  5
53E83
330
1
100
AcDbSymbolTableRecord
100
AcDbBlockTableRecord
  2
*D25
340
0
  0
BLOCK_RECORD
  5
53E8F
330
1
100
AcDbSymbolTableRecord
100
AcDbBlockTableRecord
  2
*D26
340
0
  0
BLOCK_RECORD
  5
53E9B
330
1
100
AcDbSymbolTableRecord
100
AcDbBlockTableRecord
  2
*D27
340
0
  0
BLOCK_RECORD
  5
53EA7
330
1
100
AcDbSymbolTableRecord
100
AcDbBlockTableRecord
  2
*D28
340
0
  0
BLOCK_RECORD
  5
53EB3
330
1
100
AcDbSymbolTableRecord
100
AcDbBlockTableRecord
  2
*D29
340
0
  0
BLOCK_RECORD
  5
53EC1
330
1
100
AcDbSymbolTableRecord
100
AcDbBlockTableRecord
  2
*D30
340
0
  0
BLOCK_RECORD
  5
5510C
330
1
100
AcDbSymbolTableRecord
100
AcDbBlockTableRecord
  2
*D31
340
0
  0
ENDTAB
  0
ENDSEC
  0
SECTION
  2
BLOCKS
  0
BLOCK
  5
20
330
1F
100
AcDbEntity
  8
0
100
AcDbBlockBegin
  2
*Model_Space
 70
     0
 10
0.0
 20
0.0
 30
0.0
  3
*Model_Space
  1

  0
ENDBLK
  5
21
330
1F
100
AcDbEntity
  8
0
100
AcDbBlockEnd
  0
BLOCK
  5
1C
330
1B
100
AcDbEntity
 67
     1
  8
0
100
AcDbBlockBegin
  2
*Paper_Space
 70
     0
 10
0.0
 20
0.0
 30
0.0
  3
*Paper_Space
  1

  0
ENDBLK
  5
1D
330
1B
100
AcDbEntity
 67
     1
  8
0
100
AcDbBlockEnd
  0
BLOCK
  5
24
330
23
100
AcDbEntity
 67
     1
  8
0
100
AcDbBlockBegin
  2
*Paper_Space0
 70
     0
 10
0.0
 20
0.0
 30
0.0
  3
*Paper_Space0
  1

  0
ENDBLK
  5
25
330
23
100
AcDbEntity
 67
     1
  8
0
100
AcDbBlockEnd
  0
BLOCK
  5
74
330
72
100
AcDbEntity
  8
0
100
AcDbBlockBegin
  2
GENAXEH
 70
     0
 10
0.0
 20
0.0
 30
0.0
  3
GENAXEH
  1

  0
LINE
  5
73
330
72
100
AcDbEntity
  8
0
100
AcDbLine
 10
-1.0
 20
0.0
 30
0.0
 11
1.0
 21
0.0
 31
0.0
  0
ENDBLK
  5
75
330
72
100
AcDbEntity
  8
0
100
AcDbBlockEnd
  0
BLOCK
  5
6C7
330
6C4
100
AcDbEntity
  8
0
100
AcDbBlockBegin
  2
_Dot
 70
     0
 10
0.0
 20
0.0
 30
0.0
  3
_Dot
  1

  0
LWPOLYLINE
  5
6C5
330
6C4
100
AcDbEntity
  8
0
  6
ByBlock
 62
     0
100
AcDbPolyline
 90
        2
 70
     1
 43
0.5
 10
-0.25
 20
0.0
 42
1.0
 10
0.25
 20
0.0
 42
1.0
  0
LINE
  5
6C6
330
6C4
100
AcDbEntity
  8
0
  6
ByBlock
 62
     0
370
    -2
100
AcDbLine
 10
-0.5
 20
0.0
 30
0.0
 11
-1.0
 21
0.0
 31
0.0
  0
ENDBLK
  5
6C8
330
6C4
100
AcDbEntity
  8
0
100
AcDbBlockEnd
  0
BLOCK
  5
A6A
330
A66
100
AcDbEntity
  8
0
100
AcDbBlockBegin
  2
_OPEN30
 70
     0
 10
0.0
 20
0.0
 30
0.0
  3
_OPEN30
  1

  0
LINE
  5
A67
330
A66
100
AcDbEntity
  8
0
  6
ByBlock
 62
     0
100
AcDbLine
 10
-1.0
 20
0.26794919
 30
0.0
 11
0.0
 21
0.0
 31
0.0
  0
LINE
  5
A68
330
A66
100
AcDbEntity
  8
0
  6
ByBlock
 62
     0
100
AcDbLine
 10
0.0
 20
0.0
 30
0.0
 11
-1.0
 21
-0.26794919
 31
0.0
  0
LINE
  5
A69
330
A66
100
AcDbEntity
  8
0
  6
ByBlock
 62
     0
100
AcDbLine
 10
0.0
 20
0.0
 30
0.0
 11
-1.0
 21
0.0
 31
0.0
  0
ENDBLK
  5
A6B
330
A66
100
AcDbEntity
  8
0
100
AcDbBlockEnd
  0
BLOCK
  5
53DB1
330
53DA7
100
AcDbEntity
  8
0
100
AcDbBlockBegin
  2
*D7
 70
     1
 10
0.0
 20
0.0
 30
0.0
  3
*D7
  1

  0
LINE
  5
54FDC
330
53DA7
100
AcDbEntity
  8
AM_5
100
AcDbLine
 10
6186.193983069411
 20
-4432.772254998421
 30
0.0
 11
6186.193983069411
 21
-4382.712795998421
 31
0.0
  0
LINE
  5
54FDD
330
53DA7
100
AcDbEntity
  8
AM_5
100
AcDbLine
 10
6226.193983069411
 20
-4393.71279599842
 30
0.0
 11
6226.193983069411
 21
-4382.712795998421
 31
0.0
  0
LINE
  5
54FDE
330
53DA7
100
AcDbEntity
  8
AM_5
100
AcDbLine
 10
6187.19398306941
 20
-4383.712795998421
 30
0.0
 11
6225.193983069409
 21
-4383.712795998421
 31
0.0
  0
INSERT
  5
54FDF
330
53DA7
100
AcDbEntity
  8
AM_5
100
AcDbBlockReference
  2
_Dot
 10
6186.193983069411
 20
-4383.712795998421
 30
0.0
 50
180.0
  0
INSERT
  5
54FE0
330
53DA7
100
AcDbEntity
  8
AM_5
100
AcDbBlockReference
  2
_Dot
 10
6226.193983069411
 20
-4383.712795998421
 30
0.0
  0
MTEXT
  5
54FE1
330
53DA7
100
AcDbEntity
  8
AM_5
 62
     2
100
AcDbMText
 10
6206.19398306941
 20
-4381.11279599842
 30
0.0
 40
3.200000000000001
 41
0.0
 71
     5
 72
     1
  1
（40.5）
 73
     1
 44
1.0
1001
ACAD
1000
MTEXTBEGIN
1070
    73
1070
     1
1070
    44
1040
1.0
1070
    74
1070
     0
1000
MTEXTEND
  0
POINT
  5
54FE2
330
53DA7
100
AcDbEntity
  8
Defpoints
 62
     0
100
AcDbPoint
 10
6186.193983069411
 20
-4433.772254998421
 30
0.0
  0
POINT
  5
54FE3
330
53DA7
100
AcDbEntity
  8
Defpoints
 62
     0
100
AcDbPoint
 10
6226.193983069411
 20
-4394.712795998421
 30
0.0
  0
POINT
  5
54FE4
330
53DA7
100
AcDbEntity
  8
Defpoints
 62
     0
100
AcDbPoint
 10
6226.193983069411
 20
-4383.712795998421
 30
0.0
  0
ENDBLK
  5
53DB2
330
53DA7
100
AcDbEntity
  8
0
100
AcDbBlockEnd
  0
BLOCK
  5
53DBD
330
53DB3
100
AcDbEntity
  8
0
100
AcDbBlockBegin
  2
*D8
 70
     1
 10
0.0
 20
0.0
 30
0.0
  3
*D8
  1

  0
LINE
  5
54FE5
330
53DB3
100
AcDbEntity
  8
AM_5
100
AcDbLine
 10
6186.193983069411
 20
-4432.772254998421
 30
0.0
 11
6186.193983069411
 21
-4382.712795998421
 31
0.0
  0
LINE
  5
54FE6
330
53DB3
100
AcDbEntity
  8
AM_5
100
AcDbLine
 10
6170.69398306941
 20
-4390.71279599842
 30
0.0
 11
6170.69398306941
 21
-4382.712795998421
 31
0.0
  0
LINE
  5
54FE7
330
53DB3
100
AcDbEntity
  8
AM_5
100
AcDbLine
 10
6185.19398306941
 20
-4383.712795998421
 30
0.0
 11
6171.69398306941
 21
-4383.712795998421
 31
0.0
  0
INSERT
  5
54FE8
330
53DB3
100
AcDbEntity
  8
AM_5
100
AcDbBlockReference
  2
_Dot
 10
6186.193983069411
 20
-4383.712795998421
 30
0.0
  0
INSERT
  5
54FE9
330
53DB3
100
AcDbEntity
  8
AM_5
100
AcDbBlockReference
  2
_Dot
 10
6170.69398306941
 20
-4383.712795998421
 30
0.0
 50
180.0
  0
MTEXT
  5
54FEA
330
53DB3
100
AcDbEntity
  8
AM_5
 62
     2
100
AcDbMText
 10
6178.44398306941
 20
-4381.11279599842
 30
0.0
 40
3.200000000000001
 41
0.0
 71
     5
 72
     1
  1
15.5
 73
     1
 44
1.0
1001
ACAD
1000
MTEXTBEGIN
1070
    73
1070
     1
1070
    44
1040
1.0
1070
    74
1070
     0
1000
MTEXTEND
  0
POINT
  5
54FEB
330
53DB3
100
AcDbEntity
  8
Defpoints
 62
     0
100
AcDbPoint
 10
6186.193983069411
 20
-4433.772254998421
 30
0.0
  0
POINT
  5
54FEC
330
53DB3
100
AcDbEntity
  8
Defpoints
 62
     0
100
AcDbPoint
 10
6170.69398306941
 20
-4391.712795998421
 30
0.0
  0
POINT
  5
54FED
330
53DB3
100
AcDbEntity
  8
Defpoints
 62
     0
100
AcDbPoint
 10
6170.69398306941
 20
-4383.712795998421
 30
0.0
  0
ENDBLK
  5
53DBE
330
53DB3
100
AcDbEntity
  8
0
100
AcDbBlockEnd
  0
BLOCK
  5
53DCB
330
53DBF
100
AcDbEntity
  8
0
100
AcDbBlockBegin
  2
*D9
 70
     1
 10
0.0
 20
0.0
 30
0.0
  3
*D9
  1

  0
LINE
  5
54FEE
330
53DBF
100
AcDbEntity
  8
AM_5
100
AcDbLine
 10
6225.193983069409
 20
-4402.11279599842
 30
0.0
 11
6235.193983069409
 21
-4402.11279599842
 31
0.0
  0
LINE
  5
54FEF
330
53DBF
100
AcDbEntity
  8
AM_5
100
AcDbLine
 10
6234.19398306941
 20
-4401.112795998421
 30
0.0
 11
6234.19398306941
 21
-4400.11279599842
 31
0.0
  0
LINE
  5
54FF0
330
53DBF
100
AcDbEntity
  8
AM_5
100
AcDbLine
 10
6234.19398306941
 20
-4405.11279599842
 30
0.0
 11
6234.19398306941
 21
-4409.606129331755
 31
0.0
  0
LINE
  5
54FF1
330
53DBF
100
AcDbEntity
  8
AM_5
100
AcDbLine
 10
6234.19398306941
 20
-4402.11279599842
 30
0.0
 11
6234.19398306941
 21
-4404.112795998421
 31
0.0
  0
INSERT
  5
54FF2
330
53DBF
100
AcDbEntity
  8
AM_5
100
AcDbBlockReference
  2
_Dot
 10
6234.19398306941
 20
-4402.11279599842
 30
0.0
 50
270.0
  0
INSERT
  5
54FF3
330
53DBF
100
AcDbEntity
  8
AM_5
100
AcDbBlockReference
  2
_Dot
 10
6234.19398306941
 20
-4404.112795998421
 30
0.0
 50
90.0
  0
MTEXT
  5
54FF4
330
53DBF
100
AcDbEntity
  8
AM_5
 62
     2
100
AcDbMText
 10
6231.59398306941
 20
-4407.859462665086
 30
0.0
 40
3.200000000000001
 41
0.0
 71
     5
 72
     1
  1
2
 11
0.0000000000000001
 21
1.0
 31
0.0
 73
     1
 44
1.0
1001
ACAD
1000
MTEXTBEGIN
1070
    73
1070
     1
1070
    44
1040
1.0
1070
    74
1070
     0
1000
MTEXTEND
  0
POINT
  5
54FF5
330
53DBF
100
AcDbEntity
  8
Defpoints
 62
     0
100
AcDbPoint
 10
6234.19398306941
 20
-4404.112795998421
 30
0.0
  0
POINT
  5
54FF6
330
53DBF
100
AcDbEntity
  8
Defpoints
 62
     0
100
AcDbPoint
 10
6224.19398306941
 20
-4402.11279599842
 30
0.0
  0
POINT
  5
54FF7
330
53DBF
100
AcDbEntity
  8
Defpoints
 62
     0
100
AcDbPoint
 10
6234.19398306941
 20
-4402.11279599842
 30
0.0
  0
ENDBLK
  5
53DCC
330
53DBF
100
AcDbEntity
  8
0
100
AcDbBlockEnd
  0
BLOCK
  5
53DD7
330
53DCD
100
AcDbEntity
  8
0
100
AcDbBlockBegin
  2
*D10
 70
     1
 10
0.0
 20
0.0
 30
0.0
  3
*D10
  1

  0
LINE
  5
593B0
330
53DCD
100
AcDbEntity
  8
AM_5
100
AcDbLine
 10
6209.842181465618
 20
-4391.712795952105
 30
0.0
 11
6243.193983069409
 21
-4391.712795952105
 31
0.0
  0
LINE
  5
593B1
330
53DCD
100
AcDbEntity
  8
AM_5
100
AcDbLine
 10
6242.193983069409
 20
-4403.11279599842
 30
0.0
 11
6242.193983069409
 21
-4392.712795952105
 31
0.0
  0
INSERT
  5
593B2
330
53DCD
100
AcDbEntity
  8
AM_5
100
AcDbBlockReference
  2
_Dot
 10
6242.193983069409
 20
-4404.112795998421
 30
0.0
 50
270.0
  0
INSERT
  5
593B3
330
53DCD
100
AcDbEntity
  8
AM_5
100
AcDbBlockReference
  2
_Dot
 10
6242.193983069409
 20
-4391.712795952105
 30
0.0
 50
90.0
  0
MTEXT
  5
593B4
330
53DCD
100
AcDbEntity
  8
AM_5
 62
     2
100
AcDbMText
 10
6239.59398306941
 20
-4397.91279597526
 30
0.0
 40
3.200000000000001
 41
0.0
 71
     5
 72
     1
  1
12.5
 11
0.0000000000000001
 21
1.0
 31
0.0
 73
     1
 44
1.0
1001
ACAD
1000
MTEXTBEGIN
1070
    73
1070
     1
1070
    44
1040
1.0
1070
    74
1070
     0
1000
MTEXTEND
  0
POINT
  5
593B5
330
53DCD
100
AcDbEntity
  8
Defpoints
 62
     0
100
AcDbPoint
 10
6242.193983069409
 20
-4404.112795998421
 30
0.0
  0
POINT
  5
593B6
330
53DCD
100
AcDbEntity
  8
Defpoints
 62
     0
100
AcDbPoint
 10
6208.842181465619
 20
-4391.712795952105
 30
0.0
  0
POINT
  5
593B7
330
53DCD
100
AcDbEntity
  8
Defpoints
 62
     0
100
AcDbPoint
 10
6242.193983069409
 20
-4391.712795952105
 30
0.0
  0
ENDBLK
  5
53DD8
330
53DCD
100
AcDbEntity
  8
0
100
AcDbBlockEnd
  0
BLOCK
  5
53DE3
330
53DD9
100
AcDbEntity
  8
0
100
AcDbBlockBegin
  2
*D11
 70
     1
 10
0.0
 20
0.0
 30
0.0
  3
*D11
  1

  0
LINE
  5
5A4A6
330
53DD9
100
AcDbEntity
  8
AM_5
100
AcDbLine
 10
6185.69398306941
 20
-4442.772254998421
 30
0.0
 11
6243.193983069409
 21
-4442.772254998421
 31
0.0
  0
LINE
  5
5A4A7
330
53DD9
100
AcDbEntity
  8
AM_5
100
AcDbLine
 10
6242.193983069409
 20
-4405.11279599842
 30
0.0
 11
6242.193983069409
 21
-4441.772254998421
 31
0.0
  0
INSERT
  5
5A4A8
330
53DD9
100
AcDbEntity
  8
AM_5
100
AcDbBlockReference
  2
_Dot
 10
6242.193983069409
 20
-4404.112795998421
 30
0.0
 50
90.0
  0
INSERT
  5
5A4A9
330
53DD9
100
AcDbEntity
  8
AM_5
100
AcDbBlockReference
  2
_Dot
 10
6242.193983069409
 20
-4442.772254998421
 30
0.0
 50
270.0
  0
MTEXT
  5
5A4AA
330
53DD9
100
AcDbEntity
  8
AM_5
 62
     2
100
AcDbMText
 10
6239.59398306941
 20
-4423.442525498418
 30
0.0
 40
3.200000000000001
 41
0.0
 71
     5
 72
     1
  1
Y
 11
0.0000000000000001
 21
1.0
 31
0.0
 73
     1
 44
1.0
1001
ACAD
1000
MTEXTBEGIN
1070
    73
1070
     1
1070
    44
1040
1.0
1070
    74
1070
     0
1000
MTEXTEND
  0
POINT
  5
5A4AB
330
53DD9
100
AcDbEntity
  8
Defpoints
 62
     0
100
AcDbPoint
 10
6242.193983069409
 20
-4404.112795998421
 30
0.0
  0
POINT
  5
5A4AC
330
53DD9
100
AcDbEntity
  8
Defpoints
 62
     0
100
AcDbPoint
 10
6184.69398306941
 20
-4442.772254998421
 30
0.0
  0
POINT
  5
5A4AD
330
53DD9
100
AcDbEntity
  8
Defpoints
 62
     0
100
AcDbPoint
 10
6242.193983069409
 20
-4442.772254998421
 30
0.0
  0
ENDBLK
  5
53DE4
330
53DD9
100
AcDbEntity
  8
0
100
AcDbBlockEnd
  0
BLOCK
  5
53DEF
330
53DE5
100
AcDbEntity
  8
0
100
AcDbBlockBegin
  2
*D12
 70
     1
 10
0.0
 20
0.0
 30
0.0
  3
*D12
  1

  0
LINE
  5
55009
330
53DE5
100
AcDbEntity
  8
AM_5
100
AcDbLine
 10
6173.19398306941
 20
-4442.772254998421
 30
0.0
 11
6157.19398306941
 21
-4442.772254998421
 31
0.0
  0
LINE
  5
5500A
330
53DE5
100
AcDbEntity
  8
AM_5
100
AcDbLine
 10
6181.69398306941
 20
-4430.27225499842
 30
0.0
 11
6157.19398306941
 21
-4430.27225499842
 31
0.0
  0
LINE
  5
5500B
330
53DE5
100
AcDbEntity
  8
AM_5
100
AcDbLine
 10
6158.19398306941
 20
-4441.772254998421
 30
0.0
 11
6158.19398306941
 21
-4431.27225499842
 31
0.0
  0
INSERT
  5
5500C
330
53DE5
100
AcDbEntity
  8
AM_5
100
AcDbBlockReference
  2
_Dot
 10
6158.19398306941
 20
-4442.772254998421
 30
0.0
 50
270.0
  0
INSERT
  5
5500D
330
53DE5
100
AcDbEntity
  8
AM_5
100
AcDbBlockReference
  2
_Dot
 10
6158.19398306941
 20
-4430.27225499842
 30
0.0
 50
90.0
  0
MTEXT
  5
5500E
330
53DE5
100
AcDbEntity
  8
AM_5
 62
     2
100
AcDbMText
 10
6155.593983069411
 20
-4436.522254998418
 30
0.0
 40
3.200000000000001
 41
0.0
 71
     5
 72
     1
  1
12.5
 11
0.0000000000000001
 21
1.0
 31
0.0
 73
     1
 44
1.0
1001
ACAD
1000
MTEXTBEGIN
1070
    73
1070
     1
1070
    44
1040
1.0
1070
    74
1070
     0
1000
MTEXTEND
  0
POINT
  5
5500F
330
53DE5
100
AcDbEntity
  8
Defpoints
 62
     0
100
AcDbPoint
 10
6174.19398306941
 20
-4442.772254998421
 30
0.0
  0
POINT
  5
55010
330
53DE5
100
AcDbEntity
  8
Defpoints
 62
     0
100
AcDbPoint
 10
6182.69398306941
 20
-4430.27225499842
 30
0.0
  0
POINT
  5
55011
330
53DE5
100
AcDbEntity
  8
Defpoints
 62
     0
100
AcDbPoint
 10
6158.19398306941
 20
-4430.27225499842
 30
0.0
  0
ENDBLK
  5
53DF0
330
53DE5
100
AcDbEntity
  8
0
100
AcDbBlockEnd
  0
BLOCK
  5
53DFD
330
53DF1
100
AcDbEntity
  8
0
100
AcDbBlockBegin
  2
*D13
 70
     1
 10
0.0
 20
0.0
 30
0.0
  3
*D13
  1

  0
LINE
  5
55012
330
53DF1
100
AcDbEntity
  8
AM_5
100
AcDbLine
 10
6173.19398306941
 20
-4442.772254998421
 30
0.0
 11
6165.193983069411
 21
-4442.772254998421
 31
0.0
  0
LINE
  5
55013
330
53DF1
100
AcDbEntity
  8
AM_5
100
AcDbLine
 10
6173.19398306941
 20
-4441.272254998421
 30
0.0
 11
6165.193983069411
 21
-4441.272254998421
 31
0.0
  0
LINE
  5
55014
330
53DF1
100
AcDbEntity
  8
AM_5
100
AcDbLine
 10
6166.19398306941
 20
-4440.272254998421
 30
0.0
 11
6166.19398306941
 21
-4439.272254998421
 31
0.0
  0
LINE
  5
55015
330
53DF1
100
AcDbEntity
  8
AM_5
100
AcDbLine
 10
6166.19398306941
 20
-4443.77225499842
 30
0.0
 11
6166.19398306941
 21
-4451.145588331755
 31
0.0
  0
LINE
  5
55016
330
53DF1
100
AcDbEntity
  8
AM_5
100
AcDbLine
 10
6166.19398306941
 20
-4441.272254998421
 30
0.0
 11
6166.19398306941
 21
-4442.772254998421
 31
0.0
  0
INSERT
  5
55017
330
53DF1
100
AcDbEntity
  8
AM_5
100
AcDbBlockReference
  2
_Dot
 10
6166.19398306941
 20
-4441.272254998421
 30
0.0
 50
270.0
  0
INSERT
  5
55018
330
53DF1
100
AcDbEntity
  8
AM_5
100
AcDbBlockReference
  2
_Dot
 10
6166.19398306941
 20
-4442.772254998421
 30
0.0
 50
90.0
  0
MTEXT
  5
55019
330
53DF1
100
AcDbEntity
  8
AM_5
 62
     2
100
AcDbMText
 10
6163.593983069411
 20
-4447.958921665086
 30
0.0
 40
3.200000000000001
 41
0.0
 71
     5
 72
     1
  1
1.5
 11
0.0000000000000001
 21
1.0
 31
0.0
 73
     1
 44
1.0
1001
ACAD
1000
MTEXTBEGIN
1070
    73
1070
     1
1070
    44
1040
1.0
1070
    74
1070
     0
1000
MTEXTEND
  0
POINT
  5
5501A
330
53DF1
100
AcDbEntity
  8
Defpoints
 62
     0
100
AcDbPoint
 10
6174.19398306941
 20
-4442.772254998421
 30
0.0
  0
POINT
  5
5501B
330
53DF1
100
AcDbEntity
  8
Defpoints
 62
     0
100
AcDbPoint
 10
6174.19398306941
 20
-4441.272254998421
 30
0.0
  0
POINT
  5
5501C
330
53DF1
100
AcDbEntity
  8
Defpoints
 62
     0
100
AcDbPoint
 10
6166.19398306941
 20
-4441.272254998421
 30
0.0
  0
ENDBLK
  5
53DFE
330
53DF1
100
AcDbEntity
  8
0
100
AcDbBlockEnd
  0
BLOCK
  5
53E09
330
53DFF
100
AcDbEntity
  8
0
100
AcDbBlockBegin
  2
*D14
 70
     1
 10
0.0
 20
0.0
 30
0.0
  3
*D14
  1

  0
LINE
  5
550B8
330
53DFF
100
AcDbEntity
  8
AM_5
100
AcDbLine
 10
6186.193983069411
 20
-4470.744960804215
 30
0.0
 11
6186.193983069411
 21
-4452.744960804215
 31
0.0
  0
LINE
  5
550B9
330
53DFF
100
AcDbEntity
  8
AM_5
100
AcDbLine
 10
6179.19398306941
 20
-4457.744960804215
 30
0.0
 11
6179.19398306941
 21
-4452.744960804215
 31
0.0
  0
LINE
  5
550BA
330
53DFF
100
AcDbEntity
  8
AM_5
100
AcDbLine
 10
6185.19398306941
 20
-4453.744960804215
 30
0.0
 11
6180.19398306941
 21
-4453.744960804215
 31
0.0
  0
INSERT
  5
550BB
330
53DFF
100
AcDbEntity
  8
AM_5
100
AcDbBlockReference
  2
_Dot
 10
6186.193983069411
 20
-4453.744960804215
 30
0.0
  0
INSERT
  5
550BC
330
53DFF
100
AcDbEntity
  8
AM_5
100
AcDbBlockReference
  2
_Dot
 10
6179.19398306941
 20
-4453.744960804215
 30
0.0
 50
180.0
  0
MTEXT
  5
550BD
330
53DFF
100
AcDbEntity
  8
AM_5
 62
     2
100
AcDbMText
 10
6182.69398306941
 20
-4451.144960804215
 30
0.0
 40
3.200000000000001
 41
0.0
 71
     5
 72
     1
  1
7
 73
     1
 44
1.0
1001
ACAD
1000
MTEXTBEGIN
1070
    73
1070
     1
1070
    44
1040
1.0
1070
    74
1070
     0
1000
MTEXTEND
  0
POINT
  5
550BE
330
53DFF
100
AcDbEntity
  8
Defpoints
 62
     0
100
AcDbPoint
 10
6186.193983069411
 20
-4471.744960804215
 30
0.0
  0
POINT
  5
550BF
330
53DFF
100
AcDbEntity
  8
Defpoints
 62
     0
100
AcDbPoint
 10
6179.19398306941
 20
-4458.744960804216
 30
0.0
  0
POINT
  5
550C0
330
53DFF
100
AcDbEntity
  8
Defpoints
 62
     0
100
AcDbPoint
 10
6179.19398306941
 20
-4453.744960804215
 30
0.0
  0
ENDBLK
  5
53E0A
330
53DFF
100
AcDbEntity
  8
0
100
AcDbBlockEnd
  0
BLOCK
  5
53E15
330
53E0B
100
AcDbEntity
  8
0
100
AcDbBlockBegin
  2
*D15
 70
     1
 10
0.0
 20
0.0
 30
0.0
  3
*D15
  1

  0
LINE
  5
550C1
330
53E0B
100
AcDbEntity
  8
AM_5
100
AcDbLine
 10
6186.193983069411
 20
-4470.744960804215
 30
0.0
 11
6186.193983069411
 21
-4452.744960804215
 31
0.0
  0
LINE
  5
550C2
330
53E0B
100
AcDbEntity
  8
AM_5
100
AcDbLine
 10
6203.19398306941
 20
-4473.994960804215
 30
0.0
 11
6203.19398306941
 21
-4452.744960804215
 31
0.0
  0
LINE
  5
550C3
330
53E0B
100
AcDbEntity
  8
AM_5
100
AcDbLine
 10
6187.19398306941
 20
-4453.744960804215
 30
0.0
 11
6202.19398306941
 21
-4453.744960804215
 31
0.0
  0
INSERT
  5
550C4
330
53E0B
100
AcDbEntity
  8
AM_5
100
AcDbBlockReference
  2
_Dot
 10
6186.193983069411
 20
-4453.744960804215
 30
0.0
 50
180.0
  0
INSERT
  5
550C5
330
53E0B
100
AcDbEntity
  8
AM_5
100
AcDbBlockReference
  2
_Dot
 10
6203.19398306941
 20
-4453.744960804215
 30
0.0
  0
MTEXT
  5
550C6
330
53E0B
100
AcDbEntity
  8
AM_5
 62
     2
100
AcDbMText
 10
6194.693983069409
 20
-4451.144960804215
 30
0.0
 40
3.200000000000001
 41
0.0
 71
     5
 72
     1
  1
（17）
 73
     1
 44
1.0
1001
ACAD
1000
MTEXTBEGIN
1070
    73
1070
     1
1070
    44
1040
1.0
1070
    74
1070
     0
1000
MTEXTEND
  0
POINT
  5
550C7
330
53E0B
100
AcDbEntity
  8
Defpoints
 62
     0
100
AcDbPoint
 10
6186.193983069411
 20
-4471.744960804215
 30
0.0
  0
POINT
  5
550C8
330
53E0B
100
AcDbEntity
  8
Defpoints
 62
     0
100
AcDbPoint
 10
6203.19398306941
 20
-4474.994960804215
 30
0.0
  0
POINT
  5
550C9
330
53E0B
100
AcDbEntity
  8
Defpoints
 62
     0
100
AcDbPoint
 10
6203.19398306941
 20
-4453.744960804215
 30
0.0
  0
ENDBLK
  5
53E16
330
53E0B
100
AcDbEntity
  8
0
100
AcDbBlockEnd
  0
BLOCK
  5
53E21
330
53E17
100
AcDbEntity
  8
0
100
AcDbBlockBegin
  2
*D16
 70
     1
 10
0.0
 20
0.0
 30
0.0
  3
*D16
  1

  0
LINE
  5
550CA
330
53E17
100
AcDbEntity
  8
AM_5
100
AcDbLine
 10
6203.19398306941
 20
-4473.994960804215
 30
0.0
 11
6203.19398306941
 21
-4452.744960804215
 31
0.0
  0
LINE
  5
550CB
330
53E17
100
AcDbEntity
  8
AM_5
100
AcDbLine
 10
6218.19398306941
 20
-4473.994960804215
 30
0.0
 11
6218.19398306941
 21
-4452.744960804215
 31
0.0
  0
LINE
  5
550CC
330
53E17
100
AcDbEntity
  8
AM_5
100
AcDbLine
 10
6204.19398306941
 20
-4453.744960804215
 30
0.0
 11
6217.19398306941
 21
-4453.744960804215
 31
0.0
  0
INSERT
  5
550CD
330
53E17
100
AcDbEntity
  8
AM_5
100
AcDbBlockReference
  2
_Dot
 10
6203.19398306941
 20
-4453.744960804215
 30
0.0
 50
180.0
  0
INSERT
  5
550CE
330
53E17
100
AcDbEntity
  8
AM_5
100
AcDbBlockReference
  2
_Dot
 10
6218.19398306941
 20
-4453.744960804215
 30
0.0
  0
MTEXT
  5
550CF
330
53E17
100
AcDbEntity
  8
AM_5
 62
     2
100
AcDbMText
 10
6210.69398306941
 20
-4451.144960804215
 30
0.0
 40
3.200000000000001
 41
0.0
 71
     5
 72
     1
  1
15
 73
     1
 44
1.0
1001
ACAD
1000
MTEXTBEGIN
1070
    73
1070
     1
1070
    44
1040
1.0
1070
    74
1070
     0
1000
MTEXTEND
  0
POINT
  5
550D0
330
53E17
100
AcDbEntity
  8
Defpoints
 62
     0
100
AcDbPoint
 10
6203.19398306941
 20
-4474.994960804215
 30
0.0
  0
POINT
  5
550D1
330
53E17
100
AcDbEntity
  8
Defpoints
 62
     0
100
AcDbPoint
 10
6218.19398306941
 20
-4474.994960804215
 30
0.0
  0
POINT
  5
550D2
330
53E17
100
AcDbEntity
  8
Defpoints
 62
     0
100
AcDbPoint
 10
6218.19398306941
 20
-4453.744960804215
 30
0.0
  0
ENDBLK
  5
53E22
330
53E17
100
AcDbEntity
  8
0
100
AcDbBlockEnd
  0
BLOCK
  5
53E2D
330
53E23
100
AcDbEntity
  8
0
100
AcDbBlockBegin
  2
*D17
 70
     1
 10
0.0
 20
0.0
 30
0.0
  3
*D17
  1

  0
LINE
  5
550D3
330
53E23
100
AcDbEntity
  8
AM_5
100
AcDbLine
 10
6218.19398306941
 20
-4473.994960804215
 30
0.0
 11
6218.19398306941
 21
-4452.744960804215
 31
0.0
  0
LINE
  5
550D4
330
53E23
100
AcDbEntity
  8
AM_5
100
AcDbLine
 10
6224.19398306941
 20
-4478.244960804214
 30
0.0
 11
6224.19398306941
 21
-4452.744960804215
 31
0.0
  0
LINE
  5
550D5
330
53E23
100
AcDbEntity
  8
AM_5
100
AcDbLine
 10
6219.19398306941
 20
-4453.744960804215
 30
0.0
 11
6223.19398306941
 21
-4453.744960804215
 31
0.0
  0
INSERT
  5
550D6
330
53E23
100
AcDbEntity
  8
AM_5
100
AcDbBlockReference
  2
_Dot
 10
6218.19398306941
 20
-4453.744960804215
 30
0.0
 50
180.0
  0
INSERT
  5
550D7
330
53E23
100
AcDbEntity
  8
AM_5
100
AcDbBlockReference
  2
_Dot
 10
6224.19398306941
 20
-4453.744960804215
 30
0.0
  0
MTEXT
  5
550D8
330
53E23
100
AcDbEntity
  8
AM_5
 62
     2
100
AcDbMText
 10
6221.19398306941
 20
-4451.144960804215
 30
0.0
 40
3.200000000000001
 41
0.0
 71
     5
 72
     1
  1
6
 73
     1
 44
1.0
1001
ACAD
1000
MTEXTBEGIN
1070
    73
1070
     1
1070
    44
1040
1.0
1070
    74
1070
     0
1000
MTEXTEND
  0
POINT
  5
550D9
330
53E23
100
AcDbEntity
  8
Defpoints
 62
     0
100
AcDbPoint
 10
6218.19398306941
 20
-4474.994960804215
 30
0.0
  0
POINT
  5
550DA
330
53E23
100
AcDbEntity
  8
Defpoints
 62
     0
100
AcDbPoint
 10
6224.19398306941
 20
-4479.244960804215
 30
0.0
  0
POINT
  5
550DB
330
53E23
100
AcDbEntity
  8
Defpoints
 62
     0
100
AcDbPoint
 10
6224.19398306941
 20
-4453.744960804215
 30
0.0
  0
ENDBLK
  5
53E2E
330
53E23
100
AcDbEntity
  8
0
100
AcDbBlockEnd
  0
BLOCK
  5
53E39
330
53E2F
100
AcDbEntity
  8
0
100
AcDbBlockBegin
  2
*D18
 70
     1
 10
0.0
 20
0.0
 30
0.0
  3
*D18
  1

  0
LINE
  5
550DC
330
53E2F
100
AcDbEntity
  8
AM_5
100
AcDbLine
 10
6174.19398306941
 20
-4492.744960804215
 30
0.0
 11
6174.19398306941
 21
-4505.744960804215
 31
0.0
  0
LINE
  5
550DD
330
53E2F
100
AcDbEntity
  8
AM_5
100
AcDbLine
 10
6184.19398306941
 20
-4492.744960804215
 30
0.0
 11
6184.19398306941
 21
-4505.744960804215
 31
0.0
  0
LINE
  5
550DE
330
53E2F
100
AcDbEntity
  8
AM_5
100
AcDbLine
 10
6175.19398306941
 20
-4504.744960804215
 30
0.0
 11
6183.19398306941
 21
-4504.744960804215
 31
0.0
  0
INSERT
  5
550DF
330
53E2F
100
AcDbEntity
  8
AM_5
100
AcDbBlockReference
  2
_Dot
 10
6174.19398306941
 20
-4504.744960804215
 30
0.0
 50
180.0
  0
INSERT
  5
550E0
330
53E2F
100
AcDbEntity
  8
AM_5
100
AcDbBlockReference
  2
_Dot
 10
6184.19398306941
 20
-4504.744960804215
 30
0.0
  0
MTEXT
  5
550E1
330
53E2F
100
AcDbEntity
  8
AM_5
 62
     2
100
AcDbMText
 10
6179.19398306941
 20
-4502.144960804215
 30
0.0
 40
3.200000000000001
 41
0.0
 71
     5
 72
     1
  1
10
 73
     1
 44
1.0
1001
ACAD
1000
MTEXTBEGIN
1070
    73
1070
     1
1070
    44
1040
1.0
1070
    74
1070
     0
1000
MTEXTEND
  0
POINT
  5
550E2
330
53E2F
100
AcDbEntity
  8
Defpoints
 62
     0
100
AcDbPoint
 10
6174.19398306941
 20
-4491.744960804215
 30
0.0
  0
POINT
  5
550E3
330
53E2F
100
AcDbEntity
  8
Defpoints
 62
     0
100
AcDbPoint
 10
6184.19398306941
 20
-4491.744960804215
 30
0.0
  0
POINT
  5
550E4
330
53E2F
100
AcDbEntity
  8
Defpoints
 62
     0
100
AcDbPoint
 10
6184.19398306941
 20
-4504.744960804215
 30
0.0
  0
ENDBLK
  5
53E3A
330
53E2F
100
AcDbEntity
  8
0
100
AcDbBlockEnd
  0
BLOCK
  5
53E45
330
53E3B
100
AcDbEntity
  8
0
100
AcDbBlockBegin
  2
*D19
 70
     1
 10
0.0
 20
0.0
 30
0.0
  3
*D19
  1

  0
LINE
  5
550E5
330
53E3B
100
AcDbEntity
  8
AM_5
100
AcDbLine
 10
6173.94398306941
 20
-4491.744960804215
 30
0.0
 11
6165.193983069409
 21
-4491.744960804215
 31
0.0
  0
LINE
  5
550E6
330
53E3B
100
AcDbEntity
  8
AM_5
100
AcDbLine
 10
6173.94398306941
 20
-4466.744960804216
 30
0.0
 11
6165.193983069409
 21
-4466.744960804216
 31
0.0
  0
LINE
  5
550E7
330
53E3B
100
AcDbEntity
  8
AM_5
100
AcDbLine
 10
6166.193983069409
 20
-4490.744960804215
 30
0.0
 11
6166.193983069409
 21
-4467.744960804215
 31
0.0
  0
INSERT
  5
550E8
330
53E3B
100
AcDbEntity
  8
AM_5
100
AcDbBlockReference
  2
_Dot
 10
6166.193983069409
 20
-4491.744960804215
 30
0.0
 50
270.0
  0
INSERT
  5
550E9
330
53E3B
100
AcDbEntity
  8
AM_5
100
AcDbBlockReference
  2
_Dot
 10
6166.193983069409
 20
-4466.744960804216
 30
0.0
 50
90.0
  0
MTEXT
  5
550EA
330
53E3B
100
AcDbEntity
  8
AM_5
 62
     2
100
AcDbMText
 10
6163.59398306941
 20
-4479.244960804215
 30
0.0
 40
3.200000000000001
 41
0.0
 71
     5
 72
     1
  1
25
 11
0.0000000000000001
 21
1.0
 31
0.0
 73
     1
 44
1.0
1001
ACAD
1000
MTEXTBEGIN
1070
    73
1070
     1
1070
    44
1040
1.0
1070
    74
1070
     0
1000
MTEXTEND
  0
POINT
  5
550EB
330
53E3B
100
AcDbEntity
  8
Defpoints
 62
     0
100
AcDbPoint
 10
6174.94398306941
 20
-4491.744960804215
 30
0.0
  0
POINT
  5
550EC
330
53E3B
100
AcDbEntity
  8
Defpoints
 62
     0
100
AcDbPoint
 10
6174.94398306941
 20
-4466.744960804216
 30
0.0
  0
POINT
  5
550ED
330
53E3B
100
AcDbEntity
  8
Defpoints
 62
     0
100
AcDbPoint
 10
6166.193983069409
 20
-4466.744960804216
 30
0.0
  0
ENDBLK
  5
53E46
330
53E3B
100
AcDbEntity
  8
0
100
AcDbBlockEnd
  0
BLOCK
  5
53E51
330
53E47
100
AcDbEntity
  8
0
100
AcDbBlockBegin
  2
*D20
 70
     1
 10
0.0
 20
0.0
 30
0.0
  3
*D20
  1

  0
LINE
  5
550EE
330
53E47
100
AcDbEntity
  8
AM_5
100
AcDbLine
 10
6178.19398306941
 20
-4461.744960804215
 30
0.0
 11
6157.193983069409
 21
-4461.744960804215
 31
0.0
  0
LINE
  5
550EF
330
53E47
100
AcDbEntity
  8
AM_5
100
AcDbLine
 10
6178.19398306941
 20
-4496.744960804215
 30
0.0
 11
6157.193983069409
 21
-4496.744960804215
 31
0.0
  0
LINE
  5
550F0
330
53E47
100
AcDbEntity
  8
AM_5
100
AcDbLine
 10
6158.193983069409
 20
-4462.744960804215
 30
0.0
 11
6158.193983069409
 21
-4495.744960804215
 31
0.0
  0
INSERT
  5
550F1
330
53E47
100
AcDbEntity
  8
AM_5
100
AcDbBlockReference
  2
_Dot
 10
6158.193983069409
 20
-4461.744960804215
 30
0.0
 50
90.0
  0
INSERT
  5
550F2
330
53E47
100
AcDbEntity
  8
AM_5
100
AcDbBlockReference
  2
_Dot
 10
6158.193983069409
 20
-4496.744960804215
 30
0.0
 50
270.0
  0
MTEXT
  5
550F3
330
53E47
100
AcDbEntity
  8
AM_5
 62
     2
100
AcDbMText
 10
6155.59398306941
 20
-4479.244960804215
 30
0.0
 40
3.200000000000001
 41
0.0
 71
     5
 72
     1
  1
35
 11
0.0000000000000001
 21
1.0
 31
0.0
 73
     1
 44
1.0
1001
ACAD
1000
MTEXTBEGIN
1070
    73
1070
     1
1070
    44
1040
1.0
1070
    74
1070
     0
1000
MTEXTEND
  0
POINT
  5
550F4
330
53E47
100
AcDbEntity
  8
Defpoints
 62
     0
100
AcDbPoint
 10
6179.19398306941
 20
-4461.744960804215
 30
0.0
  0
POINT
  5
550F5
330
53E47
100
AcDbEntity
  8
Defpoints
 62
     0
100
AcDbPoint
 10
6179.19398306941
 20
-4496.744960804215
 30
0.0
  0
POINT
  5
550F6
330
53E47
100
AcDbEntity
  8
Defpoints
 62
     0
100
AcDbPoint
 10
6158.193983069409
 20
-4496.744960804215
 30
0.0
  0
ENDBLK
  5
53E52
330
53E47
100
AcDbEntity
  8
0
100
AcDbBlockEnd
  0
BLOCK
  5
53E5D
330
53E53
100
AcDbEntity
  8
0
100
AcDbBlockBegin
  2
*D21
 70
     1
 10
0.0
 20
0.0
 30
0.0
  3
*D21
  1

  0
LINE
  5
550F7
330
53E53
100
AcDbEntity
  8
AM_5
100
AcDbLine
 10
6238.825030938929
 20
-4488.53726046097
 30
0.0
 11
6226.198364272261
 21
-4488.53726046097
 31
0.0
  0
LINE
  5
550F8
330
53E53
100
AcDbEntity
  8
AM_5
100
AcDbLine
 10
6226.198364272261
 20
-4488.53726046097
 30
0.0
 11
6220.315090831849
 21
-4481.707358387906
 31
0.0
  0
LINE
  5
550F9
330
53E53
100
AcDbEntity
  8
AM_5
100
AcDbLine
 10
6216.07287530698
 20
-4476.782563220528
 30
0.0
 11
6215.420226764692
 21
-4476.024902425548
 31
0.0
  0
MTEXT
  5
550FA
330
53E53
100
AcDbEntity
  8
AM_5
 62
     2
100
AcDbMText
 10
6233.011697605597
 20
-4485.937260460969
 30
0.0
 40
3.2
 41
0.0
 71
     5
 72
     1
  1
2-\U+22054.5
 73
     1
 44
1.0
1001
ACAD
1000
MTEXTBEGIN
1070
    73
1070
     1
1070
    44
1040
1.0
1070
    74
1070
     0
1000
MTEXTEND
  0
LINE
  5
550FB
330
53E53
100
AcDbEntity
  8
AM_5
100
AcDbLine
 10
6216.725523849267
 20
-4477.54022401551
 30
0.0
 11
6219.662442289562
 21
-4480.949697592925
 31
0.0
  0
INSERT
  5
550FC
330
53E53
100
AcDbEntity
  8
AM_5
100
AcDbBlockReference
  2
_Dot
 10
6216.725523849267
 20
-4477.54022401551
 30
0.0
 50
310.7415895389672
  0
INSERT
  5
550FD
330
53E53
100
AcDbEntity
  8
AM_5
100
AcDbBlockReference
  2
_Dot
 10
6219.662442289562
 20
-4480.949697592925
 30
0.0
 50
130.7415895389672
  0
POINT
  5
550FE
330
53E53
100
AcDbEntity
  8
Defpoints
 62
     0
100
AcDbPoint
 10
6219.662442289562
 20
-4480.949697592925
 30
0.0
  0
POINT
  5
550FF
330
53E53
100
AcDbEntity
  8
Defpoints
 62
     0
100
AcDbPoint
 10
6216.725523849267
 20
-4477.54022401551
 30
0.0
  0
ENDBLK
  5
53E5E
330
53E53
100
AcDbEntity
  8
0
100
AcDbBlockEnd
  0
BLOCK
  5
53E69
330
53E5F
100
AcDbEntity
  8
0
100
AcDbBlockBegin
  2
*D22
 70
     1
 10
0.0
 20
0.0
 30
0.0
  3
*D22
  1

  0
LINE
  5
55100
330
53E5F
100
AcDbEntity
  8
AM_5
100
AcDbLine
 10
6199.525225709764
 20
-4500.045023027757
 30
0.0
 11
6186.89855904309
 21
-4500.045023027758
 31
0.0
  0
LINE
  5
55101
330
53E5F
100
AcDbEntity
  8
AM_5
100
AcDbLine
 10
6186.89855904309
 20
-4500.045023027758
 30
0.0
 11
6181.405044638179
 21
-4494.126915199053
 31
0.0
  0
LINE
  5
55102
330
53E5F
100
AcDbEntity
  8
AM_5
100
AcDbLine
 10
6176.982921500636
 20
-4489.363006409372
 30
0.0
 11
6176.302594864091
 21
-4488.630097364806
 31
0.0
  0
MTEXT
  5
55103
330
53E5F
100
AcDbEntity
  8
AM_5
 62
     2
100
AcDbMText
 10
6193.71189237643
 20
-4497.445023027757
 30
0.0
 40
3.2
 41
0.0
 71
     5
 72
     1
  1
2-\U+22054.5
 73
     1
 44
1.0
1001
ACAD
1000
MTEXTBEGIN
1070
    73
1070
     1
1070
    44
1040
1.0
1070
    74
1070
     0
1000
MTEXTEND
  0
LINE
  5
55104
330
53E5F
100
AcDbEntity
  8
AM_5
100
AcDbLine
 10
6177.663248137182
 20
-4490.095915453938
 30
0.0
 11
6180.724718001634
 21
-4493.394006154487
 31
0.0
  0
INSERT
  5
55105
330
53E5F
100
AcDbEntity
  8
AM_5
100
AcDbBlockReference
  2
_Dot
 10
6177.663248137182
 20
-4490.095915453938
 30
0.0
 50
312.8691728507184
  0
INSERT
  5
55106
330
53E5F
100
AcDbEntity
  8
AM_5
100
AcDbBlockReference
  2
_Dot
 10
6180.724718001634
 20
-4493.394006154487
 30
0.0
 50
132.8691728507184
  0
POINT
  5
55107
330
53E5F
100
AcDbEntity
  8
Defpoints
 62
     0
100
AcDbPoint
 10
6180.724718001634
 20
-4493.394006154487
 30
0.0
  0
POINT
  5
55108
330
53E5F
100
AcDbEntity
  8
Defpoints
 62
     0
100
AcDbPoint
 10
6177.663248137182
 20
-4490.095915453938
 30
0.0
  0
ENDBLK
  5
53E6A
330
53E5F
100
AcDbEntity
  8
0
100
AcDbBlockEnd
  0
BLOCK
  5
53E75
330
53E6B
100
AcDbEntity
  8
0
100
AcDbBlockBegin
  2
*D23
 70
     1
 10
0.0
 20
0.0
 30
0.0
  3
*D23
  1

  0
LINE
  5
5506E
330
53E6B
100
AcDbEntity
  8
AM_5
100
AcDbLine
 10
6110.392803748495
 20
-4405.91279599842
 30
0.0
 11
6110.392803748495
 21
-4374.712795998421
 31
0.0
  0
LINE
  5
5506F
330
53E6B
100
AcDbEntity
  8
AM_5
100
AcDbLine
 10
6149.392803748495
 20
-4405.91279599842
 30
0.0
 11
6149.392803748495
 21
-4374.712795998421
 31
0.0
  0
LINE
  5
55070
330
53E6B
100
AcDbEntity
  8
AM_5
100
AcDbLine
 10
6111.392803748494
 20
-4375.712795998421
 30
0.0
 11
6148.392803748495
 21
-4375.712795998421
 31
0.0
  0
INSERT
  5
55071
330
53E6B
100
AcDbEntity
  8
AM_5
100
AcDbBlockReference
  2
_Dot
 10
6110.392803748495
 20
-4375.712795998421
 30
0.0
 50
180.0
  0
INSERT
  5
55072
330
53E6B
100
AcDbEntity
  8
AM_5
100
AcDbBlockReference
  2
_Dot
 10
6149.392803748495
 20
-4375.712795998421
 30
0.0
  0
MTEXT
  5
55073
330
53E6B
100
AcDbEntity
  8
AM_5
 62
     2
100
AcDbMText
 10
6129.892803748495
 20
-4373.11279599842
 30
0.0
 40
3.200000000000001
 41
0.0
 71
     5
 72
     1
  1
（39）
 73
     1
 44
1.0
1001
ACAD
1000
MTEXTBEGIN
1070
    73
1070
     1
1070
    44
1040
1.0
1070
    74
1070
     0
1000
MTEXTEND
  0
POINT
  5
55074
330
53E6B
100
AcDbEntity
  8
Defpoints
 62
     0
100
AcDbPoint
 10
6110.392803748495
 20
-4406.912795998421
 30
0.0
  0
POINT
  5
55075
330
53E6B
100
AcDbEntity
  8
Defpoints
 62
     0
100
AcDbPoint
 10
6149.392803748495
 20
-4406.912795998421
 30
0.0
  0
POINT
  5
55076
330
53E6B
100
AcDbEntity
  8
Defpoints
 62
     0
100
AcDbPoint
 10
6149.392803748495
 20
-4375.712795998421
 30
0.0
  0
ENDBLK
  5
53E76
330
53E6B
100
AcDbEntity
  8
0
100
AcDbBlockEnd
  0
BLOCK
  5
53E81
330
53E77
100
AcDbEntity
  8
0
100
AcDbBlockBegin
  2
*D24
 70
     1
 10
0.0
 20
0.0
 30
0.0
  3
*D24
  1

  0
LINE
  5
55077
330
53E77
100
AcDbEntity
  8
AM_5
100
AcDbLine
 10
6120.892803748495
 20
-4392.21279599842
 30
0.0
 11
6120.892803748495
 21
-4382.712795998421
 31
0.0
  0
LINE
  5
55078
330
53E77
100
AcDbEntity
  8
AM_5
100
AcDbLine
 10
6138.892803748495
 20
-4392.21279599842
 30
0.0
 11
6138.892803748495
 21
-4382.712795998421
 31
0.0
  0
LINE
  5
55079
330
53E77
100
AcDbEntity
  8
AM_5
100
AcDbLine
 10
6121.892803748495
 20
-4383.712795998421
 30
0.0
 11
6137.892803748495
 21
-4383.712795998421
 31
0.0
  0
INSERT
  5
5507A
330
53E77
100
AcDbEntity
  8
AM_5
100
AcDbBlockReference
  2
_Dot
 10
6120.892803748495
 20
-4383.712795998421
 30
0.0
 50
180.0
  0
INSERT
  5
5507B
330
53E77
100
AcDbEntity
  8
AM_5
100
AcDbBlockReference
  2
_Dot
 10
6138.892803748495
 20
-4383.712795998421
 30
0.0
  0
MTEXT
  5
5507C
330
53E77
100
AcDbEntity
  8
AM_5
 62
     2
100
AcDbMText
 10
6129.892803748495
 20
-4381.11279599842
 30
0.0
 40
3.200000000000001
 41
0.0
 71
     5
 72
     1
  1
18
 73
     1
 44
1.0
1001
ACAD
1000
MTEXTBEGIN
1070
    73
1070
     1
1070
    44
1040
1.0
1070
    74
1070
     0
1000
MTEXTEND
  0
POINT
  5
5507D
330
53E77
100
AcDbEntity
  8
Defpoints
 62
     0
100
AcDbPoint
 10
6120.892803748495
 20
-4393.212795998421
 30
0.0
  0
POINT
  5
5507E
330
53E77
100
AcDbEntity
  8
Defpoints
 62
     0
100
AcDbPoint
 10
6138.892803748495
 20
-4393.212795998421
 30
0.0
  0
POINT
  5
5507F
330
53E77
100
AcDbEntity
  8
Defpoints
 62
     0
100
AcDbPoint
 10
6138.892803748495
 20
-4383.712795998421
 30
0.0
  0
ENDBLK
  5
53E82
330
53E77
100
AcDbEntity
  8
0
100
AcDbBlockEnd
  0
BLOCK
  5
53E8D
330
53E83
100
AcDbEntity
  8
0
100
AcDbBlockBegin
  2
*D25
 70
     1
 10
0.0
 20
0.0
 30
0.0
  3
*D25
  1

  0
LINE
  5
55080
330
53E83
100
AcDbEntity
  8
AM_5
100
AcDbLine
 10
6278.893234109165
 20
-4447.522254998421
 30
0.0
 11
6278.893234109165
 21
-4456.272254998422
 31
0.0
  0
LINE
  5
55081
330
53E83
100
AcDbEntity
  8
AM_5
100
AcDbLine
 10
6303.893234109164
 20
-4447.522254998421
 30
0.0
 11
6303.893234109164
 21
-4456.272254998422
 31
0.0
  0
LINE
  5
55082
330
53E83
100
AcDbEntity
  8
AM_5
100
AcDbLine
 10
6279.893234109164
 20
-4455.272254998422
 30
0.0
 11
6302.893234109164
 21
-4455.272254998422
 31
0.0
  0
INSERT
  5
55083
330
53E83
100
AcDbEntity
  8
AM_5
100
AcDbBlockReference
  2
_Dot
 10
6278.893234109165
 20
-4455.272254998422
 30
0.0
 50
180.0
  0
INSERT
  5
55084
330
53E83
100
AcDbEntity
  8
AM_5
100
AcDbBlockReference
  2
_Dot
 10
6303.893234109164
 20
-4455.272254998422
 30
0.0
  0
MTEXT
  5
55085
330
53E83
100
AcDbEntity
  8
AM_5
 62
     2
100
AcDbMText
 10
6291.393234109165
 20
-4452.672254998421
 30
0.0
 40
3.200000000000001
 41
0.0
 71
     5
 72
     1
  1
25
 73
     1
 44
1.0
1001
ACAD
1000
MTEXTBEGIN
1070
    73
1070
     1
1070
    44
1040
1.0
1070
    74
1070
     0
1000
MTEXTEND
  0
POINT
  5
55086
330
53E83
100
AcDbEntity
  8
Defpoints
 62
     0
100
AcDbPoint
 10
6278.893234109165
 20
-4446.522254998422
 30
0.0
  0
POINT
  5
55087
330
53E83
100
AcDbEntity
  8
Defpoints
 62
     0
100
AcDbPoint
 10
6303.893234109164
 20
-4446.522254998422
 30
0.0
  0
POINT
  5
55088
330
53E83
100
AcDbEntity
  8
Defpoints
 62
     0
100
AcDbPoint
 10
6303.893234109164
 20
-4455.272254998422
 30
0.0
  0
ENDBLK
  5
53E8E
330
53E83
100
AcDbEntity
  8
0
100
AcDbBlockEnd
  0
BLOCK
  5
53E99
330
53E8F
100
AcDbEntity
  8
0
100
AcDbBlockBegin
  2
*D26
 70
     1
 10
0.0
 20
0.0
 30
0.0
  3
*D26
  1

  0
LINE
  5
55089
330
53E8F
100
AcDbEntity
  8
AM_5
100
AcDbLine
 10
6273.893234109164
 20
-4443.272254998421
 30
0.0
 11
6273.893234109164
 21
-4464.272254998422
 31
0.0
  0
LINE
  5
5508A
330
53E8F
100
AcDbEntity
  8
AM_5
100
AcDbLine
 10
6308.893234109164
 20
-4443.272254998421
 30
0.0
 11
6308.893234109164
 21
-4464.272254998422
 31
0.0
  0
LINE
  5
5508B
330
53E8F
100
AcDbEntity
  8
AM_5
100
AcDbLine
 10
6274.893234109164
 20
-4463.272254998422
 30
0.0
 11
6307.893234109164
 21
-4463.272254998422
 31
0.0
  0
INSERT
  5
5508C
330
53E8F
100
AcDbEntity
  8
AM_5
100
AcDbBlockReference
  2
_Dot
 10
6273.893234109164
 20
-4463.272254998422
 30
0.0
 50
180.0
  0
INSERT
  5
5508D
330
53E8F
100
AcDbEntity
  8
AM_5
100
AcDbBlockReference
  2
_Dot
 10
6308.893234109164
 20
-4463.272254998422
 30
0.0
  0
MTEXT
  5
5508E
330
53E8F
100
AcDbEntity
  8
AM_5
 62
     2
100
AcDbMText
 10
6291.393234109165
 20
-4460.672254998422
 30
0.0
 40
3.200000000000001
 41
0.0
 71
     5
 72
     1
  1
35
 73
     1
 44
1.0
1001
ACAD
1000
MTEXTBEGIN
1070
    73
1070
     1
1070
    44
1040
1.0
1070
    74
1070
     0
1000
MTEXTEND
  0
POINT
  5
5508F
330
53E8F
100
AcDbEntity
  8
Defpoints
 62
     0
100
AcDbPoint
 10
6273.893234109164
 20
-4442.272254998422
 30
0.0
  0
POINT
  5
55090
330
53E8F
100
AcDbEntity
  8
Defpoints
 62
     0
100
AcDbPoint
 10
6308.893234109164
 20
-4442.272254998422
 30
0.0
  0
POINT
  5
55091
330
53E8F
100
AcDbEntity
  8
Defpoints
 62
     0
100
AcDbPoint
 10
6308.893234109164
 20
-4463.272254998422
 30
0.0
  0
ENDBLK
  5
53E9A
330
53E8F
100
AcDbEntity
  8
0
100
AcDbBlockEnd
  0
BLOCK
  5
53EA5
330
53E9B
100
AcDbEntity
  8
0
100
AcDbBlockBegin
  2
*D27
 70
     1
 10
0.0
 20
0.0
 30
0.0
  3
*D27
  1

  0
LINE
  5
55092
330
53E9B
100
AcDbEntity
  8
AM_5
100
AcDbLine
 10
6277.893234109164
 20
-4447.272254998422
 30
0.0
 11
6264.893234109162
 21
-4447.272254998422
 31
0.0
  0
LINE
  5
55093
330
53E9B
100
AcDbEntity
  8
AM_5
100
AcDbLine
 10
6277.893234109164
 20
-4437.272254998421
 30
0.0
 11
6264.893234109162
 21
-4437.272254998421
 31
0.0
  0
LINE
  5
55094
330
53E9B
100
AcDbEntity
  8
AM_5
100
AcDbLine
 10
6265.893234109164
 20
-4446.272254998421
 30
0.0
 11
6265.893234109164
 21
-4438.272254998422
 31
0.0
  0
INSERT
  5
55095
330
53E9B
100
AcDbEntity
  8
AM_5
100
AcDbBlockReference
  2
_Dot
 10
6265.893234109164
 20
-4447.272254998422
 30
0.0
 50
270.0
  0
INSERT
  5
55096
330
53E9B
100
AcDbEntity
  8
AM_5
100
AcDbBlockReference
  2
_Dot
 10
6265.893234109164
 20
-4437.272254998421
 30
0.0
 50
90.0
  0
MTEXT
  5
55097
330
53E9B
100
AcDbEntity
  8
AM_5
 62
     2
100
AcDbMText
 10
6263.293234109164
 20
-4442.272254998422
 30
0.0
 40
3.200000000000001
 41
0.0
 71
     5
 72
     1
  1
10
 11
0.0000000000000001
 21
1.0
 31
0.0
 73
     1
 44
1.0
1001
ACAD
1000
MTEXTBEGIN
1070
    73
1070
     1
1070
    44
1040
1.0
1070
    74
1070
     0
1000
MTEXTEND
  0
POINT
  5
55098
330
53E9B
100
AcDbEntity
  8
Defpoints
 62
     0
100
AcDbPoint
 10
6278.893234109165
 20
-4447.272254998422
 30
0.0
  0
POINT
  5
55099
330
53E9B
100
AcDbEntity
  8
Defpoints
 62
     0
100
AcDbPoint
 10
6278.893234109165
 20
-4437.272254998421
 30
0.0
  0
POINT
  5
5509A
330
53E9B
100
AcDbEntity
  8
Defpoints
 62
     0
100
AcDbPoint
 10
6265.893234109164
 20
-4437.272254998421
 30
0.0
  0
ENDBLK
  5
53EA6
330
53E9B
100
AcDbEntity
  8
0
100
AcDbBlockEnd
  0
BLOCK
  5
53EB1
330
53EA7
100
AcDbEntity
  8
0
100
AcDbBlockBegin
  2
*D28
 70
     1
 10
0.0
 20
0.0
 30
0.0
  3
*D28
  1

  0
LINE
  5
5509B
330
53EA7
100
AcDbEntity
  8
AM_5
100
AcDbLine
 10
6323.877666900634
 20
-4433.848494998421
 30
0.0
 11
6323.877666900634
 21
-4464.272254998422
 31
0.0
  0
LINE
  5
5509C
330
53EA7
100
AcDbEntity
  8
AM_5
100
AcDbLine
 10
6332.777666900633
 20
-4448.27225499842
 30
0.0
 11
6332.777666900633
 21
-4464.272254998422
 31
0.0
  0
LINE
  5
5509D
330
53EA7
100
AcDbEntity
  8
AM_5
100
AcDbLine
 10
6324.877666900634
 20
-4463.272254998422
 30
0.0
 11
6331.777666900634
 21
-4463.272254998422
 31
0.0
  0
INSERT
  5
5509E
330
53EA7
100
AcDbEntity
  8
AM_5
100
AcDbBlockReference
  2
_Dot
 10
6323.877666900634
 20
-4463.272254998422
 30
0.0
 50
180.0
  0
INSERT
  5
5509F
330
53EA7
100
AcDbEntity
  8
AM_5
100
AcDbBlockReference
  2
_Dot
 10
6332.777666900633
 20
-4463.272254998422
 30
0.0
  0
MTEXT
  5
550A0
330
53EA7
100
AcDbEntity
  8
AM_5
 62
     2
100
AcDbMText
 10
6328.327666900634
 20
-4460.672254998422
 30
0.0
 40
3.200000000000001
 41
0.0
 71
     5
 72
     1
  1
8.9
 73
     1
 44
1.0
1001
ACAD
1000
MTEXTBEGIN
1070
    73
1070
     1
1070
    44
1040
1.0
1070
    74
1070
     0
1000
MTEXTEND
  0
POINT
  5
550A1
330
53EA7
100
AcDbEntity
  8
Defpoints
 62
     0
100
AcDbPoint
 10
6323.877666900634
 20
-4432.84849499842
 30
0.0
  0
POINT
  5
550A2
330
53EA7
100
AcDbEntity
  8
Defpoints
 62
     0
100
AcDbPoint
 10
6332.777666900633
 20
-4447.272254998421
 30
0.0
  0
POINT
  5
550A3
330
53EA7
100
AcDbEntity
  8
Defpoints
 62
     0
100
AcDbPoint
 10
6332.777666900633
 20
-4463.272254998422
 30
0.0
  0
ENDBLK
  5
53EB2
330
53EA7
100
AcDbEntity
  8
0
100
AcDbBlockEnd
  0
BLOCK
  5
53EBF
330
53EB3
100
AcDbEntity
  8
0
100
AcDbBlockBegin
  2
*D29
 70
     1
 10
0.0
 20
0.0
 30
0.0
  3
*D29
  1

  0
LINE
  5
550A4
330
53EB3
100
AcDbEntity
  8
AM_5
100
AcDbLine
 10
6332.777666900633
 20
-4448.27225499842
 30
0.0
 11
6332.777666900633
 21
-4456.27225499842
 31
0.0
  0
LINE
  5
550A5
330
53EB3
100
AcDbEntity
  8
AM_5
100
AcDbLine
 10
6331.277666900633
 20
-4448.27225499842
 30
0.0
 11
6331.277666900633
 21
-4456.27225499842
 31
0.0
  0
LINE
  5
550A6
330
53EB3
100
AcDbEntity
  8
AM_5
100
AcDbLine
 10
6330.277666900633
 20
-4455.272254998421
 30
0.0
 11
6329.277666900633
 21
-4455.272254998421
 31
0.0
  0
LINE
  5
550A7
330
53EB3
100
AcDbEntity
  8
AM_5
100
AcDbLine
 10
6333.777666900633
 20
-4455.272254998421
 30
0.0
 11
6341.151000233967
 21
-4455.272254998421
 31
0.0
  0
LINE
  5
550A8
330
53EB3
100
AcDbEntity
  8
AM_5
100
AcDbLine
 10
6331.277666900633
 20
-4455.272254998421
 30
0.0
 11
6332.777666900633
 21
-4455.272254998421
 31
0.0
  0
INSERT
  5
550A9
330
53EB3
100
AcDbEntity
  8
AM_5
100
AcDbBlockReference
  2
_Dot
 10
6331.277666900633
 20
-4455.272254998421
 30
0.0
  0
INSERT
  5
550AA
330
53EB3
100
AcDbEntity
  8
AM_5
100
AcDbBlockReference
  2
_Dot
 10
6332.777666900633
 20
-4455.272254998421
 30
0.0
 50
180.0
  0
MTEXT
  5
550AB
330
53EB3
100
AcDbEntity
  8
AM_5
 62
     2
100
AcDbMText
 10
6337.9643335673
 20
-4452.672254998421
 30
0.0
 40
3.200000000000001
 41
0.0
 71
     5
 72
     1
  1
1.5
 73
     1
 44
1.0
1001
ACAD
1000
MTEXTBEGIN
1070
    73
1070
     1
1070
    44
1040
1.0
1070
    74
1070
     0
1000
MTEXTEND
  0
POINT
  5
550AC
330
53EB3
100
AcDbEntity
  8
Defpoints
 62
     0
100
AcDbPoint
 10
6332.777666900633
 20
-4447.272254998421
 30
0.0
  0
POINT
  5
550AD
330
53EB3
100
AcDbEntity
  8
Defpoints
 62
     0
100
AcDbPoint
 10
6331.277666900633
 20
-4447.272254998421
 30
0.0
  0
POINT
  5
550AE
330
53EB3
100
AcDbEntity
  8
Defpoints
 62
     0
100
AcDbPoint
 10
6331.277666900633
 20
-4455.272254998421
 30
0.0
  0
ENDBLK
  5
53EC0
330
53EB3
100
AcDbEntity
  8
0
100
AcDbBlockEnd
  0
BLOCK
  5
53ECB
330
53EC1
100
AcDbEntity
  8
0
100
AcDbBlockBegin
  2
*D30
 70
     1
 10
0.0
 20
0.0
 30
0.0
  3
*D30
  1

  0
LINE
  5
5A4AE
330
53EC1
100
AcDbEntity
  8
AM_5
100
AcDbLine
 10
6336.777666900633
 20
-4442.272254998422
 30
0.0
 11
6341.777666900632
 21
-4442.272254998422
 31
0.0
  0
LINE
  5
5A4AF
330
53EC1
100
AcDbEntity
  8
AM_5
100
AcDbLine
 10
6333.777666900632
 20
-4404.112795998421
 30
0.0
 11
6341.777666900632
 21
-4404.112795998421
 31
0.0
  0
LINE
  5
5A4B0
330
53EC1
100
AcDbEntity
  8
AM_5
100
AcDbLine
 10
6340.777666900632
 20
-4441.272254998422
 30
0.0
 11
6340.777666900632
 21
-4405.11279599842
 31
0.0
  0
INSERT
  5
5A4B1
330
53EC1
100
AcDbEntity
  8
AM_5
100
AcDbBlockReference
  2
_Dot
 10
6340.777666900632
 20
-4442.272254998422
 30
0.0
 50
270.0
  0
INSERT
  5
5A4B2
330
53EC1
100
AcDbEntity
  8
AM_5
100
AcDbBlockReference
  2
_Dot
 10
6340.777666900632
 20
-4404.112795998421
 30
0.0
 50
90.0
  0
MTEXT
  5
5A4B3
330
53EC1
100
AcDbEntity
  8
AM_5
 62
     2
100
AcDbMText
 10
6338.177666900634
 20
-4423.19252549842
 30
0.0
 40
3.200000000000001
 41
0.0
 71
     5
 72
     1
  1
Y
 11
0.0000000000000001
 21
1.0
 31
0.0
 73
     1
 44
1.0
1001
ACAD
1000
MTEXTBEGIN
1070
    73
1070
     1
1070
    44
1040
1.0
1070
    74
1070
     0
1000
MTEXTEND
  0
POINT
  5
5A4B4
330
53EC1
100
AcDbEntity
  8
Defpoints
 62
     0
100
AcDbPoint
 10
6335.777666900633
 20
-4442.272254998422
 30
0.0
  0
POINT
  5
5A4B5
330
53EC1
100
AcDbEntity
  8
Defpoints
 62
     0
100
AcDbPoint
 10
6332.777666900632
 20
-4404.112795998421
 30
0.0
  0
POINT
  5
5A4B6
330
53EC1
100
AcDbEntity
  8
Defpoints
 62
     0
100
AcDbPoint
 10
6340.777666900632
 20
-4404.112795998421
 30
0.0
  0
ENDBLK
  5
53ECC
330
53EC1
100
AcDbEntity
  8
0
100
AcDbBlockEnd
  0
BLOCK
  5
55116
330
5510C
100
AcDbEntity
  8
0
100
AcDbBlockBegin
  2
*D31
 70
     1
 10
0.0
 20
0.0
 30
0.0
  3
*D31
  1

  0
LINE
  5
55121
330
5510C
100
AcDbEntity
  8
AM_5
100
AcDbLine
 10
6256.913096335231
 20
-4454.584874109523
 30
0.0
 11
6269.539763001898
 21
-4454.584874109521
 31
0.0
  0
LINE
  5
55122
330
5510C
100
AcDbEntity
  8
AM_5
100
AcDbLine
 10
6269.539763001898
 20
-4454.584874109521
 30
0.0
 11
6276.927262370865
 21
-4444.860199187197
 31
0.0
  0
LINE
  5
55123
330
5510C
100
AcDbEntity
  8
AM_5
100
AcDbLine
 10
6280.859205847473
 20
-4439.684310809652
 30
0.0
 11
6281.464120228489
 21
-4438.888020290031
 31
0.0
  0
MTEXT
  5
55124
330
5510C
100
AcDbEntity
  8
AM_5
 62
     2
100
AcDbMText
 10
6262.726429668564
 20
-4451.984874109522
 30
0.0
 40
3.2
 41
0.0
 71
     5
 72
     1
  1
2-\U+22054.5
 73
     1
 44
1.0
1001
ACAD
1000
MTEXTBEGIN
1070
    73
1070
     1
1070
    44
1040
1.0
1070
    74
1070
     0
1000
MTEXTEND
  0
LINE
  5
55125
330
5510C
100
AcDbEntity
  8
AM_5
100
AcDbLine
 10
6280.254291466458
 20
-4440.480601329275
 30
0.0
 11
6277.532176751881
 21
-4444.063908667575
 31
0.0
  0
INSERT
  5
55126
330
5510C
100
AcDbEntity
  8
AM_5
100
AcDbBlockReference
  2
_Dot
 10
6280.254291466458
 20
-4440.480601329275
 30
0.0
 50
232.7773189502381
  0
INSERT
  5
55127
330
5510C
100
AcDbEntity
  8
AM_5
100
AcDbBlockReference
  2
_Dot
 10
6277.532176751881
 20
-4444.063908667575
 30
0.0
 50
52.77731895023809
  0
POINT
  5
55128
330
5510C
100
AcDbEntity
  8
Defpoints
 62
     0
100
AcDbPoint
 10
6277.532176751881
 20
-4444.063908667575
 30
0.0
  0
POINT
  5
55129
330
5510C
100
AcDbEntity
  8
Defpoints
 62
     0
100
AcDbPoint
 10
6280.254291466458
 20
-4440.480601329275
 30
0.0
  0
ENDBLK
  5
55117
330
5510C
100
AcDbEntity
  8
0
100
AcDbBlockEnd
  0
ENDSEC
  0
SECTION
  2
ENTITIES
  0
TEXT
  5
31B30
330
1F
100
AcDbEntity
  8
AM_6
 60
     1
100
AcDbText
 10
3408.785415022811
 20
1879.970675238635
 30
0.0
 40
2.5
  1
!GENTITLE-INSERT
100
AcDbText
  0
TEXT
  5
31B31
330
1F
100
AcDbEntity
  8
AM_6
 60
     1
100
AcDbText
 10
3000.285415022811
 20
1871.470675238635
 30
0.0
 40
2.5
  1
!GENTITLE-LL
100
AcDbText
  0
TEXT
  5
31B32
330
1F
100
AcDbEntity
  8
AM_6
 60
     1
100
AcDbText
 10
3420.285415022811
 20
2168.470675238635
 30
0.0
 40
2.5
  1
!GENTITLE-RU
100
AcDbText
  0
TEXT
  5
31B33
330
1F
100
AcDbEntity
  8
AM_6
 60
     1
100
AcDbText
 10
3420.285415022811
 20
2168.470675238635
 30
0.0
 40
2.5
  1
!GENTITLE-MAX
100
AcDbText
  0
TEXT
  5
31B3B
330
1F
100
AcDbEntity
  8
AM_6
 60
     1
100
AcDbText
 10
3000.285415022811
 20
1871.470675238635
 30
0.0
 40
2.5
  1
!GENTITLE-LL
100
AcDbText
  0
TEXT
  5
31B3C
330
1F
100
AcDbEntity
  8
AM_6
 60
     1
100
AcDbText
 10
3408.785415022811
 20
2159.970675238636
 30
0.0
 40
2.5
  1
!GENTITLE-RU
100
AcDbText
  0
TEXT
  5
31B3D
330
1F
100
AcDbEntity
  8
AM_6
 60
     1
100
AcDbText
 10
3420.285415022811
 20
2168.470675238635
 30
0.0
 40
2.5
  1
!GENTITLE-MAX
100
AcDbText
  0
TEXT
  5
31B3E
330
1F
100
AcDbEntity
  8
AM_6
 60
     1
100
AcDbText
 10
3408.785415022811
 20
1879.970675238635
 30
0.0
 40
2.5
  1
!GENTITLE-INSERT
100
AcDbText
  0
TEXT
  5
32D1D
330
1F
100
AcDbEntity
  8
AM_6
 60
     1
100
AcDbText
 10
3234.949399973154
 20
1839.277532086519
 30
0.0
 40
2.5
  1
!GENTITLE-INSERT
100
AcDbText
  0
TEXT
  5
32D1E
330
1F
100
AcDbEntity
  8
AM_6
 60
     1
100
AcDbText
 10
3246.449399973154
 20
2040.77753208652
 30
0.0
 40
2.5
  1
!GENTITLE-MAX
100
AcDbText
  0
TEXT
  5
32D1F
330
1F
100
AcDbEntity
  8
AM_6
 60
     1
100
AcDbText
 10
3246.449399973154
 20
2040.77753208652
 30
0.0
 40
2.5
  1
!GENTITLE-RU
100
AcDbText
  0
TEXT
  5
32D21
330
1F
100
AcDbEntity
  8
AM_6
 60
     1
100
AcDbText
 10
2949.449399973154
 20
1830.777532086519
 30
0.0
 40
2.5
  1
!GENTITLE-LL
100
AcDbText
  0
TEXT
  5
34534
330
1F
100
AcDbEntity
  8
AM_6
 60
     1
100
AcDbText
 10
3774.506320898737
 20
958.0958490755065
 30
0.0
 40
2.5
  1
!GENTITLE-INSERT
100
AcDbText
  0
TEXT
  5
34535
330
1F
100
AcDbEntity
  8
AM_6
 60
     1
100
AcDbText
 10
3786.006320898738
 20
1159.595849075506
 30
0.0
 40
2.5
  1
!GENTITLE-MAX
100
AcDbText
  0
TEXT
  5
34536
330
1F
100
AcDbEntity
  8
AM_6
 60
     1
100
AcDbText
 10
3786.006320898738
 20
1159.595849075506
 30
0.0
 40
2.5
  1
!GENTITLE-RU
100
AcDbText
  0
TEXT
  5
34538
330
1F
100
AcDbEntity
  8
AM_6
 60
     1
100
AcDbText
 10
3489.006320898738
 20
949.5958490755064
 30
0.0
 40
2.5
  1
!GENTITLE-LL
100
AcDbText
  0
LINE
  5
4281C
330
1F
100
AcDbEntity
  8
size
100
AcDbLine
 10
6074.924675701049
 20
-4359.979336884235
 30
0.0
 11
6371.924675701049
 21
-4359.979336884235
 31
0.0
1001
GENIUS_GENREC_14
1002
{
1000
PYDIR
1011
6074.924675701049
1021
-4272.979336884235
1031
0.0
1002
}
1002
{
1000
PXDIR
1011
6494.924675701049
1021
-4569.979336884235
1031
0.0
1002
}
1002
{
1000
PORI
1011
6074.924675701049
1021
-4569.979336884235
1031
0.0
1002
}
1002
{
1000
PINS
1011
6284.924675701049
1021
-4421.479336884234
1031
0.0
1002
}
1002
{
1000
HVAL
1000
297
1002
}
1002
{
1000
H
1070
     2
1002
}
1002
{
1000
WVAL
1000
420
1002
}
1002
{
1000
W
1070
     2
1002
}
1002
{
1000
C
1070
     4
1002
}
1001
GENIUS_GENOBJ-N-REC_13
1002
{
1000
OWNER
1000
GEN
1002
}
1001
GENIUS_GENODEF_13
1002
{
1000
HIER
1070
     0
1002
}
1002
{
1000
MANEDIT
1070
     0
1002
}
1002
{
1000
NOSEL
1070
     0
1002
}
1002
{
1000
BEHIND
1070
     0
1002
}
1002
{
1000
OTHER
1070
     0
1002
}
1002
{
1000
REACTOR
1002
}
  0
LINE
  5
4281D
330
1F
100
AcDbEntity
  8
size
100
AcDbLine
 10
6371.924675701049
 20
-4359.979336884235
 30
0.0
 11
6371.924675701049
 21
-4569.979336884235
 31
0.0
1001
GENIUS_GENREC_14
1002
{
1000
PYDIR
1011
6074.924675701049
1021
-4272.979336884235
1031
0.0
1002
}
1002
{
1000
PXDIR
1011
6494.924675701049
1021
-4569.979336884235
1031
0.0
1002
}
1002
{
1000
PORI
1011
6074.924675701049
1021
-4569.979336884235
1031
0.0
1002
}
1002
{
1000
PINS
1011
6284.924675701049
1021
-4421.479336884234
1031
0.0
1002
}
1002
{
1000
HVAL
1000
297
1002
}
1002
{
1000
H
1070
     2
1002
}
1002
{
1000
WVAL
1000
420
1002
}
1002
{
1000
W
1070
     2
1002
}
1002
{
1000
C
1070
     4
1002
}
1001
GENIUS_GENOBJ-N-REC_13
1002
{
1000
OWNER
1000
GEN
1002
}
1001
GENIUS_GENODEF_13
1002
{
1000
HIER
1070
     0
1002
}
1002
{
1000
MANEDIT
1070
     0
1002
}
1002
{
1000
NOSEL
1070
     0
1002
}
1002
{
1000
BEHIND
1070
     0
1002
}
1002
{
1000
OTHER
1070
     0
1002
}
1002
{
1000
REACTOR
1002
}
  0
LINE
  5
4281E
330
1F
100
AcDbEntity
  8
waku
100
AcDbLine
 10
6086.424675701049
 20
-4561.479336884235
 30
0.0
 11
6360.42467570105
 21
-4561.479336884235
 31
0.0
1001
GENIUS_GENREC_14
1002
{
1000
PYDIR
1011
6074.924675701049
1021
-4272.979336884235
1031
0.0
1002
}
1002
{
1000
PXDIR
1011
6494.924675701049
1021
-4569.979336884235
1031
0.0
1002
}
1002
{
1000
PORI
1011
6074.924675701049
1021
-4569.979336884235
1031
0.0
1002
}
1002
{
1000
PINS
1011
6284.924675701049
1021
-4421.479336884234
1031
0.0
1002
}
1002
{
1000
HVAL
1000
297
1002
}
1002
{
1000
H
1070
     2
1002
}
1002
{
1000
WVAL
1000
420
1002
}
1002
{
1000
W
1070
     2
1002
}
1002
{
1000
C
1070
     4
1002
}
  0
LINE
  5
4281F
330
1F
100
AcDbEntity
  8
waku
100
AcDbLine
 10
6360.42467570105
 20
-4368.479336884234
 30
0.0
 11
6086.424675701049
 21
-4368.479336884234
 31
0.0
1001
GENIUS_GENREC_14
1002
{
1000
PYDIR
1011
5951.92467570105
1021
-4359.979336884235
1031
0.0
1002
}
1002
{
1000
PXDIR
1011
6371.924675701049
1021
-4656.979336884234
1031
0.0
1002
}
1002
{
1000
PORI
1011
5951.92467570105
1021
-4656.979336884234
1031
0.0
1002
}
1002
{
1000
PINS
1011
6161.92467570105
1021
-4508.479336884234
1031
0.0
1002
}
1002
{
1000
HVAL
1000
297
1002
}
1002
{
1000
H
1070
     2
1002
}
1002
{
1000
WVAL
1000
420
1002
}
1002
{
1000
W
1070
     2
1002
}
1002
{
1000
C
1070
     4
1002
}
1001
GENIUS_GENOBJ-N-REC_13
1002
{
1000
OWNER
1000
GEN
1002
}
1001
GENIUS_GENODEF_13
1002
{
1000
HIER
1070
     0
1002
}
1002
{
1000
MANEDIT
1070
     0
1002
}
1002
{
1000
NOSEL
1070
     0
1002
}
1002
{
1000
BEHIND
1070
     0
1002
}
1002
{
1000
OTHER
1070
     0
1002
}
1002
{
1000
REACTOR
1002
}
  0
LINE
  5
42820
330
1F
100
AcDbEntity
  8
waku
100
AcDbLine
 10
6086.424675701049
 20
-4368.479336884234
 30
0.0
 11
6086.424675701049
 21
-4561.479336884235
 31
0.0
1001
GENIUS_GENREC_14
1002
{
1000
PYDIR
1011
6074.924675701049
1021
-4272.979336884235
1031
0.0
1002
}
1002
{
1000
PXDIR
1011
6494.924675701049
1021
-4569.979336884235
1031
0.0
1002
}
1002
{
1000
PORI
1011
6074.924675701049
1021
-4569.979336884235
1031
0.0
1002
}
1002
{
1000
PINS
1011
6284.924675701049
1021
-4421.479336884234
1031
0.0
1002
}
1002
{
1000
HVAL
1000
297
1002
}
1002
{
1000
H
1070
     2
1002
}
1002
{
1000
WVAL
1000
420
1002
}
1002
{
1000
W
1070
     2
1002
}
1002
{
1000
C
1070
     4
1002
}
1001
GENIUS_GENOBJ-N-REC_13
1002
{
1000
OWNER
1000
GEN
1002
}
1001
GENIUS_GENODEF_13
1002
{
1000
HIER
1070
     0
1002
}
1002
{
1000
MANEDIT
1070
     0
1002
}
1002
{
1000
NOSEL
1070
     0
1002
}
1002
{
1000
BEHIND
1070
     0
1002
}
1002
{
1000
OTHER
1070
     0
1002
}
1002
{
1000
REACTOR
1002
}
  0
LINE
  5
42821
330
1F
100
AcDbEntity
  8
waku
100
AcDbLine
 10
6360.42467570105
 20
-4561.479336884235
 30
0.0
 11
6360.42467570105
 21
-4368.479336884234
 31
0.0
1001
GENIUS_GENREC_14
1002
{
1000
PYDIR
1011
5951.92467570105
1021
-4353.979336884234
1031
0.0
1002
}
1002
{
1000
PXDIR
1011
6371.924675701049
1021
-4650.979336884234
1031
0.0
1002
}
1002
{
1000
PORI
1011
5951.92467570105
1021
-4650.979336884234
1031
0.0
1002
}
1002
{
1000
PINS
1011
6161.92467570105
1021
-4502.479336884234
1031
0.0
1002
}
1002
{
1000
HVAL
1000
297
1002
}
1002
{
1000
H
1070
     2
1002
}
1002
{
1000
WVAL
1000
420
1002
}
1002
{
1000
W
1070
     2
1002
}
1002
{
1000
C
1070
     4
1002
}
1001
GENIUS_GENOBJ-N-REC_13
1002
{
1000
OWNER
1000
GEN
1002
}
1001
GENIUS_GENODEF_13
1002
{
1000
HIER
1070
     0
1002
}
1002
{
1000
MANEDIT
1070
     0
1002
}
1002
{
1000
NOSEL
1070
     0
1002
}
1002
{
1000
BEHIND
1070
     0
1002
}
1002
{
1000
OTHER
1070
     0
1002
}
1002
{
1000
REACTOR
1002
}
  0
LINE
  5
42822
330
1F
100
AcDbEntity
  8
size
100
AcDbLine
 10
6074.924675701049
 20
-4359.979336884235
 30
0.0
 11
6074.924675701049
 21
-4569.979336884235
 31
0.0
1001
GENIUS_GENREC_14
1002
{
1000
PYDIR
1011
6074.924675701049
1021
-4272.979336884235
1031
0.0
1002
}
1002
{
1000
PXDIR
1011
6494.924675701049
1021
-4569.979336884235
1031
0.0
1002
}
1002
{
1000
PORI
1011
6074.924675701049
1021
-4569.979336884235
1031
0.0
1002
}
1002
{
1000
PINS
1011
6284.924675701049
1021
-4421.479336884234
1031
0.0
1002
}
1002
{
1000
HVAL
1000
297
1002
}
1002
{
1000
H
1070
     2
1002
}
1002
{
1000
WVAL
1000
420
1002
}
1002
{
1000
W
1070
     2
1002
}
1002
{
1000
C
1070
     4
1002
}
1001
GENIUS_GENOBJ-N-REC_13
1002
{
1000
OWNER
1000
GEN
1002
}
1001
GENIUS_GENODEF_13
1002
{
1000
HIER
1070
     0
1002
}
1002
{
1000
MANEDIT
1070
     0
1002
}
1002
{
1000
NOSEL
1070
     0
1002
}
1002
{
1000
BEHIND
1070
     0
1002
}
1002
{
1000
OTHER
1070
     0
1002
}
1002
{
1000
REACTOR
1002
}
  0
LINE
  5
42823
330
1F
100
AcDbEntity
  8
size
100
AcDbLine
 10
6074.924675701049
 20
-4569.979336884235
 30
0.0
 11
6371.924675701049
 21
-4569.979336884235
 31
0.0
1001
GENIUS_GENREC_14
1002
{
1000
PYDIR
1011
6074.924675701049
1021
-4272.979336884235
1031
0.0
1002
}
1002
{
1000
PXDIR
1011
6494.924675701049
1021
-4569.979336884235
1031
0.0
1002
}
1002
{
1000
PORI
1011
6074.924675701049
1021
-4569.979336884235
1031
0.0
1002
}
1002
{
1000
PINS
1011
6284.924675701049
1021
-4421.479336884234
1031
0.0
1002
}
1002
{
1000
HVAL
1000
297
1002
}
1002
{
1000
H
1070
     2
1002
}
1002
{
1000
WVAL
1000
420
1002
}
1002
{
1000
W
1070
     2
1002
}
1002
{
1000
C
1070
     4
1002
}
1001
GENIUS_GENOBJ-N-REC_13
1002
{
1000
OWNER
1000
GEN
1002
}
1001
GENIUS_GENODEF_13
1002
{
1000
HIER
1070
     0
1002
}
1002
{
1000
MANEDIT
1070
     0
1002
}
1002
{
1000
NOSEL
1070
     0
1002
}
1002
{
1000
BEHIND
1070
     0
1002
}
1002
{
1000
OTHER
1070
     0
1002
}
1002
{
1000
REACTOR
1002
}
  0
TEXT
  5
4E0E8
330
1F
100
AcDbEntity
  8
AM_6
 60
     1
100
AcDbText
 10
5957.394900433246
 20
-5651.939004350452
 30
0.0
 40
2.5
  1
!GENTITLE-INSERT
100
AcDbText
  0
TEXT
  5
4E0E9
330
1F
100
AcDbEntity
  8
AM_6
 60
     1
100
AcDbText
 10
5548.894900433246
 20
-5660.439004350451
 30
0.0
 40
2.5
  1
!GENTITLE-LL
100
AcDbText
  0
TEXT
  5
4E0EA
330
1F
100
AcDbEntity
  8
AM_6
 60
     1
100
AcDbText
 10
5968.894900433246
 20
-5363.439004350452
 30
0.0
 40
2.5
  1
!GENTITLE-RU
100
AcDbText
  0
TEXT
  5
4E0EB
330
1F
100
AcDbEntity
  8
AM_6
 60
     1
100
AcDbText
 10
5968.894900433246
 20
-5363.439004350452
 30
0.0
 40
2.5
  1
!GENTITLE-MAX
100
AcDbText
  0
TEXT
  5
4E0F3
330
1F
100
AcDbEntity
  8
AM_6
 60
     1
100
AcDbText
 10
5548.894900433246
 20
-5660.439004350451
 30
0.0
 40
2.5
  1
!GENTITLE-LL
100
AcDbText
  0
TEXT
  5
4E0F4
330
1F
100
AcDbEntity
  8
AM_6
 60
     1
100
AcDbText
 10
5957.394900433246
 20
-5371.939004350451
 30
0.0
 40
2.5
  1
!GENTITLE-RU
100
AcDbText
  0
TEXT
  5
4E0F5
330
1F
100
AcDbEntity
  8
AM_6
 60
     1
100
AcDbText
 10
5968.894900433246
 20
-5363.439004350452
 30
0.0
 40
2.5
  1
!GENTITLE-MAX
100
AcDbText
  0
TEXT
  5
4E0F6
330
1F
100
AcDbEntity
  8
AM_6
 60
     1
100
AcDbText
 10
5957.394900433246
 20
-5651.939004350452
 30
0.0
 40
2.5
  1
!GENTITLE-INSERT
100
AcDbText
  0
TEXT
  5
5183F
330
1F
100
AcDbEntity
  8
AM_6
 60
     1
100
AcDbText
 10
5973.602012689372
 20
109.7385382224183
 30
0.0
 40
2.5
  1
!GENTITLE-INSERT
100
AcDbText
  0
TEXT
  5
51840
330
1F
100
AcDbEntity
  8
AM_6
 60
     1
100
AcDbText
 10
5565.102012689372
 20
101.2385382224183
 30
0.0
 40
2.5
  1
!GENTITLE-LL
100
AcDbText
  0
TEXT
  5
51841
330
1F
100
AcDbEntity
  8
AM_6
 60
     1
100
AcDbText
 10
5985.102012689372
 20
398.2385382224184
 30
0.0
 40
2.5
  1
!GENTITLE-RU
100
AcDbText
  0
TEXT
  5
51842
330
1F
100
AcDbEntity
  8
AM_6
 60
     1
100
AcDbText
 10
5985.102012689372
 20
398.2385382224184
 30
0.0
 40
2.5
  1
!GENTITLE-MAX
100
AcDbText
  0
TEXT
  5
5184A
330
1F
100
AcDbEntity
  8
AM_6
 60
     1
100
AcDbText
 10
5565.102012689372
 20
101.2385382224183
 30
0.0
 40
2.5
  1
!GENTITLE-LL
100
AcDbText
  0
TEXT
  5
5184B
330
1F
100
AcDbEntity
  8
AM_6
 60
     1
100
AcDbText
 10
5973.602012689372
 20
389.7385382224184
 30
0.0
 40
2.5
  1
!GENTITLE-RU
100
AcDbText
  0
TEXT
  5
5184C
330
1F
100
AcDbEntity
  8
AM_6
 60
     1
100
AcDbText
 10
5985.102012689372
 20
398.2385382224184
 30
0.0
 40
2.5
  1
!GENTITLE-MAX
100
AcDbText
  0
TEXT
  5
5184D
330
1F
100
AcDbEntity
  8
AM_6
 60
     1
100
AcDbText
 10
5973.602012689372
 20
109.7385382224183
 30
0.0
 40
2.5
  1
!GENTITLE-INSERT
100
AcDbText
  0
LINE
  5
53B4C
330
1F
100
AcDbEntity
  8
0部品2
100
AcDbLine
 10
6194.693983069409
 20
-4486.744960804215
 30
0.0
 11
6194.693983069409
 21
-4487.744960804215
 31
0.0
  0
LINE
  5
53B4D
330
1F
100
AcDbEntity
  8
0部品10
100
AcDbLine
 10
6118.824862748494
 20
-4417.905365998421
 30
0.0
 11
6116.642803748495
 21
-4417.48618099842
 31
0.0
  0
LINE
  5
53B4E
330
1F
100
AcDbEntity
  8
0部品1
100
AcDbLine
 10
6137.392803748495
 20
-4414.21279599842
 30
0.0
 11
6137.392803748495
 21
-4393.212795998421
 31
0.0
  0
LINE
  5
53B4F
330
1F
100
AcDbEntity
  8
0部品6
100
AcDbLine
 10
6184.19398306941
 20
-4486.744960804215
 30
0.0
 11
6186.193983069411
 21
-4486.744960804215
 31
0.0
  0
LINE
  5
53B50
330
1F
100
AcDbEntity
  8
0部品10
100
AcDbLine
 10
6141.224862748495
 20
-4411.980225998421
 30
0.0
 11
6148.824862748495
 21
-4410.52022599842
 31
0.0
  0
LINE
  5
53B51
330
1F
100
AcDbEntity
  8
0部品5
100
AcDbLine
 10
6118.892803748495
 20
-4432.172254998421
 30
0.0
 11
6118.342803748494
 21
-4432.172254998421
 31
0.0
  0
ARC
  5
53B52
330
1F
100
AcDbEntity
  8
0部品10
100
AcDbCircle
 10
6118.692803748495
 20
-4412.752795998421
 30
0.0
 40
0.7
100
AcDbArc
 50
280.8743419343047
 51
100.8743419343046
  0
LINE
  5
53B53
330
1F
100
AcDbEntity
  8
0部品6
100
AcDbLine
 10
6147.392803748495
 20
-4442.772254998421
 30
0.0
 11
6112.392803748495
 21
-4442.772254998421
 31
0.0
  0
LINE
  5
53B54
330
1F
100
AcDbEntity
  8
0部品10
100
AcDbLine
 10
6118.824862748494
 20
-4420.825365998421
 30
0.0
 11
6116.642803748495
 21
-4420.40618099842
 31
0.0
  0
LINE
  5
53B55
330
1F
100
AcDbEntity
  8
0部品1
100
AcDbLine
 10
6122.392803748494
 20
-4393.71279599842
 30
0.0
 11
6120.892803748495
 21
-4393.71279599842
 31
0.0
  0
LINE
  5
53B56
330
1F
100
AcDbEntity
  8
0部品4
100
AcDbLine
 10
6181.19398306941
 20
-4398.21279599842
 30
0.0
 11
6181.19398306941
 21
-4403.21279599842
 31
0.0
  0
LINE
  5
53B57
330
1F
100
AcDbEntity
  8
0部品1
100
AcDbLine
 10
6183.19398306941
 20
-4409.16197599842
 30
0.0
 11
6183.19398306941
 21
-4407.583615998421
 31
0.0
  0
ARC
  5
53B58
330
1F
100
AcDbEntity
  8
0部品10
100
AcDbCircle
 10
6141.092803748495
 20
-4414.21279599842
 30
0.0
 40
0.7
100
AcDbArc
 50
180.0
 51
280.8743419343047
  0
ARC
  5
53B59
330
1F
100
AcDbEntity
  8
0部品4
100
AcDbCircle
 10
6141.392803748495
 20
-4404.212795998421
 30
0.0
 40
2.0
100
AcDbArc
 50
180.0
 51
270.0
  0
LINE
  5
53B5A
330
1F
100
AcDbEntity
  8
0部品2
100
AcDbLine
 10
6134.892803748495
 20
-4405.212795998421
 30
0.0
 11
6136.892803748494
 21
-4405.212795998421
 31
0.0
  0
LINE
  5
53B5B
330
1F
100
AcDbEntity
  8
0部品2
100
AcDbLine
 10
6224.19398306941
 20
-4404.112795998421
 30
0.0
 11
6224.19398306941
 21
-4402.11279599842
 31
0.0
  0
LINE
  5
53B5C
330
1F
100
AcDbEntity
  8
0部品7
100
AcDbLine
 10
6145.142803748495
 20
-4411.227568998421
 30
0.0
 11
6145.142803748495
 21
-4412.721969998421
 31
0.0
  0
ARC
  5
53B5D
330
1F
100
AcDbEntity
  8
0部品10
100
AcDbCircle
 10
6111.092803748494
 20
-4414.21279599842
 30
0.0
 40
0.7
100
AcDbArc
 50
180.0
 51
280.8743419343047
  0
LINE
  5
53B5E
330
1F
100
AcDbEntity
  8
0部品10
100
AcDbLine
 10
6110.960744748496
 20
-4413.52536599842
 30
0.0
 11
6118.560744748495
 21
-4412.065365998421
 31
0.0
  0
LINE
  5
53B5F
330
1F
100
AcDbEntity
  8
0部品11
100
AcDbLine
 10
6139.392803748495
 20
-4398.112795998421
 30
0.0
 11
6138.892803748495
 21
-4398.112795998421
 31
0.0
  0
LINE
  5
53B60
330
1F
100
AcDbEntity
  8
0部品6
100
AcDbLine
 10
6186.193983069411
 20
-4433.772254998421
 30
0.0
 11
6186.193983069411
 21
-4441.272254998421
 31
0.0
  0
LINE
  5
53B61
330
1F
100
AcDbEntity
  8
0部品1
100
AcDbLine
 10
6137.392803748495
 20
-4393.71279599842
 30
0.0
 11
6138.892803748495
 21
-4393.71279599842
 31
0.0
  0
ARC
  5
53B62
330
1F
100
AcDbEntity
  8
0部品10
100
AcDbCircle
 10
6182.99398306941
 20
-4415.67279599842
 30
0.0
 40
0.7
100
AcDbArc
 50
280.8743419343047
 51
100.8743419343046
  0
LINE
  5
53B63
330
1F
100
AcDbEntity
  8
0部品10
100
AcDbLine
 10
6111.224862748495
 20
-4411.980225998421
 30
0.0
 11
6118.824862748494
 21
-4410.52022599842
 31
0.0
  0
LINE
  5
53B64
330
1F
100
AcDbEntity
  8
0部品10
100
AcDbLine
 10
6110.960744748496
 20
-4420.740225998421
 30
0.0
 11
6111.338504748495
 21
-4420.81279599842
 31
0.0
  0
LINE
  5
53B65
330
1F
100
AcDbEntity
  8
0部品7
100
AcDbLine
 10
6146.642803748495
 20
-4422.212795998421
 30
0.0
 11
6146.642803748495
 21
-4424.712795998421
 31
0.0
  0
LINE
  5
53B66
330
1F
100
AcDbEntity
  8
0部品3
100
AcDbLine
 10
6138.892803748495
 20
-4411.21279599842
 30
0.0
 11
6139.292803748494
 21
-4411.21279599842
 31
0.0
  0
LINE
  5
53B67
330
1F
100
AcDbEntity
  8
0部品7
100
AcDbLine
 10
6118.892803748495
 20
-4436.512795998421
 30
0.0
 11
6120.392803748495
 21
-4436.512795998421
 31
0.0
  0
LINE
  5
53B68
330
1F
100
AcDbEntity
  8
0部品7
100
AcDbLine
 10
6114.642803748495
 20
-4417.16362199842
 30
0.0
 11
6114.642803748495
 21
-4418.65802299842
 31
0.0
  0
LINE
  5
53B69
330
1F
100
AcDbEntity
  8
0部品5
100
AcDbLine
 10
6118.892803748495
 20
-4434.372254998421
 30
0.0
 11
6118.342803748494
 21
-4434.372254998421
 31
0.0
  0
LINE
  5
53B6A
330
1F
100
AcDbEntity
  8
0部品6
  6
中心線1
 48
0.5
370
    13
100
AcDbLine
 10
6171.19398306941
 20
-4479.244960804215
 30
0.0
 11
6227.19398306941
 21
-4479.244960804215
 31
0.0
  0
LINE
  5
53B6B
330
1F
100
AcDbEntity
  8
0部品7
100
AcDbLine
 10
6113.142803748495
 20
-4408.69177999842
 30
0.0
 11
6113.142803748495
 21
-4410.186180998421
 31
0.0
  0
LINE
  5
53B6C
330
1F
100
AcDbEntity
  8
0部品7
100
AcDbLine
 10
6113.142803748495
 20
-4422.212795998421
 30
0.0
 11
6113.142803748495
 21
-4424.712795998421
 31
0.0
  0
LINE
  5
53B6D
330
1F
100
AcDbEntity
  8
0部品6
100
AcDbLine
 10
6122.392803748494
 20
-4430.272254998421
 30
0.0
 11
6122.392803748494
 21
-4431.79991299842
 31
0.0
  0
LINE
  5
53B6E
330
1F
100
AcDbEntity
  8
0部品4
100
AcDbLine
 10
6115.142803748494
 20
-4419.987568998421
 30
0.0
 11
6115.142803748494
 21
-4420.81279599842
 31
0.0
  0
LINE
  5
53B6F
330
1F
100
AcDbEntity
  8
0部品10
100
AcDbLine
 10
6118.692803748495
 20
-4422.212795998421
 30
0.0
 11
6111.092803748494
 21
-4422.212795998421
 31
0.0
  0
LINE
  5
53B70
330
1F
100
AcDbEntity
  8
0部品10
100
AcDbLine
 10
6148.824862748495
 20
-4414.985365998421
 30
0.0
 11
6146.642803748495
 21
-4414.56618099842
 31
0.0
  0
LINE
  5
53B71
330
1F
100
AcDbEntity
  8
0部品10
100
AcDbLine
 10
6111.092803748494
 20
-4406.21279599842
 30
0.0
 11
6118.560744748495
 21
-4406.21279599842
 31
0.0
  0
LINE
  5
53B72
330
1F
100
AcDbEntity
  8
0部品10
100
AcDbLine
 10
6118.824862748494
 20
-4414.985365998421
 30
0.0
 11
6116.642803748495
 21
-4414.56618099842
 31
0.0
  0
LINE
  5
53B73
330
1F
100
AcDbEntity
  8
0部品7
100
AcDbLine
 10
6139.392803748495
 20
-4427.21279599842
 30
0.0
 11
6139.392803748495
 21
-4436.512795998421
 31
0.0
  0
LINE
  5
53B74
330
1F
100
AcDbEntity
  8
0部品11
100
AcDbLine
 10
6139.392803748495
 20
-4400.31279599842
 30
0.0
 11
6138.892803748495
 21
-4400.31279599842
 31
0.0
  0
LINE
  5
53B75
330
1F
100
AcDbEntity
  8
0部品6
  6
中心線1
 48
0.5
370
    13
100
AcDbLine
 10
6179.19398306941
 20
-4458.744960804216
 30
0.0
 11
6179.19398306941
 21
-4499.744960804215
 31
0.0
  0
LINE
  5
53B76
330
1F
100
AcDbEntity
  8
0部品10
100
AcDbLine
 10
6175.26192406941
 20
-4409.060225998421
 30
0.0
 11
6176.64313906941
 21
-4409.32556499842
 31
0.0
  0
LINE
  5
53B77
330
1F
100
AcDbEntity
  8
0部品10
100
AcDbLine
 10
6141.224862748495
 20
-4414.900225998421
 30
0.0
 11
6146.453425748495
 21
-4413.89579199842
 31
0.0
  0
ARC
  5
53B78
330
1F
100
AcDbEntity
  8
0
  6
Continuous
 62
     3
100
AcDbCircle
 10
6182.99398306941
 20
-4406.912795998421
 30
0.0
 40
0.7
100
AcDbArc
 50
280.8743419343047
 51
286.6015495989824
  0
LINE
  5
53B79
330
1F
100
AcDbEntity
  8
0部品7
100
AcDbLine
 10
6181.19398306941
 20
-4407.971384998421
 30
0.0
 11
6181.19398306941
 21
-4409.46578599842
 31
0.0
  0
LINE
  5
53B7A
330
1F
100
AcDbEntity
  8
0部品4
100
AcDbLine
 10
6116.642803748495
 20
-4419.699410998421
 30
0.0
 11
6116.642803748495
 21
-4420.81279599842
 31
0.0
  0
LINE
  5
53B7B
330
1F
100
AcDbEntity
  8
0部品4
100
AcDbLine
 10
6116.642803748495
 20
-4408.01941099842
 30
0.0
 11
6116.642803748495
 21
-4409.51381199842
 31
0.0
  0
LINE
  5
53B7C
330
1F
100
AcDbEntity
  8
0部品2
100
AcDbLine
 10
6134.892803748494
 20
-4403.712795998421
 30
0.0
 11
6134.892803748495
 21
-4414.21279599842
 31
0.0
  0
LINE
  5
53B7D
330
1F
100
AcDbEntity
  8
0部品1
100
AcDbLine
 10
6135.642803748495
 20
-4403.712795998421
 30
0.0
 11
6124.142803748495
 21
-4403.712795998421
 31
0.0
  0
LINE
  5
53B7E
330
1F
100
AcDbEntity
  8
0部品6
100
AcDbLine
 10
6184.19398306941
 20
-4471.744960804215
 30
0.0
 11
6186.193983069411
 21
-4471.744960804215
 31
0.0
  0
LINE
  5
53B7F
330
1F
100
AcDbEntity
  8
0部品10
100
AcDbLine
 10
6140.960744748495
 20
-4420.740225998421
 30
0.0
 11
6141.338504748494
 21
-4420.81279599842
 31
0.0
  0
ARC
  5
53B80
330
1F
100
AcDbEntity
  8
0部品7
100
AcDbCircle
 10
6118.392803748495
 20
-4427.21279599842
 30
0.0
 40
2.0
100
AcDbArc
 50
0.0
 51
90.0
  0
LINE
  5
53B81
330
1F
100
AcDbEntity
  8
0部品10
100
AcDbLine
 10
6140.960744748495
 20
-4411.980225998421
 30
0.0
 11
6143.142803748495
 21
-4412.39941099842
 31
0.0
  0
ARC
  5
53B82
330
1F
100
AcDbEntity
  8
0
  6
Continuous
 62
     3
100
AcDbCircle
 10
6182.99398306941
 20
-4409.832795998421
 30
0.0
 40
0.7
100
AcDbArc
 50
73.3984504010176
 51
79.12565806569531
  0
LINE
  5
53B83
330
1F
100
AcDbEntity
  8
0部品4
100
AcDbLine
 10
6173.69398306941
 20
-4422.71279599842
 30
0.0
 11
6173.69398306941
 21
-4424.712795998421
 31
0.0
  0
ARC
  5
53B84
330
1F
100
AcDbEntity
  8
0部品10
100
AcDbCircle
 10
6148.692803748495
 20
-4409.832795998421
 30
0.0
 40
0.7
100
AcDbArc
 50
280.8743419343047
 51
100.8743419343046
  0
ARC
  5
53B85
330
1F
100
AcDbEntity
  8
0部品10
100
AcDbCircle
 10
6148.692803748495
 20
-4415.67279599842
 30
0.0
 40
0.7
100
AcDbArc
 50
280.8743419343047
 51
100.8743419343046
  0
LINE
  5
53B86
330
1F
100
AcDbEntity
  8
0部品4
100
AcDbLine
 10
6116.642803748495
 20
-4422.212795998421
 30
0.0
 11
6116.642803748495
 21
-4425.212795998421
 31
0.0
  0
LINE
  5
53B87
330
1F
100
AcDbEntity
  8
0部品2
100
AcDbLine
 10
6194.693983069409
 20
-4402.11279599842
 30
0.0
 11
6194.693983069409
 21
-4404.112795998421
 31
0.0
  0
LINE
  5
53B88
330
1F
100
AcDbEntity
  8
0部品6
100
AcDbLine
 10
6177.968765069411
 20
-4433.799912998421
 30
0.0
 11
6179.69877906941
 21
-4432.928505998421
 31
0.0
  0
LINE
  5
53B89
330
1F
100
AcDbEntity
  8
0部品7
100
AcDbLine
 10
6114.642803748495
 20
-4420.08362199842
 30
0.0
 11
6114.642803748495
 21
-4420.81279599842
 31
0.0
  0
LINE
  5
53B8A
330
1F
100
AcDbEntity
  8
0部品10
100
AcDbLine
 10
6175.26192406941
 20
-4416.445365998421
 30
0.0
 11
6182.86192406941
 21
-4414.985365998421
 31
0.0
  0
LINE
  5
53B8B
330
1F
100
AcDbEntity
  8
0部品7
100
AcDbLine
 10
6145.142803748495
 20
-4403.21279599842
 30
0.0
 11
6145.142803748495
 21
-4406.21279599842
 31
0.0
  0
LINE
  5
53B8C
330
1F
100
AcDbEntity
  8
0部品10
100
AcDbLine
 10
6183.12604206941
 20
-4417.905365998421
 30
0.0
 11
6181.19398306941
 21
-4417.53420699842
 31
0.0
  0
LINE
  5
53B8D
330
1F
100
AcDbEntity
  8
0部品10
100
AcDbLine
 10
6175.26192406941
 20
-4414.900225998421
 30
0.0
 11
6177.19398306941
 21
-4415.27138499842
 31
0.0
  0
ARC
  5
53B8E
330
1F
100
AcDbEntity
  8
0部品4
100
AcDbCircle
 10
6184.19398306941
 20
-4424.712795998421
 30
0.0
 40
0.5
100
AcDbArc
 50
270.0
 51
0.0
  0
LINE
  5
53B8F
330
1F
100
AcDbEntity
  8
0部品10
100
AcDbLine
 10
6148.692803748495
 20
-4422.212795998421
 30
0.0
 11
6141.092803748495
 21
-4422.212795998421
 31
0.0
  0
LINE
  5
53B90
330
1F
100
AcDbEntity
  8
0部品4
100
AcDbLine
 10
6143.142803748495
 20
-4417.499805998421
 30
0.0
 11
6143.142803748495
 21
-4418.994206998421
 31
0.0
  0
LINE
  5
53B91
330
1F
100
AcDbEntity
  8
0部品1
100
AcDbLine
 10
6138.892803748495
 20
-4414.21279599842
 30
0.0
 11
6137.392803748495
 21
-4414.21279599842
 31
0.0
  0
LINE
  5
53B92
330
1F
100
AcDbEntity
  8
0部品1
100
AcDbLine
 10
6208.19398306941
 20
-4393.212795998421
 30
0.0
 11
6208.19398306941
 21
-4403.712795998421
 31
0.0
  0
ARC
  5
53B93
330
1F
100
AcDbEntity
  8
0部品10
100
AcDbCircle
 10
6118.692803748495
 20
-4409.832795998421
 30
0.0
 40
0.7
100
AcDbArc
 50
280.8743419343047
 51
100.8743419343046
  0
LINE
  5
53B94
330
1F
100
AcDbEntity
  8
0部品4
100
AcDbLine
 10
6115.142803748494
 20
-4411.227568998421
 30
0.0
 11
6115.142803748494
 21
-4412.721969998421
 31
0.0
  0
ARC
  5
53B95
330
1F
100
AcDbEntity
  8
0部品4
100
AcDbCircle
 10
6118.392803748495
 20
-4404.212795998421
 30
0.0
 40
2.0
100
AcDbArc
 50
270.0
 51
0.0
  0
ARC
  5
53B96
330
1F
100
AcDbEntity
  8
0部品10
100
AcDbCircle
 10
6175.39398306941
 20
-4408.37279599842
 30
0.0
 40
0.7
100
AcDbArc
 50
100.8743419343046
 51
280.8743419343047
  0
CIRCLE
  5
53B97
330
1F
100
AcDbEntity
  8
0部品2
100
AcDbCircle
 10
6218.19398306941
 20
-4479.244960804215
 30
0.0
 40
2.25
  0
LINE
  5
53B98
330
1F
100
AcDbEntity
  8
0部品10
100
AcDbLine
 10
6175.26192406941
 20
-4420.740225998421
 30
0.0
 11
6175.63968406941
 21
-4420.81279599842
 31
0.0
  0
LINE
  5
53B99
330
1F
100
AcDbEntity
  8
0部品7
100
AcDbLine
 10
6181.19398306941
 20
-4427.70510399842
 30
0.0
 11
6181.19398306941
 21
-4422.212795998421
 31
0.0
  0
LINE
  5
53B9A
330
1F
100
AcDbEntity
  8
0部品10
100
AcDbLine
 10
6111.224862748495
 20
-4420.740225998421
 30
0.0
 11
6118.824862748494
 21
-4419.280225998421
 31
0.0
  0
LINE
  5
53B9B
330
1F
100
AcDbEntity
  8
0部品7
100
AcDbLine
 10
6181.19398306941
 20
-4413.811384998421
 30
0.0
 11
6181.19398306941
 21
-4415.305785998421
 31
0.0
  0
ARC
  5
53B9C
330
1F
100
AcDbEntity
  8
0部品7
100
AcDbCircle
 10
6174.19398306941
 20
-4403.712795998421
 30
0.0
 40
0.5
100
AcDbArc
 50
90.0
 51
180.0
  0
ARC
  5
53B9D
330
1F
100
AcDbEntity
  8
0部品10
100
AcDbCircle
 10
6175.39398306941
 20
-4421.51279599842
 30
0.0
 40
0.7
100
AcDbArc
 50
90.0
 51
270.0
  0
ARC
  5
53B9E
330
1F
100
AcDbEntity
  8
0部品10
100
AcDbCircle
 10
6118.692803748495
 20
-4418.592795998421
 30
0.0
 40
0.7
100
AcDbArc
 50
280.8743419343047
 51
100.8743419343046
  0
LINE
  5
53B9F
330
1F
100
AcDbEntity
  8
0部品7
100
AcDbLine
 10
6145.142803748495
 20
-4408.30756899842
 30
0.0
 11
6145.142803748495
 21
-4409.801969998421
 31
0.0
  0
LINE
  5
53BA0
330
1F
100
AcDbEntity
  8
0部品10
100
AcDbLine
 10
6175.26192406941
 20
-4413.52536599842
 30
0.0
 11
6182.86192406941
 21
-4412.065365998421
 31
0.0
  0
LINE
  5
53BA1
330
1F
100
AcDbEntity
  8
0部品2
100
AcDbLine
 10
6199.19398306941
 20
-4486.244960804215
 30
0.0
 11
6217.19398306941
 21
-4486.244960804215
 31
0.0
  0
ARC
  5
53BA2
330
1F
100
AcDbEntity
  8
0部品10
100
AcDbCircle
 10
6182.99398306941
 20
-4409.832795998421
 30
0.0
 40
0.7
100
AcDbArc
 50
280.8743419343047
 51
100.8743419343046
  0
LINE
  5
53BA3
330
1F
100
AcDbEntity
  8
0部品6
100
AcDbLine
 10
6137.392803748495
 20
-4434.772254998421
 30
0.0
 11
6137.392803748495
 21
-4441.272254998421
 31
0.0
  0
ARC
  5
53BA4
330
1F
100
AcDbEntity
  8
0部品10
100
AcDbCircle
 10
6111.092803748494
 20
-4421.51279599842
 30
0.0
 40
0.7
100
AcDbArc
 50
90.0
 51
270.0
  0
LINE
  5
53BA5
330
1F
100
AcDbEntity
  8
0部品6
100
AcDbLine
 10
6177.968765069411
 20
-4433.799912998421
 30
0.0
 11
6177.293983069411
 21
-4432.46025999842
 31
0.0
  0
ARC
  5
53BA6
330
1F
100
AcDbEntity
  8
0部品10
100
AcDbCircle
 10
6175.39398306941
 20
-4414.21279599842
 30
0.0
 40
0.7
100
AcDbArc
 50
100.8743419343046
 51
280.8743419343047
  0
LINE
  5
53BA7
330
1F
100
AcDbEntity
  8
0部品7
100
AcDbLine
 10
6113.142803748495
 20
-4403.21279599842
 30
0.0
 11
6113.142803748495
 21
-4406.21279599842
 31
0.0
  0
LINE
  5
53BA8
330
1F
100
AcDbEntity
  8
0部品10
100
AcDbLine
 10
6141.092803748495
 20
-4407.61279599842
 30
0.0
 11
6141.338504748494
 21
-4407.61279599842
 31
0.0
  0
LINE
  5
53BA9
330
1F
100
AcDbEntity
  8
0部品1
100
AcDbLine
 10
6122.392803748494
 20
-4414.21279599842
 30
0.0
 11
6120.892803748495
 21
-4414.21279599842
 31
0.0
  0
ARC
  5
53BAA
330
1F
100
AcDbEntity
  8
0部品10
100
AcDbCircle
 10
6111.092803748494
 20
-4406.912795998421
 30
0.0
 40
0.7
100
AcDbArc
 50
90.0
 51
270.0
  0
LINE
  5
53BAB
330
1F
100
AcDbEntity
  8
0部品10
100
AcDbLine
 10
6141.224862748495
 20
-4409.060225998421
 30
0.0
 11
6148.824862748495
 21
-4407.600225998421
 31
0.0
  0
LINE
  5
53BAC
330
1F
100
AcDbEntity
  8
0部品10
100
AcDbLine
 10
6111.338504748495
 20
-4407.61279599842
 30
0.0
 11
6118.560744748495
 21
-4406.22536599842
 31
0.0
  0
LINE
  5
53BAD
330
1F
100
AcDbEntity
  8
0部品4
100
AcDbLine
 10
6144.642803748495
 20
-4414.29164799842
 30
0.0
 11
6144.642803748495
 21
-4415.786048998421
 31
0.0
  0
LINE
  5
53BAE
330
1F
100
AcDbEntity
  8
0部品7
100
AcDbLine
 10
6177.19398306941
 20
-4426.712795998421
 30
0.0
 11
6181.19398306941
 21
-4426.712795998421
 31
0.0
  0
LINE
  5
53BAF
330
1F
100
AcDbEntity
  8
0部品7
100
AcDbLine
 10
6145.142803748495
 20
-4422.212795998421
 30
0.0
 11
6145.142803748495
 21
-4424.712795998421
 31
0.0
  0
LINE
  5
53BB0
330
1F
100
AcDbEntity
  8
0部品2
  6
中心線1
 48
0.3
370
    13
100
AcDbLine
 10
6203.19398306941
 20
-4399.11279599842
 30
0.0
 11
6203.19398306941
 21
-4407.11279599842
 31
0.0
  0
LINE
  5
53BB1
330
1F
100
AcDbEntity
  8
0部品4
100
AcDbLine
 10
6118.392803748495
 20
-4404.71279599842
 30
0.0
 11
6117.142803748495
 21
-4404.71279599842
 31
0.0
  0
ARC
  5
53BB2
330
1F
100
AcDbEntity
  8
0部品10
100
AcDbCircle
 10
6141.092803748495
 20
-4406.912795998421
 30
0.0
 40
0.7
100
AcDbArc
 50
90.0
 51
270.0
  0
LINE
  5
53BB3
330
1F
100
AcDbEntity
  8
0部品1
100
AcDbLine
 10
6193.193983069409
 20
-4403.712795998421
 30
0.0
 11
6184.69398306941
 21
-4403.712795998421
 31
0.0
  0
LINE
  5
53BB4
330
1F
100
AcDbEntity
  8
0部品2
  6
中心線1
 48
0.3
370
    13
100
AcDbLine
 10
6203.19398306941
 20
-4474.994960804215
 30
0.0
 11
6203.19398306941
 21
-4483.494960804215
 31
0.0
  0
ARC
  5
53BB5
330
1F
100
AcDbEntity
  8
0部品3
100
AcDbCircle
 10
6175.19398306941
 20
-4409.712795998421
 30
0.0
 40
1.5
100
AcDbArc
 50
334.5108030123407
 51
14.96055894577468
  0
ARC
  5
53BB6
330
1F
100
AcDbEntity
  8
0部品7
100
AcDbCircle
 10
6182.19398306941
 20
-4427.70510399842
 30
0.0
 40
5.0
100
AcDbArc
 50
180.0
 51
214.2054668270743
  0
LINE
  5
53BB7
330
1F
100
AcDbEntity
  8
0部品6
100
AcDbLine
 10
6147.392803748495
 20
-4441.272254998421
 30
0.0
 11
6112.392803748495
 21
-4441.272254998421
 31
0.0
  0
LINE
  5
53BB8
330
1F
100
AcDbEntity
  8
0部品10
100
AcDbLine
 10
6118.824862748494
 20
-4412.065365998421
 30
0.0
 11
6116.642803748495
 21
-4411.646180998419
 31
0.0
  0
LINE
  5
53BB9
330
1F
100
AcDbEntity
  8
0部品2
100
AcDbLine
 10
6185.19398306941
 20
-4404.112795998421
 30
0.0
 11
6185.19398306941
 21
-4414.21279599842
 31
0.0
  0
ARC
  5
53BBA
330
1F
100
AcDbEntity
  8
0部品2
100
AcDbCircle
 10
6195.19398306941
 20
-4470.744960804215
 30
0.0
 40
0.5
100
AcDbArc
 50
90.0
 51
180.0
  0
LINE
  5
53BBB
330
1F
100
AcDbEntity
  8
0部品6
100
AcDbLine
 10
6112.392803748495
 20
-4441.272254998421
 30
0.0
 11
6112.392803748495
 21
-4442.772254998421
 31
0.0
  0
ARC
  5
53BBC
330
1F
100
AcDbEntity
  8
0部品1
100
AcDbCircle
 10
6200.19398306941
 20
-4403.21279599842
 30
0.0
 40
0.5
100
AcDbArc
 50
180.0
 51
270.0
  0
ARC
  5
53BBD
330
1F
100
AcDbEntity
  8
0部品4
100
AcDbCircle
 10
6184.19398306941
 20
-4422.71279599842
 30
0.0
 40
0.5
100
AcDbArc
 50
0.0
 51
90.0
  0
LINE
  5
53BBE
330
1F
100
AcDbEntity
  8
0部品6
100
AcDbLine
 10
6184.19398306941
 20
-4486.744960804215
 30
0.0
 11
6184.19398306941
 21
-4491.744960804215
 31
0.0
  0
LINE
  5
53BBF
330
1F
100
AcDbEntity
  8
0部品2
100
AcDbLine
 10
6224.19398306941
 20
-4402.11279599842
 30
0.0
 11
6208.19398306941
 21
-4402.11279599842
 31
0.0
  0
LINE
  5
53BC0
330
1F
100
AcDbEntity
  8
0部品10
100
AcDbLine
 10
6111.224862748495
 20
-4414.900225998421
 30
0.0
 11
6118.824862748494
 21
-4413.44022599842
 31
0.0
  0
LINE
  5
53BC1
330
1F
100
AcDbEntity
  8
0部品6
100
AcDbLine
 10
6184.19398306941
 20
-4441.272254998421
 30
0.0
 11
6184.19398306941
 21
-4442.772254998421
 31
0.0
  0
LINE
  5
53BC2
330
1F
100
AcDbEntity
  8
0部品7
100
AcDbLine
 10
6146.642803748495
 20
-4410.939410998421
 30
0.0
 11
6146.642803748495
 21
-4412.43381199842
 31
0.0
  0
LINE
  5
53BC3
330
1F
100
AcDbEntity
  8
0部品3
100
AcDbLine
 10
6124.892803748495
 20
-4411.21279599842
 30
0.0
 11
6134.892803748495
 21
-4411.21279599842
 31
0.0
  0
LINE
  5
53BC4
330
1F
100
AcDbEntity
  8
0部品5
100
AcDbLine
 10
6139.392803748495
 20
-4434.772254998421
 30
0.0
 11
6120.392803748495
 21
-4434.772254998421
 31
0.0
  0
ARC
  5
53BC5
330
1F
100
AcDbEntity
  8
0部品1
100
AcDbCircle
 10
6123.142803748494
 20
-4394.919902998421
 30
0.0
 40
0.5
100
AcDbArc
 50
135.0000000000002
 51
180.0
  0
LINE
  5
53BC6
330
1F
100
AcDbEntity
  8
0部品10
100
AcDbLine
 10
6110.960744748496
 20
-4409.060225998421
 30
0.0
 11
6112.341959748494
 21
-4409.32556499842
 31
0.0
  0
LINE
  5
53BC7
330
1F
100
AcDbEntity
  8
0部品7
100
AcDbLine
 10
6145.142803748495
 20
-4419.987568998421
 30
0.0
 11
6145.142803748495
 21
-4420.81279599842
 31
0.0
  0
LINE
  5
53BC8
330
1F
100
AcDbEntity
  8
0部品3
100
AcDbLine
 10
6122.392803748494
 20
-4411.21279599842
 30
0.0
 11
6122.892803748495
 21
-4411.21279599842
 31
0.0
  0
ARC
  5
53BC9
330
1F
100
AcDbEntity
  8
0部品10
100
AcDbCircle
 10
6148.692803748495
 20
-4406.912795998421
 30
0.0
 40
0.7
100
AcDbArc
 50
280.8743419343047
 51
100.8743419343046
  0
LINE
  5
53BCA
330
1F
100
AcDbEntity
  8
0部品10
100
AcDbLine
 10
6140.960744748495
 20
-4419.365365998421
 30
0.0
 11
6148.560744748494
 21
-4417.905365998421
 31
0.0
  0
LINE
  5
53BCB
330
1F
100
AcDbEntity
  8
0部品2
100
AcDbLine
 10
6122.892803748495
 20
-4414.21279599842
 30
0.0
 11
6136.892803748494
 21
-4414.21279599842
 31
0.0
  0
LINE
  5
53BCC
330
1F
100
AcDbEntity
  8
0部品4
100
AcDbLine
 10
6116.642803748495
 20
-4410.939410998421
 30
0.0
 11
6116.642803748495
 21
-4412.43381199842
 31
0.0
  0
ARC
  5
53BCD
330
1F
100
AcDbEntity
  8
0部品7
100
AcDbCircle
 10
6115.142803748494
 20
-4424.712795998421
 30
0.0
 40
0.5
100
AcDbArc
 50
180.0
 51
270.0
  0
LINE
  5
53BCE
330
1F
100
AcDbEntity
  8
0部品7
100
AcDbLine
 10
6177.19398306941
 20
-4414.57980599842
 30
0.0
 11
6177.19398306941
 21
-4416.074206998421
 31
0.0
  0
ARC
  5
53BCF
330
1F
100
AcDbEntity
  8
0部品1
100
AcDbCircle
 10
6135.642803748495
 20
-4402.212795998421
 30
0.0
 40
1.5
100
AcDbArc
 50
270.0
 51
0.0
  0
LINE
  5
53BD0
330
1F
100
AcDbEntity
  8
0部品1
100
AcDbLine
 10
6122.392803748494
 20
-4393.212795998421
 30
0.0
 11
6122.392803748494
 21
-4414.21279599842
 31
0.0
  0
ARC
  5
53BD1
330
1F
100
AcDbEntity
  8
0部品10
100
AcDbCircle
 10
6111.092803748494
 20
-4411.292795998421
 30
0.0
 40
0.7
100
AcDbArc
 50
100.8743419343046
 51
280.8743419343047
  0
ARC
  5
53BD2
330
1F
100
AcDbEntity
  8
0部品4
100
AcDbCircle
 10
6174.19398306941
 20
-4422.71279599842
 30
0.0
 40
0.5
100
AcDbArc
 50
90.0
 51
180.0
  0
LINE
  5
53BD3
330
1F
100
AcDbEntity
  8
0部品4
100
AcDbLine
 10
6177.19398306941
 20
-4425.212795998421
 30
0.0
 11
6174.19398306941
 21
-4425.212795998421
 31
0.0
  0
ARC
  5
53BD4
330
1F
100
AcDbEntity
  8
0部品10
100
AcDbCircle
 10
6141.092803748495
 20
-4421.51279599842
 30
0.0
 40
0.7
100
AcDbArc
 50
90.0
 51
270.0
  0
LINE
  5
53BD5
330
1F
100
AcDbEntity
  8
0部品4
100
AcDbLine
 10
6120.392803748495
 20
-4396.212795998421
 30
0.0
 11
6120.392803748495
 21
-4404.212795998421
 31
0.0
  0
LINE
  5
53BD6
330
1F
100
AcDbEntity
  8
0部品10
100
AcDbLine
 10
6140.960744748495
 20
-4414.900225998421
 30
0.0
 11
6143.142803748495
 21
-4415.31941099842
 31
0.0
  0
ARC
  5
53BD7
330
1F
100
AcDbEntity
  8
0部品3
100
AcDbCircle
 10
6175.19398306941
 20
-4409.712795998421
 30
0.0
 40
1.5
100
AcDbArc
 50
109.4712206345205
 51
250.5287793654793
  0
LINE
  5
53BD8
330
1F
100
AcDbEntity
  8
0部品1
100
AcDbLine
 10
6123.642803748495
 20
-4393.505688998421
 30
0.0
 11
6123.642803748495
 21
-4393.212795998421
 31
0.0
  0
LINE
  5
53BD9
330
1F
100
AcDbEntity
  8
0部品4
100
AcDbLine
 10
6139.392803748495
 20
-4396.212795998421
 30
0.0
 11
6140.892803748495
 21
-4396.212795998421
 31
0.0
  0
LINE
  5
53BDA
330
1F
100
AcDbEntity
  8
0部品10
100
AcDbLine
 10
6110.960744748496
 20
-4410.605365998421
 30
0.0
 11
6118.560744748495
 21
-4409.145365998421
 31
0.0
  0
LINE
  5
53BDB
330
1F
100
AcDbEntity
  8
0部品7
100
AcDbLine
 10
6118.892803748495
 20
-4427.21279599842
 30
0.0
 11
6118.892803748495
 21
-4436.512795998421
 31
0.0
  0
LINE
  5
53BDC
330
1F
100
AcDbEntity
  8
0部品10
100
AcDbLine
 10
6140.960744748495
 20
-4417.820225998421
 30
0.0
 11
6143.142803748495
 21
-4418.23941099842
 31
0.0
  0
ARC
  5
53BDD
330
1F
100
AcDbEntity
  8
0部品7
100
AcDbCircle
 10
6141.392803748495
 20
-4427.21279599842
 30
0.0
 40
0.5
100
AcDbArc
 50
90.0
 51
180.0
  0
LINE
  5
53BDE
330
1F
100
AcDbEntity
  8
0部品7
100
AcDbLine
 10
6146.642803748495
 20
-4419.699410998421
 30
0.0
 11
6146.642803748495
 21
-4420.81279599842
 31
0.0
  0
LINE
  5
53BDF
330
1F
100
AcDbEntity
  8
0
  6
Continuous
 62
     3
100
AcDbLine
 10
6176.64313906941
 20
-4409.32556499842
 30
0.0
 11
6177.19398306941
 21
-4409.431384998421
 31
0.0
  0
LINE
  5
53BE0
330
1F
100
AcDbEntity
  8
0部品7
100
AcDbLine
 10
6146.642803748495
 20
-4403.21279599842
 30
0.0
 11
6145.142803748495
 21
-4403.21279599842
 31
0.0
  0
LINE
  5
53BE1
330
1F
100
AcDbEntity
  8
0部品4
100
AcDbLine
 10
6116.642803748495
 20
-4416.779410998421
 30
0.0
 11
6116.642803748495
 21
-4418.27381199842
 31
0.0
  0
LINE
  5
53BE2
330
1F
100
AcDbEntity
  8
0部品1
100
AcDbLine
 10
6122.789250748495
 20
-4394.56634899842
 30
0.0
 11
6123.496356748495
 21
-4393.859242998421
 31
0.0
  0
LINE
  5
53BE3
330
1F
100
AcDbEntity
  8
0部品6
100
AcDbLine
 10
6147.392803748495
 20
-4441.272254998421
 30
0.0
 11
6147.392803748495
 21
-4442.772254998421
 31
0.0
  0
LINE
  5
53BE4
330
1F
100
AcDbEntity
  8
0部品10
100
AcDbLine
 10
6175.39398306941
 20
-4407.61279599842
 30
0.0
 11
6175.63968406941
 21
-4407.61279599842
 31
0.0
  0
LINE
  5
53BE5
330
1F
100
AcDbEntity
  8
0部品7
100
AcDbLine
 10
6184.19398306941
 20
-4406.21279599842
 30
0.0
 11
6174.19398306941
 21
-4406.21279599842
 31
0.0
  0
LINE
  5
53BE6
330
1F
100
AcDbEntity
  8
0部品5
100
AcDbLine
 10
6137.392803748495
 20
-4431.772254998421
 30
0.0
 11
6139.392803748495
 21
-4431.772254998421
 31
0.0
  0
LINE
  5
53BE7
330
1F
100
AcDbEntity
  8
0部品10
100
AcDbLine
 10
6118.824862748494
 20
-4409.145365998421
 30
0.0
 11
6116.642803748495
 21
-4408.726180998421
 31
0.0
  0
ARC
  5
53BE8
330
1F
100
AcDbEntity
  8
0部品2
100
AcDbCircle
 10
6195.19398306941
 20
-4487.744960804215
 30
0.0
 40
0.5
100
AcDbArc
 50
180.0
 51
270.0
  0
ARC
  5
53BE9
330
1F
100
AcDbEntity
  8
0部品1
100
AcDbCircle
 10
6218.06898306941
 20
-4383.462795998421
 30
0.0
 40
13.877252
100
AcDbArc
 50
224.6350636642922
 51
305.8376529542859
  0
ARC
  5
53BEA
330
1F
100
AcDbEntity
  8
0部品7
100
AcDbCircle
 10
6141.392803748495
 20
-4427.21279599842
 30
0.0
 40
2.0
100
AcDbArc
 50
90.0
 51
180.0
  0
LINE
  5
53BEB
330
1F
100
AcDbEntity
  8
0部品7
100
AcDbLine
 10
6113.142803748495
 20
-4411.61177999842
 30
0.0
 11
6113.142803748495
 21
-4413.10618099842
 31
0.0
  0
LINE
  5
53BEC
330
1F
100
AcDbEntity
  8
0部品7
100
AcDbLine
 10
6114.642803748495
 20
-4411.323621998421
 30
0.0
 11
6114.642803748495
 21
-4412.818022998421
 31
0.0
  0
LINE
  5
53BED
330
1F
100
AcDbEntity
  8
0部品7
100
AcDbLine
 10
6146.642803748495
 20
-4413.85941099842
 30
0.0
 11
6146.642803748495
 21
-4415.353811998421
 31
0.0
  0
LINE
  5
53BEE
330
1F
100
AcDbEntity
  8
0部品4
100
AcDbLine
 10
6141.392803748495
 20
-4404.71279599842
 30
0.0
 11
6142.642803748494
 21
-4404.71279599842
 31
0.0
  0
ARC
  5
53BEF
330
1F
100
AcDbEntity
  8
0部品10
100
AcDbCircle
 10
6141.092803748495
 20
-4411.292795998421
 30
0.0
 40
0.7
100
AcDbArc
 50
100.8743419343046
 51
291.0173008748311
  0
LINE
  5
53BF0
330
1F
100
AcDbEntity
  8
0部品10
100
AcDbLine
 10
6111.224862748495
 20
-4417.820225998421
 30
0.0
 11
6118.824862748494
 21
-4416.36022599842
 31
0.0
  0
LINE
  5
53BF1
330
1F
100
AcDbEntity
  8
0部品4
100
AcDbLine
 10
6115.142803748494
 20
-4422.212795998421
 30
0.0
 11
6115.142803748494
 21
-4425.212795998421
 31
0.0
  0
LINE
  5
53BF2
330
1F
100
AcDbEntity
  8
0部品4
100
AcDbLine
 10
6143.142803748495
 20
-4411.659805998421
 30
0.0
 11
6143.142803748495
 21
-4413.15420699842
 31
0.0
  0
ARC
  5
53BF3
330
1F
100
AcDbEntity
  8
0部品6
100
AcDbCircle
 10
6182.69398306941
 20
-4433.772254998421
 30
0.0
 40
3.5
100
AcDbArc
 50
0.0
 51
89.41119613989364
  0
ARC
  5
53BF4
330
1F
100
AcDbEntity
  8
0部品10
100
AcDbCircle
 10
6111.092803748494
 20
-4417.132795998421
 30
0.0
 40
0.7
100
AcDbArc
 50
100.8743419343046
 51
280.8743419343047
  0
ARC
  5
53BF5
330
1F
100
AcDbEntity
  8
0
  6
Continuous
 62
     3
100
AcDbCircle
 10
6182.69398306941
 20
-4433.772254998421
 30
0.0
 40
3.5
100
AcDbArc
 50
89.41119613989364
 51
90.0
  0
LINE
  5
53BF6
330
1F
100
AcDbEntity
  8
0部品11
100
AcDbLine
 10
6140.892803748495
 20
-4398.112795998421
 30
0.0
 11
6141.492803748495
 21
-4398.112795998421
 31
0.0
  0
LINE
  5
53BF7
330
1F
100
AcDbEntity
  8
0部品7
100
AcDbLine
 10
6177.19398306941
 20
-4420.41980599842
 30
0.0
 11
6177.19398306941
 21
-4420.81279599842
 31
0.0
  0
LINE
  5
53BF8
330
1F
100
AcDbEntity
  8
0部品10
100
AcDbLine
 10
6112.341959748494
 20
-4409.32556499842
 30
0.0
 11
6113.142803748495
 21
-4409.479410998421
 31
0.0
  0
LINE
  5
53BF9
330
1F
100
AcDbEntity
  8
0部品10
100
AcDbLine
 10
6183.12604206941
 20
-4409.145365998421
 30
0.0
 11
6181.19398306941
 21
-4408.774206998421
 31
0.0
  0
LINE
  5
53BFA
330
1F
100
AcDbEntity
  8
0部品7
100
AcDbLine
 10
6146.642803748495
 20
-4416.779410998421
 30
0.0
 11
6146.642803748495
 21
-4418.27381199842
 31
0.0
  0
ARC
  5
53BFB
330
1F
100
AcDbEntity
  8
0部品1
100
AcDbCircle
 10
6174.69398306941
 20
-4410.212795998421
 30
0.0
 40
4.0
100
AcDbArc
 50
180.0
 51
270.0
  0
ARC
  5
53BFC
330
1F
100
AcDbEntity
  8
0部品7
100
AcDbCircle
 10
6115.142803748494
 20
-4424.712795998421
 30
0.0
 40
2.0
100
AcDbArc
 50
180.0
 51
270.0
  0
ARC
  5
53BFD
330
1F
100
AcDbEntity
  8
0部品1
100
AcDbCircle
 10
6122.142803748495
 20
-4393.212795998421
 30
0.0
 40
1.5
100
AcDbArc
 50
0.0
 51
80.53767779201873
  0
LINE
  5
53BFE
330
1F
100
AcDbEntity
  8
0部品6
100
AcDbLine
 10
6184.69398306941
 20
-4442.772254998421
 30
0.0
 11
6174.19398306941
 21
-4442.772254998421
 31
0.0
  0
LINE
  5
53BFF
330
1F
100
AcDbEntity
  8
0部品7
100
AcDbLine
 10
6140.892803748495
 20
-4436.512795998421
 30
0.0
 11
6139.392803748495
 21
-4436.512795998421
 31
0.0
  0
ARC
  5
53C00
330
1F
100
AcDbEntity
  8
0部品10
100
AcDbCircle
 10
6141.092803748495
 20
-4408.37279599842
 30
0.0
 40
0.7
100
AcDbArc
 50
100.8743419343046
 51
280.8743419343047
  0
CIRCLE
  5
53C01
330
1F
100
AcDbEntity
  8
0部品6
100
AcDbCircle
 10
6179.19398306941
 20
-4491.744960804215
 30
0.0
 40
2.25
  0
ARC
  5
53C02
330
1F
100
AcDbEntity
  8
0部品4
100
AcDbCircle
 10
6142.642803748494
 20
-4406.712795998421
 30
0.0
 40
2.0
100
AcDbArc
 50
14.4775121858791
 51
90.0
  0
ARC
  5
53C03
330
1F
100
AcDbEntity
  8
0部品10
100
AcDbCircle
 10
6111.092803748494
 20
-4414.21279599842
 30
0.0
 40
0.7
100
AcDbArc
 50
100.8743419343046
 51
180.0
  0
ARC
  5
53C04
330
1F
100
AcDbEntity
  8
0部品10
100
AcDbCircle
 10
6118.692803748495
 20
-4415.67279599842
 30
0.0
 40
0.7
100
AcDbArc
 50
280.8743419343047
 51
100.8743419343046
  0
LINE
  5
53C05
330
1F
100
AcDbEntity
  8
0部品4
100
AcDbLine
 10
6115.142803748494
 20
-4417.067568998421
 30
0.0
 11
6115.142803748494
 21
-4418.56196999842
 31
0.0
  0
ARC
  5
53C06
330
1F
100
AcDbEntity
  8
0部品4
100
AcDbCircle
 10
6174.19398306941
 20
-4424.712795998421
 30
0.0
 40
0.5
100
AcDbArc
 50
180.0
 51
270.0
  0
ARC
  5
53C07
330
1F
100
AcDbEntity
  8
0部品4
100
AcDbCircle
 10
6141.392803748495
 20
-4404.212795998421
 30
0.0
 40
0.5
100
AcDbArc
 50
180.0
 51
270.0
  0
LINE
  5
53C08
330
1F
100
AcDbEntity
  8
0部品2
100
AcDbLine
 10
6124.892803748495
 20
-4414.21279599842
 30
0.0
 11
6124.892803748495
 21
-4403.712795998421
 31
0.0
  0
ARC
  5
53C09
330
1F
100
AcDbEntity
  8
0部品4
100
AcDbCircle
 10
6118.392803748495
 20
-4404.212795998421
 30
0.0
 40
0.5
100
AcDbArc
 50
270.0
 51
0.0
  0
ARC
  5
53C0A
330
1F
100
AcDbEntity
  8
0部品4
100
AcDbCircle
 10
6117.142803748495
 20
-4406.712795998421
 30
0.0
 40
2.0
100
AcDbArc
 50
90.0
 51
165.5224878141207
  0
LINE
  5
53C0B
330
1F
100
AcDbEntity
  8
0部品7
100
AcDbLine
 10
6114.642803748495
 20
-4414.243621998421
 30
0.0
 11
6114.642803748495
 21
-4415.738022998421
 31
0.0
  0
LINE
  5
53C0C
330
1F
100
AcDbEntity
  8
0部品3
100
AcDbLine
 10
6139.292803748494
 20
-4408.212795998421
 30
0.0
 11
6138.892803748495
 21
-4408.212795998421
 31
0.0
  0
LINE
  5
53C0D
330
1F
100
AcDbEntity
  8
0部品10
100
AcDbLine
 10
6140.960744748495
 20
-4407.68536599842
 30
0.0
 11
6141.338504748494
 21
-4407.61279599842
 31
0.0
  0
ARC
  5
53C0E
330
1F
100
AcDbEntity
  8
0部品1
100
AcDbCircle
 10
6218.06898306941
 20
-4383.462795998421
 30
0.0
 40
12.377252
100
AcDbArc
 50
221.8009910823691
 51
305.8376529542859
  0
LINE
  5
53C0F
330
1F
100
AcDbEntity
  8
0部品4
100
AcDbLine
 10
6143.142803748495
 20
-4414.57980599842
 30
0.0
 11
6143.142803748495
 21
-4416.074206998421
 31
0.0
  0
LINE
  5
53C10
330
1F
100
AcDbEntity
  8
0部品11
100
AcDbLine
 10
6120.392803748495
 20
-4398.112795998421
 30
0.0
 11
6120.892803748495
 21
-4398.112795998421
 31
0.0
  0
CIRCLE
  5
53C11
330
1F
100
AcDbEntity
  8
0部品5
100
AcDbCircle
 10
6182.350740069409
 20
-4433.272254998421
 30
0.0
 40
1.1
  0
ARC
  5
53C12
330
1F
100
AcDbEntity
  8
0部品2
100
AcDbCircle
 10
6194.193983069411
 20
-4486.744960804215
 30
0.0
 40
0.5
100
AcDbArc
 50
0.0
 51
90.0
  0
LINE
  5
53C13
330
1F
100
AcDbEntity
  8
0部品6
100
AcDbLine
 10
6122.392803748494
 20
-4434.772254998421
 30
0.0
 11
6122.392803748494
 21
-4441.272254998421
 31
0.0
  0
LINE
  5
53C14
330
1F
100
AcDbEntity
  8
0部品1
100
AcDbLine
 10
6170.69398306941
 20
-4391.712795998421
 30
0.0
 11
6208.84218106941
 21
-4391.712795998421
 31
0.0
  0
ARC
  5
53C15
330
1F
100
AcDbEntity
  8
0部品10
100
AcDbCircle
 10
6148.692803748495
 20
-4412.752795998421
 30
0.0
 40
0.7
100
AcDbArc
 50
280.8743419343047
 51
100.8743419343046
  0
LINE
  5
53C16
330
1F
100
AcDbEntity
  8
0部品10
100
AcDbLine
 10
6118.692803748495
 20
-4420.81279599842
 30
0.0
 11
6111.092803748494
 21
-4420.81279599842
 31
0.0
  0
LINE
  5
53C17
330
1F
100
AcDbEntity
  8
0部品3
100
AcDbLine
 10
6137.392803748495
 20
-4408.212795998421
 30
0.0
 11
6136.892803748494
 21
-4408.212795998421
 31
0.0
  0
LINE
  5
53C18
330
1F
100
AcDbEntity
  8
0部品7
100
AcDbLine
 10
6114.642803748495
 20
-4422.212795998421
 30
0.0
 11
6114.642803748495
 21
-4424.712795998421
 31
0.0
  0
LINE
  5
53C19
330
1F
100
AcDbEntity
  8
0部品4
100
AcDbLine
 10
6144.642803748495
 20
-4420.13164799842
 30
0.0
 11
6144.642803748495
 21
-4420.81279599842
 31
0.0
  0
LINE
  5
53C1A
330
1F
100
AcDbEntity
  8
0部品10
100
AcDbLine
 10
6175.26192406941
 20
-4419.365365998421
 30
0.0
 11
6182.86192406941
 21
-4417.905365998421
 31
0.0
  0
ARC
  5
53C1B
330
1F
100
AcDbEntity
  8
0部品1
100
AcDbCircle
 10
6136.642803748495
 20
-4393.505688998421
 30
0.0
 40
0.5
100
AcDbArc
 50
180.0
 51
224.9999999999997
  0
LINE
  5
53C1C
330
1F
100
AcDbEntity
  8
0部品1
100
AcDbLine
 10
6170.69398306941
 20
-4391.712795998421
 30
0.0
 11
6170.69398306941
 21
-4410.212795998421
 31
0.0
  0
LINE
  5
53C1D
330
1F
100
AcDbEntity
  8
0部品2
100
AcDbLine
 10
6194.693983069409
 20
-4471.744960804215
 30
0.0
 11
6194.693983069409
 21
-4470.744960804215
 31
0.0
  0
LINE
  5
53C1E
330
1F
100
AcDbEntity
  8
0部品2
100
AcDbLine
 10
6185.19398306941
 20
-4404.112795998421
 30
0.0
 11
6224.19398306941
 21
-4404.112795998421
 31
0.0
  0
LINE
  5
53C1F
330
1F
100
AcDbEntity
  8
0部品2
  6
中心線1
 48
0.3
370
    13
100
AcDbLine
 10
6218.19398306941
 20
-4399.11279599842
 30
0.0
 11
6218.19398306941
 21
-4407.11279599842
 31
0.0
  0
LINE
  5
53C20
330
1F
100
AcDbEntity
  8
0部品10
100
AcDbLine
 10
6175.52604206941
 20
-4420.740225998421
 30
0.0
 11
6183.12604206941
 21
-4419.280225998421
 31
0.0
  0
ARC
  5
53C21
330
1F
100
AcDbEntity
  8
0部品6
100
AcDbCircle
 10
6135.392803748494
 20
-4431.79991299842
 30
0.0
 40
2.0
100
AcDbArc
 50
270.0
 51
0.0
  0
LINE
  5
53C22
330
1F
100
AcDbEntity
  8
0部品4
100
AcDbLine
 10
6181.19398306941
 20
-4425.212795998421
 30
0.0
 11
6184.19398306941
 21
-4425.212795998421
 31
0.0
  0
LINE
  5
53C23
330
1F
100
AcDbEntity
  8
0部品10
100
AcDbLine
 10
6141.092803748495
 20
-4406.21279599842
 30
0.0
 11
6148.692803748495
 21
-4406.21279599842
 31
0.0
  0
LINE
  5
53C24
330
1F
100
AcDbEntity
  8
0部品10
100
AcDbLine
 10
6110.960744748496
 20
-4407.68536599842
 30
0.0
 11
6111.338504748495
 21
-4407.61279599842
 31
0.0
  0
ARC
  5
53C25
330
1F
100
AcDbEntity
  8
0部品4
100
AcDbCircle
 10
6179.19398306941
 20
-4398.21279599842
 30
0.0
 40
2.0
100
AcDbArc
 50
0.0
 51
180.0
  0
ARC
  5
53C26
330
1F
100
AcDbEntity
  8
0部品10
100
AcDbCircle
 10
6141.092803748495
 20
-4417.132795998421
 30
0.0
 40
0.7
100
AcDbArc
 50
100.8743419343046
 51
280.8743419343047
  0
LINE
  5
53C27
330
1F
100
AcDbEntity
  8
0部品4
100
AcDbLine
 10
6139.392803748495
 20
-4396.212795998421
 30
0.0
 11
6139.392803748495
 21
-4404.212795998421
 31
0.0
  0
LINE
  5
53C28
330
1F
100
AcDbEntity
  8
0部品11
100
AcDbLine
 10
6120.892803748495
 20
-4400.31279599842
 30
0.0
 11
6120.392803748495
 21
-4400.31279599842
 31
0.0
  0
LINE
  5
53C29
330
1F
100
AcDbEntity
  8
0部品6
100
AcDbLine
 10
6184.19398306941
 20
-4466.744960804216
 30
0.0
 11
6184.19398306941
 21
-4471.744960804215
 31
0.0
  0
LINE
  5
53C2A
330
1F
100
AcDbEntity
  8
0部品7
100
AcDbLine
 10
6115.142803748494
 20
-4425.212795998421
 30
0.0
 11
6118.392803748495
 21
-4425.212795998421
 31
0.0
  0
ARC
  5
53C2B
330
1F
100
AcDbEntity
  8
0部品1
100
AcDbCircle
 10
6123.142803748494
 20
-4393.505688998421
 30
0.0
 40
0.5
100
AcDbArc
 50
315.0000000000002
 51
0.0
  0
LINE
  5
53C2C
330
1F
100
AcDbEntity
  8
0部品2
100
AcDbLine
 10
6122.892803748495
 20
-4405.212795998421
 30
0.0
 11
6124.892803748495
 21
-4405.212795998421
 31
0.0
  0
LINE
  5
53C2D
330
1F
100
AcDbEntity
  8
0部品4
100
AcDbLine
 10
6144.642803748495
 20
-4408.45164799842
 30
0.0
 11
6144.642803748495
 21
-4409.94604899842
 31
0.0
  0
LINE
  5
53C2E
330
1F
100
AcDbEntity
  8
0部品2
100
AcDbLine
 10
6198.693983069411
 20
-4486.744960804215
 30
0.0
 11
6198.693983069411
 21
-4487.744960804215
 31
0.0
  0
LINE
  5
53C2F
330
1F
100
AcDbEntity
  8
0部品6
100
AcDbLine
 10
6135.392803748494
 20
-4433.799912998421
 30
0.0
 11
6124.392803748495
 21
-4433.799912998421
 31
0.0
  0
LINE
  5
53C30
330
1F
100
AcDbEntity
  8
0部品4
100
AcDbLine
 10
6140.892803748495
 20
-4396.212795998421
 30
0.0
 11
6140.892803748495
 21
-4404.212795998421
 31
0.0
  0
LINE
  5
53C31
330
1F
100
AcDbEntity
  8
0部品3
100
AcDbLine
 10
6120.892803748495
 20
-4408.212795998421
 30
0.0
 11
6120.492803748495
 21
-4408.212795998421
 31
0.0
  0
LINE
  5
53C32
330
1F
100
AcDbEntity
  8
0部品10
100
AcDbLine
 10
6175.52604206941
 20
-4414.900225998421
 30
0.0
 11
6183.12604206941
 21
-4413.44022599842
 31
0.0
  0
LINE
  5
53C33
330
1F
100
AcDbEntity
  8
0部品7
100
AcDbLine
 10
6174.19398306941
 20
-4403.21279599842
 30
0.0
 11
6184.19398306941
 21
-4403.21279599842
 31
0.0
  0
LINE
  5
53C34
330
1F
100
AcDbEntity
  8
0部品7
100
AcDbLine
 10
6140.892803748495
 20
-4427.21279599842
 30
0.0
 11
6140.892803748495
 21
-4436.512795998421
 31
0.0
  0
ARC
  5
53C35
330
1F
100
AcDbEntity
  8
0部品1
100
AcDbCircle
 10
6199.19398306941
 20
-4402.612795998421
 30
0.0
 40
0.5
100
AcDbArc
 50
0.0
 51
90.0
  0
LINE
  5
53C36
330
1F
100
AcDbEntity
  8
0部品10
100
AcDbLine
 10
6175.26192406941
 20
-4411.980225998421
 30
0.0
 11
6177.19398306941
 21
-4412.351384998421
 31
0.0
  0
ARC
  5
53C37
330
1F
100
AcDbEntity
  8
0部品1
100
AcDbCircle
 10
6179.19398306941
 20
-4410.212795998421
 30
0.0
 40
4.0
100
AcDbArc
 50
333.4986033085177
 51
355.7856708478922
  0
LINE
  5
53C38
330
1F
100
AcDbEntity
  8
0部品5
100
AcDbLine
 10
6140.892803748495
 20
-4432.172254998421
 30
0.0
 11
6141.442803748495
 21
-4432.172254998421
 31
0.0
  0
LINE
  5
53C39
330
1F
100
AcDbEntity
  8
0部品7
100
AcDbLine
 10
6181.19398306941
 20
-4416.731384998421
 30
0.0
 11
6181.19398306941
 21
-4418.225785998421
 31
0.0
  0
LINE
  5
53C3A
330
1F
100
AcDbEntity
  8
0部品10
100
AcDbLine
 10
6175.52604206941
 20
-4417.820225998421
 30
0.0
 11
6183.12604206941
 21
-4416.36022599842
 31
0.0
  0
LINE
  5
53C3B
330
1F
100
AcDbEntity
  8
0部品10
100
AcDbLine
 10
6148.824862748495
 20
-4417.905365998421
 30
0.0
 11
6146.642803748495
 21
-4417.48618099842
 31
0.0
  0
ARC
  5
53C3C
330
1F
100
AcDbEntity
  8
0部品7
100
AcDbCircle
 10
6182.19398306941
 20
-4427.70510399842
 30
0.0
 40
1.0
100
AcDbArc
 50
180.0
 51
214.2054579381138
  0
LINE
  5
53C3D
330
1F
100
AcDbEntity
  8
0部品10
100
AcDbLine
 10
6140.960744748495
 20
-4413.52536599842
 30
0.0
 11
6148.560744748494
 21
-4412.065365998421
 31
0.0
  0
LINE
  5
53C3E
330
1F
100
AcDbEntity
  8
0部品2
100
AcDbLine
 10
6198.693983069411
 20
-4402.11279599842
 30
0.0
 11
6198.693983069411
 21
-4404.112795998421
 31
0.0
  0
LINE
  5
53C3F
330
1F
100
AcDbEntity
  8
0部品4
100
AcDbLine
 10
6184.19398306941
 20
-4422.212795998421
 30
0.0
 11
6182.99398306941
 21
-4422.21279599842
 31
0.0
  0
LINE
  5
53C40
330
1F
100
AcDbEntity
  8
0部品4
100
AcDbLine
 10
6175.39398306941
 20
-4422.21279599842
 30
0.0
 11
6174.19398306941
 21
-4422.212795998421
 31
0.0
  0
LINE
  5
53C41
330
1F
100
AcDbEntity
  8
0部品1
100
AcDbLine
 10
6136.142803748494
 20
-4393.505688998421
 30
0.0
 11
6136.142803748494
 21
-4393.212795998421
 31
0.0
  0
LINE
  5
53C42
330
1F
100
AcDbEntity
  8
0部品4
100
AcDbLine
 10
6144.642803748495
 20
-4411.371647998421
 30
0.0
 11
6144.642803748495
 21
-4412.86604899842
 31
0.0
  0
LINE
  5
53C43
330
1F
100
AcDbEntity
  8
0部品7
100
AcDbLine
 10
6181.19398306941
 20
-4410.891384998421
 30
0.0
 11
6181.19398306941
 21
-4412.385785998421
 31
0.0
  0
LINE
  5
53C44
330
1F
100
AcDbEntity
  8
0部品3
100
AcDbLine
 10
6122.892803748495
 20
-4408.212795998421
 30
0.0
 11
6122.392803748494
 21
-4408.212795998421
 31
0.0
  0
ARC
  5
53C45
330
1F
100
AcDbEntity
  8
0部品1
100
AcDbCircle
 10
6136.642803748495
 20
-4394.919902998421
 30
0.0
 40
0.5
100
AcDbArc
 50
0.0
 51
44.99999999999974
  0
LINE
  5
53C46
330
1F
100
AcDbEntity
  8
0部品7
100
AcDbLine
 10
6114.642803748495
 20
-4403.21279599842
 30
0.0
 11
6114.642803748495
 21
-4406.21279599842
 31
0.0
  0
LINE
  5
53C47
330
1F
100
AcDbEntity
  8
0部品7
100
AcDbLine
 10
6145.142803748495
 20
-4417.067568998421
 30
0.0
 11
6145.142803748495
 21
-4418.56196999842
 31
0.0
  0
LINE
  5
53C48
330
1F
100
AcDbEntity
  8
0部品7
100
AcDbLine
 10
6146.642803748495
 20
-4408.01941099842
 30
0.0
 11
6146.642803748495
 21
-4409.51381199842
 31
0.0
  0
LINE
  5
53C49
330
1F
100
AcDbEntity
  8
0部品5
100
AcDbLine
 10
6141.442803748495
 20
-4432.172254998421
 30
0.0
 11
6141.442803748495
 21
-4434.372254998421
 31
0.0
  0
LINE
  5
53C4A
330
1F
100
AcDbEntity
  8
0部品10
100
AcDbLine
 10
6182.99398306941
 20
-4420.81279599842
 30
0.0
 11
6175.39398306941
 21
-4420.81279599842
 31
0.0
  0
ARC
  5
53C4B
330
1F
100
AcDbEntity
  8
0部品7
100
AcDbCircle
 10
6184.19398306941
 20
-4405.712795998421
 30
0.0
 40
0.5
100
AcDbArc
 50
270.0
 51
0.0
  0
LINE
  5
53C4C
330
1F
100
AcDbEntity
  8
0部品4
100
AcDbLine
 10
6116.642803748495
 20
-4413.85941099842
 30
0.0
 11
6116.642803748495
 21
-4415.353811998421
 31
0.0
  0
ARC
  5
53C4D
330
1F
100
AcDbEntity
  8
0部品10
100
AcDbCircle
 10
6118.692803748495
 20
-4406.912795998421
 30
0.0
 40
0.7
100
AcDbArc
 50
280.8743419343047
 51
100.8743419343046
  0
LINE
  5
53C4E
330
1F
100
AcDbEntity
  8
0部品7
100
AcDbLine
 10
6113.142803748495
 20
-4414.53177999842
 30
0.0
 11
6113.142803748495
 21
-4416.026180998421
 31
0.0
  0
LINE
  5
53C4F
330
1F
100
AcDbEntity
  8
0部品11
100
AcDbLine
 10
6118.292803748494
 20
-4398.112795998421
 30
0.0
 11
6118.892803748495
 21
-4398.112795998421
 31
0.0
  0
LINE
  5
53C50
330
1F
100
AcDbEntity
  8
0部品10
100
AcDbLine
 10
6183.12604206941
 20
-4420.825365998421
 30
0.0
 11
6181.19398306941
 21
-4420.45420699842
 31
0.0
  0
LINE
  5
53C51
330
1F
100
AcDbEntity
  8
0部品10
100
AcDbLine
 10
6140.960744748495
 20
-4416.445365998421
 30
0.0
 11
6148.560744748494
 21
-4414.985365998421
 31
0.0
  0
LINE
  5
53C52
330
1F
100
AcDbEntity
  8
0部品11
100
AcDbLine
 10
6141.492803748495
 20
-4400.31279599842
 30
0.0
 11
6140.892803748495
 21
-4400.31279599842
 31
0.0
  0
CIRCLE
  5
53C53
330
1F
100
AcDbEntity
  8
0部品11
100
AcDbCircle
 10
6179.19398306941
 20
-4399.212795998421
 30
0.0
 40
1.1
  0
ARC
  5
53C54
330
1F
100
AcDbEntity
  8
0部品2
100
AcDbCircle
 10
6194.193983069411
 20
-4471.744960804215
 30
0.0
 40
0.5
100
AcDbArc
 50
270.0
 51
0.0
  0
LINE
  5
53C55
330
1F
100
AcDbEntity
  8
0部品4
100
AcDbLine
 10
6120.392803748495
 20
-4396.212795998421
 30
0.0
 11
6118.892803748495
 21
-4396.212795998421
 31
0.0
  0
ARC
  5
53C56
330
1F
100
AcDbEntity
  8
0部品1
100
AcDbCircle
 10
6193.193983069409
 20
-4403.21279599842
 30
0.0
 40
0.5
100
AcDbArc
 50
270.0
 51
0.0
  0
LINE
  5
53C57
330
1F
100
AcDbEntity
  8
0部品1
100
AcDbLine
 10
6136.996356748494
 20
-4394.56634899842
 30
0.0
 11
6136.289250748495
 21
-4393.859242998421
 31
0.0
  0
ARC
  5
53C58
330
1F
100
AcDbEntity
  8
0部品7
100
AcDbCircle
 10
6118.392803748495
 20
-4427.21279599842
 30
0.0
 40
0.5
100
AcDbArc
 50
0.0
 51
90.0
  0
LINE
  5
53C59
330
1F
100
AcDbEntity
  8
0部品10
100
AcDbLine
 10
6175.52604206941
 20
-4409.060225998421
 30
0.0
 11
6183.12604206941
 21
-4407.600225998421
 31
0.0
  0
ARC
  5
53C5A
330
1F
100
AcDbEntity
  8
0部品2
100
AcDbCircle
 10
6198.19398306941
 20
-4487.744960804215
 30
0.0
 40
0.5
100
AcDbArc
 50
270.0
 51
0.0
  0
LINE
  5
53C5B
330
1F
100
AcDbEntity
  8
0部品7
100
AcDbLine
 10
6178.05884837035
 20
-4430.515915450763
 30
0.0
 11
6181.53992906941
 21
-4435.63711999842
 31
0.0
  0
ARC
  5
53C5C
330
1F
100
AcDbEntity
  8
0部品10
100
AcDbCircle
 10
6182.99398306941
 20
-4412.752795998421
 30
0.0
 40
0.7
100
AcDbArc
 50
280.8743419343047
 51
100.8743419343046
  0
LINE
  5
53C5D
330
1F
100
AcDbEntity
  8
0部品7
100
AcDbLine
 10
6184.69398306941
 20
-4403.712795998421
 30
0.0
 11
6184.69398306941
 21
-4405.712795998421
 31
0.0
  0
LINE
  5
53C5E
330
1F
100
AcDbEntity
  8
0部品6
100
AcDbLine
 10
6174.19398306941
 20
-4441.272254998421
 30
0.0
 11
6184.69398306941
 21
-4441.272254998421
 31
0.0
  0
ARC
  5
53C5F
330
1F
100
AcDbEntity
  8
0部品7
100
AcDbCircle
 10
6144.642803748495
 20
-4424.712795998421
 30
0.0
 40
0.5
100
AcDbArc
 50
270.0
 51
0.0
  0
LINE
  5
53C60
330
1F
100
AcDbEntity
  8
0部品3
100
AcDbLine
 10
6134.892803748495
 20
-4408.212795998421
 30
0.0
 11
6124.892803748495
 21
-4408.212795998421
 31
0.0
  0
LINE
  5
53C61
330
1F
100
AcDbEntity
  8
0部品2
100
AcDbLine
 10
6194.193983069411
 20
-4486.244960804215
 30
0.0
 11
6190.577652838151
 21
-4486.244960804215
 31
0.0
  0
LINE
  5
53C62
330
1F
100
AcDbEntity
  8
0部品10
100
AcDbLine
 10
6148.824862748495
 20
-4412.065365998421
 30
0.0
 11
6146.642803748495
 21
-4411.646180998419
 31
0.0
  0
LINE
  5
53C63
330
1F
100
AcDbEntity
  8
0部品6
100
AcDbLine
 10
6184.69398306941
 20
-4441.272254998421
 30
0.0
 11
6184.69398306941
 21
-4435.835671998421
 31
0.0
  0
LINE
  5
53C64
330
1F
100
AcDbEntity
  8
0部品7
100
AcDbLine
 10
6113.142803748495
 20
-4403.21279599842
 30
0.0
 11
6114.642803748495
 21
-4403.21279599842
 31
0.0
  0
LINE
  5
53C65
330
1F
100
AcDbEntity
  8
0部品10
100
AcDbLine
 10
6175.26192406941
 20
-4410.605365998421
 30
0.0
 11
6182.86192406941
 21
-4409.145365998421
 31
0.0
  0
LINE
  5
53C66
330
1F
100
AcDbEntity
  8
0部品2
100
AcDbLine
 10
6195.19398306941
 20
-4470.244960804214
 30
0.0
 11
6198.19398306941
 21
-4470.244960804214
 31
0.0
  0
ARC
  5
53C67
330
1F
100
AcDbEntity
  8
0部品10
100
AcDbCircle
 10
6111.092803748494
 20
-4408.37279599842
 30
0.0
 40
0.7
100
AcDbArc
 50
100.8743419343046
 51
280.8743419343047
  0
ARC
  5
53C68
330
1F
100
AcDbEntity
  8
0部品10
100
AcDbCircle
 10
6141.092803748495
 20
-4414.21279599842
 30
0.0
 40
0.7
100
AcDbArc
 50
100.8743419343046
 51
180.0
  0
ARC
  5
53C69
330
1F
100
AcDbEntity
  8
0部品6
100
AcDbCircle
 10
6179.19398306941
 20
-4491.744960804215
 30
0.0
 40
5.0
100
AcDbArc
 50
180.0
 51
0.0
  0
LINE
  5
53C6A
330
1F
100
AcDbEntity
  8
0部品5
100
AcDbLine
 10
6118.342803748494
 20
-4432.172254998421
 30
0.0
 11
6118.342803748494
 21
-4434.372254998421
 31
0.0
  0
LINE
  5
53C6B
330
1F
100
AcDbEntity
  8
0部品7
100
AcDbLine
 10
6173.69398306941
 20
-4403.712795998421
 30
0.0
 11
6173.69398306941
 21
-4405.712795998421
 31
0.0
  0
LINE
  5
53C6C
330
1F
100
AcDbEntity
  8
0部品4
100
AcDbLine
 10
6115.142803748494
 20
-4408.30756899842
 30
0.0
 11
6115.142803748494
 21
-4409.801969998421
 31
0.0
  0
LINE
  5
53C6D
330
1F
100
AcDbEntity
  8
0部品7
100
AcDbLine
 10
6146.642803748495
 20
-4403.21279599842
 30
0.0
 11
6146.642803748495
 21
-4406.21279599842
 31
0.0
  0
ARC
  5
53C6E
330
1F
100
AcDbEntity
  8
0部品6
100
AcDbCircle
 10
6124.392803748495
 20
-4431.79991299842
 30
0.0
 40
2.0
100
AcDbArc
 50
180.0
 51
270.0
  0
LINE
  5
53C6F
330
1F
100
AcDbEntity
  8
0部品10
100
AcDbLine
 10
6175.26192406941
 20
-4407.68536599842
 30
0.0
 11
6175.63968406941
 21
-4407.61279599842
 31
0.0
  0
LINE
  5
53C70
330
1F
100
AcDbEntity
  8
0部品10
100
AcDbLine
 10
6175.52604206941
 20
-4411.980225998421
 30
0.0
 11
6183.12604206941
 21
-4410.52022599842
 31
0.0
  0
LINE
  5
53C71
330
1F
100
AcDbEntity
  8
0部品2
100
AcDbLine
 10
6181.19398306941
 20
-4414.21279599842
 30
0.0
 11
6185.19398306941
 21
-4414.21279599842
 31
0.0
  0
LINE
  5
53C72
330
1F
100
AcDbEntity
  8
0部品10
100
AcDbLine
 10
6140.960744748495
 20
-4409.060225998421
 30
0.0
 11
6143.142803748495
 21
-4409.479410998421
 31
0.0
  0
LINE
  5
53C73
330
1F
100
AcDbEntity
  8
0部品10
100
AcDbLine
 10
6141.338504748494
 20
-4407.61279599842
 30
0.0
 11
6148.560744748494
 21
-4406.22536599842
 31
0.0
  0
LINE
  5
53C74
330
1F
100
AcDbEntity
  8
0部品2
  6
中心線1
 48
0.3
370
    13
100
AcDbLine
 10
6218.19398306941
 20
-4474.994960804215
 30
0.0
 11
6218.19398306941
 21
-4483.494960804215
 31
0.0
  0
LINE
  5
53C75
330
1F
100
AcDbEntity
  8
0部品4
100
AcDbLine
 10
6142.892803748495
 20
-4406.21279599842
 30
0.0
 11
6141.392803748495
 21
-4406.21279599842
 31
0.0
  0
LINE
  5
53C76
330
1F
100
AcDbEntity
  8
0部品1
100
AcDbLine
 10
6193.69398306941
 20
-4402.612795998421
 30
0.0
 11
6193.69398306941
 21
-4403.21279599842
 31
0.0
  0
LINE
  5
53C77
330
1F
100
AcDbEntity
  8
0部品7
100
AcDbLine
 10
6144.642803748495
 20
-4426.712795998421
 30
0.0
 11
6141.392803748495
 21
-4426.712795998421
 31
0.0
  0
LINE
  5
53C78
330
1F
100
AcDbEntity
  8
0部品4
100
AcDbLine
 10
6184.69398306941
 20
-4422.71279599842
 30
0.0
 11
6184.69398306941
 21
-4424.712795998421
 31
0.0
  0
LINE
  5
53C79
330
1F
100
AcDbEntity
  8
0部品10
100
AcDbLine
 10
6148.824862748495
 20
-4420.825365998421
 30
0.0
 11
6146.642803748495
 21
-4420.40618099842
 31
0.0
  0
LINE
  5
53C7A
330
1F
100
AcDbEntity
  8
0部品4
100
AcDbLine
 10
6144.642803748495
 20
-4422.212795998421
 30
0.0
 11
6144.642803748495
 21
-4425.212795998421
 31
0.0
  0
LINE
  5
53C7B
330
1F
100
AcDbEntity
  8
0部品7
100
AcDbLine
 10
6177.19398306941
 20
-4427.70510399842
 30
0.0
 11
6177.19398306941
 21
-4422.212795998421
 31
0.0
  0
LINE
  5
53C7C
330
1F
100
AcDbEntity
  8
0部品4
100
AcDbLine
 10
6115.142803748494
 20
-4414.147568998421
 30
0.0
 11
6115.142803748494
 21
-4415.641969998421
 31
0.0
  0
LINE
  5
53C7D
330
1F
100
AcDbEntity
  8
0部品1
100
AcDbLine
 10
6136.142803748494
 20
-4393.212795998421
 30
0.0
 11
6137.392803748495
 21
-4393.212795998421
 31
0.0
  0
LINE
  5
53C7E
330
1F
100
AcDbEntity
  8
0部品10
100
AcDbLine
 10
6148.692803748495
 20
-4420.81279599842
 30
0.0
 11
6141.092803748495
 21
-4420.81279599842
 31
0.0
  0
LINE
  5
53C7F
330
1F
100
AcDbEntity
  8
0部品6
100
AcDbLine
 10
6137.392803748495
 20
-4430.272254998421
 30
0.0
 11
6137.392803748495
 21
-4431.79991299842
 31
0.0
  0
LINE
  5
53C80
330
1F
100
AcDbEntity
  8
0部品7
100
AcDbLine
 10
6145.142803748495
 20
-4414.147568998421
 30
0.0
 11
6145.142803748495
 21
-4415.641969998421
 31
0.0
  0
LINE
  5
53C81
330
1F
100
AcDbEntity
  8
0部品7
100
AcDbLine
 10
6120.392803748495
 20
-4427.21279599842
 30
0.0
 11
6120.392803748495
 21
-4436.512795998421
 31
0.0
  0
LINE
  5
53C82
330
1F
100
AcDbEntity
  8
0部品7
100
AcDbLine
 10
6115.142803748494
 20
-4426.712795998421
 30
0.0
 11
6118.392803748495
 21
-4426.712795998421
 31
0.0
  0
LINE
  5
53C83
330
1F
100
AcDbEntity
  8
0部品4
100
AcDbLine
 10
6118.892803748495
 20
-4396.212795998421
 30
0.0
 11
6118.892803748495
 21
-4404.212795998421
 31
0.0
  0
CIRCLE
  5
53C84
330
1F
100
AcDbEntity
  8
0部品2
100
AcDbCircle
 10
6203.19398306941
 20
-4479.244960804215
 30
0.0
 40
2.25
  0
LINE
  5
53C85
330
1F
100
AcDbEntity
  8
0部品10
100
AcDbLine
 10
6148.824862748495
 20
-4409.145365998421
 30
0.0
 11
6146.642803748495
 21
-4408.726180998421
 31
0.0
  0
ARC
  5
53C86
330
1F
100
AcDbEntity
  8
0部品10
100
AcDbCircle
 10
6111.092803748494
 20
-4420.052795998421
 30
0.0
 40
0.7
100
AcDbArc
 50
100.8743419343046
 51
280.8743419343047
  0
LINE
  5
53C87
330
1F
100
AcDbEntity
  8
0部品3
100
AcDbLine
 10
6120.492803748495
 20
-4411.21279599842
 30
0.0
 11
6120.892803748495
 21
-4411.21279599842
 31
0.0
  0
LINE
  5
53C88
330
1F
100
AcDbEntity
  8
0部品2
100
AcDbLine
 10
6198.693983069411
 20
-4470.744960804215
 30
0.0
 11
6198.693983069411
 21
-4471.744960804215
 31
0.0
  0
LINE
  5
53C89
330
1F
100
AcDbEntity
  8
0部品10
100
AcDbLine
 10
6110.960744748496
 20
-4411.980225998421
 30
0.0
 11
6113.142803748495
 21
-4412.39941099842
 31
0.0
  0
LINE
  5
53C8A
330
1F
100
AcDbEntity
  8
0部品10
100
AcDbLine
 10
6183.12604206941
 20
-4414.985365998421
 30
0.0
 11
6181.19398306941
 21
-4414.614206998421
 31
0.0
  0
ARC
  5
53C8B
330
1F
100
AcDbEntity
  8
0部品10
100
AcDbCircle
 10
6148.692803748495
 20
-4421.51279599842
 30
0.0
 40
0.7
100
AcDbArc
 50
270.0
 51
79.12565806569531
  0
LINE
  5
53C8C
330
1F
100
AcDbEntity
  8
0部品1
100
AcDbLine
 10
6138.892803748495
 20
-4393.212795998421
 30
0.0
 11
6138.892803748495
 21
-4414.21279599842
 31
0.0
  0
ARC
  5
53C8D
330
1F
100
AcDbEntity
  8
0部品10
100
AcDbCircle
 10
6175.39398306941
 20
-4417.132795998421
 30
0.0
 40
0.7
100
AcDbArc
 50
100.8743419343046
 51
280.8743419343047
  0
LINE
  5
53C8E
330
1F
100
AcDbEntity
  8
0部品3
100
AcDbLine
 10
6136.892803748494
 20
-4411.21279599842
 30
0.0
 11
6137.392803748495
 21
-4411.21279599842
 31
0.0
  0
LINE
  5
53C8F
330
1F
100
AcDbEntity
  8
0部品5
100
AcDbLine
 10
6140.892803748495
 20
-4434.372254998421
 30
0.0
 11
6141.442803748495
 21
-4434.372254998421
 31
0.0
  0
LINE
  5
53C90
330
1F
100
AcDbEntity
  8
0部品10
100
AcDbLine
 10
6141.224862748495
 20
-4420.740225998421
 30
0.0
 11
6148.824862748495
 21
-4419.280225998421
 31
0.0
  0
LINE
  5
53C91
330
1F
100
AcDbEntity
  8
0部品7
100
AcDbLine
 10
6113.142803748495
 20
-4420.37177999842
 30
0.0
 11
6113.142803748495
 21
-4420.81279599842
 31
0.0
  0
LINE
  5
53C92
330
1F
100
AcDbEntity
  8
0部品3
100
AcDbLine
 10
6120.492803748495
 20
-4408.212795998421
 30
0.0
 11
6120.492803748495
 21
-4411.21279599842
 31
0.0
  0
ARC
  5
53C93
330
1F
100
AcDbEntity
  8
0部品10
100
AcDbCircle
 10
6182.99398306941
 20
-4421.51279599842
 30
0.0
 40
0.7
100
AcDbArc
 50
270.0
 51
79.12565806569531
  0
ARC
  5
53C94
330
1F
100
AcDbEntity
  8
0部品1
100
AcDbCircle
 10
6124.142803748495
 20
-4402.212795998421
 30
0.0
 40
1.5
100
AcDbArc
 50
180.0
 51
270.0
  0
LINE
  5
53C95
330
1F
100
AcDbEntity
  8
0部品10
100
AcDbLine
 10
6183.12604206941
 20
-4412.065365998421
 30
0.0
 11
6181.19398306941
 21
-4411.69420699842
 31
0.0
  0
LINE
  5
53C96
330
1F
100
AcDbEntity
  8
0部品7
100
AcDbLine
 10
6114.642803748495
 20
-4408.403621998421
 30
0.0
 11
6114.642803748495
 21
-4409.898022998421
 31
0.0
  0
LINE
  5
53C97
330
1F
100
AcDbEntity
  8
0部品4
100
AcDbLine
 10
6143.142803748495
 20
-4422.212795998421
 30
0.0
 11
6143.142803748495
 21
-4425.212795998421
 31
0.0
  0
LINE
  5
53C98
330
1F
100
AcDbEntity
  8
0部品6
100
AcDbLine
 10
6122.392803748494
 20
-4430.272254998421
 30
0.0
 11
6137.392803748495
 21
-4430.272254998421
 31
0.0
  0
LINE
  5
53C99
330
1F
100
AcDbEntity
  8
0部品1
100
AcDbLine
 10
6194.193983069411
 20
-4402.11279599842
 30
0.0
 11
6199.19398306941
 21
-4402.11279599842
 31
0.0
  0
LINE
  5
53C9A
330
1F
100
AcDbEntity
  8
0部品7
100
AcDbLine
 10
6177.19398306941
 20
-4417.499805998421
 30
0.0
 11
6177.19398306941
 21
-4418.994206998421
 31
0.0
  0
LINE
  5
53C9B
330
1F
100
AcDbEntity
  8
0部品10
100
AcDbLine
 10
6111.224862748495
 20
-4409.060225998421
 30
0.0
 11
6118.824862748494
 21
-4407.600225998421
 31
0.0
  0
LINE
  5
53C9C
330
1F
100
AcDbEntity
  8
0部品7
100
AcDbLine
 10
6144.642803748495
 20
-4425.212795998421
 30
0.0
 11
6141.392803748495
 21
-4425.212795998421
 31
0.0
  0
LINE
  5
53C9D
330
1F
100
AcDbEntity
  8
0部品10
100
AcDbLine
 10
6110.960744748496
 20
-4414.900225998421
 30
0.0
 11
6113.142803748495
 21
-4415.31941099842
 31
0.0
  0
ARC
  5
53C9E
330
1F
100
AcDbEntity
  8
0部品7
100
AcDbCircle
 10
6174.19398306941
 20
-4405.712795998421
 30
0.0
 40
0.5
100
AcDbArc
 50
180.0
 51
270.0
  0
LINE
  5
53C9F
330
1F
100
AcDbEntity
  8
0部品2
100
AcDbLine
 10
6199.19398306941
 20
-4472.244960804215
 30
0.0
 11
6217.19398306941
 21
-4472.244960804215
 31
0.0
  0
LINE
  5
53CA0
330
1F
100
AcDbEntity
  8
0部品11
100
AcDbLine
 10
6141.492803748495
 20
-4398.112795998421
 30
0.0
 11
6141.492803748495
 21
-4400.31279599842
 31
0.0
  0
LINE
  5
53CA1
330
1F
100
AcDbEntity
  8
0部品6
100
AcDbLine
 10
6174.19398306941
 20
-4441.272254998421
 30
0.0
 11
6174.19398306941
 21
-4442.772254998421
 31
0.0
  0
LINE
  5
53CA2
330
1F
100
AcDbEntity
  8
0部品2
100
AcDbLine
 10
6185.19398306941
 20
-4405.212795998421
 30
0.0
 11
6184.69398306941
 21
-4405.212795998421
 31
0.0
  0
LINE
  5
53CA3
330
1F
100
AcDbEntity
  8
0部品10
100
AcDbLine
 10
6175.63968406941
 20
-4407.61279599842
 30
0.0
 11
6182.86192406941
 21
-4406.22536599842
 31
0.0
  0
LINE
  5
53CA4
330
1F
100
AcDbEntity
  8
0部品2
100
AcDbLine
 10
6194.193983069411
 20
-4472.244960804215
 30
0.0
 11
6190.336722628632
 21
-4472.244960804215
 31
0.0
  0
LINE
  5
53CA5
330
1F
100
AcDbEntity
  8
0部品3
100
AcDbLine
 10
6139.292803748494
 20
-4408.212795998421
 30
0.0
 11
6139.292803748494
 21
-4411.21279599842
 31
0.0
  0
ARC
  5
53CA6
330
1F
100
AcDbEntity
  8
0部品1
100
AcDbCircle
 10
6122.392803748494
 20
-4393.212795998421
 30
0.0
 40
1.5
100
AcDbArc
 50
90.0
 51
180.0
  0
LINE
  5
53CA7
330
1F
100
AcDbEntity
  8
0部品4
100
AcDbLine
 10
6143.142803748495
 20
-4408.739805998421
 30
0.0
 11
6143.142803748495
 21
-4410.234206998421
 31
0.0
  0
LINE
  5
53CA8
330
1F
100
AcDbEntity
  8
0部品11
100
AcDbLine
 10
6118.892803748495
 20
-4400.31279599842
 30
0.0
 11
6118.292803748494
 21
-4400.31279599842
 31
0.0
  0
LINE
  5
53CA9
330
1F
100
AcDbEntity
  8
0部品10
100
AcDbLine
 10
6146.453425748495
 20
-4413.89579199842
 30
0.0
 11
6148.824862748495
 21
-4413.44022599842
 31
0.0
  0
ARC
  5
53CAA
330
1F
100
AcDbEntity
  8
0部品10
100
AcDbCircle
 10
6175.39398306941
 20
-4406.912795998421
 30
0.0
 40
0.7
100
AcDbArc
 50
90.0
 51
270.0
  0
LINE
  5
53CAB
330
1F
100
AcDbEntity
  8
0部品1
100
AcDbLine
 10
6122.392803748494
 20
-4393.212795998421
 30
0.0
 11
6123.642803748495
 21
-4393.212795998421
 31
0.0
  0
LINE
  5
53CAC
330
1F
100
AcDbEntity
  8
0部品10
100
AcDbLine
 10
6175.26192406941
 20
-4417.820225998421
 30
0.0
 11
6177.19398306941
 21
-4418.19138499842
 31
0.0
  0
ARC
  5
53CAD
330
1F
100
AcDbEntity
  8
0部品10
100
AcDbCircle
 10
6175.39398306941
 20
-4420.052795998421
 30
0.0
 40
0.7
100
AcDbArc
 50
100.8743419343046
 51
280.8743419343047
  0
ARC
  5
53CAE
330
1F
100
AcDbEntity
  8
0部品2
100
AcDbCircle
 10
6199.19398306941
 20
-4471.744960804215
 30
0.0
 40
0.5
100
AcDbArc
 50
180.0
 51
270.0
  0
LINE
  5
53CAF
330
1F
100
AcDbEntity
  8
0部品1
100
AcDbLine
 10
6199.69398306941
 20
-4402.612795998421
 30
0.0
 11
6199.69398306941
 21
-4403.21279599842
 31
0.0
  0
LINE
  5
53CB0
330
1F
100
AcDbEntity
  8
0部品10
100
AcDbLine
 10
6110.960744748496
 20
-4416.445365998421
 30
0.0
 11
6118.560744748495
 21
-4414.985365998421
 31
0.0
  0
LINE
  5
53CB1
330
1F
100
AcDbEntity
  8
0部品2
100
AcDbLine
 10
6195.19398306941
 20
-4488.244960804215
 30
0.0
 11
6198.19398306941
 21
-4488.244960804215
 31
0.0
  0
LINE
  5
53CB2
330
1F
100
AcDbEntity
  8
0部品2
100
AcDbLine
 10
6122.892803748495
 20
-4405.212795998421
 30
0.0
 11
6122.892803748495
 21
-4414.21279599842
 31
0.0
  0
ARC
  5
53CB3
330
1F
100
AcDbEntity
  8
0部品10
100
AcDbCircle
 10
6141.092803748495
 20
-4420.052795998421
 30
0.0
 40
0.7
100
AcDbArc
 50
100.8743419343046
 51
280.8743419343047
  0
ARC
  5
53CB4
330
1F
100
AcDbEntity
  8
0部品6
100
AcDbCircle
 10
6179.19398306941
 20
-4466.744960804216
 30
0.0
 40
5.0
100
AcDbArc
 50
0.0
 51
180.0
  0
LINE
  5
53CB5
330
1F
100
AcDbEntity
  8
0部品5
100
AcDbLine
 10
6120.392803748495
 20
-4431.772254998421
 30
0.0
 11
6122.392803748494
 21
-4431.772254998421
 31
0.0
  0
LINE
  5
53CB6
330
1F
100
AcDbEntity
  8
0部品1
100
AcDbLine
 10
6137.392803748495
 20
-4391.712795998421
 30
0.0
 11
6122.392803748494
 21
-4391.712795998421
 31
0.0
  0
LINE
  5
53CB7
330
1F
100
AcDbEntity
  8
0部品1
100
AcDbLine
 10
6208.19398306941
 20
-4403.712795998421
 30
0.0
 11
6200.19398306941
 21
-4403.712795998421
 31
0.0
  0
CIRCLE
  5
53CB8
330
1F
100
AcDbEntity
  8
0部品6
100
AcDbCircle
 10
6179.19398306941
 20
-4466.744960804216
 30
0.0
 40
2.25
  0
LINE
  5
53CB9
330
1F
100
AcDbEntity
  8
0部品7
100
AcDbLine
 10
6113.142803748495
 20
-4417.451779998421
 30
0.0
 11
6113.142803748495
 21
-4418.94618099842
 31
0.0
  0
LINE
  5
53CBA
330
1F
100
AcDbEntity
  8
0部品2
100
AcDbLine
 10
6136.892803748494
 20
-4405.212795998421
 30
0.0
 11
6136.892803748494
 21
-4414.21279599842
 31
0.0
  0
LINE
  5
53CBB
330
1F
100
AcDbEntity
  8
0部品7
100
AcDbLine
 10
6181.19398306941
 20
-4419.65138499842
 30
0.0
 11
6181.19398306941
 21
-4420.81279599842
 31
0.0
  0
LINE
  5
53CBC
330
1F
100
AcDbEntity
  8
0部品10
100
AcDbLine
 10
6110.960744748496
 20
-4417.820225998421
 30
0.0
 11
6113.142803748495
 21
-4418.23941099842
 31
0.0
  0
LINE
  5
53CBD
330
1F
100
AcDbEntity
  8
0部品6
100
AcDbLine
 10
6186.193983069411
 20
-4471.744960804215
 30
0.0
 11
6186.193983069411
 21
-4486.744960804215
 31
0.0
  0
ARC
  5
53CBE
330
1F
100
AcDbEntity
  8
0部品7
100
AcDbCircle
 10
6184.19398306941
 20
-4403.712795998421
 30
0.0
 40
0.5
100
AcDbArc
 50
0.0
 51
90.0
  0
LINE
  5
53CBF
330
1F
100
AcDbEntity
  8
0部品1
100
AcDbLine
 10
6137.142803748495
 20
-4394.919902998421
 30
0.0
 11
6137.142803748495
 21
-4402.212795998421
 31
0.0
  0
LINE
  5
53CC0
330
1F
100
AcDbEntity
  8
0部品1
100
AcDbLine
 10
6122.642803748495
 20
-4394.919902998421
 30
0.0
 11
6122.642803748495
 21
-4402.212795998421
 31
0.0
  0
ARC
  5
53CC1
330
1F
100
AcDbEntity
  8
0部品1
100
AcDbCircle
 10
6194.193983069411
 20
-4402.612795998421
 30
0.0
 40
0.5
100
AcDbArc
 50
90.0
 51
180.0
  0
ARC
  5
53CC2
330
1F
100
AcDbEntity
  8
0部品2
100
AcDbCircle
 10
6198.19398306941
 20
-4470.744960804215
 30
0.0
 40
0.5
100
AcDbArc
 50
0.0
 51
90.0
  0
LINE
  5
53CC3
330
1F
100
AcDbEntity
  8
0部品6
100
AcDbLine
 10
6177.293983069411
 20
-4432.46025999842
 30
0.0
 11
6178.84831606941
 21
-4431.677343998421
 31
0.0
  0
ARC
  5
53CC4
330
1F
100
AcDbEntity
  8
0部品10
100
AcDbCircle
 10
6148.692803748495
 20
-4418.592795998421
 30
0.0
 40
0.7
100
AcDbArc
 50
280.8743419343047
 51
100.8743419343046
  0
LINE
  5
53CC5
330
1F
100
AcDbEntity
  8
0部品10
100
AcDbLine
 10
6110.960744748496
 20
-4419.365365998421
 30
0.0
 11
6118.560744748495
 21
-4417.905365998421
 31
0.0
  0
LINE
  5
53CC6
330
1F
100
AcDbEntity
  8
0部品10
100
AcDbLine
 10
6140.960744748495
 20
-4410.605365998421
 30
0.0
 11
6148.560744748494
 21
-4409.145365998421
 31
0.0
  0
LINE
  5
53CC7
330
1F
100
AcDbEntity
  8
0部品7
100
AcDbLine
 10
6181.36695606941
 20
-4428.26726599842
 30
0.0
 11
6184.848037158556
 21
-4433.388471725723
 31
0.0
  0
LINE
  5
53CC8
330
1F
100
AcDbEntity
  8
0部品10
100
AcDbLine
 10
6141.224862748495
 20
-4417.820225998421
 30
0.0
 11
6148.824862748495
 21
-4416.36022599842
 31
0.0
  0
LINE
  5
53CC9
330
1F
100
AcDbEntity
  8
0部品4
100
AcDbLine
 10
6144.642803748495
 20
-4417.21164799842
 30
0.0
 11
6144.642803748495
 21
-4418.70604899842
 31
0.0
  0
ARC
  5
53CCA
330
1F
100
AcDbEntity
  8
0部品10
100
AcDbCircle
 10
6118.692803748495
 20
-4421.51279599842
 30
0.0
 40
0.7
100
AcDbArc
 50
270.0
 51
90.0
  0
LINE
  5
53CCB
330
1F
100
AcDbEntity
  8
0部品1
100
AcDbLine
 10
6226.193983069411
 20
-4394.712795998421
 30
0.0
 11
6225.31574706941
 21
-4393.496776998421
 31
0.0
  0
ARC
  5
53CCC
330
1F
100
AcDbEntity
  8
0部品2
100
AcDbCircle
 10
6199.19398306941
 20
-4486.744960804215
 30
0.0
 40
0.5
100
AcDbArc
 50
90.0
 51
180.0
  0
ARC
  5
53CCD
330
1F
100
AcDbEntity
  8
0部品2
100
AcDbCircle
 10
6217.19398306941
 20
-4479.244960804215
 30
0.0
 40
7.0
100
AcDbArc
 50
270.0
 51
90.0
  0
ARC
  5
53CCE
330
1F
100
AcDbEntity
  8
0部品10
100
AcDbCircle
 10
6175.39398306941
 20
-4411.292795998421
 30
0.0
 40
0.7
100
AcDbArc
 50
100.8743419343046
 51
280.8743419343047
  0
ARC
  5
53CCF
330
1F
100
AcDbEntity
  8
0部品7
100
AcDbCircle
 10
6144.642803748495
 20
-4424.712795998421
 30
0.0
 40
2.0
100
AcDbArc
 50
270.0
 51
0.0
  0
LINE
  5
53CD0
330
1F
100
AcDbEntity
  8
0部品11
100
AcDbLine
 10
6118.292803748494
 20
-4398.112795998421
 30
0.0
 11
6118.292803748494
 21
-4400.31279599842
 31
0.0
  0
ARC
  5
53CD1
330
1F
100
AcDbEntity
  8
0部品10
100
AcDbCircle
 10
6182.99398306941
 20
-4406.912795998421
 30
0.0
 40
0.7
100
AcDbArc
 50
286.6015495989824
 51
100.8743419343046
  0
ARC
  5
53CD2
330
1F
100
AcDbEntity
  8
0部品1
100
AcDbCircle
 10
6137.392803748495
 20
-4393.212795998421
 30
0.0
 40
1.5
100
AcDbArc
 50
0.0
 51
90.0
  0
LINE
  5
53CD3
330
1F
100
AcDbEntity
  8
0部品10
100
AcDbLine
 10
6111.092803748494
 20
-4407.61279599842
 30
0.0
 11
6111.338504748495
 21
-4407.61279599842
 31
0.0
  0
LINE
  5
53CD4
330
1F
100
AcDbEntity
  8
0部品6
100
AcDbLine
 10
6174.19398306941
 20
-4466.744960804216
 30
0.0
 11
6174.19398306941
 21
-4491.744960804215
 31
0.0
  0
ARC
  5
53CD5
330
1F
100
AcDbEntity
  8
0部品6
100
AcDbCircle
 10
6184.69398306941
 20
-4441.272254998421
 30
0.0
 40
1.5
100
AcDbArc
 50
270.0
 51
0.0
  0
ARC
  5
53CD6
330
1F
100
AcDbEntity
  8
0部品1
100
AcDbCircle
 10
6137.642803748494
 20
-4393.212795998421
 30
0.0
 40
1.5
100
AcDbArc
 50
99.46232220798128
 51
180.0
  0
LINE
  5
53CD7
330
1F
100
AcDbEntity
  8
0部品7
100
AcDbLine
 10
6177.19398306941
 20
-4408.739805998421
 30
0.0
 11
6177.19398306941
 21
-4410.234206998421
 31
0.0
  0
ARC
  5
53CD8
330
1F
100
AcDbEntity
  8
0部品10
100
AcDbCircle
 10
6182.99398306941
 20
-4418.592795998421
 30
0.0
 40
0.7
100
AcDbArc
 50
280.8743419343047
 51
100.8743419343046
  0
LINE
  5
53CD9
330
1F
100
AcDbEntity
  8
0部品7
100
AcDbLine
 10
6177.19398306941
 20
-4411.659805998421
 30
0.0
 11
6177.19398306941
 21
-4413.15420699842
 31
0.0
  0
LINE
  5
53CDA
330
1F
100
AcDbEntity
  8
0部品1
100
AcDbLine
 10
6120.892803748495
 20
-4393.212795998421
 30
0.0
 11
6120.892803748495
 21
-4414.21279599842
 31
0.0
  0
ARC
  5
53CDB
330
1F
100
AcDbEntity
  8
0部品7
100
AcDbCircle
 10
6183.19398306941
 20
-4434.512795998421
 30
0.0
 40
2.0
100
AcDbArc
 50
214.1781668504941
 51
34.2054584882732
  0
LINE
  5
53CDC
330
1F
100
AcDbEntity
  8
0部品2
100
AcDbLine
 10
6122.892803748495
 20
-4403.041952196009
 30
0.0
 11
6122.892803748495
 21
-4404.112795998421
 31
0.0
  0
LINE
  5
53CDD
330
1F
100
AcDbEntity
  8
0部品2
100
AcDbLine
 10
6122.892803748495
 20
-4404.112795998421
 30
0.0
 11
6124.892803748495
 21
-4404.112795998421
 31
0.0
  0
LINE
  5
53CDE
330
1F
100
AcDbEntity
  8
0部品2
100
AcDbLine
 10
6134.892803748495
 20
-4404.112795998421
 30
0.0
 11
6136.892803748494
 21
-4404.112795998421
 31
0.0
  0
LINE
  5
53CDF
330
1F
100
AcDbEntity
  8
0部品2
100
AcDbLine
 10
6136.892803748494
 20
-4404.112795998421
 30
0.0
 11
6136.892803748494
 21
-4403.041952196009
 31
0.0
  0
LINE
  5
53CE0
330
1F
100
AcDbEntity
  8
0部品4
100
AcDbLine
 10
6177.19398306941
 20
-4398.21279599842
 30
0.0
 11
6177.19398306941
 21
-4403.21279599842
 31
0.0
  0
LINE
  5
53CE1
330
1F
100
AcDbEntity
  8
0部品10
100
AcDbLine
 10
6175.393983069411
 20
-4422.21279599842
 30
0.0
 11
6182.993983069409
 21
-4422.21279599842
 31
0.0
  0
LINE
  5
53CE2
330
1F
100
AcDbEntity
  8
0部品7
100
AcDbLine
 10
6146.642803748495
 20
-4406.21279599842
 30
0.0
 11
6145.142803748495
 21
-4406.21279599842
 31
0.0
  0
LINE
  5
53CE3
330
1F
100
AcDbEntity
  8
0部品7
100
AcDbLine
 10
6113.142803748495
 20
-4406.21279599842
 30
0.0
 11
6114.642803748495
 21
-4406.21279599842
 31
0.0
  0
LINE
  5
53CE4
330
1F
100
AcDbEntity
  8
0部品4
100
AcDbLine
 10
6143.142803748495
 20
-4420.81279599842
 30
0.0
 11
6143.142803748495
 21
-4420.371779437894
 31
0.0
  0
LINE
  5
53CE5
330
1F
100
AcDbEntity
  8
0部品4
100
AcDbLine
 10
6143.142803748495
 20
-4425.212795998421
 30
0.0
 11
6144.642803748495
 21
-4425.212795998421
 31
0.0
  0
LINE
  5
53CE6
330
1F
100
AcDbEntity
  8
0部品4
100
AcDbLine
 10
6143.142803748495
 20
-4422.212795998421
 30
0.0
 11
6144.642803748495
 21
-4422.212795998421
 31
0.0
  0
LINE
  5
53CE7
330
1F
100
AcDbEntity
  8
0部品4
100
AcDbLine
 10
6115.142803748494
 20
-4425.212795998421
 30
0.0
 11
6116.642803748495
 21
-4425.212795998421
 31
0.0
  0
LINE
  5
53CE8
330
1F
100
AcDbEntity
  8
0部品4
100
AcDbLine
 10
6115.142803748494
 20
-4422.212795998421
 30
0.0
 11
6116.642803748495
 21
-4422.212795998421
 31
0.0
  0
SPLINE
  5
53CE9
330
1F
100
AcDbEntity
  8
0部品2
  6
細線
370
    13
100
AcDbSpline
210
0.0
220
0.0
230
1.0
 70
     8
 71
     3
 72
    10
 73
     6
 74
     4
 42
0.0000000001
 43
0.0000000001
 44
0.0000000001
 40
0.0
 40
0.0
 40
0.0
 40
0.0
 40
6.962517965558449
 40
13.30814441245661
 40
20.58097477208171
 40
20.58097477208171
 40
20.58097477208171
 40
20.58097477208171
 10
6191.844366045621
 20
-4469.927074492773
 30
0.0
 10
6190.371328338835
 20
-4472.072930372392
 30
0.0
 10
6187.55576669521
 20
-4476.174515470708
 30
0.0
 10
6193.2833890149
 20
-4482.558220584229
 30
0.0
 10
6190.356644143061
 20
-4486.748698504833
 30
0.0
 10
6188.793638931736
 20
-4488.986590468313
 30
0.0
 11
6191.844366045621
 21
-4469.927074492773
 31
0.0
 11
6189.209645696198
 21
-4476.371832447969
 31
0.0
 11
6191.567039043776
 21
-4482.263323906706
 31
0.0
 11
6188.793638931736
 21
-4488.986590468313
 31
0.0
  0
LINE
  5
53CEA
330
1F
100
AcDbEntity
  8
0部品4
100
AcDbLine
 10
6323.777666900634
 20
-4425.212795998421
 30
0.0
 11
6320.777666900633
 21
-4425.212795998421
 31
0.0
  0
ARC
  5
53CEB
330
1F
100
AcDbEntity
  8
0部品10
100
AcDbCircle
 10
6321.977666900633
 20
-4421.51279599842
 30
0.0
 40
0.7
100
AcDbArc
 50
90.0
 51
270.0
  0
LINE
  5
53CEC
330
1F
100
AcDbEntity
  8
0部品7
100
AcDbLine
 10
6323.777666900634
 20
-4420.41980599842
 30
0.0
 11
6323.777666900634
 21
-4420.81279599842
 31
0.0
  0
LINE
  5
53CED
330
1F
100
AcDbEntity
  8
0部品4
100
AcDbLine
 10
6320.277666900633
 20
-4422.71279599842
 30
0.0
 11
6320.277666900633
 21
-4424.712795998421
 31
0.0
  0
LINE
  5
53CEE
330
1F
100
AcDbEntity
  8
0部品10
100
AcDbLine
 10
6321.845607900633
 20
-4417.820225998421
 30
0.0
 11
6323.777666900634
 21
-4418.19138499842
 31
0.0
  0
LINE
  5
53CEF
330
1F
100
AcDbEntity
  8
0部品6
100
AcDbLine
 10
6331.277666900633
 20
-4447.272254998421
 30
0.0
 11
6332.777666900633
 21
-4447.272254998421
 31
0.0
  0
ARC
  5
53CF0
330
1F
100
AcDbEntity
  8
0部品10
100
AcDbCircle
 10
6329.577666900633
 20
-4418.592795998421
 30
0.0
 40
0.7
100
AcDbArc
 50
280.8743419343047
 51
100.8743419343046
  0
ARC
  5
53CF1
330
1F
100
AcDbEntity
  8
0部品4
100
AcDbCircle
 10
6330.777666900633
 20
-4422.71279599842
 30
0.0
 40
0.5
100
AcDbArc
 50
0.0
 51
90.0
  0
LINE
  5
53CF2
330
1F
100
AcDbEntity
  8
0部品10
100
AcDbLine
 10
6329.709725900634
 20
-4420.82536599842
 30
0.0
 11
6327.777666900633
 21
-4420.45420699842
 31
0.0
  0
ARC
  5
53CF3
330
1F
100
AcDbEntity
  8
0部品4
100
AcDbCircle
 10
6320.777666900633
 20
-4422.71279599842
 30
0.0
 40
0.5
100
AcDbArc
 50
90.0
 51
180.0
  0
LINE
  5
53CF4
330
1F
100
AcDbEntity
  8
0部品10
100
AcDbLine
 10
6321.845607900633
 20
-4420.740225998421
 30
0.0
 11
6322.223367900634
 21
-4420.81279599842
 31
0.0
  0
LINE
  5
53CF5
330
1F
100
AcDbEntity
  8
0部品10
100
AcDbLine
 10
6322.109725900634
 20
-4420.740225998421
 30
0.0
 11
6329.709725900634
 21
-4419.280225998421
 31
0.0
  0
ARC
  5
53CF6
330
1F
100
AcDbEntity
  8
0部品10
100
AcDbCircle
 10
6321.977666900633
 20
-4417.132795998421
 30
0.0
 40
0.7
100
AcDbArc
 50
138.9486603373012
 51
280.8743419343047
  0
LINE
  5
53CF7
330
1F
100
AcDbEntity
  8
0部品4
100
AcDbLine
 10
6331.277666900633
 20
-4422.71279599842
 30
0.0
 11
6331.277666900633
 21
-4424.712795998421
 31
0.0
  0
ARC
  5
53CF8
330
1F
100
AcDbEntity
  8
0部品10
100
AcDbCircle
 10
6329.577666900633
 20
-4421.51279599842
 30
0.0
 40
0.7
100
AcDbArc
 50
270.0
 51
79.12565806569531
  0
LINE
  5
53CF9
330
1F
100
AcDbEntity
  8
0部品10
100
AcDbLine
 10
6329.709725900634
 20
-4417.905365998421
 30
0.0
 11
6327.777666900633
 21
-4417.53420699842
 31
0.0
  0
ARC
  5
53CFA
330
1F
100
AcDbEntity
  8
0部品7
100
AcDbCircle
 10
6328.777666900633
 20
-4427.70510399842
 30
0.0
 40
5.0
100
AcDbArc
 50
180.0
 51
214.205457938096
  0
ARC
  5
53CFB
330
1F
100
AcDbEntity
  8
0部品10
100
AcDbCircle
 10
6321.977666900633
 20
-4420.052795998421
 30
0.0
 40
0.7
100
AcDbArc
 50
100.8743419343046
 51
280.8743419343047
  0
LINE
  5
53CFC
330
1F
100
AcDbEntity
  8
0部品4
100
AcDbLine
 10
6327.777666900633
 20
-4425.212795998421
 30
0.0
 11
6330.777666900633
 21
-4425.212795998421
 31
0.0
  0
LINE
  5
53CFD
330
1F
100
AcDbEntity
  8
0部品7
100
AcDbLine
 10
6327.777666900633
 20
-4419.65138499842
 30
0.0
 11
6327.777666900633
 21
-4420.81279599842
 31
0.0
  0
ARC
  5
53CFE
330
1F
100
AcDbEntity
  8
0部品7
100
AcDbCircle
 10
6328.777666900633
 20
-4427.70510399842
 30
0.0
 40
1.0
100
AcDbArc
 50
180.0
 51
214.205457938096
  0
LINE
  5
53CFF
330
1F
100
AcDbEntity
  8
0部品10
100
AcDbLine
 10
6322.109725900634
 20
-4417.820225998421
 30
0.0
 11
6329.710358933335
 21
-4416.360104389506
 31
0.0
  0
LINE
  5
53D00
330
1F
100
AcDbEntity
  8
0部品7
100
AcDbLine
 10
6327.777666900633
 20
-4416.73138499842
 30
0.0
 11
6327.777666900633
 21
-4418.225785998421
 31
0.0
  0
LINE
  5
53D01
330
1F
100
AcDbEntity
  8
0部品10
100
AcDbLine
 10
6321.845607900633
 20
-4419.365365998421
 30
0.0
 11
6329.445607900633
 21
-4417.905365998421
 31
0.0
  0
LINE
  5
53D02
330
1F
100
AcDbEntity
  8
0部品7
100
AcDbLine
 10
6327.777666900633
 20
-4427.70510399842
 30
0.0
 11
6327.777666900633
 21
-4422.212795998421
 31
0.0
  0
LINE
  5
53D03
330
1F
100
AcDbEntity
  8
0部品6
100
AcDbLine
 10
6331.277666900633
 20
-4447.272254998421
 30
0.0
 11
6331.277666900633
 21
-4435.835671998421
 31
0.0
  0
CIRCLE
  5
53D04
330
1F
100
AcDbEntity
  8
0部品5
100
AcDbCircle
 10
6328.934423900633
 20
-4433.272254998421
 30
0.0
 40
1.1
  0
LINE
  5
53D05
330
1F
100
AcDbEntity
  8
0部品7
100
AcDbLine
 10
6323.777666900634
 20
-4417.499805998421
 30
0.0
 11
6323.777666900634
 21
-4418.994206998421
 31
0.0
  0
LINE
  5
53D06
330
1F
100
AcDbEntity
  8
0部品6
100
AcDbLine
 10
6332.777666900633
 20
-4433.772254998421
 30
0.0
 11
6332.777666900633
 21
-4447.272254998421
 31
0.0
  0
ARC
  5
53D07
330
1F
100
AcDbEntity
  8
LAYER001
  6
Continuous
 62
     3
100
AcDbCircle
 10
6329.277666900633
 20
-4433.772254998421
 30
0.0
 40
3.5
100
AcDbArc
 50
89.41119613989364
 51
90.0
  0
LINE
  5
53D08
330
1F
100
AcDbEntity
  8
0部品4
100
AcDbLine
 10
6323.777666900634
 20
-4422.212795998421
 30
0.0
 11
6320.777666900633
 21
-4422.212795998421
 31
0.0
  0
ARC
  5
53D09
330
1F
100
AcDbEntity
  8
0部品4
100
AcDbCircle
 10
6320.777666900633
 20
-4424.712795998421
 30
0.0
 40
0.5
100
AcDbArc
 50
180.0
 51
270.0
  0
LINE
  5
53D0A
330
1F
100
AcDbEntity
  8
0部品7
100
AcDbLine
 10
6323.777666900634
 20
-4426.712795998421
 30
0.0
 11
6327.777666900633
 21
-4426.712795998421
 31
0.0
  0
LINE
  5
53D0B
330
1F
100
AcDbEntity
  8
0部品7
100
AcDbLine
 10
6323.777666900634
 20
-4427.70510399842
 30
0.0
 11
6323.777666900634
 21
-4422.212795998421
 31
0.0
  0
LINE
  5
53D0C
330
1F
100
AcDbEntity
  8
0部品7
100
AcDbLine
 10
6327.950639900635
 20
-4428.26726599842
 30
0.0
 11
6331.431720914362
 21
-4433.388471614772
 31
0.0
  0
LINE
  5
53D0D
330
1F
100
AcDbEntity
  8
0部品10
100
AcDbLine
 10
6329.577666900633
 20
-4420.81279599842
 30
0.0
 11
6321.977666900633
 21
-4420.81279599842
 31
0.0
  0
ARC
  5
53D0E
330
1F
100
AcDbEntity
  8
0部品6
100
AcDbCircle
 10
6329.277666900633
 20
-4433.772254998421
 30
0.0
 40
3.5
100
AcDbArc
 50
0.0
 51
89.41119613989364
  0
ARC
  5
53D0F
330
1F
100
AcDbEntity
  8
0部品4
100
AcDbCircle
 10
6330.777666900633
 20
-4424.712795998421
 30
0.0
 40
0.5
100
AcDbArc
 50
270.0
 51
0.0
  0
ARC
  5
53D10
330
1F
100
AcDbEntity
  8
0部品7
100
AcDbCircle
 10
6329.777666900634
 20
-4434.512795998421
 30
0.0
 40
2.0
100
AcDbArc
 50
214.205457938096
 51
34.2054565407235
  0
LINE
  5
53D11
330
1F
100
AcDbEntity
  8
0部品6
100
AcDbLine
 10
6323.877666900634
 20
-4432.84849499842
 30
0.0
 11
6325.565636900633
 21
-4431.873944998421
 31
0.0
  0
LINE
  5
53D12
330
1F
100
AcDbEntity
  8
0部品7
100
AcDbLine
 10
6324.642531900633
 20
-4430.515914998421
 30
0.0
 11
6328.123612901159
 21
-4435.637120403042
 31
0.0
  0
LINE
  5
53D13
330
1F
100
AcDbEntity
  8
0部品6
100
AcDbLine
 10
6324.627666900634
 20
-4434.14753299842
 30
0.0
 11
6326.411156900634
 21
-4433.11783499842
 31
0.0
  0
LINE
  5
53D14
330
1F
100
AcDbEntity
  8
0部品6
100
AcDbLine
 10
6323.877666900634
 20
-4432.84849499842
 30
0.0
 11
6324.627666900634
 21
-4434.14753299842
 31
0.0
  0
LINE
  5
53D15
330
1F
100
AcDbEntity
  8
0部品10
100
AcDbLine
 10
6302.725293109165
 20
-4420.740225998422
 30
0.0
 11
6310.325293109165
 21
-4419.280225998422
 31
0.0
  0
ARC
  5
53D16
330
1F
100
AcDbEntity
  8
0部品10
100
AcDbCircle
 10
6272.593234109164
 20
-4417.132795998422
 30
0.0
 40
0.7
100
AcDbArc
 50
143.1301023540649
 51
280.8743419343047
  0
LINE
  5
53D17
330
1F
100
AcDbEntity
  8
0部品5
100
AcDbLine
 10
6302.393234109164
 20
-4434.372254998421
 30
0.0
 11
6302.943234109164
 21
-4434.372254998421
 31
0.0
  0
LINE
  5
53D18
330
1F
100
AcDbEntity
  8
0部品6
100
AcDbLine
 10
6296.893234109164
 20
-4433.799912998422
 30
0.0
 11
6285.893234109164
 21
-4433.799912998422
 31
0.0
  0
ARC
  5
53D19
330
1F
100
AcDbEntity
  8
0部品7
100
AcDbCircle
 10
6302.893234109164
 20
-4427.212795998421
 30
0.0
 40
0.5
100
AcDbArc
 50
90.0
 51
180.0
  0
LINE
  5
53D1A
330
1F
100
AcDbEntity
  8
0部品5
100
AcDbLine
 10
6302.943234109164
 20
-4432.172254998421
 30
0.0
 11
6302.943234109164
 21
-4434.372254998421
 31
0.0
  0
LINE
  5
53D1B
330
1F
100
AcDbEntity
  8
0部品4
100
AcDbLine
 10
6306.143234109165
 20
-4420.083621543159
 30
0.0
 11
6306.143234109164
 21
-4420.812795998421
 31
0.0
  0
LINE
  5
53D1C
330
1F
100
AcDbEntity
  8
0部品7
100
AcDbLine
 10
6306.643234109164
 20
-4417.067568998422
 30
0.0
 11
6306.643234109164
 21
-4418.561969998421
 31
0.0
  0
LINE
  5
53D1D
330
1F
100
AcDbEntity
  8
0部品10
100
AcDbLine
 10
6280.325293109164
 20
-4420.825365998421
 30
0.0
 11
6278.143234109164
 21
-4420.406180998422
 31
0.0
  0
LINE
  5
53D1E
330
1F
100
AcDbEntity
  8
0部品10
100
AcDbLine
 10
6272.461175109164
 20
-4419.365365998422
 30
0.0
 11
6280.061175109164
 21
-4417.905365998421
 31
0.0
  0
LINE
  5
53D1F
330
1F
100
AcDbEntity
  8
0部品4
100
AcDbLine
 10
6276.643234109164
 20
-4419.987568998421
 30
0.0
 11
6276.643234109164
 21
-4420.812795998421
 31
0.0
  0
LINE
  5
53D20
330
1F
100
AcDbEntity
  8
0部品7
100
AcDbLine
 10
6308.143234109164
 20
-4416.779410998421
 30
0.0
 11
6308.143234109164
 21
-4418.273811998421
 31
0.0
  0
ARC
  5
53D21
330
1F
100
AcDbEntity
  8
0部品7
100
AcDbCircle
 10
6302.893234109164
 20
-4427.212795998421
 30
0.0
 40
2.0
100
AcDbArc
 50
90.0
 51
180.0
  0
LINE
  5
53D22
330
1F
100
AcDbEntity
  8
0部品10
100
AcDbLine
 10
6302.461175109163
 20
-4420.740225998422
 30
0.0
 11
6302.838935109164
 21
-4420.812795998421
 31
0.0
  0
LINE
  5
53D23
330
1F
100
AcDbEntity
  8
0部品4
100
AcDbLine
 10
6278.143234109164
 20
-4422.212795998421
 30
0.0
 11
6278.143234109164
 21
-4425.212795998421
 31
0.0
  0
LINE
  5
53D24
330
1F
100
AcDbEntity
  8
0部品5
100
AcDbLine
 10
6281.893234109164
 20
-4431.772254998421
 30
0.0
 11
6283.893234109164
 21
-4431.772254998421
 31
0.0
  0
LINE
  5
53D25
330
1F
100
AcDbEntity
  8
0部品6
100
AcDbLine
 10
6298.893234109164
 20
-4437.272254998421
 30
0.0
 11
6303.893234109164
 21
-4437.272254998421
 31
0.0
  0
LINE
  5
53D26
330
1F
100
AcDbEntity
  8
0部品4
100
AcDbLine
 10
6276.643234109164
 20
-4417.067568998422
 30
0.0
 11
6276.643234109164
 21
-4418.561969998421
 31
0.0
  0
LINE
  5
53D27
330
1F
100
AcDbEntity
  8
0部品10
100
AcDbLine
 10
6302.461175109163
 20
-4419.365365998422
 30
0.0
 11
6310.061175109164
 21
-4417.905365998421
 31
0.0
  0
ARC
  5
53D28
330
1F
100
AcDbEntity
  8
0部品10
100
AcDbCircle
 10
6272.593234109164
 20
-4421.512795998422
 30
0.0
 40
0.7
100
AcDbArc
 50
90.0
 51
270.0
  0
LINE
  5
53D29
330
1F
100
AcDbEntity
  8
0部品7
100
AcDbLine
 10
6306.143234109164
 20
-4426.712795998422
 30
0.0
 11
6302.893234109164
 21
-4426.712795998422
 31
0.0
  0
ARC
  5
53D2A
330
1F
100
AcDbEntity
  8
0部品6
100
AcDbCircle
 10
6303.893234109164
 20
-4442.272254998422
 30
0.0
 40
5.0
100
AcDbArc
 50
270.0
 51
90.0
  0
ARC
  5
53D2B
330
1F
100
AcDbEntity
  8
0部品7
100
AcDbCircle
 10
6276.643234109164
 20
-4424.712795998422
 30
0.0
 40
2.0
100
AcDbArc
 50
180.0
 51
270.0
  0
LINE
  5
53D2C
330
1F
100
AcDbEntity
  8
0部品10
100
AcDbLine
 10
6310.193234109164
 20
-4420.812795998421
 30
0.0
 11
6302.593234109163
 21
-4420.812795998421
 31
0.0
  0
LINE
  5
53D2D
330
1F
100
AcDbEntity
  8
0部品6
100
AcDbLine
 10
6283.893234109164
 20
-4434.772254998422
 30
0.0
 11
6283.893234109164
 21
-4437.272254998421
 31
0.0
  0
LINE
  5
53D2E
330
1F
100
AcDbEntity
  8
0部品4
100
AcDbLine
 10
6278.143234109164
 20
-4416.779410998421
 30
0.0
 11
6278.143234109164
 21
-4418.273811998421
 31
0.0
  0
LINE
  5
53D2F
330
1F
100
AcDbEntity
  8
0部品10
100
AcDbLine
 10
6272.725293109164
 20
-4417.820225998421
 30
0.0
 11
6280.32592614176
 21
-4416.360104389529
 31
0.0
  0
ARC
  5
53D30
330
1F
100
AcDbEntity
  8
0部品7
100
AcDbCircle
 10
6306.143234109164
 20
-4424.712795998422
 30
0.0
 40
0.5
100
AcDbArc
 50
270.0
 51
0.0
  0
LINE
  5
53D31
330
1F
100
AcDbEntity
  8
0部品10
100
AcDbLine
 10
6302.725293109165
 20
-4417.820225998421
 30
0.0
 11
6310.31960327329
 21
-4416.361319045839
 31
0.0
  0
LINE
  5
53D32
330
1F
100
AcDbEntity
  8
0部品6
100
AcDbLine
 10
6278.893234109165
 20
-4447.272254998422
 30
0.0
 11
6303.893234109164
 21
-4447.272254998422
 31
0.0
  0
LINE
  5
53D33
330
1F
100
AcDbEntity
  8
0部品7
100
AcDbLine
 10
6281.893234109164
 20
-4427.212795998421
 30
0.0
 11
6281.893234109164
 21
-4436.512795998422
 31
0.0
  0
LINE
  5
53D34
330
1F
100
AcDbEntity
  8
0部品4
100
AcDbLine
 10
6278.143234109164
 20
-4419.699410998421
 30
0.0
 11
6278.143234109164
 21
-4420.812795998421
 31
0.0
  0
ARC
  5
53D35
330
1F
100
AcDbEntity
  8
0部品6
100
AcDbCircle
 10
6278.893234109165
 20
-4442.272254998422
 30
0.0
 40
5.0
100
AcDbArc
 50
90.0
 51
270.0
  0
ARC
  5
53D36
330
1F
100
AcDbEntity
  8
0部品10
100
AcDbCircle
 10
6310.193234109164
 20
-4418.592795998422
 30
0.0
 40
0.7
100
AcDbArc
 50
280.8743419343047
 51
100.8743419343046
  0
LINE
  5
53D37
330
1F
100
AcDbEntity
  8
0部品7
100
AcDbLine
 10
6274.643234109164
 20
-4422.212795998421
 30
0.0
 11
6274.643234109164
 21
-4424.712795998422
 31
0.0
  0
LINE
  5
53D38
330
1F
100
AcDbEntity
  8
0部品7
100
AcDbLine
 10
6274.643234109164
 20
-4417.451779998422
 30
0.0
 11
6274.643234109164
 21
-4418.946180998421
 31
0.0
  0
LINE
  5
53D39
330
1F
100
AcDbEntity
  8
0部品5
100
AcDbLine
 10
6298.893234109164
 20
-4431.772254998421
 30
0.0
 11
6300.893234109164
 21
-4431.772254998421
 31
0.0
  0
ARC
  5
53D3A
330
1F
100
AcDbEntity
  8
0部品7
100
AcDbCircle
 10
6276.643234109164
 20
-4424.712795998422
 30
0.0
 40
0.5
100
AcDbArc
 50
180.0
 51
270.0
  0
ARC
  5
53D3B
330
1F
100
AcDbEntity
  8
0部品10
100
AcDbCircle
 10
6310.193234109164
 20
-4421.512795998422
 30
0.0
 40
0.7
100
AcDbArc
 50
270.0
 51
79.12565806569531
  0
LINE
  5
53D3C
330
1F
100
AcDbEntity
  8
0部品7
100
AcDbLine
 10
6280.393234109165
 20
-4427.212795998421
 30
0.0
 11
6280.393234109165
 21
-4436.512795998422
 31
0.0
  0
LINE
  5
53D3D
330
1F
100
AcDbEntity
  8
0部品10
100
AcDbLine
 10
6272.461175109164
 20
-4420.740225998422
 30
0.0
 11
6272.838935109165
 21
-4420.812795998421
 31
0.0
  0
CIRCLE
  5
53D3E
330
1F
100
AcDbEntity
  8
0部品6
100
AcDbCircle
 10
6303.893234109164
 20
-4442.272254998422
 30
0.0
 40
2.25
  0
LINE
  5
53D3F
330
1F
100
AcDbEntity
  8
0部品10
100
AcDbLine
 10
6310.325293109165
 20
-4420.825365998421
 30
0.0
 11
6308.143234109164
 21
-4420.406180998422
 31
0.0
  0
LINE
  5
53D40
330
1F
100
AcDbEntity
  8
0部品7
100
AcDbLine
 10
6308.143234109164
 20
-4422.212795998421
 30
0.0
 11
6308.143234109164
 21
-4424.712795998422
 31
0.0
  0
LINE
  5
53D41
330
1F
100
AcDbEntity
  8
0部品5
100
AcDbLine
 10
6280.393234109165
 20
-4432.172254998421
 30
0.0
 11
6279.843234109164
 21
-4432.172254998421
 31
0.0
  0
LINE
  5
53D42
330
1F
100
AcDbEntity
  8
0部品7
100
AcDbLine
 10
6276.143234109164
 20
-4417.163621998422
 30
0.0
 11
6276.143234109164
 21
-4418.658022998422
 31
0.0
  0
ARC
  5
53D43
330
1F
100
AcDbEntity
  8
0部品6
100
AcDbCircle
 10
6296.893234109164
 20
-4431.799912998422
 30
0.0
 40
2.0
100
AcDbArc
 50
270.0
 51
0.0
  0
LINE
  5
53D44
330
1F
100
AcDbEntity
  8
0部品4
100
AcDbLine
 10
6276.643234109164
 20
-4422.212795998421
 30
0.0
 11
6276.643234109164
 21
-4425.212795998421
 31
0.0
  0
LINE
  5
53D45
330
1F
100
AcDbEntity
  8
0部品5
100
AcDbLine
 10
6279.843234109164
 20
-4432.172254998421
 30
0.0
 11
6279.843234109164
 21
-4434.372254998421
 31
0.0
  0
CIRCLE
  5
53D46
330
1F
100
AcDbEntity
  8
0部品6
100
AcDbCircle
 10
6278.893234109165
 20
-4442.272254998422
 30
0.0
 40
2.25
  0
LINE
  5
53D47
330
1F
100
AcDbEntity
  8
0部品7
100
AcDbLine
 10
6306.643234109164
 20
-4422.212795998421
 30
0.0
 11
6306.643234109164
 21
-4424.712795998422
 31
0.0
  0
LINE
  5
53D48
330
1F
100
AcDbEntity
  8
0部品7
100
AcDbLine
 10
6306.143234109164
 20
-4425.212795998421
 30
0.0
 11
6302.893234109164
 21
-4425.212795998421
 31
0.0
  0
ARC
  5
53D49
330
1F
100
AcDbEntity
  8
0部品10
100
AcDbCircle
 10
6280.193234109164
 20
-4418.592795998422
 30
0.0
 40
0.7
100
AcDbArc
 50
280.8743419343047
 51
100.8743419343046
  0
ARC
  5
53D4A
330
1F
100
AcDbEntity
  8
0部品10
100
AcDbCircle
 10
6272.593234109164
 20
-4420.052795998421
 30
0.0
 40
0.7
100
AcDbArc
 50
100.8743419343046
 51
280.8743419343047
  0
LINE
  5
53D4B
330
1F
100
AcDbEntity
  8
0部品10
100
AcDbLine
 10
6272.461175109164
 20
-4417.820225998421
 30
0.0
 11
6274.643234109164
 21
-4418.239410998421
 31
0.0
  0
LINE
  5
53D4C
330
1F
100
AcDbEntity
  8
0部品7
100
AcDbLine
 10
6276.643234109164
 20
-4426.712795998422
 30
0.0
 11
6279.893234109164
 21
-4426.712795998422
 31
0.0
  0
LINE
  5
53D4D
330
1F
100
AcDbEntity
  8
0部品4
100
AcDbLine
 10
6306.143234109164
 20
-4417.211647998422
 30
0.0
 11
6306.143234109164
 21
-4418.658023085264
 31
0.0
  0
LINE
  5
53D4E
330
1F
100
AcDbEntity
  8
0部品7
100
AcDbLine
 10
6280.393234109165
 20
-4436.512795998422
 30
0.0
 11
6281.893234109164
 21
-4436.512795998422
 31
0.0
  0
LINE
  5
53D4F
330
1F
100
AcDbEntity
  8
0部品7
100
AcDbLine
 10
6302.393234109164
 20
-4427.212795998421
 30
0.0
 11
6302.393234109164
 21
-4436.512795998422
 31
0.0
  0
ARC
  5
53D50
330
1F
100
AcDbEntity
  8
0部品10
100
AcDbCircle
 10
6302.593234109163
 20
-4421.512795998422
 30
0.0
 40
0.7
100
AcDbArc
 50
90.0
 51
270.0
  0
LINE
  5
53D51
330
1F
100
AcDbEntity
  8
0部品6
100
AcDbLine
 10
6283.893234109164
 20
-4437.272254998421
 30
0.0
 11
6278.893234109165
 21
-4437.272254998421
 31
0.0
  0
LINE
  5
53D52
330
1F
100
AcDbEntity
  8
0部品6
100
AcDbLine
 10
6283.893234109164
 20
-4430.272254998421
 30
0.0
 11
6283.893234109164
 21
-4431.799912998422
 31
0.0
  0
LINE
  5
53D53
330
1F
100
AcDbEntity
  8
0部品6
100
AcDbLine
 10
6283.893234109164
 20
-4430.272254998421
 30
0.0
 11
6298.893234109164
 21
-4430.272254998421
 31
0.0
  0
LINE
  5
53D54
330
1F
100
AcDbEntity
  8
0部品5
100
AcDbLine
 10
6280.393234109165
 20
-4434.372254998421
 30
0.0
 11
6279.843234109164
 21
-4434.372254998421
 31
0.0
  0
ARC
  5
53D55
330
1F
100
AcDbEntity
  8
0部品7
100
AcDbCircle
 10
6279.893234109164
 20
-4427.212795998421
 30
0.0
 40
2.0
100
AcDbArc
 50
0.0
 51
90.0
  0
LINE
  5
53D56
330
1F
100
AcDbEntity
  8
0部品7
100
AcDbLine
 10
6276.143234109164
 20
-4420.083621998421
 30
0.0
 11
6276.143234109164
 21
-4420.812795998421
 31
0.0
  0
LINE
  5
53D57
330
1F
100
AcDbEntity
  8
0部品7
100
AcDbLine
 10
6306.643234109164
 20
-4419.987568998421
 30
0.0
 11
6306.643234109164
 21
-4420.812795998421
 31
0.0
  0
LINE
  5
53D58
330
1F
100
AcDbEntity
  8
0部品10
100
AcDbLine
 10
6310.193234109164
 20
-4422.212795998421
 30
0.0
 11
6302.593234109163
 21
-4422.212795998421
 31
0.0
  0
ARC
  5
53D59
330
1F
100
AcDbEntity
  8
0部品6
100
AcDbCircle
 10
6285.893234109164
 20
-4431.799912998422
 30
0.0
 40
2.0
100
AcDbArc
 50
180.0
 51
270.0
  0
LINE
  5
53D5A
330
1F
100
AcDbEntity
  8
0部品6
100
AcDbLine
 10
6298.893234109164
 20
-4434.772254998422
 30
0.0
 11
6298.893234109164
 21
-4437.272254998421
 31
0.0
  0
LINE
  5
53D5B
330
1F
100
AcDbEntity
  8
0部品6
100
AcDbLine
 10
6298.893234109164
 20
-4430.272254998421
 30
0.0
 11
6298.893234109164
 21
-4431.799912998422
 31
0.0
  0
LINE
  5
53D5C
330
1F
100
AcDbEntity
  8
0部品10
100
AcDbLine
 10
6302.461175109163
 20
-4417.820225998421
 30
0.0
 11
6304.643234109164
 21
-4418.239410998421
 31
0.0
  0
LINE
  5
53D5D
330
1F
100
AcDbEntity
  8
0部品4
100
AcDbLine
 10
6304.643234109164
 20
-4422.212795998421
 30
0.0
 11
6304.643234109164
 21
-4425.212795998421
 31
0.0
  0
LINE
  5
53D5E
330
1F
100
AcDbEntity
  8
0部品7
100
AcDbLine
 10
6274.643234109164
 20
-4420.371779998421
 30
0.0
 11
6274.643234109164
 21
-4420.812795998421
 31
0.0
  0
LINE
  5
53D5F
330
1F
100
AcDbEntity
  8
0部品7
100
AcDbLine
 10
6276.643234109164
 20
-4425.212795998421
 30
0.0
 11
6279.893234109164
 21
-4425.212795998421
 31
0.0
  0
LINE
  5
53D60
330
1F
100
AcDbEntity
  8
0部品7
100
AcDbLine
 10
6302.393234109164
 20
-4436.512795998422
 30
0.0
 11
6300.893234109164
 21
-4436.512795998422
 31
0.0
  0
LINE
  5
53D61
330
1F
100
AcDbEntity
  8
0部品10
100
AcDbLine
 10
6280.193234109164
 20
-4420.812795998421
 30
0.0
 11
6272.593234109164
 21
-4420.812795998421
 31
0.0
  0
LINE
  5
53D62
330
1F
100
AcDbEntity
  8
0部品10
100
AcDbLine
 10
6280.193234109164
 20
-4422.212795998421
 30
0.0
 11
6272.593234109164
 21
-4422.212795998421
 31
0.0
  0
ARC
  5
53D63
330
1F
100
AcDbEntity
  8
0部品10
100
AcDbCircle
 10
6280.193234109164
 20
-4421.512795998422
 30
0.0
 40
0.7
100
AcDbArc
 50
270.0
 51
90.0
  0
ARC
  5
53D64
330
1F
100
AcDbEntity
  8
0部品7
100
AcDbCircle
 10
6306.143234109164
 20
-4424.712795998422
 30
0.0
 40
2.0
100
AcDbArc
 50
270.0
 51
0.0
  0
LINE
  5
53D65
330
1F
100
AcDbEntity
  8
0部品5
100
AcDbLine
 10
6300.893234109164
 20
-4434.772254998422
 30
0.0
 11
6281.893234109164
 21
-4434.772254998422
 31
0.0
  0
LINE
  5
53D66
330
1F
100
AcDbEntity
  8
0部品4
100
AcDbLine
 10
6304.643234109164
 20
-4417.499805998422
 30
0.0
 11
6304.643234109165
 21
-4418.94618098
 31
0.0
  0
LINE
  5
53D67
330
1F
100
AcDbEntity
  8
0部品4
100
AcDbLine
 10
6304.643234109165
 20
-4420.371779437895
 30
0.0
 11
6304.643234109165
 21
-4420.812795998421
 31
0.0
  0
LINE
  5
53D68
330
1F
100
AcDbEntity
  8
0部品10
100
AcDbLine
 10
6280.325293109164
 20
-4417.905365998421
 30
0.0
 11
6278.143234109164
 21
-4417.486180998421
 31
0.0
  0
LINE
  5
53D69
330
1F
100
AcDbEntity
  8
0部品7
100
AcDbLine
 10
6300.893234109164
 20
-4427.212795998421
 30
0.0
 11
6300.893234109164
 21
-4436.512795998422
 31
0.0
  0
LINE
  5
53D6A
330
1F
100
AcDbEntity
  8
0部品10
100
AcDbLine
 10
6310.325293109165
 20
-4417.905365998421
 30
0.0
 11
6308.143234109164
 21
-4417.486180998421
 31
0.0
  0
ARC
  5
53D6B
330
1F
100
AcDbEntity
  8
0部品10
100
AcDbCircle
 10
6302.593234109163
 20
-4417.132795998422
 30
0.0
 40
0.7
100
AcDbArc
 50
149.568105793232
 51
280.8743419343047
  0
LINE
  5
53D6C
330
1F
100
AcDbEntity
  8
0部品6
  6
中心線1
 48
0.5
370
    13
100
AcDbLine
 10
6270.893234109164
 20
-4442.272254998422
 30
0.0
 11
6311.893234109164
 21
-4442.272254998422
 31
0.0
  0
LINE
  5
53D6D
330
1F
100
AcDbEntity
  8
0部品6
  6
中心線1
 48
0.5
370
    13
100
AcDbLine
 10
6291.393234109163
 20
-4412.894025000075
 30
0.0
 11
6291.393234109165
 21
-4450.272254998422
 31
0.0
  0
LINE
  5
53D6E
330
1F
100
AcDbEntity
  8
0部品5
100
AcDbLine
 10
6302.393234109164
 20
-4432.172254998421
 30
0.0
 11
6302.943234109164
 21
-4432.172254998421
 31
0.0
  0
ARC
  5
53D6F
330
1F
100
AcDbEntity
  8
0部品7
100
AcDbCircle
 10
6279.893234109164
 20
-4427.212795998421
 30
0.0
 40
0.5
100
AcDbArc
 50
0.0
 51
90.0
  0
LINE
  5
53D70
330
1F
100
AcDbEntity
  8
0部品7
100
AcDbLine
 10
6308.143234109164
 20
-4419.699410998421
 30
0.0
 11
6308.143234109164
 21
-4420.812795998421
 31
0.0
  0
LINE
  5
53D71
330
1F
100
AcDbEntity
  8
0部品7
100
AcDbLine
 10
6276.143234109164
 20
-4422.212795998421
 30
0.0
 11
6276.143234109164
 21
-4424.712795998422
 31
0.0
  0
ARC
  5
53D72
330
1F
100
AcDbEntity
  8
0部品10
100
AcDbCircle
 10
6302.593234109163
 20
-4420.052795998421
 30
0.0
 40
0.7
100
AcDbArc
 50
100.8743419343046
 51
280.8743419343047
  0
LINE
  5
53D73
330
1F
100
AcDbEntity
  8
0部品10
100
AcDbLine
 10
6272.725293109164
 20
-4420.740225998422
 30
0.0
 11
6280.325293109164
 21
-4419.280225998422
 31
0.0
  0
LINE
  5
53D74
330
1F
100
AcDbEntity
  8
0部品4
100
AcDbLine
 10
6306.143234109164
 20
-4422.212795998421
 30
0.0
 11
6306.143234109164
 21
-4425.212795998421
 31
0.0
  0
LINE
  5
53D75
330
1F
100
AcDbEntity
  8
0部品4
100
AcDbLine
 10
6330.777666900633
 20
-4422.212795998421
 30
0.0
 11
6327.777666900633
 21
-4422.212795998421
 31
0.0
  0
LINE
  5
53D76
330
1F
100
AcDbEntity
  8
0部品10
100
AcDbLine
 10
6321.977666900633
 20
-4422.212795998421
 30
0.0
 11
6329.577666900633
 21
-4422.212795998421
 31
0.0
  0
LINE
  5
53D77
330
1F
100
AcDbEntity
  8
0部品4
100
AcDbLine
 10
6276.643234109164
 20
-4425.212795998421
 30
0.0
 11
6278.143234109164
 21
-4425.212795998421
 31
0.0
  0
LINE
  5
53D78
330
1F
100
AcDbEntity
  8
0部品4
100
AcDbLine
 10
6276.643234109164
 20
-4422.212795998421
 30
0.0
 11
6278.143234109164
 21
-4422.212795998421
 31
0.0
  0
LINE
  5
53D79
330
1F
100
AcDbEntity
  8
0部品4
100
AcDbLine
 10
6304.643234109164
 20
-4425.212795998421
 30
0.0
 11
6306.143234109164
 21
-4425.212795998421
 31
0.0
  0
LINE
  5
53D7A
330
1F
100
AcDbEntity
  8
0部品4
100
AcDbLine
 10
6304.643234109164
 20
-4422.212795998421
 30
0.0
 11
6306.143234109164
 21
-4422.212795998421
 31
0.0
  0
LINE
  5
53D7B
330
1F
100
AcDbEntity
  8
0部品6
  6
中心線1
 48
0.5
370
    13
100
AcDbLine
 10
6129.892803748495
 20
-4388.712795998421
 30
0.0
 11
6129.892803748495
 21
-4445.772254998421
 31
0.0
1001
GENIUS_GENOBJ-N-CEN_13
1002
{
1000
OWNER
1000
GEN
1002
}
1001
GENIUS_GENODEF_13
1002
{
1000
HIER
1070
     0
1002
}
1002
{
1000
MANEDIT
1070
     0
1002
}
1002
{
1000
NOSEL
1070
     0
1002
}
1002
{
1000
BEHIND
1070
     0
1002
}
1002
{
1000
OTHER
1070
     0
1002
}
1002
{
1000
REACTOR
1002
}
1001
GENIUS_GENCEN_19
1002
{
1040
3.0
1002
}
  0
SPLINE
  5
53D7C
330
1F
100
AcDbEntity
  8
0部品10
  6
細線
370
    13
100
AcDbSpline
210
0.0
220
0.0
230
1.0
 70
     8
 71
     3
 72
    10
 73
     6
 74
     4
 42
0.0000000001
 43
0.0000000001
 44
0.0000000001
 40
0.0
 40
0.0
 40
0.0
 40
0.0
 40
4.366472923371896
 40
8.865865986642198
 40
13.2291564103577
 40
13.2291564103577
 40
13.2291564103577
 40
13.2291564103577
 10
6269.994623458718
 20
-4415.761966020206
 30
0.0
 10
6271.37921493749
 20
-4416.433259894374
 30
0.0
 10
6274.190546351305
 20
-4417.796282551442
 30
0.0
 10
6278.52771766433
 20
-4415.270209241971
 30
0.0
 10
6281.359523214996
 20
-4416.55919982788
 30
0.0
 10
6282.753682225549
 20
-4417.193797722301
 30
0.0
 11
6269.994623458718
 21
-4415.761966020206
 31
0.0
 11
6274.171522996213
 21
-4417.034599527628
 31
0.0
 11
6278.553312630777
 21
-4416.012612474761
 31
0.0
 11
6282.753682225549
 21
-4417.193797722301
 31
0.0
  0
ARC
  5
53D7D
330
1F
100
AcDbEntity
  8
0部品10
100
AcDbCircle
 10
6280.193234109164
 20
-4415.672795998421
 30
0.0
 40
0.7
100
AcDbArc
 50
280.8743419343047
 51
298.2558721054514
  0
SPLINE
  5
53D7E
330
1F
100
AcDbEntity
  8
0部品10
  6
細線
370
    13
100
AcDbSpline
210
0.0
220
0.0
230
1.0
 70
     8
 71
     3
 72
    10
 73
     6
 74
     4
 42
0.0000000001
 43
0.0000000001
 44
0.0000000001
 40
0.0
 40
0.0
 40
0.0
 40
0.0
 40
4.366472923371896
 40
8.865865986642198
 40
13.2291564103577
 40
13.2291564103577
 40
13.2291564103577
 40
13.2291564103577
 10
6299.994623458718
 20
-4415.894025000075
 30
0.0
 10
6301.37921493749
 20
-4416.565318874243
 30
0.0
 10
6304.190546351305
 20
-4417.928341531312
 30
0.0
 10
6308.527717664329
 20
-4415.40226822184
 30
0.0
 10
6311.359523214997
 20
-4416.69125880775
 30
0.0
 10
6312.753682225548
 20
-4417.32585670217
 30
0.0
 11
6299.994623458718
 21
-4415.894025000075
 31
0.0
 11
6304.171522996213
 21
-4417.166658507497
 31
0.0
 11
6308.553312630778
 21
-4416.14467145463
 31
0.0
 11
6312.753682225548
 21
-4417.32585670217
 31
0.0
  0
SPLINE
  5
53D7F
330
1F
100
AcDbEntity
  8
0部品10
  6
細線
370
    13
100
AcDbSpline
210
0.0
220
0.0
230
1.0
 70
     8
 71
     3
 72
    10
 73
     6
 74
     4
 42
0.0000000001
 43
0.0000000001
 44
0.0000000001
 40
0.0
 40
0.0
 40
0.0
 40
0.0
 40
4.366472923371896
 40
8.865865986642198
 40
13.2291564103577
 40
13.2291564103577
 40
13.2291564103577
 40
13.2291564103577
 10
6319.379056250188
 20
-4415.761966020204
 30
0.0
 10
6320.763647728959
 20
-4416.433259894374
 30
0.0
 10
6323.574979142776
 20
-4417.796282551442
 30
0.0
 10
6327.912150455798
 20
-4415.27020924197
 30
0.0
 10
6330.743956006465
 20
-4416.559199827879
 30
0.0
 10
6332.138115017018
 20
-4417.1937977223
 30
0.0
 11
6319.379056250188
 21
-4415.761966020204
 31
0.0
 11
6323.555955787682
 21
-4417.034599527627
 31
0.0
 11
6327.937745422246
 21
-4416.01261247476
 31
0.0
 11
6332.138115017018
 21
-4417.1937977223
 31
0.0
  0
ARC
  5
53D80
330
1F
100
AcDbEntity
  8
0部品10
100
AcDbCircle
 10
6329.577666900633
 20
-4415.67279599842
 30
0.0
 40
0.7
100
AcDbArc
 50
280.8214413998572
 51
298.2558721054809
  0
LINE
  5
53D81
330
1F
100
AcDbEntity
  8
0部品6
  6
中心線1
 48
0.3
370
    13
100
AcDbLine
 10
6278.893234109165
 20
-4446.522254998422
 30
0.0
 11
6278.893234109165
 21
-4438.022254998421
 31
0.0
1001
GENIUS_GENOBJ-N-CEN_13
1002
{
1000
OWNER
1000
GEN
1002
}
1001
GENIUS_GENODEF_13
1002
{
1000
HIER
1070
     0
1002
}
1002
{
1000
MANEDIT
1070
     0
1002
}
1002
{
1000
NOSEL
1070
     0
1002
}
1002
{
1000
BEHIND
1070
     0
1002
}
1002
{
1000
OTHER
1070
     0
1002
}
1002
{
1000
REACTOR
1002
}
1001
GENIUS_GENCEN_19
1002
{
1040
3.0
1002
}
  0
LINE
  5
53D82
330
1F
100
AcDbEntity
  8
0部品6
  6
中心線1
 48
0.3
370
    13
100
AcDbLine
 10
6303.893234109164
 20
-4446.522254998422
 30
0.0
 11
6303.893234109164
 21
-4438.022254998421
 31
0.0
1001
GENIUS_GENOBJ-N-CEN_13
1002
{
1000
OWNER
1000
GEN
1002
}
1001
GENIUS_GENODEF_13
1002
{
1000
HIER
1070
     0
1002
}
1002
{
1000
MANEDIT
1070
     0
1002
}
1002
{
1000
NOSEL
1070
     0
1002
}
1002
{
1000
BEHIND
1070
     0
1002
}
1002
{
1000
OTHER
1070
     0
1002
}
1002
{
1000
REACTOR
1002
}
1001
GENIUS_GENCEN_19
1002
{
1040
3.0
1002
}
  0
LINE
  5
53D83
330
1F
100
AcDbEntity
  8
0部品6
  6
中心線1
 48
0.3
370
    13
100
AcDbLine
 10
6179.19398306941
 20
-4445.772254998421
 30
0.0
 11
6179.19398306941
 21
-4438.27225499842
 31
0.0
1001
GENIUS_GENODEF_13
1002
{
1000
HIER
1070
     0
1002
}
1002
{
1000
MANEDIT
1070
     0
1002
}
1002
{
1000
NOSEL
1070
     0
1002
}
1002
{
1000
BEHIND
1070
     0
1002
}
1002
{
1000
OTHER
1070
     0
1002
}
1002
{
1000
REACTOR
1002
}
1001
GENIUS_GENOBJ-N-CEN_13
1002
{
1000
OWNER
1000
GEN
1002
}
1001
GENIUS_GENCEN_19
1002
{
1040
3.0
1002
}
  0
LINE
  5
53D84
330
1F
100
AcDbEntity
  8
0部品6
  6
中心線1
 48
0.3
370
    13
100
AcDbLine
 10
6335.777666900633
 20
-4442.272254998422
 30
0.0
 11
6328.277666900634
 21
-4442.272254998422
 31
0.0
1001
GENIUS_GENOBJ-N-CEN_13
1002
{
1000
OWNER
1000
GEN
1002
}
1001
GENIUS_GENODEF_13
1002
{
1000
HIER
1070
     0
1002
}
1002
{
1000
MANEDIT
1070
     0
1002
}
1002
{
1000
NOSEL
1070
     0
1002
}
1002
{
1000
BEHIND
1070
     0
1002
}
1002
{
1000
OTHER
1070
     0
1002
}
1002
{
1000
REACTOR
1002
}
1001
GENIUS_GENCEN_19
1002
{
1040
3.0
1002
}
  0
LINE
  5
53D85
330
1F
100
AcDbEntity
  8
0部品6
  6
中心線1
 48
0.3
370
    13
100
AcDbLine
 10
6174.94398306941
 20
-4466.744960804216
 30
0.0
 11
6183.44398306941
 21
-4466.744960804216
 31
0.0
1001
GENIUS_GENODEF_13
1002
{
1000
HIER
1070
     0
1002
}
1002
{
1000
MANEDIT
1070
     0
1002
}
1002
{
1000
NOSEL
1070
     0
1002
}
1002
{
1000
BEHIND
1070
     0
1002
}
1002
{
1000
OTHER
1070
     0
1002
}
1002
{
1000
REACTOR
1002
}
1001
GENIUS_GENOBJ-N-CEN_13
1002
{
1000
OWNER
1000
GEN
1002
}
1001
GENIUS_GENCEN_19
1002
{
1040
3.0
1002
}
  0
LINE
  5
53D86
330
1F
100
AcDbEntity
  8
0部品6
  6
中心線1
 48
0.3
370
    13
100
AcDbLine
 10
6174.94398306941
 20
-4491.744960804215
 30
0.0
 11
6183.44398306941
 21
-4491.744960804215
 31
0.0
1001
GENIUS_GENODEF_13
1002
{
1000
HIER
1070
     0
1002
}
1002
{
1000
MANEDIT
1070
     0
1002
}
1002
{
1000
NOSEL
1070
     0
1002
}
1002
{
1000
BEHIND
1070
     0
1002
}
1002
{
1000
OTHER
1070
     0
1002
}
1002
{
1000
REACTOR
1002
}
1001
GENIUS_GENOBJ-N-CEN_13
1002
{
1000
OWNER
1000
GEN
1002
}
1001
GENIUS_GENCEN_19
1002
{
1040
3.0
1002
}
  0
DIMENSION
  5
53D87
330
1F
100
AcDbEntity
  8
AM_5
100
AcDbDimension
  2
*D7
 10
6226.193983069411
 20
-4383.712795998421
 30
0.0
 11
6206.19398306941
 21
-4383.712795998421
 31
0.0
 70
   160
  1
（40.5）
 71
     5
 42
40.0
  3
SYS$0
100
AcDbAlignedDimension
 13
6186.193983069411
 23
-4433.772254998421
 33
0.0
 14
6226.193983069411
 24
-4394.712795998421
 34
0.0
100
AcDbRotatedDimension
  0
DIMENSION
  5
53D88
330
1F
100
AcDbEntity
  8
AM_5
100
AcDbDimension
  2
*D8
 10
6170.69398306941
 20
-4383.712795998421
 30
0.0
 11
6178.44398306941
 21
-4383.712795998421
 31
0.0
 70
   160
  1
15.5
 71
     5
 42
15.5
  3
SYS$0
100
AcDbAlignedDimension
 13
6186.193983069411
 23
-4433.772254998421
 33
0.0
 14
6170.69398306941
 24
-4391.712795998421
 34
0.0
100
AcDbRotatedDimension
  0
DIMENSION
  5
53D89
330
1F
100
AcDbEntity
  8
AM_5
100
AcDbDimension
  2
*D9
 10
6234.19398306941
 20
-4402.11279599842
 30
0.0
 11
6234.19398306941
 21
-4407.859462665086
 31
0.0
 70
   160
 71
     5
 42
2.0
  3
SYS$0
100
AcDbAlignedDimension
 13
6234.19398306941
 23
-4404.112795998421
 33
0.0
 14
6224.19398306941
 24
-4402.11279599842
 34
0.0
 50
90.0
100
AcDbRotatedDimension
  0
DIMENSION
  5
53D8A
330
1F
100
AcDbEntity
  8
AM_5
100
AcDbDimension
  2
*D10
 10
6242.193983069409
 20
-4391.712795952105
 30
0.0
 11
6242.19398306941
 21
-4397.91279597526
 31
0.0
 70
   160
  1
12.5
 71
     5
 42
12.40000004631565
  3
SYS$0
100
AcDbAlignedDimension
 13
6242.193983069409
 23
-4404.112795998421
 33
0.0
 14
6208.842181465619
 24
-4391.712795952105
 34
0.0
 50
90.0
100
AcDbRotatedDimension
  0
DIMENSION
  5
53D8B
330
1F
100
AcDbEntity
  8
AM_5
100
AcDbDimension
  2
*D11
 10
6242.193983069409
 20
-4442.772254998421
 30
0.0
 11
6242.19398306941
 21
-4423.442525498418
 31
0.0
 70
   160
  1
Y
 71
     5
 42
38.65945900000042
  3
SYS$0
100
AcDbAlignedDimension
 13
6242.193983069409
 23
-4404.112795998421
 33
0.0
 14
6184.69398306941
 24
-4442.772254998421
 34
0.0
 50
90.0
100
AcDbRotatedDimension
  0
DIMENSION
  5
53D8C
330
1F
100
AcDbEntity
  8
AM_5
100
AcDbDimension
  2
*D12
 10
6158.19398306941
 20
-4430.27225499842
 30
0.0
 11
6158.193983069411
 21
-4436.522254998418
 31
0.0
 70
   160
  1
<>
 71
     5
 42
12.50000000000091
  3
SYS$0
100
AcDbAlignedDimension
 13
6174.19398306941
 23
-4442.772254998421
 33
0.0
 14
6182.69398306941
 24
-4430.27225499842
 34
0.0
 50
90.0
100
AcDbRotatedDimension
  0
DIMENSION
  5
53D8D
330
1F
100
AcDbEntity
  8
AM_5
100
AcDbDimension
  2
*D13
 10
6166.19398306941
 20
-4441.272254998421
 30
0.0
 11
6166.193983069411
 21
-4447.958921665086
 31
0.0
 70
   160
 71
     5
 42
1.5
  3
SYS$0
100
AcDbAlignedDimension
 13
6174.19398306941
 23
-4442.772254998421
 33
0.0
 14
6174.19398306941
 24
-4441.272254998421
 34
0.0
 50
90.0
100
AcDbRotatedDimension
  0
DIMENSION
  5
53D8E
330
1F
100
AcDbEntity
  8
AM_5
100
AcDbDimension
  2
*D14
 10
6179.19398306941
 20
-4453.744960804215
 30
0.0
 11
6182.69398306941
 21
-4453.744960804215
 31
0.0
 70
   160
 71
     5
 42
7.0
  3
SYS$0
100
AcDbAlignedDimension
 13
6186.193983069411
 23
-4471.744960804215
 33
0.0
 14
6179.19398306941
 24
-4458.744960804216
 34
0.0
100
AcDbRotatedDimension
  0
DIMENSION
  5
53D8F
330
1F
100
AcDbEntity
  8
AM_5
100
AcDbDimension
  2
*D15
 10
6203.19398306941
 20
-4453.744960804215
 30
0.0
 11
6194.693983069409
 21
-4453.744960804215
 31
0.0
 70
   160
  1
（<>）
 71
     5
 42
17.0
  3
SYS$0
100
AcDbAlignedDimension
 13
6186.193983069411
 23
-4471.744960804215
 33
0.0
 14
6203.19398306941
 24
-4474.994960804215
 34
0.0
100
AcDbRotatedDimension
  0
DIMENSION
  5
53D90
330
1F
100
AcDbEntity
  8
AM_5
100
AcDbDimension
  2
*D16
 10
6218.19398306941
 20
-4453.744960804215
 30
0.0
 11
6210.69398306941
 21
-4451.144960804215
 31
0.0
 70
    32
 71
     5
 42
15.0
  3
SYS$0
100
AcDbAlignedDimension
 13
6203.19398306941
 23
-4474.994960804215
 33
0.0
 14
6218.19398306941
 24
-4474.994960804215
 34
0.0
100
AcDbRotatedDimension
  0
DIMENSION
  5
53D91
330
1F
100
AcDbEntity
  8
AM_5
100
AcDbDimension
  2
*D17
 10
6224.19398306941
 20
-4453.744960804215
 30
0.0
 11
6221.19398306941
 21
-4453.744960804215
 31
0.0
 70
   160
 71
     5
 42
6.0
  3
SYS$0
100
AcDbAlignedDimension
 13
6218.19398306941
 23
-4474.994960804215
 33
0.0
 14
6224.19398306941
 24
-4479.244960804215
 34
0.0
100
AcDbRotatedDimension
  0
DIMENSION
  5
53D92
330
1F
100
AcDbEntity
  8
AM_5
100
AcDbDimension
  2
*D18
 10
6184.19398306941
 20
-4504.744960804215
 30
0.0
 11
6179.19398306941
 21
-4504.744960804215
 31
0.0
 70
   160
 71
     5
 42
10.0
  3
SYS$0
100
AcDbAlignedDimension
 13
6174.19398306941
 23
-4491.744960804215
 33
0.0
 14
6184.19398306941
 24
-4491.744960804215
 34
0.0
100
AcDbRotatedDimension
  0
DIMENSION
  5
53D93
330
1F
100
AcDbEntity
  8
AM_5
100
AcDbDimension
  2
*D19
 10
6166.193983069409
 20
-4466.744960804216
 30
0.0
 11
6166.19398306941
 21
-4479.244960804215
 31
0.0
 70
   160
 71
     5
 42
25.0
  3
SYS$0
100
AcDbAlignedDimension
 13
6174.94398306941
 23
-4491.744960804215
 33
0.0
 14
6174.94398306941
 24
-4466.744960804216
 34
0.0
 50
90.0
100
AcDbRotatedDimension
  0
DIMENSION
  5
53D94
330
1F
100
AcDbEntity
  8
AM_5
100
AcDbDimension
  2
*D20
 10
6158.193983069409
 20
-4496.744960804215
 30
0.0
 11
6158.19398306941
 21
-4479.244960804215
 31
0.0
 70
   160
 71
     5
 42
35.0
  3
SYS$0
100
AcDbAlignedDimension
 13
6179.19398306941
 23
-4461.744960804215
 33
0.0
 14
6179.19398306941
 24
-4496.744960804215
 34
0.0
 50
90.0
100
AcDbRotatedDimension
  0
DIMENSION
  5
53D95
330
1F
100
AcDbEntity
  8
AM_5
100
AcDbDimension
  2
*D21
 10
6216.725523849267
 20
-4477.54022401551
 30
0.0
 11
6233.011697605597
 21
-4488.537260460969
 31
0.0
 70
   163
  1
2-<>
 71
     5
 42
4.500000000004547
  3
SYS$3
100
AcDbDiametricDimension
 15
6219.662442289562
 25
-4480.949697592925
 35
0.0
 40
0.0
1001
ACAD
1000
DSTYLE
1002
{
1070
    41
1040
1.0
1070
   172
1070
     1
1070
   342
1005
6C4
1002
}
  0
DIMENSION
  5
53D96
330
1F
100
AcDbEntity
  8
AM_5
100
AcDbDimension
  2
*D22
 10
6177.663248137182
 20
-4490.095915453938
 30
0.0
 11
6193.71189237643
 21
-4500.045023027757
 31
0.0
 70
   163
  1
2-<>
 71
     5
 42
4.5
  3
SYS$3
100
AcDbDiametricDimension
 15
6180.724718001634
 25
-4493.394006154487
 35
0.0
 40
0.0
1001
ACAD
1000
DSTYLE
1002
{
1070
    41
1040
1.0
1070
   172
1070
     1
1070
   342
1005
6C4
1002
}
  0
DIMENSION
  5
53D97
330
1F
100
AcDbEntity
  8
AM_5
100
AcDbDimension
  2
*D23
 10
6149.392803748495
 20
-4375.712795998421
 30
0.0
 11
6129.892803748495
 21
-4375.712795998421
 31
0.0
 70
   160
  1
（<>）
 71
     5
 42
39.0
  3
SYS$0
100
AcDbAlignedDimension
 13
6110.392803748495
 23
-4406.912795998421
 33
0.0
 14
6149.392803748495
 24
-4406.912795998421
 34
0.0
100
AcDbRotatedDimension
  0
DIMENSION
  5
53D98
330
1F
100
AcDbEntity
  8
AM_5
100
AcDbDimension
  2
*D24
 10
6138.892803748495
 20
-4383.712795998421
 30
0.0
 11
6129.892803748495
 21
-4383.712795998421
 31
0.0
 70
   160
 71
     5
 42
18.0
  3
SYS$0
100
AcDbAlignedDimension
 13
6120.892803748495
 23
-4393.212795998421
 33
0.0
 14
6138.892803748495
 24
-4393.212795998421
 34
0.0
100
AcDbRotatedDimension
  0
MTEXT
  5
53D99
330
1F
100
AcDbEntity
  8
AM_6
100
AcDbMText
 10
6210.634751327264
 20
-4504.106126673881
 30
0.0
 40
3.2
 41
14.24264068711909
 71
     5
 72
     5
  1
Aタイプ
 73
     1
 44
1.0
1001
ACAD
1000
MTEXTBEGIN
1070
    73
1070
     1
1070
    44
1040
1.0
1070
    74
1070
     0
1000
MTEXTEND
1000
ACAD_MTEXT_DEFINED_HEIGHT_BEGIN
1070
    46
1040
4.242640687119275
1000
ACAD_MTEXT_DEFINED_HEIGHT_END
  0
LWPOLYLINE
  5
53D9A
330
1F
100
AcDbEntity
  8
0部品1
100
AcDbPolyline
 90
        4
 70
     1
 43
0.0
 10
6203.513430983704
 20
-4501.984806330321
 10
6217.756071670823
 20
-4501.984806330321
 10
6217.756071670823
 20
-4506.22744701744
 10
6203.513430983704
 20
-4506.22744701744
1001
GENIUS_GENREC_14
1002
{
1000
PYDIR
1011
6203.513430983704
1021
-4506.22744701744
1031
0.0
1002
}
1002
{
1000
PXDIR
1011
6217.756071670823
1021
-4501.984806330321
1031
0.0
1002
}
1002
{
1000
PORI
1011
6203.513430983704
1021
-4501.984806330321
1031
0.0
1002
}
1002
{
1000
PINS
1011
6203.513430983704
1021
-4501.984806330321
1031
0.0
1002
}
1002
{
1000
PINS2
1011
6217.756071670823
1021
-4506.22744701744
1031
0.0
1002
}
1002
{
1000
C
1070
     1
1002
}
1001
GENIUS_GENOBJ-N-REC_13
1002
{
1000
OWNER
1000
GEN
1002
}
1001
GENIUS_GENODEF_13
1002
{
1000
HIER
1070
     0
1002
}
1002
{
1000
MANEDIT
1070
     0
1002
}
1002
{
1000
NOSEL
1070
     0
1002
}
1002
{
1000
BEHIND
1070
     0
1002
}
1002
{
1000
OTHER
1070
     0
1002
}
1002
{
1000
REACTOR
1002
}
  0
MTEXT
  5
53D9B
330
1F
100
AcDbEntity
  8
AM_6
100
AcDbMText
 10
6305.403815744052
 20
-4471.885490846807
 30
0.0
 40
3.2
 41
14.24264068711909
 71
     5
 72
     5
  1
Bタイプ
 73
     1
 44
1.0
1001
ACAD
1000
MTEXTBEGIN
1070
    73
1070
     1
1070
    44
1040
1.0
1070
    74
1070
     0
1000
MTEXTEND
1000
ACAD_MTEXT_DEFINED_HEIGHT_BEGIN
1070
    46
1040
4.242640687119275
1000
ACAD_MTEXT_DEFINED_HEIGHT_END
  0
LWPOLYLINE
  5
53D9C
330
1F
100
AcDbEntity
  8
0部品1
100
AcDbPolyline
 90
        4
 70
     1
 43
0.0
 10
6298.282495400492
 20
-4469.764170503246
 10
6312.525136087611
 20
-4469.764170503246
 10
6312.525136087611
 20
-4474.006811190366
 10
6298.282495400492
 20
-4474.006811190366
1001
GENIUS_GENREC_14
1002
{
1000
PYDIR
1011
6298.282495400492
1021
-4474.006811190366
1031
0.0
1002
}
1002
{
1000
PXDIR
1011
6312.525136087611
1021
-4469.764170503246
1031
0.0
1002
}
1002
{
1000
PORI
1011
6298.282495400492
1021
-4469.764170503246
1031
0.0
1002
}
1002
{
1000
PINS
1011
6298.282495400492
1021
-4469.764170503246
1031
0.0
1002
}
1002
{
1000
PINS2
1011
6312.525136087611
1021
-4474.006811190366
1031
0.0
1002
}
1002
{
1000
C
1070
     1
1002
}
1001
GENIUS_GENOBJ-N-REC_13
1002
{
1000
OWNER
1000
GEN
1002
}
1001
GENIUS_GENODEF_13
1002
{
1000
HIER
1070
     0
1002
}
1002
{
1000
MANEDIT
1070
     0
1002
}
1002
{
1000
NOSEL
1070
     0
1002
}
1002
{
1000
BEHIND
1070
     0
1002
}
1002
{
1000
OTHER
1070
     0
1002
}
1002
{
1000
REACTOR
1002
}
  0
DIMENSION
  5
53DA1
330
1F
100
AcDbEntity
  8
AM_5
100
AcDbDimension
  2
*D25
 10
6303.893234109164
 20
-4455.272254998422
 30
0.0
 11
6291.393234109165
 21
-4455.272254998422
 31
0.0
 70
   160
 71
     5
 42
25.0
  3
SYS$0
100
AcDbAlignedDimension
 13
6278.893234109165
 23
-4446.522254998422
 33
0.0
 14
6303.893234109164
 24
-4446.522254998422
 34
0.0
100
AcDbRotatedDimension
  0
DIMENSION
  5
53DA2
330
1F
100
AcDbEntity
  8
AM_5
100
AcDbDimension
  2
*D26
 10
6308.893234109164
 20
-4463.272254998422
 30
0.0
 11
6291.393234109165
 21
-4463.272254998422
 31
0.0
 70
   160
 71
     5
 42
35.0
  3
SYS$0
100
AcDbAlignedDimension
 13
6273.893234109164
 23
-4442.272254998422
 33
0.0
 14
6308.893234109164
 24
-4442.272254998422
 34
0.0
100
AcDbRotatedDimension
  0
DIMENSION
  5
53DA3
330
1F
100
AcDbEntity
  8
AM_5
100
AcDbDimension
  2
*D27
 10
6265.893234109164
 20
-4437.272254998421
 30
0.0
 11
6265.893234109164
 21
-4442.272254998422
 31
0.0
 70
   160
 71
     5
 42
10.0
  3
SYS$0
100
AcDbAlignedDimension
 13
6278.893234109165
 23
-4447.272254998422
 33
0.0
 14
6278.893234109165
 24
-4437.272254998421
 34
0.0
 50
90.0
100
AcDbRotatedDimension
  0
DIMENSION
  5
53DA4
330
1F
100
AcDbEntity
  8
AM_5
100
AcDbDimension
  2
*D28
 10
6332.777666900633
 20
-4463.272254998422
 30
0.0
 11
6328.327666900634
 21
-4463.272254998422
 31
0.0
 70
   160
  1
<>
 71
     5
 42
8.899999999999636
  3
SYS$0
100
AcDbAlignedDimension
 13
6323.877666900634
 23
-4432.84849499842
 33
0.0
 14
6332.777666900633
 24
-4447.272254998421
 34
0.0
100
AcDbRotatedDimension
  0
DIMENSION
  5
53DA5
330
1F
100
AcDbEntity
  8
AM_5
100
AcDbDimension
  2
*D29
 10
6331.277666900633
 20
-4455.272254998421
 30
0.0
 11
6337.9643335673
 21
-4455.272254998421
 31
0.0
 70
   160
 71
     5
 42
1.5
  3
SYS$0
100
AcDbAlignedDimension
 13
6332.777666900633
 23
-4447.272254998421
 33
0.0
 14
6331.277666900633
 24
-4447.272254998421
 34
0.0
100
AcDbRotatedDimension
  0
DIMENSION
  5
53DA6
330
1F
100
AcDbEntity
  8
AM_5
100
AcDbDimension
  2
*D30
 10
6340.777666900632
 20
-4404.112795998421
 30
0.0
 11
6340.777666900634
 21
-4423.19252549842
 31
0.0
 70
   160
  1
Y
 71
     5
 42
38.15945900000134
  3
SYS$0
100
AcDbAlignedDimension
 13
6335.777666900633
 23
-4442.272254998422
 33
0.0
 14
6332.777666900632
 24
-4404.112795998421
 34
0.0
 50
90.0
100
AcDbRotatedDimension
  0
LINE
  5
54067
330
1F
100
AcDbEntity
  8
0部品6
  6
想像線1
 48
0.5
370
    13
100
AcDbLine
 10
6225.193983069409
 20
-4404.112795998421
 30
0.0
 11
6332.777666900632
 21
-4404.112795998421
 31
0.0
  0
MTEXT
  5
546EF
330
1F
100
AcDbEntity
  8
AM_6
100
AcDbMText
 10
6286.174675701047
 20
-4497.479336884235
 30
0.0
 40
3.200000000000001
 41
0.0
 71
     5
 72
     1
  1
品番
 73
     1
 44
1.0
1001
ACAD
1000
MTEXTBEGIN
1070
    73
1070
     1
1070
    44
1040
1.0
1070
    74
1070
     0
1000
MTEXTEND
  0
LINE
  5
546F0
330
1F
100
AcDbEntity
  8
AM_0
100
AcDbLine
 10
6271.924675701048
 20
-4501.479336884234
 30
0.0
 11
6360.424675701048
 21
-4501.479336884234
 31
0.0
  0
LINE
  5
546F1
330
1F
100
AcDbEntity
  8
AM_0
100
AcDbLine
 10
6271.924675701048
 20
-4493.479336884234
 30
0.0
 11
6360.424675701048
 21
-4493.479336884234
 31
0.0
  0
LINE
  5
546F2
330
1F
100
AcDbEntity
  8
AM_0
100
AcDbLine
 10
6300.424675701048
 20
-4493.479336884234
 30
0.0
 11
6300.424675701044
 21
-4561.479336884232
 31
0.0
  0
LINE
  5
546F3
330
1F
100
AcDbEntity
  8
AM_0
100
AcDbLine
 10
6271.924675701048
 20
-4493.479336884234
 30
0.0
 11
6271.924675701048
 21
-4561.479336884231
 31
0.0
  0
LINE
  5
546F5
330
1F
100
AcDbEntity
  8
AM_2
100
AcDbLine
 10
6300.424675701047
 20
-4507.479336884233
 30
0.0
 11
6347.924675701048
 21
-4507.479336884236
 31
0.0
  0
LINE
  5
546F6
330
1F
100
AcDbEntity
  8
AM_2
100
AcDbLine
 10
6300.424675701047
 20
-4513.479336884233
 30
0.0
 11
6347.924675701048
 21
-4513.479336884234
 31
0.0
  0
LINE
  5
546F7
330
1F
100
AcDbEntity
  8
AM_0
100
AcDbLine
 10
6320.424675701049
 20
-4493.479336884235
 30
0.0
 11
6320.424675701045
 21
-4561.479336884234
 31
0.0
  0
MTEXT
  5
546F8
330
1F
100
AcDbEntity
  8
AM_6
100
AcDbMText
 10
6310.424675701049
 20
-4497.479336884235
 30
0.0
 40
2.799999999999999
 41
0.0
 71
     5
 72
     1
  1
Y（mm±0.5）
 73
     1
 44
1.0
1001
ACAD
1000
MTEXTBEGIN
1070
    73
1070
     1
1070
    44
1040
1.0
1070
    74
1070
     0
1000
MTEXTEND
  0
MTEXT
  5
546F9
330
1F
100
AcDbEntity
  8
AM_6
100
AcDbMText
 10
6310.424675701049
 20
-4504.479336884235
 30
0.0
 40
3.200000000000001
 41
0.0
 71
     5
 72
     1
  1
39.5
 73
     1
 44
1.0
1001
ACAD
1000
MTEXTBEGIN
1070
    73
1070
     1
1070
    44
1040
1.0
1070
    74
1070
     0
1000
MTEXTEND
  0
MTEXT
  5
546FA
330
1F
100
AcDbEntity
  8
AM_6
100
AcDbMText
 10
6310.424675701049
 20
-4510.479336884235
 30
0.0
 40
3.200000000000001
 41
0.0
 71
     5
 72
     1
  1
40.5
 73
     1
 44
1.0
1001
ACAD
1000
MTEXTBEGIN
1070
    73
1070
     1
1070
    44
1040
1.0
1070
    74
1070
     0
1000
MTEXTEND
  0
LINE
  5
546FB
330
1F
100
AcDbEntity
  8
AM_0
100
AcDbLine
 10
6347.924675701048
 20
-4493.479336884234
 30
0.0
 11
6347.92467570105
 21
-4561.479336884235
 31
0.0
  0
MTEXT
  5
546FC
330
1F
100
AcDbEntity
  8
AM_6
100
AcDbMText
 10
6334.174675701049
 20
-4504.479336884235
 30
0.0
 40
3.200000000000001
 41
0.0
 71
     5
 72
     1
  1
0
 73
     1
 44
1.0
1001
ACAD
1000
MTEXTBEGIN
1070
    73
1070
     1
1070
    44
1040
1.0
1070
    74
1070
     0
1000
MTEXTEND
  0
MTEXT
  5
546FD
330
1F
100
AcDbEntity
  8
AM_6
100
AcDbMText
 10
6334.174675701049
 20
-4510.479336884235
 30
0.0
 40
3.200000000000001
 41
0.0
 71
     5
 72
     1
  1
63（6.5）
 73
     1
 44
1.0
1001
ACAD
1000
MTEXTBEGIN
1070
    73
1070
     1
1070
    44
1040
1.0
1070
    74
1070
     0
1000
MTEXTEND
  0
LINE
  5
546FE
330
1F
100
AcDbEntity
  8
AM_0
100
AcDbLine
 10
6360.42467570105
 20
-4493.479336884235
 30
0.0
 11
6360.42467570105
 21
-4561.479336884235
 31
0.0
  0
MTEXT
  5
546FF
330
1F
100
AcDbEntity
  8
AM_6
100
AcDbMText
 10
6354.17467570105
 20
-4497.479336884235
 30
0.0
 40
3.200000000000001
 41
0.0
 71
     5
 72
     1
  1
タイプ
 73
     1
 44
1.0
1001
ACAD
1000
MTEXTBEGIN
1070
    73
1070
     1
1070
    44
1040
1.0
1070
    74
1070
     0
1000
MTEXTEND
  0
MTEXT
  5
54700
330
1F
100
AcDbEntity
  8
AM_6
100
AcDbMText
 10
6354.17467570105
 20
-4516.479336884236
 30
0.0
 40
3.200000000000001
 41
0.0
 71
     5
 72
     1
  1
A
 73
     1
 44
1.0
1001
ACAD
1000
MTEXTBEGIN
1070
    73
1070
     1
1070
    44
1040
1.0
1070
    74
1070
     0
1000
MTEXTEND
  0
MTEXT
  5
54701
330
1F
100
AcDbEntity
  8
AM_6
100
AcDbMText
 10
6354.174675701049
 20
-4546.479336884235
 30
0.0
 40
3.200000000000001
 41
0.0
 71
     5
 72
     1
  1
B
 73
     1
 44
1.0
1001
ACAD
1000
MTEXTBEGIN
1070
    73
1070
     1
1070
    44
1040
1.0
1070
    74
1070
     0
1000
MTEXTEND
  0
LINE
  5
54702
330
1F
100
AcDbEntity
  8
AM_2
100
AcDbLine
 10
6300.424675701048
 20
-4519.479336884233
 30
0.0
 11
6347.92467570105
 21
-4519.479336884234
 31
0.0
  0
LINE
  5
54703
330
1F
100
AcDbEntity
  8
AM_2
100
AcDbLine
 10
6300.424675701046
 20
-4525.479336884234
 30
0.0
 11
6347.924675701048
 21
-4525.479336884234
 31
0.0
  0
LINE
  5
54704
330
1F
100
AcDbEntity
  8
AM_2
100
AcDbLine
 10
6271.924675701048
 20
-4531.479336884233
 30
0.0
 11
6360.42467570105
 21
-4531.479336884236
 31
0.0
  0
LINE
  5
54705
330
1F
100
AcDbEntity
  8
AM_2
100
AcDbLine
 10
6300.424675701044
 20
-4537.479336884234
 30
0.0
 11
6347.92467570105
 21
-4537.479336884235
 31
0.0
  0
LINE
  5
54706
330
1F
100
AcDbEntity
  8
AM_2
100
AcDbLine
 10
6300.424675701044
 20
-4543.479336884234
 30
0.0
 11
6347.92467570105
 21
-4543.479336884235
 31
0.0
  0
LINE
  5
54707
330
1F
100
AcDbEntity
  8
AM_2
100
AcDbLine
 10
6300.424675701044
 20
-4549.479336884234
 30
0.0
 11
6347.92467570105
 21
-4549.479336884235
 31
0.0
  0
LINE
  5
54708
330
1F
100
AcDbEntity
  8
AM_2
100
AcDbLine
 10
6300.424675701044
 20
-4555.479336884235
 30
0.0
 11
6347.92467570105
 21
-4555.479336884235
 31
0.0
  0
LINE
  5
54709
330
1F
100
AcDbEntity
  8
AM_0
100
AcDbLine
 10
6271.924675701048
 20
-4561.479336884232
 30
0.0
 11
6360.42467570105
 21
-4561.479336884235
 31
0.0
  0
MTEXT
  5
5470A
330
1F
100
AcDbEntity
  8
AM_6
100
AcDbMText
 10
6334.174675701049
 20
-4495.479336884234
 30
0.0
 40
2.799999999999999
 41
27.5
 71
     5
 72
     5
  1
締代荷重
 73
     1
 44
1.0
1001
ACAD
1000
MTEXTBEGIN
1070
    73
1070
     1
1070
    44
1040
1.0
1070
    74
1070
     0
1000
MTEXTEND
  0
MTEXT
  5
5470B
330
1F
100
AcDbEntity
  8
AM_6
100
AcDbMText
 10
6334.174675701049
 20
-4499.479336884234
 30
0.0
 40
2.799999999999999
 41
27.5
 71
     5
 72
     5
  1
〔N±14（kgf±15）〕
 73
     1
 44
1.0
1001
ACAD
1000
MTEXTBEGIN
1070
    73
1070
     1
1070
    44
1040
1.0
1070
    74
1070
     0
1000
MTEXTEND
  0
MTEXT
  5
5470D
330
1F
100
AcDbEntity
  8
AM_6
100
AcDbMText
 10
6334.174675701049
 20
-4516.479336884233
 30
0.0
 40
3.200000000000001
 41
0.0
 71
     5
 72
     1
  1
93（9.5）
 73
     1
 44
1.0
1001
ACAD
1000
MTEXTBEGIN
1070
    73
1070
     1
1070
    44
1040
1.0
1070
    74
1070
     0
1000
MTEXTEND
  0
MTEXT
  5
5470E
330
1F
100
AcDbEntity
  8
AM_6
100
AcDbMText
 10
6334.174675701049
 20
-4522.479336884234
 30
0.0
 40
3.200000000000001
 41
0.0
 71
     5
 72
     1
  1
117（12.0）
 73
     1
 44
1.0
1001
ACAD
1000
MTEXTBEGIN
1070
    73
1070
     1
1070
    44
1040
1.0
1070
    74
1070
     0
1000
MTEXTEND
  0
MTEXT
  5
5470F
330
1F
100
AcDbEntity
  8
AM_6
100
AcDbMText
 10
6334.174675701047
 20
-4528.479336884235
 30
0.0
 40
3.200000000000001
 41
0.0
 71
     5
 72
     1
  1
142（14.5）
 73
     1
 44
1.0
1001
ACAD
1000
MTEXTBEGIN
1070
    73
1070
     1
1070
    44
1040
1.0
1070
    74
1070
     0
1000
MTEXTEND
  0
MTEXT
  5
54710
330
1F
100
AcDbEntity
  8
AM_6
100
AcDbMText
 10
6310.424675701049
 20
-4516.479336884234
 30
0.0
 40
3.200000000000001
 41
0.0
 71
     5
 72
     1
  1
41.5
 73
     1
 44
1.0
1001
ACAD
1000
MTEXTBEGIN
1070
    73
1070
     1
1070
    44
1040
1.0
1070
    74
1070
     0
1000
MTEXTEND
  0
MTEXT
  5
54711
330
1F
100
AcDbEntity
  8
AM_6
100
AcDbMText
 10
6310.424675701049
 20
-4522.479336884234
 30
0.0
 40
3.200000000000001
 41
0.0
 71
     5
 72
     1
  1
42.5
 73
     1
 44
1.0
1001
ACAD
1000
MTEXTBEGIN
1070
    73
1070
     1
1070
    44
1040
1.0
1070
    74
1070
     0
1000
MTEXTEND
  0
MTEXT
  5
54712
330
1F
100
AcDbEntity
  8
AM_6
100
AcDbMText
 10
6310.424675701049
 20
-4528.479336884235
 30
0.0
 40
3.200000000000001
 41
0.0
 71
     5
 72
     1
  1
43.5
 73
     1
 44
1.0
1001
ACAD
1000
MTEXTBEGIN
1070
    73
1070
     1
1070
    44
1040
1.0
1070
    74
1070
     0
1000
MTEXTEND
  0
MTEXT
  5
54714
330
1F
100
AcDbEntity
  8
AM_6
100
AcDbMText
 10
6285.895486507037
 20
-4516.479336884233
 30
0.0
 40
3.200000000000001
 41
0.0
 71
     5
 72
     1
  1
ELP-A119S
 73
     1
 44
1.0
1001
ACAD
1000
MTEXTBEGIN
1070
    73
1070
     1
1070
    44
1040
1.0
1070
    74
1070
     0
1000
MTEXTEND
  0
MTEXT
  5
54718
330
1F
100
AcDbEntity
  8
AM_6
100
AcDbMText
 10
6285.895486507037
 20
-4546.479336884234
 30
0.0
 40
3.200000000000001
 41
0.0
 71
     5
 72
     1
  1
ELP-B119S
 73
     1
 44
1.0
1001
ACAD
1000
MTEXTBEGIN
1070
    73
1070
     1
1070
    44
1040
1.0
1070
    74
1070
     0
1000
MTEXTEND
  0
MTEXT
  5
5471B
330
1F
100
AcDbEntity
  8
AM_6
100
AcDbMText
 10
6310.424675701049
 20
-4534.479336884233
 30
0.0
 40
3.200000000000001
 41
0.0
 71
     5
 72
     1
  1
39.5
 73
     1
 44
1.0
1001
ACAD
1000
MTEXTBEGIN
1070
    73
1070
     1
1070
    44
1040
1.0
1070
    74
1070
     0
1000
MTEXTEND
  0
MTEXT
  5
5471C
330
1F
100
AcDbEntity
  8
AM_6
100
AcDbMText
 10
6310.424675701049
 20
-4540.479336884232
 30
0.0
 40
3.200000000000001
 41
0.0
 71
     5
 72
     1
  1
40.5
 73
     1
 44
1.0
1001
ACAD
1000
MTEXTBEGIN
1070
    73
1070
     1
1070
    44
1040
1.0
1070
    74
1070
     0
1000
MTEXTEND
  0
MTEXT
  5
5471D
330
1F
100
AcDbEntity
  8
AM_6
100
AcDbMText
 10
6310.424675701049
 20
-4546.479336884233
 30
0.0
 40
3.200000000000001
 41
0.0
 71
     5
 72
     1
  1
41.5
 73
     1
 44
1.0
1001
ACAD
1000
MTEXTBEGIN
1070
    73
1070
     1
1070
    44
1040
1.0
1070
    74
1070
     0
1000
MTEXTEND
  0
MTEXT
  5
5471E
330
1F
100
AcDbEntity
  8
AM_6
100
AcDbMText
 10
6310.424675701049
 20
-4552.479336884233
 30
0.0
 40
3.200000000000001
 41
0.0
 71
     5
 72
     1
  1
42.5
 73
     1
 44
1.0
1001
ACAD
1000
MTEXTBEGIN
1070
    73
1070
     1
1070
    44
1040
1.0
1070
    74
1070
     0
1000
MTEXTEND
  0
MTEXT
  5
5471F
330
1F
100
AcDbEntity
  8
AM_6
100
AcDbMText
 10
6310.424675701049
 20
-4558.479336884234
 30
0.0
 40
3.200000000000001
 41
0.0
 71
     5
 72
     1
  1
43.5
 73
     1
 44
1.0
1001
ACAD
1000
MTEXTBEGIN
1070
    73
1070
     1
1070
    44
1040
1.0
1070
    74
1070
     0
1000
MTEXTEND
  0
MTEXT
  5
54720
330
1F
100
AcDbEntity
  8
AM_6
100
AcDbMText
 10
6334.174675701049
 20
-4534.479336884236
 30
0.0
 40
3.200000000000001
 41
0.0
 71
     5
 72
     1
  1
0
 73
     1
 44
1.0
1001
ACAD
1000
MTEXTBEGIN
1070
    73
1070
     1
1070
    44
1040
1.0
1070
    74
1070
     0
1000
MTEXTEND
  0
MTEXT
  5
54721
330
1F
100
AcDbEntity
  8
AM_6
100
AcDbMText
 10
6334.174675701049
 20
-4540.479336884235
 30
0.0
 40
3.200000000000001
 41
0.0
 71
     5
 72
     1
  1
63（6.5）
 73
     1
 44
1.0
1001
ACAD
1000
MTEXTBEGIN
1070
    73
1070
     1
1070
    44
1040
1.0
1070
    74
1070
     0
1000
MTEXTEND
  0
MTEXT
  5
54722
330
1F
100
AcDbEntity
  8
AM_6
100
AcDbMText
 10
6334.174675701049
 20
-4546.479336884234
 30
0.0
 40
3.200000000000001
 41
0.0
 71
     5
 72
     1
  1
93（9.5）
 73
     1
 44
1.0
1001
ACAD
1000
MTEXTBEGIN
1070
    73
1070
     1
1070
    44
1040
1.0
1070
    74
1070
     0
1000
MTEXTEND
  0
MTEXT
  5
54723
330
1F
100
AcDbEntity
  8
AM_6
100
AcDbMText
 10
6334.174675701049
 20
-4552.479336884236
 30
0.0
 40
3.200000000000001
 41
0.0
 71
     5
 72
     1
  1
117（12.0）
 73
     1
 44
1.0
1001
ACAD
1000
MTEXTBEGIN
1070
    73
1070
     1
1070
    44
1040
1.0
1070
    74
1070
     0
1000
MTEXTEND
  0
MTEXT
  5
54724
330
1F
100
AcDbEntity
  8
AM_6
100
AcDbMText
 10
6334.174675701049
 20
-4558.479336884235
 30
0.0
 40
3.200000000000001
 41
0.0
 71
     5
 72
     1
  1
142（14.5）
 73
     1
 44
1.0
1001
ACAD
1000
MTEXTBEGIN
1070
    73
1070
     1
1070
    44
1040
1.0
1070
    74
1070
     0
1000
MTEXTEND
  0
LINE
  5
54A95
330
1F
100
AcDbEntity
  8
AM_2
370
    13
100
AcDbLine
 10
6106.424675701049
 20
-4521.479336884235
 30
0.0
 11
6106.424675701048
 21
-4561.479336884235
 31
0.0
  0
LINE
  5
54A96
330
1F
100
AcDbEntity
  8
AM_2
370
    13
100
AcDbLine
 10
6086.424675701049
 20
-4529.479336884235
 30
0.0
 11
6173.424675701049
 21
-4529.479336884235
 31
0.0
  0
LINE
  5
54A97
330
1F
100
AcDbEntity
  8
AM_2
370
    13
100
AcDbLine
 10
6086.424675701049
 20
-4537.479336884234
 30
0.0
 11
6173.424675701049
 21
-4537.479336884234
 31
0.0
  0
LINE
  5
54A98
330
1F
100
AcDbEntity
  8
AM_2
370
    13
100
AcDbLine
 10
6086.424675701049
 20
-4545.479336884234
 30
0.0
 11
6173.424675701049
 21
-4545.479336884234
 31
0.0
  0
LINE
  5
54A99
330
1F
100
AcDbEntity
  8
AM_2
370
    13
100
AcDbLine
 10
6086.424675701049
 20
-4553.479336884235
 30
0.0
 11
6173.424675701049
 21
-4553.479336884235
 31
0.0
  0
LINE
  5
54A9A
330
1F
100
AcDbEntity
  8
AM_1
100
AcDbLine
 10
6086.424675701049
 20
-4521.479336884235
 30
0.0
 11
6086.424675701049
 21
-4561.479336884235
 31
0.0
  0
LINE
  5
54A9B
330
1F
100
AcDbEntity
  8
AM_1
100
AcDbLine
 10
6086.424675701049
 20
-4521.479336884235
 30
0.0
 11
6173.424675701049
 21
-4521.479336884235
 31
0.0
  0
LINE
  5
54A9C
330
1F
100
AcDbEntity
  8
AM_1
100
AcDbLine
 10
6173.424675701049
 20
-4521.479336884235
 30
0.0
 11
6173.424675701048
 21
-4561.479336884235
 31
0.0
  0
TEXT
  5
54A9D
330
1F
100
AcDbEntity
  8
AM_6
100
AcDbText
 10
6092.08167570105
 20
-4527.079336884235
 30
0.0
 40
3.2
  1
品　名
 41
0.85537027
100
AcDbText
  0
TEXT
  5
54A9E
330
1F
100
AcDbEntity
  8
AM_6
100
AcDbText
 10
6092.08167570105
 20
-4535.079336884235
 30
0.0
 40
3.2
  1
品　番
 41
0.85537027
100
AcDbText
  0
TEXT
  5
54A9F
330
1F
100
AcDbEntity
  8
AM_6
100
AcDbText
 10
6092.08167570105
 20
-4543.079336884235
 30
0.0
 40
3.2
  1
材　質
 41
0.85537027
100
AcDbText
  0
TEXT
  5
54AA0
330
1F
100
AcDbEntity
  8
AM_6
100
AcDbText
 10
6092.08167570105
 20
-4551.079336884234
 30
0.0
 40
3.2
  1
仕上げ
 41
0.85537027
100
AcDbText
  0
TEXT
  5
54AA1
330
1F
100
AcDbEntity
  8
AM_6
100
AcDbText
 10
6109.281675701049
 20
-4527.079336884235
 30
0.0
 40
3.2
  1
パチン錠
 41
0.84306961
100
AcDbText
  0
TEXT
  5
54AA2
330
1F
100
AcDbEntity
  8
AM_6
100
AcDbText
 10
6109.281675701049
 20
-4535.079336884235
 30
0.0
 40
3.2
  1
ELP-A（B）119S
 41
0.84741102
100
AcDbText
  0
TEXT
  5
54AA3
330
1F
100
AcDbEntity
  8
AM_6
100
AcDbText
 10
6109.281675701049
 20
-4543.079336884235
 30
0.0
 40
3.2
  1
ステンレス
 41
0.84634979
100
AcDbText
  0
TEXT
  5
54AA4
330
1F
100
AcDbEntity
  8
AM_6
100
AcDbText
 10
6109.281675701049
 20
-4551.079336884234
 30
0.0
 40
3.2
  1
光沢バレル研磨
 41
0.84350122
100
AcDbText
  0
TEXT
  5
54AA5
330
1F
100
AcDbEntity
  8
AM_6
100
AcDbText
 10
6092.08167570105
 20
-4559.079336884234
 30
0.0
 40
3.2
  1
備　考
 41
0.85537027
100
AcDbText
  0
TEXT
  5
54AA7
330
1F
100
AcDbEntity
  8
AM_6
100
AcDbText
 10
6109.281675701049
 20
-4559.079336884234
 30
0.0
 40
3.2
  1
P寸法は43.5をこえないようにして下さい
 41
0.84350122
100
AcDbText
  0
LINE
  5
55109
330
1F
100
AcDbEntity
  8
AM_1
100
AcDbLine
 10
6086.424675701049
 20
-4561.479336884235
 30
0.0
 11
6173.424675701049
 21
-4561.479336884235
 31
0.0
  0
DIMENSION
  5
5510B
330
1F
100
AcDbEntity
  8
AM_5
100
AcDbDimension
  2
*D31
 10
6280.254291466458
 20
-4440.480601329275
 30
0.0
 11
6262.726429668564
 21
-4454.584874109523
 31
0.0
 70
   163
  1
2-<>
 71
     5
 42
4.500000000004092
  3
SYS$3
100
AcDbDiametricDimension
 15
6277.532176751881
 25
-4444.063908667575
 35
0.0
 40
0.0
1001
ACAD
1000
DSTYLE
1002
{
1070
    41
1040
1.0
1070
   172
1070
     1
1070
   342
1005
6C4
1002
}
  0
ENDSEC
  0
SECTION
  2
OBJECTS
  0
DICTIONARY
  5
C
330
0
100
AcDbDictionary
281
     1
  3
ACAD_2007HEADERVARS_RT
350
5B2AA
  3
ACAD_BGPLOT_KEY
350
AB06
  3
ACAD_COLOR
350
A91D
  3
ACAD_GROUP
350
D
  3
ACAD_LAYOUT
350
1A
  3
ACAD_MATERIAL
350
A91C
  3
ACAD_MLINESTYLE
350
17
  3
ACAD_PLOTSETTINGS
350
19
  3
ACAD_PLOTSTYLENAME
350
E
  3
ACAD_TABLESTYLE
350
AAB9
  3
ACAD_VISUALSTYLE
350
B0F1
  3
AcAsAppObject
350
3DA1
  3
ACASGREF_MASTER
350
3DE9
  3
AcDbVariableDictionary
350
34
  3
AcmDictionary
350
47
  3
AD_GREF_MODULE
350
3DEA
  3
AD_MAPI_MODULE
350
3E06
  3
AMG
350
2B
  3
AMGSNAPSETTINGS
350
7D
  3
ASE_INDEX_DICTIONARY
350
57912
  3
DWGPROPS
350
5B2A9
  3
MAPISURF_MODULE
350
3DEB
  0
DICTIONARY
  5
3F95
330
2
100
AcDbDictionary
280
     1
281
     1
  3
ACAD_LAYERFILTERS
360
5369F
  3
ACAD_LAYERSTATES
360
3F96
  3
ACLYDICTIONARY
360
5369E
  3
AMLAYER_GROUPCOLORS
360
AAB4
  0
DICTIONARY
  5
2E416
330
2E415
100
AcDbDictionary
280
     1
281
     1
  3
ADSK_XREC_LAYER_RECONCILED
360
2E417
  0
DICTIONARY
  5
8A
330
1F
100
AcDbDictionary
280
     1
281
     1
  3
ACAD_SORTENTS
360
B1BA
  0
DICTIONARY
  5
5B2AA
102
{ACAD_REACTORS
330
C
102
}
330
C
100
AcDbDictionary
281
     1
  3
DIMARCSYM
350
5B2AB
  0
DICTIONARY
  5
AB06
102
{ACAD_REACTORS
330
C
102
}
330
C
100
AcDbDictionary
280
     1
281
     1
  0
DICTIONARY
  5
A91D
102
{ACAD_REACTORS
330
C
102
}
330
C
100
AcDbDictionary
281
     1
  0
DICTIONARY
  5
D
102
{ACAD_REACTORS
330
C
102
}
330
C
100
AcDbDictionary
281
     1
  0
DICTIONARY
  5
1A
102
{ACAD_REACTORS
330
C
102
}
330
C
100
AcDbDictionary
281
     1
  3
Model
350
22
  3
ﾚｲｱｳﾄ1
350
1E
  3
ﾚｲｱｳﾄ2
350
26
  0
DICTIONARY
  5
A91C
102
{ACAD_REACTORS
330
C
102
}
330
C
100
AcDbDictionary
281
     1
  3
ByBlock
350
B0EF
  3
ByLayer
350
B0EE
  3
Global
350
B0F0
  0
DICTIONARY
  5
17
102
{ACAD_REACTORS
330
C
102
}
330
C
100
AcDbDictionary
281
     1
  3
Standard
350
18
  0
DICTIONARY
  5
19
102
{ACAD_REACTORS
330
C
102
}
330
C
100
AcDbDictionary
281
     1
  0
ACDBDICTIONARYWDFLT
  5
E
102
{ACAD_REACTORS
330
C
102
}
330
C
100
AcDbDictionary
281
     1
  3
Normal
350
F
100
AcDbDictionaryWithDefault
340
F
  0
DICTIONARY
  5
AAB9
102
{ACAD_REACTORS
330
C
102
}
330
C
100
AcDbDictionary
281
     1
  3
Standard
350
AABA
  0
DICTIONARY
  5
B0F1
102
{ACAD_REACTORS
330
C
102
}
330
C
100
AcDbDictionary
281
     1
  3
2dWireframe
350
B0F7
  3
3D Hidden
350
B0F9
  3
3dWireframe
350
B0F8
  3
Basic
350
B0F6
  3
Brighten
350
B0FD
  3
ColorChange
350
B101
  3
Conceptual
350
B0FA
  3
Dim
350
B0FC
  3
Facepattern
350
B100
  3
Flat
350
B0F2
  3
FlatWithEdges
350
B0F3
  3
Gouraud
350
B0F4
  3
GouraudWithEdges
350
B0F5
  3
Linepattern
350
B0FF
  3
Realistic
350
B0FB
  3
Thicken
350
B0FE
  0
ACAD_PROXY_OBJECT
  5
3DA1
102
{ACAD_REACTORS
330
C
102
}
330
C
100
AcDbProxyObject
 90
      499
 91
      576
 95
   917527
 70
     0
 93
       10
310
407F
 94
        0
1001
ACAD
1000
AcRTDxfName
1000
ASAPP
  0
ACAD_PROXY_OBJECT
  5
3DE9
102
{ACAD_REACTORS
330
C
102
}
330
C
100
AcDbProxyObject
 90
      499
 91
      581
 95
   917527
 70
     0
 93
       34
310
010000407F
 94
        0
1001
ACAD
1000
AcRTDxfName
1000
ACASGREFMASTER
  0
DICTIONARY
  5
34
102
{ACAD_REACTORS
330
C
102
}
330
C
100
AcDbDictionary
281
     1
  3
CTABLESTYLE
350
AAF3
  3
DIMASSOC
350
A10C
  3
FIELDEVAL
350
AB07
  3
INDEXCTL
350
35
  3
SORTENTS
350
194C
  0
DICTIONARY
  5
47
102
{ACAD_REACTORS
330
C
102
}
330
C
100
AcDbDictionary
281
     1
  3
AcmBOM
350
7E8
  3
AcmStdDictionary
350
4C
  3
AMDTSECTSYM_ARROWCOLOR
350
A929
  0
ACAD_PROXY_OBJECT
  5
3DEA
102
{ACAD_REACTORS
330
C
102
}
330
C
100
AcDbProxyObject
 90
      499
 91
      582
 95
   917527
 70
     0
 93
      114
310
00000043800000000000000000003F
 94
        0
1001
ACAD
1000
AcRTDxfName
1000
ACADGREFMODULE
  0
ACAD_PROXY_OBJECT
  5
3E06
102
{ACAD_REACTORS
330
C
102
}
330
C
100
AcDbProxyObject
 90
      499
 91
      594
 95
   917527
 70
     0
 93
       34
310
05000044FF
 94
        0
1001
ACAD
1000
AcRTDxfName
1000
MAPIADMODULE
  0
DICTIONARY
  5
2B
102
{ACAD_REACTORS
330
C
102
}
330
C
100
AcDbDictionary
281
     1
  0
DICTIONARY
  5
7D
102
{ACAD_REACTORS
330
C
102
}
330
C
100
AcDbDictionary
281
     1
  0
DICTIONARY
  5
57912
102
{ACAD_REACTORS
330
C
102
}
330
C
100
AcDbDictionary
281
     1
  3
ASEBlockHierarchyIndexRecord
350
57913
1001
DCO15
1040
1757428023.343
  0
XRECORD
  5
5B2A9
102
{ACAD_REACTORS
330
C
102
}
330
C
100
AcDbXrecord
280
     1
  1
DWGPROPS COOKIE
  2

  3

  4

  6

  7

  8
Administrator
  9

300
AmdtFileType=84
301
=
302
=
303
=
304
=
305
=
306
=
307
=
308
=
309
=
 40
7.980924618055555
 41
2455567.680725081
 42
2456268.496912801
  1

 90
        1
  0
ACAD_PROXY_OBJECT
  5
3DEB
102
{ACAD_REACTORS
330
C
102
}
330
C
100
AcDbProxyObject
 90
      499
 91
      583
 95
   917527
 70
     0
 93
        8
310
047E
 94
        0
1001
ACAD
1000
AcRTDxfName
1000
AMDTMAPISURFMOUDULE
  0
DICTIONARY
  5
5369F
102
{ACAD_REACTORS
330
3F95
102
}
330
3F95
100
AcDbDictionary
281
     1
  0
DICTIONARY
  5
3F96
102
{ACAD_REACTORS
330
3F95
102
}
330
3F95
100
AcDbDictionary
281
     1
  3
20011210
350
3FB7
  0
DICTIONARY
  5
5369E
102
{ACAD_REACTORS
330
3F95
102
}
330
3F95
100
AcDbDictionary
281
     1
1001
ACAD
1000
<All
  0
DICTIONARY
  5
AAB4
102
{ACAD_REACTORS
330
3F95
102
}
330
3F95
100
AcDbDictionary
280
     1
281
     1
  0
XRECORD
  5
2E417
102
{ACAD_REACTORS
330
2E416
102
}
330
2E416
100
AcDbXrecord
280
     1
290
     1
  0
SORTENTSTABLE
  5
B1BA
102
{ACAD_REACTORS
330
8A
102
}
330
8A
100
AcDbSortentsTable
330
1F
331
32D1F
  5
32D3C
331
53B70
  5
53B80
331
53DA2
  5
54093
331
53CFD
  5
53D0D
331
53CB0
  5
53CC0
331
53C00
  5
53C10
331
53B53
  5
53B63
331
4E0E9
  5
4E1D4
331
54A9D
  5
5519C
331
53D8D
  5
53DA1
331
53D40
  5
53D50
331
53CE0
  5
53CF0
331
53C9B
  5
53CAB
331
53BE3
  5
53BF3
331
54718
  5
54A9A
331
53D70
  5
53D80
331
53D23
  5
53D33
331
53CC3
  5
53CD3
331
53C7E
  5
53C8E
331
53C31
  5
53C41
331
53C13
  5
53C23
331
53BC6
  5
53BD6
331
34538
  5
34550
331
53B81
  5
53B91
331
546FB
  5
5470B
331
53D53
  5
53D63
331
53D0E
  5
53D1E
331
53C61
  5
53C71
331
53BF6
  5
53C06
331
53BB1
  5
53BC1
331
31B3B
  5
3273C
331
53B64
  5
53B74
331
53D36
  5
53D46
331
53CF1
  5
53D01
331
53C44
  5
53C54
331
53B94
  5
53BA4
331
4281D
  5
42E8E
331
53D81
  5
53D91
331
53CD4
  5
53CE4
331
53C24
  5
53C34
331
53B77
  5
53B87
331
5184D
  5
B8D8
331
53D64
  5
53D74
331
53D04
  5
53D14
331
53CB7
  5
53CC7
331
53C72
  5
53C82
331
53C07
  5
53C17
331
53BBA
  5
53BCA
331
53B5A
  5
53B6A
331
54AA4
  5
55223
331
546EF
  5
54700
331
53D94
  5
54089
331
53D47
  5
53D57
331
53CE7
  5
53CF7
331
53CA2
  5
53CB2
331
53C55
  5
53C65
331
53BEA
  5
53BFA
331
53BA5
  5
53BB5
331
55109
  5
55227
331
5471F
  5
54A9F
331
53D77
  5
53D87
331
53D2A
  5
53D3A
331
53C85
  5
53C95
331
53C38
  5
53C48
331
53BCD
  5
53BDD
331
53B88
  5
53B98
331
54702
  5
54713
331
53D5A
  5
53D6A
331
53D15
  5
53D25
331
53CC8
  5
53CD8
331
53C68
  5
53C78
331
53C18
  5
53C28
331
53B6B
  5
53B7B
331
51841
  5
B5E2
331
53D3D
  5
53D4D
331
53CF8
  5
53D08
331
53CAB
  5
53CBB
331
53C4B
  5
53C5B
331
53BFB
  5
53C0B
331
53B9B
  5
53BAB
331
53B4E
  5
53B5E
331
54A98
  5
5510A
331
53D88
  5
53D98
331
53CDB
  5
53CEB
331
53C96
  5
53CA6
331
53C2B
  5
53C3B
331
53BDE
  5
53BEE
331
53B7E
  5
53B8E
331
53D6B
  5
53D7B
331
53CBE
  5
53CCE
331
53C79
  5
53C89
331
53C0E
  5
53C1E
331
53BC1
  5
53BD1
331
546F6
  5
54706
331
53D4E
  5
53D5E
331
53D09
  5
53D19
331
53C5C
  5
53C6C
331
53BF1
  5
53C01
331
53BAC
  5
53BBC
331
53D7E
  5
53D8E
331
53D31
  5
53D41
331
53CEC
  5
53CFC
331
53C8C
  5
53C9C
331
53C3F
  5
53C4F
331
53BD4
  5
53BE4
331
53B8F
  5
53B9F
331
53D1C
  5
53D2C
331
53CCF
  5
53CDF
331
53C6F
  5
53C7F
331
53C1F
  5
53C2F
331
32D21
  5
32D3E
331
53B72
  5
53B82
331
53DA4
  5
54095
331
53CFF
  5
53D0F
331
53CB2
  5
53CC2
331
53C02
  5
53C12
331
53B55
  5
53B65
331
4E0EB
  5
4E1D6
331
54A9F
  5
5519E
331
53D8F
  5
53DA3
331
53D42
  5
53D52
331
53CE2
  5
53CF2
331
53C9D
  5
53CAD
331
53C50
  5
53C60
331
53BE5
  5
53BF5
331
53BA0
  5
53BB0
331
53D72
  5
53D82
331
53D25
  5
53D35
331
53CC5
  5
53CD5
331
53C80
  5
53C90
331
53C33
  5
53C43
331
53C15
  5
53C25
331
53BC8
  5
53BD8
331
53B83
  5
53B93
331
546FD
  5
5470D
331
53D55
  5
53D65
331
53D10
  5
53D20
331
53C63
  5
53C73
331
53BB3
  5
53BC3
331
31B3D
  5
3273E
331
53B66
  5
53B76
331
53D98
  5
5408D
331
53D38
  5
53D48
331
53CF3
  5
53D03
331
53C46
  5
53C56
331
53B96
  5
53BA6
331
4281F
  5
42E90
331
53D83
  5
53D93
331
53CD6
  5
53CE6
331
53C91
  5
53CA1
331
53C26
  5
53C36
331
53BD9
  5
53BE9
331
53B79
  5
53B89
331
5470E
  5
54724
331
53D66
  5
53D76
331
53D06
  5
53D16
331
53CB9
  5
53CC9
331
53C74
  5
53C84
331
53C09
  5
53C19
331
53BBC
  5
53BCC
331
53B5C
  5
53B6C
331
546F1
  5
54702
331
53D96
  5
5408B
331
53D49
  5
53D59
331
53CA4
  5
53CB4
331
53C57
  5
53C67
331
53BEC
  5
53BFC
331
53BA7
  5
53BB7
331
31B31
  5
32739
331
5510B
  5
5522A
331
54721
  5
54AA1
331
53D79
  5
53D89
331
53D2C
  5
53D3C
331
53C87
  5
53C97
331
53C3A
  5
53C4A
331
53BCF
  5
53BDF
331
53B8A
  5
53B9A
331
54704
  5
54715
331
53D5C
  5
53D6C
331
53D17
  5
53D27
331
53CCA
  5
53CDA
331
53C6A
  5
53C7A
331
53C1A
  5
53C2A
331
53B6D
  5
53B7D
331
53D3F
  5
53D4F
331
53CFA
  5
53D0A
331
53CAD
  5
53CBD
331
53C4D
  5
53C5D
331
53BFD
  5
53C0D
331
53B9D
  5
53BAD
331
53B50
  5
53B60
331
54A9A
  5
55133
331
53D8A
  5
53D9A
331
53CDD
  5
53CED
331
53C98
  5
53CA8
331
53C2D
  5
53C3D
331
53BE0
  5
53BF0
331
53D6D
  5
53D7D
331
53D20
  5
53D30
331
53CC0
  5
53CD0
331
53C7B
  5
53C8B
331
53C10
  5
53C20
331
53BC3
  5
53BD3
331
34535
  5
3454D
331
546F8
  5
54708
331
53D50
  5
53D60
331
53D0B
  5
53D1B
331
53C5E
  5
53C6E
331
53BF3
  5
53C03
331
53BAE
  5
53BBE
331
53B61
  5
53B71
331
53D33
  5
53D43
331
53CEE
  5
53CFE
331
53C8E
  5
53C9E
331
53C41
  5
53C51
331
53BD6
  5
53BE6
331
53B91
  5
53BA1
331
53D1E
  5
53D2E
331
53CD1
  5
53CE1
331
53C21
  5
53C31
331
53B74
  5
53B84
331
5184A
  5
B8D5
331
54709
  5
54720
331
53DA6
  5
54097
331
53D61
  5
53D71
331
53D01
  5
53D11
331
53CB4
  5
53CC4
331
53C04
  5
53C14
331
53B57
  5
53B67
331
54AA1
  5
551D9
331
53D91
  5
53DA5
331
53D44
  5
53D54
331
53CE4
  5
53CF4
331
53C9F
  5
53CAF
331
53C52
  5
53C62
331
53BE7
  5
53BF7
331
53BA2
  5
53BB2
331
5471C
  5
54A9C
331
53D74
  5
53D84
331
53D27
  5
53D37
331
53CC7
  5
53CD7
331
53C82
  5
53C92
331
53C35
  5
53C45
331
53C17
  5
53C27
331
53BCA
  5
53BDA
331
53B85
  5
53B95
331
546FF
  5
5470F
331
53D57
  5
53D67
331
53D12
  5
53D22
331
53C65
  5
53C75
331
53BB5
  5
53BC5
331
53B68
  5
53B78
331
53D9A
  5
5408F
331
53D3A
  5
53D4A
331
53CF5
  5
53D05
331
53CA8
  5
53CB8
331
53C48
  5
53C58
331
53BF8
  5
53C08
331
53B98
  5
53BA8
331
42821
  5
42E92
331
54A95
  5
54AA5
331
53D85
  5
53D95
331
53CD8
  5
53CE8
331
53C93
  5
53CA3
331
53C28
  5
53C38
331
53BDB
  5
53BEB
331
53B7B
  5
53B8B
331
54710
  5
54A96
331
53D68
  5
53D78
331
53CBB
  5
53CCB
331
53C76
  5
53C86
331
53C0B
  5
53C1B
331
53BBE
  5
53BCE
331
53B5E
  5
53B6E
331
4E0F4
  5
4E1DF
331
546F3
  5
54704
331
53D4B
  5
53D5B
331
53CA6
  5
53CB6
331
53C59
  5
53C69
331
53BEE
  5
53BFE
331
53BA9
  5
53BB9
331
31B33
  5
3273B
331
54723
  5
54AA3
331
53D7B
  5
53D8B
331
53D2E
  5
53D3E
331
53CE9
  5
53CF9
331
53C89
  5
53C99
331
53C3C
  5
53C4C
331
53BD1
  5
53BE1
331
53B8C
  5
53B9C
331
54706
  5
54717
331
53D5E
  5
53D6E
331
53D19
  5
53D29
331
53CCC
  5
53CDC
331
53C6C
  5
53C7C
331
53C1C
  5
53C2C
331
32D1E
  5
32D3B
331
53B6F
  5
53B7F
331
53DA1
  5
54092
331
53CFC
  5
53D0C
331
53CAF
  5
53CBF
331
53C4F
  5
53C5F
331
53BFF
  5
53C0F
331
53B9F
  5
53BAF
331
53B52
  5
53B62
331
4E0E8
  5
4E1D3
331
54A9C
  5
5519B
331
53D8C
  5
53D9C
331
53CDF
  5
53CEF
331
53C9A
  5
53CAA
331
53C2F
  5
53C3F
331
53BE2
  5
53BF2
331
53D6F
  5
53D7F
331
53D22
  5
53D32
331
53CC2
  5
53CD2
331
53C7D
  5
53C8D
331
53C30
  5
53C40
331
53C12
  5
53C22
331
53BC5
  5
53BD5
331
53B80
  5
53B90
331
546FA
  5
5470A
331
53D52
  5
53D62
331
53D0D
  5
53D1D
331
53C60
  5
53C70
331
53BF5
  5
53C05
331
53BB0
  5
53BC0
331
53B63
  5
53B73
331
53D35
  5
53D45
331
53CF0
  5
53D00
331
53C43
  5
53C53
331
53B93
  5
53BA3
331
4281C
  5
42E8D
331
53D80
  5
53D90
331
53CD3
  5
53CE3
331
53C23
  5
53C33
331
53B76
  5
53B86
331
5184C
  5
B8D7
331
5470B
  5
54722
331
53D63
  5
53D73
331
53D03
  5
53D13
331
53CB6
  5
53CC6
331
53C71
  5
53C81
331
53C06
  5
53C16
331
53BB9
  5
53BC9
331
53B59
  5
53B69
331
54AA3
  5
55220
331
53D93
  5
54067
331
53D46
  5
53D56
331
53CE6
  5
53CF6
331
53CA1
  5
53CB1
331
53C54
  5
53C64
331
53BE9
  5
53BF9
331
53BA4
  5
53BB4
331
5471E
  5
54A9E
331
53D76
  5
53D86
331
53D29
  5
53D39
331
53C84
  5
53C94
331
53C37
  5
53C47
331
53BCC
  5
53BDC
331
53B87
  5
53B97
331
54701
  5
54712
331
53D59
  5
53D69
331
53D14
  5
53D24
331
53C67
  5
53C77
331
53BB7
  5
53BC7
331
53B6A
  5
53B7A
331
51840
  5
B5AE
331
53D9C
  5
54091
331
53D3C
  5
53D4C
331
53CF7
  5
53D07
331
53CAA
  5
53CBA
331
53C4A
  5
53C5A
331
53BFA
  5
53C0A
331
53B9A
  5
53BAA
331
53B4D
  5
53B5D
331
42823
  5
42E94
331
54A97
  5
55109
331
53D87
  5
53D97
331
53CDA
  5
53CEA
331
53C95
  5
53CA5
331
53C2A
  5
53C3A
331
53BDD
  5
53BED
331
53B7D
  5
53B8D
331
54712
  5
54A98
331
53D6A
  5
53D7A
331
53CBD
  5
53CCD
331
53C78
  5
53C88
331
53C0D
  5
53C1D
331
53BC0
  5
53BD0
331
4E0F6
  5
4E1E1
331
546F5
  5
54705
331
53D4D
  5
53D5D
331
53D08
  5
53D18
331
53C5B
  5
53C6B
331
53BF0
  5
53C00
331
53BAB
  5
53BBB
331
53D7D
  5
53D8D
331
53D30
  5
53D40
331
53CEB
  5
53CFB
331
53C8B
  5
53C9B
331
53C3E
  5
53C4E
331
53BD3
  5
53BE3
331
53B8E
  5
53B9E
331
53D1B
  5
53D2B
331
53CCE
  5
53CDE
331
53C6E
  5
53C7E
331
53C1E
  5
53C2E
331
53B71
  5
53B81
331
53DA3
  5
54094
331
53CFE
  5
53D0E
331
53CB1
  5
53CC1
331
53C01
  5
53C11
331
53B54
  5
53B64
331
4E0EA
  5
4E1D5
331
54A9E
  5
5519D
331
53D8E
  5
53DA2
331
53D41
  5
53D51
331
53CE1
  5
53CF1
331
53C9C
  5
53CAC
331
53BE4
  5
53BF4
331
53D71
  5
53D81
331
53D24
  5
53D34
331
53CC4
  5
53CD4
331
53C7F
  5
53C8F
331
53C32
  5
53C42
331
53C14
  5
53C24
331
53BC7
  5
53BD7
331
53B82
  5
53B92
331
546FC
  5
5470C
331
53D54
  5
53D64
331
53D0F
  5
53D1F
331
53C62
  5
53C72
331
53BF7
  5
53C07
331
53BB2
  5
53BC2
331
31B3C
  5
3273D
331
53B65
  5
53B75
331
54067
  5
54098
331
53D37
  5
53D47
331
53CF2
  5
53D02
331
53C45
  5
53C55
331
53B95
  5
53BA5
331
4281E
  5
42E8F
331
53D82
  5
53D92
331
53CD5
  5
53CE5
331
53C90
  5
53CA0
331
53C25
  5
53C35
331
53BD8
  5
53BE8
331
53B78
  5
53B88
331
5470D
  5
54723
331
53D65
  5
53D75
331
53D05
  5
53D15
331
53CB8
  5
53CC8
331
53C73
  5
53C83
331
53C08
  5
53C18
331
53BBB
  5
53BCB
331
53B5B
  5
53B6B
331
54AA5
  5
55225
331
546F0
  5
54701
331
53D95
  5
5408A
331
53D48
  5
53D58
331
53CA3
  5
53CB3
331
53C56
  5
53C66
331
53BEB
  5
53BFB
331
53BA6
  5
53BB6
331
31B30
  5
32738
331
54720
  5
54AA0
331
53D78
  5
53D88
331
53D2B
  5
53D3B
331
53C86
  5
53C96
331
53C39
  5
53C49
331
53BCE
  5
53BDE
331
53B89
  5
53B99
331
54703
  5
54714
331
53D5B
  5
53D6B
331
53D16
  5
53D26
331
53CC9
  5
53CD9
331
53C69
  5
53C79
331
53C19
  5
53C29
331
53B6C
  5
53B7C
331
51842
  5
B5E3
331
53D3E
  5
53D4E
331
53CF9
  5
53D09
331
53CAC
  5
53CBC
331
53C4C
  5
53C5C
331
53BFC
  5
53C0C
331
53B9C
  5
53BAC
331
53B4F
  5
53B5F
331
54A99
  5
5510B
331
53D89
  5
53D99
331
53CDC
  5
53CEC
331
53C97
  5
53CA7
331
53C2C
  5
53C3C
331
53BDF
  5
53BEF
331
53B7F
  5
53B8F
331
54714
  5
54A99
331
53D6C
  5
53D7C
331
53CBF
  5
53CCF
331
53C7A
  5
53C8A
331
53C0F
  5
53C1F
331
53BC2
  5
53BD2
331
34534
  5
3454C
331
546F7
  5
54707
331
53D4F
  5
53D5F
331
53D0A
  5
53D1A
331
53C5D
  5
53C6D
331
53BF2
  5
53C02
331
53BAD
  5
53BBD
331
53B60
  5
53B70
331
53D7F
  5
53D8F
331
53D32
  5
53D42
331
53CED
  5
53CFD
331
53C8D
  5
53C9D
331
53C40
  5
53C50
331
53BD5
  5
53BE5
331
53B90
  5
53BA0
331
53D1D
  5
53D2D
331
53CD0
  5
53CE0
331
53C20
  5
53C30
331
53B73
  5
53B83
331
54708
  5
5471D
331
53DA5
  5
54096
331
53D60
  5
53D70
331
53D00
  5
53D10
331
53CB3
  5
53CC3
331
53C03
  5
53C13
331
53B56
  5
53B66
331
54AA0
  5
5519F
331
53D90
  5
53DA4
331
53D43
  5
53D53
331
53CE3
  5
53CF3
331
53C9E
  5
53CAE
331
53C51
  5
53C61
331
53BE6
  5
53BF6
331
53BA1
  5
53BB1
331
5471B
  5
54A9B
331
53D73
  5
53D83
331
53D26
  5
53D36
331
53CC6
  5
53CD6
331
53C81
  5
53C91
331
53C34
  5
53C44
331
53C16
  5
53C26
331
53BC9
  5
53BD9
331
53B84
  5
53B94
331
546FE
  5
5470E
331
53D56
  5
53D66
331
53D11
  5
53D21
331
53C64
  5
53C74
331
53BB4
  5
53BC4
331
31B3E
  5
3273F
331
53B67
  5
53B77
331
53D99
  5
5408E
331
53D39
  5
53D49
331
53CF4
  5
53D04
331
53C47
  5
53C57
331
53B97
  5
53BA7
331
42820
  5
42E91
331
53D84
  5
53D94
331
53CD7
  5
53CE7
331
53C92
  5
53CA2
331
53C27
  5
53C37
331
53BDA
  5
53BEA
331
53B7A
  5
53B8A
331
5470F
  5
54A95
331
53D67
  5
53D77
331
53D07
  5
53D17
331
53CBA
  5
53CCA
331
53C75
  5
53C85
331
53C0A
  5
53C1A
331
53BBD
  5
53BCD
331
53B5D
  5
53B6D
331
4E0F3
  5
4E1DE
331
54AA7
  5
55226
331
546F2
  5
54703
331
53D97
  5
5408C
331
53D4A
  5
53D5A
331
53CA5
  5
53CB5
331
53C58
  5
53C68
331
53BED
  5
53BFD
331
53BA8
  5
53BB8
331
31B32
  5
3273A
331
54722
  5
54AA2
331
53D7A
  5
53D8A
331
53D2D
  5
53D3D
331
53CE8
  5
53CF8
331
53C88
  5
53C98
331
53C3B
  5
53C4B
331
53BD0
  5
53BE0
331
53B8B
  5
53B9B
331
54705
  5
54716
331
53D5D
  5
53D6D
331
53D18
  5
53D28
331
53CCB
  5
53CDB
331
53C6B
  5
53C7B
331
53C1B
  5
53C2B
331
32D1D
  5
32D3A
331
53B6E
  5
53B7E
331
53CFB
  5
53D0B
331
53CAE
  5
53CBE
331
53C4E
  5
53C5E
331
53BFE
  5
53C0E
331
53B9E
  5
53BAE
331
53B51
  5
53B61
331
54A9B
  5
55164
331
53D8B
  5
53D9B
331
53CDE
  5
53CEE
331
53C99
  5
53CA9
331
53C2E
  5
53C3E
331
53BE1
  5
53BF1
331
53D6E
  5
53D7E
331
53D21
  5
53D31
331
53CC1
  5
53CD1
331
53C7C
  5
53C8C
331
53C11
  5
53C21
331
53BC4
  5
53BD4
331
34536
  5
3454E
331
546F9
  5
54709
331
53D51
  5
53D61
331
53D0C
  5
53D1C
331
53C5F
  5
53C6F
331
53BF4
  5
53C04
331
53BAF
  5
53BBF
331
53B62
  5
53B72
331
53D34
  5
53D44
331
53CEF
  5
53CFF
331
53C8F
  5
53C9F
331
53C42
  5
53C52
331
53BD7
  5
53BE7
331
53B92
  5
53BA2
331
53D1F
  5
53D2F
331
53CD2
  5
53CE2
331
53C22
  5
53C32
331
53B75
  5
53B85
331
5184B
  5
B8D6
331
5470A
  5
54721
331
53D62
  5
53D72
331
53D02
  5
53D12
331
53CB5
  5
53CC5
331
53C70
  5
53C80
331
53C05
  5
53C15
331
53BB8
  5
53BC8
331
53B58
  5
53B68
331
54AA2
  5
551E3
331
53D92
  5
53DA6
331
53D45
  5
53D55
331
53CE5
  5
53CF5
331
53CA0
  5
53CB0
331
53C53
  5
53C63
331
53BE8
  5
53BF8
331
53BA3
  5
53BB3
331
5471D
  5
54A9D
331
53D75
  5
53D85
331
53D28
  5
53D38
331
53C83
  5
53C93
331
53C36
  5
53C46
331
53BCB
  5
53BDB
331
53B86
  5
53B96
331
54700
  5
54710
331
53D58
  5
53D68
331
53D13
  5
53D23
331
53C66
  5
53C76
331
53BB6
  5
53BC6
331
53B69
  5
53B79
331
5183F
  5
B5AD
331
53D9B
  5
54090
331
53D3B
  5
53D4B
331
53CF6
  5
53D06
331
53CA9
  5
53CB9
331
53C49
  5
53C59
331
53BF9
  5
53C09
331
53B99
  5
53BA9
331
53B4C
  5
53B5C
331
42822
  5
42E93
331
54A96
  5
54AA7
331
53D86
  5
53D96
331
53CD9
  5
53CE9
331
53C94
  5
53CA4
331
53C29
  5
53C39
331
53BDC
  5
53BEC
331
53B7C
  5
53B8C
331
54711
  5
54A97
331
53D69
  5
53D79
331
53CBC
  5
53CCC
331
53C77
  5
53C87
331
53C0C
  5
53C1C
331
53BBF
  5
53BCF
331
53B5F
  5
53B6F
331
4E0F5
  5
4E1E0
331
53D4C
  5
53D5C
331
53CA7
  5
53CB7
331
53C5A
  5
53C6A
331
53BEF
  5
53BFF
331
53BAA
  5
53BBA
331
54724
  5
54AA4
331
53D7C
  5
53D8C
331
53D2F
  5
53D3F
331
53CEA
  5
53CFA
331
53C8A
  5
53C9A
331
53C3D
  5
53C4D
331
53BD2
  5
53BE2
331
53B8D
  5
53B9D
331
54707
  5
54719
331
53D5F
  5
53D6F
331
53D1A
  5
53D2A
331
53CCD
  5
53CDD
331
53C6D
  5
53C7D
331
53C1D
  5
53C2D
  0
XRECORD
  5
5B2AB
102
{ACAD_REACTORS
330
5B2AA
102
}
330
5B2AA
100
AcDbXrecord
280
     1
 70
     1
  0
LAYOUT
  5
22
102
{ACAD_XDICTIONARY
360
5B2AE
102
}
102
{ACAD_REACTORS
330
1A
102
}
330
1A
100
AcDbPlotSettings
  1

  2
FX DocuWide 2050/2051
  4
A3
  6
AM_VIEW1
 40
3.174999952316284
 41
3.174999952316284
 42
3.17498779296875
 43
3.17498779296875
 44
296.989501953125
 45
419.9889831542968
 46
0.0
 47
1.295841228961961
 48
214.3704939521119
 49
367.5855324241176
140
275.6727856380065
141
407.629191407817
142
1.0
143
0.7225445603030646
 70
  3764
 72
     1
 73
     1
 74
     2
  7
monochrome.ctb
 75
     0
147
1.383997686703999
148
-1700.85588156276
149
-1647.985052086429
100
AcDbLayout
  1
Model
 70
     1
 71
     0
 10
0.0
 20
0.0
 11
12.0
 21
9.0
 12
0.0
 22
0.0
 32
0.0
 14
0.0
 24
0.0
 34
0.0
 15
0.0
 25
0.0
 35
0.0
146
0.0
 13
0.0
 23
0.0
 33
0.0
 16
1.0
 26
0.0
 36
0.0
 17
0.0
 27
1.0
 37
0.0
 76
     0
330
1F
331
B0EC
1001
ACAD_PSEXT
1000
FX DocuWide 2050/2051
1000
FX DocuWide 2050/2051
1000
IP_192.200.15.252
1000

1070
     0
  0
LAYOUT
  5
1E
102
{ACAD_XDICTIONARY
360
5B2AC
102
}
102
{ACAD_REACTORS
330
1A
102
}
330
1A
100
AcDbPlotSettings
  1

  2
\\ML370\XEROX
  4
A4
  6

 40
3.174999952316284
 41
3.174999952316284
 42
3.175003051757812
 43
3.17498779296875
 44
209.8674926757813
 45
296.6719970703125
 46
0.0
 47
0.0
 48
0.0
 49
0.0
140
0.0
141
0.0
142
1.0
143
1.0
 70
   688
 72
     1
 73
     1
 74
     5
  7
monochrome.ctb
 75
    16
147
1.0
148
0.0
149
0.0
100
AcDbLayout
  1
ﾚｲｱｳﾄ1
 70
     1
 71
     1
 10
-3.17498779296875
 20
-3.174999952316284
 11
293.4970092773438
 21
206.692492723465
 12
0.0
 22
0.0
 32
0.0
 14
1.000000000000000E+20
 24
1.000000000000000E+20
 34
1.000000000000000E+20
 15
-1.000000000000000E+20
 25
-1.000000000000000E+20
 35
-1.000000000000000E+20
146
0.0
 13
0.0
 23
0.0
 33
0.0
 16
1.0
 26
0.0
 36
0.0
 17
0.0
 27
1.0
 37
0.0
 76
     0
330
1B
  0
LAYOUT
  5
26
102
{ACAD_XDICTIONARY
360
5B2B0
102
}
102
{ACAD_REACTORS
330
1A
102
}
330
1A
100
AcDbPlotSettings
  1

  2
\\ML370\XEROX
  4

  6

 40
0.0
 41
0.0
 42
0.0
 43
0.0
 44
0.0
 45
0.0
 46
0.0
 47
0.0
 48
0.0
 49
0.0
140
0.0
141
0.0
142
1.0
143
1.0
 70
   688
 72
     0
 73
     0
 74
     5
  7
monochrome.ctb
 75
    16
147
1.0
148
0.0
149
0.0
100
AcDbLayout
  1
ﾚｲｱｳﾄ2
 70
     1
 71
     2
 10
0.0
 20
0.0
 11
12.0
 21
9.0
 12
0.0
 22
0.0
 32
0.0
 14
0.0
 24
0.0
 34
0.0
 15
0.0
 25
0.0
 35
0.0
146
0.0
 13
0.0
 23
0.0
 33
0.0
 16
1.0
 26
0.0
 36
0.0
 17
0.0
 27
1.0
 37
0.0
 76
     0
330
23
  0
MATERIAL
  5
B0EF
102
{ACAD_XDICTIONARY
360
5B2B6
102
}
102
{ACAD_REACTORS
330
A91C
102
}
330
A91C
100
AcDbMaterial
  1
ByBlock
  0
MATERIAL
  5
B0EE
102
{ACAD_XDICTIONARY
360
5B2B4
102
}
102
{ACAD_REACTORS
330
A91C
102
}
330
A91C
100
AcDbMaterial
  1
ByLayer
  0
MATERIAL
  5
B0F0
102
{ACAD_XDICTIONARY
360
5B2B8
102
}
102
{ACAD_REACTORS
330
A91C
102
}
330
A91C
100
AcDbMaterial
  1
Global
  0
MLINESTYLE
  5
18
102
{ACAD_REACTORS
330
17
102
}
330
17
100
AcDbMlineStyle
  2
STANDARD
 70
     0
  3

 62
   256
 51
90.0
 52
90.0
 71
     2
 49
0.5
 62
   256
  6
BYLAYER
 49
-0.5
 62
   256
  6
BYLAYER
  0
ACDBPLACEHOLDER
  5
F
102
{ACAD_REACTORS
330
E
102
}
330
E
  0
TABLESTYLE
  5
AABA
102
{ACAD_XDICTIONARY
360
5B2B2
102
}
102
{ACAD_REACTORS
330
AAB9
102
}
330
AAB9
100
AcDbTableStyle
  3
Standard
 70
     0
 71
     0
 40
1.5
 41
1.5
280
     0
281
     0
  7
STANDARD
140
4.5
170
     2
 62
     0
 63
     7
283
     0
274
    -2
284
     1
 64
     0
275
    -2
285
     1
 65
     0
276
    -2
286
     1
 66
     0
277
    -2
287
     1
 67
     0
278
    -2
288
     1
 68
     0
279
    -2
289
     1
 69
     0
  7
STANDARD
140
6.0
170
     5
 62
     0
 63
     7
283
     0
274
    -2
284
     1
 64
     0
275
    -2
285
     1
 65
     0
276
    -2
286
     1
 66
     0
277
    -2
287
     1
 67
     0
278
    -2
288
     1
 68
     0
279
    -2
289
     1
 69
     0
  7
STANDARD
140
4.5
170
     5
 62
     0
 63
     7
283
     0
274
    -2
284
     1
 64
     0
275
    -2
285
     1
 65
     0
276
    -2
286
     1
 66
     0
277
    -2
287
     1
 67
     0
278
    -2
288
     1
 68
     0
279
    -2
289
     1
 69
     0
  0
VISUALSTYLE
  5
B0F7
102
{ACAD_REACTORS
330
B0F1
102
}
330
B0F1
100
AcDbVisualStyle
  2
2dWireframe
 70
     4
 71
     0
 72
     2
 73
     0
 90
        0
 40
-0.6
 41
-30.0
 62
     5
 63
     7
 74
     1
 91
        4
 64
     7
 65
   257
 75
     1
175
     1
 42
1.0
 92
        0
 66
   257
 43
1.0
 76
     1
 77
     6
 78
     2
 67
     7
 79
     5
170
     0
171
     0
290
     0
174
     0
 93
        1
 44
0.0
173
     0
291
     0
 45
0.0
1001
ACAD
1000
AcDbSavedByObjectVersion
1070
     0
  0
VISUALSTYLE
  5
B0F9
102
{ACAD_REACTORS
330
B0F1
102
}
330
B0F1
100
AcDbVisualStyle
  2
3D Hidden
 70
     6
 71
     1
 72
     2
 73
     2
 90
        0
 40
-0.6
 41
-30.0
 62
     5
 63
     7
 74
     2
 91
        2
 64
     7
 65
   257
 75
     2
175
     1
 42
40.0
 92
        0
 66
   257
 43
1.0
 76
     1
 77
     6
 78
     2
 67
     7
 79
     3
170
     0
171
     0
290
     0
174
     0
 93
        1
 44
0.0
173
     0
291
     0
 45
0.0
1001
ACAD
1000
AcDbSavedByObjectVersion
1070
     0
  0
VISUALSTYLE
  5
B0F8
102
{ACAD_REACTORS
330
B0F1
102
}
330
B0F1
100
AcDbVisualStyle
  2
3dWireframe
 70
     5
 71
     0
 72
     2
 73
     0
 90
        0
 40
-0.6
 41
-30.0
 62
     5
 63
     7
 74
     1
 91
        4
 64
     7
 65
   257
 75
     1
175
     1
 42
1.0
 92
        0
 66
   257
 43
1.0
 76
     1
 77
     6
 78
     2
 67
     7
 79
     5
170
     0
171
     0
290
     0
174
     0
 93
        1
 44
0.0
173
     0
291
     0
 45
0.0
1001
ACAD
1000
AcDbSavedByObjectVersion
1070
     0
  0
VISUALSTYLE
  5
B0F6
102
{ACAD_REACTORS
330
B0F1
102
}
330
B0F1
100
AcDbVisualStyle
  2
Basic
 70
     7
 71
     1
 72
     0
 73
     1
 90
        0
 40
-0.6
 41
-30.0
 62
     5
 63
     7
 74
     0
 91
        4
 64
     7
 65
   257
 75
     1
175
     1
 42
1.0
 92
        8
 66
     7
 43
1.0
 76
     1
 77
     6
 78
     2
 67
     7
 79
     5
170
     0
171
     0
290
     0
174
     0
 93
        1
 44
0.0
173
     0
291
     1
 45
0.0
1001
ACAD
1000
AcDbSavedByObjectVersion
1070
     0
  0
VISUALSTYLE
  5
B0FD
102
{ACAD_REACTORS
330
B0F1
102
}
330
B0F1
100
AcDbVisualStyle
  2
Brighten
 70
    12
 71
     2
 72
     2
 73
     0
 90
        0
 40
-0.6
 41
-30.0
 62
     5
 63
     7
 74
     1
 91
        4
 64
     7
 65
   257
 75
     1
175
     1
 42
1.0
 92
        8
 66
     7
 43
1.0
 76
     1
 77
     6
 78
     2
 67
     7
 79
     5
170
     0
171
     0
290
     0
174
     0
 93
        1
 44
50.0
173
     0
291
     1
 45
0.0
1001
ACAD
1000
AcDbSavedByObjectVersion
1070
     0
  0
VISUALSTYLE
  5
B101
102
{ACAD_REACTORS
330
B0F1
102
}
330
B0F1
100
AcDbVisualStyle
  2
ColorChange
 70
    16
 71
     2
 72
     2
 73
     3
 90
        0
 40
-0.6
 41
-30.0
 62
     5
 63
     8
 74
     1
 91
        4
 64
     7
 65
   257
 75
     1
175
     1
 42
1.0
 92
        8
 66
     8
 43
1.0
 76
     1
 77
     6
 78
     2
 67
     7
 79
     5
170
     0
171
     0
290
     0
174
     0
 93
        1
 44
0.0
173
     0
291
     1
 45
0.0
1001
ACAD
1000
AcDbSavedByObjectVersion
1070
     0
  0
VISUALSTYLE
  5
B0FA
102
{ACAD_REACTORS
330
B0F1
102
}
330
B0F1
100
AcDbVisualStyle
  2
Conceptual
 70
     9
 71
     3
 72
     2
 73
     0
 90
        0
 40
-0.6
 41
-30.0
 62
     5
 63
     7
 74
     2
 91
        2
 64
     7
 65
   257
 75
     1
175
     1
 42
40.0
 92
        8
 66
     7
 43
1.0
 76
     1
 77
     6
 78
     2
 67
     7
 79
     3
170
     0
171
     0
290
     0
174
     0
 93
        1
 44
0.0
173
     0
291
     0
 45
0.0
1001
ACAD
1000
AcDbSavedByObjectVersion
1070
     0
  0
VISUALSTYLE
  5
B0FC
102
{ACAD_REACTORS
330
B0F1
102
}
330
B0F1
100
AcDbVisualStyle
  2
Dim
 70
    11
 71
     2
 72
     2
 73
     0
 90
        0
 40
-0.6
 41
-30.0
 62
     5
 63
     7
 74
     1
 91
        4
 64
     7
 65
   257
 75
     1
175
     1
 42
1.0
 92
        8
 66
     7
 43
1.0
 76
     1
 77
     6
 78
     2
 67
     7
 79
     5
170
     0
171
     0
290
     0
174
     0
 93
        1
 44
-50.0
173
     0
291
     1
 45
0.0
1001
ACAD
1000
AcDbSavedByObjectVersion
1070
     0
  0
VISUALSTYLE
  5
B100
102
{ACAD_REACTORS
330
B0F1
102
}
330
B0F1
100
AcDbVisualStyle
  2
Facepattern
 70
    15
 71
     2
 72
     2
 73
     0
 90
        0
 40
-0.6
 41
-30.0
 62
     5
 63
     7
 74
     1
 91
        4
 64
     7
 65
   257
 75
     1
175
     1
 42
1.0
 92
        8
 66
     7
 43
1.0
 76
     1
 77
     6
 78
     2
 67
     7
 79
     5
170
     0
171
     0
290
     0
174
     0
 93
        1
 44
0.0
173
     0
291
     1
 45
0.0
1001
ACAD
1000
AcDbSavedByObjectVersion
1070
     0
  0
VISUALSTYLE
  5
B0F2
102
{ACAD_REACTORS
330
B0F1
102
}
330
B0F1
100
AcDbVisualStyle
  2
Flat
 70
     0
 71
     2
 72
     1
 73
     1
 90
        2
 40
-0.6
 41
30.0
 62
     5
 63
     7
 74
     0
 91
        4
 64
     7
 65
   257
 75
     1
175
     1
 42
1.0
 92
        8
 66
     7
 43
1.0
 76
     1
 77
     6
 78
     2
 67
     7
 79
     5
170
     0
171
     0
290
     0
174
     0
 93
       13
 44
0.0
173
     0
291
     1
 45
0.0
1001
ACAD
1000
AcDbSavedByObjectVersion
1070
     0
  0
VISUALSTYLE
  5
B0F3
102
{ACAD_REACTORS
330
B0F1
102
}
330
B0F1
100
AcDbVisualStyle
  2
FlatWithEdges
 70
     1
 71
     2
 72
     1
 73
     1
 90
        2
 40
-0.6
 41
30.0
 62
     5
 63
     7
 74
     1
 91
        4
 64
     7
 65
   257
 75
     1
175
     1
 42
1.0
 92
        0
 66
   257
 43
1.0
 76
     1
 77
     6
 78
     2
 67
     7
 79
     5
170
     0
171
     0
290
     0
174
     0
 93
       13
 44
0.0
173
     0
291
     1
 45
0.0
1001
ACAD
1000
AcDbSavedByObjectVersion
1070
     0
  0
VISUALSTYLE
  5
B0F4
102
{ACAD_REACTORS
330
B0F1
102
}
330
B0F1
100
AcDbVisualStyle
  2
Gouraud
 70
     2
 71
     2
 72
     2
 73
     1
 90
        2
 40
-0.6
 41
30.0
 62
     5
 63
     7
 74
     0
 91
        4
 64
     7
 65
   257
 75
     1
175
     1
 42
1.0
 92
        0
 66
     7
 43
1.0
 76
     1
 77
     6
 78
     2
 67
     7
 79
     5
170
     0
171
     0
290
     0
174
     0
 93
       13
 44
0.0
173
     0
291
     1
 45
0.0
1001
ACAD
1000
AcDbSavedByObjectVersion
1070
     0
  0
VISUALSTYLE
  5
B0F5
102
{ACAD_REACTORS
330
B0F1
102
}
330
B0F1
100
AcDbVisualStyle
  2
GouraudWithEdges
 70
     3
 71
     2
 72
     2
 73
     1
 90
        2
 40
-0.6
 41
30.0
 62
     5
 63
     7
 74
     1
 91
        4
 64
     7
 65
   257
 75
     1
175
     1
 42
1.0
 92
        0
 66
   257
 43
1.0
 76
     1
 77
     6
 78
     2
 67
     7
 79
     5
170
     0
171
     0
290
     0
174
     0
 93
       13
 44
0.0
173
     0
291
     1
 45
0.0
1001
ACAD
1000
AcDbSavedByObjectVersion
1070
     0
  0
VISUALSTYLE
  5
B0FF
102
{ACAD_REACTORS
330
B0F1
102
}
330
B0F1
100
AcDbVisualStyle
  2
Linepattern
 70
    14
 71
     2
 72
     2
 73
     0
 90
        0
 40
-0.6
 41
-30.0
 62
     5
 63
     7
 74
     1
 91
        4
 64
     7
 65
   257
 75
     7
175
     7
 42
1.0
 92
        8
 66
     7
 43
1.0
 76
     1
 77
     6
 78
     2
 67
     7
 79
     5
170
     0
171
     0
290
     0
174
     0
 93
        1
 44
0.0
173
     0
291
     1
 45
0.0
1001
ACAD
1000
AcDbSavedByObjectVersion
1070
     0
  0
VISUALSTYLE
  5
B0FB
102
{ACAD_REACTORS
330
B0F1
102
}
330
B0F1
100
AcDbVisualStyle
  2
Realistic
 70
     8
 71
     2
 72
     2
 73
     0
 90
        0
 40
-0.6
 41
-30.0
 62
     5
 63
     7
 74
     1
 91
        0
 64
     7
 65
   257
 75
     1
175
     1
 42
1.0
 92
        8
 66
     8
 43
1.0
 76
     1
 77
     6
 78
     2
 67
     7
 79
     5
170
     0
171
     0
290
     0
174
     0
 93
       13
 44
0.0
173
     0
291
     0
 45
0.0
1001
ACAD
1000
AcDbSavedByObjectVersion
1070
     0
  0
VISUALSTYLE
  5
B0FE
102
{ACAD_REACTORS
330
B0F1
102
}
330
B0F1
100
AcDbVisualStyle
  2
Thicken
 70
    13
 71
     2
 72
     2
 73
     0
 90
        0
 40
-0.6
 41
-30.0
 62
     5
 63
     7
 74
     1
 91
        4
 64
     7
 65
   257
 75
     1
175
     1
 42
1.0
 92
       12
 66
     7
 43
1.0
 76
     1
 77
     6
 78
     2
 67
     7
 79
     5
170
     0
171
     0
290
     0
174
     0
 93
        1
 44
0.0
173
     0
291
     1
 45
0.0
1001
ACAD
1000
AcDbSavedByObjectVersion
1070
     0
  0
DICTIONARYVAR
  5
AAF3
102
{ACAD_REACTORS
330
34
102
}
330
34
100
DictionaryVariables
280
     0
  1
STANDARD
  0
DICTIONARYVAR
  5
A10C
102
{ACAD_REACTORS
330
34
102
}
330
34
100
DictionaryVariables
280
     0
  1
1
  0
DICTIONARYVAR
  5
AB07
102
{ACAD_REACTORS
330
34
102
}
330
34
100
DictionaryVariables
280
     0
  1
4
  0
DICTIONARYVAR
  5
35
102
{ACAD_REACTORS
330
34
102
}
330
34
100
DictionaryVariables
280
     0
  1
0
  0
DICTIONARYVAR
  5
194C
102
{ACAD_REACTORS
330
34
102
}
330
34
100
DictionaryVariables
280
     0
  1
127
  0
DICTIONARY
  5
7E8
102
{ACAD_REACTORS
330
47
102
}
330
47
100
AcDbDictionary
281
     1
  0
DICTIONARY
  5
4C
102
{ACAD_REACTORS
330
47
102
}
330
47
100
AcDbDictionary
281
     1
  0
XRECORD
  5
A929
102
{ACAD_REACTORS
330
47
102
}
330
47
100
AcDbXrecord
280
     1
 90
-1023410169
  0
XRECORD
  5
57913
102
{ACAD_REACTORS
330
57912
102
}
330
57912
100
AcDbXrecord
280
     1
330
0
330
0
330
0
330
0
330
0
330
0
330
0
330
0
330
0
330
0
330
0
330
0
330
0
330
0
330
0
330
0
330
0
330
0
330
0
330
0
330
0
330
0
330
0
330
0
330
0
330
0
330
0
330
0
330
0
330
0
330
0
330
0
330
0
330
0
330
0
330
0
330
0
330
0
330
0
330
0
330
0
330
0
330
0
330
0
330
0
330
0
330
0
330
0
330
0
330
0
330
0
330
0
330
0
330
0
330
0
330
0
330
0
330
0
330
0
330
0
330
0
330
0
330
0
330
0
330
0
330
0
330
0
330
0
330
0
330
0
330
0
330
0
330
0
330
0
330
0
330
0
330
0
330
0
330
0
330
0
330
0
330
0
330
0
330
0
330
0
330
0
330
0
330
0
330
0
330
0
330
0
330
0
330
0
330
0
330
0
330
0
330
0
330
0
330
0
330
0
330
0
330
0
330
0
330
0
330
0
330
0
330
0
330
0
330
0
330
0
330
0
330
0
330
0
330
0
330
0
330
0
330
0
330
0
330
0
330
0
330
0
330
0
330
0
330
0
330
0
330
0
330
0
330
0
330
0
330
0
330
0
330
0
330
0
330
0
330
0
330
0
330
0
330
0
330
0
330
0
330
0
330
0
330
0
330
0
330
0
330
0
330
0
330
0
330
0
330
0
330
0
330
0
330
0
330
0
330
0
330
0
330
0
330
0
330
0
330
0
330
0
330
0
330
0
330
0
330
0
330
0
330
0
330
0
330
0
330
0
330
0
330
0
330
0
330
0
330
0
330
0
330
0
330
0
330
0
330
0
330
0
330
0
330
0
330
0
330
0
330
0
330
0
330
0
330
0
330
0
330
0
330
0
330
0
330
0
330
0
330
0
330
0
330
0
330
0
330
0
330
0
330
0
330
0
330
0
330
0
330
0
330
0
330
0
330
0
330
0
330
0
330
0
330
0
330
0
330
0
330
0
330
0
330
0
330
0
330
0
330
0
330
0
330
0
330
0
330
0
330
0
330
0
330
0
330
0
330
0
330
0
330
0
330
0
330
0
330
0
330
0
330
0
330
0
330
0
330
0
330
0
330
0
330
0
330
0
330
0
330
0
330
0
330
0
330
0
330
0
330
0
330
0
330
0
330
0
330
0
330
0
330
0
330
0
330
0
330
0
330
0
330
0
330
0
330
0
330
0
330
0
330
0
330
0
330
0
330
0
330
0
330
0
330
0
330
0
330
0
330
0
330
0
330
0
330
0
330
0
330
0
330
0
330
0
330
0
330
0
330
0
330
0
330
0
330
0
330
0
330
0
330
0
330
0
330
0
330
0
330
0
330
0
330
0
330
0
330
0
330
0
330
0
330
0
330
0
330
0
330
0
330
0
330
0
330
0
330
0
330
0
330
0
330
0
330
0
330
0
330
0
330
0
330
0
330
0
330
0
330
0
330
0
330
0
330
0
330
0
330
0
330
0
330
0
330
0
330
0
330
0
330
0
330
0
330
0
330
0
330
0
330
0
330
0
330
0
330
0
330
0
330
0
330
0
330
0
330
0
330
0
330
0
330
0
330
0
330
0
330
0
330
0
330
0
330
0
330
0
330
0
330
0
330
0
330
0
330
0
330
0
330
0
330
0
330
0
330
0
330
0
330
0
330
0
330
0
330
0
330
0
330
0
330
0
330
0
330
0
330
0
330
0
330
0
330
0
330
0
330
0
330
0
330
0
330
0
330
0
330
0
330
0
330
0
330
0
330
0
330
0
330
0
330
0
330
0
330
0
330
0
330
0
330
0
330
0
330
0
330
0
330
0
330
0
330
0
330
0
330
0
330
0
330
0
330
0
330
0
330
0
330
0
330
0
330
0
330
0
330
0
330
0
330
0
330
0
330
0
330
0
330
0
330
0
330
0
330
0
330
0
330
0
330
0
330
0
330
0
330
0
330
0
330
0
330
0
330
0
330
0
330
0
330
0
330
0
330
0
330
0
330
0
330
0
330
0
330
0
330
0
330
0
330
0
330
0
330
0
330
0
330
0
330
0
330
0
330
0
330
0
330
0
330
0
330
0
330
0
330
0
330
0
330
0
330
0
330
0
330
0
330
0
330
0
330
0
330
0
330
0
330
0
330
0
330
0
330
0
330
0
330
0
330
0
330
0
330
0
330
0
330
0
330
0
330
0
330
0
330
0
330
0
330
0
330
0
330
0
330
0
330
0
330
0
330
0
330
0
330
0
330
0
330
0
330
0
330
0
330
0
330
0
330
0
330
0
330
0
330
0
330
0
330
0
330
0
330
0
330
0
330
0
330
0
330
0
330
0
330
0
330
0
330
0
330
0
330
0
330
0
330
0
330
0
330
0
330
0
330
0
330
0
330
0
330
0
330
0
330
0
330
0
330
0
330
0
330
0
330
0
330
0
330
0
330
0
330
0
330
0
330
0
330
0
330
0
330
0
330
0
330
0
330
0
330
0
330
0
330
0
330
0
330
0
330
0
330
0
330
0
330
0
330
0
330
0
330
0
330
0
330
0
330
0
330
0
330
0
330
0
330
0
330
0
330
0
330
0
330
0
330
0
330
0
330
0
330
0
330
0
330
0
330
0
330
0
330
0
330
0
330
0
330
0
330
0
330
0
330
0
330
0
330
0
330
0
330
0
330
0
330
0
330
0
330
0
330
0
330
0
330
0
330
0
330
0
330
0
330
0
330
0
330
0
330
0
330
0
330
0
330
0
330
0
330
0
330
0
330
0
330
0
330
0
330
0
330
0
330
0
330
0
330
0
330
0
330
0
330
0
330
0
330
0
330
0
330
0
330
0
330
0
330
0
330
0
330
0
330
0
330
0
330
0
330
0
330
0
330
0
330
0
330
0
330
0
330
0
330
0
330
0
330
0
330
0
330
0
330
0
330
0
330
0
330
0
330
0
330
0
330
0
330
0
330
0
330
0
330
0
330
0
330
0
330
0
330
0
330
0
330
0
330
0
330
0
330
0
330
0
330
0
330
0
330
0
330
0
330
0
330
0
330
0
330
0
330
0
330
0
330
0
330
0
330
0
330
0
330
0
330
0
330
0
330
0
330
0
330
0
330
0
330
0
330
0
330
0
330
0
330
0
330
0
330
0
330
0
330
0
330
0
330
0
330
0
330
0
330
0
330
0
330
0
330
0
330
0
330
0
330
0
330
0
330
0
330
0
330
0
330
0
330
0
330
0
330
0
330
0
330
0
330
0
330
0
330
0
330
0
330
0
330
0
330
0
330
0
330
0
330
0
330
0
330
0
330
0
330
0
330
0
330
0
330
0
330
0
330
0
330
0
330
0
330
0
330
0
330
0
330
0
330
0
330
0
330
0
330
0
330
0
330
0
330
0
330
0
330
0
330
0
330
0
330
0
330
0
330
0
330
0
330
0
330
0
330
0
330
0
330
0
330
0
330
0
330
0
330
0
330
0
330
0
330
0
330
0
330
0
330
0
330
0
330
0
330
0
330
0
330
0
330
0
330
0
330
0
330
0
330
0
330
0
330
0
330
0
330
0
330
0
330
0
330
0
330
0
330
0
330
0
330
0
330
0
330
0
330
0
330
0
330
0
330
0
330
0
330
0
330
0
330
0
330
0
330
0
330
0
330
0
330
0
330
0
330
0
330
0
330
0
330
0
330
0
330
0
330
0
330
0
330
0
330
0
330
0
330
0
330
0
330
0
330
0
330
0
330
0
330
0
330
0
330
0
330
0
330
0
330
0
330
0
330
0
330
0
330
0
330
0
330
0
330
0
330
0
330
0
330
0
330
0
330
0
330
0
330
0
330
0
330
0
330
0
330
0
330
0
330
0
330
0
330
0
330
0
330
0
330
0
330
0
330
0
330
0
330
0
330
0
330
0
330
0
330
0
330
0
330
0
330
0
330
0
330
0
330
0
330
0
330
0
330
0
330
0
330
0
330
0
330
0
330
0
330
0
330
0
330
0
330
0
330
0
330
0
330
0
330
0
330
0
330
0
330
0
330
0
330
0
330
0
330
0
330
0
330
0
330
0
330
0
330
0
330
0
330
0
330
0
330
0
330
0
330
0
330
0
330
0
330
0
330
0
330
0
330
0
330
0
330
0
330
0
330
0
330
0
330
0
330
0
330
0
330
0
330
0
330
0
330
0
330
0
330
0
330
0
330
0
330
0
330
0
330
0
330
0
330
0
330
0
330
0
330
0
330
0
330
0
330
0
330
0
330
0
330
0
330
0
330
0
330
0
330
0
330
0
330
0
330
0
330
0
330
0
330
0
330
0
330
0
330
0
330
0
330
0
330
0
330
0
330
0
330
0
330
0
330
0
330
0
330
0
330
0
330
0
330
0
330
0
330
0
330
0
330
0
330
0
330
0
330
0
330
0
330
0
330
0
330
0
330
0
330
0
330
0
330
0
330
0
330
0
330
0
330
0
330
0
330
0
330
0
330
0
330
0
330
0
330
0
330
0
330
0
330
0
330
0
330
0
330
0
330
0
330
0
330
0
330
0
330
0
330
0
330
0
330
0
330
0
330
0
330
0
330
0
330
0
330
0
330
0
330
0
330
0
330
0
330
0
330
0
330
0
330
0
330
0
330
0
330
0
330
0
330
0
330
0
330
0
330
0
330
0
330
0
330
0
330
0
330
0
330
0
330
0
330
0
330
0
330
0
330
0
330
0
330
0
330
0
330
0
330
0
330
0
330
0
330
0
330
0
330
0
330
0
330
0
330
0
330
0
330
0
330
0
330
0
330
0
330
0
330
0
330
0
330
0
330
0
330
0
330
0
330
0
330
0
330
0
330
0
330
0
330
0
330
0
330
0
330
0
330
0
330
0
330
0
330
0
330
0
330
0
330
0
330
0
330
0
330
0
330
0
330
0
330
0
330
0
330
0
330
0
330
0
330
0
330
0
330
0
330
0
330
0
330
0
330
0
330
0
330
0
330
0
330
0
330
0
330
0
330
0
330
0
330
0
330
0
330
0
330
0
330
0
330
0
330
0
330
0
330
0
330
0
330
0
330
0
330
0
330
0
330
0
330
0
330
0
330
0
330
0
330
0
330
0
330
0
330
0
330
0
330
0
330
0
330
0
330
0
330
0
330
0
330
0
330
0
330
0
330
0
330
0
330
0
330
0
330
0
330
0
330
0
330
0
330
0
330
0
330
0
330
0
330
0
330
0
330
0
330
0
330
0
330
0
330
0
330
0
330
0
330
0
330
0
330
0
330
0
330
0
330
0
330
0
330
0
330
0
330
0
330
0
330
0
330
0
330
0
330
0
330
0
330
0
330
0
330
0
330
0
330
0
330
0
330
0
330
0
330
0
330
0
330
0
330
0
330
0
330
0
330
0
330
0
330
0
330
0
330
0
330
0
330
0
330
0
330
0
330
0
330
0
330
0
330
0
330
0
330
0
330
0
330
0
330
0
330
0
330
0
330
0
330
0
330
0
330
0
330
0
330
0
330
0
330
0
330
0
330
0
330
0
330
0
330
0
330
0
330
0
330
0
330
0
330
0
330
0
330
0
330
0
330
0
330
0
330
0
330
0
330
0
330
0
330
0
330
0
330
0
330
0
330
0
330
0
330
0
330
0
330
0
330
0
330
0
330
0
330
0
330
0
330
0
330
0
330
0
330
0
330
0
330
0
330
0
330
0
330
0
330
0
330
0
330
0
330
0
330
0
330
0
330
0
330
0
330
0
330
0
330
0
330
0
330
0
330
0
330
0
330
0
330
0
330
0
330
0
330
0
330
0
330
0
330
0
330
0
330
0
330
0
330
0
330
0
330
0
330
0
330
0
330
0
330
0
330
0
330
0
330
0
330
0
330
0
330
0
330
0
330
0
330
0
330
0
330
0
330
0
330
0
330
0
330
0
330
0
330
0
330
0
330
0
330
0
330
0
330
0
330
0
330
0
330
0
330
0
330
0
330
0
330
0
330
0
330
0
330
0
330
0
330
0
330
0
330
0
330
0
330
0
330
0
330
0
330
0
330
0
330
0
330
0
330
0
330
0
330
0
330
0
330
0
330
0
330
0
330
0
330
0
330
0
330
0
330
0
330
0
330
0
330
0
330
0
330
0
330
0
330
0
330
0
330
0
330
0
330
0
330
0
330
0
330
0
330
0
330
0
330
0
330
0
330
0
330
0
330
0
330
0
330
0
330
0
330
0
330
0
330
0
330
0
330
0
330
0
330
0
330
0
330
0
330
0
330
0
330
0
330
0
330
0
330
0
330
0
330
0
330
0
330
0
330
0
330
0
330
0
330
0
330
0
330
0
330
0
330
0
330
0
330
0
330
0
330
0
330
0
330
0
330
0
330
0
330
0
330
0
330
0
330
0
330
0
330
0
330
0
330
0
330
0
330
0
330
0
330
0
330
0
330
0
330
0
330
0
330
0
330
0
330
0
330
0
330
0
330
0
330
0
330
0
330
0
330
0
330
54FDF
330
54FE0
330
54FE8
330
54FE9
330
54FF2
330
54FF3
330
0
330
0
330
0
330
0
330
5500C
330
5500D
330
55017
330
55018
330
550BB
330
550BC
330
550C4
330
550C5
330
550CD
330
550CE
330
550D6
330
550D7
330
550DF
330
550E0
330
550E8
330
550E9
330
550F1
330
550F2
330
550FC
330
550FD
330
55105
330
55106
330
55071
330
55072
330
5507A
330
5507B
330
55083
330
55084
330
5508C
330
5508D
330
55095
330
55096
330
5509E
330
5509F
330
550A9
330
550AA
330
0
330
0
330
0
330
0
330
0
330
0
330
0
330
0
330
0
330
0
330
0
330
0
330
0
330
0
330
0
330
0
330
0
330
0
330
0
330
0
330
0
330
0
330
0
330
0
330
0
330
0
330
0
330
0
330
0
330
0
330
0
330
0
330
0
330
0
330
0
330
0
330
0
330
0
330
0
330
0
330
0
330
0
330
0
330
0
330
0
330
0
330
0
330
0
330
0
330
0
330
55126
330
55127
330
0
330
0
330
0
330
0
330
0
330
0
330
0
330
0
330
0
330
0
330
0
330
0
330
0
330
0
330
0
330
0
330
0
330
0
330
0
330
0
330
0
330
0
330
0
330
0
330
0
330
0
330
0
330
0
330
0
330
0
330
0
330
0
330
0
330
0
330
0
330
0
330
0
330
0
330
0
330
0
330
0
330
0
330
0
330
0
330
0
330
0
330
0
330
0
330
0
330
0
330
0
330
0
330
0
330
0
330
0
330
0
330
0
330
0
330
0
330
0
330
0
330
0
330
0
330
0
330
0
330
0
330
0
330
0
330
0
330
0
330
0
330
0
330
0
330
0
330
0
330
0
330
0
330
0
330
0
330
0
330
0
330
0
330
0
330
0
330
0
330
0
330
0
330
0
330
0
330
0
330
0
330
0
330
0
330
0
330
0
330
0
330
0
330
0
330
0
330
0
330
0
330
0
330
0
330
0
330
0
330
0
330
0
330
0
330
0
330
0
330
0
330
0
330
0
330
0
330
0
330
0
330
0
330
0
330
0
330
0
330
0
330
0
330
0
330
0
330
0
330
0
330
0
330
0
330
0
330
0
330
0
330
0
330
0
330
0
330
0
330
0
330
0
330
0
330
0
330
0
330
0
330
0
330
0
330
0
330
0
330
0
330
0
330
0
330
0
330
0
330
0
330
0
330
0
330
0
330
0
330
0
330
0
330
0
330
0
330
0
330
0
330
0
330
0
330
0
330
0
330
0
330
0
330
0
330
0
330
0
330
0
330
0
330
0
330
0
330
0
330
0
330
0
330
0
330
0
330
0
330
0
330
0
330
0
330
0
330
0
330
0
330
0
330
0
330
0
330
0
330
0
330
0
330
0
330
0
330
0
330
0
330
0
330
0
330
0
330
0
330
0
330
0
330
0
330
0
330
0
330
0
330
0
330
0
330
0
330
0
330
0
330
0
330
0
330
0
330
0
330
0
330
0
330
0
330
0
330
0
330
0
330
0
330
0
330
0
330
0
330
0
330
0
330
0
330
0
330
0
330
0
330
0
330
0
330
0
330
0
330
0
330
0
330
0
330
0
330
0
330
0
330
0
330
0
330
0
330
0
330
0
330
0
330
0
330
0
330
0
330
0
330
0
330
0
330
0
330
0
330
0
330
0
330
0
330
0
330
0
330
0
330
0
330
0
330
0
330
0
330
0
330
0
330
0
330
0
330
0
330
0
330
0
330
0
330
0
330
0
330
0
330
0
330
0
330
0
330
0
330
0
330
0
330
0
330
0
330
0
330
0
330
0
330
0
330
0
330
0
330
0
330
0
330
0
330
0
330
0
330
0
330
0
330
0
330
0
330
0
330
0
330
0
330
0
330
0
330
0
330
0
330
0
330
0
330
0
330
0
330
0
330
0
330
0
330
0
330
0
330
0
330
0
330
0
330
0
330
0
330
0
330
0
330
0
330
0
330
0
330
0
330
0
330
0
330
0
330
0
330
0
330
0
330
0
330
0
330
0
330
0
330
0
330
0
330
0
330
0
330
0
330
0
330
0
330
0
330
0
330
0
330
0
330
0
330
0
330
0
330
0
330
0
330
0
330
0
330
0
330
0
330
0
330
0
330
0
330
0
330
0
330
0
330
0
330
0
  0
XRECORD
  5
3FB7
102
{ACAD_REACTORS
330
3F96
102
}
330
3F96
100
AcDbXrecord
280
     1
 91
        3
330
0
 90
        8
 62
     7
370
    40
331
16
  1
Color_7
330
0
 90
        0
 62
    14
370
    -3
331
16
  1
Color_14
330
0
 90
        8
 62
     7
370
    20
331
16
  1
Color_7
330
6D1
 90
        0
 62
     7
370
    -3
331
16
  1
Color_7
330
0
 90
        8
 62
     7
370
    50
331
16
  1
Color_7
330
0
 90
        8
 62
     2
370
    35
331
16
  1
Color_2
330
0
 90
        8
 62
     7
370
    -3
331
16
  1
Color_7
330
10
 90
        8
 62
     7
370
    -3
331
16
  1
Color_7
  0
DICTIONARY
  5
5B2AE
330
22
100
AcDbDictionary
280
     1
281
     1
  3
ACAD_XREC_ROUNDTRIP
360
5B2AF
  0
DICTIONARY
  5
5B2AC
330
1E
100
AcDbDictionary
280
     1
281
     1
  3
ACAD_XREC_ROUNDTRIP
360
5B2AD
  0
DICTIONARY
  5
5B2B0
330
26
100
AcDbDictionary
280
     1
281
     1
  3
ACAD_XREC_ROUNDTRIP
360
5B2B1
  0
DICTIONARY
  5
5B2B6
330
B0EF
100
AcDbDictionary
280
     1
281
     1
  3
ACAD_XREC_ROUNDTRIP
360
5B2B7
  0
DICTIONARY
  5
5B2B4
330
B0EE
100
AcDbDictionary
280
     1
281
     1
  3
ACAD_XREC_ROUNDTRIP
360
5B2B5
  0
DICTIONARY
  5
5B2B8
330
B0F0
100
AcDbDictionary
280
     1
281
     1
  3
ACAD_XREC_ROUNDTRIP
360
5B2B9
  0
DICTIONARY
  5
5B2B2
330
AABA
100
AcDbDictionary
280
     1
281
     1
  3
ACAD_XREC_ROUNDTRIP
360
5B2B3
  0
XRECORD
  5
5B2AF
102
{ACAD_REACTORS
330
5B2AE
102
}
330
5B2AE
100
AcDbXrecord
280
     1
102
SHADEPLOT
 70
     0
102
SHADEPLOTRESLEVEL
 70
     2
102
SHADEPLOTCUSTOMDPI
 70
   200
  0
XRECORD
  5
5B2AD
102
{ACAD_REACTORS
330
5B2AC
102
}
330
5B2AC
100
AcDbXrecord
280
     1
102
SHADEPLOT
 70
     0
102
SHADEPLOTRESLEVEL
 70
     2
102
SHADEPLOTCUSTOMDPI
 70
   300
  0
XRECORD
  5
5B2B1
102
{ACAD_REACTORS
330
5B2B0
102
}
330
5B2B0
100
AcDbXrecord
280
     1
102
SHADEPLOT
 70
     0
102
SHADEPLOTRESLEVEL
 70
     2
102
SHADEPLOTCUSTOMDPI
 70
   300
  0
XRECORD
  5
5B2B7
102
{ACAD_REACTORS
330
5B2B6
102
}
330
5B2B6
100
AcDbXrecord
280
     1
102
MATERIAL
148
0.0
149
0.0
149
0.0
 93
        0
 94
       63
282
     0
 72
     1
 77
     1
171
     1
175
     1
179
     1
273
     0
  0
XRECORD
  5
5B2B5
102
{ACAD_REACTORS
330
5B2B4
102
}
330
5B2B4
100
AcDbXrecord
280
     1
102
MATERIAL
148
0.0
149
0.0
149
0.0
 93
        0
 94
       63
282
     0
 72
     1
 77
     1
171
     1
175
     1
179
     1
273
     0
  0
XRECORD
  5
5B2B9
102
{ACAD_REACTORS
330
5B2B8
102
}
330
5B2B8
100
AcDbXrecord
280
     1
102
MATERIAL
148
0.0
149
0.0
149
0.0
 93
        0
 94
       63
282
     0
 72
     1
 77
     1
171
     1
175
     1
179
     1
273
     0
  0
XRECORD
  5
5B2B3
102
{ACAD_REACTORS
330
5B2B2
102
}
330
5B2B2
100
AcDbXrecord
280
     1
102
ACAD_ROUNDTRIP_PRE2007_TABLESTYLE
 90
        4
 91
        0
  1

 92
        4
 93
        0
  2

 94
        4
 95
        0
  3

  0
ENDSEC
  0
EOF
