  0
SECTION
  2
HEADER
  9
$ACADVER
  1
AC1015
  9
$ACADMAINTVER
 70
    20
  9
$DWGCODEPAGE
  3
ANSI_932
  9
$INSBASE
 10
0.0
 20
0.0
 30
0.0
  9
$EXTMIN
 10
6074.514852621241
 20
-5278.561307757496
 30
-0.0015258207003583
  9
$EXTMAX
 10
6372.43854128965
 20
-5067.198859169297
 30
0.0000000349246037
  9
$LIMMIN
 10
3779.599158088851
 20
100.7134268036752
  9
$LIMMAX
 10
9719.599158088852
 20
4300.713426803675
  9
$ORTHOMODE
 70
     0
  9
$REGENMODE
 70
     1
  9
$FILLMODE
 70
     1
  9
$QTEXTMODE
 70
     0
  9
$MIRRTEXT
 70
     0
  9
$LTSCALE
 40
1.0
  9
$ATTMODE
 70
     1
  9
$TEXTSIZE
 40
3.2
  9
$TRACEWID
 40
1.0
  9
$TEXTSTYLE
  7
STANDARD
  9
$CLAYER
  8
0部品18
  9
$CELTYPE
  6
ByLayer
  9
$CECOLOR
 62
   256
  9
$CELTSCALE
 40
1.0
  9
$DISPSILH
 70
     0
  9
$DIMSCALE
 40
1.0
  9
$DIMASZ
 40
1.0
  9
$DIMEXO
 40
1.0
  9
$DIMDLI
 40
10.0
  9
$DIMRND
 40
0.0
  9
$DIMDLE
 40
0.0
  9
$DIMEXE
 40
1.0
  9
$DIMTP
 40
0.1
  9
$DIMTM
 40
0.1
  9
$DIMTXT
 40
3.5
  9
$DIMCEN
 40
0.0
  9
$DIMTSZ
 40
0.0
  9
$DIMTOL
 70
     0
  9
$DIMLIM
 70
     0
  9
$DIMTIH
 70
     0
  9
$DIMTOH
 70
     0
  9
$DIMSE1
 70
     0
  9
$DIMSE2
 70
     0
  9
$DIMTAD
 70
     1
  9
$DIMZIN
 70
     8
  9
$DIMBLK
  1

  9
$DIMASO
 70
     1
  9
$DIMSHO
 70
     1
  9
$DIMPOST
  1

  9
$DIMAPOST
  1
"
  9
$DIMALT
 70
     0
  9
$DIMALTD
 70
     2
  9
$DIMALTF
 40
0.0393701
  9
$DIMLFAC
 40
1.0
  9
$DIMTOFL
 70
     1
  9
$DIMTVP
 40
0.0
  9
$DIMTIX
 70
     0
  9
$DIMSOXD
 70
     0
  9
$DIMSAH
 70
     0
  9
$DIMBLK1
  1

  9
$DIMBLK2
  1

  9
$DIMSTYLE
  2
SYS
  9
$DIMCLRD
 70
   256
  9
$DIMCLRE
 70
   256
  9
$DIMCLRT
 70
     7
  9
$DIMTFAC
 40
0.71
  9
$DIMGAP
 40
1.5
  9
$DIMJUST
 70
     0
  9
$DIMSD1
 70
     0
  9
$DIMSD2
 70
     0
  9
$DIMTOLJ
 70
     0
  9
$DIMTZIN
 70
     8
  9
$DIMALTZ
 70
     0
  9
$DIMALTTZ
 70
     0
  9
$DIMUPT
 70
     0
  9
$DIMDEC
 70
     2
  9
$DIMTDEC
 70
     2
  9
$DIMALTU
 70
     2
  9
$DIMALTTD
 70
     2
  9
$DIMTXSTY
  7
STANDARD
  9
$DIMAUNIT
 70
     0
  9
$DIMADEC
 70
     0
  9
$DIMALTRND
 40
0.0
  9
$DIMAZIN
 70
     2
  9
$DIMDSEP
 70
    46
  9
$DIMATFIT
 70
     3
  9
$DIMFRAC
 70
     0
  9
$DIMLDRBLK
  1

  9
$DIMLUNIT
 70
     2
  9
$DIMLWD
 70
    -1
  9
$DIMLWE
 70
    -1
  9
$DIMTMOVE
 70
     0
  9
$LUNITS
 70
     2
  9
$LUPREC
 70
     2
  9
$SKETCHINC
 40
1.0
  9
$FILLETRAD
 40
1.5
  9
$AUNITS
 70
     0
  9
$AUPREC
 70
     0
  9
$MENU
  1
.
  9
$ELEVATION
 40
0.0
  9
$PELEVATION
 40
0.0
  9
$THICKNESS
 40
0.0
  9
$LIMCHECK
 70
     0
  9
$CHAMFERA
 40
0.0
  9
$CHAMFERB
 40
0.0
  9
$CHAMFERC
 40
20.0
  9
$CHAMFERD
 40
0.0
  9
$SKPOLY
 70
     0
  9
$TDCREATE
 40
2455567.680725081
  9
$TDUCREATE
 40
2455567.305725081
  9
$TDUPDATE
 40
2456268.496707720
  9
$TDUUPDATE
 40
2456268.121707720
  9
$TDINDWG
 40
7.9811439699
  9
$TDUSRTIMER
 40
7.9811423380
  9
$USRTIMER
 70
     1
  9
$ANGBASE
 50
0.0
  9
$ANGDIR
 70
     0
  9
$PDMODE
 70
     0
  9
$PDSIZE
 40
-3.0
  9
$PLINEWID
 40
0.0
  9
$SPLFRAME
 70
     0
  9
$SPLINETYPE
 70
     6
  9
$SPLINESEGS
 70
     8
  9
$HANDSEED
  5
5B2BA
  9
$SURFTAB1
 70
     6
  9
$SURFTAB2
 70
     6
  9
$SURFTYPE
 70
     6
  9
$SURFU
 70
     6
  9
$SURFV
 70
     6
  9
$UCSBASE
  2

  9
$UCSNAME
  2

  9
$UCSORG
 10
0.0
 20
0.0
 30
0.0
  9
$UCSXDIR
 10
1.0
 20
0.0
 30
0.0
  9
$UCSYDIR
 10
0.0
 20
1.0
 30
0.0
  9
$UCSORTHOREF
  2

  9
$UCSORTHOVIEW
 70
     0
  9
$UCSORGTOP
 10
0.0
 20
0.0
 30
0.0
  9
$UCSORGBOTTOM
 10
0.0
 20
0.0
 30
0.0
  9
$UCSORGLEFT
 10
0.0
 20
0.0
 30
0.0
  9
$UCSORGRIGHT
 10
0.0
 20
0.0
 30
0.0
  9
$UCSORGFRONT
 10
0.0
 20
0.0
 30
0.0
  9
$UCSORGBACK
 10
0.0
 20
0.0
 30
0.0
  9
$PUCSBASE
  2

  9
$PUCSNAME
  2

  9
$PUCSORG
 10
0.0
 20
0.0
 30
0.0
  9
$PUCSXDIR
 10
1.0
 20
0.0
 30
0.0
  9
$PUCSYDIR
 10
0.0
 20
1.0
 30
0.0
  9
$PUCSORTHOREF
  2

  9
$PUCSORTHOVIEW
 70
     0
  9
$PUCSORGTOP
 10
0.0
 20
0.0
 30
0.0
  9
$PUCSORGBOTTOM
 10
0.0
 20
0.0
 30
0.0
  9
$PUCSORGLEFT
 10
0.0
 20
0.0
 30
0.0
  9
$PUCSORGRIGHT
 10
0.0
 20
0.0
 30
0.0
  9
$PUCSORGFRONT
 10
0.0
 20
0.0
 30
0.0
  9
$PUCSORGBACK
 10
0.0
 20
0.0
 30
0.0
  9
$USERI1
 70
     0
  9
$USERI2
 70
     0
  9
$USERI3
 70
     0
  9
$USERI4
 70
     0
  9
$USERI5
 70
     0
  9
$USERR1
 40
0.0
  9
$USERR2
 40
0.0
  9
$USERR3
 40
0.0
  9
$USERR4
 40
0.0
  9
$USERR5
 40
0.0
  9
$WORLDVIEW
 70
     1
  9
$SHADEDGE
 70
     3
  9
$SHADEDIF
 70
    70
  9
$TILEMODE
 70
     1
  9
$MAXACTVP
 70
    64
  9
$PINSBASE
 10
0.0
 20
0.0
 30
0.0
  9
$PLIMCHECK
 70
     0
  9
$PEXTMIN
 10
1.000000000000000E+20
 20
1.000000000000000E+20
 30
1.000000000000000E+20
  9
$PEXTMAX
 10
-1.000000000000000E+20
 20
-1.000000000000000E+20
 30
-1.000000000000000E+20
  9
$PLIMMIN
 10
-3.17498779296875
 20
-3.174999952316284
  9
$PLIMMAX
 10
293.4970092773438
 20
206.692492723465
  9
$UNITMODE
 70
     0
  9
$VISRETAIN
 70
     1
  9
$PLINEGEN
 70
     0
  9
$PSLTSCALE
 70
     1
  9
$TREEDEPTH
 70
  3020
  9
$CMLSTYLE
  2
Standard
  9
$CMLJUST
 70
     0
  9
$CMLSCALE
 40
20.0
  9
$PROXYGRAPHICS
 70
     1
  9
$MEASUREMENT
 70
     1
  9
$CELWEIGHT
370
    -1
  9
$ENDCAPS
280
     0
  9
$JOINSTYLE
280
     0
  9
$LWDISPLAY
290
     1
  9
$INSUNITS
 70
     4
  9
$HYPERLINKBASE
  1

  9
$STYLESHEET
  1
monochrome.ctb
  9
$XEDIT
290
     1
  9
$CEPSNTYPE
380
     0
  9
$PSTYLEMODE
290
     1
  9
$FINGERPRINTGUID
  2
{487E49EE-344A-43F6-800E-CE119D8346FF}
  9
$VERSIONGUID
  2
{5CC3A784-C118-4704-900B-A171CD87CBA4}
  9
$EXTNAMES
290
     1
  9
$PSVPSCALE
 40
0.0
  9
$OLESTARTUP
290
     0
  0
ENDSEC
  0
SECTION
  2
CLASSES
  0
CLASS
  1
ACDBDICTIONARYWDFLT
  2
AcDbDictionaryWithDefault
  3
ObjectDBX Classes
 90
        0
280
     0
281
     0
  0
CLASS
  1
ACDBPLACEHOLDER
  2
AcDbPlaceHolder
  3
ObjectDBX Classes
 90
        0
280
     0
281
     0
  0
CLASS
  1
LAYOUT
  2
AcDbLayout
  3
ObjectDBX Classes
 90
        0
280
     0
281
     0
  0
CLASS
  1
AMGSETTINGSOBJ
  2
AmgSettingsObj
  3
"AcadM|Product Description: AutoCAD Mechanical|Company: Autodesk"
 90
        0
280
     0
281
     0
  0
CLASS
  1
ACME_DOCUMENT
  2
AcMeDbDoc
  3
AcMeServices
 90
        0
280
     0
281
     0
  0
CLASS
  1
ACMESCOPE
  2
AcMeScope
  3
AcMeServices
 90
        0
280
     0
281
     0
  0
CLASS
  1
ACMECOMMANDHISTORY
  2
AcMeCommandHistory
  3
AcMeServices
 90
        0
280
     0
281
     0
  0
CLASS
  1
DICTIONARYVAR
  2
AcDbDictionaryVar
  3
ObjectDBX Classes
 90
        0
280
     0
281
     0
  0
CLASS
  1
ACIMSYSVARMAN
  2
AcImSysVarManager
  3
AcMeServices
 90
        0
280
     0
281
     0
  0
CLASS
  1
ACIMREALSYSVAR
  2
AcImRealSysVar
  3
AcMeServices
 90
        0
280
     0
281
     0
  0
CLASS
  1
ACIMINTSYSVAR
  2
AcImIntSysVar
  3
AcMeServices
 90
        0
280
     0
281
     0
  0
CLASS
  1
ACMEDRAWINGMAN
  2
AcMeDrawingMan
  3
AcMeServices
 90
        0
280
     0
281
     0
  0
CLASS
  1
ACMEVIEW
  2
AcMeView
  3
AcMeServices
 90
        0
280
     0
281
     0
  0
CLASS
  1
ACDBENTITYCACHE
  2
AcMeEntityCache
  3
AcMeServices
 90
        0
280
     0
281
     0
  0
CLASS
  1
GSMANAGER
  2
AcMeGSManager
  3
AcMeServices
 90
        0
280
     0
281
     0
  0
CLASS
  1
AMDTINTERNALREACTOR
  2
AmdtInternalReactor
  3
AcMeServices
 90
        0
280
     0
281
     0
  0
CLASS
  1
ACMESTATEMGR
  2
AcMeStateMgr
  3
AcMeServices
 90
        0
280
     0
281
     0
  0
CLASS
  1
ACGREFMASTER
  2
AcGrefMaster
  3
AcAttribServices
 90
        0
280
     0
281
     0
  0
CLASS
  1
ACME_DATABASE
  2
AcMeDbDatabase
  3
AcMeServices
 90
        0
280
     0
281
     0
  0
CLASS
  1
ACRFINSADJUSTERMGR
  2
AcRfInsAdjusterMgr
  3
AcMeServices
 90
        0
280
     0
281
     0
  0
CLASS
  1
ACGREFACADMASTER
  2
AcGrefacadMaster
  3
AcGrefServices
 90
        0
280
     0
281
     0
  0
CLASS
  1
AMIMASTER
  2
AmiMaster
  3
AmiServices
 90
        0
280
     0
281
     0
  0
CLASS
  1
ACMDATADICTIONARY
  2
AcmDataDictionary
  3
"AcmSymBB|Product Description: AutoCAD Mechanical|Company: Autodesk"
 90
        0
280
     0
281
     0
  0
CLASS
  1
ACMDATAENTRYBLOCK
  2
AcmDataEntryBlock
  3
"AcmSymBB|Product Description: AutoCAD Mechanical|Company: Autodesk"
 90
        0
280
     0
281
     0
  0
CLASS
  1
ACIMSTRSYSVAR
  2
AcImStrSysVar
  3
AcMeServices
 90
        0
280
     0
281
     0
  0
CLASS
  1
ACMSTANDARDISO
  2
AcmStandardISO
  3
"Amdt_StdImp|Product Description: AutoCAD Mechanical|Company: Autodesk"
 90
        0
280
     0
281
     0
  0
CLASS
  1
AMGOBJPROPCFG
  2
AmgObjPropCfg
  3
"AmgLay|Product Description: AutoCAD Mechanical|Company: Autodesk"
 90
        1
280
     0
281
     0
  0
CLASS
  1
AMDTEDGESTANDARDISO
  2
AmdtEdgeStdISO
  3
"Amdt_StdImp|Product Description: AutoCAD Mechanical|Company: Autodesk"
 90
        0
280
     0
281
     0
  0
CLASS
  1
ACMSURFSTANDARDISO
  2
AcmSurfTextStdISO
  3
"Amdt_StdImp|Product Description: AutoCAD Mechanical|Company: Autodesk"
 90
        0
280
     0
281
     0
  0
CLASS
  1
ACMFCFSTANDARDISO
  2
AcmFCFStdISO
  3
"Amdt_StdImp|Product Description: AutoCAD Mechanical|Company: Autodesk"
 90
        0
280
     0
281
     0
  0
CLASS
  1
ACMWELDSTANDARDISO
  2
AcmWeldingStdISO
  3
"Amdt_StdImp|Product Description: AutoCAD Mechanical|Company: Autodesk"
 90
        0
280
     0
281
     0
  0
CLASS
  1
ACMIDSTANDARDISO
  2
AcmIdStdISO
  3
"Amdt_StdImp|Product Description: AutoCAD Mechanical|Company: Autodesk"
 90
        0
280
     0
281
     0
  0
CLASS
  1
ACMDATUMSTANDARDISO
  2
AcmDatumStdISO
  3
"Amdt_StdImp|Product Description: AutoCAD Mechanical|Company: Autodesk"
 90
        0
280
     0
281
     0
  0
CLASS
  1
ACMBOMSTANDARDISO
  2
AcmBOMStdISO
  3
"Amdt_StdImp|Product Description: AutoCAD Mechanical|Company: Autodesk"
 90
        0
280
     0
281
     0
  0
CLASS
  1
ACMDETAILSTANDARDISO
  2
AmdtDetailSymStdISO
  3
"Amdt_StdImp|Product Description: AutoCAD Mechanical|Company: Autodesk"
 90
        0
280
     0
281
     0
  0
CLASS
  1
ACMSECTIONSTANDARDISO
  2
AmdtSectionSymStdISO
  3
"Amdt_StdImp|Product Description: AutoCAD Mechanical|Company: Autodesk"
 90
        0
280
     0
281
     0
  0
CLASS
  1
ACMCENTERLINESTANDARDISO
  2
AmdtCenterLineStdISO
  3
"Amdt_StdImp|Product Description: AutoCAD Mechanical|Company: Autodesk"
 90
        0
280
     0
281
     0
  0
CLASS
  1
ACAMGLAYSTD
  2
AcAmgLayStd
  3
"AmgLay|Product Description: AutoCAD Mechanical|Company: Autodesk"
 90
        0
280
     0
281
     0
  0
CLASS
  1
ACAMGDIMSTD
  2
AcAmgDimStd
  3
"AmgDim|Product Description: AutoCAD Mechanical|Company: Autodesk"
 90
        0
280
     0
281
     0
  0
CLASS
  1
ACAMGTITLESTD
  2
AcAmgTitleStd
  3
"AmgTitle|Product Description: AutoCAD Mechanical|Company: Autodesk"
 90
        0
280
     0
281
     0
  0
CLASS
  1
ACAMGFILTERDAT
  2
AcAmgFilterDat
  3
"AcadM|Product Description: AutoCAD Mechanical|Company: Autodesk"
 90
        0
280
     0
281
     0
  0
CLASS
  1
LAYER_INDEX
  2
AcDbLayerIndex
  3
ObjectDBX Classes
 90
    32768
280
     0
281
     0
  0
CLASS
  1
IDBUFFER
  2
AcDbIdBuffer
  3
ObjectDBX Classes
 90
    32768
280
     0
281
     0
  0
CLASS
  1
PLOTSETTINGS
  2
AcDbPlotSettings
  3
ObjectDBX Classes
 90
    32768
280
     0
281
     0
  0
CLASS
  1
AMDTFORMULAUPDATEDISPATCHER
  2
AmdtFormulaUpdateDispatcher
  3
AcMeServices
 90
        0
280
     0
281
     0
  0
CLASS
  1
ACMSTANDARDANSI
  2
AcmStandardANSI
  3
"Amdt_StdImp|Product Description: AutoCAD Mechanical|Company: Autodesk"
 90
        0
280
     0
281
     0
  0
CLASS
  1
ACMSURFSTANDARDANSI
  2
AcmSurfTextStdANSI
  3
"Amdt_StdImp|Product Description: AutoCAD Mechanical|Company: Autodesk"
 90
        0
280
     0
281
     0
  0
CLASS
  1
ACMFCFSTANDARDANSI
  2
AcmFCFStdANSI
  3
"Amdt_StdImp|Product Description: AutoCAD Mechanical|Company: Autodesk"
 90
        0
280
     0
281
     0
  0
CLASS
  1
ACMWELDSTANDARDANSI
  2
AcmWeldingStdANSI
  3
"Amdt_StdImp|Product Description: AutoCAD Mechanical|Company: Autodesk"
 90
        0
280
     0
281
     0
  0
CLASS
  1
ACMIDSTANDARDANSI
  2
AcmIdStdANSI
  3
"Amdt_StdImp|Product Description: AutoCAD Mechanical|Company: Autodesk"
 90
        0
280
     0
281
     0
  0
CLASS
  1
ACMDATUMSTANDARDANSI
  2
AcmDatumStdANSI
  3
"Amdt_StdImp|Product Description: AutoCAD Mechanical|Company: Autodesk"
 90
        0
280
     0
281
     0
  0
CLASS
  1
ACMBOMSTANDARDANSI
  2
AcmBOMStdANSI
  3
"Amdt_StdImp|Product Description: AutoCAD Mechanical|Company: Autodesk"
 90
        0
280
     0
281
     0
  0
CLASS
  1
ACMDETAILSTANDARDANSI
  2
AmdtDetailSymStdANSI
  3
"Amdt_StdImp|Product Description: AutoCAD Mechanical|Company: Autodesk"
 90
        0
280
     0
281
     0
  0
CLASS
  1
ACMSECTIONSTANDARDANSI
  2
AmdtSectionSymStdANSI
  3
"Amdt_StdImp|Product Description: AutoCAD Mechanical|Company: Autodesk"
 90
        0
280
     0
281
     0
  0
CLASS
  1
ACMCENTERLINESTANDARDANSI
  2
AmdtCenterLineStdANSI
  3
"Amdt_StdImp|Product Description: AutoCAD Mechanical|Company: Autodesk"
 90
        0
280
     0
281
     0
  0
CLASS
  1
ACMBOM
  2
AcmBom
  3
"AcmSymBB|Product Description: AutoCAD Mechanical|Company: Autodesk"
 90
        0
280
     0
281
     0
  0
CLASS
  1
ACMDATAENTRYPART
  2
AcmDataEntryPart
  3
"AcmSymBB|Product Description: AutoCAD Mechanical|Company: Autodesk"
 90
    32768
280
     0
281
     0
  0
CLASS
  1
ACMPARTREF
  2
AcmPartRef
  3
"AcmSymBB|Product Description: AutoCAD Mechanical|Company: Autodesk"
 90
    35839
280
     0
281
     1
  0
CLASS
  1
ACDBCIRCARCRES
  2
AcDbCircArcRes
  3
AcGrefServices
 90
    32768
280
     0
281
     0
  0
CLASS
  1
ACMBOMROW
  2
AcmBomRow
  3
"AcmSymBB|Product Description: AutoCAD Mechanical|Company: Autodesk"
 90
    32768
280
     0
281
     0
  0
CLASS
  1
ACMBALLOON
  2
AcmBalloon
  3
"AcmSymBB|Product Description: AutoCAD Mechanical|Company: Autodesk"
 90
    35839
280
     0
281
     1
  0
CLASS
  1
AMDTNOTE
  2
AmdtNote
  3
"AcmSymBB|Product Description: AutoCAD Mechanical|Company: Autodesk"
 90
    35839
280
     0
281
     1
  0
CLASS
  1
STDPART2D
  2
AmgStdPart
  3
"g3vace|Class: AmgStdPart|Product Description: AutoCAD Mechanical|Company: Autodesk"
 90
    35839
280
     0
281
     1
  0
CLASS
  1
ACDBSTDPARTRES_LINE
  2
AcDbStdPartRes_Line
  3
"g3vace|Class: AcDbStdPartRes_Line|Product Description: AutoCAD Mechanical|Company: Autodesk"
 90
    32768
280
     0
281
     0
  0
CLASS
  1
ACMDATAENTRY
  2
AcmDataEntry
  3
"AcmSymBB|Product Description: AutoCAD Mechanical|Company: Autodesk"
 90
        0
280
     0
281
     0
  0
CLASS
  1
ACDBOPPOLYLINERES
  2
AcDbOpPolylineRes
  3
AcGrefServices
 90
    32768
280
     0
281
     0
  0
CLASS
  1
ACMPARTLIST
  2
AcmPartList
  3
"AcmSymBB|Product Description: AutoCAD Mechanical|Company: Autodesk"
 90
    35839
280
     0
281
     1
  0
CLASS
  1
ACDBLINERES
  2
AcDbLineRes
  3
AcGrefServices
 90
        0
280
     0
281
     0
  0
CLASS
  1
ACRFINSADJ
  2
AcRfInsAdjuster
  3
AcMeServices
 90
    32768
280
     0
281
     0
  0
CLASS
  1
AM_DRAWING_MGR
  2
AcDmDwgMgr
  3
AcMechDwgViewMgmt
 90
        0
280
     0
281
     0
  0
CLASS
  1
AM_DWG_DOCUMENT
  2
AcDmDwgDocument
  3
AcMechDwgViewMgmt
 90
        0
280
     0
281
     0
  0
CLASS
  1
AM_DWG_SHEET
  2
AcDmSheet
  3
AcMechDwgViewMgmt
 90
        0
280
     0
281
     0
  0
CLASS
  1
AM_VIEWDIMPARMAP
  2
AcDmViewDimParMap
  3
AcMechDwgViewMgmt
 90
        0
280
     0
281
     0
  0
CLASS
  1
AM_DWGMGR_NAME
  2
AcDmDwgMgrName
  3
AcMechDwgViewMgmt
 90
        0
280
     0
281
     0
  0
CLASS
  1
AMDTMENUSTATEMGR
  2
AmdtMenuStateMgr
  3
McadcomServices
 90
        0
280
     0
281
     0
  0
CLASS
  1
AMDTMCOMMENUSTATE
  2
AmdtMcomMenuState
  3
McadcomServices
 90
        0
280
     0
281
     0
  0
CLASS
  1
ASAPP
  2
AcAsAppObject
  3
AutoSurfServices
 90
        0
280
     0
281
     0
  0
CLASS
  1
IM_STATIC_MAN
  2
AcImStaticVarManager
  3
AcMeServices
 90
        0
280
     0
281
     0
  0
CLASS
  1
ACIMDBLSTATICVAR
  2
AcImDblStaticVar
  3
AcMeServices
 90
        0
280
     0
281
     0
  0
CLASS
  1
ACIMSTRSTATICVAR
  2
AcImStrStaticVar
  3
AcMeServices
 90
        0
280
     0
281
     0
  0
CLASS
  1
ACIMINTSTATICVAR
  2
AcImIntStaticVar
  3
AcMeServices
 90
        0
280
     0
281
     0
  0
CLASS
  1
ACASGREFMASTER
  2
AcAsGrefMaster
  3
AutoSurfResolverServices
 90
        0
280
     0
281
     0
  0
CLASS
  1
ACADGREFMODULE
  2
AcAdGrefModule
  3
AdGrefServices
 90
        0
280
     0
281
     0
  0
CLASS
  1
AMDTMAPISURFMOUDULE
  2
AmdtMApiSurfModule
  3
MApiSurfServices
 90
        0
280
     0
281
     0
  0
CLASS
  1
MAPIAMMOUDLE
  2
MApiAmModule
  3
MApiAmServices
 90
        0
280
     0
281
     0
  0
CLASS
  1
AMDTADMENUSTATE
  2
AmdtAdMenuState
  3
DesignerServices
 90
        0
280
     0
281
     0
  0
CLASS
  1
ADAPPL
  2
AcAdAppl
  3
DesignerServices
 90
        0
280
     0
281
     0
  0
CLASS
  1
DEPMGR
  2
AcAdDepMgr
  3
DesignerServices
 90
        0
280
     0
281
     0
  0
CLASS
  1
PARAMMGR
  2
AcAdParamMgr
  3
DesignerServices
 90
        0
280
     0
281
     0
  0
CLASS
  1
PARAMSCOPE
  2
AcAdParamScope
  3
DesignerServices
 90
        0
280
     0
281
     0
  0
CLASS
  1
NAMEDAPPL
  2
AcAdNamedAppl
  3
DesignerServices
 90
        0
280
     0
281
     0
  0
CLASS
  1
ADHNTMPLT
  2
AdHoleNoteTemplateMgr
  3
DesignerServices
 90
    32768
280
     0
281
     0
  0
CLASS
  1
AM_HNTEMPLATE_MGR_NAME
  2
AdHoleNoteTemplateMgrName
  3
DesignerServices
 90
    32768
280
     0
281
     0
  0
CLASS
  1
AMDTDMMENUSTATE
  2
AmdtDmMenuState
  3
AcMechDwgViewMgmt
 90
        0
280
     0
281
     0
  0
CLASS
  1
MAPIADMODULE
  2
MApiAdModule
  3
MApiAdServices
 90
        0
280
     0
281
     0
  0
CLASS
  1
AMDTAMMENUSTATE
  2
AmdtAmMenuState
  3
DesignerAssemblies
 90
        0
280
     0
281
     0
  0
CLASS
  1
ACAMPROJECT
  2
AcAmProject
  3
DesignerAssemblies
 90
        0
280
     0
281
     0
  0
CLASS
  1
ACAMGRCOMPDEF
  2
AcAmGrCompDef
  3
DesignerAssemblies
 90
        0
280
     0
281
     0
  0
CLASS
  1
ACCMCONTEXT
  2
AcCmContext
  3
DesignerAssemblies
 90
        0
280
     0
281
     0
  0
CLASS
  1
ACAMCOMPDEF
  2
AcAmCompDef
  3
DesignerAssemblies
 90
        0
280
     0
281
     0
  0
CLASS
  1
ACAMCOMPDEFMGR
  2
AcAmCompDefMgr
  3
DesignerAssemblies
 90
        0
280
     0
281
     0
  0
CLASS
  1
AMCONTEXTMGR
  2
AcAmContextMgr
  3
DesignerAssemblies
 90
        0
280
     0
281
     0
  0
CLASS
  1
ACAMCONTEXTMODELER
  2
AcAmContextModeler
  3
DesignerAssemblies
 90
        0
280
     0
281
     0
  0
CLASS
  1
CATALOGSTATE
  2
AcAmCatalogState
  3
DesignerAssemblies
 90
        0
280
     0
281
     0
  0
CLASS
  1
ACAMGRCOMPDEFSET
  2
AcAmGrCompDefSet
  3
DesignerAssemblies
 90
        0
280
     0
281
     0
  0
CLASS
  1
AMDTBROWSERDBTAB
  2
AmdtBrowserDbTab
  3
McadcomServices
 90
        0
280
     0
281
     0
  0
CLASS
  1
CBROWSERAPPOBJECT
  2
CBrowserAppObject
  3
McadcomServices
 90
        0
280
     0
281
     0
  0
CLASS
  1
DM_PLACEHOLDER
  2
AcDmSelsetPlaceholder
  3
AcMechDwgViewMgmt
 90
        0
280
     0
281
     0
  0
CLASS
  1
ACMPICKOBJ
  2
AcmPickEnt
  3
"AcmSymBB|Product Description: AutoCAD Mechanical|Company: Autodesk"
 90
    32768
280
     0
281
     1
  0
CLASS
  1
ACMNOTESTANDARDISO
  2
AmdtNoteStdISO
  3
"Amdt_StdImp|Product Description: AutoCAD Mechanical|Company: Autodesk"
 90
        0
280
     0
281
     0
  0
CLASS
  1
ACMNOTESTANDARDANSI
  2
AmdtNoteStdANSI
  3
"Amdt_StdImp|Product Description: AutoCAD Mechanical|Company: Autodesk"
 90
        0
280
     0
281
     0
  0
CLASS
  1
ACMTHREADLINESTANDARDISO
  2
AmdtThreadLineStdISO
  3
"Amdt_StdImp|Product Description: AutoCAD Mechanical|Company: Autodesk"
 90
        0
280
     0
281
     0
  0
CLASS
  1
ACMTHREADLINESTANDARDANSI
  2
AmdtThreadLineStdANSI
  3
"Amdt_StdImp|Product Description: AutoCAD Mechanical|Company: Autodesk"
 90
        0
280
     0
281
     0
  0
CLASS
  1
TABLESTYLE
  2
AcDbTableStyle
  3
ObjectDBX Classes
 90
     4095
280
     0
281
     0
  0
CLASS
  1
SORTENTSTABLE
  2
AcDbSortentsTable
  3
ObjectDBX Classes
 90
        0
280
     0
281
     0
  0
CLASS
  1
MATERIAL
  2
AcDbMaterial
  3
ObjectDBX Classes
 90
     1024
280
     0
281
     0
  0
CLASS
  1
VISUALSTYLE
  2
AcDbVisualStyle
  3
ObjectDBX Classes
 90
     4095
280
     0
281
     0
  0
CLASS
  1
ACRFATTGENMGR
  2
AcRfAttGeneralMgr
  3
AcAttribServices
 90
        0
280
     0
281
     0
  0
CLASS
  1
ACRFOBJATTMGR
  2
AcRfObjAttGroupMgr
  3
AcAttribServices
 90
        0
280
     0
281
     0
  0
CLASS
  1
ACRFMCADAPIATTHOLDER
  2
AcRfMCADAPIAttHolder
  3
AcAttribServices
 90
        0
280
     0
281
     0
  0
CLASS
  1
AMDTSYSATTR
  2
AmdtSystemAttribute
  3
AcAttribServices
 90
        0
280
     0
281
     0
  0
CLASS
  1
ACMTAPERSTANDARDISO
  2
AcmTaperStdISO
  3
"Amdt_StdImp|Product Description: AutoCAD Mechanical|Company: Autodesk"
 90
        0
280
     0
281
     0
  0
CLASS
  1
CAMSSTRUCTBTNSTATE
  2
StructBtnState
  3
L"DesignerAssemblies"
 90
        0
280
     0
281
     0
  0
CLASS
  1
DIMASSOC
  2
AcDbDimAssoc
  3
"AcDbDimAssoc|Product Desc:     AcDim ARX App For Dimension|Company:          Autodesk, Inc.|WEB Address:      www.autodesk.com"
 90
    32768
280
     0
281
     0
  0
CLASS
  1
EXACXREFPANELOBJECT
  2
ExAcXREFPanelObject
  3
EXAC_ESW
 90
    33793
280
     0
281
     0
  0
CLASS
  1
NPOCOLLECTION
  2
AcDbImpNonPersistentObjectsCollection
  3
ObjectDBX Classes
 90
    33921
280
     0
281
     0
  0
CLASS
  1
AMDTEDGESTANDARDISO13715
  2
AmdtEdgeStdISO13715
  3
"Amdt_StdImp|Product Description: AutoCAD Mechanical|Company: Autodesk"
 90
        0
280
     0
281
     0
  0
CLASS
  1
AMDTNOTETEMPLATEDB
  2
AmdtNoteTemplateDB
  3
AMDT_STDIMP_MODULE_NAME
 90
        0
280
     0
281
     0
  0
CLASS
  1
ACAMGHOLECHARTSTDISO
  2
AcAmgHoleChartStdISO
  3
ACMSYMBB_MODULE_NAME
 90
        0
280
     0
281
     0
  0
CLASS
  1
ACMTAPERSTANDARDANSI
  2
AcmTaperStdANSI
  3
"Amdt_StdImp|Product Description: AutoCAD Mechanical|Company: Autodesk"
 90
        0
280
     0
281
     0
  0
CLASS
  1
ACAMGHOLECHARTSTDANSI
  2
AcAmgHoleChartStdANSI
  3
ACMSYMBB_MODULE_NAME
 90
        0
280
     0
281
     0
  0
CLASS
  1
ACAMSTDPCOMPDEF
  2
AcAmStdpCompDef
  3
DesignerAssemblies
 90
    32768
280
     0
281
     0
  0
CLASS
  1
ACAMCOMP
  2
AcAmComp
  3
DesignerAssemblies
 90
    32768
280
     0
281
     0
  0
CLASS
  1
AC_AM_STDP_VIEW_DEF
  2
AcAmStdpViewDef
  3
DesignerAssemblies
 90
    32768
280
     0
281
     0
  0
CLASS
  1
AC_AM_MVD_DEP_MGR
  2
AcAmMVDdepMgr
  3
DesignerAssemblies
 90
        0
280
     0
281
     0
  0
CLASS
  1
AC_AM_MASTER_VIEW_DEF
  2
AcAmMasterViewDef
  3
DesignerAssemblies
 90
        0
280
     0
281
     0
  0
CLASS
  1
AC_AM_DIRTY_NODES
  2
AcAmDirtyNodes
  3
DesignerAssemblies
 90
        0
280
     0
281
     0
  0
CLASS
  1
AC_AM_MAPPER_CACHE
  2
AcAmMapperCache
  3
DesignerAssemblies
 90
        0
280
     0
281
     0
  0
CLASS
  1
ACAMMVDBACKUPOBJECT
  2
AcAmMVDBackupObject
  3
DesignerAssemblies
 90
        0
280
     0
281
     0
  0
CLASS
  1
AC_AM_COMP_VIEW_INST
  2
AcAmCompView
  3
DesignerAssemblies
 90
    32768
280
     0
281
     0
  0
CLASS
  1
AC_AM_2D_XREF_MGR
  2
AcAmXrefMgr2d
  3
DesignerAssemblies
 90
        0
280
     0
281
     0
  0
CLASS
  1
AC_AM_HIDE_SITUATION
  2
AcAmHideSituation
  3
DesignerAssemblies
 90
    32768
280
     0
281
     0
  0
CLASS
  1
AC_AM_TRANSFORM_GHOST
  2
AcDbTransformGhost
  3
DesignerAssemblies
 90
    32768
280
     0
281
     1
  0
CLASS
  1
L"OBJCLONER"
  2
ObjCloner
  3
DesignerAssemblies
 90
    32768
280
     0
281
     1
  0
ENDSEC
  0
SECTION
  2
TABLES
  0
TABLE
  2
VPORT
  5
8
330
0
100
AcDbSymbolTable
 70
     1
  0
VPORT
  5
B0EC
330
8
100
AcDbSymbolTableRecord
100
AcDbViewportTableRecord
  2
*Active
 70
     0
 10
0.0
 20
0.0
 11
1.0
 21
1.0
 12
6223.476696955446
 22
-5172.880083463397
 13
0.0
 23
0.0
 14
2.5
 24
2.5
 15
10.0
 25
10.0
 16
0.0
 26
0.0
 36
1.0
 17
0.0
 27
0.0
 37
0.0
 40
212.9184911544926
 41
1.648648648648648
 42
50.0
 43
-1370.695619172058
 44
-1370.695619172058
 50
0.0
 51
0.0
 71
     0
 72
   100
 73
     1
 74
     3
 75
     0
 76
     0
 77
     0
 78
     0
281
     0
 65
     0
110
0.0
120
0.0
130
0.0
111
1.0
121
0.0
131
0.0
112
0.0
122
1.0
132
0.0
 79
     0
146
0.0
  0
ENDTAB
  0
TABLE
  2
LTYPE
  5
5
330
0
100
AcDbSymbolTable
 70
    23
  0
LTYPE
  5
14
330
5
100
AcDbSymbolTableRecord
100
AcDbLinetypeTableRecord
  2
ByBlock
 70
     0
  3

 72
    65
 73
     0
 40
0.0
  0
LTYPE
  5
15
330
5
100
AcDbSymbolTableRecord
100
AcDbLinetypeTableRecord
  2
ByLayer
 70
     0
  3

 72
    65
 73
     0
 40
0.0
  0
LTYPE
  5
16
330
5
100
AcDbSymbolTableRecord
100
AcDbLinetypeTableRecord
  2
Continuous
 70
     0
  3
Solid line
 72
    65
 73
     0
 40
0.0
  0
LTYPE
  5
4F
330
5
100
AcDbSymbolTableRecord
100
AcDbLinetypeTableRecord
  2
AM_ISO02W050
 70
     0
  3
__ __ __ __ __ __ __ __ __ __ __ __ __ __ __
 72
    65
 73
     2
 40
7.5
 49
6.0
 74
     0
 49
-1.5
 74
     0
  0
LTYPE
  5
52
330
5
100
AcDbSymbolTableRecord
100
AcDbLinetypeTableRecord
  2
Amconstr
 70
     0
  3
_______________________
 72
    65
 73
     2
 40
9999.0
 49
9999.0
 74
     0
 49
0.0
 74
     0
  0
LTYPE
  5
64
330
5
100
AcDbSymbolTableRecord
100
AcDbLinetypeTableRecord
  2
ACISOWELD
 70
     0
  3
_ _ _ _ _
 72
    65
 73
     2
 40
2.0
 49
2.0
 74
     0
 49
-1.0
 74
     0
  0
LTYPE
  5
65
330
5
100
AcDbSymbolTableRecord
100
AcDbLinetypeTableRecord
  2
ACISOTGB
 70
     0
  3
__ . . __ . .
 72
    65
 73
     6
 40
9.0
 49
4.0
 74
     0
 49
-1.0
 74
     0
 49
1.0
 74
     0
 49
-1.0
 74
     0
 49
1.0
 74
     0
 49
-1.0
 74
     0
  0
LTYPE
  5
66
330
5
100
AcDbSymbolTableRecord
100
AcDbLinetypeTableRecord
  2
ACISOTGL
 70
     0
  3
_ _ _ _ _
 72
    65
 73
     2
 40
3.0
 49
2.0
 74
     0
 49
-1.0
 74
     0
  0
LTYPE
  5
69
330
5
100
AcDbSymbolTableRecord
100
AcDbLinetypeTableRecord
  2
CENTER
 70
     0
  3
__ . __
 72
    65
 73
     4
 40
7.0
 49
4.0
 74
     0
 49
-1.0
 74
     0
 49
1.0
 74
     0
 49
-1.0
 74
     0
  0
LTYPE
  5
A6E
330
5
100
AcDbSymbolTableRecord
100
AcDbLinetypeTableRecord
  2
PHANTOM2
 70
     0
  3
Phantom (.5x) ___ _ _ ___ _ _ ___ _ _ ___ _ _
 72
    65
 73
     6
 40
31.75
 49
15.875
 74
     0
 49
-3.174999999999999
 74
     0
 49
3.174999999999999
 74
     0
 49
-3.174999999999999
 74
     0
 49
3.174999999999999
 74
     0
 49
-3.174999999999999
 74
     0
  0
LTYPE
  5
4DED
330
5
100
AcDbSymbolTableRecord
100
AcDbLinetypeTableRecord
  2
中線
 70
     0
  3
___________________
 72
    65
 73
     2
 40
2.0
 49
1.0
 74
     0
 49
1.0
 74
     0
  0
LTYPE
  5
4DF6
330
5
100
AcDbSymbolTableRecord
100
AcDbLinetypeTableRecord
  2
細線
 70
     0
  3
___________________
 72
    65
 73
     2
 40
2.0
 49
1.0
 74
     0
 49
1.0
 74
     0
  0
LTYPE
  5
4DF7
330
5
100
AcDbSymbolTableRecord
100
AcDbLinetypeTableRecord
  2
太線
 70
     0
  3
___________________
 72
    65
 73
     2
 40
2.0
 49
1.0
 74
     0
 49
1.0
 74
     0
  0
LTYPE
  5
4EA7
330
5
100
AcDbSymbolTableRecord
100
AcDbLinetypeTableRecord
  2
文字
 70
     0
  3
_________________
 72
    65
 73
     2
 40
2.0
 49
1.0
 74
     0
 49
1.0
 74
     0
  0
LTYPE
  5
4EA9
330
5
100
AcDbSymbolTableRecord
100
AcDbLinetypeTableRecord
  2
寸法線
 70
     0
  3
________________
 72
    65
 73
     2
 40
2.0
 49
1.0
 74
     0
 49
1.0
 74
     0
  0
LTYPE
  5
4F12
330
5
100
AcDbSymbolTableRecord
100
AcDbLinetypeTableRecord
  2
ハッチング
 70
     0
  3
_________________
 72
    65
 73
     2
 40
2.0
 49
1.0
 74
     0
 49
1.0
 74
     0
  0
LTYPE
  5
5180
330
5
100
AcDbSymbolTableRecord
100
AcDbLinetypeTableRecord
  2
陰線1
 70
     0
  3
__ __ __ __
 72
    65
 73
     2
 40
4.0
 49
2.2
 74
     0
 49
-1.8
 74
     0
  0
LTYPE
  5
5182
330
5
100
AcDbSymbolTableRecord
100
AcDbLinetypeTableRecord
  2
切断線
 70
     0
  3
/\/-/\/-/\/-/\/-/\/-/\/
 72
    65
 73
     2
 40
11.0001
 49
0.0001
 74
     4
 75
   135
340
56
 46
0.04
 50
0.0
 44
0.0
 45
0.0
 49
-11.0
 74
     0
  0
LTYPE
  5
5183
330
5
100
AcDbSymbolTableRecord
100
AcDbLinetypeTableRecord
  2
想像線1
 70
     0
  3
__ __ __ _____ __ __ ____
 72
    65
 73
     6
 40
14.5
 49
6.0
 74
     0
 49
-1.5
 74
     0
 49
2.0
 74
     0
 49
-1.5
 74
     0
 49
2.0
 74
     0
 49
-1.5
 74
     0
  0
LTYPE
  5
5185
330
5
100
AcDbSymbolTableRecord
100
AcDbLinetypeTableRecord
  2
中心線1
 70
     0
  3
___ _ ___ _ ___
 72
    65
 73
     4
 40
18.0
 49
12.0
 74
     0
 49
-2.0
 74
     0
 49
2.0
 74
     0
 49
-2.0
 74
     0
  0
LTYPE
  5
5188
330
5
100
AcDbSymbolTableRecord
100
AcDbLinetypeTableRecord
  2
補助線
 70
     0
  3
______________
 72
    65
 73
     2
 40
2.0
 49
1.0
 74
     0
 49
1.0
 74
     0
  0
LTYPE
  5
6427
330
5
100
AcDbSymbolTableRecord
100
AcDbLinetypeTableRecord
  2
HIDDEN
 70
     0
  3
Hidden __ __ __ __ __ __ __ __ __ __ __ __ __ _
 72
    65
 73
     2
 40
0.375
 49
0.25
 74
     0
 49
-0.125
 74
     0
  0
LTYPE
  5
AF95
330
5
100
AcDbSymbolTableRecord
100
AcDbLinetypeTableRecord
  2
AM_ISO08W050
 70
     0
  3
____ . ____ . ____ . ____ . ____ . ____ . ____
 72
    65
 73
     4
 40
18.0
 49
12.0
 74
     0
 49
-1.5
 74
     0
 49
3.0
 74
     0
 49
-1.5
 74
     0
  0
LTYPE
  5
FD15
330
5
100
AcDbSymbolTableRecord
100
AcDbLinetypeTableRecord
  2
ACANSTGB
 70
     0
  3
__ . . __ . .
 72
    65
 73
     6
 40
0.35433070866
 49
0.15748031496
 74
     0
 49
-0.03937007874
 74
     0
 49
0.03937007874
 74
     0
 49
-0.03937007874
 74
     0
 49
0.03937007874
 74
     0
 49
-0.03937007874
 74
     0
  0
LTYPE
  5
FD16
330
5
100
AcDbSymbolTableRecord
100
AcDbLinetypeTableRecord
  2
ACANSTGL
 70
     0
  3
_ _ _ _ _
 72
    65
 73
     2
 40
0.11811023622
 49
0.07874015748
 74
     0
 49
-0.03937007874
 74
     0
  0
ENDTAB
  0
TABLE
  2
LAYER
  5
2
102
{ACAD_XDICTIONARY
360
3F95
102
}
330
0
100
AcDbSymbolTable
 70
    16
  0
LAYER
  5
10
330
2
100
AcDbSymbolTableRecord
100
AcDbLayerTableRecord
  2
0
 70
     0
 62
     7
  6
Continuous
370
    -3
390
F
  0
LAYER
  5
6D1
330
2
100
AcDbSymbolTableRecord
100
AcDbLayerTableRecord
  2
Defpoints
 70
     0
 62
     7
  6
Continuous
290
     0
370
    -3
390
F
  0
LAYER
  5
AC9F
330
2
100
AcDbSymbolTableRecord
100
AcDbLayerTableRecord
  2
size
 70
     0
 62
     5
  6
Continuous
290
     0
370
    25
390
F
  0
LAYER
  5
ACA0
330
2
100
AcDbSymbolTableRecord
100
AcDbLayerTableRecord
  2
waku
 70
     0
 62
     7
  6
Continuous
370
    35
390
F
  0
LAYER
  5
ACA1
330
2
100
AcDbSymbolTableRecord
100
AcDbLayerTableRecord
  2
AM_6
 70
     0
 62
     2
  6
文字
370
    15
390
F
1001
AcAecLayerStandard
1000

1000

  0
LAYER
  5
AD64
330
2
100
AcDbSymbolTableRecord
100
AcDbLayerTableRecord
  2
AM_2
 70
     0
 62
     1
  6
細線
370
    15
390
F
1001
AcAecLayerStandard
1000

1000

  0
LAYER
  5
AD68
330
2
100
AcDbSymbolTableRecord
100
AcDbLayerTableRecord
  2
AM_5
 70
     0
 62
     3
  6
寸法線
370
    15
390
F
1001
AcAecLayerStandard
1000

1000

  0
LAYER
  5
B5F5
330
2
100
AcDbSymbolTableRecord
100
AcDbLayerTableRecord
  2
0部品6
 70
     0
 62
    13
  6
細線
370
    30
390
F
1001
AcAecLayerStandard
1000

1000

  0
LAYER
  5
B5F7
330
2
100
AcDbSymbolTableRecord
100
AcDbLayerTableRecord
  2
0部品4
 70
     0
 62
    70
  6
細線
370
    30
390
F
1001
AcAecLayerStandard
1000

1000

  0
LAYER
  5
B5F9
330
2
100
AcDbSymbolTableRecord
100
AcDbLayerTableRecord
  2
0部品10
 70
     0
 62
   131
  6
Continuous
370
    30
390
F
1001
AcAecLayerStandard
1000

1000

  0
LAYER
  5
B5FB
330
2
100
AcDbSymbolTableRecord
100
AcDbLayerTableRecord
  2
0部品18
 70
     0
 62
   254
  6
細線
370
    30
390
F
1001
AcAecLayerStandard
1000

1000

  0
LAYER
  5
B5FC
330
2
100
AcDbSymbolTableRecord
100
AcDbLayerTableRecord
  2
0部品1
 70
     0
 62
   213
  6
細線
370
    30
390
F
1001
AcAecLayerStandard
1000

1000

  0
LAYER
  5
B5FD
330
2
100
AcDbSymbolTableRecord
100
AcDbLayerTableRecord
  2
0部品2
 70
     0
 62
   163
  6
細線
370
    30
390
F
1001
AcAecLayerStandard
1000

1000

  0
LAYER
  5
B5FE
330
2
100
AcDbSymbolTableRecord
100
AcDbLayerTableRecord
  2
0部品3
 70
     0
 62
   122
  6
細線
370
    30
390
F
1001
AcAecLayerStandard
1000

1000

  0
LAYER
  5
2E415
102
{ACAD_XDICTIONARY
360
2E416
102
}
330
2
100
AcDbSymbolTableRecord
100
AcDbLayerTableRecord
  2
AM_1
 70
     0
 62
    30
  6
太線
370
    25
390
F
1001
AcAecLayerStandard
1000

1000

  0
LAYER
  5
35DAE
330
2
100
AcDbSymbolTableRecord
100
AcDbLayerTableRecord
  2
LAYER001
 70
     0
 62
     7
  6
Continuous
370
    -3
390
F
  0
ENDTAB
  0
TABLE
  2
STYLE
  5
3
330
0
100
AcDbSymbolTable
 70
     7
  0
STYLE
  5
11
330
3
100
AcDbSymbolTableRecord
100
AcDbTextStyleTableRecord
  2
STANDARD
 70
     0
 40
0.0
 41
0.7
 50
0.0
 71
     0
 42
3.2
  3
romans.shx
  4
extfont.shx
  0
STYLE
  5
56
330
3
100
AcDbSymbolTableRecord
100
AcDbTextStyleTableRecord
  2

 70
     1
 40
0.0
 41
1.0
 50
0.0
 71
     0
 42
2.5
  3
ltypeshp.shx
  4

  0
STYLE
  5
58
330
3
100
AcDbSymbolTableRecord
100
AcDbTextStyleTableRecord
  2
ACISOTS
 70
     0
 40
1.0
 41
1.0
 50
0.0
 71
     0
 42
2.5
  3
isocp.shx
  4
extfont.shx
  0
STYLE
  5
63
330
3
100
AcDbSymbolTableRecord
100
AcDbTextStyleTableRecord
  2
ACISOGDT
 70
     0
 40
0.0
 41
1.0
 50
0.0
 71
     0
 42
2.5
  3
amgdt.shx
  4

  0
STYLE
  5
A74
330
3
100
AcDbSymbolTableRecord
100
AcDbTextStyleTableRecord
  2
DIM
 70
     0
 40
0.0
 41
1.0
 50
0.0
 71
     0
 42
2.5
  3
monotxt.shx
  4
extfont.shx
  0
STYLE
  5
FD18
330
3
100
AcDbSymbolTableRecord
100
AcDbTextStyleTableRecord
  2
ACANSTS
 70
     0
 40
1.0
 41
1.0
 50
0.0
 71
     0
 42
0.2
  3
romans.shx
  4
extfont.shx
  0
STYLE
  5
FD19
330
3
100
AcDbSymbolTableRecord
100
AcDbTextStyleTableRecord
  2
ACANSGDT
 70
     0
 40
0.0
 41
1.0
 50
0.0
 71
     0
 42
0.2
  3
amgdt.shx
  4

  0
ENDTAB
  0
TABLE
  2
VIEW
  5
6
330
0
100
AcDbSymbolTable
 70
     6
  0
VIEW
  5
AE1
330
6
100
AcDbSymbolTableRecord
100
AcDbViewTableRecord
  2
AM_VIEW1
 70
     0
 40
2203.896457765668
 10
5264.599158088851
 20
3198.765197920841
 41
2970.0
 11
0.0
 21
0.0
 31
1.0
 12
0.0
 22
0.0
 32
0.0
 42
50.0
 43
-1370.695619172058
 44
-1370.695619172058
 50
0.0
 71
     0
281
     0
 72
     0
  0
VIEW
  5
AE2
330
6
100
AcDbSymbolTableRecord
100
AcDbViewTableRecord
  2
AM_VIEW2
 70
     0
 40
2203.896457765668
 10
8234.599158088851
 20
3198.765197920841
 41
2970.0
 11
0.0
 21
0.0
 31
1.0
 12
0.0
 22
0.0
 32
0.0
 42
50.0
 43
-1370.695619172058
 44
-1370.695619172058
 50
0.0
 71
     0
281
     0
 72
     0
  0
VIEW
  5
AE3
330
6
100
AcDbSymbolTableRecord
100
AcDbViewTableRecord
  2
AM_VIEW3
 70
     0
 40
2203.896457765668
 10
5264.599158088851
 20
1202.661655686509
 41
2970.0
 11
0.0
 21
0.0
 31
1.0
 12
0.0
 22
0.0
 32
0.0
 42
50.0
 43
-1370.695619172058
 44
-1370.695619172058
 50
0.0
 71
     0
281
     0
 72
     0
  0
VIEW
  5
AE4
330
6
100
AcDbSymbolTableRecord
100
AcDbViewTableRecord
  2
AM_VIEW4
 70
     0
 40
2203.896457765668
 10
8234.599158088851
 20
1202.661655686509
 41
2970.0
 11
0.0
 21
0.0
 31
1.0
 12
0.0
 22
0.0
 32
0.0
 42
50.0
 43
-1370.695619172058
 44
-1370.695619172058
 50
0.0
 71
     0
281
     0
 72
     0
  0
VIEW
  5
AE5
330
6
100
AcDbSymbolTableRecord
100
AcDbViewTableRecord
  2
AM_VIEW5
 70
     0
 40
2203.896457765668
 10
6749.599158088852
 20
2200.713426803675
 41
2970.0
 11
0.0
 21
0.0
 31
1.0
 12
0.0
 22
0.0
 32
0.0
 42
50.0
 43
-1370.695619172058
 44
-1370.695619172058
 50
0.0
 71
     0
281
     0
 72
     0
  0
VIEW
  5
AE6
330
6
100
AcDbSymbolTableRecord
100
AcDbViewTableRecord
  2
AM_VIEW6
 70
     0
 40
4407.748837602181
 10
6749.599158088852
 20
2200.713426803675
 41
5939.9406
 11
0.0
 21
0.0
 31
1.0
 12
0.0
 22
0.0
 32
0.0
 42
50.0
 43
-1370.695619172058
 44
-1370.695619172058
 50
0.0
 71
     0
281
     0
 72
     0
  0
ENDTAB
  0
TABLE
  2
UCS
  5
7
330
0
100
AcDbSymbolTable
 70
     0
  0
ENDTAB
  0
TABLE
  2
APPID
  5
9
330
0
100
AcDbSymbolTable
 70
    67
  0
APPID
  5
12
330
9
100
AcDbSymbolTableRecord
100
AcDbRegAppTableRecord
  2
ACAD
 70
     0
  0
APPID
  5
30
330
9
100
AcDbSymbolTableRecord
100
AcDbRegAppTableRecord
  2
MCAD_NO_VIS
 70
     0
  0
APPID
  5
31
330
9
100
AcDbSymbolTableRecord
100
AcDbRegAppTableRecord
  2
ACAD_TEMP_GRAPHIC
 70
     0
  0
APPID
  5
44
330
9
100
AcDbSymbolTableRecord
100
AcDbRegAppTableRecord
  2
ACATTRIBSERVICES
 70
     0
  0
APPID
  5
7A1
330
9
100
AcDbSymbolTableRecord
100
AcDbRegAppTableRecord
  2
GENIUS_GENDIMSH_14
 70
     0
  0
APPID
  5
A49
330
9
100
AcDbSymbolTableRecord
100
AcDbRegAppTableRecord
  2
GENIUS_GENREC_14
 70
     0
  0
APPID
  5
A4A
330
9
100
AcDbSymbolTableRecord
100
AcDbRegAppTableRecord
  2
GENIUS_GENOBJ-N-REC_13
 70
     0
  0
APPID
  5
A4B
330
9
100
AcDbSymbolTableRecord
100
AcDbRegAppTableRecord
  2
GENIUS_GENODEF_13
 70
     0
  0
APPID
  5
A4C
330
9
100
AcDbSymbolTableRecord
100
AcDbRegAppTableRecord
  2
DCO15
 70
     0
  0
APPID
  5
ADC
330
9
100
AcDbSymbolTableRecord
100
AcDbRegAppTableRecord
  2
GENIUS_GENOLIS_13
 70
     0
  0
APPID
  5
ADD
330
9
100
AcDbSymbolTableRecord
100
AcDbRegAppTableRecord
  2
GENIUS_GENOENT_13
 70
     0
  0
APPID
  5
ADE
330
9
100
AcDbSymbolTableRecord
100
AcDbRegAppTableRecord
  2
GENIUS_GENOBJ-N-TIT_13
 70
     0
  0
APPID
  5
ADF
330
9
100
AcDbSymbolTableRecord
100
AcDbRegAppTableRecord
  2
GENIUS_GENTITLE_13
 70
     0
  0
APPID
  5
AE0
330
9
100
AcDbSymbolTableRecord
100
AcDbRegAppTableRecord
  2
GENIUS_GENOREF_13
 70
     0
  0
APPID
  5
AE7
330
9
100
AcDbSymbolTableRecord
100
AcDbRegAppTableRecord
  2
GENIUS_GENSCREG_15
 70
     0
  0
APPID
  5
AE8
330
9
100
AcDbSymbolTableRecord
100
AcDbRegAppTableRecord
  2
GENIUS_GENOBJ-N-SDF_13
 70
     0
  0
APPID
  5
FAF
330
9
100
AcDbSymbolTableRecord
100
AcDbRegAppTableRecord
  2
GENIUS_GENBLLY_14
 70
     0
  0
APPID
  5
FB0
330
9
100
AcDbSymbolTableRecord
100
AcDbRegAppTableRecord
  2
GENIUS_GENTRA_14
 70
     0
  0
APPID
  5
1285
330
9
100
AcDbSymbolTableRecord
100
AcDbRegAppTableRecord
  2
GENIUS_GENDTOL_13
 70
     0
  0
APPID
  5
142D
330
9
100
AcDbSymbolTableRecord
100
AcDbRegAppTableRecord
  2
GENIUS_GENOBJ-N-CEN_13
 70
     0
  0
APPID
  5
1AB5
330
9
100
AcDbSymbolTableRecord
100
AcDbRegAppTableRecord
  2
GENIUS_GENOBJ-N-CRS_13
 70
     0
  0
APPID
  5
1B36
330
9
100
AcDbSymbolTableRecord
100
AcDbRegAppTableRecord
  2
GENIUS_GENOBJ-N-HTC_13
 70
     0
  0
APPID
  5
1B37
330
9
100
AcDbSymbolTableRecord
100
AcDbRegAppTableRecord
  2
GENIUS_GENHATCH_13
 70
     0
  0
APPID
  5
216D
330
9
100
AcDbSymbolTableRecord
100
AcDbRegAppTableRecord
  2
GENIUS_GENOBJ-N-FIL_13
 70
     0
  0
APPID
  5
2356
330
9
100
AcDbSymbolTableRecord
100
AcDbRegAppTableRecord
  2
GEVID990412420
 70
     0
  0
APPID
  5
2357
330
9
100
AcDbSymbolTableRecord
100
AcDbRegAppTableRecord
  2
GEVDC
 70
     0
  0
APPID
  5
2358
330
9
100
AcDbSymbolTableRecord
100
AcDbRegAppTableRecord
  2
GEVCON
 70
     0
  0
APPID
  5
235B
330
9
100
AcDbSymbolTableRecord
100
AcDbRegAppTableRecord
  2
GEVRADREF
 70
     0
  0
APPID
  5
2360
330
9
100
AcDbSymbolTableRecord
100
AcDbRegAppTableRecord
  2
GENIUS_GENBH_13
 70
     0
  0
APPID
  5
2362
330
9
100
AcDbSymbolTableRecord
100
AcDbRegAppTableRecord
  2
GENIUS_GENOBJ-NBEHI-BHF_13
 70
     0
  0
APPID
  5
2364
330
9
100
AcDbSymbolTableRecord
100
AcDbRegAppTableRecord
  2
GENIUS_GENOBJ-NBEHI-BHB_13
 70
     0
  0
APPID
  5
2379
330
9
100
AcDbSymbolTableRecord
100
AcDbRegAppTableRecord
  2
GENIUS_GENOBJ-F-SCPASSM_13
 70
     0
  0
APPID
  5
3D74
330
9
100
AcDbSymbolTableRecord
100
AcDbRegAppTableRecord
  2
GENIUS_GENDIM_13
 70
     0
  0
APPID
  5
3D76
330
9
100
AcDbSymbolTableRecord
100
AcDbRegAppTableRecord
  2
GENIUS_GE3DTOL_13
 70
     0
  0
APPID
  5
3D9C
330
9
100
AcDbSymbolTableRecord
100
AcDbRegAppTableRecord
  2
AD_DRAW
 70
     0
  0
APPID
  5
3DE8
330
9
100
AcDbSymbolTableRecord
100
AcDbRegAppTableRecord
  2
ASURF_PCURVE_APPNAME
 70
     0
  0
APPID
  5
3DED
330
9
100
AcDbSymbolTableRecord
100
AcDbRegAppTableRecord
  2
AMG_3D2D_5.0
 70
     0
  0
APPID
  5
3E1B
330
9
100
AcDbSymbolTableRecord
100
AcDbRegAppTableRecord
  2
DESIGNERASSEMBLIES
 70
     0
  0
APPID
  5
3E20
330
9
100
AcDbSymbolTableRecord
100
AcDbRegAppTableRecord
  2
ACADM_DIM_EDIT
 70
     0
  0
APPID
  5
3E21
330
9
100
AcDbSymbolTableRecord
100
AcDbRegAppTableRecord
  2
AMDT_DM_ADJ
 70
     0
  0
APPID
  5
4143
330
9
100
AcDbSymbolTableRecord
100
AcDbRegAppTableRecord
  2
GENIUS_GENFIL_13
 70
     0
  0
APPID
  5
4144
330
9
100
AcDbSymbolTableRecord
100
AcDbRegAppTableRecord
  2
GENIUS_GENOBJ-N-CHA_13
 70
     0
  0
APPID
  5
4E17
330
9
100
AcDbSymbolTableRecord
100
AcDbRegAppTableRecord
  2
GEVID1008153417
 70
     0
  0
APPID
  5
4E58
330
9
100
AcDbSymbolTableRecord
100
AcDbRegAppTableRecord
  2
GEVID1008153418
 70
     0
  0
APPID
  5
4E5E
330
9
100
AcDbSymbolTableRecord
100
AcDbRegAppTableRecord
  2
GEVID1008153419
 70
     0
  0
APPID
  5
4E64
330
9
100
AcDbSymbolTableRecord
100
AcDbRegAppTableRecord
  2
GEVID1008153420
 70
     0
  0
APPID
  5
4E75
330
9
100
AcDbSymbolTableRecord
100
AcDbRegAppTableRecord
  2
GEVID1008153421
 70
     0
  0
APPID
  5
4EB7
330
9
100
AcDbSymbolTableRecord
100
AcDbRegAppTableRecord
  2
GENIUS_AMGTXT_16
 70
     0
  0
APPID
  5
7645
330
9
100
AcDbSymbolTableRecord
100
AcDbRegAppTableRecord
  2
GENIUS_GENOBJ-N-DIM_13
 70
     0
  0
APPID
  5
AAD0
330
9
100
AcDbSymbolTableRecord
100
AcDbRegAppTableRecord
  2
ACAD_DSTYLE_DIMARC_LENGTH_SYMBOL
 70
     0
  0
APPID
  5
AAD1
330
9
100
AcDbSymbolTableRecord
100
AcDbRegAppTableRecord
  2
ACAD_DSTYLE_DIMJOGGED_JOGANGLE_SYMBOL
 70
     0
  0
APPID
  5
AAFD
330
9
100
AcDbSymbolTableRecord
100
AcDbRegAppTableRecord
  2
ACAD_PSEXT
 70
     0
  0
APPID
  5
AD61
330
9
100
AcDbSymbolTableRecord
100
AcDbRegAppTableRecord
  2
AcAecLayerStandard
 70
     0
  0
APPID
  5
AEE3
330
9
100
AcDbSymbolTableRecord
100
AcDbRegAppTableRecord
  2
ACAD_EXEMPT_FROM_CAD_STANDARDS
 70
     0
  0
APPID
  5
B1BE
330
9
100
AcDbSymbolTableRecord
100
AcDbRegAppTableRecord
  2
GENIUS_GENCEN_19
 70
     0
  0
APPID
  5
B4E1
330
9
100
AcDbSymbolTableRecord
100
AcDbRegAppTableRecord
  2
ACAD_MLEADERVER
 70
     0
  0
APPID
  5
C488
330
9
100
AcDbSymbolTableRecord
100
AcDbRegAppTableRecord
  2
ACAD_DSTYLE_DIMINSPECT
 70
     0
  0
APPID
  5
C489
330
9
100
AcDbSymbolTableRecord
100
AcDbRegAppTableRecord
  2
ACAD_DSTYLE_DIMRADIAL_EXTENSION
 70
     0
  0
APPID
  5
1980E
330
9
100
AcDbSymbolTableRecord
100
AcDbRegAppTableRecord
  2
GEVID1311583542
 70
     0
  0
APPID
  5
19825
330
9
100
AcDbSymbolTableRecord
100
AcDbRegAppTableRecord
  2
AMG_2DHIDE
 70
     0
  0
APPID
  5
19826
330
9
100
AcDbSymbolTableRecord
100
AcDbRegAppTableRecord
  2
AMG_2DSTRUCT_BTR
 70
     0
  0
APPID
  5
19837
330
9
100
AcDbSymbolTableRecord
100
AcDbRegAppTableRecord
  2
ACADM_2DVIEW_IGN_NOTIFY
 70
     0
  0
APPID
  5
1B56B
330
9
100
AcDbSymbolTableRecord
100
AcDbRegAppTableRecord
  2
GEVID1311583543
 70
     0
  0
APPID
  5
1B5F6
330
9
100
AcDbSymbolTableRecord
100
AcDbRegAppTableRecord
  2
GEVID1311583544
 70
     0
  0
APPID
  5
1B61B
330
9
100
AcDbSymbolTableRecord
100
AcDbRegAppTableRecord
  2
GEVID1311583545
 70
     0
  0
APPID
  5
1B63D
330
9
100
AcDbSymbolTableRecord
100
AcDbRegAppTableRecord
  2
GEVID1311583546
 70
     0
  0
APPID
  5
1B675
330
9
100
AcDbSymbolTableRecord
100
AcDbRegAppTableRecord
  2
GEVID1311583547
 70
     0
  0
ENDTAB
  0
TABLE
  2
DIMSTYLE
  5
A
330
0
100
AcDbSymbolTable
 70
    25
100
AcDbDimStyleTable
 71
     3
340
2515
340
251A
340
251B
  0
DIMSTYLE
105
A76
330
A
100
AcDbSymbolTableRecord
100
AcDbDimStyleTableRecord
  2
STANDARD
 70
     0
 41
3.0
 42
1.0
 43
7.0
 44
2.0
 73
     0
 74
     0
 77
     1
140
2.799999999999999
141
0.0
143
0.0394
147
0.7
171
     4
172
     1
173
     1
176
     3
177
     3
178
     2
271
     3
272
     3
273
     8
274
     4
289
     0
340
A74
341
A66
343
A66
344
A66
  0
DIMSTYLE
105
2515
330
A
100
AcDbSymbolTableRecord
100
AcDbDimStyleTableRecord
  2
SYS
 70
     0
  4
"
 41
1.0
 42
1.0
 43
10.0
 44
1.0
 47
0.1
 48
0.1
 73
     0
 74
     0
 77
     1
 78
     8
 79
     2
140
3.5
141
0.0
143
0.0393701
146
0.71
147
1.5
172
     1
176
   256
177
   256
178
     7
271
     2
272
     2
283
     0
284
     8
340
11
371
    -1
372
    -1
1001
ACAD_DSTYLE_DIMJOGGED_JOGANGLE_SYMBOL
1070
   384
1040
0.7853981633974483
1001
ACAD_DSTYLE_DIMARC_LENGTH_SYMBOL
1070
   379
1070
     1
  0
DIMSTYLE
105
2516
102
{ACAD_REACTORS
330
55164
330
59CAF
330
59D35
102
}
330
A
100
AcDbSymbolTableRecord
100
AcDbDimStyleTableRecord
  2
SYS$3
 70
     0
  4
"
 41
2.0
 42
1.0
 43
10.0
 44
1.0
 47
0.1
 48
0.1
 73
     0
 77
     1
 78
     8
 79
     2
140
3.2
141
0.0
143
0.0393701
146
0.71
147
1.0
176
   256
177
   256
178
     2
271
     2
272
     2
283
     0
284
     8
288
     1
340
11
342
A66
371
    -1
372
    -1
1001
ACAD_DSTYLE_DIMJOGGED_JOGANGLE_SYMBOL
1070
   384
1040
0.7853981633974483
1001
ACAD_DSTYLE_DIMARC_LENGTH_SYMBOL
1070
   379
1070
     1
  0
DIMSTYLE
105
2517
330
A
100
AcDbSymbolTableRecord
100
AcDbDimStyleTableRecord
  2
SYS$4
 70
     0
  4
"
 41
2.0
 42
1.0
 43
10.0
 44
1.0
 47
0.1
 48
0.1
 73
     0
 77
     1
 78
     8
 79
     2
140
3.2
141
0.0
143
0.0393701
146
0.71
147
1.0
173
     1
176
   256
177
   256
178
     2
271
     2
272
     2
283
     0
284
     8
288
     1
340
11
344
A66
371
    -1
372
    -1
1001
ACAD_DSTYLE_DIMJOGGED_JOGANGLE_SYMBOL
1070
   384
1040
0.7853981633974483
1001
ACAD_DSTYLE_DIMARC_LENGTH_SYMBOL
1070
   379
1070
     1
  0
DIMSTYLE
105
2518
330
A
100
AcDbSymbolTableRecord
100
AcDbDimStyleTableRecord
  2
SYS$6
 70
     0
  4
"
 41
2.0
 42
1.0
 43
10.0
 44
1.0
 47
0.1
 48
0.1
 73
     0
 74
     0
 78
     8
 79
     2
140
3.2
141
0.0
143
0.0393701
146
0.71
147
1.0
172
     1
176
   256
177
   256
178
     2
271
     2
272
     2
283
     0
284
     8
340
11
341
A66
371
    -1
372
    -1
1001
ACAD_DSTYLE_DIMJOGGED_JOGANGLE_SYMBOL
1070
   384
1040
0.7853981633974483
1001
ACAD_DSTYLE_DIMARC_LENGTH_SYMBOL
1070
   379
1070
     1
  0
DIMSTYLE
105
2519
330
A
100
AcDbSymbolTableRecord
100
AcDbDimStyleTableRecord
  2
SYS$7
 70
     0
  4
"
 41
2.0
 42
1.0
 43
10.0
 44
1.0
 47
0.1
 48
0.1
 73
     0
 74
     0
 77
     1
 78
     8
 79
     2
140
3.2
141
0.0
143
0.0393701
146
0.71
147
1.0
172
     1
176
   256
177
   256
178
     2
271
     2
272
     2
283
     0
284
     8
340
11
341
A66
342
A66
371
    -1
372
    -1
1001
ACAD_DSTYLE_DIMJOGGED_JOGANGLE_SYMBOL
1070
   384
1040
0.7853981633974483
1001
ACAD_DSTYLE_DIMARC_LENGTH_SYMBOL
1070
   379
1070
     1
  0
DIMSTYLE
105
251A
330
A
100
AcDbSymbolTableRecord
100
AcDbDimStyleTableRecord
  2
SYS$SF
 70
     0
  4
"
 41
2.5
 42
1.0
 43
10.0
 44
1.0
 47
0.1
 48
0.1
 73
     0
 74
     0
 75
     1
 76
     1
 77
     1
 78
     8
 79
     2
140
3.2
141
0.0
143
0.0393701
146
0.71
147
1.0
172
     1
176
   256
177
   256
178
     2
271
     2
272
     2
283
     0
284
     8
340
11
341
6C4
342
6C4
371
    -1
372
    -1
1001
ACAD_DSTYLE_DIMJOGGED_JOGANGLE_SYMBOL
1070
   384
1040
0.7853981633974483
1001
ACAD_DSTYLE_DIMARC_LENGTH_SYMBOL
1070
   379
1070
     1
  0
DIMSTYLE
105
251B
330
A
100
AcDbSymbolTableRecord
100
AcDbDimStyleTableRecord
  2
SYS$SH
 70
     0
  4
"
 41
2.5
 42
1.0
 43
10.0
 44
1.0
 47
0.1
 48
0.1
 73
     0
 74
     0
 75
     1
 76
     1
 77
     1
 78
     8
 79
     2
140
3.2
141
0.0
143
0.0393701
144
2.0
146
0.71
147
1.0
172
     1
173
     1
176
   256
177
   256
178
     2
271
     2
272
     2
283
     0
284
     8
340
11
341
6C4
343
72
344
6C4
371
    -1
372
    -1
1001
ACAD_DSTYLE_DIMJOGGED_JOGANGLE_SYMBOL
1070
   384
1040
0.7853981633974483
1001
ACAD_DSTYLE_DIMARC_LENGTH_SYMBOL
1070
   379
1070
     1
  0
DIMSTYLE
105
2A59
330
A
100
AcDbSymbolTableRecord
100
AcDbDimStyleTableRecord
  2
SYS$2
 70
     0
  4
"
 41
1.0
 42
1.0
 43
10.0
 44
1.0
 47
0.1
 48
0.1
 73
     0
 74
     0
 77
     1
 78
     8
 79
     2
140
3.2
141
0.0
143
0.0393701
146
0.71
147
1.0
172
     1
176
   256
177
   256
178
     2
271
     2
272
     2
283
     0
284
     8
340
11
342
6C4
371
    -1
372
    -1
1001
ACAD_DSTYLE_DIMJOGGED_JOGANGLE_SYMBOL
1070
   384
1040
0.7853981633974483
1001
ACAD_DSTYLE_DIMARC_LENGTH_SYMBOL
1070
   379
1070
     1
  0
DIMSTYLE
105
2AAB
102
{ACAD_REACTORS
330
4DA19
330
4DA5B
330
4DA83
330
4DA99
330
4DAC1
330
4DAD7
330
4DB05
330
4DB51
330
4DB76
330
4DB8C
330
4DBCB
330
4DBE1
330
4DF02
330
4DF4C
330
4E0AF
330
55133
102
}
330
A
100
AcDbSymbolTableRecord
100
AcDbDimStyleTableRecord
  2
SYS$0
 70
     0
  4
"
 41
1.0
 42
1.0
 43
10.0
 44
1.0
 47
0.1
 48
0.1
 73
     0
 74
     0
 77
     1
 78
     8
 79
     2
140
3.200000000000001
141
0.0
143
0.0393701
146
0.71
147
1.0
172
     1
176
   256
177
   256
178
     2
271
     2
272
     2
283
     0
284
     8
340
11
341
A66
342
6C4
371
    -1
372
    -1
1001
ACAD_DSTYLE_DIMJOGGED_JOGANGLE_SYMBOL
1070
   384
1040
0.7853981633974483
1001
ACAD_DSTYLE_DIMARC_LENGTH_SYMBOL
1070
   379
1070
     1
  0
DIMSTYLE
105
AF99
330
A
100
AcDbSymbolTableRecord
100
AcDbDimStyleTableRecord
  2
AM_ISO
 70
     0
  4
"
 41
2.5
 42
1.0
 43
10.0
 44
1.0
 47
0.1
 48
0.1
 73
     0
 74
     0
 77
     1
 78
     8
 79
     2
140
3.5
141
0.0
143
0.0393701
146
0.71
147
1.5
172
     1
176
   256
177
   256
178
     2
271
     2
272
     3
274
     4
283
     0
284
     8
340
11
371
    -1
372
    -1
  0
DIMSTYLE
105
AF9A
330
A
100
AcDbSymbolTableRecord
100
AcDbDimStyleTableRecord
  2
AM_ISO$3
 70
     0
  4
"
 41
2.5
 42
1.0
 43
10.0
 44
1.0
 47
0.1
 48
0.1
 73
     0
 77
     1
 78
     8
 79
     2
140
3.5
141
0.0
143
0.0393701
146
0.71
147
1.5
176
   256
177
   256
178
     2
271
     2
272
     3
274
     4
283
     0
284
     8
288
     1
289
     0
340
11
371
    -1
372
    -1
  0
DIMSTYLE
105
AF9B
330
A
100
AcDbSymbolTableRecord
100
AcDbDimStyleTableRecord
  2
AM_ISO$4
 70
     0
  4
"
 41
2.5
 42
1.0
 43
10.0
 44
1.0
 47
0.1
 48
0.1
 73
     0
 77
     1
 78
     8
 79
     2
140
3.5
141
0.0
143
0.0393701
146
0.71
147
1.5
176
   256
177
   256
178
     2
271
     2
272
     3
274
     4
283
     0
284
     8
288
     1
289
     0
340
11
371
    -1
372
    -1
  0
DIMSTYLE
105
AF9C
330
A
100
AcDbSymbolTableRecord
100
AcDbDimStyleTableRecord
  2
AM_ISO$6
 70
     0
  4
"
 41
2.5
 42
1.0
 43
10.0
 44
1.0
 47
0.1
 48
0.1
 73
     0
 74
     0
 78
     8
 79
     2
140
3.5
141
0.0
143
0.0393701
146
0.71
147
1.5
172
     1
176
   256
177
   256
178
     2
271
     2
272
     3
274
     4
283
     0
284
     8
340
11
371
    -1
372
    -1
  0
DIMSTYLE
105
AF9D
330
A
100
AcDbSymbolTableRecord
100
AcDbDimStyleTableRecord
  2
AM_ISO$7
 70
     0
  4
"
 41
2.5
 42
1.0
 43
10.0
 44
1.0
 47
0.1
 48
0.1
 73
     0
 74
     0
 77
     1
 78
     8
 79
     2
140
5.0
141
0.0
143
0.0393701
146
0.71
147
1.5
172
     1
176
   256
177
   256
178
     2
271
     2
272
     3
274
     4
283
     0
284
     8
340
11
371
    -1
372
    -1
  0
DIMSTYLE
105
AF9E
330
A
100
AcDbSymbolTableRecord
100
AcDbDimStyleTableRecord
  2
AM_ISO$SF
 70
     0
  4
"
 41
2.5
 42
1.0
 43
10.0
 44
1.0
 47
0.1
 48
0.1
 73
     0
 74
     0
 75
     1
 76
     1
 77
     1
 78
     8
 79
     2
140
3.5
141
0.0
143
0.0393701
146
0.71
147
1.5
172
     1
176
   256
177
   256
178
     2
271
     2
272
     3
274
     4
283
     0
284
     8
340
11
371
    -1
372
    -1
  0
DIMSTYLE
105
AF9F
330
A
100
AcDbSymbolTableRecord
100
AcDbDimStyleTableRecord
  2
AM_ISO$SH
 70
     0
  4
"
 41
2.5
 42
1.0
 43
10.0
 44
1.0
 47
0.1
 48
0.1
 73
     0
 74
     0
 75
     1
 76
     1
 77
     1
 78
     8
 79
     2
140
3.5
141
0.0
143
0.0393701
144
2.0
146
0.71
147
1.5
172
     1
173
     1
176
   256
177
   256
178
     2
271
     2
272
     3
274
     4
283
     0
284
     8
340
11
343
72
371
    -1
372
    -1
  0
DIMSTYLE
105
B60C
330
A
100
AcDbSymbolTableRecord
100
AcDbDimStyleTableRecord
  2
AM_ANSI
 70
     0
  4
mm
 41
0.1
 42
0.05
 43
0.5
 44
0.1
 47
0.1
 48
0.1
 78
     7
 79
     2
140
0.12
141
0.0
146
0.71
147
0.06
176
   256
177
   256
178
     2
274
     4
284
     7
340
11
371
    -1
372
    -1
  0
DIMSTYLE
105
C485
330
A
100
AcDbSymbolTableRecord
100
AcDbDimStyleTableRecord
  2
AM_ISO$0
 70
     0
  4
"
 41
0.8
 42
1.0
 43
10.0
 44
1.0
 47
0.1
 48
0.1
 73
     0
 74
     0
 77
     1
 78
     8
 79
     2
140
3.2
141
0.0
143
0.0393701
146
0.71
147
0.9999999999999996
172
     1
176
   256
177
   256
178
     2
271
     2
272
     2
283
     0
284
     8
340
11
341
6C4
342
6C4
371
    -1
372
    -1
1001
ACAD_DSTYLE_DIMJOGGED_JOGANGLE_SYMBOL
1070
   384
1040
0.7853981633974483
1001
ACAD_DSTYLE_DIMARC_LENGTH_SYMBOL
1070
   379
1070
     1
  0
DIMSTYLE
105
C486
330
A
100
AcDbSymbolTableRecord
100
AcDbDimStyleTableRecord
  2
AM_ISO$2
 70
     0
  4
"
 41
0.8
 42
1.0
 43
10.0
 44
1.0
 47
0.1
 48
0.1
 73
     0
 74
     0
 77
     3
 78
     8
 79
     2
140
3.200000000000001
141
0.0
143
0.0393701
146
0.71
147
0.9999999999999996
172
     1
176
   256
177
   256
178
     2
271
     2
272
     2
283
     0
284
     8
340
11
342
6C4
371
    -1
372
    -1
1001
ACAD_DSTYLE_DIMJOGGED_JOGANGLE_SYMBOL
1070
   384
1040
0.7853981633974483
1001
ACAD_DSTYLE_DIMARC_LENGTH_SYMBOL
1070
   379
1070
     1
  0
DIMSTYLE
105
FD1A
330
A
100
AcDbSymbolTableRecord
100
AcDbDimStyleTableRecord
  2
AM_ANSI$3
 70
     0
  4
mm
 41
0.1
 42
0.05
 43
0.5
 44
0.1
 47
0.1
 48
0.1
 78
     7
 79
     2
140
0.12
141
0.0
146
0.71
147
0.06
176
   256
177
   256
178
     2
274
     4
284
     7
288
     1
289
     0
340
11
371
    -1
372
    -1
1001
ACAD_DSTYLE_DIMARC_LENGTH_SYMBOL
1070
   379
1070
     1
  0
DIMSTYLE
105
FD1B
330
A
100
AcDbSymbolTableRecord
100
AcDbDimStyleTableRecord
  2
AM_ANSI$4
 70
     0
  4
mm
 41
0.1
 42
0.05
 43
0.5
 44
0.1
 47
0.1
 48
0.1
 78
     7
 79
     2
140
0.12
141
0.0
146
0.71
147
0.06
176
   256
177
   256
178
     2
274
     4
284
     7
288
     1
289
     0
340
11
371
    -1
372
    -1
1001
ACAD_DSTYLE_DIMARC_LENGTH_SYMBOL
1070
   379
1070
     1
  0
DIMSTYLE
105
FD1C
330
A
100
AcDbSymbolTableRecord
100
AcDbDimStyleTableRecord
  2
AM_ANSI$7
 70
     0
  4
mm
 41
0.1
 42
0.05
 43
0.5
 44
0.1
 47
0.1
 48
0.1
 78
     7
 79
     2
140
0.24
141
0.0
146
0.71
147
0.06
176
   256
177
   256
178
     2
274
     4
284
     7
340
11
371
    -1
372
    -1
1001
ACAD_DSTYLE_DIMARC_LENGTH_SYMBOL
1070
   379
1070
     1
  0
DIMSTYLE
105
FD1D
330
A
100
AcDbSymbolTableRecord
100
AcDbDimStyleTableRecord
  2
AM_ANSI$SF
 70
     0
  4
mm
 41
0.1
 42
0.05
 43
0.5
 44
0.1
 47
0.1
 48
0.1
 75
     1
 76
     1
 78
     7
 79
     2
140
0.12
141
0.0
146
0.71
147
0.06
176
   256
177
   256
178
     2
274
     4
284
     7
340
11
371
    -1
372
    -1
1001
ACAD_DSTYLE_DIMARC_LENGTH_SYMBOL
1070
   379
1070
     1
  0
DIMSTYLE
105
FD1E
330
A
100
AcDbSymbolTableRecord
100
AcDbDimStyleTableRecord
  2
AM_ANSI$SH
 70
     0
  4
mm
 41
0.1
 42
0.05
 43
0.5
 44
0.1
 47
0.1
 48
0.1
 75
     1
 76
     1
 78
     7
 79
     2
140
0.12
141
0.0
146
0.71
147
0.06
173
     1
176
   256
177
   256
178
     2
274
     4
284
     7
340
11
343
72
371
    -1
372
    -1
1001
ACAD_DSTYLE_DIMARC_LENGTH_SYMBOL
1070
   379
1070
     1
  0
ENDTAB
  0
TABLE
  2
BLOCK_RECORD
  5
1
330
0
100
AcDbSymbolTable
 70
    26
  0
BLOCK_RECORD
  5
1F
102
{ACAD_XDICTIONARY
360
8A
102
}
330
1
100
AcDbSymbolTableRecord
100
AcDbBlockTableRecord
  2
*Model_Space
340
22
  0
BLOCK_RECORD
  5
1B
330
1
100
AcDbSymbolTableRecord
100
AcDbBlockTableRecord
  2
*Paper_Space
340
1E
  0
BLOCK_RECORD
  5
23
330
1
100
AcDbSymbolTableRecord
100
AcDbBlockTableRecord
  2
*Paper_Space0
340
26
  0
BLOCK_RECORD
  5
72
330
1
100
AcDbSymbolTableRecord
100
AcDbBlockTableRecord
  2
GENAXEH
340
0
  0
BLOCK_RECORD
  5
6C4
330
1
100
AcDbSymbolTableRecord
100
AcDbBlockTableRecord
  2
_Dot
340
0
102
{BLKREFS
331
5A5D0
331
5A5D1
331
5A5D9
331
5A5DA
331
5A5E2
331
5A5E3
331
5A5EB
331
5A5EC
331
5A5F4
331
5A5F5
331
5A5FE
331
5A5FF
331
5A607
331
5A608
331
5A612
331
5A613
331
5A61B
331
5A61C
331
5A626
331
5A627
331
5A62F
331
5A630
331
5A638
331
5A639
331
5A641
331
5A642
331
5A64A
331
5A64B
331
5A653
331
5A654
331
5A65C
331
5A65D
331
5A667
331
5A668
331
5A670
331
5A671
331
5A682
331
5A683
102
}
  0
BLOCK_RECORD
  5
A66
330
1
100
AcDbSymbolTableRecord
100
AcDbBlockTableRecord
  2
_OPEN30
340
0
  0
BLOCK_RECORD
  5
4DA1A
330
1
100
AcDbSymbolTableRecord
100
AcDbBlockTableRecord
  2
*D7
340
0
  0
BLOCK_RECORD
  5
4DA5C
330
1
100
AcDbSymbolTableRecord
100
AcDbBlockTableRecord
  2
*D8
340
0
  0
BLOCK_RECORD
  5
4DA84
330
1
100
AcDbSymbolTableRecord
100
AcDbBlockTableRecord
  2
*D9
340
0
  0
BLOCK_RECORD
  5
4DA9A
330
1
100
AcDbSymbolTableRecord
100
AcDbBlockTableRecord
  2
*D10
340
0
  0
BLOCK_RECORD
  5
4DAC2
330
1
100
AcDbSymbolTableRecord
100
AcDbBlockTableRecord
  2
*D11
340
0
  0
BLOCK_RECORD
  5
4DAD8
330
1
100
AcDbSymbolTableRecord
100
AcDbBlockTableRecord
  2
*D12
340
0
  0
BLOCK_RECORD
  5
4DB06
330
1
100
AcDbSymbolTableRecord
100
AcDbBlockTableRecord
  2
*D13
340
0
  0
BLOCK_RECORD
  5
4DB52
330
1
100
AcDbSymbolTableRecord
100
AcDbBlockTableRecord
  2
*D14
340
0
  0
BLOCK_RECORD
  5
4DB77
330
1
100
AcDbSymbolTableRecord
100
AcDbBlockTableRecord
  2
*D15
340
0
  0
BLOCK_RECORD
  5
4DB8D
330
1
100
AcDbSymbolTableRecord
100
AcDbBlockTableRecord
  2
*D16
340
0
  0
BLOCK_RECORD
  5
4DBCC
330
1
100
AcDbSymbolTableRecord
100
AcDbBlockTableRecord
  2
*D17
340
0
  0
BLOCK_RECORD
  5
4DBE2
330
1
100
AcDbSymbolTableRecord
100
AcDbBlockTableRecord
  2
*D18
340
0
  0
BLOCK_RECORD
  5
4DF03
330
1
100
AcDbSymbolTableRecord
100
AcDbBlockTableRecord
  2
*D19
340
0
  0
BLOCK_RECORD
  5
4DF4D
330
1
100
AcDbSymbolTableRecord
100
AcDbBlockTableRecord
  2
*D20
340
0
  0
BLOCK_RECORD
  5
4E0B0
330
1
100
AcDbSymbolTableRecord
100
AcDbBlockTableRecord
  2
*D21
340
0
  0
BLOCK_RECORD
  5
55134
330
1
100
AcDbSymbolTableRecord
100
AcDbBlockTableRecord
  2
*D22
340
0
  0
BLOCK_RECORD
  5
55165
330
1
100
AcDbSymbolTableRecord
100
AcDbBlockTableRecord
  2
*D23
340
0
  0
BLOCK_RECORD
  5
59CB0
330
1
100
AcDbSymbolTableRecord
100
AcDbBlockTableRecord
  2
*D24
340
0
  0
BLOCK_RECORD
  5
59D36
330
1
100
AcDbSymbolTableRecord
100
AcDbBlockTableRecord
  2
*D25
340
0
  0
ENDTAB
  0
ENDSEC
  0
SECTION
  2
BLOCKS
  0
BLOCK
  5
20
330
1F
100
AcDbEntity
  8
0
100
AcDbBlockBegin
  2
*Model_Space
 70
     0
 10
0.0
 20
0.0
 30
0.0
  3
*Model_Space
  1

  0
ENDBLK
  5
21
330
1F
100
AcDbEntity
  8
0
100
AcDbBlockEnd
  0
BLOCK
  5
1C
330
1B
100
AcDbEntity
 67
     1
  8
0
100
AcDbBlockBegin
  2
*Paper_Space
 70
     0
 10
0.0
 20
0.0
 30
0.0
  3
*Paper_Space
  1

  0
ENDBLK
  5
1D
330
1B
100
AcDbEntity
 67
     1
  8
0
100
AcDbBlockEnd
  0
BLOCK
  5
24
330
23
100
AcDbEntity
 67
     1
  8
0
100
AcDbBlockBegin
  2
*Paper_Space0
 70
     0
 10
0.0
 20
0.0
 30
0.0
  3
*Paper_Space0
  1

  0
ENDBLK
  5
25
330
23
100
AcDbEntity
 67
     1
  8
0
100
AcDbBlockEnd
  0
BLOCK
  5
74
330
72
100
AcDbEntity
  8
0
100
AcDbBlockBegin
  2
GENAXEH
 70
     0
 10
0.0
 20
0.0
 30
0.0
  3
GENAXEH
  1

  0
LINE
  5
73
330
72
100
AcDbEntity
  8
0
100
AcDbLine
 10
-1.0
 20
0.0
 30
0.0
 11
1.0
 21
0.0
 31
0.0
  0
ENDBLK
  5
75
330
72
100
AcDbEntity
  8
0
100
AcDbBlockEnd
  0
BLOCK
  5
6C7
330
6C4
100
AcDbEntity
  8
0
100
AcDbBlockBegin
  2
_Dot
 70
     0
 10
0.0
 20
0.0
 30
0.0
  3
_Dot
  1

  0
LWPOLYLINE
  5
6C5
330
6C4
100
AcDbEntity
  8
0
  6
ByBlock
 62
     0
100
AcDbPolyline
 90
        2
 70
     1
 43
0.5
 10
-0.25
 20
0.0
 42
1.0
 10
0.25
 20
0.0
 42
1.0
  0
LINE
  5
6C6
330
6C4
100
AcDbEntity
  8
0
  6
ByBlock
 62
     0
370
    -2
100
AcDbLine
 10
-0.5
 20
0.0
 30
0.0
 11
-1.0
 21
0.0
 31
0.0
  0
ENDBLK
  5
6C8
330
6C4
100
AcDbEntity
  8
0
100
AcDbBlockEnd
  0
BLOCK
  5
A6A
330
A66
100
AcDbEntity
  8
0
100
AcDbBlockBegin
  2
_OPEN30
 70
     0
 10
0.0
 20
0.0
 30
0.0
  3
_OPEN30
  1

  0
LINE
  5
A67
330
A66
100
AcDbEntity
  8
0
  6
ByBlock
 62
     0
100
AcDbLine
 10
-1.0
 20
0.26794919
 30
0.0
 11
0.0
 21
0.0
 31
0.0
  0
LINE
  5
A68
330
A66
100
AcDbEntity
  8
0
  6
ByBlock
 62
     0
100
AcDbLine
 10
0.0
 20
0.0
 30
0.0
 11
-1.0
 21
-0.26794919
 31
0.0
  0
LINE
  5
A69
330
A66
100
AcDbEntity
  8
0
  6
ByBlock
 62
     0
100
AcDbLine
 10
0.0
 20
0.0
 30
0.0
 11
-1.0
 21
0.0
 31
0.0
  0
ENDBLK
  5
A6B
330
A66
100
AcDbEntity
  8
0
100
AcDbBlockEnd
  0
BLOCK
  5
4DA24
330
4DA1A
100
AcDbEntity
  8
0
100
AcDbBlockBegin
  2
*D7
 70
     1
 10
0.0
 20
0.0
 30
0.0
  3
*D7
  1

  0
LINE
  5
5A5CD
330
4DA1A
100
AcDbEntity
  8
AM_5
100
AcDbLine
 10
6282.898443039187
 20
-5152.735771555348
 30
0.0
 11
6282.898443039187
 21
-5133.235771555349
 31
0.0
  0
LINE
  5
5A5CE
330
4DA1A
100
AcDbEntity
  8
AM_5
100
AcDbLine
 10
6226.520918039188
 20
-5148.735771555347
 30
0.0
 11
6226.520918039188
 21
-5133.235771555349
 31
0.0
  0
LINE
  5
5A5CF
330
4DA1A
100
AcDbEntity
  8
AM_5
100
AcDbLine
 10
6281.898443039188
 20
-5134.235771555349
 30
0.0
 11
6227.520918039187
 21
-5134.235771555349
 31
0.0
  0
INSERT
  5
5A5D0
330
4DA1A
100
AcDbEntity
  8
AM_5
100
AcDbBlockReference
  2
_Dot
 10
6282.898443039187
 20
-5134.235771555349
 30
0.0
  0
INSERT
  5
5A5D1
330
4DA1A
100
AcDbEntity
  8
AM_5
100
AcDbBlockReference
  2
_Dot
 10
6226.520918039188
 20
-5134.235771555349
 30
0.0
 50
180.0
  0
MTEXT
  5
5A5D2
330
4DA1A
100
AcDbEntity
  8
AM_5
 62
     2
100
AcDbMText
 10
6254.709680539187
 20
-5131.635771555348
 30
0.0
 40
3.200000000000001
 41
0.0
 71
     5
 72
     1
  1
（56）
 73
     1
 44
1.0
1001
ACAD
1000
MTEXTBEGIN
1070
    73
1070
     1
1070
    44
1040
1.0
1070
    74
1070
     0
1000
MTEXTEND
  0
POINT
  5
5A5D3
330
4DA1A
100
AcDbEntity
  8
Defpoints
 62
     0
100
AcDbPoint
 10
6282.898443039187
 20
-5153.735771555348
 30
0.0
  0
POINT
  5
5A5D4
330
4DA1A
100
AcDbEntity
  8
Defpoints
 62
     0
100
AcDbPoint
 10
6226.520918039188
 20
-5149.735771555349
 30
0.0
  0
POINT
  5
5A5D5
330
4DA1A
100
AcDbEntity
  8
Defpoints
 62
     0
100
AcDbPoint
 10
6226.520918039188
 20
-5134.235771555349
 30
0.0
  0
ENDBLK
  5
4DA25
330
4DA1A
100
AcDbEntity
  8
0
100
AcDbBlockEnd
  0
BLOCK
  5
4DA66
330
4DA5C
100
AcDbEntity
  8
0
100
AcDbBlockBegin
  2
*D8
 70
     1
 10
0.0
 20
0.0
 30
0.0
  3
*D8
  1

  0
LINE
  5
5A5D6
330
4DA5C
100
AcDbEntity
  8
AM_5
100
AcDbLine
 10
6238.520918039188
 20
-5180.235771555349
 30
0.0
 11
6299.898443039186
 21
-5180.235771555349
 31
0.0
  0
LINE
  5
5A5D7
330
4DA5C
100
AcDbEntity
  8
AM_5
100
AcDbLine
 10
6238.520918039188
 20
-5144.235771555348
 30
0.0
 11
6299.898443039186
 21
-5144.235771555348
 31
0.0
  0
LINE
  5
5A5D8
330
4DA5C
100
AcDbEntity
  8
AM_5
100
AcDbLine
 10
6298.898443039187
 20
-5179.235771555347
 30
0.0
 11
6298.898443039187
 21
-5145.235771555348
 31
0.0
  0
INSERT
  5
5A5D9
330
4DA5C
100
AcDbEntity
  8
AM_5
100
AcDbBlockReference
  2
_Dot
 10
6298.898443039187
 20
-5180.235771555349
 30
0.0
 50
270.0
  0
INSERT
  5
5A5DA
330
4DA5C
100
AcDbEntity
  8
AM_5
100
AcDbBlockReference
  2
_Dot
 10
6298.898443039187
 20
-5144.235771555348
 30
0.0
 50
90.0
  0
MTEXT
  5
5A5DB
330
4DA5C
100
AcDbEntity
  8
AM_5
 62
     2
100
AcDbMText
 10
6296.298443039187
 20
-5162.235771555346
 30
0.0
 40
3.200000000000001
 41
0.0
 71
     5
 72
     1
  1
（36）
 11
0.0000000000000001
 21
1.0
 31
0.0
 73
     1
 44
1.0
1001
ACAD
1000
MTEXTBEGIN
1070
    73
1070
     1
1070
    44
1040
1.0
1070
    74
1070
     0
1000
MTEXTEND
  0
POINT
  5
5A5DC
330
4DA5C
100
AcDbEntity
  8
Defpoints
 62
     0
100
AcDbPoint
 10
6237.520918039187
 20
-5180.235771555349
 30
0.0
  0
POINT
  5
5A5DD
330
4DA5C
100
AcDbEntity
  8
Defpoints
 62
     0
100
AcDbPoint
 10
6237.520918039187
 20
-5144.235771555348
 30
0.0
  0
POINT
  5
5A5DE
330
4DA5C
100
AcDbEntity
  8
Defpoints
 62
     0
100
AcDbPoint
 10
6298.898443039187
 20
-5144.235771555348
 30
0.0
  0
ENDBLK
  5
4DA67
330
4DA5C
100
AcDbEntity
  8
0
100
AcDbBlockEnd
  0
BLOCK
  5
4DA8E
330
4DA84
100
AcDbEntity
  8
0
100
AcDbBlockBegin
  2
*D9
 70
     1
 10
0.0
 20
0.0
 30
0.0
  3
*D9
  1

  0
LINE
  5
5A5DF
330
4DA84
100
AcDbEntity
  8
AM_5
100
AcDbLine
 10
6279.898443039187
 20
-5174.735771555348
 30
0.0
 11
6291.898443039187
 21
-5174.735771555348
 31
0.0
  0
LINE
  5
5A5E0
330
4DA84
100
AcDbEntity
  8
AM_5
100
AcDbLine
 10
6279.898443039187
 20
-5149.735771555349
 30
0.0
 11
6291.898443039187
 21
-5149.735771555349
 31
0.0
  0
LINE
  5
5A5E1
330
4DA84
100
AcDbEntity
  8
AM_5
100
AcDbLine
 10
6290.898443039186
 20
-5173.735771555348
 30
0.0
 11
6290.898443039186
 21
-5150.735771555348
 31
0.0
  0
INSERT
  5
5A5E2
330
4DA84
100
AcDbEntity
  8
AM_5
100
AcDbBlockReference
  2
_Dot
 10
6290.898443039186
 20
-5174.735771555348
 30
0.0
 50
270.0
  0
INSERT
  5
5A5E3
330
4DA84
100
AcDbEntity
  8
AM_5
100
AcDbBlockReference
  2
_Dot
 10
6290.898443039186
 20
-5149.735771555349
 30
0.0
 50
90.0
  0
MTEXT
  5
5A5E4
330
4DA84
100
AcDbEntity
  8
AM_5
 62
     2
100
AcDbMText
 10
6288.298443039187
 20
-5162.235771555348
 30
0.0
 40
3.200000000000001
 41
0.0
 71
     5
 72
     1
  1
25
 11
0.0000000000000001
 21
1.0
 31
0.0
 73
     1
 44
1.0
1001
ACAD
1000
MTEXTBEGIN
1070
    73
1070
     1
1070
    44
1040
1.0
1070
    74
1070
     0
1000
MTEXTEND
  0
POINT
  5
5A5E5
330
4DA84
100
AcDbEntity
  8
Defpoints
 62
     0
100
AcDbPoint
 10
6278.898443039188
 20
-5174.735771555348
 30
0.0
  0
POINT
  5
5A5E6
330
4DA84
100
AcDbEntity
  8
Defpoints
 62
     0
100
AcDbPoint
 10
6278.898443039188
 20
-5149.735771555349
 30
0.0
  0
POINT
  5
5A5E7
330
4DA84
100
AcDbEntity
  8
Defpoints
 62
     0
100
AcDbPoint
 10
6290.898443039186
 20
-5149.735771555349
 30
0.0
  0
ENDBLK
  5
4DA8F
330
4DA84
100
AcDbEntity
  8
0
100
AcDbBlockEnd
  0
BLOCK
  5
4DAA4
330
4DA9A
100
AcDbEntity
  8
0
100
AcDbBlockBegin
  2
*D10
 70
     1
 10
0.0
 20
0.0
 30
0.0
  3
*D10
  1

  0
LINE
  5
5A5E8
330
4DA9A
100
AcDbEntity
  8
AM_5
100
AcDbLine
 10
6163.620263039187
 20
-5149.235771555348
 30
0.0
 11
6163.620263039187
 21
-5133.235771555349
 31
0.0
  0
LINE
  5
5A5E9
330
4DA9A
100
AcDbEntity
  8
AM_5
100
AcDbLine
 10
6189.620263039188
 20
-5149.235771555348
 30
0.0
 11
6189.620263039188
 21
-5133.235771555349
 31
0.0
  0
LINE
  5
5A5EA
330
4DA9A
100
AcDbEntity
  8
AM_5
100
AcDbLine
 10
6164.620263039187
 20
-5134.235771555349
 30
0.0
 11
6188.620263039187
 21
-5134.235771555349
 31
0.0
  0
INSERT
  5
5A5EB
330
4DA9A
100
AcDbEntity
  8
AM_5
100
AcDbBlockReference
  2
_Dot
 10
6163.620263039187
 20
-5134.235771555349
 30
0.0
 50
180.0
  0
INSERT
  5
5A5EC
330
4DA9A
100
AcDbEntity
  8
AM_5
100
AcDbBlockReference
  2
_Dot
 10
6189.620263039188
 20
-5134.235771555349
 30
0.0
  0
MTEXT
  5
5A5ED
330
4DA9A
100
AcDbEntity
  8
AM_5
 62
     2
100
AcDbMText
 10
6176.620263039187
 20
-5131.635771555348
 30
0.0
 40
3.200000000000001
 41
0.0
 71
     5
 72
     1
  1
（26）
 73
     1
 44
1.0
1001
ACAD
1000
MTEXTBEGIN
1070
    73
1070
     1
1070
    44
1040
1.0
1070
    74
1070
     0
1000
MTEXTEND
  0
POINT
  5
5A5EE
330
4DA9A
100
AcDbEntity
  8
Defpoints
 62
     0
100
AcDbPoint
 10
6163.620263039187
 20
-5150.235771555347
 30
0.0
  0
POINT
  5
5A5EF
330
4DA9A
100
AcDbEntity
  8
Defpoints
 62
     0
100
AcDbPoint
 10
6189.620263039188
 20
-5150.235771555347
 30
0.0
  0
POINT
  5
5A5F0
330
4DA9A
100
AcDbEntity
  8
Defpoints
 62
     0
100
AcDbPoint
 10
6189.620263039188
 20
-5134.235771555349
 30
0.0
  0
ENDBLK
  5
4DAA5
330
4DA9A
100
AcDbEntity
  8
0
100
AcDbBlockEnd
  0
BLOCK
  5
4DACC
330
4DAC2
100
AcDbEntity
  8
0
100
AcDbBlockBegin
  2
*D11
 70
     1
 10
0.0
 20
0.0
 30
0.0
  3
*D11
  1

  0
LINE
  5
5A5F1
330
4DAC2
100
AcDbEntity
  8
AM_5
100
AcDbLine
 10
6170.620263039187
 20
-5142.235771555348
 30
0.0
 11
6146.620263039186
 21
-5142.235771555348
 31
0.0
  0
LINE
  5
5A5F2
330
4DAC2
100
AcDbEntity
  8
AM_5
100
AcDbLine
 10
6170.620263039187
 20
-5182.235771555347
 30
0.0
 11
6146.620263039186
 21
-5182.235771555347
 31
0.0
  0
LINE
  5
5A5F3
330
4DAC2
100
AcDbEntity
  8
AM_5
100
AcDbLine
 10
6147.620263039186
 20
-5143.235771555348
 30
0.0
 11
6147.620263039186
 21
-5181.235771555348
 31
0.0
  0
INSERT
  5
5A5F4
330
4DAC2
100
AcDbEntity
  8
AM_5
100
AcDbBlockReference
  2
_Dot
 10
6147.620263039186
 20
-5142.235771555348
 30
0.0
 50
90.0
  0
INSERT
  5
5A5F5
330
4DAC2
100
AcDbEntity
  8
AM_5
100
AcDbBlockReference
  2
_Dot
 10
6147.620263039186
 20
-5182.235771555347
 30
0.0
 50
270.0
  0
MTEXT
  5
5A5F6
330
4DAC2
100
AcDbEntity
  8
AM_5
 62
     2
100
AcDbMText
 10
6145.020263039187
 20
-5162.235771555348
 30
0.0
 40
3.200000000000001
 41
0.0
 71
     5
 72
     1
  1
40
 11
0.0000000000000001
 21
1.0
 31
0.0
 73
     1
 44
1.0
1001
ACAD
1000
MTEXTBEGIN
1070
    73
1070
     1
1070
    44
1040
1.0
1070
    74
1070
     0
1000
MTEXTEND
  0
POINT
  5
5A5F7
330
4DAC2
100
AcDbEntity
  8
Defpoints
 62
     0
100
AcDbPoint
 10
6171.620263039187
 20
-5142.235771555348
 30
0.0
  0
POINT
  5
5A5F8
330
4DAC2
100
AcDbEntity
  8
Defpoints
 62
     0
100
AcDbPoint
 10
6171.620263039187
 20
-5182.235771555347
 30
0.0
  0
POINT
  5
5A5F9
330
4DAC2
100
AcDbEntity
  8
Defpoints
 62
     0
100
AcDbPoint
 10
6147.620263039186
 20
-5182.235771555347
 30
0.0
  0
ENDBLK
  5
4DACD
330
4DAC2
100
AcDbEntity
  8
0
100
AcDbBlockEnd
  0
BLOCK
  5
4DAE4
330
4DAD8
100
AcDbEntity
  8
0
100
AcDbBlockBegin
  2
*D12
 70
     1
 10
0.0
 20
0.0
 30
0.0
  3
*D12
  1

  0
LINE
  5
5A5FA
330
4DAD8
100
AcDbEntity
  8
AM_5
100
AcDbLine
 10
6212.320590539188
 20
-5180.235771555349
 30
0.0
 11
6211.208236319926
 21
-5180.235771555349
 31
0.0
  0
LINE
  5
5A5FB
330
4DAD8
100
AcDbEntity
  8
AM_5
100
AcDbLine
 10
6212.320590539188
 20
-5176.235771555348
 30
0.0
 11
6211.208236319926
 21
-5176.235771555348
 31
0.0
  0
LINE
  5
5A5FC
330
4DAD8
100
AcDbEntity
  8
AM_5
100
AcDbLine
 10
6212.208236319925
 20
-5177.235771555348
 30
0.0
 11
6212.208236319925
 21
-5179.235771555347
 31
0.0
  0
LINE
  5
5A5FD
330
4DAD8
100
AcDbEntity
  8
AM_5
100
AcDbLine
 10
6212.208236319925
 20
-5180.235771555349
 30
0.0
 11
6212.208236319925
 21
-5186.862438222015
 31
0.0
  0
INSERT
  5
5A5FE
330
4DAD8
100
AcDbEntity
  8
AM_5
100
AcDbBlockReference
  2
_Dot
 10
6212.208236319925
 20
-5176.235771555348
 30
0.0
 50
90.0
  0
INSERT
  5
5A5FF
330
4DAD8
100
AcDbEntity
  8
AM_5
100
AcDbBlockReference
  2
_Dot
 10
6212.208236319925
 20
-5180.235771555349
 30
0.0
 50
270.0
  0
MTEXT
  5
5A600
330
4DAD8
100
AcDbEntity
  8
AM_5
 62
     2
100
AcDbMText
 10
6209.608236319926
 20
-5184.049104888679
 30
0.0
 40
3.200000000000001
 41
0.0
 71
     5
 72
     1
  1
%%c4
 11
0.0000000000000001
 21
1.0
 31
0.0
 73
     1
 44
1.0
1001
ACAD
1000
MTEXTBEGIN
1070
    73
1070
     1
1070
    44
1040
1.0
1070
    74
1070
     0
1000
MTEXTEND
  0
POINT
  5
5A601
330
4DAD8
100
AcDbEntity
  8
Defpoints
 62
     0
100
AcDbPoint
 10
6213.320590539188
 20
-5180.235771555349
 30
0.0
  0
POINT
  5
5A602
330
4DAD8
100
AcDbEntity
  8
Defpoints
 62
     0
100
AcDbPoint
 10
6213.320590539188
 20
-5176.235771555348
 30
0.0
  0
POINT
  5
5A603
330
4DAD8
100
AcDbEntity
  8
Defpoints
 62
     0
100
AcDbPoint
 10
6212.208236319925
 20
-5176.235771555348
 30
0.0
  0
ENDBLK
  5
4DAE5
330
4DAD8
100
AcDbEntity
  8
0
100
AcDbBlockEnd
  0
BLOCK
  5
4DB10
330
4DB06
100
AcDbEntity
  8
0
100
AcDbBlockBegin
  2
*D13
 70
     1
 10
0.0
 20
0.0
 30
0.0
  3
*D13
  1

  0
LINE
  5
5A604
330
4DB06
100
AcDbEntity
  8
AM_5
100
AcDbLine
 10
6271.520918039187
 20
-5242.957087258601
 30
0.0
 11
6291.898443039187
 21
-5242.957087258601
 31
0.0
  0
LINE
  5
5A605
330
4DB06
100
AcDbEntity
  8
AM_5
100
AcDbLine
 10
6237.159587039188
 20
-5222.170339258601
 30
0.0
 11
6291.898443039187
 21
-5222.170339258601
 31
0.0
  0
LINE
  5
5A606
330
4DB06
100
AcDbEntity
  8
AM_5
100
AcDbLine
 10
6290.898443039186
 20
-5241.957087258601
 30
0.0
 11
6290.898443039186
 21
-5223.170339258601
 31
0.0
  0
INSERT
  5
5A607
330
4DB06
100
AcDbEntity
  8
AM_5
100
AcDbBlockReference
  2
_Dot
 10
6290.898443039186
 20
-5242.957087258601
 30
0.0
 50
270.0
  0
INSERT
  5
5A608
330
4DB06
100
AcDbEntity
  8
AM_5
100
AcDbBlockReference
  2
_Dot
 10
6290.898443039186
 20
-5222.170339258601
 30
0.0
 50
90.0
  0
MTEXT
  5
5A609
330
4DB06
100
AcDbEntity
  8
AM_5
 62
     2
100
AcDbMText
 10
6288.298443039187
 20
-5232.563713258599
 30
0.0
 40
3.200000000000001
 41
0.0
 71
     5
 72
     1
  1
（19）
 11
0.0000000000000001
 21
1.0
 31
0.0
 73
     1
 44
1.0
1001
ACAD
1000
MTEXTBEGIN
1070
    73
1070
     1
1070
    44
1040
1.0
1070
    74
1070
     0
1000
MTEXTEND
  0
POINT
  5
5A60A
330
4DB06
100
AcDbEntity
  8
Defpoints
 62
     0
100
AcDbPoint
 10
6270.520918039188
 20
-5242.957087258601
 30
0.0
  0
POINT
  5
5A60B
330
4DB06
100
AcDbEntity
  8
Defpoints
 62
     0
100
AcDbPoint
 10
6236.159587039187
 20
-5222.170339258601
 30
0.0
  0
POINT
  5
5A60C
330
4DB06
100
AcDbEntity
  8
Defpoints
 62
     0
100
AcDbPoint
 10
6290.898443039186
 20
-5222.170339258601
 30
0.0
  0
ENDBLK
  5
4DB11
330
4DB06
100
AcDbEntity
  8
0
100
AcDbBlockEnd
  0
BLOCK
  5
4DB5E
330
4DB52
100
AcDbEntity
  8
0
100
AcDbBlockBegin
  2
*D14
 70
     1
 10
0.0
 20
0.0
 30
0.0
  3
*D14
  1

  0
LINE
  5
5A60D
330
4DB52
100
AcDbEntity
  8
AM_5
100
AcDbLine
 10
6271.520918039187
 20
-5242.957087258601
 30
0.0
 11
6283.898443039187
 21
-5242.957087258601
 31
0.0
  0
LINE
  5
5A60E
330
4DB52
100
AcDbEntity
  8
AM_5
100
AcDbLine
 10
6271.520918039187
 20
-5240.957087258601
 30
0.0
 11
6283.898443039187
 21
-5240.957087258601
 31
0.0
  0
LINE
  5
5A60F
330
4DB52
100
AcDbEntity
  8
AM_5
100
AcDbLine
 10
6282.898443039186
 20
-5239.957087258601
 30
0.0
 11
6282.898443039186
 21
-5238.957087258601
 31
0.0
  0
LINE
  5
5A610
330
4DB52
100
AcDbEntity
  8
AM_5
100
AcDbLine
 10
6282.898443039186
 20
-5243.957087258601
 30
0.0
 11
6282.898443039186
 21
-5248.450420591933
 31
0.0
  0
LINE
  5
5A611
330
4DB52
100
AcDbEntity
  8
AM_5
100
AcDbLine
 10
6282.898443039186
 20
-5240.957087258601
 30
0.0
 11
6282.898443039186
 21
-5242.957087258601
 31
0.0
  0
INSERT
  5
5A612
330
4DB52
100
AcDbEntity
  8
AM_5
100
AcDbBlockReference
  2
_Dot
 10
6282.898443039186
 20
-5240.957087258601
 30
0.0
 50
270.0
  0
INSERT
  5
5A613
330
4DB52
100
AcDbEntity
  8
AM_5
100
AcDbBlockReference
  2
_Dot
 10
6282.898443039186
 20
-5242.957087258601
 30
0.0
 50
90.0
  0
MTEXT
  5
5A614
330
4DB52
100
AcDbEntity
  8
AM_5
 62
     2
100
AcDbMText
 10
6280.298443039187
 20
-5246.703753925266
 30
0.0
 40
3.200000000000001
 41
0.0
 71
     5
 72
     1
  1
2
 11
0.0000000000000001
 21
1.0
 31
0.0
 73
     1
 44
1.0
1001
ACAD
1000
MTEXTBEGIN
1070
    73
1070
     1
1070
    44
1040
1.0
1070
    74
1070
     0
1000
MTEXTEND
  0
POINT
  5
5A615
330
4DB52
100
AcDbEntity
  8
Defpoints
 62
     0
100
AcDbPoint
 10
6270.520918039188
 20
-5242.957087258601
 30
0.0
  0
POINT
  5
5A616
330
4DB52
100
AcDbEntity
  8
Defpoints
 62
     0
100
AcDbPoint
 10
6270.520918039188
 20
-5240.957087258601
 30
0.0
  0
POINT
  5
5A617
330
4DB52
100
AcDbEntity
  8
Defpoints
 62
     0
100
AcDbPoint
 10
6282.898443039186
 20
-5240.957087258601
 30
0.0
  0
ENDBLK
  5
4DB5F
330
4DB52
100
AcDbEntity
  8
0
100
AcDbBlockEnd
  0
BLOCK
  5
4DB81
330
4DB77
100
AcDbEntity
  8
0
100
AcDbBlockBegin
  2
*D15
 70
     1
 10
0.0
 20
0.0
 30
0.0
  3
*D15
  1

  0
LINE
  5
5A618
330
4DB77
100
AcDbEntity
  8
AM_5
100
AcDbLine
 10
6162.620263039187
 20
-5242.9279082586
 30
0.0
 11
6146.620263039188
 21
-5242.9279082586
 31
0.0
  0
LINE
  5
5A619
330
4DB77
100
AcDbEntity
  8
AM_5
100
AcDbLine
 10
6182.929280039187
 20
-5232.927908258601
 30
0.0
 11
6146.620263039188
 21
-5232.927908258601
 31
0.0
  0
LINE
  5
5A61A
330
4DB77
100
AcDbEntity
  8
AM_5
100
AcDbLine
 10
6147.620263039187
 20
-5241.927908258601
 30
0.0
 11
6147.620263039187
 21
-5233.927908258601
 31
0.0
  0
INSERT
  5
5A61B
330
4DB77
100
AcDbEntity
  8
AM_5
100
AcDbBlockReference
  2
_Dot
 10
6147.620263039187
 20
-5242.9279082586
 30
0.0
 50
270.0
  0
INSERT
  5
5A61C
330
4DB77
100
AcDbEntity
  8
AM_5
100
AcDbBlockReference
  2
_Dot
 10
6147.620263039187
 20
-5232.927908258601
 30
0.0
 50
90.0
  0
MTEXT
  5
5A61D
330
4DB77
100
AcDbEntity
  8
AM_5
 62
     2
100
AcDbMText
 10
6145.020263039188
 20
-5237.927908258598
 30
0.0
 40
3.200000000000001
 41
0.0
 71
     5
 72
     1
  1
10
 11
0.0000000000000001
 21
1.0
 31
0.0
 73
     1
 44
1.0
1001
ACAD
1000
MTEXTBEGIN
1070
    73
1070
     1
1070
    44
1040
1.0
1070
    74
1070
     0
1000
MTEXTEND
  0
POINT
  5
5A61E
330
4DB77
100
AcDbEntity
  8
Defpoints
 62
     0
100
AcDbPoint
 10
6163.620263039187
 20
-5242.9279082586
 30
0.0
  0
POINT
  5
5A61F
330
4DB77
100
AcDbEntity
  8
Defpoints
 62
     0
100
AcDbPoint
 10
6183.929280039187
 20
-5232.927908258601
 30
0.0
  0
POINT
  5
5A620
330
4DB77
100
AcDbEntity
  8
Defpoints
 62
     0
100
AcDbPoint
 10
6147.620263039187
 20
-5232.927908258601
 30
0.0
  0
ENDBLK
  5
4DB82
330
4DB77
100
AcDbEntity
  8
0
100
AcDbBlockEnd
  0
BLOCK
  5
4DB99
330
4DB8D
100
AcDbEntity
  8
0
100
AcDbBlockBegin
  2
*D16
 70
     1
 10
0.0
 20
0.0
 30
0.0
  3
*D16
  1

  0
LINE
  5
5A621
330
4DB8D
100
AcDbEntity
  8
AM_5
100
AcDbLine
 10
6162.620263039187
 20
-5242.9279082586
 30
0.0
 11
6154.620263039187
 21
-5242.9279082586
 31
0.0
  0
LINE
  5
5A622
330
4DB8D
100
AcDbEntity
  8
AM_5
100
AcDbLine
 10
6162.620263039187
 20
-5240.927908258601
 30
0.0
 11
6154.620263039187
 21
-5240.927908258601
 31
0.0
  0
LINE
  5
5A623
330
4DB8D
100
AcDbEntity
  8
AM_5
100
AcDbLine
 10
6155.620263039186
 20
-5239.927908258601
 30
0.0
 11
6155.620263039186
 21
-5238.927908258601
 31
0.0
  0
LINE
  5
5A624
330
4DB8D
100
AcDbEntity
  8
AM_5
100
AcDbLine
 10
6155.620263039186
 20
-5243.927908258601
 30
0.0
 11
6155.620263039186
 21
-5248.421241591934
 31
0.0
  0
LINE
  5
5A625
330
4DB8D
100
AcDbEntity
  8
AM_5
100
AcDbLine
 10
6155.620263039186
 20
-5240.927908258601
 30
0.0
 11
6155.620263039186
 21
-5242.9279082586
 31
0.0
  0
INSERT
  5
5A626
330
4DB8D
100
AcDbEntity
  8
AM_5
100
AcDbBlockReference
  2
_Dot
 10
6155.620263039186
 20
-5240.927908258601
 30
0.0
 50
270.0
  0
INSERT
  5
5A627
330
4DB8D
100
AcDbEntity
  8
AM_5
100
AcDbBlockReference
  2
_Dot
 10
6155.620263039186
 20
-5242.9279082586
 30
0.0
 50
90.0
  0
MTEXT
  5
5A628
330
4DB8D
100
AcDbEntity
  8
AM_5
 62
     2
100
AcDbMText
 10
6153.020263039187
 20
-5246.674574925266
 30
0.0
 40
3.200000000000001
 41
0.0
 71
     5
 72
     1
  1
2
 11
0.0000000000000001
 21
1.0
 31
0.0
 73
     1
 44
1.0
1001
ACAD
1000
MTEXTBEGIN
1070
    73
1070
     1
1070
    44
1040
1.0
1070
    74
1070
     0
1000
MTEXTEND
  0
POINT
  5
5A629
330
4DB8D
100
AcDbEntity
  8
Defpoints
 62
     0
100
AcDbPoint
 10
6163.620263039187
 20
-5242.9279082586
 30
0.0
  0
POINT
  5
5A62A
330
4DB8D
100
AcDbEntity
  8
Defpoints
 62
     0
100
AcDbPoint
 10
6163.620263039187
 20
-5240.927908258601
 30
0.0
  0
POINT
  5
5A62B
330
4DB8D
100
AcDbEntity
  8
Defpoints
 62
     0
100
AcDbPoint
 10
6155.620263039186
 20
-5240.927908258601
 30
0.0
  0
ENDBLK
  5
4DB9A
330
4DB8D
100
AcDbEntity
  8
0
100
AcDbBlockEnd
  0
BLOCK
  5
4DBD6
330
4DBCC
100
AcDbEntity
  8
0
100
AcDbBlockBegin
  2
*D17
 70
     1
 10
0.0
 20
0.0
 30
0.0
  3
*D17
  1

  0
LINE
  5
5A62C
330
4DBCC
100
AcDbEntity
  8
AM_5
100
AcDbLine
 10
6242.020918039187
 20
-5169.735771555347
 30
0.0
 11
6242.020918039187
 21
-5197.235771555348
 31
0.0
  0
LINE
  5
5A62D
330
4DBCC
100
AcDbEntity
  8
AM_5
100
AcDbLine
 10
6264.020918039188
 20
-5169.735771555347
 30
0.0
 11
6264.020918039188
 21
-5197.235771555348
 31
0.0
  0
LINE
  5
5A62E
330
4DBCC
100
AcDbEntity
  8
AM_5
100
AcDbLine
 10
6243.020918039188
 20
-5196.235771555348
 30
0.0
 11
6263.020918039188
 21
-5196.235771555348
 31
0.0
  0
INSERT
  5
5A62F
330
4DBCC
100
AcDbEntity
  8
AM_5
100
AcDbBlockReference
  2
_Dot
 10
6242.020918039187
 20
-5196.235771555348
 30
0.0
 50
180.0
  0
INSERT
  5
5A630
330
4DBCC
100
AcDbEntity
  8
AM_5
100
AcDbBlockReference
  2
_Dot
 10
6264.020918039188
 20
-5196.235771555348
 30
0.0
  0
MTEXT
  5
5A631
330
4DBCC
100
AcDbEntity
  8
AM_5
 62
     2
100
AcDbMText
 10
6253.020918039188
 20
-5193.635771555348
 30
0.0
 40
3.200000000000001
 41
0.0
 71
     5
 72
     1
  1
22
 73
     1
 44
1.0
1001
ACAD
1000
MTEXTBEGIN
1070
    73
1070
     1
1070
    44
1040
1.0
1070
    74
1070
     0
1000
MTEXTEND
  0
POINT
  5
5A632
330
4DBCC
100
AcDbEntity
  8
Defpoints
 62
     0
100
AcDbPoint
 10
6242.020918039187
 20
-5168.735771555347
 30
0.0
  0
POINT
  5
5A633
330
4DBCC
100
AcDbEntity
  8
Defpoints
 62
     0
100
AcDbPoint
 10
6264.020918039188
 20
-5168.735771555347
 30
0.0
  0
POINT
  5
5A634
330
4DBCC
100
AcDbEntity
  8
Defpoints
 62
     0
100
AcDbPoint
 10
6264.020918039188
 20
-5196.235771555348
 30
0.0
  0
ENDBLK
  5
4DBD7
330
4DBCC
100
AcDbEntity
  8
0
100
AcDbBlockEnd
  0
BLOCK
  5
4DBEC
330
4DBE2
100
AcDbEntity
  8
0
100
AcDbBlockBegin
  2
*D18
 70
     1
 10
0.0
 20
0.0
 30
0.0
  3
*D18
  1

  0
LINE
  5
5A635
330
4DBE2
100
AcDbEntity
  8
AM_5
100
AcDbLine
 10
6242.020918039187
 20
-5169.735771555347
 30
0.0
 11
6242.020918039187
 21
-5189.235771555348
 31
0.0
  0
LINE
  5
5A636
330
4DBE2
100
AcDbEntity
  8
AM_5
100
AcDbLine
 10
6229.020918039188
 20
-5172.985771555348
 30
0.0
 11
6229.020918039188
 21
-5189.235771555348
 31
0.0
  0
LINE
  5
5A637
330
4DBE2
100
AcDbEntity
  8
AM_5
100
AcDbLine
 10
6241.020918039187
 20
-5188.235771555348
 30
0.0
 11
6230.020918039187
 21
-5188.235771555348
 31
0.0
  0
INSERT
  5
5A638
330
4DBE2
100
AcDbEntity
  8
AM_5
100
AcDbBlockReference
  2
_Dot
 10
6242.020918039187
 20
-5188.235771555348
 30
0.0
  0
INSERT
  5
5A639
330
4DBE2
100
AcDbEntity
  8
AM_5
100
AcDbBlockReference
  2
_Dot
 10
6229.020918039188
 20
-5188.235771555348
 30
0.0
 50
180.0
  0
MTEXT
  5
5A63A
330
4DBE2
100
AcDbEntity
  8
AM_5
 62
     2
100
AcDbMText
 10
6235.520918039187
 20
-5185.635771555348
 30
0.0
 40
3.200000000000001
 41
0.0
 71
     5
 72
     1
  1
13
 73
     1
 44
1.0
1001
ACAD
1000
MTEXTBEGIN
1070
    73
1070
     1
1070
    44
1040
1.0
1070
    74
1070
     0
1000
MTEXTEND
  0
POINT
  5
5A63B
330
4DBE2
100
AcDbEntity
  8
Defpoints
 62
     0
100
AcDbPoint
 10
6242.020918039187
 20
-5168.735771555347
 30
0.0
  0
POINT
  5
5A63C
330
4DBE2
100
AcDbEntity
  8
Defpoints
 62
     0
100
AcDbPoint
 10
6229.020918039188
 20
-5171.985771555348
 30
0.0
  0
POINT
  5
5A63D
330
4DBE2
100
AcDbEntity
  8
Defpoints
 62
     0
100
AcDbPoint
 10
6229.020918039188
 20
-5188.235771555348
 30
0.0
  0
ENDBLK
  5
4DBED
330
4DBE2
100
AcDbEntity
  8
0
100
AcDbBlockEnd
  0
BLOCK
  5
4DF0D
330
4DF03
100
AcDbEntity
  8
0
100
AcDbBlockBegin
  2
*D19
 70
     1
 10
0.0
 20
0.0
 30
0.0
  3
*D19
  1

  0
LINE
  5
5A63E
330
4DF03
100
AcDbEntity
  8
AM_5
100
AcDbLine
 10
6171.428027039187
 20
-5186.234091668906
 30
0.0
 11
6171.428027039187
 21
-5191.235771555348
 31
0.0
  0
LINE
  5
5A63F
330
4DF03
100
AcDbEntity
  8
AM_5
100
AcDbLine
 10
6189.620263039188
 20
-5175.235771555348
 30
0.0
 11
6189.620263039188
 21
-5191.235771555348
 31
0.0
  0
LINE
  5
5A640
330
4DF03
100
AcDbEntity
  8
AM_5
100
AcDbLine
 10
6172.428027039187
 20
-5190.235771555347
 30
0.0
 11
6188.620263039187
 21
-5190.235771555347
 31
0.0
  0
INSERT
  5
5A641
330
4DF03
100
AcDbEntity
  8
AM_5
100
AcDbBlockReference
  2
_Dot
 10
6171.428027039187
 20
-5190.235771555347
 30
0.0
 50
180.0
  0
INSERT
  5
5A642
330
4DF03
100
AcDbEntity
  8
AM_5
100
AcDbBlockReference
  2
_Dot
 10
6189.620263039188
 20
-5190.235771555347
 30
0.0
  0
MTEXT
  5
5A643
330
4DF03
100
AcDbEntity
  8
AM_5
 62
     2
100
AcDbMText
 10
6180.524145039189
 20
-5187.635771555347
 30
0.0
 40
3.200000000000001
 41
0.0
 71
     5
 72
     1
  1
（18）
 73
     1
 44
1.0
1001
ACAD
1000
MTEXTBEGIN
1070
    73
1070
     1
1070
    44
1040
1.0
1070
    74
1070
     0
1000
MTEXTEND
  0
POINT
  5
5A644
330
4DF03
100
AcDbEntity
  8
Defpoints
 62
     0
100
AcDbPoint
 10
6171.428027039187
 20
-5185.234091668906
 30
0.0
  0
POINT
  5
5A645
330
4DF03
100
AcDbEntity
  8
Defpoints
 62
     0
100
AcDbPoint
 10
6189.620263039188
 20
-5174.235771555348
 30
0.0
  0
POINT
  5
5A646
330
4DF03
100
AcDbEntity
  8
Defpoints
 62
     0
100
AcDbPoint
 10
6189.620263039188
 20
-5190.235771555347
 30
0.0
  0
ENDBLK
  5
4DF0E
330
4DF03
100
AcDbEntity
  8
0
100
AcDbBlockEnd
  0
BLOCK
  5
4DF57
330
4DF4D
100
AcDbEntity
  8
0
100
AcDbBlockBegin
  2
*D20
 70
     1
 10
0.0
 20
0.0
 30
0.0
  3
*D20
  1

  0
LINE
  5
5A647
330
4DF4D
100
AcDbEntity
  8
AM_5
100
AcDbLine
 10
6242.020918039187
 20
-5169.735771555347
 30
0.0
 11
6242.020918039187
 21
-5197.235771555348
 31
0.0
  0
LINE
  5
5A648
330
4DF4D
100
AcDbEntity
  8
AM_5
100
AcDbLine
 10
6171.428027039187
 20
-5186.234091668906
 30
0.0
 11
6171.428027039187
 21
-5197.235771555348
 31
0.0
  0
LINE
  5
5A649
330
4DF4D
100
AcDbEntity
  8
AM_5
100
AcDbLine
 10
6241.020918039187
 20
-5196.235771555348
 30
0.0
 11
6172.428027039187
 21
-5196.235771555348
 31
0.0
  0
INSERT
  5
5A64A
330
4DF4D
100
AcDbEntity
  8
AM_5
100
AcDbBlockReference
  2
_Dot
 10
6242.020918039187
 20
-5196.235771555348
 30
0.0
  0
INSERT
  5
5A64B
330
4DF4D
100
AcDbEntity
  8
AM_5
100
AcDbBlockReference
  2
_Dot
 10
6171.428027039187
 20
-5196.235771555348
 30
0.0
 50
180.0
  0
MTEXT
  5
5A64C
330
4DF4D
100
AcDbEntity
  8
AM_5
 62
     2
100
AcDbMText
 10
6206.520918039188
 20
-5193.635771555348
 30
0.0
 40
3.200000000000001
 41
0.0
 71
     5
 72
     1
  1
（71）
 73
     1
 44
1.0
1001
ACAD
1000
MTEXTBEGIN
1070
    73
1070
     1
1070
    44
1040
1.0
1070
    74
1070
     0
1000
MTEXTEND
  0
POINT
  5
5A64D
330
4DF4D
100
AcDbEntity
  8
Defpoints
 62
     0
100
AcDbPoint
 10
6242.020918039187
 20
-5168.735771555347
 30
0.0
  0
POINT
  5
5A64E
330
4DF4D
100
AcDbEntity
  8
Defpoints
 62
     0
100
AcDbPoint
 10
6171.428027039187
 20
-5185.234091668906
 30
0.0
  0
POINT
  5
5A64F
330
4DF4D
100
AcDbEntity
  8
Defpoints
 62
     0
100
AcDbPoint
 10
6171.428027039187
 20
-5196.235771555348
 30
0.0
  0
ENDBLK
  5
4DF58
330
4DF4D
100
AcDbEntity
  8
0
100
AcDbBlockEnd
  0
BLOCK
  5
4E0BA
330
4E0B0
100
AcDbEntity
  8
0
100
AcDbBlockBegin
  2
*D21
 70
     1
 10
0.0
 20
0.0
 30
0.0
  3
*D21
  1

  0
LINE
  5
5A650
330
4E0B0
100
AcDbEntity
  8
AM_5
100
AcDbLine
 10
6163.928027039187
 20
-5150.235771555347
 30
0.0
 11
6154.620263039187
 21
-5150.235771555347
 31
0.0
  0
LINE
  5
5A651
330
4E0B0
100
AcDbEntity
  8
AM_5
100
AcDbLine
 10
6163.928027039187
 20
-5174.235771555348
 30
0.0
 11
6154.620263039187
 21
-5174.235771555348
 31
0.0
  0
LINE
  5
5A652
330
4E0B0
100
AcDbEntity
  8
AM_5
100
AcDbLine
 10
6155.620263039186
 20
-5151.235771555349
 30
0.0
 11
6155.620263039186
 21
-5173.235771555348
 31
0.0
  0
INSERT
  5
5A653
330
4E0B0
100
AcDbEntity
  8
AM_5
100
AcDbBlockReference
  2
_Dot
 10
6155.620263039186
 20
-5150.235771555347
 30
0.0
 50
90.0
  0
INSERT
  5
5A654
330
4E0B0
100
AcDbEntity
  8
AM_5
100
AcDbBlockReference
  2
_Dot
 10
6155.620263039186
 20
-5174.235771555348
 30
0.0
 50
270.0
  0
MTEXT
  5
5A655
330
4E0B0
100
AcDbEntity
  8
AM_5
 62
     2
100
AcDbMText
 10
6153.020263039187
 20
-5162.235771555348
 30
0.0
 40
3.200000000000001
 41
0.0
 71
     5
 72
     1
  1
24
 11
0.0000000000000001
 21
1.0
 31
0.0
 73
     1
 44
1.0
1001
ACAD
1000
MTEXTBEGIN
1070
    73
1070
     1
1070
    44
1040
1.0
1070
    74
1070
     0
1000
MTEXTEND
  0
POINT
  5
5A656
330
4E0B0
100
AcDbEntity
  8
Defpoints
 62
     0
100
AcDbPoint
 10
6164.928027039188
 20
-5150.235771555347
 30
0.0
  0
POINT
  5
5A657
330
4E0B0
100
AcDbEntity
  8
Defpoints
 62
     0
100
AcDbPoint
 10
6164.928027039188
 20
-5174.235771555348
 30
0.0
  0
POINT
  5
5A658
330
4E0B0
100
AcDbEntity
  8
Defpoints
 62
     0
100
AcDbPoint
 10
6155.620263039186
 20
-5174.235771555348
 30
0.0
  0
ENDBLK
  5
4E0BB
330
4E0B0
100
AcDbEntity
  8
0
100
AcDbBlockEnd
  0
BLOCK
  5
5513E
330
55134
100
AcDbEntity
  8
0
100
AcDbBlockBegin
  2
*D22
 70
     1
 10
0.0
 20
0.0
 30
0.0
  3
*D22
  1

  0
LINE
  5
5A659
330
55134
100
AcDbEntity
  8
AM_5
100
AcDbLine
 10
6271.520918039187
 20
-5242.957087258601
 30
0.0
 11
6299.898443039186
 21
-5242.957087258601
 31
0.0
  0
LINE
  5
5A65A
330
55134
100
AcDbEntity
  8
AM_5
100
AcDbLine
 10
6254.020918039188
 20
-5216.957087258601
 30
0.0
 11
6299.898443039186
 21
-5216.957087258601
 31
0.0
  0
LINE
  5
5A65B
330
55134
100
AcDbEntity
  8
AM_5
100
AcDbLine
 10
6298.898443039187
 20
-5241.957087258601
 30
0.0
 11
6298.898443039187
 21
-5217.957087258601
 31
0.0
  0
INSERT
  5
5A65C
330
55134
100
AcDbEntity
  8
AM_5
100
AcDbBlockReference
  2
_Dot
 10
6298.898443039187
 20
-5242.957087258601
 30
0.0
 50
270.0
  0
INSERT
  5
5A65D
330
55134
100
AcDbEntity
  8
AM_5
100
AcDbBlockReference
  2
_Dot
 10
6298.898443039187
 20
-5216.957087258601
 30
0.0
 50
90.0
  0
MTEXT
  5
5A65E
330
55134
100
AcDbEntity
  8
AM_5
 62
     2
100
AcDbMText
 10
6296.298443039187
 20
-5229.9570872586
 30
0.0
 40
3.200000000000001
 41
0.0
 71
     5
 72
     1
  1
26
 11
0.0000000000000001
 21
1.0
 31
0.0
 73
     1
 44
1.0
1001
ACAD
1000
MTEXTBEGIN
1070
    73
1070
     1
1070
    44
1040
1.0
1070
    74
1070
     0
1000
MTEXTEND
  0
POINT
  5
5A65F
330
55134
100
AcDbEntity
  8
Defpoints
 62
     0
100
AcDbPoint
 10
6270.520918039188
 20
-5242.957087258601
 30
0.0
  0
POINT
  5
5A660
330
55134
100
AcDbEntity
  8
Defpoints
 62
     0
100
AcDbPoint
 10
6253.020918039188
 20
-5216.957087258601
 30
0.0
  0
POINT
  5
5A661
330
55134
100
AcDbEntity
  8
Defpoints
 62
     0
100
AcDbPoint
 10
6298.898443039187
 20
-5216.957087258601
 30
0.0
  0
ENDBLK
  5
5513F
330
55134
100
AcDbEntity
  8
0
100
AcDbBlockEnd
  0
BLOCK
  5
5516C
330
55165
100
AcDbEntity
  8
0
100
AcDbBlockBegin
  2
*D23
 70
     1
 10
0.0
 20
0.0
 30
0.0
  3
*D23
  1

  0
LINE
  5
5A662
330
55165
100
AcDbEntity
  8
AM_5
100
AcDbLine
 10
6266.107539349786
 20
-5214.83777997556
 30
0.0
 11
6261.694206016445
 21
-5214.83777997556
 31
0.0
  0
LINE
  5
5A663
330
55165
100
AcDbEntity
  8
AM_5
100
AcDbLine
 10
6261.694206016445
 20
-5214.83777997556
 30
0.0
 11
6256.811324153364
 21
-5219.971761489029
 31
0.0
  0
LINE
  5
5A664
330
55165
100
AcDbEntity
  8
AM_5
100
AcDbLine
 10
6249.230511925011
 20
-5227.942413028173
 30
0.0
 11
6248.541347176979
 21
-5228.667017713549
 31
0.0
  0
MTEXT
  5
5A665
330
55165
100
AcDbEntity
  8
AM_5
 62
     2
100
AcDbMText
 10
6264.40087268312
 20
-5212.237779975559
 30
0.0
 40
3.2
 41
0.0
 71
     5
 72
     1
  1
\U+22059
 73
     1
 44
1.0
1001
ACAD
1000
MTEXTBEGIN
1070
    73
1070
     1
1070
    44
1040
1.0
1070
    74
1070
     0
1000
MTEXTEND
  0
LINE
  5
5A666
330
55165
100
AcDbEntity
  8
AM_5
100
AcDbLine
 10
6249.919676673044
 20
-5227.217808342795
 30
0.0
 11
6256.122159405332
 21
-5220.696366174405
 31
0.0
  0
INSERT
  5
5A667
330
55165
100
AcDbEntity
  8
AM_5
100
AcDbBlockReference
  2
_Dot
 10
6249.919676673044
 20
-5227.217808342795
 30
0.0
 50
46.43597224645708
  0
INSERT
  5
5A668
330
55165
100
AcDbEntity
  8
AM_5
100
AcDbBlockReference
  2
_Dot
 10
6256.122159405332
 20
-5220.696366174405
 30
0.0
 50
226.4359722464571
  0
POINT
  5
5A669
330
55165
100
AcDbEntity
  8
Defpoints
 62
     0
100
AcDbPoint
 10
6256.122159405332
 20
-5220.696366174405
 30
0.0
  0
POINT
  5
5A66A
330
55165
100
AcDbEntity
  8
Defpoints
 62
     0
100
AcDbPoint
 10
6249.919676673044
 20
-5227.217808342795
 30
0.0
  0
ENDBLK
  5
5516D
330
55165
100
AcDbEntity
  8
0
100
AcDbBlockEnd
  0
BLOCK
  5
59CB7
330
59CB0
100
AcDbEntity
  8
0
100
AcDbBlockBegin
  2
*D24
 70
     1
 10
0.0
 20
0.0
 30
0.0
  3
*D24
  1

  0
LINE
  5
5A66B
330
59CB0
100
AcDbEntity
  8
AM_5
100
AcDbLine
 10
6133.361602759421
 20
-5189.048936768795
 30
0.0
 11
6160.83626942609
 21
-5189.048936768794
 31
0.0
  0
LINE
  5
5A66C
330
59CB0
100
AcDbEntity
  8
AM_5
100
AcDbLine
 10
6160.83626942609
 20
-5189.048936768794
 30
0.0
 11
6168.345359470608
 21
-5178.547054503802
 31
0.0
  0
LINE
  5
5A66D
330
59CB0
100
AcDbEntity
  8
AM_5
100
AcDbLine
 10
6174.510694607768
 20
-5169.924488606895
 30
0.0
 11
6175.092329998066
 21
-5169.111038993979
 31
0.0
  0
MTEXT
  5
5A66E
330
59CB0
100
AcDbEntity
  8
AM_5
 62
     2
100
AcDbMText
 10
6146.598936092754
 20
-5186.448936768795
 30
0.0
 40
3.2
 41
0.0
 71
     5
 72
     1
  1
2-%%c5.2×\U+22058.6サラ
 73
     1
 44
1.0
1001
ACAD
1000
MTEXTBEGIN
1070
    73
1070
     1
1070
    44
1040
1.0
1070
    74
1070
     0
1000
MTEXTEND
  0
LINE
  5
5A66F
330
59CB0
100
AcDbEntity
  8
AM_5
100
AcDbLine
 10
6173.929059217471
 20
-5170.737938219811
 30
0.0
 11
6168.926994860907
 21
-5177.733604890887
 31
0.0
  0
INSERT
  5
5A670
330
59CB0
100
AcDbEntity
  8
AM_5
100
AcDbBlockReference
  2
_Dot
 10
6173.929059217471
 20
-5170.737938219811
 30
0.0
 50
234.4343503253482
  0
INSERT
  5
5A671
330
59CB0
100
AcDbEntity
  8
AM_5
100
AcDbBlockReference
  2
_Dot
 10
6168.926994860907
 20
-5177.733604890887
 30
0.0
 50
54.43435032534818
  0
POINT
  5
5A672
330
59CB0
100
AcDbEntity
  8
Defpoints
 62
     0
100
AcDbPoint
 10
6168.926994860907
 20
-5177.733604890887
 30
0.0
  0
POINT
  5
5A673
330
59CB0
100
AcDbEntity
  8
Defpoints
 62
     0
100
AcDbPoint
 10
6173.929059217471
 20
-5170.737938219811
 30
0.0
  0
ENDBLK
  5
59CB8
330
59CB0
100
AcDbEntity
  8
0
100
AcDbBlockEnd
  0
BLOCK
  5
59D40
330
59D36
100
AcDbEntity
  8
0
100
AcDbBlockBegin
  2
*D25
 70
     1
 10
0.0
 20
0.0
 30
0.0
  3
*D25
  1

  0
LINE
  5
5A67D
330
59D36
100
AcDbEntity
  8
AM_5
100
AcDbLine
 10
6304.45852441494
 20
-5186.457682287615
 30
0.0
 11
6276.983857748273
 21
-5186.457682287615
 31
0.0
  0
LINE
  5
5A67E
330
59D36
100
AcDbEntity
  8
AM_5
100
AcDbLine
 10
6276.983857748273
 20
-5186.457682287615
 30
0.0
 11
6266.52173002511
 21
-5166.908665670465
 31
0.0
  0
LINE
  5
5A67F
330
59D36
100
AcDbEntity
  8
AM_5
100
AcDbLine
 10
6261.520106053263
 20
-5157.562877440234
 30
0.0
 11
6261.048254735166
 21
-5156.681199305308
 31
0.0
  0
MTEXT
  5
5A680
330
59D36
100
AcDbEntity
  8
AM_5
 62
     2
100
AcDbMText
 10
6291.221191081607
 20
-5183.857682287614
 30
0.0
 40
3.2
 41
0.0
 71
     5
 72
     1
  1
2-%%c5.2×\U+22058.6サラ
 73
     1
 44
1.0
1001
ACAD
1000
MTEXTBEGIN
1070
    73
1070
     1
1070
    44
1040
1.0
1070
    74
1070
     0
1000
MTEXTEND
  0
LINE
  5
5A681
330
59D36
100
AcDbEntity
  8
AM_5
100
AcDbLine
 10
6261.991957371363
 20
-5158.444555575163
 30
0.0
 11
6266.049878707011
 21
-5166.026987535539
 31
0.0
  0
INSERT
  5
5A682
330
59D36
100
AcDbEntity
  8
AM_5
100
AcDbBlockReference
  2
_Dot
 10
6261.991957371363
 20
-5158.444555575163
 30
0.0
 50
298.1545368526329
  0
INSERT
  5
5A683
330
59D36
100
AcDbEntity
  8
AM_5
100
AcDbBlockReference
  2
_Dot
 10
6266.049878707011
 20
-5166.026987535539
 30
0.0
 50
118.1545368526329
  0
POINT
  5
5A684
330
59D36
100
AcDbEntity
  8
Defpoints
 62
     0
100
AcDbPoint
 10
6266.049878707011
 20
-5166.026987535539
 30
0.0
  0
POINT
  5
5A685
330
59D36
100
AcDbEntity
  8
Defpoints
 62
     0
100
AcDbPoint
 10
6261.991957371363
 20
-5158.444555575163
 30
0.0
  0
ENDBLK
  5
59D41
330
59D36
100
AcDbEntity
  8
0
100
AcDbBlockEnd
  0
ENDSEC
  0
SECTION
  2
ENTITIES
  0
TEXT
  5
31B30
330
1F
100
AcDbEntity
  8
AM_6
 60
     1
100
AcDbText
 10
3408.785415022811
 20
1879.970675238635
 30
0.0
 40
2.5
  1
!GENTITLE-INSERT
100
AcDbText
  0
TEXT
  5
31B31
330
1F
100
AcDbEntity
  8
AM_6
 60
     1
100
AcDbText
 10
3000.285415022811
 20
1871.470675238635
 30
0.0
 40
2.5
  1
!GENTITLE-LL
100
AcDbText
  0
TEXT
  5
31B32
330
1F
100
AcDbEntity
  8
AM_6
 60
     1
100
AcDbText
 10
3420.285415022811
 20
2168.470675238635
 30
0.0
 40
2.5
  1
!GENTITLE-RU
100
AcDbText
  0
TEXT
  5
31B33
330
1F
100
AcDbEntity
  8
AM_6
 60
     1
100
AcDbText
 10
3420.285415022811
 20
2168.470675238635
 30
0.0
 40
2.5
  1
!GENTITLE-MAX
100
AcDbText
  0
TEXT
  5
31B3B
330
1F
100
AcDbEntity
  8
AM_6
 60
     1
100
AcDbText
 10
3000.285415022811
 20
1871.470675238635
 30
0.0
 40
2.5
  1
!GENTITLE-LL
100
AcDbText
  0
TEXT
  5
31B3C
330
1F
100
AcDbEntity
  8
AM_6
 60
     1
100
AcDbText
 10
3408.785415022811
 20
2159.970675238636
 30
0.0
 40
2.5
  1
!GENTITLE-RU
100
AcDbText
  0
TEXT
  5
31B3D
330
1F
100
AcDbEntity
  8
AM_6
 60
     1
100
AcDbText
 10
3420.285415022811
 20
2168.470675238635
 30
0.0
 40
2.5
  1
!GENTITLE-MAX
100
AcDbText
  0
TEXT
  5
31B3E
330
1F
100
AcDbEntity
  8
AM_6
 60
     1
100
AcDbText
 10
3408.785415022811
 20
1879.970675238635
 30
0.0
 40
2.5
  1
!GENTITLE-INSERT
100
AcDbText
  0
TEXT
  5
32D1D
330
1F
100
AcDbEntity
  8
AM_6
 60
     1
100
AcDbText
 10
3234.949399973154
 20
1839.277532086519
 30
0.0
 40
2.5
  1
!GENTITLE-INSERT
100
AcDbText
  0
TEXT
  5
32D1E
330
1F
100
AcDbEntity
  8
AM_6
 60
     1
100
AcDbText
 10
3246.449399973154
 20
2040.77753208652
 30
0.0
 40
2.5
  1
!GENTITLE-MAX
100
AcDbText
  0
TEXT
  5
32D1F
330
1F
100
AcDbEntity
  8
AM_6
 60
     1
100
AcDbText
 10
3246.449399973154
 20
2040.77753208652
 30
0.0
 40
2.5
  1
!GENTITLE-RU
100
AcDbText
  0
TEXT
  5
32D21
330
1F
100
AcDbEntity
  8
AM_6
 60
     1
100
AcDbText
 10
2949.449399973154
 20
1830.777532086519
 30
0.0
 40
2.5
  1
!GENTITLE-LL
100
AcDbText
  0
TEXT
  5
34534
330
1F
100
AcDbEntity
  8
AM_6
 60
     1
100
AcDbText
 10
3774.506320898737
 20
958.0958490755065
 30
0.0
 40
2.5
  1
!GENTITLE-INSERT
100
AcDbText
  0
TEXT
  5
34535
330
1F
100
AcDbEntity
  8
AM_6
 60
     1
100
AcDbText
 10
3786.006320898738
 20
1159.595849075506
 30
0.0
 40
2.5
  1
!GENTITLE-MAX
100
AcDbText
  0
TEXT
  5
34536
330
1F
100
AcDbEntity
  8
AM_6
 60
     1
100
AcDbText
 10
3786.006320898738
 20
1159.595849075506
 30
0.0
 40
2.5
  1
!GENTITLE-RU
100
AcDbText
  0
TEXT
  5
34538
330
1F
100
AcDbEntity
  8
AM_6
 60
     1
100
AcDbText
 10
3489.006320898738
 20
949.5958490755064
 30
0.0
 40
2.5
  1
!GENTITLE-LL
100
AcDbText
  0
LINE
  5
437E9
330
1F
100
AcDbEntity
  8
size
100
AcDbLine
 10
6074.924675701049
 20
-5067.938871977027
 30
0.0
 11
6371.924675701049
 21
-5067.938871977027
 31
0.0
1001
GENIUS_GENREC_14
1002
{
1000
PYDIR
1011
6074.924675701049
1021
-4980.938871977027
1031
0.0
1002
}
1002
{
1000
PXDIR
1011
6494.924675701049
1021
-5277.938871977027
1031
0.0
1002
}
1002
{
1000
PORI
1011
6074.924675701049
1021
-5277.938871977027
1031
0.0
1002
}
1002
{
1000
PINS
1011
6284.924675701049
1021
-5129.438871977026
1031
0.0
1002
}
1002
{
1000
HVAL
1000
297
1002
}
1002
{
1000
H
1070
     2
1002
}
1002
{
1000
WVAL
1000
420
1002
}
1002
{
1000
W
1070
     2
1002
}
1002
{
1000
C
1070
     4
1002
}
1001
GENIUS_GENOBJ-N-REC_13
1002
{
1000
OWNER
1000
GEN
1002
}
1001
GENIUS_GENODEF_13
1002
{
1000
HIER
1070
     0
1002
}
1002
{
1000
MANEDIT
1070
     0
1002
}
1002
{
1000
NOSEL
1070
     0
1002
}
1002
{
1000
BEHIND
1070
     0
1002
}
1002
{
1000
OTHER
1070
     0
1002
}
1002
{
1000
REACTOR
1002
}
  0
LINE
  5
437EA
330
1F
100
AcDbEntity
  8
size
100
AcDbLine
 10
6371.924675701049
 20
-5067.938871977027
 30
0.0
 11
6371.924675701049
 21
-5277.938871977027
 31
0.0
1001
GENIUS_GENREC_14
1002
{
1000
PYDIR
1011
6074.924675701049
1021
-4980.938871977027
1031
0.0
1002
}
1002
{
1000
PXDIR
1011
6494.924675701049
1021
-5277.938871977027
1031
0.0
1002
}
1002
{
1000
PORI
1011
6074.924675701049
1021
-5277.938871977027
1031
0.0
1002
}
1002
{
1000
PINS
1011
6284.924675701049
1021
-5129.438871977026
1031
0.0
1002
}
1002
{
1000
HVAL
1000
297
1002
}
1002
{
1000
H
1070
     2
1002
}
1002
{
1000
WVAL
1000
420
1002
}
1002
{
1000
W
1070
     2
1002
}
1002
{
1000
C
1070
     4
1002
}
1001
GENIUS_GENOBJ-N-REC_13
1002
{
1000
OWNER
1000
GEN
1002
}
1001
GENIUS_GENODEF_13
1002
{
1000
HIER
1070
     0
1002
}
1002
{
1000
MANEDIT
1070
     0
1002
}
1002
{
1000
NOSEL
1070
     0
1002
}
1002
{
1000
BEHIND
1070
     0
1002
}
1002
{
1000
OTHER
1070
     0
1002
}
1002
{
1000
REACTOR
1002
}
  0
LINE
  5
437EB
330
1F
100
AcDbEntity
  8
waku
100
AcDbLine
 10
6086.424675701049
 20
-5269.438871977026
 30
0.0
 11
6360.42467570105
 21
-5269.438871977026
 31
0.0
1001
GENIUS_GENREC_14
1002
{
1000
PYDIR
1011
6074.924675701049
1021
-4980.938871977027
1031
0.0
1002
}
1002
{
1000
PXDIR
1011
6494.924675701049
1021
-5277.938871977027
1031
0.0
1002
}
1002
{
1000
PORI
1011
6074.924675701049
1021
-5277.938871977027
1031
0.0
1002
}
1002
{
1000
PINS
1011
6284.924675701049
1021
-5129.438871977026
1031
0.0
1002
}
1002
{
1000
HVAL
1000
297
1002
}
1002
{
1000
H
1070
     2
1002
}
1002
{
1000
WVAL
1000
420
1002
}
1002
{
1000
W
1070
     2
1002
}
1002
{
1000
C
1070
     4
1002
}
  0
LINE
  5
437EC
330
1F
100
AcDbEntity
  8
waku
100
AcDbLine
 10
6360.42467570105
 20
-5076.438871977027
 30
0.0
 11
6086.424675701049
 21
-5076.438871977027
 31
0.0
1001
GENIUS_GENREC_14
1002
{
1000
PYDIR
1011
5951.92467570105
1021
-5067.938871977027
1031
0.0
1002
}
1002
{
1000
PXDIR
1011
6371.924675701049
1021
-5364.938871977027
1031
0.0
1002
}
1002
{
1000
PORI
1011
5951.92467570105
1021
-5364.938871977027
1031
0.0
1002
}
1002
{
1000
PINS
1011
6161.92467570105
1021
-5216.438871977027
1031
0.0
1002
}
1002
{
1000
HVAL
1000
297
1002
}
1002
{
1000
H
1070
     2
1002
}
1002
{
1000
WVAL
1000
420
1002
}
1002
{
1000
W
1070
     2
1002
}
1002
{
1000
C
1070
     4
1002
}
1001
GENIUS_GENOBJ-N-REC_13
1002
{
1000
OWNER
1000
GEN
1002
}
1001
GENIUS_GENODEF_13
1002
{
1000
HIER
1070
     0
1002
}
1002
{
1000
MANEDIT
1070
     0
1002
}
1002
{
1000
NOSEL
1070
     0
1002
}
1002
{
1000
BEHIND
1070
     0
1002
}
1002
{
1000
OTHER
1070
     0
1002
}
1002
{
1000
REACTOR
1002
}
  0
LINE
  5
437ED
330
1F
100
AcDbEntity
  8
waku
100
AcDbLine
 10
6086.424675701049
 20
-5076.438871977027
 30
0.0
 11
6086.424675701049
 21
-5269.438871977026
 31
0.0
1001
GENIUS_GENREC_14
1002
{
1000
PYDIR
1011
6074.924675701049
1021
-4980.938871977027
1031
0.0
1002
}
1002
{
1000
PXDIR
1011
6494.924675701049
1021
-5277.938871977027
1031
0.0
1002
}
1002
{
1000
PORI
1011
6074.924675701049
1021
-5277.938871977027
1031
0.0
1002
}
1002
{
1000
PINS
1011
6284.924675701049
1021
-5129.438871977026
1031
0.0
1002
}
1002
{
1000
HVAL
1000
297
1002
}
1002
{
1000
H
1070
     2
1002
}
1002
{
1000
WVAL
1000
420
1002
}
1002
{
1000
W
1070
     2
1002
}
1002
{
1000
C
1070
     4
1002
}
1001
GENIUS_GENOBJ-N-REC_13
1002
{
1000
OWNER
1000
GEN
1002
}
1001
GENIUS_GENODEF_13
1002
{
1000
HIER
1070
     0
1002
}
1002
{
1000
MANEDIT
1070
     0
1002
}
1002
{
1000
NOSEL
1070
     0
1002
}
1002
{
1000
BEHIND
1070
     0
1002
}
1002
{
1000
OTHER
1070
     0
1002
}
1002
{
1000
REACTOR
1002
}
  0
LINE
  5
437EE
330
1F
100
AcDbEntity
  8
waku
100
AcDbLine
 10
6360.42467570105
 20
-5269.438871977026
 30
0.0
 11
6360.42467570105
 21
-5076.438871977027
 31
0.0
1001
GENIUS_GENREC_14
1002
{
1000
PYDIR
1011
5951.92467570105
1021
-5061.938871977027
1031
0.0
1002
}
1002
{
1000
PXDIR
1011
6371.924675701049
1021
-5358.938871977027
1031
0.0
1002
}
1002
{
1000
PORI
1011
5951.92467570105
1021
-5358.938871977027
1031
0.0
1002
}
1002
{
1000
PINS
1011
6161.92467570105
1021
-5210.438871977027
1031
0.0
1002
}
1002
{
1000
HVAL
1000
297
1002
}
1002
{
1000
H
1070
     2
1002
}
1002
{
1000
WVAL
1000
420
1002
}
1002
{
1000
W
1070
     2
1002
}
1002
{
1000
C
1070
     4
1002
}
1001
GENIUS_GENOBJ-N-REC_13
1002
{
1000
OWNER
1000
GEN
1002
}
1001
GENIUS_GENODEF_13
1002
{
1000
HIER
1070
     0
1002
}
1002
{
1000
MANEDIT
1070
     0
1002
}
1002
{
1000
NOSEL
1070
     0
1002
}
1002
{
1000
BEHIND
1070
     0
1002
}
1002
{
1000
OTHER
1070
     0
1002
}
1002
{
1000
REACTOR
1002
}
  0
LINE
  5
437EF
330
1F
100
AcDbEntity
  8
size
100
AcDbLine
 10
6074.924675701049
 20
-5067.938871977027
 30
0.0
 11
6074.924675701049
 21
-5277.938871977027
 31
0.0
1001
GENIUS_GENREC_14
1002
{
1000
PYDIR
1011
6074.924675701049
1021
-4980.938871977027
1031
0.0
1002
}
1002
{
1000
PXDIR
1011
6494.924675701049
1021
-5277.938871977027
1031
0.0
1002
}
1002
{
1000
PORI
1011
6074.924675701049
1021
-5277.938871977027
1031
0.0
1002
}
1002
{
1000
PINS
1011
6284.924675701049
1021
-5129.438871977026
1031
0.0
1002
}
1002
{
1000
HVAL
1000
297
1002
}
1002
{
1000
H
1070
     2
1002
}
1002
{
1000
WVAL
1000
420
1002
}
1002
{
1000
W
1070
     2
1002
}
1002
{
1000
C
1070
     4
1002
}
1001
GENIUS_GENOBJ-N-REC_13
1002
{
1000
OWNER
1000
GEN
1002
}
1001
GENIUS_GENODEF_13
1002
{
1000
HIER
1070
     0
1002
}
1002
{
1000
MANEDIT
1070
     0
1002
}
1002
{
1000
NOSEL
1070
     0
1002
}
1002
{
1000
BEHIND
1070
     0
1002
}
1002
{
1000
OTHER
1070
     0
1002
}
1002
{
1000
REACTOR
1002
}
  0
LINE
  5
437F0
330
1F
100
AcDbEntity
  8
size
100
AcDbLine
 10
6074.924675701049
 20
-5277.938871977027
 30
0.0
 11
6371.924675701049
 21
-5277.938871977027
 31
0.0
1001
GENIUS_GENREC_14
1002
{
1000
PYDIR
1011
6074.924675701049
1021
-4980.938871977027
1031
0.0
1002
}
1002
{
1000
PXDIR
1011
6494.924675701049
1021
-5277.938871977027
1031
0.0
1002
}
1002
{
1000
PORI
1011
6074.924675701049
1021
-5277.938871977027
1031
0.0
1002
}
1002
{
1000
PINS
1011
6284.924675701049
1021
-5129.438871977026
1031
0.0
1002
}
1002
{
1000
HVAL
1000
297
1002
}
1002
{
1000
H
1070
     2
1002
}
1002
{
1000
WVAL
1000
420
1002
}
1002
{
1000
W
1070
     2
1002
}
1002
{
1000
C
1070
     4
1002
}
1001
GENIUS_GENOBJ-N-REC_13
1002
{
1000
OWNER
1000
GEN
1002
}
1001
GENIUS_GENODEF_13
1002
{
1000
HIER
1070
     0
1002
}
1002
{
1000
MANEDIT
1070
     0
1002
}
1002
{
1000
NOSEL
1070
     0
1002
}
1002
{
1000
BEHIND
1070
     0
1002
}
1002
{
1000
OTHER
1070
     0
1002
}
1002
{
1000
REACTOR
1002
}
  0
LINE
  5
437F1
330
1F
100
AcDbEntity
  8
AM_2
370
    13
100
AcDbLine
 10
6106.424675701049
 20
-5076.438871977027
 30
0.0
 11
6106.424675701049
 21
-5108.438871977027
 31
0.0
  0
LINE
  5
437F2
330
1F
100
AcDbEntity
  8
AM_2
370
    13
100
AcDbLine
 10
6086.424675701049
 20
-5084.438871977027
 30
0.0
 11
6173.424675701049
 21
-5084.438871977027
 31
0.0
  0
LINE
  5
437F3
330
1F
100
AcDbEntity
  8
AM_2
370
    13
100
AcDbLine
 10
6086.424675701049
 20
-5092.438871977027
 30
0.0
 11
6173.424675701049
 21
-5092.438871977027
 31
0.0
  0
LINE
  5
437F4
330
1F
100
AcDbEntity
  8
AM_2
370
    13
100
AcDbLine
 10
6086.424675701049
 20
-5100.438871977027
 30
0.0
 11
6173.424675701049
 21
-5100.438871977027
 31
0.0
  0
LINE
  5
437F5
330
1F
100
AcDbEntity
  8
AM_1
100
AcDbLine
 10
6086.424675701049
 20
-5108.438871977027
 30
0.0
 11
6173.424675701049
 21
-5108.438871977027
 31
0.0
  0
LINE
  5
437F6
330
1F
100
AcDbEntity
  8
AM_1
100
AcDbLine
 10
6086.424675701049
 20
-5076.438871977027
 30
0.0
 11
6086.42467570105
 21
-5108.438871977027
 31
0.0
  0
LINE
  5
437F7
330
1F
100
AcDbEntity
  8
AM_1
100
AcDbLine
 10
6086.424675701049
 20
-5076.438871977027
 30
0.0
 11
6173.424675701049
 21
-5076.438871977027
 31
0.0
  0
LINE
  5
437F8
330
1F
100
AcDbEntity
  8
AM_1
100
AcDbLine
 10
6173.424675701049
 20
-5076.438871977027
 30
0.0
 11
6173.424675701049
 21
-5108.438871977027
 31
0.0
  0
TEXT
  5
437F9
330
1F
100
AcDbEntity
  8
AM_6
100
AcDbText
 10
6092.08167570105
 20
-5082.038871977027
 30
0.0
 40
3.2
  1
品　名
 41
0.85537027
100
AcDbText
  0
TEXT
  5
437FA
330
1F
100
AcDbEntity
  8
AM_6
100
AcDbText
 10
6092.08167570105
 20
-5090.038871977027
 30
0.0
 40
3.2
  1
品　番
 41
0.85537027
100
AcDbText
  0
TEXT
  5
437FB
330
1F
100
AcDbEntity
  8
AM_6
100
AcDbText
 10
6092.08167570105
 20
-5098.038871977028
 30
0.0
 40
3.2
  1
材　質
 41
0.85537027
100
AcDbText
  0
TEXT
  5
437FC
330
1F
100
AcDbEntity
  8
AM_6
100
AcDbText
 10
6092.08167570105
 20
-5106.038871977027
 30
0.0
 40
3.2
  1
仕上げ
 41
0.85537027
100
AcDbText
  0
TEXT
  5
437FD
330
1F
100
AcDbEntity
  8
AM_6
100
AcDbText
 10
6109.281675701049
 20
-5082.038871977027
 30
0.0
 40
3.2
  1
鍵穴付首長パチン錠
 41
0.84306961
100
AcDbText
  0
TEXT
  5
437FE
330
1F
100
AcDbEntity
  8
AM_6
100
AcDbText
 10
6109.281675701049
 20
-5090.038871977027
 30
0.0
 40
3.2
  1
ELP-A120S
 41
0.84741102
100
AcDbText
  0
TEXT
  5
437FF
330
1F
100
AcDbEntity
  8
AM_6
100
AcDbText
 10
6109.281675701049
 20
-5098.038871977028
 30
0.0
 40
3.2
  1
ステンレス
 41
0.84634979
100
AcDbText
  0
TEXT
  5
43800
330
1F
100
AcDbEntity
  8
AM_6
100
AcDbText
 10
6109.281675701049
 20
-5106.038871977027
 30
0.0
 40
3.2
  1
光沢バレル研磨
 41
0.84350122
100
AcDbText
  0
LINE
  5
4D72E
330
1F
100
AcDbEntity
  8
0部品4
100
AcDbLine
 10
6189.120263039187
 20
-5144.235771555348
 30
0.0
 11
6210.485786039187
 21
-5144.235771555348
 31
0.0
  0
LINE
  5
4D72F
330
1F
100
AcDbEntity
  8
0部品4
100
AcDbLine
 10
6189.120263039187
 20
-5148.235771555349
 30
0.0
 11
6210.485786039187
 21
-5148.235771555349
 31
0.0
  0
LINE
  5
4D79C
330
1F
100
AcDbEntity
  8
0部品1
100
AcDbLine
 10
6281.809165039187
 20
-5153.735771555348
 30
0.0
 11
6281.809165039187
 21
-5170.735771555349
 31
0.0
  0
LINE
  5
4D79D
330
1F
100
AcDbEntity
  8
0部品1
100
AcDbLine
 10
6266.436835039186
 20
-5239.842020258601
 30
0.0
 11
6266.425091039188
 21
-5239.865068258602
 31
0.0
  0
LINE
  5
4D79E
330
1F
100
AcDbEntity
  8
0部品10
100
AcDbLine
 10
6231.070411039187
 20
-5155.932107555348
 30
0.0
 11
6235.251606039187
 21
-5156.541865555348
 31
0.0
  0
ARC
  5
4D79F
330
1F
100
AcDbEntity
  8
0部品1
100
AcDbCircle
 10
6277.809165039187
 20
-5170.735771555349
 30
0.0
 40
4.0
100
AcDbArc
 50
270.0
 51
0.0
  0
ARC
  5
4D7A1
330
1F
100
AcDbEntity
  8
0部品10
100
AcDbCircle
 10
6231.120918039187
 20
-5168.885771555348
 30
0.0
 40
0.35
100
AcDbArc
 50
90.0
 51
261.7028550301943
  0
LINE
  5
4D7A2
330
1F
100
AcDbEntity
  8
0部品1
100
AcDbLine
 10
6226.520918039188
 20
-5149.735771555349
 30
0.0
 11
6278.898443039188
 21
-5149.735771555349
 31
0.0
  0
ARC
  5
4D7A4
330
1F
100
AcDbEntity
  8
0部品4
100
AcDbCircle
 10
6237.520918039187
 20
-5174.735771555348
 30
0.0
 40
5.5
100
AcDbArc
 50
270.0
 51
0.0
  0
LINE
  5
4D7A5
330
1F
100
AcDbEntity
  8
0部品10
100
AcDbLine
 10
6231.070411039187
 20
-5168.532107555348
 30
0.0
 11
6235.251606039187
 21
-5169.141865555348
 31
0.0
  0
ARC
  5
4D7A9
330
1F
100
AcDbEntity
  8
0部品4
100
AcDbCircle
 10
6189.120263039187
 20
-5149.735771555349
 30
0.0
 40
5.5
100
AcDbArc
 50
90.0
 51
180.0
  0
LINE
  5
4D7AC
330
1F
100
AcDbEntity
  8
0部品4
100
AcDbLine
 10
6242.240276607915
 20
-5233.371790857018
 30
0.0
 11
6226.029121039187
 21
-5220.902695258601
 31
0.0
  0
ARC
  5
4D7B0
330
1F
100
AcDbEntity
  8
0部品1
100
AcDbCircle
 10
6262.654822039187
 20
-5162.235771555348
 30
0.0
 40
2.0
100
AcDbArc
 50
270.0
 51
90.0
  0
LINE
  5
4D7B1
330
1F
100
AcDbEntity
  8
0部品1
100
AcDbLine
 10
6226.520918039188
 20
-5174.735771555348
 30
0.0
 11
6278.898443039188
 21
-5174.735771555348
 31
0.0
  0
LINE
  5
4D7B8
330
1F
100
AcDbEntity
  8
0部品6
100
AcDbLine
 10
6184.800957039187
 20
-5150.235771555347
 30
0.0
 11
6189.620263039188
 21
-5150.235771555347
 31
0.0
  0
ARC
  5
4D7BA
330
1F
100
AcDbEntity
  8
0部品10
100
AcDbCircle
 10
6231.120918039187
 20
-5162.585771555349
 30
0.0
 40
0.35
100
AcDbArc
 50
90.0
 51
261.7028550301943
  0
ARC
  5
4D7BB
330
1F
100
AcDbEntity
  8
0部品1
100
AcDbCircle
 10
6278.898443039188
 20
-5170.735771555349
 30
0.0
 40
4.0
100
AcDbArc
 50
270.0
 51
0.0
  0
LINE
  5
4D7BC
330
1F
100
AcDbEntity
  8
0部品6
100
AcDbLine
 10
6183.620263039188
 20
-5174.235771555348
 30
0.0
 11
6183.620263039188
 21
-5173.850070555348
 31
0.0
  0
CIRCLE
  5
4D7BD
330
1F
100
AcDbEntity
  8
0部品6
100
AcDbCircle
 10
6171.428027039187
 20
-5174.235771555348
 30
0.0
 40
4.299999999999999
  0
ARC
  5
4D7BE
330
1F
100
AcDbEntity
  8
0部品6
100
AcDbCircle
 10
6184.800957039187
 20
-5152.235771555348
 30
0.0
 40
2.0
100
AcDbArc
 50
90.0
 51
180.0
  0
LINE
  5
4D7BF
330
1F
100
AcDbEntity
  8
0部品6
100
AcDbLine
 10
6182.800957039187
 20
-5172.235771555348
 30
0.0
 11
6182.800957039187
 21
-5152.235771555348
 31
0.0
  0
LINE
  5
4D7C0
330
1F
100
AcDbEntity
  8
0部品1
100
AcDbLine
 10
6274.183181039187
 20
-5237.8967682586
 30
0.0
 11
6281.809165039187
 21
-5232.944396258601
 31
0.0
  0
CIRCLE
  5
4D7C1
330
1F
100
AcDbEntity
  8
0部品2
100
AcDbCircle
 10
6253.020918039188
 20
-5223.9570872586
 30
0.0
 40
4.5
  0
LINE
  5
4D7C2
330
1F
100
AcDbEntity
  8
0部品2
100
AcDbLine
 10
6229.020918039188
 20
-5240.957087258601
 30
0.0
 11
6270.520918039188
 21
-5240.957087258601
 31
0.0
  0
LINE
  5
4D7C3
330
1F
100
AcDbEntity
  8
0部品1
100
AcDbLine
 10
6236.159587039187
 20
-5222.170339258601
 30
0.0
 11
6267.692089039187
 21
-5238.236951258601
 31
0.0
  0
ARC
  5
4D7C4
330
1F
100
AcDbEntity
  8
0部品3
100
AcDbCircle
 10
6231.770918039188
 20
-5149.735771555349
 30
0.0
 40
0.8
100
AcDbArc
 50
90.0
 51
180.0
  0
LINE
  5
4D7C5
330
1F
100
AcDbEntity
  8
0部品2
100
AcDbLine
 10
6229.020918039188
 20
-5169.985771555348
 30
0.0
 11
6235.251606039187
 21
-5169.985771555348
 31
0.0
  0
LINE
  5
4D7C6
330
1F
100
AcDbEntity
  8
0部品4
100
AcDbLine
 10
6237.520918039187
 20
-5144.235771555348
 30
0.0
 11
6189.120263039187
 21
-5144.235771555348
 31
0.0
  0
LINE
  5
4D7C7
330
1F
100
AcDbEntity
  8
0部品10
100
AcDbLine
 10
6231.070411039187
 20
-5158.732107555348
 30
0.0
 11
6235.251606039187
 21
-5159.341865555347
 31
0.0
  0
ARC
  5
4D7C8
330
1F
100
AcDbEntity
  8
0部品4
100
AcDbCircle
 10
6237.520918039187
 20
-5149.735771555349
 30
0.0
 40
5.5
100
AcDbArc
 50
0.0
 51
90.0
  0
LINE
  5
4D7C9
330
1F
100
AcDbEntity
  8
0部品10
100
AcDbLine
 10
6231.120918039187
 20
-5155.235771555348
 30
0.0
 11
6235.251606039187
 21
-5155.235771555348
 31
0.0
  0
LINE
  5
4D7CA
330
1F
100
AcDbEntity
  8
0部品6
100
AcDbLine
 10
6163.620263039187
 20
-5174.235771555348
 30
0.0
 11
6163.620263039187
 21
-5150.235771555347
 31
0.0
  0
ARC
  5
4D7CE
330
1F
100
AcDbEntity
  8
0部品10
100
AcDbCircle
 10
6231.120918039187
 20
-5168.185771555347
 30
0.0
 40
0.35
100
AcDbArc
 50
90.0
 51
261.7028550301943
  0
LINE
  5
4D7CF
330
1F
100
AcDbEntity
  8
0部品2
100
AcDbLine
 10
6246.020918039188
 20
-5161.235771555348
 30
0.0
 11
6246.020918039188
 21
-5163.235771555348
 31
0.0
  0
LINE
  5
4D7D0
330
1F
100
AcDbEntity
  8
0部品6
100
AcDbLine
 10
6183.929280039187
 20
-5232.927908258601
 30
0.0
 11
6182.800957039187
 21
-5234.579237258601
 31
0.0
  0
ARC
  5
4D7D2
330
1F
100
AcDbEntity
  8
0部品6
100
AcDbCircle
 10
6171.620263039187
 20
-5150.235771555347
 30
0.0
 40
8.0
100
AcDbArc
 50
0.0
 51
180.0
  0
ARC
  5
4D7D4
330
1F
100
AcDbEntity
  8
0部品6
100
AcDbCircle
 10
6185.620263039186
 20
-5238.927908258601
 30
0.0
 40
4.0
100
AcDbArc
 50
270.0
 51
357.4336912021698
  0
LINE
  5
4D7D6
330
1F
100
AcDbEntity
  8
0部品10
100
AcDbLine
 10
6231.070411039187
 20
-5155.932107555348
 30
0.0
 11
6235.251606039187
 21
-5156.541865555348
 31
0.0
  0
ARC
  5
4D7D9
330
1F
100
AcDbEntity
  8
0部品2
100
AcDbCircle
 10
6253.020918039188
 20
-5223.9570872586
 30
0.0
 40
7.0
100
AcDbArc
 50
304.8499045789728
 51
213.0114965185125
  0
ARC
  5
4D7DA
330
1F
100
AcDbEntity
  8
0部品10
100
AcDbCircle
 10
6231.120918039187
 20
-5156.285771555348
 30
0.0
 40
0.35
100
AcDbArc
 50
90.0
 51
261.7028550301943
  0
ARC
  5
4D7DB
330
1F
100
AcDbEntity
  8
0部品10
100
AcDbCircle
 10
6231.120918039187
 20
-5155.585771555348
 30
0.0
 40
0.35
100
AcDbArc
 50
93.44708875637921
 51
261.7028550301943
  0
LINE
  5
4D7DC
330
1F
100
AcDbEntity
  8
0部品6
100
AcDbLine
 10
6183.929280039187
 20
-5172.235771555348
 30
0.0
 11
6183.929280039187
 21
-5152.235771555348
 31
0.0
  0
LINE
  5
4D7DD
330
1F
100
AcDbEntity
  8
0部品1
100
AcDbLine
 10
6236.159587039187
 20
-5151.735771555348
 30
0.0
 11
6236.159587039187
 21
-5172.735771555348
 31
0.0
  0
ARC
  5
4D7DE
330
1F
100
AcDbEntity
  8
0部品6
100
AcDbCircle
 10
6185.929280039187
 20
-5172.235771555348
 30
0.0
 40
2.0
100
AcDbArc
 50
180.0
 51
270.0
  0
ARC
  5
4D7DF
330
1F
100
AcDbEntity
  8
0部品10
100
AcDbCircle
 10
6231.120918039187
 20
-5156.985771555348
 30
0.0
 40
0.35
100
AcDbArc
 50
90.0
 51
261.7028550301943
  0
ARC
  5
4D7E0
330
1F
100
AcDbEntity
  8
0部品10
100
AcDbCircle
 10
6231.120918039187
 20
-5159.085771555348
 30
0.0
 40
0.35
100
AcDbArc
 50
90.0
 51
261.7028550301943
  0
LINE
  5
4D7E1
330
1F
100
AcDbEntity
  8
0部品2
100
AcDbLine
 10
6260.020918039188
 20
-5161.235771555348
 30
0.0
 11
6260.020918039188
 21
-5163.235771555348
 31
0.0
  0
ARC
  5
4D7E3
330
1F
100
AcDbEntity
  8
0部品10
100
AcDbCircle
 10
6231.120918039187
 20
-5161.885771555349
 30
0.0
 40
0.35
100
AcDbArc
 50
90.0
 51
261.7028550301943
  0
LINE
  5
4D7E4
330
1F
100
AcDbEntity
  8
0部品2
100
AcDbLine
 10
6229.020918039188
 20
-5242.957087258601
 30
0.0
 11
6270.520918039188
 21
-5242.957087258601
 31
0.0
  0
LINE
  5
4D7E5
330
1F
100
AcDbEntity
  8
0部品10
100
AcDbLine
 10
6231.070411039187
 20
-5162.932107555349
 30
0.0
 11
6235.251606039187
 21
-5163.541865555348
 31
0.0
  0
ARC
  5
4D7E7
330
1F
100
AcDbEntity
  8
0部品1
100
AcDbCircle
 10
6270.643028039187
 20
-5232.445409258601
 30
0.0
 40
6.5
100
AcDbArc
 50
243.0000000000128
 51
303.0000000000247
  0
ARC
  5
4D7E9
330
1F
100
AcDbEntity
  8
0部品6
100
AcDbCircle
 10
6184.800957039187
 20
-5172.235771555348
 30
0.0
 40
2.0
100
AcDbArc
 50
180.0
 51
270.0
  0
LINE
  5
4D7ED
330
1F
100
AcDbEntity
  8
0部品10
100
AcDbLine
 10
6231.070411039187
 20
-5165.732107555348
 30
0.0
 11
6235.251606039187
 21
-5166.341865555348
 31
0.0
  0
LINE
  5
4D7F1
330
1F
100
AcDbEntity
  8
0部品1
100
AcDbLine
 10
6233.719187039187
 20
-5172.735771555348
 30
0.0
 11
6233.719187039187
 21
-5174.735771555348
 31
0.0
  0
LINE
  5
4D7F2
330
1F
100
AcDbEntity
  8
0部品2
100
AcDbLine
 10
6270.520918039188
 20
-5240.957087258601
 30
0.0
 11
6270.520918039188
 21
-5242.957087258601
 31
0.0
  0
ARC
  5
4D7F4
330
1F
100
AcDbEntity
  8
0部品4
100
AcDbCircle
 10
6237.520918039187
 20
-5174.735771555348
 30
0.0
 40
1.5
100
AcDbArc
 50
270.0
 51
0.0
  0
LINE
  5
4D7F5
330
1F
100
AcDbEntity
  8
0部品2
100
AcDbLine
 10
6229.020918039188
 20
-5242.957087258601
 30
0.0
 11
6229.020918039188
 21
-5242.759535258602
 31
0.0
  0
LINE
  5
4D7F6
330
1F
100
AcDbEntity
  8
0部品1
100
AcDbLine
 10
6233.719187039187
 20
-5149.735771555349
 30
0.0
 11
6233.719187039187
 21
-5151.735771555348
 31
0.0
  0
LINE
  5
4D7F7
330
1F
100
AcDbEntity
  8
0部品2
100
AcDbLine
 10
6257.020918039188
 20
-5229.701650258601
 30
0.0
 11
6257.020918039188
 21
-5232.799718258601
 31
0.0
  0
LINE
  5
4D7F8
330
1F
100
AcDbEntity
  8
0部品1
100
AcDbLine
 10
6282.898443039187
 20
-5153.735771555348
 30
0.0
 11
6282.898443039187
 21
-5170.735771555349
 31
0.0
  0
LINE
  5
4D7F9
330
1F
100
AcDbEntity
  8
0部品4
100
AcDbLine
 10
6237.520918039187
 20
-5148.235771555349
 30
0.0
 11
6189.120263039187
 21
-5148.235771555349
 31
0.0
  0
LINE
  5
4D7FA
330
1F
100
AcDbEntity
  8
0部品10
100
AcDbLine
 10
6231.120918039187
 20
-5169.235771555348
 30
0.0
 11
6235.251606039187
 21
-5169.235771555348
 31
0.0
  0
ARC
  5
4D7FB
330
1F
100
AcDbEntity
  8
0部品4
100
AcDbCircle
 10
6189.120263039187
 20
-5174.735771555348
 30
0.0
 40
1.5
100
AcDbArc
 50
180.0
 51
270.0
  0
LINE
  5
4D7FC
330
1F
100
AcDbEntity
  8
0部品1
100
AcDbLine
 10
6233.520918039188
 20
-5240.957087258601
 30
0.0
 11
6264.643078039187
 21
-5240.957087258601
 31
0.0
  0
ARC
  5
4D7FD
330
1F
100
AcDbEntity
  8
0部品10
100
AcDbCircle
 10
6231.120918039187
 20
-5163.985771555348
 30
0.0
 40
0.35
100
AcDbArc
 50
90.0
 51
261.7028550301943
  0
LINE
  5
4D7FE
330
1F
100
AcDbEntity
  8
0部品10
100
AcDbLine
 10
6231.070411039187
 20
-5165.032107555348
 30
0.0
 11
6235.251606039187
 21
-5165.641865555348
 31
0.0
  0
ARC
  5
4D7FF
330
1F
100
AcDbEntity
  8
0部品10
100
AcDbCircle
 10
6231.120918039187
 20
-5166.785771555348
 30
0.0
 40
0.35
100
AcDbArc
 50
90.0
 51
261.7028550301943
  0
LINE
  5
4D800
330
1F
100
AcDbEntity
  8
0部品1
100
AcDbLine
 10
6235.251606039187
 20
-5151.735771555348
 30
0.0
 11
6235.251606039187
 21
-5172.735771555348
 31
0.0
  0
CIRCLE
  5
4D802
330
1F
100
AcDbEntity
  8
0部品6
100
AcDbCircle
 10
6171.428027039187
 20
-5174.235771555348
 30
0.0
 40
2.6
  0
LINE
  5
4D803
330
1F
100
AcDbEntity
  8
0部品2
100
AcDbLine
 10
6246.020918039188
 20
-5161.235771555348
 30
0.0
 11
6260.020918039188
 21
-5161.235771555348
 31
0.0
  0
LINE
  5
4D805
330
1F
100
AcDbEntity
  8
0部品2
100
AcDbLine
 10
6229.020918039188
 20
-5242.759535258602
 30
0.0
 11
6229.020918039188
 21
-5240.957087258601
 31
0.0
  0
ARC
  5
4D806
330
1F
100
AcDbEntity
  8
0部品10
100
AcDbCircle
 10
6231.120918039187
 20
-5166.085771555348
 30
0.0
 40
0.35
100
AcDbArc
 50
90.0
 51
261.7028550301943
  0
LINE
  5
4D808
330
1F
100
AcDbEntity
  8
0部品10
100
AcDbLine
 10
6231.070411039187
 20
-5157.332107555348
 30
0.0
 11
6235.251606039187
 21
-5157.941865555348
 31
0.0
  0
LINE
  5
4D809
330
1F
100
AcDbEntity
  8
0部品6
  6
中心線1
 48
0.5
370
    13
100
AcDbLine
 10
6177.928027039187
 20
-5174.235771555348
 30
0.0
 11
6164.928027039188
 21
-5174.235771555348
 31
0.0
  0
LINE
  5
4D80A
330
1F
100
AcDbEntity
  8
0部品3
100
AcDbLine
 10
6231.520918039187
 20
-5169.985771555348
 30
0.0
 11
6231.520918039187
 21
-5169.235771555348
 31
0.0
  0
LINE
  5
4D80B
330
1F
100
AcDbEntity
  8
0部品4
100
AcDbLine
 10
6187.620263039187
 20
-5174.235771555348
 30
0.0
 11
6187.620263039187
 21
-5174.735771555348
 31
0.0
  0
ARC
  5
4D80C
330
1F
100
AcDbEntity
  8
0部品4
100
AcDbCircle
 10
6221.151686039188
 20
-5227.243881258601
 30
0.0
 40
4.0
100
AcDbArc
 50
52.43368348110335
 51
117.4336834810897
  0
LINE
  5
4D80D
330
1F
100
AcDbEntity
  8
0部品6
100
AcDbLine
 10
6163.620263039187
 20
-5240.927908258601
 30
0.0
 11
6163.620263039187
 21
-5242.9279082586
 31
0.0
  0
LINE
  5
4D80F
330
1F
100
AcDbEntity
  8
0部品1
100
AcDbLine
 10
6281.809165039187
 20
-5232.944396258601
 30
0.0
 11
6282.898443039187
 21
-5234.621737258601
 31
0.0
  0
LINE
  5
4D810
330
1F
100
AcDbEntity
  8
0部品1
100
AcDbLine
 10
6236.159587039187
 20
-5151.735771555348
 30
0.0
 11
6226.520918039188
 21
-5151.735771555348
 31
0.0
  0
ARC
  5
4D811
330
1F
100
AcDbEntity
  8
0部品10
100
AcDbCircle
 10
6231.120918039187
 20
-5158.385771555348
 30
0.0
 40
0.35
100
AcDbArc
 50
90.0
 51
261.7028550301943
  0
ARC
  5
4D812
330
1F
100
AcDbEntity
  8
0部品1
100
AcDbCircle
 10
6270.643028039187
 20
-5232.445409258601
 30
0.0
 40
8.5
100
AcDbArc
 50
243.0000000000128
 51
303.0000000000247
  0
LINE
  5
4D813
330
1F
100
AcDbEntity
  8
0部品4
100
AcDbLine
 10
6187.620263039187
 20
-5149.735771555349
 30
0.0
 11
6187.620263039187
 21
-5150.235771555347
 31
0.0
  0
LINE
  5
4D815
330
1F
100
AcDbEntity
  8
0部品10
100
AcDbLine
 10
6231.070411039187
 20
-5166.432107555348
 30
0.0
 11
6235.251606039187
 21
-5167.041865555348
 31
0.0
  0
LINE
  5
4D817
330
1F
100
AcDbEntity
  8
0部品10
100
AcDbLine
 10
6231.070411039187
 20
-5160.132107555348
 30
0.0
 11
6235.251606039187
 21
-5160.741865555348
 31
0.0
  0
LINE
  5
4D818
330
1F
100
AcDbEntity
  8
0部品4
100
AcDbLine
 10
6239.801559490214
 20
-5236.542383675377
 30
0.0
 11
6223.590404039187
 21
-5224.073288258601
 31
0.0
  0
LINE
  5
4D81A
330
1F
100
AcDbEntity
  8
0部品10
100
AcDbLine
 10
6231.070411039187
 20
-5161.532107555348
 30
0.0
 11
6235.251606039187
 21
-5162.141865555348
 31
0.0
  0
LINE
  5
4D81B
330
1F
100
AcDbEntity
  8
0部品1
100
AcDbLine
 10
6246.178646039187
 20
-5160.235771555348
 30
0.0
 11
6263.562803039187
 21
-5160.235771555348
 31
0.0
  0
LINE
  5
4D81D
330
1F
100
AcDbEntity
  8
0部品4
100
AcDbLine
 10
6183.620263039188
 20
-5149.735771555349
 30
0.0
 11
6183.620263039188
 21
-5150.621472426201
 31
0.0
  0
LINE
  5
4D81F
330
1F
100
AcDbEntity
  8
0部品3
100
AcDbLine
 10
6231.520918039187
 20
-5152.485771555348
 30
0.0
 11
6231.520918039187
 21
-5151.735771555348
 31
0.0
  0
LINE
  5
4D820
330
1F
100
AcDbEntity
  8
0部品10
100
AcDbLine
 10
6231.070411039187
 20
-5163.632107555348
 30
0.0
 11
6235.251606039187
 21
-5164.241865555348
 31
0.0
  0
LINE
  5
4D821
330
1F
100
AcDbEntity
  8
0部品1
100
AcDbLine
 10
6233.771259039187
 20
-5226.8576972586
 30
0.0
 11
6236.159587039187
 21
-5222.170339258601
 31
0.0
  0
ARC
  5
4D822
330
1F
100
AcDbEntity
  8
0部品10
100
AcDbCircle
 10
6231.120918039187
 20
-5167.485771555348
 30
0.0
 40
0.35
100
AcDbArc
 50
90.0
 51
261.7028550301943
  0
LINE
  5
4D824
330
1F
100
AcDbEntity
  8
0部品1
100
AcDbLine
 10
6236.159587039187
 20
-5172.735771555348
 30
0.0
 11
6226.520918039188
 21
-5172.735771555348
 31
0.0
  0
LINE
  5
4D825
330
1F
100
AcDbEntity
  8
0部品1
100
AcDbLine
 10
6267.344816039187
 20
-5238.060007258601
 30
0.0
 11
6266.436835039186
 21
-5239.842020258601
 31
0.0
  0
CIRCLE
  5
4D829
330
1F
100
AcDbEntity
  8
0部品6
100
AcDbCircle
 10
6171.428027039187
 20
-5150.235771555347
 30
0.0
 40
2.6
  0
LINE
  5
4D82A
330
1F
100
AcDbEntity
  8
0部品10
100
AcDbLine
 10
6231.070411039187
 20
-5156.632107555348
 30
0.0
 11
6235.251606039187
 21
-5157.241865555349
 31
0.0
  0
LINE
  5
4D82B
330
1F
100
AcDbEntity
  8
0部品1
  6
細線
370
    13
100
AcDbLine
 10
6270.643028039187
 20
-5151.735771555348
 30
0.0
 11
6270.643028039187
 21
-5172.735771555348
 31
0.0
  0
LINE
  5
4D82C
330
1F
100
AcDbEntity
  8
0部品1
100
AcDbLine
 10
6275.272459039187
 20
-5239.574109258601
 30
0.0
 11
6282.898443039187
 21
-5234.621737258601
 31
0.0
  0
LINE
  5
4D82D
330
1F
100
AcDbEntity
  8
0部品6
100
AcDbLine
 10
6179.213154039188
 20
-5242.957087258601
 30
0.0
 11
6179.213154039188
 21
-5240.957087258601
 31
0.0
  0
ARC
  5
4D82F
330
1F
100
AcDbEntity
  8
0部品10
100
AcDbCircle
 10
6231.120918039187
 20
-5160.485771555348
 30
0.0
 40
0.35
100
AcDbArc
 50
90.0
 51
261.7028550301943
  0
LINE
  5
4D831
330
1F
100
AcDbEntity
  8
0部品10
100
AcDbLine
 10
6231.070411039187
 20
-5167.832107555348
 30
0.0
 11
6235.251606039187
 21
-5168.441865555348
 31
0.0
  0
LINE
  5
4D832
330
1F
100
AcDbEntity
  8
0部品2
100
AcDbLine
 10
6260.020918039188
 20
-5163.235771555348
 30
0.0
 11
6246.020918039188
 21
-5163.235771555348
 31
0.0
  0
LINE
  5
4D833
330
1F
100
AcDbEntity
  8
0部品10
100
AcDbLine
 10
6231.099874039188
 20
-5155.236404555349
 30
0.0
 11
6235.251606039187
 21
-5155.841865555348
 31
0.0
  0
ARC
  5
4D834
330
1F
100
AcDbEntity
  8
0部品4
100
AcDbCircle
 10
6189.120263039187
 20
-5149.735771555349
 30
0.0
 40
1.5
100
AcDbArc
 50
90.0
 51
180.0
  0
ARC
  5
4D835
330
1F
100
AcDbEntity
  8
0部品10
100
AcDbCircle
 10
6231.120918039187
 20
-5164.685771555348
 30
0.0
 40
0.35
100
AcDbArc
 50
90.0
 51
261.7028550301943
  0
LINE
  5
4D836
330
1F
100
AcDbEntity
  8
0部品4
100
AcDbLine
 10
6186.541706039188
 20
-5240.702997258601
 30
0.0
 11
6219.308800039187
 21
-5223.6937022586
 31
0.0
  0
LINE
  5
4D837
330
1F
100
AcDbEntity
  8
0部品10
100
AcDbLine
 10
6231.070411039187
 20
-5159.432107555348
 30
0.0
 11
6235.251606039187
 21
-5160.041865555348
 31
0.0
  0
ARC
  5
4D839
330
1F
100
AcDbEntity
  8
0部品3
100
AcDbCircle
 10
6233.520918039188
 20
-5172.927735555348
 30
0.0
 40
3.208035999999999
100
AcDbArc
 50
214.3048434803818
 51
325.6951565196183
  0
LINE
  5
4D83B
330
1F
100
AcDbEntity
  8
0部品6
100
AcDbLine
 10
6185.760721224788
 20
-5236.601588722773
 30
0.0
 11
6182.800957039187
 21
-5234.579237258601
 31
0.0
  0
LINE
  5
4D83C
330
1F
100
AcDbEntity
  8
0部品6
100
AcDbLine
 10
6189.620263039188
 20
-5174.235771555348
 30
0.0
 11
6189.620263039188
 21
-5150.235771555347
 31
0.0
  0
LINE
  5
4D83D
330
1F
100
AcDbEntity
  8
0部品1
100
AcDbLine
 10
6226.520918039188
 20
-5149.735771555349
 30
0.0
 11
6226.520918039188
 21
-5151.735771555348
 31
0.0
  0
LINE
  5
4D83E
330
1F
100
AcDbEntity
  8
0部品4
100
AcDbLine
 10
6237.520918039187
 20
-5180.235771555349
 30
0.0
 11
6189.120263039187
 21
-5180.235771555349
 31
0.0
  0
ARC
  5
4D840
330
1F
100
AcDbEntity
  8
0部品4
100
AcDbCircle
 10
6189.120263039187
 20
-5174.735771555348
 30
0.0
 40
5.5
100
AcDbArc
 50
180.0
 51
270.0
  0
ARC
  5
4D841
330
1F
100
AcDbEntity
  8
0部品10
100
AcDbCircle
 10
6231.120918039187
 20
-5165.385771555349
 30
0.0
 40
0.35
100
AcDbArc
 50
90.0
 51
261.7028550301943
  0
LINE
  5
4D843
330
1F
100
AcDbEntity
  8
0部品6
100
AcDbLine
 10
6185.620263039186
 20
-5242.9279082586
 30
0.0
 11
6163.620263039187
 21
-5242.9279082586
 31
0.0
  0
LINE
  5
4D844
330
1F
100
AcDbEntity
  8
0部品10
100
AcDbLine
 10
6231.070411039187
 20
-5167.132107555348
 30
0.0
 11
6235.251606039187
 21
-5167.741865555348
 31
0.0
  0
ARC
  5
4D845
330
1F
100
AcDbEntity
  8
0部品3
100
AcDbCircle
 10
6233.520918039188
 20
-5233.957087258601
 30
0.0
 40
2.649999999999999
100
AcDbArc
 50
100.2369859533886
 51
0.0
  0
ARC
  5
4D847
330
1F
100
AcDbEntity
  8
0部品1
100
AcDbCircle
 10
6278.898443039188
 20
-5153.735771555348
 30
0.0
 40
4.0
100
AcDbArc
 50
0.0
 51
90.0
  0
LINE
  5
4D848
330
1F
100
AcDbEntity
  8
0部品2
100
AcDbLine
 10
6229.020918039188
 20
-5171.985771555348
 30
0.0
 11
6235.251606039187
 21
-5171.985771555348
 31
0.0
  0
LINE
  5
4D849
330
1F
100
AcDbEntity
  8
0部品1
100
AcDbLine
 10
6266.436835212569
 20
-5239.842019918332
 30
0.0
 11
6266.784108039187
 21
-5240.018964258601
 31
0.0
  0
ARC
  5
4D84A
330
1F
100
AcDbEntity
  8
0部品1
100
AcDbCircle
 10
6277.809165039187
 20
-5153.735771555348
 30
0.0
 40
4.0
100
AcDbArc
 50
0.0
 51
90.0
  0
LINE
  5
4D84B
330
1F
100
AcDbEntity
  8
0部品6
  6
中心線1
 48
0.5
370
    13
100
AcDbLine
 10
6177.928027039187
 20
-5150.235771555347
 30
0.0
 11
6164.928027039188
 21
-5150.235771555347
 31
0.0
  0
ARC
  5
4D84C
330
1F
100
AcDbEntity
  8
0部品4
100
AcDbCircle
 10
6185.620263039186
 20
-5238.927908258601
 30
0.0
 40
2.0
100
AcDbArc
 50
117.4336834810897
 51
297.4336834810897
  0
ARC
  5
4D84D
330
1F
100
AcDbEntity
  8
0部品6
100
AcDbCircle
 10
6185.929280039187
 20
-5152.235771555348
 30
0.0
 40
2.0
100
AcDbArc
 50
90.0
 51
180.0
  0
LINE
  5
4D84F
330
1F
100
AcDbEntity
  8
0部品6
  6
中心線1
 48
0.5
370
    13
100
AcDbLine
 10
6171.428027039187
 20
-5185.234091668906
 30
0.0
 11
6171.428027039187
 21
-5139.23745144179
 31
0.0
  0
ARC
  5
4D850
330
1F
100
AcDbEntity
  8
0部品1
100
AcDbCircle
 10
6246.178646039187
 20
-5162.235771555348
 30
0.0
 40
2.0
100
AcDbArc
 50
90.0
 51
270.0
  0
LINE
  5
4D851
330
1F
100
AcDbEntity
  8
0部品3
100
AcDbLine
 10
6231.770918039188
 20
-5148.935771555348
 30
0.0
 11
6235.270918039187
 21
-5148.935771555348
 31
0.0
  0
LINE
  5
4D852
330
1F
100
AcDbEntity
  8
0部品2
100
AcDbLine
 10
6241.020918039187
 20
-5240.957087258601
 30
0.0
 11
6241.020918039187
 21
-5242.957087258601
 31
0.0
  0
LINE
  5
4D853
330
1F
100
AcDbEntity
  8
0部品6
  6
中心線1
 48
0.5
370
    13
100
AcDbLine
 10
6171.020918039188
 20
-5236.927908258601
 30
0.0
 11
6171.020918039188
 21
-5246.927908258602
 31
0.0
  0
ARC
  5
4D854
330
1F
100
AcDbEntity
  8
0部品10
100
AcDbCircle
 10
6231.120918039187
 20
-5163.285771555348
 30
0.0
 40
0.35
100
AcDbArc
 50
90.0
 51
261.7028550301943
  0
ARC
  5
4D855
330
1F
100
AcDbEntity
  8
0部品10
100
AcDbCircle
 10
6231.120918039187
 20
-5157.685771555348
 30
0.0
 40
0.35
100
AcDbArc
 50
90.0
 51
261.7028550301943
  0
LINE
  5
4D856
330
1F
100
AcDbEntity
  8
0部品4
100
AcDbLine
 10
6183.620263039188
 20
-5174.235771555348
 30
0.0
 11
6183.620263039188
 21
-5174.735771555348
 31
0.0
  0
ARC
  5
4D85B
330
1F
100
AcDbEntity
  8
0部品3
100
AcDbCircle
 10
6233.520918039188
 20
-5233.957087258601
 30
0.0
 40
2.649999999999999
100
AcDbArc
 50
0.0
 51
4.630381008819433
  0
LINE
  5
4D85C
330
1F
100
AcDbEntity
  8
0部品4
100
AcDbLine
 10
6237.520918039187
 20
-5176.235771555348
 30
0.0
 11
6189.120263039187
 21
-5176.235771555348
 31
0.0
  0
LINE
  5
4D85D
330
1F
100
AcDbEntity
  8
0部品6
100
AcDbLine
 10
6185.620263039186
 20
-5240.927908258601
 30
0.0
 11
6163.620263039187
 21
-5240.927908258601
 31
0.0
  0
LINE
  5
4D85E
330
1F
100
AcDbEntity
  8
0部品10
100
AcDbLine
 10
6231.070411039187
 20
-5162.232107555349
 30
0.0
 11
6235.251606039187
 21
-5162.841865555348
 31
0.0
  0
ARC
  5
4D85F
330
1F
100
AcDbEntity
  8
0部品4
100
AcDbCircle
 10
6241.020918039187
 20
-5234.957087258601
 30
0.0
 40
2.0
100
AcDbArc
 50
232.4336839660372
 51
52.43368325208648
  0
LINE
  5
4D860
330
1F
100
AcDbEntity
  8
0部品1
100
AcDbLine
 10
6226.520918039188
 20
-5172.735771555348
 30
0.0
 11
6226.520918039188
 21
-5174.735771555348
 31
0.0
  0
ARC
  5
4D861
330
1F
100
AcDbEntity
  8
LAYER001
  6
Continuous
 62
     3
100
AcDbCircle
 10
6185.620263039186
 20
-5238.927908258601
 30
0.0
 40
2.0
100
AcDbArc
 50
270.0
 51
297.472541624547
  0
LINE
  5
4D862
330
1F
100
AcDbEntity
  8
0部品10
100
AcDbLine
 10
6231.070411039187
 20
-5158.032107555349
 30
0.0
 11
6235.251606039187
 21
-5158.641865555348
 31
0.0
  0
ARC
  5
4D864
330
1F
100
AcDbEntity
  8
0部品4
100
AcDbCircle
 10
6221.151686039188
 20
-5227.243881258601
 30
0.0
 40
8.0
100
AcDbArc
 50
52.43368348110335
 51
117.4336834810897
  0
LINE
  5
4D866
330
1F
100
AcDbEntity
  8
0部品2
100
AcDbLine
 10
6238.020918039188
 20
-5240.957087258601
 30
0.0
 11
6238.020918039188
 21
-5242.957087258601
 31
0.0
  0
LINE
  5
4D867
330
1F
100
AcDbEntity
  8
0部品2
100
AcDbLine
 10
6229.020918039188
 20
-5154.485771555348
 30
0.0
 11
6235.251606039187
 21
-5154.485771555348
 31
0.0
  0
LINE
  5
4D868
330
1F
100
AcDbEntity
  8
0部品10
100
AcDbLine
 10
6231.070411039187
 20
-5164.332107555349
 30
0.0
 11
6235.251606039187
 21
-5164.941865555348
 31
0.0
  0
ARC
  5
4D869
330
1F
100
AcDbEntity
  8
0部品4
100
AcDbCircle
 10
6237.520918039187
 20
-5149.735771555349
 30
0.0
 40
1.5
100
AcDbArc
 50
0.0
 51
90.0
  0
ARC
  5
4D86A
330
1F
100
AcDbEntity
  8
0部品1
100
AcDbCircle
 10
6263.562803039187
 20
-5162.235771555348
 30
0.0
 40
2.0
100
AcDbArc
 50
270.0
 51
90.0
  0
ARC
  5
4D86B
330
1F
100
AcDbEntity
  8
0部品10
100
AcDbCircle
 10
6231.120918039187
 20
-5161.185771555348
 30
0.0
 40
0.35
100
AcDbArc
 50
90.0
 51
261.7028550301943
  0
ARC
  5
4D86C
330
1F
100
AcDbEntity
  8
0部品10
100
AcDbCircle
 10
6231.120918039187
 20
-5159.785771555348
 30
0.0
 40
0.35
100
AcDbArc
 50
90.0
 51
261.7028550301943
  0
ARC
  5
4D86D
330
1F
100
AcDbEntity
  8
0部品3
100
AcDbCircle
 10
6235.270918039187
 20
-5149.735771555349
 30
0.0
 40
0.8
100
AcDbArc
 50
0.0
 51
90.0
  0
ARC
  5
4D86E
330
1F
100
AcDbEntity
  8
0部品1
100
AcDbCircle
 10
6233.520918039188
 20
-5233.957087258601
 30
0.0
 40
7.0
100
AcDbArc
 50
127.7028725655303
 51
270.0
  0
LINE
  5
4D86F
330
1F
100
AcDbEntity
  8
0部品6
100
AcDbLine
 10
6179.620263039187
 20
-5150.235771555347
 30
0.0
 11
6183.620263039188
 21
-5150.235771555347
 31
0.0
  0
LINE
  5
4D870
330
1F
100
AcDbEntity
  8
0部品10
100
AcDbLine
 10
6231.070411039187
 20
-5160.832107555348
 30
0.0
 11
6235.251606039187
 21
-5161.441865555349
 31
0.0
  0
LINE
  5
4D871
330
1F
100
AcDbEntity
  8
0部品2
100
AcDbLine
 10
6229.020918039188
 20
-5152.485771555348
 30
0.0
 11
6235.251606039187
 21
-5152.485771555348
 31
0.0
  0
LINE
  5
4D872
330
1F
100
AcDbEntity
  8
0部品4
100
AcDbLine
 10
6217.465913039188
 20
-5220.143524258602
 30
0.0
 11
6184.698820039187
 21
-5237.152818258601
 31
0.0
  0
LINE
  5
4D873
330
1F
100
AcDbEntity
  8
0部品1
100
AcDbLine
 10
6246.178646039187
 20
-5164.235771555348
 30
0.0
 11
6263.562803039187
 21
-5164.235771555348
 31
0.0
  0
LINE
  5
4D874
330
1F
100
AcDbEntity
  8
0部品6
100
AcDbLine
 10
6183.929280039187
 20
-5232.927908258601
 30
0.0
 11
6187.775304078058
 21
-5235.555825156299
 31
0.0
  0
LINE
  5
4D877
330
1F
100
AcDbEntity
  8
0部品6
  6
中心線1
 48
0.5
370
    13
100
AcDbLine
 10
6160.620263039187
 20
-5162.235771555348
 30
0.0
 11
6285.898443039187
 21
-5162.235771555348
 31
0.0
  0
LINE
  5
4D878
330
1F
100
AcDbEntity
  8
0部品2
100
AcDbLine
 10
6229.020918039188
 20
-5152.485771555348
 30
0.0
 11
6229.020918039188
 21
-5171.985771555348
 31
0.0
  0
LINE
  5
4D879
330
1F
100
AcDbEntity
  8
0部品6
100
AcDbLine
 10
6189.620263039188
 20
-5174.235771555348
 30
0.0
 11
6184.800957039187
 21
-5174.235771555348
 31
0.0
  0
LINE
  5
4D87A
330
1F
100
AcDbEntity
  8
0部品6
100
AcDbLine
 10
6183.620263039188
 20
-5174.235771555348
 30
0.0
 11
6179.620263039187
 21
-5174.235771555348
 31
0.0
  0
CIRCLE
  5
4D87C
330
1F
100
AcDbEntity
  8
0部品6
100
AcDbCircle
 10
6171.428027039187
 20
-5150.235771555347
 30
0.0
 40
4.299999999999999
  0
ARC
  5
4D87D
330
1F
100
AcDbEntity
  8
0部品1
100
AcDbCircle
 10
6264.643078039187
 20
-5238.957087258601
 30
0.0
 40
2.0
100
AcDbArc
 50
270.0
 51
333.0000000000126
  0
LINE
  5
4D87E
330
1F
100
AcDbEntity
  8
0部品3
100
AcDbLine
 10
6231.520918039187
 20
-5155.235771555348
 30
0.0
 11
6231.520918039187
 21
-5154.485771555348
 31
0.0
  0
LINE
  5
4D87F
330
1F
100
AcDbEntity
  8
0部品3
100
AcDbLine
 10
6231.520918039187
 20
-5172.735771555348
 30
0.0
 11
6231.520918039187
 21
-5171.985771555348
 31
0.0
  0
ARC
  5
4D881
330
1F
100
AcDbEntity
  8
0部品6
100
AcDbCircle
 10
6171.620263039187
 20
-5174.235771555348
 30
0.0
 40
8.0
100
AcDbArc
 50
180.0
 51
0.0
  0
LINE
  5
4D8A6
330
1F
100
AcDbEntity
  8
0部品2
  6
中心線1
 48
0.3
370
    13
100
AcDbLine
 10
6264.020918039188
 20
-5245.957087258601
 30
0.0
 11
6264.020918039188
 21
-5237.9570872586
 31
0.0
1001
GENIUS_GENODEF_13
1002
{
1000
HIER
1070
     0
1002
}
1002
{
1000
MANEDIT
1070
     0
1002
}
1002
{
1000
NOSEL
1070
     0
1002
}
1002
{
1000
BEHIND
1070
     0
1002
}
1002
{
1000
OTHER
1070
     0
1002
}
1002
{
1000
REACTOR
1002
}
1001
GENIUS_GENOBJ-N-CEN_13
1002
{
1000
OWNER
1000
GEN
1002
}
1001
GENIUS_GENCEN_19
1002
{
1040
3.0
1002
}
  0
LINE
  5
4D8A7
330
1F
100
AcDbEntity
  8
0部品2
  6
中心線1
 48
0.3
370
    13
100
AcDbLine
 10
6242.020918039188
 20
-5245.957087258601
 30
0.0
 11
6242.020918039188
 21
-5237.9570872586
 31
0.0
1001
GENIUS_GENOBJ-N-CEN_13
1002
{
1000
OWNER
1000
GEN
1002
}
1001
GENIUS_GENODEF_13
1002
{
1000
HIER
1070
     0
1002
}
1002
{
1000
MANEDIT
1070
     0
1002
}
1002
{
1000
NOSEL
1070
     0
1002
}
1002
{
1000
BEHIND
1070
     0
1002
}
1002
{
1000
OTHER
1070
     0
1002
}
1002
{
1000
REACTOR
1002
}
1001
GENIUS_GENCEN_19
1002
{
1040
3.0
1002
}
  0
DIMENSION
  5
4DA19
330
1F
100
AcDbEntity
  8
AM_5
100
AcDbDimension
  2
*D7
 10
6226.520918039188
 20
-5134.235771555349
 30
0.0
 11
6254.709680539187
 21
-5131.635771555348
 31
0.0
 70
    32
  1
（<>）
 71
     5
 42
56.37752499999987
  3
SYS$0
100
AcDbAlignedDimension
 13
6282.898443039187
 23
-5153.735771555348
 33
0.0
 14
6226.520918039188
 24
-5149.735771555349
 34
0.0
100
AcDbRotatedDimension
1001
ACAD
1000
DSTYLE
1002
{
1070
   271
1070
     0
1002
}
  0
DIMENSION
  5
4DA5B
330
1F
100
AcDbEntity
  8
AM_5
100
AcDbDimension
  2
*D8
 10
6298.898443039187
 20
-5144.235771555348
 30
0.0
 11
6298.898443039187
 21
-5162.235771555346
 31
0.0
 70
   160
  1
（<>）
 71
     5
 42
36.0
  3
SYS$0
100
AcDbAlignedDimension
 13
6237.520918039187
 23
-5180.235771555349
 33
0.0
 14
6237.520918039187
 24
-5144.235771555348
 34
0.0
 50
90.0
100
AcDbRotatedDimension
  0
DIMENSION
  5
4DA83
330
1F
100
AcDbEntity
  8
AM_5
100
AcDbDimension
  2
*D9
 10
6290.898443039186
 20
-5149.735771555349
 30
0.0
 11
6290.898443039187
 21
-5162.235771555348
 31
0.0
 70
   160
 71
     5
 42
25.0
  3
SYS$0
100
AcDbAlignedDimension
 13
6278.898443039188
 23
-5174.735771555348
 33
0.0
 14
6278.898443039188
 24
-5149.735771555349
 34
0.0
 50
90.0
100
AcDbRotatedDimension
  0
DIMENSION
  5
4DA99
330
1F
100
AcDbEntity
  8
AM_5
100
AcDbDimension
  2
*D10
 10
6189.620263039188
 20
-5134.235771555349
 30
0.0
 11
6176.620263039187
 21
-5134.235771555349
 31
0.0
 70
   160
  1
（<>）
 71
     5
 42
26.0
  3
SYS$0
100
AcDbAlignedDimension
 13
6163.620263039187
 23
-5150.235771555347
 33
0.0
 14
6189.620263039188
 24
-5150.235771555347
 34
0.0
100
AcDbRotatedDimension
  0
DIMENSION
  5
4DAC1
330
1F
100
AcDbEntity
  8
AM_5
100
AcDbDimension
  2
*D11
 10
6147.620263039186
 20
-5182.235771555347
 30
0.0
 11
6147.620263039187
 21
-5162.235771555348
 31
0.0
 70
   160
 71
     5
 42
40.0
  3
SYS$0
100
AcDbAlignedDimension
 13
6171.620263039187
 23
-5142.235771555348
 33
0.0
 14
6171.620263039187
 24
-5182.235771555347
 34
0.0
 50
90.0
100
AcDbRotatedDimension
  0
DIMENSION
  5
4DAD7
330
1F
100
AcDbEntity
  8
AM_5
100
AcDbDimension
  2
*D12
 10
6212.208236319925
 20
-5176.235771555348
 30
0.0
 11
6212.208236319926
 21
-5184.049104888679
 31
0.0
 70
   160
  1
%%c<>
 71
     5
 42
4.0
  3
SYS$0
100
AcDbAlignedDimension
 13
6213.320590539188
 23
-5180.235771555349
 33
0.0
 14
6213.320590539188
 24
-5176.235771555348
 34
0.0
 50
90.0
100
AcDbRotatedDimension
  0
DIMENSION
  5
4DB05
330
1F
100
AcDbEntity
  8
AM_5
100
AcDbDimension
  2
*D13
 10
6290.898443039186
 20
-5222.170339258601
 30
0.0
 11
6290.898443039187
 21
-5232.563713258599
 31
0.0
 70
   160
  1
（19）
 71
     5
 42
20.78674799999953
  3
SYS$0
100
AcDbAlignedDimension
 13
6270.520918039188
 23
-5242.957087258601
 33
0.0
 14
6236.159587039187
 24
-5222.170339258601
 34
0.0
 50
90.0
100
AcDbRotatedDimension
1001
ACAD
1000
DSTYLE
1002
{
1070
   271
1070
     0
1002
}
  0
DIMENSION
  5
4DB51
330
1F
100
AcDbEntity
  8
AM_5
100
AcDbDimension
  2
*D14
 10
6282.898443039186
 20
-5240.957087258601
 30
0.0
 11
6282.898443039187
 21
-5246.703753925266
 31
0.0
 70
   160
 71
     5
 42
2.0
  3
SYS$0
100
AcDbAlignedDimension
 13
6270.520918039188
 23
-5242.957087258601
 33
0.0
 14
6270.520918039188
 24
-5240.957087258601
 34
0.0
 50
90.0
100
AcDbRotatedDimension
  0
DIMENSION
  5
4DB76
330
1F
100
AcDbEntity
  8
AM_5
100
AcDbDimension
  2
*D15
 10
6147.620263039187
 20
-5232.927908258601
 30
0.0
 11
6147.620263039188
 21
-5237.927908258598
 31
0.0
 70
   160
 71
     5
 42
10.0
  3
SYS$0
100
AcDbAlignedDimension
 13
6163.620263039187
 23
-5242.9279082586
 33
0.0
 14
6183.929280039187
 24
-5232.927908258601
 34
0.0
 50
90.0
100
AcDbRotatedDimension
  0
DIMENSION
  5
4DB8C
330
1F
100
AcDbEntity
  8
AM_5
100
AcDbDimension
  2
*D16
 10
6155.620263039186
 20
-5240.927908258601
 30
0.0
 11
6155.620263039187
 21
-5246.674574925266
 31
0.0
 70
   160
 71
     5
 42
2.0
  3
SYS$0
100
AcDbAlignedDimension
 13
6163.620263039187
 23
-5242.9279082586
 33
0.0
 14
6163.620263039187
 24
-5240.927908258601
 34
0.0
 50
90.0
100
AcDbRotatedDimension
  0
DIMENSION
  5
4DBCB
330
1F
100
AcDbEntity
  8
AM_5
100
AcDbDimension
  2
*D17
 10
6264.020918039188
 20
-5196.235771555348
 30
0.0
 11
6253.020918039188
 21
-5196.235771555348
 31
0.0
 70
   160
 71
     5
 42
22.0
  3
SYS$0
100
AcDbAlignedDimension
 13
6242.020918039187
 23
-5168.735771555347
 33
0.0
 14
6264.020918039188
 24
-5168.735771555347
 34
0.0
100
AcDbRotatedDimension
  0
DIMENSION
  5
4DBE1
330
1F
100
AcDbEntity
  8
AM_5
100
AcDbDimension
  2
*D18
 10
6229.020918039188
 20
-5188.235771555348
 30
0.0
 11
6235.520918039187
 21
-5188.235771555348
 31
0.0
 70
   160
 71
     5
 42
13.0
  3
SYS$0
100
AcDbAlignedDimension
 13
6242.020918039187
 23
-5168.735771555347
 33
0.0
 14
6229.020918039188
 24
-5171.985771555348
 34
0.0
100
AcDbRotatedDimension
  0
DIMENSION
  5
4DF02
330
1F
100
AcDbEntity
  8
AM_5
100
AcDbDimension
  2
*D19
 10
6189.620263039188
 20
-5190.235771555347
 30
0.0
 11
6180.524145039189
 21
-5190.235771555347
 31
0.0
 70
   160
  1
（<>）
 71
     5
 42
18.19223599999986
  3
SYS$0
100
AcDbAlignedDimension
 13
6171.428027039187
 23
-5185.234091668906
 33
0.0
 14
6189.620263039188
 24
-5174.235771555348
 34
0.0
100
AcDbRotatedDimension
1001
ACAD
1000
DSTYLE
1002
{
1070
   271
1070
     0
1002
}
  0
DIMENSION
  5
4DF4C
330
1F
100
AcDbEntity
  8
AM_5
100
AcDbDimension
  2
*D20
 10
6171.428027039187
 20
-5196.235771555348
 30
0.0
 11
6206.520918039188
 21
-5196.235771555348
 31
0.0
 70
   160
  1
（<>）
 71
     5
 42
70.59289100000023
  3
SYS$0
100
AcDbAlignedDimension
 13
6242.020918039187
 23
-5168.735771555347
 33
0.0
 14
6171.428027039187
 24
-5185.234091668906
 34
0.0
100
AcDbRotatedDimension
1001
ACAD
1000
DSTYLE
1002
{
1070
   271
1070
     0
1002
}
  0
DIMENSION
  5
4E0AF
330
1F
100
AcDbEntity
  8
AM_5
100
AcDbDimension
  2
*D21
 10
6155.620263039186
 20
-5174.235771555348
 30
0.0
 11
6155.620263039187
 21
-5162.235771555348
 31
0.0
 70
   160
 71
     5
 42
24.0
  3
SYS$0
100
AcDbAlignedDimension
 13
6164.928027039188
 23
-5150.235771555347
 33
0.0
 14
6164.928027039188
 24
-5174.235771555348
 34
0.0
 50
90.0
100
AcDbRotatedDimension
  0
TEXT
  5
4E0E8
330
1F
100
AcDbEntity
  8
AM_6
 60
     1
100
AcDbText
 10
5957.394900433246
 20
-5651.939004350452
 30
0.0
 40
2.5
  1
!GENTITLE-INSERT
100
AcDbText
  0
TEXT
  5
4E0E9
330
1F
100
AcDbEntity
  8
AM_6
 60
     1
100
AcDbText
 10
5548.894900433246
 20
-5660.439004350451
 30
0.0
 40
2.5
  1
!GENTITLE-LL
100
AcDbText
  0
TEXT
  5
4E0EA
330
1F
100
AcDbEntity
  8
AM_6
 60
     1
100
AcDbText
 10
5968.894900433246
 20
-5363.439004350452
 30
0.0
 40
2.5
  1
!GENTITLE-RU
100
AcDbText
  0
TEXT
  5
4E0EB
330
1F
100
AcDbEntity
  8
AM_6
 60
     1
100
AcDbText
 10
5968.894900433246
 20
-5363.439004350452
 30
0.0
 40
2.5
  1
!GENTITLE-MAX
100
AcDbText
  0
TEXT
  5
4E0F3
330
1F
100
AcDbEntity
  8
AM_6
 60
     1
100
AcDbText
 10
5548.894900433246
 20
-5660.439004350451
 30
0.0
 40
2.5
  1
!GENTITLE-LL
100
AcDbText
  0
TEXT
  5
4E0F4
330
1F
100
AcDbEntity
  8
AM_6
 60
     1
100
AcDbText
 10
5957.394900433246
 20
-5371.939004350451
 30
0.0
 40
2.5
  1
!GENTITLE-RU
100
AcDbText
  0
TEXT
  5
4E0F5
330
1F
100
AcDbEntity
  8
AM_6
 60
     1
100
AcDbText
 10
5968.894900433246
 20
-5363.439004350452
 30
0.0
 40
2.5
  1
!GENTITLE-MAX
100
AcDbText
  0
TEXT
  5
4E0F6
330
1F
100
AcDbEntity
  8
AM_6
 60
     1
100
AcDbText
 10
5957.394900433246
 20
-5651.939004350452
 30
0.0
 40
2.5
  1
!GENTITLE-INSERT
100
AcDbText
  0
TEXT
  5
5183F
330
1F
100
AcDbEntity
  8
AM_6
 60
     1
100
AcDbText
 10
5973.602012689372
 20
109.7385382224183
 30
0.0
 40
2.5
  1
!GENTITLE-INSERT
100
AcDbText
  0
TEXT
  5
51840
330
1F
100
AcDbEntity
  8
AM_6
 60
     1
100
AcDbText
 10
5565.102012689372
 20
101.2385382224183
 30
0.0
 40
2.5
  1
!GENTITLE-LL
100
AcDbText
  0
TEXT
  5
51841
330
1F
100
AcDbEntity
  8
AM_6
 60
     1
100
AcDbText
 10
5985.102012689372
 20
398.2385382224184
 30
0.0
 40
2.5
  1
!GENTITLE-RU
100
AcDbText
  0
TEXT
  5
51842
330
1F
100
AcDbEntity
  8
AM_6
 60
     1
100
AcDbText
 10
5985.102012689372
 20
398.2385382224184
 30
0.0
 40
2.5
  1
!GENTITLE-MAX
100
AcDbText
  0
TEXT
  5
5184A
330
1F
100
AcDbEntity
  8
AM_6
 60
     1
100
AcDbText
 10
5565.102012689372
 20
101.2385382224183
 30
0.0
 40
2.5
  1
!GENTITLE-LL
100
AcDbText
  0
TEXT
  5
5184B
330
1F
100
AcDbEntity
  8
AM_6
 60
     1
100
AcDbText
 10
5973.602012689372
 20
389.7385382224184
 30
0.0
 40
2.5
  1
!GENTITLE-RU
100
AcDbText
  0
TEXT
  5
5184C
330
1F
100
AcDbEntity
  8
AM_6
 60
     1
100
AcDbText
 10
5985.102012689372
 20
398.2385382224184
 30
0.0
 40
2.5
  1
!GENTITLE-MAX
100
AcDbText
  0
TEXT
  5
5184D
330
1F
100
AcDbEntity
  8
AM_6
 60
     1
100
AcDbText
 10
5973.602012689372
 20
109.7385382224183
 30
0.0
 40
2.5
  1
!GENTITLE-INSERT
100
AcDbText
  0
DIMENSION
  5
55133
330
1F
100
AcDbEntity
  8
AM_5
100
AcDbDimension
  2
*D22
 10
6298.898443039187
 20
-5216.957087258601
 30
0.0
 11
6298.898443039187
 21
-5229.9570872586
 31
0.0
 70
   160
 71
     5
 42
26.0
  3
SYS$0
100
AcDbAlignedDimension
 13
6270.520918039188
 23
-5242.957087258601
 33
0.0
 14
6253.020918039188
 24
-5216.957087258601
 34
0.0
 50
90.0
100
AcDbRotatedDimension
  0
DIMENSION
  5
55164
330
1F
100
AcDbEntity
  8
AM_5
100
AcDbDimension
  2
*D23
 10
6249.919676673044
 20
-5227.217808342795
 30
0.0
 11
6264.40087268312
 21
-5214.83777997556
 31
0.0
 70
   163
 71
     5
 42
8.99999999999909
  3
SYS$3
100
AcDbDiametricDimension
 15
6256.122159405332
 25
-5220.696366174405
 35
0.0
 40
0.0
1001
ACAD
1000
DSTYLE
1002
{
1070
    41
1040
1.0
1070
   172
1070
     1
1070
   342
1005
6C4
1002
}
  0
DIMENSION
  5
59CAF
330
1F
100
AcDbEntity
  8
AM_5
100
AcDbDimension
  2
*D24
 10
6173.929059217471
 20
-5170.737938219811
 30
0.0
 11
6146.598936092754
 21
-5189.048936768795
 31
0.0
 70
   163
  1
2-%%c5.2×<>サラ
 71
     5
 42
8.600000000000818
  3
SYS$3
100
AcDbDiametricDimension
 15
6168.926994860907
 25
-5177.733604890887
 35
0.0
 40
0.0
1001
ACAD
1000
DSTYLE
1002
{
1070
    41
1040
1.0
1070
   172
1070
     1
1070
   342
1005
6C4
1002
}
  0
DIMENSION
  5
59D35
330
1F
100
AcDbEntity
  8
AM_5
100
AcDbDimension
  2
*D25
 10
6261.991957371363
 20
-5158.444555575163
 30
0.0
 11
6291.221191081607
 21
-5186.457682287614
 31
0.0
 70
   163
  1
2-%%c5.2×<>サラ
 71
     5
 42
8.600000000003092
  3
SYS$3
100
AcDbDiametricDimension
 15
6266.049878707011
 25
-5166.026987535539
 35
0.0
 40
0.0
1001
ACAD
1000
DSTYLE
1002
{
1070
    41
1040
1.0
1070
   172
1070
     1
1070
   342
1005
6C4
1002
}
  0
LINE
  5
5A4C5
330
1F
100
AcDbEntity
  8
0部品2
  6
中心線1
 48
0.3
370
    13
100
AcDbLine
 10
6264.020918039188
 20
-5168.735771555347
 30
0.0
 11
6264.020918039188
 21
-5155.735771555347
 31
0.0
  0
CIRCLE
  5
5A4C7
330
1F
100
AcDbEntity
  8
0部品2
  6
陰線1
 48
0.5
370
    13
100
AcDbCircle
 10
6242.020918039187
 20
-5162.235771555347
 30
0.0
 40
4.299999999999999
  0
CIRCLE
  5
5A4D1
330
1F
100
AcDbEntity
  8
0部品2
  6
陰線1
 48
0.5
370
    13
100
AcDbCircle
 10
6242.020918039187
 20
-5162.235771555347
 30
0.0
 40
2.6
  0
CIRCLE
  5
5A4D5
330
1F
100
AcDbEntity
  8
0部品2
  6
陰線1
 48
0.5
370
    13
100
AcDbCircle
 10
6264.020918039188
 20
-5162.235771555347
 30
0.0
 40
2.6
  0
LINE
  5
5A4DC
330
1F
100
AcDbEntity
  8
0部品2
  6
中心線1
 48
0.3
370
    13
100
AcDbLine
 10
6242.020918039187
 20
-5168.735771555347
 30
0.0
 11
6242.020918039187
 21
-5155.735771555347
 31
0.0
  0
CIRCLE
  5
5A4E1
330
1F
100
AcDbEntity
  8
0部品2
  6
陰線1
 48
0.5
370
    13
100
AcDbCircle
 10
6264.020918039188
 20
-5162.235771555347
 30
0.0
 40
4.299999999999999
  0
ENDSEC
  0
SECTION
  2
OBJECTS
  0
DICTIONARY
  5
C
330
0
100
AcDbDictionary
281
     1
  3
ACAD_2007HEADERVARS_RT
350
5B2AA
  3
ACAD_BGPLOT_KEY
350
AB06
  3
ACAD_COLOR
350
A91D
  3
ACAD_GROUP
350
D
  3
ACAD_LAYOUT
350
1A
  3
ACAD_MATERIAL
350
A91C
  3
ACAD_MLINESTYLE
350
17
  3
ACAD_PLOTSETTINGS
350
19
  3
ACAD_PLOTSTYLENAME
350
E
  3
ACAD_TABLESTYLE
350
AAB9
  3
ACAD_VISUALSTYLE
350
B0F1
  3
AcAsAppObject
350
3DA1
  3
ACASGREF_MASTER
350
3DE9
  3
AcDbVariableDictionary
350
34
  3
AcmDictionary
350
47
  3
AD_GREF_MODULE
350
3DEA
  3
AD_MAPI_MODULE
350
3E06
  3
AMG
350
2B
  3
AMGSNAPSETTINGS
350
7D
  3
ASE_INDEX_DICTIONARY
350
57912
  3
DWGPROPS
350
5B2A9
  3
MAPISURF_MODULE
350
3DEB
  0
DICTIONARY
  5
3F95
330
2
100
AcDbDictionary
280
     1
281
     1
  3
ACAD_LAYERFILTERS
360
5369F
  3
ACAD_LAYERSTATES
360
3F96
  3
ACLYDICTIONARY
360
5369E
  3
AMLAYER_GROUPCOLORS
360
AAB4
  0
DICTIONARY
  5
2E416
330
2E415
100
AcDbDictionary
280
     1
281
     1
  3
ADSK_XREC_LAYER_RECONCILED
360
2E417
  0
DICTIONARY
  5
8A
330
1F
100
AcDbDictionary
280
     1
281
     1
  3
ACAD_SORTENTS
360
B1BA
  0
DICTIONARY
  5
5B2AA
102
{ACAD_REACTORS
330
C
102
}
330
C
100
AcDbDictionary
281
     1
  3
DIMARCSYM
350
5B2AB
  0
DICTIONARY
  5
AB06
102
{ACAD_REACTORS
330
C
102
}
330
C
100
AcDbDictionary
280
     1
281
     1
  0
DICTIONARY
  5
A91D
102
{ACAD_REACTORS
330
C
102
}
330
C
100
AcDbDictionary
281
     1
  0
DICTIONARY
  5
D
102
{ACAD_REACTORS
330
C
102
}
330
C
100
AcDbDictionary
281
     1
  0
DICTIONARY
  5
1A
102
{ACAD_REACTORS
330
C
102
}
330
C
100
AcDbDictionary
281
     1
  3
Model
350
22
  3
ﾚｲｱｳﾄ1
350
1E
  3
ﾚｲｱｳﾄ2
350
26
  0
DICTIONARY
  5
A91C
102
{ACAD_REACTORS
330
C
102
}
330
C
100
AcDbDictionary
281
     1
  3
ByBlock
350
B0EF
  3
ByLayer
350
B0EE
  3
Global
350
B0F0
  0
DICTIONARY
  5
17
102
{ACAD_REACTORS
330
C
102
}
330
C
100
AcDbDictionary
281
     1
  3
Standard
350
18
  0
DICTIONARY
  5
19
102
{ACAD_REACTORS
330
C
102
}
330
C
100
AcDbDictionary
281
     1
  0
ACDBDICTIONARYWDFLT
  5
E
102
{ACAD_REACTORS
330
C
102
}
330
C
100
AcDbDictionary
281
     1
  3
Normal
350
F
100
AcDbDictionaryWithDefault
340
F
  0
DICTIONARY
  5
AAB9
102
{ACAD_REACTORS
330
C
102
}
330
C
100
AcDbDictionary
281
     1
  3
Standard
350
AABA
  0
DICTIONARY
  5
B0F1
102
{ACAD_REACTORS
330
C
102
}
330
C
100
AcDbDictionary
281
     1
  3
2dWireframe
350
B0F7
  3
3D Hidden
350
B0F9
  3
3dWireframe
350
B0F8
  3
Basic
350
B0F6
  3
Brighten
350
B0FD
  3
ColorChange
350
B101
  3
Conceptual
350
B0FA
  3
Dim
350
B0FC
  3
Facepattern
350
B100
  3
Flat
350
B0F2
  3
FlatWithEdges
350
B0F3
  3
Gouraud
350
B0F4
  3
GouraudWithEdges
350
B0F5
  3
Linepattern
350
B0FF
  3
Realistic
350
B0FB
  3
Thicken
350
B0FE
  0
ACAD_PROXY_OBJECT
  5
3DA1
102
{ACAD_REACTORS
330
C
102
}
330
C
100
AcDbProxyObject
 90
      499
 91
      576
 95
   917527
 70
     0
 93
       10
310
407F
 94
        0
1001
ACAD
1000
AcRTDxfName
1000
ASAPP
  0
ACAD_PROXY_OBJECT
  5
3DE9
102
{ACAD_REACTORS
330
C
102
}
330
C
100
AcDbProxyObject
 90
      499
 91
      581
 95
   917527
 70
     0
 93
       34
310
010000407F
 94
        0
1001
ACAD
1000
AcRTDxfName
1000
ACASGREFMASTER
  0
DICTIONARY
  5
34
102
{ACAD_REACTORS
330
C
102
}
330
C
100
AcDbDictionary
281
     1
  3
CTABLESTYLE
350
AAF3
  3
DIMASSOC
350
A10C
  3
FIELDEVAL
350
AB07
  3
INDEXCTL
350
35
  3
SORTENTS
350
194C
  0
DICTIONARY
  5
47
102
{ACAD_REACTORS
330
C
102
}
330
C
100
AcDbDictionary
281
     1
  3
AcmBOM
350
7E8
  3
AcmStdDictionary
350
4C
  3
AMDTSECTSYM_ARROWCOLOR
350
A929
  0
ACAD_PROXY_OBJECT
  5
3DEA
102
{ACAD_REACTORS
330
C
102
}
330
C
100
AcDbProxyObject
 90
      499
 91
      582
 95
   917527
 70
     0
 93
      114
310
00000043800000000000000000003F
 94
        0
1001
ACAD
1000
AcRTDxfName
1000
ACADGREFMODULE
  0
ACAD_PROXY_OBJECT
  5
3E06
102
{ACAD_REACTORS
330
C
102
}
330
C
100
AcDbProxyObject
 90
      499
 91
      594
 95
   917527
 70
     0
 93
       34
310
05000044FF
 94
        0
1001
ACAD
1000
AcRTDxfName
1000
MAPIADMODULE
  0
DICTIONARY
  5
2B
102
{ACAD_REACTORS
330
C
102
}
330
C
100
AcDbDictionary
281
     1
  0
DICTIONARY
  5
7D
102
{ACAD_REACTORS
330
C
102
}
330
C
100
AcDbDictionary
281
     1
  0
DICTIONARY
  5
57912
102
{ACAD_REACTORS
330
C
102
}
330
C
100
AcDbDictionary
281
     1
  3
ASEBlockHierarchyIndexRecord
350
57913
1001
DCO15
1040
1757428023.343
  0
XRECORD
  5
5B2A9
102
{ACAD_REACTORS
330
C
102
}
330
C
100
AcDbXrecord
280
     1
  1
DWGPROPS COOKIE
  2

  3

  4

  6

  7

  8
Administrator
  9

300
AmdtFileType=84
301
=
302
=
303
=
304
=
305
=
306
=
307
=
308
=
309
=
 40
7.981143599537037
 41
2455567.680725081
 42
2456268.49670772
  1

 90
        1
  0
ACAD_PROXY_OBJECT
  5
3DEB
102
{ACAD_REACTORS
330
C
102
}
330
C
100
AcDbProxyObject
 90
      499
 91
      583
 95
   917527
 70
     0
 93
        8
310
047E
 94
        0
1001
ACAD
1000
AcRTDxfName
1000
AMDTMAPISURFMOUDULE
  0
DICTIONARY
  5
5369F
102
{ACAD_REACTORS
330
3F95
102
}
330
3F95
100
AcDbDictionary
281
     1
  0
DICTIONARY
  5
3F96
102
{ACAD_REACTORS
330
3F95
102
}
330
3F95
100
AcDbDictionary
281
     1
  3
20011210
350
3FB7
  0
DICTIONARY
  5
5369E
102
{ACAD_REACTORS
330
3F95
102
}
330
3F95
100
AcDbDictionary
281
     1
1001
ACAD
1000
<All
  0
DICTIONARY
  5
AAB4
102
{ACAD_REACTORS
330
3F95
102
}
330
3F95
100
AcDbDictionary
280
     1
281
     1
  0
XRECORD
  5
2E417
102
{ACAD_REACTORS
330
2E416
102
}
330
2E416
100
AcDbXrecord
280
     1
290
     1
  0
SORTENTSTABLE
  5
B1BA
102
{ACAD_REACTORS
330
8A
102
}
330
8A
100
AcDbSortentsTable
330
1F
331
4D844
  5
4D8A0
331
4D7F7
  5
4D839
331
4D86A
  5
4E0EF
331
4D7C5
  5
4D80C
331
437F0
  5
438AF
331
32D1F
  5
32D3C
331
4D855
  5
4DAD7
331
4D808
  5
4D84A
331
4D87D
  5
4E104
331
5A4C7
  5
5A4C7
331
4E0F5
  5
4E1E0
331
4D81B
  5
4D85E
331
4D7D6
  5
4D81B
331
34538
  5
34550
331
4D7FE
  5
4D840
331
31B3B
  5
3273C
331
4DBCB
  5
4E1CD
331
4D8A6
  5
4E10A
331
4D849
  5
4D8A7
331
4D79C
  5
4D7DF
331
4DB76
  5
4E1CB
331
4D871
  5
4E0F6
331
4D82C
  5
4D86D
331
437F7
  5
438B6
331
4D85C
  5
4DBE1
331
4E0E9
  5
4E1D4
331
4D80F
  5
4D851
331
4D7F2
  5
4D834
331
4D822
  5
4D866
331
4D7DD
  5
4D820
331
4D805
  5
4D848
331
4D7C0
  5
4D806
331
437EB
  5
438AA
331
4D850
  5
4DA19
331
4D878
  5
4E100
331
5184D
  5
B8D8
331
4D833
  5
4D874
331
437FE
  5
438BD
331
4D7F9
  5
4D83B
331
4D7E4
  5
4D82A
331
4D72F
  5
4D7DE
331
4D86C
  5
4E0F1
331
51841
  5
B5E2
331
4D7C7
  5
4D80E
331
437F2
  5
438B1
331
32D21
  5
32D3E
331
4DBE1
  5
4E1CE
331
4D80A
  5
4D84C
331
4DB8C
  5
4E1CC
331
4D87F
  5
4E106
331
4D7ED
  5
4D832
331
5A4D1
  5
5A4D3
331
4D81D
  5
4D860
331
4DF02
  5
4E1D0
331
4D860
  5
4DF4C
331
4D800
  5
4D843
331
4D7BB
  5
4D801
331
31B3D
  5
3273E
331
4D84B
  5
4DA12
331
4D79E
  5
4D7E1
331
4D873
  5
4E0FB
331
4D7CE
  5
4D814
331
437F9
  5
438B8
331
4D85E
  5
4DE23
331
4E0EB
  5
4E1D6
331
4D811
  5
4D853
331
4D841
  5
4D889
331
4D7F4
  5
4D836
331
31B31
  5
32739
331
4DAC1
  5
4E1C6
331
4D824
  5
4D867
331
4D7DF
  5
4D822
331
4D867
  5
4E0EC
331
4D7C2
  5
4D809
331
437ED
  5
438AC
331
4D852
  5
4DA83
331
4D7A5
  5
4D7EB
331
4D87A
  5
4E102
331
4D835
  5
4D876
331
43800
  5
438BF
331
4D818
  5
4D85B
331
34535
  5
3454D
331
4D7FB
  5
4D83D
331
4D86E
  5
4E0F3
331
4D829
  5
4D86A
331
4D7C9
  5
4D810
331
437F4
  5
438B3
331
4D80C
  5
4D84E
331
4D7AC
  5
4D7F5
331
4D83C
  5
4D880
331
4D81F
  5
4D862
331
4D7DA
  5
4D81D
331
4D862
  5
4E0E8
331
4D802
  5
4D845
331
4D7BD
  5
4D803
331
4D84D
  5
4DA16
331
5184A
  5
B8D5
331
437FB
  5
438BA
331
4D813
  5
4D855
331
4DA5B
  5
4E1C3
331
4D843
  5
4D88A
331
4D7F6
  5
4D838
331
4D7B1
  5
4D7FA
331
31B33
  5
3273B
331
4D7E1
  5
4D825
331
4D869
  5
4E0EE
331
4D7C4
  5
4D80B
331
437EF
  5
438AE
331
32D1E
  5
32D3B
331
4D854
  5
4DAC1
331
4D87C
  5
4E103
331
4D837
  5
4D878
331
4E0F4
  5
4E1DF
331
4D81A
  5
4D85D
331
4E0AF
  5
4E1D2
331
4D7FD
  5
4D83F
331
4D7B8
  5
4D7FE
331
4D848
  5
4D8A6
331
4D870
  5
4E0F5
331
4D82B
  5
4D86C
331
437F6
  5
438B5
331
4D85B
  5
4DBCB
331
4E0E8
  5
4E1D3
331
4D83E
  5
4D885
331
4D7F1
  5
4D833
331
5A4D5
  5
5A4D7
331
4D881
  5
4E108
331
4D821
  5
4D865
331
4D7DC
  5
4D81F
331
4D864
  5
4E0E9
331
4D7BF
  5
4D805
331
437EA
  5
438A9
331
4D84F
  5
4DA18
331
4D7A2
  5
4D7E4
331
4D877
  5
4E0FF
331
5184C
  5
B8D7
331
4D832
  5
4D873
331
437FD
  5
438BC
331
4D815
  5
4D857
331
4D7D0
  5
4D816
331
4D845
  5
4D8A1
331
4D7F8
  5
4D83A
331
4D7E3
  5
4D829
331
4D72E
  5
4D7DD
331
4D86B
  5
4E0F0
331
51840
  5
B5AE
331
4D7C6
  5
4D80D
331
437F1
  5
438B0
331
59D35
  5
59D35
331
4D856
  5
4DB05
331
4D809
  5
4D84B
331
4D7A9
  5
4D7F2
331
4D87E
  5
4E105
331
4D839
  5
4D87C
331
4E0F6
  5
4E1E1
331
4D7FF
  5
4D841
331
4D7BA
  5
4D800
331
31B3C
  5
3273D
331
4D8A7
  5
4E10B
331
4D84A
  5
4DA11
331
4DF4C
  5
4E1D1
331
4D79D
  5
4D7E0
331
5A4E1
  5
5A4E3
331
4D872
  5
4E0F7
331
4D82D
  5
4D86E
331
437F8
  5
438B7
331
4D85D
  5
4DBF7
331
4E0EA
  5
4E1D5
331
4D810
  5
4D852
331
59CAF
  5
59CAF
331
4D840
  5
4D887
331
31B30
  5
32738
331
4D7DE
  5
4D821
331
4DA83
  5
4E1C4
331
4D866
  5
4E0EB
331
4D806
  5
4D849
331
4D7C1
  5
4D808
331
437EC
  5
438AB
331
4D851
  5
4DA5B
331
4D7A4
  5
4D7EA
331
4D879
  5
4E101
331
4D834
  5
4D875
331
437FF
  5
438BE
331
4DB51
  5
4E1CA
331
4D817
  5
4D859
331
4D7D2
  5
4D818
331
34534
  5
3454C
331
4D847
  5
4D8A3
331
4D7FA
  5
4D83C
331
4D7E5
  5
4D82B
331
5A4DC
  5
5A4DE
331
4D86D
  5
4E0F2
331
51842
  5
B5E3
331
4D7C8
  5
4D80F
331
437F3
  5
438B2
331
4DB05
  5
4E1C9
331
4D80B
  5
4D84D
331
4D83B
  5
4D87F
331
4D7D9
  5
4D81C
331
4D861
  5
4E0AF
331
4D7BC
  5
4D802
331
31B3E
  5
3273F
331
4DA19
  5
4E1C1
331
4D84C
  5
4DA15
331
4D79F
  5
4D7E2
331
4D874
  5
4E0FC
331
4D82F
  5
4D870
331
4D7CF
  5
4D815
331
437FA
  5
438B9
331
4D85F
  5
4DF02
331
4D812
  5
4D854
331
4DAD7
  5
4E1C8
331
4D7F5
  5
4D837
331
4D7B0
  5
4D7F9
331
31B32
  5
3273A
331
55164
  5
5522C
331
5183F
  5
B5AD
331
4D825
  5
4D868
331
4D7E0
  5
4D824
331
4D868
  5
4E0ED
331
4D7C3
  5
4D80A
331
437EE
  5
438AD
331
32D1D
  5
32D3A
331
4D853
  5
4DA99
331
4D836
  5
4D877
331
4D7E9
  5
4D82E
331
5A4C5
  5
5A4C5
331
4E0F3
  5
4E1DE
331
4D7D4
  5
4D819
331
34536
  5
3454E
331
4D7FC
  5
4D83E
331
4D7E7
  5
4D82C
331
4D86F
  5
4E0F4
331
4D82A
  5
4D86B
331
4D7CA
  5
4D811
331
437F5
  5
438B4
331
4D80D
  5
4D84F
331
4D83D
  5
4D881
331
4D820
  5
4D864
331
4D7DB
  5
4D81E
331
4D803
  5
4D846
331
4D7BE
  5
4D804
331
437E9
  5
438A8
331
4D7A1
  5
4D7E3
331
5184B
  5
B8D6
331
4D831
  5
4D872
331
437FC
  5
438BB
331
55133
  5
5522B
331
4DA99
  5
4E1C5
  0
XRECORD
  5
5B2AB
102
{ACAD_REACTORS
330
5B2AA
102
}
330
5B2AA
100
AcDbXrecord
280
     1
 70
     1
  0
LAYOUT
  5
22
102
{ACAD_XDICTIONARY
360
5B2AE
102
}
102
{ACAD_REACTORS
330
1A
102
}
330
1A
100
AcDbPlotSettings
  1

  2
FX DocuWide 2050/2051
  4
A3
  6
AM_VIEW1
 40
3.174999952316284
 41
3.174999952316284
 42
3.17498779296875
 43
3.17498779296875
 44
296.989501953125
 45
419.9889831542968
 46
0.0
 47
1.295841228961961
 48
214.3704939521119
 49
367.5855324241176
140
275.6727856380065
141
407.629191407817
142
1.0
143
0.7225445603030646
 70
  3764
 72
     1
 73
     1
 74
     2
  7
monochrome.ctb
 75
     0
147
1.383997686703999
148
-1700.85588156276
149
-1647.985052086429
100
AcDbLayout
  1
Model
 70
     1
 71
     0
 10
0.0
 20
0.0
 11
12.0
 21
9.0
 12
0.0
 22
0.0
 32
0.0
 14
0.0
 24
0.0
 34
0.0
 15
0.0
 25
0.0
 35
0.0
146
0.0
 13
0.0
 23
0.0
 33
0.0
 16
1.0
 26
0.0
 36
0.0
 17
0.0
 27
1.0
 37
0.0
 76
     0
330
1F
331
B0EC
1001
ACAD_PSEXT
1000
FX DocuWide 2050/2051
1000
FX DocuWide 2050/2051
1000
IP_192.200.15.252
1000

1070
     0
  0
LAYOUT
  5
1E
102
{ACAD_XDICTIONARY
360
5B2AC
102
}
102
{ACAD_REACTORS
330
1A
102
}
330
1A
100
AcDbPlotSettings
  1

  2
\\ML370\XEROX
  4
A4
  6

 40
3.174999952316284
 41
3.174999952316284
 42
3.175003051757812
 43
3.17498779296875
 44
209.8674926757813
 45
296.6719970703125
 46
0.0
 47
0.0
 48
0.0
 49
0.0
140
0.0
141
0.0
142
1.0
143
1.0
 70
   688
 72
     1
 73
     1
 74
     5
  7
monochrome.ctb
 75
    16
147
1.0
148
0.0
149
0.0
100
AcDbLayout
  1
ﾚｲｱｳﾄ1
 70
     1
 71
     1
 10
-3.17498779296875
 20
-3.174999952316284
 11
293.4970092773438
 21
206.692492723465
 12
0.0
 22
0.0
 32
0.0
 14
1.000000000000000E+20
 24
1.000000000000000E+20
 34
1.000000000000000E+20
 15
-1.000000000000000E+20
 25
-1.000000000000000E+20
 35
-1.000000000000000E+20
146
0.0
 13
0.0
 23
0.0
 33
0.0
 16
1.0
 26
0.0
 36
0.0
 17
0.0
 27
1.0
 37
0.0
 76
     0
330
1B
  0
LAYOUT
  5
26
102
{ACAD_XDICTIONARY
360
5B2B0
102
}
102
{ACAD_REACTORS
330
1A
102
}
330
1A
100
AcDbPlotSettings
  1

  2
\\ML370\XEROX
  4

  6

 40
0.0
 41
0.0
 42
0.0
 43
0.0
 44
0.0
 45
0.0
 46
0.0
 47
0.0
 48
0.0
 49
0.0
140
0.0
141
0.0
142
1.0
143
1.0
 70
   688
 72
     0
 73
     0
 74
     5
  7
monochrome.ctb
 75
    16
147
1.0
148
0.0
149
0.0
100
AcDbLayout
  1
ﾚｲｱｳﾄ2
 70
     1
 71
     2
 10
0.0
 20
0.0
 11
12.0
 21
9.0
 12
0.0
 22
0.0
 32
0.0
 14
0.0
 24
0.0
 34
0.0
 15
0.0
 25
0.0
 35
0.0
146
0.0
 13
0.0
 23
0.0
 33
0.0
 16
1.0
 26
0.0
 36
0.0
 17
0.0
 27
1.0
 37
0.0
 76
     0
330
23
  0
MATERIAL
  5
B0EF
102
{ACAD_XDICTIONARY
360
5B2B6
102
}
102
{ACAD_REACTORS
330
A91C
102
}
330
A91C
100
AcDbMaterial
  1
ByBlock
  0
MATERIAL
  5
B0EE
102
{ACAD_XDICTIONARY
360
5B2B4
102
}
102
{ACAD_REACTORS
330
A91C
102
}
330
A91C
100
AcDbMaterial
  1
ByLayer
  0
MATERIAL
  5
B0F0
102
{ACAD_XDICTIONARY
360
5B2B8
102
}
102
{ACAD_REACTORS
330
A91C
102
}
330
A91C
100
AcDbMaterial
  1
Global
  0
MLINESTYLE
  5
18
102
{ACAD_REACTORS
330
17
102
}
330
17
100
AcDbMlineStyle
  2
STANDARD
 70
     0
  3

 62
   256
 51
90.0
 52
90.0
 71
     2
 49
0.5
 62
   256
  6
BYLAYER
 49
-0.5
 62
   256
  6
BYLAYER
  0
ACDBPLACEHOLDER
  5
F
102
{ACAD_REACTORS
330
E
102
}
330
E
  0
TABLESTYLE
  5
AABA
102
{ACAD_XDICTIONARY
360
5B2B2
102
}
102
{ACAD_REACTORS
330
AAB9
102
}
330
AAB9
100
AcDbTableStyle
  3
Standard
 70
     0
 71
     0
 40
1.5
 41
1.5
280
     0
281
     0
  7
STANDARD
140
4.5
170
     2
 62
     0
 63
     7
283
     0
274
    -2
284
     1
 64
     0
275
    -2
285
     1
 65
     0
276
    -2
286
     1
 66
     0
277
    -2
287
     1
 67
     0
278
    -2
288
     1
 68
     0
279
    -2
289
     1
 69
     0
  7
STANDARD
140
6.0
170
     5
 62
     0
 63
     7
283
     0
274
    -2
284
     1
 64
     0
275
    -2
285
     1
 65
     0
276
    -2
286
     1
 66
     0
277
    -2
287
     1
 67
     0
278
    -2
288
     1
 68
     0
279
    -2
289
     1
 69
     0
  7
STANDARD
140
4.5
170
     5
 62
     0
 63
     7
283
     0
274
    -2
284
     1
 64
     0
275
    -2
285
     1
 65
     0
276
    -2
286
     1
 66
     0
277
    -2
287
     1
 67
     0
278
    -2
288
     1
 68
     0
279
    -2
289
     1
 69
     0
  0
VISUALSTYLE
  5
B0F7
102
{ACAD_REACTORS
330
B0F1
102
}
330
B0F1
100
AcDbVisualStyle
  2
2dWireframe
 70
     4
 71
     0
 72
     2
 73
     0
 90
        0
 40
-0.6
 41
-30.0
 62
     5
 63
     7
 74
     1
 91
        4
 64
     7
 65
   257
 75
     1
175
     1
 42
1.0
 92
        0
 66
   257
 43
1.0
 76
     1
 77
     6
 78
     2
 67
     7
 79
     5
170
     0
171
     0
290
     0
174
     0
 93
        1
 44
0.0
173
     0
291
     0
 45
0.0
1001
ACAD
1000
AcDbSavedByObjectVersion
1070
     0
  0
VISUALSTYLE
  5
B0F9
102
{ACAD_REACTORS
330
B0F1
102
}
330
B0F1
100
AcDbVisualStyle
  2
3D Hidden
 70
     6
 71
     1
 72
     2
 73
     2
 90
        0
 40
-0.6
 41
-30.0
 62
     5
 63
     7
 74
     2
 91
        2
 64
     7
 65
   257
 75
     2
175
     1
 42
40.0
 92
        0
 66
   257
 43
1.0
 76
     1
 77
     6
 78
     2
 67
     7
 79
     3
170
     0
171
     0
290
     0
174
     0
 93
        1
 44
0.0
173
     0
291
     0
 45
0.0
1001
ACAD
1000
AcDbSavedByObjectVersion
1070
     0
  0
VISUALSTYLE
  5
B0F8
102
{ACAD_REACTORS
330
B0F1
102
}
330
B0F1
100
AcDbVisualStyle
  2
3dWireframe
 70
     5
 71
     0
 72
     2
 73
     0
 90
        0
 40
-0.6
 41
-30.0
 62
     5
 63
     7
 74
     1
 91
        4
 64
     7
 65
   257
 75
     1
175
     1
 42
1.0
 92
        0
 66
   257
 43
1.0
 76
     1
 77
     6
 78
     2
 67
     7
 79
     5
170
     0
171
     0
290
     0
174
     0
 93
        1
 44
0.0
173
     0
291
     0
 45
0.0
1001
ACAD
1000
AcDbSavedByObjectVersion
1070
     0
  0
VISUALSTYLE
  5
B0F6
102
{ACAD_REACTORS
330
B0F1
102
}
330
B0F1
100
AcDbVisualStyle
  2
Basic
 70
     7
 71
     1
 72
     0
 73
     1
 90
        0
 40
-0.6
 41
-30.0
 62
     5
 63
     7
 74
     0
 91
        4
 64
     7
 65
   257
 75
     1
175
     1
 42
1.0
 92
        8
 66
     7
 43
1.0
 76
     1
 77
     6
 78
     2
 67
     7
 79
     5
170
     0
171
     0
290
     0
174
     0
 93
        1
 44
0.0
173
     0
291
     1
 45
0.0
1001
ACAD
1000
AcDbSavedByObjectVersion
1070
     0
  0
VISUALSTYLE
  5
B0FD
102
{ACAD_REACTORS
330
B0F1
102
}
330
B0F1
100
AcDbVisualStyle
  2
Brighten
 70
    12
 71
     2
 72
     2
 73
     0
 90
        0
 40
-0.6
 41
-30.0
 62
     5
 63
     7
 74
     1
 91
        4
 64
     7
 65
   257
 75
     1
175
     1
 42
1.0
 92
        8
 66
     7
 43
1.0
 76
     1
 77
     6
 78
     2
 67
     7
 79
     5
170
     0
171
     0
290
     0
174
     0
 93
        1
 44
50.0
173
     0
291
     1
 45
0.0
1001
ACAD
1000
AcDbSavedByObjectVersion
1070
     0
  0
VISUALSTYLE
  5
B101
102
{ACAD_REACTORS
330
B0F1
102
}
330
B0F1
100
AcDbVisualStyle
  2
ColorChange
 70
    16
 71
     2
 72
     2
 73
     3
 90
        0
 40
-0.6
 41
-30.0
 62
     5
 63
     8
 74
     1
 91
        4
 64
     7
 65
   257
 75
     1
175
     1
 42
1.0
 92
        8
 66
     8
 43
1.0
 76
     1
 77
     6
 78
     2
 67
     7
 79
     5
170
     0
171
     0
290
     0
174
     0
 93
        1
 44
0.0
173
     0
291
     1
 45
0.0
1001
ACAD
1000
AcDbSavedByObjectVersion
1070
     0
  0
VISUALSTYLE
  5
B0FA
102
{ACAD_REACTORS
330
B0F1
102
}
330
B0F1
100
AcDbVisualStyle
  2
Conceptual
 70
     9
 71
     3
 72
     2
 73
     0
 90
        0
 40
-0.6
 41
-30.0
 62
     5
 63
     7
 74
     2
 91
        2
 64
     7
 65
   257
 75
     1
175
     1
 42
40.0
 92
        8
 66
     7
 43
1.0
 76
     1
 77
     6
 78
     2
 67
     7
 79
     3
170
     0
171
     0
290
     0
174
     0
 93
        1
 44
0.0
173
     0
291
     0
 45
0.0
1001
ACAD
1000
AcDbSavedByObjectVersion
1070
     0
  0
VISUALSTYLE
  5
B0FC
102
{ACAD_REACTORS
330
B0F1
102
}
330
B0F1
100
AcDbVisualStyle
  2
Dim
 70
    11
 71
     2
 72
     2
 73
     0
 90
        0
 40
-0.6
 41
-30.0
 62
     5
 63
     7
 74
     1
 91
        4
 64
     7
 65
   257
 75
     1
175
     1
 42
1.0
 92
        8
 66
     7
 43
1.0
 76
     1
 77
     6
 78
     2
 67
     7
 79
     5
170
     0
171
     0
290
     0
174
     0
 93
        1
 44
-50.0
173
     0
291
     1
 45
0.0
1001
ACAD
1000
AcDbSavedByObjectVersion
1070
     0
  0
VISUALSTYLE
  5
B100
102
{ACAD_REACTORS
330
B0F1
102
}
330
B0F1
100
AcDbVisualStyle
  2
Facepattern
 70
    15
 71
     2
 72
     2
 73
     0
 90
        0
 40
-0.6
 41
-30.0
 62
     5
 63
     7
 74
     1
 91
        4
 64
     7
 65
   257
 75
     1
175
     1
 42
1.0
 92
        8
 66
     7
 43
1.0
 76
     1
 77
     6
 78
     2
 67
     7
 79
     5
170
     0
171
     0
290
     0
174
     0
 93
        1
 44
0.0
173
     0
291
     1
 45
0.0
1001
ACAD
1000
AcDbSavedByObjectVersion
1070
     0
  0
VISUALSTYLE
  5
B0F2
102
{ACAD_REACTORS
330
B0F1
102
}
330
B0F1
100
AcDbVisualStyle
  2
Flat
 70
     0
 71
     2
 72
     1
 73
     1
 90
        2
 40
-0.6
 41
30.0
 62
     5
 63
     7
 74
     0
 91
        4
 64
     7
 65
   257
 75
     1
175
     1
 42
1.0
 92
        8
 66
     7
 43
1.0
 76
     1
 77
     6
 78
     2
 67
     7
 79
     5
170
     0
171
     0
290
     0
174
     0
 93
       13
 44
0.0
173
     0
291
     1
 45
0.0
1001
ACAD
1000
AcDbSavedByObjectVersion
1070
     0
  0
VISUALSTYLE
  5
B0F3
102
{ACAD_REACTORS
330
B0F1
102
}
330
B0F1
100
AcDbVisualStyle
  2
FlatWithEdges
 70
     1
 71
     2
 72
     1
 73
     1
 90
        2
 40
-0.6
 41
30.0
 62
     5
 63
     7
 74
     1
 91
        4
 64
     7
 65
   257
 75
     1
175
     1
 42
1.0
 92
        0
 66
   257
 43
1.0
 76
     1
 77
     6
 78
     2
 67
     7
 79
     5
170
     0
171
     0
290
     0
174
     0
 93
       13
 44
0.0
173
     0
291
     1
 45
0.0
1001
ACAD
1000
AcDbSavedByObjectVersion
1070
     0
  0
VISUALSTYLE
  5
B0F4
102
{ACAD_REACTORS
330
B0F1
102
}
330
B0F1
100
AcDbVisualStyle
  2
Gouraud
 70
     2
 71
     2
 72
     2
 73
     1
 90
        2
 40
-0.6
 41
30.0
 62
     5
 63
     7
 74
     0
 91
        4
 64
     7
 65
   257
 75
     1
175
     1
 42
1.0
 92
        0
 66
     7
 43
1.0
 76
     1
 77
     6
 78
     2
 67
     7
 79
     5
170
     0
171
     0
290
     0
174
     0
 93
       13
 44
0.0
173
     0
291
     1
 45
0.0
1001
ACAD
1000
AcDbSavedByObjectVersion
1070
     0
  0
VISUALSTYLE
  5
B0F5
102
{ACAD_REACTORS
330
B0F1
102
}
330
B0F1
100
AcDbVisualStyle
  2
GouraudWithEdges
 70
     3
 71
     2
 72
     2
 73
     1
 90
        2
 40
-0.6
 41
30.0
 62
     5
 63
     7
 74
     1
 91
        4
 64
     7
 65
   257
 75
     1
175
     1
 42
1.0
 92
        0
 66
   257
 43
1.0
 76
     1
 77
     6
 78
     2
 67
     7
 79
     5
170
     0
171
     0
290
     0
174
     0
 93
       13
 44
0.0
173
     0
291
     1
 45
0.0
1001
ACAD
1000
AcDbSavedByObjectVersion
1070
     0
  0
VISUALSTYLE
  5
B0FF
102
{ACAD_REACTORS
330
B0F1
102
}
330
B0F1
100
AcDbVisualStyle
  2
Linepattern
 70
    14
 71
     2
 72
     2
 73
     0
 90
        0
 40
-0.6
 41
-30.0
 62
     5
 63
     7
 74
     1
 91
        4
 64
     7
 65
   257
 75
     7
175
     7
 42
1.0
 92
        8
 66
     7
 43
1.0
 76
     1
 77
     6
 78
     2
 67
     7
 79
     5
170
     0
171
     0
290
     0
174
     0
 93
        1
 44
0.0
173
     0
291
     1
 45
0.0
1001
ACAD
1000
AcDbSavedByObjectVersion
1070
     0
  0
VISUALSTYLE
  5
B0FB
102
{ACAD_REACTORS
330
B0F1
102
}
330
B0F1
100
AcDbVisualStyle
  2
Realistic
 70
     8
 71
     2
 72
     2
 73
     0
 90
        0
 40
-0.6
 41
-30.0
 62
     5
 63
     7
 74
     1
 91
        0
 64
     7
 65
   257
 75
     1
175
     1
 42
1.0
 92
        8
 66
     8
 43
1.0
 76
     1
 77
     6
 78
     2
 67
     7
 79
     5
170
     0
171
     0
290
     0
174
     0
 93
       13
 44
0.0
173
     0
291
     0
 45
0.0
1001
ACAD
1000
AcDbSavedByObjectVersion
1070
     0
  0
VISUALSTYLE
  5
B0FE
102
{ACAD_REACTORS
330
B0F1
102
}
330
B0F1
100
AcDbVisualStyle
  2
Thicken
 70
    13
 71
     2
 72
     2
 73
     0
 90
        0
 40
-0.6
 41
-30.0
 62
     5
 63
     7
 74
     1
 91
        4
 64
     7
 65
   257
 75
     1
175
     1
 42
1.0
 92
       12
 66
     7
 43
1.0
 76
     1
 77
     6
 78
     2
 67
     7
 79
     5
170
     0
171
     0
290
     0
174
     0
 93
        1
 44
0.0
173
     0
291
     1
 45
0.0
1001
ACAD
1000
AcDbSavedByObjectVersion
1070
     0
  0
DICTIONARYVAR
  5
AAF3
102
{ACAD_REACTORS
330
34
102
}
330
34
100
DictionaryVariables
280
     0
  1
STANDARD
  0
DICTIONARYVAR
  5
A10C
102
{ACAD_REACTORS
330
34
102
}
330
34
100
DictionaryVariables
280
     0
  1
1
  0
DICTIONARYVAR
  5
AB07
102
{ACAD_REACTORS
330
34
102
}
330
34
100
DictionaryVariables
280
     0
  1
4
  0
DICTIONARYVAR
  5
35
102
{ACAD_REACTORS
330
34
102
}
330
34
100
DictionaryVariables
280
     0
  1
0
  0
DICTIONARYVAR
  5
194C
102
{ACAD_REACTORS
330
34
102
}
330
34
100
DictionaryVariables
280
     0
  1
127
  0
DICTIONARY
  5
7E8
102
{ACAD_REACTORS
330
47
102
}
330
47
100
AcDbDictionary
281
     1
  0
DICTIONARY
  5
4C
102
{ACAD_REACTORS
330
47
102
}
330
47
100
AcDbDictionary
281
     1
  0
XRECORD
  5
A929
102
{ACAD_REACTORS
330
47
102
}
330
47
100
AcDbXrecord
280
     1
 90
-1023410169
  0
XRECORD
  5
57913
102
{ACAD_REACTORS
330
57912
102
}
330
57912
100
AcDbXrecord
280
     1
330
0
330
0
330
0
330
0
330
0
330
0
330
0
330
0
330
0
330
0
330
0
330
0
330
0
330
0
330
0
330
0
330
0
330
0
330
0
330
0
330
0
330
0
330
0
330
0
330
0
330
0
330
0
330
0
330
0
330
0
330
0
330
0
330
0
330
0
330
0
330
0
330
0
330
0
330
0
330
0
330
0
330
0
330
0
330
0
330
0
330
0
330
0
330
0
330
0
330
0
330
0
330
0
330
0
330
0
330
0
330
0
330
0
330
0
330
0
330
0
330
0
330
0
330
0
330
0
330
0
330
0
330
0
330
0
330
0
330
0
330
0
330
0
330
0
330
0
330
0
330
0
330
0
330
0
330
0
330
0
330
0
330
0
330
0
330
0
330
0
330
0
330
0
330
0
330
0
330
0
330
0
330
0
330
0
330
0
330
0
330
0
330
0
330
0
330
0
330
0
330
0
330
0
330
0
330
0
330
0
330
0
330
0
330
0
330
0
330
0
330
0
330
0
330
0
330
0
330
0
330
0
330
0
330
0
330
0
330
0
330
0
330
0
330
0
330
0
330
0
330
0
330
0
330
0
330
0
330
0
330
0
330
0
330
0
330
0
330
0
330
0
330
0
330
0
330
0
330
0
330
0
330
0
330
0
330
0
330
0
330
0
330
0
330
0
330
0
330
0
330
0
330
0
330
0
330
0
330
0
330
0
330
0
330
0
330
0
330
0
330
0
330
0
330
0
330
0
330
0
330
0
330
0
330
0
330
0
330
0
330
0
330
0
330
0
330
0
330
0
330
0
330
0
330
0
330
0
330
0
330
0
330
0
330
0
330
0
330
0
330
0
330
0
330
0
330
0
330
0
330
0
330
0
330
0
330
0
330
0
330
0
330
0
330
0
330
0
330
0
330
0
330
0
330
0
330
0
330
0
330
0
330
0
330
0
330
0
330
0
330
0
330
0
330
0
330
0
330
0
330
0
330
0
330
0
330
0
330
0
330
0
330
0
330
0
330
0
330
0
330
0
330
0
330
0
330
0
330
0
330
0
330
0
330
0
330
0
330
0
330
0
330
0
330
0
330
0
330
0
330
0
330
0
330
0
330
0
330
0
330
0
330
0
330
0
330
0
330
0
330
0
330
0
330
0
330
0
330
0
330
0
330
0
330
0
330
0
330
0
330
0
330
0
330
0
330
0
330
0
330
0
330
0
330
0
330
0
330
0
330
0
330
0
330
0
330
0
330
0
330
0
330
0
330
0
330
0
330
0
330
0
330
0
330
0
330
0
330
0
330
0
330
0
330
0
330
0
330
0
330
0
330
0
330
0
330
0
330
0
330
0
330
0
330
0
330
0
330
0
330
0
330
0
330
0
330
0
330
0
330
0
330
0
330
0
330
0
330
0
330
0
330
0
330
0
330
0
330
0
330
0
330
0
330
0
330
0
330
0
330
0
330
0
330
0
330
0
330
0
330
0
330
0
330
0
330
0
330
0
330
0
330
0
330
0
330
0
330
0
330
0
330
0
330
0
330
0
330
0
330
0
330
0
330
0
330
0
330
0
330
0
330
0
330
0
330
0
330
0
330
0
330
0
330
0
330
0
330
0
330
0
330
0
330
0
330
0
330
0
330
0
330
0
330
0
330
0
330
0
330
0
330
0
330
0
330
0
330
0
330
0
330
0
330
0
330
0
330
0
330
0
330
0
330
0
330
0
330
0
330
0
330
0
330
0
330
0
330
0
330
0
330
0
330
0
330
0
330
0
330
0
330
0
330
0
330
0
330
0
330
0
330
0
330
0
330
0
330
0
330
0
330
0
330
0
330
0
330
0
330
0
330
0
330
0
330
0
330
0
330
0
330
0
330
0
330
0
330
0
330
0
330
0
330
0
330
0
330
0
330
0
330
0
330
0
330
0
330
0
330
0
330
0
330
0
330
0
330
0
330
0
330
0
330
0
330
0
330
0
330
0
330
0
330
0
330
0
330
0
330
0
330
0
330
0
330
0
330
0
330
0
330
0
330
0
330
0
330
0
330
0
330
0
330
0
330
0
330
0
330
0
330
0
330
0
330
0
330
0
330
0
330
0
330
0
330
0
330
0
330
0
330
0
330
0
330
0
330
0
330
0
330
0
330
0
330
0
330
0
330
0
330
0
330
0
330
0
330
0
330
0
330
0
330
0
330
0
330
0
330
0
330
0
330
0
330
0
330
0
330
0
330
0
330
0
330
0
330
0
330
0
330
0
330
0
330
0
330
0
330
0
330
0
330
0
330
0
330
0
330
0
330
0
330
0
330
0
330
0
330
0
330
0
330
0
330
0
330
0
330
0
330
0
330
0
330
0
330
0
330
0
330
0
330
0
330
0
330
0
330
0
330
0
330
0
330
0
330
0
330
0
330
0
330
0
330
0
330
0
330
0
330
0
330
0
330
0
330
0
330
0
330
0
330
0
330
0
330
0
330
0
330
0
330
0
330
0
330
0
330
0
330
0
330
0
330
0
330
0
330
0
330
0
330
0
330
0
330
0
330
0
330
0
330
0
330
0
330
0
330
0
330
0
330
0
330
0
330
0
330
0
330
0
330
0
330
0
330
0
330
0
330
0
330
0
330
0
330
0
330
0
330
0
330
0
330
0
330
0
330
0
330
0
330
0
330
0
330
0
330
0
330
0
330
0
330
0
330
0
330
0
330
0
330
0
330
0
330
0
330
0
330
0
330
0
330
0
330
0
330
0
330
0
330
0
330
0
330
0
330
0
330
0
330
0
330
0
330
0
330
0
330
0
330
0
330
0
330
0
330
0
330
0
330
0
330
0
330
0
330
0
330
0
330
0
330
0
330
0
330
0
330
0
330
0
330
0
330
0
330
0
330
0
330
0
330
0
330
0
330
0
330
0
330
0
330
0
330
0
330
0
330
0
330
0
330
0
330
0
330
0
330
0
330
0
330
0
330
0
330
0
330
0
330
0
330
0
330
0
330
0
330
0
330
0
330
0
330
0
330
0
330
0
330
0
330
0
330
0
330
0
330
0
330
0
330
0
330
0
330
0
330
0
330
0
330
0
330
0
330
0
330
0
330
0
330
0
330
0
330
0
330
0
330
0
330
0
330
0
330
0
330
0
330
0
330
0
330
0
330
0
330
0
330
0
330
0
330
0
330
0
330
0
330
0
330
0
330
0
330
0
330
0
330
0
330
0
330
0
330
0
330
0
330
0
330
0
330
0
330
0
330
0
330
0
330
0
330
0
330
0
330
0
330
0
330
0
330
0
330
0
330
0
330
0
330
0
330
0
330
0
330
0
330
0
330
0
330
0
330
0
330
0
330
0
330
0
330
0
330
0
330
0
330
0
330
0
330
0
330
0
330
0
330
0
330
0
330
0
330
0
330
0
330
0
330
0
330
0
330
0
330
0
330
0
330
0
330
0
330
0
330
0
330
0
330
0
330
0
330
0
330
0
330
0
330
0
330
0
330
0
330
0
330
0
330
0
330
0
330
0
330
0
330
0
330
0
330
0
330
0
330
0
330
0
330
0
330
0
330
0
330
0
330
0
330
0
330
0
330
0
330
0
330
0
330
0
330
0
330
0
330
0
330
0
330
0
330
0
330
0
330
0
330
0
330
0
330
0
330
0
330
0
330
0
330
0
330
0
330
0
330
0
330
0
330
0
330
0
330
0
330
0
330
0
330
0
330
0
330
0
330
0
330
0
330
0
330
0
330
0
330
0
330
0
330
0
330
0
330
0
330
0
330
0
330
0
330
0
330
0
330
0
330
0
330
0
330
0
330
0
330
0
330
0
330
0
330
0
330
0
330
0
330
0
330
0
330
0
330
0
330
0
330
0
330
0
330
0
330
0
330
0
330
0
330
0
330
0
330
0
330
0
330
0
330
0
330
0
330
0
330
0
330
0
330
0
330
0
330
0
330
0
330
0
330
0
330
0
330
0
330
0
330
0
330
0
330
0
330
0
330
0
330
0
330
0
330
0
330
0
330
0
330
0
330
0
330
0
330
0
330
0
330
0
330
0
330
0
330
0
330
0
330
0
330
0
330
0
330
0
330
0
330
0
330
0
330
0
330
0
330
0
330
0
330
0
330
0
330
0
330
0
330
0
330
0
330
0
330
0
330
0
330
0
330
0
330
0
330
0
330
0
330
0
330
0
330
0
330
0
330
0
330
0
330
0
330
0
330
0
330
0
330
0
330
0
330
0
330
0
330
0
330
0
330
0
330
0
330
0
330
0
330
0
330
0
330
0
330
0
330
0
330
0
330
0
330
0
330
0
330
0
330
0
330
0
330
0
330
0
330
0
330
0
330
0
330
0
330
0
330
0
330
0
330
0
330
0
330
0
330
0
330
0
330
0
330
0
330
0
330
0
330
0
330
0
330
0
330
0
330
0
330
0
330
0
330
0
330
0
330
0
330
0
330
0
330
0
330
0
330
0
330
0
330
0
330
0
330
0
330
0
330
0
330
0
330
0
330
0
330
0
330
0
330
0
330
0
330
0
330
0
330
0
330
0
330
0
330
0
330
0
330
0
330
0
330
0
330
0
330
0
330
0
330
0
330
0
330
0
330
0
330
0
330
0
330
0
330
0
330
0
330
0
330
0
330
0
330
0
330
0
330
0
330
0
330
0
330
0
330
0
330
0
330
0
330
0
330
0
330
0
330
0
330
0
330
0
330
0
330
0
330
0
330
0
330
0
330
0
330
0
330
0
330
0
330
0
330
0
330
0
330
0
330
0
330
0
330
0
330
0
330
0
330
0
330
0
330
0
330
0
330
0
330
0
330
0
330
0
330
0
330
0
330
0
330
0
330
0
330
0
330
0
330
0
330
0
330
0
330
0
330
0
330
0
330
0
330
0
330
0
330
0
330
0
330
0
330
0
330
0
330
0
330
0
330
0
330
0
330
0
330
0
330
0
330
0
330
0
330
0
330
0
330
0
330
0
330
0
330
0
330
0
330
0
330
0
330
0
330
0
330
0
330
0
330
0
330
0
330
0
330
0
330
0
330
0
330
0
330
0
330
0
330
0
330
0
330
0
330
0
330
0
330
0
330
0
330
0
330
0
330
0
330
0
330
0
330
0
330
0
330
0
330
0
330
0
330
0
330
0
330
0
330
0
330
0
330
0
330
0
330
0
330
0
330
0
330
0
330
0
330
0
330
0
330
0
330
0
330
0
330
0
330
0
330
0
330
0
330
0
330
0
330
0
330
0
330
0
330
0
330
0
330
0
330
0
330
0
330
0
330
0
330
0
330
0
330
0
330
0
330
0
330
0
330
0
330
0
330
0
330
0
330
0
330
0
330
0
330
0
330
0
330
0
330
0
330
0
330
0
330
0
330
0
330
0
330
0
330
0
330
0
330
0
330
0
330
0
330
0
330
0
330
0
330
0
330
0
330
0
330
0
330
0
330
0
330
0
330
0
330
0
330
0
330
0
330
0
330
0
330
0
330
0
330
0
330
0
330
0
330
0
330
0
330
0
330
0
330
0
330
0
330
0
330
0
330
0
330
0
330
0
330
0
330
0
330
0
330
0
330
0
330
0
330
0
330
0
330
0
330
0
330
0
330
0
330
0
330
0
330
0
330
0
330
0
330
0
330
0
330
0
330
0
330
0
330
0
330
0
330
0
330
0
330
0
330
0
330
0
330
0
330
0
330
0
330
0
330
0
330
0
330
0
330
0
330
0
330
0
330
0
330
0
330
0
330
0
330
0
330
0
330
0
330
0
330
0
330
0
330
0
330
0
330
0
330
0
330
0
330
0
330
0
330
0
330
0
330
0
330
0
330
0
330
0
330
0
330
0
330
0
330
0
330
0
330
0
330
0
330
0
330
0
330
0
330
0
330
0
330
0
330
0
330
0
330
0
330
0
330
0
330
0
330
0
330
0
330
0
330
0
330
0
330
0
330
0
330
0
330
0
330
0
330
0
330
0
330
0
330
0
330
0
330
0
330
0
330
0
330
0
330
0
330
0
330
0
330
0
330
0
330
0
330
0
330
0
330
0
330
0
330
0
330
0
330
0
330
0
330
0
330
0
330
0
330
0
330
0
330
0
330
0
330
0
330
0
330
0
330
0
330
0
330
0
330
0
330
0
330
0
330
0
330
0
330
0
330
0
330
0
330
0
330
0
330
0
330
0
330
0
330
0
330
0
330
0
330
0
330
0
330
0
330
0
330
0
330
0
330
0
330
0
330
0
330
0
330
0
330
0
330
0
330
0
330
0
330
0
330
0
330
0
330
0
330
0
330
0
330
0
330
0
330
0
330
0
330
0
330
0
330
0
330
0
330
0
330
0
330
0
330
0
330
0
330
0
330
0
330
0
330
0
330
0
330
0
330
0
330
0
330
0
330
0
330
0
330
0
330
0
330
0
330
0
330
0
330
0
330
0
330
0
330
0
330
0
330
0
330
0
330
0
330
0
330
0
330
0
330
0
330
0
330
0
330
0
330
0
330
0
330
0
330
0
330
0
330
0
330
0
330
0
330
0
330
0
330
0
330
0
330
0
330
0
330
0
330
0
330
0
330
0
330
0
330
0
330
0
330
0
330
0
330
0
330
0
330
0
330
0
330
0
330
0
330
0
330
0
330
0
330
0
330
0
330
0
330
0
330
0
330
0
330
0
330
0
330
0
330
0
330
0
330
0
330
0
330
0
330
0
330
0
330
0
330
0
330
0
330
0
330
0
330
0
330
0
330
0
330
0
330
0
330
0
330
0
330
0
330
0
330
0
330
0
330
0
330
0
330
0
330
0
330
0
330
0
330
0
330
0
330
0
330
0
330
0
330
0
330
0
330
0
330
0
330
0
330
0
330
0
330
0
330
0
330
0
330
0
330
0
330
0
330
0
330
0
330
0
330
0
330
0
330
0
330
0
330
0
330
0
330
0
330
0
330
0
330
0
330
0
330
0
330
0
330
0
330
0
330
0
330
0
330
0
330
0
330
0
330
0
330
0
330
0
330
0
330
0
330
0
330
0
330
0
330
0
330
0
330
0
330
0
330
0
330
0
330
0
330
0
330
0
330
0
330
0
330
0
330
0
330
0
330
0
330
0
330
0
330
0
330
0
330
0
330
0
330
0
330
0
330
0
330
0
330
0
330
0
330
0
330
0
330
0
330
0
330
0
330
0
330
0
330
0
330
0
330
0
330
0
330
0
330
0
330
0
330
0
330
0
330
0
330
0
330
0
330
0
330
0
330
0
330
0
330
0
330
0
330
0
330
0
330
0
330
0
330
0
330
0
330
0
330
0
330
0
330
0
330
0
330
0
330
0
330
0
330
0
330
0
330
0
330
0
330
0
330
0
330
0
330
0
330
0
330
0
330
0
330
0
330
0
330
0
330
0
330
0
330
0
330
0
330
0
330
0
330
0
330
0
330
0
330
0
330
0
330
0
330
0
330
0
330
0
330
0
330
0
330
0
330
0
330
0
330
0
330
0
330
0
330
0
330
0
330
0
330
0
330
0
330
0
330
0
330
0
330
0
330
0
330
0
330
0
330
0
330
0
330
0
330
0
330
0
330
0
330
0
330
0
330
0
330
0
330
0
330
0
330
0
330
0
330
0
330
0
330
0
330
0
330
0
330
0
330
0
330
0
330
0
330
0
330
0
330
0
330
0
330
0
330
0
330
0
330
0
330
0
330
0
330
0
330
0
330
0
330
0
330
0
330
0
330
0
330
0
330
0
330
0
330
0
330
0
330
0
330
0
330
0
330
0
330
0
330
0
330
0
330
0
330
0
330
0
330
0
330
0
330
0
330
0
330
0
330
0
330
0
330
0
330
0
330
0
330
0
330
0
330
0
330
0
330
0
330
0
330
0
330
0
330
0
330
0
330
0
330
0
330
0
330
0
330
0
330
0
330
0
330
0
330
0
330
0
330
0
330
0
330
0
330
0
330
0
330
0
330
0
330
0
330
0
330
0
330
0
330
0
330
0
330
0
330
0
330
0
330
0
330
0
330
0
330
0
330
0
330
0
330
0
330
0
330
0
330
0
330
0
330
0
330
0
330
0
330
0
330
0
330
0
330
0
330
0
330
0
330
0
330
0
330
0
330
0
330
0
330
0
330
0
330
0
330
0
330
0
330
0
330
0
330
0
330
0
330
0
330
0
330
0
330
0
330
0
330
0
330
0
330
0
330
0
330
0
330
0
330
0
330
0
330
0
330
0
330
0
330
0
330
0
330
0
330
0
330
0
330
0
330
0
330
0
330
0
330
0
330
0
330
0
330
0
330
0
330
0
330
0
330
0
330
0
330
0
330
0
330
0
330
0
330
0
330
0
330
0
330
0
330
0
330
0
330
0
330
0
330
0
330
0
330
0
330
0
330
0
330
0
330
0
330
0
330
0
330
0
330
0
330
0
330
0
330
0
330
0
330
0
330
0
330
0
330
0
330
0
330
0
330
0
330
0
330
0
330
0
330
0
330
0
330
0
330
0
330
0
330
0
330
0
330
0
330
0
330
0
330
0
330
0
330
0
330
0
330
0
330
0
330
0
330
0
330
0
330
0
  0
XRECORD
  5
3FB7
102
{ACAD_REACTORS
330
3F96
102
}
330
3F96
100
AcDbXrecord
280
     1
 91
        3
330
0
 90
        8
 62
     7
370
    40
331
16
  1
Color_7
330
0
 90
        0
 62
    14
370
    -3
331
16
  1
Color_14
330
0
 90
        8
 62
     7
370
    20
331
16
  1
Color_7
330
6D1
 90
        0
 62
     7
370
    -3
331
16
  1
Color_7
330
0
 90
        8
 62
     7
370
    50
331
16
  1
Color_7
330
0
 90
        8
 62
     2
370
    35
331
16
  1
Color_2
330
0
 90
        8
 62
     7
370
    -3
331
16
  1
Color_7
330
10
 90
        8
 62
     7
370
    -3
331
16
  1
Color_7
  0
DICTIONARY
  5
5B2AE
330
22
100
AcDbDictionary
280
     1
281
     1
  3
ACAD_XREC_ROUNDTRIP
360
5B2AF
  0
DICTIONARY
  5
5B2AC
330
1E
100
AcDbDictionary
280
     1
281
     1
  3
ACAD_XREC_ROUNDTRIP
360
5B2AD
  0
DICTIONARY
  5
5B2B0
330
26
100
AcDbDictionary
280
     1
281
     1
  3
ACAD_XREC_ROUNDTRIP
360
5B2B1
  0
DICTIONARY
  5
5B2B6
330
B0EF
100
AcDbDictionary
280
     1
281
     1
  3
ACAD_XREC_ROUNDTRIP
360
5B2B7
  0
DICTIONARY
  5
5B2B4
330
B0EE
100
AcDbDictionary
280
     1
281
     1
  3
ACAD_XREC_ROUNDTRIP
360
5B2B5
  0
DICTIONARY
  5
5B2B8
330
B0F0
100
AcDbDictionary
280
     1
281
     1
  3
ACAD_XREC_ROUNDTRIP
360
5B2B9
  0
DICTIONARY
  5
5B2B2
330
AABA
100
AcDbDictionary
280
     1
281
     1
  3
ACAD_XREC_ROUNDTRIP
360
5B2B3
  0
XRECORD
  5
5B2AF
102
{ACAD_REACTORS
330
5B2AE
102
}
330
5B2AE
100
AcDbXrecord
280
     1
102
SHADEPLOT
 70
     0
102
SHADEPLOTRESLEVEL
 70
     2
102
SHADEPLOTCUSTOMDPI
 70
   200
  0
XRECORD
  5
5B2AD
102
{ACAD_REACTORS
330
5B2AC
102
}
330
5B2AC
100
AcDbXrecord
280
     1
102
SHADEPLOT
 70
     0
102
SHADEPLOTRESLEVEL
 70
     2
102
SHADEPLOTCUSTOMDPI
 70
   300
  0
XRECORD
  5
5B2B1
102
{ACAD_REACTORS
330
5B2B0
102
}
330
5B2B0
100
AcDbXrecord
280
     1
102
SHADEPLOT
 70
     0
102
SHADEPLOTRESLEVEL
 70
     2
102
SHADEPLOTCUSTOMDPI
 70
   300
  0
XRECORD
  5
5B2B7
102
{ACAD_REACTORS
330
5B2B6
102
}
330
5B2B6
100
AcDbXrecord
280
     1
102
MATERIAL
148
0.0
149
0.0
149
0.0
 93
        0
 94
       63
282
     0
 72
     1
 77
     1
171
     1
175
     1
179
     1
273
     0
  0
XRECORD
  5
5B2B5
102
{ACAD_REACTORS
330
5B2B4
102
}
330
5B2B4
100
AcDbXrecord
280
     1
102
MATERIAL
148
0.0
149
0.0
149
0.0
 93
        0
 94
       63
282
     0
 72
     1
 77
     1
171
     1
175
     1
179
     1
273
     0
  0
XRECORD
  5
5B2B9
102
{ACAD_REACTORS
330
5B2B8
102
}
330
5B2B8
100
AcDbXrecord
280
     1
102
MATERIAL
148
0.0
149
0.0
149
0.0
 93
        0
 94
       63
282
     0
 72
     1
 77
     1
171
     1
175
     1
179
     1
273
     0
  0
XRECORD
  5
5B2B3
102
{ACAD_REACTORS
330
5B2B2
102
}
330
5B2B2
100
AcDbXrecord
280
     1
102
ACAD_ROUNDTRIP_PRE2007_TABLESTYLE
 90
        4
 91
        0
  1

 92
        4
 93
        0
  2

 94
        4
 95
        0
  3

  0
ENDSEC
  0
EOF
