  0
SECTION
  2
HEADER
  9
$ACADVER
  1
AC1015
  9
$ACADMAINTVER
 70
    20
  9
$DWGCODEPAGE
  3
ANSI_932
  9
$INSBASE
 10
0.0
 20
0.0
 30
0.0
  9
$EXTMIN
 10
6074.514852621241
 20
-5592.871866201146
 30
-0.0015258207003583
  9
$EXTMAX
 10
6372.43854128965
 20
-5382.420462709884
 30
0.0000000349246037
  9
$LIMMIN
 10
3779.599158088851
 20
100.7134268036752
  9
$LIMMAX
 10
9719.599158088852
 20
4300.713426803675
  9
$ORTHOMODE
 70
     0
  9
$REGENMODE
 70
     1
  9
$FILLMODE
 70
     1
  9
$QTEXTMODE
 70
     0
  9
$MIRRTEXT
 70
     0
  9
$LTSCALE
 40
1.0
  9
$ATTMODE
 70
     1
  9
$TEXTSIZE
 40
3.2
  9
$TRACEWID
 40
1.0
  9
$TEXTSTYLE
  7
STANDARD
  9
$CLAYER
  8
0部品18
  9
$CELTYPE
  6
ByLayer
  9
$CECOLOR
 62
   256
  9
$CELTSCALE
 40
1.0
  9
$DISPSILH
 70
     0
  9
$DIMSCALE
 40
1.0
  9
$DIMASZ
 40
1.0
  9
$DIMEXO
 40
1.0
  9
$DIMDLI
 40
10.0
  9
$DIMRND
 40
0.0
  9
$DIMDLE
 40
0.0
  9
$DIMEXE
 40
1.0
  9
$DIMTP
 40
0.1
  9
$DIMTM
 40
0.1
  9
$DIMTXT
 40
3.5
  9
$DIMCEN
 40
0.0
  9
$DIMTSZ
 40
0.0
  9
$DIMTOL
 70
     0
  9
$DIMLIM
 70
     0
  9
$DIMTIH
 70
     0
  9
$DIMTOH
 70
     0
  9
$DIMSE1
 70
     0
  9
$DIMSE2
 70
     0
  9
$DIMTAD
 70
     1
  9
$DIMZIN
 70
     8
  9
$DIMBLK
  1

  9
$DIMASO
 70
     1
  9
$DIMSHO
 70
     1
  9
$DIMPOST
  1

  9
$DIMAPOST
  1
"
  9
$DIMALT
 70
     0
  9
$DIMALTD
 70
     2
  9
$DIMALTF
 40
0.0393701
  9
$DIMLFAC
 40
1.0
  9
$DIMTOFL
 70
     1
  9
$DIMTVP
 40
0.0
  9
$DIMTIX
 70
     0
  9
$DIMSOXD
 70
     0
  9
$DIMSAH
 70
     0
  9
$DIMBLK1
  1

  9
$DIMBLK2
  1

  9
$DIMSTYLE
  2
SYS
  9
$DIMCLRD
 70
   256
  9
$DIMCLRE
 70
   256
  9
$DIMCLRT
 70
     7
  9
$DIMTFAC
 40
0.71
  9
$DIMGAP
 40
1.5
  9
$DIMJUST
 70
     0
  9
$DIMSD1
 70
     0
  9
$DIMSD2
 70
     0
  9
$DIMTOLJ
 70
     0
  9
$DIMTZIN
 70
     8
  9
$DIMALTZ
 70
     0
  9
$DIMALTTZ
 70
     0
  9
$DIMUPT
 70
     0
  9
$DIMDEC
 70
     2
  9
$DIMTDEC
 70
     2
  9
$DIMALTU
 70
     2
  9
$DIMALTTD
 70
     2
  9
$DIMTXSTY
  7
STANDARD
  9
$DIMAUNIT
 70
     0
  9
$DIMADEC
 70
     0
  9
$DIMALTRND
 40
0.0
  9
$DIMAZIN
 70
     2
  9
$DIMDSEP
 70
    46
  9
$DIMATFIT
 70
     3
  9
$DIMFRAC
 70
     0
  9
$DIMLDRBLK
  1

  9
$DIMLUNIT
 70
     2
  9
$DIMLWD
 70
    -1
  9
$DIMLWE
 70
    -1
  9
$DIMTMOVE
 70
     0
  9
$LUNITS
 70
     2
  9
$LUPREC
 70
     2
  9
$SKETCHINC
 40
1.0
  9
$FILLETRAD
 40
1.5
  9
$AUNITS
 70
     0
  9
$AUPREC
 70
     0
  9
$MENU
  1
.
  9
$ELEVATION
 40
0.0
  9
$PELEVATION
 40
0.0
  9
$THICKNESS
 40
0.0
  9
$LIMCHECK
 70
     0
  9
$CHAMFERA
 40
0.0
  9
$CHAMFERB
 40
0.0
  9
$CHAMFERC
 40
20.0
  9
$CHAMFERD
 40
0.0
  9
$SKPOLY
 70
     0
  9
$TDCREATE
 40
2455567.680725081
  9
$TDUCREATE
 40
2455567.305725081
  9
$TDUPDATE
 40
2456268.497060370
  9
$TDUUPDATE
 40
2456268.122060370
  9
$TDINDWG
 40
7.9809401852
  9
$TDUSRTIMER
 40
7.9809385532
  9
$USRTIMER
 70
     1
  9
$ANGBASE
 50
0.0
  9
$ANGDIR
 70
     0
  9
$PDMODE
 70
     0
  9
$PDSIZE
 40
-3.0
  9
$PLINEWID
 40
0.0
  9
$SPLFRAME
 70
     0
  9
$SPLINETYPE
 70
     6
  9
$SPLINESEGS
 70
     8
  9
$HANDSEED
  5
5B2BA
  9
$SURFTAB1
 70
     6
  9
$SURFTAB2
 70
     6
  9
$SURFTYPE
 70
     6
  9
$SURFU
 70
     6
  9
$SURFV
 70
     6
  9
$UCSBASE
  2

  9
$UCSNAME
  2

  9
$UCSORG
 10
0.0
 20
0.0
 30
0.0
  9
$UCSXDIR
 10
1.0
 20
0.0
 30
0.0
  9
$UCSYDIR
 10
0.0
 20
1.0
 30
0.0
  9
$UCSORTHOREF
  2

  9
$UCSORTHOVIEW
 70
     0
  9
$UCSORGTOP
 10
0.0
 20
0.0
 30
0.0
  9
$UCSORGBOTTOM
 10
0.0
 20
0.0
 30
0.0
  9
$UCSORGLEFT
 10
0.0
 20
0.0
 30
0.0
  9
$UCSORGRIGHT
 10
0.0
 20
0.0
 30
0.0
  9
$UCSORGFRONT
 10
0.0
 20
0.0
 30
0.0
  9
$UCSORGBACK
 10
0.0
 20
0.0
 30
0.0
  9
$PUCSBASE
  2

  9
$PUCSNAME
  2

  9
$PUCSORG
 10
0.0
 20
0.0
 30
0.0
  9
$PUCSXDIR
 10
1.0
 20
0.0
 30
0.0
  9
$PUCSYDIR
 10
0.0
 20
1.0
 30
0.0
  9
$PUCSORTHOREF
  2

  9
$PUCSORTHOVIEW
 70
     0
  9
$PUCSORGTOP
 10
0.0
 20
0.0
 30
0.0
  9
$PUCSORGBOTTOM
 10
0.0
 20
0.0
 30
0.0
  9
$PUCSORGLEFT
 10
0.0
 20
0.0
 30
0.0
  9
$PUCSORGRIGHT
 10
0.0
 20
0.0
 30
0.0
  9
$PUCSORGFRONT
 10
0.0
 20
0.0
 30
0.0
  9
$PUCSORGBACK
 10
0.0
 20
0.0
 30
0.0
  9
$USERI1
 70
     0
  9
$USERI2
 70
     0
  9
$USERI3
 70
     0
  9
$USERI4
 70
     0
  9
$USERI5
 70
     0
  9
$USERR1
 40
0.0
  9
$USERR2
 40
0.0
  9
$USERR3
 40
0.0
  9
$USERR4
 40
0.0
  9
$USERR5
 40
0.0
  9
$WORLDVIEW
 70
     1
  9
$SHADEDGE
 70
     3
  9
$SHADEDIF
 70
    70
  9
$TILEMODE
 70
     1
  9
$MAXACTVP
 70
    64
  9
$PINSBASE
 10
0.0
 20
0.0
 30
0.0
  9
$PLIMCHECK
 70
     0
  9
$PEXTMIN
 10
1.000000000000000E+20
 20
1.000000000000000E+20
 30
1.000000000000000E+20
  9
$PEXTMAX
 10
-1.000000000000000E+20
 20
-1.000000000000000E+20
 30
-1.000000000000000E+20
  9
$PLIMMIN
 10
-3.17498779296875
 20
-3.174999952316284
  9
$PLIMMAX
 10
293.4970092773438
 20
206.692492723465
  9
$UNITMODE
 70
     0
  9
$VISRETAIN
 70
     1
  9
$PLINEGEN
 70
     0
  9
$PSLTSCALE
 70
     1
  9
$TREEDEPTH
 70
  3020
  9
$CMLSTYLE
  2
Standard
  9
$CMLJUST
 70
     0
  9
$CMLSCALE
 40
20.0
  9
$PROXYGRAPHICS
 70
     1
  9
$MEASUREMENT
 70
     1
  9
$CELWEIGHT
370
    -1
  9
$ENDCAPS
280
     0
  9
$JOINSTYLE
280
     0
  9
$LWDISPLAY
290
     1
  9
$INSUNITS
 70
     4
  9
$HYPERLINKBASE
  1

  9
$STYLESHEET
  1
monochrome.ctb
  9
$XEDIT
290
     1
  9
$CEPSNTYPE
380
     0
  9
$PSTYLEMODE
290
     1
  9
$FINGERPRINTGUID
  2
{487E49EE-344A-43F6-800E-CE119D8346FF}
  9
$VERSIONGUID
  2
{6E003AA3-CF26-4336-872D-B58C290CC576}
  9
$EXTNAMES
290
     1
  9
$PSVPSCALE
 40
0.0
  9
$OLESTARTUP
290
     0
  0
ENDSEC
  0
SECTION
  2
CLASSES
  0
CLASS
  1
ACDBDICTIONARYWDFLT
  2
AcDbDictionaryWithDefault
  3
ObjectDBX Classes
 90
        0
280
     0
281
     0
  0
CLASS
  1
ACDBPLACEHOLDER
  2
AcDbPlaceHolder
  3
ObjectDBX Classes
 90
        0
280
     0
281
     0
  0
CLASS
  1
LAYOUT
  2
AcDbLayout
  3
ObjectDBX Classes
 90
        0
280
     0
281
     0
  0
CLASS
  1
AMGSETTINGSOBJ
  2
AmgSettingsObj
  3
"AcadM|Product Description: AutoCAD Mechanical|Company: Autodesk"
 90
        0
280
     0
281
     0
  0
CLASS
  1
ACME_DOCUMENT
  2
AcMeDbDoc
  3
AcMeServices
 90
        0
280
     0
281
     0
  0
CLASS
  1
ACMESCOPE
  2
AcMeScope
  3
AcMeServices
 90
        0
280
     0
281
     0
  0
CLASS
  1
ACMECOMMANDHISTORY
  2
AcMeCommandHistory
  3
AcMeServices
 90
        0
280
     0
281
     0
  0
CLASS
  1
DICTIONARYVAR
  2
AcDbDictionaryVar
  3
ObjectDBX Classes
 90
        0
280
     0
281
     0
  0
CLASS
  1
ACIMSYSVARMAN
  2
AcImSysVarManager
  3
AcMeServices
 90
        0
280
     0
281
     0
  0
CLASS
  1
ACIMREALSYSVAR
  2
AcImRealSysVar
  3
AcMeServices
 90
        0
280
     0
281
     0
  0
CLASS
  1
ACIMINTSYSVAR
  2
AcImIntSysVar
  3
AcMeServices
 90
        0
280
     0
281
     0
  0
CLASS
  1
ACMEDRAWINGMAN
  2
AcMeDrawingMan
  3
AcMeServices
 90
        0
280
     0
281
     0
  0
CLASS
  1
ACMEVIEW
  2
AcMeView
  3
AcMeServices
 90
        0
280
     0
281
     0
  0
CLASS
  1
ACDBENTITYCACHE
  2
AcMeEntityCache
  3
AcMeServices
 90
        0
280
     0
281
     0
  0
CLASS
  1
GSMANAGER
  2
AcMeGSManager
  3
AcMeServices
 90
        0
280
     0
281
     0
  0
CLASS
  1
AMDTINTERNALREACTOR
  2
AmdtInternalReactor
  3
AcMeServices
 90
        0
280
     0
281
     0
  0
CLASS
  1
ACMESTATEMGR
  2
AcMeStateMgr
  3
AcMeServices
 90
        0
280
     0
281
     0
  0
CLASS
  1
ACGREFMASTER
  2
AcGrefMaster
  3
AcAttribServices
 90
        0
280
     0
281
     0
  0
CLASS
  1
ACME_DATABASE
  2
AcMeDbDatabase
  3
AcMeServices
 90
        0
280
     0
281
     0
  0
CLASS
  1
ACRFINSADJUSTERMGR
  2
AcRfInsAdjusterMgr
  3
AcMeServices
 90
        0
280
     0
281
     0
  0
CLASS
  1
ACGREFACADMASTER
  2
AcGrefacadMaster
  3
AcGrefServices
 90
        0
280
     0
281
     0
  0
CLASS
  1
AMIMASTER
  2
AmiMaster
  3
AmiServices
 90
        0
280
     0
281
     0
  0
CLASS
  1
ACMDATADICTIONARY
  2
AcmDataDictionary
  3
"AcmSymBB|Product Description: AutoCAD Mechanical|Company: Autodesk"
 90
        0
280
     0
281
     0
  0
CLASS
  1
ACMDATAENTRYBLOCK
  2
AcmDataEntryBlock
  3
"AcmSymBB|Product Description: AutoCAD Mechanical|Company: Autodesk"
 90
        0
280
     0
281
     0
  0
CLASS
  1
ACIMSTRSYSVAR
  2
AcImStrSysVar
  3
AcMeServices
 90
        0
280
     0
281
     0
  0
CLASS
  1
ACMSTANDARDISO
  2
AcmStandardISO
  3
"Amdt_StdImp|Product Description: AutoCAD Mechanical|Company: Autodesk"
 90
        0
280
     0
281
     0
  0
CLASS
  1
AMGOBJPROPCFG
  2
AmgObjPropCfg
  3
"AmgLay|Product Description: AutoCAD Mechanical|Company: Autodesk"
 90
        1
280
     0
281
     0
  0
CLASS
  1
AMDTEDGESTANDARDISO
  2
AmdtEdgeStdISO
  3
"Amdt_StdImp|Product Description: AutoCAD Mechanical|Company: Autodesk"
 90
        0
280
     0
281
     0
  0
CLASS
  1
ACMSURFSTANDARDISO
  2
AcmSurfTextStdISO
  3
"Amdt_StdImp|Product Description: AutoCAD Mechanical|Company: Autodesk"
 90
        0
280
     0
281
     0
  0
CLASS
  1
ACMFCFSTANDARDISO
  2
AcmFCFStdISO
  3
"Amdt_StdImp|Product Description: AutoCAD Mechanical|Company: Autodesk"
 90
        0
280
     0
281
     0
  0
CLASS
  1
ACMWELDSTANDARDISO
  2
AcmWeldingStdISO
  3
"Amdt_StdImp|Product Description: AutoCAD Mechanical|Company: Autodesk"
 90
        0
280
     0
281
     0
  0
CLASS
  1
ACMIDSTANDARDISO
  2
AcmIdStdISO
  3
"Amdt_StdImp|Product Description: AutoCAD Mechanical|Company: Autodesk"
 90
        0
280
     0
281
     0
  0
CLASS
  1
ACMDATUMSTANDARDISO
  2
AcmDatumStdISO
  3
"Amdt_StdImp|Product Description: AutoCAD Mechanical|Company: Autodesk"
 90
        0
280
     0
281
     0
  0
CLASS
  1
ACMBOMSTANDARDISO
  2
AcmBOMStdISO
  3
"Amdt_StdImp|Product Description: AutoCAD Mechanical|Company: Autodesk"
 90
        0
280
     0
281
     0
  0
CLASS
  1
ACMDETAILSTANDARDISO
  2
AmdtDetailSymStdISO
  3
"Amdt_StdImp|Product Description: AutoCAD Mechanical|Company: Autodesk"
 90
        0
280
     0
281
     0
  0
CLASS
  1
ACMSECTIONSTANDARDISO
  2
AmdtSectionSymStdISO
  3
"Amdt_StdImp|Product Description: AutoCAD Mechanical|Company: Autodesk"
 90
        0
280
     0
281
     0
  0
CLASS
  1
ACMCENTERLINESTANDARDISO
  2
AmdtCenterLineStdISO
  3
"Amdt_StdImp|Product Description: AutoCAD Mechanical|Company: Autodesk"
 90
        0
280
     0
281
     0
  0
CLASS
  1
ACAMGLAYSTD
  2
AcAmgLayStd
  3
"AmgLay|Product Description: AutoCAD Mechanical|Company: Autodesk"
 90
        0
280
     0
281
     0
  0
CLASS
  1
ACAMGDIMSTD
  2
AcAmgDimStd
  3
"AmgDim|Product Description: AutoCAD Mechanical|Company: Autodesk"
 90
        0
280
     0
281
     0
  0
CLASS
  1
ACAMGTITLESTD
  2
AcAmgTitleStd
  3
"AmgTitle|Product Description: AutoCAD Mechanical|Company: Autodesk"
 90
        0
280
     0
281
     0
  0
CLASS
  1
ACAMGFILTERDAT
  2
AcAmgFilterDat
  3
"AcadM|Product Description: AutoCAD Mechanical|Company: Autodesk"
 90
        0
280
     0
281
     0
  0
CLASS
  1
LAYER_INDEX
  2
AcDbLayerIndex
  3
ObjectDBX Classes
 90
    32768
280
     0
281
     0
  0
CLASS
  1
IDBUFFER
  2
AcDbIdBuffer
  3
ObjectDBX Classes
 90
    32768
280
     0
281
     0
  0
CLASS
  1
PLOTSETTINGS
  2
AcDbPlotSettings
  3
ObjectDBX Classes
 90
    32768
280
     0
281
     0
  0
CLASS
  1
AMDTFORMULAUPDATEDISPATCHER
  2
AmdtFormulaUpdateDispatcher
  3
AcMeServices
 90
        0
280
     0
281
     0
  0
CLASS
  1
ACMSTANDARDANSI
  2
AcmStandardANSI
  3
"Amdt_StdImp|Product Description: AutoCAD Mechanical|Company: Autodesk"
 90
        0
280
     0
281
     0
  0
CLASS
  1
ACMSURFSTANDARDANSI
  2
AcmSurfTextStdANSI
  3
"Amdt_StdImp|Product Description: AutoCAD Mechanical|Company: Autodesk"
 90
        0
280
     0
281
     0
  0
CLASS
  1
ACMFCFSTANDARDANSI
  2
AcmFCFStdANSI
  3
"Amdt_StdImp|Product Description: AutoCAD Mechanical|Company: Autodesk"
 90
        0
280
     0
281
     0
  0
CLASS
  1
ACMWELDSTANDARDANSI
  2
AcmWeldingStdANSI
  3
"Amdt_StdImp|Product Description: AutoCAD Mechanical|Company: Autodesk"
 90
        0
280
     0
281
     0
  0
CLASS
  1
ACMIDSTANDARDANSI
  2
AcmIdStdANSI
  3
"Amdt_StdImp|Product Description: AutoCAD Mechanical|Company: Autodesk"
 90
        0
280
     0
281
     0
  0
CLASS
  1
ACMDATUMSTANDARDANSI
  2
AcmDatumStdANSI
  3
"Amdt_StdImp|Product Description: AutoCAD Mechanical|Company: Autodesk"
 90
        0
280
     0
281
     0
  0
CLASS
  1
ACMBOMSTANDARDANSI
  2
AcmBOMStdANSI
  3
"Amdt_StdImp|Product Description: AutoCAD Mechanical|Company: Autodesk"
 90
        0
280
     0
281
     0
  0
CLASS
  1
ACMDETAILSTANDARDANSI
  2
AmdtDetailSymStdANSI
  3
"Amdt_StdImp|Product Description: AutoCAD Mechanical|Company: Autodesk"
 90
        0
280
     0
281
     0
  0
CLASS
  1
ACMSECTIONSTANDARDANSI
  2
AmdtSectionSymStdANSI
  3
"Amdt_StdImp|Product Description: AutoCAD Mechanical|Company: Autodesk"
 90
        0
280
     0
281
     0
  0
CLASS
  1
ACMCENTERLINESTANDARDANSI
  2
AmdtCenterLineStdANSI
  3
"Amdt_StdImp|Product Description: AutoCAD Mechanical|Company: Autodesk"
 90
        0
280
     0
281
     0
  0
CLASS
  1
ACMBOM
  2
AcmBom
  3
"AcmSymBB|Product Description: AutoCAD Mechanical|Company: Autodesk"
 90
        0
280
     0
281
     0
  0
CLASS
  1
ACMDATAENTRYPART
  2
AcmDataEntryPart
  3
"AcmSymBB|Product Description: AutoCAD Mechanical|Company: Autodesk"
 90
    32768
280
     0
281
     0
  0
CLASS
  1
ACMPARTREF
  2
AcmPartRef
  3
"AcmSymBB|Product Description: AutoCAD Mechanical|Company: Autodesk"
 90
    35839
280
     0
281
     1
  0
CLASS
  1
ACDBCIRCARCRES
  2
AcDbCircArcRes
  3
AcGrefServices
 90
    32768
280
     0
281
     0
  0
CLASS
  1
ACMBOMROW
  2
AcmBomRow
  3
"AcmSymBB|Product Description: AutoCAD Mechanical|Company: Autodesk"
 90
    32768
280
     0
281
     0
  0
CLASS
  1
ACMBALLOON
  2
AcmBalloon
  3
"AcmSymBB|Product Description: AutoCAD Mechanical|Company: Autodesk"
 90
    35839
280
     0
281
     1
  0
CLASS
  1
AMDTNOTE
  2
AmdtNote
  3
"AcmSymBB|Product Description: AutoCAD Mechanical|Company: Autodesk"
 90
    35839
280
     0
281
     1
  0
CLASS
  1
STDPART2D
  2
AmgStdPart
  3
"g3vace|Class: AmgStdPart|Product Description: AutoCAD Mechanical|Company: Autodesk"
 90
    35839
280
     0
281
     1
  0
CLASS
  1
ACDBSTDPARTRES_LINE
  2
AcDbStdPartRes_Line
  3
"g3vace|Class: AcDbStdPartRes_Line|Product Description: AutoCAD Mechanical|Company: Autodesk"
 90
    32768
280
     0
281
     0
  0
CLASS
  1
ACMDATAENTRY
  2
AcmDataEntry
  3
"AcmSymBB|Product Description: AutoCAD Mechanical|Company: Autodesk"
 90
        0
280
     0
281
     0
  0
CLASS
  1
ACDBOPPOLYLINERES
  2
AcDbOpPolylineRes
  3
AcGrefServices
 90
    32768
280
     0
281
     0
  0
CLASS
  1
ACMPARTLIST
  2
AcmPartList
  3
"AcmSymBB|Product Description: AutoCAD Mechanical|Company: Autodesk"
 90
    35839
280
     0
281
     1
  0
CLASS
  1
ACDBLINERES
  2
AcDbLineRes
  3
AcGrefServices
 90
        0
280
     0
281
     0
  0
CLASS
  1
ACRFINSADJ
  2
AcRfInsAdjuster
  3
AcMeServices
 90
    32768
280
     0
281
     0
  0
CLASS
  1
AM_DRAWING_MGR
  2
AcDmDwgMgr
  3
AcMechDwgViewMgmt
 90
        0
280
     0
281
     0
  0
CLASS
  1
AM_DWG_DOCUMENT
  2
AcDmDwgDocument
  3
AcMechDwgViewMgmt
 90
        0
280
     0
281
     0
  0
CLASS
  1
AM_DWG_SHEET
  2
AcDmSheet
  3
AcMechDwgViewMgmt
 90
        0
280
     0
281
     0
  0
CLASS
  1
AM_VIEWDIMPARMAP
  2
AcDmViewDimParMap
  3
AcMechDwgViewMgmt
 90
        0
280
     0
281
     0
  0
CLASS
  1
AM_DWGMGR_NAME
  2
AcDmDwgMgrName
  3
AcMechDwgViewMgmt
 90
        0
280
     0
281
     0
  0
CLASS
  1
AMDTMENUSTATEMGR
  2
AmdtMenuStateMgr
  3
McadcomServices
 90
        0
280
     0
281
     0
  0
CLASS
  1
AMDTMCOMMENUSTATE
  2
AmdtMcomMenuState
  3
McadcomServices
 90
        0
280
     0
281
     0
  0
CLASS
  1
ASAPP
  2
AcAsAppObject
  3
AutoSurfServices
 90
        0
280
     0
281
     0
  0
CLASS
  1
IM_STATIC_MAN
  2
AcImStaticVarManager
  3
AcMeServices
 90
        0
280
     0
281
     0
  0
CLASS
  1
ACIMDBLSTATICVAR
  2
AcImDblStaticVar
  3
AcMeServices
 90
        0
280
     0
281
     0
  0
CLASS
  1
ACIMSTRSTATICVAR
  2
AcImStrStaticVar
  3
AcMeServices
 90
        0
280
     0
281
     0
  0
CLASS
  1
ACIMINTSTATICVAR
  2
AcImIntStaticVar
  3
AcMeServices
 90
        0
280
     0
281
     0
  0
CLASS
  1
ACASGREFMASTER
  2
AcAsGrefMaster
  3
AutoSurfResolverServices
 90
        0
280
     0
281
     0
  0
CLASS
  1
ACADGREFMODULE
  2
AcAdGrefModule
  3
AdGrefServices
 90
        0
280
     0
281
     0
  0
CLASS
  1
AMDTMAPISURFMOUDULE
  2
AmdtMApiSurfModule
  3
MApiSurfServices
 90
        0
280
     0
281
     0
  0
CLASS
  1
MAPIAMMOUDLE
  2
MApiAmModule
  3
MApiAmServices
 90
        0
280
     0
281
     0
  0
CLASS
  1
AMDTADMENUSTATE
  2
AmdtAdMenuState
  3
DesignerServices
 90
        0
280
     0
281
     0
  0
CLASS
  1
ADAPPL
  2
AcAdAppl
  3
DesignerServices
 90
        0
280
     0
281
     0
  0
CLASS
  1
DEPMGR
  2
AcAdDepMgr
  3
DesignerServices
 90
        0
280
     0
281
     0
  0
CLASS
  1
PARAMMGR
  2
AcAdParamMgr
  3
DesignerServices
 90
        0
280
     0
281
     0
  0
CLASS
  1
PARAMSCOPE
  2
AcAdParamScope
  3
DesignerServices
 90
        0
280
     0
281
     0
  0
CLASS
  1
NAMEDAPPL
  2
AcAdNamedAppl
  3
DesignerServices
 90
        0
280
     0
281
     0
  0
CLASS
  1
ADHNTMPLT
  2
AdHoleNoteTemplateMgr
  3
DesignerServices
 90
    32768
280
     0
281
     0
  0
CLASS
  1
AM_HNTEMPLATE_MGR_NAME
  2
AdHoleNoteTemplateMgrName
  3
DesignerServices
 90
    32768
280
     0
281
     0
  0
CLASS
  1
AMDTDMMENUSTATE
  2
AmdtDmMenuState
  3
AcMechDwgViewMgmt
 90
        0
280
     0
281
     0
  0
CLASS
  1
MAPIADMODULE
  2
MApiAdModule
  3
MApiAdServices
 90
        0
280
     0
281
     0
  0
CLASS
  1
AMDTAMMENUSTATE
  2
AmdtAmMenuState
  3
DesignerAssemblies
 90
        0
280
     0
281
     0
  0
CLASS
  1
ACAMPROJECT
  2
AcAmProject
  3
DesignerAssemblies
 90
        0
280
     0
281
     0
  0
CLASS
  1
ACAMGRCOMPDEF
  2
AcAmGrCompDef
  3
DesignerAssemblies
 90
        0
280
     0
281
     0
  0
CLASS
  1
ACCMCONTEXT
  2
AcCmContext
  3
DesignerAssemblies
 90
        0
280
     0
281
     0
  0
CLASS
  1
ACAMCOMPDEF
  2
AcAmCompDef
  3
DesignerAssemblies
 90
        0
280
     0
281
     0
  0
CLASS
  1
ACAMCOMPDEFMGR
  2
AcAmCompDefMgr
  3
DesignerAssemblies
 90
        0
280
     0
281
     0
  0
CLASS
  1
AMCONTEXTMGR
  2
AcAmContextMgr
  3
DesignerAssemblies
 90
        0
280
     0
281
     0
  0
CLASS
  1
ACAMCONTEXTMODELER
  2
AcAmContextModeler
  3
DesignerAssemblies
 90
        0
280
     0
281
     0
  0
CLASS
  1
CATALOGSTATE
  2
AcAmCatalogState
  3
DesignerAssemblies
 90
        0
280
     0
281
     0
  0
CLASS
  1
ACAMGRCOMPDEFSET
  2
AcAmGrCompDefSet
  3
DesignerAssemblies
 90
        0
280
     0
281
     0
  0
CLASS
  1
AMDTBROWSERDBTAB
  2
AmdtBrowserDbTab
  3
McadcomServices
 90
        0
280
     0
281
     0
  0
CLASS
  1
CBROWSERAPPOBJECT
  2
CBrowserAppObject
  3
McadcomServices
 90
        0
280
     0
281
     0
  0
CLASS
  1
DM_PLACEHOLDER
  2
AcDmSelsetPlaceholder
  3
AcMechDwgViewMgmt
 90
        0
280
     0
281
     0
  0
CLASS
  1
ACMPICKOBJ
  2
AcmPickEnt
  3
"AcmSymBB|Product Description: AutoCAD Mechanical|Company: Autodesk"
 90
    32768
280
     0
281
     1
  0
CLASS
  1
ACMNOTESTANDARDISO
  2
AmdtNoteStdISO
  3
"Amdt_StdImp|Product Description: AutoCAD Mechanical|Company: Autodesk"
 90
        0
280
     0
281
     0
  0
CLASS
  1
ACMNOTESTANDARDANSI
  2
AmdtNoteStdANSI
  3
"Amdt_StdImp|Product Description: AutoCAD Mechanical|Company: Autodesk"
 90
        0
280
     0
281
     0
  0
CLASS
  1
ACMTHREADLINESTANDARDISO
  2
AmdtThreadLineStdISO
  3
"Amdt_StdImp|Product Description: AutoCAD Mechanical|Company: Autodesk"
 90
        0
280
     0
281
     0
  0
CLASS
  1
ACMTHREADLINESTANDARDANSI
  2
AmdtThreadLineStdANSI
  3
"Amdt_StdImp|Product Description: AutoCAD Mechanical|Company: Autodesk"
 90
        0
280
     0
281
     0
  0
CLASS
  1
TABLESTYLE
  2
AcDbTableStyle
  3
ObjectDBX Classes
 90
     4095
280
     0
281
     0
  0
CLASS
  1
SORTENTSTABLE
  2
AcDbSortentsTable
  3
ObjectDBX Classes
 90
        0
280
     0
281
     0
  0
CLASS
  1
MATERIAL
  2
AcDbMaterial
  3
ObjectDBX Classes
 90
     1024
280
     0
281
     0
  0
CLASS
  1
VISUALSTYLE
  2
AcDbVisualStyle
  3
ObjectDBX Classes
 90
     4095
280
     0
281
     0
  0
CLASS
  1
ACRFATTGENMGR
  2
AcRfAttGeneralMgr
  3
AcAttribServices
 90
        0
280
     0
281
     0
  0
CLASS
  1
ACRFOBJATTMGR
  2
AcRfObjAttGroupMgr
  3
AcAttribServices
 90
        0
280
     0
281
     0
  0
CLASS
  1
ACRFMCADAPIATTHOLDER
  2
AcRfMCADAPIAttHolder
  3
AcAttribServices
 90
        0
280
     0
281
     0
  0
CLASS
  1
AMDTSYSATTR
  2
AmdtSystemAttribute
  3
AcAttribServices
 90
        0
280
     0
281
     0
  0
CLASS
  1
ACMTAPERSTANDARDISO
  2
AcmTaperStdISO
  3
"Amdt_StdImp|Product Description: AutoCAD Mechanical|Company: Autodesk"
 90
        0
280
     0
281
     0
  0
CLASS
  1
CAMSSTRUCTBTNSTATE
  2
StructBtnState
  3
L"DesignerAssemblies"
 90
        0
280
     0
281
     0
  0
CLASS
  1
DIMASSOC
  2
AcDbDimAssoc
  3
"AcDbDimAssoc|Product Desc:     AcDim ARX App For Dimension|Company:          Autodesk, Inc.|WEB Address:      www.autodesk.com"
 90
    32768
280
     0
281
     0
  0
CLASS
  1
EXACXREFPANELOBJECT
  2
ExAcXREFPanelObject
  3
EXAC_ESW
 90
    33793
280
     0
281
     0
  0
CLASS
  1
NPOCOLLECTION
  2
AcDbImpNonPersistentObjectsCollection
  3
ObjectDBX Classes
 90
    33921
280
     0
281
     0
  0
CLASS
  1
AMDTEDGESTANDARDISO13715
  2
AmdtEdgeStdISO13715
  3
"Amdt_StdImp|Product Description: AutoCAD Mechanical|Company: Autodesk"
 90
        0
280
     0
281
     0
  0
CLASS
  1
AMDTNOTETEMPLATEDB
  2
AmdtNoteTemplateDB
  3
AMDT_STDIMP_MODULE_NAME
 90
        0
280
     0
281
     0
  0
CLASS
  1
ACAMGHOLECHARTSTDISO
  2
AcAmgHoleChartStdISO
  3
ACMSYMBB_MODULE_NAME
 90
        0
280
     0
281
     0
  0
CLASS
  1
ACMTAPERSTANDARDANSI
  2
AcmTaperStdANSI
  3
"Amdt_StdImp|Product Description: AutoCAD Mechanical|Company: Autodesk"
 90
        0
280
     0
281
     0
  0
CLASS
  1
ACAMGHOLECHARTSTDANSI
  2
AcAmgHoleChartStdANSI
  3
ACMSYMBB_MODULE_NAME
 90
        0
280
     0
281
     0
  0
CLASS
  1
ACAMSTDPCOMPDEF
  2
AcAmStdpCompDef
  3
DesignerAssemblies
 90
    32768
280
     0
281
     0
  0
CLASS
  1
ACAMCOMP
  2
AcAmComp
  3
DesignerAssemblies
 90
    32768
280
     0
281
     0
  0
CLASS
  1
AC_AM_STDP_VIEW_DEF
  2
AcAmStdpViewDef
  3
DesignerAssemblies
 90
    32768
280
     0
281
     0
  0
CLASS
  1
AC_AM_MVD_DEP_MGR
  2
AcAmMVDdepMgr
  3
DesignerAssemblies
 90
        0
280
     0
281
     0
  0
CLASS
  1
AC_AM_MASTER_VIEW_DEF
  2
AcAmMasterViewDef
  3
DesignerAssemblies
 90
        0
280
     0
281
     0
  0
CLASS
  1
AC_AM_DIRTY_NODES
  2
AcAmDirtyNodes
  3
DesignerAssemblies
 90
        0
280
     0
281
     0
  0
CLASS
  1
AC_AM_MAPPER_CACHE
  2
AcAmMapperCache
  3
DesignerAssemblies
 90
        0
280
     0
281
     0
  0
CLASS
  1
ACAMMVDBACKUPOBJECT
  2
AcAmMVDBackupObject
  3
DesignerAssemblies
 90
        0
280
     0
281
     0
  0
CLASS
  1
AC_AM_COMP_VIEW_INST
  2
AcAmCompView
  3
DesignerAssemblies
 90
    32768
280
     0
281
     0
  0
CLASS
  1
AC_AM_2D_XREF_MGR
  2
AcAmXrefMgr2d
  3
DesignerAssemblies
 90
        0
280
     0
281
     0
  0
CLASS
  1
AC_AM_HIDE_SITUATION
  2
AcAmHideSituation
  3
DesignerAssemblies
 90
    32768
280
     0
281
     0
  0
CLASS
  1
AC_AM_TRANSFORM_GHOST
  2
AcDbTransformGhost
  3
DesignerAssemblies
 90
    32768
280
     0
281
     1
  0
CLASS
  1
L"OBJCLONER"
  2
ObjCloner
  3
DesignerAssemblies
 90
    32768
280
     0
281
     1
  0
ENDSEC
  0
SECTION
  2
TABLES
  0
TABLE
  2
VPORT
  5
8
330
0
100
AcDbSymbolTable
 70
     1
  0
VPORT
  5
B0EC
330
8
100
AcDbSymbolTableRecord
100
AcDbViewportTableRecord
  2
*Active
 70
     0
 10
0.0
 20
0.0
 11
1.0
 21
1.0
 12
6223.476696955446
 22
-5487.646164455515
 13
0.0
 23
0.0
 14
2.5
 24
2.5
 15
10.0
 25
10.0
 16
0.0
 26
0.0
 36
1.0
 17
0.0
 27
0.0
 37
0.0
 40
212.0007389770854
 41
1.648648648648648
 42
50.0
 43
-1370.695619172058
 44
-1370.695619172058
 50
0.0
 51
0.0
 71
     0
 72
   100
 73
     1
 74
     3
 75
     0
 76
     0
 77
     0
 78
     0
281
     0
 65
     0
110
0.0
120
0.0
130
0.0
111
1.0
121
0.0
131
0.0
112
0.0
122
1.0
132
0.0
 79
     0
146
0.0
  0
ENDTAB
  0
TABLE
  2
LTYPE
  5
5
330
0
100
AcDbSymbolTable
 70
    23
  0
LTYPE
  5
14
330
5
100
AcDbSymbolTableRecord
100
AcDbLinetypeTableRecord
  2
ByBlock
 70
     0
  3

 72
    65
 73
     0
 40
0.0
  0
LTYPE
  5
15
330
5
100
AcDbSymbolTableRecord
100
AcDbLinetypeTableRecord
  2
ByLayer
 70
     0
  3

 72
    65
 73
     0
 40
0.0
  0
LTYPE
  5
16
330
5
100
AcDbSymbolTableRecord
100
AcDbLinetypeTableRecord
  2
Continuous
 70
     0
  3
Solid line
 72
    65
 73
     0
 40
0.0
  0
LTYPE
  5
4F
330
5
100
AcDbSymbolTableRecord
100
AcDbLinetypeTableRecord
  2
AM_ISO02W050
 70
     0
  3
__ __ __ __ __ __ __ __ __ __ __ __ __ __ __
 72
    65
 73
     2
 40
7.5
 49
6.0
 74
     0
 49
-1.5
 74
     0
  0
LTYPE
  5
52
330
5
100
AcDbSymbolTableRecord
100
AcDbLinetypeTableRecord
  2
Amconstr
 70
     0
  3
_______________________
 72
    65
 73
     2
 40
9999.0
 49
9999.0
 74
     0
 49
0.0
 74
     0
  0
LTYPE
  5
64
330
5
100
AcDbSymbolTableRecord
100
AcDbLinetypeTableRecord
  2
ACISOWELD
 70
     0
  3
_ _ _ _ _
 72
    65
 73
     2
 40
2.0
 49
2.0
 74
     0
 49
-1.0
 74
     0
  0
LTYPE
  5
65
330
5
100
AcDbSymbolTableRecord
100
AcDbLinetypeTableRecord
  2
ACISOTGB
 70
     0
  3
__ . . __ . .
 72
    65
 73
     6
 40
9.0
 49
4.0
 74
     0
 49
-1.0
 74
     0
 49
1.0
 74
     0
 49
-1.0
 74
     0
 49
1.0
 74
     0
 49
-1.0
 74
     0
  0
LTYPE
  5
66
330
5
100
AcDbSymbolTableRecord
100
AcDbLinetypeTableRecord
  2
ACISOTGL
 70
     0
  3
_ _ _ _ _
 72
    65
 73
     2
 40
3.0
 49
2.0
 74
     0
 49
-1.0
 74
     0
  0
LTYPE
  5
69
330
5
100
AcDbSymbolTableRecord
100
AcDbLinetypeTableRecord
  2
CENTER
 70
     0
  3
__ . __
 72
    65
 73
     4
 40
7.0
 49
4.0
 74
     0
 49
-1.0
 74
     0
 49
1.0
 74
     0
 49
-1.0
 74
     0
  0
LTYPE
  5
A6E
330
5
100
AcDbSymbolTableRecord
100
AcDbLinetypeTableRecord
  2
PHANTOM2
 70
     0
  3
Phantom (.5x) ___ _ _ ___ _ _ ___ _ _ ___ _ _
 72
    65
 73
     6
 40
31.75
 49
15.875
 74
     0
 49
-3.174999999999999
 74
     0
 49
3.174999999999999
 74
     0
 49
-3.174999999999999
 74
     0
 49
3.174999999999999
 74
     0
 49
-3.174999999999999
 74
     0
  0
LTYPE
  5
4DED
330
5
100
AcDbSymbolTableRecord
100
AcDbLinetypeTableRecord
  2
中線
 70
     0
  3
___________________
 72
    65
 73
     2
 40
2.0
 49
1.0
 74
     0
 49
1.0
 74
     0
  0
LTYPE
  5
4DF6
330
5
100
AcDbSymbolTableRecord
100
AcDbLinetypeTableRecord
  2
細線
 70
     0
  3
___________________
 72
    65
 73
     2
 40
2.0
 49
1.0
 74
     0
 49
1.0
 74
     0
  0
LTYPE
  5
4DF7
330
5
100
AcDbSymbolTableRecord
100
AcDbLinetypeTableRecord
  2
太線
 70
     0
  3
___________________
 72
    65
 73
     2
 40
2.0
 49
1.0
 74
     0
 49
1.0
 74
     0
  0
LTYPE
  5
4EA7
330
5
100
AcDbSymbolTableRecord
100
AcDbLinetypeTableRecord
  2
文字
 70
     0
  3
_________________
 72
    65
 73
     2
 40
2.0
 49
1.0
 74
     0
 49
1.0
 74
     0
  0
LTYPE
  5
4EA9
330
5
100
AcDbSymbolTableRecord
100
AcDbLinetypeTableRecord
  2
寸法線
 70
     0
  3
________________
 72
    65
 73
     2
 40
2.0
 49
1.0
 74
     0
 49
1.0
 74
     0
  0
LTYPE
  5
4F12
330
5
100
AcDbSymbolTableRecord
100
AcDbLinetypeTableRecord
  2
ハッチング
 70
     0
  3
_________________
 72
    65
 73
     2
 40
2.0
 49
1.0
 74
     0
 49
1.0
 74
     0
  0
LTYPE
  5
5180
330
5
100
AcDbSymbolTableRecord
100
AcDbLinetypeTableRecord
  2
陰線1
 70
     0
  3
__ __ __ __
 72
    65
 73
     2
 40
4.0
 49
2.2
 74
     0
 49
-1.8
 74
     0
  0
LTYPE
  5
5182
330
5
100
AcDbSymbolTableRecord
100
AcDbLinetypeTableRecord
  2
切断線
 70
     0
  3
/\/-/\/-/\/-/\/-/\/-/\/
 72
    65
 73
     2
 40
11.0001
 49
0.0001
 74
     4
 75
   135
340
56
 46
0.04
 50
0.0
 44
0.0
 45
0.0
 49
-11.0
 74
     0
  0
LTYPE
  5
5183
330
5
100
AcDbSymbolTableRecord
100
AcDbLinetypeTableRecord
  2
想像線1
 70
     0
  3
__ __ __ _____ __ __ ____
 72
    65
 73
     6
 40
14.5
 49
6.0
 74
     0
 49
-1.5
 74
     0
 49
2.0
 74
     0
 49
-1.5
 74
     0
 49
2.0
 74
     0
 49
-1.5
 74
     0
  0
LTYPE
  5
5185
330
5
100
AcDbSymbolTableRecord
100
AcDbLinetypeTableRecord
  2
中心線1
 70
     0
  3
___ _ ___ _ ___
 72
    65
 73
     4
 40
18.0
 49
12.0
 74
     0
 49
-2.0
 74
     0
 49
2.0
 74
     0
 49
-2.0
 74
     0
  0
LTYPE
  5
5188
330
5
100
AcDbSymbolTableRecord
100
AcDbLinetypeTableRecord
  2
補助線
 70
     0
  3
______________
 72
    65
 73
     2
 40
2.0
 49
1.0
 74
     0
 49
1.0
 74
     0
  0
LTYPE
  5
6427
330
5
100
AcDbSymbolTableRecord
100
AcDbLinetypeTableRecord
  2
HIDDEN
 70
     0
  3
Hidden __ __ __ __ __ __ __ __ __ __ __ __ __ _
 72
    65
 73
     2
 40
0.375
 49
0.25
 74
     0
 49
-0.125
 74
     0
  0
LTYPE
  5
AF95
330
5
100
AcDbSymbolTableRecord
100
AcDbLinetypeTableRecord
  2
AM_ISO08W050
 70
     0
  3
____ . ____ . ____ . ____ . ____ . ____ . ____
 72
    65
 73
     4
 40
18.0
 49
12.0
 74
     0
 49
-1.5
 74
     0
 49
3.0
 74
     0
 49
-1.5
 74
     0
  0
LTYPE
  5
FD15
330
5
100
AcDbSymbolTableRecord
100
AcDbLinetypeTableRecord
  2
ACANSTGB
 70
     0
  3
__ . . __ . .
 72
    65
 73
     6
 40
0.35433070866
 49
0.15748031496
 74
     0
 49
-0.03937007874
 74
     0
 49
0.03937007874
 74
     0
 49
-0.03937007874
 74
     0
 49
0.03937007874
 74
     0
 49
-0.03937007874
 74
     0
  0
LTYPE
  5
FD16
330
5
100
AcDbSymbolTableRecord
100
AcDbLinetypeTableRecord
  2
ACANSTGL
 70
     0
  3
_ _ _ _ _
 72
    65
 73
     2
 40
0.11811023622
 49
0.07874015748
 74
     0
 49
-0.03937007874
 74
     0
  0
ENDTAB
  0
TABLE
  2
LAYER
  5
2
102
{ACAD_XDICTIONARY
360
3F95
102
}
330
0
100
AcDbSymbolTable
 70
    15
  0
LAYER
  5
10
330
2
100
AcDbSymbolTableRecord
100
AcDbLayerTableRecord
  2
0
 70
     0
 62
     7
  6
Continuous
370
    -3
390
F
  0
LAYER
  5
6D1
330
2
100
AcDbSymbolTableRecord
100
AcDbLayerTableRecord
  2
Defpoints
 70
     0
 62
     7
  6
Continuous
290
     0
370
    -3
390
F
  0
LAYER
  5
AC9F
330
2
100
AcDbSymbolTableRecord
100
AcDbLayerTableRecord
  2
size
 70
     0
 62
     5
  6
Continuous
290
     0
370
    25
390
F
  0
LAYER
  5
ACA0
330
2
100
AcDbSymbolTableRecord
100
AcDbLayerTableRecord
  2
waku
 70
     0
 62
     7
  6
Continuous
370
    35
390
F
  0
LAYER
  5
ACA1
330
2
100
AcDbSymbolTableRecord
100
AcDbLayerTableRecord
  2
AM_6
 70
     0
 62
     2
  6
文字
370
    15
390
F
1001
AcAecLayerStandard
1000

1000

  0
LAYER
  5
AD64
330
2
100
AcDbSymbolTableRecord
100
AcDbLayerTableRecord
  2
AM_2
 70
     0
 62
     1
  6
細線
370
    15
390
F
1001
AcAecLayerStandard
1000

1000

  0
LAYER
  5
AD68
330
2
100
AcDbSymbolTableRecord
100
AcDbLayerTableRecord
  2
AM_5
 70
     0
 62
     3
  6
寸法線
370
    15
390
F
1001
AcAecLayerStandard
1000

1000

  0
LAYER
  5
B5F5
330
2
100
AcDbSymbolTableRecord
100
AcDbLayerTableRecord
  2
0部品6
 70
     0
 62
    13
  6
細線
370
    30
390
F
1001
AcAecLayerStandard
1000

1000

  0
LAYER
  5
B5F7
330
2
100
AcDbSymbolTableRecord
100
AcDbLayerTableRecord
  2
0部品4
 70
     0
 62
    70
  6
細線
370
    30
390
F
1001
AcAecLayerStandard
1000

1000

  0
LAYER
  5
B5F9
330
2
100
AcDbSymbolTableRecord
100
AcDbLayerTableRecord
  2
0部品10
 70
     0
 62
   131
  6
Continuous
370
    30
390
F
1001
AcAecLayerStandard
1000

1000

  0
LAYER
  5
B5FB
330
2
100
AcDbSymbolTableRecord
100
AcDbLayerTableRecord
  2
0部品18
 70
     0
 62
   254
  6
細線
370
    30
390
F
1001
AcAecLayerStandard
1000

1000

  0
LAYER
  5
B5FC
330
2
100
AcDbSymbolTableRecord
100
AcDbLayerTableRecord
  2
0部品1
 70
     0
 62
   213
  6
細線
370
    30
390
F
1001
AcAecLayerStandard
1000

1000

  0
LAYER
  5
B5FD
330
2
100
AcDbSymbolTableRecord
100
AcDbLayerTableRecord
  2
0部品2
 70
     0
 62
   163
  6
細線
370
    30
390
F
1001
AcAecLayerStandard
1000

1000

  0
LAYER
  5
B5FE
330
2
100
AcDbSymbolTableRecord
100
AcDbLayerTableRecord
  2
0部品3
 70
     0
 62
   122
  6
細線
370
    30
390
F
1001
AcAecLayerStandard
1000

1000

  0
LAYER
  5
2E415
102
{ACAD_XDICTIONARY
360
2E416
102
}
330
2
100
AcDbSymbolTableRecord
100
AcDbLayerTableRecord
  2
AM_1
 70
     0
 62
    30
  6
太線
370
    25
390
F
1001
AcAecLayerStandard
1000

1000

  0
ENDTAB
  0
TABLE
  2
STYLE
  5
3
330
0
100
AcDbSymbolTable
 70
     7
  0
STYLE
  5
11
330
3
100
AcDbSymbolTableRecord
100
AcDbTextStyleTableRecord
  2
STANDARD
 70
     0
 40
0.0
 41
0.7
 50
0.0
 71
     0
 42
3.2
  3
romans.shx
  4
extfont.shx
  0
STYLE
  5
56
330
3
100
AcDbSymbolTableRecord
100
AcDbTextStyleTableRecord
  2

 70
     1
 40
0.0
 41
1.0
 50
0.0
 71
     0
 42
2.5
  3
ltypeshp.shx
  4

  0
STYLE
  5
58
330
3
100
AcDbSymbolTableRecord
100
AcDbTextStyleTableRecord
  2
ACISOTS
 70
     0
 40
1.0
 41
1.0
 50
0.0
 71
     0
 42
2.5
  3
isocp.shx
  4
extfont.shx
  0
STYLE
  5
63
330
3
100
AcDbSymbolTableRecord
100
AcDbTextStyleTableRecord
  2
ACISOGDT
 70
     0
 40
0.0
 41
1.0
 50
0.0
 71
     0
 42
2.5
  3
amgdt.shx
  4

  0
STYLE
  5
A74
330
3
100
AcDbSymbolTableRecord
100
AcDbTextStyleTableRecord
  2
DIM
 70
     0
 40
0.0
 41
1.0
 50
0.0
 71
     0
 42
2.5
  3
monotxt.shx
  4
extfont.shx
  0
STYLE
  5
FD18
330
3
100
AcDbSymbolTableRecord
100
AcDbTextStyleTableRecord
  2
ACANSTS
 70
     0
 40
1.0
 41
1.0
 50
0.0
 71
     0
 42
0.2
  3
romans.shx
  4
extfont.shx
  0
STYLE
  5
FD19
330
3
100
AcDbSymbolTableRecord
100
AcDbTextStyleTableRecord
  2
ACANSGDT
 70
     0
 40
0.0
 41
1.0
 50
0.0
 71
     0
 42
0.2
  3
amgdt.shx
  4

  0
ENDTAB
  0
TABLE
  2
VIEW
  5
6
330
0
100
AcDbSymbolTable
 70
     6
  0
VIEW
  5
AE1
330
6
100
AcDbSymbolTableRecord
100
AcDbViewTableRecord
  2
AM_VIEW1
 70
     0
 40
2203.896457765668
 10
5264.599158088851
 20
3198.765197920841
 41
2970.0
 11
0.0
 21
0.0
 31
1.0
 12
0.0
 22
0.0
 32
0.0
 42
50.0
 43
-1370.695619172058
 44
-1370.695619172058
 50
0.0
 71
     0
281
     0
 72
     0
  0
VIEW
  5
AE2
330
6
100
AcDbSymbolTableRecord
100
AcDbViewTableRecord
  2
AM_VIEW2
 70
     0
 40
2203.896457765668
 10
8234.599158088851
 20
3198.765197920841
 41
2970.0
 11
0.0
 21
0.0
 31
1.0
 12
0.0
 22
0.0
 32
0.0
 42
50.0
 43
-1370.695619172058
 44
-1370.695619172058
 50
0.0
 71
     0
281
     0
 72
     0
  0
VIEW
  5
AE3
330
6
100
AcDbSymbolTableRecord
100
AcDbViewTableRecord
  2
AM_VIEW3
 70
     0
 40
2203.896457765668
 10
5264.599158088851
 20
1202.661655686509
 41
2970.0
 11
0.0
 21
0.0
 31
1.0
 12
0.0
 22
0.0
 32
0.0
 42
50.0
 43
-1370.695619172058
 44
-1370.695619172058
 50
0.0
 71
     0
281
     0
 72
     0
  0
VIEW
  5
AE4
330
6
100
AcDbSymbolTableRecord
100
AcDbViewTableRecord
  2
AM_VIEW4
 70
     0
 40
2203.896457765668
 10
8234.599158088851
 20
1202.661655686509
 41
2970.0
 11
0.0
 21
0.0
 31
1.0
 12
0.0
 22
0.0
 32
0.0
 42
50.0
 43
-1370.695619172058
 44
-1370.695619172058
 50
0.0
 71
     0
281
     0
 72
     0
  0
VIEW
  5
AE5
330
6
100
AcDbSymbolTableRecord
100
AcDbViewTableRecord
  2
AM_VIEW5
 70
     0
 40
2203.896457765668
 10
6749.599158088852
 20
2200.713426803675
 41
2970.0
 11
0.0
 21
0.0
 31
1.0
 12
0.0
 22
0.0
 32
0.0
 42
50.0
 43
-1370.695619172058
 44
-1370.695619172058
 50
0.0
 71
     0
281
     0
 72
     0
  0
VIEW
  5
AE6
330
6
100
AcDbSymbolTableRecord
100
AcDbViewTableRecord
  2
AM_VIEW6
 70
     0
 40
4407.748837602181
 10
6749.599158088852
 20
2200.713426803675
 41
5939.9406
 11
0.0
 21
0.0
 31
1.0
 12
0.0
 22
0.0
 32
0.0
 42
50.0
 43
-1370.695619172058
 44
-1370.695619172058
 50
0.0
 71
     0
281
     0
 72
     0
  0
ENDTAB
  0
TABLE
  2
UCS
  5
7
330
0
100
AcDbSymbolTable
 70
     0
  0
ENDTAB
  0
TABLE
  2
APPID
  5
9
330
0
100
AcDbSymbolTable
 70
    67
  0
APPID
  5
12
330
9
100
AcDbSymbolTableRecord
100
AcDbRegAppTableRecord
  2
ACAD
 70
     0
  0
APPID
  5
30
330
9
100
AcDbSymbolTableRecord
100
AcDbRegAppTableRecord
  2
MCAD_NO_VIS
 70
     0
  0
APPID
  5
31
330
9
100
AcDbSymbolTableRecord
100
AcDbRegAppTableRecord
  2
ACAD_TEMP_GRAPHIC
 70
     0
  0
APPID
  5
44
330
9
100
AcDbSymbolTableRecord
100
AcDbRegAppTableRecord
  2
ACATTRIBSERVICES
 70
     0
  0
APPID
  5
7A1
330
9
100
AcDbSymbolTableRecord
100
AcDbRegAppTableRecord
  2
GENIUS_GENDIMSH_14
 70
     0
  0
APPID
  5
A49
330
9
100
AcDbSymbolTableRecord
100
AcDbRegAppTableRecord
  2
GENIUS_GENREC_14
 70
     0
  0
APPID
  5
A4A
330
9
100
AcDbSymbolTableRecord
100
AcDbRegAppTableRecord
  2
GENIUS_GENOBJ-N-REC_13
 70
     0
  0
APPID
  5
A4B
330
9
100
AcDbSymbolTableRecord
100
AcDbRegAppTableRecord
  2
GENIUS_GENODEF_13
 70
     0
  0
APPID
  5
A4C
330
9
100
AcDbSymbolTableRecord
100
AcDbRegAppTableRecord
  2
DCO15
 70
     0
  0
APPID
  5
ADC
330
9
100
AcDbSymbolTableRecord
100
AcDbRegAppTableRecord
  2
GENIUS_GENOLIS_13
 70
     0
  0
APPID
  5
ADD
330
9
100
AcDbSymbolTableRecord
100
AcDbRegAppTableRecord
  2
GENIUS_GENOENT_13
 70
     0
  0
APPID
  5
ADE
330
9
100
AcDbSymbolTableRecord
100
AcDbRegAppTableRecord
  2
GENIUS_GENOBJ-N-TIT_13
 70
     0
  0
APPID
  5
ADF
330
9
100
AcDbSymbolTableRecord
100
AcDbRegAppTableRecord
  2
GENIUS_GENTITLE_13
 70
     0
  0
APPID
  5
AE0
330
9
100
AcDbSymbolTableRecord
100
AcDbRegAppTableRecord
  2
GENIUS_GENOREF_13
 70
     0
  0
APPID
  5
AE7
330
9
100
AcDbSymbolTableRecord
100
AcDbRegAppTableRecord
  2
GENIUS_GENSCREG_15
 70
     0
  0
APPID
  5
AE8
330
9
100
AcDbSymbolTableRecord
100
AcDbRegAppTableRecord
  2
GENIUS_GENOBJ-N-SDF_13
 70
     0
  0
APPID
  5
FAF
330
9
100
AcDbSymbolTableRecord
100
AcDbRegAppTableRecord
  2
GENIUS_GENBLLY_14
 70
     0
  0
APPID
  5
FB0
330
9
100
AcDbSymbolTableRecord
100
AcDbRegAppTableRecord
  2
GENIUS_GENTRA_14
 70
     0
  0
APPID
  5
1285
330
9
100
AcDbSymbolTableRecord
100
AcDbRegAppTableRecord
  2
GENIUS_GENDTOL_13
 70
     0
  0
APPID
  5
142D
330
9
100
AcDbSymbolTableRecord
100
AcDbRegAppTableRecord
  2
GENIUS_GENOBJ-N-CEN_13
 70
     0
  0
APPID
  5
1AB5
330
9
100
AcDbSymbolTableRecord
100
AcDbRegAppTableRecord
  2
GENIUS_GENOBJ-N-CRS_13
 70
     0
  0
APPID
  5
1B36
330
9
100
AcDbSymbolTableRecord
100
AcDbRegAppTableRecord
  2
GENIUS_GENOBJ-N-HTC_13
 70
     0
  0
APPID
  5
1B37
330
9
100
AcDbSymbolTableRecord
100
AcDbRegAppTableRecord
  2
GENIUS_GENHATCH_13
 70
     0
  0
APPID
  5
216D
330
9
100
AcDbSymbolTableRecord
100
AcDbRegAppTableRecord
  2
GENIUS_GENOBJ-N-FIL_13
 70
     0
  0
APPID
  5
2356
330
9
100
AcDbSymbolTableRecord
100
AcDbRegAppTableRecord
  2
GEVID990412420
 70
     0
  0
APPID
  5
2357
330
9
100
AcDbSymbolTableRecord
100
AcDbRegAppTableRecord
  2
GEVDC
 70
     0
  0
APPID
  5
2358
330
9
100
AcDbSymbolTableRecord
100
AcDbRegAppTableRecord
  2
GEVCON
 70
     0
  0
APPID
  5
235B
330
9
100
AcDbSymbolTableRecord
100
AcDbRegAppTableRecord
  2
GEVRADREF
 70
     0
  0
APPID
  5
2360
330
9
100
AcDbSymbolTableRecord
100
AcDbRegAppTableRecord
  2
GENIUS_GENBH_13
 70
     0
  0
APPID
  5
2362
330
9
100
AcDbSymbolTableRecord
100
AcDbRegAppTableRecord
  2
GENIUS_GENOBJ-NBEHI-BHF_13
 70
     0
  0
APPID
  5
2364
330
9
100
AcDbSymbolTableRecord
100
AcDbRegAppTableRecord
  2
GENIUS_GENOBJ-NBEHI-BHB_13
 70
     0
  0
APPID
  5
2379
330
9
100
AcDbSymbolTableRecord
100
AcDbRegAppTableRecord
  2
GENIUS_GENOBJ-F-SCPASSM_13
 70
     0
  0
APPID
  5
3D74
330
9
100
AcDbSymbolTableRecord
100
AcDbRegAppTableRecord
  2
GENIUS_GENDIM_13
 70
     0
  0
APPID
  5
3D76
330
9
100
AcDbSymbolTableRecord
100
AcDbRegAppTableRecord
  2
GENIUS_GE3DTOL_13
 70
     0
  0
APPID
  5
3D9C
330
9
100
AcDbSymbolTableRecord
100
AcDbRegAppTableRecord
  2
AD_DRAW
 70
     0
  0
APPID
  5
3DE8
330
9
100
AcDbSymbolTableRecord
100
AcDbRegAppTableRecord
  2
ASURF_PCURVE_APPNAME
 70
     0
  0
APPID
  5
3DED
330
9
100
AcDbSymbolTableRecord
100
AcDbRegAppTableRecord
  2
AMG_3D2D_5.0
 70
     0
  0
APPID
  5
3E1B
330
9
100
AcDbSymbolTableRecord
100
AcDbRegAppTableRecord
  2
DESIGNERASSEMBLIES
 70
     0
  0
APPID
  5
3E20
330
9
100
AcDbSymbolTableRecord
100
AcDbRegAppTableRecord
  2
ACADM_DIM_EDIT
 70
     0
  0
APPID
  5
3E21
330
9
100
AcDbSymbolTableRecord
100
AcDbRegAppTableRecord
  2
AMDT_DM_ADJ
 70
     0
  0
APPID
  5
4143
330
9
100
AcDbSymbolTableRecord
100
AcDbRegAppTableRecord
  2
GENIUS_GENFIL_13
 70
     0
  0
APPID
  5
4144
330
9
100
AcDbSymbolTableRecord
100
AcDbRegAppTableRecord
  2
GENIUS_GENOBJ-N-CHA_13
 70
     0
  0
APPID
  5
4E17
330
9
100
AcDbSymbolTableRecord
100
AcDbRegAppTableRecord
  2
GEVID1008153417
 70
     0
  0
APPID
  5
4E58
330
9
100
AcDbSymbolTableRecord
100
AcDbRegAppTableRecord
  2
GEVID1008153418
 70
     0
  0
APPID
  5
4E5E
330
9
100
AcDbSymbolTableRecord
100
AcDbRegAppTableRecord
  2
GEVID1008153419
 70
     0
  0
APPID
  5
4E64
330
9
100
AcDbSymbolTableRecord
100
AcDbRegAppTableRecord
  2
GEVID1008153420
 70
     0
  0
APPID
  5
4E75
330
9
100
AcDbSymbolTableRecord
100
AcDbRegAppTableRecord
  2
GEVID1008153421
 70
     0
  0
APPID
  5
4EB7
330
9
100
AcDbSymbolTableRecord
100
AcDbRegAppTableRecord
  2
GENIUS_AMGTXT_16
 70
     0
  0
APPID
  5
7645
330
9
100
AcDbSymbolTableRecord
100
AcDbRegAppTableRecord
  2
GENIUS_GENOBJ-N-DIM_13
 70
     0
  0
APPID
  5
AAD0
330
9
100
AcDbSymbolTableRecord
100
AcDbRegAppTableRecord
  2
ACAD_DSTYLE_DIMARC_LENGTH_SYMBOL
 70
     0
  0
APPID
  5
AAD1
330
9
100
AcDbSymbolTableRecord
100
AcDbRegAppTableRecord
  2
ACAD_DSTYLE_DIMJOGGED_JOGANGLE_SYMBOL
 70
     0
  0
APPID
  5
AAFD
330
9
100
AcDbSymbolTableRecord
100
AcDbRegAppTableRecord
  2
ACAD_PSEXT
 70
     0
  0
APPID
  5
AD61
330
9
100
AcDbSymbolTableRecord
100
AcDbRegAppTableRecord
  2
AcAecLayerStandard
 70
     0
  0
APPID
  5
AEE3
330
9
100
AcDbSymbolTableRecord
100
AcDbRegAppTableRecord
  2
ACAD_EXEMPT_FROM_CAD_STANDARDS
 70
     0
  0
APPID
  5
B1BE
330
9
100
AcDbSymbolTableRecord
100
AcDbRegAppTableRecord
  2
GENIUS_GENCEN_19
 70
     0
  0
APPID
  5
B4E1
330
9
100
AcDbSymbolTableRecord
100
AcDbRegAppTableRecord
  2
ACAD_MLEADERVER
 70
     0
  0
APPID
  5
C488
330
9
100
AcDbSymbolTableRecord
100
AcDbRegAppTableRecord
  2
ACAD_DSTYLE_DIMINSPECT
 70
     0
  0
APPID
  5
C489
330
9
100
AcDbSymbolTableRecord
100
AcDbRegAppTableRecord
  2
ACAD_DSTYLE_DIMRADIAL_EXTENSION
 70
     0
  0
APPID
  5
1980E
330
9
100
AcDbSymbolTableRecord
100
AcDbRegAppTableRecord
  2
GEVID1311583542
 70
     0
  0
APPID
  5
19825
330
9
100
AcDbSymbolTableRecord
100
AcDbRegAppTableRecord
  2
AMG_2DHIDE
 70
     0
  0
APPID
  5
19826
330
9
100
AcDbSymbolTableRecord
100
AcDbRegAppTableRecord
  2
AMG_2DSTRUCT_BTR
 70
     0
  0
APPID
  5
19837
330
9
100
AcDbSymbolTableRecord
100
AcDbRegAppTableRecord
  2
ACADM_2DVIEW_IGN_NOTIFY
 70
     0
  0
APPID
  5
1B56B
330
9
100
AcDbSymbolTableRecord
100
AcDbRegAppTableRecord
  2
GEVID1311583543
 70
     0
  0
APPID
  5
1B5F6
330
9
100
AcDbSymbolTableRecord
100
AcDbRegAppTableRecord
  2
GEVID1311583544
 70
     0
  0
APPID
  5
1B61B
330
9
100
AcDbSymbolTableRecord
100
AcDbRegAppTableRecord
  2
GEVID1311583545
 70
     0
  0
APPID
  5
1B63D
330
9
100
AcDbSymbolTableRecord
100
AcDbRegAppTableRecord
  2
GEVID1311583546
 70
     0
  0
APPID
  5
1B675
330
9
100
AcDbSymbolTableRecord
100
AcDbRegAppTableRecord
  2
GEVID1311583547
 70
     0
  0
ENDTAB
  0
TABLE
  2
DIMSTYLE
  5
A
330
0
100
AcDbSymbolTable
 70
    25
100
AcDbDimStyleTable
 71
     3
340
2515
340
251A
340
251B
  0
DIMSTYLE
105
A76
330
A
100
AcDbSymbolTableRecord
100
AcDbDimStyleTableRecord
  2
STANDARD
 70
     0
 41
3.0
 42
1.0
 43
7.0
 44
2.0
 73
     0
 74
     0
 77
     1
140
2.799999999999999
141
0.0
143
0.0394
147
0.7
171
     4
172
     1
173
     1
176
     3
177
     3
178
     2
271
     3
272
     3
273
     8
274
     4
289
     0
340
A74
341
A66
343
A66
344
A66
  0
DIMSTYLE
105
2515
330
A
100
AcDbSymbolTableRecord
100
AcDbDimStyleTableRecord
  2
SYS
 70
     0
  4
"
 41
1.0
 42
1.0
 43
10.0
 44
1.0
 47
0.1
 48
0.1
 73
     0
 74
     0
 77
     1
 78
     8
 79
     2
140
3.5
141
0.0
143
0.0393701
146
0.71
147
1.5
172
     1
176
   256
177
   256
178
     7
271
     2
272
     2
283
     0
284
     8
340
11
371
    -1
372
    -1
1001
ACAD_DSTYLE_DIMJOGGED_JOGANGLE_SYMBOL
1070
   384
1040
0.7853981633974483
1001
ACAD_DSTYLE_DIMARC_LENGTH_SYMBOL
1070
   379
1070
     1
  0
DIMSTYLE
105
2516
102
{ACAD_REACTORS
330
551E3
330
5962E
330
59680
102
}
330
A
100
AcDbSymbolTableRecord
100
AcDbDimStyleTableRecord
  2
SYS$3
 70
     0
  4
"
 41
2.0
 42
1.0
 43
10.0
 44
1.0
 47
0.1
 48
0.1
 73
     0
 77
     1
 78
     8
 79
     2
140
3.2
141
0.0
143
0.0393701
146
0.71
147
1.0
176
   256
177
   256
178
     2
271
     2
272
     2
283
     0
284
     8
288
     1
340
11
342
A66
371
    -1
372
    -1
1001
ACAD_DSTYLE_DIMJOGGED_JOGANGLE_SYMBOL
1070
   384
1040
0.7853981633974483
1001
ACAD_DSTYLE_DIMARC_LENGTH_SYMBOL
1070
   379
1070
     1
  0
DIMSTYLE
105
2517
330
A
100
AcDbSymbolTableRecord
100
AcDbDimStyleTableRecord
  2
SYS$4
 70
     0
  4
"
 41
2.0
 42
1.0
 43
10.0
 44
1.0
 47
0.1
 48
0.1
 73
     0
 77
     1
 78
     8
 79
     2
140
3.2
141
0.0
143
0.0393701
146
0.71
147
1.0
173
     1
176
   256
177
   256
178
     2
271
     2
272
     2
283
     0
284
     8
288
     1
340
11
344
A66
371
    -1
372
    -1
1001
ACAD_DSTYLE_DIMJOGGED_JOGANGLE_SYMBOL
1070
   384
1040
0.7853981633974483
1001
ACAD_DSTYLE_DIMARC_LENGTH_SYMBOL
1070
   379
1070
     1
  0
DIMSTYLE
105
2518
330
A
100
AcDbSymbolTableRecord
100
AcDbDimStyleTableRecord
  2
SYS$6
 70
     0
  4
"
 41
2.0
 42
1.0
 43
10.0
 44
1.0
 47
0.1
 48
0.1
 73
     0
 74
     0
 78
     8
 79
     2
140
3.2
141
0.0
143
0.0393701
146
0.71
147
1.0
172
     1
176
   256
177
   256
178
     2
271
     2
272
     2
283
     0
284
     8
340
11
341
A66
371
    -1
372
    -1
1001
ACAD_DSTYLE_DIMJOGGED_JOGANGLE_SYMBOL
1070
   384
1040
0.7853981633974483
1001
ACAD_DSTYLE_DIMARC_LENGTH_SYMBOL
1070
   379
1070
     1
  0
DIMSTYLE
105
2519
330
A
100
AcDbSymbolTableRecord
100
AcDbDimStyleTableRecord
  2
SYS$7
 70
     0
  4
"
 41
2.0
 42
1.0
 43
10.0
 44
1.0
 47
0.1
 48
0.1
 73
     0
 74
     0
 77
     1
 78
     8
 79
     2
140
3.2
141
0.0
143
0.0393701
146
0.71
147
1.0
172
     1
176
   256
177
   256
178
     2
271
     2
272
     2
283
     0
284
     8
340
11
341
A66
342
A66
371
    -1
372
    -1
1001
ACAD_DSTYLE_DIMJOGGED_JOGANGLE_SYMBOL
1070
   384
1040
0.7853981633974483
1001
ACAD_DSTYLE_DIMARC_LENGTH_SYMBOL
1070
   379
1070
     1
  0
DIMSTYLE
105
251A
330
A
100
AcDbSymbolTableRecord
100
AcDbDimStyleTableRecord
  2
SYS$SF
 70
     0
  4
"
 41
2.5
 42
1.0
 43
10.0
 44
1.0
 47
0.1
 48
0.1
 73
     0
 74
     0
 75
     1
 76
     1
 77
     1
 78
     8
 79
     2
140
3.2
141
0.0
143
0.0393701
146
0.71
147
1.0
172
     1
176
   256
177
   256
178
     2
271
     2
272
     2
283
     0
284
     8
340
11
341
6C4
342
6C4
371
    -1
372
    -1
1001
ACAD_DSTYLE_DIMJOGGED_JOGANGLE_SYMBOL
1070
   384
1040
0.7853981633974483
1001
ACAD_DSTYLE_DIMARC_LENGTH_SYMBOL
1070
   379
1070
     1
  0
DIMSTYLE
105
251B
330
A
100
AcDbSymbolTableRecord
100
AcDbDimStyleTableRecord
  2
SYS$SH
 70
     0
  4
"
 41
2.5
 42
1.0
 43
10.0
 44
1.0
 47
0.1
 48
0.1
 73
     0
 74
     0
 75
     1
 76
     1
 77
     1
 78
     8
 79
     2
140
3.2
141
0.0
143
0.0393701
144
2.0
146
0.71
147
1.0
172
     1
173
     1
176
   256
177
   256
178
     2
271
     2
272
     2
283
     0
284
     8
340
11
341
6C4
343
72
344
6C4
371
    -1
372
    -1
1001
ACAD_DSTYLE_DIMJOGGED_JOGANGLE_SYMBOL
1070
   384
1040
0.7853981633974483
1001
ACAD_DSTYLE_DIMARC_LENGTH_SYMBOL
1070
   379
1070
     1
  0
DIMSTYLE
105
2A59
330
A
100
AcDbSymbolTableRecord
100
AcDbDimStyleTableRecord
  2
SYS$2
 70
     0
  4
"
 41
1.0
 42
1.0
 43
10.0
 44
1.0
 47
0.1
 48
0.1
 73
     0
 74
     0
 77
     1
 78
     8
 79
     2
140
3.2
141
0.0
143
0.0393701
146
0.71
147
1.0
172
     1
176
   256
177
   256
178
     2
271
     2
272
     2
283
     0
284
     8
340
11
342
6C4
371
    -1
372
    -1
1001
ACAD_DSTYLE_DIMJOGGED_JOGANGLE_SYMBOL
1070
   384
1040
0.7853981633974483
1001
ACAD_DSTYLE_DIMARC_LENGTH_SYMBOL
1070
   379
1070
     1
  0
DIMSTYLE
105
2AAB
102
{ACAD_REACTORS
330
4E356
330
4E3AA
330
4E3C0
330
4E40C
330
4E446
330
4E477
330
4E49F
330
4E4B5
330
4E525
330
4E53B
330
4E552
330
4E571
330
4E587
330
4E6C5
330
4E77E
330
4E7BB
330
5519F
102
}
330
A
100
AcDbSymbolTableRecord
100
AcDbDimStyleTableRecord
  2
SYS$0
 70
     0
  4
"
 41
1.0
 42
1.0
 43
10.0
 44
1.0
 47
0.1
 48
0.1
 73
     0
 74
     0
 77
     1
 78
     8
 79
     2
140
3.200000000000001
141
0.0
143
0.0393701
146
0.71
147
1.0
172
     1
176
   256
177
   256
178
     2
271
     2
272
     2
283
     0
284
     8
340
11
341
A66
342
6C4
371
    -1
372
    -1
1001
ACAD_DSTYLE_DIMJOGGED_JOGANGLE_SYMBOL
1070
   384
1040
0.7853981633974483
1001
ACAD_DSTYLE_DIMARC_LENGTH_SYMBOL
1070
   379
1070
     1
  0
DIMSTYLE
105
AF99
330
A
100
AcDbSymbolTableRecord
100
AcDbDimStyleTableRecord
  2
AM_ISO
 70
     0
  4
"
 41
2.5
 42
1.0
 43
10.0
 44
1.0
 47
0.1
 48
0.1
 73
     0
 74
     0
 77
     1
 78
     8
 79
     2
140
3.5
141
0.0
143
0.0393701
146
0.71
147
1.5
172
     1
176
   256
177
   256
178
     2
271
     2
272
     3
274
     4
283
     0
284
     8
340
11
371
    -1
372
    -1
  0
DIMSTYLE
105
AF9A
330
A
100
AcDbSymbolTableRecord
100
AcDbDimStyleTableRecord
  2
AM_ISO$3
 70
     0
  4
"
 41
2.5
 42
1.0
 43
10.0
 44
1.0
 47
0.1
 48
0.1
 73
     0
 77
     1
 78
     8
 79
     2
140
3.5
141
0.0
143
0.0393701
146
0.71
147
1.5
176
   256
177
   256
178
     2
271
     2
272
     3
274
     4
283
     0
284
     8
288
     1
289
     0
340
11
371
    -1
372
    -1
  0
DIMSTYLE
105
AF9B
330
A
100
AcDbSymbolTableRecord
100
AcDbDimStyleTableRecord
  2
AM_ISO$4
 70
     0
  4
"
 41
2.5
 42
1.0
 43
10.0
 44
1.0
 47
0.1
 48
0.1
 73
     0
 77
     1
 78
     8
 79
     2
140
3.5
141
0.0
143
0.0393701
146
0.71
147
1.5
176
   256
177
   256
178
     2
271
     2
272
     3
274
     4
283
     0
284
     8
288
     1
289
     0
340
11
371
    -1
372
    -1
  0
DIMSTYLE
105
AF9C
330
A
100
AcDbSymbolTableRecord
100
AcDbDimStyleTableRecord
  2
AM_ISO$6
 70
     0
  4
"
 41
2.5
 42
1.0
 43
10.0
 44
1.0
 47
0.1
 48
0.1
 73
     0
 74
     0
 78
     8
 79
     2
140
3.5
141
0.0
143
0.0393701
146
0.71
147
1.5
172
     1
176
   256
177
   256
178
     2
271
     2
272
     3
274
     4
283
     0
284
     8
340
11
371
    -1
372
    -1
  0
DIMSTYLE
105
AF9D
330
A
100
AcDbSymbolTableRecord
100
AcDbDimStyleTableRecord
  2
AM_ISO$7
 70
     0
  4
"
 41
2.5
 42
1.0
 43
10.0
 44
1.0
 47
0.1
 48
0.1
 73
     0
 74
     0
 77
     1
 78
     8
 79
     2
140
5.0
141
0.0
143
0.0393701
146
0.71
147
1.5
172
     1
176
   256
177
   256
178
     2
271
     2
272
     3
274
     4
283
     0
284
     8
340
11
371
    -1
372
    -1
  0
DIMSTYLE
105
AF9E
330
A
100
AcDbSymbolTableRecord
100
AcDbDimStyleTableRecord
  2
AM_ISO$SF
 70
     0
  4
"
 41
2.5
 42
1.0
 43
10.0
 44
1.0
 47
0.1
 48
0.1
 73
     0
 74
     0
 75
     1
 76
     1
 77
     1
 78
     8
 79
     2
140
3.5
141
0.0
143
0.0393701
146
0.71
147
1.5
172
     1
176
   256
177
   256
178
     2
271
     2
272
     3
274
     4
283
     0
284
     8
340
11
371
    -1
372
    -1
  0
DIMSTYLE
105
AF9F
330
A
100
AcDbSymbolTableRecord
100
AcDbDimStyleTableRecord
  2
AM_ISO$SH
 70
     0
  4
"
 41
2.5
 42
1.0
 43
10.0
 44
1.0
 47
0.1
 48
0.1
 73
     0
 74
     0
 75
     1
 76
     1
 77
     1
 78
     8
 79
     2
140
3.5
141
0.0
143
0.0393701
144
2.0
146
0.71
147
1.5
172
     1
173
     1
176
   256
177
   256
178
     2
271
     2
272
     3
274
     4
283
     0
284
     8
340
11
343
72
371
    -1
372
    -1
  0
DIMSTYLE
105
B60C
330
A
100
AcDbSymbolTableRecord
100
AcDbDimStyleTableRecord
  2
AM_ANSI
 70
     0
  4
mm
 41
0.1
 42
0.05
 43
0.5
 44
0.1
 47
0.1
 48
0.1
 78
     7
 79
     2
140
0.12
141
0.0
146
0.71
147
0.06
176
   256
177
   256
178
     2
274
     4
284
     7
340
11
371
    -1
372
    -1
  0
DIMSTYLE
105
C485
330
A
100
AcDbSymbolTableRecord
100
AcDbDimStyleTableRecord
  2
AM_ISO$0
 70
     0
  4
"
 41
0.8
 42
1.0
 43
10.0
 44
1.0
 47
0.1
 48
0.1
 73
     0
 74
     0
 77
     1
 78
     8
 79
     2
140
3.2
141
0.0
143
0.0393701
146
0.71
147
0.9999999999999996
172
     1
176
   256
177
   256
178
     2
271
     2
272
     2
283
     0
284
     8
340
11
341
6C4
342
6C4
371
    -1
372
    -1
1001
ACAD_DSTYLE_DIMJOGGED_JOGANGLE_SYMBOL
1070
   384
1040
0.7853981633974483
1001
ACAD_DSTYLE_DIMARC_LENGTH_SYMBOL
1070
   379
1070
     1
  0
DIMSTYLE
105
C486
330
A
100
AcDbSymbolTableRecord
100
AcDbDimStyleTableRecord
  2
AM_ISO$2
 70
     0
  4
"
 41
0.8
 42
1.0
 43
10.0
 44
1.0
 47
0.1
 48
0.1
 73
     0
 74
     0
 77
     3
 78
     8
 79
     2
140
3.200000000000001
141
0.0
143
0.0393701
146
0.71
147
0.9999999999999996
172
     1
176
   256
177
   256
178
     2
271
     2
272
     2
283
     0
284
     8
340
11
342
6C4
371
    -1
372
    -1
1001
ACAD_DSTYLE_DIMJOGGED_JOGANGLE_SYMBOL
1070
   384
1040
0.7853981633974483
1001
ACAD_DSTYLE_DIMARC_LENGTH_SYMBOL
1070
   379
1070
     1
  0
DIMSTYLE
105
FD1A
330
A
100
AcDbSymbolTableRecord
100
AcDbDimStyleTableRecord
  2
AM_ANSI$3
 70
     0
  4
mm
 41
0.1
 42
0.05
 43
0.5
 44
0.1
 47
0.1
 48
0.1
 78
     7
 79
     2
140
0.12
141
0.0
146
0.71
147
0.06
176
   256
177
   256
178
     2
274
     4
284
     7
288
     1
289
     0
340
11
371
    -1
372
    -1
1001
ACAD_DSTYLE_DIMARC_LENGTH_SYMBOL
1070
   379
1070
     1
  0
DIMSTYLE
105
FD1B
330
A
100
AcDbSymbolTableRecord
100
AcDbDimStyleTableRecord
  2
AM_ANSI$4
 70
     0
  4
mm
 41
0.1
 42
0.05
 43
0.5
 44
0.1
 47
0.1
 48
0.1
 78
     7
 79
     2
140
0.12
141
0.0
146
0.71
147
0.06
176
   256
177
   256
178
     2
274
     4
284
     7
288
     1
289
     0
340
11
371
    -1
372
    -1
1001
ACAD_DSTYLE_DIMARC_LENGTH_SYMBOL
1070
   379
1070
     1
  0
DIMSTYLE
105
FD1C
330
A
100
AcDbSymbolTableRecord
100
AcDbDimStyleTableRecord
  2
AM_ANSI$7
 70
     0
  4
mm
 41
0.1
 42
0.05
 43
0.5
 44
0.1
 47
0.1
 48
0.1
 78
     7
 79
     2
140
0.24
141
0.0
146
0.71
147
0.06
176
   256
177
   256
178
     2
274
     4
284
     7
340
11
371
    -1
372
    -1
1001
ACAD_DSTYLE_DIMARC_LENGTH_SYMBOL
1070
   379
1070
     1
  0
DIMSTYLE
105
FD1D
330
A
100
AcDbSymbolTableRecord
100
AcDbDimStyleTableRecord
  2
AM_ANSI$SF
 70
     0
  4
mm
 41
0.1
 42
0.05
 43
0.5
 44
0.1
 47
0.1
 48
0.1
 75
     1
 76
     1
 78
     7
 79
     2
140
0.12
141
0.0
146
0.71
147
0.06
176
   256
177
   256
178
     2
274
     4
284
     7
340
11
371
    -1
372
    -1
1001
ACAD_DSTYLE_DIMARC_LENGTH_SYMBOL
1070
   379
1070
     1
  0
DIMSTYLE
105
FD1E
330
A
100
AcDbSymbolTableRecord
100
AcDbDimStyleTableRecord
  2
AM_ANSI$SH
 70
     0
  4
mm
 41
0.1
 42
0.05
 43
0.5
 44
0.1
 47
0.1
 48
0.1
 75
     1
 76
     1
 78
     7
 79
     2
140
0.12
141
0.0
146
0.71
147
0.06
173
     1
176
   256
177
   256
178
     2
274
     4
284
     7
340
11
343
72
371
    -1
372
    -1
1001
ACAD_DSTYLE_DIMARC_LENGTH_SYMBOL
1070
   379
1070
     1
  0
ENDTAB
  0
TABLE
  2
BLOCK_RECORD
  5
1
330
0
100
AcDbSymbolTable
 70
    27
  0
BLOCK_RECORD
  5
1F
102
{ACAD_XDICTIONARY
360
8A
102
}
330
1
100
AcDbSymbolTableRecord
100
AcDbBlockTableRecord
  2
*Model_Space
340
22
  0
BLOCK_RECORD
  5
1B
330
1
100
AcDbSymbolTableRecord
100
AcDbBlockTableRecord
  2
*Paper_Space
340
1E
  0
BLOCK_RECORD
  5
23
330
1
100
AcDbSymbolTableRecord
100
AcDbBlockTableRecord
  2
*Paper_Space0
340
26
  0
BLOCK_RECORD
  5
72
330
1
100
AcDbSymbolTableRecord
100
AcDbBlockTableRecord
  2
GENAXEH
340
0
  0
BLOCK_RECORD
  5
6C4
330
1
100
AcDbSymbolTableRecord
100
AcDbBlockTableRecord
  2
_Dot
340
0
102
{BLKREFS
331
5AB94
331
5AB95
331
5AB9D
331
5AB9E
331
5ABA6
331
5ABA7
331
5ABAF
331
5ABB0
331
5ABB8
331
5ABB9
331
5ABC1
331
5ABC2
331
5ABCA
331
5ABCB
331
5ABD5
331
5ABD6
331
5ABDE
331
5ABDF
331
5ABE7
331
5ABE8
331
5ABF9
331
5ABFA
331
5AC04
331
5AC05
331
5AC0E
331
5AC0F
331
5AC17
331
5AC18
331
5AC20
331
5AC21
331
5AC29
331
5AC2A
331
5AC34
331
5AC35
331
5AC3D
331
5AC3E
331
5AC46
331
5AC47
331
5AC80
331
5AC81
102
}
  0
BLOCK_RECORD
  5
A66
330
1
100
AcDbSymbolTableRecord
100
AcDbBlockTableRecord
  2
_OPEN30
340
0
  0
BLOCK_RECORD
  5
4E357
330
1
100
AcDbSymbolTableRecord
100
AcDbBlockTableRecord
  2
*D7
340
0
  0
BLOCK_RECORD
  5
4E3AB
330
1
100
AcDbSymbolTableRecord
100
AcDbBlockTableRecord
  2
*D8
340
0
  0
BLOCK_RECORD
  5
4E3C1
330
1
100
AcDbSymbolTableRecord
100
AcDbBlockTableRecord
  2
*D9
340
0
  0
BLOCK_RECORD
  5
4E40D
330
1
100
AcDbSymbolTableRecord
100
AcDbBlockTableRecord
  2
*D10
340
0
  0
BLOCK_RECORD
  5
4E447
330
1
100
AcDbSymbolTableRecord
100
AcDbBlockTableRecord
  2
*D11
340
0
  0
BLOCK_RECORD
  5
4E478
330
1
100
AcDbSymbolTableRecord
100
AcDbBlockTableRecord
  2
*D12
340
0
  0
BLOCK_RECORD
  5
4E4A0
330
1
100
AcDbSymbolTableRecord
100
AcDbBlockTableRecord
  2
*D13
340
0
  0
BLOCK_RECORD
  5
4E4B6
330
1
100
AcDbSymbolTableRecord
100
AcDbBlockTableRecord
  2
*D14
340
0
  0
BLOCK_RECORD
  5
4E526
330
1
100
AcDbSymbolTableRecord
100
AcDbBlockTableRecord
  2
*D15
340
0
  0
BLOCK_RECORD
  5
4E53C
330
1
100
AcDbSymbolTableRecord
100
AcDbBlockTableRecord
  2
*D16
340
0
  0
BLOCK_RECORD
  5
4E553
330
1
100
AcDbSymbolTableRecord
100
AcDbBlockTableRecord
  2
*D17
340
0
  0
BLOCK_RECORD
  5
4E572
330
1
100
AcDbSymbolTableRecord
100
AcDbBlockTableRecord
  2
*D18
340
0
  0
BLOCK_RECORD
  5
4E588
330
1
100
AcDbSymbolTableRecord
100
AcDbBlockTableRecord
  2
*D19
340
0
  0
BLOCK_RECORD
  5
4E6C6
330
1
100
AcDbSymbolTableRecord
100
AcDbBlockTableRecord
  2
*D20
340
0
  0
BLOCK_RECORD
  5
4E77F
330
1
100
AcDbSymbolTableRecord
100
AcDbBlockTableRecord
  2
*D21
340
0
  0
BLOCK_RECORD
  5
4E7BC
330
1
100
AcDbSymbolTableRecord
100
AcDbBlockTableRecord
  2
*D22
340
0
  0
BLOCK_RECORD
  5
551A0
330
1
100
AcDbSymbolTableRecord
100
AcDbBlockTableRecord
  2
*D23
340
0
  0
BLOCK_RECORD
  5
551E4
330
1
100
AcDbSymbolTableRecord
100
AcDbBlockTableRecord
  2
*D24
340
0
  0
BLOCK_RECORD
  5
5962F
330
1
100
AcDbSymbolTableRecord
100
AcDbBlockTableRecord
  2
*D25
340
0
  0
BLOCK_RECORD
  5
59681
330
1
100
AcDbSymbolTableRecord
100
AcDbBlockTableRecord
  2
*D26
340
0
  0
ENDTAB
  0
ENDSEC
  0
SECTION
  2
BLOCKS
  0
BLOCK
  5
20
330
1F
100
AcDbEntity
  8
0
100
AcDbBlockBegin
  2
*Model_Space
 70
     0
 10
0.0
 20
0.0
 30
0.0
  3
*Model_Space
  1

  0
ENDBLK
  5
21
330
1F
100
AcDbEntity
  8
0
100
AcDbBlockEnd
  0
BLOCK
  5
1C
330
1B
100
AcDbEntity
 67
     1
  8
0
100
AcDbBlockBegin
  2
*Paper_Space
 70
     0
 10
0.0
 20
0.0
 30
0.0
  3
*Paper_Space
  1

  0
ENDBLK
  5
1D
330
1B
100
AcDbEntity
 67
     1
  8
0
100
AcDbBlockEnd
  0
BLOCK
  5
24
330
23
100
AcDbEntity
 67
     1
  8
0
100
AcDbBlockBegin
  2
*Paper_Space0
 70
     0
 10
0.0
 20
0.0
 30
0.0
  3
*Paper_Space0
  1

  0
ENDBLK
  5
25
330
23
100
AcDbEntity
 67
     1
  8
0
100
AcDbBlockEnd
  0
BLOCK
  5
74
330
72
100
AcDbEntity
  8
0
100
AcDbBlockBegin
  2
GENAXEH
 70
     0
 10
0.0
 20
0.0
 30
0.0
  3
GENAXEH
  1

  0
LINE
  5
73
330
72
100
AcDbEntity
  8
0
100
AcDbLine
 10
-1.0
 20
0.0
 30
0.0
 11
1.0
 21
0.0
 31
0.0
  0
ENDBLK
  5
75
330
72
100
AcDbEntity
  8
0
100
AcDbBlockEnd
  0
BLOCK
  5
6C7
330
6C4
100
AcDbEntity
  8
0
100
AcDbBlockBegin
  2
_Dot
 70
     0
 10
0.0
 20
0.0
 30
0.0
  3
_Dot
  1

  0
LWPOLYLINE
  5
6C5
330
6C4
100
AcDbEntity
  8
0
  6
ByBlock
 62
     0
100
AcDbPolyline
 90
        2
 70
     1
 43
0.5
 10
-0.25
 20
0.0
 42
1.0
 10
0.25
 20
0.0
 42
1.0
  0
LINE
  5
6C6
330
6C4
100
AcDbEntity
  8
0
  6
ByBlock
 62
     0
370
    -2
100
AcDbLine
 10
-0.5
 20
0.0
 30
0.0
 11
-1.0
 21
0.0
 31
0.0
  0
ENDBLK
  5
6C8
330
6C4
100
AcDbEntity
  8
0
100
AcDbBlockEnd
  0
BLOCK
  5
A6A
330
A66
100
AcDbEntity
  8
0
100
AcDbBlockBegin
  2
_OPEN30
 70
     0
 10
0.0
 20
0.0
 30
0.0
  3
_OPEN30
  1

  0
LINE
  5
A67
330
A66
100
AcDbEntity
  8
0
  6
ByBlock
 62
     0
100
AcDbLine
 10
-1.0
 20
0.26794919
 30
0.0
 11
0.0
 21
0.0
 31
0.0
  0
LINE
  5
A68
330
A66
100
AcDbEntity
  8
0
  6
ByBlock
 62
     0
100
AcDbLine
 10
0.0
 20
0.0
 30
0.0
 11
-1.0
 21
-0.26794919
 31
0.0
  0
LINE
  5
A69
330
A66
100
AcDbEntity
  8
0
  6
ByBlock
 62
     0
100
AcDbLine
 10
0.0
 20
0.0
 30
0.0
 11
-1.0
 21
0.0
 31
0.0
  0
ENDBLK
  5
A6B
330
A66
100
AcDbEntity
  8
0
100
AcDbBlockEnd
  0
BLOCK
  5
4E361
330
4E357
100
AcDbEntity
  8
0
100
AcDbBlockBegin
  2
*D7
 70
     1
 10
0.0
 20
0.0
 30
0.0
  3
*D7
  1

  0
LINE
  5
5AB91
330
4E357
100
AcDbEntity
  8
AM_5
100
AcDbLine
 10
6292.147827585486
 20
-5420.964527321703
 30
0.0
 11
6292.147827585486
 21
-5401.464527321703
 31
0.0
  0
LINE
  5
5AB92
330
4E357
100
AcDbEntity
  8
AM_5
100
AcDbLine
 10
6235.770302585486
 20
-5416.964527321702
 30
0.0
 11
6235.770302585486
 21
-5401.464527321703
 31
0.0
  0
LINE
  5
5AB93
330
4E357
100
AcDbEntity
  8
AM_5
100
AcDbLine
 10
6291.147827585486
 20
-5402.464527321703
 30
0.0
 11
6236.770302585487
 21
-5402.464527321703
 31
0.0
  0
INSERT
  5
5AB94
330
4E357
100
AcDbEntity
  8
AM_5
100
AcDbBlockReference
  2
_Dot
 10
6292.147827585486
 20
-5402.464527321703
 30
0.0
  0
INSERT
  5
5AB95
330
4E357
100
AcDbEntity
  8
AM_5
100
AcDbBlockReference
  2
_Dot
 10
6235.770302585486
 20
-5402.464527321703
 30
0.0
 50
180.0
  0
MTEXT
  5
5AB96
330
4E357
100
AcDbEntity
  8
AM_5
 62
     2
100
AcDbMText
 10
6263.959065085487
 20
-5399.864527321703
 30
0.0
 40
3.200000000000001
 41
0.0
 71
     5
 72
     1
  1
（56）
 73
     1
 44
1.0
1001
ACAD
1000
MTEXTBEGIN
1070
    73
1070
     1
1070
    44
1040
1.0
1070
    74
1070
     0
1000
MTEXTEND
  0
POINT
  5
5AB97
330
4E357
100
AcDbEntity
  8
Defpoints
 62
     0
100
AcDbPoint
 10
6292.147827585486
 20
-5421.964527321703
 30
0.0
  0
POINT
  5
5AB98
330
4E357
100
AcDbEntity
  8
Defpoints
 62
     0
100
AcDbPoint
 10
6235.770302585486
 20
-5417.964527321704
 30
0.0
  0
POINT
  5
5AB99
330
4E357
100
AcDbEntity
  8
Defpoints
 62
     0
100
AcDbPoint
 10
6235.770302585486
 20
-5402.464527321703
 30
0.0
  0
ENDBLK
  5
4E362
330
4E357
100
AcDbEntity
  8
0
100
AcDbBlockEnd
  0
BLOCK
  5
4E3B5
330
4E3AB
100
AcDbEntity
  8
0
100
AcDbBlockBegin
  2
*D8
 70
     1
 10
0.0
 20
0.0
 30
0.0
  3
*D8
  1

  0
LINE
  5
5AB9A
330
4E3AB
100
AcDbEntity
  8
AM_5
100
AcDbLine
 10
6289.147827585487
 20
-5442.964527321703
 30
0.0
 11
6301.147827585485
 21
-5442.964527321703
 31
0.0
  0
LINE
  5
5AB9B
330
4E3AB
100
AcDbEntity
  8
AM_5
100
AcDbLine
 10
6289.147827585487
 20
-5417.964527321704
 30
0.0
 11
6301.147827585485
 21
-5417.964527321704
 31
0.0
  0
LINE
  5
5AB9C
330
4E3AB
100
AcDbEntity
  8
AM_5
100
AcDbLine
 10
6300.147827585485
 20
-5441.964527321703
 30
0.0
 11
6300.147827585485
 21
-5418.964527321703
 31
0.0
  0
INSERT
  5
5AB9D
330
4E3AB
100
AcDbEntity
  8
AM_5
100
AcDbBlockReference
  2
_Dot
 10
6300.147827585485
 20
-5442.964527321703
 30
0.0
 50
270.0
  0
INSERT
  5
5AB9E
330
4E3AB
100
AcDbEntity
  8
AM_5
100
AcDbBlockReference
  2
_Dot
 10
6300.147827585485
 20
-5417.964527321704
 30
0.0
 50
90.0
  0
MTEXT
  5
5AB9F
330
4E3AB
100
AcDbEntity
  8
AM_5
 62
     2
100
AcDbMText
 10
6297.547827585486
 20
-5430.464527321706
 30
0.0
 40
3.200000000000001
 41
0.0
 71
     5
 72
     1
  1
25
 11
0.0000000000000001
 21
1.0
 31
0.0
 73
     1
 44
1.0
1001
ACAD
1000
MTEXTBEGIN
1070
    73
1070
     1
1070
    44
1040
1.0
1070
    74
1070
     0
1000
MTEXTEND
  0
POINT
  5
5ABA0
330
4E3AB
100
AcDbEntity
  8
Defpoints
 62
     0
100
AcDbPoint
 10
6288.147827585486
 20
-5442.964527321703
 30
0.0
  0
POINT
  5
5ABA1
330
4E3AB
100
AcDbEntity
  8
Defpoints
 62
     0
100
AcDbPoint
 10
6288.147827585486
 20
-5417.964527321704
 30
0.0
  0
POINT
  5
5ABA2
330
4E3AB
100
AcDbEntity
  8
Defpoints
 62
     0
100
AcDbPoint
 10
6300.147827585485
 20
-5417.964527321704
 30
0.0
  0
ENDBLK
  5
4E3B6
330
4E3AB
100
AcDbEntity
  8
0
100
AcDbBlockEnd
  0
BLOCK
  5
4E3CB
330
4E3C1
100
AcDbEntity
  8
0
100
AcDbBlockBegin
  2
*D9
 70
     1
 10
0.0
 20
0.0
 30
0.0
  3
*D9
  1

  0
LINE
  5
5ABA3
330
4E3C1
100
AcDbEntity
  8
AM_5
100
AcDbLine
 10
6246.770302585487
 20
-5448.464527321704
 30
0.0
 11
6309.147827585485
 21
-5448.464527321704
 31
0.0
  0
LINE
  5
5ABA4
330
4E3C1
100
AcDbEntity
  8
AM_5
100
AcDbLine
 10
6246.770302585487
 20
-5412.464527321702
 30
0.0
 11
6309.147827585485
 21
-5412.464527321702
 31
0.0
  0
LINE
  5
5ABA5
330
4E3C1
100
AcDbEntity
  8
AM_5
100
AcDbLine
 10
6308.147827585486
 20
-5447.464527321702
 30
0.0
 11
6308.147827585486
 21
-5413.464527321703
 31
0.0
  0
INSERT
  5
5ABA6
330
4E3C1
100
AcDbEntity
  8
AM_5
100
AcDbBlockReference
  2
_Dot
 10
6308.147827585486
 20
-5448.464527321704
 30
0.0
 50
270.0
  0
INSERT
  5
5ABA7
330
4E3C1
100
AcDbEntity
  8
AM_5
100
AcDbBlockReference
  2
_Dot
 10
6308.147827585486
 20
-5412.464527321702
 30
0.0
 50
90.0
  0
MTEXT
  5
5ABA8
330
4E3C1
100
AcDbEntity
  8
AM_5
 62
     2
100
AcDbMText
 10
6305.547827585486
 20
-5430.464527321703
 30
0.0
 40
3.200000000000001
 41
0.0
 71
     5
 72
     1
  1
（36）
 11
0.0000000000000001
 21
1.0
 31
0.0
 73
     1
 44
1.0
1001
ACAD
1000
MTEXTBEGIN
1070
    73
1070
     1
1070
    44
1040
1.0
1070
    74
1070
     0
1000
MTEXTEND
  0
POINT
  5
5ABA9
330
4E3C1
100
AcDbEntity
  8
Defpoints
 62
     0
100
AcDbPoint
 10
6245.770302585486
 20
-5448.464527321704
 30
0.0
  0
POINT
  5
5ABAA
330
4E3C1
100
AcDbEntity
  8
Defpoints
 62
     0
100
AcDbPoint
 10
6245.770302585487
 20
-5412.464527321702
 30
0.0
  0
POINT
  5
5ABAB
330
4E3C1
100
AcDbEntity
  8
Defpoints
 62
     0
100
AcDbPoint
 10
6308.147827585486
 20
-5412.464527321702
 30
0.0
  0
ENDBLK
  5
4E3CC
330
4E3C1
100
AcDbEntity
  8
0
100
AcDbBlockEnd
  0
BLOCK
  5
4E417
330
4E40D
100
AcDbEntity
  8
0
100
AcDbBlockBegin
  2
*D10
 70
     1
 10
0.0
 20
0.0
 30
0.0
  3
*D10
  1

  0
LINE
  5
5ABAC
330
4E40D
100
AcDbEntity
  8
AM_5
100
AcDbLine
 10
6143.351191266749
 20
-5536.359935316195
 30
0.0
 11
6127.351191266749
 21
-5536.359935316195
 31
0.0
  0
LINE
  5
5ABAD
330
4E40D
100
AcDbEntity
  8
AM_5
100
AcDbLine
 10
6143.351191266749
 20
-5562.359935316194
 30
0.0
 11
6127.351191266749
 21
-5562.359935316194
 31
0.0
  0
LINE
  5
5ABAE
330
4E40D
100
AcDbEntity
  8
AM_5
100
AcDbLine
 10
6128.351191266749
 20
-5537.359935316194
 30
0.0
 11
6128.351191266749
 21
-5561.359935316194
 31
0.0
  0
INSERT
  5
5ABAF
330
4E40D
100
AcDbEntity
  8
AM_5
100
AcDbBlockReference
  2
_Dot
 10
6128.351191266749
 20
-5536.359935316195
 30
0.0
 50
90.0
  0
INSERT
  5
5ABB0
330
4E40D
100
AcDbEntity
  8
AM_5
100
AcDbBlockReference
  2
_Dot
 10
6128.351191266749
 20
-5562.359935316194
 30
0.0
 50
270.0
  0
MTEXT
  5
5ABB1
330
4E40D
100
AcDbEntity
  8
AM_5
 62
     2
100
AcDbMText
 10
6125.75119126675
 20
-5549.359935316195
 30
0.0
 40
3.200000000000001
 41
0.0
 71
     5
 72
     1
  1
（26）
 11
0.0000000000000001
 21
1.0
 31
0.0
 73
     1
 44
1.0
1001
ACAD
1000
MTEXTBEGIN
1070
    73
1070
     1
1070
    44
1040
1.0
1070
    74
1070
     0
1000
MTEXTEND
  0
POINT
  5
5ABB2
330
4E40D
100
AcDbEntity
  8
Defpoints
 62
     0
100
AcDbPoint
 10
6144.351191266749
 20
-5536.359935316195
 30
0.0
  0
POINT
  5
5ABB3
330
4E40D
100
AcDbEntity
  8
Defpoints
 62
     0
100
AcDbPoint
 10
6144.351191266749
 20
-5562.359935316195
 30
0.0
  0
POINT
  5
5ABB4
330
4E40D
100
AcDbEntity
  8
Defpoints
 62
     0
100
AcDbPoint
 10
6128.351191266749
 20
-5562.359935316194
 30
0.0
  0
ENDBLK
  5
4E418
330
4E40D
100
AcDbEntity
  8
0
100
AcDbBlockEnd
  0
BLOCK
  5
4E451
330
4E447
100
AcDbEntity
  8
0
100
AcDbBlockBegin
  2
*D11
 70
     1
 10
0.0
 20
0.0
 30
0.0
  3
*D11
  1

  0
LINE
  5
5ABB5
330
4E447
100
AcDbEntity
  8
AM_5
100
AcDbLine
 10
6136.351191266749
 20
-5555.359935316196
 30
0.0
 11
6136.351191266749
 21
-5579.359935316195
 31
0.0
  0
LINE
  5
5ABB6
330
4E447
100
AcDbEntity
  8
AM_5
100
AcDbLine
 10
6176.351191266749
 20
-5555.359935316196
 30
0.0
 11
6176.351191266749
 21
-5579.359935316195
 31
0.0
  0
LINE
  5
5ABB7
330
4E447
100
AcDbEntity
  8
AM_5
100
AcDbLine
 10
6137.351191266748
 20
-5578.359935316195
 30
0.0
 11
6175.351191266749
 21
-5578.359935316195
 31
0.0
  0
INSERT
  5
5ABB8
330
4E447
100
AcDbEntity
  8
AM_5
100
AcDbBlockReference
  2
_Dot
 10
6136.351191266749
 20
-5578.359935316195
 30
0.0
 50
180.0
  0
INSERT
  5
5ABB9
330
4E447
100
AcDbEntity
  8
AM_5
100
AcDbBlockReference
  2
_Dot
 10
6176.351191266749
 20
-5578.359935316195
 30
0.0
  0
MTEXT
  5
5ABBA
330
4E447
100
AcDbEntity
  8
AM_5
 62
     2
100
AcDbMText
 10
6156.351191266749
 20
-5575.759935316195
 30
0.0
 40
3.200000000000001
 41
0.0
 71
     5
 72
     1
  1
40
 73
     1
 44
1.0
1001
ACAD
1000
MTEXTBEGIN
1070
    73
1070
     1
1070
    44
1040
1.0
1070
    74
1070
     0
1000
MTEXTEND
  0
POINT
  5
5ABBB
330
4E447
100
AcDbEntity
  8
Defpoints
 62
     0
100
AcDbPoint
 10
6136.351191266749
 20
-5554.359935316195
 30
0.0
  0
POINT
  5
5ABBC
330
4E447
100
AcDbEntity
  8
Defpoints
 62
     0
100
AcDbPoint
 10
6176.351191266749
 20
-5554.359935316195
 30
0.0
  0
POINT
  5
5ABBD
330
4E447
100
AcDbEntity
  8
Defpoints
 62
     0
100
AcDbPoint
 10
6176.351191266749
 20
-5578.359935316195
 30
0.0
  0
ENDBLK
  5
4E452
330
4E447
100
AcDbEntity
  8
0
100
AcDbBlockEnd
  0
BLOCK
  5
4E482
330
4E478
100
AcDbEntity
  8
0
100
AcDbBlockBegin
  2
*D12
 70
     1
 10
0.0
 20
0.0
 30
0.0
  3
*D12
  1

  0
LINE
  5
5ABBE
330
4E478
100
AcDbEntity
  8
AM_5
100
AcDbLine
 10
6144.351191266749
 20
-5562.052171316196
 30
0.0
 11
6144.351191266749
 21
-5571.359935316195
 31
0.0
  0
LINE
  5
5ABBF
330
4E478
100
AcDbEntity
  8
AM_5
100
AcDbLine
 10
6168.351191266749
 20
-5562.052171316196
 30
0.0
 11
6168.351191266749
 21
-5571.359935316195
 31
0.0
  0
LINE
  5
5ABC0
330
4E478
100
AcDbEntity
  8
AM_5
100
AcDbLine
 10
6145.351191266749
 20
-5570.359935316195
 30
0.0
 11
6167.35119126675
 21
-5570.359935316195
 31
0.0
  0
INSERT
  5
5ABC1
330
4E478
100
AcDbEntity
  8
AM_5
100
AcDbBlockReference
  2
_Dot
 10
6144.351191266749
 20
-5570.359935316195
 30
0.0
 50
180.0
  0
INSERT
  5
5ABC2
330
4E478
100
AcDbEntity
  8
AM_5
100
AcDbBlockReference
  2
_Dot
 10
6168.351191266749
 20
-5570.359935316195
 30
0.0
  0
MTEXT
  5
5ABC3
330
4E478
100
AcDbEntity
  8
AM_5
 62
     2
100
AcDbMText
 10
6156.351191266749
 20
-5567.759935316195
 30
0.0
 40
3.200000000000001
 41
0.0
 71
     5
 72
     1
  1
24
 73
     1
 44
1.0
1001
ACAD
1000
MTEXTBEGIN
1070
    73
1070
     1
1070
    44
1040
1.0
1070
    74
1070
     0
1000
MTEXTEND
  0
POINT
  5
5ABC4
330
4E478
100
AcDbEntity
  8
Defpoints
 62
     0
100
AcDbPoint
 10
6144.351191266749
 20
-5561.052171316195
 30
0.0
  0
POINT
  5
5ABC5
330
4E478
100
AcDbEntity
  8
Defpoints
 62
     0
100
AcDbPoint
 10
6168.351191266749
 20
-5561.052171316195
 30
0.0
  0
POINT
  5
5ABC6
330
4E478
100
AcDbEntity
  8
Defpoints
 62
     0
100
AcDbPoint
 10
6168.351191266749
 20
-5570.359935316195
 30
0.0
  0
ENDBLK
  5
4E483
330
4E478
100
AcDbEntity
  8
0
100
AcDbBlockEnd
  0
BLOCK
  5
4E4AA
330
4E4A0
100
AcDbEntity
  8
0
100
AcDbBlockBegin
  2
*D13
 70
     1
 10
0.0
 20
0.0
 30
0.0
  3
*D13
  1

  0
LINE
  5
5ABC7
330
4E4A0
100
AcDbEntity
  8
AM_5
100
AcDbLine
 10
6231.270302585486
 20
-5563.359935316196
 30
0.0
 11
6231.270302585486
 21
-5579.359935316195
 31
0.0
  0
LINE
  5
5ABC8
330
4E4A0
100
AcDbEntity
  8
AM_5
100
AcDbLine
 10
6221.270302585486
 20
-5543.050918316196
 30
0.0
 11
6221.270302585486
 21
-5579.359935316195
 31
0.0
  0
LINE
  5
5ABC9
330
4E4A0
100
AcDbEntity
  8
AM_5
100
AcDbLine
 10
6230.270302585486
 20
-5578.359935316195
 30
0.0
 11
6222.270302585486
 21
-5578.359935316195
 31
0.0
  0
INSERT
  5
5ABCA
330
4E4A0
100
AcDbEntity
  8
AM_5
100
AcDbBlockReference
  2
_Dot
 10
6231.270302585486
 20
-5578.359935316195
 30
0.0
  0
INSERT
  5
5ABCB
330
4E4A0
100
AcDbEntity
  8
AM_5
100
AcDbBlockReference
  2
_Dot
 10
6221.270302585486
 20
-5578.359935316195
 30
0.0
 50
180.0
  0
MTEXT
  5
5ABCC
330
4E4A0
100
AcDbEntity
  8
AM_5
 62
     2
100
AcDbMText
 10
6226.270302585486
 20
-5575.759935316195
 30
0.0
 40
3.200000000000001
 41
0.0
 71
     5
 72
     1
  1
10
 73
     1
 44
1.0
1001
ACAD
1000
MTEXTBEGIN
1070
    73
1070
     1
1070
    44
1040
1.0
1070
    74
1070
     0
1000
MTEXTEND
  0
POINT
  5
5ABCD
330
4E4A0
100
AcDbEntity
  8
Defpoints
 62
     0
100
AcDbPoint
 10
6231.270302585486
 20
-5562.359935316195
 30
0.0
  0
POINT
  5
5ABCE
330
4E4A0
100
AcDbEntity
  8
Defpoints
 62
     0
100
AcDbPoint
 10
6221.270302585486
 20
-5542.050918316196
 30
0.0
  0
POINT
  5
5ABCF
330
4E4A0
100
AcDbEntity
  8
Defpoints
 62
     0
100
AcDbPoint
 10
6221.270302585486
 20
-5578.359935316195
 30
0.0
  0
ENDBLK
  5
4E4AB
330
4E4A0
100
AcDbEntity
  8
0
100
AcDbBlockEnd
  0
BLOCK
  5
4E4C2
330
4E4B6
100
AcDbEntity
  8
0
100
AcDbBlockBegin
  2
*D14
 70
     1
 10
0.0
 20
0.0
 30
0.0
  3
*D14
  1

  0
LINE
  5
5ABD0
330
4E4B6
100
AcDbEntity
  8
AM_5
100
AcDbLine
 10
6231.270302585486
 20
-5563.359935316196
 30
0.0
 11
6231.270302585486
 21
-5571.359935316195
 31
0.0
  0
LINE
  5
5ABD1
330
4E4B6
100
AcDbEntity
  8
AM_5
100
AcDbLine
 10
6229.270302585486
 20
-5563.359935316196
 30
0.0
 11
6229.270302585486
 21
-5571.359935316195
 31
0.0
  0
LINE
  5
5ABD2
330
4E4B6
100
AcDbEntity
  8
AM_5
100
AcDbLine
 10
6228.270302585486
 20
-5570.359935316195
 30
0.0
 11
6227.270302585487
 21
-5570.359935316195
 31
0.0
  0
LINE
  5
5ABD3
330
4E4B6
100
AcDbEntity
  8
AM_5
100
AcDbLine
 10
6232.270302585487
 20
-5570.359935316195
 30
0.0
 11
6236.763635918819
 21
-5570.359935316195
 31
0.0
  0
LINE
  5
5ABD4
330
4E4B6
100
AcDbEntity
  8
AM_5
100
AcDbLine
 10
6229.270302585486
 20
-5570.359935316195
 30
0.0
 11
6231.270302585486
 21
-5570.359935316195
 31
0.0
  0
INSERT
  5
5ABD5
330
4E4B6
100
AcDbEntity
  8
AM_5
100
AcDbBlockReference
  2
_Dot
 10
6229.270302585486
 20
-5570.359935316195
 30
0.0
  0
INSERT
  5
5ABD6
330
4E4B6
100
AcDbEntity
  8
AM_5
100
AcDbBlockReference
  2
_Dot
 10
6231.270302585486
 20
-5570.359935316195
 30
0.0
 50
180.0
  0
MTEXT
  5
5ABD7
330
4E4B6
100
AcDbEntity
  8
AM_5
 62
     2
100
AcDbMText
 10
6235.016969252153
 20
-5567.759935316195
 30
0.0
 40
3.200000000000001
 41
0.0
 71
     5
 72
     1
  1
2
 73
     1
 44
1.0
1001
ACAD
1000
MTEXTBEGIN
1070
    73
1070
     1
1070
    44
1040
1.0
1070
    74
1070
     0
1000
MTEXTEND
  0
POINT
  5
5ABD8
330
4E4B6
100
AcDbEntity
  8
Defpoints
 62
     0
100
AcDbPoint
 10
6231.270302585486
 20
-5562.359935316195
 30
0.0
  0
POINT
  5
5ABD9
330
4E4B6
100
AcDbEntity
  8
Defpoints
 62
     0
100
AcDbPoint
 10
6229.270302585486
 20
-5562.359935316195
 30
0.0
  0
POINT
  5
5ABDA
330
4E4B6
100
AcDbEntity
  8
Defpoints
 62
     0
100
AcDbPoint
 10
6229.270302585486
 20
-5570.359935316195
 30
0.0
  0
ENDBLK
  5
4E4C3
330
4E4B6
100
AcDbEntity
  8
0
100
AcDbBlockEnd
  0
BLOCK
  5
4E530
330
4E526
100
AcDbEntity
  8
0
100
AcDbBlockBegin
  2
*D15
 70
     1
 10
0.0
 20
0.0
 30
0.0
  3
*D15
  1

  0
LINE
  5
5ABDB
330
4E526
100
AcDbEntity
  8
AM_5
100
AcDbLine
 10
6251.270302585486
 20
-5437.964527321703
 30
0.0
 11
6251.270302585486
 21
-5457.464527321703
 31
0.0
  0
LINE
  5
5ABDC
330
4E526
100
AcDbEntity
  8
AM_5
100
AcDbLine
 10
6238.270302585487
 20
-5441.214527321703
 30
0.0
 11
6238.270302585487
 21
-5457.464527321703
 31
0.0
  0
LINE
  5
5ABDD
330
4E526
100
AcDbEntity
  8
AM_5
100
AcDbLine
 10
6250.270302585486
 20
-5456.464527321703
 30
0.0
 11
6239.270302585486
 21
-5456.464527321703
 31
0.0
  0
INSERT
  5
5ABDE
330
4E526
100
AcDbEntity
  8
AM_5
100
AcDbBlockReference
  2
_Dot
 10
6251.270302585486
 20
-5456.464527321703
 30
0.0
  0
INSERT
  5
5ABDF
330
4E526
100
AcDbEntity
  8
AM_5
100
AcDbBlockReference
  2
_Dot
 10
6238.270302585487
 20
-5456.464527321703
 30
0.0
 50
180.0
  0
MTEXT
  5
5ABE0
330
4E526
100
AcDbEntity
  8
AM_5
 62
     2
100
AcDbMText
 10
6244.770302585486
 20
-5453.864527321703
 30
0.0
 40
3.200000000000001
 41
0.0
 71
     5
 72
     1
  1
13
 73
     1
 44
1.0
1001
ACAD
1000
MTEXTBEGIN
1070
    73
1070
     1
1070
    44
1040
1.0
1070
    74
1070
     0
1000
MTEXTEND
  0
POINT
  5
5ABE1
330
4E526
100
AcDbEntity
  8
Defpoints
 62
     0
100
AcDbPoint
 10
6251.270302585486
 20
-5436.964527321703
 30
0.0
  0
POINT
  5
5ABE2
330
4E526
100
AcDbEntity
  8
Defpoints
 62
     0
100
AcDbPoint
 10
6238.270302585487
 20
-5440.214527321703
 30
0.0
  0
POINT
  5
5ABE3
330
4E526
100
AcDbEntity
  8
Defpoints
 62
     0
100
AcDbPoint
 10
6238.270302585487
 20
-5456.464527321703
 30
0.0
  0
ENDBLK
  5
4E531
330
4E526
100
AcDbEntity
  8
0
100
AcDbBlockEnd
  0
BLOCK
  5
4E546
330
4E53C
100
AcDbEntity
  8
0
100
AcDbBlockBegin
  2
*D16
 70
     1
 10
0.0
 20
0.0
 30
0.0
  3
*D16
  1

  0
LINE
  5
5ABE4
330
4E53C
100
AcDbEntity
  8
AM_5
100
AcDbLine
 10
6251.270302585486
 20
-5437.964527321703
 30
0.0
 11
6251.270302585486
 21
-5465.464527321703
 31
0.0
  0
LINE
  5
5ABE5
330
4E53C
100
AcDbEntity
  8
AM_5
100
AcDbLine
 10
6273.270302585486
 20
-5437.964527321703
 30
0.0
 11
6273.270302585486
 21
-5465.464527321703
 31
0.0
  0
LINE
  5
5ABE6
330
4E53C
100
AcDbEntity
  8
AM_5
100
AcDbLine
 10
6252.270302585486
 20
-5464.464527321703
 30
0.0
 11
6272.270302585486
 21
-5464.464527321703
 31
0.0
  0
INSERT
  5
5ABE7
330
4E53C
100
AcDbEntity
  8
AM_5
100
AcDbBlockReference
  2
_Dot
 10
6251.270302585486
 20
-5464.464527321703
 30
0.0
 50
180.0
  0
INSERT
  5
5ABE8
330
4E53C
100
AcDbEntity
  8
AM_5
100
AcDbBlockReference
  2
_Dot
 10
6273.270302585486
 20
-5464.464527321703
 30
0.0
  0
MTEXT
  5
5ABE9
330
4E53C
100
AcDbEntity
  8
AM_5
 62
     2
100
AcDbMText
 10
6262.270302585488
 20
-5461.864527321703
 30
0.0
 40
3.200000000000001
 41
0.0
 71
     5
 72
     1
  1
22
 73
     1
 44
1.0
1001
ACAD
1000
MTEXTBEGIN
1070
    73
1070
     1
1070
    44
1040
1.0
1070
    74
1070
     0
1000
MTEXTEND
  0
POINT
  5
5ABEA
330
4E53C
100
AcDbEntity
  8
Defpoints
 62
     0
100
AcDbPoint
 10
6251.270302585486
 20
-5436.964527321703
 30
0.0
  0
POINT
  5
5ABEB
330
4E53C
100
AcDbEntity
  8
Defpoints
 62
     0
100
AcDbPoint
 10
6273.270302585486
 20
-5436.964527321703
 30
0.0
  0
POINT
  5
5ABEC
330
4E53C
100
AcDbEntity
  8
Defpoints
 62
     0
100
AcDbPoint
 10
6273.270302585486
 20
-5464.464527321703
 30
0.0
  0
ENDBLK
  5
4E547
330
4E53C
100
AcDbEntity
  8
0
100
AcDbBlockEnd
  0
BLOCK
  5
4E55D
330
4E553
100
AcDbEntity
  8
0
100
AcDbBlockBegin
  2
*D17
 70
     1
 10
0.0
 20
0.0
 30
0.0
  3
*D17
  1

  0
LINE
  5
5AC7D
330
4E553
100
AcDbEntity
  8
AM_5
100
AcDbLine
 10
6251.270302585486
 20
-5437.964527321703
 30
0.0
 11
6251.270302585486
 21
-5465.464527321703
 31
0.0
  0
LINE
  5
5AC7E
330
4E553
100
AcDbEntity
  8
AM_5
100
AcDbLine
 10
6231.270302585486
 20
-5451.464527321703
 30
0.0
 11
6231.270302585486
 21
-5465.464527321703
 31
0.0
  0
LINE
  5
5AC7F
330
4E553
100
AcDbEntity
  8
AM_5
100
AcDbLine
 10
6250.270302585486
 20
-5464.464527321703
 30
0.0
 11
6232.270302585487
 21
-5464.464527321703
 31
0.0
  0
INSERT
  5
5AC80
330
4E553
100
AcDbEntity
  8
AM_5
100
AcDbBlockReference
  2
_Dot
 10
6251.270302585486
 20
-5464.464527321703
 30
0.0
  0
INSERT
  5
5AC81
330
4E553
100
AcDbEntity
  8
AM_5
100
AcDbBlockReference
  2
_Dot
 10
6231.270302585486
 20
-5464.464527321703
 30
0.0
 50
180.0
  0
MTEXT
  5
5AC82
330
4E553
100
AcDbEntity
  8
AM_5
 62
     2
100
AcDbMText
 10
6241.270302585486
 20
-5461.864527321703
 30
0.0
 40
3.200000000000001
 41
0.0
 71
     5
 72
     1
  1
20
 73
     1
 44
1.0
1001
ACAD
1000
MTEXTBEGIN
1070
    73
1070
     1
1070
    44
1040
1.0
1070
    74
1070
     0
1000
MTEXTEND
  0
POINT
  5
5AC83
330
4E553
100
AcDbEntity
  8
Defpoints
 62
     0
100
AcDbPoint
 10
6251.270302585486
 20
-5436.964527321703
 30
0.0
  0
POINT
  5
5AC84
330
4E553
100
AcDbEntity
  8
Defpoints
 62
     0
100
AcDbPoint
 10
6231.270302585486
 20
-5450.464527321702
 30
0.0
  0
POINT
  5
5AC85
330
4E553
100
AcDbEntity
  8
Defpoints
 62
     0
100
AcDbPoint
 10
6231.270302585486
 20
-5464.464527321703
 30
0.0
  0
ENDBLK
  5
4E55E
330
4E553
100
AcDbEntity
  8
0
100
AcDbBlockEnd
  0
BLOCK
  5
4E57C
330
4E572
100
AcDbEntity
  8
0
100
AcDbBlockBegin
  2
*D18
 70
     1
 10
0.0
 20
0.0
 30
0.0
  3
*D18
  1

  0
LINE
  5
5ABF6
330
4E572
100
AcDbEntity
  8
AM_5
100
AcDbLine
 10
6280.770302585486
 20
-5501.359935316195
 30
0.0
 11
6301.147827585485
 21
-5501.359935316195
 31
0.0
  0
LINE
  5
5ABF7
330
4E572
100
AcDbEntity
  8
AM_5
100
AcDbLine
 10
6246.408971585486
 20
-5480.573187316196
 30
0.0
 11
6301.147827585485
 21
-5480.573187316196
 31
0.0
  0
LINE
  5
5ABF8
330
4E572
100
AcDbEntity
  8
AM_5
100
AcDbLine
 10
6300.147827585485
 20
-5500.359935316195
 30
0.0
 11
6300.147827585485
 21
-5481.573187316196
 31
0.0
  0
INSERT
  5
5ABF9
330
4E572
100
AcDbEntity
  8
AM_5
100
AcDbBlockReference
  2
_Dot
 10
6300.147827585485
 20
-5501.359935316195
 30
0.0
 50
270.0
  0
INSERT
  5
5ABFA
330
4E572
100
AcDbEntity
  8
AM_5
100
AcDbBlockReference
  2
_Dot
 10
6300.147827585485
 20
-5480.573187316196
 30
0.0
 50
90.0
  0
MTEXT
  5
5ABFB
330
4E572
100
AcDbEntity
  8
AM_5
 62
     2
100
AcDbMText
 10
6297.547827585486
 20
-5490.966561316194
 30
0.0
 40
3.200000000000001
 41
0.0
 71
     5
 72
     1
  1
（19）
 11
0.0000000000000001
 21
1.0
 31
0.0
 73
     1
 44
1.0
1001
ACAD
1000
MTEXTBEGIN
1070
    73
1070
     1
1070
    44
1040
1.0
1070
    74
1070
     0
1000
MTEXTEND
  0
POINT
  5
5ABFC
330
4E572
100
AcDbEntity
  8
Defpoints
 62
     0
100
AcDbPoint
 10
6279.770302585486
 20
-5501.359935316195
 30
0.0
  0
POINT
  5
5ABFD
330
4E572
100
AcDbEntity
  8
Defpoints
 62
     0
100
AcDbPoint
 10
6245.408971585487
 20
-5480.573187316196
 30
0.0
  0
POINT
  5
5ABFE
330
4E572
100
AcDbEntity
  8
Defpoints
 62
     0
100
AcDbPoint
 10
6300.147827585485
 20
-5480.573187316196
 30
0.0
  0
ENDBLK
  5
4E57D
330
4E572
100
AcDbEntity
  8
0
100
AcDbBlockEnd
  0
BLOCK
  5
4E594
330
4E588
100
AcDbEntity
  8
0
100
AcDbBlockBegin
  2
*D19
 70
     1
 10
0.0
 20
0.0
 30
0.0
  3
*D19
  1

  0
LINE
  5
5ABFF
330
4E588
100
AcDbEntity
  8
AM_5
100
AcDbLine
 10
6280.770302585486
 20
-5501.359935316195
 30
0.0
 11
6293.147827585485
 21
-5501.359935316195
 31
0.0
  0
LINE
  5
5AC00
330
4E588
100
AcDbEntity
  8
AM_5
100
AcDbLine
 10
6280.770302585486
 20
-5499.359935316196
 30
0.0
 11
6293.147827585485
 21
-5499.359935316196
 31
0.0
  0
LINE
  5
5AC01
330
4E588
100
AcDbEntity
  8
AM_5
100
AcDbLine
 10
6292.147827585485
 20
-5498.359935316195
 30
0.0
 11
6292.147827585485
 21
-5497.359935316195
 31
0.0
  0
LINE
  5
5AC02
330
4E588
100
AcDbEntity
  8
AM_5
100
AcDbLine
 10
6292.147827585485
 20
-5502.359935316196
 30
0.0
 11
6292.147827585485
 21
-5506.853268649529
 31
0.0
  0
LINE
  5
5AC03
330
4E588
100
AcDbEntity
  8
AM_5
100
AcDbLine
 10
6292.147827585485
 20
-5499.359935316196
 30
0.0
 11
6292.147827585485
 21
-5501.359935316195
 31
0.0
  0
INSERT
  5
5AC04
330
4E588
100
AcDbEntity
  8
AM_5
100
AcDbBlockReference
  2
_Dot
 10
6292.147827585485
 20
-5499.359935316196
 30
0.0
 50
270.0
  0
INSERT
  5
5AC05
330
4E588
100
AcDbEntity
  8
AM_5
100
AcDbBlockReference
  2
_Dot
 10
6292.147827585485
 20
-5501.359935316195
 30
0.0
 50
90.0
  0
MTEXT
  5
5AC06
330
4E588
100
AcDbEntity
  8
AM_5
 62
     2
100
AcDbMText
 10
6289.547827585486
 20
-5505.106601982862
 30
0.0
 40
3.200000000000001
 41
0.0
 71
     5
 72
     1
  1
2
 11
0.0000000000000001
 21
1.0
 31
0.0
 73
     1
 44
1.0
1001
ACAD
1000
MTEXTBEGIN
1070
    73
1070
     1
1070
    44
1040
1.0
1070
    74
1070
     0
1000
MTEXTEND
  0
POINT
  5
5AC07
330
4E588
100
AcDbEntity
  8
Defpoints
 62
     0
100
AcDbPoint
 10
6279.770302585486
 20
-5501.359935316195
 30
0.0
  0
POINT
  5
5AC08
330
4E588
100
AcDbEntity
  8
Defpoints
 62
     0
100
AcDbPoint
 10
6279.770302585486
 20
-5499.359935316196
 30
0.0
  0
POINT
  5
5AC09
330
4E588
100
AcDbEntity
  8
Defpoints
 62
     0
100
AcDbPoint
 10
6292.147827585485
 20
-5499.359935316196
 30
0.0
  0
ENDBLK
  5
4E595
330
4E588
100
AcDbEntity
  8
0
100
AcDbBlockEnd
  0
BLOCK
  5
4E6D2
330
4E6C6
100
AcDbEntity
  8
0
100
AcDbBlockBegin
  2
*D20
 70
     1
 10
0.0
 20
0.0
 30
0.0
  3
*D20
  1

  0
LINE
  5
5AC0A
330
4E6C6
100
AcDbEntity
  8
AM_5
100
AcDbLine
 10
6170.35119126675
 20
-5515.859935316195
 30
0.0
 11
6170.35119126675
 21
-5516.623329033813
 31
0.0
  0
LINE
  5
5AC0B
330
4E6C6
100
AcDbEntity
  8
AM_5
100
AcDbLine
 10
6174.351191266749
 20
-5515.859935316195
 30
0.0
 11
6174.351191266749
 21
-5516.623329033813
 31
0.0
  0
LINE
  5
5AC0C
330
4E6C6
100
AcDbEntity
  8
AM_5
100
AcDbLine
 10
6171.351191266749
 20
-5515.623329033814
 30
0.0
 11
6173.35119126675
 21
-5515.623329033814
 31
0.0
  0
LINE
  5
5AC0D
330
4E6C6
100
AcDbEntity
  8
AM_5
100
AcDbLine
 10
6174.351191266749
 20
-5515.623329033814
 30
0.0
 11
6181.094440535425
 21
-5515.623329033814
 31
0.0
  0
INSERT
  5
5AC0E
330
4E6C6
100
AcDbEntity
  8
AM_5
100
AcDbBlockReference
  2
_Dot
 10
6170.35119126675
 20
-5515.623329033814
 30
0.0
 50
180.0
  0
INSERT
  5
5AC0F
330
4E6C6
100
AcDbEntity
  8
AM_5
100
AcDbBlockReference
  2
_Dot
 10
6174.351191266749
 20
-5515.623329033814
 30
0.0
  0
MTEXT
  5
5AC10
330
4E6C6
100
AcDbEntity
  8
AM_5
 62
     2
100
AcDbMText
 10
6178.281107202092
 20
-5513.023329033813
 30
0.0
 40
3.200000000000001
 41
0.0
 71
     5
 72
     1
  1
%%c4
 73
     1
 44
1.0
1001
ACAD
1000
MTEXTBEGIN
1070
    73
1070
     1
1070
    44
1040
1.0
1070
    74
1070
     0
1000
MTEXTEND
  0
POINT
  5
5AC11
330
4E6C6
100
AcDbEntity
  8
Defpoints
 62
     0
100
AcDbPoint
 10
6170.35119126675
 20
-5514.859935316195
 30
0.0
  0
POINT
  5
5AC12
330
4E6C6
100
AcDbEntity
  8
Defpoints
 62
     0
100
AcDbPoint
 10
6174.351191266749
 20
-5514.859935316195
 30
0.0
  0
POINT
  5
5AC13
330
4E6C6
100
AcDbEntity
  8
Defpoints
 62
     0
100
AcDbPoint
 10
6174.351191266749
 20
-5515.623329033814
 30
0.0
  0
ENDBLK
  5
4E6D3
330
4E6C6
100
AcDbEntity
  8
0
100
AcDbBlockEnd
  0
BLOCK
  5
4E789
330
4E77F
100
AcDbEntity
  8
0
100
AcDbBlockBegin
  2
*D21
 70
     1
 10
0.0
 20
0.0
 30
0.0
  3
*D21
  1

  0
LINE
  5
5AC14
330
4E77F
100
AcDbEntity
  8
AM_5
100
AcDbLine
 10
6235.270302585487
 20
-5554.552171316196
 30
0.0
 11
6309.147827585485
 21
-5554.552171316196
 31
0.0
  0
LINE
  5
5AC15
330
4E77F
100
AcDbEntity
  8
AM_5
100
AcDbLine
 10
6280.770302585486
 20
-5501.359935316195
 30
0.0
 11
6309.147827585485
 21
-5501.359935316195
 31
0.0
  0
LINE
  5
5AC16
330
4E77F
100
AcDbEntity
  8
AM_5
100
AcDbLine
 10
6308.147827585486
 20
-5553.552171316195
 30
0.0
 11
6308.147827585486
 21
-5502.359935316196
 31
0.0
  0
INSERT
  5
5AC17
330
4E77F
100
AcDbEntity
  8
AM_5
100
AcDbBlockReference
  2
_Dot
 10
6308.147827585486
 20
-5554.552171316196
 30
0.0
 50
270.0
  0
INSERT
  5
5AC18
330
4E77F
100
AcDbEntity
  8
AM_5
100
AcDbBlockReference
  2
_Dot
 10
6308.147827585486
 20
-5501.359935316195
 30
0.0
 50
90.0
  0
MTEXT
  5
5AC19
330
4E77F
100
AcDbEntity
  8
AM_5
 62
     2
100
AcDbMText
 10
6305.547827585486
 20
-5527.956053316193
 30
0.0
 40
3.200000000000001
 41
0.0
 71
     5
 72
     1
  1
（53）
 11
0.0000000000000001
 21
1.0
 31
0.0
 73
     1
 44
1.0
1001
ACAD
1000
MTEXTBEGIN
1070
    73
1070
     1
1070
    44
1040
1.0
1070
    74
1070
     0
1000
MTEXTEND
  0
POINT
  5
5AC1A
330
4E77F
100
AcDbEntity
  8
Defpoints
 62
     0
100
AcDbPoint
 10
6234.270302585486
 20
-5554.552171316196
 30
0.0
  0
POINT
  5
5AC1B
330
4E77F
100
AcDbEntity
  8
Defpoints
 62
     0
100
AcDbPoint
 10
6279.770302585486
 20
-5501.359935316195
 30
0.0
  0
POINT
  5
5AC1C
330
4E77F
100
AcDbEntity
  8
Defpoints
 62
     0
100
AcDbPoint
 10
6308.147827585486
 20
-5501.359935316195
 30
0.0
  0
ENDBLK
  5
4E78A
330
4E77F
100
AcDbEntity
  8
0
100
AcDbBlockEnd
  0
BLOCK
  5
4E7C6
330
4E7BC
100
AcDbEntity
  8
0
100
AcDbBlockBegin
  2
*D22
 70
     1
 10
0.0
 20
0.0
 30
0.0
  3
*D22
  1

  0
LINE
  5
5AC1D
330
4E7BC
100
AcDbEntity
  8
AM_5
100
AcDbLine
 10
6169.351191266748
 20
-5536.359935316195
 30
0.0
 11
6183.351191266748
 21
-5536.359935316195
 31
0.0
  0
LINE
  5
5AC1E
330
4E7BC
100
AcDbEntity
  8
AM_5
100
AcDbLine
 10
6175.851191266749
 20
-5554.552171316196
 30
0.0
 11
6183.351191266748
 21
-5554.552171316196
 31
0.0
  0
LINE
  5
5AC1F
330
4E7BC
100
AcDbEntity
  8
AM_5
100
AcDbLine
 10
6182.351191266748
 20
-5537.359935316196
 30
0.0
 11
6182.351191266748
 21
-5553.552171316195
 31
0.0
  0
INSERT
  5
5AC20
330
4E7BC
100
AcDbEntity
  8
AM_5
100
AcDbBlockReference
  2
_Dot
 10
6182.351191266748
 20
-5536.359935316195
 30
0.0
 50
90.0
  0
INSERT
  5
5AC21
330
4E7BC
100
AcDbEntity
  8
AM_5
100
AcDbBlockReference
  2
_Dot
 10
6182.351191266748
 20
-5554.552171316196
 30
0.0
 50
270.0
  0
MTEXT
  5
5AC22
330
4E7BC
100
AcDbEntity
  8
AM_5
 62
     2
100
AcDbMText
 10
6179.751191266749
 20
-5545.456053316192
 30
0.0
 40
3.200000000000001
 41
0.0
 71
     5
 72
     1
  1
（18）
 11
0.0000000000000001
 21
1.0
 31
0.0
 73
     1
 44
1.0
1001
ACAD
1000
MTEXTBEGIN
1070
    73
1070
     1
1070
    44
1040
1.0
1070
    74
1070
     0
1000
MTEXTEND
  0
POINT
  5
5AC23
330
4E7BC
100
AcDbEntity
  8
Defpoints
 62
     0
100
AcDbPoint
 10
6168.351191266749
 20
-5536.359935316195
 30
0.0
  0
POINT
  5
5AC24
330
4E7BC
100
AcDbEntity
  8
Defpoints
 62
     0
100
AcDbPoint
 10
6174.851191266749
 20
-5554.552171316196
 30
0.0
  0
POINT
  5
5AC25
330
4E7BC
100
AcDbEntity
  8
Defpoints
 62
     0
100
AcDbPoint
 10
6182.351191266748
 20
-5554.552171316196
 30
0.0
  0
ENDBLK
  5
4E7C7
330
4E7BC
100
AcDbEntity
  8
0
100
AcDbBlockEnd
  0
BLOCK
  5
551AA
330
551A0
100
AcDbEntity
  8
0
100
AcDbBlockBegin
  2
*D23
 70
     1
 10
0.0
 20
0.0
 30
0.0
  3
*D23
  1

  0
LINE
  5
5AC26
330
551A0
100
AcDbEntity
  8
AM_5
100
AcDbLine
 10
6280.770302585486
 20
-5501.359935316195
 30
0.0
 11
6309.147827585485
 21
-5501.359935316195
 31
0.0
  0
LINE
  5
5AC27
330
551A0
100
AcDbEntity
  8
AM_5
100
AcDbLine
 10
6263.270302585486
 20
-5475.359935316195
 30
0.0
 11
6309.147827585485
 21
-5475.359935316195
 31
0.0
  0
LINE
  5
5AC28
330
551A0
100
AcDbEntity
  8
AM_5
100
AcDbLine
 10
6308.147827585486
 20
-5500.359935316195
 30
0.0
 11
6308.147827585486
 21
-5476.359935316196
 31
0.0
  0
INSERT
  5
5AC29
330
551A0
100
AcDbEntity
  8
AM_5
100
AcDbBlockReference
  2
_Dot
 10
6308.147827585486
 20
-5501.359935316195
 30
0.0
 50
270.0
  0
INSERT
  5
5AC2A
330
551A0
100
AcDbEntity
  8
AM_5
100
AcDbBlockReference
  2
_Dot
 10
6308.147827585486
 20
-5475.359935316195
 30
0.0
 50
90.0
  0
MTEXT
  5
5AC2B
330
551A0
100
AcDbEntity
  8
AM_5
 62
     2
100
AcDbMText
 10
6305.547827585486
 20
-5488.359935316193
 30
0.0
 40
3.200000000000001
 41
0.0
 71
     5
 72
     1
  1
26
 11
0.0000000000000001
 21
1.0
 31
0.0
 73
     1
 44
1.0
1001
ACAD
1000
MTEXTBEGIN
1070
    73
1070
     1
1070
    44
1040
1.0
1070
    74
1070
     0
1000
MTEXTEND
  0
POINT
  5
5AC2C
330
551A0
100
AcDbEntity
  8
Defpoints
 62
     0
100
AcDbPoint
 10
6279.770302585486
 20
-5501.359935316195
 30
0.0
  0
POINT
  5
5AC2D
330
551A0
100
AcDbEntity
  8
Defpoints
 62
     0
100
AcDbPoint
 10
6262.270302585486
 20
-5475.359935316195
 30
0.0
  0
POINT
  5
5AC2E
330
551A0
100
AcDbEntity
  8
Defpoints
 62
     0
100
AcDbPoint
 10
6308.147827585486
 20
-5475.359935316195
 30
0.0
  0
ENDBLK
  5
551AB
330
551A0
100
AcDbEntity
  8
0
100
AcDbBlockEnd
  0
BLOCK
  5
551EB
330
551E4
100
AcDbEntity
  8
0
100
AcDbBlockBegin
  2
*D24
 70
     1
 10
0.0
 20
0.0
 30
0.0
  3
*D24
  1

  0
LINE
  5
5AC2F
330
551E4
100
AcDbEntity
  8
AM_5
100
AcDbLine
 10
6275.765701128014
 20
-5472.579491232437
 30
0.0
 11
6271.352367794673
 21
-5472.579491232437
 31
0.0
  0
LINE
  5
5AC30
330
551E4
100
AcDbEntity
  8
AM_5
100
AcDbLine
 10
6271.352367794673
 20
-5472.579491232437
 30
0.0
 11
6266.012833259336
 21
-5478.329617195341
 31
0.0
  0
LINE
  5
5AC31
330
551E4
100
AcDbEntity
  8
AM_5
100
AcDbLine
 10
6258.527771911632
 20
-5486.390253437043
 30
0.0
 11
6257.847311789113
 21
-5487.123038549924
 31
0.0
  0
MTEXT
  5
5AC32
330
551E4
100
AcDbEntity
  8
AM_5
 62
     2
100
AcDbMText
 10
6274.059034461346
 20
-5469.979491232437
 30
0.0
 40
3.2
 41
0.0
 71
     5
 72
     1
  1
\U+22059
 73
     1
 44
1.0
1001
ACAD
1000
MTEXTBEGIN
1070
    73
1070
     1
1070
    44
1040
1.0
1070
    74
1070
     0
1000
MTEXTEND
  0
LINE
  5
5AC33
330
551E4
100
AcDbEntity
  8
AM_5
100
AcDbLine
 10
6259.208232034151
 20
-5485.65746832416
 30
0.0
 11
6265.332373136818
 21
-5479.062402308223
 31
0.0
  0
INSERT
  5
5AC34
330
551E4
100
AcDbEntity
  8
AM_5
100
AcDbBlockReference
  2
_Dot
 10
6259.208232034151
 20
-5485.65746832416
 30
0.0
 50
47.12039088895989
  0
INSERT
  5
5AC35
330
551E4
100
AcDbEntity
  8
AM_5
100
AcDbBlockReference
  2
_Dot
 10
6265.332373136818
 20
-5479.062402308223
 30
0.0
 50
227.1203908889599
  0
POINT
  5
5AC36
330
551E4
100
AcDbEntity
  8
Defpoints
 62
     0
100
AcDbPoint
 10
6265.332373136818
 20
-5479.062402308223
 30
0.0
  0
POINT
  5
5AC37
330
551E4
100
AcDbEntity
  8
Defpoints
 62
     0
100
AcDbPoint
 10
6259.208232034151
 20
-5485.65746832416
 30
0.0
  0
ENDBLK
  5
551EC
330
551E4
100
AcDbEntity
  8
0
100
AcDbBlockEnd
  0
BLOCK
  5
59636
330
5962F
100
AcDbEntity
  8
0
100
AcDbBlockBegin
  2
*D25
 70
     1
 10
0.0
 20
0.0
 30
0.0
  3
*D25
  1

  0
LINE
  5
5AC38
330
5962F
100
AcDbEntity
  8
AM_5
100
AcDbLine
 10
6104.554615608763
 20
-5568.740720807372
 30
0.0
 11
6132.02928227544
 21
-5568.740720807373
 31
0.0
  0
LINE
  5
5AC39
330
5962F
100
AcDbEntity
  8
AM_5
100
AcDbLine
 10
6132.02928227544
 20
-5568.740720807373
 30
0.0
 11
6140.876007954382
 21
-5558.553808599288
 31
0.0
  0
LINE
  5
5AC3A
330
5962F
100
AcDbEntity
  8
AM_5
100
AcDbLine
 10
6147.826374579123
 20
-5550.550534033109
 30
0.0
 11
6148.482069543721
 21
-5549.795508130639
 31
0.0
  0
MTEXT
  5
5AC3B
330
5962F
100
AcDbEntity
  8
AM_5
 62
     2
100
AcDbMText
 10
6117.791948942095
 20
-5566.140720807373
 30
0.0
 40
3.2
 41
0.0
 71
     5
 72
     1
  1
2-%%c5.2×\U+22058.6サラ
 73
     1
 44
1.0
1001
ACAD
1000
MTEXTBEGIN
1070
    73
1070
     1
1070
    44
1040
1.0
1070
    74
1070
     0
1000
MTEXTEND
  0
LINE
  5
5AC3C
330
5962F
100
AcDbEntity
  8
AM_5
100
AcDbLine
 10
6147.170679614525
 20
-5551.305559935579
 30
0.0
 11
6141.53170291898
 21
-5557.798782696818
 31
0.0
  0
INSERT
  5
5AC3D
330
5962F
100
AcDbEntity
  8
AM_5
100
AcDbBlockReference
  2
_Dot
 10
6147.170679614525
 20
-5551.305559935579
 30
0.0
 50
229.0276331224636
  0
INSERT
  5
5AC3E
330
5962F
100
AcDbEntity
  8
AM_5
100
AcDbBlockReference
  2
_Dot
 10
6141.53170291898
 20
-5557.798782696818
 30
0.0
 50
49.02763312246357
  0
POINT
  5
5AC3F
330
5962F
100
AcDbEntity
  8
Defpoints
 62
     0
100
AcDbPoint
 10
6141.53170291898
 20
-5557.798782696818
 30
0.0
  0
POINT
  5
5AC40
330
5962F
100
AcDbEntity
  8
Defpoints
 62
     0
100
AcDbPoint
 10
6147.170679614525
 20
-5551.305559935579
 30
0.0
  0
ENDBLK
  5
59637
330
5962F
100
AcDbEntity
  8
0
100
AcDbBlockEnd
  0
BLOCK
  5
5968B
330
59681
100
AcDbEntity
  8
0
100
AcDbBlockBegin
  2
*D26
 70
     1
 10
0.0
 20
0.0
 30
0.0
  3
*D26
  1

  0
LINE
  5
5AC41
330
59681
100
AcDbEntity
  8
AM_5
100
AcDbLine
 10
6316.218247050408
 20
-5455.667641543625
 30
0.0
 11
6288.743580383738
 21
-5455.667641543626
 31
0.0
  0
LINE
  5
5AC42
330
59681
100
AcDbEntity
  8
AM_5
100
AcDbLine
 10
6288.743580383738
 20
-5455.667641543626
 30
0.0
 11
6276.043294899931
 21
-5434.981220096738
 31
0.0
  0
LINE
  5
5AC43
330
59681
100
AcDbEntity
  8
AM_5
100
AcDbLine
 10
6270.497310271043
 20
-5425.947834546673
 30
0.0
 11
6269.974104173979
 21
-5425.095628362704
 31
0.0
  0
MTEXT
  5
5AC44
330
59681
100
AcDbEntity
  8
AM_5
 62
     2
100
AcDbMText
 10
6302.980913717076
 20
-5453.067641543625
 30
0.0
 40
3.2
 41
0.0
 71
     5
 72
     1
  1
2-%%c5.2×\U+22058.6サラ
 73
     1
 44
1.0
1001
ACAD
1000
MTEXTBEGIN
1070
    73
1070
     1
1070
    44
1040
1.0
1070
    74
1070
     0
1000
MTEXTEND
  0
LINE
  5
5AC45
330
59681
100
AcDbEntity
  8
AM_5
100
AcDbLine
 10
6271.020516368107
 20
-5426.800040730642
 30
0.0
 11
6275.520088802864
 21
-5434.12901391277
 31
0.0
  0
INSERT
  5
5AC46
330
59681
100
AcDbEntity
  8
AM_5
100
AcDbBlockReference
  2
_Dot
 10
6271.020516368107
 20
-5426.800040730642
 30
0.0
 50
301.5475569134746
  0
INSERT
  5
5AC47
330
59681
100
AcDbEntity
  8
AM_5
100
AcDbBlockReference
  2
_Dot
 10
6275.520088802864
 20
-5434.12901391277
 30
0.0
 50
121.5475569134745
  0
POINT
  5
5AC48
330
59681
100
AcDbEntity
  8
Defpoints
 62
     0
100
AcDbPoint
 10
6275.520088802864
 20
-5434.12901391277
 30
0.0
  0
POINT
  5
5AC49
330
59681
100
AcDbEntity
  8
Defpoints
 62
     0
100
AcDbPoint
 10
6271.020516368107
 20
-5426.800040730642
 30
0.0
  0
ENDBLK
  5
5968C
330
59681
100
AcDbEntity
  8
0
100
AcDbBlockEnd
  0
ENDSEC
  0
SECTION
  2
ENTITIES
  0
TEXT
  5
31B30
330
1F
100
AcDbEntity
  8
AM_6
 60
     1
100
AcDbText
 10
3408.785415022811
 20
1879.970675238635
 30
0.0
 40
2.5
  1
!GENTITLE-INSERT
100
AcDbText
  0
TEXT
  5
31B31
330
1F
100
AcDbEntity
  8
AM_6
 60
     1
100
AcDbText
 10
3000.285415022811
 20
1871.470675238635
 30
0.0
 40
2.5
  1
!GENTITLE-LL
100
AcDbText
  0
TEXT
  5
31B32
330
1F
100
AcDbEntity
  8
AM_6
 60
     1
100
AcDbText
 10
3420.285415022811
 20
2168.470675238635
 30
0.0
 40
2.5
  1
!GENTITLE-RU
100
AcDbText
  0
TEXT
  5
31B33
330
1F
100
AcDbEntity
  8
AM_6
 60
     1
100
AcDbText
 10
3420.285415022811
 20
2168.470675238635
 30
0.0
 40
2.5
  1
!GENTITLE-MAX
100
AcDbText
  0
TEXT
  5
31B3B
330
1F
100
AcDbEntity
  8
AM_6
 60
     1
100
AcDbText
 10
3000.285415022811
 20
1871.470675238635
 30
0.0
 40
2.5
  1
!GENTITLE-LL
100
AcDbText
  0
TEXT
  5
31B3C
330
1F
100
AcDbEntity
  8
AM_6
 60
     1
100
AcDbText
 10
3408.785415022811
 20
2159.970675238636
 30
0.0
 40
2.5
  1
!GENTITLE-RU
100
AcDbText
  0
TEXT
  5
31B3D
330
1F
100
AcDbEntity
  8
AM_6
 60
     1
100
AcDbText
 10
3420.285415022811
 20
2168.470675238635
 30
0.0
 40
2.5
  1
!GENTITLE-MAX
100
AcDbText
  0
TEXT
  5
31B3E
330
1F
100
AcDbEntity
  8
AM_6
 60
     1
100
AcDbText
 10
3408.785415022811
 20
1879.970675238635
 30
0.0
 40
2.5
  1
!GENTITLE-INSERT
100
AcDbText
  0
TEXT
  5
32D1D
330
1F
100
AcDbEntity
  8
AM_6
 60
     1
100
AcDbText
 10
3234.949399973154
 20
1839.277532086519
 30
0.0
 40
2.5
  1
!GENTITLE-INSERT
100
AcDbText
  0
TEXT
  5
32D1E
330
1F
100
AcDbEntity
  8
AM_6
 60
     1
100
AcDbText
 10
3246.449399973154
 20
2040.77753208652
 30
0.0
 40
2.5
  1
!GENTITLE-MAX
100
AcDbText
  0
TEXT
  5
32D1F
330
1F
100
AcDbEntity
  8
AM_6
 60
     1
100
AcDbText
 10
3246.449399973154
 20
2040.77753208652
 30
0.0
 40
2.5
  1
!GENTITLE-RU
100
AcDbText
  0
TEXT
  5
32D21
330
1F
100
AcDbEntity
  8
AM_6
 60
     1
100
AcDbText
 10
2949.449399973154
 20
1830.777532086519
 30
0.0
 40
2.5
  1
!GENTITLE-LL
100
AcDbText
  0
TEXT
  5
34534
330
1F
100
AcDbEntity
  8
AM_6
 60
     1
100
AcDbText
 10
3774.506320898737
 20
958.0958490755065
 30
0.0
 40
2.5
  1
!GENTITLE-INSERT
100
AcDbText
  0
TEXT
  5
34535
330
1F
100
AcDbEntity
  8
AM_6
 60
     1
100
AcDbText
 10
3786.006320898738
 20
1159.595849075506
 30
0.0
 40
2.5
  1
!GENTITLE-MAX
100
AcDbText
  0
TEXT
  5
34536
330
1F
100
AcDbEntity
  8
AM_6
 60
     1
100
AcDbText
 10
3786.006320898738
 20
1159.595849075506
 30
0.0
 40
2.5
  1
!GENTITLE-RU
100
AcDbText
  0
TEXT
  5
34538
330
1F
100
AcDbEntity
  8
AM_6
 60
     1
100
AcDbText
 10
3489.006320898738
 20
949.5958490755064
 30
0.0
 40
2.5
  1
!GENTITLE-LL
100
AcDbText
  0
TEXT
  5
4E0E8
330
1F
100
AcDbEntity
  8
AM_6
 60
     1
100
AcDbText
 10
5957.394900433246
 20
-5651.939004350452
 30
0.0
 40
2.5
  1
!GENTITLE-INSERT
100
AcDbText
  0
TEXT
  5
4E0E9
330
1F
100
AcDbEntity
  8
AM_6
 60
     1
100
AcDbText
 10
5548.894900433246
 20
-5660.439004350451
 30
0.0
 40
2.5
  1
!GENTITLE-LL
100
AcDbText
  0
TEXT
  5
4E0EA
330
1F
100
AcDbEntity
  8
AM_6
 60
     1
100
AcDbText
 10
5968.894900433246
 20
-5363.439004350452
 30
0.0
 40
2.5
  1
!GENTITLE-RU
100
AcDbText
  0
TEXT
  5
4E0EB
330
1F
100
AcDbEntity
  8
AM_6
 60
     1
100
AcDbText
 10
5968.894900433246
 20
-5363.439004350452
 30
0.0
 40
2.5
  1
!GENTITLE-MAX
100
AcDbText
  0
TEXT
  5
4E0F3
330
1F
100
AcDbEntity
  8
AM_6
 60
     1
100
AcDbText
 10
5548.894900433246
 20
-5660.439004350451
 30
0.0
 40
2.5
  1
!GENTITLE-LL
100
AcDbText
  0
TEXT
  5
4E0F4
330
1F
100
AcDbEntity
  8
AM_6
 60
     1
100
AcDbText
 10
5957.394900433246
 20
-5371.939004350451
 30
0.0
 40
2.5
  1
!GENTITLE-RU
100
AcDbText
  0
TEXT
  5
4E0F5
330
1F
100
AcDbEntity
  8
AM_6
 60
     1
100
AcDbText
 10
5968.894900433246
 20
-5363.439004350452
 30
0.0
 40
2.5
  1
!GENTITLE-MAX
100
AcDbText
  0
TEXT
  5
4E0F6
330
1F
100
AcDbEntity
  8
AM_6
 60
     1
100
AcDbText
 10
5957.394900433246
 20
-5651.939004350452
 30
0.0
 40
2.5
  1
!GENTITLE-INSERT
100
AcDbText
  0
LINE
  5
4E0FB
330
1F
100
AcDbEntity
  8
AM_2
370
    13
100
AcDbLine
 10
6106.424675701049
 20
-5391.20188918955
 30
0.0
 11
6106.424675701048
 21
-5423.201889189551
 31
0.0
  0
LINE
  5
4E0FC
330
1F
100
AcDbEntity
  8
AM_2
370
    13
100
AcDbLine
 10
6086.424675701049
 20
-5399.20188918955
 30
0.0
 11
6173.424675701049
 21
-5399.20188918955
 31
0.0
  0
LINE
  5
4E0FD
330
1F
100
AcDbEntity
  8
AM_2
370
    13
100
AcDbLine
 10
6086.424675701049
 20
-5407.20188918955
 30
0.0
 11
6173.424675701049
 21
-5407.20188918955
 31
0.0
  0
LINE
  5
4E0FE
330
1F
100
AcDbEntity
  8
AM_2
370
    13
100
AcDbLine
 10
6086.424675701049
 20
-5415.20188918955
 30
0.0
 11
6173.424675701049
 21
-5415.20188918955
 31
0.0
  0
LINE
  5
4E0FF
330
1F
100
AcDbEntity
  8
AM_1
100
AcDbLine
 10
6086.424675701049
 20
-5423.20188918955
 30
0.0
 11
6173.424675701049
 21
-5423.20188918955
 31
0.0
  0
LINE
  5
4E100
330
1F
100
AcDbEntity
  8
AM_1
100
AcDbLine
 10
6086.424675701049
 20
-5391.20188918955
 30
0.0
 11
6086.42467570105
 21
-5431.20188918955
 31
0.0
  0
LINE
  5
4E101
330
1F
100
AcDbEntity
  8
AM_1
100
AcDbLine
 10
6086.424675701049
 20
-5391.20188918955
 30
0.0
 11
6173.424675701049
 21
-5391.20188918955
 31
0.0
  0
LINE
  5
4E102
330
1F
100
AcDbEntity
  8
AM_1
100
AcDbLine
 10
6173.424675701049
 20
-5391.20188918955
 30
0.0
 11
6173.424675701048
 21
-5423.201889189551
 31
0.0
  0
TEXT
  5
4E103
330
1F
100
AcDbEntity
  8
AM_6
100
AcDbText
 10
6092.08167570105
 20
-5396.80188918955
 30
0.0
 40
3.2
  1
品　名
 41
0.85537027
100
AcDbText
  0
TEXT
  5
4E104
330
1F
100
AcDbEntity
  8
AM_6
100
AcDbText
 10
6092.08167570105
 20
-5404.80188918955
 30
0.0
 40
3.2
  1
品　番
 41
0.85537027
100
AcDbText
  0
TEXT
  5
4E105
330
1F
100
AcDbEntity
  8
AM_6
100
AcDbText
 10
6092.08167570105
 20
-5412.80188918955
 30
0.0
 40
3.2
  1
材　質
 41
0.85537027
100
AcDbText
  0
TEXT
  5
4E106
330
1F
100
AcDbEntity
  8
AM_6
100
AcDbText
 10
6092.08167570105
 20
-5420.80188918955
 30
0.0
 40
3.2
  1
仕上げ
 41
0.85537027
100
AcDbText
  0
TEXT
  5
4E107
330
1F
100
AcDbEntity
  8
AM_6
100
AcDbText
 10
6109.281675701049
 20
-5396.80188918955
 30
0.0
 40
3.2
  1
鍵穴付首長パチン錠
 41
0.84306961
100
AcDbText
  0
TEXT
  5
4E108
330
1F
100
AcDbEntity
  8
AM_6
100
AcDbText
 10
6109.281675701049
 20
-5404.80188918955
 30
0.0
 40
3.2
  1
ELP-B120S
 41
0.84741102
100
AcDbText
  0
TEXT
  5
4E109
330
1F
100
AcDbEntity
  8
AM_6
100
AcDbText
 10
6109.281675701049
 20
-5412.80188918955
 30
0.0
 40
3.2
  1
ステンレス
 41
0.84634979
100
AcDbText
  0
TEXT
  5
4E10A
330
1F
100
AcDbEntity
  8
AM_6
100
AcDbText
 10
6109.281675701049
 20
-5420.80188918955
 30
0.0
 40
3.2
  1
光沢バレル研磨
 41
0.84350122
100
AcDbText
  0
LINE
  5
4E146
330
1F
100
AcDbEntity
  8
0部品4
100
AcDbLine
 10
6174.351191266749
 20
-5536.859935316195
 30
0.0
 11
6174.351191266749
 21
-5513.303241316195
 31
0.0
  0
LINE
  5
4E147
330
1F
100
AcDbEntity
  8
0部品4
100
AcDbLine
 10
6170.35119126675
 20
-5536.859935316195
 30
0.0
 11
6170.35119126675
 21
-5513.303241316195
 31
0.0
  0
LINE
  5
4E167
330
1F
100
AcDbEntity
  8
0部品6
100
AcDbLine
 10
6229.270302585486
 20
-5536.895833316195
 30
0.0
 11
6229.270302585486
 21
-5546.710519316196
 31
0.0
  0
LINE
  5
4E16B
330
1F
100
AcDbEntity
  8
0部品6
100
AcDbLine
 10
6231.270302585486
 20
-5562.359935316195
 30
0.0
 11
6231.270302585486
 21
-5553.377279316195
 31
0.0
  0
LINE
  5
4E1BF
330
1F
100
AcDbEntity
  8
0部品4
100
AcDbLine
 10
6250.1142136966
 20
-5491.173168350457
 30
0.0
 11
6231.579829585485
 21
-5499.815894316196
 31
0.0
  0
LINE
  5
4E1C0
330
1F
100
AcDbEntity
  8
0部品4
100
AcDbLine
 10
6145.851191266749
 20
-5487.359935316195
 30
0.0
 11
6152.851191266749
 21
-5487.359935316195
 31
0.0
  0
LINE
  5
4E1C2
330
1F
100
AcDbEntity
  8
0部品2
100
AcDbLine
 10
6157.351191266749
 20
-5475.359935316195
 30
0.0
 11
6157.351191266749
 21
-5480.573187316196
 31
0.0
  0
ARC
  5
4E1C3
330
1F
100
AcDbEntity
  8
0部品1
100
AcDbCircle
 10
6156.351191266749
 20
-5493.554874316195
 30
0.0
 40
2.0
100
AcDbArc
 50
300.0000000000079
 51
316.3501722580834
  0
LINE
  5
4E1C5
330
1F
100
AcDbEntity
  8
0部品1
100
AcDbLine
 10
6242.968571585485
 20
-5485.362743316195
 30
0.0
 11
6245.408971585487
 21
-5480.573187316196
 31
0.0
  0
ARC
  5
4E1C6
330
1F
100
AcDbEntity
  8
0部品4
100
AcDbCircle
 10
6143.851191266749
 20
-5536.859935316195
 30
0.0
 40
1.5
100
AcDbArc
 50
180.0
 51
270.0
  0
LINE
  5
4E1C8
330
1F
100
AcDbEntity
  8
0部品6
100
AcDbLine
 10
6168.351191266749
 20
-5542.359935316195
 30
0.0
 11
6168.351191266749
 21
-5546.359935316195
 31
0.0
  0
LINE
  5
4E1C9
330
1F
100
AcDbEntity
  8
0部品4
100
AcDbLine
 10
6166.851191266749
 20
-5487.359935316195
 30
0.0
 11
6162.351191266749
 21
-5487.359935316195
 31
0.0
  0
ARC
  5
4E1CC
330
1F
100
AcDbEntity
  8
0部品1
100
AcDbCircle
 10
6279.892412585486
 20
-5490.848257316195
 30
0.0
 40
8.5
100
AcDbArc
 50
243.0000000000128
 51
303.0000000000246
  0
LINE
  5
4E1CE
330
1F
100
AcDbEntity
  8
0部品3
100
AcDbLine
 10
6240.770302585486
 20
-5420.714527321703
 30
0.0
 11
6240.770302585486
 21
-5419.964527321702
 31
0.0
  0
LINE
  5
4E1D0
330
1F
100
AcDbEntity
  8
0部品1
100
AcDbLine
 10
6235.770302585486
 20
-5417.964527321704
 30
0.0
 11
6235.770302585486
 21
-5419.964527321702
 31
0.0
  0
ARC
  5
4E1D2
330
1F
100
AcDbEntity
  8
0部品2
100
AcDbCircle
 10
6148.601191266749
 20
-5499.359935316196
 30
0.0
 40
2.0
100
AcDbArc
 50
180.0
 51
270.0
  0
LINE
  5
4E1D3
330
1F
100
AcDbEntity
  8
0部品6
100
AcDbLine
 10
6144.351191266749
 20
-5546.359935316195
 30
0.0
 11
6144.351191266749
 21
-5542.359935316195
 31
0.0
  0
LINE
  5
4E1D4
330
1F
100
AcDbEntity
  8
0部品10
100
AcDbLine
 10
6240.319795585485
 20
-5424.160864321703
 30
0.0
 11
6244.500990585486
 21
-5424.770621321703
 31
0.0
  0
LINE
  5
4E1D5
330
1F
100
AcDbEntity
  8
0部品1
100
AcDbLine
 10
6255.428030585485
 20
-5432.464527321703
 30
0.0
 11
6272.812187585486
 21
-5432.464527321703
 31
0.0
  0
ARC
  5
4E1D6
330
1F
100
AcDbEntity
  8
0部品10
100
AcDbCircle
 10
6240.370302585485
 20
-5425.214527321703
 30
0.0
 40
0.35
100
AcDbArc
 50
90.0
 51
261.7028550301944
  0
LINE
  5
4E1D7
330
1F
100
AcDbEntity
  8
0部品10
100
AcDbLine
 10
6163.34752781012
 20
-5494.810442728771
 30
0.0
 11
6163.351191266749
 21
-5489.959935316196
 31
0.0
  0
ARC
  5
4E1D8
330
1F
100
AcDbEntity
  8
0部品10
100
AcDbCircle
 10
6151.801191266748
 20
-5494.759935316196
 30
0.0
 40
0.35
100
AcDbArc
 50
180.0
 51
351.7028550301944
  0
LINE
  5
4E1D9
330
1F
100
AcDbEntity
  8
0部品1
100
AcDbLine
 10
6145.851191266749
 20
-5480.573187316196
 30
0.0
 11
6166.851191266749
 21
-5480.573187316196
 31
0.0
  0
LINE
  5
4E1DA
330
1F
100
AcDbEntity
  8
0部品2
100
AcDbLine
 10
6238.270302585487
 20
-5501.162383316195
 30
0.0
 11
6238.270302585487
 21
-5499.359935316196
 31
0.0
  0
ARC
  5
4E1DB
330
1F
100
AcDbEntity
  8
0部品10
100
AcDbCircle
 10
6158.801191266749
 20
-5494.759935316196
 30
0.0
 40
0.35
100
AcDbArc
 50
180.0
 51
351.7028550301944
  0
LINE
  5
4E1DC
330
1F
100
AcDbEntity
  8
0部品6
100
AcDbLine
 10
6221.270302585486
 20
-5418.464527321702
 30
0.0
 11
6231.270302585486
 21
-5418.464527321702
 31
0.0
  0
ARC
  5
4E1DD
330
1F
100
AcDbEntity
  8
0部品4
100
AcDbCircle
 10
6143.851191266749
 20
-5536.859935316195
 30
0.0
 40
5.5
100
AcDbArc
 50
180.0
 51
270.0
  0
ARC
  5
4E1DE
330
1F
100
AcDbEntity
  8
0部品10
100
AcDbCircle
 10
6163.001191266749
 20
-5494.759935316196
 30
0.0
 40
0.35
100
AcDbArc
 50
180.0
 51
351.7028550301944
  0
LINE
  5
4E1DF
330
1F
100
AcDbEntity
  8
0部品2
100
AcDbLine
 10
6166.101191266749
 20
-5487.859935316195
 30
0.0
 11
6166.101191266749
 21
-5499.359935316196
 31
0.0
  0
LINE
  5
4E1E0
330
1F
100
AcDbEntity
  8
0部品4
100
AcDbLine
 10
6245.770302585486
 20
-5448.464527321704
 30
0.0
 11
6227.270302585487
 21
-5448.464527321704
 31
0.0
  0
LINE
  5
4E1E1
330
1F
100
AcDbEntity
  8
0部品1
100
AcDbLine
 10
6143.851191266749
 20
-5482.573187316195
 30
0.0
 11
6143.851191266749
 21
-5499.359935316196
 31
0.0
  0
CIRCLE
  5
4E1E2
330
1F
100
AcDbEntity
  8
0部品6
100
AcDbCircle
 10
6168.351191266749
 20
-5554.552171316196
 30
0.0
 40
2.6
  0
CIRCLE
  5
4E1E4
330
1F
100
AcDbEntity
  8
0部品6
100
AcDbCircle
 10
6168.351191266749
 20
-5554.552171316196
 30
0.0
 40
4.299999999999999
  0
LINE
  5
4E1E5
330
1F
100
AcDbEntity
  8
0部品2
100
AcDbLine
 10
6164.101191266749
 20
-5499.359935316196
 30
0.0
 11
6164.101191266749
 21
-5487.859935316195
 31
0.0
  0
LINE
  5
4E1E8
330
1F
100
AcDbEntity
  8
0部品6
100
AcDbLine
 10
6231.270302585486
 20
-5416.464527321704
 30
0.0
 11
6231.270302585486
 21
-5444.464527321702
 31
0.0
  0
LINE
  5
4E1E9
330
1F
100
AcDbEntity
  8
0部品3
100
AcDbLine
 10
6166.101191266749
 20
-5490.359935316195
 30
0.0
 11
6166.851191266749
 21
-5490.359935316195
 31
0.0
  0
ARC
  5
4E1EA
330
1F
100
AcDbEntity
  8
0部品10
100
AcDbCircle
 10
6159.501191266748
 20
-5489.959935316196
 30
0.0
 40
0.35
100
AcDbArc
 50
8.297144969805621
 51
180.0
  0
LINE
  5
4E1EB
330
1F
100
AcDbEntity
  8
0部品1
100
AcDbLine
 10
6244.500990585486
 20
-5419.964527321702
 30
0.0
 11
6244.500990585486
 21
-5440.964527321703
 31
0.0
  0
ARC
  5
4E1ED
330
1F
100
AcDbEntity
  8
0部品1
100
AcDbCircle
 10
6272.812187585486
 20
-5430.464527321703
 30
0.0
 40
2.0
100
AcDbArc
 50
270.0
 51
90.0
  0
LINE
  5
4E1EE
330
1F
100
AcDbEntity
  8
0部品10
100
AcDbLine
 10
6240.319795585485
 20
-5431.160864321704
 30
0.0
 11
6244.500990585486
 21
-5431.770621321703
 31
0.0
  0
ARC
  5
4E1EF
330
1F
100
AcDbEntity
  8
0部品4
100
AcDbCircle
 10
6227.270302585487
 20
-5414.464527321703
 30
0.0
 40
2.0
100
AcDbArc
 50
90.0
 51
270.0
  0
ARC
  5
4E1F0
330
1F
100
AcDbEntity
  8
0部品10
100
AcDbCircle
 10
6161.60119126675
 20
-5494.759935316196
 30
0.0
 40
0.35
100
AcDbArc
 50
180.0
 51
351.7028550301944
  0
LINE
  5
4E1F1
330
1F
100
AcDbEntity
  8
0部品1
100
AcDbLine
 10
6245.408971585487
 20
-5419.964527321702
 30
0.0
 11
6235.770302585486
 21
-5419.964527321702
 31
0.0
  0
LINE
  5
4E1F2
330
1F
100
AcDbEntity
  8
0部品4
100
AcDbLine
 10
6162.351191266749
 20
-5487.359935316195
 30
0.0
 11
6162.351191266749
 21
-5489.609935316195
 31
0.0
  0
LINE
  5
4E1F3
330
1F
100
AcDbEntity
  8
0部品4
100
AcDbLine
 10
6225.270302585486
 20
-5442.464527321703
 30
0.0
 11
6225.270302585486
 21
-5446.464527321703
 31
0.0
  0
ARC
  5
4E1F6
330
1F
100
AcDbEntity
  8
0部品10
100
AcDbCircle
 10
6153.90119126675
 20
-5489.959935316196
 30
0.0
 40
0.35
100
AcDbArc
 50
8.297144969805621
 51
180.0
  0
ARC
  5
4E1F7
330
1F
100
AcDbEntity
  8
0部品10
100
AcDbCircle
 10
6160.201191266748
 20
-5489.959935316196
 30
0.0
 40
0.35
100
AcDbArc
 50
8.297144969805621
 51
180.0
  0
LINE
  5
4E1F8
330
1F
100
AcDbEntity
  8
0部品2
100
AcDbLine
 10
6238.270302585487
 20
-5499.359935316196
 30
0.0
 11
6279.770302585486
 21
-5499.359935316196
 31
0.0
  0
LINE
  5
4E1F9
330
1F
100
AcDbEntity
  8
0部品10
100
AcDbLine
 10
6152.147528266748
 20
-5494.810442316196
 30
0.0
 11
6152.872385266749
 21
-5489.839990316195
 31
0.0
  0
ARC
  5
4E1FA
330
1F
100
AcDbEntity
  8
0部品6
100
AcDbCircle
 10
6168.351191266749
 20
-5554.359935316195
 30
0.0
 40
8.0
100
AcDbArc
 50
270.0
 51
90.0
  0
ARC
  5
4E1FB
330
1F
100
AcDbEntity
  8
0部品10
100
AcDbCircle
 10
6158.101191266749
 20
-5494.759935316196
 30
0.0
 40
0.35
100
AcDbArc
 50
180.0
 51
351.7028550301944
  0
LINE
  5
4E1FC
330
1F
100
AcDbEntity
  8
0部品10
100
AcDbLine
 10
6240.319795585485
 20
-5426.960864321703
 30
0.0
 11
6244.500990585486
 21
-5427.570621321702
 31
0.0
  0
LINE
  5
4E1FE
330
1F
100
AcDbEntity
  8
0部品1
100
AcDbLine
 10
6235.770302585486
 20
-5417.964527321704
 30
0.0
 11
6288.147827585486
 21
-5417.964527321704
 31
0.0
  0
ARC
  5
4E200
330
1F
100
AcDbEntity
  8
0部品1
100
AcDbCircle
 10
6288.147827585486
 20
-5438.964527321703
 30
0.0
 40
4.0
100
AcDbArc
 50
270.0
 51
0.0
  0
LINE
  5
4E202
330
1F
100
AcDbEntity
  8
0部品1
100
AcDbLine
 10
6168.85119126675
 20
-5499.359935316196
 30
0.0
 11
6166.851191266749
 21
-5499.359935316196
 31
0.0
  0
LINE
  5
4E203
330
1F
100
AcDbEntity
  8
0部品10
100
AcDbLine
 10
6159.147528266749
 20
-5494.810442316196
 30
0.0
 11
6159.872385266749
 21
-5489.839990316195
 31
0.0
  0
ARC
  5
4E204
330
1F
100
AcDbEntity
  8
0部品10
100
AcDbCircle
 10
6156.001191266749
 20
-5494.759935316196
 30
0.0
 40
0.35
100
AcDbArc
 50
180.0
 51
351.7028550301944
  0
LINE
  5
4E205
330
1F
100
AcDbEntity
  8
0部品6
100
AcDbLine
 10
6221.270302585486
 20
-5542.050918316196
 30
0.0
 11
6223.967644585486
 21
-5538.103290316196
 31
0.0
  0
ARC
  5
4E206
330
1F
100
AcDbEntity
  8
0部品10
100
AcDbCircle
 10
6151.801191266748
 20
-5489.959935316196
 30
0.0
 40
0.35
100
AcDbArc
 50
8.297144969805621
 51
180.0
  0
ARC
  5
4E207
330
1F
100
AcDbEntity
  8
0部品10
100
AcDbCircle
 10
6151.101191266749
 20
-5494.759935316196
 30
0.0
 40
0.35
100
AcDbArc
 50
180.0
 51
351.7028550301944
  0
LINE
  5
4E208
330
1F
100
AcDbEntity
  8
0部品2
100
AcDbLine
 10
6146.601191266749
 20
-5487.859935316195
 30
0.0
 11
6146.601191266749
 21
-5499.359935316196
 31
0.0
  0
ARC
  5
4E20A
330
1F
100
AcDbEntity
  8
0部品6
100
AcDbCircle
 10
6166.351191266749
 20
-5540.050918316196
 30
0.0
 40
2.0
100
AcDbArc
 50
270.0
 51
0.0
  0
LINE
  5
4E20B
330
1F
100
AcDbEntity
  8
0部品3
100
AcDbLine
 10
6143.051191266749
 20
-5494.109935316195
 30
0.0
 11
6143.051191266749
 21
-5490.609935316196
 31
0.0
  0
LINE
  5
4E20C
330
1F
100
AcDbEntity
  8
0部品10
100
AcDbLine
 10
6240.319795585485
 20
-5432.560864321703
 30
0.0
 11
6244.500990585486
 21
-5433.170621321703
 31
0.0
  0
LINE
  5
4E20D
330
1F
100
AcDbEntity
  8
0部品10
100
AcDbLine
 10
6240.319795585485
 20
-5434.660864321703
 30
0.0
 11
6244.500990585486
 21
-5435.270621321703
 31
0.0
  0
LINE
  5
4E20E
330
1F
100
AcDbEntity
  8
0部品3
100
AcDbLine
 10
6240.770302585486
 20
-5438.214527321703
 30
0.0
 11
6240.770302585486
 21
-5437.464527321703
 31
0.0
  0
LINE
  5
4E20F
330
1F
100
AcDbEntity
  8
0部品1
100
AcDbLine
 10
6145.851191266749
 20
-5485.362743316195
 30
0.0
 11
6143.851191266749
 21
-5485.362743316195
 31
0.0
  0
ARC
  5
4E210
330
1F
100
AcDbEntity
  8
0部品4
100
AcDbCircle
 10
6168.85119126675
 20
-5492.859935316196
 30
0.0
 40
1.5
100
AcDbArc
 50
0.0
 51
21.06485549459706
  0
LINE
  5
4E211
330
1F
100
AcDbEntity
  8
0部品10
100
AcDbLine
 10
6150.747528266749
 20
-5494.810442316196
 30
0.0
 11
6151.472385266749
 21
-5489.839990316195
 31
0.0
  0
ARC
  5
4E212
330
1F
100
AcDbEntity
  8
0部品10
100
AcDbCircle
 10
6158.101191266749
 20
-5489.959935316196
 30
0.0
 40
0.35
100
AcDbArc
 50
8.297144969805621
 51
180.0
  0
LINE
  5
4E213
330
1F
100
AcDbEntity
  8
0
  6
Continuous
 62
     3
100
AcDbLine
 10
6275.686219585486
 20
-5498.244868316195
 30
0.0
 11
6275.674475585486
 21
-5498.267916316195
 31
0.0
  0
ARC
  5
4E214
330
1F
100
AcDbEntity
  8
0部品4
100
AcDbCircle
 10
6227.270302585487
 20
-5446.464527321703
 30
0.0
 40
2.0
100
AcDbArc
 50
90.0
 51
270.0
  0
ARC
  5
4E215
330
1F
100
AcDbEntity
  8
0部品10
100
AcDbCircle
 10
6240.370302585485
 20
-5432.214527321703
 30
0.0
 40
0.35
100
AcDbArc
 50
90.0
 51
261.7028550301944
  0
LINE
  5
4E216
330
1F
100
AcDbEntity
  8
0部品6
100
AcDbLine
 10
6229.270302585486
 20
-5562.359935316195
 30
0.0
 11
6231.270302585486
 21
-5562.359935316195
 31
0.0
  0
ARC
  5
4E217
330
1F
100
AcDbEntity
  8
0部品6
100
AcDbCircle
 10
6166.351191266749
 20
-5541.179241316195
 30
0.0
 40
2.0
100
AcDbArc
 50
270.0
 51
0.0
  0
LINE
  5
4E219
330
1F
100
AcDbEntity
  8
0部品1
100
AcDbLine
 10
6158.351191266749
 20
-5495.004884316196
 30
0.0
 11
6158.351191266749
 21
-5495.336887316195
 31
0.0
  0
LINE
  5
4E21A
330
1F
100
AcDbEntity
  8
0部品1
100
AcDbLine
 10
6166.851191266749
 20
-5499.359935316196
 30
0.0
 11
6166.851191266749
 21
-5482.355200316195
 31
0.0
  0
ARC
  5
4E21B
330
1F
100
AcDbEntity
  8
0部品4
100
AcDbCircle
 10
6245.770302585486
 20
-5417.964527321704
 30
0.0
 40
5.5
100
AcDbArc
 50
0.0
 51
90.0
  0
ARC
  5
4E21C
330
1F
100
AcDbEntity
  8
0部品10
100
AcDbCircle
 10
6156.001191266749
 20
-5489.959935316196
 30
0.0
 40
0.35
100
AcDbArc
 50
8.297144969805621
 51
180.0
  0
ARC
  5
4E21D
330
1F
100
AcDbEntity
  8
0部品3
100
AcDbCircle
 10
6167.043155266749
 20
-5492.359935316195
 30
0.0
 40
3.208035999999999
100
AcDbArc
 50
304.3048434803824
 51
55.69515651961761
  0
LINE
  5
4E21E
330
1F
100
AcDbEntity
  8
0部品2
100
AcDbLine
 10
6238.270302585487
 20
-5420.714527321703
 30
0.0
 11
6244.500990585486
 21
-5420.714527321703
 31
0.0
  0
LINE
  5
4E21F
330
1F
100
AcDbEntity
  8
0部品10
100
AcDbLine
 10
6240.319795585485
 20
-5436.760864321702
 30
0.0
 11
6244.500990585486
 21
-5437.370621321703
 31
0.0
  0
LINE
  5
4E220
330
1F
100
AcDbEntity
  8
0部品2
100
AcDbLine
 10
6238.270302585487
 20
-5501.359935316195
 30
0.0
 11
6279.770302585486
 21
-5501.359935316195
 31
0.0
  0
ARC
  5
4E221
330
1F
100
AcDbEntity
  8
0部品10
100
AcDbCircle
 10
6240.370302585485
 20
-5427.314527321703
 30
0.0
 40
0.35
100
AcDbArc
 50
90.0
 51
261.7028550301944
  0
ARC
  5
4E222
330
1F
100
AcDbEntity
  8
0部品10
100
AcDbCircle
 10
6151.101191266749
 20
-5489.959935316196
 30
0.0
 40
0.35
100
AcDbArc
 50
8.297144969805621
 51
180.0
  0
LINE
  5
4E224
330
1F
100
AcDbEntity
  8
0部品2
100
AcDbLine
 10
6238.270302585487
 20
-5420.714527321703
 30
0.0
 11
6238.270302585487
 21
-5440.214527321703
 31
0.0
  0
LINE
  5
4E225
330
1F
100
AcDbEntity
  8
0部品2
100
AcDbLine
 10
6148.601191266749
 20
-5499.359935316196
 30
0.0
 11
6164.101191266749
 21
-5499.359935316196
 31
0.0
  0
LINE
  5
4E226
330
1F
100
AcDbEntity
  8
0部品4
100
AcDbLine
 10
6245.770302585486
 20
-5444.464527321702
 30
0.0
 11
6227.270302585487
 21
-5444.464527321702
 31
0.0
  0
LINE
  5
4E22A
330
1F
100
AcDbEntity
  8
0部品2
100
AcDbLine
 10
6266.270302585486
 20
-5488.104498316196
 30
0.0
 11
6266.270302585486
 21
-5491.202566316196
 31
0.0
  0
LINE
  5
4E22B
330
1F
100
AcDbEntity
  8
0部品4
100
AcDbLine
 10
6144.736892137601
 20
-5542.359935316195
 30
0.0
 11
6143.851191266749
 21
-5542.359935316195
 31
0.0
  0
ARC
  5
4E22C
330
1F
100
AcDbEntity
  8
0部品1
100
AcDbCircle
 10
6288.147827585486
 20
-5421.964527321703
 30
0.0
 40
4.0
100
AcDbArc
 50
0.0
 51
90.0
  0
CIRCLE
  5
4E22D
330
1F
100
AcDbEntity
  8
0部品6
100
AcDbCircle
 10
6144.351191266749
 20
-5554.552171316196
 30
0.0
 40
4.299999999999999
  0
LINE
  5
4E22E
330
1F
100
AcDbEntity
  8
0部品6
  6
中心線1
 48
0.5
370
    13
100
AcDbLine
 10
6174.851191266749
 20
-5554.552171316196
 30
0.0
 11
6137.851191266749
 21
-5554.552171316196
 31
0.0
  0
LINE
  5
4E22F
330
1F
100
AcDbEntity
  8
0部品1
100
AcDbLine
 10
6255.428030585485
 20
-5428.464527321703
 30
0.0
 11
6272.812187585486
 21
-5428.464527321703
 31
0.0
  0
LINE
  5
4E230
330
1F
100
AcDbEntity
  8
0部品10
100
AcDbLine
 10
6151.447528266749
 20
-5494.810442316196
 30
0.0
 11
6152.172385266749
 21
-5489.839990316195
 31
0.0
  0
LINE
  5
4E231
330
1F
100
AcDbEntity
  8
0部品6
100
AcDbLine
 10
6168.351191266749
 20
-5536.359935316195
 30
0.0
 11
6144.351191266749
 21
-5536.359935316195
 31
0.0
  0
ARC
  5
4E233
330
1F
100
AcDbEntity
  8
0部品1
100
AcDbCircle
 10
6255.428030585485
 20
-5430.464527321703
 30
0.0
 40
2.0
100
AcDbArc
 50
90.0
 51
270.0
  0
ARC
  5
4E234
330
1F
100
AcDbEntity
  8
0部品6
100
AcDbCircle
 10
6227.270302585487
 20
-5540.359935316195
 30
0.0
 40
4.0
100
AcDbArc
 50
120.0000000000079
 51
145.655924298979
  0
LINE
  5
4E235
330
1F
100
AcDbEntity
  8
0部品10
100
AcDbLine
 10
6240.319795585485
 20
-5431.860864321703
 30
0.0
 11
6244.500990585486
 21
-5432.470621321703
 31
0.0
  0
ARC
  5
4E236
330
1F
100
AcDbEntity
  8
0部品10
100
AcDbCircle
 10
6155.301191266749
 20
-5494.759935316196
 30
0.0
 40
0.35
100
AcDbArc
 50
180.0
 51
351.7028550301944
  0
ARC
  5
4E237
330
1F
100
AcDbEntity
  8
0部品10
100
AcDbCircle
 10
6160.901191266749
 20
-5494.759935316196
 30
0.0
 40
0.35
100
AcDbArc
 50
180.0
 51
351.7028550301944
  0
LINE
  5
4E238
330
1F
100
AcDbEntity
  8
0部品6
100
AcDbLine
 10
6229.270302585486
 20
-5416.464527321704
 30
0.0
 11
6229.270302585486
 21
-5418.464527321702
 31
0.0
  0
LINE
  5
4E239
330
1F
100
AcDbEntity
  8
0部品10
100
AcDbLine
 10
6240.319795585485
 20
-5435.360864321703
 30
0.0
 11
6244.500990585486
 21
-5435.970621321703
 31
0.0
  0
LINE
  5
4E23A
330
1F
100
AcDbEntity
  8
0部品10
100
AcDbLine
 10
6240.319795585485
 20
-5424.860864321703
 30
0.0
 11
6244.500990585486
 21
-5425.470621321704
 31
0.0
  0
ARC
  5
4E23B
330
1F
100
AcDbEntity
  8
0部品10
100
AcDbCircle
 10
6240.370302585485
 20
-5436.414527321702
 30
0.0
 40
0.35
100
AcDbArc
 50
90.0
 51
261.7028550301944
  0
LINE
  5
4E23C
330
1F
100
AcDbEntity
  8
0部品4
100
AcDbLine
 10
6174.351191266749
 20
-5492.859935316196
 30
0.0
 11
6174.351191266749
 21
-5536.859935316195
 31
0.0
  0
LINE
  5
4E23D
330
1F
100
AcDbEntity
  8
0部品1
100
AcDbLine
 10
6245.408971585487
 20
-5440.964527321703
 30
0.0
 11
6235.770302585486
 21
-5440.964527321703
 31
0.0
  0
LINE
  5
4E23E
330
1F
100
AcDbEntity
  8
0部品2
100
AcDbLine
 10
6155.351191266749
 20
-5495.106345316195
 30
0.0
 11
6155.351191266749
 21
-5499.359935316196
 31
0.0
  0
LINE
  5
4E240
330
1F
100
AcDbEntity
  8
0部品6
100
AcDbLine
 10
6144.351191266749
 20
-5541.179241316195
 30
0.0
 11
6144.351191266749
 21
-5536.359935316195
 31
0.0
  0
ARC
  5
4E241
330
1F
100
AcDbEntity
  8
0部品10
100
AcDbCircle
 10
6150.401191266749
 20
-5494.759935316196
 30
0.0
 40
0.35
100
AcDbArc
 50
180.0
 51
351.7028550301944
  0
LINE
  5
4E243
330
1F
100
AcDbEntity
  8
0部品10
100
AcDbLine
 10
6240.319795585485
 20
-5426.260864321703
 30
0.0
 11
6244.500990585486
 21
-5426.870621321703
 31
0.0
  0
ARC
  5
4E245
330
1F
100
AcDbEntity
  8
0部品2
100
AcDbCircle
 10
6164.101191266749
 20
-5499.359935316196
 30
0.0
 40
2.0
100
AcDbArc
 50
270.0
 51
0.0
  0
ARC
  5
4E246
330
1F
100
AcDbEntity
  8
0部品1
100
AcDbCircle
 10
6156.351191266749
 20
-5493.554874316195
 30
0.0
 40
2.0
100
AcDbArc
 50
223.6498277419165
 51
239.999999999992
  0
LINE
  5
4E248
330
1F
100
AcDbEntity
  8
0部品1
100
AcDbLine
 10
6235.770302585486
 20
-5440.964527321703
 30
0.0
 11
6235.770302585486
 21
-5442.964527321703
 31
0.0
  0
ARC
  5
4E249
330
1F
100
AcDbEntity
  8
0部品4
100
AcDbCircle
 10
6168.85119126675
 20
-5492.859935316196
 30
0.0
 40
5.5
100
AcDbArc
 50
0.0
 51
90.0
  0
LINE
  5
4E24A
330
1F
100
AcDbEntity
  8
0部品6
100
AcDbLine
 10
6231.270302585486
 20
-5450.464527321702
 30
0.0
 11
6229.270302585486
 21
-5450.464527321702
 31
0.0
  0
LINE
  5
4E24B
330
1F
100
AcDbEntity
  8
0部品6
100
AcDbLine
 10
6221.270302585486
 20
-5418.464527321702
 30
0.0
 11
6221.270302585486
 21
-5442.464527321703
 31
0.0
  0
ARC
  5
4E24C
330
1F
100
AcDbEntity
  8
0部品10
100
AcDbCircle
 10
6156.701191266749
 20
-5494.759935316196
 30
0.0
 40
0.35
100
AcDbArc
 50
180.0
 51
351.7028550301944
  0
ARC
  5
4E24D
330
1F
100
AcDbEntity
  8
0部品10
100
AcDbCircle
 10
6240.370302585485
 20
-5431.514527321703
 30
0.0
 40
0.35
100
AcDbArc
 50
90.0
 51
261.7028550301944
  0
LINE
  5
4E24E
330
1F
100
AcDbEntity
  8
0部品1
100
AcDbLine
 10
6242.968571585485
 20
-5440.964527321703
 30
0.0
 11
6242.968571585485
 21
-5442.964527321703
 31
0.0
  0
ARC
  5
4E24F
330
1F
100
AcDbEntity
  8
0部品6
100
AcDbCircle
 10
6146.351191266749
 20
-5541.179241316195
 30
0.0
 40
2.0
100
AcDbArc
 50
180.0
 51
270.0
  0
LINE
  5
4E250
330
1F
100
AcDbEntity
  8
0部品10
100
AcDbLine
 10
6240.319795585485
 20
-5424.160864321703
 30
0.0
 11
6244.500990585486
 21
-5424.770621321703
 31
0.0
  0
LINE
  5
4E251
330
1F
100
AcDbEntity
  8
0部品6
100
AcDbLine
 10
6168.351191266749
 20
-5562.359935316195
 30
0.0
 11
6144.351191266749
 21
-5562.359935316195
 31
0.0
  0
LINE
  5
4E252
330
1F
100
AcDbEntity
  8
0部品4
100
AcDbLine
 10
6144.351191266749
 20
-5538.359935316195
 30
0.0
 11
6143.851191266749
 21
-5538.359935316195
 31
0.0
  0
LINE
  5
4E253
330
1F
100
AcDbEntity
  8
0部品2
100
AcDbLine
 10
6238.270302585487
 20
-5501.359935316195
 30
0.0
 11
6238.270302585487
 21
-5501.162383316195
 31
0.0
  0
LINE
  5
4E254
330
1F
100
AcDbEntity
  8
0部品6
  6
中心線1
 48
0.5
370
    13
100
AcDbLine
 10
6168.351191266749
 20
-5548.052171316196
 30
0.0
 11
6168.351191266749
 21
-5561.052171316195
 31
0.0
  0
ARC
  5
4E255
330
1F
100
AcDbEntity
  8
0部品10
100
AcDbCircle
 10
6240.370302585485
 20
-5437.114527321703
 30
0.0
 40
0.35
100
AcDbArc
 50
90.0
 51
261.7028550301944
  0
LINE
  5
4E256
330
1F
100
AcDbEntity
  8
0部品1
100
AcDbLine
 10
6245.408971585487
 20
-5419.964527321702
 30
0.0
 11
6245.408971585487
 21
-5440.964527321703
 31
0.0
  0
LINE
  5
4E257
330
1F
100
AcDbEntity
  8
0部品4
100
AcDbLine
 10
6248.425066087262
 20
-5487.547319730345
 30
0.0
 11
6229.889356585486
 21
-5496.190663316195
 31
0.0
  0
ARC
  5
4E258
330
1F
100
AcDbEntity
  8
0部品4
100
AcDbCircle
 10
6249.270302585486
 20
-5489.359935316195
 30
0.0
 40
2.0
100
AcDbArc
 50
294.9581116059601
 51
115.0000007511227
  0
ARC
  5
4E259
330
1F
100
AcDbEntity
  8
0部品10
100
AcDbCircle
 10
6150.401191266749
 20
-5489.959935316196
 30
0.0
 40
0.35
100
AcDbArc
 50
8.297144969805621
 51
180.0
  0
LINE
  5
4E25A
330
1F
100
AcDbEntity
  8
0部品4
100
AcDbLine
 10
6245.770302585486
 20
-5416.464527321704
 30
0.0
 11
6227.270302585487
 21
-5416.464527321704
 31
0.0
  0
ARC
  5
4E25B
330
1F
100
AcDbEntity
  8
0部品6
100
AcDbCircle
 10
6146.351191266749
 20
-5540.050918316196
 30
0.0
 40
2.0
100
AcDbArc
 50
180.0
 51
270.0
  0
ARC
  5
4E25C
330
1F
100
AcDbEntity
  8
0部品10
100
AcDbCircle
 10
6240.370302585485
 20
-5428.014527321703
 30
0.0
 40
0.35
100
AcDbArc
 50
90.0
 51
261.7028550301944
  0
LINE
  5
4E25D
330
1F
100
AcDbEntity
  8
0部品4
100
AcDbLine
 10
6168.85119126675
 20
-5542.359935316195
 30
0.0
 11
6167.965490395896
 21
-5542.359935316195
 31
0.0
  0
ARC
  5
4E25E
330
1F
100
AcDbEntity
  8
0部品1
100
AcDbCircle
 10
6287.058549585486
 20
-5421.964527321703
 30
0.0
 40
4.0
100
AcDbArc
 50
0.0
 51
90.0
  0
ARC
  5
4E25F
330
1F
100
AcDbEntity
  8
0部品1
100
AcDbCircle
 10
6145.851191266749
 20
-5482.573187316195
 30
0.0
 40
2.0
100
AcDbArc
 50
90.0
 51
180.0
  0
LINE
  5
4E262
330
1F
100
AcDbEntity
  8
0部品1
100
AcDbLine
 10
6145.851191266749
 20
-5499.359935316196
 30
0.0
 11
6143.851191266749
 21
-5499.359935316196
 31
0.0
  0
LINE
  5
4E265
330
1F
100
AcDbEntity
  8
0部品10
100
AcDbLine
 10
6160.547528266748
 20
-5494.810442316196
 30
0.0
 11
6161.272385266748
 21
-5489.839990316195
 31
0.0
  0
ARC
  5
4E266
330
1F
100
AcDbEntity
  8
0部品10
100
AcDbCircle
 10
6159.501191266748
 20
-5494.759935316196
 30
0.0
 40
0.35
100
AcDbArc
 50
180.0
 51
351.7028550301944
  0
LINE
  5
4E267
330
1F
100
AcDbEntity
  8
0部品10
100
AcDbLine
 10
6158.447528266749
 20
-5494.810442316196
 30
0.0
 11
6159.172385266749
 21
-5489.839990316195
 31
0.0
  0
LINE
  5
4E269
330
1F
100
AcDbEntity
  8
0部品2
100
AcDbLine
 10
6255.270302585486
 20
-5429.464527321703
 30
0.0
 11
6269.270302585486
 21
-5429.464527321703
 31
0.0
  0
CIRCLE
  5
4E26A
330
1F
100
AcDbEntity
  8
0部品2
100
AcDbCircle
 10
6262.270302585486
 20
-5482.359935316195
 30
0.0
 40
4.5
  0
LINE
  5
4E26B
330
1F
100
AcDbEntity
  8
0部品10
100
AcDbLine
 10
6150.047528266749
 20
-5494.810442316196
 30
0.0
 11
6150.772385266749
 21
-5489.839990316195
 31
0.0
  0
LINE
  5
4E26C
330
1F
100
AcDbEntity
  8
0部品2
100
AcDbLine
 10
6250.270302585486
 20
-5499.359935316196
 30
0.0
 11
6250.270302585486
 21
-5501.359935316195
 31
0.0
  0
ARC
  5
4E26D
330
1F
100
AcDbEntity
  8
0部品1
100
AcDbCircle
 10
6156.351191266749
 20
-5488.441115316195
 30
0.0
 40
2.0
100
AcDbArc
 50
0.0
 51
180.0
  0
ARC
  5
4E26E
330
1F
100
AcDbEntity
  8
0部品4
100
AcDbCircle
 10
6227.270302585487
 20
-5414.464527321703
 30
0.0
 40
2.0
100
AcDbArc
 50
90.0
 51
180.0
  0
LINE
  5
4E26F
330
1F
100
AcDbEntity
  8
0部品4
100
AcDbLine
 10
6152.851191266749
 20
-5487.359935316195
 30
0.0
 11
6152.851191266749
 21
-5489.909428316195
 31
0.0
  0
LINE
  5
4E271
330
1F
100
AcDbEntity
  8
0部品3
100
AcDbLine
 10
6148.601191266749
 20
-5490.359935316195
 30
0.0
 11
6149.351191266749
 21
-5490.359935316195
 31
0.0
  0
LINE
  5
4E272
330
1F
100
AcDbEntity
  8
0部品2
100
AcDbLine
 10
6238.270302585487
 20
-5440.214527321703
 30
0.0
 11
6244.500990585486
 21
-5440.214527321703
 31
0.0
  0
ARC
  5
4E273
330
1F
100
AcDbEntity
  8
0部品10
100
AcDbCircle
 10
6157.40119126675
 20
-5489.959935316196
 30
0.0
 40
0.35
100
AcDbArc
 50
8.297144969805621
 51
180.0
  0
LINE
  5
4E274
330
1F
100
AcDbEntity
  8
0部品6
100
AcDbLine
 10
6231.270302585486
 20
-5412.464527321702
 30
0.0
 11
6231.270302585486
 21
-5410.464527321703
 31
0.0
  0
LINE
  5
4E275
330
1F
100
AcDbEntity
  8
0部品2
100
AcDbLine
 10
6157.351191266749
 20
-5486.709064316196
 30
0.0
 11
6157.351191266749
 21
-5489.609935316195
 31
0.0
  0
LINE
  5
4E277
330
1F
100
AcDbEntity
  8
0部品10
100
AcDbLine
 10
6161.947528266749
 20
-5494.810442316196
 30
0.0
 11
6162.672385266749
 21
-5489.839990316195
 31
0.0
  0
ARC
  5
4E278
330
1F
100
AcDbEntity
  8
0部品10
100
AcDbCircle
 10
6240.370302585485
 20
-5434.314527321703
 30
0.0
 40
0.35
100
AcDbArc
 50
90.0
 51
261.7028550301944
  0
ARC
  5
4E27A
330
1F
100
AcDbEntity
  8
0部品6
100
AcDbCircle
 10
6227.270302585487
 20
-5540.359935316195
 30
0.0
 40
4.0
100
AcDbArc
 50
0.0
 51
59.99999999999204
  0
LINE
  5
4E27B
330
1F
100
AcDbEntity
  8
0部品1
100
AcDbLine
 10
6154.351191266749
 20
-5495.004884316196
 30
0.0
 11
6154.351191266749
 21
-5495.336887316195
 31
0.0
  0
LINE
  5
4E27C
330
1F
100
AcDbEntity
  8
0部品2
100
AcDbLine
 10
6255.270302585486
 20
-5429.464527321703
 30
0.0
 11
6255.270302585486
 21
-5431.464527321703
 31
0.0
  0
LINE
  5
4E27D
330
1F
100
AcDbEntity
  8
0部品10
100
AcDbLine
 10
6152.847528266748
 20
-5494.810442316196
 30
0.0
 11
6153.572385266748
 21
-5489.839990316195
 31
0.0
  0
ARC
  5
4E27E
330
1F
100
AcDbEntity
  8
0部品10
100
AcDbCircle
 10
6152.501191266749
 20
-5494.759935316196
 30
0.0
 40
0.35
100
AcDbArc
 50
180.0
 51
351.7028550301944
  0
ARC
  5
4E27F
330
1F
100
AcDbEntity
  8
0部品2
100
AcDbCircle
 10
6262.270302585486
 20
-5482.359935316195
 30
0.0
 40
7.0
100
AcDbArc
 50
304.8499045789729
 51
213.0114965185124
  0
LINE
  5
4E280
330
1F
100
AcDbEntity
  8
0部品6
100
AcDbLine
 10
6231.270302585486
 20
-5546.359935316195
 30
0.0
 11
6229.270302585486
 21
-5546.359935316195
 31
0.0
  0
LINE
  5
4E281
330
1F
100
AcDbEntity
  8
0部品6
100
AcDbLine
 10
6229.270302585486
 20
-5448.464527321704
 30
0.0
 11
6229.270302585486
 21
-5450.464527321702
 31
0.0
  0
ARC
  5
4E282
330
1F
100
AcDbEntity
  8
0部品10
100
AcDbCircle
 10
6154.601191266749
 20
-5489.959935316196
 30
0.0
 40
0.35
100
AcDbArc
 50
8.297144969805621
 51
180.0
  0
LINE
  5
4E283
330
1F
100
AcDbEntity
  8
0部品6
100
AcDbLine
 10
6231.270302585486
 20
-5448.464527321704
 30
0.0
 11
6231.270302585486
 21
-5450.464527321702
 31
0.0
  0
LINE
  5
4E284
330
1F
100
AcDbEntity
  8
0部品1
100
AcDbLine
 10
6154.351191266749
 20
-5488.441115316195
 30
0.0
 11
6154.351191266749
 21
-5489.714986316196
 31
0.0
  0
ARC
  5
4E285
330
1F
100
AcDbEntity
  8
0部品3
100
AcDbCircle
 10
6241.020302585486
 20
-5417.964527321704
 30
0.0
 40
0.8
100
AcDbArc
 50
90.0
 51
180.0
  0
ARC
  5
4E286
330
1F
100
AcDbEntity
  8
0部品1
100
AcDbCircle
 10
6271.904206585485
 20
-5430.464527321703
 30
0.0
 40
2.0
100
AcDbArc
 50
270.0
 51
90.0
  0
ARC
  5
4E287
330
1F
100
AcDbEntity
  8
0部品4
100
AcDbCircle
 10
6245.770302585486
 20
-5417.964527321704
 30
0.0
 40
1.5
100
AcDbArc
 50
0.0
 51
90.0
  0
LINE
  5
4E288
330
1F
100
AcDbEntity
  8
0部品2
100
AcDbLine
 10
6238.270302585487
 20
-5422.714527321703
 30
0.0
 11
6244.500990585486
 21
-5422.714527321703
 31
0.0
  0
ARC
  5
4E289
330
1F
100
AcDbEntity
  8
0部品4
100
AcDbCircle
 10
6233.270302585486
 20
-5503.441125316196
 30
0.0
 40
8.0
100
AcDbArc
 50
114.9999999999772
 51
180.0
  0
ARC
  5
4E28A
330
1F
100
AcDbEntity
  8
0部品1
100
AcDbCircle
 10
6242.770302585486
 20
-5492.359935316195
 30
0.0
 40
7.0
100
AcDbArc
 50
88.37693352520245
 51
188.6382695478054
  0
LINE
  5
4E28B
330
1F
100
AcDbEntity
  8
0部品1
100
AcDbLine
 10
6168.85119126675
 20
-5485.362743316195
 30
0.0
 11
6166.851191266749
 21
-5485.362743316195
 31
0.0
  0
ARC
  5
4E28D
330
1F
100
AcDbEntity
  8
0部品10
100
AcDbCircle
 10
6161.60119126675
 20
-5489.959935316196
 30
0.0
 40
0.35
100
AcDbArc
 50
8.297144969805621
 51
180.0
  0
LINE
  5
4E28E
330
1F
100
AcDbEntity
  8
0部品10
100
AcDbLine
 10
6240.319795585485
 20
-5433.960864321703
 30
0.0
 11
6244.500990585486
 21
-5434.570621321703
 31
0.0
  0
ARC
  5
4E28F
330
1F
100
AcDbEntity
  8
0部品10
100
AcDbCircle
 10
6160.901191266749
 20
-5489.959935316196
 30
0.0
 40
0.35
100
AcDbArc
 50
8.297144969805621
 51
180.0
  0
ARC
  5
4E290
330
1F
100
AcDbEntity
  8
0部品3
100
AcDbCircle
 10
6244.520302585486
 20
-5417.964527321704
 30
0.0
 40
0.8
100
AcDbArc
 50
0.0
 51
90.0
  0
ARC
  5
4E291
330
1F
100
AcDbEntity
  8
0部品10
100
AcDbCircle
 10
6240.370302585485
 20
-5429.414527321703
 30
0.0
 40
0.35
100
AcDbArc
 50
90.0
 51
261.7028550301944
  0
LINE
  5
4E292
330
1F
100
AcDbEntity
  8
0部品4
100
AcDbLine
 10
6225.270302585486
 20
-5414.464527321703
 30
0.0
 11
6225.270302585486
 21
-5418.464527321702
 31
0.0
  0
LINE
  5
4E293
330
1F
100
AcDbEntity
  8
0部品1
100
AcDbLine
 10
6283.432565585485
 20
-5496.299616316195
 30
0.0
 11
6291.058549585486
 21
-5491.347244316195
 31
0.0
  0
ARC
  5
4E294
330
1F
100
AcDbEntity
  8
0部品10
100
AcDbCircle
 10
6240.370302585485
 20
-5430.114527321704
 30
0.0
 40
0.35
100
AcDbArc
 50
90.0
 51
261.7028550301944
  0
LINE
  5
4E295
330
1F
100
AcDbEntity
  8
0部品10
100
AcDbLine
 10
6154.24752826675
 20
-5494.810442316196
 30
0.0
 11
6154.972385266749
 21
-5489.839990316195
 31
0.0
  0
LINE
  5
4E296
330
1F
100
AcDbEntity
  8
0部品10
100
AcDbLine
 10
6156.347528266749
 20
-5494.810442316196
 30
0.0
 11
6157.072385266749
 21
-5489.839990316195
 31
0.0
  0
LINE
  5
4E297
330
1F
100
AcDbEntity
  8
0部品1
100
AcDbLine
 10
6276.594200585486
 20
-5496.462855316195
 30
0.0
 11
6275.686219585486
 21
-5498.244868316195
 31
0.0
  0
ARC
  5
4E298
330
1F
100
AcDbEntity
  8
0部品4
100
AcDbCircle
 10
6233.270302585486
 20
-5503.441125316196
 30
0.0
 40
4.0
100
AcDbArc
 50
114.9999999999772
 51
180.0
  0
ARC
  5
4E29A
330
1F
100
AcDbEntity
  8
0部品10
100
AcDbCircle
 10
6154.601191266749
 20
-5494.759935316196
 30
0.0
 40
0.35
100
AcDbArc
 50
180.0
 51
351.7028550301944
  0
LINE
  5
4E29B
330
1F
100
AcDbEntity
  8
0部品10
100
AcDbLine
 10
6161.247528266749
 20
-5494.810442316196
 30
0.0
 11
6161.972385266748
 21
-5489.839990316195
 31
0.0
  0
LINE
  5
4E29D
330
1F
100
AcDbEntity
  8
0部品2
100
AcDbLine
 10
6155.351191266749
 20
-5486.709064316196
 30
0.0
 11
6155.351191266749
 21
-5489.609935316195
 31
0.0
  0
ARC
  5
4E29E
330
1F
100
AcDbEntity
  8
0部品1
100
AcDbCircle
 10
6279.892412585486
 20
-5490.848257316195
 30
0.0
 40
6.5
100
AcDbArc
 50
243.0000000000128
 51
303.0000000000246
  0
LINE
  5
4E29F
330
1F
100
AcDbEntity
  8
0部品6
100
AcDbLine
 10
6231.270302585486
 20
-5540.359935316195
 30
0.0
 11
6231.270302585486
 21
-5562.359935316195
 31
0.0
  0
LINE
  5
4E2A1
330
1F
100
AcDbEntity
  8
0部品10
100
AcDbLine
 10
6240.319795585485
 20
-5427.660864321703
 30
0.0
 11
6244.500990585486
 21
-5428.270621321703
 31
0.0
  0
ARC
  5
4E2A2
330
1F
100
AcDbEntity
  8
0部品1
100
AcDbCircle
 10
6156.351191266749
 20
-5495.336887316195
 30
0.0
 40
2.0
100
AcDbArc
 50
180.0
 51
239.999999999992
  0
LINE
  5
4E2A4
330
1F
100
AcDbEntity
  8
0部品6
  6
中心線1
 48
0.5
370
    13
100
AcDbLine
 10
6218.270302585486
 20
-5430.464527321703
 30
0.0
 11
6295.147827585486
 21
-5430.464527321703
 31
0.0
  0
LINE
  5
4E2A5
330
1F
100
AcDbEntity
  8
0部品2
100
AcDbLine
 10
6279.770302585486
 20
-5499.359935316196
 30
0.0
 11
6279.770302585486
 21
-5501.359935316195
 31
0.0
  0
ARC
  5
4E2A7
330
1F
100
AcDbEntity
  8
0部品1
100
AcDbCircle
 10
6156.351191266749
 20
-5495.336887316195
 30
0.0
 40
2.0
100
AcDbArc
 50
300.0000000000079
 51
0.0
  0
LINE
  5
4E2A8
330
1F
100
AcDbEntity
  8
0部品1
100
AcDbLine
 10
6245.408971585487
 20
-5480.573187316196
 30
0.0
 11
6276.941473585487
 21
-5496.639799316195
 31
0.0
  0
ARC
  5
4E2A9
330
1F
100
AcDbEntity
  8
0部品1
100
AcDbCircle
 10
6166.851191266749
 20
-5482.573187316195
 30
0.0
 40
2.0
100
AcDbArc
 50
0.0
 51
90.0
  0
LINE
  5
4E2AA
330
1F
100
AcDbEntity
  8
0部品2
100
AcDbLine
 10
6155.351191266749
 20
-5475.359935316195
 30
0.0
 11
6157.351191266749
 21
-5475.359935316195
 31
0.0
  0
LINE
  5
4E2AB
330
1F
100
AcDbEntity
  8
0部品6
100
AcDbLine
 10
6231.270302585486
 20
-5442.464527321703
 30
0.0
 11
6221.270302585486
 21
-5442.464527321703
 31
0.0
  0
LINE
  5
4E2AF
330
1F
100
AcDbEntity
  8
0部品2
100
AcDbLine
 10
6269.270302585486
 20
-5431.464527321703
 30
0.0
 11
6255.270302585486
 21
-5431.464527321703
 31
0.0
  0
LINE
  5
4E2B0
330
1F
100
AcDbEntity
  8
0部品10
100
AcDbLine
 10
6149.351824266749
 20
-5494.780979316195
 30
0.0
 11
6150.072385266749
 21
-5489.839990316195
 31
0.0
  0
LINE
  5
4E2B1
330
1F
100
AcDbEntity
  8
0部品2
100
AcDbLine
 10
6164.101191266749
 20
-5487.859935316195
 30
0.0
 11
6166.101191266749
 21
-5487.859935316195
 31
0.0
  0
LINE
  5
4E2B2
330
1F
100
AcDbEntity
  8
0部品4
100
AcDbLine
 10
6225.270302585486
 20
-5503.441125316196
 30
0.0
 11
6225.270302585486
 21
-5540.359935316195
 31
0.0
  0
LINE
  5
4E2B4
330
1F
100
AcDbEntity
  8
0部品10
100
AcDbLine
 10
6240.319795172911
 20
-5437.460863865076
 30
0.0
 11
6244.500990585486
 21
-5437.464527321703
 31
0.0
  0
ARC
  5
4E2B5
330
1F
100
AcDbEntity
  8
0部品6
100
AcDbCircle
 10
6144.351191266749
 20
-5554.359935316195
 30
0.0
 40
8.0
100
AcDbArc
 50
90.0
 51
270.0
  0
ARC
  5
4E2B6
330
1F
100
AcDbEntity
  8
0部品10
100
AcDbCircle
 10
6240.370302585485
 20
-5430.814527321704
 30
0.0
 40
0.35
100
AcDbArc
 50
90.0
 51
261.7028550301944
  0
ARC
  5
4E2B7
330
1F
100
AcDbEntity
  8
0部品1
100
AcDbCircle
 10
6242.770302585486
 20
-5492.359935316195
 30
0.0
 40
2.649999999999999
100
AcDbArc
 50
73.08313743020909
 51
156.9168625698212
  0
LINE
  5
4E2B9
330
1F
100
AcDbEntity
  8
0部品1
100
AcDbLine
 10
6145.851191266749
 20
-5482.355200316195
 30
0.0
 11
6166.851191266749
 21
-5482.355200316195
 31
0.0
  0
LINE
  5
4E2BA
330
1F
100
AcDbEntity
  8
0部品10
100
AcDbLine
 10
6157.747528266749
 20
-5494.810442316196
 30
0.0
 11
6158.472385266748
 21
-5489.839990316195
 31
0.0
  0
LINE
  5
4E2BB
330
1F
100
AcDbEntity
  8
0部品6
100
AcDbLine
 10
6166.351191266749
 20
-5543.179241316195
 30
0.0
 11
6146.351191266749
 21
-5543.179241316195
 31
0.0
  0
ARC
  5
4E2BC
330
1F
100
AcDbEntity
  8
0部品10
100
AcDbCircle
 10
6156.701191266749
 20
-5489.959935316196
 30
0.0
 40
0.35
100
AcDbArc
 50
8.297144969805621
 51
180.0
  0
ARC
  5
4E2BD
330
1F
100
AcDbEntity
  8
0部品10
100
AcDbCircle
 10
6149.701191266749
 20
-5494.759935316196
 30
0.0
 40
0.35
100
AcDbArc
 50
183.4470887563792
 51
351.7028550301944
  0
LINE
  5
4E2BE
330
1F
100
AcDbEntity
  8
0部品3
100
AcDbLine
 10
6240.770302585486
 20
-5423.464527321703
 30
0.0
 11
6240.770302585486
 21
-5422.714527321703
 31
0.0
  0
LINE
  5
4E2BF
330
1F
100
AcDbEntity
  8
0部品1
100
AcDbLine
 10
6242.968571585485
 20
-5417.964527321704
 30
0.0
 11
6242.968571585485
 21
-5419.964527321702
 31
0.0
  0
LINE
  5
4E2C0
330
1F
100
AcDbEntity
  8
0部品10
100
AcDbLine
 10
6159.847528266748
 20
-5494.810442316196
 30
0.0
 11
6160.572385266749
 21
-5489.839990316195
 31
0.0
  0
ARC
  5
4E2C1
330
1F
100
AcDbEntity
  8
0部品10
100
AcDbCircle
 10
6163.001191266749
 20
-5489.959935316196
 30
0.0
 40
0.35
100
AcDbArc
 50
0.0
 51
180.0
  0
ARC
  5
4E2C2
330
1F
100
AcDbEntity
  8
0部品10
100
AcDbCircle
 10
6158.801191266749
 20
-5489.959935316196
 30
0.0
 40
0.35
100
AcDbArc
 50
8.297144969805621
 51
180.0
  0
LINE
  5
4E2C3
330
1F
100
AcDbEntity
  8
0部品3
100
AcDbLine
 10
6164.101191266749
 20
-5494.359935316196
 30
0.0
 11
6163.351191266749
 21
-5494.359935316196
 31
0.0
  0
LINE
  5
4E2C5
330
1F
100
AcDbEntity
  8
0部品6
100
AcDbLine
 10
6229.270302585486
 20
-5442.464527321703
 30
0.0
 11
6229.270302585486
 21
-5444.464527321702
 31
0.0
  0
ARC
  5
4E2C6
330
1F
100
AcDbEntity
  8
0部品10
100
AcDbCircle
 10
6153.90119126675
 20
-5494.759935316196
 30
0.0
 40
0.35
100
AcDbArc
 50
180.0
 51
351.7028550301944
  0
LINE
  5
4E2C8
330
1F
100
AcDbEntity
  8
0部品3
100
AcDbLine
 10
6146.601191266749
 20
-5490.359935316195
 30
0.0
 11
6145.851191266749
 21
-5490.359935316195
 31
0.0
  0
LINE
  5
4E2C9
330
1F
100
AcDbEntity
  8
0部品3
100
AcDbLine
 10
6149.351191266749
 20
-5494.359935316196
 30
0.0
 11
6148.601191266749
 21
-5494.359935316196
 31
0.0
  0
LINE
  5
4E2CC
330
1F
100
AcDbEntity
  8
0部品2
100
AcDbLine
 10
6155.351191266749
 20
-5480.573187316196
 30
0.0
 11
6155.351191266749
 21
-5475.359935316195
 31
0.0
  0
LINE
  5
4E2CD
330
1F
100
AcDbEntity
  8
0部品4
100
AcDbLine
 10
6229.270302585486
 20
-5540.359935316195
 30
0.0
 11
6229.270302585486
 21
-5503.441125316196
 31
0.0
  0
LINE
  5
4E2CE
330
1F
100
AcDbEntity
  8
0部品2
100
AcDbLine
 10
6238.270302585487
 20
-5438.214527321703
 30
0.0
 11
6244.500990585486
 21
-5438.214527321703
 31
0.0
  0
LINE
  5
4E2D0
330
1F
100
AcDbEntity
  8
0部品4
100
AcDbLine
 10
6170.35119126675
 20
-5536.859935316195
 30
0.0
 11
6170.35119126675
 21
-5492.859935316196
 31
0.0
  0
LINE
  5
4E2D1
330
1F
100
AcDbEntity
  8
0部品1
100
AcDbLine
 10
6145.851191266749
 20
-5499.359935316196
 30
0.0
 11
6145.851191266749
 21
-5482.355200316195
 31
0.0
  0
LINE
  5
4E2D2
330
1F
100
AcDbEntity
  8
0部品10
100
AcDbLine
 10
6240.319795585485
 20
-5433.260864321702
 30
0.0
 11
6244.500990585486
 21
-5433.870621321703
 31
0.0
  0
LINE
  5
4E2D3
330
1F
100
AcDbEntity
  8
0部品10
100
AcDbLine
 10
6240.319795585485
 20
-5429.760864321703
 30
0.0
 11
6244.500990585486
 21
-5430.370621321703
 31
0.0
  0
LINE
  5
4E2D4
330
1F
100
AcDbEntity
  8
0部品3
100
AcDbLine
 10
6166.101191266749
 20
-5494.359935316196
 30
0.0
 11
6166.851191266749
 21
-5494.359935316196
 31
0.0
  0
LINE
  5
4E2D5
330
1F
100
AcDbEntity
  8
0部品10
100
AcDbLine
 10
6149.351191266749
 20
-5494.759935316196
 30
0.0
 11
6149.351191266749
 21
-5489.959935316196
 31
0.0
  0
LINE
  5
4E2D7
330
1F
100
AcDbEntity
  8
0部品6
100
AcDbLine
 10
6225.270302585486
 20
-5539.741901316195
 30
0.0
 11
6222.921631585485
 21
-5543.179241316195
 31
0.0
  0
LINE
  5
4E2D8
330
1F
100
AcDbEntity
  8
0部品1
100
AcDbLine
 10
6168.85119126675
 20
-5482.573187316195
 30
0.0
 11
6168.85119126675
 21
-5499.359935316196
 31
0.0
  0
ARC
  5
4E2DA
330
1F
100
AcDbEntity
  8
0部品10
100
AcDbCircle
 10
6152.501191266749
 20
-5489.959935316196
 30
0.0
 40
0.35
100
AcDbArc
 50
8.297144969805621
 51
180.0
  0
ARC
  5
4E2DB
330
1F
100
AcDbEntity
  8
0部品4
100
AcDbCircle
 10
6245.770302585486
 20
-5442.964527321703
 30
0.0
 40
1.5
100
AcDbArc
 50
270.0
 51
0.0
  0
LINE
  5
4E2DD
330
1F
100
AcDbEntity
  8
0部品1
100
AcDbLine
 10
6291.058549585486
 20
-5491.347244316195
 30
0.0
 11
6292.147827585486
 21
-5493.024585316195
 31
0.0
  0
LINE
  5
4E2DE
330
1F
100
AcDbEntity
  8
0部品10
100
AcDbLine
 10
6240.349258585485
 20
-5423.465160321702
 30
0.0
 11
6244.500990585486
 21
-5424.070621321703
 31
0.0
  0
LINE
  5
4E2DF
330
1F
100
AcDbEntity
  8
0部品10
100
AcDbLine
 10
6157.047528266748
 20
-5494.810442316196
 30
0.0
 11
6157.772385266749
 21
-5489.839990316195
 31
0.0
  0
ARC
  5
4E2E0
330
1F
100
AcDbEntity
  8
0部品10
100
AcDbCircle
 10
6240.370302585485
 20
-5425.914527321703
 30
0.0
 40
0.35
100
AcDbArc
 50
90.0
 51
261.7028550301944
  0
ARC
  5
4E2E1
330
1F
100
AcDbEntity
  8
0部品10
100
AcDbCircle
 10
6153.201191266749
 20
-5489.959935316196
 30
0.0
 40
0.35
100
AcDbArc
 50
8.297144969805621
 51
180.0
  0
ARC
  5
4E2E3
330
1F
100
AcDbEntity
  8
0部品4
100
AcDbCircle
 10
6143.851191266749
 20
-5492.859935316196
 30
0.0
 40
1.5
100
AcDbArc
 50
122.2309526354692
 51
180.0
  0
ARC
  5
4E2E4
330
1F
100
AcDbEntity
  8
0部品10
100
AcDbCircle
 10
6240.370302585485
 20
-5432.914527321702
 30
0.0
 40
0.35
100
AcDbArc
 50
90.0
 51
261.7028550301944
  0
ARC
  5
4E2E5
330
1F
100
AcDbEntity
  8
0部品4
100
AcDbCircle
 10
6227.270302585487
 20
-5446.464527321703
 30
0.0
 40
2.0
100
AcDbArc
 50
180.0
 51
270.0
  0
ARC
  5
4E2E8
330
1F
100
AcDbEntity
  8
0部品1
100
AcDbCircle
 10
6287.058549585486
 20
-5438.964527321703
 30
0.0
 40
4.0
100
AcDbArc
 50
270.0
 51
0.0
  0
LINE
  5
4E2E9
330
1F
100
AcDbEntity
  8
0部品10
100
AcDbLine
 10
6240.370302585485
 20
-5423.464527321703
 30
0.0
 11
6244.500990585486
 21
-5423.464527321703
 31
0.0
  0
ARC
  5
4E2EA
330
1F
100
AcDbEntity
  8
0部品10
100
AcDbCircle
 10
6240.370302585485
 20
-5424.514527321703
 30
0.0
 40
0.35
100
AcDbArc
 50
90.0
 51
261.7028550301944
  0
LINE
  5
4E2EC
330
1F
100
AcDbEntity
  8
0部品6
100
AcDbLine
 10
6168.351191266749
 20
-5536.359935316195
 30
0.0
 11
6168.351191266749
 21
-5541.179241316195
 31
0.0
  0
LINE
  5
4E2ED
330
1F
100
AcDbEntity
  8
0部品1
100
AcDbLine
 10
6292.147827585486
 20
-5421.964527321703
 30
0.0
 11
6292.147827585486
 21
-5438.964527321703
 31
0.0
  0
ARC
  5
4E2EE
330
1F
100
AcDbEntity
  8
0部品3
100
AcDbCircle
 10
6143.851191266749
 20
-5490.609935316196
 30
0.0
 40
0.8
100
AcDbArc
 50
90.0
 51
180.0
  0
ARC
  5
4E2EF
330
1F
100
AcDbEntity
  8
0部品4
100
AcDbCircle
 10
6227.270302585487
 20
-5540.359935316195
 30
0.0
 40
2.0
100
AcDbArc
 50
180.0
 51
0.0
  0
ARC
  5
4E2F0
330
1F
100
AcDbEntity
  8
0部品1
100
AcDbCircle
 10
6273.892462585486
 20
-5497.359935316195
 30
0.0
 40
2.0
100
AcDbArc
 50
270.0
 51
333.0000000000128
  0
LINE
  5
4E2F2
330
1F
100
AcDbEntity
  8
0部品10
100
AcDbLine
 10
6240.319795585485
 20
-5429.060864321702
 30
0.0
 11
6244.500990585486
 21
-5429.670621321703
 31
0.0
  0
LINE
  5
4E2F3
330
1F
100
AcDbEntity
  8
0部品3
100
AcDbLine
 10
6163.351191266749
 20
-5490.359935316195
 30
0.0
 11
6164.101191266749
 21
-5490.359935316195
 31
0.0
  0
ARC
  5
4E2F4
330
1F
100
AcDbEntity
  8
0
  6
Continuous
 62
     3
100
AcDbCircle
 10
6242.770302585486
 20
-5492.359935316195
 30
0.0
 40
2.649999999999999
100
AcDbArc
 50
333.0000000000128
 51
333.4293307897207
  0
ARC
  5
4E2F6
330
1F
100
AcDbEntity
  8
0部品4
100
AcDbCircle
 10
6245.770302585486
 20
-5442.964527321703
 30
0.0
 40
5.5
100
AcDbArc
 50
270.0
 51
0.0
  0
LINE
  5
4E2F7
330
1F
100
AcDbEntity
  8
0部品2
100
AcDbLine
 10
6146.601191266749
 20
-5487.859935316195
 30
0.0
 11
6148.601191266749
 21
-5487.859935316195
 31
0.0
  0
LINE
  5
4E2F8
330
1F
100
AcDbEntity
  8
0部品2
100
AcDbLine
 10
6157.351191266749
 20
-5495.106345316195
 30
0.0
 11
6157.351191266749
 21
-5499.359935316196
 31
0.0
  0
ARC
  5
4E2F9
330
1F
100
AcDbEntity
  8
0部品10
100
AcDbCircle
 10
6162.301191266749
 20
-5494.759935316196
 30
0.0
 40
0.35
100
AcDbArc
 50
180.0
 51
351.7028550301944
  0
LINE
  5
4E2FA
330
1F
100
AcDbEntity
  8
0部品4
100
AcDbLine
 10
6138.35119126675
 20
-5492.859935316196
 30
0.0
 11
6138.35119126675
 21
-5536.859935316195
 31
0.0
  0
LINE
  5
4E2FB
330
1F
100
AcDbEntity
  8
0部品1
100
AcDbLine
 10
6284.521843585486
 20
-5497.976957316196
 30
0.0
 11
6292.147827585486
 21
-5493.024585316195
 31
0.0
  0
ARC
  5
4E2FC
330
1F
100
AcDbEntity
  8
0部品4
100
AcDbCircle
 10
6168.85119126675
 20
-5536.859935316195
 30
0.0
 40
5.5
100
AcDbArc
 50
270.0
 51
0.0
  0
LINE
  5
4E2FE
330
1F
100
AcDbEntity
  8
0部品6
100
AcDbLine
 10
6229.270302585486
 20
-5410.464527321703
 30
0.0
 11
6231.270302585486
 21
-5410.464527321703
 31
0.0
  0
ARC
  5
4E2FF
330
1F
100
AcDbEntity
  8
0部品3
100
AcDbCircle
 10
6242.770302585486
 20
-5441.156491321702
 30
0.0
 40
3.208035999999999
100
AcDbArc
 50
214.3048434803786
 51
325.6951565196211
  0
LINE
  5
4E300
330
1F
100
AcDbEntity
  8
0部品6
100
AcDbLine
 10
6221.270302585486
 20
-5542.050918316196
 30
0.0
 11
6222.921631585485
 21
-5543.179241316195
 31
0.0
  0
ARC
  5
4E301
330
1F
100
AcDbEntity
  8
0部品10
100
AcDbCircle
 10
6240.370302585485
 20
-5426.614527321703
 30
0.0
 40
0.35
100
AcDbArc
 50
90.0
 51
261.7028550301944
  0
LINE
  5
4E302
330
1F
100
AcDbEntity
  8
0部品2
100
AcDbLine
 10
6247.270302585486
 20
-5499.359935316196
 30
0.0
 11
6247.270302585486
 21
-5501.359935316195
 31
0.0
  0
ARC
  5
4E303
330
1F
100
AcDbEntity
  8
0部品10
100
AcDbCircle
 10
6240.370302585485
 20
-5433.614527321704
 30
0.0
 40
0.35
100
AcDbArc
 50
90.0
 51
261.7028550301944
  0
LINE
  5
4E304
330
1F
100
AcDbEntity
  8
0部品2
100
AcDbLine
 10
6164.101191266749
 20
-5501.359935316195
 30
0.0
 11
6148.601191266749
 21
-5501.359935316195
 31
0.0
  0
LINE
  5
4E305
330
1F
100
AcDbEntity
  8
0部品1
100
AcDbLine
 10
6291.058549585486
 20
-5421.964527321703
 30
0.0
 11
6291.058549585486
 21
-5438.964527321703
 31
0.0
  0
LINE
  5
4E306
330
1F
100
AcDbEntity
  8
0部品2
100
AcDbLine
 10
6148.601191266749
 20
-5487.859935316195
 30
0.0
 11
6148.601191266749
 21
-5499.359935316196
 31
0.0
  0
ARC
  5
4E307
330
1F
100
AcDbEntity
  8
0部品10
100
AcDbCircle
 10
6240.370302585485
 20
-5435.714527321703
 30
0.0
 40
0.35
100
AcDbArc
 50
90.0
 51
261.7028550301944
  0
ARC
  5
4E308
330
1F
100
AcDbEntity
  8
0部品4
100
AcDbCircle
 10
6143.851191266749
 20
-5492.859935316196
 30
0.0
 40
5.5
100
AcDbArc
 50
90.0
 51
180.0
  0
LINE
  5
4E309
330
1F
100
AcDbEntity
  8
0部品10
100
AcDbLine
 10
6240.319795585485
 20
-5425.560864321703
 30
0.0
 11
6244.500990585486
 21
-5426.170621321703
 31
0.0
  0
LINE
  5
4E30A
330
1F
100
AcDbEntity
  8
0部品6
  6
中心線1
 48
0.5
370
    13
100
AcDbLine
 10
6144.351191266749
 20
-5548.052171316196
 30
0.0
 11
6144.351191266749
 21
-5561.052171316195
 31
0.0
  0
LINE
  5
4E30B
330
1F
100
AcDbEntity
  8
0部品6
100
AcDbLine
 10
6229.270302585486
 20
-5410.464527321703
 30
0.0
 11
6229.270302585486
 21
-5412.464527321702
 31
0.0
  0
LINE
  5
4E30C
330
1F
100
AcDbEntity
  8
0部品10
100
AcDbLine
 10
6240.319795585485
 20
-5430.460864321704
 30
0.0
 11
6244.500990585486
 21
-5431.070621321703
 31
0.0
  0
LINE
  5
4E30D
330
1F
100
AcDbEntity
  8
0部品10
100
AcDbLine
 10
6240.319795585485
 20
-5436.060864321703
 30
0.0
 11
6244.500990585486
 21
-5436.670621321702
 31
0.0
  0
LINE
  5
4E30E
330
1F
100
AcDbEntity
  8
0部品6
100
AcDbLine
 10
6229.270302585486
 20
-5540.359935316195
 30
0.0
 11
6229.270302585486
 21
-5562.359935316195
 31
0.0
  0
LINE
  5
4E30F
330
1F
100
AcDbEntity
  8
0部品10
100
AcDbLine
 10
6155.647528266749
 20
-5494.810442316196
 30
0.0
 11
6156.372385266749
 21
-5489.839990316195
 31
0.0
  0
ARC
  5
4E310
330
1F
100
AcDbEntity
  8
0部品1
100
AcDbCircle
 10
6242.770302585486
 20
-5492.359935316195
 30
0.0
 40
2.649999999999999
100
AcDbArc
 50
254.9353796902154
 51
335.0646203098232
  0
LINE
  5
4E311
330
1F
100
AcDbEntity
  8
0部品4
100
AcDbLine
 10
6168.85119126675
 20
-5538.359935316195
 30
0.0
 11
6168.351191266749
 21
-5538.359935316195
 31
0.0
  0
LINE
  5
4E312
330
1F
100
AcDbEntity
  8
0部品3
100
AcDbLine
 10
6240.770302585486
 20
-5440.964527321703
 30
0.0
 11
6240.770302585486
 21
-5440.214527321703
 31
0.0
  0
ARC
  5
4E313
330
1F
100
AcDbEntity
  8
0部品10
100
AcDbCircle
 10
6240.370302585485
 20
-5435.014527321703
 30
0.0
 40
0.35
100
AcDbArc
 50
90.0
 51
261.7028550301944
  0
LINE
  5
4E314
330
1F
100
AcDbEntity
  8
0部品10
100
AcDbLine
 10
6153.547528266749
 20
-5494.810442316196
 30
0.0
 11
6154.272385266748
 21
-5489.839990316195
 31
0.0
  0
LINE
  5
4E316
330
1F
100
AcDbEntity
  8
0部品2
100
AcDbLine
 10
6269.270302585486
 20
-5429.464527321703
 30
0.0
 11
6269.270302585486
 21
-5431.464527321703
 31
0.0
  0
ARC
  5
4E317
330
1F
100
AcDbEntity
  8
0部品10
100
AcDbCircle
 10
6149.701191266749
 20
-5489.959935316196
 30
0.0
 40
0.35
100
AcDbArc
 50
8.297144969805621
 51
180.0
  0
ARC
  5
4E318
330
1F
100
AcDbEntity
  8
0部品10
100
AcDbCircle
 10
6240.370302585485
 20
-5428.714527321703
 30
0.0
 40
0.35
100
AcDbArc
 50
90.0
 51
261.7028550301944
  0
ARC
  5
4E319
330
1F
100
AcDbEntity
  8
0部品10
100
AcDbCircle
 10
6153.201191266749
 20
-5494.759935316196
 30
0.0
 40
0.35
100
AcDbArc
 50
180.0
 51
351.7028550301944
  0
LINE
  5
4E31A
330
1F
100
AcDbEntity
  8
0部品3
100
AcDbLine
 10
6241.020302585486
 20
-5417.164527321703
 30
0.0
 11
6244.520302585486
 21
-5417.164527321703
 31
0.0
  0
LINE
  5
4E31B
330
1F
100
AcDbEntity
  8
0部品10
100
AcDbLine
 10
6240.319795585485
 20
-5428.360864321703
 30
0.0
 11
6244.500990585486
 21
-5428.970621321703
 31
0.0
  0
ARC
  5
4E31C
330
1F
100
AcDbEntity
  8
0部品4
100
AcDbCircle
 10
6168.85119126675
 20
-5536.859935316195
 30
0.0
 40
1.5
100
AcDbArc
 50
270.0
 51
0.0
  0
ARC
  5
4E31D
330
1F
100
AcDbEntity
  8
0部品10
100
AcDbCircle
 10
6157.40119126675
 20
-5494.759935316196
 30
0.0
 40
0.35
100
AcDbArc
 50
180.0
 51
351.7028550301944
  0
LINE
  5
4E31E
330
1F
100
AcDbEntity
  8
0部品10
100
AcDbLine
 10
6154.947528266749
 20
-5494.810442316196
 30
0.0
 11
6155.67238526675
 21
-5489.839990316195
 31
0.0
  0
LINE
  5
4E31F
330
1F
100
AcDbEntity
  8
0部品1
100
AcDbLine
 10
6158.351191266749
 20
-5488.441115316195
 30
0.0
 11
6158.351191266749
 21
-5489.714986316196
 31
0.0
  0
LINE
  5
4E320
330
1F
100
AcDbEntity
  8
0部品1
100
AcDbLine
 10
6235.770302585486
 20
-5442.964527321703
 30
0.0
 11
6288.147827585486
 21
-5442.964527321703
 31
0.0
  0
LINE
  5
4E324
330
1F
100
AcDbEntity
  8
0部品6
100
AcDbLine
 10
6166.351191266749
 20
-5542.050918316196
 30
0.0
 11
6146.351191266749
 21
-5542.050918316196
 31
0.0
  0
ARC
  5
4E325
330
1F
100
AcDbEntity
  8
0部品10
100
AcDbCircle
 10
6155.301191266749
 20
-5489.959935316196
 30
0.0
 40
0.35
100
AcDbArc
 50
8.297144969805621
 51
180.0
  0
LINE
  5
4E326
330
1F
100
AcDbEntity
  8
0部品6
  6
中心線1
 48
0.5
370
    13
100
AcDbLine
 10
6156.351191266749
 20
-5565.359935316195
 30
0.0
 11
6156.351191266749
 21
-5472.359935316195
 31
0.0
  0
ARC
  5
4E327
330
1F
100
AcDbEntity
  8
0部品10
100
AcDbCircle
 10
6160.201191266748
 20
-5494.759935316196
 30
0.0
 40
0.35
100
AcDbArc
 50
180.0
 51
351.7028550301944
  0
LINE
  5
4E328
330
1F
100
AcDbEntity
  8
0部品1
  6
細線
370
    13
100
AcDbLine
 10
6279.892412585486
 20
-5419.964527321702
 30
0.0
 11
6279.892412585486
 21
-5440.964527321703
 31
0.0
  0
LINE
  5
4E329
330
1F
100
AcDbEntity
  8
0部品10
100
AcDbLine
 10
6150.047528266749
 20
-5494.810442316196
 30
0.0
 11
6150.657285266749
 21
-5490.629247316196
 31
0.0
  0
ARC
  5
4E32C
330
1F
100
AcDbEntity
  8
0部品3
100
AcDbCircle
 10
6143.851191266749
 20
-5494.109935316195
 30
0.0
 40
0.8
100
AcDbArc
 50
180.0
 51
270.0
  0
CIRCLE
  5
4E32D
330
1F
100
AcDbEntity
  8
0部品6
100
AcDbCircle
 10
6144.351191266749
 20
-5554.552171316196
 30
0.0
 40
2.6
  0
ARC
  5
4E32E
330
1F
100
AcDbEntity
  8
0部品10
100
AcDbCircle
 10
6162.301191266749
 20
-5489.959935316196
 30
0.0
 40
0.35
100
AcDbArc
 50
8.297144969805621
 51
180.0
  0
LINE
  5
4E32F
330
1F
100
AcDbEntity
  8
0部品4
100
AcDbLine
 10
6245.770302585486
 20
-5412.464527321702
 30
0.0
 11
6227.270302585487
 21
-5412.464527321702
 31
0.0
  0
ARC
  5
4E332
330
1F
100
AcDbEntity
  8
0部品10
100
AcDbCircle
 10
6240.370302585485
 20
-5423.814527321703
 30
0.0
 40
0.35
100
AcDbArc
 50
93.44708875637921
 51
261.7028550301944
  0
LINE
  5
4E335
330
1F
100
AcDbEntity
  8
0部品4
100
AcDbLine
 10
6142.351191266749
 20
-5492.859935316196
 30
0.0
 11
6142.351191266749
 21
-5536.859935316195
 31
0.0
  0
LINE
  5
4E338
330
1F
100
AcDbEntity
  8
0部品3
100
AcDbLine
 10
6146.601191266749
 20
-5494.359935316196
 30
0.0
 11
6145.851191266749
 21
-5494.359935316196
 31
0.0
  0
LINE
  5
4E33A
330
1F
100
AcDbEntity
  8
0部品10
100
AcDbLine
 10
6162.647528266749
 20
-5494.810442316196
 30
0.0
 11
6163.347528266749
 21
-5490.010442316195
 31
0.0
  0
LINE
  5
4E33B
330
1F
100
AcDbEntity
  8
0部品1
100
AcDbLine
 10
6275.686219739402
 20
-5498.244868014118
 30
0.0
 11
6276.033492586007
 21
-5498.421812364572
 31
0.0
  0
LINE
  5
4E33C
330
1F
100
AcDbEntity
  8
0部品1
100
AcDbLine
 10
6242.770302585486
 20
-5499.359935316196
 30
0.0
 11
6273.892462585486
 21
-5499.359935316196
 31
0.0
  0
LINE
  5
4E343
330
1F
100
AcDbEntity
  8
0部品2
  6
中心線1
 48
0.3
370
    13
100
AcDbLine
 10
6251.270302585486
 20
-5496.859935316195
 30
0.0
 11
6251.270302585486
 21
-5504.359935316195
 31
0.0
  0
LINE
  5
4E344
330
1F
100
AcDbEntity
  8
0部品2
  6
中心線1
 48
0.3
370
    13
100
AcDbLine
 10
6273.270302585486
 20
-5496.859935316195
 30
0.0
 11
6273.270302585486
 21
-5504.359935316195
 31
0.0
  0
LINE
  5
4E346
330
1F
100
AcDbEntity
  8
0部品6
  6
中心線1
 48
0.3
370
    13
100
AcDbLine
 10
6226.270302585486
 20
-5554.552171316196
 30
0.0
 11
6234.270302585486
 21
-5554.552171316196
 31
0.0
  0
DIMENSION
  5
4E356
330
1F
100
AcDbEntity
  8
AM_5
100
AcDbDimension
  2
*D7
 10
6235.770302585486
 20
-5402.464527321703
 30
0.0
 11
6263.959065085487
 21
-5399.864527321703
 31
0.0
 70
    32
  1
（<>）
 71
     5
 42
56.37752499999987
  3
SYS$0
100
AcDbAlignedDimension
 13
6292.147827585486
 23
-5421.964527321703
 33
0.0
 14
6235.770302585486
 24
-5417.964527321704
 34
0.0
100
AcDbRotatedDimension
1001
ACAD
1000
DSTYLE
1002
{
1070
   271
1070
     0
1002
}
  0
DIMENSION
  5
4E3AA
330
1F
100
AcDbEntity
  8
AM_5
100
AcDbDimension
  2
*D8
 10
6300.147827585485
 20
-5417.964527321704
 30
0.0
 11
6300.147827585487
 21
-5430.464527321706
 31
0.0
 70
   160
 71
     5
 42
25.0
  3
SYS$0
100
AcDbAlignedDimension
 13
6288.147827585486
 23
-5442.964527321703
 33
0.0
 14
6288.147827585486
 24
-5417.964527321704
 34
0.0
 50
90.0
100
AcDbRotatedDimension
  0
DIMENSION
  5
4E3C0
330
1F
100
AcDbEntity
  8
AM_5
100
AcDbDimension
  2
*D9
 10
6308.147827585486
 20
-5412.464527321702
 30
0.0
 11
6308.147827585486
 21
-5430.464527321703
 31
0.0
 70
   160
  1
（<>）
 71
     5
 42
36.0
  3
SYS$0
100
AcDbAlignedDimension
 13
6245.770302585486
 23
-5448.464527321704
 33
0.0
 14
6245.770302585487
 24
-5412.464527321702
 34
0.0
 50
90.0
100
AcDbRotatedDimension
  0
DIMENSION
  5
4E40C
330
1F
100
AcDbEntity
  8
AM_5
100
AcDbDimension
  2
*D10
 10
6128.351191266749
 20
-5562.359935316194
 30
0.0
 11
6128.35119126675
 21
-5549.359935316195
 31
0.0
 70
   160
  1
（<>）
 71
     5
 42
26.0
  3
SYS$0
100
AcDbAlignedDimension
 13
6144.351191266749
 23
-5536.359935316195
 33
0.0
 14
6144.351191266749
 24
-5562.359935316195
 34
0.0
 50
90.0
100
AcDbRotatedDimension
  0
DIMENSION
  5
4E446
330
1F
100
AcDbEntity
  8
AM_5
100
AcDbDimension
  2
*D11
 10
6176.351191266749
 20
-5578.359935316195
 30
0.0
 11
6156.351191266749
 21
-5578.359935316195
 31
0.0
 70
   160
 71
     5
 42
40.0
  3
SYS$0
100
AcDbAlignedDimension
 13
6136.351191266749
 23
-5554.359935316195
 33
0.0
 14
6176.351191266749
 24
-5554.359935316195
 34
0.0
100
AcDbRotatedDimension
  0
DIMENSION
  5
4E477
330
1F
100
AcDbEntity
  8
AM_5
100
AcDbDimension
  2
*D12
 10
6168.351191266749
 20
-5570.359935316195
 30
0.0
 11
6156.351191266749
 21
-5570.359935316195
 31
0.0
 70
   160
 71
     5
 42
24.0
  3
SYS$0
100
AcDbAlignedDimension
 13
6144.351191266749
 23
-5561.052171316195
 33
0.0
 14
6168.351191266749
 24
-5561.052171316195
 34
0.0
100
AcDbRotatedDimension
  0
DIMENSION
  5
4E49F
330
1F
100
AcDbEntity
  8
AM_5
100
AcDbDimension
  2
*D13
 10
6221.270302585486
 20
-5578.359935316195
 30
0.0
 11
6226.270302585486
 21
-5578.359935316195
 31
0.0
 70
   160
 71
     5
 42
10.0
  3
SYS$0
100
AcDbAlignedDimension
 13
6231.270302585486
 23
-5562.359935316195
 33
0.0
 14
6221.270302585486
 24
-5542.050918316196
 34
0.0
100
AcDbRotatedDimension
  0
DIMENSION
  5
4E4B5
330
1F
100
AcDbEntity
  8
AM_5
100
AcDbDimension
  2
*D14
 10
6229.270302585486
 20
-5570.359935316195
 30
0.0
 11
6235.016969252153
 21
-5570.359935316195
 31
0.0
 70
   160
 71
     5
 42
2.0
  3
SYS$0
100
AcDbAlignedDimension
 13
6231.270302585486
 23
-5562.359935316195
 33
0.0
 14
6229.270302585486
 24
-5562.359935316195
 34
0.0
100
AcDbRotatedDimension
  0
DIMENSION
  5
4E525
330
1F
100
AcDbEntity
  8
AM_5
100
AcDbDimension
  2
*D15
 10
6238.270302585487
 20
-5456.464527321703
 30
0.0
 11
6244.770302585486
 21
-5456.464527321703
 31
0.0
 70
   160
 71
     5
 42
13.0
  3
SYS$0
100
AcDbAlignedDimension
 13
6251.270302585486
 23
-5436.964527321703
 33
0.0
 14
6238.270302585487
 24
-5440.214527321703
 34
0.0
100
AcDbRotatedDimension
  0
DIMENSION
  5
4E53B
330
1F
100
AcDbEntity
  8
AM_5
100
AcDbDimension
  2
*D16
 10
6273.270302585486
 20
-5464.464527321703
 30
0.0
 11
6262.270302585488
 21
-5464.464527321703
 31
0.0
 70
   160
 71
     5
 42
22.0
  3
SYS$0
100
AcDbAlignedDimension
 13
6251.270302585486
 23
-5436.964527321703
 33
0.0
 14
6273.270302585486
 24
-5436.964527321703
 34
0.0
100
AcDbRotatedDimension
  0
DIMENSION
  5
4E552
330
1F
100
AcDbEntity
  8
AM_5
100
AcDbDimension
  2
*D17
 10
6231.270302585486
 20
-5464.464527321703
 30
0.0
 11
6241.270302585486
 21
-5464.464527321703
 31
0.0
 70
   160
 71
     5
 42
20.0
  3
SYS$0
100
AcDbAlignedDimension
 13
6251.270302585486
 23
-5436.964527321703
 33
0.0
 14
6231.270302585486
 24
-5450.464527321702
 34
0.0
100
AcDbRotatedDimension
  0
DIMENSION
  5
4E571
330
1F
100
AcDbEntity
  8
AM_5
100
AcDbDimension
  2
*D18
 10
6300.147827585485
 20
-5480.573187316196
 30
0.0
 11
6300.147827585487
 21
-5490.966561316194
 31
0.0
 70
   160
  1
（19）
 71
     5
 42
20.78674799999953
  3
SYS$0
100
AcDbAlignedDimension
 13
6279.770302585486
 23
-5501.359935316195
 33
0.0
 14
6245.408971585487
 24
-5480.573187316196
 34
0.0
 50
90.0
100
AcDbRotatedDimension
  0
DIMENSION
  5
4E587
330
1F
100
AcDbEntity
  8
AM_5
100
AcDbDimension
  2
*D19
 10
6292.147827585485
 20
-5499.359935316196
 30
0.0
 11
6292.147827585486
 21
-5505.106601982862
 31
0.0
 70
   160
 71
     5
 42
2.0
  3
SYS$0
100
AcDbAlignedDimension
 13
6279.770302585486
 23
-5501.359935316195
 33
0.0
 14
6279.770302585486
 24
-5499.359935316196
 34
0.0
 50
90.0
100
AcDbRotatedDimension
  0
DIMENSION
  5
4E6C5
330
1F
100
AcDbEntity
  8
AM_5
100
AcDbDimension
  2
*D20
 10
6174.351191266749
 20
-5515.623329033814
 30
0.0
 11
6178.281107202092
 21
-5515.623329033814
 31
0.0
 70
   160
  1
%%c<>
 71
     5
 42
4.0
  3
SYS$0
100
AcDbAlignedDimension
 13
6170.35119126675
 23
-5514.859935316195
 33
0.0
 14
6174.351191266749
 24
-5514.859935316195
 34
0.0
100
AcDbRotatedDimension
  0
DIMENSION
  5
4E77E
330
1F
100
AcDbEntity
  8
AM_5
100
AcDbDimension
  2
*D21
 10
6308.147827585486
 20
-5501.359935316195
 30
0.0
 11
6305.547827585486
 21
-5527.956053316193
 31
0.0
 70
    32
  1
（<>）
 71
     5
 42
53.19223599999986
  3
SYS$0
100
AcDbAlignedDimension
 13
6234.270302585486
 23
-5554.552171316196
 33
0.0
 14
6279.770302585486
 24
-5501.359935316195
 34
0.0
 50
90.0
100
AcDbRotatedDimension
1001
ACAD
1000
DSTYLE
1002
{
1070
   271
1070
     0
1002
}
  0
DIMENSION
  5
4E7BB
330
1F
100
AcDbEntity
  8
AM_5
100
AcDbDimension
  2
*D22
 10
6182.351191266748
 20
-5554.552171316196
 30
0.0
 11
6182.351191266749
 21
-5545.456053316192
 31
0.0
 70
   160
  1
（<>）
 71
     5
 42
18.19223599999986
  3
SYS$0
100
AcDbAlignedDimension
 13
6168.351191266749
 23
-5536.359935316195
 33
0.0
 14
6174.851191266749
 24
-5554.552171316196
 34
0.0
 50
90.0
100
AcDbRotatedDimension
1001
ACAD
1000
DSTYLE
1002
{
1070
   271
1070
     0
1002
}
  0
TEXT
  5
5183F
330
1F
100
AcDbEntity
  8
AM_6
 60
     1
100
AcDbText
 10
5973.602012689372
 20
109.7385382224183
 30
0.0
 40
2.5
  1
!GENTITLE-INSERT
100
AcDbText
  0
TEXT
  5
51840
330
1F
100
AcDbEntity
  8
AM_6
 60
     1
100
AcDbText
 10
5565.102012689372
 20
101.2385382224183
 30
0.0
 40
2.5
  1
!GENTITLE-LL
100
AcDbText
  0
TEXT
  5
51841
330
1F
100
AcDbEntity
  8
AM_6
 60
     1
100
AcDbText
 10
5985.102012689372
 20
398.2385382224184
 30
0.0
 40
2.5
  1
!GENTITLE-RU
100
AcDbText
  0
TEXT
  5
51842
330
1F
100
AcDbEntity
  8
AM_6
 60
     1
100
AcDbText
 10
5985.102012689372
 20
398.2385382224184
 30
0.0
 40
2.5
  1
!GENTITLE-MAX
100
AcDbText
  0
TEXT
  5
5184A
330
1F
100
AcDbEntity
  8
AM_6
 60
     1
100
AcDbText
 10
5565.102012689372
 20
101.2385382224183
 30
0.0
 40
2.5
  1
!GENTITLE-LL
100
AcDbText
  0
TEXT
  5
5184B
330
1F
100
AcDbEntity
  8
AM_6
 60
     1
100
AcDbText
 10
5973.602012689372
 20
389.7385382224184
 30
0.0
 40
2.5
  1
!GENTITLE-RU
100
AcDbText
  0
TEXT
  5
5184C
330
1F
100
AcDbEntity
  8
AM_6
 60
     1
100
AcDbText
 10
5985.102012689372
 20
398.2385382224184
 30
0.0
 40
2.5
  1
!GENTITLE-MAX
100
AcDbText
  0
TEXT
  5
5184D
330
1F
100
AcDbEntity
  8
AM_6
 60
     1
100
AcDbText
 10
5973.602012689372
 20
109.7385382224183
 30
0.0
 40
2.5
  1
!GENTITLE-INSERT
100
AcDbText
  0
DIMENSION
  5
5519F
330
1F
100
AcDbEntity
  8
AM_5
100
AcDbDimension
  2
*D23
 10
6308.147827585486
 20
-5475.359935316195
 30
0.0
 11
6308.147827585486
 21
-5488.359935316193
 31
0.0
 70
   160
 71
     5
 42
26.0
  3
SYS$0
100
AcDbAlignedDimension
 13
6279.770302585486
 23
-5501.359935316195
 33
0.0
 14
6262.270302585486
 24
-5475.359935316195
 34
0.0
 50
90.0
100
AcDbRotatedDimension
  0
DIMENSION
  5
551E3
330
1F
100
AcDbEntity
  8
AM_5
100
AcDbDimension
  2
*D24
 10
6259.208232034151
 20
-5485.65746832416
 30
0.0
 11
6274.059034461346
 21
-5472.579491232437
 31
0.0
 70
   163
 71
     5
 42
8.999999999997726
  3
SYS$3
100
AcDbDiametricDimension
 15
6265.332373136818
 25
-5479.062402308223
 35
0.0
 40
0.0
1001
ACAD
1000
DSTYLE
1002
{
1070
    41
1040
1.0
1070
   172
1070
     1
1070
   342
1005
6C4
1002
}
  0
ARC
  5
593B8
330
1F
100
AcDbEntity
  8
0部品1
100
AcDbCircle
 10
6242.770302585486
 20
-5492.359935316195
 30
0.0
 40
7.0
100
AcDbArc
 50
221.8416660274213
 51
270.0
  0
DIMENSION
  5
5962E
330
1F
100
AcDbEntity
  8
AM_5
100
AcDbDimension
  2
*D25
 10
6147.170679614525
 20
-5551.305559935579
 30
0.0
 11
6117.791948942095
 21
-5568.740720807373
 31
0.0
 70
   163
  1
2-%%c5.2×<>サラ
 71
     5
 42
8.59999999999809
  3
SYS$3
100
AcDbDiametricDimension
 15
6141.53170291898
 25
-5557.798782696818
 35
0.0
 40
0.0
1001
ACAD
1000
DSTYLE
1002
{
1070
    41
1040
1.0
1070
   172
1070
     1
1070
   342
1005
6C4
1002
}
  0
DIMENSION
  5
59680
330
1F
100
AcDbEntity
  8
AM_5
100
AcDbDimension
  2
*D26
 10
6271.020516368107
 20
-5426.800040730642
 30
0.0
 11
6302.980913717076
 21
-5455.667641543625
 31
0.0
 70
   163
  1
2-%%c5.2×<>サラ
 71
     5
 42
8.599999999999454
  3
SYS$3
100
AcDbDiametricDimension
 15
6275.520088802864
 25
-5434.12901391277
 35
0.0
 40
0.0
1001
ACAD
1000
DSTYLE
1002
{
1070
    41
1040
1.0
1070
   172
1070
     1
1070
   342
1005
6C4
1002
}
  0
LINE
  5
5A9D2
330
1F
100
AcDbEntity
  8
size
100
AcDbLine
 10
6074.924675701049
 20
-5382.70188918955
 30
0.0
 11
6371.924675701049
 21
-5382.70188918955
 31
0.0
1001
GENIUS_GENREC_14
1002
{
1000
PYDIR
1011
6074.924675701049
1021
-5295.701889189549
1031
0.0
1002
}
1002
{
1000
PXDIR
1011
6494.924675701049
1021
-5592.70188918955
1031
0.0
1002
}
1002
{
1000
PORI
1011
6074.924675701049
1021
-5592.70188918955
1031
0.0
1002
}
1002
{
1000
PINS
1011
6284.924675701049
1021
-5444.20188918955
1031
0.0
1002
}
1002
{
1000
HVAL
1000
297
1002
}
1002
{
1000
H
1070
     2
1002
}
1002
{
1000
WVAL
1000
420
1002
}
1002
{
1000
W
1070
     2
1002
}
1002
{
1000
C
1070
     4
1002
}
1001
GENIUS_GENOBJ-N-REC_13
1002
{
1000
OWNER
1000
GEN
1002
}
1001
GENIUS_GENODEF_13
1002
{
1000
HIER
1070
     0
1002
}
1002
{
1000
MANEDIT
1070
     0
1002
}
1002
{
1000
NOSEL
1070
     0
1002
}
1002
{
1000
BEHIND
1070
     0
1002
}
1002
{
1000
OTHER
1070
     0
1002
}
1002
{
1000
REACTOR
1002
}
  0
LINE
  5
5A9D3
330
1F
100
AcDbEntity
  8
size
100
AcDbLine
 10
6371.924675701049
 20
-5382.70188918955
 30
0.0
 11
6371.924675701049
 21
-5592.70188918955
 31
0.0
1001
GENIUS_GENREC_14
1002
{
1000
PYDIR
1011
6074.924675701049
1021
-5295.701889189549
1031
0.0
1002
}
1002
{
1000
PXDIR
1011
6494.924675701049
1021
-5592.70188918955
1031
0.0
1002
}
1002
{
1000
PORI
1011
6074.924675701049
1021
-5592.70188918955
1031
0.0
1002
}
1002
{
1000
PINS
1011
6284.924675701049
1021
-5444.20188918955
1031
0.0
1002
}
1002
{
1000
HVAL
1000
297
1002
}
1002
{
1000
H
1070
     2
1002
}
1002
{
1000
WVAL
1000
420
1002
}
1002
{
1000
W
1070
     2
1002
}
1002
{
1000
C
1070
     4
1002
}
1001
GENIUS_GENOBJ-N-REC_13
1002
{
1000
OWNER
1000
GEN
1002
}
1001
GENIUS_GENODEF_13
1002
{
1000
HIER
1070
     0
1002
}
1002
{
1000
MANEDIT
1070
     0
1002
}
1002
{
1000
NOSEL
1070
     0
1002
}
1002
{
1000
BEHIND
1070
     0
1002
}
1002
{
1000
OTHER
1070
     0
1002
}
1002
{
1000
REACTOR
1002
}
  0
LINE
  5
5A9D4
330
1F
100
AcDbEntity
  8
waku
100
AcDbLine
 10
6086.424675701049
 20
-5584.20188918955
 30
0.0
 11
6360.42467570105
 21
-5584.20188918955
 31
0.0
1001
GENIUS_GENREC_14
1002
{
1000
PYDIR
1011
6074.924675701049
1021
-5295.701889189549
1031
0.0
1002
}
1002
{
1000
PXDIR
1011
6494.924675701049
1021
-5592.70188918955
1031
0.0
1002
}
1002
{
1000
PORI
1011
6074.924675701049
1021
-5592.70188918955
1031
0.0
1002
}
1002
{
1000
PINS
1011
6284.924675701049
1021
-5444.20188918955
1031
0.0
1002
}
1002
{
1000
HVAL
1000
297
1002
}
1002
{
1000
H
1070
     2
1002
}
1002
{
1000
WVAL
1000
420
1002
}
1002
{
1000
W
1070
     2
1002
}
1002
{
1000
C
1070
     4
1002
}
  0
LINE
  5
5A9D5
330
1F
100
AcDbEntity
  8
waku
100
AcDbLine
 10
6360.42467570105
 20
-5391.20188918955
 30
0.0
 11
6086.424675701049
 21
-5391.20188918955
 31
0.0
1001
GENIUS_GENREC_14
1002
{
1000
PYDIR
1011
5951.92467570105
1021
-5382.70188918955
1031
0.0
1002
}
1002
{
1000
PXDIR
1011
6371.924675701049
1021
-5679.70188918955
1031
0.0
1002
}
1002
{
1000
PORI
1011
5951.92467570105
1021
-5679.70188918955
1031
0.0
1002
}
1002
{
1000
PINS
1011
6161.92467570105
1021
-5531.201889189549
1031
0.0
1002
}
1002
{
1000
HVAL
1000
297
1002
}
1002
{
1000
H
1070
     2
1002
}
1002
{
1000
WVAL
1000
420
1002
}
1002
{
1000
W
1070
     2
1002
}
1002
{
1000
C
1070
     4
1002
}
1001
GENIUS_GENOBJ-N-REC_13
1002
{
1000
OWNER
1000
GEN
1002
}
1001
GENIUS_GENODEF_13
1002
{
1000
HIER
1070
     0
1002
}
1002
{
1000
MANEDIT
1070
     0
1002
}
1002
{
1000
NOSEL
1070
     0
1002
}
1002
{
1000
BEHIND
1070
     0
1002
}
1002
{
1000
OTHER
1070
     0
1002
}
1002
{
1000
REACTOR
1002
}
  0
LINE
  5
5A9D6
330
1F
100
AcDbEntity
  8
waku
100
AcDbLine
 10
6086.424675701049
 20
-5391.20188918955
 30
0.0
 11
6086.424675701049
 21
-5584.20188918955
 31
0.0
1001
GENIUS_GENREC_14
1002
{
1000
PYDIR
1011
6074.924675701049
1021
-5295.701889189549
1031
0.0
1002
}
1002
{
1000
PXDIR
1011
6494.924675701049
1021
-5592.70188918955
1031
0.0
1002
}
1002
{
1000
PORI
1011
6074.924675701049
1021
-5592.70188918955
1031
0.0
1002
}
1002
{
1000
PINS
1011
6284.924675701049
1021
-5444.20188918955
1031
0.0
1002
}
1002
{
1000
HVAL
1000
297
1002
}
1002
{
1000
H
1070
     2
1002
}
1002
{
1000
WVAL
1000
420
1002
}
1002
{
1000
W
1070
     2
1002
}
1002
{
1000
C
1070
     4
1002
}
1001
GENIUS_GENOBJ-N-REC_13
1002
{
1000
OWNER
1000
GEN
1002
}
1001
GENIUS_GENODEF_13
1002
{
1000
HIER
1070
     0
1002
}
1002
{
1000
MANEDIT
1070
     0
1002
}
1002
{
1000
NOSEL
1070
     0
1002
}
1002
{
1000
BEHIND
1070
     0
1002
}
1002
{
1000
OTHER
1070
     0
1002
}
1002
{
1000
REACTOR
1002
}
  0
LINE
  5
5A9D7
330
1F
100
AcDbEntity
  8
waku
100
AcDbLine
 10
6360.42467570105
 20
-5584.20188918955
 30
0.0
 11
6360.42467570105
 21
-5391.20188918955
 31
0.0
1001
GENIUS_GENREC_14
1002
{
1000
PYDIR
1011
5951.92467570105
1021
-5376.70188918955
1031
0.0
1002
}
1002
{
1000
PXDIR
1011
6371.924675701049
1021
-5673.701889189549
1031
0.0
1002
}
1002
{
1000
PORI
1011
5951.92467570105
1021
-5673.701889189549
1031
0.0
1002
}
1002
{
1000
PINS
1011
6161.92467570105
1021
-5525.201889189549
1031
0.0
1002
}
1002
{
1000
HVAL
1000
297
1002
}
1002
{
1000
H
1070
     2
1002
}
1002
{
1000
WVAL
1000
420
1002
}
1002
{
1000
W
1070
     2
1002
}
1002
{
1000
C
1070
     4
1002
}
1001
GENIUS_GENOBJ-N-REC_13
1002
{
1000
OWNER
1000
GEN
1002
}
1001
GENIUS_GENODEF_13
1002
{
1000
HIER
1070
     0
1002
}
1002
{
1000
MANEDIT
1070
     0
1002
}
1002
{
1000
NOSEL
1070
     0
1002
}
1002
{
1000
BEHIND
1070
     0
1002
}
1002
{
1000
OTHER
1070
     0
1002
}
1002
{
1000
REACTOR
1002
}
  0
LINE
  5
5A9D8
330
1F
100
AcDbEntity
  8
size
100
AcDbLine
 10
6074.924675701049
 20
-5382.70188918955
 30
0.0
 11
6074.924675701049
 21
-5592.70188918955
 31
0.0
1001
GENIUS_GENREC_14
1002
{
1000
PYDIR
1011
6074.924675701049
1021
-5295.701889189549
1031
0.0
1002
}
1002
{
1000
PXDIR
1011
6494.924675701049
1021
-5592.70188918955
1031
0.0
1002
}
1002
{
1000
PORI
1011
6074.924675701049
1021
-5592.70188918955
1031
0.0
1002
}
1002
{
1000
PINS
1011
6284.924675701049
1021
-5444.20188918955
1031
0.0
1002
}
1002
{
1000
HVAL
1000
297
1002
}
1002
{
1000
H
1070
     2
1002
}
1002
{
1000
WVAL
1000
420
1002
}
1002
{
1000
W
1070
     2
1002
}
1002
{
1000
C
1070
     4
1002
}
1001
GENIUS_GENOBJ-N-REC_13
1002
{
1000
OWNER
1000
GEN
1002
}
1001
GENIUS_GENODEF_13
1002
{
1000
HIER
1070
     0
1002
}
1002
{
1000
MANEDIT
1070
     0
1002
}
1002
{
1000
NOSEL
1070
     0
1002
}
1002
{
1000
BEHIND
1070
     0
1002
}
1002
{
1000
OTHER
1070
     0
1002
}
1002
{
1000
REACTOR
1002
}
  0
LINE
  5
5A9D9
330
1F
100
AcDbEntity
  8
size
100
AcDbLine
 10
6074.924675701049
 20
-5592.70188918955
 30
0.0
 11
6371.924675701049
 21
-5592.70188918955
 31
0.0
1001
GENIUS_GENREC_14
1002
{
1000
PYDIR
1011
6074.924675701049
1021
-5295.701889189549
1031
0.0
1002
}
1002
{
1000
PXDIR
1011
6494.924675701049
1021
-5592.70188918955
1031
0.0
1002
}
1002
{
1000
PORI
1011
6074.924675701049
1021
-5592.70188918955
1031
0.0
1002
}
1002
{
1000
PINS
1011
6284.924675701049
1021
-5444.20188918955
1031
0.0
1002
}
1002
{
1000
HVAL
1000
297
1002
}
1002
{
1000
H
1070
     2
1002
}
1002
{
1000
WVAL
1000
420
1002
}
1002
{
1000
W
1070
     2
1002
}
1002
{
1000
C
1070
     4
1002
}
1001
GENIUS_GENOBJ-N-REC_13
1002
{
1000
OWNER
1000
GEN
1002
}
1001
GENIUS_GENODEF_13
1002
{
1000
HIER
1070
     0
1002
}
1002
{
1000
MANEDIT
1070
     0
1002
}
1002
{
1000
NOSEL
1070
     0
1002
}
1002
{
1000
BEHIND
1070
     0
1002
}
1002
{
1000
OTHER
1070
     0
1002
}
1002
{
1000
REACTOR
1002
}
  0
LINE
  5
5AA9E
330
1F
100
AcDbEntity
  8
0部品2
100
AcDbLine
 10
6238.270302585487
 20
-5440.214527321703
 30
0.0
 11
6238.270302585487
 21
-5420.714527321703
 31
0.0
  0
LINE
  5
5AA9F
330
1F
100
AcDbEntity
  8
0部品2
  6
中心線1
 48
0.3
370
    13
100
AcDbLine
 10
6251.270302585486
 20
-5436.964527321703
 30
0.0
 11
6251.270302585486
 21
-5423.964527321703
 31
0.0
  0
LINE
  5
5AAA6
330
1F
100
AcDbEntity
  8
0部品2
  6
中心線1
 48
0.3
370
    13
100
AcDbLine
 10
6273.270302585486
 20
-5436.964527321703
 30
0.0
 11
6273.270302585486
 21
-5423.964527321703
 31
0.0
  0
ARC
  5
5AAAD
330
1F
100
AcDbEntity
  8
0部品2
100
AcDbCircle
 10
6273.270302585486
 20
-5430.464527321703
 30
0.0
 40
4.299999999999999
100
AcDbArc
 50
193.4477270445098
 51
207.7177476896123
  0
ARC
  5
5AAB0
330
1F
100
AcDbEntity
  8
0部品2
  6
陰線1
 48
0.5
370
    13
100
AcDbCircle
 10
6251.270302585486
 20
-5430.464527321703
 30
0.0
 40
4.299999999999999
100
AcDbArc
 50
27.28988440494577
 51
332.7101155950542
  0
ARC
  5
5AAB6
330
1F
100
AcDbEntity
  8
0部品2
  6
陰線1
 48
0.5
370
    13
100
AcDbCircle
 10
6251.270302585486
 20
-5430.464527321703
 30
0.0
 40
2.6
100
AcDbArc
 50
21.99423295574213
 51
338.0057670442579
  0
CIRCLE
  5
5AAB7
330
1F
100
AcDbEntity
  8
0部品2
  6
陰線1
 48
0.5
370
    13
100
AcDbCircle
 10
6273.270302585486
 20
-5430.464527321703
 30
0.0
 40
2.6
  0
ARC
  5
5AAC5
330
1F
100
AcDbEntity
  8
0部品2
100
AcDbCircle
 10
6251.270302585486
 20
-5430.464527321703
 30
0.0
 40
4.299999999999999
100
AcDbArc
 50
332.7101155950542
 51
346.5522729554901
  0
ARC
  5
5AAC7
330
1F
100
AcDbEntity
  8
0部品2
100
AcDbCircle
 10
6251.270302585486
 20
-5430.464527321703
 30
0.0
 40
2.6
100
AcDbArc
 50
338.0057670442579
 51
21.99423295574213
  0
ARC
  5
5AAC8
330
1F
100
AcDbEntity
  8
0部品2
100
AcDbCircle
 10
6251.270302585486
 20
-5430.464527321703
 30
0.0
 40
4.299999999999999
100
AcDbArc
 50
13.44772704450983
 51
27.28988440494577
  0
ARC
  5
5AAC9
330
1F
100
AcDbEntity
  8
0部品2
  6
陰線1
 48
0.5
370
    13
100
AcDbCircle
 10
6273.270302585486
 20
-5430.464527321703
 30
0.0
 40
4.299999999999999
100
AcDbArc
 50
207.717747693975
 51
152.282252306025
  0
ARC
  5
5AACA
330
1F
100
AcDbEntity
  8
0部品2
100
AcDbCircle
 10
6273.270302585486
 20
-5430.464527321703
 30
0.0
 40
4.299999999999999
100
AcDbArc
 50
152.2822523103876
 51
166.5522729554901
  0
LINE
  5
5AC70
330
1F
100
AcDbEntity
  8
0部品1
100
AcDbLine
 10
6245.408971585487
 20
-5440.964527321703
 30
0.0
 11
6245.408971585487
 21
-5442.964527321703
 31
0.0
  0
LINE
  5
5AC71
330
1F
100
AcDbEntity
  8
0部品1
100
AcDbLine
 10
6245.408971585487
 20
-5417.964527321704
 30
0.0
 11
6245.408971585487
 21
-5419.964527321702
 31
0.0
  0
ENDSEC
  0
SECTION
  2
OBJECTS
  0
DICTIONARY
  5
C
330
0
100
AcDbDictionary
281
     1
  3
ACAD_2007HEADERVARS_RT
350
5B2AA
  3
ACAD_BGPLOT_KEY
350
AB06
  3
ACAD_COLOR
350
A91D
  3
ACAD_GROUP
350
D
  3
ACAD_LAYOUT
350
1A
  3
ACAD_MATERIAL
350
A91C
  3
ACAD_MLINESTYLE
350
17
  3
ACAD_PLOTSETTINGS
350
19
  3
ACAD_PLOTSTYLENAME
350
E
  3
ACAD_TABLESTYLE
350
AAB9
  3
ACAD_VISUALSTYLE
350
B0F1
  3
AcAsAppObject
350
3DA1
  3
ACASGREF_MASTER
350
3DE9
  3
AcDbVariableDictionary
350
34
  3
AcmDictionary
350
47
  3
AD_GREF_MODULE
350
3DEA
  3
AD_MAPI_MODULE
350
3E06
  3
AMG
350
2B
  3
AMGSNAPSETTINGS
350
7D
  3
ASE_INDEX_DICTIONARY
350
57912
  3
DWGPROPS
350
5B2A9
  3
MAPISURF_MODULE
350
3DEB
  0
DICTIONARY
  5
3F95
330
2
100
AcDbDictionary
280
     1
281
     1
  3
ACAD_LAYERFILTERS
360
5369F
  3
ACAD_LAYERSTATES
360
3F96
  3
ACLYDICTIONARY
360
5369E
  3
AMLAYER_GROUPCOLORS
360
AAB4
  0
DICTIONARY
  5
2E416
330
2E415
100
AcDbDictionary
280
     1
281
     1
  3
ADSK_XREC_LAYER_RECONCILED
360
2E417
  0
DICTIONARY
  5
8A
330
1F
100
AcDbDictionary
280
     1
281
     1
  3
ACAD_SORTENTS
360
B1BA
  0
DICTIONARY
  5
5B2AA
102
{ACAD_REACTORS
330
C
102
}
330
C
100
AcDbDictionary
281
     1
  3
DIMARCSYM
350
5B2AB
  0
DICTIONARY
  5
AB06
102
{ACAD_REACTORS
330
C
102
}
330
C
100
AcDbDictionary
280
     1
281
     1
  0
DICTIONARY
  5
A91D
102
{ACAD_REACTORS
330
C
102
}
330
C
100
AcDbDictionary
281
     1
  0
DICTIONARY
  5
D
102
{ACAD_REACTORS
330
C
102
}
330
C
100
AcDbDictionary
281
     1
  0
DICTIONARY
  5
1A
102
{ACAD_REACTORS
330
C
102
}
330
C
100
AcDbDictionary
281
     1
  3
Model
350
22
  3
ﾚｲｱｳﾄ1
350
1E
  3
ﾚｲｱｳﾄ2
350
26
  0
DICTIONARY
  5
A91C
102
{ACAD_REACTORS
330
C
102
}
330
C
100
AcDbDictionary
281
     1
  3
ByBlock
350
B0EF
  3
ByLayer
350
B0EE
  3
Global
350
B0F0
  0
DICTIONARY
  5
17
102
{ACAD_REACTORS
330
C
102
}
330
C
100
AcDbDictionary
281
     1
  3
Standard
350
18
  0
DICTIONARY
  5
19
102
{ACAD_REACTORS
330
C
102
}
330
C
100
AcDbDictionary
281
     1
  0
ACDBDICTIONARYWDFLT
  5
E
102
{ACAD_REACTORS
330
C
102
}
330
C
100
AcDbDictionary
281
     1
  3
Normal
350
F
100
AcDbDictionaryWithDefault
340
F
  0
DICTIONARY
  5
AAB9
102
{ACAD_REACTORS
330
C
102
}
330
C
100
AcDbDictionary
281
     1
  3
Standard
350
AABA
  0
DICTIONARY
  5
B0F1
102
{ACAD_REACTORS
330
C
102
}
330
C
100
AcDbDictionary
281
     1
  3
2dWireframe
350
B0F7
  3
3D Hidden
350
B0F9
  3
3dWireframe
350
B0F8
  3
Basic
350
B0F6
  3
Brighten
350
B0FD
  3
ColorChange
350
B101
  3
Conceptual
350
B0FA
  3
Dim
350
B0FC
  3
Facepattern
350
B100
  3
Flat
350
B0F2
  3
FlatWithEdges
350
B0F3
  3
Gouraud
350
B0F4
  3
GouraudWithEdges
350
B0F5
  3
Linepattern
350
B0FF
  3
Realistic
350
B0FB
  3
Thicken
350
B0FE
  0
ACAD_PROXY_OBJECT
  5
3DA1
102
{ACAD_REACTORS
330
C
102
}
330
C
100
AcDbProxyObject
 90
      499
 91
      576
 95
   917527
 70
     0
 93
       10
310
407F
 94
        0
1001
ACAD
1000
AcRTDxfName
1000
ASAPP
  0
ACAD_PROXY_OBJECT
  5
3DE9
102
{ACAD_REACTORS
330
C
102
}
330
C
100
AcDbProxyObject
 90
      499
 91
      581
 95
   917527
 70
     0
 93
       34
310
010000407F
 94
        0
1001
ACAD
1000
AcRTDxfName
1000
ACASGREFMASTER
  0
DICTIONARY
  5
34
102
{ACAD_REACTORS
330
C
102
}
330
C
100
AcDbDictionary
281
     1
  3
CTABLESTYLE
350
AAF3
  3
DIMASSOC
350
A10C
  3
FIELDEVAL
350
AB07
  3
INDEXCTL
350
35
  3
SORTENTS
350
194C
  0
DICTIONARY
  5
47
102
{ACAD_REACTORS
330
C
102
}
330
C
100
AcDbDictionary
281
     1
  3
AcmBOM
350
7E8
  3
AcmStdDictionary
350
4C
  3
AMDTSECTSYM_ARROWCOLOR
350
A929
  0
ACAD_PROXY_OBJECT
  5
3DEA
102
{ACAD_REACTORS
330
C
102
}
330
C
100
AcDbProxyObject
 90
      499
 91
      582
 95
   917527
 70
     0
 93
      114
310
00000043800000000000000000003F
 94
        0
1001
ACAD
1000
AcRTDxfName
1000
ACADGREFMODULE
  0
ACAD_PROXY_OBJECT
  5
3E06
102
{ACAD_REACTORS
330
C
102
}
330
C
100
AcDbProxyObject
 90
      499
 91
      594
 95
   917527
 70
     0
 93
       34
310
05000044FF
 94
        0
1001
ACAD
1000
AcRTDxfName
1000
MAPIADMODULE
  0
DICTIONARY
  5
2B
102
{ACAD_REACTORS
330
C
102
}
330
C
100
AcDbDictionary
281
     1
  0
DICTIONARY
  5
7D
102
{ACAD_REACTORS
330
C
102
}
330
C
100
AcDbDictionary
281
     1
  0
DICTIONARY
  5
57912
102
{ACAD_REACTORS
330
C
102
}
330
C
100
AcDbDictionary
281
     1
  3
ASEBlockHierarchyIndexRecord
350
57913
1001
DCO15
1040
1757428023.343
  0
XRECORD
  5
5B2A9
102
{ACAD_REACTORS
330
C
102
}
330
C
100
AcDbXrecord
280
     1
  1
DWGPROPS COOKIE
  2

  3

  4

  6

  7

  8
Administrator
  9

300
AmdtFileType=84
301
=
302
=
303
=
304
=
305
=
306
=
307
=
308
=
309
=
 40
7.98094
 41
2455567.680725081
 42
2456268.49706037
  1

 90
        1
  0
ACAD_PROXY_OBJECT
  5
3DEB
102
{ACAD_REACTORS
330
C
102
}
330
C
100
AcDbProxyObject
 90
      499
 91
      583
 95
   917527
 70
     0
 93
        8
310
047E
 94
        0
1001
ACAD
1000
AcRTDxfName
1000
AMDTMAPISURFMOUDULE
  0
DICTIONARY
  5
5369F
102
{ACAD_REACTORS
330
3F95
102
}
330
3F95
100
AcDbDictionary
281
     1
  0
DICTIONARY
  5
3F96
102
{ACAD_REACTORS
330
3F95
102
}
330
3F95
100
AcDbDictionary
281
     1
  3
20011210
350
3FB7
  0
DICTIONARY
  5
5369E
102
{ACAD_REACTORS
330
3F95
102
}
330
3F95
100
AcDbDictionary
281
     1
1001
ACAD
1000
<All
  0
DICTIONARY
  5
AAB4
102
{ACAD_REACTORS
330
3F95
102
}
330
3F95
100
AcDbDictionary
280
     1
281
     1
  0
XRECORD
  5
2E417
102
{ACAD_REACTORS
330
2E416
102
}
330
2E416
100
AcDbXrecord
280
     1
290
     1
  0
SORTENTSTABLE
  5
B1BA
102
{ACAD_REACTORS
330
8A
102
}
330
8A
100
AcDbSortentsTable
330
1F
331
4E320
  5
4E8A8
331
4E446
  5
4E8DB
331
4E2C0
  5
4E306
331
4E273
  5
4E2B6
331
4E1CE
  5
4E20E
331
4E303
  5
4E349
331
4E25E
  5
4E29F
331
4E211
  5
4E251
331
4E286
  5
4E2C8
331
4E241
  5
4E283
331
4E104
  5
4E1F1
331
4E316
  5
4E5D0
331
4E477
  5
4E8DC
331
4E2D1
  5
4E313
331
4E3AA
  5
4E8D8
331
4E224
  5
4E265
331
4E1DF
  5
4E21F
331
5AC70
  5
5AC70
331
5184C
  5
B8D7
331
4E2F9
  5
4E33A
331
4E2B4
  5
4E2FA
331
4E207
  5
4E246
331
4E1C2
  5
4E203
331
4E344
  5
4E8C3
331
4E297
  5
4E2DE
331
4E252
  5
4E292
331
4E327
  5
4E8AC
331
4E27A
  5
4E2BB
331
4E235
  5
4E275
331
4E1D5
  5
4E215
331
31B3E
  5
3273F
331
4E30A
  5
4E352
331
4E265
  5
4E2A5
331
5A9D2
  5
5A9D2
331
51840
  5
B5AE
331
4E33A
  5
4E8BF
331
4E2ED
  5
4E32D
331
4E2A8
  5
4E2F0
331
4E248
  5
4E288
331
4E1FB
  5
4E23C
331
4E31D
  5
4E7BB
331
4E2D8
  5
4E31A
331
4E28B
  5
4E2D2
331
4E22B
  5
4E26C
331
4E109
  5
4E1F7
331
4E2BB
  5
4E301
331
4E26E
  5
4E2B0
331
4E20E
  5
4E24E
331
4E1C9
  5
4E209
331
31B32
  5
3273A
331
4E29E
  5
4E2E4
331
4E259
  5
4E29A
331
4E32E
  5
4E8B3
331
4E49F
  5
4E8DD
331
4E2E1
  5
4E323
331
4E281
  5
4E2C2
331
4E23C
  5
4E27E
331
4E0FF
  5
4E1E8
331
32D1D
  5
32D3A
331
4E311
  5
4E49F
331
4E2CC
  5
4E30F
331
4E21F
  5
4E25F
331
4E1DA
  5
4E21A
331
5A9D9
  5
5A9D9
331
4E2F4
  5
4E334
331
4E2AF
  5
4E2F6
331
4E24F
  5
4E28F
331
4E202
  5
4E240
331
5AAC9
  5
5AAAF
331
4E2DF
  5
4E321
331
4E3C0
  5
4E8D9
331
4E292
  5
4E2D9
331
4E1ED
  5
4E22D
331
34536
  5
3454E
331
4E2C2
  5
4E308
331
4E275
  5
4E2B8
331
4E230
  5
4E271
331
4E1D0
  5
4E210
331
4E0F3
  5
4E1DE
331
4E305
  5
4E34D
331
4E2A5
  5
4E2ED
331
4E213
  5
4E253
331
4E16B
  5
4E1FC
331
593B8
  5
4E2D1
331
4E335
  5
4E8B9
331
4E2E8
  5
4E329
331
4E243
  5
4E284
331
4E1F6
  5
4E237
331
4E106
  5
4E1F3
331
4E77E
  5
4E8E5
331
4E318
  5
4E746
331
4E2D3
  5
4E315
331
4E226
  5
4E267
331
4E1E1
  5
4E221
331
4E2FB
  5
4E33C
331
4E2B6
  5
4E2FC
331
4E269
  5
4E2A9
331
4E346
  5
4E8C4
331
4E254
  5
4E294
331
4E147
  5
4E1FA
331
4E329
  5
4E8AE
331
4E27C
  5
4E2BD
331
4E237
  5
4E278
331
4E1D7
  5
4E217
331
5519F
  5
55241
331
4E30C
  5
4E354
331
4E267
  5
4E2A7
331
4E21A
  5
4E25A
331
5A9D4
  5
5A9D4
331
51842
  5
B5E3
331
4E33C
  5
4E8C1
331
4E2EF
  5
4E32F
331
4E2AA
  5
4E2F3
331
4E24A
  5
4E28A
331
4E31F
  5
4E8A7
331
4E2DA
  5
4E31C
331
4E28D
  5
4E2D4
331
4E22D
  5
4E26E
331
4E1E8
  5
4E228
331
5AA9F
  5
5AA9F
331
4E53B
  5
4E8E0
331
4E2BD
  5
4E303
331
4E300
  5
4E346
331
4E25B
  5
4E29C
331
4E2E3
  5
4E325
331
4E283
  5
4E2C4
331
4E23E
  5
4E280
331
4E1F1
  5
4E233
331
4E101
  5
4E1EE
331
32D1F
  5
32D3C
331
5AAB0
  5
5AAB4
331
4E313
  5
4E525
331
4E2CE
  5
4E311
331
4E221
  5
4E262
331
4E1DC
  5
4E21C
331
4E2F6
  5
4E337
331
4E2B1
  5
4E2F8
331
4E204
  5
4E243
331
4E1BF
  5
4E1FE
331
4E294
  5
4E2DB
331
4E1EF
  5
4E230
331
34538
  5
34550
331
5AAA6
  5
5AAA7
331
4E324
  5
4E8A9
331
4E277
  5
4E2B9
331
4E1D2
  5
4E212
331
4E0F5
  5
4E1E0
331
31B3B
  5
3273C
331
4E307
  5
4E34F
331
4E2A7
  5
4E2EF
331
4E262
  5
4E2A2
331
4E215
  5
4E255
331
4E2EA
  5
4E32B
331
4E245
  5
4E286
331
4E1F8
  5
4E239
331
5AAB7
  5
5AABF
331
4E31A
  5
4E77E
331
4E2D5
  5
4E317
331
4E288
  5
4E2CC
331
4E26B
  5
4E2AB
331
4E20B
  5
4E24B
331
4E1C6
  5
4E207
331
4E0E9
  5
4E1D4
331
4E29B
  5
4E2E1
331
4E256
  5
4E296
331
4E27E
  5
4E2BF
331
4E239
  5
4E27B
331
4E0FC
  5
4E1E4
331
4E30E
  5
4E356
331
4E2C9
  5
4E30E
331
4E21C
  5
4E25C
331
5A9D6
  5
5A9D6
331
4E24C
  5
4E28C
331
4E28F
  5
4E2D6
331
4E22F
  5
4E270
331
4E1EA
  5
4E22B
331
4E2BF
  5
4E305
331
4E272
  5
4E2B5
331
4E302
  5
4E348
331
4E2A2
  5
4E2E9
331
4E25D
  5
4E29E
331
4E210
  5
4E250
331
4E332
  5
4E8B6
331
4E2E5
  5
4E327
331
4E285
  5
4E2C6
331
4E240
  5
4E282
331
4E1F3
  5
4E235
331
4E103
  5
4E1F0
331
32D21
  5
32D3E
331
4E2D0
  5
4E312
331
4E1DE
  5
4E21E
331
5184B
  5
B8D6
331
4E2F8
  5
4E339
331
4E206
  5
4E245
331
59680
  5
59770
331
4E343
  5
4E8C2
331
4E296
  5
4E2DD
331
4E251
  5
4E291
331
4E326
  5
4E8AB
331
4E2C6
  5
4E30C
331
4E234
  5
4E274
331
4E1D4
  5
4E214
331
31B3D
  5
3273E
331
4E309
  5
4E351
331
4E217
  5
4E257
331
5183F
  5
B5AD
331
4E2EC
  5
4E32C
331
4E1FA
  5
4E23B
331
4E31C
  5
4E7BA
331
4E2D7
  5
4E319
331
4E28A
  5
4E2D0
331
4E22A
  5
4E26B
331
4E1E5
  5
4E225
331
4E108
  5
4E1F6
331
4E6C5
  5
4E8E4
331
4E2FF
  5
4E344
331
4E2BA
  5
4E300
331
4E26D
  5
4E2AF
331
4E20D
  5
4E24D
331
4E1C8
  5
4E208
331
4E0EB
  5
4E1D6
331
31B31
  5
32739
331
4E29D
  5
4E2E3
331
4E258
  5
4E298
331
4E32D
  5
4E8B2
331
4E2E0
  5
4E322
331
4E280
  5
4E2C1
331
4E23B
  5
4E27D
331
4E0FE
  5
4E1E7
331
5AAAD
  5
5AAAE
331
4E310
  5
4E3C0
331
4E21E
  5
4E25E
331
4E1D9
  5
4E219
331
5A9D8
  5
5A9D8
331
4E2F3
  5
4E333
331
4E24E
  5
4E28E
331
5AAC8
  5
5AAB6
331
4E2DE
  5
4E320
331
4E291
  5
4E2D8
331
34535
  5
3454D
331
4E2C1
  5
4E307
331
4E274
  5
4E2B7
331
4E587
  5
4E8E3
331
4E304
  5
4E34C
331
4E2A4
  5
4E2EC
331
4E25F
  5
4E2A0
331
4E212
  5
4E252
331
4E287
  5
4E2C9
331
4E105
  5
4E1F2
331
4E317
  5
4E6C5
331
4E2D2
  5
4E314
331
4E225
  5
4E266
331
4E1E0
  5
4E220
331
5AC71
  5
5AC71
331
5184D
  5
B8D8
331
4E2FA
  5
4E33B
331
4E2B5
  5
4E2FB
331
4E208
  5
4E248
331
4E1C3
  5
4E204
331
4E298
  5
4E2DF
331
4E253
  5
4E293
331
4E146
  5
4E1F9
331
4E328
  5
4E8AD
331
4E27B
  5
4E2BC
331
4E236
  5
4E277
331
4E1D6
  5
4E216
331
4E30B
  5
4E353
331
4E266
  5
4E2A6
331
4E219
  5
4E259
331
5A9D3
  5
5A9D3
331
51841
  5
B5E2
331
4E33B
  5
4E8C0
331
4E2EE
  5
4E32E
331
4E2A9
  5
4E2F2
331
4E249
  5
4E289
331
4E1FC
  5
4E23D
331
5962E
  5
5976F
331
4E31E
  5
4E86E
331
4E22C
  5
4E26D
331
4E10A
  5
4E1F8
331
5AA9E
  5
5AA9E
331
4E2BC
  5
4E302
331
4E26F
  5
4E2B1
331
4E20F
  5
4E24F
331
31B33
  5
3273B
331
4E4B5
  5
4E8DE
331
4E29F
  5
4E2E5
331
4E25A
  5
4E29B
331
4E32F
  5
4E8B4
331
4E282
  5
4E2C3
331
4E23D
  5
4E27F
331
4E1F0
  5
4E231
331
4E100
  5
4E1E9
331
32D1E
  5
32D3B
331
4E312
  5
4E4B5
331
4E2CD
  5
4E310
331
4E220
  5
4E261
331
4E1DB
  5
4E21B
331
4E2B0
  5
4E2F7
331
4E203
  5
4E241
331
5AACA
  5
5AAB0
331
4E7BB
  5
4E8E6
331
4E293
  5
4E2DA
331
4E1EE
  5
4E22E
331
4E2C3
  5
4E309
331
4E231
  5
4E272
331
4E0F4
  5
4E1DF
331
4E306
  5
4E34E
331
4E214
  5
4E254
331
4E2E9
  5
4E32A
331
4E1F7
  5
4E238
331
4E107
  5
4E1F4
331
5AAB6
  5
5AABD
331
4E319
  5
4E762
331
4E2D4
  5
4E316
331
4E1E2
  5
4E222
331
4E2FC
  5
4E33E
331
4E2B7
  5
4E2FD
331
4E26A
  5
4E2AA
331
4E20A
  5
4E24A
331
4E1C5
  5
4E206
331
4E0E8
  5
4E1D3
331
4E29A
  5
4E2E0
331
4E255
  5
4E295
331
4E27D
  5
4E2BE
331
4E238
  5
4E27A
331
4E0FB
  5
4E1E3
331
4E30D
  5
4E355
331
4E2C8
  5
4E30D
331
4E21B
  5
4E25B
331
5A9D5
  5
5A9D5
331
4E2F0
  5
4E330
331
4E2AB
  5
4E2F4
331
4E24B
  5
4E28B
331
4E1FE
  5
4E23E
331
5AAC5
  5
5AAB5
331
551E3
  5
5526C
331
4E571
  5
4E8E2
331
4E2DB
  5
4E31D
331
4E28E
  5
4E2D5
331
4E22E
  5
4E26F
331
4E1E9
  5
4E22A
331
4E2BE
  5
4E304
331
4E271
  5
4E2B4
331
4E1CC
  5
4E20C
331
4E356
  5
4E8D2
331
4E301
  5
4E347
331
4E2A1
  5
4E2E8
331
4E25C
  5
4E29D
331
4E167
  5
4E1FB
331
4E2E4
  5
4E326
331
4E284
  5
4E2C5
331
4E1F2
  5
4E234
331
4E102
  5
4E1EF
331
4E314
  5
4E53B
331
4E222
  5
4E263
331
4E1DD
  5
4E21D
331
5184A
  5
B8D5
331
4E2F7
  5
4E338
331
4E2B2
  5
4E2F9
331
4E205
  5
4E244
331
4E1C0
  5
4E200
331
4E295
  5
4E2DC
331
4E250
  5
4E290
331
4E325
  5
4E8AA
331
4E2C5
  5
4E30B
331
4E278
  5
4E2BA
331
4E233
  5
4E273
331
4E1D3
  5
4E213
331
4E0F6
  5
4E1E1
331
31B3C
  5
3273D
331
4E308
  5
4E350
331
4E216
  5
4E256
331
4E338
  5
4E8BB
331
4E40C
  5
4E8DA
331
4E246
  5
4E287
331
4E1F9
  5
4E23A
331
4E31B
  5
4E7B9
331
4E289
  5
4E2CE
331
4E1E4
  5
4E224
331
4E2FE
  5
4E343
331
4E2B9
  5
4E2FF
331
4E26C
  5
4E2AC
331
4E20C
  5
4E24C
331
4E0EA
  5
4E1D5
331
31B30
  5
32738
331
4E257
  5
4E297
331
4E552
  5
4E8E1
331
4E32C
  5
4E8B1
331
4E27F
  5
4E2C0
331
4E23A
  5
4E27C
331
4E0FD
  5
4E1E6
331
4E525
  5
4E8DF
331
4E30F
  5
4E3AA
331
4E21D
  5
4E25D
331
4E1D8
  5
4E218
331
5A9D7
  5
5A9D7
331
4E2F2
  5
4E332
331
4E24D
  5
4E28D
331
4E200
  5
4E23F
331
5AAC7
  5
5AABE
331
4E2DD
  5
4E31F
331
4E290
  5
4E2D7
331
4E1EB
  5
4E22C
331
34534
  5
3454C
  0
XRECORD
  5
5B2AB
102
{ACAD_REACTORS
330
5B2AA
102
}
330
5B2AA
100
AcDbXrecord
280
     1
 70
     1
  0
LAYOUT
  5
22
102
{ACAD_XDICTIONARY
360
5B2AE
102
}
102
{ACAD_REACTORS
330
1A
102
}
330
1A
100
AcDbPlotSettings
  1

  2
FX DocuWide 2050/2051
  4
A3
  6
AM_VIEW1
 40
3.174999952316284
 41
3.174999952316284
 42
3.17498779296875
 43
3.17498779296875
 44
296.989501953125
 45
419.9889831542968
 46
0.0
 47
1.295841228961961
 48
214.3704939521119
 49
367.5855324241176
140
275.6727856380065
141
407.629191407817
142
1.0
143
0.7225445603030646
 70
  3764
 72
     1
 73
     1
 74
     2
  7
monochrome.ctb
 75
     0
147
1.383997686703999
148
-1700.85588156276
149
-1647.985052086429
100
AcDbLayout
  1
Model
 70
     1
 71
     0
 10
0.0
 20
0.0
 11
12.0
 21
9.0
 12
0.0
 22
0.0
 32
0.0
 14
0.0
 24
0.0
 34
0.0
 15
0.0
 25
0.0
 35
0.0
146
0.0
 13
0.0
 23
0.0
 33
0.0
 16
1.0
 26
0.0
 36
0.0
 17
0.0
 27
1.0
 37
0.0
 76
     0
330
1F
331
B0EC
1001
ACAD_PSEXT
1000
FX DocuWide 2050/2051
1000
FX DocuWide 2050/2051
1000
IP_192.200.15.252
1000

1070
     0
  0
LAYOUT
  5
1E
102
{ACAD_XDICTIONARY
360
5B2AC
102
}
102
{ACAD_REACTORS
330
1A
102
}
330
1A
100
AcDbPlotSettings
  1

  2
\\ML370\XEROX
  4
A4
  6

 40
3.174999952316284
 41
3.174999952316284
 42
3.175003051757812
 43
3.17498779296875
 44
209.8674926757813
 45
296.6719970703125
 46
0.0
 47
0.0
 48
0.0
 49
0.0
140
0.0
141
0.0
142
1.0
143
1.0
 70
   688
 72
     1
 73
     1
 74
     5
  7
monochrome.ctb
 75
    16
147
1.0
148
0.0
149
0.0
100
AcDbLayout
  1
ﾚｲｱｳﾄ1
 70
     1
 71
     1
 10
-3.17498779296875
 20
-3.174999952316284
 11
293.4970092773438
 21
206.692492723465
 12
0.0
 22
0.0
 32
0.0
 14
1.000000000000000E+20
 24
1.000000000000000E+20
 34
1.000000000000000E+20
 15
-1.000000000000000E+20
 25
-1.000000000000000E+20
 35
-1.000000000000000E+20
146
0.0
 13
0.0
 23
0.0
 33
0.0
 16
1.0
 26
0.0
 36
0.0
 17
0.0
 27
1.0
 37
0.0
 76
     0
330
1B
  0
LAYOUT
  5
26
102
{ACAD_XDICTIONARY
360
5B2B0
102
}
102
{ACAD_REACTORS
330
1A
102
}
330
1A
100
AcDbPlotSettings
  1

  2
\\ML370\XEROX
  4

  6

 40
0.0
 41
0.0
 42
0.0
 43
0.0
 44
0.0
 45
0.0
 46
0.0
 47
0.0
 48
0.0
 49
0.0
140
0.0
141
0.0
142
1.0
143
1.0
 70
   688
 72
     0
 73
     0
 74
     5
  7
monochrome.ctb
 75
    16
147
1.0
148
0.0
149
0.0
100
AcDbLayout
  1
ﾚｲｱｳﾄ2
 70
     1
 71
     2
 10
0.0
 20
0.0
 11
12.0
 21
9.0
 12
0.0
 22
0.0
 32
0.0
 14
0.0
 24
0.0
 34
0.0
 15
0.0
 25
0.0
 35
0.0
146
0.0
 13
0.0
 23
0.0
 33
0.0
 16
1.0
 26
0.0
 36
0.0
 17
0.0
 27
1.0
 37
0.0
 76
     0
330
23
  0
MATERIAL
  5
B0EF
102
{ACAD_XDICTIONARY
360
5B2B6
102
}
102
{ACAD_REACTORS
330
A91C
102
}
330
A91C
100
AcDbMaterial
  1
ByBlock
  0
MATERIAL
  5
B0EE
102
{ACAD_XDICTIONARY
360
5B2B4
102
}
102
{ACAD_REACTORS
330
A91C
102
}
330
A91C
100
AcDbMaterial
  1
ByLayer
  0
MATERIAL
  5
B0F0
102
{ACAD_XDICTIONARY
360
5B2B8
102
}
102
{ACAD_REACTORS
330
A91C
102
}
330
A91C
100
AcDbMaterial
  1
Global
  0
MLINESTYLE
  5
18
102
{ACAD_REACTORS
330
17
102
}
330
17
100
AcDbMlineStyle
  2
STANDARD
 70
     0
  3

 62
   256
 51
90.0
 52
90.0
 71
     2
 49
0.5
 62
   256
  6
BYLAYER
 49
-0.5
 62
   256
  6
BYLAYER
  0
ACDBPLACEHOLDER
  5
F
102
{ACAD_REACTORS
330
E
102
}
330
E
  0
TABLESTYLE
  5
AABA
102
{ACAD_XDICTIONARY
360
5B2B2
102
}
102
{ACAD_REACTORS
330
AAB9
102
}
330
AAB9
100
AcDbTableStyle
  3
Standard
 70
     0
 71
     0
 40
1.5
 41
1.5
280
     0
281
     0
  7
STANDARD
140
4.5
170
     2
 62
     0
 63
     7
283
     0
274
    -2
284
     1
 64
     0
275
    -2
285
     1
 65
     0
276
    -2
286
     1
 66
     0
277
    -2
287
     1
 67
     0
278
    -2
288
     1
 68
     0
279
    -2
289
     1
 69
     0
  7
STANDARD
140
6.0
170
     5
 62
     0
 63
     7
283
     0
274
    -2
284
     1
 64
     0
275
    -2
285
     1
 65
     0
276
    -2
286
     1
 66
     0
277
    -2
287
     1
 67
     0
278
    -2
288
     1
 68
     0
279
    -2
289
     1
 69
     0
  7
STANDARD
140
4.5
170
     5
 62
     0
 63
     7
283
     0
274
    -2
284
     1
 64
     0
275
    -2
285
     1
 65
     0
276
    -2
286
     1
 66
     0
277
    -2
287
     1
 67
     0
278
    -2
288
     1
 68
     0
279
    -2
289
     1
 69
     0
  0
VISUALSTYLE
  5
B0F7
102
{ACAD_REACTORS
330
B0F1
102
}
330
B0F1
100
AcDbVisualStyle
  2
2dWireframe
 70
     4
 71
     0
 72
     2
 73
     0
 90
        0
 40
-0.6
 41
-30.0
 62
     5
 63
     7
 74
     1
 91
        4
 64
     7
 65
   257
 75
     1
175
     1
 42
1.0
 92
        0
 66
   257
 43
1.0
 76
     1
 77
     6
 78
     2
 67
     7
 79
     5
170
     0
171
     0
290
     0
174
     0
 93
        1
 44
0.0
173
     0
291
     0
 45
0.0
1001
ACAD
1000
AcDbSavedByObjectVersion
1070
     0
  0
VISUALSTYLE
  5
B0F9
102
{ACAD_REACTORS
330
B0F1
102
}
330
B0F1
100
AcDbVisualStyle
  2
3D Hidden
 70
     6
 71
     1
 72
     2
 73
     2
 90
        0
 40
-0.6
 41
-30.0
 62
     5
 63
     7
 74
     2
 91
        2
 64
     7
 65
   257
 75
     2
175
     1
 42
40.0
 92
        0
 66
   257
 43
1.0
 76
     1
 77
     6
 78
     2
 67
     7
 79
     3
170
     0
171
     0
290
     0
174
     0
 93
        1
 44
0.0
173
     0
291
     0
 45
0.0
1001
ACAD
1000
AcDbSavedByObjectVersion
1070
     0
  0
VISUALSTYLE
  5
B0F8
102
{ACAD_REACTORS
330
B0F1
102
}
330
B0F1
100
AcDbVisualStyle
  2
3dWireframe
 70
     5
 71
     0
 72
     2
 73
     0
 90
        0
 40
-0.6
 41
-30.0
 62
     5
 63
     7
 74
     1
 91
        4
 64
     7
 65
   257
 75
     1
175
     1
 42
1.0
 92
        0
 66
   257
 43
1.0
 76
     1
 77
     6
 78
     2
 67
     7
 79
     5
170
     0
171
     0
290
     0
174
     0
 93
        1
 44
0.0
173
     0
291
     0
 45
0.0
1001
ACAD
1000
AcDbSavedByObjectVersion
1070
     0
  0
VISUALSTYLE
  5
B0F6
102
{ACAD_REACTORS
330
B0F1
102
}
330
B0F1
100
AcDbVisualStyle
  2
Basic
 70
     7
 71
     1
 72
     0
 73
     1
 90
        0
 40
-0.6
 41
-30.0
 62
     5
 63
     7
 74
     0
 91
        4
 64
     7
 65
   257
 75
     1
175
     1
 42
1.0
 92
        8
 66
     7
 43
1.0
 76
     1
 77
     6
 78
     2
 67
     7
 79
     5
170
     0
171
     0
290
     0
174
     0
 93
        1
 44
0.0
173
     0
291
     1
 45
0.0
1001
ACAD
1000
AcDbSavedByObjectVersion
1070
     0
  0
VISUALSTYLE
  5
B0FD
102
{ACAD_REACTORS
330
B0F1
102
}
330
B0F1
100
AcDbVisualStyle
  2
Brighten
 70
    12
 71
     2
 72
     2
 73
     0
 90
        0
 40
-0.6
 41
-30.0
 62
     5
 63
     7
 74
     1
 91
        4
 64
     7
 65
   257
 75
     1
175
     1
 42
1.0
 92
        8
 66
     7
 43
1.0
 76
     1
 77
     6
 78
     2
 67
     7
 79
     5
170
     0
171
     0
290
     0
174
     0
 93
        1
 44
50.0
173
     0
291
     1
 45
0.0
1001
ACAD
1000
AcDbSavedByObjectVersion
1070
     0
  0
VISUALSTYLE
  5
B101
102
{ACAD_REACTORS
330
B0F1
102
}
330
B0F1
100
AcDbVisualStyle
  2
ColorChange
 70
    16
 71
     2
 72
     2
 73
     3
 90
        0
 40
-0.6
 41
-30.0
 62
     5
 63
     8
 74
     1
 91
        4
 64
     7
 65
   257
 75
     1
175
     1
 42
1.0
 92
        8
 66
     8
 43
1.0
 76
     1
 77
     6
 78
     2
 67
     7
 79
     5
170
     0
171
     0
290
     0
174
     0
 93
        1
 44
0.0
173
     0
291
     1
 45
0.0
1001
ACAD
1000
AcDbSavedByObjectVersion
1070
     0
  0
VISUALSTYLE
  5
B0FA
102
{ACAD_REACTORS
330
B0F1
102
}
330
B0F1
100
AcDbVisualStyle
  2
Conceptual
 70
     9
 71
     3
 72
     2
 73
     0
 90
        0
 40
-0.6
 41
-30.0
 62
     5
 63
     7
 74
     2
 91
        2
 64
     7
 65
   257
 75
     1
175
     1
 42
40.0
 92
        8
 66
     7
 43
1.0
 76
     1
 77
     6
 78
     2
 67
     7
 79
     3
170
     0
171
     0
290
     0
174
     0
 93
        1
 44
0.0
173
     0
291
     0
 45
0.0
1001
ACAD
1000
AcDbSavedByObjectVersion
1070
     0
  0
VISUALSTYLE
  5
B0FC
102
{ACAD_REACTORS
330
B0F1
102
}
330
B0F1
100
AcDbVisualStyle
  2
Dim
 70
    11
 71
     2
 72
     2
 73
     0
 90
        0
 40
-0.6
 41
-30.0
 62
     5
 63
     7
 74
     1
 91
        4
 64
     7
 65
   257
 75
     1
175
     1
 42
1.0
 92
        8
 66
     7
 43
1.0
 76
     1
 77
     6
 78
     2
 67
     7
 79
     5
170
     0
171
     0
290
     0
174
     0
 93
        1
 44
-50.0
173
     0
291
     1
 45
0.0
1001
ACAD
1000
AcDbSavedByObjectVersion
1070
     0
  0
VISUALSTYLE
  5
B100
102
{ACAD_REACTORS
330
B0F1
102
}
330
B0F1
100
AcDbVisualStyle
  2
Facepattern
 70
    15
 71
     2
 72
     2
 73
     0
 90
        0
 40
-0.6
 41
-30.0
 62
     5
 63
     7
 74
     1
 91
        4
 64
     7
 65
   257
 75
     1
175
     1
 42
1.0
 92
        8
 66
     7
 43
1.0
 76
     1
 77
     6
 78
     2
 67
     7
 79
     5
170
     0
171
     0
290
     0
174
     0
 93
        1
 44
0.0
173
     0
291
     1
 45
0.0
1001
ACAD
1000
AcDbSavedByObjectVersion
1070
     0
  0
VISUALSTYLE
  5
B0F2
102
{ACAD_REACTORS
330
B0F1
102
}
330
B0F1
100
AcDbVisualStyle
  2
Flat
 70
     0
 71
     2
 72
     1
 73
     1
 90
        2
 40
-0.6
 41
30.0
 62
     5
 63
     7
 74
     0
 91
        4
 64
     7
 65
   257
 75
     1
175
     1
 42
1.0
 92
        8
 66
     7
 43
1.0
 76
     1
 77
     6
 78
     2
 67
     7
 79
     5
170
     0
171
     0
290
     0
174
     0
 93
       13
 44
0.0
173
     0
291
     1
 45
0.0
1001
ACAD
1000
AcDbSavedByObjectVersion
1070
     0
  0
VISUALSTYLE
  5
B0F3
102
{ACAD_REACTORS
330
B0F1
102
}
330
B0F1
100
AcDbVisualStyle
  2
FlatWithEdges
 70
     1
 71
     2
 72
     1
 73
     1
 90
        2
 40
-0.6
 41
30.0
 62
     5
 63
     7
 74
     1
 91
        4
 64
     7
 65
   257
 75
     1
175
     1
 42
1.0
 92
        0
 66
   257
 43
1.0
 76
     1
 77
     6
 78
     2
 67
     7
 79
     5
170
     0
171
     0
290
     0
174
     0
 93
       13
 44
0.0
173
     0
291
     1
 45
0.0
1001
ACAD
1000
AcDbSavedByObjectVersion
1070
     0
  0
VISUALSTYLE
  5
B0F4
102
{ACAD_REACTORS
330
B0F1
102
}
330
B0F1
100
AcDbVisualStyle
  2
Gouraud
 70
     2
 71
     2
 72
     2
 73
     1
 90
        2
 40
-0.6
 41
30.0
 62
     5
 63
     7
 74
     0
 91
        4
 64
     7
 65
   257
 75
     1
175
     1
 42
1.0
 92
        0
 66
     7
 43
1.0
 76
     1
 77
     6
 78
     2
 67
     7
 79
     5
170
     0
171
     0
290
     0
174
     0
 93
       13
 44
0.0
173
     0
291
     1
 45
0.0
1001
ACAD
1000
AcDbSavedByObjectVersion
1070
     0
  0
VISUALSTYLE
  5
B0F5
102
{ACAD_REACTORS
330
B0F1
102
}
330
B0F1
100
AcDbVisualStyle
  2
GouraudWithEdges
 70
     3
 71
     2
 72
     2
 73
     1
 90
        2
 40
-0.6
 41
30.0
 62
     5
 63
     7
 74
     1
 91
        4
 64
     7
 65
   257
 75
     1
175
     1
 42
1.0
 92
        0
 66
   257
 43
1.0
 76
     1
 77
     6
 78
     2
 67
     7
 79
     5
170
     0
171
     0
290
     0
174
     0
 93
       13
 44
0.0
173
     0
291
     1
 45
0.0
1001
ACAD
1000
AcDbSavedByObjectVersion
1070
     0
  0
VISUALSTYLE
  5
B0FF
102
{ACAD_REACTORS
330
B0F1
102
}
330
B0F1
100
AcDbVisualStyle
  2
Linepattern
 70
    14
 71
     2
 72
     2
 73
     0
 90
        0
 40
-0.6
 41
-30.0
 62
     5
 63
     7
 74
     1
 91
        4
 64
     7
 65
   257
 75
     7
175
     7
 42
1.0
 92
        8
 66
     7
 43
1.0
 76
     1
 77
     6
 78
     2
 67
     7
 79
     5
170
     0
171
     0
290
     0
174
     0
 93
        1
 44
0.0
173
     0
291
     1
 45
0.0
1001
ACAD
1000
AcDbSavedByObjectVersion
1070
     0
  0
VISUALSTYLE
  5
B0FB
102
{ACAD_REACTORS
330
B0F1
102
}
330
B0F1
100
AcDbVisualStyle
  2
Realistic
 70
     8
 71
     2
 72
     2
 73
     0
 90
        0
 40
-0.6
 41
-30.0
 62
     5
 63
     7
 74
     1
 91
        0
 64
     7
 65
   257
 75
     1
175
     1
 42
1.0
 92
        8
 66
     8
 43
1.0
 76
     1
 77
     6
 78
     2
 67
     7
 79
     5
170
     0
171
     0
290
     0
174
     0
 93
       13
 44
0.0
173
     0
291
     0
 45
0.0
1001
ACAD
1000
AcDbSavedByObjectVersion
1070
     0
  0
VISUALSTYLE
  5
B0FE
102
{ACAD_REACTORS
330
B0F1
102
}
330
B0F1
100
AcDbVisualStyle
  2
Thicken
 70
    13
 71
     2
 72
     2
 73
     0
 90
        0
 40
-0.6
 41
-30.0
 62
     5
 63
     7
 74
     1
 91
        4
 64
     7
 65
   257
 75
     1
175
     1
 42
1.0
 92
       12
 66
     7
 43
1.0
 76
     1
 77
     6
 78
     2
 67
     7
 79
     5
170
     0
171
     0
290
     0
174
     0
 93
        1
 44
0.0
173
     0
291
     1
 45
0.0
1001
ACAD
1000
AcDbSavedByObjectVersion
1070
     0
  0
DICTIONARYVAR
  5
AAF3
102
{ACAD_REACTORS
330
34
102
}
330
34
100
DictionaryVariables
280
     0
  1
STANDARD
  0
DICTIONARYVAR
  5
A10C
102
{ACAD_REACTORS
330
34
102
}
330
34
100
DictionaryVariables
280
     0
  1
1
  0
DICTIONARYVAR
  5
AB07
102
{ACAD_REACTORS
330
34
102
}
330
34
100
DictionaryVariables
280
     0
  1
4
  0
DICTIONARYVAR
  5
35
102
{ACAD_REACTORS
330
34
102
}
330
34
100
DictionaryVariables
280
     0
  1
0
  0
DICTIONARYVAR
  5
194C
102
{ACAD_REACTORS
330
34
102
}
330
34
100
DictionaryVariables
280
     0
  1
127
  0
DICTIONARY
  5
7E8
102
{ACAD_REACTORS
330
47
102
}
330
47
100
AcDbDictionary
281
     1
  0
DICTIONARY
  5
4C
102
{ACAD_REACTORS
330
47
102
}
330
47
100
AcDbDictionary
281
     1
  0
XRECORD
  5
A929
102
{ACAD_REACTORS
330
47
102
}
330
47
100
AcDbXrecord
280
     1
 90
-1023410169
  0
XRECORD
  5
57913
102
{ACAD_REACTORS
330
57912
102
}
330
57912
100
AcDbXrecord
280
     1
330
0
330
0
330
0
330
0
330
0
330
0
330
0
330
0
330
0
330
0
330
0
330
0
330
0
330
0
330
0
330
0
330
0
330
0
330
0
330
0
330
0
330
0
330
0
330
0
330
0
330
0
330
0
330
0
330
0
330
0
330
0
330
0
330
0
330
0
330
0
330
0
330
0
330
0
330
0
330
0
330
0
330
0
330
0
330
0
330
0
330
0
330
0
330
0
330
0
330
0
330
0
330
0
330
0
330
0
330
0
330
0
330
0
330
0
330
0
330
0
330
0
330
0
330
0
330
0
330
0
330
0
330
0
330
0
330
0
330
0
330
0
330
0
330
0
330
0
330
0
330
0
330
0
330
0
330
0
330
0
330
0
330
0
330
0
330
0
330
0
330
0
330
0
330
0
330
0
330
0
330
0
330
0
330
0
330
0
330
0
330
0
330
0
330
0
330
0
330
0
330
0
330
0
330
0
330
0
330
0
330
0
330
0
330
0
330
0
330
0
330
0
330
0
330
0
330
0
330
0
330
0
330
0
330
0
330
0
330
0
330
0
330
0
330
0
330
0
330
0
330
0
330
0
330
0
330
0
330
0
330
0
330
0
330
0
330
0
330
0
330
0
330
0
330
0
330
0
330
0
330
0
330
0
330
0
330
0
330
0
330
0
330
0
330
0
330
0
330
0
330
0
330
0
330
0
330
0
330
0
330
0
330
0
330
0
330
0
330
0
330
0
330
0
330
0
330
0
330
0
330
0
330
0
330
0
330
0
330
0
330
0
330
0
330
0
330
0
330
0
330
0
330
0
330
0
330
0
330
0
330
0
330
0
330
0
330
0
330
0
330
0
330
0
330
0
330
0
330
0
330
0
330
0
330
0
330
0
330
0
330
0
330
0
330
0
330
0
330
0
330
0
330
0
330
0
330
0
330
0
330
0
330
0
330
0
330
0
330
0
330
0
330
0
330
0
330
0
330
0
330
0
330
0
330
0
330
0
330
0
330
0
330
0
330
0
330
0
330
0
330
0
330
0
330
0
330
0
330
0
330
0
330
0
330
0
330
0
330
0
330
0
330
0
330
0
330
0
330
0
330
0
330
0
330
0
330
0
330
0
330
0
330
0
330
0
330
0
330
0
330
0
330
0
330
0
330
0
330
0
330
0
330
0
330
0
330
0
330
0
330
0
330
0
330
0
330
0
330
0
330
0
330
0
330
0
330
0
330
0
330
0
330
0
330
0
330
0
330
0
330
0
330
0
330
0
330
0
330
0
330
0
330
0
330
0
330
0
330
0
330
0
330
0
330
0
330
0
330
0
330
0
330
0
330
0
330
0
330
0
330
0
330
0
330
0
330
0
330
0
330
0
330
0
330
0
330
0
330
0
330
0
330
0
330
0
330
0
330
0
330
0
330
0
330
0
330
0
330
0
330
0
330
0
330
0
330
0
330
0
330
0
330
0
330
0
330
0
330
0
330
0
330
0
330
0
330
0
330
0
330
0
330
0
330
0
330
0
330
0
330
0
330
0
330
0
330
0
330
0
330
0
330
0
330
0
330
0
330
0
330
0
330
0
330
0
330
0
330
0
330
0
330
0
330
0
330
0
330
0
330
0
330
0
330
0
330
0
330
0
330
0
330
0
330
0
330
0
330
0
330
0
330
0
330
0
330
0
330
0
330
0
330
0
330
0
330
0
330
0
330
0
330
0
330
0
330
0
330
0
330
0
330
0
330
0
330
0
330
0
330
0
330
0
330
0
330
0
330
0
330
0
330
0
330
0
330
0
330
0
330
0
330
0
330
0
330
0
330
0
330
0
330
0
330
0
330
0
330
0
330
0
330
0
330
0
330
0
330
0
330
0
330
0
330
0
330
0
330
0
330
0
330
0
330
0
330
0
330
0
330
0
330
0
330
0
330
0
330
0
330
0
330
0
330
0
330
0
330
0
330
0
330
0
330
0
330
0
330
0
330
0
330
0
330
0
330
0
330
0
330
0
330
0
330
0
330
0
330
0
330
0
330
0
330
0
330
0
330
0
330
0
330
0
330
0
330
0
330
0
330
0
330
0
330
0
330
0
330
0
330
0
330
0
330
0
330
0
330
0
330
0
330
0
330
0
330
0
330
0
330
0
330
0
330
0
330
0
330
0
330
0
330
0
330
0
330
0
330
0
330
0
330
0
330
0
330
0
330
0
330
0
330
0
330
0
330
0
330
0
330
0
330
0
330
0
330
0
330
0
330
0
330
0
330
0
330
0
330
0
330
0
330
0
330
0
330
0
330
0
330
0
330
0
330
0
330
0
330
0
330
0
330
0
330
0
330
0
330
0
330
0
330
0
330
0
330
0
330
0
330
0
330
0
330
0
330
0
330
0
330
0
330
0
330
0
330
0
330
0
330
0
330
0
330
0
330
0
330
0
330
0
330
0
330
0
330
0
330
0
330
0
330
0
330
0
330
0
330
0
330
0
330
0
330
0
330
0
330
0
330
0
330
0
330
0
330
0
330
0
330
0
330
0
330
0
330
0
330
0
330
0
330
0
330
0
330
0
330
0
330
0
330
0
330
0
330
0
330
0
330
0
330
0
330
0
330
0
330
0
330
0
330
0
330
0
330
0
330
0
330
0
330
0
330
0
330
0
330
0
330
0
330
0
330
0
330
0
330
0
330
0
330
0
330
0
330
0
330
0
330
0
330
0
330
0
330
0
330
0
330
0
330
0
330
0
330
0
330
0
330
0
330
0
330
0
330
0
330
0
330
0
330
0
330
0
330
0
330
0
330
0
330
0
330
0
330
0
330
0
330
0
330
0
330
0
330
0
330
0
330
0
330
0
330
0
330
0
330
0
330
0
330
0
330
0
330
0
330
0
330
0
330
0
330
0
330
0
330
0
330
0
330
0
330
0
330
0
330
0
330
0
330
0
330
0
330
0
330
0
330
0
330
0
330
0
330
0
330
0
330
0
330
0
330
0
330
0
330
0
330
0
330
0
330
0
330
0
330
0
330
0
330
0
330
0
330
0
330
0
330
0
330
0
330
0
330
0
330
0
330
0
330
0
330
0
330
0
330
0
330
0
330
0
330
0
330
0
330
0
330
0
330
0
330
0
330
0
330
0
330
0
330
0
330
0
330
0
330
0
330
0
330
0
330
0
330
0
330
0
330
0
330
0
330
0
330
0
330
0
330
0
330
0
330
0
330
0
330
0
330
0
330
0
330
0
330
0
330
0
330
0
330
0
330
0
330
0
330
0
330
0
330
0
330
0
330
0
330
0
330
0
330
0
330
0
330
0
330
0
330
0
330
0
330
0
330
0
330
0
330
0
330
0
330
0
330
0
330
0
330
0
330
0
330
0
330
0
330
0
330
0
330
0
330
0
330
0
330
0
330
0
330
0
330
0
330
0
330
0
330
0
330
0
330
0
330
0
330
0
330
0
330
0
330
0
330
0
330
0
330
0
330
0
330
0
330
0
330
0
330
0
330
0
330
0
330
0
330
0
330
0
330
0
330
0
330
0
330
0
330
0
330
0
330
0
330
0
330
0
330
0
330
0
330
0
330
0
330
0
330
0
330
0
330
0
330
0
330
0
330
0
330
0
330
0
330
0
330
0
330
0
330
0
330
0
330
0
330
0
330
0
330
0
330
0
330
0
330
0
330
0
330
0
330
0
330
0
330
0
330
0
330
0
330
0
330
0
330
0
330
0
330
0
330
0
330
0
330
0
330
0
330
0
330
0
330
0
330
0
330
0
330
0
330
0
330
0
330
0
330
0
330
0
330
0
330
0
330
0
330
0
330
0
330
0
330
0
330
0
330
0
330
0
330
0
330
0
330
0
330
0
330
0
330
0
330
0
330
0
330
0
330
0
330
0
330
0
330
0
330
0
330
0
330
0
330
0
330
0
330
0
330
0
330
0
330
0
330
0
330
0
330
0
330
0
330
0
330
0
330
0
330
0
330
0
330
0
330
0
330
0
330
0
330
0
330
0
330
0
330
0
330
0
330
0
330
0
330
0
330
0
330
0
330
0
330
0
330
0
330
0
330
0
330
0
330
0
330
0
330
0
330
0
330
0
330
0
330
0
330
0
330
0
330
0
330
0
330
0
330
0
330
0
330
0
330
0
330
0
330
0
330
0
330
0
330
0
330
0
330
0
330
0
330
0
330
0
330
0
330
0
330
0
330
0
330
0
330
0
330
0
330
0
330
0
330
0
330
0
330
0
330
0
330
0
330
0
330
0
330
0
330
0
330
0
330
0
330
0
330
0
330
0
330
0
330
0
330
0
330
0
330
0
330
0
330
0
330
0
330
0
330
0
330
0
330
0
330
0
330
0
330
0
330
0
330
0
330
0
330
0
330
0
330
0
330
0
330
0
330
0
330
0
330
0
330
0
330
0
330
0
330
0
330
0
330
0
330
0
330
0
330
0
330
0
330
0
330
0
330
0
330
0
330
0
330
0
330
0
330
0
330
0
330
0
330
0
330
0
330
0
330
0
330
0
330
0
330
0
330
0
330
0
330
0
330
0
330
0
330
0
330
0
330
0
330
0
330
0
330
0
330
0
330
0
330
0
330
0
330
0
330
0
330
0
330
0
330
0
330
0
330
0
330
0
330
0
330
0
330
0
330
0
330
0
330
0
330
0
330
0
330
0
330
0
330
0
330
0
330
0
330
0
330
0
330
0
330
0
330
0
330
0
330
0
330
0
330
0
330
0
330
0
330
0
330
0
330
0
330
0
330
0
330
0
330
0
330
0
330
0
330
0
330
0
330
0
330
0
330
0
330
0
330
0
330
0
330
0
330
0
330
0
330
0
330
0
330
0
330
0
330
0
330
0
330
0
330
0
330
0
330
0
330
0
330
0
330
0
330
0
330
0
330
0
330
0
330
0
330
0
330
0
330
0
330
0
330
0
330
0
330
0
330
0
330
0
330
0
330
0
330
0
330
0
330
0
330
0
330
0
330
0
330
0
330
0
330
0
330
0
330
0
330
0
330
0
330
0
330
0
330
0
330
0
330
0
330
0
330
0
330
0
330
0
330
0
330
0
330
0
330
0
330
0
330
0
330
0
330
0
330
0
330
0
330
0
330
0
330
0
330
0
330
0
330
0
330
0
330
0
330
0
330
0
330
0
330
0
330
0
330
0
330
0
330
0
330
0
330
0
330
0
330
0
330
0
330
0
330
0
330
0
330
0
330
0
330
0
330
0
330
0
330
0
330
0
330
0
330
0
330
0
330
0
330
0
330
0
330
0
330
0
330
0
330
0
330
0
330
0
330
0
330
0
330
0
330
0
330
0
330
0
330
0
330
0
330
0
330
0
330
0
330
0
330
0
330
0
330
0
330
0
330
0
330
0
330
0
330
0
330
0
330
0
330
0
330
0
330
0
330
0
330
0
330
0
330
0
330
0
330
0
330
0
330
0
330
0
330
0
330
0
330
0
330
0
330
0
330
0
330
0
330
0
330
0
330
0
330
0
330
0
330
0
330
0
330
0
330
0
330
0
330
0
330
0
330
0
330
0
330
0
330
0
330
0
330
0
330
0
330
0
330
0
330
0
330
0
330
0
330
0
330
0
330
0
330
0
330
0
330
0
330
0
330
0
330
0
330
0
330
0
330
0
330
0
330
0
330
0
330
0
330
0
330
0
330
0
330
0
330
0
330
0
330
0
330
0
330
0
330
0
330
0
330
0
330
0
330
0
330
0
330
0
330
0
330
0
330
0
330
0
330
0
330
0
330
0
330
0
330
0
330
0
330
0
330
0
330
0
330
0
330
0
330
0
330
0
330
0
330
0
330
0
330
0
330
0
330
0
330
0
330
0
330
0
330
0
330
0
330
0
330
0
330
0
330
0
330
0
330
0
330
0
330
0
330
0
330
0
330
0
330
0
330
0
330
0
330
0
330
0
330
0
330
0
330
0
330
0
330
0
330
0
330
0
330
0
330
0
330
0
330
0
330
0
330
0
330
0
330
0
330
0
330
0
330
0
330
0
330
0
330
0
330
0
330
0
330
0
330
0
330
0
330
0
330
0
330
0
330
0
330
0
330
0
330
0
330
0
330
0
330
0
330
0
330
0
330
0
330
0
330
0
330
0
330
0
330
0
330
0
330
0
330
0
330
0
330
0
330
0
330
0
330
0
330
0
330
0
330
0
330
0
330
0
330
0
330
0
330
0
330
0
330
0
330
0
330
0
330
0
330
0
330
0
330
0
330
0
330
0
330
0
330
0
330
0
330
0
330
0
330
0
330
0
330
0
330
0
330
0
330
0
330
0
330
0
330
0
330
0
330
0
330
0
330
0
330
0
330
0
330
0
330
0
330
0
330
0
330
0
330
0
330
0
330
0
330
0
330
0
330
0
330
0
330
0
330
0
330
0
330
0
330
0
330
0
330
0
330
0
330
0
330
0
330
0
330
0
330
0
330
0
330
0
330
0
330
0
330
0
330
0
330
0
330
0
330
0
330
0
330
0
330
0
330
0
330
0
330
0
330
0
330
0
330
0
330
0
330
0
330
0
330
0
330
0
330
0
330
0
330
0
330
0
330
0
330
0
330
0
330
0
330
0
330
0
330
0
330
0
330
0
330
0
330
0
330
0
330
0
330
0
330
0
330
0
330
0
330
0
330
0
330
0
330
0
330
0
330
0
330
0
330
0
330
0
330
0
330
0
330
0
330
0
330
0
330
0
330
0
330
0
330
0
330
0
330
0
330
0
330
0
330
0
330
0
330
0
330
0
330
0
330
0
330
0
330
0
330
0
330
0
330
0
330
0
330
0
330
0
330
0
330
0
330
0
330
0
330
0
330
0
330
0
330
0
330
0
330
0
330
0
330
0
330
0
330
0
330
0
330
0
330
0
330
0
330
0
330
0
330
0
330
0
330
0
330
0
330
0
330
0
330
0
330
0
330
0
330
0
330
0
330
0
330
0
330
0
330
0
330
0
330
0
330
0
330
0
330
0
330
0
330
0
330
0
330
0
330
0
330
0
330
0
330
0
330
0
330
0
330
0
330
0
330
0
330
0
330
0
330
0
330
0
330
0
330
0
330
0
330
0
330
0
330
0
330
0
330
0
330
0
330
0
330
0
330
0
330
0
330
0
330
0
330
0
330
0
330
0
330
0
330
0
330
0
330
0
330
0
330
0
330
0
330
0
330
0
330
0
330
0
330
0
330
0
330
0
330
0
330
0
330
0
330
0
330
0
330
0
330
0
330
0
330
0
330
0
330
0
330
0
330
0
330
0
330
0
330
0
330
0
330
0
330
0
330
0
330
0
330
0
330
0
330
0
330
0
330
0
330
0
330
0
330
0
330
0
330
0
330
0
330
0
330
0
330
0
330
0
330
0
330
0
330
0
330
0
330
0
330
0
330
0
330
0
330
0
330
0
330
0
330
0
330
0
330
0
330
0
330
0
330
0
330
0
330
0
330
0
330
0
330
0
330
0
330
0
330
0
330
0
330
0
330
0
330
0
330
0
330
0
330
0
330
0
330
0
330
0
330
0
330
0
330
0
330
0
330
0
330
0
330
0
330
0
330
0
330
0
330
0
330
0
330
0
330
0
330
0
330
0
330
0
330
0
330
0
330
0
330
0
330
0
330
0
330
0
330
0
330
0
330
0
330
0
330
0
330
0
330
0
330
0
330
0
330
0
330
0
330
0
330
0
330
0
330
0
330
0
330
0
330
0
330
0
330
0
330
0
330
0
330
0
330
0
330
0
330
0
330
0
330
0
330
0
330
0
330
0
330
0
330
0
330
0
330
0
330
0
330
0
330
0
330
0
330
0
330
0
330
0
330
0
330
0
330
0
330
0
330
0
330
0
330
0
330
0
330
0
330
0
330
0
330
0
330
0
330
0
330
0
330
0
330
0
330
0
330
0
330
0
330
0
330
0
330
0
330
0
330
0
330
0
330
0
330
0
330
0
330
0
330
0
330
0
330
0
330
0
330
0
330
0
330
0
330
0
330
0
330
0
330
0
330
0
330
0
330
0
330
0
330
0
330
0
330
0
330
0
330
0
330
0
330
0
330
0
330
0
330
0
330
0
330
0
330
0
330
0
330
0
330
0
330
0
330
0
330
0
330
0
330
0
330
0
330
0
330
0
330
0
330
0
330
0
330
0
330
0
330
0
330
0
330
0
330
0
330
0
330
0
330
0
330
0
330
0
330
0
330
0
330
0
330
0
330
0
330
0
330
0
330
0
330
0
330
0
330
0
330
0
330
0
330
0
330
0
330
0
330
0
330
0
330
0
330
0
330
0
330
0
330
0
330
0
330
0
330
0
330
0
330
0
330
0
330
0
330
0
330
0
330
0
330
0
330
0
330
0
330
0
330
0
330
0
330
0
330
0
330
0
330
0
330
0
330
0
330
0
330
0
330
0
330
0
330
0
330
0
330
0
330
0
330
0
330
0
330
0
330
0
330
0
330
0
330
0
330
0
330
0
330
0
330
0
330
0
330
0
330
0
330
0
330
0
330
0
330
0
330
0
330
0
330
0
330
0
330
0
330
0
330
0
330
0
330
0
  0
XRECORD
  5
3FB7
102
{ACAD_REACTORS
330
3F96
102
}
330
3F96
100
AcDbXrecord
280
     1
 91
        3
330
0
 90
        8
 62
     7
370
    40
331
16
  1
Color_7
330
0
 90
        0
 62
    14
370
    -3
331
16
  1
Color_14
330
0
 90
        8
 62
     7
370
    20
331
16
  1
Color_7
330
6D1
 90
        0
 62
     7
370
    -3
331
16
  1
Color_7
330
0
 90
        8
 62
     7
370
    50
331
16
  1
Color_7
330
0
 90
        8
 62
     2
370
    35
331
16
  1
Color_2
330
0
 90
        8
 62
     7
370
    -3
331
16
  1
Color_7
330
10
 90
        8
 62
     7
370
    -3
331
16
  1
Color_7
  0
DICTIONARY
  5
5B2AE
330
22
100
AcDbDictionary
280
     1
281
     1
  3
ACAD_XREC_ROUNDTRIP
360
5B2AF
  0
DICTIONARY
  5
5B2AC
330
1E
100
AcDbDictionary
280
     1
281
     1
  3
ACAD_XREC_ROUNDTRIP
360
5B2AD
  0
DICTIONARY
  5
5B2B0
330
26
100
AcDbDictionary
280
     1
281
     1
  3
ACAD_XREC_ROUNDTRIP
360
5B2B1
  0
DICTIONARY
  5
5B2B6
330
B0EF
100
AcDbDictionary
280
     1
281
     1
  3
ACAD_XREC_ROUNDTRIP
360
5B2B7
  0
DICTIONARY
  5
5B2B4
330
B0EE
100
AcDbDictionary
280
     1
281
     1
  3
ACAD_XREC_ROUNDTRIP
360
5B2B5
  0
DICTIONARY
  5
5B2B8
330
B0F0
100
AcDbDictionary
280
     1
281
     1
  3
ACAD_XREC_ROUNDTRIP
360
5B2B9
  0
DICTIONARY
  5
5B2B2
330
AABA
100
AcDbDictionary
280
     1
281
     1
  3
ACAD_XREC_ROUNDTRIP
360
5B2B3
  0
XRECORD
  5
5B2AF
102
{ACAD_REACTORS
330
5B2AE
102
}
330
5B2AE
100
AcDbXrecord
280
     1
102
SHADEPLOT
 70
     0
102
SHADEPLOTRESLEVEL
 70
     2
102
SHADEPLOTCUSTOMDPI
 70
   200
  0
XRECORD
  5
5B2AD
102
{ACAD_REACTORS
330
5B2AC
102
}
330
5B2AC
100
AcDbXrecord
280
     1
102
SHADEPLOT
 70
     0
102
SHADEPLOTRESLEVEL
 70
     2
102
SHADEPLOTCUSTOMDPI
 70
   300
  0
XRECORD
  5
5B2B1
102
{ACAD_REACTORS
330
5B2B0
102
}
330
5B2B0
100
AcDbXrecord
280
     1
102
SHADEPLOT
 70
     0
102
SHADEPLOTRESLEVEL
 70
     2
102
SHADEPLOTCUSTOMDPI
 70
   300
  0
XRECORD
  5
5B2B7
102
{ACAD_REACTORS
330
5B2B6
102
}
330
5B2B6
100
AcDbXrecord
280
     1
102
MATERIAL
148
0.0
149
0.0
149
0.0
 93
        0
 94
       63
282
     0
 72
     1
 77
     1
171
     1
175
     1
179
     1
273
     0
  0
XRECORD
  5
5B2B5
102
{ACAD_REACTORS
330
5B2B4
102
}
330
5B2B4
100
AcDbXrecord
280
     1
102
MATERIAL
148
0.0
149
0.0
149
0.0
 93
        0
 94
       63
282
     0
 72
     1
 77
     1
171
     1
175
     1
179
     1
273
     0
  0
XRECORD
  5
5B2B9
102
{ACAD_REACTORS
330
5B2B8
102
}
330
5B2B8
100
AcDbXrecord
280
     1
102
MATERIAL
148
0.0
149
0.0
149
0.0
 93
        0
 94
       63
282
     0
 72
     1
 77
     1
171
     1
175
     1
179
     1
273
     0
  0
XRECORD
  5
5B2B3
102
{ACAD_REACTORS
330
5B2B2
102
}
330
5B2B2
100
AcDbXrecord
280
     1
102
ACAD_ROUNDTRIP_PRE2007_TABLESTYLE
 90
        4
 91
        0
  1

 92
        4
 93
        0
  2

 94
        4
 95
        0
  3

  0
ENDSEC
  0
EOF
