  0
SECTION
  2
HEADER
  9
$ACADVER
  1
AC1015
  9
$ACADMAINTVER
 70
    20
  9
$DWGCODEPAGE
  3
ANSI_932
  9
$INSBASE
 10
0.0
 20
0.0
 30
0.0
  9
$EXTMIN
 10
-0.1219014836592578
 20
-0.1133673153030941
 30
-0.000000000000013
  9
$EXTMAX
 10
297.1145613363997
 20
210.1127562499437
 30
0.0000000000000023
  9
$LIMMIN
 10
1700.85588156276
 20
1647.985052086429
  9
$LIMMAX
 10
1997.85588156276
 20
1857.985052086429
  9
$ORTHOMODE
 70
     0
  9
$REGENMODE
 70
     1
  9
$FILLMODE
 70
     1
  9
$QTEXTMODE
 70
     0
  9
$MIRRTEXT
 70
     0
  9
$LTSCALE
 40
1.0
  9
$ATTMODE
 70
     1
  9
$TEXTSIZE
 40
3.2
  9
$TRACEWID
 40
1.0
  9
$TEXTSTYLE
  7
STANDARD
  9
$CLAYER
  8
1
  9
$CELTYPE
  6
ByLayer
  9
$CECOLOR
 62
   256
  9
$CELTSCALE
 40
1.0
  9
$DISPSILH
 70
     0
  9
$DIMSCALE
 40
1.0
  9
$DIMASZ
 40
1.0
  9
$DIMEXO
 40
1.0
  9
$DIMDLI
 40
10.0
  9
$DIMRND
 40
0.0
  9
$DIMDLE
 40
0.0
  9
$DIMEXE
 40
1.0
  9
$DIMTP
 40
0.1
  9
$DIMTM
 40
0.1
  9
$DIMTXT
 40
3.5
  9
$DIMCEN
 40
0.0
  9
$DIMTSZ
 40
0.0
  9
$DIMTOL
 70
     0
  9
$DIMLIM
 70
     0
  9
$DIMTIH
 70
     0
  9
$DIMTOH
 70
     0
  9
$DIMSE1
 70
     0
  9
$DIMSE2
 70
     0
  9
$DIMTAD
 70
     1
  9
$DIMZIN
 70
     8
  9
$DIMBLK
  1

  9
$DIMASO
 70
     1
  9
$DIMSHO
 70
     1
  9
$DIMPOST
  1

  9
$DIMAPOST
  1
"
  9
$DIMALT
 70
     0
  9
$DIMALTD
 70
     2
  9
$DIMALTF
 40
0.0393701
  9
$DIMLFAC
 40
1.0
  9
$DIMTOFL
 70
     1
  9
$DIMTVP
 40
0.0
  9
$DIMTIX
 70
     0
  9
$DIMSOXD
 70
     0
  9
$DIMSAH
 70
     0
  9
$DIMBLK1
  1

  9
$DIMBLK2
  1

  9
$DIMSTYLE
  2
SYS
  9
$DIMCLRD
 70
   256
  9
$DIMCLRE
 70
   256
  9
$DIMCLRT
 70
     7
  9
$DIMTFAC
 40
0.71
  9
$DIMGAP
 40
1.5
  9
$DIMJUST
 70
     0
  9
$DIMSD1
 70
     0
  9
$DIMSD2
 70
     0
  9
$DIMTOLJ
 70
     0
  9
$DIMTZIN
 70
     8
  9
$DIMALTZ
 70
     0
  9
$DIMALTTZ
 70
     0
  9
$DIMUPT
 70
     0
  9
$DIMDEC
 70
     2
  9
$DIMTDEC
 70
     2
  9
$DIMALTU
 70
     2
  9
$DIMALTTD
 70
     2
  9
$DIMTXSTY
  7
STANDARD
  9
$DIMAUNIT
 70
     0
  9
$DIMADEC
 70
     0
  9
$DIMALTRND
 40
0.0
  9
$DIMAZIN
 70
     2
  9
$DIMDSEP
 70
    46
  9
$DIMATFIT
 70
     3
  9
$DIMFRAC
 70
     0
  9
$DIMLDRBLK
  1

  9
$DIMLUNIT
 70
     2
  9
$DIMLWD
 70
    -1
  9
$DIMLWE
 70
    -1
  9
$DIMTMOVE
 70
     0
  9
$LUNITS
 70
     2
  9
$LUPREC
 70
     2
  9
$SKETCHINC
 40
1.0
  9
$FILLETRAD
 40
0.0
  9
$AUNITS
 70
     0
  9
$AUPREC
 70
     0
  9
$MENU
  1
.
  9
$ELEVATION
 40
0.0
  9
$PELEVATION
 40
0.0
  9
$THICKNESS
 40
0.0
  9
$LIMCHECK
 70
     0
  9
$CHAMFERA
 40
0.0
  9
$CHAMFERB
 40
0.0
  9
$CHAMFERC
 40
20.0
  9
$CHAMFERD
 40
0.0
  9
$SKPOLY
 70
     0
  9
$TDCREATE
 40
2456139.798878935
  9
$TDUCREATE
 40
2456139.423878935
  9
$TDUPDATE
 40
2456268.497212639
  9
$TDUUPDATE
 40
2456268.122212639
  9
$TDINDWG
 40
0.1037880787
  9
$TDUSRTIMER
 40
0.1037879051
  9
$USRTIMER
 70
     1
  9
$ANGBASE
 50
0.0
  9
$ANGDIR
 70
     0
  9
$PDMODE
 70
     0
  9
$PDSIZE
 40
-3.0
  9
$PLINEWID
 40
0.0
  9
$SPLFRAME
 70
     0
  9
$SPLINETYPE
 70
     6
  9
$SPLINESEGS
 70
     8
  9
$HANDSEED
  5
CFF4
  9
$SURFTAB1
 70
     6
  9
$SURFTAB2
 70
     6
  9
$SURFTYPE
 70
     6
  9
$SURFU
 70
     6
  9
$SURFV
 70
     6
  9
$UCSBASE
  2

  9
$UCSNAME
  2

  9
$UCSORG
 10
0.0
 20
0.0
 30
0.0
  9
$UCSXDIR
 10
1.0
 20
0.0
 30
0.0
  9
$UCSYDIR
 10
0.0
 20
1.0
 30
0.0
  9
$UCSORTHOREF
  2

  9
$UCSORTHOVIEW
 70
     0
  9
$UCSORGTOP
 10
0.0
 20
0.0
 30
0.0
  9
$UCSORGBOTTOM
 10
0.0
 20
0.0
 30
0.0
  9
$UCSORGLEFT
 10
0.0
 20
0.0
 30
0.0
  9
$UCSORGRIGHT
 10
0.0
 20
0.0
 30
0.0
  9
$UCSORGFRONT
 10
0.0
 20
0.0
 30
0.0
  9
$UCSORGBACK
 10
0.0
 20
0.0
 30
0.0
  9
$PUCSBASE
  2

  9
$PUCSNAME
  2

  9
$PUCSORG
 10
0.0
 20
0.0
 30
0.0
  9
$PUCSXDIR
 10
1.0
 20
0.0
 30
0.0
  9
$PUCSYDIR
 10
0.0
 20
1.0
 30
0.0
  9
$PUCSORTHOREF
  2

  9
$PUCSORTHOVIEW
 70
     0
  9
$PUCSORGTOP
 10
0.0
 20
0.0
 30
0.0
  9
$PUCSORGBOTTOM
 10
0.0
 20
0.0
 30
0.0
  9
$PUCSORGLEFT
 10
0.0
 20
0.0
 30
0.0
  9
$PUCSORGRIGHT
 10
0.0
 20
0.0
 30
0.0
  9
$PUCSORGFRONT
 10
0.0
 20
0.0
 30
0.0
  9
$PUCSORGBACK
 10
0.0
 20
0.0
 30
0.0
  9
$USERI1
 70
     0
  9
$USERI2
 70
     0
  9
$USERI3
 70
     0
  9
$USERI4
 70
     0
  9
$USERI5
 70
     0
  9
$USERR1
 40
0.0
  9
$USERR2
 40
0.0
  9
$USERR3
 40
0.0
  9
$USERR4
 40
0.0
  9
$USERR5
 40
0.0
  9
$WORLDVIEW
 70
     1
  9
$SHADEDGE
 70
     3
  9
$SHADEDIF
 70
    70
  9
$TILEMODE
 70
     1
  9
$MAXACTVP
 70
    64
  9
$PINSBASE
 10
0.0
 20
0.0
 30
0.0
  9
$PLIMCHECK
 70
     0
  9
$PEXTMIN
 10
1.000000000000000E+20
 20
1.000000000000000E+20
 30
1.000000000000000E+20
  9
$PEXTMAX
 10
-1.000000000000000E+20
 20
-1.000000000000000E+20
 30
-1.000000000000000E+20
  9
$PLIMMIN
 10
-3.17498779296875
 20
-3.174999952316284
  9
$PLIMMAX
 10
293.4970092773438
 20
206.692492723465
  9
$UNITMODE
 70
     0
  9
$VISRETAIN
 70
     1
  9
$PLINEGEN
 70
     0
  9
$PSLTSCALE
 70
     1
  9
$TREEDEPTH
 70
  3020
  9
$CMLSTYLE
  2
Standard
  9
$CMLJUST
 70
     0
  9
$CMLSCALE
 40
20.0
  9
$PROXYGRAPHICS
 70
     1
  9
$MEASUREMENT
 70
     1
  9
$CELWEIGHT
370
    -1
  9
$ENDCAPS
280
     0
  9
$JOINSTYLE
280
     0
  9
$LWDISPLAY
290
     1
  9
$INSUNITS
 70
     4
  9
$HYPERLINKBASE
  1

  9
$STYLESHEET
  1
monochrome.ctb
  9
$XEDIT
290
     1
  9
$CEPSNTYPE
380
     0
  9
$PSTYLEMODE
290
     1
  9
$FINGERPRINTGUID
  2
{4DF3B1F6-3F13-4469-8453-5E0FD6DA0DB8}
  9
$VERSIONGUID
  2
{D128237D-D04A-4DCB-A632-4833C1531F54}
  9
$EXTNAMES
290
     1
  9
$PSVPSCALE
 40
0.0
  9
$OLESTARTUP
290
     0
  0
ENDSEC
  0
SECTION
  2
CLASSES
  0
CLASS
  1
ACDBDICTIONARYWDFLT
  2
AcDbDictionaryWithDefault
  3
ObjectDBX Classes
 90
        0
280
     0
281
     0
  0
CLASS
  1
ACDBPLACEHOLDER
  2
AcDbPlaceHolder
  3
ObjectDBX Classes
 90
        0
280
     0
281
     0
  0
CLASS
  1
LAYOUT
  2
AcDbLayout
  3
ObjectDBX Classes
 90
        0
280
     0
281
     0
  0
CLASS
  1
AMGSETTINGSOBJ
  2
AmgSettingsObj
  3
"AcadM|Product Description: AutoCAD Mechanical|Company: Autodesk"
 90
        0
280
     0
281
     0
  0
CLASS
  1
ACME_DOCUMENT
  2
AcMeDbDoc
  3
AcMeServices
 90
        0
280
     0
281
     0
  0
CLASS
  1
ACMESCOPE
  2
AcMeScope
  3
AcMeServices
 90
        0
280
     0
281
     0
  0
CLASS
  1
ACMECOMMANDHISTORY
  2
AcMeCommandHistory
  3
AcMeServices
 90
        0
280
     0
281
     0
  0
CLASS
  1
DICTIONARYVAR
  2
AcDbDictionaryVar
  3
ObjectDBX Classes
 90
        0
280
     0
281
     0
  0
CLASS
  1
ACIMSYSVARMAN
  2
AcImSysVarManager
  3
AcMeServices
 90
        0
280
     0
281
     0
  0
CLASS
  1
ACIMREALSYSVAR
  2
AcImRealSysVar
  3
AcMeServices
 90
        0
280
     0
281
     0
  0
CLASS
  1
ACIMINTSYSVAR
  2
AcImIntSysVar
  3
AcMeServices
 90
        0
280
     0
281
     0
  0
CLASS
  1
ACMEDRAWINGMAN
  2
AcMeDrawingMan
  3
AcMeServices
 90
        0
280
     0
281
     0
  0
CLASS
  1
ACMEVIEW
  2
AcMeView
  3
AcMeServices
 90
        0
280
     0
281
     0
  0
CLASS
  1
ACDBENTITYCACHE
  2
AcMeEntityCache
  3
AcMeServices
 90
        0
280
     0
281
     0
  0
CLASS
  1
GSMANAGER
  2
AcMeGSManager
  3
AcMeServices
 90
        0
280
     0
281
     0
  0
CLASS
  1
AMDTINTERNALREACTOR
  2
AmdtInternalReactor
  3
AcMeServices
 90
        0
280
     0
281
     0
  0
CLASS
  1
ACMESTATEMGR
  2
AcMeStateMgr
  3
AcMeServices
 90
        0
280
     0
281
     0
  0
CLASS
  1
ACGREFMASTER
  2
AcGrefMaster
  3
AcAttribServices
 90
        0
280
     0
281
     0
  0
CLASS
  1
ACME_DATABASE
  2
AcMeDbDatabase
  3
AcMeServices
 90
        0
280
     0
281
     0
  0
CLASS
  1
ACRFINSADJUSTERMGR
  2
AcRfInsAdjusterMgr
  3
AcMeServices
 90
        0
280
     0
281
     0
  0
CLASS
  1
ACGREFACADMASTER
  2
AcGrefacadMaster
  3
AcGrefServices
 90
        0
280
     0
281
     0
  0
CLASS
  1
AMIMASTER
  2
AmiMaster
  3
AmiServices
 90
        0
280
     0
281
     0
  0
CLASS
  1
ACMDATADICTIONARY
  2
AcmDataDictionary
  3
"AcmSymBB|Product Description: AutoCAD Mechanical|Company: Autodesk"
 90
        0
280
     0
281
     0
  0
CLASS
  1
ACMDATAENTRYBLOCK
  2
AcmDataEntryBlock
  3
"AcmSymBB|Product Description: AutoCAD Mechanical|Company: Autodesk"
 90
        0
280
     0
281
     0
  0
CLASS
  1
ACIMSTRSYSVAR
  2
AcImStrSysVar
  3
AcMeServices
 90
        0
280
     0
281
     0
  0
CLASS
  1
ACMSTANDARDISO
  2
AcmStandardISO
  3
"Amdt_StdImp|Product Description: AutoCAD Mechanical|Company: Autodesk"
 90
        0
280
     0
281
     0
  0
CLASS
  1
AMGOBJPROPCFG
  2
AmgObjPropCfg
  3
"AmgLay|Product Description: AutoCAD Mechanical|Company: Autodesk"
 90
        1
280
     0
281
     0
  0
CLASS
  1
AMDTEDGESTANDARDISO
  2
AmdtEdgeStdISO
  3
"Amdt_StdImp|Product Description: AutoCAD Mechanical|Company: Autodesk"
 90
        0
280
     0
281
     0
  0
CLASS
  1
ACMSURFSTANDARDISO
  2
AcmSurfTextStdISO
  3
"Amdt_StdImp|Product Description: AutoCAD Mechanical|Company: Autodesk"
 90
        0
280
     0
281
     0
  0
CLASS
  1
ACMFCFSTANDARDISO
  2
AcmFCFStdISO
  3
"Amdt_StdImp|Product Description: AutoCAD Mechanical|Company: Autodesk"
 90
        0
280
     0
281
     0
  0
CLASS
  1
ACMWELDSTANDARDISO
  2
AcmWeldingStdISO
  3
"Amdt_StdImp|Product Description: AutoCAD Mechanical|Company: Autodesk"
 90
        0
280
     0
281
     0
  0
CLASS
  1
ACMIDSTANDARDISO
  2
AcmIdStdISO
  3
"Amdt_StdImp|Product Description: AutoCAD Mechanical|Company: Autodesk"
 90
        0
280
     0
281
     0
  0
CLASS
  1
ACMDATUMSTANDARDISO
  2
AcmDatumStdISO
  3
"Amdt_StdImp|Product Description: AutoCAD Mechanical|Company: Autodesk"
 90
        0
280
     0
281
     0
  0
CLASS
  1
ACMBOMSTANDARDISO
  2
AcmBOMStdISO
  3
"Amdt_StdImp|Product Description: AutoCAD Mechanical|Company: Autodesk"
 90
        0
280
     0
281
     0
  0
CLASS
  1
ACMDETAILSTANDARDISO
  2
AmdtDetailSymStdISO
  3
"Amdt_StdImp|Product Description: AutoCAD Mechanical|Company: Autodesk"
 90
        0
280
     0
281
     0
  0
CLASS
  1
ACMSECTIONSTANDARDISO
  2
AmdtSectionSymStdISO
  3
"Amdt_StdImp|Product Description: AutoCAD Mechanical|Company: Autodesk"
 90
        0
280
     0
281
     0
  0
CLASS
  1
ACMCENTERLINESTANDARDISO
  2
AmdtCenterLineStdISO
  3
"Amdt_StdImp|Product Description: AutoCAD Mechanical|Company: Autodesk"
 90
        0
280
     0
281
     0
  0
CLASS
  1
ACAMGLAYSTD
  2
AcAmgLayStd
  3
"AmgLay|Product Description: AutoCAD Mechanical|Company: Autodesk"
 90
        0
280
     0
281
     0
  0
CLASS
  1
ACAMGDIMSTD
  2
AcAmgDimStd
  3
"AmgDim|Product Description: AutoCAD Mechanical|Company: Autodesk"
 90
        0
280
     0
281
     0
  0
CLASS
  1
ACAMGTITLESTD
  2
AcAmgTitleStd
  3
"AmgTitle|Product Description: AutoCAD Mechanical|Company: Autodesk"
 90
        0
280
     0
281
     0
  0
CLASS
  1
ACAMGFILTERDAT
  2
AcAmgFilterDat
  3
"AcadM|Product Description: AutoCAD Mechanical|Company: Autodesk"
 90
        0
280
     0
281
     0
  0
CLASS
  1
LAYER_INDEX
  2
AcDbLayerIndex
  3
ObjectDBX Classes
 90
    32768
280
     0
281
     0
  0
CLASS
  1
IDBUFFER
  2
AcDbIdBuffer
  3
ObjectDBX Classes
 90
    32768
280
     0
281
     0
  0
CLASS
  1
PLOTSETTINGS
  2
AcDbPlotSettings
  3
ObjectDBX Classes
 90
    32768
280
     0
281
     0
  0
CLASS
  1
AMDTFORMULAUPDATEDISPATCHER
  2
AmdtFormulaUpdateDispatcher
  3
AcMeServices
 90
        0
280
     0
281
     0
  0
CLASS
  1
ACMSTANDARDANSI
  2
AcmStandardANSI
  3
"Amdt_StdImp|Product Description: AutoCAD Mechanical|Company: Autodesk"
 90
        0
280
     0
281
     0
  0
CLASS
  1
ACMSURFSTANDARDANSI
  2
AcmSurfTextStdANSI
  3
"Amdt_StdImp|Product Description: AutoCAD Mechanical|Company: Autodesk"
 90
        0
280
     0
281
     0
  0
CLASS
  1
ACMFCFSTANDARDANSI
  2
AcmFCFStdANSI
  3
"Amdt_StdImp|Product Description: AutoCAD Mechanical|Company: Autodesk"
 90
        0
280
     0
281
     0
  0
CLASS
  1
ACMWELDSTANDARDANSI
  2
AcmWeldingStdANSI
  3
"Amdt_StdImp|Product Description: AutoCAD Mechanical|Company: Autodesk"
 90
        0
280
     0
281
     0
  0
CLASS
  1
ACMIDSTANDARDANSI
  2
AcmIdStdANSI
  3
"Amdt_StdImp|Product Description: AutoCAD Mechanical|Company: Autodesk"
 90
        0
280
     0
281
     0
  0
CLASS
  1
ACMDATUMSTANDARDANSI
  2
AcmDatumStdANSI
  3
"Amdt_StdImp|Product Description: AutoCAD Mechanical|Company: Autodesk"
 90
        0
280
     0
281
     0
  0
CLASS
  1
ACMBOMSTANDARDANSI
  2
AcmBOMStdANSI
  3
"Amdt_StdImp|Product Description: AutoCAD Mechanical|Company: Autodesk"
 90
        0
280
     0
281
     0
  0
CLASS
  1
ACMDETAILSTANDARDANSI
  2
AmdtDetailSymStdANSI
  3
"Amdt_StdImp|Product Description: AutoCAD Mechanical|Company: Autodesk"
 90
        0
280
     0
281
     0
  0
CLASS
  1
ACMSECTIONSTANDARDANSI
  2
AmdtSectionSymStdANSI
  3
"Amdt_StdImp|Product Description: AutoCAD Mechanical|Company: Autodesk"
 90
        0
280
     0
281
     0
  0
CLASS
  1
ACMCENTERLINESTANDARDANSI
  2
AmdtCenterLineStdANSI
  3
"Amdt_StdImp|Product Description: AutoCAD Mechanical|Company: Autodesk"
 90
        0
280
     0
281
     0
  0
CLASS
  1
ACMBOM
  2
AcmBom
  3
"AcmSymBB|Product Description: AutoCAD Mechanical|Company: Autodesk"
 90
        0
280
     0
281
     0
  0
CLASS
  1
ACMDATAENTRYPART
  2
AcmDataEntryPart
  3
"AcmSymBB|Product Description: AutoCAD Mechanical|Company: Autodesk"
 90
    32768
280
     0
281
     0
  0
CLASS
  1
ACMPARTREF
  2
AcmPartRef
  3
"AcmSymBB|Product Description: AutoCAD Mechanical|Company: Autodesk"
 90
    35839
280
     0
281
     1
  0
CLASS
  1
ACDBCIRCARCRES
  2
AcDbCircArcRes
  3
AcGrefServices
 90
    32768
280
     0
281
     0
  0
CLASS
  1
ACMBOMROW
  2
AcmBomRow
  3
"AcmSymBB|Product Description: AutoCAD Mechanical|Company: Autodesk"
 90
    32768
280
     0
281
     0
  0
CLASS
  1
ACMBALLOON
  2
AcmBalloon
  3
"AcmSymBB|Product Description: AutoCAD Mechanical|Company: Autodesk"
 90
    35839
280
     0
281
     1
  0
CLASS
  1
AMDTNOTE
  2
AmdtNote
  3
"AcmSymBB|Product Description: AutoCAD Mechanical|Company: Autodesk"
 90
    35839
280
     0
281
     1
  0
CLASS
  1
STDPART2D
  2
AmgStdPart
  3
"g3vace|Class: AmgStdPart|Product Description: AutoCAD Mechanical|Company: Autodesk"
 90
    35839
280
     0
281
     1
  0
CLASS
  1
ACDBSTDPARTRES_LINE
  2
AcDbStdPartRes_Line
  3
"g3vace|Class: AcDbStdPartRes_Line|Product Description: AutoCAD Mechanical|Company: Autodesk"
 90
    32768
280
     0
281
     0
  0
CLASS
  1
ACMDATAENTRY
  2
AcmDataEntry
  3
"AcmSymBB|Product Description: AutoCAD Mechanical|Company: Autodesk"
 90
        0
280
     0
281
     0
  0
CLASS
  1
ACDBOPPOLYLINERES
  2
AcDbOpPolylineRes
  3
AcGrefServices
 90
    32768
280
     0
281
     0
  0
CLASS
  1
ACMPARTLIST
  2
AcmPartList
  3
"AcmSymBB|Product Description: AutoCAD Mechanical|Company: Autodesk"
 90
    35839
280
     0
281
     1
  0
CLASS
  1
ACDBLINERES
  2
AcDbLineRes
  3
AcGrefServices
 90
    32768
280
     0
281
     0
  0
CLASS
  1
ACRFINSADJ
  2
AcRfInsAdjuster
  3
AcMeServices
 90
    32768
280
     0
281
     0
  0
CLASS
  1
AM_DRAWING_MGR
  2
AcDmDwgMgr
  3
AcMechDwgViewMgmt
 90
        0
280
     0
281
     0
  0
CLASS
  1
AM_DWG_DOCUMENT
  2
AcDmDwgDocument
  3
AcMechDwgViewMgmt
 90
        0
280
     0
281
     0
  0
CLASS
  1
AM_DWG_SHEET
  2
AcDmSheet
  3
AcMechDwgViewMgmt
 90
        0
280
     0
281
     0
  0
CLASS
  1
AM_VIEWDIMPARMAP
  2
AcDmViewDimParMap
  3
AcMechDwgViewMgmt
 90
        0
280
     0
281
     0
  0
CLASS
  1
AM_DWGMGR_NAME
  2
AcDmDwgMgrName
  3
AcMechDwgViewMgmt
 90
        0
280
     0
281
     0
  0
CLASS
  1
AMDTMENUSTATEMGR
  2
AmdtMenuStateMgr
  3
McadcomServices
 90
        0
280
     0
281
     0
  0
CLASS
  1
AMDTMCOMMENUSTATE
  2
AmdtMcomMenuState
  3
McadcomServices
 90
        0
280
     0
281
     0
  0
CLASS
  1
ASAPP
  2
AcAsAppObject
  3
AutoSurfServices
 90
        0
280
     0
281
     0
  0
CLASS
  1
IM_STATIC_MAN
  2
AcImStaticVarManager
  3
AcMeServices
 90
        0
280
     0
281
     0
  0
CLASS
  1
ACIMDBLSTATICVAR
  2
AcImDblStaticVar
  3
AcMeServices
 90
        0
280
     0
281
     0
  0
CLASS
  1
ACIMSTRSTATICVAR
  2
AcImStrStaticVar
  3
AcMeServices
 90
        0
280
     0
281
     0
  0
CLASS
  1
ACIMINTSTATICVAR
  2
AcImIntStaticVar
  3
AcMeServices
 90
        0
280
     0
281
     0
  0
CLASS
  1
ACASGREFMASTER
  2
AcAsGrefMaster
  3
AutoSurfResolverServices
 90
        0
280
     0
281
     0
  0
CLASS
  1
ACADGREFMODULE
  2
AcAdGrefModule
  3
AdGrefServices
 90
        0
280
     0
281
     0
  0
CLASS
  1
AMDTMAPISURFMOUDULE
  2
AmdtMApiSurfModule
  3
MApiSurfServices
 90
        0
280
     0
281
     0
  0
CLASS
  1
MAPIAMMOUDLE
  2
MApiAmModule
  3
MApiAmServices
 90
        0
280
     0
281
     0
  0
CLASS
  1
AMDTADMENUSTATE
  2
AmdtAdMenuState
  3
DesignerServices
 90
        0
280
     0
281
     0
  0
CLASS
  1
ADAPPL
  2
AcAdAppl
  3
DesignerServices
 90
        0
280
     0
281
     0
  0
CLASS
  1
DEPMGR
  2
AcAdDepMgr
  3
DesignerServices
 90
        0
280
     0
281
     0
  0
CLASS
  1
PARAMMGR
  2
AcAdParamMgr
  3
DesignerServices
 90
        0
280
     0
281
     0
  0
CLASS
  1
PARAMSCOPE
  2
AcAdParamScope
  3
DesignerServices
 90
        0
280
     0
281
     0
  0
CLASS
  1
NAMEDAPPL
  2
AcAdNamedAppl
  3
DesignerServices
 90
        0
280
     0
281
     0
  0
CLASS
  1
ADHNTMPLT
  2
AdHoleNoteTemplateMgr
  3
DesignerServices
 90
    32768
280
     0
281
     0
  0
CLASS
  1
AM_HNTEMPLATE_MGR_NAME
  2
AdHoleNoteTemplateMgrName
  3
DesignerServices
 90
    32768
280
     0
281
     0
  0
CLASS
  1
AMDTDMMENUSTATE
  2
AmdtDmMenuState
  3
AcMechDwgViewMgmt
 90
        0
280
     0
281
     0
  0
CLASS
  1
MAPIADMODULE
  2
MApiAdModule
  3
MApiAdServices
 90
        0
280
     0
281
     0
  0
CLASS
  1
AMDTAMMENUSTATE
  2
AmdtAmMenuState
  3
DesignerAssemblies
 90
        0
280
     0
281
     0
  0
CLASS
  1
ACAMPROJECT
  2
AcAmProject
  3
DesignerAssemblies
 90
        0
280
     0
281
     0
  0
CLASS
  1
ACAMGRCOMPDEF
  2
AcAmGrCompDef
  3
DesignerAssemblies
 90
        0
280
     0
281
     0
  0
CLASS
  1
ACCMCONTEXT
  2
AcCmContext
  3
DesignerAssemblies
 90
        0
280
     0
281
     0
  0
CLASS
  1
ACAMCOMPDEF
  2
AcAmCompDef
  3
DesignerAssemblies
 90
        0
280
     0
281
     0
  0
CLASS
  1
ACAMCOMPDEFMGR
  2
AcAmCompDefMgr
  3
DesignerAssemblies
 90
        0
280
     0
281
     0
  0
CLASS
  1
AMCONTEXTMGR
  2
AcAmContextMgr
  3
DesignerAssemblies
 90
        0
280
     0
281
     0
  0
CLASS
  1
ACAMCONTEXTMODELER
  2
AcAmContextModeler
  3
DesignerAssemblies
 90
        0
280
     0
281
     0
  0
CLASS
  1
CATALOGSTATE
  2
AcAmCatalogState
  3
DesignerAssemblies
 90
        0
280
     0
281
     0
  0
CLASS
  1
ACAMGRCOMPDEFSET
  2
AcAmGrCompDefSet
  3
DesignerAssemblies
 90
        0
280
     0
281
     0
  0
CLASS
  1
AMDTBROWSERDBTAB
  2
AmdtBrowserDbTab
  3
McadcomServices
 90
        0
280
     0
281
     0
  0
CLASS
  1
CBROWSERAPPOBJECT
  2
CBrowserAppObject
  3
McadcomServices
 90
        0
280
     0
281
     0
  0
CLASS
  1
DM_PLACEHOLDER
  2
AcDmSelsetPlaceholder
  3
AcMechDwgViewMgmt
 90
        0
280
     0
281
     0
  0
CLASS
  1
ACMPICKOBJ
  2
AcmPickEnt
  3
"AcmSymBB|Product Description: AutoCAD Mechanical|Company: Autodesk"
 90
    32768
280
     0
281
     1
  0
CLASS
  1
ACMNOTESTANDARDISO
  2
AmdtNoteStdISO
  3
"Amdt_StdImp|Product Description: AutoCAD Mechanical|Company: Autodesk"
 90
        0
280
     0
281
     0
  0
CLASS
  1
ACMNOTESTANDARDANSI
  2
AmdtNoteStdANSI
  3
"Amdt_StdImp|Product Description: AutoCAD Mechanical|Company: Autodesk"
 90
        0
280
     0
281
     0
  0
CLASS
  1
ACMTHREADLINESTANDARDISO
  2
AmdtThreadLineStdISO
  3
"Amdt_StdImp|Product Description: AutoCAD Mechanical|Company: Autodesk"
 90
        0
280
     0
281
     0
  0
CLASS
  1
ACMTHREADLINESTANDARDANSI
  2
AmdtThreadLineStdANSI
  3
"Amdt_StdImp|Product Description: AutoCAD Mechanical|Company: Autodesk"
 90
        0
280
     0
281
     0
  0
CLASS
  1
TABLESTYLE
  2
AcDbTableStyle
  3
ObjectDBX Classes
 90
     4095
280
     0
281
     0
  0
CLASS
  1
SORTENTSTABLE
  2
AcDbSortentsTable
  3
ObjectDBX Classes
 90
        0
280
     0
281
     0
  0
CLASS
  1
MATERIAL
  2
AcDbMaterial
  3
ObjectDBX Classes
 90
     1024
280
     0
281
     0
  0
CLASS
  1
VISUALSTYLE
  2
AcDbVisualStyle
  3
ObjectDBX Classes
 90
     4095
280
     0
281
     0
  0
CLASS
  1
ACRFATTGENMGR
  2
AcRfAttGeneralMgr
  3
AcAttribServices
 90
        0
280
     0
281
     0
  0
CLASS
  1
ACRFOBJATTMGR
  2
AcRfObjAttGroupMgr
  3
AcAttribServices
 90
        0
280
     0
281
     0
  0
CLASS
  1
ACRFMCADAPIATTHOLDER
  2
AcRfMCADAPIAttHolder
  3
AcAttribServices
 90
        0
280
     0
281
     0
  0
CLASS
  1
AMDTSYSATTR
  2
AmdtSystemAttribute
  3
AcAttribServices
 90
        0
280
     0
281
     0
  0
CLASS
  1
ACMTAPERSTANDARDISO
  2
AcmTaperStdISO
  3
"Amdt_StdImp|Product Description: AutoCAD Mechanical|Company: Autodesk"
 90
        0
280
     0
281
     0
  0
CLASS
  1
CAMSSTRUCTBTNSTATE
  2
StructBtnState
  3
L"DesignerAssemblies"
 90
        0
280
     0
281
     0
  0
CLASS
  1
DIMASSOC
  2
AcDbDimAssoc
  3
"AcDbDimAssoc|Product Desc:     AcDim ARX App For Dimension|Company:          Autodesk, Inc.|WEB Address:      www.autodesk.com"
 90
    32768
280
     0
281
     0
  0
CLASS
  1
AMDTNOTETEMPLATEDB
  2
AmdtNoteTemplateDB
  3
AMDT_STDIMP_MODULE_NAME
 90
        0
280
     0
281
     0
  0
CLASS
  1
ACMTAPERSTANDARDANSI
  2
AcmTaperStdANSI
  3
"Amdt_StdImp|Product Description: AutoCAD Mechanical|Company: Autodesk"
 90
        0
280
     0
281
     0
  0
CLASS
  1
ACAMGHOLECHARTSTDANSI
  2
AcAmgHoleChartStdANSI
  3
ACMSYMBB_MODULE_NAME
 90
        0
280
     0
281
     0
  0
ENDSEC
  0
SECTION
  2
TABLES
  0
TABLE
  2
VPORT
  5
8
330
0
100
AcDbSymbolTable
 70
     1
  0
VPORT
  5
B0EC
330
8
100
AcDbSymbolTableRecord
100
AcDbViewportTableRecord
  2
*Active
 70
     0
 10
0.0
 20
0.0
 11
1.0
 21
1.0
 12
148.4963299263702
 22
104.9996944673203
 13
0.0
 23
0.0
 14
2.5
 24
2.5
 15
10.0
 25
10.0
 16
0.0
 26
0.0
 36
1.0
 17
0.0
 27
0.0
 37
0.0
 40
211.7738005485492
 41
1.648648648648648
 42
50.0
 43
-1370.695619172058
 44
-1370.695619172058
 50
0.0
 51
0.0
 71
    16
 72
   100
 73
     1
 74
     3
 75
     0
 76
     0
 77
     0
 78
     0
281
     0
 65
     0
110
0.0
120
0.0
130
0.0
111
1.0
121
0.0
131
0.0
112
0.0
122
1.0
132
0.0
 79
     0
146
0.0
  0
ENDTAB
  0
TABLE
  2
LTYPE
  5
5
330
0
100
AcDbSymbolTable
 70
    32
  0
LTYPE
  5
14
330
5
100
AcDbSymbolTableRecord
100
AcDbLinetypeTableRecord
  2
ByBlock
 70
     0
  3

 72
    65
 73
     0
 40
0.0
  0
LTYPE
  5
15
330
5
100
AcDbSymbolTableRecord
100
AcDbLinetypeTableRecord
  2
ByLayer
 70
     0
  3

 72
    65
 73
     0
 40
0.0
  0
LTYPE
  5
16
330
5
100
AcDbSymbolTableRecord
100
AcDbLinetypeTableRecord
  2
Continuous
 70
     0
  3
Solid line
 72
    65
 73
     0
 40
0.0
  0
LTYPE
  5
4F
330
5
100
AcDbSymbolTableRecord
100
AcDbLinetypeTableRecord
  2
AM_ISO02W050
 70
     0
  3
__ __ __ __ __ __ __ __ __ __ __ __ __ __ __
 72
    65
 73
     2
 40
7.5
 49
6.0
 74
     0
 49
-1.5
 74
     0
  0
LTYPE
  5
52
330
5
100
AcDbSymbolTableRecord
100
AcDbLinetypeTableRecord
  2
Amconstr
 70
     0
  3
_______________________
 72
    65
 73
     2
 40
9999.0
 49
9999.0
 74
     0
 49
0.0
 74
     0
  0
LTYPE
  5
64
330
5
100
AcDbSymbolTableRecord
100
AcDbLinetypeTableRecord
  2
ACISOWELD
 70
     0
  3
_ _ _ _ _
 72
    65
 73
     2
 40
2.0
 49
2.0
 74
     0
 49
-1.0
 74
     0
  0
LTYPE
  5
65
330
5
100
AcDbSymbolTableRecord
100
AcDbLinetypeTableRecord
  2
ACISOTGB
 70
     0
  3
__ . . __ . .
 72
    65
 73
     6
 40
9.0
 49
4.0
 74
     0
 49
-1.0
 74
     0
 49
1.0
 74
     0
 49
-1.0
 74
     0
 49
1.0
 74
     0
 49
-1.0
 74
     0
  0
LTYPE
  5
66
330
5
100
AcDbSymbolTableRecord
100
AcDbLinetypeTableRecord
  2
ACISOTGL
 70
     0
  3
_ _ _ _ _
 72
    65
 73
     2
 40
3.0
 49
2.0
 74
     0
 49
-1.0
 74
     0
  0
LTYPE
  5
69
330
5
100
AcDbSymbolTableRecord
100
AcDbLinetypeTableRecord
  2
CENTER
 70
     0
  3
__ . __
 72
    65
 73
     4
 40
7.0
 49
4.0
 74
     0
 49
-1.0
 74
     0
 49
1.0
 74
     0
 49
-1.0
 74
     0
  0
LTYPE
  5
A6E
330
5
100
AcDbSymbolTableRecord
100
AcDbLinetypeTableRecord
  2
PHANTOM2
 70
     0
  3
Phantom (.5x) ___ _ _ ___ _ _ ___ _ _ ___ _ _
 72
    65
 73
     6
 40
31.75
 49
15.875
 74
     0
 49
-3.174999999999999
 74
     0
 49
3.174999999999999
 74
     0
 49
-3.174999999999999
 74
     0
 49
3.174999999999999
 74
     0
 49
-3.174999999999999
 74
     0
  0
LTYPE
  5
4DED
330
5
100
AcDbSymbolTableRecord
100
AcDbLinetypeTableRecord
  2
中線
 70
     0
  3
___________________
 72
    65
 73
     2
 40
2.0
 49
1.0
 74
     0
 49
1.0
 74
     0
  0
LTYPE
  5
4DF6
330
5
100
AcDbSymbolTableRecord
100
AcDbLinetypeTableRecord
  2
細線
 70
     0
  3
___________________
 72
    65
 73
     2
 40
2.0
 49
1.0
 74
     0
 49
1.0
 74
     0
  0
LTYPE
  5
4DF7
330
5
100
AcDbSymbolTableRecord
100
AcDbLinetypeTableRecord
  2
太線
 70
     0
  3
___________________
 72
    65
 73
     2
 40
2.0
 49
1.0
 74
     0
 49
1.0
 74
     0
  0
LTYPE
  5
4EA7
330
5
100
AcDbSymbolTableRecord
100
AcDbLinetypeTableRecord
  2
文字
 70
     0
  3
_________________
 72
    65
 73
     2
 40
2.0
 49
1.0
 74
     0
 49
1.0
 74
     0
  0
LTYPE
  5
4EA9
330
5
100
AcDbSymbolTableRecord
100
AcDbLinetypeTableRecord
  2
寸法線
 70
     0
  3
________________
 72
    65
 73
     2
 40
2.0
 49
1.0
 74
     0
 49
1.0
 74
     0
  0
LTYPE
  5
4F12
330
5
100
AcDbSymbolTableRecord
100
AcDbLinetypeTableRecord
  2
ハッチング
 70
     0
  3
_________________
 72
    65
 73
     2
 40
2.0
 49
1.0
 74
     0
 49
1.0
 74
     0
  0
LTYPE
  5
5180
330
5
100
AcDbSymbolTableRecord
100
AcDbLinetypeTableRecord
  2
陰線1
 70
     0
  3
__ __ __ __
 72
    65
 73
     2
 40
4.0
 49
2.2
 74
     0
 49
-1.8
 74
     0
  0
LTYPE
  5
5182
330
5
100
AcDbSymbolTableRecord
100
AcDbLinetypeTableRecord
  2
切断線
 70
     0
  3
/\/-/\/-/\/-/\/-/\/-/\/
 72
    65
 73
     2
 40
11.0001
 49
0.0001
 74
     4
 75
   135
340
56
 46
0.04
 50
0.0
 44
0.0
 45
0.0
 49
-11.0
 74
     0
  0
LTYPE
  5
5183
330
5
100
AcDbSymbolTableRecord
100
AcDbLinetypeTableRecord
  2
想像線1
 70
     0
  3
__ __ __ _____ __ __ ____
 72
    65
 73
     6
 40
14.5
 49
6.0
 74
     0
 49
-1.5
 74
     0
 49
2.0
 74
     0
 49
-1.5
 74
     0
 49
2.0
 74
     0
 49
-1.5
 74
     0
  0
LTYPE
  5
5185
330
5
100
AcDbSymbolTableRecord
100
AcDbLinetypeTableRecord
  2
中心線1
 70
     0
  3
___ _ ___ _ ___
 72
    65
 73
     4
 40
18.0
 49
12.0
 74
     0
 49
-2.0
 74
     0
 49
2.0
 74
     0
 49
-2.0
 74
     0
  0
LTYPE
  5
5188
330
5
100
AcDbSymbolTableRecord
100
AcDbLinetypeTableRecord
  2
補助線
 70
     0
  3
______________
 72
    65
 73
     2
 40
2.0
 49
1.0
 74
     0
 49
1.0
 74
     0
  0
LTYPE
  5
6427
330
5
100
AcDbSymbolTableRecord
100
AcDbLinetypeTableRecord
  2
HIDDEN
 70
     0
  3
Hidden __ __ __ __ __ __ __ __ __ __ __ __ __ _
 72
    65
 73
     2
 40
0.375
 49
0.25
 74
     0
 49
-0.125
 74
     0
  0
LTYPE
  5
AC81
330
5
100
AcDbSymbolTableRecord
100
AcDbLinetypeTableRecord
  2
破断線
 70
     0
  3
/\/-/\/-/\/-/\/-/\/-/\/
 72
    65
 73
     2
 40
0.4401
 49
0.0001
 74
     4
 75
   136
340
AC80
 46
0.0016
 50
0.0
 44
0.0
 45
0.0
 49
-0.4400000000000001
 74
     0
  0
LTYPE
  5
AC9E
330
5
100
AcDbSymbolTableRecord
100
AcDbLinetypeTableRecord
  2
Amzigzag
 70
     0
  3
/\/-/\/-/\/-/\/-/\/-/\/
 72
    65
 73
     2
 40
11.0001
 49
0.0001
 74
     4
 75
   135
340
56
 46
0.04
 50
0.0
 44
0.0
 45
0.0
 49
-11.0
 74
     0
  0
LTYPE
  5
AF0F
330
5
100
AcDbSymbolTableRecord
100
AcDbLinetypeTableRecord
  2
genzigzag
 70
     0
  3
/\/-/\/-/\/-/\/-/\/-/\/
 72
    65
 73
     2
 40
12.0001
 49
0.0001
 74
     4
 75
   135
340
AC80
 46
2.0
 50
0.0
 44
0.0
 45
0.0
 49
-12.0
 74
     0
  0
LTYPE
  5
AF95
330
5
100
AcDbSymbolTableRecord
100
AcDbLinetypeTableRecord
  2
AM_ISO08W050
 70
     0
  3
____ . ____ . ____ . ____ . ____ . ____ . ____
 72
    65
 73
     4
 40
18.0
 49
12.0
 74
     0
 49
-1.5
 74
     0
 49
3.0
 74
     0
 49
-1.5
 74
     0
  0
LTYPE
  5
AF96
330
5
100
AcDbSymbolTableRecord
100
AcDbLinetypeTableRecord
  2
AM_ISO09W050
 70
     0
  3
_____ . . _____ . . _____ . . ____ .. ____
 72
    65
 73
     6
 40
22.5
 49
12.0
 74
     0
 49
-1.5
 74
     0
 49
3.0
 74
     0
 49
-1.5
 74
     0
 49
3.0
 74
     0
 49
-1.5
 74
     0
  0
LTYPE
  5
AF97
330
5
100
AcDbSymbolTableRecord
100
AcDbLinetypeTableRecord
  2
AM_ISO08W050x2
 70
     0
  3
__ . __ . __ . __ . __ . __
 72
    65
 73
     4
 40
9.0
 49
6.0
 74
     0
 49
-0.75
 74
     0
 49
1.5
 74
     0
 49
-0.75
 74
     0
  0
LTYPE
  5
AF98
330
5
100
AcDbSymbolTableRecord
100
AcDbLinetypeTableRecord
  2
AM_ISO02W050x2
 70
     0
  3
 _ _ _ _ _ _ _ _ _ _ _ _
 72
    65
 73
     2
 40
3.75
 49
3.0
 74
     0
 49
-0.75
 74
     0
  0
LTYPE
  5
B541
330
5
100
AcDbSymbolTableRecord
100
AcDbLinetypeTableRecord
  2
CENTER2
 70
     0
  3
__ _ __ _ __ _
 72
    65
 73
     4
 40
10.0
 49
7.0
 74
     0
 49
-1.0
 74
     0
 49
1.0
 74
     0
 49
-1.0
 74
     0
  0
LTYPE
  5
B542
330
5
100
AcDbSymbolTableRecord
100
AcDbLinetypeTableRecord
  2
HIDDEN2
 70
     0
  3
Hidden (.5x) _ _ _ _ _ _ _ _ _ _ _ _ _ _ _ _ _
 72
    65
 73
     2
 40
0.1875
 49
0.125
 74
     0
 49
-0.0625
 74
     0
  0
LTYPE
  5
B543
330
5
100
AcDbSymbolTableRecord
100
AcDbLinetypeTableRecord
  2
Amzigzag2
 70
     0
  3
/\/-/\/-/\/-/\/-/\/-/\/
 72
    65
 73
     2
 40
0.4401
 49
0.0001
 74
     4
 75
   136
340
AC80
 46
0.0016
 50
0.0
 44
0.0
 45
0.0
 49
-0.4400000000000001
 74
     0
  0
LTYPE
  5
B544
330
5
100
AcDbSymbolTableRecord
100
AcDbLinetypeTableRecord
  2
ACANSTGB
 70
     0
  3
__ . . __ . .
 72
    65
 73
     6
 40
0.35433070866
 49
0.15748031496
 74
     0
 49
-0.03937007874
 74
     0
 49
0.03937007874
 74
     0
 49
-0.03937007874
 74
     0
 49
0.03937007874
 74
     0
 49
-0.03937007874
 74
     0
  0
LTYPE
  5
B545
330
5
100
AcDbSymbolTableRecord
100
AcDbLinetypeTableRecord
  2
ACANSTGL
 70
     0
  3
_ _ _ _ _
 72
    65
 73
     2
 40
0.11811023622
 49
0.07874015748
 74
     0
 49
-0.03937007874
 74
     0
  0
ENDTAB
  0
TABLE
  2
LAYER
  5
2
102
{ACAD_XDICTIONARY
360
3F95
102
}
330
0
100
AcDbSymbolTable
 70
    30
  0
LAYER
  5
10
330
2
100
AcDbSymbolTableRecord
100
AcDbLayerTableRecord
  2
0
 70
     0
 62
     7
  6
Continuous
370
    -3
390
F
  0
LAYER
  5
6D1
330
2
100
AcDbSymbolTableRecord
100
AcDbLayerTableRecord
  2
Defpoints
 70
     0
 62
     7
  6
Continuous
290
     0
370
    -3
390
F
  0
LAYER
  5
5F85
330
2
100
AcDbSymbolTableRecord
100
AcDbLayerTableRecord
  2
AM_0
 70
     0
 62
     7
  6
中線
370
    30
390
F
1001
AcAecLayerStandard
1000

1000

  0
LAYER
  5
AC9F
330
2
100
AcDbSymbolTableRecord
100
AcDbLayerTableRecord
  2
size
 70
     0
 62
     5
  6
Continuous
290
     0
370
    25
390
F
  0
LAYER
  5
ACA0
330
2
100
AcDbSymbolTableRecord
100
AcDbLayerTableRecord
  2
waku
 70
     0
 62
     7
  6
Continuous
370
    35
390
F
  0
LAYER
  5
ACA1
330
2
100
AcDbSymbolTableRecord
100
AcDbLayerTableRecord
  2
AM_6
 70
     0
 62
     2
  6
文字
370
    13
390
F
1001
AcAecLayerStandard
1000

1000

  0
LAYER
  5
ACC8
330
2
100
AcDbSymbolTableRecord
100
AcDbLayerTableRecord
  2
hyomoji
 70
     0
 62
     2
  6
Continuous
370
    13
390
F
  0
LAYER
  5
ACC9
330
2
100
AcDbSymbolTableRecord
100
AcDbLayerTableRecord
  2
hyosen1
 70
     0
 62
     1
  6
Continuous
370
    25
390
F
  0
LAYER
  5
ACCA
330
2
100
AcDbSymbolTableRecord
100
AcDbLayerTableRecord
  2
hyosen2
 70
     0
 62
     1
  6
Continuous
370
    13
390
F
  0
LAYER
  5
AD60
330
2
100
AcDbSymbolTableRecord
100
AcDbLayerTableRecord
  2
AM_1
 70
     0
 62
    30
  6
太線
370
    40
390
F
1001
AcAecLayerStandard
1000

1000

  0
LAYER
  5
AD64
330
2
100
AcDbSymbolTableRecord
100
AcDbLayerTableRecord
  2
AM_2
 70
     0
 62
     1
  6
細線
370
    13
390
F
1001
AcAecLayerStandard
1000

1000

  0
LAYER
  5
AD67
330
2
100
AcDbSymbolTableRecord
100
AcDbLayerTableRecord
  2
AM_3
 70
     0
 62
     6
  6
陰線1
370
    13
390
F
1001
AcAecLayerStandard
1000

1000

  0
LAYER
  5
AD68
330
2
100
AcDbSymbolTableRecord
100
AcDbLayerTableRecord
  2
AM_5
 70
     0
 62
     3
  6
寸法線
370
    13
390
F
1001
AcAecLayerStandard
1000

1000

  0
LAYER
  5
AD69
330
2
100
AcDbSymbolTableRecord
100
AcDbLayerTableRecord
  2
AM_7
 70
     0
 62
     4
  6
中心線1
370
    13
390
F
1001
AcAecLayerStandard
1000

1000

  0
LAYER
  5
AD6A
330
2
100
AcDbSymbolTableRecord
100
AcDbLayerTableRecord
  2
AM_8
 70
     0
 62
     1
  6
ハッチング
370
    13
390
F
1001
AcAecLayerStandard
1000

1000

  0
LAYER
  5
AD6E
330
2
100
AcDbSymbolTableRecord
100
AcDbLayerTableRecord
  2
AM_10
 70
     0
 62
     7
  6
切断線
370
    13
390
F
1001
AcAecLayerStandard
1000

1000

  0
LAYER
  5
AD6F
330
2
100
AcDbSymbolTableRecord
100
AcDbLayerTableRecord
  2
AM_11
 70
     0
 62
     2
  6
想像線1
370
    13
390
F
1001
AcAecLayerStandard
1000

1000

  0
LAYER
  5
B1B6
330
2
100
AcDbSymbolTableRecord
100
AcDbLayerTableRecord
  2
AM_CL
 70
     1
 62
    -1
  6
Amconstr
370
    15
390
F
1001
AcAecLayerStandard
1000

1000

  0
LAYER
  5
B2EB
330
2
100
AcDbSymbolTableRecord
100
AcDbLayerTableRecord
  2
AM_14
 70
     0
 62
     5
  6
細線
370
     9
390
F
1001
AcAecLayerStandard
1000

1000

  0
LAYER
  5
B2EC
330
2
100
AcDbSymbolTableRecord
100
AcDbLayerTableRecord
  2
AM_15
 70
     0
 62
     6
  6
陰線1
370
     9
390
F
1001
AcAecLayerStandard
1000

1000

  0
LAYER
  5
B502
330
2
100
AcDbSymbolTableRecord
100
AcDbLayerTableRecord
  2
AM_4
 70
     0
 62
     3
  6
補助線
370
    15
390
F
1001
AcAecLayerStandard
1000

1000

  0
LAYER
  5
B546
330
2
100
AcDbSymbolTableRecord
100
AcDbLayerTableRecord
  2
1
 70
     0
 62
     7
  6
Continuous
370
    -3
390
F
  0
LAYER
  5
B791
330
2
100
AcDbSymbolTableRecord
100
AcDbLayerTableRecord
  2
想像線
 70
     0
 62
     5
  6
PHANTOM2
370
    -3
390
F
  0
LAYER
  5
B792
330
2
100
AcDbSymbolTableRecord
100
AcDbLayerTableRecord
  2
実線
 70
     0
 62
     7
  6
Continuous
370
    -3
390
F
  0
LAYER
  5
B793
330
2
100
AcDbSymbolTableRecord
100
AcDbLayerTableRecord
  2
中心線
 70
     0
 62
     2
  6
CENTER2
370
    -3
390
F
  0
LAYER
  5
B794
330
2
100
AcDbSymbolTableRecord
100
AcDbLayerTableRecord
  2
隠れ線
 70
     0
 62
     4
  6
HIDDEN2
370
    -3
390
F
  0
LAYER
  5
B795
330
2
100
AcDbSymbolTableRecord
100
AcDbLayerTableRecord
  2
細線
 70
     0
 62
     4
  6
Continuous
370
    -3
390
F
  0
LAYER
  5
B796
330
2
100
AcDbSymbolTableRecord
100
AcDbLayerTableRecord
  2
文字
 70
     0
 62
     1
  6
Continuous
370
    -3
390
F
  0
LAYER
  5
BD5F
330
2
100
AcDbSymbolTableRecord
100
AcDbLayerTableRecord
  2
2
 70
     0
 62
     7
  6
Continuous
370
    -3
390
F
  0
LAYER
  5
BD60
330
2
100
AcDbSymbolTableRecord
100
AcDbLayerTableRecord
  2
3
 70
     0
 62
     7
  6
Continuous
370
    -3
390
F
  0
ENDTAB
  0
TABLE
  2
STYLE
  5
3
330
0
100
AcDbSymbolTable
 70
     8
  0
STYLE
  5
11
330
3
100
AcDbSymbolTableRecord
100
AcDbTextStyleTableRecord
  2
STANDARD
 70
     0
 40
0.0
 41
0.7
 50
0.0
 71
     0
 42
3.2
  3
romans.shx
  4
extfont.shx
  0
STYLE
  5
56
330
3
100
AcDbSymbolTableRecord
100
AcDbTextStyleTableRecord
  2

 70
     1
 40
0.0
 41
1.0
 50
0.0
 71
     0
 42
2.5
  3
ltypeshp.shx
  4

  0
STYLE
  5
58
330
3
100
AcDbSymbolTableRecord
100
AcDbTextStyleTableRecord
  2
ACISOTS
 70
     0
 40
1.0
 41
1.0
 50
0.0
 71
     0
 42
2.5
  3
isocp.shx
  4
extfont.shx
  0
STYLE
  5
63
330
3
100
AcDbSymbolTableRecord
100
AcDbTextStyleTableRecord
  2
ACISOGDT
 70
     0
 40
0.0
 41
1.0
 50
0.0
 71
     0
 42
2.5
  3
amgdt.shx
  4

  0
STYLE
  5
A74
330
3
100
AcDbSymbolTableRecord
100
AcDbTextStyleTableRecord
  2
DIM
 70
     0
 40
0.0
 41
1.0
 50
0.0
 71
     0
 42
2.5
  3
monotxt.shx
  4
extfont.shx
  0
STYLE
  5
AC80
330
3
100
AcDbSymbolTableRecord
100
AcDbTextStyleTableRecord
  2

 70
     1
 40
0.0
 41
1.0
 50
0.0
 71
     0
 42
3.2
  3
genltshp.shx
  4

  0
STYLE
  5
B547
330
3
100
AcDbSymbolTableRecord
100
AcDbTextStyleTableRecord
  2
ACANSTS
 70
     0
 40
1.0
 41
1.0
 50
0.0
 71
     0
 42
0.2
  3
romans.shx
  4
extfont.shx
  0
STYLE
  5
B548
330
3
100
AcDbSymbolTableRecord
100
AcDbTextStyleTableRecord
  2
ACANSGDT
 70
     0
 40
0.0
 41
1.0
 50
0.0
 71
     0
 42
0.2
  3
amgdt.shx
  4

  0
ENDTAB
  0
TABLE
  2
VIEW
  5
6
330
0
100
AcDbSymbolTable
 70
     6
  0
VIEW
  5
AE1
330
6
100
AcDbSymbolTableRecord
100
AcDbViewTableRecord
  2
AM_VIEW1
 70
     0
 40
129.7276464542651
 10
1775.10588156276
 20
1793.121228859297
 41
148.5
 11
0.0
 21
0.0
 31
1.0
 12
0.0
 22
0.0
 32
0.0
 42
50.0
 43
-1370.695619172058
 44
-1370.695619172058
 50
0.0
 71
    16
281
     0
 72
     0
  0
VIEW
  5
AE2
330
6
100
AcDbSymbolTableRecord
100
AcDbViewTableRecord
  2
AM_VIEW2
 70
     0
 40
129.7276464542651
 10
1923.60588156276
 20
1793.121228859297
 41
148.5
 11
0.0
 21
0.0
 31
1.0
 12
0.0
 22
0.0
 32
0.0
 42
50.0
 43
-1370.695619172058
 44
-1370.695619172058
 50
0.0
 71
    16
281
     0
 72
     0
  0
VIEW
  5
AE3
330
6
100
AcDbSymbolTableRecord
100
AcDbViewTableRecord
  2
AM_VIEW3
 70
     0
 40
129.7276464542651
 10
1775.10588156276
 20
1712.848875313562
 41
148.5
 11
0.0
 21
0.0
 31
1.0
 12
0.0
 22
0.0
 32
0.0
 42
50.0
 43
-1370.695619172058
 44
-1370.695619172058
 50
0.0
 71
    16
281
     0
 72
     0
  0
VIEW
  5
AE4
330
6
100
AcDbSymbolTableRecord
100
AcDbViewTableRecord
  2
AM_VIEW4
 70
     0
 40
129.7276464542651
 10
1923.60588156276
 20
1712.848875313562
 41
148.5
 11
0.0
 21
0.0
 31
1.0
 12
0.0
 22
0.0
 32
0.0
 42
50.0
 43
-1370.695619172058
 44
-1370.695619172058
 50
0.0
 71
    16
281
     0
 72
     0
  0
VIEW
  5
AE5
330
6
100
AcDbSymbolTableRecord
100
AcDbViewTableRecord
  2
AM_VIEW5
 70
     0
 40
129.7276464542651
 10
1849.35588156276
 20
1752.985052086429
 41
148.5
 11
0.0
 21
0.0
 31
1.0
 12
0.0
 22
0.0
 32
0.0
 42
50.0
 43
-1370.695619172058
 44
-1370.695619172058
 50
0.0
 71
    16
281
     0
 72
     0
  0
VIEW
  5
AE6
330
6
100
AcDbSymbolTableRecord
100
AcDbViewTableRecord
  2
AM_VIEW6
 70
     0
 40
259.4526983556011
 10
1849.35588156276
 20
1752.985052086429
 41
296.99703
 11
0.0
 21
0.0
 31
1.0
 12
0.0
 22
0.0
 32
0.0
 42
50.0
 43
-1370.695619172058
 44
-1370.695619172058
 50
0.0
 71
    16
281
     0
 72
     0
  0
ENDTAB
  0
TABLE
  2
UCS
  5
7
330
0
100
AcDbSymbolTable
 70
     0
  0
ENDTAB
  0
TABLE
  2
APPID
  5
9
330
0
100
AcDbSymbolTable
 70
    55
  0
APPID
  5
12
330
9
100
AcDbSymbolTableRecord
100
AcDbRegAppTableRecord
  2
ACAD
 70
     0
  0
APPID
  5
30
330
9
100
AcDbSymbolTableRecord
100
AcDbRegAppTableRecord
  2
MCAD_NO_VIS
 70
     0
  0
APPID
  5
31
330
9
100
AcDbSymbolTableRecord
100
AcDbRegAppTableRecord
  2
ACAD_TEMP_GRAPHIC
 70
     0
  0
APPID
  5
44
330
9
100
AcDbSymbolTableRecord
100
AcDbRegAppTableRecord
  2
ACATTRIBSERVICES
 70
     0
  0
APPID
  5
7A1
330
9
100
AcDbSymbolTableRecord
100
AcDbRegAppTableRecord
  2
GENIUS_GENDIMSH_14
 70
     0
  0
APPID
  5
A49
330
9
100
AcDbSymbolTableRecord
100
AcDbRegAppTableRecord
  2
GENIUS_GENREC_14
 70
     0
  0
APPID
  5
A4A
330
9
100
AcDbSymbolTableRecord
100
AcDbRegAppTableRecord
  2
GENIUS_GENOBJ-N-REC_13
 70
     0
  0
APPID
  5
A4B
330
9
100
AcDbSymbolTableRecord
100
AcDbRegAppTableRecord
  2
GENIUS_GENODEF_13
 70
     0
  0
APPID
  5
A4C
330
9
100
AcDbSymbolTableRecord
100
AcDbRegAppTableRecord
  2
DCO15
 70
     0
  0
APPID
  5
ADC
330
9
100
AcDbSymbolTableRecord
100
AcDbRegAppTableRecord
  2
GENIUS_GENOLIS_13
 70
     0
  0
APPID
  5
ADD
330
9
100
AcDbSymbolTableRecord
100
AcDbRegAppTableRecord
  2
GENIUS_GENOENT_13
 70
     0
  0
APPID
  5
ADE
330
9
100
AcDbSymbolTableRecord
100
AcDbRegAppTableRecord
  2
GENIUS_GENOBJ-N-TIT_13
 70
     0
  0
APPID
  5
ADF
330
9
100
AcDbSymbolTableRecord
100
AcDbRegAppTableRecord
  2
GENIUS_GENTITLE_13
 70
     0
  0
APPID
  5
AE0
330
9
100
AcDbSymbolTableRecord
100
AcDbRegAppTableRecord
  2
GENIUS_GENOREF_13
 70
     0
  0
APPID
  5
AE7
330
9
100
AcDbSymbolTableRecord
100
AcDbRegAppTableRecord
  2
GENIUS_GENSCREG_15
 70
     0
  0
APPID
  5
AE8
330
9
100
AcDbSymbolTableRecord
100
AcDbRegAppTableRecord
  2
GENIUS_GENOBJ-N-SDF_13
 70
     0
  0
APPID
  5
FAF
330
9
100
AcDbSymbolTableRecord
100
AcDbRegAppTableRecord
  2
GENIUS_GENBLLY_14
 70
     0
  0
APPID
  5
FB0
330
9
100
AcDbSymbolTableRecord
100
AcDbRegAppTableRecord
  2
GENIUS_GENTRA_14
 70
     0
  0
APPID
  5
1285
330
9
100
AcDbSymbolTableRecord
100
AcDbRegAppTableRecord
  2
GENIUS_GENDTOL_13
 70
     0
  0
APPID
  5
142D
330
9
100
AcDbSymbolTableRecord
100
AcDbRegAppTableRecord
  2
GENIUS_GENOBJ-N-CEN_13
 70
     0
  0
APPID
  5
1AB5
330
9
100
AcDbSymbolTableRecord
100
AcDbRegAppTableRecord
  2
GENIUS_GENOBJ-N-CRS_13
 70
     0
  0
APPID
  5
1B36
330
9
100
AcDbSymbolTableRecord
100
AcDbRegAppTableRecord
  2
GENIUS_GENOBJ-N-HTC_13
 70
     0
  0
APPID
  5
1B37
330
9
100
AcDbSymbolTableRecord
100
AcDbRegAppTableRecord
  2
GENIUS_GENHATCH_13
 70
     0
  0
APPID
  5
216D
330
9
100
AcDbSymbolTableRecord
100
AcDbRegAppTableRecord
  2
GENIUS_GENOBJ-N-FIL_13
 70
     0
  0
APPID
  5
2356
330
9
100
AcDbSymbolTableRecord
100
AcDbRegAppTableRecord
  2
GEVID990412420
 70
     0
  0
APPID
  5
2357
330
9
100
AcDbSymbolTableRecord
100
AcDbRegAppTableRecord
  2
GEVDC
 70
     0
  0
APPID
  5
2358
330
9
100
AcDbSymbolTableRecord
100
AcDbRegAppTableRecord
  2
GEVCON
 70
     0
  0
APPID
  5
235B
330
9
100
AcDbSymbolTableRecord
100
AcDbRegAppTableRecord
  2
GEVRADREF
 70
     0
  0
APPID
  5
2360
330
9
100
AcDbSymbolTableRecord
100
AcDbRegAppTableRecord
  2
GENIUS_GENBH_13
 70
     0
  0
APPID
  5
2362
330
9
100
AcDbSymbolTableRecord
100
AcDbRegAppTableRecord
  2
GENIUS_GENOBJ-NBEHI-BHF_13
 70
     0
  0
APPID
  5
2364
330
9
100
AcDbSymbolTableRecord
100
AcDbRegAppTableRecord
  2
GENIUS_GENOBJ-NBEHI-BHB_13
 70
     0
  0
APPID
  5
2379
330
9
100
AcDbSymbolTableRecord
100
AcDbRegAppTableRecord
  2
GENIUS_GENOBJ-F-SCPASSM_13
 70
     0
  0
APPID
  5
3D74
330
9
100
AcDbSymbolTableRecord
100
AcDbRegAppTableRecord
  2
GENIUS_GENDIM_13
 70
     0
  0
APPID
  5
3D76
330
9
100
AcDbSymbolTableRecord
100
AcDbRegAppTableRecord
  2
GENIUS_GE3DTOL_13
 70
     0
  0
APPID
  5
3D9C
330
9
100
AcDbSymbolTableRecord
100
AcDbRegAppTableRecord
  2
AD_DRAW
 70
     0
  0
APPID
  5
3DE8
330
9
100
AcDbSymbolTableRecord
100
AcDbRegAppTableRecord
  2
ASURF_PCURVE_APPNAME
 70
     0
  0
APPID
  5
3DED
330
9
100
AcDbSymbolTableRecord
100
AcDbRegAppTableRecord
  2
AMG_3D2D_5.0
 70
     0
  0
APPID
  5
3E1B
330
9
100
AcDbSymbolTableRecord
100
AcDbRegAppTableRecord
  2
DESIGNERASSEMBLIES
 70
     0
  0
APPID
  5
3E20
330
9
100
AcDbSymbolTableRecord
100
AcDbRegAppTableRecord
  2
ACADM_DIM_EDIT
 70
     0
  0
APPID
  5
3E21
330
9
100
AcDbSymbolTableRecord
100
AcDbRegAppTableRecord
  2
AMDT_DM_ADJ
 70
     0
  0
APPID
  5
4143
330
9
100
AcDbSymbolTableRecord
100
AcDbRegAppTableRecord
  2
GENIUS_GENFIL_13
 70
     0
  0
APPID
  5
4144
330
9
100
AcDbSymbolTableRecord
100
AcDbRegAppTableRecord
  2
GENIUS_GENOBJ-N-CHA_13
 70
     0
  0
APPID
  5
4E17
330
9
100
AcDbSymbolTableRecord
100
AcDbRegAppTableRecord
  2
GEVID1008153417
 70
     0
  0
APPID
  5
4E58
330
9
100
AcDbSymbolTableRecord
100
AcDbRegAppTableRecord
  2
GEVID1008153418
 70
     0
  0
APPID
  5
4E5E
330
9
100
AcDbSymbolTableRecord
100
AcDbRegAppTableRecord
  2
GEVID1008153419
 70
     0
  0
APPID
  5
4E64
330
9
100
AcDbSymbolTableRecord
100
AcDbRegAppTableRecord
  2
GEVID1008153420
 70
     0
  0
APPID
  5
4E75
330
9
100
AcDbSymbolTableRecord
100
AcDbRegAppTableRecord
  2
GEVID1008153421
 70
     0
  0
APPID
  5
4EB7
330
9
100
AcDbSymbolTableRecord
100
AcDbRegAppTableRecord
  2
GENIUS_AMGTXT_16
 70
     0
  0
APPID
  5
7645
330
9
100
AcDbSymbolTableRecord
100
AcDbRegAppTableRecord
  2
GENIUS_GENOBJ-N-DIM_13
 70
     0
  0
APPID
  5
AAD0
330
9
100
AcDbSymbolTableRecord
100
AcDbRegAppTableRecord
  2
ACAD_DSTYLE_DIMARC_LENGTH_SYMBOL
 70
     0
  0
APPID
  5
AAD1
330
9
100
AcDbSymbolTableRecord
100
AcDbRegAppTableRecord
  2
ACAD_DSTYLE_DIMJOGGED_JOGANGLE_SYMBOL
 70
     0
  0
APPID
  5
AAFD
330
9
100
AcDbSymbolTableRecord
100
AcDbRegAppTableRecord
  2
ACAD_PSEXT
 70
     0
  0
APPID
  5
AD61
330
9
100
AcDbSymbolTableRecord
100
AcDbRegAppTableRecord
  2
AcAecLayerStandard
 70
     0
  0
APPID
  5
AEE3
330
9
100
AcDbSymbolTableRecord
100
AcDbRegAppTableRecord
  2
ACAD_EXEMPT_FROM_CAD_STANDARDS
 70
     0
  0
APPID
  5
B1BE
330
9
100
AcDbSymbolTableRecord
100
AcDbRegAppTableRecord
  2
GENIUS_GENCEN_19
 70
     0
  0
ENDTAB
  0
TABLE
  2
DIMSTYLE
  5
A
330
0
100
AcDbSymbolTable
 70
    24
100
AcDbDimStyleTable
 71
     1
340
2515
  0
DIMSTYLE
105
A76
330
A
100
AcDbSymbolTableRecord
100
AcDbDimStyleTableRecord
  2
STANDARD
 70
     0
 41
3.0
 42
1.0
 43
7.0
 44
2.0
 73
     0
 74
     0
 77
     1
140
2.799999999999999
141
0.0
143
0.0394
147
0.7
171
     4
172
     1
173
     1
176
     3
177
     3
178
     2
271
     3
272
     3
273
     8
274
     4
289
     0
340
A74
341
A66
343
A66
344
A66
  0
DIMSTYLE
105
2515
330
A
100
AcDbSymbolTableRecord
100
AcDbDimStyleTableRecord
  2
SYS
 70
     0
  4
"
 41
1.0
 42
1.0
 43
10.0
 44
1.0
 47
0.1
 48
0.1
 73
     0
 74
     0
 77
     1
 78
     8
 79
     2
140
3.5
141
0.0
143
0.0393701
146
0.71
147
1.5
172
     1
176
   256
177
   256
178
     7
271
     2
272
     2
283
     0
284
     8
340
11
371
    -1
372
    -1
1001
ACAD_DSTYLE_DIMJOGGED_JOGANGLE_SYMBOL
1070
   384
1040
0.7853981633974483
1001
ACAD_DSTYLE_DIMARC_LENGTH_SYMBOL
1070
   379
1070
     1
  0
DIMSTYLE
105
2516
102
{ACAD_REACTORS
330
C745
102
}
330
A
100
AcDbSymbolTableRecord
100
AcDbDimStyleTableRecord
  2
SYS$3
 70
     0
  4
"
 41
2.0
 42
1.0
 43
10.0
 44
1.0
 47
0.1
 48
0.1
 73
     0
 77
     1
 78
     8
 79
     2
140
3.5
141
0.0
143
0.0393701
146
0.71
147
1.5
176
   256
177
   256
178
     2
271
     2
272
     2
283
     0
284
     8
288
     1
340
11
342
A66
371
    -1
372
    -1
1001
ACAD_DSTYLE_DIMJOGGED_JOGANGLE_SYMBOL
1070
   384
1040
0.7853981633974483
1001
ACAD_DSTYLE_DIMARC_LENGTH_SYMBOL
1070
   379
1070
     1
  0
DIMSTYLE
105
2517
102
{ACAD_REACTORS
330
C712
102
}
330
A
100
AcDbSymbolTableRecord
100
AcDbDimStyleTableRecord
  2
SYS$4
 70
     0
  4
"
 41
2.0
 42
1.0
 43
10.0
 44
1.0
 47
0.1
 48
0.1
 73
     0
 77
     1
 78
     8
 79
     2
140
3.5
141
0.0
143
0.0393701
146
0.71
147
1.5
173
     1
176
   256
177
   256
178
     2
271
     2
272
     2
283
     0
284
     8
288
     1
340
11
344
A66
371
    -1
372
    -1
1001
ACAD_DSTYLE_DIMJOGGED_JOGANGLE_SYMBOL
1070
   384
1040
0.7853981633974483
1001
ACAD_DSTYLE_DIMARC_LENGTH_SYMBOL
1070
   379
1070
     1
  0
DIMSTYLE
105
2518
330
A
100
AcDbSymbolTableRecord
100
AcDbDimStyleTableRecord
  2
SYS$6
 70
     0
  4
"
 41
2.0
 42
1.0
 43
10.0
 44
1.0
 47
0.1
 48
0.1
 73
     0
 74
     0
 78
     8
 79
     2
140
3.5
141
0.0
143
0.0393701
146
0.71
147
1.5
172
     1
176
   256
177
   256
178
     2
271
     2
272
     2
283
     0
284
     8
340
11
341
A66
371
    -1
372
    -1
1001
ACAD_DSTYLE_DIMJOGGED_JOGANGLE_SYMBOL
1070
   384
1040
0.7853981633974483
1001
ACAD_DSTYLE_DIMARC_LENGTH_SYMBOL
1070
   379
1070
     1
  0
DIMSTYLE
105
2519
330
A
100
AcDbSymbolTableRecord
100
AcDbDimStyleTableRecord
  2
SYS$7
 70
     0
  4
"
 41
2.0
 42
1.0
 43
10.0
 44
1.0
 47
0.1
 48
0.1
 73
     0
 74
     0
 77
     1
 78
     8
 79
     2
140
5.0
141
0.0
143
0.0393701
146
0.71
147
1.5
172
     1
176
   256
177
   256
178
     2
271
     2
272
     2
283
     0
284
     8
340
11
341
A66
342
A66
371
    -1
372
    -1
1001
ACAD_DSTYLE_DIMJOGGED_JOGANGLE_SYMBOL
1070
   384
1040
0.7853981633974483
1001
ACAD_DSTYLE_DIMARC_LENGTH_SYMBOL
1070
   379
1070
     1
  0
DIMSTYLE
105
251A
330
A
100
AcDbSymbolTableRecord
100
AcDbDimStyleTableRecord
  2
SYS$SF
 70
     0
  4
"
 41
2.5
 42
1.0
 43
10.0
 44
1.0
 47
0.1
 48
0.1
 73
     0
 74
     0
 75
     1
 76
     1
 77
     1
 78
     8
 79
     2
140
3.5
141
0.0
143
0.0393701
146
0.71
147
1.5
172
     1
176
   256
177
   256
178
     2
271
     2
272
     3
283
     0
284
     8
340
11
341
6C4
342
6C4
371
    -1
372
    -1
1001
ACAD_DSTYLE_DIMJOGGED_JOGANGLE_SYMBOL
1070
   384
1040
0.7853981633974483
1001
ACAD_DSTYLE_DIMARC_LENGTH_SYMBOL
1070
   379
1070
     1
  0
DIMSTYLE
105
251B
330
A
100
AcDbSymbolTableRecord
100
AcDbDimStyleTableRecord
  2
SYS$SH
 70
     0
  4
"
 41
2.5
 42
1.0
 43
10.0
 44
1.0
 47
0.1
 48
0.1
 73
     0
 74
     0
 75
     1
 76
     1
 77
     1
 78
     8
 79
     2
140
3.5
141
0.0
143
0.0393701
144
2.0
146
0.71
147
1.5
172
     1
173
     1
176
   256
177
   256
178
     2
271
     2
272
     3
283
     0
284
     8
340
11
341
6C4
343
72
344
6C4
371
    -1
372
    -1
1001
ACAD_DSTYLE_DIMJOGGED_JOGANGLE_SYMBOL
1070
   384
1040
0.7853981633974483
1001
ACAD_DSTYLE_DIMARC_LENGTH_SYMBOL
1070
   379
1070
     1
  0
DIMSTYLE
105
2A59
330
A
100
AcDbSymbolTableRecord
100
AcDbDimStyleTableRecord
  2
SYS$2
 70
     0
  4
"
 41
1.0
 42
1.0
 43
10.0
 44
1.0
 47
0.1
 48
0.1
 73
     0
 74
     0
 77
     1
 78
     8
 79
     2
140
3.5
141
0.0
143
0.0393701
146
0.71
147
1.5
172
     1
176
   256
177
   256
178
     2
271
     2
272
     2
283
     0
284
     8
340
11
342
6C4
371
    -1
372
    -1
1001
ACAD_DSTYLE_DIMJOGGED_JOGANGLE_SYMBOL
1070
   384
1040
0.7853981633974483
1001
ACAD_DSTYLE_DIMARC_LENGTH_SYMBOL
1070
   379
1070
     1
  0
DIMSTYLE
105
2AAB
102
{ACAD_REACTORS
330
C4BB
330
C4DA
330
C50B
330
C52A
330
C55B
330
C580
330
C60F
330
C668
330
C68D
330
C6AC
330
C6C2
330
C6D8
102
}
330
A
100
AcDbSymbolTableRecord
100
AcDbDimStyleTableRecord
  2
SYS$0
 70
     0
  4
"
 41
1.0
 42
1.0
 43
10.0
 44
1.0
 47
0.1
 48
0.1
 73
     0
 74
     0
 77
     1
 78
     8
 79
     2
140
3.200000000000001
141
0.0
143
0.0393701
146
0.71
147
1.5
172
     1
176
   256
177
   256
178
     2
271
     2
272
     2
283
     0
284
     8
340
11
341
A66
342
6C4
371
    -1
372
    -1
1001
ACAD_DSTYLE_DIMJOGGED_JOGANGLE_SYMBOL
1070
   384
1040
0.7853981633974483
1001
ACAD_DSTYLE_DIMARC_LENGTH_SYMBOL
1070
   379
1070
     1
  0
DIMSTYLE
105
AF99
330
A
100
AcDbSymbolTableRecord
100
AcDbDimStyleTableRecord
  2
AM_ISO
 70
     0
  4
"
 41
2.5
 42
1.0
 43
10.0
 44
1.0
 47
0.1
 48
0.1
 73
     0
 74
     0
 77
     1
 78
     8
 79
     2
140
3.5
141
0.0
143
0.0393701
146
0.71
147
1.5
172
     1
176
   256
177
   256
178
     2
271
     2
272
     3
274
     4
283
     0
284
     8
340
11
371
    -1
372
    -1
  0
DIMSTYLE
105
AF9A
330
A
100
AcDbSymbolTableRecord
100
AcDbDimStyleTableRecord
  2
AM_ISO$3
 70
     0
  4
"
 41
2.5
 42
1.0
 43
10.0
 44
1.0
 47
0.1
 48
0.1
 73
     0
 77
     1
 78
     8
 79
     2
140
3.5
141
0.0
143
0.0393701
146
0.71
147
1.5
176
   256
177
   256
178
     2
271
     2
272
     3
274
     4
283
     0
284
     8
288
     1
289
     0
340
11
371
    -1
372
    -1
  0
DIMSTYLE
105
AF9B
330
A
100
AcDbSymbolTableRecord
100
AcDbDimStyleTableRecord
  2
AM_ISO$4
 70
     0
  4
"
 41
2.5
 42
1.0
 43
10.0
 44
1.0
 47
0.1
 48
0.1
 73
     0
 77
     1
 78
     8
 79
     2
140
3.5
141
0.0
143
0.0393701
146
0.71
147
1.5
176
   256
177
   256
178
     2
271
     2
272
     3
274
     4
283
     0
284
     8
288
     1
289
     0
340
11
371
    -1
372
    -1
  0
DIMSTYLE
105
AF9C
330
A
100
AcDbSymbolTableRecord
100
AcDbDimStyleTableRecord
  2
AM_ISO$6
 70
     0
  4
"
 41
2.5
 42
1.0
 43
10.0
 44
1.0
 47
0.1
 48
0.1
 73
     0
 74
     0
 78
     8
 79
     2
140
3.5
141
0.0
143
0.0393701
146
0.71
147
1.5
172
     1
176
   256
177
   256
178
     2
271
     2
272
     3
274
     4
283
     0
284
     8
340
11
371
    -1
372
    -1
  0
DIMSTYLE
105
AF9D
330
A
100
AcDbSymbolTableRecord
100
AcDbDimStyleTableRecord
  2
AM_ISO$7
 70
     0
  4
"
 41
2.5
 42
1.0
 43
10.0
 44
1.0
 47
0.1
 48
0.1
 73
     0
 74
     0
 77
     1
 78
     8
 79
     2
140
5.0
141
0.0
143
0.0393701
146
0.71
147
1.5
172
     1
176
   256
177
   256
178
     2
271
     2
272
     3
274
     4
283
     0
284
     8
340
11
371
    -1
372
    -1
  0
DIMSTYLE
105
AF9E
330
A
100
AcDbSymbolTableRecord
100
AcDbDimStyleTableRecord
  2
AM_ISO$SF
 70
     0
  4
"
 41
2.5
 42
1.0
 43
10.0
 44
1.0
 47
0.1
 48
0.1
 73
     0
 74
     0
 75
     1
 76
     1
 77
     1
 78
     8
 79
     2
140
3.5
141
0.0
143
0.0393701
146
0.71
147
1.5
172
     1
176
   256
177
   256
178
     2
271
     2
272
     3
274
     4
283
     0
284
     8
340
11
371
    -1
372
    -1
  0
DIMSTYLE
105
AF9F
330
A
100
AcDbSymbolTableRecord
100
AcDbDimStyleTableRecord
  2
AM_ISO$SH
 70
     0
  4
"
 41
2.5
 42
1.0
 43
10.0
 44
1.0
 47
0.1
 48
0.1
 73
     0
 74
     0
 75
     1
 76
     1
 77
     1
 78
     8
 79
     2
140
3.5
141
0.0
143
0.0393701
144
2.0
146
0.71
147
1.5
172
     1
173
     1
176
   256
177
   256
178
     2
271
     2
272
     3
274
     4
283
     0
284
     8
340
11
343
72
371
    -1
372
    -1
  0
DIMSTYLE
105
B549
330
A
100
AcDbSymbolTableRecord
100
AcDbDimStyleTableRecord
  2
AM_ANSI
 70
     0
  4
mm
 41
0.1
 42
0.05
 43
0.5
 44
0.1
 47
0.1
 48
0.1
 78
     7
 79
     2
140
0.12
141
0.0
146
0.71
147
0.06
176
   256
177
   256
178
     2
274
     4
284
     7
340
11
371
    -1
372
    -1
1001
ACAD_DSTYLE_DIMARC_LENGTH_SYMBOL
1070
   379
1070
     1
  0
DIMSTYLE
105
B54A
330
A
100
AcDbSymbolTableRecord
100
AcDbDimStyleTableRecord
  2
AM_ANSI$3
 70
     0
  4
mm
 41
0.1
 42
0.05
 43
0.5
 44
0.1
 47
0.1
 48
0.1
 78
     7
 79
     2
140
0.12
141
0.0
146
0.71
147
0.06
176
   256
177
   256
178
     2
274
     4
284
     7
288
     1
289
     0
340
11
371
    -1
372
    -1
1001
ACAD_DSTYLE_DIMARC_LENGTH_SYMBOL
1070
   379
1070
     1
  0
DIMSTYLE
105
B54B
330
A
100
AcDbSymbolTableRecord
100
AcDbDimStyleTableRecord
  2
AM_ANSI$4
 70
     0
  4
mm
 41
0.1
 42
0.05
 43
0.5
 44
0.1
 47
0.1
 48
0.1
 78
     7
 79
     2
140
0.12
141
0.0
146
0.71
147
0.06
176
   256
177
   256
178
     2
274
     4
284
     7
288
     1
289
     0
340
11
371
    -1
372
    -1
1001
ACAD_DSTYLE_DIMARC_LENGTH_SYMBOL
1070
   379
1070
     1
  0
DIMSTYLE
105
B54C
330
A
100
AcDbSymbolTableRecord
100
AcDbDimStyleTableRecord
  2
AM_ANSI$7
 70
     0
  4
mm
 41
0.1
 42
0.05
 43
0.5
 44
0.1
 47
0.1
 48
0.1
 78
     7
 79
     2
140
0.24
141
0.0
146
0.71
147
0.06
176
   256
177
   256
178
     2
274
     4
284
     7
340
11
371
    -1
372
    -1
1001
ACAD_DSTYLE_DIMARC_LENGTH_SYMBOL
1070
   379
1070
     1
  0
DIMSTYLE
105
B54D
330
A
100
AcDbSymbolTableRecord
100
AcDbDimStyleTableRecord
  2
AM_ANSI$SF
 70
     0
  4
mm
 41
0.1
 42
0.05
 43
0.5
 44
0.1
 47
0.1
 48
0.1
 75
     1
 76
     1
 78
     7
 79
     2
140
0.12
141
0.0
146
0.71
147
0.06
176
   256
177
   256
178
     2
274
     4
284
     7
340
11
371
    -1
372
    -1
1001
ACAD_DSTYLE_DIMARC_LENGTH_SYMBOL
1070
   379
1070
     1
  0
DIMSTYLE
105
B54E
330
A
100
AcDbSymbolTableRecord
100
AcDbDimStyleTableRecord
  2
AM_ANSI$SH
 70
     0
  4
mm
 41
0.1
 42
0.05
 43
0.5
 44
0.1
 47
0.1
 48
0.1
 75
     1
 76
     1
 78
     7
 79
     2
140
0.12
141
0.0
146
0.71
147
0.06
173
     1
176
   256
177
   256
178
     2
274
     4
284
     7
340
11
343
72
371
    -1
372
    -1
1001
ACAD_DSTYLE_DIMARC_LENGTH_SYMBOL
1070
   379
1070
     1
  0
DIMSTYLE
105
B797
330
A
100
AcDbSymbolTableRecord
100
AcDbDimStyleTableRecord
  2
AM_JIS
 70
     0
  4
"
 41
2.0
 42
1.0
 43
10.0
 44
1.0
 47
0.1
 48
0.1
 73
     0
 74
     0
 77
     3
 78
     8
140
3.0
141
0.0
143
0.0393701
146
0.71
147
1.6
172
     1
176
   256
177
   256
178
     1
271
     2
272
     2
279
     2
284
     8
285
     8
286
     8
340
11
  0
ENDTAB
  0
TABLE
  2
BLOCK_RECORD
  5
1
330
0
100
AcDbSymbolTable
 70
    20
  0
BLOCK_RECORD
  5
1F
102
{ACAD_XDICTIONARY
360
8A
102
}
330
1
100
AcDbSymbolTableRecord
100
AcDbBlockTableRecord
  2
*Model_Space
340
22
  0
BLOCK_RECORD
  5
1B
330
1
100
AcDbSymbolTableRecord
100
AcDbBlockTableRecord
  2
*Paper_Space
340
1E
  0
BLOCK_RECORD
  5
23
330
1
100
AcDbSymbolTableRecord
100
AcDbBlockTableRecord
  2
*Paper_Space0
340
26
  0
BLOCK_RECORD
  5
72
330
1
100
AcDbSymbolTableRecord
100
AcDbBlockTableRecord
  2
GENAXEH
340
0
  0
BLOCK_RECORD
  5
6C4
330
1
100
AcDbSymbolTableRecord
100
AcDbBlockTableRecord
  2
_Dot
340
0
102
{BLKREFS
331
CF1F
331
CF20
331
CF28
331
CF29
331
CF31
331
CF32
331
CF3A
331
CF3B
331
CF44
331
CF45
331
CF4D
331
CF4E
331
CF56
331
CF57
331
CF61
331
CF62
331
CF6A
331
CF6B
331
CF73
331
CF74
331
CF7C
331
CF7D
331
CF85
331
CF86
102
}
  0
BLOCK_RECORD
  5
A66
330
1
100
AcDbSymbolTableRecord
100
AcDbBlockTableRecord
  2
_OPEN30
340
0
  0
BLOCK_RECORD
  5
BD11
330
1
100
AcDbSymbolTableRecord
100
AcDbBlockTableRecord
  2
GENDOT
340
0
102
{BLKREFS
331
CFBA
331
CFC2
331
CFC3
102
}
  0
BLOCK_RECORD
  5
C4BC
330
1
100
AcDbSymbolTableRecord
100
AcDbBlockTableRecord
  2
*D6
340
0
  0
BLOCK_RECORD
  5
C4DB
330
1
100
AcDbSymbolTableRecord
100
AcDbBlockTableRecord
  2
*D7
340
0
  0
BLOCK_RECORD
  5
C50C
330
1
100
AcDbSymbolTableRecord
100
AcDbBlockTableRecord
  2
*D8
340
0
  0
BLOCK_RECORD
  5
C52B
330
1
100
AcDbSymbolTableRecord
100
AcDbBlockTableRecord
  2
*D9
340
0
  0
BLOCK_RECORD
  5
C55C
330
1
100
AcDbSymbolTableRecord
100
AcDbBlockTableRecord
  2
*D10
340
0
  0
BLOCK_RECORD
  5
C581
330
1
100
AcDbSymbolTableRecord
100
AcDbBlockTableRecord
  2
*D11
340
0
  0
BLOCK_RECORD
  5
C610
330
1
100
AcDbSymbolTableRecord
100
AcDbBlockTableRecord
  2
*D12
340
0
  0
BLOCK_RECORD
  5
C669
330
1
100
AcDbSymbolTableRecord
100
AcDbBlockTableRecord
  2
*D13
340
0
  0
BLOCK_RECORD
  5
C68E
330
1
100
AcDbSymbolTableRecord
100
AcDbBlockTableRecord
  2
*D14
340
0
  0
BLOCK_RECORD
  5
C6AD
330
1
100
AcDbSymbolTableRecord
100
AcDbBlockTableRecord
  2
*D15
340
0
  0
BLOCK_RECORD
  5
C6C3
330
1
100
AcDbSymbolTableRecord
100
AcDbBlockTableRecord
  2
*D16
340
0
  0
BLOCK_RECORD
  5
C6D9
330
1
100
AcDbSymbolTableRecord
100
AcDbBlockTableRecord
  2
*D17
340
0
  0
BLOCK_RECORD
  5
C713
330
1
100
AcDbSymbolTableRecord
100
AcDbBlockTableRecord
  2
*D18
340
0
  0
BLOCK_RECORD
  5
C746
330
1
100
AcDbSymbolTableRecord
100
AcDbBlockTableRecord
  2
*D19
340
0
  0
ENDTAB
  0
ENDSEC
  0
SECTION
  2
BLOCKS
  0
BLOCK
  5
20
330
1F
100
AcDbEntity
  8
0
100
AcDbBlockBegin
  2
*Model_Space
 70
     0
 10
0.0
 20
0.0
 30
0.0
  3
*Model_Space
  1

  0
ENDBLK
  5
21
330
1F
100
AcDbEntity
  8
0
100
AcDbBlockEnd
  0
BLOCK
  5
1C
330
1B
100
AcDbEntity
 67
     1
  8
0
100
AcDbBlockBegin
  2
*Paper_Space
 70
     0
 10
0.0
 20
0.0
 30
0.0
  3
*Paper_Space
  1

  0
ENDBLK
  5
1D
330
1B
100
AcDbEntity
 67
     1
  8
0
100
AcDbBlockEnd
  0
BLOCK
  5
24
330
23
100
AcDbEntity
 67
     1
  8
0
100
AcDbBlockBegin
  2
*Paper_Space0
 70
     0
 10
0.0
 20
0.0
 30
0.0
  3
*Paper_Space0
  1

  0
ENDBLK
  5
25
330
23
100
AcDbEntity
 67
     1
  8
0
100
AcDbBlockEnd
  0
BLOCK
  5
74
330
72
100
AcDbEntity
  8
0
100
AcDbBlockBegin
  2
GENAXEH
 70
     0
 10
0.0
 20
0.0
 30
0.0
  3
GENAXEH
  1

  0
LINE
  5
73
330
72
100
AcDbEntity
  8
0
100
AcDbLine
 10
-1.0
 20
0.0
 30
0.0
 11
1.0
 21
0.0
 31
0.0
  0
ENDBLK
  5
75
330
72
100
AcDbEntity
  8
0
100
AcDbBlockEnd
  0
BLOCK
  5
6C7
330
6C4
100
AcDbEntity
  8
0
100
AcDbBlockBegin
  2
_Dot
 70
     0
 10
0.0
 20
0.0
 30
0.0
  3
_Dot
  1

  0
LWPOLYLINE
  5
6C5
330
6C4
100
AcDbEntity
  8
0
  6
ByBlock
 62
     0
100
AcDbPolyline
 90
        2
 70
     1
 43
0.5
 10
-0.25
 20
0.0
 42
1.0
 10
0.25
 20
0.0
 42
1.0
  0
LINE
  5
6C6
330
6C4
100
AcDbEntity
  8
0
  6
ByBlock
 62
     0
370
    -2
100
AcDbLine
 10
-0.5
 20
0.0
 30
0.0
 11
-1.0
 21
0.0
 31
0.0
  0
ENDBLK
  5
6C8
330
6C4
100
AcDbEntity
  8
0
100
AcDbBlockEnd
  0
BLOCK
  5
A6A
330
A66
100
AcDbEntity
  8
0
100
AcDbBlockBegin
  2
_OPEN30
 70
     0
 10
0.0
 20
0.0
 30
0.0
  3
_OPEN30
  1

  0
LINE
  5
A67
330
A66
100
AcDbEntity
  8
0
  6
ByBlock
 62
     0
100
AcDbLine
 10
-1.0
 20
0.26794919
 30
0.0
 11
0.0
 21
0.0
 31
0.0
  0
LINE
  5
A68
330
A66
100
AcDbEntity
  8
0
  6
ByBlock
 62
     0
100
AcDbLine
 10
0.0
 20
0.0
 30
0.0
 11
-1.0
 21
-0.26794919
 31
0.0
  0
LINE
  5
A69
330
A66
100
AcDbEntity
  8
0
  6
ByBlock
 62
     0
100
AcDbLine
 10
0.0
 20
0.0
 30
0.0
 11
-1.0
 21
0.0
 31
0.0
  0
ENDBLK
  5
A6B
330
A66
100
AcDbEntity
  8
0
100
AcDbBlockEnd
  0
BLOCK
  5
BD14
330
BD11
100
AcDbEntity
  8
0
100
AcDbBlockBegin
  2
GENDOT
 70
     0
 10
0.0
 20
0.0
 30
0.0
  3
GENDOT
  1

  0
LINE
  5
BD12
330
BD11
100
AcDbEntity
  8
0
100
AcDbLine
 10
0.0
 20
0.0
 30
0.0
 11
-1.0
 21
0.0
 31
0.0
  0
LWPOLYLINE
  5
BD13
330
BD11
100
AcDbEntity
  8
0
100
AcDbPolyline
 90
        2
 70
     1
 43
0.25
 10
-0.125
 20
0.0
 42
1.0
 10
0.125
 20
0.0
 42
1.0
  0
ENDBLK
  5
BD15
330
BD11
100
AcDbEntity
  8
0
100
AcDbBlockEnd
  0
BLOCK
  5
C4C6
330
C4BC
100
AcDbEntity
  8
0
100
AcDbBlockBegin
  2
*D6
 70
     1
 10
0.0
 20
0.0
 30
0.0
  3
*D6
  1

  0
LINE
  5
CF1C
330
C4BC
100
AcDbEntity
  8
AM_5
100
AcDbLine
 10
109.7504681542914
 20
123.2854630337543
 30
0.0
 11
87.7504681542914
 21
123.2854630337543
 31
0.0
  0
LINE
  5
CF1D
330
C4BC
100
AcDbEntity
  8
AM_5
100
AcDbLine
 10
109.7504681542914
 20
91.98546303375428
 30
0.0
 11
87.75046815429139
 21
91.98546303375429
 31
0.0
  0
LINE
  5
CF1E
330
C4BC
100
AcDbEntity
  8
AM_5
100
AcDbLine
 10
88.7504681542914
 20
122.2854630337543
 30
0.0
 11
88.75046815429138
 21
92.98546303375429
 31
0.0
  0
INSERT
  5
CF1F
330
C4BC
100
AcDbEntity
  8
AM_5
100
AcDbBlockReference
  2
_Dot
 10
88.7504681542914
 20
123.2854630337543
 30
0.0
 50
90.0
  0
INSERT
  5
CF20
330
C4BC
100
AcDbEntity
  8
AM_5
100
AcDbBlockReference
  2
_Dot
 10
88.75046815429138
 20
91.98546303375429
 30
0.0
 50
270.0
  0
MTEXT
  5
CF21
330
C4BC
100
AcDbEntity
  8
AM_5
 62
     2
100
AcDbMText
 10
85.65046815429138
 20
107.6354630337543
 30
0.0
 40
3.200000000000001
 41
0.0
 71
     5
 72
     1
  1
C
 11
0.0000000000000001
 21
1.0
 31
0.0
 73
     1
 44
1.0
1001
ACAD
1000
MTEXTBEGIN
1070
    73
1070
     1
1070
    44
1040
1.0
1070
    74
1070
     0
1000
MTEXTEND
  0
POINT
  5
CF22
330
C4BC
100
AcDbEntity
  8
Defpoints
 62
     0
100
AcDbPoint
 10
110.7504681542914
 20
123.2854630337543
 30
0.0
  0
POINT
  5
CF23
330
C4BC
100
AcDbEntity
  8
Defpoints
 62
     0
100
AcDbPoint
 10
110.7504681542914
 20
91.98546303375428
 30
0.0
  0
POINT
  5
CF24
330
C4BC
100
AcDbEntity
  8
Defpoints
 62
     0
100
AcDbPoint
 10
88.75046815429138
 20
91.98546303375429
 30
0.0
  0
ENDBLK
  5
C4C7
330
C4BC
100
AcDbEntity
  8
0
100
AcDbBlockEnd
  0
BLOCK
  5
C4E5
330
C4DB
100
AcDbEntity
  8
0
100
AcDbBlockBegin
  2
*D7
 70
     1
 10
0.0
 20
0.0
 30
0.0
  3
*D7
  1

  0
LINE
  5
CF25
330
C4DB
100
AcDbEntity
  8
AM_5
100
AcDbLine
 10
110.2967421362914
 20
119.8354630337542
 30
0.0
 11
97.75046815429135
 21
119.8354630337542
 31
0.0
  0
LINE
  5
CF26
330
C4DB
100
AcDbEntity
  8
AM_5
100
AcDbLine
 10
110.2967421362914
 20
95.4354630337543
 30
0.0
 11
97.75046815429133
 21
95.4354630337543
 31
0.0
  0
LINE
  5
CF27
330
C4DB
100
AcDbEntity
  8
AM_5
100
AcDbLine
 10
98.75046815429135
 20
118.8354630337542
 30
0.0
 11
98.75046815429135
 21
96.4354630337543
 31
0.0
  0
INSERT
  5
CF28
330
C4DB
100
AcDbEntity
  8
AM_5
100
AcDbBlockReference
  2
_Dot
 10
98.75046815429135
 20
119.8354630337542
 30
0.0
 50
90.0
  0
INSERT
  5
CF29
330
C4DB
100
AcDbEntity
  8
AM_5
100
AcDbBlockReference
  2
_Dot
 10
98.75046815429133
 20
95.4354630337543
 30
0.0
 50
270.0
  0
MTEXT
  5
CF2A
330
C4DB
100
AcDbEntity
  8
AM_5
 62
     2
100
AcDbMText
 10
95.65046815429132
 20
107.6354630337543
 30
0.0
 40
3.200000000000001
 41
0.0
 71
     5
 72
     1
  1
D
 11
0.0000000000000001
 21
1.0
 31
0.0
 73
     1
 44
1.0
1001
ACAD
1000
MTEXTBEGIN
1070
    73
1070
     1
1070
    44
1040
1.0
1070
    74
1070
     0
1000
MTEXTEND
  0
POINT
  5
CF2B
330
C4DB
100
AcDbEntity
  8
Defpoints
 62
     0
100
AcDbPoint
 10
111.2967421362914
 20
119.8354630337542
 30
0.0
  0
POINT
  5
CF2C
330
C4DB
100
AcDbEntity
  8
Defpoints
 62
     0
100
AcDbPoint
 10
111.2967421362914
 20
95.4354630337543
 30
0.0
  0
POINT
  5
CF2D
330
C4DB
100
AcDbEntity
  8
Defpoints
 62
     0
100
AcDbPoint
 10
98.75046815429133
 20
95.4354630337543
 30
0.0
  0
ENDBLK
  5
C4E6
330
C4DB
100
AcDbEntity
  8
0
100
AcDbBlockEnd
  0
BLOCK
  5
C516
330
C50C
100
AcDbEntity
  8
0
100
AcDbBlockBegin
  2
*D8
 70
     1
 10
0.0
 20
0.0
 30
0.0
  3
*D8
  1

  0
LINE
  5
CF2E
330
C50C
100
AcDbEntity
  8
AM_5
100
AcDbLine
 10
107.7504681542914
 20
93.98546303375431
 30
0.0
 11
107.7504681542914
 21
81.98546303375433
 31
0.0
  0
LINE
  5
CF2F
330
C50C
100
AcDbEntity
  8
AM_5
100
AcDbLine
 10
121.7504681542914
 20
94.48546303375428
 30
0.0
 11
121.7504681542914
 21
81.98546303375433
 31
0.0
  0
LINE
  5
CF30
330
C50C
100
AcDbEntity
  8
AM_5
100
AcDbLine
 10
108.7504681542914
 20
82.98546303375433
 30
0.0
 11
120.7504681542914
 21
82.98546303375433
 31
0.0
  0
INSERT
  5
CF31
330
C50C
100
AcDbEntity
  8
AM_5
100
AcDbBlockReference
  2
_Dot
 10
107.7504681542914
 20
82.98546303375433
 30
0.0
 50
180.0
  0
INSERT
  5
CF32
330
C50C
100
AcDbEntity
  8
AM_5
100
AcDbBlockReference
  2
_Dot
 10
121.7504681542914
 20
82.98546303375433
 30
0.0
  0
MTEXT
  5
CF33
330
C50C
100
AcDbEntity
  8
AM_5
 62
     2
100
AcDbMText
 10
114.7504681542914
 20
86.08546303375431
 30
0.0
 40
3.200000000000001
 41
0.0
 71
     5
 72
     1
  1
B\P
 73
     1
 44
1.0
1001
ACAD
1000
MTEXTBEGIN
1070
    73
1070
     1
1070
    44
1040
1.0
1070
    74
1070
     0
1000
MTEXTEND
  0
POINT
  5
CF34
330
C50C
100
AcDbEntity
  8
Defpoints
 62
     0
100
AcDbPoint
 10
107.7504681542914
 20
94.9854630337543
 30
0.0
  0
POINT
  5
CF35
330
C50C
100
AcDbEntity
  8
Defpoints
 62
     0
100
AcDbPoint
 10
121.7504681542914
 20
95.48546303375429
 30
0.0
  0
POINT
  5
CF36
330
C50C
100
AcDbEntity
  8
Defpoints
 62
     0
100
AcDbPoint
 10
121.7504681542914
 20
82.98546303375433
 30
0.0
  0
ENDBLK
  5
C517
330
C50C
100
AcDbEntity
  8
0
100
AcDbBlockEnd
  0
BLOCK
  5
C535
330
C52B
100
AcDbEntity
  8
0
100
AcDbBlockBegin
  2
*D9
 70
     1
 10
0.0
 20
0.0
 30
0.0
  3
*D9
  1

  0
LINE
  5
CF37
330
C52B
100
AcDbEntity
  8
AM_5
100
AcDbLine
 10
107.7504681542914
 20
93.98546303375431
 30
0.0
 11
107.7504681542914
 21
71.98546303375426
 31
0.0
  0
LINE
  5
CF38
330
C52B
100
AcDbEntity
  8
AM_5
100
AcDbLine
 10
132.9504681542913
 20
101.3354630337542
 30
0.0
 11
132.9504681542913
 21
71.98546303375426
 31
0.0
  0
LINE
  5
CF39
330
C52B
100
AcDbEntity
  8
AM_5
100
AcDbLine
 10
108.7504681542914
 20
72.98546303375426
 30
0.0
 11
131.9504681542913
 21
72.98546303375426
 31
0.0
  0
INSERT
  5
CF3A
330
C52B
100
AcDbEntity
  8
AM_5
100
AcDbBlockReference
  2
_Dot
 10
107.7504681542914
 20
72.98546303375426
 30
0.0
 50
180.0
  0
INSERT
  5
CF3B
330
C52B
100
AcDbEntity
  8
AM_5
100
AcDbBlockReference
  2
_Dot
 10
132.9504681542913
 20
72.98546303375426
 30
0.0
  0
MTEXT
  5
CF3C
330
C52B
100
AcDbEntity
  8
AM_5
 62
     2
100
AcDbMText
 10
120.3504681542914
 20
76.08546303375425
 30
0.0
 40
3.200000000000001
 41
0.0
 71
     5
 72
     1
  1
A
 73
     1
 44
1.0
1001
ACAD
1000
MTEXTBEGIN
1070
    73
1070
     1
1070
    44
1040
1.0
1070
    74
1070
     0
1000
MTEXTEND
  0
POINT
  5
CF3D
330
C52B
100
AcDbEntity
  8
Defpoints
 62
     0
100
AcDbPoint
 10
107.7504681542914
 20
94.9854630337543
 30
0.0
  0
POINT
  5
CF3E
330
C52B
100
AcDbEntity
  8
Defpoints
 62
     0
100
AcDbPoint
 10
132.9504681542913
 20
102.3354630337542
 30
0.0
  0
POINT
  5
CF3F
330
C52B
100
AcDbEntity
  8
Defpoints
 62
     0
100
AcDbPoint
 10
132.9504681542913
 20
72.98546303375426
 30
0.0
  0
ENDBLK
  5
C536
330
C52B
100
AcDbEntity
  8
0
100
AcDbBlockEnd
  0
BLOCK
  5
C568
330
C55C
100
AcDbEntity
  8
0
100
AcDbBlockBegin
  2
*D10
 70
     1
 10
0.0
 20
0.0
 30
0.0
  3
*D10
  1

  0
LINE
  5
CF40
330
C55C
100
AcDbEntity
  8
AM_5
100
AcDbLine
 10
107.7504681542914
 20
121.2854630337543
 30
0.0
 11
107.7504681542914
 21
136.2854640437542
 31
0.0
  0
LINE
  5
CF41
330
C55C
100
AcDbEntity
  8
AM_5
100
AcDbLine
 10
115.2504681542914
 20
123.6028536902542
 30
0.0
 11
115.2504681542914
 21
136.2854640437542
 31
0.0
  0
LINE
  5
CF42
330
C55C
100
AcDbEntity
  8
AM_5
100
AcDbLine
 10
114.2504681542914
 20
135.2854640437542
 30
0.0
 11
108.7504681542914
 21
135.2854640437542
 31
0.0
  0
LINE
  5
CF43
330
C55C
100
AcDbEntity
  8
AM_5
100
AcDbLine
 10
107.7504681542914
 20
135.2854640437542
 30
0.0
 11
100.4038014876247
 21
135.2854640437542
 31
0.0
  0
INSERT
  5
CF44
330
C55C
100
AcDbEntity
  8
AM_5
100
AcDbBlockReference
  2
_Dot
 10
115.2504681542914
 20
135.2854640437542
 30
0.0
  0
INSERT
  5
CF45
330
C55C
100
AcDbEntity
  8
AM_5
100
AcDbBlockReference
  2
_Dot
 10
107.7504681542914
 20
135.2854640437542
 30
0.0
 50
180.0
  0
MTEXT
  5
CF46
330
C55C
100
AcDbEntity
  8
AM_5
 62
     2
100
AcDbMText
 10
102.597134820958
 20
138.3854640437542
 30
0.0
 40
3.200000000000001
 41
0.0
 71
     5
 72
     1
  1
E
 73
     1
 44
1.0
1001
ACAD
1000
MTEXTBEGIN
1070
    73
1070
     1
1070
    44
1040
1.0
1070
    74
1070
     0
1000
MTEXTEND
  0
POINT
  5
CF47
330
C55C
100
AcDbEntity
  8
Defpoints
 62
     0
100
AcDbPoint
 10
107.7504681542914
 20
120.2854630337543
 30
0.0
  0
POINT
  5
CF48
330
C55C
100
AcDbEntity
  8
Defpoints
 62
     0
100
AcDbPoint
 10
115.2504681542914
 20
122.6028536902542
 30
0.0
  0
POINT
  5
CF49
330
C55C
100
AcDbEntity
  8
Defpoints
 62
     0
100
AcDbPoint
 10
115.2504681542914
 20
135.2854640437542
 30
0.0
  0
ENDBLK
  5
C569
330
C55C
100
AcDbEntity
  8
0
100
AcDbBlockEnd
  0
BLOCK
  5
C58B
330
C581
100
AcDbEntity
  8
0
100
AcDbBlockBegin
  2
*D11
 70
     1
 10
0.0
 20
0.0
 30
0.0
  3
*D11
  1

  0
LINE
  5
CF4A
330
C581
100
AcDbEntity
  8
AM_5
100
AcDbLine
 10
106.7504681542914
 20
49.41305602841501
 30
0.0
 11
97.75046815429144
 21
49.41305602841501
 31
0.0
  0
LINE
  5
CF4B
330
C581
100
AcDbEntity
  8
AM_5
100
AcDbLine
 10
121.7504681542914
 20
62.013056028415
 30
0.0
 11
97.75046815429144
 21
62.01305602841501
 31
0.0
  0
LINE
  5
CF4C
330
C581
100
AcDbEntity
  8
AM_5
100
AcDbLine
 10
98.75046815429143
 20
50.41305602841501
 30
0.0
 11
98.75046815429143
 21
61.01305602841502
 31
0.0
  0
INSERT
  5
CF4D
330
C581
100
AcDbEntity
  8
AM_5
100
AcDbBlockReference
  2
_Dot
 10
98.75046815429143
 20
49.41305602841501
 30
0.0
 50
270.0
  0
INSERT
  5
CF4E
330
C581
100
AcDbEntity
  8
AM_5
100
AcDbBlockReference
  2
_Dot
 10
98.75046815429143
 20
62.01305602841501
 30
0.0
 50
90.0
  0
MTEXT
  5
CF4F
330
C581
100
AcDbEntity
  8
AM_5
 62
     2
100
AcDbMText
 10
95.65046815429143
 20
55.71305602841503
 30
0.0
 40
3.200000000000001
 41
0.0
 71
     5
 72
     1
  1
F
 11
0.0000000000000001
 21
1.0
 31
0.0
 73
     1
 44
1.0
1001
ACAD
1000
MTEXTBEGIN
1070
    73
1070
     1
1070
    44
1040
1.0
1070
    74
1070
     0
1000
MTEXTEND
  0
POINT
  5
CF50
330
C581
100
AcDbEntity
  8
Defpoints
 62
     0
100
AcDbPoint
 10
107.7504681542914
 20
49.41305602841501
 30
0.0
  0
POINT
  5
CF51
330
C581
100
AcDbEntity
  8
Defpoints
 62
     0
100
AcDbPoint
 10
122.7504681542914
 20
62.013056028415
 30
0.0
  0
POINT
  5
CF52
330
C581
100
AcDbEntity
  8
Defpoints
 62
     0
100
AcDbPoint
 10
98.75046815429143
 20
62.01305602841501
 30
0.0
  0
ENDBLK
  5
C58C
330
C581
100
AcDbEntity
  8
0
100
AcDbBlockEnd
  0
BLOCK
  5
C61A
330
C610
100
AcDbEntity
  8
0
100
AcDbBlockBegin
  2
*D12
 70
     1
 10
0.0
 20
0.0
 30
0.0
  3
*D12
  1

  0
LINE
  5
CF53
330
C610
100
AcDbEntity
  8
AM_5
100
AcDbLine
 10
176.560178642739
 20
124.6354630337542
 30
0.0
 11
176.560178642739
 21
136.2854640437542
 31
0.0
  0
LINE
  5
CF54
330
C610
100
AcDbEntity
  8
AM_5
100
AcDbLine
 10
115.2504681542914
 20
123.6028536902542
 30
0.0
 11
115.2504681542914
 21
136.2854640437542
 31
0.0
  0
LINE
  5
CF55
330
C610
100
AcDbEntity
  8
AM_5
100
AcDbLine
 10
175.560178642739
 20
135.2854640437542
 30
0.0
 11
116.2504681542914
 21
135.2854640437542
 31
0.0
  0
INSERT
  5
CF56
330
C610
100
AcDbEntity
  8
AM_5
100
AcDbBlockReference
  2
_Dot
 10
176.560178642739
 20
135.2854640437542
 30
0.0
  0
INSERT
  5
CF57
330
C610
100
AcDbEntity
  8
AM_5
100
AcDbBlockReference
  2
_Dot
 10
115.2504681542914
 20
135.2854640437542
 30
0.0
 50
180.0
  0
MTEXT
  5
CF58
330
C610
100
AcDbEntity
  8
AM_5
 62
     2
100
AcDbMText
 10
145.9053233985152
 20
138.3854640437542
 30
0.0
 40
3.200000000000001
 41
0.0
 71
     5
 72
     1
  1
かみ合い高さ：（ M ）
 73
     1
 44
1.0
1001
ACAD
1000
MTEXTBEGIN
1070
    73
1070
     1
1070
    44
1040
1.0
1070
    74
1070
     0
1000
MTEXTEND
  0
POINT
  5
CF59
330
C610
100
AcDbEntity
  8
Defpoints
 62
     0
100
AcDbPoint
 10
176.560178642739
 20
123.6354630337542
 30
0.0
  0
POINT
  5
CF5A
330
C610
100
AcDbEntity
  8
Defpoints
 62
     0
100
AcDbPoint
 10
115.2504681542914
 20
122.6028536902542
 30
0.0
  0
POINT
  5
CF5B
330
C610
100
AcDbEntity
  8
Defpoints
 62
     0
100
AcDbPoint
 10
115.2504681542914
 20
135.2854640437542
 30
0.0
  0
ENDBLK
  5
C61B
330
C610
100
AcDbEntity
  8
0
100
AcDbBlockEnd
  0
BLOCK
  5
C675
330
C669
100
AcDbEntity
  8
0
100
AcDbBlockBegin
  2
*D13
 70
     1
 10
0.0
 20
0.0
 30
0.0
  3
*D13
  1

  0
LINE
  5
CF5C
330
C669
100
AcDbEntity
  8
AM_5
100
AcDbLine
 10
176.560178642739
 20
90.63546303375424
 30
0.0
 11
176.560178642739
 21
81.98546303375449
 31
0.0
  0
LINE
  5
CF5D
330
C669
100
AcDbEntity
  8
AM_5
100
AcDbLine
 10
174.560178642739
 20
90.63546303375424
 30
0.0
 11
174.560178642739
 21
81.98546303375449
 31
0.0
  0
LINE
  5
CF5E
330
C669
100
AcDbEntity
  8
AM_5
100
AcDbLine
 10
177.560178642739
 20
82.98546303375449
 30
0.0
 11
178.560178642739
 21
82.98546303375449
 31
0.0
  0
LINE
  5
CF5F
330
C669
100
AcDbEntity
  8
AM_5
100
AcDbLine
 10
173.560178642739
 20
82.98546303375449
 30
0.0
 11
168.0668453094057
 21
82.98546303375449
 31
0.0
  0
LINE
  5
CF60
330
C669
100
AcDbEntity
  8
AM_5
100
AcDbLine
 10
176.560178642739
 20
82.98546303375449
 30
0.0
 11
174.560178642739
 21
82.98546303375449
 31
0.0
  0
INSERT
  5
CF61
330
C669
100
AcDbEntity
  8
AM_5
100
AcDbBlockReference
  2
_Dot
 10
176.560178642739
 20
82.98546303375449
 30
0.0
 50
180.0
  0
INSERT
  5
CF62
330
C669
100
AcDbEntity
  8
AM_5
100
AcDbBlockReference
  2
_Dot
 10
174.560178642739
 20
82.98546303375449
 30
0.0
  0
MTEXT
  5
CF63
330
C669
100
AcDbEntity
  8
AM_5
 62
     2
100
AcDbMText
 10
170.3135119760723
 20
86.08546303375447
 30
0.0
 40
3.200000000000001
 41
0.0
 71
     5
 72
     1
  1
H
 73
     1
 44
1.0
1001
ACAD
1000
MTEXTBEGIN
1070
    73
1070
     1
1070
    44
1040
1.0
1070
    74
1070
     0
1000
MTEXTEND
  0
POINT
  5
CF64
330
C669
100
AcDbEntity
  8
Defpoints
 62
     0
100
AcDbPoint
 10
176.560178642739
 20
91.63546303375424
 30
0.0
  0
POINT
  5
CF65
330
C669
100
AcDbEntity
  8
Defpoints
 62
     0
100
AcDbPoint
 10
174.560178642739
 20
91.63546303375424
 30
0.0
  0
POINT
  5
CF66
330
C669
100
AcDbEntity
  8
Defpoints
 62
     0
100
AcDbPoint
 10
174.560178642739
 20
82.98546303375449
 30
0.0
  0
ENDBLK
  5
C676
330
C669
100
AcDbEntity
  8
0
100
AcDbBlockEnd
  0
BLOCK
  5
C698
330
C68E
100
AcDbEntity
  8
0
100
AcDbBlockBegin
  2
*D14
 70
     1
 10
0.0
 20
0.0
 30
0.0
  3
*D14
  1

  0
LINE
  5
CF67
330
C68E
100
AcDbEntity
  8
AM_5
100
AcDbLine
 10
176.560178642739
 20
90.63546303375424
 30
0.0
 11
176.560178642739
 21
71.98546303375436
 31
0.0
  0
LINE
  5
CF68
330
C68E
100
AcDbEntity
  8
AM_5
100
AcDbLine
 10
160.060178642739
 20
106.6354630337543
 30
0.0
 11
160.060178642739
 21
71.98546303375436
 31
0.0
  0
LINE
  5
CF69
330
C68E
100
AcDbEntity
  8
AM_5
100
AcDbLine
 10
175.560178642739
 20
72.98546303375435
 30
0.0
 11
161.060178642739
 21
72.98546303375435
 31
0.0
  0
INSERT
  5
CF6A
330
C68E
100
AcDbEntity
  8
AM_5
100
AcDbBlockReference
  2
_Dot
 10
176.560178642739
 20
72.98546303375435
 30
0.0
  0
INSERT
  5
CF6B
330
C68E
100
AcDbEntity
  8
AM_5
100
AcDbBlockReference
  2
_Dot
 10
160.060178642739
 20
72.98546303375435
 30
0.0
 50
180.0
  0
MTEXT
  5
CF6C
330
C68E
100
AcDbEntity
  8
AM_5
 62
     2
100
AcDbMText
 10
168.310178642739
 20
76.08546303375435
 30
0.0
 40
3.200000000000001
 41
0.0
 71
     5
 72
     1
  1
G
 73
     1
 44
1.0
1001
ACAD
1000
MTEXTBEGIN
1070
    73
1070
     1
1070
    44
1040
1.0
1070
    74
1070
     0
1000
MTEXTEND
  0
POINT
  5
CF6D
330
C68E
100
AcDbEntity
  8
Defpoints
 62
     0
100
AcDbPoint
 10
176.560178642739
 20
91.63546303375424
 30
0.0
  0
POINT
  5
CF6E
330
C68E
100
AcDbEntity
  8
Defpoints
 62
     0
100
AcDbPoint
 10
160.060178642739
 20
107.6354630337543
 30
0.0
  0
POINT
  5
CF6F
330
C68E
100
AcDbEntity
  8
Defpoints
 62
     0
100
AcDbPoint
 10
160.060178642739
 20
72.98546303375435
 30
0.0
  0
ENDBLK
  5
C699
330
C68E
100
AcDbEntity
  8
0
100
AcDbBlockEnd
  0
BLOCK
  5
C6B7
330
C6AD
100
AcDbEntity
  8
0
100
AcDbBlockBegin
  2
*D15
 70
     1
 10
0.0
 20
0.0
 30
0.0
  3
*D15
  1

  0
LINE
  5
CF70
330
C6AD
100
AcDbEntity
  8
AM_5
100
AcDbLine
 10
201.6618286670571
 20
92.13546303375423
 30
0.0
 11
201.6618286670571
 21
81.98546303375442
 31
0.0
  0
LINE
  5
CF71
330
C6AD
100
AcDbEntity
  8
AM_5
100
AcDbLine
 10
210.6618286670572
 20
92.13546303375423
 30
0.0
 11
210.6618286670572
 21
81.98546303375442
 31
0.0
  0
LINE
  5
CF72
330
C6AD
100
AcDbEntity
  8
AM_5
100
AcDbLine
 10
202.6618286670572
 20
82.98546303375442
 30
0.0
 11
209.6618286670572
 21
82.98546303375442
 31
0.0
  0
INSERT
  5
CF73
330
C6AD
100
AcDbEntity
  8
AM_5
100
AcDbBlockReference
  2
_Dot
 10
201.6618286670571
 20
82.98546303375442
 30
0.0
 50
180.0
  0
INSERT
  5
CF74
330
C6AD
100
AcDbEntity
  8
AM_5
100
AcDbBlockReference
  2
_Dot
 10
210.6618286670572
 20
82.98546303375442
 30
0.0
  0
MTEXT
  5
CF75
330
C6AD
100
AcDbEntity
  8
AM_5
 62
     2
100
AcDbMText
 10
206.1618286670572
 20
86.0854630337544
 30
0.0
 40
3.200000000000001
 41
0.0
 71
     5
 72
     1
  1
Ｉ
 73
     1
 44
1.0
1001
ACAD
1000
MTEXTBEGIN
1070
    73
1070
     1
1070
    44
1040
1.0
1070
    74
1070
     0
1000
MTEXTEND
  0
POINT
  5
CF76
330
C6AD
100
AcDbEntity
  8
Defpoints
 62
     0
100
AcDbPoint
 10
201.6618286670571
 20
93.13546303375423
 30
0.0
  0
POINT
  5
CF77
330
C6AD
100
AcDbEntity
  8
Defpoints
 62
     0
100
AcDbPoint
 10
210.6618286670572
 20
93.13546303375423
 30
0.0
  0
POINT
  5
CF78
330
C6AD
100
AcDbEntity
  8
Defpoints
 62
     0
100
AcDbPoint
 10
210.6618286670572
 20
82.98546303375442
 30
0.0
  0
ENDBLK
  5
C6B8
330
C6AD
100
AcDbEntity
  8
0
100
AcDbBlockEnd
  0
BLOCK
  5
C6CD
330
C6C3
100
AcDbEntity
  8
0
100
AcDbBlockBegin
  2
*D16
 70
     1
 10
0.0
 20
0.0
 30
0.0
  3
*D16
  1

  0
LINE
  5
CF79
330
C6C3
100
AcDbEntity
  8
AM_5
100
AcDbLine
 10
210.1618286670571
 20
91.63546303375424
 30
0.0
 11
232.1618286670573
 21
91.63546303375422
 31
0.0
  0
LINE
  5
CF7A
330
C6C3
100
AcDbEntity
  8
AM_5
100
AcDbLine
 10
210.1618286670571
 20
123.6354630337542
 30
0.0
 11
232.1618286670573
 21
123.6354630337542
 31
0.0
  0
LINE
  5
CF7B
330
C6C3
100
AcDbEntity
  8
AM_5
100
AcDbLine
 10
231.1618286670573
 20
92.63546303375422
 30
0.0
 11
231.1618286670573
 21
122.6354630337542
 31
0.0
  0
INSERT
  5
CF7C
330
C6C3
100
AcDbEntity
  8
AM_5
100
AcDbBlockReference
  2
_Dot
 10
231.1618286670573
 20
91.63546303375422
 30
0.0
 50
270.0
  0
INSERT
  5
CF7D
330
C6C3
100
AcDbEntity
  8
AM_5
100
AcDbBlockReference
  2
_Dot
 10
231.1618286670573
 20
123.6354630337542
 30
0.0
 50
90.0
  0
MTEXT
  5
CF7E
330
C6C3
100
AcDbEntity
  8
AM_5
 62
     2
100
AcDbMText
 10
228.0618286670573
 20
107.6354630337542
 30
0.0
 40
3.200000000000001
 41
0.0
 71
     5
 72
     1
  1
J
 11
0.0000000000000001
 21
1.0
 31
0.0
 73
     1
 44
1.0
1001
ACAD
1000
MTEXTBEGIN
1070
    73
1070
     1
1070
    44
1040
1.0
1070
    74
1070
     0
1000
MTEXTEND
  0
POINT
  5
CF7F
330
C6C3
100
AcDbEntity
  8
Defpoints
 62
     0
100
AcDbPoint
 10
209.1618286670572
 20
91.63546303375424
 30
0.0
  0
POINT
  5
CF80
330
C6C3
100
AcDbEntity
  8
Defpoints
 62
     0
100
AcDbPoint
 10
209.1618286670572
 20
123.6354630337542
 30
0.0
  0
POINT
  5
CF81
330
C6C3
100
AcDbEntity
  8
Defpoints
 62
     0
100
AcDbPoint
 10
231.1618286670573
 20
123.6354630337542
 30
0.0
  0
ENDBLK
  5
C6CE
330
C6C3
100
AcDbEntity
  8
0
100
AcDbBlockEnd
  0
BLOCK
  5
C6E3
330
C6D9
100
AcDbEntity
  8
0
100
AcDbBlockBegin
  2
*D17
 70
     1
 10
0.0
 20
0.0
 30
0.0
  3
*D17
  1

  0
LINE
  5
CF82
330
C6D9
100
AcDbEntity
  8
AM_5
100
AcDbLine
 10
209.7891232470572
 20
119.4354630337542
 30
0.0
 11
222.1618286670573
 21
119.4354630337542
 31
0.0
  0
LINE
  5
CF83
330
C6D9
100
AcDbEntity
  8
AM_5
100
AcDbLine
 10
209.8295431640572
 20
95.83546303375422
 30
0.0
 11
222.1618286670573
 21
95.83546303375422
 31
0.0
  0
LINE
  5
CF84
330
C6D9
100
AcDbEntity
  8
AM_5
100
AcDbLine
 10
221.1618286670573
 20
118.4354630337542
 30
0.0
 11
221.1618286670573
 21
96.83546303375422
 31
0.0
  0
INSERT
  5
CF85
330
C6D9
100
AcDbEntity
  8
AM_5
100
AcDbBlockReference
  2
_Dot
 10
221.1618286670573
 20
119.4354630337542
 30
0.0
 50
90.0
  0
INSERT
  5
CF86
330
C6D9
100
AcDbEntity
  8
AM_5
100
AcDbBlockReference
  2
_Dot
 10
221.1618286670573
 20
95.83546303375422
 30
0.0
 50
270.0
  0
MTEXT
  5
CF87
330
C6D9
100
AcDbEntity
  8
AM_5
 62
     2
100
AcDbMText
 10
218.0618286670573
 20
107.6354630337542
 30
0.0
 40
3.200000000000001
 41
0.0
 71
     5
 72
     1
  1
K
 11
0.0000000000000001
 21
1.0
 31
0.0
 73
     1
 44
1.0
1001
ACAD
1000
MTEXTBEGIN
1070
    73
1070
     1
1070
    44
1040
1.0
1070
    74
1070
     0
1000
MTEXTEND
  0
POINT
  5
CF88
330
C6D9
100
AcDbEntity
  8
Defpoints
 62
     0
100
AcDbPoint
 10
208.7891232470572
 20
119.4354630337542
 30
0.0
  0
POINT
  5
CF89
330
C6D9
100
AcDbEntity
  8
Defpoints
 62
     0
100
AcDbPoint
 10
208.8295431640572
 20
95.83546303375422
 30
0.0
  0
POINT
  5
CF8A
330
C6D9
100
AcDbEntity
  8
Defpoints
 62
     0
100
AcDbPoint
 10
221.1618286670573
 20
95.83546303375422
 30
0.0
  0
ENDBLK
  5
C6E4
330
C6D9
100
AcDbEntity
  8
0
100
AcDbBlockEnd
  0
BLOCK
  5
C719
330
C713
100
AcDbEntity
  8
0
100
AcDbBlockBegin
  2
*D18
 70
     1
 10
0.0
 20
0.0
 30
0.0
  3
*D18
  1

  0
LINE
  5
CFB7
330
C713
100
AcDbEntity
  8
AM_5
100
AcDbLine
 10
67.44732040918563
 20
83.12553116981636
 30
0.0
 11
99.61898707585262
 21
83.12553116981638
 31
0.0
  0
LINE
  5
CFB8
330
C713
100
AcDbEntity
  8
AM_5
100
AcDbLine
 10
99.61898707585262
 20
83.12553116981638
 30
0.0
 11
110.6528839266015
 21
93.08971023772988
 31
0.0
  0
MTEXT
  5
CFB9
330
C713
100
AcDbEntity
  8
AM_5
 62
     2
100
AcDbMText
 10
81.92565374251895
 20
86.37553116981637
 30
0.0
 40
3.5
 41
0.0
 71
     5
 72
     1
  1
2-%%c3.1×7スロット
 73
     1
 44
1.0
1001
ACAD
1000
MTEXTBEGIN
1070
    73
1070
     1
1070
    44
1040
1.0
1070
    74
1070
     0
1000
MTEXTEND
  0
INSERT
  5
CFBA
330
C713
100
AcDbEntity
  8
AM_5
100
AcDbBlockReference
  2
GENDOT
 10
112.1372177709957
 20
94.43014040688671
 30
0.0
 41
2.0
 42
2.0
 43
2.0
 50
42.08366730285512
  0
POINT
  5
CFBB
330
C713
100
AcDbEntity
  8
Defpoints
 62
     0
100
AcDbPoint
 10
112.1372177709957
 20
94.43014040688671
 30
0.0
  0
POINT
  5
CFBC
330
C713
100
AcDbEntity
  8
Defpoints
 62
     0
100
AcDbPoint
 10
113.2504681542913
 20
95.43546303375432
 30
0.0
  0
ENDBLK
  5
C71A
330
C713
100
AcDbEntity
  8
0
100
AcDbBlockEnd
  0
BLOCK
  5
C74C
330
C746
100
AcDbEntity
  8
0
100
AcDbBlockBegin
  2
*D19
 70
     1
 10
0.0
 20
0.0
 30
0.0
  3
*D19
  1

  0
LINE
  5
CFBD
330
C746
100
AcDbEntity
  8
AM_5
100
AcDbLine
 10
231.4463726245886
 20
82.57046487597595
 30
0.0
 11
217.7197059579215
 21
82.57046487597591
 31
0.0
  0
LINE
  5
CFBE
330
C746
100
AcDbEntity
  8
AM_5
100
AcDbLine
 10
217.7197059579215
 20
82.57046487597591
 30
0.0
 11
208.4939156432302
 21
93.15892229325285
 31
0.0
  0
LINE
  5
CFBF
330
C746
100
AcDbEntity
  8
AM_5
100
AcDbLine
 10
203.829741690884
 20
98.51200377425566
 30
0.0
 11
202.5158898733217
 21
100.0199140505945
 31
0.0
  0
MTEXT
  5
CFC0
330
C746
100
AcDbEntity
  8
AM_5
 62
     2
100
AcDbMText
 10
226.8963726245886
 20
85.82046487597592
 30
0.0
 40
3.5
 41
0.0
 71
     5
 72
     1
  1
2-%%cL
 73
     1
 44
1.0
1001
ACAD
1000
MTEXTBEGIN
1070
    73
1070
     1
1070
    44
1040
1.0
1070
    74
1070
     0
1000
MTEXTEND
  0
LINE
  5
CFC1
330
C746
100
AcDbEntity
  8
AM_5
100
AcDbLine
 10
205.1435935084463
 20
97.00409349791684
 30
0.0
 11
207.1800638256679
 21
94.6668325695917
 31
0.0
  0
INSERT
  5
CFC2
330
C746
100
AcDbEntity
  8
AM_5
100
AcDbBlockReference
  2
GENDOT
 10
205.1435935084463
 20
97.00409349791684
 30
0.0
 41
2.0
 42
2.0
 43
2.0
 50
311.065844381826
  0
INSERT
  5
CFC3
330
C746
100
AcDbEntity
  8
AM_5
100
AcDbBlockReference
  2
GENDOT
 10
207.1800638256679
 20
94.6668325695917
 30
0.0
 41
2.0
 42
2.0
 43
2.0
 50
131.065844381826
  0
POINT
  5
CFC4
330
C746
100
AcDbEntity
  8
Defpoints
 62
     0
100
AcDbPoint
 10
207.1800638256679
 20
94.6668325695917
 30
0.0
  0
POINT
  5
CFC5
330
C746
100
AcDbEntity
  8
Defpoints
 62
     0
100
AcDbPoint
 10
205.1435935084463
 20
97.00409349791684
 30
0.0
  0
ENDBLK
  5
C74D
330
C746
100
AcDbEntity
  8
0
100
AcDbBlockEnd
  0
ENDSEC
  0
SECTION
  2
ENTITIES
  0
LINE
  5
B536
330
1F
100
AcDbEntity
  8
size
100
AcDbLine
 10
0.0000002820350623
 20
210.0000000504798
 30
0.0
 11
297.000000282035
 21
210.0000000504798
 31
0.0
1001
GENIUS_GENREC_14
1002
{
1000
PYDIR
1011
0.0000002820350765
1021
297.0000000504797
1031
0.0
1002
}
1002
{
1000
PXDIR
1011
420.000000282035
1021
0.0000000504797413
1031
0.0
1002
}
1002
{
1000
PORI
1011
0.0000002820350623
1021
0.0000000504797413
1031
0.0
1002
}
1002
{
1000
PINS
1011
210.0000002820351
1021
148.5000000504797
1031
0.0
1002
}
1002
{
1000
HVAL
1000
297
1002
}
1002
{
1000
H
1070
     2
1002
}
1002
{
1000
WVAL
1000
420
1002
}
1002
{
1000
W
1070
     2
1002
}
1002
{
1000
C
1070
     4
1002
}
1001
GENIUS_GENOBJ-N-REC_13
1002
{
1000
OWNER
1000
GEN
1002
}
1001
GENIUS_GENODEF_13
1002
{
1000
HIER
1070
     0
1002
}
1002
{
1000
MANEDIT
1070
     0
1002
}
1002
{
1000
NOSEL
1070
     0
1002
}
1002
{
1000
BEHIND
1070
     0
1002
}
1002
{
1000
OTHER
1070
     0
1002
}
1002
{
1000
REACTOR
1002
}
  0
LINE
  5
B537
330
1F
100
AcDbEntity
  8
size
100
AcDbLine
 10
297.000000282035
 20
210.0000000504798
 30
0.0
 11
297.000000282035
 21
0.0000000504797129
 31
0.0
1001
GENIUS_GENREC_14
1002
{
1000
PYDIR
1011
0.0000002820350765
1021
297.0000000504797
1031
0.0
1002
}
1002
{
1000
PXDIR
1011
420.000000282035
1021
0.0000000504797413
1031
0.0
1002
}
1002
{
1000
PORI
1011
0.0000002820350623
1021
0.0000000504797413
1031
0.0
1002
}
1002
{
1000
PINS
1011
210.0000002820351
1021
148.5000000504797
1031
0.0
1002
}
1002
{
1000
HVAL
1000
297
1002
}
1002
{
1000
H
1070
     2
1002
}
1002
{
1000
WVAL
1000
420
1002
}
1002
{
1000
W
1070
     2
1002
}
1002
{
1000
C
1070
     4
1002
}
1001
GENIUS_GENOBJ-N-REC_13
1002
{
1000
OWNER
1000
GEN
1002
}
1001
GENIUS_GENODEF_13
1002
{
1000
HIER
1070
     0
1002
}
1002
{
1000
MANEDIT
1070
     0
1002
}
1002
{
1000
NOSEL
1070
     0
1002
}
1002
{
1000
BEHIND
1070
     0
1002
}
1002
{
1000
OTHER
1070
     0
1002
}
1002
{
1000
REACTOR
1002
}
  0
LINE
  5
B538
330
1F
100
AcDbEntity
  8
waku
100
AcDbLine
 10
11.50000028203506
 20
8.500000050479741
 30
0.0
 11
285.500000282035
 21
8.500000050479741
 31
0.0
1001
GENIUS_GENREC_14
1002
{
1000
PYDIR
1011
0.0000002820350765
1021
297.0000000504797
1031
0.0
1002
}
1002
{
1000
PXDIR
1011
420.000000282035
1021
0.0000000504797413
1031
0.0
1002
}
1002
{
1000
PORI
1011
0.0000002820350623
1021
0.0000000504797413
1031
0.0
1002
}
1002
{
1000
PINS
1011
210.0000002820351
1021
148.5000000504797
1031
0.0
1002
}
1002
{
1000
HVAL
1000
297
1002
}
1002
{
1000
H
1070
     2
1002
}
1002
{
1000
WVAL
1000
420
1002
}
1002
{
1000
W
1070
     2
1002
}
1002
{
1000
C
1070
     4
1002
}
  0
LINE
  5
B539
330
1F
100
AcDbEntity
  8
waku
100
AcDbLine
 10
285.500000282035
 20
201.5000000504798
 30
0.0
 11
11.50000028203506
 21
201.5000000504798
 31
0.0
1001
GENIUS_GENREC_14
1002
{
1000
PYDIR
1011
-122.9999997179649
1021
210.0000000504798
1031
0.0
1002
}
1002
{
1000
PXDIR
1011
297.000000282035
1021
-86.99999994952026
1031
0.0
1002
}
1002
{
1000
PORI
1011
-122.9999997179649
1021
-86.99999994952026
1031
0.0
1002
}
1002
{
1000
PINS
1011
87.00000028203509
1021
61.50000005047971
1031
0.0
1002
}
1002
{
1000
HVAL
1000
297
1002
}
1002
{
1000
H
1070
     2
1002
}
1002
{
1000
WVAL
1000
420
1002
}
1002
{
1000
W
1070
     2
1002
}
1002
{
1000
C
1070
     4
1002
}
1001
GENIUS_GENOBJ-N-REC_13
1002
{
1000
OWNER
1000
GEN
1002
}
1001
GENIUS_GENODEF_13
1002
{
1000
HIER
1070
     0
1002
}
1002
{
1000
MANEDIT
1070
     0
1002
}
1002
{
1000
NOSEL
1070
     0
1002
}
1002
{
1000
BEHIND
1070
     0
1002
}
1002
{
1000
OTHER
1070
     0
1002
}
1002
{
1000
REACTOR
1002
}
  0
LINE
  5
B53A
330
1F
100
AcDbEntity
  8
waku
100
AcDbLine
 10
11.50000028203508
 20
201.5000000504798
 30
0.0
 11
11.50000028203506
 21
8.500000050479741
 31
0.0
1001
GENIUS_GENREC_14
1002
{
1000
PYDIR
1011
0.0000002820350765
1021
297.0000000504797
1031
0.0
1002
}
1002
{
1000
PXDIR
1011
420.000000282035
1021
0.0000000504797413
1031
0.0
1002
}
1002
{
1000
PORI
1011
0.0000002820350623
1021
0.0000000504797413
1031
0.0
1002
}
1002
{
1000
PINS
1011
210.0000002820351
1021
148.5000000504797
1031
0.0
1002
}
1002
{
1000
HVAL
1000
297
1002
}
1002
{
1000
H
1070
     2
1002
}
1002
{
1000
WVAL
1000
420
1002
}
1002
{
1000
W
1070
     2
1002
}
1002
{
1000
C
1070
     4
1002
}
1001
GENIUS_GENOBJ-N-REC_13
1002
{
1000
OWNER
1000
GEN
1002
}
1001
GENIUS_GENODEF_13
1002
{
1000
HIER
1070
     0
1002
}
1002
{
1000
MANEDIT
1070
     0
1002
}
1002
{
1000
NOSEL
1070
     0
1002
}
1002
{
1000
BEHIND
1070
     0
1002
}
1002
{
1000
OTHER
1070
     0
1002
}
1002
{
1000
REACTOR
1002
}
  0
LINE
  5
B53B
330
1F
100
AcDbEntity
  8
waku
100
AcDbLine
 10
285.500000282035
 20
8.500000050479741
 30
0.0
 11
285.500000282035
 21
201.5000000504798
 31
0.0
1001
GENIUS_GENREC_14
1002
{
1000
PYDIR
1011
-122.9999997179649
1021
216.0000000504798
1031
0.0
1002
}
1002
{
1000
PXDIR
1011
297.000000282035
1021
-80.99999994952026
1031
0.0
1002
}
1002
{
1000
PORI
1011
-122.9999997179649
1021
-80.99999994952026
1031
0.0
1002
}
1002
{
1000
PINS
1011
87.00000028203509
1021
67.50000005047971
1031
0.0
1002
}
1002
{
1000
HVAL
1000
297
1002
}
1002
{
1000
H
1070
     2
1002
}
1002
{
1000
WVAL
1000
420
1002
}
1002
{
1000
W
1070
     2
1002
}
1002
{
1000
C
1070
     4
1002
}
1001
GENIUS_GENOBJ-N-REC_13
1002
{
1000
OWNER
1000
GEN
1002
}
1001
GENIUS_GENODEF_13
1002
{
1000
HIER
1070
     0
1002
}
1002
{
1000
MANEDIT
1070
     0
1002
}
1002
{
1000
NOSEL
1070
     0
1002
}
1002
{
1000
BEHIND
1070
     0
1002
}
1002
{
1000
OTHER
1070
     0
1002
}
1002
{
1000
REACTOR
1002
}
  0
LINE
  5
B53C
330
1F
100
AcDbEntity
  8
size
100
AcDbLine
 10
0.0000002820350836
 20
210.0000000504798
 30
0.0
 11
0.0000002820350623
 21
0.0000000504797413
 31
0.0
1001
GENIUS_GENREC_14
1002
{
1000
PYDIR
1011
0.0000002820350765
1021
297.0000000504797
1031
0.0
1002
}
1002
{
1000
PXDIR
1011
420.000000282035
1021
0.0000000504797413
1031
0.0
1002
}
1002
{
1000
PORI
1011
0.0000002820350623
1021
0.0000000504797413
1031
0.0
1002
}
1002
{
1000
PINS
1011
210.0000002820351
1021
148.5000000504797
1031
0.0
1002
}
1002
{
1000
HVAL
1000
297
1002
}
1002
{
1000
H
1070
     2
1002
}
1002
{
1000
WVAL
1000
420
1002
}
1002
{
1000
W
1070
     2
1002
}
1002
{
1000
C
1070
     4
1002
}
1001
GENIUS_GENOBJ-N-REC_13
1002
{
1000
OWNER
1000
GEN
1002
}
1001
GENIUS_GENODEF_13
1002
{
1000
HIER
1070
     0
1002
}
1002
{
1000
MANEDIT
1070
     0
1002
}
1002
{
1000
NOSEL
1070
     0
1002
}
1002
{
1000
BEHIND
1070
     0
1002
}
1002
{
1000
OTHER
1070
     0
1002
}
1002
{
1000
REACTOR
1002
}
  0
LINE
  5
B53D
330
1F
100
AcDbEntity
  8
size
100
AcDbLine
 10
0.0000002820350623
 20
0.0000000504797413
 30
0.0
 11
297.000000282035
 21
0.0000000504797413
 31
0.0
1001
GENIUS_GENREC_14
1002
{
1000
PYDIR
1011
0.0000002820350765
1021
297.0000000504797
1031
0.0
1002
}
1002
{
1000
PXDIR
1011
420.000000282035
1021
0.0000000504797413
1031
0.0
1002
}
1002
{
1000
PORI
1011
0.0000002820350623
1021
0.0000000504797413
1031
0.0
1002
}
1002
{
1000
PINS
1011
210.0000002820351
1021
148.5000000504797
1031
0.0
1002
}
1002
{
1000
HVAL
1000
297
1002
}
1002
{
1000
H
1070
     2
1002
}
1002
{
1000
WVAL
1000
420
1002
}
1002
{
1000
W
1070
     2
1002
}
1002
{
1000
C
1070
     4
1002
}
1001
GENIUS_GENOBJ-N-REC_13
1002
{
1000
OWNER
1000
GEN
1002
}
1001
GENIUS_GENODEF_13
1002
{
1000
HIER
1070
     0
1002
}
1002
{
1000
MANEDIT
1070
     0
1002
}
1002
{
1000
NOSEL
1070
     0
1002
}
1002
{
1000
BEHIND
1070
     0
1002
}
1002
{
1000
OTHER
1070
     0
1002
}
1002
{
1000
REACTOR
1002
}
  0
LINE
  5
B6A2
330
1F
100
AcDbEntity
  8
AM_0
100
AcDbLine
 10
11.50000028203513
 20
201.5000000504798
 30
0.0
 11
101.5000002820351
 21
201.5000000504798
 31
0.0
  0
LINE
  5
B6A3
330
1F
100
AcDbEntity
  8
AM_0
100
AcDbLine
 10
11.50000028203518
 20
153.5000000504797
 30
0.0
 11
101.5000002820352
 21
153.5000000504797
 31
0.0
  0
LINE
  5
B6A4
330
1F
100
AcDbEntity
  8
AM_2
100
AcDbLine
 10
11.50000028203518
 20
169.5000000504798
 30
0.0
 11
101.5000002820352
 21
169.5000000504797
 31
0.0
  0
LINE
  5
B6A5
330
1F
100
AcDbEntity
  8
AM_2
100
AcDbLine
 10
11.50000028203513
 20
185.5000000504797
 30
0.0
 11
101.5000002820351
 21
185.5000000504797
 31
0.0
  0
LINE
  5
B6A6
330
1F
100
AcDbEntity
  8
AM_2
100
AcDbLine
 10
11.50000028203513
 20
193.5000000504797
 30
0.0
 11
101.5000002820351
 21
193.5000000504797
 31
0.0
  0
LINE
  5
B6A7
330
1F
100
AcDbEntity
  8
AM_2
100
AcDbLine
 10
31.5000002820351
 20
201.5000000504798
 30
0.0
 11
31.50000028203516
 21
153.5000000504797
 31
0.0
  0
MTEXT
  5
B6A8
330
1F
100
AcDbEntity
  8
AM_6
100
AcDbMText
 10
21.50000028203519
 20
165.5000000504798
 30
0.0
 40
3.2
 41
20.0
 71
     5
 72
     5
  1
仕上げ
 73
     1
 44
1.0
1001
ACAD
1000
MTEXTBEGIN
1070
    73
1070
     1
1070
    44
1040
1.0
1070
    74
1070
     0
1000
MTEXTEND
  0
MTEXT
  5
B6A9
330
1F
100
AcDbEntity
  8
AM_6
100
AcDbMText
 10
21.50000028203513
 20
177.5000000504797
 30
0.0
 40
3.2
 41
20.0
 71
     5
 72
     5
  1
材　質
 73
     1
 44
1.0
1001
ACAD
1000
MTEXTBEGIN
1070
    73
1070
     1
1070
    44
1040
1.0
1070
    74
1070
     0
1000
MTEXTEND
1000
ACAD_MTEXT_DEFINED_HEIGHT_BEGIN
1070
    46
1040
15.99999999999996
1000
ACAD_MTEXT_DEFINED_HEIGHT_END
  0
MTEXT
  5
B6AA
330
1F
100
AcDbEntity
  8
AM_6
100
AcDbMText
 10
21.5000002820351
 20
197.5000000504797
 30
0.0
 40
3.2
 41
20.0
 71
     5
 72
     5
  1
品　名
 73
     1
 44
1.0
1001
ACAD
1000
MTEXTBEGIN
1070
    73
1070
     1
1070
    44
1040
1.0
1070
    74
1070
     0
1000
MTEXTEND
  0
MTEXT
  5
B6AB
330
1F
100
AcDbEntity
  8
AM_6
100
AcDbMText
 10
31.50000028203519
 20
165.5000000504798
 30
0.0
 40
3.2
 41
90.0
 71
     4
 72
     5
  1
　生地（ホワイト）
 73
     1
 44
1.0
1001
ACAD
1000
MTEXTBEGIN
1070
    73
1070
     1
1070
    44
1040
1.0
1070
    74
1070
     0
1000
MTEXTEND
  0
MTEXT
  5
B6AC
330
1F
100
AcDbEntity
  8
AM_6
100
AcDbMText
 10
31.50000028203513
 20
181.5000000504797
 30
0.0
 40
3.2
 41
90.0
 71
     4
 72
     5
  1
　本体、受け：ポリアセタール樹脂
 73
     1
 44
1.0
1001
ACAD
1000
MTEXTBEGIN
1070
    73
1070
     1
1070
    44
1040
1.0
1070
    74
1070
     0
1000
MTEXTEND
  0
MTEXT
  5
B6AD
330
1F
100
AcDbEntity
  8
AM_6
100
AcDbMText
 10
31.5000002820351
 20
197.5000000504797
 30
0.0
 40
3.2
 41
90.0
 71
     4
 72
     5
  1
　ローラーキャッチ
 73
     1
 44
1.0
1001
ACAD
1000
MTEXTBEGIN
1070
    73
1070
     1
1070
    44
1040
1.0
1070
    74
1070
     0
1000
MTEXTEND
  0
LINE
  5
B6AE
330
1F
100
AcDbEntity
  8
AM_0
100
AcDbLine
 10
101.5000002820351
 20
201.5000000504798
 30
0.0
 11
101.500000282035
 21
153.5000000504797
 31
0.0
  0
MTEXT
  5
B6B0
330
1F
100
AcDbEntity
  8
AM_6
100
AcDbMText
 10
21.50000028203519
 20
157.5000000504797
 30
0.0
 40
3.2
 41
20.00000000000001
 71
     5
 72
     5
  1
備　考
 73
     1
 44
1.0
1001
ACAD
1000
MTEXTBEGIN
1070
    73
1070
     1
1070
    44
1040
1.0
1070
    74
1070
     0
1000
MTEXTEND
1000
ACAD_MTEXT_DEFINED_HEIGHT_BEGIN
1070
    46
1040
7.999999999999982
1000
ACAD_MTEXT_DEFINED_HEIGHT_END
  0
MTEXT
  5
B6B1
330
1F
100
AcDbEntity
  8
AM_6
100
AcDbMText
 10
21.50000028203513
 20
189.5000000504797
 30
0.0
 40
3.2
 41
20.0
 71
     5
 72
     5
  1
品　番
 73
     1
 44
1.0
1001
ACAD
1000
MTEXTBEGIN
1070
    73
1070
     1
1070
    44
1040
1.0
1070
    74
1070
     0
1000
MTEXTEND
  0
MTEXT
  5
B6B2
330
1F
100
AcDbEntity
  8
AM_6
100
AcDbMText
 10
31.50000028203513
 20
189.5000000504797
 30
0.0
 40
3.2
 41
90.0
 71
     4
 72
     5
  1
　ELR-10-「」
 73
     1
 44
1.0
1001
ACAD
1000
MTEXTBEGIN
1070
    73
1070
     1
1070
    44
1040
1.0
1070
    74
1070
     0
1000
MTEXTEND
  0
LINE
  5
B867
330
1F
100
AcDbEntity
  8
AM_2
100
AcDbLine
 10
11.50000028203518
 20
161.5000000504797
 30
0.0
 11
101.5000002820352
 21
161.5000000504797
 31
0.0
  0
LINE
  5
C3A6
330
1F
100
AcDbEntity
  8
AM_0
100
AcDbLine
 10
160.578259892739
 20
106.7592471247542
 30
0.0
 11
164.578259892739
 21
104.5592471247542
 31
0.0
  0
LINE
  5
C3A7
330
1F
100
AcDbEntity
  8
AM_0
100
AcDbLine
 10
172.560178642739
 20
109.0354630337542
 30
0.0
 11
167.060178642739
 21
109.0354630337542
 31
0.0
  0
LINE
  5
C3A8
330
1F
100
AcDbEntity
  8
AM_0
100
AcDbLine
 10
172.560178642739
 20
106.2354630337542
 30
0.0
 11
167.060178642739
 21
106.2354630337542
 31
0.0
  0
LINE
  5
C3AA
330
1F
100
AcDbEntity
  8
AM_0
100
AcDbLine
 10
165.820157677739
 20
110.4854106207542
 30
0.0
 11
167.060178642739
 21
109.0354630337542
 31
0.0
  0
LINE
  5
C3AB
330
1F
100
AcDbEntity
  8
AM_0
100
AcDbLine
 10
164.578259892739
 20
110.7116789427542
 30
0.0
 11
160.578259892739
 21
108.5116789427542
 31
0.0
  0
LINE
  5
C3AC
330
1F
100
AcDbEntity
  8
AM_7
 48
0.6
100
AcDbLine
 10
180.2601786427391
 20
107.6354630337542
 30
0.0
 11
157.060178642739
 21
107.6354630337543
 31
0.0
  0
LINE
  5
C3AD
330
1F
100
AcDbEntity
  8
AM_0
100
AcDbLine
 10
174.560178642739
 20
104.2354630337542
 30
0.0
 11
174.560178642739
 21
91.63546303375424
 31
0.0
  0
LINE
  5
C3AF
330
1F
100
AcDbEntity
  8
AM_0
100
AcDbLine
 10
174.560178642739
 20
123.6354630337542
 30
0.0
 11
174.560178642739
 21
111.0354630337542
 31
0.0
  0
LINE
  5
C3B0
330
1F
100
AcDbEntity
  8
AM_0
100
AcDbLine
 10
176.560178642739
 20
91.63546303375424
 30
0.0
 11
174.560178642739
 21
91.63546303375424
 31
0.0
  0
LINE
  5
C3B1
330
1F
100
AcDbEntity
  8
AM_0
100
AcDbLine
 10
176.560178642739
 20
123.6354630337542
 30
0.0
 11
176.560178642739
 21
91.63546303375424
 31
0.0
  0
LINE
  5
C3B3
330
1F
100
AcDbEntity
  8
AM_0
100
AcDbLine
 10
209.1618286670572
 20
123.6354630337542
 30
0.0
 11
203.1618286670572
 21
123.6354630337542
 31
0.0
  0
LINE
  5
C3B4
330
1F
100
AcDbEntity
  8
AM_0
100
AcDbLine
 10
201.6618286670571
 20
122.1354630337542
 30
0.0
 11
201.6618286670571
 21
93.13546303375423
 31
0.0
  0
LINE
  5
C3B5
330
1F
100
AcDbEntity
  8
AM_7
 48
0.5
100
AcDbLine
 10
211.7220861610571
 20
107.6354630337542
 30
0.0
 11
200.6015711730572
 21
107.6354630337542
 31
0.0
  0
LINE
  5
C3B6
330
1F
100
AcDbEntity
  8
AM_7
100
AcDbLine
 10
206.1618286670572
 20
124.5865258097542
 30
0.0
 11
206.1618286670572
 21
89.91214227275424
 31
0.0
  0
LINE
  5
C3B7
330
1F
100
AcDbEntity
  8
AM_0
100
AcDbLine
 10
174.560178642739
 20
123.6354630337542
 30
0.0
 11
176.560178642739
 21
123.6354630337542
 31
0.0
  0
LINE
  5
C3B8
330
1F
100
AcDbEntity
  8
AM_7
 48
0.2
100
AcDbLine
 10
208.8295431640572
 20
95.83546303375422
 30
0.0
 11
203.4941141700572
 21
95.83546303375422
 31
0.0
  0
LINE
  5
C3B9
330
1F
100
AcDbEntity
  8
AM_7
 48
0.2
100
AcDbLine
 10
208.7891232470572
 20
119.4354630337542
 30
0.0
 11
203.5345340870572
 21
119.4354630337542
 31
0.0
  0
LINE
  5
C3BA
330
1F
100
AcDbEntity
  8
AM_0
100
AcDbLine
 10
210.6618286670572
 20
93.13546303375423
 30
0.0
 11
210.6618286670572
 21
122.1354630337542
 31
0.0
  0
LINE
  5
C3BB
330
1F
100
AcDbEntity
  8
AM_0
100
AcDbLine
 10
203.1618286670572
 20
91.63546303375424
 30
0.0
 11
209.1618286670572
 21
91.63546303375424
 31
0.0
  0
LINE
  5
C3BC
330
1F
100
AcDbEntity
  8
AM_0
100
AcDbLine
 10
165.820157677739
 20
104.7855154457542
 30
0.0
 11
167.060178642739
 21
106.2354630337542
 31
0.0
  0
LINE
  5
C3BF
330
1F
100
AcDbEntity
  8
AM_0
100
AcDbLine
 10
107.7504681542914
 20
120.2854630337543
 30
0.0
 11
107.7504681542914
 21
108.6354630337542
 31
0.0
  0
LINE
  5
C3C0
330
1F
100
AcDbEntity
  8
AM_0
100
AcDbLine
 10
118.2504681542914
 20
123.2854630337543
 30
0.0
 11
110.7504681542914
 21
123.2854630337543
 31
0.0
  0
LINE
  5
C3C1
330
1F
100
AcDbEntity
  8
AM_0
100
AcDbLine
 10
118.2504681542914
 20
91.98546303375428
 30
0.0
 11
110.7504681542914
 21
91.98546303375428
 31
0.0
  0
LINE
  5
C3C2
330
1F
100
AcDbEntity
  8
AM_0
100
AcDbLine
 10
118.2504681542914
 20
116.2854630337543
 30
0.0
 11
116.7504681542913
 21
116.2854630337543
 31
0.0
  0
LINE
  5
C3C3
330
1F
100
AcDbEntity
  8
AM_0
100
AcDbLine
 10
114.7504681542914
 20
114.2854630337543
 30
0.0
 11
114.7504681542914
 21
110.3615791007543
 31
0.0
  0
LINE
  5
C3C4
330
1F
100
AcDbEntity
  8
AM_0
100
AcDbLine
 10
116.7504681542913
 20
98.98546303375429
 30
0.0
 11
118.2504681542914
 21
98.98546303375429
 31
0.0
  0
LINE
  5
C3C5
330
1F
100
AcDbEntity
  8
AM_0
100
AcDbLine
 10
117.2504681542914
 20
121.3354630337542
 30
0.0
 11
113.2504681542914
 21
121.3354630337542
 31
0.0
  0
LINE
  5
C3C6
330
1F
100
AcDbEntity
  8
AM_0
100
AcDbLine
 10
117.2504681542914
 20
118.3354630337542
 30
0.0
 11
113.2504681542914
 21
118.3354630337542
 31
0.0
  0
LINE
  5
C3C8
330
1F
100
AcDbEntity
  8
AM_0
100
AcDbLine
 10
117.2504681542914
 20
96.9354630337543
 30
0.0
 11
113.2504681542914
 21
96.9354630337543
 31
0.0
  0
LINE
  5
C3C9
330
1F
100
AcDbEntity
  8
AM_0
100
AcDbLine
 10
117.2504681542914
 20
93.9354630337543
 30
0.0
 11
113.2504681542914
 21
93.9354630337543
 31
0.0
  0
LINE
  5
C3CA
330
1F
100
AcDbEntity
  8
AM_7
 48
0.3
100
AcDbLine
 10
119.2041941722914
 20
95.4354630337543
 30
0.0
 11
111.2967421362914
 21
95.4354630337543
 31
0.0
  0
LINE
  5
C3CC
330
1F
100
AcDbEntity
  8
AM_7
 48
0.3
100
AcDbLine
 10
115.2504681542914
 20
98.2028536902543
 30
0.0
 11
115.2504681542914
 21
92.6680723772543
 31
0.0
  0
LINE
  5
C3CD
330
1F
100
AcDbEntity
  8
AM_7
 48
0.5
100
AcDbLine
 10
133.9025443292914
 20
112.9354630337543
 30
0.0
 11
122.4983919792914
 21
112.9354630337543
 31
0.0
  0
LINE
  5
C3CE
330
1F
100
AcDbEntity
  8
AM_7
 48
0.59
100
AcDbLine
 10
128.2004681542914
 20
120.8141140927542
 30
0.0
 11
128.2004681542914
 21
94.45681197475428
 31
0.0
  0
LINE
  5
C3CF
330
1F
100
AcDbEntity
  8
AM_7
 48
0.5
100
AcDbLine
 10
134.1995274632914
 20
102.3354630337542
 30
0.0
 11
122.2014088452914
 21
102.3354630337542
 31
0.0
  0
LINE
  5
C3D0
330
1F
100
AcDbEntity
  8
AM_0
100
AcDbLine
 10
113.5963661882914
 20
108.6354630337542
 30
0.0
 11
107.7504681542914
 21
108.6354630337542
 31
0.0
  0
LINE
  5
C3D1
330
1F
100
AcDbEntity
  8
AM_0
100
AcDbLine
 10
107.7504681542914
 20
108.6354630337542
 30
0.0
 11
107.7504681542914
 21
106.6354630337543
 31
0.0
  0
LINE
  5
C3D2
330
1F
100
AcDbEntity
  8
AM_0
100
AcDbLine
 10
113.5963661882914
 20
106.6354630337543
 30
0.0
 11
107.7504681542914
 21
106.6354630337543
 31
0.0
  0
LINE
  5
C3D3
330
1F
100
AcDbEntity
  8
AM_0
100
AcDbLine
 10
107.7504681542914
 20
106.6354630337543
 30
0.0
 11
107.7504681542914
 21
94.98546303375428
 31
0.0
  0
LINE
  5
C3D4
330
1F
100
AcDbEntity
  8
AM_7
 48
0.8100000000000001
100
AcDbLine
 10
136.7956437854384
 20
107.6354630337543
 30
0.0
 11
104.8889072834134
 21
107.6354630337543
 31
0.0
  0
LINE
  5
C3D7
330
1F
100
AcDbEntity
  8
AM_0
100
AcDbLine
 10
114.7504681542914
 20
104.9093469667542
 30
0.0
 11
114.7504681542914
 21
100.9854630337543
 31
0.0
  0
LINE
  5
C3D8
330
1F
100
AcDbEntity
  8
AM_0
100
AcDbLine
 10
132.2504681542914
 20
62.013056028415
 30
0.0
 11
122.7504681542914
 21
62.013056028415
 31
0.0
  0
LINE
  5
C3D9
330
1F
100
AcDbEntity
  8
AM_0
100
AcDbLine
 10
122.7504681542914
 20
62.013056028415
 30
0.0
 11
122.7504681542914
 21
59.013056028415
 31
0.0
  0
LINE
  5
C3DA
330
1F
100
AcDbEntity
  8
AM_0
100
AcDbLine
 10
122.7504681542914
 20
53.01305602841501
 30
0.0
 11
132.2504681542914
 21
53.01305602841501
 31
0.0
  0
LINE
  5
C3DB
330
1F
100
AcDbEntity
  8
AM_0
100
AcDbLine
 10
132.2504681542914
 20
53.01305602841501
 30
0.0
 11
132.2504681542914
 21
56.01305602841501
 31
0.0
  0
LINE
  5
C3DC
330
1F
100
AcDbEntity
  8
AM_0
100
AcDbLine
 10
132.2504681542914
 20
59.013056028415
 30
0.0
 11
122.7504681542914
 21
59.013056028415
 31
0.0
  0
LINE
  5
C3DD
330
1F
100
AcDbEntity
  8
AM_0
100
AcDbLine
 10
122.7504681542914
 20
59.013056028415
 30
0.0
 11
122.7504681542914
 21
56.01305602841501
 31
0.0
  0
LINE
  5
C3DE
330
1F
100
AcDbEntity
  8
AM_0
100
AcDbLine
 10
132.2504681542914
 20
59.013056028415
 30
0.0
 11
132.2504681542914
 21
62.013056028415
 31
0.0
  0
LINE
  5
C3DF
330
1F
100
AcDbEntity
  8
AM_0
100
AcDbLine
 10
132.2504681542914
 20
56.01305602841501
 30
0.0
 11
122.7504681542914
 21
56.01305602841501
 31
0.0
  0
LINE
  5
C3E0
330
1F
100
AcDbEntity
  8
AM_0
100
AcDbLine
 10
132.2504681542914
 20
56.01305602841501
 30
0.0
 11
132.2504681542914
 21
59.013056028415
 31
0.0
  0
LINE
  5
C3E1
330
1F
100
AcDbEntity
  8
AM_0
100
AcDbLine
 10
122.7504681542914
 20
56.01305602841501
 30
0.0
 11
122.7504681542914
 21
53.01305602841501
 31
0.0
  0
LINE
  5
C3E2
330
1F
100
AcDbEntity
  8
AM_0
100
AcDbLine
 10
122.7504681542914
 20
59.013056028415
 30
0.0
 11
112.7504681542914
 21
59.013056028415
 31
0.0
  0
LINE
  5
C3E3
330
1F
100
AcDbEntity
  8
AM_0
100
AcDbLine
 10
121.7504681542914
 20
51.71305602841499
 30
0.0
 11
114.7504681542914
 21
51.71305602841499
 31
0.0
  0
LINE
  5
C3E4
330
1F
100
AcDbEntity
  8
AM_0
100
AcDbLine
 10
107.7504681542914
 20
51.71305602841499
 30
0.0
 11
107.7504681542914
 21
49.41305602841501
 31
0.0
  0
LINE
  5
C3E5
330
1F
100
AcDbEntity
  8
AM_0
100
AcDbLine
 10
107.7504681542914
 20
49.41305602841501
 30
0.0
 11
121.7504681542914
 21
49.41305602841501
 31
0.0
  0
LINE
  5
C3E6
330
1F
100
AcDbEntity
  8
AM_0
100
AcDbLine
 10
121.7504681542914
 20
49.41305602841501
 30
0.0
 11
121.7504681542914
 21
51.71305602841499
 31
0.0
  0
LINE
  5
C3E7
330
1F
100
AcDbEntity
  8
AM_7
 48
0.6
100
AcDbLine
 10
127.5004681542914
 20
63.44844267841501
 30
0.0
 11
127.5004681542914
 21
50.64089176941499
 31
0.0
  0
LINE
  5
C3E8
330
1F
100
AcDbEntity
  8
AM_0
100
AcDbLine
 10
112.7504681542914
 20
59.013056028415
 30
0.0
 11
107.7504681542914
 21
51.71305602841499
 31
0.0
  0
LINE
  5
C3E9
330
1F
100
AcDbEntity
  8
AM_0
100
AcDbLine
 10
122.7504681542914
 20
56.01305602841501
 30
0.0
 11
121.2504681542914
 21
56.01305602841501
 31
0.0
  0
LINE
  5
C3EA
330
1F
100
AcDbEntity
  8
AM_0
100
AcDbLine
 10
121.2504681542914
 20
56.01305602841501
 30
0.0
 11
121.2504681542914
 21
53.91305602841502
 31
0.0
  0
LINE
  5
C3EB
330
1F
100
AcDbEntity
  8
AM_0
100
AcDbLine
 10
121.2504681542914
 20
53.91305602841502
 30
0.0
 11
115.7504681542913
 21
53.91305602841502
 31
0.0
  0
LINE
  5
C3EC
330
1F
100
AcDbEntity
  8
AM_0
100
AcDbLine
 10
114.7504681542914
 20
52.91305602841501
 30
0.0
 11
114.7504681542914
 21
51.71305602841499
 31
0.0
  0
LINE
  5
C3ED
330
1F
100
AcDbEntity
  8
AM_0
100
AcDbLine
 10
114.7504681542914
 20
51.71305602841499
 30
0.0
 11
112.7504681542914
 21
51.71305602841499
 31
0.0
  0
LINE
  5
C3EE
330
1F
100
AcDbEntity
  8
AM_0
100
AcDbLine
 10
112.7504681542914
 20
59.013056028415
 30
0.0
 11
112.7504681542914
 21
51.71305602841499
 31
0.0
  0
LINE
  5
C3EF
330
1F
100
AcDbEntity
  8
AM_0
100
AcDbLine
 10
112.7504681542914
 20
51.71305602841499
 30
0.0
 11
107.7504681542914
 21
51.71305602841499
 31
0.0
  0
ARC
  5
C3F1
330
1F
100
AcDbEntity
  8
AM_0
100
AcDbCircle
 10
161.060178642739
 20
107.6354630337543
 30
0.0
 40
1.0
100
AcDbArc
 50
118.8107937429984
 51
180.0
  0
ARC
  5
C3F2
330
1F
100
AcDbEntity
  8
AM_0
100
AcDbCircle
 10
161.060178642739
 20
107.6354630337543
 30
0.0
 40
1.0
100
AcDbArc
 50
180.0
 51
241.1892062570014
  0
ARC
  5
C3F3
330
1F
100
AcDbEntity
  8
AM_0
100
AcDbCircle
 10
165.060178642739
 20
109.8354630337542
 30
0.0
 40
1.0
100
AcDbArc
 50
40.53765030699913
 51
118.8107937429984
  0
ARC
  5
C3F4
330
1F
100
AcDbEntity
  8
AM_0
100
AcDbCircle
 10
165.060178642739
 20
105.4354630337543
 30
0.0
 40
1.0
100
AcDbArc
 50
241.1892062570014
 51
319.4623496930006
  0
ARC
  5
C3F5
330
1F
100
AcDbEntity
  8
AM_0
100
AcDbCircle
 10
118.2504681542914
 20
119.7854630337543
 30
0.0
 40
3.5
100
AcDbArc
 50
270.0
 51
90.0
  0
ARC
  5
C3F6
330
1F
100
AcDbEntity
  8
AM_0
100
AcDbCircle
 10
118.2504681542914
 20
95.48546303375429
 30
0.0
 40
3.5
100
AcDbArc
 50
270.0
 51
0.0
  0
ARC
  5
C3F7
330
1F
100
AcDbEntity
  8
AM_0
100
AcDbCircle
 10
113.2504681542914
 20
119.8354630337542
 30
0.0
 40
1.5
100
AcDbArc
 50
90.0
 51
270.0
  0
ARC
  5
C3F8
330
1F
100
AcDbEntity
  8
AM_0
100
AcDbCircle
 10
117.2504681542914
 20
119.8354630337542
 30
0.0
 40
1.5
100
AcDbArc
 50
270.0
 51
90.0
  0
ARC
  5
C3F9
330
1F
100
AcDbEntity
  8
AM_0
100
AcDbCircle
 10
113.2504681542914
 20
95.4354630337543
 30
0.0
 40
1.5
100
AcDbArc
 50
90.0
 51
180.0
  0
ARC
  5
C3FA
330
1F
100
AcDbEntity
  8
AM_0
100
AcDbCircle
 10
117.2504681542914
 20
95.4354630337543
 30
0.0
 40
1.5
100
AcDbArc
 50
270.0
 51
90.0
  0
ARC
  5
C3FB
330
1F
100
AcDbEntity
  8
AM_0
100
AcDbCircle
 10
128.2004681542914
 20
102.3354630337542
 30
0.0
 40
4.75
100
AcDbArc
 50
0.0
 51
180.0
  0
ARC
  5
C3FC
330
1F
100
AcDbEntity
  8
AM_0
100
AcDbCircle
 10
128.2004681542914
 20
102.3354630337542
 30
0.0
 40
4.75
100
AcDbArc
 50
180.0
 51
0.0
  0
ARC
  5
C3FD
330
1F
100
AcDbEntity
  8
AM_0
100
AcDbCircle
 10
139.7548204742914
 20
81.79987520875426
 30
0.0
 40
37.960355164
100
AcDbArc
 50
110.3836111189984
 51
131.4328174759996
  0
ARC
  5
C3FE
330
1F
100
AcDbEntity
  8
AM_0
100
AcDbCircle
 10
116.9504681542914
 20
107.6354630337543
 30
0.0
 40
3.5
100
AcDbArc
 50
131.4217123280005
 51
180.0
  0
ARC
  5
C3FF
330
1F
100
AcDbEntity
  8
AM_0
100
AcDbCircle
 10
116.9504681542914
 20
107.6354630337543
 30
0.0
 40
1.5
100
AcDbArc
 50
131.4217123280005
 51
180.0
  0
ARC
  5
C400
330
1F
100
AcDbEntity
  8
AM_0
100
AcDbCircle
 10
116.9504681542914
 20
107.6354630337543
 30
0.0
 40
1.5
100
AcDbArc
 50
180.0
 51
228.5782876719995
  0
ARC
  5
C401
330
1F
100
AcDbEntity
  8
AM_0
100
AcDbCircle
 10
139.7755326942914
 20
133.5056471987543
 30
0.0
 40
36.0
100
AcDbArc
 50
228.5782876719995
 51
241.7106985059987
  0
ARC
  5
C402
330
1F
100
AcDbEntity
  8
AM_0
100
AcDbCircle
 10
139.7548204742914
 20
133.4710508577542
 30
0.0
 40
37.960355164
100
AcDbArc
 50
228.5671825240003
 51
249.6163888810013
  0
ARC
  5
C403
330
1F
100
AcDbEntity
  8
AM_0
100
AcDbCircle
 10
116.9504681542914
 20
107.6354630337543
 30
0.0
 40
3.5
100
AcDbArc
 50
180.0
 51
228.5782876719995
  0
ARC
  5
C404
330
1F
100
AcDbEntity
  8
AM_0
100
AcDbCircle
 10
139.7755326942914
 20
81.76527886875426
 30
0.0
 40
36.0
100
AcDbArc
 50
118.289301494001
 51
131.4217123280005
  0
ARC
  5
C405
330
1F
100
AcDbEntity
  8
AM_0
100
AcDbCircle
 10
122.9512379932914
 20
113.0253669647542
 30
0.0
 40
0.5
100
AcDbArc
 50
359.0187871180011
 51
118.289301494001
  0
ARC
  5
C406
330
1F
100
AcDbEntity
  8
AM_0
100
AcDbCircle
 10
122.9512379932913
 20
102.2455591017543
 30
0.0
 40
0.5
100
AcDbArc
 50
241.7106985059987
 51
0.9812128819989586
  0
ARC
  5
C407
330
1F
100
AcDbEntity
  8
AM_0
100
AcDbCircle
 10
113.2504681542914
 20
95.4354630337543
 30
0.0
 40
1.5
100
AcDbArc
 50
180.0
 51
270.0
  0
ARC
  5
C408
330
1F
100
AcDbEntity
  8
AM_0
100
AcDbCircle
 10
118.2504681542914
 20
95.48546303375429
 30
0.0
 40
3.5
100
AcDbArc
 50
0.0
 51
90.0
  0
CIRCLE
  5
C409
330
1F
100
AcDbEntity
  8
AM_0
100
AcDbCircle
 10
206.1618286670572
 20
119.4354630337542
 30
0.0
 40
1.55
  0
CIRCLE
  5
C40A
330
1F
100
AcDbEntity
  8
AM_0
100
AcDbCircle
 10
206.1618286670572
 20
95.83546303375422
 30
0.0
 40
1.55
  0
CIRCLE
  5
C40B
330
1F
100
AcDbEntity
  8
AM_0
100
AcDbCircle
 10
128.2004681542914
 20
112.9354630337543
 30
0.0
 40
4.75
  0
ARC
  5
C40C
330
1F
100
AcDbEntity
  8
AM_0
100
AcDbCircle
 10
203.1618286670572
 20
122.1354630337542
 30
0.0
 40
1.5
100
AcDbArc
 50
90.0
 51
180.0
  0
ARC
  5
C40D
330
1F
100
AcDbEntity
  8
AM_0
100
AcDbCircle
 10
209.1618286670572
 20
122.1354630337542
 30
0.0
 40
1.5
100
AcDbArc
 50
0.0
 51
90.0
  0
ARC
  5
C40E
330
1F
100
AcDbEntity
  8
AM_0
100
AcDbCircle
 10
209.1618286670572
 20
93.13546303375423
 30
0.0
 40
1.5
100
AcDbArc
 50
270.0
 51
0.0
  0
ARC
  5
C40F
330
1F
100
AcDbEntity
  8
AM_0
100
AcDbCircle
 10
203.1618286670572
 20
93.13546303375423
 30
0.0
 40
1.5
100
AcDbArc
 50
180.0
 51
270.0
  0
ARC
  5
C410
330
1F
100
AcDbEntity
  8
AM_0
100
AcDbCircle
 10
172.560178642739
 20
111.0354630337542
 30
0.0
 40
2.0
100
AcDbArc
 50
270.0
 51
0.0
  0
ARC
  5
C411
330
1F
100
AcDbEntity
  8
AM_0
100
AcDbCircle
 10
172.560178642739
 20
104.2354630337542
 30
0.0
 40
2.0
100
AcDbArc
 50
0.0
 51
90.0
  0
ARC
  5
C412
330
1F
100
AcDbEntity
  8
AM_0
100
AcDbCircle
 10
110.7504681542914
 20
120.2854630337543
 30
0.0
 40
3.0
100
AcDbArc
 50
90.0
 51
180.0
  0
ARC
  5
C413
330
1F
100
AcDbEntity
  8
AM_0
100
AcDbCircle
 10
110.7504681542914
 20
94.98546303375428
 30
0.0
 40
3.0
100
AcDbArc
 50
180.0
 51
270.0
  0
ARC
  5
C414
330
1F
100
AcDbEntity
  8
AM_0
100
AcDbCircle
 10
116.7504681542913
 20
114.2854630337543
 30
0.0
 40
2.0
100
AcDbArc
 50
90.0
 51
180.0
  0
ARC
  5
C415
330
1F
100
AcDbEntity
  8
AM_0
100
AcDbCircle
 10
116.7504681542913
 20
100.9854630337543
 30
0.0
 40
2.0
100
AcDbArc
 50
180.0
 51
270.0
  0
ARC
  5
C416
330
1F
100
AcDbEntity
  8
AM_0
100
AcDbCircle
 10
115.7504681542913
 20
52.91305602841501
 30
0.0
 40
1.0
100
AcDbArc
 50
90.0
 51
180.0
  0
CIRCLE
  5
C417
330
1F
100
AcDbEntity
  8
AM_0
100
AcDbCircle
 10
203.6618286670571
 20
107.6354630337542
 30
0.0
 40
0.4041451880000001
  0
LINE
  5
C418
330
1F
100
AcDbEntity
  8
AM_0
100
AcDbLine
 10
176.560178642739
 20
108.0396082217542
 30
0.0
 11
177.2601786427391
 21
107.6354630337542
 31
0.0
  0
LINE
  5
C419
330
1F
100
AcDbEntity
  8
AM_0
100
AcDbLine
 10
177.2601786427391
 20
107.6354630337542
 30
0.0
 11
176.560178642739
 21
107.2313178447542
 31
0.0
  0
CIRCLE
  5
C41A
330
1F
100
AcDbEntity
  8
AM_0
100
AcDbCircle
 10
208.6618286670572
 20
107.6354630337542
 30
0.0
 40
0.4041451880000001
  0
MTEXT
  5
C4B3
330
1F
100
AcDbEntity
  8
AM_6
100
AcDbMText
 10
31.50000028203519
 20
173.5000000504797
 30
0.0
 40
3.2
 41
90.0
 71
     4
 72
     5
  1
　ローラー：ポリエチレン樹脂
 73
     1
 44
1.0
1001
ACAD
1000
MTEXTBEGIN
1070
    73
1070
     1
1070
    44
1040
1.0
1070
    74
1070
     0
1000
MTEXTEND
  0
LINE
  5
C4B9
330
1F
100
AcDbEntity
  8
AM_7
 48
0.3
100
AcDbLine
 10
119.2041941722914
 20
119.8354630337542
 30
0.0
 11
111.2967421362914
 21
119.8354630337542
 31
0.0
  0
LINE
  5
C4BA
330
1F
100
AcDbEntity
  8
AM_7
 48
0.3
100
AcDbLine
 10
115.2504681542914
 20
122.6028536902542
 30
0.0
 11
115.2504681542914
 21
117.0680723772543
 31
0.0
  0
DIMENSION
  5
C4BB
330
1F
100
AcDbEntity
  8
AM_5
100
AcDbDimension
  2
*D6
 10
88.75046815429138
 20
91.98546303375429
 30
0.0
 11
85.65046815429138
 21
107.6354630337543
 31
0.0
 70
    32
  1
C
 71
     5
 42
31.30000000000001
  3
SYS$0
100
AcDbAlignedDimension
 13
110.7504681542914
 23
123.2854630337543
 33
0.0
 14
110.7504681542914
 24
91.98546303375428
 34
0.0
 50
90.0
100
AcDbRotatedDimension
  0
DIMENSION
  5
C4DA
330
1F
100
AcDbEntity
  8
AM_5
100
AcDbDimension
  2
*D7
 10
98.75046815429133
 20
95.4354630337543
 30
0.0
 11
95.65046815429132
 21
107.6354630337543
 31
0.0
 70
    32
  1
D
 71
     5
 42
24.39999999999995
  3
SYS$0
100
AcDbAlignedDimension
 13
111.2967421362914
 23
119.8354630337542
 33
0.0
 14
111.2967421362914
 24
95.4354630337543
 34
0.0
 50
90.0
100
AcDbRotatedDimension
  0
DIMENSION
  5
C50B
330
1F
100
AcDbEntity
  8
AM_5
100
AcDbDimension
  2
*D8
 10
121.7504681542914
 20
82.98546303375433
 30
0.0
 11
114.7504681542914
 21
86.08546303375431
 31
0.0
 70
    32
  1
B\P
 71
     5
 42
14.0
  3
SYS$0
100
AcDbAlignedDimension
 13
107.7504681542914
 23
94.9854630337543
 33
0.0
 14
121.7504681542914
 24
95.48546303375429
 34
0.0
100
AcDbRotatedDimension
  0
DIMENSION
  5
C52A
330
1F
100
AcDbEntity
  8
AM_5
100
AcDbDimension
  2
*D9
 10
132.9504681542913
 20
72.98546303375426
 30
0.0
 11
120.3504681542914
 21
76.08546303375425
 31
0.0
 70
    32
  1
A
 71
     5
 42
25.19999999999999
  3
SYS$0
100
AcDbAlignedDimension
 13
107.7504681542914
 23
94.9854630337543
 33
0.0
 14
132.9504681542913
 24
102.3354630337542
 34
0.0
100
AcDbRotatedDimension
  0
DIMENSION
  5
C55B
330
1F
100
AcDbEntity
  8
AM_5
100
AcDbDimension
  2
*D10
 10
115.2504681542914
 20
135.2854640437542
 30
0.0
 11
102.597134820958
 21
135.2854640437542
 31
0.0
 70
   160
  1
E
 71
     5
 42
7.5
  3
SYS$0
100
AcDbAlignedDimension
 13
107.7504681542914
 23
120.2854630337543
 33
0.0
 14
115.2504681542914
 24
122.6028536902542
 34
0.0
100
AcDbRotatedDimension
  0
DIMENSION
  5
C580
330
1F
100
AcDbEntity
  8
AM_5
100
AcDbDimension
  2
*D11
 10
98.75046815429143
 20
62.01305602841501
 30
0.0
 11
95.65046815429143
 21
55.71305602841503
 31
0.0
 70
    32
  1
F
 71
     5
 42
12.6
  3
SYS$0
100
AcDbAlignedDimension
 13
107.7504681542914
 23
49.41305602841501
 33
0.0
 14
122.7504681542914
 24
62.013056028415
 34
0.0
 50
90.0
100
AcDbRotatedDimension
  0
DIMENSION
  5
C60F
330
1F
100
AcDbEntity
  8
AM_5
100
AcDbDimension
  2
*D12
 10
115.2504681542914
 20
135.2854640437542
 30
0.0
 11
145.9053233985152
 21
138.3854640437542
 31
0.0
 70
    32
  1
かみ合い高さ：（ M ）
 71
     5
 42
61.30971048844765
  3
SYS$0
100
AcDbAlignedDimension
 13
176.560178642739
 23
123.6354630337542
 33
0.0
 14
115.2504681542914
 24
122.6028536902542
 34
0.0
100
AcDbRotatedDimension
  0
DIMENSION
  5
C668
330
1F
100
AcDbEntity
  8
AM_5
100
AcDbDimension
  2
*D13
 10
174.560178642739
 20
82.98546303375449
 30
0.0
 11
170.3135119760723
 21
86.08546303375447
 31
0.0
 70
    32
  1
H
 71
     5
 42
2.0
  3
SYS$0
100
AcDbAlignedDimension
 13
176.560178642739
 23
91.63546303375424
 33
0.0
 14
174.560178642739
 24
91.63546303375424
 34
0.0
100
AcDbRotatedDimension
  0
DIMENSION
  5
C68D
330
1F
100
AcDbEntity
  8
AM_5
100
AcDbDimension
  2
*D14
 10
160.060178642739
 20
72.98546303375435
 30
0.0
 11
168.310178642739
 21
76.08546303375435
 31
0.0
 70
    32
  1
G
 71
     5
 42
16.5
  3
SYS$0
100
AcDbAlignedDimension
 13
176.560178642739
 23
91.63546303375424
 33
0.0
 14
160.060178642739
 24
107.6354630337543
 34
0.0
100
AcDbRotatedDimension
  0
DIMENSION
  5
C6AC
330
1F
100
AcDbEntity
  8
AM_5
100
AcDbDimension
  2
*D15
 10
210.6618286670572
 20
82.98546303375442
 30
0.0
 11
206.1618286670572
 21
86.0854630337544
 31
0.0
 70
    32
  1
Ｉ
 71
     5
 42
9.0
  3
SYS$0
100
AcDbAlignedDimension
 13
201.6618286670571
 23
93.13546303375423
 33
0.0
 14
210.6618286670572
 24
93.13546303375423
 34
0.0
100
AcDbRotatedDimension
  0
DIMENSION
  5
C6C2
330
1F
100
AcDbEntity
  8
AM_5
100
AcDbDimension
  2
*D16
 10
231.1618286670573
 20
123.6354630337542
 30
0.0
 11
228.0618286670573
 21
107.6354630337542
 31
0.0
 70
    32
  1
J
 71
     5
 42
31.99999999999997
  3
SYS$0
100
AcDbAlignedDimension
 13
209.1618286670572
 23
91.63546303375424
 33
0.0
 14
209.1618286670572
 24
123.6354630337542
 34
0.0
 50
90.0
100
AcDbRotatedDimension
  0
DIMENSION
  5
C6D8
330
1F
100
AcDbEntity
  8
AM_5
100
AcDbDimension
  2
*D17
 10
221.1618286670573
 20
95.83546303375422
 30
0.0
 11
218.0618286670573
 21
107.6354630337542
 31
0.0
 70
    32
  1
K
 71
     5
 42
23.59999999999999
  3
SYS$0
100
AcDbAlignedDimension
 13
208.7891232470572
 23
119.4354630337542
 33
0.0
 14
208.8295431640572
 24
95.83546303375422
 34
0.0
 50
90.0
100
AcDbRotatedDimension
  0
DIMENSION
  5
C712
330
1F
100
AcDbEntity
  8
AM_5
100
AcDbDimension
  2
*D18
 10
113.2504681542913
 20
95.43546303375432
 30
0.0
 11
81.92565374251895
 21
83.12553116981638
 31
0.0
 70
   164
  1
2-%%c3.1×7スロット
 71
     5
 42
1.499999999999943
  3
SYS$4
100
AcDbRadialDimension
 15
112.1372177709957
 25
94.43014040688671
 35
0.0
 40
0.0
1001
ACAD
1000
DSTYLE
1002
{
1070
   173
1070
     0
1070
   342
1005
BD11
1070
   344
1005
0
1002
}
  0
DIMENSION
  5
C745
330
1F
100
AcDbEntity
  8
AM_5
100
AcDbDimension
  2
*D19
 10
205.1435935084463
 20
97.00409349791684
 30
0.0
 11
226.8963726245886
 21
82.57046487597591
 31
0.0
 70
   163
  1
2-%%cL
 71
     5
 42
3.099999999999951
  3
SYS$3
100
AcDbDiametricDimension
 15
207.1800638256679
 25
94.6668325695917
 35
0.0
 40
0.0
1001
ACAD
1000
DSTYLE
1002
{
1070
   172
1070
     1
1070
   342
1005
BD11
1002
}
  0
LINE
  5
C9B1
330
1F
100
AcDbEntity
  8
AM_0
100
AcDbLine
 10
41.03755763709658
 20
38.38028296655821
 30
0.0
 11
256.0375576370966
 21
38.38028296655818
 31
0.0
  0
LINE
  5
C9B2
330
1F
100
AcDbEntity
  8
AM_0
100
AcDbLine
 10
41.03755763709658
 20
38.38028296655821
 30
0.0
 11
41.03755763709658
 21
19.38028296655821
 31
0.0
  0
LINE
  5
C9B3
330
1F
100
AcDbEntity
  8
AM_0
100
AcDbLine
 10
41.03755763709658
 20
31.38028296655821
 30
0.0
 11
256.0375576370966
 21
31.38028296655818
 31
0.0
  0
LINE
  5
C9B4
330
1F
100
AcDbEntity
  8
AM_2
100
AcDbLine
 10
41.03755763709658
 20
25.38028296655821
 30
0.0
 11
256.0375576370966
 21
25.38028296655821
 31
0.0
  0
MTEXT
  5
C9B6
330
1F
100
AcDbEntity
  8
AM_6
100
AcDbMText
 10
53.53755763709658
 20
34.88028296655822
 30
0.0
 40
3.2
 41
25.0
 71
     5
 72
     5
  1
品　番
 73
     1
 44
1.0
1001
ACAD
1000
MTEXTBEGIN
1070
    73
1070
     1
1070
    44
1040
1.0
1070
    74
1070
     0
1000
MTEXTEND
  0
MTEXT
  5
C9B7
330
1F
100
AcDbEntity
  8
AM_6
100
AcDbMText
 10
53.53755763709658
 20
28.38028296655821
 30
0.0
 40
3.2
 41
25.0
 71
     5
 72
     5
  1
ELR-10-1
 73
     1
 44
1.0
1001
ACAD
1000
MTEXTBEGIN
1070
    73
1070
     1
1070
    44
1040
1.0
1070
    74
1070
     0
1000
MTEXTEND
1000
ACAD_MTEXT_DEFINED_HEIGHT_BEGIN
1070
    46
1040
6.000000000000012
1000
ACAD_MTEXT_DEFINED_HEIGHT_END
  0
LINE
  5
C9B9
330
1F
100
AcDbEntity
  8
AM_0
100
AcDbLine
 10
66.03755763709658
 20
38.38028296655821
 30
0.0
 11
66.03755763709658
 21
19.38028296655821
 31
0.0
  0
LINE
  5
C9BE
330
1F
100
AcDbEntity
  8
AM_0
100
AcDbLine
 10
78.03755763709658
 20
38.38028296655821
 30
0.0
 11
78.03755763709658
 21
19.38028296655821
 31
0.0
  0
MTEXT
  5
C9BF
330
1F
100
AcDbEntity
  8
AM_6
100
AcDbMText
 10
84.03755763709659
 20
28.38028296655821
 30
0.0
 40
3.2
 41
12.0
 71
     5
 72
     5
  1
12
 73
     1
 44
1.0
1001
ACAD
1000
MTEXTBEGIN
1070
    73
1070
     1
1070
    44
1040
1.0
1070
    74
1070
     0
1000
MTEXTEND
1000
ACAD_MTEXT_DEFINED_HEIGHT_BEGIN
1070
    46
1040
6.000000000000012
1000
ACAD_MTEXT_DEFINED_HEIGHT_END
  0
MTEXT
  5
C9C0
330
1F
100
AcDbEntity
  8
AM_6
100
AcDbMText
 10
72.03755763709658
 20
34.88028296655822
 30
0.0
 40
3.2
 41
12.0
 71
     5
 72
     5
  1
A
 73
     1
 44
1.0
1001
ACAD
1000
MTEXTBEGIN
1070
    73
1070
     1
1070
    44
1040
1.0
1070
    74
1070
     0
1000
MTEXTEND
  0
LINE
  5
C9C1
330
1F
100
AcDbEntity
  8
AM_0
100
AcDbLine
 10
90.03755763709659
 20
38.38028296655821
 30
0.0
 11
90.03755763709659
 21
19.38028296655821
 31
0.0
  0
MTEXT
  5
C9C2
330
1F
100
AcDbEntity
  8
AM_6
100
AcDbMText
 10
72.03755763709658
 20
28.38028296655821
 30
0.0
 40
3.2
 41
12.0
 71
     5
 72
     5
  1
20
 73
     1
 44
1.0
1001
ACAD
1000
MTEXTBEGIN
1070
    73
1070
     1
1070
    44
1040
1.0
1070
    74
1070
     0
1000
MTEXTEND
1000
ACAD_MTEXT_DEFINED_HEIGHT_BEGIN
1070
    46
1040
6.000000000000012
1000
ACAD_MTEXT_DEFINED_HEIGHT_END
  0
MTEXT
  5
C9C3
330
1F
100
AcDbEntity
  8
AM_6
100
AcDbMText
 10
84.03755763709659
 20
34.88028296655822
 30
0.0
 40
3.2
 41
12.0
 71
     5
 72
     5
  1
B
 73
     1
 44
1.0
1001
ACAD
1000
MTEXTBEGIN
1070
    73
1070
     1
1070
    44
1040
1.0
1070
    74
1070
     0
1000
MTEXTEND
  0
LINE
  5
C9C4
330
1F
100
AcDbEntity
  8
AM_0
100
AcDbLine
 10
102.0375576370966
 20
38.38028296655821
 30
0.0
 11
102.0375576370966
 21
19.38028296655821
 31
0.0
  0
LINE
  5
C9C7
330
1F
100
AcDbEntity
  8
AM_0
100
AcDbLine
 10
114.0375576370965
 20
38.38028296655821
 30
0.0
 11
114.0375576370965
 21
19.38028296655821
 31
0.0
  0
LINE
  5
C9CA
330
1F
100
AcDbEntity
  8
AM_0
100
AcDbLine
 10
126.0375576370966
 20
38.38028296655821
 30
0.0
 11
126.0375576370966
 21
19.38028296655821
 31
0.0
  0
LINE
  5
C9CD
330
1F
100
AcDbEntity
  8
AM_0
100
AcDbLine
 10
150.0375576370966
 20
38.38028296655821
 30
0.0
 11
150.0375576370966
 21
19.38028296655821
 31
0.0
  0
LINE
  5
C9D0
330
1F
100
AcDbEntity
  8
AM_0
100
AcDbLine
 10
162.0375576370966
 20
38.38028296655821
 30
0.0
 11
162.0375576370966
 21
19.38028296655821
 31
0.0
  0
LINE
  5
C9D3
330
1F
100
AcDbEntity
  8
AM_0
100
AcDbLine
 10
41.03755763709658
 20
19.38028296655821
 30
0.0
 11
256.0375576370966
 21
19.38028296655818
 31
0.0
  0
MTEXT
  5
C9D7
330
1F
100
AcDbEntity
  8
AM_6
100
AcDbMText
 10
84.03755763709659
 20
22.38028296655821
 30
0.0
 40
3.2
 41
12.0
 71
     5
 72
     5
  1
14
 73
     1
 44
1.0
1001
ACAD
1000
MTEXTBEGIN
1070
    73
1070
     1
1070
    44
1040
1.0
1070
    74
1070
     0
1000
MTEXTEND
1000
ACAD_MTEXT_DEFINED_HEIGHT_BEGIN
1070
    46
1040
6.000000000000012
1000
ACAD_MTEXT_DEFINED_HEIGHT_END
  0
MTEXT
  5
C9D8
330
1F
100
AcDbEntity
  8
AM_6
100
AcDbMText
 10
72.03755763709658
 20
22.38028296655821
 30
0.0
 40
3.2
 41
12.0
 71
     5
 72
     5
  1
24.5
 73
     1
 44
1.0
1001
ACAD
1000
MTEXTBEGIN
1070
    73
1070
     1
1070
    44
1040
1.0
1070
    74
1070
     0
1000
MTEXTEND
1000
ACAD_MTEXT_DEFINED_HEIGHT_BEGIN
1070
    46
1040
6.000000000000012
1000
ACAD_MTEXT_DEFINED_HEIGHT_END
  0
LINE
  5
CA23
330
1F
100
AcDbEntity
  8
AM_0
100
AcDbLine
 10
174.0375576370966
 20
38.38028296655821
 30
0.0
 11
174.0375576370966
 21
19.38028296655821
 31
0.0
  0
MTEXT
  5
CA36
330
1F
100
AcDbEntity
  8
AM_6
100
AcDbMText
 10
53.53755763709658
 20
22.38028296655821
 30
0.0
 40
3.2
 41
25.0
 71
     5
 72
     5
  1
ELR-10-2
 73
     1
 44
1.0
1001
ACAD
1000
MTEXTBEGIN
1070
    73
1070
     1
1070
    44
1040
1.0
1070
    74
1070
     0
1000
MTEXTEND
1000
ACAD_MTEXT_DEFINED_HEIGHT_BEGIN
1070
    46
1040
6.000000000000012
1000
ACAD_MTEXT_DEFINED_HEIGHT_END
  0
LINE
  5
CA58
330
1F
100
AcDbEntity
  8
AM_0
100
AcDbLine
 10
138.0375576370966
 20
38.38028296655821
 30
0.0
 11
138.0375576370966
 21
19.38028296655821
 31
0.0
  0
LINE
  5
CA70
330
1F
100
AcDbEntity
  8
AM_0
100
AcDbLine
 10
186.0375576370966
 20
38.38028296655821
 30
0.0
 11
186.0375576370966
 21
19.38028296655821
 31
0.0
  0
LINE
  5
CA71
330
1F
100
AcDbEntity
  8
AM_0
100
AcDbLine
 10
198.0375576370966
 20
38.38028296655821
 30
0.0
 11
198.0375576370966
 21
19.38028296655821
 31
0.0
  0
LINE
  5
CA72
330
1F
100
AcDbEntity
  8
AM_0
100
AcDbLine
 10
210.0375576370966
 20
38.38028296655821
 30
0.0
 11
210.0375576370966
 21
19.38028296655821
 31
0.0
  0
MTEXT
  5
CA92
330
1F
100
AcDbEntity
  8
AM_6
100
AcDbMText
 10
204.0375576370966
 20
28.38028296655821
 30
0.0
 40
3.2
 41
12.0
 71
     5
 72
     5
  1
3
 73
     1
 44
1.0
1001
ACAD
1000
MTEXTBEGIN
1070
    73
1070
     1
1070
    44
1040
1.0
1070
    74
1070
     0
1000
MTEXTEND
1000
ACAD_MTEXT_DEFINED_HEIGHT_BEGIN
1070
    46
1040
6.000000000000012
1000
ACAD_MTEXT_DEFINED_HEIGHT_END
  0
MTEXT
  5
CA93
330
1F
100
AcDbEntity
  8
AM_6
100
AcDbMText
 10
204.0375576370966
 20
34.88028296655822
 30
0.0
 40
3.2
 41
12.0
 71
     5
 72
     5
  1
L
 73
     1
 44
1.0
1001
ACAD
1000
MTEXTBEGIN
1070
    73
1070
     1
1070
    44
1040
1.0
1070
    74
1070
     0
1000
MTEXTEND
  0
MTEXT
  5
CA94
330
1F
100
AcDbEntity
  8
AM_6
100
AcDbMText
 10
204.0375576370966
 20
22.38028296655821
 30
0.0
 40
3.2
 41
12.0
 71
     5
 72
     5
  1
3.1
 73
     1
 44
1.0
1001
ACAD
1000
MTEXTBEGIN
1070
    73
1070
     1
1070
    44
1040
1.0
1070
    74
1070
     0
1000
MTEXTEND
1000
ACAD_MTEXT_DEFINED_HEIGHT_BEGIN
1070
    46
1040
6.000000000000012
1000
ACAD_MTEXT_DEFINED_HEIGHT_END
  0
MTEXT
  5
CBA7
330
1F
100
AcDbEntity
  8
AM_6
100
AcDbMText
 10
120.0375576370966
 20
28.38028296655821
 30
0.0
 40
3.2
 41
12.0
 71
     5
 72
     5
  1
6
 73
     1
 44
1.0
1001
ACAD
1000
MTEXTBEGIN
1070
    73
1070
     1
1070
    44
1040
1.0
1070
    74
1070
     0
1000
MTEXTEND
1000
ACAD_MTEXT_DEFINED_HEIGHT_BEGIN
1070
    46
1040
6.000000000000012
1000
ACAD_MTEXT_DEFINED_HEIGHT_END
  0
MTEXT
  5
CBA8
330
1F
100
AcDbEntity
  8
AM_6
100
AcDbMText
 10
168.0375576370966
 20
34.88028296655818
 30
0.0
 40
3.2
 41
12.0
 71
     5
 72
     5
  1
Ｉ
 73
     1
 44
1.0
1001
ACAD
1000
MTEXTBEGIN
1070
    73
1070
     1
1070
    44
1040
1.0
1070
    74
1070
     0
1000
MTEXTEND
  0
MTEXT
  5
CBAA
330
1F
100
AcDbEntity
  8
AM_6
100
AcDbMText
 10
96.03755763709658
 20
28.38028296655821
 30
0.0
 40
3.2
 41
12.0
 71
     5
 72
     5
  1
29
 73
     1
 44
1.0
1001
ACAD
1000
MTEXTBEGIN
1070
    73
1070
     1
1070
    44
1040
1.0
1070
    74
1070
     0
1000
MTEXTEND
1000
ACAD_MTEXT_DEFINED_HEIGHT_BEGIN
1070
    46
1040
6.000000000000012
1000
ACAD_MTEXT_DEFINED_HEIGHT_END
  0
MTEXT
  5
CBAB
330
1F
100
AcDbEntity
  8
AM_6
100
AcDbMText
 10
120.0375576370966
 20
34.88028296655822
 30
0.0
 40
3.2
 41
12.0
 71
     5
 72
     5
  1
E
 73
     1
 44
1.0
1001
ACAD
1000
MTEXTBEGIN
1070
    73
1070
     1
1070
    44
1040
1.0
1070
    74
1070
     0
1000
MTEXTEND
  0
MTEXT
  5
CBAD
330
1F
100
AcDbEntity
  8
AM_6
100
AcDbMText
 10
168.0375576370966
 20
28.38028296655819
 30
0.0
 40
3.2
 41
12.0
 71
     5
 72
     5
  1
7.5
 73
     1
 44
1.0
1001
ACAD
1000
MTEXTBEGIN
1070
    73
1070
     1
1070
    44
1040
1.0
1070
    74
1070
     0
1000
MTEXTEND
1000
ACAD_MTEXT_DEFINED_HEIGHT_BEGIN
1070
    46
1040
6.000000000000012
1000
ACAD_MTEXT_DEFINED_HEIGHT_END
  0
MTEXT
  5
CBAE
330
1F
100
AcDbEntity
  8
AM_6
100
AcDbMText
 10
96.03755763709658
 20
34.88028296655822
 30
0.0
 40
3.2
 41
12.0
 71
     5
 72
     5
  1
C
 73
     1
 44
1.0
1001
ACAD
1000
MTEXTBEGIN
1070
    73
1070
     1
1070
    44
1040
1.0
1070
    74
1070
     0
1000
MTEXTEND
  0
MTEXT
  5
CBB0
330
1F
100
AcDbEntity
  8
AM_6
100
AcDbMText
 10
180.0375576370966
 20
28.38028296655821
 30
0.0
 40
3.2
 41
12.0
 71
     5
 72
     5
  1
26
 73
     1
 44
1.0
1001
ACAD
1000
MTEXTBEGIN
1070
    73
1070
     1
1070
    44
1040
1.0
1070
    74
1070
     0
1000
MTEXTEND
1000
ACAD_MTEXT_DEFINED_HEIGHT_BEGIN
1070
    46
1040
6.000000000000012
1000
ACAD_MTEXT_DEFINED_HEIGHT_END
  0
MTEXT
  5
CBB1
330
1F
100
AcDbEntity
  8
AM_6
100
AcDbMText
 10
180.0375576370966
 20
34.88028296655822
 30
0.0
 40
3.2
 41
12.0
 71
     5
 72
     5
  1
J
 73
     1
 44
1.0
1001
ACAD
1000
MTEXTBEGIN
1070
    73
1070
     1
1070
    44
1040
1.0
1070
    74
1070
     0
1000
MTEXTEND
  0
MTEXT
  5
CBB3
330
1F
100
AcDbEntity
  8
AM_6
100
AcDbMText
 10
132.0375576370966
 20
28.38028296655821
 30
0.0
 40
3.2
 41
12.0
 71
     5
 72
     5
  1
11.3
 73
     1
 44
1.0
1001
ACAD
1000
MTEXTBEGIN
1070
    73
1070
     1
1070
    44
1040
1.0
1070
    74
1070
     0
1000
MTEXTEND
1000
ACAD_MTEXT_DEFINED_HEIGHT_BEGIN
1070
    46
1040
6.000000000000012
1000
ACAD_MTEXT_DEFINED_HEIGHT_END
  0
MTEXT
  5
CBB4
330
1F
100
AcDbEntity
  8
AM_6
100
AcDbMText
 10
132.0375576370966
 20
34.88028296655822
 30
0.0
 40
3.2
 41
12.0
 71
     5
 72
     5
  1
F
 73
     1
 44
1.0
1001
ACAD
1000
MTEXTBEGIN
1070
    73
1070
     1
1070
    44
1040
1.0
1070
    74
1070
     0
1000
MTEXTEND
  0
MTEXT
  5
CBB8
330
1F
100
AcDbEntity
  8
AM_6
100
AcDbMText
 10
120.0375576370966
 20
22.38028296655821
 30
0.0
 40
3.2
 41
12.0
 71
     5
 72
     5
  1
7.5
 73
     1
 44
1.0
1001
ACAD
1000
MTEXTBEGIN
1070
    73
1070
     1
1070
    44
1040
1.0
1070
    74
1070
     0
1000
MTEXTEND
1000
ACAD_MTEXT_DEFINED_HEIGHT_BEGIN
1070
    46
1040
6.000000000000012
1000
ACAD_MTEXT_DEFINED_HEIGHT_END
  0
MTEXT
  5
CBB9
330
1F
100
AcDbEntity
  8
AM_6
100
AcDbMText
 10
96.03755763709658
 20
22.38028296655821
 30
0.0
 40
3.2
 41
12.0
 71
     5
 72
     5
  1
31.3
 73
     1
 44
1.0
1001
ACAD
1000
MTEXTBEGIN
1070
    73
1070
     1
1070
    44
1040
1.0
1070
    74
1070
     0
1000
MTEXTEND
1000
ACAD_MTEXT_DEFINED_HEIGHT_BEGIN
1070
    46
1040
6.000000000000012
1000
ACAD_MTEXT_DEFINED_HEIGHT_END
  0
MTEXT
  5
CBBA
330
1F
100
AcDbEntity
  8
AM_6
100
AcDbMText
 10
180.0375576370966
 20
22.38028296655821
 30
0.0
 40
3.2
 41
12.0
 71
     5
 72
     5
  1
32
 73
     1
 44
1.0
1001
ACAD
1000
MTEXTBEGIN
1070
    73
1070
     1
1070
    44
1040
1.0
1070
    74
1070
     0
1000
MTEXTEND
1000
ACAD_MTEXT_DEFINED_HEIGHT_BEGIN
1070
    46
1040
6.000000000000012
1000
ACAD_MTEXT_DEFINED_HEIGHT_END
  0
MTEXT
  5
CBBB
330
1F
100
AcDbEntity
  8
AM_6
100
AcDbMText
 10
132.0375576370966
 20
22.38028296655821
 30
0.0
 40
3.2
 41
12.0
 71
     5
 72
     5
  1
12.6
 73
     1
 44
1.0
1001
ACAD
1000
MTEXTBEGIN
1070
    73
1070
     1
1070
    44
1040
1.0
1070
    74
1070
     0
1000
MTEXTEND
1000
ACAD_MTEXT_DEFINED_HEIGHT_BEGIN
1070
    46
1040
6.000000000000012
1000
ACAD_MTEXT_DEFINED_HEIGHT_END
  0
MTEXT
  5
CBBD
330
1F
100
AcDbEntity
  8
AM_6
100
AcDbMText
 10
144.0375576370966
 20
28.38028296655821
 30
0.0
 40
3.2
 41
12.0
 71
     5
 72
     5
  1
13.5
 73
     1
 44
1.0
1001
ACAD
1000
MTEXTBEGIN
1070
    73
1070
     1
1070
    44
1040
1.0
1070
    74
1070
     0
1000
MTEXTEND
1000
ACAD_MTEXT_DEFINED_HEIGHT_BEGIN
1070
    46
1040
6.000000000000012
1000
ACAD_MTEXT_DEFINED_HEIGHT_END
  0
MTEXT
  5
CBBE
330
1F
100
AcDbEntity
  8
AM_6
100
AcDbMText
 10
144.0375576370966
 20
34.88028296655822
 30
0.0
 40
3.2
 41
12.0
 71
     5
 72
     5
  1
G
 73
     1
 44
1.0
1001
ACAD
1000
MTEXTBEGIN
1070
    73
1070
     1
1070
    44
1040
1.0
1070
    74
1070
     0
1000
MTEXTEND
  0
MTEXT
  5
CBBF
330
1F
100
AcDbEntity
  8
AM_6
100
AcDbMText
 10
144.0375576370966
 20
22.38028296655821
 30
0.0
 40
3.2
 41
12.0
 71
     5
 72
     5
  1
16.5
 73
     1
 44
1.0
1001
ACAD
1000
MTEXTBEGIN
1070
    73
1070
     1
1070
    44
1040
1.0
1070
    74
1070
     0
1000
MTEXTEND
1000
ACAD_MTEXT_DEFINED_HEIGHT_BEGIN
1070
    46
1040
6.000000000000012
1000
ACAD_MTEXT_DEFINED_HEIGHT_END
  0
MTEXT
  5
CBC0
330
1F
100
AcDbEntity
  8
AM_6
100
AcDbMText
 10
168.0375576370966
 20
22.38028296655818
 30
0.0
 40
3.2
 41
12.0
 71
     5
 72
     5
  1
9
 73
     1
 44
1.0
1001
ACAD
1000
MTEXTBEGIN
1070
    73
1070
     1
1070
    44
1040
1.0
1070
    74
1070
     0
1000
MTEXTEND
1000
ACAD_MTEXT_DEFINED_HEIGHT_BEGIN
1070
    46
1040
6.000000000000012
1000
ACAD_MTEXT_DEFINED_HEIGHT_END
  0
MTEXT
  5
CBC6
330
1F
100
AcDbEntity
  8
AM_6
100
AcDbMText
 10
156.0375576370966
 20
28.38028296655821
 30
0.0
 40
3.2
 41
12.0
 71
     5
 72
     5
  1
1.7
 73
     1
 44
1.0
1001
ACAD
1000
MTEXTBEGIN
1070
    73
1070
     1
1070
    44
1040
1.0
1070
    74
1070
     0
1000
MTEXTEND
1000
ACAD_MTEXT_DEFINED_HEIGHT_BEGIN
1070
    46
1040
6.000000000000012
1000
ACAD_MTEXT_DEFINED_HEIGHT_END
  0
MTEXT
  5
CBC7
330
1F
100
AcDbEntity
  8
AM_6
100
AcDbMText
 10
156.0375576370966
 20
34.88028296655822
 30
0.0
 40
3.2
 41
12.0
 71
     5
 72
     5
  1
H
 73
     1
 44
1.0
1001
ACAD
1000
MTEXTBEGIN
1070
    73
1070
     1
1070
    44
1040
1.0
1070
    74
1070
     0
1000
MTEXTEND
  0
MTEXT
  5
CBC8
330
1F
100
AcDbEntity
  8
AM_6
100
AcDbMText
 10
108.0375576370966
 20
28.38028296655824
 30
0.0
 40
3.2
 41
12.0
 71
     5
 72
     5
  1
21.5
 73
     1
 44
1.0
1001
ACAD
1000
MTEXTBEGIN
1070
    73
1070
     1
1070
    44
1040
1.0
1070
    74
1070
     0
1000
MTEXTEND
1000
ACAD_MTEXT_DEFINED_HEIGHT_BEGIN
1070
    46
1040
6.000000000000012
1000
ACAD_MTEXT_DEFINED_HEIGHT_END
  0
MTEXT
  5
CBC9
330
1F
100
AcDbEntity
  8
AM_6
100
AcDbMText
 10
108.0375576370966
 20
34.88028296655824
 30
0.0
 40
3.2
 41
12.0
 71
     5
 72
     5
  1
D
 73
     1
 44
1.0
1001
ACAD
1000
MTEXTBEGIN
1070
    73
1070
     1
1070
    44
1040
1.0
1070
    74
1070
     0
1000
MTEXTEND
  0
MTEXT
  5
CBCA
330
1F
100
AcDbEntity
  8
AM_6
100
AcDbMText
 10
192.0375576370966
 20
28.38028296655821
 30
0.0
 40
3.2
 41
12.0
 71
     5
 72
     5
  1
20
 73
     1
 44
1.0
1001
ACAD
1000
MTEXTBEGIN
1070
    73
1070
     1
1070
    44
1040
1.0
1070
    74
1070
     0
1000
MTEXTEND
1000
ACAD_MTEXT_DEFINED_HEIGHT_BEGIN
1070
    46
1040
6.000000000000012
1000
ACAD_MTEXT_DEFINED_HEIGHT_END
  0
MTEXT
  5
CBCB
330
1F
100
AcDbEntity
  8
AM_6
100
AcDbMText
 10
192.0375576370966
 20
34.88028296655822
 30
0.0
 40
3.2
 41
12.0
 71
     5
 72
     5
  1
K
 73
     1
 44
1.0
1001
ACAD
1000
MTEXTBEGIN
1070
    73
1070
     1
1070
    44
1040
1.0
1070
    74
1070
     0
1000
MTEXTEND
  0
MTEXT
  5
CBCC
330
1F
100
AcDbEntity
  8
AM_6
100
AcDbMText
 10
156.0375576370966
 20
22.38028296655821
 30
0.0
 40
3.2
 41
12.0
 71
     5
 72
     5
  1
2
 73
     1
 44
1.0
1001
ACAD
1000
MTEXTBEGIN
1070
    73
1070
     1
1070
    44
1040
1.0
1070
    74
1070
     0
1000
MTEXTEND
1000
ACAD_MTEXT_DEFINED_HEIGHT_BEGIN
1070
    46
1040
6.000000000000012
1000
ACAD_MTEXT_DEFINED_HEIGHT_END
  0
MTEXT
  5
CBCD
330
1F
100
AcDbEntity
  8
AM_6
100
AcDbMText
 10
108.0375576370966
 20
22.38028296655824
 30
0.0
 40
3.2
 41
12.0
 71
     5
 72
     5
  1
24.4
 73
     1
 44
1.0
1001
ACAD
1000
MTEXTBEGIN
1070
    73
1070
     1
1070
    44
1040
1.0
1070
    74
1070
     0
1000
MTEXTEND
1000
ACAD_MTEXT_DEFINED_HEIGHT_BEGIN
1070
    46
1040
6.000000000000012
1000
ACAD_MTEXT_DEFINED_HEIGHT_END
  0
MTEXT
  5
CBCE
330
1F
100
AcDbEntity
  8
AM_6
100
AcDbMText
 10
192.0375576370966
 20
22.38028296655821
 30
0.0
 40
3.2
 41
12.0
 71
     5
 72
     5
  1
23.6
 73
     1
 44
1.0
1001
ACAD
1000
MTEXTBEGIN
1070
    73
1070
     1
1070
    44
1040
1.0
1070
    74
1070
     0
1000
MTEXTEND
1000
ACAD_MTEXT_DEFINED_HEIGHT_BEGIN
1070
    46
1040
6.000000000000012
1000
ACAD_MTEXT_DEFINED_HEIGHT_END
  0
LINE
  5
CD69
330
1F
100
AcDbEntity
  8
AM_0
100
AcDbLine
 10
222.0375576370966
 20
38.38028296655821
 30
0.0
 11
222.0375576370966
 21
19.38028296655821
 31
0.0
  0
MTEXT
  5
CD6A
330
1F
100
AcDbEntity
  8
AM_6
100
AcDbMText
 10
216.0375576370966
 20
28.38028296655821
 30
0.0
 40
3.2
 41
12.0
 71
     5
 72
     5
  1
15.5
 73
     1
 44
1.0
1001
ACAD
1000
MTEXTBEGIN
1070
    73
1070
     1
1070
    44
1040
1.0
1070
    74
1070
     0
1000
MTEXTEND
1000
ACAD_MTEXT_DEFINED_HEIGHT_BEGIN
1070
    46
1040
6.000000000000012
1000
ACAD_MTEXT_DEFINED_HEIGHT_END
  0
MTEXT
  5
CD6B
330
1F
100
AcDbEntity
  8
AM_6
100
AcDbMText
 10
216.0375576370966
 20
34.88028296655822
 30
0.0
 40
3.2
 41
12.0
 71
     5
 72
     5
  1
（ M ）
 73
     1
 44
1.0
1001
ACAD
1000
MTEXTBEGIN
1070
    73
1070
     1
1070
    44
1040
1.0
1070
    74
1070
     0
1000
MTEXTEND
  0
MTEXT
  5
CD6C
330
1F
100
AcDbEntity
  8
AM_6
100
AcDbMText
 10
216.0375576370966
 20
22.38028296655821
 30
0.0
 40
3.2
 41
12.0
 71
     5
 72
     5
  1
20
 73
     1
 44
1.0
1001
ACAD
1000
MTEXTBEGIN
1070
    73
1070
     1
1070
    44
1040
1.0
1070
    74
1070
     0
1000
MTEXTEND
1000
ACAD_MTEXT_DEFINED_HEIGHT_BEGIN
1070
    46
1040
6.000000000000012
1000
ACAD_MTEXT_DEFINED_HEIGHT_END
  0
LINE
  5
CD6D
330
1F
100
AcDbEntity
  8
AM_0
100
AcDbLine
 10
239.0375576370966
 20
38.38028296655819
 30
0.0
 11
239.0375576370966
 21
19.38028296655818
 31
0.0
  0
MTEXT
  5
CD6E
330
1F
100
AcDbEntity
  8
AM_6
100
AcDbMText
 10
230.5375576370966
 20
28.38028296655819
 30
0.0
 40
3.2
 41
17.0
 71
     5
 72
     5
  1
10.8
 73
     1
 44
1.0
1001
ACAD
1000
MTEXTBEGIN
1070
    73
1070
     1
1070
    44
1040
1.0
1070
    74
1070
     0
1000
MTEXTEND
1000
ACAD_MTEXT_DEFINED_HEIGHT_BEGIN
1070
    46
1040
6.000000000000012
1000
ACAD_MTEXT_DEFINED_HEIGHT_END
  0
MTEXT
  5
CD6F
330
1F
100
AcDbEntity
  8
AM_6
100
AcDbMText
 10
230.5375576370966
 20
34.88028296655818
 30
0.0
 40
3.2
 41
17.0
 71
     5
 72
     5
  1
押込力（N）
 73
     1
 44
1.0
1001
ACAD
1000
MTEXTBEGIN
1070
    73
1070
     1
1070
    44
1040
1.0
1070
    74
1070
     0
1000
MTEXTEND
  0
MTEXT
  5
CD70
330
1F
100
AcDbEntity
  8
AM_6
100
AcDbMText
 10
230.5375576370966
 20
22.38028296655818
 30
0.0
 40
3.2
 41
17.0
 71
     5
 72
     5
  1
21.6
 73
     1
 44
1.0
1001
ACAD
1000
MTEXTBEGIN
1070
    73
1070
     1
1070
    44
1040
1.0
1070
    74
1070
     0
1000
MTEXTEND
1000
ACAD_MTEXT_DEFINED_HEIGHT_BEGIN
1070
    46
1040
6.000000000000012
1000
ACAD_MTEXT_DEFINED_HEIGHT_END
  0
LINE
  5
CDA7
330
1F
100
AcDbEntity
  8
AM_0
100
AcDbLine
 10
256.0375576370966
 20
38.38028296655816
 30
0.0
 11
256.0375576370966
 21
19.38028296655815
 31
0.0
  0
MTEXT
  5
CDA8
330
1F
100
AcDbEntity
  8
AM_6
100
AcDbMText
 10
247.5375576370966
 20
28.38028296655816
 30
0.0
 40
3.2
 41
17.0
 71
     5
 72
     5
  1
15.7
 73
     1
 44
1.0
1001
ACAD
1000
MTEXTBEGIN
1070
    73
1070
     1
1070
    44
1040
1.0
1070
    74
1070
     0
1000
MTEXTEND
1000
ACAD_MTEXT_DEFINED_HEIGHT_BEGIN
1070
    46
1040
6.000000000000012
1000
ACAD_MTEXT_DEFINED_HEIGHT_END
  0
MTEXT
  5
CDA9
330
1F
100
AcDbEntity
  8
AM_6
100
AcDbMText
 10
247.5375576370966
 20
34.88028296655816
 30
0.0
 40
3.2
 41
17.0
 71
     5
 72
     5
  1
引張力（N）
 73
     1
 44
1.0
1001
ACAD
1000
MTEXTBEGIN
1070
    73
1070
     1
1070
    44
1040
1.0
1070
    74
1070
     0
1000
MTEXTEND
  0
MTEXT
  5
CDAA
330
1F
100
AcDbEntity
  8
AM_6
100
AcDbMText
 10
247.5375576370966
 20
22.38028296655816
 30
0.0
 40
3.2
 41
17.0
 71
     5
 72
     5
  1
31.4
 73
     1
 44
1.0
1001
ACAD
1000
MTEXTBEGIN
1070
    73
1070
     1
1070
    44
1040
1.0
1070
    74
1070
     0
1000
MTEXTEND
1000
ACAD_MTEXT_DEFINED_HEIGHT_BEGIN
1070
    46
1040
6.000000000000012
1000
ACAD_MTEXT_DEFINED_HEIGHT_END
  0
ENDSEC
  0
SECTION
  2
OBJECTS
  0
DICTIONARY
  5
C
330
0
100
AcDbDictionary
281
     1
  3
ACAD_2007HEADERVARS_RT
350
CFE4
  3
ACAD_BGPLOT_KEY
350
AB06
  3
ACAD_COLOR
350
A91D
  3
ACAD_GROUP
350
D
  3
ACAD_LAYOUT
350
1A
  3
ACAD_MATERIAL
350
A91C
  3
ACAD_MLINESTYLE
350
17
  3
ACAD_PLOTSETTINGS
350
19
  3
ACAD_PLOTSTYLENAME
350
E
  3
ACAD_TABLESTYLE
350
AAB9
  3
ACAD_VISUALSTYLE
350
B0F1
  3
AcAsAppObject
350
3DA1
  3
ACASGREF_MASTER
350
3DE9
  3
AcDbVariableDictionary
350
34
  3
AcmDictionary
350
47
  3
AD_GREF_MODULE
350
3DEA
  3
AD_MAPI_MODULE
350
3E06
  3
AMG
350
2B
  3
AMGSNAPSETTINGS
350
7D
  3
ASE_INDEX_DICTIONARY
350
B331
  3
DWGPROPS
350
CFE3
  3
MAPISURF_MODULE
350
3DEB
  0
DICTIONARY
  5
3F95
330
2
100
AcDbDictionary
280
     1
281
     1
  3
ACAD_LAYERFILTERS
360
B466
  3
ACAD_LAYERSTATES
360
3F96
  3
ACLYDICTIONARY
360
B465
  3
AMLAYER_GROUPCOLORS
360
AAB4
  0
DICTIONARY
  5
8A
330
1F
100
AcDbDictionary
280
     1
281
     1
  3
ACAD_SORTENTS
360
B1BA
  0
DICTIONARY
  5
CFE4
102
{ACAD_REACTORS
330
C
102
}
330
C
100
AcDbDictionary
281
     1
  3
DIMARCSYM
350
CFE5
  0
DICTIONARY
  5
AB06
102
{ACAD_REACTORS
330
C
102
}
330
C
100
AcDbDictionary
280
     1
281
     1
  0
DICTIONARY
  5
A91D
102
{ACAD_REACTORS
330
C
102
}
330
C
100
AcDbDictionary
281
     1
  0
DICTIONARY
  5
D
102
{ACAD_REACTORS
330
C
102
}
330
C
100
AcDbDictionary
281
     1
  0
DICTIONARY
  5
1A
102
{ACAD_REACTORS
330
C
102
}
330
C
100
AcDbDictionary
281
     1
  3
Model
350
22
  3
ﾚｲｱｳﾄ1
350
1E
  3
ﾚｲｱｳﾄ2
350
26
  0
DICTIONARY
  5
A91C
102
{ACAD_REACTORS
330
C
102
}
330
C
100
AcDbDictionary
281
     1
  3
ByBlock
350
B0EF
  3
ByLayer
350
B0EE
  3
Global
350
B0F0
  0
DICTIONARY
  5
17
102
{ACAD_REACTORS
330
C
102
}
330
C
100
AcDbDictionary
281
     1
  3
Standard
350
18
  0
DICTIONARY
  5
19
102
{ACAD_REACTORS
330
C
102
}
330
C
100
AcDbDictionary
281
     1
  0
ACDBDICTIONARYWDFLT
  5
E
102
{ACAD_REACTORS
330
C
102
}
330
C
100
AcDbDictionary
281
     1
  3
Normal
350
F
100
AcDbDictionaryWithDefault
340
F
  0
DICTIONARY
  5
AAB9
102
{ACAD_REACTORS
330
C
102
}
330
C
100
AcDbDictionary
281
     1
  3
Standard
350
AABA
  0
DICTIONARY
  5
B0F1
102
{ACAD_REACTORS
330
C
102
}
330
C
100
AcDbDictionary
281
     1
  3
2dWireframe
350
B0F7
  3
3D Hidden
350
B0F9
  3
3dWireframe
350
B0F8
  3
Basic
350
B0F6
  3
Brighten
350
B0FD
  3
ColorChange
350
B101
  3
Conceptual
350
B0FA
  3
Dim
350
B0FC
  3
Facepattern
350
B100
  3
Flat
350
B0F2
  3
FlatWithEdges
350
B0F3
  3
Gouraud
350
B0F4
  3
GouraudWithEdges
350
B0F5
  3
Linepattern
350
B0FF
  3
Realistic
350
B0FB
  3
Thicken
350
B0FE
  0
ACAD_PROXY_OBJECT
  5
3DA1
102
{ACAD_REACTORS
330
C
102
}
330
C
100
AcDbProxyObject
 90
      499
 91
      576
 95
   917527
 70
     0
 93
       10
310
407F
 94
        0
1001
ACAD
1000
AcRTDxfName
1000
ASAPP
  0
ACAD_PROXY_OBJECT
  5
3DE9
102
{ACAD_REACTORS
330
C
102
}
330
C
100
AcDbProxyObject
 90
      499
 91
      581
 95
   917527
 70
     0
 93
       34
310
010000407F
 94
        0
1001
ACAD
1000
AcRTDxfName
1000
ACASGREFMASTER
  0
DICTIONARY
  5
34
102
{ACAD_REACTORS
330
C
102
}
330
C
100
AcDbDictionary
281
     1
  3
CTABLESTYLE
350
AAF3
  3
DIMASSOC
350
A10C
  3
FIELDEVAL
350
AB07
  3
INDEXCTL
350
35
  3
SORTENTS
350
194C
  0
DICTIONARY
  5
47
102
{ACAD_REACTORS
330
C
102
}
330
C
100
AcDbDictionary
281
     1
  3
AcmBOM
350
7E8
  3
AcmStdDictionary
350
4C
  3
AMDTSECTSYM_ARROWCOLOR
350
A929
  0
ACAD_PROXY_OBJECT
  5
3DEA
102
{ACAD_REACTORS
330
C
102
}
330
C
100
AcDbProxyObject
 90
      499
 91
      582
 95
   917527
 70
     0
 93
      114
310
00000043800000000000000000003F
 94
        0
1001
ACAD
1000
AcRTDxfName
1000
ACADGREFMODULE
  0
ACAD_PROXY_OBJECT
  5
3E06
102
{ACAD_REACTORS
330
C
102
}
330
C
100
AcDbProxyObject
 90
      499
 91
      594
 95
   917527
 70
     0
 93
       34
310
05000044FF
 94
        0
1001
ACAD
1000
AcRTDxfName
1000
MAPIADMODULE
  0
DICTIONARY
  5
2B
102
{ACAD_REACTORS
330
C
102
}
330
C
100
AcDbDictionary
281
     1
  0
DICTIONARY
  5
7D
102
{ACAD_REACTORS
330
C
102
}
330
C
100
AcDbDictionary
281
     1
  0
DICTIONARY
  5
B331
102
{ACAD_REACTORS
330
C
102
}
330
C
100
AcDbDictionary
281
     1
  3
ASEBlockHierarchyIndexRecord
350
B332
1001
DCO15
1040
1594111214.218
  0
XRECORD
  5
CFE3
102
{ACAD_REACTORS
330
C
102
}
330
C
100
AcDbXrecord
280
     1
  1
DWGPROPS COOKIE
  2

  3

  4

  6

  7

  8
Administrator
  9

300
AmdtFileType=84
301
=
302
=
303
=
304
=
305
=
306
=
307
=
308
=
309
=
 40
0.1037878935185185
 41
2456139.798878935
 42
2456268.497212639
  1

 90
        1
  0
ACAD_PROXY_OBJECT
  5
3DEB
102
{ACAD_REACTORS
330
C
102
}
330
C
100
AcDbProxyObject
 90
      499
 91
      583
 95
   917527
 70
     0
 93
        8
310
047E
 94
        0
1001
ACAD
1000
AcRTDxfName
1000
AMDTMAPISURFMOUDULE
  0
DICTIONARY
  5
B466
102
{ACAD_REACTORS
330
3F95
102
}
330
3F95
100
AcDbDictionary
281
     1
  0
DICTIONARY
  5
3F96
102
{ACAD_REACTORS
330
3F95
102
}
330
3F95
100
AcDbDictionary
281
     1
  3
20011210
350
3FB7
  0
DICTIONARY
  5
B465
102
{ACAD_REACTORS
330
3F95
102
}
330
3F95
100
AcDbDictionary
281
     1
1001
ACAD
1000
<All
  0
DICTIONARY
  5
AAB4
102
{ACAD_REACTORS
330
3F95
102
}
330
3F95
100
AcDbDictionary
280
     1
281
     1
  0
SORTENTSTABLE
  5
B1BA
102
{ACAD_REACTORS
330
8A
102
}
330
8A
100
AcDbSortentsTable
330
1F
331
C3F7
  5
C3F9
331
C3B8
  5
C3BA
331
C9B2
  5
C9B4
331
C3C0
  5
C3C2
331
C3C8
  5
C3CA
331
C3FF
  5
C401
331
CA71
  5
CA8B
331
C9C2
  5
C9CB
331
C3D0
  5
C3D2
331
C407
  5
C409
331
C9CA
  5
C9D8
331
C40F
  5
C411
331
B6A2
  5
B6B0
331
C3D8
  5
C3DA
331
C6AC
  5
C6AC
331
C417
  5
C419
331
C3E0
  5
C3E2
331
B6AA
  5
B6BF
331
B53B
  5
B53B
331
C3E8
  5
C3EA
331
B6B2
  5
B867
331
C3B1
  5
C3B3
331
C3B9
  5
C3BB
331
C9B3
  5
C9B5
331
C3C1
  5
C3C3
331
C3F8
  5
C3FA
331
C3C9
  5
C3CB
331
C400
  5
C402
331
C68D
  5
C68D
331
CA72
  5
CA8C
331
C9C3
  5
C9CC
331
C408
  5
C40A
331
C3D1
  5
C3D3
331
CA92
  5
CA96
331
C410
  5
C412
331
C3D9
  5
C3DB
331
B6A3
  5
B6B1
331
C9D3
  5
CA37
331
C3E1
  5
C3E3
331
B6AB
  5
B6C0
331
B53C
  5
B53C
331
C418
  5
C41A
331
C3E9
  5
C3EB
331
C3AA
  5
C3AC
331
C3F1
  5
C3F3
331
CA23
  5
CA40
331
C3BA
  5
C3BC
331
C9B4
  5
C9BE
331
C3C2
  5
C3C4
331
C3F9
  5
C3FB
331
C401
  5
C403
331
C3CA
  5
C3CC
331
C3D2
  5
C3D4
331
C409
  5
C40B
331
C9C4
  5
C9CD
331
C411
  5
C413
331
B6A4
  5
B6B2
331
C3DA
  5
C3DC
331
CA93
  5
CA97
331
C60F
  5
C60F
331
C419
  5
C4B3
331
C3E2
  5
C3E4
331
B6AC
  5
B6C1
331
B53D
  5
B53D
331
C3EA
  5
C3EC
331
C3AB
  5
C3AD
331
C3F2
  5
C3F4
331
C3B3
  5
C3B5
331
C4B9
  5
C4B9
331
C745
  5
C745
331
C3BB
  5
C3BD
331
C3C3
  5
C3C5
331
C3FA
  5
C3FC
331
C402
  5
C404
331
C580
  5
C580
331
C40A
  5
C40C
331
C3D3
  5
C3D5
331
CA94
  5
CA98
331
C412
  5
C414
331
C3DB
  5
C3DD
331
B6A5
  5
B6B9
331
B536
  5
B536
331
C9CD
  5
C9DC
331
C3E3
  5
C3E5
331
B6AD
  5
B6C2
331
C41A
  5
C4B5
331
C3EB
  5
C3ED
331
C3AC
  5
C3AE
331
C3F3
  5
C3F5
331
C3B4
  5
C3B6
331
C4BA
  5
C4BA
331
C668
  5
C668
331
C3BC
  5
C3BE
331
C9B6
  5
C9C1
331
C9BE
  5
C9C5
331
C3C4
  5
C3C6
331
C3FB
  5
C3FD
331
C4DA
  5
C4DA
331
C403
  5
C405
331
C3CC
  5
C3CE
331
C40B
  5
C40D
331
C3D4
  5
C3D6
331
C413
  5
C415
331
B6A6
  5
B6BA
331
B537
  5
B537
331
C3DC
  5
C3DE
331
C3E4
  5
C3E6
331
B6AE
  5
B6C4
331
C52A
  5
C52A
331
C3EC
  5
C3EE
331
C3AD
  5
C3AF
331
C4B3
  5
C4B6
331
C3F4
  5
C3F6
331
C3B5
  5
C3B7
331
C4BB
  5
C4BB
331
CA36
  5
CA72
331
C9B7
  5
C9C3
331
C9BF
  5
C9C7
331
C3C5
  5
C3C7
331
C3FC
  5
C3FE
331
C3CD
  5
C3CF
331
C404
  5
C406
331
C6D8
  5
C6D8
331
C40C
  5
C40E
331
C50B
  5
C50B
331
C9C7
  5
C9D1
331
C414
  5
C416
331
C3DD
  5
C3DF
331
B6A7
  5
B6BB
331
C9D7
  5
CA39
331
B538
  5
B538
331
C3A6
  5
C3A8
331
C3E5
  5
C3E7
331
C3ED
  5
C3EF
331
C3F5
  5
C3F7
331
C3B6
  5
C3B8
331
C55B
  5
C55B
331
C3C6
  5
C3C8
331
B867
  5
BDD0
331
C3FD
  5
C3FF
331
C405
  5
C407
331
C3CE
  5
C3D0
331
C9C0
  5
C9C8
331
C40D
  5
C40F
331
C415
  5
C417
331
C3DE
  5
C3E0
331
C9D0
  5
CA26
331
C9D8
  5
CA3A
331
B6A8
  5
B6BD
331
B539
  5
B539
331
C3E6
  5
C3E8
331
C3A7
  5
C3A9
331
B6B0
  5
B6C6
331
C3EE
  5
C3F0
331
C3AF
  5
C3B1
331
C6C2
  5
C6C2
331
C3B7
  5
C3B9
331
C3F6
  5
C3F8
331
C3BF
  5
C3C1
331
C9B1
  5
C9B1
331
CA58
  5
CA89
331
C9B9
  5
C9C4
331
C3FE
  5
C400
331
CA70
  5
CA8A
331
C3CF
  5
C3D1
331
C406
  5
C408
331
C9C1
  5
C9C9
331
C40E
  5
C410
331
C3D7
  5
C3D9
331
C416
  5
C418
331
C3DF
  5
C3E1
331
C712
  5
C712
331
B6A9
  5
B6BE
331
B53A
  5
B53A
331
C3E7
  5
C3E9
331
B6B1
  5
B864
331
C3A8
  5
C3AA
331
C3EF
  5
C3F1
331
C3B0
  5
C3B2
  0
XRECORD
  5
CFE5
102
{ACAD_REACTORS
330
CFE4
102
}
330
CFE4
100
AcDbXrecord
280
     1
 70
     1
  0
LAYOUT
  5
22
102
{ACAD_XDICTIONARY
360
CFE8
102
}
102
{ACAD_REACTORS
330
1A
102
}
330
1A
100
AcDbPlotSettings
  1

  2
DocuCentre-II C5400
  4
A4
  6
AM_VIEW1
 40
4.857749938964843
 41
4.942390441894531
 42
4.942413330078125
 43
4.857757568359375
 44
209.9733276367187
 45
297.0106506347656
 46
-4.958807910208179
 47
-4.941300664398795
 48
214.3704939521119
 49
367.5855324241176
140
275.6727856380065
141
407.629191407817
142
1.0
143
1.0
 70
  3748
 72
     1
 73
     1
 74
     1
  7
monochrome.ctb
 75
     0
147
0.9532055446079798
148
0.0304669030847435
149
0.0283341126892083
100
AcDbLayout
  1
Model
 70
     1
 71
     0
 10
0.0
 20
0.0
 11
12.0
 21
9.0
 12
0.0
 22
0.0
 32
0.0
 14
0.0
 24
0.0
 34
0.0
 15
0.0
 25
0.0
 35
0.0
146
0.0
 13
0.0
 23
0.0
 33
0.0
 16
1.0
 26
0.0
 36
0.0
 17
0.0
 27
1.0
 37
0.0
 76
     0
330
1F
331
B0EC
1001
ACAD_PSEXT
1000
DocuCentre-II C5400
1000
FX DocuCentre-II C5400
1000
192.168.2.200
1000

1070
     0
  0
LAYOUT
  5
1E
102
{ACAD_XDICTIONARY
360
CFE6
102
}
102
{ACAD_REACTORS
330
1A
102
}
330
1A
100
AcDbPlotSettings
  1

  2
\\ML370\XEROX
  4
A4
  6

 40
3.174999952316284
 41
3.174999952316284
 42
3.175003051757812
 43
3.17498779296875
 44
209.8674926757813
 45
296.6719970703125
 46
0.0
 47
0.0
 48
0.0
 49
0.0
140
0.0
141
0.0
142
1.0
143
1.0
 70
   688
 72
     1
 73
     1
 74
     5
  7
monochrome.ctb
 75
    16
147
1.0
148
0.0
149
0.0
100
AcDbLayout
  1
ﾚｲｱｳﾄ1
 70
     1
 71
     1
 10
-3.17498779296875
 20
-3.174999952316284
 11
293.4970092773438
 21
206.692492723465
 12
0.0
 22
0.0
 32
0.0
 14
1.000000000000000E+20
 24
1.000000000000000E+20
 34
1.000000000000000E+20
 15
-1.000000000000000E+20
 25
-1.000000000000000E+20
 35
-1.000000000000000E+20
146
0.0
 13
0.0
 23
0.0
 33
0.0
 16
1.0
 26
0.0
 36
0.0
 17
0.0
 27
1.0
 37
0.0
 76
     0
330
1B
  0
LAYOUT
  5
26
102
{ACAD_XDICTIONARY
360
CFEA
102
}
102
{ACAD_REACTORS
330
1A
102
}
330
1A
100
AcDbPlotSettings
  1

  2
\\ML370\XEROX
  4

  6

 40
0.0
 41
0.0
 42
0.0
 43
0.0
 44
0.0
 45
0.0
 46
0.0
 47
0.0
 48
0.0
 49
0.0
140
0.0
141
0.0
142
1.0
143
1.0
 70
   688
 72
     0
 73
     0
 74
     5
  7
monochrome.ctb
 75
    16
147
1.0
148
0.0
149
0.0
100
AcDbLayout
  1
ﾚｲｱｳﾄ2
 70
     1
 71
     2
 10
0.0
 20
0.0
 11
12.0
 21
9.0
 12
0.0
 22
0.0
 32
0.0
 14
0.0
 24
0.0
 34
0.0
 15
0.0
 25
0.0
 35
0.0
146
0.0
 13
0.0
 23
0.0
 33
0.0
 16
1.0
 26
0.0
 36
0.0
 17
0.0
 27
1.0
 37
0.0
 76
     0
330
23
  0
MATERIAL
  5
B0EF
102
{ACAD_XDICTIONARY
360
CFF0
102
}
102
{ACAD_REACTORS
330
A91C
102
}
330
A91C
100
AcDbMaterial
  1
ByBlock
  0
MATERIAL
  5
B0EE
102
{ACAD_XDICTIONARY
360
CFEE
102
}
102
{ACAD_REACTORS
330
A91C
102
}
330
A91C
100
AcDbMaterial
  1
ByLayer
  0
MATERIAL
  5
B0F0
102
{ACAD_XDICTIONARY
360
CFF2
102
}
102
{ACAD_REACTORS
330
A91C
102
}
330
A91C
100
AcDbMaterial
  1
Global
  0
MLINESTYLE
  5
18
102
{ACAD_REACTORS
330
17
102
}
330
17
100
AcDbMlineStyle
  2
STANDARD
 70
     0
  3

 62
   256
 51
90.0
 52
90.0
 71
     2
 49
0.5
 62
   256
  6
BYLAYER
 49
-0.5
 62
   256
  6
BYLAYER
  0
ACDBPLACEHOLDER
  5
F
102
{ACAD_REACTORS
330
E
102
}
330
E
  0
TABLESTYLE
  5
AABA
102
{ACAD_XDICTIONARY
360
CFEC
102
}
102
{ACAD_REACTORS
330
AAB9
102
}
330
AAB9
100
AcDbTableStyle
  3
Standard
 70
     0
 71
     0
 40
1.5
 41
1.5
280
     0
281
     0
  7
STANDARD
140
4.5
170
     2
 62
     0
 63
     7
283
     0
274
    -2
284
     1
 64
     0
275
    -2
285
     1
 65
     0
276
    -2
286
     1
 66
     0
277
    -2
287
     1
 67
     0
278
    -2
288
     1
 68
     0
279
    -2
289
     1
 69
     0
  7
STANDARD
140
6.0
170
     5
 62
     0
 63
     7
283
     0
274
    -2
284
     1
 64
     0
275
    -2
285
     1
 65
     0
276
    -2
286
     1
 66
     0
277
    -2
287
     1
 67
     0
278
    -2
288
     1
 68
     0
279
    -2
289
     1
 69
     0
  7
STANDARD
140
4.5
170
     5
 62
     0
 63
     7
283
     0
274
    -2
284
     1
 64
     0
275
    -2
285
     1
 65
     0
276
    -2
286
     1
 66
     0
277
    -2
287
     1
 67
     0
278
    -2
288
     1
 68
     0
279
    -2
289
     1
 69
     0
  0
VISUALSTYLE
  5
B0F7
102
{ACAD_REACTORS
330
B0F1
102
}
330
B0F1
100
AcDbVisualStyle
  2
2dWireframe
 70
     4
 71
     0
 72
     2
 73
     0
 90
        0
 40
-0.6
 41
-30.0
 62
     5
 63
     7
 74
     1
 91
        4
 64
     7
 65
   257
 75
     1
175
     1
 42
1.0
 92
        0
 66
   257
 43
1.0
 76
     1
 77
     6
 78
     2
 67
     7
 79
     5
170
     0
171
     0
290
     0
174
     0
 93
        1
 44
0.0
173
     0
291
     0
 45
0.0
1001
ACAD
1000
AcDbSavedByObjectVersion
1070
     0
  0
VISUALSTYLE
  5
B0F9
102
{ACAD_REACTORS
330
B0F1
102
}
330
B0F1
100
AcDbVisualStyle
  2
3D Hidden
 70
     6
 71
     1
 72
     2
 73
     2
 90
        0
 40
-0.6
 41
-30.0
 62
     5
 63
     7
 74
     2
 91
        2
 64
     7
 65
   257
 75
     2
175
     1
 42
40.0
 92
        0
 66
   257
 43
1.0
 76
     1
 77
     6
 78
     2
 67
     7
 79
     3
170
     0
171
     0
290
     0
174
     0
 93
        1
 44
0.0
173
     0
291
     0
 45
0.0
1001
ACAD
1000
AcDbSavedByObjectVersion
1070
     0
  0
VISUALSTYLE
  5
B0F8
102
{ACAD_REACTORS
330
B0F1
102
}
330
B0F1
100
AcDbVisualStyle
  2
3dWireframe
 70
     5
 71
     0
 72
     2
 73
     0
 90
        0
 40
-0.6
 41
-30.0
 62
     5
 63
     7
 74
     1
 91
        4
 64
     7
 65
   257
 75
     1
175
     1
 42
1.0
 92
        0
 66
   257
 43
1.0
 76
     1
 77
     6
 78
     2
 67
     7
 79
     5
170
     0
171
     0
290
     0
174
     0
 93
        1
 44
0.0
173
     0
291
     0
 45
0.0
1001
ACAD
1000
AcDbSavedByObjectVersion
1070
     0
  0
VISUALSTYLE
  5
B0F6
102
{ACAD_REACTORS
330
B0F1
102
}
330
B0F1
100
AcDbVisualStyle
  2
Basic
 70
     7
 71
     1
 72
     0
 73
     1
 90
        0
 40
-0.6
 41
-30.0
 62
     5
 63
     7
 74
     0
 91
        4
 64
     7
 65
   257
 75
     1
175
     1
 42
1.0
 92
        8
 66
     7
 43
1.0
 76
     1
 77
     6
 78
     2
 67
     7
 79
     5
170
     0
171
     0
290
     0
174
     0
 93
        1
 44
0.0
173
     0
291
     1
 45
0.0
1001
ACAD
1000
AcDbSavedByObjectVersion
1070
     0
  0
VISUALSTYLE
  5
B0FD
102
{ACAD_REACTORS
330
B0F1
102
}
330
B0F1
100
AcDbVisualStyle
  2
Brighten
 70
    12
 71
     2
 72
     2
 73
     0
 90
        0
 40
-0.6
 41
-30.0
 62
     5
 63
     7
 74
     1
 91
        4
 64
     7
 65
   257
 75
     1
175
     1
 42
1.0
 92
        8
 66
     7
 43
1.0
 76
     1
 77
     6
 78
     2
 67
     7
 79
     5
170
     0
171
     0
290
     0
174
     0
 93
        1
 44
50.0
173
     0
291
     1
 45
0.0
1001
ACAD
1000
AcDbSavedByObjectVersion
1070
     0
  0
VISUALSTYLE
  5
B101
102
{ACAD_REACTORS
330
B0F1
102
}
330
B0F1
100
AcDbVisualStyle
  2
ColorChange
 70
    16
 71
     2
 72
     2
 73
     3
 90
        0
 40
-0.6
 41
-30.0
 62
     5
 63
     8
 74
     1
 91
        4
 64
     7
 65
   257
 75
     1
175
     1
 42
1.0
 92
        8
 66
     8
 43
1.0
 76
     1
 77
     6
 78
     2
 67
     7
 79
     5
170
     0
171
     0
290
     0
174
     0
 93
        1
 44
0.0
173
     0
291
     1
 45
0.0
1001
ACAD
1000
AcDbSavedByObjectVersion
1070
     0
  0
VISUALSTYLE
  5
B0FA
102
{ACAD_REACTORS
330
B0F1
102
}
330
B0F1
100
AcDbVisualStyle
  2
Conceptual
 70
     9
 71
     3
 72
     2
 73
     0
 90
        0
 40
-0.6
 41
-30.0
 62
     5
 63
     7
 74
     2
 91
        2
 64
     7
 65
   257
 75
     1
175
     1
 42
40.0
 92
        8
 66
     7
 43
1.0
 76
     1
 77
     6
 78
     2
 67
     7
 79
     3
170
     0
171
     0
290
     0
174
     0
 93
        1
 44
0.0
173
     0
291
     0
 45
0.0
1001
ACAD
1000
AcDbSavedByObjectVersion
1070
     0
  0
VISUALSTYLE
  5
B0FC
102
{ACAD_REACTORS
330
B0F1
102
}
330
B0F1
100
AcDbVisualStyle
  2
Dim
 70
    11
 71
     2
 72
     2
 73
     0
 90
        0
 40
-0.6
 41
-30.0
 62
     5
 63
     7
 74
     1
 91
        4
 64
     7
 65
   257
 75
     1
175
     1
 42
1.0
 92
        8
 66
     7
 43
1.0
 76
     1
 77
     6
 78
     2
 67
     7
 79
     5
170
     0
171
     0
290
     0
174
     0
 93
        1
 44
-50.0
173
     0
291
     1
 45
0.0
1001
ACAD
1000
AcDbSavedByObjectVersion
1070
     0
  0
VISUALSTYLE
  5
B100
102
{ACAD_REACTORS
330
B0F1
102
}
330
B0F1
100
AcDbVisualStyle
  2
Facepattern
 70
    15
 71
     2
 72
     2
 73
     0
 90
        0
 40
-0.6
 41
-30.0
 62
     5
 63
     7
 74
     1
 91
        4
 64
     7
 65
   257
 75
     1
175
     1
 42
1.0
 92
        8
 66
     7
 43
1.0
 76
     1
 77
     6
 78
     2
 67
     7
 79
     5
170
     0
171
     0
290
     0
174
     0
 93
        1
 44
0.0
173
     0
291
     1
 45
0.0
1001
ACAD
1000
AcDbSavedByObjectVersion
1070
     0
  0
VISUALSTYLE
  5
B0F2
102
{ACAD_REACTORS
330
B0F1
102
}
330
B0F1
100
AcDbVisualStyle
  2
Flat
 70
     0
 71
     2
 72
     1
 73
     1
 90
        2
 40
-0.6
 41
30.0
 62
     5
 63
     7
 74
     0
 91
        4
 64
     7
 65
   257
 75
     1
175
     1
 42
1.0
 92
        8
 66
     7
 43
1.0
 76
     1
 77
     6
 78
     2
 67
     7
 79
     5
170
     0
171
     0
290
     0
174
     0
 93
       13
 44
0.0
173
     0
291
     1
 45
0.0
1001
ACAD
1000
AcDbSavedByObjectVersion
1070
     0
  0
VISUALSTYLE
  5
B0F3
102
{ACAD_REACTORS
330
B0F1
102
}
330
B0F1
100
AcDbVisualStyle
  2
FlatWithEdges
 70
     1
 71
     2
 72
     1
 73
     1
 90
        2
 40
-0.6
 41
30.0
 62
     5
 63
     7
 74
     1
 91
        4
 64
     7
 65
   257
 75
     1
175
     1
 42
1.0
 92
        0
 66
   257
 43
1.0
 76
     1
 77
     6
 78
     2
 67
     7
 79
     5
170
     0
171
     0
290
     0
174
     0
 93
       13
 44
0.0
173
     0
291
     1
 45
0.0
1001
ACAD
1000
AcDbSavedByObjectVersion
1070
     0
  0
VISUALSTYLE
  5
B0F4
102
{ACAD_REACTORS
330
B0F1
102
}
330
B0F1
100
AcDbVisualStyle
  2
Gouraud
 70
     2
 71
     2
 72
     2
 73
     1
 90
        2
 40
-0.6
 41
30.0
 62
     5
 63
     7
 74
     0
 91
        4
 64
     7
 65
   257
 75
     1
175
     1
 42
1.0
 92
        0
 66
     7
 43
1.0
 76
     1
 77
     6
 78
     2
 67
     7
 79
     5
170
     0
171
     0
290
     0
174
     0
 93
       13
 44
0.0
173
     0
291
     1
 45
0.0
1001
ACAD
1000
AcDbSavedByObjectVersion
1070
     0
  0
VISUALSTYLE
  5
B0F5
102
{ACAD_REACTORS
330
B0F1
102
}
330
B0F1
100
AcDbVisualStyle
  2
GouraudWithEdges
 70
     3
 71
     2
 72
     2
 73
     1
 90
        2
 40
-0.6
 41
30.0
 62
     5
 63
     7
 74
     1
 91
        4
 64
     7
 65
   257
 75
     1
175
     1
 42
1.0
 92
        0
 66
   257
 43
1.0
 76
     1
 77
     6
 78
     2
 67
     7
 79
     5
170
     0
171
     0
290
     0
174
     0
 93
       13
 44
0.0
173
     0
291
     1
 45
0.0
1001
ACAD
1000
AcDbSavedByObjectVersion
1070
     0
  0
VISUALSTYLE
  5
B0FF
102
{ACAD_REACTORS
330
B0F1
102
}
330
B0F1
100
AcDbVisualStyle
  2
Linepattern
 70
    14
 71
     2
 72
     2
 73
     0
 90
        0
 40
-0.6
 41
-30.0
 62
     5
 63
     7
 74
     1
 91
        4
 64
     7
 65
   257
 75
     7
175
     7
 42
1.0
 92
        8
 66
     7
 43
1.0
 76
     1
 77
     6
 78
     2
 67
     7
 79
     5
170
     0
171
     0
290
     0
174
     0
 93
        1
 44
0.0
173
     0
291
     1
 45
0.0
1001
ACAD
1000
AcDbSavedByObjectVersion
1070
     0
  0
VISUALSTYLE
  5
B0FB
102
{ACAD_REACTORS
330
B0F1
102
}
330
B0F1
100
AcDbVisualStyle
  2
Realistic
 70
     8
 71
     2
 72
     2
 73
     0
 90
        0
 40
-0.6
 41
-30.0
 62
     5
 63
     7
 74
     1
 91
        0
 64
     7
 65
   257
 75
     1
175
     1
 42
1.0
 92
        8
 66
     8
 43
1.0
 76
     1
 77
     6
 78
     2
 67
     7
 79
     5
170
     0
171
     0
290
     0
174
     0
 93
       13
 44
0.0
173
     0
291
     0
 45
0.0
1001
ACAD
1000
AcDbSavedByObjectVersion
1070
     0
  0
VISUALSTYLE
  5
B0FE
102
{ACAD_REACTORS
330
B0F1
102
}
330
B0F1
100
AcDbVisualStyle
  2
Thicken
 70
    13
 71
     2
 72
     2
 73
     0
 90
        0
 40
-0.6
 41
-30.0
 62
     5
 63
     7
 74
     1
 91
        4
 64
     7
 65
   257
 75
     1
175
     1
 42
1.0
 92
       12
 66
     7
 43
1.0
 76
     1
 77
     6
 78
     2
 67
     7
 79
     5
170
     0
171
     0
290
     0
174
     0
 93
        1
 44
0.0
173
     0
291
     1
 45
0.0
1001
ACAD
1000
AcDbSavedByObjectVersion
1070
     0
  0
DICTIONARYVAR
  5
AAF3
102
{ACAD_REACTORS
330
34
102
}
330
34
100
DictionaryVariables
280
     0
  1
STANDARD
  0
DICTIONARYVAR
  5
A10C
102
{ACAD_REACTORS
330
34
102
}
330
34
100
DictionaryVariables
280
     0
  1
1
  0
DICTIONARYVAR
  5
AB07
102
{ACAD_REACTORS
330
34
102
}
330
34
100
DictionaryVariables
280
     0
  1
4
  0
DICTIONARYVAR
  5
35
102
{ACAD_REACTORS
330
34
102
}
330
34
100
DictionaryVariables
280
     0
  1
0
  0
DICTIONARYVAR
  5
194C
102
{ACAD_REACTORS
330
34
102
}
330
34
100
DictionaryVariables
280
     0
  1
96
  0
DICTIONARY
  5
7E8
102
{ACAD_REACTORS
330
47
102
}
330
47
100
AcDbDictionary
281
     1
  0
DICTIONARY
  5
4C
102
{ACAD_REACTORS
330
47
102
}
330
47
100
AcDbDictionary
281
     1
  0
XRECORD
  5
A929
102
{ACAD_REACTORS
330
47
102
}
330
47
100
AcDbXrecord
280
     1
 90
-1023410169
  0
XRECORD
  5
B332
102
{ACAD_REACTORS
330
B331
102
}
330
B331
100
AcDbXrecord
280
     1
  0
XRECORD
  5
3FB7
102
{ACAD_REACTORS
330
3F96
102
}
330
3F96
100
AcDbXrecord
280
     1
 91
        3
330
0
 90
        8
 62
     7
370
    40
331
16
  1
Color_7
330
0
 90
        0
 62
    14
370
    -3
331
16
  1
Color_14
330
0
 90
        8
 62
     7
370
    20
331
16
  1
Color_7
330
6D1
 90
        0
 62
     7
370
    -3
331
16
  1
Color_7
330
0
 90
        8
 62
     7
370
    50
331
16
  1
Color_7
330
0
 90
        8
 62
     2
370
    35
331
16
  1
Color_2
330
0
 90
        8
 62
     7
370
    -3
331
16
  1
Color_7
330
10
 90
        8
 62
     7
370
    -3
331
16
  1
Color_7
  0
DICTIONARY
  5
CFE8
330
22
100
AcDbDictionary
280
     1
281
     1
  3
ACAD_XREC_ROUNDTRIP
360
CFE9
  0
DICTIONARY
  5
CFE6
330
1E
100
AcDbDictionary
280
     1
281
     1
  3
ACAD_XREC_ROUNDTRIP
360
CFE7
  0
DICTIONARY
  5
CFEA
330
26
100
AcDbDictionary
280
     1
281
     1
  3
ACAD_XREC_ROUNDTRIP
360
CFEB
  0
DICTIONARY
  5
CFF0
330
B0EF
100
AcDbDictionary
280
     1
281
     1
  3
ACAD_XREC_ROUNDTRIP
360
CFF1
  0
DICTIONARY
  5
CFEE
330
B0EE
100
AcDbDictionary
280
     1
281
     1
  3
ACAD_XREC_ROUNDTRIP
360
CFEF
  0
DICTIONARY
  5
CFF2
330
B0F0
100
AcDbDictionary
280
     1
281
     1
  3
ACAD_XREC_ROUNDTRIP
360
CFF3
  0
DICTIONARY
  5
CFEC
330
AABA
100
AcDbDictionary
280
     1
281
     1
  3
ACAD_XREC_ROUNDTRIP
360
CFED
  0
XRECORD
  5
CFE9
102
{ACAD_REACTORS
330
CFE8
102
}
330
CFE8
100
AcDbXrecord
280
     1
102
SHADEPLOT
 70
     0
102
SHADEPLOTRESLEVEL
 70
     2
102
SHADEPLOTCUSTOMDPI
 70
   200
  0
XRECORD
  5
CFE7
102
{ACAD_REACTORS
330
CFE6
102
}
330
CFE6
100
AcDbXrecord
280
     1
102
SHADEPLOT
 70
     0
102
SHADEPLOTRESLEVEL
 70
     2
102
SHADEPLOTCUSTOMDPI
 70
   300
  0
XRECORD
  5
CFEB
102
{ACAD_REACTORS
330
CFEA
102
}
330
CFEA
100
AcDbXrecord
280
     1
102
SHADEPLOT
 70
     0
102
SHADEPLOTRESLEVEL
 70
     2
102
SHADEPLOTCUSTOMDPI
 70
   300
  0
XRECORD
  5
CFF1
102
{ACAD_REACTORS
330
CFF0
102
}
330
CFF0
100
AcDbXrecord
280
     1
102
MATERIAL
148
0.0
149
0.0
149
0.0
 93
        0
 94
       63
282
     0
 72
     1
 77
     1
171
     1
175
     1
179
     1
273
     0
  0
XRECORD
  5
CFEF
102
{ACAD_REACTORS
330
CFEE
102
}
330
CFEE
100
AcDbXrecord
280
     1
102
MATERIAL
148
0.0
149
0.0
149
0.0
 93
        0
 94
       63
282
     0
 72
     1
 77
     1
171
     1
175
     1
179
     1
273
     0
  0
XRECORD
  5
CFF3
102
{ACAD_REACTORS
330
CFF2
102
}
330
CFF2
100
AcDbXrecord
280
     1
102
MATERIAL
148
0.0
149
0.0
149
0.0
 93
        0
 94
       63
282
     0
 72
     1
 77
     1
171
     1
175
     1
179
     1
273
     0
  0
XRECORD
  5
CFED
102
{ACAD_REACTORS
330
CFEC
102
}
330
CFEC
100
AcDbXrecord
280
     1
102
ACAD_ROUNDTRIP_PRE2007_TABLESTYLE
 90
        4
 91
        0
  1

 92
        4
 93
        0
  2

 94
        4
 95
        0
  3

  0
ENDSEC
  0
EOF
