  0
SECTION
  2
HEADER
  9
$ACADVER
  1
AC1015
  9
$ACADMAINTVER
 70
    20
  9
$DWGCODEPAGE
  3
ANSI_932
  9
$INSBASE
 10
0.0
 20
0.0
 30
0.0
  9
$EXTMIN
 10
68.90398160718564
 20
1641.915020835467
 30
-0.0015258207003583
  9
$EXTMAX
 10
488.9243185392542
 20
1939.083928014434
 30
0.0000000349246037
  9
$LIMMIN
 10
39.82907572724413
 20
-922.9081483588126
  9
$LIMMAX
 10
188.3290757272441
 20
-817.9081483588127
  9
$ORTHOMODE
 70
     0
  9
$REGENMODE
 70
     1
  9
$FILLMODE
 70
     1
  9
$QTEXTMODE
 70
     0
  9
$MIRRTEXT
 70
     1
  9
$LTSCALE
 40
1.0
  9
$ATTMODE
 70
     1
  9
$TEXTSIZE
 40
3.2
  9
$TRACEWID
 40
1.0
  9
$TEXTSTYLE
  7
STANDARD
  9
$CLAYER
  8
04
  9
$CELTYPE
  6
ByLayer
  9
$CECOLOR
 62
   256
  9
$CELTSCALE
 40
1.0
  9
$DISPSILH
 70
     0
  9
$DIMSCALE
 40
1.0
  9
$DIMASZ
 40
2.5
  9
$DIMEXO
 40
1.0
  9
$DIMDLI
 40
10.0
  9
$DIMRND
 40
0.0
  9
$DIMDLE
 40
0.0
  9
$DIMEXE
 40
1.0
  9
$DIMTP
 40
0.2
  9
$DIMTM
 40
0.0
  9
$DIMTXT
 40
3.5
  9
$DIMCEN
 40
0.0
  9
$DIMTSZ
 40
0.0
  9
$DIMTOL
 70
     0
  9
$DIMLIM
 70
     0
  9
$DIMTIH
 70
     0
  9
$DIMTOH
 70
     0
  9
$DIMSE1
 70
     0
  9
$DIMSE2
 70
     0
  9
$DIMTAD
 70
     1
  9
$DIMZIN
 70
     8
  9
$DIMBLK
  1

  9
$DIMASO
 70
     1
  9
$DIMSHO
 70
     1
  9
$DIMPOST
  1

  9
$DIMAPOST
  1
"
  9
$DIMALT
 70
     0
  9
$DIMALTD
 70
     2
  9
$DIMALTF
 40
0.0393701
  9
$DIMLFAC
 40
1.0
  9
$DIMTOFL
 70
     1
  9
$DIMTVP
 40
0.0
  9
$DIMTIX
 70
     0
  9
$DIMSOXD
 70
     0
  9
$DIMSAH
 70
     0
  9
$DIMBLK1
  1

  9
$DIMBLK2
  1

  9
$DIMSTYLE
  2
SYS
  9
$DIMCLRD
 70
   256
  9
$DIMCLRE
 70
   256
  9
$DIMCLRT
 70
     7
  9
$DIMTFAC
 40
0.71
  9
$DIMGAP
 40
1.5
  9
$DIMJUST
 70
     0
  9
$DIMSD1
 70
     0
  9
$DIMSD2
 70
     0
  9
$DIMTOLJ
 70
     0
  9
$DIMTZIN
 70
     8
  9
$DIMALTZ
 70
     0
  9
$DIMALTTZ
 70
     0
  9
$DIMUPT
 70
     0
  9
$DIMDEC
 70
     1
  9
$DIMTDEC
 70
     3
  9
$DIMALTU
 70
     2
  9
$DIMALTTD
 70
     4
  9
$DIMTXSTY
  7
STANDARD
  9
$DIMAUNIT
 70
     0
  9
$DIMADEC
 70
     0
  9
$DIMALTRND
 40
0.0
  9
$DIMAZIN
 70
     2
  9
$DIMDSEP
 70
    46
  9
$DIMATFIT
 70
     3
  9
$DIMFRAC
 70
     0
  9
$DIMLDRBLK
  1

  9
$DIMLUNIT
 70
     2
  9
$DIMLWD
 70
    -1
  9
$DIMLWE
 70
    -1
  9
$DIMTMOVE
 70
     0
  9
$LUNITS
 70
     2
  9
$LUPREC
 70
     2
  9
$SKETCHINC
 40
1.0
  9
$FILLETRAD
 40
0.5
  9
$AUNITS
 70
     0
  9
$AUPREC
 70
     0
  9
$MENU
  1
.
  9
$ELEVATION
 40
0.0
  9
$PELEVATION
 40
0.0
  9
$THICKNESS
 40
0.0
  9
$LIMCHECK
 70
     0
  9
$CHAMFERA
 40
1.0
  9
$CHAMFERB
 40
1.0
  9
$CHAMFERC
 40
20.0
  9
$CHAMFERD
 40
0.0
  9
$SKPOLY
 70
     0
  9
$TDCREATE
 40
2452002.615067627
  9
$TDUCREATE
 40
2452002.240067627
  9
$TDUPDATE
 40
2456268.705456539
  9
$TDUUPDATE
 40
2456268.330456540
  9
$TDINDWG
 40
14.4830775231
  9
$TDUSRTIMER
 40
14.4830775231
  9
$USRTIMER
 70
     1
  9
$ANGBASE
 50
0.0
  9
$ANGDIR
 70
     0
  9
$PDMODE
 70
     0
  9
$PDSIZE
 40
0.0
  9
$PLINEWID
 40
0.0
  9
$SPLFRAME
 70
     0
  9
$SPLINETYPE
 70
     6
  9
$SPLINESEGS
 70
     8
  9
$HANDSEED
  5
257D2
  9
$SURFTAB1
 70
     6
  9
$SURFTAB2
 70
     6
  9
$SURFTYPE
 70
     6
  9
$SURFU
 70
     6
  9
$SURFV
 70
     6
  9
$UCSBASE
  2

  9
$UCSNAME
  2

  9
$UCSORG
 10
0.0
 20
0.0
 30
0.0
  9
$UCSXDIR
 10
1.0
 20
0.0
 30
0.0
  9
$UCSYDIR
 10
0.0
 20
1.0
 30
0.0
  9
$UCSORTHOREF
  2

  9
$UCSORTHOVIEW
 70
     0
  9
$UCSORGTOP
 10
0.0
 20
0.0
 30
0.0
  9
$UCSORGBOTTOM
 10
0.0
 20
0.0
 30
0.0
  9
$UCSORGLEFT
 10
0.0
 20
0.0
 30
0.0
  9
$UCSORGRIGHT
 10
0.0
 20
0.0
 30
0.0
  9
$UCSORGFRONT
 10
0.0
 20
0.0
 30
0.0
  9
$UCSORGBACK
 10
0.0
 20
0.0
 30
0.0
  9
$PUCSBASE
  2

  9
$PUCSNAME
  2

  9
$PUCSORG
 10
0.0
 20
0.0
 30
0.0
  9
$PUCSXDIR
 10
1.0
 20
0.0
 30
0.0
  9
$PUCSYDIR
 10
0.0
 20
1.0
 30
0.0
  9
$PUCSORTHOREF
  2

  9
$PUCSORTHOVIEW
 70
     0
  9
$PUCSORGTOP
 10
0.0
 20
0.0
 30
0.0
  9
$PUCSORGBOTTOM
 10
0.0
 20
0.0
 30
0.0
  9
$PUCSORGLEFT
 10
0.0
 20
0.0
 30
0.0
  9
$PUCSORGRIGHT
 10
0.0
 20
0.0
 30
0.0
  9
$PUCSORGFRONT
 10
0.0
 20
0.0
 30
0.0
  9
$PUCSORGBACK
 10
0.0
 20
0.0
 30
0.0
  9
$USERI1
 70
     0
  9
$USERI2
 70
     0
  9
$USERI3
 70
     0
  9
$USERI4
 70
     0
  9
$USERI5
 70
     0
  9
$USERR1
 40
0.0
  9
$USERR2
 40
0.0
  9
$USERR3
 40
0.0
  9
$USERR4
 40
0.0
  9
$USERR5
 40
0.0
  9
$WORLDVIEW
 70
     1
  9
$SHADEDGE
 70
     3
  9
$SHADEDIF
 70
    70
  9
$TILEMODE
 70
     1
  9
$MAXACTVP
 70
    64
  9
$PINSBASE
 10
0.0
 20
0.0
 30
0.0
  9
$PLIMCHECK
 70
     0
  9
$PEXTMIN
 10
1.000000000000000E+20
 20
1.000000000000000E+20
 30
1.000000000000000E+20
  9
$PEXTMAX
 10
-1.000000000000000E+20
 20
-1.000000000000000E+20
 30
-1.000000000000000E+20
  9
$PLIMMIN
 10
-3.17498779296875
 20
-3.174999952316284
  9
$PLIMMAX
 10
293.4970092773438
 20
206.692492723465
  9
$UNITMODE
 70
     0
  9
$VISRETAIN
 70
     1
  9
$PLINEGEN
 70
     0
  9
$PSLTSCALE
 70
     1
  9
$TREEDEPTH
 70
  3020
  9
$CMLSTYLE
  2
Standard
  9
$CMLJUST
 70
     0
  9
$CMLSCALE
 40
20.0
  9
$PROXYGRAPHICS
 70
     1
  9
$MEASUREMENT
 70
     1
  9
$CELWEIGHT
370
    -1
  9
$ENDCAPS
280
     0
  9
$JOINSTYLE
280
     0
  9
$LWDISPLAY
290
     1
  9
$INSUNITS
 70
     4
  9
$HYPERLINKBASE
  1

  9
$STYLESHEET
  1
monochrome.ctb
  9
$XEDIT
290
     1
  9
$CEPSNTYPE
380
     0
  9
$PSTYLEMODE
290
     1
  9
$FINGERPRINTGUID
  2
{83FB3AA1-FF18-4BFE-AFE0-611B71DE056D}
  9
$VERSIONGUID
  2
{3B0A1B67-6AA2-4B2D-87E2-4A4F84007FC1}
  9
$EXTNAMES
290
     1
  9
$PSVPSCALE
 40
0.0
  9
$OLESTARTUP
290
     0
  0
ENDSEC
  0
SECTION
  2
CLASSES
  0
CLASS
  1
ACDBDICTIONARYWDFLT
  2
AcDbDictionaryWithDefault
  3
ObjectDBX Classes
 90
        0
280
     0
281
     0
  0
CLASS
  1
ACDBPLACEHOLDER
  2
AcDbPlaceHolder
  3
ObjectDBX Classes
 90
        0
280
     0
281
     0
  0
CLASS
  1
LAYOUT
  2
AcDbLayout
  3
ObjectDBX Classes
 90
        0
280
     0
281
     0
  0
CLASS
  1
AMGSETTINGSOBJ
  2
AmgSettingsObj
  3
"AcadM|Product Description: AutoCAD Mechanical|Company: Autodesk"
 90
        0
280
     0
281
     0
  0
CLASS
  1
ACME_DOCUMENT
  2
AcMeDbDoc
  3
AcMeServices
 90
        0
280
     0
281
     0
  0
CLASS
  1
ACMESCOPE
  2
AcMeScope
  3
AcMeServices
 90
        0
280
     0
281
     0
  0
CLASS
  1
ACMECOMMANDHISTORY
  2
AcMeCommandHistory
  3
AcMeServices
 90
        0
280
     0
281
     0
  0
CLASS
  1
DICTIONARYVAR
  2
AcDbDictionaryVar
  3
ObjectDBX Classes
 90
        0
280
     0
281
     0
  0
CLASS
  1
ACIMSYSVARMAN
  2
AcImSysVarManager
  3
AcMeServices
 90
        0
280
     0
281
     0
  0
CLASS
  1
ACIMREALSYSVAR
  2
AcImRealSysVar
  3
AcMeServices
 90
        0
280
     0
281
     0
  0
CLASS
  1
ACIMINTSYSVAR
  2
AcImIntSysVar
  3
AcMeServices
 90
        0
280
     0
281
     0
  0
CLASS
  1
ACMEDRAWINGMAN
  2
AcMeDrawingMan
  3
AcMeServices
 90
        0
280
     0
281
     0
  0
CLASS
  1
ACMEVIEW
  2
AcMeView
  3
AcMeServices
 90
        0
280
     0
281
     0
  0
CLASS
  1
ACDBENTITYCACHE
  2
AcMeEntityCache
  3
AcMeServices
 90
        0
280
     0
281
     0
  0
CLASS
  1
GSMANAGER
  2
AcMeGSManager
  3
AcMeServices
 90
        0
280
     0
281
     0
  0
CLASS
  1
AMDTINTERNALREACTOR
  2
AmdtInternalReactor
  3
AcMeServices
 90
        0
280
     0
281
     0
  0
CLASS
  1
ACMESTATEMGR
  2
AcMeStateMgr
  3
AcMeServices
 90
        0
280
     0
281
     0
  0
CLASS
  1
ACGREFMASTER
  2
AcGrefMaster
  3
AcAttribServices
 90
        0
280
     0
281
     0
  0
CLASS
  1
ACME_DATABASE
  2
AcMeDbDatabase
  3
AcMeServices
 90
        0
280
     0
281
     0
  0
CLASS
  1
ACRFINSADJUSTERMGR
  2
AcRfInsAdjusterMgr
  3
AcMeServices
 90
        0
280
     0
281
     0
  0
CLASS
  1
ACGREFACADMASTER
  2
AcGrefacadMaster
  3
AcGrefServices
 90
        0
280
     0
281
     0
  0
CLASS
  1
AMIMASTER
  2
AmiMaster
  3
AmiServices
 90
        0
280
     0
281
     0
  0
CLASS
  1
ACMDATADICTIONARY
  2
AcmDataDictionary
  3
"AcmSymBB|Product Description: AutoCAD Mechanical|Company: Autodesk"
 90
        0
280
     0
281
     0
  0
CLASS
  1
ACMDATAENTRYBLOCK
  2
AcmDataEntryBlock
  3
"AcmSymBB|Product Description: AutoCAD Mechanical|Company: Autodesk"
 90
        0
280
     0
281
     0
  0
CLASS
  1
ACIMSTRSYSVAR
  2
AcImStrSysVar
  3
AcMeServices
 90
        0
280
     0
281
     0
  0
CLASS
  1
ACMSTANDARDISO
  2
AcmStandardISO
  3
"Amdt_StdImp|Product Description: AutoCAD Mechanical|Company: Autodesk"
 90
        0
280
     0
281
     0
  0
CLASS
  1
AMGOBJPROPCFG
  2
AmgObjPropCfg
  3
"AmgLay|Product Description: AutoCAD Mechanical|Company: Autodesk"
 90
        1
280
     0
281
     0
  0
CLASS
  1
AMDTEDGESTANDARDISO
  2
AmdtEdgeStdISO
  3
"Amdt_StdImp|Product Description: AutoCAD Mechanical|Company: Autodesk"
 90
        0
280
     0
281
     0
  0
CLASS
  1
ACMSURFSTANDARDISO
  2
AcmSurfTextStdISO
  3
"Amdt_StdImp|Product Description: AutoCAD Mechanical|Company: Autodesk"
 90
        0
280
     0
281
     0
  0
CLASS
  1
ACMFCFSTANDARDISO
  2
AcmFCFStdISO
  3
"Amdt_StdImp|Product Description: AutoCAD Mechanical|Company: Autodesk"
 90
        0
280
     0
281
     0
  0
CLASS
  1
ACMWELDSTANDARDISO
  2
AcmWeldingStdISO
  3
"Amdt_StdImp|Product Description: AutoCAD Mechanical|Company: Autodesk"
 90
        0
280
     0
281
     0
  0
CLASS
  1
ACMIDSTANDARDISO
  2
AcmIdStdISO
  3
"Amdt_StdImp|Product Description: AutoCAD Mechanical|Company: Autodesk"
 90
        0
280
     0
281
     0
  0
CLASS
  1
ACMDATUMSTANDARDISO
  2
AcmDatumStdISO
  3
"Amdt_StdImp|Product Description: AutoCAD Mechanical|Company: Autodesk"
 90
        0
280
     0
281
     0
  0
CLASS
  1
ACMBOMSTANDARDISO
  2
AcmBOMStdISO
  3
"Amdt_StdImp|Product Description: AutoCAD Mechanical|Company: Autodesk"
 90
        0
280
     0
281
     0
  0
CLASS
  1
ACMDETAILSTANDARDISO
  2
AmdtDetailSymStdISO
  3
"Amdt_StdImp|Product Description: AutoCAD Mechanical|Company: Autodesk"
 90
        0
280
     0
281
     0
  0
CLASS
  1
ACMSECTIONSTANDARDISO
  2
AmdtSectionSymStdISO
  3
"Amdt_StdImp|Product Description: AutoCAD Mechanical|Company: Autodesk"
 90
        0
280
     0
281
     0
  0
CLASS
  1
ACMCENTERLINESTANDARDISO
  2
AmdtCenterLineStdISO
  3
"Amdt_StdImp|Product Description: AutoCAD Mechanical|Company: Autodesk"
 90
        0
280
     0
281
     0
  0
CLASS
  1
ACAMGLAYSTD
  2
AcAmgLayStd
  3
"AmgLay|Product Description: AutoCAD Mechanical|Company: Autodesk"
 90
        0
280
     0
281
     0
  0
CLASS
  1
ACAMGDIMSTD
  2
AcAmgDimStd
  3
"AmgDim|Product Description: AutoCAD Mechanical|Company: Autodesk"
 90
        0
280
     0
281
     0
  0
CLASS
  1
ACAMGTITLESTD
  2
AcAmgTitleStd
  3
"AmgTitle|Product Description: AutoCAD Mechanical|Company: Autodesk"
 90
        0
280
     0
281
     0
  0
CLASS
  1
ACAMGFILTERDAT
  2
AcAmgFilterDat
  3
"AcadM|Product Description: AutoCAD Mechanical|Company: Autodesk"
 90
        0
280
     0
281
     0
  0
CLASS
  1
LAYER_INDEX
  2
AcDbLayerIndex
  3
ObjectDBX Classes
 90
    32768
280
     0
281
     0
  0
CLASS
  1
IDBUFFER
  2
AcDbIdBuffer
  3
ObjectDBX Classes
 90
    32768
280
     0
281
     0
  0
CLASS
  1
PLOTSETTINGS
  2
AcDbPlotSettings
  3
ObjectDBX Classes
 90
        0
280
     0
281
     0
  0
CLASS
  1
AMDTFORMULAUPDATEDISPATCHER
  2
AmdtFormulaUpdateDispatcher
  3
AcMeServices
 90
        0
280
     0
281
     0
  0
CLASS
  1
ACMSTANDARDANSI
  2
AcmStandardANSI
  3
"Amdt_StdImp|Product Description: AutoCAD Mechanical|Company: Autodesk"
 90
        0
280
     0
281
     0
  0
CLASS
  1
ACMSURFSTANDARDANSI
  2
AcmSurfTextStdANSI
  3
"Amdt_StdImp|Product Description: AutoCAD Mechanical|Company: Autodesk"
 90
        0
280
     0
281
     0
  0
CLASS
  1
ACMFCFSTANDARDANSI
  2
AcmFCFStdANSI
  3
"Amdt_StdImp|Product Description: AutoCAD Mechanical|Company: Autodesk"
 90
        0
280
     0
281
     0
  0
CLASS
  1
ACMWELDSTANDARDANSI
  2
AcmWeldingStdANSI
  3
"Amdt_StdImp|Product Description: AutoCAD Mechanical|Company: Autodesk"
 90
        0
280
     0
281
     0
  0
CLASS
  1
ACMIDSTANDARDANSI
  2
AcmIdStdANSI
  3
"Amdt_StdImp|Product Description: AutoCAD Mechanical|Company: Autodesk"
 90
        0
280
     0
281
     0
  0
CLASS
  1
ACMDATUMSTANDARDANSI
  2
AcmDatumStdANSI
  3
"Amdt_StdImp|Product Description: AutoCAD Mechanical|Company: Autodesk"
 90
        0
280
     0
281
     0
  0
CLASS
  1
ACMBOMSTANDARDANSI
  2
AcmBOMStdANSI
  3
"Amdt_StdImp|Product Description: AutoCAD Mechanical|Company: Autodesk"
 90
        0
280
     0
281
     0
  0
CLASS
  1
ACMDETAILSTANDARDANSI
  2
AmdtDetailSymStdANSI
  3
"Amdt_StdImp|Product Description: AutoCAD Mechanical|Company: Autodesk"
 90
        0
280
     0
281
     0
  0
CLASS
  1
ACMSECTIONSTANDARDANSI
  2
AmdtSectionSymStdANSI
  3
"Amdt_StdImp|Product Description: AutoCAD Mechanical|Company: Autodesk"
 90
        0
280
     0
281
     0
  0
CLASS
  1
ACMCENTERLINESTANDARDANSI
  2
AmdtCenterLineStdANSI
  3
"Amdt_StdImp|Product Description: AutoCAD Mechanical|Company: Autodesk"
 90
        0
280
     0
281
     0
  0
CLASS
  1
ACMBOM
  2
AcmBom
  3
"AcmSymBB|Product Description: AutoCAD Mechanical|Company: Autodesk"
 90
        0
280
     0
281
     0
  0
CLASS
  1
ACMDATAENTRYPART
  2
AcmDataEntryPart
  3
"AcmSymBB|Product Description: AutoCAD Mechanical|Company: Autodesk"
 90
    32768
280
     0
281
     0
  0
CLASS
  1
ACMPARTREF
  2
AcmPartRef
  3
"AcmSymBB|Product Description: AutoCAD Mechanical|Company: Autodesk"
 90
    35839
280
     0
281
     1
  0
CLASS
  1
ACDBCIRCARCRES
  2
AcDbCircArcRes
  3
AcGrefServices
 90
        0
280
     0
281
     0
  0
CLASS
  1
ACMBOMROW
  2
AcmBomRow
  3
"AcmSymBB|Product Description: AutoCAD Mechanical|Company: Autodesk"
 90
    32768
280
     0
281
     0
  0
CLASS
  1
ACMBALLOON
  2
AcmBalloon
  3
"AcmSymBB|Product Description: AutoCAD Mechanical|Company: Autodesk"
 90
    35839
280
     0
281
     1
  0
CLASS
  1
AMDTNOTE
  2
AmdtNote
  3
"AcmSymBB|Product Description: AutoCAD Mechanical|Company: Autodesk"
 90
    35839
280
     0
281
     1
  0
CLASS
  1
STDPART2D
  2
AmgStdPart
  3
"g3vace|Class: AmgStdPart|Product Description: AutoCAD Mechanical|Company: Autodesk"
 90
    35839
280
     0
281
     1
  0
CLASS
  1
ACDBSTDPARTRES_LINE
  2
AcDbStdPartRes_Line
  3
"g3vace|Class: AcDbStdPartRes_Line|Product Description: AutoCAD Mechanical|Company: Autodesk"
 90
    32768
280
     0
281
     0
  0
CLASS
  1
ACMDATAENTRY
  2
AcmDataEntry
  3
"AcmSymBB|Product Description: AutoCAD Mechanical|Company: Autodesk"
 90
        0
280
     0
281
     0
  0
CLASS
  1
ACDBOPPOLYLINERES
  2
AcDbOpPolylineRes
  3
AcGrefServices
 90
    32768
280
     0
281
     0
  0
CLASS
  1
ACMPARTLIST
  2
AcmPartList
  3
"AcmSymBB|Product Description: AutoCAD Mechanical|Company: Autodesk"
 90
    35839
280
     0
281
     1
  0
CLASS
  1
ACDBLINERES
  2
AcDbLineRes
  3
AcGrefServices
 90
        0
280
     0
281
     0
  0
CLASS
  1
ACRFINSADJ
  2
AcRfInsAdjuster
  3
AcMeServices
 90
    32768
280
     0
281
     0
  0
CLASS
  1
AM_DRAWING_MGR
  2
AcDmDwgMgr
  3
AcMechDwgViewMgmt
 90
        0
280
     0
281
     0
  0
CLASS
  1
AM_DWG_DOCUMENT
  2
AcDmDwgDocument
  3
AcMechDwgViewMgmt
 90
        0
280
     0
281
     0
  0
CLASS
  1
AM_DWG_SHEET
  2
AcDmSheet
  3
AcMechDwgViewMgmt
 90
        0
280
     0
281
     0
  0
CLASS
  1
AM_VIEWDIMPARMAP
  2
AcDmViewDimParMap
  3
AcMechDwgViewMgmt
 90
        0
280
     0
281
     0
  0
CLASS
  1
AM_DWGMGR_NAME
  2
AcDmDwgMgrName
  3
AcMechDwgViewMgmt
 90
        0
280
     0
281
     0
  0
CLASS
  1
AMDTMENUSTATEMGR
  2
AmdtMenuStateMgr
  3
McadcomServices
 90
        0
280
     0
281
     0
  0
CLASS
  1
AMDTMCOMMENUSTATE
  2
AmdtMcomMenuState
  3
McadcomServices
 90
        0
280
     0
281
     0
  0
CLASS
  1
ASAPP
  2
AcAsAppObject
  3
AutoSurfServices
 90
        0
280
     0
281
     0
  0
CLASS
  1
IM_STATIC_MAN
  2
AcImStaticVarManager
  3
AcMeServices
 90
        0
280
     0
281
     0
  0
CLASS
  1
ACIMDBLSTATICVAR
  2
AcImDblStaticVar
  3
AcMeServices
 90
        0
280
     0
281
     0
  0
CLASS
  1
ACIMSTRSTATICVAR
  2
AcImStrStaticVar
  3
AcMeServices
 90
        0
280
     0
281
     0
  0
CLASS
  1
ACIMINTSTATICVAR
  2
AcImIntStaticVar
  3
AcMeServices
 90
        0
280
     0
281
     0
  0
CLASS
  1
ACASGREFMASTER
  2
AcAsGrefMaster
  3
AutoSurfResolverServices
 90
        0
280
     0
281
     0
  0
CLASS
  1
ACADGREFMODULE
  2
AcAdGrefModule
  3
AdGrefServices
 90
        0
280
     0
281
     0
  0
CLASS
  1
AMDTMAPISURFMOUDULE
  2
AmdtMApiSurfModule
  3
MApiSurfServices
 90
        0
280
     0
281
     0
  0
CLASS
  1
MAPIAMMOUDLE
  2
MApiAmModule
  3
MApiAmServices
 90
        0
280
     0
281
     0
  0
CLASS
  1
AMDTADMENUSTATE
  2
AmdtAdMenuState
  3
DesignerServices
 90
        0
280
     0
281
     0
  0
CLASS
  1
ADAPPL
  2
AcAdAppl
  3
DesignerServices
 90
        0
280
     0
281
     0
  0
CLASS
  1
DEPMGR
  2
AcAdDepMgr
  3
DesignerServices
 90
        0
280
     0
281
     0
  0
CLASS
  1
PARAMMGR
  2
AcAdParamMgr
  3
DesignerServices
 90
        0
280
     0
281
     0
  0
CLASS
  1
PARAMSCOPE
  2
AcAdParamScope
  3
DesignerServices
 90
        0
280
     0
281
     0
  0
CLASS
  1
NAMEDAPPL
  2
AcAdNamedAppl
  3
DesignerServices
 90
        0
280
     0
281
     0
  0
CLASS
  1
ADHNTMPLT
  2
AdHoleNoteTemplateMgr
  3
DesignerServices
 90
    32768
280
     0
281
     0
  0
CLASS
  1
AM_HNTEMPLATE_MGR_NAME
  2
AdHoleNoteTemplateMgrName
  3
DesignerServices
 90
    32768
280
     0
281
     0
  0
CLASS
  1
AMDTDMMENUSTATE
  2
AmdtDmMenuState
  3
AcMechDwgViewMgmt
 90
        0
280
     0
281
     0
  0
CLASS
  1
MAPIADMODULE
  2
MApiAdModule
  3
MApiAdServices
 90
        0
280
     0
281
     0
  0
CLASS
  1
AMDTAMMENUSTATE
  2
AmdtAmMenuState
  3
DesignerAssemblies
 90
        0
280
     0
281
     0
  0
CLASS
  1
ACAMPROJECT
  2
AcAmProject
  3
DesignerAssemblies
 90
        0
280
     0
281
     0
  0
CLASS
  1
ACAMGRCOMPDEF
  2
AcAmGrCompDef
  3
DesignerAssemblies
 90
        0
280
     0
281
     0
  0
CLASS
  1
ACCMCONTEXT
  2
AcCmContext
  3
DesignerAssemblies
 90
        0
280
     0
281
     0
  0
CLASS
  1
ACAMCOMPDEF
  2
AcAmCompDef
  3
DesignerAssemblies
 90
        0
280
     0
281
     0
  0
CLASS
  1
ACAMCOMPDEFMGR
  2
AcAmCompDefMgr
  3
DesignerAssemblies
 90
        0
280
     0
281
     0
  0
CLASS
  1
AMCONTEXTMGR
  2
AcAmContextMgr
  3
DesignerAssemblies
 90
        0
280
     0
281
     0
  0
CLASS
  1
ACAMCONTEXTMODELER
  2
AcAmContextModeler
  3
DesignerAssemblies
 90
        0
280
     0
281
     0
  0
CLASS
  1
CATALOGSTATE
  2
AcAmCatalogState
  3
DesignerAssemblies
 90
        0
280
     0
281
     0
  0
CLASS
  1
ACAMGRCOMPDEFSET
  2
AcAmGrCompDefSet
  3
DesignerAssemblies
 90
        0
280
     0
281
     0
  0
CLASS
  1
AMDTBROWSERDBTAB
  2
AmdtBrowserDbTab
  3
McadcomServices
 90
        0
280
     0
281
     0
  0
CLASS
  1
CBROWSERAPPOBJECT
  2
CBrowserAppObject
  3
McadcomServices
 90
        0
280
     0
281
     0
  0
CLASS
  1
DM_PLACEHOLDER
  2
AcDmSelsetPlaceholder
  3
AcMechDwgViewMgmt
 90
        0
280
     0
281
     0
  0
CLASS
  1
ACMPICKOBJ
  2
AcmPickEnt
  3
"AcmSymBB|Product Description: AutoCAD Mechanical|Company: Autodesk"
 90
    32768
280
     0
281
     1
  0
CLASS
  1
ACMTHREADLINESTANDARDISO
  2
AmdtThreadLineStdISO
  3
"Amdt_StdImp|Product Description: AutoCAD Mechanical|Company: Autodesk"
 90
        0
280
     0
281
     0
  0
CLASS
  1
ACMNOTESTANDARDISO
  2
AmdtNoteStdISO
  3
"Amdt_StdImp|Product Description: AutoCAD Mechanical|Company: Autodesk"
 90
        0
280
     0
281
     0
  0
CLASS
  1
AMDTNOTETEMPLATEDB
  2
AmdtNoteTemplateDB
  3
AMDT_STDIMP_MODULE_NAME
 90
        0
280
     0
281
     0
  0
CLASS
  1
ACMTHREADLINESTANDARDANSI
  2
AmdtThreadLineStdANSI
  3
"Amdt_StdImp|Product Description: AutoCAD Mechanical|Company: Autodesk"
 90
        0
280
     0
281
     0
  0
CLASS
  1
ACMNOTESTANDARDANSI
  2
AmdtNoteStdANSI
  3
"Amdt_StdImp|Product Description: AutoCAD Mechanical|Company: Autodesk"
 90
        0
280
     0
281
     0
  0
CLASS
  1
AMDTACMWBLOCKBOMENTITY
  2
AmdtAcmWblockBomEntity
  3
"AcmSymBB|Product Description: AutoCAD Mechanical|Company: Autodesk"
 90
     3071
280
     0
281
     1
  0
CLASS
  1
SORTENTSTABLE
  2
AcDbSortentsTable
  3
ObjectDBX Classes
 90
        0
280
     0
281
     0
  0
CLASS
  1
TABLESTYLE
  2
AcDbTableStyle
  3
ObjectDBX Classes
 90
     4095
280
     0
281
     0
  0
CLASS
  1
MATERIAL
  2
AcDbMaterial
  3
ObjectDBX Classes
 90
     1024
280
     0
281
     0
  0
CLASS
  1
VISUALSTYLE
  2
AcDbVisualStyle
  3
ObjectDBX Classes
 90
     4095
280
     0
281
     0
  0
CLASS
  1
ACRFATTGENMGR
  2
AcRfAttGeneralMgr
  3
AcAttribServices
 90
        0
280
     0
281
     0
  0
CLASS
  1
ACRFOBJATTMGR
  2
AcRfObjAttGroupMgr
  3
AcAttribServices
 90
        0
280
     0
281
     0
  0
CLASS
  1
ACRFMCADAPIATTHOLDER
  2
AcRfMCADAPIAttHolder
  3
AcAttribServices
 90
        0
280
     0
281
     0
  0
CLASS
  1
AMDTSYSATTR
  2
AmdtSystemAttribute
  3
AcAttribServices
 90
        0
280
     0
281
     0
  0
CLASS
  1
ACMTAPERSTANDARDISO
  2
AcmTaperStdISO
  3
"Amdt_StdImp|Product Description: AutoCAD Mechanical|Company: Autodesk"
 90
        0
280
     0
281
     0
  0
CLASS
  1
ACMTAPERSTANDARDANSI
  2
AcmTaperStdANSI
  3
"Amdt_StdImp|Product Description: AutoCAD Mechanical|Company: Autodesk"
 90
        0
280
     0
281
     0
  0
CLASS
  1
CAMSSTRUCTBTNSTATE
  2
StructBtnState
  3
L"DesignerAssemblies"
 90
        0
280
     0
281
     0
  0
CLASS
  1
DIMASSOC
  2
AcDbDimAssoc
  3
"AcDbDimAssoc|Product Desc:     AcDim ARX App For Dimension|Company:          Autodesk, Inc.|WEB Address:      www.autodesk.com"
 90
    32768
280
     0
281
     0
  0
CLASS
  1
ADPART
  2
AcAdPart
  3
DesignerServices
 90
    32768
280
     0
281
     1
  0
CLASS
  1
ACAMCOMPENT
  2
AcAmCompEnt
  3
DesignerAssemblies
 90
    32768
280
     0
281
     1
  0
CLASS
  1
ACAMCOMPENTCLONE
  2
AcAmCompEntClone
  3
DesignerAssemblies
 90
    32768
280
     0
281
     1
  0
CLASS
  1
WORKPLANEDISPLAYMGR
  2
AcAdDisplayMgr
  3
DesignerServices
 90
        0
280
     0
281
     0
  0
CLASS
  1
PARAM
  2
AcAdParam
  3
DesignerServices
 90
    32768
280
     0
281
     0
  0
CLASS
  1
ADDATUMAXISABS
  2
AcAdDatumAxisAbs
  3
DesignerServices
 90
    32768
280
     0
281
     0
  0
CLASS
  1
ADDATUMPLANEABS
  2
AcAdDatumPlaneAbs
  3
DesignerServices
 90
    32768
280
     0
281
     0
  0
CLASS
  1
ADBASE
  2
AcAdBase
  3
DesignerServices
 90
    32768
280
     0
281
     0
  0
CLASS
  1
ADDATUMORIENTEDPLANE
  2
AcAdDatumOrientedPlane
  3
DesignerServices
 90
    32768
280
     0
281
     0
  0
CLASS
  1
BODYID
  2
AcAdBodyId
  3
DesignerServices
 90
    32768
280
     0
281
     0
  0
CLASS
  1
ACADCONSGROUP
  2
AcAdConstraintGroup
  3
DesignerServices
 90
    32768
280
     0
281
     0
  0
CLASS
  1
ACADREFLINEACAD
  2
AcAdVirtualReferenceLine
  3
DesignerServices
 90
    32768
280
     0
281
     0
  0
CLASS
  1
ACADCONSLINE
  2
AcAdConstrainedLine
  3
DesignerServices
 90
    32768
280
     0
281
     0
  0
CLASS
  1
ACADLINEACAD
  2
AcAdVirtualBoundedLineAcad
  3
DesignerServices
 90
    32768
280
     0
281
     0
  0
CLASS
  1
ACADCONSPOINT
  2
AcAdConstrainedPoint
  3
DesignerServices
 90
    32768
280
     0
281
     0
  0
CLASS
  1
ADPCURCNS
  2
AcAdPointCurveConstr
  3
DesignerServices
 90
    32768
280
     0
281
     0
  0
CLASS
  1
ADVERCNS
  2
AcAdVerticalConstr
  3
DesignerServices
 90
    32768
280
     0
281
     0
  0
CLASS
  1
ADHORCNS
  2
AcAdHorizontalConstr
  3
DesignerServices
 90
    32768
280
     0
281
     0
  0
CLASS
  1
ACADIMPPTACAD
  2
AcAdVirtualImplicitPoint
  3
DesignerServices
 90
    32768
280
     0
281
     0
  0
CLASS
  1
ADCLPROF2D
  2
AcAdClosedProfile2d
  3
DesignerServices
 90
    32768
280
     0
281
     0
  0
CLASS
  1
ACAD_FIXCONSTRAINT
  2
AcAdFixedConstraint
  3
DesignerServices
 90
    32768
280
     0
281
     0
  0
CLASS
  1
DEPEDGEFEATUREORDERING
  2
AcAdDepEdgeFeatureOrdering
  3
DesignerServices
 90
    32768
280
     0
281
     0
  0
CLASS
  1
ACADVOLFEATWITHTRIM
  2
AcAdVolFeatWithTrim
  3
DesignerServices
 90
    32768
280
     0
281
     0
  0
CLASS
  1
EDGEID
  2
AcAdEdgeId
  3
DesignerServices
 90
    32768
280
     0
281
     0
  0
CLASS
  1
ADFILLET
  2
AcAdFillet
  3
DesignerServices
 90
    32768
280
     0
281
     0
  0
CLASS
  1
SURFACE
  2
AcDbSurface
  3
ObjectDBX Classes
 90
    36863
280
     0
281
     1
  0
ENDSEC
  0
SECTION
  2
TABLES
  0
TABLE
  2
VPORT
  5
8
330
0
100
AcDbSymbolTable
 70
     1
  0
VPORT
  5
1105A
330
8
100
AcDbSymbolTableRecord
100
AcDbViewportTableRecord
  2
*Active
 70
     0
 10
0.0
 20
0.0
 11
1.0
 21
1.0
 12
278.91415007322
 22
1790.49947442495
 13
0.0
 23
0.0
 14
2.5
 24
2.5
 15
10.0
 25
10.0
 16
0.0
 26
0.0
 36
1.0
 17
0.0
 27
0.0
 37
0.0
 40
299.3566537348847
 41
1.648648648648648
 42
50.0
 43
-1370.695619172058
 44
-1370.695619172058
 50
0.0
 51
0.0
 71
    16
 72
   100
 73
     1
 74
     3
 75
     0
 76
     0
 77
     0
 78
     0
281
     0
 65
     0
110
0.0
120
0.0
130
0.0
111
1.0
121
0.0
131
0.0
112
0.0
122
1.0
132
0.0
 79
     0
146
0.0
  0
ENDTAB
  0
TABLE
  2
LTYPE
  5
5
330
0
100
AcDbSymbolTable
 70
    22
  0
LTYPE
  5
14
330
5
100
AcDbSymbolTableRecord
100
AcDbLinetypeTableRecord
  2
ByBlock
 70
     0
  3

 72
    65
 73
     0
 40
0.0
  0
LTYPE
  5
15
330
5
100
AcDbSymbolTableRecord
100
AcDbLinetypeTableRecord
  2
ByLayer
 70
     0
  3

 72
    65
 73
     0
 40
0.0
  0
LTYPE
  5
16
330
5
100
AcDbSymbolTableRecord
100
AcDbLinetypeTableRecord
  2
Continuous
 70
     0
  3
Solid line
 72
    65
 73
     0
 40
0.0
  0
LTYPE
  5
4F
330
5
100
AcDbSymbolTableRecord
100
AcDbLinetypeTableRecord
  2
AM_ISO02W050
 70
     0
  3
__ __ __ __ __ __ __ __ __ __ __ __ __ __ __
 72
    65
 73
     2
 40
7.5
 49
6.0
 74
     0
 49
-1.5
 74
     0
  0
LTYPE
  5
52
330
5
100
AcDbSymbolTableRecord
100
AcDbLinetypeTableRecord
  2
Amconstr
 70
     0
  3
_______________________
 72
    65
 73
     2
 40
9999.0
 49
9999.0
 74
     0
 49
0.0
 74
     0
  0
LTYPE
  5
64
330
5
100
AcDbSymbolTableRecord
100
AcDbLinetypeTableRecord
  2
ACISOWELD
 70
     0
  3
_ _ _ _ _
 72
    65
 73
     2
 40
2.0
 49
2.0
 74
     0
 49
-1.0
 74
     0
  0
LTYPE
  5
65
330
5
100
AcDbSymbolTableRecord
100
AcDbLinetypeTableRecord
  2
ACISOTGB
 70
     0
  3
__ . . __ . .
 72
    65
 73
     6
 40
9.0
 49
4.0
 74
     0
 49
-1.0
 74
     0
 49
1.0
 74
     0
 49
-1.0
 74
     0
 49
1.0
 74
     0
 49
-1.0
 74
     0
  0
LTYPE
  5
66
330
5
100
AcDbSymbolTableRecord
100
AcDbLinetypeTableRecord
  2
ACISOTGL
 70
     0
  3
_ _ _ _ _
 72
    65
 73
     2
 40
3.0
 49
2.0
 74
     0
 49
-1.0
 74
     0
  0
LTYPE
  5
69
330
5
100
AcDbSymbolTableRecord
100
AcDbLinetypeTableRecord
  2
CENTER
 70
     0
  3
__ . __
 72
    65
 73
     4
 40
7.0
 49
4.0
 74
     0
 49
-1.0
 74
     0
 49
1.0
 74
     0
 49
-1.0
 74
     0
  0
LTYPE
  5
A6E
330
5
100
AcDbSymbolTableRecord
100
AcDbLinetypeTableRecord
  2
PHANTOM2
 70
     0
  3
Phantom (.5x) ___ _ _ ___ _ _ ___ _ _ ___ _ _
 72
    65
 73
     6
 40
31.75
 49
15.875
 74
     0
 49
-3.174999999999999
 74
     0
 49
3.174999999999999
 74
     0
 49
-3.174999999999999
 74
     0
 49
3.174999999999999
 74
     0
 49
-3.174999999999999
 74
     0
  0
LTYPE
  5
FA3
330
5
100
AcDbSymbolTableRecord
100
AcDbLinetypeTableRecord
  2
ACANSTGB
 70
     0
  3
__ . . __ . .
 72
    65
 73
     6
 40
0.35433070866
 49
0.15748031496
 74
     0
 49
-0.03937007874
 74
     0
 49
0.03937007874
 74
     0
 49
-0.03937007874
 74
     0
 49
0.03937007874
 74
     0
 49
-0.03937007874
 74
     0
  0
LTYPE
  5
FA4
330
5
100
AcDbSymbolTableRecord
100
AcDbLinetypeTableRecord
  2
ACANSTGL
 70
     0
  3
_ _ _ _ _
 72
    65
 73
     2
 40
0.11811023622
 49
0.07874015748
 74
     0
 49
-0.03937007874
 74
     0
  0
LTYPE
  5
4DED
330
5
100
AcDbSymbolTableRecord
100
AcDbLinetypeTableRecord
  2
中線
 70
     0
  3
___________________
 72
    65
 73
     2
 40
2.0
 49
1.0
 74
     0
 49
1.0
 74
     0
  0
LTYPE
  5
4DF6
330
5
100
AcDbSymbolTableRecord
100
AcDbLinetypeTableRecord
  2
細線
 70
     0
  3
___________________
 72
    65
 73
     2
 40
2.0
 49
1.0
 74
     0
 49
1.0
 74
     0
  0
LTYPE
  5
4DF7
330
5
100
AcDbSymbolTableRecord
100
AcDbLinetypeTableRecord
  2
太線
 70
     0
  3
___________________
 72
    65
 73
     2
 40
2.0
 49
1.0
 74
     0
 49
1.0
 74
     0
  0
LTYPE
  5
4EA7
330
5
100
AcDbSymbolTableRecord
100
AcDbLinetypeTableRecord
  2
文字
 70
     0
  3
_________________
 72
    65
 73
     2
 40
2.0
 49
1.0
 74
     0
 49
1.0
 74
     0
  0
LTYPE
  5
4EA9
330
5
100
AcDbSymbolTableRecord
100
AcDbLinetypeTableRecord
  2
寸法線
 70
     0
  3
________________
 72
    65
 73
     2
 40
2.0
 49
1.0
 74
     0
 49
1.0
 74
     0
  0
LTYPE
  5
4F12
330
5
100
AcDbSymbolTableRecord
100
AcDbLinetypeTableRecord
  2
ハッチング
 70
     0
  3
_________________
 72
    65
 73
     2
 40
2.0
 49
1.0
 74
     0
 49
1.0
 74
     0
  0
LTYPE
  5
5180
330
5
100
AcDbSymbolTableRecord
100
AcDbLinetypeTableRecord
  2
陰線1
 70
     0
  3
__ __ __ __
 72
    65
 73
     2
 40
4.0
 49
2.2
 74
     0
 49
-1.8
 74
     0
  0
LTYPE
  5
5182
330
5
100
AcDbSymbolTableRecord
100
AcDbLinetypeTableRecord
  2
切断線
 70
     0
  3
/\/-/\/-/\/-/\/-/\/-/\/
 72
    65
 73
     2
 40
11.0001
 49
0.0001
 74
     4
 75
   135
340
56
 46
0.04
 50
0.0
 44
0.0
 45
0.0
 49
-11.0
 74
     0
  0
LTYPE
  5
5183
330
5
100
AcDbSymbolTableRecord
100
AcDbLinetypeTableRecord
  2
想像線1
 70
     0
  3
__ __ __ _____ __ __ ____
 72
    65
 73
     6
 40
14.5
 49
6.0
 74
     0
 49
-1.5
 74
     0
 49
2.0
 74
     0
 49
-1.5
 74
     0
 49
2.0
 74
     0
 49
-1.5
 74
     0
  0
LTYPE
  5
5185
330
5
100
AcDbSymbolTableRecord
100
AcDbLinetypeTableRecord
  2
中心線1
 70
     0
  3
___ _ ___ _ ___
 72
    65
 73
     4
 40
18.0
 49
12.0
 74
     0
 49
-2.0
 74
     0
 49
2.0
 74
     0
 49
-2.0
 74
     0
  0
LTYPE
  5
5188
330
5
100
AcDbSymbolTableRecord
100
AcDbLinetypeTableRecord
  2
補助線
 70
     0
  3
______________
 72
    65
 73
     2
 40
2.0
 49
1.0
 74
     0
 49
1.0
 74
     0
  0
LTYPE
  5
C477
330
5
100
AcDbSymbolTableRecord
100
AcDbLinetypeTableRecord
  2
HIDDEN
 70
     0
  3
Hidden __ __ __ __ __ __ __ __ __ __ __ __ __ _
 72
    65
 73
     2
 40
9.524999999999998
 49
6.349999999999999
 74
     0
 49
-3.174999999999999
 74
     0
  0
ENDTAB
  0
TABLE
  2
LAYER
  5
2
102
{ACAD_XDICTIONARY
360
3F95
102
}
330
0
100
AcDbSymbolTable
 70
    11
  0
LAYER
  5
10
330
2
100
AcDbSymbolTableRecord
100
AcDbLayerTableRecord
  2
0
 70
     0
 62
     7
  6
Continuous
370
    -3
390
F
  0
LAYER
  5
6D1
330
2
100
AcDbSymbolTableRecord
100
AcDbLayerTableRecord
  2
Defpoints
 70
     0
 62
     7
  6
Continuous
290
     0
370
    -3
390
F
  0
LAYER
  5
A46
330
2
100
AcDbSymbolTableRecord
100
AcDbLayerTableRecord
  2
size
 70
     0
 62
     5
  6
Continuous
290
     0
370
    30
390
F
  0
LAYER
  5
A47
330
2
100
AcDbSymbolTableRecord
100
AcDbLayerTableRecord
  2
waku
 70
     0
 62
     7
  6
Continuous
370
    40
390
F
  0
LAYER
  5
A48
330
2
100
AcDbSymbolTableRecord
100
AcDbLayerTableRecord
  2
AM_6
 70
     0
 62
     2
  6
文字
370
    20
390
F
  0
LAYER
  5
5F85
330
2
100
AcDbSymbolTableRecord
100
AcDbLayerTableRecord
  2
AM_0
 70
     0
 62
     7
  6
中線
370
    30
390
F
  0
LAYER
  5
5F89
330
2
100
AcDbSymbolTableRecord
100
AcDbLayerTableRecord
  2
AM_4
 70
     0
 62
     3
  6
補助線
370
    20
390
F
  0
LAYER
  5
BFAB
330
2
100
AcDbSymbolTableRecord
100
AcDbLayerTableRecord
  2
AM_5
 70
     0
 62
     3
  6
寸法線
370
    18
390
F
  0
LAYER
  5
1CD73
330
2
100
AcDbSymbolTableRecord
100
AcDbLayerTableRecord
  2
04
 70
     0
 62
    52
  6
中線
370
    30
390
F
1001
AcAecLayerStandard
1000

1000

  0
LAYER
  5
1D928
330
2
100
AcDbSymbolTableRecord
100
AcDbLayerTableRecord
  2
0部品4
 70
     0
 62
    70
  6
細線
370
    30
390
F
1001
AcAecLayerStandard
1000

1000

  0
LAYER
  5
23CB8
330
2
100
AcDbSymbolTableRecord
100
AcDbLayerTableRecord
  2
AM_3
 70
     0
 62
     6
  6
陰線1
370
    20
390
F
  0
ENDTAB
  0
TABLE
  2
STYLE
  5
3
330
0
100
AcDbSymbolTable
 70
     7
  0
STYLE
  5
11
330
3
100
AcDbSymbolTableRecord
100
AcDbTextStyleTableRecord
  2
STANDARD
 70
     0
 40
0.0
 41
0.7
 50
0.0
 71
     0
 42
3.2
  3
romans.shx
  4
extfont.shx
  0
STYLE
  5
56
330
3
100
AcDbSymbolTableRecord
100
AcDbTextStyleTableRecord
  2

 70
     1
 40
0.0
 41
1.0
 50
0.0
 71
     0
 42
2.5
  3
ltypeshp.shx
  4

  0
STYLE
  5
58
330
3
100
AcDbSymbolTableRecord
100
AcDbTextStyleTableRecord
  2
ACISOTS
 70
     0
 40
1.0
 41
1.0
 50
0.0
 71
     0
 42
2.5
  3
isocp.shx
  4
extfont.shx
  0
STYLE
  5
63
330
3
100
AcDbSymbolTableRecord
100
AcDbTextStyleTableRecord
  2
ACISOGDT
 70
     0
 40
0.0
 41
1.0
 50
0.0
 71
     0
 42
2.5
  3
amgdt.shx
  4

  0
STYLE
  5
A74
330
3
100
AcDbSymbolTableRecord
100
AcDbTextStyleTableRecord
  2
DIM
 70
     0
 40
0.0
 41
1.0
 50
0.0
 71
     0
 42
2.5
  3
monotxt.shx
  4
extfont.shx
  0
STYLE
  5
FA7
330
3
100
AcDbSymbolTableRecord
100
AcDbTextStyleTableRecord
  2
ACANSTS
 70
     0
 40
1.0
 41
1.0
 50
0.0
 71
     0
 42
0.2
  3
romans.shx
  4
extfont.shx
  0
STYLE
  5
FA8
330
3
100
AcDbSymbolTableRecord
100
AcDbTextStyleTableRecord
  2
ACANSGDT
 70
     0
 40
0.0
 41
1.0
 50
0.0
 71
     0
 42
0.2
  3
amgdtans.shx
  4

  0
ENDTAB
  0
TABLE
  2
VIEW
  5
6
330
0
100
AcDbSymbolTable
 70
     6
  0
VIEW
  5
AE1
330
6
100
AcDbSymbolTableRecord
100
AcDbViewTableRecord
  2
AM_VIEW1
 70
     0
 40
58.59442169907879
 10
76.95407572724413
 20
-847.205359208352
 41
74.25
 11
0.0
 21
0.0
 31
1.0
 12
0.0
 22
0.0
 32
0.0
 42
50.0
 43
-1370.695619172058
 44
-1370.695619172058
 50
0.0
 71
    16
281
     0
 72
     0
  0
VIEW
  5
AE2
330
6
100
AcDbSymbolTableRecord
100
AcDbViewTableRecord
  2
AM_VIEW2
 70
     0
 40
58.59442169907879
 10
151.2040757272441
 20
-847.205359208352
 41
74.25
 11
0.0
 21
0.0
 31
1.0
 12
0.0
 22
0.0
 32
0.0
 42
50.0
 43
-1370.695619172058
 44
-1370.695619172058
 50
0.0
 71
    16
281
     0
 72
     0
  0
VIEW
  5
AE3
330
6
100
AcDbSymbolTableRecord
100
AcDbViewTableRecord
  2
AM_VIEW3
 70
     0
 40
58.59442169907879
 10
76.95407572724413
 20
-893.6109375092733
 41
74.25
 11
0.0
 21
0.0
 31
1.0
 12
0.0
 22
0.0
 32
0.0
 42
50.0
 43
-1370.695619172058
 44
-1370.695619172058
 50
0.0
 71
    16
281
     0
 72
     0
  0
VIEW
  5
AE4
330
6
100
AcDbSymbolTableRecord
100
AcDbViewTableRecord
  2
AM_VIEW4
 70
     0
 40
58.59442169907879
 10
151.2040757272441
 20
-893.6109375092733
 41
74.25
 11
0.0
 21
0.0
 31
1.0
 12
0.0
 22
0.0
 32
0.0
 42
50.0
 43
-1370.695619172058
 44
-1370.695619172058
 50
0.0
 71
    16
281
     0
 72
     0
  0
VIEW
  5
AE5
330
6
100
AcDbSymbolTableRecord
100
AcDbViewTableRecord
  2
AM_VIEW5
 70
     0
 40
58.59442169907879
 10
114.0790757272441
 20
-870.4081483588126
 41
74.24999999999998
 11
0.0
 21
0.0
 31
1.0
 12
0.0
 22
0.0
 32
0.0
 42
50.0
 43
-1370.695619172058
 44
-1370.695619172058
 50
0.0
 71
    16
281
     0
 72
     0
  0
VIEW
  5
AE6
330
6
100
AcDbSymbolTableRecord
100
AcDbViewTableRecord
  2
AM_VIEW6
 70
     0
 40
117.1876715097237
 10
114.0790757272441
 20
-870.4081483588126
 41
148.498515
 11
0.0
 21
0.0
 31
1.0
 12
0.0
 22
0.0
 32
0.0
 42
50.0
 43
-1370.695619172058
 44
-1370.695619172058
 50
0.0
 71
    16
281
     0
 72
     0
  0
ENDTAB
  0
TABLE
  2
UCS
  5
7
330
0
100
AcDbSymbolTable
 70
     0
  0
ENDTAB
  0
TABLE
  2
APPID
  5
9
330
0
100
AcDbSymbolTable
 70
    59
  0
APPID
  5
12
330
9
100
AcDbSymbolTableRecord
100
AcDbRegAppTableRecord
  2
ACAD
 70
     0
  0
APPID
  5
30
330
9
100
AcDbSymbolTableRecord
100
AcDbRegAppTableRecord
  2
MCAD_NO_VIS
 70
     0
  0
APPID
  5
31
330
9
100
AcDbSymbolTableRecord
100
AcDbRegAppTableRecord
  2
ACAD_TEMP_GRAPHIC
 70
     0
  0
APPID
  5
44
330
9
100
AcDbSymbolTableRecord
100
AcDbRegAppTableRecord
  2
ACATTRIBSERVICES
 70
     0
  0
APPID
  5
7A1
330
9
100
AcDbSymbolTableRecord
100
AcDbRegAppTableRecord
  2
GENIUS_GENDIMSH_14
 70
     0
  0
APPID
  5
A49
330
9
100
AcDbSymbolTableRecord
100
AcDbRegAppTableRecord
  2
GENIUS_GENREC_14
 70
     0
  0
APPID
  5
A4A
330
9
100
AcDbSymbolTableRecord
100
AcDbRegAppTableRecord
  2
GENIUS_GENOBJ-N-REC_13
 70
     0
  0
APPID
  5
A4B
330
9
100
AcDbSymbolTableRecord
100
AcDbRegAppTableRecord
  2
GENIUS_GENODEF_13
 70
     0
  0
APPID
  5
A4C
330
9
100
AcDbSymbolTableRecord
100
AcDbRegAppTableRecord
  2
DCO15
 70
     0
  0
APPID
  5
ADC
330
9
100
AcDbSymbolTableRecord
100
AcDbRegAppTableRecord
  2
GENIUS_GENOLIS_13
 70
     0
  0
APPID
  5
ADD
330
9
100
AcDbSymbolTableRecord
100
AcDbRegAppTableRecord
  2
GENIUS_GENOENT_13
 70
     0
  0
APPID
  5
ADE
330
9
100
AcDbSymbolTableRecord
100
AcDbRegAppTableRecord
  2
GENIUS_GENOBJ-N-TIT_13
 70
     0
  0
APPID
  5
ADF
330
9
100
AcDbSymbolTableRecord
100
AcDbRegAppTableRecord
  2
GENIUS_GENTITLE_13
 70
     0
  0
APPID
  5
AE0
330
9
100
AcDbSymbolTableRecord
100
AcDbRegAppTableRecord
  2
GENIUS_GENOREF_13
 70
     0
  0
APPID
  5
AE7
330
9
100
AcDbSymbolTableRecord
100
AcDbRegAppTableRecord
  2
GENIUS_GENSCREG_15
 70
     0
  0
APPID
  5
AE8
330
9
100
AcDbSymbolTableRecord
100
AcDbRegAppTableRecord
  2
GENIUS_GENOBJ-N-SDF_13
 70
     0
  0
APPID
  5
FAF
330
9
100
AcDbSymbolTableRecord
100
AcDbRegAppTableRecord
  2
GENIUS_GENBLLY_14
 70
     0
  0
APPID
  5
FB0
330
9
100
AcDbSymbolTableRecord
100
AcDbRegAppTableRecord
  2
GENIUS_GENTRA_14
 70
     0
  0
APPID
  5
1285
330
9
100
AcDbSymbolTableRecord
100
AcDbRegAppTableRecord
  2
GENIUS_GENDTOL_13
 70
     0
  0
APPID
  5
142D
330
9
100
AcDbSymbolTableRecord
100
AcDbRegAppTableRecord
  2
GENIUS_GENOBJ-N-CEN_13
 70
     0
  0
APPID
  5
1AB5
330
9
100
AcDbSymbolTableRecord
100
AcDbRegAppTableRecord
  2
GENIUS_GENOBJ-N-CRS_13
 70
     0
  0
APPID
  5
1B36
330
9
100
AcDbSymbolTableRecord
100
AcDbRegAppTableRecord
  2
GENIUS_GENOBJ-N-HTC_13
 70
     0
  0
APPID
  5
1B37
330
9
100
AcDbSymbolTableRecord
100
AcDbRegAppTableRecord
  2
GENIUS_GENHATCH_13
 70
     0
  0
APPID
  5
216D
330
9
100
AcDbSymbolTableRecord
100
AcDbRegAppTableRecord
  2
GENIUS_GENOBJ-N-FIL_13
 70
     0
  0
APPID
  5
2356
330
9
100
AcDbSymbolTableRecord
100
AcDbRegAppTableRecord
  2
GEVID990412420
 70
     0
  0
APPID
  5
2357
330
9
100
AcDbSymbolTableRecord
100
AcDbRegAppTableRecord
  2
GEVDC
 70
     0
  0
APPID
  5
2358
330
9
100
AcDbSymbolTableRecord
100
AcDbRegAppTableRecord
  2
GEVCON
 70
     0
  0
APPID
  5
235B
330
9
100
AcDbSymbolTableRecord
100
AcDbRegAppTableRecord
  2
GEVRADREF
 70
     0
  0
APPID
  5
2360
330
9
100
AcDbSymbolTableRecord
100
AcDbRegAppTableRecord
  2
GENIUS_GENBH_13
 70
     0
  0
APPID
  5
2362
330
9
100
AcDbSymbolTableRecord
100
AcDbRegAppTableRecord
  2
GENIUS_GENOBJ-NBEHI-BHF_13
 70
     0
  0
APPID
  5
2364
330
9
100
AcDbSymbolTableRecord
100
AcDbRegAppTableRecord
  2
GENIUS_GENOBJ-NBEHI-BHB_13
 70
     0
  0
APPID
  5
2379
330
9
100
AcDbSymbolTableRecord
100
AcDbRegAppTableRecord
  2
GENIUS_GENOBJ-F-SCPASSM_13
 70
     0
  0
APPID
  5
3D74
330
9
100
AcDbSymbolTableRecord
100
AcDbRegAppTableRecord
  2
GENIUS_GENDIM_13
 70
     0
  0
APPID
  5
3D76
330
9
100
AcDbSymbolTableRecord
100
AcDbRegAppTableRecord
  2
GENIUS_GE3DTOL_13
 70
     0
  0
APPID
  5
3D9C
330
9
100
AcDbSymbolTableRecord
100
AcDbRegAppTableRecord
  2
AD_DRAW
 70
     0
  0
APPID
  5
3DE8
330
9
100
AcDbSymbolTableRecord
100
AcDbRegAppTableRecord
  2
ASURF_PCURVE_APPNAME
 70
     0
  0
APPID
  5
3DED
330
9
100
AcDbSymbolTableRecord
100
AcDbRegAppTableRecord
  2
AMG_3D2D_5.0
 70
     0
  0
APPID
  5
3E1B
330
9
100
AcDbSymbolTableRecord
100
AcDbRegAppTableRecord
  2
DESIGNERASSEMBLIES
 70
     0
  0
APPID
  5
3E20
330
9
100
AcDbSymbolTableRecord
100
AcDbRegAppTableRecord
  2
ACADM_DIM_EDIT
 70
     0
  0
APPID
  5
3E21
330
9
100
AcDbSymbolTableRecord
100
AcDbRegAppTableRecord
  2
AMDT_DM_ADJ
 70
     0
  0
APPID
  5
4143
330
9
100
AcDbSymbolTableRecord
100
AcDbRegAppTableRecord
  2
GENIUS_GENFIL_13
 70
     0
  0
APPID
  5
4144
330
9
100
AcDbSymbolTableRecord
100
AcDbRegAppTableRecord
  2
GENIUS_GENOBJ-N-CHA_13
 70
     0
  0
APPID
  5
4E17
330
9
100
AcDbSymbolTableRecord
100
AcDbRegAppTableRecord
  2
GEVID1008153417
 70
     0
  0
APPID
  5
4E58
330
9
100
AcDbSymbolTableRecord
100
AcDbRegAppTableRecord
  2
GEVID1008153418
 70
     0
  0
APPID
  5
4E5E
330
9
100
AcDbSymbolTableRecord
100
AcDbRegAppTableRecord
  2
GEVID1008153419
 70
     0
  0
APPID
  5
4E64
330
9
100
AcDbSymbolTableRecord
100
AcDbRegAppTableRecord
  2
GEVID1008153420
 70
     0
  0
APPID
  5
4E75
330
9
100
AcDbSymbolTableRecord
100
AcDbRegAppTableRecord
  2
GEVID1008153421
 70
     0
  0
APPID
  5
4EB7
330
9
100
AcDbSymbolTableRecord
100
AcDbRegAppTableRecord
  2
GENIUS_AMGTXT_16
 70
     0
  0
APPID
  5
7645
330
9
100
AcDbSymbolTableRecord
100
AcDbRegAppTableRecord
  2
GENIUS_GENOBJ-N-DIM_13
 70
     0
  0
APPID
  5
EA01
330
9
100
AcDbSymbolTableRecord
100
AcDbRegAppTableRecord
  2
ACAD_DSTYLE_DIMARC_LENGTH_SYMBOL
 70
     0
  0
APPID
  5
EA02
330
9
100
AcDbSymbolTableRecord
100
AcDbRegAppTableRecord
  2
ACAD_DSTYLE_DIMJOGGED_JOGANGLE_SYMBOL
 70
     0
  0
APPID
  5
EA03
330
9
100
AcDbSymbolTableRecord
100
AcDbRegAppTableRecord
  2
ACAD_PSEXT
 70
     0
  0
APPID
  5
EA04
330
9
100
AcDbSymbolTableRecord
100
AcDbRegAppTableRecord
  2
GENIUS_GENCEN_19
 70
     0
  0
APPID
  5
F4EB
330
9
100
AcDbSymbolTableRecord
100
AcDbRegAppTableRecord
  2
GENIUS_GENOBJ-N-ZOO_13
 70
     0
  0
APPID
  5
F4EC
330
9
100
AcDbSymbolTableRecord
100
AcDbRegAppTableRecord
  2
GENIUS_GENZOO_17
 70
     0
  0
APPID
  5
10C8E
330
9
100
AcDbSymbolTableRecord
100
AcDbRegAppTableRecord
  2
ACAD_EXEMPT_FROM_CAD_STANDARDS
 70
     0
  0
APPID
  5
1115E
330
9
100
AcDbSymbolTableRecord
100
AcDbRegAppTableRecord
  2
AcAecLayerStandard
 70
     0
  0
APPID
  5
155F1
330
9
100
AcDbSymbolTableRecord
100
AcDbRegAppTableRecord
  2
GEVID1183116424
 70
     0
  0
APPID
  5
1562A
330
9
100
AcDbSymbolTableRecord
100
AcDbRegAppTableRecord
  2
GEVID1183116425
 70
     0
  0
ENDTAB
  0
TABLE
  2
DIMSTYLE
  5
A
330
0
100
AcDbSymbolTable
 70
    25
100
AcDbDimStyleTable
 71
     3
340
2515
340
6C
340
FA9
  0
DIMSTYLE
105
6C
330
A
100
AcDbSymbolTableRecord
100
AcDbDimStyleTableRecord
  2
AM_ISO
 70
     0
  4
"
 41
2.5
 42
1.0
 43
10.0
 44
1.0
 47
0.1
 48
0.1
 73
     0
 74
     0
 77
     1
 78
     8
 79
     2
140
3.5
141
0.0
143
0.0393701
146
0.71
147
1.5
172
     1
176
   256
177
   256
178
     2
271
     2
272
     3
274
     4
283
     0
284
     8
340
11
371
    -1
372
    -1
1001
ACAD_DSTYLE_DIMJOGGED_JOGANGLE_SYMBOL
1070
   384
1040
0.7853981633974483
1001
ACAD_DSTYLE_DIMARC_LENGTH_SYMBOL
1070
   379
1070
     1
  0
DIMSTYLE
105
6D
330
A
100
AcDbSymbolTableRecord
100
AcDbDimStyleTableRecord
  2
AM_ISO$3
 70
     0
  4
"
 41
0.8
 42
1.0
 43
10.0
 44
1.0
 47
0.1
 48
0.1
 73
     0
 77
     1
 78
     8
 79
     2
140
3.2
141
0.0
143
0.0393701
146
0.71
147
0.9999999999999996
176
   256
177
   256
178
     2
271
     2
272
     2
283
     0
284
     8
288
     1
289
     0
340
11
342
6C4
371
    -1
372
    -1
1001
ACAD_DSTYLE_DIMJOGGED_JOGANGLE_SYMBOL
1070
   384
1040
0.7853981633974483
1001
ACAD_DSTYLE_DIMARC_LENGTH_SYMBOL
1070
   379
1070
     1
  0
DIMSTYLE
105
6E
330
A
100
AcDbSymbolTableRecord
100
AcDbDimStyleTableRecord
  2
AM_ISO$4
 70
     0
  4
"
 41
0.8
 42
1.0
 43
10.0
 44
1.0
 47
0.1
 48
0.1
 73
     0
 77
     1
 78
     8
 79
     2
140
3.2
141
0.0
143
0.0393701
146
0.71
147
1.0
173
     1
176
   256
177
   256
178
     2
271
     2
272
     2
283
     0
284
     8
288
     1
289
     0
340
11
344
6C4
371
    -1
372
    -1
1001
ACAD_DSTYLE_DIMJOGGED_JOGANGLE_SYMBOL
1070
   384
1040
0.7853981633974483
1001
ACAD_DSTYLE_DIMARC_LENGTH_SYMBOL
1070
   379
1070
     1
  0
DIMSTYLE
105
6F
330
A
100
AcDbSymbolTableRecord
100
AcDbDimStyleTableRecord
  2
AM_ISO$6
 70
     0
  4
"
 41
0.8
 42
1.0
 43
10.0
 44
1.0
 47
0.1
 48
0.1
 73
     0
 74
     0
 78
     8
 79
     2
140
3.2
141
0.0
143
0.0393701
146
0.71
147
1.0
172
     1
176
   256
177
   256
178
     2
271
     2
272
     2
283
     0
284
     8
340
11
341
6C4
371
    -1
372
    -1
1001
ACAD_DSTYLE_DIMJOGGED_JOGANGLE_SYMBOL
1070
   384
1040
0.7853981633974483
1001
ACAD_DSTYLE_DIMARC_LENGTH_SYMBOL
1070
   379
1070
     1
  0
DIMSTYLE
105
70
330
A
100
AcDbSymbolTableRecord
100
AcDbDimStyleTableRecord
  2
AM_ISO$7
 70
     0
  4
"
 41
0.8
 42
1.0
 43
10.0
 44
1.0
 47
0.1
 48
0.1
 73
     0
 74
     0
 77
     1
 78
     8
 79
     2
140
3.2
141
0.0
143
0.0393701
146
0.71
147
1.0
172
     1
176
   256
177
   256
178
     2
271
     2
272
     2
283
     0
284
     8
340
11
341
6C4
342
6C4
371
    -1
372
    -1
1001
ACAD_DSTYLE_DIMJOGGED_JOGANGLE_SYMBOL
1070
   384
1040
0.7853981633974483
1001
ACAD_DSTYLE_DIMARC_LENGTH_SYMBOL
1070
   379
1070
     1
  0
DIMSTYLE
105
71
330
A
100
AcDbSymbolTableRecord
100
AcDbDimStyleTableRecord
  2
AM_ISO$SF
 70
     0
  4
"
 41
0.8
 42
1.0
 43
10.0
 44
1.0
 47
0.1
 48
0.1
 73
     0
 74
     0
 75
     1
 76
     1
 77
     1
 78
     8
 79
     2
140
3.2
141
0.0
143
0.0393701
146
0.71
147
1.0
172
     1
176
   256
177
   256
178
     2
271
     2
272
     2
283
     0
284
     8
340
11
341
6C4
342
6C4
371
    -1
372
    -1
1001
ACAD_DSTYLE_DIMJOGGED_JOGANGLE_SYMBOL
1070
   384
1040
0.7853981633974483
1001
ACAD_DSTYLE_DIMARC_LENGTH_SYMBOL
1070
   379
1070
     1
  0
DIMSTYLE
105
76
330
A
100
AcDbSymbolTableRecord
100
AcDbDimStyleTableRecord
  2
AM_ISO$SH
 70
     0
  4
"
 41
0.8
 42
1.0
 43
10.0
 44
1.0
 47
0.1
 48
0.1
 73
     0
 74
     0
 75
     1
 76
     1
 77
     1
 78
     8
 79
     2
140
3.2
141
0.0
143
0.0393701
144
2.0
146
0.71
147
1.0
172
     1
176
   256
177
   256
178
     2
271
     2
272
     2
283
     0
284
     8
340
11
341
6C4
342
6C4
371
    -1
372
    -1
1001
ACAD_DSTYLE_DIMJOGGED_JOGANGLE_SYMBOL
1070
   384
1040
0.7853981633974483
1001
ACAD_DSTYLE_DIMARC_LENGTH_SYMBOL
1070
   379
1070
     1
  0
DIMSTYLE
105
6BE
330
A
100
AcDbSymbolTableRecord
100
AcDbDimStyleTableRecord
  2
AM_ISO$0
 70
     0
  4
"
 41
0.8
 42
1.0
 43
10.0
 44
1.0
 47
0.1
 48
0.1
 73
     0
 74
     0
 77
     1
 78
     8
 79
     2
140
3.2
141
0.0
143
0.0393701
146
0.71
147
0.9999999999999996
172
     1
176
   256
177
   256
178
     2
271
     2
272
     2
283
     0
284
     8
340
11
341
6C4
342
6C4
371
    -1
372
    -1
1001
ACAD_DSTYLE_DIMJOGGED_JOGANGLE_SYMBOL
1070
   384
1040
0.7853981633974483
1001
ACAD_DSTYLE_DIMARC_LENGTH_SYMBOL
1070
   379
1070
     1
  0
DIMSTYLE
105
6BF
330
A
100
AcDbSymbolTableRecord
100
AcDbDimStyleTableRecord
  2
AM_ISO$2
 70
     0
  4
"
 41
0.8
 42
1.0
 43
10.0
 44
1.0
 47
0.1
 48
0.1
 73
     0
 74
     0
 77
     3
 78
     8
 79
     2
140
3.200000000000001
141
0.0
143
0.0393701
146
0.71
147
0.9999999999999996
172
     1
176
   256
177
   256
178
     2
271
     2
272
     2
283
     0
284
     8
340
11
342
6C4
371
    -1
372
    -1
1001
ACAD_DSTYLE_DIMJOGGED_JOGANGLE_SYMBOL
1070
   384
1040
0.7853981633974483
1001
ACAD_DSTYLE_DIMARC_LENGTH_SYMBOL
1070
   379
1070
     1
  0
DIMSTYLE
105
A76
330
A
100
AcDbSymbolTableRecord
100
AcDbDimStyleTableRecord
  2
STANDARD
 70
     0
 41
3.0
 42
1.0
 43
7.0
 44
2.0
 73
     0
 74
     0
 77
     1
140
2.799999999999999
141
0.0
143
0.0394
147
0.7
171
     4
172
     1
173
     1
176
     3
177
     3
178
     2
271
     3
272
     3
273
     8
274
     4
289
     0
340
A74
341
A66
343
A66
344
A66
  0
DIMSTYLE
105
FA9
330
A
100
AcDbSymbolTableRecord
100
AcDbDimStyleTableRecord
  2
AM_ANSI
 70
     0
  4
mm
 41
0.1
 42
0.05
 43
0.5
 44
0.1
 47
0.1
 48
0.1
 78
     7
 79
     2
140
0.12
141
0.0
146
0.71
147
0.06
176
   256
177
   256
178
     2
274
     4
284
     7
340
11
371
    -1
372
    -1
1001
ACAD_DSTYLE_DIMJOGGED_JOGANGLE_SYMBOL
1070
   384
1040
0.7853981633974483
1001
ACAD_DSTYLE_DIMARC_LENGTH_SYMBOL
1070
   379
1070
     1
  0
DIMSTYLE
105
FAA
330
A
100
AcDbSymbolTableRecord
100
AcDbDimStyleTableRecord
  2
AM_ANSI$3
 70
     0
  4
mm
 41
0.1
 42
0.05
 43
0.5
 44
0.1
 47
0.1
 48
0.1
 78
     7
 79
     2
140
0.12
141
0.0
146
0.71
147
0.06
176
   256
177
   256
178
     2
274
     4
284
     7
288
     1
289
     0
340
11
371
    -1
372
    -1
1001
ACAD_DSTYLE_DIMJOGGED_JOGANGLE_SYMBOL
1070
   384
1040
0.7853981633974483
1001
ACAD_DSTYLE_DIMARC_LENGTH_SYMBOL
1070
   379
1070
     1
  0
DIMSTYLE
105
FAB
330
A
100
AcDbSymbolTableRecord
100
AcDbDimStyleTableRecord
  2
AM_ANSI$4
 70
     0
  4
mm
 41
0.1
 42
0.05
 43
0.5
 44
0.1
 47
0.1
 48
0.1
 78
     7
 79
     2
140
0.12
141
0.0
146
0.71
147
0.06
176
   256
177
   256
178
     2
274
     4
284
     7
288
     1
289
     0
340
11
371
    -1
372
    -1
1001
ACAD_DSTYLE_DIMJOGGED_JOGANGLE_SYMBOL
1070
   384
1040
0.7853981633974483
1001
ACAD_DSTYLE_DIMARC_LENGTH_SYMBOL
1070
   379
1070
     1
  0
DIMSTYLE
105
FAC
330
A
100
AcDbSymbolTableRecord
100
AcDbDimStyleTableRecord
  2
AM_ANSI$7
 70
     0
  4
mm
 41
0.1
 42
0.05
 43
0.5
 44
0.1
 47
0.1
 48
0.1
 78
     7
 79
     2
140
0.24
141
0.0
146
0.71
147
0.06
176
   256
177
   256
178
     2
274
     4
284
     7
340
11
371
    -1
372
    -1
1001
ACAD_DSTYLE_DIMJOGGED_JOGANGLE_SYMBOL
1070
   384
1040
0.7853981633974483
1001
ACAD_DSTYLE_DIMARC_LENGTH_SYMBOL
1070
   379
1070
     1
  0
DIMSTYLE
105
FAD
330
A
100
AcDbSymbolTableRecord
100
AcDbDimStyleTableRecord
  2
AM_ANSI$SF
 70
     0
  4
mm
 41
0.1
 42
0.05
 43
0.5
 44
0.1
 47
0.1
 48
0.1
 75
     1
 76
     1
 78
     7
 79
     2
140
0.12
141
0.0
146
0.71
147
0.06
176
   256
177
   256
178
     2
274
     4
284
     7
340
11
371
    -1
372
    -1
1001
ACAD_DSTYLE_DIMJOGGED_JOGANGLE_SYMBOL
1070
   384
1040
0.7853981633974483
1001
ACAD_DSTYLE_DIMARC_LENGTH_SYMBOL
1070
   379
1070
     1
  0
DIMSTYLE
105
FAE
330
A
100
AcDbSymbolTableRecord
100
AcDbDimStyleTableRecord
  2
AM_ANSI$SH
 70
     0
  4
mm
 41
0.1
 42
0.05
 43
0.5
 44
0.1
 47
0.1
 48
0.1
 75
     1
 76
     1
 78
     7
 79
     2
140
0.12
141
0.0
146
0.71
147
0.06
173
     1
176
   256
177
   256
178
     2
274
     4
284
     7
340
11
343
72
371
    -1
372
    -1
1001
ACAD_DSTYLE_DIMJOGGED_JOGANGLE_SYMBOL
1070
   384
1040
0.7853981633974483
1001
ACAD_DSTYLE_DIMARC_LENGTH_SYMBOL
1070
   379
1070
     1
  0
DIMSTYLE
105
2515
330
A
100
AcDbSymbolTableRecord
100
AcDbDimStyleTableRecord
  2
SYS
 70
     0
  4
"
 41
2.5
 42
1.0
 43
10.0
 44
1.0
 47
0.1
 48
0.1
 73
     0
 74
     0
 77
     1
 78
     8
 79
     2
140
3.5
141
0.0
143
0.0393701
146
0.71
147
1.5
172
     1
176
   256
177
   256
178
     7
271
     2
272
     3
274
     4
283
     0
284
     8
340
11
371
    -1
372
    -1
1001
ACAD_DSTYLE_DIMJOGGED_JOGANGLE_SYMBOL
1070
   384
1040
0.7853981633974483
1001
ACAD_DSTYLE_DIMARC_LENGTH_SYMBOL
1070
   379
1070
     1
  0
DIMSTYLE
105
2516
102
{ACAD_REACTORS
330
24F23
330
24F24
102
}
330
A
100
AcDbSymbolTableRecord
100
AcDbDimStyleTableRecord
  2
SYS$3
 70
     0
  4
"
 41
2.0
 42
1.0
 43
10.0
 44
1.0
 47
0.1
 48
0.1
 73
     0
 77
     1
 78
     8
 79
     2
140
3.200000000000001
141
0.0
143
0.0393701
146
0.71
147
1.5
176
   256
177
   256
178
     2
271
     1
272
     1
283
     0
284
     8
288
     1
340
11
342
A66
371
    -1
372
    -1
1001
ACAD_DSTYLE_DIMJOGGED_JOGANGLE_SYMBOL
1070
   384
1040
0.7853981633974483
1001
ACAD_DSTYLE_DIMARC_LENGTH_SYMBOL
1070
   379
1070
     1
  0
DIMSTYLE
105
2517
330
A
100
AcDbSymbolTableRecord
100
AcDbDimStyleTableRecord
  2
SYS$4
 70
     0
  4
"
 41
2.0
 42
1.0
 43
10.0
 44
1.0
 47
0.1
 48
0.1
 73
     0
 77
     1
 78
     8
 79
     2
140
3.2
141
0.0
143
0.0393701
146
0.71
147
1.5
173
     1
176
   256
177
   256
178
     2
271
     2
272
     2
283
     0
284
     8
288
     1
340
11
344
A66
371
    -1
372
    -1
1001
ACAD_DSTYLE_DIMJOGGED_JOGANGLE_SYMBOL
1070
   384
1040
0.7853981633974483
1001
ACAD_DSTYLE_DIMARC_LENGTH_SYMBOL
1070
   379
1070
     1
  0
DIMSTYLE
105
2518
330
A
100
AcDbSymbolTableRecord
100
AcDbDimStyleTableRecord
  2
SYS$6
 70
     0
  4
"
 41
2.0
 42
1.0
 43
10.0
 44
1.0
 47
0.1
 48
0.1
 73
     0
 74
     0
 78
     8
 79
     2
140
3.2
141
0.0
143
0.0393701
146
0.71
147
1.5
172
     1
176
   256
177
   256
178
     2
271
     2
272
     2
283
     0
284
     8
340
11
341
A66
371
    -1
372
    -1
1001
ACAD_DSTYLE_DIMJOGGED_JOGANGLE_SYMBOL
1070
   384
1040
0.7853981633974483
1001
ACAD_DSTYLE_DIMARC_LENGTH_SYMBOL
1070
   379
1070
     1
  0
DIMSTYLE
105
2519
330
A
100
AcDbSymbolTableRecord
100
AcDbDimStyleTableRecord
  2
SYS$7
 70
     0
  4
"
 41
2.0
 42
1.5
 43
10.0
 44
1.0
 47
0.1
 48
0.1
 73
     0
 74
     0
 77
     1
 78
     8
 79
     2
140
3.2
141
0.0
143
0.0393701
146
0.71
147
1.5
172
     1
176
   256
177
   256
178
     2
271
     2
272
     2
283
     0
284
     8
340
11
341
A66
342
A66
371
    -1
372
    -1
1001
ACAD_DSTYLE_DIMJOGGED_JOGANGLE_SYMBOL
1070
   384
1040
0.7853981633974483
1001
ACAD_DSTYLE_DIMARC_LENGTH_SYMBOL
1070
   379
1070
     1
  0
DIMSTYLE
105
251A
330
A
100
AcDbSymbolTableRecord
100
AcDbDimStyleTableRecord
  2
SYS$SF
 70
     0
  4
"
 41
1.0
 42
1.0
 43
10.0
 44
1.0
 47
0.1
 48
0.1
 73
     0
 74
     0
 75
     1
 76
     1
 77
     1
 78
     8
 79
     2
140
3.2
141
0.0
143
0.0393701
146
0.71
147
1.5
172
     1
176
   256
177
   256
178
     2
271
     2
272
     2
283
     0
284
     8
340
11
341
6C4
342
6C4
371
    -1
372
    -1
1001
ACAD_DSTYLE_DIMJOGGED_JOGANGLE_SYMBOL
1070
   384
1040
0.7853981633974483
1001
ACAD_DSTYLE_DIMARC_LENGTH_SYMBOL
1070
   379
1070
     1
  0
DIMSTYLE
105
251B
330
A
100
AcDbSymbolTableRecord
100
AcDbDimStyleTableRecord
  2
SYS$SH
 70
     0
  4
"
 41
1.0
 42
1.0
 43
10.0
 44
1.0
 47
0.1
 48
0.1
 73
     0
 74
     0
 75
     1
 76
     1
 77
     1
 78
     8
 79
     2
140
3.2
141
0.0
143
0.0393701
144
2.0
146
0.71
147
1.5
172
     1
173
     1
176
   256
177
   256
178
     2
271
     2
272
     2
283
     0
284
     8
340
11
341
6C4
343
72
344
6C4
371
    -1
372
    -1
1001
ACAD_DSTYLE_DIMJOGGED_JOGANGLE_SYMBOL
1070
   384
1040
0.7853981633974483
1001
ACAD_DSTYLE_DIMARC_LENGTH_SYMBOL
1070
   379
1070
     1
  0
DIMSTYLE
105
2A59
330
A
100
AcDbSymbolTableRecord
100
AcDbDimStyleTableRecord
  2
SYS$2
 70
     0
  4
"
 41
1.0
 42
1.5
 43
10.0
 44
1.0
 47
0.1
 48
0.1
 73
     0
 74
     0
 77
     1
 78
     8
 79
     2
140
3.2
141
0.0
143
0.0393701
146
0.71
147
1.5
172
     1
176
   256
177
   256
178
     2
271
     2
272
     2
283
     0
284
     8
340
11
342
6C4
371
    -1
372
    -1
1001
ACAD_DSTYLE_DIMJOGGED_JOGANGLE_SYMBOL
1070
   384
1040
0.7853981633974483
1001
ACAD_DSTYLE_DIMARC_LENGTH_SYMBOL
1070
   379
1070
     1
  0
DIMSTYLE
105
2AAB
102
{ACAD_REACTORS
330
24F10
330
24F11
330
24F12
330
24F13
330
24F14
330
24F15
330
24F16
330
24F19
330
24F1A
330
24F1B
330
24F1C
330
24F1D
330
24F1E
330
24F1F
330
24F20
330
24F21
330
24F22
102
}
330
A
100
AcDbSymbolTableRecord
100
AcDbDimStyleTableRecord
  2
SYS$0
 70
     0
  4
"
 41
1.0
 42
1.5
 43
10.0
 44
1.0
 47
0.1
 48
0.1
 73
     0
 74
     0
 77
     1
 78
     8
 79
     2
140
3.2
141
0.0
143
0.0393701
146
0.71
147
1.5
172
     1
176
   256
177
   256
178
     2
271
     1
272
     1
283
     0
284
     8
340
11
341
A66
342
6C4
371
    -1
372
    -1
1001
ACAD_DSTYLE_DIMJOGGED_JOGANGLE_SYMBOL
1070
   384
1040
0.7853981633974483
1001
ACAD_DSTYLE_DIMARC_LENGTH_SYMBOL
1070
   379
1070
     1
  0
ENDTAB
  0
TABLE
  2
BLOCK_RECORD
  5
1
330
0
100
AcDbSymbolTable
 70
    25
  0
BLOCK_RECORD
  5
1F
102
{ACAD_XDICTIONARY
360
8A
102
}
330
1
100
AcDbSymbolTableRecord
100
AcDbBlockTableRecord
  2
*Model_Space
340
22
  0
BLOCK_RECORD
  5
1B
330
1
100
AcDbSymbolTableRecord
100
AcDbBlockTableRecord
  2
*Paper_Space
340
1E
  0
BLOCK_RECORD
  5
23
330
1
100
AcDbSymbolTableRecord
100
AcDbBlockTableRecord
  2
*Paper_Space0
340
26
  0
BLOCK_RECORD
  5
72
330
1
100
AcDbSymbolTableRecord
100
AcDbBlockTableRecord
  2
GENAXEH
340
0
  0
BLOCK_RECORD
  5
6C4
330
1
100
AcDbSymbolTableRecord
100
AcDbBlockTableRecord
  2
_Dot
340
0
102
{BLKREFS
331
2568E
331
2568F
331
25697
331
25698
331
256A0
331
256A1
331
256BB
331
256BC
331
256D6
331
256D7
331
256DF
331
256E0
331
256E8
331
256E9
331
256F1
331
256F2
331
256FB
331
256FC
331
25704
331
25705
331
2570D
331
2570E
331
25716
331
25717
331
2571F
331
25720
331
25775
331
25776
331
2577E
331
2577F
331
25787
331
25788
331
25790
331
25791
102
}
  0
BLOCK_RECORD
  5
A66
330
1
100
AcDbSymbolTableRecord
100
AcDbBlockTableRecord
  2
_OPEN30
340
0
  0
BLOCK_RECORD
  5
1D575
330
1
100
AcDbSymbolTableRecord
100
AcDbBlockTableRecord
  2
GENDOT
340
0
102
{BLKREFS
331
2572A
331
2572B
331
25733
331
25734
102
}
  0
BLOCK_RECORD
  5
250F5
330
1
100
AcDbSymbolTableRecord
100
AcDbBlockTableRecord
  2
*D6
340
0
  0
BLOCK_RECORD
  5
25101
330
1
100
AcDbSymbolTableRecord
100
AcDbBlockTableRecord
  2
*D7
340
0
  0
BLOCK_RECORD
  5
2510D
330
1
100
AcDbSymbolTableRecord
100
AcDbBlockTableRecord
  2
*D8
340
0
  0
BLOCK_RECORD
  5
25119
330
1
100
AcDbSymbolTableRecord
100
AcDbBlockTableRecord
  2
*D9
340
0
  0
BLOCK_RECORD
  5
25125
330
1
100
AcDbSymbolTableRecord
100
AcDbBlockTableRecord
  2
*D10
340
0
  0
BLOCK_RECORD
  5
25131
330
1
100
AcDbSymbolTableRecord
100
AcDbBlockTableRecord
  2
*D11
340
0
  0
BLOCK_RECORD
  5
2513D
330
1
100
AcDbSymbolTableRecord
100
AcDbBlockTableRecord
  2
*D12
340
0
  0
BLOCK_RECORD
  5
25149
330
1
100
AcDbSymbolTableRecord
100
AcDbBlockTableRecord
  2
*D13
340
0
  0
BLOCK_RECORD
  5
25155
330
1
100
AcDbSymbolTableRecord
100
AcDbBlockTableRecord
  2
*D14
340
0
  0
BLOCK_RECORD
  5
25161
330
1
100
AcDbSymbolTableRecord
100
AcDbBlockTableRecord
  2
*D15
340
0
  0
BLOCK_RECORD
  5
2516D
330
1
100
AcDbSymbolTableRecord
100
AcDbBlockTableRecord
  2
*D16
340
0
  0
BLOCK_RECORD
  5
25179
330
1
100
AcDbSymbolTableRecord
100
AcDbBlockTableRecord
  2
*D17
340
0
  0
BLOCK_RECORD
  5
25185
330
1
100
AcDbSymbolTableRecord
100
AcDbBlockTableRecord
  2
*D18
340
0
  0
BLOCK_RECORD
  5
25192
330
1
100
AcDbSymbolTableRecord
100
AcDbBlockTableRecord
  2
*D19
340
0
  0
BLOCK_RECORD
  5
2519E
330
1
100
AcDbSymbolTableRecord
100
AcDbBlockTableRecord
  2
*D20
340
0
  0
BLOCK_RECORD
  5
251AA
330
1
100
AcDbSymbolTableRecord
100
AcDbBlockTableRecord
  2
*D21
340
0
  0
BLOCK_RECORD
  5
251B6
330
1
100
AcDbSymbolTableRecord
100
AcDbBlockTableRecord
  2
*D22
340
0
  0
BLOCK_RECORD
  5
251C2
330
1
100
AcDbSymbolTableRecord
100
AcDbBlockTableRecord
  2
*D23
340
0
  0
BLOCK_RECORD
  5
251CE
330
1
100
AcDbSymbolTableRecord
100
AcDbBlockTableRecord
  2
*D24
340
0
  0
ENDTAB
  0
ENDSEC
  0
SECTION
  2
BLOCKS
  0
BLOCK
  5
20
330
1F
100
AcDbEntity
  8
0
100
AcDbBlockBegin
  2
*Model_Space
 70
     0
 10
0.0
 20
0.0
 30
0.0
  3
*Model_Space
  1

  0
ENDBLK
  5
21
330
1F
100
AcDbEntity
  8
0
100
AcDbBlockEnd
  0
BLOCK
  5
1C
330
1B
100
AcDbEntity
 67
     1
  8
0
100
AcDbBlockBegin
  2
*Paper_Space
 70
     0
 10
0.0
 20
0.0
 30
0.0
  3
*Paper_Space
  1

  0
ENDBLK
  5
1D
330
1B
100
AcDbEntity
 67
     1
  8
0
100
AcDbBlockEnd
  0
BLOCK
  5
24
330
23
100
AcDbEntity
 67
     1
  8
0
100
AcDbBlockBegin
  2
*Paper_Space0
 70
     0
 10
0.0
 20
0.0
 30
0.0
  3
*Paper_Space0
  1

  0
ENDBLK
  5
25
330
23
100
AcDbEntity
 67
     1
  8
0
100
AcDbBlockEnd
  0
BLOCK
  5
74
330
72
100
AcDbEntity
  8
0
100
AcDbBlockBegin
  2
GENAXEH
 70
     0
 10
0.0
 20
0.0
 30
0.0
  3
GENAXEH
  1

  0
LINE
  5
73
330
72
100
AcDbEntity
  8
0
100
AcDbLine
 10
-1.0
 20
0.0
 30
0.0
 11
1.0
 21
0.0
 31
0.0
  0
ENDBLK
  5
75
330
72
100
AcDbEntity
  8
0
100
AcDbBlockEnd
  0
BLOCK
  5
6C7
330
6C4
100
AcDbEntity
  8
0
100
AcDbBlockBegin
  2
_Dot
 70
     0
 10
0.0
 20
0.0
 30
0.0
  3
_Dot
  1

  0
LWPOLYLINE
  5
6C5
330
6C4
100
AcDbEntity
  8
0
  6
ByBlock
 62
     0
100
AcDbPolyline
 90
        2
 70
     1
 43
0.5
 10
-0.25
 20
0.0
 42
1.0
 10
0.25
 20
0.0
 42
1.0
  0
LINE
  5
6C6
330
6C4
100
AcDbEntity
  8
0
  6
ByBlock
 62
     0
370
    -2
100
AcDbLine
 10
-0.5
 20
0.0
 30
0.0
 11
-1.0
 21
0.0
 31
0.0
  0
ENDBLK
  5
6C8
330
6C4
100
AcDbEntity
  8
0
100
AcDbBlockEnd
  0
BLOCK
  5
A6A
330
A66
100
AcDbEntity
  8
0
100
AcDbBlockBegin
  2
_OPEN30
 70
     0
 10
0.0
 20
0.0
 30
0.0
  3
_OPEN30
  1

  0
LINE
  5
A67
330
A66
100
AcDbEntity
  8
0
  6
ByBlock
 62
     0
100
AcDbLine
 10
-1.0
 20
0.26794919
 30
0.0
 11
0.0
 21
0.0
 31
0.0
  0
LINE
  5
A68
330
A66
100
AcDbEntity
  8
0
  6
ByBlock
 62
     0
100
AcDbLine
 10
0.0
 20
0.0
 30
0.0
 11
-1.0
 21
-0.26794919
 31
0.0
  0
LINE
  5
A69
330
A66
100
AcDbEntity
  8
0
  6
ByBlock
 62
     0
100
AcDbLine
 10
0.0
 20
0.0
 30
0.0
 11
-1.0
 21
0.0
 31
0.0
  0
ENDBLK
  5
A6B
330
A66
100
AcDbEntity
  8
0
100
AcDbBlockEnd
  0
BLOCK
  5
1D576
330
1D575
100
AcDbEntity
  8
0
100
AcDbBlockBegin
  2
GENDOT
 70
     0
 10
0.0
 20
0.0
 30
0.0
  3
GENDOT
  1

  0
LINE
  5
1D577
330
1D575
100
AcDbEntity
  8
0
100
AcDbLine
 10
0.0
 20
0.0
 30
0.0
 11
-1.0
 21
0.0
 31
0.0
  0
LWPOLYLINE
  5
1D578
330
1D575
100
AcDbEntity
  8
0
100
AcDbPolyline
 90
        2
 70
     1
 43
0.25
 10
-0.125
 20
0.0
 42
1.0
 10
0.125
 20
0.0
 42
1.0
  0
ENDBLK
  5
1D579
330
1D575
100
AcDbEntity
  8
0
100
AcDbBlockEnd
  0
BLOCK
  5
250FF
330
250F5
100
AcDbEntity
  8
0
100
AcDbBlockBegin
  2
*D6
 70
     1
 10
0.0
 20
0.0
 30
0.0
  3
*D6
  1

  0
LINE
  5
2568B
330
250F5
100
AcDbEntity
  8
AM_5
100
AcDbLine
 10
263.7354649808099
 20
1843.49796422197
 30
0.0
 11
263.7354649808099
 21
1885.36541122197
 31
0.0
  0
LINE
  5
2568C
330
250F5
100
AcDbEntity
  8
AM_5
100
AcDbLine
 10
353.7895129808098
 20
1843.36541122197
 30
0.0
 11
353.7895129808098
 21
1885.36541122197
 31
0.0
  0
LINE
  5
2568D
330
250F5
100
AcDbEntity
  8
AM_5
100
AcDbLine
 10
264.7354649808099
 20
1884.36541122197
 30
0.0
 11
352.7895129808098
 21
1884.36541122197
 31
0.0
  0
INSERT
  5
2568E
330
250F5
100
AcDbEntity
  8
AM_5
100
AcDbBlockReference
  2
_Dot
 10
263.7354649808099
 20
1884.36541122197
 30
0.0
 41
1.0
 42
1.0
 43
1.0
 50
180.0
  0
INSERT
  5
2568F
330
250F5
100
AcDbEntity
  8
AM_5
100
AcDbBlockReference
  2
_Dot
 10
353.7895129808098
 20
1884.36541122197
 30
0.0
 41
1.0
 42
1.0
 43
1.0
  0
MTEXT
  5
25690
330
250F5
100
AcDbEntity
  8
AM_5
 62
     2
100
AcDbMText
 10
308.7624889808099
 20
1887.46541122197
 30
0.0
 40
3.2
 41
0.0
 71
     5
 72
     1
  1
（A）
 73
     1
 44
1.0
1001
ACAD
1000
MTEXTBEGIN
1070
    73
1070
     1
1070
    44
1040
1.0
1070
    74
1070
     0
1000
MTEXTEND
  0
POINT
  5
25691
330
250F5
100
AcDbEntity
  8
Defpoints
 62
     0
100
AcDbPoint
 10
263.7354649808099
 20
1841.99796422197
 30
0.0
  0
POINT
  5
25692
330
250F5
100
AcDbEntity
  8
Defpoints
 62
     0
100
AcDbPoint
 10
353.7895129808098
 20
1841.86541122197
 30
0.0
  0
POINT
  5
25693
330
250F5
100
AcDbEntity
  8
Defpoints
 62
     0
100
AcDbPoint
 10
353.7895129808098
 20
1884.36541122197
 30
0.0
  0
ENDBLK
  5
25100
330
250F5
100
AcDbEntity
  8
0
100
AcDbBlockEnd
  0
BLOCK
  5
2510B
330
25101
100
AcDbEntity
  8
0
100
AcDbBlockBegin
  2
*D7
 70
     1
 10
0.0
 20
0.0
 30
0.0
  3
*D7
  1

  0
LINE
  5
25694
330
25101
100
AcDbEntity
  8
AM_5
100
AcDbLine
 10
285.7895129808099
 20
1864.98703522197
 30
0.0
 11
285.7895129808099
 21
1877.36541122197
 31
0.0
  0
LINE
  5
25695
330
25101
100
AcDbEntity
  8
AM_5
100
AcDbLine
 10
353.78892475978
 20
1843.265605563092
 30
0.0
 11
353.78892475978
 21
1877.36541122197
 31
0.0
  0
LINE
  5
25696
330
25101
100
AcDbEntity
  8
AM_5
100
AcDbLine
 10
286.7895129808098
 20
1876.36541122197
 30
0.0
 11
352.78892475978
 21
1876.36541122197
 31
0.0
  0
INSERT
  5
25697
330
25101
100
AcDbEntity
  8
AM_5
100
AcDbBlockReference
  2
_Dot
 10
285.7895129808099
 20
1876.36541122197
 30
0.0
 41
1.0
 42
1.0
 43
1.0
 50
180.0
  0
INSERT
  5
25698
330
25101
100
AcDbEntity
  8
AM_5
100
AcDbBlockReference
  2
_Dot
 10
353.78892475978
 20
1876.36541122197
 30
0.0
 41
1.0
 42
1.0
 43
1.0
  0
MTEXT
  5
25699
330
25101
100
AcDbEntity
  8
AM_5
 62
     2
100
AcDbMText
 10
319.7892188702949
 20
1879.46541122197
 30
0.0
 40
3.2
 41
0.0
 71
     5
 72
     1
  1
（B）
 73
     1
 44
1.0
1001
ACAD
1000
MTEXTBEGIN
1070
    73
1070
     1
1070
    44
1040
1.0
1070
    74
1070
     0
1000
MTEXTEND
  0
POINT
  5
2569A
330
25101
100
AcDbEntity
  8
Defpoints
 62
     0
100
AcDbPoint
 10
285.7895129808099
 20
1863.487035221969
 30
0.0
  0
POINT
  5
2569B
330
25101
100
AcDbEntity
  8
Defpoints
 62
     0
100
AcDbPoint
 10
353.78892475978
 20
1841.765605563092
 30
0.0
  0
POINT
  5
2569C
330
25101
100
AcDbEntity
  8
Defpoints
 62
     0
100
AcDbPoint
 10
353.78892475978
 20
1876.36541122197
 30
0.0
  0
ENDBLK
  5
2510C
330
25101
100
AcDbEntity
  8
0
100
AcDbBlockEnd
  0
BLOCK
  5
25117
330
2510D
100
AcDbEntity
  8
0
100
AcDbBlockBegin
  2
*D8
 70
     1
 10
0.0
 20
0.0
 30
0.0
  3
*D8
  1

  0
LINE
  5
2569D
330
2510D
100
AcDbEntity
  8
AM_5
100
AcDbLine
 10
287.2895129808098
 20
1860.36541122197
 30
0.0
 11
372.7895129808083
 21
1860.36541122197
 31
0.0
  0
LINE
  5
2569E
330
2510D
100
AcDbEntity
  8
AM_5
100
AcDbLine
 10
287.2895129808098
 20
1805.36541122197
 30
0.0
 11
372.7895129808083
 21
1805.36541122197
 31
0.0
  0
LINE
  5
2569F
330
2510D
100
AcDbEntity
  8
AM_5
100
AcDbLine
 10
371.7895129808083
 20
1859.36541122197
 30
0.0
 11
371.7895129808083
 21
1806.36541122197
 31
0.0
  0
INSERT
  5
256A0
330
2510D
100
AcDbEntity
  8
AM_5
100
AcDbBlockReference
  2
_Dot
 10
371.7895129808083
 20
1860.36541122197
 30
0.0
 41
1.0
 42
1.0
 43
1.0
 50
90.0
  0
INSERT
  5
256A1
330
2510D
100
AcDbEntity
  8
AM_5
100
AcDbBlockReference
  2
_Dot
 10
371.7895129808083
 20
1805.36541122197
 30
0.0
 41
1.0
 42
1.0
 43
1.0
 50
270.0
  0
MTEXT
  5
256A2
330
2510D
100
AcDbEntity
  8
AM_5
 62
     2
100
AcDbMText
 10
368.689512980808
 20
1832.86541122197
 30
0.0
 40
3.2
 41
0.0
 71
     5
 72
     1
  1
F
 11
0.0000000000000001
 21
1.0
 31
0.0
 73
     1
 44
1.0
1001
ACAD
1000
MTEXTBEGIN
1070
    73
1070
     1
1070
    44
1040
1.0
1070
    74
1070
     0
1000
MTEXTEND
  0
POINT
  5
256A3
330
2510D
100
AcDbEntity
  8
Defpoints
 62
     0
100
AcDbPoint
 10
285.7895129808099
 20
1860.36541122197
 30
0.0
  0
POINT
  5
256A4
330
2510D
100
AcDbEntity
  8
Defpoints
 62
     0
100
AcDbPoint
 10
285.7895129808099
 20
1805.36541122197
 30
0.0
  0
POINT
  5
256A5
330
2510D
100
AcDbEntity
  8
Defpoints
 62
     0
100
AcDbPoint
 10
371.7895129808083
 20
1805.36541122197
 30
0.0
  0
ENDBLK
  5
25118
330
2510D
100
AcDbEntity
  8
0
100
AcDbBlockEnd
  0
BLOCK
  5
25123
330
25119
100
AcDbEntity
  8
0
100
AcDbBlockBegin
  2
*D9
 70
     1
 10
0.0
 20
0.0
 30
0.0
  3
*D9
  1

  0
LINE
  5
2577B
330
25119
100
AcDbEntity
  8
AM_5
100
AcDbLine
 10
301.7895129808098
 20
1814.36541122197
 30
0.0
 11
364.7895129808083
 21
1814.36541122197
 31
0.0
  0
LINE
  5
2577C
330
25119
100
AcDbEntity
  8
AM_5
100
AcDbLine
 10
301.7895129808098
 20
1851.36541122197
 30
0.0
 11
364.7895129808083
 21
1851.36541122197
 31
0.0
  0
LINE
  5
2577D
330
25119
100
AcDbEntity
  8
AM_5
100
AcDbLine
 10
363.7895129808083
 20
1815.36541122197
 30
0.0
 11
363.7895129808083
 21
1850.36541122197
 31
0.0
  0
INSERT
  5
2577E
330
25119
100
AcDbEntity
  8
AM_5
100
AcDbBlockReference
  2
_Dot
 10
363.7895129808083
 20
1814.36541122197
 30
0.0
 41
1.0
 42
1.0
 43
1.0
 50
270.0
  0
INSERT
  5
2577F
330
25119
100
AcDbEntity
  8
AM_5
100
AcDbBlockReference
  2
_Dot
 10
363.7895129808083
 20
1851.36541122197
 30
0.0
 41
1.0
 42
1.0
 43
1.0
 50
90.0
  0
MTEXT
  5
25780
330
25119
100
AcDbEntity
  8
AM_5
 62
     2
100
AcDbMText
 10
360.689512980808
 20
1832.86541122197
 30
0.0
 40
3.2
 41
0.0
 71
     5
 72
     1
  1
N
 11
0.0000000000000001
 21
1.0
 31
0.0
 73
     1
 44
1.0
1001
ACAD
1000
MTEXTBEGIN
1070
    73
1070
     1
1070
    44
1040
1.0
1070
    74
1070
     0
1000
MTEXTEND
  0
POINT
  5
25781
330
25119
100
AcDbEntity
  8
Defpoints
 62
     0
100
AcDbPoint
 10
300.2895129808099
 20
1814.36541122197
 30
0.0
  0
POINT
  5
25782
330
25119
100
AcDbEntity
  8
Defpoints
 62
     0
100
AcDbPoint
 10
300.2895129808099
 20
1851.36541122197
 30
0.0
  0
POINT
  5
25783
330
25119
100
AcDbEntity
  8
Defpoints
 62
     0
100
AcDbPoint
 10
363.7895129808083
 20
1851.36541122197
 30
0.0
  0
ENDBLK
  5
25124
330
25119
100
AcDbEntity
  8
0
100
AcDbBlockEnd
  0
BLOCK
  5
2512F
330
25125
100
AcDbEntity
  8
0
100
AcDbBlockBegin
  2
*D10
 70
     1
 10
0.0
 20
0.0
 30
0.0
  3
*D10
  1

  0
LINE
  5
25772
330
25125
100
AcDbEntity
  8
AM_5
100
AcDbLine
 10
294.2895129808097
 20
1806.86541122197
 30
0.0
 11
294.2895129808097
 21
1794.36541122197
 31
0.0
  0
LINE
  5
25773
330
25125
100
AcDbEntity
  8
AM_5
100
AcDbLine
 10
277.2895129808097
 20
1806.86541122197
 30
0.0
 11
277.2895129808097
 21
1794.36541122197
 31
0.0
  0
LINE
  5
25774
330
25125
100
AcDbEntity
  8
AM_5
100
AcDbLine
 10
293.2895129808097
 20
1795.36541122197
 30
0.0
 11
278.2895129808097
 21
1795.36541122197
 31
0.0
  0
INSERT
  5
25775
330
25125
100
AcDbEntity
  8
AM_5
100
AcDbBlockReference
  2
_Dot
 10
294.2895129808097
 20
1795.36541122197
 30
0.0
 41
1.0
 42
1.0
 43
1.0
  0
INSERT
  5
25776
330
25125
100
AcDbEntity
  8
AM_5
100
AcDbBlockReference
  2
_Dot
 10
277.2895129808097
 20
1795.36541122197
 30
0.0
 41
1.0
 42
1.0
 43
1.0
 50
180.0
  0
MTEXT
  5
25777
330
25125
100
AcDbEntity
  8
AM_5
 62
     2
100
AcDbMText
 10
285.7895129808099
 20
1798.46541122197
 30
0.0
 40
3.2
 41
0.0
 71
     5
 72
     1
  1
M
 73
     1
 44
1.0
1001
ACAD
1000
MTEXTBEGIN
1070
    73
1070
     1
1070
    44
1040
1.0
1070
    74
1070
     0
1000
MTEXTEND
  0
POINT
  5
25778
330
25125
100
AcDbEntity
  8
Defpoints
 62
     0
100
AcDbPoint
 10
294.2895129808097
 20
1808.36541122197
 30
0.0
  0
POINT
  5
25779
330
25125
100
AcDbEntity
  8
Defpoints
 62
     0
100
AcDbPoint
 10
277.2895129808097
 20
1808.36541122197
 30
0.0
  0
POINT
  5
2577A
330
25125
100
AcDbEntity
  8
Defpoints
 62
     0
100
AcDbPoint
 10
277.2895129808097
 20
1795.36541122197
 30
0.0
  0
ENDBLK
  5
25130
330
25125
100
AcDbEntity
  8
0
100
AcDbBlockEnd
  0
BLOCK
  5
2513B
330
25131
100
AcDbEntity
  8
0
100
AcDbBlockBegin
  2
*D11
 70
     1
 10
0.0
 20
0.0
 30
0.0
  3
*D11
  1

  0
LINE
  5
256B8
330
25131
100
AcDbEntity
  8
AM_5
100
AcDbLine
 10
270.7895130414877
 20
1808.31655003925
 30
0.0
 11
270.7895130414877
 21
1786.36541122197
 31
0.0
  0
LINE
  5
256B9
330
25131
100
AcDbEntity
  8
AM_5
100
AcDbLine
 10
300.7895129201318
 20
1808.31655003925
 30
0.0
 11
300.7895129201318
 21
1786.36541122197
 31
0.0
  0
LINE
  5
256BA
330
25131
100
AcDbEntity
  8
AM_5
100
AcDbLine
 10
271.7895130414877
 20
1787.36541122197
 30
0.0
 11
299.7895129201318
 21
1787.36541122197
 31
0.0
  0
INSERT
  5
256BB
330
25131
100
AcDbEntity
  8
AM_5
100
AcDbBlockReference
  2
_Dot
 10
270.7895130414877
 20
1787.36541122197
 30
0.0
 41
1.0
 42
1.0
 43
1.0
 50
180.0
  0
INSERT
  5
256BC
330
25131
100
AcDbEntity
  8
AM_5
100
AcDbBlockReference
  2
_Dot
 10
300.7895129201318
 20
1787.36541122197
 30
0.0
 41
1.0
 42
1.0
 43
1.0
  0
MTEXT
  5
256BD
330
25131
100
AcDbEntity
  8
AM_5
 62
     2
100
AcDbMText
 10
285.7895129808099
 20
1790.46541122197
 30
0.0
 40
3.2
 41
0.0
 71
     5
 72
     1
  1
C
 73
     1
 44
1.0
1001
ACAD
1000
MTEXTBEGIN
1070
    73
1070
     1
1070
    44
1040
1.0
1070
    74
1070
     0
1000
MTEXTEND
  0
POINT
  5
256BE
330
25131
100
AcDbEntity
  8
Defpoints
 62
     0
100
AcDbPoint
 10
270.7895130414877
 20
1809.81655003925
 30
0.0
  0
POINT
  5
256BF
330
25131
100
AcDbEntity
  8
Defpoints
 62
     0
100
AcDbPoint
 10
300.7895129201318
 20
1809.81655003925
 30
0.0
  0
POINT
  5
256C0
330
25131
100
AcDbEntity
  8
Defpoints
 62
     0
100
AcDbPoint
 10
300.7895129201318
 20
1787.36541122197
 30
0.0
  0
ENDBLK
  5
2513C
330
25131
100
AcDbEntity
  8
0
100
AcDbBlockEnd
  0
BLOCK
  5
25147
330
2513D
100
AcDbEntity
  8
0
100
AcDbBlockBegin
  2
*D12
 70
     1
 10
0.0
 20
0.0
 30
0.0
  3
*D12
  1

  0
LINE
  5
2578D
330
2513D
100
AcDbEntity
  8
AM_5
100
AcDbLine
 10
277.2895129808098
 20
1806.86541122197
 30
0.0
 11
277.2895129808098
 21
1794.36541122197
 31
0.0
  0
LINE
  5
2578E
330
2513D
100
AcDbEntity
  8
AM_5
100
AcDbLine
 10
249.2895129808096
 20
1805.86541122197
 30
0.0
 11
249.2895129808096
 21
1794.36541122197
 31
0.0
  0
LINE
  5
2578F
330
2513D
100
AcDbEntity
  8
AM_5
100
AcDbLine
 10
276.2895129808098
 20
1795.36541122197
 30
0.0
 11
250.2895129808096
 21
1795.36541122197
 31
0.0
  0
INSERT
  5
25790
330
2513D
100
AcDbEntity
  8
AM_5
100
AcDbBlockReference
  2
_Dot
 10
277.2895129808098
 20
1795.36541122197
 30
0.0
 41
1.0
 42
1.0
 43
1.0
  0
INSERT
  5
25791
330
2513D
100
AcDbEntity
  8
AM_5
100
AcDbBlockReference
  2
_Dot
 10
249.2895129808096
 20
1795.36541122197
 30
0.0
 41
1.0
 42
1.0
 43
1.0
 50
180.0
  0
MTEXT
  5
25792
330
2513D
100
AcDbEntity
  8
AM_5
 62
     2
100
AcDbMText
 10
263.2895129808098
 20
1798.46541122197
 30
0.0
 40
3.2
 41
0.0
 71
     5
 72
     1
  1
（P）
 73
     1
 44
1.0
1001
ACAD
1000
MTEXTBEGIN
1070
    73
1070
     1
1070
    44
1040
1.0
1070
    74
1070
     0
1000
MTEXTEND
  0
POINT
  5
25793
330
2513D
100
AcDbEntity
  8
Defpoints
 62
     0
100
AcDbPoint
 10
277.2895129808098
 20
1808.36541122197
 30
0.0
  0
POINT
  5
25794
330
2513D
100
AcDbEntity
  8
Defpoints
 62
     0
100
AcDbPoint
 10
249.2895129808096
 20
1807.36541122197
 30
0.0
  0
POINT
  5
25795
330
2513D
100
AcDbEntity
  8
Defpoints
 62
     0
100
AcDbPoint
 10
249.2895129808096
 20
1795.36541122197
 30
0.0
  0
ENDBLK
  5
25148
330
2513D
100
AcDbEntity
  8
0
100
AcDbBlockEnd
  0
BLOCK
  5
25153
330
25149
100
AcDbEntity
  8
0
100
AcDbBlockBegin
  2
*D13
 70
     1
 10
0.0
 20
0.0
 30
0.0
  3
*D13
  1

  0
LINE
  5
25784
330
25149
100
AcDbEntity
  8
AM_5
100
AcDbLine
 10
241.7895129808098
 20
1848.86541122197
 30
0.0
 11
228.2895129808101
 21
1848.86541122197
 31
0.0
  0
LINE
  5
25785
330
25149
100
AcDbEntity
  8
AM_5
100
AcDbLine
 10
241.7895129808098
 20
1816.86541122197
 30
0.0
 11
228.2895129808101
 21
1816.86541122197
 31
0.0
  0
LINE
  5
25786
330
25149
100
AcDbEntity
  8
AM_5
100
AcDbLine
 10
229.2895129808101
 20
1847.86541122197
 30
0.0
 11
229.2895129808101
 21
1817.86541122197
 31
0.0
  0
INSERT
  5
25787
330
25149
100
AcDbEntity
  8
AM_5
100
AcDbBlockReference
  2
_Dot
 10
229.2895129808101
 20
1848.86541122197
 30
0.0
 41
1.0
 42
1.0
 43
1.0
 50
90.0
  0
INSERT
  5
25788
330
25149
100
AcDbEntity
  8
AM_5
100
AcDbBlockReference
  2
_Dot
 10
229.2895129808101
 20
1816.86541122197
 30
0.0
 41
1.0
 42
1.0
 43
1.0
 50
270.0
  0
MTEXT
  5
25789
330
25149
100
AcDbEntity
  8
AM_5
 62
     2
100
AcDbMText
 10
226.1895129808098
 20
1832.865411221966
 30
0.0
 40
3.2
 41
0.0
 71
     5
 72
     1
  1
O
 11
0.0000000000000001
 21
1.0
 31
0.0
 73
     1
 44
1.0
1001
ACAD
1000
MTEXTBEGIN
1070
    73
1070
     1
1070
    44
1040
1.0
1070
    74
1070
     0
1000
MTEXTEND
  0
POINT
  5
2578A
330
25149
100
AcDbEntity
  8
Defpoints
 62
     0
100
AcDbPoint
 10
243.2895129808098
 20
1848.86541122197
 30
0.0
  0
POINT
  5
2578B
330
25149
100
AcDbEntity
  8
Defpoints
 62
     0
100
AcDbPoint
 10
243.2895129808098
 20
1816.86541122197
 30
0.0
  0
POINT
  5
2578C
330
25149
100
AcDbEntity
  8
Defpoints
 62
     0
100
AcDbPoint
 10
229.2895129808101
 20
1816.86541122197
 30
0.0
  0
ENDBLK
  5
25154
330
25149
100
AcDbEntity
  8
0
100
AcDbBlockEnd
  0
BLOCK
  5
2515F
330
25155
100
AcDbEntity
  8
0
100
AcDbBlockBegin
  2
*D14
 70
     1
 10
0.0
 20
0.0
 30
0.0
  3
*D14
  1

  0
LINE
  5
256D3
330
25155
100
AcDbEntity
  8
AM_5
100
AcDbLine
 10
241.7895129808098
 20
1810.36541122197
 30
0.0
 11
220.2895129808101
 21
1810.36541122197
 31
0.0
  0
LINE
  5
256D4
330
25155
100
AcDbEntity
  8
AM_5
100
AcDbLine
 10
241.7895129808098
 20
1855.36541122197
 30
0.0
 11
220.2895129808101
 21
1855.36541122197
 31
0.0
  0
LINE
  5
256D5
330
25155
100
AcDbEntity
  8
AM_5
100
AcDbLine
 10
221.2895129808101
 20
1811.36541122197
 30
0.0
 11
221.2895129808101
 21
1854.36541122197
 31
0.0
  0
INSERT
  5
256D6
330
25155
100
AcDbEntity
  8
AM_5
100
AcDbBlockReference
  2
_Dot
 10
221.2895129808101
 20
1810.36541122197
 30
0.0
 41
1.0
 42
1.0
 43
1.0
 50
270.0
  0
INSERT
  5
256D7
330
25155
100
AcDbEntity
  8
AM_5
100
AcDbBlockReference
  2
_Dot
 10
221.2895129808101
 20
1855.36541122197
 30
0.0
 41
1.0
 42
1.0
 43
1.0
 50
90.0
  0
MTEXT
  5
256D8
330
25155
100
AcDbEntity
  8
AM_5
 62
     2
100
AcDbMText
 10
218.1895129808098
 20
1832.865411221966
 30
0.0
 40
3.2
 41
0.0
 71
     5
 72
     1
  1
G
 11
0.0000000000000001
 21
1.0
 31
0.0
 73
     1
 44
1.0
1001
ACAD
1000
MTEXTBEGIN
1070
    73
1070
     1
1070
    44
1040
1.0
1070
    74
1070
     0
1000
MTEXTEND
  0
POINT
  5
256D9
330
25155
100
AcDbEntity
  8
Defpoints
 62
     0
100
AcDbPoint
 10
243.2895129808098
 20
1810.36541122197
 30
0.0
  0
POINT
  5
256DA
330
25155
100
AcDbEntity
  8
Defpoints
 62
     0
100
AcDbPoint
 10
243.2895129808098
 20
1855.36541122197
 30
0.0
  0
POINT
  5
256DB
330
25155
100
AcDbEntity
  8
Defpoints
 62
     0
100
AcDbPoint
 10
221.2895129808101
 20
1855.36541122197
 30
0.0
  0
ENDBLK
  5
25160
330
25155
100
AcDbEntity
  8
0
100
AcDbBlockEnd
  0
BLOCK
  5
2516B
330
25161
100
AcDbEntity
  8
0
100
AcDbBlockBegin
  2
*D15
 70
     1
 10
0.0
 20
0.0
 30
0.0
  3
*D15
  1

  0
LINE
  5
256DC
330
25161
100
AcDbEntity
  8
AM_5
100
AcDbLine
 10
239.2895129808098
 20
1852.86541122197
 30
0.0
 11
239.2895129808098
 21
1869.36541122197
 31
0.0
  0
LINE
  5
256DD
330
25161
100
AcDbEntity
  8
AM_5
100
AcDbLine
 10
259.2895129808098
 20
1852.86541122197
 30
0.0
 11
259.2895129808098
 21
1869.36541122197
 31
0.0
  0
LINE
  5
256DE
330
25161
100
AcDbEntity
  8
AM_5
100
AcDbLine
 10
240.2895129808098
 20
1868.36541122197
 30
0.0
 11
258.2895129808098
 21
1868.36541122197
 31
0.0
  0
INSERT
  5
256DF
330
25161
100
AcDbEntity
  8
AM_5
100
AcDbBlockReference
  2
_Dot
 10
239.2895129808098
 20
1868.36541122197
 30
0.0
 41
1.0
 42
1.0
 43
1.0
 50
180.0
  0
INSERT
  5
256E0
330
25161
100
AcDbEntity
  8
AM_5
100
AcDbBlockReference
  2
_Dot
 10
259.2895129808098
 20
1868.36541122197
 30
0.0
 41
1.0
 42
1.0
 43
1.0
  0
MTEXT
  5
256E1
330
25161
100
AcDbEntity
  8
AM_5
 62
     2
100
AcDbMText
 10
249.2895129808098
 20
1871.46541122197
 30
0.0
 40
3.2
 41
0.0
 71
     5
 72
     1
  1
E
 73
     1
 44
1.0
1001
ACAD
1000
MTEXTBEGIN
1070
    73
1070
     1
1070
    44
1040
1.0
1070
    74
1070
     0
1000
MTEXTEND
  0
POINT
  5
256E2
330
25161
100
AcDbEntity
  8
Defpoints
 62
     0
100
AcDbPoint
 10
239.2895129808098
 20
1851.36541122197
 30
0.0
  0
POINT
  5
256E3
330
25161
100
AcDbEntity
  8
Defpoints
 62
     0
100
AcDbPoint
 10
259.2895129808098
 20
1851.36541122197
 30
0.0
  0
POINT
  5
256E4
330
25161
100
AcDbEntity
  8
Defpoints
 62
     0
100
AcDbPoint
 10
259.2895129808098
 20
1868.36541122197
 30
0.0
  0
ENDBLK
  5
2516C
330
25161
100
AcDbEntity
  8
0
100
AcDbBlockEnd
  0
BLOCK
  5
25177
330
2516D
100
AcDbEntity
  8
0
100
AcDbBlockBegin
  2
*D16
 70
     1
 10
0.0
 20
0.0
 30
0.0
  3
*D16
  1

  0
LINE
  5
256E5
330
2516D
100
AcDbEntity
  8
AM_5
100
AcDbLine
 10
239.2895129808098
 20
1852.86541122197
 30
0.0
 11
239.2895129808098
 21
1877.36541122197
 31
0.0
  0
LINE
  5
256E6
330
2516D
100
AcDbEntity
  8
AM_5
100
AcDbLine
 10
269.2895129808098
 20
1834.36541122197
 30
0.0
 11
269.2895129808098
 21
1877.36541122197
 31
0.0
  0
LINE
  5
256E7
330
2516D
100
AcDbEntity
  8
AM_5
100
AcDbLine
 10
240.2895129808098
 20
1876.36541122197
 30
0.0
 11
268.2895129808098
 21
1876.36541122197
 31
0.0
  0
INSERT
  5
256E8
330
2516D
100
AcDbEntity
  8
AM_5
100
AcDbBlockReference
  2
_Dot
 10
239.2895129808098
 20
1876.36541122197
 30
0.0
 41
1.0
 42
1.0
 43
1.0
 50
180.0
  0
INSERT
  5
256E9
330
2516D
100
AcDbEntity
  8
AM_5
100
AcDbBlockReference
  2
_Dot
 10
269.2895129808098
 20
1876.36541122197
 30
0.0
 41
1.0
 42
1.0
 43
1.0
  0
MTEXT
  5
256EA
330
2516D
100
AcDbEntity
  8
AM_5
 62
     2
100
AcDbMText
 10
250.9541986773447
 20
1879.46541122197
 30
0.0
 40
3.2
 41
0.0
 71
     5
 72
     1
  1
D
 73
     1
 44
1.0
1001
ACAD
1000
MTEXTBEGIN
1070
    73
1070
     1
1070
    44
1040
1.0
1070
    74
1070
     0
1000
MTEXTEND
  0
POINT
  5
256EB
330
2516D
100
AcDbEntity
  8
Defpoints
 62
     0
100
AcDbPoint
 10
239.2895129808098
 20
1851.36541122197
 30
0.0
  0
POINT
  5
256EC
330
2516D
100
AcDbEntity
  8
Defpoints
 62
     0
100
AcDbPoint
 10
269.2895129808098
 20
1832.86541122197
 30
0.0
  0
POINT
  5
256ED
330
2516D
100
AcDbEntity
  8
Defpoints
 62
     0
100
AcDbPoint
 10
269.2895129808098
 20
1876.36541122197
 30
0.0
  0
ENDBLK
  5
25178
330
2516D
100
AcDbEntity
  8
0
100
AcDbBlockEnd
  0
BLOCK
  5
25183
330
25179
100
AcDbEntity
  8
0
100
AcDbBlockBegin
  2
*D17
 70
     1
 10
0.0
 20
0.0
 30
0.0
  3
*D17
  1

  0
LINE
  5
256EE
330
25179
100
AcDbEntity
  8
AM_5
100
AcDbLine
 10
302.2895129808099
 20
1734.376409133339
 30
0.0
 11
364.7895117774606
 21
1734.376409133339
 31
0.0
  0
LINE
  5
256EF
330
25179
100
AcDbEntity
  8
AM_5
100
AcDbLine
 10
341.5417859808099
 20
1761.876409133338
 30
0.0
 11
364.7895117774606
 21
1761.876409133338
 31
0.0
  0
LINE
  5
256F0
330
25179
100
AcDbEntity
  8
AM_5
100
AcDbLine
 10
363.7895117774606
 20
1735.376409133339
 30
0.0
 11
363.7895117774606
 21
1760.876409133339
 31
0.0
  0
INSERT
  5
256F1
330
25179
100
AcDbEntity
  8
AM_5
100
AcDbBlockReference
  2
_Dot
 10
363.7895117774606
 20
1734.376409133339
 30
0.0
 41
1.0
 42
1.0
 43
1.0
 50
270.0
  0
INSERT
  5
256F2
330
25179
100
AcDbEntity
  8
AM_5
100
AcDbBlockReference
  2
_Dot
 10
363.7895117774606
 20
1761.876409133338
 30
0.0
 41
1.0
 42
1.0
 43
1.0
 50
90.0
  0
MTEXT
  5
256F3
330
25179
100
AcDbEntity
  8
AM_5
 62
     2
100
AcDbMText
 10
360.6895117774603
 20
1747.374975922306
 30
0.0
 40
3.2
 41
0.0
 71
     5
 72
     1
  1
（H）
 11
0.0000000000000001
 21
1.0
 31
0.0
 73
     1
 44
1.0
1001
ACAD
1000
MTEXTBEGIN
1070
    73
1070
     1
1070
    44
1040
1.0
1070
    74
1070
     0
1000
MTEXTEND
  0
POINT
  5
256F4
330
25179
100
AcDbEntity
  8
Defpoints
 62
     0
100
AcDbPoint
 10
300.7895129808098
 20
1734.376409133339
 30
0.0
  0
POINT
  5
256F5
330
25179
100
AcDbEntity
  8
Defpoints
 62
     0
100
AcDbPoint
 10
340.0417859808099
 20
1761.876409133338
 30
0.0
  0
POINT
  5
256F6
330
25179
100
AcDbEntity
  8
Defpoints
 62
     0
100
AcDbPoint
 10
363.7895117774606
 20
1761.876409133338
 30
0.0
  0
ENDBLK
  5
25184
330
25179
100
AcDbEntity
  8
0
100
AcDbBlockEnd
  0
BLOCK
  5
25190
330
25185
100
AcDbEntity
  8
0
100
AcDbBlockBegin
  2
*D18
 70
     1
 10
0.0
 20
0.0
 30
0.0
  3
*D18
  1

  0
LINE
  5
256F7
330
25185
100
AcDbEntity
  8
AM_5
100
AcDbLine
 10
302.2895129808099
 20
1734.376409133339
 30
0.0
 11
319.7895129808083
 21
1734.376409133339
 31
0.0
  0
LINE
  5
256F8
330
25185
100
AcDbEntity
  8
AM_5
100
AcDbLine
 10
302.2895129808099
 20
1739.376409133338
 30
0.0
 11
319.7895129808083
 21
1739.376409133338
 31
0.0
  0
LINE
  5
256F9
330
25185
100
AcDbEntity
  8
AM_5
100
AcDbLine
 10
318.7895129808083
 20
1738.376409133338
 30
0.0
 11
318.7895129808083
 21
1735.376409133339
 31
0.0
  0
LINE
  5
256FA
330
25185
100
AcDbEntity
  8
AM_5
100
AcDbLine
 10
318.7895129808083
 20
1734.376409133339
 30
0.0
 11
318.7895129808083
 21
1727.309742466671
 31
0.0
  0
INSERT
  5
256FB
330
25185
100
AcDbEntity
  8
AM_5
100
AcDbBlockReference
  2
_Dot
 10
318.7895129808083
 20
1739.376409133338
 30
0.0
 41
1.0
 42
1.0
 43
1.0
 50
90.0
  0
INSERT
  5
256FC
330
25185
100
AcDbEntity
  8
AM_5
100
AcDbBlockReference
  2
_Dot
 10
318.7895129808083
 20
1734.376409133339
 30
0.0
 41
1.0
 42
1.0
 43
1.0
 50
270.0
  0
MTEXT
  5
256FD
330
25185
100
AcDbEntity
  8
AM_5
 62
     2
100
AcDbMText
 10
315.689512980808
 20
1729.343075800004
 30
0.0
 40
3.2
 41
0.0
 71
     5
 72
     1
  1
J
 11
0.0000000000000001
 21
1.0
 31
0.0
 73
     1
 44
1.0
1001
ACAD
1000
MTEXTBEGIN
1070
    73
1070
     1
1070
    44
1040
1.0
1070
    74
1070
     0
1000
MTEXTEND
  0
POINT
  5
256FE
330
25185
100
AcDbEntity
  8
Defpoints
 62
     0
100
AcDbPoint
 10
300.7895129808098
 20
1734.376409133339
 30
0.0
  0
POINT
  5
256FF
330
25185
100
AcDbEntity
  8
Defpoints
 62
     0
100
AcDbPoint
 10
300.7895129808098
 20
1739.376409133338
 30
0.0
  0
POINT
  5
25700
330
25185
100
AcDbEntity
  8
Defpoints
 62
     0
100
AcDbPoint
 10
318.7895129808083
 20
1739.376409133338
 30
0.0
  0
ENDBLK
  5
25191
330
25185
100
AcDbEntity
  8
0
100
AcDbBlockEnd
  0
BLOCK
  5
2519C
330
25192
100
AcDbEntity
  8
0
100
AcDbBlockBegin
  2
*D19
 70
     1
 10
0.0
 20
0.0
 30
0.0
  3
*D19
  1

  0
LINE
  5
25701
330
25192
100
AcDbEntity
  8
AM_5
100
AcDbLine
 10
303.4917309808097
 20
1746.876409133339
 30
0.0
 11
327.7895129808083
 21
1746.876409133339
 31
0.0
  0
LINE
  5
25702
330
25192
100
AcDbEntity
  8
AM_5
100
AcDbLine
 10
302.2895129808099
 20
1734.376409133339
 30
0.0
 11
327.7895129808083
 21
1734.376409133339
 31
0.0
  0
LINE
  5
25703
330
25192
100
AcDbEntity
  8
AM_5
100
AcDbLine
 10
326.7895129808083
 20
1745.876409133339
 30
0.0
 11
326.7895129808083
 21
1735.376409133339
 31
0.0
  0
INSERT
  5
25704
330
25192
100
AcDbEntity
  8
AM_5
100
AcDbBlockReference
  2
_Dot
 10
326.7895129808083
 20
1746.876409133339
 30
0.0
 41
1.0
 42
1.0
 43
1.0
 50
90.0
  0
INSERT
  5
25705
330
25192
100
AcDbEntity
  8
AM_5
100
AcDbBlockReference
  2
_Dot
 10
326.7895129808083
 20
1734.376409133339
 30
0.0
 41
1.0
 42
1.0
 43
1.0
 50
270.0
  0
MTEXT
  5
25706
330
25192
100
AcDbEntity
  8
AM_5
 62
     2
100
AcDbMText
 10
323.689512980808
 20
1740.626409133338
 30
0.0
 40
3.2
 41
0.0
 71
     5
 72
     1
  1
I
 11
0.0000000000000001
 21
1.0
 31
0.0
 73
     1
 44
1.0
1001
ACAD
1000
MTEXTBEGIN
1070
    73
1070
     1
1070
    44
1040
1.0
1070
    74
1070
     0
1000
MTEXTEND
  0
POINT
  5
25707
330
25192
100
AcDbEntity
  8
Defpoints
 62
     0
100
AcDbPoint
 10
301.9917309808097
 20
1746.876409133339
 30
0.0
  0
POINT
  5
25708
330
25192
100
AcDbEntity
  8
Defpoints
 62
     0
100
AcDbPoint
 10
300.7895129808098
 20
1734.376409133339
 30
0.0
  0
POINT
  5
25709
330
25192
100
AcDbEntity
  8
Defpoints
 62
     0
100
AcDbPoint
 10
326.7895129808083
 20
1734.376409133339
 30
0.0
  0
ENDBLK
  5
2519D
330
25192
100
AcDbEntity
  8
0
100
AcDbBlockEnd
  0
BLOCK
  5
251A8
330
2519E
100
AcDbEntity
  8
0
100
AcDbBlockBegin
  2
*D20
 70
     1
 10
0.0
 20
0.0
 30
0.0
  3
*D20
  1

  0
LINE
  5
2570A
330
2519E
100
AcDbEntity
  8
AM_5
100
AcDbLine
 10
237.7895129808099
 20
1734.376409133339
 30
0.0
 11
228.2895129808101
 21
1734.376409133339
 31
0.0
  0
LINE
  5
2570B
330
2519E
100
AcDbEntity
  8
AM_5
100
AcDbLine
 10
237.7895129808099
 20
1739.376409133338
 30
0.0
 11
228.2895129808101
 21
1739.376409133338
 31
0.0
  0
LINE
  5
2570C
330
2519E
100
AcDbEntity
  8
AM_5
100
AcDbLine
 10
229.2895129808101
 20
1735.376409133339
 30
0.0
 11
229.2895129808101
 21
1738.376409133338
 31
0.0
  0
INSERT
  5
2570D
330
2519E
100
AcDbEntity
  8
AM_5
100
AcDbBlockReference
  2
_Dot
 10
229.2895129808101
 20
1734.376409133339
 30
0.0
 41
1.0
 42
1.0
 43
1.0
 50
270.0
  0
INSERT
  5
2570E
330
2519E
100
AcDbEntity
  8
AM_5
100
AcDbBlockReference
  2
_Dot
 10
229.2895129808101
 20
1739.376409133338
 30
0.0
 41
1.0
 42
1.0
 43
1.0
 50
90.0
  0
MTEXT
  5
2570F
330
2519E
100
AcDbEntity
  8
AM_5
 62
     2
100
AcDbMText
 10
226.1895129808098
 20
1736.876409133338
 30
0.0
 40
3.2
 41
0.0
 71
     5
 72
     1
  1
5
 11
0.0000000000000001
 21
1.0
 31
0.0
 73
     1
 44
1.0
1001
ACAD
1000
MTEXTBEGIN
1070
    73
1070
     1
1070
    44
1040
1.0
1070
    74
1070
     0
1000
MTEXTEND
  0
POINT
  5
25710
330
2519E
100
AcDbEntity
  8
Defpoints
 62
     0
100
AcDbPoint
 10
239.2895129808098
 20
1734.376409133339
 30
0.0
  0
POINT
  5
25711
330
2519E
100
AcDbEntity
  8
Defpoints
 62
     0
100
AcDbPoint
 10
239.2895129808098
 20
1739.376409133338
 30
0.0
  0
POINT
  5
25712
330
2519E
100
AcDbEntity
  8
Defpoints
 62
     0
100
AcDbPoint
 10
229.2895129808101
 20
1739.376409133338
 30
0.0
  0
ENDBLK
  5
251A9
330
2519E
100
AcDbEntity
  8
0
100
AcDbBlockEnd
  0
BLOCK
  5
251B4
330
251AA
100
AcDbEntity
  8
0
100
AcDbBlockBegin
  2
*D21
 70
     1
 10
0.0
 20
0.0
 30
0.0
  3
*D21
  1

  0
LINE
  5
25713
330
251AA
100
AcDbEntity
  8
AM_5
100
AcDbLine
 10
237.7895129808099
 20
1734.376409133339
 30
0.0
 11
220.2895129808083
 21
1734.376409133339
 31
0.0
  0
LINE
  5
25714
330
251AA
100
AcDbEntity
  8
AM_5
100
AcDbLine
 10
247.4611929808097
 20
1744.376409133339
 30
0.0
 11
220.2895129808083
 21
1744.376409133339
 31
0.0
  0
LINE
  5
25715
330
251AA
100
AcDbEntity
  8
AM_5
100
AcDbLine
 10
221.2895129808083
 20
1735.376409133339
 30
0.0
 11
221.2895129808083
 21
1743.376409133339
 31
0.0
  0
INSERT
  5
25716
330
251AA
100
AcDbEntity
  8
AM_5
100
AcDbBlockReference
  2
_Dot
 10
221.2895129808083
 20
1734.376409133339
 30
0.0
 41
1.0
 42
1.0
 43
1.0
 50
270.0
  0
INSERT
  5
25717
330
251AA
100
AcDbEntity
  8
AM_5
100
AcDbBlockReference
  2
_Dot
 10
221.2895129808083
 20
1744.376409133339
 30
0.0
 41
1.0
 42
1.0
 43
1.0
 50
90.0
  0
MTEXT
  5
25718
330
251AA
100
AcDbEntity
  8
AM_5
 62
     2
100
AcDbMText
 10
218.189512980808
 20
1739.376409133338
 30
0.0
 40
3.2
 41
0.0
 71
     5
 72
     1
  1
L
 11
0.0000000000000001
 21
1.0
 31
0.0
 73
     1
 44
1.0
1001
ACAD
1000
MTEXTBEGIN
1070
    73
1070
     1
1070
    44
1040
1.0
1070
    74
1070
     0
1000
MTEXTEND
  0
POINT
  5
25719
330
251AA
100
AcDbEntity
  8
Defpoints
 62
     0
100
AcDbPoint
 10
239.2895129808098
 20
1734.376409133339
 30
0.0
  0
POINT
  5
2571A
330
251AA
100
AcDbEntity
  8
Defpoints
 62
     0
100
AcDbPoint
 10
248.9611929808098
 20
1744.376409133339
 30
0.0
  0
POINT
  5
2571B
330
251AA
100
AcDbEntity
  8
Defpoints
 62
     0
100
AcDbPoint
 10
221.2895129808083
 20
1744.376409133339
 30
0.0
  0
ENDBLK
  5
251B5
330
251AA
100
AcDbEntity
  8
0
100
AcDbBlockEnd
  0
BLOCK
  5
251C0
330
251B6
100
AcDbEntity
  8
0
100
AcDbBlockBegin
  2
*D22
 70
     1
 10
0.0
 20
0.0
 30
0.0
  3
*D22
  1

  0
LINE
  5
2571C
330
251B6
100
AcDbEntity
  8
AM_5
100
AcDbLine
 10
237.7895129808099
 20
1734.376409133339
 30
0.0
 11
212.2895129808083
 21
1734.376409133339
 31
0.0
  0
LINE
  5
2571D
330
251B6
100
AcDbEntity
  8
AM_5
100
AcDbLine
 10
257.8396389808097
 20
1748.876409133339
 30
0.0
 11
212.2895129808083
 21
1748.876409133339
 31
0.0
  0
LINE
  5
2571E
330
251B6
100
AcDbEntity
  8
AM_5
100
AcDbLine
 10
213.2895129808083
 20
1735.376409133339
 30
0.0
 11
213.2895129808083
 21
1747.876409133339
 31
0.0
  0
INSERT
  5
2571F
330
251B6
100
AcDbEntity
  8
AM_5
100
AcDbBlockReference
  2
_Dot
 10
213.2895129808083
 20
1734.376409133339
 30
0.0
 41
1.0
 42
1.0
 43
1.0
 50
270.0
  0
INSERT
  5
25720
330
251B6
100
AcDbEntity
  8
AM_5
100
AcDbBlockReference
  2
_Dot
 10
213.2895129808083
 20
1748.876409133339
 30
0.0
 41
1.0
 42
1.0
 43
1.0
 50
90.0
  0
MTEXT
  5
25721
330
251B6
100
AcDbEntity
  8
AM_5
 62
     2
100
AcDbMText
 10
210.189512980808
 20
1741.626409133339
 30
0.0
 40
3.2
 41
0.0
 71
     5
 72
     1
  1
（K）
 11
0.0000000000000001
 21
1.0
 31
0.0
 73
     1
 44
1.0
1001
ACAD
1000
MTEXTBEGIN
1070
    73
1070
     1
1070
    44
1040
1.0
1070
    74
1070
     0
1000
MTEXTEND
  0
POINT
  5
25722
330
251B6
100
AcDbEntity
  8
Defpoints
 62
     0
100
AcDbPoint
 10
239.2895129808098
 20
1734.376409133339
 30
0.0
  0
POINT
  5
25723
330
251B6
100
AcDbEntity
  8
Defpoints
 62
     0
100
AcDbPoint
 10
259.3396389808097
 20
1748.876409133339
 30
0.0
  0
POINT
  5
25724
330
251B6
100
AcDbEntity
  8
Defpoints
 62
     0
100
AcDbPoint
 10
213.2895129808083
 20
1748.876409133339
 30
0.0
  0
ENDBLK
  5
251C1
330
251B6
100
AcDbEntity
  8
0
100
AcDbBlockEnd
  0
BLOCK
  5
251CC
330
251C2
100
AcDbEntity
  8
0
100
AcDbBlockBegin
  2
*D23
 70
     1
 10
0.0
 20
0.0
 30
0.0
  3
*D23
  1

  0
LINE
  5
25725
330
251C2
100
AcDbEntity
  8
AM_5
100
AcDbLine
 10
209.3998962164945
 20
1795.365411221965
 30
0.0
 11
238.6155628831598
 21
1795.365411221965
 31
0.0
  0
LINE
  5
25726
330
251C2
100
AcDbEntity
  8
AM_5
100
AcDbLine
 10
238.6155628831598
 20
1795.365411221965
 30
0.0
 11
246.5102804420303
 21
1811.267343118122
 31
0.0
  0
LINE
  5
25727
330
251C2
100
AcDbEntity
  8
AM_5
100
AcDbLine
 10
252.0687455195909
 20
1822.463479325835
 30
0.0
 11
252.9580999320003
 21
1824.254861119068
 31
0.0
  0
MTEXT
  5
25728
330
251C2
100
AcDbEntity
  8
AM_5
 62
     2
100
AcDbMText
 10
222.6372295498277
 20
1798.465411221965
 30
0.0
 40
3.200000000000001
 41
0.0
 71
     5
 72
     1
  1
2-%%c4.5×\U+22058.5サラ
 73
     1
 44
1.0
1001
ACAD
1000
MTEXTBEGIN
1070
    73
1070
     1
1070
    44
1040
1.0
1070
    74
1070
     0
1000
MTEXTEND
  0
LINE
  5
25729
330
251C2
100
AcDbEntity
  8
AM_5
100
AcDbLine
 10
251.1793911071816
 20
1820.672097532602
 30
0.0
 11
247.3996348544397
 21
1813.058724911355
 31
0.0
  0
INSERT
  5
2572A
330
251C2
100
AcDbEntity
  8
AM_5
100
AcDbBlockReference
  2
GENDOT
 10
251.1793911071816
 20
1820.672097532602
 30
0.0
 41
2.0
 42
2.0
 43
2.0
 50
243.5973116363899
  0
INSERT
  5
2572B
330
251C2
100
AcDbEntity
  8
AM_5
100
AcDbBlockReference
  2
GENDOT
 10
247.3996348544397
 20
1813.058724911355
 30
0.0
 41
2.0
 42
2.0
 43
2.0
 50
63.5973116363899
  0
POINT
  5
2572C
330
251C2
100
AcDbEntity
  8
Defpoints
 62
     0
100
AcDbPoint
 10
247.3996348544397
 20
1813.058724911355
 30
0.0
  0
POINT
  5
2572D
330
251C2
100
AcDbEntity
  8
Defpoints
 62
     0
100
AcDbPoint
 10
251.1793911071816
 20
1820.672097532602
 30
0.0
  0
ENDBLK
  5
251CD
330
251C2
100
AcDbEntity
  8
0
100
AcDbBlockEnd
  0
BLOCK
  5
251D8
330
251CE
100
AcDbEntity
  8
0
100
AcDbBlockBegin
  2
*D24
 70
     1
 10
0.0
 20
0.0
 30
0.0
  3
*D24
  1

  0
LINE
  5
2572E
330
251CE
100
AcDbEntity
  8
AM_5
100
AcDbLine
 10
336.7901185925191
 20
1795.365411221971
 30
0.0
 11
307.5744519258545
 21
1795.36541122197
 31
0.0
  0
LINE
  5
2572F
330
251CE
100
AcDbEntity
  8
AM_5
100
AcDbLine
 10
307.5744519258545
 20
1795.36541122197
 30
0.0
 11
297.8709271405449
 21
1809.243304954379
 31
0.0
  0
LINE
  5
25730
330
251CE
100
AcDbEntity
  8
AM_5
100
AcDbLine
 10
290.7080988210798
 20
1819.487517489551
 30
0.0
 11
289.5620462899651
 21
1821.126591495178
 31
0.0
  0
MTEXT
  5
25731
330
251CE
100
AcDbEntity
  8
AM_5
 62
     2
100
AcDbMText
 10
323.5527852591857
 20
1798.46541122197
 30
0.0
 40
3.200000000000001
 41
0.0
 71
     5
 72
     1
  1
4-%%c4.5×\U+22058.5サラ
 73
     1
 44
1.0
1001
ACAD
1000
MTEXTBEGIN
1070
    73
1070
     1
1070
    44
1040
1.0
1070
    74
1070
     0
1000
MTEXTEND
  0
LINE
  5
25732
330
251CE
100
AcDbEntity
  8
AM_5
100
AcDbLine
 10
291.8541513521947
 20
1817.848443483922
 30
0.0
 11
296.7248746094301
 21
1810.882378960007
 31
0.0
  0
INSERT
  5
25733
330
251CE
100
AcDbEntity
  8
AM_5
100
AcDbBlockReference
  2
GENDOT
 10
291.8541513521947
 20
1817.848443483922
 30
0.0
 41
2.0
 42
2.0
 43
2.0
 50
304.9615272179186
  0
INSERT
  5
25734
330
251CE
100
AcDbEntity
  8
AM_5
100
AcDbBlockReference
  2
GENDOT
 10
296.7248746094301
 20
1810.882378960007
 30
0.0
 41
2.0
 42
2.0
 43
2.0
 50
124.9615272179186
  0
POINT
  5
25735
330
251CE
100
AcDbEntity
  8
Defpoints
 62
     0
100
AcDbPoint
 10
296.7248746094301
 20
1810.882378960007
 30
0.0
  0
POINT
  5
25736
330
251CE
100
AcDbEntity
  8
Defpoints
 62
     0
100
AcDbPoint
 10
291.8541513521947
 20
1817.848443483922
 30
0.0
  0
ENDBLK
  5
251D9
330
251CE
100
AcDbEntity
  8
0
100
AcDbBlockEnd
  0
ENDSEC
  0
SECTION
  2
ENTITIES
  0
AMDTACMWBLOCKBOMENTITY
  5
ED35
330
1F
100
AcDbEntity
  8
AM_5
 48
1.01
 92
        8
310
0800000000000000
  0
AMDTACMWBLOCKBOMENTITY
  5
ED36
330
1F
100
AcDbEntity
  8
AM_5
 48
1.01
 92
        8
310
0800000000000000
  0
AMDTACMWBLOCKBOMENTITY
  5
ED37
330
1F
100
AcDbEntity
  8
AM_5
 48
1.01
 92
        8
310
0800000000000000
  0
AMDTACMWBLOCKBOMENTITY
  5
ED38
330
1F
100
AcDbEntity
  8
AM_5
 48
1.01
 92
        8
310
0800000000000000
  0
AMDTACMWBLOCKBOMENTITY
  5
ED39
330
1F
100
AcDbEntity
  8
AM_5
 48
1.01
 92
        8
310
0800000000000000
  0
AMDTACMWBLOCKBOMENTITY
  5
11514
330
1F
100
AcDbEntity
  8
AM_6
 92
        8
310
0800000000000000
  0
AMDTACMWBLOCKBOMENTITY
  5
11515
330
1F
100
AcDbEntity
  8
AM_5
 92
        8
310
0800000000000000
  0
AMDTACMWBLOCKBOMENTITY
  5
11516
330
1F
100
AcDbEntity
  8
AM_5
 92
        8
310
0800000000000000
  0
AMDTACMWBLOCKBOMENTITY
  5
11517
330
1F
100
AcDbEntity
  8
AM_5
 92
        8
310
0800000000000000
  0
AMDTACMWBLOCKBOMENTITY
  5
11518
330
1F
100
AcDbEntity
  8
AM_5
 92
        8
310
0800000000000000
  0
AMDTACMWBLOCKBOMENTITY
  5
11519
330
1F
100
AcDbEntity
  8
AM_5
 92
        8
310
0800000000000000
  0
AMDTACMWBLOCKBOMENTITY
  5
1151A
330
1F
100
AcDbEntity
  8
AM_5
 92
        8
310
0800000000000000
  0
AMDTACMWBLOCKBOMENTITY
  5
1151B
330
1F
100
AcDbEntity
  8
AM_5
 92
        8
310
0800000000000000
  0
AMDTACMWBLOCKBOMENTITY
  5
1258E
330
1F
100
AcDbEntity
  8
AM_6
 92
        8
310
0800000000000000
  0
AMDTACMWBLOCKBOMENTITY
  5
12BA6
330
1F
100
AcDbEntity
  8
AM_6
 92
        8
310
0800000000000000
  0
AMDTACMWBLOCKBOMENTITY
  5
12E9D
330
1F
100
AcDbEntity
  8
AM_6
 92
        8
310
0800000000000000
  0
AMDTACMWBLOCKBOMENTITY
  5
131E0
330
1F
100
AcDbEntity
  8
AM_6
 92
        8
310
0800000000000000
  0
LINE
  5
24E84
330
1F
100
AcDbEntity
  8
AM_0
100
AcDbLine
 10
80.41061261275206
 20
1757.496582949716
 30
0.0
 11
80.41061261275206
 21
1700.496582949716
 31
0.0
  0
LINE
  5
24E85
330
1F
100
AcDbEntity
  8
AM_0
100
AcDbLine
 10
103.4106126127521
 20
1707.496582949718
 30
0.0
 11
103.410612612752
 21
1650.496582949716
 31
0.0
  0
LINE
  5
24E86
330
1F
100
AcDbEntity
  8
AM_0
100
AcDbLine
 10
231.4106126127522
 20
1700.496582949716
 30
0.0
 11
80.41061261275206
 21
1700.496582949716
 31
0.0
  0
LINE
  5
24E88
330
1F
100
AcDbEntity
  8
size
100
AcDbLine
 10
68.91061261275263
 20
1641.996582949716
 30
0.0
 11
488.9106126127526
 21
1641.996582949716
 31
0.0
1001
GENIUS_GENREC_14
1002
{
1000
PYDIR
1011
68.91061261275268
1021
1938.996582949716
1031
0.0
1002
}
1002
{
1000
PXDIR
1011
488.9106126127526
1021
1641.996582949716
1031
0.0
1002
}
1002
{
1000
PORI
1011
68.91061261275263
1021
1641.996582949716
1031
0.0
1002
}
1002
{
1000
PINS
1011
278.9106126127526
1021
1790.496582949716
1031
0.0
1002
}
1002
{
1000
HVAL
1000
297
1002
}
1002
{
1000
H
1070
     2
1002
}
1002
{
1000
WVAL
1000
420
1002
}
1002
{
1000
W
1070
     2
1002
}
1002
{
1000
C
1070
     4
1002
}
1001
GENIUS_GENOBJ-N-REC_13
1002
{
1000
OWNER
1000
GEN
1002
}
1001
GENIUS_GENODEF_13
1002
{
1000
HIER
1070
     0
1002
}
1002
{
1000
MANEDIT
1070
     0
1002
}
1002
{
1000
NOSEL
1070
     0
1002
}
1002
{
1000
BEHIND
1070
     0
1002
}
1002
{
1000
OTHER
1070
     0
1002
}
1002
{
1000
REACTOR
1002
}
  0
LINE
  5
24E89
330
1F
100
AcDbEntity
  8
size
100
AcDbLine
 10
488.9106126127526
 20
1641.996582949716
 30
0.0
 11
488.9106126127526
 21
1938.996582949716
 31
0.0
1001
GENIUS_GENREC_14
1002
{
1000
PYDIR
1011
68.91061261275268
1021
1938.996582949716
1031
0.0
1002
}
1002
{
1000
PXDIR
1011
488.9106126127526
1021
1641.996582949716
1031
0.0
1002
}
1002
{
1000
PORI
1011
68.91061261275263
1021
1641.996582949716
1031
0.0
1002
}
1002
{
1000
PINS
1011
278.9106126127526
1021
1790.496582949716
1031
0.0
1002
}
1002
{
1000
HVAL
1000
297
1002
}
1002
{
1000
H
1070
     2
1002
}
1002
{
1000
WVAL
1000
420
1002
}
1002
{
1000
W
1070
     2
1002
}
1002
{
1000
C
1070
     4
1002
}
1001
GENIUS_GENOBJ-N-REC_13
1002
{
1000
OWNER
1000
GEN
1002
}
1001
GENIUS_GENODEF_13
1002
{
1000
HIER
1070
     0
1002
}
1002
{
1000
MANEDIT
1070
     0
1002
}
1002
{
1000
NOSEL
1070
     0
1002
}
1002
{
1000
BEHIND
1070
     0
1002
}
1002
{
1000
OTHER
1070
     0
1002
}
1002
{
1000
REACTOR
1002
}
  0
LINE
  5
24E8A
330
1F
100
AcDbEntity
  8
size
100
AcDbLine
 10
488.9106126127526
 20
1938.996582949716
 30
0.0
 11
68.91061261275268
 21
1938.996582949716
 31
0.0
1001
GENIUS_GENREC_14
1002
{
1000
PYDIR
1011
68.91061261275268
1021
1938.996582949716
1031
0.0
1002
}
1002
{
1000
PXDIR
1011
488.9106126127526
1021
1641.996582949716
1031
0.0
1002
}
1002
{
1000
PORI
1011
68.91061261275263
1021
1641.996582949716
1031
0.0
1002
}
1002
{
1000
PINS
1011
278.9106126127526
1021
1790.496582949716
1031
0.0
1002
}
1002
{
1000
HVAL
1000
297
1002
}
1002
{
1000
H
1070
     2
1002
}
1002
{
1000
WVAL
1000
420
1002
}
1002
{
1000
W
1070
     2
1002
}
1002
{
1000
C
1070
     4
1002
}
1001
GENIUS_GENOBJ-N-REC_13
1002
{
1000
OWNER
1000
GEN
1002
}
1001
GENIUS_GENODEF_13
1002
{
1000
HIER
1070
     0
1002
}
1002
{
1000
MANEDIT
1070
     0
1002
}
1002
{
1000
NOSEL
1070
     0
1002
}
1002
{
1000
BEHIND
1070
     0
1002
}
1002
{
1000
OTHER
1070
     0
1002
}
1002
{
1000
REACTOR
1002
}
  0
LINE
  5
24E8B
330
1F
100
AcDbEntity
  8
size
100
AcDbLine
 10
68.91061261275268
 20
1938.996582949716
 30
0.0
 11
68.91061261275263
 21
1641.996582949716
 31
0.0
1001
GENIUS_GENREC_14
1002
{
1000
PYDIR
1011
68.91061261275268
1021
1938.996582949716
1031
0.0
1002
}
1002
{
1000
PXDIR
1011
488.9106126127526
1021
1641.996582949716
1031
0.0
1002
}
1002
{
1000
PORI
1011
68.91061261275263
1021
1641.996582949716
1031
0.0
1002
}
1002
{
1000
PINS
1011
278.9106126127526
1021
1790.496582949716
1031
0.0
1002
}
1002
{
1000
HVAL
1000
297
1002
}
1002
{
1000
H
1070
     2
1002
}
1002
{
1000
WVAL
1000
420
1002
}
1002
{
1000
W
1070
     2
1002
}
1002
{
1000
C
1070
     4
1002
}
1001
GENIUS_GENOBJ-N-REC_13
1002
{
1000
OWNER
1000
GEN
1002
}
1001
GENIUS_GENODEF_13
1002
{
1000
HIER
1070
     0
1002
}
1002
{
1000
MANEDIT
1070
     0
1002
}
1002
{
1000
NOSEL
1070
     0
1002
}
1002
{
1000
BEHIND
1070
     0
1002
}
1002
{
1000
OTHER
1070
     0
1002
}
1002
{
1000
REACTOR
1002
}
  0
LINE
  5
24E8C
330
1F
100
AcDbEntity
  8
waku
100
AcDbLine
 10
477.4106126127526
 20
1650.496582949716
 30
0.0
 11
477.4106126127526
 21
1930.496582949716
 31
0.0
1001
GENIUS_GENREC_14
1002
{
1000
PYDIR
1011
68.91061261275268
1021
1938.996582949716
1031
0.0
1002
}
1002
{
1000
PXDIR
1011
488.9106126127526
1021
1641.996582949716
1031
0.0
1002
}
1002
{
1000
PORI
1011
68.91061261275263
1021
1641.996582949716
1031
0.0
1002
}
1002
{
1000
PINS
1011
278.9106126127526
1021
1790.496582949716
1031
0.0
1002
}
1002
{
1000
HVAL
1000
297
1002
}
1002
{
1000
H
1070
     2
1002
}
1002
{
1000
WVAL
1000
420
1002
}
1002
{
1000
W
1070
     2
1002
}
1002
{
1000
C
1070
     4
1002
}
1001
GENIUS_GENOBJ-N-REC_13
1002
{
1000
OWNER
1000
GEN
1002
}
1001
GENIUS_GENODEF_13
1002
{
1000
HIER
1070
     0
1002
}
1002
{
1000
MANEDIT
1070
     0
1002
}
1002
{
1000
NOSEL
1070
     0
1002
}
1002
{
1000
BEHIND
1070
     0
1002
}
1002
{
1000
OTHER
1070
     0
1002
}
1002
{
1000
REACTOR
1002
}
  0
LINE
  5
24E8D
330
1F
100
AcDbEntity
  8
waku
100
AcDbLine
 10
80.41061261275268
 20
1930.496582949716
 30
0.0
 11
80.41061261275263
 21
1650.496582949716
 31
0.0
1001
GENIUS_GENREC_14
1002
{
1000
PYDIR
1011
68.91061261275268
1021
1938.996582949716
1031
0.0
1002
}
1002
{
1000
PXDIR
1011
488.9106126127526
1021
1641.996582949716
1031
0.0
1002
}
1002
{
1000
PORI
1011
68.91061261275263
1021
1641.996582949716
1031
0.0
1002
}
1002
{
1000
PINS
1011
278.9106126127526
1021
1790.496582949716
1031
0.0
1002
}
1002
{
1000
HVAL
1000
297
1002
}
1002
{
1000
H
1070
     2
1002
}
1002
{
1000
WVAL
1000
420
1002
}
1002
{
1000
W
1070
     2
1002
}
1002
{
1000
C
1070
     4
1002
}
1001
GENIUS_GENOBJ-N-REC_13
1002
{
1000
OWNER
1000
GEN
1002
}
1001
GENIUS_GENODEF_13
1002
{
1000
HIER
1070
     0
1002
}
1002
{
1000
MANEDIT
1070
     0
1002
}
1002
{
1000
NOSEL
1070
     0
1002
}
1002
{
1000
BEHIND
1070
     0
1002
}
1002
{
1000
OTHER
1070
     0
1002
}
1002
{
1000
REACTOR
1002
}
  0
LINE
  5
24E8E
330
1F
100
AcDbEntity
  8
waku
100
AcDbLine
 10
477.4106126127526
 20
1930.496582949716
 30
0.0
 11
80.41061261275268
 21
1930.496582949716
 31
0.0
1001
GENIUS_GENREC_14
1002
{
1000
PYDIR
1011
68.91061261275268
1021
1938.996582949716
1031
0.0
1002
}
1002
{
1000
PXDIR
1011
488.9106126127526
1021
1641.996582949716
1031
0.0
1002
}
1002
{
1000
PORI
1011
68.91061261275263
1021
1641.996582949716
1031
0.0
1002
}
1002
{
1000
PINS
1011
278.9106126127526
1021
1790.496582949716
1031
0.0
1002
}
1002
{
1000
HVAL
1000
297
1002
}
1002
{
1000
H
1070
     2
1002
}
1002
{
1000
WVAL
1000
420
1002
}
1002
{
1000
W
1070
     2
1002
}
1002
{
1000
C
1070
     4
1002
}
1001
GENIUS_GENOBJ-N-REC_13
1002
{
1000
OWNER
1000
GEN
1002
}
1001
GENIUS_GENODEF_13
1002
{
1000
HIER
1070
     0
1002
}
1002
{
1000
MANEDIT
1070
     0
1002
}
1002
{
1000
NOSEL
1070
     0
1002
}
1002
{
1000
BEHIND
1070
     0
1002
}
1002
{
1000
OTHER
1070
     0
1002
}
1002
{
1000
REACTOR
1002
}
  0
LINE
  5
24E8F
330
1F
100
AcDbEntity
  8
waku
100
AcDbLine
 10
80.41061261275263
 20
1650.496582949716
 30
0.0
 11
477.4106126127526
 21
1650.496582949716
 31
0.0
  0
LINE
  5
24E90
330
1F
100
AcDbEntity
  8
0部品4
100
AcDbLine
 10
255.2895129808098
 20
1810.36541122197
 30
0.0
 11
243.2895129808098
 21
1810.36541122197
 31
0.0
  0
LINE
  5
24E91
330
1F
100
AcDbEntity
  8
0部品4
100
AcDbLine
 10
259.2895129808098
 20
1851.36541122197
 30
0.0
 11
259.2895129808098
 21
1843.86541122197
 31
0.0
  0
LINE
  5
24E92
330
1F
100
AcDbEntity
  8
0部品4
100
AcDbLine
 10
243.2895129808098
 20
1855.36541122197
 30
0.0
 11
255.2895129808098
 21
1855.36541122197
 31
0.0
  0
LINE
  5
24E93
330
1F
100
AcDbEntity
  8
0部品4
100
AcDbLine
 10
239.2895129808098
 20
1814.36541122197
 30
0.0
 11
239.2895129808098
 21
1851.36541122197
 31
0.0
  0
ARC
  5
24E94
330
1F
100
AcDbEntity
  8
0部品4
  6
陰線1
 48
0.5
370
    13
100
AcDbCircle
 10
267.9606399808097
 20
1842.17791222197
 30
0.0
 40
4.0
100
AcDbArc
 50
188.7183590000521
 51
269.4394470000098
  0
ARC
  5
24E95
330
1F
100
AcDbEntity
  8
0部品4
100
AcDbCircle
 10
326.5898449808099
 20
1737.702802133338
 30
0.0
 40
18.0
100
AcDbArc
 50
107.2501890000034
 51
171.4580350000202
  0
ARC
  5
24E96
330
1F
100
AcDbEntity
  8
0部品4
100
AcDbCircle
 10
340.2442149808099
 20
1665.262873133338
 30
0.0
 40
91.62034799999998
100
AcDbArc
 50
81.49813599999292
 51
101.9637099999925
  0
ARC
  5
24E97
330
1F
100
AcDbEntity
  8
0部品4
100
AcDbCircle
 10
296.6956319808098
 20
1842.726192221969
 30
0.0
 40
12.440382
100
AcDbArc
 50
28.4900069999845
 51
46.7762749999463
  0
ARC
  5
24E98
330
1F
100
AcDbEntity
  8
0部品4
  6
細線
370
    13
100
AcDbCircle
 10
314.3606219808098
 20
1841.26492922197
 30
0.0
 40
10.0
100
AcDbArc
 50
132.3078099999593
 51
220.8730920000439
  0
ARC
  5
24E99
330
1F
100
AcDbEntity
  8
0部品4
100
AcDbCircle
 10
313.8942899808098
 20
1827.674296221971
 30
0.0
 40
10.0
100
AcDbArc
 50
87.92917799999406
 51
135.1965020000315
  0
ARC
  5
24E9A
330
1F
100
AcDbEntity
  8
0部品4
100
AcDbCircle
 10
314.3421969808098
 20
1856.072444221971
 30
0.0
 40
10.0
100
AcDbArc
 50
227.8347739999738
 51
272.0681210000075
  0
ARC
  5
24E9B
330
1F
100
AcDbEntity
  8
0部品4
100
AcDbCircle
 10
267.8680169808099
 20
1841.99796422197
 30
0.0
 40
4.132551999999999
100
AcDbArc
 50
273.0038110000078
 51
337.6579369999606
  0
ARC
  5
24E9C
330
1F
100
AcDbEntity
  8
0部品4
100
AcDbCircle
 10
287.2895129808098
 20
1834.36541122197
 30
0.0
 40
25.0
100
AcDbArc
 50
44.18968799995419
 51
158.5454180000501
  0
ARC
  5
24E9D
330
1F
100
AcDbEntity
  8
0部品4
  6
細線
370
    13
100
AcDbCircle
 10
287.7895129808099
 20
1833.86541122197
 30
0.0
 40
25.0
100
AcDbArc
 50
45.8103120000366
 51
160.6645940000424
  0
ARC
  5
24E9E
330
1F
100
AcDbEntity
  8
0部品4
100
AcDbCircle
 10
282.7895129808098
 20
1835.86541122197
 30
0.0
 40
12.0
100
AcDbArc
 50
80.73410699999444
 51
157.6579369999605
  0
ARC
  5
24E9F
330
1F
100
AcDbEntity
  8
0部品4
  6
細線
370
    13
100
AcDbCircle
 10
283.7425009808098
 20
1835.43290922197
 30
0.0
 40
13.434625
100
AcDbArc
 50
87.38457500000862
 51
162.3294689999871
  0
LINE
  5
24EA0
330
1F
100
AcDbEntity
  8
0部品4
100
AcDbLine
 10
259.2895129808098
 20
1843.86541122197
 30
0.0
 11
260.2731189808098
 21
1843.68508422197
 31
0.0
  0
LINE
  5
24EA1
330
1F
100
AcDbEntity
  8
0部品4
  6
中心線1
 48
0.5
370
    13
100
AcDbLine
 10
243.2895129808098
 20
1848.86541122197
 30
0.0
 11
255.2895129808098
 21
1848.86541122197
 31
0.0
  0
LINE
  5
24EA2
330
1F
100
AcDbEntity
  8
0部品4
100
AcDbLine
 10
280.7895129808098
 20
1746.876409133339
 30
0.0
 11
281.1668589808098
 21
1749.517831133337
 31
0.0
  0
LINE
  5
24EA3
330
1F
100
AcDbEntity
  8
0部品4
100
AcDbLine
 10
270.7895129808098
 20
1734.376409133339
 30
0.0
 11
300.7895129808098
 21
1734.376409133339
 31
0.0
  0
LINE
  5
24EA4
330
1F
100
AcDbEntity
  8
0部品4
  6
中心線1
 48
0.5
370
    13
100
AcDbLine
 10
294.2895129808098
 20
1808.36541122197
 30
0.0
 11
294.2895129808098
 21
1820.36541122197
 31
0.0
  0
LINE
  5
24EA5
330
1F
100
AcDbEntity
  8
0部品4
  6
細線
370
    13
100
AcDbLine
 10
351.2895129808098
 20
1757.234584133338
 30
0.0
 11
353.7895129808098
 21
1755.876409133338
 31
0.0
  0
LINE
  5
24EA6
330
1F
100
AcDbEntity
  8
0部品4
  6
細線
370
    13
100
AcDbLine
 10
351.2895129808098
 20
1760.201051133338
 30
0.0
 11
353.7895129808098
 21
1760.876409133339
 31
0.0
  0
LINE
  5
24EA7
330
1F
100
AcDbEntity
  8
0部品4
  6
細線
370
    13
100
AcDbLine
 10
351.2895129808098
 20
1757.234584133338
 30
0.0
 11
351.2895129808098
 21
1760.201051133338
 31
0.0
  0
ARC
  5
24EA8
330
1F
100
AcDbEntity
  8
0部品4
  6
細線
370
    13
100
AcDbCircle
 10
301.9917309808097
 20
1754.876409133339
 30
0.0
 40
8.0
100
AcDbArc
 50
270.0
 51
325.0785009999686
  0
ARC
  5
24EA9
330
1F
100
AcDbEntity
  8
0部品4
  6
細線
370
    13
100
AcDbCircle
 10
326.5898449808099
 20
1737.702802133338
 30
0.0
 40
19.0
100
AcDbArc
 50
107.1117950000044
 51
171.9107090000013
  0
ARC
  5
24EAA
330
1F
100
AcDbEntity
  8
0部品4
  6
細線
370
    13
100
AcDbCircle
 10
326.5898449808099
 20
1737.702802133338
 30
0.0
 40
22.0
100
AcDbArc
 50
106.7586489999795
 51
145.0785009999686
  0
ARC
  5
24EAB
330
1F
100
AcDbEntity
  8
0部品4
  6
細線
370
    13
100
AcDbCircle
 10
340.0417859808099
 20
1666.876409133339
 30
0.0
 40
94.0
100
AcDbArc
 50
83.12771099998977
 51
102.156916999997
  0
ARC
  5
24EAC
330
1F
100
AcDbEntity
  8
0部品4
100
AcDbCircle
 10
300.7815669808099
 20
1754.876409133339
 30
0.0
 40
8.0
100
AcDbArc
 50
270.0
 51
326.3590069999842
  0
ARC
  5
24EAD
330
1F
100
AcDbEntity
  8
0部品4
100
AcDbCircle
 10
326.5898449808099
 20
1737.702802133338
 30
0.0
 40
23.0
100
AcDbArc
 50
106.6577129999892
 51
146.3590069999842
  0
ARC
  5
24EAE
330
1F
100
AcDbEntity
  8
0部品4
  6
細線
370
    13
100
AcDbCircle
 10
340.2949369808098
 20
1664.973495133338
 30
0.0
 40
92.913881
100
AcDbArc
 50
83.20422000000762
 51
101.9859509999834
  0
ARC
  5
24EAF
330
1F
100
AcDbEntity
  8
0部品4
100
AcDbCircle
 10
340.0417859808099
 20
1666.876409133339
 30
0.0
 40
95.0
100
AcDbArc
 50
81.67934500000452
 51
102.1809439999947
  0
LINE
  5
24EB0
330
1F
100
AcDbEntity
  8
0部品4
100
AcDbLine
 10
277.7895129808098
 20
1746.876409133339
 30
0.0
 11
290.7895129808098
 21
1746.876409133339
 31
0.0
  0
LINE
  5
24EB1
330
1F
100
AcDbEntity
  8
0部品4
100
AcDbLine
 10
300.7895129808098
 20
1739.376409133338
 30
0.0
 11
270.7895129808098
 21
1739.376409133338
 31
0.0
  0
LINE
  5
24EB2
330
1F
100
AcDbEntity
  8
0部品4
100
AcDbLine
 10
282.1568079808098
 20
1750.376409133339
 30
0.0
 11
289.4222179808098
 21
1750.376409133339
 31
0.0
  0
LINE
  5
24EB3
330
1F
100
AcDbEntity
  8
0部品4
  6
中心線1
 48
0.5
370
    13
100
AcDbLine
 10
277.2895129808098
 20
1808.36541122197
 30
0.0
 11
277.2895129808098
 21
1820.36541122197
 31
0.0
  0
LINE
  5
24EB4
330
1F
100
AcDbEntity
  8
0部品4
100
AcDbLine
 10
276.7895129808098
 20
1740.376409133338
 30
0.0
 11
276.7895129808098
 21
1739.376409133338
 31
0.0
  0
LINE
  5
24EB5
330
1F
100
AcDbEntity
  8
0部品4
100
AcDbLine
 10
294.7895129808098
 20
1740.376409133338
 30
0.0
 11
294.7895129808098
 21
1739.376409133338
 31
0.0
  0
LINE
  5
24EB6
330
1F
100
AcDbEntity
  8
0部品4
  6
中心線1
 48
0.5
370
    13
100
AcDbLine
 10
300.2895129808099
 20
1814.36541122197
 30
0.0
 11
271.2895129808098
 21
1814.36541122197
 31
0.0
  0
LINE
  5
24EB7
330
1F
100
AcDbEntity
  8
0部品4
100
AcDbLine
 10
270.7895129808098
 20
1739.376409133338
 30
0.0
 11
270.7895129808098
 21
1734.376409133339
 31
0.0
  0
LINE
  5
24EB8
330
1F
100
AcDbEntity
  8
0部品4
  6
中心線1
 48
0.5
370
    13
100
AcDbLine
 10
300.2895129808099
 20
1851.36541122197
 30
0.0
 11
271.2895129808098
 21
1851.36541122197
 31
0.0
  0
ARC
  5
24EB9
330
1F
100
AcDbEntity
  8
0部品4
100
AcDbCircle
 10
285.7895129808099
 20
1832.86541122197
 30
0.0
 40
27.5
100
AcDbArc
 50
236.9442689999689
 51
303.0557310000312
  0
ARC
  5
24EBA
330
1F
100
AcDbEntity
  8
0部品4
  6
細線
370
    13
100
AcDbCircle
 10
290.1109589808097
 20
1670.706281133339
 30
0.0
 40
75.09106
100
AcDbArc
 50
99.70045399999905
 51
104.5884280000095
  0
LINE
  5
24EBB
330
1F
100
AcDbEntity
  8
0部品4
100
AcDbLine
 10
277.7895129808098
 20
1746.876409133339
 30
0.0
 11
276.7895129808098
 21
1740.376409133338
 31
0.0
  0
ARC
  5
24EBC
330
1F
100
AcDbEntity
  8
0部品4
100
AcDbCircle
 10
293.3291659808099
 20
1626.876409133339
 30
0.0
 40
120.0
100
AcDbArc
 50
97.51693500000715
 51
101.5562830000193
  0
LINE
  5
24EBD
330
1F
100
AcDbEntity
  8
0部品4
100
AcDbLine
 10
263.7895129808098
 20
1740.376409133338
 30
0.0
 11
264.5585219808097
 21
1743.376409133339
 31
0.0
  0
LINE
  5
24EBE
330
1F
100
AcDbEntity
  8
0部品4
  6
細線
370
    13
100
AcDbLine
 10
271.1974799808097
 20
1743.376409133339
 30
0.0
 11
272.1493929808098
 21
1740.376409133338
 31
0.0
  0
LINE
  5
24EBF
330
1F
100
AcDbEntity
  8
0部品4
  6
細線
370
    13
100
AcDbLine
 10
264.5585219808097
 20
1743.376409133339
 30
0.0
 11
271.1974799808097
 21
1743.376409133339
 31
0.0
  0
LINE
  5
24EC0
330
1F
100
AcDbEntity
  8
0部品4
100
AcDbLine
 10
280.7895129808098
 20
1746.876409133339
 30
0.0
 11
301.9917309808097
 21
1746.876409133339
 31
0.0
  0
LINE
  5
24EC1
330
1F
100
AcDbEntity
  8
0部品4
  6
中心線1
 48
0.5
370
    13
100
AcDbLine
 10
285.7895129808099
 20
1731.376409133338
 30
0.0
 11
285.7895129808099
 21
1751.089548133338
 31
0.0
  0
LINE
  5
24EC2
330
1F
100
AcDbEntity
  8
0部品4
100
AcDbLine
 10
263.7895129808098
 20
1740.376409133338
 30
0.0
 11
308.7895129808098
 21
1740.376409133338
 31
0.0
  0
CIRCLE
  5
24EC3
330
1F
100
AcDbEntity
  8
0部品4
100
AcDbCircle
 10
285.7895129808099
 20
1832.86541122197
 30
0.0
 40
4.099999999999999
  0
ARC
  5
24EC4
330
1F
100
AcDbEntity
  8
0部品4
100
AcDbCircle
 10
310.7781309808097
 20
1807.25625822197
 30
0.0
 40
25.0
100
AcDbArc
 50
112.3635399999679
 51
133.9943260000174
  0
ARC
  5
24EC5
330
1F
100
AcDbEntity
  8
0部品4
100
AcDbCircle
 10
296.3444669808098
 20
1842.33829922197
 30
0.0
 40
12.935211
100
AcDbArc
 50
292.363539999968
 51
323.9227569999477
  0
ARC
  5
24EC6
330
1F
100
AcDbEntity
  8
0部品4
100
AcDbCircle
 10
284.1836559808098
 20
1844.75747722197
 30
0.0
 40
3.0
100
AcDbArc
 50
277.6904749999906
 51
79.66803399999081
  0
CIRCLE
  5
24EC7
330
1F
100
AcDbEntity
  8
0部品4
  6
陰線1
 48
0.5
370
    13
100
AcDbCircle
 10
277.2895129808098
 20
1851.36541122197
 30
0.0
 40
2.25
  0
ARC
  5
24EC8
330
1F
100
AcDbEntity
  8
0部品4
  6
細線
370
    13
100
AcDbCircle
 10
291.3035029808098
 20
1824.52299522197
 30
0.0
 40
2.0
100
AcDbArc
 50
45.00000000000921
 51
123.4630409999897
  0
ARC
  5
24EC9
330
1F
100
AcDbEntity
  8
0部品4
100
AcDbCircle
 10
292.1180299808098
 20
1825.12268122197
 30
0.0
 40
1.0
100
AcDbArc
 50
45.00000000000921
 51
129.2608299999753
  0
ARC
  5
24ECA
330
1F
100
AcDbEntity
  8
0部品4
  6
細線
370
    13
100
AcDbCircle
 10
284.1836559808098
 20
1844.75747722197
 30
0.0
 40
4.099668
100
AcDbArc
 50
287.9877690000094
 51
87.59696399999389
  0
ARC
  5
24ECB
330
1F
100
AcDbEntity
  8
0部品4
100
AcDbCircle
 10
350.3278609808099
 20
1839.36541122197
 30
0.0
 40
3.0
100
AcDbArc
 50
267.929177999994
 51
339.0751680000286
  0
LINE
  5
24ECC
330
1F
100
AcDbEntity
  8
0部品4
100
AcDbLine
 10
350.2194569808098
 20
1836.367371221969
 30
0.0
 11
314.2556379808098
 21
1837.66776522197
 31
0.0
  0
LINE
  5
24ECD
330
1F
100
AcDbEntity
  8
0部品4
100
AcDbLine
 10
350.1114759808097
 20
1847.35759822197
 30
0.0
 11
314.7030739808099
 21
1846.078957221971
 31
0.0
  0
ARC
  5
24ECE
330
1F
100
AcDbEntity
  8
0部品4
100
AcDbCircle
 10
343.7895129808098
 20
1841.86541122197
 30
0.0
 40
10.0
100
AcDbArc
 50
339.0751680000286
 51
20.92483199997138
  0
ARC
  5
24ECF
330
1F
100
AcDbEntity
  8
0部品4
100
AcDbCircle
 10
258.2895129808098
 20
1832.86541122197
 30
0.0
 40
11.0
100
AcDbArc
 50
280.3888580000022
 51
79.61114199999768
  0
LINE
  5
24ED0
330
1F
100
AcDbEntity
  8
0部品4
  6
細線
370
    13
100
AcDbLine
 10
248.9611929808098
 20
1744.376409133339
 30
0.0
 11
259.2895129808098
 21
1744.376409133339
 31
0.0
  0
ARC
  5
24ED1
330
1F
100
AcDbEntity
  8
0部品4
100
AcDbCircle
 10
243.2895129808098
 20
1814.36541122197
 30
0.0
 40
4.0
100
AcDbArc
 50
180.0
 51
270.0
  0
LINE
  5
24ED2
330
1F
100
AcDbEntity
  8
0部品4
100
AcDbLine
 10
239.2895129808098
 20
1734.376409133339
 30
0.0
 11
259.2895129808098
 21
1734.376409133339
 31
0.0
  0
LINE
  5
24ED3
330
1F
100
AcDbEntity
  8
0部品4
100
AcDbLine
 10
239.2895129808098
 20
1739.376409133338
 30
0.0
 11
259.2895129808098
 21
1739.376409133338
 31
0.0
  0
LINE
  5
24ED4
330
1F
100
AcDbEntity
  8
0部品4
  6
中心線1
 48
0.5
370
    13
100
AcDbLine
 10
249.2895129808098
 20
1731.376409133338
 30
0.0
 11
249.2895129808098
 21
1740.876409133339
 31
0.0
  0
CIRCLE
  5
24ED5
330
1F
100
AcDbEntity
  8
0部品4
100
AcDbCircle
 10
294.2895129808098
 20
1814.36541122197
 30
0.0
 40
4.25
  0
CIRCLE
  5
24ED6
330
1F
100
AcDbEntity
  8
0部品4
100
AcDbCircle
 10
294.2895129808098
 20
1814.36541122197
 30
0.0
 40
2.25
  0
LINE
  5
24ED7
330
1F
100
AcDbEntity
  8
0部品4
100
AcDbLine
 10
239.2895129808098
 20
1734.376409133339
 30
0.0
 11
239.2895129808098
 21
1739.376409133338
 31
0.0
  0
LINE
  5
24ED8
330
1F
100
AcDbEntity
  8
0部品4
100
AcDbLine
 10
247.9470659808098
 20
1740.826967133337
 30
0.0
 11
249.3897639808099
 21
1745.876409133339
 31
0.0
  0
LINE
  5
24ED9
330
1F
100
AcDbEntity
  8
0部品4
  6
中心線1
 48
0.5
370
    13
100
AcDbLine
 10
243.2895129808098
 20
1816.86541122197
 30
0.0
 11
255.2895129808098
 21
1816.86541122197
 31
0.0
  0
ARC
  5
24EDA
330
1F
100
AcDbEntity
  8
0部品4
100
AcDbCircle
 10
259.3396389808097
 20
1730.876409133339
 30
0.0
 40
18.0
100
AcDbArc
 50
56.44269000001037
 51
123.5573099999896
  0
ARC
  5
24EDB
330
1F
100
AcDbEntity
  8
0部品4
100
AcDbCircle
 10
246.0240179808097
 20
1741.376409133339
 30
0.0
 40
2.0
100
AcDbArc
 50
270.0
 51
344.0546039999485
  0
LINE
  5
24EDC
330
1F
100
AcDbEntity
  8
0部品4
100
AcDbLine
 10
269.2895129808098
 20
1745.876409133339
 30
0.0
 11
269.2895129808098
 21
1744.376409133339
 31
0.0
  0
CIRCLE
  5
24EDD
330
1F
100
AcDbEntity
  8
0部品4
100
AcDbCircle
 10
277.2895129808098
 20
1814.36541122197
 30
0.0
 40
2.25
  0
LINE
  5
24EDE
330
1F
100
AcDbEntity
  8
0部品4
  6
陰線1
 48
0.5
370
    13
100
AcDbLine
 10
270.7895129808098
 20
1839.075149221969
 30
0.0
 11
270.7895129808098
 21
1853.147051221969
 31
0.0
  0
CIRCLE
  5
24EDF
330
1F
100
AcDbEntity
  8
0部品4
  6
陰線1
 48
0.5
370
    13
100
AcDbCircle
 10
277.2895129808098
 20
1851.36541122197
 30
0.0
 40
4.25
  0
ARC
  5
24EE0
330
1F
100
AcDbEntity
  8
0部品4
100
AcDbCircle
 10
255.2895129808098
 20
1814.36541122197
 30
0.0
 40
4.0
100
AcDbArc
 50
270.0
 51
0.0
  0
CIRCLE
  5
24EE1
330
1F
100
AcDbEntity
  8
0部品4
100
AcDbCircle
 10
249.2895129808098
 20
1848.86541122197
 30
0.0
 40
4.25
  0
ARC
  5
24EE2
330
1F
100
AcDbEntity
  8
0部品4
100
AcDbCircle
 10
255.2895129808098
 20
1851.36541122197
 30
0.0
 40
4.0
100
AcDbArc
 50
0.0
 51
90.0
  0
ARC
  5
24EE3
330
1F
100
AcDbEntity
  8
0部品4
100
AcDbCircle
 10
243.2895129808098
 20
1851.36541122197
 30
0.0
 40
4.0
100
AcDbArc
 50
90.0
 51
180.0
  0
CIRCLE
  5
24EE4
330
1F
100
AcDbEntity
  8
0部品4
100
AcDbCircle
 10
249.2895129808098
 20
1848.86541122197
 30
0.0
 40
2.25
  0
CIRCLE
  5
24EE5
330
1F
100
AcDbEntity
  8
0部品4
100
AcDbCircle
 10
249.2895129808098
 20
1816.86541122197
 30
0.0
 40
2.25
  0
LINE
  5
24EE6
330
1F
100
AcDbEntity
  8
0部品4
100
AcDbLine
 10
269.2895129808098
 20
1745.876409133339
 30
0.0
 11
269.2895129808098
 21
1744.376409133339
 31
0.0
  0
CIRCLE
  5
24EE7
330
1F
100
AcDbEntity
  8
0部品4
100
AcDbCircle
 10
249.2895129808098
 20
1816.86541122197
 30
0.0
 40
4.25
  0
LINE
  5
24EE8
330
1F
100
AcDbEntity
  8
0部品4
100
AcDbLine
 10
292.7177159808098
 20
1825.93720822197
 30
0.0
 11
293.4134519808099
 21
1825.241472221971
 31
0.0
  0
LINE
  5
24EE9
330
1F
100
AcDbEntity
  8
0部品4
100
AcDbLine
 10
353.7895129808098
 20
1755.820212133339
 30
0.0
 11
353.7895129808098
 21
1760.876409133339
 31
0.0
  0
ARC
  5
24EEA
330
1F
100
AcDbEntity
  8
0部品4
100
AcDbCircle
 10
267.8680169808099
 20
1841.99796422197
 30
0.0
 40
4.132551999999999
100
AcDbArc
 50
158.5454180000501
 51
174.2655789999533
  0
ARC
  5
24EEB
330
1F
100
AcDbEntity
  8
0部品4
100
AcDbCircle
 10
350.3278609808099
 20
1844.36541122197
 30
0.0
 40
3.0
100
AcDbArc
 50
20.92483199997138
 51
94.13624300000178
  0
ARC
  5
24EEC
330
1F
100
AcDbEntity
  8
0部品4
100
AcDbCircle
 10
285.7895129808099
 20
1832.86541122197
 30
0.0
 40
9.0
100
AcDbArc
 50
97.69047499999063
 51
309.2608299999753
  0
ARC
  5
24EED
330
1F
100
AcDbEntity
  8
0部品4
  6
細線
370
    13
100
AcDbCircle
 10
285.7895129808099
 20
1832.86541122197
 30
0.0
 40
8.0
100
AcDbArc
 50
92.43453300000201
 51
303.463040999987
  0
ARC
  5
24EEE
330
1F
100
AcDbEntity
  8
0部品4
100
AcDbCircle
 10
293.3291659808099
 20
1626.876409133339
 30
0.0
 40
120.0
100
AcDbArc
 50
101.7158519999891
 51
103.8721029999851
  0
LINE
  5
24EEF
330
1F
100
AcDbEntity
  8
0部品4
100
AcDbLine
 10
259.2895129808098
 20
1744.376409133339
 30
0.0
 11
259.2895129808098
 21
1734.376409133339
 31
0.0
  0
LINE
  5
24EF0
330
1F
100
AcDbEntity
  8
0部品4
100
AcDbLine
 10
247.2284099808098
 20
1825.36541122197
 30
0.0
 11
259.2895129808098
 21
1819.86541122197
 31
0.0
  0
LINE
  5
24EF1
330
1F
100
AcDbEntity
  8
0部品4
  6
細線
370
    13
100
AcDbLine
 10
249.3897639808099
 20
1826.86541122197
 30
0.0
 11
259.2895129808098
 21
1821.86541122197
 31
0.0
  0
LINE
  5
24EF2
330
1F
100
AcDbEntity
  8
0部品4
  6
細線
370
    13
100
AcDbLine
 10
249.3897639808099
 20
1826.86541122197
 30
0.0
 11
247.2284099808098
 21
1825.36541122197
 31
0.0
  0
LINE
  5
24EF3
330
1F
100
AcDbEntity
  8
0部品4
  6
細線
370
    13
100
AcDbLine
 10
249.3897639808099
 20
1838.86541122197
 30
0.0
 11
247.2284099808098
 21
1840.36541122197
 31
0.0
  0
LINE
  5
24EF4
330
1F
100
AcDbEntity
  8
0部品4
100
AcDbLine
 10
247.2284099808098
 20
1840.36541122197
 30
0.0
 11
259.2895129808098
 21
1845.86541122197
 31
0.0
  0
LINE
  5
24EF5
330
1F
100
AcDbEntity
  8
0部品4
  6
細線
370
    13
100
AcDbLine
 10
249.3897639808099
 20
1838.86541122197
 30
0.0
 11
259.2895129808098
 21
1843.86541122197
 31
0.0
  0
LINE
  5
24EF6
330
1F
100
AcDbEntity
  8
0部品4
100
AcDbLine
 10
247.2284099808098
 20
1825.36541122197
 30
0.0
 11
247.2284099808098
 21
1840.36541122197
 31
0.0
  0
LINE
  5
24EF7
330
1F
100
AcDbEntity
  8
0部品4
  6
細線
370
    13
100
AcDbLine
 10
249.3897639808099
 20
1826.86541122197
 30
0.0
 11
249.3897639808099
 21
1838.86541122197
 31
0.0
  0
CIRCLE
  5
24EF8
330
1F
100
AcDbEntity
  8
0部品4
  6
陰線1
 48
0.5
370
    13
100
AcDbCircle
 10
294.2895129808098
 20
1851.36541122197
 30
0.0
 40
4.25
  0
CIRCLE
  5
24EF9
330
1F
100
AcDbEntity
  8
0部品4
  6
陰線1
 48
0.5
370
    13
100
AcDbCircle
 10
294.2895129808098
 20
1851.36541122197
 30
0.0
 40
2.25
  0
CIRCLE
  5
24EFA
330
1F
100
AcDbEntity
  8
0部品4
100
AcDbCircle
 10
277.2895129808098
 20
1814.36541122197
 30
0.0
 40
4.25
  0
LINE
  5
24EFB
330
1F
100
AcDbEntity
  8
0部品4
100
AcDbLine
 10
259.2895129808098
 20
1821.86541122197
 30
0.0
 11
260.2731189808098
 21
1822.045739221971
 31
0.0
  0
LINE
  5
24EFC
330
1F
100
AcDbEntity
  8
0部品4
100
AcDbLine
 10
259.2895129808098
 20
1744.376409133339
 30
0.0
 11
269.2895129808098
 21
1744.376409133339
 31
0.0
  0
LINE
  5
24EFD
330
1F
100
AcDbEntity
  8
0部品4
100
AcDbLine
 10
259.2895129808098
 20
1821.86541122197
 30
0.0
 11
259.2895129808098
 21
1814.36541122197
 31
0.0
  0
ARC
  5
24EFE
330
1F
100
AcDbEntity
  8
0部品4
  6
陰線1
 48
0.5
370
    13
100
AcDbCircle
 10
267.8680169808099
 20
1841.99796422197
 30
0.0
 40
4.132551999999999
100
AcDbArc
 50
174.2655789999533
 51
273.0038110000078
  0
LINE
  5
24EFF
330
1F
100
AcDbEntity
  8
0部品4
  6
陰線1
 48
0.5
370
    13
100
AcDbLine
 10
300.7895129808098
 20
1830.174100221969
 30
0.0
 11
300.7895129808098
 21
1855.40703722197
 31
0.0
  0
ARC
  5
24F00
330
1F
100
AcDbEntity
  8
0部品4
100
AcDbCircle
 10
285.7895129808099
 20
1832.86541122197
 30
0.0
 40
27.5
100
AcDbArc
 50
56.94426899996889
 51
123.0557310000311
  0
LINE
  5
24F01
330
1F
100
AcDbEntity
  8
0部品4
100
AcDbLine
 10
300.7895129808098
 20
1855.40703722197
 30
0.0
 11
300.7895129808098
 21
1855.914273221969
 31
0.0
  0
LINE
  5
24F02
330
1F
100
AcDbEntity
  8
0部品4
  6
中心線1
 48
0.5
370
    13
100
AcDbLine
 10
294.2895129808098
 20
1731.376409133338
 30
0.0
 11
294.2895129808098
 21
1740.876409133339
 31
0.0
  0
LINE
  5
24F03
330
1F
100
AcDbEntity
  8
0部品4
  6
中心線1
 48
0.5
370
    13
100
AcDbLine
 10
277.2895129808098
 20
1740.876409133339
 30
0.0
 11
277.2895129808098
 21
1731.376409133338
 31
0.0
  0
LINE
  5
24F04
330
1F
100
AcDbEntity
  8
0部品4
100
AcDbLine
 10
300.7895129808098
 20
1809.81655022197
 30
0.0
 11
300.7895129808098
 21
1830.174100221969
 31
0.0
  0
LINE
  5
24F05
330
1F
100
AcDbEntity
  8
0部品4
100
AcDbLine
 10
270.7895129808098
 20
1809.81655022197
 30
0.0
 11
270.7895129808098
 21
1839.075149221969
 31
0.0
  0
LINE
  5
24F06
330
1F
100
AcDbEntity
  8
0部品4
  6
中心線1
 48
0.5
370
    13
100
AcDbLine
 10
285.7895129808099
 20
1801.36540622197
 30
0.0
 11
285.7895129808099
 21
1863.487035221969
 31
0.0
  0
LINE
  5
24F07
330
1F
100
AcDbEntity
  8
0部品4
100
AcDbLine
 10
270.7895129808098
 20
1853.147051221969
 30
0.0
 11
270.7895129808098
 21
1855.914273221969
 31
0.0
  0
LINE
  5
24F08
330
1F
100
AcDbEntity
  8
0部品4
  6
中心線1
 48
0.5
370
    13
100
AcDbLine
 10
277.2895129808098
 20
1845.36541122197
 30
0.0
 11
277.2895129808098
 21
1857.36541122197
 31
0.0
  0
ARC
  5
24F09
330
1F
100
AcDbEntity
  8
0部品4
100
AcDbCircle
 10
289.4222179808098
 20
1749.376409133338
 30
0.0
 40
1.0
100
AcDbArc
 50
8.130101999958181
 51
90.0
  0
LINE
  5
24F0A
330
1F
100
AcDbEntity
  8
0部品4
100
AcDbLine
 10
290.7895129808098
 20
1746.876409133339
 30
0.0
 11
290.4121669808098
 21
1749.517831133337
 31
0.0
  0
LINE
  5
24F0B
330
1F
100
AcDbEntity
  8
0部品4
100
AcDbLine
 10
300.7895129808098
 20
1734.376409133339
 30
0.0
 11
300.7895129808098
 21
1739.376409133338
 31
0.0
  0
ARC
  5
24F0C
330
1F
100
AcDbEntity
  8
0部品4
100
AcDbCircle
 10
282.1568079808098
 20
1749.376409133338
 30
0.0
 40
1.0
100
AcDbArc
 50
90.0
 51
171.8698980000418
  0
LINE
  5
24F0D
330
1F
100
AcDbEntity
  8
0部品4
  6
中心線1
 48
0.5
370
    13
100
AcDbLine
 10
294.2895129808098
 20
1845.36541122197
 30
0.0
 11
294.2895129808098
 21
1857.36541122197
 31
0.0
  0
ARC
  5
24F0E
330
1F
100
AcDbEntity
  8
AM_3
 48
0.5
100
AcDbCircle
 10
287.7895129808099
 20
1833.86541122197
 30
0.0
 40
25.0
100
AcDbArc
 50
160.6645940000424
 51
162.0463460000241
  0
ARC
  5
24F0F
330
1F
100
AcDbEntity
  8
0部品4
  6
細線
370
    13
100
AcDbCircle
 10
267.9606399808097
 20
1842.17791222197
 30
0.0
 40
4.0
100
AcDbArc
 50
269.4394470000098
 51
318.1829790000443
  0
DIMENSION
  5
24F10
330
1F
100
AcDbEntity
  8
AM_5
100
AcDbDimension
  2
*D6
 10
353.7895129808098
 20
1884.36541122197
 30
0.0
 11
308.7624889808099
 21
1884.36541122197
 31
0.0
 70
   160
  1
（A）
 71
     5
 42
90.05404799999997
  3
SYS$0
100
AcDbAlignedDimension
 13
263.7354649808099
 23
1841.99796422197
 33
0.0
 14
353.7895129808098
 24
1841.86541122197
 34
0.0
100
AcDbRotatedDimension
1001
ACAD
1000
DSTYLE
1002
{
1070
    47
1040
0.2
1070
    48
1040
-0.2
1070
   271
1070
     1
1002
}
  0
DIMENSION
  5
24F11
330
1F
100
AcDbEntity
  8
AM_5
100
AcDbDimension
  2
*D7
 10
353.78892475978
 20
1876.36541122197
 30
0.0
 11
319.7892188702949
 21
1876.36541122197
 31
0.0
 70
   160
  1
（B）
 71
     5
 42
67.99941177897017
  3
SYS$0
100
AcDbAlignedDimension
 13
285.7895129808099
 23
1863.487035221969
 33
0.0
 14
353.78892475978
 24
1841.765605563092
 34
0.0
100
AcDbRotatedDimension
1001
ACAD
1000
DSTYLE
1002
{
1070
    47
1040
0.2
1070
    48
1040
-0.2
1070
   271
1070
     1
1002
}
  0
DIMENSION
  5
24F12
330
1F
100
AcDbEntity
  8
AM_5
100
AcDbDimension
  2
*D8
 10
371.7895129808083
 20
1805.36541122197
 30
0.0
 11
371.789512980808
 21
1832.86541122197
 31
0.0
 70
   160
  1
F
 71
     5
 42
55.0
  3
SYS$0
100
AcDbAlignedDimension
 13
285.7895129808099
 23
1860.36541122197
 33
0.0
 14
285.7895129808099
 24
1805.36541122197
 34
0.0
 50
90.0
100
AcDbRotatedDimension
1001
ACAD
1000
DSTYLE
1002
{
1070
    47
1040
0.2
1070
    48
1040
-0.2
1070
   271
1070
     1
1002
}
  0
DIMENSION
  5
24F13
330
1F
100
AcDbEntity
  8
AM_5
100
AcDbDimension
  2
*D9
 10
363.7895129808083
 20
1851.36541122197
 30
0.0
 11
363.789512980808
 21
1832.86541122197
 31
0.0
 70
   160
  1
N
 71
     5
 42
37.0
  3
SYS$0
100
AcDbAlignedDimension
 13
300.2895129808099
 23
1814.36541122197
 33
0.0
 14
300.2895129808099
 24
1851.36541122197
 34
0.0
 50
90.0
100
AcDbRotatedDimension
1001
ACAD
1000
DSTYLE
1002
{
1070
    47
1040
0.2
1070
    48
1040
-0.2
1070
   271
1070
     1
1002
}
  0
DIMENSION
  5
24F14
330
1F
100
AcDbEntity
  8
AM_5
100
AcDbDimension
  2
*D10
 10
277.2895129808097
 20
1795.36541122197
 30
0.0
 11
285.7895129808099
 21
1795.36541122197
 31
0.0
 70
   160
  1
M
 71
     5
 42
17.0
  3
SYS$0
100
AcDbAlignedDimension
 13
294.2895129808097
 23
1808.36541122197
 33
0.0
 14
277.2895129808097
 24
1808.36541122197
 34
0.0
100
AcDbRotatedDimension
1001
ACAD
1000
DSTYLE
1002
{
1070
    47
1040
0.2
1070
    48
1040
-0.2
1070
   271
1070
     1
1002
}
  0
DIMENSION
  5
24F15
330
1F
100
AcDbEntity
  8
AM_5
100
AcDbDimension
  2
*D11
 10
300.7895129201318
 20
1787.36541122197
 30
0.0
 11
285.7895129808099
 21
1787.36541122197
 31
0.0
 70
   160
  1
C
 71
     5
 42
29.99999987864408
  3
SYS$0
100
AcDbAlignedDimension
 13
270.7895130414877
 23
1809.81655003925
 33
0.0
 14
300.7895129201318
 24
1809.81655003925
 34
0.0
100
AcDbRotatedDimension
1001
ACAD
1000
DSTYLE
1002
{
1070
    47
1040
0.2
1070
    48
1040
-0.2
1070
   271
1070
     1
1002
}
  0
DIMENSION
  5
24F16
330
1F
100
AcDbEntity
  8
AM_5
100
AcDbDimension
  2
*D12
 10
249.2895129808096
 20
1795.36541122197
 30
0.0
 11
263.2895129808098
 21
1795.36541122197
 31
0.0
 70
   160
  1
（P）
 71
     5
 42
28.00000000000023
  3
SYS$0
100
AcDbAlignedDimension
 13
277.2895129808098
 23
1808.36541122197
 33
0.0
 14
249.2895129808096
 24
1807.36541122197
 34
0.0
100
AcDbRotatedDimension
1001
ACAD
1000
DSTYLE
1002
{
1070
    47
1040
0.2
1070
    48
1040
-0.2
1070
   271
1070
     1
1002
}
  0
LINE
  5
24F17
330
1F
100
AcDbEntity
  8
0部品4
  6
中心線1
 48
0.5
370
    13
100
AcDbLine
 10
249.2895129808098
 20
1858.36541122197
 30
0.0
 11
249.2895129808096
 21
1807.36541122197
 31
0.0
1001
GENIUS_GENODEF_13
1002
{
1000
HIER
1070
     0
1002
}
1002
{
1000
MANEDIT
1070
     0
1002
}
1002
{
1000
NOSEL
1070
     0
1002
}
1002
{
1000
BEHIND
1070
     0
1002
}
1002
{
1000
OTHER
1070
     0
1002
}
1002
{
1000
REACTOR
1002
}
1001
GENIUS_GENOBJ-N-CEN_13
1002
{
1000
OWNER
1000
GEN
1002
}
1001
GENIUS_GENCEN_19
1002
{
1040
3.0
1002
}
  0
LINE
  5
24F18
330
1F
100
AcDbEntity
  8
0部品4
  6
中心線1
 48
0.5
370
    13
100
AcDbLine
 10
236.2895129808098
 20
1832.86541122197
 30
0.0
 11
303.7895129808097
 21
1832.86541122197
 31
0.0
1001
GENIUS_GENOBJ-N-CEN_13
1002
{
1000
OWNER
1000
GEN
1002
}
1001
GENIUS_GENODEF_13
1002
{
1000
HIER
1070
     0
1002
}
1002
{
1000
MANEDIT
1070
     0
1002
}
1002
{
1000
NOSEL
1070
     0
1002
}
1002
{
1000
BEHIND
1070
     0
1002
}
1002
{
1000
OTHER
1070
     0
1002
}
1002
{
1000
REACTOR
1002
}
1001
GENIUS_GENCEN_19
1002
{
1040
3.0
1002
}
  0
DIMENSION
  5
24F19
330
1F
100
AcDbEntity
  8
AM_5
100
AcDbDimension
  2
*D13
 10
229.2895129808101
 20
1816.86541122197
 30
0.0
 11
229.2895129808098
 21
1832.865411221966
 31
0.0
 70
   160
  1
O
 71
     5
 42
32.0
  3
SYS$0
100
AcDbAlignedDimension
 13
243.2895129808098
 23
1848.86541122197
 33
0.0
 14
243.2895129808098
 24
1816.86541122197
 34
0.0
 50
90.0
100
AcDbRotatedDimension
1001
ACAD
1000
DSTYLE
1002
{
1070
    47
1040
0.2
1070
    48
1040
-0.2
1070
   271
1070
     1
1002
}
  0
DIMENSION
  5
24F1A
330
1F
100
AcDbEntity
  8
AM_5
100
AcDbDimension
  2
*D14
 10
221.2895129808101
 20
1855.36541122197
 30
0.0
 11
221.2895129808098
 21
1832.865411221966
 31
0.0
 70
   160
  1
G
 71
     5
 42
45.0
  3
SYS$0
100
AcDbAlignedDimension
 13
243.2895129808098
 23
1810.36541122197
 33
0.0
 14
243.2895129808098
 24
1855.36541122197
 34
0.0
 50
90.0
100
AcDbRotatedDimension
1001
ACAD
1000
DSTYLE
1002
{
1070
    47
1040
0.2
1070
    48
1040
-0.2
1070
   271
1070
     1
1002
}
  0
DIMENSION
  5
24F1B
330
1F
100
AcDbEntity
  8
AM_5
100
AcDbDimension
  2
*D15
 10
259.2895129808098
 20
1868.36541122197
 30
0.0
 11
249.2895129808098
 21
1868.36541122197
 31
0.0
 70
   160
  1
E
 71
     5
 42
20.0
  3
SYS$0
100
AcDbAlignedDimension
 13
239.2895129808098
 23
1851.36541122197
 33
0.0
 14
259.2895129808098
 24
1851.36541122197
 34
0.0
100
AcDbRotatedDimension
1001
ACAD
1000
DSTYLE
1002
{
1070
    47
1040
0.2
1070
    48
1040
-0.2
1070
   271
1070
     1
1002
}
  0
DIMENSION
  5
24F1C
330
1F
100
AcDbEntity
  8
AM_5
100
AcDbDimension
  2
*D16
 10
269.2895129808098
 20
1876.36541122197
 30
0.0
 11
250.9541986773447
 21
1876.36541122197
 31
0.0
 70
   160
  1
D
 71
     5
 42
30.0
  3
SYS$0
100
AcDbAlignedDimension
 13
239.2895129808098
 23
1851.36541122197
 33
0.0
 14
269.2895129808098
 24
1832.86541122197
 34
0.0
100
AcDbRotatedDimension
1001
ACAD
1000
DSTYLE
1002
{
1070
    47
1040
0.2
1070
    48
1040
-0.2
1070
   271
1070
     1
1002
}
  0
DIMENSION
  5
24F1D
330
1F
100
AcDbEntity
  8
AM_5
100
AcDbDimension
  2
*D17
 10
363.7895117774606
 20
1761.876409133338
 30
0.0
 11
363.7895117774604
 21
1747.374975922306
 31
0.0
 70
   160
  1
（H）
 71
     5
 42
27.5
  3
SYS$0
100
AcDbAlignedDimension
 13
300.7895129808098
 23
1734.376409133339
 33
0.0
 14
340.0417859808099
 24
1761.876409133338
 34
0.0
 50
90.0
100
AcDbRotatedDimension
1001
ACAD
1000
DSTYLE
1002
{
1070
    47
1040
0.2
1070
    48
1040
-0.2
1070
   271
1070
     1
1002
}
  0
DIMENSION
  5
24F1E
330
1F
100
AcDbEntity
  8
AM_5
100
AcDbDimension
  2
*D18
 10
318.7895129808083
 20
1739.376409133338
 30
0.0
 11
318.789512980808
 21
1729.343075800004
 31
0.0
 70
   160
  1
J
 71
     5
 42
5.0
  3
SYS$0
100
AcDbAlignedDimension
 13
300.7895129808098
 23
1734.376409133339
 33
0.0
 14
300.7895129808098
 24
1739.376409133338
 34
0.0
 50
90.0
100
AcDbRotatedDimension
1001
ACAD
1000
DSTYLE
1002
{
1070
    47
1040
0.2
1070
    48
1040
-0.2
1070
   271
1070
     1
1002
}
  0
DIMENSION
  5
24F1F
330
1F
100
AcDbEntity
  8
AM_5
100
AcDbDimension
  2
*D19
 10
326.7895129808083
 20
1734.376409133339
 30
0.0
 11
326.789512980808
 21
1740.626409133338
 31
0.0
 70
   160
  1
I
 71
     5
 42
12.5
  3
SYS$0
100
AcDbAlignedDimension
 13
301.9917309808097
 23
1746.876409133339
 33
0.0
 14
300.7895129808098
 24
1734.376409133339
 34
0.0
 50
90.0
100
AcDbRotatedDimension
1001
ACAD
1000
DSTYLE
1002
{
1070
    47
1040
0.2
1070
    48
1040
-0.2
1070
   271
1070
     1
1002
}
  0
DIMENSION
  5
24F20
330
1F
100
AcDbEntity
  8
AM_5
100
AcDbDimension
  2
*D20
 10
229.2895129808101
 20
1739.376409133338
 30
0.0
 11
229.2895129808098
 21
1736.876409133338
 31
0.0
 70
   160
 71
     5
 42
5.0
  3
SYS$0
100
AcDbAlignedDimension
 13
239.2895129808098
 23
1734.376409133339
 33
0.0
 14
239.2895129808098
 24
1739.376409133338
 34
0.0
 50
90.0
100
AcDbRotatedDimension
1001
ACAD
1000
DSTYLE
1002
{
1070
    47
1040
0.2
1070
    48
1040
-0.2
1070
   271
1070
     1
1002
}
  0
DIMENSION
  5
24F21
330
1F
100
AcDbEntity
  8
AM_5
100
AcDbDimension
  2
*D21
 10
221.2895129808083
 20
1744.376409133339
 30
0.0
 11
221.289512980808
 21
1739.376409133338
 31
0.0
 70
   160
  1
L
 71
     5
 42
10.0
  3
SYS$0
100
AcDbAlignedDimension
 13
239.2895129808098
 23
1734.376409133339
 33
0.0
 14
248.9611929808098
 24
1744.376409133339
 34
0.0
 50
90.0
100
AcDbRotatedDimension
1001
ACAD
1000
DSTYLE
1002
{
1070
    47
1040
0.2
1070
    48
1040
-0.2
1070
   271
1070
     1
1002
}
  0
DIMENSION
  5
24F22
330
1F
100
AcDbEntity
  8
AM_5
100
AcDbDimension
  2
*D22
 10
213.2895129808083
 20
1748.876409133339
 30
0.0
 11
213.289512980808
 21
1741.626409133339
 31
0.0
 70
   160
  1
（K）
 71
     5
 42
14.5
  3
SYS$0
100
AcDbAlignedDimension
 13
239.2895129808098
 23
1734.376409133339
 33
0.0
 14
259.3396389808097
 24
1748.876409133339
 34
0.0
 50
90.0
100
AcDbRotatedDimension
1001
ACAD
1000
DSTYLE
1002
{
1070
    47
1040
0.2
1070
    48
1040
-0.2
1070
   271
1070
     1
1002
}
  0
DIMENSION
  5
24F23
330
1F
100
AcDbEntity
  8
AM_5
100
AcDbDimension
  2
*D23
 10
251.1793911071816
 20
1820.672097532602
 30
0.0
 11
222.6372295498277
 21
1795.365411221965
 31
0.0
 70
   163
  1
2-%%c4.5×<>サラ
 71
     5
 42
8.500000000004774
  3
SYS$3
100
AcDbDiametricDimension
 15
247.3996348544397
 25
1813.058724911355
 35
0.0
 40
0.0
1001
ACAD
1000
DSTYLE
1002
{
1070
    47
1040
0.2
1070
    48
1040
-0.2
1070
   172
1070
     1
1070
   271
1070
     1
1070
   342
1005
1D575
1002
}
  0
DIMENSION
  5
24F24
330
1F
100
AcDbEntity
  8
AM_5
100
AcDbDimension
  2
*D24
 10
291.8541513521947
 20
1817.848443483922
 30
0.0
 11
323.5527852591857
 21
1795.36541122197
 31
0.0
 70
   163
  1
4-%%c4.5×<>サラ
 71
     5
 42
8.499999999995679
  3
SYS$3
100
AcDbDiametricDimension
 15
296.7248746094301
 25
1810.882378960007
 35
0.0
 40
0.0
1001
ACAD
1000
DSTYLE
1002
{
1070
    47
1040
0.2
1070
    48
1040
-0.2
1070
   172
1070
     1
1070
   271
1070
     1
1070
   342
1005
1D575
1002
}
  0
LINE
  5
24F25
330
1F
100
AcDbEntity
  8
AM_4
100
AcDbLine
 10
231.4106126127522
 20
1690.496582949716
 30
0.0
 11
80.41061261275206
 21
1690.49658294972
 31
0.0
  0
LINE
  5
24F26
330
1F
100
AcDbEntity
  8
AM_4
100
AcDbLine
 10
231.4106126127522
 20
1680.496582949716
 30
0.0
 11
80.41061261275206
 21
1680.496582949718
 31
0.0
  0
LINE
  5
24F27
330
1F
100
AcDbEntity
  8
AM_4
100
AcDbLine
 10
231.4106126127522
 20
1670.496582949716
 30
0.0
 11
80.41061261275206
 21
1670.496582949718
 31
0.0
  0
LINE
  5
24F28
330
1F
100
AcDbEntity
  8
AM_5
100
AcDbLine
 10
135.410612612752
 20
1707.496582949718
 30
0.0
 11
135.4106126127519
 21
1650.496582949718
 31
0.0
  0
MTEXT
  5
24F29
330
1F
100
AcDbEntity
  8
AM_6
100
AcDbMText
 10
107.4106126127523
 20
1655.496582949718
 30
0.0
 40
3.2
 41
8.000000000000113
 71
     5
 72
     5
  1
175
 73
     1
 44
1.0
1001
ACAD
1000
MTEXTBEGIN
1070
    73
1070
     1
1070
    44
1040
1.0
1070
    74
1070
     0
1000
MTEXTEND
1000
ACAD_MTEXT_DEFINED_HEIGHT_BEGIN
1070
    46
1040
9.999999999999273
1000
ACAD_MTEXT_DEFINED_HEIGHT_END
  0
MTEXT
  5
24F2A
330
1F
100
AcDbEntity
  8
AM_6
100
AcDbMText
 10
115.4106126127523
 20
1655.496582949718
 30
0.0
 40
3.2
 41
7.999999999999886
 71
     5
 72
     5
  1
127
 73
     1
 44
1.0
1001
ACAD
1000
MTEXTBEGIN
1070
    73
1070
     1
1070
    44
1040
1.0
1070
    74
1070
     0
1000
MTEXTEND
1000
ACAD_MTEXT_DEFINED_HEIGHT_BEGIN
1070
    46
1040
10.00000000000109
1000
ACAD_MTEXT_DEFINED_HEIGHT_END
  0
MTEXT
  5
24F2B
330
1F
100
AcDbEntity
  8
AM_6
100
AcDbMText
 10
123.4106126127523
 20
1655.496582949718
 30
0.0
 40
3.2
 41
8.000000000000113
 71
     5
 72
     5
  1
45
 73
     1
 44
1.0
1001
ACAD
1000
MTEXTBEGIN
1070
    73
1070
     1
1070
    44
1040
1.0
1070
    74
1070
     0
1000
MTEXTEND
1000
ACAD_MTEXT_DEFINED_HEIGHT_BEGIN
1070
    46
1040
10.00000000000109
1000
ACAD_MTEXT_DEFINED_HEIGHT_END
  0
LINE
  5
24F2C
330
1F
100
AcDbEntity
  8
AM_4
100
AcDbLine
 10
111.410612612752
 20
1707.496582949718
 30
0.0
 11
111.410612612752
 21
1650.496582949718
 31
0.0
  0
LINE
  5
24F2D
330
1F
100
AcDbEntity
  8
AM_5
100
AcDbLine
 10
127.410612612752
 20
1707.496582949718
 30
0.0
 11
127.4106126127519
 21
1650.496582949718
 31
0.0
  0
LINE
  5
24F2E
330
1F
100
AcDbEntity
  8
AM_5
100
AcDbLine
 10
119.410612612752
 20
1707.496582949718
 30
0.0
 11
119.410612612752
 21
1650.496582949718
 31
0.0
  0
LINE
  5
24F2F
330
1F
100
AcDbEntity
  8
AM_5
100
AcDbLine
 10
143.4106126127521
 20
1707.496582949718
 30
0.0
 11
143.4106126127519
 21
1650.496582949718
 31
0.0
  0
LINE
  5
24F30
330
1F
100
AcDbEntity
  8
AM_5
100
AcDbLine
 10
151.4106126127521
 20
1707.496582949718
 30
0.0
 11
151.410612612752
 21
1650.496582949718
 31
0.0
  0
LINE
  5
24F31
330
1F
100
AcDbEntity
  8
AM_5
100
AcDbLine
 10
159.4106126127521
 20
1707.496582949718
 30
0.0
 11
159.410612612752
 21
1650.496582949718
 31
0.0
  0
LINE
  5
24F32
330
1F
100
AcDbEntity
  8
AM_5
100
AcDbLine
 10
167.4106126127522
 20
1707.496582949718
 30
0.0
 11
167.410612612752
 21
1650.496582949718
 31
0.0
  0
LINE
  5
24F33
330
1F
100
AcDbEntity
  8
AM_5
100
AcDbLine
 10
175.4106126127522
 20
1707.496582949719
 30
0.0
 11
175.410612612752
 21
1650.496582949718
 31
0.0
  0
LINE
  5
24F34
330
1F
100
AcDbEntity
  8
AM_5
100
AcDbLine
 10
183.4106126127522
 20
1707.496582949719
 30
0.0
 11
183.410612612752
 21
1650.496582949718
 31
0.0
  0
LINE
  5
24F35
330
1F
100
AcDbEntity
  8
AM_5
100
AcDbLine
 10
191.4106126127522
 20
1707.496582949719
 30
0.0
 11
191.4106126127521
 21
1650.496582949718
 31
0.0
  0
LINE
  5
24F36
330
1F
100
AcDbEntity
  8
AM_5
100
AcDbLine
 10
199.4106126127522
 20
1707.496582949719
 30
0.0
 11
199.410612612752
 21
1650.496582949718
 31
0.0
  0
LINE
  5
24F37
330
1F
100
AcDbEntity
  8
AM_5
100
AcDbLine
 10
207.4106126127522
 20
1707.496582949719
 30
0.0
 11
207.4106126127522
 21
1650.496582949718
 31
0.0
  0
LINE
  5
24F38
330
1F
100
AcDbEntity
  8
AM_5
100
AcDbLine
 10
215.4106126127522
 20
1707.496582949719
 30
0.0
 11
215.4106126127522
 21
1650.496582949718
 31
0.0
  0
LINE
  5
24F39
330
1F
100
AcDbEntity
  8
AM_5
100
AcDbLine
 10
223.4106126127522
 20
1707.496582949719
 30
0.0
 11
223.4106126127522
 21
1650.496582949718
 31
0.0
  0
LINE
  5
24F3A
330
1F
100
AcDbEntity
  8
AM_0
100
AcDbLine
 10
231.4106126127522
 20
1707.496582949719
 30
0.0
 11
231.4106126127522
 21
1650.496582949718
 31
0.0
  0
LINE
  5
24F3B
330
1F
100
AcDbEntity
  8
AM_4
100
AcDbLine
 10
231.4106126127522
 20
1660.496582949716
 30
0.0
 11
80.41061261275206
 21
1660.496582949718
 31
0.0
  0
MTEXT
  5
24F3C
330
1F
100
AcDbEntity
  8
AM_6
100
AcDbMText
 10
131.4106126127523
 20
1655.496582949718
 30
0.0
 40
3.2
 41
8.000000000000113
 71
     5
 72
     5
  1
40
 73
     1
 44
1.0
1001
ACAD
1000
MTEXTBEGIN
1070
    73
1070
     1
1070
    44
1040
1.0
1070
    74
1070
     0
1000
MTEXTEND
1000
ACAD_MTEXT_DEFINED_HEIGHT_BEGIN
1070
    46
1040
10.00000000000109
1000
ACAD_MTEXT_DEFINED_HEIGHT_END
  0
MTEXT
  5
24F3D
330
1F
100
AcDbEntity
  8
AM_6
100
AcDbMText
 10
139.4106126127523
 20
1655.496582949718
 30
0.0
 40
3.2
 41
8.000000000000113
 71
     5
 72
     5
  1
28
 73
     1
 44
1.0
1001
ACAD
1000
MTEXTBEGIN
1070
    73
1070
     1
1070
    44
1040
1.0
1070
    74
1070
     0
1000
MTEXTEND
1000
ACAD_MTEXT_DEFINED_HEIGHT_BEGIN
1070
    46
1040
10.00000000000109
1000
ACAD_MTEXT_DEFINED_HEIGHT_END
  0
MTEXT
  5
24F3E
330
1F
100
AcDbEntity
  8
AM_6
100
AcDbMText
 10
147.4106126127524
 20
1655.496582949716
 30
0.0
 40
3.2
 41
8.000000000000113
 71
     5
 72
     5
  1
90
 73
     1
 44
1.0
1001
ACAD
1000
MTEXTBEGIN
1070
    73
1070
     1
1070
    44
1040
1.0
1070
    74
1070
     0
1000
MTEXTEND
1000
ACAD_MTEXT_DEFINED_HEIGHT_BEGIN
1070
    46
1040
10.00000000000109
1000
ACAD_MTEXT_DEFINED_HEIGHT_END
  0
MTEXT
  5
24F3F
330
1F
100
AcDbEntity
  8
AM_6
100
AcDbMText
 10
155.4106126127524
 20
1655.496582949716
 30
0.0
 40
3.2
 41
8.000000000000113
 71
     5
 72
     5
  1
52
 73
     1
 44
1.0
1001
ACAD
1000
MTEXTBEGIN
1070
    73
1070
     1
1070
    44
1040
1.0
1070
    74
1070
     0
1000
MTEXTEND
1000
ACAD_MTEXT_DEFINED_HEIGHT_BEGIN
1070
    46
1040
10.00000000000109
1000
ACAD_MTEXT_DEFINED_HEIGHT_END
  0
MTEXT
  5
24F40
330
1F
100
AcDbEntity
  8
AM_6
100
AcDbMText
 10
163.4106126127524
 20
1655.496582949716
 30
0.0
 40
3.2
 41
8.000000000000113
 71
     5
 72
     5
  1
49
 73
     1
 44
1.0
1001
ACAD
1000
MTEXTBEGIN
1070
    73
1070
     1
1070
    44
1040
1.0
1070
    74
1070
     0
1000
MTEXTEND
1000
ACAD_MTEXT_DEFINED_HEIGHT_BEGIN
1070
    46
1040
10.00000000000109
1000
ACAD_MTEXT_DEFINED_HEIGHT_END
  0
MTEXT
  5
24F41
330
1F
100
AcDbEntity
  8
AM_6
100
AcDbMText
 10
171.4106126127524
 20
1655.49658294972
 30
0.0
 40
3.2
 41
8.000000000000113
 71
     5
 72
     5
  1
17
 73
     1
 44
1.0
1001
ACAD
1000
MTEXTBEGIN
1070
    73
1070
     1
1070
    44
1040
1.0
1070
    74
1070
     0
1000
MTEXTEND
1000
ACAD_MTEXT_DEFINED_HEIGHT_BEGIN
1070
    46
1040
10.00000000000109
1000
ACAD_MTEXT_DEFINED_HEIGHT_END
  0
MTEXT
  5
24F42
330
1F
100
AcDbEntity
  8
AM_6
100
AcDbMText
 10
179.4106126127524
 20
1655.49658294972
 30
0.0
 40
3.2
 41
8.000000000000113
 71
     5
 72
     5
  1
6
 73
     1
 44
1.0
1001
ACAD
1000
MTEXTBEGIN
1070
    73
1070
     1
1070
    44
1040
1.0
1070
    74
1070
     0
1000
MTEXTEND
1000
ACAD_MTEXT_DEFINED_HEIGHT_BEGIN
1070
    46
1040
10.00000000000109
1000
ACAD_MTEXT_DEFINED_HEIGHT_END
  0
MTEXT
  5
24F43
330
1F
100
AcDbEntity
  8
AM_6
100
AcDbMText
 10
187.4106126127524
 20
1655.49658294972
 30
0.0
 40
3.2
 41
8.000000000000113
 71
     5
 72
     5
  1
19
 73
     1
 44
1.0
1001
ACAD
1000
MTEXTBEGIN
1070
    73
1070
     1
1070
    44
1040
1.0
1070
    74
1070
     0
1000
MTEXTEND
1000
ACAD_MTEXT_DEFINED_HEIGHT_BEGIN
1070
    46
1040
10.00000000000109
1000
ACAD_MTEXT_DEFINED_HEIGHT_END
  0
MTEXT
  5
24F44
330
1F
100
AcDbEntity
  8
AM_6
100
AcDbMText
 10
195.4106126127524
 20
1655.496582949716
 30
0.0
 40
3.2
 41
8.000000000000113
 71
     5
 72
     5
  1
14
 73
     1
 44
1.0
1001
ACAD
1000
MTEXTBEGIN
1070
    73
1070
     1
1070
    44
1040
1.0
1070
    74
1070
     0
1000
MTEXTEND
1000
ACAD_MTEXT_DEFINED_HEIGHT_BEGIN
1070
    46
1040
10.00000000000109
1000
ACAD_MTEXT_DEFINED_HEIGHT_END
  0
MTEXT
  5
24F45
330
1F
100
AcDbEntity
  8
AM_6
100
AcDbMText
 10
203.4106126127524
 20
1655.496582949721
 30
0.0
 40
3.2
 41
8.000000000000113
 71
     5
 72
     5
  1
34
 73
     1
 44
1.0
1001
ACAD
1000
MTEXTBEGIN
1070
    73
1070
     1
1070
    44
1040
1.0
1070
    74
1070
     0
1000
MTEXTEND
1000
ACAD_MTEXT_DEFINED_HEIGHT_BEGIN
1070
    46
1040
10.00000000000109
1000
ACAD_MTEXT_DEFINED_HEIGHT_END
  0
MTEXT
  5
24F46
330
1F
100
AcDbEntity
  8
AM_6
100
AcDbMText
 10
211.4106126127524
 20
1655.496582949721
 30
0.0
 40
3.2
 41
8.000000000000113
 71
     5
 72
     5
  1
70
 73
     1
 44
1.0
1001
ACAD
1000
MTEXTBEGIN
1070
    73
1070
     1
1070
    44
1040
1.0
1070
    74
1070
     0
1000
MTEXTEND
1000
ACAD_MTEXT_DEFINED_HEIGHT_BEGIN
1070
    46
1040
10.00000000000109
1000
ACAD_MTEXT_DEFINED_HEIGHT_END
  0
MTEXT
  5
24F47
330
1F
100
AcDbEntity
  8
AM_6
100
AcDbMText
 10
219.4106126127524
 20
1655.496582949721
 30
0.0
 40
3.2
 41
8.000000000000113
 71
     5
 72
     5
  1
40
 73
     1
 44
1.0
1001
ACAD
1000
MTEXTBEGIN
1070
    73
1070
     1
1070
    44
1040
1.0
1070
    74
1070
     0
1000
MTEXTEND
1000
ACAD_MTEXT_DEFINED_HEIGHT_BEGIN
1070
    46
1040
10.00000000000109
1000
ACAD_MTEXT_DEFINED_HEIGHT_END
  0
MTEXT
  5
24F48
330
1F
100
AcDbEntity
  8
AM_6
100
AcDbMText
 10
227.4106126127524
 20
1655.496582949721
 30
0.0
 40
3.2
 41
8.000000000000113
 71
     5
 72
     5
  1
43
 73
     1
 44
1.0
1001
ACAD
1000
MTEXTBEGIN
1070
    73
1070
     1
1070
    44
1040
1.0
1070
    74
1070
     0
1000
MTEXTEND
1000
ACAD_MTEXT_DEFINED_HEIGHT_BEGIN
1070
    46
1040
10.00000000000109
1000
ACAD_MTEXT_DEFINED_HEIGHT_END
  0
MTEXT
  5
24F49
330
1F
100
AcDbEntity
  8
AM_6
100
AcDbMText
 10
107.410612612752
 20
1665.496582949716
 30
0.0
 40
3.2
 41
8.000000000000113
 71
     5
 72
     5
  1
142
 73
     1
 44
1.0
1001
ACAD
1000
MTEXTBEGIN
1070
    73
1070
     1
1070
    44
1040
1.0
1070
    74
1070
     0
1000
MTEXTEND
1000
ACAD_MTEXT_DEFINED_HEIGHT_BEGIN
1070
    46
1040
9.999999999999273
1000
ACAD_MTEXT_DEFINED_HEIGHT_END
  0
MTEXT
  5
24F4A
330
1F
100
AcDbEntity
  8
AM_6
100
AcDbMText
 10
115.410612612752
 20
1665.496582949716
 30
0.0
 40
3.2
 41
7.999999999999886
 71
     5
 72
     5
  1
109
 73
     1
 44
1.0
1001
ACAD
1000
MTEXTBEGIN
1070
    73
1070
     1
1070
    44
1040
1.0
1070
    74
1070
     0
1000
MTEXTEND
1000
ACAD_MTEXT_DEFINED_HEIGHT_BEGIN
1070
    46
1040
10.00000000000109
1000
ACAD_MTEXT_DEFINED_HEIGHT_END
  0
MTEXT
  5
24F4B
330
1F
100
AcDbEntity
  8
AM_6
100
AcDbMText
 10
123.410612612752
 20
1665.496582949716
 30
0.0
 40
3.2
 41
8.000000000000113
 71
     5
 72
     5
  1
40
 73
     1
 44
1.0
1001
ACAD
1000
MTEXTBEGIN
1070
    73
1070
     1
1070
    44
1040
1.0
1070
    74
1070
     0
1000
MTEXTEND
1000
ACAD_MTEXT_DEFINED_HEIGHT_BEGIN
1070
    46
1040
10.00000000000109
1000
ACAD_MTEXT_DEFINED_HEIGHT_END
  0
MTEXT
  5
24F4C
330
1F
100
AcDbEntity
  8
AM_6
100
AcDbMText
 10
131.410612612752
 20
1665.496582949716
 30
0.0
 40
3.2
 41
8.000000000000113
 71
     5
 72
     5
  1
35
 73
     1
 44
1.0
1001
ACAD
1000
MTEXTBEGIN
1070
    73
1070
     1
1070
    44
1040
1.0
1070
    74
1070
     0
1000
MTEXTEND
1000
ACAD_MTEXT_DEFINED_HEIGHT_BEGIN
1070
    46
1040
10.00000000000109
1000
ACAD_MTEXT_DEFINED_HEIGHT_END
  0
MTEXT
  5
24F4D
330
1F
100
AcDbEntity
  8
AM_6
100
AcDbMText
 10
139.410612612752
 20
1665.496582949716
 30
0.0
 40
3.2
 41
8.000000000000113
 71
     5
 72
     5
  1
24
 73
     1
 44
1.0
1001
ACAD
1000
MTEXTBEGIN
1070
    73
1070
     1
1070
    44
1040
1.0
1070
    74
1070
     0
1000
MTEXTEND
1000
ACAD_MTEXT_DEFINED_HEIGHT_BEGIN
1070
    46
1040
10.00000000000109
1000
ACAD_MTEXT_DEFINED_HEIGHT_END
  0
MTEXT
  5
24F4E
330
1F
100
AcDbEntity
  8
AM_6
100
AcDbMText
 10
147.4106126127521
 20
1665.496582949714
 30
0.0
 40
3.2
 41
8.000000000000113
 71
     5
 72
     5
  1
80
 73
     1
 44
1.0
1001
ACAD
1000
MTEXTBEGIN
1070
    73
1070
     1
1070
    44
1040
1.0
1070
    74
1070
     0
1000
MTEXTEND
1000
ACAD_MTEXT_DEFINED_HEIGHT_BEGIN
1070
    46
1040
10.00000000000109
1000
ACAD_MTEXT_DEFINED_HEIGHT_END
  0
MTEXT
  5
24F4F
330
1F
100
AcDbEntity
  8
AM_6
100
AcDbMText
 10
155.4106126127521
 20
1665.496582949714
 30
0.0
 40
3.2
 41
8.000000000000113
 71
     5
 72
     5
  1
50
 73
     1
 44
1.0
1001
ACAD
1000
MTEXTBEGIN
1070
    73
1070
     1
1070
    44
1040
1.0
1070
    74
1070
     0
1000
MTEXTEND
1000
ACAD_MTEXT_DEFINED_HEIGHT_BEGIN
1070
    46
1040
10.00000000000109
1000
ACAD_MTEXT_DEFINED_HEIGHT_END
  0
MTEXT
  5
24F50
330
1F
100
AcDbEntity
  8
AM_6
100
AcDbMText
 10
163.4106126127521
 20
1665.496582949714
 30
0.0
 40
3.2
 41
8.000000000000113
 71
     5
 72
     5
  1
43
 73
     1
 44
1.0
1001
ACAD
1000
MTEXTBEGIN
1070
    73
1070
     1
1070
    44
1040
1.0
1070
    74
1070
     0
1000
MTEXTEND
1000
ACAD_MTEXT_DEFINED_HEIGHT_BEGIN
1070
    46
1040
10.00000000000109
1000
ACAD_MTEXT_DEFINED_HEIGHT_END
  0
MTEXT
  5
24F51
330
1F
100
AcDbEntity
  8
AM_6
100
AcDbMText
 10
171.4106126127522
 20
1665.496582949718
 30
0.0
 40
3.2
 41
8.000000000000113
 71
     5
 72
     5
  1
14
 73
     1
 44
1.0
1001
ACAD
1000
MTEXTBEGIN
1070
    73
1070
     1
1070
    44
1040
1.0
1070
    74
1070
     0
1000
MTEXTEND
1000
ACAD_MTEXT_DEFINED_HEIGHT_BEGIN
1070
    46
1040
10.00000000000109
1000
ACAD_MTEXT_DEFINED_HEIGHT_END
  0
MTEXT
  5
24F52
330
1F
100
AcDbEntity
  8
AM_6
100
AcDbMText
 10
187.4106126127522
 20
1665.496582949718
 30
0.0
 40
3.2
 41
8.000000000000113
 71
     5
 72
     5
  1
17
 73
     1
 44
1.0
1001
ACAD
1000
MTEXTBEGIN
1070
    73
1070
     1
1070
    44
1040
1.0
1070
    74
1070
     0
1000
MTEXTEND
1000
ACAD_MTEXT_DEFINED_HEIGHT_BEGIN
1070
    46
1040
10.00000000000109
1000
ACAD_MTEXT_DEFINED_HEIGHT_END
  0
MTEXT
  5
24F53
330
1F
100
AcDbEntity
  8
AM_6
100
AcDbMText
 10
195.4106126127522
 20
1665.496582949714
 30
0.0
 40
3.2
 41
8.000000000000113
 71
     5
 72
     5
  1
12
 73
     1
 44
1.0
1001
ACAD
1000
MTEXTBEGIN
1070
    73
1070
     1
1070
    44
1040
1.0
1070
    74
1070
     0
1000
MTEXTEND
1000
ACAD_MTEXT_DEFINED_HEIGHT_BEGIN
1070
    46
1040
10.00000000000109
1000
ACAD_MTEXT_DEFINED_HEIGHT_END
  0
MTEXT
  5
24F54
330
1F
100
AcDbEntity
  8
AM_6
100
AcDbMText
 10
203.4106126127522
 20
1665.496582949719
 30
0.0
 40
3.2
 41
8.000000000000113
 71
     5
 72
     5
  1
25
 73
     1
 44
1.0
1001
ACAD
1000
MTEXTBEGIN
1070
    73
1070
     1
1070
    44
1040
1.0
1070
    74
1070
     0
1000
MTEXTEND
1000
ACAD_MTEXT_DEFINED_HEIGHT_BEGIN
1070
    46
1040
10.00000000000109
1000
ACAD_MTEXT_DEFINED_HEIGHT_END
  0
MTEXT
  5
24F55
330
1F
100
AcDbEntity
  8
AM_6
100
AcDbMText
 10
211.4106126127522
 20
1665.496582949719
 30
0.0
 40
3.2
 41
8.000000000000113
 71
     5
 72
     5
  1
52
 73
     1
 44
1.0
1001
ACAD
1000
MTEXTBEGIN
1070
    73
1070
     1
1070
    44
1040
1.0
1070
    74
1070
     0
1000
MTEXTEND
1000
ACAD_MTEXT_DEFINED_HEIGHT_BEGIN
1070
    46
1040
10.00000000000109
1000
ACAD_MTEXT_DEFINED_HEIGHT_END
  0
MTEXT
  5
24F56
330
1F
100
AcDbEntity
  8
AM_6
100
AcDbMText
 10
219.4106126127522
 20
1665.496582949719
 30
0.0
 40
3.2
 41
8.000000000000113
 71
     5
 72
     5
  1
34
 73
     1
 44
1.0
1001
ACAD
1000
MTEXTBEGIN
1070
    73
1070
     1
1070
    44
1040
1.0
1070
    74
1070
     0
1000
MTEXTEND
1000
ACAD_MTEXT_DEFINED_HEIGHT_BEGIN
1070
    46
1040
10.00000000000109
1000
ACAD_MTEXT_DEFINED_HEIGHT_END
  0
MTEXT
  5
24F57
330
1F
100
AcDbEntity
  8
AM_6
100
AcDbMText
 10
227.4106126127522
 20
1665.496582949719
 30
0.0
 40
3.2
 41
8.000000000000113
 71
     5
 72
     5
  1
34
 73
     1
 44
1.0
1001
ACAD
1000
MTEXTBEGIN
1070
    73
1070
     1
1070
    44
1040
1.0
1070
    74
1070
     0
1000
MTEXTEND
1000
ACAD_MTEXT_DEFINED_HEIGHT_BEGIN
1070
    46
1040
10.00000000000109
1000
ACAD_MTEXT_DEFINED_HEIGHT_END
  0
MTEXT
  5
24F58
330
1F
100
AcDbEntity
  8
AM_6
100
AcDbMText
 10
227.4106126127522
 20
1675.496582949721
 30
0.0
 40
3.2
 41
8.000000000000113
 71
     5
 72
     5
  1
30
 73
     1
 44
1.0
1001
ACAD
1000
MTEXTBEGIN
1070
    73
1070
     1
1070
    44
1040
1.0
1070
    74
1070
     0
1000
MTEXTEND
1000
ACAD_MTEXT_DEFINED_HEIGHT_BEGIN
1070
    46
1040
10.00000000000109
1000
ACAD_MTEXT_DEFINED_HEIGHT_END
  0
MTEXT
  5
24F59
330
1F
100
AcDbEntity
  8
AM_6
100
AcDbMText
 10
227.4106126127522
 20
1685.496582949723
 30
0.0
 40
3.2
 41
8.000000000000113
 71
     5
 72
     5
  1
28
 73
     1
 44
1.0
1001
ACAD
1000
MTEXTBEGIN
1070
    73
1070
     1
1070
    44
1040
1.0
1070
    74
1070
     0
1000
MTEXTEND
1000
ACAD_MTEXT_DEFINED_HEIGHT_BEGIN
1070
    46
1040
10.00000000000109
1000
ACAD_MTEXT_DEFINED_HEIGHT_END
  0
MTEXT
  5
24F5A
330
1F
100
AcDbEntity
  8
AM_6
100
AcDbMText
 10
227.4106126127522
 20
1695.496582949723
 30
0.0
 40
3.2
 41
8.000000000000113
 71
     5
 72
     5
  1
28
 73
     1
 44
1.0
1001
ACAD
1000
MTEXTBEGIN
1070
    73
1070
     1
1070
    44
1040
1.0
1070
    74
1070
     0
1000
MTEXTEND
1000
ACAD_MTEXT_DEFINED_HEIGHT_BEGIN
1070
    46
1040
10.00000000000109
1000
ACAD_MTEXT_DEFINED_HEIGHT_END
  0
MTEXT
  5
24F5B
330
1F
100
AcDbEntity
  8
AM_6
100
AcDbMText
 10
107.4106126127519
 20
1675.49658294972
 30
0.0
 40
3.2
 41
8.000000000000113
 71
     5
 72
     5
  1
127
 73
     1
 44
1.0
1001
ACAD
1000
MTEXTBEGIN
1070
    73
1070
     1
1070
    44
1040
1.0
1070
    74
1070
     0
1000
MTEXTEND
1000
ACAD_MTEXT_DEFINED_HEIGHT_BEGIN
1070
    46
1040
9.999999999999273
1000
ACAD_MTEXT_DEFINED_HEIGHT_END
  0
MTEXT
  5
24F5C
330
1F
100
AcDbEntity
  8
AM_6
100
AcDbMText
 10
107.410612612752
 20
1685.49658294972
 30
0.0
 40
3.2
 41
8.000000000000113
 71
     5
 72
     5
  1
112
 73
     1
 44
1.0
1001
ACAD
1000
MTEXTBEGIN
1070
    73
1070
     1
1070
    44
1040
1.0
1070
    74
1070
     0
1000
MTEXTEND
1000
ACAD_MTEXT_DEFINED_HEIGHT_BEGIN
1070
    46
1040
9.999999999999273
1000
ACAD_MTEXT_DEFINED_HEIGHT_END
  0
MTEXT
  5
24F5D
330
1F
100
AcDbEntity
  8
AM_6
100
AcDbMText
 10
107.410612612752
 20
1695.496582949718
 30
0.0
 40
3.2
 41
8.000000000000113
 71
     5
 72
     5
  1
93
 73
     1
 44
1.0
1001
ACAD
1000
MTEXTBEGIN
1070
    73
1070
     1
1070
    44
1040
1.0
1070
    74
1070
     0
1000
MTEXTEND
1000
ACAD_MTEXT_DEFINED_HEIGHT_BEGIN
1070
    46
1040
9.999999999999273
1000
ACAD_MTEXT_DEFINED_HEIGHT_END
  0
MTEXT
  5
24F5E
330
1F
100
AcDbEntity
  8
AM_6
100
AcDbMText
 10
115.4106126127519
 20
1675.49658294972
 30
0.0
 40
3.2
 41
7.999999999999886
 71
     5
 72
     5
  1
98
 73
     1
 44
1.0
1001
ACAD
1000
MTEXTBEGIN
1070
    73
1070
     1
1070
    44
1040
1.0
1070
    74
1070
     0
1000
MTEXTEND
1000
ACAD_MTEXT_DEFINED_HEIGHT_BEGIN
1070
    46
1040
10.00000000000109
1000
ACAD_MTEXT_DEFINED_HEIGHT_END
  0
MTEXT
  5
24F5F
330
1F
100
AcDbEntity
  8
AM_6
100
AcDbMText
 10
115.410612612752
 20
1685.49658294972
 30
0.0
 40
3.2
 41
7.999999999999886
 71
     5
 72
     5
  1
84
 73
     1
 44
1.0
1001
ACAD
1000
MTEXTBEGIN
1070
    73
1070
     1
1070
    44
1040
1.0
1070
    74
1070
     0
1000
MTEXTEND
1000
ACAD_MTEXT_DEFINED_HEIGHT_BEGIN
1070
    46
1040
10.00000000000109
1000
ACAD_MTEXT_DEFINED_HEIGHT_END
  0
MTEXT
  5
24F60
330
1F
100
AcDbEntity
  8
AM_6
100
AcDbMText
 10
115.410612612752
 20
1695.496582949718
 30
0.0
 40
3.2
 41
7.999999999999886
 71
     5
 72
     5
  1
68
 73
     1
 44
1.0
1001
ACAD
1000
MTEXTBEGIN
1070
    73
1070
     1
1070
    44
1040
1.0
1070
    74
1070
     0
1000
MTEXTEND
1000
ACAD_MTEXT_DEFINED_HEIGHT_BEGIN
1070
    46
1040
10.00000000000109
1000
ACAD_MTEXT_DEFINED_HEIGHT_END
  0
MTEXT
  5
24F61
330
1F
100
AcDbEntity
  8
AM_6
100
AcDbMText
 10
123.410612612752
 20
1675.496582949718
 30
0.0
 40
3.2
 41
8.000000000000113
 71
     5
 72
     5
  1
32
 73
     1
 44
1.0
1001
ACAD
1000
MTEXTBEGIN
1070
    73
1070
     1
1070
    44
1040
1.0
1070
    74
1070
     0
1000
MTEXTEND
1000
ACAD_MTEXT_DEFINED_HEIGHT_BEGIN
1070
    46
1040
10.00000000000109
1000
ACAD_MTEXT_DEFINED_HEIGHT_END
  0
MTEXT
  5
24F62
330
1F
100
AcDbEntity
  8
AM_6
100
AcDbMText
 10
123.410612612752
 20
1685.49658294972
 30
0.0
 40
3.2
 41
8.000000000000113
 71
     5
 72
     5
  1
30
 73
     1
 44
1.0
1001
ACAD
1000
MTEXTBEGIN
1070
    73
1070
     1
1070
    44
1040
1.0
1070
    74
1070
     0
1000
MTEXTEND
1000
ACAD_MTEXT_DEFINED_HEIGHT_BEGIN
1070
    46
1040
10.00000000000109
1000
ACAD_MTEXT_DEFINED_HEIGHT_END
  0
MTEXT
  5
24F63
330
1F
100
AcDbEntity
  8
AM_6
100
AcDbMText
 10
123.4106126127518
 20
1695.49658294972
 30
0.0
 40
3.2
 41
8.000000000000113
 71
     5
 72
     5
  1
30
 73
     1
 44
1.0
1001
ACAD
1000
MTEXTBEGIN
1070
    73
1070
     1
1070
    44
1040
1.0
1070
    74
1070
     0
1000
MTEXTEND
1000
ACAD_MTEXT_DEFINED_HEIGHT_BEGIN
1070
    46
1040
10.00000000000109
1000
ACAD_MTEXT_DEFINED_HEIGHT_END
  0
MTEXT
  5
24F64
330
1F
100
AcDbEntity
  8
AM_6
100
AcDbMText
 10
131.410612612752
 20
1675.49658294972
 30
0.0
 40
3.2
 41
8.000000000000113
 71
     5
 72
     5
  1
32
 73
     1
 44
1.0
1001
ACAD
1000
MTEXTBEGIN
1070
    73
1070
     1
1070
    44
1040
1.0
1070
    74
1070
     0
1000
MTEXTEND
1000
ACAD_MTEXT_DEFINED_HEIGHT_BEGIN
1070
    46
1040
10.00000000000109
1000
ACAD_MTEXT_DEFINED_HEIGHT_END
  0
MTEXT
  5
24F65
330
1F
100
AcDbEntity
  8
AM_6
100
AcDbMText
 10
131.4106126127519
 20
1685.496582949722
 30
0.0
 40
3.2
 41
8.000000000000113
 71
     5
 72
     5
  1
30
 73
     1
 44
1.0
1001
ACAD
1000
MTEXTBEGIN
1070
    73
1070
     1
1070
    44
1040
1.0
1070
    74
1070
     0
1000
MTEXTEND
1000
ACAD_MTEXT_DEFINED_HEIGHT_BEGIN
1070
    46
1040
10.00000000000109
1000
ACAD_MTEXT_DEFINED_HEIGHT_END
  0
MTEXT
  5
24F66
330
1F
100
AcDbEntity
  8
AM_6
100
AcDbMText
 10
131.4106126127518
 20
1695.496582949721
 30
0.0
 40
3.2
 41
8.000000000000113
 71
     5
 72
     5
  1
30
 73
     1
 44
1.0
1001
ACAD
1000
MTEXTBEGIN
1070
    73
1070
     1
1070
    44
1040
1.0
1070
    74
1070
     0
1000
MTEXTEND
1000
ACAD_MTEXT_DEFINED_HEIGHT_BEGIN
1070
    46
1040
10.00000000000109
1000
ACAD_MTEXT_DEFINED_HEIGHT_END
  0
MTEXT
  5
24F67
330
1F
100
AcDbEntity
  8
AM_6
100
AcDbMText
 10
139.410612612752
 20
1675.49658294972
 30
0.0
 40
3.2
 41
8.000000000000113
 71
     5
 72
     5
  1
23
 73
     1
 44
1.0
1001
ACAD
1000
MTEXTBEGIN
1070
    73
1070
     1
1070
    44
1040
1.0
1070
    74
1070
     0
1000
MTEXTEND
1000
ACAD_MTEXT_DEFINED_HEIGHT_BEGIN
1070
    46
1040
10.00000000000109
1000
ACAD_MTEXT_DEFINED_HEIGHT_END
  0
MTEXT
  5
24F68
330
1F
100
AcDbEntity
  8
AM_6
100
AcDbMText
 10
139.4106126127519
 20
1685.496582949722
 30
0.0
 40
3.2
 41
8.000000000000113
 71
     5
 72
     5
  1
20
 73
     1
 44
1.0
1001
ACAD
1000
MTEXTBEGIN
1070
    73
1070
     1
1070
    44
1040
1.0
1070
    74
1070
     0
1000
MTEXTEND
1000
ACAD_MTEXT_DEFINED_HEIGHT_BEGIN
1070
    46
1040
10.00000000000109
1000
ACAD_MTEXT_DEFINED_HEIGHT_END
  0
MTEXT
  5
24F69
330
1F
100
AcDbEntity
  8
AM_6
100
AcDbMText
 10
139.4106126127518
 20
1695.496582949721
 30
0.0
 40
3.2
 41
8.000000000000113
 71
     5
 72
     5
  1
20
 73
     1
 44
1.0
1001
ACAD
1000
MTEXTBEGIN
1070
    73
1070
     1
1070
    44
1040
1.0
1070
    74
1070
     0
1000
MTEXTEND
1000
ACAD_MTEXT_DEFINED_HEIGHT_BEGIN
1070
    46
1040
10.00000000000109
1000
ACAD_MTEXT_DEFINED_HEIGHT_END
  0
MTEXT
  5
24F6A
330
1F
100
AcDbEntity
  8
AM_6
100
AcDbMText
 10
147.4106126127521
 20
1675.49658294972
 30
0.0
 40
3.2
 41
8.000000000000113
 71
     5
 72
     5
  1
65
 73
     1
 44
1.0
1001
ACAD
1000
MTEXTBEGIN
1070
    73
1070
     1
1070
    44
1040
1.0
1070
    74
1070
     0
1000
MTEXTEND
1000
ACAD_MTEXT_DEFINED_HEIGHT_BEGIN
1070
    46
1040
10.00000000000109
1000
ACAD_MTEXT_DEFINED_HEIGHT_END
  0
MTEXT
  5
24F6B
330
1F
100
AcDbEntity
  8
AM_6
100
AcDbMText
 10
147.4106126127521
 20
1685.496582949722
 30
0.0
 40
3.2
 41
8.000000000000113
 71
     5
 72
     5
  1
60
 73
     1
 44
1.0
1001
ACAD
1000
MTEXTBEGIN
1070
    73
1070
     1
1070
    44
1040
1.0
1070
    74
1070
     0
1000
MTEXTEND
1000
ACAD_MTEXT_DEFINED_HEIGHT_BEGIN
1070
    46
1040
10.00000000000109
1000
ACAD_MTEXT_DEFINED_HEIGHT_END
  0
MTEXT
  5
24F6C
330
1F
100
AcDbEntity
  8
AM_6
100
AcDbMText
 10
147.4106126127519
 20
1695.496582949721
 30
0.0
 40
3.2
 41
8.000000000000113
 71
     5
 72
     5
  1
55
 73
     1
 44
1.0
1001
ACAD
1000
MTEXTBEGIN
1070
    73
1070
     1
1070
    44
1040
1.0
1070
    74
1070
     0
1000
MTEXTEND
1000
ACAD_MTEXT_DEFINED_HEIGHT_BEGIN
1070
    46
1040
10.00000000000109
1000
ACAD_MTEXT_DEFINED_HEIGHT_END
  0
MTEXT
  5
24F6D
330
1F
100
AcDbEntity
  8
AM_6
100
AcDbMText
 10
155.4106126127521
 20
1675.49658294972
 30
0.0
 40
3.2
 41
8.000000000000113
 71
     5
 72
     5
  1
50
 73
     1
 44
1.0
1001
ACAD
1000
MTEXTBEGIN
1070
    73
1070
     1
1070
    44
1040
1.0
1070
    74
1070
     0
1000
MTEXTEND
1000
ACAD_MTEXT_DEFINED_HEIGHT_BEGIN
1070
    46
1040
10.00000000000109
1000
ACAD_MTEXT_DEFINED_HEIGHT_END
  0
MTEXT
  5
24F6E
330
1F
100
AcDbEntity
  8
AM_6
100
AcDbMText
 10
155.4106126127521
 20
1685.496582949722
 30
0.0
 40
3.2
 41
8.000000000000113
 71
     5
 72
     5
  1
45
 73
     1
 44
1.0
1001
ACAD
1000
MTEXTBEGIN
1070
    73
1070
     1
1070
    44
1040
1.0
1070
    74
1070
     0
1000
MTEXTEND
1000
ACAD_MTEXT_DEFINED_HEIGHT_BEGIN
1070
    46
1040
10.00000000000109
1000
ACAD_MTEXT_DEFINED_HEIGHT_END
  0
MTEXT
  5
24F6F
330
1F
100
AcDbEntity
  8
AM_6
100
AcDbMText
 10
155.4106126127519
 20
1695.496582949721
 30
0.0
 40
3.2
 41
8.000000000000113
 71
     5
 72
     5
  1
45
 73
     1
 44
1.0
1001
ACAD
1000
MTEXTBEGIN
1070
    73
1070
     1
1070
    44
1040
1.0
1070
    74
1070
     0
1000
MTEXTEND
1000
ACAD_MTEXT_DEFINED_HEIGHT_BEGIN
1070
    46
1040
10.00000000000109
1000
ACAD_MTEXT_DEFINED_HEIGHT_END
  0
MTEXT
  5
24F70
330
1F
100
AcDbEntity
  8
AM_6
100
AcDbMText
 10
163.4106126127521
 20
1675.49658294972
 30
0.0
 40
3.2
 41
8.000000000000113
 71
     5
 72
     5
  1
36
 73
     1
 44
1.0
1001
ACAD
1000
MTEXTBEGIN
1070
    73
1070
     1
1070
    44
1040
1.0
1070
    74
1070
     0
1000
MTEXTEND
1000
ACAD_MTEXT_DEFINED_HEIGHT_BEGIN
1070
    46
1040
10.00000000000109
1000
ACAD_MTEXT_DEFINED_HEIGHT_END
  0
MTEXT
  5
24F71
330
1F
100
AcDbEntity
  8
AM_6
100
AcDbMText
 10
163.4106126127521
 20
1685.496582949722
 30
0.0
 40
3.2
 41
8.000000000000113
 71
     5
 72
     5
  1
35
 73
     1
 44
1.0
1001
ACAD
1000
MTEXTBEGIN
1070
    73
1070
     1
1070
    44
1040
1.0
1070
    74
1070
     0
1000
MTEXTEND
1000
ACAD_MTEXT_DEFINED_HEIGHT_BEGIN
1070
    46
1040
10.00000000000109
1000
ACAD_MTEXT_DEFINED_HEIGHT_END
  0
MTEXT
  5
24F72
330
1F
100
AcDbEntity
  8
AM_6
100
AcDbMText
 10
163.4106126127519
 20
1695.496582949721
 30
0.0
 40
3.2
 41
8.000000000000113
 71
     5
 72
     5
  1
28
 73
     1
 44
1.0
1001
ACAD
1000
MTEXTBEGIN
1070
    73
1070
     1
1070
    44
1040
1.0
1070
    74
1070
     0
1000
MTEXTEND
1000
ACAD_MTEXT_DEFINED_HEIGHT_BEGIN
1070
    46
1040
10.00000000000109
1000
ACAD_MTEXT_DEFINED_HEIGHT_END
  0
MTEXT
  5
24F73
330
1F
100
AcDbEntity
  8
AM_6
100
AcDbMText
 10
171.4106126127522
 20
1675.496582949721
 30
0.0
 40
3.2
 41
8.000000000000113
 71
     5
 72
     5
  1
14
 73
     1
 44
1.0
1001
ACAD
1000
MTEXTBEGIN
1070
    73
1070
     1
1070
    44
1040
1.0
1070
    74
1070
     0
1000
MTEXTEND
1000
ACAD_MTEXT_DEFINED_HEIGHT_BEGIN
1070
    46
1040
10.00000000000109
1000
ACAD_MTEXT_DEFINED_HEIGHT_END
  0
MTEXT
  5
24F74
330
1F
100
AcDbEntity
  8
AM_6
100
AcDbMText
 10
171.4106126127522
 20
1685.496582949723
 30
0.0
 40
3.2
 41
8.000000000000113
 71
     5
 72
     5
  1
13
 73
     1
 44
1.0
1001
ACAD
1000
MTEXTBEGIN
1070
    73
1070
     1
1070
    44
1040
1.0
1070
    74
1070
     0
1000
MTEXTEND
1000
ACAD_MTEXT_DEFINED_HEIGHT_BEGIN
1070
    46
1040
10.00000000000109
1000
ACAD_MTEXT_DEFINED_HEIGHT_END
  0
MTEXT
  5
24F75
330
1F
100
AcDbEntity
  8
AM_6
100
AcDbMText
 10
171.4106126127519
 20
1695.496582949723
 30
0.0
 40
3.2
 41
8.000000000000113
 71
     5
 72
     5
  1
12.5
 73
     1
 44
1.0
1001
ACAD
1000
MTEXTBEGIN
1070
    73
1070
     1
1070
    44
1040
1.0
1070
    74
1070
     0
1000
MTEXTEND
1000
ACAD_MTEXT_DEFINED_HEIGHT_BEGIN
1070
    46
1040
10.00000000000109
1000
ACAD_MTEXT_DEFINED_HEIGHT_END
  0
MTEXT
  5
24F76
330
1F
100
AcDbEntity
  8
AM_6
100
AcDbMText
 10
179.4106126127521
 20
1675.49658294972
 30
0.0
 40
3.2
 41
8.000000000000113
 71
     5
 72
     5
  1
5
 73
     1
 44
1.0
1001
ACAD
1000
MTEXTBEGIN
1070
    73
1070
     1
1070
    44
1040
1.0
1070
    74
1070
     0
1000
MTEXTEND
1000
ACAD_MTEXT_DEFINED_HEIGHT_BEGIN
1070
    46
1040
10.00000000000109
1000
ACAD_MTEXT_DEFINED_HEIGHT_END
  0
MTEXT
  5
24F77
330
1F
100
AcDbEntity
  8
AM_6
100
AcDbMText
 10
179.4106126127521
 20
1685.496582949722
 30
0.0
 40
3.2
 41
8.000000000000113
 71
     5
 72
     5
  1
5
 73
     1
 44
1.0
1001
ACAD
1000
MTEXTBEGIN
1070
    73
1070
     1
1070
    44
1040
1.0
1070
    74
1070
     0
1000
MTEXTEND
1000
ACAD_MTEXT_DEFINED_HEIGHT_BEGIN
1070
    46
1040
10.00000000000109
1000
ACAD_MTEXT_DEFINED_HEIGHT_END
  0
MTEXT
  5
24F78
330
1F
100
AcDbEntity
  8
AM_6
100
AcDbMText
 10
179.4106126127523
 20
1695.496582949721
 30
0.0
 40
3.2
 41
8.000000000000113
 71
     5
 72
     5
  1
5
 73
     1
 44
1.0
1001
ACAD
1000
MTEXTBEGIN
1070
    73
1070
     1
1070
    44
1040
1.0
1070
    74
1070
     0
1000
MTEXTEND
1000
ACAD_MTEXT_DEFINED_HEIGHT_BEGIN
1070
    46
1040
10.00000000000109
1000
ACAD_MTEXT_DEFINED_HEIGHT_END
  0
MTEXT
  5
24F79
330
1F
100
AcDbEntity
  8
AM_6
100
AcDbMText
 10
187.4106126127522
 20
1695.496582949721
 30
0.0
 40
3.2
 41
8.000000000000113
 71
     5
 72
     5
  1
14.5
 73
     1
 44
1.0
1001
ACAD
1000
MTEXTBEGIN
1070
    73
1070
     1
1070
    44
1040
1.0
1070
    74
1070
     0
1000
MTEXTEND
1000
ACAD_MTEXT_DEFINED_HEIGHT_BEGIN
1070
    46
1040
10.00000000000109
1000
ACAD_MTEXT_DEFINED_HEIGHT_END
  0
MTEXT
  5
24F7A
330
1F
100
AcDbEntity
  8
AM_6
100
AcDbMText
 10
187.4106126127524
 20
1685.49658294972
 30
0.0
 40
3.2
 41
8.000000000000113
 71
     5
 72
     5
  1
14.5
 73
     1
 44
1.0
1001
ACAD
1000
MTEXTBEGIN
1070
    73
1070
     1
1070
    44
1040
1.0
1070
    74
1070
     0
1000
MTEXTEND
1000
ACAD_MTEXT_DEFINED_HEIGHT_BEGIN
1070
    46
1040
10.00000000000109
1000
ACAD_MTEXT_DEFINED_HEIGHT_END
  0
MTEXT
  5
24F7B
330
1F
100
AcDbEntity
  8
AM_6
100
AcDbMText
 10
187.4106126127522
 20
1675.49658294972
 30
0.0
 40
3.2
 41
8.000000000000113
 71
     5
 72
     5
  1
18
 73
     1
 44
1.0
1001
ACAD
1000
MTEXTBEGIN
1070
    73
1070
     1
1070
    44
1040
1.0
1070
    74
1070
     0
1000
MTEXTEND
1000
ACAD_MTEXT_DEFINED_HEIGHT_BEGIN
1070
    46
1040
10.00000000000109
1000
ACAD_MTEXT_DEFINED_HEIGHT_END
  0
MTEXT
  5
24F7C
330
1F
100
AcDbEntity
  8
AM_6
100
AcDbMText
 10
195.4106126127522
 20
1695.496582949723
 30
0.0
 40
3.2
 41
8.000000000000113
 71
     5
 72
     5
  1
10
 73
     1
 44
1.0
1001
ACAD
1000
MTEXTBEGIN
1070
    73
1070
     1
1070
    44
1040
1.0
1070
    74
1070
     0
1000
MTEXTEND
1000
ACAD_MTEXT_DEFINED_HEIGHT_BEGIN
1070
    46
1040
10.00000000000109
1000
ACAD_MTEXT_DEFINED_HEIGHT_END
  0
MTEXT
  5
24F7D
330
1F
100
AcDbEntity
  8
AM_6
100
AcDbMText
 10
195.4106126127524
 20
1685.496582949722
 30
0.0
 40
3.2
 41
8.000000000000113
 71
     5
 72
     5
  1
10
 73
     1
 44
1.0
1001
ACAD
1000
MTEXTBEGIN
1070
    73
1070
     1
1070
    44
1040
1.0
1070
    74
1070
     0
1000
MTEXTEND
1000
ACAD_MTEXT_DEFINED_HEIGHT_BEGIN
1070
    46
1040
10.00000000000109
1000
ACAD_MTEXT_DEFINED_HEIGHT_END
  0
MTEXT
  5
24F7E
330
1F
100
AcDbEntity
  8
AM_6
100
AcDbMText
 10
195.4106126127522
 20
1675.496582949721
 30
0.0
 40
3.2
 41
8.000000000000113
 71
     5
 72
     5
  1
12
 73
     1
 44
1.0
1001
ACAD
1000
MTEXTBEGIN
1070
    73
1070
     1
1070
    44
1040
1.0
1070
    74
1070
     0
1000
MTEXTEND
1000
ACAD_MTEXT_DEFINED_HEIGHT_BEGIN
1070
    46
1040
10.00000000000109
1000
ACAD_MTEXT_DEFINED_HEIGHT_END
  0
MTEXT
  5
24F7F
330
1F
100
AcDbEntity
  8
AM_6
100
AcDbMText
 10
203.4106126127523
 20
1695.496582949725
 30
0.0
 40
3.2
 41
8.000000000000113
 71
     5
 72
     5
  1
17
 73
     1
 44
1.0
1001
ACAD
1000
MTEXTBEGIN
1070
    73
1070
     1
1070
    44
1040
1.0
1070
    74
1070
     0
1000
MTEXTEND
1000
ACAD_MTEXT_DEFINED_HEIGHT_BEGIN
1070
    46
1040
10.00000000000109
1000
ACAD_MTEXT_DEFINED_HEIGHT_END
  0
MTEXT
  5
24F80
330
1F
100
AcDbEntity
  8
AM_6
100
AcDbMText
 10
203.4106126127524
 20
1685.496582949723
 30
0.0
 40
3.2
 41
8.000000000000113
 71
     5
 72
     5
  1
20
 73
     1
 44
1.0
1001
ACAD
1000
MTEXTBEGIN
1070
    73
1070
     1
1070
    44
1040
1.0
1070
    74
1070
     0
1000
MTEXTEND
1000
ACAD_MTEXT_DEFINED_HEIGHT_BEGIN
1070
    46
1040
10.00000000000109
1000
ACAD_MTEXT_DEFINED_HEIGHT_END
  0
MTEXT
  5
24F81
330
1F
100
AcDbEntity
  8
AM_6
100
AcDbMText
 10
203.4106126127523
 20
1675.496582949723
 30
0.0
 40
3.2
 41
8.000000000000113
 71
     5
 72
     5
  1
22
 73
     1
 44
1.0
1001
ACAD
1000
MTEXTBEGIN
1070
    73
1070
     1
1070
    44
1040
1.0
1070
    74
1070
     0
1000
MTEXTEND
1000
ACAD_MTEXT_DEFINED_HEIGHT_BEGIN
1070
    46
1040
10.00000000000109
1000
ACAD_MTEXT_DEFINED_HEIGHT_END
  0
MTEXT
  5
24F82
330
1F
100
AcDbEntity
  8
AM_6
100
AcDbMText
 10
211.4106126127523
 20
1695.496582949725
 30
0.0
 40
3.2
 41
8.000000000000113
 71
     5
 72
     5
  1
37
 73
     1
 44
1.0
1001
ACAD
1000
MTEXTBEGIN
1070
    73
1070
     1
1070
    44
1040
1.0
1070
    74
1070
     0
1000
MTEXTEND
1000
ACAD_MTEXT_DEFINED_HEIGHT_BEGIN
1070
    46
1040
10.00000000000109
1000
ACAD_MTEXT_DEFINED_HEIGHT_END
  0
MTEXT
  5
24F83
330
1F
100
AcDbEntity
  8
AM_6
100
AcDbMText
 10
211.4106126127524
 20
1685.496582949723
 30
0.0
 40
3.2
 41
8.000000000000113
 71
     5
 72
     5
  1
40
 73
     1
 44
1.0
1001
ACAD
1000
MTEXTBEGIN
1070
    73
1070
     1
1070
    44
1040
1.0
1070
    74
1070
     0
1000
MTEXTEND
1000
ACAD_MTEXT_DEFINED_HEIGHT_BEGIN
1070
    46
1040
10.00000000000109
1000
ACAD_MTEXT_DEFINED_HEIGHT_END
  0
MTEXT
  5
24F84
330
1F
100
AcDbEntity
  8
AM_6
100
AcDbMText
 10
211.4106126127523
 20
1675.496582949723
 30
0.0
 40
3.2
 41
8.000000000000113
 71
     5
 72
     5
  1
43
 73
     1
 44
1.0
1001
ACAD
1000
MTEXTBEGIN
1070
    73
1070
     1
1070
    44
1040
1.0
1070
    74
1070
     0
1000
MTEXTEND
1000
ACAD_MTEXT_DEFINED_HEIGHT_BEGIN
1070
    46
1040
10.00000000000109
1000
ACAD_MTEXT_DEFINED_HEIGHT_END
  0
MTEXT
  5
24F85
330
1F
100
AcDbEntity
  8
AM_6
100
AcDbMText
 10
219.4106126127523
 20
1695.496582949725
 30
0.0
 40
3.2
 41
8.000000000000113
 71
     5
 72
     5
  1
32
 73
     1
 44
1.0
1001
ACAD
1000
MTEXTBEGIN
1070
    73
1070
     1
1070
    44
1040
1.0
1070
    74
1070
     0
1000
MTEXTEND
1000
ACAD_MTEXT_DEFINED_HEIGHT_BEGIN
1070
    46
1040
10.00000000000109
1000
ACAD_MTEXT_DEFINED_HEIGHT_END
  0
MTEXT
  5
24F86
330
1F
100
AcDbEntity
  8
AM_6
100
AcDbMText
 10
219.4106126127524
 20
1685.496582949723
 30
0.0
 40
3.2
 41
8.000000000000113
 71
     5
 72
     5
  1
32
 73
     1
 44
1.0
1001
ACAD
1000
MTEXTBEGIN
1070
    73
1070
     1
1070
    44
1040
1.0
1070
    74
1070
     0
1000
MTEXTEND
1000
ACAD_MTEXT_DEFINED_HEIGHT_BEGIN
1070
    46
1040
10.00000000000109
1000
ACAD_MTEXT_DEFINED_HEIGHT_END
  0
MTEXT
  5
24F87
330
1F
100
AcDbEntity
  8
AM_6
100
AcDbMText
 10
219.4106126127523
 20
1675.496582949723
 30
0.0
 40
3.2
 41
8.000000000000113
 71
     5
 72
     5
  1
35
 73
     1
 44
1.0
1001
ACAD
1000
MTEXTBEGIN
1070
    73
1070
     1
1070
    44
1040
1.0
1070
    74
1070
     0
1000
MTEXTEND
1000
ACAD_MTEXT_DEFINED_HEIGHT_BEGIN
1070
    46
1040
10.00000000000109
1000
ACAD_MTEXT_DEFINED_HEIGHT_END
  0
MTEXT
  5
24F88
330
1F
100
AcDbEntity
  8
AM_6
100
AcDbMText
 10
179.4106126127523
 20
1665.496582949718
 30
0.0
 40
3.2
 41
8.000000000000113
 71
     5
 72
     5
  1
6
 73
     1
 44
1.0
1001
ACAD
1000
MTEXTBEGIN
1070
    73
1070
     1
1070
    44
1040
1.0
1070
    74
1070
     0
1000
MTEXTEND
1000
ACAD_MTEXT_DEFINED_HEIGHT_BEGIN
1070
    46
1040
10.00000000000109
1000
ACAD_MTEXT_DEFINED_HEIGHT_END
  0
MTEXT
  5
24F8A
330
1F
100
AcDbEntity
  8
AM_6
100
AcDbMText
 10
91.91061261275212
 20
1695.496582949717
 30
0.0
 40
3.2
 41
23.0000000000001
 71
     5
 72
     5
  1
ELT-10S-1
 73
     1
 44
1.0
1001
ACAD
1000
MTEXTBEGIN
1070
    73
1070
     1
1070
    44
1040
1.0
1070
    74
1070
     0
1000
MTEXTEND
1000
ACAD_MTEXT_DEFINED_HEIGHT_BEGIN
1070
    46
1040
10.00000000000018
1000
ACAD_MTEXT_DEFINED_HEIGHT_END
  0
MTEXT
  5
24F8B
330
1F
100
AcDbEntity
  8
AM_6
100
AcDbMText
 10
91.91061261275207
 20
1685.496582949717
 30
0.0
 40
3.2
 41
23.00000000000022
 71
     5
 72
     5
  1
ELT-10S-2
 73
     1
 44
1.0
1001
ACAD
1000
MTEXTBEGIN
1070
    73
1070
     1
1070
    44
1040
1.0
1070
    74
1070
     0
1000
MTEXTEND
1000
ACAD_MTEXT_DEFINED_HEIGHT_BEGIN
1070
    46
1040
10.00000000000109
1000
ACAD_MTEXT_DEFINED_HEIGHT_END
  0
MTEXT
  5
24F8C
330
1F
100
AcDbEntity
  8
AM_6
100
AcDbMText
 10
91.91061261275194
 20
1675.496582949716
 30
0.0
 40
3.2
 41
23.00000000000023
 71
     5
 72
     5
  1
ELT-10S-3
 73
     1
 44
1.0
1001
ACAD
1000
MTEXTBEGIN
1070
    73
1070
     1
1070
    44
1040
1.0
1070
    74
1070
     0
1000
MTEXTEND
1000
ACAD_MTEXT_DEFINED_HEIGHT_BEGIN
1070
    46
1040
9.9999999999995
1000
ACAD_MTEXT_DEFINED_HEIGHT_END
  0
MTEXT
  5
24F8D
330
1F
100
AcDbEntity
  8
AM_6
100
AcDbMText
 10
91.91061261275194
 20
1665.496582949716
 30
0.0
 40
3.2
 41
23.00000000000027
 71
     5
 72
     5
  1
ELT-10S-4
 73
     1
 44
1.0
1001
ACAD
1000
MTEXTBEGIN
1070
    73
1070
     1
1070
    44
1040
1.0
1070
    74
1070
     0
1000
MTEXTEND
1000
ACAD_MTEXT_DEFINED_HEIGHT_BEGIN
1070
    46
1040
9.9999999999995
1000
ACAD_MTEXT_DEFINED_HEIGHT_END
  0
MTEXT
  5
24F8E
330
1F
100
AcDbEntity
  8
AM_6
100
AcDbMText
 10
91.91061261275194
 20
1655.496582949716
 30
0.0
 40
3.2
 41
23.00000000000018
 71
     5
 72
     5
  1
ELT-10S-5
 73
     1
 44
1.0
1001
ACAD
1000
MTEXTBEGIN
1070
    73
1070
     1
1070
    44
1040
1.0
1070
    74
1070
     0
1000
MTEXTEND
1000
ACAD_MTEXT_DEFINED_HEIGHT_BEGIN
1070
    46
1040
9.9999999999995
1000
ACAD_MTEXT_DEFINED_HEIGHT_END
  0
LINE
  5
24F8F
330
1F
100
AcDbEntity
  8
AM_0
100
AcDbLine
 10
100.4106126127527
 20
1930.496582949716
 30
0.0
 11
100.4106126127527
 21
1866.496582949716
 31
0.0
  0
LINE
  5
24F90
330
1F
100
AcDbEntity
  8
AM_4
100
AcDbLine
 10
80.41061261275268
 20
1922.496582949716
 30
0.0
 11
178.4106126127526
 21
1922.496582949716
 31
0.0
  0
LINE
  5
24F91
330
1F
100
AcDbEntity
  8
AM_4
100
AcDbLine
 10
80.41061261275268
 20
1914.496582949716
 30
0.0
 11
178.4106126127526
 21
1914.496582949716
 31
0.0
  0
LINE
  5
24F92
330
1F
100
AcDbEntity
  8
AM_4
100
AcDbLine
 10
80.41061261275268
 20
1906.496582949716
 30
0.0
 11
178.4106126127526
 21
1906.496582949716
 31
0.0
  0
LINE
  5
24F93
330
1F
100
AcDbEntity
  8
AM_4
100
AcDbLine
 10
80.41061261275268
 20
1898.496582949716
 30
0.0
 11
178.4106126127526
 21
1898.496582949716
 31
0.0
  0
LINE
  5
24F94
330
1F
100
AcDbEntity
  8
AM_4
100
AcDbLine
 10
80.41061261275268
 20
1882.496582949716
 30
0.0
 11
178.4106126127526
 21
1882.496582949716
 31
0.0
  0
LINE
  5
24F95
330
1F
100
AcDbEntity
  8
AM_0
100
AcDbLine
 10
80.41061261275268
 20
1930.496582949716
 30
0.0
 11
80.41061261275268
 21
1882.496582949716
 31
0.0
  0
LINE
  5
24F96
330
1F
100
AcDbEntity
  8
AM_0
100
AcDbLine
 10
80.41061261275268
 20
1930.496582949716
 30
0.0
 11
178.4106126127526
 21
1930.496582949716
 31
0.0
  0
LINE
  5
24F97
330
1F
100
AcDbEntity
  8
AM_0
100
AcDbLine
 10
178.4106126127526
 20
1930.496582949716
 30
0.0
 11
178.4106126127526
 21
1866.496582949716
 31
0.0
  0
TEXT
  5
24F98
330
1F
100
AcDbEntity
  8
AM_6
100
AcDbText
 10
86.06761261275266
 20
1924.896582949715
 30
0.0
 40
3.2
  1
品　名
 41
0.85537027
100
AcDbText
  0
TEXT
  5
24F99
330
1F
100
AcDbEntity
  8
AM_6
100
AcDbText
 10
86.06761261275266
 20
1916.896582949716
 30
0.0
 40
3.2
  1
品　番
 41
0.85537027
100
AcDbText
  0
TEXT
  5
24F9A
330
1F
100
AcDbEntity
  8
AM_6
100
AcDbText
 10
86.06761261275266
 20
1908.896582949715
 30
0.0
 40
3.2
  1
材　質
 41
0.85537027
100
AcDbText
  0
TEXT
  5
24F9B
330
1F
100
AcDbEntity
  8
AM_6
100
AcDbText
 10
86.06761261275266
 20
1900.896582949716
 30
0.0
 40
3.2
  1
仕上げ
 41
0.85537027
100
AcDbText
  0
TEXT
  5
24F9C
330
1F
100
AcDbEntity
  8
AM_6
100
AcDbText
 10
103.2676126127526
 20
1924.896582949715
 30
0.0
 40
3.2
  1
密閉用ハンドル
 41
0.84306961
100
AcDbText
  0
TEXT
  5
24F9D
330
1F
100
AcDbEntity
  8
AM_6
100
AcDbText
 10
103.2676126127526
 20
1916.896582949716
 30
0.0
 40
3.2
  1
ELT-10S
 41
0.84741102
100
AcDbText
  0
TEXT
  5
24F9E
330
1F
100
AcDbEntity
  8
AM_6
100
AcDbText
 10
103.2676126127526
 20
1908.896582949715
 30
0.0
 40
3.2
  1
ステンレス
 41
0.84634979
100
AcDbText
  0
TEXT
  5
24F9F
330
1F
100
AcDbEntity
  8
AM_6
100
AcDbText
 10
103.2676126127526
 20
1900.896582949716
 30
0.0
 40
3.2
  1
鏡面
 41
0.84350122
100
AcDbText
  0
TEXT
  5
24FA0
330
1F
100
AcDbEntity
  8
AM_6
100
AcDbText
 10
84.46761261275264
 20
1888.896582949715
 30
0.0
 40
3.2
  1
左右勝手
 41
0.8643907499999999
100
AcDbText
  0
TEXT
  5
24FA1
330
1F
100
AcDbEntity
  8
AM_6
100
AcDbText
 10
103.2676126127526
 20
1892.896582949715
 30
0.0
 40
3.2
  1
左右勝手がございますご指示ください。
 41
0.85537027
100
AcDbText
  0
LINE
  5
24FA2
330
1F
100
AcDbEntity
  8
AM_4
100
AcDbLine
 10
80.41061261275268
 20
1874.496582949716
 30
0.0
 11
178.4106126127526
 21
1874.496582949716
 31
0.0
  0
MTEXT
  5
24FA3
330
1F
100
AcDbEntity
  8
AM_6
100
AcDbMText
 10
90.41061261275268
 20
1878.496582949716
 30
0.0
 40
3.2
 41
20.0
 71
     5
 72
     5
  1
セット部品
 73
     1
 44
1.0
1001
ACAD
1000
MTEXTBEGIN
1070
    73
1070
     1
1070
    44
1040
1.0
1070
    74
1070
     0
1000
MTEXTEND
  0
MTEXT
  5
24FA4
330
1F
100
AcDbEntity
  8
AM_6
100
AcDbMText
 10
100.4106126127527
 20
1878.496582949716
 30
0.0
 40
3.2
 41
78.0
 71
     4
 72
     5
  1
　受座
 73
     1
 44
1.0
1001
ACAD
1000
MTEXTBEGIN
1070
    73
1070
     1
1070
    44
1040
1.0
1070
    74
1070
     0
1000
MTEXTEND
  0
LINE
  5
24FA5
330
1F
100
AcDbEntity
  8
AM_0
100
AcDbLine
 10
80.41061261275268
 20
1866.496582949716
 30
0.0
 11
178.4106126127526
 21
1866.496582949716
 31
0.0
  0
MTEXT
  5
24FA6
330
1F
100
AcDbEntity
  8
AM_6
100
AcDbMText
 10
90.41061261275268
 20
1870.496582949716
 30
0.0
 40
3.2
 41
20.0
 71
     5
 72
     5
  1
備考
 73
     1
 44
1.0
1001
ACAD
1000
MTEXTBEGIN
1070
    73
1070
     1
1070
    44
1040
1.0
1070
    74
1070
     0
1000
MTEXTEND
  0
MTEXT
  5
24FA7
330
1F
100
AcDbEntity
  8
AM_6
100
AcDbMText
 10
100.4106126127527
 20
1870.496582949716
 30
0.0
 40
3.2
 41
78.0
 71
     4
 72
     5
  1
　黄銅鋳物も対応できます。
 73
     1
 44
1.0
1001
ACAD
1000
MTEXTBEGIN
1070
    73
1070
     1
1070
    44
1040
1.0
1070
    74
1070
     0
1000
MTEXTEND
  0
TEXT
  5
24FA8
330
1F
100
AcDbEntity
  8
AM_6
100
AcDbText
 10
103.2676126127526
 20
1884.896582949716
 30
0.0
 40
3.2
  1
本図は右勝手を示す。
 41
0.85537027
100
AcDbText
  0
LINE
  5
25417
330
1F
100
AcDbEntity
  8
AM_0
100
AcDbLine
 10
231.4106126127522
 20
1707.496582949719
 30
0.0
 11
80.41061261275208
 21
1707.496582949717
 31
0.0
  0
MTEXT
  5
25418
330
1F
100
AcDbEntity
  8
AM_6
100
AcDbMText
 10
91.91061261275214
 20
1703.996582949718
 30
0.0
 40
3.2
 41
22.99999999999982
 71
     5
 72
     5
  1
品番
 73
     1
 44
1.0
1001
ACAD
1000
MTEXTBEGIN
1070
    73
1070
     1
1070
    44
1040
1.0
1070
    74
1070
     0
1000
MTEXTEND
1000
ACAD_MTEXT_DEFINED_HEIGHT_BEGIN
1070
    46
1040
3.200000000000227
1000
ACAD_MTEXT_DEFINED_HEIGHT_END
  0
MTEXT
  5
25419
330
1F
100
AcDbEntity
  8
AM_6
100
AcDbMText
 10
107.4106126127521
 20
1703.996582949718
 30
0.0
 40
3.2
 41
8.000000000000113
 71
     5
 72
     5
  1
（A）
 73
     1
 44
1.0
1001
ACAD
1000
MTEXTBEGIN
1070
    73
1070
     1
1070
    44
1040
1.0
1070
    74
1070
     0
1000
MTEXTEND
  0
MTEXT
  5
2541A
330
1F
100
AcDbEntity
  8
AM_6
100
AcDbMText
 10
123.4106126127521
 20
1703.996582949718
 30
0.0
 40
3.2
 41
7.999999999999886
 71
     5
 72
     5
  1
C
 73
     1
 44
1.0
1001
ACAD
1000
MTEXTBEGIN
1070
    73
1070
     1
1070
    44
1040
1.0
1070
    74
1070
     0
1000
MTEXTEND
  0
MTEXT
  5
2541B
330
1F
100
AcDbEntity
  8
AM_6
100
AcDbMText
 10
115.4106126127522
 20
1703.996582949718
 30
0.0
 40
3.2
 41
8.000000000000113
 71
     5
 72
     5
  1
（B）
 73
     1
 44
1.0
1001
ACAD
1000
MTEXTBEGIN
1070
    73
1070
     1
1070
    44
1040
1.0
1070
    74
1070
     0
1000
MTEXTEND
  0
MTEXT
  5
2541C
330
1F
100
AcDbEntity
  8
AM_6
100
AcDbMText
 10
131.4106126127521
 20
1703.996582949718
 30
0.0
 40
3.2
 41
7.999999999999886
 71
     5
 72
     5
  1
D
 73
     1
 44
1.0
1001
ACAD
1000
MTEXTBEGIN
1070
    73
1070
     1
1070
    44
1040
1.0
1070
    74
1070
     0
1000
MTEXTEND
  0
MTEXT
  5
2541D
330
1F
100
AcDbEntity
  8
AM_6
100
AcDbMText
 10
139.4106126127522
 20
1703.996582949718
 30
0.0
 40
3.2
 41
7.999999999999886
 71
     5
 72
     5
  1
E
 73
     1
 44
1.0
1001
ACAD
1000
MTEXTBEGIN
1070
    73
1070
     1
1070
    44
1040
1.0
1070
    74
1070
     0
1000
MTEXTEND
  0
MTEXT
  5
2541E
330
1F
100
AcDbEntity
  8
AM_6
100
AcDbMText
 10
147.4106126127523
 20
1703.996582949718
 30
0.0
 40
3.2
 41
7.999999999999886
 71
     5
 72
     5
  1
F
 73
     1
 44
1.0
1001
ACAD
1000
MTEXTBEGIN
1070
    73
1070
     1
1070
    44
1040
1.0
1070
    74
1070
     0
1000
MTEXTEND
  0
MTEXT
  5
2541F
330
1F
100
AcDbEntity
  8
AM_6
100
AcDbMText
 10
155.4106126127523
 20
1703.996582949718
 30
0.0
 40
3.2
 41
7.999999999999886
 71
     5
 72
     5
  1
G
 73
     1
 44
1.0
1001
ACAD
1000
MTEXTBEGIN
1070
    73
1070
     1
1070
    44
1040
1.0
1070
    74
1070
     0
1000
MTEXTEND
  0
MTEXT
  5
25420
330
1F
100
AcDbEntity
  8
AM_6
100
AcDbMText
 10
163.4106126127523
 20
1703.996582949718
 30
0.0
 40
3.2
 41
7.999999999999886
 71
     5
 72
     5
  1
（H）
 73
     1
 44
1.0
1001
ACAD
1000
MTEXTBEGIN
1070
    73
1070
     1
1070
    44
1040
1.0
1070
    74
1070
     0
1000
MTEXTEND
  0
MTEXT
  5
25421
330
1F
100
AcDbEntity
  8
AM_6
100
AcDbMText
 10
171.4106126127523
 20
1703.996582949718
 30
0.0
 40
3.2
 41
7.999999999999886
 71
     5
 72
     5
  1
I
 73
     1
 44
1.0
1001
ACAD
1000
MTEXTBEGIN
1070
    73
1070
     1
1070
    44
1040
1.0
1070
    74
1070
     0
1000
MTEXTEND
  0
MTEXT
  5
25422
330
1F
100
AcDbEntity
  8
AM_6
100
AcDbMText
 10
179.4106126127523
 20
1703.996582949718
 30
0.0
 40
3.2
 41
7.999999999999886
 71
     5
 72
     5
  1
J
 73
     1
 44
1.0
1001
ACAD
1000
MTEXTBEGIN
1070
    73
1070
     1
1070
    44
1040
1.0
1070
    74
1070
     0
1000
MTEXTEND
  0
MTEXT
  5
25423
330
1F
100
AcDbEntity
  8
AM_6
100
AcDbMText
 10
187.4106126127523
 20
1703.996582949718
 30
0.0
 40
3.2
 41
7.999999999999886
 71
     5
 72
     5
  1
（K）
 73
     1
 44
1.0
1001
ACAD
1000
MTEXTBEGIN
1070
    73
1070
     1
1070
    44
1040
1.0
1070
    74
1070
     0
1000
MTEXTEND
  0
MTEXT
  5
25424
330
1F
100
AcDbEntity
  8
AM_6
100
AcDbMText
 10
195.4106126127523
 20
1703.996582949718
 30
0.0
 40
3.2
 41
7.999999999999886
 71
     5
 72
     5
  1
L
 73
     1
 44
1.0
1001
ACAD
1000
MTEXTBEGIN
1070
    73
1070
     1
1070
    44
1040
1.0
1070
    74
1070
     0
1000
MTEXTEND
  0
MTEXT
  5
25425
330
1F
100
AcDbEntity
  8
AM_6
100
AcDbMText
 10
227.4106126127523
 20
1703.996582949719
 30
0.0
 40
3.2
 41
7.999999999999886
 71
     5
 72
     5
  1
P
 73
     1
 44
1.0
1001
ACAD
1000
MTEXTBEGIN
1070
    73
1070
     1
1070
    44
1040
1.0
1070
    74
1070
     0
1000
MTEXTEND
  0
MTEXT
  5
25428
330
1F
100
AcDbEntity
  8
AM_6
100
AcDbMText
 10
219.4106126127523
 20
1703.996582949719
 30
0.0
 40
3.2
 41
7.999999999999886
 71
     5
 72
     5
  1
O
 73
     1
 44
1.0
1001
ACAD
1000
MTEXTBEGIN
1070
    73
1070
     1
1070
    44
1040
1.0
1070
    74
1070
     0
1000
MTEXTEND
  0
MTEXT
  5
25429
330
1F
100
AcDbEntity
  8
AM_6
100
AcDbMText
 10
203.4106126127523
 20
1703.996582949719
 30
0.0
 40
3.2
 41
7.999999999999886
 71
     5
 72
     5
  1
M
 73
     1
 44
1.0
1001
ACAD
1000
MTEXTBEGIN
1070
    73
1070
     1
1070
    44
1040
1.0
1070
    74
1070
     0
1000
MTEXTEND
  0
MTEXT
  5
2542A
330
1F
100
AcDbEntity
  8
AM_6
100
AcDbMText
 10
211.4106126127523
 20
1703.996582949719
 30
0.0
 40
3.2
 41
7.999999999999886
 71
     5
 72
     5
  1
N
 73
     1
 44
1.0
1001
ACAD
1000
MTEXTBEGIN
1070
    73
1070
     1
1070
    44
1040
1.0
1070
    74
1070
     0
1000
MTEXTEND
  0
ENDSEC
  0
SECTION
  2
OBJECTS
  0
DICTIONARY
  5
C
330
0
100
AcDbDictionary
281
     1
  3
ACAD_2007HEADERVARS_RT
350
257BA
  3
ACAD_COLOR
350
C447
  3
ACAD_GROUP
350
D
  3
ACAD_LAYOUT
350
1A
  3
ACAD_MATERIAL
350
C446
  3
ACAD_MLINESTYLE
350
17
  3
ACAD_PLOTSETTINGS
350
19
  3
ACAD_PLOTSTYLENAME
350
E
  3
ACAD_TABLESTYLE
350
10A6E
  3
ACAD_VISUALSTYLE
350
1105F
  3
AcAsAppObject
350
3DA1
  3
ACASGREF_MASTER
350
3DE9
  3
AcDbVariableDictionary
350
34
  3
AcmDictionary
350
47
  3
AD_GREF_MODULE
350
3DEA
  3
AD_MAPI_MODULE
350
3E06
  3
AMG
350
2B
  3
AMGSNAPSETTINGS
350
7D
  3
ASE_INDEX_DICTIONARY
350
15C65
  3
DWGPROPS
350
257B9
  3
MAPISURF_MODULE
350
3DEB
  0
DICTIONARY
  5
3F95
330
2
100
AcDbDictionary
280
     1
281
     1
  3
ACAD_LAYERFILTERS
360
1CD7E
  3
ACAD_LAYERSTATES
360
3F96
  3
ACLYDICTIONARY
360
1CD7D
  0
DICTIONARY
  5
8A
330
1F
100
AcDbDictionary
280
     1
281
     1
  3
ACAD_SORTENTS
360
13525
  0
DICTIONARY
  5
257BA
102
{ACAD_REACTORS
330
C
102
}
330
C
100
AcDbDictionary
281
     1
  3
DIMARCSYM
350
257BB
  0
DICTIONARY
  5
C447
102
{ACAD_REACTORS
330
C
102
}
330
C
100
AcDbDictionary
281
     1
  0
DICTIONARY
  5
D
102
{ACAD_REACTORS
330
C
102
}
330
C
100
AcDbDictionary
281
     1
  0
DICTIONARY
  5
1A
102
{ACAD_REACTORS
330
C
102
}
330
C
100
AcDbDictionary
281
     1
  3
Model
350
22
  3
ﾚｲｱｳﾄ1
350
1E
  3
ﾚｲｱｳﾄ2
350
26
  0
DICTIONARY
  5
C446
102
{ACAD_REACTORS
330
C
102
}
330
C
100
AcDbDictionary
281
     1
  3
ByBlock
350
1105D
  3
ByLayer
350
1105C
  3
Global
350
1105E
  0
DICTIONARY
  5
17
102
{ACAD_REACTORS
330
C
102
}
330
C
100
AcDbDictionary
281
     1
  3
Standard
350
18
  0
DICTIONARY
  5
19
102
{ACAD_REACTORS
330
C
102
}
330
C
100
AcDbDictionary
281
     1
  3
00
350
10A03
  3
01
350
10A04
  3
02
350
10A05
  3
03
350
1B04D
  0
ACDBDICTIONARYWDFLT
  5
E
102
{ACAD_REACTORS
330
C
102
}
330
C
100
AcDbDictionary
281
     1
  3
Normal
350
F
100
AcDbDictionaryWithDefault
340
F
  0
DICTIONARY
  5
10A6E
102
{ACAD_REACTORS
330
C
102
}
330
C
100
AcDbDictionary
281
     1
  3
Standard
350
10A6F
  0
DICTIONARY
  5
1105F
102
{ACAD_REACTORS
330
C
102
}
330
C
100
AcDbDictionary
281
     1
  3
2dWireframe
350
11065
  3
3D Hidden
350
11067
  3
3dWireframe
350
11066
  3
Basic
350
11064
  3
Brighten
350
1106B
  3
ColorChange
350
1106F
  3
Conceptual
350
11068
  3
Dim
350
1106A
  3
Facepattern
350
1106E
  3
Flat
350
11060
  3
FlatWithEdges
350
11061
  3
Gouraud
350
11062
  3
GouraudWithEdges
350
11063
  3
Linepattern
350
1106D
  3
Realistic
350
11069
  3
Thicken
350
1106C
  0
ACAD_PROXY_OBJECT
  5
3DA1
102
{ACAD_REACTORS
330
C
102
}
330
C
100
AcDbProxyObject
 90
      499
 91
      576
 95
   720919
 70
     0
 93
       10
310
407F
 94
        0
1001
ACAD
1000
AcRTDxfName
1000
ASAPP
  0
ACAD_PROXY_OBJECT
  5
3DE9
102
{ACAD_REACTORS
330
C
102
}
330
C
100
AcDbProxyObject
 90
      499
 91
      581
 95
   720919
 70
     0
 93
       34
310
010000407F
 94
        0
1001
ACAD
1000
AcRTDxfName
1000
ACASGREFMASTER
  0
DICTIONARY
  5
34
102
{ACAD_REACTORS
330
C
102
}
330
C
100
AcDbDictionary
281
     1
  3
CTABLESTYLE
350
10ABF
  3
DIMASSOC
350
AC85
  3
INDEXCTL
350
35
  3
SORTENTS
350
194C
  0
DICTIONARY
  5
47
102
{ACAD_REACTORS
330
C
102
}
330
C
100
AcDbDictionary
281
     1
  3
AcmBOM
350
7E8
  3
AcmStdDictionary
350
4C
  3
AMDTSECTSYM_ARROWCOLOR
350
10A86
  0
ACAD_PROXY_OBJECT
  5
3DEA
102
{ACAD_REACTORS
330
C
102
}
330
C
100
AcDbProxyObject
 90
      499
 91
      582
 95
   720919
 70
     0
 93
      114
310
00000043800000000000000000003F
 94
        0
1001
ACAD
1000
AcRTDxfName
1000
ACADGREFMODULE
  0
ACAD_PROXY_OBJECT
  5
3E06
102
{ACAD_REACTORS
330
C
102
}
330
C
100
AcDbProxyObject
 90
      499
 91
      594
 95
   720919
 70
     0
 93
       34
310
05000044FF
 94
        0
1001
ACAD
1000
AcRTDxfName
1000
MAPIADMODULE
  0
DICTIONARY
  5
2B
102
{ACAD_REACTORS
330
C
102
}
330
C
100
AcDbDictionary
281
     1
  0
DICTIONARY
  5
7D
102
{ACAD_REACTORS
330
C
102
}
330
C
100
AcDbDictionary
281
     1
  0
DICTIONARY
  5
15C65
102
{ACAD_REACTORS
330
C
102
}
330
C
100
AcDbDictionary
281
     1
  3
ASEBlockHierarchyIndexRecord
350
15C66
1001
DCO15
1040
1601196082.875
  0
XRECORD
  5
257B9
102
{ACAD_REACTORS
330
C
102
}
330
C
100
AcDbXrecord
280
     1
  1
DWGPROPS COOKIE
  2

  3

  4

  6

  7

  8
Administrator
  9

300
AmdtFileType=84
301
=
302
=
303
=
304
=
305
=
306
=
307
=
308
=
309
=
 40
14.48307733796296
 41
2452002.615067627
 42
2456268.705456539
  1

 90
        1
  0
ACAD_PROXY_OBJECT
  5
3DEB
102
{ACAD_REACTORS
330
C
102
}
330
C
100
AcDbProxyObject
 90
      499
 91
      583
 95
   720919
 70
     0
 93
        8
310
047E
 94
        0
1001
ACAD
1000
AcRTDxfName
1000
AMDTMAPISURFMOUDULE
  0
DICTIONARY
  5
1CD7E
102
{ACAD_REACTORS
330
3F95
102
}
330
3F95
100
AcDbDictionary
281
     1
  3
50
350
1CD80
  0
DICTIONARY
  5
3F96
102
{ACAD_REACTORS
330
3F95
102
}
330
3F95
100
AcDbDictionary
281
     1
  3
20011210
350
3FB7
  0
DICTIONARY
  5
1CD7D
102
{ACAD_REACTORS
330
3F95
102
}
330
3F95
100
AcDbDictionary
281
     1
  3
*A1
350
1CD7F
1001
ACAD
1000
<All
  0
SORTENTSTABLE
  5
13525
102
{ACAD_REACTORS
330
8A
102
}
330
8A
100
AcDbSortentsTable
330
1F
331
11518
  5
13529
331
11516
  5
13527
331
1258E
  5
1352D
331
11514
  5
131E0
331
ED38
  5
ED38
331
ED36
  5
ED36
331
131E0
  5
13530
331
1151B
  5
1352C
331
11519
  5
1352A
331
11517
  5
13528
331
11515
  5
13526
331
12BA6
  5
1352E
331
ED39
  5
ED39
331
ED37
  5
ED37
331
ED35
  5
ED35
331
12E9D
  5
1352F
331
1151A
  5
1352B
  0
XRECORD
  5
257BB
102
{ACAD_REACTORS
330
257BA
102
}
330
257BA
100
AcDbXrecord
280
     1
 70
     1
  0
LAYOUT
  5
22
102
{ACAD_XDICTIONARY
360
257BE
102
}
102
{ACAD_REACTORS
330
1A
102
}
330
1A
100
AcDbPlotSettings
  1

  2
Acrobat Distiller
  4
A4
  6

 40
3.174999952316284
 41
3.174999952316284
 42
3.175003051757812
 43
3.17498779296875
 44
209.9098358154297
 45
297.0318298339844
 46
-3.220083594322204
 47
-3.159078955650329
 48
795.3986624234585
 49
-817.9081483588127
140
943.8986624234585
141
-712.9081483588127
142
2.0
143
1.0
 70
  3748
 72
     1
 73
     1
 74
     4
  7
monochrome.ctb
 75
     0
147
0.6920996240207127
148
-795.3986624234585
149
817.9081483588127
100
AcDbLayout
  1
Model
 70
     1
 71
     0
 10
0.0
 20
0.0
 11
12.0
 21
9.0
 12
0.0
 22
0.0
 32
0.0
 14
0.0
 24
0.0
 34
0.0
 15
0.0
 25
0.0
 35
0.0
146
0.0
 13
0.0
 23
0.0
 33
0.0
 16
1.0
 26
0.0
 36
0.0
 17
0.0
 27
1.0
 37
0.0
 76
     0
330
1F
331
1105A
1001
ACAD_PSEXT
1000
Acrobat Distiller
1000
AdobePS Acrobat Distiller J
1000
C:\Documents and Settings\All Users\デスクトップ\*.pdf
1000

1070
     0
  0
LAYOUT
  5
1E
102
{ACAD_XDICTIONARY
360
257BC
102
}
102
{ACAD_REACTORS
330
1A
102
}
330
1A
100
AcDbPlotSettings
  1

  2
\\ML370\XEROX
  4
A4
  6

 40
3.174999952316284
 41
3.174999952316284
 42
3.175003051757812
 43
3.17498779296875
 44
209.8674926757813
 45
296.6719970703125
 46
0.0
 47
0.0
 48
0.0
 49
0.0
140
0.0
141
0.0
142
1.0
143
1.0
 70
   688
 72
     1
 73
     1
 74
     5
  7
monochrome.ctb
 75
    16
147
1.0
148
0.0
149
0.0
100
AcDbLayout
  1
ﾚｲｱｳﾄ1
 70
     1
 71
     1
 10
-3.17498779296875
 20
-3.174999952316284
 11
293.4970092773438
 21
206.692492723465
 12
0.0
 22
0.0
 32
0.0
 14
1.000000000000000E+20
 24
1.000000000000000E+20
 34
1.000000000000000E+20
 15
-1.000000000000000E+20
 25
-1.000000000000000E+20
 35
-1.000000000000000E+20
146
0.0
 13
0.0
 23
0.0
 33
0.0
 16
1.0
 26
0.0
 36
0.0
 17
0.0
 27
1.0
 37
0.0
 76
     0
330
1B
  0
LAYOUT
  5
26
102
{ACAD_XDICTIONARY
360
257C0
102
}
102
{ACAD_REACTORS
330
1A
102
}
330
1A
100
AcDbPlotSettings
  1

  2
\\ML370\XEROX
  4

  6

 40
0.0
 41
0.0
 42
0.0
 43
0.0
 44
0.0
 45
0.0
 46
0.0
 47
0.0
 48
0.0
 49
0.0
140
0.0
141
0.0
142
1.0
143
1.0
 70
   688
 72
     0
 73
     0
 74
     5
  7
monochrome.ctb
 75
    16
147
1.0
148
0.0
149
0.0
100
AcDbLayout
  1
ﾚｲｱｳﾄ2
 70
     1
 71
     2
 10
0.0
 20
0.0
 11
12.0
 21
9.0
 12
0.0
 22
0.0
 32
0.0
 14
0.0
 24
0.0
 34
0.0
 15
0.0
 25
0.0
 35
0.0
146
0.0
 13
0.0
 23
0.0
 33
0.0
 16
1.0
 26
0.0
 36
0.0
 17
0.0
 27
1.0
 37
0.0
 76
     0
330
23
  0
MATERIAL
  5
1105D
102
{ACAD_XDICTIONARY
360
257CC
102
}
102
{ACAD_REACTORS
330
C446
102
}
330
C446
100
AcDbMaterial
  1
ByBlock
  0
MATERIAL
  5
1105C
102
{ACAD_XDICTIONARY
360
257CA
102
}
102
{ACAD_REACTORS
330
C446
102
}
330
C446
100
AcDbMaterial
  1
ByLayer
  0
MATERIAL
  5
1105E
102
{ACAD_XDICTIONARY
360
257CE
102
}
102
{ACAD_REACTORS
330
C446
102
}
330
C446
100
AcDbMaterial
  1
Global
  0
MLINESTYLE
  5
18
102
{ACAD_REACTORS
330
17
102
}
330
17
100
AcDbMlineStyle
  2
STANDARD
 70
     0
  3

 62
   256
 51
90.0
 52
90.0
 71
     2
 49
0.5
 62
   256
  6
BYLAYER
 49
-0.5
 62
   256
  6
BYLAYER
  0
PLOTSETTINGS
  5
10A03
102
{ACAD_XDICTIONARY
360
257C2
102
}
102
{ACAD_REACTORS
330
19
102
}
330
19
100
AcDbPlotSettings
  1
00
  2
RICOH imagio Wide 7040e RP-GL/2
  4
A3
  6

 40
5.069416522979736
 41
7.228392601013183
 42
5.23870849609375
 43
7.05908203125
 44
419.9889831542968
 45
296.9683227539062
 46
4.578934926844709
 47
0.0
 48
38.9154776564781
 49
-110.4081483588127
140
609.915477656478
141
292.5918516411873
142
1.0
143
1.425636022666032
 70
  3764
 72
     1
 73
     0
 74
     4
  7
monochrome.ctb
 75
     0
147
0.7014413104755412
148
-38.9154776564781
149
110.4081483588127
1001
ACAD_PSEXT
1000
RICOH imagio Wide 7040e RP-GL/2
1000
RICOH imagio Wide 7040e RP-GL/2
1000
192.200.51.212:lp11
1000
RP-GL/2 Driver (Windows 2000/XP/Server 2003)
1070
     0
  0
PLOTSETTINGS
  5
10A04
102
{ACAD_XDICTIONARY
360
257C4
102
}
102
{ACAD_REACTORS
330
19
102
}
330
19
100
AcDbPlotSettings
  1
01
  2
RICOH imagio Wide 7040e RP-GL/2
  4
A3
  6

 40
5.069416522979736
 41
7.228392601013183
 42
5.23870849609375
 43
7.05908203125
 44
419.9889831542968
 45
296.9683227539062
 46
-5.159570932388305
 47
-7.159575939178466
 48
27.41547765647809
 49
-415.9081483588127
140
447.415477656478
141
-118.9081483588127
142
1.0
143
1.0
 70
  3748
 72
     1
 73
     0
 74
     4
  7
monochrome.ctb
 75
     0
147
0.9517873674129395
148
-27.41547765647809
149
415.9081483588127
1001
ACAD_PSEXT
1000
RICOH imagio Wide 7040e RP-GL/2
1000
RICOH imagio Wide 7040e RP-GL/2
1000
192.200.51.212:lp11
1000
RP-GL/2 Driver (Windows 2000/XP/Server 2003)
1070
     0
  0
PLOTSETTINGS
  5
10A05
102
{ACAD_XDICTIONARY
360
257C6
102
}
102
{ACAD_REACTORS
330
19
102
}
330
19
100
AcDbPlotSettings
  1
02
  2
RICOH imagio Wide 7040e RP-GL/2
  4
A3
  6

 40
5.069416522979736
 41
7.228392601013183
 42
5.23870849609375
 43
7.05908203125
 44
419.9889831542968
 45
296.9683227539062
 46
-5.159570932388305
 47
-7.159575939178466
 48
27.41547765647809
 49
-712.9081483588127
140
447.415477656478
141
-415.9081483588127
142
1.0
143
1.0
 70
  3748
 72
     1
 73
     0
 74
     4
  7
monochrome.ctb
 75
     0
147
0.9517873674129395
148
-27.41547765647809
149
712.9081483588127
1001
ACAD_PSEXT
1000
RICOH imagio Wide 7040e RP-GL/2
1000
RICOH imagio Wide 7040e RP-GL/2
1000
192.200.51.212:lp11
1000
RP-GL/2 Driver (Windows 2000/XP/Server 2003)
1070
     0
  0
PLOTSETTINGS
  5
1B04D
102
{ACAD_XDICTIONARY
360
257D0
102
}
102
{ACAD_REACTORS
330
19
102
}
330
19
100
AcDbPlotSettings
  1
03
  2
RICOH imagio Wide 7040e RP-GL/2
  4
A4
  6

 40
5.365749835968017
 41
6.889746665954589
 42
5.535064697265625
 43
6.76275634765625
 44
296.9683227539062
 45
209.9733276367187
 46
-5.466245889663696
 47
-6.839587688446044
 48
27.41547765647807
 49
-817.9081483588127
140
175.915477656478
141
-712.9081483588127
142
2.0
143
1.0
 70
  3748
 72
     1
 73
     0
 74
     4
  7
monochrome.ctb
 75
     0
147
0.9517873674129395
148
-27.41547765647807
149
817.9081483588127
1001
ACAD_PSEXT
1000
RICOH imagio Wide 7040e RP-GL/2
1000
RICOH imagio Wide 7040e RP-GL/2
1000
192.200.51.212:lp11
1000
RP-GL/2 Driver (Windows 2000/XP/Server 2003)
1070
     0
  0
ACDBPLACEHOLDER
  5
F
102
{ACAD_REACTORS
330
E
102
}
330
E
  0
TABLESTYLE
  5
10A6F
102
{ACAD_XDICTIONARY
360
257C8
102
}
102
{ACAD_REACTORS
330
10A6E
102
}
330
10A6E
100
AcDbTableStyle
  3
Standard
 70
     0
 71
     0
 40
1.5
 41
1.5
280
     0
281
     0
  7
STANDARD
140
4.5
170
     2
 62
     0
 63
     7
283
     0
274
    -2
284
     1
 64
     0
275
    -2
285
     1
 65
     0
276
    -2
286
     1
 66
     0
277
    -2
287
     1
 67
     0
278
    -2
288
     1
 68
     0
279
    -2
289
     1
 69
     0
  7
STANDARD
140
6.0
170
     5
 62
     0
 63
     7
283
     0
274
    -2
284
     1
 64
     0
275
    -2
285
     1
 65
     0
276
    -2
286
     1
 66
     0
277
    -2
287
     1
 67
     0
278
    -2
288
     1
 68
     0
279
    -2
289
     1
 69
     0
  7
STANDARD
140
4.5
170
     5
 62
     0
 63
     7
283
     0
274
    -2
284
     1
 64
     0
275
    -2
285
     1
 65
     0
276
    -2
286
     1
 66
     0
277
    -2
287
     1
 67
     0
278
    -2
288
     1
 68
     0
279
    -2
289
     1
 69
     0
  0
VISUALSTYLE
  5
11065
102
{ACAD_REACTORS
330
1105F
102
}
330
1105F
100
AcDbVisualStyle
  2
2dWireframe
 70
     4
 71
     0
 72
     2
 73
     0
 90
        0
 40
-0.6
 41
-30.0
 62
     5
 63
     7
 74
     1
 91
        4
 64
     7
 65
   257
 75
     1
175
     1
 42
1.0
 92
        0
 66
   257
 43
1.0
 76
     1
 77
     6
 78
     2
 67
     7
 79
     5
170
     0
171
     0
290
     0
174
     0
 93
        1
 44
0.0
173
     0
291
     0
 45
0.0
1001
ACAD
1000
AcDbSavedByObjectVersion
1070
     0
  0
VISUALSTYLE
  5
11067
102
{ACAD_REACTORS
330
1105F
102
}
330
1105F
100
AcDbVisualStyle
  2
3D Hidden
 70
     6
 71
     1
 72
     2
 73
     2
 90
        0
 40
-0.6
 41
-30.0
 62
     5
 63
     7
 74
     2
 91
        2
 64
     7
 65
   257
 75
     2
175
     1
 42
40.0
 92
        0
 66
   257
 43
1.0
 76
     1
 77
     6
 78
     2
 67
     7
 79
     3
170
     0
171
     0
290
     0
174
     0
 93
        1
 44
0.0
173
     0
291
     0
 45
0.0
1001
ACAD
1000
AcDbSavedByObjectVersion
1070
     0
  0
VISUALSTYLE
  5
11066
102
{ACAD_REACTORS
330
1105F
102
}
330
1105F
100
AcDbVisualStyle
  2
3dWireframe
 70
     5
 71
     0
 72
     2
 73
     0
 90
        0
 40
-0.6
 41
-30.0
 62
     5
 63
     7
 74
     1
 91
        4
 64
     7
 65
   257
 75
     1
175
     1
 42
1.0
 92
        0
 66
   257
 43
1.0
 76
     1
 77
     6
 78
     2
 67
     7
 79
     5
170
     0
171
     0
290
     0
174
     0
 93
        1
 44
0.0
173
     0
291
     0
 45
0.0
1001
ACAD
1000
AcDbSavedByObjectVersion
1070
     0
  0
VISUALSTYLE
  5
11064
102
{ACAD_REACTORS
330
1105F
102
}
330
1105F
100
AcDbVisualStyle
  2
Basic
 70
     7
 71
     1
 72
     0
 73
     1
 90
        0
 40
-0.6
 41
-30.0
 62
     5
 63
     7
 74
     0
 91
        4
 64
     7
 65
   257
 75
     1
175
     1
 42
1.0
 92
        8
 66
     7
 43
1.0
 76
     1
 77
     6
 78
     2
 67
     7
 79
     5
170
     0
171
     0
290
     0
174
     0
 93
        1
 44
0.0
173
     0
291
     1
 45
0.0
1001
ACAD
1000
AcDbSavedByObjectVersion
1070
     0
  0
VISUALSTYLE
  5
1106B
102
{ACAD_REACTORS
330
1105F
102
}
330
1105F
100
AcDbVisualStyle
  2
Brighten
 70
    12
 71
     2
 72
     2
 73
     0
 90
        0
 40
-0.6
 41
-30.0
 62
     5
 63
     7
 74
     1
 91
        4
 64
     7
 65
   257
 75
     1
175
     1
 42
1.0
 92
        8
 66
     7
 43
1.0
 76
     1
 77
     6
 78
     2
 67
     7
 79
     5
170
     0
171
     0
290
     0
174
     0
 93
        1
 44
50.0
173
     0
291
     1
 45
0.0
1001
ACAD
1000
AcDbSavedByObjectVersion
1070
     0
  0
VISUALSTYLE
  5
1106F
102
{ACAD_REACTORS
330
1105F
102
}
330
1105F
100
AcDbVisualStyle
  2
ColorChange
 70
    16
 71
     2
 72
     2
 73
     3
 90
        0
 40
-0.6
 41
-30.0
 62
     5
 63
     8
 74
     1
 91
        4
 64
     7
 65
   257
 75
     1
175
     1
 42
1.0
 92
        8
 66
     8
 43
1.0
 76
     1
 77
     6
 78
     2
 67
     7
 79
     5
170
     0
171
     0
290
     0
174
     0
 93
        1
 44
0.0
173
     0
291
     1
 45
0.0
1001
ACAD
1000
AcDbSavedByObjectVersion
1070
     0
  0
VISUALSTYLE
  5
11068
102
{ACAD_REACTORS
330
1105F
102
}
330
1105F
100
AcDbVisualStyle
  2
Conceptual
 70
     9
 71
     3
 72
     2
 73
     0
 90
        0
 40
-0.6
 41
-30.0
 62
     5
 63
     7
 74
     2
 91
        2
 64
     7
 65
   257
 75
     1
175
     1
 42
40.0
 92
        8
 66
     7
 43
1.0
 76
     1
 77
     6
 78
     2
 67
     7
 79
     3
170
     0
171
     0
290
     0
174
     0
 93
        1
 44
0.0
173
     0
291
     0
 45
0.0
1001
ACAD
1000
AcDbSavedByObjectVersion
1070
     0
  0
VISUALSTYLE
  5
1106A
102
{ACAD_REACTORS
330
1105F
102
}
330
1105F
100
AcDbVisualStyle
  2
Dim
 70
    11
 71
     2
 72
     2
 73
     0
 90
        0
 40
-0.6
 41
-30.0
 62
     5
 63
     7
 74
     1
 91
        4
 64
     7
 65
   257
 75
     1
175
     1
 42
1.0
 92
        8
 66
     7
 43
1.0
 76
     1
 77
     6
 78
     2
 67
     7
 79
     5
170
     0
171
     0
290
     0
174
     0
 93
        1
 44
-50.0
173
     0
291
     1
 45
0.0
1001
ACAD
1000
AcDbSavedByObjectVersion
1070
     0
  0
VISUALSTYLE
  5
1106E
102
{ACAD_REACTORS
330
1105F
102
}
330
1105F
100
AcDbVisualStyle
  2
Facepattern
 70
    15
 71
     2
 72
     2
 73
     0
 90
        0
 40
-0.6
 41
-30.0
 62
     5
 63
     7
 74
     1
 91
        4
 64
     7
 65
   257
 75
     1
175
     1
 42
1.0
 92
        8
 66
     7
 43
1.0
 76
     1
 77
     6
 78
     2
 67
     7
 79
     5
170
     0
171
     0
290
     0
174
     0
 93
        1
 44
0.0
173
     0
291
     1
 45
0.0
1001
ACAD
1000
AcDbSavedByObjectVersion
1070
     0
  0
VISUALSTYLE
  5
11060
102
{ACAD_REACTORS
330
1105F
102
}
330
1105F
100
AcDbVisualStyle
  2
Flat
 70
     0
 71
     2
 72
     1
 73
     1
 90
        2
 40
-0.6
 41
30.0
 62
     5
 63
     7
 74
     0
 91
        4
 64
     7
 65
   257
 75
     1
175
     1
 42
1.0
 92
        8
 66
     7
 43
1.0
 76
     1
 77
     6
 78
     2
 67
     7
 79
     5
170
     0
171
     0
290
     0
174
     0
 93
       13
 44
0.0
173
     0
291
     1
 45
0.0
1001
ACAD
1000
AcDbSavedByObjectVersion
1070
     0
  0
VISUALSTYLE
  5
11061
102
{ACAD_REACTORS
330
1105F
102
}
330
1105F
100
AcDbVisualStyle
  2
FlatWithEdges
 70
     1
 71
     2
 72
     1
 73
     1
 90
        2
 40
-0.6
 41
30.0
 62
     5
 63
     7
 74
     1
 91
        4
 64
     7
 65
   257
 75
     1
175
     1
 42
1.0
 92
        0
 66
   257
 43
1.0
 76
     1
 77
     6
 78
     2
 67
     7
 79
     5
170
     0
171
     0
290
     0
174
     0
 93
       13
 44
0.0
173
     0
291
     1
 45
0.0
1001
ACAD
1000
AcDbSavedByObjectVersion
1070
     0
  0
VISUALSTYLE
  5
11062
102
{ACAD_REACTORS
330
1105F
102
}
330
1105F
100
AcDbVisualStyle
  2
Gouraud
 70
     2
 71
     2
 72
     2
 73
     1
 90
        2
 40
-0.6
 41
30.0
 62
     5
 63
     7
 74
     0
 91
        4
 64
     7
 65
   257
 75
     1
175
     1
 42
1.0
 92
        0
 66
     7
 43
1.0
 76
     1
 77
     6
 78
     2
 67
     7
 79
     5
170
     0
171
     0
290
     0
174
     0
 93
       13
 44
0.0
173
     0
291
     1
 45
0.0
1001
ACAD
1000
AcDbSavedByObjectVersion
1070
     0
  0
VISUALSTYLE
  5
11063
102
{ACAD_REACTORS
330
1105F
102
}
330
1105F
100
AcDbVisualStyle
  2
GouraudWithEdges
 70
     3
 71
     2
 72
     2
 73
     1
 90
        2
 40
-0.6
 41
30.0
 62
     5
 63
     7
 74
     1
 91
        4
 64
     7
 65
   257
 75
     1
175
     1
 42
1.0
 92
        0
 66
   257
 43
1.0
 76
     1
 77
     6
 78
     2
 67
     7
 79
     5
170
     0
171
     0
290
     0
174
     0
 93
       13
 44
0.0
173
     0
291
     1
 45
0.0
1001
ACAD
1000
AcDbSavedByObjectVersion
1070
     0
  0
VISUALSTYLE
  5
1106D
102
{ACAD_REACTORS
330
1105F
102
}
330
1105F
100
AcDbVisualStyle
  2
Linepattern
 70
    14
 71
     2
 72
     2
 73
     0
 90
        0
 40
-0.6
 41
-30.0
 62
     5
 63
     7
 74
     1
 91
        4
 64
     7
 65
   257
 75
     7
175
     7
 42
1.0
 92
        8
 66
     7
 43
1.0
 76
     1
 77
     6
 78
     2
 67
     7
 79
     5
170
     0
171
     0
290
     0
174
     0
 93
        1
 44
0.0
173
     0
291
     1
 45
0.0
1001
ACAD
1000
AcDbSavedByObjectVersion
1070
     0
  0
VISUALSTYLE
  5
11069
102
{ACAD_REACTORS
330
1105F
102
}
330
1105F
100
AcDbVisualStyle
  2
Realistic
 70
     8
 71
     2
 72
     2
 73
     0
 90
        0
 40
-0.6
 41
-30.0
 62
     5
 63
     7
 74
     1
 91
        0
 64
     7
 65
   257
 75
     1
175
     1
 42
1.0
 92
        8
 66
     8
 43
1.0
 76
     1
 77
     6
 78
     2
 67
     7
 79
     5
170
     0
171
     0
290
     0
174
     0
 93
       13
 44
0.0
173
     0
291
     0
 45
0.0
1001
ACAD
1000
AcDbSavedByObjectVersion
1070
     0
  0
VISUALSTYLE
  5
1106C
102
{ACAD_REACTORS
330
1105F
102
}
330
1105F
100
AcDbVisualStyle
  2
Thicken
 70
    13
 71
     2
 72
     2
 73
     0
 90
        0
 40
-0.6
 41
-30.0
 62
     5
 63
     7
 74
     1
 91
        4
 64
     7
 65
   257
 75
     1
175
     1
 42
1.0
 92
       12
 66
     7
 43
1.0
 76
     1
 77
     6
 78
     2
 67
     7
 79
     5
170
     0
171
     0
290
     0
174
     0
 93
        1
 44
0.0
173
     0
291
     1
 45
0.0
1001
ACAD
1000
AcDbSavedByObjectVersion
1070
     0
  0
DICTIONARYVAR
  5
10ABF
102
{ACAD_REACTORS
330
34
102
}
330
34
100
DictionaryVariables
280
     0
  1
STANDARD
  0
DICTIONARYVAR
  5
AC85
102
{ACAD_REACTORS
330
34
102
}
330
34
100
DictionaryVariables
280
     0
  1
1
  0
DICTIONARYVAR
  5
35
102
{ACAD_REACTORS
330
34
102
}
330
34
100
DictionaryVariables
280
     0
  1
0
  0
DICTIONARYVAR
  5
194C
102
{ACAD_REACTORS
330
34
102
}
330
34
100
DictionaryVariables
280
     0
  1
96
  0
DICTIONARY
  5
7E8
102
{ACAD_REACTORS
330
47
102
}
330
47
100
AcDbDictionary
281
     1
  0
DICTIONARY
  5
4C
102
{ACAD_REACTORS
330
47
102
}
330
47
100
AcDbDictionary
281
     1
  0
XRECORD
  5
10A86
102
{ACAD_REACTORS
330
47
102
}
330
47
100
AcDbXrecord
280
     1
 90
-1023410169
  0
XRECORD
  5
15C66
102
{ACAD_REACTORS
330
15C65
102
}
330
15C65
100
AcDbXrecord
280
     1
330
0
330
0
330
0
330
0
330
0
330
0
330
0
330
0
330
0
330
0
330
0
330
0
330
0
330
0
330
0
330
0
330
0
330
0
330
0
330
0
330
0
330
0
330
0
330
0
330
0
330
0
330
0
330
0
330
0
330
0
330
0
330
0
330
0
330
0
330
0
330
0
330
0
330
0
330
0
330
0
330
0
330
0
330
0
330
0
330
0
330
0
330
0
330
0
330
0
330
0
330
0
330
0
330
0
330
0
330
0
330
0
330
0
330
0
330
0
330
0
330
0
330
0
330
0
330
0
330
0
330
0
330
0
330
0
330
0
330
0
330
0
330
0
330
0
330
0
330
0
330
0
330
0
330
0
330
0
330
0
330
0
330
0
330
0
330
0
330
0
330
0
330
0
330
0
330
0
330
0
330
0
330
0
330
0
330
0
330
0
330
0
330
0
330
0
330
0
330
0
330
0
330
0
330
0
330
0
330
0
330
0
330
0
330
0
330
0
330
0
330
0
330
0
330
0
330
0
330
0
330
0
330
0
330
0
330
0
330
0
330
0
330
0
330
0
330
0
330
0
330
0
330
0
330
0
330
0
330
0
330
0
330
0
330
0
330
0
330
0
330
0
330
0
330
0
330
0
330
0
330
0
330
0
330
0
330
0
330
0
330
0
330
0
330
0
330
0
330
0
330
0
330
0
330
0
330
0
330
0
330
0
330
0
330
0
330
0
330
0
330
0
330
0
330
0
330
0
330
0
330
0
330
0
330
0
330
0
330
0
330
0
330
0
330
0
330
0
330
0
330
0
330
0
330
0
330
0
330
0
330
0
330
0
330
0
330
0
330
0
330
0
330
0
330
0
330
0
330
0
330
0
330
0
330
0
330
0
330
0
330
0
330
0
330
0
330
0
330
0
330
0
330
0
330
0
330
0
330
0
330
0
330
0
330
0
330
0
330
0
330
0
330
0
330
0
330
0
330
0
330
0
330
0
330
0
330
0
330
0
330
0
330
0
330
0
330
0
330
0
330
0
330
0
330
0
330
0
330
0
330
0
330
0
330
0
330
0
330
0
330
0
330
0
330
0
330
0
330
0
330
0
330
0
330
0
330
0
330
0
330
0
330
0
330
0
330
0
330
0
330
0
330
0
330
0
330
0
330
0
330
0
330
0
330
0
330
0
330
0
330
0
330
0
330
0
330
0
330
0
330
0
330
0
330
0
330
0
330
0
330
0
330
0
330
0
330
0
330
0
330
0
330
0
330
0
330
0
330
0
330
0
330
0
330
0
330
0
330
0
330
0
330
0
330
0
330
0
330
0
330
0
330
0
330
0
330
0
330
0
330
0
330
0
330
0
330
0
330
0
330
0
330
0
330
0
330
0
330
0
330
0
330
0
330
0
330
0
330
0
330
0
330
0
330
0
330
0
330
0
330
0
330
0
330
0
330
0
330
0
330
0
330
0
330
0
330
0
330
0
330
0
330
0
330
0
330
0
330
0
330
0
330
0
330
0
330
0
330
0
330
0
330
0
330
0
330
0
330
0
330
0
330
0
330
0
330
0
330
0
330
0
330
0
330
0
330
0
330
0
330
0
330
0
330
0
330
0
330
0
330
0
330
0
330
0
330
0
330
0
330
0
330
0
330
0
330
0
330
0
330
0
330
0
330
0
330
0
330
0
330
0
330
0
330
0
330
0
330
0
330
0
330
0
330
0
330
0
330
0
330
0
330
0
330
0
330
0
330
0
330
0
330
0
330
0
330
0
330
0
330
0
330
0
330
0
330
0
330
0
330
0
330
0
330
0
330
0
330
0
330
0
330
0
330
0
330
0
330
0
330
0
330
0
330
0
330
0
330
0
330
0
330
0
330
0
330
0
330
0
330
0
330
0
330
0
  0
XRECORD
  5
1CD80
102
{ACAD_REACTORS
330
1CD7E
102
}
330
1CD7E
100
AcDbXrecord
280
     1
  1
50
  1
*-50
  1
*
  1
*
 70
     0
  1
*
  1
*
1001
ACAD
1000
( NAME== "*-50" )
  0
XRECORD
  5
3FB7
102
{ACAD_REACTORS
330
3F96
102
}
330
3F96
100
AcDbXrecord
280
     1
 91
        3
330
A47
 90
        8
 62
     7
370
    40
331
16
  1
Color_7
330
A46
 90
        0
 62
    14
370
    -3
331
16
  1
Color_14
330
0
 90
        8
 62
     7
370
    20
331
16
  1
Color_7
330
6D1
 90
        0
 62
     7
370
    -3
331
16
  1
Color_7
330
0
 90
        8
 62
     7
370
    50
331
16
  1
Color_7
330
A48
 90
        8
 62
     2
370
    35
331
16
  1
Color_2
330
0
 90
        8
 62
     7
370
    -3
331
16
  1
Color_7
330
10
 90
        8
 62
     7
370
    -3
331
16
  1
Color_7
  0
XRECORD
  5
1CD7F
102
{ACAD_REACTORS
330
1CD7D
102
}
330
1CD7D
100
AcDbXrecord
280
     1
  1
AcLyLayerFilter
 90
        1
300
50
301
( NAME== "*-50" )
  0
DICTIONARY
  5
257BE
330
22
100
AcDbDictionary
280
     1
281
     1
  3
ACAD_XREC_ROUNDTRIP
360
257BF
  0
DICTIONARY
  5
257BC
330
1E
100
AcDbDictionary
280
     1
281
     1
  3
ACAD_XREC_ROUNDTRIP
360
257BD
  0
DICTIONARY
  5
257C0
330
26
100
AcDbDictionary
280
     1
281
     1
  3
ACAD_XREC_ROUNDTRIP
360
257C1
  0
DICTIONARY
  5
257CC
330
1105D
100
AcDbDictionary
280
     1
281
     1
  3
ACAD_XREC_ROUNDTRIP
360
257CD
  0
DICTIONARY
  5
257CA
330
1105C
100
AcDbDictionary
280
     1
281
     1
  3
ACAD_XREC_ROUNDTRIP
360
257CB
  0
DICTIONARY
  5
257CE
330
1105E
100
AcDbDictionary
280
     1
281
     1
  3
ACAD_XREC_ROUNDTRIP
360
257CF
  0
DICTIONARY
  5
257C2
330
10A03
100
AcDbDictionary
280
     1
281
     1
  3
ACAD_XREC_ROUNDTRIP
360
257C3
  0
DICTIONARY
  5
257C4
330
10A04
100
AcDbDictionary
280
     1
281
     1
  3
ACAD_XREC_ROUNDTRIP
360
257C5
  0
DICTIONARY
  5
257C6
330
10A05
100
AcDbDictionary
280
     1
281
     1
  3
ACAD_XREC_ROUNDTRIP
360
257C7
  0
DICTIONARY
  5
257D0
330
1B04D
100
AcDbDictionary
280
     1
281
     1
  3
ACAD_XREC_ROUNDTRIP
360
257D1
  0
DICTIONARY
  5
257C8
330
10A6F
100
AcDbDictionary
280
     1
281
     1
  3
ACAD_XREC_ROUNDTRIP
360
257C9
  0
XRECORD
  5
257BF
102
{ACAD_REACTORS
330
257BE
102
}
330
257BE
100
AcDbXrecord
280
     1
102
SHADEPLOT
 70
     0
102
SHADEPLOTRESLEVEL
 70
     2
102
SHADEPLOTCUSTOMDPI
 70
   300
  0
XRECORD
  5
257BD
102
{ACAD_REACTORS
330
257BC
102
}
330
257BC
100
AcDbXrecord
280
     1
102
SHADEPLOT
 70
     0
102
SHADEPLOTRESLEVEL
 70
     2
102
SHADEPLOTCUSTOMDPI
 70
   300
  0
XRECORD
  5
257C1
102
{ACAD_REACTORS
330
257C0
102
}
330
257C0
100
AcDbXrecord
280
     1
102
SHADEPLOT
 70
     0
102
SHADEPLOTRESLEVEL
 70
     2
102
SHADEPLOTCUSTOMDPI
 70
   300
  0
XRECORD
  5
257CD
102
{ACAD_REACTORS
330
257CC
102
}
330
257CC
100
AcDbXrecord
280
     1
102
MATERIAL
148
0.0
149
0.0
149
0.0
 93
        0
 94
       63
282
     0
 72
     1
 77
     1
171
     1
175
     1
179
     1
273
     0
  0
XRECORD
  5
257CB
102
{ACAD_REACTORS
330
257CA
102
}
330
257CA
100
AcDbXrecord
280
     1
102
MATERIAL
148
0.0
149
0.0
149
0.0
 93
        0
 94
       63
282
     0
 72
     1
 77
     1
171
     1
175
     1
179
     1
273
     0
  0
XRECORD
  5
257CF
102
{ACAD_REACTORS
330
257CE
102
}
330
257CE
100
AcDbXrecord
280
     1
102
MATERIAL
148
0.0
149
0.0
149
0.0
 93
        0
 94
       63
282
     0
 72
     1
 77
     1
171
     1
175
     1
179
     1
273
     0
  0
XRECORD
  5
257C3
102
{ACAD_REACTORS
330
257C2
102
}
330
257C2
100
AcDbXrecord
280
     1
102
SHADEPLOT
 70
     1
102
SHADEPLOTRESLEVEL
 70
     2
102
SHADEPLOTCUSTOMDPI
 70
   300
  0
XRECORD
  5
257C5
102
{ACAD_REACTORS
330
257C4
102
}
330
257C4
100
AcDbXrecord
280
     1
102
SHADEPLOT
 70
     1
102
SHADEPLOTRESLEVEL
 70
     2
102
SHADEPLOTCUSTOMDPI
 70
   300
  0
XRECORD
  5
257C7
102
{ACAD_REACTORS
330
257C6
102
}
330
257C6
100
AcDbXrecord
280
     1
102
SHADEPLOT
 70
     1
102
SHADEPLOTRESLEVEL
 70
     2
102
SHADEPLOTCUSTOMDPI
 70
   300
  0
XRECORD
  5
257D1
102
{ACAD_REACTORS
330
257D0
102
}
330
257D0
100
AcDbXrecord
280
     1
102
SHADEPLOT
 70
     1
102
SHADEPLOTRESLEVEL
 70
     2
102
SHADEPLOTCUSTOMDPI
 70
   300
  0
XRECORD
  5
257C9
102
{ACAD_REACTORS
330
257C8
102
}
330
257C8
100
AcDbXrecord
280
     1
102
ACAD_ROUNDTRIP_PRE2007_TABLESTYLE
 90
        4
 91
        0
  1

 92
        4
 93
        0
  2

 94
        4
 95
        0
  3

  0
ENDSEC
  0
EOF
