  0
SECTION
  2
HEADER
  9
$ACADVER
  1
AC1015
  9
$ACADMAINTVER
 70
    20
  9
$DWGCODEPAGE
  3
ANSI_932
  9
$INSBASE
 10
0.0
 20
0.0
 30
0.0
  9
$EXTMIN
 10
3081.956082169813
 20
1636.428160050056
 30
-0.0015258207003583
  9
$EXTMAX
 10
3379.274234866863
 20
1846.633233530323
 30
0.0000000349246037
  9
$LIMMIN
 10
3779.599158088851
 20
100.7134268036752
  9
$LIMMAX
 10
9719.599158088852
 20
4300.713426803675
  9
$ORTHOMODE
 70
     0
  9
$REGENMODE
 70
     1
  9
$FILLMODE
 70
     1
  9
$QTEXTMODE
 70
     0
  9
$MIRRTEXT
 70
     0
  9
$LTSCALE
 40
1.0
  9
$ATTMODE
 70
     1
  9
$TEXTSIZE
 40
3.2
  9
$TRACEWID
 40
1.0
  9
$TEXTSTYLE
  7
STANDARD
  9
$CLAYER
  8
AM_0
  9
$CELTYPE
  6
ByLayer
  9
$CECOLOR
 62
   256
  9
$CELTSCALE
 40
1.0
  9
$DISPSILH
 70
     0
  9
$DIMSCALE
 40
1.0
  9
$DIMASZ
 40
1.0
  9
$DIMEXO
 40
1.0
  9
$DIMDLI
 40
10.0
  9
$DIMRND
 40
0.0
  9
$DIMDLE
 40
0.0
  9
$DIMEXE
 40
1.0
  9
$DIMTP
 40
0.1
  9
$DIMTM
 40
0.1
  9
$DIMTXT
 40
3.5
  9
$DIMCEN
 40
0.0
  9
$DIMTSZ
 40
0.0
  9
$DIMTOL
 70
     0
  9
$DIMLIM
 70
     0
  9
$DIMTIH
 70
     0
  9
$DIMTOH
 70
     0
  9
$DIMSE1
 70
     0
  9
$DIMSE2
 70
     0
  9
$DIMTAD
 70
     1
  9
$DIMZIN
 70
     8
  9
$DIMBLK
  1

  9
$DIMASO
 70
     1
  9
$DIMSHO
 70
     1
  9
$DIMPOST
  1

  9
$DIMAPOST
  1
"
  9
$DIMALT
 70
     0
  9
$DIMALTD
 70
     2
  9
$DIMALTF
 40
0.0393701
  9
$DIMLFAC
 40
1.0
  9
$DIMTOFL
 70
     1
  9
$DIMTVP
 40
0.0
  9
$DIMTIX
 70
     0
  9
$DIMSOXD
 70
     0
  9
$DIMSAH
 70
     0
  9
$DIMBLK1
  1

  9
$DIMBLK2
  1

  9
$DIMSTYLE
  2
SYS
  9
$DIMCLRD
 70
   256
  9
$DIMCLRE
 70
   256
  9
$DIMCLRT
 70
     7
  9
$DIMTFAC
 40
0.71
  9
$DIMGAP
 40
1.5
  9
$DIMJUST
 70
     0
  9
$DIMSD1
 70
     0
  9
$DIMSD2
 70
     0
  9
$DIMTOLJ
 70
     0
  9
$DIMTZIN
 70
     8
  9
$DIMALTZ
 70
     0
  9
$DIMALTTZ
 70
     0
  9
$DIMUPT
 70
     0
  9
$DIMDEC
 70
     2
  9
$DIMTDEC
 70
     2
  9
$DIMALTU
 70
     2
  9
$DIMALTTD
 70
     2
  9
$DIMTXSTY
  7
STANDARD
  9
$DIMAUNIT
 70
     0
  9
$DIMADEC
 70
     0
  9
$DIMALTRND
 40
0.0
  9
$DIMAZIN
 70
     2
  9
$DIMDSEP
 70
    46
  9
$DIMATFIT
 70
     3
  9
$DIMFRAC
 70
     0
  9
$DIMLDRBLK
  1

  9
$DIMLUNIT
 70
     2
  9
$DIMLWD
 70
    -1
  9
$DIMLWE
 70
    -1
  9
$DIMTMOVE
 70
     0
  9
$LUNITS
 70
     2
  9
$LUPREC
 70
     2
  9
$SKETCHINC
 40
1.0
  9
$FILLETRAD
 40
1.0
  9
$AUNITS
 70
     0
  9
$AUPREC
 70
     0
  9
$MENU
  1
.
  9
$ELEVATION
 40
0.0
  9
$PELEVATION
 40
0.0
  9
$THICKNESS
 40
0.0
  9
$LIMCHECK
 70
     0
  9
$CHAMFERA
 40
0.0
  9
$CHAMFERB
 40
0.0
  9
$CHAMFERC
 40
20.0
  9
$CHAMFERD
 40
0.0
  9
$SKPOLY
 70
     0
  9
$TDCREATE
 40
2455567.680725081
  9
$TDUCREATE
 40
2455567.305725081
  9
$TDUPDATE
 40
2456268.705695439
  9
$TDUUPDATE
 40
2456268.330695440
  9
$TDINDWG
 40
1.0860217708
  9
$TDUSRTIMER
 40
1.0860201389
  9
$USRTIMER
 70
     1
  9
$ANGBASE
 50
0.0
  9
$ANGDIR
 70
     0
  9
$PDMODE
 70
     0
  9
$PDSIZE
 40
-3.0
  9
$PLINEWID
 40
0.0
  9
$SPLFRAME
 70
     0
  9
$SPLINETYPE
 70
     6
  9
$SPLINESEGS
 70
     8
  9
$HANDSEED
  5
31339
  9
$SURFTAB1
 70
     6
  9
$SURFTAB2
 70
     6
  9
$SURFTYPE
 70
     6
  9
$SURFU
 70
     6
  9
$SURFV
 70
     6
  9
$UCSBASE
  2

  9
$UCSNAME
  2

  9
$UCSORG
 10
0.0
 20
0.0
 30
0.0
  9
$UCSXDIR
 10
1.0
 20
0.0
 30
0.0
  9
$UCSYDIR
 10
0.0
 20
1.0
 30
0.0
  9
$UCSORTHOREF
  2

  9
$UCSORTHOVIEW
 70
     0
  9
$UCSORGTOP
 10
0.0
 20
0.0
 30
0.0
  9
$UCSORGBOTTOM
 10
0.0
 20
0.0
 30
0.0
  9
$UCSORGLEFT
 10
0.0
 20
0.0
 30
0.0
  9
$UCSORGRIGHT
 10
0.0
 20
0.0
 30
0.0
  9
$UCSORGFRONT
 10
0.0
 20
0.0
 30
0.0
  9
$UCSORGBACK
 10
0.0
 20
0.0
 30
0.0
  9
$PUCSBASE
  2

  9
$PUCSNAME
  2

  9
$PUCSORG
 10
0.0
 20
0.0
 30
0.0
  9
$PUCSXDIR
 10
1.0
 20
0.0
 30
0.0
  9
$PUCSYDIR
 10
0.0
 20
1.0
 30
0.0
  9
$PUCSORTHOREF
  2

  9
$PUCSORTHOVIEW
 70
     0
  9
$PUCSORGTOP
 10
0.0
 20
0.0
 30
0.0
  9
$PUCSORGBOTTOM
 10
0.0
 20
0.0
 30
0.0
  9
$PUCSORGLEFT
 10
0.0
 20
0.0
 30
0.0
  9
$PUCSORGRIGHT
 10
0.0
 20
0.0
 30
0.0
  9
$PUCSORGFRONT
 10
0.0
 20
0.0
 30
0.0
  9
$PUCSORGBACK
 10
0.0
 20
0.0
 30
0.0
  9
$USERI1
 70
     0
  9
$USERI2
 70
     0
  9
$USERI3
 70
     0
  9
$USERI4
 70
     0
  9
$USERI5
 70
     0
  9
$USERR1
 40
0.0
  9
$USERR2
 40
0.0
  9
$USERR3
 40
0.0
  9
$USERR4
 40
0.0
  9
$USERR5
 40
0.0
  9
$WORLDVIEW
 70
     1
  9
$SHADEDGE
 70
     3
  9
$SHADEDIF
 70
    70
  9
$TILEMODE
 70
     1
  9
$MAXACTVP
 70
    64
  9
$PINSBASE
 10
0.0
 20
0.0
 30
0.0
  9
$PLIMCHECK
 70
     0
  9
$PEXTMIN
 10
1.000000000000000E+20
 20
1.000000000000000E+20
 30
1.000000000000000E+20
  9
$PEXTMAX
 10
-1.000000000000000E+20
 20
-1.000000000000000E+20
 30
-1.000000000000000E+20
  9
$PLIMMIN
 10
-3.17498779296875
 20
-3.174999952316284
  9
$PLIMMAX
 10
293.4970092773438
 20
206.692492723465
  9
$UNITMODE
 70
     0
  9
$VISRETAIN
 70
     1
  9
$PLINEGEN
 70
     0
  9
$PSLTSCALE
 70
     1
  9
$TREEDEPTH
 70
  3020
  9
$CMLSTYLE
  2
Standard
  9
$CMLJUST
 70
     0
  9
$CMLSCALE
 40
20.0
  9
$PROXYGRAPHICS
 70
     1
  9
$MEASUREMENT
 70
     1
  9
$CELWEIGHT
370
    -1
  9
$ENDCAPS
280
     0
  9
$JOINSTYLE
280
     0
  9
$LWDISPLAY
290
     1
  9
$INSUNITS
 70
     4
  9
$HYPERLINKBASE
  1

  9
$STYLESHEET
  1
monochrome.ctb
  9
$XEDIT
290
     1
  9
$CEPSNTYPE
380
     0
  9
$PSTYLEMODE
290
     1
  9
$FINGERPRINTGUID
  2
{487E49EE-344A-43F6-800E-CE119D8346FF}
  9
$VERSIONGUID
  2
{3A6C0D6A-6EB7-4516-AD08-6F4152FC700B}
  9
$EXTNAMES
290
     1
  9
$PSVPSCALE
 40
0.0
  9
$OLESTARTUP
290
     0
  0
ENDSEC
  0
SECTION
  2
CLASSES
  0
CLASS
  1
ACDBDICTIONARYWDFLT
  2
AcDbDictionaryWithDefault
  3
ObjectDBX Classes
 90
        0
280
     0
281
     0
  0
CLASS
  1
ACDBPLACEHOLDER
  2
AcDbPlaceHolder
  3
ObjectDBX Classes
 90
        0
280
     0
281
     0
  0
CLASS
  1
LAYOUT
  2
AcDbLayout
  3
ObjectDBX Classes
 90
        0
280
     0
281
     0
  0
CLASS
  1
AMGSETTINGSOBJ
  2
AmgSettingsObj
  3
"AcadM|Product Description: AutoCAD Mechanical|Company: Autodesk"
 90
        0
280
     0
281
     0
  0
CLASS
  1
ACME_DOCUMENT
  2
AcMeDbDoc
  3
AcMeServices
 90
        0
280
     0
281
     0
  0
CLASS
  1
ACMESCOPE
  2
AcMeScope
  3
AcMeServices
 90
        0
280
     0
281
     0
  0
CLASS
  1
ACMECOMMANDHISTORY
  2
AcMeCommandHistory
  3
AcMeServices
 90
        0
280
     0
281
     0
  0
CLASS
  1
DICTIONARYVAR
  2
AcDbDictionaryVar
  3
ObjectDBX Classes
 90
        0
280
     0
281
     0
  0
CLASS
  1
ACIMSYSVARMAN
  2
AcImSysVarManager
  3
AcMeServices
 90
        0
280
     0
281
     0
  0
CLASS
  1
ACIMREALSYSVAR
  2
AcImRealSysVar
  3
AcMeServices
 90
        0
280
     0
281
     0
  0
CLASS
  1
ACIMINTSYSVAR
  2
AcImIntSysVar
  3
AcMeServices
 90
        0
280
     0
281
     0
  0
CLASS
  1
ACMEDRAWINGMAN
  2
AcMeDrawingMan
  3
AcMeServices
 90
        0
280
     0
281
     0
  0
CLASS
  1
ACMEVIEW
  2
AcMeView
  3
AcMeServices
 90
        0
280
     0
281
     0
  0
CLASS
  1
ACDBENTITYCACHE
  2
AcMeEntityCache
  3
AcMeServices
 90
        0
280
     0
281
     0
  0
CLASS
  1
GSMANAGER
  2
AcMeGSManager
  3
AcMeServices
 90
        0
280
     0
281
     0
  0
CLASS
  1
AMDTINTERNALREACTOR
  2
AmdtInternalReactor
  3
AcMeServices
 90
        0
280
     0
281
     0
  0
CLASS
  1
ACMESTATEMGR
  2
AcMeStateMgr
  3
AcMeServices
 90
        0
280
     0
281
     0
  0
CLASS
  1
ACGREFMASTER
  2
AcGrefMaster
  3
AcAttribServices
 90
        0
280
     0
281
     0
  0
CLASS
  1
ACME_DATABASE
  2
AcMeDbDatabase
  3
AcMeServices
 90
        0
280
     0
281
     0
  0
CLASS
  1
ACRFINSADJUSTERMGR
  2
AcRfInsAdjusterMgr
  3
AcMeServices
 90
        0
280
     0
281
     0
  0
CLASS
  1
ACGREFACADMASTER
  2
AcGrefacadMaster
  3
AcGrefServices
 90
        0
280
     0
281
     0
  0
CLASS
  1
AMIMASTER
  2
AmiMaster
  3
AmiServices
 90
        0
280
     0
281
     0
  0
CLASS
  1
ACMDATADICTIONARY
  2
AcmDataDictionary
  3
"AcmSymBB|Product Description: AutoCAD Mechanical|Company: Autodesk"
 90
        0
280
     0
281
     0
  0
CLASS
  1
ACMDATAENTRYBLOCK
  2
AcmDataEntryBlock
  3
"AcmSymBB|Product Description: AutoCAD Mechanical|Company: Autodesk"
 90
        0
280
     0
281
     0
  0
CLASS
  1
ACIMSTRSYSVAR
  2
AcImStrSysVar
  3
AcMeServices
 90
        0
280
     0
281
     0
  0
CLASS
  1
ACMSTANDARDISO
  2
AcmStandardISO
  3
"Amdt_StdImp|Product Description: AutoCAD Mechanical|Company: Autodesk"
 90
        0
280
     0
281
     0
  0
CLASS
  1
AMGOBJPROPCFG
  2
AmgObjPropCfg
  3
"AmgLay|Product Description: AutoCAD Mechanical|Company: Autodesk"
 90
        1
280
     0
281
     0
  0
CLASS
  1
AMDTEDGESTANDARDISO
  2
AmdtEdgeStdISO
  3
"Amdt_StdImp|Product Description: AutoCAD Mechanical|Company: Autodesk"
 90
        0
280
     0
281
     0
  0
CLASS
  1
ACMSURFSTANDARDISO
  2
AcmSurfTextStdISO
  3
"Amdt_StdImp|Product Description: AutoCAD Mechanical|Company: Autodesk"
 90
        0
280
     0
281
     0
  0
CLASS
  1
ACMFCFSTANDARDISO
  2
AcmFCFStdISO
  3
"Amdt_StdImp|Product Description: AutoCAD Mechanical|Company: Autodesk"
 90
        0
280
     0
281
     0
  0
CLASS
  1
ACMWELDSTANDARDISO
  2
AcmWeldingStdISO
  3
"Amdt_StdImp|Product Description: AutoCAD Mechanical|Company: Autodesk"
 90
        0
280
     0
281
     0
  0
CLASS
  1
ACMIDSTANDARDISO
  2
AcmIdStdISO
  3
"Amdt_StdImp|Product Description: AutoCAD Mechanical|Company: Autodesk"
 90
        0
280
     0
281
     0
  0
CLASS
  1
ACMDATUMSTANDARDISO
  2
AcmDatumStdISO
  3
"Amdt_StdImp|Product Description: AutoCAD Mechanical|Company: Autodesk"
 90
        0
280
     0
281
     0
  0
CLASS
  1
ACMBOMSTANDARDISO
  2
AcmBOMStdISO
  3
"Amdt_StdImp|Product Description: AutoCAD Mechanical|Company: Autodesk"
 90
        0
280
     0
281
     0
  0
CLASS
  1
ACMDETAILSTANDARDISO
  2
AmdtDetailSymStdISO
  3
"Amdt_StdImp|Product Description: AutoCAD Mechanical|Company: Autodesk"
 90
        0
280
     0
281
     0
  0
CLASS
  1
ACMSECTIONSTANDARDISO
  2
AmdtSectionSymStdISO
  3
"Amdt_StdImp|Product Description: AutoCAD Mechanical|Company: Autodesk"
 90
        0
280
     0
281
     0
  0
CLASS
  1
ACMCENTERLINESTANDARDISO
  2
AmdtCenterLineStdISO
  3
"Amdt_StdImp|Product Description: AutoCAD Mechanical|Company: Autodesk"
 90
        0
280
     0
281
     0
  0
CLASS
  1
ACAMGLAYSTD
  2
AcAmgLayStd
  3
"AmgLay|Product Description: AutoCAD Mechanical|Company: Autodesk"
 90
        0
280
     0
281
     0
  0
CLASS
  1
ACAMGDIMSTD
  2
AcAmgDimStd
  3
"AmgDim|Product Description: AutoCAD Mechanical|Company: Autodesk"
 90
        0
280
     0
281
     0
  0
CLASS
  1
ACAMGTITLESTD
  2
AcAmgTitleStd
  3
"AmgTitle|Product Description: AutoCAD Mechanical|Company: Autodesk"
 90
        0
280
     0
281
     0
  0
CLASS
  1
ACAMGFILTERDAT
  2
AcAmgFilterDat
  3
"AcadM|Product Description: AutoCAD Mechanical|Company: Autodesk"
 90
        0
280
     0
281
     0
  0
CLASS
  1
LAYER_INDEX
  2
AcDbLayerIndex
  3
ObjectDBX Classes
 90
    32768
280
     0
281
     0
  0
CLASS
  1
IDBUFFER
  2
AcDbIdBuffer
  3
ObjectDBX Classes
 90
    32768
280
     0
281
     0
  0
CLASS
  1
PLOTSETTINGS
  2
AcDbPlotSettings
  3
ObjectDBX Classes
 90
    32768
280
     0
281
     0
  0
CLASS
  1
AMDTFORMULAUPDATEDISPATCHER
  2
AmdtFormulaUpdateDispatcher
  3
AcMeServices
 90
        0
280
     0
281
     0
  0
CLASS
  1
ACMSTANDARDANSI
  2
AcmStandardANSI
  3
"Amdt_StdImp|Product Description: AutoCAD Mechanical|Company: Autodesk"
 90
        0
280
     0
281
     0
  0
CLASS
  1
ACMSURFSTANDARDANSI
  2
AcmSurfTextStdANSI
  3
"Amdt_StdImp|Product Description: AutoCAD Mechanical|Company: Autodesk"
 90
        0
280
     0
281
     0
  0
CLASS
  1
ACMFCFSTANDARDANSI
  2
AcmFCFStdANSI
  3
"Amdt_StdImp|Product Description: AutoCAD Mechanical|Company: Autodesk"
 90
        0
280
     0
281
     0
  0
CLASS
  1
ACMWELDSTANDARDANSI
  2
AcmWeldingStdANSI
  3
"Amdt_StdImp|Product Description: AutoCAD Mechanical|Company: Autodesk"
 90
        0
280
     0
281
     0
  0
CLASS
  1
ACMIDSTANDARDANSI
  2
AcmIdStdANSI
  3
"Amdt_StdImp|Product Description: AutoCAD Mechanical|Company: Autodesk"
 90
        0
280
     0
281
     0
  0
CLASS
  1
ACMDATUMSTANDARDANSI
  2
AcmDatumStdANSI
  3
"Amdt_StdImp|Product Description: AutoCAD Mechanical|Company: Autodesk"
 90
        0
280
     0
281
     0
  0
CLASS
  1
ACMBOMSTANDARDANSI
  2
AcmBOMStdANSI
  3
"Amdt_StdImp|Product Description: AutoCAD Mechanical|Company: Autodesk"
 90
        0
280
     0
281
     0
  0
CLASS
  1
ACMDETAILSTANDARDANSI
  2
AmdtDetailSymStdANSI
  3
"Amdt_StdImp|Product Description: AutoCAD Mechanical|Company: Autodesk"
 90
        0
280
     0
281
     0
  0
CLASS
  1
ACMSECTIONSTANDARDANSI
  2
AmdtSectionSymStdANSI
  3
"Amdt_StdImp|Product Description: AutoCAD Mechanical|Company: Autodesk"
 90
        0
280
     0
281
     0
  0
CLASS
  1
ACMCENTERLINESTANDARDANSI
  2
AmdtCenterLineStdANSI
  3
"Amdt_StdImp|Product Description: AutoCAD Mechanical|Company: Autodesk"
 90
        0
280
     0
281
     0
  0
CLASS
  1
ACMBOM
  2
AcmBom
  3
"AcmSymBB|Product Description: AutoCAD Mechanical|Company: Autodesk"
 90
        0
280
     0
281
     0
  0
CLASS
  1
ACMDATAENTRYPART
  2
AcmDataEntryPart
  3
"AcmSymBB|Product Description: AutoCAD Mechanical|Company: Autodesk"
 90
    32768
280
     0
281
     0
  0
CLASS
  1
ACMPARTREF
  2
AcmPartRef
  3
"AcmSymBB|Product Description: AutoCAD Mechanical|Company: Autodesk"
 90
    35839
280
     0
281
     1
  0
CLASS
  1
ACDBCIRCARCRES
  2
AcDbCircArcRes
  3
AcGrefServices
 90
    32768
280
     0
281
     0
  0
CLASS
  1
ACMBOMROW
  2
AcmBomRow
  3
"AcmSymBB|Product Description: AutoCAD Mechanical|Company: Autodesk"
 90
    32768
280
     0
281
     0
  0
CLASS
  1
ACMBALLOON
  2
AcmBalloon
  3
"AcmSymBB|Product Description: AutoCAD Mechanical|Company: Autodesk"
 90
    35839
280
     0
281
     1
  0
CLASS
  1
AMDTNOTE
  2
AmdtNote
  3
"AcmSymBB|Product Description: AutoCAD Mechanical|Company: Autodesk"
 90
    35839
280
     0
281
     1
  0
CLASS
  1
STDPART2D
  2
AmgStdPart
  3
"g3vace|Class: AmgStdPart|Product Description: AutoCAD Mechanical|Company: Autodesk"
 90
    35839
280
     0
281
     1
  0
CLASS
  1
ACDBSTDPARTRES_LINE
  2
AcDbStdPartRes_Line
  3
"g3vace|Class: AcDbStdPartRes_Line|Product Description: AutoCAD Mechanical|Company: Autodesk"
 90
    32768
280
     0
281
     0
  0
CLASS
  1
ACMDATAENTRY
  2
AcmDataEntry
  3
"AcmSymBB|Product Description: AutoCAD Mechanical|Company: Autodesk"
 90
        0
280
     0
281
     0
  0
CLASS
  1
ACDBOPPOLYLINERES
  2
AcDbOpPolylineRes
  3
AcGrefServices
 90
    32768
280
     0
281
     0
  0
CLASS
  1
ACMPARTLIST
  2
AcmPartList
  3
"AcmSymBB|Product Description: AutoCAD Mechanical|Company: Autodesk"
 90
    35839
280
     0
281
     1
  0
CLASS
  1
ACDBLINERES
  2
AcDbLineRes
  3
AcGrefServices
 90
        0
280
     0
281
     0
  0
CLASS
  1
ACRFINSADJ
  2
AcRfInsAdjuster
  3
AcMeServices
 90
    32768
280
     0
281
     0
  0
CLASS
  1
AM_DRAWING_MGR
  2
AcDmDwgMgr
  3
AcMechDwgViewMgmt
 90
        0
280
     0
281
     0
  0
CLASS
  1
AM_DWG_DOCUMENT
  2
AcDmDwgDocument
  3
AcMechDwgViewMgmt
 90
        0
280
     0
281
     0
  0
CLASS
  1
AM_DWG_SHEET
  2
AcDmSheet
  3
AcMechDwgViewMgmt
 90
        0
280
     0
281
     0
  0
CLASS
  1
AM_VIEWDIMPARMAP
  2
AcDmViewDimParMap
  3
AcMechDwgViewMgmt
 90
        0
280
     0
281
     0
  0
CLASS
  1
AM_DWGMGR_NAME
  2
AcDmDwgMgrName
  3
AcMechDwgViewMgmt
 90
        0
280
     0
281
     0
  0
CLASS
  1
AMDTMENUSTATEMGR
  2
AmdtMenuStateMgr
  3
McadcomServices
 90
        0
280
     0
281
     0
  0
CLASS
  1
AMDTMCOMMENUSTATE
  2
AmdtMcomMenuState
  3
McadcomServices
 90
        0
280
     0
281
     0
  0
CLASS
  1
ASAPP
  2
AcAsAppObject
  3
AutoSurfServices
 90
        0
280
     0
281
     0
  0
CLASS
  1
IM_STATIC_MAN
  2
AcImStaticVarManager
  3
AcMeServices
 90
        0
280
     0
281
     0
  0
CLASS
  1
ACIMDBLSTATICVAR
  2
AcImDblStaticVar
  3
AcMeServices
 90
        0
280
     0
281
     0
  0
CLASS
  1
ACIMSTRSTATICVAR
  2
AcImStrStaticVar
  3
AcMeServices
 90
        0
280
     0
281
     0
  0
CLASS
  1
ACIMINTSTATICVAR
  2
AcImIntStaticVar
  3
AcMeServices
 90
        0
280
     0
281
     0
  0
CLASS
  1
ACASGREFMASTER
  2
AcAsGrefMaster
  3
AutoSurfResolverServices
 90
        0
280
     0
281
     0
  0
CLASS
  1
ACADGREFMODULE
  2
AcAdGrefModule
  3
AdGrefServices
 90
        0
280
     0
281
     0
  0
CLASS
  1
AMDTMAPISURFMOUDULE
  2
AmdtMApiSurfModule
  3
MApiSurfServices
 90
        0
280
     0
281
     0
  0
CLASS
  1
MAPIAMMOUDLE
  2
MApiAmModule
  3
MApiAmServices
 90
        0
280
     0
281
     0
  0
CLASS
  1
AMDTADMENUSTATE
  2
AmdtAdMenuState
  3
DesignerServices
 90
        0
280
     0
281
     0
  0
CLASS
  1
ADAPPL
  2
AcAdAppl
  3
DesignerServices
 90
        0
280
     0
281
     0
  0
CLASS
  1
DEPMGR
  2
AcAdDepMgr
  3
DesignerServices
 90
        0
280
     0
281
     0
  0
CLASS
  1
PARAMMGR
  2
AcAdParamMgr
  3
DesignerServices
 90
        0
280
     0
281
     0
  0
CLASS
  1
PARAMSCOPE
  2
AcAdParamScope
  3
DesignerServices
 90
        0
280
     0
281
     0
  0
CLASS
  1
NAMEDAPPL
  2
AcAdNamedAppl
  3
DesignerServices
 90
        0
280
     0
281
     0
  0
CLASS
  1
ADHNTMPLT
  2
AdHoleNoteTemplateMgr
  3
DesignerServices
 90
    32768
280
     0
281
     0
  0
CLASS
  1
AM_HNTEMPLATE_MGR_NAME
  2
AdHoleNoteTemplateMgrName
  3
DesignerServices
 90
    32768
280
     0
281
     0
  0
CLASS
  1
AMDTDMMENUSTATE
  2
AmdtDmMenuState
  3
AcMechDwgViewMgmt
 90
        0
280
     0
281
     0
  0
CLASS
  1
MAPIADMODULE
  2
MApiAdModule
  3
MApiAdServices
 90
        0
280
     0
281
     0
  0
CLASS
  1
AMDTAMMENUSTATE
  2
AmdtAmMenuState
  3
DesignerAssemblies
 90
        0
280
     0
281
     0
  0
CLASS
  1
ACAMPROJECT
  2
AcAmProject
  3
DesignerAssemblies
 90
        0
280
     0
281
     0
  0
CLASS
  1
ACAMGRCOMPDEF
  2
AcAmGrCompDef
  3
DesignerAssemblies
 90
        0
280
     0
281
     0
  0
CLASS
  1
ACCMCONTEXT
  2
AcCmContext
  3
DesignerAssemblies
 90
        0
280
     0
281
     0
  0
CLASS
  1
ACAMCOMPDEF
  2
AcAmCompDef
  3
DesignerAssemblies
 90
        0
280
     0
281
     0
  0
CLASS
  1
ACAMCOMPDEFMGR
  2
AcAmCompDefMgr
  3
DesignerAssemblies
 90
        0
280
     0
281
     0
  0
CLASS
  1
AMCONTEXTMGR
  2
AcAmContextMgr
  3
DesignerAssemblies
 90
        0
280
     0
281
     0
  0
CLASS
  1
ACAMCONTEXTMODELER
  2
AcAmContextModeler
  3
DesignerAssemblies
 90
        0
280
     0
281
     0
  0
CLASS
  1
CATALOGSTATE
  2
AcAmCatalogState
  3
DesignerAssemblies
 90
        0
280
     0
281
     0
  0
CLASS
  1
ACAMGRCOMPDEFSET
  2
AcAmGrCompDefSet
  3
DesignerAssemblies
 90
        0
280
     0
281
     0
  0
CLASS
  1
AMDTBROWSERDBTAB
  2
AmdtBrowserDbTab
  3
McadcomServices
 90
        0
280
     0
281
     0
  0
CLASS
  1
CBROWSERAPPOBJECT
  2
CBrowserAppObject
  3
McadcomServices
 90
        0
280
     0
281
     0
  0
CLASS
  1
DM_PLACEHOLDER
  2
AcDmSelsetPlaceholder
  3
AcMechDwgViewMgmt
 90
        0
280
     0
281
     0
  0
CLASS
  1
ACMPICKOBJ
  2
AcmPickEnt
  3
"AcmSymBB|Product Description: AutoCAD Mechanical|Company: Autodesk"
 90
    32768
280
     0
281
     1
  0
CLASS
  1
ACMNOTESTANDARDISO
  2
AmdtNoteStdISO
  3
"Amdt_StdImp|Product Description: AutoCAD Mechanical|Company: Autodesk"
 90
        0
280
     0
281
     0
  0
CLASS
  1
ACMNOTESTANDARDANSI
  2
AmdtNoteStdANSI
  3
"Amdt_StdImp|Product Description: AutoCAD Mechanical|Company: Autodesk"
 90
        0
280
     0
281
     0
  0
CLASS
  1
ACMTHREADLINESTANDARDISO
  2
AmdtThreadLineStdISO
  3
"Amdt_StdImp|Product Description: AutoCAD Mechanical|Company: Autodesk"
 90
        0
280
     0
281
     0
  0
CLASS
  1
ACMTHREADLINESTANDARDANSI
  2
AmdtThreadLineStdANSI
  3
"Amdt_StdImp|Product Description: AutoCAD Mechanical|Company: Autodesk"
 90
        0
280
     0
281
     0
  0
CLASS
  1
TABLESTYLE
  2
AcDbTableStyle
  3
ObjectDBX Classes
 90
     4095
280
     0
281
     0
  0
CLASS
  1
SORTENTSTABLE
  2
AcDbSortentsTable
  3
ObjectDBX Classes
 90
        0
280
     0
281
     0
  0
CLASS
  1
MATERIAL
  2
AcDbMaterial
  3
ObjectDBX Classes
 90
     1024
280
     0
281
     0
  0
CLASS
  1
VISUALSTYLE
  2
AcDbVisualStyle
  3
ObjectDBX Classes
 90
     4095
280
     0
281
     0
  0
CLASS
  1
ACRFATTGENMGR
  2
AcRfAttGeneralMgr
  3
AcAttribServices
 90
        0
280
     0
281
     0
  0
CLASS
  1
ACRFOBJATTMGR
  2
AcRfObjAttGroupMgr
  3
AcAttribServices
 90
        0
280
     0
281
     0
  0
CLASS
  1
ACRFMCADAPIATTHOLDER
  2
AcRfMCADAPIAttHolder
  3
AcAttribServices
 90
        0
280
     0
281
     0
  0
CLASS
  1
AMDTSYSATTR
  2
AmdtSystemAttribute
  3
AcAttribServices
 90
        0
280
     0
281
     0
  0
CLASS
  1
ACMTAPERSTANDARDISO
  2
AcmTaperStdISO
  3
"Amdt_StdImp|Product Description: AutoCAD Mechanical|Company: Autodesk"
 90
        0
280
     0
281
     0
  0
CLASS
  1
CAMSSTRUCTBTNSTATE
  2
StructBtnState
  3
L"DesignerAssemblies"
 90
        0
280
     0
281
     0
  0
CLASS
  1
DIMASSOC
  2
AcDbDimAssoc
  3
"AcDbDimAssoc|Product Desc:     AcDim ARX App For Dimension|Company:          Autodesk, Inc.|WEB Address:      www.autodesk.com"
 90
    32768
280
     0
281
     0
  0
CLASS
  1
EXACXREFPANELOBJECT
  2
ExAcXREFPanelObject
  3
EXAC_ESW
 90
    33793
280
     0
281
     0
  0
CLASS
  1
NPOCOLLECTION
  2
AcDbImpNonPersistentObjectsCollection
  3
ObjectDBX Classes
 90
    33921
280
     0
281
     0
  0
CLASS
  1
AMDTEDGESTANDARDISO13715
  2
AmdtEdgeStdISO13715
  3
"Amdt_StdImp|Product Description: AutoCAD Mechanical|Company: Autodesk"
 90
        0
280
     0
281
     0
  0
CLASS
  1
AMDTNOTETEMPLATEDB
  2
AmdtNoteTemplateDB
  3
AMDT_STDIMP_MODULE_NAME
 90
        0
280
     0
281
     0
  0
CLASS
  1
ACAMGHOLECHARTSTDISO
  2
AcAmgHoleChartStdISO
  3
ACMSYMBB_MODULE_NAME
 90
        0
280
     0
281
     0
  0
CLASS
  1
ACMTAPERSTANDARDANSI
  2
AcmTaperStdANSI
  3
"Amdt_StdImp|Product Description: AutoCAD Mechanical|Company: Autodesk"
 90
        0
280
     0
281
     0
  0
CLASS
  1
ACAMGHOLECHARTSTDANSI
  2
AcAmgHoleChartStdANSI
  3
ACMSYMBB_MODULE_NAME
 90
        0
280
     0
281
     0
  0
CLASS
  1
ACAMSTDPCOMPDEF
  2
AcAmStdpCompDef
  3
DesignerAssemblies
 90
    32768
280
     0
281
     0
  0
CLASS
  1
ACAMCOMP
  2
AcAmComp
  3
DesignerAssemblies
 90
    32768
280
     0
281
     0
  0
CLASS
  1
AC_AM_STDP_VIEW_DEF
  2
AcAmStdpViewDef
  3
DesignerAssemblies
 90
    32768
280
     0
281
     0
  0
CLASS
  1
AC_AM_MVD_DEP_MGR
  2
AcAmMVDdepMgr
  3
DesignerAssemblies
 90
        0
280
     0
281
     0
  0
CLASS
  1
AC_AM_MASTER_VIEW_DEF
  2
AcAmMasterViewDef
  3
DesignerAssemblies
 90
        0
280
     0
281
     0
  0
CLASS
  1
AC_AM_DIRTY_NODES
  2
AcAmDirtyNodes
  3
DesignerAssemblies
 90
        0
280
     0
281
     0
  0
CLASS
  1
AC_AM_MAPPER_CACHE
  2
AcAmMapperCache
  3
DesignerAssemblies
 90
        0
280
     0
281
     0
  0
CLASS
  1
ACAMMVDBACKUPOBJECT
  2
AcAmMVDBackupObject
  3
DesignerAssemblies
 90
        0
280
     0
281
     0
  0
CLASS
  1
AC_AM_COMP_VIEW_INST
  2
AcAmCompView
  3
DesignerAssemblies
 90
    32768
280
     0
281
     0
  0
CLASS
  1
AC_AM_2D_XREF_MGR
  2
AcAmXrefMgr2d
  3
DesignerAssemblies
 90
        0
280
     0
281
     0
  0
CLASS
  1
AC_AM_HIDE_SITUATION
  2
AcAmHideSituation
  3
DesignerAssemblies
 90
    32768
280
     0
281
     0
  0
CLASS
  1
AC_AM_TRANSFORM_GHOST
  2
AcDbTransformGhost
  3
DesignerAssemblies
 90
    32768
280
     0
281
     1
  0
CLASS
  1
L"OBJCLONER"
  2
ObjCloner
  3
DesignerAssemblies
 90
    32768
280
     0
281
     1
  0
ENDSEC
  0
SECTION
  2
TABLES
  0
TABLE
  2
VPORT
  5
8
330
0
100
AcDbSymbolTable
 70
     1
  0
VPORT
  5
B0EC
330
8
100
AcDbSymbolTableRecord
100
AcDbViewportTableRecord
  2
*Active
 70
     0
 10
0.0
 20
0.0
 11
1.0
 21
1.0
 12
3230.615158518338
 22
1741.53069679019
 13
0.0
 23
0.0
 14
2.5
 24
2.5
 15
10.0
 25
10.0
 16
0.0
 26
0.0
 36
1.0
 17
0.0
 27
0.0
 37
0.0
 40
211.7525954936186
 41
1.648648648648648
 42
50.0
 43
-1370.695619172058
 44
-1370.695619172058
 50
0.0
 51
0.0
 71
     0
 72
   100
 73
     1
 74
     3
 75
     0
 76
     0
 77
     0
 78
     0
281
     0
 65
     0
110
0.0
120
0.0
130
0.0
111
1.0
121
0.0
131
0.0
112
0.0
122
1.0
132
0.0
 79
     0
146
0.0
  0
ENDTAB
  0
TABLE
  2
LTYPE
  5
5
330
0
100
AcDbSymbolTable
 70
    23
  0
LTYPE
  5
14
330
5
100
AcDbSymbolTableRecord
100
AcDbLinetypeTableRecord
  2
ByBlock
 70
     0
  3

 72
    65
 73
     0
 40
0.0
  0
LTYPE
  5
15
330
5
100
AcDbSymbolTableRecord
100
AcDbLinetypeTableRecord
  2
ByLayer
 70
     0
  3

 72
    65
 73
     0
 40
0.0
  0
LTYPE
  5
16
330
5
100
AcDbSymbolTableRecord
100
AcDbLinetypeTableRecord
  2
Continuous
 70
     0
  3
Solid line
 72
    65
 73
     0
 40
0.0
  0
LTYPE
  5
4F
330
5
100
AcDbSymbolTableRecord
100
AcDbLinetypeTableRecord
  2
AM_ISO02W050
 70
     0
  3
__ __ __ __ __ __ __ __ __ __ __ __ __ __ __
 72
    65
 73
     2
 40
7.5
 49
6.0
 74
     0
 49
-1.5
 74
     0
  0
LTYPE
  5
52
330
5
100
AcDbSymbolTableRecord
100
AcDbLinetypeTableRecord
  2
Amconstr
 70
     0
  3
_______________________
 72
    65
 73
     2
 40
9999.0
 49
9999.0
 74
     0
 49
0.0
 74
     0
  0
LTYPE
  5
64
330
5
100
AcDbSymbolTableRecord
100
AcDbLinetypeTableRecord
  2
ACISOWELD
 70
     0
  3
_ _ _ _ _
 72
    65
 73
     2
 40
2.0
 49
2.0
 74
     0
 49
-1.0
 74
     0
  0
LTYPE
  5
65
330
5
100
AcDbSymbolTableRecord
100
AcDbLinetypeTableRecord
  2
ACISOTGB
 70
     0
  3
__ . . __ . .
 72
    65
 73
     6
 40
9.0
 49
4.0
 74
     0
 49
-1.0
 74
     0
 49
1.0
 74
     0
 49
-1.0
 74
     0
 49
1.0
 74
     0
 49
-1.0
 74
     0
  0
LTYPE
  5
66
330
5
100
AcDbSymbolTableRecord
100
AcDbLinetypeTableRecord
  2
ACISOTGL
 70
     0
  3
_ _ _ _ _
 72
    65
 73
     2
 40
3.0
 49
2.0
 74
     0
 49
-1.0
 74
     0
  0
LTYPE
  5
69
330
5
100
AcDbSymbolTableRecord
100
AcDbLinetypeTableRecord
  2
CENTER
 70
     0
  3
__ . __
 72
    65
 73
     4
 40
7.0
 49
4.0
 74
     0
 49
-1.0
 74
     0
 49
1.0
 74
     0
 49
-1.0
 74
     0
  0
LTYPE
  5
A6E
330
5
100
AcDbSymbolTableRecord
100
AcDbLinetypeTableRecord
  2
PHANTOM2
 70
     0
  3
Phantom (.5x) ___ _ _ ___ _ _ ___ _ _ ___ _ _
 72
    65
 73
     6
 40
31.75
 49
15.875
 74
     0
 49
-3.174999999999999
 74
     0
 49
3.174999999999999
 74
     0
 49
-3.174999999999999
 74
     0
 49
3.174999999999999
 74
     0
 49
-3.174999999999999
 74
     0
  0
LTYPE
  5
4DED
330
5
100
AcDbSymbolTableRecord
100
AcDbLinetypeTableRecord
  2
中線
 70
     0
  3
___________________
 72
    65
 73
     2
 40
2.0
 49
1.0
 74
     0
 49
1.0
 74
     0
  0
LTYPE
  5
4DF6
330
5
100
AcDbSymbolTableRecord
100
AcDbLinetypeTableRecord
  2
細線
 70
     0
  3
___________________
 72
    65
 73
     2
 40
2.0
 49
1.0
 74
     0
 49
1.0
 74
     0
  0
LTYPE
  5
4DF7
330
5
100
AcDbSymbolTableRecord
100
AcDbLinetypeTableRecord
  2
太線
 70
     0
  3
___________________
 72
    65
 73
     2
 40
2.0
 49
1.0
 74
     0
 49
1.0
 74
     0
  0
LTYPE
  5
4EA7
330
5
100
AcDbSymbolTableRecord
100
AcDbLinetypeTableRecord
  2
文字
 70
     0
  3
_________________
 72
    65
 73
     2
 40
2.0
 49
1.0
 74
     0
 49
1.0
 74
     0
  0
LTYPE
  5
4EA9
330
5
100
AcDbSymbolTableRecord
100
AcDbLinetypeTableRecord
  2
寸法線
 70
     0
  3
________________
 72
    65
 73
     2
 40
2.0
 49
1.0
 74
     0
 49
1.0
 74
     0
  0
LTYPE
  5
4F12
330
5
100
AcDbSymbolTableRecord
100
AcDbLinetypeTableRecord
  2
ハッチング
 70
     0
  3
_________________
 72
    65
 73
     2
 40
2.0
 49
1.0
 74
     0
 49
1.0
 74
     0
  0
LTYPE
  5
5180
330
5
100
AcDbSymbolTableRecord
100
AcDbLinetypeTableRecord
  2
陰線1
 70
     0
  3
__ __ __ __
 72
    65
 73
     2
 40
4.0
 49
2.2
 74
     0
 49
-1.8
 74
     0
  0
LTYPE
  5
5182
330
5
100
AcDbSymbolTableRecord
100
AcDbLinetypeTableRecord
  2
切断線
 70
     0
  3
/\/-/\/-/\/-/\/-/\/-/\/
 72
    65
 73
     2
 40
11.0001
 49
0.0001
 74
     4
 75
   135
340
56
 46
0.04
 50
0.0
 44
0.0
 45
0.0
 49
-11.0
 74
     0
  0
LTYPE
  5
5183
330
5
100
AcDbSymbolTableRecord
100
AcDbLinetypeTableRecord
  2
想像線1
 70
     0
  3
__ __ __ _____ __ __ ____
 72
    65
 73
     6
 40
14.5
 49
6.0
 74
     0
 49
-1.5
 74
     0
 49
2.0
 74
     0
 49
-1.5
 74
     0
 49
2.0
 74
     0
 49
-1.5
 74
     0
  0
LTYPE
  5
5185
330
5
100
AcDbSymbolTableRecord
100
AcDbLinetypeTableRecord
  2
中心線1
 70
     0
  3
___ _ ___ _ ___
 72
    65
 73
     4
 40
18.0
 49
12.0
 74
     0
 49
-2.0
 74
     0
 49
2.0
 74
     0
 49
-2.0
 74
     0
  0
LTYPE
  5
5188
330
5
100
AcDbSymbolTableRecord
100
AcDbLinetypeTableRecord
  2
補助線
 70
     0
  3
______________
 72
    65
 73
     2
 40
2.0
 49
1.0
 74
     0
 49
1.0
 74
     0
  0
LTYPE
  5
6427
330
5
100
AcDbSymbolTableRecord
100
AcDbLinetypeTableRecord
  2
HIDDEN
 70
     0
  3
Hidden __ __ __ __ __ __ __ __ __ __ __ __ __ _
 72
    65
 73
     2
 40
0.375
 49
0.25
 74
     0
 49
-0.125
 74
     0
  0
LTYPE
  5
AF95
330
5
100
AcDbSymbolTableRecord
100
AcDbLinetypeTableRecord
  2
AM_ISO08W050
 70
     0
  3
____ . ____ . ____ . ____ . ____ . ____ . ____
 72
    65
 73
     4
 40
18.0
 49
12.0
 74
     0
 49
-1.5
 74
     0
 49
3.0
 74
     0
 49
-1.5
 74
     0
  0
LTYPE
  5
FD15
330
5
100
AcDbSymbolTableRecord
100
AcDbLinetypeTableRecord
  2
ACANSTGB
 70
     0
  3
__ . . __ . .
 72
    65
 73
     6
 40
0.35433070866
 49
0.15748031496
 74
     0
 49
-0.03937007874
 74
     0
 49
0.03937007874
 74
     0
 49
-0.03937007874
 74
     0
 49
0.03937007874
 74
     0
 49
-0.03937007874
 74
     0
  0
LTYPE
  5
FD16
330
5
100
AcDbSymbolTableRecord
100
AcDbLinetypeTableRecord
  2
ACANSTGL
 70
     0
  3
_ _ _ _ _
 72
    65
 73
     2
 40
0.11811023622
 49
0.07874015748
 74
     0
 49
-0.03937007874
 74
     0
  0
ENDTAB
  0
TABLE
  2
LAYER
  5
2
102
{ACAD_XDICTIONARY
360
3F95
102
}
330
0
100
AcDbSymbolTable
 70
    15
  0
LAYER
  5
10
330
2
100
AcDbSymbolTableRecord
100
AcDbLayerTableRecord
  2
0
 70
     0
 62
     7
  6
Continuous
370
    -3
390
F
  0
LAYER
  5
6D1
330
2
100
AcDbSymbolTableRecord
100
AcDbLayerTableRecord
  2
Defpoints
 70
     0
 62
     7
  6
Continuous
290
     0
370
    -3
390
F
  0
LAYER
  5
5F85
330
2
100
AcDbSymbolTableRecord
100
AcDbLayerTableRecord
  2
AM_0
 70
     0
 62
     7
  6
中線
370
    25
390
F
1001
AcAecLayerStandard
1000

1000

  0
LAYER
  5
AC9F
330
2
100
AcDbSymbolTableRecord
100
AcDbLayerTableRecord
  2
size
 70
     0
 62
     5
  6
Continuous
290
     0
370
    25
390
F
  0
LAYER
  5
ACA0
330
2
100
AcDbSymbolTableRecord
100
AcDbLayerTableRecord
  2
waku
 70
     0
 62
     7
  6
Continuous
370
    35
390
F
  0
LAYER
  5
ACA1
330
2
100
AcDbSymbolTableRecord
100
AcDbLayerTableRecord
  2
AM_6
 70
     0
 62
     2
  6
文字
370
    15
390
F
1001
AcAecLayerStandard
1000

1000

  0
LAYER
  5
AD64
330
2
100
AcDbSymbolTableRecord
100
AcDbLayerTableRecord
  2
AM_2
 70
     0
 62
     1
  6
細線
370
    15
390
F
1001
AcAecLayerStandard
1000

1000

  0
LAYER
  5
AD68
330
2
100
AcDbSymbolTableRecord
100
AcDbLayerTableRecord
  2
AM_5
 70
     0
 62
     3
  6
寸法線
370
    15
390
F
1001
AcAecLayerStandard
1000

1000

  0
LAYER
  5
B5F5
330
2
100
AcDbSymbolTableRecord
100
AcDbLayerTableRecord
  2
0部品6
 70
     0
 62
    13
  6
細線
370
    30
390
F
1001
AcAecLayerStandard
1000

1000

  0
LAYER
  5
B5F7
330
2
100
AcDbSymbolTableRecord
100
AcDbLayerTableRecord
  2
0部品4
 70
     0
 62
    70
  6
細線
370
    30
390
F
1001
AcAecLayerStandard
1000

1000

  0
LAYER
  5
B5FC
330
2
100
AcDbSymbolTableRecord
100
AcDbLayerTableRecord
  2
0部品1
 70
     0
 62
   213
  6
細線
370
    30
390
F
1001
AcAecLayerStandard
1000

1000

  0
LAYER
  5
B5FD
330
2
100
AcDbSymbolTableRecord
100
AcDbLayerTableRecord
  2
0部品2
 70
     0
 62
   163
  6
細線
370
    30
390
F
1001
AcAecLayerStandard
1000

1000

  0
LAYER
  5
B5FE
330
2
100
AcDbSymbolTableRecord
100
AcDbLayerTableRecord
  2
0部品3
 70
     0
 62
   122
  6
細線
370
    30
390
F
1001
AcAecLayerStandard
1000

1000

  0
LAYER
  5
22DAB
330
2
100
AcDbSymbolTableRecord
100
AcDbLayerTableRecord
  2
AM_4
 70
     0
 62
     3
  6
補助線
370
    15
390
F
  0
LAYER
  5
2F74B
102
{ACAD_XDICTIONARY
360
2F74C
102
}
330
2
100
AcDbSymbolTableRecord
100
AcDbLayerTableRecord
  2
AM_1
 70
     0
 62
    30
  6
太線
370
    25
390
F
1001
AcAecLayerStandard
1000

1000

  0
ENDTAB
  0
TABLE
  2
STYLE
  5
3
330
0
100
AcDbSymbolTable
 70
     7
  0
STYLE
  5
11
330
3
100
AcDbSymbolTableRecord
100
AcDbTextStyleTableRecord
  2
STANDARD
 70
     0
 40
0.0
 41
0.7
 50
0.0
 71
     0
 42
3.2
  3
romans.shx
  4
extfont.shx
  0
STYLE
  5
56
330
3
100
AcDbSymbolTableRecord
100
AcDbTextStyleTableRecord
  2

 70
     1
 40
0.0
 41
1.0
 50
0.0
 71
     0
 42
2.5
  3
ltypeshp.shx
  4

  0
STYLE
  5
58
330
3
100
AcDbSymbolTableRecord
100
AcDbTextStyleTableRecord
  2
ACISOTS
 70
     0
 40
1.0
 41
1.0
 50
0.0
 71
     0
 42
2.5
  3
isocp.shx
  4
extfont.shx
  0
STYLE
  5
63
330
3
100
AcDbSymbolTableRecord
100
AcDbTextStyleTableRecord
  2
ACISOGDT
 70
     0
 40
0.0
 41
1.0
 50
0.0
 71
     0
 42
2.5
  3
amgdt.shx
  4

  0
STYLE
  5
A74
330
3
100
AcDbSymbolTableRecord
100
AcDbTextStyleTableRecord
  2
DIM
 70
     0
 40
0.0
 41
1.0
 50
0.0
 71
     0
 42
2.5
  3
monotxt.shx
  4
extfont.shx
  0
STYLE
  5
FD18
330
3
100
AcDbSymbolTableRecord
100
AcDbTextStyleTableRecord
  2
ACANSTS
 70
     0
 40
1.0
 41
1.0
 50
0.0
 71
     0
 42
0.2
  3
romans.shx
  4
extfont.shx
  0
STYLE
  5
FD19
330
3
100
AcDbSymbolTableRecord
100
AcDbTextStyleTableRecord
  2
ACANSGDT
 70
     0
 40
0.0
 41
1.0
 50
0.0
 71
     0
 42
0.2
  3
amgdt.shx
  4

  0
ENDTAB
  0
TABLE
  2
VIEW
  5
6
330
0
100
AcDbSymbolTable
 70
     6
  0
VIEW
  5
AE1
330
6
100
AcDbSymbolTableRecord
100
AcDbViewTableRecord
  2
AM_VIEW1
 70
     0
 40
2203.896457765668
 10
5264.599158088851
 20
3198.765197920841
 41
2970.0
 11
0.0
 21
0.0
 31
1.0
 12
0.0
 22
0.0
 32
0.0
 42
50.0
 43
-1370.695619172058
 44
-1370.695619172058
 50
0.0
 71
     0
281
     0
 72
     0
  0
VIEW
  5
AE2
330
6
100
AcDbSymbolTableRecord
100
AcDbViewTableRecord
  2
AM_VIEW2
 70
     0
 40
2203.896457765668
 10
8234.599158088851
 20
3198.765197920841
 41
2970.0
 11
0.0
 21
0.0
 31
1.0
 12
0.0
 22
0.0
 32
0.0
 42
50.0
 43
-1370.695619172058
 44
-1370.695619172058
 50
0.0
 71
     0
281
     0
 72
     0
  0
VIEW
  5
AE3
330
6
100
AcDbSymbolTableRecord
100
AcDbViewTableRecord
  2
AM_VIEW3
 70
     0
 40
2203.896457765668
 10
5264.599158088851
 20
1202.661655686509
 41
2970.0
 11
0.0
 21
0.0
 31
1.0
 12
0.0
 22
0.0
 32
0.0
 42
50.0
 43
-1370.695619172058
 44
-1370.695619172058
 50
0.0
 71
     0
281
     0
 72
     0
  0
VIEW
  5
AE4
330
6
100
AcDbSymbolTableRecord
100
AcDbViewTableRecord
  2
AM_VIEW4
 70
     0
 40
2203.896457765668
 10
8234.599158088851
 20
1202.661655686509
 41
2970.0
 11
0.0
 21
0.0
 31
1.0
 12
0.0
 22
0.0
 32
0.0
 42
50.0
 43
-1370.695619172058
 44
-1370.695619172058
 50
0.0
 71
     0
281
     0
 72
     0
  0
VIEW
  5
AE5
330
6
100
AcDbSymbolTableRecord
100
AcDbViewTableRecord
  2
AM_VIEW5
 70
     0
 40
2203.896457765668
 10
6749.599158088852
 20
2200.713426803675
 41
2970.0
 11
0.0
 21
0.0
 31
1.0
 12
0.0
 22
0.0
 32
0.0
 42
50.0
 43
-1370.695619172058
 44
-1370.695619172058
 50
0.0
 71
     0
281
     0
 72
     0
  0
VIEW
  5
AE6
330
6
100
AcDbSymbolTableRecord
100
AcDbViewTableRecord
  2
AM_VIEW6
 70
     0
 40
4407.748837602181
 10
6749.599158088852
 20
2200.713426803675
 41
5939.9406
 11
0.0
 21
0.0
 31
1.0
 12
0.0
 22
0.0
 32
0.0
 42
50.0
 43
-1370.695619172058
 44
-1370.695619172058
 50
0.0
 71
     0
281
     0
 72
     0
  0
ENDTAB
  0
TABLE
  2
UCS
  5
7
330
0
100
AcDbSymbolTable
 70
     0
  0
ENDTAB
  0
TABLE
  2
APPID
  5
9
330
0
100
AcDbSymbolTable
 70
    67
  0
APPID
  5
12
330
9
100
AcDbSymbolTableRecord
100
AcDbRegAppTableRecord
  2
ACAD
 70
     0
  0
APPID
  5
30
330
9
100
AcDbSymbolTableRecord
100
AcDbRegAppTableRecord
  2
MCAD_NO_VIS
 70
     0
  0
APPID
  5
31
330
9
100
AcDbSymbolTableRecord
100
AcDbRegAppTableRecord
  2
ACAD_TEMP_GRAPHIC
 70
     0
  0
APPID
  5
44
330
9
100
AcDbSymbolTableRecord
100
AcDbRegAppTableRecord
  2
ACATTRIBSERVICES
 70
     0
  0
APPID
  5
7A1
330
9
100
AcDbSymbolTableRecord
100
AcDbRegAppTableRecord
  2
GENIUS_GENDIMSH_14
 70
     0
  0
APPID
  5
A49
330
9
100
AcDbSymbolTableRecord
100
AcDbRegAppTableRecord
  2
GENIUS_GENREC_14
 70
     0
  0
APPID
  5
A4A
330
9
100
AcDbSymbolTableRecord
100
AcDbRegAppTableRecord
  2
GENIUS_GENOBJ-N-REC_13
 70
     0
  0
APPID
  5
A4B
330
9
100
AcDbSymbolTableRecord
100
AcDbRegAppTableRecord
  2
GENIUS_GENODEF_13
 70
     0
  0
APPID
  5
A4C
330
9
100
AcDbSymbolTableRecord
100
AcDbRegAppTableRecord
  2
DCO15
 70
     0
  0
APPID
  5
ADC
330
9
100
AcDbSymbolTableRecord
100
AcDbRegAppTableRecord
  2
GENIUS_GENOLIS_13
 70
     0
  0
APPID
  5
ADD
330
9
100
AcDbSymbolTableRecord
100
AcDbRegAppTableRecord
  2
GENIUS_GENOENT_13
 70
     0
  0
APPID
  5
ADE
330
9
100
AcDbSymbolTableRecord
100
AcDbRegAppTableRecord
  2
GENIUS_GENOBJ-N-TIT_13
 70
     0
  0
APPID
  5
ADF
330
9
100
AcDbSymbolTableRecord
100
AcDbRegAppTableRecord
  2
GENIUS_GENTITLE_13
 70
     0
  0
APPID
  5
AE0
330
9
100
AcDbSymbolTableRecord
100
AcDbRegAppTableRecord
  2
GENIUS_GENOREF_13
 70
     0
  0
APPID
  5
AE7
330
9
100
AcDbSymbolTableRecord
100
AcDbRegAppTableRecord
  2
GENIUS_GENSCREG_15
 70
     0
  0
APPID
  5
AE8
330
9
100
AcDbSymbolTableRecord
100
AcDbRegAppTableRecord
  2
GENIUS_GENOBJ-N-SDF_13
 70
     0
  0
APPID
  5
FAF
330
9
100
AcDbSymbolTableRecord
100
AcDbRegAppTableRecord
  2
GENIUS_GENBLLY_14
 70
     0
  0
APPID
  5
FB0
330
9
100
AcDbSymbolTableRecord
100
AcDbRegAppTableRecord
  2
GENIUS_GENTRA_14
 70
     0
  0
APPID
  5
1285
330
9
100
AcDbSymbolTableRecord
100
AcDbRegAppTableRecord
  2
GENIUS_GENDTOL_13
 70
     0
  0
APPID
  5
142D
330
9
100
AcDbSymbolTableRecord
100
AcDbRegAppTableRecord
  2
GENIUS_GENOBJ-N-CEN_13
 70
     0
  0
APPID
  5
1AB5
330
9
100
AcDbSymbolTableRecord
100
AcDbRegAppTableRecord
  2
GENIUS_GENOBJ-N-CRS_13
 70
     0
  0
APPID
  5
1B36
330
9
100
AcDbSymbolTableRecord
100
AcDbRegAppTableRecord
  2
GENIUS_GENOBJ-N-HTC_13
 70
     0
  0
APPID
  5
1B37
330
9
100
AcDbSymbolTableRecord
100
AcDbRegAppTableRecord
  2
GENIUS_GENHATCH_13
 70
     0
  0
APPID
  5
216D
330
9
100
AcDbSymbolTableRecord
100
AcDbRegAppTableRecord
  2
GENIUS_GENOBJ-N-FIL_13
 70
     0
  0
APPID
  5
2356
330
9
100
AcDbSymbolTableRecord
100
AcDbRegAppTableRecord
  2
GEVID990412420
 70
     0
  0
APPID
  5
2357
330
9
100
AcDbSymbolTableRecord
100
AcDbRegAppTableRecord
  2
GEVDC
 70
     0
  0
APPID
  5
2358
330
9
100
AcDbSymbolTableRecord
100
AcDbRegAppTableRecord
  2
GEVCON
 70
     0
  0
APPID
  5
235B
330
9
100
AcDbSymbolTableRecord
100
AcDbRegAppTableRecord
  2
GEVRADREF
 70
     0
  0
APPID
  5
2360
330
9
100
AcDbSymbolTableRecord
100
AcDbRegAppTableRecord
  2
GENIUS_GENBH_13
 70
     0
  0
APPID
  5
2362
330
9
100
AcDbSymbolTableRecord
100
AcDbRegAppTableRecord
  2
GENIUS_GENOBJ-NBEHI-BHF_13
 70
     0
  0
APPID
  5
2364
330
9
100
AcDbSymbolTableRecord
100
AcDbRegAppTableRecord
  2
GENIUS_GENOBJ-NBEHI-BHB_13
 70
     0
  0
APPID
  5
2379
330
9
100
AcDbSymbolTableRecord
100
AcDbRegAppTableRecord
  2
GENIUS_GENOBJ-F-SCPASSM_13
 70
     0
  0
APPID
  5
3D74
330
9
100
AcDbSymbolTableRecord
100
AcDbRegAppTableRecord
  2
GENIUS_GENDIM_13
 70
     0
  0
APPID
  5
3D76
330
9
100
AcDbSymbolTableRecord
100
AcDbRegAppTableRecord
  2
GENIUS_GE3DTOL_13
 70
     0
  0
APPID
  5
3D9C
330
9
100
AcDbSymbolTableRecord
100
AcDbRegAppTableRecord
  2
AD_DRAW
 70
     0
  0
APPID
  5
3DE8
330
9
100
AcDbSymbolTableRecord
100
AcDbRegAppTableRecord
  2
ASURF_PCURVE_APPNAME
 70
     0
  0
APPID
  5
3DED
330
9
100
AcDbSymbolTableRecord
100
AcDbRegAppTableRecord
  2
AMG_3D2D_5.0
 70
     0
  0
APPID
  5
3E1B
330
9
100
AcDbSymbolTableRecord
100
AcDbRegAppTableRecord
  2
DESIGNERASSEMBLIES
 70
     0
  0
APPID
  5
3E20
330
9
100
AcDbSymbolTableRecord
100
AcDbRegAppTableRecord
  2
ACADM_DIM_EDIT
 70
     0
  0
APPID
  5
3E21
330
9
100
AcDbSymbolTableRecord
100
AcDbRegAppTableRecord
  2
AMDT_DM_ADJ
 70
     0
  0
APPID
  5
4143
330
9
100
AcDbSymbolTableRecord
100
AcDbRegAppTableRecord
  2
GENIUS_GENFIL_13
 70
     0
  0
APPID
  5
4144
330
9
100
AcDbSymbolTableRecord
100
AcDbRegAppTableRecord
  2
GENIUS_GENOBJ-N-CHA_13
 70
     0
  0
APPID
  5
4E17
330
9
100
AcDbSymbolTableRecord
100
AcDbRegAppTableRecord
  2
GEVID1008153417
 70
     0
  0
APPID
  5
4E58
330
9
100
AcDbSymbolTableRecord
100
AcDbRegAppTableRecord
  2
GEVID1008153418
 70
     0
  0
APPID
  5
4E5E
330
9
100
AcDbSymbolTableRecord
100
AcDbRegAppTableRecord
  2
GEVID1008153419
 70
     0
  0
APPID
  5
4E64
330
9
100
AcDbSymbolTableRecord
100
AcDbRegAppTableRecord
  2
GEVID1008153420
 70
     0
  0
APPID
  5
4E75
330
9
100
AcDbSymbolTableRecord
100
AcDbRegAppTableRecord
  2
GEVID1008153421
 70
     0
  0
APPID
  5
4EB7
330
9
100
AcDbSymbolTableRecord
100
AcDbRegAppTableRecord
  2
GENIUS_AMGTXT_16
 70
     0
  0
APPID
  5
7645
330
9
100
AcDbSymbolTableRecord
100
AcDbRegAppTableRecord
  2
GENIUS_GENOBJ-N-DIM_13
 70
     0
  0
APPID
  5
AAD0
330
9
100
AcDbSymbolTableRecord
100
AcDbRegAppTableRecord
  2
ACAD_DSTYLE_DIMARC_LENGTH_SYMBOL
 70
     0
  0
APPID
  5
AAD1
330
9
100
AcDbSymbolTableRecord
100
AcDbRegAppTableRecord
  2
ACAD_DSTYLE_DIMJOGGED_JOGANGLE_SYMBOL
 70
     0
  0
APPID
  5
AAFD
330
9
100
AcDbSymbolTableRecord
100
AcDbRegAppTableRecord
  2
ACAD_PSEXT
 70
     0
  0
APPID
  5
AD61
330
9
100
AcDbSymbolTableRecord
100
AcDbRegAppTableRecord
  2
AcAecLayerStandard
 70
     0
  0
APPID
  5
AEE3
330
9
100
AcDbSymbolTableRecord
100
AcDbRegAppTableRecord
  2
ACAD_EXEMPT_FROM_CAD_STANDARDS
 70
     0
  0
APPID
  5
B1BE
330
9
100
AcDbSymbolTableRecord
100
AcDbRegAppTableRecord
  2
GENIUS_GENCEN_19
 70
     0
  0
APPID
  5
B4E1
330
9
100
AcDbSymbolTableRecord
100
AcDbRegAppTableRecord
  2
ACAD_MLEADERVER
 70
     0
  0
APPID
  5
C488
330
9
100
AcDbSymbolTableRecord
100
AcDbRegAppTableRecord
  2
ACAD_DSTYLE_DIMINSPECT
 70
     0
  0
APPID
  5
C489
330
9
100
AcDbSymbolTableRecord
100
AcDbRegAppTableRecord
  2
ACAD_DSTYLE_DIMRADIAL_EXTENSION
 70
     0
  0
APPID
  5
1980E
330
9
100
AcDbSymbolTableRecord
100
AcDbRegAppTableRecord
  2
GEVID1311583542
 70
     0
  0
APPID
  5
19825
330
9
100
AcDbSymbolTableRecord
100
AcDbRegAppTableRecord
  2
AMG_2DHIDE
 70
     0
  0
APPID
  5
19826
330
9
100
AcDbSymbolTableRecord
100
AcDbRegAppTableRecord
  2
AMG_2DSTRUCT_BTR
 70
     0
  0
APPID
  5
19837
330
9
100
AcDbSymbolTableRecord
100
AcDbRegAppTableRecord
  2
ACADM_2DVIEW_IGN_NOTIFY
 70
     0
  0
APPID
  5
1B56B
330
9
100
AcDbSymbolTableRecord
100
AcDbRegAppTableRecord
  2
GEVID1311583543
 70
     0
  0
APPID
  5
1B5F6
330
9
100
AcDbSymbolTableRecord
100
AcDbRegAppTableRecord
  2
GEVID1311583544
 70
     0
  0
APPID
  5
1B61B
330
9
100
AcDbSymbolTableRecord
100
AcDbRegAppTableRecord
  2
GEVID1311583545
 70
     0
  0
APPID
  5
1B63D
330
9
100
AcDbSymbolTableRecord
100
AcDbRegAppTableRecord
  2
GEVID1311583546
 70
     0
  0
APPID
  5
1B675
330
9
100
AcDbSymbolTableRecord
100
AcDbRegAppTableRecord
  2
GEVID1311583547
 70
     0
  0
ENDTAB
  0
TABLE
  2
DIMSTYLE
  5
A
330
0
100
AcDbSymbolTable
 70
    25
100
AcDbDimStyleTable
 71
     3
340
2515
340
251A
340
251B
  0
DIMSTYLE
105
A76
330
A
100
AcDbSymbolTableRecord
100
AcDbDimStyleTableRecord
  2
STANDARD
 70
     0
 41
3.0
 42
1.0
 43
7.0
 44
2.0
 73
     0
 74
     0
 77
     1
140
2.799999999999999
141
0.0
143
0.0394
147
0.7
171
     4
172
     1
173
     1
176
     3
177
     3
178
     2
271
     3
272
     3
273
     8
274
     4
289
     0
340
A74
341
A66
343
A66
344
A66
  0
DIMSTYLE
105
2515
330
A
100
AcDbSymbolTableRecord
100
AcDbDimStyleTableRecord
  2
SYS
 70
     0
  4
"
 41
1.0
 42
1.0
 43
10.0
 44
1.0
 47
0.1
 48
0.1
 73
     0
 74
     0
 77
     1
 78
     8
 79
     2
140
3.5
141
0.0
143
0.0393701
146
0.71
147
1.5
172
     1
176
   256
177
   256
178
     7
271
     2
272
     2
283
     0
284
     8
340
11
371
    -1
372
    -1
1001
ACAD_DSTYLE_DIMJOGGED_JOGANGLE_SYMBOL
1070
   384
1040
0.7853981633974483
1001
ACAD_DSTYLE_DIMARC_LENGTH_SYMBOL
1070
   379
1070
     1
  0
DIMSTYLE
105
2516
102
{ACAD_REACTORS
330
2EF5B
330
2EF5C
102
}
330
A
100
AcDbSymbolTableRecord
100
AcDbDimStyleTableRecord
  2
SYS$3
 70
     0
  4
"
 41
2.0
 42
1.0
 43
10.0
 44
1.0
 47
0.1
 48
0.1
 73
     0
 77
     1
 78
     8
 79
     2
140
3.2
141
0.0
143
0.0393701
146
0.71
147
1.0
176
   256
177
   256
178
     2
271
     2
272
     2
283
     0
284
     8
288
     1
340
11
342
A66
371
    -1
372
    -1
1001
ACAD_DSTYLE_DIMJOGGED_JOGANGLE_SYMBOL
1070
   384
1040
0.7853981633974483
1001
ACAD_DSTYLE_DIMARC_LENGTH_SYMBOL
1070
   379
1070
     1
  0
DIMSTYLE
105
2517
330
A
100
AcDbSymbolTableRecord
100
AcDbDimStyleTableRecord
  2
SYS$4
 70
     0
  4
"
 41
2.0
 42
1.0
 43
10.0
 44
1.0
 47
0.1
 48
0.1
 73
     0
 77
     1
 78
     8
 79
     2
140
3.2
141
0.0
143
0.0393701
146
0.71
147
1.0
173
     1
176
   256
177
   256
178
     2
271
     2
272
     2
283
     0
284
     8
288
     1
340
11
344
A66
371
    -1
372
    -1
1001
ACAD_DSTYLE_DIMJOGGED_JOGANGLE_SYMBOL
1070
   384
1040
0.7853981633974483
1001
ACAD_DSTYLE_DIMARC_LENGTH_SYMBOL
1070
   379
1070
     1
  0
DIMSTYLE
105
2518
330
A
100
AcDbSymbolTableRecord
100
AcDbDimStyleTableRecord
  2
SYS$6
 70
     0
  4
"
 41
2.0
 42
1.0
 43
10.0
 44
1.0
 47
0.1
 48
0.1
 73
     0
 74
     0
 78
     8
 79
     2
140
3.2
141
0.0
143
0.0393701
146
0.71
147
1.0
172
     1
176
   256
177
   256
178
     2
271
     2
272
     2
283
     0
284
     8
340
11
341
A66
371
    -1
372
    -1
1001
ACAD_DSTYLE_DIMJOGGED_JOGANGLE_SYMBOL
1070
   384
1040
0.7853981633974483
1001
ACAD_DSTYLE_DIMARC_LENGTH_SYMBOL
1070
   379
1070
     1
  0
DIMSTYLE
105
2519
330
A
100
AcDbSymbolTableRecord
100
AcDbDimStyleTableRecord
  2
SYS$7
 70
     0
  4
"
 41
2.0
 42
1.0
 43
10.0
 44
1.0
 47
0.1
 48
0.1
 73
     0
 74
     0
 77
     1
 78
     8
 79
     2
140
3.2
141
0.0
143
0.0393701
146
0.71
147
1.0
172
     1
176
   256
177
   256
178
     2
271
     2
272
     2
283
     0
284
     8
340
11
341
A66
342
A66
371
    -1
372
    -1
1001
ACAD_DSTYLE_DIMJOGGED_JOGANGLE_SYMBOL
1070
   384
1040
0.7853981633974483
1001
ACAD_DSTYLE_DIMARC_LENGTH_SYMBOL
1070
   379
1070
     1
  0
DIMSTYLE
105
251A
330
A
100
AcDbSymbolTableRecord
100
AcDbDimStyleTableRecord
  2
SYS$SF
 70
     0
  4
"
 41
2.5
 42
1.0
 43
10.0
 44
1.0
 47
0.1
 48
0.1
 73
     0
 74
     0
 75
     1
 76
     1
 77
     1
 78
     8
 79
     2
140
3.2
141
0.0
143
0.0393701
146
0.71
147
1.0
172
     1
176
   256
177
   256
178
     2
271
     2
272
     2
283
     0
284
     8
340
11
341
6C4
342
6C4
371
    -1
372
    -1
1001
ACAD_DSTYLE_DIMJOGGED_JOGANGLE_SYMBOL
1070
   384
1040
0.7853981633974483
1001
ACAD_DSTYLE_DIMARC_LENGTH_SYMBOL
1070
   379
1070
     1
  0
DIMSTYLE
105
251B
330
A
100
AcDbSymbolTableRecord
100
AcDbDimStyleTableRecord
  2
SYS$SH
 70
     0
  4
"
 41
2.5
 42
1.0
 43
10.0
 44
1.0
 47
0.1
 48
0.1
 73
     0
 74
     0
 75
     1
 76
     1
 77
     1
 78
     8
 79
     2
140
3.2
141
0.0
143
0.0393701
144
2.0
146
0.71
147
1.0
172
     1
173
     1
176
   256
177
   256
178
     2
271
     2
272
     2
283
     0
284
     8
340
11
341
6C4
343
72
344
6C4
371
    -1
372
    -1
1001
ACAD_DSTYLE_DIMJOGGED_JOGANGLE_SYMBOL
1070
   384
1040
0.7853981633974483
1001
ACAD_DSTYLE_DIMARC_LENGTH_SYMBOL
1070
   379
1070
     1
  0
DIMSTYLE
105
2A59
330
A
100
AcDbSymbolTableRecord
100
AcDbDimStyleTableRecord
  2
SYS$2
 70
     0
  4
"
 41
1.0
 42
1.0
 43
10.0
 44
1.0
 47
0.1
 48
0.1
 73
     0
 74
     0
 77
     1
 78
     8
 79
     2
140
3.2
141
0.0
143
0.0393701
146
0.71
147
1.0
172
     1
176
   256
177
   256
178
     2
271
     2
272
     2
283
     0
284
     8
340
11
342
6C4
371
    -1
372
    -1
1001
ACAD_DSTYLE_DIMJOGGED_JOGANGLE_SYMBOL
1070
   384
1040
0.7853981633974483
1001
ACAD_DSTYLE_DIMARC_LENGTH_SYMBOL
1070
   379
1070
     1
  0
DIMSTYLE
105
2AAB
102
{ACAD_REACTORS
330
2EEFE
330
2EEFF
330
2EF00
330
2EF42
330
2EF43
330
2EF44
330
2EF45
330
2EF46
330
2EF47
330
2EF48
330
2EF49
330
2EF4A
330
2EF4B
330
2EF4C
330
2EF4D
330
2EF4E
330
2EF4F
102
}
330
A
100
AcDbSymbolTableRecord
100
AcDbDimStyleTableRecord
  2
SYS$0
 70
     0
  4
"
 41
1.0
 42
1.0
 43
10.0
 44
1.0
 47
0.1
 48
0.1
 73
     0
 74
     0
 77
     1
 78
     8
 79
     2
140
3.200000000000001
141
0.0
143
0.0393701
146
0.71
147
1.0
172
     1
176
   256
177
   256
178
     2
271
     2
272
     2
283
     0
284
     8
340
11
341
A66
342
6C4
371
    -1
372
    -1
1001
ACAD_DSTYLE_DIMJOGGED_JOGANGLE_SYMBOL
1070
   384
1040
0.7853981633974483
1001
ACAD_DSTYLE_DIMARC_LENGTH_SYMBOL
1070
   379
1070
     1
  0
DIMSTYLE
105
AF99
330
A
100
AcDbSymbolTableRecord
100
AcDbDimStyleTableRecord
  2
AM_ISO
 70
     0
  4
"
 41
2.5
 42
1.0
 43
10.0
 44
1.0
 47
0.1
 48
0.1
 73
     0
 74
     0
 77
     1
 78
     8
 79
     2
140
3.5
141
0.0
143
0.0393701
146
0.71
147
1.5
172
     1
176
   256
177
   256
178
     2
271
     2
272
     3
274
     4
283
     0
284
     8
340
11
371
    -1
372
    -1
  0
DIMSTYLE
105
AF9A
330
A
100
AcDbSymbolTableRecord
100
AcDbDimStyleTableRecord
  2
AM_ISO$3
 70
     0
  4
"
 41
2.5
 42
1.0
 43
10.0
 44
1.0
 47
0.1
 48
0.1
 73
     0
 77
     1
 78
     8
 79
     2
140
3.5
141
0.0
143
0.0393701
146
0.71
147
1.5
176
   256
177
   256
178
     2
271
     2
272
     3
274
     4
283
     0
284
     8
288
     1
289
     0
340
11
371
    -1
372
    -1
  0
DIMSTYLE
105
AF9B
330
A
100
AcDbSymbolTableRecord
100
AcDbDimStyleTableRecord
  2
AM_ISO$4
 70
     0
  4
"
 41
2.5
 42
1.0
 43
10.0
 44
1.0
 47
0.1
 48
0.1
 73
     0
 77
     1
 78
     8
 79
     2
140
3.5
141
0.0
143
0.0393701
146
0.71
147
1.5
176
   256
177
   256
178
     2
271
     2
272
     3
274
     4
283
     0
284
     8
288
     1
289
     0
340
11
371
    -1
372
    -1
  0
DIMSTYLE
105
AF9C
330
A
100
AcDbSymbolTableRecord
100
AcDbDimStyleTableRecord
  2
AM_ISO$6
 70
     0
  4
"
 41
2.5
 42
1.0
 43
10.0
 44
1.0
 47
0.1
 48
0.1
 73
     0
 74
     0
 78
     8
 79
     2
140
3.5
141
0.0
143
0.0393701
146
0.71
147
1.5
172
     1
176
   256
177
   256
178
     2
271
     2
272
     3
274
     4
283
     0
284
     8
340
11
371
    -1
372
    -1
  0
DIMSTYLE
105
AF9D
330
A
100
AcDbSymbolTableRecord
100
AcDbDimStyleTableRecord
  2
AM_ISO$7
 70
     0
  4
"
 41
2.5
 42
1.0
 43
10.0
 44
1.0
 47
0.1
 48
0.1
 73
     0
 74
     0
 77
     1
 78
     8
 79
     2
140
5.0
141
0.0
143
0.0393701
146
0.71
147
1.5
172
     1
176
   256
177
   256
178
     2
271
     2
272
     3
274
     4
283
     0
284
     8
340
11
371
    -1
372
    -1
  0
DIMSTYLE
105
AF9E
330
A
100
AcDbSymbolTableRecord
100
AcDbDimStyleTableRecord
  2
AM_ISO$SF
 70
     0
  4
"
 41
2.5
 42
1.0
 43
10.0
 44
1.0
 47
0.1
 48
0.1
 73
     0
 74
     0
 75
     1
 76
     1
 77
     1
 78
     8
 79
     2
140
3.5
141
0.0
143
0.0393701
146
0.71
147
1.5
172
     1
176
   256
177
   256
178
     2
271
     2
272
     3
274
     4
283
     0
284
     8
340
11
371
    -1
372
    -1
  0
DIMSTYLE
105
AF9F
330
A
100
AcDbSymbolTableRecord
100
AcDbDimStyleTableRecord
  2
AM_ISO$SH
 70
     0
  4
"
 41
2.5
 42
1.0
 43
10.0
 44
1.0
 47
0.1
 48
0.1
 73
     0
 74
     0
 75
     1
 76
     1
 77
     1
 78
     8
 79
     2
140
3.5
141
0.0
143
0.0393701
144
2.0
146
0.71
147
1.5
172
     1
173
     1
176
   256
177
   256
178
     2
271
     2
272
     3
274
     4
283
     0
284
     8
340
11
343
72
371
    -1
372
    -1
  0
DIMSTYLE
105
B60C
330
A
100
AcDbSymbolTableRecord
100
AcDbDimStyleTableRecord
  2
AM_ANSI
 70
     0
  4
mm
 41
0.1
 42
0.05
 43
0.5
 44
0.1
 47
0.1
 48
0.1
 78
     7
 79
     2
140
0.12
141
0.0
146
0.71
147
0.06
176
   256
177
   256
178
     2
274
     4
284
     7
340
11
371
    -1
372
    -1
  0
DIMSTYLE
105
C485
330
A
100
AcDbSymbolTableRecord
100
AcDbDimStyleTableRecord
  2
AM_ISO$0
 70
     0
  4
"
 41
0.8
 42
1.0
 43
10.0
 44
1.0
 47
0.1
 48
0.1
 73
     0
 74
     0
 77
     1
 78
     8
 79
     2
140
3.2
141
0.0
143
0.0393701
146
0.71
147
0.9999999999999996
172
     1
176
   256
177
   256
178
     2
271
     2
272
     2
283
     0
284
     8
340
11
341
6C4
342
6C4
371
    -1
372
    -1
1001
ACAD_DSTYLE_DIMJOGGED_JOGANGLE_SYMBOL
1070
   384
1040
0.7853981633974483
1001
ACAD_DSTYLE_DIMARC_LENGTH_SYMBOL
1070
   379
1070
     1
  0
DIMSTYLE
105
C486
330
A
100
AcDbSymbolTableRecord
100
AcDbDimStyleTableRecord
  2
AM_ISO$2
 70
     0
  4
"
 41
0.8
 42
1.0
 43
10.0
 44
1.0
 47
0.1
 48
0.1
 73
     0
 74
     0
 77
     3
 78
     8
 79
     2
140
3.200000000000001
141
0.0
143
0.0393701
146
0.71
147
0.9999999999999996
172
     1
176
   256
177
   256
178
     2
271
     2
272
     2
283
     0
284
     8
340
11
342
6C4
371
    -1
372
    -1
1001
ACAD_DSTYLE_DIMJOGGED_JOGANGLE_SYMBOL
1070
   384
1040
0.7853981633974483
1001
ACAD_DSTYLE_DIMARC_LENGTH_SYMBOL
1070
   379
1070
     1
  0
DIMSTYLE
105
FD1A
330
A
100
AcDbSymbolTableRecord
100
AcDbDimStyleTableRecord
  2
AM_ANSI$3
 70
     0
  4
mm
 41
0.1
 42
0.05
 43
0.5
 44
0.1
 47
0.1
 48
0.1
 78
     7
 79
     2
140
0.12
141
0.0
146
0.71
147
0.06
176
   256
177
   256
178
     2
274
     4
284
     7
288
     1
289
     0
340
11
371
    -1
372
    -1
1001
ACAD_DSTYLE_DIMARC_LENGTH_SYMBOL
1070
   379
1070
     1
  0
DIMSTYLE
105
FD1B
330
A
100
AcDbSymbolTableRecord
100
AcDbDimStyleTableRecord
  2
AM_ANSI$4
 70
     0
  4
mm
 41
0.1
 42
0.05
 43
0.5
 44
0.1
 47
0.1
 48
0.1
 78
     7
 79
     2
140
0.12
141
0.0
146
0.71
147
0.06
176
   256
177
   256
178
     2
274
     4
284
     7
288
     1
289
     0
340
11
371
    -1
372
    -1
1001
ACAD_DSTYLE_DIMARC_LENGTH_SYMBOL
1070
   379
1070
     1
  0
DIMSTYLE
105
FD1C
330
A
100
AcDbSymbolTableRecord
100
AcDbDimStyleTableRecord
  2
AM_ANSI$7
 70
     0
  4
mm
 41
0.1
 42
0.05
 43
0.5
 44
0.1
 47
0.1
 48
0.1
 78
     7
 79
     2
140
0.24
141
0.0
146
0.71
147
0.06
176
   256
177
   256
178
     2
274
     4
284
     7
340
11
371
    -1
372
    -1
1001
ACAD_DSTYLE_DIMARC_LENGTH_SYMBOL
1070
   379
1070
     1
  0
DIMSTYLE
105
FD1D
330
A
100
AcDbSymbolTableRecord
100
AcDbDimStyleTableRecord
  2
AM_ANSI$SF
 70
     0
  4
mm
 41
0.1
 42
0.05
 43
0.5
 44
0.1
 47
0.1
 48
0.1
 75
     1
 76
     1
 78
     7
 79
     2
140
0.12
141
0.0
146
0.71
147
0.06
176
   256
177
   256
178
     2
274
     4
284
     7
340
11
371
    -1
372
    -1
1001
ACAD_DSTYLE_DIMARC_LENGTH_SYMBOL
1070
   379
1070
     1
  0
DIMSTYLE
105
FD1E
330
A
100
AcDbSymbolTableRecord
100
AcDbDimStyleTableRecord
  2
AM_ANSI$SH
 70
     0
  4
mm
 41
0.1
 42
0.05
 43
0.5
 44
0.1
 47
0.1
 48
0.1
 75
     1
 76
     1
 78
     7
 79
     2
140
0.12
141
0.0
146
0.71
147
0.06
173
     1
176
   256
177
   256
178
     2
274
     4
284
     7
340
11
343
72
371
    -1
372
    -1
1001
ACAD_DSTYLE_DIMARC_LENGTH_SYMBOL
1070
   379
1070
     1
  0
ENDTAB
  0
TABLE
  2
BLOCK_RECORD
  5
1
330
0
100
AcDbSymbolTable
 70
    26
  0
BLOCK_RECORD
  5
1F
102
{ACAD_XDICTIONARY
360
8A
102
}
330
1
100
AcDbSymbolTableRecord
100
AcDbBlockTableRecord
  2
*Model_Space
340
22
  0
BLOCK_RECORD
  5
1B
330
1
100
AcDbSymbolTableRecord
100
AcDbBlockTableRecord
  2
*Paper_Space
340
1E
  0
BLOCK_RECORD
  5
23
330
1
100
AcDbSymbolTableRecord
100
AcDbBlockTableRecord
  2
*Paper_Space0
340
26
  0
BLOCK_RECORD
  5
72
330
1
100
AcDbSymbolTableRecord
100
AcDbBlockTableRecord
  2
GENAXEH
340
0
  0
BLOCK_RECORD
  5
6C4
330
1
100
AcDbSymbolTableRecord
100
AcDbBlockTableRecord
  2
_Dot
340
0
102
{BLKREFS
331
30CA8
331
30CA9
331
30CB1
331
30CB2
331
30CBA
331
30CBB
331
30CCC
331
30CCD
331
30CD5
331
30CD6
331
30CDE
331
30CDF
331
30CF0
331
30CF1
331
30CF9
331
30CFA
331
30D02
331
30D03
331
30D0B
331
30D0C
331
30D14
331
30D15
331
30D1D
331
30D1E
331
30D26
331
30D27
331
30D31
331
30D32
331
30D3A
331
30D3B
331
312E9
331
312EA
331
312F2
331
312F3
331
312FB
331
312FC
331
31304
331
31305
102
}
  0
BLOCK_RECORD
  5
A66
330
1
100
AcDbSymbolTableRecord
100
AcDbBlockTableRecord
  2
_OPEN30
340
0
  0
BLOCK_RECORD
  5
2EF70
330
1
100
AcDbSymbolTableRecord
100
AcDbBlockTableRecord
  2
*D7
340
0
  0
BLOCK_RECORD
  5
2EF7C
330
1
100
AcDbSymbolTableRecord
100
AcDbBlockTableRecord
  2
*D8
340
0
  0
BLOCK_RECORD
  5
2EF88
330
1
100
AcDbSymbolTableRecord
100
AcDbBlockTableRecord
  2
*D9
340
0
  0
BLOCK_RECORD
  5
2EF94
330
1
100
AcDbSymbolTableRecord
100
AcDbBlockTableRecord
  2
*D10
340
0
  0
BLOCK_RECORD
  5
2EFA0
330
1
100
AcDbSymbolTableRecord
100
AcDbBlockTableRecord
  2
*D11
340
0
  0
BLOCK_RECORD
  5
2EFAC
330
1
100
AcDbSymbolTableRecord
100
AcDbBlockTableRecord
  2
*D12
340
0
  0
BLOCK_RECORD
  5
2EFB8
330
1
100
AcDbSymbolTableRecord
100
AcDbBlockTableRecord
  2
*D13
340
0
  0
BLOCK_RECORD
  5
2EFC4
330
1
100
AcDbSymbolTableRecord
100
AcDbBlockTableRecord
  2
*D14
340
0
  0
BLOCK_RECORD
  5
2EFD0
330
1
100
AcDbSymbolTableRecord
100
AcDbBlockTableRecord
  2
*D15
340
0
  0
BLOCK_RECORD
  5
2EFDC
330
1
100
AcDbSymbolTableRecord
100
AcDbBlockTableRecord
  2
*D16
340
0
  0
BLOCK_RECORD
  5
2EFE8
330
1
100
AcDbSymbolTableRecord
100
AcDbBlockTableRecord
  2
*D17
340
0
  0
BLOCK_RECORD
  5
2EFF4
330
1
100
AcDbSymbolTableRecord
100
AcDbBlockTableRecord
  2
*D18
340
0
  0
BLOCK_RECORD
  5
2F000
330
1
100
AcDbSymbolTableRecord
100
AcDbBlockTableRecord
  2
*D19
340
0
  0
BLOCK_RECORD
  5
2F00C
330
1
100
AcDbSymbolTableRecord
100
AcDbBlockTableRecord
  2
*D20
340
0
  0
BLOCK_RECORD
  5
2F018
330
1
100
AcDbSymbolTableRecord
100
AcDbBlockTableRecord
  2
*D21
340
0
  0
BLOCK_RECORD
  5
2F024
330
1
100
AcDbSymbolTableRecord
100
AcDbBlockTableRecord
  2
*D22
340
0
  0
BLOCK_RECORD
  5
2F030
330
1
100
AcDbSymbolTableRecord
100
AcDbBlockTableRecord
  2
*D23
340
0
  0
BLOCK_RECORD
  5
2F056
330
1
100
AcDbSymbolTableRecord
100
AcDbBlockTableRecord
  2
*D24
340
0
  0
BLOCK_RECORD
  5
2F062
330
1
100
AcDbSymbolTableRecord
100
AcDbBlockTableRecord
  2
*D25
340
0
  0
ENDTAB
  0
ENDSEC
  0
SECTION
  2
BLOCKS
  0
BLOCK
  5
20
330
1F
100
AcDbEntity
  8
0
100
AcDbBlockBegin
  2
*Model_Space
 70
     0
 10
0.0
 20
0.0
 30
0.0
  3
*Model_Space
  1

  0
ENDBLK
  5
21
330
1F
100
AcDbEntity
  8
0
100
AcDbBlockEnd
  0
BLOCK
  5
1C
330
1B
100
AcDbEntity
 67
     1
  8
0
100
AcDbBlockBegin
  2
*Paper_Space
 70
     0
 10
0.0
 20
0.0
 30
0.0
  3
*Paper_Space
  1

  0
ENDBLK
  5
1D
330
1B
100
AcDbEntity
 67
     1
  8
0
100
AcDbBlockEnd
  0
BLOCK
  5
24
330
23
100
AcDbEntity
 67
     1
  8
0
100
AcDbBlockBegin
  2
*Paper_Space0
 70
     0
 10
0.0
 20
0.0
 30
0.0
  3
*Paper_Space0
  1

  0
ENDBLK
  5
25
330
23
100
AcDbEntity
 67
     1
  8
0
100
AcDbBlockEnd
  0
BLOCK
  5
74
330
72
100
AcDbEntity
  8
0
100
AcDbBlockBegin
  2
GENAXEH
 70
     0
 10
0.0
 20
0.0
 30
0.0
  3
GENAXEH
  1

  0
LINE
  5
73
330
72
100
AcDbEntity
  8
0
100
AcDbLine
 10
-1.0
 20
0.0
 30
0.0
 11
1.0
 21
0.0
 31
0.0
  0
ENDBLK
  5
75
330
72
100
AcDbEntity
  8
0
100
AcDbBlockEnd
  0
BLOCK
  5
6C7
330
6C4
100
AcDbEntity
  8
0
100
AcDbBlockBegin
  2
_Dot
 70
     0
 10
0.0
 20
0.0
 30
0.0
  3
_Dot
  1

  0
LWPOLYLINE
  5
6C5
330
6C4
100
AcDbEntity
  8
0
  6
ByBlock
 62
     0
100
AcDbPolyline
 90
        2
 70
     1
 43
0.5
 10
-0.25
 20
0.0
 42
1.0
 10
0.25
 20
0.0
 42
1.0
  0
LINE
  5
6C6
330
6C4
100
AcDbEntity
  8
0
  6
ByBlock
 62
     0
370
    -2
100
AcDbLine
 10
-0.5
 20
0.0
 30
0.0
 11
-1.0
 21
0.0
 31
0.0
  0
ENDBLK
  5
6C8
330
6C4
100
AcDbEntity
  8
0
100
AcDbBlockEnd
  0
BLOCK
  5
A6A
330
A66
100
AcDbEntity
  8
0
100
AcDbBlockBegin
  2
_OPEN30
 70
     0
 10
0.0
 20
0.0
 30
0.0
  3
_OPEN30
  1

  0
LINE
  5
A67
330
A66
100
AcDbEntity
  8
0
  6
ByBlock
 62
     0
100
AcDbLine
 10
-1.0
 20
0.26794919
 30
0.0
 11
0.0
 21
0.0
 31
0.0
  0
LINE
  5
A68
330
A66
100
AcDbEntity
  8
0
  6
ByBlock
 62
     0
100
AcDbLine
 10
0.0
 20
0.0
 30
0.0
 11
-1.0
 21
-0.26794919
 31
0.0
  0
LINE
  5
A69
330
A66
100
AcDbEntity
  8
0
  6
ByBlock
 62
     0
100
AcDbLine
 10
0.0
 20
0.0
 30
0.0
 11
-1.0
 21
0.0
 31
0.0
  0
ENDBLK
  5
A6B
330
A66
100
AcDbEntity
  8
0
100
AcDbBlockEnd
  0
BLOCK
  5
2EF7A
330
2EF70
100
AcDbEntity
  8
0
100
AcDbBlockBegin
  2
*D7
 70
     1
 10
0.0
 20
0.0
 30
0.0
  3
*D7
  1

  0
LINE
  5
312E6
330
2EF70
100
AcDbEntity
  8
AM_5
100
AcDbLine
 10
3192.657937362676
 20
1706.840621327715
 30
0.0
 11
3192.657937362676
 21
1693.340621236355
 31
0.0
  0
LINE
  5
312E7
330
2EF70
100
AcDbEntity
  8
AM_5
100
AcDbLine
 10
3220.657937362676
 20
1704.090621236355
 30
0.0
 11
3220.657937362676
 21
1693.340621236355
 31
0.0
  0
LINE
  5
312E8
330
2EF70
100
AcDbEntity
  8
AM_5
100
AcDbLine
 10
3193.657937362676
 20
1694.340621236355
 30
0.0
 11
3219.657937362676
 21
1694.340621236355
 31
0.0
  0
INSERT
  5
312E9
330
2EF70
100
AcDbEntity
  8
AM_5
100
AcDbBlockReference
  2
_Dot
 10
3192.657937362676
 20
1694.340621236355
 30
0.0
 50
180.0
  0
INSERT
  5
312EA
330
2EF70
100
AcDbEntity
  8
AM_5
100
AcDbBlockReference
  2
_Dot
 10
3220.657937362676
 20
1694.340621236355
 30
0.0
  0
MTEXT
  5
312EB
330
2EF70
100
AcDbEntity
  8
AM_5
 62
     2
100
AcDbMText
 10
3205.146603143977
 20
1696.940621236355
 30
0.0
 40
3.200000000000001
 41
0.0
 71
     5
 72
     1
  1
（P）
 73
     1
 44
1.0
1001
ACAD
1000
MTEXTBEGIN
1070
    73
1070
     1
1070
    44
1040
1.0
1070
    74
1070
     0
1000
MTEXTEND
  0
POINT
  5
312EC
330
2EF70
100
AcDbEntity
  8
Defpoints
 62
     0
100
AcDbPoint
 10
3192.657937362676
 20
1707.840621327715
 30
0.0
  0
POINT
  5
312ED
330
2EF70
100
AcDbEntity
  8
Defpoints
 62
     0
100
AcDbPoint
 10
3220.657937362676
 20
1705.090621236355
 30
0.0
  0
POINT
  5
312EE
330
2EF70
100
AcDbEntity
  8
Defpoints
 62
     0
100
AcDbPoint
 10
3220.657937362676
 20
1694.340621236355
 30
0.0
  0
ENDBLK
  5
2EF7B
330
2EF70
100
AcDbEntity
  8
0
100
AcDbBlockEnd
  0
BLOCK
  5
2EF86
330
2EF7C
100
AcDbEntity
  8
0
100
AcDbBlockBegin
  2
*D8
 70
     1
 10
0.0
 20
0.0
 30
0.0
  3
*D8
  1

  0
LINE
  5
31301
330
2EF7C
100
AcDbEntity
  8
AM_5
100
AcDbLine
 10
3220.657937362676
 20
1704.090621236355
 30
0.0
 11
3220.657937362676
 21
1693.340621236355
 31
0.0
  0
LINE
  5
31302
330
2EF7C
100
AcDbEntity
  8
AM_5
100
AcDbLine
 10
3237.657937362676
 20
1704.090621236355
 30
0.0
 11
3237.657937362676
 21
1693.340621236355
 31
0.0
  0
LINE
  5
31303
330
2EF7C
100
AcDbEntity
  8
AM_5
100
AcDbLine
 10
3221.657937362676
 20
1694.340621236355
 30
0.0
 11
3236.657937362676
 21
1694.340621236355
 31
0.0
  0
INSERT
  5
31304
330
2EF7C
100
AcDbEntity
  8
AM_5
100
AcDbBlockReference
  2
_Dot
 10
3220.657937362676
 20
1694.340621236355
 30
0.0
 50
180.0
  0
INSERT
  5
31305
330
2EF7C
100
AcDbEntity
  8
AM_5
100
AcDbBlockReference
  2
_Dot
 10
3237.657937362676
 20
1694.340621236355
 30
0.0
  0
MTEXT
  5
31306
330
2EF7C
100
AcDbEntity
  8
AM_5
 62
     2
100
AcDbMText
 10
3229.157937362676
 20
1696.940621236355
 30
0.0
 40
3.200000000000001
 41
0.0
 71
     5
 72
     1
  1
M
 73
     1
 44
1.0
1001
ACAD
1000
MTEXTBEGIN
1070
    73
1070
     1
1070
    44
1040
1.0
1070
    74
1070
     0
1000
MTEXTEND
  0
POINT
  5
31307
330
2EF7C
100
AcDbEntity
  8
Defpoints
 62
     0
100
AcDbPoint
 10
3220.657937362676
 20
1705.090621236355
 30
0.0
  0
POINT
  5
31308
330
2EF7C
100
AcDbEntity
  8
Defpoints
 62
     0
100
AcDbPoint
 10
3237.657937362676
 20
1705.090621236355
 30
0.0
  0
POINT
  5
31309
330
2EF7C
100
AcDbEntity
  8
Defpoints
 62
     0
100
AcDbPoint
 10
3237.657937362676
 20
1694.340621236355
 30
0.0
  0
ENDBLK
  5
2EF87
330
2EF7C
100
AcDbEntity
  8
0
100
AcDbBlockEnd
  0
BLOCK
  5
2EF92
330
2EF88
100
AcDbEntity
  8
0
100
AcDbBlockBegin
  2
*D9
 70
     1
 10
0.0
 20
0.0
 30
0.0
  3
*D9
  1

  0
LINE
  5
30CA5
330
2EF88
100
AcDbEntity
  8
AM_5
100
AcDbLine
 10
3214.157937363034
 20
1706.064537288924
 30
0.0
 11
3214.157937363034
 21
1685.340621236355
 31
0.0
  0
LINE
  5
30CA6
330
2EF88
100
AcDbEntity
  8
AM_5
100
AcDbLine
 10
3244.157937362317
 20
1706.064537288924
 30
0.0
 11
3244.157937362317
 21
1685.340621236355
 31
0.0
  0
LINE
  5
30CA7
330
2EF88
100
AcDbEntity
  8
AM_5
100
AcDbLine
 10
3215.157937363034
 20
1686.340621236355
 30
0.0
 11
3243.157937362317
 21
1686.340621236355
 31
0.0
  0
INSERT
  5
30CA8
330
2EF88
100
AcDbEntity
  8
AM_5
100
AcDbBlockReference
  2
_Dot
 10
3214.157937363034
 20
1686.340621236355
 30
0.0
 50
180.0
  0
INSERT
  5
30CA9
330
2EF88
100
AcDbEntity
  8
AM_5
100
AcDbBlockReference
  2
_Dot
 10
3244.157937362317
 20
1686.340621236355
 30
0.0
  0
MTEXT
  5
30CAA
330
2EF88
100
AcDbEntity
  8
AM_5
 62
     2
100
AcDbMText
 10
3229.157937362676
 20
1688.940621236355
 30
0.0
 40
3.200000000000001
 41
0.0
 71
     5
 72
     1
  1
C
 73
     1
 44
1.0
1001
ACAD
1000
MTEXTBEGIN
1070
    73
1070
     1
1070
    44
1040
1.0
1070
    74
1070
     0
1000
MTEXTEND
  0
POINT
  5
30CAB
330
2EF88
100
AcDbEntity
  8
Defpoints
 62
     0
100
AcDbPoint
 10
3214.157937363034
 20
1707.064537288924
 30
0.0
  0
POINT
  5
30CAC
330
2EF88
100
AcDbEntity
  8
Defpoints
 62
     0
100
AcDbPoint
 10
3244.157937362317
 20
1707.064537288924
 30
0.0
  0
POINT
  5
30CAD
330
2EF88
100
AcDbEntity
  8
Defpoints
 62
     0
100
AcDbPoint
 10
3244.157937362317
 20
1686.340621236355
 30
0.0
  0
ENDBLK
  5
2EF93
330
2EF88
100
AcDbEntity
  8
0
100
AcDbBlockEnd
  0
BLOCK
  5
2EF9E
330
2EF94
100
AcDbEntity
  8
0
100
AcDbBlockBegin
  2
*D10
 70
     1
 10
0.0
 20
0.0
 30
0.0
  3
*D10
  1

  0
LINE
  5
30CAE
330
2EF94
100
AcDbEntity
  8
AM_5
100
AcDbLine
 10
3229.157937362674
 20
1761.340621236355
 30
0.0
 11
3229.157937362674
 21
1766.340621236355
 31
0.0
  0
LINE
  5
30CAF
330
2EF94
100
AcDbEntity
  8
AM_5
100
AcDbLine
 10
3297.157937362676
 20
1739.840621236355
 30
0.0
 11
3297.157937362676
 21
1766.340621236355
 31
0.0
  0
LINE
  5
30CB0
330
2EF94
100
AcDbEntity
  8
AM_5
100
AcDbLine
 10
3230.157937362675
 20
1765.340621236355
 30
0.0
 11
3296.157937362676
 21
1765.340621236355
 31
0.0
  0
INSERT
  5
30CB1
330
2EF94
100
AcDbEntity
  8
AM_5
100
AcDbBlockReference
  2
_Dot
 10
3229.157937362674
 20
1765.340621236355
 30
0.0
 50
180.0
  0
INSERT
  5
30CB2
330
2EF94
100
AcDbEntity
  8
AM_5
100
AcDbBlockReference
  2
_Dot
 10
3297.157937362676
 20
1765.340621236355
 30
0.0
  0
MTEXT
  5
30CB3
330
2EF94
100
AcDbEntity
  8
AM_5
 62
     2
100
AcDbMText
 10
3263.426017337739
 20
1767.940621236355
 30
0.0
 40
3.200000000000001
 41
0.0
 71
     5
 72
     1
  1
（B）
 73
     1
 44
1.0
1001
ACAD
1000
MTEXTBEGIN
1070
    73
1070
     1
1070
    44
1040
1.0
1070
    74
1070
     0
1000
MTEXTEND
  0
POINT
  5
30CB4
330
2EF94
100
AcDbEntity
  8
Defpoints
 62
     0
100
AcDbPoint
 10
3229.157937362674
 20
1760.340621236355
 30
0.0
  0
POINT
  5
30CB5
330
2EF94
100
AcDbEntity
  8
Defpoints
 62
     0
100
AcDbPoint
 10
3297.157937362676
 20
1738.840621236355
 30
0.0
  0
POINT
  5
30CB6
330
2EF94
100
AcDbEntity
  8
Defpoints
 62
     0
100
AcDbPoint
 10
3297.157937362676
 20
1765.340621236355
 30
0.0
  0
ENDBLK
  5
2EF9F
330
2EF94
100
AcDbEntity
  8
0
100
AcDbBlockEnd
  0
BLOCK
  5
2EFAA
330
2EFA0
100
AcDbEntity
  8
0
100
AcDbBlockBegin
  2
*D11
 70
     1
 10
0.0
 20
0.0
 30
0.0
  3
*D11
  1

  0
LINE
  5
30CB7
330
2EFA0
100
AcDbEntity
  8
AM_5
100
AcDbLine
 10
3207.157937362676
 20
1739.840621236355
 30
0.0
 11
3207.157937362676
 21
1774.340621236355
 31
0.0
  0
LINE
  5
30CB8
330
2EFA0
100
AcDbEntity
  8
AM_5
100
AcDbLine
 10
3297.157937362676
 20
1739.840621236355
 30
0.0
 11
3297.157937362676
 21
1774.340621236355
 31
0.0
  0
LINE
  5
30CB9
330
2EFA0
100
AcDbEntity
  8
AM_5
100
AcDbLine
 10
3208.157937362676
 20
1773.340621236355
 30
0.0
 11
3296.157937362676
 21
1773.340621236355
 31
0.0
  0
INSERT
  5
30CBA
330
2EFA0
100
AcDbEntity
  8
AM_5
100
AcDbBlockReference
  2
_Dot
 10
3207.157937362676
 20
1773.340621236355
 30
0.0
 50
180.0
  0
INSERT
  5
30CBB
330
2EFA0
100
AcDbEntity
  8
AM_5
100
AcDbBlockReference
  2
_Dot
 10
3297.157937362676
 20
1773.340621236355
 30
0.0
  0
MTEXT
  5
30CBC
330
2EFA0
100
AcDbEntity
  8
AM_5
 62
     2
100
AcDbMText
 10
3250.850497505606
 20
1775.940621236355
 30
0.0
 40
3.200000000000001
 41
0.0
 71
     5
 72
     1
  1
（A）
 73
     1
 44
1.0
1001
ACAD
1000
MTEXTBEGIN
1070
    73
1070
     1
1070
    44
1040
1.0
1070
    74
1070
     0
1000
MTEXTEND
  0
POINT
  5
30CBD
330
2EFA0
100
AcDbEntity
  8
Defpoints
 62
     0
100
AcDbPoint
 10
3207.157937362676
 20
1738.840621236355
 30
0.0
  0
POINT
  5
30CBE
330
2EFA0
100
AcDbEntity
  8
Defpoints
 62
     0
100
AcDbPoint
 10
3297.157937362676
 20
1738.840621236355
 30
0.0
  0
POINT
  5
30CBF
330
2EFA0
100
AcDbEntity
  8
Defpoints
 62
     0
100
AcDbPoint
 10
3297.157937362676
 20
1773.340621236355
 30
0.0
  0
ENDBLK
  5
2EFAB
330
2EFA0
100
AcDbEntity
  8
0
100
AcDbBlockEnd
  0
BLOCK
  5
2EFB6
330
2EFAC
100
AcDbEntity
  8
0
100
AcDbBlockBegin
  2
*D12
 70
     1
 10
0.0
 20
0.0
 30
0.0
  3
*D12
  1

  0
LINE
  5
312F8
330
2EFAC
100
AcDbEntity
  8
AM_5
100
AcDbLine
 10
3244.907937362676
 20
1711.340621236355
 30
0.0
 11
3306.157937362677
 21
1711.340621236355
 31
0.0
  0
LINE
  5
312F9
330
2EFAC
100
AcDbEntity
  8
AM_5
100
AcDbLine
 10
3244.907937362676
 20
1748.340621236355
 30
0.0
 11
3306.157937362677
 21
1748.340621236355
 31
0.0
  0
LINE
  5
312FA
330
2EFAC
100
AcDbEntity
  8
AM_5
100
AcDbLine
 10
3305.157937362677
 20
1712.340621236355
 30
0.0
 11
3305.157937362677
 21
1747.340621236355
 31
0.0
  0
INSERT
  5
312FB
330
2EFAC
100
AcDbEntity
  8
AM_5
100
AcDbBlockReference
  2
_Dot
 10
3305.157937362677
 20
1711.340621236355
 30
0.0
 50
270.0
  0
INSERT
  5
312FC
330
2EFAC
100
AcDbEntity
  8
AM_5
100
AcDbBlockReference
  2
_Dot
 10
3305.157937362677
 20
1748.340621236355
 30
0.0
 50
90.0
  0
MTEXT
  5
312FD
330
2EFAC
100
AcDbEntity
  8
AM_5
 62
     2
100
AcDbMText
 10
3302.557937362676
 20
1728.581838652564
 30
0.0
 40
3.200000000000001
 41
0.0
 71
     5
 72
     1
  1
N
 11
0.0000000000000001
 21
1.0
 31
0.0
 73
     1
 44
1.0
1001
ACAD
1000
MTEXTBEGIN
1070
    73
1070
     1
1070
    44
1040
1.0
1070
    74
1070
     0
1000
MTEXTEND
  0
POINT
  5
312FE
330
2EFAC
100
AcDbEntity
  8
Defpoints
 62
     0
100
AcDbPoint
 10
3243.907937362676
 20
1711.340621236355
 30
0.0
  0
POINT
  5
312FF
330
2EFAC
100
AcDbEntity
  8
Defpoints
 62
     0
100
AcDbPoint
 10
3243.907937362676
 20
1748.340621236355
 30
0.0
  0
POINT
  5
31300
330
2EFAC
100
AcDbEntity
  8
Defpoints
 62
     0
100
AcDbPoint
 10
3305.157937362677
 20
1748.340621236355
 30
0.0
  0
ENDBLK
  5
2EFB7
330
2EFAC
100
AcDbEntity
  8
0
100
AcDbBlockEnd
  0
BLOCK
  5
2EFC2
330
2EFB8
100
AcDbEntity
  8
0
100
AcDbBlockBegin
  2
*D13
 70
     1
 10
0.0
 20
0.0
 30
0.0
  3
*D13
  1

  0
LINE
  5
30CC9
330
2EFB8
100
AcDbEntity
  8
AM_5
100
AcDbLine
 10
3233.157937362676
 20
1757.340621236355
 30
0.0
 11
3314.157937362676
 21
1757.340621236355
 31
0.0
  0
LINE
  5
30CCA
330
2EFB8
100
AcDbEntity
  8
AM_5
100
AcDbLine
 10
3233.157937362675
 20
1702.340621236355
 30
0.0
 11
3314.157937362676
 21
1702.340621236355
 31
0.0
  0
LINE
  5
30CCB
330
2EFB8
100
AcDbEntity
  8
AM_5
100
AcDbLine
 10
3313.157937362677
 20
1756.340621236355
 30
0.0
 11
3313.157937362677
 21
1703.340621236355
 31
0.0
  0
INSERT
  5
30CCC
330
2EFB8
100
AcDbEntity
  8
AM_5
100
AcDbBlockReference
  2
_Dot
 10
3313.157937362677
 20
1757.340621236355
 30
0.0
 50
90.0
  0
INSERT
  5
30CCD
330
2EFB8
100
AcDbEntity
  8
AM_5
100
AcDbBlockReference
  2
_Dot
 10
3313.157937362677
 20
1702.340621236355
 30
0.0
 50
270.0
  0
MTEXT
  5
30CCE
330
2EFB8
100
AcDbEntity
  8
AM_5
 62
     2
100
AcDbMText
 10
3310.557937362676
 20
1729.123808543638
 30
0.0
 40
3.200000000000001
 41
0.0
 71
     5
 72
     1
  1
F
 11
0.0000000000000001
 21
1.0
 31
0.0
 73
     1
 44
1.0
1001
ACAD
1000
MTEXTBEGIN
1070
    73
1070
     1
1070
    44
1040
1.0
1070
    74
1070
     0
1000
MTEXTEND
  0
POINT
  5
30CCF
330
2EFB8
100
AcDbEntity
  8
Defpoints
 62
     0
100
AcDbPoint
 10
3232.157937362676
 20
1757.340621236355
 30
0.0
  0
POINT
  5
30CD0
330
2EFB8
100
AcDbEntity
  8
Defpoints
 62
     0
100
AcDbPoint
 10
3232.157937362675
 20
1702.340621236355
 30
0.0
  0
POINT
  5
30CD1
330
2EFB8
100
AcDbEntity
  8
Defpoints
 62
     0
100
AcDbPoint
 10
3313.157937362677
 20
1702.340621236355
 30
0.0
  0
ENDBLK
  5
2EFC3
330
2EFB8
100
AcDbEntity
  8
0
100
AcDbBlockEnd
  0
BLOCK
  5
2EFCE
330
2EFC4
100
AcDbEntity
  8
0
100
AcDbBlockBegin
  2
*D14
 70
     1
 10
0.0
 20
0.0
 30
0.0
  3
*D14
  1

  0
LINE
  5
30CD2
330
2EFC4
100
AcDbEntity
  8
AM_5
100
AcDbLine
 10
3182.657937362676
 20
1749.340621327715
 30
0.0
 11
3182.657937362676
 21
1769.340621327715
 31
0.0
  0
LINE
  5
30CD3
330
2EFC4
100
AcDbEntity
  8
AM_5
100
AcDbLine
 10
3212.657937362676
 20
1730.840621327713
 30
0.0
 11
3212.657937362676
 21
1769.340621327715
 31
0.0
  0
LINE
  5
30CD4
330
2EFC4
100
AcDbEntity
  8
AM_5
100
AcDbLine
 10
3183.657937362676
 20
1768.340621327715
 30
0.0
 11
3211.657937362677
 21
1768.340621327715
 31
0.0
  0
INSERT
  5
30CD5
330
2EFC4
100
AcDbEntity
  8
AM_5
100
AcDbBlockReference
  2
_Dot
 10
3182.657937362676
 20
1768.340621327715
 30
0.0
 50
180.0
  0
INSERT
  5
30CD6
330
2EFC4
100
AcDbEntity
  8
AM_5
100
AcDbBlockReference
  2
_Dot
 10
3212.657937362676
 20
1768.340621327715
 30
0.0
  0
MTEXT
  5
30CD7
330
2EFC4
100
AcDbEntity
  8
AM_5
 62
     2
100
AcDbMText
 10
3197.871597079066
 20
1770.940621327715
 30
0.0
 40
3.200000000000001
 41
0.0
 71
     5
 72
     1
  1
D
 73
     1
 44
1.0
1001
ACAD
1000
MTEXTBEGIN
1070
    73
1070
     1
1070
    44
1040
1.0
1070
    74
1070
     0
1000
MTEXTEND
  0
POINT
  5
30CD8
330
2EFC4
100
AcDbEntity
  8
Defpoints
 62
     0
100
AcDbPoint
 10
3182.657937362676
 20
1748.340621327715
 30
0.0
  0
POINT
  5
30CD9
330
2EFC4
100
AcDbEntity
  8
Defpoints
 62
     0
100
AcDbPoint
 10
3212.657937362676
 20
1729.840621327713
 30
0.0
  0
POINT
  5
30CDA
330
2EFC4
100
AcDbEntity
  8
Defpoints
 62
     0
100
AcDbPoint
 10
3212.657937362676
 20
1768.340621327715
 30
0.0
  0
ENDBLK
  5
2EFCF
330
2EFC4
100
AcDbEntity
  8
0
100
AcDbBlockEnd
  0
BLOCK
  5
2EFDA
330
2EFD0
100
AcDbEntity
  8
0
100
AcDbBlockBegin
  2
*D15
 70
     1
 10
0.0
 20
0.0
 30
0.0
  3
*D15
  1

  0
LINE
  5
30CDB
330
2EFD0
100
AcDbEntity
  8
AM_5
100
AcDbLine
 10
3182.657937362676
 20
1749.340621327715
 30
0.0
 11
3182.657937362676
 21
1761.340621327715
 31
0.0
  0
LINE
  5
30CDC
330
2EFD0
100
AcDbEntity
  8
AM_5
100
AcDbLine
 10
3202.657937362676
 20
1749.340621327715
 30
0.0
 11
3202.657937362676
 21
1761.340621327715
 31
0.0
  0
LINE
  5
30CDD
330
2EFD0
100
AcDbEntity
  8
AM_5
100
AcDbLine
 10
3183.657937362676
 20
1760.340621327715
 30
0.0
 11
3201.657937362676
 21
1760.340621327715
 31
0.0
  0
INSERT
  5
30CDE
330
2EFD0
100
AcDbEntity
  8
AM_5
100
AcDbBlockReference
  2
_Dot
 10
3182.657937362676
 20
1760.340621327715
 30
0.0
 50
180.0
  0
INSERT
  5
30CDF
330
2EFD0
100
AcDbEntity
  8
AM_5
100
AcDbBlockReference
  2
_Dot
 10
3202.657937362676
 20
1760.340621327715
 30
0.0
  0
MTEXT
  5
30CE0
330
2EFD0
100
AcDbEntity
  8
AM_5
 62
     2
100
AcDbMText
 10
3192.027453961108
 20
1762.940621327715
 30
0.0
 40
3.200000000000001
 41
0.0
 71
     5
 72
     1
  1
E
 73
     1
 44
1.0
1001
ACAD
1000
MTEXTBEGIN
1070
    73
1070
     1
1070
    44
1040
1.0
1070
    74
1070
     0
1000
MTEXTEND
  0
POINT
  5
30CE1
330
2EFD0
100
AcDbEntity
  8
Defpoints
 62
     0
100
AcDbPoint
 10
3182.657937362676
 20
1748.340621327715
 30
0.0
  0
POINT
  5
30CE2
330
2EFD0
100
AcDbEntity
  8
Defpoints
 62
     0
100
AcDbPoint
 10
3202.657937362676
 20
1748.340621327715
 30
0.0
  0
POINT
  5
30CE3
330
2EFD0
100
AcDbEntity
  8
Defpoints
 62
     0
100
AcDbPoint
 10
3202.657937362676
 20
1760.340621327715
 30
0.0
  0
ENDBLK
  5
2EFDB
330
2EFD0
100
AcDbEntity
  8
0
100
AcDbBlockEnd
  0
BLOCK
  5
2EFE6
330
2EFDC
100
AcDbEntity
  8
0
100
AcDbBlockBegin
  2
*D16
 70
     1
 10
0.0
 20
0.0
 30
0.0
  3
*D16
  1

  0
LINE
  5
312EF
330
2EFDC
100
AcDbEntity
  8
AM_5
100
AcDbLine
 10
3185.657937362676
 20
1745.840621327715
 30
0.0
 11
3173.657937362677
 21
1745.840621327715
 31
0.0
  0
LINE
  5
312F0
330
2EFDC
100
AcDbEntity
  8
AM_5
100
AcDbLine
 10
3185.657937362676
 20
1713.840621327715
 30
0.0
 11
3173.657937362677
 21
1713.840621327715
 31
0.0
  0
LINE
  5
312F1
330
2EFDC
100
AcDbEntity
  8
AM_5
100
AcDbLine
 10
3174.657937362677
 20
1744.840621327715
 30
0.0
 11
3174.657937362677
 21
1714.840621327715
 31
0.0
  0
INSERT
  5
312F2
330
2EFDC
100
AcDbEntity
  8
AM_5
100
AcDbBlockReference
  2
_Dot
 10
3174.657937362677
 20
1745.840621327715
 30
0.0
 50
90.0
  0
INSERT
  5
312F3
330
2EFDC
100
AcDbEntity
  8
AM_5
100
AcDbBlockReference
  2
_Dot
 10
3174.657937362677
 20
1713.840621327715
 30
0.0
 50
270.0
  0
MTEXT
  5
312F4
330
2EFDC
100
AcDbEntity
  8
AM_5
 62
     2
100
AcDbMText
 10
3172.057937362676
 20
1729.840621327715
 30
0.0
 40
3.200000000000001
 41
0.0
 71
     5
 72
     1
  1
O
 11
0.0000000000000001
 21
1.0
 31
0.0
 73
     1
 44
1.0
1001
ACAD
1000
MTEXTBEGIN
1070
    73
1070
     1
1070
    44
1040
1.0
1070
    74
1070
     0
1000
MTEXTEND
  0
POINT
  5
312F5
330
2EFDC
100
AcDbEntity
  8
Defpoints
 62
     0
100
AcDbPoint
 10
3186.657937362676
 20
1745.840621327715
 30
0.0
  0
POINT
  5
312F6
330
2EFDC
100
AcDbEntity
  8
Defpoints
 62
     0
100
AcDbPoint
 10
3186.657937362676
 20
1713.840621327715
 30
0.0
  0
POINT
  5
312F7
330
2EFDC
100
AcDbEntity
  8
Defpoints
 62
     0
100
AcDbPoint
 10
3174.657937362677
 20
1713.840621327715
 30
0.0
  0
ENDBLK
  5
2EFE7
330
2EFDC
100
AcDbEntity
  8
0
100
AcDbBlockEnd
  0
BLOCK
  5
2EFF2
330
2EFE8
100
AcDbEntity
  8
0
100
AcDbBlockBegin
  2
*D17
 70
     1
 10
0.0
 20
0.0
 30
0.0
  3
*D17
  1

  0
LINE
  5
30CED
330
2EFE8
100
AcDbEntity
  8
AM_5
100
AcDbLine
 10
3185.657937362676
 20
1752.340621327715
 30
0.0
 11
3165.657937362677
 21
1752.340621327715
 31
0.0
  0
LINE
  5
30CEE
330
2EFE8
100
AcDbEntity
  8
AM_5
100
AcDbLine
 10
3185.657937362676
 20
1707.340621327715
 30
0.0
 11
3165.657937362677
 21
1707.340621327715
 31
0.0
  0
LINE
  5
30CEF
330
2EFE8
100
AcDbEntity
  8
AM_5
100
AcDbLine
 10
3166.657937362677
 20
1751.340621327715
 30
0.0
 11
3166.657937362677
 21
1708.340621327715
 31
0.0
  0
INSERT
  5
30CF0
330
2EFE8
100
AcDbEntity
  8
AM_5
100
AcDbBlockReference
  2
_Dot
 10
3166.657937362677
 20
1752.340621327715
 30
0.0
 50
90.0
  0
INSERT
  5
30CF1
330
2EFE8
100
AcDbEntity
  8
AM_5
100
AcDbBlockReference
  2
_Dot
 10
3166.657937362677
 20
1707.340621327715
 30
0.0
 50
270.0
  0
MTEXT
  5
30CF2
330
2EFE8
100
AcDbEntity
  8
AM_5
 62
     2
100
AcDbMText
 10
3164.057937362676
 20
1729.840621327715
 30
0.0
 40
3.200000000000001
 41
0.0
 71
     5
 72
     1
  1
G
 11
0.0000000000000001
 21
1.0
 31
0.0
 73
     1
 44
1.0
1001
ACAD
1000
MTEXTBEGIN
1070
    73
1070
     1
1070
    44
1040
1.0
1070
    74
1070
     0
1000
MTEXTEND
  0
POINT
  5
30CF3
330
2EFE8
100
AcDbEntity
  8
Defpoints
 62
     0
100
AcDbPoint
 10
3186.657937362676
 20
1752.340621327715
 30
0.0
  0
POINT
  5
30CF4
330
2EFE8
100
AcDbEntity
  8
Defpoints
 62
     0
100
AcDbPoint
 10
3186.657937362676
 20
1707.340621327715
 30
0.0
  0
POINT
  5
30CF5
330
2EFE8
100
AcDbEntity
  8
Defpoints
 62
     0
100
AcDbPoint
 10
3166.657937362677
 20
1707.340621327715
 30
0.0
  0
ENDBLK
  5
2EFF3
330
2EFE8
100
AcDbEntity
  8
0
100
AcDbBlockEnd
  0
BLOCK
  5
2EFFE
330
2EFF4
100
AcDbEntity
  8
0
100
AcDbBlockBegin
  2
*D18
 70
     1
 10
0.0
 20
0.0
 30
0.0
  3
*D18
  1

  0
LINE
  5
30CF6
330
2EFF4
100
AcDbEntity
  8
AM_5
100
AcDbLine
 10
3181.657937362676
 20
1658.409210868696
 30
0.0
 11
3173.657937362675
 21
1658.409210868696
 31
0.0
  0
LINE
  5
30CF7
330
2EFF4
100
AcDbEntity
  8
AM_5
100
AcDbLine
 10
3182.157937362675
 20
1663.408886074023
 30
0.0
 11
3173.657937362675
 21
1663.408886074023
 31
0.0
  0
LINE
  5
30CF8
330
2EFF4
100
AcDbEntity
  8
AM_5
100
AcDbLine
 10
3174.657937362675
 20
1659.409210868696
 30
0.0
 11
3174.657937362675
 21
1662.408886074023
 31
0.0
  0
INSERT
  5
30CF9
330
2EFF4
100
AcDbEntity
  8
AM_5
100
AcDbBlockReference
  2
_Dot
 10
3174.657937362675
 20
1658.409210868696
 30
0.0
 50
270.0
  0
INSERT
  5
30CFA
330
2EFF4
100
AcDbEntity
  8
AM_5
100
AcDbBlockReference
  2
_Dot
 10
3174.657937362675
 20
1663.408886074023
 30
0.0
 50
90.0
  0
MTEXT
  5
30CFB
330
2EFF4
100
AcDbEntity
  8
AM_5
 62
     2
100
AcDbMText
 10
3172.057937362675
 20
1660.487704783502
 30
0.0
 40
3.200000000000001
 41
0.0
 71
     5
 72
     1
  1
5
 11
0.0000000000000001
 21
1.0
 31
0.0
 73
     1
 44
1.0
1001
ACAD
1000
MTEXTBEGIN
1070
    73
1070
     1
1070
    44
1040
1.0
1070
    74
1070
     0
1000
MTEXTEND
  0
POINT
  5
30CFC
330
2EFF4
100
AcDbEntity
  8
Defpoints
 62
     0
100
AcDbPoint
 10
3182.657937362676
 20
1658.409210868696
 30
0.0
  0
POINT
  5
30CFD
330
2EFF4
100
AcDbEntity
  8
Defpoints
 62
     0
100
AcDbPoint
 10
3183.157937362674
 20
1663.408886074023
 30
0.0
  0
POINT
  5
30CFE
330
2EFF4
100
AcDbEntity
  8
Defpoints
 62
     0
100
AcDbPoint
 10
3174.657937362675
 20
1663.408886074023
 30
0.0
  0
ENDBLK
  5
2EFFF
330
2EFF4
100
AcDbEntity
  8
0
100
AcDbBlockEnd
  0
BLOCK
  5
2F00A
330
2F000
100
AcDbEntity
  8
0
100
AcDbBlockBegin
  2
*D19
 70
     1
 10
0.0
 20
0.0
 30
0.0
  3
*D19
  1

  0
LINE
  5
30CFF
330
2F000
100
AcDbEntity
  8
AM_5
100
AcDbLine
 10
3201.957937362676
 20
1668.408884905988
 30
0.0
 11
3165.657937362675
 21
1668.408884905988
 31
0.0
  0
LINE
  5
30D00
330
2F000
100
AcDbEntity
  8
AM_5
100
AcDbLine
 10
3181.657937362676
 20
1658.409210868696
 30
0.0
 11
3165.657937362675
 21
1658.409210868696
 31
0.0
  0
LINE
  5
30D01
330
2F000
100
AcDbEntity
  8
AM_5
100
AcDbLine
 10
3166.657937362675
 20
1667.408884905988
 30
0.0
 11
3166.657937362675
 21
1659.409210868696
 31
0.0
  0
INSERT
  5
30D02
330
2F000
100
AcDbEntity
  8
AM_5
100
AcDbBlockReference
  2
_Dot
 10
3166.657937362675
 20
1668.408884905988
 30
0.0
 50
90.0
  0
INSERT
  5
30D03
330
2F000
100
AcDbEntity
  8
AM_5
100
AcDbBlockReference
  2
_Dot
 10
3166.657937362675
 20
1658.409210868696
 30
0.0
 50
270.0
  0
MTEXT
  5
30D04
330
2F000
100
AcDbEntity
  8
AM_5
 62
     2
100
AcDbMText
 10
3164.057937362674
 20
1663.477189654642
 30
0.0
 40
3.200000000000001
 41
0.0
 71
     5
 72
     1
  1
L
 11
0.0000000000000001
 21
1.0
 31
0.0
 73
     1
 44
1.0
1001
ACAD
1000
MTEXTBEGIN
1070
    73
1070
     1
1070
    44
1040
1.0
1070
    74
1070
     0
1000
MTEXTEND
  0
POINT
  5
30D05
330
2F000
100
AcDbEntity
  8
Defpoints
 62
     0
100
AcDbPoint
 10
3202.957937362675
 20
1668.408884905988
 30
0.0
  0
POINT
  5
30D06
330
2F000
100
AcDbEntity
  8
Defpoints
 62
     0
100
AcDbPoint
 10
3182.657937362676
 20
1658.409210868696
 30
0.0
  0
POINT
  5
30D07
330
2F000
100
AcDbEntity
  8
Defpoints
 62
     0
100
AcDbPoint
 10
3166.657937362675
 20
1658.409210868696
 30
0.0
  0
ENDBLK
  5
2F00B
330
2F000
100
AcDbEntity
  8
0
100
AcDbBlockEnd
  0
BLOCK
  5
2F016
330
2F00C
100
AcDbEntity
  8
0
100
AcDbBlockBegin
  2
*D20
 70
     1
 10
0.0
 20
0.0
 30
0.0
  3
*D20
  1

  0
LINE
  5
30D08
330
2F00C
100
AcDbEntity
  8
AM_5
100
AcDbLine
 10
3201.657937362676
 20
1672.908885041383
 30
0.0
 11
3157.657937362675
 21
1672.908885041383
 31
0.0
  0
LINE
  5
30D09
330
2F00C
100
AcDbEntity
  8
AM_5
100
AcDbLine
 10
3181.657937362676
 20
1658.409210868696
 30
0.0
 11
3157.657937362675
 21
1658.409210868696
 31
0.0
  0
LINE
  5
30D0A
330
2F00C
100
AcDbEntity
  8
AM_5
100
AcDbLine
 10
3158.657937362675
 20
1671.908885041383
 30
0.0
 11
3158.657937362675
 21
1659.409210868696
 31
0.0
  0
INSERT
  5
30D0B
330
2F00C
100
AcDbEntity
  8
AM_5
100
AcDbBlockReference
  2
_Dot
 10
3158.657937362675
 20
1672.908885041383
 30
0.0
 50
90.0
  0
INSERT
  5
30D0C
330
2F00C
100
AcDbEntity
  8
AM_5
100
AcDbBlockReference
  2
_Dot
 10
3158.657937362675
 20
1658.409210868696
 30
0.0
 50
270.0
  0
MTEXT
  5
30D0D
330
2F00C
100
AcDbEntity
  8
AM_5
 62
     2
100
AcDbMText
 10
3156.057937362675
 20
1665.701441968406
 30
0.0
 40
3.200000000000001
 41
0.0
 71
     5
 72
     1
  1
（K）
 11
0.0000000000000001
 21
1.0
 31
0.0
 73
     1
 44
1.0
1001
ACAD
1000
MTEXTBEGIN
1070
    73
1070
     1
1070
    44
1040
1.0
1070
    74
1070
     0
1000
MTEXTEND
  0
POINT
  5
30D0E
330
2F00C
100
AcDbEntity
  8
Defpoints
 62
     0
100
AcDbPoint
 10
3202.657937362676
 20
1672.908885041383
 30
0.0
  0
POINT
  5
30D0F
330
2F00C
100
AcDbEntity
  8
Defpoints
 62
     0
100
AcDbPoint
 10
3182.657937362676
 20
1658.409210868696
 30
0.0
  0
POINT
  5
30D10
330
2F00C
100
AcDbEntity
  8
Defpoints
 62
     0
100
AcDbPoint
 10
3158.657937362675
 20
1658.409210868696
 30
0.0
  0
ENDBLK
  5
2F017
330
2F00C
100
AcDbEntity
  8
0
100
AcDbBlockEnd
  0
BLOCK
  5
2F022
330
2F018
100
AcDbEntity
  8
0
100
AcDbBlockBegin
  2
*D21
 70
     1
 10
0.0
 20
0.0
 30
0.0
  3
*D21
  1

  0
LINE
  5
30D11
330
2F018
100
AcDbEntity
  8
AM_5
100
AcDbLine
 10
3245.157937315705
 20
1658.408885041384
 30
0.0
 11
3273.157937391257
 21
1658.408885041384
 31
0.0
  0
LINE
  5
30D12
330
2F018
100
AcDbEntity
  8
AM_5
100
AcDbLine
 10
3246.974867305739
 20
1671.408885041383
 30
0.0
 11
3273.157937391257
 21
1671.408885041383
 31
0.0
  0
LINE
  5
30D13
330
2F018
100
AcDbEntity
  8
AM_5
100
AcDbLine
 10
3272.157937391258
 20
1659.408885041383
 30
0.0
 11
3272.157937391258
 21
1670.408885041383
 31
0.0
  0
INSERT
  5
30D14
330
2F018
100
AcDbEntity
  8
AM_5
100
AcDbBlockReference
  2
_Dot
 10
3272.157937391258
 20
1658.408885041384
 30
0.0
 50
270.0
  0
INSERT
  5
30D15
330
2F018
100
AcDbEntity
  8
AM_5
100
AcDbBlockReference
  2
_Dot
 10
3272.157937391258
 20
1671.408885041383
 30
0.0
 50
90.0
  0
MTEXT
  5
30D16
330
2F018
100
AcDbEntity
  8
AM_5
 62
     2
100
AcDbMText
 10
3269.557937391257
 20
1664.86140828229
 30
0.0
 40
3.200000000000001
 41
0.0
 71
     5
 72
     1
  1
I
 11
0.0000000000000001
 21
1.0
 31
0.0
 73
     1
 44
1.0
1001
ACAD
1000
MTEXTBEGIN
1070
    73
1070
     1
1070
    44
1040
1.0
1070
    74
1070
     0
1000
MTEXTEND
  0
POINT
  5
30D17
330
2F018
100
AcDbEntity
  8
Defpoints
 62
     0
100
AcDbPoint
 10
3244.157937315705
 20
1658.408885041384
 30
0.0
  0
POINT
  5
30D18
330
2F018
100
AcDbEntity
  8
Defpoints
 62
     0
100
AcDbPoint
 10
3245.974867305739
 20
1671.408885041383
 30
0.0
  0
POINT
  5
30D19
330
2F018
100
AcDbEntity
  8
Defpoints
 62
     0
100
AcDbPoint
 10
3272.157937391258
 20
1671.408885041383
 30
0.0
  0
ENDBLK
  5
2F023
330
2F018
100
AcDbEntity
  8
0
100
AcDbBlockEnd
  0
BLOCK
  5
2F02E
330
2F024
100
AcDbEntity
  8
0
100
AcDbBlockBegin
  2
*D22
 70
     1
 10
0.0
 20
0.0
 30
0.0
  3
*D22
  1

  0
LINE
  5
30D1A
330
2F024
100
AcDbEntity
  8
AM_5
100
AcDbLine
 10
3245.157937315705
 20
1658.408885041384
 30
0.0
 11
3265.157937391258
 21
1658.408885041384
 31
0.0
  0
LINE
  5
30D1B
330
2F024
100
AcDbEntity
  8
AM_5
100
AcDbLine
 10
3244.657937315704
 20
1663.408885041384
 30
0.0
 11
3265.157937391258
 21
1663.408885041384
 31
0.0
  0
LINE
  5
30D1C
330
2F024
100
AcDbEntity
  8
AM_5
100
AcDbLine
 10
3264.157937391257
 20
1659.408885041383
 30
0.0
 11
3264.157937391257
 21
1662.408885041384
 31
0.0
  0
INSERT
  5
30D1D
330
2F024
100
AcDbEntity
  8
AM_5
100
AcDbBlockReference
  2
_Dot
 10
3264.157937391257
 20
1658.408885041384
 30
0.0
 50
270.0
  0
INSERT
  5
30D1E
330
2F024
100
AcDbEntity
  8
AM_5
100
AcDbBlockReference
  2
_Dot
 10
3264.157937391257
 20
1663.408885041384
 30
0.0
 50
90.0
  0
MTEXT
  5
30D1F
330
2F024
100
AcDbEntity
  8
AM_5
 62
     2
100
AcDbMText
 10
3261.557937391257
 20
1660.853630365479
 30
0.0
 40
3.200000000000001
 41
0.0
 71
     5
 72
     1
  1
J
 11
0.0000000000000001
 21
1.0
 31
0.0
 73
     1
 44
1.0
1001
ACAD
1000
MTEXTBEGIN
1070
    73
1070
     1
1070
    44
1040
1.0
1070
    74
1070
     0
1000
MTEXTEND
  0
POINT
  5
30D20
330
2F024
100
AcDbEntity
  8
Defpoints
 62
     0
100
AcDbPoint
 10
3244.157937315705
 20
1658.408885041384
 30
0.0
  0
POINT
  5
30D21
330
2F024
100
AcDbEntity
  8
Defpoints
 62
     0
100
AcDbPoint
 10
3243.657937315705
 20
1663.408885041384
 30
0.0
  0
POINT
  5
30D22
330
2F024
100
AcDbEntity
  8
Defpoints
 62
     0
100
AcDbPoint
 10
3264.157937391257
 20
1663.408885041384
 30
0.0
  0
ENDBLK
  5
2F02F
330
2F024
100
AcDbEntity
  8
0
100
AcDbBlockEnd
  0
BLOCK
  5
2F03A
330
2F030
100
AcDbEntity
  8
0
100
AcDbBlockBegin
  2
*D23
 70
     1
 10
0.0
 20
0.0
 30
0.0
  3
*D23
  1

  0
LINE
  5
30D23
330
2F030
100
AcDbEntity
  8
AM_5
100
AcDbLine
 10
3245.157937315705
 20
1658.408885041384
 30
0.0
 11
3306.157937362677
 21
1658.408885041384
 31
0.0
  0
LINE
  5
30D24
330
2F030
100
AcDbEntity
  8
AM_5
100
AcDbLine
 10
3284.410210277807
 20
1686.908885041384
 30
0.0
 11
3306.157937362677
 21
1686.908885041384
 31
0.0
  0
LINE
  5
30D25
330
2F030
100
AcDbEntity
  8
AM_5
100
AcDbLine
 10
3305.157937362677
 20
1659.408885041383
 30
0.0
 11
3305.157937362677
 21
1685.908885041383
 31
0.0
  0
INSERT
  5
30D26
330
2F030
100
AcDbEntity
  8
AM_5
100
AcDbBlockReference
  2
_Dot
 10
3305.157937362677
 20
1658.408885041384
 30
0.0
 50
270.0
  0
INSERT
  5
30D27
330
2F030
100
AcDbEntity
  8
AM_5
100
AcDbBlockReference
  2
_Dot
 10
3305.157937362677
 20
1686.908885041384
 30
0.0
 50
90.0
  0
MTEXT
  5
30D28
330
2F030
100
AcDbEntity
  8
AM_5
 62
     2
100
AcDbMText
 10
3302.557937362676
 20
1672.622495247126
 30
0.0
 40
3.200000000000001
 41
0.0
 71
     5
 72
     1
  1
（H）
 11
0.0000000000000001
 21
1.0
 31
0.0
 73
     1
 44
1.0
1001
ACAD
1000
MTEXTBEGIN
1070
    73
1070
     1
1070
    44
1040
1.0
1070
    74
1070
     0
1000
MTEXTEND
  0
POINT
  5
30D29
330
2F030
100
AcDbEntity
  8
Defpoints
 62
     0
100
AcDbPoint
 10
3244.157937315705
 20
1658.408885041384
 30
0.0
  0
POINT
  5
30D2A
330
2F030
100
AcDbEntity
  8
Defpoints
 62
     0
100
AcDbPoint
 10
3283.410210277807
 20
1686.908885041384
 30
0.0
  0
POINT
  5
30D2B
330
2F030
100
AcDbEntity
  8
Defpoints
 62
     0
100
AcDbPoint
 10
3305.157937362677
 20
1686.908885041384
 30
0.0
  0
ENDBLK
  5
2F03B
330
2F030
100
AcDbEntity
  8
0
100
AcDbBlockEnd
  0
BLOCK
  5
2F060
330
2F056
100
AcDbEntity
  8
0
100
AcDbBlockBegin
  2
*D24
 70
     1
 10
0.0
 20
0.0
 30
0.0
  3
*D24
  1

  0
LINE
  5
30D2C
330
2F056
100
AcDbEntity
  8
AM_5
100
AcDbLine
 10
3152.821276701241
 20
1697.980711386387
 30
0.0
 11
3180.295943367907
 21
1697.980711386387
 31
0.0
  0
LINE
  5
30D2D
330
2F056
100
AcDbEntity
  8
AM_5
100
AcDbLine
 10
3180.295943367907
 20
1697.980711386387
 30
0.0
 11
3189.522652884211
 21
1709.818185344496
 31
0.0
  0
LINE
  5
30D2E
330
2F056
100
AcDbEntity
  8
AM_5
100
AcDbLine
 10
3195.79322184114
 20
1717.863057310934
 30
0.0
 11
3196.407983503585
 21
1718.65177024882
 31
0.0
  0
MTEXT
  5
30D2F
330
2F056
100
AcDbEntity
  8
AM_5
 62
     2
100
AcDbMText
 10
3166.058610034575
 20
1700.580711386387
 30
0.0
 40
3.2
 41
0.0
 71
     5
 72
     1
  1
2-%%c4.5×\U+22058.2サラ
 73
     1
 44
1.0
1001
ACAD
1000
MTEXTBEGIN
1070
    73
1070
     1
1070
    44
1040
1.0
1070
    74
1070
     0
1000
MTEXTEND
  0
LINE
  5
30D30
330
2F056
100
AcDbEntity
  8
AM_5
100
AcDbLine
 10
3195.178460178696
 20
1717.074344373048
 30
0.0
 11
3190.137414546655
 21
1710.606898282382
 31
0.0
  0
INSERT
  5
30D31
330
2F056
100
AcDbEntity
  8
AM_5
100
AcDbBlockReference
  2
_Dot
 10
3195.178460178696
 20
1717.074344373048
 30
0.0
 50
232.0653957001441
  0
INSERT
  5
30D32
330
2F056
100
AcDbEntity
  8
AM_5
100
AcDbBlockReference
  2
_Dot
 10
3190.137414546655
 20
1710.606898282382
 30
0.0
 50
52.0653957001441
  0
POINT
  5
30D33
330
2F056
100
AcDbEntity
  8
Defpoints
 62
     0
100
AcDbPoint
 10
3190.137414546655
 20
1710.606898282382
 30
0.0
  0
POINT
  5
30D34
330
2F056
100
AcDbEntity
  8
Defpoints
 62
     0
100
AcDbPoint
 10
3195.178460178696
 20
1717.074344373048
 30
0.0
  0
ENDBLK
  5
2F061
330
2F056
100
AcDbEntity
  8
0
100
AcDbBlockEnd
  0
BLOCK
  5
2F06C
330
2F062
100
AcDbEntity
  8
0
100
AcDbBlockBegin
  2
*D25
 70
     1
 10
0.0
 20
0.0
 30
0.0
  3
*D25
  1

  0
LINE
  5
30D35
330
2F062
100
AcDbEntity
  8
AM_5
100
AcDbLine
 10
3276.642492702943
 20
1694.534452200844
 30
0.0
 11
3249.167826036276
 21
1694.534452200844
 31
0.0
  0
LINE
  5
30D36
330
2F062
100
AcDbEntity
  8
AM_5
100
AcDbLine
 10
3249.167826036276
 20
1694.534452200844
 30
0.0
 11
3240.539689166895
 21
1707.132830065341
 31
0.0
  0
LINE
  5
30D37
330
2F062
100
AcDbEntity
  8
AM_5
100
AcDbLine
 10
3234.776185558452
 20
1715.548412407368
 30
0.0
 11
3234.211136185076
 21
1716.373469499724
 31
0.0
  0
MTEXT
  5
30D38
330
2F062
100
AcDbEntity
  8
AM_5
 62
     2
100
AcDbMText
 10
3263.40515936961
 20
1697.134452200844
 30
0.0
 40
3.2
 41
0.0
 71
     5
 72
     1
  1
4-%%c4.5×\U+22058.2サラ
 73
     1
 44
1.0
1001
ACAD
1000
MTEXTBEGIN
1070
    73
1070
     1
1070
    44
1040
1.0
1070
    74
1070
     0
1000
MTEXTEND
  0
LINE
  5
30D39
330
2F062
100
AcDbEntity
  8
AM_5
100
AcDbLine
 10
3235.341234931829
 20
1714.723355315013
 30
0.0
 11
3239.974639793519
 21
1707.957887157697
 31
0.0
  0
INSERT
  5
30D3A
330
2F062
100
AcDbEntity
  8
AM_5
100
AcDbBlockReference
  2
_Dot
 10
3235.341234931829
 20
1714.723355315013
 30
0.0
 50
304.405719954802
  0
INSERT
  5
30D3B
330
2F062
100
AcDbEntity
  8
AM_5
100
AcDbBlockReference
  2
_Dot
 10
3239.974639793519
 20
1707.957887157697
 30
0.0
 50
124.405719954802
  0
POINT
  5
30D3C
330
2F062
100
AcDbEntity
  8
Defpoints
 62
     0
100
AcDbPoint
 10
3239.974639793519
 20
1707.957887157697
 30
0.0
  0
POINT
  5
30D3D
330
2F062
100
AcDbEntity
  8
Defpoints
 62
     0
100
AcDbPoint
 10
3235.341234931829
 20
1714.723355315013
 30
0.0
  0
ENDBLK
  5
2F06D
330
2F062
100
AcDbEntity
  8
0
100
AcDbBlockEnd
  0
ENDSEC
  0
SECTION
  2
ENTITIES
  0
LINE
  5
2EDE9
330
1F
100
AcDbEntity
  8
AM_0
100
AcDbLine
 10
3239.657124568731
 20
1837.97227639912
 30
0.0
 11
3239.657124568732
 21
1790.97227639912
 31
0.0
  0
LINE
  5
2EDEA
330
1F
100
AcDbEntity
  8
AM_0
100
AcDbLine
 10
3367.65712456873
 20
1830.972276399118
 30
0.0
 11
3216.657124568731
 21
1830.972276399118
 31
0.0
  0
LINE
  5
2EDEB
330
1F
100
AcDbEntity
  8
AM_0
100
AcDbLine
 10
3367.65712456873
 20
1837.972276399122
 30
0.0
 11
3367.65712456873
 21
1790.97227639912
 31
0.0
  0
LINE
  5
2EDEC
330
1F
100
AcDbEntity
  8
AM_4
100
AcDbLine
 10
3367.65712456873
 20
1820.972276399119
 30
0.0
 11
3216.657124568731
 21
1820.972276399121
 31
0.0
  0
LINE
  5
2EDED
330
1F
100
AcDbEntity
  8
AM_4
100
AcDbLine
 10
3367.65712456873
 20
1810.972276399118
 30
0.0
 11
3216.657124568731
 21
1810.97227639912
 31
0.0
  0
LINE
  5
2EDEE
330
1F
100
AcDbEntity
  8
AM_4
100
AcDbLine
 10
3367.65712456873
 20
1800.972276399118
 30
0.0
 11
3216.657124568731
 21
1800.97227639912
 31
0.0
  0
LINE
  5
2EDEF
330
1F
100
AcDbEntity
  8
AM_5
100
AcDbLine
 10
3271.657124568731
 20
1837.972276399121
 30
0.0
 11
3271.65712456873
 21
1790.97227639912
 31
0.0
  0
LINE
  5
2EDF3
330
1F
100
AcDbEntity
  8
AM_4
100
AcDbLine
 10
3247.657124568731
 20
1837.97227639912
 30
0.0
 11
3247.657124568732
 21
1790.97227639912
 31
0.0
  0
LINE
  5
2EDF4
330
1F
100
AcDbEntity
  8
AM_5
100
AcDbLine
 10
3263.657124568731
 20
1837.972276399121
 30
0.0
 11
3263.65712456873
 21
1790.97227639912
 31
0.0
  0
LINE
  5
2EDF5
330
1F
100
AcDbEntity
  8
AM_5
100
AcDbLine
 10
3255.657124568731
 20
1837.972276399121
 30
0.0
 11
3255.65712456873
 21
1790.97227639912
 31
0.0
  0
LINE
  5
2EDF6
330
1F
100
AcDbEntity
  8
AM_5
100
AcDbLine
 10
3279.657124568731
 20
1837.972276399121
 30
0.0
 11
3279.65712456873
 21
1790.97227639912
 31
0.0
  0
LINE
  5
2EDF7
330
1F
100
AcDbEntity
  8
AM_5
100
AcDbLine
 10
3287.657124568731
 20
1837.972276399121
 30
0.0
 11
3287.65712456873
 21
1790.97227639912
 31
0.0
  0
LINE
  5
2EDF8
330
1F
100
AcDbEntity
  8
AM_5
100
AcDbLine
 10
3295.657124568731
 20
1837.972276399121
 30
0.0
 11
3295.65712456873
 21
1790.97227639912
 31
0.0
  0
LINE
  5
2EDF9
330
1F
100
AcDbEntity
  8
AM_5
100
AcDbLine
 10
3303.657124568732
 20
1837.972276399121
 30
0.0
 11
3303.657124568731
 21
1790.97227639912
 31
0.0
  0
LINE
  5
2EDFA
330
1F
100
AcDbEntity
  8
AM_5
100
AcDbLine
 10
3311.657124568732
 20
1837.972276399121
 30
0.0
 11
3311.657124568732
 21
1790.97227639912
 31
0.0
  0
LINE
  5
2EDFB
330
1F
100
AcDbEntity
  8
AM_5
100
AcDbLine
 10
3319.657124568732
 20
1837.972276399121
 30
0.0
 11
3319.657124568732
 21
1790.97227639912
 31
0.0
  0
LINE
  5
2EDFC
330
1F
100
AcDbEntity
  8
AM_5
100
AcDbLine
 10
3327.657124568732
 20
1837.972276399121
 30
0.0
 11
3327.657124568732
 21
1790.97227639912
 31
0.0
  0
LINE
  5
2EDFD
330
1F
100
AcDbEntity
  8
AM_5
100
AcDbLine
 10
3335.657124568732
 20
1837.972276399121
 30
0.0
 11
3335.657124568732
 21
1790.97227639912
 31
0.0
  0
LINE
  5
2EDFE
330
1F
100
AcDbEntity
  8
AM_5
100
AcDbLine
 10
3343.657124568731
 20
1837.972276399121
 30
0.0
 11
3343.657124568731
 21
1790.97227639912
 31
0.0
  0
LINE
  5
2EDFF
330
1F
100
AcDbEntity
  8
AM_5
100
AcDbLine
 10
3351.657124568732
 20
1837.972276399121
 30
0.0
 11
3351.65712456873
 21
1790.97227639912
 31
0.0
  0
LINE
  5
2EE00
330
1F
100
AcDbEntity
  8
AM_5
100
AcDbLine
 10
3359.657124568732
 20
1837.972276399121
 30
0.0
 11
3359.657124568731
 21
1790.97227639912
 31
0.0
  0
MTEXT
  5
2EE10
330
1F
100
AcDbEntity
  8
AM_6
100
AcDbMText
 10
3243.657124568731
 20
1795.972276399118
 30
0.0
 40
3.2
 41
8.000000000000113
 71
     5
 72
     5
  1
140
 73
     1
 44
1.0
1001
ACAD
1000
MTEXTBEGIN
1070
    73
1070
     1
1070
    44
1040
1.0
1070
    74
1070
     0
1000
MTEXTEND
1000
ACAD_MTEXT_DEFINED_HEIGHT_BEGIN
1070
    46
1040
9.999999999999273
1000
ACAD_MTEXT_DEFINED_HEIGHT_END
  0
MTEXT
  5
2EE11
330
1F
100
AcDbEntity
  8
AM_6
100
AcDbMText
 10
3251.65712456873
 20
1795.972276399118
 30
0.0
 40
3.2
 41
7.999999999999886
 71
     5
 72
     5
  1
109
 73
     1
 44
1.0
1001
ACAD
1000
MTEXTBEGIN
1070
    73
1070
     1
1070
    44
1040
1.0
1070
    74
1070
     0
1000
MTEXTEND
1000
ACAD_MTEXT_DEFINED_HEIGHT_BEGIN
1070
    46
1040
10.00000000000109
1000
ACAD_MTEXT_DEFINED_HEIGHT_END
  0
MTEXT
  5
2EE12
330
1F
100
AcDbEntity
  8
AM_6
100
AcDbMText
 10
3259.657124568731
 20
1795.972276399118
 30
0.0
 40
3.2
 41
8.000000000000113
 71
     5
 72
     5
  1
40
 73
     1
 44
1.0
1001
ACAD
1000
MTEXTBEGIN
1070
    73
1070
     1
1070
    44
1040
1.0
1070
    74
1070
     0
1000
MTEXTEND
1000
ACAD_MTEXT_DEFINED_HEIGHT_BEGIN
1070
    46
1040
10.00000000000109
1000
ACAD_MTEXT_DEFINED_HEIGHT_END
  0
MTEXT
  5
2EE13
330
1F
100
AcDbEntity
  8
AM_6
100
AcDbMText
 10
3267.657124568731
 20
1795.972276399118
 30
0.0
 40
3.2
 41
8.000000000000113
 71
     5
 72
     5
  1
35
 73
     1
 44
1.0
1001
ACAD
1000
MTEXTBEGIN
1070
    73
1070
     1
1070
    44
1040
1.0
1070
    74
1070
     0
1000
MTEXTEND
1000
ACAD_MTEXT_DEFINED_HEIGHT_BEGIN
1070
    46
1040
10.00000000000109
1000
ACAD_MTEXT_DEFINED_HEIGHT_END
  0
MTEXT
  5
2EE14
330
1F
100
AcDbEntity
  8
AM_6
100
AcDbMText
 10
3275.657124568731
 20
1795.972276399118
 30
0.0
 40
3.2
 41
8.000000000000113
 71
     5
 72
     5
  1
24
 73
     1
 44
1.0
1001
ACAD
1000
MTEXTBEGIN
1070
    73
1070
     1
1070
    44
1040
1.0
1070
    74
1070
     0
1000
MTEXTEND
1000
ACAD_MTEXT_DEFINED_HEIGHT_BEGIN
1070
    46
1040
10.00000000000109
1000
ACAD_MTEXT_DEFINED_HEIGHT_END
  0
MTEXT
  5
2EE15
330
1F
100
AcDbEntity
  8
AM_6
100
AcDbMText
 10
3283.65712456873
 20
1795.972276399117
 30
0.0
 40
3.2
 41
8.000000000000113
 71
     5
 72
     5
  1
80
 73
     1
 44
1.0
1001
ACAD
1000
MTEXTBEGIN
1070
    73
1070
     1
1070
    44
1040
1.0
1070
    74
1070
     0
1000
MTEXTEND
1000
ACAD_MTEXT_DEFINED_HEIGHT_BEGIN
1070
    46
1040
10.00000000000109
1000
ACAD_MTEXT_DEFINED_HEIGHT_END
  0
MTEXT
  5
2EE16
330
1F
100
AcDbEntity
  8
AM_6
100
AcDbMText
 10
3291.657124568731
 20
1795.972276399117
 30
0.0
 40
3.2
 41
8.000000000000113
 71
     5
 72
     5
  1
50
 73
     1
 44
1.0
1001
ACAD
1000
MTEXTBEGIN
1070
    73
1070
     1
1070
    44
1040
1.0
1070
    74
1070
     0
1000
MTEXTEND
1000
ACAD_MTEXT_DEFINED_HEIGHT_BEGIN
1070
    46
1040
10.00000000000109
1000
ACAD_MTEXT_DEFINED_HEIGHT_END
  0
MTEXT
  5
2EE17
330
1F
100
AcDbEntity
  8
AM_6
100
AcDbMText
 10
3299.657124568731
 20
1795.972276399117
 30
0.0
 40
3.2
 41
8.000000000000113
 71
     5
 72
     5
  1
43.5
 73
     1
 44
1.0
1001
ACAD
1000
MTEXTBEGIN
1070
    73
1070
     1
1070
    44
1040
1.0
1070
    74
1070
     0
1000
MTEXTEND
1000
ACAD_MTEXT_DEFINED_HEIGHT_BEGIN
1070
    46
1040
10.00000000000109
1000
ACAD_MTEXT_DEFINED_HEIGHT_END
  0
MTEXT
  5
2EE18
330
1F
100
AcDbEntity
  8
AM_6
100
AcDbMText
 10
3307.657124568731
 20
1795.97227639912
 30
0.0
 40
3.2
 41
8.000000000000113
 71
     5
 72
     5
  1
14.5
 73
     1
 44
1.0
1001
ACAD
1000
MTEXTBEGIN
1070
    73
1070
     1
1070
    44
1040
1.0
1070
    74
1070
     0
1000
MTEXTEND
1000
ACAD_MTEXT_DEFINED_HEIGHT_BEGIN
1070
    46
1040
10.00000000000109
1000
ACAD_MTEXT_DEFINED_HEIGHT_END
  0
MTEXT
  5
2EE19
330
1F
100
AcDbEntity
  8
AM_6
100
AcDbMText
 10
3323.657124568731
 20
1795.97227639912
 30
0.0
 40
3.2
 41
8.000000000000113
 71
     5
 72
     5
  1
17
 73
     1
 44
1.0
1001
ACAD
1000
MTEXTBEGIN
1070
    73
1070
     1
1070
    44
1040
1.0
1070
    74
1070
     0
1000
MTEXTEND
1000
ACAD_MTEXT_DEFINED_HEIGHT_BEGIN
1070
    46
1040
10.00000000000109
1000
ACAD_MTEXT_DEFINED_HEIGHT_END
  0
MTEXT
  5
2EE1A
330
1F
100
AcDbEntity
  8
AM_6
100
AcDbMText
 10
3331.657124568731
 20
1795.972276399117
 30
0.0
 40
3.2
 41
8.000000000000113
 71
     5
 72
     5
  1
12
 73
     1
 44
1.0
1001
ACAD
1000
MTEXTBEGIN
1070
    73
1070
     1
1070
    44
1040
1.0
1070
    74
1070
     0
1000
MTEXTEND
1000
ACAD_MTEXT_DEFINED_HEIGHT_BEGIN
1070
    46
1040
10.00000000000109
1000
ACAD_MTEXT_DEFINED_HEIGHT_END
  0
MTEXT
  5
2EE1B
330
1F
100
AcDbEntity
  8
AM_6
100
AcDbMText
 10
3339.657124568731
 20
1795.972276399122
 30
0.0
 40
3.2
 41
8.000000000000113
 71
     5
 72
     5
  1
25
 73
     1
 44
1.0
1001
ACAD
1000
MTEXTBEGIN
1070
    73
1070
     1
1070
    44
1040
1.0
1070
    74
1070
     0
1000
MTEXTEND
1000
ACAD_MTEXT_DEFINED_HEIGHT_BEGIN
1070
    46
1040
10.00000000000109
1000
ACAD_MTEXT_DEFINED_HEIGHT_END
  0
MTEXT
  5
2EE1C
330
1F
100
AcDbEntity
  8
AM_6
100
AcDbMText
 10
3347.65712456873
 20
1795.972276399122
 30
0.0
 40
3.2
 41
8.000000000000113
 71
     5
 72
     5
  1
52
 73
     1
 44
1.0
1001
ACAD
1000
MTEXTBEGIN
1070
    73
1070
     1
1070
    44
1040
1.0
1070
    74
1070
     0
1000
MTEXTEND
1000
ACAD_MTEXT_DEFINED_HEIGHT_BEGIN
1070
    46
1040
10.00000000000109
1000
ACAD_MTEXT_DEFINED_HEIGHT_END
  0
MTEXT
  5
2EE1D
330
1F
100
AcDbEntity
  8
AM_6
100
AcDbMText
 10
3355.657124568731
 20
1795.972276399122
 30
0.0
 40
3.2
 41
8.000000000000113
 71
     5
 72
     5
  1
34
 73
     1
 44
1.0
1001
ACAD
1000
MTEXTBEGIN
1070
    73
1070
     1
1070
    44
1040
1.0
1070
    74
1070
     0
1000
MTEXTEND
1000
ACAD_MTEXT_DEFINED_HEIGHT_BEGIN
1070
    46
1040
10.00000000000109
1000
ACAD_MTEXT_DEFINED_HEIGHT_END
  0
MTEXT
  5
2EE1E
330
1F
100
AcDbEntity
  8
AM_6
100
AcDbMText
 10
3363.657124568731
 20
1795.972276399122
 30
0.0
 40
3.2
 41
8.000000000000113
 71
     5
 72
     5
  1
34
 73
     1
 44
1.0
1001
ACAD
1000
MTEXTBEGIN
1070
    73
1070
     1
1070
    44
1040
1.0
1070
    74
1070
     0
1000
MTEXTEND
1000
ACAD_MTEXT_DEFINED_HEIGHT_BEGIN
1070
    46
1040
10.00000000000109
1000
ACAD_MTEXT_DEFINED_HEIGHT_END
  0
MTEXT
  5
2EE1F
330
1F
100
AcDbEntity
  8
AM_6
100
AcDbMText
 10
3363.657124568731
 20
1805.972276399124
 30
0.0
 40
3.2
 41
8.000000000000113
 71
     5
 72
     5
  1
30
 73
     1
 44
1.0
1001
ACAD
1000
MTEXTBEGIN
1070
    73
1070
     1
1070
    44
1040
1.0
1070
    74
1070
     0
1000
MTEXTEND
1000
ACAD_MTEXT_DEFINED_HEIGHT_BEGIN
1070
    46
1040
10.00000000000109
1000
ACAD_MTEXT_DEFINED_HEIGHT_END
  0
MTEXT
  5
2EE20
330
1F
100
AcDbEntity
  8
AM_6
100
AcDbMText
 10
3363.657124568731
 20
1815.972276399126
 30
0.0
 40
3.2
 41
8.000000000000113
 71
     5
 72
     5
  1
28
 73
     1
 44
1.0
1001
ACAD
1000
MTEXTBEGIN
1070
    73
1070
     1
1070
    44
1040
1.0
1070
    74
1070
     0
1000
MTEXTEND
1000
ACAD_MTEXT_DEFINED_HEIGHT_BEGIN
1070
    46
1040
10.00000000000109
1000
ACAD_MTEXT_DEFINED_HEIGHT_END
  0
MTEXT
  5
2EE21
330
1F
100
AcDbEntity
  8
AM_6
100
AcDbMText
 10
3363.657124568731
 20
1825.972276399126
 30
0.0
 40
3.2
 41
8.000000000000113
 71
     5
 72
     5
  1
28
 73
     1
 44
1.0
1001
ACAD
1000
MTEXTBEGIN
1070
    73
1070
     1
1070
    44
1040
1.0
1070
    74
1070
     0
1000
MTEXTEND
1000
ACAD_MTEXT_DEFINED_HEIGHT_BEGIN
1070
    46
1040
10.00000000000109
1000
ACAD_MTEXT_DEFINED_HEIGHT_END
  0
MTEXT
  5
2EE22
330
1F
100
AcDbEntity
  8
AM_6
100
AcDbMText
 10
3243.657124568731
 20
1805.972276399122
 30
0.0
 40
3.2
 41
8.000000000000113
 71
     5
 72
     5
  1
125
 73
     1
 44
1.0
1001
ACAD
1000
MTEXTBEGIN
1070
    73
1070
     1
1070
    44
1040
1.0
1070
    74
1070
     0
1000
MTEXTEND
1000
ACAD_MTEXT_DEFINED_HEIGHT_BEGIN
1070
    46
1040
9.999999999999273
1000
ACAD_MTEXT_DEFINED_HEIGHT_END
  0
MTEXT
  5
2EE23
330
1F
100
AcDbEntity
  8
AM_6
100
AcDbMText
 10
3243.657124568731
 20
1815.972276399122
 30
0.0
 40
3.2
 41
8.000000000000113
 71
     5
 72
     5
  1
111
 73
     1
 44
1.0
1001
ACAD
1000
MTEXTBEGIN
1070
    73
1070
     1
1070
    44
1040
1.0
1070
    74
1070
     0
1000
MTEXTEND
1000
ACAD_MTEXT_DEFINED_HEIGHT_BEGIN
1070
    46
1040
9.999999999999273
1000
ACAD_MTEXT_DEFINED_HEIGHT_END
  0
MTEXT
  5
2EE24
330
1F
100
AcDbEntity
  8
AM_6
100
AcDbMText
 10
3243.657124568731
 20
1825.97227639912
 30
0.0
 40
3.2
 41
8.000000000000113
 71
     5
 72
     5
  1
90
 73
     1
 44
1.0
1001
ACAD
1000
MTEXTBEGIN
1070
    73
1070
     1
1070
    44
1040
1.0
1070
    74
1070
     0
1000
MTEXTEND
1000
ACAD_MTEXT_DEFINED_HEIGHT_BEGIN
1070
    46
1040
9.999999999999273
1000
ACAD_MTEXT_DEFINED_HEIGHT_END
  0
MTEXT
  5
2EE25
330
1F
100
AcDbEntity
  8
AM_6
100
AcDbMText
 10
3251.65712456873
 20
1805.972276399122
 30
0.0
 40
3.2
 41
7.999999999999886
 71
     5
 72
     5
  1
98
 73
     1
 44
1.0
1001
ACAD
1000
MTEXTBEGIN
1070
    73
1070
     1
1070
    44
1040
1.0
1070
    74
1070
     0
1000
MTEXTEND
1000
ACAD_MTEXT_DEFINED_HEIGHT_BEGIN
1070
    46
1040
10.00000000000109
1000
ACAD_MTEXT_DEFINED_HEIGHT_END
  0
MTEXT
  5
2EE26
330
1F
100
AcDbEntity
  8
AM_6
100
AcDbMText
 10
3251.65712456873
 20
1815.972276399122
 30
0.0
 40
3.2
 41
7.999999999999886
 71
     5
 72
     5
  1
84
 73
     1
 44
1.0
1001
ACAD
1000
MTEXTBEGIN
1070
    73
1070
     1
1070
    44
1040
1.0
1070
    74
1070
     0
1000
MTEXTEND
1000
ACAD_MTEXT_DEFINED_HEIGHT_BEGIN
1070
    46
1040
10.00000000000109
1000
ACAD_MTEXT_DEFINED_HEIGHT_END
  0
MTEXT
  5
2EE27
330
1F
100
AcDbEntity
  8
AM_6
100
AcDbMText
 10
3251.65712456873
 20
1825.97227639912
 30
0.0
 40
3.2
 41
7.999999999999886
 71
     5
 72
     5
  1
68
 73
     1
 44
1.0
1001
ACAD
1000
MTEXTBEGIN
1070
    73
1070
     1
1070
    44
1040
1.0
1070
    74
1070
     0
1000
MTEXTEND
1000
ACAD_MTEXT_DEFINED_HEIGHT_BEGIN
1070
    46
1040
10.00000000000109
1000
ACAD_MTEXT_DEFINED_HEIGHT_END
  0
MTEXT
  5
2EE28
330
1F
100
AcDbEntity
  8
AM_6
100
AcDbMText
 10
3259.657124568731
 20
1805.97227639912
 30
0.0
 40
3.2
 41
8.000000000000113
 71
     5
 72
     5
  1
32
 73
     1
 44
1.0
1001
ACAD
1000
MTEXTBEGIN
1070
    73
1070
     1
1070
    44
1040
1.0
1070
    74
1070
     0
1000
MTEXTEND
1000
ACAD_MTEXT_DEFINED_HEIGHT_BEGIN
1070
    46
1040
10.00000000000109
1000
ACAD_MTEXT_DEFINED_HEIGHT_END
  0
MTEXT
  5
2EE29
330
1F
100
AcDbEntity
  8
AM_6
100
AcDbMText
 10
3259.657124568731
 20
1815.972276399122
 30
0.0
 40
3.2
 41
8.000000000000113
 71
     5
 72
     5
  1
30
 73
     1
 44
1.0
1001
ACAD
1000
MTEXTBEGIN
1070
    73
1070
     1
1070
    44
1040
1.0
1070
    74
1070
     0
1000
MTEXTEND
1000
ACAD_MTEXT_DEFINED_HEIGHT_BEGIN
1070
    46
1040
10.00000000000109
1000
ACAD_MTEXT_DEFINED_HEIGHT_END
  0
MTEXT
  5
2EE2A
330
1F
100
AcDbEntity
  8
AM_6
100
AcDbMText
 10
3259.657124568731
 20
1825.972276399122
 30
0.0
 40
3.2
 41
8.000000000000113
 71
     5
 72
     5
  1
30
 73
     1
 44
1.0
1001
ACAD
1000
MTEXTBEGIN
1070
    73
1070
     1
1070
    44
1040
1.0
1070
    74
1070
     0
1000
MTEXTEND
1000
ACAD_MTEXT_DEFINED_HEIGHT_BEGIN
1070
    46
1040
10.00000000000109
1000
ACAD_MTEXT_DEFINED_HEIGHT_END
  0
MTEXT
  5
2EE2B
330
1F
100
AcDbEntity
  8
AM_6
100
AcDbMText
 10
3267.657124568731
 20
1805.972276399122
 30
0.0
 40
3.2
 41
8.000000000000113
 71
     5
 72
     5
  1
32
 73
     1
 44
1.0
1001
ACAD
1000
MTEXTBEGIN
1070
    73
1070
     1
1070
    44
1040
1.0
1070
    74
1070
     0
1000
MTEXTEND
1000
ACAD_MTEXT_DEFINED_HEIGHT_BEGIN
1070
    46
1040
10.00000000000109
1000
ACAD_MTEXT_DEFINED_HEIGHT_END
  0
MTEXT
  5
2EE2C
330
1F
100
AcDbEntity
  8
AM_6
100
AcDbMText
 10
3267.657124568731
 20
1815.972276399124
 30
0.0
 40
3.2
 41
8.000000000000113
 71
     5
 72
     5
  1
30
 73
     1
 44
1.0
1001
ACAD
1000
MTEXTBEGIN
1070
    73
1070
     1
1070
    44
1040
1.0
1070
    74
1070
     0
1000
MTEXTEND
1000
ACAD_MTEXT_DEFINED_HEIGHT_BEGIN
1070
    46
1040
10.00000000000109
1000
ACAD_MTEXT_DEFINED_HEIGHT_END
  0
MTEXT
  5
2EE2D
330
1F
100
AcDbEntity
  8
AM_6
100
AcDbMText
 10
3267.657124568731
 20
1825.972276399124
 30
0.0
 40
3.2
 41
8.000000000000113
 71
     5
 72
     5
  1
30
 73
     1
 44
1.0
1001
ACAD
1000
MTEXTBEGIN
1070
    73
1070
     1
1070
    44
1040
1.0
1070
    74
1070
     0
1000
MTEXTEND
1000
ACAD_MTEXT_DEFINED_HEIGHT_BEGIN
1070
    46
1040
10.00000000000109
1000
ACAD_MTEXT_DEFINED_HEIGHT_END
  0
MTEXT
  5
2EE2E
330
1F
100
AcDbEntity
  8
AM_6
100
AcDbMText
 10
3275.657124568731
 20
1805.972276399122
 30
0.0
 40
3.2
 41
8.000000000000113
 71
     5
 72
     5
  1
23
 73
     1
 44
1.0
1001
ACAD
1000
MTEXTBEGIN
1070
    73
1070
     1
1070
    44
1040
1.0
1070
    74
1070
     0
1000
MTEXTEND
1000
ACAD_MTEXT_DEFINED_HEIGHT_BEGIN
1070
    46
1040
10.00000000000109
1000
ACAD_MTEXT_DEFINED_HEIGHT_END
  0
MTEXT
  5
2EE2F
330
1F
100
AcDbEntity
  8
AM_6
100
AcDbMText
 10
3275.657124568731
 20
1815.972276399124
 30
0.0
 40
3.2
 41
8.000000000000113
 71
     5
 72
     5
  1
20
 73
     1
 44
1.0
1001
ACAD
1000
MTEXTBEGIN
1070
    73
1070
     1
1070
    44
1040
1.0
1070
    74
1070
     0
1000
MTEXTEND
1000
ACAD_MTEXT_DEFINED_HEIGHT_BEGIN
1070
    46
1040
10.00000000000109
1000
ACAD_MTEXT_DEFINED_HEIGHT_END
  0
MTEXT
  5
2EE30
330
1F
100
AcDbEntity
  8
AM_6
100
AcDbMText
 10
3275.657124568731
 20
1825.972276399124
 30
0.0
 40
3.2
 41
8.000000000000113
 71
     5
 72
     5
  1
20
 73
     1
 44
1.0
1001
ACAD
1000
MTEXTBEGIN
1070
    73
1070
     1
1070
    44
1040
1.0
1070
    74
1070
     0
1000
MTEXTEND
1000
ACAD_MTEXT_DEFINED_HEIGHT_BEGIN
1070
    46
1040
10.00000000000109
1000
ACAD_MTEXT_DEFINED_HEIGHT_END
  0
MTEXT
  5
2EE31
330
1F
100
AcDbEntity
  8
AM_6
100
AcDbMText
 10
3283.65712456873
 20
1805.972276399122
 30
0.0
 40
3.2
 41
8.000000000000113
 71
     5
 72
     5
  1
65
 73
     1
 44
1.0
1001
ACAD
1000
MTEXTBEGIN
1070
    73
1070
     1
1070
    44
1040
1.0
1070
    74
1070
     0
1000
MTEXTEND
1000
ACAD_MTEXT_DEFINED_HEIGHT_BEGIN
1070
    46
1040
10.00000000000109
1000
ACAD_MTEXT_DEFINED_HEIGHT_END
  0
MTEXT
  5
2EE32
330
1F
100
AcDbEntity
  8
AM_6
100
AcDbMText
 10
3283.65712456873
 20
1815.972276399124
 30
0.0
 40
3.2
 41
8.000000000000113
 71
     5
 72
     5
  1
60
 73
     1
 44
1.0
1001
ACAD
1000
MTEXTBEGIN
1070
    73
1070
     1
1070
    44
1040
1.0
1070
    74
1070
     0
1000
MTEXTEND
1000
ACAD_MTEXT_DEFINED_HEIGHT_BEGIN
1070
    46
1040
10.00000000000109
1000
ACAD_MTEXT_DEFINED_HEIGHT_END
  0
MTEXT
  5
2EE33
330
1F
100
AcDbEntity
  8
AM_6
100
AcDbMText
 10
3283.65712456873
 20
1825.972276399124
 30
0.0
 40
3.2
 41
8.000000000000113
 71
     5
 72
     5
  1
55
 73
     1
 44
1.0
1001
ACAD
1000
MTEXTBEGIN
1070
    73
1070
     1
1070
    44
1040
1.0
1070
    74
1070
     0
1000
MTEXTEND
1000
ACAD_MTEXT_DEFINED_HEIGHT_BEGIN
1070
    46
1040
10.00000000000109
1000
ACAD_MTEXT_DEFINED_HEIGHT_END
  0
MTEXT
  5
2EE34
330
1F
100
AcDbEntity
  8
AM_6
100
AcDbMText
 10
3291.657124568731
 20
1805.972276399122
 30
0.0
 40
3.2
 41
8.000000000000113
 71
     5
 72
     5
  1
50
 73
     1
 44
1.0
1001
ACAD
1000
MTEXTBEGIN
1070
    73
1070
     1
1070
    44
1040
1.0
1070
    74
1070
     0
1000
MTEXTEND
1000
ACAD_MTEXT_DEFINED_HEIGHT_BEGIN
1070
    46
1040
10.00000000000109
1000
ACAD_MTEXT_DEFINED_HEIGHT_END
  0
MTEXT
  5
2EE35
330
1F
100
AcDbEntity
  8
AM_6
100
AcDbMText
 10
3291.657124568731
 20
1815.972276399124
 30
0.0
 40
3.2
 41
8.000000000000113
 71
     5
 72
     5
  1
45
 73
     1
 44
1.0
1001
ACAD
1000
MTEXTBEGIN
1070
    73
1070
     1
1070
    44
1040
1.0
1070
    74
1070
     0
1000
MTEXTEND
1000
ACAD_MTEXT_DEFINED_HEIGHT_BEGIN
1070
    46
1040
10.00000000000109
1000
ACAD_MTEXT_DEFINED_HEIGHT_END
  0
MTEXT
  5
2EE36
330
1F
100
AcDbEntity
  8
AM_6
100
AcDbMText
 10
3291.657124568731
 20
1825.972276399124
 30
0.0
 40
3.2
 41
8.000000000000113
 71
     5
 72
     5
  1
45
 73
     1
 44
1.0
1001
ACAD
1000
MTEXTBEGIN
1070
    73
1070
     1
1070
    44
1040
1.0
1070
    74
1070
     0
1000
MTEXTEND
1000
ACAD_MTEXT_DEFINED_HEIGHT_BEGIN
1070
    46
1040
10.00000000000109
1000
ACAD_MTEXT_DEFINED_HEIGHT_END
  0
MTEXT
  5
2EE37
330
1F
100
AcDbEntity
  8
AM_6
100
AcDbMText
 10
3299.657124568731
 20
1805.972276399122
 30
0.0
 40
3.2
 41
8.000000000000113
 71
     5
 72
     5
  1
36.5
 73
     1
 44
1.0
1001
ACAD
1000
MTEXTBEGIN
1070
    73
1070
     1
1070
    44
1040
1.0
1070
    74
1070
     0
1000
MTEXTEND
1000
ACAD_MTEXT_DEFINED_HEIGHT_BEGIN
1070
    46
1040
10.00000000000109
1000
ACAD_MTEXT_DEFINED_HEIGHT_END
  0
MTEXT
  5
2EE38
330
1F
100
AcDbEntity
  8
AM_6
100
AcDbMText
 10
3299.657124568731
 20
1815.972276399124
 30
0.0
 40
3.2
 41
8.000000000000113
 71
     5
 72
     5
  1
35.5
 73
     1
 44
1.0
1001
ACAD
1000
MTEXTBEGIN
1070
    73
1070
     1
1070
    44
1040
1.0
1070
    74
1070
     0
1000
MTEXTEND
1000
ACAD_MTEXT_DEFINED_HEIGHT_BEGIN
1070
    46
1040
10.00000000000109
1000
ACAD_MTEXT_DEFINED_HEIGHT_END
  0
MTEXT
  5
2EE39
330
1F
100
AcDbEntity
  8
AM_6
100
AcDbMText
 10
3299.657124568731
 20
1825.972276399124
 30
0.0
 40
3.2
 41
8.000000000000113
 71
     5
 72
     5
  1
28.5
 73
     1
 44
1.0
1001
ACAD
1000
MTEXTBEGIN
1070
    73
1070
     1
1070
    44
1040
1.0
1070
    74
1070
     0
1000
MTEXTEND
1000
ACAD_MTEXT_DEFINED_HEIGHT_BEGIN
1070
    46
1040
10.00000000000109
1000
ACAD_MTEXT_DEFINED_HEIGHT_END
  0
MTEXT
  5
2EE3A
330
1F
100
AcDbEntity
  8
AM_6
100
AcDbMText
 10
3307.657124568731
 20
1805.972276399124
 30
0.0
 40
3.2
 41
8.000000000000113
 71
     5
 72
     5
  1
14.5
 73
     1
 44
1.0
1001
ACAD
1000
MTEXTBEGIN
1070
    73
1070
     1
1070
    44
1040
1.0
1070
    74
1070
     0
1000
MTEXTEND
1000
ACAD_MTEXT_DEFINED_HEIGHT_BEGIN
1070
    46
1040
10.00000000000109
1000
ACAD_MTEXT_DEFINED_HEIGHT_END
  0
MTEXT
  5
2EE3B
330
1F
100
AcDbEntity
  8
AM_6
100
AcDbMText
 10
3307.657124568731
 20
1815.972276399126
 30
0.0
 40
3.2
 41
8.000000000000113
 71
     5
 72
     5
  1
13.5
 73
     1
 44
1.0
1001
ACAD
1000
MTEXTBEGIN
1070
    73
1070
     1
1070
    44
1040
1.0
1070
    74
1070
     0
1000
MTEXTEND
1000
ACAD_MTEXT_DEFINED_HEIGHT_BEGIN
1070
    46
1040
10.00000000000109
1000
ACAD_MTEXT_DEFINED_HEIGHT_END
  0
MTEXT
  5
2EE3C
330
1F
100
AcDbEntity
  8
AM_6
100
AcDbMText
 10
3307.657124568731
 20
1825.972276399126
 30
0.0
 40
3.2
 41
8.000000000000113
 71
     5
 72
     5
  1
13
 73
     1
 44
1.0
1001
ACAD
1000
MTEXTBEGIN
1070
    73
1070
     1
1070
    44
1040
1.0
1070
    74
1070
     0
1000
MTEXTEND
1000
ACAD_MTEXT_DEFINED_HEIGHT_BEGIN
1070
    46
1040
10.00000000000109
1000
ACAD_MTEXT_DEFINED_HEIGHT_END
  0
MTEXT
  5
2EE3D
330
1F
100
AcDbEntity
  8
AM_6
100
AcDbMText
 10
3315.65712456873
 20
1805.972276399122
 30
0.0
 40
3.2
 41
8.000000000000113
 71
     5
 72
     5
  1
5
 73
     1
 44
1.0
1001
ACAD
1000
MTEXTBEGIN
1070
    73
1070
     1
1070
    44
1040
1.0
1070
    74
1070
     0
1000
MTEXTEND
1000
ACAD_MTEXT_DEFINED_HEIGHT_BEGIN
1070
    46
1040
10.00000000000109
1000
ACAD_MTEXT_DEFINED_HEIGHT_END
  0
MTEXT
  5
2EE3E
330
1F
100
AcDbEntity
  8
AM_6
100
AcDbMText
 10
3315.65712456873
 20
1815.972276399124
 30
0.0
 40
3.2
 41
8.000000000000113
 71
     5
 72
     5
  1
5
 73
     1
 44
1.0
1001
ACAD
1000
MTEXTBEGIN
1070
    73
1070
     1
1070
    44
1040
1.0
1070
    74
1070
     0
1000
MTEXTEND
1000
ACAD_MTEXT_DEFINED_HEIGHT_BEGIN
1070
    46
1040
10.00000000000109
1000
ACAD_MTEXT_DEFINED_HEIGHT_END
  0
MTEXT
  5
2EE3F
330
1F
100
AcDbEntity
  8
AM_6
100
AcDbMText
 10
3315.657124568732
 20
1825.972276399124
 30
0.0
 40
3.2
 41
8.000000000000113
 71
     5
 72
     5
  1
5
 73
     1
 44
1.0
1001
ACAD
1000
MTEXTBEGIN
1070
    73
1070
     1
1070
    44
1040
1.0
1070
    74
1070
     0
1000
MTEXTEND
1000
ACAD_MTEXT_DEFINED_HEIGHT_BEGIN
1070
    46
1040
10.00000000000109
1000
ACAD_MTEXT_DEFINED_HEIGHT_END
  0
MTEXT
  5
2EE40
330
1F
100
AcDbEntity
  8
AM_6
100
AcDbMText
 10
3323.657124568731
 20
1825.972276399124
 30
0.0
 40
3.2
 41
8.000000000000113
 71
     5
 72
     5
  1
14.5
 73
     1
 44
1.0
1001
ACAD
1000
MTEXTBEGIN
1070
    73
1070
     1
1070
    44
1040
1.0
1070
    74
1070
     0
1000
MTEXTEND
1000
ACAD_MTEXT_DEFINED_HEIGHT_BEGIN
1070
    46
1040
10.00000000000109
1000
ACAD_MTEXT_DEFINED_HEIGHT_END
  0
MTEXT
  5
2EE41
330
1F
100
AcDbEntity
  8
AM_6
100
AcDbMText
 10
3323.657124568732
 20
1815.972276399122
 30
0.0
 40
3.2
 41
8.000000000000113
 71
     5
 72
     5
  1
14.5
 73
     1
 44
1.0
1001
ACAD
1000
MTEXTBEGIN
1070
    73
1070
     1
1070
    44
1040
1.0
1070
    74
1070
     0
1000
MTEXTEND
1000
ACAD_MTEXT_DEFINED_HEIGHT_BEGIN
1070
    46
1040
10.00000000000109
1000
ACAD_MTEXT_DEFINED_HEIGHT_END
  0
MTEXT
  5
2EE42
330
1F
100
AcDbEntity
  8
AM_6
100
AcDbMText
 10
3323.657124568731
 20
1805.972276399122
 30
0.0
 40
3.2
 41
8.000000000000113
 71
     5
 72
     5
  1
18
 73
     1
 44
1.0
1001
ACAD
1000
MTEXTBEGIN
1070
    73
1070
     1
1070
    44
1040
1.0
1070
    74
1070
     0
1000
MTEXTEND
1000
ACAD_MTEXT_DEFINED_HEIGHT_BEGIN
1070
    46
1040
10.00000000000109
1000
ACAD_MTEXT_DEFINED_HEIGHT_END
  0
MTEXT
  5
2EE43
330
1F
100
AcDbEntity
  8
AM_6
100
AcDbMText
 10
3331.657124568731
 20
1825.972276399126
 30
0.0
 40
3.2
 41
8.000000000000113
 71
     5
 72
     5
  1
10
 73
     1
 44
1.0
1001
ACAD
1000
MTEXTBEGIN
1070
    73
1070
     1
1070
    44
1040
1.0
1070
    74
1070
     0
1000
MTEXTEND
1000
ACAD_MTEXT_DEFINED_HEIGHT_BEGIN
1070
    46
1040
10.00000000000109
1000
ACAD_MTEXT_DEFINED_HEIGHT_END
  0
MTEXT
  5
2EE44
330
1F
100
AcDbEntity
  8
AM_6
100
AcDbMText
 10
3331.657124568732
 20
1815.972276399124
 30
0.0
 40
3.2
 41
8.000000000000113
 71
     5
 72
     5
  1
10
 73
     1
 44
1.0
1001
ACAD
1000
MTEXTBEGIN
1070
    73
1070
     1
1070
    44
1040
1.0
1070
    74
1070
     0
1000
MTEXTEND
1000
ACAD_MTEXT_DEFINED_HEIGHT_BEGIN
1070
    46
1040
10.00000000000109
1000
ACAD_MTEXT_DEFINED_HEIGHT_END
  0
MTEXT
  5
2EE45
330
1F
100
AcDbEntity
  8
AM_6
100
AcDbMText
 10
3331.657124568731
 20
1805.972276399124
 30
0.0
 40
3.2
 41
8.000000000000113
 71
     5
 72
     5
  1
12
 73
     1
 44
1.0
1001
ACAD
1000
MTEXTBEGIN
1070
    73
1070
     1
1070
    44
1040
1.0
1070
    74
1070
     0
1000
MTEXTEND
1000
ACAD_MTEXT_DEFINED_HEIGHT_BEGIN
1070
    46
1040
10.00000000000109
1000
ACAD_MTEXT_DEFINED_HEIGHT_END
  0
MTEXT
  5
2EE46
330
1F
100
AcDbEntity
  8
AM_6
100
AcDbMText
 10
3339.657124568731
 20
1825.972276399127
 30
0.0
 40
3.2
 41
8.000000000000113
 71
     5
 72
     5
  1
17
 73
     1
 44
1.0
1001
ACAD
1000
MTEXTBEGIN
1070
    73
1070
     1
1070
    44
1040
1.0
1070
    74
1070
     0
1000
MTEXTEND
1000
ACAD_MTEXT_DEFINED_HEIGHT_BEGIN
1070
    46
1040
10.00000000000109
1000
ACAD_MTEXT_DEFINED_HEIGHT_END
  0
MTEXT
  5
2EE47
330
1F
100
AcDbEntity
  8
AM_6
100
AcDbMText
 10
3339.657124568731
 20
1815.972276399126
 30
0.0
 40
3.2
 41
8.000000000000113
 71
     5
 72
     5
  1
20
 73
     1
 44
1.0
1001
ACAD
1000
MTEXTBEGIN
1070
    73
1070
     1
1070
    44
1040
1.0
1070
    74
1070
     0
1000
MTEXTEND
1000
ACAD_MTEXT_DEFINED_HEIGHT_BEGIN
1070
    46
1040
10.00000000000109
1000
ACAD_MTEXT_DEFINED_HEIGHT_END
  0
MTEXT
  5
2EE48
330
1F
100
AcDbEntity
  8
AM_6
100
AcDbMText
 10
3339.657124568731
 20
1805.972276399126
 30
0.0
 40
3.2
 41
8.000000000000113
 71
     5
 72
     5
  1
22
 73
     1
 44
1.0
1001
ACAD
1000
MTEXTBEGIN
1070
    73
1070
     1
1070
    44
1040
1.0
1070
    74
1070
     0
1000
MTEXTEND
1000
ACAD_MTEXT_DEFINED_HEIGHT_BEGIN
1070
    46
1040
10.00000000000109
1000
ACAD_MTEXT_DEFINED_HEIGHT_END
  0
MTEXT
  5
2EE49
330
1F
100
AcDbEntity
  8
AM_6
100
AcDbMText
 10
3347.657124568732
 20
1825.972276399127
 30
0.0
 40
3.2
 41
8.000000000000113
 71
     5
 72
     5
  1
37
 73
     1
 44
1.0
1001
ACAD
1000
MTEXTBEGIN
1070
    73
1070
     1
1070
    44
1040
1.0
1070
    74
1070
     0
1000
MTEXTEND
1000
ACAD_MTEXT_DEFINED_HEIGHT_BEGIN
1070
    46
1040
10.00000000000109
1000
ACAD_MTEXT_DEFINED_HEIGHT_END
  0
MTEXT
  5
2EE4A
330
1F
100
AcDbEntity
  8
AM_6
100
AcDbMText
 10
3347.657124568732
 20
1815.972276399126
 30
0.0
 40
3.2
 41
8.000000000000113
 71
     5
 72
     5
  1
40
 73
     1
 44
1.0
1001
ACAD
1000
MTEXTBEGIN
1070
    73
1070
     1
1070
    44
1040
1.0
1070
    74
1070
     0
1000
MTEXTEND
1000
ACAD_MTEXT_DEFINED_HEIGHT_BEGIN
1070
    46
1040
10.00000000000109
1000
ACAD_MTEXT_DEFINED_HEIGHT_END
  0
MTEXT
  5
2EE4B
330
1F
100
AcDbEntity
  8
AM_6
100
AcDbMText
 10
3347.657124568732
 20
1805.972276399126
 30
0.0
 40
3.2
 41
8.000000000000113
 71
     5
 72
     5
  1
43
 73
     1
 44
1.0
1001
ACAD
1000
MTEXTBEGIN
1070
    73
1070
     1
1070
    44
1040
1.0
1070
    74
1070
     0
1000
MTEXTEND
1000
ACAD_MTEXT_DEFINED_HEIGHT_BEGIN
1070
    46
1040
10.00000000000109
1000
ACAD_MTEXT_DEFINED_HEIGHT_END
  0
MTEXT
  5
2EE4C
330
1F
100
AcDbEntity
  8
AM_6
100
AcDbMText
 10
3355.657124568732
 20
1825.972276399127
 30
0.0
 40
3.2
 41
8.000000000000113
 71
     5
 72
     5
  1
32
 73
     1
 44
1.0
1001
ACAD
1000
MTEXTBEGIN
1070
    73
1070
     1
1070
    44
1040
1.0
1070
    74
1070
     0
1000
MTEXTEND
1000
ACAD_MTEXT_DEFINED_HEIGHT_BEGIN
1070
    46
1040
10.00000000000109
1000
ACAD_MTEXT_DEFINED_HEIGHT_END
  0
MTEXT
  5
2EE4D
330
1F
100
AcDbEntity
  8
AM_6
100
AcDbMText
 10
3355.657124568732
 20
1815.972276399126
 30
0.0
 40
3.2
 41
8.000000000000113
 71
     5
 72
     5
  1
32
 73
     1
 44
1.0
1001
ACAD
1000
MTEXTBEGIN
1070
    73
1070
     1
1070
    44
1040
1.0
1070
    74
1070
     0
1000
MTEXTEND
1000
ACAD_MTEXT_DEFINED_HEIGHT_BEGIN
1070
    46
1040
10.00000000000109
1000
ACAD_MTEXT_DEFINED_HEIGHT_END
  0
MTEXT
  5
2EE4E
330
1F
100
AcDbEntity
  8
AM_6
100
AcDbMText
 10
3355.657124568732
 20
1805.972276399126
 30
0.0
 40
3.2
 41
8.000000000000113
 71
     5
 72
     5
  1
35
 73
     1
 44
1.0
1001
ACAD
1000
MTEXTBEGIN
1070
    73
1070
     1
1070
    44
1040
1.0
1070
    74
1070
     0
1000
MTEXTEND
1000
ACAD_MTEXT_DEFINED_HEIGHT_BEGIN
1070
    46
1040
10.00000000000109
1000
ACAD_MTEXT_DEFINED_HEIGHT_END
  0
MTEXT
  5
2EE4F
330
1F
100
AcDbEntity
  8
AM_6
100
AcDbMText
 10
3315.657124568732
 20
1795.97227639912
 30
0.0
 40
3.2
 41
8.000000000000113
 71
     5
 72
     5
  1
6
 73
     1
 44
1.0
1001
ACAD
1000
MTEXTBEGIN
1070
    73
1070
     1
1070
    44
1040
1.0
1070
    74
1070
     0
1000
MTEXTEND
1000
ACAD_MTEXT_DEFINED_HEIGHT_BEGIN
1070
    46
1040
10.00000000000109
1000
ACAD_MTEXT_DEFINED_HEIGHT_END
  0
MTEXT
  5
2EE51
330
1F
100
AcDbEntity
  8
AM_6
100
AcDbMText
 10
3228.15712456873
 20
1825.972276399119
 30
0.0
 40
3.2
 41
23.0000000000001
 71
     5
 72
     5
  1
ELT-11S-1
 73
     1
 44
1.0
1001
ACAD
1000
MTEXTBEGIN
1070
    73
1070
     1
1070
    44
1040
1.0
1070
    74
1070
     0
1000
MTEXTEND
1000
ACAD_MTEXT_DEFINED_HEIGHT_BEGIN
1070
    46
1040
10.00000000000018
1000
ACAD_MTEXT_DEFINED_HEIGHT_END
  0
MTEXT
  5
2EE52
330
1F
100
AcDbEntity
  8
AM_6
100
AcDbMText
 10
3228.15712456873
 20
1815.972276399119
 30
0.0
 40
3.2
 41
23.00000000000022
 71
     5
 72
     5
  1
ELT-11S-2
 73
     1
 44
1.0
1001
ACAD
1000
MTEXTBEGIN
1070
    73
1070
     1
1070
    44
1040
1.0
1070
    74
1070
     0
1000
MTEXTEND
1000
ACAD_MTEXT_DEFINED_HEIGHT_BEGIN
1070
    46
1040
10.00000000000109
1000
ACAD_MTEXT_DEFINED_HEIGHT_END
  0
MTEXT
  5
2EE53
330
1F
100
AcDbEntity
  8
AM_6
100
AcDbMText
 10
3228.15712456873
 20
1805.972276399118
 30
0.0
 40
3.2
 41
23.00000000000023
 71
     5
 72
     5
  1
ELT-11S-3
 73
     1
 44
1.0
1001
ACAD
1000
MTEXTBEGIN
1070
    73
1070
     1
1070
    44
1040
1.0
1070
    74
1070
     0
1000
MTEXTEND
1000
ACAD_MTEXT_DEFINED_HEIGHT_BEGIN
1070
    46
1040
9.9999999999995
1000
ACAD_MTEXT_DEFINED_HEIGHT_END
  0
MTEXT
  5
2EE54
330
1F
100
AcDbEntity
  8
AM_6
100
AcDbMText
 10
3228.15712456873
 20
1795.972276399118
 30
0.0
 40
3.2
 41
23.00000000000027
 71
     5
 72
     5
  1
ELT-11S-4
 73
     1
 44
1.0
1001
ACAD
1000
MTEXTBEGIN
1070
    73
1070
     1
1070
    44
1040
1.0
1070
    74
1070
     0
1000
MTEXTEND
1000
ACAD_MTEXT_DEFINED_HEIGHT_BEGIN
1070
    46
1040
9.9999999999995
1000
ACAD_MTEXT_DEFINED_HEIGHT_END
  0
LINE
  5
2EE60
330
1F
100
AcDbEntity
  8
AM_0
100
AcDbLine
 10
3367.65712456873
 20
1837.972276399122
 30
0.0
 11
3200.65712456873
 21
1837.97227639912
 31
0.0
  0
MTEXT
  5
2EE61
330
1F
100
AcDbEntity
  8
AM_6
100
AcDbMText
 10
3228.15712456873
 20
1834.47227639912
 30
0.0
 40
3.2
 41
22.99999999999982
 71
     5
 72
     5
  1
品番
 73
     1
 44
1.0
1001
ACAD
1000
MTEXTBEGIN
1070
    73
1070
     1
1070
    44
1040
1.0
1070
    74
1070
     0
1000
MTEXTEND
1000
ACAD_MTEXT_DEFINED_HEIGHT_BEGIN
1070
    46
1040
3.200000000000227
1000
ACAD_MTEXT_DEFINED_HEIGHT_END
  0
MTEXT
  5
2EE62
330
1F
100
AcDbEntity
  8
AM_6
100
AcDbMText
 10
3243.657124568731
 20
1834.47227639912
 30
0.0
 40
3.2
 41
8.000000000000113
 71
     5
 72
     5
  1
（A）
 73
     1
 44
1.0
1001
ACAD
1000
MTEXTBEGIN
1070
    73
1070
     1
1070
    44
1040
1.0
1070
    74
1070
     0
1000
MTEXTEND
  0
MTEXT
  5
2EE63
330
1F
100
AcDbEntity
  8
AM_6
100
AcDbMText
 10
3259.657124568731
 20
1834.47227639912
 30
0.0
 40
3.2
 41
7.999999999999886
 71
     5
 72
     5
  1
C
 73
     1
 44
1.0
1001
ACAD
1000
MTEXTBEGIN
1070
    73
1070
     1
1070
    44
1040
1.0
1070
    74
1070
     0
1000
MTEXTEND
  0
MTEXT
  5
2EE64
330
1F
100
AcDbEntity
  8
AM_6
100
AcDbMText
 10
3251.65712456873
 20
1834.47227639912
 30
0.0
 40
3.2
 41
8.000000000000113
 71
     5
 72
     5
  1
（B）
 73
     1
 44
1.0
1001
ACAD
1000
MTEXTBEGIN
1070
    73
1070
     1
1070
    44
1040
1.0
1070
    74
1070
     0
1000
MTEXTEND
  0
MTEXT
  5
2EE65
330
1F
100
AcDbEntity
  8
AM_6
100
AcDbMText
 10
3267.657124568731
 20
1834.47227639912
 30
0.0
 40
3.2
 41
7.999999999999886
 71
     5
 72
     5
  1
D
 73
     1
 44
1.0
1001
ACAD
1000
MTEXTBEGIN
1070
    73
1070
     1
1070
    44
1040
1.0
1070
    74
1070
     0
1000
MTEXTEND
  0
MTEXT
  5
2EE66
330
1F
100
AcDbEntity
  8
AM_6
100
AcDbMText
 10
3275.657124568731
 20
1834.47227639912
 30
0.0
 40
3.2
 41
7.999999999999886
 71
     5
 72
     5
  1
E
 73
     1
 44
1.0
1001
ACAD
1000
MTEXTBEGIN
1070
    73
1070
     1
1070
    44
1040
1.0
1070
    74
1070
     0
1000
MTEXTEND
  0
MTEXT
  5
2EE67
330
1F
100
AcDbEntity
  8
AM_6
100
AcDbMText
 10
3283.657124568732
 20
1834.47227639912
 30
0.0
 40
3.2
 41
7.999999999999886
 71
     5
 72
     5
  1
F
 73
     1
 44
1.0
1001
ACAD
1000
MTEXTBEGIN
1070
    73
1070
     1
1070
    44
1040
1.0
1070
    74
1070
     0
1000
MTEXTEND
  0
MTEXT
  5
2EE68
330
1F
100
AcDbEntity
  8
AM_6
100
AcDbMText
 10
3291.657124568732
 20
1834.47227639912
 30
0.0
 40
3.2
 41
7.999999999999886
 71
     5
 72
     5
  1
G
 73
     1
 44
1.0
1001
ACAD
1000
MTEXTBEGIN
1070
    73
1070
     1
1070
    44
1040
1.0
1070
    74
1070
     0
1000
MTEXTEND
  0
MTEXT
  5
2EE69
330
1F
100
AcDbEntity
  8
AM_6
100
AcDbMText
 10
3299.657124568732
 20
1834.47227639912
 30
0.0
 40
3.2
 41
7.999999999999886
 71
     5
 72
     5
  1
（H）
 73
     1
 44
1.0
1001
ACAD
1000
MTEXTBEGIN
1070
    73
1070
     1
1070
    44
1040
1.0
1070
    74
1070
     0
1000
MTEXTEND
  0
MTEXT
  5
2EE6A
330
1F
100
AcDbEntity
  8
AM_6
100
AcDbMText
 10
3307.657124568731
 20
1834.47227639912
 30
0.0
 40
3.2
 41
7.999999999999886
 71
     5
 72
     5
  1
I
 73
     1
 44
1.0
1001
ACAD
1000
MTEXTBEGIN
1070
    73
1070
     1
1070
    44
1040
1.0
1070
    74
1070
     0
1000
MTEXTEND
  0
MTEXT
  5
2EE6B
330
1F
100
AcDbEntity
  8
AM_6
100
AcDbMText
 10
3315.657124568732
 20
1834.47227639912
 30
0.0
 40
3.2
 41
7.999999999999886
 71
     5
 72
     5
  1
J
 73
     1
 44
1.0
1001
ACAD
1000
MTEXTBEGIN
1070
    73
1070
     1
1070
    44
1040
1.0
1070
    74
1070
     0
1000
MTEXTEND
  0
MTEXT
  5
2EE6C
330
1F
100
AcDbEntity
  8
AM_6
100
AcDbMText
 10
3323.657124568732
 20
1834.47227639912
 30
0.0
 40
3.2
 41
7.999999999999886
 71
     5
 72
     5
  1
（K）
 73
     1
 44
1.0
1001
ACAD
1000
MTEXTBEGIN
1070
    73
1070
     1
1070
    44
1040
1.0
1070
    74
1070
     0
1000
MTEXTEND
  0
MTEXT
  5
2EE6D
330
1F
100
AcDbEntity
  8
AM_6
100
AcDbMText
 10
3331.657124568732
 20
1834.47227639912
 30
0.0
 40
3.2
 41
7.999999999999886
 71
     5
 72
     5
  1
L
 73
     1
 44
1.0
1001
ACAD
1000
MTEXTBEGIN
1070
    73
1070
     1
1070
    44
1040
1.0
1070
    74
1070
     0
1000
MTEXTEND
  0
MTEXT
  5
2EE6E
330
1F
100
AcDbEntity
  8
AM_6
100
AcDbMText
 10
3363.657124568732
 20
1834.472276399122
 30
0.0
 40
3.2
 41
7.999999999999886
 71
     5
 72
     5
  1
（P）
 73
     1
 44
1.0
1001
ACAD
1000
MTEXTBEGIN
1070
    73
1070
     1
1070
    44
1040
1.0
1070
    74
1070
     0
1000
MTEXTEND
  0
MTEXT
  5
2EE71
330
1F
100
AcDbEntity
  8
AM_6
100
AcDbMText
 10
3355.657124568732
 20
1834.472276399122
 30
0.0
 40
3.2
 41
7.999999999999886
 71
     5
 72
     5
  1
O
 73
     1
 44
1.0
1001
ACAD
1000
MTEXTBEGIN
1070
    73
1070
     1
1070
    44
1040
1.0
1070
    74
1070
     0
1000
MTEXTEND
  0
MTEXT
  5
2EE72
330
1F
100
AcDbEntity
  8
AM_6
100
AcDbMText
 10
3339.657124568731
 20
1834.472276399122
 30
0.0
 40
3.2
 41
7.999999999999886
 71
     5
 72
     5
  1
M
 73
     1
 44
1.0
1001
ACAD
1000
MTEXTBEGIN
1070
    73
1070
     1
1070
    44
1040
1.0
1070
    74
1070
     0
1000
MTEXTEND
  0
MTEXT
  5
2EE73
330
1F
100
AcDbEntity
  8
AM_6
100
AcDbMText
 10
3347.657124568732
 20
1834.472276399122
 30
0.0
 40
3.2
 41
7.999999999999886
 71
     5
 72
     5
  1
N
 73
     1
 44
1.0
1001
ACAD
1000
MTEXTBEGIN
1070
    73
1070
     1
1070
    44
1040
1.0
1070
    74
1070
     0
1000
MTEXTEND
  0
LINE
  5
2EE87
330
1F
100
AcDbEntity
  8
AM_2
370
    13
100
AcDbLine
 10
3113.657124568729
 20
1837.972276399122
 30
0.0
 11
3113.657124568729
 21
1773.97227639912
 31
0.0
  0
LINE
  5
2EE88
330
1F
100
AcDbEntity
  8
AM_2
370
    13
100
AcDbLine
 10
3093.657124568729
 20
1829.972276399122
 30
0.0
 11
3176.65712456873
 21
1829.972276399122
 31
0.0
  0
LINE
  5
2EE89
330
1F
100
AcDbEntity
  8
AM_2
370
    13
100
AcDbLine
 10
3093.657124568729
 20
1821.972276399122
 30
0.0
 11
3176.65712456873
 21
1821.972276399122
 31
0.0
  0
LINE
  5
2EE8A
330
1F
100
AcDbEntity
  8
AM_2
370
    13
100
AcDbLine
 10
3093.657124568729
 20
1813.972276399122
 30
0.0
 11
3176.65712456873
 21
1813.972276399122
 31
0.0
  0
LINE
  5
2EE8B
330
1F
100
AcDbEntity
  8
AM_2
370
    13
100
AcDbLine
 10
3093.657124568729
 20
1805.972276399122
 30
0.0
 11
3176.65712456873
 21
1805.972276399122
 31
0.0
  0
LINE
  5
2EE8D
330
1F
100
AcDbEntity
  8
AM_0
100
AcDbLine
 10
3093.657124568729
 20
1837.972276399122
 30
0.0
 11
3093.657124568729
 21
1789.972276399122
 31
0.0
  0
LINE
  5
2EE8E
330
1F
100
AcDbEntity
  8
AM_0
100
AcDbLine
 10
3093.657124568729
 20
1837.972276399122
 30
0.0
 11
3176.65712456873
 21
1837.972276399122
 31
0.0
  0
LINE
  5
2EE8F
330
1F
100
AcDbEntity
  8
AM_1
100
AcDbLine
 10
3176.65712456873
 20
1837.972276399122
 30
0.0
 11
3176.65712456873
 21
1773.97227639912
 31
0.0
  0
LINE
  5
2EE90
330
1F
100
AcDbEntity
  8
AM_2
370
    13
100
AcDbLine
 10
3093.657124568729
 20
1789.972276399122
 30
0.0
 11
3176.65712456873
 21
1789.972276399122
 31
0.0
  0
TEXT
  5
2EE91
330
1F
100
AcDbEntity
  8
AM_6
100
AcDbText
 10
3099.31412456873
 20
1832.372276399121
 30
0.0
 40
3.2
  1
品　名
 41
0.85537027
100
AcDbText
  0
TEXT
  5
2EE92
330
1F
100
AcDbEntity
  8
AM_6
100
AcDbText
 10
3099.31412456873
 20
1824.372276399122
 30
0.0
 40
3.2
  1
品　番
 41
0.85537027
100
AcDbText
  0
TEXT
  5
2EE93
330
1F
100
AcDbEntity
  8
AM_6
100
AcDbText
 10
3099.31412456873
 20
1816.372276399121
 30
0.0
 40
3.2
  1
材　質
 41
0.85537027
100
AcDbText
  0
TEXT
  5
2EE94
330
1F
100
AcDbEntity
  8
AM_6
100
AcDbText
 10
3099.31412456873
 20
1808.372276399122
 30
0.0
 40
3.2
  1
仕上げ
 41
0.85537027
100
AcDbText
  0
TEXT
  5
2EE96
330
1F
100
AcDbEntity
  8
AM_6
100
AcDbText
 10
3116.514124568729
 20
1832.372276399121
 30
0.0
 40
3.2
  1
密閉用ハンドル
 41
0.84306961
100
AcDbText
  0
TEXT
  5
2EE97
330
1F
100
AcDbEntity
  8
AM_6
100
AcDbText
 10
3116.514124568729
 20
1824.372276399122
 30
0.0
 40
3.2
  1
ELT-11
 41
0.84741102
100
AcDbText
  0
TEXT
  5
2EE98
330
1F
100
AcDbEntity
  8
AM_6
100
AcDbText
 10
3116.514124568729
 20
1816.372276399121
 30
0.0
 40
3.2
  1
黄銅
 41
0.84634979
100
AcDbText
  0
TEXT
  5
2EE99
330
1F
100
AcDbEntity
  8
AM_6
100
AcDbText
 10
3116.514124568729
 20
1808.372276399122
 30
0.0
 40
3.2
  1
クロ-ムメッキ
 41
0.84350122
100
AcDbText
  0
LINE
  5
2EE9D
330
1F
100
AcDbEntity
  8
AM_2
370
    13
100
AcDbLine
 10
3093.657124568729
 20
1781.972276399122
 30
0.0
 11
3176.65712456873
 21
1781.972276399122
 31
0.0
  0
MTEXT
  5
2EE9E
330
1F
100
AcDbEntity
  8
AM_6
100
AcDbMText
 10
3103.657124568729
 20
1785.972276399122
 30
0.0
 40
3.2
 41
20.0
 71
     5
 72
     5
  1
セット部品
 73
     1
 44
1.0
1001
ACAD
1000
MTEXTBEGIN
1070
    73
1070
     1
1070
    44
1040
1.0
1070
    74
1070
     0
1000
MTEXTEND
  0
MTEXT
  5
2EE9F
330
1F
100
AcDbEntity
  8
AM_6
100
AcDbMText
 10
3113.657124568729
 20
1785.972276399122
 30
0.0
 40
3.2
 41
78.0
 71
     4
 72
     5
  1
　受座
 73
     1
 44
1.0
1001
ACAD
1000
MTEXTBEGIN
1070
    73
1070
     1
1070
    44
1040
1.0
1070
    74
1070
     0
1000
MTEXTEND
  0
ARC
  5
2EEA0
330
1F
100
AcDbEntity
  8
0部品3
100
AcDbCircle
 10
3230.657937362676
 20
1731.340621236355
 30
0.0
 40
25.0
100
AcDbArc
 50
38.46257630932525
 51
158.2132107017438
1001
GENIUS_GENODEF_13
1002
{
1000
HIER
1070
     0
1002
}
1002
{
1000
MANEDIT
1070
     0
1002
}
1002
{
1000
NOSEL
1070
     0
1002
}
1002
{
1000
BEHIND
1070
     0
1002
}
1002
{
1000
OTHER
1070
     0
1002
}
1002
{
1000
REACTOR
1002
}
1001
GENIUS_GENOBJ-N-FIL_13
1002
{
1000
OWNER
1000
GEN
1002
}
  0
ARC
  5
2EEA1
330
1F
100
AcDbEntity
  8
0部品3
100
AcDbCircle
 10
3211.157937362676
 20
1739.134849870415
 30
0.0
 40
4.0
100
AcDbArc
 50
158.2132107017438
 51
176.7282965231636
1001
GENIUS_GENODEF_13
1002
{
1000
HIER
1070
     0
1002
}
1002
{
1000
MANEDIT
1070
     0
1002
}
1002
{
1000
NOSEL
1070
     0
1002
}
1002
{
1000
BEHIND
1070
     0
1002
}
1002
{
1000
OTHER
1070
     0
1002
}
1002
{
1000
REACTOR
1002
}
1001
GENIUS_GENOBJ-N-FIL_13
1002
{
1000
OWNER
1000
GEN
1002
}
  0
ARC
  5
2EEA2
330
1F
100
AcDbEntity
  8
0部品3
  6
陰線1
 48
0.5
370
    13
100
AcDbCircle
 10
3211.157937362676
 20
1739.134849870415
 30
0.0
 40
4.0
100
AcDbArc
 50
176.7282965231636
 51
180.0
1001
GENIUS_GENODEF_13
1002
{
1000
HIER
1070
     0
1002
}
1002
{
1000
MANEDIT
1070
     0
1002
}
1002
{
1000
NOSEL
1070
     0
1002
}
1002
{
1000
BEHIND
1070
     0
1002
}
1002
{
1000
OTHER
1070
     0
1002
}
1002
{
1000
REACTOR
1002
}
1001
GENIUS_GENOBJ-N-FIL_13
1002
{
1000
OWNER
1000
GEN
1002
}
  0
ARC
  5
2EEA3
330
1F
100
AcDbEntity
  8
0部品3
100
AcDbCircle
 10
3258.063448210925
 20
1753.110737798893
 30
0.0
 40
10.0
100
AcDbArc
 50
218.4625763093253
 51
271.9893965061024
1001
GENIUS_GENOBJ-N-FIL_13
1002
{
1000
OWNER
1000
GEN
1002
}
1001
GENIUS_GENODEF_13
1002
{
1000
HIER
1070
     0
1002
}
1002
{
1000
MANEDIT
1070
     0
1002
}
1002
{
1000
NOSEL
1070
     0
1002
}
1002
{
1000
BEHIND
1070
     0
1002
}
1002
{
1000
OTHER
1070
     0
1002
}
1002
{
1000
REACTOR
1002
}
  0
ARC
  5
2EEA4
330
1F
100
AcDbEntity
  8
0部品3
100
AcDbCircle
 10
3227.552080362676
 20
1741.732687236355
 30
0.0
 40
3.0
100
AcDbArc
 50
277.6904750000106
 51
79.6680340000195
  0
ARC
  5
2EEA5
330
1F
100
AcDbEntity
  8
0部品3
100
AcDbCircle
 10
3235.486454362676
 20
1722.097891236355
 30
0.0
 40
1.0
100
AcDbArc
 50
44.99999999999078
 51
129.2608299999682
  0
LINE
  5
2EEA6
330
1F
100
AcDbEntity
  8
0部品3
100
AcDbLine
 10
3236.194246619479
 20
1722.804311876774
 30
0.0
 11
3236.575467712683
 21
1722.42309085014
 31
0.0
  0
ARC
  5
2EEA7
330
1F
100
AcDbEntity
  8
0部品3
100
AcDbCircle
 10
3293.696285362676
 20
1741.340621236355
 30
0.0
 40
3.0
100
AcDbArc
 50
20.92483199997366
 51
91.98939650610238
  0
ARC
  5
2EEA8
330
1F
100
AcDbEntity
  8
0部品3
100
AcDbCircle
 10
3229.157937362676
 20
1729.840621236355
 30
0.0
 40
9.0
100
AcDbArc
 50
97.69047500001063
 51
309.2649843855618
  0
ARC
  5
2EEA9
330
1F
100
AcDbEntity
  8
0部品3
100
AcDbCircle
 10
3229.157937362676
 20
1729.840621236355
 30
0.0
 40
8.0
100
AcDbArc
 50
97.70204684937908
 51
308.7006116635028
  0
ARC
  5
2EEAA
330
1F
100
AcDbEntity
  8
0部品3
100
AcDbCircle
 10
3227.549678312977
 20
1741.732362186656
 30
0.0
 40
4.0
100
AcDbArc
 50
277.7020468493791
 51
81.10420471351806
1001
GENIUS_GENODEF_13
1002
{
1000
HIER
1070
     0
1002
}
1002
{
1000
MANEDIT
1070
     0
1002
}
1002
{
1000
NOSEL
1070
     0
1002
}
1002
{
1000
BEHIND
1070
     0
1002
}
1002
{
1000
OTHER
1070
     0
1002
}
1002
{
1000
REACTOR
1002
}
1001
GENIUS_GENOBJ-N-FIL_13
1002
{
1000
OWNER
1000
GEN
1002
}
  0
ARC
  5
2EEAB
330
1F
100
AcDbEntity
  8
0部品3
100
AcDbCircle
 10
3287.157937362676
 20
1738.840621236355
 30
0.0
 40
10.0
100
AcDbArc
 50
339.075167572356
 51
20.92483242764407
  0
ARC
  5
2EEAC
330
1F
100
AcDbEntity
  8
0部品3
100
AcDbCircle
 10
3226.157937362676
 20
1732.840621236355
 30
0.0
 40
12.0
100
AcDbArc
 50
80.73410700001181
 51
150.2427904305038
1001
GENIUS_GENODEF_13
1002
{
1000
HIER
1070
     0
1002
}
1002
{
1000
MANEDIT
1070
     0
1002
}
1002
{
1000
NOSEL
1070
     0
1002
}
1002
{
1000
BEHIND
1070
     0
1002
}
1002
{
1000
OTHER
1070
     0
1002
}
1002
{
1000
REACTOR
1002
}
1001
GENIUS_GENOBJ-N-FIL_13
1002
{
1000
OWNER
1000
GEN
1002
}
  0
ARC
  5
2EEAD
330
1F
100
AcDbEntity
  8
0部品3
  6
細線
 48
0.3
370
    13
100
AcDbCircle
 10
3226.157937362676
 20
1732.840621236355
 30
0.0
 40
13.0
100
AcDbArc
 50
80.69507739772687
 51
89.9999935086314
1001
GENIUS_GENODEF_13
1002
{
1000
HIER
1070
     0
1002
}
1002
{
1000
MANEDIT
1070
     0
1002
}
1002
{
1000
NOSEL
1070
     0
1002
}
1002
{
1000
BEHIND
1070
     0
1002
}
1002
{
1000
OTHER
1070
     0
1002
}
1002
{
1000
REACTOR
1002
}
1001
GENIUS_GENOBJ-N-FIL_13
1002
{
1000
OWNER
1000
GEN
1002
}
  0
ARC
  5
2EEAE
330
1F
100
AcDbEntity
  8
0部品3
  6
陰線1
 48
0.5
370
    13
100
AcDbCircle
 10
3211.157937362676
 20
1738.840621236355
 30
0.0
 40
4.0
100
AcDbArc
 50
180.0
 51
274.1933140074193
  0
ARC
  5
2EEAF
330
1F
100
AcDbEntity
  8
0部品3
100
AcDbCircle
 10
3211.157937362676
 20
1738.840621236355
 30
0.0
 40
4.0
100
AcDbArc
 50
274.1933140074193
 51
330.2427904305039
  0
ARC
  5
2EEB0
330
1F
100
AcDbEntity
  8
0部品3
  6
陰線1
 48
0.5
370
    13
100
AcDbCircle
 10
3211.157937362676
 20
1738.840621236355
 30
0.0
 40
3.53846154
100
AcDbArc
 50
180.0
 51
270.7803991208351
  0
ARC
  5
2EEB1
330
1F
100
AcDbEntity
  8
0部品3
100
AcDbCircle
 10
3211.157937362676
 20
1738.840621236355
 30
0.0
 40
3.53846154
100
AcDbArc
 50
270.7803991208351
 51
314.289891542961
  0
LINE
  5
2EEB2
330
1F
100
AcDbEntity
  8
0部品3
100
AcDbLine
 10
3215.740300942677
 20
1738.796530186357
 30
0.0
 11
3214.630482836009
 21
1736.855318253021
 31
0.0
  0
ARC
  5
2EEB3
330
1F
100
AcDbEntity
  8
0部品3
100
AcDbCircle
 10
3234.775336239797
 20
1722.809009359234
 30
0.0
 40
1.0
100
AcDbArc
 50
44.99999999999078
 51
129.2608299999682
  0
LINE
  5
2EEB4
330
1F
100
AcDbEntity
  8
0部品3
100
AcDbLine
 10
3236.08487916028
 20
1722.913679438751
 30
0.0
 11
3235.486454362676
 21
1723.512104798729
 31
0.0
  0
ARC
  5
2EEB5
330
1F
100
AcDbEntity
  8
0部品3
100
AcDbCircle
 10
3293.696285777986
 20
1736.340621236355
 30
0.0
 40
3.0
100
AcDbArc
 50
267.9424690216361
 51
339.075167572356
  0
ARC
  5
2EEB6
330
1F
100
AcDbEntity
  8
0部品3
100
AcDbCircle
 10
3254.157937362676
 20
1704.240621236356
 30
0.0
 40
25.0
100
AcDbArc
 50
113.8800572214541
 51
133.3595674742726
  0
ARC
  5
2EEB7
330
1F
100
AcDbEntity
  8
0部品3
100
AcDbCircle
 10
3236.787599728518
 20
1722.635222903019
 30
0.0
 40
0.3
100
AcDbArc
 50
225.000005002653
 51
313.3595674742727
1001
GENIUS_GENOBJ-N-FIL_13
1002
{
1000
OWNER
1000
GEN
1002
}
1001
GENIUS_GENODEF_13
1002
{
1000
HIER
1070
     0
1002
}
1002
{
1000
MANEDIT
1070
     0
1002
}
1002
{
1000
NOSEL
1070
     0
1002
}
1002
{
1000
BEHIND
1070
     0
1002
}
1002
{
1000
OTHER
1070
     0
1002
}
1002
{
1000
REACTOR
1002
}
  0
ARC
  5
2EEB8
330
1F
100
AcDbEntity
  8
0部品3
  6
細線
 48
0.3
370
    13
100
AcDbCircle
 10
3258.955949524713
 20
1738.840621236355
 30
0.0
 40
10.0
100
AcDbArc
 50
140.8764111080251
 51
219.2126691564543
  0
LINE
  5
2EEB9
330
1F
100
AcDbEntity
  8
0部品3
100
AcDbLine
 10
3257.657716424858
 20
1734.590628910723
 30
0.0
 11
3293.588576861203
 21
1733.342555394976
 31
0.0
  0
ARC
  5
2EEBA
330
1F
100
AcDbEntity
  8
0部品3
100
AcDbCircle
 10
3239.657937362676
 20
1739.340621236355
 30
0.0
 40
13.0
100
AcDbArc
 50
289.6867903335788
 51
320.1304403727641
  0
ARC
  5
2EEBB
330
1F
100
AcDbEntity
  8
0部品3
100
AcDbCircle
 10
3257.310571588889
 20
1724.596656203993
 30
0.0
 40
10.0
100
AcDbArc
 50
88.01060689733857
 51
140.1304403727641
1001
GENIUS_GENODEF_13
1002
{
1000
HIER
1070
     0
1002
}
1002
{
1000
MANEDIT
1070
     0
1002
}
1002
{
1000
NOSEL
1070
     0
1002
}
1002
{
1000
BEHIND
1070
     0
1002
}
1002
{
1000
OTHER
1070
     0
1002
}
1002
{
1000
REACTOR
1002
}
1001
GENIUS_GENOBJ-N-FIL_13
1002
{
1000
OWNER
1000
GEN
1002
}
  0
LINE
  5
2EEBC
330
1F
100
AcDbEntity
  8
0部品3
100
AcDbLine
 10
3258.410593640546
 20
1743.116765112784
 30
0.0
 11
3293.592141733789
 21
1744.338813042188
 31
0.0
  0
ARC
  5
2EEBD
330
1F
100
AcDbEntity
  8
0部品3
100
AcDbCircle
 10
3231.157937362676
 20
1730.840621236355
 30
0.0
 40
25.0
100
AcDbArc
 50
45.81031169643076
 51
160.3115470054512
1001
GENIUS_GENOBJ-N-FIL_13
1002
{
1000
OWNER
1000
GEN
1002
}
1001
GENIUS_GENODEF_13
1002
{
1000
HIER
1070
     0
1002
}
1002
{
1000
MANEDIT
1070
     0
1002
}
1002
{
1000
NOSEL
1070
     0
1002
}
1002
{
1000
BEHIND
1070
     0
1002
}
1002
{
1000
OTHER
1070
     0
1002
}
1002
{
1000
REACTOR
1002
}
  0
LINE
  5
2EEBE
330
1F
100
AcDbEntity
  8
0部品3
  6
陰線1
 48
0.5
370
    13
100
AcDbLine
 10
3207.157937362676
 20
1738.840621236355
 30
0.0
 11
3207.157937362676
 21
1739.134849870415
 31
0.0
  0
LINE
  5
2EEBF
330
1F
100
AcDbEntity
  8
0部品3
  6
陰線1
 48
0.5
370
    13
100
AcDbLine
 10
3207.619475822677
 20
1738.840621236355
 30
0.0
 11
3207.619475822677
 21
1739.085082328224
 31
0.0
  0
LINE
  5
2EEC0
330
1F
100
AcDbEntity
  8
0部品3
100
AcDbLine
 10
3207.619475822677
 20
1739.085082328224
 30
0.0
 11
3207.619475822677
 21
1739.26325908503
 31
0.0
  0
ARC
  5
2EEC1
330
1F
100
AcDbEntity
  8
0部品3
100
AcDbCircle
 10
3226.157937362676
 20
1732.840621236355
 30
0.0
 40
13.0
100
AcDbArc
 50
81.10420471351806
 51
164.5319497825584
  0
ARC
  5
2EEC2
330
1F
100
AcDbEntity
  8
0部品1
100
AcDbCircle
 10
3229.157937362676
 20
1729.840621236355
 30
0.0
 40
27.5
100
AcDbArc
 50
237.5178360088026
 51
302.482163991197
  0
ARC
  5
2EEC3
330
1F
100
AcDbEntity
  8
0部品1
100
AcDbCircle
 10
3214.657937363035
 20
1707.064537288266
 30
0.0
 40
0.5
100
AcDbArc
 50
179.9999999245965
 51
237.5178360088026
1001
GENIUS_GENODEF_13
1002
{
1000
HIER
1070
     0
1002
}
1002
{
1000
MANEDIT
1070
     0
1002
}
1002
{
1000
NOSEL
1070
     0
1002
}
1002
{
1000
BEHIND
1070
     0
1002
}
1002
{
1000
OTHER
1070
     0
1002
}
1002
{
1000
REACTOR
1002
}
1001
GENIUS_GENOBJ-N-FIL_13
1002
{
1000
OWNER
1000
GEN
1002
}
  0
ARC
  5
2EEC4
330
1F
100
AcDbEntity
  8
0部品1
100
AcDbCircle
 10
3243.657937362317
 20
1707.064537288266
 30
0.0
 40
0.5
100
AcDbArc
 50
302.482163991197
 51
0.0000000754034708
1001
GENIUS_GENOBJ-N-FIL_13
1002
{
1000
OWNER
1000
GEN
1002
}
1001
GENIUS_GENODEF_13
1002
{
1000
HIER
1070
     0
1002
}
1002
{
1000
MANEDIT
1070
     0
1002
}
1002
{
1000
NOSEL
1070
     0
1002
}
1002
{
1000
BEHIND
1070
     0
1002
}
1002
{
1000
OTHER
1070
     0
1002
}
1002
{
1000
REACTOR
1002
}
  0
CIRCLE
  5
2EEC5
330
1F
100
AcDbEntity
  8
0部品1
  6
陰線1
 48
0.5
370
    13
100
AcDbCircle
 10
3220.657937362676
 20
1748.340621236355
 30
0.0
 40
2.25
  0
CIRCLE
  5
2EEC6
330
1F
100
AcDbEntity
  8
0部品1
100
AcDbCircle
 10
3237.657937362676
 20
1711.340621236355
 30
0.0
 40
4.099999999999999
  0
CIRCLE
  5
2EEC7
330
1F
100
AcDbEntity
  8
0部品1
100
AcDbCircle
 10
3237.657937362676
 20
1711.340621236355
 30
0.0
 40
2.25
  0
CIRCLE
  5
2EEC8
330
1F
100
AcDbEntity
  8
0部品1
100
AcDbCircle
 10
3220.657937362676
 20
1711.340621236355
 30
0.0
 40
2.25
  0
CIRCLE
  5
2EEC9
330
1F
100
AcDbEntity
  8
0部品1
  6
陰線1
 48
0.5
370
    13
100
AcDbCircle
 10
3220.657937362676
 20
1748.340621236355
 30
0.0
 40
4.099999999999999
  0
CIRCLE
  5
2EECA
330
1F
100
AcDbEntity
  8
0部品1
  6
陰線1
 48
0.5
370
    13
100
AcDbCircle
 10
3237.657937362676
 20
1748.340621236355
 30
0.0
 40
4.099999999999999
  0
CIRCLE
  5
2EECB
330
1F
100
AcDbEntity
  8
0部品1
  6
陰線1
 48
0.5
370
    13
100
AcDbCircle
 10
3237.657937362676
 20
1748.340621236355
 30
0.0
 40
2.25
  0
CIRCLE
  5
2EECC
330
1F
100
AcDbEntity
  8
0部品1
100
AcDbCircle
 10
3220.657937362676
 20
1711.340621236355
 30
0.0
 40
4.099999999999999
  0
ARC
  5
2EECD
330
1F
100
AcDbEntity
  8
0部品1
100
AcDbCircle
 10
3229.157937362676
 20
1729.840621236355
 30
0.0
 40
27.5
100
AcDbArc
 50
57.5178361596318
 51
122.4821638403682
  0
ARC
  5
2EECE
330
1F
100
AcDbEntity
  8
0部品1
100
AcDbCircle
 10
3243.657937302359
 20
1752.616705222615
 30
0.0
 40
0.5
100
AcDbArc
 50
0.0000000754034708
 51
57.51783615962455
1001
GENIUS_GENODEF_13
1002
{
1000
HIER
1070
     0
1002
}
1002
{
1000
MANEDIT
1070
     0
1002
}
1002
{
1000
NOSEL
1070
     0
1002
}
1002
{
1000
BEHIND
1070
     0
1002
}
1002
{
1000
OTHER
1070
     0
1002
}
1002
{
1000
REACTOR
1002
}
1001
GENIUS_GENOBJ-N-FIL_13
1002
{
1000
OWNER
1000
GEN
1002
}
  0
ARC
  5
2EECF
330
1F
100
AcDbEntity
  8
0部品1
100
AcDbCircle
 10
3214.657937422991
 20
1752.616705222616
 30
0.0
 40
0.5
100
AcDbArc
 50
122.4821638403442
 51
179.9999999245965
1001
GENIUS_GENODEF_13
1002
{
1000
HIER
1070
     0
1002
}
1002
{
1000
MANEDIT
1070
     0
1002
}
1002
{
1000
NOSEL
1070
     0
1002
}
1002
{
1000
BEHIND
1070
     0
1002
}
1002
{
1000
OTHER
1070
     0
1002
}
1002
{
1000
REACTOR
1002
}
1001
GENIUS_GENOBJ-N-FIL_13
1002
{
1000
OWNER
1000
GEN
1002
}
  0
LINE
  5
2EED0
330
1F
100
AcDbEntity
  8
0部品1
100
AcDbLine
 10
3214.157937363034
 20
1707.064537288924
 30
0.0
 11
3214.157937401378
 21
1736.194869969175
 31
0.0
  0
LINE
  5
2EED1
330
1F
100
AcDbEntity
  8
0部品1
100
AcDbLine
 10
3214.157937419709
 20
1750.122261257453
 30
0.0
 11
3214.157937422992
 21
1752.616705223273
 31
0.0
  0
LINE
  5
2EED2
330
1F
100
AcDbEntity
  8
0部品1
100
AcDbLine
 10
3244.157937362316
 20
1707.064537288924
 30
0.0
 11
3244.157937335887
 21
1727.14431030882
 31
0.0
  0
LINE
  5
2EED3
330
1F
100
AcDbEntity
  8
0部品1
100
AcDbLine
 10
3244.157937302668
 20
1752.382246687357
 30
0.0
 11
3244.157937302359
 21
1752.616705223273
 31
0.0
  0
LINE
  5
2EED4
330
1F
100
AcDbEntity
  8
0部品1
  6
中心線1
 48
0.5
370
    13
100
AcDbLine
 10
3229.157937362676
 20
1760.340621236355
 30
0.0
 11
3229.157937362676
 21
1699.340621236355
 31
0.0
1001
GENIUS_GENOBJ-N-CEN_13
1002
{
1000
OWNER
1000
GEN
1002
}
1001
GENIUS_GENODEF_13
1002
{
1000
HIER
1070
     0
1002
}
1002
{
1000
MANEDIT
1070
     0
1002
}
1002
{
1000
NOSEL
1070
     0
1002
}
1002
{
1000
BEHIND
1070
     0
1002
}
1002
{
1000
OTHER
1070
     0
1002
}
1002
{
1000
REACTOR
1002
}
1001
GENIUS_GENCEN_19
1002
{
1040
3.0
1002
}
  0
LINE
  5
2EED5
330
1F
100
AcDbEntity
  8
0部品1
  6
中心線1
 48
0.5
370
    13
100
AcDbLine
 10
3247.157937332338
 20
1729.840621327715
 30
0.0
 11
3179.657937362676
 21
1729.840621327715
 31
0.0
1001
GENIUS_GENOBJ-N-CEN_13
1002
{
1000
OWNER
1000
GEN
1002
}
1001
GENIUS_GENODEF_13
1002
{
1000
HIER
1070
     0
1002
}
1002
{
1000
MANEDIT
1070
     0
1002
}
1002
{
1000
NOSEL
1070
     0
1002
}
1002
{
1000
BEHIND
1070
     0
1002
}
1002
{
1000
OTHER
1070
     0
1002
}
1002
{
1000
REACTOR
1002
}
1001
GENIUS_GENCEN_19
1002
{
1040
3.0
1002
}
  0
LINE
  5
2EED6
330
1F
100
AcDbEntity
  8
0部品1
  6
中心線1
 48
0.5
370
    13
100
AcDbLine
 10
3214.407937362676
 20
1711.340621236355
 30
0.0
 11
3226.907937362676
 21
1711.340621236355
 31
0.0
1001
GENIUS_GENOBJ-N-CEN_13
1002
{
1000
OWNER
1000
GEN
1002
}
1001
GENIUS_GENODEF_13
1002
{
1000
HIER
1070
     0
1002
}
1002
{
1000
MANEDIT
1070
     0
1002
}
1002
{
1000
NOSEL
1070
     0
1002
}
1002
{
1000
BEHIND
1070
     0
1002
}
1002
{
1000
OTHER
1070
     0
1002
}
1002
{
1000
REACTOR
1002
}
1001
GENIUS_GENCEN_19
1002
{
1040
3.0
1002
}
  0
LINE
  5
2EED7
330
1F
100
AcDbEntity
  8
0部品1
  6
中心線1
 48
0.5
370
    13
100
AcDbLine
 10
3220.657937362676
 20
1717.590621236355
 30
0.0
 11
3220.657937362676
 21
1705.090621236355
 31
0.0
1001
GENIUS_GENODEF_13
1002
{
1000
HIER
1070
     0
1002
}
1002
{
1000
MANEDIT
1070
     0
1002
}
1002
{
1000
NOSEL
1070
     0
1002
}
1002
{
1000
BEHIND
1070
     0
1002
}
1002
{
1000
OTHER
1070
     0
1002
}
1002
{
1000
REACTOR
1002
}
1001
GENIUS_GENOBJ-N-CEN_13
1002
{
1000
OWNER
1000
GEN
1002
}
1001
GENIUS_GENCEN_19
1002
{
1040
3.0
1002
}
  0
LINE
  5
2EED8
330
1F
100
AcDbEntity
  8
0部品1
  6
中心線1
 48
0.5
370
    13
100
AcDbLine
 10
3231.407937362676
 20
1711.340621236355
 30
0.0
 11
3243.907937362676
 21
1711.340621236355
 31
0.0
1001
GENIUS_GENOBJ-N-CEN_13
1002
{
1000
OWNER
1000
GEN
1002
}
1001
GENIUS_GENODEF_13
1002
{
1000
HIER
1070
     0
1002
}
1002
{
1000
MANEDIT
1070
     0
1002
}
1002
{
1000
NOSEL
1070
     0
1002
}
1002
{
1000
BEHIND
1070
     0
1002
}
1002
{
1000
OTHER
1070
     0
1002
}
1002
{
1000
REACTOR
1002
}
1001
GENIUS_GENCEN_19
1002
{
1040
3.0
1002
}
  0
LINE
  5
2EED9
330
1F
100
AcDbEntity
  8
0部品1
  6
中心線1
 48
0.5
370
    13
100
AcDbLine
 10
3214.407937362676
 20
1748.340621236355
 30
0.0
 11
3226.907937362676
 21
1748.340621236355
 31
0.0
1001
GENIUS_GENOBJ-N-CEN_13
1002
{
1000
OWNER
1000
GEN
1002
}
1001
GENIUS_GENODEF_13
1002
{
1000
HIER
1070
     0
1002
}
1002
{
1000
MANEDIT
1070
     0
1002
}
1002
{
1000
NOSEL
1070
     0
1002
}
1002
{
1000
BEHIND
1070
     0
1002
}
1002
{
1000
OTHER
1070
     0
1002
}
1002
{
1000
REACTOR
1002
}
1001
GENIUS_GENCEN_19
1002
{
1040
3.0
1002
}
  0
LINE
  5
2EEDA
330
1F
100
AcDbEntity
  8
0部品1
  6
中心線1
 48
0.5
370
    13
100
AcDbLine
 10
3220.657937362676
 20
1754.590621236355
 30
0.0
 11
3220.657937362676
 21
1742.090621236355
 31
0.0
1001
GENIUS_GENODEF_13
1002
{
1000
HIER
1070
     0
1002
}
1002
{
1000
MANEDIT
1070
     0
1002
}
1002
{
1000
NOSEL
1070
     0
1002
}
1002
{
1000
BEHIND
1070
     0
1002
}
1002
{
1000
OTHER
1070
     0
1002
}
1002
{
1000
REACTOR
1002
}
1001
GENIUS_GENOBJ-N-CEN_13
1002
{
1000
OWNER
1000
GEN
1002
}
1001
GENIUS_GENCEN_19
1002
{
1040
3.0
1002
}
  0
LINE
  5
2EEDB
330
1F
100
AcDbEntity
  8
0部品1
  6
中心線1
 48
0.5
370
    13
100
AcDbLine
 10
3231.407937362676
 20
1748.340621236355
 30
0.0
 11
3243.907937362676
 21
1748.340621236355
 31
0.0
1001
GENIUS_GENOBJ-N-CEN_13
1002
{
1000
OWNER
1000
GEN
1002
}
1001
GENIUS_GENODEF_13
1002
{
1000
HIER
1070
     0
1002
}
1002
{
1000
MANEDIT
1070
     0
1002
}
1002
{
1000
NOSEL
1070
     0
1002
}
1002
{
1000
BEHIND
1070
     0
1002
}
1002
{
1000
OTHER
1070
     0
1002
}
1002
{
1000
REACTOR
1002
}
1001
GENIUS_GENCEN_19
1002
{
1040
3.0
1002
}
  0
LINE
  5
2EEDC
330
1F
100
AcDbEntity
  8
0部品1
  6
中心線1
 48
0.5
370
    13
100
AcDbLine
 10
3237.657937362676
 20
1717.590621236355
 30
0.0
 11
3237.657937362676
 21
1705.090621236355
 31
0.0
1001
GENIUS_GENODEF_13
1002
{
1000
HIER
1070
     0
1002
}
1002
{
1000
MANEDIT
1070
     0
1002
}
1002
{
1000
NOSEL
1070
     0
1002
}
1002
{
1000
BEHIND
1070
     0
1002
}
1002
{
1000
OTHER
1070
     0
1002
}
1002
{
1000
REACTOR
1002
}
1001
GENIUS_GENOBJ-N-CEN_13
1002
{
1000
OWNER
1000
GEN
1002
}
1001
GENIUS_GENCEN_19
1002
{
1040
3.0
1002
}
  0
LINE
  5
2EEDD
330
1F
100
AcDbEntity
  8
0部品1
  6
中心線1
 48
0.5
370
    13
100
AcDbLine
 10
3237.657937362676
 20
1754.590621236355
 30
0.0
 11
3237.657937362676
 21
1742.090621236355
 31
0.0
1001
GENIUS_GENODEF_13
1002
{
1000
HIER
1070
     0
1002
}
1002
{
1000
MANEDIT
1070
     0
1002
}
1002
{
1000
NOSEL
1070
     0
1002
}
1002
{
1000
BEHIND
1070
     0
1002
}
1002
{
1000
OTHER
1070
     0
1002
}
1002
{
1000
REACTOR
1002
}
1001
GENIUS_GENOBJ-N-CEN_13
1002
{
1000
OWNER
1000
GEN
1002
}
1001
GENIUS_GENCEN_19
1002
{
1040
3.0
1002
}
  0
CIRCLE
  5
2EEDE
330
1F
100
AcDbEntity
  8
0部品2
100
AcDbCircle
 10
3229.157937362676
 20
1729.840621327715
 30
0.0
 40
5.0
  0
CIRCLE
  5
2EEDF
330
1F
100
AcDbEntity
  8
0部品2
  6
細線
 48
0.3
370
    13
100
AcDbCircle
 10
3229.157937362676
 20
1729.840621327715
 30
0.0
 40
4.5
  0
LINE
  5
2EEE0
330
1F
100
AcDbEntity
  8
0部品4
100
AcDbLine
 10
3198.657937362676
 20
1707.340621327715
 30
0.0
 11
3186.657937362676
 21
1707.340621327715
 31
0.0
  0
LINE
  5
2EEE1
330
1F
100
AcDbEntity
  8
0部品4
100
AcDbLine
 10
3202.657937362676
 20
1748.340621327715
 30
0.0
 11
3202.657937362676
 21
1740.840621327715
 31
0.0
  0
LINE
  5
2EEE2
330
1F
100
AcDbEntity
  8
0部品4
100
AcDbLine
 10
3186.657937362676
 20
1752.340621327715
 30
0.0
 11
3198.657937362676
 21
1752.340621327715
 31
0.0
  0
LINE
  5
2EEE3
330
1F
100
AcDbEntity
  8
0部品4
100
AcDbLine
 10
3182.657937362676
 20
1711.340621327715
 30
0.0
 11
3182.657937362676
 21
1748.340621327715
 31
0.0
  0
LINE
  5
2EEE4
330
1F
100
AcDbEntity
  8
0部品4
  6
中心線1
 48
0.5
370
    13
100
AcDbLine
 10
3186.657937362676
 20
1745.840621327715
 30
0.0
 11
3198.657937362676
 21
1745.840621327715
 31
0.0
  0
ARC
  5
2EEE5
330
1F
100
AcDbEntity
  8
0部品4
100
AcDbCircle
 10
3201.657937362676
 20
1729.840621327715
 30
0.0
 40
11.0
100
AcDbArc
 50
280.3888578154515
 51
79.61114218452221
  0
ARC
  5
2EEE6
330
1F
100
AcDbEntity
  8
0部品4
100
AcDbCircle
 10
3186.657937362676
 20
1711.340621327715
 30
0.0
 40
4.0
100
AcDbArc
 50
180.0
 51
270.0
  0
LINE
  5
2EEE7
330
1F
100
AcDbEntity
  8
0部品4
  6
中心線1
 48
0.5
370
    13
100
AcDbLine
 10
3186.657937362676
 20
1713.840621327715
 30
0.0
 11
3198.657937362676
 21
1713.840621327715
 31
0.0
  0
ARC
  5
2EEE8
330
1F
100
AcDbEntity
  8
0部品4
100
AcDbCircle
 10
3198.657937362676
 20
1711.340621327715
 30
0.0
 40
4.0
100
AcDbArc
 50
270.0
 51
0.0
  0
CIRCLE
  5
2EEE9
330
1F
100
AcDbEntity
  8
0部品4
100
AcDbCircle
 10
3192.657937362676
 20
1745.840621327715
 30
0.0
 40
4.25
  0
ARC
  5
2EEEA
330
1F
100
AcDbEntity
  8
0部品4
100
AcDbCircle
 10
3198.657937362676
 20
1748.340621327715
 30
0.0
 40
4.0
100
AcDbArc
 50
0.0
 51
90.0
  0
ARC
  5
2EEEB
330
1F
100
AcDbEntity
  8
0部品4
100
AcDbCircle
 10
3186.657937362676
 20
1748.340621327715
 30
0.0
 40
4.0
100
AcDbArc
 50
90.0
 51
180.0
  0
CIRCLE
  5
2EEEC
330
1F
100
AcDbEntity
  8
0部品4
100
AcDbCircle
 10
3192.657937362676
 20
1745.840621327715
 30
0.0
 40
2.25
  0
CIRCLE
  5
2EEED
330
1F
100
AcDbEntity
  8
0部品4
100
AcDbCircle
 10
3192.657937362676
 20
1713.840621327715
 30
0.0
 40
2.25
  0
CIRCLE
  5
2EEEE
330
1F
100
AcDbEntity
  8
0部品4
100
AcDbCircle
 10
3192.657937362676
 20
1713.840621327715
 30
0.0
 40
4.25
  0
LINE
  5
2EEEF
330
1F
100
AcDbEntity
  8
0部品4
100
AcDbLine
 10
3190.949610007428
 20
1722.206938032203
 30
0.0
 11
3202.657937362676
 21
1716.840621327715
 31
0.0
  0
LINE
  5
2EEF0
330
1F
100
AcDbEntity
  8
0部品4
100
AcDbLine
 10
3190.949610007428
 20
1737.474304623227
 30
0.0
 11
3202.657937362676
 21
1742.840621327715
 31
0.0
  0
ARC
  5
2EEF1
330
1F
100
AcDbEntity
  8
0部品4
100
AcDbCircle
 10
3191.157937362675
 20
1737.01977221178
 30
0.0
 40
0.5
100
AcDbArc
 50
114.6235647861676
 51
180.0
1001
GENIUS_GENOBJ-N-FIL_13
1002
{
1000
OWNER
1000
GEN
1002
}
1001
GENIUS_GENODEF_13
1002
{
1000
HIER
1070
     0
1002
}
1002
{
1000
MANEDIT
1070
     0
1002
}
1002
{
1000
NOSEL
1070
     0
1002
}
1002
{
1000
BEHIND
1070
     0
1002
}
1002
{
1000
OTHER
1070
     0
1002
}
1002
{
1000
REACTOR
1002
}
  0
LINE
  5
2EEF2
330
1F
100
AcDbEntity
  8
0部品4
100
AcDbLine
 10
3190.657937362674
 20
1722.66147044365
 30
0.0
 11
3190.657937362674
 21
1737.01977221178
 31
0.0
  0
ARC
  5
2EEF3
330
1F
100
AcDbEntity
  8
0部品4
100
AcDbCircle
 10
3191.157937362675
 20
1722.66147044365
 30
0.0
 40
0.5
100
AcDbArc
 50
180.0
 51
245.3764352138323
1001
GENIUS_GENODEF_13
1002
{
1000
HIER
1070
     0
1002
}
1002
{
1000
MANEDIT
1070
     0
1002
}
1002
{
1000
NOSEL
1070
     0
1002
}
1002
{
1000
BEHIND
1070
     0
1002
}
1002
{
1000
OTHER
1070
     0
1002
}
1002
{
1000
REACTOR
1002
}
1001
GENIUS_GENOBJ-N-FIL_13
1002
{
1000
OWNER
1000
GEN
1002
}
  0
LINE
  5
2EEF4
330
1F
100
AcDbEntity
  8
0部品4
100
AcDbLine
 10
3202.657937362676
 20
1718.840621327715
 30
0.0
 11
3202.657937362676
 21
1711.340621327715
 31
0.0
  0
LINE
  5
2EEF5
330
1F
100
AcDbEntity
  8
0部品4
100
AcDbLine
 10
3192.957389079608
 20
1735.969716377941
 30
0.0
 11
3202.657937362676
 21
1740.840621327715
 31
0.0
  0
ARC
  5
2EEF6
330
1F
100
AcDbEntity
  8
0部品4
100
AcDbCircle
 10
3193.152154474497
 20
1735.509209655999
 30
0.0
 40
0.5
100
AcDbArc
 50
112.9253069248274
 51
180.0
1001
GENIUS_GENOBJ-N-FIL_13
1002
{
1000
OWNER
1000
GEN
1002
}
1001
GENIUS_GENODEF_13
1002
{
1000
HIER
1070
     0
1002
}
1002
{
1000
MANEDIT
1070
     0
1002
}
1002
{
1000
NOSEL
1070
     0
1002
}
1002
{
1000
BEHIND
1070
     0
1002
}
1002
{
1000
OTHER
1070
     0
1002
}
1002
{
1000
REACTOR
1002
}
  0
LINE
  5
2EEF7
330
1F
100
AcDbEntity
  8
0部品4
100
AcDbLine
 10
3192.957389079608
 20
1723.711526277489
 30
0.0
 11
3202.657937362676
 21
1718.840621327715
 31
0.0
  0
LINE
  5
2EEF8
330
1F
100
AcDbEntity
  8
0部品4
  6
細線
 48
0.3
370
    13
100
AcDbLine
 10
3192.652154474496
 20
1735.840621327715
 30
0.0
 11
3190.897686846984
 21
1737.160287790142
 31
0.0
  0
LINE
  5
2EEF9
330
1F
100
AcDbEntity
  8
0部品4
100
AcDbLine
 10
3192.652154474497
 20
1724.172032999431
 30
0.0
 11
3192.652154474497
 21
1735.509209655999
 31
0.0
  0
ARC
  5
2EEFA
330
1F
100
AcDbEntity
  8
0部品4
100
AcDbCircle
 10
3193.152154474497
 20
1724.172032999431
 30
0.0
 40
0.5
100
AcDbArc
 50
180.0
 51
247.0746930751726
1001
GENIUS_GENOBJ-N-FIL_13
1002
{
1000
OWNER
1000
GEN
1002
}
1001
GENIUS_GENODEF_13
1002
{
1000
HIER
1070
     0
1002
}
1002
{
1000
MANEDIT
1070
     0
1002
}
1002
{
1000
NOSEL
1070
     0
1002
}
1002
{
1000
BEHIND
1070
     0
1002
}
1002
{
1000
OTHER
1070
     0
1002
}
1002
{
1000
REACTOR
1002
}
  0
LINE
  5
2EEFB
330
1F
100
AcDbEntity
  8
0部品4
  6
細線
 48
0.3
370
    13
100
AcDbLine
 10
3192.652154474496
 20
1723.840621327716
 30
0.0
 11
3190.897686846984
 21
1722.520954865288
 31
0.0
  0
LINE
  5
2EEFC
330
1F
100
AcDbEntity
  8
0部品4
100
AcDbLine
 10
3202.657937362676
 20
1740.840621327715
 30
0.0
 11
3203.641543920055
 21
1740.660293458862
 31
0.0
  0
LINE
  5
2EEFD
330
1F
100
AcDbEntity
  8
0部品4
100
AcDbLine
 10
3202.657937362676
 20
1718.840621327715
 30
0.0
 11
3203.64154392005
 21
1719.020949196567
 31
0.0
  0
DIMENSION
  5
2EEFE
330
1F
100
AcDbEntity
  8
AM_5
100
AcDbDimension
  2
*D7
 10
3220.657937362676
 20
1694.340621236355
 30
0.0
 11
3205.146603143977
 21
1694.340621236355
 31
0.0
 70
   160
  1
（P）
 71
     5
 42
28.0
  3
SYS$0
100
AcDbAlignedDimension
 13
3192.657937362676
 23
1707.840621327715
 33
0.0
 14
3220.657937362676
 24
1705.090621236355
 34
0.0
100
AcDbRotatedDimension
  0
DIMENSION
  5
2EEFF
330
1F
100
AcDbEntity
  8
AM_5
100
AcDbDimension
  2
*D8
 10
3237.657937362676
 20
1694.340621236355
 30
0.0
 11
3229.157937362676
 21
1694.340621236355
 31
0.0
 70
   160
  1
M
 71
     5
 42
17.0
  3
SYS$0
100
AcDbAlignedDimension
 13
3220.657937362676
 23
1705.090621236355
 33
0.0
 14
3237.657937362676
 24
1705.090621236355
 34
0.0
100
AcDbRotatedDimension
  0
DIMENSION
  5
2EF00
330
1F
100
AcDbEntity
  8
AM_5
100
AcDbDimension
  2
*D9
 10
3244.157937362317
 20
1686.340621236355
 30
0.0
 11
3229.157937362676
 21
1686.340621236355
 31
0.0
 70
   160
  1
C
 71
     5
 42
29.99999999928241
  3
SYS$0
100
AcDbAlignedDimension
 13
3214.157937363034
 23
1707.064537288924
 33
0.0
 14
3244.157937362317
 24
1707.064537288924
 34
0.0
 50
359.9999999245835
100
AcDbRotatedDimension
  0
LINE
  5
2EF01
330
1F
100
AcDbEntity
  8
0部品4
  6
中心線1
 48
0.5
370
    13
100
AcDbLine
 10
3192.657937362676
 20
1739.840621327715
 30
0.0
 11
3192.657937362676
 21
1751.840621327715
 31
0.0
  0
LINE
  5
2EF02
330
1F
100
AcDbEntity
  8
0部品4
  6
中心線1
 48
0.5
370
    13
100
AcDbLine
 10
3192.657937362676
 20
1707.840621327715
 30
0.0
 11
3192.657937362676
 21
1719.840621327715
 31
0.0
  0
LINE
  5
2EF03
330
1F
100
AcDbEntity
  8
size
100
AcDbLine
 10
3082.157124568729
 20
1846.472276399122
 30
0.0
 11
3379.15712456873
 21
1846.472276399122
 31
0.0
1001
GENIUS_GENREC_14
1002
{
1000
PYDIR
1011
3082.157124568729
1021
1933.472276399122
1031
0.0
1002
}
1002
{
1000
PXDIR
1011
3502.15712456873
1021
1636.472276399122
1031
0.0
1002
}
1002
{
1000
PORI
1011
3082.157124568729
1021
1636.472276399122
1031
0.0
1002
}
1002
{
1000
PINS
1011
3292.15712456873
1021
1784.972276399122
1031
0.0
1002
}
1002
{
1000
HVAL
1000
297
1002
}
1002
{
1000
H
1070
     2
1002
}
1002
{
1000
WVAL
1000
420
1002
}
1002
{
1000
W
1070
     2
1002
}
1002
{
1000
C
1070
     4
1002
}
1001
GENIUS_GENOBJ-N-REC_13
1002
{
1000
OWNER
1000
GEN
1002
}
1001
GENIUS_GENODEF_13
1002
{
1000
HIER
1070
     0
1002
}
1002
{
1000
MANEDIT
1070
     0
1002
}
1002
{
1000
NOSEL
1070
     0
1002
}
1002
{
1000
BEHIND
1070
     0
1002
}
1002
{
1000
OTHER
1070
     0
1002
}
1002
{
1000
REACTOR
1002
}
  0
LINE
  5
2EF04
330
1F
100
AcDbEntity
  8
size
100
AcDbLine
 10
3379.15712456873
 20
1846.472276399122
 30
0.0
 11
3379.15712456873
 21
1636.472276399122
 31
0.0
1001
GENIUS_GENREC_14
1002
{
1000
PYDIR
1011
3082.157124568729
1021
1933.472276399122
1031
0.0
1002
}
1002
{
1000
PXDIR
1011
3502.15712456873
1021
1636.472276399122
1031
0.0
1002
}
1002
{
1000
PORI
1011
3082.157124568729
1021
1636.472276399122
1031
0.0
1002
}
1002
{
1000
PINS
1011
3292.15712456873
1021
1784.972276399122
1031
0.0
1002
}
1002
{
1000
HVAL
1000
297
1002
}
1002
{
1000
H
1070
     2
1002
}
1002
{
1000
WVAL
1000
420
1002
}
1002
{
1000
W
1070
     2
1002
}
1002
{
1000
C
1070
     4
1002
}
1001
GENIUS_GENOBJ-N-REC_13
1002
{
1000
OWNER
1000
GEN
1002
}
1001
GENIUS_GENODEF_13
1002
{
1000
HIER
1070
     0
1002
}
1002
{
1000
MANEDIT
1070
     0
1002
}
1002
{
1000
NOSEL
1070
     0
1002
}
1002
{
1000
BEHIND
1070
     0
1002
}
1002
{
1000
OTHER
1070
     0
1002
}
1002
{
1000
REACTOR
1002
}
  0
LINE
  5
2EF05
330
1F
100
AcDbEntity
  8
waku
100
AcDbLine
 10
3093.657124568729
 20
1644.972276399122
 30
0.0
 11
3367.65712456873
 21
1644.972276399122
 31
0.0
1001
GENIUS_GENREC_14
1002
{
1000
PYDIR
1011
3082.157124568729
1021
1933.472276399122
1031
0.0
1002
}
1002
{
1000
PXDIR
1011
3502.15712456873
1021
1636.472276399122
1031
0.0
1002
}
1002
{
1000
PORI
1011
3082.157124568729
1021
1636.472276399122
1031
0.0
1002
}
1002
{
1000
PINS
1011
3292.15712456873
1021
1784.972276399122
1031
0.0
1002
}
1002
{
1000
HVAL
1000
297
1002
}
1002
{
1000
H
1070
     2
1002
}
1002
{
1000
WVAL
1000
420
1002
}
1002
{
1000
W
1070
     2
1002
}
1002
{
1000
C
1070
     4
1002
}
  0
LINE
  5
2EF06
330
1F
100
AcDbEntity
  8
waku
100
AcDbLine
 10
3367.65712456873
 20
1837.972276399122
 30
0.0
 11
3093.657124568729
 21
1837.972276399122
 31
0.0
1001
GENIUS_GENREC_14
1002
{
1000
PYDIR
1011
2959.157124568729
1021
1846.472276399122
1031
0.0
1002
}
1002
{
1000
PXDIR
1011
3379.15712456873
1021
1549.472276399122
1031
0.0
1002
}
1002
{
1000
PORI
1011
2959.157124568729
1021
1549.472276399122
1031
0.0
1002
}
1002
{
1000
PINS
1011
3169.15712456873
1021
1697.972276399122
1031
0.0
1002
}
1002
{
1000
HVAL
1000
297
1002
}
1002
{
1000
H
1070
     2
1002
}
1002
{
1000
WVAL
1000
420
1002
}
1002
{
1000
W
1070
     2
1002
}
1002
{
1000
C
1070
     4
1002
}
1001
GENIUS_GENOBJ-N-REC_13
1002
{
1000
OWNER
1000
GEN
1002
}
1001
GENIUS_GENODEF_13
1002
{
1000
HIER
1070
     0
1002
}
1002
{
1000
MANEDIT
1070
     0
1002
}
1002
{
1000
NOSEL
1070
     0
1002
}
1002
{
1000
BEHIND
1070
     0
1002
}
1002
{
1000
OTHER
1070
     0
1002
}
1002
{
1000
REACTOR
1002
}
  0
LINE
  5
2EF07
330
1F
100
AcDbEntity
  8
waku
100
AcDbLine
 10
3093.657124568729
 20
1837.972276399122
 30
0.0
 11
3093.657124568729
 21
1644.972276399122
 31
0.0
1001
GENIUS_GENREC_14
1002
{
1000
PYDIR
1011
3082.157124568729
1021
1933.472276399122
1031
0.0
1002
}
1002
{
1000
PXDIR
1011
3502.15712456873
1021
1636.472276399122
1031
0.0
1002
}
1002
{
1000
PORI
1011
3082.157124568729
1021
1636.472276399122
1031
0.0
1002
}
1002
{
1000
PINS
1011
3292.15712456873
1021
1784.972276399122
1031
0.0
1002
}
1002
{
1000
HVAL
1000
297
1002
}
1002
{
1000
H
1070
     2
1002
}
1002
{
1000
WVAL
1000
420
1002
}
1002
{
1000
W
1070
     2
1002
}
1002
{
1000
C
1070
     4
1002
}
1001
GENIUS_GENOBJ-N-REC_13
1002
{
1000
OWNER
1000
GEN
1002
}
1001
GENIUS_GENODEF_13
1002
{
1000
HIER
1070
     0
1002
}
1002
{
1000
MANEDIT
1070
     0
1002
}
1002
{
1000
NOSEL
1070
     0
1002
}
1002
{
1000
BEHIND
1070
     0
1002
}
1002
{
1000
OTHER
1070
     0
1002
}
1002
{
1000
REACTOR
1002
}
  0
LINE
  5
2EF08
330
1F
100
AcDbEntity
  8
waku
100
AcDbLine
 10
3367.65712456873
 20
1644.972276399122
 30
0.0
 11
3367.65712456873
 21
1837.972276399122
 31
0.0
1001
GENIUS_GENREC_14
1002
{
1000
PYDIR
1011
2959.157124568729
1021
1852.472276399122
1031
0.0
1002
}
1002
{
1000
PXDIR
1011
3379.15712456873
1021
1555.472276399122
1031
0.0
1002
}
1002
{
1000
PORI
1011
2959.157124568729
1021
1555.472276399122
1031
0.0
1002
}
1002
{
1000
PINS
1011
3169.15712456873
1021
1703.972276399122
1031
0.0
1002
}
1002
{
1000
HVAL
1000
297
1002
}
1002
{
1000
H
1070
     2
1002
}
1002
{
1000
WVAL
1000
420
1002
}
1002
{
1000
W
1070
     2
1002
}
1002
{
1000
C
1070
     4
1002
}
1001
GENIUS_GENOBJ-N-REC_13
1002
{
1000
OWNER
1000
GEN
1002
}
1001
GENIUS_GENODEF_13
1002
{
1000
HIER
1070
     0
1002
}
1002
{
1000
MANEDIT
1070
     0
1002
}
1002
{
1000
NOSEL
1070
     0
1002
}
1002
{
1000
BEHIND
1070
     0
1002
}
1002
{
1000
OTHER
1070
     0
1002
}
1002
{
1000
REACTOR
1002
}
  0
LINE
  5
2EF09
330
1F
100
AcDbEntity
  8
size
100
AcDbLine
 10
3082.157124568729
 20
1636.472276399122
 30
0.0
 11
3379.15712456873
 21
1636.472276399122
 31
0.0
1001
GENIUS_GENREC_14
1002
{
1000
PYDIR
1011
3082.157124568729
1021
1933.472276399122
1031
0.0
1002
}
1002
{
1000
PXDIR
1011
3502.15712456873
1021
1636.472276399122
1031
0.0
1002
}
1002
{
1000
PORI
1011
3082.157124568729
1021
1636.472276399122
1031
0.0
1002
}
1002
{
1000
PINS
1011
3292.15712456873
1021
1784.972276399122
1031
0.0
1002
}
1002
{
1000
HVAL
1000
297
1002
}
1002
{
1000
H
1070
     2
1002
}
1002
{
1000
WVAL
1000
420
1002
}
1002
{
1000
W
1070
     2
1002
}
1002
{
1000
C
1070
     4
1002
}
1001
GENIUS_GENOBJ-N-REC_13
1002
{
1000
OWNER
1000
GEN
1002
}
1001
GENIUS_GENODEF_13
1002
{
1000
HIER
1070
     0
1002
}
1002
{
1000
MANEDIT
1070
     0
1002
}
1002
{
1000
NOSEL
1070
     0
1002
}
1002
{
1000
BEHIND
1070
     0
1002
}
1002
{
1000
OTHER
1070
     0
1002
}
1002
{
1000
REACTOR
1002
}
  0
LINE
  5
2EF0A
330
1F
100
AcDbEntity
  8
0部品3
100
AcDbLine
 10
3221.092710992234
 20
1670.98491363351
 30
0.0
 11
3220.157937362676
 21
1664.908885041383
 31
0.0
  0
ARC
  5
2EF0B
330
1F
100
AcDbEntity
  8
0部品3
100
AcDbCircle
 10
3221.586896841059
 20
1670.908885041383
 30
0.0
 40
0.5
100
AcDbArc
 50
90.0
 51
171.2538377374497
1001
GENIUS_GENOBJ-N-FIL_13
1002
{
1000
OWNER
1000
GEN
1002
}
1001
GENIUS_GENODEF_13
1002
{
1000
HIER
1070
     0
1002
}
1002
{
1000
MANEDIT
1070
     0
1002
}
1002
{
1000
NOSEL
1070
     0
1002
}
1002
{
1000
BEHIND
1070
     0
1002
}
1002
{
1000
OTHER
1070
     0
1002
}
1002
{
1000
REACTOR
1002
}
  0
LINE
  5
2EF0C
330
1F
100
AcDbEntity
  8
0部品3
100
AcDbLine
 10
3221.586896841059
 20
1671.408885041383
 30
0.0
 11
3244.157937362674
 21
1671.408885041383
 31
0.0
  0
LINE
  5
2EF0D
330
1F
100
AcDbEntity
  8
0部品3
100
AcDbLine
 10
3207.507620742013
 20
1664.908885041383
 30
0.0
 11
3251.933364949646
 21
1664.908885041383
 31
0.0
  0
LINE
  5
2EF0E
330
1F
100
AcDbEntity
  8
0部品3
  6
中心線1
 48
0.5
370
    13
100
AcDbLine
 10
3229.157937362676
 20
1678.408885041382
 30
0.0
 11
3229.157937362676
 21
1655.408885041383
 31
0.0
1001
GENIUS_GENODEF_13
1002
{
1000
HIER
1070
     0
1002
}
1002
{
1000
MANEDIT
1070
     0
1002
}
1002
{
1000
NOSEL
1070
     0
1002
}
1002
{
1000
BEHIND
1070
     0
1002
}
1002
{
1000
OTHER
1070
     0
1002
}
1002
{
1000
REACTOR
1002
}
1001
GENIUS_GENOBJ-N-CEN_13
1002
{
1000
OWNER
1000
GEN
1002
}
1001
GENIUS_GENCEN_19
1002
{
1040
3.0
1002
}
  0
ARC
  5
2EF0F
330
1F
100
AcDbEntity
  8
0部品3
100
AcDbCircle
 10
3244.157937362676
 20
1679.408885041383
 30
0.0
 40
8.0
100
AcDbArc
 50
270.0
 51
327.3835978323721
  0
ARC
  5
2EF10
330
1F
100
AcDbEntity
  8
0部品3
  6
細線
 48
0.3
370
    13
100
AcDbCircle
 10
3297.14098006633
 20
1677.270032226533
 30
0.0
 40
8.569392543670366
100
AcDbArc
 50
90.70843773825354
 51
111.1228395433905
  0
ARC
  5
2EF11
330
1F
100
AcDbEntity
  8
0部品3
  6
細線
 48
0.3
370
    13
100
AcDbCircle
 10
3299.352102323855
 20
1691.188223637041
 30
0.0
 40
10.36975868763239
100
AcDbArc
 50
238.6969284208947
 51
256.8054172548888
  0
ARC
  5
2EF12
330
1F
100
AcDbEntity
  8
0部品3
100
AcDbCircle
 10
3283.410210277807
 20
1591.908885041384
 30
0.0
 40
95.0
100
AcDbArc
 50
81.94129869051755
 51
100.5162461480412
  0
ARC
  5
2EF13
330
1F
100
AcDbEntity
  8
0部品3
100
AcDbCircle
 10
3283.410210277807
 20
1591.908885041384
 30
0.0
 40
90.0
100
AcDbArc
 50
81.58258416246571
 51
100.5162461480412
  0
ARC
  5
2EF14
330
1F
100
AcDbEntity
  8
0部品3
100
AcDbCircle
 10
3296.657937362676
 20
1681.434008482152
 30
0.0
 40
0.5
100
AcDbArc
 50
261.5825841624658
 51
0.0
1001
GENIUS_GENOBJ-N-FIL_13
1002
{
1000
OWNER
1000
GEN
1002
}
1001
GENIUS_GENODEF_13
1002
{
1000
HIER
1070
     0
1002
}
1002
{
1000
MANEDIT
1070
     0
1002
}
1002
{
1000
NOSEL
1070
     0
1002
}
1002
{
1000
BEHIND
1070
     0
1002
}
1002
{
1000
OTHER
1070
     0
1002
}
1002
{
1000
REACTOR
1002
}
  0
ARC
  5
2EF15
330
1F
100
AcDbEntity
  8
0部品3
100
AcDbCircle
 10
3296.657937362676
 20
1685.475693937941
 30
0.0
 40
0.5
100
AcDbArc
 50
0.0
 51
81.94129869051755
1001
GENIUS_GENOBJ-N-FIL_13
1002
{
1000
OWNER
1000
GEN
1002
}
1001
GENIUS_GENODEF_13
1002
{
1000
HIER
1070
     0
1002
}
1002
{
1000
MANEDIT
1070
     0
1002
}
1002
{
1000
NOSEL
1070
     0
1002
}
1002
{
1000
BEHIND
1070
     0
1002
}
1002
{
1000
OTHER
1070
     0
1002
}
1002
{
1000
REACTOR
1002
}
  0
ARC
  5
2EF16
330
1F
100
AcDbEntity
  8
0部品3
100
AcDbCircle
 10
3270.269179317998
 20
1662.699515108598
 30
0.0
 40
23.0
100
AcDbArc
 50
100.5162461480412
 51
147.3835978323721
  0
ARC
  5
2EF17
330
1F
100
AcDbEntity
  8
0部品3
100
AcDbCircle
 10
3270.269179317998
 20
1662.699515108598
 30
0.0
 40
18.0
100
AcDbArc
 50
100.5162461480412
 51
163.6351949964949
  0
LINE
  5
2EF18
330
1F
100
AcDbEntity
  8
0部品3
100
AcDbLine
 10
3297.157937362676
 20
1681.434008482152
 30
0.0
 11
3297.157937362676
 21
1685.475693937941
 31
0.0
  0
LINE
  5
2EF19
330
1F
100
AcDbEntity
  8
0部品3
100
AcDbLine
 10
3252.221211117755
 20
1665.124359403226
 30
0.0
 11
3252.998409231549
 21
1667.771053398017
 31
0.0
  0
ARC
  5
2EF1A
330
1F
100
AcDbEntity
  8
0部品3
100
AcDbCircle
 10
3251.933364949646
 20
1665.208885041383
 30
0.0
 40
0.3
100
AcDbArc
 50
270.0
 51
343.6351949965035
1001
GENIUS_GENODEF_13
1002
{
1000
HIER
1070
     0
1002
}
1002
{
1000
MANEDIT
1070
     0
1002
}
1002
{
1000
NOSEL
1070
     0
1002
}
1002
{
1000
BEHIND
1070
     0
1002
}
1002
{
1000
OTHER
1070
     0
1002
}
1002
{
1000
REACTOR
1002
}
1001
GENIUS_GENOBJ-N-FIL_13
1002
{
1000
OWNER
1000
GEN
1002
}
  0
LINE
  5
2EF1B
330
1F
100
AcDbEntity
  8
0部品3
  6
細線
 48
0.3
370
    13
100
AcDbLine
 10
3293.696285362676
 20
1684.784665437909
 30
0.0
 11
3293.696285362676
 21
1682.770926534317
 31
0.0
  0
ARC
  5
2EF1C
330
1F
100
AcDbEntity
  8
0部品3
  6
細線
 48
0.3
370
    13
100
AcDbCircle
 10
3294.196285362674
 20
1684.784665437909
 30
0.0
 40
0.5
100
AcDbArc
 50
106.6719711456221
 51
180.0000000000521
1001
GENIUS_GENODEF_13
1002
{
1000
HIER
1070
     0
1002
}
1002
{
1000
MANEDIT
1070
     0
1002
}
1002
{
1000
NOSEL
1070
     0
1002
}
1002
{
1000
BEHIND
1070
     0
1002
}
1002
{
1000
OTHER
1070
     0
1002
}
1002
{
1000
REACTOR
1002
}
1001
GENIUS_GENOBJ-N-FIL_13
1002
{
1000
OWNER
1000
GEN
1002
}
  0
ARC
  5
2EF1D
330
1F
100
AcDbEntity
  8
0部品3
  6
細線
 48
0.3
370
    13
100
AcDbCircle
 10
3294.196285362676
 20
1682.770926534317
 30
0.0
 40
0.5
100
AcDbArc
 50
179.9999999999479
 51
242.3614802912412
1001
GENIUS_GENOBJ-N-FIL_13
1002
{
1000
OWNER
1000
GEN
1002
}
1001
GENIUS_GENODEF_13
1002
{
1000
HIER
1070
     0
1002
}
1002
{
1000
MANEDIT
1070
     0
1002
}
1002
{
1000
NOSEL
1070
     0
1002
}
1002
{
1000
BEHIND
1070
     0
1002
}
1002
{
1000
OTHER
1070
     0
1002
}
1002
{
1000
REACTOR
1002
}
  0
LINE
  5
2EF1E
330
1F
100
AcDbEntity
  8
0部品3
100
AcDbLine
 10
3207.569262020571
 20
1667.582495317705
 30
0.0
 11
3207.211109232718
 21
1665.254502196659
 31
0.0
  0
ARC
  5
2EF1F
330
1F
100
AcDbEntity
  8
0部品3
100
AcDbCircle
 10
3207.507620742013
 20
1665.208885041383
 30
0.0
 40
0.3
100
AcDbArc
 50
171.2538377374358
 51
270.0
1001
GENIUS_GENODEF_13
1002
{
1000
HIER
1070
     0
1002
}
1002
{
1000
MANEDIT
1070
     0
1002
}
1002
{
1000
NOSEL
1070
     0
1002
}
1002
{
1000
BEHIND
1070
     0
1002
}
1002
{
1000
OTHER
1070
     0
1002
}
1002
{
1000
REACTOR
1002
}
1001
GENIUS_GENOBJ-N-FIL_13
1002
{
1000
OWNER
1000
GEN
1002
}
  0
ARC
  5
2EF20
330
1F
100
AcDbEntity
  8
0部品3
100
AcDbCircle
 10
3237.556514152681
 20
1551.703146215285
 30
0.0
 40
120.0
100
AcDbArc
 50
97.91732404165218
 51
101.9751913074392
  0
ARC
  5
2EF21
330
1F
100
AcDbEntity
  8
0部品3
100
AcDbCircle
 10
3237.556514152681
 20
1551.703146215285
 30
0.0
 40
120.0
100
AcDbArc
 50
103.4562670030193
 51
104.2884638230922
  0
ARC
  5
2EF22
330
1F
100
AcDbEntity
  8
0部品3
100
AcDbCircle
 10
3208.063447869396
 20
1667.506466725578
 30
0.0
 40
0.5
100
AcDbArc
 50
104.2884638230922
 51
171.2538377374497
1001
GENIUS_GENOBJ-N-FIL_13
1002
{
1000
OWNER
1000
GEN
1002
}
1001
GENIUS_GENODEF_13
1002
{
1000
HIER
1070
     0
1002
}
1002
{
1000
MANEDIT
1070
     0
1002
}
1002
{
1000
NOSEL
1070
     0
1002
}
1002
{
1000
BEHIND
1070
     0
1002
}
1002
{
1000
OTHER
1070
     0
1002
}
1002
{
1000
REACTOR
1002
}
  0
LINE
  5
2EF23
330
1F
100
AcDbEntity
  8
0部品1
100
AcDbLine
 10
3244.157937315705
 20
1658.408885041384
 30
0.0
 11
3244.157937315704
 21
1662.908885041384
 31
0.0
  0
ARC
  5
2EF24
330
1F
100
AcDbEntity
  8
0部品1
100
AcDbCircle
 10
3243.657937315705
 20
1662.908885041384
 30
0.0
 40
0.5
100
AcDbArc
 50
0.0
 51
90.0
1001
GENIUS_GENOBJ-N-FIL_13
1002
{
1000
OWNER
1000
GEN
1002
}
1001
GENIUS_GENODEF_13
1002
{
1000
HIER
1070
     0
1002
}
1002
{
1000
MANEDIT
1070
     0
1002
}
1002
{
1000
NOSEL
1070
     0
1002
}
1002
{
1000
BEHIND
1070
     0
1002
}
1002
{
1000
OTHER
1070
     0
1002
}
1002
{
1000
REACTOR
1002
}
  0
LINE
  5
2EF25
330
1F
100
AcDbEntity
  8
0部品1
100
AcDbLine
 10
3214.157937409646
 20
1658.408885041384
 30
0.0
 11
3214.157937409646
 21
1662.908885041384
 31
0.0
  0
ARC
  5
2EF26
330
1F
100
AcDbEntity
  8
0部品1
100
AcDbCircle
 10
3214.657937409646
 20
1662.908885041384
 30
0.0
 40
0.5
100
AcDbArc
 50
90.0
 51
180.0
1001
GENIUS_GENODEF_13
1002
{
1000
HIER
1070
     0
1002
}
1002
{
1000
MANEDIT
1070
     0
1002
}
1002
{
1000
NOSEL
1070
     0
1002
}
1002
{
1000
BEHIND
1070
     0
1002
}
1002
{
1000
OTHER
1070
     0
1002
}
1002
{
1000
REACTOR
1002
}
1001
GENIUS_GENOBJ-N-FIL_13
1002
{
1000
OWNER
1000
GEN
1002
}
  0
LINE
  5
2EF27
330
1F
100
AcDbEntity
  8
0部品1
100
AcDbLine
 10
3214.657937409646
 20
1663.408885041384
 30
0.0
 11
3243.657937315705
 21
1663.408885041384
 31
0.0
  0
LINE
  5
2EF28
330
1F
100
AcDbEntity
  8
0部品1
100
AcDbLine
 10
3214.157937409646
 20
1658.408885041384
 30
0.0
 11
3244.157937315705
 21
1658.408885041384
 31
0.0
  0
LINE
  5
2EF29
330
1F
100
AcDbEntity
  8
0部品1
  6
中心線1
 48
0.5
370
    13
100
AcDbLine
 10
3220.657937362676
 20
1655.408885041383
 30
0.0
 11
3220.657937362676
 21
1667.408885041384
 31
0.0
1001
GENIUS_GENODEF_13
1002
{
1000
HIER
1070
     0
1002
}
1002
{
1000
MANEDIT
1070
     0
1002
}
1002
{
1000
NOSEL
1070
     0
1002
}
1002
{
1000
BEHIND
1070
     0
1002
}
1002
{
1000
OTHER
1070
     0
1002
}
1002
{
1000
REACTOR
1002
}
1001
GENIUS_GENOBJ-N-CEN_13
1002
{
1000
OWNER
1000
GEN
1002
}
1001
GENIUS_GENCEN_19
1002
{
1040
3.0
1002
}
  0
LINE
  5
2EF2A
330
1F
100
AcDbEntity
  8
0部品1
  6
中心線1
 48
0.5
370
    13
100
AcDbLine
 10
3237.657937362677
 20
1655.408885041383
 30
0.0
 11
3237.657937362676
 21
1667.408885041384
 31
0.0
1001
GENIUS_GENODEF_13
1002
{
1000
HIER
1070
     0
1002
}
1002
{
1000
MANEDIT
1070
     0
1002
}
1002
{
1000
NOSEL
1070
     0
1002
}
1002
{
1000
BEHIND
1070
     0
1002
}
1002
{
1000
OTHER
1070
     0
1002
}
1002
{
1000
REACTOR
1002
}
1001
GENIUS_GENOBJ-N-CEN_13
1002
{
1000
OWNER
1000
GEN
1002
}
1001
GENIUS_GENCEN_19
1002
{
1040
3.0
1002
}
  0
LINE
  5
2EF2B
330
1F
100
AcDbEntity
  8
0部品1
100
AcDbLine
 10
3220.157937362676
 20
1663.408885041383
 30
0.0
 11
3220.157937362676
 21
1664.408885041384
 31
0.0
  0
LINE
  5
2EF2C
330
1F
100
AcDbEntity
  8
0部品1
100
AcDbLine
 10
3220.157937362676
 20
1664.408885041384
 30
0.0
 11
3238.157937362676
 21
1664.408885041384
 31
0.0
  0
LINE
  5
2EF2D
330
1F
100
AcDbEntity
  8
0部品1
100
AcDbLine
 10
3238.157937362676
 20
1664.408885041384
 30
0.0
 11
3238.157937362676
 21
1663.408885041384
 31
0.0
  0
LINE
  5
2EF2E
330
1F
100
AcDbEntity
  8
0部品6
100
AcDbLine
 10
3220.407937362676
 20
1664.408885041384
 30
0.0
 11
3237.907937362676
 21
1664.408885041384
 31
0.0
  0
LINE
  5
2EF2F
330
1F
100
AcDbEntity
  8
0部品6
100
AcDbLine
 10
3220.407937362676
 20
1664.908885041383
 30
0.0
 11
3237.907937362676
 21
1664.908885041383
 31
0.0
  0
LINE
  5
2EF30
330
1F
100
AcDbEntity
  8
0部品6
100
AcDbLine
 10
3237.907937362676
 20
1664.408885041384
 30
0.0
 11
3237.907937362676
 21
1664.908885041383
 31
0.0
  0
LINE
  5
2EF31
330
1F
100
AcDbEntity
  8
0部品6
100
AcDbLine
 10
3220.407937362676
 20
1664.908885041383
 30
0.0
 11
3220.407937362676
 21
1664.408885041384
 31
0.0
  0
LINE
  5
2EF32
330
1F
100
AcDbEntity
  8
0部品4
100
AcDbLine
 10
3182.657937362676
 20
1658.409210868696
 30
0.0
 11
3202.657937362676
 21
1658.408885041384
 31
0.0
  0
LINE
  5
2EF33
330
1F
100
AcDbEntity
  8
0部品4
100
AcDbLine
 10
3183.157937362676
 20
1663.408884905988
 30
0.0
 11
3202.157937362676
 21
1663.408884905988
 31
0.0
  0
ARC
  5
2EF34
330
1F
100
AcDbEntity
  8
0部品4
100
AcDbCircle
 10
3189.179531293883
 20
1665.408884905988
 30
0.0
 40
2.0
100
AcDbArc
 50
270.0
 51
342.9438486805271
1001
GENIUS_GENOBJ-N-FIL_13
1002
{
1000
OWNER
1000
GEN
1002
}
1001
GENIUS_GENODEF_13
1002
{
1000
HIER
1070
     0
1002
}
1002
{
1000
MANEDIT
1070
     0
1002
}
1002
{
1000
NOSEL
1070
     0
1002
}
1002
{
1000
BEHIND
1070
     0
1002
}
1002
{
1000
OTHER
1070
     0
1002
}
1002
{
1000
REACTOR
1002
}
  0
ARC
  5
2EF35
330
1F
100
AcDbEntity
  8
0部品4
100
AcDbCircle
 10
3202.157937362676
 20
1662.908884905988
 30
0.0
 40
0.5
100
AcDbArc
 50
0.0
 51
90.0
1001
GENIUS_GENODEF_13
1002
{
1000
HIER
1070
     0
1002
}
1002
{
1000
MANEDIT
1070
     0
1002
}
1002
{
1000
NOSEL
1070
     0
1002
}
1002
{
1000
BEHIND
1070
     0
1002
}
1002
{
1000
OTHER
1070
     0
1002
}
1002
{
1000
REACTOR
1002
}
1001
GENIUS_GENOBJ-N-FIL_13
1002
{
1000
OWNER
1000
GEN
1002
}
  0
LINE
  5
2EF36
330
1F
100
AcDbEntity
  8
0部品4
  6
中心線1
 48
0.5
370
    13
100
AcDbLine
 10
3192.657937362676
 20
1655.408884905988
 30
0.0
 11
3192.657937362676
 21
1664.908884905988
 31
0.0
  0
LINE
  5
2EF37
330
1F
100
AcDbEntity
  8
0部品4
100
AcDbLine
 10
3191.091566824022
 20
1664.82226737174
 30
0.0
 11
3192.599541647384
 21
1669.737397371253
 31
0.0
  0
LINE
  5
2EF38
330
1F
100
AcDbEntity
  8
0部品4
100
AcDbLine
 10
3202.957937362675
 20
1668.408884905988
 30
0.0
 11
3212.357937362675
 21
1668.408884905988
 31
0.0
  0
LINE
  5
2EF39
330
1F
100
AcDbEntity
  8
0部品4
100
AcDbLine
 10
3182.657937362676
 20
1658.409210868696
 30
0.0
 11
3182.657937362676
 21
1662.908884905989
 31
0.0
  0
ARC
  5
2EF3A
330
1F
100
AcDbEntity
  8
0部品4
100
AcDbCircle
 10
3183.157937362676
 20
1662.908884905989
 30
0.0
 40
0.5
100
AcDbArc
 50
90.0
 51
180.0
1001
GENIUS_GENODEF_13
1002
{
1000
HIER
1070
     0
1002
}
1002
{
1000
MANEDIT
1070
     0
1002
}
1002
{
1000
NOSEL
1070
     0
1002
}
1002
{
1000
BEHIND
1070
     0
1002
}
1002
{
1000
OTHER
1070
     0
1002
}
1002
{
1000
REACTOR
1002
}
1001
GENIUS_GENOBJ-N-FIL_13
1002
{
1000
OWNER
1000
GEN
1002
}
  0
LINE
  5
2EF3B
330
1F
100
AcDbEntity
  8
0部品4
100
AcDbLine
 10
3202.657937362676
 20
1668.108884905988
 30
0.0
 11
3202.657937362676
 21
1658.408885041384
 31
0.0
  0
ARC
  5
2EF3C
330
1F
100
AcDbEntity
  8
0部品4
100
AcDbCircle
 10
3202.957937362675
 20
1668.108884905988
 30
0.0
 40
0.3
100
AcDbArc
 50
90.0
 51
180.0
1001
GENIUS_GENODEF_13
1002
{
1000
HIER
1070
     0
1002
}
1002
{
1000
MANEDIT
1070
     0
1002
}
1002
{
1000
NOSEL
1070
     0
1002
}
1002
{
1000
BEHIND
1070
     0
1002
}
1002
{
1000
OTHER
1070
     0
1002
}
1002
{
1000
REACTOR
1002
}
1001
GENIUS_GENOBJ-N-FIL_13
1002
{
1000
OWNER
1000
GEN
1002
}
  0
ARC
  5
2EF3D
330
1F
100
AcDbEntity
  8
0部品4
100
AcDbCircle
 10
3202.655045918586
 20
1654.944187690282
 30
0.0
 40
18.0
100
AcDbArc
 50
57.11037747016894
 51
123.1809821286065
  0
ARC
  5
2EF3E
330
1F
100
AcDbEntity
  8
0部品4
100
AcDbCircle
 10
3193.077550529919
 20
1669.590742987691
 30
0.0
 40
0.5
100
AcDbArc
 50
123.1809821286684
 51
162.9438486804685
1001
GENIUS_GENOBJ-N-FIL_13
1002
{
1000
OWNER
1000
GEN
1002
}
1001
GENIUS_GENODEF_13
1002
{
1000
HIER
1070
     0
1002
}
1002
{
1000
MANEDIT
1070
     0
1002
}
1002
{
1000
NOSEL
1070
     0
1002
}
1002
{
1000
BEHIND
1070
     0
1002
}
1002
{
1000
OTHER
1070
     0
1002
}
1002
{
1000
REACTOR
1002
}
  0
ARC
  5
2EF3F
330
1F
100
AcDbEntity
  8
0部品4
100
AcDbCircle
 10
3212.157937362675
 20
1669.639256734076
 30
0.0
 40
0.5
100
AcDbArc
 50
0.0
 51
57.11037747016894
1001
GENIUS_GENODEF_13
1002
{
1000
HIER
1070
     0
1002
}
1002
{
1000
MANEDIT
1070
     0
1002
}
1002
{
1000
NOSEL
1070
     0
1002
}
1002
{
1000
BEHIND
1070
     0
1002
}
1002
{
1000
OTHER
1070
     0
1002
}
1002
{
1000
REACTOR
1002
}
1001
GENIUS_GENOBJ-N-FIL_13
1002
{
1000
OWNER
1000
GEN
1002
}
  0
LINE
  5
2EF40
330
1F
100
AcDbEntity
  8
0部品4
100
AcDbLine
 10
3212.657937362676
 20
1669.639256734076
 30
0.0
 11
3212.657937362676
 21
1668.708884905988
 31
0.0
  0
ARC
  5
2EF41
330
1F
100
AcDbEntity
  8
0部品4
100
AcDbCircle
 10
3212.357937362675
 20
1668.708884905988
 30
0.0
 40
0.3
100
AcDbArc
 50
270.0
 51
0.0
1001
GENIUS_GENOBJ-N-FIL_13
1002
{
1000
OWNER
1000
GEN
1002
}
1001
GENIUS_GENODEF_13
1002
{
1000
HIER
1070
     0
1002
}
1002
{
1000
MANEDIT
1070
     0
1002
}
1002
{
1000
NOSEL
1070
     0
1002
}
1002
{
1000
BEHIND
1070
     0
1002
}
1002
{
1000
OTHER
1070
     0
1002
}
1002
{
1000
REACTOR
1002
}
  0
DIMENSION
  5
2EF42
330
1F
100
AcDbEntity
  8
AM_5
100
AcDbDimension
  2
*D10
 10
3297.157937362676
 20
1765.340621236355
 30
0.0
 11
3263.426017337739
 21
1765.340621236355
 31
0.0
 70
   160
  1
（B）
 71
     5
 42
68.00000000000181
  3
SYS$0
100
AcDbAlignedDimension
 13
3229.157937362674
 23
1760.340621236355
 33
0.0
 14
3297.157937362676
 24
1738.840621236355
 34
0.0
100
AcDbRotatedDimension
  0
DIMENSION
  5
2EF43
330
1F
100
AcDbEntity
  8
AM_5
100
AcDbDimension
  2
*D11
 10
3297.157937362676
 20
1773.340621236355
 30
0.0
 11
3250.850497505606
 21
1773.340621236355
 31
0.0
 70
   160
  1
（A）
 71
     5
 42
90.0
  3
SYS$0
100
AcDbAlignedDimension
 13
3207.157937362676
 23
1738.840621236355
 33
0.0
 14
3297.157937362676
 24
1738.840621236355
 34
0.0
100
AcDbRotatedDimension
  0
DIMENSION
  5
2EF44
330
1F
100
AcDbEntity
  8
AM_5
100
AcDbDimension
  2
*D12
 10
3305.157937362677
 20
1748.340621236355
 30
0.0
 11
3305.157937362676
 21
1728.581838652564
 31
0.0
 70
   160
  1
N
 71
     5
 42
37.0
  3
SYS$0
100
AcDbAlignedDimension
 13
3243.907937362676
 23
1711.340621236355
 33
0.0
 14
3243.907937362676
 24
1748.340621236355
 34
0.0
 50
90.0
100
AcDbRotatedDimension
  0
DIMENSION
  5
2EF45
330
1F
100
AcDbEntity
  8
AM_5
100
AcDbDimension
  2
*D13
 10
3313.157937362677
 20
1702.340621236355
 30
0.0
 11
3313.157937362677
 21
1729.123808543638
 31
0.0
 70
   160
  1
F
 71
     5
 42
55.0
  3
SYS$0
100
AcDbAlignedDimension
 13
3232.157937362676
 23
1757.340621236355
 33
0.0
 14
3232.157937362675
 24
1702.340621236355
 34
0.0
 50
90.0
100
AcDbRotatedDimension
  0
DIMENSION
  5
2EF46
330
1F
100
AcDbEntity
  8
AM_5
100
AcDbDimension
  2
*D14
 10
3212.657937362676
 20
1768.340621327715
 30
0.0
 11
3197.871597079066
 21
1768.340621327715
 31
0.0
 70
   160
  1
D
 71
     5
 42
30.0
  3
SYS$0
100
AcDbAlignedDimension
 13
3182.657937362676
 23
1748.340621327715
 33
0.0
 14
3212.657937362676
 24
1729.840621327713
 34
0.0
100
AcDbRotatedDimension
  0
DIMENSION
  5
2EF47
330
1F
100
AcDbEntity
  8
AM_5
100
AcDbDimension
  2
*D15
 10
3202.657937362676
 20
1760.340621327715
 30
0.0
 11
3192.027453961108
 21
1760.340621327715
 31
0.0
 70
   160
  1
E
 71
     5
 42
20.0
  3
SYS$0
100
AcDbAlignedDimension
 13
3182.657937362676
 23
1748.340621327715
 33
0.0
 14
3202.657937362676
 24
1748.340621327715
 34
0.0
100
AcDbRotatedDimension
  0
DIMENSION
  5
2EF48
330
1F
100
AcDbEntity
  8
AM_5
100
AcDbDimension
  2
*D16
 10
3174.657937362677
 20
1713.840621327715
 30
0.0
 11
3174.657937362676
 21
1729.840621327715
 31
0.0
 70
   160
  1
O
 71
     5
 42
32.0
  3
SYS$0
100
AcDbAlignedDimension
 13
3186.657937362676
 23
1745.840621327715
 33
0.0
 14
3186.657937362676
 24
1713.840621327715
 34
0.0
 50
90.0
100
AcDbRotatedDimension
  0
DIMENSION
  5
2EF49
330
1F
100
AcDbEntity
  8
AM_5
100
AcDbDimension
  2
*D17
 10
3166.657937362677
 20
1707.340621327715
 30
0.0
 11
3166.657937362676
 21
1729.840621327715
 31
0.0
 70
   160
  1
G
 71
     5
 42
45.0
  3
SYS$0
100
AcDbAlignedDimension
 13
3186.657937362676
 23
1752.340621327715
 33
0.0
 14
3186.657937362676
 24
1707.340621327715
 34
0.0
 50
90.0
100
AcDbRotatedDimension
  0
DIMENSION
  5
2EF4A
330
1F
100
AcDbEntity
  8
AM_5
100
AcDbDimension
  2
*D18
 10
3174.657937362675
 20
1663.408886074023
 30
0.0
 11
3174.657937362674
 21
1660.487704783502
 31
0.0
 70
   160
 71
     5
 42
4.999675205326639
  3
SYS$0
100
AcDbAlignedDimension
 13
3182.657937362676
 23
1658.409210868696
 33
0.0
 14
3183.157937362674
 24
1663.408886074023
 34
0.0
 50
90.0
100
AcDbRotatedDimension
  0
DIMENSION
  5
2EF4B
330
1F
100
AcDbEntity
  8
AM_5
100
AcDbDimension
  2
*D19
 10
3166.657937362675
 20
1658.409210868696
 30
0.0
 11
3166.657937362674
 21
1663.477189654642
 31
0.0
 70
   160
  1
L
 71
     5
 42
9.999674037291924
  3
SYS$0
100
AcDbAlignedDimension
 13
3202.957937362675
 23
1668.408884905988
 33
0.0
 14
3182.657937362676
 24
1658.409210868696
 34
0.0
 50
90.0
100
AcDbRotatedDimension
  0
DIMENSION
  5
2EF4C
330
1F
100
AcDbEntity
  8
AM_5
100
AcDbDimension
  2
*D20
 10
3158.657937362675
 20
1658.409210868696
 30
0.0
 11
3158.657937362674
 21
1665.701441968406
 31
0.0
 70
   160
  1
（K）
 71
     5
 42
14.49967417268772
  3
SYS$0
100
AcDbAlignedDimension
 13
3202.657937362676
 23
1672.908885041383
 33
0.0
 14
3182.657937362676
 24
1658.409210868696
 34
0.0
 50
90.0
100
AcDbRotatedDimension
  0
DIMENSION
  5
2EF4D
330
1F
100
AcDbEntity
  8
AM_5
100
AcDbDimension
  2
*D21
 10
3272.157937391258
 20
1671.408885041383
 30
0.0
 11
3272.157937391257
 21
1664.86140828229
 31
0.0
 70
   160
  1
I
 71
     5
 42
13.0
  3
SYS$0
100
AcDbAlignedDimension
 13
3244.157937315705
 23
1658.408885041384
 33
0.0
 14
3245.974867305739
 24
1671.408885041383
 34
0.0
 50
90.0
100
AcDbRotatedDimension
  0
DIMENSION
  5
2EF4E
330
1F
100
AcDbEntity
  8
AM_5
100
AcDbDimension
  2
*D22
 10
3264.157937391257
 20
1663.408885041384
 30
0.0
 11
3264.157937391257
 21
1660.853630365479
 31
0.0
 70
   160
  1
J
 71
     5
 42
5.000000000000454
  3
SYS$0
100
AcDbAlignedDimension
 13
3244.157937315705
 23
1658.408885041384
 33
0.0
 14
3243.657937315705
 24
1663.408885041384
 34
0.0
 50
90.0
100
AcDbRotatedDimension
  0
DIMENSION
  5
2EF4F
330
1F
100
AcDbEntity
  8
AM_5
100
AcDbDimension
  2
*D23
 10
3305.157937362677
 20
1686.908885041384
 30
0.0
 11
3305.157937362676
 21
1672.622495247126
 31
0.0
 70
   160
  1
（H）
 71
     5
 42
28.5
  3
SYS$0
100
AcDbAlignedDimension
 13
3244.157937315705
 23
1658.408885041384
 33
0.0
 14
3283.410210277807
 24
1686.908885041384
 34
0.0
 50
90.0
100
AcDbRotatedDimension
  0
LINE
  5
2EF52
330
1F
100
AcDbEntity
  8
0部品2
100
AcDbLine
 10
3234.157937362676
 20
1671.908885041383
 30
0.0
 11
3224.157937362676
 21
1671.908885041383
 31
0.0
  0
LINE
  5
2EF53
330
1F
100
AcDbEntity
  8
0部品2
100
AcDbLine
 10
3224.157937362676
 20
1671.908885041383
 30
0.0
 11
3224.535283362675
 21
1674.550307041382
 31
0.0
  0
LINE
  5
2EF54
330
1F
100
AcDbEntity
  8
0部品2
100
AcDbLine
 10
3225.525232362676
 20
1675.408885041383
 30
0.0
 11
3232.790642362676
 21
1675.408885041383
 31
0.0
  0
ARC
  5
2EF55
330
1F
100
AcDbEntity
  8
0部品2
100
AcDbCircle
 10
3232.790642362676
 20
1674.408885041383
 30
0.0
 40
1.0
100
AcDbArc
 50
8.130101999958641
 51
90.0
  0
LINE
  5
2EF56
330
1F
100
AcDbEntity
  8
0部品2
100
AcDbLine
 10
3234.157937362676
 20
1671.908885041383
 30
0.0
 11
3233.780591362676
 21
1674.550307041382
 31
0.0
  0
ARC
  5
2EF57
330
1F
100
AcDbEntity
  8
0部品2
100
AcDbCircle
 10
3225.525232362676
 20
1674.408885041383
 30
0.0
 40
1.0
100
AcDbArc
 50
90.0
 51
171.8698980000413
  0
LINE
  5
2EF58
330
1F
100
AcDbEntity
  8
0部品2
100
AcDbLine
 10
3234.157937362676
 20
1671.908885041383
 30
0.0
 11
3234.157937362676
 21
1671.408885041383
 31
0.0
  0
LINE
  5
2EF59
330
1F
100
AcDbEntity
  8
0部品2
100
AcDbLine
 10
3234.157937362676
 20
1671.408885041383
 30
0.0
 11
3224.157937362676
 21
1671.408885041383
 31
0.0
  0
LINE
  5
2EF5A
330
1F
100
AcDbEntity
  8
0部品2
100
AcDbLine
 10
3224.157937362676
 20
1671.408885041383
 30
0.0
 11
3224.157937362676
 21
1671.908885041382
 31
0.0
  0
DIMENSION
  5
2EF5B
330
1F
100
AcDbEntity
  8
AM_5
100
AcDbDimension
  2
*D24
 10
3195.178460178696
 20
1717.074344373048
 30
0.0
 11
3166.058610034575
 21
1697.980711386387
 31
0.0
 70
   163
  1
2-%%c4.5×<>サラ
 71
     5
 42
8.199999999999818
  3
SYS$3
100
AcDbDiametricDimension
 15
3190.137414546655
 25
1710.606898282382
 35
0.0
 40
0.0
1001
ACAD
1000
DSTYLE
1002
{
1070
    41
1040
1.0
1070
    47
1040
0.2
1070
    48
1040
-0.2
1070
   172
1070
     1
1070
   271
1070
     1
1070
   342
1005
6C4
1002
}
  0
DIMENSION
  5
2EF5C
330
1F
100
AcDbEntity
  8
AM_5
100
AcDbDimension
  2
*D25
 10
3235.341234931829
 20
1714.723355315013
 30
0.0
 11
3263.40515936961
 21
1694.534452200844
 31
0.0
 70
   163
  1
4-%%c4.5×<>サラ
 71
     5
 42
8.199999999998453
  3
SYS$3
100
AcDbDiametricDimension
 15
3239.974639793519
 25
1707.957887157697
 35
0.0
 40
0.0
1001
ACAD
1000
DSTYLE
1002
{
1070
    41
1040
1.0
1070
    47
1040
0.2
1070
    48
1040
-0.2
1070
   172
1070
     1
1070
   271
1070
     1
1070
   342
1005
6C4
1002
}
  0
LINE
  5
2EF5D
330
1F
100
AcDbEntity
  8
AM_1
100
AcDbLine
 10
3093.657124568729
 20
1773.97227639912
 30
0.0
 11
3176.65712456873
 21
1773.97227639912
 31
0.0
  0
TEXT
  5
2EF5F
330
1F
100
AcDbEntity
  8
AM_6
100
AcDbText
 10
3099.31412456873
 20
1776.37227639912
 30
0.0
 40
3.2
  1
備　考
 41
0.85537027
100
AcDbText
  0
LINE
  5
2EF60
330
1F
100
AcDbEntity
  8
0部品3
  6
細線
 48
0.3
370
    13
100
AcDbLine
 10
3236.787599728518
 20
1670.908885041383
 30
0.0
 11
3236.787599728518
 21
1665.208885041383
 31
0.0
  0
LINE
  5
2EF61
330
1F
100
AcDbEntity
  8
0部品3
  6
細線
 48
0.3
370
    13
100
AcDbLine
 10
3235.486454362676
 20
1670.908885041383
 30
0.0
 11
3235.486454362676
 21
1665.208885041383
 31
0.0
  0
LINE
  5
2EF62
330
1F
100
AcDbEntity
  8
0部品3
  6
細線
 48
0.3
370
    13
100
AcDbLine
 10
3234.775336239797
 20
1670.908885041383
 30
0.0
 11
3234.775336239797
 21
1665.208885041383
 31
0.0
  0
LINE
  5
2EF63
330
1F
100
AcDbEntity
  8
0部品3
  6
細線
 48
0.3
370
    13
100
AcDbLine
 10
3245.974867305738
 20
1671.408885041383
 30
0.0
 11
3244.157937362676
 21
1671.408885041383
 31
0.0
  0
ARC
  5
2EF64
330
1F
100
AcDbEntity
  8
0部品4
  6
細線
 48
0.5
370
    13
100
AcDbCircle
 10
3197.867743946296
 20
1659.0490103178
 30
0.0
 40
11.8694072740592
100
AcDbArc
 50
66.1981537569728
 51
113.8018462430272
  0
LINE
  5
2EF65
330
1F
100
AcDbEntity
  8
0部品4
  6
細線
 48
0.5
370
    13
100
AcDbLine
 10
3212.157937362675
 20
1669.908884905988
 30
0.0
 11
3202.657937362675
 21
1669.908884905988
 31
0.0
  0
ARC
  5
2EF66
330
1F
100
AcDbEntity
  8
0部品3
  6
細線
 48
0.3
370
    13
100
AcDbCircle
 10
3245.974867305738
 20
1679.408885041383
 30
0.0
 40
8.0
100
AcDbArc
 50
270.0
 51
305.4634573768416
  0
ARC
  5
2EF67
330
1F
100
AcDbEntity
  8
0部品3
  6
細線
 48
0.3
370
    13
100
AcDbCircle
 10
3296.347796802653
 20
1676.408668053344
 30
0.0
 40
9.455109800297837
100
AcDbArc
 50
85.83187507721042
 51
103.9016012688526
  0
ARC
  5
2EF68
330
1F
100
AcDbEntity
  8
0部品3
  6
細線
 48
0.3
370
    13
100
AcDbCircle
 10
3294.196285362676
 20
1685.101480605098
 30
0.0
 40
0.5
100
AcDbArc
 50
103.9016012688526
 51
180.0000000000521
1001
GENIUS_GENODEF_13
1002
{
1000
HIER
1070
     0
1002
}
1002
{
1000
MANEDIT
1070
     0
1002
}
1002
{
1000
NOSEL
1070
     0
1002
}
1002
{
1000
BEHIND
1070
     0
1002
}
1002
{
1000
OTHER
1070
     0
1002
}
1002
{
1000
REACTOR
1002
}
1001
GENIUS_GENOBJ-N-FIL_13
1002
{
1000
OWNER
1000
GEN
1002
}
  0
ARC
  5
2EF69
330
1F
100
AcDbEntity
  8
0部品3
  6
細線
 48
0.3
370
    13
100
AcDbCircle
 10
3301.437341646727
 20
1699.976594259106
 30
0.0
 40
19.40210993604818
100
AcDbArc
 50
247.4752859072732
 51
256.7340506071346
  0
ARC
  5
2EF6A
330
1F
100
AcDbEntity
  8
0部品3
  6
細線
 48
0.3
370
    13
100
AcDbCircle
 10
3294.196285362676
 20
1682.516443517325
 30
0.0
 40
0.5
100
AcDbArc
 50
180.0
 51
247.4752859073297
1001
GENIUS_GENOBJ-N-FIL_13
1002
{
1000
OWNER
1000
GEN
1002
}
1001
GENIUS_GENODEF_13
1002
{
1000
HIER
1070
     0
1002
}
1002
{
1000
MANEDIT
1070
     0
1002
}
1002
{
1000
NOSEL
1070
     0
1002
}
1002
{
1000
BEHIND
1070
     0
1002
}
1002
{
1000
OTHER
1070
     0
1002
}
1002
{
1000
REACTOR
1002
}
  0
ARC
  5
2EF6B
330
1F
100
AcDbEntity
  8
0部品3
  6
細線
 48
0.3
370
    13
100
AcDbCircle
 10
3283.410210277808
 20
1591.908885041384
 30
0.0
 40
90.8608635
100
AcDbArc
 50
83.41101362467846
 51
100.5162461480412
  0
ARC
  5
2EF6C
330
1F
100
AcDbEntity
  8
0部品3
  6
細線
 48
0.3
370
    13
100
AcDbCircle
 10
3283.410210277808
 20
1591.908885041384
 30
0.0
 40
94.13913650000001
100
AcDbArc
 50
83.62993915831706
 51
100.5162461480412
  0
ARC
  5
2EF6D
330
1F
100
AcDbEntity
  8
0部品3
  6
細線
 48
0.3
370
    13
100
AcDbCircle
 10
3270.269179317998
 20
1662.699515108599
 30
0.0
 40
18.8608635
100
AcDbArc
 50
100.5162461480412
 51
173.2729019414003
  0
ARC
  5
2EF6E
330
1F
100
AcDbEntity
  8
0部品3
  6
細線
 48
0.3
370
    13
100
AcDbCircle
 10
3270.269179317998
 20
1662.699515108599
 30
0.0
 40
22.1391365
100
AcDbArc
 50
100.5162461480412
 51
152.5852539591328
  0
LINE
  5
2EF6F
330
1F
100
AcDbEntity
  8
0部品3
  6
細線
 48
0.3
370
    13
100
AcDbLine
 10
3293.696285362676
 20
1685.101480605097
 30
0.0
 11
3293.696285362676
 21
1682.516443517325
 31
0.0
  0
LINE
  5
2F12D
330
1F
100
AcDbEntity
  8
size
100
AcDbLine
 10
3082.157124568729
 20
1846.472276399122
 30
0.0
 11
3082.157124568729
 21
1636.472276399122
 31
0.0
1001
GENIUS_GENREC_14
1002
{
1000
PYDIR
1011
2785.157124568729
1021
1933.472276399122
1031
0.0
1002
}
1002
{
1000
PXDIR
1011
3205.15712456873
1021
1636.472276399122
1031
0.0
1002
}
1002
{
1000
PORI
1011
2785.157124568729
1021
1636.472276399122
1031
0.0
1002
}
1002
{
1000
PINS
1011
2995.157124568729
1021
1784.972276399122
1031
0.0
1002
}
1002
{
1000
HVAL
1000
297
1002
}
1002
{
1000
H
1070
     2
1002
}
1002
{
1000
WVAL
1000
420
1002
}
1002
{
1000
W
1070
     2
1002
}
1002
{
1000
C
1070
     4
1002
}
1001
GENIUS_GENOBJ-N-REC_13
1002
{
1000
OWNER
1000
GEN
1002
}
1001
GENIUS_GENODEF_13
1002
{
1000
HIER
1070
     0
1002
}
1002
{
1000
MANEDIT
1070
     0
1002
}
1002
{
1000
NOSEL
1070
     0
1002
}
1002
{
1000
BEHIND
1070
     0
1002
}
1002
{
1000
OTHER
1070
     0
1002
}
1002
{
1000
REACTOR
1002
}
  0
LINE
  5
2F1ED
330
1F
100
AcDbEntity
  8
AM_0
100
AcDbLine
 10
3367.65712456873
 20
1790.97227639912
 30
0.0
 11
3216.657124568731
 21
1790.972276399118
 31
0.0
  0
LINE
  5
2F1EE
330
1F
100
AcDbEntity
  8
AM_0
100
AcDbLine
 10
3216.657124568731
 20
1837.97227639912
 30
0.0
 11
3216.657124568731
 21
1790.972276399118
 31
0.0
  0
TEXT
  5
2F710
330
1F
100
AcDbEntity
  8
AM_6
100
AcDbText
 10
3097.714124568729
 20
1796.372276399122
 30
0.0
 40
3.2
  1
左右勝手
 41
0.8643907499999999
100
AcDbText
  0
TEXT
  5
2F711
330
1F
100
AcDbEntity
  8
AM_6
100
AcDbText
 10
3116.514124568729
 20
1800.372276399121
 30
0.0
 40
3.2
  1
左右勝手がございますご指示ください。
 41
0.85537027
100
AcDbText
  0
TEXT
  5
2F712
330
1F
100
AcDbEntity
  8
AM_6
100
AcDbText
 10
3116.514124568729
 20
1792.372276399122
 30
0.0
 40
3.2
  1
本図は右勝手を示す。
 41
0.85537027
100
AcDbText
  0
ENDSEC
  0
SECTION
  2
OBJECTS
  0
DICTIONARY
  5
C
330
0
100
AcDbDictionary
281
     1
  3
ACAD_2007HEADERVARS_RT
350
31329
  3
ACAD_BGPLOT_KEY
350
AB06
  3
ACAD_COLOR
350
A91D
  3
ACAD_GROUP
350
D
  3
ACAD_LAYOUT
350
1A
  3
ACAD_MATERIAL
350
A91C
  3
ACAD_MLINESTYLE
350
17
  3
ACAD_PLOTSETTINGS
350
19
  3
ACAD_PLOTSTYLENAME
350
E
  3
ACAD_TABLESTYLE
350
AAB9
  3
ACAD_VISUALSTYLE
350
B0F1
  3
AcAsAppObject
350
3DA1
  3
ACASGREF_MASTER
350
3DE9
  3
AcDbVariableDictionary
350
34
  3
AcmDictionary
350
47
  3
AD_GREF_MODULE
350
3DEA
  3
AD_MAPI_MODULE
350
3E06
  3
AMG
350
2B
  3
AMGSNAPSETTINGS
350
7D
  3
ASE_INDEX_DICTIONARY
350
224C9
  3
DWGPROPS
350
31328
  3
MAPISURF_MODULE
350
3DEB
  0
DICTIONARY
  5
3F95
330
2
100
AcDbDictionary
280
     1
281
     1
  3
ACAD_LAYERFILTERS
360
B466
  3
ACAD_LAYERSTATES
360
3F96
  3
ACLYDICTIONARY
360
B465
  3
AMLAYER_GROUPCOLORS
360
AAB4
  0
DICTIONARY
  5
2F74C
330
2F74B
100
AcDbDictionary
280
     1
281
     1
  3
ADSK_XREC_LAYER_RECONCILED
360
2F74D
  0
DICTIONARY
  5
8A
330
1F
100
AcDbDictionary
280
     1
281
     1
  3
ACAD_SORTENTS
360
B1BA
  0
DICTIONARY
  5
31329
102
{ACAD_REACTORS
330
C
102
}
330
C
100
AcDbDictionary
281
     1
  3
DIMARCSYM
350
3132A
  0
DICTIONARY
  5
AB06
102
{ACAD_REACTORS
330
C
102
}
330
C
100
AcDbDictionary
280
     1
281
     1
  0
DICTIONARY
  5
A91D
102
{ACAD_REACTORS
330
C
102
}
330
C
100
AcDbDictionary
281
     1
  0
DICTIONARY
  5
D
102
{ACAD_REACTORS
330
C
102
}
330
C
100
AcDbDictionary
281
     1
  0
DICTIONARY
  5
1A
102
{ACAD_REACTORS
330
C
102
}
330
C
100
AcDbDictionary
281
     1
  3
Model
350
22
  3
ﾚｲｱｳﾄ1
350
1E
  3
ﾚｲｱｳﾄ2
350
26
  0
DICTIONARY
  5
A91C
102
{ACAD_REACTORS
330
C
102
}
330
C
100
AcDbDictionary
281
     1
  3
ByBlock
350
B0EF
  3
ByLayer
350
B0EE
  3
Global
350
B0F0
  0
DICTIONARY
  5
17
102
{ACAD_REACTORS
330
C
102
}
330
C
100
AcDbDictionary
281
     1
  3
Standard
350
18
  0
DICTIONARY
  5
19
102
{ACAD_REACTORS
330
C
102
}
330
C
100
AcDbDictionary
281
     1
  0
ACDBDICTIONARYWDFLT
  5
E
102
{ACAD_REACTORS
330
C
102
}
330
C
100
AcDbDictionary
281
     1
  3
Normal
350
F
100
AcDbDictionaryWithDefault
340
F
  0
DICTIONARY
  5
AAB9
102
{ACAD_REACTORS
330
C
102
}
330
C
100
AcDbDictionary
281
     1
  3
Standard
350
AABA
  0
DICTIONARY
  5
B0F1
102
{ACAD_REACTORS
330
C
102
}
330
C
100
AcDbDictionary
281
     1
  3
2dWireframe
350
B0F7
  3
3D Hidden
350
B0F9
  3
3dWireframe
350
B0F8
  3
Basic
350
B0F6
  3
Brighten
350
B0FD
  3
ColorChange
350
B101
  3
Conceptual
350
B0FA
  3
Dim
350
B0FC
  3
Facepattern
350
B100
  3
Flat
350
B0F2
  3
FlatWithEdges
350
B0F3
  3
Gouraud
350
B0F4
  3
GouraudWithEdges
350
B0F5
  3
Linepattern
350
B0FF
  3
Realistic
350
B0FB
  3
Thicken
350
B0FE
  0
ACAD_PROXY_OBJECT
  5
3DA1
102
{ACAD_REACTORS
330
C
102
}
330
C
100
AcDbProxyObject
 90
      499
 91
      576
 95
   917527
 70
     0
 93
       10
310
407F
 94
        0
1001
ACAD
1000
AcRTDxfName
1000
ASAPP
  0
ACAD_PROXY_OBJECT
  5
3DE9
102
{ACAD_REACTORS
330
C
102
}
330
C
100
AcDbProxyObject
 90
      499
 91
      581
 95
   917527
 70
     0
 93
       34
310
010000407F
 94
        0
1001
ACAD
1000
AcRTDxfName
1000
ACASGREFMASTER
  0
DICTIONARY
  5
34
102
{ACAD_REACTORS
330
C
102
}
330
C
100
AcDbDictionary
281
     1
  3
CTABLESTYLE
350
AAF3
  3
DIMASSOC
350
A10C
  3
FIELDEVAL
350
AB07
  3
INDEXCTL
350
35
  3
SORTENTS
350
194C
  0
DICTIONARY
  5
47
102
{ACAD_REACTORS
330
C
102
}
330
C
100
AcDbDictionary
281
     1
  3
AcmBOM
350
7E8
  3
AcmStdDictionary
350
4C
  3
AMDTSECTSYM_ARROWCOLOR
350
A929
  0
ACAD_PROXY_OBJECT
  5
3DEA
102
{ACAD_REACTORS
330
C
102
}
330
C
100
AcDbProxyObject
 90
      499
 91
      582
 95
   917527
 70
     0
 93
      114
310
00000043800000000000000000003F
 94
        0
1001
ACAD
1000
AcRTDxfName
1000
ACADGREFMODULE
  0
ACAD_PROXY_OBJECT
  5
3E06
102
{ACAD_REACTORS
330
C
102
}
330
C
100
AcDbProxyObject
 90
      499
 91
      594
 95
   917527
 70
     0
 93
       34
310
05000044FF
 94
        0
1001
ACAD
1000
AcRTDxfName
1000
MAPIADMODULE
  0
DICTIONARY
  5
2B
102
{ACAD_REACTORS
330
C
102
}
330
C
100
AcDbDictionary
281
     1
  0
DICTIONARY
  5
7D
102
{ACAD_REACTORS
330
C
102
}
330
C
100
AcDbDictionary
281
     1
  0
DICTIONARY
  5
224C9
102
{ACAD_REACTORS
330
C
102
}
330
C
100
AcDbDictionary
281
     1
  3
ASEBlockHierarchyIndexRecord
350
224CA
1001
DCO15
1040
1737265970.928
  0
XRECORD
  5
31328
102
{ACAD_REACTORS
330
C
102
}
330
C
100
AcDbXrecord
280
     1
  1
DWGPROPS COOKIE
  2

  3

  4

  6

  7

  8
Administrator
  9

300
AmdtFileType=84
301
=
302
=
303
=
304
=
305
=
306
=
307
=
308
=
309
=
 40
1.086021585648148
 41
2455567.680725081
 42
2456268.705695439
  1

 90
        1
  0
ACAD_PROXY_OBJECT
  5
3DEB
102
{ACAD_REACTORS
330
C
102
}
330
C
100
AcDbProxyObject
 90
      499
 91
      583
 95
   917527
 70
     0
 93
        8
310
047E
 94
        0
1001
ACAD
1000
AcRTDxfName
1000
AMDTMAPISURFMOUDULE
  0
DICTIONARY
  5
B466
102
{ACAD_REACTORS
330
3F95
102
}
330
3F95
100
AcDbDictionary
281
     1
  0
DICTIONARY
  5
3F96
102
{ACAD_REACTORS
330
3F95
102
}
330
3F95
100
AcDbDictionary
281
     1
  3
20011210
350
3FB7
  0
DICTIONARY
  5
B465
102
{ACAD_REACTORS
330
3F95
102
}
330
3F95
100
AcDbDictionary
281
     1
1001
ACAD
1000
<All
  0
DICTIONARY
  5
AAB4
102
{ACAD_REACTORS
330
3F95
102
}
330
3F95
100
AcDbDictionary
280
     1
281
     1
  0
XRECORD
  5
2F74D
102
{ACAD_REACTORS
330
2F74C
102
}
330
2F74C
100
AcDbXrecord
280
     1
290
     1
  0
SORTENTSTABLE
  5
B1BA
102
{ACAD_REACTORS
330
8A
102
}
330
8A
100
AcDbSortentsTable
330
1F
  0
XRECORD
  5
3132A
102
{ACAD_REACTORS
330
31329
102
}
330
31329
100
AcDbXrecord
280
     1
 70
     1
  0
LAYOUT
  5
22
102
{ACAD_XDICTIONARY
360
3132D
102
}
102
{ACAD_REACTORS
330
1A
102
}
330
1A
100
AcDbPlotSettings
  1

  2
FX DocuWide 2050/2051
  4
A3
  6
AM_VIEW1
 40
3.174999952316284
 41
3.174999952316284
 42
3.17498779296875
 43
3.17498779296875
 44
296.989501953125
 45
419.9889831542968
 46
0.0
 47
1.295841228961961
 48
214.3704939521119
 49
367.5855324241176
140
275.6727856380065
141
407.629191407817
142
1.0
143
0.7225445603030646
 70
  3764
 72
     1
 73
     1
 74
     2
  7
monochrome.ctb
 75
     0
147
1.383997686703999
148
-1700.85588156276
149
-1647.985052086429
100
AcDbLayout
  1
Model
 70
     1
 71
     0
 10
0.0
 20
0.0
 11
12.0
 21
9.0
 12
0.0
 22
0.0
 32
0.0
 14
0.0
 24
0.0
 34
0.0
 15
0.0
 25
0.0
 35
0.0
146
0.0
 13
0.0
 23
0.0
 33
0.0
 16
1.0
 26
0.0
 36
0.0
 17
0.0
 27
1.0
 37
0.0
 76
     0
330
1F
331
B0EC
1001
ACAD_PSEXT
1000
FX DocuWide 2050/2051
1000
FX DocuWide 2050/2051
1000
IP_192.200.15.252
1000

1070
     0
  0
LAYOUT
  5
1E
102
{ACAD_XDICTIONARY
360
3132B
102
}
102
{ACAD_REACTORS
330
1A
102
}
330
1A
100
AcDbPlotSettings
  1

  2
\\ML370\XEROX
  4
A4
  6

 40
3.174999952316284
 41
3.174999952316284
 42
3.175003051757812
 43
3.17498779296875
 44
209.8674926757813
 45
296.6719970703125
 46
0.0
 47
0.0
 48
0.0
 49
0.0
140
0.0
141
0.0
142
1.0
143
1.0
 70
   688
 72
     1
 73
     1
 74
     5
  7
monochrome.ctb
 75
    16
147
1.0
148
0.0
149
0.0
100
AcDbLayout
  1
ﾚｲｱｳﾄ1
 70
     1
 71
     1
 10
-3.17498779296875
 20
-3.174999952316284
 11
293.4970092773438
 21
206.692492723465
 12
0.0
 22
0.0
 32
0.0
 14
1.000000000000000E+20
 24
1.000000000000000E+20
 34
1.000000000000000E+20
 15
-1.000000000000000E+20
 25
-1.000000000000000E+20
 35
-1.000000000000000E+20
146
0.0
 13
0.0
 23
0.0
 33
0.0
 16
1.0
 26
0.0
 36
0.0
 17
0.0
 27
1.0
 37
0.0
 76
     0
330
1B
  0
LAYOUT
  5
26
102
{ACAD_XDICTIONARY
360
3132F
102
}
102
{ACAD_REACTORS
330
1A
102
}
330
1A
100
AcDbPlotSettings
  1

  2
\\ML370\XEROX
  4

  6

 40
0.0
 41
0.0
 42
0.0
 43
0.0
 44
0.0
 45
0.0
 46
0.0
 47
0.0
 48
0.0
 49
0.0
140
0.0
141
0.0
142
1.0
143
1.0
 70
   688
 72
     0
 73
     0
 74
     5
  7
monochrome.ctb
 75
    16
147
1.0
148
0.0
149
0.0
100
AcDbLayout
  1
ﾚｲｱｳﾄ2
 70
     1
 71
     2
 10
0.0
 20
0.0
 11
12.0
 21
9.0
 12
0.0
 22
0.0
 32
0.0
 14
0.0
 24
0.0
 34
0.0
 15
0.0
 25
0.0
 35
0.0
146
0.0
 13
0.0
 23
0.0
 33
0.0
 16
1.0
 26
0.0
 36
0.0
 17
0.0
 27
1.0
 37
0.0
 76
     0
330
23
  0
MATERIAL
  5
B0EF
102
{ACAD_XDICTIONARY
360
31335
102
}
102
{ACAD_REACTORS
330
A91C
102
}
330
A91C
100
AcDbMaterial
  1
ByBlock
  0
MATERIAL
  5
B0EE
102
{ACAD_XDICTIONARY
360
31333
102
}
102
{ACAD_REACTORS
330
A91C
102
}
330
A91C
100
AcDbMaterial
  1
ByLayer
  0
MATERIAL
  5
B0F0
102
{ACAD_XDICTIONARY
360
31337
102
}
102
{ACAD_REACTORS
330
A91C
102
}
330
A91C
100
AcDbMaterial
  1
Global
  0
MLINESTYLE
  5
18
102
{ACAD_REACTORS
330
17
102
}
330
17
100
AcDbMlineStyle
  2
STANDARD
 70
     0
  3

 62
   256
 51
90.0
 52
90.0
 71
     2
 49
0.5
 62
   256
  6
BYLAYER
 49
-0.5
 62
   256
  6
BYLAYER
  0
ACDBPLACEHOLDER
  5
F
102
{ACAD_REACTORS
330
E
102
}
330
E
  0
TABLESTYLE
  5
AABA
102
{ACAD_XDICTIONARY
360
31331
102
}
102
{ACAD_REACTORS
330
AAB9
102
}
330
AAB9
100
AcDbTableStyle
  3
Standard
 70
     0
 71
     0
 40
1.5
 41
1.5
280
     0
281
     0
  7
STANDARD
140
4.5
170
     2
 62
     0
 63
     7
283
     0
274
    -2
284
     1
 64
     0
275
    -2
285
     1
 65
     0
276
    -2
286
     1
 66
     0
277
    -2
287
     1
 67
     0
278
    -2
288
     1
 68
     0
279
    -2
289
     1
 69
     0
  7
STANDARD
140
6.0
170
     5
 62
     0
 63
     7
283
     0
274
    -2
284
     1
 64
     0
275
    -2
285
     1
 65
     0
276
    -2
286
     1
 66
     0
277
    -2
287
     1
 67
     0
278
    -2
288
     1
 68
     0
279
    -2
289
     1
 69
     0
  7
STANDARD
140
4.5
170
     5
 62
     0
 63
     7
283
     0
274
    -2
284
     1
 64
     0
275
    -2
285
     1
 65
     0
276
    -2
286
     1
 66
     0
277
    -2
287
     1
 67
     0
278
    -2
288
     1
 68
     0
279
    -2
289
     1
 69
     0
  0
VISUALSTYLE
  5
B0F7
102
{ACAD_REACTORS
330
B0F1
102
}
330
B0F1
100
AcDbVisualStyle
  2
2dWireframe
 70
     4
 71
     0
 72
     2
 73
     0
 90
        0
 40
-0.6
 41
-30.0
 62
     5
 63
     7
 74
     1
 91
        4
 64
     7
 65
   257
 75
     1
175
     1
 42
1.0
 92
        0
 66
   257
 43
1.0
 76
     1
 77
     6
 78
     2
 67
     7
 79
     5
170
     0
171
     0
290
     0
174
     0
 93
        1
 44
0.0
173
     0
291
     0
 45
0.0
1001
ACAD
1000
AcDbSavedByObjectVersion
1070
     0
  0
VISUALSTYLE
  5
B0F9
102
{ACAD_REACTORS
330
B0F1
102
}
330
B0F1
100
AcDbVisualStyle
  2
3D Hidden
 70
     6
 71
     1
 72
     2
 73
     2
 90
        0
 40
-0.6
 41
-30.0
 62
     5
 63
     7
 74
     2
 91
        2
 64
     7
 65
   257
 75
     2
175
     1
 42
40.0
 92
        0
 66
   257
 43
1.0
 76
     1
 77
     6
 78
     2
 67
     7
 79
     3
170
     0
171
     0
290
     0
174
     0
 93
        1
 44
0.0
173
     0
291
     0
 45
0.0
1001
ACAD
1000
AcDbSavedByObjectVersion
1070
     0
  0
VISUALSTYLE
  5
B0F8
102
{ACAD_REACTORS
330
B0F1
102
}
330
B0F1
100
AcDbVisualStyle
  2
3dWireframe
 70
     5
 71
     0
 72
     2
 73
     0
 90
        0
 40
-0.6
 41
-30.0
 62
     5
 63
     7
 74
     1
 91
        4
 64
     7
 65
   257
 75
     1
175
     1
 42
1.0
 92
        0
 66
   257
 43
1.0
 76
     1
 77
     6
 78
     2
 67
     7
 79
     5
170
     0
171
     0
290
     0
174
     0
 93
        1
 44
0.0
173
     0
291
     0
 45
0.0
1001
ACAD
1000
AcDbSavedByObjectVersion
1070
     0
  0
VISUALSTYLE
  5
B0F6
102
{ACAD_REACTORS
330
B0F1
102
}
330
B0F1
100
AcDbVisualStyle
  2
Basic
 70
     7
 71
     1
 72
     0
 73
     1
 90
        0
 40
-0.6
 41
-30.0
 62
     5
 63
     7
 74
     0
 91
        4
 64
     7
 65
   257
 75
     1
175
     1
 42
1.0
 92
        8
 66
     7
 43
1.0
 76
     1
 77
     6
 78
     2
 67
     7
 79
     5
170
     0
171
     0
290
     0
174
     0
 93
        1
 44
0.0
173
     0
291
     1
 45
0.0
1001
ACAD
1000
AcDbSavedByObjectVersion
1070
     0
  0
VISUALSTYLE
  5
B0FD
102
{ACAD_REACTORS
330
B0F1
102
}
330
B0F1
100
AcDbVisualStyle
  2
Brighten
 70
    12
 71
     2
 72
     2
 73
     0
 90
        0
 40
-0.6
 41
-30.0
 62
     5
 63
     7
 74
     1
 91
        4
 64
     7
 65
   257
 75
     1
175
     1
 42
1.0
 92
        8
 66
     7
 43
1.0
 76
     1
 77
     6
 78
     2
 67
     7
 79
     5
170
     0
171
     0
290
     0
174
     0
 93
        1
 44
50.0
173
     0
291
     1
 45
0.0
1001
ACAD
1000
AcDbSavedByObjectVersion
1070
     0
  0
VISUALSTYLE
  5
B101
102
{ACAD_REACTORS
330
B0F1
102
}
330
B0F1
100
AcDbVisualStyle
  2
ColorChange
 70
    16
 71
     2
 72
     2
 73
     3
 90
        0
 40
-0.6
 41
-30.0
 62
     5
 63
     8
 74
     1
 91
        4
 64
     7
 65
   257
 75
     1
175
     1
 42
1.0
 92
        8
 66
     8
 43
1.0
 76
     1
 77
     6
 78
     2
 67
     7
 79
     5
170
     0
171
     0
290
     0
174
     0
 93
        1
 44
0.0
173
     0
291
     1
 45
0.0
1001
ACAD
1000
AcDbSavedByObjectVersion
1070
     0
  0
VISUALSTYLE
  5
B0FA
102
{ACAD_REACTORS
330
B0F1
102
}
330
B0F1
100
AcDbVisualStyle
  2
Conceptual
 70
     9
 71
     3
 72
     2
 73
     0
 90
        0
 40
-0.6
 41
-30.0
 62
     5
 63
     7
 74
     2
 91
        2
 64
     7
 65
   257
 75
     1
175
     1
 42
40.0
 92
        8
 66
     7
 43
1.0
 76
     1
 77
     6
 78
     2
 67
     7
 79
     3
170
     0
171
     0
290
     0
174
     0
 93
        1
 44
0.0
173
     0
291
     0
 45
0.0
1001
ACAD
1000
AcDbSavedByObjectVersion
1070
     0
  0
VISUALSTYLE
  5
B0FC
102
{ACAD_REACTORS
330
B0F1
102
}
330
B0F1
100
AcDbVisualStyle
  2
Dim
 70
    11
 71
     2
 72
     2
 73
     0
 90
        0
 40
-0.6
 41
-30.0
 62
     5
 63
     7
 74
     1
 91
        4
 64
     7
 65
   257
 75
     1
175
     1
 42
1.0
 92
        8
 66
     7
 43
1.0
 76
     1
 77
     6
 78
     2
 67
     7
 79
     5
170
     0
171
     0
290
     0
174
     0
 93
        1
 44
-50.0
173
     0
291
     1
 45
0.0
1001
ACAD
1000
AcDbSavedByObjectVersion
1070
     0
  0
VISUALSTYLE
  5
B100
102
{ACAD_REACTORS
330
B0F1
102
}
330
B0F1
100
AcDbVisualStyle
  2
Facepattern
 70
    15
 71
     2
 72
     2
 73
     0
 90
        0
 40
-0.6
 41
-30.0
 62
     5
 63
     7
 74
     1
 91
        4
 64
     7
 65
   257
 75
     1
175
     1
 42
1.0
 92
        8
 66
     7
 43
1.0
 76
     1
 77
     6
 78
     2
 67
     7
 79
     5
170
     0
171
     0
290
     0
174
     0
 93
        1
 44
0.0
173
     0
291
     1
 45
0.0
1001
ACAD
1000
AcDbSavedByObjectVersion
1070
     0
  0
VISUALSTYLE
  5
B0F2
102
{ACAD_REACTORS
330
B0F1
102
}
330
B0F1
100
AcDbVisualStyle
  2
Flat
 70
     0
 71
     2
 72
     1
 73
     1
 90
        2
 40
-0.6
 41
30.0
 62
     5
 63
     7
 74
     0
 91
        4
 64
     7
 65
   257
 75
     1
175
     1
 42
1.0
 92
        8
 66
     7
 43
1.0
 76
     1
 77
     6
 78
     2
 67
     7
 79
     5
170
     0
171
     0
290
     0
174
     0
 93
       13
 44
0.0
173
     0
291
     1
 45
0.0
1001
ACAD
1000
AcDbSavedByObjectVersion
1070
     0
  0
VISUALSTYLE
  5
B0F3
102
{ACAD_REACTORS
330
B0F1
102
}
330
B0F1
100
AcDbVisualStyle
  2
FlatWithEdges
 70
     1
 71
     2
 72
     1
 73
     1
 90
        2
 40
-0.6
 41
30.0
 62
     5
 63
     7
 74
     1
 91
        4
 64
     7
 65
   257
 75
     1
175
     1
 42
1.0
 92
        0
 66
   257
 43
1.0
 76
     1
 77
     6
 78
     2
 67
     7
 79
     5
170
     0
171
     0
290
     0
174
     0
 93
       13
 44
0.0
173
     0
291
     1
 45
0.0
1001
ACAD
1000
AcDbSavedByObjectVersion
1070
     0
  0
VISUALSTYLE
  5
B0F4
102
{ACAD_REACTORS
330
B0F1
102
}
330
B0F1
100
AcDbVisualStyle
  2
Gouraud
 70
     2
 71
     2
 72
     2
 73
     1
 90
        2
 40
-0.6
 41
30.0
 62
     5
 63
     7
 74
     0
 91
        4
 64
     7
 65
   257
 75
     1
175
     1
 42
1.0
 92
        0
 66
     7
 43
1.0
 76
     1
 77
     6
 78
     2
 67
     7
 79
     5
170
     0
171
     0
290
     0
174
     0
 93
       13
 44
0.0
173
     0
291
     1
 45
0.0
1001
ACAD
1000
AcDbSavedByObjectVersion
1070
     0
  0
VISUALSTYLE
  5
B0F5
102
{ACAD_REACTORS
330
B0F1
102
}
330
B0F1
100
AcDbVisualStyle
  2
GouraudWithEdges
 70
     3
 71
     2
 72
     2
 73
     1
 90
        2
 40
-0.6
 41
30.0
 62
     5
 63
     7
 74
     1
 91
        4
 64
     7
 65
   257
 75
     1
175
     1
 42
1.0
 92
        0
 66
   257
 43
1.0
 76
     1
 77
     6
 78
     2
 67
     7
 79
     5
170
     0
171
     0
290
     0
174
     0
 93
       13
 44
0.0
173
     0
291
     1
 45
0.0
1001
ACAD
1000
AcDbSavedByObjectVersion
1070
     0
  0
VISUALSTYLE
  5
B0FF
102
{ACAD_REACTORS
330
B0F1
102
}
330
B0F1
100
AcDbVisualStyle
  2
Linepattern
 70
    14
 71
     2
 72
     2
 73
     0
 90
        0
 40
-0.6
 41
-30.0
 62
     5
 63
     7
 74
     1
 91
        4
 64
     7
 65
   257
 75
     7
175
     7
 42
1.0
 92
        8
 66
     7
 43
1.0
 76
     1
 77
     6
 78
     2
 67
     7
 79
     5
170
     0
171
     0
290
     0
174
     0
 93
        1
 44
0.0
173
     0
291
     1
 45
0.0
1001
ACAD
1000
AcDbSavedByObjectVersion
1070
     0
  0
VISUALSTYLE
  5
B0FB
102
{ACAD_REACTORS
330
B0F1
102
}
330
B0F1
100
AcDbVisualStyle
  2
Realistic
 70
     8
 71
     2
 72
     2
 73
     0
 90
        0
 40
-0.6
 41
-30.0
 62
     5
 63
     7
 74
     1
 91
        0
 64
     7
 65
   257
 75
     1
175
     1
 42
1.0
 92
        8
 66
     8
 43
1.0
 76
     1
 77
     6
 78
     2
 67
     7
 79
     5
170
     0
171
     0
290
     0
174
     0
 93
       13
 44
0.0
173
     0
291
     0
 45
0.0
1001
ACAD
1000
AcDbSavedByObjectVersion
1070
     0
  0
VISUALSTYLE
  5
B0FE
102
{ACAD_REACTORS
330
B0F1
102
}
330
B0F1
100
AcDbVisualStyle
  2
Thicken
 70
    13
 71
     2
 72
     2
 73
     0
 90
        0
 40
-0.6
 41
-30.0
 62
     5
 63
     7
 74
     1
 91
        4
 64
     7
 65
   257
 75
     1
175
     1
 42
1.0
 92
       12
 66
     7
 43
1.0
 76
     1
 77
     6
 78
     2
 67
     7
 79
     5
170
     0
171
     0
290
     0
174
     0
 93
        1
 44
0.0
173
     0
291
     1
 45
0.0
1001
ACAD
1000
AcDbSavedByObjectVersion
1070
     0
  0
DICTIONARYVAR
  5
AAF3
102
{ACAD_REACTORS
330
34
102
}
330
34
100
DictionaryVariables
280
     0
  1
STANDARD
  0
DICTIONARYVAR
  5
A10C
102
{ACAD_REACTORS
330
34
102
}
330
34
100
DictionaryVariables
280
     0
  1
1
  0
DICTIONARYVAR
  5
AB07
102
{ACAD_REACTORS
330
34
102
}
330
34
100
DictionaryVariables
280
     0
  1
4
  0
DICTIONARYVAR
  5
35
102
{ACAD_REACTORS
330
34
102
}
330
34
100
DictionaryVariables
280
     0
  1
0
  0
DICTIONARYVAR
  5
194C
102
{ACAD_REACTORS
330
34
102
}
330
34
100
DictionaryVariables
280
     0
  1
127
  0
DICTIONARY
  5
7E8
102
{ACAD_REACTORS
330
47
102
}
330
47
100
AcDbDictionary
281
     1
  0
DICTIONARY
  5
4C
102
{ACAD_REACTORS
330
47
102
}
330
47
100
AcDbDictionary
281
     1
  0
XRECORD
  5
A929
102
{ACAD_REACTORS
330
47
102
}
330
47
100
AcDbXrecord
280
     1
 90
-1023410169
  0
XRECORD
  5
224CA
102
{ACAD_REACTORS
330
224C9
102
}
330
224C9
100
AcDbXrecord
280
     1
330
0
330
0
330
0
330
0
330
0
330
0
  0
XRECORD
  5
3FB7
102
{ACAD_REACTORS
330
3F96
102
}
330
3F96
100
AcDbXrecord
280
     1
 91
        3
330
0
 90
        8
 62
     7
370
    40
331
16
  1
Color_7
330
0
 90
        0
 62
    14
370
    -3
331
16
  1
Color_14
330
0
 90
        8
 62
     7
370
    20
331
16
  1
Color_7
330
6D1
 90
        0
 62
     7
370
    -3
331
16
  1
Color_7
330
0
 90
        8
 62
     7
370
    50
331
16
  1
Color_7
330
0
 90
        8
 62
     2
370
    35
331
16
  1
Color_2
330
0
 90
        8
 62
     7
370
    -3
331
16
  1
Color_7
330
10
 90
        8
 62
     7
370
    -3
331
16
  1
Color_7
  0
DICTIONARY
  5
3132D
330
22
100
AcDbDictionary
280
     1
281
     1
  3
ACAD_XREC_ROUNDTRIP
360
3132E
  0
DICTIONARY
  5
3132B
330
1E
100
AcDbDictionary
280
     1
281
     1
  3
ACAD_XREC_ROUNDTRIP
360
3132C
  0
DICTIONARY
  5
3132F
330
26
100
AcDbDictionary
280
     1
281
     1
  3
ACAD_XREC_ROUNDTRIP
360
31330
  0
DICTIONARY
  5
31335
330
B0EF
100
AcDbDictionary
280
     1
281
     1
  3
ACAD_XREC_ROUNDTRIP
360
31336
  0
DICTIONARY
  5
31333
330
B0EE
100
AcDbDictionary
280
     1
281
     1
  3
ACAD_XREC_ROUNDTRIP
360
31334
  0
DICTIONARY
  5
31337
330
B0F0
100
AcDbDictionary
280
     1
281
     1
  3
ACAD_XREC_ROUNDTRIP
360
31338
  0
DICTIONARY
  5
31331
330
AABA
100
AcDbDictionary
280
     1
281
     1
  3
ACAD_XREC_ROUNDTRIP
360
31332
  0
XRECORD
  5
3132E
102
{ACAD_REACTORS
330
3132D
102
}
330
3132D
100
AcDbXrecord
280
     1
102
SHADEPLOT
 70
     0
102
SHADEPLOTRESLEVEL
 70
     2
102
SHADEPLOTCUSTOMDPI
 70
   200
  0
XRECORD
  5
3132C
102
{ACAD_REACTORS
330
3132B
102
}
330
3132B
100
AcDbXrecord
280
     1
102
SHADEPLOT
 70
     0
102
SHADEPLOTRESLEVEL
 70
     2
102
SHADEPLOTCUSTOMDPI
 70
   300
  0
XRECORD
  5
31330
102
{ACAD_REACTORS
330
3132F
102
}
330
3132F
100
AcDbXrecord
280
     1
102
SHADEPLOT
 70
     0
102
SHADEPLOTRESLEVEL
 70
     2
102
SHADEPLOTCUSTOMDPI
 70
   300
  0
XRECORD
  5
31336
102
{ACAD_REACTORS
330
31335
102
}
330
31335
100
AcDbXrecord
280
     1
102
MATERIAL
148
0.0
149
0.0
149
0.0
 93
        0
 94
       63
282
     0
 72
     1
 77
     1
171
     1
175
     1
179
     1
273
     0
  0
XRECORD
  5
31334
102
{ACAD_REACTORS
330
31333
102
}
330
31333
100
AcDbXrecord
280
     1
102
MATERIAL
148
0.0
149
0.0
149
0.0
 93
        0
 94
       63
282
     0
 72
     1
 77
     1
171
     1
175
     1
179
     1
273
     0
  0
XRECORD
  5
31338
102
{ACAD_REACTORS
330
31337
102
}
330
31337
100
AcDbXrecord
280
     1
102
MATERIAL
148
0.0
149
0.0
149
0.0
 93
        0
 94
       63
282
     0
 72
     1
 77
     1
171
     1
175
     1
179
     1
273
     0
  0
XRECORD
  5
31332
102
{ACAD_REACTORS
330
31331
102
}
330
31331
100
AcDbXrecord
280
     1
102
ACAD_ROUNDTRIP_PRE2007_TABLESTYLE
 90
        4
 91
        0
  1

 92
        4
 93
        0
  2

 94
        4
 95
        0
  3

  0
ENDSEC
  0
EOF
