  0
SECTION
  2
HEADER
  9
$ACADVER
  1
AC1015
  9
$ACADMAINTVER
 70
    20
  9
$DWGCODEPAGE
  3
ANSI_932
  9
$INSBASE
 10
0.0
 20
0.0
 30
0.0
  9
$EXTMIN
 10
-0.1219320031609641
 20
-0.1133954862984865
 30
-0.0000000349181948
  9
$EXTMAX
 10
420.124705119721
 20
297.0099780802839
 30
0.0000000814935746
  9
$LIMMIN
 10
1700.85588156276
 20
1647.985052086429
  9
$LIMMAX
 10
1997.85588156276
 20
1857.985052086429
  9
$ORTHOMODE
 70
     0
  9
$REGENMODE
 70
     1
  9
$FILLMODE
 70
     1
  9
$QTEXTMODE
 70
     0
  9
$MIRRTEXT
 70
     0
  9
$LTSCALE
 40
1.0
  9
$ATTMODE
 70
     1
  9
$TEXTSIZE
 40
3.2
  9
$TRACEWID
 40
1.0
  9
$TEXTSTYLE
  7
STANDARD
  9
$CLAYER
  8
AM_0
  9
$CELTYPE
  6
ByLayer
  9
$CECOLOR
 62
   256
  9
$CELTSCALE
 40
1.0
  9
$DISPSILH
 70
     0
  9
$DIMSCALE
 40
1.0
  9
$DIMASZ
 40
1.0
  9
$DIMEXO
 40
1.0
  9
$DIMDLI
 40
10.0
  9
$DIMRND
 40
0.0
  9
$DIMDLE
 40
0.0
  9
$DIMEXE
 40
1.0
  9
$DIMTP
 40
0.1
  9
$DIMTM
 40
0.1
  9
$DIMTXT
 40
3.5
  9
$DIMCEN
 40
0.0
  9
$DIMTSZ
 40
0.0
  9
$DIMTOL
 70
     0
  9
$DIMLIM
 70
     0
  9
$DIMTIH
 70
     0
  9
$DIMTOH
 70
     0
  9
$DIMSE1
 70
     0
  9
$DIMSE2
 70
     0
  9
$DIMTAD
 70
     1
  9
$DIMZIN
 70
     8
  9
$DIMBLK
  1

  9
$DIMASO
 70
     1
  9
$DIMSHO
 70
     1
  9
$DIMPOST
  1

  9
$DIMAPOST
  1
"
  9
$DIMALT
 70
     0
  9
$DIMALTD
 70
     2
  9
$DIMALTF
 40
0.0393701
  9
$DIMLFAC
 40
1.0
  9
$DIMTOFL
 70
     1
  9
$DIMTVP
 40
0.0
  9
$DIMTIX
 70
     0
  9
$DIMSOXD
 70
     0
  9
$DIMSAH
 70
     0
  9
$DIMBLK1
  1

  9
$DIMBLK2
  1

  9
$DIMSTYLE
  2
SYS
  9
$DIMCLRD
 70
   256
  9
$DIMCLRE
 70
   256
  9
$DIMCLRT
 70
     7
  9
$DIMTFAC
 40
0.71
  9
$DIMGAP
 40
1.5
  9
$DIMJUST
 70
     0
  9
$DIMSD1
 70
     0
  9
$DIMSD2
 70
     0
  9
$DIMTOLJ
 70
     0
  9
$DIMTZIN
 70
     8
  9
$DIMALTZ
 70
     0
  9
$DIMALTTZ
 70
     0
  9
$DIMUPT
 70
     0
  9
$DIMDEC
 70
     2
  9
$DIMTDEC
 70
     2
  9
$DIMALTU
 70
     2
  9
$DIMALTTD
 70
     2
  9
$DIMTXSTY
  7
STANDARD
  9
$DIMAUNIT
 70
     0
  9
$DIMADEC
 70
     0
  9
$DIMALTRND
 40
0.0
  9
$DIMAZIN
 70
     2
  9
$DIMDSEP
 70
    46
  9
$DIMATFIT
 70
     3
  9
$DIMFRAC
 70
     0
  9
$DIMLDRBLK
  1

  9
$DIMLUNIT
 70
     2
  9
$DIMLWD
 70
    -1
  9
$DIMLWE
 70
    -1
  9
$DIMTMOVE
 70
     0
  9
$LUNITS
 70
     2
  9
$LUPREC
 70
     2
  9
$SKETCHINC
 40
1.0
  9
$FILLETRAD
 40
0.0
  9
$AUNITS
 70
     0
  9
$AUPREC
 70
     0
  9
$MENU
  1
.
  9
$ELEVATION
 40
0.0
  9
$PELEVATION
 40
0.0
  9
$THICKNESS
 40
0.0
  9
$LIMCHECK
 70
     0
  9
$CHAMFERA
 40
0.0
  9
$CHAMFERB
 40
0.0
  9
$CHAMFERC
 40
20.0
  9
$CHAMFERD
 40
0.0
  9
$SKPOLY
 70
     0
  9
$TDCREATE
 40
2456036.773316875
  9
$TDUCREATE
 40
2456036.398316875
  9
$TDUPDATE
 40
2456267.492276655
  9
$TDUUPDATE
 40
2456267.117276655
  9
$TDINDWG
 40
0.0475164699
  9
$TDUSRTIMER
 40
0.0475162847
  9
$USRTIMER
 70
     1
  9
$ANGBASE
 50
0.0
  9
$ANGDIR
 70
     0
  9
$PDMODE
 70
     0
  9
$PDSIZE
 40
-3.0
  9
$PLINEWID
 40
0.0
  9
$SPLFRAME
 70
     0
  9
$SPLINETYPE
 70
     6
  9
$SPLINESEGS
 70
     8
  9
$HANDSEED
  5
E40B
  9
$SURFTAB1
 70
     6
  9
$SURFTAB2
 70
     6
  9
$SURFTYPE
 70
     6
  9
$SURFU
 70
     6
  9
$SURFV
 70
     6
  9
$UCSBASE
  2

  9
$UCSNAME
  2

  9
$UCSORG
 10
0.0
 20
0.0
 30
0.0
  9
$UCSXDIR
 10
1.0
 20
0.0
 30
0.0
  9
$UCSYDIR
 10
0.0
 20
1.0
 30
0.0
  9
$UCSORTHOREF
  2

  9
$UCSORTHOVIEW
 70
     0
  9
$UCSORGTOP
 10
0.0
 20
0.0
 30
0.0
  9
$UCSORGBOTTOM
 10
0.0
 20
0.0
 30
0.0
  9
$UCSORGLEFT
 10
0.0
 20
0.0
 30
0.0
  9
$UCSORGRIGHT
 10
0.0
 20
0.0
 30
0.0
  9
$UCSORGFRONT
 10
0.0
 20
0.0
 30
0.0
  9
$UCSORGBACK
 10
0.0
 20
0.0
 30
0.0
  9
$PUCSBASE
  2

  9
$PUCSNAME
  2

  9
$PUCSORG
 10
0.0
 20
0.0
 30
0.0
  9
$PUCSXDIR
 10
1.0
 20
0.0
 30
0.0
  9
$PUCSYDIR
 10
0.0
 20
1.0
 30
0.0
  9
$PUCSORTHOREF
  2

  9
$PUCSORTHOVIEW
 70
     0
  9
$PUCSORGTOP
 10
0.0
 20
0.0
 30
0.0
  9
$PUCSORGBOTTOM
 10
0.0
 20
0.0
 30
0.0
  9
$PUCSORGLEFT
 10
0.0
 20
0.0
 30
0.0
  9
$PUCSORGRIGHT
 10
0.0
 20
0.0
 30
0.0
  9
$PUCSORGFRONT
 10
0.0
 20
0.0
 30
0.0
  9
$PUCSORGBACK
 10
0.0
 20
0.0
 30
0.0
  9
$USERI1
 70
     0
  9
$USERI2
 70
     0
  9
$USERI3
 70
     0
  9
$USERI4
 70
     0
  9
$USERI5
 70
     0
  9
$USERR1
 40
0.0
  9
$USERR2
 40
0.0
  9
$USERR3
 40
0.0
  9
$USERR4
 40
0.0
  9
$USERR5
 40
0.0
  9
$WORLDVIEW
 70
     1
  9
$SHADEDGE
 70
     3
  9
$SHADEDIF
 70
    70
  9
$TILEMODE
 70
     1
  9
$MAXACTVP
 70
    64
  9
$PINSBASE
 10
0.0
 20
0.0
 30
0.0
  9
$PLIMCHECK
 70
     0
  9
$PEXTMIN
 10
1.000000000000000E+20
 20
1.000000000000000E+20
 30
1.000000000000000E+20
  9
$PEXTMAX
 10
-1.000000000000000E+20
 20
-1.000000000000000E+20
 30
-1.000000000000000E+20
  9
$PLIMMIN
 10
-3.17498779296875
 20
-3.174999952316284
  9
$PLIMMAX
 10
293.4970092773438
 20
206.692492723465
  9
$UNITMODE
 70
     0
  9
$VISRETAIN
 70
     1
  9
$PLINEGEN
 70
     0
  9
$PSLTSCALE
 70
     1
  9
$TREEDEPTH
 70
  3020
  9
$CMLSTYLE
  2
Standard
  9
$CMLJUST
 70
     0
  9
$CMLSCALE
 40
20.0
  9
$PROXYGRAPHICS
 70
     1
  9
$MEASUREMENT
 70
     1
  9
$CELWEIGHT
370
    -1
  9
$ENDCAPS
280
     0
  9
$JOINSTYLE
280
     0
  9
$LWDISPLAY
290
     1
  9
$INSUNITS
 70
     4
  9
$HYPERLINKBASE
  1

  9
$STYLESHEET
  1
monochrome.ctb
  9
$XEDIT
290
     1
  9
$CEPSNTYPE
380
     0
  9
$PSTYLEMODE
290
     1
  9
$FINGERPRINTGUID
  2
{312026A1-F5E2-4C8D-8BD0-183B6BD79D4A}
  9
$VERSIONGUID
  2
{4B87BA8B-E810-4C23-B224-01AEAAB02A0D}
  9
$EXTNAMES
290
     1
  9
$PSVPSCALE
 40
0.0
  9
$OLESTARTUP
290
     0
  0
ENDSEC
  0
SECTION
  2
CLASSES
  0
CLASS
  1
ACDBDICTIONARYWDFLT
  2
AcDbDictionaryWithDefault
  3
ObjectDBX Classes
 90
        0
280
     0
281
     0
  0
CLASS
  1
ACDBPLACEHOLDER
  2
AcDbPlaceHolder
  3
ObjectDBX Classes
 90
        0
280
     0
281
     0
  0
CLASS
  1
LAYOUT
  2
AcDbLayout
  3
ObjectDBX Classes
 90
        0
280
     0
281
     0
  0
CLASS
  1
AMGSETTINGSOBJ
  2
AmgSettingsObj
  3
"AcadM|Product Description: AutoCAD Mechanical|Company: Autodesk"
 90
        0
280
     0
281
     0
  0
CLASS
  1
ACME_DOCUMENT
  2
AcMeDbDoc
  3
AcMeServices
 90
        0
280
     0
281
     0
  0
CLASS
  1
ACMESCOPE
  2
AcMeScope
  3
AcMeServices
 90
        0
280
     0
281
     0
  0
CLASS
  1
ACMECOMMANDHISTORY
  2
AcMeCommandHistory
  3
AcMeServices
 90
        0
280
     0
281
     0
  0
CLASS
  1
DICTIONARYVAR
  2
AcDbDictionaryVar
  3
ObjectDBX Classes
 90
        0
280
     0
281
     0
  0
CLASS
  1
ACIMSYSVARMAN
  2
AcImSysVarManager
  3
AcMeServices
 90
        0
280
     0
281
     0
  0
CLASS
  1
ACIMREALSYSVAR
  2
AcImRealSysVar
  3
AcMeServices
 90
        0
280
     0
281
     0
  0
CLASS
  1
ACIMINTSYSVAR
  2
AcImIntSysVar
  3
AcMeServices
 90
        0
280
     0
281
     0
  0
CLASS
  1
ACMEDRAWINGMAN
  2
AcMeDrawingMan
  3
AcMeServices
 90
        0
280
     0
281
     0
  0
CLASS
  1
ACMEVIEW
  2
AcMeView
  3
AcMeServices
 90
        0
280
     0
281
     0
  0
CLASS
  1
ACDBENTITYCACHE
  2
AcMeEntityCache
  3
AcMeServices
 90
        0
280
     0
281
     0
  0
CLASS
  1
GSMANAGER
  2
AcMeGSManager
  3
AcMeServices
 90
        0
280
     0
281
     0
  0
CLASS
  1
AMDTINTERNALREACTOR
  2
AmdtInternalReactor
  3
AcMeServices
 90
        0
280
     0
281
     0
  0
CLASS
  1
ACMESTATEMGR
  2
AcMeStateMgr
  3
AcMeServices
 90
        0
280
     0
281
     0
  0
CLASS
  1
ACGREFMASTER
  2
AcGrefMaster
  3
AcAttribServices
 90
        0
280
     0
281
     0
  0
CLASS
  1
ACME_DATABASE
  2
AcMeDbDatabase
  3
AcMeServices
 90
        0
280
     0
281
     0
  0
CLASS
  1
ACRFINSADJUSTERMGR
  2
AcRfInsAdjusterMgr
  3
AcMeServices
 90
        0
280
     0
281
     0
  0
CLASS
  1
ACGREFACADMASTER
  2
AcGrefacadMaster
  3
AcGrefServices
 90
        0
280
     0
281
     0
  0
CLASS
  1
AMIMASTER
  2
AmiMaster
  3
AmiServices
 90
        0
280
     0
281
     0
  0
CLASS
  1
ACMDATADICTIONARY
  2
AcmDataDictionary
  3
"AcmSymBB|Product Description: AutoCAD Mechanical|Company: Autodesk"
 90
        0
280
     0
281
     0
  0
CLASS
  1
ACMDATAENTRYBLOCK
  2
AcmDataEntryBlock
  3
"AcmSymBB|Product Description: AutoCAD Mechanical|Company: Autodesk"
 90
        0
280
     0
281
     0
  0
CLASS
  1
ACIMSTRSYSVAR
  2
AcImStrSysVar
  3
AcMeServices
 90
        0
280
     0
281
     0
  0
CLASS
  1
ACMSTANDARDISO
  2
AcmStandardISO
  3
"Amdt_StdImp|Product Description: AutoCAD Mechanical|Company: Autodesk"
 90
        0
280
     0
281
     0
  0
CLASS
  1
AMGOBJPROPCFG
  2
AmgObjPropCfg
  3
"AmgLay|Product Description: AutoCAD Mechanical|Company: Autodesk"
 90
        1
280
     0
281
     0
  0
CLASS
  1
AMDTEDGESTANDARDISO
  2
AmdtEdgeStdISO
  3
"Amdt_StdImp|Product Description: AutoCAD Mechanical|Company: Autodesk"
 90
        0
280
     0
281
     0
  0
CLASS
  1
ACMSURFSTANDARDISO
  2
AcmSurfTextStdISO
  3
"Amdt_StdImp|Product Description: AutoCAD Mechanical|Company: Autodesk"
 90
        0
280
     0
281
     0
  0
CLASS
  1
ACMFCFSTANDARDISO
  2
AcmFCFStdISO
  3
"Amdt_StdImp|Product Description: AutoCAD Mechanical|Company: Autodesk"
 90
        0
280
     0
281
     0
  0
CLASS
  1
ACMWELDSTANDARDISO
  2
AcmWeldingStdISO
  3
"Amdt_StdImp|Product Description: AutoCAD Mechanical|Company: Autodesk"
 90
        0
280
     0
281
     0
  0
CLASS
  1
ACMIDSTANDARDISO
  2
AcmIdStdISO
  3
"Amdt_StdImp|Product Description: AutoCAD Mechanical|Company: Autodesk"
 90
        0
280
     0
281
     0
  0
CLASS
  1
ACMDATUMSTANDARDISO
  2
AcmDatumStdISO
  3
"Amdt_StdImp|Product Description: AutoCAD Mechanical|Company: Autodesk"
 90
        0
280
     0
281
     0
  0
CLASS
  1
ACMBOMSTANDARDISO
  2
AcmBOMStdISO
  3
"Amdt_StdImp|Product Description: AutoCAD Mechanical|Company: Autodesk"
 90
        0
280
     0
281
     0
  0
CLASS
  1
ACMDETAILSTANDARDISO
  2
AmdtDetailSymStdISO
  3
"Amdt_StdImp|Product Description: AutoCAD Mechanical|Company: Autodesk"
 90
        0
280
     0
281
     0
  0
CLASS
  1
ACMSECTIONSTANDARDISO
  2
AmdtSectionSymStdISO
  3
"Amdt_StdImp|Product Description: AutoCAD Mechanical|Company: Autodesk"
 90
        0
280
     0
281
     0
  0
CLASS
  1
ACMCENTERLINESTANDARDISO
  2
AmdtCenterLineStdISO
  3
"Amdt_StdImp|Product Description: AutoCAD Mechanical|Company: Autodesk"
 90
        0
280
     0
281
     0
  0
CLASS
  1
ACAMGLAYSTD
  2
AcAmgLayStd
  3
"AmgLay|Product Description: AutoCAD Mechanical|Company: Autodesk"
 90
        0
280
     0
281
     0
  0
CLASS
  1
ACAMGDIMSTD
  2
AcAmgDimStd
  3
"AmgDim|Product Description: AutoCAD Mechanical|Company: Autodesk"
 90
        0
280
     0
281
     0
  0
CLASS
  1
ACAMGTITLESTD
  2
AcAmgTitleStd
  3
"AmgTitle|Product Description: AutoCAD Mechanical|Company: Autodesk"
 90
        0
280
     0
281
     0
  0
CLASS
  1
ACAMGFILTERDAT
  2
AcAmgFilterDat
  3
"AcadM|Product Description: AutoCAD Mechanical|Company: Autodesk"
 90
        0
280
     0
281
     0
  0
CLASS
  1
LAYER_INDEX
  2
AcDbLayerIndex
  3
ObjectDBX Classes
 90
    32768
280
     0
281
     0
  0
CLASS
  1
IDBUFFER
  2
AcDbIdBuffer
  3
ObjectDBX Classes
 90
    32768
280
     0
281
     0
  0
CLASS
  1
PLOTSETTINGS
  2
AcDbPlotSettings
  3
ObjectDBX Classes
 90
    32768
280
     0
281
     0
  0
CLASS
  1
AMDTFORMULAUPDATEDISPATCHER
  2
AmdtFormulaUpdateDispatcher
  3
AcMeServices
 90
        0
280
     0
281
     0
  0
CLASS
  1
ACMSTANDARDANSI
  2
AcmStandardANSI
  3
"Amdt_StdImp|Product Description: AutoCAD Mechanical|Company: Autodesk"
 90
    32768
280
     0
281
     0
  0
CLASS
  1
ACMSURFSTANDARDANSI
  2
AcmSurfTextStdANSI
  3
"Amdt_StdImp|Product Description: AutoCAD Mechanical|Company: Autodesk"
 90
    32768
280
     0
281
     0
  0
CLASS
  1
ACMFCFSTANDARDANSI
  2
AcmFCFStdANSI
  3
"Amdt_StdImp|Product Description: AutoCAD Mechanical|Company: Autodesk"
 90
    32768
280
     0
281
     0
  0
CLASS
  1
ACMWELDSTANDARDANSI
  2
AcmWeldingStdANSI
  3
"Amdt_StdImp|Product Description: AutoCAD Mechanical|Company: Autodesk"
 90
    32768
280
     0
281
     0
  0
CLASS
  1
ACMIDSTANDARDANSI
  2
AcmIdStdANSI
  3
"Amdt_StdImp|Product Description: AutoCAD Mechanical|Company: Autodesk"
 90
    32768
280
     0
281
     0
  0
CLASS
  1
ACMDATUMSTANDARDANSI
  2
AcmDatumStdANSI
  3
"Amdt_StdImp|Product Description: AutoCAD Mechanical|Company: Autodesk"
 90
    32768
280
     0
281
     0
  0
CLASS
  1
ACMBOMSTANDARDANSI
  2
AcmBOMStdANSI
  3
"Amdt_StdImp|Product Description: AutoCAD Mechanical|Company: Autodesk"
 90
    32768
280
     0
281
     0
  0
CLASS
  1
ACMDETAILSTANDARDANSI
  2
AmdtDetailSymStdANSI
  3
"Amdt_StdImp|Product Description: AutoCAD Mechanical|Company: Autodesk"
 90
    32768
280
     0
281
     0
  0
CLASS
  1
ACMSECTIONSTANDARDANSI
  2
AmdtSectionSymStdANSI
  3
"Amdt_StdImp|Product Description: AutoCAD Mechanical|Company: Autodesk"
 90
    32768
280
     0
281
     0
  0
CLASS
  1
ACMCENTERLINESTANDARDANSI
  2
AmdtCenterLineStdANSI
  3
"Amdt_StdImp|Product Description: AutoCAD Mechanical|Company: Autodesk"
 90
    32768
280
     0
281
     0
  0
CLASS
  1
ACMBOM
  2
AcmBom
  3
"AcmSymBB|Product Description: AutoCAD Mechanical|Company: Autodesk"
 90
        0
280
     0
281
     0
  0
CLASS
  1
ACMDATAENTRYPART
  2
AcmDataEntryPart
  3
"AcmSymBB|Product Description: AutoCAD Mechanical|Company: Autodesk"
 90
    32768
280
     0
281
     0
  0
CLASS
  1
ACMPARTREF
  2
AcmPartRef
  3
"AcmSymBB|Product Description: AutoCAD Mechanical|Company: Autodesk"
 90
    35839
280
     0
281
     1
  0
CLASS
  1
ACDBCIRCARCRES
  2
AcDbCircArcRes
  3
AcGrefServices
 90
    32768
280
     0
281
     0
  0
CLASS
  1
ACMBOMROW
  2
AcmBomRow
  3
"AcmSymBB|Product Description: AutoCAD Mechanical|Company: Autodesk"
 90
    32768
280
     0
281
     0
  0
CLASS
  1
ACMBALLOON
  2
AcmBalloon
  3
"AcmSymBB|Product Description: AutoCAD Mechanical|Company: Autodesk"
 90
    35839
280
     0
281
     1
  0
CLASS
  1
AMDTNOTE
  2
AmdtNote
  3
"AcmSymBB|Product Description: AutoCAD Mechanical|Company: Autodesk"
 90
    35839
280
     0
281
     1
  0
CLASS
  1
STDPART2D
  2
AmgStdPart
  3
"g3vace|Class: AmgStdPart|Product Description: AutoCAD Mechanical|Company: Autodesk"
 90
    35839
280
     0
281
     1
  0
CLASS
  1
ACDBSTDPARTRES_LINE
  2
AcDbStdPartRes_Line
  3
"g3vace|Class: AcDbStdPartRes_Line|Product Description: AutoCAD Mechanical|Company: Autodesk"
 90
    32768
280
     0
281
     0
  0
CLASS
  1
ACMDATAENTRY
  2
AcmDataEntry
  3
"AcmSymBB|Product Description: AutoCAD Mechanical|Company: Autodesk"
 90
        0
280
     0
281
     0
  0
CLASS
  1
ACDBOPPOLYLINERES
  2
AcDbOpPolylineRes
  3
AcGrefServices
 90
    32768
280
     0
281
     0
  0
CLASS
  1
ACMPARTLIST
  2
AcmPartList
  3
"AcmSymBB|Product Description: AutoCAD Mechanical|Company: Autodesk"
 90
    35839
280
     0
281
     1
  0
CLASS
  1
ACDBLINERES
  2
AcDbLineRes
  3
AcGrefServices
 90
    32768
280
     0
281
     0
  0
CLASS
  1
ACRFINSADJ
  2
AcRfInsAdjuster
  3
AcMeServices
 90
    32768
280
     0
281
     0
  0
CLASS
  1
AM_DRAWING_MGR
  2
AcDmDwgMgr
  3
AcMechDwgViewMgmt
 90
        0
280
     0
281
     0
  0
CLASS
  1
AM_DWG_DOCUMENT
  2
AcDmDwgDocument
  3
AcMechDwgViewMgmt
 90
        0
280
     0
281
     0
  0
CLASS
  1
AM_DWG_SHEET
  2
AcDmSheet
  3
AcMechDwgViewMgmt
 90
        0
280
     0
281
     0
  0
CLASS
  1
AM_VIEWDIMPARMAP
  2
AcDmViewDimParMap
  3
AcMechDwgViewMgmt
 90
        0
280
     0
281
     0
  0
CLASS
  1
AM_DWGMGR_NAME
  2
AcDmDwgMgrName
  3
AcMechDwgViewMgmt
 90
        0
280
     0
281
     0
  0
CLASS
  1
AMDTMENUSTATEMGR
  2
AmdtMenuStateMgr
  3
McadcomServices
 90
        0
280
     0
281
     0
  0
CLASS
  1
AMDTMCOMMENUSTATE
  2
AmdtMcomMenuState
  3
McadcomServices
 90
        0
280
     0
281
     0
  0
CLASS
  1
ASAPP
  2
AcAsAppObject
  3
AutoSurfServices
 90
        0
280
     0
281
     0
  0
CLASS
  1
IM_STATIC_MAN
  2
AcImStaticVarManager
  3
AcMeServices
 90
        0
280
     0
281
     0
  0
CLASS
  1
ACIMDBLSTATICVAR
  2
AcImDblStaticVar
  3
AcMeServices
 90
        0
280
     0
281
     0
  0
CLASS
  1
ACIMSTRSTATICVAR
  2
AcImStrStaticVar
  3
AcMeServices
 90
        0
280
     0
281
     0
  0
CLASS
  1
ACIMINTSTATICVAR
  2
AcImIntStaticVar
  3
AcMeServices
 90
        0
280
     0
281
     0
  0
CLASS
  1
ACASGREFMASTER
  2
AcAsGrefMaster
  3
AutoSurfResolverServices
 90
        0
280
     0
281
     0
  0
CLASS
  1
ACADGREFMODULE
  2
AcAdGrefModule
  3
AdGrefServices
 90
        0
280
     0
281
     0
  0
CLASS
  1
AMDTMAPISURFMOUDULE
  2
AmdtMApiSurfModule
  3
MApiSurfServices
 90
        0
280
     0
281
     0
  0
CLASS
  1
MAPIAMMOUDLE
  2
MApiAmModule
  3
MApiAmServices
 90
        0
280
     0
281
     0
  0
CLASS
  1
AMDTADMENUSTATE
  2
AmdtAdMenuState
  3
DesignerServices
 90
        0
280
     0
281
     0
  0
CLASS
  1
ADAPPL
  2
AcAdAppl
  3
DesignerServices
 90
        0
280
     0
281
     0
  0
CLASS
  1
DEPMGR
  2
AcAdDepMgr
  3
DesignerServices
 90
        0
280
     0
281
     0
  0
CLASS
  1
PARAMMGR
  2
AcAdParamMgr
  3
DesignerServices
 90
        0
280
     0
281
     0
  0
CLASS
  1
PARAMSCOPE
  2
AcAdParamScope
  3
DesignerServices
 90
        0
280
     0
281
     0
  0
CLASS
  1
NAMEDAPPL
  2
AcAdNamedAppl
  3
DesignerServices
 90
        0
280
     0
281
     0
  0
CLASS
  1
ADHNTMPLT
  2
AdHoleNoteTemplateMgr
  3
DesignerServices
 90
    32768
280
     0
281
     0
  0
CLASS
  1
AM_HNTEMPLATE_MGR_NAME
  2
AdHoleNoteTemplateMgrName
  3
DesignerServices
 90
    32768
280
     0
281
     0
  0
CLASS
  1
AMDTDMMENUSTATE
  2
AmdtDmMenuState
  3
AcMechDwgViewMgmt
 90
        0
280
     0
281
     0
  0
CLASS
  1
MAPIADMODULE
  2
MApiAdModule
  3
MApiAdServices
 90
        0
280
     0
281
     0
  0
CLASS
  1
AMDTAMMENUSTATE
  2
AmdtAmMenuState
  3
DesignerAssemblies
 90
        0
280
     0
281
     0
  0
CLASS
  1
ACAMPROJECT
  2
AcAmProject
  3
DesignerAssemblies
 90
        0
280
     0
281
     0
  0
CLASS
  1
ACAMGRCOMPDEF
  2
AcAmGrCompDef
  3
DesignerAssemblies
 90
        0
280
     0
281
     0
  0
CLASS
  1
ACCMCONTEXT
  2
AcCmContext
  3
DesignerAssemblies
 90
        0
280
     0
281
     0
  0
CLASS
  1
ACAMCOMPDEF
  2
AcAmCompDef
  3
DesignerAssemblies
 90
        0
280
     0
281
     0
  0
CLASS
  1
ACAMCOMPDEFMGR
  2
AcAmCompDefMgr
  3
DesignerAssemblies
 90
        0
280
     0
281
     0
  0
CLASS
  1
AMCONTEXTMGR
  2
AcAmContextMgr
  3
DesignerAssemblies
 90
        0
280
     0
281
     0
  0
CLASS
  1
ACAMCONTEXTMODELER
  2
AcAmContextModeler
  3
DesignerAssemblies
 90
        0
280
     0
281
     0
  0
CLASS
  1
CATALOGSTATE
  2
AcAmCatalogState
  3
DesignerAssemblies
 90
        0
280
     0
281
     0
  0
CLASS
  1
ACAMGRCOMPDEFSET
  2
AcAmGrCompDefSet
  3
DesignerAssemblies
 90
        0
280
     0
281
     0
  0
CLASS
  1
AMDTBROWSERDBTAB
  2
AmdtBrowserDbTab
  3
McadcomServices
 90
        0
280
     0
281
     0
  0
CLASS
  1
CBROWSERAPPOBJECT
  2
CBrowserAppObject
  3
McadcomServices
 90
        0
280
     0
281
     0
  0
CLASS
  1
DM_PLACEHOLDER
  2
AcDmSelsetPlaceholder
  3
AcMechDwgViewMgmt
 90
        0
280
     0
281
     0
  0
CLASS
  1
ACMPICKOBJ
  2
AcmPickEnt
  3
"AcmSymBB|Product Description: AutoCAD Mechanical|Company: Autodesk"
 90
    32768
280
     0
281
     1
  0
CLASS
  1
ACMNOTESTANDARDISO
  2
AmdtNoteStdISO
  3
"Amdt_StdImp|Product Description: AutoCAD Mechanical|Company: Autodesk"
 90
        0
280
     0
281
     0
  0
CLASS
  1
ACMNOTESTANDARDANSI
  2
AmdtNoteStdANSI
  3
"Amdt_StdImp|Product Description: AutoCAD Mechanical|Company: Autodesk"
 90
    32768
280
     0
281
     0
  0
CLASS
  1
ACMTHREADLINESTANDARDISO
  2
AmdtThreadLineStdISO
  3
"Amdt_StdImp|Product Description: AutoCAD Mechanical|Company: Autodesk"
 90
        0
280
     0
281
     0
  0
CLASS
  1
ACMTHREADLINESTANDARDANSI
  2
AmdtThreadLineStdANSI
  3
"Amdt_StdImp|Product Description: AutoCAD Mechanical|Company: Autodesk"
 90
    32768
280
     0
281
     0
  0
CLASS
  1
TABLESTYLE
  2
AcDbTableStyle
  3
ObjectDBX Classes
 90
     4095
280
     0
281
     0
  0
CLASS
  1
SORTENTSTABLE
  2
AcDbSortentsTable
  3
ObjectDBX Classes
 90
        0
280
     0
281
     0
  0
CLASS
  1
MATERIAL
  2
AcDbMaterial
  3
ObjectDBX Classes
 90
     1024
280
     0
281
     0
  0
CLASS
  1
VISUALSTYLE
  2
AcDbVisualStyle
  3
ObjectDBX Classes
 90
     4095
280
     0
281
     0
  0
CLASS
  1
ACRFATTGENMGR
  2
AcRfAttGeneralMgr
  3
AcAttribServices
 90
        0
280
     0
281
     0
  0
CLASS
  1
ACRFOBJATTMGR
  2
AcRfObjAttGroupMgr
  3
AcAttribServices
 90
        0
280
     0
281
     0
  0
CLASS
  1
ACRFMCADAPIATTHOLDER
  2
AcRfMCADAPIAttHolder
  3
AcAttribServices
 90
        0
280
     0
281
     0
  0
CLASS
  1
AMDTSYSATTR
  2
AmdtSystemAttribute
  3
AcAttribServices
 90
        0
280
     0
281
     0
  0
CLASS
  1
ACMTAPERSTANDARDISO
  2
AcmTaperStdISO
  3
"Amdt_StdImp|Product Description: AutoCAD Mechanical|Company: Autodesk"
 90
        0
280
     0
281
     0
  0
CLASS
  1
CAMSSTRUCTBTNSTATE
  2
StructBtnState
  3
L"DesignerAssemblies"
 90
        0
280
     0
281
     0
  0
CLASS
  1
DIMASSOC
  2
AcDbDimAssoc
  3
"AcDbDimAssoc|Product Desc:     AcDim ARX App For Dimension|Company:          Autodesk, Inc.|WEB Address:      www.autodesk.com"
 90
    32768
280
     0
281
     0
  0
CLASS
  1
AMDTNOTETEMPLATEDB
  2
AmdtNoteTemplateDB
  3
AMDT_STDIMP_MODULE_NAME
 90
        0
280
     0
281
     0
  0
CLASS
  1
SCALE
  2
AcDbScale
  3
ObjectDBX Classes
 90
     1153
280
     0
281
     0
  0
CLASS
  1
MLEADERSTYLE
  2
AcDbMLeaderStyle
  3
ACDB_MLEADERSTYLE_CLASS
 90
     4095
280
     0
281
     0
  0
CLASS
  1
ACMANOOTATIONVIEWSTANDARDISO
  2
AmdtAnViewStdISO
  3
"Amdt_StdImp|Product Description: AutoCAD Mechanical|Company: Autodesk, Inc."
 90
    33792
280
     0
281
     0
  0
CLASS
  1
CELLSTYLEMAP
  2
AcDbCellStyleMap
  3
ObjectDBX Classes
 90
     1152
280
     0
281
     0
  0
ENDSEC
  0
SECTION
  2
TABLES
  0
TABLE
  2
VPORT
  5
8
330
0
100
AcDbSymbolTable
 70
     1
  0
VPORT
  5
B0EC
330
8
100
AcDbSymbolTableRecord
100
AcDbViewportTableRecord
  2
*Active
 70
     0
 10
0.0
 20
0.0
 11
1.0
 21
1.0
 12
210.0013865582801
 22
148.4482912969926
 13
0.0
 23
0.0
 14
2.5
 24
2.5
 15
10.0
 25
10.0
 16
0.0
 26
0.0
 36
1.0
 17
0.0
 27
0.0
 37
0.0
 40
299.3107849057228
 41
1.648648648648648
 42
50.0
 43
-1370.695619172058
 44
-1370.695619172058
 50
0.0
 51
0.0
 71
    16
 72
   100
 73
     1
 74
     3
 75
     0
 76
     0
 77
     0
 78
     0
281
     0
 65
     0
110
0.0
120
0.0
130
0.0
111
1.0
121
0.0
131
0.0
112
0.0
122
1.0
132
0.0
 79
     0
146
0.0
  0
ENDTAB
  0
TABLE
  2
LTYPE
  5
5
330
0
100
AcDbSymbolTable
 70
    28
  0
LTYPE
  5
14
330
5
100
AcDbSymbolTableRecord
100
AcDbLinetypeTableRecord
  2
ByBlock
 70
     0
  3

 72
    65
 73
     0
 40
0.0
  0
LTYPE
  5
15
330
5
100
AcDbSymbolTableRecord
100
AcDbLinetypeTableRecord
  2
ByLayer
 70
     0
  3

 72
    65
 73
     0
 40
0.0
  0
LTYPE
  5
16
330
5
100
AcDbSymbolTableRecord
100
AcDbLinetypeTableRecord
  2
Continuous
 70
     0
  3
Solid line
 72
    65
 73
     0
 40
0.0
  0
LTYPE
  5
4F
330
5
100
AcDbSymbolTableRecord
100
AcDbLinetypeTableRecord
  2
AM_ISO02W050
 70
     0
  3
__ __ __ __ __ __ __ __ __ __ __ __ __ __ __
 72
    65
 73
     2
 40
7.5
 49
6.0
 74
     0
 49
-1.5
 74
     0
  0
LTYPE
  5
52
330
5
100
AcDbSymbolTableRecord
100
AcDbLinetypeTableRecord
  2
Amconstr
 70
     0
  3
_______________________
 72
    65
 73
     2
 40
9999.0
 49
9999.0
 74
     0
 49
0.0
 74
     0
  0
LTYPE
  5
64
330
5
100
AcDbSymbolTableRecord
100
AcDbLinetypeTableRecord
  2
ACISOWELD
 70
     0
  3
_ _ _ _ _
 72
    65
 73
     2
 40
2.0
 49
2.0
 74
     0
 49
-1.0
 74
     0
  0
LTYPE
  5
65
330
5
100
AcDbSymbolTableRecord
100
AcDbLinetypeTableRecord
  2
ACISOTGB
 70
     0
  3
__ . . __ . .
 72
    65
 73
     6
 40
9.0
 49
4.0
 74
     0
 49
-1.0
 74
     0
 49
1.0
 74
     0
 49
-1.0
 74
     0
 49
1.0
 74
     0
 49
-1.0
 74
     0
  0
LTYPE
  5
66
330
5
100
AcDbSymbolTableRecord
100
AcDbLinetypeTableRecord
  2
ACISOTGL
 70
     0
  3
_ _ _ _ _
 72
    65
 73
     2
 40
3.0
 49
2.0
 74
     0
 49
-1.0
 74
     0
  0
LTYPE
  5
69
330
5
100
AcDbSymbolTableRecord
100
AcDbLinetypeTableRecord
  2
CENTER
 70
     0
  3
__ . __
 72
    65
 73
     4
 40
7.0
 49
4.0
 74
     0
 49
-1.0
 74
     0
 49
1.0
 74
     0
 49
-1.0
 74
     0
  0
LTYPE
  5
A6E
330
5
100
AcDbSymbolTableRecord
100
AcDbLinetypeTableRecord
  2
PHANTOM2
 70
     0
  3
Phantom (.5x) ___ _ _ ___ _ _ ___ _ _ ___ _ _
 72
    65
 73
     6
 40
31.75
 49
15.875
 74
     0
 49
-3.174999999999999
 74
     0
 49
3.174999999999999
 74
     0
 49
-3.174999999999999
 74
     0
 49
3.174999999999999
 74
     0
 49
-3.174999999999999
 74
     0
  0
LTYPE
  5
4DED
330
5
100
AcDbSymbolTableRecord
100
AcDbLinetypeTableRecord
  2
中線
 70
     0
  3
___________________
 72
    65
 73
     2
 40
2.0
 49
1.0
 74
     0
 49
1.0
 74
     0
  0
LTYPE
  5
4DF6
330
5
100
AcDbSymbolTableRecord
100
AcDbLinetypeTableRecord
  2
細線
 70
     0
  3
___________________
 72
    65
 73
     2
 40
2.0
 49
1.0
 74
     0
 49
1.0
 74
     0
  0
LTYPE
  5
4DF7
330
5
100
AcDbSymbolTableRecord
100
AcDbLinetypeTableRecord
  2
太線
 70
     0
  3
___________________
 72
    65
 73
     2
 40
2.0
 49
1.0
 74
     0
 49
1.0
 74
     0
  0
LTYPE
  5
4EA7
330
5
100
AcDbSymbolTableRecord
100
AcDbLinetypeTableRecord
  2
文字
 70
     0
  3
_________________
 72
    65
 73
     2
 40
2.0
 49
1.0
 74
     0
 49
1.0
 74
     0
  0
LTYPE
  5
4EA9
330
5
100
AcDbSymbolTableRecord
100
AcDbLinetypeTableRecord
  2
寸法線
 70
     0
  3
________________
 72
    65
 73
     2
 40
2.0
 49
1.0
 74
     0
 49
1.0
 74
     0
  0
LTYPE
  5
4F12
330
5
100
AcDbSymbolTableRecord
100
AcDbLinetypeTableRecord
  2
ハッチング
 70
     0
  3
_________________
 72
    65
 73
     2
 40
2.0
 49
1.0
 74
     0
 49
1.0
 74
     0
  0
LTYPE
  5
5180
330
5
100
AcDbSymbolTableRecord
100
AcDbLinetypeTableRecord
  2
陰線1
 70
     0
  3
__ __ __ __
 72
    65
 73
     2
 40
4.0
 49
2.2
 74
     0
 49
-1.8
 74
     0
  0
LTYPE
  5
5182
330
5
100
AcDbSymbolTableRecord
100
AcDbLinetypeTableRecord
  2
切断線
 70
     0
  3
/\/-/\/-/\/-/\/-/\/-/\/
 72
    65
 73
     2
 40
11.0001
 49
0.0001
 74
     4
 75
   135
340
56
 46
0.04
 50
0.0
 44
0.0
 45
0.0
 49
-11.0
 74
     0
  0
LTYPE
  5
5183
330
5
100
AcDbSymbolTableRecord
100
AcDbLinetypeTableRecord
  2
想像線1
 70
     0
  3
__ __ __ _____ __ __ ____
 72
    65
 73
     6
 40
14.5
 49
6.0
 74
     0
 49
-1.5
 74
     0
 49
2.0
 74
     0
 49
-1.5
 74
     0
 49
2.0
 74
     0
 49
-1.5
 74
     0
  0
LTYPE
  5
5185
330
5
100
AcDbSymbolTableRecord
100
AcDbLinetypeTableRecord
  2
中心線1
 70
     0
  3
___ _ ___ _ ___
 72
    65
 73
     4
 40
18.0
 49
12.0
 74
     0
 49
-2.0
 74
     0
 49
2.0
 74
     0
 49
-2.0
 74
     0
  0
LTYPE
  5
5188
330
5
100
AcDbSymbolTableRecord
100
AcDbLinetypeTableRecord
  2
補助線
 70
     0
  3
______________
 72
    65
 73
     2
 40
2.0
 49
1.0
 74
     0
 49
1.0
 74
     0
  0
LTYPE
  5
6427
330
5
100
AcDbSymbolTableRecord
100
AcDbLinetypeTableRecord
  2
HIDDEN
 70
     0
  3
Hidden __ __ __ __ __ __ __ __ __ __ __ __ __ _
 72
    65
 73
     2
 40
0.375
 49
0.25
 74
     0
 49
-0.125
 74
     0
  0
LTYPE
  5
AC81
330
5
100
AcDbSymbolTableRecord
100
AcDbLinetypeTableRecord
  2
破断線
 70
     0
  3
/\/-/\/-/\/-/\/-/\/-/\/
 72
    65
 73
     2
 40
0.4401
 49
0.0001
 74
     4
 75
   136
340
AC80
 46
0.0016
 50
0.0
 44
0.0
 45
0.0
 49
-0.4400000000000001
 74
     0
  0
LTYPE
  5
AC9E
330
5
100
AcDbSymbolTableRecord
100
AcDbLinetypeTableRecord
  2
Amzigzag
 70
     0
  3
/\/-/\/-/\/-/\/-/\/-/\/
 72
    65
 73
     2
 40
11.0001
 49
0.0001
 74
     4
 75
   135
340
56
 46
0.04
 50
0.0
 44
0.0
 45
0.0
 49
-11.0
 74
     0
  0
LTYPE
  5
AF0F
330
5
100
AcDbSymbolTableRecord
100
AcDbLinetypeTableRecord
  2
genzigzag
 70
     0
  3
/\/-/\/-/\/-/\/-/\/-/\/
 72
    65
 73
     2
 40
12.0001
 49
0.0001
 74
     4
 75
   135
340
AC80
 46
2.0
 50
0.0
 44
0.0
 45
0.0
 49
-12.0
 74
     0
  0
LTYPE
  5
AF95
330
5
100
AcDbSymbolTableRecord
100
AcDbLinetypeTableRecord
  2
AM_ISO08W050
 70
     0
  3
____ . ____ . ____ . ____ . ____ . ____ . ____
 72
    65
 73
     4
 40
18.0
 49
12.0
 74
     0
 49
-1.5
 74
     0
 49
3.0
 74
     0
 49
-1.5
 74
     0
  0
LTYPE
  5
AF96
330
5
100
AcDbSymbolTableRecord
100
AcDbLinetypeTableRecord
  2
AM_ISO09W050
 70
     0
  3
_____ . . _____ . . _____ . . ____ .. ____
 72
    65
 73
     6
 40
22.5
 49
12.0
 74
     0
 49
-1.5
 74
     0
 49
3.0
 74
     0
 49
-1.5
 74
     0
 49
3.0
 74
     0
 49
-1.5
 74
     0
  0
LTYPE
  5
AF97
330
5
100
AcDbSymbolTableRecord
100
AcDbLinetypeTableRecord
  2
AM_ISO08W050x2
 70
     0
  3
__ . __ . __ . __ . __ . __
 72
    65
 73
     4
 40
9.0
 49
6.0
 74
     0
 49
-0.75
 74
     0
 49
1.5
 74
     0
 49
-0.75
 74
     0
  0
LTYPE
  5
AF98
330
5
100
AcDbSymbolTableRecord
100
AcDbLinetypeTableRecord
  2
AM_ISO02W050x2
 70
     0
  3
 _ _ _ _ _ _ _ _ _ _ _ _
 72
    65
 73
     2
 40
3.75
 49
3.0
 74
     0
 49
-0.75
 74
     0
  0
LTYPE
  5
C578
330
5
100
AcDbSymbolTableRecord
100
AcDbLinetypeTableRecord
  2
DASHED
 70
     0
  3
__ __ __ __ __ __ __ __ __ __ __ __ __ __ __ __
 72
    65
 73
     2
 40
4.5
 49
3.0
 74
     0
 49
-1.5
 74
     0
  0
ENDTAB
  0
TABLE
  2
LAYER
  5
2
102
{ACAD_XDICTIONARY
360
3F95
102
}
330
0
100
AcDbSymbolTable
 70
    22
  0
LAYER
  5
10
102
{ACAD_XDICTIONARY
360
BCBC
102
}
330
2
100
AcDbSymbolTableRecord
100
AcDbLayerTableRecord
  2
0
 70
     0
 62
     7
  6
Continuous
370
    -3
390
F
  0
LAYER
  5
6D1
330
2
100
AcDbSymbolTableRecord
100
AcDbLayerTableRecord
  2
Defpoints
 70
     0
 62
     7
  6
Continuous
290
     0
370
    -3
390
F
  0
LAYER
  5
5F85
102
{ACAD_XDICTIONARY
360
BCBE
102
}
330
2
100
AcDbSymbolTableRecord
100
AcDbLayerTableRecord
  2
AM_0
 70
     0
 62
     7
  6
中線
370
    30
390
F
1001
AcAecLayerStandard
1000

1000

  0
LAYER
  5
AC9F
102
{ACAD_XDICTIONARY
360
BCC0
102
}
330
2
100
AcDbSymbolTableRecord
100
AcDbLayerTableRecord
  2
size
 70
     0
 62
     5
  6
Continuous
290
     0
370
    25
390
F
  0
LAYER
  5
ACA0
102
{ACAD_XDICTIONARY
360
BCC2
102
}
330
2
100
AcDbSymbolTableRecord
100
AcDbLayerTableRecord
  2
waku
 70
     0
 62
     7
  6
Continuous
370
    35
390
F
  0
LAYER
  5
ACA1
102
{ACAD_XDICTIONARY
360
BCC4
102
}
330
2
100
AcDbSymbolTableRecord
100
AcDbLayerTableRecord
  2
AM_6
 70
     0
 62
     2
  6
文字
370
    13
390
F
1001
AcAecLayerStandard
1000

1000

  0
LAYER
  5
ACC8
102
{ACAD_XDICTIONARY
360
BCC6
102
}
330
2
100
AcDbSymbolTableRecord
100
AcDbLayerTableRecord
  2
hyomoji
 70
     0
 62
     2
  6
Continuous
370
    13
390
F
  0
LAYER
  5
ACC9
102
{ACAD_XDICTIONARY
360
BCC8
102
}
330
2
100
AcDbSymbolTableRecord
100
AcDbLayerTableRecord
  2
hyosen1
 70
     0
 62
    12
  6
Continuous
370
    25
390
F
  0
LAYER
  5
ACCA
102
{ACAD_XDICTIONARY
360
BCCA
102
}
330
2
100
AcDbSymbolTableRecord
100
AcDbLayerTableRecord
  2
hyosen2
 70
     0
 62
    12
  6
Continuous
370
    13
390
F
  0
LAYER
  5
AD60
102
{ACAD_XDICTIONARY
360
BCCC
102
}
330
2
100
AcDbSymbolTableRecord
100
AcDbLayerTableRecord
  2
AM_1
 70
     0
 62
    30
  6
太線
370
    40
390
F
1001
AcAecLayerStandard
1000

1000

  0
LAYER
  5
AD64
102
{ACAD_XDICTIONARY
360
BCCE
102
}
330
2
100
AcDbSymbolTableRecord
100
AcDbLayerTableRecord
  2
AM_2
 70
     0
 62
     1
  6
細線
370
    13
390
F
1001
AcAecLayerStandard
1000

1000

  0
LAYER
  5
AD67
102
{ACAD_XDICTIONARY
360
BCD0
102
}
330
2
100
AcDbSymbolTableRecord
100
AcDbLayerTableRecord
  2
AM_3
 70
     0
 62
     6
  6
陰線1
370
    13
390
F
1001
AcAecLayerStandard
1000

1000

  0
LAYER
  5
AD68
102
{ACAD_XDICTIONARY
360
BCD2
102
}
330
2
100
AcDbSymbolTableRecord
100
AcDbLayerTableRecord
  2
AM_5
 70
     0
 62
     3
  6
寸法線
370
    13
390
F
1001
AcAecLayerStandard
1000

1000

  0
LAYER
  5
AD69
102
{ACAD_XDICTIONARY
360
BCD4
102
}
330
2
100
AcDbSymbolTableRecord
100
AcDbLayerTableRecord
  2
AM_7
 70
     0
 62
     4
  6
中心線1
370
    13
390
F
1001
AcAecLayerStandard
1000

1000

  0
LAYER
  5
AD6A
102
{ACAD_XDICTIONARY
360
BCD6
102
}
330
2
100
AcDbSymbolTableRecord
100
AcDbLayerTableRecord
  2
AM_8
 70
     0
 62
     1
  6
ハッチング
370
    13
390
F
1001
AcAecLayerStandard
1000

1000

  0
LAYER
  5
AD6E
102
{ACAD_XDICTIONARY
360
BCD8
102
}
330
2
100
AcDbSymbolTableRecord
100
AcDbLayerTableRecord
  2
AM_10
 70
     0
 62
     7
  6
切断線
370
    13
390
F
1001
AcAecLayerStandard
1000

1000

  0
LAYER
  5
AD6F
102
{ACAD_XDICTIONARY
360
BCDA
102
}
330
2
100
AcDbSymbolTableRecord
100
AcDbLayerTableRecord
  2
AM_11
 70
     0
 62
     2
  6
想像線1
370
    13
390
F
1001
AcAecLayerStandard
1000

1000

  0
LAYER
  5
B1B6
102
{ACAD_XDICTIONARY
360
BCDC
102
}
330
2
100
AcDbSymbolTableRecord
100
AcDbLayerTableRecord
  2
AM_CL
 70
     0
 62
     1
  6
Amconstr
370
    15
390
F
1001
AcAecLayerStandard
1000

1000

  0
LAYER
  5
B2EB
102
{ACAD_XDICTIONARY
360
BCDE
102
}
330
2
100
AcDbSymbolTableRecord
100
AcDbLayerTableRecord
  2
AM_14
 70
     0
 62
     5
  6
細線
370
     9
390
F
1001
AcAecLayerStandard
1000

1000

  0
LAYER
  5
B2EC
102
{ACAD_XDICTIONARY
360
BCE0
102
}
330
2
100
AcDbSymbolTableRecord
100
AcDbLayerTableRecord
  2
AM_15
 70
     0
 62
     6
  6
陰線1
370
     9
390
F
1001
AcAecLayerStandard
1000

1000

  0
LAYER
  5
CCE6
102
{ACAD_XDICTIONARY
360
CCE7
102
}
330
2
100
AcDbSymbolTableRecord
100
AcDbLayerTableRecord
  2
VIEW0001
 70
     0
 62
     7
  6
Continuous
370
    -3
390
F
  0
LAYER
  5
D77D
330
2
100
AcDbSymbolTableRecord
100
AcDbLayerTableRecord
  2
AM_4
 70
     0
 62
     3
  6
補助線
370
    13
390
F
1001
AcAecLayerStandard
1000

1000

  0
ENDTAB
  0
TABLE
  2
STYLE
  5
3
330
0
100
AcDbSymbolTable
 70
     6
  0
STYLE
  5
11
330
3
100
AcDbSymbolTableRecord
100
AcDbTextStyleTableRecord
  2
STANDARD
 70
     0
 40
0.0
 41
0.7
 50
0.0
 71
     0
 42
3.2
  3
romans.shx
  4
extfont.shx
  0
STYLE
  5
56
330
3
100
AcDbSymbolTableRecord
100
AcDbTextStyleTableRecord
  2

 70
     1
 40
0.0
 41
1.0
 50
0.0
 71
     0
 42
2.5
  3
ltypeshp.shx
  4

  0
STYLE
  5
58
330
3
100
AcDbSymbolTableRecord
100
AcDbTextStyleTableRecord
  2
ACISOTS
 70
     0
 40
1.0
 41
1.0
 50
0.0
 71
     0
 42
2.5
  3
isocp.shx
  4
extfont.shx
  0
STYLE
  5
63
330
3
100
AcDbSymbolTableRecord
100
AcDbTextStyleTableRecord
  2
ACISOGDT
 70
     0
 40
0.0
 41
1.0
 50
0.0
 71
     0
 42
2.5
  3
amgdt.shx
  4

  0
STYLE
  5
A74
330
3
100
AcDbSymbolTableRecord
100
AcDbTextStyleTableRecord
  2
DIM
 70
     0
 40
0.0
 41
1.0
 50
0.0
 71
     0
 42
2.5
  3
monotxt.shx
  4
extfont.shx
  0
STYLE
  5
AC80
330
3
100
AcDbSymbolTableRecord
100
AcDbTextStyleTableRecord
  2

 70
     1
 40
0.0
 41
1.0
 50
0.0
 71
     0
 42
3.2
  3
genltshp.shx
  4

  0
ENDTAB
  0
TABLE
  2
VIEW
  5
6
330
0
100
AcDbSymbolTable
 70
     6
  0
VIEW
  5
AE1
330
6
100
AcDbSymbolTableRecord
100
AcDbViewTableRecord
  2
AM_VIEW1
 70
     0
 40
129.7276464542651
 10
1775.10588156276
 20
1793.121228859297
 41
148.5
 11
0.0
 21
0.0
 31
1.0
 12
0.0
 22
0.0
 32
0.0
 42
50.0
 43
-1370.695619172058
 44
-1370.695619172058
 50
0.0
 71
    16
281
     0
 72
     0
  0
VIEW
  5
AE2
330
6
100
AcDbSymbolTableRecord
100
AcDbViewTableRecord
  2
AM_VIEW2
 70
     0
 40
129.7276464542651
 10
1923.60588156276
 20
1793.121228859297
 41
148.5
 11
0.0
 21
0.0
 31
1.0
 12
0.0
 22
0.0
 32
0.0
 42
50.0
 43
-1370.695619172058
 44
-1370.695619172058
 50
0.0
 71
    16
281
     0
 72
     0
  0
VIEW
  5
AE3
330
6
100
AcDbSymbolTableRecord
100
AcDbViewTableRecord
  2
AM_VIEW3
 70
     0
 40
129.7276464542651
 10
1775.10588156276
 20
1712.848875313562
 41
148.5
 11
0.0
 21
0.0
 31
1.0
 12
0.0
 22
0.0
 32
0.0
 42
50.0
 43
-1370.695619172058
 44
-1370.695619172058
 50
0.0
 71
    16
281
     0
 72
     0
  0
VIEW
  5
AE4
330
6
100
AcDbSymbolTableRecord
100
AcDbViewTableRecord
  2
AM_VIEW4
 70
     0
 40
129.7276464542651
 10
1923.60588156276
 20
1712.848875313562
 41
148.5
 11
0.0
 21
0.0
 31
1.0
 12
0.0
 22
0.0
 32
0.0
 42
50.0
 43
-1370.695619172058
 44
-1370.695619172058
 50
0.0
 71
    16
281
     0
 72
     0
  0
VIEW
  5
AE5
330
6
100
AcDbSymbolTableRecord
100
AcDbViewTableRecord
  2
AM_VIEW5
 70
     0
 40
129.7276464542651
 10
1849.35588156276
 20
1752.985052086429
 41
148.5
 11
0.0
 21
0.0
 31
1.0
 12
0.0
 22
0.0
 32
0.0
 42
50.0
 43
-1370.695619172058
 44
-1370.695619172058
 50
0.0
 71
    16
281
     0
 72
     0
  0
VIEW
  5
AE6
330
6
100
AcDbSymbolTableRecord
100
AcDbViewTableRecord
  2
AM_VIEW6
 70
     0
 40
259.4526983556011
 10
1849.35588156276
 20
1752.985052086429
 41
296.99703
 11
0.0
 21
0.0
 31
1.0
 12
0.0
 22
0.0
 32
0.0
 42
50.0
 43
-1370.695619172058
 44
-1370.695619172058
 50
0.0
 71
    16
281
     0
 72
     0
  0
ENDTAB
  0
TABLE
  2
UCS
  5
7
330
0
100
AcDbSymbolTable
 70
     0
  0
ENDTAB
  0
TABLE
  2
APPID
  5
9
330
0
100
AcDbSymbolTable
 70
    58
  0
APPID
  5
12
330
9
100
AcDbSymbolTableRecord
100
AcDbRegAppTableRecord
  2
ACAD
 70
     0
  0
APPID
  5
30
330
9
100
AcDbSymbolTableRecord
100
AcDbRegAppTableRecord
  2
MCAD_NO_VIS
 70
     0
  0
APPID
  5
31
330
9
100
AcDbSymbolTableRecord
100
AcDbRegAppTableRecord
  2
ACAD_TEMP_GRAPHIC
 70
     0
  0
APPID
  5
44
330
9
100
AcDbSymbolTableRecord
100
AcDbRegAppTableRecord
  2
ACATTRIBSERVICES
 70
     0
  0
APPID
  5
7A1
330
9
100
AcDbSymbolTableRecord
100
AcDbRegAppTableRecord
  2
GENIUS_GENDIMSH_14
 70
     0
  0
APPID
  5
A49
330
9
100
AcDbSymbolTableRecord
100
AcDbRegAppTableRecord
  2
GENIUS_GENREC_14
 70
     0
  0
APPID
  5
A4A
330
9
100
AcDbSymbolTableRecord
100
AcDbRegAppTableRecord
  2
GENIUS_GENOBJ-N-REC_13
 70
     0
  0
APPID
  5
A4B
330
9
100
AcDbSymbolTableRecord
100
AcDbRegAppTableRecord
  2
GENIUS_GENODEF_13
 70
     0
  0
APPID
  5
A4C
330
9
100
AcDbSymbolTableRecord
100
AcDbRegAppTableRecord
  2
DCO15
 70
     0
  0
APPID
  5
ADC
330
9
100
AcDbSymbolTableRecord
100
AcDbRegAppTableRecord
  2
GENIUS_GENOLIS_13
 70
     0
  0
APPID
  5
ADD
330
9
100
AcDbSymbolTableRecord
100
AcDbRegAppTableRecord
  2
GENIUS_GENOENT_13
 70
     0
  0
APPID
  5
ADE
330
9
100
AcDbSymbolTableRecord
100
AcDbRegAppTableRecord
  2
GENIUS_GENOBJ-N-TIT_13
 70
     0
  0
APPID
  5
ADF
330
9
100
AcDbSymbolTableRecord
100
AcDbRegAppTableRecord
  2
GENIUS_GENTITLE_13
 70
     0
  0
APPID
  5
AE0
330
9
100
AcDbSymbolTableRecord
100
AcDbRegAppTableRecord
  2
GENIUS_GENOREF_13
 70
     0
  0
APPID
  5
AE7
330
9
100
AcDbSymbolTableRecord
100
AcDbRegAppTableRecord
  2
GENIUS_GENSCREG_15
 70
     0
  0
APPID
  5
AE8
330
9
100
AcDbSymbolTableRecord
100
AcDbRegAppTableRecord
  2
GENIUS_GENOBJ-N-SDF_13
 70
     0
  0
APPID
  5
FAF
330
9
100
AcDbSymbolTableRecord
100
AcDbRegAppTableRecord
  2
GENIUS_GENBLLY_14
 70
     0
  0
APPID
  5
FB0
330
9
100
AcDbSymbolTableRecord
100
AcDbRegAppTableRecord
  2
GENIUS_GENTRA_14
 70
     0
  0
APPID
  5
1285
330
9
100
AcDbSymbolTableRecord
100
AcDbRegAppTableRecord
  2
GENIUS_GENDTOL_13
 70
     0
  0
APPID
  5
142D
330
9
100
AcDbSymbolTableRecord
100
AcDbRegAppTableRecord
  2
GENIUS_GENOBJ-N-CEN_13
 70
     0
  0
APPID
  5
1AB5
330
9
100
AcDbSymbolTableRecord
100
AcDbRegAppTableRecord
  2
GENIUS_GENOBJ-N-CRS_13
 70
     0
  0
APPID
  5
1B36
330
9
100
AcDbSymbolTableRecord
100
AcDbRegAppTableRecord
  2
GENIUS_GENOBJ-N-HTC_13
 70
     0
  0
APPID
  5
1B37
330
9
100
AcDbSymbolTableRecord
100
AcDbRegAppTableRecord
  2
GENIUS_GENHATCH_13
 70
     0
  0
APPID
  5
216D
330
9
100
AcDbSymbolTableRecord
100
AcDbRegAppTableRecord
  2
GENIUS_GENOBJ-N-FIL_13
 70
     0
  0
APPID
  5
2356
330
9
100
AcDbSymbolTableRecord
100
AcDbRegAppTableRecord
  2
GEVID990412420
 70
     0
  0
APPID
  5
2357
330
9
100
AcDbSymbolTableRecord
100
AcDbRegAppTableRecord
  2
GEVDC
 70
     0
  0
APPID
  5
2358
330
9
100
AcDbSymbolTableRecord
100
AcDbRegAppTableRecord
  2
GEVCON
 70
     0
  0
APPID
  5
235B
330
9
100
AcDbSymbolTableRecord
100
AcDbRegAppTableRecord
  2
GEVRADREF
 70
     0
  0
APPID
  5
2360
330
9
100
AcDbSymbolTableRecord
100
AcDbRegAppTableRecord
  2
GENIUS_GENBH_13
 70
     0
  0
APPID
  5
2362
330
9
100
AcDbSymbolTableRecord
100
AcDbRegAppTableRecord
  2
GENIUS_GENOBJ-NBEHI-BHF_13
 70
     0
  0
APPID
  5
2364
330
9
100
AcDbSymbolTableRecord
100
AcDbRegAppTableRecord
  2
GENIUS_GENOBJ-NBEHI-BHB_13
 70
     0
  0
APPID
  5
2379
330
9
100
AcDbSymbolTableRecord
100
AcDbRegAppTableRecord
  2
GENIUS_GENOBJ-F-SCPASSM_13
 70
     0
  0
APPID
  5
3D74
330
9
100
AcDbSymbolTableRecord
100
AcDbRegAppTableRecord
  2
GENIUS_GENDIM_13
 70
     0
  0
APPID
  5
3D76
330
9
100
AcDbSymbolTableRecord
100
AcDbRegAppTableRecord
  2
GENIUS_GE3DTOL_13
 70
     0
  0
APPID
  5
3D9C
330
9
100
AcDbSymbolTableRecord
100
AcDbRegAppTableRecord
  2
AD_DRAW
 70
     0
  0
APPID
  5
3DE8
330
9
100
AcDbSymbolTableRecord
100
AcDbRegAppTableRecord
  2
ASURF_PCURVE_APPNAME
 70
     0
  0
APPID
  5
3DED
330
9
100
AcDbSymbolTableRecord
100
AcDbRegAppTableRecord
  2
AMG_3D2D_5.0
 70
     0
  0
APPID
  5
3E1B
330
9
100
AcDbSymbolTableRecord
100
AcDbRegAppTableRecord
  2
DESIGNERASSEMBLIES
 70
     0
  0
APPID
  5
3E20
330
9
100
AcDbSymbolTableRecord
100
AcDbRegAppTableRecord
  2
ACADM_DIM_EDIT
 70
     0
  0
APPID
  5
3E21
330
9
100
AcDbSymbolTableRecord
100
AcDbRegAppTableRecord
  2
AMDT_DM_ADJ
 70
     0
  0
APPID
  5
4143
330
9
100
AcDbSymbolTableRecord
100
AcDbRegAppTableRecord
  2
GENIUS_GENFIL_13
 70
     0
  0
APPID
  5
4144
330
9
100
AcDbSymbolTableRecord
100
AcDbRegAppTableRecord
  2
GENIUS_GENOBJ-N-CHA_13
 70
     0
  0
APPID
  5
4E17
330
9
100
AcDbSymbolTableRecord
100
AcDbRegAppTableRecord
  2
GEVID1008153417
 70
     0
  0
APPID
  5
4E58
330
9
100
AcDbSymbolTableRecord
100
AcDbRegAppTableRecord
  2
GEVID1008153418
 70
     0
  0
APPID
  5
4E5E
330
9
100
AcDbSymbolTableRecord
100
AcDbRegAppTableRecord
  2
GEVID1008153419
 70
     0
  0
APPID
  5
4E64
330
9
100
AcDbSymbolTableRecord
100
AcDbRegAppTableRecord
  2
GEVID1008153420
 70
     0
  0
APPID
  5
4E75
330
9
100
AcDbSymbolTableRecord
100
AcDbRegAppTableRecord
  2
GEVID1008153421
 70
     0
  0
APPID
  5
4EB7
330
9
100
AcDbSymbolTableRecord
100
AcDbRegAppTableRecord
  2
GENIUS_AMGTXT_16
 70
     0
  0
APPID
  5
7645
330
9
100
AcDbSymbolTableRecord
100
AcDbRegAppTableRecord
  2
GENIUS_GENOBJ-N-DIM_13
 70
     0
  0
APPID
  5
AAD0
330
9
100
AcDbSymbolTableRecord
100
AcDbRegAppTableRecord
  2
ACAD_DSTYLE_DIMARC_LENGTH_SYMBOL
 70
     0
  0
APPID
  5
AAD1
330
9
100
AcDbSymbolTableRecord
100
AcDbRegAppTableRecord
  2
ACAD_DSTYLE_DIMJOGGED_JOGANGLE_SYMBOL
 70
     0
  0
APPID
  5
AAFD
330
9
100
AcDbSymbolTableRecord
100
AcDbRegAppTableRecord
  2
ACAD_PSEXT
 70
     0
  0
APPID
  5
AD61
330
9
100
AcDbSymbolTableRecord
100
AcDbRegAppTableRecord
  2
AcAecLayerStandard
 70
     0
  0
APPID
  5
AEE3
330
9
100
AcDbSymbolTableRecord
100
AcDbRegAppTableRecord
  2
ACAD_EXEMPT_FROM_CAD_STANDARDS
 70
     0
  0
APPID
  5
B1BE
330
9
100
AcDbSymbolTableRecord
100
AcDbRegAppTableRecord
  2
GENIUS_GENCEN_19
 70
     0
  0
APPID
  5
B597
330
9
100
AcDbSymbolTableRecord
100
AcDbRegAppTableRecord
  2
ACAD_MLEADERVER
 70
     0
  0
APPID
  5
B746
330
9
100
AcDbSymbolTableRecord
100
AcDbRegAppTableRecord
  2
ACAD_DSTYLE_DIMINSPECT
 70
     0
  0
APPID
  5
BC17
330
9
100
AcDbSymbolTableRecord
100
AcDbRegAppTableRecord
  2
ACAD_DSTYLE_DIMRADIAL_EXTENSION
 70
     0
  0
ENDTAB
  0
TABLE
  2
DIMSTYLE
  5
A
330
0
100
AcDbSymbolTable
 70
    18
100
AcDbDimStyleTable
 71
     1
340
2515
  0
DIMSTYLE
105
A76
330
A
100
AcDbSymbolTableRecord
100
AcDbDimStyleTableRecord
  2
STANDARD
 70
     0
 41
3.0
 42
1.0
 43
7.0
 44
2.0
 73
     0
 74
     0
 77
     1
140
2.799999999999999
141
0.0
143
0.0394
147
0.7
171
     4
172
     1
173
     1
176
     3
177
     3
178
     2
271
     3
272
     3
273
     8
274
     4
289
     0
340
A74
341
A66
343
A66
344
A66
  0
DIMSTYLE
105
2515
330
A
100
AcDbSymbolTableRecord
100
AcDbDimStyleTableRecord
  2
SYS
 70
     0
  4
"
 41
1.0
 42
1.0
 43
10.0
 44
1.0
 47
0.1
 48
0.1
 73
     0
 74
     0
 77
     1
 78
     8
 79
     2
140
3.5
141
0.0
143
0.0393701
146
0.71
147
1.5
172
     1
176
   256
177
   256
178
     7
271
     2
272
     2
283
     0
284
     8
340
11
371
    -1
372
    -1
1001
ACAD_DSTYLE_DIMJOGGED_JOGANGLE_SYMBOL
1070
   384
1040
0.7853981633974483
1001
ACAD_DSTYLE_DIMARC_LENGTH_SYMBOL
1070
   379
1070
     1
  0
DIMSTYLE
105
2516
102
{ACAD_REACTORS
330
E0CD
102
}
330
A
100
AcDbSymbolTableRecord
100
AcDbDimStyleTableRecord
  2
SYS$3
 70
     0
  4
"
 41
2.0
 42
1.0
 43
10.0
 44
1.0
 47
0.1
 48
0.1
 73
     0
 77
     1
 78
     8
 79
     2
140
3.5
141
0.0
143
0.0393701
146
0.71
147
1.5
176
   256
177
   256
178
     2
271
     2
272
     2
283
     0
284
     8
288
     1
340
11
342
A66
371
    -1
372
    -1
1001
ACAD_DSTYLE_DIMJOGGED_JOGANGLE_SYMBOL
1070
   384
1040
0.7853981633974483
1001
ACAD_DSTYLE_DIMARC_LENGTH_SYMBOL
1070
   379
1070
     1
  0
DIMSTYLE
105
2517
330
A
100
AcDbSymbolTableRecord
100
AcDbDimStyleTableRecord
  2
SYS$4
 70
     0
  4
"
 41
2.0
 42
1.0
 43
10.0
 44
1.0
 47
0.1
 48
0.1
 73
     0
 77
     1
 78
     8
 79
     2
140
3.5
141
0.0
143
0.0393701
146
0.71
147
1.5
173
     1
176
   256
177
   256
178
     2
271
     2
272
     2
283
     0
284
     8
288
     1
340
11
344
A66
371
    -1
372
    -1
1001
ACAD_DSTYLE_DIMJOGGED_JOGANGLE_SYMBOL
1070
   384
1040
0.7853981633974483
1001
ACAD_DSTYLE_DIMARC_LENGTH_SYMBOL
1070
   379
1070
     1
  0
DIMSTYLE
105
2518
330
A
100
AcDbSymbolTableRecord
100
AcDbDimStyleTableRecord
  2
SYS$6
 70
     0
  4
"
 41
2.0
 42
1.0
 43
10.0
 44
1.0
 47
0.1
 48
0.1
 73
     0
 74
     0
 78
     8
 79
     2
140
3.5
141
0.0
143
0.0393701
146
0.71
147
1.5
172
     1
176
   256
177
   256
178
     2
271
     2
272
     2
283
     0
284
     8
340
11
341
A66
371
    -1
372
    -1
1001
ACAD_DSTYLE_DIMJOGGED_JOGANGLE_SYMBOL
1070
   384
1040
0.7853981633974483
1001
ACAD_DSTYLE_DIMARC_LENGTH_SYMBOL
1070
   379
1070
     1
  0
DIMSTYLE
105
2519
330
A
100
AcDbSymbolTableRecord
100
AcDbDimStyleTableRecord
  2
SYS$7
 70
     0
  4
"
 41
2.0
 42
1.0
 43
10.0
 44
1.0
 47
0.1
 48
0.1
 73
     0
 74
     0
 77
     1
 78
     8
 79
     2
140
5.0
141
0.0
143
0.0393701
146
0.71
147
1.5
172
     1
176
   256
177
   256
178
     2
271
     2
272
     2
283
     0
284
     8
340
11
341
A66
342
A66
371
    -1
372
    -1
1001
ACAD_DSTYLE_DIMJOGGED_JOGANGLE_SYMBOL
1070
   384
1040
0.7853981633974483
1001
ACAD_DSTYLE_DIMARC_LENGTH_SYMBOL
1070
   379
1070
     1
  0
DIMSTYLE
105
251A
330
A
100
AcDbSymbolTableRecord
100
AcDbDimStyleTableRecord
  2
SYS$SF
 70
     0
  4
"
 41
2.5
 42
1.0
 43
10.0
 44
1.0
 47
0.1
 48
0.1
 73
     0
 74
     0
 75
     1
 76
     1
 77
     1
 78
     8
 79
     2
140
3.5
141
0.0
143
0.0393701
146
0.71
147
1.5
172
     1
176
   256
177
   256
178
     2
271
     2
272
     3
283
     0
284
     8
340
11
341
6C4
342
6C4
371
    -1
372
    -1
1001
ACAD_DSTYLE_DIMJOGGED_JOGANGLE_SYMBOL
1070
   384
1040
0.7853981633974483
1001
ACAD_DSTYLE_DIMARC_LENGTH_SYMBOL
1070
   379
1070
     1
  0
DIMSTYLE
105
251B
330
A
100
AcDbSymbolTableRecord
100
AcDbDimStyleTableRecord
  2
SYS$SH
 70
     0
  4
"
 41
2.5
 42
1.0
 43
10.0
 44
1.0
 47
0.1
 48
0.1
 73
     0
 74
     0
 75
     1
 76
     1
 77
     1
 78
     8
 79
     2
140
3.5
141
0.0
143
0.0393701
144
2.0
146
0.71
147
1.5
172
     1
173
     1
176
   256
177
   256
178
     2
271
     2
272
     3
283
     0
284
     8
340
11
341
6C4
343
72
344
6C4
371
    -1
372
    -1
1001
ACAD_DSTYLE_DIMJOGGED_JOGANGLE_SYMBOL
1070
   384
1040
0.7853981633974483
1001
ACAD_DSTYLE_DIMARC_LENGTH_SYMBOL
1070
   379
1070
     1
  0
DIMSTYLE
105
2A59
330
A
100
AcDbSymbolTableRecord
100
AcDbDimStyleTableRecord
  2
SYS$2
 70
     0
  4
"
 41
1.0
 42
1.0
 43
10.0
 44
1.0
 47
0.1
 48
0.1
 73
     0
 74
     0
 77
     1
 78
     8
 79
     2
140
3.5
141
0.0
143
0.0393701
146
0.71
147
1.5
172
     1
176
   256
177
   256
178
     2
271
     2
272
     2
283
     0
284
     8
340
11
342
6C4
371
    -1
372
    -1
1001
ACAD_DSTYLE_DIMJOGGED_JOGANGLE_SYMBOL
1070
   384
1040
0.7853981633974483
1001
ACAD_DSTYLE_DIMARC_LENGTH_SYMBOL
1070
   379
1070
     1
  0
DIMSTYLE
105
2AAB
102
{ACAD_REACTORS
330
DE1E
330
DE46
330
DE89
330
DEDA
330
DF9D
330
DFFF
330
E030
330
E058
330
E077
330
E16B
330
E193
102
}
330
A
100
AcDbSymbolTableRecord
100
AcDbDimStyleTableRecord
  2
SYS$0
 70
     0
  4
"
 41
1.0
 42
1.0
 43
10.0
 44
1.0
 47
0.1
 48
0.1
 73
     0
 74
     0
 77
     1
 78
     8
 79
     2
140
3.200000000000001
141
0.0
143
0.0393701
146
0.71
147
1.5
172
     1
176
   256
177
   256
178
     2
271
     2
272
     2
283
     0
284
     8
340
11
341
A66
342
6C4
371
    -1
372
    -1
1001
ACAD_DSTYLE_DIMJOGGED_JOGANGLE_SYMBOL
1070
   384
1040
0.7853981633974483
1001
ACAD_DSTYLE_DIMARC_LENGTH_SYMBOL
1070
   379
1070
     1
  0
DIMSTYLE
105
AF99
330
A
100
AcDbSymbolTableRecord
100
AcDbDimStyleTableRecord
  2
AM_ISO
 70
     0
  4
"
 41
2.5
 42
1.0
 43
10.0
 44
1.0
 47
0.1
 48
0.1
 73
     0
 74
     0
 77
     1
 78
     8
 79
     2
140
3.5
141
0.0
143
0.0393701
146
0.71
147
1.5
172
     1
176
   256
177
   256
178
     2
271
     2
272
     3
274
     4
283
     0
284
     8
340
11
371
    -1
372
    -1
  0
DIMSTYLE
105
AF9A
330
A
100
AcDbSymbolTableRecord
100
AcDbDimStyleTableRecord
  2
AM_ISO$3
 70
     0
  4
"
 41
2.5
 42
1.0
 43
10.0
 44
1.0
 47
0.1
 48
0.1
 73
     0
 77
     1
 78
     8
 79
     2
140
3.5
141
0.0
143
0.0393701
146
0.71
147
1.5
176
   256
177
   256
178
     2
271
     2
272
     3
274
     4
283
     0
284
     8
288
     1
289
     0
340
11
371
    -1
372
    -1
  0
DIMSTYLE
105
AF9B
330
A
100
AcDbSymbolTableRecord
100
AcDbDimStyleTableRecord
  2
AM_ISO$4
 70
     0
  4
"
 41
2.5
 42
1.0
 43
10.0
 44
1.0
 47
0.1
 48
0.1
 73
     0
 77
     1
 78
     8
 79
     2
140
3.5
141
0.0
143
0.0393701
146
0.71
147
1.5
176
   256
177
   256
178
     2
271
     2
272
     3
274
     4
283
     0
284
     8
288
     1
289
     0
340
11
371
    -1
372
    -1
  0
DIMSTYLE
105
AF9C
330
A
100
AcDbSymbolTableRecord
100
AcDbDimStyleTableRecord
  2
AM_ISO$6
 70
     0
  4
"
 41
2.5
 42
1.0
 43
10.0
 44
1.0
 47
0.1
 48
0.1
 73
     0
 74
     0
 78
     8
 79
     2
140
3.5
141
0.0
143
0.0393701
146
0.71
147
1.5
172
     1
176
   256
177
   256
178
     2
271
     2
272
     3
274
     4
283
     0
284
     8
340
11
371
    -1
372
    -1
  0
DIMSTYLE
105
AF9D
330
A
100
AcDbSymbolTableRecord
100
AcDbDimStyleTableRecord
  2
AM_ISO$7
 70
     0
  4
"
 41
2.5
 42
1.0
 43
10.0
 44
1.0
 47
0.1
 48
0.1
 73
     0
 74
     0
 77
     1
 78
     8
 79
     2
140
5.0
141
0.0
143
0.0393701
146
0.71
147
1.5
172
     1
176
   256
177
   256
178
     2
271
     2
272
     3
274
     4
283
     0
284
     8
340
11
371
    -1
372
    -1
  0
DIMSTYLE
105
AF9E
330
A
100
AcDbSymbolTableRecord
100
AcDbDimStyleTableRecord
  2
AM_ISO$SF
 70
     0
  4
"
 41
2.5
 42
1.0
 43
10.0
 44
1.0
 47
0.1
 48
0.1
 73
     0
 74
     0
 75
     1
 76
     1
 77
     1
 78
     8
 79
     2
140
3.5
141
0.0
143
0.0393701
146
0.71
147
1.5
172
     1
176
   256
177
   256
178
     2
271
     2
272
     3
274
     4
283
     0
284
     8
340
11
371
    -1
372
    -1
  0
DIMSTYLE
105
AF9F
330
A
100
AcDbSymbolTableRecord
100
AcDbDimStyleTableRecord
  2
AM_ISO$SH
 70
     0
  4
"
 41
2.5
 42
1.0
 43
10.0
 44
1.0
 47
0.1
 48
0.1
 73
     0
 74
     0
 75
     1
 76
     1
 77
     1
 78
     8
 79
     2
140
3.5
141
0.0
143
0.0393701
144
2.0
146
0.71
147
1.5
172
     1
173
     1
176
   256
177
   256
178
     2
271
     2
272
     3
274
     4
283
     0
284
     8
340
11
343
72
371
    -1
372
    -1
  0
DIMSTYLE
105
B745
330
A
100
AcDbSymbolTableRecord
100
AcDbDimStyleTableRecord
  2
ISO-25
 70
     0
 41
2.5
 42
0.625
 43
3.75
 44
1.25
 73
     0
 74
     0
 77
     1
 78
     8
140
2.5
141
2.5
143
0.03937007874016
147
0.625
171
     3
172
     1
271
     2
272
     2
274
     3
278
    44
283
     0
284
     8
340
11
  0
ENDTAB
  0
TABLE
  2
BLOCK_RECORD
  5
1
330
0
100
AcDbSymbolTable
 70
    25
  0
BLOCK_RECORD
  5
1F
102
{ACAD_XDICTIONARY
360
8A
102
}
330
1
100
AcDbSymbolTableRecord
100
AcDbBlockTableRecord
  2
*Model_Space
340
22
  0
BLOCK_RECORD
  5
1B
330
1
100
AcDbSymbolTableRecord
100
AcDbBlockTableRecord
  2
*Paper_Space
340
1E
  0
BLOCK_RECORD
  5
23
330
1
100
AcDbSymbolTableRecord
100
AcDbBlockTableRecord
  2
*Paper_Space0
340
26
  0
BLOCK_RECORD
  5
72
330
1
100
AcDbSymbolTableRecord
100
AcDbBlockTableRecord
  2
GENAXEH
340
0
  0
BLOCK_RECORD
  5
6C4
330
1
100
AcDbSymbolTableRecord
100
AcDbBlockTableRecord
  2
_Dot
340
0
102
{BLKREFS
331
DFC8
331
DFC9
331
E02A
331
E02B
331
E1BD
331
E1BE
331
E23F
331
E240
331
E248
331
E249
331
E253
331
E254
331
E25C
331
E25D
331
E26B
331
E26C
331
E274
331
E275
331
E27D
331
E27E
331
E288
331
E289
102
}
  0
BLOCK_RECORD
  5
A66
330
1
100
AcDbSymbolTableRecord
100
AcDbBlockTableRecord
  2
_OPEN30
340
0
102
{BLKREFS
331
E265
102
}
  0
BLOCK_RECORD
  5
B5F8
330
1
100
AcDbSymbolTableRecord
100
AcDbBlockTableRecord
  2
SYS図枠A3
340
0
102
{BLKREFS
331
B60F
102
}
  0
BLOCK_RECORD
  5
B608
102
{ACAD_XDICTIONARY
360
B609
102
}
330
1
100
AcDbSymbolTableRecord
100
AcDbBlockTableRecord
  2
SYS図枠A3(12)
340
0
  0
BLOCK_RECORD
  5
B611
102
{ACAD_XDICTIONARY
360
B612
102
}
330
1
100
AcDbSymbolTableRecord
100
AcDbBlockTableRecord
  2
SYS表題A1A2A3(12)
340
0
  0
BLOCK_RECORD
  5
B685
102
{ACAD_XDICTIONARY
360
B686
102
}
330
1
100
AcDbSymbolTableRecord
100
AcDbBlockTableRecord
  2
DIM0001
340
0
  0
BLOCK_RECORD
  5
B68F
102
{ACAD_XDICTIONARY
360
B690
102
}
330
1
100
AcDbSymbolTableRecord
100
AcDbBlockTableRecord
  2
DIM0002
340
0
  0
BLOCK_RECORD
  5
BE00
330
1
100
AcDbSymbolTableRecord
100
AcDbBlockTableRecord
  2
GENDOT
340
0
102
{BLKREFS
331
E1D5
102
}
  0
BLOCK_RECORD
  5
BE8F
102
{ACAD_XDICTIONARY
360
BE90
102
}
330
1
100
AcDbSymbolTableRecord
100
AcDbBlockTableRecord
  2
DIM
340
0
  0
BLOCK_RECORD
  5
C4D0
102
{ACAD_XDICTIONARY
360
C4D1
102
}
330
1
100
AcDbSymbolTableRecord
100
AcDbBlockTableRecord
  2
DIM0003
340
0
  0
BLOCK_RECORD
  5
DE1F
330
1
100
AcDbSymbolTableRecord
100
AcDbBlockTableRecord
  2
*D13
340
0
  0
BLOCK_RECORD
  5
DE47
330
1
100
AcDbSymbolTableRecord
100
AcDbBlockTableRecord
  2
*D14
340
0
  0
BLOCK_RECORD
  5
DE8A
330
1
100
AcDbSymbolTableRecord
100
AcDbBlockTableRecord
  2
*D15
340
0
  0
BLOCK_RECORD
  5
DEDB
330
1
100
AcDbSymbolTableRecord
100
AcDbBlockTableRecord
  2
*D16
340
0
  0
BLOCK_RECORD
  5
DF9E
330
1
100
AcDbSymbolTableRecord
100
AcDbBlockTableRecord
  2
*D17
340
0
  0
BLOCK_RECORD
  5
E000
330
1
100
AcDbSymbolTableRecord
100
AcDbBlockTableRecord
  2
*D18
340
0
  0
BLOCK_RECORD
  5
E031
330
1
100
AcDbSymbolTableRecord
100
AcDbBlockTableRecord
  2
*D19
340
0
  0
BLOCK_RECORD
  5
E059
330
1
100
AcDbSymbolTableRecord
100
AcDbBlockTableRecord
  2
*D20
340
0
  0
BLOCK_RECORD
  5
E078
330
1
100
AcDbSymbolTableRecord
100
AcDbBlockTableRecord
  2
*D21
340
0
  0
BLOCK_RECORD
  5
E0CE
330
1
100
AcDbSymbolTableRecord
100
AcDbBlockTableRecord
  2
*D22
340
0
  0
BLOCK_RECORD
  5
E16C
330
1
100
AcDbSymbolTableRecord
100
AcDbBlockTableRecord
  2
*D23
340
0
  0
BLOCK_RECORD
  5
E194
330
1
100
AcDbSymbolTableRecord
100
AcDbBlockTableRecord
  2
*D24
340
0
  0
ENDTAB
  0
ENDSEC
  0
SECTION
  2
BLOCKS
  0
BLOCK
  5
20
330
1F
100
AcDbEntity
  8
0
100
AcDbBlockBegin
  2
*Model_Space
 70
     0
 10
0.0
 20
0.0
 30
0.0
  3
*Model_Space
  1

  0
ENDBLK
  5
21
330
1F
100
AcDbEntity
  8
0
100
AcDbBlockEnd
  0
BLOCK
  5
1C
330
1B
100
AcDbEntity
 67
     1
  8
0
100
AcDbBlockBegin
  2
*Paper_Space
 70
     0
 10
0.0
 20
0.0
 30
0.0
  3
*Paper_Space
  1

  0
ENDBLK
  5
1D
330
1B
100
AcDbEntity
 67
     1
  8
0
100
AcDbBlockEnd
  0
BLOCK
  5
24
330
23
100
AcDbEntity
 67
     1
  8
0
100
AcDbBlockBegin
  2
*Paper_Space0
 70
     0
 10
0.0
 20
0.0
 30
0.0
  3
*Paper_Space0
  1

  0
ENDBLK
  5
25
330
23
100
AcDbEntity
 67
     1
  8
0
100
AcDbBlockEnd
  0
BLOCK
  5
74
330
72
100
AcDbEntity
  8
0
100
AcDbBlockBegin
  2
GENAXEH
 70
     0
 10
0.0
 20
0.0
 30
0.0
  3
GENAXEH
  1

  0
LINE
  5
73
330
72
100
AcDbEntity
  8
0
100
AcDbLine
 10
-1.0
 20
0.0
 30
0.0
 11
1.0
 21
0.0
 31
0.0
  0
ENDBLK
  5
75
330
72
100
AcDbEntity
  8
0
100
AcDbBlockEnd
  0
BLOCK
  5
6C7
330
6C4
100
AcDbEntity
  8
0
100
AcDbBlockBegin
  2
_Dot
 70
     0
 10
0.0
 20
0.0
 30
0.0
  3
_Dot
  1

  0
LWPOLYLINE
  5
6C5
330
6C4
100
AcDbEntity
  8
0
  6
ByBlock
 62
     0
100
AcDbPolyline
 90
        2
 70
     1
 43
0.5
 10
-0.25
 20
0.0
 42
1.0
 10
0.25
 20
0.0
 42
1.0
  0
LINE
  5
6C6
330
6C4
100
AcDbEntity
  8
0
  6
ByBlock
 62
     0
370
    -2
100
AcDbLine
 10
-0.5
 20
0.0
 30
0.0
 11
-1.0
 21
0.0
 31
0.0
  0
ENDBLK
  5
6C8
330
6C4
100
AcDbEntity
  8
0
100
AcDbBlockEnd
  0
BLOCK
  5
A6A
330
A66
100
AcDbEntity
  8
0
100
AcDbBlockBegin
  2
_OPEN30
 70
     0
 10
0.0
 20
0.0
 30
0.0
  3
_OPEN30
  1

  0
LINE
  5
A67
330
A66
100
AcDbEntity
  8
0
  6
ByBlock
 62
     0
100
AcDbLine
 10
-1.0
 20
0.26794919
 30
0.0
 11
0.0
 21
0.0
 31
0.0
  0
LINE
  5
A68
330
A66
100
AcDbEntity
  8
0
  6
ByBlock
 62
     0
100
AcDbLine
 10
0.0
 20
0.0
 30
0.0
 11
-1.0
 21
-0.26794919
 31
0.0
  0
LINE
  5
A69
330
A66
100
AcDbEntity
  8
0
  6
ByBlock
 62
     0
100
AcDbLine
 10
0.0
 20
0.0
 30
0.0
 11
-1.0
 21
0.0
 31
0.0
  0
ENDBLK
  5
A6B
330
A66
100
AcDbEntity
  8
0
100
AcDbBlockEnd
  0
BLOCK
  5
B5F9
330
B5F8
100
AcDbEntity
  8
0
100
AcDbBlockBegin
  2
SYS図枠A3
 70
     0
 10
0.0
 20
0.0
 30
0.0
  3
SYS図枠A3
  1

  0
LINE
  5
B5FA
330
B5F8
100
AcDbEntity
  8
size
100
AcDbLine
 10
0.0
 20
0.0
 30
0.0
 11
420.0
 21
0.0
 31
0.0
1001
GENIUS_GENREC_14
1002
{
1000
PYDIR
1011
0.0000000000000178
1021
297.0
1031
0.0
1002
}
1002
{
1000
PXDIR
1011
420.0
1021
0.0
1031
0.0
1002
}
1002
{
1000
PORI
1011
0.0
1021
0.0
1031
0.0
1002
}
1002
{
1000
PINS
1011
210.0
1021
148.4999999999999
1031
0.0
1002
}
1002
{
1000
HVAL
1000
297
1002
}
1002
{
1000
H
1070
     2
1002
}
1002
{
1000
WVAL
1000
420
1002
}
1002
{
1000
W
1070
     2
1002
}
1002
{
1000
C
1070
     4
1002
}
1001
GENIUS_GENOBJ-N-REC_13
1002
{
1000
OWNER
1000
GEN
1002
}
1001
GENIUS_GENODEF_13
1002
{
1000
HIER
1070
     0
1002
}
1002
{
1000
MANEDIT
1070
     0
1002
}
1002
{
1000
NOSEL
1070
     0
1002
}
1002
{
1000
BEHIND
1070
     0
1002
}
1002
{
1000
OTHER
1070
     0
1002
}
1002
{
1000
REACTOR
1002
}
  0
LINE
  5
B5FB
330
B5F8
100
AcDbEntity
  8
size
100
AcDbLine
 10
420.0
 20
0.0
 30
0.0
 11
420.0
 21
297.0
 31
0.0
1001
GENIUS_GENREC_14
1002
{
1000
PYDIR
1011
0.0000000000000178
1021
297.0
1031
0.0
1002
}
1002
{
1000
PXDIR
1011
420.0
1021
0.0
1031
0.0
1002
}
1002
{
1000
PORI
1011
0.0
1021
0.0
1031
0.0
1002
}
1002
{
1000
PINS
1011
210.0
1021
148.4999999999999
1031
0.0
1002
}
1002
{
1000
HVAL
1000
297
1002
}
1002
{
1000
H
1070
     2
1002
}
1002
{
1000
WVAL
1000
420
1002
}
1002
{
1000
W
1070
     2
1002
}
1002
{
1000
C
1070
     4
1002
}
1001
GENIUS_GENOBJ-N-REC_13
1002
{
1000
OWNER
1000
GEN
1002
}
1001
GENIUS_GENODEF_13
1002
{
1000
HIER
1070
     0
1002
}
1002
{
1000
MANEDIT
1070
     0
1002
}
1002
{
1000
NOSEL
1070
     0
1002
}
1002
{
1000
BEHIND
1070
     0
1002
}
1002
{
1000
OTHER
1070
     0
1002
}
1002
{
1000
REACTOR
1002
}
  0
LINE
  5
B5FC
330
B5F8
100
AcDbEntity
  8
size
100
AcDbLine
 10
420.0
 20
297.0
 30
0.0
 11
0.0000000000000275
 21
297.0
 31
0.0
1001
GENIUS_GENREC_14
1002
{
1000
PYDIR
1011
0.0000000000000178
1021
297.0
1031
0.0
1002
}
1002
{
1000
PXDIR
1011
420.0
1021
0.0
1031
0.0
1002
}
1002
{
1000
PORI
1011
0.0
1021
0.0
1031
0.0
1002
}
1002
{
1000
PINS
1011
210.0
1021
148.4999999999999
1031
0.0
1002
}
1002
{
1000
HVAL
1000
297
1002
}
1002
{
1000
H
1070
     2
1002
}
1002
{
1000
WVAL
1000
420
1002
}
1002
{
1000
W
1070
     2
1002
}
1002
{
1000
C
1070
     4
1002
}
1001
GENIUS_GENOBJ-N-REC_13
1002
{
1000
OWNER
1000
GEN
1002
}
1001
GENIUS_GENODEF_13
1002
{
1000
HIER
1070
     0
1002
}
1002
{
1000
MANEDIT
1070
     0
1002
}
1002
{
1000
NOSEL
1070
     0
1002
}
1002
{
1000
BEHIND
1070
     0
1002
}
1002
{
1000
OTHER
1070
     0
1002
}
1002
{
1000
REACTOR
1002
}
  0
LINE
  5
B5FD
330
B5F8
100
AcDbEntity
  8
size
100
AcDbLine
 10
0.0000000000000275
 20
297.0
 30
0.0
 11
0.0
 21
0.0
 31
0.0
1001
GENIUS_GENREC_14
1002
{
1000
PYDIR
1011
0.0000000000000178
1021
297.0
1031
0.0
1002
}
1002
{
1000
PXDIR
1011
420.0
1021
0.0
1031
0.0
1002
}
1002
{
1000
PORI
1011
0.0
1021
0.0
1031
0.0
1002
}
1002
{
1000
PINS
1011
210.0
1021
148.4999999999999
1031
0.0
1002
}
1002
{
1000
HVAL
1000
297
1002
}
1002
{
1000
H
1070
     2
1002
}
1002
{
1000
WVAL
1000
420
1002
}
1002
{
1000
W
1070
     2
1002
}
1002
{
1000
C
1070
     4
1002
}
1001
GENIUS_GENOBJ-N-REC_13
1002
{
1000
OWNER
1000
GEN
1002
}
1001
GENIUS_GENODEF_13
1002
{
1000
HIER
1070
     0
1002
}
1002
{
1000
MANEDIT
1070
     0
1002
}
1002
{
1000
NOSEL
1070
     0
1002
}
1002
{
1000
BEHIND
1070
     0
1002
}
1002
{
1000
OTHER
1070
     0
1002
}
1002
{
1000
REACTOR
1002
}
  0
LINE
  5
B5FE
330
B5F8
100
AcDbEntity
  8
waku
100
AcDbLine
 10
408.4999999999999
 20
8.5
 30
0.0
 11
408.4999999999999
 21
288.5
 31
0.0
1001
GENIUS_GENREC_14
1002
{
1000
PYDIR
1011
0.0000000000000178
1021
297.0
1031
0.0
1002
}
1002
{
1000
PXDIR
1011
420.0
1021
0.0
1031
0.0
1002
}
1002
{
1000
PORI
1011
0.0
1021
0.0
1031
0.0
1002
}
1002
{
1000
PINS
1011
210.0
1021
148.4999999999999
1031
0.0
1002
}
1002
{
1000
HVAL
1000
297
1002
}
1002
{
1000
H
1070
     2
1002
}
1002
{
1000
WVAL
1000
420
1002
}
1002
{
1000
W
1070
     2
1002
}
1002
{
1000
C
1070
     4
1002
}
1001
GENIUS_GENOBJ-N-REC_13
1002
{
1000
OWNER
1000
GEN
1002
}
1001
GENIUS_GENODEF_13
1002
{
1000
HIER
1070
     0
1002
}
1002
{
1000
MANEDIT
1070
     0
1002
}
1002
{
1000
NOSEL
1070
     0
1002
}
1002
{
1000
BEHIND
1070
     0
1002
}
1002
{
1000
OTHER
1070
     0
1002
}
1002
{
1000
REACTOR
1002
}
  0
LINE
  5
B5FF
330
B5F8
100
AcDbEntity
  8
waku
100
AcDbLine
 10
11.50000000000002
 20
288.5
 30
0.0
 11
11.5
 21
8.5
 31
0.0
1001
GENIUS_GENREC_14
1002
{
1000
PYDIR
1011
0.0000000000000178
1021
297.0
1031
0.0
1002
}
1002
{
1000
PXDIR
1011
420.0
1021
0.0
1031
0.0
1002
}
1002
{
1000
PORI
1011
0.0
1021
0.0
1031
0.0
1002
}
1002
{
1000
PINS
1011
210.0
1021
148.4999999999999
1031
0.0
1002
}
1002
{
1000
HVAL
1000
297
1002
}
1002
{
1000
H
1070
     2
1002
}
1002
{
1000
WVAL
1000
420
1002
}
1002
{
1000
W
1070
     2
1002
}
1002
{
1000
C
1070
     4
1002
}
1001
GENIUS_GENOBJ-N-REC_13
1002
{
1000
OWNER
1000
GEN
1002
}
1001
GENIUS_GENODEF_13
1002
{
1000
HIER
1070
     0
1002
}
1002
{
1000
MANEDIT
1070
     0
1002
}
1002
{
1000
NOSEL
1070
     0
1002
}
1002
{
1000
BEHIND
1070
     0
1002
}
1002
{
1000
OTHER
1070
     0
1002
}
1002
{
1000
REACTOR
1002
}
  0
LINE
  5
B600
330
B5F8
100
AcDbEntity
  8
waku
100
AcDbLine
 10
408.4999999999999
 20
288.5
 30
0.0
 11
11.50000000000002
 21
288.5
 31
0.0
1001
GENIUS_GENREC_14
1002
{
1000
PYDIR
1011
0.0000000000000178
1021
297.0
1031
0.0
1002
}
1002
{
1000
PXDIR
1011
420.0
1021
0.0
1031
0.0
1002
}
1002
{
1000
PORI
1011
0.0
1021
0.0
1031
0.0
1002
}
1002
{
1000
PINS
1011
210.0
1021
148.4999999999999
1031
0.0
1002
}
1002
{
1000
HVAL
1000
297
1002
}
1002
{
1000
H
1070
     2
1002
}
1002
{
1000
WVAL
1000
420
1002
}
1002
{
1000
W
1070
     2
1002
}
1002
{
1000
C
1070
     4
1002
}
1001
GENIUS_GENOBJ-N-REC_13
1002
{
1000
OWNER
1000
GEN
1002
}
1001
GENIUS_GENODEF_13
1002
{
1000
HIER
1070
     0
1002
}
1002
{
1000
MANEDIT
1070
     0
1002
}
1002
{
1000
NOSEL
1070
     0
1002
}
1002
{
1000
BEHIND
1070
     0
1002
}
1002
{
1000
OTHER
1070
     0
1002
}
1002
{
1000
REACTOR
1002
}
  0
TEXT
  5
B601
330
B5F8
100
AcDbEntity
  8
AM_6
 60
     1
100
AcDbText
 10
0.0
 20
0.0
 30
0.0
 40
2.5
  1
!GENTITLE-LL
100
AcDbText
  0
TEXT
  5
B602
330
B5F8
100
AcDbEntity
  8
AM_6
 60
     1
100
AcDbText
 10
408.4999999999999
 20
288.5
 30
0.0
 40
2.5
  1
!GENTITLE-RU
100
AcDbText
  0
TEXT
  5
B603
330
B5F8
100
AcDbEntity
  8
AM_6
 60
     1
100
AcDbText
 10
420.0
 20
297.0
 30
0.0
 40
2.5
  1
!GENTITLE-MAX
100
AcDbText
  0
TEXT
  5
B604
330
B5F8
100
AcDbEntity
  8
AM_6
 60
     1
100
AcDbText
 10
408.4999999999999
 20
8.5
 30
0.0
 40
2.5
  1
!GENTITLE-INSERT
100
AcDbText
  0
LINE
  5
B605
330
B5F8
100
AcDbEntity
  8
waku
100
AcDbLine
 10
11.5
 20
8.5
 30
0.0
 11
408.4999999999999
 21
8.5
 31
0.0
  0
LINE
  5
B606
330
B5F8
100
AcDbEntity
  8
waku
100
AcDbLine
 10
11.5
 20
28.5
 30
0.0
 11
408.4999999999999
 21
28.5
 31
0.0
  0
ENDBLK
  5
B607
330
B5F8
100
AcDbEntity
  8
0
100
AcDbBlockEnd
  0
BLOCK
  5
B60A
330
B608
100
AcDbEntity
  8
0
100
AcDbBlockBegin
  2
SYS図枠A3(12)
 70
     0
 10
0.0
 20
0.0
 30
0.0
  3
SYS図枠A3(12)
  1

  0
TEXT
  5
B60B
330
B608
100
AcDbEntity
  8
AM_6
 60
     1
100
AcDbText
 10
408.4999999999999
 20
8.5
 30
0.0
 40
2.5
  1
!GENTITLE-INSERT
100
AcDbText
  0
TEXT
  5
B60C
330
B608
100
AcDbEntity
  8
AM_6
 60
     1
100
AcDbText
 10
0.0
 20
0.0
 30
0.0
 40
2.5
  1
!GENTITLE-LL
100
AcDbText
  0
TEXT
  5
B60D
330
B608
100
AcDbEntity
  8
AM_6
 60
     1
100
AcDbText
 10
420.0
 20
297.0
 30
0.0
 40
2.5
  1
!GENTITLE-RU
100
AcDbText
  0
TEXT
  5
B60E
330
B608
100
AcDbEntity
  8
AM_6
 60
     1
100
AcDbText
 10
420.0
 20
297.0
 30
0.0
 40
2.5
  1
!GENTITLE-MAX
100
AcDbText
  0
INSERT
  5
B60F
330
B608
100
AcDbEntity
  8
AM_0
 48
1.01
370
     0
100
AcDbBlockReference
  2
SYS図枠A3
 10
0.0
 20
0.0
 30
0.0
1001
GENIUS_GENOREF_13
1005
0
1001
GENIUS_GENOBJ-N-SDF_13
1002
{
1000
OWNER
1000
GEN
1002
}
1001
GENIUS_GENODEF_13
1002
{
1000
HIER
1070
     0
1002
}
1002
{
1000
MANEDIT
1070
     0
1002
}
1002
{
1000
NOSEL
1070
     0
1002
}
1002
{
1000
BEHIND
1070
     0
1002
}
1002
{
1000
OTHER
1070
     0
1002
}
1002
{
1000
REACTOR
1002
}
1001
GENIUS_GENSCREG_15
1040
1.0
1040
1.0
1011
0.0
1021
0.0
1031
0.0
1011
420.0
1021
297.0
1031
0.0
1070
     3
  0
ENDBLK
  5
B610
330
B608
100
AcDbEntity
  8
0
100
AcDbBlockEnd
  0
BLOCK
  5
B614
330
B611
100
AcDbEntity
  8
0
100
AcDbBlockBegin
  2
SYS表題A1A2A3(12)
 70
     2
 10
0.0
 20
0.0
 30
0.0
  3
SYS表題A1A2A3(12)
  1

  0
LINE
  5
B615
330
B611
100
AcDbEntity
  8
hyosen2
  6
Continuous
100
AcDbLine
 10
-259.0
 20
15.0
 30
0.0
 11
-199.0
 21
15.0
 31
0.0
  0
POLYLINE
  5
B616
330
B611
100
AcDbEntity
  8
hyosen2
100
AcDb2dPolyline
 66
     1
 10
0.0
 20
0.0
 30
0.0
 70
     1
  0
VERTEX
  5
B617
330
B616
100
AcDbEntity
  8
hyosen2
100
AcDbVertex
100
AcDb2dVertex
 10
-374.0661926269643
 20
11.69371524263439
 30
0.0
  0
VERTEX
  5
B618
330
B616
100
AcDbEntity
  8
hyosen2
100
AcDbVertex
100
AcDb2dVertex
 10
-377.0972815402098
 20
6.443715242634397
 30
0.0
  0
VERTEX
  5
B619
330
B616
100
AcDbEntity
  8
hyosen2
100
AcDbVertex
100
AcDb2dVertex
 10
-371.0351037137187
 20
6.443715242634397
 30
0.0
  0
SEQEND
  5
B61A
330
B616
100
AcDbEntity
  8
hyosen2
  0
LINE
  5
B61B
330
B611
100
AcDbEntity
  8
hyosen2
  6
Continuous
100
AcDbLine
 10
-397.0
 20
5.0
 30
0.0
 11
-289.0
 21
5.0
 31
0.0
  0
LINE
  5
B61C
330
B611
100
AcDbEntity
  8
hyosen2
  6
Continuous
100
AcDbLine
 10
-397.0
 20
15.0
 30
0.0
 11
-289.0
 21
15.0
 31
0.0
  0
ATTDEF
  5
B61D
330
B611
100
AcDbEntity
  8
hyomoji
100
AcDbText
 10
-146.5
 20
16.5
 30
0.0
 40
4.5
  1

 41
0.7
 72
     4
 11
-146.5
 21
16.5
 31
0.0
100
AcDbAttributeDefinition
  3
品名
  2
品名
 70
     0
  0
LINE
  5
B61E
330
B611
100
AcDbEntity
  8
hyosen2
  6
Continuous
100
AcDbLine
 10
-379.0
 20
20.0
 30
0.0
 11
-379.0
 21
0.0
 31
0.0
  0
TEXT
  5
B61F
330
B611
100
AcDbEntity
  8
hyomoji
  6
Continuous
100
AcDbText
 10
-390.5894449376765
 20
7.083327734958174
 30
0.0
 40
3.0
  1
訂正
 41
0.7
100
AcDbText
  0
TEXT
  5
B620
330
B611
100
AcDbEntity
  8
hyomoji
  6
Continuous
100
AcDbText
 10
-395.135658070493
 20
1.125685234927118
 30
0.0
 40
3.0
  1
ファイル名
 41
0.7
100
AcDbText
  0
TEXT
  5
B621
330
B611
100
AcDbEntity
  8
hyomoji
  6
Continuous
100
AcDbText
 10
-392.0894449376757
 20
16.00000000000006
 30
0.0
 40
3.0
  1
製図日
 41
0.7
100
AcDbText
  0
ATTDEF
  5
B622
330
B611
100
AcDbEntity
  8
hyomoji
100
AcDbText
 10
-156.5
 20
4.5
 30
0.0
 40
5.0
  1

 41
0.9
 72
     4
 11
-156.5
 21
4.5
 31
0.0
100
AcDbAttributeDefinition
  3
図番
  2
XXX000000-00-00
 70
     0
  0
TEXT
  5
B623
330
B611
100
AcDbEntity
  8
hyomoji
  6
Continuous
100
AcDbText
 10
-332.5587394575698
 20
6.541544646902877
 30
0.0
 40
3.0
  1
ファイルＮｏ
 41
0.7
100
AcDbText
  0
ATTDEF
  5
B624
330
B611
100
AcDbEntity
  8
hyomoji
100
AcDbText
 10
-206.0459174837802
 20
7.608416650702224
 30
0.0
 40
4.0
  1

 41
0.7
 72
     4
 11
-206.0459174837802
 21
7.608416650702224
 31
0.0
100
AcDbAttributeDefinition
  3
作図者
  2
作成
 70
     0
  0
ATTDEF
  5
B625
330
B611
100
AcDbEntity
  8
hyomoji
100
AcDbText
 10
-221.8819871038038
 20
7.635123295558287
 30
0.0
 40
4.0
  1

 41
0.7
 72
     4
 11
-221.8819871038038
 21
7.635123295558287
 31
0.0
100
AcDbAttributeDefinition
  3
検図者１
  2
確認1
 70
     0
  0
LINE
  5
B626
330
B611
100
AcDbEntity
  8
hyosen2
  6
Continuous
370
    30
100
AcDbLine
 10
-335.0
 20
20.0
 30
0.0
 11
-335.0
 21
0.0
 31
0.0
  0
LINE
  5
B627
330
B611
100
AcDbEntity
  8
hyosen2
  6
Continuous
100
AcDbLine
 10
-313.0
 20
20.0
 30
0.0
 11
-313.0
 21
0.0
 31
0.0
  0
LINE
  5
B628
330
B611
100
AcDbEntity
  8
hyosen1
  6
Continuous
370
    40
100
AcDbLine
 10
-289.0
 20
20.0
 30
0.0
 11
-289.0
 21
0.0
 31
0.0
  0
LINE
  5
B629
330
B611
100
AcDbEntity
  8
hyosen2
  6
Continuous
100
AcDbLine
 10
-284.0
 20
20.0
 30
0.0
 11
-284.0
 21
0.0
 31
0.0
  0
LINE
  5
B62A
330
B611
100
AcDbEntity
  8
hyosen1
  6
Continuous
370
    40
100
AcDbLine
 10
-269.0
 20
20.0
 30
0.0
 11
-269.0
 21
0.0
 31
0.0
  0
LINE
  5
B62B
330
B611
100
AcDbEntity
  8
hyosen2
  6
Continuous
100
AcDbLine
 10
-264.0
 20
20.0
 30
0.0
 11
-264.0
 21
0.0
 31
0.0
  0
LINE
  5
B62C
330
B611
100
AcDbEntity
  8
hyosen1
  6
Continuous
370
    40
100
AcDbLine
 10
-259.0
 20
20.0
 30
0.0
 11
-259.0
 21
0.0
 31
0.0
  0
LINE
  5
B62D
330
B611
100
AcDbEntity
  8
hyosen2
  6
Continuous
100
AcDbLine
 10
-244.0
 20
20.0
 30
0.0
 11
-244.0
 21
0.0
 31
0.0
  0
TEXT
  5
B62E
330
B611
100
AcDbEntity
  8
hyomoji
  6
Continuous
100
AcDbText
 10
-268.2351151297065
 20
7.75
 30
0.0
 40
4.5
  1
図
 41
0.7
100
AcDbText
  0
TEXT
  5
B62F
330
B611
100
AcDbEntity
  8
hyomoji
  6
Continuous
100
AcDbText
 10
-262.9538651297137
 20
6.062499999999914
 30
0.0
 40
3.5
  1
角
 41
0.7
100
AcDbText
  0
ATTDEF
  5
B630
330
B611
100
AcDbEntity
  8
hyomoji
100
AcDbText
 10
-236.447540298851
 20
7.608416650702224
 30
0.0
 40
4.0
  1

 41
0.7
 72
     4
 11
-236.447540298851
 21
7.608416650702224
 31
0.0
100
AcDbAttributeDefinition
  3
検図者2
  2
確認2
 70
     0
  0
TEXT
  5
B631
330
B611
100
AcDbEntity
  8
hyomoji
  6
Continuous
100
AcDbText
 10
-332.5587394575698
 20
0.9716253422103591
 30
0.0
 40
3.0
  1
整理Ｎｏ
 41
0.7
100
AcDbText
  0
ATTDEF
  5
B632
330
B611
100
AcDbEntity
  8
hyomoji
100
AcDbText
 10
-251.2645747193899
 20
7.635123295558287
 30
0.0
 40
4.0
  1

 41
0.7
 72
     4
 11
-251.2645747193899
 21
7.635123295558287
 31
0.0
100
AcDbAttributeDefinition
  3
承認
  2
承認
 70
     0
  0
ATTDEF
  5
B633
330
B611
100
AcDbEntity
  8
hyomoji
100
AcDbText
 10
-276.7142857142857
 20
13.28978913309856
 30
0.0
 40
4.5
  1

 41
0.7
 72
     4
 11
-276.7142857142857
 21
13.28978913309856
 31
0.0
100
AcDbAttributeDefinition
  3
尺度
  2
1/10
 70
     0
  0
TEXT
  5
B634
330
B611
100
AcDbEntity
  8
hyomoji
  6
Continuous
100
AcDbText
 10
-288.0104583041763
 20
2.125
 30
0.0
 40
4.5
  1
度
 41
0.7
100
AcDbText
  0
TEXT
  5
B635
330
B611
100
AcDbEntity
  8
hyomoji
  6
Continuous
100
AcDbText
 10
-268.2351151297099
 20
2.125
 30
0.0
 40
4.5
  1
法
 41
0.7
100
AcDbText
  0
TEXT
  5
B636
330
B611
100
AcDbEntity
  8
hyomoji
  6
Continuous
100
AcDbText
 10
-262.9538651297064
 20
1.6875
 30
0.0
 40
3.5
  1
法
 41
0.7
100
AcDbText
  0
LINE
  5
B637
330
B611
100
AcDbEntity
  8
hyosen2
  6
Continuous
100
AcDbLine
 10
-335.0
 20
10.0
 30
0.0
 11
-289.0
 21
10.0
 31
0.0
  0
ATTDEF
  5
B638
330
B611
100
AcDbEntity
  8
hyomoji
100
AcDbText
 10
-366.6947769257895
 20
16.17899192729692
 30
0.0
 40
3.0
  1
 
 41
0.7
100
AcDbAttributeDefinition
  3
製図日
  2
200X年XX年XX日
 70
     0
  0
TEXT
  5
B639
330
B611
100
AcDbEntity
  8
hyomoji
  6
Continuous
100
AcDbText
 10
-331.0587394575692
 20
11.25309884974953
 30
0.0
 40
3.0
  1
製造コ－ド
 41
0.7
100
AcDbText
  0
TEXT
  5
B63A
330
B611
100
AcDbEntity
  8
hyomoji
  6
Continuous
100
AcDbText
 10
-332.5587394575698
 20
16.25310284974961
 30
0.0
 40
3.0
  1
得意先コ－ド
 41
0.7
100
AcDbText
  0
ATTDEF
  5
B63B
330
B611
100
AcDbEntity
  8
hyomoji
100
AcDbText
 10
-374.0661885855164
 20
7.914918680119882
 30
0.0
 40
2.2
  1

 41
0.7
 72
     4
 11
-374.0661885855164
 21
7.914918680119882
 31
0.0
100
AcDbAttributeDefinition
  3
△
  2
99
 70
     0
  0
ATTDEF
  5
B63C
330
B611
100
AcDbEntity
  8
hyomoji
100
AcDbText
 10
-366.6947769257895
 20
6.541544646902877
 30
0.0
 40
3.0
  1

 41
0.7
100
AcDbAttributeDefinition
  3
訂正の日付
  2
200X年XX月XX日
 70
     0
  0
ATTDEF
  5
B63D
330
B611
100
AcDbEntity
  8
hyomoji
100
AcDbText
 10
-146.5
 20
11.0
 30
0.0
 40
2.0
  1

 41
0.7
 72
     4
 11
-146.5
 21
11.0
 31
0.0
100
AcDbAttributeDefinition
  3
部品名・現場名
  2
現場名：/部品名：
 70
     0
  0
TEXT
  5
B63E
330
B611
100
AcDbEntity
  8
hyomoji
  6
Continuous
100
AcDbText
 10
-288.0104583041817
 20
13.37499999999974
 30
0.0
 40
4.5
  1
尺
 41
0.7
100
AcDbText
  0
TEXT
  5
B63F
330
B611
100
AcDbEntity
  8
hyomoji
  6
Continuous
100
AcDbText
 10
-268.2351151297068
 20
13.37499999999997
 30
0.0
 40
4.5
  1
製
 41
0.7
100
AcDbText
  0
TEXT
  5
B640
330
B611
100
AcDbEntity
  8
hyomoji
  6
Continuous
100
AcDbText
 10
-262.9538651297137
 20
10.43749999999977
 30
0.0
 40
3.5
  1
三
 41
0.7
100
AcDbText
  0
TEXT
  5
B641
330
B611
100
AcDbEntity
  8
hyomoji
  6
Continuous
100
AcDbText
 10
-262.9538651297101
 20
14.81250000000011
 30
0.0
 40
3.5
  1
第
 41
0.7
100
AcDbText
  0
TEXT
  5
B642
330
B611
100
AcDbEntity
  8
hyomoji
  6
Continuous
100
AcDbText
 10
-253.9999999999982
 20
15.90000000000003
 30
0.0
 40
3.2
  1
承認
 41
0.7
100
AcDbText
  0
LINE
  5
B643
330
B611
100
AcDbEntity
  8
hyosen2
  6
Continuous
100
AcDbLine
 10
-194.0
 20
13.0
 30
0.0
 11
-99.0
 21
13.0
 31
0.0
  0
LINE
  5
B644
330
B611
100
AcDbEntity
  8
hyosen1
  6
Continuous
370
    40
100
AcDbLine
 10
-199.0
 20
9.0
 30
0.0
 11
0.0
 21
9.0
 31
0.0
  0
TEXT
  5
B645
330
B611
100
AcDbEntity
  8
hyomoji
  6
Continuous
100
AcDbText
 10
-117.2031300000003
 20
5.874999999999943
 30
0.0
 40
2.0
  1
総
 41
0.7
100
AcDbText
  0
TEXT
  5
B646
330
B611
100
AcDbEntity
  8
hyomoji
  6
Continuous
100
AcDbText
 10
-117.2031300000001
 20
3.250000000000028
 30
0.0
 40
2.0
  1
枚
 41
0.7
100
AcDbText
  0
TEXT
  5
B647
330
B611
100
AcDbEntity
  8
hyomoji
  6
Continuous
100
AcDbText
 10
-117.20313
 20
0.625
 30
0.0
 40
2.0
  1
数
 41
0.7
100
AcDbText
  0
ATTDEF
  5
B648
330
B611
100
AcDbEntity
  8
hyomoji
100
AcDbText
 10
-106.796373781791
 20
4.474345071246375
 30
0.0
 40
4.5
  1

 41
0.7
 72
     4
 11
-106.796373781791
 21
4.474345071246375
 31
0.0
100
AcDbAttributeDefinition
  3
総枚数
  2
00
 70
     0
  0
ATTDEF
  5
B649
330
B611
100
AcDbEntity
  8
hyomoji
100
AcDbText
 10
-276.8538075206837
 20
5.28993194391478
 30
0.0
 40
3.5
  1

 41
0.7
 72
     4
 11
-276.8538075206837
 21
5.28993194391478
 31
0.0
100
AcDbAttributeDefinition
  3
図面サイズ
  2
（A3）
 70
     0
  0
ATTDEF
  5
B64A
330
B611
100
AcDbEntity
  8
hyomoji
100
AcDbText
 10
-70.25
 20
14.5
 30
0.0
 40
5.0
  1

 41
0.7
 72
     4
 11
-70.25
 21
14.5
 31
0.0
100
AcDbAttributeDefinition
  3
SYS品番
  2
SYS品番
 70
     0
  0
LINE
  5
B64B
330
B611
100
AcDbEntity
  8
hyosen1
  6
Continuous
100
AcDbLine
 10
-119.0
 20
9.0
 30
0.0
 11
-119.0
 21
0.0
 31
0.0
  0
LINE
  5
B64C
330
B611
100
AcDbEntity
  8
hyosen2
  6
Continuous
100
AcDbLine
 10
-214.0
 20
20.0
 30
0.0
 11
-214.0
 21
0.0
 31
0.0
  0
LINE
  5
B64D
330
B611
100
AcDbEntity
  8
hyosen1
  6
Continuous
370
    40
100
AcDbLine
 10
-199.0
 20
20.0
 30
0.0
 11
-199.0
 21
0.0
 31
0.0
  0
LINE
  5
B64E
330
B611
100
AcDbEntity
  8
hyosen2
  6
Continuous
100
AcDbLine
 10
-194.0
 20
20.0
 30
0.0
 11
-194.0
 21
0.0
 31
0.0
  0
ATTDEF
  5
B64F
330
B611
100
AcDbEntity
  8
hyomoji
100
AcDbText
 10
-20.75
 20
14.5
 30
0.0
 40
5.0
  1

 41
0.7
 72
     4
 11
-20.75
 21
14.5
 31
0.0
100
AcDbAttributeDefinition
  3
得意先品番
  2
得意先品番
 70
     0
  0
TEXT
  5
B650
330
B611
100
AcDbEntity
  8
hyomoji
  6
Continuous
100
AcDbText
 10
-197.1468699999975
 20
5.725000099999789
 30
0.0
 40
2.299999999999999
  1
図
 41
0.7
100
AcDbText
  0
TEXT
  5
B651
330
B611
100
AcDbEntity
  8
hyomoji
  6
Continuous
100
AcDbText
 10
-197.14687
 20
0.9750000800000009
 30
0.0
 40
2.299999999999999
  1
番
 41
0.7
100
AcDbText
  0
TEXT
  5
B652
330
B611
100
AcDbEntity
  8
hyomoji
  6
Continuous
100
AcDbText
 10
-231.5000000000009
 20
15.90000000000015
 30
0.0
 40
3.2
  1
確認
 41
0.7
100
AcDbText
  0
TEXT
  5
B653
330
B611
100
AcDbEntity
  8
hyomoji
  6
Continuous
100
AcDbText
 10
-197.1468699999975
 20
16.72499999999971
 30
0.0
 40
2.299999999999999
  1
品
 41
0.7
100
AcDbText
  0
TEXT
  5
B654
330
B611
100
AcDbEntity
  8
hyomoji
  6
Continuous
100
AcDbText
 10
-197.1468699999975
 20
10.97499999999974
 30
0.0
 40
2.299999999999999
  1
名
 41
0.7
100
AcDbText
  0
TEXT
  5
B655
330
B611
100
AcDbEntity
  8
hyomoji
  6
Continuous
100
AcDbText
 10
-209.0000000000003
 20
15.9
 30
0.0
 40
3.2
  1
作成
 41
0.7
100
AcDbText
  0
ATTDEF
  5
B656
330
B611
100
AcDbEntity
  8
hyomoji
100
AcDbText
 10
-357.0
 20
2.5
 30
0.0
 40
3.0
  1

 41
0.7
 72
     4
 11
-357.0
 21
2.5
 31
0.0
100
AcDbAttributeDefinition
  3
ファイル名
  2
ファイル名
 70
     0
  0
ATTDEF
  5
B657
330
B611
100
AcDbEntity
  8
hyomoji
100
AcDbText
 10
-301.0
 20
2.5
 30
0.0
 40
3.0
  1

 41
0.7
 72
     4
 11
-301.0
 21
2.5
 31
0.0
100
AcDbAttributeDefinition
  3
整理No
  2
000
 70
     0
  0
LINE
  5
B658
330
B611
100
AcDbEntity
  8
hyosen2
  6
Continuous
100
AcDbLine
 10
-114.0
 20
9.0
 30
0.0
 11
-114.0
 21
0.0
 31
0.0
  0
LINE
  5
B659
330
B611
100
AcDbEntity
  8
hyosen1
  6
Continuous
370
    40
100
AcDbLine
 10
-99.0
 20
20.0
 30
0.0
 11
-99.0
 21
0.0
 31
0.0
  0
LWPOLYLINE
  5
B65A
102
{ACAD_REACTORS
330
B65D
102
}
330
B611
100
AcDbEntity
  8
hyomoji
  6
Continuous
100
AcDbPolyline
 90
        8
 70
   129
 43
0.0
 10
-54.74620849627121
 20
4.911172641299117
 42
-0.6021429256477856
 10
-54.79665095182571
 20
5.00647364241621
 10
-54.19290315928896
 20
5.894334643533312
 42
-0.2483280785897051
 10
-54.09201824818007
 20
5.947732641299126
 10
-52.82622506559921
 20
5.947732641299126
 42
-0.2483286500869998
 10
-52.72534000677615
 20
5.89433442630704
 10
-52.12159508384053
 20
5.006473533803074
 42
-0.6021421921708056
 10
-52.17203761325203
 20
4.911172641299117
  0
LWPOLYLINE
  5
B65B
102
{ACAD_REACTORS
330
B65D
102
}
330
B611
100
AcDbEntity
  8
hyomoji
  6
Continuous
100
AcDbPolyline
 90
       12
 70
   129
 43
0.0
 10
-55.34929148100093
 20
4.423379641299163
 10
-55.34929148100093
 20
4.698244640018941
 42
0.4422835312456968
 10
-55.4160703179266
 20
4.758970293937096
 10
-55.95854716663592
 20
4.707346555988095
 10
-54.87947905250138
 20
6.29420998446335
 42
-0.251104977230494
 10
-54.62846498318532
 20
6.435525641299108
 10
-52.30232298318532
 20
6.435525641299108
 42
-0.2453004937928962
 10
-52.0495361909027
 20
6.310161523207511
 10
-50.95974050063467
 20
4.707520282198061
 10
-51.50208659474504
 20
4.759132021705653
 42
0.4422837740584967
 10
-51.56886548100089
 20
4.698406372481912
 10
-51.56886548100089
 20
4.423379641299163
  0
LWPOLYLINE
  5
B65C
102
{ACAD_REACTORS
330
B65D
102
}
330
B611
100
AcDbEntity
  8
hyomoji
  6
Continuous
100
AcDbPolyline
 90
       18
 70
   129
 43
0.0
 10
-52.87093633831881
 20
3.325845441299151
 10
-51.75916059699716
 20
3.325845441299151
 10
-51.20585795859813
 20
2.313705249298493
 42
-0.56960330458711
 10
-51.47347969807253
 20
1.862405541299125
 10
-55.4447130530363
 20
1.862405541299125
 42
-0.569603703070891
 10
-55.71233461644306
 20
2.313705571373418
 10
-55.07504248299546
 20
3.479481935284297
 42
0.569603703070901
 10
-55.12856679567676
 20
3.569741941299156
 10
-55.9590634810009
 20
3.569741941299156
 10
-55.9590634810009
 20
4.057534941299138
 10
-50.95909348100088
 20
4.057534941299138
 10
-50.95909348100088
 20
3.569741941299156
 10
-53.87771688642391
 20
3.569741941299156
 42
0.2742066828570859
 10
-53.9312411663634
 20
3.53800200720741
 10
-54.53123414632449
 20
2.440458607207403
 42
0.569604073583639
 10
-54.47770986638494
 20
2.350198541299135
 10
-52.44044865694786
 20
2.350198541299135
 42
0.5696036141370885
 10
-52.38692433640756
 20
2.440458532937839
  0
HATCH
  5
B65D
330
B611
100
AcDbEntity
  8
hyomoji
  6
Continuous
100
AcDbHatch
 10
0.0
 20
0.0
 30
0.0
210
0.0
220
0.0
230
1.0
  2
SOLID
 70
     1
 71
     1
 91
        7
 92
       16
 93
        8
 72
     2
 10
-54.74620849627122
 20
4.972172641299124
 40
0.0610000000000071
 50
89.99999999998667
 51
214.2158041457457
 73
     0
 72
     1
 10
-54.79665095182571
 20
5.00647364241621
 11
-54.19290315928896
 21
5.894334643533312
 72
     2
 10
-54.09201824818003
 20
5.825732641299174
 40
0.1219999999999548
 50
214.2158041457457
 51
269.9999999999833
 73
     0
 72
     1
 10
-54.09201824818007
 20
5.947732641299126
 11
-52.82622506559921
 21
5.947732641299126
 72
     2
 10
-52.82622506559919
 20
5.825732641299132
 40
0.1219999999999937
 50
269.9999999999934
 51
325.7843192239269
 73
     0
 72
     1
 10
-52.72534000677615
 20
5.89433442630704
 11
-52.12159508384053
 21
5.006473533803074
 72
     2
 10
-52.17203761325205
 20
4.972172641299113
 40
0.0609999999999962
 50
325.784319223918
 51
449.9999999999866
 73
     0
 72
     1
 10
-52.17203761325203
 20
4.911172641299117
 11
-54.74620849627121
 21
4.911172641299117
 97
        1
330
B65A
 92
        1
 93
       69
 72
     2
 10
-62.72728248100087
 20
2.989602841299127
 40
0.0609750040000124
 50
20.55601515250907
 51
180.3287979995261
 73
     1
 72
     1
 10
-62.78825648100087
 20
2.989252931594279
 11
-62.78825648100087
 21
1.862405541299125
 72
     1
 10
-62.78825648100087
 20
1.862405541299125
 11
-63.64189448100091
 21
1.862405541299125
 72
     1
 10
-63.64189448100091
 20
1.862405541299125
 11
-63.64189448100091
 21
2.97177701961047
 72
     2
 10
-63.70289448100091
 20
2.971777019610471
 40
0.061
 50
359.9999999999992
 51
516.501434324047
 73
     1
 72
     1
 10
-63.75883575443237
 20
2.996099312406755
 11
-64.25174608969655
 21
1.862405541299125
 72
     1
 10
-64.25174608969655
 20
1.862405541299125
 11
-64.86139895336487
 21
1.862405541299125
 72
     1
 10
-64.86139895336487
 20
1.862405541299125
 11
-63.90864895294914
 21
4.156057205292938
 72
     2
 10
-63.96498223187829
 20
4.179457241299131
 40
0.0610000000000066
 50
337.4427025304224
 51
450.0000000000199
 73
     1
 72
     1
 10
-63.96498223187831
 20
4.240457241299139
 11
-64.72066345391249
 21
4.240457241299139
 72
     2
 10
-64.72099548100088
 20
4.179483141299122
 40
0.0609750039999958
 50
89.68800584477012
 51
205.584723880978
 73
     1
 72
     1
 10
-64.77599174539887
 20
4.153151373127087
 11
-64.43432036448945
 21
3.532893033066841
 72
     1
 10
-64.43432036448945
 20
3.532893033066841
 11
-64.98318196062911
 21
3.569484639619815
 72
     1
 10
-64.98318196062911
 20
3.569484639619815
 11
-65.06457835488749
 21
3.752614298647159
 72
     2
 10
-65.14225148100092
 20
3.718090604178516
 40
0.0849999999999904
 50
23.96390884029606
 51
180.000000000002
 73
     1
 72
     1
 10
-65.2272514810009
 20
3.718090604178513
 11
-65.2272514810009
 21
1.862405541299125
 72
     1
 10
-65.2272514810009
 20
1.862405541299125
 11
-66.01991548100091
 21
1.862405541299125
 72
     1
 10
-66.01991548100091
 20
1.862405541299125
 11
-66.01991548100091
 21
3.180389201155009
 72
     2
 10
-66.05691548100089
 20
3.18038920115502
 40
0.0369999999999919
 50
359.9999999999822
 51
525.0682641126397
 73
     1
 72
     1
 10
-66.09266612073515
 20
3.189922918089735
 11
-66.20279949565958
 21
2.77693198951394
 72
     1
 10
-66.20279949565958
 20
2.77693198951394
 11
-66.69079791063558
 21
2.715931687446754
 72
     1
 10
-66.69079791063558
 20
2.715931687446754
 11
-66.0423487498785
 21
4.897074248306211
 72
     2
 10
-66.10167148100086
 20
4.911172641299136
 40
0.060975003999994
 50
346.6313300948622
 51
450.3119941552164
 73
     1
 72
     1
 10
-66.10200350808923
 20
4.972146741299155
 11
-66.56871348100088
 21
4.972146741299155
 72
     1
 10
-66.56871348100088
 20
4.972146741299155
 11
-66.56871348100088
 21
5.398965541299133
 72
     1
 10
-66.56871348100088
 20
5.398965541299133
 11
-66.08057635616257
 21
5.398965541299133
 72
     2
 10
-66.08088948100091
 20
5.459939741299107
 40
0.0609750040000096
 50
270.2942322160741
 51
360.3287979995315
 73
     1
 72
     1
 10
-66.01991548100091
 20
5.460289651003961
 11
-66.01991548100091
 21
6.435525641299108
 72
     1
 10
-66.01991548100091
 20
6.435525641299108
 11
-65.2272514810009
 21
6.435525641299108
 72
     1
 10
-65.2272514810009
 20
6.435525641299108
 11
-65.2272514810009
 21
5.460289651003961
 72
     2
 10
-65.16627748100091
 20
5.459939741299099
 40
0.0609750040000001
 50
179.6712020004608
 51
270.2942322160608
 73
     1
 72
     1
 10
-65.16596435616259
 20
5.398965541299133
 11
-65.01326412084137
 21
5.398965541299133
 72
     2
 10
-65.01457448100096
 20
5.642862041299141
 40
0.2439000200000027
 50
270.3078247716756
 51
323.235520147001
 73
     1
 72
     1
 10
-64.81918554624172
 20
5.496881275683762
 11
-64.80043248100088
 21
5.520991826785888
 72
     1
 10
-64.80043248100088
 20
5.520991826785888
 11
-64.80043248100088
 21
4.972146741299155
 72
     1
 10
-64.80043248100088
 20
4.972146741299155
 11
-65.12440350808924
 21
4.972146741299155
 72
     2
 10
-65.12407148100087
 20
4.911172641299112
 40
0.0609750040000224
 50
90.31199415521639
 51
212.5323653743672
 73
     1
 72
     1
 10
-65.17547876299079
 20
4.878381751234769
 11
-64.90594841597351
 21
4.389080222085937
 72
     2
 10
-64.88579048100085
 20
4.402810841299115
 40
0.0243900029999841
 50
214.2608153840807
 51
361.3730430692635
 73
     1
 72
     1
 10
-64.86140748100092
 20
4.403395270373323
 11
-64.86140748100092
 21
4.667276141299112
 72
     1
 10
-64.86140748100092
 20
4.667276141299112
 11
-63.7025364539125
 21
4.667276141299112
 72
     2
 10
-63.7028684810009
 20
4.728250241299131
 40
0.0609750039999985
 50
270.3119941552432
 51
360.3287979995475
 73
     1
 72
     1
 10
-63.64189448100091
 20
4.728600151004002
 11
-63.64189448100091
 21
5.338341351003975
 72
     2
 10
-63.70286848100089
 20
5.337991441299129
 40
0.0609750039999858
 50
0.328797999525017
 51
89.68800584477005
 73
     1
 72
     1
 10
-63.7025364539125
 20
5.398965541299133
 11
-64.28611254821658
 21
5.398965541299133
 72
     2
 10
-64.32991248100091
 20
5.941018841299136
 40
0.5438200200000037
 50
85.38032373407661
 51
167.778415633499
 73
     0
 72
     1
 10
-64.86140748100092
 20
5.825895954227206
 11
-64.86140748100092
 21
6.435525641299108
 72
     1
 10
-64.86140748100092
 20
6.435525641299108
 11
-64.06874348100086
 21
6.435525641299108
 72
     1
 10
-64.06874348100086
 20
6.435525641299108
 11
-64.06874348100086
 21
5.886784441299141
 72
     2
 10
-64.00774348100084
 20
5.886784441299155
 40
0.0610000000000213
 50
180.0000000000133
 51
270.0000000000134
 73
     1
 72
     1
 10
-64.00774348100083
 20
5.825784441299134
 11
-63.7028944810009
 21
5.825784441299134
 72
     2
 10
-63.70289448100091
 20
5.886784441299127
 40
0.0609999999999928
 50
270.0000000000134
 51
360.0000000000134
 73
     1
 72
     1
 10
-63.64189448100091
 20
5.886784441299141
 11
-63.64189448100091
 21
6.435525641299108
 72
     1
 10
-63.64189448100091
 20
6.435525641299108
 11
-62.78825648100087
 21
6.435525641299108
 72
     1
 10
-62.78825648100087
 20
6.435525641299108
 11
-62.78825648100087
 21
5.886784441299141
 72
     2
 10
-62.72725648100085
 20
5.886784441299155
 40
0.0610000000000213
 50
180.0000000000133
 51
270.0000000000134
 73
     1
 72
     1
 10
-62.72725648100084
 20
5.825784441299134
 11
-61.69069148100089
 21
5.825784441299134
 72
     1
 10
-61.69069148100089
 20
5.825784441299134
 11
-61.69069148100089
 21
5.398965541299133
 72
     1
 10
-61.69069148100089
 20
5.398965541299133
 11
-62.72761450808928
 21
5.398965541299133
 72
     2
 10
-62.7272824810009
 20
5.337991441299128
 40
0.0609750039999842
 50
90.31199415522994
 51
180.3287979995342
 73
     1
 72
     1
 10
-62.78825648100087
 20
5.337641531594272
 11
-62.78825648100087
 21
4.727900331594298
 72
     2
 10
-62.72728248100087
 20
4.728250241299152
 40
0.0609750040000213
 50
180.3287979995315
 51
270.3119941552231
 73
     1
 72
     1
 10
-62.72695045391248
 20
4.667276141299112
 11
-61.69069148100089
 21
4.667276141299112
 72
     1
 10
-61.69069148100089
 20
4.667276141299112
 11
-61.69069148100089
 21
4.240457241299139
 72
     1
 10
-61.69069148100089
 20
4.240457241299139
 11
-62.46552950808933
 21
4.240457241299139
 72
     2
 10
-62.46519748100094
 20
4.179483141299138
 40
0.0609750039999798
 50
90.31199415522996
 51
204.5343249868213
 73
     1
 72
     1
 10
-62.52066721478428
 20
4.154163983595879
 11
-61.56870695644437
 21
1.862405541299125
 72
     1
 10
-61.56870695644437
 20
1.862405541299125
 11
-62.23946240602021
 21
1.862405541299125
 72
     1
 10
-62.23946240602021
 20
1.862405541299125
 11
-62.67018940675479
 21
3.011012709967502
 97
        1
330
B665
 92
        1
 93
       43
 72
     2
 10
-59.41023548100087
 20
2.45829174129915
 40
0.0853650050000071
 50
179.2153395627242
 51
276.8671644776522
 73
     1
 72
     1
 10
-59.40002856816966
 20
2.373539142465205
 11
-58.21513648100091
 21
2.65565654130745
 72
     1
 10
-58.21513648100091
 20
2.65565654130745
 11
-58.21513648100091
 21
2.166874593013147
 72
     1
 10
-58.21513648100091
 20
2.166874593013147
 11
-59.97605424750162
 21
1.923989054180879
 72
     1
 10
-59.97605424750162
 20
1.923989054180879
 11
-61.20289848100089
 21
1.862646641298482
 72
     1
 10
-61.20289848100089
 20
1.862646641298482
 11
-61.20289848100089
 21
2.350198541299135
 72
     1
 10
-61.20289848100089
 20
2.350198541299135
 11
-60.41026148100087
 21
2.350198541299135
 72
     2
 10
-60.41026148100089
 20
2.411198541299128
 40
0.0609999999999928
 50
270.0000000000134
 51
360.0000000000134
 73
     1
 72
     1
 10
-60.34926148100089
 20
2.411198541299143
 11
-60.34926148100089
 21
4.179833051003981
 72
     2
 10
-60.41023548100087
 20
4.179483141299135
 40
0.0609750039999858
 50
0.328797999525017
 51
89.68800584477005
 73
     1
 72
     1
 10
-60.40990345391247
 20
4.240457241299139
 11
-61.20289848100089
 21
4.240457241299139
 72
     1
 10
-61.20289848100089
 20
4.240457241299139
 11
-61.20289848100089
 21
4.667276141299112
 72
     1
 10
-61.20289848100089
 20
4.667276141299112
 11
-58.47201198712764
 21
4.667276141299112
 72
     2
 10
-58.47201198712763
 20
4.789276141299115
 40
0.1220000000000034
 50
269.9999999999934
 51
374.2369765495947
 73
     1
 72
     1
 10
-58.35375899315687
 20
4.819279964671352
 11
-58.48916922335632
 21
5.352967452985268
 72
     2
 10
-58.54829572034168
 20
5.337965541299153
 40
0.0609999999999787
 50
14.23697654959637
 51
90.0
 73
     1
 72
     1
 10
-58.54829572034168
 20
5.398965541299133
 11
-61.20289848100089
 21
5.398965541299133
 72
     1
 10
-61.20289848100089
 20
5.398965541299133
 11
-61.20289848100089
 21
5.825784441299134
 72
     1
 10
-61.20289848100089
 20
5.825784441299134
 11
-58.76596001972183
 21
5.825784441299134
 72
     2
 10
-58.76596001972183
 20
5.947784441299124
 40
0.1219999999999901
 50
270.0
 51
374.2372718659873
 73
     1
 72
     1
 10
-58.64770718039967
 20
5.977788874175672
 11
-58.76384927206533
 21
6.435525641299108
 72
     1
 10
-58.76384927206533
 20
6.435525641299108
 11
-57.91020861058473
 21
6.435525641299108
 72
     1
 10
-57.91020861058473
 20
6.435525641299108
 11
-57.76716777773612
 21
5.871782075988221
 72
     2
 10
-57.70804139584885
 20
5.886784441299148
 40
0.0610000000000125
 50
194.2374161293682
 51
270.0
 73
     1
 72
     1
 10
-57.70804139584885
 20
5.825784441299134
 11
-57.23957148100095
 21
5.825784441299134
 72
     2
 10
-57.23957148100095
 20
5.947784441299148
 40
0.1220000000000141
 50
270.0
 51
360.0
 73
     1
 72
     1
 10
-57.11757148100094
 20
5.947784441299148
 11
-57.11757148100094
 21
6.435525641299108
 72
     1
 10
-57.11757148100094
 20
6.435525641299108
 11
-56.32490848100087
 21
6.435525641299108
 72
     1
 10
-56.32490848100087
 20
6.435525641299108
 11
-56.32490848100087
 21
5.835573103868767
 72
     2
 10
-56.75953948100088
 20
5.830423141299105
 40
0.4346615099999974
 50
359.3211314615427
 51
443.0390370806011
 73
     0
 72
     1
 10
-56.7068615190268
 20
5.398965541299133
 11
-57.56853345391249
 21
5.398965541299133
 72
     2
 10
-57.56886548100087
 20
5.337991441299119
 40
0.0609750039999931
 50
89.68800584477678
 51
192.0839376141646
 73
     1
 72
     1
 10
-57.62848939861356
 20
5.325226663145372
 11
-56.8853024185089
 21
2.396196312671946
 72
     2
 10
-56.82617600194053
 20
2.411198541299132
 40
0.0609999999999952
 50
194.2372836775132
 51
269.9999999999733
 73
     1
 72
     1
 10
-56.82617600194055
 20
2.350198541299135
 11
-56.32490848100087
 21
2.350198541299135
 72
     1
 10
-56.32490848100087
 20
2.350198541299135
 11
-56.32490848100087
 21
1.862313411481466
 72
     1
 10
-56.32490848100087
 20
1.862313411481466
 11
-57.3029635753897
 21
1.908396245450404
 72
     2
 10
-57.28286699320412
 20
2.334923064518642
 40
0.4270000000000124
 50
92.69759919784574
 51
165.7627204339681
 73
     0
 72
     1
 10
-57.6967519167186
 20
2.22990749382825
 11
-58.19522029465185
 21
4.194459465683479
 72
     2
 10
-58.25434671229679
 20
4.179457241299115
 40
0.061000000000022
 50
14.23727956604894
 51
90.00000000002
 73
     1
 72
     1
 10
-58.25434671229681
 20
4.240457241299139
 11
-59.43495050808934
 21
4.240457241299139
 72
     2
 10
-59.43461848100096
 20
4.179483141299134
 40
0.0609750039999842
 50
90.31199415522994
 51
179.6712020004741
 73
     1
 72
     1
 10
-59.49559248100093
 20
4.179833051003981
 11
-59.49559248100093
 21
2.459460770658239
 97
        1
330
B666
 92
        1
 93
       18
 72
     1
 10
-52.87093633831881
 20
3.325845441299151
 11
-51.75916059699716
 21
3.325845441299151
 72
     1
 10
-51.75916059699716
 20
3.325845441299151
 11
-51.20585795859813
 21
2.313705249298493
 72
     2
 10
-51.47347969807253
 20
2.167405541299133
 40
0.3050000000000091
 50
331.3360719409863
 51
450.0
 73
     0
 72
     1
 10
-51.47347969807253
 20
1.862405541299125
 11
-55.4447130530363
 21
1.862405541299125
 72
     2
 10
-55.44471305303631
 20
2.167405541299132
 40
0.3050000000000068
 50
89.99999999999868
 51
208.663997012829
 73
     0
 72
     1
 10
-55.71233461644306
 20
2.313705571373418
 11
-55.07504248299546
 21
3.479481935284297
 72
     2
 10
-55.12856679567678
 20
3.508741941299168
 40
0.0609999999999886
 50
331.3360029871494
 51
449.99999999998
 73
     1
 72
     1
 10
-55.12856679567676
 20
3.569741941299156
 11
-55.9590634810009
 21
3.569741941299156
 72
     1
 10
-55.9590634810009
 20
3.569741941299156
 11
-55.9590634810009
 21
4.057534941299138
 72
     1
 10
-55.9590634810009
 20
4.057534941299138
 11
-50.95909348100088
 21
4.057534941299138
 72
     1
 10
-50.95909348100088
 20
4.057534941299138
 11
-50.95909348100088
 21
3.569741941299156
 72
     1
 10
-50.95909348100088
 20
3.569741941299156
 11
-53.87771688642391
 21
3.569741941299156
 72
     2
 10
-53.87771688642389
 20
3.508741941299169
 40
0.0609999999999871
 50
90.00000000002
 51
151.335938873511
 73
     1
 72
     1
 10
-53.9312411663634
 20
3.53800200720741
 11
-54.53123414632449
 21
2.440458607207403
 72
     2
 10
-54.47770986638495
 20
2.411198541299147
 40
0.0610000000000124
 50
151.3359388735077
 51
270.0000000000134
 73
     1
 72
     1
 10
-54.47770986638494
 20
2.350198541299135
 11
-52.44044865694786
 21
2.350198541299135
 72
     2
 10
-52.44044865694788
 20
2.411198541299133
 40
0.0609999999999977
 50
270.0000000000134
 51
388.6639816236973
 73
     1
 72
     1
 10
-52.38692433640756
 20
2.440458532937839
 11
-52.87093633831881
 21
3.325845441299151
 97
        1
330
B65C
 92
        1
 93
       12
 72
     1
 10
-55.34929148100093
 20
4.423379641299163
 11
-55.34929148100093
 21
4.698244640018941
 72
     2
 10
-55.41029148100093
 20
4.698244640018958
 40
0.0609999999999928
 50
359.9999999999842
 51
455.4360694590207
 73
     1
 72
     1
 10
-55.4160703179266
 20
4.758970293937096
 11
-55.95854716663592
 21
4.707346555988095
 72
     1
 10
-55.95854716663592
 20
4.707346555988095
 11
-54.87947905250138
 21
6.29420998446335
 72
     2
 10
-54.62214948100093
 20
6.130716041299125
 40
0.3048750199999854
 50
212.4297726273471
 51
268.81302999209
 73
     0
 72
     1
 10
-54.62846498318532
 20
6.435525641299108
 11
-52.30232298318532
 21
6.435525641299108
 72
     2
 10
-52.29600748100089
 20
6.130716041299105
 40
0.3048750200000051
 50
268.813029992082
 51
323.9431965978782
 73
     0
 72
     1
 10
-52.0495361909027
 20
6.310161523207511
 11
-50.95974050063467
 21
4.707520282198061
 72
     1
 10
-50.95974050063467
 20
4.707520282198061
 11
-51.50208659474504
 21
4.759132021705653
 72
     2
 10
-51.50786548100088
 20
4.698406372481915
 40
0.0610000000000193
 50
84.56388399705218
 51
180.0000000000033
 73
     1
 72
     1
 10
-51.56886548100089
 20
4.698406372481912
 11
-51.56886548100089
 21
4.423379641299163
 72
     1
 10
-51.56886548100089
 20
4.423379641299163
 11
-55.34929148100093
 21
4.423379641299163
 97
        1
330
B65B
 92
        1
 93
       23
 72
     1
 10
-49.86155948100088
 20
1.862405541299125
 11
-49.86155948100088
 21
3.077863598466819
 72
     2
 10
-49.92255948100087
 20
3.077863598466838
 40
0.0609999999999857
 50
359.9999999999829
 51
454.0856260770403
 73
     1
 72
     1
 10
-49.9269055609231
 20
3.138708578451286
 11
-50.71478207094611
 21
3.082431556381408
 72
     1
 10
-50.71478207094611
 20
3.082431556381408
 11
-49.35559875564741
 21
5.121206529329384
 72
     2
 10
-49.40635382360203
 20
5.15504324129912
 40
0.0610000000000124
 50
326.3099324740318
 51
450.0000000000134
 73
     1
 72
     1
 10
-49.40635382360205
 20
5.216043241299132
 11
-50.5932494810009
 21
5.216043241299132
 72
     1
 10
-50.5932494810009
 20
5.216043241299132
 11
-50.5932494810009
 21
5.642862041299139
 72
     1
 10
-50.5932494810009
 20
5.642862041299139
 11
-49.92286550809757
 21
5.642862041299139
 72
     2
 10
-49.92253348100085
 20
5.703836141299102
 40
0.060975003999987
 50
269.6880058369449
 51
359.6712020004875
 73
     1
 72
     1
 10
-49.86155948100088
 20
5.703486231594268
 11
-49.86155948100088
 21
6.4965608412991
 72
     1
 10
-49.86155948100088
 20
6.4965608412991
 11
-49.00789148100091
 21
6.4965608412991
 72
     1
 10
-49.00789148100091
 20
6.4965608412991
 11
-49.00789148100091
 21
5.704186051003972
 72
     2
 10
-48.9469174810009
 20
5.703836141299133
 40
0.0609750040000213
 50
179.6712020004818
 51
269.6880058369384
 73
     1
 72
     1
 10
-48.94724950809763
 20
5.642862041299139
 11
-48.69823432828718
 21
5.642862041299139
 72
     2
 10
-48.69823432828717
 20
5.33786204129914
 40
0.3049999999999988
 50
269.9999999999973
 51
393.6903557500938
 73
     0
 72
     1
 10
-48.44445983958843
 20
5.168677204845948
 11
-48.72354084329003
 21
4.750060261952882
 72
     2
 10
-48.6751274810009
 20
4.712991441299101
 40
0.060975004000007
 50
142.5596824517563
 51
204.682884026563
 73
     1
 72
     1
 10
-48.73053137976512
 20
4.687528544477942
 11
-47.97097340284989
 21
3.325563008176146
 72
     1
 10
-47.97097340284989
 20
3.325563008176146
 11
-48.77287533117197
 21
3.386532052496306
 72
     1
 10
-48.77287533117197
 20
3.386532052496306
 11
-48.89361620086919
 21
3.603034357753813
 72
     2
 10
-48.94689148100086
 20
3.573323340825782
 40
0.0610000000000481
 50
29.14791024784397
 51
180.000000000015
 73
     1
 72
     1
 10
-49.00789148100091
 20
3.573323340825766
 11
-49.00789148100091
 21
1.862405541299125
 72
     1
 10
-49.00789148100091
 20
1.862405541299125
 11
-49.86155948100088
 21
1.862405541299125
 97
        1
330
B66D
 92
        1
 93
       22
 72
     1
 10
-48.39815048100092
 20
1.862405541299125
 11
-48.39815048100092
 21
2.350198541299135
 72
     1
 10
-48.39815048100092
 20
2.350198541299135
 11
-47.42259048100089
 21
2.350198541299135
 72
     2
 10
-47.4225904810009
 20
2.411198541299128
 40
0.0609999999999928
 50
270.0000000000134
 51
360.0000000000134
 73
     1
 72
     1
 10
-47.36159048100091
 20
2.411198541299143
 11
-47.36159048100091
 21
4.727900331594298
 72
     2
 10
-47.42256448100088
 20
4.72825024129915
 40
0.0609750039999787
 50
359.67120200047
 51
449.6880058369248
 73
     1
 72
     1
 10
-47.42223245390414
 20
4.789224341299103
 11
-48.09327948100087
 21
4.789224341299103
 72
     1
 10
-48.09327948100087
 20
4.789224341299103
 11
-48.09327948100087
 21
5.216043241299132
 72
     1
 10
-48.09327948100087
 20
5.216043241299132
 11
-47.42289650809346
 21
5.216043241299132
 72
     2
 10
-47.42256448100088
 20
5.277017341299119
 40
0.0609750039999883
 50
269.6880058408441
 51
359.671202000465
 73
     1
 72
     1
 10
-47.36159048100091
 20
5.276667431594262
 11
-47.36159048100091
 21
6.4965608412991
 72
     1
 10
-47.36159048100091
 20
6.4965608412991
 11
-46.50792148100089
 21
6.4965608412991
 72
     1
 10
-46.50792148100089
 20
6.4965608412991
 11
-46.50792148100089
 21
5.277367251003965
 72
     2
 10
-46.44694748100091
 20
5.277017341299125
 40
0.0609750039999928
 50
179.6712020004808
 51
269.6880058408642
 73
     1
 72
     1
 10
-46.44727950809346
 20
5.216043241299132
 11
-45.77623248100088
 21
5.216043241299132
 72
     1
 10
-45.77623248100088
 20
5.216043241299132
 11
-45.77623248100088
 21
4.789224341299103
 72
     1
 10
-45.77623248100088
 20
4.789224341299103
 11
-46.44661545390414
 21
4.789224341299103
 72
     2
 10
-46.4469474810009
 20
4.728250241299127
 40
0.0609750040000005
 50
89.68800583690489
 51
179.6712020004483
 73
     1
 72
     1
 10
-46.50792148100089
 20
4.728600151004002
 11
-46.50792148100089
 21
2.411198541299143
 72
     2
 10
-46.44692148100086
 20
2.411198541299157
 40
0.0610000000000213
 50
180.0000000000133
 51
270.0000000000134
 73
     1
 72
     1
 10
-46.44692148100086
 20
2.350198541299135
 11
-45.47136148100088
 21
2.350198541299135
 72
     1
 10
-45.47136148100088
 20
2.350198541299135
 11
-45.47136148100088
 21
1.862405541299125
 72
     1
 10
-45.47136148100088
 20
1.862405541299125
 11
-48.39815048100092
 21
1.862405541299125
 97
        1
330
B66E
 75
     0
 76
     1
 98
        1
 10
-11.52273983372674
 20
-102.7401946664322
  0
LWPOLYLINE
  5
B65E
330
B611
100
AcDbEntity
  8
hyomoji
  6
Continuous
100
AcDbPolyline
 90
       23
 70
   129
 43
0.0
 10
-84.60062248100086
 20
2.922408641299341
 42
0.0223985860000053
 10
-84.31824648100088
 20
2.638179641299302
 42
0.0223985860000067
 10
-83.97714748100083
 20
2.365821541299283
 42
0.0223985860000024
 10
-83.58006248100087
 20
2.107518441299305
 42
0.0220669162099173
 10
-83.13698702184728
 20
1.868630468524941
 42
0.4330144820686968
 10
-83.08661212126271
 20
1.887990969270447
 10
-82.82304964928551
 20
2.535439206675619
 42
0.1957402929298021
 10
-82.82304889069228
 20
3.179414605012055
 10
-83.46378652570797
 20
4.753414302732181
 42
-0.1957419841521856
 10
-83.46378407732249
 20
5.305397632785258
 10
-83.03886623792795
 20
6.349200156601142
 42
0.6213425724569266
 10
-83.09028248100089
 20
6.391129141299359
 42
0.0223985860000949
 10
-83.54442748100273
 20
6.150390441298213
 42
0.0223985859999093
 10
-83.94605548100122
 20
5.893357741299098
 42
0.0223985859999842
 10
-84.29194548100088
 20
5.622092441299344
 42
0.0223985860000033
 10
-84.57932448100086
 20
5.338769741299302
 42
0.0223985859999945
 10
-84.80588648100086
 20
5.045661641299346
 42
0.0223985860000046
 10
-84.96981548100093
 20
4.745118641299285
 42
0.0223985860000012
 10
-85.06979748100087
 20
4.439550741299342
 42
0.0223985859999998
 10
-85.10502948100088
 20
4.131408441299299
 42
0.0223985859999993
 10
-85.07523048100086
 20
3.823162641299319
 42
0.0223985859999987
 10
-84.98063748100088
 20
3.517285341299299
 42
0.0223985859999964
 10
-84.82201148100086
 20
3.216229241299345
 42
0.0223985860000002
  0
HATCH
  5
B65F
330
B611
100
AcDbEntity
  8
hyomoji
  6
Continuous
100
AcDbHatch
 10
0.0
 20
0.0
 30
0.0
210
0.0
220
0.0
230
1.0
  2
SOLID
 70
     1
 71
     0
 91
        5
 92
        7
 72
     1
 73
     1
 93
       23
 10
-83.46378652570797
 20
4.753414302732181
 42
-0.1957419841521856
 10
-83.46378407732249
 20
5.305397632785258
 42
0.0
 10
-83.038866237928
 20
6.349200156601085
 42
0.6213425724690987
 10
-83.09028248100203
 20
6.391129141298819
 42
0.0223985860001783
 10
-83.54442748100552
 20
6.150390441296593
 42
0.0223985859996376
 10
-83.94605548099907
 20
5.893357741300604
 42
0.0223985860001622
 10
-84.29194548100156
 20
5.622092441298747
 42
0.0223985859999441
 10
-84.57932448100075
 20
5.338769741299415
 42
0.022398585999998
 10
-84.80588648100081
 20
5.045661641299432
 42
0.0223985860000088
 10
-84.96981548100093
 20
4.745118641299313
 42
0.0223985860000237
 10
-85.06979748100093
 20
4.439550741299058
 42
0.0223985859999749
 10
-85.10502948100088
 20
4.131408441299356
 42
0.0223985859999784
 10
-85.07523048100091
 20
3.82316264129966
 42
0.0223985860000139
 10
-84.98063748100099
 20
3.517285341299412
 42
0.0223985860000266
 10
-84.82201148100063
 20
3.21622924129906
 42
0.0223985860000033
 10
-84.60062248100058
 20
2.922408641299057
 42
0.0223985859999659
 10
-84.31824648100109
 20
2.638179641299529
 42
0.0223985859998799
 10
-83.97714748100311
 20
2.365821541300903
 42
0.0223985860002826
 10
-83.58006248099821
 20
2.107518441297713
 42
0.0220669162097788
 10
-83.13698702184735
 20
1.868630468524941
 42
0.433014482069008
 10
-83.08661212126271
 20
1.887990969270447
 42
0.0
 10
-82.82304964928551
 20
2.53543920667559
 42
0.1957402929298114
 10
-82.82304889069228
 20
3.179414605012055
 42
0.0
 97
        0
 92
        7
 72
     1
 73
     1
 93
       46
 10
-79.15975753181129
 20
3.263995477395127
 42
-0.4787358622778849
 10
-80.08160692178178
 20
4.926098408027428
 42
0.0
 10
-79.07736483811101
 20
7.393042176692517
 42
0.5685357036716303
 10
-79.11571288575101
 20
7.443767025967304
 42
0.0037682570574796
 10
-79.23345348100378
 20
7.429809241298983
 42
0.0037967614000663
 10
-79.35156848100581
 20
7.414988941298702
 42
0.0037967613998709
 10
-79.46914148100148
 20
7.399408441299215
 42
0.0037967614000278
 10
-79.58614348100224
 20
7.383071141299183
 42
0.0037967614000033
 10
-79.70254748100234
 20
7.365980841299062
 42
0.0037967613999715
 10
-79.81832748100117
 20
7.348141641299264
 42
0.0037967614000127
 10
-79.93345648100177
 20
7.329557541299209
 42
0.0037967613999978
 10
-80.04790848100157
 20
7.31023284129921
 42
0.003796761399916
 10
-80.16165548099939
 20
7.29017204129957
 42
0.0037967614001115
 10
-80.2746724810027
 20
7.269379741299019
 42
0.0037967613998133
 10
-80.38693348099736
 20
7.247860641300007
 42
0.0037967614000965
 10
-80.49841148100034
 20
7.225619841299391
 42
0.0037967614000603
 10
-80.60908248100213
 20
7.202662441299054
 42
0.0037967613998026
 10
-80.71891948099642
 20
7.178993641300309
 42
0.0037967614001459
 10
-80.82789748100031
 20
7.15461904129944
 42
0.0038055234899045
 10
-80.93624149281788
 20
7.129484377005212
 42
0.2417074229055406
 10
-80.96187522459041
 20
7.107456547699939
 42
0.0
 10
-81.67679310057867
 20
5.351238007852629
 42
0.1957404060663654
 10
-81.67679324222644
 20
4.707262264772055
 42
0.0
 10
-81.05481874049798
 20
3.179360160221989
 42
-0.1957405476044163
 10
-81.05481905771336
 20
2.535383985854366
 42
0.0
 10
-81.55302151669195
 20
1.311535683439672
 42
0.4443455524912625
 10
-81.52914870534289
 20
1.262076041420385
 42
0.0067708198256677
 10
-81.34540348100079
 20
1.210969441299255
 42
0.0067740667999754
 10
-81.15837748100165
 20
1.161971541299521
 42
0.0067740667999861
 10
-80.96829548100226
 20
1.115144241299645
 42
0.0067740668001172
 10
-80.77529648099886
 20
1.070521841298869
 42
0.0067740667999221
 10
-80.57952248100122
 20
1.028137041299402
 42
0.0067740668000231
 10
-80.38111748100062
 20
0.9880210412992767
 42
0.0067740668000178
 10
-80.18022648100027
 20
0.9502032412991638
 42
0.0067740668000117
 10
-79.97699748099989
 20
0.914711441299147
 42
0.0067740667999077
 10
-79.77157948100302
 20
0.8815717412996662
 42
0.0067740668001033
 10
-79.56412348099991
 20
0.8508083412991993
 42
0.0067740667999557
 10
-79.35478248100139
 20
0.822443841299389
 42
0.0067740668000387
 10
-79.14370848100015
 20
0.7964991412992504
 42
0.0067740667999537
 10
-78.93105748100158
 20
0.7729933412993831
 42
0.0067740667999914
 10
-78.71698548100181
 20
0.7519435412994256
 42
0.0067740667999878
 10
-78.50164948100223
 20
0.7333653412994181
 42
0.0067636405007964
 10
-78.28554092211977
 20
0.71729250249075
 42
0.3216815158957555
 10
-78.24902671059788
 20
0.7402739243399026
 42
0.0
 10
-77.22531974689275
 20
3.255019271524275
 42
0.6036079430413216
 10
-77.26747857872481
 20
3.305118758429642
 42
-0.0968770041122257
 97
        0
 92
        7
 72
     1
 73
     1
 93
       23
 10
-78.38295652935596
 20
4.755026023556382
 42
0.5200087835236598
 10
-77.84193479851961
 20
3.915503817791801
 42
0.1173827961225184
 10
-76.91830940053188
 20
4.097361758078051
 42
0.1913082464585336
 10
-76.85596118473819
 20
4.162353364074959
 42
0.0
 10
-75.53148293830719
 20
7.415968590147599
 42
0.5046897278904324
 10
-75.56250708888382
 20
7.466776330723291
 42
0.0053970181930172
 10
-75.73501248100223
 20
7.480090241299478
 42
0.0031368713998986
 10
-75.83551848099915
 20
7.486840141299239
 42
0.0031368713999987
 10
-75.93621748099912
 20
7.493053841299229
 42
0.0031368713999523
 10
-76.03709148099762
 20
7.498730241299142
 42
0.0031368714000881
 10
-76.13812448100043
 20
7.503868641299334
 42
0.0031368714000824
 10
-76.23930248100328
 20
7.508468041299465
 42
0.0031368713999708
 10
-76.34060748100234
 20
7.512527741299436
 42
0.0031368713998812
 10
-76.4420244809981
 20
7.516047241299304
 42
0.0031368714001445
 10
-76.54353748100283
 20
7.519025841299423
 42
0.0031368714000362
 10
-76.64513048100395
 20
7.52146314129942
 42
0.0031368713998308
 10
-76.7467884809983
 20
7.523358741299318
 42
0.0031368714000767
 10
-76.8484934810009
 20
7.524712341299334
 42
0.0031368714000625
 10
-76.95023048100262
 20
7.525523641299344
 42
0.0031368713999152
 10
-77.05198348100026
 20
7.525792741299369
 42
0.0031368714000485
 10
-77.15373648100166
 20
7.525519341299286
 42
0.002378381288338
 10
-77.23087482131643
 20
7.525017965209826
 42
0.3019404427552704
 10
-77.26472766965793
 20
7.501970698744173
 42
0.0
 97
        0
 92
        7
 72
     1
 73
     1
 93
       42
 10
-72.99251550271089
 20
4.993381119125501
 42
-0.1957413474957151
 10
-72.99251642934581
 20
5.637359730877051
 42
0.0
 10
-72.46499287740249
 20
6.933237569940814
 42
0.4460668776928963
 10
-72.48906992686062
 20
6.98275635790668
 42
0.0028283786039479
 10
-72.56563548100297
 20
7.004228641299903
 42
0.0028494113000945
 10
-72.6433444810055
 20
7.025489041300602
 42
0.0028494112998765
 10
-72.72161948100216
 20
7.046371841299674
 42
0.0028494112999565
 10
-72.8004494810009
 20
7.066874241299331
 42
0.0028494113001165
 10
-72.87982448100433
 20
7.086993641300182
 42
0.0028494112998642
 10
-72.95973348100074
 20
7.106727441299284
 42
0.0028494112998679
 10
-73.04016748099702
 20
7.126073041298411
 42
0.0028494113001654
 10
-73.12111448100182
 20
7.145027941299503
 42
0.0028494112999915
 10
-73.20256548100132
 20
7.163589641299438
 42
0.002849411300025
 10
-73.28450848100198
 20
7.181755841299576
 42
0.00284941129982
 10
-73.3669344809968
 20
7.199524041298502
 42
0.002849411300116
 10
-73.4498314810001
 20
7.216892141299155
 42
0.0028494113000772
 10
-73.53318848100241
 20
7.233857641299636
 42
0.0028494112999554
 10
-73.61699548100119
 20
7.250418441299359
 42
0.0028494113000053
 10
-73.70124148100114
 20
7.266572441299388
 42
0.0028485312981449
 10
-73.78588930331165
 20
7.282312727728879
 42
0.3543993923517317
 10
-73.82671550229469
 20
7.259848702368003
 42
0.0
 10
-76.48399329063067
 20
0.7321936259631059
 42
0.5392714590992974
 10
-76.44895126845131
 20
0.6812513337253279
 42
0.0068019099602504
 10
-76.22904048100122
 20
0.6888387412992359
 42
0.0068021948000016
 10
-76.00968748100109
 20
0.6989650412993172
 42
0.0068021948000154
 10
-75.79106448100088
 20
0.7116227412992942
 42
0.0068021948000269
 10
-75.57333248100002
 20
0.7268023412993898
 42
0.0068021947999491
 10
-75.35665348100161
 20
0.7444926412992175
 42
0.0068021947999771
 10
-75.14118848100236
 20
0.7646806412991794
 42
0.0068021948000913
 10
-74.92709448099936
 20
0.7873512412994615
 42
0.0068021947999927
 10
-74.71453248099971
 20
0.8124877412994351
 42
0.0068021947999826
 10
-74.50365948100017
 20
0.8400714412993579
 42
0.0068021947999387
 10
-74.29462948100194
 20
0.8700821412991501
 42
0.0068021948000676
 10
-74.08759948099987
 20
0.902497341299437
 42
0.0068021947999569
 10
-73.88272248100117
 20
0.9372933412992949
 42
0.0068021948000789
 10
-73.68014948099892
 20
0.9744441412996991
 42
0.0068021947999133
 10
-73.4800304810015
 20
1.013922341299178
 42
0.0068021948001044
 10
-73.28251348099826
 20
1.055698741299863
 42
0.0067876847516365
 10
-73.08815863735453
 20
1.099642758789343
 42
0.2416094440683338
 10
-73.06253822552235
 20
1.121667385795319
 42
0.0
 10
-72.37377681836176
 20
2.813631322146562
 42
0.1957413290603562
 10
-72.37377779121278
 20
3.473445415974794
 42
0.0
 97
        0
 92
        7
 72
     1
 73
     1
 93
       23
 10
-70.6023149132937
 20
3.465320599991429
 42
-0.1957433897416723
 10
-70.60231611425542
 20
2.821335765231822
 42
0.0
 10
-70.98728762316278
 20
1.875661006442527
 42
0.6820149919175252
 10
-70.93736526962032
 20
1.828184631690049
 42
0.0225466705713383
 10
-70.47647948100359
 20
2.069241941297775
 42
0.0225609850000015
 10
-70.06833048100327
 20
2.327111041297655
 42
0.0225609850001515
 10
-69.71653748100078
 20
2.599554441299346
 42
0.0225609849999793
 10
-69.42396348100118
 20
2.884355641298924
 42
0.0225609850000091
 10
-69.19298848100101
 20
3.179197441299123
 42
0.022560984999996
 10
-69.02549148100098
 20
3.481681241299042
 42
0.0225609850000407
 10
-68.92283548100085
 20
3.78934604129958
 42
0.0225609849999855
 10
-68.88585548100081
 20
4.099688741299416
 42
0.0225609849999925
 10
-68.91485148100082
 20
4.410184641299309
 42
0.0225609850000018
 10
-69.00958948100083
 20
4.718307541299367
 42
0.0225609849999988
 10
-69.16929648100079
 20
5.021550641299342
 42
0.0225609850000042
 10
-69.39267448100093
 20
5.317446941299351
 42
0.0225609850000189
 10
-69.67790648100123
 20
5.603589041299585
 42
0.0225609849998744
 10
-70.02267048099923
 20
5.877648941298161
 42
0.022560985000175
 10
-70.42416348100238
 20
6.137397141300198
 42
0.0225711483269983
 10
-70.87932716666506
 20
6.380820495278157
 42
0.4317106519725615
 10
-70.92955566189942
 20
6.361389847202843
 42
0.0
 10
-71.22432796981951
 20
5.637286099455678
 42
0.1957432007478235
 10
-71.22432893634453
 20
4.993301840585701
 42
0.0
 97
        0
 75
     0
 76
     1
 47
0.0210963047906488
 98
        5
 10
-83.72773086737561
 20
4.182914664592345
 10
-79.06086437609189
 20
2.368632469716942
 10
-77.35038366997156
 20
5.153344665882286
 10
-73.71825250504667
 20
4.098529530567219
 10
-69.91718489466416
 20
4.330588809136486
  0
ATTDEF
  5
B660
330
B611
100
AcDbEntity
  8
hyomoji
100
AcDbText
 10
-301.0
 20
17.5
 30
0.0
 40
3.0
  1

 41
0.7
 72
     4
 11
-301.0
 21
17.5
 31
0.0
100
AcDbAttributeDefinition
  3
得意先コード
  2
XXXXX
 70
     0
  0
LWPOLYLINE
  5
B661
330
B611
100
AcDbEntity
  8
hyomoji
  6
Continuous
100
AcDbPolyline
 90
       23
 70
   129
 43
0.0
 10
-69.02549148100087
 20
3.481681241299298
 42
-0.0225609849999951
 10
-69.1929884810009
 20
3.179197441299379
 42
-0.0225609850000035
 10
-69.42396348100095
 20
2.884355641299208
 42
-0.022560985000006
 10
-69.7165374810009
 20
2.599554441299289
 42
-0.0225609849999973
 10
-70.06833048100083
 20
2.327111041299332
 42
-0.0225609849999909
 10
-70.47647948100081
 20
2.069241941299338
 42
-0.0225466705714752
 10
-70.93736526962032
 20
1.828184631690078
 42
-0.6820149919169938
 10
-70.98728762316278
 20
1.875661006442527
 10
-70.60231611425542
 20
2.821335765231793
 42
0.1957433897416816
 10
-70.6023149132937
 20
3.465320599991429
 10
-71.22432893634459
 20
4.993301840585786
 42
-0.1957432007478236
 10
-71.22432796981951
 20
5.637286099455764
 10
-70.92955566189942
 20
6.361389847202872
 42
-0.4317106519725617
 10
-70.87932716666506
 20
6.380820495278186
 42
-0.0225711483270752
 10
-70.4241634810009
 20
6.137397141299317
 42
-0.0225609850000041
 10
-70.02267048100083
 20
5.877648941299241
 42
-0.022560984999992
 10
-69.67790648100089
 20
5.603589041299301
 42
-0.0225609849999975
 10
-69.39267448100088
 20
5.317446941299323
 42
-0.0225609850000032
 10
-69.16929648100079
 20
5.021550641299313
 42
-0.0225609849999971
 10
-69.00958948100083
 20
4.718307541299367
 42
-0.0225609850000056
 10
-68.91485148100082
 20
4.410184641299252
 42
-0.0225609849999966
 10
-68.88585548100081
 20
4.099688741299303
 42
-0.0225609849999982
 10
-68.92283548100085
 20
3.789346041299296
 42
-0.0225609850000013
  0
LWPOLYLINE
  5
B662
330
B611
100
AcDbEntity
  8
hyomoji
  6
Continuous
100
AcDbPolyline
 90
       46
 70
   129
 43
0.0
 10
-79.56412348100087
 20
0.850808341299313
 42
0.0067740668000082
 10
-79.35478248100071
 20
0.8224438412992753
 42
0.0067740667999966
 10
-79.14370848100083
 20
0.7964991412993357
 42
0.00677406679999
 10
-78.93105748100106
 20
0.7729933412993262
 42
0.0067740668000013
 10
-78.71698548100102
 20
0.7519435412993403
 42
0.0067740668000002
 10
-78.50164948100104
 20
0.7333653412993329
 42
0.0067636405007582
 10
-78.28554092211977
 20
0.71729250249075
 42
0.3216815158956166
 10
-78.24902671059788
 20
0.7402739243398742
 10
-77.22531974689275
 20
3.255019271524275
 42
0.6036079430413216
 10
-77.26747857872481
 20
3.305118758429642
 42
-0.0968770041122301
 10
-79.15975753181135
 20
3.263995477395127
 42
-0.4787358622778684
 10
-80.08160692178178
 20
4.926098408027428
 10
-79.07736483811101
 20
7.393042176692517
 42
0.5685357036715337
 10
-79.11571288575107
 20
7.443767025967247
 42
0.0037682570573848
 10
-79.23345348100088
 20
7.429809241299381
 42
0.003796761400007
 10
-79.35156848100104
 20
7.414988941299327
 42
0.0037967614000019
 10
-79.46914148100081
 20
7.399408441299328
 42
0.0037967614000093
 10
-79.58614348100098
 20
7.383071141299353
 42
0.0037967613999978
 10
-79.70254748100092
 20
7.36598084129929
 42
0.0037967614000032
 10
-79.81832748100072
 20
7.348141641299321
 42
0.0037967614000015
 10
-79.93345648100097
 20
7.329557541299323
 42
0.0037967613999987
 10
-80.04790848100077
 20
7.310232841299352
 42
0.0037967613999957
 10
-80.16165548100099
 20
7.290172041299285
 42
0.0037967613999885
 10
-80.27467248100066
 20
7.269379741299388
 42
0.0037967613999968
 10
-80.38693348100077
 20
7.247860641299354
 42
0.003796761399993
 10
-80.49841148100069
 20
7.225619841299334
 42
0.0037967614000086
 10
-80.60908248100094
 20
7.20266244129931
 42
0.0037967614000003
 10
-80.71891948100091
 20
7.178993641299314
 42
0.0037967613999995
 10
-80.82789748100067
 20
7.154619041299355
 42
0.0038055234898925
 10
-80.93624149281783
 20
7.129484377005212
 42
0.2417074229057139
 10
-80.96187522459041
 20
7.107456547699939
 10
-81.67679310057867
 20
5.351238007852629
 42
0.1957404060663561
 10
-81.67679324222644
 20
4.707262264772083
 10
-81.05481874049798
 20
3.179360160221989
 42
-0.1957405476044069
 10
-81.05481905771336
 20
2.535383985854394
 10
-81.55302151669195
 20
1.311535683439672
 42
0.4443455524912625
 10
-81.52914870534289
 20
1.262076041420385
 42
0.0067708198256604
 10
-81.34540348100102
 20
1.210969441299312
 42
0.0067740668000073
 10
-81.15837748100096
 20
1.161971541299351
 42
0.0067740668000071
 10
-80.96829548100094
 20
1.115144241299361
 42
0.0067740668000066
 10
-80.7752964810008
 20
1.070521841299296
 42
0.0067740667999989
 10
-80.57952248100088
 20
1.028137041299345
 42
0.0067740668000009
 10
-80.3811174810009
 20
0.9880210412993335
 42
0.0067740668000062
 10
-80.18022648100094
 20
0.950203241299306
 42
0.0067740668000053
 10
-79.97699748100075
 20
0.9147114412992891
 42
0.0067740668000071
 10
-79.77157948100085
 20
0.8815717412993251
 42
0.0067740668000022
  0
LWPOLYLINE
  5
B663
330
B611
100
AcDbEntity
  8
hyomoji
  6
Continuous
100
AcDbPolyline
 90
       42
 70
   129
 43
0.0
 10
-74.08759948100095
 20
0.9024973412992665
 42
0.0068021948000069
 10
-73.88272248100071
 20
0.9372933412993802
 42
0.0068021948000014
 10
-73.68014948100079
 20
0.9744441412993296
 42
0.0068021947999925
 10
-73.480030481001
 20
1.013922341299263
 42
0.0068021948000045
 10
-73.28251348100071
 20
1.055698741299323
 42
0.0067876847517197
 10
-73.08815863735458
 20
1.099642758789315
 42
0.2416094440683337
 10
-73.06253822552235
 20
1.121667385795291
 10
-72.37377681836176
 20
2.813631322146534
 42
0.1957413290603471
 10
-72.37377779121271
 20
3.473445415974737
 10
-72.99251550271089
 20
4.993381119125444
 42
-0.1957413474957244
 10
-72.99251642934581
 20
5.637359730877022
 10
-72.46499287740249
 20
6.933237569940843
 42
0.4460668776922764
 10
-72.48906992686062
 20
6.982756357906652
 42
0.0028283786038634
 10
-72.5656354810007
 20
7.004228641299278
 42
0.0028494113000101
 10
-72.6433444810009
 20
7.025489041299351
 42
0.0028494112999968
 10
-72.72161948100091
 20
7.046371841299333
 42
0.0028494113000006
 10
-72.80044948100083
 20
7.066874241299302
 42
0.0028494113000024
 10
-72.87982448100109
 20
7.086993641299358
 42
0.002849411299989
 10
-72.95973348100097
 20
7.106727441299341
 42
0.0028494113000037
 10
-73.0401674810011
 20
7.126073041299378
 42
0.0028494112999894
 10
-73.12111448100086
 20
7.145027941299304
 42
0.0028494113000082
 10
-73.20256548100087
 20
7.163589641299324
 42
0.0028494112999955
 10
-73.28450848100072
 20
7.181755841299292
 42
0.0028494113000056
 10
-73.36693448100089
 20
7.199524041299355
 42
0.0028494113000083
 10
-73.44983148100101
 20
7.216892141299325
 42
0.0028494112999919
 10
-73.53318848100087
 20
7.233857641299323
 42
0.0028494112999998
 10
-73.61699548100091
 20
7.250418441299302
 42
0.0028494113000083
 10
-73.70124148100098
 20
7.266572441299359
 42
0.0028485312981507
 10
-73.78588930331165
 20
7.282312727728879
 42
0.3543993923517316
 10
-73.82671550229469
 20
7.259848702368003
 10
-76.48399329063067
 20
0.7321936259631059
 42
0.5392714590992974
 10
-76.44895126845131
 20
0.6812513337253279
 42
0.0068019099602671
 10
-76.22904048100071
 20
0.6888387412992643
 42
0.0068021947999971
 10
-76.00968748100076
 20
0.6989650412993172
 42
0.0068021947999996
 10
-75.791064481001
 20
0.7116227412992942
 42
0.0068021948000011
 10
-75.57333248100093
 20
0.7268023412993046
 42
0.0068021947999982
 10
-75.35665348100105
 20
0.7444926412992743
 42
0.0068021948000014
 10
-75.14118848100094
 20
0.7646806412993215
 42
0.0068021947999974
 10
-74.92709448100089
 20
0.7873512412992909
 42
0.0068021948000009
 10
-74.71453248100101
 20
0.812487741299293
 42
0.0068021948000053
 10
-74.50365948100079
 20
0.8400714412992726
 42
0.0068021947999869
 10
-74.29462948100109
 20
0.8700821412992922
 42
0.006802194800004
  0
LWPOLYLINE
  5
B664
330
B611
100
AcDbEntity
  8
hyomoji
  6
Continuous
100
AcDbPolyline
 90
       23
 70
   129
 43
0.0
 10
-77.84193479851961
 20
3.915503817791773
 42
0.1173827961225227
 10
-76.91830940053188
 20
4.097361758078051
 42
0.1913082464585806
 10
-76.85596118473819
 20
4.162353364074988
 10
-75.53148293830719
 20
7.415968590147599
 42
0.5046897278906438
 10
-75.56250708888382
 20
7.466776330723291
 42
0.0053970181929799
 10
-75.73501248100109
 20
7.480090241299365
 42
0.0031368713999882
 10
-75.83551848100086
 20
7.486840141299353
 42
0.003136871399997
 10
-75.93621748100076
 20
7.493053841299342
 42
0.0031368714000045
 10
-76.03709148100091
 20
7.498730241299369
 42
0.0031368713999919
 10
-76.13812448100066
 20
7.503868641299334
 42
0.0031368714000049
 10
-76.23930248100101
 20
7.508468041299352
 42
0.0031368713999963
 10
-76.34060748100086
 20
7.512527741299379
 42
0.0031368714000025
 10
-76.4420244810006
 20
7.516047241299361
 42
0.0031368714000093
 10
-76.54353748100089
 20
7.519025841299367
 42
0.003136871400002
 10
-76.64513048100099
 20
7.521463141299363
 42
0.0031368714000044
 10
-76.74678848100092
 20
7.523358741299318
 42
0.0031368714000004
 10
-76.84849348100107
 20
7.524712341299334
 42
0.0031368713999985
 10
-76.95023048100068
 20
7.525523641299344
 42
0.0031368713999931
 10
-77.05198348100083
 20
7.525792741299369
 42
0.0031368713999985
 10
-77.15373648100063
 20
7.525519341299343
 42
0.0023783812883705
 10
-77.23087482131649
 20
7.525017965209826
 42
0.3019404427550624
 10
-77.26472766965793
 20
7.501970698744116
 10
-78.38295652935596
 20
4.755026023556382
 42
0.5200087835236676
  0
LWPOLYLINE
  5
B665
102
{ACAD_REACTORS
330
B65D
102
}
330
B611
100
AcDbEntity
  8
hyomoji
  6
Continuous
100
AcDbPolyline
 90
       70
 70
   128
 43
0.0
 10
-62.67018979441809
 20
3.011012564593983
 42
0.8374115646471505
 10
-62.78825648100087
 20
2.989252931594279
 10
-62.78825648100087
 20
1.862405541299125
 10
-63.64189448100091
 20
1.862405541299125
 10
-63.64189448100091
 20
2.97177701961047
 42
0.8134131176983945
 10
-63.75883575443237
 20
2.996099312406755
 10
-64.25174608969655
 20
1.862405541299125
 10
-64.86139895336487
 20
1.862405541299125
 10
-63.90864895294914
 20
4.156057205292938
 42
0.534832613937013
 10
-63.96498223187831
 20
4.240457241299139
 10
-64.72066345391249
 20
4.240457241299139
 42
0.5537200791098316
 10
-64.77599174539887
 20
4.153151373127087
 10
-64.43432036448945
 20
3.532893033066841
 10
-64.98318196062911
 20
3.569484639619815
 10
-65.06457835488749
 20
3.752614298647159
 42
0.810044809672172
 10
-65.2272514810009
 20
3.718090604178513
 10
-65.2272514810009
 20
1.862405541299125
 10
-66.01991548100091
 20
1.862405541299125
 10
-66.01991548100091
 20
3.180389201155009
 42
0.8775035382925871
 10
-66.09266612073515
 20
3.189922918089735
 10
-66.20279949565958
 20
2.77693198951394
 10
-66.69079791063558
 20
2.715931687446754
 10
-66.0423487498785
 20
4.897074248306211
 42
0.4860089347694501
 10
-66.10200350808923
 20
4.972146741299155
 10
-66.56871348100088
 20
4.972146741299155
 10
-66.56871348100088
 20
5.398965541299133
 10
-66.08057635616257
 20
5.398965541299133
 42
0.4143902720061034
 10
-66.01991548100091
 20
5.460289651003961
 10
-66.01991548100091
 20
6.435525641299108
 10
-65.2272514810009
 20
6.435525641299108
 10
-65.2272514810009
 20
5.460289651003961
 42
0.4174020605283751
 10
-65.16596435616259
 20
5.398965541299133
 10
-65.01326412084137
 20
5.398965541299133
 42
0.2351357873419996
 10
-64.81918554624172
 20
5.496881275683762
 10
-64.80043248100088
 20
5.520991826785888
 10
-64.80043248100088
 20
4.972146741299155
 10
-65.12440350808924
 20
4.972146741299155
 42
0.5903409348321763
 10
-65.17547876299079
 20
4.878381751234769
 10
-64.90594841597351
 20
4.389080222085937
 42
0.7474984379804729
 10
-64.86140748100092
 20
4.403395270373323
 10
-64.86140748100092
 20
4.667276141299112
 10
-63.7025364539125
 20
4.667276141299112
 42
0.4142994654112848
 10
-63.64189448100091
 20
4.728600151004002
 10
-63.64189448100091
 20
5.338341351003975
 42
0.4109416450539159
 10
-63.7025364539125
 20
5.398965541299133
 10
-64.28611254821658
 20
5.398965541299133
 42
-0.3758657869825331
 10
-64.86140748100092
 20
5.825895954227206
 10
-64.86140748100092
 20
6.435525641299108
 10
-64.06874348100086
 20
6.435525641299108
 10
-64.06874348100086
 20
5.886784441299141
 42
0.4142135623730951
 10
-64.00774348100083
 20
5.825784441299134
 10
-63.7028944810009
 20
5.825784441299134
 42
0.4142135623730951
 10
-63.64189448100091
 20
5.886784441299141
 10
-63.64189448100091
 20
6.435525641299108
 10
-62.78825648100087
 20
6.435525641299108
 10
-62.78825648100087
 20
5.886784441299141
 42
0.4142135623730951
 10
-62.72725648100084
 20
5.825784441299134
 10
-61.69069148100089
 20
5.825784441299134
 10
-61.69069148100089
 20
5.398965541299133
 10
-62.72761450808928
 20
5.398965541299133
 42
0.4142994654112848
 10
-62.78825648100087
 20
5.337641531594272
 10
-62.78825648100087
 20
4.727900331594298
 42
0.414127664552564
 10
-62.72695045391248
 20
4.667276141299112
 10
-61.69069148100089
 20
4.667276141299112
 10
-61.69069148100089
 20
4.240457241299139
 10
-62.46552950808933
 20
4.240457241299139
 42
0.5442124499672577
 10
-62.52066721478428
 20
4.154163983595879
 10
-61.56870695644437
 20
1.862405541299125
 10
-62.23946240602021
 20
1.862405541299125
 10
-62.67018940675479
 20
3.011012709967502
  0
LWPOLYLINE
  5
B666
102
{ACAD_REACTORS
330
B65D
102
}
330
B611
100
AcDbEntity
  8
hyomoji
  6
Continuous
100
AcDbPolyline
 90
       43
 70
   129
 43
0.0
 10
-59.49559248100093
 20
2.459460770658239
 42
0.4538928057970519
 10
-59.40002856816966
 20
2.373539142465205
 10
-58.21513648100091
 20
2.65565654130745
 10
-58.21513648100091
 20
2.166874593013147
 10
-59.97605424750162
 20
1.923989054180879
 10
-61.20289848100089
 20
1.862646641298482
 10
-61.20289848100089
 20
2.350198541299135
 10
-60.41026148100087
 20
2.350198541299135
 42
0.4142135623730951
 10
-60.34926148100089
 20
2.411198541299143
 10
-60.34926148100089
 20
4.179833051003981
 42
0.4109416450539176
 10
-60.40990345391247
 20
4.240457241299139
 10
-61.20289848100089
 20
4.240457241299139
 10
-61.20289848100089
 20
4.667276141299112
 10
-58.47201198712764
 20
4.667276141299112
 42
0.4890132124780574
 10
-58.35375899315687
 20
4.819279964671352
 10
-58.48916922335632
 20
5.352967452985268
 42
0.3431714260423211
 10
-58.54829572034168
 20
5.398965541299133
 10
-61.20289848100089
 20
5.398965541299133
 10
-61.20289848100089
 20
5.825784441299134
 10
-58.76596001972183
 20
5.825784441299134
 42
0.4890148091784922
 10
-58.64770718039967
 20
5.977788874175672
 10
-58.76384927206533
 20
6.435525641299108
 10
-57.91020861058473
 20
6.435525641299108
 10
-57.76716777773612
 20
5.871782075988221
 42
0.3431692821353876
 10
-57.70804139584885
 20
5.825784441299134
 10
-57.23957148100095
 20
5.825784441299134
 42
0.4142135623730951
 10
-57.11757148100094
 20
5.947784441299148
 10
-57.11757148100094
 20
6.435525641299108
 10
-56.32490848100087
 20
6.435525641299108
 10
-56.32490848100087
 20
5.835573103868767
 42
-0.3824524618302969
 10
-56.7068615190268
 20
5.398965541299133
 10
-57.56853345391249
 20
5.398965541299133
 42
0.4790978957378951
 10
-57.62848939861356
 20
5.325226663145372
 10
-56.8853024185089
 20
2.396196312671946
 42
0.3431699281256741
 10
-56.82617600194055
 20
2.350198541299135
 10
-56.32490848100087
 20
2.350198541299135
 10
-56.32490848100087
 20
1.862313411481466
 10
-57.3029635753897
 20
1.908396245450404
 42
-0.3300656182922443
 10
-57.6967519167186
 20
2.22990749382825
 10
-58.19522029465185
 20
4.194459465683479
 42
0.3431699481782171
 10
-58.25434671229681
 20
4.240457241299139
 10
-59.43495050808934
 20
4.240457241299139
 42
0.4109416450539143
 10
-59.49559248100093
 20
4.179833051003981
  0
LWPOLYLINE
  5
B667
330
B611
100
AcDbEntity
  8
hyomoji
  6
Continuous
100
AcDbPolyline
 90
       21
 70
   128
 43
0.0
 10
-15.0448174810009
 20
6.740457241299139
 10
-15.0448174810009
 20
6.069680941299168
 10
-20.77647648100094
 20
6.069680941299168
 10
-20.77647648100094
 20
7.10630204129913
 10
-15.34968848100089
 20
7.10630204129913
 42
-0.0245951489999901
 10
-15.31974848100088
 20
7.104640641299141
 42
-0.0245951489999939
 10
-15.29009848100094
 20
7.09945864129915
 42
-0.0245951490000111
 10
-15.2610234810009
 20
7.090806141299168
 42
-0.0245951489999948
 10
-15.23280648100092
 20
7.078766841299142
 42
-0.0245951490000167
 10
-15.20571948100087
 20
7.063457141299124
 42
-0.0245951489999851
 10
-15.18002348100089
 20
7.045024941299146
 42
-0.0245951489999982
 10
-15.15596848100091
 20
7.023648441299144
 42
-0.0245951490000079
 10
-15.13378548100092
 20
6.999534341299153
 42
-0.0245951489999929
 10
-15.1136894810009
 20
6.972915741299175
 42
-0.0245951490000121
 10
-15.09587548100092
 20
6.944049941299141
 42
-0.0245951489999839
 10
-15.08051548100093
 20
6.913216041299165
 42
-0.0245951490000097
 10
-15.06775648100091
 20
6.880712041299148
 42
-0.0245951489999972
 10
-15.05772348100089
 20
6.84685224129916
 42
-0.0245951490000035
 10
-15.0505134810009
 20
6.81196384129916
 42
-0.0245951490000047
 10
-15.04619448100089
 20
6.776384241299155
 42
-0.024595148999995
 10
-15.04481048100086
 20
6.740457241299139
  0
LWPOLYLINE
  5
B668
330
B611
100
AcDbEntity
  8
hyomoji
  6
Continuous
100
AcDbPolyline
 90
       21
 70
   128
 43
0.0
 10
-21.26426948100089
 20
2.837991441299124
 10
-14.74376200274577
 20
2.837991441299124
 42
-0.0277241649809473
 10
-14.7100074810009
 20
2.836330041299106
 42
-0.0245951490000116
 10
-14.68035648100084
 20
2.831148041299115
 42
-0.0245951489999535
 10
-14.65128248100092
 20
2.822495641299099
 42
-0.0245951490000357
 10
-14.62306548100088
 20
2.810456341299101
 42
-0.0245951489999617
 10
-14.59597748100089
 20
2.795146541299146
 42
-0.024595149000028
 10
-14.5702824810009
 20
2.776714341299111
 42
-0.0245951489999838
 10
-14.54622648100087
 20
2.755337941299131
 42
-0.0245951490000106
 10
-14.52404448100088
 20
2.731223841299112
 42
-0.0245951489999761
 10
-14.50394848100092
 20
2.704605241299134
 42
-0.0245951490000292
 10
-14.48613448100087
 20
2.6757394412991
 42
-0.0245951489999958
 10
-14.47077348100089
 20
2.644905441299101
 42
-0.0245951489999834
 10
-14.45801548100092
 20
2.612401541299107
 42
-0.0245951490000133
 10
-14.4479824810009
 20
2.578541641299096
 42
-0.0245951489999937
 10
-14.44077148100092
 20
2.543653241299097
 42
-0.0245951490001447
 10
-14.43645348100091
 20
2.508073641298892
 42
-0.0188381928052038
 10
-14.43507648100092
 20
2.480563253336754
 10
-14.43507648100092
 20
1.496560841299128
 10
-21.26426948100089
 20
1.496560841299128
 10
-21.26426948100089
 20
2.838052541299106
  0
HATCH
  5
B669
330
B611
100
AcDbEntity
  8
hyomoji
  6
Continuous
100
AcDbHatch
 10
0.0
 20
0.0
 30
0.0
210
0.0
220
0.0
230
1.0
  2
SOLID
 70
     1
 71
     0
 91
        4
 92
        7
 72
     1
 73
     1
 93
       43
 10
-22.11793748100092
 20
6.49969014170378
 42
0.4111374742261061
 10
-22.72439800153092
 20
7.10630204129913
 42
0.0
 10
-27.29807791691263
 20
7.10630204129913
 42
0.2403459008079904
 10
-27.49562285561598
 20
7.005522141818204
 42
0.0
 10
-28.4104861288638
 20
5.743641940780094
 42
-0.2403459008080008
 10
-28.60803106756714
 20
5.642862041299139
 42
0.0
 10
-29.1910274810009
 20
5.642862041299139
 42
0.0
 10
-29.1910274810009
 20
4.66727614129914
 42
0.0
 10
-27.92468042540406
 20
4.667276141299112
 42
0.0806114902716036
 10
-27.53888292527296
 20
4.729882392874401
 42
0.0
 10
-27.08175505243935
 20
4.882258186176812
 42
-0.5451163426399201
 10
-26.99592848100087
 20
4.826227931606297
 42
0.0
 10
-26.99592848100087
 20
3.935586641299153
 42
0.0
 10
-25.50918792204959
 20
3.935586641299153
 42
-0.138003835399446
 10
-25.38195389927228
 20
3.899787273978091
 42
0.0
 10
-24.5803232616978
 20
3.409900718458288
 42
-0.4326750878113164
 10
-24.54402492762563
 20
3.235793804276596
 42
-0.0138047286378493
 10
-24.6193294810011
 20
3.134393041298835
 42
-0.0137524420014467
 10
-24.69896648100974
 20
3.038389741288995
 42
-0.0137524419982802
 10
-24.7829694809995
 20
2.947682641300531
 42
-0.0137524419997905
 10
-24.87108348099804
 20
2.86254614130172
 42
-0.0137524420004081
 10
-24.96304348100068
 20
2.783237641299251
 42
-0.0137524420000229
 10
-25.05857048100086
 20
2.709997041299089
 42
-0.0137524419998802
 10
-25.15737548100003
 20
2.643046041299669
 42
-0.0137524420001772
 10
-25.25915948100129
 20
2.582587141298887
 42
-0.0137524419999723
 10
-25.36361548100109
 20
2.528803041298999
 42
-0.0137524419999808
 10
-25.47042648100097
 20
2.48185664129906
 42
-0.0137524419999774
 10
-25.57927048100078
 20
2.441889841299172
 42
-0.0137524420001314
 10
-25.68981748100185
 20
2.409023541298864
 42
-0.0137524419994291
 10
-25.80173248099721
 20
2.383357241299847
 42
-0.0137524420005571
 10
-25.91467748100177
 20
2.364968441299026
 42
-0.0137524419998892
 10
-26.02831248100085
 20
2.353912941299142
 42
-0.0162900486309537
 10
-26.16330263573963
 20
2.350198541299135
 42
0.0
 10
-28.9471304810009
 20
2.350198541299135
 42
0.0
 10
-28.9471304810009
 20
1.374612541299143
 42
0.0
 10
-25.16680452813285
 20
1.374612541299114
 42
0.2200765101082553
 10
-22.84327469333408
 20
2.449375950176829
 42
-0.2394335662263612
 10
-22.79295559891625
 20
2.472146741299155
 42
0.0
 10
-21.99598948100089
 20
2.472146741299155
 42
0.0
 10
-21.99598948100089
 20
3.447793741299165
 42
0.0
 10
-22.19417445390275
 20
3.447793741299136
 42
-0.5132470832222941
 10
-22.25237623922618
 20
3.527978312291395
 42
0.0739209250258662
 10
-22.11793748100092
 20
4.414408195970594
 42
0.0
 97
        0
 92
       22
 72
     1
 73
     1
 93
       26
 10
-26.09950634785406
 20
6.022513887169424
 42
-0.2516647099568892
 10
-25.89552812083991
 20
6.130716041299109
 42
0.0
 10
-24.3143468411605
 20
6.130716041299109
 42
-0.4174725427475722
 10
-24.06914048100089
 20
5.885419205627925
 42
0.0
 10
-24.06914048100089
 20
4.789224341305725
 42
-0.0027675332005065
 10
-24.06926748100085
 20
4.762224941300786
 42
-0.0027675332004232
 10
-24.06964848100091
 20
4.735228841296645
 42
-0.0027675331991665
 10
-24.07028348100073
 20
4.708239341304789
 42
-0.0027675332011284
 10
-24.07117248100104
 20
4.681259741293786
 42
-0.0027675331987053
 10
-24.07231548100055
 20
4.654293341306384
 42
-0.0027675332009155
 10
-24.07371148100094
 20
4.627343541297477
 42
-0.0027675332009985
 10
-24.07536148100161
 20
4.600413541287764
 42
-0.0027675331989814
 10
-24.07726448100101
 20
4.573506741297677
 42
-0.0027675331994423
 10
-24.07942148100057
 20
4.546626241303101
 42
-0.0027675332005088
 10
-24.08183048100096
 20
4.519775641298139
 42
-0.0027675331980663
 10
-24.08449148099902
 20
4.492957941316888
 42
-0.0027675332031634
 10
-24.08740548100235
 20
4.466176641286267
 42
-0.0027675331997102
 10
-24.09057148100209
 20
4.439434841289084
 42
-0.0027675331989405
 10
-24.09398848100085
 20
4.412735941299303
 42
-0.0027675331998098
 10
-24.09765648100057
 20
4.386083141301128
 42
-0.002637305733349
 10
-24.10138351745263
 20
4.360730681618633
 42
-0.5743107685812884
 10
-24.19843215589316
 20
4.319786042922885
 42
0.0
 10
-25.10757501850236
 20
4.875373403082335
 42
0.1380035768931384
 10
-25.23480883001833
 20
4.911172641299117
 42
0.0
 10
-26.78554445391336
 20
4.911172641299117
 42
-0.6376639659024507
 10
-26.83273294813051
 20
5.011164975509984
 42
0.0
 97
        0
 92
        7
 72
     1
 73
     1
 93
       16
 10
-15.0448174810009
 20
6.748873848172564
 42
0.0309163692554858
 10
-15.0481645298272
 20
6.793927975883548
 42
0.0488070742210316
 10
-15.06231925804786
 20
6.863064660102395
 42
0.0484601911608653
 10
-15.08713727771453
 20
6.927104619488773
 42
0.0458520337274189
 10
-15.11960667549857
 20
6.981258304011362
 42
0.0419710568843188
 10
-15.15596848100063
 20
7.023648441298831
 42
0.0245951490011407
 10
-15.18002348100174
 20
7.045024941299828
 42
0.0245951490002321
 10
-15.20571948100206
 20
7.063457141299863
 42
0.0245951489982075
 10
-15.23280648100007
 20
7.078766841298744
 42
0.0245951490009266
 10
-15.26102348100113
 20
7.090806141299253
 42
0.0245951489995659
 10
-15.29009848100065
 20
7.099458641299065
 42
0.0245951490006515
 10
-15.3197484810014
 20
7.104640641299198
 42
0.0245951489987076
 10
-15.34968848099981
 20
7.10630204129913
 42
0.0
 10
-20.77647648100094
 20
7.10630204129913
 42
0.0
 10
-20.77647648100094
 20
6.069680941299139
 42
0.0
 10
-15.0448174810009
 20
6.069680941299139
 42
0.0
 97
        0
 92
        7
 72
     1
 73
     1
 93
       16
 10
-14.43507648100092
 20
2.480563253336782
 42
0.0308838912040585
 10
-14.43841708646312
 20
2.525570233433285
 42
0.0488395343566829
 10
-14.4525786036657
 20
2.594753617348601
 42
0.0485095197191555
 10
-14.47742598987509
 20
2.658855853719785
 42
0.0458606787790824
 10
-14.50991317401207
 20
2.713012694748158
 42
0.0419109682859432
 10
-14.54622648100121
 20
2.755337941299472
 42
0.0245951490000142
 10
-14.5702824810013
 20
2.776714341299424
 42
0.0245951490006883
 10
-14.59597748100208
 20
2.795146541299885
 42
0.0245951489991911
 10
-14.62306548100122
 20
2.810456341299271
 42
0.0245951489998262
 10
-14.65128248100103
 20
2.822495641299155
 42
0.0245951489996845
 10
-14.68035648100067
 20
2.831148041299059
 42
0.0245951489998894
 10
-14.71000748100056
 20
2.836330041299049
 42
0.0245951490034687
 10
-14.73994748100477
 20
2.837991441299124
 42
0.0
 10
-21.26426948100089
 20
2.837991441299124
 42
0.0
 10
-21.26426948100089
 20
1.496560841299128
 42
0.0
 10
-14.43507648100092
 20
1.496560841299157
 42
0.0
 97
        0
 75
     0
 76
     1
 47
0.0683084432309891
 98
        5
 10
-11.52273983372674
 20
-102.7401946664322
 10
-27.37847390351385
 20
5.738428971873815
 10
-27.37847390351385
 20
5.738428971873815
 10
-18.42237831150396
 20
6.48982244039422
 10
-18.2856441113986
 20
2.254698718094743
  0
LWPOLYLINE
  5
B66A
102
{ACAD_REACTORS
330
B66B
102
}
330
B611
100
AcDbEntity
  8
hyomoji
  6
Continuous
100
AcDbPolyline
 90
       46
 70
   128
 43
0.0
 10
-31.50807948100084
 20
6.4965608412991
 42
0.0246113600000082
 10
-31.50699548100084
 20
6.460610141299099
 42
0.0246113599999873
 10
-31.50356048100082
 20
6.425007441299129
 42
0.0246113599999939
 10
-31.49780848100085
 20
6.390097441299133
 42
0.0246113600000089
 10
-31.48979548100084
 20
6.356217941299121
 42
0.0246113600000195
 10
-31.47959848100089
 20
6.32369694129909
 42
0.0246113599999893
 10
-31.46731548100087
 20
6.292849241299109
 42
0.0246113599999934
 10
-31.45306648100086
 20
6.263973341299106
 42
0.0246113599999928
 10
-31.43698948100086
 20
6.237348941299103
 42
0.0246113599999958
 10
-31.41923948100083
 20
6.213233541299103
 42
0.0246113600000034
 10
-31.39998848100089
 20
6.191860741299109
 42
0.0246113599999883
 10
-31.37942348100086
 20
6.173437441299114
 42
0.0246113600000125
 10
-31.35774148100086
 20
6.158141841299112
 42
0.0246113599999954
 10
-31.33515548100087
 20
6.146122041299094
 42
0.024611359999985
 10
-31.31188148100085
 20
6.137494441299139
 42
0.024611360000015
 10
-31.28814548100087
 20
6.13234244129913
 42
0.0246113600000176
 10
-31.2641784810009
 20
6.130716041299109
 10
-30.4106134810009
 20
6.130716041299109
 42
-0.4142135623730951
 10
-30.16661348100092
 20
5.886716041299109
 10
-30.16661348100092
 20
5.275497923116347
 42
-0.0244511737842624
 10
-30.18131048100088
 20
4.894515141299109
 42
-0.0245486219999786
 10
-30.22521048100083
 20
4.51569674129945
 42
-0.0245486220000839
 10
-30.29790848100112
 20
4.144210241298168
 42
-0.0245486219998618
 10
-30.39870248100056
 20
3.783633241300208
 42
-0.0245486220001097
 10
-30.52662248100109
 20
3.437438441298638
 42
-0.024548621999966
 10
-30.68043648100087
 20
3.108959741299116
 42
-0.0245486220000008
 10
-30.85866448100086
 20
2.801360541299118
 42
-0.0245486220000017
 10
-31.0595884810009
 20
2.517603341299093
 42
-0.0245486219999997
 10
-31.28127348100088
 20
2.260420841299122
 42
-0.0245486220000006
 10
-31.5215854810009
 20
2.032289841299103
 42
-0.0245486219999995
 10
-31.77820948100089
 20
1.835407241299122
 42
-0.0245486219999993
 10
-32.04867448100089
 20
1.671669241299127
 42
-0.0245486219999995
 10
-32.33037448100089
 20
1.542652741299121
 42
-0.0245486220000024
 10
-32.62059848100085
 20
1.449600241299123
 42
-0.0245486220000146
 10
-32.91655048100108
 20
1.39340784129908
 42
-0.0245738278590478
 10
-33.21568788868956
 20
1.374612541299114
 10
-36.75194048100093
 20
1.374612541299114
 10
-36.75194048100093
 20
2.350198541299135
 10
-33.94686748100088
 20
2.350198541299135
 42
0.4142135623730951
 10
-31.99586748100092
 20
4.301198541299157
 10
-31.99586748100092
 20
5.520716041299124
 42
0.4142135623730951
 10
-32.60586748100093
 20
6.130716041299109
 10
-37.11778548100091
 20
6.130716041299109
 10
-37.11778548100091
 20
7.10630204129913
 10
-31.50807448100091
 20
7.10630204129913
 10
-31.50807448100091
 20
6.4965608412991
  0
HATCH
  5
B66B
330
B611
100
AcDbEntity
  8
hyomoji
  6
Continuous
100
AcDbHatch
 10
0.0
 20
0.0
 30
0.0
210
0.0
220
0.0
230
1.0
  2
SOLID
 70
     1
 71
     1
 91
        5
 92
       17
 93
       24
 72
     1
 10
-40.41062948100085
 20
1.374612541299114
 11
-44.31282348100092
 21
1.374612541299114
 72
     1
 10
-44.31282348100092
 20
1.374612541299114
 11
-44.31282348100092
 21
2.350198541299135
 72
     1
 10
-44.31282348100092
 20
2.350198541299135
 11
-41.32485848100083
 21
2.350198541299135
 72
     2
 10
-41.32485848100086
 20
4.301198541299129
 40
1.950999999999993
 50
270.0000000000008
 51
360.0000000000008
 73
     1
 72
     1
 10
-39.37385848100087
 20
4.301198541299157
 11
-39.37385848100087
 21
5.764871341299112
 72
     1
 10
-39.37385848100087
 20
5.764871341299112
 11
-37.72866439050967
 21
5.764871341299112
 72
     2
 10
-37.73350367664755
 20
5.520648870554686
 40
0.2442704114436222
 50
271.1351715111995
 51
277.0274425571937
 73
     0
 72
     2
 10
-37.74539953794724
 20
5.519484552045799
 40
0.2471567626504952
 50
279.7324019520408
 51
285.3577006018843
 73
     0
 72
     2
 10
-37.75712391558237
 20
5.517149106257363
 40
0.2527400033570795
 50
287.7811919007062
 51
293.4064905505439
 73
     0
 72
     2
 10
-37.76856239131908
 20
5.51367940161311
 40
0.260627714642242
 50
295.4115667719504
 51
301.0368654217817
 73
     0
 72
     2
 10
-37.77960674183713
 20
5.509104447762091
 40
0.2703354172791852
 50
302.5427679199128
 51
308.1680665697514
 73
     0
 72
     2
 10
-37.79014888556903
 20
5.503464799974072
 40
0.2813250534777913
 50
309.1463353383185
 51
314.7716339881506
 73
     0
 72
     2
 10
-37.8000880244567
 20
5.496831713512614
 40
0.2930436766167751
 50
315.2378398774451
 51
320.8631385272775
 73
     0
 72
     2
 10
-37.80932816166755
 20
5.489234253298038
 40
0.3050060338686421
 50
320.8517256794308
 51
326.4770243292667
 73
     0
 72
     2
 10
-37.81777963703735
 20
5.480789797403754
 40
0.3167242439167999
 50
326.0478621995592
 51
331.673160849394
 73
     0
 72
     2
 10
-37.82536271566213
 20
5.471549229170366
 40
0.327815325652672
 50
330.8803509734951
 51
336.5056496233285
 73
     0
 72
     2
 10
-37.83200357018162
 20
5.461616713515649
 40
0.3379271164879645
 50
335.4100021712468
 51
341.0353008210853
 73
     0
 72
     2
 10
-37.83763836937544
 20
5.451065729395723
 40
0.3467806841550121
 50
339.6891075424539
 51
345.3144061922893
 73
     0
 72
     2
 10
-37.84221227816188
 20
5.440017687344441
 40
0.354134198938634
 50
343.772744289215
 51
349.3980429390496
 73
     0
 72
     2
 10
-37.84568097531698
 20
5.428588193506778
 40
0.3598025996586914
 50
347.7104370894049
 51
353.335735739241
 73
     0
 72
     2
 10
-37.84801274207382
 20
5.416863545263725
 40
0.3636572113879826
 50
351.5432904195479
 51
357.1685890693863
 73
     0
 72
     2
 10
-37.84918440896014
 20
5.404958544376683
 40
0.3656070496854689
 50
355.3139314942612
 51
360.9674864795958
 73
     0
 72
     1
 10
-37.48362948100089
 20
5.398785261261593
 11
-37.48362948100089
 21
4.301612541299135
 72
     2
 10
-40.41062948100088
 20
4.301612541299107
 40
2.926999999999992
 50
359.9999999999994
 51
449.9999999999994
 73
     0
 97
        1
330
B66F
 92
       16
 93
        4
 72
     1
 10
-44.31282348100092
 20
4.301431441299115
 11
-44.31282348100092
 21
5.337991441299124
 72
     1
 10
-44.31282348100092
 20
5.337991441299124
 11
-39.80067748100089
 21
5.337991441299124
 72
     1
 10
-39.80067748100089
 20
5.337991441299124
 11
-39.80067748100089
 21
4.301431441299115
 72
     1
 10
-39.80067748100089
 20
4.301431441299115
 11
-44.31282348100092
 21
4.301431441299115
 97
        1
330
B671
 92
        1
 93
        8
 72
     2
 10
-31.0812034810009
 20
6.557525641299122
 40
0.1220000000000141
 50
90.0
 51
180.0
 73
     0
 72
     1
 10
-31.20320348100091
 20
6.557525641299122
 11
-31.20320348100091
 21
7.35014674129917
 72
     2
 10
-31.08120348100091
 20
7.350146741299155
 40
0.1219999999999999
 50
180.0000000000067
 51
270.0000000000066
 73
     0
 72
     1
 10
-31.0812034810009
 20
7.472146741299155
 11
-30.28861348100094
 21
7.472146741299155
 72
     2
 10
-30.28861348100092
 20
7.350146741299155
 40
0.1219999999999999
 50
269.9999999999934
 51
359.9999999999933
 73
     0
 72
     1
 10
-30.16661348100092
 20
7.35014674129917
 11
-30.16661348100092
 21
6.557525641299122
 72
     2
 10
-30.28861348100094
 20
6.557525641299122
 40
0.1220000000000141
 50
360.0
 51
450.0
 73
     0
 72
     1
 10
-30.28861348100094
 20
6.435525641299108
 11
-31.0812034810009
 21
6.435525641299108
 97
        1
330
B674
 92
        1
 93
        8
 72
     2
 10
-29.67876848100087
 20
6.557525641299122
 40
0.1220000000000141
 50
90.0
 51
180.0
 73
     0
 72
     1
 10
-29.80076848100089
 20
6.557525641299122
 11
-29.80076848100089
 21
7.35014674129917
 72
     2
 10
-29.67876848100089
 20
7.350146741299155
 40
0.1219999999999999
 50
180.0000000000067
 51
270.0000000000066
 73
     0
 72
     1
 10
-29.67876848100087
 20
7.472146741299155
 11
-28.88617848100086
 21
7.472146741299155
 72
     2
 10
-28.88617848100087
 20
7.350146741299184
 40
0.1219999999999715
 50
270.0000000000066
 51
360.0000000000067
 73
     0
 72
     1
 10
-28.7641784810009
 20
7.35014674129917
 11
-28.7641784810009
 21
6.557525641299122
 72
     2
 10
-28.88617848100088
 20
6.557525641299093
 40
0.1219999999999857
 50
359.9999999999866
 51
449.9999999999866
 73
     0
 72
     1
 10
-28.88617848100086
 20
6.435525641299108
 11
-29.67876848100087
 21
6.435525641299108
 97
        1
330
B675
 92
       33
 93
       65
 72
     2
 10
-40.15955403217664
 20
6.740809291975087
 40
0.3655642531807597
 50
268.9079085784473
 51
274.5472783620653
 73
     0
 72
     2
 10
-40.14763822412952
 20
6.742072451993005
 40
0.3635512054363374
 50
272.6907127711278
 51
278.3300825547402
 73
     0
 72
     2
 10
-40.1359043625413
 20
6.74451437027278
 40
0.3596113094173716
 50
276.5363585297269
 51
282.1757283133398
 73
     0
 72
     2
 10
-40.12446857838526
 20
6.748088080990179
 40
0.3538596508463129
 50
280.4875340814724
 51
286.1269038650866
 73
     0
 72
     2
 10
-40.11343850263419
 20
6.75277897008294
 40
0.3464142485698674
 50
284.5896776688345
 51
290.2290474524438
 73
     0
 72
     2
 10
-40.10292294837045
 20
6.758533112938493
 40
0.3374709780505557
 50
288.8915190653401
 51
294.5308888489571
 73
     0
 72
     2
 10
-40.09302285008419
 20
6.765276577914743
 40
0.3272846928118857
 50
293.4442512510634
 51
299.0836210346797
 73
     0
 72
     2
 10
-40.08383483954716
 20
6.772965135123356
 40
0.3161285569237874
 50
298.3056685439535
 51
303.9450383275652
 73
     0
 72
     2
 10
-40.07544568511767
 20
6.781532397649514
 40
0.3043446755874508
 50
303.5354792677763
 51
309.174849051388
 73
     0
 72
     2
 10
-40.06793845866768
 20
6.790868068026554
 40
0.2923652372843617
 50
309.1900320635757
 51
314.8294018471892
 73
     0
 72
     2
 10
-40.06138697488203
 20
6.800907504062973
 40
0.2806369267862173
 50
315.3258135433577
 51
320.9651833269747
 73
     0
 72
     2
 10
-40.05585176090673
 20
6.811528701260874
 40
0.2696903073535069
 50
321.9773747645569
 51
327.6167445481712
 73
     0
 72
     2
 10
-40.05138972328365
 20
6.822662012156951
 40
0.2600539621515875
 50
329.1618629456136
 51
334.8012327292259
 73
     0
 72
     2
 10
-40.04803946583914
 20
6.834156273460831
 40
0.252288388816013
 50
336.8397010734225
 51
342.4790708570335
 73
     0
 72
     2
 10
-40.04583754767341
 20
6.845939084194236
 40
0.2468678889690294
 50
344.9337820978299
 51
350.5731518814466
 73
     0
 72
     2
 10
-40.04480375552435
 20
6.85788258282658
 40
0.244168169641417
 50
353.299225470227
 51
358.9385952541413
 73
     0
 72
     1
 10
-39.80067748100089
 20
6.862405541297846
 11
-39.80067748100089
 21
6.069680941299168
 72
     1
 10
-39.80067748100089
 20
6.069680941299168
 11
-44.31282348100092
 21
6.069680941299168
 72
     1
 10
-44.31282348100092
 20
6.069680941299168
 11
-44.31282348100092
 21
7.10630204129913
 72
     1
 10
-44.31282348100092
 20
7.10630204129913
 11
-40.16652148100092
 21
7.10630204129913
 72
     2
 10
-31.14257467544621
 20
6.489589996947617
 40
0.3655712728791671
 50
178.9073972755294
 51
184.5467670591452
 73
     1
 72
     2
 10
-31.1438479872227
 20
6.477680079955249
 40
0.3635484631284685
 50
182.6912372584356
 51
188.3306070420467
 73
     1
 72
     2
 10
-31.14628660997418
 20
6.465945353190733
 40
0.3596116398956016
 50
186.5366781027052
 51
192.1760478863178
 73
     1
 72
     2
 10
-31.14986549657101
 20
6.454503727980222
 40
0.3538537694839348
 50
190.4870828575621
 51
196.1264526411781
 73
     1
 72
     2
 10
-31.15455165978465
 20
6.443474917404435
 40
0.3464133362656131
 50
194.5891964393065
 51
200.228566222925
 73
     1
 72
     2
 10
-31.16029859641006
 20
6.432967134548325
 40
0.3374794681642724
 50
198.8918738167613
 51
204.5312436003729
 73
     1
 72
     2
 10
-31.16704983279174
 20
6.423063690733703
 40
0.3272846808758482
 50
203.4446491229361
 51
209.0840189065485
 73
     1
 72
     2
 10
-31.17474351588014
 20
6.413870954318148
 40
0.3161217602481632
 50
208.3057667989053
 51
213.9451365825176
 73
     1
 72
     2
 10
-31.18330077664805
 20
6.405484945416424
 40
0.3043479498809704
 50
213.5350255565062
 51
219.1743953401192
 73
     1
 72
     2
 10
-31.1926424880798
 20
6.397978634141012
 40
0.2923644070847562
 50
219.1904466844023
 51
224.8298164680171
 73
     1
 72
     2
 10
-31.20267709823703
 20
6.391419994125731
 40
0.2806344190524484
 50
225.3245190717162
 51
230.9638888553275
 73
     1
 72
     2
 10
-31.21330525166622
 20
6.385900057787061
 40
0.2696954384526746
 50
231.9792008406159
 51
237.6185706242328
 73
     1
 72
     2
 10
-31.22442638045165
 20
6.381419546999609
 40
0.2600497065895711
 50
239.1593346124937
 51
244.7987043961067
 73
     1
 72
     2
 10
-31.23593317386667
 20
6.378080256489131
 40
0.2522888816955313
 50
246.840727290314
 51
252.4800970739246
 73
     1
 72
     2
 10
-31.24771162389598
 20
6.375880568674587
 40
0.2468718620781297
 50
254.9339822484814
 51
260.5733520320987
 73
     1
 72
     2
 10
-31.25965116182459
 20
6.374836424767409
 40
0.2441623604154297
 50
263.2981767439273
 51
268.9375465275453
 73
     1
 72
     1
 10
-31.2641784810009
 20
6.130716041299109
 11
-30.4106134810009
 21
6.130716041299109
 72
     2
 10
-30.41061348100091
 20
5.886716041299123
 40
0.2439999999999856
 50
270.0000000000033
 51
360.0000000000033
 73
     0
 72
     1
 10
-30.16661348100092
 20
5.886716041299109
 11
-30.16661348100092
 21
5.275497923116347
 72
     2
 10
-34.06697557258851
 20
5.235185552063899
 40
3.900570411203132
 50
359.4078379314366
 51
365.0105178180954
 73
     0
 72
     2
 10
-34.05877333660352
 20
5.151908457652551
 40
3.885996592366182
 50
3.797830276358586
 51
9.422830251404851
 73
     0
 72
     2
 10
-34.04245020973252
 20
5.06985438728685
 40
3.857254184418483
 50
8.260058340267464
 51
13.88505831533785
 73
     0
 72
     2
 10
-34.01816222221154
 20
4.989776247753083
 40
3.815136926803839
 50
12.80505383335308
 51
18.43005380837258
 73
     0
 72
     2
 10
-33.98614101832348
 20
4.912471556376988
 40
3.760849797672731
 50
17.46692010976915
 51
23.09192008484544
 73
     0
 72
     2
 10
-33.94669826752666
 20
4.838677046888348
 40
3.695996214199022
 50
22.27939384303167
 51
27.90439381807504
 73
     0
 72
     2
 10
-33.90021327344463
 20
4.769117291290534
 40
3.622579976198314
 50
27.27620306789391
 51
32.90120304294526
 73
     0
 72
     2
 10
-33.84713174280935
 20
4.704432938925521
 40
3.542967841444326
 50
32.4892084948973
 51
38.11420846994886
 73
     0
 72
     2
 10
-33.78796601886061
 20
4.64526302154492
 40
3.459910360694504
 50
37.94803117320391
 51
43.57303114825495
 73
     0
 72
     2
 10
-33.72328608369381
 20
4.59218692011275
 40
3.376471323440636
 50
43.67703588161116
 51
49.30203585666247
 73
     0
 72
     2
 10
-33.65371618501432
 20
4.545699314799499
 40
3.295938185172516
 50
49.69198602775009
 51
55.31698600280114
 73
     0
 72
     2
 10
-33.57992376739428
 20
4.506259029124213
 40
3.221742330218623
 50
55.9970216535346
 51
61.6220216285856
 73
     0
 72
     2
 10
-33.50262008125396
 20
4.474228619015532
 40
3.15726097656203
 50
62.5800733401317
 51
68.20507331518276
 73
     0
 72
     2
 10
-33.42255006079514
 20
4.449949122417937
 40
3.105675408790407
 50
69.41045277538922
 51
75.03545275044093
 73
     0
 72
     2
 10
-33.34048577302694
 20
4.433624731956014
 40
3.069631879242323
 50
76.4367231923763
 51
82.06172316743082
 73
     0
 72
     2
 10
-33.25721629569448
 20
4.425424499997562
 40
3.051094593080625
 50
83.5893505936195
 51
89.22012384329049
 73
     0
 72
     1
 10
-33.21568788868956
 20
1.374612541299114
 11
-36.75194048100093
 21
1.374612541299114
 72
     1
 10
-36.75194048100093
 20
1.374612541299114
 11
-36.75194048100093
 21
2.350198541299135
 72
     1
 10
-36.75194048100093
 20
2.350198541299135
 11
-33.94686748100088
 21
2.350198541299135
 72
     2
 10
-33.94686748100091
 20
4.301198541299129
 40
1.950999999999993
 50
270.0000000000008
 51
360.0000000000008
 73
     1
 72
     1
 10
-31.99586748100092
 20
4.301198541299157
 11
-31.99586748100092
 21
5.520716041299124
 72
     2
 10
-32.60586748100092
 20
5.52071604129911
 40
0.6099999999999995
 50
0.0000000000013348
 51
90.00000000000133
 73
     1
 72
     1
 10
-32.60586748100093
 20
6.130716041299109
 11
-37.11778548100091
 21
6.130716041299109
 72
     1
 10
-37.11778548100091
 20
6.130716041299109
 11
-37.11778548100091
 21
7.10630204129913
 72
     1
 10
-37.11778548100091
 20
7.10630204129913
 11
-31.50807448100091
 21
7.10630204129913
 72
     1
 10
-31.50807448100091
 20
7.10630204129913
 11
-31.50807448100091
 21
6.4965608412991
 97
        2
330
B670
330
B66A
 75
     0
 76
     1
 98
        1
 10
-11.52273983372674
 20
-102.7401946664322
  0
HATCH
  5
B66C
330
B611
100
AcDbEntity
  8
hyomoji
  6
Continuous
100
AcDbHatch
 10
0.0
 20
0.0
 30
0.0
210
0.0
220
0.0
230
1.0
  2
SOLID
 70
     1
 71
     0
 91
        1
 92
        7
 72
     1
 73
     1
 93
       45
 10
-31.50807448100091
 20
7.10630204129913
 42
0.0
 10
-37.11778548100091
 20
7.10630204129913
 42
0.0
 10
-37.11778548100091
 20
6.130716041299109
 42
0.0
 10
-32.60586748100093
 20
6.130716041299109
 42
-0.4142135623730968
 10
-31.99586748100092
 20
5.520716041299124
 42
0.0
 10
-31.99586748100092
 20
4.301198541299157
 42
-0.4142135623730962
 10
-33.94686748100088
 20
2.350198541299135
 42
0.0
 10
-36.75194048100093
 20
2.350198541299164
 42
0.0
 10
-36.75194048100093
 20
1.374612541299114
 42
0.0
 10
-33.21568788868888
 20
1.374612541299114
 42
0.0245738278589854
 10
-32.91655048100114
 20
1.39340784129908
 42
0.0245486219999894
 10
-32.62059848100125
 20
1.449600241299009
 42
0.0245486220000304
 10
-32.33037448100089
 20
1.542652741299121
 42
0.0245486220000232
 10
-32.04867448100066
 20
1.671669241299241
 42
0.0245486219999824
 10
-31.77820948100083
 20
1.835407241299151
 42
0.0245486220000847
 10
-31.52158548099999
 20
2.032289841299871
 42
0.0245486220001661
 10
-31.28127348099855
 20
2.260420841301566
 42
0.0245486219995206
 10
-31.05958848100289
 20
2.517603341296563
 42
0.0245486220002942
 10
-30.8586644810004
 20
2.801360541299885
 42
0.0245486219999203
 10
-30.68043648100098
 20
3.108959741298889
 42
0.0245486220000126
 10
-30.52662248100091
 20
3.437438441299036
 42
0.0245486220000909
 10
-30.3987024810005
 20
3.78363324130035
 42
0.0245486219998644
 10
-30.29790848100106
 20
4.144210241298367
 42
0.0245486220000773
 10
-30.22521048100083
 20
4.515696741299535
 42
0.0245486219999914
 10
-30.18131048100088
 20
4.894515141299393
 42
0.0244511737842523
 10
-30.16661348100092
 20
5.275497923116489
 42
0.0
 10
-30.16661348100092
 20
5.886716041299109
 42
0.4142135623730951
 10
-30.4106134810009
 20
6.130716041299109
 42
0.0
 10
-31.25512384264875
 20
6.130716041299109
 42
-0.0338910150518635
 10
-31.28814548100093
 20
6.13234244129913
 42
-0.024611360000011
 10
-31.31188148100091
 20
6.137494441299139
 42
-0.0246113599999024
 10
-31.33515548100087
 20
6.146122041299094
 42
-0.0246113599996793
 10
-31.35774148100058
 20
6.158141841298913
 42
-0.0246113600007094
 10
-31.37942348100114
 20
6.173437441299341
 42
-0.0246113600001381
 10
-31.39998848100123
 20
6.191860741299507
 42
-0.0281712769884098
 10
-31.42184532635571
 20
6.216476553006117
 42
-0.0211922032231682
 10
-31.43698948100149
 20
6.237348941300041
 42
-0.0246113599990504
 10
-31.45306648100086
 20
6.263973341299049
 42
-0.0246113600001016
 10
-31.46731548100087
 20
6.292849241299165
 42
-0.0246113599999766
 10
-31.47959848100089
 20
6.323696941299118
 42
-0.0246113599999236
 10
-31.48979548100084
 20
6.356217941299036
 42
-0.0246113600000503
 10
-31.49780848100085
 20
6.390097441299104
 42
-0.0246113600000346
 10
-31.50356048100088
 20
6.425007441299158
 42
-0.0246113599999966
 10
-31.50699548100084
 20
6.460610141299127
 42
-0.0247875348888672
 10
-31.50807448100091
 20
6.496818253583739
 42
0.0
 97
        0
 75
     0
 76
     1
 47
0.0219243262339325
 98
        1
 10
-34.88913805847534
 20
6.515773347131556
  0
LWPOLYLINE
  5
B66D
102
{ACAD_REACTORS
330
B65D
102
}
330
B611
100
AcDbEntity
  8
hyomoji
  6
Continuous
100
AcDbPolyline
 90
       23
 70
   129
 43
0.0
 10
-49.86155948100088
 20
1.862405541299125
 10
-49.86155948100088
 20
3.077863598466819
 42
0.435256697587034
 10
-49.9269055609231
 20
3.138708578451286
 10
-50.71478207094611
 20
3.082431556381408
 10
-49.35559875564741
 20
5.121206529329384
 42
0.5990215383385383
 10
-49.40635382360205
 20
5.216043241299132
 10
-50.5932494810009
 20
5.216043241299132
 10
-50.5932494810009
 20
5.642862041299139
 10
-49.92286550809757
 20
5.642862041299139
 42
0.4141276645926778
 10
-49.86155948100088
 20
5.703486231594268
 10
-49.86155948100088
 20
6.4965608412991
 10
-49.00789148100091
 20
6.4965608412991
 10
-49.00789148100091
 20
5.704186051003972
 42
0.4142994653711661
 10
-48.94724950809763
 20
5.642862041299139
 10
-48.69823432828718
 20
5.642862041299139
 42
-0.5990232472207202
 10
-48.44445983958843
 20
5.168677204845948
 10
-48.72354084329003
 20
4.750060261952882
 42
0.2779035425008352
 10
-48.73053137976512
 20
4.687528544477942
 10
-47.97097340284989
 20
3.325563008176146
 10
-48.77287533117197
 20
3.386532052496306
 10
-48.89361620086919
 20
3.603034357753813
 42
0.7732509487775636
 10
-49.00789148100091
 20
3.573323340825766
 10
-49.00789148100091
 20
1.862405541299125
  0
LWPOLYLINE
  5
B66E
102
{ACAD_REACTORS
330
B65D
102
}
330
B611
100
AcDbEntity
  8
hyomoji
  6
Continuous
100
AcDbPolyline
 90
       22
 70
   129
 43
0.0
 10
-48.39815048100092
 20
1.862405541299125
 10
-48.39815048100092
 20
2.350198541299135
 10
-47.42259048100089
 20
2.350198541299135
 42
0.4142135623730951
 10
-47.36159048100091
 20
2.411198541299143
 10
-47.36159048100091
 20
4.727900331594298
 42
0.4142994653711524
 10
-47.42223245390414
 20
4.789224341299103
 10
-48.09327948100087
 20
4.789224341299103
 10
-48.09327948100087
 20
5.216043241299132
 10
-47.42289650809346
 20
5.216043241299132
 42
0.4141276645726239
 10
-47.36159048100091
 20
5.276667431594262
 10
-47.36159048100091
 20
6.4965608412991
 10
-46.50792148100089
 20
6.4965608412991
 10
-46.50792148100089
 20
5.277367251003965
 42
0.4142994653912224
 10
-46.44727950809346
 20
5.216043241299132
 10
-45.77623248100088
 20
5.216043241299132
 10
-45.77623248100088
 20
4.789224341299103
 10
-46.44661545390414
 20
4.789224341299103
 42
0.4141276645926918
 10
-46.50792148100089
 20
4.728600151004002
 10
-46.50792148100089
 20
2.411198541299143
 42
0.4142135623730951
 10
-46.44692148100086
 20
2.350198541299135
 10
-45.47136148100088
 20
2.350198541299135
 10
-45.47136148100088
 20
1.862405541299125
  0
LWPOLYLINE
  5
B66F
102
{ACAD_REACTORS
330
B66B
102
}
330
B611
100
AcDbEntity
  8
hyomoji
  6
Continuous
100
AcDbPolyline
 90
       24
 70
   129
 43
0.0
 10
-40.41062948100085
 20
1.374612541299114
 10
-44.31282348100092
 20
1.374612541299114
 10
-44.31282348100092
 20
2.350198541299135
 10
-41.32485848100083
 20
2.350198541299135
 42
0.4142135623730951
 10
-39.37385848100087
 20
4.301198541299157
 10
-39.37385848100087
 20
5.764871341299112
 10
-37.72866439050967
 20
5.764871341299112
 42
-0.0257155487687808
 10
-37.70361848100094
 20
5.763084241299139
 42
-0.024549926000034
 10
-37.67994148100092
 20
5.757815641299146
 42
-0.0245499260000084
 10
-37.65672248100088
 20
5.749091041299124
 42
-0.0245499259999808
 10
-37.63418548100094
 20
5.736994541299139
 42
-0.0245499260000123
 10
-37.61254748100089
 20
5.721642541299132
 42
-0.0245499259999841
 10
-37.59201648100094
 20
5.703182941299161
 42
-0.0245499259999858
 10
-37.57279148100094
 20
5.681793541299157
 42
-0.0245499260000007
 10
-37.55505548100092
 20
5.657680341299169
 42
-0.024549925999996
 10
-37.53898148100092
 20
5.631075641299162
 42
-0.02454992599999
 10
-37.52472348100094
 20
5.602235641299159
 42
-0.0245499260000124
 10
-37.51241948100091
 20
5.571438141299154
 42
-0.0245499259999989
 10
-37.50218648100088
 20
5.538979741299158
 42
-0.0245499259999953
 10
-37.49412348100094
 20
5.505173041299144
 42
-0.0245499260000016
 10
-37.4883094810009
 20
5.47034374129916
 42
-0.0245499260000116
 10
-37.48479948100089
 20
5.434827241299132
 42
-0.024673292203941
 10
-37.48362948100089
 20
5.398785261261593
 10
-37.48362948100089
 20
4.301612541299135
 42
-0.4142135623730951
  0
LWPOLYLINE
  5
B670
102
{ACAD_REACTORS
330
B66B
102
}
330
B611
100
AcDbEntity
  8
hyomoji
  6
Continuous
100
AcDbPolyline
 90
       21
 70
   128
 43
0.0
 10
-40.16652148100092
 20
7.106307141299112
 42
-0.0246113600000175
 10
-40.13057148100091
 20
7.105222841299138
 42
-0.0246113599999931
 10
-40.09496848100087
 20
7.101788141299124
 42
-0.0246113599999957
 10
-40.0600584810009
 20
7.096036341299111
 42
-0.0246113600000006
 10
-40.02617848100089
 20
7.088022941299101
 42
-0.0246113599999799
 10
-39.99365748100093
 20
7.077825641299114
 42
-0.0246113600000132
 10
-39.96281048100087
 20
7.065543141299144
 42
-0.0246113600000103
 10
-39.93393448100091
 20
7.051294341299097
 42
-0.0246113599999903
 10
-39.90730948100088
 20
7.035217041299119
 42
-0.02461135999999
 10
-39.88319448100089
 20
7.017467041299141
 42
-0.0246113599999982
 10
-39.8618214810009
 20
6.998216141299138
 42
-0.0246113600000129
 10
-39.84339848100092
 20
6.977650541299112
 42
-0.024611360000001
 10
-39.82810248100089
 20
6.955969441299117
 42
-0.0246113599999927
 10
-39.81608348100093
 20
6.933382541299124
 42
-0.0246113599999869
 10
-39.80745548100088
 20
6.910108741299126
 42
-0.024611360000012
 10
-39.80230348100088
 20
6.886373141299117
 42
-0.0246113600013111
 10
-39.80067748100089
 20
6.862405541297846
 10
-39.80067748100089
 20
6.069680941299168
 10
-44.31282348100092
 20
6.069680941299168
 10
-44.31282348100092
 20
7.10630204129913
 10
-40.16652148100092
 20
7.10630204129913
  0
LWPOLYLINE
  5
B671
102
{ACAD_REACTORS
330
B66B
102
}
330
B611
100
AcDbEntity
  8
hyomoji
  6
Continuous
100
AcDbPolyline
 90
        4
 70
   129
 43
0.0
 10
-44.31282348100092
 20
4.301431441299115
 10
-44.31282348100092
 20
5.337991441299124
 10
-39.80067748100089
 20
5.337991441299124
 10
-39.80067748100089
 20
4.301431441299115
  0
HATCH
  5
B672
330
B611
100
AcDbEntity
  8
hyomoji
  6
Continuous
100
AcDbHatch
 10
0.0
 20
0.0
 30
0.0
210
0.0
220
0.0
230
1.0
  2
SOLID
 70
     1
 71
     0
 91
        1
 92
        7
 72
     1
 73
     1
 93
       20
 10
-39.80067748100089
 20
6.862405541297817
 42
0.0246113600013108
 10
-39.80230348100088
 20
6.886373141299088
 42
0.0246113600000699
 10
-39.80745548100088
 20
6.910108741299154
 42
0.0246113599998168
 10
-39.81608348100082
 20
6.933382541298982
 42
0.0246113600003525
 10
-39.828102481001
 20
6.955969441299288
 42
0.0246113599997321
 10
-39.84339848100086
 20
6.977650541299055
 42
0.0246113599993797
 10
-39.86182148100033
 20
6.998216141298598
 42
0.0246113599605993
 10
-39.88319448096462
 20
7.017467041269554
 42
0.024611360036966
 10
-39.90730948099935
 20
7.035217041298096
 42
0.0246113600006345
 10
-39.93393448099999
 20
7.051294341298614
 42
0.0246113600006277
 10
-39.9628104810007
 20
7.065543141299059
 42
0.0246113600001713
 10
-39.99365748100093
 20
7.077825641299114
 42
0.0246113599996734
 10
-40.02617848100044
 20
7.088022941298987
 42
0.024611360000408
 10
-40.06005848100102
 20
7.096036341299139
 42
0.0246113599998639
 10
-40.09496848100087
 20
7.101788141299095
 42
0.0246113600002751
 10
-40.13057148100125
 20
7.105222841299166
 42
0.0247910788806026
 10
-40.16678406641955
 20
7.10630204129913
 42
0.0
 10
-44.31282348100092
 20
7.106302041299159
 42
0.0
 10
-44.31282348100092
 20
6.069680941299168
 42
0.0
 10
-39.80067748100089
 20
6.069680941299168
 42
0.0
 97
        0
 75
     0
 76
     1
 47
0.0219243262339325
 98
        1
 10
-40.44075897886443
 20
6.537697711871857
  0
LWPOLYLINE
  5
B673
330
B611
100
AcDbEntity
  8
hyomoji
  6
Continuous
100
AcDbPolyline
 90
       44
 70
   128
 43
0.0
 10
-22.79570248100089
 20
2.472208645299133
 42
0.2129151059966407
 10
-22.84107167829768
 20
2.451971670822416
 42
-0.220358021742929
 10
-25.16667448100089
 20
1.374612541299114
 10
-28.9471304810009
 20
1.374612541299114
 10
-28.9471304810009
 20
2.350198541299135
 10
-26.14229048100089
 20
2.350198541299135
 42
0.0137554371945167
 10
-26.02831248100069
 20
2.353912941299142
 42
0.0137524419998822
 10
-25.91467748100166
 20
2.364968441299026
 42
0.0137524420004598
 10
-25.80173248099788
 20
2.383357241299705
 42
0.013752441999331
 10
-25.68981748100333
 20
2.409023541298466
 42
0.0137524420003075
 10
-25.57927048100083
 20
2.441889841299143
 42
0.0137524420000012
 10
-25.47042648100086
 20
2.481856641299117
 42
0.0137524419999966
 10
-25.36361548100086
 20
2.528803041299113
 42
0.0137524419999995
 10
-25.25915948100089
 20
2.582587141299143
 42
0.0137524420000046
 10
-25.15737548100083
 20
2.643046041299157
 42
0.0137524419999986
 10
-25.05857048100086
 20
2.709997041299118
 42
0.0137524419999979
 10
-24.96304348100085
 20
2.783237641299137
 42
0.0137524419999975
 10
-24.87108348100083
 20
2.862546141299162
 42
0.013752441999999
 10
-24.78296948100086
 20
2.947682641299138
 42
0.0137524419999975
 10
-24.69896648100087
 20
3.038389741299141
 42
0.0137524420000003
 10
-24.61932948100088
 20
3.134393041299148
 42
0.0138047286378086
 10
-24.54402492762563
 20
3.235793804276596
 42
0.4326750878113178
 10
-24.5803232616978
 20
3.409900718458288
 10
-25.38195389927228
 20
3.899787273978091
 42
0.1380038353994479
 10
-25.50918792204959
 20
3.935586641299153
 10
-26.99592848100087
 20
3.935586641299153
 10
-26.99592848100087
 20
4.826227931606155
 42
0.483124814362098
 10
-27.07042859230956
 20
4.886033668815599
 10
-27.5388829252729
 20
4.729882392874429
 42
-0.080611490271625
 10
-27.92468042540406
 20
4.667276141299112
 10
-29.1910274810009
 20
4.667276141299112
 10
-29.1910274810009
 20
5.642862041299139
 10
-28.60803106756714
 20
5.642862041299139
 42
0.2403459008079929
 10
-28.4104861288638
 20
5.743641940780094
 10
-27.49562285561598
 20
7.005522141818204
 42
-0.2403459008079905
 10
-27.29807791691263
 20
7.10630204129913
 10
-22.73096096047272
 20
7.10630204129913
 42
-0.4142866644357847
 10
-22.11793748100092
 20
6.499690141703638
 10
-22.11793748100092
 20
4.41440819597048
 42
-0.073920925025852
 10
-22.25237623922613
 20
3.527978312291423
 42
0.5098120014094599
 10
-22.19483850809758
 20
3.447793741299136
 10
-21.99598948100089
 20
3.447793741299136
 10
-21.99598948100089
 20
2.472146741299155
 10
-22.79570248100089
 20
2.472146741299155
  0
LWPOLYLINE
  5
B674
102
{ACAD_REACTORS
330
B66B
102
}
330
B611
100
AcDbEntity
  8
hyomoji
  6
Continuous
100
AcDbPolyline
 90
        8
 70
   129
 43
0.0
 10
-31.0812034810009
 20
6.435525641299108
 42
-0.4142135623730951
 10
-31.20320348100091
 20
6.557525641299122
 10
-31.20320348100091
 20
7.35014674129917
 42
-0.4142135623730951
 10
-31.0812034810009
 20
7.472146741299155
 10
-30.28861348100094
 20
7.472146741299155
 42
-0.4142135623730951
 10
-30.16661348100092
 20
7.35014674129917
 10
-30.16661348100092
 20
6.557525641299122
 42
-0.4142135623730951
 10
-30.28861348100094
 20
6.435525641299108
  0
LWPOLYLINE
  5
B675
102
{ACAD_REACTORS
330
B66B
102
}
330
B611
100
AcDbEntity
  8
hyomoji
  6
Continuous
100
AcDbPolyline
 90
        8
 70
   129
 43
0.0
 10
-29.67876848100087
 20
6.435525641299108
 42
-0.4142135623730951
 10
-29.80076848100089
 20
6.557525641299122
 10
-29.80076848100089
 20
7.35014674129917
 42
-0.4142135623730951
 10
-29.67876848100087
 20
7.472146741299155
 10
-28.88617848100086
 20
7.472146741299155
 42
-0.4142135623730951
 10
-28.7641784810009
 20
7.35014674129917
 10
-28.7641784810009
 20
6.557525641299122
 42
-0.4142135623730951
 10
-28.88617848100086
 20
6.435525641299108
  0
LWPOLYLINE
  5
B676
330
B611
100
AcDbEntity
  8
hyomoji
  6
Continuous
100
AcDbPolyline
 90
       26
 70
   129
 43
0.0
 10
-24.18857785518384
 20
4.313763969668542
 10
-25.10757501850236
 20
4.875373403082363
 42
0.1380035768931157
 10
-25.23480883001833
 20
4.911172641299117
 10
-26.78620850808926
 20
4.911172641299117
 42
-0.5877959702502288
 10
-26.83753010714549
 20
5.00454819217586
 10
-26.09950634785401
 20
6.022513887169537
 42
-0.2488102192010769
 10
-25.89814884116043
 20
6.130716041299109
 10
-24.31434684116045
 20
6.130716041299109
 42
-0.4141055155693935
 10
-24.06914048100089
 20
5.888219876970168
 10
-24.06914048100089
 20
4.789224341305953
 42
-0.0027675332005429
 10
-24.06926748100085
 20
4.762224941300644
 42
-0.0027675332004465
 10
-24.06964848100091
 20
4.735228841296304
 42
-0.0027675331990674
 10
-24.07028348100067
 20
4.708239341305386
 42
-0.0027675332013063
 10
-24.0711724810011
 20
4.681259741292649
 42
-0.0027675331985318
 10
-24.07231548100049
 20
4.654293341306953
 42
-0.0027675332011082
 10
-24.073711481001
 20
4.62734354129617
 42
-0.0027675332007225
 10
-24.07536148100155
 20
4.600413541289157
 42
-0.0027675331990705
 10
-24.07726448100095
 20
4.573506741298189
 42
-0.0027675331994759
 10
-24.07942148100051
 20
4.546626241303272
 42
-0.0027675332004882
 10
-24.08183048100091
 20
4.519775641298537
 42
-0.0027675331980648
 10
-24.08449148099896
 20
4.492957941317285
 42
-0.0027675332032427
 10
-24.08740548100235
 20
4.466176641285898
 42
-0.0027675331997779
 10
-24.09057148100226
 20
4.439434841288061
 42
-0.0027675331988507
 10
-24.09398848100091
 20
4.41273594129916
 42
-0.0027675331998305
 10
-24.09765648100063
 20
4.386083141300787
 42
-0.0029245593357009
 10
-24.10180560796943
 20
4.357971732380008
 42
-0.498504514683721
  0
LINE
  5
B677
330
B611
100
AcDbEntity
  8
hyosen2
  6
Continuous
100
AcDbLine
 10
-91.0
 20
20.0
 30
0.0
 11
-91.0
 21
9.0
 31
0.0
  0
TEXT
  5
B678
330
B611
100
AcDbEntity
  8
hyomoji
  6
Continuous
100
AcDbText
 10
-97.48311979542314
 20
11.16051326572778
 30
0.0
 40
2.799999999999999
  1
品番
 41
0.7
100
AcDbText
  0
TEXT
  5
B679
330
B611
100
AcDbEntity
  8
hyomoji
  6
Continuous
100
AcDbText
 10
-93.99262583023404
 20
15.35000000000002
 30
0.0
 40
2.799999999999999
  1
S
 41
0.7
100
AcDbText
  0
TEXT
  5
B67A
330
B611
100
AcDbEntity
  8
hyomoji
  6
Continuous
100
AcDbText
 10
-96.29006337728595
 20
15.35000000000002
 30
0.0
 40
2.799999999999999
  1
Y
 41
0.7
100
AcDbText
  0
TEXT
  5
B67B
330
B611
100
AcDbEntity
  8
hyomoji
  6
Continuous
100
AcDbText
 10
-98.46968299800744
 20
15.35000000000002
 30
0.0
 40
2.799999999999999
  1
S
 41
0.7
100
AcDbText
  0
ATTDEF
  5
B67C
330
B611
100
AcDbEntity
  8
hyomoji
100
AcDbText
 10
-301.0
 20
12.5
 30
0.0
 40
3.0
  1

 41
0.7
 72
     4
 11
-301.0
 21
12.5
 31
0.0
100
AcDbAttributeDefinition
  3
製造コード
  2
XXXX
 70
     0
  0
ATTDEF
  5
B67D
330
B611
100
AcDbEntity
  8
hyomoji
100
AcDbText
 10
-301.0
 20
7.5
 30
0.0
 40
3.0
  1

 41
0.7
 72
     4
 11
-301.0
 21
7.5
 31
0.0
100
AcDbAttributeDefinition
  3
ファイルNo
  2
ファイルＮＯ
 70
     0
  0
LINE
  5
B67E
330
B611
100
AcDbEntity
  8
hyosen1
  6
Continuous
100
AcDbLine
 10
-49.5
 20
20.0
 30
0.0
 11
-49.5
 21
9.0
 31
0.0
  0
LINE
  5
B67F
330
B611
100
AcDbEntity
  8
hyosen2
  6
Continuous
100
AcDbLine
 10
-41.5
 20
20.0
 30
0.0
 11
-41.5
 21
9.0
 31
0.0
  0
TEXT
  5
B680
330
B611
100
AcDbEntity
  8
hyomoji
  6
Continuous
100
AcDbText
 10
-47.7105193958107
 20
10.94749414098044
 30
0.0
 40
2.799999999999999
  1
品番
 41
0.7
100
AcDbText
  0
TEXT
  5
B681
330
B611
100
AcDbEntity
  8
hyomoji
  6
Continuous
100
AcDbText
 10
-46.57168911155622
 20
15.54033100654931
 30
0.0
 40
2.799999999999999
  1
意
 41
0.7
100
AcDbText
  0
TEXT
  5
B682
330
B611
100
AcDbEntity
  8
hyomoji
  6
Continuous
100
AcDbText
 10
-49.14528072662211
 20
15.34999999999999
 30
0.0
 40
2.799999999999999
  1
得
 41
0.7
100
AcDbText
  0
TEXT
  5
B683
330
B611
100
AcDbEntity
  8
hyomoji
  6
Continuous
100
AcDbText
 10
-43.98466554955234
 20
15.54033100654931
 30
0.0
 40
2.799999999999999
  1
先
 41
0.7
100
AcDbText
  0
ENDBLK
  5
B684
330
B611
100
AcDbEntity
  8
0
100
AcDbBlockEnd
  0
BLOCK
  5
B688
330
B685
100
AcDbEntity
  8
0
100
AcDbBlockBegin
  2
DIM0001
 70
     0
 10
0.0
 20
0.0
 30
0.0
  3
DIM0001
  1

  0
LINE
  5
B689
330
B685
100
AcDbEntity
  8
AM_6
100
AcDbLine
 10
0.2066823840002883
 20
0.3579854228692056
 30
0.0
 11
6.474589240520884
 21
11.2143498749711
 31
0.0
  0
LINE
  5
B68A
330
B685
100
AcDbEntity
  8
AM_6
100
AcDbLine
 10
0.2066823840002883
 20
0.3579854228692056
 30
0.0
 11
1.288230725575374
 21
3.329289881324484
 31
0.0
  0
LINE
  5
B68B
330
B685
100
AcDbEntity
  8
AM_6
100
AcDbLine
 10
0.2066823840002883
 20
0.3579854228692056
 30
0.0
 11
2.239127304739753
 21
2.780291069182311
 31
0.0
  0
LINE
  5
B68C
330
B685
100
AcDbEntity
  8
AM_6
100
AcDbLine
 10
6.474589240520941
 20
11.21434987497107
 30
0.0
 11
34.58854088656059
 21
11.21434987497107
 31
0.0
  0
MTEXT
  5
B68D
330
B685
100
AcDbEntity
  8
AM_6
100
AcDbMText
 10
7.102825169483338
 20
12.014349886892
 30
0.0
 40
3.200000047683716
 41
0.0
 71
     7
 72
     1
  1
\W0.833333;2-3.2x8長孔
 73
     1
 44
1.0
1001
ACAD
1000
MTEXTBEGIN
1070
    73
1070
     1
1070
    44
1040
1.0
1070
    74
1070
     0
1000
MTEXTEND
  0
ENDBLK
  5
B68E
330
B685
100
AcDbEntity
  8
0
100
AcDbBlockEnd
  0
BLOCK
  5
B692
330
B68F
100
AcDbEntity
  8
0
100
AcDbBlockBegin
  2
DIM0002
 70
     0
 10
0.0
 20
0.0
 30
0.0
  3
DIM0002
  1

  0
LINE
  5
B693
330
B68F
100
AcDbEntity
  8
AM_6
100
AcDbLine
 10
0.0
 20
0.0
 30
0.0
 11
5.528176107645322
 21
11.30497502415369
 31
0.0
  0
LINE
  5
B694
330
B68F
100
AcDbEntity
  8
AM_6
100
AcDbLine
 10
0.0
 20
0.0
 30
0.0
 11
0.874769220009
 21
3.038614126822437
 31
0.0
  0
LINE
  5
B695
330
B68F
100
AcDbEntity
  8
AM_6
100
AcDbLine
 10
0.0
 20
0.0
 30
0.0
 11
1.861150507516924
 21
2.556269897403126
 31
0.0
  0
LINE
  5
B696
330
B68F
100
AcDbEntity
  8
AM_6
100
AcDbLine
 10
5.528168717538903
 20
11.304961430996
 30
0.0
 11
25.71007255665023
 21
11.304961430996
 31
0.0
  0
MTEXT
  5
B697
330
B68F
100
AcDbEntity
  8
AM_6
100
AcDbMText
 10
7.434149748021752
 20
16.92091039341213
 30
0.0
 40
3.200000047683716
 41
0.0
 71
     7
 72
     1
  1
\W0.833333;\U+22054孔　\U+22056
 11
0.9999984769132877
 21
-0.0017453283658984
 31
0.0
 73
     1
 44
1.0
1001
ACAD
1000
MTEXTBEGIN
1070
    73
1070
     1
1070
    44
1040
1.0
1070
    74
1070
     0
1000
MTEXTEND
  0
MTEXT
  5
B698
330
B68F
100
AcDbEntity
  8
AM_6
100
AcDbMText
 10
7.425772171532571
 20
12.12091751349379
 30
0.0
 40
3.200000047683716
 41
0.0
 71
     7
 72
     1
  1
\W0.833333;90°皿モミ
 11
0.9999984769132877
 21
-0.0017453283658984
 31
0.0
 73
     1
 44
1.0
1001
ACAD
1000
MTEXTBEGIN
1070
    73
1070
     1
1070
    44
1040
1.0
1070
    74
1070
     0
1000
MTEXTEND
  0
ENDBLK
  5
B699
330
B68F
100
AcDbEntity
  8
0
100
AcDbBlockEnd
  0
BLOCK
  5
BE03
330
BE00
100
AcDbEntity
  8
0
100
AcDbBlockBegin
  2
GENDOT
 70
     0
 10
0.0
 20
0.0
 30
0.0
  3
GENDOT
  1

  0
LINE
  5
BE01
330
BE00
100
AcDbEntity
  8
0
100
AcDbLine
 10
0.0
 20
0.0
 30
0.0
 11
-1.0
 21
0.0
 31
0.0
  0
LWPOLYLINE
  5
BE02
330
BE00
100
AcDbEntity
  8
0
100
AcDbPolyline
 90
        2
 70
     1
 43
0.25
 10
-0.125
 20
0.0
 42
1.0
 10
0.125
 20
0.0
 42
1.0
  0
ENDBLK
  5
BE04
330
BE00
100
AcDbEntity
  8
0
100
AcDbBlockEnd
  0
BLOCK
  5
BE92
330
BE8F
100
AcDbEntity
  8
0
100
AcDbBlockBegin
  2
DIM
 70
     0
 10
0.0
 20
0.0
 30
0.0
  3
DIM
  1

  0
LINE
  5
BE93
330
BE8F
100
AcDbEntity
  8
AM_6
100
AcDbLine
 10
0.0
 20
0.0
 30
0.0
 11
6.474589240520913
 21
11.2143498749711
 31
0.0
  0
LINE
  5
BE94
330
BE8F
100
AcDbEntity
  8
AM_6
100
AcDbLine
 10
0.0
 20
0.0
 30
0.0
 11
1.081548341575114
 21
2.971304458455279
 31
0.0
  0
LINE
  5
BE95
330
BE8F
100
AcDbEntity
  8
AM_6
100
AcDbLine
 10
0.0
 20
0.0
 30
0.0
 11
2.032444920739465
 21
2.422305646313105
 31
0.0
  0
LINE
  5
BE96
330
BE8F
100
AcDbEntity
  8
AM_6
100
AcDbLine
 10
6.47458924052097
 20
11.21434987497107
 30
0.0
 11
34.58854088656057
 21
11.21434987497107
 31
0.0
  0
MTEXT
  5
BE97
330
BE8F
100
AcDbEntity
  8
AM_6
100
AcDbMText
 10
7.102825169483367
 20
12.014349886892
 30
0.0
 40
3.200000047683716
 41
0.0
 71
     7
 72
     1
  1
{\W0.83333;2-3.2x14長孔}
 73
     1
 44
1.0
1001
ACAD
1000
MTEXTBEGIN
1070
    73
1070
     1
1070
    44
1040
1.0
1070
    74
1070
     0
1000
MTEXTEND
  0
ENDBLK
  5
BE98
330
BE8F
100
AcDbEntity
  8
0
100
AcDbBlockEnd
  0
BLOCK
  5
C4D3
330
C4D0
100
AcDbEntity
  8
0
100
AcDbBlockBegin
  2
DIM0003
 70
     0
 10
0.0
 20
0.0
 30
0.0
  3
DIM0003
  1

  0
LINE
  5
C4D4
330
C4D0
100
AcDbEntity
  8
AM_6
100
AcDbLine
 10
0.0
 20
0.0
 30
0.0
 11
5.120771337777085
 21
-22.29441246040488
 31
0.0
  0
LINE
  5
C4D5
330
C4D0
100
AcDbEntity
  8
AM_6
100
AcDbLine
 10
0.0
 20
0.0
 30
0.0
 11
1.232165319776214
 21
-2.912072393458089
 31
0.0
  0
LINE
  5
C4D6
330
C4D0
100
AcDbEntity
  8
AM_6
100
AcDbLine
 10
0.0
 20
0.0
 30
0.0
 11
0.1620309663616979
 21
-3.157870004598009
 31
0.0
  0
LINE
  5
C4D7
330
C4D0
100
AcDbEntity
  8
AM_6
100
AcDbLine
 10
5.120771337777085
 20
-22.29441246040491
 30
0.0
 11
26.80276080810819
 21
-22.29441246040491
 31
0.0
  0
MTEXT
  5
C4D8
330
C4D0
100
AcDbEntity
  8
AM_6
100
AcDbMText
 10
5.716760864792206
 20
-21.49441244848398
 30
0.0
 40
3.200000047683716
 41
0.0
 71
     7
 72
     1
  1
\W0.833333;2-\U+22053.5孔
 73
     1
 44
1.0
1001
ACAD
1000
MTEXTBEGIN
1070
    73
1070
     1
1070
    44
1040
1.0
1070
    74
1070
     0
1000
MTEXTEND
  0
ENDBLK
  5
C4D9
330
C4D0
100
AcDbEntity
  8
0
100
AcDbBlockEnd
  0
BLOCK
  5
DE20
330
DE1F
100
AcDbEntity
  8
0
100
AcDbBlockBegin
  2
*D13
 70
     1
 10
0.0
 20
0.0
 30
0.0
  3
*D13
  1

  0
LINE
  5
E23C
330
DE1F
100
AcDbEntity
  8
AM_5
100
AcDbLine
 10
152.603815914312
 20
177.9690168965774
 30
0.0
 11
152.603815914312
 21
189.9690168965774
 31
0.0
  0
LINE
  5
E23D
330
DE1F
100
AcDbEntity
  8
AM_5
100
AcDbLine
 10
164.603815914312
 20
177.9690168965774
 30
0.0
 11
164.603815914312
 21
189.9690168965774
 31
0.0
  0
LINE
  5
E23E
330
DE1F
100
AcDbEntity
  8
AM_5
100
AcDbLine
 10
153.603815914312
 20
188.9690168965774
 30
0.0
 11
163.603815914312
 21
188.9690168965774
 31
0.0
  0
INSERT
  5
E23F
330
DE1F
100
AcDbEntity
  8
AM_5
100
AcDbBlockReference
  2
_Dot
 10
152.603815914312
 20
188.9690168965774
 30
0.0
 50
180.0
  0
INSERT
  5
E240
330
DE1F
100
AcDbEntity
  8
AM_5
100
AcDbBlockReference
  2
_Dot
 10
164.603815914312
 20
188.9690168965774
 30
0.0
  0
MTEXT
  5
E241
330
DE1F
100
AcDbEntity
  8
AM_5
 62
     2
100
AcDbMText
 10
158.603815914312
 20
192.0690168965774
 30
0.0
 40
3.200000000000001
 41
0.0
 71
     5
 72
     1
  1
12
 73
     1
 44
1.0
1001
ACAD
1000
MTEXTBEGIN
1070
    73
1070
     1
1070
    44
1040
1.0
1070
    74
1070
     0
1000
MTEXTEND
  0
POINT
  5
E242
330
DE1F
100
AcDbEntity
  8
Defpoints
 62
     0
100
AcDbPoint
 10
152.603815914312
 20
176.9690168965774
 30
0.0
  0
POINT
  5
E243
330
DE1F
100
AcDbEntity
  8
Defpoints
 62
     0
100
AcDbPoint
 10
164.603815914312
 20
176.9690168965774
 30
0.0
  0
POINT
  5
E244
330
DE1F
100
AcDbEntity
  8
Defpoints
 62
     0
100
AcDbPoint
 10
164.603815914312
 20
188.9690168965774
 30
0.0
  0
ENDBLK
  5
DE21
330
DE1F
100
AcDbEntity
  8
0
100
AcDbBlockEnd
  0
BLOCK
  5
DE48
330
DE47
100
AcDbEntity
  8
0
100
AcDbBlockBegin
  2
*D14
 70
     1
 10
0.0
 20
0.0
 30
0.0
  3
*D14
  1

  0
LINE
  5
E245
330
DE47
100
AcDbEntity
  8
AM_5
100
AcDbLine
 10
170.853815914312
 20
177.5190168965773
 30
0.0
 11
182.853815914312
 21
177.5190168965773
 31
0.0
  0
LINE
  5
E246
330
DE47
100
AcDbEntity
  8
AM_5
100
AcDbLine
 10
170.853815914312
 20
153.3190168965774
 30
0.0
 11
182.853815914312
 21
153.3190168965774
 31
0.0
  0
LINE
  5
E247
330
DE47
100
AcDbEntity
  8
AM_5
100
AcDbLine
 10
181.853815914312
 20
176.5190168965773
 30
0.0
 11
181.853815914312
 21
154.3190168965774
 31
0.0
  0
INSERT
  5
E248
330
DE47
100
AcDbEntity
  8
AM_5
100
AcDbBlockReference
  2
_Dot
 10
181.853815914312
 20
177.5190168965773
 30
0.0
 50
90.0
  0
INSERT
  5
E249
330
DE47
100
AcDbEntity
  8
AM_5
100
AcDbBlockReference
  2
_Dot
 10
181.853815914312
 20
153.3190168965774
 30
0.0
 50
270.0
  0
MTEXT
  5
E24A
330
DE47
100
AcDbEntity
  8
AM_5
 62
     2
100
AcDbMText
 10
178.753815914312
 20
165.4190168965774
 30
0.0
 40
3.200000000000001
 41
0.0
 71
     5
 72
     1
  1
（24）
 11
0.0000000000000001
 21
1.0
 31
0.0
 73
     1
 44
1.0
1001
ACAD
1000
MTEXTBEGIN
1070
    73
1070
     1
1070
    44
1040
1.0
1070
    74
1070
     0
1000
MTEXTEND
  0
POINT
  5
E24B
330
DE47
100
AcDbEntity
  8
Defpoints
 62
     0
100
AcDbPoint
 10
169.853815914312
 20
177.5190168965773
 30
0.0
  0
POINT
  5
E24C
330
DE47
100
AcDbEntity
  8
Defpoints
 62
     0
100
AcDbPoint
 10
169.853815914312
 20
153.3190168965774
 30
0.0
  0
POINT
  5
E24D
330
DE47
100
AcDbEntity
  8
Defpoints
 62
     0
100
AcDbPoint
 10
181.853815914312
 20
153.3190168965774
 30
0.0
  0
ENDBLK
  5
DE49
330
DE47
100
AcDbEntity
  8
0
100
AcDbBlockEnd
  0
BLOCK
  5
DE8B
330
DE8A
100
AcDbEntity
  8
0
100
AcDbBlockBegin
  2
*D15
 70
     1
 10
0.0
 20
0.0
 30
0.0
  3
*D15
  1

  0
LINE
  5
E24E
330
DE8A
100
AcDbEntity
  8
AM_5
100
AcDbLine
 10
170.853815914312
 20
153.3190168965774
 30
0.0
 11
182.853815914312
 21
153.3190168965774
 31
0.0
  0
LINE
  5
E24F
330
DE8A
100
AcDbEntity
  8
AM_5
100
AcDbLine
 10
167.603815914312
 20
151.5390168965774
 30
0.0
 11
182.853815914312
 21
151.5390168965774
 31
0.0
  0
LINE
  5
E250
330
DE8A
100
AcDbEntity
  8
AM_5
100
AcDbLine
 10
181.853815914312
 20
154.3190168965774
 30
0.0
 11
181.853815914312
 21
155.3190168965774
 31
0.0
  0
LINE
  5
E251
330
DE8A
100
AcDbEntity
  8
AM_5
100
AcDbLine
 10
181.853815914312
 20
150.5390168965774
 30
0.0
 11
181.853815914312
 21
142.3150168965774
 31
0.0
  0
LINE
  5
E252
330
DE8A
100
AcDbEntity
  8
AM_5
100
AcDbLine
 10
181.853815914312
 20
153.3190168965774
 30
0.0
 11
181.853815914312
 21
151.5390168965774
 31
0.0
  0
INSERT
  5
E253
330
DE8A
100
AcDbEntity
  8
AM_5
100
AcDbBlockReference
  2
_Dot
 10
181.853815914312
 20
153.3190168965774
 30
0.0
 50
270.0
  0
INSERT
  5
E254
330
DE8A
100
AcDbEntity
  8
AM_5
100
AcDbBlockReference
  2
_Dot
 10
181.853815914312
 20
151.5390168965774
 30
0.0
 50
90.0
  0
MTEXT
  5
E255
330
DE8A
100
AcDbEntity
  8
AM_5
 62
     2
100
AcDbMText
 10
178.753815914312
 20
145.9270168965774
 30
0.0
 40
3.200000000000001
 41
0.0
 71
     5
 72
     1
  1
（2）
 11
0.0000000000000001
 21
1.0
 31
0.0
 73
     1
 44
1.0
1001
ACAD
1000
MTEXTBEGIN
1070
    73
1070
     1
1070
    44
1040
1.0
1070
    74
1070
     0
1000
MTEXTEND
  0
POINT
  5
E256
330
DE8A
100
AcDbEntity
  8
Defpoints
 62
     0
100
AcDbPoint
 10
169.853815914312
 20
153.3190168965774
 30
0.0
  0
POINT
  5
E257
330
DE8A
100
AcDbEntity
  8
Defpoints
 62
     0
100
AcDbPoint
 10
166.603815914312
 20
151.5390168965774
 30
0.0
  0
POINT
  5
E258
330
DE8A
100
AcDbEntity
  8
Defpoints
 62
     0
100
AcDbPoint
 10
181.853815914312
 20
151.5390168965774
 30
0.0
  0
ENDBLK
  5
DE8C
330
DE8A
100
AcDbEntity
  8
0
100
AcDbBlockEnd
  0
BLOCK
  5
DEDC
330
DEDB
100
AcDbEntity
  8
0
100
AcDbBlockBegin
  2
*D16
 70
     1
 10
0.0
 20
0.0
 30
0.0
  3
*D16
  1

  0
LINE
  5
E259
330
DEDB
100
AcDbEntity
  8
AM_5
100
AcDbLine
 10
150.603815914312
 20
150.5390168965774
 30
0.0
 11
150.603815914312
 21
138.5390168965773
 31
0.0
  0
LINE
  5
E25A
330
DEDB
100
AcDbEntity
  8
AM_5
100
AcDbLine
 10
166.603815914312
 20
150.5390168965774
 30
0.0
 11
166.603815914312
 21
138.5390168965773
 31
0.0
  0
LINE
  5
E25B
330
DEDB
100
AcDbEntity
  8
AM_5
100
AcDbLine
 10
151.603815914312
 20
139.5390168965773
 30
0.0
 11
165.603815914312
 21
139.5390168965773
 31
0.0
  0
INSERT
  5
E25C
330
DEDB
100
AcDbEntity
  8
AM_5
100
AcDbBlockReference
  2
_Dot
 10
150.603815914312
 20
139.5390168965773
 30
0.0
 50
180.0
  0
INSERT
  5
E25D
330
DEDB
100
AcDbEntity
  8
AM_5
100
AcDbBlockReference
  2
_Dot
 10
166.603815914312
 20
139.5390168965773
 30
0.0
  0
MTEXT
  5
E25E
330
DEDB
100
AcDbEntity
  8
AM_5
 62
     2
100
AcDbMText
 10
158.603815914312
 20
142.6390168965774
 30
0.0
 40
3.200000000000001
 41
0.0
 71
     5
 72
     1
  1
16
 73
     1
 44
1.0
1001
ACAD
1000
MTEXTBEGIN
1070
    73
1070
     1
1070
    44
1040
1.0
1070
    74
1070
     0
1000
MTEXTEND
  0
POINT
  5
E25F
330
DEDB
100
AcDbEntity
  8
Defpoints
 62
     0
100
AcDbPoint
 10
150.603815914312
 20
151.5390168965774
 30
0.0
  0
POINT
  5
E260
330
DEDB
100
AcDbEntity
  8
Defpoints
 62
     0
100
AcDbPoint
 10
166.603815914312
 20
151.5390168965774
 30
0.0
  0
POINT
  5
E261
330
DEDB
100
AcDbEntity
  8
Defpoints
 62
     0
100
AcDbPoint
 10
166.603815914312
 20
139.5390168965773
 30
0.0
  0
ENDBLK
  5
DEDD
330
DEDB
100
AcDbEntity
  8
0
100
AcDbBlockEnd
  0
BLOCK
  5
DF9F
330
DF9E
100
AcDbEntity
  8
0
100
AcDbBlockBegin
  2
*D17
 70
     1
 10
0.0
 20
0.0
 30
0.0
  3
*D17
  1

  0
LINE
  5
DFC5
330
DF9E
100
AcDbEntity
  8
AM_5
100
AcDbLine
 10
171.853815914312
 20
108.009731603724
 30
0.0
 11
183.853815914312
 21
108.009731603724
 31
0.0
  0
LINE
  5
DFC6
330
DF9E
100
AcDbEntity
  8
AM_5
100
AcDbLine
 10
171.603815914312
 20
116.409731603724
 30
0.0
 11
183.853815914312
 21
116.409731603724
 31
0.0
  0
LINE
  5
DFC7
330
DF9E
100
AcDbEntity
  8
AM_5
100
AcDbLine
 10
182.853815914312
 20
109.009731603724
 30
0.0
 11
182.853815914312
 21
115.409731603724
 31
0.0
  0
INSERT
  5
DFC8
330
DF9E
100
AcDbEntity
  8
AM_5
100
AcDbBlockReference
  2
_Dot
 10
182.853815914312
 20
108.009731603724
 30
0.0
 50
270.0
  0
INSERT
  5
DFC9
330
DF9E
100
AcDbEntity
  8
AM_5
100
AcDbBlockReference
  2
_Dot
 10
182.853815914312
 20
116.409731603724
 30
0.0
 50
90.0
  0
MTEXT
  5
DFCA
330
DF9E
100
AcDbEntity
  8
AM_5
 62
     2
100
AcDbMText
 10
179.753815914312
 20
112.209731603724
 30
0.0
 40
3.200000000000001
 41
0.0
 71
     5
 72
     1
  1
8.4
 11
0.0000000000000001
 21
1.0
 31
0.0
 73
     1
 44
1.0
1001
ACAD
1000
MTEXTBEGIN
1070
    73
1070
     1
1070
    44
1040
1.0
1070
    74
1070
     0
1000
MTEXTEND
  0
POINT
  5
DFCB
330
DF9E
100
AcDbEntity
  8
Defpoints
 62
     0
100
AcDbPoint
 10
170.853815914312
 20
108.009731603724
 30
0.0
  0
POINT
  5
DFCC
330
DF9E
100
AcDbEntity
  8
Defpoints
 62
     0
100
AcDbPoint
 10
170.603815914312
 20
116.409731603724
 30
0.0
  0
POINT
  5
DFCD
330
DF9E
100
AcDbEntity
  8
Defpoints
 62
     0
100
AcDbPoint
 10
182.853815914312
 20
116.409731603724
 30
0.0
  0
ENDBLK
  5
DFA0
330
DF9E
100
AcDbEntity
  8
0
100
AcDbBlockEnd
  0
BLOCK
  5
E001
330
E000
100
AcDbEntity
  8
0
100
AcDbBlockBegin
  2
*D18
 70
     1
 10
0.0
 20
0.0
 30
0.0
  3
*D18
  1

  0
LINE
  5
E027
330
E000
100
AcDbEntity
  8
AM_5
100
AcDbLine
 10
205.9289481057396
 20
107.009731603724
 30
0.0
 11
205.9289481057396
 21
95.00973160372403
 31
0.0
  0
LINE
  5
E028
330
E000
100
AcDbEntity
  8
AM_5
100
AcDbLine
 10
230.1289481057395
 20
107.009731603724
 30
0.0
 11
230.1289481057395
 21
95.00973160372403
 31
0.0
  0
LINE
  5
E029
330
E000
100
AcDbEntity
  8
AM_5
100
AcDbLine
 10
206.9289481057396
 20
96.00973160372404
 30
0.0
 11
229.1289481057395
 21
96.00973160372404
 31
0.0
  0
INSERT
  5
E02A
330
E000
100
AcDbEntity
  8
AM_5
100
AcDbBlockReference
  2
_Dot
 10
205.9289481057396
 20
96.00973160372404
 30
0.0
 50
180.0
  0
INSERT
  5
E02B
330
E000
100
AcDbEntity
  8
AM_5
100
AcDbBlockReference
  2
_Dot
 10
230.1289481057395
 20
96.00973160372404
 30
0.0
  0
MTEXT
  5
E02C
330
E000
100
AcDbEntity
  8
AM_5
 62
     2
100
AcDbMText
 10
218.0289481057395
 20
99.10973160372403
 30
0.0
 40
3.200000000000001
 41
0.0
 71
     5
 72
     1
  1
24.2
 73
     1
 44
1.0
1001
ACAD
1000
MTEXTBEGIN
1070
    73
1070
     1
1070
    44
1040
1.0
1070
    74
1070
     0
1000
MTEXTEND
  0
POINT
  5
E02D
330
E000
100
AcDbEntity
  8
Defpoints
 62
     0
100
AcDbPoint
 10
205.9289481057396
 20
108.009731603724
 30
0.0
  0
POINT
  5
E02E
330
E000
100
AcDbEntity
  8
Defpoints
 62
     0
100
AcDbPoint
 10
230.1289481057395
 20
108.009731603724
 30
0.0
  0
POINT
  5
E02F
330
E000
100
AcDbEntity
  8
Defpoints
 62
     0
100
AcDbPoint
 10
230.1289481057395
 20
96.00973160372404
 30
0.0
  0
ENDBLK
  5
E002
330
E000
100
AcDbEntity
  8
0
100
AcDbBlockEnd
  0
BLOCK
  5
E032
330
E031
100
AcDbEntity
  8
0
100
AcDbBlockBegin
  2
*D19
 70
     1
 10
0.0
 20
0.0
 30
0.0
  3
*D19
  1

  0
LINE
  5
E271
330
E031
100
AcDbEntity
  8
AM_5
100
AcDbLine
 10
279.485495783732
 20
163.9128193832901
 30
0.0
 11
279.485495783732
 21
151.9128193832901
 31
0.0
  0
LINE
  5
E272
330
E031
100
AcDbEntity
  8
AM_5
100
AcDbLine
 10
305.4854919690348
 20
163.9128193832901
 30
0.0
 11
305.4854919690348
 21
151.9128193832901
 31
0.0
  0
LINE
  5
E273
330
E031
100
AcDbEntity
  8
AM_5
100
AcDbLine
 10
280.4854957837321
 20
152.9128193832901
 30
0.0
 11
304.4854919690348
 21
152.9128193832901
 31
0.0
  0
INSERT
  5
E274
330
E031
100
AcDbEntity
  8
AM_5
100
AcDbBlockReference
  2
_Dot
 10
279.485495783732
 20
152.9128193832901
 30
0.0
 50
180.0
  0
INSERT
  5
E275
330
E031
100
AcDbEntity
  8
AM_5
100
AcDbBlockReference
  2
_Dot
 10
305.4854919690348
 20
152.9128193832901
 30
0.0
  0
MTEXT
  5
E276
330
E031
100
AcDbEntity
  8
AM_5
 62
     2
100
AcDbMText
 10
292.4854938763834
 20
156.0128193832901
 30
0.0
 40
3.200000000000001
 41
0.0
 71
     5
 72
     1
  1
26
 73
     1
 44
1.0
1001
ACAD
1000
MTEXTBEGIN
1070
    73
1070
     1
1070
    44
1040
1.0
1070
    74
1070
     0
1000
MTEXTEND
  0
POINT
  5
E277
330
E031
100
AcDbEntity
  8
Defpoints
 62
     0
100
AcDbPoint
 10
279.485495783732
 20
164.9128193832901
 30
0.0
  0
POINT
  5
E278
330
E031
100
AcDbEntity
  8
Defpoints
 62
     0
100
AcDbPoint
 10
305.4854919690348
 20
164.9128193832901
 30
0.0
  0
POINT
  5
E279
330
E031
100
AcDbEntity
  8
Defpoints
 62
     0
100
AcDbPoint
 10
305.4854919690348
 20
152.9128193832901
 30
0.0
  0
ENDBLK
  5
E033
330
E031
100
AcDbEntity
  8
0
100
AcDbBlockEnd
  0
BLOCK
  5
E05A
330
E059
100
AcDbEntity
  8
0
100
AcDbBlockBegin
  2
*D20
 70
     1
 10
0.0
 20
0.0
 30
0.0
  3
*D20
  1

  0
LINE
  5
E27A
330
E059
100
AcDbEntity
  8
AM_5
100
AcDbLine
 10
306.4854919690348
 20
176.9128193832901
 30
0.0
 11
318.4854919690348
 21
176.9128193832901
 31
0.0
  0
LINE
  5
E27B
330
E059
100
AcDbEntity
  8
AM_5
100
AcDbLine
 10
306.4854919690348
 20
164.9128193832901
 30
0.0
 11
318.4854919690348
 21
164.9128193832901
 31
0.0
  0
LINE
  5
E27C
330
E059
100
AcDbEntity
  8
AM_5
100
AcDbLine
 10
317.4854919690348
 20
175.9128193832901
 30
0.0
 11
317.4854919690348
 21
165.9128193832901
 31
0.0
  0
INSERT
  5
E27D
330
E059
100
AcDbEntity
  8
AM_5
100
AcDbBlockReference
  2
_Dot
 10
317.4854919690348
 20
176.9128193832901
 30
0.0
 50
90.0
  0
INSERT
  5
E27E
330
E059
100
AcDbEntity
  8
AM_5
100
AcDbBlockReference
  2
_Dot
 10
317.4854919690348
 20
164.9128193832901
 30
0.0
 50
270.0
  0
MTEXT
  5
E27F
330
E059
100
AcDbEntity
  8
AM_5
 62
     2
100
AcDbMText
 10
314.3854919690347
 20
170.9128193832901
 30
0.0
 40
3.200000000000001
 41
0.0
 71
     5
 72
     1
  1
12
 11
0.0000000000000001
 21
1.0
 31
0.0
 73
     1
 44
1.0
1001
ACAD
1000
MTEXTBEGIN
1070
    73
1070
     1
1070
    44
1040
1.0
1070
    74
1070
     0
1000
MTEXTEND
  0
POINT
  5
E280
330
E059
100
AcDbEntity
  8
Defpoints
 62
     0
100
AcDbPoint
 10
305.4854919690348
 20
176.9128193832901
 30
0.0
  0
POINT
  5
E281
330
E059
100
AcDbEntity
  8
Defpoints
 62
     0
100
AcDbPoint
 10
305.4854919690348
 20
164.9128193832901
 30
0.0
  0
POINT
  5
E282
330
E059
100
AcDbEntity
  8
Defpoints
 62
     0
100
AcDbPoint
 10
317.4854919690348
 20
164.9128193832901
 30
0.0
  0
ENDBLK
  5
E05B
330
E059
100
AcDbEntity
  8
0
100
AcDbBlockEnd
  0
BLOCK
  5
E079
330
E078
100
AcDbEntity
  8
0
100
AcDbBlockBegin
  2
*D21
 70
     1
 10
0.0
 20
0.0
 30
0.0
  3
*D21
  1

  0
LINE
  5
E283
330
E078
100
AcDbEntity
  8
AM_5
100
AcDbLine
 10
306.4854919690348
 20
138.3128190018203
 30
0.0
 11
318.4854919690348
 21
138.3128190018203
 31
0.0
  0
LINE
  5
E284
330
E078
100
AcDbEntity
  8
AM_5
100
AcDbLine
 10
306.4854919690348
 20
139.9128193832901
 30
0.0
 11
318.4854919690348
 21
139.9128193832901
 31
0.0
  0
LINE
  5
E285
330
E078
100
AcDbEntity
  8
AM_5
100
AcDbLine
 10
317.4854919690348
 20
137.3128190018203
 30
0.0
 11
317.4854919690348
 21
136.3128190018203
 31
0.0
  0
LINE
  5
E286
330
E078
100
AcDbEntity
  8
AM_5
100
AcDbLine
 10
317.4854919690348
 20
140.9128193832901
 30
0.0
 11
317.4854919690348
 21
153.7661527166234
 31
0.0
  0
LINE
  5
E287
330
E078
100
AcDbEntity
  8
AM_5
100
AcDbLine
 10
317.4854919690348
 20
138.3128190018203
 30
0.0
 11
317.4854919690348
 21
139.9128193832901
 31
0.0
  0
INSERT
  5
E288
330
E078
100
AcDbEntity
  8
AM_5
100
AcDbBlockReference
  2
_Dot
 10
317.4854919690348
 20
138.3128190018203
 30
0.0
 50
90.0
  0
INSERT
  5
E289
330
E078
100
AcDbEntity
  8
AM_5
100
AcDbBlockReference
  2
_Dot
 10
317.4854919690348
 20
139.9128193832901
 30
0.0
 50
270.0
  0
MTEXT
  5
E28A
330
E078
100
AcDbEntity
  8
AM_5
 62
     2
100
AcDbMText
 10
314.3854919690347
 20
147.8394860499568
 30
0.0
 40
3.200000000000001
 41
0.0
 71
     5
 72
     1
  1
t=1.6
 11
0.0000000000000001
 21
1.0
 31
0.0
 73
     1
 44
1.0
1001
ACAD
1000
MTEXTBEGIN
1070
    73
1070
     1
1070
    44
1040
1.0
1070
    74
1070
     0
1000
MTEXTEND
  0
POINT
  5
E28B
330
E078
100
AcDbEntity
  8
Defpoints
 62
     0
100
AcDbPoint
 10
305.4854919690348
 20
138.3128190018203
 30
0.0
  0
POINT
  5
E28C
330
E078
100
AcDbEntity
  8
Defpoints
 62
     0
100
AcDbPoint
 10
305.4854919690348
 20
139.9128193832901
 30
0.0
  0
POINT
  5
E28D
330
E078
100
AcDbEntity
  8
Defpoints
 62
     0
100
AcDbPoint
 10
317.4854919690348
 20
139.9128193832901
 30
0.0
  0
ENDBLK
  5
E07A
330
E078
100
AcDbEntity
  8
0
100
AcDbBlockEnd
  0
BLOCK
  5
E0CF
330
E0CE
100
AcDbEntity
  8
0
100
AcDbBlockBegin
  2
*D22
 70
     1
 10
0.0
 20
0.0
 30
0.0
  3
*D22
  1

  0
LINE
  5
E262
330
E0CE
100
AcDbEntity
  8
AM_5
100
AcDbLine
 10
204.305042083455
 20
188.9944070510052
 30
0.0
 11
173.8483754167883
 21
188.9944070510052
 31
0.0
  0
LINE
  5
E263
330
E0CE
100
AcDbEntity
  8
AM_5
100
AcDbLine
 10
173.8483754167883
 20
188.9944070510052
 30
0.0
 11
166.3125684054278
 21
175.5235487631824
 31
0.0
  0
MTEXT
  5
E264
330
E0CE
100
AcDbEntity
  8
AM_5
 62
     2
100
AcDbMText
 10
189.8267087501216
 20
192.2444070510051
 30
0.0
 40
3.5
 41
0.0
 71
     5
 72
     1
  1
2-\U+22053×4.5スロット
 73
     1
 44
1.0
1001
ACAD
1000
MTEXTBEGIN
1070
    73
1070
     1
1070
    44
1040
1.0
1070
    74
1070
     0
1000
MTEXTEND
  0
INSERT
  5
E265
330
E0CE
100
AcDbEntity
  8
AM_5
100
AcDbBlockReference
  2
_OPEN30
 10
165.3361384105045
 20
173.7781019822652
 30
0.0
 41
2.0
 42
2.0
 43
2.0
 50
240.7766740884116
  0
POINT
  5
E266
330
E0CE
100
AcDbEntity
  8
Defpoints
 62
     0
100
AcDbPoint
 10
165.3361384105045
 20
173.7781019822652
 30
0.0
  0
POINT
  5
E267
330
E0CE
100
AcDbEntity
  8
Defpoints
 62
     0
100
AcDbPoint
 10
163.8714934181195
 20
171.1599318108895
 30
0.0
  0
ENDBLK
  5
E0D0
330
E0CE
100
AcDbEntity
  8
0
100
AcDbBlockEnd
  0
BLOCK
  5
E16D
330
E16C
100
AcDbEntity
  8
0
100
AcDbBlockBegin
  2
*D23
 70
     1
 10
0.0
 20
0.0
 30
0.0
  3
*D23
  1

  0
LINE
  5
E268
330
E16C
100
AcDbEntity
  8
AM_5
100
AcDbLine
 10
146.353815914312
 20
177.5190168965773
 30
0.0
 11
146.353815914312
 21
199.9690168965773
 31
0.0
  0
LINE
  5
E269
330
E16C
100
AcDbEntity
  8
AM_5
100
AcDbLine
 10
170.853815914312
 20
177.5190168965773
 30
0.0
 11
170.853815914312
 21
199.9690168965773
 31
0.0
  0
LINE
  5
E26A
330
E16C
100
AcDbEntity
  8
AM_5
100
AcDbLine
 10
147.353815914312
 20
198.9690168965773
 30
0.0
 11
169.853815914312
 21
198.9690168965773
 31
0.0
  0
INSERT
  5
E26B
330
E16C
100
AcDbEntity
  8
AM_5
100
AcDbBlockReference
  2
_Dot
 10
146.353815914312
 20
198.9690168965773
 30
0.0
 50
180.0
  0
INSERT
  5
E26C
330
E16C
100
AcDbEntity
  8
AM_5
100
AcDbBlockReference
  2
_Dot
 10
170.853815914312
 20
198.9690168965773
 30
0.0
  0
MTEXT
  5
E26D
330
E16C
100
AcDbEntity
  8
AM_5
 62
     2
100
AcDbMText
 10
158.603815914312
 20
202.0690168965773
 30
0.0
 40
3.200000000000001
 41
0.0
 71
     5
 72
     1
  1
24.5
 73
     1
 44
1.0
1001
ACAD
1000
MTEXTBEGIN
1070
    73
1070
     1
1070
    44
1040
1.0
1070
    74
1070
     0
1000
MTEXTEND
  0
POINT
  5
E26E
330
E16C
100
AcDbEntity
  8
Defpoints
 62
     0
100
AcDbPoint
 10
146.353815914312
 20
176.5190168965773
 30
0.0
  0
POINT
  5
E26F
330
E16C
100
AcDbEntity
  8
Defpoints
 62
     0
100
AcDbPoint
 10
170.853815914312
 20
176.5190168965773
 30
0.0
  0
POINT
  5
E270
330
E16C
100
AcDbEntity
  8
Defpoints
 62
     0
100
AcDbPoint
 10
170.853815914312
 20
198.9690168965773
 30
0.0
  0
ENDBLK
  5
E16E
330
E16C
100
AcDbEntity
  8
0
100
AcDbBlockEnd
  0
BLOCK
  5
E195
330
E194
100
AcDbEntity
  8
0
100
AcDbBlockBegin
  2
*D24
 70
     1
 10
0.0
 20
0.0
 30
0.0
  3
*D24
  1

  0
LINE
  5
E1B8
330
E194
100
AcDbEntity
  8
AM_5
100
AcDbLine
 10
231.1289481057395
 20
108.009731603724
 30
0.0
 11
243.1289481057395
 21
108.009731603724
 31
0.0
  0
LINE
  5
E1B9
330
E194
100
AcDbEntity
  8
AM_5
100
AcDbLine
 10
230.1289481057395
 20
110.009731603724
 30
0.0
 11
243.1289481057395
 21
110.009731603724
 31
0.0
  0
LINE
  5
E1BA
330
E194
100
AcDbEntity
  8
AM_5
100
AcDbLine
 10
242.1289481057395
 20
107.009731603724
 30
0.0
 11
242.1289481057395
 21
106.009731603724
 31
0.0
  0
LINE
  5
E1BB
330
E194
100
AcDbEntity
  8
AM_5
100
AcDbLine
 10
242.1289481057395
 20
111.009731603724
 30
0.0
 11
242.1289481057395
 21
116.5030649370574
 31
0.0
  0
LINE
  5
E1BC
330
E194
100
AcDbEntity
  8
AM_5
100
AcDbLine
 10
242.1289481057395
 20
108.009731603724
 30
0.0
 11
242.1289481057395
 21
110.009731603724
 31
0.0
  0
INSERT
  5
E1BD
330
E194
100
AcDbEntity
  8
AM_5
100
AcDbBlockReference
  2
_Dot
 10
242.1289481057395
 20
108.009731603724
 30
0.0
 50
90.0
  0
INSERT
  5
E1BE
330
E194
100
AcDbEntity
  8
AM_5
100
AcDbBlockReference
  2
_Dot
 10
242.1289481057395
 20
110.009731603724
 30
0.0
 50
270.0
  0
MTEXT
  5
E1BF
330
E194
100
AcDbEntity
  8
AM_5
 62
     2
100
AcDbMText
 10
239.0289481057395
 20
114.2563982703907
 30
0.0
 40
3.200000000000001
 41
0.0
 71
     5
 72
     1
  1
2
 11
0.0000000000000001
 21
1.0
 31
0.0
 73
     1
 44
1.0
1001
ACAD
1000
MTEXTBEGIN
1070
    73
1070
     1
1070
    44
1040
1.0
1070
    74
1070
     0
1000
MTEXTEND
  0
POINT
  5
E1C0
330
E194
100
AcDbEntity
  8
Defpoints
 62
     0
100
AcDbPoint
 10
230.1289481057395
 20
108.009731603724
 30
0.0
  0
POINT
  5
E1C1
330
E194
100
AcDbEntity
  8
Defpoints
 62
     0
100
AcDbPoint
 10
229.1289481057395
 20
110.009731603724
 30
0.0
  0
POINT
  5
E1C2
330
E194
100
AcDbEntity
  8
Defpoints
 62
     0
100
AcDbPoint
 10
242.1289481057395
 20
110.009731603724
 30
0.0
  0
ENDBLK
  5
E196
330
E194
100
AcDbEntity
  8
0
100
AcDbBlockEnd
  0
ENDSEC
  0
SECTION
  2
ENTITIES
  0
TEXT
  5
B973
330
1F
100
AcDbEntity
  8
AM_6
 60
     1
100
AcDbText
 10
408.4999996273733
 20
8.500000173768171
 30
0.0
 40
2.5
  1
!GENTITLE-INSERT
100
AcDbText
  0
TEXT
  5
B974
330
1F
100
AcDbEntity
  8
AM_6
 60
     1
100
AcDbText
 10
-0.0000003726265732
 20
0.0000001737681714
 30
0.0
 40
2.5
  1
!GENTITLE-LL
100
AcDbText
  0
TEXT
  5
B975
330
1F
100
AcDbEntity
  8
AM_6
 60
     1
100
AcDbText
 10
419.9999996273734
 20
297.0000001737682
 30
0.0
 40
2.5
  1
!GENTITLE-RU
100
AcDbText
  0
TEXT
  5
B976
330
1F
100
AcDbEntity
  8
AM_6
 60
     1
100
AcDbText
 10
419.9999996273734
 20
297.0000001737682
 30
0.0
 40
2.5
  1
!GENTITLE-MAX
100
AcDbText
  0
TEXT
  5
B97F
330
1F
100
AcDbEntity
  8
AM_6
 60
     1
100
AcDbText
 10
-0.0000003726265732
 20
0.0000001737681714
 30
0.0
 40
2.5
  1
!GENTITLE-LL
100
AcDbText
  0
TEXT
  5
B980
330
1F
100
AcDbEntity
  8
AM_6
 60
     1
100
AcDbText
 10
408.4999996273734
 20
288.5000001737682
 30
0.0
 40
2.5
  1
!GENTITLE-RU
100
AcDbText
  0
TEXT
  5
B981
330
1F
100
AcDbEntity
  8
AM_6
 60
     1
100
AcDbText
 10
419.9999996273734
 20
297.0000001737682
 30
0.0
 40
2.5
  1
!GENTITLE-MAX
100
AcDbText
  0
TEXT
  5
B982
330
1F
100
AcDbEntity
  8
AM_6
 60
     1
100
AcDbText
 10
408.4999996273733
 20
8.500000173768171
 30
0.0
 40
2.5
  1
!GENTITLE-INSERT
100
AcDbText
  0
POINT
  5
C0C7
330
1F
100
AcDbEntity
  8
0
 60
     1
100
AcDbPoint
 10
-0.0000007449998464
 20
327.68632872515
 30
0.0
1001
GENIUS_GENOENT_13
1002
{
1000
MYREF
1005
C0C7
1002
}
1002
{
1000
GRP
1005
0
1002
}
1001
GENIUS_GENOBJ-N-TIT_13
1002
{
1000
OWNER
1000
GEN
1002
}
1001
GENIUS_GENOLIS_13
1002
{
1000
ENT
1005
BFFF
1005
BFFE
1002
}
1001
GENIUS_GENTITLE_13
1002
{
1000
BORDER
1000
X:\図面\000 共通使用ファイル（テンプレート等）\001 SYS図枠12\SYS図枠A3(12)
1002
}
1002
{
1000
TITLE
1000
X:\図面\000 共通使用ファイル（テンプレート等）\001 SYS図枠12\SYS表題A1A2A3(12)
1002
}
1002
{
1000
SCALE
1000
1:1
1002
}
1002
{
1000
TITLESTD
1000
SYS
1002
}
1002
{
1000
HRA
1005
BFFE
1002
}
1002
{
1000
HTIT
1005
BFFF
1002
}
1002
{
1000
INVTXTID
1005
0
1002
}
1002
{
1000
UNCHG
1002
{
1000
GEN-TITLE-SIZ
1000
GEN-TITLE-SCA
1002
}
1002
}
1002
{
1000
GENIUSID
1005
C0C7
1002
}
1001
GENIUS_GENODEF_13
1002
{
1000
HIER
1070
     1
1002
}
1002
{
1000
MANEDIT
1070
     1
1002
}
1002
{
1000
NOSEL
1070
     0
1002
}
1002
{
1000
BEHIND
1070
     0
1002
}
1002
{
1000
OTHER
1070
     0
1002
}
1002
{
1000
REACTOR
1002
}
  0
TEXT
  5
C15C
330
1F
100
AcDbEntity
  8
AM_6
 60
     1
100
AcDbText
 10
408.4999992550001
 20
336.18632872515
 30
0.0
 40
2.5
  1
!GENTITLE-INSERT
100
AcDbText
  0
TEXT
  5
C15D
330
1F
100
AcDbEntity
  8
AM_6
 60
     1
100
AcDbText
 10
-0.0000007449998464
 20
327.68632872515
 30
0.0
 40
2.5
  1
!GENTITLE-LL
100
AcDbText
  0
TEXT
  5
C15E
330
1F
100
AcDbEntity
  8
AM_6
 60
     1
100
AcDbText
 10
419.9999992550001
 20
624.68632872515
 30
0.0
 40
2.5
  1
!GENTITLE-RU
100
AcDbText
  0
TEXT
  5
C15F
330
1F
100
AcDbEntity
  8
AM_6
 60
     1
100
AcDbText
 10
419.9999992550001
 20
624.68632872515
 30
0.0
 40
2.5
  1
!GENTITLE-MAX
100
AcDbText
  0
LINE
  5
C161
330
1F
100
AcDbEntity
  8
size
100
AcDbLine
 10
0.0
 20
0.0
 30
0.0
 11
420.0
 21
0.0
 31
0.0
1001
GENIUS_GENREC_14
1002
{
1000
PYDIR
1011
0.0000000000000178
1021
297.0
1031
0.0
1002
}
1002
{
1000
PXDIR
1011
420.0
1021
0.0
1031
0.0
1002
}
1002
{
1000
PORI
1011
0.0
1021
0.0
1031
0.0
1002
}
1002
{
1000
PINS
1011
210.0
1021
148.5
1031
0.0
1002
}
1002
{
1000
HVAL
1000
297
1002
}
1002
{
1000
H
1070
     2
1002
}
1002
{
1000
WVAL
1000
420
1002
}
1002
{
1000
W
1070
     2
1002
}
1002
{
1000
C
1070
     4
1002
}
1001
GENIUS_GENOBJ-N-REC_13
1002
{
1000
OWNER
1000
GEN
1002
}
1001
GENIUS_GENODEF_13
1002
{
1000
HIER
1070
     0
1002
}
1002
{
1000
MANEDIT
1070
     0
1002
}
1002
{
1000
NOSEL
1070
     0
1002
}
1002
{
1000
BEHIND
1070
     0
1002
}
1002
{
1000
OTHER
1070
     0
1002
}
1002
{
1000
REACTOR
1002
}
  0
LINE
  5
C162
330
1F
100
AcDbEntity
  8
size
100
AcDbLine
 10
420.0
 20
0.0
 30
0.0
 11
420.0
 21
297.0
 31
0.0
1001
GENIUS_GENREC_14
1002
{
1000
PYDIR
1011
0.0000000000000178
1021
297.0
1031
0.0
1002
}
1002
{
1000
PXDIR
1011
420.0
1021
0.0
1031
0.0
1002
}
1002
{
1000
PORI
1011
0.0
1021
0.0
1031
0.0
1002
}
1002
{
1000
PINS
1011
210.0
1021
148.5
1031
0.0
1002
}
1002
{
1000
HVAL
1000
297
1002
}
1002
{
1000
H
1070
     2
1002
}
1002
{
1000
WVAL
1000
420
1002
}
1002
{
1000
W
1070
     2
1002
}
1002
{
1000
C
1070
     4
1002
}
1001
GENIUS_GENOBJ-N-REC_13
1002
{
1000
OWNER
1000
GEN
1002
}
1001
GENIUS_GENODEF_13
1002
{
1000
HIER
1070
     0
1002
}
1002
{
1000
MANEDIT
1070
     0
1002
}
1002
{
1000
NOSEL
1070
     0
1002
}
1002
{
1000
BEHIND
1070
     0
1002
}
1002
{
1000
OTHER
1070
     0
1002
}
1002
{
1000
REACTOR
1002
}
  0
LINE
  5
C163
330
1F
100
AcDbEntity
  8
size
100
AcDbLine
 10
420.0
 20
297.0
 30
0.0
 11
0.0000000000000275
 21
297.0
 31
0.0
1001
GENIUS_GENREC_14
1002
{
1000
PYDIR
1011
0.0000000000000178
1021
297.0
1031
0.0
1002
}
1002
{
1000
PXDIR
1011
420.0
1021
0.0
1031
0.0
1002
}
1002
{
1000
PORI
1011
0.0
1021
0.0
1031
0.0
1002
}
1002
{
1000
PINS
1011
210.0
1021
148.5
1031
0.0
1002
}
1002
{
1000
HVAL
1000
297
1002
}
1002
{
1000
H
1070
     2
1002
}
1002
{
1000
WVAL
1000
420
1002
}
1002
{
1000
W
1070
     2
1002
}
1002
{
1000
C
1070
     4
1002
}
1001
GENIUS_GENOBJ-N-REC_13
1002
{
1000
OWNER
1000
GEN
1002
}
1001
GENIUS_GENODEF_13
1002
{
1000
HIER
1070
     0
1002
}
1002
{
1000
MANEDIT
1070
     0
1002
}
1002
{
1000
NOSEL
1070
     0
1002
}
1002
{
1000
BEHIND
1070
     0
1002
}
1002
{
1000
OTHER
1070
     0
1002
}
1002
{
1000
REACTOR
1002
}
  0
LINE
  5
C164
330
1F
100
AcDbEntity
  8
size
100
AcDbLine
 10
0.0000000000000275
 20
297.0
 30
0.0
 11
0.0
 21
0.0
 31
0.0
1001
GENIUS_GENREC_14
1002
{
1000
PYDIR
1011
0.0000000000000178
1021
297.0
1031
0.0
1002
}
1002
{
1000
PXDIR
1011
420.0
1021
0.0
1031
0.0
1002
}
1002
{
1000
PORI
1011
0.0
1021
0.0
1031
0.0
1002
}
1002
{
1000
PINS
1011
210.0
1021
148.5
1031
0.0
1002
}
1002
{
1000
HVAL
1000
297
1002
}
1002
{
1000
H
1070
     2
1002
}
1002
{
1000
WVAL
1000
420
1002
}
1002
{
1000
W
1070
     2
1002
}
1002
{
1000
C
1070
     4
1002
}
1001
GENIUS_GENOBJ-N-REC_13
1002
{
1000
OWNER
1000
GEN
1002
}
1001
GENIUS_GENODEF_13
1002
{
1000
HIER
1070
     0
1002
}
1002
{
1000
MANEDIT
1070
     0
1002
}
1002
{
1000
NOSEL
1070
     0
1002
}
1002
{
1000
BEHIND
1070
     0
1002
}
1002
{
1000
OTHER
1070
     0
1002
}
1002
{
1000
REACTOR
1002
}
  0
LINE
  5
C165
330
1F
100
AcDbEntity
  8
waku
100
AcDbLine
 10
408.4999999999999
 20
8.5
 30
0.0
 11
408.4999999999999
 21
288.5
 31
0.0
1001
GENIUS_GENREC_14
1002
{
1000
PYDIR
1011
0.0000000000000178
1021
297.0
1031
0.0
1002
}
1002
{
1000
PXDIR
1011
420.0
1021
0.0
1031
0.0
1002
}
1002
{
1000
PORI
1011
0.0
1021
0.0
1031
0.0
1002
}
1002
{
1000
PINS
1011
210.0
1021
148.5
1031
0.0
1002
}
1002
{
1000
HVAL
1000
297
1002
}
1002
{
1000
H
1070
     2
1002
}
1002
{
1000
WVAL
1000
420
1002
}
1002
{
1000
W
1070
     2
1002
}
1002
{
1000
C
1070
     4
1002
}
1001
GENIUS_GENOBJ-N-REC_13
1002
{
1000
OWNER
1000
GEN
1002
}
1001
GENIUS_GENODEF_13
1002
{
1000
HIER
1070
     0
1002
}
1002
{
1000
MANEDIT
1070
     0
1002
}
1002
{
1000
NOSEL
1070
     0
1002
}
1002
{
1000
BEHIND
1070
     0
1002
}
1002
{
1000
OTHER
1070
     0
1002
}
1002
{
1000
REACTOR
1002
}
  0
LINE
  5
C166
330
1F
100
AcDbEntity
  8
waku
100
AcDbLine
 10
11.50000000000002
 20
288.5
 30
0.0
 11
11.5
 21
8.5
 31
0.0
1001
GENIUS_GENREC_14
1002
{
1000
PYDIR
1011
0.0000000000000178
1021
297.0
1031
0.0
1002
}
1002
{
1000
PXDIR
1011
420.0
1021
0.0
1031
0.0
1002
}
1002
{
1000
PORI
1011
0.0
1021
0.0
1031
0.0
1002
}
1002
{
1000
PINS
1011
210.0
1021
148.5
1031
0.0
1002
}
1002
{
1000
HVAL
1000
297
1002
}
1002
{
1000
H
1070
     2
1002
}
1002
{
1000
WVAL
1000
420
1002
}
1002
{
1000
W
1070
     2
1002
}
1002
{
1000
C
1070
     4
1002
}
1001
GENIUS_GENOBJ-N-REC_13
1002
{
1000
OWNER
1000
GEN
1002
}
1001
GENIUS_GENODEF_13
1002
{
1000
HIER
1070
     0
1002
}
1002
{
1000
MANEDIT
1070
     0
1002
}
1002
{
1000
NOSEL
1070
     0
1002
}
1002
{
1000
BEHIND
1070
     0
1002
}
1002
{
1000
OTHER
1070
     0
1002
}
1002
{
1000
REACTOR
1002
}
  0
LINE
  5
C167
330
1F
100
AcDbEntity
  8
waku
100
AcDbLine
 10
408.4999999999999
 20
288.5
 30
0.0
 11
11.50000000000002
 21
288.5
 31
0.0
1001
GENIUS_GENREC_14
1002
{
1000
PYDIR
1011
0.0000000000000178
1021
297.0
1031
0.0
1002
}
1002
{
1000
PXDIR
1011
420.0
1021
0.0
1031
0.0
1002
}
1002
{
1000
PORI
1011
0.0
1021
0.0
1031
0.0
1002
}
1002
{
1000
PINS
1011
210.0
1021
148.5
1031
0.0
1002
}
1002
{
1000
HVAL
1000
297
1002
}
1002
{
1000
H
1070
     2
1002
}
1002
{
1000
WVAL
1000
420
1002
}
1002
{
1000
W
1070
     2
1002
}
1002
{
1000
C
1070
     4
1002
}
1001
GENIUS_GENOBJ-N-REC_13
1002
{
1000
OWNER
1000
GEN
1002
}
1001
GENIUS_GENODEF_13
1002
{
1000
HIER
1070
     0
1002
}
1002
{
1000
MANEDIT
1070
     0
1002
}
1002
{
1000
NOSEL
1070
     0
1002
}
1002
{
1000
BEHIND
1070
     0
1002
}
1002
{
1000
OTHER
1070
     0
1002
}
1002
{
1000
REACTOR
1002
}
  0
TEXT
  5
C168
330
1F
100
AcDbEntity
  8
AM_6
 60
     1
100
AcDbText
 10
-0.0000007449998464
 20
327.68632872515
 30
0.0
 40
2.5
  1
!GENTITLE-LL
100
AcDbText
  0
TEXT
  5
C169
330
1F
100
AcDbEntity
  8
AM_6
 60
     1
100
AcDbText
 10
408.4999992550001
 20
616.18632872515
 30
0.0
 40
2.5
  1
!GENTITLE-RU
100
AcDbText
  0
TEXT
  5
C16A
330
1F
100
AcDbEntity
  8
AM_6
 60
     1
100
AcDbText
 10
419.9999992550001
 20
624.68632872515
 30
0.0
 40
2.5
  1
!GENTITLE-MAX
100
AcDbText
  0
TEXT
  5
C16B
330
1F
100
AcDbEntity
  8
AM_6
 60
     1
100
AcDbText
 10
408.4999992550001
 20
336.18632872515
 30
0.0
 40
2.5
  1
!GENTITLE-INSERT
100
AcDbText
  0
LINE
  5
C16C
330
1F
100
AcDbEntity
  8
waku
100
AcDbLine
 10
11.5
 20
8.5
 30
0.0
 11
408.4999999999999
 21
8.5
 31
0.0
  0
POINT
  5
DBF4
330
1F
100
AcDbEntity
  8
AM_0
100
AcDbPoint
 10
146.353815914312
 20
108.009731603724
 30
0.0
  0
POINT
  5
DBF5
330
1F
100
AcDbEntity
  8
AM_0
100
AcDbPoint
 10
170.853815914312
 20
108.009731603724
 30
0.0
  0
POINT
  5
DBF8
330
1F
100
AcDbEntity
  8
AM_0
100
AcDbPoint
 10
170.853815914312
 20
108.009731603724
 30
0.0
  0
POINT
  5
DBF9
330
1F
100
AcDbEntity
  8
AM_0
100
AcDbPoint
 10
146.353815914312
 20
108.009731603724
 30
0.0
  0
POINT
  5
DBFC
330
1F
100
AcDbEntity
  8
AM_0
100
AcDbPoint
 10
150.353815914312
 20
115.409731603724
 30
0.0
  0
POINT
  5
DBFD
330
1F
100
AcDbEntity
  8
AM_0
100
AcDbPoint
 10
150.353815914312
 20
114.1097316037241
 30
0.0
  0
POINT
  5
DBFE
330
1F
100
AcDbEntity
  8
AM_0
100
AcDbPoint
 10
166.853815914312
 20
114.1097316037241
 30
0.0
  0
POINT
  5
DBFF
330
1F
100
AcDbEntity
  8
AM_0
100
AcDbPoint
 10
166.853815914312
 20
115.409731603724
 30
0.0
  0
POINT
  5
DC00
330
1F
100
AcDbEntity
  8
AM_0
100
AcDbPoint
 10
150.353815914312
 20
111.309731603724
 30
0.0
  0
POINT
  5
DC01
330
1F
100
AcDbEntity
  8
AM_0
100
AcDbPoint
 10
150.353815914312
 20
110.009731603724
 30
0.0
  0
POINT
  5
DC02
330
1F
100
AcDbEntity
  8
AM_0
100
AcDbPoint
 10
166.853815914312
 20
110.009731603724
 30
0.0
  0
POINT
  5
DC03
330
1F
100
AcDbEntity
  8
AM_0
100
AcDbPoint
 10
166.853815914312
 20
111.309731603724
 30
0.0
  0
POINT
  5
DC08
330
1F
100
AcDbEntity
  8
AM_0
100
AcDbPoint
 10
150.603815914312
 20
115.2097316037241
 30
0.0
  0
POINT
  5
DC09
330
1F
100
AcDbEntity
  8
AM_0
100
AcDbPoint
 10
150.603815914312
 20
114.209731603724
 30
0.0
  0
POINT
  5
DC0A
330
1F
100
AcDbEntity
  8
AM_0
100
AcDbPoint
 10
166.603815914312
 20
114.209731603724
 30
0.0
  0
POINT
  5
DC0B
330
1F
100
AcDbEntity
  8
AM_0
100
AcDbPoint
 10
166.603815914312
 20
115.2097316037241
 30
0.0
  0
POINT
  5
DC0C
330
1F
100
AcDbEntity
  8
AM_0
100
AcDbPoint
 10
150.603815914312
 20
111.209731603724
 30
0.0
  0
POINT
  5
DC0D
330
1F
100
AcDbEntity
  8
AM_0
100
AcDbPoint
 10
150.603815914312
 20
110.2097316037241
 30
0.0
  0
POINT
  5
DC0E
330
1F
100
AcDbEntity
  8
AM_0
100
AcDbPoint
 10
166.603815914312
 20
110.2097316037241
 30
0.0
  0
POINT
  5
DC0F
330
1F
100
AcDbEntity
  8
AM_0
100
AcDbPoint
 10
166.603815914312
 20
111.209731603724
 30
0.0
  0
LINE
  5
DC10
330
1F
100
AcDbEntity
  8
AM_0
100
AcDbLine
 10
146.353815914312
 20
108.009731603724
 30
0.0
 11
170.853815914312
 21
108.009731603724
 31
0.0
  0
LINE
  5
DC14
330
1F
100
AcDbEntity
  8
AM_0
100
AcDbLine
 10
166.853815914312
 20
110.009731603724
 30
0.0
 11
166.853815914312
 21
111.309731603724
 31
0.0
  0
LINE
  5
DC15
330
1F
100
AcDbEntity
  8
AM_0
100
AcDbLine
 10
150.353815914312
 20
110.009731603724
 30
0.0
 11
150.353815914312
 21
111.309731603724
 31
0.0
  0
LINE
  5
DC16
330
1F
100
AcDbEntity
  8
AM_0
100
AcDbLine
 10
150.353815914312
 20
115.409731603724
 30
0.0
 11
166.853815914312
 21
115.409731603724
 31
0.0
  0
LINE
  5
DC17
330
1F
100
AcDbEntity
  8
AM_0
100
AcDbLine
 10
150.353815914312
 20
114.1097316037241
 30
0.0
 11
166.853815914312
 21
114.1097316037241
 31
0.0
  0
LINE
  5
DC18
330
1F
100
AcDbEntity
  8
AM_0
100
AcDbLine
 10
150.353815914312
 20
111.309731603724
 30
0.0
 11
166.853815914312
 21
111.309731603724
 31
0.0
  0
LINE
  5
DC19
330
1F
100
AcDbEntity
  8
AM_0
100
AcDbLine
 10
150.353815914312
 20
110.009731603724
 30
0.0
 11
166.853815914312
 21
110.009731603724
 31
0.0
  0
LINE
  5
DC1A
330
1F
100
AcDbEntity
  8
AM_0
100
AcDbLine
 10
150.353815914312
 20
114.1097316037241
 30
0.0
 11
150.353815914312
 21
115.409731603724
 31
0.0
  0
LINE
  5
DC1B
330
1F
100
AcDbEntity
  8
AM_0
100
AcDbLine
 10
166.853815914312
 20
114.1097316037241
 30
0.0
 11
166.853815914312
 21
115.409731603724
 31
0.0
  0
LINE
  5
DC1C
330
1F
100
AcDbEntity
  8
AM_0
100
AcDbLine
 10
147.353815914312
 20
153.3190168965774
 30
0.0
 11
169.853815914312
 21
153.3190168965774
 31
0.0
  0
LINE
  5
DC1D
330
1F
100
AcDbEntity
  8
AM_0
100
AcDbLine
 10
147.353815914312
 20
177.5190168965773
 30
0.0
 11
169.853815914312
 21
177.5190168965773
 31
0.0
  0
LINE
  5
DC1E
330
1F
100
AcDbEntity
  8
AM_0
100
AcDbLine
 10
146.353815914312
 20
154.3190168965774
 30
0.0
 11
146.353815914312
 21
176.5190168965773
 31
0.0
  0
LINE
  5
DC1F
330
1F
100
AcDbEntity
  8
AM_0
100
AcDbLine
 10
170.853815914312
 20
154.3190168965774
 30
0.0
 11
170.853815914312
 21
176.5190168965773
 31
0.0
  0
LINE
  5
DC23
330
1F
100
AcDbEntity
  8
AM_0
100
AcDbLine
 10
166.103815914312
 20
170.9690168965774
 30
0.0
 11
166.103815914312
 21
172.4690168965774
 31
0.0
  0
LINE
  5
DC24
330
1F
100
AcDbEntity
  8
AM_0
100
AcDbLine
 10
163.103815914312
 20
170.9690168965774
 30
0.0
 11
163.103815914312
 21
172.4690168965774
 31
0.0
  0
LINE
  5
DC26
330
1F
100
AcDbEntity
  8
AM_0
100
AcDbLine
 10
146.5749393884905
 20
115.4394803361203
 30
0.0
 11
146.353815914312
 21
108.009731603724
 31
0.0
  0
LINE
  5
DC28
330
1F
100
AcDbEntity
  8
AM_0
100
AcDbLine
 10
170.6326924401336
 20
115.4394803361203
 30
0.0
 11
170.853815914312
 21
108.009731603724
 31
0.0
  0
LINE
  5
DC29
330
1F
100
AcDbEntity
  8
AM_0
100
AcDbLine
 10
169.6331350316168
 20
116.409731603724
 30
0.0
 11
147.5744967970073
 21
116.409731603724
 31
0.0
  0
LINE
  5
DC2A
330
1F
100
AcDbEntity
  8
AM_0
100
AcDbLine
 10
154.103815914312
 20
170.9690168965774
 30
0.0
 11
154.103815914312
 21
172.4690168965774
 31
0.0
  0
LINE
  5
DC2B
330
1F
100
AcDbEntity
  8
AM_0
100
AcDbLine
 10
146.353815914312
 20
167.8190168965774
 30
0.0
 11
170.853815914312
 21
167.8190168965774
 31
0.0
  0
LINE
  5
DC2C
330
1F
100
AcDbEntity
  8
AM_0
100
AcDbLine
 10
150.603815914312
 20
114.209731603724
 30
0.0
 11
166.603815914312
 21
114.209731603724
 31
0.0
  0
LINE
  5
DC2D
330
1F
100
AcDbEntity
  8
AM_0
100
AcDbLine
 10
150.603815914312
 20
115.2097316037241
 30
0.0
 11
166.603815914312
 21
115.2097316037241
 31
0.0
  0
LINE
  5
DC2E
330
1F
100
AcDbEntity
  8
AM_0
100
AcDbLine
 10
150.603815914312
 20
110.2097316037241
 30
0.0
 11
166.603815914312
 21
110.2097316037241
 31
0.0
  0
LINE
  5
DC2F
330
1F
100
AcDbEntity
  8
AM_0
100
AcDbLine
 10
150.603815914312
 20
111.209731603724
 30
0.0
 11
166.603815914312
 21
111.209731603724
 31
0.0
  0
LINE
  5
DC30
330
1F
100
AcDbEntity
  8
AM_0
100
AcDbLine
 10
150.603815914312
 20
115.2097316037241
 30
0.0
 11
150.603815914312
 21
114.209731603724
 31
0.0
  0
LINE
  5
DC31
330
1F
100
AcDbEntity
  8
AM_0
100
AcDbLine
 10
166.603815914312
 20
115.2097316037241
 30
0.0
 11
166.603815914312
 21
114.209731603724
 31
0.0
  0
LINE
  5
DC32
330
1F
100
AcDbEntity
  8
AM_0
100
AcDbLine
 10
150.603815914312
 20
111.209731603724
 30
0.0
 11
150.603815914312
 21
110.2097316037241
 31
0.0
  0
LINE
  5
DC33
330
1F
100
AcDbEntity
  8
AM_0
100
AcDbLine
 10
166.603815914312
 20
111.209731603724
 30
0.0
 11
166.603815914312
 21
110.2097316037241
 31
0.0
  0
LINE
  5
DC34
330
1F
100
AcDbEntity
  8
AM_0
100
AcDbLine
 10
150.603815914312
 20
151.5390168965774
 30
0.0
 11
150.603815914312
 21
153.3190168965774
 31
0.0
  0
LINE
  5
DC35
330
1F
100
AcDbEntity
  8
AM_0
100
AcDbLine
 10
166.603815914312
 20
151.5390168965774
 30
0.0
 11
166.603815914312
 21
153.3190168965774
 31
0.0
  0
LINE
  5
DC38
330
1F
100
AcDbEntity
  8
AM_0
100
AcDbLine
 10
150.603815914312
 20
151.5390168965774
 30
0.0
 11
166.603815914312
 21
151.5390168965774
 31
0.0
  0
ARC
  5
DC39
330
1F
100
AcDbEntity
  8
AM_0
100
AcDbCircle
 10
147.5744967970073
 20
115.409731603724
 30
0.0
 40
1.0
100
AcDbArc
 50
90.0
 51
178.2952716809922
  0
ARC
  5
DC3A
330
1F
100
AcDbEntity
  8
AM_0
100
AcDbCircle
 10
169.6331350316168
 20
115.409731603724
 30
0.0
 40
1.0
100
AcDbArc
 50
1.704728319007792
 51
90.0
  0
ARC
  5
DC3B
330
1F
100
AcDbEntity
  8
AM_0
100
AcDbCircle
 10
147.353815914312
 20
154.3190168965774
 30
0.0
 40
1.0
100
AcDbArc
 50
180.0
 51
270.0
  0
ARC
  5
DC3C
330
1F
100
AcDbEntity
  8
AM_0
100
AcDbCircle
 10
147.353815914312
 20
176.5190168965773
 30
0.0
 40
1.0
100
AcDbArc
 50
90.0
 51
180.0
  0
ARC
  5
DC3D
330
1F
100
AcDbEntity
  8
AM_0
100
AcDbCircle
 10
169.853815914312
 20
176.5190168965773
 30
0.0
 40
1.0
100
AcDbArc
 50
0.0
 51
90.0
  0
ARC
  5
DC3E
330
1F
100
AcDbEntity
  8
AM_0
100
AcDbCircle
 10
169.853815914312
 20
154.3190168965774
 30
0.0
 40
1.0
100
AcDbArc
 50
270.0
 51
0.0
  0
ARC
  5
DC3F
330
1F
100
AcDbEntity
  8
AM_0
100
AcDbCircle
 10
152.603815914312
 20
170.9690168965774
 30
0.0
 40
1.5
100
AcDbArc
 50
180.0
 51
0.0
  0
ARC
  5
DC40
330
1F
100
AcDbEntity
  8
AM_0
100
AcDbCircle
 10
152.603815914312
 20
172.4690168965774
 30
0.0
 40
1.5
100
AcDbArc
 50
0.0
 51
180.0
  0
ARC
  5
DC41
330
1F
100
AcDbEntity
  8
AM_0
100
AcDbCircle
 10
164.603815914312
 20
172.4690168965774
 30
0.0
 40
1.5
100
AcDbArc
 50
0.0
 51
180.0
  0
ARC
  5
DC42
330
1F
100
AcDbEntity
  8
AM_0
100
AcDbCircle
 10
164.603815914312
 20
170.9690168965774
 30
0.0
 40
1.5
100
AcDbArc
 50
180.0
 51
0.0
  0
ARC
  5
DC43
330
1F
100
AcDbEntity
  8
AM_0
100
AcDbCircle
 10
169.6331350316168
 20
115.409731603724
 30
0.0
 40
1.0
100
AcDbArc
 50
1.704728319007792
 51
90.0
  0
POINT
  5
DC4E
330
1F
100
AcDbEntity
  8
AM_0
100
AcDbPoint
 10
305.4854919690348
 20
164.9128193832901
 30
0.0
  0
POINT
  5
DC4F
330
1F
100
AcDbEntity
  8
AM_0
100
AcDbPoint
 10
305.4854919690348
 20
176.9128117538956
 30
0.0
  0
LINE
  5
DC51
330
1F
100
AcDbEntity
  8
AM_0
100
AcDbLine
 10
279.485495783732
 20
164.9128193832901
 30
0.0
 11
305.4854919690348
 21
164.9128193832901
 31
0.0
  0
LINE
  5
DC52
330
1F
100
AcDbEntity
  8
AM_0
100
AcDbLine
 10
279.485495783732
 20
176.9128117538956
 30
0.0
 11
305.4854919690348
 21
176.9128117538956
 31
0.0
  0
LINE
  5
DC54
330
1F
100
AcDbEntity
  8
AM_0
100
AcDbLine
 10
305.4854919690348
 20
176.9128193832901
 30
0.0
 11
305.4854919690348
 21
164.9128193832901
 31
0.0
  0
LINE
  5
DC55
330
1F
100
AcDbEntity
  8
AM_0
100
AcDbLine
 10
279.485495783732
 20
139.9128193832901
 30
0.0
 11
305.4854919690348
 21
139.9128193832901
 31
0.0
  0
LINE
  5
DC56
330
1F
100
AcDbEntity
  8
AM_0
100
AcDbLine
 10
279.485495783732
 20
138.3128190018203
 30
0.0
 11
305.4854919690348
 21
138.3128190018203
 31
0.0
  0
LINE
  5
DC57
330
1F
100
AcDbEntity
  8
AM_0
100
AcDbLine
 10
279.485495783732
 20
139.9128193832901
 30
0.0
 11
279.485495783732
 21
138.3128190018203
 31
0.0
  0
LINE
  5
DC59
330
1F
100
AcDbEntity
  8
AM_0
100
AcDbLine
 10
305.4854919690348
 20
139.9128193832901
 30
0.0
 11
305.4854919690348
 21
138.3128190018203
 31
0.0
  0
LINE
  5
DC5A
330
1F
100
AcDbEntity
  8
AM_0
100
AcDbLine
 10
279.485495783732
 20
176.9128193832901
 30
0.0
 11
279.485495783732
 21
164.9128193832901
 31
0.0
  0
CIRCLE
  5
DC5B
330
1F
100
AcDbEntity
  8
AM_0
100
AcDbCircle
 10
292.4854957837321
 20
170.9128155685928
 30
0.0
 40
3.0
  0
CIRCLE
  5
DC5C
330
1F
100
AcDbEntity
  8
AM_0
100
AcDbCircle
 10
292.4854957837321
 20
170.9128155685928
 30
0.0
 40
2.0
  0
LINE
  5
DC60
330
1F
100
AcDbEntity
  8
AM_0
100
AcDbLine
 10
11.50000000000005
 20
288.5
 30
0.0
 11
91.3887640553956
 21
288.5
 31
0.0
  0
LINE
  5
DC61
330
1F
100
AcDbEntity
  8
AM_2
100
AcDbLine
 10
11.50000000000005
 20
281.5
 30
0.0
 11
91.3887640553956
 21
281.5
 31
0.0
  0
LINE
  5
DC62
330
1F
100
AcDbEntity
  8
AM_0
100
AcDbLine
 10
11.50000000000005
 20
288.5
 30
0.0
 11
11.50000000000021
 21
214.6610000882977
 31
0.0
  0
LINE
  5
DC63
330
1F
100
AcDbEntity
  8
AM_2
100
AcDbLine
 10
34.50000000000009
 20
288.5
 30
0.0
 11
34.49999999999963
 21
214.6610000882979
 31
0.0
  0
LINE
  5
DC64
330
1F
100
AcDbEntity
  8
AM_2
100
AcDbLine
 10
34.5000000000002
 20
228.9830002648923
 30
0.0
 11
34.5000000000002
 21
228.9293335687933
 31
0.0
  0
MTEXT
  5
DC65
330
1F
100
AcDbEntity
  8
AM_6
100
AcDbMText
 10
23.00000000000014
 20
285.0
 30
0.0
 40
3.2
 41
22.99999999999987
 71
     5
 72
     5
  1
品　名
 73
     1
 44
1.0
1001
ACAD
1000
MTEXTBEGIN
1070
    73
1070
     1
1070
    44
1040
1.0
1070
    74
1070
     0
1000
MTEXTEND
1000
ACAD_MTEXT_DEFINED_HEIGHT_BEGIN
1070
    46
1040
6.999999999999955
1000
ACAD_MTEXT_DEFINED_HEIGHT_END
  0
MTEXT
  5
DC66
330
1F
100
AcDbEntity
  8
AM_6
100
AcDbMText
 10
23.00000000000009
 20
278.0
 30
0.0
 40
3.2
 41
23.00000000000001
 71
     5
 72
     5
  1
品 　番
 73
     1
 44
1.0
1001
ACAD
1000
MTEXTBEGIN
1070
    73
1070
     1
1070
    44
1040
1.0
1070
    74
1070
     0
1000
MTEXTEND
1000
ACAD_MTEXT_DEFINED_HEIGHT_BEGIN
1070
    46
1040
7.762029914680923
1000
ACAD_MTEXT_DEFINED_HEIGHT_END
  0
LINE
  5
DC67
330
1F
100
AcDbEntity
  8
AM_0
100
AcDbLine
 10
91.3887640553956
 20
288.5
 30
0.0
 11
91.38876405539509
 21
214.6610000882979
 31
0.0
  0
LINE
  5
DC68
330
1F
100
AcDbEntity
  8
AM_2
100
AcDbLine
 10
11.50000000000005
 20
274.5
 30
0.0
 11
91.3887640553956
 21
274.5
 31
0.0
  0
MTEXT
  5
DC69
330
1F
100
AcDbEntity
  8
AM_6
100
AcDbMText
 10
22.99999999999998
 20
265.6073333921984
 30
0.0
 40
3.2
 41
22.99999999999979
 71
     5
 72
     5
  1
材　質
 73
     1
 44
1.0
1001
ACAD
1000
MTEXTBEGIN
1070
    73
1070
     1
1070
    44
1040
1.0
1070
    74
1070
     0
1000
MTEXTEND
1000
ACAD_MTEXT_DEFINED_HEIGHT_BEGIN
1070
    46
1040
17.78533321560324
1000
ACAD_MTEXT_DEFINED_HEIGHT_END
  0
MTEXT
  5
DC6A
330
1F
100
AcDbEntity
  8
AM_6
100
AcDbMText
 10
23.00000000000011
 20
235.7079584473844
 30
0.0
 40
3.2
 41
22.99999999999993
 71
     5
 72
     5
  1
仕上げ
 73
     1
 44
1.0
1001
ACAD
1000
MTEXTBEGIN
1070
    73
1070
     1
1070
    44
1040
1.0
1070
    74
1070
     0
1000
MTEXTEND
1000
ACAD_MTEXT_DEFINED_HEIGHT_BEGIN
1070
    46
1040
0.0134166740246666
1000
ACAD_MTEXT_DEFINED_HEIGHT_END
  0
MTEXT
  5
DC6B
102
{ACAD_XDICTIONARY
360
E3A4
102
}
330
1F
100
AcDbEntity
  8
AM_6
100
AcDbMText
 10
34.50000000000009
 20
278.112999970568
 30
0.0
 40
3.2
 41
56.88876405539554
 71
     4
 72
     5
  1
　EMC-108（S）
 73
     1
 44
1.0
1001
ACAD
1000
MTEXTBEGIN
1070
    73
1070
     1
1070
    44
1040
1.0
1070
    74
1070
     0
1000
MTEXTEND
1000
ACAD_MTEXT_DEFINED_HEIGHT_BEGIN
1070
    46
1040
5.200000000000001
1000
ACAD_MTEXT_DEFINED_HEIGHT_END
  0
LINE
  5
DC6C
330
1F
100
AcDbEntity
  8
AM_2
100
AcDbLine
 10
34.49999999999986
 20
249.7146667843967
 30
0.0
 11
91.38876405539553
 21
249.7146667843967
 31
0.0
  0
LINE
  5
DC6D
330
1F
100
AcDbEntity
  8
AM_0
100
AcDbLine
 10
11.4999999999994
 20
214.6610000882977
 30
0.0
 11
91.38876405539489
 21
214.6610000882977
 31
0.0
  0
MTEXT
  5
DC6E
330
1F
100
AcDbEntity
  8
AM_6
100
AcDbMText
 10
23.00000000000037
 20
225.3622501986696
 30
0.0
 40
3.2
 41
22.99999999999956
 71
     5
 72
     5
  1
吸着力
 73
     1
 44
1.0
1001
ACAD
1000
MTEXTBEGIN
1070
    73
1070
     1
1070
    44
1040
1.0
1070
    74
1070
     0
1000
MTEXTEND
1000
ACAD_MTEXT_DEFINED_HEIGHT_BEGIN
1070
    46
1040
7.134166740247859
1000
ACAD_MTEXT_DEFINED_HEIGHT_END
  0
LINE
  5
DC6F
330
1F
100
AcDbEntity
  8
AM_2
100
AcDbLine
 10
11.50000000000038
 20
228.9293335687935
 30
0.0
 11
91.38876405539567
 21
228.9293335687935
 31
0.0
  0
MTEXT
  5
DC70
102
{ACAD_XDICTIONARY
360
E3A6
102
}
330
1F
100
AcDbEntity
  8
AM_6
100
AcDbMText
 10
34.50000000000001
 20
225.0423335393612
 30
0.0
 40
3.2
 41
56.88876405539545
 71
     4
 72
     5
  1
　EMC-108：約14.7N（1.5kg）
 73
     1
 44
1.0
1001
ACAD
1000
MTEXTBEGIN
1070
    73
1070
     1
1070
    44
1040
1.0
1070
    74
1070
     0
1000
MTEXTEND
1000
ACAD_MTEXT_DEFINED_HEIGHT_BEGIN
1070
    46
1040
10.2
1000
ACAD_MTEXT_DEFINED_HEIGHT_END
  0
MTEXT
  5
DC71
102
{ACAD_XDICTIONARY
360
E3A8
102
}
330
1F
100
AcDbEntity
  8
AM_6
100
AcDbMText
 10
34.50000000000009
 20
285.0
 30
0.0
 40
3.2
 41
56.88876405539554
 71
     4
 72
     5
  1
　マグネットキャッチ
 73
     1
 44
1.0
1001
ACAD
1000
MTEXTBEGIN
1070
    73
1070
     1
1070
    44
1040
1.0
1070
    74
1070
     0
1000
MTEXTEND
1000
ACAD_MTEXT_DEFINED_HEIGHT_BEGIN
1070
    46
1040
7.000000000000011
1000
ACAD_MTEXT_DEFINED_HEIGHT_END
  0
MTEXT
  5
DC72
102
{ACAD_XDICTIONARY
360
E3AA
102
}
330
1F
100
AcDbEntity
  8
AM_6
100
AcDbMText
 10
34.50000000000013
 20
253.3276667549647
 30
0.0
 40
3.2
 41
56.88876405539549
 71
     4
 72
     5
  1
　ケース：ABS樹脂
 73
     1
 44
1.0
1001
ACAD
1000
MTEXTBEGIN
1070
    73
1070
     1
1070
    44
1040
1.0
1070
    74
1070
     0
1000
MTEXTEND
1000
ACAD_MTEXT_DEFINED_HEIGHT_BEGIN
1070
    46
1040
5.199999999999943
1000
ACAD_MTEXT_DEFINED_HEIGHT_END
  0
MTEXT
  5
DC73
102
{ACAD_XDICTIONARY
360
E3AC
102
}
330
1F
100
AcDbEntity
  8
AM_6
100
AcDbMText
 10
34.50000000000008
 20
246.3276667549648
 30
0.0
 40
3.2
 41
56.88876405539549
 71
     4
 72
     5
  1
　受板：スチール
 73
     1
 44
1.0
1001
ACAD
1000
MTEXTBEGIN
1070
    73
1070
     1
1070
    44
1040
1.0
1070
    74
1070
     0
1000
MTEXTEND
1000
ACAD_MTEXT_DEFINED_HEIGHT_BEGIN
1070
    46
1040
5.199999999999943
1000
ACAD_MTEXT_DEFINED_HEIGHT_END
  0
LINE
  5
DC74
330
1F
100
AcDbEntity
  8
AM_2
100
AcDbLine
 10
11.5
 20
242.7146667843967
 30
0.0
 11
91.38876405539553
 21
242.7146667843967
 31
0.0
  0
LINE
  5
DC75
330
1F
100
AcDbEntity
  8
AM_2
100
AcDbLine
 10
34.49999999999994
 20
235.7146667843967
 30
0.0
 11
91.38876405539562
 21
235.7146667843967
 31
0.0
  0
LINE
  5
DC76
330
1F
100
AcDbEntity
  8
AM_2
100
AcDbLine
 10
34.50000000000009
 20
221.9293335687935
 30
0.0
 11
91.38876405539576
 21
221.9293335687935
 31
0.0
  0
MTEXT
  5
DC77
102
{ACAD_XDICTIONARY
360
E3AE
102
}
330
1F
100
AcDbEntity
  8
AM_6
100
AcDbMText
 10
34.50000000000013
 20
218.0423335393613
 30
0.0
 40
3.2
 41
56.88876405539545
 71
     4
 72
     5
  1
　EMC-108S：約20.6N（2.1kg）
 73
     1
 44
1.0
1001
ACAD
1000
MTEXTBEGIN
1070
    73
1070
     1
1070
    44
1040
1.0
1070
    74
1070
     0
1000
MTEXTEND
1000
ACAD_MTEXT_DEFINED_HEIGHT_BEGIN
1070
    46
1040
10.2
1000
ACAD_MTEXT_DEFINED_HEIGHT_END
  0
MTEXT
  5
DC78
102
{ACAD_XDICTIONARY
360
E3B0
102
}
330
1F
100
AcDbEntity
  8
AM_6
100
AcDbMText
 10
34.50000000000005
 20
239.3276667549648
 30
0.0
 40
3.2
 41
56.88876405539549
 71
     4
 72
     5
  1
　ケース：生地（ブラウン）
 73
     1
 44
1.0
1001
ACAD
1000
MTEXTBEGIN
1070
    73
1070
     1
1070
    44
1040
1.0
1070
    74
1070
     0
1000
MTEXTEND
1000
ACAD_MTEXT_DEFINED_HEIGHT_BEGIN
1070
    46
1040
5.199999999999943
1000
ACAD_MTEXT_DEFINED_HEIGHT_END
  0
MTEXT
  5
DC79
102
{ACAD_XDICTIONARY
360
E3B2
102
}
330
1F
100
AcDbEntity
  8
AM_6
100
AcDbMText
 10
34.50000000000022
 20
232.3276667549647
 30
0.0
 40
3.2
 41
56.88876405539549
 71
     4
 72
     5
  1
　受板：ブロンズメッキ
 73
     1
 44
1.0
1001
ACAD
1000
MTEXTBEGIN
1070
    73
1070
     1
1070
    44
1040
1.0
1070
    74
1070
     0
1000
MTEXTEND
1000
ACAD_MTEXT_DEFINED_HEIGHT_BEGIN
1070
    46
1040
5.199999999999943
1000
ACAD_MTEXT_DEFINED_HEIGHT_END
  0
POINT
  5
DC85
330
1F
100
AcDbEntity
  8
AM_0
100
AcDbPoint
 10
205.9289481057396
 20
108.009731603724
 30
0.0
  0
POINT
  5
DC87
330
1F
100
AcDbEntity
  8
AM_0
100
AcDbPoint
 10
205.9289481057396
 20
108.009731603724
 30
0.0
  0
POINT
  5
DC88
330
1F
100
AcDbEntity
  8
AM_0
100
AcDbPoint
 10
230.1289481057395
 20
108.009731603724
 30
0.0
  0
POINT
  5
DC8B
330
1F
100
AcDbEntity
  8
AM_0
100
AcDbPoint
 10
204.1460664208871
 20
111.209731603724
 30
0.0
  0
POINT
  5
DC8C
330
1F
100
AcDbEntity
  8
AM_0
100
AcDbPoint
 10
204.1460664208871
 20
110.209731603724
 30
0.0
  0
POINT
  5
DC8D
330
1F
100
AcDbEntity
  8
AM_0
100
AcDbPoint
 10
204.1460664208871
 20
114.209731603724
 30
0.0
  0
POINT
  5
DC8E
330
1F
100
AcDbEntity
  8
AM_0
100
AcDbPoint
 10
204.1460664208871
 20
115.2097316037241
 30
0.0
  0
LINE
  5
DC8F
330
1F
100
AcDbEntity
  8
AM_0
100
AcDbLine
 10
230.1289481057395
 20
108.009731603724
 30
0.0
 11
230.1289481057395
 21
109.009731603724
 31
0.0
  0
LINE
  5
DC90
330
1F
100
AcDbEntity
  8
AM_0
100
AcDbLine
 10
205.9289481057396
 20
108.009731603724
 30
0.0
 11
230.1289481057395
 21
108.009731603724
 31
0.0
  0
LINE
  5
DC92
330
1F
100
AcDbEntity
  8
AM_0
100
AcDbLine
 10
220.3952460535275
 20
110.9748321070216
 30
0.0
 11
220.2391572332043
 21
115.4446311004266
 31
0.0
  0
LINE
  5
DC93
330
1F
100
AcDbEntity
  8
AM_0
100
AcDbLine
 10
207.1879713442772
 20
116.409731603724
 30
0.0
 11
219.2397664061853
 21
116.409731603724
 31
0.0
  0
LINE
  5
DC96
330
1F
100
AcDbEntity
  8
AM_0
100
AcDbLine
 10
205.9289481057396
 20
108.009731603724
 30
0.0
 11
206.1885805172581
 21
115.4446311004265
 31
0.0
  0
LINE
  5
DC97
330
1F
100
AcDbEntity
  8
AM_0
100
AcDbLine
 10
221.3996289884348
 20
110.009731603724
 30
0.0
 11
229.1289481057395
 21
110.009731603724
 31
0.0
  0
LINE
  5
DC98
330
1F
100
AcDbEntity
  8
AM_0
100
AcDbLine
 10
204.1460664208871
 20
110.209731603724
 30
0.0
 11
206.0057737986214
 21
110.209731603724
 31
0.0
  0
LINE
  5
DC99
330
1F
100
AcDbEntity
  8
AM_0
100
AcDbLine
 10
204.1460664208871
 20
111.209731603724
 30
0.0
 11
206.0406945681132
 21
111.209731603724
 31
0.0
  0
LINE
  5
DC9A
330
1F
100
AcDbEntity
  8
AM_0
100
AcDbLine
 10
204.1460664208871
 20
114.209731603724
 30
0.0
 11
206.1454568765883
 21
114.209731603724
 31
0.0
  0
LINE
  5
DC9B
330
1F
100
AcDbEntity
  8
AM_0
100
AcDbLine
 10
204.1460664208871
 20
115.2097316037241
 30
0.0
 11
206.1803776460801
 21
115.2097316037241
 31
0.0
  0
LINE
  5
DC9C
330
1F
100
AcDbEntity
  8
AM_0
100
AcDbLine
 10
204.1460664208871
 20
111.209731603724
 30
0.0
 11
204.1460664208871
 21
110.209731603724
 31
0.0
  0
LINE
  5
DC9D
330
1F
100
AcDbEntity
  8
AM_0
100
AcDbLine
 10
204.1460664208871
 20
115.2097316037241
 30
0.0
 11
204.1460664208871
 21
114.209731603724
 31
0.0
  0
ARC
  5
DC9E
330
1F
100
AcDbEntity
  8
AM_0
100
AcDbCircle
 10
229.1289481057395
 20
109.009731603724
 30
0.0
 40
1.0
100
AcDbArc
 50
0.0
 51
90.0
  0
ARC
  5
DC9F
330
1F
100
AcDbEntity
  8
AM_0
100
AcDbCircle
 10
221.3946368805467
 20
111.009731603724
 30
0.0
 40
1.0
100
AcDbArc
 50
182.0000000000004
 51
270.0
  0
ARC
  5
DCA0
330
1F
100
AcDbEntity
  8
AM_0
100
AcDbCircle
 10
219.2397664061853
 20
115.409731603724
 30
0.0
 40
1.0
100
AcDbArc
 50
2.000000000000391
 51
90.0
  0
ARC
  5
DCA1
330
1F
100
AcDbEntity
  8
AM_0
100
AcDbCircle
 10
207.1879713442772
 20
115.409731603724
 30
0.0
 40
1.0
100
AcDbArc
 50
90.0
 51
177.9999999999996
  0
LINE
  5
DCA2
330
1F
100
AcDbEntity
  8
AM_0
100
AcDbLine
 10
206.922405231334
 20
108.009731603724
 30
0.0
 11
206.9298164556959
 21
108.017142828086
 31
0.0
  0
LINE
  5
DE15
330
1F
100
AcDbEntity
  8
AM_0
100
AcDbLine
 10
151.103815914312
 20
170.9690168965774
 30
0.0
 11
151.103815914312
 21
172.4690168965774
 31
0.0
  0
LINE
  5
DE16
330
1F
100
AcDbEntity
  8
AM_7
100
AcDbLine
 10
158.603815914312
 20
180.5190168965773
 30
0.0
 11
158.603815914312
 21
148.5390168965774
 31
0.0
1001
GENIUS_GENODEF_13
1002
{
1000
HIER
1070
     0
1002
}
1002
{
1000
MANEDIT
1070
     0
1002
}
1002
{
1000
NOSEL
1070
     0
1002
}
1002
{
1000
BEHIND
1070
     0
1002
}
1002
{
1000
OTHER
1070
     0
1002
}
1002
{
1000
REACTOR
1002
}
1001
GENIUS_GENOBJ-N-CEN_13
1002
{
1000
OWNER
1000
GEN
1002
}
1001
GENIUS_GENCEN_19
1002
{
1040
3.0
1002
}
  0
LINE
  5
DE17
330
1F
100
AcDbEntity
  8
AM_7
 48
0.5
100
AcDbLine
 10
164.603815914312
 20
176.9690168965774
 30
0.0
 11
164.603815914312
 21
166.4690168965774
 31
0.0
1001
GENIUS_GENODEF_13
1002
{
1000
HIER
1070
     0
1002
}
1002
{
1000
MANEDIT
1070
     0
1002
}
1002
{
1000
NOSEL
1070
     0
1002
}
1002
{
1000
BEHIND
1070
     0
1002
}
1002
{
1000
OTHER
1070
     0
1002
}
1002
{
1000
REACTOR
1002
}
1001
GENIUS_GENOBJ-N-CEN_13
1002
{
1000
OWNER
1000
GEN
1002
}
1001
GENIUS_GENCEN_19
1002
{
1040
3.0
1002
}
  0
LINE
  5
DE18
330
1F
100
AcDbEntity
  8
AM_7
 48
0.5
100
AcDbLine
 10
152.603815914312
 20
176.9690168965774
 30
0.0
 11
152.603815914312
 21
166.4690168965774
 31
0.0
1001
GENIUS_GENOBJ-N-CEN_13
1002
{
1000
OWNER
1000
GEN
1002
}
1001
GENIUS_GENODEF_13
1002
{
1000
HIER
1070
     0
1002
}
1002
{
1000
MANEDIT
1070
     0
1002
}
1002
{
1000
NOSEL
1070
     0
1002
}
1002
{
1000
BEHIND
1070
     0
1002
}
1002
{
1000
OTHER
1070
     0
1002
}
1002
{
1000
REACTOR
1002
}
1001
GENIUS_GENCEN_19
1002
{
1040
3.0
1002
}
  0
LINE
  5
DE19
330
1F
100
AcDbEntity
  8
AM_7
100
AcDbLine
 10
148.103815914312
 20
171.7190168965774
 30
0.0
 11
169.103815914312
 21
171.7190168965774
 31
0.0
1001
GENIUS_GENOBJ-N-CEN_13
1002
{
1000
OWNER
1000
GEN
1002
}
1001
GENIUS_GENODEF_13
1002
{
1000
HIER
1070
     0
1002
}
1002
{
1000
MANEDIT
1070
     0
1002
}
1002
{
1000
NOSEL
1070
     0
1002
}
1002
{
1000
BEHIND
1070
     0
1002
}
1002
{
1000
OTHER
1070
     0
1002
}
1002
{
1000
REACTOR
1002
}
1001
GENIUS_GENCEN_19
1002
{
1040
3.0
1002
}
  0
LINE
  5
DE1A
330
1F
100
AcDbEntity
  8
AM_7
 48
0.8
100
AcDbLine
 10
158.6038159143121
 20
119.409731603724
 30
0.0
 11
158.603815914312
 21
105.009731603724
 31
0.0
1001
GENIUS_GENODEF_13
1002
{
1000
HIER
1070
     0
1002
}
1002
{
1000
MANEDIT
1070
     0
1002
}
1002
{
1000
NOSEL
1070
     0
1002
}
1002
{
1000
BEHIND
1070
     0
1002
}
1002
{
1000
OTHER
1070
     0
1002
}
1002
{
1000
REACTOR
1002
}
1001
GENIUS_GENOBJ-N-CEN_13
1002
{
1000
OWNER
1000
GEN
1002
}
1001
GENIUS_GENCEN_19
1002
{
1040
3.0
1002
}
  0
LINE
  5
DE1B
330
1F
100
AcDbEntity
  8
AM_7
 48
0.8
100
AcDbLine
 10
292.4854938763834
 20
179.9128117538956
 30
0.0
 11
292.4854938763834
 21
161.9128193832901
 31
0.0
1001
GENIUS_GENODEF_13
1002
{
1000
HIER
1070
     0
1002
}
1002
{
1000
MANEDIT
1070
     0
1002
}
1002
{
1000
NOSEL
1070
     0
1002
}
1002
{
1000
BEHIND
1070
     0
1002
}
1002
{
1000
OTHER
1070
     0
1002
}
1002
{
1000
REACTOR
1002
}
1001
GENIUS_GENOBJ-N-CEN_13
1002
{
1000
OWNER
1000
GEN
1002
}
1001
GENIUS_GENCEN_19
1002
{
1040
3.0
1002
}
  0
LINE
  5
DE1C
330
1F
100
AcDbEntity
  8
AM_7
 48
0.8
100
AcDbLine
 10
276.4854957837321
 20
170.9128193832901
 30
0.0
 11
308.4854919690348
 21
170.9128193832901
 31
0.0
1001
GENIUS_GENOBJ-N-CEN_13
1002
{
1000
OWNER
1000
GEN
1002
}
1001
GENIUS_GENODEF_13
1002
{
1000
HIER
1070
     0
1002
}
1002
{
1000
MANEDIT
1070
     0
1002
}
1002
{
1000
NOSEL
1070
     0
1002
}
1002
{
1000
BEHIND
1070
     0
1002
}
1002
{
1000
OTHER
1070
     0
1002
}
1002
{
1000
REACTOR
1002
}
1001
GENIUS_GENCEN_19
1002
{
1040
3.0
1002
}
  0
LINE
  5
DE1D
330
1F
100
AcDbEntity
  8
AM_7
 48
0.4
100
AcDbLine
 10
292.4854938763834
 20
142.9128193832901
 30
0.0
 11
292.4854938763834
 21
135.3128190018203
 31
0.0
1001
GENIUS_GENOBJ-N-CEN_13
1002
{
1000
OWNER
1000
GEN
1002
}
1001
GENIUS_GENODEF_13
1002
{
1000
HIER
1070
     0
1002
}
1002
{
1000
MANEDIT
1070
     0
1002
}
1002
{
1000
NOSEL
1070
     0
1002
}
1002
{
1000
BEHIND
1070
     0
1002
}
1002
{
1000
OTHER
1070
     0
1002
}
1002
{
1000
REACTOR
1002
}
1001
GENIUS_GENCEN_19
1002
{
1040
3.0
1002
}
  0
DIMENSION
  5
DE1E
330
1F
100
AcDbEntity
  8
AM_5
100
AcDbDimension
  2
*D13
 10
164.603815914312
 20
188.9690168965774
 30
0.0
 11
158.603815914312
 21
192.0690168965774
 31
0.0
 70
    32
 71
     5
 42
12.0
  3
SYS$0
100
AcDbAlignedDimension
 13
152.603815914312
 23
176.9690168965774
 33
0.0
 14
164.603815914312
 24
176.9690168965774
 34
0.0
100
AcDbRotatedDimension
1001
ACAD_DSTYLE_DIMINSPECT
1070
   396
1000
100%
1070
   395
1000

1070
   394
1070
    33
1070
   393
1070
     0
  0
DIMENSION
  5
DE46
330
1F
100
AcDbEntity
  8
AM_5
100
AcDbDimension
  2
*D14
 10
181.853815914312
 20
153.3190168965774
 30
0.0
 11
178.753815914312
 21
165.4190168965774
 31
0.0
 70
    32
  1
（<>）
 71
     5
 42
24.19999999999993
  3
SYS$0
100
AcDbAlignedDimension
 13
169.853815914312
 23
177.5190168965773
 33
0.0
 14
169.853815914312
 24
153.3190168965774
 34
0.0
 50
90.00000000000003
100
AcDbRotatedDimension
1001
ACAD_DSTYLE_DIMINSPECT
1070
   396
1000
100%
1070
   395
1000

1070
   394
1070
    33
1070
   393
1070
     0
1001
ACAD
1000
DSTYLE
1002
{
1070
   271
1070
     0
1002
}
  0
DIMENSION
  5
DE89
330
1F
100
AcDbEntity
  8
AM_5
100
AcDbDimension
  2
*D15
 10
181.853815914312
 20
151.5390168965774
 30
0.0
 11
178.753815914312
 21
145.9270168965774
 31
0.0
 70
    32
  1
（<>）
 71
     5
 42
1.780000000000029
  3
SYS$0
100
AcDbAlignedDimension
 13
169.853815914312
 23
153.3190168965774
 33
0.0
 14
166.603815914312
 24
151.5390168965774
 34
0.0
 50
90.00000000000003
100
AcDbRotatedDimension
1001
ACAD_DSTYLE_DIMINSPECT
1070
   396
1000
100%
1070
   395
1000

1070
   394
1070
    33
1070
   393
1070
     0
1001
ACAD
1000
DSTYLE
1002
{
1070
   271
1070
     0
1002
}
  0
DIMENSION
  5
DEDA
330
1F
100
AcDbEntity
  8
AM_5
100
AcDbDimension
  2
*D16
 10
166.603815914312
 20
139.5390168965773
 30
0.0
 11
158.603815914312
 21
142.6390168965774
 31
0.0
 70
    32
 71
     5
 42
16.0
  3
SYS$0
100
AcDbAlignedDimension
 13
150.603815914312
 23
151.5390168965774
 33
0.0
 14
166.603815914312
 24
151.5390168965774
 34
0.0
 50
0.0000000000002036
100
AcDbRotatedDimension
1001
ACAD_DSTYLE_DIMINSPECT
1070
   396
1000
100%
1070
   395
1000

1070
   394
1070
    33
1070
   393
1070
     0
  0
DIMENSION
  5
DF9D
330
1F
100
AcDbEntity
  8
AM_5
100
AcDbDimension
  2
*D17
 10
182.853815914312
 20
116.409731603724
 30
0.0
 11
179.753815914312
 21
112.209731603724
 31
0.0
 70
    32
 71
     5
 42
8.399999999999977
  3
SYS$0
100
AcDbAlignedDimension
 13
170.853815914312
 23
108.009731603724
 33
0.0
 14
170.603815914312
 24
116.409731603724
 34
0.0
 50
90.00000000000003
100
AcDbRotatedDimension
1001
ACAD_DSTYLE_DIMINSPECT
1070
   396
1000
100%
1070
   395
1000

1070
   394
1070
    33
1070
   393
1070
     0
  0
DIMENSION
  5
DFFF
330
1F
100
AcDbEntity
  8
AM_5
100
AcDbDimension
  2
*D18
 10
230.1289481057395
 20
96.00973160372404
 30
0.0
 11
218.0289481057395
 21
99.10973160372403
 31
0.0
 70
    32
 71
     5
 42
24.19999999999993
  3
SYS$0
100
AcDbAlignedDimension
 13
205.9289481057396
 23
108.009731603724
 33
0.0
 14
230.1289481057395
 24
108.009731603724
 34
0.0
 50
0.0000000000001132
100
AcDbRotatedDimension
1001
ACAD_DSTYLE_DIMINSPECT
1070
   396
1000
100%
1070
   395
1000

1070
   394
1070
    33
1070
   393
1070
     0
  0
DIMENSION
  5
E030
330
1F
100
AcDbEntity
  8
AM_5
100
AcDbDimension
  2
*D19
 10
305.4854919690348
 20
152.9128193832901
 30
0.0
 11
292.4854938763834
 21
156.0128193832901
 31
0.0
 70
    32
 71
     5
 42
25.99999618530274
  3
SYS$0
100
AcDbAlignedDimension
 13
279.485495783732
 23
164.9128193832901
 33
0.0
 14
305.4854919690348
 24
164.9128193832901
 34
0.0
 50
0.0000000000001132
100
AcDbRotatedDimension
1001
ACAD_DSTYLE_DIMINSPECT
1070
   396
1000
100%
1070
   395
1000

1070
   394
1070
    33
1070
   393
1070
     0
  0
DIMENSION
  5
E058
330
1F
100
AcDbEntity
  8
AM_5
100
AcDbDimension
  2
*D20
 10
317.4854919690348
 20
164.9128193832901
 30
0.0
 11
314.3854919690347
 21
170.9128193832901
 31
0.0
 70
    32
 71
     5
 42
12.0
  3
SYS$0
100
AcDbAlignedDimension
 13
305.4854919690348
 23
176.9128193832901
 33
0.0
 14
305.4854919690348
 24
164.9128193832901
 34
0.0
 50
90.0
100
AcDbRotatedDimension
1001
ACAD_DSTYLE_DIMINSPECT
1070
   396
1000
100%
1070
   395
1000

1070
   394
1070
    33
1070
   393
1070
     0
  0
DIMENSION
  5
E077
330
1F
100
AcDbEntity
  8
AM_5
100
AcDbDimension
  2
*D21
 10
317.4854919690348
 20
139.9128193832901
 30
0.0
 11
314.3854919690347
 21
147.8394860499568
 31
0.0
 70
    32
  1
t=<>
 71
     5
 42
1.600000381469783
  3
SYS$0
100
AcDbAlignedDimension
 13
305.4854919690348
 23
138.3128190018203
 33
0.0
 14
305.4854919690348
 24
139.9128193832901
 34
0.0
 50
90.0
100
AcDbRotatedDimension
1001
ACAD_DSTYLE_DIMINSPECT
1070
   396
1000
100%
1070
   395
1000

1070
   394
1070
    33
1070
   393
1070
     0
  0
DIMENSION
  5
E0CD
330
1F
100
AcDbEntity
  8
AM_5
100
AcDbDimension
  2
*D22
 10
163.8714934181195
 20
171.1599318108895
 30
0.0
 11
189.8267087501216
 21
188.9944070510051
 31
0.0
 70
   163
  1
2-<>×4.5スロット
 71
     5
 42
3.0
  3
SYS$3
100
AcDbDiametricDimension
 15
165.3361384105045
 25
173.7781019822652
 35
0.0
 40
0.0
1001
ACAD_DSTYLE_DIMRADIAL_EXTENSION
1070
   387
1070
     1
1070
   388
1040
0.0
1070
   390
1040
3.141592653589793
1001
ACAD_DSTYLE_DIMINSPECT
1070
   396
1000
100%
1070
   395
1000

1070
   394
1070
    33
1070
   393
1070
     0
  0
MTEXT
  5
E106
330
1F
100
AcDbEntity
  8
AM_6
100
AcDbMText
 10
292.2819320085685
 20
124.5777974590733
 30
0.0
 40
3.2
 41
26.23176702718513
 71
     5
 72
     5
  1
\L受板\l
 73
     1
 44
1.0
1001
ACAD
1000
MTEXTBEGIN
1070
    73
1070
     1
1070
    44
1040
1.0
1070
    74
1070
     0
1000
MTEXTEND
1000
ACAD_MTEXT_DEFINED_HEIGHT_BEGIN
1070
    46
1040
7.000000000000011
1000
ACAD_MTEXT_DEFINED_HEIGHT_END
  0
DIMENSION
  5
E16B
330
1F
100
AcDbEntity
  8
AM_5
100
AcDbDimension
  2
*D23
 10
170.853815914312
 20
198.9690168965773
 30
0.0
 11
158.603815914312
 21
202.0690168965773
 31
0.0
 70
    32
 71
     5
 42
24.5
  3
SYS$0
100
AcDbAlignedDimension
 13
146.353815914312
 23
176.5190168965773
 33
0.0
 14
170.853815914312
 24
176.5190168965773
 34
0.0
100
AcDbRotatedDimension
1001
ACAD_DSTYLE_DIMINSPECT
1070
   396
1000
100%
1070
   395
1000

1070
   394
1070
    33
1070
   393
1070
     0
  0
DIMENSION
  5
E193
330
1F
100
AcDbEntity
  8
AM_5
100
AcDbDimension
  2
*D24
 10
242.1289481057395
 20
110.009731603724
 30
0.0
 11
239.0289481057395
 21
114.2563982703907
 31
0.0
 70
    32
 71
     5
 42
2.0
  3
SYS$0
100
AcDbAlignedDimension
 13
230.1289481057395
 23
108.009731603724
 33
0.0
 14
229.1289481057395
 24
110.009731603724
 34
0.0
 50
90.00000000000003
100
AcDbRotatedDimension
1001
ACAD_DSTYLE_DIMINSPECT
1070
   396
1000
100%
1070
   395
1000

1070
   394
1070
    33
1070
   393
1070
     0
  0
LINE
  5
E1D1
330
1F
100
AcDbEntity
  8
AM_5
100
AcDbLine
 10
295.0997526532617
 20
175.1749337095545
 30
0.0
 11
300.3552396907493
 21
183.7431392904928
 31
0.0
  0
LINE
  5
E1D2
330
1F
100
AcDbEntity
  8
AM_5
100
AcDbLine
 10
300.3552396907493
 20
183.7431392904928
 30
0.0
 11
318.4452396907493
 21
183.7431392904928
 31
0.0
  0
LINE
  5
E1D3
330
1F
100
AcDbEntity
  8
AM_5
100
AcDbLine
 10
290.9169386102565
 20
168.3555446840158
 30
0.0
 11
294.0540491425103
 21
173.4700864531698
 31
0.0
  0
LWPOLYLINE
  5
E1D4
330
1F
100
AcDbEntity
  8
AM_5
100
AcDbPolyline
 90
        2
 70
     1
 43
0.5
 10
290.7862256714126
 20
168.1424387769678
 42
1.0
 10
291.0476515491004
 20
168.568650591064
 42
1.0
  0
INSERT
  5
E1D5
330
1F
100
AcDbEntity
  8
AM_5
100
AcDbBlockReference
  2
GENDOT
 10
294.0540491425103
 20
173.4700864531698
 30
0.0
 41
1.999999999999997
 42
2.0
 43
2.0
 50
238.4762632530658
  0
MTEXT
  5
E1D6
330
1F
100
AcDbEntity
  8
AM_5
 62
     2
100
AcDbMText
 10
310.1502396907495
 20
186.9931392904928
 30
0.0
 40
3.5
 41
0.0
 71
     5
 72
     1
  1
%%c4×\U+22056サラ
 73
     1
 44
1.0
1001
ACAD
1000
MTEXTBEGIN
1070
    73
1070
     1
1070
    44
1040
1.0
1070
    74
1070
     0
1000
MTEXTEND
  0
MTEXT
  5
E39F
102
{ACAD_XDICTIONARY
360
E3B4
102
}
330
1F
100
AcDbEntity
  8
AM_6
100
AcDbMText
 10
34.50000000000046
 20
271.112999970568
 30
0.0
 40
3.2
 41
48.88876405539517
 71
     4
 72
     5
  1
　マグネット：
 73
     1
 44
1.0
1001
ACAD
1000
MTEXTBEGIN
1070
    73
1070
     1
1070
    44
1040
1.0
1070
    74
1070
     0
1000
MTEXTEND
1000
ACAD_MTEXT_DEFINED_HEIGHT_BEGIN
1070
    46
1040
5.199999999999943
1000
ACAD_MTEXT_DEFINED_HEIGHT_END
  0
MTEXT
  5
E3A0
102
{ACAD_XDICTIONARY
360
E3B6
102
}
330
1F
100
AcDbEntity
  8
AM_6
100
AcDbMText
 10
34.50000000000048
 20
265.612999970568
 30
0.0
 40
3.2
 41
48.88876405539517
 71
     4
 72
     5
  1
　EMC-108：フェライト（等方性）
 73
     1
 44
1.0
1001
ACAD
1000
MTEXTBEGIN
1070
    73
1070
     1
1070
    44
1040
1.0
1070
    74
1070
     0
1000
MTEXTEND
1000
ACAD_MTEXT_DEFINED_HEIGHT_BEGIN
1070
    46
1040
5.199999999999943
1000
ACAD_MTEXT_DEFINED_HEIGHT_END
  0
MTEXT
  5
E3A1
102
{ACAD_XDICTIONARY
360
E3B8
102
}
330
1F
100
AcDbEntity
  8
AM_6
100
AcDbMText
 10
34.50000000000046
 20
260.112999970568
 30
0.0
 40
3.2
 41
55.51485729704811
 71
     4
 72
     5
  1
　EMC-108S：フェライト（異方性）
 73
     1
 44
1.0
1001
ACAD
1000
MTEXTBEGIN
1070
    73
1070
     1
1070
    44
1040
1.0
1070
    74
1070
     0
1000
MTEXTEND
1000
ACAD_MTEXT_DEFINED_HEIGHT_BEGIN
1070
    46
1040
5.199999999999943
1000
ACAD_MTEXT_DEFINED_HEIGHT_END
  0
LINE
  5
E3A2
330
1F
100
AcDbEntity
  8
AM_2
100
AcDbLine
 10
34.49999999999987
 20
256.7146667843967
 30
0.0
 11
91.38876405539555
 21
256.7146667843967
 31
0.0
  0
ENDSEC
  0
SECTION
  2
OBJECTS
  0
DICTIONARY
  5
C
330
0
100
AcDbDictionary
281
     1
  3
ACAD_2007HEADERVARS_RT
350
E3FC
  3
ACAD_BGPLOT_KEY
350
AB06
  3
ACAD_COLOR
350
A91D
  3
ACAD_GROUP
350
D
  3
ACAD_LAYOUT
350
1A
  3
ACAD_MATERIAL
350
A91C
  3
ACAD_MLEADERSTYLE
350
B595
  3
ACAD_MLINESTYLE
350
17
  3
ACAD_PLOTSETTINGS
350
19
  3
ACAD_PLOTSTYLENAME
350
E
  3
ACAD_SCALELIST
350
B573
  3
ACAD_TABLESTYLE
350
AAB9
  3
ACAD_VISUALSTYLE
350
B0F1
  3
AcAsAppObject
350
3DA1
  3
ACASGREF_MASTER
350
3DE9
  3
ACDB_RECOMPOSE_DATA
350
B5B7
  3
AcDbVariableDictionary
350
34
  3
AcmDictionary
350
47
  3
AD_GREF_MODULE
350
3DEA
  3
AD_MAPI_MODULE
350
3E06
  3
AMG
350
2B
  3
AMGSNAPSETTINGS
350
7D
  3
ASE_INDEX_DICTIONARY
350
E2EA
  3
DWGPROPS
350
E3FB
  3
MAPISURF_MODULE
350
3DEB
  0
DICTIONARY
  5
3F95
330
2
100
AcDbDictionary
280
     1
281
     1
  3
ACAD_LAYERFILTERS
360
B4F7
  3
ACAD_LAYERSTATES
360
3F96
  3
ACLYDICTIONARY
360
B4F6
  3
AMLAYER_GROUPCOLORS
360
AAB4
  0
DICTIONARY
  5
BCBC
330
10
100
AcDbDictionary
280
     1
281
     1
  3
ADSK_XREC_LAYER_RECONCILED
360
BCBD
  0
DICTIONARY
  5
BCBE
330
5F85
100
AcDbDictionary
280
     1
281
     1
  3
ADSK_XREC_LAYER_RECONCILED
360
BCBF
  0
DICTIONARY
  5
BCC0
330
AC9F
100
AcDbDictionary
280
     1
281
     1
  3
ADSK_XREC_LAYER_RECONCILED
360
BCC1
  0
DICTIONARY
  5
BCC2
330
ACA0
100
AcDbDictionary
280
     1
281
     1
  3
ADSK_XREC_LAYER_RECONCILED
360
BCC3
  0
DICTIONARY
  5
BCC4
330
ACA1
100
AcDbDictionary
280
     1
281
     1
  3
ADSK_XREC_LAYER_RECONCILED
360
BCC5
  0
DICTIONARY
  5
BCC6
330
ACC8
100
AcDbDictionary
280
     1
281
     1
  3
ADSK_XREC_LAYER_RECONCILED
360
BCC7
  0
DICTIONARY
  5
BCC8
330
ACC9
100
AcDbDictionary
280
     1
281
     1
  3
ADSK_XREC_LAYER_RECONCILED
360
BCC9
  0
DICTIONARY
  5
BCCA
330
ACCA
100
AcDbDictionary
280
     1
281
     1
  3
ADSK_XREC_LAYER_RECONCILED
360
BCCB
  0
DICTIONARY
  5
BCCC
330
AD60
100
AcDbDictionary
280
     1
281
     1
  3
ADSK_XREC_LAYER_RECONCILED
360
BCCD
  0
DICTIONARY
  5
BCCE
330
AD64
100
AcDbDictionary
280
     1
281
     1
  3
ADSK_XREC_LAYER_RECONCILED
360
BCCF
  0
DICTIONARY
  5
BCD0
330
AD67
100
AcDbDictionary
280
     1
281
     1
  3
ADSK_XREC_LAYER_RECONCILED
360
BCD1
  0
DICTIONARY
  5
BCD2
330
AD68
100
AcDbDictionary
280
     1
281
     1
  3
ADSK_XREC_LAYER_RECONCILED
360
BCD3
  0
DICTIONARY
  5
BCD4
330
AD69
100
AcDbDictionary
280
     1
281
     1
  3
ADSK_XREC_LAYER_RECONCILED
360
BCD5
  0
DICTIONARY
  5
BCD6
330
AD6A
100
AcDbDictionary
280
     1
281
     1
  3
ADSK_XREC_LAYER_RECONCILED
360
BCD7
  0
DICTIONARY
  5
BCD8
330
AD6E
100
AcDbDictionary
280
     1
281
     1
  3
ADSK_XREC_LAYER_RECONCILED
360
BCD9
  0
DICTIONARY
  5
BCDA
330
AD6F
100
AcDbDictionary
280
     1
281
     1
  3
ADSK_XREC_LAYER_RECONCILED
360
BCDB
  0
DICTIONARY
  5
BCDC
330
B1B6
100
AcDbDictionary
280
     1
281
     1
  3
ADSK_XREC_LAYER_RECONCILED
360
BCDD
  0
DICTIONARY
  5
BCDE
330
B2EB
100
AcDbDictionary
280
     1
281
     1
  3
ADSK_XREC_LAYER_RECONCILED
360
BCDF
  0
DICTIONARY
  5
BCE0
330
B2EC
100
AcDbDictionary
280
     1
281
     1
  3
ADSK_XREC_LAYER_RECONCILED
360
BCE1
  0
DICTIONARY
  5
CCE7
330
CCE6
100
AcDbDictionary
280
     1
281
     1
  0
DICTIONARY
  5
8A
330
1F
100
AcDbDictionary
280
     1
281
     1
  3
ACAD_SORTENTS
360
B1BA
  0
DICTIONARY
  5
B609
330
B608
100
AcDbDictionary
280
     1
281
     1
  0
DICTIONARY
  5
B612
330
B611
100
AcDbDictionary
280
     1
281
     1
  3
ACAD_SORTENTS
360
B613
  0
DICTIONARY
  5
B686
330
B685
100
AcDbDictionary
280
     1
281
     1
  3
ACAD_SORTENTS
360
B687
  0
DICTIONARY
  5
B690
330
B68F
100
AcDbDictionary
280
     1
281
     1
  3
ACAD_SORTENTS
360
B691
  0
DICTIONARY
  5
BE90
330
BE8F
100
AcDbDictionary
280
     1
281
     1
  3
ACAD_SORTENTS
360
BE91
  0
DICTIONARY
  5
C4D1
330
C4D0
100
AcDbDictionary
280
     1
281
     1
  3
ACAD_SORTENTS
360
C4D2
  0
DICTIONARY
  5
E3A4
330
DC6B
100
AcDbDictionary
280
     1
281
     1
  3
ACAD_MTEXT_2008_RT
360
E3A5
  0
DICTIONARY
  5
E3A6
330
DC70
100
AcDbDictionary
280
     1
281
     1
  3
ACAD_MTEXT_2008_RT
360
E3A7
  0
DICTIONARY
  5
E3A8
330
DC71
100
AcDbDictionary
280
     1
281
     1
  3
ACAD_MTEXT_2008_RT
360
E3A9
  0
DICTIONARY
  5
E3AA
330
DC72
100
AcDbDictionary
280
     1
281
     1
  3
ACAD_MTEXT_2008_RT
360
E3AB
  0
DICTIONARY
  5
E3AC
330
DC73
100
AcDbDictionary
280
     1
281
     1
  3
ACAD_MTEXT_2008_RT
360
E3AD
  0
DICTIONARY
  5
E3AE
330
DC77
100
AcDbDictionary
280
     1
281
     1
  3
ACAD_MTEXT_2008_RT
360
E3AF
  0
DICTIONARY
  5
E3B0
330
DC78
100
AcDbDictionary
280
     1
281
     1
  3
ACAD_MTEXT_2008_RT
360
E3B1
  0
DICTIONARY
  5
E3B2
330
DC79
100
AcDbDictionary
280
     1
281
     1
  3
ACAD_MTEXT_2008_RT
360
E3B3
  0
DICTIONARY
  5
E3B4
330
E39F
100
AcDbDictionary
280
     1
281
     1
  3
ACAD_MTEXT_2008_RT
360
E3B5
  0
DICTIONARY
  5
E3B6
330
E3A0
100
AcDbDictionary
280
     1
281
     1
  3
ACAD_MTEXT_2008_RT
360
E3B7
  0
DICTIONARY
  5
E3B8
330
E3A1
100
AcDbDictionary
280
     1
281
     1
  3
ACAD_MTEXT_2008_RT
360
E3B9
  0
DICTIONARY
  5
E3FC
102
{ACAD_REACTORS
330
C
102
}
330
C
100
AcDbDictionary
281
     1
  3
DIMARCSYM
350
E3FD
  0
DICTIONARY
  5
AB06
102
{ACAD_REACTORS
330
C
102
}
330
C
100
AcDbDictionary
280
     1
281
     1
  0
DICTIONARY
  5
A91D
102
{ACAD_REACTORS
330
C
102
}
330
C
100
AcDbDictionary
281
     1
  0
DICTIONARY
  5
D
102
{ACAD_REACTORS
330
C
102
}
330
C
100
AcDbDictionary
281
     1
  0
DICTIONARY
  5
1A
102
{ACAD_REACTORS
330
C
102
}
330
C
100
AcDbDictionary
281
     1
  3
Model
350
22
  3
ﾚｲｱｳﾄ1
350
1E
  3
ﾚｲｱｳﾄ2
350
26
  0
DICTIONARY
  5
A91C
102
{ACAD_REACTORS
330
C
102
}
330
C
100
AcDbDictionary
281
     1
  3
ByBlock
350
B0EF
  3
ByLayer
350
B0EE
  3
Global
350
B0F0
  0
DICTIONARY
  5
B595
102
{ACAD_REACTORS
330
C
102
}
330
C
100
AcDbDictionary
281
     1
  3
Standard
350
B596
  0
DICTIONARY
  5
17
102
{ACAD_REACTORS
330
C
102
}
330
C
100
AcDbDictionary
281
     1
  3
Standard
350
18
  0
DICTIONARY
  5
19
102
{ACAD_REACTORS
330
C
102
}
330
C
100
AcDbDictionary
281
     1
  0
ACDBDICTIONARYWDFLT
  5
E
102
{ACAD_REACTORS
330
C
102
}
330
C
100
AcDbDictionary
281
     1
  3
Normal
350
F
100
AcDbDictionaryWithDefault
340
F
  0
DICTIONARY
  5
B573
102
{ACAD_REACTORS
330
C
102
}
330
C
100
AcDbDictionary
281
     1
  3
A0
350
B574
  3
A1
350
B575
  3
A2
350
B576
  3
A3
350
B577
  3
A4
350
B578
  3
A5
350
B579
  3
A6
350
B57A
  3
A7
350
B57B
  3
A8
350
B57C
  3
A9
350
B57D
  3
B0
350
B57E
  3
B1
350
B57F
  3
B2
350
B580
  3
B3
350
B581
  3
B4
350
B582
  3
B5
350
B583
  3
B6
350
B584
  3
B7
350
B585
  3
B8
350
B586
  3
B9
350
B587
  3
C0
350
B588
  3
C1
350
B589
  3
C2
350
B58A
  3
C3
350
B58B
  3
C4
350
B58C
  3
C5
350
B58D
  3
C6
350
B58E
  3
C7
350
B58F
  3
C8
350
B590
  3
C9
350
B591
  3
D0
350
B592
  3
D1
350
B593
  3
D2
350
B594
  0
DICTIONARY
  5
AAB9
102
{ACAD_REACTORS
330
C
102
}
330
C
100
AcDbDictionary
281
     1
  3
Standard
350
AABA
  0
DICTIONARY
  5
B0F1
102
{ACAD_REACTORS
330
C
102
}
330
C
100
AcDbDictionary
281
     1
  3
2dWireframe
350
B0F7
  3
3D Hidden
350
B0F9
  3
3dWireframe
350
B0F8
  3
Basic
350
B0F6
  3
Brighten
350
B0FD
  3
ColorChange
350
B101
  3
Conceptual
350
B0FA
  3
Dim
350
B0FC
  3
Facepattern
350
B100
  3
Flat
350
B0F2
  3
FlatWithEdges
350
B0F3
  3
Gouraud
350
B0F4
  3
GouraudWithEdges
350
B0F5
  3
Linepattern
350
B0FF
  3
Realistic
350
B0FB
  3
Thicken
350
B0FE
  0
ACAD_PROXY_OBJECT
  5
3DA1
102
{ACAD_REACTORS
330
C
102
}
330
C
100
AcDbProxyObject
 90
      499
 91
      576
 95
   917527
 70
     0
 93
       10
310
407F
 94
        0
1001
ACAD
1000
AcRTDxfName
1000
ASAPP
  0
ACAD_PROXY_OBJECT
  5
3DE9
102
{ACAD_REACTORS
330
C
102
}
330
C
100
AcDbProxyObject
 90
      499
 91
      581
 95
   917527
 70
     0
 93
       34
310
010000407F
 94
        0
1001
ACAD
1000
AcRTDxfName
1000
ACASGREFMASTER
  0
XRECORD
  5
B5B7
102
{ACAD_REACTORS
330
C
102
}
330
C
100
AcDbXrecord
280
     1
 90
        1
330
AABA
330
DC6B
330
DC70
330
DC71
330
DC72
330
DC73
330
DC77
330
DC78
330
DC79
330
E39F
330
E3A0
330
E3A1
  0
DICTIONARY
  5
34
102
{ACAD_REACTORS
330
C
102
}
330
C
100
AcDbDictionary
281
     1
  3
CANNOSCALE
350
B5BA
  3
CMLEADERSTYLE
350
B5B8
  3
CTABLESTYLE
350
AAF3
  3
DIMASSOC
350
A10C
  3
FIELDEVAL
350
AB07
  3
INDEXCTL
350
35
  3
LIGHTINGUNITS
350
B5BB
  3
MSLTSCALE
350
B5B9
  3
SORTENTS
350
194C
  0
DICTIONARY
  5
47
102
{ACAD_REACTORS
330
C
102
}
330
C
100
AcDbDictionary
281
     1
  3
AcmBOM
350
7E8
  3
AcmStdDictionary
350
4C
  3
AMDTSECTSYM_ARROWCOLOR
350
A929
  0
ACAD_PROXY_OBJECT
  5
3DEA
102
{ACAD_REACTORS
330
C
102
}
330
C
100
AcDbProxyObject
 90
      499
 91
      582
 95
   917527
 70
     0
 93
      114
310
00000043800000000000000000003F
 94
        0
1001
ACAD
1000
AcRTDxfName
1000
ACADGREFMODULE
  0
ACAD_PROXY_OBJECT
  5
3E06
102
{ACAD_REACTORS
330
C
102
}
330
C
100
AcDbProxyObject
 90
      499
 91
      594
 95
   917527
 70
     0
 93
       34
310
05000044FF
 94
        0
1001
ACAD
1000
AcRTDxfName
1000
MAPIADMODULE
  0
DICTIONARY
  5
2B
102
{ACAD_REACTORS
330
C
102
}
330
C
100
AcDbDictionary
281
     1
  0
DICTIONARY
  5
7D
102
{ACAD_REACTORS
330
C
102
}
330
C
100
AcDbDictionary
281
     1
  0
DICTIONARY
  5
E2EA
102
{ACAD_REACTORS
330
C
102
}
330
C
100
AcDbDictionary
281
     1
  3
ASEBlockHierarchyIndexRecord
350
E2EB
1001
DCO15
1040
1750777281.75
  0
XRECORD
  5
E3FB
102
{ACAD_REACTORS
330
C
102
}
330
C
100
AcDbXrecord
280
     1
  1
DWGPROPS COOKIE
  2

  3

  4

  6

  7

  8
Administrator
  9

300
AmdtFileType=84
301
=
302
=
303
=
304
=
305
=
306
=
307
=
308
=
309
=
 40
0.0475162847222222
 41
2456036.773316875
 42
2456267.492276655
  1

 90
        1
  0
ACAD_PROXY_OBJECT
  5
3DEB
102
{ACAD_REACTORS
330
C
102
}
330
C
100
AcDbProxyObject
 90
      499
 91
      583
 95
   917527
 70
     0
 93
        8
310
047E
 94
        0
1001
ACAD
1000
AcRTDxfName
1000
AMDTMAPISURFMOUDULE
  0
DICTIONARY
  5
B4F7
102
{ACAD_REACTORS
330
3F95
102
}
330
3F95
100
AcDbDictionary
281
     1
  0
DICTIONARY
  5
3F96
102
{ACAD_REACTORS
330
3F95
102
}
330
3F95
100
AcDbDictionary
281
     1
  3
20011210
350
3FB7
  0
DICTIONARY
  5
B4F6
102
{ACAD_REACTORS
330
3F95
102
}
330
3F95
100
AcDbDictionary
281
     1
1001
ACAD
1000
<All
  0
DICTIONARY
  5
AAB4
102
{ACAD_REACTORS
330
3F95
102
}
330
3F95
100
AcDbDictionary
280
     1
281
     1
  0
XRECORD
  5
BCBD
102
{ACAD_REACTORS
330
BCBC
102
}
330
BCBC
100
AcDbXrecord
280
     1
290
     1
  0
XRECORD
  5
BCBF
102
{ACAD_REACTORS
330
BCBE
102
}
330
BCBE
100
AcDbXrecord
280
     1
290
     1
  0
XRECORD
  5
BCC1
102
{ACAD_REACTORS
330
BCC0
102
}
330
BCC0
100
AcDbXrecord
280
     1
290
     1
  0
XRECORD
  5
BCC3
102
{ACAD_REACTORS
330
BCC2
102
}
330
BCC2
100
AcDbXrecord
280
     1
290
     1
  0
XRECORD
  5
BCC5
102
{ACAD_REACTORS
330
BCC4
102
}
330
BCC4
100
AcDbXrecord
280
     1
290
     1
  0
XRECORD
  5
BCC7
102
{ACAD_REACTORS
330
BCC6
102
}
330
BCC6
100
AcDbXrecord
280
     1
290
     1
  0
XRECORD
  5
BCC9
102
{ACAD_REACTORS
330
BCC8
102
}
330
BCC8
100
AcDbXrecord
280
     1
290
     1
  0
XRECORD
  5
BCCB
102
{ACAD_REACTORS
330
BCCA
102
}
330
BCCA
100
AcDbXrecord
280
     1
290
     1
  0
XRECORD
  5
BCCD
102
{ACAD_REACTORS
330
BCCC
102
}
330
BCCC
100
AcDbXrecord
280
     1
290
     1
  0
XRECORD
  5
BCCF
102
{ACAD_REACTORS
330
BCCE
102
}
330
BCCE
100
AcDbXrecord
280
     1
290
     1
  0
XRECORD
  5
BCD1
102
{ACAD_REACTORS
330
BCD0
102
}
330
BCD0
100
AcDbXrecord
280
     1
290
     1
  0
XRECORD
  5
BCD3
102
{ACAD_REACTORS
330
BCD2
102
}
330
BCD2
100
AcDbXrecord
280
     1
290
     1
  0
XRECORD
  5
BCD5
102
{ACAD_REACTORS
330
BCD4
102
}
330
BCD4
100
AcDbXrecord
280
     1
290
     1
  0
XRECORD
  5
BCD7
102
{ACAD_REACTORS
330
BCD6
102
}
330
BCD6
100
AcDbXrecord
280
     1
290
     1
  0
XRECORD
  5
BCD9
102
{ACAD_REACTORS
330
BCD8
102
}
330
BCD8
100
AcDbXrecord
280
     1
290
     1
  0
XRECORD
  5
BCDB
102
{ACAD_REACTORS
330
BCDA
102
}
330
BCDA
100
AcDbXrecord
280
     1
290
     1
  0
XRECORD
  5
BCDD
102
{ACAD_REACTORS
330
BCDC
102
}
330
BCDC
100
AcDbXrecord
280
     1
290
     1
  0
XRECORD
  5
BCDF
102
{ACAD_REACTORS
330
BCDE
102
}
330
BCDE
100
AcDbXrecord
280
     1
290
     1
  0
XRECORD
  5
BCE1
102
{ACAD_REACTORS
330
BCE0
102
}
330
BCE0
100
AcDbXrecord
280
     1
290
     1
  0
SORTENTSTABLE
  5
B1BA
102
{ACAD_REACTORS
330
8A
102
}
330
8A
100
AcDbSortentsTable
330
1F
331
B973
  5
B80C
331
C15E
  5
C017
331
C164
  5
C01D
331
B97F
  5
B82E
331
B982
  5
B831
331
C16A
  5
C023
331
C167
  5
C020
331
C161
  5
C01A
331
B976
  5
B824
331
C15C
  5
C015
331
C15F
  5
C018
331
B980
  5
B82F
331
C168
  5
C021
331
C16B
  5
C024
331
C165
  5
C01E
331
C162
  5
C01B
331
B974
  5
B822
331
C15D
  5
C016
331
B981
  5
B830
331
C16C
  5
C025
331
C169
  5
C022
331
C166
  5
C01F
331
C163
  5
C01C
331
B975
  5
B823
  0
SORTENTSTABLE
  5
B613
102
{ACAD_REACTORS
330
B612
102
}
330
B612
100
AcDbSortentsTable
330
B611
  0
SORTENTSTABLE
  5
B687
102
{ACAD_REACTORS
330
B686
102
}
330
B686
100
AcDbSortentsTable
330
B685
  0
SORTENTSTABLE
  5
B691
102
{ACAD_REACTORS
330
B690
102
}
330
B690
100
AcDbSortentsTable
330
B68F
  0
SORTENTSTABLE
  5
BE91
102
{ACAD_REACTORS
330
BE90
102
}
330
BE90
100
AcDbSortentsTable
330
BE8F
  0
SORTENTSTABLE
  5
C4D2
102
{ACAD_REACTORS
330
C4D1
102
}
330
C4D1
100
AcDbSortentsTable
330
C4D0
  0
XRECORD
  5
E3A5
102
{ACAD_REACTORS
330
E3A4
102
}
330
E3A4
100
AcDbXrecord
280
     1
 40
1320829.0
  1
\pxql;　EMC-108（S）
  0
XRECORD
  5
E3A7
102
{ACAD_REACTORS
330
E3A6
102
}
330
E3A6
100
AcDbXrecord
280
     1
 40
3413660.0
  1
\pxql;　EMC-108：約14.7N（1.5kg）
  0
XRECORD
  5
E3A9
102
{ACAD_REACTORS
330
E3A8
102
}
330
E3A8
100
AcDbXrecord
280
     1
 40
686519.0
  1
\pxql;　マグネットキャッチ
  0
XRECORD
  5
E3AB
102
{ACAD_REACTORS
330
E3AA
102
}
330
E3AA
100
AcDbXrecord
280
     1
 40
1027773.0
  1
\pxql;　ケース：ABS樹脂
  0
XRECORD
  5
E3AD
102
{ACAD_REACTORS
330
E3AC
102
}
330
E3AC
100
AcDbXrecord
280
     1
 40
721138.0
  1
\pxql;　受板：スチール
  0
XRECORD
  5
E3AF
102
{ACAD_REACTORS
330
E3AE
102
}
330
E3AE
100
AcDbXrecord
280
     1
 40
3642815.0
  1
\pxql;　EMC-108S：約20.6N（2.1kg）
  0
XRECORD
  5
E3B1
102
{ACAD_REACTORS
330
E3B0
102
}
330
E3B0
100
AcDbXrecord
280
     1
 40
3947642.0
  1
\pxql;　ケース：生地（ブラック・ブラウン）
  0
XRECORD
  5
E3B3
102
{ACAD_REACTORS
330
E3B2
102
}
330
E3B2
100
AcDbXrecord
280
     1
 40
1095610.0
  1
\pxql;　受板：ブロンズメッキ
  0
XRECORD
  5
E3B5
102
{ACAD_REACTORS
330
E3B4
102
}
330
E3B4
100
AcDbXrecord
280
     1
 40
719157.0
  1
\pxql;　マグネット：
  0
XRECORD
  5
E3B7
102
{ACAD_REACTORS
330
E3B6
102
}
330
E3B6
100
AcDbXrecord
280
     1
 40
4961511.0
  1
\pxql;　EMC-108：フェライト（等方性）
  0
XRECORD
  5
E3B9
102
{ACAD_REACTORS
330
E3B8
102
}
330
E3B8
100
AcDbXrecord
280
     1
 40
5277326.0
  1
\pxql;　EMC-108S：フェライト（異方性）
  0
XRECORD
  5
E3FD
102
{ACAD_REACTORS
330
E3FC
102
}
330
E3FC
100
AcDbXrecord
280
     1
 70
     1
  0
LAYOUT
  5
22
102
{ACAD_XDICTIONARY
360
E400
102
}
102
{ACAD_REACTORS
330
1A
102
}
330
1A
100
AcDbPlotSettings
  1

  2
DocuCentre-II C5400
  4
A3
  6
AM_VIEW1
 40
4.857749938964843
 41
4.942420959472656
 42
4.9423828125
 43
4.857757568359375
 44
297.0106506347656
 45
420.0313415527343
 46
-4.894741058349609
 47
-4.884418487548828
 48
0.0000000000000275
 49
0.0
140
420.0
141
297.0
142
1.0
143
1.0
 70
  3748
 72
     1
 73
     1
 74
     4
  7
monochrome.ctb
 75
     0
147
0.9670387807518544
148
-0.0000000000000275
149
0.0
100
AcDbLayout
  1
Model
 70
     1
 71
     0
 10
0.0
 20
0.0
 11
12.0
 21
9.0
 12
0.0
 22
0.0
 32
0.0
 14
0.0
 24
0.0
 34
0.0
 15
0.0
 25
0.0
 35
0.0
146
0.0
 13
0.0
 23
0.0
 33
0.0
 16
1.0
 26
0.0
 36
0.0
 17
0.0
 27
1.0
 37
0.0
 76
     0
330
1F
331
B0EC
1001
ACAD_PSEXT
1000
DocuCentre-II C5400
1000
FX DocuCentre-II C5400
1000
192.168.2.200
1000

1070
     0
  0
LAYOUT
  5
1E
102
{ACAD_XDICTIONARY
360
E3FE
102
}
102
{ACAD_REACTORS
330
1A
102
}
330
1A
100
AcDbPlotSettings
  1

  2
\\ML370\XEROX
  4
A4
  6

 40
3.174999952316284
 41
3.174999952316284
 42
3.175003051757812
 43
3.17498779296875
 44
209.8674926757813
 45
296.6719970703125
 46
0.0
 47
0.0
 48
0.0
 49
0.0
140
0.0
141
0.0
142
1.0
143
1.0
 70
   688
 72
     1
 73
     1
 74
     5
  7
monochrome.ctb
 75
    16
147
1.0
148
0.0
149
0.0
100
AcDbLayout
  1
ﾚｲｱｳﾄ1
 70
     1
 71
     1
 10
-3.17498779296875
 20
-3.174999952316284
 11
293.4970092773438
 21
206.692492723465
 12
0.0
 22
0.0
 32
0.0
 14
1.000000000000000E+20
 24
1.000000000000000E+20
 34
1.000000000000000E+20
 15
-1.000000000000000E+20
 25
-1.000000000000000E+20
 35
-1.000000000000000E+20
146
0.0
 13
0.0
 23
0.0
 33
0.0
 16
1.0
 26
0.0
 36
0.0
 17
0.0
 27
1.0
 37
0.0
 76
     0
330
1B
  0
LAYOUT
  5
26
102
{ACAD_XDICTIONARY
360
E402
102
}
102
{ACAD_REACTORS
330
1A
102
}
330
1A
100
AcDbPlotSettings
  1

  2
\\ML370\XEROX
  4

  6

 40
0.0
 41
0.0
 42
0.0
 43
0.0
 44
0.0
 45
0.0
 46
0.0
 47
0.0
 48
0.0
 49
0.0
140
0.0
141
0.0
142
1.0
143
1.0
 70
   688
 72
     0
 73
     0
 74
     5
  7
monochrome.ctb
 75
    16
147
1.0
148
0.0
149
0.0
100
AcDbLayout
  1
ﾚｲｱｳﾄ2
 70
     1
 71
     2
 10
0.0
 20
0.0
 11
12.0
 21
9.0
 12
0.0
 22
0.0
 32
0.0
 14
0.0
 24
0.0
 34
0.0
 15
0.0
 25
0.0
 35
0.0
146
0.0
 13
0.0
 23
0.0
 33
0.0
 16
1.0
 26
0.0
 36
0.0
 17
0.0
 27
1.0
 37
0.0
 76
     0
330
23
  0
MATERIAL
  5
B0EF
102
{ACAD_XDICTIONARY
360
E407
102
}
102
{ACAD_REACTORS
330
A91C
102
}
330
A91C
100
AcDbMaterial
  1
ByBlock
  0
MATERIAL
  5
B0EE
102
{ACAD_XDICTIONARY
360
E405
102
}
102
{ACAD_REACTORS
330
A91C
102
}
330
A91C
100
AcDbMaterial
  1
ByLayer
  0
MATERIAL
  5
B0F0
102
{ACAD_XDICTIONARY
360
E409
102
}
102
{ACAD_REACTORS
330
A91C
102
}
330
A91C
100
AcDbMaterial
  1
Global
  0
ACAD_PROXY_OBJECT
  5
B596
102
{ACAD_REACTORS
330
B595
102
}
330
B595
100
AcDbProxyObject
 90
      499
 91
      626
 95
  1703963
 70
     0
 93
      817
310
40901902A40600000030400FEFFFFFF8000000000000008102B5E8DC0F42B5CFC0000000000001040405064068000000C1000000000000000410000000000000004102000000304015D94000000000000C03F4214C01D0018401B80190018401C80190028C00CC
340
14
340
0
340
11
340
0
 94
        0
1001
ACAD_MLEADERVER
1070
     2
1001
ACAD
1000
AcRTDxfName
1000
MLEADERSTYLE
  0
MLINESTYLE
  5
18
102
{ACAD_REACTORS
330
17
102
}
330
17
100
AcDbMlineStyle
  2
STANDARD
 70
     0
  3

 62
   256
 51
90.0
 52
90.0
 71
     2
 49
0.5
 62
   256
  6
BYLAYER
 49
-0.5
 62
   256
  6
BYLAYER
  0
ACDBPLACEHOLDER
  5
F
102
{ACAD_REACTORS
330
E
102
}
330
E
  0
ACAD_PROXY_OBJECT
  5
B574
102
{ACAD_REACTORS
330
B573
102
}
330
B573
100
AcDbProxyObject
 90
      499
 91
      625
 95
  1703963
 70
     0
 93
       82
310
968198801D0018801D004C
 94
        0
1001
ACAD
1000
AcRTDxfName
1000
SCALE
  0
ACAD_PROXY_OBJECT
  5
B575
102
{ACAD_REACTORS
330
B573
102
}
330
B573
100
AcDbProxyObject
 90
      499
 91
      625
 95
  1703963
 70
     0
 93
      146
310
9000000000000001008198801D0019001D004C
 94
        0
1001
ACAD
1000
AcRTDxfName
1000
SCALE
  0
ACAD_PROXY_OBJECT
  5
B576
102
{ACAD_REACTORS
330
B573
102
}
330
B573
100
AcDbProxyObject
 90
      499
 91
      625
 95
  1703963
 70
     0
 93
      146
310
9000000000000041008198801D001A001D004C
 94
        0
1001
ACAD
1000
AcRTDxfName
1000
SCALE
  0
ACAD_PROXY_OBJECT
  5
B577
102
{ACAD_REACTORS
330
B573
102
}
330
B573
100
AcDbProxyObject
 90
      499
 91
      625
 95
  1703963
 70
     0
 93
      146
310
9000000000000051008198801D001A801D004C
 94
        0
1001
ACAD
1000
AcRTDxfName
1000
SCALE
  0
ACAD_PROXY_OBJECT
  5
B578
102
{ACAD_REACTORS
330
B573
102
}
330
B573
100
AcDbProxyObject
 90
      499
 91
      625
 95
  1703963
 70
     0
 93
      146
310
9000000000000081008198801D001C001D004C
 94
        0
1001
ACAD
1000
AcRTDxfName
1000
SCALE
  0
ACAD_PROXY_OBJECT
  5
B579
102
{ACAD_REACTORS
330
B573
102
}
330
B573
100
AcDbProxyObject
 90
      499
 91
      625
 95
  1703963
 70
     0
 93
      162
310
9000000000000091008218801D001880180025004C
 94
        0
1001
ACAD
1000
AcRTDxfName
1000
SCALE
  0
ACAD_PROXY_OBJECT
  5
B57A
102
{ACAD_REACTORS
330
B573
102
}
330
B573
100
AcDbProxyObject
 90
      499
 91
      625
 95
  1703963
 70
     0
 93
      162
310
90000000000000C1008218801D0018801B0025004C
 94
        0
1001
ACAD
1000
AcRTDxfName
1000
SCALE
  0
ACAD_PROXY_OBJECT
  5
B57B
102
{ACAD_REACTORS
330
B573
102
}
330
B573
100
AcDbProxyObject
 90
      499
 91
      625
 95
  1703963
 70
     0
 93
      162
310
90000000000000D1008218801D001900180025004C
 94
        0
1001
ACAD
1000
AcRTDxfName
1000
SCALE
  0
ACAD_PROXY_OBJECT
  5
B57C
102
{ACAD_REACTORS
330
B573
102
}
330
B573
100
AcDbProxyObject
 90
      499
 91
      625
 95
  1703963
 70
     0
 93
      162
310
90000000000000F9008218801D001980180025004C
 94
        0
1001
ACAD
1000
AcRTDxfName
1000
SCALE
  0
ACAD_PROXY_OBJECT
  5
B57D
102
{ACAD_REACTORS
330
B573
102
}
330
B573
100
AcDbProxyObject
 90
      499
 91
      625
 95
  1703963
 70
     0
 93
      162
310
9000000000000111008218801D001A00180025004C
 94
        0
1001
ACAD
1000
AcRTDxfName
1000
SCALE
  0
ACAD_PROXY_OBJECT
  5
B57E
102
{ACAD_REACTORS
330
B573
102
}
330
B573
100
AcDbProxyObject
 90
      499
 91
      625
 95
  1703963
 70
     0
 93
      162
310
9000000000000125008218801D001A80180025004C
 94
        0
1001
ACAD
1000
AcRTDxfName
1000
SCALE
  0
ACAD_PROXY_OBJECT
  5
B57F
102
{ACAD_REACTORS
330
B573
102
}
330
B573
100
AcDbProxyObject
 90
      499
 91
      625
 95
  1703963
 70
     0
 93
      178
310
9000000000000165008298801D001880180018002D004C
 94
        0
1001
ACAD
1000
AcRTDxfName
1000
SCALE
  0
ACAD_PROXY_OBJECT
  5
B580
102
{ACAD_REACTORS
330
B573
102
}
330
B573
100
AcDbProxyObject
 90
      499
 91
      625
 95
  1703963
 70
     0
 93
      146
310
8000000000000004048199001D0018801D004C
 94
        0
1001
ACAD
1000
AcRTDxfName
1000
SCALE
  0
ACAD_PROXY_OBJECT
  5
B581
102
{ACAD_REACTORS
330
B573
102
}
330
B573
100
AcDbProxyObject
 90
      499
 91
      625
 95
  1703963
 70
     0
 93
      146
310
800000000000010404819A001D0018801D004C
 94
        0
1001
ACAD
1000
AcRTDxfName
1000
SCALE
  0
ACAD_PROXY_OBJECT
  5
B582
102
{ACAD_REACTORS
330
B573
102
}
330
B573
100
AcDbProxyObject
 90
      499
 91
      625
 95
  1703963
 70
     0
 93
      146
310
800000000000020404819C001D0018801D004C
 94
        0
1001
ACAD
1000
AcRTDxfName
1000
SCALE
  0
ACAD_PROXY_OBJECT
  5
B583
102
{ACAD_REACTORS
330
B573
102
}
330
B573
100
AcDbProxyObject
 90
      499
 91
      625
 95
  1703963
 70
     0
 93
      162
310
80000000000002440482188018001D00188025004C
 94
        0
1001
ACAD
1000
AcRTDxfName
1000
SCALE
  0
ACAD_PROXY_OBJECT
  5
B584
102
{ACAD_REACTORS
330
B573
102
}
330
B573
100
AcDbProxyObject
 90
      499
 91
      625
 95
  1703963
 70
     0
 93
      178
310
800000000000059404829880180018001D0018802D004C
 94
        0
1001
ACAD
1000
AcRTDxfName
1000
SCALE
  0
ACAD_PROXY_OBJECT
  5
B585
102
{ACAD_REACTORS
330
B573
102
}
330
B573
100
AcDbProxyObject
 90
      499
 91
      625
 95
  1703963
 70
     0
 93
      386
310
8000000000000803F0000000000000A1008718801780188019001C00110010001E8010001880138016801800110075004C
 94
        0
1001
ACAD
1000
AcRTDxfName
1000
SCALE
  0
ACAD_PROXY_OBJECT
  5
B586
102
{ACAD_REACTORS
330
B573
102
}
330
B573
100
AcDbProxyObject
 90
      499
 91
      625
 95
  1703963
 70
     0
 93
      370
310
8000000000000903F0000000000000A10086988017801B001A00110010001E801000188013801680180011006D004C
 94
        0
1001
ACAD
1000
AcRTDxfName
1000
SCALE
  0
ACAD_PROXY_OBJECT
  5
B587
102
{ACAD_REACTORS
330
B573
102
}
330
B573
100
AcDbProxyObject
 90
      499
 91
      625
 95
  1703963
 70
     0
 93
      370
310
8000000000000A03F0000000000000A100869880178019801900110010001E801000188013801680180011006D004C
 94
        0
1001
ACAD
1000
AcRTDxfName
1000
SCALE
  0
ACAD_PROXY_OBJECT
  5
B588
102
{ACAD_REACTORS
330
B573
102
}
330
B573
100
AcDbProxyObject
 90
      499
 91
      625
 95
  1703963
 70
     0
 93
      370
310
8000000000000B03F0000000000000A100869880178018801B00110010001E801000188013801680180011006D004C
 94
        0
1001
ACAD
1000
AcRTDxfName
1000
SCALE
  0
ACAD_PROXY_OBJECT
  5
B589
102
{ACAD_REACTORS
330
B573
102
}
330
B573
100
AcDbProxyObject
 90
      499
 91
      625
 95
  1703963
 70
     0
 93
      370
310
8000000000000B83F0000000000000A100869980178019801900110010001E801000188013801680180011006D004C
 94
        0
1001
ACAD
1000
AcRTDxfName
1000
SCALE
  0
ACAD_PROXY_OBJECT
  5
B58A
102
{ACAD_REACTORS
330
B573
102
}
330
B573
100
AcDbProxyObject
 90
      499
 91
      625
 95
  1703963
 70
     0
 93
      354
310
8000000000000C03F0000000000000A10086188017801C00110010001E8010001880138016801800110065004C
 94
        0
1001
ACAD
1000
AcRTDxfName
1000
SCALE
  0
ACAD_PROXY_OBJECT
  5
B58B
102
{ACAD_REACTORS
330
B573
102
}
330
B573
100
AcDbProxyObject
 90
      499
 91
      625
 95
  1703963
 70
     0
 93
      370
310
8000000000000C83F0000000000000A100869980178018801B00110010001E801000188013801680180011006D004C
 94
        0
1001
ACAD
1000
AcRTDxfName
1000
SCALE
  0
ACAD_PROXY_OBJECT
  5
B58C
102
{ACAD_REACTORS
330
B573
102
}
330
B573
100
AcDbProxyObject
 90
      499
 91
      625
 95
  1703963
 70
     0
 93
      354
310
8000000000000D03F0000000000000A10086188017801A00110010001E8010001880138016801800110065004C
 94
        0
1001
ACAD
1000
AcRTDxfName
1000
SCALE
  0
ACAD_PROXY_OBJECT
  5
B58D
102
{ACAD_REACTORS
330
B573
102
}
330
B573
100
AcDbProxyObject
 90
      499
 91
      625
 95
  1703963
 70
     0
 93
      354
310
8000000000000D83F0000000000000A10086198017801C00110010001E8010001880138016801800110065004C
 94
        0
1001
ACAD
1000
AcRTDxfName
1000
SCALE
  0
ACAD_PROXY_OBJECT
  5
B58E
102
{ACAD_REACTORS
330
B573
102
}
330
B573
100
AcDbProxyObject
 90
      499
 91
      625
 95
  1703963
 70
     0
 93
      354
310
8000000000000E03F0000000000000A10086188017801900110010001E8010001880138016801800110065004C
 94
        0
1001
ACAD
1000
AcRTDxfName
1000
SCALE
  0
ACAD_PROXY_OBJECT
  5
B58F
102
{ACAD_REACTORS
330
B573
102
}
330
B573
100
AcDbProxyObject
 90
      499
 91
      625
 95
  1703963
 70
     0
 93
      354
310
8000000000000E83F0000000000000A10086198017801A00110010001E8010001880138016801800110065004C
 94
        0
1001
ACAD
1000
AcRTDxfName
1000
SCALE
  0
ACAD_PROXY_OBJECT
  5
B590
102
{ACAD_REACTORS
330
B573
102
}
330
B573
100
AcDbProxyObject
 90
      499
 91
      625
 95
  1703963
 70
     0
 93
      258
310
90000000000000A100851880110010001E8010001880138016801800110055004C
 94
        0
1001
ACAD
1000
AcRTDxfName
1000
SCALE
  0
ACAD_PROXY_OBJECT
  5
B591
102
{ACAD_REACTORS
330
B573
102
}
330
B573
100
AcDbProxyObject
 90
      499
 91
      625
 95
  1703963
 70
     0
 93
      386
310
8000000000000F83F0000000000000A1008718801680188017801900110010001E8010001880138016801800110075004C
 94
        0
1001
ACAD
1000
AcRTDxfName
1000
SCALE
  0
ACAD_PROXY_OBJECT
  5
B592
102
{ACAD_REACTORS
330
B573
102
}
330
B573
100
AcDbProxyObject
 90
      499
 91
      625
 95
  1703963
 70
     0
 93
      322
310
800000000000008400000000000000A100851980110010001E8010001880138016801800110055004C
 94
        0
1001
ACAD
1000
AcRTDxfName
1000
SCALE
  0
ACAD_PROXY_OBJECT
  5
B593
102
{ACAD_REACTORS
330
B573
102
}
330
B573
100
AcDbProxyObject
 90
      499
 91
      625
 95
  1703963
 70
     0
 93
      322
310
800000000000018400000000000000A100851B00110010001E8010001880138016801800110055004C
 94
        0
1001
ACAD
1000
AcRTDxfName
1000
SCALE
  0
ACAD_PROXY_OBJECT
  5
B594
102
{ACAD_REACTORS
330
B573
102
}
330
B573
100
AcDbProxyObject
 90
      499
 91
      625
 95
  1703963
 70
     0
 93
      370
310
800000000000028400000000000000A100869880138016801800110010001E801000188013801680180011006D004C
 94
        0
1001
ACAD
1000
AcRTDxfName
1000
SCALE
  0
TABLESTYLE
  5
AABA
102
{ACAD_XDICTIONARY
360
B5B5
102
}
102
{ACAD_REACTORS
330
AAB9
102
}
330
AAB9
100
AcDbTableStyle
  3
Standard
 70
     0
 71
     0
 40
1.5
 41
1.5
280
     0
281
     0
  7
STANDARD
140
4.5
170
     2
 62
     0
 63
     7
283
     0
274
    -2
284
     1
 64
     0
275
    -2
285
     1
 65
     0
276
    -2
286
     1
 66
     0
277
    -2
287
     1
 67
     0
278
    -2
288
     1
 68
     0
279
    -2
289
     1
 69
     0
  7
STANDARD
140
6.0
170
     5
 62
     0
 63
     7
283
     0
274
    -2
284
     1
 64
     0
275
    -2
285
     1
 65
     0
276
    -2
286
     1
 66
     0
277
    -2
287
     1
 67
     0
278
    -2
288
     1
 68
     0
279
    -2
289
     1
 69
     0
  7
STANDARD
140
4.5
170
     5
 62
     0
 63
     7
283
     0
274
    -2
284
     1
 64
     0
275
    -2
285
     1
 65
     0
276
    -2
286
     1
 66
     0
277
    -2
287
     1
 67
     0
278
    -2
288
     1
 68
     0
279
    -2
289
     1
 69
     0
  0
VISUALSTYLE
  5
B0F7
102
{ACAD_REACTORS
330
B0F1
102
}
330
B0F1
100
AcDbVisualStyle
  2
2dWireframe
 70
     4
 71
     0
 72
     2
 73
     0
 90
        0
 40
-0.6
 41
-30.0
 62
     5
 63
     7
 74
     1
 91
        4
 64
     7
 65
   257
 75
     1
175
     1
 42
1.0
 92
        0
 66
   257
 43
1.0
 76
     1
 77
     6
 78
     2
 67
     7
 79
     5
170
     0
171
     0
290
     0
174
     0
 93
        1
 44
0.0
173
     0
291
     0
 45
0.0
1001
ACAD
1000
AcDbSavedByObjectVersion
1070
     0
  0
VISUALSTYLE
  5
B0F9
102
{ACAD_REACTORS
330
B0F1
102
}
330
B0F1
100
AcDbVisualStyle
  2
3D Hidden
 70
     6
 71
     1
 72
     2
 73
     2
 90
        0
 40
-0.6
 41
-30.0
 62
     5
 63
     7
 74
     2
 91
        2
 64
     7
 65
   257
 75
     2
175
     1
 42
40.0
 92
        0
 66
   257
 43
1.0
 76
     1
 77
     6
 78
     2
 67
     7
 79
     3
170
     0
171
     0
290
     0
174
     0
 93
        1
 44
0.0
173
     0
291
     0
 45
0.0
1001
ACAD
1000
AcDbSavedByObjectVersion
1070
     0
  0
VISUALSTYLE
  5
B0F8
102
{ACAD_REACTORS
330
B0F1
102
}
330
B0F1
100
AcDbVisualStyle
  2
3dWireframe
 70
     5
 71
     0
 72
     2
 73
     0
 90
        0
 40
-0.6
 41
-30.0
 62
     5
 63
     7
 74
     1
 91
        4
 64
     7
 65
   257
 75
     1
175
     1
 42
1.0
 92
        0
 66
   257
 43
1.0
 76
     1
 77
     6
 78
     2
 67
     7
 79
     5
170
     0
171
     0
290
     0
174
     0
 93
        1
 44
0.0
173
     0
291
     0
 45
0.0
1001
ACAD
1000
AcDbSavedByObjectVersion
1070
     0
  0
VISUALSTYLE
  5
B0F6
102
{ACAD_REACTORS
330
B0F1
102
}
330
B0F1
100
AcDbVisualStyle
  2
Basic
 70
     7
 71
     1
 72
     0
 73
     1
 90
        0
 40
-0.6
 41
-30.0
 62
     5
 63
     7
 74
     0
 91
        4
 64
     7
 65
   257
 75
     1
175
     1
 42
1.0
 92
        8
 66
     7
 43
1.0
 76
     1
 77
     6
 78
     2
 67
     7
 79
     5
170
     0
171
     0
290
     0
174
     0
 93
        1
 44
0.0
173
     0
291
     1
 45
0.0
1001
ACAD
1000
AcDbSavedByObjectVersion
1070
     0
  0
VISUALSTYLE
  5
B0FD
102
{ACAD_REACTORS
330
B0F1
102
}
330
B0F1
100
AcDbVisualStyle
  2
Brighten
 70
    12
 71
     2
 72
     2
 73
     0
 90
        0
 40
-0.6
 41
-30.0
 62
     5
 63
     7
 74
     1
 91
        4
 64
     7
 65
   257
 75
     1
175
     1
 42
1.0
 92
        8
 66
     7
 43
1.0
 76
     1
 77
     6
 78
     2
 67
     7
 79
     5
170
     0
171
     0
290
     0
174
     0
 93
        1
 44
50.0
173
     0
291
     1
 45
0.0
1001
ACAD
1000
AcDbSavedByObjectVersion
1070
     0
  0
VISUALSTYLE
  5
B101
102
{ACAD_REACTORS
330
B0F1
102
}
330
B0F1
100
AcDbVisualStyle
  2
ColorChange
 70
    16
 71
     2
 72
     2
 73
     3
 90
        0
 40
-0.6
 41
-30.0
 62
     5
 63
     8
 74
     1
 91
        4
 64
     7
 65
   257
 75
     1
175
     1
 42
1.0
 92
        8
 66
     8
 43
1.0
 76
     1
 77
     6
 78
     2
 67
     7
 79
     5
170
     0
171
     0
290
     0
174
     0
 93
        1
 44
0.0
173
     0
291
     1
 45
0.0
1001
ACAD
1000
AcDbSavedByObjectVersion
1070
     0
  0
VISUALSTYLE
  5
B0FA
102
{ACAD_REACTORS
330
B0F1
102
}
330
B0F1
100
AcDbVisualStyle
  2
Conceptual
 70
     9
 71
     3
 72
     2
 73
     0
 90
        0
 40
-0.6
 41
-30.0
 62
     5
 63
     7
 74
     2
 91
        2
 64
     7
 65
   257
 75
     1
175
     1
 42
40.0
 92
        8
 66
     7
 43
1.0
 76
     1
 77
     6
 78
     2
 67
     7
 79
     3
170
     0
171
     0
290
     0
174
     0
 93
        1
 44
0.0
173
     0
291
     0
 45
0.0
1001
ACAD
1000
AcDbSavedByObjectVersion
1070
     0
  0
VISUALSTYLE
  5
B0FC
102
{ACAD_REACTORS
330
B0F1
102
}
330
B0F1
100
AcDbVisualStyle
  2
Dim
 70
    11
 71
     2
 72
     2
 73
     0
 90
        0
 40
-0.6
 41
-30.0
 62
     5
 63
     7
 74
     1
 91
        4
 64
     7
 65
   257
 75
     1
175
     1
 42
1.0
 92
        8
 66
     7
 43
1.0
 76
     1
 77
     6
 78
     2
 67
     7
 79
     5
170
     0
171
     0
290
     0
174
     0
 93
        1
 44
-50.0
173
     0
291
     1
 45
0.0
1001
ACAD
1000
AcDbSavedByObjectVersion
1070
     0
  0
VISUALSTYLE
  5
B100
102
{ACAD_REACTORS
330
B0F1
102
}
330
B0F1
100
AcDbVisualStyle
  2
Facepattern
 70
    15
 71
     2
 72
     2
 73
     0
 90
        0
 40
-0.6
 41
-30.0
 62
     5
 63
     7
 74
     1
 91
        4
 64
     7
 65
   257
 75
     1
175
     1
 42
1.0
 92
        8
 66
     7
 43
1.0
 76
     1
 77
     6
 78
     2
 67
     7
 79
     5
170
     0
171
     0
290
     0
174
     0
 93
        1
 44
0.0
173
     0
291
     1
 45
0.0
1001
ACAD
1000
AcDbSavedByObjectVersion
1070
     0
  0
VISUALSTYLE
  5
B0F2
102
{ACAD_REACTORS
330
B0F1
102
}
330
B0F1
100
AcDbVisualStyle
  2
Flat
 70
     0
 71
     2
 72
     1
 73
     1
 90
        2
 40
-0.6
 41
30.0
 62
     5
 63
     7
 74
     0
 91
        4
 64
     7
 65
   257
 75
     1
175
     1
 42
1.0
 92
        8
 66
     7
 43
1.0
 76
     1
 77
     6
 78
     2
 67
     7
 79
     5
170
     0
171
     0
290
     0
174
     0
 93
       13
 44
0.0
173
     0
291
     1
 45
0.0
1001
ACAD
1000
AcDbSavedByObjectVersion
1070
     0
  0
VISUALSTYLE
  5
B0F3
102
{ACAD_REACTORS
330
B0F1
102
}
330
B0F1
100
AcDbVisualStyle
  2
FlatWithEdges
 70
     1
 71
     2
 72
     1
 73
     1
 90
        2
 40
-0.6
 41
30.0
 62
     5
 63
     7
 74
     1
 91
        4
 64
     7
 65
   257
 75
     1
175
     1
 42
1.0
 92
        0
 66
   257
 43
1.0
 76
     1
 77
     6
 78
     2
 67
     7
 79
     5
170
     0
171
     0
290
     0
174
     0
 93
       13
 44
0.0
173
     0
291
     1
 45
0.0
1001
ACAD
1000
AcDbSavedByObjectVersion
1070
     0
  0
VISUALSTYLE
  5
B0F4
102
{ACAD_REACTORS
330
B0F1
102
}
330
B0F1
100
AcDbVisualStyle
  2
Gouraud
 70
     2
 71
     2
 72
     2
 73
     1
 90
        2
 40
-0.6
 41
30.0
 62
     5
 63
     7
 74
     0
 91
        4
 64
     7
 65
   257
 75
     1
175
     1
 42
1.0
 92
        0
 66
     7
 43
1.0
 76
     1
 77
     6
 78
     2
 67
     7
 79
     5
170
     0
171
     0
290
     0
174
     0
 93
       13
 44
0.0
173
     0
291
     1
 45
0.0
1001
ACAD
1000
AcDbSavedByObjectVersion
1070
     0
  0
VISUALSTYLE
  5
B0F5
102
{ACAD_REACTORS
330
B0F1
102
}
330
B0F1
100
AcDbVisualStyle
  2
GouraudWithEdges
 70
     3
 71
     2
 72
     2
 73
     1
 90
        2
 40
-0.6
 41
30.0
 62
     5
 63
     7
 74
     1
 91
        4
 64
     7
 65
   257
 75
     1
175
     1
 42
1.0
 92
        0
 66
   257
 43
1.0
 76
     1
 77
     6
 78
     2
 67
     7
 79
     5
170
     0
171
     0
290
     0
174
     0
 93
       13
 44
0.0
173
     0
291
     1
 45
0.0
1001
ACAD
1000
AcDbSavedByObjectVersion
1070
     0
  0
VISUALSTYLE
  5
B0FF
102
{ACAD_REACTORS
330
B0F1
102
}
330
B0F1
100
AcDbVisualStyle
  2
Linepattern
 70
    14
 71
     2
 72
     2
 73
     0
 90
        0
 40
-0.6
 41
-30.0
 62
     5
 63
     7
 74
     1
 91
        4
 64
     7
 65
   257
 75
     7
175
     7
 42
1.0
 92
        8
 66
     7
 43
1.0
 76
     1
 77
     6
 78
     2
 67
     7
 79
     5
170
     0
171
     0
290
     0
174
     0
 93
        1
 44
0.0
173
     0
291
     1
 45
0.0
1001
ACAD
1000
AcDbSavedByObjectVersion
1070
     0
  0
VISUALSTYLE
  5
B0FB
102
{ACAD_REACTORS
330
B0F1
102
}
330
B0F1
100
AcDbVisualStyle
  2
Realistic
 70
     8
 71
     2
 72
     2
 73
     0
 90
        0
 40
-0.6
 41
-30.0
 62
     5
 63
     7
 74
     1
 91
        0
 64
     7
 65
   257
 75
     1
175
     1
 42
1.0
 92
        8
 66
     8
 43
1.0
 76
     1
 77
     6
 78
     2
 67
     7
 79
     5
170
     0
171
     0
290
     0
174
     0
 93
       13
 44
0.0
173
     0
291
     0
 45
0.0
1001
ACAD
1000
AcDbSavedByObjectVersion
1070
     0
  0
VISUALSTYLE
  5
B0FE
102
{ACAD_REACTORS
330
B0F1
102
}
330
B0F1
100
AcDbVisualStyle
  2
Thicken
 70
    13
 71
     2
 72
     2
 73
     0
 90
        0
 40
-0.6
 41
-30.0
 62
     5
 63
     7
 74
     1
 91
        4
 64
     7
 65
   257
 75
     1
175
     1
 42
1.0
 92
       12
 66
     7
 43
1.0
 76
     1
 77
     6
 78
     2
 67
     7
 79
     5
170
     0
171
     0
290
     0
174
     0
 93
        1
 44
0.0
173
     0
291
     1
 45
0.0
1001
ACAD
1000
AcDbSavedByObjectVersion
1070
     0
  0
DICTIONARYVAR
  5
B5BA
102
{ACAD_REACTORS
330
34
102
}
330
34
100
DictionaryVariables
280
     0
  1
1:1
  0
DICTIONARYVAR
  5
B5B8
102
{ACAD_REACTORS
330
34
102
}
330
34
100
DictionaryVariables
280
     0
  1
STANDARD
  0
DICTIONARYVAR
  5
AAF3
102
{ACAD_REACTORS
330
34
102
}
330
34
100
DictionaryVariables
280
     0
  1
STANDARD
  0
DICTIONARYVAR
  5
A10C
102
{ACAD_REACTORS
330
34
102
}
330
34
100
DictionaryVariables
280
     0
  1
1
  0
DICTIONARYVAR
  5
AB07
102
{ACAD_REACTORS
330
34
102
}
330
34
100
DictionaryVariables
280
     0
  1
4
  0
DICTIONARYVAR
  5
35
102
{ACAD_REACTORS
330
34
102
}
330
34
100
DictionaryVariables
280
     0
  1
0
  0
DICTIONARYVAR
  5
B5BB
102
{ACAD_REACTORS
330
34
102
}
330
34
100
DictionaryVariables
280
     0
  1
0
  0
DICTIONARYVAR
  5
B5B9
102
{ACAD_REACTORS
330
34
102
}
330
34
100
DictionaryVariables
280
     0
  1
0
  0
DICTIONARYVAR
  5
194C
102
{ACAD_REACTORS
330
34
102
}
330
34
100
DictionaryVariables
280
     0
  1
96
  0
DICTIONARY
  5
7E8
102
{ACAD_REACTORS
330
47
102
}
330
47
100
AcDbDictionary
281
     1
  0
DICTIONARY
  5
4C
102
{ACAD_REACTORS
330
47
102
}
330
47
100
AcDbDictionary
281
     1
  0
XRECORD
  5
A929
102
{ACAD_REACTORS
330
47
102
}
330
47
100
AcDbXrecord
280
     1
 90
-1023410169
  0
XRECORD
  5
E2EB
102
{ACAD_REACTORS
330
E2EA
102
}
330
E2EA
100
AcDbXrecord
280
     1
330
E1D5
330
B60F
330
E23F
330
E240
330
E248
330
E249
330
E253
330
E254
330
E25C
330
E25D
330
DFC8
330
DFC9
330
E02A
330
E02B
330
E274
330
E275
330
E27D
330
E27E
330
E288
330
E289
330
E265
330
E26B
330
E26C
330
E1BD
330
E1BE
  0
XRECORD
  5
3FB7
102
{ACAD_REACTORS
330
3F96
102
}
330
3F96
100
AcDbXrecord
280
     1
 91
        3
330
0
 90
        8
 62
     7
370
    40
331
16
  1
Color_7
330
0
 90
        0
 62
    14
370
    -3
331
16
  1
Color_14
330
0
 90
        8
 62
     7
370
    20
331
16
  1
Color_7
330
6D1
 90
        0
 62
     7
370
    -3
331
16
  1
Color_7
330
0
 90
        8
 62
     7
370
    50
331
16
  1
Color_7
330
0
 90
        8
 62
     2
370
    35
331
16
  1
Color_2
330
0
 90
        8
 62
     7
370
    -3
331
16
  1
Color_7
330
10
 90
        8
 62
     7
370
    -3
331
16
  1
Color_7
  0
DICTIONARY
  5
E400
330
22
100
AcDbDictionary
280
     1
281
     1
  3
ACAD_XREC_ROUNDTRIP
360
E401
  0
DICTIONARY
  5
E3FE
330
1E
100
AcDbDictionary
280
     1
281
     1
  3
ACAD_XREC_ROUNDTRIP
360
E3FF
  0
DICTIONARY
  5
E402
330
26
100
AcDbDictionary
280
     1
281
     1
  3
ACAD_XREC_ROUNDTRIP
360
E403
  0
DICTIONARY
  5
E407
330
B0EF
100
AcDbDictionary
280
     1
281
     1
  3
ACAD_XREC_ROUNDTRIP
360
E408
  0
DICTIONARY
  5
E405
330
B0EE
100
AcDbDictionary
280
     1
281
     1
  3
ACAD_XREC_ROUNDTRIP
360
E406
  0
DICTIONARY
  5
E409
330
B0F0
100
AcDbDictionary
280
     1
281
     1
  3
ACAD_XREC_ROUNDTRIP
360
E40A
  0
DICTIONARY
  5
B5B5
330
AABA
100
AcDbDictionary
280
     1
281
     1
  3
ACAD_ROUNDTRIP_2008_TABLESTYLE_CELLSTYLEMAP
360
E3A3
  3
ACAD_XREC_ROUNDTRIP
360
E404
  0
XRECORD
  5
E401
102
{ACAD_REACTORS
330
E400
102
}
330
E400
100
AcDbXrecord
280
     1
102
SHADEPLOT
 70
     0
102
SHADEPLOTRESLEVEL
 70
     2
102
SHADEPLOTCUSTOMDPI
 70
   200
  0
XRECORD
  5
E3FF
102
{ACAD_REACTORS
330
E3FE
102
}
330
E3FE
100
AcDbXrecord
280
     1
102
SHADEPLOT
 70
     0
102
SHADEPLOTRESLEVEL
 70
     2
102
SHADEPLOTCUSTOMDPI
 70
   300
  0
XRECORD
  5
E403
102
{ACAD_REACTORS
330
E402
102
}
330
E402
100
AcDbXrecord
280
     1
102
SHADEPLOT
 70
     0
102
SHADEPLOTRESLEVEL
 70
     2
102
SHADEPLOTCUSTOMDPI
 70
   300
  0
XRECORD
  5
E408
102
{ACAD_REACTORS
330
E407
102
}
330
E407
100
AcDbXrecord
280
     1
102
MATERIAL
148
0.0
149
0.0
149
0.0
 93
        0
 94
       63
282
     0
 72
     1
 77
     1
171
     1
175
     1
179
     1
273
     0
  0
XRECORD
  5
E406
102
{ACAD_REACTORS
330
E405
102
}
330
E405
100
AcDbXrecord
280
     1
102
MATERIAL
148
0.0
149
0.0
149
0.0
 93
        0
 94
       63
282
     0
 72
     1
 77
     1
171
     1
175
     1
179
     1
273
     0
  0
XRECORD
  5
E40A
102
{ACAD_REACTORS
330
E409
102
}
330
E409
100
AcDbXrecord
280
     1
102
MATERIAL
148
0.0
149
0.0
149
0.0
 93
        0
 94
       63
282
     0
 72
     1
 77
     1
171
     1
175
     1
179
     1
273
     0
  0
ACAD_PROXY_OBJECT
  5
E3A3
102
{ACAD_REACTORS
330
B5B5
102
}
330
B5B5
100
AcDbProxyObject
 90
      499
 91
      628
 95
  1703963
 70
     0
 93
     5369
310
40D054060020000020000003200101A4129416000000304000000000000001840404000000000000F83F0000000000003E0FC000000000000F83F0000000000003E0FC0AD7A3703D0AC73F02B5E8DC0F42B1CFD0640640600000030400FEFFFFFF80AD7A3703D0AA73F40A40600000030400FEFFFFFF80AD7A3703D0AA73F4
310
1240600000030400FEFFFFFF80AD7A3703D0AA73F42240600000030400FEFFFFFF80AD7A3703D0AA73F44240600000030400FEFFFFFF80AD7A3703D0AA73F48240600000030400FEFFFFFF80AD7A3703D0AA73F4050141501A8000000C800406904A5058000000C10000000000000004901010000000000003E0FC00000000
310
0000F83F0000000000003E0FC000000000000F83F02B5E8DC0F42B1CFC0AD7A3703D0AC73F419019018000000C1003FBFFFFFE02B5E8DC0F42A9CFD029018000000C1003FBFFFFFE02B5E8DC0F42A9CFD049018000000C1003FBFFFFFE02B5E8DC0F42A9CFD089018000000C1003FBFFFFFE02B5E8DC0F42A9CFD109018000
310
000C1003FBFFFFFE02B5E8DC0F42A9CFD209018000000C1003FBFFFFFE02B5E8DC0F42A9CFD0240505406A0000003200101A412940A000000304000000000000001240404000000000000F83F0000000000003E0FC000000000000F83F0000000000003E0FC0AD7A3703D0AC73F02B5E8DC0F42B1CFD064064060000003040
310
0FEFFFFFF80AD7A3703D0AA73F40A40600000030400FEFFFFFF80AD7A3703D0AA73F41240600000030400FEFFFFFF80AD7A3703D0AA73F42240600000030400FEFFFFFF80AD7A3703D0AA73F44240600000030400FEFFFFFF80AD7A3703D0AA73F48240600000030400FEFFFFFF80AD7A3703D0AA73F40D029065F00540049
310
0054004C0045009075F004800450041004400450052009055F0044004100540041004401CC
340
11
340
0
340
0
340
0
340
0
340
0
340
0
340
11
340
0
340
0
340
0
340
0
340
0
340
0
340
11
340
0
340
0
340
0
340
0
340
0
340
0
 94
        0
1001
ACAD
1000
AcRTDxfName
1000
CELLSTYLEMAP
  0
XRECORD
  5
E404
102
{ACAD_REACTORS
330
B5B5
102
}
330
B5B5
100
AcDbXrecord
280
     1
102
ACAD_ROUNDTRIP_PRE2007_TABLESTYLE
 90
        4
 91
        0
  1

 92
        4
 93
        0
  2

 94
        4
 95
        0
  3

  0
ENDSEC
  0
EOF
