  0
SECTION
  2
HEADER
  9
$ACADVER
  1
AC1015
  9
$ACADMAINTVER
 70
    20
  9
$DWGCODEPAGE
  3
ANSI_932
  9
$INSBASE
 10
0.0
 20
0.0
 30
0.0
  9
$EXTMIN
 10
0.0
 20
0.0
 30
0.0
  9
$EXTMAX
 10
420.0
 20
297.0
 30
0.0
  9
$LIMMIN
 10
0.0
 20
0.0
  9
$LIMMAX
 10
420.0
 20
297.0
  9
$ORTHOMODE
 70
     0
  9
$REGENMODE
 70
     1
  9
$FILLMODE
 70
     1
  9
$QTEXTMODE
 70
     0
  9
$MIRRTEXT
 70
     0
  9
$LTSCALE
 40
1.0
  9
$ATTMODE
 70
     1
  9
$TEXTSIZE
 40
3.2
  9
$TRACEWID
 40
1.0
  9
$TEXTSTYLE
  7
STANDARD
  9
$CLAYER
  8
AM_0
  9
$CELTYPE
  6
ByLayer
  9
$CECOLOR
 62
   256
  9
$CELTSCALE
 40
1.0
  9
$DISPSILH
 70
     0
  9
$DIMSCALE
 40
1.0
  9
$DIMASZ
 40
1.0
  9
$DIMEXO
 40
1.0
  9
$DIMDLI
 40
10.0
  9
$DIMRND
 40
0.0
  9
$DIMDLE
 40
0.0
  9
$DIMEXE
 40
1.0
  9
$DIMTP
 40
0.1
  9
$DIMTM
 40
0.1
  9
$DIMTXT
 40
3.5
  9
$DIMCEN
 40
0.0
  9
$DIMTSZ
 40
0.0
  9
$DIMTOL
 70
     0
  9
$DIMLIM
 70
     0
  9
$DIMTIH
 70
     0
  9
$DIMTOH
 70
     0
  9
$DIMSE1
 70
     0
  9
$DIMSE2
 70
     0
  9
$DIMTAD
 70
     1
  9
$DIMZIN
 70
     8
  9
$DIMBLK
  1

  9
$DIMASO
 70
     1
  9
$DIMSHO
 70
     1
  9
$DIMPOST
  1

  9
$DIMAPOST
  1
"
  9
$DIMALT
 70
     0
  9
$DIMALTD
 70
     2
  9
$DIMALTF
 40
0.0393701
  9
$DIMLFAC
 40
1.0
  9
$DIMTOFL
 70
     1
  9
$DIMTVP
 40
0.0
  9
$DIMTIX
 70
     0
  9
$DIMSOXD
 70
     0
  9
$DIMSAH
 70
     0
  9
$DIMBLK1
  1

  9
$DIMBLK2
  1

  9
$DIMSTYLE
  2
SYS
  9
$DIMCLRD
 70
   256
  9
$DIMCLRE
 70
   256
  9
$DIMCLRT
 70
     7
  9
$DIMTFAC
 40
0.71
  9
$DIMGAP
 40
1.5
  9
$DIMJUST
 70
     0
  9
$DIMSD1
 70
     0
  9
$DIMSD2
 70
     0
  9
$DIMTOLJ
 70
     0
  9
$DIMTZIN
 70
     8
  9
$DIMALTZ
 70
     0
  9
$DIMALTTZ
 70
     0
  9
$DIMUPT
 70
     0
  9
$DIMDEC
 70
     2
  9
$DIMTDEC
 70
     2
  9
$DIMALTU
 70
     2
  9
$DIMALTTD
 70
     2
  9
$DIMTXSTY
  7
STANDARD
  9
$DIMAUNIT
 70
     0
  9
$DIMADEC
 70
     2
  9
$DIMALTRND
 40
0.0
  9
$DIMAZIN
 70
     2
  9
$DIMDSEP
 70
    46
  9
$DIMATFIT
 70
     3
  9
$DIMFRAC
 70
     0
  9
$DIMLDRBLK
  1

  9
$DIMLUNIT
 70
     2
  9
$DIMLWD
 70
    -1
  9
$DIMLWE
 70
    -1
  9
$DIMTMOVE
 70
     0
  9
$LUNITS
 70
     2
  9
$LUPREC
 70
     2
  9
$SKETCHINC
 40
1.0
  9
$FILLETRAD
 40
2.6
  9
$AUNITS
 70
     0
  9
$AUPREC
 70
     0
  9
$MENU
  1
.
  9
$ELEVATION
 40
0.0
  9
$PELEVATION
 40
0.0
  9
$THICKNESS
 40
0.0
  9
$LIMCHECK
 70
     0
  9
$CHAMFERA
 40
0.0
  9
$CHAMFERB
 40
0.0
  9
$CHAMFERC
 40
20.0
  9
$CHAMFERD
 40
0.0
  9
$SKPOLY
 70
     0
  9
$TDCREATE
 40
2456139.787518079
  9
$TDUCREATE
 40
2456139.412518079
  9
$TDUPDATE
 40
2456323.471513310
  9
$TDUUPDATE
 40
2456323.096513310
  9
$TDINDWG
 40
0.1169939815
  9
$TDUSRTIMER
 40
0.1169937963
  9
$USRTIMER
 70
     1
  9
$ANGBASE
 50
0.0
  9
$ANGDIR
 70
     0
  9
$PDMODE
 70
     0
  9
$PDSIZE
 40
-3.0
  9
$PLINEWID
 40
0.0
  9
$SPLFRAME
 70
     0
  9
$SPLINETYPE
 70
     6
  9
$SPLINESEGS
 70
     8
  9
$HANDSEED
  5
F41D
  9
$SURFTAB1
 70
     6
  9
$SURFTAB2
 70
     6
  9
$SURFTYPE
 70
     6
  9
$SURFU
 70
     6
  9
$SURFV
 70
     6
  9
$UCSBASE
  2

  9
$UCSNAME
  2

  9
$UCSORG
 10
0.0
 20
0.0
 30
0.0
  9
$UCSXDIR
 10
1.0
 20
0.0
 30
0.0
  9
$UCSYDIR
 10
0.0
 20
1.0
 30
0.0
  9
$UCSORTHOREF
  2

  9
$UCSORTHOVIEW
 70
     0
  9
$UCSORGTOP
 10
0.0
 20
0.0
 30
0.0
  9
$UCSORGBOTTOM
 10
0.0
 20
0.0
 30
0.0
  9
$UCSORGLEFT
 10
0.0
 20
0.0
 30
0.0
  9
$UCSORGRIGHT
 10
0.0
 20
0.0
 30
0.0
  9
$UCSORGFRONT
 10
0.0
 20
0.0
 30
0.0
  9
$UCSORGBACK
 10
0.0
 20
0.0
 30
0.0
  9
$PUCSBASE
  2

  9
$PUCSNAME
  2

  9
$PUCSORG
 10
0.0
 20
0.0
 30
0.0
  9
$PUCSXDIR
 10
1.0
 20
0.0
 30
0.0
  9
$PUCSYDIR
 10
0.0
 20
1.0
 30
0.0
  9
$PUCSORTHOREF
  2

  9
$PUCSORTHOVIEW
 70
     0
  9
$PUCSORGTOP
 10
0.0
 20
0.0
 30
0.0
  9
$PUCSORGBOTTOM
 10
0.0
 20
0.0
 30
0.0
  9
$PUCSORGLEFT
 10
0.0
 20
0.0
 30
0.0
  9
$PUCSORGRIGHT
 10
0.0
 20
0.0
 30
0.0
  9
$PUCSORGFRONT
 10
0.0
 20
0.0
 30
0.0
  9
$PUCSORGBACK
 10
0.0
 20
0.0
 30
0.0
  9
$USERI1
 70
     0
  9
$USERI2
 70
     0
  9
$USERI3
 70
     0
  9
$USERI4
 70
     0
  9
$USERI5
 70
     0
  9
$USERR1
 40
0.0
  9
$USERR2
 40
0.0
  9
$USERR3
 40
0.0
  9
$USERR4
 40
0.0
  9
$USERR5
 40
0.0
  9
$WORLDVIEW
 70
     1
  9
$SHADEDGE
 70
     3
  9
$SHADEDIF
 70
    70
  9
$TILEMODE
 70
     1
  9
$MAXACTVP
 70
    64
  9
$PINSBASE
 10
0.0
 20
0.0
 30
0.0
  9
$PLIMCHECK
 70
     0
  9
$PEXTMIN
 10
1.000000000000000E+20
 20
1.000000000000000E+20
 30
1.000000000000000E+20
  9
$PEXTMAX
 10
-1.000000000000000E+20
 20
-1.000000000000000E+20
 30
-1.000000000000000E+20
  9
$PLIMMIN
 10
-3.17498779296875
 20
-3.174999952316284
  9
$PLIMMAX
 10
293.4970092773438
 20
206.692492723465
  9
$UNITMODE
 70
     0
  9
$VISRETAIN
 70
     1
  9
$PLINEGEN
 70
     0
  9
$PSLTSCALE
 70
     1
  9
$TREEDEPTH
 70
  3020
  9
$CMLSTYLE
  2
Standard
  9
$CMLJUST
 70
     0
  9
$CMLSCALE
 40
20.0
  9
$PROXYGRAPHICS
 70
     1
  9
$MEASUREMENT
 70
     1
  9
$CELWEIGHT
370
    -1
  9
$ENDCAPS
280
     0
  9
$JOINSTYLE
280
     0
  9
$LWDISPLAY
290
     1
  9
$INSUNITS
 70
     4
  9
$HYPERLINKBASE
  1

  9
$STYLESHEET
  1
monochrome.ctb
  9
$XEDIT
290
     1
  9
$CEPSNTYPE
380
     0
  9
$PSTYLEMODE
290
     1
  9
$FINGERPRINTGUID
  2
{6687207C-F65F-4E86-B589-9C3C3CBAEBE5}
  9
$VERSIONGUID
  2
{6A884284-D164-4B19-9D27-01B30323A655}
  9
$EXTNAMES
290
     1
  9
$PSVPSCALE
 40
0.0
  9
$OLESTARTUP
290
     0
  0
ENDSEC
  0
SECTION
  2
CLASSES
  0
CLASS
  1
ACDBDICTIONARYWDFLT
  2
AcDbDictionaryWithDefault
  3
ObjectDBX Classes
 90
        0
280
     0
281
     0
  0
CLASS
  1
ACDBPLACEHOLDER
  2
AcDbPlaceHolder
  3
ObjectDBX Classes
 90
        0
280
     0
281
     0
  0
CLASS
  1
LAYOUT
  2
AcDbLayout
  3
ObjectDBX Classes
 90
        0
280
     0
281
     0
  0
CLASS
  1
AMGSETTINGSOBJ
  2
AmgSettingsObj
  3
"AcadM|Product Description: AutoCAD Mechanical|Company: Autodesk"
 90
        0
280
     0
281
     0
  0
CLASS
  1
ACME_DOCUMENT
  2
AcMeDbDoc
  3
AcMeServices
 90
        0
280
     0
281
     0
  0
CLASS
  1
ACMESCOPE
  2
AcMeScope
  3
AcMeServices
 90
        0
280
     0
281
     0
  0
CLASS
  1
ACMECOMMANDHISTORY
  2
AcMeCommandHistory
  3
AcMeServices
 90
        0
280
     0
281
     0
  0
CLASS
  1
DICTIONARYVAR
  2
AcDbDictionaryVar
  3
ObjectDBX Classes
 90
        0
280
     0
281
     0
  0
CLASS
  1
ACIMSYSVARMAN
  2
AcImSysVarManager
  3
AcMeServices
 90
        0
280
     0
281
     0
  0
CLASS
  1
ACIMREALSYSVAR
  2
AcImRealSysVar
  3
AcMeServices
 90
        0
280
     0
281
     0
  0
CLASS
  1
ACIMINTSYSVAR
  2
AcImIntSysVar
  3
AcMeServices
 90
        0
280
     0
281
     0
  0
CLASS
  1
ACMEDRAWINGMAN
  2
AcMeDrawingMan
  3
AcMeServices
 90
        0
280
     0
281
     0
  0
CLASS
  1
ACMEVIEW
  2
AcMeView
  3
AcMeServices
 90
        0
280
     0
281
     0
  0
CLASS
  1
ACDBENTITYCACHE
  2
AcMeEntityCache
  3
AcMeServices
 90
        0
280
     0
281
     0
  0
CLASS
  1
GSMANAGER
  2
AcMeGSManager
  3
AcMeServices
 90
        0
280
     0
281
     0
  0
CLASS
  1
AMDTINTERNALREACTOR
  2
AmdtInternalReactor
  3
AcMeServices
 90
        0
280
     0
281
     0
  0
CLASS
  1
ACMESTATEMGR
  2
AcMeStateMgr
  3
AcMeServices
 90
        0
280
     0
281
     0
  0
CLASS
  1
ACGREFMASTER
  2
AcGrefMaster
  3
AcAttribServices
 90
        0
280
     0
281
     0
  0
CLASS
  1
ACME_DATABASE
  2
AcMeDbDatabase
  3
AcMeServices
 90
        0
280
     0
281
     0
  0
CLASS
  1
ACRFINSADJUSTERMGR
  2
AcRfInsAdjusterMgr
  3
AcMeServices
 90
        0
280
     0
281
     0
  0
CLASS
  1
ACGREFACADMASTER
  2
AcGrefacadMaster
  3
AcGrefServices
 90
        0
280
     0
281
     0
  0
CLASS
  1
AMIMASTER
  2
AmiMaster
  3
AmiServices
 90
        0
280
     0
281
     0
  0
CLASS
  1
ACMDATADICTIONARY
  2
AcmDataDictionary
  3
"AcmSymBB|Product Description: AutoCAD Mechanical|Company: Autodesk"
 90
        0
280
     0
281
     0
  0
CLASS
  1
ACMDATAENTRYBLOCK
  2
AcmDataEntryBlock
  3
"AcmSymBB|Product Description: AutoCAD Mechanical|Company: Autodesk"
 90
        0
280
     0
281
     0
  0
CLASS
  1
ACIMSTRSYSVAR
  2
AcImStrSysVar
  3
AcMeServices
 90
        0
280
     0
281
     0
  0
CLASS
  1
ACMSTANDARDISO
  2
AcmStandardISO
  3
"Amdt_StdImp|Product Description: AutoCAD Mechanical|Company: Autodesk"
 90
        0
280
     0
281
     0
  0
CLASS
  1
AMGOBJPROPCFG
  2
AmgObjPropCfg
  3
"AmgLay|Product Description: AutoCAD Mechanical|Company: Autodesk"
 90
        1
280
     0
281
     0
  0
CLASS
  1
AMDTEDGESTANDARDISO
  2
AmdtEdgeStdISO
  3
"Amdt_StdImp|Product Description: AutoCAD Mechanical|Company: Autodesk"
 90
        0
280
     0
281
     0
  0
CLASS
  1
ACMSURFSTANDARDISO
  2
AcmSurfTextStdISO
  3
"Amdt_StdImp|Product Description: AutoCAD Mechanical|Company: Autodesk"
 90
        0
280
     0
281
     0
  0
CLASS
  1
ACMFCFSTANDARDISO
  2
AcmFCFStdISO
  3
"Amdt_StdImp|Product Description: AutoCAD Mechanical|Company: Autodesk"
 90
        0
280
     0
281
     0
  0
CLASS
  1
ACMWELDSTANDARDISO
  2
AcmWeldingStdISO
  3
"Amdt_StdImp|Product Description: AutoCAD Mechanical|Company: Autodesk"
 90
        0
280
     0
281
     0
  0
CLASS
  1
ACMIDSTANDARDISO
  2
AcmIdStdISO
  3
"Amdt_StdImp|Product Description: AutoCAD Mechanical|Company: Autodesk"
 90
        0
280
     0
281
     0
  0
CLASS
  1
ACMDATUMSTANDARDISO
  2
AcmDatumStdISO
  3
"Amdt_StdImp|Product Description: AutoCAD Mechanical|Company: Autodesk"
 90
        0
280
     0
281
     0
  0
CLASS
  1
ACMBOMSTANDARDISO
  2
AcmBOMStdISO
  3
"Amdt_StdImp|Product Description: AutoCAD Mechanical|Company: Autodesk"
 90
        0
280
     0
281
     0
  0
CLASS
  1
ACMDETAILSTANDARDISO
  2
AmdtDetailSymStdISO
  3
"Amdt_StdImp|Product Description: AutoCAD Mechanical|Company: Autodesk"
 90
        0
280
     0
281
     0
  0
CLASS
  1
ACMSECTIONSTANDARDISO
  2
AmdtSectionSymStdISO
  3
"Amdt_StdImp|Product Description: AutoCAD Mechanical|Company: Autodesk"
 90
        0
280
     0
281
     0
  0
CLASS
  1
ACMCENTERLINESTANDARDISO
  2
AmdtCenterLineStdISO
  3
"Amdt_StdImp|Product Description: AutoCAD Mechanical|Company: Autodesk"
 90
        0
280
     0
281
     0
  0
CLASS
  1
ACAMGLAYSTD
  2
AcAmgLayStd
  3
"AmgLay|Product Description: AutoCAD Mechanical|Company: Autodesk"
 90
        0
280
     0
281
     0
  0
CLASS
  1
ACAMGDIMSTD
  2
AcAmgDimStd
  3
"AmgDim|Product Description: AutoCAD Mechanical|Company: Autodesk"
 90
        0
280
     0
281
     0
  0
CLASS
  1
ACAMGTITLESTD
  2
AcAmgTitleStd
  3
"AmgTitle|Product Description: AutoCAD Mechanical|Company: Autodesk"
 90
        0
280
     0
281
     0
  0
CLASS
  1
ACAMGFILTERDAT
  2
AcAmgFilterDat
  3
"AcadM|Product Description: AutoCAD Mechanical|Company: Autodesk"
 90
        0
280
     0
281
     0
  0
CLASS
  1
LAYER_INDEX
  2
AcDbLayerIndex
  3
ObjectDBX Classes
 90
    32768
280
     0
281
     0
  0
CLASS
  1
IDBUFFER
  2
AcDbIdBuffer
  3
ObjectDBX Classes
 90
    32768
280
     0
281
     0
  0
CLASS
  1
PLOTSETTINGS
  2
AcDbPlotSettings
  3
ObjectDBX Classes
 90
    32768
280
     0
281
     0
  0
CLASS
  1
AMDTFORMULAUPDATEDISPATCHER
  2
AmdtFormulaUpdateDispatcher
  3
AcMeServices
 90
        0
280
     0
281
     0
  0
CLASS
  1
ACMSTANDARDANSI
  2
AcmStandardANSI
  3
"Amdt_StdImp|Product Description: AutoCAD Mechanical|Company: Autodesk"
 90
        0
280
     0
281
     0
  0
CLASS
  1
ACMSURFSTANDARDANSI
  2
AcmSurfTextStdANSI
  3
"Amdt_StdImp|Product Description: AutoCAD Mechanical|Company: Autodesk"
 90
        0
280
     0
281
     0
  0
CLASS
  1
ACMFCFSTANDARDANSI
  2
AcmFCFStdANSI
  3
"Amdt_StdImp|Product Description: AutoCAD Mechanical|Company: Autodesk"
 90
        0
280
     0
281
     0
  0
CLASS
  1
ACMWELDSTANDARDANSI
  2
AcmWeldingStdANSI
  3
"Amdt_StdImp|Product Description: AutoCAD Mechanical|Company: Autodesk"
 90
        0
280
     0
281
     0
  0
CLASS
  1
ACMIDSTANDARDANSI
  2
AcmIdStdANSI
  3
"Amdt_StdImp|Product Description: AutoCAD Mechanical|Company: Autodesk"
 90
        0
280
     0
281
     0
  0
CLASS
  1
ACMDATUMSTANDARDANSI
  2
AcmDatumStdANSI
  3
"Amdt_StdImp|Product Description: AutoCAD Mechanical|Company: Autodesk"
 90
        0
280
     0
281
     0
  0
CLASS
  1
ACMBOMSTANDARDANSI
  2
AcmBOMStdANSI
  3
"Amdt_StdImp|Product Description: AutoCAD Mechanical|Company: Autodesk"
 90
        0
280
     0
281
     0
  0
CLASS
  1
ACMDETAILSTANDARDANSI
  2
AmdtDetailSymStdANSI
  3
"Amdt_StdImp|Product Description: AutoCAD Mechanical|Company: Autodesk"
 90
        0
280
     0
281
     0
  0
CLASS
  1
ACMSECTIONSTANDARDANSI
  2
AmdtSectionSymStdANSI
  3
"Amdt_StdImp|Product Description: AutoCAD Mechanical|Company: Autodesk"
 90
        0
280
     0
281
     0
  0
CLASS
  1
ACMCENTERLINESTANDARDANSI
  2
AmdtCenterLineStdANSI
  3
"Amdt_StdImp|Product Description: AutoCAD Mechanical|Company: Autodesk"
 90
        0
280
     0
281
     0
  0
CLASS
  1
ACMBOM
  2
AcmBom
  3
"AcmSymBB|Product Description: AutoCAD Mechanical|Company: Autodesk"
 90
        0
280
     0
281
     0
  0
CLASS
  1
ACMDATAENTRYPART
  2
AcmDataEntryPart
  3
"AcmSymBB|Product Description: AutoCAD Mechanical|Company: Autodesk"
 90
    32768
280
     0
281
     0
  0
CLASS
  1
ACMPARTREF
  2
AcmPartRef
  3
"AcmSymBB|Product Description: AutoCAD Mechanical|Company: Autodesk"
 90
    35839
280
     0
281
     1
  0
CLASS
  1
ACDBCIRCARCRES
  2
AcDbCircArcRes
  3
AcGrefServices
 90
    32768
280
     0
281
     0
  0
CLASS
  1
ACMBOMROW
  2
AcmBomRow
  3
"AcmSymBB|Product Description: AutoCAD Mechanical|Company: Autodesk"
 90
    32768
280
     0
281
     0
  0
CLASS
  1
ACMBALLOON
  2
AcmBalloon
  3
"AcmSymBB|Product Description: AutoCAD Mechanical|Company: Autodesk"
 90
    35839
280
     0
281
     1
  0
CLASS
  1
AMDTNOTE
  2
AmdtNote
  3
"AcmSymBB|Product Description: AutoCAD Mechanical|Company: Autodesk"
 90
    35839
280
     0
281
     1
  0
CLASS
  1
STDPART2D
  2
AmgStdPart
  3
"AmgStdPart|Product Description: AutoCAD Mechanical|Company: Autodesk"
 90
    35839
280
     0
281
     1
  0
CLASS
  1
ACDBSTDPARTRES_LINE
  2
AcDbStdPartRes_Line
  3
"AmgStdPart|Product Description: AutoCAD Mechanical|Company: Autodesk"
 90
    32768
280
     0
281
     0
  0
CLASS
  1
ACMDATAENTRY
  2
AcmDataEntry
  3
"AcmSymBB|Product Description: AutoCAD Mechanical|Company: Autodesk"
 90
        0
280
     0
281
     0
  0
CLASS
  1
ACDBOPPOLYLINERES
  2
AcDbOpPolylineRes
  3
AcGrefServices
 90
    32768
280
     0
281
     0
  0
CLASS
  1
ACMPARTLIST
  2
AcmPartList
  3
"AcmSymBB|Product Description: AutoCAD Mechanical|Company: Autodesk"
 90
    35839
280
     0
281
     1
  0
CLASS
  1
ACDBLINERES
  2
AcDbLineRes
  3
AcGrefServices
 90
        0
280
     0
281
     0
  0
CLASS
  1
ACRFINSADJ
  2
AcRfInsAdjuster
  3
AcMeServices
 90
    32768
280
     0
281
     0
  0
CLASS
  1
AM_DRAWING_MGR
  2
AcDmDwgMgr
  3
AcMechDwgViewMgmt
 90
        0
280
     0
281
     0
  0
CLASS
  1
AM_DWG_DOCUMENT
  2
AcDmDwgDocument
  3
AcMechDwgViewMgmt
 90
        0
280
     0
281
     0
  0
CLASS
  1
AM_DWG_SHEET
  2
AcDmSheet
  3
AcMechDwgViewMgmt
 90
        0
280
     0
281
     0
  0
CLASS
  1
AM_VIEWDIMPARMAP
  2
AcDmViewDimParMap
  3
AcMechDwgViewMgmt
 90
        0
280
     0
281
     0
  0
CLASS
  1
AM_DWGMGR_NAME
  2
AcDmDwgMgrName
  3
AcMechDwgViewMgmt
 90
        0
280
     0
281
     0
  0
CLASS
  1
AMDTMENUSTATEMGR
  2
AmdtMenuStateMgr
  3
McadcomServices
 90
        0
280
     0
281
     0
  0
CLASS
  1
AMDTMCOMMENUSTATE
  2
AmdtMcomMenuState
  3
McadcomServices
 90
        0
280
     0
281
     0
  0
CLASS
  1
ASAPP
  2
AcAsAppObject
  3
AutoSurfServices
 90
        0
280
     0
281
     0
  0
CLASS
  1
IM_STATIC_MAN
  2
AcImStaticVarManager
  3
AcMeServices
 90
        0
280
     0
281
     0
  0
CLASS
  1
ACIMDBLSTATICVAR
  2
AcImDblStaticVar
  3
AcMeServices
 90
        0
280
     0
281
     0
  0
CLASS
  1
ACIMSTRSTATICVAR
  2
AcImStrStaticVar
  3
AcMeServices
 90
        0
280
     0
281
     0
  0
CLASS
  1
ACIMINTSTATICVAR
  2
AcImIntStaticVar
  3
AcMeServices
 90
        0
280
     0
281
     0
  0
CLASS
  1
ACASGREFMASTER
  2
AcAsGrefMaster
  3
AutoSurfResolverServices
 90
        0
280
     0
281
     0
  0
CLASS
  1
ACADGREFMODULE
  2
AcAdGrefModule
  3
AdGrefServices
 90
        0
280
     0
281
     0
  0
CLASS
  1
AMDTMAPISURFMOUDULE
  2
AmdtMApiSurfModule
  3
MApiSurfServices
 90
        0
280
     0
281
     0
  0
CLASS
  1
MAPIAMMOUDLE
  2
MApiAmModule
  3
MApiAmServices
 90
        0
280
     0
281
     0
  0
CLASS
  1
AMDTADMENUSTATE
  2
AmdtAdMenuState
  3
DesignerServices
 90
        0
280
     0
281
     0
  0
CLASS
  1
ADAPPL
  2
AcAdAppl
  3
DesignerServices
 90
        0
280
     0
281
     0
  0
CLASS
  1
DEPMGR
  2
AcAdDepMgr
  3
DesignerServices
 90
        0
280
     0
281
     0
  0
CLASS
  1
PARAMMGR
  2
AcAdParamMgr
  3
DesignerServices
 90
        0
280
     0
281
     0
  0
CLASS
  1
PARAMSCOPE
  2
AcAdParamScope
  3
DesignerServices
 90
        0
280
     0
281
     0
  0
CLASS
  1
NAMEDAPPL
  2
AcAdNamedAppl
  3
DesignerServices
 90
        0
280
     0
281
     0
  0
CLASS
  1
ADHNTMPLT
  2
AdHoleNoteTemplateMgr
  3
DesignerServices
 90
    32768
280
     0
281
     0
  0
CLASS
  1
AM_HNTEMPLATE_MGR_NAME
  2
AdHoleNoteTemplateMgrName
  3
DesignerServices
 90
    32768
280
     0
281
     0
  0
CLASS
  1
AMDTDMMENUSTATE
  2
AmdtDmMenuState
  3
AcMechDwgViewMgmt
 90
        0
280
     0
281
     0
  0
CLASS
  1
MAPIADMODULE
  2
MApiAdModule
  3
MApiAdServices
 90
        0
280
     0
281
     0
  0
CLASS
  1
AMDTAMMENUSTATE
  2
AmdtAmMenuState
  3
DesignerAssemblies
 90
        0
280
     0
281
     0
  0
CLASS
  1
ACAMPROJECT
  2
AcAmProject
  3
DesignerAssemblies
 90
        0
280
     0
281
     0
  0
CLASS
  1
ACAMGRCOMPDEF
  2
AcAmGrCompDef
  3
DesignerAssemblies
 90
        0
280
     0
281
     0
  0
CLASS
  1
ACCMCONTEXT
  2
AcCmContext
  3
DesignerAssemblies
 90
        0
280
     0
281
     0
  0
CLASS
  1
ACAMCOMPDEF
  2
AcAmCompDef
  3
DesignerAssemblies
 90
        0
280
     0
281
     0
  0
CLASS
  1
ACAMCOMPDEFMGR
  2
AcAmCompDefMgr
  3
DesignerAssemblies
 90
        0
280
     0
281
     0
  0
CLASS
  1
AMCONTEXTMGR
  2
AcAmContextMgr
  3
DesignerAssemblies
 90
        0
280
     0
281
     0
  0
CLASS
  1
ACAMCONTEXTMODELER
  2
AcAmContextModeler
  3
DesignerAssemblies
 90
        0
280
     0
281
     0
  0
CLASS
  1
CATALOGSTATE
  2
AcAmCatalogState
  3
DesignerAssemblies
 90
        0
280
     0
281
     0
  0
CLASS
  1
ACAMGRCOMPDEFSET
  2
AcAmGrCompDefSet
  3
DesignerAssemblies
 90
        0
280
     0
281
     0
  0
CLASS
  1
AMDTBROWSERDBTAB
  2
AmdtBrowserDbTab
  3
McadcomServices
 90
        0
280
     0
281
     0
  0
CLASS
  1
CBROWSERAPPOBJECT
  2
CBrowserAppObject
  3
McadcomServices
 90
        0
280
     0
281
     0
  0
CLASS
  1
DM_PLACEHOLDER
  2
AcDmSelsetPlaceholder
  3
AcMechDwgViewMgmt
 90
        0
280
     0
281
     0
  0
CLASS
  1
ACMPICKOBJ
  2
AcmPickEnt
  3
"AcmSymBB|Product Description: AutoCAD Mechanical|Company: Autodesk"
 90
    32768
280
     0
281
     1
  0
CLASS
  1
ACMNOTESTANDARDISO
  2
AmdtNoteStdISO
  3
"Amdt_StdImp|Product Description: AutoCAD Mechanical|Company: Autodesk"
 90
        0
280
     0
281
     0
  0
CLASS
  1
ACMNOTESTANDARDANSI
  2
AmdtNoteStdANSI
  3
"Amdt_StdImp|Product Description: AutoCAD Mechanical|Company: Autodesk"
 90
        0
280
     0
281
     0
  0
CLASS
  1
ACMTHREADLINESTANDARDISO
  2
AmdtThreadLineStdISO
  3
"Amdt_StdImp|Product Description: AutoCAD Mechanical|Company: Autodesk"
 90
        0
280
     0
281
     0
  0
CLASS
  1
ACMTHREADLINESTANDARDANSI
  2
AmdtThreadLineStdANSI
  3
"Amdt_StdImp|Product Description: AutoCAD Mechanical|Company: Autodesk"
 90
        0
280
     0
281
     0
  0
CLASS
  1
TABLESTYLE
  2
AcDbTableStyle
  3
ObjectDBX Classes
 90
     4095
280
     0
281
     0
  0
CLASS
  1
SORTENTSTABLE
  2
AcDbSortentsTable
  3
ObjectDBX Classes
 90
        0
280
     0
281
     0
  0
CLASS
  1
MATERIAL
  2
AcDbMaterial
  3
ObjectDBX Classes
 90
     1153
280
     0
281
     0
  0
CLASS
  1
VISUALSTYLE
  2
AcDbVisualStyle
  3
ObjectDBX Classes
 90
     4095
280
     0
281
     0
  0
CLASS
  1
ACRFATTGENMGR
  2
AcRfAttGeneralMgr
  3
AcAttribServices
 90
        0
280
     0
281
     0
  0
CLASS
  1
ACRFOBJATTMGR
  2
AcRfObjAttGroupMgr
  3
AcAttribServices
 90
        0
280
     0
281
     0
  0
CLASS
  1
ACRFMCADAPIATTHOLDER
  2
AcRfMCADAPIAttHolder
  3
AcAttribServices
 90
        0
280
     0
281
     0
  0
CLASS
  1
AMDTSYSATTR
  2
AmdtSystemAttribute
  3
AcAttribServices
 90
        0
280
     0
281
     0
  0
CLASS
  1
ACMTAPERSTANDARDISO
  2
AcmTaperStdISO
  3
"Amdt_StdImp|Product Description: AutoCAD Mechanical|Company: Autodesk"
 90
        0
280
     0
281
     0
  0
CLASS
  1
CAMSSTRUCTBTNSTATE
  2
StructBtnState
  3
L"DesignerAssemblies"
 90
        0
280
     0
281
     0
  0
CLASS
  1
DIMASSOC
  2
AcDbDimAssoc
  3
"AcDbDimAssoc|Product Desc:     AcDim ARX App For Dimension|Company:          Autodesk, Inc.|WEB Address:      www.autodesk.com"
 90
    32768
280
     0
281
     0
  0
CLASS
  1
AMDTNOTETEMPLATEDB
  2
AmdtNoteTemplateDB
  3
AMDT_STDIMP_MODULE_NAME
 90
        0
280
     0
281
     0
  0
CLASS
  1
SCALE
  2
AcDbScale
  3
ObjectDBX Classes
 90
     1153
280
     0
281
     0
  0
CLASS
  1
MLEADERSTYLE
  2
AcDbMLeaderStyle
  3
ACDB_MLEADERSTYLE_CLASS
 90
     4095
280
     0
281
     0
  0
CLASS
  1
ACMANOOTATIONVIEWSTANDARDISO
  2
AmdtAnViewStdISO
  3
"Amdt_StdImp|Product Description: AutoCAD Mechanical|Company: Autodesk, Inc."
 90
    33792
280
     0
281
     0
  0
CLASS
  1
CELLSTYLEMAP
  2
AcDbCellStyleMap
  3
ObjectDBX Classes
 90
     1152
280
     0
281
     0
  0
CLASS
  1
ACMTAPERSTANDARDANSI
  2
AcmTaperStdANSI
  3
"Amdt_StdImp|Product Description: AutoCAD Mechanical|Company: Autodesk"
 90
        0
280
     0
281
     0
  0
CLASS
  1
ACMANOOTATIONVIEWSTANDARDANSI
  2
AmdtAnViewStdANSI
  3
"Amdt_StdImp|Product Description: AutoCAD Mechanical|Company: Autodesk, Inc."
 90
    33792
280
     0
281
     0
  0
CLASS
  1
ACAMGHOLECHARTSTDANSI
  2
AcAmgHoleChartStdANSI
  3
ACMSYMBB_MODULE_NAME
 90
        0
280
     0
281
     0
  0
CLASS
  1
AMDTEDGESTANDARDISO13715
  2
AmdtEdgeStdISO13715
  3
"Amdt_StdImp|Product Description: AutoCAD Mechanical|Company: Autodesk"
 90
        0
280
     0
281
     0
  0
CLASS
  1
ACAMGHOLECHARTSTDISO
  2
AcAmgHoleChartStdISO
  3
ACMSYMBB_MODULE_NAME
 90
        0
280
     0
281
     0
  0
ENDSEC
  0
SECTION
  2
TABLES
  0
TABLE
  2
VPORT
  5
8
330
0
100
AcDbSymbolTable
 70
     1
  0
VPORT
  5
B0EC
330
8
100
AcDbSymbolTableRecord
100
AcDbViewportTableRecord
  2
*Active
 70
     0
 10
0.0
 20
0.0
 11
1.0
 21
1.0
 12
234.584571201529
 22
147.3064492156789
 13
0.0
 23
0.0
 14
2.5
 24
2.5
 15
10.0
 25
10.0
 16
0.0
 26
0.0
 36
1.0
 17
0.0
 27
0.0
 37
0.0
 40
309.1532646837848
 41
1.902843601895734
 42
50.0
 43
-1370.695619172058
 44
-1370.695619172058
 50
0.0
 51
0.0
 71
     0
 72
   100
 73
     1
 74
     3
 75
     0
 76
     0
 77
     0
 78
     0
281
     0
 65
     0
110
0.0
120
0.0
130
0.0
111
1.0
121
0.0
131
0.0
112
0.0
122
1.0
132
0.0
 79
     0
146
0.0
  0
ENDTAB
  0
TABLE
  2
LTYPE
  5
5
330
0
100
AcDbSymbolTable
 70
    33
  0
LTYPE
  5
14
330
5
100
AcDbSymbolTableRecord
100
AcDbLinetypeTableRecord
  2
ByBlock
 70
     0
  3

 72
    65
 73
     0
 40
0.0
  0
LTYPE
  5
15
330
5
100
AcDbSymbolTableRecord
100
AcDbLinetypeTableRecord
  2
ByLayer
 70
     0
  3

 72
    65
 73
     0
 40
0.0
  0
LTYPE
  5
16
330
5
100
AcDbSymbolTableRecord
100
AcDbLinetypeTableRecord
  2
Continuous
 70
     0
  3
Solid line
 72
    65
 73
     0
 40
0.0
  0
LTYPE
  5
4F
330
5
100
AcDbSymbolTableRecord
100
AcDbLinetypeTableRecord
  2
AM_ISO02W050
 70
     0
  3
__ __ __ __ __ __ __ __ __ __ __ __ __ __ __
 72
    65
 73
     2
 40
7.5
 49
6.0
 74
     0
 49
-1.5
 74
     0
  0
LTYPE
  5
52
330
5
100
AcDbSymbolTableRecord
100
AcDbLinetypeTableRecord
  2
Amconstr
 70
     0
  3
_______________________
 72
    65
 73
     2
 40
9999.0
 49
9999.0
 74
     0
 49
0.0
 74
     0
  0
LTYPE
  5
64
330
5
100
AcDbSymbolTableRecord
100
AcDbLinetypeTableRecord
  2
ACISOWELD
 70
     0
  3
_ _ _ _ _
 72
    65
 73
     2
 40
2.0
 49
2.0
 74
     0
 49
-1.0
 74
     0
  0
LTYPE
  5
65
330
5
100
AcDbSymbolTableRecord
100
AcDbLinetypeTableRecord
  2
ACISOTGB
 70
     0
  3
__ . . __ . .
 72
    65
 73
     6
 40
9.0
 49
4.0
 74
     0
 49
-1.0
 74
     0
 49
1.0
 74
     0
 49
-1.0
 74
     0
 49
1.0
 74
     0
 49
-1.0
 74
     0
  0
LTYPE
  5
66
330
5
100
AcDbSymbolTableRecord
100
AcDbLinetypeTableRecord
  2
ACISOTGL
 70
     0
  3
_ _ _ _ _
 72
    65
 73
     2
 40
3.0
 49
2.0
 74
     0
 49
-1.0
 74
     0
  0
LTYPE
  5
69
330
5
100
AcDbSymbolTableRecord
100
AcDbLinetypeTableRecord
  2
CENTER
 70
     0
  3
__ . __
 72
    65
 73
     4
 40
7.0
 49
4.0
 74
     0
 49
-1.0
 74
     0
 49
1.0
 74
     0
 49
-1.0
 74
     0
  0
LTYPE
  5
A6E
330
5
100
AcDbSymbolTableRecord
100
AcDbLinetypeTableRecord
  2
PHANTOM2
 70
     0
  3
Phantom (.5x) ___ _ _ ___ _ _ ___ _ _ ___ _ _
 72
    65
 73
     6
 40
31.75
 49
15.875
 74
     0
 49
-3.174999999999999
 74
     0
 49
3.174999999999999
 74
     0
 49
-3.174999999999999
 74
     0
 49
3.174999999999999
 74
     0
 49
-3.174999999999999
 74
     0
  0
LTYPE
  5
4DED
330
5
100
AcDbSymbolTableRecord
100
AcDbLinetypeTableRecord
  2
中線
 70
     0
  3
___________________
 72
    65
 73
     2
 40
2.0
 49
1.0
 74
     0
 49
1.0
 74
     0
  0
LTYPE
  5
4DF6
330
5
100
AcDbSymbolTableRecord
100
AcDbLinetypeTableRecord
  2
細線
 70
     0
  3
___________________
 72
    65
 73
     2
 40
2.0
 49
1.0
 74
     0
 49
1.0
 74
     0
  0
LTYPE
  5
4DF7
330
5
100
AcDbSymbolTableRecord
100
AcDbLinetypeTableRecord
  2
太線
 70
     0
  3
___________________
 72
    65
 73
     2
 40
2.0
 49
1.0
 74
     0
 49
1.0
 74
     0
  0
LTYPE
  5
4EA7
330
5
100
AcDbSymbolTableRecord
100
AcDbLinetypeTableRecord
  2
文字
 70
     0
  3
_________________
 72
    65
 73
     2
 40
2.0
 49
1.0
 74
     0
 49
1.0
 74
     0
  0
LTYPE
  5
4EA9
330
5
100
AcDbSymbolTableRecord
100
AcDbLinetypeTableRecord
  2
寸法線
 70
     0
  3
________________
 72
    65
 73
     2
 40
2.0
 49
1.0
 74
     0
 49
1.0
 74
     0
  0
LTYPE
  5
4F12
330
5
100
AcDbSymbolTableRecord
100
AcDbLinetypeTableRecord
  2
ハッチング
 70
     0
  3
_________________
 72
    65
 73
     2
 40
2.0
 49
1.0
 74
     0
 49
1.0
 74
     0
  0
LTYPE
  5
5180
330
5
100
AcDbSymbolTableRecord
100
AcDbLinetypeTableRecord
  2
陰線1
 70
     0
  3
__ __ __ __
 72
    65
 73
     2
 40
4.0
 49
2.2
 74
     0
 49
-1.8
 74
     0
  0
LTYPE
  5
5182
330
5
100
AcDbSymbolTableRecord
100
AcDbLinetypeTableRecord
  2
切断線
 70
     0
  3
/\/-/\/-/\/-/\/-/\/-/\/
 72
    65
 73
     2
 40
11.0001
 49
0.0001
 74
     4
 75
   135
340
56
 46
0.04
 50
0.0
 44
0.0
 45
0.0
 49
-11.0
 74
     0
  0
LTYPE
  5
5183
330
5
100
AcDbSymbolTableRecord
100
AcDbLinetypeTableRecord
  2
想像線1
 70
     0
  3
__ __ __ _____ __ __ ____
 72
    65
 73
     6
 40
14.5
 49
6.0
 74
     0
 49
-1.5
 74
     0
 49
2.0
 74
     0
 49
-1.5
 74
     0
 49
2.0
 74
     0
 49
-1.5
 74
     0
  0
LTYPE
  5
5185
330
5
100
AcDbSymbolTableRecord
100
AcDbLinetypeTableRecord
  2
中心線1
 70
     0
  3
___ _ ___ _ ___
 72
    65
 73
     4
 40
18.0
 49
12.0
 74
     0
 49
-2.0
 74
     0
 49
2.0
 74
     0
 49
-2.0
 74
     0
  0
LTYPE
  5
5188
330
5
100
AcDbSymbolTableRecord
100
AcDbLinetypeTableRecord
  2
補助線
 70
     0
  3
______________
 72
    65
 73
     2
 40
2.0
 49
1.0
 74
     0
 49
1.0
 74
     0
  0
LTYPE
  5
6427
330
5
100
AcDbSymbolTableRecord
100
AcDbLinetypeTableRecord
  2
HIDDEN
 70
     0
  3
Hidden __ __ __ __ __ __ __ __ __ __ __ __ __ _
 72
    65
 73
     2
 40
0.375
 49
0.25
 74
     0
 49
-0.125
 74
     0
  0
LTYPE
  5
AC81
330
5
100
AcDbSymbolTableRecord
100
AcDbLinetypeTableRecord
  2
破断線
 70
     0
  3
/\/-/\/-/\/-/\/-/\/-/\/
 72
    65
 73
     2
 40
0.4401
 49
0.0001
 74
     4
 75
   136
340
AC80
 46
0.0016
 50
0.0
 44
0.0
 45
0.0
 49
-0.4400000000000001
 74
     0
  0
LTYPE
  5
AC9E
330
5
100
AcDbSymbolTableRecord
100
AcDbLinetypeTableRecord
  2
Amzigzag
 70
     0
  3
/\/-/\/-/\/-/\/-/\/-/\/
 72
    65
 73
     2
 40
11.0001
 49
0.0001
 74
     4
 75
   135
340
56
 46
0.04
 50
0.0
 44
0.0
 45
0.0
 49
-11.0
 74
     0
  0
LTYPE
  5
AF0F
330
5
100
AcDbSymbolTableRecord
100
AcDbLinetypeTableRecord
  2
genzigzag
 70
     0
  3
/\/-/\/-/\/-/\/-/\/-/\/
 72
    65
 73
     2
 40
12.0001
 49
0.0001
 74
     4
 75
   135
340
AC80
 46
2.0
 50
0.0
 44
0.0
 45
0.0
 49
-12.0
 74
     0
  0
LTYPE
  5
AF95
330
5
100
AcDbSymbolTableRecord
100
AcDbLinetypeTableRecord
  2
AM_ISO08W050
 70
     0
  3
____ . ____ . ____ . ____ . ____ . ____ . ____
 72
    65
 73
     4
 40
18.0
 49
12.0
 74
     0
 49
-1.5
 74
     0
 49
3.0
 74
     0
 49
-1.5
 74
     0
  0
LTYPE
  5
AF96
330
5
100
AcDbSymbolTableRecord
100
AcDbLinetypeTableRecord
  2
AM_ISO09W050
 70
     0
  3
_____ . . _____ . . _____ . . ____ .. ____
 72
    65
 73
     6
 40
22.5
 49
12.0
 74
     0
 49
-1.5
 74
     0
 49
3.0
 74
     0
 49
-1.5
 74
     0
 49
3.0
 74
     0
 49
-1.5
 74
     0
  0
LTYPE
  5
AF97
330
5
100
AcDbSymbolTableRecord
100
AcDbLinetypeTableRecord
  2
AM_ISO08W050x2
 70
     0
  3
__ . __ . __ . __ . __ . __
 72
    65
 73
     4
 40
9.0
 49
6.0
 74
     0
 49
-0.75
 74
     0
 49
1.5
 74
     0
 49
-0.75
 74
     0
  0
LTYPE
  5
AF98
330
5
100
AcDbSymbolTableRecord
100
AcDbLinetypeTableRecord
  2
AM_ISO02W050x2
 70
     0
  3
 _ _ _ _ _ _ _ _ _ _ _ _
 72
    65
 73
     2
 40
3.75
 49
3.0
 74
     0
 49
-0.75
 74
     0
  0
LTYPE
  5
BEE2
330
5
100
AcDbSymbolTableRecord
100
AcDbLinetypeTableRecord
  2
CENTER2
 70
     0
  3
___ _ ___ _ ___ _ ___ _ ___ _ ___ _ ___ _ ___ _
 72
    65
 73
     4
 40
1.125
 49
0.75
 74
     4
 75
     0
340
0
 46
0.0
 50
0.0
 44
0.0
 45
0.0
 49
-0.125
 74
     4
 75
     0
340
0
 46
0.0
 50
0.0
 44
0.0
 45
0.0
 49
0.125
 74
     4
 75
     0
340
0
 46
0.0
 50
0.0
 44
0.0
 45
0.0
 49
-0.125
 74
     4
 75
     0
340
0
 46
0.0
 50
0.0
 44
0.0
 45
0.0
  0
LTYPE
  5
BEE3
330
5
100
AcDbSymbolTableRecord
100
AcDbLinetypeTableRecord
  2
HIDDEN2
 70
     0
  3
Hidden (.5x) _ _ _ _ _ _ _ _ _ _ _ _ _ _ _ _ _
 72
    65
 73
     2
 40
0.1875
 49
0.125
 74
     0
 49
-0.0625
 74
     0
  0
LTYPE
  5
BEE4
330
5
100
AcDbSymbolTableRecord
100
AcDbLinetypeTableRecord
  2
Amzigzag2
 70
     0
  3
/\/-/\/-/\/-/\/-/\/-/\/
 72
    65
 73
     2
 40
0.4401
 49
0.0001
 74
     4
 75
   136
340
AC80
 46
0.0016
 50
0.0
 44
0.0
 45
0.0
 49
-0.4400000000000001
 74
     0
  0
LTYPE
  5
BEE5
330
5
100
AcDbSymbolTableRecord
100
AcDbLinetypeTableRecord
  2
ACANSTGB
 70
     0
  3
__ . . __ . .
 72
    65
 73
     6
 40
0.35433070866
 49
0.15748031496
 74
     0
 49
-0.03937007874
 74
     0
 49
0.03937007874
 74
     0
 49
-0.03937007874
 74
     0
 49
0.03937007874
 74
     0
 49
-0.03937007874
 74
     0
  0
LTYPE
  5
BEE6
330
5
100
AcDbSymbolTableRecord
100
AcDbLinetypeTableRecord
  2
ACANSTGL
 70
     0
  3
_ _ _ _ _
 72
    65
 73
     2
 40
0.11811023622
 49
0.07874015748
 74
     0
 49
-0.03937007874
 74
     0
  0
LTYPE
  5
E7B0
330
5
100
AcDbSymbolTableRecord
100
AcDbLinetypeTableRecord
  2
PHANTOM
 70
     0
  3
___ _ _ ___ _ 
 72
    65
 73
     6
 40
12.999999762
 49
4.0
 74
     0
 49
-1.799999951999999
 74
     0
 49
1.799999951999999
 74
     0
 49
-1.799999951999999
 74
     0
 49
1.799999951999999
 74
     0
 49
-1.799999951999999
 74
     0
  0
ENDTAB
  0
TABLE
  2
LAYER
  5
2
102
{ACAD_XDICTIONARY
360
3F95
102
}
330
0
100
AcDbSymbolTable
 70
    47
  0
LAYER
  5
10
102
{ACAD_XDICTIONARY
360
E250
102
}
330
2
100
AcDbSymbolTableRecord
100
AcDbLayerTableRecord
  2
0
 70
     0
 62
     7
  6
Continuous
370
    -3
390
F
  0
LAYER
  5
6D1
330
2
100
AcDbSymbolTableRecord
100
AcDbLayerTableRecord
  2
Defpoints
 70
     0
 62
     7
  6
Continuous
290
     0
370
    -3
390
F
  0
LAYER
  5
5F85
102
{ACAD_XDICTIONARY
360
E252
102
}
330
2
100
AcDbSymbolTableRecord
100
AcDbLayerTableRecord
  2
AM_0
 70
     0
 62
     7
  6
中線
370
    30
390
F
1001
AcAecLayerStandard
1000

1000

  0
LAYER
  5
AC9F
102
{ACAD_XDICTIONARY
360
E254
102
}
330
2
100
AcDbSymbolTableRecord
100
AcDbLayerTableRecord
  2
size
 70
     0
 62
     5
  6
Continuous
290
     0
370
    25
390
F
  0
LAYER
  5
ACA0
102
{ACAD_XDICTIONARY
360
E256
102
}
330
2
100
AcDbSymbolTableRecord
100
AcDbLayerTableRecord
  2
waku
 70
     0
 62
     7
  6
Continuous
370
    35
390
F
  0
LAYER
  5
ACA1
102
{ACAD_XDICTIONARY
360
E258
102
}
330
2
100
AcDbSymbolTableRecord
100
AcDbLayerTableRecord
  2
AM_6
 70
     0
 62
     2
  6
文字
370
    13
390
F
1001
AcAecLayerStandard
1000

1000

  0
LAYER
  5
AD64
102
{ACAD_XDICTIONARY
360
E262
102
}
330
2
100
AcDbSymbolTableRecord
100
AcDbLayerTableRecord
  2
AM_2
 70
     0
 62
     1
  6
細線
370
    13
390
F
1001
AcAecLayerStandard
1000

1000

  0
LAYER
  5
AD68
102
{ACAD_XDICTIONARY
360
E266
102
}
330
2
100
AcDbSymbolTableRecord
100
AcDbLayerTableRecord
  2
AM_5
 70
     0
 62
     3
  6
寸法線
370
    13
390
F
1001
AcAecLayerStandard
1000

1000

  0
LAYER
  5
AD69
102
{ACAD_XDICTIONARY
360
E268
102
}
330
2
100
AcDbSymbolTableRecord
100
AcDbLayerTableRecord
  2
AM_7
 70
     0
 62
     4
  6
中心線1
370
    13
390
F
1001
AcAecLayerStandard
1000

1000

  0
LAYER
  5
BEEA
102
{ACAD_XDICTIONARY
360
E27C
102
}
330
2
100
AcDbSymbolTableRecord
100
AcDbLayerTableRecord
  2
DV1__Translation
 70
     1
 62
    -7
  6
Continuous
370
    -3
390
F
  0
ENDTAB
  0
TABLE
  2
STYLE
  5
3
330
0
100
AcDbSymbolTable
 70
    13
  0
STYLE
  5
11
330
3
100
AcDbSymbolTableRecord
100
AcDbTextStyleTableRecord
  2
STANDARD
 70
     0
 40
0.0
 41
0.7
 50
0.0
 71
     0
 42
3.2
  3
romans.shx
  4
extfont.shx
  0
STYLE
  5
56
330
3
100
AcDbSymbolTableRecord
100
AcDbTextStyleTableRecord
  2

 70
     1
 40
0.0
 41
1.0
 50
0.0
 71
     0
 42
2.5
  3
ltypeshp.shx
  4

  0
STYLE
  5
58
330
3
100
AcDbSymbolTableRecord
100
AcDbTextStyleTableRecord
  2
ACISOTS
 70
     0
 40
1.0
 41
1.0
 50
0.0
 71
     0
 42
2.5
  3
isocp.shx
  4
extfont.shx
  0
STYLE
  5
63
330
3
100
AcDbSymbolTableRecord
100
AcDbTextStyleTableRecord
  2
ACISOGDT
 70
     0
 40
0.0
 41
1.0
 50
0.0
 71
     0
 42
2.5
  3
amgdt.shx
  4

  0
STYLE
  5
A74
330
3
100
AcDbSymbolTableRecord
100
AcDbTextStyleTableRecord
  2
DIM
 70
     0
 40
0.0
 41
1.0
 50
0.0
 71
     0
 42
2.5
  3
monotxt.shx
  4
extfont.shx
  0
STYLE
  5
AC80
330
3
100
AcDbSymbolTableRecord
100
AcDbTextStyleTableRecord
  2

 70
     1
 40
0.0
 41
1.0
 50
0.0
 71
     0
 42
3.2
  3
genltshp.shx
  4

  0
STYLE
  5
BEF1
330
3
100
AcDbSymbolTableRecord
100
AcDbTextStyleTableRecord
  2
SEACAD_romans_shx
 70
     0
 40
0.0
 41
1.0
 50
0.0
 71
     0
 42
0.2
  3
romans.shx
  4

  0
STYLE
  5
BEF2
330
3
100
AcDbSymbolTableRecord
100
AcDbTextStyleTableRecord
  2
SEACAD_Arial
 70
     0
 40
0.0
 41
1.0
 50
0.0
 71
     0
 42
0.2
  3
ARIAL.TTF
  4

1001
ACAD
1000
Arial
1071
        0
  0
STYLE
  5
BEF3
330
3
100
AcDbSymbolTableRecord
100
AcDbTextStyleTableRecord
  2
SEACAD_Solid_Edge_ANSI1_Symbols
 70
     0
 40
0.0
 41
1.0
 50
0.0
 71
     0
 42
0.2
  3

  4

1001
ACAD
1000
Solid Edge ANSI1 Symbols
1071
        0
  0
STYLE
  5
BEF4
330
3
100
AcDbSymbolTableRecord
100
AcDbTextStyleTableRecord
  2
SEACAD_arial_ttf
 70
     0
 40
0.0
 41
1.0
 50
0.0
 71
     0
 42
0.2
  3

  4

1001
ACAD
1000
arial.ttf
1071
        0
  0
STYLE
  5
BEF5
330
3
100
AcDbSymbolTableRecord
100
AcDbTextStyleTableRecord
  2
ACANSTS
 70
     0
 40
1.0
 41
1.0
 50
0.0
 71
     0
 42
0.2
  3
romans.shx
  4
extfont.shx
  0
STYLE
  5
BEF6
330
3
100
AcDbSymbolTableRecord
100
AcDbTextStyleTableRecord
  2
ACANSGDT
 70
     0
 40
0.0
 41
1.0
 50
0.0
 71
     0
 42
0.2
  3
amgdt.shx
  4

  0
STYLE
  5
C54F
330
3
100
AcDbSymbolTableRecord
100
AcDbTextStyleTableRecord
  2
SEACAD_txt_shx
 70
     0
 40
0.0
 41
1.0
 50
0.0
 71
     0
 42
0.2
  3
txt.shx
  4

  0
ENDTAB
  0
TABLE
  2
VIEW
  5
6
330
0
100
AcDbSymbolTable
 70
     6
  0
VIEW
  5
AE1
330
6
100
AcDbSymbolTableRecord
100
AcDbViewTableRecord
  2
AM_VIEW1
 70
     0
 40
148.5
 10
121.0750262329485
 20
222.75
 41
242.1500524658971
 11
0.0
 21
0.0
 31
1.0
 12
0.0
 22
0.0
 32
0.0
 42
50.0
 43
-1370.695619172058
 44
-1370.695619172058
 50
0.0
 71
     0
281
     0
 72
     0
  0
VIEW
  5
AE2
330
6
100
AcDbSymbolTableRecord
100
AcDbViewTableRecord
  2
AM_VIEW2
 70
     0
 40
148.5
 10
298.9249737670514
 20
222.75
 41
242.1500524658971
 11
0.0
 21
0.0
 31
1.0
 12
0.0
 22
0.0
 32
0.0
 42
50.0
 43
-1370.695619172058
 44
-1370.695619172058
 50
0.0
 71
     0
281
     0
 72
     0
  0
VIEW
  5
AE3
330
6
100
AcDbSymbolTableRecord
100
AcDbViewTableRecord
  2
AM_VIEW3
 70
     0
 40
148.5
 10
121.0750262329485
 20
74.25
 41
242.1500524658971
 11
0.0
 21
0.0
 31
1.0
 12
0.0
 22
0.0
 32
0.0
 42
50.0
 43
-1370.695619172058
 44
-1370.695619172058
 50
0.0
 71
     0
281
     0
 72
     0
  0
VIEW
  5
AE4
330
6
100
AcDbSymbolTableRecord
100
AcDbViewTableRecord
  2
AM_VIEW4
 70
     0
 40
148.5
 10
298.9249737670514
 20
74.25
 41
242.1500524658971
 11
0.0
 21
0.0
 31
1.0
 12
0.0
 22
0.0
 32
0.0
 42
50.0
 43
-1370.695619172058
 44
-1370.695619172058
 50
0.0
 71
     0
281
     0
 72
     0
  0
VIEW
  5
AE5
330
6
100
AcDbSymbolTableRecord
100
AcDbViewTableRecord
  2
AM_VIEW5
 70
     0
 40
148.5
 10
210.0
 20
148.5
 41
242.1500524658971
 11
0.0
 21
0.0
 31
1.0
 12
0.0
 22
0.0
 32
0.0
 42
50.0
 43
-1370.695619172058
 44
-1370.695619172058
 50
0.0
 71
     0
281
     0
 72
     0
  0
VIEW
  5
AE6
330
6
100
AcDbSymbolTableRecord
100
AcDbViewTableRecord
  2
AM_VIEW6
 70
     0
 40
296.99703
 10
210.0
 20
148.5
 41
484.295261930745
 11
0.0
 21
0.0
 31
1.0
 12
0.0
 22
0.0
 32
0.0
 42
50.0
 43
-1370.695619172058
 44
-1370.695619172058
 50
0.0
 71
     0
281
     0
 72
     0
  0
ENDTAB
  0
TABLE
  2
UCS
  5
7
330
0
100
AcDbSymbolTable
 70
     0
  0
ENDTAB
  0
TABLE
  2
APPID
  5
9
330
0
100
AcDbSymbolTable
 70
    60
  0
APPID
  5
12
330
9
100
AcDbSymbolTableRecord
100
AcDbRegAppTableRecord
  2
ACAD
 70
     0
  0
APPID
  5
30
330
9
100
AcDbSymbolTableRecord
100
AcDbRegAppTableRecord
  2
MCAD_NO_VIS
 70
     0
  0
APPID
  5
31
330
9
100
AcDbSymbolTableRecord
100
AcDbRegAppTableRecord
  2
ACAD_TEMP_GRAPHIC
 70
     0
  0
APPID
  5
44
330
9
100
AcDbSymbolTableRecord
100
AcDbRegAppTableRecord
  2
ACATTRIBSERVICES
 70
     0
  0
APPID
  5
7A1
330
9
100
AcDbSymbolTableRecord
100
AcDbRegAppTableRecord
  2
GENIUS_GENDIMSH_14
 70
     0
  0
APPID
  5
A49
330
9
100
AcDbSymbolTableRecord
100
AcDbRegAppTableRecord
  2
GENIUS_GENREC_14
 70
     0
  0
APPID
  5
A4A
330
9
100
AcDbSymbolTableRecord
100
AcDbRegAppTableRecord
  2
GENIUS_GENOBJ-N-REC_13
 70
     0
  0
APPID
  5
A4B
330
9
100
AcDbSymbolTableRecord
100
AcDbRegAppTableRecord
  2
GENIUS_GENODEF_13
 70
     0
  0
APPID
  5
A4C
330
9
100
AcDbSymbolTableRecord
100
AcDbRegAppTableRecord
  2
DCO15
 70
     0
  0
APPID
  5
ADC
330
9
100
AcDbSymbolTableRecord
100
AcDbRegAppTableRecord
  2
GENIUS_GENOLIS_13
 70
     0
  0
APPID
  5
ADD
330
9
100
AcDbSymbolTableRecord
100
AcDbRegAppTableRecord
  2
GENIUS_GENOENT_13
 70
     0
  0
APPID
  5
ADE
330
9
100
AcDbSymbolTableRecord
100
AcDbRegAppTableRecord
  2
GENIUS_GENOBJ-N-TIT_13
 70
     0
  0
APPID
  5
ADF
330
9
100
AcDbSymbolTableRecord
100
AcDbRegAppTableRecord
  2
GENIUS_GENTITLE_13
 70
     0
  0
APPID
  5
AE0
330
9
100
AcDbSymbolTableRecord
100
AcDbRegAppTableRecord
  2
GENIUS_GENOREF_13
 70
     0
  0
APPID
  5
AE7
330
9
100
AcDbSymbolTableRecord
100
AcDbRegAppTableRecord
  2
GENIUS_GENSCREG_15
 70
     0
  0
APPID
  5
AE8
330
9
100
AcDbSymbolTableRecord
100
AcDbRegAppTableRecord
  2
GENIUS_GENOBJ-N-SDF_13
 70
     0
  0
APPID
  5
FAF
330
9
100
AcDbSymbolTableRecord
100
AcDbRegAppTableRecord
  2
GENIUS_GENBLLY_14
 70
     0
  0
APPID
  5
FB0
330
9
100
AcDbSymbolTableRecord
100
AcDbRegAppTableRecord
  2
GENIUS_GENTRA_14
 70
     0
  0
APPID
  5
1285
330
9
100
AcDbSymbolTableRecord
100
AcDbRegAppTableRecord
  2
GENIUS_GENDTOL_13
 70
     0
  0
APPID
  5
142D
330
9
100
AcDbSymbolTableRecord
100
AcDbRegAppTableRecord
  2
GENIUS_GENOBJ-N-CEN_13
 70
     0
  0
APPID
  5
1AB5
330
9
100
AcDbSymbolTableRecord
100
AcDbRegAppTableRecord
  2
GENIUS_GENOBJ-N-CRS_13
 70
     0
  0
APPID
  5
1B36
330
9
100
AcDbSymbolTableRecord
100
AcDbRegAppTableRecord
  2
GENIUS_GENOBJ-N-HTC_13
 70
     0
  0
APPID
  5
1B37
330
9
100
AcDbSymbolTableRecord
100
AcDbRegAppTableRecord
  2
GENIUS_GENHATCH_13
 70
     0
  0
APPID
  5
216D
330
9
100
AcDbSymbolTableRecord
100
AcDbRegAppTableRecord
  2
GENIUS_GENOBJ-N-FIL_13
 70
     0
  0
APPID
  5
2356
330
9
100
AcDbSymbolTableRecord
100
AcDbRegAppTableRecord
  2
GEVID990412420
 70
     0
  0
APPID
  5
2357
330
9
100
AcDbSymbolTableRecord
100
AcDbRegAppTableRecord
  2
GEVDC
 70
     0
  0
APPID
  5
2358
330
9
100
AcDbSymbolTableRecord
100
AcDbRegAppTableRecord
  2
GEVCON
 70
     0
  0
APPID
  5
235B
330
9
100
AcDbSymbolTableRecord
100
AcDbRegAppTableRecord
  2
GEVRADREF
 70
     0
  0
APPID
  5
2360
330
9
100
AcDbSymbolTableRecord
100
AcDbRegAppTableRecord
  2
GENIUS_GENBH_13
 70
     0
  0
APPID
  5
2362
330
9
100
AcDbSymbolTableRecord
100
AcDbRegAppTableRecord
  2
GENIUS_GENOBJ-NBEHI-BHF_13
 70
     0
  0
APPID
  5
2364
330
9
100
AcDbSymbolTableRecord
100
AcDbRegAppTableRecord
  2
GENIUS_GENOBJ-NBEHI-BHB_13
 70
     0
  0
APPID
  5
2379
330
9
100
AcDbSymbolTableRecord
100
AcDbRegAppTableRecord
  2
GENIUS_GENOBJ-F-SCPASSM_13
 70
     0
  0
APPID
  5
3D74
330
9
100
AcDbSymbolTableRecord
100
AcDbRegAppTableRecord
  2
GENIUS_GENDIM_13
 70
     0
  0
APPID
  5
3D76
330
9
100
AcDbSymbolTableRecord
100
AcDbRegAppTableRecord
  2
GENIUS_GE3DTOL_13
 70
     0
  0
APPID
  5
3D9C
330
9
100
AcDbSymbolTableRecord
100
AcDbRegAppTableRecord
  2
AD_DRAW
 70
     0
  0
APPID
  5
3DE8
330
9
100
AcDbSymbolTableRecord
100
AcDbRegAppTableRecord
  2
ASURF_PCURVE_APPNAME
 70
     0
  0
APPID
  5
3DED
330
9
100
AcDbSymbolTableRecord
100
AcDbRegAppTableRecord
  2
AMG_3D2D_5.0
 70
     0
  0
APPID
  5
3E1B
330
9
100
AcDbSymbolTableRecord
100
AcDbRegAppTableRecord
  2
DESIGNERASSEMBLIES
 70
     0
  0
APPID
  5
3E20
330
9
100
AcDbSymbolTableRecord
100
AcDbRegAppTableRecord
  2
ACADM_DIM_EDIT
 70
     0
  0
APPID
  5
3E21
330
9
100
AcDbSymbolTableRecord
100
AcDbRegAppTableRecord
  2
AMDT_DM_ADJ
 70
     0
  0
APPID
  5
4143
330
9
100
AcDbSymbolTableRecord
100
AcDbRegAppTableRecord
  2
GENIUS_GENFIL_13
 70
     0
  0
APPID
  5
4144
330
9
100
AcDbSymbolTableRecord
100
AcDbRegAppTableRecord
  2
GENIUS_GENOBJ-N-CHA_13
 70
     0
  0
APPID
  5
4E17
330
9
100
AcDbSymbolTableRecord
100
AcDbRegAppTableRecord
  2
GEVID1008153417
 70
     0
  0
APPID
  5
4E58
330
9
100
AcDbSymbolTableRecord
100
AcDbRegAppTableRecord
  2
GEVID1008153418
 70
     0
  0
APPID
  5
4E5E
330
9
100
AcDbSymbolTableRecord
100
AcDbRegAppTableRecord
  2
GEVID1008153419
 70
     0
  0
APPID
  5
4E64
330
9
100
AcDbSymbolTableRecord
100
AcDbRegAppTableRecord
  2
GEVID1008153420
 70
     0
  0
APPID
  5
4E75
330
9
100
AcDbSymbolTableRecord
100
AcDbRegAppTableRecord
  2
GEVID1008153421
 70
     0
  0
APPID
  5
4EB7
330
9
100
AcDbSymbolTableRecord
100
AcDbRegAppTableRecord
  2
GENIUS_AMGTXT_16
 70
     0
  0
APPID
  5
7645
330
9
100
AcDbSymbolTableRecord
100
AcDbRegAppTableRecord
  2
GENIUS_GENOBJ-N-DIM_13
 70
     0
  0
APPID
  5
AAD0
330
9
100
AcDbSymbolTableRecord
100
AcDbRegAppTableRecord
  2
ACAD_DSTYLE_DIMARC_LENGTH_SYMBOL
 70
     0
  0
APPID
  5
AAD1
330
9
100
AcDbSymbolTableRecord
100
AcDbRegAppTableRecord
  2
ACAD_DSTYLE_DIMJOGGED_JOGANGLE_SYMBOL
 70
     0
  0
APPID
  5
AAFD
330
9
100
AcDbSymbolTableRecord
100
AcDbRegAppTableRecord
  2
ACAD_PSEXT
 70
     0
  0
APPID
  5
AD61
330
9
100
AcDbSymbolTableRecord
100
AcDbRegAppTableRecord
  2
AcAecLayerStandard
 70
     0
  0
APPID
  5
AEE3
330
9
100
AcDbSymbolTableRecord
100
AcDbRegAppTableRecord
  2
ACAD_EXEMPT_FROM_CAD_STANDARDS
 70
     0
  0
APPID
  5
B1BE
330
9
100
AcDbSymbolTableRecord
100
AcDbRegAppTableRecord
  2
GENIUS_GENCEN_19
 70
     0
  0
APPID
  5
B597
330
9
100
AcDbSymbolTableRecord
100
AcDbRegAppTableRecord
  2
ACAD_MLEADERVER
 70
     0
  0
APPID
  5
B7CC
330
9
100
AcDbSymbolTableRecord
100
AcDbRegAppTableRecord
  2
ACAD_DSTYLE_DIMINSPECT
 70
     0
  0
APPID
  5
B7CD
330
9
100
AcDbSymbolTableRecord
100
AcDbRegAppTableRecord
  2
ACAD_DSTYLE_DIMRADIAL_EXTENSION
 70
     0
  0
APPID
  5
CC82
330
9
100
AcDbSymbolTableRecord
100
AcDbRegAppTableRecord
  2
ACDBBLOCKREPETAG
 70
     0
  0
APPID
  5
CC83
330
9
100
AcDbSymbolTableRecord
100
AcDbRegAppTableRecord
  2
AcDbDynamicBlockGUID
 70
     0
  0
ENDTAB
  0
TABLE
  2
DIMSTYLE
  5
A
330
0
100
AcDbSymbolTable
 70
    26
100
AcDbDimStyleTable
 71
     1
340
2515
  0
DIMSTYLE
105
A76
330
A
100
AcDbSymbolTableRecord
100
AcDbDimStyleTableRecord
  2
STANDARD
 70
     0
 41
3.0
 42
1.0
 43
7.0
 44
2.0
 73
     0
 74
     0
 77
     1
140
2.799999999999999
141
0.0
143
0.0394
147
0.7
171
     4
172
     1
173
     1
176
     3
177
     3
178
     2
271
     3
272
     3
273
     8
274
     4
289
     0
340
A74
341
A66
343
A66
344
A66
  0
DIMSTYLE
105
2515
330
A
100
AcDbSymbolTableRecord
100
AcDbDimStyleTableRecord
  2
SYS
 70
     0
  4
"
 41
1.0
 42
1.0
 43
10.0
 44
1.0
 47
0.1
 48
0.1
 73
     0
 74
     0
 77
     1
 78
     8
 79
     2
140
3.5
141
0.0
143
0.0393701
146
0.71
147
1.5
172
     1
176
   256
177
   256
178
     7
271
     2
272
     2
283
     0
284
     8
340
11
371
    -1
372
    -1
1001
ACAD_DSTYLE_DIMJOGGED_JOGANGLE_SYMBOL
1070
   384
1040
0.7853981633974483
1001
ACAD_DSTYLE_DIMARC_LENGTH_SYMBOL
1070
   379
1070
     1
  0
DIMSTYLE
105
2516
102
{ACAD_REACTORS
330
EF28
102
}
330
A
100
AcDbSymbolTableRecord
100
AcDbDimStyleTableRecord
  2
SYS$3
 70
     0
  4
"
 41
2.0
 42
1.0
 43
10.0
 44
1.0
 47
0.1
 48
0.1
 73
     0
 77
     1
 78
     8
 79
     2
140
3.5
141
0.0
143
0.0393701
146
0.71
147
1.5
176
   256
177
   256
178
     2
271
     2
272
     2
283
     0
284
     8
288
     1
340
11
342
A66
371
    -1
372
    -1
1001
ACAD_DSTYLE_DIMJOGGED_JOGANGLE_SYMBOL
1070
   384
1040
0.7853981633974483
1001
ACAD_DSTYLE_DIMARC_LENGTH_SYMBOL
1070
   379
1070
     1
  0
DIMSTYLE
105
2517
330
A
100
AcDbSymbolTableRecord
100
AcDbDimStyleTableRecord
  2
SYS$4
 70
     0
  4
"
 41
2.0
 42
1.0
 43
10.0
 44
1.0
 47
0.1
 48
0.1
 73
     0
 77
     1
 78
     8
 79
     2
140
3.5
141
0.0
143
0.0393701
146
0.71
147
1.5
173
     1
176
   256
177
   256
178
     2
271
     2
272
     2
283
     0
284
     8
288
     1
340
11
344
A66
371
    -1
372
    -1
1001
ACAD_DSTYLE_DIMJOGGED_JOGANGLE_SYMBOL
1070
   384
1040
0.7853981633974483
1001
ACAD_DSTYLE_DIMARC_LENGTH_SYMBOL
1070
   379
1070
     1
  0
DIMSTYLE
105
2518
330
A
100
AcDbSymbolTableRecord
100
AcDbDimStyleTableRecord
  2
SYS$6
 70
     0
  4
"
 41
2.0
 42
1.0
 43
10.0
 44
1.0
 47
0.1
 48
0.1
 73
     0
 74
     0
 78
     8
 79
     2
140
3.5
141
0.0
143
0.0393701
146
0.71
147
1.5
172
     1
176
   256
177
   256
178
     2
271
     2
272
     2
283
     0
284
     8
340
11
341
A66
371
    -1
372
    -1
1001
ACAD_DSTYLE_DIMJOGGED_JOGANGLE_SYMBOL
1070
   384
1040
0.7853981633974483
1001
ACAD_DSTYLE_DIMARC_LENGTH_SYMBOL
1070
   379
1070
     1
  0
DIMSTYLE
105
2519
330
A
100
AcDbSymbolTableRecord
100
AcDbDimStyleTableRecord
  2
SYS$7
 70
     0
  4
"
 41
2.0
 42
1.0
 43
10.0
 44
1.0
 47
0.1
 48
0.1
 73
     0
 74
     0
 77
     1
 78
     8
 79
     2
140
5.0
141
0.0
143
0.0393701
146
0.71
147
1.5
172
     1
176
   256
177
   256
178
     2
271
     2
272
     2
283
     0
284
     8
340
11
341
A66
342
A66
371
    -1
372
    -1
1001
ACAD_DSTYLE_DIMJOGGED_JOGANGLE_SYMBOL
1070
   384
1040
0.7853981633974483
1001
ACAD_DSTYLE_DIMARC_LENGTH_SYMBOL
1070
   379
1070
     1
  0
DIMSTYLE
105
251A
330
A
100
AcDbSymbolTableRecord
100
AcDbDimStyleTableRecord
  2
SYS$SF
 70
     0
  4
"
 41
2.5
 42
1.0
 43
10.0
 44
1.0
 47
0.1
 48
0.1
 73
     0
 74
     0
 75
     1
 76
     1
 77
     1
 78
     8
 79
     2
140
3.5
141
0.0
143
0.0393701
146
0.71
147
1.5
172
     1
176
   256
177
   256
178
     2
271
     2
272
     3
283
     0
284
     8
340
11
341
6C4
342
6C4
371
    -1
372
    -1
1001
ACAD_DSTYLE_DIMJOGGED_JOGANGLE_SYMBOL
1070
   384
1040
0.7853981633974483
1001
ACAD_DSTYLE_DIMARC_LENGTH_SYMBOL
1070
   379
1070
     1
  0
DIMSTYLE
105
251B
330
A
100
AcDbSymbolTableRecord
100
AcDbDimStyleTableRecord
  2
SYS$SH
 70
     0
  4
"
 41
2.5
 42
1.0
 43
10.0
 44
1.0
 47
0.1
 48
0.1
 73
     0
 74
     0
 75
     1
 76
     1
 77
     1
 78
     8
 79
     2
140
3.5
141
0.0
143
0.0393701
144
2.0
146
0.71
147
1.5
172
     1
173
     1
176
   256
177
   256
178
     2
271
     2
272
     3
283
     0
284
     8
340
11
341
6C4
343
72
344
6C4
371
    -1
372
    -1
1001
ACAD_DSTYLE_DIMJOGGED_JOGANGLE_SYMBOL
1070
   384
1040
0.7853981633974483
1001
ACAD_DSTYLE_DIMARC_LENGTH_SYMBOL
1070
   379
1070
     1
  0
DIMSTYLE
105
2A59
330
A
100
AcDbSymbolTableRecord
100
AcDbDimStyleTableRecord
  2
SYS$2
 70
     0
  4
"
 41
1.0
 42
1.0
 43
10.0
 44
1.0
 47
0.1
 48
0.1
 73
     0
 74
     0
 77
     1
 78
     8
 79
     2
140
3.5
141
0.0
143
0.0393701
146
0.71
147
1.5
172
     1
176
   256
177
   256
178
     2
271
     2
272
     2
283
     0
284
     8
340
11
342
6C4
371
    -1
372
    -1
1001
ACAD_DSTYLE_DIMJOGGED_JOGANGLE_SYMBOL
1070
   384
1040
0.7853981633974483
1001
ACAD_DSTYLE_DIMARC_LENGTH_SYMBOL
1070
   379
1070
     1
  0
DIMSTYLE
105
2AAB
102
{ACAD_REACTORS
330
E902
330
E92A
330
E949
330
E97B
330
E9A3
330
E9CB
330
EA18
330
EB27
330
EBBB
330
ED8F
330
EDC0
330
F377
102
}
330
A
100
AcDbSymbolTableRecord
100
AcDbDimStyleTableRecord
  2
SYS$0
 70
     0
  4
"
 41
1.0
 42
1.0
 43
10.0
 44
1.0
 47
0.1
 48
0.1
 73
     0
 74
     0
 77
     1
 78
     8
 79
     2
140
3.200000000000001
141
0.0
143
0.0393701
146
0.71
147
1.5
172
     1
176
   256
177
   256
178
     2
271
     2
272
     2
283
     0
284
     8
340
11
341
A66
342
6C4
371
    -1
372
    -1
1001
ACAD_DSTYLE_DIMJOGGED_JOGANGLE_SYMBOL
1070
   384
1040
0.7853981633974483
1001
ACAD_DSTYLE_DIMARC_LENGTH_SYMBOL
1070
   379
1070
     1
  0
DIMSTYLE
105
AF99
330
A
100
AcDbSymbolTableRecord
100
AcDbDimStyleTableRecord
  2
AM_ISO
 70
     0
  4
"
 41
2.5
 42
1.0
 43
10.0
 44
1.0
 47
0.1
 48
0.1
 73
     0
 74
     0
 77
     1
 78
     8
 79
     2
140
3.5
141
0.0
143
0.0393701
146
0.71
147
1.5
172
     1
176
   256
177
   256
178
     2
271
     2
272
     3
274
     4
283
     0
284
     8
340
11
371
    -1
372
    -1
  0
DIMSTYLE
105
AF9A
330
A
100
AcDbSymbolTableRecord
100
AcDbDimStyleTableRecord
  2
AM_ISO$3
 70
     0
  4
"
 41
2.5
 42
1.0
 43
10.0
 44
1.0
 47
0.1
 48
0.1
 73
     0
 77
     1
 78
     8
 79
     2
140
3.5
141
0.0
143
0.0393701
146
0.71
147
1.5
176
   256
177
   256
178
     2
271
     2
272
     3
274
     4
283
     0
284
     8
288
     1
289
     0
340
11
371
    -1
372
    -1
  0
DIMSTYLE
105
AF9B
330
A
100
AcDbSymbolTableRecord
100
AcDbDimStyleTableRecord
  2
AM_ISO$4
 70
     0
  4
"
 41
2.5
 42
1.0
 43
10.0
 44
1.0
 47
0.1
 48
0.1
 73
     0
 77
     1
 78
     8
 79
     2
140
3.5
141
0.0
143
0.0393701
146
0.71
147
1.5
176
   256
177
   256
178
     2
271
     2
272
     3
274
     4
283
     0
284
     8
288
     1
289
     0
340
11
371
    -1
372
    -1
  0
DIMSTYLE
105
AF9C
330
A
100
AcDbSymbolTableRecord
100
AcDbDimStyleTableRecord
  2
AM_ISO$6
 70
     0
  4
"
 41
2.5
 42
1.0
 43
10.0
 44
1.0
 47
0.1
 48
0.1
 73
     0
 74
     0
 78
     8
 79
     2
140
3.5
141
0.0
143
0.0393701
146
0.71
147
1.5
172
     1
176
   256
177
   256
178
     2
271
     2
272
     3
274
     4
283
     0
284
     8
340
11
371
    -1
372
    -1
  0
DIMSTYLE
105
AF9D
330
A
100
AcDbSymbolTableRecord
100
AcDbDimStyleTableRecord
  2
AM_ISO$7
 70
     0
  4
"
 41
2.5
 42
1.0
 43
10.0
 44
1.0
 47
0.1
 48
0.1
 73
     0
 74
     0
 77
     1
 78
     8
 79
     2
140
5.0
141
0.0
143
0.0393701
146
0.71
147
1.5
172
     1
176
   256
177
   256
178
     2
271
     2
272
     3
274
     4
283
     0
284
     8
340
11
371
    -1
372
    -1
  0
DIMSTYLE
105
AF9E
330
A
100
AcDbSymbolTableRecord
100
AcDbDimStyleTableRecord
  2
AM_ISO$SF
 70
     0
  4
"
 41
2.5
 42
1.0
 43
10.0
 44
1.0
 47
0.1
 48
0.1
 73
     0
 74
     0
 75
     1
 76
     1
 77
     1
 78
     8
 79
     2
140
3.5
141
0.0
143
0.0393701
146
0.71
147
1.5
172
     1
176
   256
177
   256
178
     2
271
     2
272
     3
274
     4
283
     0
284
     8
340
11
371
    -1
372
    -1
  0
DIMSTYLE
105
AF9F
330
A
100
AcDbSymbolTableRecord
100
AcDbDimStyleTableRecord
  2
AM_ISO$SH
 70
     0
  4
"
 41
2.5
 42
1.0
 43
10.0
 44
1.0
 47
0.1
 48
0.1
 73
     0
 74
     0
 75
     1
 76
     1
 77
     1
 78
     8
 79
     2
140
3.5
141
0.0
143
0.0393701
144
2.0
146
0.71
147
1.5
172
     1
173
     1
176
   256
177
   256
178
     2
271
     2
272
     3
274
     4
283
     0
284
     8
340
11
343
72
371
    -1
372
    -1
  0
DIMSTYLE
105
BEF7
330
A
100
AcDbSymbolTableRecord
100
AcDbDimStyleTableRecord
  2
JIS
 70
     0
 41
2.000000004799999
 42
1.250000003
 44
1.250000003
 73
     0
 74
     0
 77
     1
 78
     8
140
2.500000006
141
1.250000003
144
0.9999999975999999
147
0.2500000006
173
     1
271
     2
272
     2
284
     8
340
BEF2
343
BDFD
344
BDFD
  0
DIMSTYLE
105
BEF8
330
A
100
AcDbSymbolTableRecord
100
AcDbDimStyleTableRecord
  2
AM_ANSI
 70
     0
  4
mm
 41
0.1
 42
0.05
 43
0.5
 44
0.1
 47
0.1
 48
0.1
 78
     7
 79
     2
140
0.12
141
0.0
146
0.71
147
0.06
176
   256
177
   256
178
     2
274
     4
284
     7
340
11
371
    -1
372
    -1
1001
ACAD_DSTYLE_DIMARC_LENGTH_SYMBOL
1070
   379
1070
     1
  0
DIMSTYLE
105
BEF9
330
A
100
AcDbSymbolTableRecord
100
AcDbDimStyleTableRecord
  2
AM_ANSI$3
 70
     0
  4
mm
 41
0.1
 42
0.05
 43
0.5
 44
0.1
 47
0.1
 48
0.1
 78
     7
 79
     2
140
0.12
141
0.0
146
0.71
147
0.06
176
   256
177
   256
178
     2
274
     4
284
     7
288
     1
289
     0
340
11
371
    -1
372
    -1
1001
ACAD_DSTYLE_DIMARC_LENGTH_SYMBOL
1070
   379
1070
     1
  0
DIMSTYLE
105
BEFA
330
A
100
AcDbSymbolTableRecord
100
AcDbDimStyleTableRecord
  2
AM_ANSI$4
 70
     0
  4
mm
 41
0.1
 42
0.05
 43
0.5
 44
0.1
 47
0.1
 48
0.1
 78
     7
 79
     2
140
0.12
141
0.0
146
0.71
147
0.06
176
   256
177
   256
178
     2
274
     4
284
     7
288
     1
289
     0
340
11
371
    -1
372
    -1
1001
ACAD_DSTYLE_DIMARC_LENGTH_SYMBOL
1070
   379
1070
     1
  0
DIMSTYLE
105
BEFB
330
A
100
AcDbSymbolTableRecord
100
AcDbDimStyleTableRecord
  2
AM_ANSI$7
 70
     0
  4
mm
 41
0.1
 42
0.05
 43
0.5
 44
0.1
 47
0.1
 48
0.1
 78
     7
 79
     2
140
0.24
141
0.0
146
0.71
147
0.06
176
   256
177
   256
178
     2
274
     4
284
     7
340
11
371
    -1
372
    -1
1001
ACAD_DSTYLE_DIMARC_LENGTH_SYMBOL
1070
   379
1070
     1
  0
DIMSTYLE
105
BEFC
330
A
100
AcDbSymbolTableRecord
100
AcDbDimStyleTableRecord
  2
AM_ANSI$SF
 70
     0
  4
mm
 41
0.1
 42
0.05
 43
0.5
 44
0.1
 47
0.1
 48
0.1
 75
     1
 76
     1
 78
     7
 79
     2
140
0.12
141
0.0
146
0.71
147
0.06
176
   256
177
   256
178
     2
274
     4
284
     7
340
11
371
    -1
372
    -1
1001
ACAD_DSTYLE_DIMARC_LENGTH_SYMBOL
1070
   379
1070
     1
  0
DIMSTYLE
105
BEFD
330
A
100
AcDbSymbolTableRecord
100
AcDbDimStyleTableRecord
  2
AM_ANSI$SH
 70
     0
  4
mm
 41
0.1
 42
0.05
 43
0.5
 44
0.1
 47
0.1
 48
0.1
 75
     1
 76
     1
 78
     7
 79
     2
140
0.12
141
0.0
146
0.71
147
0.06
173
     1
176
   256
177
   256
178
     2
274
     4
284
     7
340
11
343
72
371
    -1
372
    -1
1001
ACAD_DSTYLE_DIMARC_LENGTH_SYMBOL
1070
   379
1070
     1
  0
DIMSTYLE
105
F0BC
330
A
100
AcDbSymbolTableRecord
100
AcDbDimStyleTableRecord
  2
AM_ISO$0
 70
     0
  4
"
 41
0.8
 42
1.0
 43
10.0
 44
1.0
 47
0.1
 48
0.1
 73
     0
 74
     0
 77
     1
 78
     8
 79
     2
140
3.2
141
0.0
143
0.0393701
146
0.71
147
0.9999999999999996
172
     1
176
   256
177
   256
178
     2
271
     2
272
     2
283
     0
284
     8
340
11
341
6C4
342
6C4
371
    -1
372
    -1
1001
ACAD_DSTYLE_DIMJOGGED_JOGANGLE_SYMBOL
1070
   384
1040
0.7853981633974483
1001
ACAD_DSTYLE_DIMARC_LENGTH_SYMBOL
1070
   379
1070
     1
  0
DIMSTYLE
105
F0BD
330
A
100
AcDbSymbolTableRecord
100
AcDbDimStyleTableRecord
  2
AM_ISO$2
 70
     0
  4
"
 41
0.8
 42
1.0
 43
10.0
 44
1.0
 47
0.1
 48
0.1
 73
     0
 74
     0
 77
     3
 78
     8
 79
     2
140
3.200000000000001
141
0.0
143
0.0393701
146
0.71
147
0.9999999999999996
172
     1
176
   256
177
   256
178
     2
271
     2
272
     2
283
     0
284
     8
340
11
342
6C4
371
    -1
372
    -1
1001
ACAD_DSTYLE_DIMJOGGED_JOGANGLE_SYMBOL
1070
   384
1040
0.7853981633974483
1001
ACAD_DSTYLE_DIMARC_LENGTH_SYMBOL
1070
   379
1070
     1
  0
ENDTAB
  0
TABLE
  2
BLOCK_RECORD
  5
1
330
0
100
AcDbSymbolTable
 70
    20
  0
BLOCK_RECORD
  5
1F
102
{ACAD_XDICTIONARY
360
8A
102
}
330
1
100
AcDbSymbolTableRecord
100
AcDbBlockTableRecord
  2
*Model_Space
340
22
  0
BLOCK_RECORD
  5
1B
330
1
100
AcDbSymbolTableRecord
100
AcDbBlockTableRecord
  2
*Paper_Space
340
1E
  0
BLOCK_RECORD
  5
23
330
1
100
AcDbSymbolTableRecord
100
AcDbBlockTableRecord
  2
*Paper_Space0
340
26
  0
BLOCK_RECORD
  5
72
330
1
100
AcDbSymbolTableRecord
100
AcDbBlockTableRecord
  2
GENAXEH
340
0
  0
BLOCK_RECORD
  5
6C4
330
1
100
AcDbSymbolTableRecord
100
AcDbBlockTableRecord
  2
_Dot
340
0
102
{BLKREFS
331
EF75
331
EF76
331
EF7E
331
EF7F
331
EF89
331
EF8A
331
EF9A
331
EF9B
331
EFB7
331
EFB8
331
EFC0
331
EFC1
331
EFCB
331
EFCC
331
EFD4
331
EFD5
331
EFE6
331
EFE7
331
EFEF
331
EFF0
331
F38B
331
F38C
331
F396
331
F397
102
}
  0
BLOCK_RECORD
  5
A66
330
1
100
AcDbSymbolTableRecord
100
AcDbBlockTableRecord
  2
_OPEN30
340
0
  0
BLOCK_RECORD
  5
B6A3
330
1
100
AcDbSymbolTableRecord
100
AcDbBlockTableRecord
  2
GENDOT
340
0
102
{BLKREFS
331
EFFA
331
EFFB
102
}
  0
BLOCK_RECORD
  5
BDFD
330
1
100
AcDbSymbolTableRecord
100
AcDbBlockTableRecord
  2
_SE_OPEN
340
0
  0
BLOCK_RECORD
  5
E903
330
1
100
AcDbSymbolTableRecord
100
AcDbBlockTableRecord
  2
*D7
340
0
  0
BLOCK_RECORD
  5
E92B
330
1
100
AcDbSymbolTableRecord
100
AcDbBlockTableRecord
  2
*D8
340
0
  0
BLOCK_RECORD
  5
E94A
330
1
100
AcDbSymbolTableRecord
100
AcDbBlockTableRecord
  2
*D9
340
0
  0
BLOCK_RECORD
  5
E97C
330
1
100
AcDbSymbolTableRecord
100
AcDbBlockTableRecord
  2
*D10
340
0
  0
BLOCK_RECORD
  5
E9A4
330
1
100
AcDbSymbolTableRecord
100
AcDbBlockTableRecord
  2
*D11
340
0
  0
BLOCK_RECORD
  5
E9CC
330
1
100
AcDbSymbolTableRecord
100
AcDbBlockTableRecord
  2
*D12
340
0
  0
BLOCK_RECORD
  5
EA19
330
1
100
AcDbSymbolTableRecord
100
AcDbBlockTableRecord
  2
*D13
340
0
  0
BLOCK_RECORD
  5
EB28
330
1
100
AcDbSymbolTableRecord
100
AcDbBlockTableRecord
  2
*D14
340
0
  0
BLOCK_RECORD
  5
EBBC
330
1
100
AcDbSymbolTableRecord
100
AcDbBlockTableRecord
  2
*D15
340
0
  0
BLOCK_RECORD
  5
ED90
330
1
100
AcDbSymbolTableRecord
100
AcDbBlockTableRecord
  2
*D16
340
0
  0
BLOCK_RECORD
  5
EDC1
330
1
100
AcDbSymbolTableRecord
100
AcDbBlockTableRecord
  2
*D17
340
0
  0
BLOCK_RECORD
  5
EF29
330
1
100
AcDbSymbolTableRecord
100
AcDbBlockTableRecord
  2
*D18
340
0
  0
BLOCK_RECORD
  5
F378
330
1
100
AcDbSymbolTableRecord
100
AcDbBlockTableRecord
  2
*D19
340
0
  0
ENDTAB
  0
ENDSEC
  0
SECTION
  2
BLOCKS
  0
BLOCK
  5
20
330
1F
100
AcDbEntity
  8
0
100
AcDbBlockBegin
  2
*Model_Space
 70
     0
 10
0.0
 20
0.0
 30
0.0
  3
*Model_Space
  1

  0
ENDBLK
  5
21
330
1F
100
AcDbEntity
  8
0
100
AcDbBlockEnd
  0
BLOCK
  5
1C
330
1B
100
AcDbEntity
 67
     1
  8
0
100
AcDbBlockBegin
  2
*Paper_Space
 70
     0
 10
0.0
 20
0.0
 30
0.0
  3
*Paper_Space
  1

  0
ENDBLK
  5
1D
330
1B
100
AcDbEntity
 67
     1
  8
0
100
AcDbBlockEnd
  0
BLOCK
  5
24
330
23
100
AcDbEntity
 67
     1
  8
0
100
AcDbBlockBegin
  2
*Paper_Space0
 70
     0
 10
0.0
 20
0.0
 30
0.0
  3
*Paper_Space0
  1

  0
ENDBLK
  5
25
330
23
100
AcDbEntity
 67
     1
  8
0
100
AcDbBlockEnd
  0
BLOCK
  5
74
330
72
100
AcDbEntity
  8
0
100
AcDbBlockBegin
  2
GENAXEH
 70
     0
 10
0.0
 20
0.0
 30
0.0
  3
GENAXEH
  1

  0
LINE
  5
73
330
72
100
AcDbEntity
  8
0
100
AcDbLine
 10
-1.0
 20
0.0
 30
0.0
 11
1.0
 21
0.0
 31
0.0
  0
ENDBLK
  5
75
330
72
100
AcDbEntity
  8
0
100
AcDbBlockEnd
  0
BLOCK
  5
6C7
330
6C4
100
AcDbEntity
  8
0
100
AcDbBlockBegin
  2
_Dot
 70
     0
 10
0.0
 20
0.0
 30
0.0
  3
_Dot
  1

  0
LWPOLYLINE
  5
6C5
330
6C4
100
AcDbEntity
  8
0
  6
ByBlock
 62
     0
100
AcDbPolyline
 90
        2
 70
     1
 43
0.5
 10
-0.25
 20
0.0
 42
1.0
 10
0.25
 20
0.0
 42
1.0
  0
LINE
  5
6C6
330
6C4
100
AcDbEntity
  8
0
  6
ByBlock
 62
     0
370
    -2
100
AcDbLine
 10
-0.5
 20
0.0
 30
0.0
 11
-1.0
 21
0.0
 31
0.0
  0
ENDBLK
  5
6C8
330
6C4
100
AcDbEntity
  8
0
100
AcDbBlockEnd
  0
BLOCK
  5
A6A
330
A66
100
AcDbEntity
  8
0
100
AcDbBlockBegin
  2
_OPEN30
 70
     0
 10
0.0
 20
0.0
 30
0.0
  3
_OPEN30
  1

  0
LINE
  5
A67
330
A66
100
AcDbEntity
  8
0
  6
ByBlock
 62
     0
100
AcDbLine
 10
-1.0
 20
0.26794919
 30
0.0
 11
0.0
 21
0.0
 31
0.0
  0
LINE
  5
A68
330
A66
100
AcDbEntity
  8
0
  6
ByBlock
 62
     0
100
AcDbLine
 10
0.0
 20
0.0
 30
0.0
 11
-1.0
 21
-0.26794919
 31
0.0
  0
LINE
  5
A69
330
A66
100
AcDbEntity
  8
0
  6
ByBlock
 62
     0
100
AcDbLine
 10
0.0
 20
0.0
 30
0.0
 11
-1.0
 21
0.0
 31
0.0
  0
ENDBLK
  5
A6B
330
A66
100
AcDbEntity
  8
0
100
AcDbBlockEnd
  0
BLOCK
  5
B6A4
330
B6A3
100
AcDbEntity
  8
0
100
AcDbBlockBegin
  2
GENDOT
 70
     0
 10
0.0
 20
0.0
 30
0.0
  3
GENDOT
  1

  0
LINE
  5
B6A5
330
B6A3
100
AcDbEntity
  8
0
100
AcDbLine
 10
0.0
 20
0.0
 30
0.0
 11
-1.0
 21
0.0
 31
0.0
  0
LWPOLYLINE
  5
B6A6
330
B6A3
100
AcDbEntity
  8
0
100
AcDbPolyline
 90
        2
 70
     1
 43
0.25
 10
-0.125
 20
0.0
 42
1.0
 10
0.125
 20
0.0
 42
1.0
  0
ENDBLK
  5
B6A7
330
B6A3
100
AcDbEntity
  8
0
100
AcDbBlockEnd
  0
BLOCK
  5
BDFE
330
BDFD
100
AcDbEntity
  8
0
100
AcDbBlockBegin
  2
_SE_OPEN
 70
     0
 10
0.0
 20
0.0
 30
0.0
  3
_SE_OPEN
  1

  0
LINE
  5
BDFF
330
BDFD
100
AcDbEntity
  8
0
 62
     0
100
AcDbLine
 10
0.0
 20
0.0
 30
0.0
 11
-1.0
 21
-0.1665
 31
0.0
  0
LINE
  5
BE00
330
BDFD
100
AcDbEntity
  8
0
 62
     0
100
AcDbLine
 10
-1.0
 20
0.1665
 30
0.0
 11
0.0
 21
0.0
 31
0.0
  0
LINE
  5
BE01
330
BDFD
100
AcDbEntity
  8
0
 62
     0
100
AcDbLine
 10
0.0
 20
0.0
 30
0.0
 11
-1.0
 21
0.0
 31
0.0
  0
ENDBLK
  5
BE02
330
BDFD
100
AcDbEntity
  8
0
100
AcDbBlockEnd
  0
BLOCK
  5
E904
330
E903
100
AcDbEntity
  8
0
100
AcDbBlockBegin
  2
*D7
 70
     1
 10
0.0
 20
0.0
 30
0.0
  3
*D7
  1

  0
LINE
  5
EFB4
330
E903
100
AcDbEntity
  8
AM_5
100
AcDbLine
 10
156.1897390083436
 20
179.7114951040296
 30
0.0
 11
156.1897390083436
 21
194.3114951040296
 31
0.0
  0
LINE
  5
EFB5
330
E903
100
AcDbEntity
  8
AM_5
100
AcDbLine
 10
193.1897390083436
 20
179.7114951040296
 30
0.0
 11
193.1897390083436
 21
194.3114951040296
 31
0.0
  0
LINE
  5
EFB6
330
E903
100
AcDbEntity
  8
AM_5
100
AcDbLine
 10
157.1897390083436
 20
193.3114951040296
 30
0.0
 11
192.1897390083436
 21
193.3114951040296
 31
0.0
  0
INSERT
  5
EFB7
330
E903
100
AcDbEntity
  8
AM_5
100
AcDbBlockReference
  2
_Dot
 10
156.1897390083436
 20
193.3114951040296
 30
0.0
 50
180.0
  0
INSERT
  5
EFB8
330
E903
100
AcDbEntity
  8
AM_5
100
AcDbBlockReference
  2
_Dot
 10
193.1897390083436
 20
193.3114951040296
 30
0.0
  0
MTEXT
  5
EFB9
330
E903
100
AcDbEntity
  8
AM_5
 62
     2
100
AcDbMText
 10
174.6897390083436
 20
196.4114951040296
 30
0.0
 40
3.200000000000001
 41
0.0
 71
     5
 72
     1
  1
37
 73
     1
 44
1.0
1001
ACAD
1000
MTEXTBEGIN
1070
    73
1070
     1
1070
    44
1040
1.0
1070
    74
1070
     0
1000
MTEXTEND
  0
POINT
  5
EFBA
330
E903
100
AcDbEntity
  8
Defpoints
 62
     0
100
AcDbPoint
 10
156.1897390083436
 20
178.7114951040296
 30
0.0
  0
POINT
  5
EFBB
330
E903
100
AcDbEntity
  8
Defpoints
 62
     0
100
AcDbPoint
 10
193.1897390083436
 20
178.7114951040296
 30
0.0
  0
POINT
  5
EFBC
330
E903
100
AcDbEntity
  8
Defpoints
 62
     0
100
AcDbPoint
 10
193.1897390083436
 20
193.3114951040296
 30
0.0
  0
ENDBLK
  5
E905
330
E903
100
AcDbEntity
  8
0
100
AcDbBlockEnd
  0
BLOCK
  5
E92C
330
E92B
100
AcDbEntity
  8
0
100
AcDbBlockBegin
  2
*D8
 70
     1
 10
0.0
 20
0.0
 30
0.0
  3
*D8
  1

  0
LINE
  5
EFBD
330
E92B
100
AcDbEntity
  8
AM_5
100
AcDbLine
 10
131.6897390083435
 20
179.3114951040296
 30
0.0
 11
131.6897390083435
 21
204.3114951040297
 31
0.0
  0
LINE
  5
EFBE
330
E92B
100
AcDbEntity
  8
AM_5
100
AcDbLine
 10
217.6897390083436
 20
179.3114951040296
 30
0.0
 11
217.6897390083436
 21
204.3114951040297
 31
0.0
  0
LINE
  5
EFBF
330
E92B
100
AcDbEntity
  8
AM_5
100
AcDbLine
 10
132.6897390083435
 20
203.3114951040297
 30
0.0
 11
216.6897390083436
 21
203.3114951040297
 31
0.0
  0
INSERT
  5
EFC0
330
E92B
100
AcDbEntity
  8
AM_5
100
AcDbBlockReference
  2
_Dot
 10
131.6897390083435
 20
203.3114951040297
 30
0.0
 50
180.0
  0
INSERT
  5
EFC1
330
E92B
100
AcDbEntity
  8
AM_5
100
AcDbBlockReference
  2
_Dot
 10
217.6897390083436
 20
203.3114951040297
 30
0.0
  0
MTEXT
  5
EFC2
330
E92B
100
AcDbEntity
  8
AM_5
 62
     2
100
AcDbMText
 10
174.6897390083436
 20
206.4114951040297
 30
0.0
 40
3.200000000000001
 41
0.0
 71
     5
 72
     1
  1
86
 73
     1
 44
1.0
1001
ACAD
1000
MTEXTBEGIN
1070
    73
1070
     1
1070
    44
1040
1.0
1070
    74
1070
     0
1000
MTEXTEND
  0
POINT
  5
EFC3
330
E92B
100
AcDbEntity
  8
Defpoints
 62
     0
100
AcDbPoint
 10
131.6897390083435
 20
178.3114951040296
 30
0.0
  0
POINT
  5
EFC4
330
E92B
100
AcDbEntity
  8
Defpoints
 62
     0
100
AcDbPoint
 10
217.6897390083436
 20
178.3114951040296
 30
0.0
  0
POINT
  5
EFC5
330
E92B
100
AcDbEntity
  8
Defpoints
 62
     0
100
AcDbPoint
 10
217.6897390083436
 20
203.3114951040297
 30
0.0
  0
ENDBLK
  5
E92D
330
E92B
100
AcDbEntity
  8
0
100
AcDbBlockEnd
  0
BLOCK
  5
E94B
330
E94A
100
AcDbEntity
  8
0
100
AcDbBlockBegin
  2
*D9
 70
     1
 10
0.0
 20
0.0
 30
0.0
  3
*D9
  1

  0
LINE
  5
EF7B
330
E94A
100
AcDbEntity
  8
AM_5
100
AcDbLine
 10
146.1897390083436
 20
139.7114951040296
 30
0.0
 11
146.1897390083436
 21
98.31149510402966
 31
0.0
  0
LINE
  5
EF7C
330
E94A
100
AcDbEntity
  8
AM_5
100
AcDbLine
 10
203.1897390083436
 20
139.7114951040296
 30
0.0
 11
203.1897390083436
 21
98.31149510402966
 31
0.0
  0
LINE
  5
EF7D
330
E94A
100
AcDbEntity
  8
AM_5
100
AcDbLine
 10
147.1897390083436
 20
99.31149510402967
 30
0.0
 11
202.1897390083436
 21
99.31149510402967
 31
0.0
  0
INSERT
  5
EF7E
330
E94A
100
AcDbEntity
  8
AM_5
100
AcDbBlockReference
  2
_Dot
 10
146.1897390083436
 20
99.31149510402967
 30
0.0
 50
180.0
  0
INSERT
  5
EF7F
330
E94A
100
AcDbEntity
  8
AM_5
100
AcDbBlockReference
  2
_Dot
 10
203.1897390083436
 20
99.31149510402967
 30
0.0
  0
MTEXT
  5
EF80
330
E94A
100
AcDbEntity
  8
AM_5
 62
     2
100
AcDbMText
 10
174.6897390083436
 20
102.4114951040296
 30
0.0
 40
3.200000000000001
 41
0.0
 71
     5
 72
     1
  1
57
 73
     1
 44
1.0
1001
ACAD
1000
MTEXTBEGIN
1070
    73
1070
     1
1070
    44
1040
1.0
1070
    74
1070
     0
1000
MTEXTEND
  0
POINT
  5
EF81
330
E94A
100
AcDbEntity
  8
Defpoints
 62
     0
100
AcDbPoint
 10
146.1897390083436
 20
140.7114951040296
 30
0.0
  0
POINT
  5
EF82
330
E94A
100
AcDbEntity
  8
Defpoints
 62
     0
100
AcDbPoint
 10
203.1897390083436
 20
140.7114951040296
 30
0.0
  0
POINT
  5
EF83
330
E94A
100
AcDbEntity
  8
Defpoints
 62
     0
100
AcDbPoint
 10
203.1897390083436
 20
99.31149510402967
 30
0.0
  0
ENDBLK
  5
E94C
330
E94A
100
AcDbEntity
  8
0
100
AcDbBlockEnd
  0
BLOCK
  5
E97D
330
E97C
100
AcDbEntity
  8
0
100
AcDbBlockBegin
  2
*D10
 70
     1
 10
0.0
 20
0.0
 30
0.0
  3
*D10
  1

  0
LINE
  5
EF86
330
E97C
100
AcDbEntity
  8
AM_5
100
AcDbLine
 10
123.6897390083436
 20
128.3114951040296
 30
0.0
 11
123.6897390083436
 21
88.31149510402966
 31
0.0
  0
LINE
  5
EF87
330
E97C
100
AcDbEntity
  8
AM_5
100
AcDbLine
 10
225.6897390083436
 20
128.3114951040296
 30
0.0
 11
225.6897390083436
 21
88.31149510402966
 31
0.0
  0
LINE
  5
EF88
330
E97C
100
AcDbEntity
  8
AM_5
100
AcDbLine
 10
124.6897390083436
 20
89.31149510402965
 30
0.0
 11
224.6897390083436
 21
89.31149510402965
 31
0.0
  0
INSERT
  5
EF89
330
E97C
100
AcDbEntity
  8
AM_5
100
AcDbBlockReference
  2
_Dot
 10
123.6897390083436
 20
89.31149510402965
 30
0.0
 50
180.0
  0
INSERT
  5
EF8A
330
E97C
100
AcDbEntity
  8
AM_5
100
AcDbBlockReference
  2
_Dot
 10
225.6897390083436
 20
89.31149510402965
 30
0.0
  0
MTEXT
  5
EF8B
330
E97C
100
AcDbEntity
  8
AM_5
 62
     2
100
AcDbMText
 10
174.6897390083436
 20
92.41149510402966
 30
0.0
 40
3.200000000000001
 41
0.0
 71
     5
 72
     1
  1
102
 73
     1
 44
1.0
1001
ACAD
1000
MTEXTBEGIN
1070
    73
1070
     1
1070
    44
1040
1.0
1070
    74
1070
     0
1000
MTEXTEND
  0
POINT
  5
EF8C
330
E97C
100
AcDbEntity
  8
Defpoints
 62
     0
100
AcDbPoint
 10
123.6897390083436
 20
129.3114951040296
 30
0.0
  0
POINT
  5
EF8D
330
E97C
100
AcDbEntity
  8
Defpoints
 62
     0
100
AcDbPoint
 10
225.6897390083436
 20
129.3114951040296
 30
0.0
  0
POINT
  5
EF8E
330
E97C
100
AcDbEntity
  8
Defpoints
 62
     0
100
AcDbPoint
 10
225.6897390083436
 20
89.31149510402965
 30
0.0
  0
ENDBLK
  5
E97E
330
E97C
100
AcDbEntity
  8
0
100
AcDbBlockEnd
  0
BLOCK
  5
E9A5
330
E9A4
100
AcDbEntity
  8
0
100
AcDbBlockBegin
  2
*D11
 70
     1
 10
0.0
 20
0.0
 30
0.0
  3
*D11
  1

  0
LINE
  5
EFD1
330
E9A4
100
AcDbEntity
  8
AM_5
100
AcDbLine
 10
209.7897390083436
 20
146.3114951040296
 30
0.0
 11
228.6897390083436
 21
146.3114951040296
 31
0.0
  0
LINE
  5
EFD2
330
E9A4
100
AcDbEntity
  8
AM_5
100
AcDbLine
 10
199.7897390083436
 20
173.3114951040296
 30
0.0
 11
228.6897390083436
 21
173.3114951040296
 31
0.0
  0
LINE
  5
EFD3
330
E9A4
100
AcDbEntity
  8
AM_5
100
AcDbLine
 10
227.6897390083436
 20
147.3114951040296
 30
0.0
 11
227.6897390083436
 21
172.3114951040296
 31
0.0
  0
INSERT
  5
EFD4
330
E9A4
100
AcDbEntity
  8
AM_5
100
AcDbBlockReference
  2
_Dot
 10
227.6897390083436
 20
146.3114951040296
 30
0.0
 50
270.0
  0
INSERT
  5
EFD5
330
E9A4
100
AcDbEntity
  8
AM_5
100
AcDbBlockReference
  2
_Dot
 10
227.6897390083436
 20
173.3114951040296
 30
0.0
 50
90.0
  0
MTEXT
  5
EFD6
330
E9A4
100
AcDbEntity
  8
AM_5
 62
     2
100
AcDbMText
 10
224.5897390083436
 20
159.8114951040297
 30
0.0
 40
3.200000000000001
 41
0.0
 71
     5
 72
     1
  1
27
 11
0.0000000000000001
 21
1.0
 31
0.0
 73
     1
 44
1.0
1001
ACAD
1000
MTEXTBEGIN
1070
    73
1070
     1
1070
    44
1040
1.0
1070
    74
1070
     0
1000
MTEXTEND
  0
POINT
  5
EFD7
330
E9A4
100
AcDbEntity
  8
Defpoints
 62
     0
100
AcDbPoint
 10
208.7897390083436
 20
146.3114951040296
 30
0.0
  0
POINT
  5
EFD8
330
E9A4
100
AcDbEntity
  8
Defpoints
 62
     0
100
AcDbPoint
 10
198.7897390083436
 20
173.3114951040296
 30
0.0
  0
POINT
  5
EFD9
330
E9A4
100
AcDbEntity
  8
Defpoints
 62
     0
100
AcDbPoint
 10
227.6897390083436
 20
173.3114951040296
 30
0.0
  0
ENDBLK
  5
E9A6
330
E9A4
100
AcDbEntity
  8
0
100
AcDbBlockEnd
  0
BLOCK
  5
E9CD
330
E9CC
100
AcDbEntity
  8
0
100
AcDbBlockBegin
  2
*D12
 70
     1
 10
0.0
 20
0.0
 30
0.0
  3
*D12
  1

  0
LINE
  5
EFE3
330
E9CC
100
AcDbEntity
  8
AM_5
100
AcDbLine
 10
199.7897390083436
 20
173.3114951040296
 30
0.0
 11
228.6897390083437
 21
173.3114951040296
 31
0.0
  0
LINE
  5
EFE4
330
E9CC
100
AcDbEntity
  8
AM_5
100
AcDbLine
 10
213.6897390083436
 20
183.3114951040296
 30
0.0
 11
228.6897390083437
 21
183.3114951040296
 31
0.0
  0
LINE
  5
EFE5
330
E9CC
100
AcDbEntity
  8
AM_5
100
AcDbLine
 10
227.6897390083437
 20
174.3114951040296
 30
0.0
 11
227.6897390083437
 21
182.3114951040296
 31
0.0
  0
INSERT
  5
EFE6
330
E9CC
100
AcDbEntity
  8
AM_5
100
AcDbBlockReference
  2
_Dot
 10
227.6897390083437
 20
173.3114951040296
 30
0.0
 50
270.0
  0
INSERT
  5
EFE7
330
E9CC
100
AcDbEntity
  8
AM_5
100
AcDbBlockReference
  2
_Dot
 10
227.6897390083437
 20
183.3114951040296
 30
0.0
 50
90.0
  0
MTEXT
  5
EFE8
330
E9CC
100
AcDbEntity
  8
AM_5
 62
     2
100
AcDbMText
 10
224.5897390083437
 20
178.3114951040297
 30
0.0
 40
3.200000000000001
 41
0.0
 71
     5
 72
     1
  1
（10）
 11
0.0000000000000001
 21
1.0
 31
0.0
 73
     1
 44
1.0
1001
ACAD
1000
MTEXTBEGIN
1070
    73
1070
     1
1070
    44
1040
1.0
1070
    74
1070
     0
1000
MTEXTEND
  0
POINT
  5
EFE9
330
E9CC
100
AcDbEntity
  8
Defpoints
 62
     0
100
AcDbPoint
 10
198.7897390083436
 20
173.3114951040296
 30
0.0
  0
POINT
  5
EFEA
330
E9CC
100
AcDbEntity
  8
Defpoints
 62
     0
100
AcDbPoint
 10
212.6897390083436
 20
183.3114951040296
 30
0.0
  0
POINT
  5
EFEB
330
E9CC
100
AcDbEntity
  8
Defpoints
 62
     0
100
AcDbPoint
 10
227.6897390083437
 20
183.3114951040296
 30
0.0
  0
ENDBLK
  5
E9CE
330
E9CC
100
AcDbEntity
  8
0
100
AcDbBlockEnd
  0
BLOCK
  5
EA1A
330
EA19
100
AcDbEntity
  8
0
100
AcDbBlockBegin
  2
*D13
 70
     1
 10
0.0
 20
0.0
 30
0.0
  3
*D13
  1

  0
LINE
  5
EFC8
330
EA19
100
AcDbEntity
  8
AM_5
100
AcDbLine
 10
142.1897390083436
 20
158.3114951040296
 30
0.0
 11
120.6897390083435
 21
158.3114951040296
 31
0.0
  0
LINE
  5
EFC9
330
EA19
100
AcDbEntity
  8
AM_5
100
AcDbLine
 10
149.5897390083436
 20
173.3114951040296
 30
0.0
 11
120.6897390083435
 21
173.3114951040296
 31
0.0
  0
LINE
  5
EFCA
330
EA19
100
AcDbEntity
  8
AM_5
100
AcDbLine
 10
121.6897390083435
 20
159.3114951040296
 30
0.0
 11
121.6897390083435
 21
172.3114951040296
 31
0.0
  0
INSERT
  5
EFCB
330
EA19
100
AcDbEntity
  8
AM_5
100
AcDbBlockReference
  2
_Dot
 10
121.6897390083435
 20
158.3114951040296
 30
0.0
 50
270.0
  0
INSERT
  5
EFCC
330
EA19
100
AcDbEntity
  8
AM_5
100
AcDbBlockReference
  2
_Dot
 10
121.6897390083435
 20
173.3114951040296
 30
0.0
 50
90.0
  0
MTEXT
  5
EFCD
330
EA19
100
AcDbEntity
  8
AM_5
 62
     2
100
AcDbMText
 10
118.5897390083435
 20
165.8114951040297
 30
0.0
 40
3.200000000000001
 41
0.0
 71
     5
 72
     1
  1
（15）
 11
0.0000000000000001
 21
1.0
 31
0.0
 73
     1
 44
1.0
1001
ACAD
1000
MTEXTBEGIN
1070
    73
1070
     1
1070
    44
1040
1.0
1070
    74
1070
     0
1000
MTEXTEND
  0
POINT
  5
EFCE
330
EA19
100
AcDbEntity
  8
Defpoints
 62
     0
100
AcDbPoint
 10
143.1897390083435
 20
158.3114951040296
 30
0.0
  0
POINT
  5
EFCF
330
EA19
100
AcDbEntity
  8
Defpoints
 62
     0
100
AcDbPoint
 10
150.5897390083436
 20
173.3114951040296
 30
0.0
  0
POINT
  5
EFD0
330
EA19
100
AcDbEntity
  8
Defpoints
 62
     0
100
AcDbPoint
 10
121.6897390083435
 20
173.3114951040296
 30
0.0
  0
ENDBLK
  5
EA1B
330
EA19
100
AcDbEntity
  8
0
100
AcDbBlockEnd
  0
BLOCK
  5
EB29
330
EB28
100
AcDbEntity
  8
0
100
AcDbBlockBegin
  2
*D14
 70
     1
 10
0.0
 20
0.0
 30
0.0
  3
*D14
  1

  0
LINE
  5
F393
330
EB28
100
AcDbEntity
  8
AM_5
100
AcDbLine
 10
263.2196635412893
 20
169.6338976045813
 30
0.0
 11
263.2196635412893
 21
204.3114951040297
 31
0.0
  0
LINE
  5
F394
330
EB28
100
AcDbEntity
  8
AM_5
100
AcDbLine
 10
276.2196635412893
 20
184.3114951040296
 30
0.0
 11
276.2196635412893
 21
204.3114951040297
 31
0.0
  0
LINE
  5
F395
330
EB28
100
AcDbEntity
  8
AM_5
100
AcDbLine
 10
264.2196635412893
 20
203.3114951040297
 30
0.0
 11
275.2196635412893
 21
203.3114951040297
 31
0.0
  0
INSERT
  5
F396
330
EB28
100
AcDbEntity
  8
AM_5
100
AcDbBlockReference
  2
_Dot
 10
263.2196635412893
 20
203.3114951040297
 30
0.0
 50
180.0
  0
INSERT
  5
F397
330
EB28
100
AcDbEntity
  8
AM_5
100
AcDbBlockReference
  2
_Dot
 10
276.2196635412893
 20
203.3114951040297
 30
0.0
  0
MTEXT
  5
F398
330
EB28
100
AcDbEntity
  8
AM_5
 62
     2
100
AcDbMText
 10
269.7196635412893
 20
206.4114951040297
 30
0.0
 40
3.200000000000001
 41
0.0
 71
     5
 72
     1
  1
13
 73
     1
 44
1.0
1001
ACAD
1000
MTEXTBEGIN
1070
    73
1070
     1
1070
    44
1040
1.0
1070
    74
1070
     0
1000
MTEXTEND
  0
POINT
  5
F399
330
EB28
100
AcDbEntity
  8
Defpoints
 62
     0
100
AcDbPoint
 10
263.2196635412893
 20
168.6338976045813
 30
0.0
  0
POINT
  5
F39A
330
EB28
100
AcDbEntity
  8
Defpoints
 62
     0
100
AcDbPoint
 10
276.2196635412893
 20
183.3114951040296
 30
0.0
  0
POINT
  5
F39B
330
EB28
100
AcDbEntity
  8
Defpoints
 62
     0
100
AcDbPoint
 10
276.2196635412893
 20
203.3114951040297
 30
0.0
  0
ENDBLK
  5
EB2A
330
EB28
100
AcDbEntity
  8
0
100
AcDbBlockEnd
  0
BLOCK
  5
EBBD
330
EBBC
100
AcDbEntity
  8
0
100
AcDbBlockBegin
  2
*D15
 70
     1
 10
0.0
 20
0.0
 30
0.0
  3
*D15
  1

  0
LINE
  5
EF72
330
EBBC
100
AcDbEntity
  8
AM_5
100
AcDbLine
 10
273.6196635412893
 20
112.3114951040296
 30
0.0
 11
273.6196635412893
 21
98.31149510402966
 31
0.0
  0
LINE
  5
EF73
330
EBBC
100
AcDbEntity
  8
AM_5
100
AcDbLine
 10
265.6196635412893
 20
112.3114951040296
 30
0.0
 11
265.6196635412893
 21
98.31149510402966
 31
0.0
  0
LINE
  5
EF74
330
EBBC
100
AcDbEntity
  8
AM_5
100
AcDbLine
 10
272.6196635412894
 20
99.31149510402965
 30
0.0
 11
266.6196635412894
 21
99.31149510402965
 31
0.0
  0
INSERT
  5
EF75
330
EBBC
100
AcDbEntity
  8
AM_5
100
AcDbBlockReference
  2
_Dot
 10
273.6196635412893
 20
99.31149510402965
 30
0.0
  0
INSERT
  5
EF76
330
EBBC
100
AcDbEntity
  8
AM_5
100
AcDbBlockReference
  2
_Dot
 10
265.6196635412893
 20
99.31149510402965
 30
0.0
 50
180.0
  0
MTEXT
  5
EF77
330
EBBC
100
AcDbEntity
  8
AM_5
 62
     2
100
AcDbMText
 10
269.6196635412893
 20
102.4114951040296
 30
0.0
 40
3.200000000000001
 41
0.0
 71
     5
 72
     1
  1
%%c8
 73
     1
 44
1.0
1001
ACAD
1000
MTEXTBEGIN
1070
    73
1070
     1
1070
    44
1040
1.0
1070
    74
1070
     0
1000
MTEXTEND
  0
POINT
  5
EF78
330
EBBC
100
AcDbEntity
  8
Defpoints
 62
     0
100
AcDbPoint
 10
273.6196635412893
 20
113.3114951040296
 30
0.0
  0
POINT
  5
EF79
330
EBBC
100
AcDbEntity
  8
Defpoints
 62
     0
100
AcDbPoint
 10
265.6196635412893
 20
113.3114951040296
 30
0.0
  0
POINT
  5
EF7A
330
EBBC
100
AcDbEntity
  8
Defpoints
 62
     0
100
AcDbPoint
 10
265.6196635412893
 20
99.31149510402965
 30
0.0
  0
ENDBLK
  5
EBBE
330
EBBC
100
AcDbEntity
  8
0
100
AcDbBlockEnd
  0
BLOCK
  5
ED91
330
ED90
100
AcDbEntity
  8
0
100
AcDbBlockBegin
  2
*D16
 70
     1
 10
0.0
 20
0.0
 30
0.0
  3
*D16
  1

  0
LINE
  5
EF97
330
ED90
100
AcDbEntity
  8
AM_5
100
AcDbLine
 10
213.6897390083436
 20
183.3114951040296
 30
0.0
 11
238.6897390083436
 21
183.3114951040296
 31
0.0
  0
LINE
  5
EF98
330
ED90
100
AcDbEntity
  8
AM_5
100
AcDbLine
 10
213.6897390083436
 20
138.3114951040296
 30
0.0
 11
238.6897390083436
 21
138.3114951040296
 31
0.0
  0
LINE
  5
EF99
330
ED90
100
AcDbEntity
  8
AM_5
100
AcDbLine
 10
237.6897390083437
 20
182.3114951040296
 30
0.0
 11
237.6897390083437
 21
139.3114951040296
 31
0.0
  0
INSERT
  5
EF9A
330
ED90
100
AcDbEntity
  8
AM_5
100
AcDbBlockReference
  2
_Dot
 10
237.6897390083437
 20
183.3114951040296
 30
0.0
 50
90.0
  0
INSERT
  5
EF9B
330
ED90
100
AcDbEntity
  8
AM_5
100
AcDbBlockReference
  2
_Dot
 10
237.6897390083437
 20
138.3114951040296
 30
0.0
 50
270.0
  0
MTEXT
  5
EF9C
330
ED90
100
AcDbEntity
  8
AM_5
 62
     2
100
AcDbMText
 10
234.5897390083436
 20
160.8114951040297
 30
0.0
 40
3.200000000000001
 41
0.0
 71
     5
 72
     1
  1
45
 11
0.0000000000000001
 21
1.0
 31
0.0
 73
     1
 44
1.0
1001
ACAD
1000
MTEXTBEGIN
1070
    73
1070
     1
1070
    44
1040
1.0
1070
    74
1070
     0
1000
MTEXTEND
  0
POINT
  5
EF9D
330
ED90
100
AcDbEntity
  8
Defpoints
 62
     0
100
AcDbPoint
 10
212.6897390083436
 20
183.3114951040296
 30
0.0
  0
POINT
  5
EF9E
330
ED90
100
AcDbEntity
  8
Defpoints
 62
     0
100
AcDbPoint
 10
212.6897390083436
 20
138.3114951040296
 30
0.0
  0
POINT
  5
EF9F
330
ED90
100
AcDbEntity
  8
Defpoints
 62
     0
100
AcDbPoint
 10
237.6897390083437
 20
138.3114951040296
 30
0.0
  0
ENDBLK
  5
ED92
330
ED90
100
AcDbEntity
  8
0
100
AcDbBlockEnd
  0
BLOCK
  5
EDC2
330
EDC1
100
AcDbEntity
  8
0
100
AcDbBlockBegin
  2
*D17
 70
     1
 10
0.0
 20
0.0
 30
0.0
  3
*D17
  1

  0
LINE
  5
EFEC
330
EDC1
100
AcDbEntity
  8
AM_5
100
AcDbLine
 10
277.2196635412893
 20
183.3114951040296
 30
0.0
 11
287.2196635412893
 21
183.3114951040296
 31
0.0
  0
LINE
  5
EFED
330
EDC1
100
AcDbEntity
  8
AM_5
100
AcDbLine
 10
271.1196635412894
 20
109.3114951040296
 30
0.0
 11
287.2196635412893
 21
109.3114951040296
 31
0.0
  0
LINE
  5
EFEE
330
EDC1
100
AcDbEntity
  8
AM_5
100
AcDbLine
 10
286.2196635412893
 20
182.3114951040296
 30
0.0
 11
286.2196635412892
 21
110.3114951040296
 31
0.0
  0
INSERT
  5
EFEF
330
EDC1
100
AcDbEntity
  8
AM_5
100
AcDbBlockReference
  2
_Dot
 10
286.2196635412893
 20
183.3114951040296
 30
0.0
 50
90.0
  0
INSERT
  5
EFF0
330
EDC1
100
AcDbEntity
  8
AM_5
100
AcDbBlockReference
  2
_Dot
 10
286.2196635412892
 20
109.3114951040296
 30
0.0
 50
270.0
  0
MTEXT
  5
EFF1
330
EDC1
100
AcDbEntity
  8
AM_5
 62
     2
100
AcDbMText
 10
283.1196635412892
 20
146.3114951040297
 30
0.0
 40
3.200000000000001
 41
0.0
 71
     5
 72
     1
  1
（74）
 11
0.0000000000000001
 21
1.0
 31
0.0
 73
     1
 44
1.0
1001
ACAD
1000
MTEXTBEGIN
1070
    73
1070
     1
1070
    44
1040
1.0
1070
    74
1070
     0
1000
MTEXTEND
  0
POINT
  5
EFF2
330
EDC1
100
AcDbEntity
  8
Defpoints
 62
     0
100
AcDbPoint
 10
276.2196635412893
 20
183.3114951040296
 30
0.0
  0
POINT
  5
EFF3
330
EDC1
100
AcDbEntity
  8
Defpoints
 62
     0
100
AcDbPoint
 10
270.1196635412894
 20
109.3114951040296
 30
0.0
  0
POINT
  5
EFF4
330
EDC1
100
AcDbEntity
  8
Defpoints
 62
     0
100
AcDbPoint
 10
286.2196635412892
 20
109.3114951040296
 30
0.0
  0
ENDBLK
  5
EDC3
330
EDC1
100
AcDbEntity
  8
0
100
AcDbBlockEnd
  0
BLOCK
  5
EF32
330
EF29
100
AcDbEntity
  8
0
100
AcDbBlockBegin
  2
*D18
 70
     1
 10
0.0
 20
0.0
 30
0.0
  3
*D18
  1

  0
LINE
  5
EFF5
330
EF29
100
AcDbEntity
  8
AM_5
100
AcDbLine
 10
214.8672007388191
 20
187.667879112253
 30
0.0
 11
200.6505340721524
 21
187.667879112253
 31
0.0
  0
LINE
  5
EFF6
330
EF29
100
AcDbEntity
  8
AM_5
100
AcDbLine
 10
200.6505340721524
 20
187.667879112253
 30
0.0
 11
195.3109489262441
 21
177.3932188188592
 31
0.0
  0
LINE
  5
EFF7
330
EF29
100
AcDbEntity
  8
AM_5
100
AcDbLine
 10
191.0685290904432
 20
169.2297713892003
 30
0.0
 11
190.1462639087474
 21
167.4551089044919
 31
0.0
  0
MTEXT
  5
EFF8
330
EF29
100
AcDbEntity
  8
AM_5
 62
     2
100
AcDbMText
 10
208.5088674054858
 20
190.917879112253
 30
0.0
 40
3.5
 41
0.0
 71
     5
 72
     1
  1
4-\U+22055.2
 73
     1
 44
1.0
1001
ACAD
1000
MTEXTBEGIN
1070
    73
1070
     1
1070
    44
1040
1.0
1070
    74
1070
     0
1000
MTEXTEND
  0
LINE
  5
EFF9
330
EF29
100
AcDbEntity
  8
AM_5
100
AcDbLine
 10
191.9907942721391
 20
171.0044338739088
 30
0.0
 11
194.3886837445483
 21
175.6185563341507
 31
0.0
  0
INSERT
  5
EFFA
330
EF29
100
AcDbEntity
  8
AM_5
100
AcDbBlockReference
  2
GENDOT
 10
191.9907942721391
 20
171.0044338739088
 30
0.0
 41
2.0
 42
2.0
 43
2.0
 50
62.53978430307859
  0
INSERT
  5
EFFB
330
EF29
100
AcDbEntity
  8
AM_5
100
AcDbBlockReference
  2
GENDOT
 10
194.3886837445483
 20
175.6185563341507
 30
0.0
 41
2.0
 42
2.0
 43
2.0
 50
242.5397843030786
  0
POINT
  5
EFFC
330
EF29
100
AcDbEntity
  8
Defpoints
 62
     0
100
AcDbPoint
 10
194.3886837445483
 20
175.6185563341507
 30
0.0
  0
POINT
  5
EFFD
330
EF29
100
AcDbEntity
  8
Defpoints
 62
     0
100
AcDbPoint
 10
191.9907942721391
 20
171.0044338739088
 30
0.0
  0
ENDBLK
  5
EF33
330
EF29
100
AcDbEntity
  8
0
100
AcDbBlockEnd
  0
BLOCK
  5
F384
330
F378
100
AcDbEntity
  8
0
100
AcDbBlockBegin
  2
*D19
 70
     1
 10
0.0
 20
0.0
 30
0.0
  3
*D19
  1

  0
LINE
  5
F386
330
F378
100
AcDbEntity
  8
AM_5
100
AcDbLine
 10
274.6196635412894
 20
184.3114951040296
 30
0.0
 11
274.6196635412894
 21
194.3114951040296
 31
0.0
  0
LINE
  5
F387
330
F378
100
AcDbEntity
  8
AM_5
100
AcDbLine
 10
276.2196635412893
 20
184.3114951040296
 30
0.0
 11
276.2196635412893
 21
194.3114951040296
 31
0.0
  0
LINE
  5
F388
330
F378
100
AcDbEntity
  8
AM_5
100
AcDbLine
 10
273.6196635412893
 20
193.3114951040296
 30
0.0
 11
272.6196635412894
 21
193.3114951040296
 31
0.0
  0
LINE
  5
F389
330
F378
100
AcDbEntity
  8
AM_5
100
AcDbLine
 10
277.2196635412893
 20
193.3114951040296
 30
0.0
 11
285.5929968746226
 21
193.3114951040296
 31
0.0
  0
LINE
  5
F38A
330
F378
100
AcDbEntity
  8
AM_5
100
AcDbLine
 10
274.6196635412894
 20
193.3114951040296
 30
0.0
 11
276.2196635412893
 21
193.3114951040296
 31
0.0
  0
INSERT
  5
F38B
330
F378
100
AcDbEntity
  8
AM_5
100
AcDbBlockReference
  2
_Dot
 10
274.6196635412894
 20
193.3114951040296
 30
0.0
  0
INSERT
  5
F38C
330
F378
100
AcDbEntity
  8
AM_5
100
AcDbBlockReference
  2
_Dot
 10
276.2196635412893
 20
193.3114951040296
 30
0.0
 50
180.0
  0
MTEXT
  5
F38D
330
F378
100
AcDbEntity
  8
AM_5
 62
     2
100
AcDbMText
 10
281.9063302079559
 20
196.4114951040296
 30
0.0
 40
3.200000000000001
 41
0.0
 71
     5
 72
     1
  1
1.6
 73
     1
 44
1.0
1001
ACAD
1000
MTEXTBEGIN
1070
    73
1070
     1
1070
    44
1040
1.0
1070
    74
1070
     0
1000
MTEXTEND
  0
POINT
  5
F38E
330
F378
100
AcDbEntity
  8
Defpoints
 62
     0
100
AcDbPoint
 10
274.6196635412894
 20
183.3114951040296
 30
0.0
  0
POINT
  5
F38F
330
F378
100
AcDbEntity
  8
Defpoints
 62
     0
100
AcDbPoint
 10
276.2196635412893
 20
183.3114951040296
 30
0.0
  0
POINT
  5
F390
330
F378
100
AcDbEntity
  8
Defpoints
 62
     0
100
AcDbPoint
 10
276.2196635412893
 20
193.3114951040296
 30
0.0
  0
ENDBLK
  5
F385
330
F378
100
AcDbEntity
  8
0
100
AcDbBlockEnd
  0
ENDSEC
  0
SECTION
  2
ENTITIES
  0
LINE
  5
B9F0
330
1F
100
AcDbEntity
  8
size
100
AcDbLine
 10
0.0
 20
0.0
 30
0.0
 11
420.0
 21
0.0
 31
0.0
1001
GENIUS_GENREC_14
1002
{
1000
PYDIR
1011
0.0000000000000142
1021
297.0
1031
0.0
1002
}
1002
{
1000
PXDIR
1011
420.0
1021
0.0
1031
0.0
1002
}
1002
{
1000
PORI
1011
0.0
1021
0.0
1031
0.0
1002
}
1002
{
1000
PINS
1011
210.0
1021
148.5
1031
0.0
1002
}
1002
{
1000
HVAL
1000
297
1002
}
1002
{
1000
H
1070
     2
1002
}
1002
{
1000
WVAL
1000
420
1002
}
1002
{
1000
W
1070
     2
1002
}
1002
{
1000
C
1070
     4
1002
}
1001
GENIUS_GENOBJ-N-REC_13
1002
{
1000
OWNER
1000
GEN
1002
}
1001
GENIUS_GENODEF_13
1002
{
1000
HIER
1070
     0
1002
}
1002
{
1000
MANEDIT
1070
     0
1002
}
1002
{
1000
NOSEL
1070
     0
1002
}
1002
{
1000
BEHIND
1070
     0
1002
}
1002
{
1000
OTHER
1070
     0
1002
}
1002
{
1000
REACTOR
1002
}
  0
LINE
  5
B9F1
330
1F
100
AcDbEntity
  8
size
100
AcDbLine
 10
420.0
 20
0.0
 30
0.0
 11
420.0
 21
297.0
 31
0.0
1001
GENIUS_GENREC_14
1002
{
1000
PYDIR
1011
0.0000000000000142
1021
297.0
1031
0.0
1002
}
1002
{
1000
PXDIR
1011
420.0
1021
0.0
1031
0.0
1002
}
1002
{
1000
PORI
1011
0.0
1021
0.0
1031
0.0
1002
}
1002
{
1000
PINS
1011
210.0
1021
148.5
1031
0.0
1002
}
1002
{
1000
HVAL
1000
297
1002
}
1002
{
1000
H
1070
     2
1002
}
1002
{
1000
WVAL
1000
420
1002
}
1002
{
1000
W
1070
     2
1002
}
1002
{
1000
C
1070
     4
1002
}
1001
GENIUS_GENOBJ-N-REC_13
1002
{
1000
OWNER
1000
GEN
1002
}
1001
GENIUS_GENODEF_13
1002
{
1000
HIER
1070
     0
1002
}
1002
{
1000
MANEDIT
1070
     0
1002
}
1002
{
1000
NOSEL
1070
     0
1002
}
1002
{
1000
BEHIND
1070
     0
1002
}
1002
{
1000
OTHER
1070
     0
1002
}
1002
{
1000
REACTOR
1002
}
  0
LINE
  5
B9F2
330
1F
100
AcDbEntity
  8
size
100
AcDbLine
 10
420.0
 20
297.0
 30
0.0
 11
0.0000000000000284
 21
297.0
 31
0.0
1001
GENIUS_GENREC_14
1002
{
1000
PYDIR
1011
0.0000000000000142
1021
297.0
1031
0.0
1002
}
1002
{
1000
PXDIR
1011
420.0
1021
0.0
1031
0.0
1002
}
1002
{
1000
PORI
1011
0.0
1021
0.0
1031
0.0
1002
}
1002
{
1000
PINS
1011
210.0
1021
148.5
1031
0.0
1002
}
1002
{
1000
HVAL
1000
297
1002
}
1002
{
1000
H
1070
     2
1002
}
1002
{
1000
WVAL
1000
420
1002
}
1002
{
1000
W
1070
     2
1002
}
1002
{
1000
C
1070
     4
1002
}
1001
GENIUS_GENOBJ-N-REC_13
1002
{
1000
OWNER
1000
GEN
1002
}
1001
GENIUS_GENODEF_13
1002
{
1000
HIER
1070
     0
1002
}
1002
{
1000
MANEDIT
1070
     0
1002
}
1002
{
1000
NOSEL
1070
     0
1002
}
1002
{
1000
BEHIND
1070
     0
1002
}
1002
{
1000
OTHER
1070
     0
1002
}
1002
{
1000
REACTOR
1002
}
  0
LINE
  5
B9F3
330
1F
100
AcDbEntity
  8
size
100
AcDbLine
 10
0.0000000000000284
 20
297.0
 30
0.0
 11
0.0
 21
0.0
 31
0.0
1001
GENIUS_GENREC_14
1002
{
1000
PYDIR
1011
0.0000000000000142
1021
297.0
1031
0.0
1002
}
1002
{
1000
PXDIR
1011
420.0
1021
0.0
1031
0.0
1002
}
1002
{
1000
PORI
1011
0.0
1021
0.0
1031
0.0
1002
}
1002
{
1000
PINS
1011
210.0
1021
148.5
1031
0.0
1002
}
1002
{
1000
HVAL
1000
297
1002
}
1002
{
1000
H
1070
     2
1002
}
1002
{
1000
WVAL
1000
420
1002
}
1002
{
1000
W
1070
     2
1002
}
1002
{
1000
C
1070
     4
1002
}
1001
GENIUS_GENOBJ-N-REC_13
1002
{
1000
OWNER
1000
GEN
1002
}
1001
GENIUS_GENODEF_13
1002
{
1000
HIER
1070
     0
1002
}
1002
{
1000
MANEDIT
1070
     0
1002
}
1002
{
1000
NOSEL
1070
     0
1002
}
1002
{
1000
BEHIND
1070
     0
1002
}
1002
{
1000
OTHER
1070
     0
1002
}
1002
{
1000
REACTOR
1002
}
  0
LINE
  5
B9F4
330
1F
100
AcDbEntity
  8
waku
100
AcDbLine
 10
408.4999999999999
 20
8.5
 30
0.0
 11
408.4999999999999
 21
288.5
 31
0.0
1001
GENIUS_GENREC_14
1002
{
1000
PYDIR
1011
0.0000000000000142
1021
297.0
1031
0.0
1002
}
1002
{
1000
PXDIR
1011
420.0
1021
0.0
1031
0.0
1002
}
1002
{
1000
PORI
1011
0.0
1021
0.0
1031
0.0
1002
}
1002
{
1000
PINS
1011
210.0
1021
148.5
1031
0.0
1002
}
1002
{
1000
HVAL
1000
297
1002
}
1002
{
1000
H
1070
     2
1002
}
1002
{
1000
WVAL
1000
420
1002
}
1002
{
1000
W
1070
     2
1002
}
1002
{
1000
C
1070
     4
1002
}
1001
GENIUS_GENOBJ-N-REC_13
1002
{
1000
OWNER
1000
GEN
1002
}
1001
GENIUS_GENODEF_13
1002
{
1000
HIER
1070
     0
1002
}
1002
{
1000
MANEDIT
1070
     0
1002
}
1002
{
1000
NOSEL
1070
     0
1002
}
1002
{
1000
BEHIND
1070
     0
1002
}
1002
{
1000
OTHER
1070
     0
1002
}
1002
{
1000
REACTOR
1002
}
  0
LINE
  5
B9F5
330
1F
100
AcDbEntity
  8
waku
100
AcDbLine
 10
11.50000000000003
 20
288.5
 30
0.0
 11
11.5
 21
8.5
 31
0.0
1001
GENIUS_GENREC_14
1002
{
1000
PYDIR
1011
0.0000000000000142
1021
297.0
1031
0.0
1002
}
1002
{
1000
PXDIR
1011
420.0
1021
0.0
1031
0.0
1002
}
1002
{
1000
PORI
1011
0.0
1021
0.0
1031
0.0
1002
}
1002
{
1000
PINS
1011
210.0
1021
148.5
1031
0.0
1002
}
1002
{
1000
HVAL
1000
297
1002
}
1002
{
1000
H
1070
     2
1002
}
1002
{
1000
WVAL
1000
420
1002
}
1002
{
1000
W
1070
     2
1002
}
1002
{
1000
C
1070
     4
1002
}
1001
GENIUS_GENOBJ-N-REC_13
1002
{
1000
OWNER
1000
GEN
1002
}
1001
GENIUS_GENODEF_13
1002
{
1000
HIER
1070
     0
1002
}
1002
{
1000
MANEDIT
1070
     0
1002
}
1002
{
1000
NOSEL
1070
     0
1002
}
1002
{
1000
BEHIND
1070
     0
1002
}
1002
{
1000
OTHER
1070
     0
1002
}
1002
{
1000
REACTOR
1002
}
  0
LINE
  5
B9F6
330
1F
100
AcDbEntity
  8
waku
100
AcDbLine
 10
408.4999999999999
 20
288.5
 30
0.0
 11
11.50000000000003
 21
288.5
 31
0.0
1001
GENIUS_GENREC_14
1002
{
1000
PYDIR
1011
0.0000000000000142
1021
297.0
1031
0.0
1002
}
1002
{
1000
PXDIR
1011
420.0
1021
0.0
1031
0.0
1002
}
1002
{
1000
PORI
1011
0.0
1021
0.0
1031
0.0
1002
}
1002
{
1000
PINS
1011
210.0
1021
148.5
1031
0.0
1002
}
1002
{
1000
HVAL
1000
297
1002
}
1002
{
1000
H
1070
     2
1002
}
1002
{
1000
WVAL
1000
420
1002
}
1002
{
1000
W
1070
     2
1002
}
1002
{
1000
C
1070
     4
1002
}
1001
GENIUS_GENOBJ-N-REC_13
1002
{
1000
OWNER
1000
GEN
1002
}
1001
GENIUS_GENODEF_13
1002
{
1000
HIER
1070
     0
1002
}
1002
{
1000
MANEDIT
1070
     0
1002
}
1002
{
1000
NOSEL
1070
     0
1002
}
1002
{
1000
BEHIND
1070
     0
1002
}
1002
{
1000
OTHER
1070
     0
1002
}
1002
{
1000
REACTOR
1002
}
  0
LINE
  5
B9F7
330
1F
100
AcDbEntity
  8
waku
100
AcDbLine
 10
11.5
 20
8.5
 30
0.0
 11
408.4999999999999
 21
8.5
 31
0.0
  0
LINE
  5
BA17
330
1F
100
AcDbEntity
  8
AM_0
100
AcDbLine
 10
11.50000000000003
 20
288.5
 30
0.0
 11
91.38876405539551
 21
288.5
 31
0.0
  0
LINE
  5
BA18
330
1F
100
AcDbEntity
  8
AM_2
100
AcDbLine
 10
11.50000000000003
 20
281.5
 30
0.0
 11
91.38876405539551
 21
281.5
 31
0.0
  0
LINE
  5
BA19
330
1F
100
AcDbEntity
  8
AM_0
100
AcDbLine
 10
11.50000000000003
 20
288.5
 30
0.0
 11
11.50000030636917
 21
253.5
 31
0.0
  0
LINE
  5
BA1A
330
1F
100
AcDbEntity
  8
AM_2
100
AcDbLine
 10
34.50000000000003
 20
288.5
 30
0.0
 11
34.50000030636861
 21
253.5000000000002
 31
0.0
  0
MTEXT
  5
BA1B
330
1F
100
AcDbEntity
  8
AM_6
100
AcDbMText
 10
23.00000000000009
 20
285.0
 30
0.0
 40
3.2
 41
22.99999999999987
 71
     5
 72
     5
  1
品　名
 73
     1
 44
1.0
1001
ACAD
1000
MTEXTBEGIN
1070
    73
1070
     1
1070
    44
1040
1.0
1070
    74
1070
     0
1000
MTEXTEND
1000
ACAD_MTEXT_DEFINED_HEIGHT_BEGIN
1070
    46
1040
6.999999999999955
1000
ACAD_MTEXT_DEFINED_HEIGHT_END
  0
MTEXT
  5
BA1C
330
1F
100
AcDbEntity
  8
AM_6
100
AcDbMText
 10
23.00000000000003
 20
278.0
 30
0.0
 40
3.2
 41
23.00000000000001
 71
     5
 72
     5
  1
品　番
 73
     1
 44
1.0
1001
ACAD
1000
MTEXTBEGIN
1070
    73
1070
     1
1070
    44
1040
1.0
1070
    74
1070
     0
1000
MTEXTEND
1000
ACAD_MTEXT_DEFINED_HEIGHT_BEGIN
1070
    46
1040
7.762029914680923
1000
ACAD_MTEXT_DEFINED_HEIGHT_END
  0
LINE
  5
BA1D
330
1F
100
AcDbEntity
  8
AM_0
100
AcDbLine
 10
91.38876405539551
 20
288.5
 30
0.0
 11
91.3887643617641
 21
253.5000000000002
 31
0.0
  0
LINE
  5
BA1E
330
1F
100
AcDbEntity
  8
AM_2
100
AcDbLine
 10
11.50000000000003
 20
274.5
 30
0.0
 11
91.38876405539551
 21
274.5
 31
0.0
  0
MTEXT
  5
BA1F
330
1F
100
AcDbEntity
  8
AM_6
100
AcDbMText
 10
23.00000000000026
 20
271.2471667108157
 30
0.0
 40
3.2
 41
23.0
 71
     5
 72
     5
  1
材　質
 73
     1
 44
1.0
1001
ACAD
1000
MTEXTBEGIN
1070
    73
1070
     1
1070
    44
1040
1.0
1070
    74
1070
     0
1000
MTEXTEND
1000
ACAD_MTEXT_DEFINED_HEIGHT_BEGIN
1070
    46
1040
5.200000000000001
1000
ACAD_MTEXT_DEFINED_HEIGHT_END
  0
MTEXT
  5
BA20
330
1F
100
AcDbEntity
  8
AM_6
100
AcDbMText
 10
23.00000036764291
 20
264.1610000882972
 30
0.0
 40
3.2
 41
22.99999999999993
 71
     5
 72
     5
  1
仕上げ
 73
     1
 44
1.0
1001
ACAD
1000
MTEXTBEGIN
1070
    73
1070
     1
1070
    44
1040
1.0
1070
    74
1070
     0
1000
MTEXTEND
1000
ACAD_MTEXT_DEFINED_HEIGHT_BEGIN
1070
    46
1040
7.013416674024666
1000
ACAD_MTEXT_DEFINED_HEIGHT_END
  0
TEXT
  5
BA21
330
1F
100
AcDbEntity
  8
AM_6
100
AcDbText
 10
34.50000000000003
 20
276.512999970568
 30
0.0
 40
3.2
  1
　ETP-112
 41
0.7
100
AcDbText
1001
ACAD
1000
ACAD_MTEXT_DEFINED_HEIGHT_BEGIN
1070
    46
1040
5.200000000000001
1000
ACAD_MTEXT_DEFINED_HEIGHT_END
  0
LINE
  5
BA22
330
1F
100
AcDbEntity
  8
AM_0
100
AcDbLine
 10
11.50000030636838
 20
253.5
 30
0.0
 11
91.38876436176387
 21
253.5
 31
0.0
  0
TEXT
  5
BA23
330
1F
100
AcDbEntity
  8
AM_6
100
AcDbText
 10
34.50000000000003
 20
283.4000000000001
 30
0.0
 40
3.2
  1
　スプリング付トランク取手
 41
0.7
100
AcDbText
1001
ACAD
1000
ACAD_MTEXT_DEFINED_HEIGHT_BEGIN
1070
    46
1040
7.000000000000011
1000
ACAD_MTEXT_DEFINED_HEIGHT_END
  0
TEXT
  5
BA24
330
1F
100
AcDbEntity
  8
AM_6
100
AcDbText
 10
34.50000000000012
 20
269.512999970568
 30
0.0
 40
3.2
  1
　スチール
 41
0.7
100
AcDbText
1001
ACAD
1000
ACAD_MTEXT_DEFINED_HEIGHT_BEGIN
1070
    46
1040
5.199999999999943
1000
ACAD_MTEXT_DEFINED_HEIGHT_END
  0
LINE
  5
BA25
330
1F
100
AcDbEntity
  8
AM_2
100
AcDbLine
 10
11.50000036764257
 20
267.5
 30
0.0
 11
91.38876442303811
 21
267.5
 31
0.0
  0
TEXT
  5
BA26
330
1F
100
AcDbEntity
  8
AM_6
100
AcDbText
 10
34.50000036764266
 20
262.512999970568
 30
0.0
 40
3.2
  1
　有色クロメート
 41
0.7
100
AcDbText
1001
ACAD
1000
ACAD_MTEXT_DEFINED_HEIGHT_BEGIN
1070
    46
1040
5.199999999999943
1000
ACAD_MTEXT_DEFINED_HEIGHT_END
  0
MTEXT
  5
BA34
330
1F
100
AcDbEntity
  8
AM_6
100
AcDbMText
 10
23.00000045868103
 20
257.1610000882972
 30
0.0
 40
3.2
 41
22.99999999999993
 71
     5
 72
     5
  1
備　考
 73
     1
 44
1.0
1001
ACAD
1000
MTEXTBEGIN
1070
    73
1070
     1
1070
    44
1040
1.0
1070
    74
1070
     0
1000
MTEXTEND
1000
ACAD_MTEXT_DEFINED_HEIGHT_BEGIN
1070
    46
1040
7.013416674024666
1000
ACAD_MTEXT_DEFINED_HEIGHT_END
  0
LINE
  5
BA35
330
1F
100
AcDbEntity
  8
AM_2
100
AcDbLine
 10
11.50000045868069
 20
260.5
 30
0.0
 11
91.38876451407623
 21
260.5
 31
0.0
  0
LINE
  5
BF92
330
1F
100
AcDbEntity
  8
DV1__Translation
  6
Continuous
 62
     7
100
AcDbLine
 10
100.9776606152579
 20
151.1625714016552
 30
0.0
 11
153.4776607419579
 21
151.1625714016552
 31
0.0
  0
LINE
  5
BF93
330
1F
100
AcDbEntity
  8
DV1__Translation
  6
Continuous
 62
     7
100
AcDbLine
 10
100.9776606152579
 20
151.1625714016552
 30
0.0
 11
100.9776606152579
 21
98.66257127495517
 31
0.0
  0
CIRCLE
  5
BF95
330
1F
100
AcDbEntity
  8
DV1__Translation
  6
Continuous
 62
     7
100
AcDbCircle
 10
186.1460734743579
 20
165.6625714366552
 30
0.0
 40
0.000393700788352
  0
CIRCLE
  5
BF96
330
1F
100
AcDbEntity
  8
DV1__Translation
  6
Continuous
 62
     7
100
AcDbCircle
 10
195.7460734975579
 20
75.66257121935516
 30
0.0
 40
0.000393700788352
  0
LINE
  5
BF97
330
1F
100
AcDbEntity
  8
DV1__Translation
  6
Continuous
 62
     7
100
AcDbLine
 10
180.3460734603579
 20
165.6625714366552
 30
0.0
 11
180.3460734603579
 21
75.66257121935516
 31
0.0
  0
CIRCLE
  5
BF99
330
1F
100
AcDbEntity
  8
DV1__Translation
  6
Continuous
 62
     7
100
AcDbCircle
 10
186.1460734743579
 20
165.6625714366552
 30
0.0
 40
0.000393700788352
  0
CIRCLE
  5
BF9A
330
1F
100
AcDbEntity
  8
DV1__Translation
  6
Continuous
 62
     7
100
AcDbCircle
 10
220.3460735569579
 20
170.1625714475551
 30
0.0
 40
0.000393700788352
  0
LINE
  5
BF9B
330
1F
100
AcDbEntity
  8
DV1__Translation
  6
Continuous
 62
     7
100
AcDbLine
 10
186.1460734743579
 20
195.1625715078552
 30
0.0
 11
220.3460735569579
 21
195.1625715078552
 31
0.0
  0
CIRCLE
  5
BF9D
330
1F
100
AcDbEntity
  8
DV1__Translation
  6
Continuous
 62
     7
100
AcDbCircle
 10
213.5460735405579
 20
162.0367108972551
 30
0.0
 40
0.000393700788352
  0
CIRCLE
  5
BF9E
330
1F
100
AcDbEntity
  8
DV1__Translation
  6
Continuous
 62
     7
100
AcDbCircle
 10
220.3460735569579
 20
170.1625714475551
 30
0.0
 40
0.000393700788352
  0
LINE
  5
BF9F
330
1F
100
AcDbEntity
  8
DV1__Translation
  6
Continuous
 62
     7
100
AcDbLine
 10
213.5460735405579
 20
185.1625714837551
 30
0.0
 11
220.3460735569579
 21
185.1625714837551
 31
0.0
  0
CIRCLE
  5
BFA1
330
1F
100
AcDbEntity
  8
DV1__Translation
  6
Continuous
 62
     7
100
AcDbCircle
 10
220.3460735569579
 20
170.1625714475551
 30
0.0
 40
0.000393700788352
  0
CIRCLE
  5
BFA2
330
1F
100
AcDbEntity
  8
DV1__Translation
  6
Continuous
 62
     7
100
AcDbCircle
 10
227.5460735743579
 20
160.2625714236552
 30
0.0
 40
0.000393700788352
  0
LINE
  5
BFA3
330
1F
100
AcDbEntity
  8
DV1__Translation
  6
Continuous
 62
     7
100
AcDbLine
 10
220.3460735569579
 20
185.1625714837551
 30
0.0
 11
227.5460735743579
 21
185.1625714837551
 31
0.0
  0
CIRCLE
  5
BFA5
330
1F
100
AcDbEntity
  8
DV1__Translation
  6
Continuous
 62
     7
100
AcDbCircle
 10
227.5460735743579
 20
160.2625714236552
 30
0.0
 40
0.000393700788352
  0
CIRCLE
  5
BFA6
330
1F
100
AcDbEntity
  8
DV1__Translation
  6
Continuous
 62
     7
100
AcDbCircle
 10
230.5460735815579
 20
158.2625714187551
 30
0.0
 40
0.000393700788352
  0
LINE
  5
BFA7
330
1F
100
AcDbEntity
  8
DV1__Translation
  6
Continuous
 62
     7
100
AcDbLine
 10
227.5460735743579
 20
175.1625714595552
 30
0.0
 11
230.5460735815579
 21
175.1625714595552
 31
0.0
  0
CIRCLE
  5
BFA9
330
1F
100
AcDbEntity
  8
DV1__Translation
  6
Continuous
 62
     7
100
AcDbCircle
 10
220.3460735569579
 20
170.1625714475551
 30
0.0
 40
0.000393700788352
  0
CIRCLE
  5
BFAA
330
1F
100
AcDbEntity
  8
DV1__Translation
  6
Continuous
 62
     7
100
AcDbCircle
 10
243.0460736117579
 20
153.1625714064552
 30
0.0
 40
0.000393700788352
  0
LINE
  5
BFAB
330
1F
100
AcDbEntity
  8
DV1__Translation
  6
Continuous
 62
     7
100
AcDbLine
 10
220.3460735569579
 20
195.1625715078552
 30
0.0
 11
243.0460736117579
 21
195.1625715078552
 31
0.0
  0
CIRCLE
  5
BFAD
330
1F
100
AcDbEntity
  8
DV1__Translation
  6
Continuous
 62
     7
100
AcDbCircle
 10
226.4960735717579
 20
160.1625714233552
 30
0.0
 40
0.000393700788352
  0
CIRCLE
  5
BFAE
330
1F
100
AcDbEntity
  8
DV1__Translation
  6
Continuous
 62
     7
100
AcDbCircle
 10
226.4960735717579
 20
142.1625713799552
 30
0.0
 40
0.000393700788352
  0
LINE
  5
BFAF
330
1F
100
AcDbEntity
  8
DV1__Translation
  6
Continuous
 62
     7
100
AcDbLine
 10
263.0460736600579
 20
160.1625714233552
 30
0.0
 11
263.0460736600579
 21
142.1625713799552
 31
0.0
  0
CIRCLE
  5
BFB1
330
1F
100
AcDbEntity
  8
DV1__Translation
  6
Continuous
 62
     7
100
AcDbCircle
 10
241.0460736068579
 20
155.1625714113552
 30
0.0
 40
0.000393700788352
  0
CIRCLE
  5
BFB2
330
1F
100
AcDbEntity
  8
DV1__Translation
  6
Continuous
 62
     7
100
AcDbCircle
 10
241.0460736068579
 20
147.1625713920551
 30
0.0
 40
0.000393700788352
  0
LINE
  5
BFB3
330
1F
100
AcDbEntity
  8
DV1__Translation
  6
Continuous
 62
     7
100
AcDbLine
 10
253.0460736358579
 20
155.1625714113552
 30
0.0
 11
253.0460736358579
 21
147.1625713920551
 31
0.0
  0
CIRCLE
  5
BFB5
330
1F
100
AcDbEntity
  8
DV1__Translation
  6
Continuous
 62
     7
100
AcDbCircle
 10
220.3460735569579
 20
132.1625713557551
 30
0.0
 40
0.000393700788352
  0
CIRCLE
  5
BFB6
330
1F
100
AcDbEntity
  8
DV1__Translation
  6
Continuous
 62
     7
100
AcDbCircle
 10
220.3460735569579
 20
170.1625714475551
 30
0.0
 40
0.000393700788352
  0
LINE
  5
BFB7
330
1F
100
AcDbEntity
  8
DV1__Translation
  6
Continuous
 62
     7
100
AcDbLine
 10
273.0460736841579
 20
132.1625713557551
 30
0.0
 11
273.0460736841579
 21
170.1625714475551
 31
0.0
  0
CIRCLE
  5
BFB9
330
1F
100
AcDbEntity
  8
DV1__Translation
  6
Continuous
 62
     7
100
AcDbCircle
 10
317.5391510868579
 20
166.1625714378551
 30
0.0
 40
0.000393700788352
  0
CIRCLE
  5
BFBA
330
1F
100
AcDbEntity
  8
DV1__Translation
  6
Continuous
 62
     7
100
AcDbCircle
 10
307.5391510627579
 20
151.1625714016552
 30
0.0
 40
0.000393700788352
  0
LINE
  5
BFBB
330
1F
100
AcDbEntity
  8
DV1__Translation
  6
Continuous
 62
     7
100
AcDbLine
 10
300.5391510458579
 20
166.1625714378551
 30
0.0
 11
300.5391510458579
 21
151.1625714016552
 31
0.0
  0
CIRCLE
  5
BFBD
330
1F
100
AcDbEntity
  8
DV1__Translation
  6
Continuous
 62
     7
100
AcDbCircle
 10
309.0391510663579
 20
158.9568000545551
 30
0.0
 40
0.000393700788352
  0
CIRCLE
  5
BFBE
330
1F
100
AcDbEntity
  8
DV1__Translation
  6
Continuous
 62
     7
100
AcDbCircle
 10
336.0391511315579
 20
158.9568000545551
 30
0.0
 40
0.000393700788352
  0
LINE
  5
BFBF
330
1F
100
AcDbEntity
  8
DV1__Translation
  6
Continuous
 62
     7
100
AcDbLine
 10
309.0391510663579
 20
175.1625714595552
 30
0.0
 11
336.0391511315579
 21
175.1625714595552
 31
0.0
  0
CIRCLE
  5
BFC1
330
1F
100
AcDbEntity
  8
DV1__Translation
  6
Continuous
 62
     7
100
AcDbCircle
 10
90.22766058925787
 20
162.8824323981551
 30
0.0
 40
0.000393700788352
  0
CIRCLE
  5
BFC2
330
1F
100
AcDbEntity
  8
DV1__Translation
  6
Continuous
 62
     7
100
AcDbCircle
 10
111.7276606411579
 20
162.8824323981551
 30
0.0
 40
0.000393700788352
  0
LINE
  5
BFC3
330
1F
100
AcDbEntity
  8
DV1__Translation
  6
Continuous
 62
     7
100
AcDbLine
 10
90.22766058925787
 20
175.1625714595552
 30
0.0
 11
111.7276606411579
 21
175.1625714595552
 31
0.0
  0
CIRCLE
  5
BFC5
330
1F
100
AcDbEntity
  8
DV1__Translation
  6
Continuous
 62
     7
100
AcDbCircle
 10
95.47766060195788
 20
77.18785621535516
 30
0.0
 40
0.000393700788352
  0
CIRCLE
  5
BFC6
330
1F
100
AcDbEntity
  8
DV1__Translation
  6
Continuous
 62
     7
100
AcDbCircle
 10
106.4776606284579
 20
77.18785621535516
 30
0.0
 40
0.000393700788352
  0
LINE
  5
BFC7
330
1F
100
AcDbEntity
  8
DV1__Translation
  6
Continuous
 62
     7
100
AcDbLine
 10
95.47766060195788
 20
65.66257119525516
 30
0.0
 11
106.4776606284579
 21
65.66257119525516
 31
0.0
  0
LINE
  5
BFC9
330
1F
100
AcDbEntity
  8
DV1__Translation
  6
Continuous
 62
     7
100
AcDbLine
 10
100.9776606152579
 20
151.1625714016552
 30
0.0
 11
48.47766048845788
 21
151.1625714016552
 31
0.0
  0
LINE
  5
BFCA
330
1F
100
AcDbEntity
  8
DV1__Translation
  6
Continuous
 62
     7
100
AcDbLine
 10
100.9776606152579
 20
151.1625714016552
 30
0.0
 11
100.9776606152579
 21
98.66257127495517
 31
0.0
  0
CIRCLE
  5
BFCC
330
1F
100
AcDbEntity
  8
DV1__Translation
  6
Continuous
 62
     7
100
AcDbCircle
 10
322.5391510989579
 20
166.1625714378551
 30
0.0
 40
1.5000000036212
  0
CIRCLE
  5
BFCE
330
1F
100
AcDbEntity
  8
DV1__Translation
  6
Continuous
 62
     7
100
AcDbCircle
 10
321.7119735818579
 20
146.3328946556551
 30
0.0
 40
0.000393700788352
  0
CIRCLE
  5
BFCF
330
1F
100
AcDbEntity
  8
DV1__Translation
  6
Continuous
 62
     7
100
AcDbCircle
 10
327.3688278449579
 20
151.9897489187551
 30
0.0
 40
0.000393700788352
  0
LINE
  5
BFD0
330
1F
100
AcDbEntity
  8
DV1__Translation
  6
Continuous
 62
     7
100
AcDbLine
 10
334.9417138407579
 20
133.1031543966552
 30
0.0
 11
340.5985681039579
 21
138.7600086598552
 31
0.0
  0
LINE
  5
E859
330
1F
100
AcDbEntity
  8
AM_0
100
AcDbLine
 10
271.7196635412893
 20
183.3114951040296
 30
0.0
 11
271.7196635412893
 21
177.1992380344776
 31
0.0
  0
LINE
  5
E85C
330
1F
100
AcDbEntity
  8
AM_0
100
AcDbLine
 10
273.2196635412893
 20
179.1928885850877
 30
0.0
 11
273.2196635412893
 21
179.0052442840877
 31
0.0
  0
ARC
  5
E85D
330
1F
100
AcDbEntity
  8
AM_0
100
AcDbCircle
 10
272.6196635412894
 20
149.7114951040297
 30
0.0
 40
3.6
100
AcDbArc
 50
56.25101140399872
 51
73.87237978684339
  0
LINE
  5
E85E
330
1F
100
AcDbEntity
  8
AM_0
100
AcDbLine
 10
273.6196635412893
 20
158.3114951040296
 30
0.0
 11
273.6196635412893
 21
113.3114951040296
 31
0.0
  0
ARC
  5
E85F
330
1F
100
AcDbEntity
  8
AM_0
100
AcDbCircle
 10
272.6196635412894
 20
149.7114951040297
 30
0.0
 40
2.0
100
AcDbArc
 50
0.0
 51
59.99999999999986
  0
LINE
  5
E860
330
1F
100
AcDbEntity
  8
AM_0
100
AcDbLine
 10
272.6196635412894
 20
164.9114951040297
 30
0.0
 11
266.2196635412893
 21
164.9114951040297
 31
0.0
  0
LINE
  5
E862
330
1F
100
AcDbEntity
  8
AM_0
100
AcDbLine
 10
275.0412855992893
 20
176.4766060660296
 30
0.0
 11
265.2779071660742
 21
167.6008074898916
 31
0.0
  0
LINE
  5
E864
330
1F
100
AcDbEntity
  8
AM_0
100
AcDbLine
 10
266.2196635412893
 20
163.3114951040296
 30
0.0
 11
272.6196635412894
 21
163.3114951040296
 31
0.0
  0
LINE
  5
E865
330
1F
100
AcDbEntity
  8
AM_0
100
AcDbLine
 10
276.2196635412893
 20
166.4114951040297
 30
0.0
 11
276.2196635412893
 21
183.3114951040296
 31
0.0
  0
LINE
  5
E866
330
1F
100
AcDbEntity
  8
AM_0
100
AcDbLine
 10
264.8196635412893
 20
157.3114951040296
 30
0.0
 11
264.8196635412893
 21
163.6581952717453
 31
0.0
  0
ARC
  5
E867
330
1F
100
AcDbEntity
  8
AM_0
100
AcDbCircle
 10
268.8196635412893
 20
157.3114951040296
 30
0.0
 40
4.0
100
AcDbArc
 50
180.0
 51
216.8698976458442
  0
ARC
  5
E868
330
1F
100
AcDbEntity
  8
AM_0
100
AcDbCircle
 10
268.8196635412893
 20
157.3114951040296
 30
0.0
 40
5.599999999999999
100
AcDbArc
 50
180.0
 51
235.150095420954
  0
ARC
  5
E869
330
1F
100
AcDbEntity
  8
AM_0
100
AcDbCircle
 10
268.8196635412893
 20
159.3114951040296
 30
0.0
 40
4.0
100
AcDbArc
 50
90.0
 51
180.0
  0
ARC
  5
E86A
330
1F
100
AcDbEntity
  8
AM_0
100
AcDbCircle
 10
269.6196635412893
 20
158.3114951040296
 30
0.0
 40
4.0
100
AcDbArc
 50
0.0
 51
180.0
  0
LINE
  5
E86C
330
1F
100
AcDbEntity
  8
AM_0
100
AcDbLine
 10
273.9650091292892
 20
177.6605101830296
 30
0.0
 11
264.2016451593611
 21
168.78472475631
 31
0.0
  0
LINE
  5
E86D
330
1F
100
AcDbEntity
  8
AM_7
 48
0.5
100
AcDbLine
 10
269.6196635412895
 20
165.3114951040296
 30
0.0
 11
269.6196635412893
 21
106.3114951040296
 31
0.0
  0
ARC
  5
E86E
330
1F
100
AcDbEntity
  8
AM_0
100
AcDbCircle
 10
272.6196635412894
 20
179.1403903300296
 30
0.0
 40
2.0
100
AcDbArc
 50
312.2736890060001
 51
0.0
  0
ARC
  5
E86F
330
1F
100
AcDbEntity
  8
AM_0
100
AcDbCircle
 10
275.8196635412893
 20
179.1928885850877
 30
0.0
 40
2.6
100
AcDbArc
 50
117.4864262499989
 51
180.0
  0
ARC
  5
E870
330
1F
100
AcDbEntity
  8
AM_0
100
AcDbCircle
 10
273.1431226212893
 20
166.6614951040297
 30
0.0
 40
3.086681717999999
100
AcDbArc
 50
304.2967883729982
 51
355.3543471039998
  0
LINE
  5
E871
330
1F
100
AcDbEntity
  8
AM_0
100
AcDbLine
 10
276.2196635412893
 20
138.3114951040296
 30
0.0
 11
276.2196635412893
 21
161.3114951040296
 31
0.0
  0
ARC
  5
E878
330
1F
100
AcDbEntity
  8
AM_0
100
AcDbCircle
 10
136.6897390083435
 20
178.3114951040296
 30
0.0
 40
5.0
100
AcDbArc
 50
90.0
 51
180.0
  0
ARC
  5
E879
330
1F
100
AcDbEntity
  8
AM_0
100
AcDbCircle
 10
136.6897390083435
 20
143.3114951040296
 30
0.0
 40
5.0
100
AcDbArc
 50
241.7670743819981
 51
270.0
  0
ARC
  5
E87A
330
1F
100
AcDbEntity
  8
AM_0
100
AcDbCircle
 10
212.6897390083436
 20
178.3114951040296
 30
0.0
 40
5.0
100
AcDbArc
 50
0.0
 51
90.0
  0
ARC
  5
E87B
330
1F
100
AcDbEntity
  8
AM_0
100
AcDbCircle
 10
212.6897390083436
 20
143.3114951040296
 30
0.0
 40
5.0
100
AcDbArc
 50
270.0
 51
298.2329256179982
  0
CIRCLE
  5
E87D
330
1F
100
AcDbEntity
  8
AM_0
100
AcDbCircle
 10
203.1897390083436
 20
146.3114951040296
 30
0.0
 40
2.6
  0
LINE
  5
E87E
330
1F
100
AcDbEntity
  8
AM_7
 48
0.6
100
AcDbLine
 10
197.5897390083436
 20
146.3114951040296
 30
0.0
 11
208.7897390083436
 21
146.3114951040296
 31
0.0
  0
LINE
  5
E87F
330
1F
100
AcDbEntity
  8
AM_7
 48
0.6
100
AcDbLine
 10
203.1897390083436
 20
151.7114951040296
 30
0.0
 11
203.1897390083436
 21
140.7114951040296
 31
0.0
  0
CIRCLE
  5
E880
330
1F
100
AcDbEntity
  8
AM_0
100
AcDbCircle
 10
146.1897390083436
 20
146.3114951040296
 30
0.0
 40
2.6
  0
CIRCLE
  5
E88E
330
1F
100
AcDbEntity
  8
AM_0
100
AcDbCircle
 10
156.1897390083436
 20
173.3114951040296
 30
0.0
 40
2.6
  0
LINE
  5
E891
330
1F
100
AcDbEntity
  8
AM_7
 48
0.5
100
AcDbLine
 10
206.1897390083436
 20
158.3114951040296
 30
0.0
 11
143.1897390083435
 21
158.3114951040296
 31
0.0
  0
LINE
  5
E899
330
1F
100
AcDbEntity
  8
AM_0
100
AcDbLine
 10
265.6196635412893
 20
158.3114951040296
 30
0.0
 11
265.6196635412893
 21
113.3114951040296
 31
0.0
  0
ARC
  5
E89A
330
1F
100
AcDbEntity
  8
AM_0
100
AcDbCircle
 10
272.6196635412894
 20
179.1403903300296
 30
0.0
 40
3.6
100
AcDbArc
 50
312.2736890060001
 51
0.0
  0
LINE
  5
E89D
330
1F
100
AcDbEntity
  8
AM_0
100
AcDbLine
 10
143.1897390083435
 20
164.9114951040297
 30
0.0
 11
143.1897390083435
 21
162.1615873330296
 31
0.0
  0
LINE
  5
E89E
330
1F
100
AcDbEntity
  8
AM_0
100
AcDbLine
 10
143.1897390083435
 20
163.3114951040296
 30
0.0
 11
131.6897390083435
 21
163.3114951040296
 31
0.0
  0
LINE
  5
E89F
330
1F
100
AcDbEntity
  8
AM_0
100
AcDbLine
 10
143.1897390083435
 20
164.9114951040297
 30
0.0
 11
143.1897390083435
 21
163.3114951040296
 31
0.0
  0
ARC
  5
E8A1
330
1F
100
AcDbEntity
  8
AM_0
100
AcDbCircle
 10
144.6897390083436
 20
164.9114951040297
 30
0.0
 40
1.5
100
AcDbArc
 50
0.0
 51
180.0
  0
LINE
  5
E8A4
330
1F
100
AcDbEntity
  8
AM_7
 48
0.5
100
AcDbLine
 10
278.7276527782895
 20
158.3114951040296
 30
0.0
 11
260.5116743042894
 21
158.3114951040296
 31
0.0
  0
LINE
  5
E8A7
330
1F
100
AcDbEntity
  8
AM_0
100
AcDbLine
 10
144.6897390083436
 20
153.3114951040296
 30
0.0
 11
146.1897390083436
 21
153.3114951040296
 31
0.0
  0
ARC
  5
E8AA
330
1F
100
AcDbEntity
  8
AM_0
100
AcDbCircle
 10
204.6897390083436
 20
154.8114951040296
 30
0.0
 40
1.5
100
AcDbArc
 50
270.0
 51
330.0019183090004
  0
LINE
  5
E8AE
330
1F
100
AcDbEntity
  8
AM_0
100
AcDbLine
 10
206.1897390083436
 20
164.9114951040297
 30
0.0
 11
206.1897390083436
 21
162.1615873330296
 31
0.0
  0
LINE
  5
E8AF
330
1F
100
AcDbEntity
  8
AM_0
100
AcDbLine
 10
206.1897390083436
 20
163.3114951040296
 30
0.0
 11
217.6897390083436
 21
163.3114951040296
 31
0.0
  0
LINE
  5
E8B0
330
1F
100
AcDbEntity
  8
AM_0
100
AcDbLine
 10
206.1897390083436
 20
164.9114951040297
 30
0.0
 11
206.1897390083436
 21
163.3114951040296
 31
0.0
  0
LINE
  5
E8B1
330
1F
100
AcDbEntity
  8
AM_0
100
AcDbLine
 10
204.6897390083436
 20
153.3114951040296
 30
0.0
 11
203.1897390083436
 21
153.3114951040296
 31
0.0
  0
ARC
  5
E8B2
330
1F
100
AcDbEntity
  8
AM_0
100
AcDbCircle
 10
204.6897390083436
 20
164.9114951040297
 30
0.0
 40
1.5
100
AcDbArc
 50
0.0
 51
180.0
  0
LINE
  5
E8B8
330
1F
100
AcDbEntity
  8
AM_0
100
AcDbLine
 10
195.8436970083438
 20
166.3114951040296
 30
0.0
 11
174.6897390083436
 21
166.3114951040296
 31
0.0
  0
LINE
  5
E8B9
330
1F
100
AcDbEntity
  8
AM_0
100
AcDbLine
 10
174.6897390083436
 20
151.7114951040296
 30
0.0
 11
203.1897390083436
 21
151.7114951040296
 31
0.0
  0
LINE
  5
E8BA
330
1F
100
AcDbEntity
  8
AM_0
100
AcDbLine
 10
203.1897390083436
 20
164.9114951040297
 30
0.0
 11
203.1897390083436
 21
151.7114951040296
 31
0.0
  0
ARC
  5
E8BB
330
1F
100
AcDbEntity
  8
AM_0
100
AcDbCircle
 10
204.0046586173436
 20
146.3114951040296
 30
0.0
 40
16.0
100
AcDbArc
 50
19.20212889500101
 51
90.0
  0
LINE
  5
E8BC
330
1F
100
AcDbEntity
  8
AM_0
100
AcDbLine
 10
136.6897390083435
 20
138.3114951040296
 30
0.0
 11
212.6897390083436
 21
138.3114951040296
 31
0.0
  0
LINE
  5
E8BD
330
1F
100
AcDbEntity
  8
AM_0
100
AcDbLine
 10
131.6897390083435
 20
178.3114951040296
 30
0.0
 11
131.6897390083435
 21
154.6011618450296
 31
0.0
  0
CIRCLE
  5
E8C0
330
1F
100
AcDbEntity
  8
AM_0
100
AcDbCircle
 10
193.1897390083436
 20
173.3114951040296
 30
0.0
 40
2.6
  0
LINE
  5
E8C1
330
1F
100
AcDbEntity
  8
AM_7
 48
0.5
100
AcDbLine
 10
174.6897390083436
 20
186.3114951040296
 30
0.0
 11
174.6897390083436
 21
106.3114951040296
 31
0.0
  0
LINE
  5
E8C2
330
1F
100
AcDbEntity
  8
AM_0
100
AcDbLine
 10
203.1897390083436
 20
162.3114951040296
 30
0.0
 11
204.0465388363436
 21
162.3114951040296
 31
0.0
  0
ARC
  5
E8C3
330
1F
100
AcDbEntity
  8
AM_0
100
AcDbCircle
 10
143.6897390083436
 20
129.3114951040296
 30
0.0
 40
20.0
100
AcDbArc
 50
160.7978711049989
 51
270.0
  0
ARC
  5
E8C4
330
1F
100
AcDbEntity
  8
AM_0
100
AcDbCircle
 10
143.6897390083436
 20
129.3114951040296
 30
0.0
 40
12.0
100
AcDbArc
 50
160.7978711049989
 51
270.0
  0
LINE
  5
E8C5
330
1F
100
AcDbEntity
  8
AM_0
100
AcDbLine
 10
124.8024560053435
 20
135.8895298230296
 30
0.0
 11
130.2649929973436
 21
151.5739228790296
 31
0.0
  0
LINE
  5
E8C6
330
1F
100
AcDbEntity
  8
AM_0
100
AcDbLine
 10
132.3573692063436
 20
133.2583159350296
 30
0.0
 11
137.8199061983435
 21
148.9427089910296
 31
0.0
  0
LINE
  5
E8C7
330
1F
100
AcDbEntity
  8
AM_0
100
AcDbLine
 10
143.6897390083436
 20
109.3114951040296
 30
0.0
 11
205.6897390083436
 21
109.3114951040296
 31
0.0
  0
LINE
  5
E8C8
330
1F
100
AcDbEntity
  8
AM_0
100
AcDbLine
 10
205.6897390083436
 20
117.3114951040296
 30
0.0
 11
143.6897390083436
 21
117.3114951040296
 31
0.0
  0
LINE
  5
E8C9
330
1F
100
AcDbEntity
  8
AM_0
100
AcDbLine
 10
224.5770220113436
 20
135.8895298230296
 30
0.0
 11
219.1144850193436
 21
151.5739228790296
 31
0.0
  0
ARC
  5
E8CA
330
1F
100
AcDbEntity
  8
AM_0
100
AcDbCircle
 10
205.6897390083436
 20
129.3114951040296
 30
0.0
 40
20.0
100
AcDbArc
 50
270.0
 51
19.20212889500101
  0
ARC
  5
E8CB
330
1F
100
AcDbEntity
  8
AM_0
100
AcDbCircle
 10
205.6897390083436
 20
129.3114951040296
 30
0.0
 40
12.0
100
AcDbArc
 50
270.0
 51
19.20212889500101
  0
ARC
  5
E8CF
330
1F
100
AcDbEntity
  8
AM_0
100
AcDbCircle
 10
145.3748193993435
 20
146.3114951040296
 30
0.0
 40
8.0
100
AcDbArc
 50
90.0
 51
160.7978711049989
  0
LINE
  5
E8D0
330
1F
100
AcDbEntity
  8
AM_0
100
AcDbLine
 10
204.0046586173436
 20
154.3114951040296
 30
0.0
 11
203.1897390083436
 21
154.3114951040296
 31
0.0
  0
LINE
  5
E8D1
330
1F
100
AcDbEntity
  8
AM_0
100
AcDbLine
 10
145.3748193993435
 20
154.3114951040296
 30
0.0
 11
146.1897390083436
 21
154.3114951040296
 31
0.0
  0
LINE
  5
E8D2
330
1F
100
AcDbEntity
  8
AM_0
100
AcDbLine
 10
146.1897390083436
 20
162.3114951040296
 30
0.0
 11
145.3329391803436
 21
162.3114951040296
 31
0.0
  0
ARC
  5
E8D3
330
1F
100
AcDbEntity
  8
AM_0
100
AcDbCircle
 10
204.0046586173436
 20
146.3114951040296
 30
0.0
 40
8.0
100
AcDbArc
 50
19.20212889500101
 51
90.0
  0
LINE
  5
E8D4
330
1F
100
AcDbEntity
  8
AM_0
100
AcDbLine
 10
276.2196635412893
 20
183.3114951040296
 30
0.0
 11
271.7196635412893
 21
183.3114951040296
 31
0.0
  0
LINE
  5
E8D6
330
1F
100
AcDbEntity
  8
AM_0
100
AcDbLine
 10
153.5357810083434
 20
166.3114951040296
 30
0.0
 11
174.6897390083436
 21
166.3114951040296
 31
0.0
  0
LINE
  5
E8D7
330
1F
100
AcDbEntity
  8
AM_0
100
AcDbLine
 10
174.6897390083436
 20
151.7114951040296
 30
0.0
 11
146.1897390083436
 21
151.7114951040296
 31
0.0
  0
POINT
  5
E8DA
330
1F
100
AcDbEntity
  8
AM_0
100
AcDbPoint
 10
161.8277377563436
 20
138.3114951040296
 30
0.0
  0
ARC
  5
E8DB
330
1F
100
AcDbEntity
  8
AM_0
100
AcDbCircle
 10
145.3748193993435
 20
146.3114951040296
 30
0.0
 40
16.0
100
AcDbArc
 50
90.0
 51
160.7978711049989
  0
LINE
  5
E8DD
330
1F
100
AcDbEntity
  8
AM_0
100
AcDbLine
 10
146.1897390083436
 20
164.9114951040297
 30
0.0
 11
146.1897390083436
 21
151.7114951040296
 31
0.0
  0
LINE
  5
E8DE
330
1F
100
AcDbEntity
  8
AM_0
100
AcDbLine
 10
217.6897390083436
 20
154.6011618450296
 30
0.0
 11
217.6897390083436
 21
178.3114951040296
 31
0.0
  0
LINE
  5
E8DF
330
1F
100
AcDbEntity
  8
AM_0
100
AcDbLine
 10
212.6897390083436
 20
183.3114951040296
 30
0.0
 11
180.6934497455212
 21
183.3114951040296
 31
0.0
  0
ARC
  5
E8E5
330
1F
100
AcDbEntity
  8
AM_0
100
AcDbCircle
 10
144.6897390083436
 20
154.8114951040296
 30
0.0
 40
1.5
100
AcDbArc
 50
209.9980816909995
 51
270.0
  0
LINE
  5
E8E7
330
1F
100
AcDbEntity
  8
AM_0
100
AcDbLine
 10
217.0221088093435
 20
133.2583159350296
 30
0.0
 11
211.5595718183436
 21
148.9427089910296
 31
0.0
  0
LINE
  5
E8E8
330
1F
100
AcDbEntity
  8
AM_0
100
AcDbLine
 10
274.6196635412894
 20
138.3114951040296
 30
0.0
 11
276.2196635412893
 21
138.3114951040296
 31
0.0
  0
LINE
  5
E8E9
330
1F
100
AcDbEntity
  8
AM_0
100
AcDbLine
 10
264.0707142770253
 20
170.2456477951911
 30
0.0
 11
272.8923363352844
 21
178.2653042106906
 31
0.0
  0
ARC
  5
E8EB
330
1F
100
AcDbEntity
  8
AM_0
100
AcDbCircle
 10
272.6196635412894
 20
161.3114951040296
 30
0.0
 40
2.0
100
AcDbArc
 50
0.0
 51
90.0
  0
ARC
  5
E8EC
330
1F
100
AcDbEntity
  8
AM_0
100
AcDbCircle
 10
272.6196635412894
 20
161.3114951040296
 30
0.0
 40
3.6
100
AcDbArc
 50
0.0
 51
90.0
  0
ARC
  5
E8ED
330
1F
100
AcDbEntity
  8
AM_0
100
AcDbCircle
 10
272.2196635412893
 20
179.0052442840877
 30
0.0
 40
1.0
100
AcDbArc
 50
312.2736890060001
 51
0.0
  0
ARC
  5
E8F1
330
1F
100
AcDbEntity
  8
AM_0
100
AcDbCircle
 10
269.6196635412893
 20
113.3114951040296
 30
0.0
 40
4.0
100
AcDbArc
 50
180.0
 51
0.0
  0
LINE
  5
E8F2
330
1F
100
AcDbEntity
  8
AM_0
100
AcDbLine
 10
274.6196635412894
 20
161.3114951040296
 30
0.0
 11
274.6196635412894
 21
138.3114951040296
 31
0.0
  0
LINE
  5
E8F3
330
1F
100
AcDbEntity
  8
AM_0
100
AcDbLine
 10
274.6196635412894
 20
179.1403903300296
 30
0.0
 11
274.6196635412894
 21
183.3114951040296
 31
0.0
  0
LINE
  5
E8F7
330
1F
100
AcDbEntity
  8
AM_7
 48
0.6
100
AcDbLine
 10
187.5897390083436
 20
173.3114951040296
 30
0.0
 11
198.7897390083436
 21
173.3114951040296
 31
0.0
  0
LINE
  5
E8F8
330
1F
100
AcDbEntity
  8
AM_7
 48
0.6
100
AcDbLine
 10
193.1897390083436
 20
178.7114951040296
 30
0.0
 11
193.1897390083436
 21
167.7114951040296
 31
0.0
  0
LINE
  5
E8F9
330
1F
100
AcDbEntity
  8
AM_7
 48
0.6
100
AcDbLine
 10
150.5897390083436
 20
173.3114951040296
 30
0.0
 11
161.7897390083436
 21
173.3114951040296
 31
0.0
  0
LINE
  5
E8FA
330
1F
100
AcDbEntity
  8
AM_7
 48
0.6
100
AcDbLine
 10
156.1897390083436
 20
178.7114951040296
 30
0.0
 11
156.1897390083436
 21
167.7114951040296
 31
0.0
  0
LINE
  5
E8FB
330
1F
100
AcDbEntity
  8
AM_7
 48
0.6
100
AcDbLine
 10
140.5897390083436
 20
146.3114951040296
 30
0.0
 11
151.7897390083436
 21
146.3114951040296
 31
0.0
  0
LINE
  5
E8FC
330
1F
100
AcDbEntity
  8
AM_7
 48
0.6
100
AcDbLine
 10
146.1897390083436
 20
151.7114951040296
 30
0.0
 11
146.1897390083436
 21
140.7114951040296
 31
0.0
  0
DIMENSION
  5
E902
330
1F
100
AcDbEntity
  8
AM_5
100
AcDbDimension
  2
*D7
 10
193.1897390083436
 20
193.3114951040296
 30
0.0
 11
174.6897390083436
 21
196.4114951040296
 31
0.0
 70
    32
 71
     5
 42
37.0
  3
SYS$0
100
AcDbAlignedDimension
 13
156.1897390083436
 23
178.7114951040296
 33
0.0
 14
193.1897390083436
 24
178.7114951040296
 34
0.0
100
AcDbRotatedDimension
1001
ACAD
1000
DSTYLE
1002
{
1070
   179
1070
     2
1002
}
1001
ACAD_DSTYLE_DIMINSPECT
1070
   396
1000
100%
1070
   395
1000

1070
   394
1070
    33
1070
   393
1070
     0
  0
DIMENSION
  5
E92A
330
1F
100
AcDbEntity
  8
AM_5
100
AcDbDimension
  2
*D8
 10
217.6897390083436
 20
203.3114951040297
 30
0.0
 11
174.6897390083436
 21
206.4114951040297
 31
0.0
 70
    32
 71
     5
 42
86.00000000000006
  3
SYS$0
100
AcDbAlignedDimension
 13
131.6897390083435
 23
178.3114951040296
 33
0.0
 14
217.6897390083436
 24
178.3114951040296
 34
0.0
100
AcDbRotatedDimension
1001
ACAD
1000
DSTYLE
1002
{
1070
   179
1070
     2
1002
}
1001
ACAD_DSTYLE_DIMINSPECT
1070
   396
1000
100%
1070
   395
1000

1070
   394
1070
    33
1070
   393
1070
     0
  0
DIMENSION
  5
E949
330
1F
100
AcDbEntity
  8
AM_5
100
AcDbDimension
  2
*D9
 10
203.1897390083436
 20
99.31149510402967
 30
0.0
 11
174.6897390083436
 21
102.4114951040296
 31
0.0
 70
    32
 71
     5
 42
57.0
  3
SYS$0
100
AcDbAlignedDimension
 13
146.1897390083436
 23
140.7114951040296
 33
0.0
 14
203.1897390083436
 24
140.7114951040296
 34
0.0
 50
0.0000000000001132
100
AcDbRotatedDimension
1001
ACAD
1000
DSTYLE
1002
{
1070
   179
1070
     2
1002
}
1001
ACAD_DSTYLE_DIMINSPECT
1070
   396
1000
100%
1070
   395
1000

1070
   394
1070
    33
1070
   393
1070
     0
  0
DIMENSION
  5
E97B
330
1F
100
AcDbEntity
  8
AM_5
100
AcDbDimension
  2
*D10
 10
225.6897390083436
 20
89.31149510402965
 30
0.0
 11
174.6897390083436
 21
92.41149510402966
 31
0.0
 70
    32
 71
     5
 42
102.0
  3
SYS$0
100
AcDbAlignedDimension
 13
123.6897390083436
 23
129.3114951040296
 33
0.0
 14
225.6897390083436
 24
129.3114951040296
 34
0.0
 50
0.0000000000001132
100
AcDbRotatedDimension
1001
ACAD
1000
DSTYLE
1002
{
1070
   179
1070
     2
1002
}
1001
ACAD_DSTYLE_DIMINSPECT
1070
   396
1000
100%
1070
   395
1000

1070
   394
1070
    33
1070
   393
1070
     0
  0
DIMENSION
  5
E9A3
330
1F
100
AcDbEntity
  8
AM_5
100
AcDbDimension
  2
*D11
 10
227.6897390083436
 20
173.3114951040296
 30
0.0
 11
224.5897390083436
 21
159.8114951040297
 31
0.0
 70
    32
 71
     5
 42
27.0
  3
SYS$0
100
AcDbAlignedDimension
 13
208.7897390083436
 23
146.3114951040296
 33
0.0
 14
198.7897390083436
 24
173.3114951040296
 34
0.0
 50
90.0
100
AcDbRotatedDimension
1001
ACAD
1000
DSTYLE
1002
{
1070
   179
1070
     2
1002
}
1001
ACAD_DSTYLE_DIMINSPECT
1070
   396
1000
100%
1070
   395
1000

1070
   394
1070
    33
1070
   393
1070
     0
  0
DIMENSION
  5
E9CB
330
1F
100
AcDbEntity
  8
AM_5
100
AcDbDimension
  2
*D12
 10
227.6897390083437
 20
183.3114951040296
 30
0.0
 11
224.5897390083437
 21
178.3114951040297
 31
0.0
 70
    32
  1
（<>）
 71
     5
 42
10.0
  3
SYS$0
100
AcDbAlignedDimension
 13
198.7897390083436
 23
173.3114951040296
 33
0.0
 14
212.6897390083436
 24
183.3114951040296
 34
0.0
 50
90.0
100
AcDbRotatedDimension
1001
ACAD
1000
DSTYLE
1002
{
1070
   179
1070
     2
1002
}
1001
ACAD_DSTYLE_DIMINSPECT
1070
   396
1000
100%
1070
   395
1000

1070
   394
1070
    33
1070
   393
1070
     0
  0
DIMENSION
  5
EA18
330
1F
100
AcDbEntity
  8
AM_5
100
AcDbDimension
  2
*D13
 10
121.6897390083435
 20
173.3114951040296
 30
0.0
 11
118.5897390083435
 21
165.8114951040297
 31
0.0
 70
    32
  1
（<>）
 71
     5
 42
15.0
  3
SYS$0
100
AcDbAlignedDimension
 13
143.1897390083435
 23
158.3114951040296
 33
0.0
 14
150.5897390083436
 24
173.3114951040296
 34
0.0
 50
90.0
100
AcDbRotatedDimension
1001
ACAD
1000
DSTYLE
1002
{
1070
   179
1070
     2
1002
}
1001
ACAD_DSTYLE_DIMINSPECT
1070
   396
1000
100%
1070
   395
1000

1070
   394
1070
    33
1070
   393
1070
     0
  0
DIMENSION
  5
EB27
330
1F
100
AcDbEntity
  8
AM_5
100
AcDbDimension
  2
*D14
 10
276.2196635412893
 20
203.3114951040297
 30
0.0
 11
269.7196635412893
 21
206.4114951040297
 31
0.0
 70
    32
 71
     5
 42
12.99999999999994
  3
SYS$0
100
AcDbAlignedDimension
 13
263.2196635412893
 23
168.6338976045813
 33
0.0
 14
276.2196635412893
 24
183.3114951040296
 34
0.0
100
AcDbRotatedDimension
1001
ACAD
1000
DSTYLE
1002
{
1070
   179
1070
     2
1002
}
1001
ACAD_DSTYLE_DIMINSPECT
1070
   396
1000
100%
1070
   395
1000

1070
   394
1070
    33
1070
   393
1070
     0
  0
DIMENSION
  5
EBBB
330
1F
100
AcDbEntity
  8
AM_5
100
AcDbDimension
  2
*D15
 10
265.6196635412893
 20
99.31149510402965
 30
0.0
 11
269.6196635412893
 21
102.4114951040296
 31
0.0
 70
    32
  1
%%c<>
 71
     5
 42
8.0
  3
SYS$0
100
AcDbAlignedDimension
 13
273.6196635412893
 23
113.3114951040296
 33
0.0
 14
265.6196635412893
 24
113.3114951040296
 34
0.0
 50
0.0000000000001132
100
AcDbRotatedDimension
1001
ACAD
1000
DSTYLE
1002
{
1070
   179
1070
     2
1002
}
1001
ACAD_DSTYLE_DIMINSPECT
1070
   396
1000
100%
1070
   395
1000

1070
   394
1070
    33
1070
   393
1070
     0
  0
DIMENSION
  5
ED8F
330
1F
100
AcDbEntity
  8
AM_5
100
AcDbDimension
  2
*D16
 10
237.6897390083437
 20
138.3114951040296
 30
0.0
 11
234.5897390083436
 21
160.8114951040297
 31
0.0
 70
    32
 71
     5
 42
45.0
  3
SYS$0
100
AcDbAlignedDimension
 13
212.6897390083436
 23
183.3114951040296
 33
0.0
 14
212.6897390083436
 24
138.3114951040296
 34
0.0
 50
90.00000000000003
100
AcDbRotatedDimension
1001
ACAD
1000
DSTYLE
1002
{
1070
   179
1070
     2
1002
}
1001
ACAD_DSTYLE_DIMINSPECT
1070
   396
1000
100%
1070
   395
1000

1070
   394
1070
    33
1070
   393
1070
     0
  0
DIMENSION
  5
EDC0
330
1F
100
AcDbEntity
  8
AM_5
100
AcDbDimension
  2
*D17
 10
286.2196635412892
 20
109.3114951040296
 30
0.0
 11
283.1196635412892
 21
146.3114951040297
 31
0.0
 70
    32
  1
（<>）
 71
     5
 42
74.0
  3
SYS$0
100
AcDbAlignedDimension
 13
276.2196635412893
 23
183.3114951040296
 33
0.0
 14
270.1196635412894
 24
109.3114951040296
 34
0.0
 50
90.00000000000003
100
AcDbRotatedDimension
1001
ACAD
1000
DSTYLE
1002
{
1070
   179
1070
     2
1002
}
1001
ACAD_DSTYLE_DIMINSPECT
1070
   396
1000
100%
1070
   395
1000

1070
   394
1070
    33
1070
   393
1070
     0
  0
ARC
  5
EE1B
330
1F
100
AcDbEntity
  8
AM_0
100
AcDbCircle
 10
266.2196635412893
 20
166.3114951040296
 30
0.0
 40
3.0
100
AcDbArc
 50
180.0
 51
270.0
1001
GENIUS_GENOBJ-N-FIL_13
1002
{
1000
OWNER
1000
GEN
1002
}
1001
GENIUS_GENODEF_13
1002
{
1000
HIER
1070
     0
1002
}
1002
{
1000
MANEDIT
1070
     0
1002
}
1002
{
1000
NOSEL
1070
     0
1002
}
1002
{
1000
BEHIND
1070
     0
1002
}
1002
{
1000
OTHER
1070
     0
1002
}
1002
{
1000
REACTOR
1002
}
  0
ARC
  5
EE1C
330
1F
100
AcDbEntity
  8
AM_0
100
AcDbCircle
 10
266.219663541289
 20
166.5649045360671
 30
0.0
 40
3.0
100
AcDbArc
 50
132.2736890045234
 51
180.0000000000021
1001
GENIUS_GENODEF_13
1002
{
1000
HIER
1070
     0
1002
}
1002
{
1000
MANEDIT
1070
     0
1002
}
1002
{
1000
NOSEL
1070
     0
1002
}
1002
{
1000
BEHIND
1070
     0
1002
}
1002
{
1000
OTHER
1070
     0
1002
}
1002
{
1000
REACTOR
1002
}
1001
GENIUS_GENOBJ-N-FIL_13
1002
{
1000
OWNER
1000
GEN
1002
}
  0
ARC
  5
EE4D
330
1F
100
AcDbEntity
  8
AM_0
100
AcDbCircle
 10
266.219663541289
 20
166.5649045360671
 30
0.0
 40
1.399999999999999
100
AcDbArc
 50
132.2736890045234
 51
180.0000000000021
1001
GENIUS_GENODEF_13
1002
{
1000
HIER
1070
     0
1002
}
1002
{
1000
MANEDIT
1070
     0
1002
}
1002
{
1000
NOSEL
1070
     0
1002
}
1002
{
1000
BEHIND
1070
     0
1002
}
1002
{
1000
OTHER
1070
     0
1002
}
1002
{
1000
REACTOR
1002
}
1001
GENIUS_GENOBJ-N-FIL_13
1002
{
1000
OWNER
1000
GEN
1002
}
  0
ARC
  5
EE4E
330
1F
100
AcDbEntity
  8
AM_0
100
AcDbCircle
 10
266.2196635412893
 20
166.3114951040296
 30
0.0
 40
1.399999999999999
100
AcDbArc
 50
180.0
 51
270.0
1001
GENIUS_GENOBJ-N-FIL_13
1002
{
1000
OWNER
1000
GEN
1002
}
1001
GENIUS_GENODEF_13
1002
{
1000
HIER
1070
     0
1002
}
1002
{
1000
MANEDIT
1070
     0
1002
}
1002
{
1000
NOSEL
1070
     0
1002
}
1002
{
1000
BEHIND
1070
     0
1002
}
1002
{
1000
OTHER
1070
     0
1002
}
1002
{
1000
REACTOR
1002
}
  0
LINE
  5
EE4F
330
1F
100
AcDbEntity
  8
AM_0
100
AcDbLine
 10
264.8196635412893
 20
166.3114951040296
 30
0.0
 11
264.8196635412893
 21
166.564904536067
 31
0.0
  0
LINE
  5
EE59
330
1F
100
AcDbEntity
  8
AM_0
100
AcDbLine
 10
263.2196635412893
 20
168.3218036042423
 30
0.0
 11
263.2196635412893
 21
157.3114951040296
 31
0.0
  0
ARC
  5
EE84
330
1F
100
AcDbEntity
  8
AM_0
100
AcDbCircle
 10
265.8196635412844
 20
168.3218036042423
 30
0.0
 40
2.6
100
AcDbArc
 50
132.2736890021833
 51
180.0
1001
GENIUS_GENODEF_13
1002
{
1000
HIER
1070
     0
1002
}
1002
{
1000
MANEDIT
1070
     0
1002
}
1002
{
1000
NOSEL
1070
     0
1002
}
1002
{
1000
BEHIND
1070
     0
1002
}
1002
{
1000
OTHER
1070
     0
1002
}
1002
{
1000
REACTOR
1002
}
1001
GENIUS_GENOBJ-N-FIL_13
1002
{
1000
OWNER
1000
GEN
1002
}
  0
DIMENSION
  5
EF28
330
1F
100
AcDbEntity
  8
AM_5
100
AcDbDimension
  2
*D18
 10
191.9907942721391
 20
171.0044338739088
 30
0.0
 11
208.5088674054858
 21
187.667879112253
 31
0.0
 70
   163
  1
4-<>
 71
     5
 42
5.200000000000045
  3
SYS$3
100
AcDbDiametricDimension
 15
194.3886837445483
 25
175.6185563341507
 35
0.0
 40
0.0
1001
ACAD
1000
DSTYLE
1002
{
1070
   172
1070
     1
1070
   179
1070
     2
1070
   342
1005
B6A3
1002
}
  0
ARC
  5
F309
330
1F
100
AcDbEntity
  8
AM_0
  6
Continuous
 62
     7
370
    30
100
AcDbCircle
 10
177.6897390083436
 20
168.8114951040296
 30
0.0
 40
2.5
100
AcDbArc
 50
270.0
 51
0.0
  0
ARC
  5
F30A
330
1F
100
AcDbEntity
  8
AM_0
  6
Continuous
 62
     7
370
    30
100
AcDbCircle
 10
186.1897390083436
 20
168.8114951040296
 30
0.0
 40
2.5
100
AcDbArc
 50
180.0
 51
270.0
  0
LINE
  5
F30B
330
1F
100
AcDbEntity
  8
AM_0
  6
Continuous
 62
     7
370
    30
100
AcDbLine
 10
180.6897390083436
 20
180.0766871040297
 30
0.0
 11
180.6897390083436
 21
183.2369811040297
 31
0.0
  0
LINE
  5
F30C
330
1F
100
AcDbEntity
  8
AM_0
  6
Continuous
 62
     7
370
    30
100
AcDbLine
 10
179.6897390083436
 20
180.0766871040297
 30
0.0
 11
179.6897390083436
 21
183.2369811040297
 31
0.0
  0
ARC
  5
F30D
330
1F
100
AcDbEntity
  8
AM_0
  6
Continuous
 62
     7
370
    30
100
AcDbCircle
 10
181.4397390083436
 20
183.2369811040297
 30
0.0
 40
1.75
100
AcDbArc
 50
2.440350000003078
 51
180.0
  0
ARC
  5
F30E
330
1F
100
AcDbEntity
  8
AM_0
  6
Continuous
 62
     7
370
    30
100
AcDbCircle
 10
181.4397390083436
 20
183.2369811040297
 30
0.0
 40
0.75
100
AcDbArc
 50
5.701836000001995
 51
180.0
  0
LINE
  5
F30F
330
1F
100
AcDbEntity
  8
AM_0
  6
Continuous
 62
     7
370
    30
100
AcDbLine
 10
179.6897390083436
 20
180.0766871040297
 30
0.0
 11
180.6897390083436
 21
180.0766871040297
 31
0.0
  0
LINE
  5
F310
330
1F
100
AcDbEntity
  8
AM_0
  6
Continuous
 62
     7
370
    30
100
AcDbLine
 10
180.1897390083436
 20
168.8114951040296
 30
0.0
 11
180.1897390083436
 21
180.0766871040297
 31
0.0
  0
LINE
  5
F311
330
1F
100
AcDbEntity
  8
AM_0
  6
Continuous
 62
     7
370
    30
100
AcDbLine
 10
183.6897390083436
 20
168.8114951040296
 30
0.0
 11
183.6897390083436
 21
183.3114951040296
 31
0.0
  0
LINE
  5
F312
330
1F
100
AcDbEntity
  8
AM_0
100
AcDbLine
 10
179.691326109797
 20
183.3114951040296
 30
0.0
 11
136.6897390083435
 21
183.3114951040296
 31
0.0
  0
LINE
  5
F341
330
1F
100
AcDbEntity
  8
AM_0
  6
Continuous
 62
     7
370
    30
100
AcDbLine
 10
131.7922160083434
 20
171.3478871040297
 30
0.0
 11
134.2922160083434
 21
171.3478871040297
 31
0.0
  0
LINE
  5
F342
330
1F
100
AcDbEntity
  8
AM_0
  6
Continuous
 62
     7
370
    30
100
AcDbLine
 10
135.7922160083435
 20
172.8478871040297
 30
0.0
 11
135.7922160083435
 21
178.9994011040298
 31
0.0
  0
LINE
  5
F343
330
1F
100
AcDbEntity
  8
AM_0
  6
Continuous
 62
     7
370
    30
100
AcDbLine
 10
140.7922160083435
 20
172.8478871040297
 30
0.0
 11
140.7922160083435
 21
178.9994011040298
 31
0.0
  0
ARC
  5
F344
330
1F
100
AcDbEntity
  8
AM_0
  6
Continuous
 62
     7
370
    30
100
AcDbCircle
 10
138.2922160083434
 20
178.9994011040298
 30
0.0
 40
2.5
100
AcDbArc
 50
0.0
 51
180.0
  0
LINE
  5
F345
330
1F
100
AcDbEntity
  8
AM_0
  6
Continuous
 62
     7
370
    30
100
AcDbLine
 10
142.2922160083435
 20
171.3478871040297
 30
0.0
 11
143.8456700083436
 21
171.3478871040297
 31
0.0
  0
ARC
  5
F346
330
1F
100
AcDbEntity
  8
AM_0
  6
Continuous
 62
     7
370
    30
100
AcDbCircle
 10
134.2922160083434
 20
172.8478871040297
 30
0.0
 40
1.5
100
AcDbArc
 50
270.0
 51
0.0
  0
ARC
  5
F347
330
1F
100
AcDbEntity
  8
AM_0
  6
Continuous
 62
     7
370
    30
100
AcDbCircle
 10
142.2922160083435
 20
172.8478871040297
 30
0.0
 40
1.5
100
AcDbArc
 50
180.0
 51
270.0
  0
LINE
  5
F348
330
1F
100
AcDbEntity
  8
AM_0
  6
Continuous
 62
     7
370
    30
100
AcDbLine
 10
131.7922160083434
 20
179.0891071040297
 30
0.0
 11
134.3068510083436
 21
179.0891071040297
 31
0.0
  0
LINE
  5
F349
330
1F
100
AcDbEntity
  8
AM_0
  6
Continuous
 62
     7
370
    30
100
AcDbLine
 10
140.7906060083435
 20
179.0891071040297
 30
0.0
 11
144.0876600083435
 21
179.0891071040297
 31
0.0
  0
ARC
  5
F34A
330
1F
100
AcDbEntity
  8
AM_0
  6
Continuous
 62
     7
370
    30
100
AcDbCircle
 10
134.3068510083436
 20
181.0891071040297
 30
0.0
 40
2.0
100
AcDbArc
 50
270.0
 51
332.3299570000015
  0
ARC
  5
F34B
330
1F
100
AcDbEntity
  8
AM_0
  6
Continuous
 62
     7
370
    30
100
AcDbCircle
 10
142.2781680083436
 20
181.0879871040297
 30
0.0
 40
2.0
100
AcDbArc
 50
207.6539349999968
 51
271.9180279999949
  0
ARC
  5
F34C
330
1F
100
AcDbEntity
  8
AM_0
  6
Continuous
 62
     7
370
    30
100
AcDbCircle
 10
144.0876600083435
 20
175.0891071040297
 30
0.0
 40
4.0
100
AcDbArc
 50
25.31931299999973
 51
90.0
  0
ARC
  5
F34D
330
1F
100
AcDbEntity
  8
AM_0
  6
Continuous
 62
     7
370
    30
100
AcDbCircle
 10
143.8456700083436
 20
168.3478871040297
 30
0.0
 40
3.0
100
AcDbArc
 50
56.7214369999975
 51
90.0
  0
LINE
  5
F34E
330
1F
100
AcDbEntity
  8
AM_0
  6
Continuous
 62
     7
370
    30
100
AcDbLine
 10
151.9303540083435
 20
166.7772101040297
 30
0.0
 11
145.4918000083435
 21
170.8559251040297
 31
0.0
  0
LINE
  5
F34F
330
1F
100
AcDbEntity
  8
AM_0
  6
Continuous
 62
     7
370
    30
100
AcDbLine
 10
152.5937240083434
 20
166.4632451040296
 30
0.0
 11
147.7034140083435
 21
176.7997571040297
 31
0.0
  0
ARC
  5
F350
330
1F
100
AcDbEntity
  8
AM_0
  6
Continuous
 62
     7
370
    30
100
AcDbCircle
 10
153.5357810083434
 20
169.3114951040296
 30
0.0
 40
3.0
100
AcDbArc
 50
237.6464299999978
 51
270.0
  0
LINE
  5
F351
330
1F
100
AcDbEntity
  8
AM_0
  6
Continuous
 62
     7
370
    30
100
AcDbLine
 10
217.5872620083438
 20
171.3478871040297
 30
0.0
 11
215.0872620083438
 21
171.3478871040297
 31
0.0
  0
LINE
  5
F352
330
1F
100
AcDbEntity
  8
AM_0
  6
Continuous
 62
     7
370
    30
100
AcDbLine
 10
213.5872620083438
 20
172.8478871040297
 30
0.0
 11
213.5872620083438
 21
178.9994011040298
 31
0.0
  0
LINE
  5
F353
330
1F
100
AcDbEntity
  8
AM_0
  6
Continuous
 62
     7
370
    30
100
AcDbLine
 10
208.5872620083438
 20
172.8478871040297
 30
0.0
 11
208.5872620083438
 21
178.9994011040298
 31
0.0
  0
ARC
  5
F354
330
1F
100
AcDbEntity
  8
AM_0
  6
Continuous
 62
     7
370
    30
100
AcDbCircle
 10
211.0872620083438
 20
178.9994011040298
 30
0.0
 40
2.5
100
AcDbArc
 50
0.000000000000007
 51
180.0
  0
LINE
  5
F355
330
1F
100
AcDbEntity
  8
AM_0
  6
Continuous
 62
     7
370
    30
100
AcDbLine
 10
207.0872620083437
 20
171.3478871040297
 30
0.0
 11
205.5338080083437
 21
171.3478871040297
 31
0.0
  0
ARC
  5
F356
330
1F
100
AcDbEntity
  8
AM_0
  6
Continuous
 62
     7
370
    30
100
AcDbCircle
 10
215.0872620083438
 20
172.8478871040297
 30
0.0
 40
1.5
100
AcDbArc
 50
180.0
 51
270.0
  0
ARC
  5
F357
330
1F
100
AcDbEntity
  8
AM_0
  6
Continuous
 62
     7
370
    30
100
AcDbCircle
 10
207.0872620083437
 20
172.8478871040297
 30
0.0
 40
1.5
100
AcDbArc
 50
270.0
 51
0.000000000000007
  0
LINE
  5
F358
330
1F
100
AcDbEntity
  8
AM_0
  6
Continuous
 62
     7
370
    30
100
AcDbLine
 10
217.5872620083438
 20
179.0891071040297
 30
0.0
 11
215.0726270083437
 21
179.0891071040297
 31
0.0
  0
LINE
  5
F359
330
1F
100
AcDbEntity
  8
AM_0
  6
Continuous
 62
     7
370
    30
100
AcDbLine
 10
208.5888720083437
 20
179.0891071040297
 30
0.0
 11
205.2918180083437
 21
179.0891071040297
 31
0.0
  0
ARC
  5
F35A
330
1F
100
AcDbEntity
  8
AM_0
  6
Continuous
 62
     7
370
    30
100
AcDbCircle
 10
215.0726270083437
 20
181.0891071040297
 30
0.0
 40
2.0
100
AcDbArc
 50
207.6700429999986
 51
270.0
  0
ARC
  5
F35B
330
1F
100
AcDbEntity
  8
AM_0
  6
Continuous
 62
     7
370
    30
100
AcDbCircle
 10
207.1013100083436
 20
181.0879871040297
 30
0.0
 40
2.0
100
AcDbArc
 50
268.0819720000051
 51
332.3460650000027
  0
ARC
  5
F35C
330
1F
100
AcDbEntity
  8
AM_0
  6
Continuous
 62
     7
370
    30
100
AcDbCircle
 10
205.2918180083437
 20
175.0891071040297
 30
0.0
 40
4.0
100
AcDbArc
 50
90.0
 51
154.6806870000005
  0
ARC
  5
F35D
330
1F
100
AcDbEntity
  8
AM_0
  6
Continuous
 62
     7
370
    30
100
AcDbCircle
 10
205.5338080083437
 20
168.3478871040297
 30
0.0
 40
3.0
100
AcDbArc
 50
90.0
 51
123.2785630000028
  0
LINE
  5
F35E
330
1F
100
AcDbEntity
  8
AM_0
  6
Continuous
 62
     7
370
    30
100
AcDbLine
 10
197.4491240083437
 20
166.7772101040297
 30
0.0
 11
203.8876780083437
 21
170.8559251040297
 31
0.0
  0
LINE
  5
F35F
330
1F
100
AcDbEntity
  8
AM_0
  6
Continuous
 62
     7
370
    30
100
AcDbLine
 10
196.7857540083437
 20
166.4632451040296
 30
0.0
 11
201.6760640083437
 21
176.7997571040297
 31
0.0
  0
ARC
  5
F360
330
1F
100
AcDbEntity
  8
AM_0
  6
Continuous
 62
     7
370
    30
100
AcDbCircle
 10
195.8436970083438
 20
169.3114951040296
 30
0.0
 40
3.0
100
AcDbArc
 50
270.0
 51
302.3535700000022
  0
DIMENSION
  5
F377
330
1F
100
AcDbEntity
  8
AM_5
100
AcDbDimension
  2
*D19
 10
276.2196635412893
 20
193.3114951040296
 30
0.0
 11
281.9063302079559
 21
196.4114951040296
 31
0.0
 70
    32
 71
     5
 42
1.599999999999909
  3
SYS$0
100
AcDbAlignedDimension
 13
274.6196635412894
 23
183.3114951040296
 33
0.0
 14
276.2196635412893
 24
183.3114951040296
 34
0.0
 50
0.0000000000000114
100
AcDbRotatedDimension
1001
ACAD
1000
DSTYLE
1002
{
1070
   179
1070
     2
1002
}
  0
ENDSEC
  0
SECTION
  2
OBJECTS
  0
DICTIONARY
  5
C
330
0
100
AcDbDictionary
281
     1
  3
ACAD_2007HEADERVARS_RT
350
F40E
  3
ACAD_BGPLOT_KEY
350
AB06
  3
ACAD_COLOR
350
A91D
  3
ACAD_GROUP
350
D
  3
ACAD_LAYOUT
350
1A
  3
ACAD_MATERIAL
350
A91C
  3
ACAD_MLEADERSTYLE
350
B595
  3
ACAD_MLINESTYLE
350
17
  3
ACAD_PLOTSETTINGS
350
19
  3
ACAD_PLOTSTYLENAME
350
E
  3
ACAD_SCALELIST
350
B573
  3
ACAD_TABLESTYLE
350
AAB9
  3
ACAD_VISUALSTYLE
350
B0F1
  3
AcAsAppObject
350
3DA1
  3
ACASGREF_MASTER
350
3DE9
  3
ACDB_RECOMPOSE_DATA
350
B5B7
  3
AcDbVariableDictionary
350
34
  3
AcmDictionary
350
47
  3
AD_GREF_MODULE
350
3DEA
  3
AD_MAPI_MODULE
350
3E06
  3
AMG
350
2B
  3
AMGSNAPSETTINGS
350
7D
  3
ASE_INDEX_DICTIONARY
350
B570
  3
DWGPROPS
350
F40D
  3
MAPISURF_MODULE
350
3DEB
  0
DICTIONARY
  5
3F95
330
2
100
AcDbDictionary
280
     1
281
     1
  3
ACAD_LAYERFILTERS
360
B4F7
  3
ACAD_LAYERSTATES
360
3F96
  3
ACLYDICTIONARY
360
B4F6
  3
AMLAYER_GROUPCOLORS
360
AAB4
  0
DICTIONARY
  5
E250
330
10
100
AcDbDictionary
280
     1
281
     1
  3
ADSK_XREC_LAYER_RECONCILED
360
E251
  0
DICTIONARY
  5
E252
330
5F85
100
AcDbDictionary
280
     1
281
     1
  3
ADSK_XREC_LAYER_RECONCILED
360
E253
  0
DICTIONARY
  5
E254
330
AC9F
100
AcDbDictionary
280
     1
281
     1
  3
ADSK_XREC_LAYER_RECONCILED
360
E255
  0
DICTIONARY
  5
E256
330
ACA0
100
AcDbDictionary
280
     1
281
     1
  3
ADSK_XREC_LAYER_RECONCILED
360
E257
  0
DICTIONARY
  5
E258
330
ACA1
100
AcDbDictionary
280
     1
281
     1
  3
ADSK_XREC_LAYER_RECONCILED
360
E259
  0
DICTIONARY
  5
E262
330
AD64
100
AcDbDictionary
280
     1
281
     1
  3
ADSK_XREC_LAYER_RECONCILED
360
E263
  0
DICTIONARY
  5
E266
330
AD68
100
AcDbDictionary
280
     1
281
     1
  3
ADSK_XREC_LAYER_RECONCILED
360
E267
  0
DICTIONARY
  5
E268
330
AD69
100
AcDbDictionary
280
     1
281
     1
  3
ADSK_XREC_LAYER_RECONCILED
360
E269
  0
DICTIONARY
  5
E27C
330
BEEA
100
AcDbDictionary
280
     1
281
     1
  3
ADSK_XREC_LAYER_RECONCILED
360
E27D
  0
DICTIONARY
  5
8A
330
1F
100
AcDbDictionary
280
     1
281
     1
  3
ACAD_SORTENTS
360
B1BA
  0
DICTIONARY
  5
F40E
102
{ACAD_REACTORS
330
C
102
}
330
C
100
AcDbDictionary
281
     1
  3
DIMARCSYM
350
F40F
  0
DICTIONARY
  5
AB06
102
{ACAD_REACTORS
330
C
102
}
330
C
100
AcDbDictionary
280
     1
281
     1
  0
DICTIONARY
  5
A91D
102
{ACAD_REACTORS
330
C
102
}
330
C
100
AcDbDictionary
281
     1
  0
DICTIONARY
  5
D
102
{ACAD_REACTORS
330
C
102
}
330
C
100
AcDbDictionary
281
     1
  0
DICTIONARY
  5
1A
102
{ACAD_REACTORS
330
C
102
}
330
C
100
AcDbDictionary
281
     1
  3
Model
350
22
  3
ﾚｲｱｳﾄ1
350
1E
  3
ﾚｲｱｳﾄ2
350
26
  0
DICTIONARY
  5
A91C
102
{ACAD_REACTORS
330
C
102
}
330
C
100
AcDbDictionary
281
     1
  3
ByBlock
350
B0EF
  3
ByLayer
350
B0EE
  3
Global
350
B0F0
  0
DICTIONARY
  5
B595
102
{ACAD_REACTORS
330
C
102
}
330
C
100
AcDbDictionary
281
     1
  3
Standard
350
B596
  0
DICTIONARY
  5
17
102
{ACAD_REACTORS
330
C
102
}
330
C
100
AcDbDictionary
281
     1
  3
Standard
350
18
  0
DICTIONARY
  5
19
102
{ACAD_REACTORS
330
C
102
}
330
C
100
AcDbDictionary
281
     1
  0
ACDBDICTIONARYWDFLT
  5
E
102
{ACAD_REACTORS
330
C
102
}
330
C
100
AcDbDictionary
281
     1
  3
Normal
350
F
100
AcDbDictionaryWithDefault
340
F
  0
DICTIONARY
  5
B573
102
{ACAD_REACTORS
330
C
102
}
330
C
100
AcDbDictionary
281
     1
  3
A0
350
B574
  3
A1
350
B575
  3
A2
350
B576
  3
A3
350
B577
  3
A4
350
B578
  3
A5
350
B579
  3
A6
350
B57A
  3
A7
350
B57B
  3
A8
350
B57C
  3
A9
350
B57D
  3
B0
350
B57E
  3
B1
350
B57F
  3
B2
350
B580
  3
B3
350
B581
  3
B4
350
B582
  3
B5
350
B583
  3
B6
350
B584
  3
B7
350
B585
  3
B8
350
B586
  3
B9
350
B587
  3
C0
350
B588
  3
C1
350
B589
  3
C2
350
B58A
  3
C3
350
B58B
  3
C4
350
B58C
  3
C5
350
B58D
  3
C6
350
B58E
  3
C7
350
B58F
  3
C8
350
B590
  3
C9
350
B591
  3
D0
350
B592
  3
D1
350
B593
  3
D2
350
B594
  0
DICTIONARY
  5
AAB9
102
{ACAD_REACTORS
330
C
102
}
330
C
100
AcDbDictionary
281
     1
  3
Standard
350
AABA
  0
DICTIONARY
  5
B0F1
102
{ACAD_REACTORS
330
C
102
}
330
C
100
AcDbDictionary
281
     1
  3
2dWireframe
350
B0F7
  3
3D Hidden
350
B0F9
  3
3dWireframe
350
B0F8
  3
Basic
350
B0F6
  3
Brighten
350
B0FD
  3
ColorChange
350
B101
  3
Conceptual
350
B0FA
  3
Dim
350
B0FC
  3
Facepattern
350
B100
  3
Flat
350
B0F2
  3
FlatWithEdges
350
B0F3
  3
Gouraud
350
B0F4
  3
GouraudWithEdges
350
B0F5
  3
Linepattern
350
B0FF
  3
Realistic
350
B0FB
  3
Thicken
350
B0FE
  0
ACAD_PROXY_OBJECT
  5
3DA1
102
{ACAD_REACTORS
330
C
102
}
330
C
100
AcDbProxyObject
 90
      499
 91
      576
 95
       23
 70
     0
 93
       10
310
407F
 94
        0
1001
ACAD
1000
AcRTDxfName
1000
ASAPP
  0
ACAD_PROXY_OBJECT
  5
3DE9
102
{ACAD_REACTORS
330
C
102
}
330
C
100
AcDbProxyObject
 90
      499
 91
      581
 95
       23
 70
     0
 93
       34
310
010000407F
 94
        0
1001
ACAD
1000
AcRTDxfName
1000
ACASGREFMASTER
  0
XRECORD
  5
B5B7
102
{ACAD_REACTORS
330
C
102
}
330
C
100
AcDbXrecord
280
     1
 90
        1
330
AABA
  0
DICTIONARY
  5
34
102
{ACAD_REACTORS
330
C
102
}
330
C
100
AcDbDictionary
281
     1
  3
CANNOSCALE
350
B5BA
  3
CMLEADERSTYLE
350
B5B8
  3
CTABLESTYLE
350
AAF3
  3
DIMASSOC
350
A10C
  3
FIELDEVAL
350
AB07
  3
INDEXCTL
350
35
  3
LIGHTINGUNITS
350
B5BB
  3
MSLTSCALE
350
B5B9
  3
SORTENTS
350
194C
  0
DICTIONARY
  5
47
102
{ACAD_REACTORS
330
C
102
}
330
C
100
AcDbDictionary
281
     1
  3
AcmBOM
350
7E8
  3
AcmStdDictionary
350
4C
  3
AMDTSECTSYM_ARROWCOLOR
350
A929
  0
ACAD_PROXY_OBJECT
  5
3DEA
102
{ACAD_REACTORS
330
C
102
}
330
C
100
AcDbProxyObject
 90
      499
 91
      582
 95
       23
 70
     0
 93
      114
310
00000043800000000000000000003F
 94
        0
1001
ACAD
1000
AcRTDxfName
1000
ACADGREFMODULE
  0
ACAD_PROXY_OBJECT
  5
3E06
102
{ACAD_REACTORS
330
C
102
}
330
C
100
AcDbProxyObject
 90
      499
 91
      594
 95
       23
 70
     0
 93
       34
310
05000044FF
 94
        0
1001
ACAD
1000
AcRTDxfName
1000
MAPIADMODULE
  0
DICTIONARY
  5
2B
102
{ACAD_REACTORS
330
C
102
}
330
C
100
AcDbDictionary
281
     1
  0
DICTIONARY
  5
7D
102
{ACAD_REACTORS
330
C
102
}
330
C
100
AcDbDictionary
281
     1
  0
DICTIONARY
  5
B570
102
{ACAD_REACTORS
330
C
102
}
330
C
100
AcDbDictionary
281
     1
  3
ASEBlockHierarchyIndexRecord
350
B571
1001
DCO15
1040
1706332604.97
  0
XRECORD
  5
F40D
102
{ACAD_REACTORS
330
C
102
}
330
C
100
AcDbXrecord
280
     1
  1
DWGPROPS COOKIE
  2

  3

  4

  6

  7

  8
shibutani
  9

300
AmdtFileType=84
301
=
302
=
303
=
304
=
305
=
306
=
307
=
308
=
309
=
 40
0.1169938078703704
 41
2456139.787518079
 42
2456323.47151331
  1

 90
        1
  0
ACAD_PROXY_OBJECT
  5
3DEB
102
{ACAD_REACTORS
330
C
102
}
330
C
100
AcDbProxyObject
 90
      499
 91
      583
 95
       23
 70
     0
 93
        8
310
047C
 94
        0
1001
ACAD
1000
AcRTDxfName
1000
AMDTMAPISURFMOUDULE
  0
DICTIONARY
  5
B4F7
102
{ACAD_REACTORS
330
3F95
102
}
330
3F95
100
AcDbDictionary
281
     1
  0
DICTIONARY
  5
3F96
102
{ACAD_REACTORS
330
3F95
102
}
330
3F95
100
AcDbDictionary
281
     1
  3
20011210
350
3FB7
  0
DICTIONARY
  5
B4F6
102
{ACAD_REACTORS
330
3F95
102
}
330
3F95
100
AcDbDictionary
281
     1
1001
ACAD
1000
<All
  0
DICTIONARY
  5
AAB4
102
{ACAD_REACTORS
330
3F95
102
}
330
3F95
100
AcDbDictionary
280
     1
281
     1
  0
XRECORD
  5
E251
102
{ACAD_REACTORS
330
E250
102
}
330
E250
100
AcDbXrecord
280
     1
290
     1
  0
XRECORD
  5
E253
102
{ACAD_REACTORS
330
E252
102
}
330
E252
100
AcDbXrecord
280
     1
290
     1
  0
XRECORD
  5
E255
102
{ACAD_REACTORS
330
E254
102
}
330
E254
100
AcDbXrecord
280
     1
290
     1
  0
XRECORD
  5
E257
102
{ACAD_REACTORS
330
E256
102
}
330
E256
100
AcDbXrecord
280
     1
290
     1
  0
XRECORD
  5
E259
102
{ACAD_REACTORS
330
E258
102
}
330
E258
100
AcDbXrecord
280
     1
290
     1
  0
XRECORD
  5
E263
102
{ACAD_REACTORS
330
E262
102
}
330
E262
100
AcDbXrecord
280
     1
290
     1
  0
XRECORD
  5
E267
102
{ACAD_REACTORS
330
E266
102
}
330
E266
100
AcDbXrecord
280
     1
290
     1
  0
XRECORD
  5
E269
102
{ACAD_REACTORS
330
E268
102
}
330
E268
100
AcDbXrecord
280
     1
290
     1
  0
XRECORD
  5
E27D
102
{ACAD_REACTORS
330
E27C
102
}
330
E27C
100
AcDbXrecord
280
     1
290
     1
  0
SORTENTSTABLE
  5
B1BA
102
{ACAD_REACTORS
330
8A
102
}
330
8A
100
AcDbSortentsTable
330
1F
331
F30C
  5
F30D
331
E891
  5
E896
331
E8D0
  5
E8D6
331
BA1B
  5
BA1B
331
BFA1
  5
BF99
331
E862
  5
E862
331
E899
  5
E89E
331
BA23
  5
BA23
331
BFA9
  5
BFA1
331
E86A
  5
E86E
331
E8A1
  5
E8A6
331
BFB1
  5
BFA9
331
EE4D
  5
EF28
331
E8E8
  5
E8F2
331
BFB9
  5
BFB1
331
E87A
  5
E87D
331
E8B1
  5
E8B6
331
BFC1
  5
BFB9
331
E8F8
  5
E900
331
E8B9
  5
E8C1
331
B9F4
  5
B9F4
331
BF92
  5
BF67
331
BFC9
  5
BFC1
331
E8C1
  5
E8C7
331
BF9A
  5
BF92
331
EB27
  5
EDC0
331
E8C9
  5
E8D0
331
EF28
  5
F16B
331
F30D
  5
F30E
331
E8D1
  5
E8D7
331
BA1C
  5
BA1C
331
BFA2
  5
BF9A
331
E89A
  5
E89F
331
BA24
  5
BA24
331
BFAA
  5
BFA2
331
BA34
  5
BA34
331
BFB2
  5
BFAA
331
EE4E
  5
EE59
331
E8E9
  5
E8F3
331
E8AA
  5
E8AF
331
BFBA
  5
BFB2
331
E8F1
  5
E8FC
331
E87B
  5
E87F
331
E8B2
  5
E8B7
331
BFC2
  5
BFBA
331
EA18
  5
ED8F
331
E8F9
  5
E901
331
E8BA
  5
E8C2
331
B9F5
  5
B9F5
331
BF93
  5
BF6F
331
BFCA
  5
BFC2
331
ED8F
  5
EE1B
331
E8C2
  5
E8C8
331
BF9B
  5
BF93
331
E8CA
  5
E8D1
331
F30E
  5
F30F
331
E8D2
  5
E8D8
331
E85C
  5
E85C
331
BA1D
  5
BA1D
331
BFA3
  5
BF9B
331
E949
  5
E9CB
331
E8DA
  5
E8E0
331
E864
  5
E866
331
BA25
  5
BA25
331
BFAB
  5
BFA3
331
E86C
  5
E86F
331
BA35
  5
BA35
331
BFB3
  5
BFAB
331
EE4F
  5
EE4E
331
BFBB
  5
BFB3
331
E8F2
  5
E8FD
331
BFC3
  5
BFBB
331
E8FA
  5
E902
331
E8BB
  5
E8C3
331
B9F6
  5
B9F6
331
E902
  5
E97B
331
E8C3
  5
E8C9
331
E8CB
  5
E8D2
331
F30F
  5
F310
331
EDC0
  5
EE4D
331
E92A
  5
E9A3
331
E8D3
  5
E8D9
331
E85D
  5
E85D
331
BA1E
  5
BA1E
331
E8DB
  5
E8E4
331
E865
  5
E867
331
BA26
  5
BA26
331
E8A4
  5
E8AA
331
E86D
  5
E870
331
E8EB
  5
E8F9
331
E8F3
  5
E8FE
331
E87D
  5
E883
331
E8FB
  5
E92A
331
E8BC
  5
E8C4
331
B9F7
  5
B9F7
331
BF95
  5
BF7F
331
BFCC
  5
BFC4
331
E8C4
  5
E8CA
331
BF9D
  5
BF95
331
BA17
  5
BA17
331
F310
  5
F311
331
E8D4
  5
E8DA
331
E85E
  5
E85E
331
BFA5
  5
BF9D
331
BA1F
  5
BA1F
331
E89D
  5
E8A1
331
E866
  5
E868
331
BFAD
  5
BFA5
331
E97B
  5
EA18
331
E86E
  5
E871
331
BFB5
  5
BFAD
331
E9A3
  5
EAE3
331
E8EC
  5
E8FA
331
EE59
  5
E864
331
BFBD
  5
BFB5
331
E9CB
  5
EAE4
331
E87E
  5
E884
331
B9F0
  5
B9F0
331
BFC5
  5
BFBD
331
E8FC
  5
E949
331
E8BD
  5
E8C5
331
BF96
  5
BF87
331
E8C5
  5
E8CB
331
E88E
  5
E895
331
BF9E
  5
BF96
331
F309
  5
F30A
331
F311
  5
F312
331
BA18
  5
BA18
331
EBBB
  5
EE03
331
E85F
  5
E85F
331
BA20
  5
BA20
331
BFA6
  5
BF9E
331
E89E
  5
E8A2
331
E867
  5
E869
331
E8DD
  5
E8E7
331
BFAE
  5
BFA6
331
E8E5
  5
E8EF
331
E86F
  5
E872
331
BFB6
  5
BFAE
331
E8ED
  5
E8FB
331
E8AE
  5
E8B2
331
BFBE
  5
BFB6
331
E87F
  5
E885
331
B9F1
  5
B9F1
331
BFC6
  5
BFBE
331
E8C6
  5
E8CC
331
BF97
  5
BF8F
331
BFCE
  5
BFC6
331
BF9F
  5
BF97
331
F30A
  5
F30B
331
F312
  5
E8EA
331
BA19
  5
BA19
331
E8D6
  5
E8DC
331
E860
  5
E860
331
BA21
  5
BA21
331
BFA7
  5
BF9F
331
EE1B
  5
EE4F
331
E89F
  5
E8A3
331
E868
  5
E86A
331
E8DE
  5
E8E8
331
BFAF
  5
BFA7
331
E8A7
  5
E8AB
331
E870
  5
E874
331
BFB7
  5
BFAF
331
E8AF
  5
E8B3
331
BFBF
  5
BFB7
331
E878
  5
E87B
331
E880
  5
E887
331
B9F2
  5
B9F2
331
BFC7
  5
BFBF
331
BFCF
  5
BFC7
331
E8C7
  5
E8CD
331
E8CF
  5
E8D5
331
F30B
  5
F30C
331
E859
  5
E859
331
BA1A
  5
BA1A
331
E8D7
  5
E8DD
331
BA22
  5
BA22
331
EE1C
  5
EE84
331
E8DF
  5
E8E9
331
E869
  5
E86D
331
E8E7
  5
E8F0
331
E871
  5
E875
331
E8B0
  5
E8B4
331
E879
  5
E87C
331
E8F7
  5
E8FF
331
E8B8
  5
E8BD
331
EE84
  5
E865
331
B9F3
  5
B9F3
331
E8C0
  5
E8C6
331
BF99
  5
BF91
331
BFD0
  5
BFC8
331
E8C8
  5
E8CF
  0
XRECORD
  5
F40F
102
{ACAD_REACTORS
330
F40E
102
}
330
F40E
100
AcDbXrecord
280
     1
 70
     1
  0
LAYOUT
  5
22
102
{ACAD_XDICTIONARY
360
F412
102
}
102
{ACAD_REACTORS
330
1A
102
}
330
1A
100
AcDbPlotSettings
  1

  2
RICOH imagio MP C2800 RPCS
  4
A4
  6

 40
5.873749732971191
 41
5.873747825622558
 42
5.873748779296875
 43
5.873748779296875
 44
209.9733276367187
 45
296.9259948730469
 46
0.0
 47
2.429571975361199
 48
0.0000000000000284
 49
0.0
140
420.0
141
297.0
142
1.0
143
1.498291122361943
 70
  3764
 72
     1
 73
     1
 74
     4
  7
monochrome.ctb
 75
     0
147
0.6674270340890596
148
-0.0000000000000284
149
0.0
100
AcDbLayout
  1
Model
 70
     1
 71
     0
 10
0.0
 20
0.0
 11
12.0
 21
9.0
 12
0.0
 22
0.0
 32
0.0
 14
0.0
 24
0.0
 34
0.0
 15
0.0
 25
0.0
 35
0.0
146
0.0
 13
0.0
 23
0.0
 33
0.0
 16
1.0
 26
0.0
 36
0.0
 17
0.0
 27
1.0
 37
0.0
 76
     0
330
1F
331
B0EC
1001
ACAD_PSEXT
1000
RICOH imagio MP C2800 RPCS
1000
RICOH imagio MP C2800 RPCS
1000
IP_192.200.51.210
1000
RPCS Driver (Windows 2000/XP/Server 2003/2008/Vista/7)
1070
     0
  0
LAYOUT
  5
1E
102
{ACAD_XDICTIONARY
360
F410
102
}
102
{ACAD_REACTORS
330
1A
102
}
330
1A
100
AcDbPlotSettings
  1

  2
\\ML370\XEROX
  4
A4
  6

 40
3.174999952316284
 41
3.174999952316284
 42
3.175003051757812
 43
3.17498779296875
 44
209.8674926757813
 45
296.6719970703125
 46
0.0
 47
0.0
 48
0.0
 49
0.0
140
0.0
141
0.0
142
1.0
143
1.0
 70
   688
 72
     1
 73
     1
 74
     5
  7
monochrome.ctb
 75
    16
147
1.0
148
0.0
149
0.0
100
AcDbLayout
  1
ﾚｲｱｳﾄ1
 70
     1
 71
     1
 10
-3.17498779296875
 20
-3.174999952316284
 11
293.4970092773438
 21
206.692492723465
 12
0.0
 22
0.0
 32
0.0
 14
1.000000000000000E+20
 24
1.000000000000000E+20
 34
1.000000000000000E+20
 15
-1.000000000000000E+20
 25
-1.000000000000000E+20
 35
-1.000000000000000E+20
146
0.0
 13
0.0
 23
0.0
 33
0.0
 16
1.0
 26
0.0
 36
0.0
 17
0.0
 27
1.0
 37
0.0
 76
     0
330
1B
  0
LAYOUT
  5
26
102
{ACAD_XDICTIONARY
360
F414
102
}
102
{ACAD_REACTORS
330
1A
102
}
330
1A
100
AcDbPlotSettings
  1

  2
\\ML370\XEROX
  4

  6

 40
0.0
 41
0.0
 42
0.0
 43
0.0
 44
0.0
 45
0.0
 46
0.0
 47
0.0
 48
0.0
 49
0.0
140
0.0
141
0.0
142
1.0
143
1.0
 70
   688
 72
     0
 73
     0
 74
     5
  7
monochrome.ctb
 75
    16
147
1.0
148
0.0
149
0.0
100
AcDbLayout
  1
ﾚｲｱｳﾄ2
 70
     1
 71
     2
 10
0.0
 20
0.0
 11
12.0
 21
9.0
 12
0.0
 22
0.0
 32
0.0
 14
0.0
 24
0.0
 34
0.0
 15
0.0
 25
0.0
 35
0.0
146
0.0
 13
0.0
 23
0.0
 33
0.0
 16
1.0
 26
0.0
 36
0.0
 17
0.0
 27
1.0
 37
0.0
 76
     0
330
23
  0
MATERIAL
  5
B0EF
102
{ACAD_XDICTIONARY
360
F419
102
}
102
{ACAD_REACTORS
330
A91C
102
}
330
A91C
100
AcDbMaterial
  1
ByBlock
  0
MATERIAL
  5
B0EE
102
{ACAD_XDICTIONARY
360
F417
102
}
102
{ACAD_REACTORS
330
A91C
102
}
330
A91C
100
AcDbMaterial
  1
ByLayer
  0
MATERIAL
  5
B0F0
102
{ACAD_XDICTIONARY
360
F41B
102
}
102
{ACAD_REACTORS
330
A91C
102
}
330
A91C
100
AcDbMaterial
  1
Global
  0
ACAD_PROXY_OBJECT
  5
B596
102
{ACAD_REACTORS
330
B595
102
}
330
B595
100
AcDbProxyObject
 90
      499
 91
      626
 95
       27
 70
     0
 93
      817
310
40901902A40600000030400FEFFFFFF8000000000000008102B5E8DC0F42B5CFC0000000000001040405064068000000C1000000000000000410000000000000004102000000304015D94000000000000C03F4214C01D0018401B80190018401C80190028C00CC
340
14
340
0
340
11
340
0
 94
        0
1001
ACAD_MLEADERVER
1070
     2
1001
ACAD
1000
AcRTDxfName
1000
MLEADERSTYLE
  0
MLINESTYLE
  5
18
102
{ACAD_REACTORS
330
17
102
}
330
17
100
AcDbMlineStyle
  2
STANDARD
 70
     0
  3

 62
   256
 51
90.0
 52
90.0
 71
     2
 49
0.5
 62
   256
  6
BYLAYER
 49
-0.5
 62
   256
  6
BYLAYER
  0
ACDBPLACEHOLDER
  5
F
102
{ACAD_REACTORS
330
E
102
}
330
E
  0
ACAD_PROXY_OBJECT
  5
B574
102
{ACAD_REACTORS
330
B573
102
}
330
B573
100
AcDbProxyObject
 90
      499
 91
      625
 95
       27
 70
     0
 93
       82
310
968198801D0018801D004C
 94
        0
1001
ACAD
1000
AcRTDxfName
1000
SCALE
  0
ACAD_PROXY_OBJECT
  5
B575
102
{ACAD_REACTORS
330
B573
102
}
330
B573
100
AcDbProxyObject
 90
      499
 91
      625
 95
       27
 70
     0
 93
      146
310
9000000000000001008198801D0019001D004C
 94
        0
1001
ACAD
1000
AcRTDxfName
1000
SCALE
  0
ACAD_PROXY_OBJECT
  5
B576
102
{ACAD_REACTORS
330
B573
102
}
330
B573
100
AcDbProxyObject
 90
      499
 91
      625
 95
       27
 70
     0
 93
      146
310
9000000000000041008198801D001A001D004C
 94
        0
1001
ACAD
1000
AcRTDxfName
1000
SCALE
  0
ACAD_PROXY_OBJECT
  5
B577
102
{ACAD_REACTORS
330
B573
102
}
330
B573
100
AcDbProxyObject
 90
      499
 91
      625
 95
       27
 70
     0
 93
      146
310
9000000000000051008198801D001A801D004C
 94
        0
1001
ACAD
1000
AcRTDxfName
1000
SCALE
  0
ACAD_PROXY_OBJECT
  5
B578
102
{ACAD_REACTORS
330
B573
102
}
330
B573
100
AcDbProxyObject
 90
      499
 91
      625
 95
       27
 70
     0
 93
      146
310
9000000000000081008198801D001C001D004C
 94
        0
1001
ACAD
1000
AcRTDxfName
1000
SCALE
  0
ACAD_PROXY_OBJECT
  5
B579
102
{ACAD_REACTORS
330
B573
102
}
330
B573
100
AcDbProxyObject
 90
      499
 91
      625
 95
       27
 70
     0
 93
      162
310
9000000000000091008218801D001880180025004C
 94
        0
1001
ACAD
1000
AcRTDxfName
1000
SCALE
  0
ACAD_PROXY_OBJECT
  5
B57A
102
{ACAD_REACTORS
330
B573
102
}
330
B573
100
AcDbProxyObject
 90
      499
 91
      625
 95
       27
 70
     0
 93
      162
310
90000000000000C1008218801D0018801B0025004C
 94
        0
1001
ACAD
1000
AcRTDxfName
1000
SCALE
  0
ACAD_PROXY_OBJECT
  5
B57B
102
{ACAD_REACTORS
330
B573
102
}
330
B573
100
AcDbProxyObject
 90
      499
 91
      625
 95
       27
 70
     0
 93
      162
310
90000000000000D1008218801D001900180025004C
 94
        0
1001
ACAD
1000
AcRTDxfName
1000
SCALE
  0
ACAD_PROXY_OBJECT
  5
B57C
102
{ACAD_REACTORS
330
B573
102
}
330
B573
100
AcDbProxyObject
 90
      499
 91
      625
 95
       27
 70
     0
 93
      162
310
90000000000000F9008218801D001980180025004C
 94
        0
1001
ACAD
1000
AcRTDxfName
1000
SCALE
  0
ACAD_PROXY_OBJECT
  5
B57D
102
{ACAD_REACTORS
330
B573
102
}
330
B573
100
AcDbProxyObject
 90
      499
 91
      625
 95
       27
 70
     0
 93
      162
310
9000000000000111008218801D001A00180025004C
 94
        0
1001
ACAD
1000
AcRTDxfName
1000
SCALE
  0
ACAD_PROXY_OBJECT
  5
B57E
102
{ACAD_REACTORS
330
B573
102
}
330
B573
100
AcDbProxyObject
 90
      499
 91
      625
 95
       27
 70
     0
 93
      162
310
9000000000000125008218801D001A80180025004C
 94
        0
1001
ACAD
1000
AcRTDxfName
1000
SCALE
  0
ACAD_PROXY_OBJECT
  5
B57F
102
{ACAD_REACTORS
330
B573
102
}
330
B573
100
AcDbProxyObject
 90
      499
 91
      625
 95
       27
 70
     0
 93
      178
310
9000000000000165008298801D001880180018002D004C
 94
        0
1001
ACAD
1000
AcRTDxfName
1000
SCALE
  0
ACAD_PROXY_OBJECT
  5
B580
102
{ACAD_REACTORS
330
B573
102
}
330
B573
100
AcDbProxyObject
 90
      499
 91
      625
 95
       27
 70
     0
 93
      146
310
8000000000000004048199001D0018801D004C
 94
        0
1001
ACAD
1000
AcRTDxfName
1000
SCALE
  0
ACAD_PROXY_OBJECT
  5
B581
102
{ACAD_REACTORS
330
B573
102
}
330
B573
100
AcDbProxyObject
 90
      499
 91
      625
 95
       27
 70
     0
 93
      146
310
800000000000010404819A001D0018801D004C
 94
        0
1001
ACAD
1000
AcRTDxfName
1000
SCALE
  0
ACAD_PROXY_OBJECT
  5
B582
102
{ACAD_REACTORS
330
B573
102
}
330
B573
100
AcDbProxyObject
 90
      499
 91
      625
 95
       27
 70
     0
 93
      146
310
800000000000020404819C001D0018801D004C
 94
        0
1001
ACAD
1000
AcRTDxfName
1000
SCALE
  0
ACAD_PROXY_OBJECT
  5
B583
102
{ACAD_REACTORS
330
B573
102
}
330
B573
100
AcDbProxyObject
 90
      499
 91
      625
 95
       27
 70
     0
 93
      162
310
80000000000002440482188018001D00188025004C
 94
        0
1001
ACAD
1000
AcRTDxfName
1000
SCALE
  0
ACAD_PROXY_OBJECT
  5
B584
102
{ACAD_REACTORS
330
B573
102
}
330
B573
100
AcDbProxyObject
 90
      499
 91
      625
 95
       27
 70
     0
 93
      178
310
800000000000059404829880180018001D0018802D004C
 94
        0
1001
ACAD
1000
AcRTDxfName
1000
SCALE
  0
ACAD_PROXY_OBJECT
  5
B585
102
{ACAD_REACTORS
330
B573
102
}
330
B573
100
AcDbProxyObject
 90
      499
 91
      625
 95
       27
 70
     0
 93
      386
310
8000000000000803F0000000000000A1008718801780188019001C00110010001E8010001880138016801800110075004C
 94
        0
1001
ACAD
1000
AcRTDxfName
1000
SCALE
  0
ACAD_PROXY_OBJECT
  5
B586
102
{ACAD_REACTORS
330
B573
102
}
330
B573
100
AcDbProxyObject
 90
      499
 91
      625
 95
       27
 70
     0
 93
      370
310
8000000000000903F0000000000000A10086988017801B001A00110010001E801000188013801680180011006D004C
 94
        0
1001
ACAD
1000
AcRTDxfName
1000
SCALE
  0
ACAD_PROXY_OBJECT
  5
B587
102
{ACAD_REACTORS
330
B573
102
}
330
B573
100
AcDbProxyObject
 90
      499
 91
      625
 95
       27
 70
     0
 93
      370
310
8000000000000A03F0000000000000A100869880178019801900110010001E801000188013801680180011006D004C
 94
        0
1001
ACAD
1000
AcRTDxfName
1000
SCALE
  0
ACAD_PROXY_OBJECT
  5
B588
102
{ACAD_REACTORS
330
B573
102
}
330
B573
100
AcDbProxyObject
 90
      499
 91
      625
 95
       27
 70
     0
 93
      370
310
8000000000000B03F0000000000000A100869880178018801B00110010001E801000188013801680180011006D004C
 94
        0
1001
ACAD
1000
AcRTDxfName
1000
SCALE
  0
ACAD_PROXY_OBJECT
  5
B589
102
{ACAD_REACTORS
330
B573
102
}
330
B573
100
AcDbProxyObject
 90
      499
 91
      625
 95
       27
 70
     0
 93
      370
310
8000000000000B83F0000000000000A100869980178019801900110010001E801000188013801680180011006D004C
 94
        0
1001
ACAD
1000
AcRTDxfName
1000
SCALE
  0
ACAD_PROXY_OBJECT
  5
B58A
102
{ACAD_REACTORS
330
B573
102
}
330
B573
100
AcDbProxyObject
 90
      499
 91
      625
 95
       27
 70
     0
 93
      354
310
8000000000000C03F0000000000000A10086188017801C00110010001E8010001880138016801800110065004C
 94
        0
1001
ACAD
1000
AcRTDxfName
1000
SCALE
  0
ACAD_PROXY_OBJECT
  5
B58B
102
{ACAD_REACTORS
330
B573
102
}
330
B573
100
AcDbProxyObject
 90
      499
 91
      625
 95
       27
 70
     0
 93
      370
310
8000000000000C83F0000000000000A100869980178018801B00110010001E801000188013801680180011006D004C
 94
        0
1001
ACAD
1000
AcRTDxfName
1000
SCALE
  0
ACAD_PROXY_OBJECT
  5
B58C
102
{ACAD_REACTORS
330
B573
102
}
330
B573
100
AcDbProxyObject
 90
      499
 91
      625
 95
       27
 70
     0
 93
      354
310
8000000000000D03F0000000000000A10086188017801A00110010001E8010001880138016801800110065004C
 94
        0
1001
ACAD
1000
AcRTDxfName
1000
SCALE
  0
ACAD_PROXY_OBJECT
  5
B58D
102
{ACAD_REACTORS
330
B573
102
}
330
B573
100
AcDbProxyObject
 90
      499
 91
      625
 95
       27
 70
     0
 93
      354
310
8000000000000D83F0000000000000A10086198017801C00110010001E8010001880138016801800110065004C
 94
        0
1001
ACAD
1000
AcRTDxfName
1000
SCALE
  0
ACAD_PROXY_OBJECT
  5
B58E
102
{ACAD_REACTORS
330
B573
102
}
330
B573
100
AcDbProxyObject
 90
      499
 91
      625
 95
       27
 70
     0
 93
      354
310
8000000000000E03F0000000000000A10086188017801900110010001E8010001880138016801800110065004C
 94
        0
1001
ACAD
1000
AcRTDxfName
1000
SCALE
  0
ACAD_PROXY_OBJECT
  5
B58F
102
{ACAD_REACTORS
330
B573
102
}
330
B573
100
AcDbProxyObject
 90
      499
 91
      625
 95
       27
 70
     0
 93
      354
310
8000000000000E83F0000000000000A10086198017801A00110010001E8010001880138016801800110065004C
 94
        0
1001
ACAD
1000
AcRTDxfName
1000
SCALE
  0
ACAD_PROXY_OBJECT
  5
B590
102
{ACAD_REACTORS
330
B573
102
}
330
B573
100
AcDbProxyObject
 90
      499
 91
      625
 95
       27
 70
     0
 93
      258
310
90000000000000A100851880110010001E8010001880138016801800110055004C
 94
        0
1001
ACAD
1000
AcRTDxfName
1000
SCALE
  0
ACAD_PROXY_OBJECT
  5
B591
102
{ACAD_REACTORS
330
B573
102
}
330
B573
100
AcDbProxyObject
 90
      499
 91
      625
 95
       27
 70
     0
 93
      386
310
8000000000000F83F0000000000000A1008718801680188017801900110010001E8010001880138016801800110075004C
 94
        0
1001
ACAD
1000
AcRTDxfName
1000
SCALE
  0
ACAD_PROXY_OBJECT
  5
B592
102
{ACAD_REACTORS
330
B573
102
}
330
B573
100
AcDbProxyObject
 90
      499
 91
      625
 95
       27
 70
     0
 93
      322
310
800000000000008400000000000000A100851980110010001E8010001880138016801800110055004C
 94
        0
1001
ACAD
1000
AcRTDxfName
1000
SCALE
  0
ACAD_PROXY_OBJECT
  5
B593
102
{ACAD_REACTORS
330
B573
102
}
330
B573
100
AcDbProxyObject
 90
      499
 91
      625
 95
       27
 70
     0
 93
      322
310
800000000000018400000000000000A100851B00110010001E8010001880138016801800110055004C
 94
        0
1001
ACAD
1000
AcRTDxfName
1000
SCALE
  0
ACAD_PROXY_OBJECT
  5
B594
102
{ACAD_REACTORS
330
B573
102
}
330
B573
100
AcDbProxyObject
 90
      499
 91
      625
 95
       27
 70
     0
 93
      370
310
800000000000028400000000000000A100869880138016801800110010001E801000188013801680180011006D004C
 94
        0
1001
ACAD
1000
AcRTDxfName
1000
SCALE
  0
TABLESTYLE
  5
AABA
102
{ACAD_XDICTIONARY
360
B5B5
102
}
102
{ACAD_REACTORS
330
AAB9
102
}
330
AAB9
100
AcDbTableStyle
  3
Standard
 70
     0
 71
     0
 40
1.5
 41
1.5
280
     0
281
     0
  7
STANDARD
140
4.5
170
     2
 62
     0
 63
     7
283
     0
274
    -2
284
     1
 64
     0
275
    -2
285
     1
 65
     0
276
    -2
286
     1
 66
     0
277
    -2
287
     1
 67
     0
278
    -2
288
     1
 68
     0
279
    -2
289
     1
 69
     0
  7
STANDARD
140
6.0
170
     5
 62
     0
 63
     7
283
     0
274
    -2
284
     1
 64
     0
275
    -2
285
     1
 65
     0
276
    -2
286
     1
 66
     0
277
    -2
287
     1
 67
     0
278
    -2
288
     1
 68
     0
279
    -2
289
     1
 69
     0
  7
STANDARD
140
4.5
170
     5
 62
     0
 63
     7
283
     0
274
    -2
284
     1
 64
     0
275
    -2
285
     1
 65
     0
276
    -2
286
     1
 66
     0
277
    -2
287
     1
 67
     0
278
    -2
288
     1
 68
     0
279
    -2
289
     1
 69
     0
  0
VISUALSTYLE
  5
B0F7
102
{ACAD_REACTORS
330
B0F1
102
}
330
B0F1
100
AcDbVisualStyle
  2
2dWireframe
 70
     4
 71
     0
 72
     2
 73
     0
 90
        0
 40
-0.6
 41
-30.0
 62
     5
 63
     7
 74
     1
 91
        4
 64
     7
 65
   257
 75
     1
175
     1
 42
1.0
 92
        0
 66
   257
 43
1.0
 76
     1
 77
     6
 78
     2
 67
     7
 79
     5
170
     0
171
     0
290
     0
174
     0
 93
        1
 44
0.0
173
     0
291
     0
 45
0.0
1001
ACAD
1000
AcDbSavedByObjectVersion
1070
     0
  0
VISUALSTYLE
  5
B0F9
102
{ACAD_REACTORS
330
B0F1
102
}
330
B0F1
100
AcDbVisualStyle
  2
3D Hidden
 70
     6
 71
     1
 72
     2
 73
     2
 90
        0
 40
-0.6
 41
-30.0
 62
     5
 63
     7
 74
     2
 91
        2
 64
     7
 65
   257
 75
     2
175
     1
 42
40.0
 92
        0
 66
   257
 43
1.0
 76
     1
 77
     6
 78
     2
 67
     7
 79
     3
170
     0
171
     0
290
     0
174
     0
 93
        1
 44
0.0
173
     0
291
     0
 45
0.0
1001
ACAD
1000
AcDbSavedByObjectVersion
1070
     0
  0
VISUALSTYLE
  5
B0F8
102
{ACAD_REACTORS
330
B0F1
102
}
330
B0F1
100
AcDbVisualStyle
  2
3dWireframe
 70
     5
 71
     0
 72
     2
 73
     0
 90
        0
 40
-0.6
 41
-30.0
 62
     5
 63
     7
 74
     1
 91
        4
 64
     7
 65
   257
 75
     1
175
     1
 42
1.0
 92
        0
 66
   257
 43
1.0
 76
     1
 77
     6
 78
     2
 67
     7
 79
     5
170
     0
171
     0
290
     0
174
     0
 93
        1
 44
0.0
173
     0
291
     0
 45
0.0
1001
ACAD
1000
AcDbSavedByObjectVersion
1070
     0
  0
VISUALSTYLE
  5
B0F6
102
{ACAD_REACTORS
330
B0F1
102
}
330
B0F1
100
AcDbVisualStyle
  2
Basic
 70
     7
 71
     1
 72
     0
 73
     1
 90
        0
 40
-0.6
 41
-30.0
 62
     5
 63
     7
 74
     0
 91
        4
 64
     7
 65
   257
 75
     1
175
     1
 42
1.0
 92
        8
 66
     7
 43
1.0
 76
     1
 77
     6
 78
     2
 67
     7
 79
     5
170
     0
171
     0
290
     0
174
     0
 93
        1
 44
0.0
173
     0
291
     1
 45
0.0
1001
ACAD
1000
AcDbSavedByObjectVersion
1070
     0
  0
VISUALSTYLE
  5
B0FD
102
{ACAD_REACTORS
330
B0F1
102
}
330
B0F1
100
AcDbVisualStyle
  2
Brighten
 70
    12
 71
     2
 72
     2
 73
     0
 90
        0
 40
-0.6
 41
-30.0
 62
     5
 63
     7
 74
     1
 91
        4
 64
     7
 65
   257
 75
     1
175
     1
 42
1.0
 92
        8
 66
     7
 43
1.0
 76
     1
 77
     6
 78
     2
 67
     7
 79
     5
170
     0
171
     0
290
     0
174
     0
 93
        1
 44
50.0
173
     0
291
     1
 45
0.0
1001
ACAD
1000
AcDbSavedByObjectVersion
1070
     0
  0
VISUALSTYLE
  5
B101
102
{ACAD_REACTORS
330
B0F1
102
}
330
B0F1
100
AcDbVisualStyle
  2
ColorChange
 70
    16
 71
     2
 72
     2
 73
     3
 90
        0
 40
-0.6
 41
-30.0
 62
     5
 63
     8
 74
     1
 91
        4
 64
     7
 65
   257
 75
     1
175
     1
 42
1.0
 92
        8
 66
     8
 43
1.0
 76
     1
 77
     6
 78
     2
 67
     7
 79
     5
170
     0
171
     0
290
     0
174
     0
 93
        1
 44
0.0
173
     0
291
     1
 45
0.0
1001
ACAD
1000
AcDbSavedByObjectVersion
1070
     0
  0
VISUALSTYLE
  5
B0FA
102
{ACAD_REACTORS
330
B0F1
102
}
330
B0F1
100
AcDbVisualStyle
  2
Conceptual
 70
     9
 71
     3
 72
     2
 73
     0
 90
        0
 40
-0.6
 41
-30.0
 62
     5
 63
     7
 74
     2
 91
        2
 64
     7
 65
   257
 75
     1
175
     1
 42
40.0
 92
        8
 66
     7
 43
1.0
 76
     1
 77
     6
 78
     2
 67
     7
 79
     3
170
     0
171
     0
290
     0
174
     0
 93
        1
 44
0.0
173
     0
291
     0
 45
0.0
1001
ACAD
1000
AcDbSavedByObjectVersion
1070
     0
  0
VISUALSTYLE
  5
B0FC
102
{ACAD_REACTORS
330
B0F1
102
}
330
B0F1
100
AcDbVisualStyle
  2
Dim
 70
    11
 71
     2
 72
     2
 73
     0
 90
        0
 40
-0.6
 41
-30.0
 62
     5
 63
     7
 74
     1
 91
        4
 64
     7
 65
   257
 75
     1
175
     1
 42
1.0
 92
        8
 66
     7
 43
1.0
 76
     1
 77
     6
 78
     2
 67
     7
 79
     5
170
     0
171
     0
290
     0
174
     0
 93
        1
 44
-50.0
173
     0
291
     1
 45
0.0
1001
ACAD
1000
AcDbSavedByObjectVersion
1070
     0
  0
VISUALSTYLE
  5
B100
102
{ACAD_REACTORS
330
B0F1
102
}
330
B0F1
100
AcDbVisualStyle
  2
Facepattern
 70
    15
 71
     2
 72
     2
 73
     0
 90
        0
 40
-0.6
 41
-30.0
 62
     5
 63
     7
 74
     1
 91
        4
 64
     7
 65
   257
 75
     1
175
     1
 42
1.0
 92
        8
 66
     7
 43
1.0
 76
     1
 77
     6
 78
     2
 67
     7
 79
     5
170
     0
171
     0
290
     0
174
     0
 93
        1
 44
0.0
173
     0
291
     1
 45
0.0
1001
ACAD
1000
AcDbSavedByObjectVersion
1070
     0
  0
VISUALSTYLE
  5
B0F2
102
{ACAD_REACTORS
330
B0F1
102
}
330
B0F1
100
AcDbVisualStyle
  2
Flat
 70
     0
 71
     2
 72
     1
 73
     1
 90
        2
 40
-0.6
 41
30.0
 62
     5
 63
     7
 74
     0
 91
        4
 64
     7
 65
   257
 75
     1
175
     1
 42
1.0
 92
        8
 66
     7
 43
1.0
 76
     1
 77
     6
 78
     2
 67
     7
 79
     5
170
     0
171
     0
290
     0
174
     0
 93
       13
 44
0.0
173
     0
291
     1
 45
0.0
1001
ACAD
1000
AcDbSavedByObjectVersion
1070
     0
  0
VISUALSTYLE
  5
B0F3
102
{ACAD_REACTORS
330
B0F1
102
}
330
B0F1
100
AcDbVisualStyle
  2
FlatWithEdges
 70
     1
 71
     2
 72
     1
 73
     1
 90
        2
 40
-0.6
 41
30.0
 62
     5
 63
     7
 74
     1
 91
        4
 64
     7
 65
   257
 75
     1
175
     1
 42
1.0
 92
        0
 66
   257
 43
1.0
 76
     1
 77
     6
 78
     2
 67
     7
 79
     5
170
     0
171
     0
290
     0
174
     0
 93
       13
 44
0.0
173
     0
291
     1
 45
0.0
1001
ACAD
1000
AcDbSavedByObjectVersion
1070
     0
  0
VISUALSTYLE
  5
B0F4
102
{ACAD_REACTORS
330
B0F1
102
}
330
B0F1
100
AcDbVisualStyle
  2
Gouraud
 70
     2
 71
     2
 72
     2
 73
     1
 90
        2
 40
-0.6
 41
30.0
 62
     5
 63
     7
 74
     0
 91
        4
 64
     7
 65
   257
 75
     1
175
     1
 42
1.0
 92
        0
 66
     7
 43
1.0
 76
     1
 77
     6
 78
     2
 67
     7
 79
     5
170
     0
171
     0
290
     0
174
     0
 93
       13
 44
0.0
173
     0
291
     1
 45
0.0
1001
ACAD
1000
AcDbSavedByObjectVersion
1070
     0
  0
VISUALSTYLE
  5
B0F5
102
{ACAD_REACTORS
330
B0F1
102
}
330
B0F1
100
AcDbVisualStyle
  2
GouraudWithEdges
 70
     3
 71
     2
 72
     2
 73
     1
 90
        2
 40
-0.6
 41
30.0
 62
     5
 63
     7
 74
     1
 91
        4
 64
     7
 65
   257
 75
     1
175
     1
 42
1.0
 92
        0
 66
   257
 43
1.0
 76
     1
 77
     6
 78
     2
 67
     7
 79
     5
170
     0
171
     0
290
     0
174
     0
 93
       13
 44
0.0
173
     0
291
     1
 45
0.0
1001
ACAD
1000
AcDbSavedByObjectVersion
1070
     0
  0
VISUALSTYLE
  5
B0FF
102
{ACAD_REACTORS
330
B0F1
102
}
330
B0F1
100
AcDbVisualStyle
  2
Linepattern
 70
    14
 71
     2
 72
     2
 73
     0
 90
        0
 40
-0.6
 41
-30.0
 62
     5
 63
     7
 74
     1
 91
        4
 64
     7
 65
   257
 75
     7
175
     7
 42
1.0
 92
        8
 66
     7
 43
1.0
 76
     1
 77
     6
 78
     2
 67
     7
 79
     5
170
     0
171
     0
290
     0
174
     0
 93
        1
 44
0.0
173
     0
291
     1
 45
0.0
1001
ACAD
1000
AcDbSavedByObjectVersion
1070
     0
  0
VISUALSTYLE
  5
B0FB
102
{ACAD_REACTORS
330
B0F1
102
}
330
B0F1
100
AcDbVisualStyle
  2
Realistic
 70
     8
 71
     2
 72
     2
 73
     0
 90
        0
 40
-0.6
 41
-30.0
 62
     5
 63
     7
 74
     1
 91
        0
 64
     7
 65
   257
 75
     1
175
     1
 42
1.0
 92
        8
 66
     8
 43
1.0
 76
     1
 77
     6
 78
     2
 67
     7
 79
     5
170
     0
171
     0
290
     0
174
     0
 93
       13
 44
0.0
173
     0
291
     0
 45
0.0
1001
ACAD
1000
AcDbSavedByObjectVersion
1070
     0
  0
VISUALSTYLE
  5
B0FE
102
{ACAD_REACTORS
330
B0F1
102
}
330
B0F1
100
AcDbVisualStyle
  2
Thicken
 70
    13
 71
     2
 72
     2
 73
     0
 90
        0
 40
-0.6
 41
-30.0
 62
     5
 63
     7
 74
     1
 91
        4
 64
     7
 65
   257
 75
     1
175
     1
 42
1.0
 92
       12
 66
     7
 43
1.0
 76
     1
 77
     6
 78
     2
 67
     7
 79
     5
170
     0
171
     0
290
     0
174
     0
 93
        1
 44
0.0
173
     0
291
     1
 45
0.0
1001
ACAD
1000
AcDbSavedByObjectVersion
1070
     0
  0
DICTIONARYVAR
  5
B5BA
102
{ACAD_REACTORS
330
34
102
}
330
34
100
DictionaryVariables
280
     0
  1
1:1
  0
DICTIONARYVAR
  5
B5B8
102
{ACAD_REACTORS
330
34
102
}
330
34
100
DictionaryVariables
280
     0
  1
STANDARD
  0
DICTIONARYVAR
  5
AAF3
102
{ACAD_REACTORS
330
34
102
}
330
34
100
DictionaryVariables
280
     0
  1
STANDARD
  0
DICTIONARYVAR
  5
A10C
102
{ACAD_REACTORS
330
34
102
}
330
34
100
DictionaryVariables
280
     0
  1
1
  0
DICTIONARYVAR
  5
AB07
102
{ACAD_REACTORS
330
34
102
}
330
34
100
DictionaryVariables
280
     0
  1
4
  0
DICTIONARYVAR
  5
35
102
{ACAD_REACTORS
330
34
102
}
330
34
100
DictionaryVariables
280
     0
  1
0
  0
DICTIONARYVAR
  5
B5BB
102
{ACAD_REACTORS
330
34
102
}
330
34
100
DictionaryVariables
280
     0
  1
0
  0
DICTIONARYVAR
  5
B5B9
102
{ACAD_REACTORS
330
34
102
}
330
34
100
DictionaryVariables
280
     0
  1
0
  0
DICTIONARYVAR
  5
194C
102
{ACAD_REACTORS
330
34
102
}
330
34
100
DictionaryVariables
280
     0
  1
96
  0
DICTIONARY
  5
7E8
102
{ACAD_REACTORS
330
47
102
}
330
47
100
AcDbDictionary
281
     1
  0
DICTIONARY
  5
4C
102
{ACAD_REACTORS
330
47
102
}
330
47
100
AcDbDictionary
281
     1
  0
XRECORD
  5
A929
102
{ACAD_REACTORS
330
47
102
}
330
47
100
AcDbXrecord
280
     1
 90
-1023410169
  0
XRECORD
  5
B571
102
{ACAD_REACTORS
330
B570
102
}
330
B570
100
AcDbXrecord
280
     1
  0
XRECORD
  5
3FB7
102
{ACAD_REACTORS
330
3F96
102
}
330
3F96
100
AcDbXrecord
280
     1
 91
        3
330
0
 90
        8
 62
     7
370
    40
331
16
  1
Color_7
330
0
 90
        0
 62
    14
370
    -3
331
16
  1
Color_14
330
0
 90
        8
 62
     7
370
    20
331
16
  1
Color_7
330
6D1
 90
        0
 62
     7
370
    -3
331
16
  1
Color_7
330
0
 90
        8
 62
     7
370
    50
331
16
  1
Color_7
330
0
 90
        8
 62
     2
370
    35
331
16
  1
Color_2
330
0
 90
        8
 62
     7
370
    -3
331
16
  1
Color_7
330
10
 90
        8
 62
     7
370
    -3
331
16
  1
Color_7
  0
DICTIONARY
  5
F412
330
22
100
AcDbDictionary
280
     1
281
     1
  3
ACAD_XREC_ROUNDTRIP
360
F413
  0
DICTIONARY
  5
F410
330
1E
100
AcDbDictionary
280
     1
281
     1
  3
ACAD_XREC_ROUNDTRIP
360
F411
  0
DICTIONARY
  5
F414
330
26
100
AcDbDictionary
280
     1
281
     1
  3
ACAD_XREC_ROUNDTRIP
360
F415
  0
DICTIONARY
  5
F419
330
B0EF
100
AcDbDictionary
280
     1
281
     1
  3
ACAD_XREC_ROUNDTRIP
360
F41A
  0
DICTIONARY
  5
F417
330
B0EE
100
AcDbDictionary
280
     1
281
     1
  3
ACAD_XREC_ROUNDTRIP
360
F418
  0
DICTIONARY
  5
F41B
330
B0F0
100
AcDbDictionary
280
     1
281
     1
  3
ACAD_XREC_ROUNDTRIP
360
F41C
  0
DICTIONARY
  5
B5B5
330
AABA
100
AcDbDictionary
280
     1
281
     1
  3
ACAD_ROUNDTRIP_2008_TABLESTYLE_CELLSTYLEMAP
360
EEDC
  3
ACAD_XREC_ROUNDTRIP
360
F416
  0
XRECORD
  5
F413
102
{ACAD_REACTORS
330
F412
102
}
330
F412
100
AcDbXrecord
280
     1
102
SHADEPLOT
 70
     1
102
SHADEPLOTRESLEVEL
 70
     2
102
SHADEPLOTCUSTOMDPI
 70
   300
  0
XRECORD
  5
F411
102
{ACAD_REACTORS
330
F410
102
}
330
F410
100
AcDbXrecord
280
     1
102
SHADEPLOT
 70
     0
102
SHADEPLOTRESLEVEL
 70
     2
102
SHADEPLOTCUSTOMDPI
 70
   300
  0
XRECORD
  5
F415
102
{ACAD_REACTORS
330
F414
102
}
330
F414
100
AcDbXrecord
280
     1
102
SHADEPLOT
 70
     0
102
SHADEPLOTRESLEVEL
 70
     2
102
SHADEPLOTCUSTOMDPI
 70
   300
  0
XRECORD
  5
F41A
102
{ACAD_REACTORS
330
F419
102
}
330
F419
100
AcDbXrecord
280
     1
102
MATERIAL
148
0.0
149
0.0
149
0.0
 93
        0
 94
       63
282
     0
 72
     1
 77
     1
171
     1
175
     1
179
     1
273
     0
  0
XRECORD
  5
F418
102
{ACAD_REACTORS
330
F417
102
}
330
F417
100
AcDbXrecord
280
     1
102
MATERIAL
148
0.0
149
0.0
149
0.0
 93
        0
 94
       63
282
     0
 72
     1
 77
     1
171
     1
175
     1
179
     1
273
     0
  0
XRECORD
  5
F41C
102
{ACAD_REACTORS
330
F41B
102
}
330
F41B
100
AcDbXrecord
280
     1
102
MATERIAL
148
0.0
149
0.0
149
0.0
 93
        0
 94
       63
282
     0
 72
     1
 77
     1
171
     1
175
     1
179
     1
273
     0
  0
ACAD_PROXY_OBJECT
  5
EEDC
102
{ACAD_REACTORS
330
B5B5
102
}
330
B5B5
100
AcDbProxyObject
 90
      499
 91
      628
 95
       27
 70
     0
 93
     5369
310
40D054060020000020000003200101A4129416000000304000000000000001840404000000000000F83F0000000000003E0FC000000000000F83F0000000000003E0FC0AD7A3703D0AC73F02B5E8DC0F42B1CFD0640640600000030400FEFFFFFF80AD7A3703D0AA73F40A40600000030400FEFFFFFF80AD7A3703D0AA73F4
310
1240600000030400FEFFFFFF80AD7A3703D0AA73F42240600000030400FEFFFFFF80AD7A3703D0AA73F44240600000030400FEFFFFFF80AD7A3703D0AA73F48240600000030400FEFFFFFF80AD7A3703D0AA73F4050141501A8000000C800406904A5058000000C10000000000000004901010000000000003E0FC00000000
310
0000F83F0000000000003E0FC000000000000F83F02B5E8DC0F42B1CFC0AD7A3703D0AC73F419019018000000C1003FBFFFFFE02B5E8DC0F42A9CFD029018000000C1003FBFFFFFE02B5E8DC0F42A9CFD049018000000C1003FBFFFFFE02B5E8DC0F42A9CFD089018000000C1003FBFFFFFE02B5E8DC0F42A9CFD109018000
310
000C1003FBFFFFFE02B5E8DC0F42A9CFD209018000000C1003FBFFFFFE02B5E8DC0F42A9CFD0240505406A0000003200101A412940A000000304000000000000001240404000000000000F83F0000000000003E0FC000000000000F83F0000000000003E0FC0AD7A3703D0AC73F02B5E8DC0F42B1CFD064064060000003040
310
0FEFFFFFF80AD7A3703D0AA73F40A40600000030400FEFFFFFF80AD7A3703D0AA73F41240600000030400FEFFFFFF80AD7A3703D0AA73F42240600000030400FEFFFFFF80AD7A3703D0AA73F44240600000030400FEFFFFFF80AD7A3703D0AA73F48240600000030400FEFFFFFF80AD7A3703D0AA73F40D029065F00540049
310
0054004C0045009075F004800450041004400450052009055F0044004100540041004401CC
340
11
340
0
340
0
340
0
340
0
340
0
340
0
340
11
340
0
340
0
340
0
340
0
340
0
340
0
340
11
340
0
340
0
340
0
340
0
340
0
340
0
 94
        0
1001
ACAD
1000
AcRTDxfName
1000
CELLSTYLEMAP
  0
XRECORD
  5
F416
102
{ACAD_REACTORS
330
B5B5
102
}
330
B5B5
100
AcDbXrecord
280
     1
102
ACAD_ROUNDTRIP_PRE2007_TABLESTYLE
 90
        4
 91
        0
  1

 92
        4
 93
        0
  2

 94
        4
 95
        0
  3

  0
ENDSEC
  0
EOF
