  0
SECTION
  2
HEADER
  9
$ACADVER
  1
AC1015
  9
$ACADMAINTVER
 70
    20
  9
$DWGCODEPAGE
  3
ANSI_932
  9
$INSBASE
 10
0.0
 20
0.0
 30
0.0
  9
$EXTMIN
 10
1914.993027001068
 20
1563.440420649389
 30
-0.0000000349181948
  9
$EXTMAX
 10
2335.032014587817
 20
1860.476676638654
 30
0.0000000814935746
  9
$LIMMIN
 10
1700.85588156276
 20
1647.985052086429
  9
$LIMMAX
 10
1997.85588156276
 20
1857.985052086429
  9
$ORTHOMODE
 70
     0
  9
$REGENMODE
 70
     1
  9
$FILLMODE
 70
     1
  9
$QTEXTMODE
 70
     0
  9
$MIRRTEXT
 70
     0
  9
$LTSCALE
 40
1.0
  9
$ATTMODE
 70
     1
  9
$TEXTSIZE
 40
3.2
  9
$TRACEWID
 40
1.0
  9
$TEXTSTYLE
  7
STANDARD
  9
$CLAYER
  8
AM_0
  9
$CELTYPE
  6
ByLayer
  9
$CECOLOR
 62
   256
  9
$CELTSCALE
 40
1.0
  9
$DISPSILH
 70
     0
  9
$DIMSCALE
 40
1.0
  9
$DIMASZ
 40
1.0
  9
$DIMEXO
 40
1.0
  9
$DIMDLI
 40
10.0
  9
$DIMRND
 40
0.0
  9
$DIMDLE
 40
0.0
  9
$DIMEXE
 40
1.0
  9
$DIMTP
 40
0.1
  9
$DIMTM
 40
0.1
  9
$DIMTXT
 40
3.000000000000001
  9
$DIMCEN
 40
0.0
  9
$DIMTSZ
 40
0.0
  9
$DIMTOL
 70
     0
  9
$DIMLIM
 70
     0
  9
$DIMTIH
 70
     0
  9
$DIMTOH
 70
     0
  9
$DIMSE1
 70
     0
  9
$DIMSE2
 70
     0
  9
$DIMTAD
 70
     1
  9
$DIMZIN
 70
     8
  9
$DIMBLK
  1

  9
$DIMASO
 70
     1
  9
$DIMSHO
 70
     1
  9
$DIMPOST
  1

  9
$DIMAPOST
  1
"
  9
$DIMALT
 70
     0
  9
$DIMALTD
 70
     2
  9
$DIMALTF
 40
0.0393701
  9
$DIMLFAC
 40
1.0
  9
$DIMTOFL
 70
     1
  9
$DIMTVP
 40
0.0
  9
$DIMTIX
 70
     0
  9
$DIMSOXD
 70
     0
  9
$DIMSAH
 70
     0
  9
$DIMBLK1
  1

  9
$DIMBLK2
  1

  9
$DIMSTYLE
  2
SYS
  9
$DIMCLRD
 70
   256
  9
$DIMCLRE
 70
   256
  9
$DIMCLRT
 70
     7
  9
$DIMTFAC
 40
0.71
  9
$DIMGAP
 40
1.299999999999999
  9
$DIMJUST
 70
     0
  9
$DIMSD1
 70
     0
  9
$DIMSD2
 70
     0
  9
$DIMTOLJ
 70
     0
  9
$DIMTZIN
 70
     8
  9
$DIMALTZ
 70
     0
  9
$DIMALTTZ
 70
     0
  9
$DIMUPT
 70
     0
  9
$DIMDEC
 70
     2
  9
$DIMTDEC
 70
     2
  9
$DIMALTU
 70
     2
  9
$DIMALTTD
 70
     2
  9
$DIMTXSTY
  7
STANDARD
  9
$DIMAUNIT
 70
     0
  9
$DIMADEC
 70
     0
  9
$DIMALTRND
 40
0.0
  9
$DIMAZIN
 70
     2
  9
$DIMDSEP
 70
    46
  9
$DIMATFIT
 70
     3
  9
$DIMFRAC
 70
     0
  9
$DIMLDRBLK
  1

  9
$DIMLUNIT
 70
     2
  9
$DIMLWD
 70
    -1
  9
$DIMLWE
 70
    -1
  9
$DIMTMOVE
 70
     0
  9
$LUNITS
 70
     2
  9
$LUPREC
 70
     2
  9
$SKETCHINC
 40
1.0
  9
$FILLETRAD
 40
0.0
  9
$AUNITS
 70
     0
  9
$AUPREC
 70
     0
  9
$MENU
  1
.
  9
$ELEVATION
 40
0.0
  9
$PELEVATION
 40
0.0
  9
$THICKNESS
 40
0.0
  9
$LIMCHECK
 70
     0
  9
$CHAMFERA
 40
0.0
  9
$CHAMFERB
 40
0.0
  9
$CHAMFERC
 40
20.0
  9
$CHAMFERD
 40
0.0
  9
$SKPOLY
 70
     0
  9
$TDCREATE
 40
2456140.697767280
  9
$TDUCREATE
 40
2456140.322767280
  9
$TDUPDATE
 40
2456268.701695151
  9
$TDUUPDATE
 40
2456268.326695151
  9
$TDINDWG
 40
0.0115066088
  9
$TDUSRTIMER
 40
0.0115066088
  9
$USRTIMER
 70
     1
  9
$ANGBASE
 50
0.0
  9
$ANGDIR
 70
     0
  9
$PDMODE
 70
     0
  9
$PDSIZE
 40
-3.0
  9
$PLINEWID
 40
0.0
  9
$SPLFRAME
 70
     0
  9
$SPLINETYPE
 70
     6
  9
$SPLINESEGS
 70
     8
  9
$HANDSEED
  5
BFBB
  9
$SURFTAB1
 70
     6
  9
$SURFTAB2
 70
     6
  9
$SURFTYPE
 70
     6
  9
$SURFU
 70
     6
  9
$SURFV
 70
     6
  9
$UCSBASE
  2

  9
$UCSNAME
  2

  9
$UCSORG
 10
0.0
 20
0.0
 30
0.0
  9
$UCSXDIR
 10
1.0
 20
0.0
 30
0.0
  9
$UCSYDIR
 10
0.0
 20
1.0
 30
0.0
  9
$UCSORTHOREF
  2

  9
$UCSORTHOVIEW
 70
     0
  9
$UCSORGTOP
 10
0.0
 20
0.0
 30
0.0
  9
$UCSORGBOTTOM
 10
0.0
 20
0.0
 30
0.0
  9
$UCSORGLEFT
 10
0.0
 20
0.0
 30
0.0
  9
$UCSORGRIGHT
 10
0.0
 20
0.0
 30
0.0
  9
$UCSORGFRONT
 10
0.0
 20
0.0
 30
0.0
  9
$UCSORGBACK
 10
0.0
 20
0.0
 30
0.0
  9
$PUCSBASE
  2

  9
$PUCSNAME
  2

  9
$PUCSORG
 10
0.0
 20
0.0
 30
0.0
  9
$PUCSXDIR
 10
1.0
 20
0.0
 30
0.0
  9
$PUCSYDIR
 10
0.0
 20
1.0
 30
0.0
  9
$PUCSORTHOREF
  2

  9
$PUCSORTHOVIEW
 70
     0
  9
$PUCSORGTOP
 10
0.0
 20
0.0
 30
0.0
  9
$PUCSORGBOTTOM
 10
0.0
 20
0.0
 30
0.0
  9
$PUCSORGLEFT
 10
0.0
 20
0.0
 30
0.0
  9
$PUCSORGRIGHT
 10
0.0
 20
0.0
 30
0.0
  9
$PUCSORGFRONT
 10
0.0
 20
0.0
 30
0.0
  9
$PUCSORGBACK
 10
0.0
 20
0.0
 30
0.0
  9
$USERI1
 70
     0
  9
$USERI2
 70
     0
  9
$USERI3
 70
     0
  9
$USERI4
 70
     0
  9
$USERI5
 70
     0
  9
$USERR1
 40
0.0
  9
$USERR2
 40
0.0
  9
$USERR3
 40
0.0
  9
$USERR4
 40
0.0
  9
$USERR5
 40
0.0
  9
$WORLDVIEW
 70
     1
  9
$SHADEDGE
 70
     3
  9
$SHADEDIF
 70
    70
  9
$TILEMODE
 70
     1
  9
$MAXACTVP
 70
    64
  9
$PINSBASE
 10
0.0
 20
0.0
 30
0.0
  9
$PLIMCHECK
 70
     0
  9
$PEXTMIN
 10
1.000000000000000E+20
 20
1.000000000000000E+20
 30
1.000000000000000E+20
  9
$PEXTMAX
 10
-1.000000000000000E+20
 20
-1.000000000000000E+20
 30
-1.000000000000000E+20
  9
$PLIMMIN
 10
-3.17498779296875
 20
-3.174999952316284
  9
$PLIMMAX
 10
293.4970092773438
 20
206.692492723465
  9
$UNITMODE
 70
     0
  9
$VISRETAIN
 70
     1
  9
$PLINEGEN
 70
     0
  9
$PSLTSCALE
 70
     1
  9
$TREEDEPTH
 70
  3020
  9
$CMLSTYLE
  2
Standard
  9
$CMLJUST
 70
     0
  9
$CMLSCALE
 40
20.0
  9
$PROXYGRAPHICS
 70
     1
  9
$MEASUREMENT
 70
     1
  9
$CELWEIGHT
370
    -1
  9
$ENDCAPS
280
     0
  9
$JOINSTYLE
280
     0
  9
$LWDISPLAY
290
     1
  9
$INSUNITS
 70
     4
  9
$HYPERLINKBASE
  1

  9
$STYLESHEET
  1
monochrome.ctb
  9
$XEDIT
290
     1
  9
$CEPSNTYPE
380
     0
  9
$PSTYLEMODE
290
     1
  9
$FINGERPRINTGUID
  2
{2E324C44-2D8B-4FC0-B765-7671FE1EBECC}
  9
$VERSIONGUID
  2
{85B7671B-05AA-486F-B2A1-118356AB74F9}
  9
$EXTNAMES
290
     1
  9
$PSVPSCALE
 40
0.0
  9
$OLESTARTUP
290
     0
  0
ENDSEC
  0
SECTION
  2
CLASSES
  0
CLASS
  1
ACDBDICTIONARYWDFLT
  2
AcDbDictionaryWithDefault
  3
ObjectDBX Classes
 90
        0
280
     0
281
     0
  0
CLASS
  1
ACDBPLACEHOLDER
  2
AcDbPlaceHolder
  3
ObjectDBX Classes
 90
        0
280
     0
281
     0
  0
CLASS
  1
LAYOUT
  2
AcDbLayout
  3
ObjectDBX Classes
 90
        0
280
     0
281
     0
  0
CLASS
  1
AMGSETTINGSOBJ
  2
AmgSettingsObj
  3
"AcadM|Product Description: AutoCAD Mechanical|Company: Autodesk"
 90
        0
280
     0
281
     0
  0
CLASS
  1
ACME_DOCUMENT
  2
AcMeDbDoc
  3
AcMeServices
 90
        0
280
     0
281
     0
  0
CLASS
  1
ACMESCOPE
  2
AcMeScope
  3
AcMeServices
 90
        0
280
     0
281
     0
  0
CLASS
  1
ACMECOMMANDHISTORY
  2
AcMeCommandHistory
  3
AcMeServices
 90
        0
280
     0
281
     0
  0
CLASS
  1
DICTIONARYVAR
  2
AcDbDictionaryVar
  3
ObjectDBX Classes
 90
        0
280
     0
281
     0
  0
CLASS
  1
ACIMSYSVARMAN
  2
AcImSysVarManager
  3
AcMeServices
 90
        0
280
     0
281
     0
  0
CLASS
  1
ACIMREALSYSVAR
  2
AcImRealSysVar
  3
AcMeServices
 90
        0
280
     0
281
     0
  0
CLASS
  1
ACIMINTSYSVAR
  2
AcImIntSysVar
  3
AcMeServices
 90
        0
280
     0
281
     0
  0
CLASS
  1
ACMEDRAWINGMAN
  2
AcMeDrawingMan
  3
AcMeServices
 90
        0
280
     0
281
     0
  0
CLASS
  1
ACMEVIEW
  2
AcMeView
  3
AcMeServices
 90
        0
280
     0
281
     0
  0
CLASS
  1
ACDBENTITYCACHE
  2
AcMeEntityCache
  3
AcMeServices
 90
        0
280
     0
281
     0
  0
CLASS
  1
GSMANAGER
  2
AcMeGSManager
  3
AcMeServices
 90
        0
280
     0
281
     0
  0
CLASS
  1
AMDTINTERNALREACTOR
  2
AmdtInternalReactor
  3
AcMeServices
 90
        0
280
     0
281
     0
  0
CLASS
  1
ACMESTATEMGR
  2
AcMeStateMgr
  3
AcMeServices
 90
        0
280
     0
281
     0
  0
CLASS
  1
ACGREFMASTER
  2
AcGrefMaster
  3
AcAttribServices
 90
        0
280
     0
281
     0
  0
CLASS
  1
ACME_DATABASE
  2
AcMeDbDatabase
  3
AcMeServices
 90
        0
280
     0
281
     0
  0
CLASS
  1
ACRFINSADJUSTERMGR
  2
AcRfInsAdjusterMgr
  3
AcMeServices
 90
        0
280
     0
281
     0
  0
CLASS
  1
ACGREFACADMASTER
  2
AcGrefacadMaster
  3
AcGrefServices
 90
        0
280
     0
281
     0
  0
CLASS
  1
AMIMASTER
  2
AmiMaster
  3
AmiServices
 90
        0
280
     0
281
     0
  0
CLASS
  1
ACMDATADICTIONARY
  2
AcmDataDictionary
  3
"AcmSymBB|Product Description: AutoCAD Mechanical|Company: Autodesk"
 90
        0
280
     0
281
     0
  0
CLASS
  1
ACMDATAENTRYBLOCK
  2
AcmDataEntryBlock
  3
"AcmSymBB|Product Description: AutoCAD Mechanical|Company: Autodesk"
 90
        0
280
     0
281
     0
  0
CLASS
  1
ACIMSTRSYSVAR
  2
AcImStrSysVar
  3
AcMeServices
 90
        0
280
     0
281
     0
  0
CLASS
  1
ACMSTANDARDISO
  2
AcmStandardISO
  3
"Amdt_StdImp|Product Description: AutoCAD Mechanical|Company: Autodesk"
 90
        0
280
     0
281
     0
  0
CLASS
  1
AMGOBJPROPCFG
  2
AmgObjPropCfg
  3
"AmgLay|Product Description: AutoCAD Mechanical|Company: Autodesk"
 90
        1
280
     0
281
     0
  0
CLASS
  1
AMDTEDGESTANDARDISO
  2
AmdtEdgeStdISO
  3
"Amdt_StdImp|Product Description: AutoCAD Mechanical|Company: Autodesk"
 90
        0
280
     0
281
     0
  0
CLASS
  1
ACMSURFSTANDARDISO
  2
AcmSurfTextStdISO
  3
"Amdt_StdImp|Product Description: AutoCAD Mechanical|Company: Autodesk"
 90
        0
280
     0
281
     0
  0
CLASS
  1
ACMFCFSTANDARDISO
  2
AcmFCFStdISO
  3
"Amdt_StdImp|Product Description: AutoCAD Mechanical|Company: Autodesk"
 90
        0
280
     0
281
     0
  0
CLASS
  1
ACMWELDSTANDARDISO
  2
AcmWeldingStdISO
  3
"Amdt_StdImp|Product Description: AutoCAD Mechanical|Company: Autodesk"
 90
        0
280
     0
281
     0
  0
CLASS
  1
ACMIDSTANDARDISO
  2
AcmIdStdISO
  3
"Amdt_StdImp|Product Description: AutoCAD Mechanical|Company: Autodesk"
 90
        0
280
     0
281
     0
  0
CLASS
  1
ACMDATUMSTANDARDISO
  2
AcmDatumStdISO
  3
"Amdt_StdImp|Product Description: AutoCAD Mechanical|Company: Autodesk"
 90
        0
280
     0
281
     0
  0
CLASS
  1
ACMBOMSTANDARDISO
  2
AcmBOMStdISO
  3
"Amdt_StdImp|Product Description: AutoCAD Mechanical|Company: Autodesk"
 90
        0
280
     0
281
     0
  0
CLASS
  1
ACMDETAILSTANDARDISO
  2
AmdtDetailSymStdISO
  3
"Amdt_StdImp|Product Description: AutoCAD Mechanical|Company: Autodesk"
 90
        0
280
     0
281
     0
  0
CLASS
  1
ACMSECTIONSTANDARDISO
  2
AmdtSectionSymStdISO
  3
"Amdt_StdImp|Product Description: AutoCAD Mechanical|Company: Autodesk"
 90
        0
280
     0
281
     0
  0
CLASS
  1
ACMCENTERLINESTANDARDISO
  2
AmdtCenterLineStdISO
  3
"Amdt_StdImp|Product Description: AutoCAD Mechanical|Company: Autodesk"
 90
        0
280
     0
281
     0
  0
CLASS
  1
ACAMGLAYSTD
  2
AcAmgLayStd
  3
"AmgLay|Product Description: AutoCAD Mechanical|Company: Autodesk"
 90
        0
280
     0
281
     0
  0
CLASS
  1
ACAMGDIMSTD
  2
AcAmgDimStd
  3
"AmgDim|Product Description: AutoCAD Mechanical|Company: Autodesk"
 90
        0
280
     0
281
     0
  0
CLASS
  1
ACAMGTITLESTD
  2
AcAmgTitleStd
  3
"AmgTitle|Product Description: AutoCAD Mechanical|Company: Autodesk"
 90
        0
280
     0
281
     0
  0
CLASS
  1
ACAMGFILTERDAT
  2
AcAmgFilterDat
  3
"AcadM|Product Description: AutoCAD Mechanical|Company: Autodesk"
 90
        0
280
     0
281
     0
  0
CLASS
  1
LAYER_INDEX
  2
AcDbLayerIndex
  3
ObjectDBX Classes
 90
    32768
280
     0
281
     0
  0
CLASS
  1
IDBUFFER
  2
AcDbIdBuffer
  3
ObjectDBX Classes
 90
    32768
280
     0
281
     0
  0
CLASS
  1
PLOTSETTINGS
  2
AcDbPlotSettings
  3
ObjectDBX Classes
 90
    32768
280
     0
281
     0
  0
CLASS
  1
AMDTFORMULAUPDATEDISPATCHER
  2
AmdtFormulaUpdateDispatcher
  3
AcMeServices
 90
        0
280
     0
281
     0
  0
CLASS
  1
ACMSTANDARDANSI
  2
AcmStandardANSI
  3
"Amdt_StdImp|Product Description: AutoCAD Mechanical|Company: Autodesk"
 90
    32768
280
     0
281
     0
  0
CLASS
  1
ACMSURFSTANDARDANSI
  2
AcmSurfTextStdANSI
  3
"Amdt_StdImp|Product Description: AutoCAD Mechanical|Company: Autodesk"
 90
    32768
280
     0
281
     0
  0
CLASS
  1
ACMFCFSTANDARDANSI
  2
AcmFCFStdANSI
  3
"Amdt_StdImp|Product Description: AutoCAD Mechanical|Company: Autodesk"
 90
    32768
280
     0
281
     0
  0
CLASS
  1
ACMWELDSTANDARDANSI
  2
AcmWeldingStdANSI
  3
"Amdt_StdImp|Product Description: AutoCAD Mechanical|Company: Autodesk"
 90
    32768
280
     0
281
     0
  0
CLASS
  1
ACMIDSTANDARDANSI
  2
AcmIdStdANSI
  3
"Amdt_StdImp|Product Description: AutoCAD Mechanical|Company: Autodesk"
 90
    32768
280
     0
281
     0
  0
CLASS
  1
ACMDATUMSTANDARDANSI
  2
AcmDatumStdANSI
  3
"Amdt_StdImp|Product Description: AutoCAD Mechanical|Company: Autodesk"
 90
    32768
280
     0
281
     0
  0
CLASS
  1
ACMBOMSTANDARDANSI
  2
AcmBOMStdANSI
  3
"Amdt_StdImp|Product Description: AutoCAD Mechanical|Company: Autodesk"
 90
    32768
280
     0
281
     0
  0
CLASS
  1
ACMDETAILSTANDARDANSI
  2
AmdtDetailSymStdANSI
  3
"Amdt_StdImp|Product Description: AutoCAD Mechanical|Company: Autodesk"
 90
    32768
280
     0
281
     0
  0
CLASS
  1
ACMSECTIONSTANDARDANSI
  2
AmdtSectionSymStdANSI
  3
"Amdt_StdImp|Product Description: AutoCAD Mechanical|Company: Autodesk"
 90
    32768
280
     0
281
     0
  0
CLASS
  1
ACMCENTERLINESTANDARDANSI
  2
AmdtCenterLineStdANSI
  3
"Amdt_StdImp|Product Description: AutoCAD Mechanical|Company: Autodesk"
 90
    32768
280
     0
281
     0
  0
CLASS
  1
ACMBOM
  2
AcmBom
  3
"AcmSymBB|Product Description: AutoCAD Mechanical|Company: Autodesk"
 90
        0
280
     0
281
     0
  0
CLASS
  1
ACMDATAENTRYPART
  2
AcmDataEntryPart
  3
"AcmSymBB|Product Description: AutoCAD Mechanical|Company: Autodesk"
 90
    32768
280
     0
281
     0
  0
CLASS
  1
ACMPARTREF
  2
AcmPartRef
  3
"AcmSymBB|Product Description: AutoCAD Mechanical|Company: Autodesk"
 90
    35839
280
     0
281
     1
  0
CLASS
  1
ACDBCIRCARCRES
  2
AcDbCircArcRes
  3
AcGrefServices
 90
    32768
280
     0
281
     0
  0
CLASS
  1
ACMBOMROW
  2
AcmBomRow
  3
"AcmSymBB|Product Description: AutoCAD Mechanical|Company: Autodesk"
 90
    32768
280
     0
281
     0
  0
CLASS
  1
ACMBALLOON
  2
AcmBalloon
  3
"AcmSymBB|Product Description: AutoCAD Mechanical|Company: Autodesk"
 90
    35839
280
     0
281
     1
  0
CLASS
  1
AMDTNOTE
  2
AmdtNote
  3
"AcmSymBB|Product Description: AutoCAD Mechanical|Company: Autodesk"
 90
    35839
280
     0
281
     1
  0
CLASS
  1
STDPART2D
  2
AmgStdPart
  3
"g3vace|Class: AmgStdPart|Product Description: AutoCAD Mechanical|Company: Autodesk"
 90
    35839
280
     0
281
     1
  0
CLASS
  1
ACDBSTDPARTRES_LINE
  2
AcDbStdPartRes_Line
  3
"g3vace|Class: AcDbStdPartRes_Line|Product Description: AutoCAD Mechanical|Company: Autodesk"
 90
    32768
280
     0
281
     0
  0
CLASS
  1
ACMDATAENTRY
  2
AcmDataEntry
  3
"AcmSymBB|Product Description: AutoCAD Mechanical|Company: Autodesk"
 90
        0
280
     0
281
     0
  0
CLASS
  1
ACDBOPPOLYLINERES
  2
AcDbOpPolylineRes
  3
AcGrefServices
 90
    32768
280
     0
281
     0
  0
CLASS
  1
ACMPARTLIST
  2
AcmPartList
  3
"AcmSymBB|Product Description: AutoCAD Mechanical|Company: Autodesk"
 90
    35839
280
     0
281
     1
  0
CLASS
  1
ACDBLINERES
  2
AcDbLineRes
  3
AcGrefServices
 90
    32768
280
     0
281
     0
  0
CLASS
  1
ACRFINSADJ
  2
AcRfInsAdjuster
  3
AcMeServices
 90
    32768
280
     0
281
     0
  0
CLASS
  1
AM_DRAWING_MGR
  2
AcDmDwgMgr
  3
AcMechDwgViewMgmt
 90
        0
280
     0
281
     0
  0
CLASS
  1
AM_DWG_DOCUMENT
  2
AcDmDwgDocument
  3
AcMechDwgViewMgmt
 90
        0
280
     0
281
     0
  0
CLASS
  1
AM_DWG_SHEET
  2
AcDmSheet
  3
AcMechDwgViewMgmt
 90
        0
280
     0
281
     0
  0
CLASS
  1
AM_VIEWDIMPARMAP
  2
AcDmViewDimParMap
  3
AcMechDwgViewMgmt
 90
        0
280
     0
281
     0
  0
CLASS
  1
AM_DWGMGR_NAME
  2
AcDmDwgMgrName
  3
AcMechDwgViewMgmt
 90
        0
280
     0
281
     0
  0
CLASS
  1
AMDTMENUSTATEMGR
  2
AmdtMenuStateMgr
  3
McadcomServices
 90
        0
280
     0
281
     0
  0
CLASS
  1
AMDTMCOMMENUSTATE
  2
AmdtMcomMenuState
  3
McadcomServices
 90
        0
280
     0
281
     0
  0
CLASS
  1
ASAPP
  2
AcAsAppObject
  3
AutoSurfServices
 90
        0
280
     0
281
     0
  0
CLASS
  1
IM_STATIC_MAN
  2
AcImStaticVarManager
  3
AcMeServices
 90
        0
280
     0
281
     0
  0
CLASS
  1
ACIMDBLSTATICVAR
  2
AcImDblStaticVar
  3
AcMeServices
 90
        0
280
     0
281
     0
  0
CLASS
  1
ACIMSTRSTATICVAR
  2
AcImStrStaticVar
  3
AcMeServices
 90
        0
280
     0
281
     0
  0
CLASS
  1
ACIMINTSTATICVAR
  2
AcImIntStaticVar
  3
AcMeServices
 90
        0
280
     0
281
     0
  0
CLASS
  1
ACASGREFMASTER
  2
AcAsGrefMaster
  3
AutoSurfResolverServices
 90
        0
280
     0
281
     0
  0
CLASS
  1
ACADGREFMODULE
  2
AcAdGrefModule
  3
AdGrefServices
 90
        0
280
     0
281
     0
  0
CLASS
  1
AMDTMAPISURFMOUDULE
  2
AmdtMApiSurfModule
  3
MApiSurfServices
 90
        0
280
     0
281
     0
  0
CLASS
  1
MAPIAMMOUDLE
  2
MApiAmModule
  3
MApiAmServices
 90
        0
280
     0
281
     0
  0
CLASS
  1
AMDTADMENUSTATE
  2
AmdtAdMenuState
  3
DesignerServices
 90
        0
280
     0
281
     0
  0
CLASS
  1
ADAPPL
  2
AcAdAppl
  3
DesignerServices
 90
        0
280
     0
281
     0
  0
CLASS
  1
DEPMGR
  2
AcAdDepMgr
  3
DesignerServices
 90
        0
280
     0
281
     0
  0
CLASS
  1
PARAMMGR
  2
AcAdParamMgr
  3
DesignerServices
 90
        0
280
     0
281
     0
  0
CLASS
  1
PARAMSCOPE
  2
AcAdParamScope
  3
DesignerServices
 90
        0
280
     0
281
     0
  0
CLASS
  1
NAMEDAPPL
  2
AcAdNamedAppl
  3
DesignerServices
 90
        0
280
     0
281
     0
  0
CLASS
  1
ADHNTMPLT
  2
AdHoleNoteTemplateMgr
  3
DesignerServices
 90
    32768
280
     0
281
     0
  0
CLASS
  1
AM_HNTEMPLATE_MGR_NAME
  2
AdHoleNoteTemplateMgrName
  3
DesignerServices
 90
    32768
280
     0
281
     0
  0
CLASS
  1
AMDTDMMENUSTATE
  2
AmdtDmMenuState
  3
AcMechDwgViewMgmt
 90
        0
280
     0
281
     0
  0
CLASS
  1
MAPIADMODULE
  2
MApiAdModule
  3
MApiAdServices
 90
        0
280
     0
281
     0
  0
CLASS
  1
AMDTAMMENUSTATE
  2
AmdtAmMenuState
  3
DesignerAssemblies
 90
        0
280
     0
281
     0
  0
CLASS
  1
ACAMPROJECT
  2
AcAmProject
  3
DesignerAssemblies
 90
        0
280
     0
281
     0
  0
CLASS
  1
ACAMGRCOMPDEF
  2
AcAmGrCompDef
  3
DesignerAssemblies
 90
        0
280
     0
281
     0
  0
CLASS
  1
ACCMCONTEXT
  2
AcCmContext
  3
DesignerAssemblies
 90
        0
280
     0
281
     0
  0
CLASS
  1
ACAMCOMPDEF
  2
AcAmCompDef
  3
DesignerAssemblies
 90
        0
280
     0
281
     0
  0
CLASS
  1
ACAMCOMPDEFMGR
  2
AcAmCompDefMgr
  3
DesignerAssemblies
 90
        0
280
     0
281
     0
  0
CLASS
  1
AMCONTEXTMGR
  2
AcAmContextMgr
  3
DesignerAssemblies
 90
        0
280
     0
281
     0
  0
CLASS
  1
ACAMCONTEXTMODELER
  2
AcAmContextModeler
  3
DesignerAssemblies
 90
        0
280
     0
281
     0
  0
CLASS
  1
CATALOGSTATE
  2
AcAmCatalogState
  3
DesignerAssemblies
 90
        0
280
     0
281
     0
  0
CLASS
  1
ACAMGRCOMPDEFSET
  2
AcAmGrCompDefSet
  3
DesignerAssemblies
 90
        0
280
     0
281
     0
  0
CLASS
  1
AMDTBROWSERDBTAB
  2
AmdtBrowserDbTab
  3
McadcomServices
 90
        0
280
     0
281
     0
  0
CLASS
  1
CBROWSERAPPOBJECT
  2
CBrowserAppObject
  3
McadcomServices
 90
        0
280
     0
281
     0
  0
CLASS
  1
DM_PLACEHOLDER
  2
AcDmSelsetPlaceholder
  3
AcMechDwgViewMgmt
 90
        0
280
     0
281
     0
  0
CLASS
  1
ACMPICKOBJ
  2
AcmPickEnt
  3
"AcmSymBB|Product Description: AutoCAD Mechanical|Company: Autodesk"
 90
    32768
280
     0
281
     1
  0
CLASS
  1
ACMNOTESTANDARDISO
  2
AmdtNoteStdISO
  3
"Amdt_StdImp|Product Description: AutoCAD Mechanical|Company: Autodesk"
 90
        0
280
     0
281
     0
  0
CLASS
  1
ACMNOTESTANDARDANSI
  2
AmdtNoteStdANSI
  3
"Amdt_StdImp|Product Description: AutoCAD Mechanical|Company: Autodesk"
 90
    32768
280
     0
281
     0
  0
CLASS
  1
ACMTHREADLINESTANDARDISO
  2
AmdtThreadLineStdISO
  3
"Amdt_StdImp|Product Description: AutoCAD Mechanical|Company: Autodesk"
 90
        0
280
     0
281
     0
  0
CLASS
  1
ACMTHREADLINESTANDARDANSI
  2
AmdtThreadLineStdANSI
  3
"Amdt_StdImp|Product Description: AutoCAD Mechanical|Company: Autodesk"
 90
    32768
280
     0
281
     0
  0
CLASS
  1
TABLESTYLE
  2
AcDbTableStyle
  3
ObjectDBX Classes
 90
     4095
280
     0
281
     0
  0
CLASS
  1
SORTENTSTABLE
  2
AcDbSortentsTable
  3
ObjectDBX Classes
 90
        0
280
     0
281
     0
  0
CLASS
  1
MATERIAL
  2
AcDbMaterial
  3
ObjectDBX Classes
 90
     1024
280
     0
281
     0
  0
CLASS
  1
VISUALSTYLE
  2
AcDbVisualStyle
  3
ObjectDBX Classes
 90
     4095
280
     0
281
     0
  0
CLASS
  1
ACRFATTGENMGR
  2
AcRfAttGeneralMgr
  3
AcAttribServices
 90
        0
280
     0
281
     0
  0
CLASS
  1
ACRFOBJATTMGR
  2
AcRfObjAttGroupMgr
  3
AcAttribServices
 90
        0
280
     0
281
     0
  0
CLASS
  1
ACRFMCADAPIATTHOLDER
  2
AcRfMCADAPIAttHolder
  3
AcAttribServices
 90
        0
280
     0
281
     0
  0
CLASS
  1
AMDTSYSATTR
  2
AmdtSystemAttribute
  3
AcAttribServices
 90
        0
280
     0
281
     0
  0
CLASS
  1
ACMTAPERSTANDARDISO
  2
AcmTaperStdISO
  3
"Amdt_StdImp|Product Description: AutoCAD Mechanical|Company: Autodesk"
 90
        0
280
     0
281
     0
  0
CLASS
  1
CAMSSTRUCTBTNSTATE
  2
StructBtnState
  3
L"DesignerAssemblies"
 90
        0
280
     0
281
     0
  0
CLASS
  1
DIMASSOC
  2
AcDbDimAssoc
  3
"AcDbDimAssoc|Product Desc:     AcDim ARX App For Dimension|Company:          Autodesk, Inc.|WEB Address:      www.autodesk.com"
 90
    32768
280
     0
281
     0
  0
ENDSEC
  0
SECTION
  2
TABLES
  0
TABLE
  2
VPORT
  5
8
330
0
100
AcDbSymbolTable
 70
     1
  0
VPORT
  5
B0EC
330
8
100
AcDbSymbolTableRecord
100
AcDbViewportTableRecord
  2
*Active
 70
     0
 10
0.0
 20
0.0
 11
1.0
 21
1.0
 12
2125.012520794443
 22
1711.958548644022
 13
0.0
 23
0.0
 14
2.5
 24
2.5
 15
10.0
 25
10.0
 16
0.0
 26
0.0
 36
1.0
 17
0.0
 27
0.0
 37
0.0
 40
299.223025972009
 41
1.648648648648648
 42
50.0
 43
-1370.695619172058
 44
-1370.695619172058
 50
0.0
 51
0.0
 71
    16
 72
   100
 73
     1
 74
     3
 75
     0
 76
     0
 77
     0
 78
     0
281
     0
 65
     0
110
0.0
120
0.0
130
0.0
111
1.0
121
0.0
131
0.0
112
0.0
122
1.0
132
0.0
 79
     0
146
0.0
  0
ENDTAB
  0
TABLE
  2
LTYPE
  5
5
330
0
100
AcDbSymbolTable
 70
    27
  0
LTYPE
  5
14
330
5
100
AcDbSymbolTableRecord
100
AcDbLinetypeTableRecord
  2
ByBlock
 70
     0
  3

 72
    65
 73
     0
 40
0.0
  0
LTYPE
  5
15
330
5
100
AcDbSymbolTableRecord
100
AcDbLinetypeTableRecord
  2
ByLayer
 70
     0
  3

 72
    65
 73
     0
 40
0.0
  0
LTYPE
  5
16
330
5
100
AcDbSymbolTableRecord
100
AcDbLinetypeTableRecord
  2
Continuous
 70
     0
  3
Solid line
 72
    65
 73
     0
 40
0.0
  0
LTYPE
  5
4F
330
5
100
AcDbSymbolTableRecord
100
AcDbLinetypeTableRecord
  2
AM_ISO02W050
 70
     0
  3
__ __ __ __ __ __ __ __ __ __ __ __ __ __ __
 72
    65
 73
     2
 40
7.5
 49
6.0
 74
     0
 49
-1.5
 74
     0
  0
LTYPE
  5
52
330
5
100
AcDbSymbolTableRecord
100
AcDbLinetypeTableRecord
  2
Amconstr
 70
     0
  3
_______________________
 72
    65
 73
     2
 40
9999.0
 49
9999.0
 74
     0
 49
0.0
 74
     0
  0
LTYPE
  5
64
330
5
100
AcDbSymbolTableRecord
100
AcDbLinetypeTableRecord
  2
ACISOWELD
 70
     0
  3
_ _ _ _ _
 72
    65
 73
     2
 40
2.0
 49
2.0
 74
     0
 49
-1.0
 74
     0
  0
LTYPE
  5
65
330
5
100
AcDbSymbolTableRecord
100
AcDbLinetypeTableRecord
  2
ACISOTGB
 70
     0
  3
__ . . __ . .
 72
    65
 73
     6
 40
9.0
 49
4.0
 74
     0
 49
-1.0
 74
     0
 49
1.0
 74
     0
 49
-1.0
 74
     0
 49
1.0
 74
     0
 49
-1.0
 74
     0
  0
LTYPE
  5
66
330
5
100
AcDbSymbolTableRecord
100
AcDbLinetypeTableRecord
  2
ACISOTGL
 70
     0
  3
_ _ _ _ _
 72
    65
 73
     2
 40
3.0
 49
2.0
 74
     0
 49
-1.0
 74
     0
  0
LTYPE
  5
69
330
5
100
AcDbSymbolTableRecord
100
AcDbLinetypeTableRecord
  2
CENTER
 70
     0
  3
__ . __
 72
    65
 73
     4
 40
7.0
 49
4.0
 74
     0
 49
-1.0
 74
     0
 49
1.0
 74
     0
 49
-1.0
 74
     0
  0
LTYPE
  5
A6E
330
5
100
AcDbSymbolTableRecord
100
AcDbLinetypeTableRecord
  2
PHANTOM2
 70
     0
  3
Phantom (.5x) ___ _ _ ___ _ _ ___ _ _ ___ _ _
 72
    65
 73
     6
 40
31.75
 49
15.875
 74
     0
 49
-3.174999999999999
 74
     0
 49
3.174999999999999
 74
     0
 49
-3.174999999999999
 74
     0
 49
3.174999999999999
 74
     0
 49
-3.174999999999999
 74
     0
  0
LTYPE
  5
4DED
330
5
100
AcDbSymbolTableRecord
100
AcDbLinetypeTableRecord
  2
中線
 70
     0
  3
___________________
 72
    65
 73
     2
 40
2.0
 49
1.0
 74
     0
 49
1.0
 74
     0
  0
LTYPE
  5
4DF6
330
5
100
AcDbSymbolTableRecord
100
AcDbLinetypeTableRecord
  2
細線
 70
     0
  3
___________________
 72
    65
 73
     2
 40
2.0
 49
1.0
 74
     0
 49
1.0
 74
     0
  0
LTYPE
  5
4DF7
330
5
100
AcDbSymbolTableRecord
100
AcDbLinetypeTableRecord
  2
太線
 70
     0
  3
___________________
 72
    65
 73
     2
 40
2.0
 49
1.0
 74
     0
 49
1.0
 74
     0
  0
LTYPE
  5
4EA7
330
5
100
AcDbSymbolTableRecord
100
AcDbLinetypeTableRecord
  2
文字
 70
     0
  3
_________________
 72
    65
 73
     2
 40
2.0
 49
1.0
 74
     0
 49
1.0
 74
     0
  0
LTYPE
  5
4EA9
330
5
100
AcDbSymbolTableRecord
100
AcDbLinetypeTableRecord
  2
寸法線
 70
     0
  3
________________
 72
    65
 73
     2
 40
2.0
 49
1.0
 74
     0
 49
1.0
 74
     0
  0
LTYPE
  5
4F12
330
5
100
AcDbSymbolTableRecord
100
AcDbLinetypeTableRecord
  2
ハッチング
 70
     0
  3
_________________
 72
    65
 73
     2
 40
2.0
 49
1.0
 74
     0
 49
1.0
 74
     0
  0
LTYPE
  5
5180
330
5
100
AcDbSymbolTableRecord
100
AcDbLinetypeTableRecord
  2
陰線1
 70
     0
  3
__ __ __ __
 72
    65
 73
     2
 40
4.0
 49
2.2
 74
     0
 49
-1.8
 74
     0
  0
LTYPE
  5
5182
330
5
100
AcDbSymbolTableRecord
100
AcDbLinetypeTableRecord
  2
切断線
 70
     0
  3
/\/-/\/-/\/-/\/-/\/-/\/
 72
    65
 73
     2
 40
11.0001
 49
0.0001
 74
     4
 75
   135
340
56
 46
0.04
 50
0.0
 44
0.0
 45
0.0
 49
-11.0
 74
     0
  0
LTYPE
  5
5183
330
5
100
AcDbSymbolTableRecord
100
AcDbLinetypeTableRecord
  2
想像線1
 70
     0
  3
__ __ __ _____ __ __ ____
 72
    65
 73
     6
 40
14.5
 49
6.0
 74
     0
 49
-1.5
 74
     0
 49
2.0
 74
     0
 49
-1.5
 74
     0
 49
2.0
 74
     0
 49
-1.5
 74
     0
  0
LTYPE
  5
5185
330
5
100
AcDbSymbolTableRecord
100
AcDbLinetypeTableRecord
  2
中心線1
 70
     0
  3
___ _ ___ _ ___
 72
    65
 73
     4
 40
18.0
 49
12.0
 74
     0
 49
-2.0
 74
     0
 49
2.0
 74
     0
 49
-2.0
 74
     0
  0
LTYPE
  5
5188
330
5
100
AcDbSymbolTableRecord
100
AcDbLinetypeTableRecord
  2
補助線
 70
     0
  3
______________
 72
    65
 73
     2
 40
2.0
 49
1.0
 74
     0
 49
1.0
 74
     0
  0
LTYPE
  5
6427
330
5
100
AcDbSymbolTableRecord
100
AcDbLinetypeTableRecord
  2
HIDDEN
 70
     0
  3
Hidden __ __ __ __ __ __ __ __ __ __ __ __ __ _
 72
    65
 73
     2
 40
0.375
 49
0.25
 74
     0
 49
-0.125
 74
     0
  0
LTYPE
  5
AC81
330
5
100
AcDbSymbolTableRecord
100
AcDbLinetypeTableRecord
  2
破断線
 70
     0
  3
/\/-/\/-/\/-/\/-/\/-/\/
 72
    65
 73
     2
 40
0.4401
 49
0.0001
 74
     4
 75
   136
340
AC80
 46
0.0016
 50
0.0
 44
0.0
 45
0.0
 49
-0.4400000000000001
 74
     0
  0
LTYPE
  5
AC9E
330
5
100
AcDbSymbolTableRecord
100
AcDbLinetypeTableRecord
  2
Amzigzag
 70
     0
  3
/\/-/\/-/\/-/\/-/\/-/\/
 72
    65
 73
     2
 40
11.0001
 49
0.0001
 74
     4
 75
   135
340
56
 46
0.04
 50
0.0
 44
0.0
 45
0.0
 49
-11.0
 74
     0
  0
LTYPE
  5
AF0F
330
5
100
AcDbSymbolTableRecord
100
AcDbLinetypeTableRecord
  2
genzigzag
 70
     0
  3
/\/-/\/-/\/-/\/-/\/-/\/
 72
    65
 73
     2
 40
12.0001
 49
0.0001
 74
     4
 75
   135
340
AC80
 46
2.0
 50
0.0
 44
0.0
 45
0.0
 49
-12.0
 74
     0
  0
LTYPE
  5
AF95
330
5
100
AcDbSymbolTableRecord
100
AcDbLinetypeTableRecord
  2
AM_ISO08W050
 70
     0
  3
____ . ____ . ____ . ____ . ____ . ____ . ____
 72
    65
 73
     4
 40
18.0
 49
12.0
 74
     0
 49
-1.5
 74
     0
 49
3.0
 74
     0
 49
-1.5
 74
     0
  0
LTYPE
  5
AF96
330
5
100
AcDbSymbolTableRecord
100
AcDbLinetypeTableRecord
  2
AM_ISO09W050
 70
     0
  3
_____ . . _____ . . _____ . . ____ .. ____
 72
    65
 73
     6
 40
22.5
 49
12.0
 74
     0
 49
-1.5
 74
     0
 49
3.0
 74
     0
 49
-1.5
 74
     0
 49
3.0
 74
     0
 49
-1.5
 74
     0
  0
LTYPE
  5
AF97
330
5
100
AcDbSymbolTableRecord
100
AcDbLinetypeTableRecord
  2
AM_ISO08W050x2
 70
     0
  3
__ . __ . __ . __ . __ . __
 72
    65
 73
     4
 40
9.0
 49
6.0
 74
     0
 49
-0.75
 74
     0
 49
1.5
 74
     0
 49
-0.75
 74
     0
  0
LTYPE
  5
AF98
330
5
100
AcDbSymbolTableRecord
100
AcDbLinetypeTableRecord
  2
AM_ISO02W050x2
 70
     0
  3
 _ _ _ _ _ _ _ _ _ _ _ _
 72
    65
 73
     2
 40
3.75
 49
3.0
 74
     0
 49
-0.75
 74
     0
  0
ENDTAB
  0
TABLE
  2
LAYER
  5
2
102
{ACAD_XDICTIONARY
360
3F95
102
}
330
0
100
AcDbSymbolTable
 70
    21
  0
LAYER
  5
10
330
2
100
AcDbSymbolTableRecord
100
AcDbLayerTableRecord
  2
0
 70
     0
 62
     7
  6
Continuous
370
    -3
390
F
  0
LAYER
  5
6D1
330
2
100
AcDbSymbolTableRecord
100
AcDbLayerTableRecord
  2
Defpoints
 70
     0
 62
     7
  6
Continuous
290
     0
370
    -3
390
F
  0
LAYER
  5
5F85
330
2
100
AcDbSymbolTableRecord
100
AcDbLayerTableRecord
  2
AM_0
 70
     0
 62
     7
  6
中線
370
    30
390
F
1001
AcAecLayerStandard
1000

1000

  0
LAYER
  5
AC9F
330
2
100
AcDbSymbolTableRecord
100
AcDbLayerTableRecord
  2
size
 70
     0
 62
     5
  6
Continuous
290
     0
370
    25
390
F
  0
LAYER
  5
ACA0
330
2
100
AcDbSymbolTableRecord
100
AcDbLayerTableRecord
  2
waku
 70
     0
 62
     7
  6
Continuous
370
    35
390
F
  0
LAYER
  5
ACA1
330
2
100
AcDbSymbolTableRecord
100
AcDbLayerTableRecord
  2
AM_6
 70
     0
 62
     2
  6
文字
370
    13
390
F
1001
AcAecLayerStandard
1000

1000

  0
LAYER
  5
ACC8
330
2
100
AcDbSymbolTableRecord
100
AcDbLayerTableRecord
  2
hyomoji
 70
     0
 62
     2
  6
Continuous
370
    13
390
F
  0
LAYER
  5
ACC9
330
2
100
AcDbSymbolTableRecord
100
AcDbLayerTableRecord
  2
hyosen1
 70
     0
 62
     1
  6
Continuous
370
    25
390
F
  0
LAYER
  5
ACCA
330
2
100
AcDbSymbolTableRecord
100
AcDbLayerTableRecord
  2
hyosen2
 70
     0
 62
     1
  6
Continuous
370
    13
390
F
  0
LAYER
  5
AD60
330
2
100
AcDbSymbolTableRecord
100
AcDbLayerTableRecord
  2
AM_1
 70
     0
 62
    30
  6
太線
370
    40
390
F
1001
AcAecLayerStandard
1000

1000

  0
LAYER
  5
AD64
330
2
100
AcDbSymbolTableRecord
100
AcDbLayerTableRecord
  2
AM_2
 70
     0
 62
     1
  6
細線
370
    13
390
F
1001
AcAecLayerStandard
1000

1000

  0
LAYER
  5
AD67
330
2
100
AcDbSymbolTableRecord
100
AcDbLayerTableRecord
  2
AM_3
 70
     0
 62
     6
  6
陰線1
370
    13
390
F
1001
AcAecLayerStandard
1000

1000

  0
LAYER
  5
AD68
330
2
100
AcDbSymbolTableRecord
100
AcDbLayerTableRecord
  2
AM_5
 70
     0
 62
     3
  6
寸法線
370
    13
390
F
1001
AcAecLayerStandard
1000

1000

  0
LAYER
  5
AD69
330
2
100
AcDbSymbolTableRecord
100
AcDbLayerTableRecord
  2
AM_7
 70
     0
 62
     4
  6
中心線1
370
    13
390
F
1001
AcAecLayerStandard
1000

1000

  0
LAYER
  5
AD6A
330
2
100
AcDbSymbolTableRecord
100
AcDbLayerTableRecord
  2
AM_8
 70
     0
 62
     1
  6
ハッチング
370
    13
390
F
1001
AcAecLayerStandard
1000

1000

  0
LAYER
  5
AD6E
330
2
100
AcDbSymbolTableRecord
100
AcDbLayerTableRecord
  2
AM_10
 70
     0
 62
     7
  6
切断線
370
    13
390
F
1001
AcAecLayerStandard
1000

1000

  0
LAYER
  5
AD6F
330
2
100
AcDbSymbolTableRecord
100
AcDbLayerTableRecord
  2
AM_11
 70
     0
 62
     2
  6
想像線1
370
    13
390
F
1001
AcAecLayerStandard
1000

1000

  0
LAYER
  5
B1B6
330
2
100
AcDbSymbolTableRecord
100
AcDbLayerTableRecord
  2
AM_CL
 70
     0
 62
     1
  6
Amconstr
370
     9
390
F
1001
AcAecLayerStandard
1000

1000

  0
LAYER
  5
B2EB
330
2
100
AcDbSymbolTableRecord
100
AcDbLayerTableRecord
  2
AM_14
 70
     0
 62
     5
  6
細線
370
     9
390
F
1001
AcAecLayerStandard
1000

1000

  0
LAYER
  5
B2EC
330
2
100
AcDbSymbolTableRecord
100
AcDbLayerTableRecord
  2
AM_15
 70
     0
 62
     6
  6
陰線1
370
     9
390
F
1001
AcAecLayerStandard
1000

1000

  0
LAYER
  5
BD75
330
2
100
AcDbSymbolTableRecord
100
AcDbLayerTableRecord
  2
AM_4
 70
     0
 62
     3
  6
補助線
370
    15
390
F
1001
AcAecLayerStandard
1000

1000

  0
ENDTAB
  0
TABLE
  2
STYLE
  5
3
330
0
100
AcDbSymbolTable
 70
     6
  0
STYLE
  5
11
330
3
100
AcDbSymbolTableRecord
100
AcDbTextStyleTableRecord
  2
STANDARD
 70
     0
 40
0.0
 41
0.7
 50
0.0
 71
     0
 42
3.2
  3
romans.shx
  4
extfont.shx
  0
STYLE
  5
56
330
3
100
AcDbSymbolTableRecord
100
AcDbTextStyleTableRecord
  2

 70
     1
 40
0.0
 41
1.0
 50
0.0
 71
     0
 42
2.5
  3
ltypeshp.shx
  4

  0
STYLE
  5
58
330
3
100
AcDbSymbolTableRecord
100
AcDbTextStyleTableRecord
  2
ACISOTS
 70
     0
 40
1.0
 41
1.0
 50
0.0
 71
     0
 42
2.5
  3
isocp.shx
  4
extfont.shx
  0
STYLE
  5
63
330
3
100
AcDbSymbolTableRecord
100
AcDbTextStyleTableRecord
  2
ACISOGDT
 70
     0
 40
0.0
 41
1.0
 50
0.0
 71
     0
 42
2.5
  3
amgdt.shx
  4

  0
STYLE
  5
A74
330
3
100
AcDbSymbolTableRecord
100
AcDbTextStyleTableRecord
  2
DIM
 70
     0
 40
0.0
 41
1.0
 50
0.0
 71
     0
 42
2.5
  3
monotxt.shx
  4
extfont.shx
  0
STYLE
  5
AC80
330
3
100
AcDbSymbolTableRecord
100
AcDbTextStyleTableRecord
  2

 70
     1
 40
0.0
 41
1.0
 50
0.0
 71
     0
 42
3.2
  3
genltshp.shx
  4

  0
ENDTAB
  0
TABLE
  2
VIEW
  5
6
330
0
100
AcDbSymbolTable
 70
     6
  0
VIEW
  5
AE1
330
6
100
AcDbSymbolTableRecord
100
AcDbViewTableRecord
  2
AM_VIEW1
 70
     0
 40
129.7276464542651
 10
1775.10588156276
 20
1793.121228859297
 41
148.5
 11
0.0
 21
0.0
 31
1.0
 12
0.0
 22
0.0
 32
0.0
 42
50.0
 43
-1370.695619172058
 44
-1370.695619172058
 50
0.0
 71
    16
281
     0
 72
     0
  0
VIEW
  5
AE2
330
6
100
AcDbSymbolTableRecord
100
AcDbViewTableRecord
  2
AM_VIEW2
 70
     0
 40
129.7276464542651
 10
1923.60588156276
 20
1793.121228859297
 41
148.5
 11
0.0
 21
0.0
 31
1.0
 12
0.0
 22
0.0
 32
0.0
 42
50.0
 43
-1370.695619172058
 44
-1370.695619172058
 50
0.0
 71
    16
281
     0
 72
     0
  0
VIEW
  5
AE3
330
6
100
AcDbSymbolTableRecord
100
AcDbViewTableRecord
  2
AM_VIEW3
 70
     0
 40
129.7276464542651
 10
1775.10588156276
 20
1712.848875313562
 41
148.5
 11
0.0
 21
0.0
 31
1.0
 12
0.0
 22
0.0
 32
0.0
 42
50.0
 43
-1370.695619172058
 44
-1370.695619172058
 50
0.0
 71
    16
281
     0
 72
     0
  0
VIEW
  5
AE4
330
6
100
AcDbSymbolTableRecord
100
AcDbViewTableRecord
  2
AM_VIEW4
 70
     0
 40
129.7276464542651
 10
1923.60588156276
 20
1712.848875313562
 41
148.5
 11
0.0
 21
0.0
 31
1.0
 12
0.0
 22
0.0
 32
0.0
 42
50.0
 43
-1370.695619172058
 44
-1370.695619172058
 50
0.0
 71
    16
281
     0
 72
     0
  0
VIEW
  5
AE5
330
6
100
AcDbSymbolTableRecord
100
AcDbViewTableRecord
  2
AM_VIEW5
 70
     0
 40
129.7276464542651
 10
1849.35588156276
 20
1752.985052086429
 41
148.5
 11
0.0
 21
0.0
 31
1.0
 12
0.0
 22
0.0
 32
0.0
 42
50.0
 43
-1370.695619172058
 44
-1370.695619172058
 50
0.0
 71
    16
281
     0
 72
     0
  0
VIEW
  5
AE6
330
6
100
AcDbSymbolTableRecord
100
AcDbViewTableRecord
  2
AM_VIEW6
 70
     0
 40
259.4526983556011
 10
1849.35588156276
 20
1752.985052086429
 41
296.99703
 11
0.0
 21
0.0
 31
1.0
 12
0.0
 22
0.0
 32
0.0
 42
50.0
 43
-1370.695619172058
 44
-1370.695619172058
 50
0.0
 71
    16
281
     0
 72
     0
  0
ENDTAB
  0
TABLE
  2
UCS
  5
7
330
0
100
AcDbSymbolTable
 70
     0
  0
ENDTAB
  0
TABLE
  2
APPID
  5
9
330
0
100
AcDbSymbolTable
 70
    56
  0
APPID
  5
12
330
9
100
AcDbSymbolTableRecord
100
AcDbRegAppTableRecord
  2
ACAD
 70
     0
  0
APPID
  5
30
330
9
100
AcDbSymbolTableRecord
100
AcDbRegAppTableRecord
  2
MCAD_NO_VIS
 70
     0
  0
APPID
  5
31
330
9
100
AcDbSymbolTableRecord
100
AcDbRegAppTableRecord
  2
ACAD_TEMP_GRAPHIC
 70
     0
  0
APPID
  5
44
330
9
100
AcDbSymbolTableRecord
100
AcDbRegAppTableRecord
  2
ACATTRIBSERVICES
 70
     0
  0
APPID
  5
7A1
330
9
100
AcDbSymbolTableRecord
100
AcDbRegAppTableRecord
  2
GENIUS_GENDIMSH_14
 70
     0
  0
APPID
  5
A49
330
9
100
AcDbSymbolTableRecord
100
AcDbRegAppTableRecord
  2
GENIUS_GENREC_14
 70
     0
  0
APPID
  5
A4A
330
9
100
AcDbSymbolTableRecord
100
AcDbRegAppTableRecord
  2
GENIUS_GENOBJ-N-REC_13
 70
     0
  0
APPID
  5
A4B
330
9
100
AcDbSymbolTableRecord
100
AcDbRegAppTableRecord
  2
GENIUS_GENODEF_13
 70
     0
  0
APPID
  5
A4C
330
9
100
AcDbSymbolTableRecord
100
AcDbRegAppTableRecord
  2
DCO15
 70
     0
  0
APPID
  5
ADC
330
9
100
AcDbSymbolTableRecord
100
AcDbRegAppTableRecord
  2
GENIUS_GENOLIS_13
 70
     0
  0
APPID
  5
ADD
330
9
100
AcDbSymbolTableRecord
100
AcDbRegAppTableRecord
  2
GENIUS_GENOENT_13
 70
     0
  0
APPID
  5
ADE
330
9
100
AcDbSymbolTableRecord
100
AcDbRegAppTableRecord
  2
GENIUS_GENOBJ-N-TIT_13
 70
     0
  0
APPID
  5
ADF
330
9
100
AcDbSymbolTableRecord
100
AcDbRegAppTableRecord
  2
GENIUS_GENTITLE_13
 70
     0
  0
APPID
  5
AE0
330
9
100
AcDbSymbolTableRecord
100
AcDbRegAppTableRecord
  2
GENIUS_GENOREF_13
 70
     0
  0
APPID
  5
AE7
330
9
100
AcDbSymbolTableRecord
100
AcDbRegAppTableRecord
  2
GENIUS_GENSCREG_15
 70
     0
  0
APPID
  5
AE8
330
9
100
AcDbSymbolTableRecord
100
AcDbRegAppTableRecord
  2
GENIUS_GENOBJ-N-SDF_13
 70
     0
  0
APPID
  5
FAF
330
9
100
AcDbSymbolTableRecord
100
AcDbRegAppTableRecord
  2
GENIUS_GENBLLY_14
 70
     0
  0
APPID
  5
FB0
330
9
100
AcDbSymbolTableRecord
100
AcDbRegAppTableRecord
  2
GENIUS_GENTRA_14
 70
     0
  0
APPID
  5
1285
330
9
100
AcDbSymbolTableRecord
100
AcDbRegAppTableRecord
  2
GENIUS_GENDTOL_13
 70
     0
  0
APPID
  5
142D
330
9
100
AcDbSymbolTableRecord
100
AcDbRegAppTableRecord
  2
GENIUS_GENOBJ-N-CEN_13
 70
     0
  0
APPID
  5
1AB5
330
9
100
AcDbSymbolTableRecord
100
AcDbRegAppTableRecord
  2
GENIUS_GENOBJ-N-CRS_13
 70
     0
  0
APPID
  5
1B36
330
9
100
AcDbSymbolTableRecord
100
AcDbRegAppTableRecord
  2
GENIUS_GENOBJ-N-HTC_13
 70
     0
  0
APPID
  5
1B37
330
9
100
AcDbSymbolTableRecord
100
AcDbRegAppTableRecord
  2
GENIUS_GENHATCH_13
 70
     0
  0
APPID
  5
216D
330
9
100
AcDbSymbolTableRecord
100
AcDbRegAppTableRecord
  2
GENIUS_GENOBJ-N-FIL_13
 70
     0
  0
APPID
  5
2356
330
9
100
AcDbSymbolTableRecord
100
AcDbRegAppTableRecord
  2
GEVID990412420
 70
     0
  0
APPID
  5
2357
330
9
100
AcDbSymbolTableRecord
100
AcDbRegAppTableRecord
  2
GEVDC
 70
     0
  0
APPID
  5
2358
330
9
100
AcDbSymbolTableRecord
100
AcDbRegAppTableRecord
  2
GEVCON
 70
     0
  0
APPID
  5
235B
330
9
100
AcDbSymbolTableRecord
100
AcDbRegAppTableRecord
  2
GEVRADREF
 70
     0
  0
APPID
  5
2360
330
9
100
AcDbSymbolTableRecord
100
AcDbRegAppTableRecord
  2
GENIUS_GENBH_13
 70
     0
  0
APPID
  5
2362
330
9
100
AcDbSymbolTableRecord
100
AcDbRegAppTableRecord
  2
GENIUS_GENOBJ-NBEHI-BHF_13
 70
     0
  0
APPID
  5
2364
330
9
100
AcDbSymbolTableRecord
100
AcDbRegAppTableRecord
  2
GENIUS_GENOBJ-NBEHI-BHB_13
 70
     0
  0
APPID
  5
2379
330
9
100
AcDbSymbolTableRecord
100
AcDbRegAppTableRecord
  2
GENIUS_GENOBJ-F-SCPASSM_13
 70
     0
  0
APPID
  5
3D74
330
9
100
AcDbSymbolTableRecord
100
AcDbRegAppTableRecord
  2
GENIUS_GENDIM_13
 70
     0
  0
APPID
  5
3D76
330
9
100
AcDbSymbolTableRecord
100
AcDbRegAppTableRecord
  2
GENIUS_GE3DTOL_13
 70
     0
  0
APPID
  5
3D9C
330
9
100
AcDbSymbolTableRecord
100
AcDbRegAppTableRecord
  2
AD_DRAW
 70
     0
  0
APPID
  5
3DE8
330
9
100
AcDbSymbolTableRecord
100
AcDbRegAppTableRecord
  2
ASURF_PCURVE_APPNAME
 70
     0
  0
APPID
  5
3DED
330
9
100
AcDbSymbolTableRecord
100
AcDbRegAppTableRecord
  2
AMG_3D2D_5.0
 70
     0
  0
APPID
  5
3E1B
330
9
100
AcDbSymbolTableRecord
100
AcDbRegAppTableRecord
  2
DESIGNERASSEMBLIES
 70
     0
  0
APPID
  5
3E20
330
9
100
AcDbSymbolTableRecord
100
AcDbRegAppTableRecord
  2
ACADM_DIM_EDIT
 70
     0
  0
APPID
  5
3E21
330
9
100
AcDbSymbolTableRecord
100
AcDbRegAppTableRecord
  2
AMDT_DM_ADJ
 70
     0
  0
APPID
  5
4143
330
9
100
AcDbSymbolTableRecord
100
AcDbRegAppTableRecord
  2
GENIUS_GENFIL_13
 70
     0
  0
APPID
  5
4144
330
9
100
AcDbSymbolTableRecord
100
AcDbRegAppTableRecord
  2
GENIUS_GENOBJ-N-CHA_13
 70
     0
  0
APPID
  5
4E17
330
9
100
AcDbSymbolTableRecord
100
AcDbRegAppTableRecord
  2
GEVID1008153417
 70
     0
  0
APPID
  5
4E58
330
9
100
AcDbSymbolTableRecord
100
AcDbRegAppTableRecord
  2
GEVID1008153418
 70
     0
  0
APPID
  5
4E5E
330
9
100
AcDbSymbolTableRecord
100
AcDbRegAppTableRecord
  2
GEVID1008153419
 70
     0
  0
APPID
  5
4E64
330
9
100
AcDbSymbolTableRecord
100
AcDbRegAppTableRecord
  2
GEVID1008153420
 70
     0
  0
APPID
  5
4E75
330
9
100
AcDbSymbolTableRecord
100
AcDbRegAppTableRecord
  2
GEVID1008153421
 70
     0
  0
APPID
  5
4EB7
330
9
100
AcDbSymbolTableRecord
100
AcDbRegAppTableRecord
  2
GENIUS_AMGTXT_16
 70
     0
  0
APPID
  5
7645
330
9
100
AcDbSymbolTableRecord
100
AcDbRegAppTableRecord
  2
GENIUS_GENOBJ-N-DIM_13
 70
     0
  0
APPID
  5
AAD0
330
9
100
AcDbSymbolTableRecord
100
AcDbRegAppTableRecord
  2
ACAD_DSTYLE_DIMARC_LENGTH_SYMBOL
 70
     0
  0
APPID
  5
AAD1
330
9
100
AcDbSymbolTableRecord
100
AcDbRegAppTableRecord
  2
ACAD_DSTYLE_DIMJOGGED_JOGANGLE_SYMBOL
 70
     0
  0
APPID
  5
AAFD
330
9
100
AcDbSymbolTableRecord
100
AcDbRegAppTableRecord
  2
ACAD_PSEXT
 70
     0
  0
APPID
  5
AD61
330
9
100
AcDbSymbolTableRecord
100
AcDbRegAppTableRecord
  2
AcAecLayerStandard
 70
     0
  0
APPID
  5
AEE3
330
9
100
AcDbSymbolTableRecord
100
AcDbRegAppTableRecord
  2
ACAD_EXEMPT_FROM_CAD_STANDARDS
 70
     0
  0
APPID
  5
B1BE
330
9
100
AcDbSymbolTableRecord
100
AcDbRegAppTableRecord
  2
GENIUS_GENCEN_19
 70
     0
  0
APPID
  5
BFBA
330
9
100
AcDbSymbolTableRecord
100
AcDbRegAppTableRecord
  2
AcDbAttr
 70
     0
  0
ENDTAB
  0
TABLE
  2
DIMSTYLE
  5
A
330
0
100
AcDbSymbolTable
 70
    17
100
AcDbDimStyleTable
 71
     3
340
2515
340
251A
340
251B
  0
DIMSTYLE
105
A76
330
A
100
AcDbSymbolTableRecord
100
AcDbDimStyleTableRecord
  2
STANDARD
 70
     0
 41
3.0
 42
1.0
 43
7.0
 44
2.0
 73
     0
 74
     0
 77
     1
140
2.799999999999999
141
0.0
143
0.0394
147
0.7
171
     4
172
     1
173
     1
176
     3
177
     3
178
     2
271
     3
272
     3
273
     8
274
     4
289
     0
340
A74
341
A66
343
A66
344
A66
  0
DIMSTYLE
105
2515
330
A
100
AcDbSymbolTableRecord
100
AcDbDimStyleTableRecord
  2
SYS
 70
     0
  4
"
 41
1.0
 42
1.0
 43
10.0
 44
1.0
 47
0.1
 48
0.1
 73
     0
 74
     0
 77
     1
 78
     8
 79
     2
140
3.000000000000001
141
0.0
143
0.0393701
146
0.71
147
1.299999999999999
172
     1
176
   256
177
   256
178
     7
271
     2
272
     2
283
     0
284
     8
340
11
371
    -1
372
    -1
1001
ACAD_DSTYLE_DIMJOGGED_JOGANGLE_SYMBOL
1070
   384
1040
0.7853981633974483
1001
ACAD_DSTYLE_DIMARC_LENGTH_SYMBOL
1070
   379
1070
     1
  0
DIMSTYLE
105
2516
102
{ACAD_REACTORS
330
BDB9
330
BF2A
102
}
330
A
100
AcDbSymbolTableRecord
100
AcDbDimStyleTableRecord
  2
SYS$3
 70
     0
  4
"
 41
2.0
 42
1.0
 43
10.0
 44
1.0
 47
0.1
 48
0.1
 73
     0
 77
     1
 78
     8
 79
     2
140
3.000000000000001
141
0.0
143
0.0393701
146
0.71
147
1.299999999999999
176
   256
177
   256
178
     2
271
     2
272
     2
283
     0
284
     8
288
     1
340
11
342
A66
371
    -1
372
    -1
1001
ACAD_DSTYLE_DIMJOGGED_JOGANGLE_SYMBOL
1070
   384
1040
0.7853981633974483
1001
ACAD_DSTYLE_DIMARC_LENGTH_SYMBOL
1070
   379
1070
     1
  0
DIMSTYLE
105
2517
102
{ACAD_REACTORS
330
BDA3
102
}
330
A
100
AcDbSymbolTableRecord
100
AcDbDimStyleTableRecord
  2
SYS$4
 70
     0
  4
"
 41
2.0
 42
1.0
 43
10.0
 44
1.0
 47
0.1
 48
0.1
 73
     0
 77
     1
 78
     8
 79
     2
140
3.000000000000001
141
0.0
143
0.0393701
146
0.71
147
1.299999999999999
173
     1
176
   256
177
   256
178
     2
271
     2
272
     2
283
     0
284
     8
288
     1
340
11
344
A66
371
    -1
372
    -1
1001
ACAD_DSTYLE_DIMJOGGED_JOGANGLE_SYMBOL
1070
   384
1040
0.7853981633974483
1001
ACAD_DSTYLE_DIMARC_LENGTH_SYMBOL
1070
   379
1070
     1
  0
DIMSTYLE
105
2518
330
A
100
AcDbSymbolTableRecord
100
AcDbDimStyleTableRecord
  2
SYS$6
 70
     0
  4
"
 41
2.0
 42
1.0
 43
10.0
 44
1.0
 47
0.1
 48
0.1
 73
     0
 74
     0
 78
     8
 79
     2
140
3.000000000000001
141
0.0
143
0.0393701
146
0.71
147
1.299999999999999
172
     1
176
   256
177
   256
178
     2
271
     2
272
     2
283
     0
284
     8
340
11
341
A66
371
    -1
372
    -1
1001
ACAD_DSTYLE_DIMJOGGED_JOGANGLE_SYMBOL
1070
   384
1040
0.7853981633974483
1001
ACAD_DSTYLE_DIMARC_LENGTH_SYMBOL
1070
   379
1070
     1
  0
DIMSTYLE
105
2519
330
A
100
AcDbSymbolTableRecord
100
AcDbDimStyleTableRecord
  2
SYS$7
 70
     0
  4
"
 41
2.0
 42
1.0
 43
10.0
 44
1.0
 47
0.1
 48
0.1
 73
     0
 74
     0
 77
     1
 78
     8
 79
     2
140
3.0
141
0.0
143
0.0393701
146
0.71
147
1.299999999999999
172
     1
176
   256
177
   256
178
     2
271
     2
272
     2
283
     0
284
     8
340
11
341
A66
342
A66
371
    -1
372
    -1
1001
ACAD_DSTYLE_DIMJOGGED_JOGANGLE_SYMBOL
1070
   384
1040
0.7853981633974483
1001
ACAD_DSTYLE_DIMARC_LENGTH_SYMBOL
1070
   379
1070
     1
  0
DIMSTYLE
105
251A
330
A
100
AcDbSymbolTableRecord
100
AcDbDimStyleTableRecord
  2
SYS$SF
 70
     0
  4
"
 41
2.5
 42
1.0
 43
10.0
 44
1.0
 47
0.1
 48
0.1
 73
     0
 74
     0
 75
     1
 76
     1
 77
     1
 78
     8
 79
     2
140
3.5
141
0.0
143
0.0393701
146
0.71
147
1.5
172
     1
176
   256
177
   256
178
     2
271
     2
272
     3
283
     0
284
     8
340
11
341
6C4
342
6C4
371
    -1
372
    -1
1001
ACAD_DSTYLE_DIMJOGGED_JOGANGLE_SYMBOL
1070
   384
1040
0.7853981633974483
1001
ACAD_DSTYLE_DIMARC_LENGTH_SYMBOL
1070
   379
1070
     1
  0
DIMSTYLE
105
251B
330
A
100
AcDbSymbolTableRecord
100
AcDbDimStyleTableRecord
  2
SYS$SH
 70
     0
  4
"
 41
2.5
 42
1.0
 43
10.0
 44
1.0
 47
0.1
 48
0.1
 73
     0
 74
     0
 75
     1
 76
     1
 77
     1
 78
     8
 79
     2
140
3.5
141
0.0
143
0.0393701
144
2.0
146
0.71
147
1.5
172
     1
173
     1
176
   256
177
   256
178
     2
271
     2
272
     3
283
     0
284
     8
340
11
341
6C4
343
72
344
6C4
371
    -1
372
    -1
1001
ACAD_DSTYLE_DIMJOGGED_JOGANGLE_SYMBOL
1070
   384
1040
0.7853981633974483
1001
ACAD_DSTYLE_DIMARC_LENGTH_SYMBOL
1070
   379
1070
     1
  0
DIMSTYLE
105
2A59
330
A
100
AcDbSymbolTableRecord
100
AcDbDimStyleTableRecord
  2
SYS$2
 70
     0
  4
"
 41
1.0
 42
1.0
 43
10.0
 44
1.0
 47
0.1
 48
0.1
 73
     0
 74
     0
 77
     1
 78
     8
 79
     2
140
3.000000000000001
141
0.0
143
0.0393701
146
0.71
147
1.299999999999999
172
     1
176
   256
177
   256
178
     2
271
     2
272
     2
283
     0
284
     8
340
11
342
6C4
371
    -1
372
    -1
1001
ACAD_DSTYLE_DIMJOGGED_JOGANGLE_SYMBOL
1070
   384
1040
0.7853981633974483
1001
ACAD_DSTYLE_DIMARC_LENGTH_SYMBOL
1070
   379
1070
     1
  0
DIMSTYLE
105
2AAB
102
{ACAD_REACTORS
330
B93A
330
B938
330
B942
330
B944
330
B945
330
B948
330
B947
330
B946
330
B943
330
B939
330
B937
102
}
330
A
100
AcDbSymbolTableRecord
100
AcDbDimStyleTableRecord
  2
SYS$0
 70
     0
  4
"
 41
1.0
 42
1.0
 43
10.0
 44
1.0
 47
0.1
 48
0.1
 73
     0
 74
     0
 77
     1
 78
     8
 79
     2
140
3.000000000000001
141
0.0
143
0.0393701
146
0.71
147
1.299999999999999
172
     1
176
   256
177
   256
178
     2
271
     2
272
     2
283
     0
284
     8
340
11
341
A66
342
6C4
371
    -1
372
    -1
1001
ACAD_DSTYLE_DIMJOGGED_JOGANGLE_SYMBOL
1070
   384
1040
0.7853981633974483
1001
ACAD_DSTYLE_DIMARC_LENGTH_SYMBOL
1070
   379
1070
     1
  0
DIMSTYLE
105
AF99
330
A
100
AcDbSymbolTableRecord
100
AcDbDimStyleTableRecord
  2
AM_ISO
 70
     0
  4
"
 41
2.5
 42
1.0
 43
10.0
 44
1.0
 47
0.1
 48
0.1
 73
     0
 74
     0
 77
     1
 78
     8
 79
     2
140
3.5
141
0.0
143
0.0393701
146
0.71
147
1.5
172
     1
176
   256
177
   256
178
     2
271
     2
272
     3
274
     4
283
     0
284
     8
340
11
371
    -1
372
    -1
  0
DIMSTYLE
105
AF9A
330
A
100
AcDbSymbolTableRecord
100
AcDbDimStyleTableRecord
  2
AM_ISO$3
 70
     0
  4
"
 41
2.5
 42
1.0
 43
10.0
 44
1.0
 47
0.1
 48
0.1
 73
     0
 77
     1
 78
     8
 79
     2
140
3.5
141
0.0
143
0.0393701
146
0.71
147
1.5
176
   256
177
   256
178
     2
271
     2
272
     3
274
     4
283
     0
284
     8
288
     1
289
     0
340
11
371
    -1
372
    -1
  0
DIMSTYLE
105
AF9B
330
A
100
AcDbSymbolTableRecord
100
AcDbDimStyleTableRecord
  2
AM_ISO$4
 70
     0
  4
"
 41
2.5
 42
1.0
 43
10.0
 44
1.0
 47
0.1
 48
0.1
 73
     0
 77
     1
 78
     8
 79
     2
140
3.5
141
0.0
143
0.0393701
146
0.71
147
1.5
176
   256
177
   256
178
     2
271
     2
272
     3
274
     4
283
     0
284
     8
288
     1
289
     0
340
11
371
    -1
372
    -1
  0
DIMSTYLE
105
AF9C
330
A
100
AcDbSymbolTableRecord
100
AcDbDimStyleTableRecord
  2
AM_ISO$6
 70
     0
  4
"
 41
2.5
 42
1.0
 43
10.0
 44
1.0
 47
0.1
 48
0.1
 73
     0
 74
     0
 78
     8
 79
     2
140
3.5
141
0.0
143
0.0393701
146
0.71
147
1.5
172
     1
176
   256
177
   256
178
     2
271
     2
272
     3
274
     4
283
     0
284
     8
340
11
371
    -1
372
    -1
  0
DIMSTYLE
105
AF9D
330
A
100
AcDbSymbolTableRecord
100
AcDbDimStyleTableRecord
  2
AM_ISO$7
 70
     0
  4
"
 41
2.5
 42
1.0
 43
10.0
 44
1.0
 47
0.1
 48
0.1
 73
     0
 74
     0
 77
     1
 78
     8
 79
     2
140
5.0
141
0.0
143
0.0393701
146
0.71
147
1.5
172
     1
176
   256
177
   256
178
     2
271
     2
272
     3
274
     4
283
     0
284
     8
340
11
371
    -1
372
    -1
  0
DIMSTYLE
105
AF9E
330
A
100
AcDbSymbolTableRecord
100
AcDbDimStyleTableRecord
  2
AM_ISO$SF
 70
     0
  4
"
 41
2.5
 42
1.0
 43
10.0
 44
1.0
 47
0.1
 48
0.1
 73
     0
 74
     0
 75
     1
 76
     1
 77
     1
 78
     8
 79
     2
140
3.5
141
0.0
143
0.0393701
146
0.71
147
1.5
172
     1
176
   256
177
   256
178
     2
271
     2
272
     3
274
     4
283
     0
284
     8
340
11
371
    -1
372
    -1
  0
DIMSTYLE
105
AF9F
330
A
100
AcDbSymbolTableRecord
100
AcDbDimStyleTableRecord
  2
AM_ISO$SH
 70
     0
  4
"
 41
2.5
 42
1.0
 43
10.0
 44
1.0
 47
0.1
 48
0.1
 73
     0
 74
     0
 75
     1
 76
     1
 77
     1
 78
     8
 79
     2
140
3.5
141
0.0
143
0.0393701
144
2.0
146
0.71
147
1.5
172
     1
173
     1
176
   256
177
   256
178
     2
271
     2
272
     3
274
     4
283
     0
284
     8
340
11
343
72
371
    -1
372
    -1
  0
ENDTAB
  0
TABLE
  2
BLOCK_RECORD
  5
1
330
0
100
AcDbSymbolTable
 70
    22
  0
BLOCK_RECORD
  5
1F
102
{ACAD_XDICTIONARY
360
8A
102
}
330
1
100
AcDbSymbolTableRecord
100
AcDbBlockTableRecord
  2
*Model_Space
340
22
  0
BLOCK_RECORD
  5
1B
330
1
100
AcDbSymbolTableRecord
100
AcDbBlockTableRecord
  2
*Paper_Space
340
1E
  0
BLOCK_RECORD
  5
23
330
1
100
AcDbSymbolTableRecord
100
AcDbBlockTableRecord
  2
*Paper_Space0
340
26
  0
BLOCK_RECORD
  5
72
330
1
100
AcDbSymbolTableRecord
100
AcDbBlockTableRecord
  2
GENAXEH
340
0
  0
BLOCK_RECORD
  5
6C4
330
1
100
AcDbSymbolTableRecord
100
AcDbBlockTableRecord
  2
_Dot
340
0
102
{BLKREFS
331
BBB1
331
BBB2
331
BBBA
331
BBBB
331
BBC3
331
BBC4
331
BBCC
331
BBCD
331
BBDF
331
BBE0
331
BBE8
331
BBE9
331
BBF1
331
BBF2
331
BBFA
331
BBFB
331
BC15
331
BC16
331
BF60
331
BF61
331
BF69
331
BF6A
102
}
  0
BLOCK_RECORD
  5
A66
330
1
100
AcDbSymbolTableRecord
100
AcDbBlockTableRecord
  2
_OPEN30
340
0
102
{BLKREFS
331
BDB4
102
}
  0
BLOCK_RECORD
  5
B555
102
{ACAD_XDICTIONARY
360
B556
102
}
330
1
100
AcDbSymbolTableRecord
100
AcDbBlockTableRecord
  2
SYS図枠A3(AIS11)
340
0
  0
BLOCK_RECORD
  5
B56D
102
{ACAD_XDICTIONARY
360
B56E
102
}
330
1
100
AcDbSymbolTableRecord
100
AcDbBlockTableRecord
  2
SYS表題(AIS11)
340
0
  0
BLOCK_RECORD
  5
BA5A
330
1
100
AcDbSymbolTableRecord
100
AcDbBlockTableRecord
  2
*D7
340
0
  0
BLOCK_RECORD
  5
BA66
330
1
100
AcDbSymbolTableRecord
100
AcDbBlockTableRecord
  2
*D8
340
0
  0
BLOCK_RECORD
  5
BA72
330
1
100
AcDbSymbolTableRecord
100
AcDbBlockTableRecord
  2
*D9
340
0
  0
BLOCK_RECORD
  5
BA7E
330
1
100
AcDbSymbolTableRecord
100
AcDbBlockTableRecord
  2
*D10
340
0
  0
BLOCK_RECORD
  5
BA9A
330
1
100
AcDbSymbolTableRecord
100
AcDbBlockTableRecord
  2
*D11
340
0
  0
BLOCK_RECORD
  5
BAA6
330
1
100
AcDbSymbolTableRecord
100
AcDbBlockTableRecord
  2
*D12
340
0
  0
BLOCK_RECORD
  5
BAB2
330
1
100
AcDbSymbolTableRecord
100
AcDbBlockTableRecord
  2
*D13
340
0
  0
BLOCK_RECORD
  5
BABE
330
1
100
AcDbSymbolTableRecord
100
AcDbBlockTableRecord
  2
*D14
340
0
  0
BLOCK_RECORD
  5
BACA
330
1
100
AcDbSymbolTableRecord
100
AcDbBlockTableRecord
  2
*D15
340
0
  0
BLOCK_RECORD
  5
BAD6
330
1
100
AcDbSymbolTableRecord
100
AcDbBlockTableRecord
  2
*D16
340
0
  0
BLOCK_RECORD
  5
BAE2
330
1
100
AcDbSymbolTableRecord
100
AcDbBlockTableRecord
  2
*D17
340
0
  0
BLOCK_RECORD
  5
BCCE
330
1
100
AcDbSymbolTableRecord
100
AcDbBlockTableRecord
  2
GENDOT
340
0
102
{BLKREFS
331
BDED
331
BDEE
331
BF4E
331
BF4F
102
}
  0
BLOCK_RECORD
  5
BDA4
330
1
100
AcDbSymbolTableRecord
100
AcDbBlockTableRecord
  2
*D19
340
0
  0
BLOCK_RECORD
  5
BDBA
330
1
100
AcDbSymbolTableRecord
100
AcDbBlockTableRecord
  2
*D20
340
0
  0
BLOCK_RECORD
  5
BF2B
330
1
100
AcDbSymbolTableRecord
100
AcDbBlockTableRecord
  2
*D21
340
0
  0
ENDTAB
  0
ENDSEC
  0
SECTION
  2
BLOCKS
  0
BLOCK
  5
20
330
1F
100
AcDbEntity
  8
0
100
AcDbBlockBegin
  2
*Model_Space
 70
     0
 10
0.0
 20
0.0
 30
0.0
  3
*Model_Space
  1

  0
ENDBLK
  5
21
330
1F
100
AcDbEntity
  8
0
100
AcDbBlockEnd
  0
BLOCK
  5
1C
330
1B
100
AcDbEntity
 67
     1
  8
0
100
AcDbBlockBegin
  2
*Paper_Space
 70
     0
 10
0.0
 20
0.0
 30
0.0
  3
*Paper_Space
  1

  0
ENDBLK
  5
1D
330
1B
100
AcDbEntity
 67
     1
  8
0
100
AcDbBlockEnd
  0
BLOCK
  5
24
330
23
100
AcDbEntity
 67
     1
  8
0
100
AcDbBlockBegin
  2
*Paper_Space0
 70
     0
 10
0.0
 20
0.0
 30
0.0
  3
*Paper_Space0
  1

  0
ENDBLK
  5
25
330
23
100
AcDbEntity
 67
     1
  8
0
100
AcDbBlockEnd
  0
BLOCK
  5
74
330
72
100
AcDbEntity
  8
0
100
AcDbBlockBegin
  2
GENAXEH
 70
     0
 10
0.0
 20
0.0
 30
0.0
  3
GENAXEH
  1

  0
LINE
  5
73
330
72
100
AcDbEntity
  8
0
100
AcDbLine
 10
-1.0
 20
0.0
 30
0.0
 11
1.0
 21
0.0
 31
0.0
  0
ENDBLK
  5
75
330
72
100
AcDbEntity
  8
0
100
AcDbBlockEnd
  0
BLOCK
  5
6C7
330
6C4
100
AcDbEntity
  8
0
100
AcDbBlockBegin
  2
_Dot
 70
     0
 10
0.0
 20
0.0
 30
0.0
  3
_Dot
  1

  0
LWPOLYLINE
  5
6C5
330
6C4
100
AcDbEntity
  8
0
  6
ByBlock
 62
     0
100
AcDbPolyline
 90
        2
 70
     1
 43
0.5
 10
-0.25
 20
0.0
 42
1.0
 10
0.25
 20
0.0
 42
1.0
  0
LINE
  5
6C6
330
6C4
100
AcDbEntity
  8
0
  6
ByBlock
 62
     0
370
    -2
100
AcDbLine
 10
-0.5
 20
0.0
 30
0.0
 11
-1.0
 21
0.0
 31
0.0
  0
ENDBLK
  5
6C8
330
6C4
100
AcDbEntity
  8
0
100
AcDbBlockEnd
  0
BLOCK
  5
A6A
330
A66
100
AcDbEntity
  8
0
100
AcDbBlockBegin
  2
_OPEN30
 70
     0
 10
0.0
 20
0.0
 30
0.0
  3
_OPEN30
  1

  0
LINE
  5
A67
330
A66
100
AcDbEntity
  8
0
  6
ByBlock
 62
     0
100
AcDbLine
 10
-1.0
 20
0.26794919
 30
0.0
 11
0.0
 21
0.0
 31
0.0
  0
LINE
  5
A68
330
A66
100
AcDbEntity
  8
0
  6
ByBlock
 62
     0
100
AcDbLine
 10
0.0
 20
0.0
 30
0.0
 11
-1.0
 21
-0.26794919
 31
0.0
  0
LINE
  5
A69
330
A66
100
AcDbEntity
  8
0
  6
ByBlock
 62
     0
100
AcDbLine
 10
0.0
 20
0.0
 30
0.0
 11
-1.0
 21
0.0
 31
0.0
  0
ENDBLK
  5
A6B
330
A66
100
AcDbEntity
  8
0
100
AcDbBlockEnd
  0
BLOCK
  5
B558
330
B555
100
AcDbEntity
  8
0
100
AcDbBlockBegin
  2
SYS図枠A3(AIS11)
 70
     0
 10
0.0
 20
0.0
 30
0.0
  3
SYS図枠A3(AIS11)
  1

  0
TEXT
  5
B559
330
B555
100
AcDbEntity
  8
AM_6
 60
     1
100
AcDbText
 10
408.4999999999999
 20
8.5
 30
0.0
 40
2.5
  1
!GENTITLE-INSERT
100
AcDbText
  0
TEXT
  5
B55A
330
B555
100
AcDbEntity
  8
AM_6
 60
     1
100
AcDbText
 10
0.0
 20
0.0
 30
0.0
 40
2.5
  1
!GENTITLE-LL
100
AcDbText
  0
TEXT
  5
B55B
330
B555
100
AcDbEntity
  8
AM_6
 60
     1
100
AcDbText
 10
420.0
 20
297.0
 30
0.0
 40
2.5
  1
!GENTITLE-RU
100
AcDbText
  0
TEXT
  5
B55C
330
B555
100
AcDbEntity
  8
AM_6
 60
     1
100
AcDbText
 10
420.0
 20
297.0
 30
0.0
 40
2.5
  1
!GENTITLE-MAX
100
AcDbText
  0
LINE
  5
B55D
330
B555
100
AcDbEntity
  8
size
100
AcDbLine
 10
0.0
 20
0.0
 30
0.0
 11
420.0
 21
0.0
 31
0.0
1001
GENIUS_GENREC_14
1002
{
1000
PYDIR
1011
0.0000000000000178
1021
297.0
1031
0.0
1002
}
1002
{
1000
PXDIR
1011
420.0
1021
0.0
1031
0.0
1002
}
1002
{
1000
PORI
1011
0.0
1021
0.0
1031
0.0
1002
}
1002
{
1000
PINS
1011
210.0
1021
148.4999999999999
1031
0.0
1002
}
1002
{
1000
HVAL
1000
297
1002
}
1002
{
1000
H
1070
     2
1002
}
1002
{
1000
WVAL
1000
420
1002
}
1002
{
1000
W
1070
     2
1002
}
1002
{
1000
C
1070
     4
1002
}
1001
GENIUS_GENOBJ-N-REC_13
1002
{
1000
OWNER
1000
GEN
1002
}
1001
GENIUS_GENODEF_13
1002
{
1000
HIER
1070
     0
1002
}
1002
{
1000
MANEDIT
1070
     0
1002
}
1002
{
1000
NOSEL
1070
     0
1002
}
1002
{
1000
BEHIND
1070
     0
1002
}
1002
{
1000
OTHER
1070
     0
1002
}
1002
{
1000
REACTOR
1002
}
  0
LINE
  5
B55E
330
B555
100
AcDbEntity
  8
size
100
AcDbLine
 10
420.0
 20
0.0
 30
0.0
 11
420.0
 21
297.0
 31
0.0
1001
GENIUS_GENREC_14
1002
{
1000
PYDIR
1011
0.0000000000000178
1021
297.0
1031
0.0
1002
}
1002
{
1000
PXDIR
1011
420.0
1021
0.0
1031
0.0
1002
}
1002
{
1000
PORI
1011
0.0
1021
0.0
1031
0.0
1002
}
1002
{
1000
PINS
1011
210.0
1021
148.4999999999999
1031
0.0
1002
}
1002
{
1000
HVAL
1000
297
1002
}
1002
{
1000
H
1070
     2
1002
}
1002
{
1000
WVAL
1000
420
1002
}
1002
{
1000
W
1070
     2
1002
}
1002
{
1000
C
1070
     4
1002
}
1001
GENIUS_GENOBJ-N-REC_13
1002
{
1000
OWNER
1000
GEN
1002
}
1001
GENIUS_GENODEF_13
1002
{
1000
HIER
1070
     0
1002
}
1002
{
1000
MANEDIT
1070
     0
1002
}
1002
{
1000
NOSEL
1070
     0
1002
}
1002
{
1000
BEHIND
1070
     0
1002
}
1002
{
1000
OTHER
1070
     0
1002
}
1002
{
1000
REACTOR
1002
}
  0
LINE
  5
B55F
330
B555
100
AcDbEntity
  8
size
100
AcDbLine
 10
420.0
 20
297.0
 30
0.0
 11
0.0000000000000275
 21
297.0
 31
0.0
1001
GENIUS_GENREC_14
1002
{
1000
PYDIR
1011
0.0000000000000178
1021
297.0
1031
0.0
1002
}
1002
{
1000
PXDIR
1011
420.0
1021
0.0
1031
0.0
1002
}
1002
{
1000
PORI
1011
0.0
1021
0.0
1031
0.0
1002
}
1002
{
1000
PINS
1011
210.0
1021
148.4999999999999
1031
0.0
1002
}
1002
{
1000
HVAL
1000
297
1002
}
1002
{
1000
H
1070
     2
1002
}
1002
{
1000
WVAL
1000
420
1002
}
1002
{
1000
W
1070
     2
1002
}
1002
{
1000
C
1070
     4
1002
}
1001
GENIUS_GENOBJ-N-REC_13
1002
{
1000
OWNER
1000
GEN
1002
}
1001
GENIUS_GENODEF_13
1002
{
1000
HIER
1070
     0
1002
}
1002
{
1000
MANEDIT
1070
     0
1002
}
1002
{
1000
NOSEL
1070
     0
1002
}
1002
{
1000
BEHIND
1070
     0
1002
}
1002
{
1000
OTHER
1070
     0
1002
}
1002
{
1000
REACTOR
1002
}
  0
LINE
  5
B560
330
B555
100
AcDbEntity
  8
size
100
AcDbLine
 10
0.0000000000000275
 20
297.0
 30
0.0
 11
0.0
 21
0.0
 31
0.0
1001
GENIUS_GENREC_14
1002
{
1000
PYDIR
1011
0.0000000000000178
1021
297.0
1031
0.0
1002
}
1002
{
1000
PXDIR
1011
420.0
1021
0.0
1031
0.0
1002
}
1002
{
1000
PORI
1011
0.0
1021
0.0
1031
0.0
1002
}
1002
{
1000
PINS
1011
210.0
1021
148.4999999999999
1031
0.0
1002
}
1002
{
1000
HVAL
1000
297
1002
}
1002
{
1000
H
1070
     2
1002
}
1002
{
1000
WVAL
1000
420
1002
}
1002
{
1000
W
1070
     2
1002
}
1002
{
1000
C
1070
     4
1002
}
1001
GENIUS_GENOBJ-N-REC_13
1002
{
1000
OWNER
1000
GEN
1002
}
1001
GENIUS_GENODEF_13
1002
{
1000
HIER
1070
     0
1002
}
1002
{
1000
MANEDIT
1070
     0
1002
}
1002
{
1000
NOSEL
1070
     0
1002
}
1002
{
1000
BEHIND
1070
     0
1002
}
1002
{
1000
OTHER
1070
     0
1002
}
1002
{
1000
REACTOR
1002
}
  0
LINE
  5
B561
330
B555
100
AcDbEntity
  8
waku
100
AcDbLine
 10
408.4999999999999
 20
8.5
 30
0.0
 11
408.4999999999999
 21
288.5
 31
0.0
1001
GENIUS_GENREC_14
1002
{
1000
PYDIR
1011
0.0000000000000178
1021
297.0
1031
0.0
1002
}
1002
{
1000
PXDIR
1011
420.0
1021
0.0
1031
0.0
1002
}
1002
{
1000
PORI
1011
0.0
1021
0.0
1031
0.0
1002
}
1002
{
1000
PINS
1011
210.0
1021
148.4999999999999
1031
0.0
1002
}
1002
{
1000
HVAL
1000
297
1002
}
1002
{
1000
H
1070
     2
1002
}
1002
{
1000
WVAL
1000
420
1002
}
1002
{
1000
W
1070
     2
1002
}
1002
{
1000
C
1070
     4
1002
}
1001
GENIUS_GENOBJ-N-REC_13
1002
{
1000
OWNER
1000
GEN
1002
}
1001
GENIUS_GENODEF_13
1002
{
1000
HIER
1070
     0
1002
}
1002
{
1000
MANEDIT
1070
     0
1002
}
1002
{
1000
NOSEL
1070
     0
1002
}
1002
{
1000
BEHIND
1070
     0
1002
}
1002
{
1000
OTHER
1070
     0
1002
}
1002
{
1000
REACTOR
1002
}
  0
LINE
  5
B562
330
B555
100
AcDbEntity
  8
waku
100
AcDbLine
 10
11.50000000000002
 20
288.5
 30
0.0
 11
11.5
 21
8.5
 31
0.0
1001
GENIUS_GENREC_14
1002
{
1000
PYDIR
1011
0.0000000000000178
1021
297.0
1031
0.0
1002
}
1002
{
1000
PXDIR
1011
420.0
1021
0.0
1031
0.0
1002
}
1002
{
1000
PORI
1011
0.0
1021
0.0
1031
0.0
1002
}
1002
{
1000
PINS
1011
210.0
1021
148.4999999999999
1031
0.0
1002
}
1002
{
1000
HVAL
1000
297
1002
}
1002
{
1000
H
1070
     2
1002
}
1002
{
1000
WVAL
1000
420
1002
}
1002
{
1000
W
1070
     2
1002
}
1002
{
1000
C
1070
     4
1002
}
1001
GENIUS_GENOBJ-N-REC_13
1002
{
1000
OWNER
1000
GEN
1002
}
1001
GENIUS_GENODEF_13
1002
{
1000
HIER
1070
     0
1002
}
1002
{
1000
MANEDIT
1070
     0
1002
}
1002
{
1000
NOSEL
1070
     0
1002
}
1002
{
1000
BEHIND
1070
     0
1002
}
1002
{
1000
OTHER
1070
     0
1002
}
1002
{
1000
REACTOR
1002
}
  0
LINE
  5
B563
330
B555
100
AcDbEntity
  8
waku
100
AcDbLine
 10
408.4999999999999
 20
288.5
 30
0.0
 11
11.50000000000002
 21
288.5
 31
0.0
1001
GENIUS_GENREC_14
1002
{
1000
PYDIR
1011
0.0000000000000178
1021
297.0
1031
0.0
1002
}
1002
{
1000
PXDIR
1011
420.0
1021
0.0
1031
0.0
1002
}
1002
{
1000
PORI
1011
0.0
1021
0.0
1031
0.0
1002
}
1002
{
1000
PINS
1011
210.0
1021
148.4999999999999
1031
0.0
1002
}
1002
{
1000
HVAL
1000
297
1002
}
1002
{
1000
H
1070
     2
1002
}
1002
{
1000
WVAL
1000
420
1002
}
1002
{
1000
W
1070
     2
1002
}
1002
{
1000
C
1070
     4
1002
}
1001
GENIUS_GENOBJ-N-REC_13
1002
{
1000
OWNER
1000
GEN
1002
}
1001
GENIUS_GENODEF_13
1002
{
1000
HIER
1070
     0
1002
}
1002
{
1000
MANEDIT
1070
     0
1002
}
1002
{
1000
NOSEL
1070
     0
1002
}
1002
{
1000
BEHIND
1070
     0
1002
}
1002
{
1000
OTHER
1070
     0
1002
}
1002
{
1000
REACTOR
1002
}
  0
TEXT
  5
B564
330
B555
100
AcDbEntity
  8
AM_6
 60
     1
100
AcDbText
 10
0.0
 20
0.0
 30
0.0
 40
2.5
  1
!GENTITLE-LL
100
AcDbText
  0
TEXT
  5
B565
330
B555
100
AcDbEntity
  8
AM_6
 60
     1
100
AcDbText
 10
408.4999999999999
 20
288.5
 30
0.0
 40
2.5
  1
!GENTITLE-RU
100
AcDbText
  0
TEXT
  5
B566
330
B555
100
AcDbEntity
  8
AM_6
 60
     1
100
AcDbText
 10
420.0
 20
297.0
 30
0.0
 40
2.5
  1
!GENTITLE-MAX
100
AcDbText
  0
TEXT
  5
B567
330
B555
100
AcDbEntity
  8
AM_6
 60
     1
100
AcDbText
 10
408.4999999999999
 20
8.5
 30
0.0
 40
2.5
  1
!GENTITLE-INSERT
100
AcDbText
  0
LINE
  5
B568
330
B555
100
AcDbEntity
  8
waku
100
AcDbLine
 10
11.5
 20
8.5
 30
0.0
 11
408.4999999999999
 21
8.5
 31
0.0
  0
LINE
  5
B569
330
B555
100
AcDbEntity
  8
waku
100
AcDbLine
 10
246.499999999999
 20
33.49999999999332
 30
0.0
 11
408.4999999999999
 21
33.49999999999981
 31
0.0
  0
LINE
  5
B56A
330
B555
100
AcDbEntity
  8
waku
100
AcDbLine
 10
246.4999999999983
 20
8.5
 30
0.0
 11
246.4999999999974
 21
33.49999999999332
 31
0.0
  0
MTEXT
  5
B56B
330
B555
100
AcDbEntity
  8
AM_6
100
AcDbMText
 10
316.9999999999996
 20
25.74999999999989
 30
0.0
 40
4.0
 41
9.015095283510618
 71
     5
 72
     5
  1
A3
 73
     1
 44
1.0
1001
ACAD
1000
MTEXTBEGIN
1070
    73
1070
     1
1070
    44
1040
1.0
1070
    74
1070
     0
1000
MTEXTEND
  0
ENDBLK
  5
B56C
330
B555
100
AcDbEntity
  8
0
100
AcDbBlockEnd
  0
BLOCK
  5
B570
330
B56D
100
AcDbEntity
  8
0
100
AcDbBlockBegin
  2
SYS表題(AIS11)
 70
     2
 10
0.0
 20
0.0
 30
0.0
  3
SYS表題(AIS11)
  1

  0
LINE
  5
B571
330
B56D
100
AcDbEntity
  8
waku
  6
Continuous
370
    40
100
AcDbLine
 10
-162.0
 20
0.0
 30
0.0
 11
0.0000000000004547
 21
0.0
 31
0.0
  0
LINE
  5
B572
330
B56D
100
AcDbEntity
  8
hyosen2
  6
Continuous
370
    40
100
AcDbLine
 10
-115.0000000000004
 20
25.0
 30
0.0
 11
-115.0000000000004
 21
0.0
 31
0.0
  0
LINE
  5
B573
330
B56D
100
AcDbEntity
  8
waku
  6
Continuous
370
    40
100
AcDbLine
 10
0.0
 20
25.0
 30
0.0
 11
0.0
 21
0.0
 31
0.0
  0
LINE
  5
B574
330
B56D
100
AcDbEntity
  8
waku
  6
Continuous
370
    40
100
AcDbLine
 10
-162.0000000000007
 20
24.99999999999977
 30
0.0
 11
-162.0000000000013
 21
-0.0000000000002274
 31
0.0
  0
LINE
  5
B575
330
B56D
100
AcDbEntity
  8
hyosen2
  6
Continuous
370
    40
100
AcDbLine
 10
-115.0000000000004
 20
14.0
 30
0.0
 11
-68.00000000000022
 21
14.0
 31
0.0
  0
LINE
  5
B576
330
B56D
100
AcDbEntity
  8
hyosen2
  6
Continuous
100
AcDbLine
 10
-62.99999999999977
 20
25.0
 30
0.0
 11
-62.99999999999977
 21
0.0
 31
0.0
  0
TEXT
  5
B577
330
B56D
100
AcDbEntity
  8
hyomoji
  6
Continuous
100
AcDbText
 10
-66.38199999999978
 20
3.88682935783594
 30
0.0
 40
2.7
  1
図
 41
0.7
 72
     4
 11
-65.49999999999977
 21
5.14682935783594
 31
0.0
100
AcDbText
  0
TEXT
  5
B578
330
B56D
100
AcDbEntity
  8
hyomoji
  6
Continuous
100
AcDbText
 10
-66.38199999999978
 20
0.6847767415209991
 30
0.0
 40
2.7
  1
番
 41
0.7
 72
     4
 11
-65.49999999999977
 21
2.034776741521
 31
0.0
100
AcDbText
  0
LINE
  5
B579
330
B56D
100
AcDbEntity
  8
hyosen2
  6
Continuous
100
AcDbLine
 10
-16.0
 20
6.935723472010067
 30
0.0
 11
-16.0
 21
-0.0642765279899322
 31
0.0
  0
LINE
  5
B57A
330
B56D
100
AcDbEntity
  8
hyosen1
  6
Continuous
370
    40
100
AcDbLine
 10
-68.0
 20
7.0
 30
0.0
 11
0.0
 21
7.0
 31
0.0
  0
LINE
  5
B57B
330
B56D
100
AcDbEntity
  8
hyosen2
  6
Continuous
370
    40
100
AcDbLine
 10
-68.0
 20
25.0
 30
0.0
 11
-68.0
 21
0.0
 31
0.0
  0
LINE
  5
B57C
330
B56D
100
AcDbEntity
  8
hyosen2
  6
Continuous
100
AcDbLine
 10
-11.0
 20
6.935723472010067
 30
0.0
 11
-11.0
 21
-0.0642765279899322
 31
0.0
  0
TEXT
  5
B57D
330
B56D
100
AcDbEntity
  8
hyomoji
  6
Continuous
100
AcDbText
 10
-15.46193093476272
 20
4.000214592721325
 30
0.0
 40
2.5
  1
図面
 41
0.7
 72
     4
 11
-13.53693093476272
 21
5.166881259387992
 31
0.0
100
AcDbText
  0
TEXT
  5
B57E
330
B56D
100
AcDbEntity
  8
hyomoji
  6
Continuous
100
AcDbText
 10
-15.40359760142939
 20
0.6302759610207432
 30
0.0
 40
2.5
  1
枚数
 41
0.7
 72
     4
 11
-13.53693093476272
 21
1.880275961020743
 31
0.0
100
AcDbText
  0
LINE
  5
B57F
330
B56D
100
AcDbEntity
  8
waku
  6
Continuous
370
    40
100
AcDbLine
 10
-162.0000000000007
 20
24.99999999999955
 30
0.0
 11
0.0
 21
25.00000000000114
 31
0.0
  0
LINE
  5
B580
330
B56D
100
AcDbEntity
  8
hyosen2
  6
Continuous
370
    40
100
AcDbLine
 10
-162.0000000000002
 20
14.0
 30
0.0
 11
-115.0000000000004
 21
14.0
 31
0.0
  0
LINE
  5
B581
330
B56D
100
AcDbEntity
  8
hyosen2
  6
Continuous
100
AcDbLine
 10
-150.0000000000002
 20
14.0
 30
0.0
 11
-150.0000000000002
 21
0.0
 31
0.0
  0
TEXT
  5
B582
330
B56D
100
AcDbEntity
  8
hyomoji
  6
Continuous
100
AcDbText
 10
-158.2400000000002
 20
10.25
 30
0.0
 40
3.0
  1
承認
 41
0.7
 72
     4
 11
-156.0000000000002
 21
11.75
 31
0.0
100
AcDbText
  0
LINE
  5
B583
330
B56D
100
AcDbEntity
  8
hyosen2
  6
Continuous
100
AcDbLine
 10
-127.0000000000002
 20
14.0
 30
0.0
 11
-127.0000000000002
 21
0.0
 31
0.0
  0
TEXT
  5
B584
330
B56D
100
AcDbEntity
  8
hyomoji
  6
Continuous
100
AcDbText
 10
-140.7400000000002
 20
10.25
 30
0.0
 40
3.0
  1
確認
 41
0.7
 72
     4
 11
-138.5000000000002
 21
11.75
 31
0.0
100
AcDbText
  0
TEXT
  5
B585
330
B56D
100
AcDbEntity
  8
hyomoji
  6
Continuous
100
AcDbText
 10
-123.5436856926269
 20
10.25
 30
0.0
 40
3.0
  1
作成
 41
0.7
 72
     4
 11
-121.3036856926269
 21
11.75
 31
0.0
100
AcDbText
  0
LINE
  5
B586
330
B56D
100
AcDbEntity
  8
hyosen2
  6
Continuous
100
AcDbLine
 10
-162.0000000000007
 20
9.5
 30
0.0
 11
-115.0000000000009
 21
9.5
 31
0.0
  0
LINE
  5
B587
330
B56D
100
AcDbEntity
  8
hyosen1
  6
Continuous
370
    40
100
AcDbLine
 10
-68.0
 20
14.0
 30
0.0
 11
0.0
 21
14.0
 31
0.0
  0
TEXT
  5
B588
330
B56D
100
AcDbEntity
  8
hyomoji
  6
Continuous
100
AcDbText
 10
-66.38200000000001
 20
10.83643685350829
 30
0.0
 40
2.7
  1
品
 41
0.7
 72
     4
 11
-65.5
 21
12.09643685350829
 31
0.0
100
AcDbText
  0
TEXT
  5
B589
330
B56D
100
AcDbEntity
  8
hyomoji
  6
Continuous
100
AcDbText
 10
-66.38200000000001
 20
7.751387192220043
 30
0.0
 40
2.7
  1
番
 41
0.7
 72
     4
 11
-65.5
 21
9.101387192220045
 31
0.0
100
AcDbText
  0
LINE
  5
B58A
330
B56D
100
AcDbEntity
  8
hyosen2
  6
Continuous
100
AcDbLine
 10
-63.0
 20
18.0
 30
0.0
 11
0.0000000000004547
 21
18.0
 31
0.0
  0
TEXT
  5
B58B
330
B56D
100
AcDbEntity
  8
hyomoji
  6
Continuous
100
AcDbText
 10
-66.38200000000001
 20
20.15681154346952
 30
0.0
 40
2.7
  1
品
 41
0.7
 72
     4
 11
-65.5
 21
21.41681154346952
 31
0.0
100
AcDbText
  0
TEXT
  5
B58C
330
B56D
100
AcDbEntity
  8
hyomoji
  6
Continuous
100
AcDbText
 10
-66.319
 20
16.79718774654829
 30
0.0
 40
2.7
  1
名
 41
0.7
 72
     4
 11
-65.5
 21
18.1471877465483
 31
0.0
100
AcDbText
  0
LWPOLYLINE
  5
B58D
330
B56D
100
AcDbEntity
  8
hyomoji
  6
Continuous
370
    13
100
AcDbPolyline
 90
        8
 70
   129
 43
0.0
 10
-94.71664269381063
 20
7.51672279306581
 42
-0.6021429256477856
 10
-94.74876257508389
 20
7.577406929225617
 10
-94.3643184158509
 20
8.142763822137112
 42
-0.2483280785897051
 10
-94.3000786533039
 20
8.17676568286356
 10
-93.49406859106215
 20
8.17676568286356
 42
-0.2483286500869998
 10
-93.42982873445725
 20
8.142763683815473
 10
-93.04538640247892
 20
7.577406860064911
 42
-0.6021421921708056
 10
-93.07750633078171
 20
7.51672279306581
  0
LWPOLYLINE
  5
B58E
330
B56D
100
AcDbEntity
  8
hyomoji
  6
Continuous
370
    13
100
AcDbPolyline
 90
       12
 70
   129
 43
0.0
 10
-95.10066352813693
 20
7.206114336880773
 10
-95.10066352813693
 20
7.381138154179552
 42
0.4422835312456968
 10
-95.14318581001338
 20
7.419805994050648
 10
-95.48861490902391
 20
7.386933916044881
 10
-94.80150443173148
 20
8.397389580015442
 42
-0.251104977230494
 10
-94.64166799998498
 20
8.487374139048597
 10
-93.16046721299699
 20
8.487374139048597
 42
-0.2453004937928962
 10
-92.99950197713906
 20
8.407546927133807
 10
-92.30556057799777
 20
7.387044538439795
 10
-92.650906417339
 20
7.419908976284204
 42
0.4422837740584967
 10
-92.69342873062669
 20
7.381241139402163
 10
-92.69342873062669
 20
7.206114336880773
  0
LWPOLYLINE
  5
B58F
330
B56D
100
AcDbEntity
  8
hyomoji
  6
Continuous
370
    13
100
AcDbPolyline
 90
       18
 70
   129
 43
0.0
 10
-93.52253906807527
 20
6.507245342302439
 10
-92.81460158919413
 20
6.507245342302439
 10
-92.46227902959139
 20
5.862752078807261
 42
-0.56960330458711
 10
-92.63269060855964
 20
5.575381194890269
 10
-95.16142443937724
 20
5.575381194890269
 42
-0.569603703070891
 10
-95.33183590623185
 20
5.862752283892632
 10
-94.92603195720221
 20
6.605075352594667
 42
0.569603703070901
 10
-94.9601142505735
 20
6.66254957039473
 10
-95.48894367882553
 20
6.66254957039473
 10
-95.48894367882553
 20
6.973158026579994
 10
-92.30514857993808
 20
6.973158026579994
 10
-92.30514857993808
 20
6.66254957039473
 10
-94.16361950950046
 20
6.66254957039473
 42
0.2742066828570859
 10
-94.1977017820227
 20
6.642338759809945
 10
-94.57975501613532
 20
5.943463907013665
 42
0.569604073583639
 10
-94.54567274361307
 20
5.885989651075306
 10
-93.24842050934785
 20
5.885989651075306
 42
0.5696036141370885
 10
-93.21433821097276
 20
5.943463859721532
  0
LWPOLYLINE
  5
B590
330
B56D
100
AcDbEntity
  8
hyomoji
  6
Continuous
370
    13
100
AcDbPolyline
 90
       23
 70
   129
 43
0.0
 10
-113.7268241398469
 20
6.250351779631046
 42
0.0223985860000053
 10
-113.5470175960388
 20
6.069365314279821
 42
0.0223985860000067
 10
-113.3298184279569
 20
5.895937796930184
 42
0.0223985860000024
 10
-113.0769694554942
 20
5.731459981301895
 42
0.0220669162099173
 10
-112.7948354676327
 20
5.579344997231373
 42
0.4330144820686968
 10
-112.7627586028536
 20
5.591673044677008
 10
-112.5949318145867
 20
6.003944023309486
 42
0.1957402929298021
 10
-112.5949313315429
 20
6.414003627072816
 10
-113.0029292479371
 20
7.416268145310141
 42
-0.1957419841521856
 10
-113.0029276888965
 20
7.767750618383161
 10
-112.7323557985662
 20
8.432405278217402
 42
0.6213425724569266
 10
-112.7650957515457
 20
8.459104097606996
 42
0.0223985860000949
 10
-113.0542784116799
 20
8.305810639210903
 42
0.0223985859999093
 10
-113.3100201977245
 20
8.142141767095154
 42
0.0223985859999842
 10
-113.5302700965744
 20
7.969410104177995
 42
0.0223985860000033
 10
-113.7132623648729
 20
7.789000736989009
 42
0.0223985859999945
 10
-113.8575286275093
 20
7.602360390702187
 42
0.0223985860000046
 10
-113.9619125231659
 20
7.410985776373763
 42
0.0223985860000012
 10
-114.0255773454698
 20
7.216411492448287
 42
0.0223985859999998
 10
-114.0480117738614
 20
7.020197926266973
 42
0.0223985859999993
 10
-114.029036877982
 20
6.823918455131661
 42
0.0223985859999987
 10
-113.968803570624
 20
6.629147156783574
 42
0.0223985859999964
 10
-113.8677964283099
 20
6.437445819441563
 42
0.0223985860000002
  0
LWPOLYLINE
  5
B591
330
B56D
100
AcDbEntity
  8
hyomoji
  6
Continuous
370
    13
100
AcDbPolyline
 90
       23
 70
   129
 43
0.0
 10
-103.8091594853931
 20
6.606475788939405
 42
-0.0225609849999951
 10
-103.9158153508642
 20
6.41386534529056
 42
-0.0225609850000035
 10
-104.0628916479152
 20
6.226121043267085
 42
-0.022560985000006
 10
-104.2491918991691
 20
6.04477022221863
 42
-0.0225609849999973
 10
-104.4732006090657
 20
5.871288388998891
 42
-0.0225609849999909
 10
-104.733094725593
 20
5.707086928443004
 42
-0.0225466705714752
 10
-105.0265696694339
 20
5.553590591288184
 42
-0.6820149919169938
 10
-105.0583583690729
 20
5.583821782525319
 10
-104.813222817605
 20
6.185992327983512
 42
0.1957433897416816
 10
-104.8132220528773
 20
6.596057940510036
 10
-105.2092974689358
 20
7.569019615279557
 42
-0.1957432007478236
 10
-105.2092968534884
 20
7.979084861101
 10
-105.0215968014395
 20
8.440167220227749
 42
-0.4317106519725617
 10
-104.9896131621474
 20
8.452539934886317
 42
-0.0225711483270752
 10
-104.6997818408374
 20
8.297536988598267
 42
-0.0225609850000041
 10
-104.4441260177748
 20
8.132138986989048
 42
-0.022560984999992
 10
-104.2245931138832
 20
7.957627826638145
 42
-0.0225609849999975
 10
-104.0429679754031
 20
7.775423170297017
 42
-0.0225609850000032
 10
-103.9007291656501
 20
7.5870074018585
 42
-0.0225609849999971
 10
-103.7990336827058
 20
7.393913464184606
 42
-0.0225609850000056
 10
-103.7387080447365
 20
7.197712251202119
 42
-0.0225609849999966
 10
-103.7202444694171
 20
7.0
 42
-0.0225609849999982
 10
-103.7437919592537
 20
6.802385300864671
 42
-0.0225609850000013
  0
LWPOLYLINE
  5
B592
330
B56D
100
AcDbEntity
  8
hyomoji
  6
Continuous
370
    13
100
AcDbPolyline
 90
       46
 70
   129
 43
0.0
 10
-110.519768731164
 20
4.931233688523661
 42
0.0067740668000082
 10
-110.3864681614013
 20
4.913172228938265
 42
0.0067740667999966
 10
-110.2520640816365
 20
4.896651608074307
 42
0.00677406679999
 10
-110.1166558268724
 20
4.881683988101485
 42
0.0067740668000013
 10
-109.9803427321119
 20
4.868280257664764
 42
0.0067740668000002
 10
-109.8432247691212
 20
4.856450350263912
 42
0.0067636405007582
 10
-109.705614869343
 20
4.846215763771624
 42
0.3216815158956166
 10
-109.6823639763015
 20
4.860849479223816
 10
-109.0305054224016
 20
6.462145869264986
 42
0.6036079430413216
 10
-109.057350599905
 20
6.494047360847616
 42
-0.0968770041122301
 10
-110.2622835208153
 20
6.467861583611238
 42
-0.4787358622778684
 10
-110.8492829567522
 20
7.526226966682088
 10
-110.2098189151504
 20
9.097085087812047
 42
0.5685357036715337
 10
-110.2342375268879
 20
9.129384786912851
 42
0.0037682570573848
 10
-110.3092103627439
 20
9.120496988302875
 42
0.003796761400007
 10
-110.3844216056329
 20
9.111059971979784
 42
0.0037967614000019
 10
-110.4592877230613
 20
9.101138888545392
 42
0.0037967614000093
 10
-110.5337902489084
 20
9.090735902993856
 42
0.0037967613999978
 10
-110.6079119905773
 20
9.079853435023323
 42
0.0037967614000032
 10
-110.6816363922337
 20
9.068494095361756
 42
0.0037967614000015
 10
-110.754946261281
 20
9.056660431060208
 42
0.0037967613999987
 10
-110.827825041885
 20
9.044355180199318
 42
0.0037967613999957
 10
-110.9002549046868
 20
9.031581208211719
 42
0.0037967613999885
 10
-110.972219930615
 20
9.018341444206271
 42
0.0037967613999968
 10
-111.0437035638358
 20
9.004638880968059
 42
0.003796761399993
 10
-111.1146886117533
 20
8.990476765988205
 42
0.0037967614000086
 10
-111.1851597920581
 20
8.975858346757149
 42
0.0037967614000003
 10
-111.255099912154
 20
8.96078693444133
 42
0.0037967613999995
 10
-111.3244930529702
 20
8.945266094912994
 42
0.0038055234898925
 10
-111.3934824936702
 20
8.929261274685359
 42
0.2417074229057139
 10
-111.4098051015228
 20
8.915234771530322
 10
-111.8650382388573
 20
7.796940065814169
 42
0.1957404060663561
 10
-111.865038329053
 20
7.386880242530423
 10
-111.4689880787043
 20
6.41396895865364
 42
-0.1957405476044069
 10
-111.4689882806954
 20
6.00390886074274
 10
-111.7862250935463
 20
5.224607739534121
 42
0.4443455524912625
 10
-111.7710237743845
 20
5.193113677398741
 42
0.0067708198256604
 10
-111.6540216434309
 20
5.1605708935449
 42
0.0067740668000073
 10
-111.5349304364506
 20
5.129370851569774
 42
0.0067740668000071
 10
-111.4138932822307
 20
5.099552967015597
 42
0.0067740668000066
 10
-111.2909986908046
 20
5.07113908084807
 42
0.0067740667999989
 10
-111.1663370824974
 20
5.044150015212153
 42
0.0067740668000009
 10
-111.0400001511566
 20
5.018605637108294
 42
0.0067740668000062
 10
-110.9120802273951
 20
4.99452466736443
 42
0.0067740668000053
 10
-110.7826715521128
 20
4.971924807987306
 42
0.0067740668000071
 10
-110.6518690029729
 20
4.950822678486701
 42
0.0067740668000022
  0
LWPOLYLINE
  5
B593
330
B56D
100
AcDbEntity
  8
hyomoji
  6
Continuous
370
    13
100
AcDbPolyline
 90
       42
 70
   129
 43
0.0
 10
-107.0325217536542
 20
4.964147322978988
 42
0.0068021948000069
 10
-106.9020636932109
 20
4.986304122771798
 42
0.0068021948000014
 10
-106.7730727343519
 20
5.009960371701254
 42
0.0068021947999925
 10
-106.6456443915033
 20
5.035098622465056
 42
0.0068021948000045
 10
-106.5198729055644
 20
5.061700281589082
 42
0.0067876847517197
 10
-106.3961149632876
 20
5.0896821989827
 42
0.2416094440683337
 10
-106.3798008370786
 20
5.10370666303288
 10
-105.9412231671285
 20
6.181086424920977
 42
0.1957413290603471
 10
-105.941223786604
 20
6.601231521413183
 10
-106.3352129692118
 20
7.569070096907807
 42
-0.1957413474957244
 10
-106.3352135592583
 20
7.979131746854136
 10
-105.9993061639691
 20
8.804298600408856
 42
0.4460668776922764
 10
-106.0146375343697
 20
8.835830324484732
 42
0.0028283786038634
 10
-106.0633916340969
 20
8.849503076646669
 42
0.0028494113000101
 10
-106.1128738376581
 20
8.863040909337769
 42
0.0028494112999968
 10
-106.1627164489871
 20
8.876338300380666
 42
0.0028494113000006
 10
-106.2129124636919
 20
8.889393466838782
 42
0.0028494113000024
 10
-106.2634555141451
 20
8.902204753128671
 42
0.002849411299989
 10
-106.3143385959552
 20
8.914770503667796
 42
0.0028494113000037
 10
-106.3655559782564
 20
8.927089062872255
 42
0.0028494112999894
 10
-106.4171000198944
 20
8.939158838834828
 42
0.0028494113000082
 10
-106.4689649900042
 20
8.950978239648975
 42
0.0028494112999955
 10
-106.5211432474314
 20
8.962545800759244
 42
0.0028494113000056
 10
-106.5736290613101
 20
8.973859930259095
 42
0.0028494113000083
 10
-106.6264147904874
 20
8.984919290946663
 42
0.0028494112999919
 10
-106.6794934305705
 20
8.9957222909145
 42
0.0028494112999998
 10
-106.7328586139322
 20
9.006267592961194
 42
0.0028494113000083
 10
-106.7865033361811
 20
9.016553859884425
 42
0.0028485312981507
 10
-106.8404039239449
 20
9.026576689379226
 42
0.3543993923517316
 10
-106.8664005303705
 20
9.012272432784357
 10
-108.5584562824822
 20
4.855704245478136
 42
0.5392714590992974
 10
-108.5361428249079
 20
4.823266086778858
 42
0.0068019099602671
 10
-108.3961118072659
 20
4.828097465976725
 42
0.0068021947999971
 10
-108.2564359679456
 20
4.834545517526748
 42
0.0068021947999996
 10
-108.1172249654992
 20
4.842605470531225
 42
0.0068021948000011
 10
-107.9785813187429
 20
4.85227127574285
 42
0.0068021947999982
 10
-107.8406081832579
 20
4.863535801417583
 42
0.0068021948000014
 10
-107.7034080778608
 20
4.876390769638646
 42
0.0068021947999974
 10
-107.567080974318
 20
4.890826565286943
 42
0.0068021948000009
 10
-107.4317293914466
 20
4.906832554423772
 42
0.0068021948000053
 10
-107.2974533010122
 20
4.924396829583201
 42
0.0068021947999869
 10
-107.164350764493
 20
4.943506528156149
 42
0.006802194800004
  0
LWPOLYLINE
  5
B594
330
B56D
100
AcDbEntity
  8
hyomoji
  6
Continuous
370
    13
100
AcDbPolyline
 90
       23
 70
   129
 43
0.0
 10
-109.4231429740809
 20
6.882717884956718
 42
0.1173827961225227
 10
-108.8350126422351
 20
6.998518263554387
 42
0.1913082464585806
 10
-108.7953116152546
 20
7.039902503188159
 10
-107.9519330850698
 20
9.111683775963001
 42
0.5046897278906438
 10
-107.9716881113106
 20
9.144036257163861
 42
0.0053970181929799
 10
-108.0815331347714
 20
9.152514060678413
 42
0.0031368713999882
 10
-108.1455316208044
 20
9.156812146174615
 42
0.003136871399997
 10
-108.2096530020646
 20
9.160768799436027
 42
0.0031368714000045
 10
-108.2738858168229
 20
9.164383320022579
 42
0.0031368713999919
 10
-108.3382198768724
 20
9.167655262201833
 42
0.0031368714000049
 10
-108.402646267534
 20
9.170583989209717
 42
0.0031368713999963
 10
-108.4671535270758
 20
9.173169055312655
 42
0.0031368714000025
 10
-108.5317321040561
 20
9.175410142129067
 42
0.0031368714000093
 10
-108.5963718102691
 20
9.177306803925603
 42
0.003136871400002
 10
-108.6610624575091
 20
9.178858785996453
 42
0.0031368714000044
 10
-108.7257944943337
 20
9.18006583363649
 42
0.0031368714000004
 10
-108.7905564590121
 20
9.180927755817037
 42
0.0031368713999985
 10
-108.8553388001012
 20
9.181444361509647
 42
0.0031368713999931
 10
-108.9201313293958
 20
9.181615714389863
 42
0.0031368713999985
 10
-108.98492385869
 20
9.181441623429464
 42
0.0023783812883705
 10
-109.0340426873699
 20
9.181122365766441
 42
0.3019404427550624
 10
-109.0555989232341
 20
9.166446722909313
 10
-109.767645508102
 20
7.4172944292402
 42
0.5200087835236676
  0
LWPOLYLINE
  5
B595
330
B56D
100
AcDbEntity
  8
hyomoji
  6
Continuous
370
    13
100
AcDbPolyline
 90
       69
 70
   128
 43
0.0
 10
-99.83752001083463
 20
6.29291573978071
 10
-99.83752001083463
 20
5.575381194890269
 10
-100.3810849683493
 20
5.575381194890269
 10
-100.3810849683493
 20
6.281787728428298
 42
0.8134131176983945
 10
-100.455548825774
 20
6.297275260672904
 10
-100.769415810897
 20
5.575381194890269
 10
-101.1576200999968
 20
5.575381194890269
 10
-100.5509443035839
 20
7.03589334323874
 42
0.534832613937013
 10
-100.5868152422815
 20
7.089636149892385
 10
-101.0680049636264
 20
7.089636149892385
 42
0.5537200791098316
 10
-101.1032359636654
 20
7.034043017295516
 10
-100.8856723246893
 20
6.639085554925031
 10
-101.2351669936095
 20
6.662385730247024
 10
-101.2869971928119
 20
6.778995892082321
 42
0.810044809672172
 10
-101.3905813946451
 20
6.757012486332769
 10
-101.3905813946451
 20
5.575381194890269
 10
-101.8953203747317
 20
5.575381194890269
 10
-101.8953203747317
 20
6.414624213681008
 42
0.8775035382925871
 10
-101.9416452787266
 20
6.420694930355466
 10
-102.0117741193614
 20
6.15771765363479
 10
-102.3225133761698
 20
6.118874928028162
 10
-101.909605046741
 20
7.507745460299247
 42
0.4860089347694501
 10
-101.9475909800196
 20
7.555548834169712
 10
-102.2447745479931
 20
7.555548834169712
 10
-102.2447745479931
 20
7.827331185574394
 10
-101.9339469658978
 20
7.827331185574394
 42
0.4143902720061034
 10
-101.8953203747317
 20
7.866380099852449
 10
-101.8953203747317
 20
8.487374139048597
 10
-101.3905813946451
 20
8.487374139048597
 10
-101.3905813946451
 20
7.866380099852449
 42
0.4174020605283751
 10
-101.3515560309561
 20
7.827331185574394
 10
-101.2543221953897
 20
7.827331185574394
 42
0.2351357873419996
 10
-101.1307401709759
 20
7.889680286716384
 10
-101.1187989158877
 20
7.905032989719074
 10
-101.1187989158877
 20
7.555548834169712
 10
-101.3250916272889
 20
7.555548834169712
 42
0.5903409348321763
 10
-101.3576144516721
 20
7.495842772770402
 10
-101.1859875423436
 20
7.184273741280094
 42
0.7474984379804729
 10
-101.1576255300783
 20
7.193389032087452
 10
-101.1576255300783
 20
7.361418564973064
 10
-100.4196995232653
 20
7.361418564973064
 42
0.4142994654112848
 10
-100.3810849683493
 20
7.400467415574667
 10
-100.3810849683493
 20
7.788727953967963
 42
0.4109416450539159
 10
-100.4196995232653
 20
7.827331185574394
 10
-100.7912990946367
 20
7.827331185574394
 42
-0.3758657869825331
 10
-101.1576255300783
 20
8.09918460794438
 10
-101.1576255300783
 20
8.487374139048597
 10
-100.6528865499915
 20
8.487374139048597
 10
-100.6528865499915
 20
8.137956133917441
 42
0.4142135623730951
 10
-100.6140440167301
 20
8.099113600655527
 10
-100.4199275016105
 20
8.099113600655527
 42
0.4142135623730951
 10
-100.3810849683493
 20
8.137956133917441
 10
-100.3810849683493
 20
8.487374139048597
 10
-99.83752001083463
 20
8.487374139048597
 10
-99.83752001083463
 20
8.137956133917441
 42
0.4142135623730951
 10
-99.79867747757294
 20
8.099113600655527
 10
-99.13863140396074
 20
8.099113600655527
 10
-99.13863140396074
 20
7.827331185574394
 10
-99.79890545591866
 20
7.827331185574394
 42
0.4142994654112848
 10
-99.83752001083463
 20
7.788282334972791
 10
-99.83752001083463
 20
7.400021796579721
 42
0.414127664552564
 10
-99.798482610895
 20
7.361418564973064
 10
-99.13863140396074
 20
7.361418564973064
 10
-99.13863140396074
 20
7.089636149892385
 10
-99.63201946690425
 20
7.089636149892385
 42
0.5442124499672577
 10
-99.66712910962996
 20
7.034687810013565
 10
-99.06095619162488
 20
5.575381194890269
 10
-99.48806833688013
 20
5.575381194890269
 10
-99.76233953213478
 20
6.306771465494875
  0
LWPOLYLINE
  5
B596
330
B56D
100
AcDbEntity
  8
hyomoji
  6
Continuous
370
    13
100
AcDbPolyline
 90
       43
 70
   129
 43
0.0
 10
-97.74087392986144
 20
5.955563778585428
 42
0.4538928057970519
 10
-97.68002238129179
 20
5.900852078569414
 10
-96.92552713035276
 20
6.080493954769508
 10
-96.92552713035276
 20
5.76925577305974
 10
-98.04681412898071
 20
5.614595287471956
 10
-98.82802294777548
 20
5.575534718410835
 10
-98.82802294777548
 20
5.885989651075306
 10
-98.32330116028584
 20
5.885989651075306
 42
0.4142135623730951
 10
-98.28445862702416
 20
5.924832184336764
 10
-98.28445862702416
 20
7.051032918285727
 42
0.4109416450539176
 10
-98.32307318194011
 20
7.089636149892385
 10
-98.82802294777548
 20
7.089636149892385
 10
-98.82802294777548
 20
7.361418564973064
 10
-97.08909590725149
 20
7.361418564973064
 42
0.4890132124780574
 10
-97.01379679493015
 20
7.458208951288725
 10
-97.10002099772488
 20
7.798041312208852
 42
0.3431714260423211
 10
-97.13767055388576
 20
7.827331185574394
 10
-98.82802294777548
 20
7.827331185574394
 10
-98.82802294777548
 20
8.099113600655527
 10
-97.27627109140236
 20
8.099113600655527
 42
0.4890148091784922
 10
-97.20097207755612
 20
8.195904375080544
 10
-97.27492704572979
 20
8.487374139048597
 10
-96.7313603934831
 20
8.487374139048597
 10
-96.64027730647195
 20
8.128403185169645
 42
0.3431692821353876
 10
-96.60262782360156
 20
8.099113600655527
 10
-96.30432359000202
 20
8.099113600655527
 42
0.4142135623730951
 10
-96.22663852347887
 20
8.176798667178672
 10
-96.22663852347887
 20
8.487374139048597
 10
-95.72190018015522
 20
8.487374139048597
 10
-95.72190018015522
 20
8.105346657236623
 42
-0.3824524618302969
 10
-95.9651136815305
 20
7.827331185574394
 10
-96.51379435024182
 20
7.827331185574394
 42
0.4790978957378951
 10
-96.5519720678858
 20
7.780377008076584
 10
-96.07873821551971
 20
5.915279322624883
 42
0.3431699281256741
 10
-96.04108871056588
 20
5.885989651075306
 10
-95.72190018015522
 20
5.885989651075306
 10
-95.72190018015522
 20
5.575322530045923
 10
-96.34468932008145
 20
5.604666366295759
 42
-0.3300656182922443
 10
-96.59543910280399
 20
5.809392782018676
 10
-96.91284524296385
 20
7.060346475641381
 42
0.3431699481782171
 10
-96.95049474860343
 20
7.089636149892385
 10
-97.7022593749457
 20
7.089636149892385
 42
0.4109416450539143
 10
-97.74087392986144
 20
7.051032918285727
  0
LWPOLYLINE
  5
B597
330
B56D
100
AcDbEntity
  8
hyomoji
  6
Continuous
370
    13
100
AcDbPolyline
 90
       21
 70
   128
 43
0.0
 10
-69.43627218490224
 20
8.681543250778531
 10
-69.43627218490224
 20
8.254417828748273
 10
-73.08597964968567
 20
8.254417828748273
 10
-73.08597964968567
 20
8.914499624755535
 10
-69.63040270880378
 20
8.914499624755535
 42
-0.0245951489999901
 10
-69.61133802936365
 20
8.913441706972434
 42
-0.0245951489999939
 10
-69.59245801114708
 20
8.910142001933763
 42
-0.0245951490000111
 10
-69.57394413156362
 20
8.904632411457669
 42
-0.0245951489999948
 10
-69.55597659449745
 20
8.89696623259374
 42
-0.0245951490000167
 10
-69.53872859944067
 20
8.887217584536756
 42
-0.0245951489999851
 10
-69.52236634149494
 20
8.875480644510844
 42
-0.0245951489999982
 10
-69.5070490113701
 20
8.861868883653869
 42
-0.0245951490000079
 10
-69.49292370128296
 20
8.846513920845382
 42
-0.0245951489999929
 10
-69.48012731524318
 20
8.829564185503386
 42
-0.0245951490000121
 10
-69.46878402200468
 20
8.811183516706023
 42
-0.0245951489999839
 10
-69.45900334477688
 20
8.791549634962848
 42
-0.0245951490000097
 10
-69.45087888769717
 20
8.770852295599752
 42
-0.0245951489999972
 10
-69.44449024611959
 20
8.749291633178017
 42
-0.0245951490000035
 10
-69.43989918604052
 20
8.72707599649857
 42
-0.0245951490000047
 10
-69.43714900733311
 20
8.704420229343895
 42
-0.024595148999995
 10
-69.43626772756238
 20
8.681543250778531
  0
LWPOLYLINE
  5
B598
330
B56D
100
AcDbEntity
  8
hyomoji
  6
Continuous
370
    13
100
AcDbPolyline
 90
       21
 70
   128
 43
0.0
 10
-73.39658810587048
 20
6.19659804358389
 10
-69.24457124346441
 20
6.19659804358389
 42
-0.0277241649809473
 10
-69.22307761832303
 20
6.195540125801244
 42
-0.0245951490000116
 10
-69.20419696334374
 20
6.192240420762345
 42
-0.0245951489999535
 10
-69.18568372052323
 20
6.186730893962476
 42
-0.0245951490000357
 10
-69.16771618345683
 20
6.179064715098547
 42
-0.0245951489999617
 10
-69.15046755163712
 20
6.169316003365793
 42
-0.024595149000028
 10
-69.13410593045433
 20
6.157579063339653
 42
-0.0245951489999838
 10
-69.118787963567
 20
6.143967366158904
 42
-0.0245951490000106
 10
-69.10466329024257
 20
6.128612403350189
 42
-0.0245951489999761
 10
-69.09186690420233
 20
6.111662668008193
 42
-0.0245951490000292
 10
-69.08052361096451
 20
6.09328199921083
 42
-0.0245951489999958
 10
-69.07074229697378
 20
6.073648053791202
 42
-0.0245951489999834
 10
-69.06261847665632
 20
6.052950778104786
 42
-0.0245951490000133
 10
-69.05622983507919
 20
6.031390052006599
 42
-0.0245951489999937
 10
-69.05163813823719
 20
6.009174415327379
 42
-0.0245951490001447
 10
-69.04888859629295
 20
5.98651864817225
 42
-0.0188381928052038
 10
-69.04801177386161
 20
5.969001055394301
 10
-69.04801177386161
 20
5.342424884589718
 10
-73.39658810587048
 20
5.342424884589718
 10
-73.39658810587048
 20
6.196636949793855
  0
LWPOLYLINE
  5
B599
330
B56D
100
AcDbEntity
  8
hyomoji
  6
Continuous
370
    13
100
AcDbPolyline
 90
       46
 70
   128
 43
0.0
 10
-79.91946565752278
 20
8.526239086362011
 42
0.0246113600000082
 10
-79.9187754066038
 20
8.503347016517409
 42
0.0246113599999873
 10
-79.91658812624701
 20
8.480676540141303
 42
0.0246113599999939
 10
-79.9129254663892
 20
8.458447149384255
 42
0.0246113600000089
 10
-79.90782308574989
 20
8.436873942734791
 42
0.0246113600000195
 10
-79.90133001506638
 20
8.41616577840341
 42
0.0246113599999893
 10
-79.89350865709798
 20
8.396523109333202
 42
0.0246113599999934
 10
-79.88443542338609
 20
8.378136009231411
 42
0.0246113599999928
 10
-79.87419818720195
 20
8.361182580664262
 42
0.0246113599999958
 10
-79.86289564678577
 20
8.345826790064165
 42
0.0246113600000034
 10
-79.85063732534604
 20
8.332217385229796
 42
0.0246113599999883
 10
-79.83754229753412
 20
8.320486112393155
 42
0.0246113600000125
 10
-79.82373600562937
 20
8.310746442692106
 42
0.0246113599999954
 10
-79.80935408011737
 20
8.303092680703684
 42
0.024611359999985
 10
-79.79453406177071
 20
8.297598945622439
 42
0.024611360000015
 10
-79.77941985899201
 20
8.294318343469058
 42
0.0246113600000176
 10
-79.76415856399717
 20
8.293282712385234
 10
-79.22064009017026
 20
8.293282712385234
 42
-0.4142135623730951
 10
-79.06526995712352
 20
8.137912579338717
 10
-79.06526995712352
 20
7.748711594328597
 42
-0.0244511737842624
 10
-79.07462846058843
 20
7.506115916052522
 42
-0.0245486219999786
 10
-79.10258234927983
 20
7.264898435690156
 42
-0.0245486220000839
 10
-79.14887373424813
 20
7.028349636796065
 42
-0.0245486219998618
 10
-79.21305560797851
 20
6.798747602111006
 42
-0.0245486220001097
 10
-79.29451031051712
 20
6.578303617945721
 42
-0.024548621999966
 10
-79.39245335004329
 20
6.36914058793809
 42
-0.0245486220000008
 10
-79.50594231755395
 20
6.173272847655425
 42
-0.0245486220000017
 10
-79.63388325448909
 20
5.992586807012457
 42
-0.0245486219999997
 10
-79.77504402475346
 20
5.82882254782271
 42
-0.0245486220000006
 10
-79.92806577644433
 20
5.683557204289854
 42
-0.0245486219999995
 10
-80.09147440358743
 20
5.558189680697523
 42
-0.0245486219999993
 10
-80.26369646520402
 20
5.453927406743559
 42
-0.0245486219999995
 10
-80.44307255733224
 20
5.371774493750763
 42
-0.0245486220000024
 10
-80.62787641591103
 20
5.312522119548702
 42
-0.0245486220000146
 10
-80.81632765203995
 20
5.276740887318737
 42
-0.0245738278590478
 10
-81.00680723741584
 20
5.264772738705232
 10
-83.25856148230673
 20
5.264772738705232
 10
-83.25856148230673
 20
5.885989651075306
 10
-81.47239523142502
 20
5.885989651075306
 42
0.4142135623730951
 10
-80.23007092989315
 20
7.128313952606958
 10
-80.23007092989315
 20
7.904857379768827
 42
0.4142135623730951
 10
-80.61849626250978
 20
8.293282712385234
 10
-83.4915179836364
 20
8.293282712385234
 10
-83.4915179836364
 20
8.914499624755535
 10
-79.91946247370856
 20
8.914499624755535
 10
-79.91946247370856
 20
8.526239086362011
  0
LWPOLYLINE
  5
B59A
330
B56D
100
AcDbEntity
  8
hyomoji
  6
Continuous
370
    13
100
AcDbPolyline
 90
       23
 70
   129
 43
0.0
 10
-91.60627971271242
 20
5.575381194890269
 10
-91.60627971271242
 20
6.349339719704175
 42
0.435256697587034
 10
-91.64788966816946
 20
6.388083541980449
 10
-92.14958015254069
 20
6.352248425560446
 10
-91.28410272412839
 20
7.650464568178676
 42
0.5990215383385383
 10
-91.31642166536153
 20
7.710853062262458
 10
-92.07219271537132
 20
7.710853062262458
 10
-92.07219271537132
 20
7.982635413666912
 10
-91.64531711265727
 20
7.982635413666912
 42
0.4141276645926778
 10
-91.60627971271242
 20
8.02123864527357
 10
-91.60627971271242
 20
8.526239086362011
 10
-91.06269565231263
 20
8.526239086362011
 10
-91.06269565231263
 20
8.021684264268515
 42
0.4142994653711661
 10
-91.02408109740213
 20
7.982635413666912
 10
-90.86551748421447
 20
7.982635413666912
 42
-0.5990232472207202
 10
-90.7039233199814
 20
7.680692130354145
 10
-90.88163173258704
 20
7.414132416776737
 42
0.2779035425008352
 10
-90.88608304644868
 20
7.374314542745196
 10
-90.40242475165451
 20
6.50706549938468
 10
-90.9130461012187
 20
6.545888321219763
 10
-90.98992940035373
 20
6.683748944059061
 42
0.7732509487775636
 10
-91.06269565231263
 20
6.664830072530094
 10
-91.06269565231263
 20
5.575381194890269
  0
LWPOLYLINE
  5
B59B
330
B56D
100
AcDbEntity
  8
hyomoji
  6
Continuous
370
    13
100
AcDbPolyline
 90
       22
 70
   129
 43
0.0
 10
-90.67443524127179
 20
5.575381194890269
 10
-90.67443524127179
 20
5.885989651075306
 10
-90.05323488473596
 20
5.885989651075306
 42
0.4142135623730951
 10
-90.01439235147428
 20
5.924832184336764
 10
-90.01439235147428
 20
7.400021796579721
 42
0.4142994653711524
 10
-90.05300690638478
 20
7.439070647181551
 10
-90.48030471737048
 20
7.439070647181551
 10
-90.48030471737048
 20
7.710853062262458
 10
-90.05342975141662
 20
7.710853062262458
 42
0.4141276645726239
 10
-90.01439235147428
 20
7.749456293868661
 10
-90.01439235147428
 20
8.526239086362011
 10
-89.47080765431133
 20
8.526239086362011
 10
-89.47080765431133
 20
7.749901912863606
 42
0.4142994653912224
 10
-89.43219309939832
 20
7.710853062262458
 10
-89.00489528841536
 20
7.710853062262458
 10
-89.00489528841536
 20
7.439070647181551
 10
-89.43177025436671
 20
7.439070647181551
 42
0.4141276645926918
 10
-89.47080765431133
 20
7.400467415574667
 10
-89.47080765431133
 20
5.924832184336764
 42
0.4142135623730951
 10
-89.43196512104988
 20
5.885989651075306
 10
-88.81076476451381
 20
5.885989651075306
 10
-88.81076476451381
 20
5.575381194890269
  0
LWPOLYLINE
  5
B59C
330
B56D
100
AcDbEntity
  8
hyomoji
  6
Continuous
370
    13
100
AcDbPolyline
 90
       24
 70
   129
 43
0.0
 10
-85.58827868192066
 20
5.264772738705232
 10
-88.07305081697496
 20
5.264772738705232
 10
-88.07305081697496
 20
5.885989651075306
 10
-86.17042573669506
 20
5.885989651075306
 42
0.4142135623730951
 10
-84.92810143516363
 20
7.128313952606958
 10
-84.92810143516363
 20
8.060326402084683
 10
-83.88050297316818
 20
8.060326402084683
 42
-0.0257155487687808
 10
-83.86455466869007
 20
8.059188443213088
 42
-0.024549926000034
 10
-83.84947803491854
 20
8.055833594512023
 42
-0.0245499260000084
 10
-83.83469303852871
 20
8.050278093435053
 42
-0.0245499259999808
 10
-83.82034231439524
 20
8.042575491736442
 42
-0.0245499260000123
 10
-83.80656404005618
 20
8.03279990861165
 42
-0.0245499259999841
 10
-83.79349066218059
 20
8.021045521283667
 42
-0.0245499259999858
 10
-83.78124889657465
 20
8.007425546186368
 42
-0.0245499260000007
 10
-83.76995527083863
 20
7.992071156464135
 42
-0.024549925999996
 10
-83.75971994494262
 20
7.975130272125625
 42
-0.02454992599999
 10
-83.75064098036455
 20
7.956766031809593
 42
-0.0245499260000124
 10
-83.74280625037682
 20
7.937155328233757
 42
-0.0245499259999989
 10
-83.73629025623131
 20
7.916487025256401
 42
-0.0245499259999953
 10
-83.73115603744986
 20
7.894960174941388
 42
-0.0245499260000016
 10
-83.72745389829606
 20
7.872782170945811
 42
-0.0245499260000116
 10
-83.72521886072627
 20
7.850166583526288
 42
-0.024673292203941
 10
-83.72447384820317
 20
7.82721638994576
 10
-83.72447384820317
 20
7.128577572422955
 42
-0.4142135623730951
  0
LWPOLYLINE
  5
B59D
330
B56D
100
AcDbEntity
  8
hyomoji
  6
Continuous
370
    13
100
AcDbPolyline
 90
       21
 70
   128
 43
0.0
 10
-85.4328397784875
 20
8.914502872245975
 42
-0.0246113600000175
 10
-85.40994815437693
 20
8.913812430298321
 42
-0.0246113599999931
 10
-85.38727748697169
 20
8.911625340970431
 42
-0.0246113599999957
 10
-85.36504809621442
 20
8.907962808465299
 42
-0.0246113600000006
 10
-85.34347457118384
 20
8.902860173120188
 42
-0.0246113599999799
 10
-85.32276640685267
 20
8.896366911408222
 42
-0.0246113600000132
 10
-85.30312418351604
 20
8.888545871821634
 42
-0.0246113600000103
 10
-85.2847370197378
 20
8.879472765461969
 42
-0.0246113599999903
 10
-85.26778320911352
 20
8.869235338248927
 42
-0.02461135999999
 10
-85.25242767321833
 20
8.857932797832518
 42
-0.0246113599999982
 10
-85.23881814103152
 20
8.845674540069012
 42
-0.0246113600000129
 10
-85.22708705922378
 20
8.832579130199292
 42
-0.024611360000001
 10
-85.21734713481761
 20
8.818773411381471
 42
-0.0246113599999927
 10
-85.20969388223944
 20
8.804390912782764
 42
-0.0246113599999869
 10
-85.2041998924526
 20
8.789571021788788
 42
-0.024611360000012
 10
-85.20091929029922
 20
8.774457073715211
 42
-0.0246113600013111
 10
-85.19988391392121
 20
8.759195396662107
 10
-85.19988391392121
 20
8.254417828748273
 10
-88.07305081697496
 20
8.254417828748273
 10
-88.07305081697496
 20
8.914499624755535
 10
-85.4328397784875
 20
8.914499624755535
  0
LWPOLYLINE
  5
B59E
330
B56D
100
AcDbEntity
  8
hyomoji
  6
Continuous
370
    13
100
AcDbPolyline
 90
        4
 70
   129
 43
0.0
 10
-88.07305081697496
 20
7.128462254672513
 10
-88.07305081697496
 20
7.788505144470263
 10
-85.19988391392121
 20
7.788505144470263
 10
-85.19988391392121
 20
7.128462254672513
  0
LWPOLYLINE
  5
B59F
330
B56D
100
AcDbEntity
  8
hyomoji
  6
Continuous
370
    13
100
AcDbPolyline
 90
       44
 70
   128
 43
0.0
 10
-74.37174773276343
 20
5.963681151450373
 42
0.2129151059966407
 10
-74.40063715169867
 20
5.950794998102537
 42
-0.220358021742929
 10
-75.88149459788451
 20
5.264772738705232
 10
-78.28874849827935
 20
5.264772738705232
 10
-78.28874849827935
 20
5.885989651075306
 10
-76.50273061313964
 20
5.885989651075306
 42
0.0137554371945167
 10
-76.43015365812153
 20
5.888354842969647
 42
0.0137524419998822
 10
-76.35779511275882
 20
5.895394574551119
 42
0.0137524420004598
 10
-76.28587593375232
 20
5.907103879070064
 42
0.013752441999331
 10
-76.21461262047751
 20
5.923447225158724
 42
0.0137524420003075
 10
-76.1442203987633
 20
5.944375263699384
 42
0.0137524420000012
 10
-76.07491258416757
 20
5.969824636787052
 42
0.0137524419999966
 10
-76.00689930842668
 20
5.999718359795224
 42
0.0137524419999995
 10
-75.94038560917443
 20
6.033966076077376
 42
0.0137524420000046
 10
-75.87557334023177
 20
6.072464056966282
 42
0.0137524419999986
 10
-75.81265798779054
 20
6.115095965890532
 42
0.0137524419999979
 10
-75.75182994394026
 20
6.161732858375899
 42
0.0137524419999975
 10
-75.6932732331411
 20
6.212233564100188
 42
0.013752441999999
 10
-75.63716551222615
 20
6.266445323658217
 42
0.0137524419999975
 10
-75.58367552334766
 20
6.324204234294484
 42
0.0137524420000003
 10
-75.53296564103016
 20
6.385335568285654
 42
0.0138047286378086
 10
-75.48501449973173
 20
6.449903806133306
 42
0.4326750878113178
 10
-75.5081279300357
 20
6.560768619332975
 10
-76.01857653173261
 20
6.872710173877521
 42
0.1380038353994479
 10
-76.09959442946615
 20
6.895505880695736
 10
-77.04629557065437
 20
6.895505880695736
 10
-77.04629557065437
 20
7.462633158448625
 42
0.483124814362098
 10
-77.0937344731376
 20
7.500715229543402
 10
-77.39202878477204
 20
7.401283899550207
 42
-0.080611490271625
 10
-77.63769029675723
 20
7.361418564973064
 10
-78.44405304475367
 20
7.361418564973064
 10
-78.44405304475367
 20
7.982635413666912
 10
-78.0728225926191
 20
7.982635413666912
 42
0.2403459008079929
 10
-77.94703331635242
 20
8.046808308710978
 10
-77.36448237994363
 20
8.850326729711241
 42
-0.2403459008079905
 10
-77.23869310367695
 20
8.914499624755535
 10
-74.33052273826319
 20
8.914499624755535
 42
-0.4142866644357847
 10
-73.94017216627048
 20
8.528231708575958
 10
-73.94017216627048
 20
7.20040165387104
 42
-0.073920925025852
 10
-74.02577777181159
 20
6.635956043364558
 42
0.5098120014094599
 10
-73.98913988271079
 20
6.584897488186925
 10
-73.86252021141467
 20
6.584897488186925
 10
-73.86252021141467
 20
5.963641733283566
 10
-74.37174773276343
 20
5.963641733283566
  0
LWPOLYLINE
  5
B5A0
330
B56D
100
AcDbEntity
  8
hyomoji
  6
Continuous
370
    13
100
AcDbPolyline
 90
        8
 70
   129
 43
0.0
 10
-79.64764688328364
 20
8.487374139048597
 42
-0.4142135623730951
 10
-79.72533194980655
 20
8.565059205571969
 10
-79.72533194980655
 20
9.069770868532941
 42
-0.4142135623730951
 10
-79.64764688328364
 20
9.147455935055859
 10
-79.14295502364712
 20
9.147455935055859
 42
-0.4142135623730951
 10
-79.06526995712352
 20
9.069770868532941
 10
-79.06526995712352
 20
8.565059205571969
 42
-0.4142135623730951
 10
-79.14295502364712
 20
8.487374139048597
  0
LWPOLYLINE
  5
B5A1
330
B56D
100
AcDbEntity
  8
hyomoji
  6
Continuous
370
    13
100
AcDbPolyline
 90
        8
 70
   129
 43
0.0
 10
-78.75462838927091
 20
8.487374139048597
 42
-0.4142135623730951
 10
-78.83231345579407
 20
8.565059205571969
 10
-78.83231345579407
 20
9.069770868532941
 42
-0.4142135623730951
 10
-78.75462838927091
 20
9.147455935055859
 10
-78.24993652963439
 20
9.147455935055859
 42
-0.4142135623730951
 10
-78.17225146311102
 20
9.069770868532941
 10
-78.17225146311102
 20
8.565059205571969
 42
-0.4142135623730951
 10
-78.24993652963439
 20
8.487374139048597
  0
LWPOLYLINE
  5
B5A2
330
B56D
100
AcDbEntity
  8
hyomoji
  6
Continuous
370
    13
100
AcDbPolyline
 90
       26
 70
   129
 43
0.0
 10
-75.25867901228753
 20
7.136315150465861
 10
-75.84386225628009
 20
7.493927168456366
 42
0.1380035768931157
 10
-75.92488001949027
 20
7.51672279306581
 10
-76.91275368502374
 20
7.51672279306581
 42
-0.5877959702502288
 10
-76.9454333722108
 20
7.576180874061492
 10
-76.47548726699483
 20
8.22438360138949
 42
-0.2488102192010769
 10
-76.3472702891056
 20
8.293282712385234
 10
-75.33876402902683
 20
8.293282712385234
 42
-0.4141055155693935
 10
-75.1826257306584
 20
8.138870166012111
 10
-75.1826257306584
 20
7.439070647185872
 42
-0.0027675332005429
 10
-75.18270659953964
 20
7.421878432550101
 42
-0.0027675332004465
 10
-75.18294920618155
 20
7.404688319233173
 42
-0.0027675331990674
 10
-75.18335355058525
 20
7.387502408559157
 42
-0.0027675332013063
 10
-75.1839196327503
 20
7.370322801823249
 42
-0.0027675331985318
 10
-75.1846474526767
 20
7.353151600374303
 42
-0.0027675332011082
 10
-75.18553637360196
 20
7.335990969172598
 42
-0.0027675332007225
 10
-75.18658703228926
 20
7.318842945877122
 42
-0.0027675331990705
 10
-75.18779879197359
 20
7.301709695490217
 42
-0.0027675331994759
 10
-75.18917228942019
 20
7.284593191963267
 42
-0.0027675332004882
 10
-75.19070625110271
 20
7.267495727639243
 42
-0.0027675331980648
 10
-75.19240067701957
 20
7.250419212827409
 42
-0.0027675332032427
 10
-75.19425620393872
 20
7.233365876150855
 42
-0.0027675331997779
 10
-75.19627219509129
 20
7.216337691627813
 42
-0.0027675331988507
 10
-75.19844801371573
 20
7.199336824236979
 42
-0.0027675331998305
 10
-75.20078365981408
 20
7.182365311606417
 42
-0.0029245593357009
 10
-75.20342566968747
 20
7.164465011015636
 42
-0.498504514683721
  0
LINE
  5
B5A3
330
B56D
100
AcDbEntity
  8
hyosen2
  6
Continuous
370
    40
100
AcDbLine
 10
-99.00000000000023
 20
25.0
 30
0.0
 11
-99.00000000000023
 21
14.0
 31
0.0
  0
LINE
  5
B5A4
330
B56D
100
AcDbEntity
  8
AM_2
100
AcDbLine
 10
-115.0000000000004
 20
20.5
 30
0.0
 11
-68.0
 21
20.49999999999977
 31
0.0
  0
TEXT
  5
B5A5
330
B56D
100
AcDbEntity
  8
hyomoji
  6
Continuous
100
AcDbText
 10
-108.80846541418
 20
21.23246297775404
 30
0.0
 40
3.0
  1
尺度
 41
0.7
 72
     4
 11
-106.5684654141801
 21
22.73246297775404
 31
0.0
100
AcDbText
  0
TEXT
  5
B5A6
330
B56D
100
AcDbEntity
  8
hyomoji
  6
Continuous
100
AcDbText
 10
-79.51999999999999
 20
21.25
 30
0.0
 40
3.0
  1
投影法
 41
0.7
 72
     4
 11
-76.0
 21
22.75
 31
0.0
100
AcDbText
  0
LINE
  5
B5A7
330
B56D
100
AcDbEntity
  8
hyosen2
  6
Continuous
370
    40
100
AcDbLine
 10
-84.0
 20
25.0
 30
0.0
 11
-84.0
 21
14.0
 31
0.0
  0
TEXT
  5
B5A8
330
B56D
100
AcDbEntity
  8
hyomoji
  6
Continuous
100
AcDbText
 10
-95.14000000000022
 20
21.15
 30
0.0
 40
3.0
  1
サイズ
 41
0.7
 72
     4
 11
-91.50000000000023
 21
22.75
 31
0.0
100
AcDbText
  0
CIRCLE
  5
B5A9
330
B56D
100
AcDbEntity
  8
AM_0
370
    25
100
AcDbCircle
 10
-79.26619211742923
 20
17.25
 30
0.0
 40
1.25
  0
CIRCLE
  5
B5AA
330
B56D
100
AcDbEntity
  8
AM_0
370
    25
100
AcDbCircle
 10
-79.26619211742923
 20
17.25
 30
0.0
 40
1.9
  0
LINE
  5
B5AB
330
B56D
100
AcDbEntity
  8
AM_0
370
    25
100
AcDbLine
 10
-75.56619211742918
 20
18.5
 30
0.0
 11
-75.56619211742918
 21
16.0
 31
0.0
  0
LINE
  5
B5AC
330
B56D
100
AcDbEntity
  8
AM_0
370
    25
100
AcDbLine
 10
-75.56619211742918
 20
16.0
 30
0.0
 11
-71.56619211742918
 21
15.34999999999991
 31
0.0
  0
LINE
  5
B5AD
330
B56D
100
AcDbEntity
  8
AM_0
370
    25
100
AcDbLine
 10
-71.56619211742918
 20
15.34999999999991
 30
0.0
 11
-71.56619211742918
 21
19.14999999999986
 31
0.0
  0
LINE
  5
B5AE
330
B56D
100
AcDbEntity
  8
AM_0
370
    25
100
AcDbLine
 10
-71.56619211742918
 20
19.14999999999986
 30
0.0
 11
-75.56619211742918
 21
18.5
 31
0.0
  0
LINE
  5
B5AF
330
B56D
100
AcDbEntity
  8
AM_2
370
     9
100
AcDbLine
 10
-73.76970082765684
 20
17.25
 30
0.0
 11
-73.03098608735286
 21
17.25
 31
0.0
  0
LINE
  5
B5B0
330
B56D
100
AcDbEntity
  8
AM_2
370
     9
100
AcDbLine
 10
-70.28729095201743
 20
17.25
 30
0.0
 11
-72.34381719255157
 21
17.25
 31
0.0
  0
LINE
  5
B5B1
330
B56D
100
AcDbEntity
  8
AM_2
370
     9
100
AcDbLine
 10
-79.6355494875811
 20
17.25
 30
0.0
 11
-78.89683474727712
 21
17.25
 31
0.0
  0
LINE
  5
B5B2
330
B56D
100
AcDbEntity
  8
AM_2
370
     9
100
AcDbLine
 10
-74.45686972245835
 20
17.25
 30
0.0
 11
-78.20966585247584
 21
17.25
 31
0.0
  0
LINE
  5
B5B3
330
B56D
100
AcDbEntity
  8
AM_2
370
     9
100
AcDbLine
 10
-79.26619211742923
 20
16.8806426298479
 30
0.0
 11
-79.26619211742923
 21
17.6193573701521
 31
0.0
  0
LINE
  5
B5B4
330
B56D
100
AcDbEntity
  8
AM_2
370
     9
100
AcDbLine
 10
-79.26619211742923
 20
20.10439489183659
 30
0.0
 11
-79.26619211742923
 21
18.30652626495339
 31
0.0
  0
LINE
  5
B5B5
330
B56D
100
AcDbEntity
  8
AM_2
370
     9
100
AcDbLine
 10
-79.26619211743013
 20
14.39560510816341
 30
0.0
 11
-79.26619211742945
 21
16.19347373504638
 31
0.0
  0
LINE
  5
B5B6
330
B56D
100
AcDbEntity
  8
AM_2
370
     9
100
AcDbLine
 10
-82.12058700926581
 20
17.25000000000045
 30
0.0
 11
-80.32271838238262
 21
17.25
 31
0.0
  0
LINE
  5
B5B7
330
B56D
100
AcDbEntity
  8
AM_2
100
AcDbLine
 10
-162.0000000000009
 20
19.49999999999977
 30
0.0
 11
-115.0000000000011
 21
19.49999999999977
 31
0.0
  0
TEXT
  5
B5B8
330
B56D
100
AcDbEntity
  8
hyomoji
  6
Continuous
100
AcDbText
 10
-158.8197690813725
 20
20.74999999999954
 30
0.0
 40
3.0
  1
作成日
 41
0.7
 72
     4
 11
-155.4597690813725
 21
22.24999999999955
 31
0.0
100
AcDbText
  0
LINE
  5
B5B9
330
B56D
100
AcDbEntity
  8
hyosen2
  6
Continuous
100
AcDbLine
 10
-150.0000000000002
 20
24.99999999999977
 30
0.0
 11
-150.0000000000002
 21
14.0
 31
0.0
  0
TEXT
  5
B5BA
330
B56D
100
AcDbEntity
  8
hyomoji
  6
Continuous
100
AcDbText
 10
-158.8197690813725
 20
15.25
 30
0.0
 40
3.0
  1
更新日
 41
0.7
 72
     4
 11
-155.4597690813725
 21
16.75
 31
0.0
100
AcDbText
  0
LWPOLYLINE
  5
B5BB
330
B56D
100
AcDbEntity
  8
hyosen2
100
AcDbPolyline
 90
        3
 70
     1
 43
0.0
 10
-144.104867507461
 20
19.44306130048881
 10
-146.8328475293819
 20
14.7180613004889
 10
-141.37688748554
 20
14.7180613004889
  0
ATTDEF
  5
B5BC
330
B56D
100
AcDbEntity
  8
hyomoji
100
AcDbText
 10
-39.49999999999988
 20
1.5
 30
0.0
 40
4.0
  1

 41
0.7
 72
     1
 11
-39.49999999999988
 21
3.5
 31
0.0
100
AcDbAttributeDefinition
  3
図番
  2
XXX000000-00-00
 70
     0
 74
     2
1001
AcDbAttr
1070
     0
1070
     1
  0
ATTDEF
  5
B5BD
330
B56D
100
AcDbEntity
  8
hyomoji
100
AcDbText
 10
-31.49999999999977
 20
19.50000000000057
 30
0.0
 40
4.0
  1

 41
0.7
 72
     1
 11
-31.49999999999977
 21
21.50000000000057
 31
0.0
100
AcDbAttributeDefinition
  3
品名
  2
品名
 70
     0
 74
     2
1001
AcDbAttr
1070
     0
1070
     1
  0
ATTDEF
  5
B5BE
330
B56D
100
AcDbEntity
  8
hyomoji
100
AcDbText
 10
-121.0000000000003
 20
3.0
 30
0.0
 40
3.5
  1

 41
0.7
 72
     1
 11
-121.0000000000003
 21
4.75
 31
0.0
100
AcDbAttributeDefinition
  3
作成
  2
作成
 70
     0
 74
     2
1001
AcDbAttr
1070
     0
1070
     1
  0
ATTDEF
  5
B5BF
330
B56D
100
AcDbEntity
  8
hyomoji
100
AcDbText
 10
-133.0000000000001
 20
3.0
 30
0.0
 40
3.5
  1

 41
0.7
 72
     1
 11
-133.0000000000001
 21
4.75
 31
0.0
100
AcDbAttributeDefinition
  3
確認1
  2
確認1
 70
     0
 74
     2
1001
AcDbAttr
1070
     0
1070
     1
  0
ATTDEF
  5
B5C0
330
B56D
100
AcDbEntity
  8
hyomoji
100
AcDbText
 10
-144.0000000000007
 20
3.0
 30
0.0
 40
3.5
  1

 41
0.7
 72
     1
 11
-144.0000000000007
 21
4.75
 31
0.0
100
AcDbAttributeDefinition
  3
確認2
  2
確認2
 70
     0
 74
     2
1001
AcDbAttr
1070
     0
1070
     1
  0
ATTDEF
  5
B5C1
330
B56D
100
AcDbEntity
  8
hyomoji
100
AcDbText
 10
-156.0000000000004
 20
3.0
 30
0.0
 40
3.5
  1

 41
0.7
 72
     1
 11
-156.0000000000004
 21
4.75
 31
0.0
100
AcDbAttributeDefinition
  3
承認
  2
承認
 70
     0
 74
     2
1001
AcDbAttr
1070
     0
1070
     1
  0
ATTDEF
  5
B5C2
330
B56D
100
AcDbEntity
  8
hyomoji
100
AcDbText
 10
-107.0000000000003
 20
15.25
 30
0.0
 40
4.0
  1

 41
0.7
 72
     1
 11
-107.0000000000003
 21
17.25
 31
0.0
100
AcDbAttributeDefinition
  3
尺度
  2
1:1
 70
     0
 74
     2
1001
AcDbAttr
1070
     0
1070
     1
  0
ATTDEF
  5
B5C3
330
B56D
100
AcDbEntity
  8
hyomoji
100
AcDbText
 10
-127.0214335782293
 20
20.75000000000001
 30
0.0
 40
3.0
  1

 41
0.7
 72
     1
 11
-127.0214335782293
 21
22.25000000000001
 31
0.0
100
AcDbAttributeDefinition
  3
作成日
  2
2011.01.01
 70
     0
 74
     2
1001
AcDbAttr
1070
     0
1070
     1
  0
ATTDEF
  5
B5C4
330
B56D
100
AcDbEntity
  8
hyomoji
100
AcDbText
 10
-144.2211531119989
 20
15.20883785860056
 30
0.0
 40
2.0
  1

 41
0.7
 72
     1
 11
-144.2211531119989
 21
16.20883785860056
 31
0.0
100
AcDbAttributeDefinition
  3
△
  2
1
 70
     0
 74
     2
1001
AcDbAttr
1070
     0
1070
     1
  0
ATTDEF
  5
B5C5
330
B56D
100
AcDbEntity
  8
hyomoji
100
AcDbText
 10
-127.0214335782293
 20
15.24999999999988
 30
0.0
 40
3.0
  1

 41
0.7
 72
     1
 11
-127.0214335782293
 21
16.74999999999988
 31
0.0
100
AcDbAttributeDefinition
  3
更新日
  2
2011.01.10
 70
     0
 74
     2
1001
AcDbAttr
1070
     0
1070
     1
  0
ATTDEF
  5
B5C6
330
B56D
100
AcDbEntity
  8
hyomoji
100
AcDbText
 10
-5.5
 20
1.5
 30
0.0
 40
4.0
  1

 41
0.7
 72
     1
 11
-5.5
 21
3.5
 31
0.0
100
AcDbAttributeDefinition
  3
図面枚数
  2
10
 70
     0
 74
     2
1001
AcDbAttr
1070
     0
1070
     1
  0
ATTDEF
  5
B5C7
330
B56D
100
AcDbEntity
  8
hyomoji
100
AcDbText
 10
-31.49999999999989
 20
8.5
 30
0.0
 40
4.0
  1

 41
0.7
 72
     1
 11
-31.49999999999989
 21
10.5
 31
0.0
100
AcDbAttributeDefinition
  3
品番
  2
品番
 70
     0
 74
     2
1001
AcDbAttr
1070
     0
1070
     1
  0
ATTDEF
  5
B5C8
330
B56D
100
AcDbEntity
  8
hyomoji
100
AcDbText
 10
-31.49999999999989
 20
14.5
 30
0.0
 40
3.0
  1

 41
0.7
 72
     1
 11
-31.49999999999989
 21
16.0
 31
0.0
100
AcDbAttributeDefinition
  3
現場名／部品名
  2
現場名／部品名
 70
     0
 74
     2
1001
AcDbAttr
1070
     0
1070
     1
  0
LWPOLYLINE
  5
B5C9
330
B56D
100
AcDbEntity
  8
hyomoji
370
    13
100
AcDbPolyline
 90
        4
 70
     0
 43
0.0
 10
-99.83752001083463
 20
6.29291573978071
 10
-99.83752001083463
 20
6.29291573978071
 42
-0.8325418257633174
 10
-99.76233953213478
 20
6.306771465494875
 10
-99.76233953221193
 20
6.306771465700609
  0
HATCH
  5
B5CA
330
B56D
100
AcDbEntity
  8
hyomoji
 62
     2
100
AcDbHatch
 10
0.0
 20
0.0
 30
0.0
210
0.0
220
0.0
230
1.0
  2
SOLID
 70
     1
 71
     0
 91
       22
 92
        7
 72
     1
 73
     1
 93
       69
 10
-99.66712910962996
 20
7.034687810013565
 42
-0.5477467214253072
 10
-99.63159662188036
 20
7.089636149892385
 42
0.0
 10
-99.13863140396076
 20
7.089636149892386
 42
0.0
 10
-99.13863140396074
 20
7.361418564973064
 42
0.0
 10
-99.798482610895
 20
7.361418564973064
 42
-0.4174930671450113
 10
-99.83752001083463
 20
7.400467415575721
 42
0.0
 10
-99.83752001083463
 20
7.788282334972791
 42
-0.4174930671373219
 10
-99.79848261089498
 20
7.827331185574394
 42
0.0
 10
-99.13863140396074
 20
7.827331185574394
 42
0.0
 10
-99.13863140396074
 20
8.099113600655527
 42
0.0
 10
-99.79867747757294
 20
8.099113600655527
 42
-0.4142135623730951
 10
-99.83752001083463
 20
8.137956133917441
 42
0.0
 10
-99.83752001083463
 20
8.487374139048597
 42
0.0
 10
-100.3810849683493
 20
8.487374139048597
 42
0.0
 10
-100.3810849683493
 20
8.137956133917441
 42
-0.4142135623730951
 10
-100.4199275016105
 20
8.099113600655527
 42
0.0
 10
-100.6140440167301
 20
8.099113600655527
 42
-0.4142135623730951
 10
-100.6528865499915
 20
8.137956133917441
 42
0.0
 10
-100.6528865499915
 20
8.487374139048599
 42
0.0
 10
-101.1576255300783
 20
8.487374139048597
 42
0.0
 10
-101.1576255300783
 20
8.09918460794438
 42
0.3758657869825331
 10
-100.7912990946367
 20
7.827331185574394
 42
0.0
 10
-100.4201223682888
 20
7.827331185574394
 42
-0.4174930671349326
 10
-100.3810849683493
 20
7.78828233497312
 42
0.0
 10
-100.3810849683493
 20
7.400467415574667
 42
-0.4174930671373219
 10
-100.420122368289
 20
7.361418564973064
 42
0.0
 10
-101.1576255300783
 20
7.361418564973064
 42
0.0
 10
-101.1576255300783
 20
7.193389032087452
 42
-0.8238804307606034
 10
-101.1874012419666
 20
7.186840151314986
 42
0.0
 10
-101.3576144516721
 20
7.495842772770402
 42
-0.5940183717981689
 10
-101.3246687822654
 20
7.555548834169712
 42
0.0
 10
-101.1187989158877
 20
7.555548834169711
 42
0.0
 10
-101.1187989158877
 20
7.905032989719074
 42
0.0
 10
-101.1307401709759
 20
7.889680286716384
 42
-0.2379723849506233
 10
-101.2559909727038
 20
7.827331185574394
 42
0.0
 10
-101.3515560309561
 20
7.827331185574394
 42
-0.4174020605283751
 10
-101.3905813946451
 20
7.866380099852449
 42
0.0
 10
-101.3905813946451
 20
8.487374139048597
 42
0.0
 10
-101.8953203747317
 20
8.487374139048597
 42
0.0
 10
-101.8953203747317
 20
7.866380099852449
 42
-0.4174020605319965
 10
-101.9343457384211
 20
7.827331185574394
 42
0.0
 10
-102.2447745479931
 20
7.827331185574394
 42
0.0
 10
-102.2447745479931
 20
7.555548834169712
 42
0.0
 10
-101.9475909800196
 20
7.555548834169712
 42
-0.5208861567097101
 10
-101.9108358556884
 20
7.503605475329121
 42
0.0
 10
-102.3225133761698
 20
6.118874928028161
 42
0.0
 10
-102.0117741193614
 20
6.157717653634789
 42
0.0
 10
-101.9416452787266
 20
6.420694930355466
 42
-0.8775035382925878
 10
-101.8953203747317
 20
6.414624213681008
 42
0.0
 10
-101.8953203747317
 20
5.57538119489027
 42
0.0
 10
-101.3905813946451
 20
5.575381194890269
 42
0.0
 10
-101.3905813946451
 20
6.757012486332769
 42
-0.8100448096721718
 10
-101.2869971928119
 20
6.778995892082321
 42
0.0
 10
-101.2351669936095
 20
6.662385730247023
 42
0.0
 10
-100.8856723246893
 20
6.639085554925033
 42
0.0
 10
-101.1011029739708
 20
7.030170861998884
 42
-0.5915391543358812
 10
-101.0680049636264
 20
7.089636149892385
 42
0.0
 10
-100.5868152422815
 20
7.089636149892385
 42
-0.534832613937013
 10
-100.5509443035839
 20
7.03589334323874
 42
0.0
 10
-101.1576200999968
 20
5.575381194890269
 42
0.0
 10
-100.769415810897
 20
5.575381194890269
 42
0.0
 10
-100.455548825774
 20
6.297275260672904
 42
-0.8134131176983947
 10
-100.3810849683493
 20
6.281787728428298
 42
0.0
 10
-100.3810849683493
 20
5.57538119489027
 42
0.0
 10
-99.83752001083463
 20
5.575381194890268
 42
0.0
 10
-99.83752001083463
 20
6.29291573978071
 42
-0.8374112775618954
 10
-99.76218291124329
 20
6.306353809546367
 42
0.0
 10
-99.48806833688013
 20
5.575381194890269
 42
0.0
 10
-99.06095619162488
 20
5.575381194890269
 42
0.0
 97
        0
 92
        7
 72
     1
 73
     1
 93
       23
 10
-113.0029292479371
 20
7.416268145310141
 42
-0.1957419841521856
 10
-113.0029276888965
 20
7.767750618383161
 42
0.0
 10
-112.7323557985662
 20
8.432405278217402
 42
0.6213425724569267
 10
-112.7650957515457
 20
8.459104097606996
 42
0.0223985860000949
 10
-113.0542784116799
 20
8.305810639210903
 42
0.0223985859999093
 10
-113.3100201977245
 20
8.142141767095154
 42
0.0223985859999842
 10
-113.5302700965744
 20
7.969410104177995
 42
0.0223985860000033
 10
-113.7132623648729
 20
7.789000736989009
 42
0.0223985859999945
 10
-113.8575286275093
 20
7.602360390702187
 42
0.0223985860000046
 10
-113.9619125231659
 20
7.410985776373763
 42
0.0223985860000012
 10
-114.0255773454698
 20
7.216411492448287
 42
0.0223985859999998
 10
-114.0480117738614
 20
7.020197926266973
 42
0.0223985859999993
 10
-114.029036877982
 20
6.823918455131661
 42
0.0223985859999987
 10
-113.968803570624
 20
6.629147156783574
 42
0.0223985859999964
 10
-113.8677964283099
 20
6.437445819441563
 42
0.0223985860000002
 10
-113.7268241398469
 20
6.250351779631046
 42
0.0223985860000053
 10
-113.5470175960388
 20
6.069365314279821
 42
0.0223985860000067
 10
-113.3298184279569
 20
5.895937796930184
 42
0.0223985860000024
 10
-113.0769694554942
 20
5.731459981301895
 42
0.0220669162099173
 10
-112.7948354676327
 20
5.579344997231373
 42
0.4330144820686967
 10
-112.7627586028536
 20
5.591673044677008
 42
0.0
 10
-112.5949318145867
 20
6.003944023309486
 42
0.1957402929298021
 10
-112.5949313315429
 20
6.414003627072816
 42
0.0
 97
        0
 92
        7
 72
     1
 73
     1
 93
       46
 10
-109.0305054224016
 20
6.462145869264986
 42
0.6036079430413214
 10
-109.057350599905
 20
6.494047360847616
 42
-0.0968770041122301
 10
-110.2622835208153
 20
6.467861583611238
 42
-0.4787358622778684
 10
-110.8492829567522
 20
7.526226966682088
 42
0.0
 10
-110.2098189151504
 20
9.097085087812047
 42
0.5685357036715338
 10
-110.2342375268879
 20
9.129384786912851
 42
0.0037682570573848
 10
-110.3092103627439
 20
9.120496988302875
 42
0.003796761400007
 10
-110.3844216056329
 20
9.111059971979784
 42
0.0037967614000019
 10
-110.4592877230613
 20
9.101138888545392
 42
0.0037967614000093
 10
-110.5337902489084
 20
9.090735902993856
 42
0.0037967613999978
 10
-110.6079119905773
 20
9.079853435023323
 42
0.0037967614000032
 10
-110.6816363922337
 20
9.068494095361756
 42
0.0037967614000015
 10
-110.754946261281
 20
9.056660431060208
 42
0.0037967613999987
 10
-110.827825041885
 20
9.044355180199318
 42
0.0037967613999957
 10
-110.9002549046868
 20
9.031581208211719
 42
0.0037967613999885
 10
-110.972219930615
 20
9.018341444206271
 42
0.0037967613999968
 10
-111.0437035638358
 20
9.004638880968059
 42
0.003796761399993
 10
-111.1146886117533
 20
8.990476765988205
 42
0.0037967614000086
 10
-111.1851597920581
 20
8.975858346757149
 42
0.0037967614000003
 10
-111.255099912154
 20
8.96078693444133
 42
0.0037967613999995
 10
-111.3244930529702
 20
8.945266094912994
 42
0.0038055234898924
 10
-111.3934824936702
 20
8.929261274685359
 42
0.2417074229057139
 10
-111.4098051015228
 20
8.915234771530322
 42
0.0
 10
-111.8650382388573
 20
7.796940065814169
 42
0.1957404060663562
 10
-111.865038329053
 20
7.386880242530423
 42
0.0
 10
-111.4689880787043
 20
6.41396895865364
 42
-0.1957405476044069
 10
-111.4689882806954
 20
6.00390886074274
 42
0.0
 10
-111.7862250935463
 20
5.224607739534121
 42
0.4443455524912627
 10
-111.7710237743845
 20
5.193113677398741
 42
0.0067708198256604
 10
-111.6540216434309
 20
5.1605708935449
 42
0.0067740668000073
 10
-111.5349304364506
 20
5.129370851569774
 42
0.0067740668000071
 10
-111.4138932822307
 20
5.099552967015597
 42
0.0067740668000066
 10
-111.2909986908046
 20
5.07113908084807
 42
0.0067740667999989
 10
-111.1663370824974
 20
5.044150015212153
 42
0.0067740668000009
 10
-111.0400001511566
 20
5.018605637108294
 42
0.0067740668000062
 10
-110.9120802273951
 20
4.99452466736443
 42
0.0067740668000053
 10
-110.7826715521128
 20
4.971924807987306
 42
0.0067740668000071
 10
-110.6518690029729
 20
4.950822678486701
 42
0.0067740668000022
 10
-110.519768731164
 20
4.931233688523661
 42
0.0067740668000082
 10
-110.3864681614013
 20
4.913172228938265
 42
0.0067740667999966
 10
-110.2520640816365
 20
4.896651608074307
 42
0.00677406679999
 10
-110.1166558268724
 20
4.881683988101485
 42
0.0067740668000013
 10
-109.9803427321119
 20
4.868280257664764
 42
0.0067740668000002
 10
-109.8432247691212
 20
4.856450350263912
 42
0.0067636405007582
 10
-109.705614869343
 20
4.846215763771624
 42
0.3216815158956167
 10
-109.6823639763015
 20
4.860849479223816
 42
0.0
 97
        0
 92
        7
 72
     1
 73
     1
 93
       23
 10
-107.9519330850698
 20
9.111683775963001
 42
0.5046897278906437
 10
-107.9716881113106
 20
9.144036257163861
 42
0.0053970181929799
 10
-108.0815331347714
 20
9.152514060678413
 42
0.0031368713999882
 10
-108.1455316208044
 20
9.156812146174615
 42
0.003136871399997
 10
-108.2096530020646
 20
9.160768799436027
 42
0.0031368714000045
 10
-108.2738858168229
 20
9.164383320022579
 42
0.0031368713999919
 10
-108.3382198768724
 20
9.167655262201833
 42
0.0031368714000049
 10
-108.402646267534
 20
9.170583989209717
 42
0.0031368713999963
 10
-108.4671535270758
 20
9.173169055312655
 42
0.0031368714000025
 10
-108.5317321040561
 20
9.175410142129067
 42
0.0031368714000093
 10
-108.5963718102691
 20
9.177306803925603
 42
0.003136871400002
 10
-108.6610624575091
 20
9.178858785996453
 42
0.0031368714000044
 10
-108.7257944943337
 20
9.18006583363649
 42
0.0031368714000004
 10
-108.7905564590121
 20
9.180927755817037
 42
0.0031368713999985
 10
-108.8553388001012
 20
9.181444361509647
 42
0.0031368713999931
 10
-108.9201313293958
 20
9.181615714389863
 42
0.0031368713999985
 10
-108.98492385869
 20
9.181441623429464
 42
0.0023783812883705
 10
-109.0340426873699
 20
9.181122365766441
 42
0.3019404427550625
 10
-109.0555989232341
 20
9.166446722909313
 42
0.0
 10
-109.767645508102
 20
7.4172944292402
 42
0.5200087835236676
 10
-109.4231429740809
 20
6.882717884956718
 42
0.1173827961225227
 10
-108.8350126422351
 20
6.998518263554387
 42
0.1913082464585806
 10
-108.7953116152546
 20
7.039902503188159
 42
0.0
 97
        0
 92
        7
 72
     1
 73
     1
 93
       42
 10
-105.9412231671285
 20
6.181086424920977
 42
0.1957413290603471
 10
-105.941223786604
 20
6.601231521413183
 42
0.0
 10
-106.3352129692118
 20
7.569070096907807
 42
-0.1957413474957244
 10
-106.3352135592583
 20
7.979131746854136
 42
0.0
 10
-105.9993061639691
 20
8.804298600408856
 42
0.4460668776922763
 10
-106.0146375343697
 20
8.835830324484732
 42
0.0028283786038634
 10
-106.0633916340969
 20
8.849503076646669
 42
0.0028494113000101
 10
-106.1128738376581
 20
8.863040909337769
 42
0.0028494112999968
 10
-106.1627164489871
 20
8.876338300380666
 42
0.0028494113000006
 10
-106.2129124636919
 20
8.889393466838782
 42
0.0028494113000024
 10
-106.2634555141451
 20
8.902204753128671
 42
0.002849411299989
 10
-106.3143385959552
 20
8.914770503667796
 42
0.0028494113000037
 10
-106.3655559782564
 20
8.927089062872255
 42
0.0028494112999894
 10
-106.4171000198944
 20
8.939158838834828
 42
0.0028494113000082
 10
-106.4689649900042
 20
8.950978239648975
 42
0.0028494112999955
 10
-106.5211432474314
 20
8.962545800759244
 42
0.0028494113000056
 10
-106.5736290613101
 20
8.973859930259095
 42
0.0028494113000083
 10
-106.6264147904874
 20
8.984919290946663
 42
0.0028494112999919
 10
-106.6794934305705
 20
8.9957222909145
 42
0.0028494112999998
 10
-106.7328586139322
 20
9.006267592961194
 42
0.0028494113000083
 10
-106.7865033361811
 20
9.016553859884425
 42
0.0028485312981507
 10
-106.8404039239449
 20
9.026576689379226
 42
0.3543993923517316
 10
-106.8664005303705
 20
9.012272432784357
 42
0.0
 10
-108.5584562824822
 20
4.855704245478136
 42
0.5392714590992975
 10
-108.5361428249079
 20
4.823266086778858
 42
0.0068019099602671
 10
-108.3961118072659
 20
4.828097465976725
 42
0.0068021947999971
 10
-108.2564359679456
 20
4.834545517526748
 42
0.0068021947999996
 10
-108.1172249654992
 20
4.842605470531225
 42
0.0068021948000011
 10
-107.9785813187429
 20
4.85227127574285
 42
0.0068021947999982
 10
-107.8406081832579
 20
4.863535801417583
 42
0.0068021948000014
 10
-107.7034080778608
 20
4.876390769638646
 42
0.0068021947999974
 10
-107.567080974318
 20
4.890826565286943
 42
0.0068021948000009
 10
-107.4317293914466
 20
4.906832554423772
 42
0.0068021948000053
 10
-107.2974533010122
 20
4.924396829583201
 42
0.0068021947999869
 10
-107.164350764493
 20
4.943506528156149
 42
0.006802194800004
 10
-107.0325217536542
 20
4.964147322978988
 42
0.0068021948000069
 10
-106.9020636932109
 20
4.986304122771798
 42
0.0068021948000014
 10
-106.7730727343519
 20
5.009960371701254
 42
0.0068021947999925
 10
-106.6456443915033
 20
5.035098622465056
 42
0.0068021948000045
 10
-106.5198729055644
 20
5.061700281589082
 42
0.0067876847517197
 10
-106.3961149632876
 20
5.0896821989827
 42
0.2416094440683338
 10
-106.3798008370786
 20
5.10370666303288
 42
0.0
 97
        0
 92
        7
 72
     1
 73
     1
 93
       23
 10
-103.7990336827058
 20
7.393913464184533
 42
0.0225609850000045
 10
-103.90072916565
 20
7.587007401858492
 42
0.0225609850000186
 10
-104.0429679754032
 20
7.775423170297126
 42
0.0225609850000261
 10
-104.2245931138835
 20
7.957627826638458
 42
0.0225609849999274
 10
-104.4441260177745
 20
8.132138986988858
 42
0.0225609850000618
 10
-104.6997818408378
 20
8.297536988598498
 42
0.0225711483270357
 10
-104.9896131621473
 20
8.452539934886258
 42
0.4317106519741198
 10
-105.0215968014395
 20
8.440167220227749
 42
0.0
 10
-105.2092968534884
 20
7.979084861101
 42
0.1957432007478236
 10
-105.2092974689358
 20
7.569019615279557
 42
0.0
 10
-104.8132220528773
 20
6.596057940510036
 42
-0.1957433897416816
 10
-104.813222817605
 20
6.185992327983512
 42
0.0
 10
-105.0583583690729
 20
5.583821782525319
 42
0.6820149919156612
 10
-105.026569669434
 20
5.553590591288155
 42
0.0225466705714925
 10
-104.7330947255928
 20
5.707086928443089
 42
0.0225609849999853
 10
-104.4732006090657
 20
5.871288388998948
 42
0.0225609849999906
 10
-104.2491918991691
 20
6.044770222218641
 42
0.0225609850000116
 10
-104.0628916479151
 20
6.226121043267145
 42
0.0225609849999939
 10
-103.9158153508642
 20
6.413865345290547
 42
0.022560984999981
 10
-103.8091594853932
 20
6.60647578893926
 42
0.0225609850000086
 10
-103.7437919592537
 20
6.802385300864581
 42
0.0225609850000037
 10
-103.7202444694171
 20
6.999999999999957
 42
0.0225609849999906
 10
-103.7387080447365
 20
7.197712251202025
 42
0.022560985000007
 97
        0
 92
        7
 72
     1
 73
     1
 93
       43
 10
-97.74087392986144
 20
7.050587299291102
 42
-0.4174930671364103
 10
-97.70183652992171
 20
7.089636149892385
 42
0.0
 10
-96.95049474860343
 20
7.089636149892385
 42
-0.3431699481782171
 10
-96.91284524296385
 20
7.060346475641381
 42
0.0
 10
-96.59543910280399
 20
5.809392782018676
 42
0.3300656182922443
 10
-96.34468932008145
 20
5.604666366295759
 42
0.0
 10
-95.72190018015522
 20
5.575322530045923
 42
0.0
 10
-95.72190018015522
 20
5.885989651075305
 42
0.0
 10
-96.04108871056588
 20
5.885989651075306
 42
-0.3431699281256741
 10
-96.07873821551971
 20
5.915279322624883
 42
0.0
 10
-96.5512544810816
 20
7.777548872513287
 42
-0.5024153566680193
 10
-96.51379435024182
 20
7.827331185574394
 42
0.0
 10
-95.9651136815305
 20
7.827331185574394
 42
0.3756769498112439
 10
-95.72190018015522
 20
8.098788047649284
 42
0.0
 10
-95.72190018015524
 20
8.487374139048597
 42
0.0
 10
-96.22663852347887
 20
8.487374139048597
 42
0.0
 10
-96.22663852347887
 20
8.176798667178672
 42
-0.4142135623730951
 10
-96.30432359000202
 20
8.099113600655527
 42
0.0
 10
-96.60262782360156
 20
8.099113600655527
 42
-0.3431692821353876
 10
-96.64027730647195
 20
8.128403185169645
 42
0.0
 10
-96.73136039348312
 20
8.487374139048597
 42
0.0
 10
-97.27492704572979
 20
8.487374139048595
 42
0.0
 10
-97.20097207755612
 20
8.195904375080544
 42
-0.489014809178492
 10
-97.27627109140236
 20
8.099113600655527
 42
0.0
 10
-98.82802294777548
 20
8.099113600655527
 42
0.0
 10
-98.82802294777548
 20
7.827331185574394
 42
0.0
 10
-97.13767055388576
 20
7.827331185574394
 42
-0.3431714260423212
 10
-97.10002099772488
 20
7.798041312208852
 42
0.0
 10
-97.01379679493015
 20
7.458208951288725
 42
-0.4890132124780576
 10
-97.08909590725149
 20
7.361418564973064
 42
0.0
 10
-98.82802294777548
 20
7.361418564973065
 42
0.0
 10
-98.82802294777548
 20
7.089636149892386
 42
0.0
 10
-98.32349602696391
 20
7.089636149892385
 42
-0.4174930671363536
 10
-98.28445862702416
 20
7.050587299290908
 42
0.0
 10
-98.28445862702416
 20
5.924832184336764
 42
-0.4142135623730951
 10
-98.32330116028584
 20
5.885989651075306
 42
0.0
 10
-98.82802294777549
 20
5.885989651075306
 42
0.0
 10
-98.82802294777548
 20
5.575534718410835
 42
0.0
 10
-98.04681412898069
 20
5.614595287471956
 42
0.0
 10
-96.92552713035274
 20
5.769255773059738
 42
0.0
 10
-96.92552713035276
 20
6.080493954769504
 42
0.0
 10
-97.68002238129179
 20
5.900852078569414
 42
-0.4538928057970519
 10
-97.74087392986144
 20
5.955563778585428
 42
0.0
 97
        0
 92
        7
 72
     1
 73
     1
 93
       18
 10
-94.1977017820227
 20
6.642338759809945
 42
-0.2742066828570859
 10
-94.16361950950046
 20
6.66254957039473
 42
0.0
 10
-92.30514857993806
 20
6.662549570394729
 42
0.0
 10
-92.30514857993808
 20
6.973158026579995
 42
0.0
 10
-95.48894367882553
 20
6.973158026579993
 42
0.0
 10
-95.48894367882553
 20
6.66254957039473
 42
0.0
 10
-94.9601142505735
 20
6.66254957039473
 42
-0.569603703070901
 10
-94.92603195720221
 20
6.605075352594667
 42
0.0
 10
-95.33183590623185
 20
5.862752283892632
 42
0.5696037030708911
 10
-95.16142443937724
 20
5.575381194890269
 42
0.0
 10
-92.63269060855964
 20
5.575381194890269
 42
0.5696033045871097
 10
-92.46227902959139
 20
5.862752078807261
 42
0.0
 10
-92.81460158919413
 20
6.507245342302439
 42
0.0
 10
-93.52253906807527
 20
6.507245342302439
 42
0.0
 10
-93.21433821097276
 20
5.943463859721532
 42
-0.5696036141370881
 10
-93.24842050934785
 20
5.885989651075306
 42
0.0
 10
-94.54567274361307
 20
5.885989651075306
 42
-0.5696040735836392
 10
-94.57975501613532
 20
5.943463907013665
 42
0.0
 97
        0
 92
        7
 72
     1
 73
     1
 93
       12
 10
-92.99950197713906
 20
8.407546927133807
 42
0.2343463866956419
 10
-93.15242425877908
 20
8.487374139048597
 42
0.0
 10
-94.64166799998498
 20
8.487374139048597
 42
0.251104977230494
 10
-94.80150443173148
 20
8.397389580015442
 42
0.0
 10
-95.48861490902393
 20
7.386933916044882
 42
0.0
 10
-95.14318581001338
 20
7.419805994050648
 42
-0.4422835312456966
 10
-95.10066352813693
 20
7.381138154179552
 42
0.0
 10
-95.10066352813693
 20
7.206114336880773
 42
0.0
 10
-92.69342873062667
 20
7.206114336880772
 42
0.0
 10
-92.69342873062669
 20
7.381241139402163
 42
-0.4422837740584967
 10
-92.650906417339
 20
7.419908976284204
 42
0.0
 10
-92.30556057799777
 20
7.387044538439794
 42
0.0
 97
        0
 92
       22
 72
     1
 73
     1
 93
        8
 10
-93.04538640247892
 20
7.577406860064911
 42
-0.6021421921708058
 10
-93.07750633078171
 20
7.51672279306581
 42
0.0
 10
-94.71664269381063
 20
7.51672279306581
 42
-0.6021429256477856
 10
-94.74876257508389
 20
7.577406929225617
 42
0.0
 10
-94.3643184158509
 20
8.142763822137112
 42
-0.2483280785897051
 10
-94.3000786533039
 20
8.17676568286356
 42
0.0
 10
-93.49406859106215
 20
8.17676568286356
 42
-0.2483286500869998
 10
-93.42982873445725
 20
8.142763683815473
 42
0.0
 97
        0
 92
        7
 72
     1
 73
     1
 93
       23
 10
-90.88313843636052
 20
7.36903455414682
 42
-0.320360356153406
 10
-90.88163173258704
 20
7.414132416776737
 42
0.0
 10
-90.7039233199814
 20
7.680692130354145
 42
0.5990232472207202
 10
-90.86551748421447
 20
7.982635413666912
 42
0.0
 10
-91.02365825236757
 20
7.982635413666912
 42
-0.4174930671793205
 10
-91.06269565231263
 20
8.021684264268515
 42
0.0
 10
-91.06269565231265
 20
8.526239086362012
 42
0.0
 10
-91.60627971271242
 20
8.526239086362011
 42
0.0
 10
-91.60627971271242
 20
8.021684264269241
 42
-0.4174930671827363
 10
-91.64531711265727
 20
7.982635413666912
 42
0.0
 10
-92.07219271537132
 20
7.982635413666912
 42
0.0
 10
-92.07219271537132
 20
7.710853062262458
 42
0.0
 10
-91.31642166536153
 20
7.710853062262458
 42
-0.5990215383385383
 10
-91.28410272412839
 20
7.650464568178676
 42
0.0
 10
-92.14958015254071
 20
6.352248425560446
 42
0.0
 10
-91.64788966816946
 20
6.388083541980449
 42
-0.4352566975870341
 10
-91.60627971271242
 20
6.349339719704175
 42
0.0
 10
-91.60627971271242
 20
5.575381194890269
 42
0.0
 10
-91.06269565231263
 20
5.575381194890269
 42
0.0
 10
-91.06269565231263
 20
6.664830072530094
 42
-0.7732509487775633
 10
-90.98992940035373
 20
6.683748944059061
 42
0.0
 10
-90.91304610121872
 20
6.545888321219763
 42
0.0
 10
-90.40242475165451
 20
6.507065499384681
 42
0.0
 97
        0
 92
        7
 72
     1
 73
     1
 93
       22
 10
-89.47080765431133
 20
7.400021796579607
 42
-0.4174930671781164
 10
-89.43177025436671
 20
7.439070647181551
 42
0.0
 10
-89.00489528841536
 20
7.439070647181551
 42
0.0
 10
-89.00489528841536
 20
7.710853062262459
 42
0.0
 10
-89.43177025436947
 20
7.710853062262458
 42
-0.4174930671563571
 10
-89.47080765431133
 20
7.749901912863606
 42
0.0
 10
-89.47080765431133
 20
8.526239086362011
 42
0.0
 10
-90.01439235147428
 20
8.526239086362009
 42
0.0
 10
-90.01439235147428
 20
7.74990191286502
 42
-0.4174930671678484
 10
-90.05342975141662
 20
7.710853062262458
 42
0.0
 10
-90.48030471737048
 20
7.710853062262458
 42
0.0
 10
-90.48030471737048
 20
7.439070647181551
 42
0.0
 10
-90.05342975141955
 20
7.439070647181551
 42
-0.4174930671810167
 10
-90.01439235147428
 20
7.400021796579721
 42
0.0
 10
-90.01439235147428
 20
5.924832184336764
 42
-0.4142135623730951
 10
-90.05323488473596
 20
5.885989651075306
 42
0.0
 10
-90.67443524127179
 20
5.885989651075306
 42
0.0
 10
-90.67443524127179
 20
5.57538119489027
 42
0.0
 10
-88.81076476451381
 20
5.57538119489027
 42
0.0
 10
-88.81076476451381
 20
5.885989651075306
 42
0.0
 10
-89.43196512104988
 20
5.885989651075306
 42
-0.4142135623730951
 10
-89.47080765431133
 20
5.924832184336764
 42
0.0
 97
        0
 92
       23
 72
     0
 73
     1
 93
        4
 10
-85.19988391392121
 20
7.788505144470263
 10
-88.07305081697496
 20
7.788505144470263
 10
-88.07305081697496
 20
7.128462254672512
 10
-85.19988391392121
 20
7.128462254672513
 97
        0
 92
        7
 72
     1
 73
     1
 93
       20
 10
-85.19988391392121
 20
8.759195396662107
 42
0.0246113600010726
 10
-85.20091929029922
 20
8.774457073715064
 42
0.0246113600002761
 10
-85.20419989245262
 20
8.789571021788804
 42
0.0246113600001139
 10
-85.20969388223948
 20
8.804390912782857
 42
0.0246113599997815
 10
-85.21734713481759
 20
8.818773411381435
 42
0.0246113600002872
 10
-85.22708705922388
 20
8.832579130199416
 42
0.0246113600005476
 10
-85.23881814103189
 20
8.845674540069394
 42
0.0246113599961441
 10
-85.25242767321653
 20
8.857932797831049
 42
0.0246113600032153
 10
-85.26778320911367
 20
8.869235338249023
 42
0.0246113599998572
 10
-85.28473701973785
 20
8.879472765461999
 42
0.0246113599999865
 10
-85.30312418351609
 20
8.888545871821648
 42
0.0246113599998732
 10
-85.3227664068526
 20
8.896366911408197
 42
0.0246113599999479
 10
-85.34347457118373
 20
8.90286017312016
 42
0.0246113600002118
 10
-85.36504809621451
 20
8.907962808465315
 42
0.0246113599999005
 10
-85.38727748697169
 20
8.911625340970429
 42
0.0246113599999933
 10
-85.40994815437693
 20
8.913812430298321
 42
0.0247910788792031
 10
-85.43300698312297
 20
8.914499624755535
 42
0.0
 10
-88.07305081697496
 20
8.914499624755535
 42
0.0
 10
-88.07305081697496
 20
8.254417828748273
 42
0.0
 10
-85.19988391392121
 20
8.254417828748271
 42
0.0
 97
        0
 92
        7
 72
     1
 73
     1
 93
       24
 10
-83.72447384820317
 20
7.835078224529277
 42
0.0162267989587524
 10
-83.72521886072627
 20
7.850166583526218
 42
0.0245499260004874
 10
-83.7274538982961
 20
7.872782170946178
 42
0.0245499259992036
 10
-83.73115603744979
 20
7.894960174941035
 42
0.0245499260000816
 10
-83.73629025623124
 20
7.916487025256127
 42
0.0245499259994459
 10
-83.74280625037656
 20
7.93715532823303
 42
0.0245499260010341
 10
-83.75064098036459
 20
7.956766031809692
 42
0.0245499259989293
 10
-83.75971994494225
 20
7.975130272124942
 42
0.0245499260006779
 10
-83.76995527083851
 20
7.992071156463947
 42
0.0269913420437848
 10
-83.78245266775948
 20
8.00888958951455
 42
0.022009158073864
 10
-83.79349066218075
 20
8.021045521283816
 42
0.0245499260006453
 10
-83.80656404005671
 20
8.03279990861208
 42
0.0245499259990598
 10
-83.82034231439527
 20
8.042575491736462
 42
0.0245499259998786
 10
-83.83469303852868
 20
8.050278093435036
 42
0.0245499260001511
 10
-83.8494780349186
 20
8.055833594512039
 42
0.0245499259999635
 10
-83.86455466869007
 20
8.059188443213091
 42
0.0257155487687575
 10
-83.88050297316818
 20
8.060326402084683
 42
0.0
 10
-84.92810143516363
 20
8.060326402084683
 42
0.0
 10
-84.92810143516363
 20
7.128313952606958
 42
-0.4142135623730951
 10
-86.17042573669506
 20
5.885989651075306
 42
0.0
 10
-88.07305081697496
 20
5.885989651075305
 42
0.0
 10
-88.07305081697496
 20
5.264772738705232
 42
0.0
 10
-85.58827868192066
 20
5.264772738705232
 42
0.4142135623730951
 10
-83.72447384820317
 20
7.128577572422955
 42
0.0
 97
        0
 92
        7
 72
     1
 73
     1
 93
       43
 10
-73.86252021141467
 20
6.584897488186926
 42
0.0
 10
-73.98871703767625
 20
6.584897488186925
 42
-0.5132470832160693
 10
-74.02577777181161
 20
6.635956043364502
 42
0.0739209250258595
 10
-73.94017216627048
 20
7.20040165387104
 42
0.0
 10
-73.94017216627048
 20
8.528231708575958
 42
0.4111374742252591
 10
-74.32634368988506
 20
8.914499624755535
 42
0.0
 10
-77.23869310367695
 20
8.914499624755535
 42
0.2403459008079905
 10
-77.36448237994363
 20
8.850326729711241
 42
0.0
 10
-77.94703331635242
 20
8.046808308710978
 42
-0.2403459008079929
 10
-78.0728225926191
 20
7.982635413666912
 42
0.0
 10
-78.44405304475367
 20
7.982635413666912
 42
0.0
 10
-78.44405304475369
 20
7.361418564973065
 42
0.0
 10
-77.63769029675723
 20
7.361418564973064
 42
0.080611490271625
 10
-77.39202878477204
 20
7.401283899550207
 42
0.0
 10
-77.10094674206111
 20
7.498311142494595
 42
-0.54511634264178
 10
-77.04629557065437
 20
7.462633158448625
 42
0.0
 10
-77.04629557065437
 20
6.895505880695736
 42
0.0
 10
-76.09959442946615
 20
6.895505880695736
 42
-0.1380038353994478
 10
-76.01857653173261
 20
6.872710173877521
 42
0.0
 10
-75.5081279300357
 20
6.560768619332975
 42
-0.432675087810024
 10
-75.48501449973155
 20
6.449903806133582
 42
-0.013804728636316
 10
-75.53296564102459
 20
6.385335568292757
 42
-0.0137524420050841
 10
-75.58367552336107
 20
6.32420423427919
 42
-0.0137524419998054
 10
-75.63716551223961
 20
6.266445323644474
 42
-0.0137524419969027
 10
-75.69327323314233
 20
6.212233564099067
 42
-0.013752441999882
 10
-75.75182994394106
 20
6.161732858375261
 42
-0.0137524419999188
 10
-75.81265798779101
 20
6.115095965890192
 42
-0.0137524419997081
 10
-75.8755733402309
 20
6.072464056966832
 42
-0.013752442000218
 10
-75.94038560917455
 20
6.033966076077311
 42
-0.0137524419999036
 10
-76.00689930842634
 20
5.999718359795386
 42
-0.0137524420000041
 10
-76.07491258416726
 20
5.969824636787178
 42
-0.0137524420001114
 10
-76.14422039876355
 20
5.944375263699305
 42
-0.0137524420002324
 10
-76.21461262047737
 20
5.923447225158761
 42
-0.0137524419993368
 10
-76.28587593375221
 20
5.907103879070086
 42
-0.0137524420004817
 10
-76.35779511275882
 20
5.895394574551119
 42
-0.0137524419998714
 10
-76.43015365812146
 20
5.888354842969651
 42
-0.0137554371945275
 10
-76.50273061313964
 20
5.885989651075306
 42
0.0
 10
-78.28874849827935
 20
5.885989651075305
 42
0.0
 10
-78.28874849827935
 20
5.264772738705232
 42
0.0
 10
-75.88149459788451
 20
5.264772738705232
 42
0.2200653306826862
 10
-74.40203994986731
 20
5.949142139580748
 42
-0.2394335668362057
 10
-74.36999862032621
 20
5.963641733283566
 42
0.0
 10
-73.86252021141467
 20
5.963641733283567
 42
0.0
 97
        0
 92
       22
 72
     1
 73
     1
 93
       26
 10
-75.26495386479682
 20
7.140149782936076
 42
0.0
 10
-75.84386225628009
 20
7.493927168456366
 42
0.1380035768931157
 10
-75.92488001949027
 20
7.51672279306581
 42
0.0
 10
-76.91233084000066
 20
7.51672279306581
 42
-0.6376639659071909
 10
-76.9423787196104
 20
7.580394195811876
 42
0.0
 10
-76.47548726699483
 20
8.22438360138949
 42
-0.2516647099539785
 10
-76.34560151179215
 20
8.293282712385234
 42
0.0
 10
-75.33876402902683
 20
8.293282712385234
 42
-0.4174725427497406
 10
-75.1826257306584
 20
8.137086802572172
 42
0.0
 10
-75.1826257306584
 20
7.439070647185872
 42
-0.0027675332005429
 10
-75.18270659953964
 20
7.421878432550101
 42
-0.0027675332004465
 10
-75.18294920618155
 20
7.404688319233173
 42
-0.0027675331990674
 10
-75.18335355058525
 20
7.387502408559157
 42
-0.0027675332013063
 10
-75.1839196327503
 20
7.370322801823249
 42
-0.0027675331985318
 10
-75.1846474526767
 20
7.353151600374303
 42
-0.0027675332011082
 10
-75.18553637360196
 20
7.335990969172598
 42
-0.0027675332007225
 10
-75.18658703228926
 20
7.318842945877122
 42
-0.0027675331990705
 10
-75.18779879197359
 20
7.301709695490217
 42
-0.0027675331994759
 10
-75.18917228942019
 20
7.284593191963267
 42
-0.0027675332004882
 10
-75.19070625110271
 20
7.267495727639243
 42
-0.0027675331980648
 10
-75.19240067701957
 20
7.250419212827409
 42
-0.0027675332032427
 10
-75.19425620393872
 20
7.233365876150855
 42
-0.0027675331997779
 10
-75.19627219509129
 20
7.216337691627813
 42
-0.0027675331988507
 10
-75.19844801371573
 20
7.199336824236979
 42
-0.0027675331998305
 10
-75.20078365981408
 20
7.182365311606417
 42
-0.0026373057331506
 10
-75.20315689813097
 20
7.166221807370196
 42
-0.5743107685894618
 97
        0
 92
        7
 72
     1
 73
     1
 93
       44
 10
-79.0746284605884
 20
7.506115916052917
 42
0.0244511737842225
 10
-79.06526995712352
 20
7.748711594328597
 42
0.0
 10
-79.06526995712352
 20
8.137912579338717
 42
0.4142135623730951
 10
-79.22064009017026
 20
8.293282712385234
 42
0.0
 10
-79.75839290675621
 20
8.293282712385234
 42
-0.0458382524601169
 10
-79.78676376734303
 20
8.295359441931703
 42
-0.0372091873044854
 10
-79.8093540801174
 20
8.303092680703699
 42
-0.0246113599998993
 10
-79.82373600562934
 20
8.310746442692092
 42
-0.0246113599999289
 10
-79.83754229753405
 20
8.320486112393101
 42
-0.0246113600004151
 10
-79.85063732534619
 20
8.332217385229945
 42
-0.0281712770511164
 10
-79.86455495230434
 20
8.347891819446486
 42
-0.0211922031624009
 10
-79.87419818720205
 20
8.361182580664415
 42
-0.0246113600009834
 10
-79.88443542338656
 20
8.378136009232271
 42
-0.0246113599986513
 10
-79.89350865709792
 20
8.396523109333076
 42
-0.0246113600002454
 10
-79.90133001506641
 20
8.416165778403486
 42
-0.0246113599997134
 10
-79.90782308574984
 20
8.436873942734612
 42
-0.0246113600003497
 10
-79.91292546638923
 20
8.458447149384371
 42
-0.0246113600001185
 10
-79.91658812624703
 20
8.480676540141534
 42
-0.0246113599997586
 10
-79.9187754066038
 20
8.50334701651743
 42
-0.0247875348908447
 10
-79.91946247370856
 20
8.526402996941344
 42
0.0
 10
-79.91946247370856
 20
8.914499624755535
 42
0.0
 10
-83.4915179836364
 20
8.914499624755535
 42
0.0
 10
-83.4915179836364
 20
8.293282712385234
 42
0.0
 10
-80.61849626250978
 20
8.293282712385234
 42
-0.4142135623730951
 10
-80.23007092989315
 20
7.904857379768827
 42
0.0
 10
-80.23007092989315
 20
7.128313952606958
 42
-0.4142135623730951
 10
-81.47239523142502
 20
5.885989651075306
 42
0.0
 10
-83.25856148230673
 20
5.885989651075306
 42
0.0
 10
-83.25856148230673
 20
5.264772738705231
 42
0.0
 10
-81.00680723741584
 20
5.264772738705232
 42
0.0245738278590459
 10
-80.81632765203996
 20
5.276740887318735
 42
0.0245486219999921
 10
-80.62787641591121
 20
5.312522119548654
 42
0.0245486220000169
 10
-80.44307255733231
 20
5.371774493750734
 42
0.024548621999997
 10
-80.26369646520411
 20
5.453927406743513
 42
0.0245486220000087
 10
-80.09147440358743
 20
5.558189680697508
 42
0.0245486219998191
 10
-79.92806577644549
 20
5.683557204288856
 42
0.0245486219999559
 10
-79.77504402475479
 20
5.828822547821319
 42
0.024548622000227
 10
-79.63388325448903
 20
5.992586807012518
 42
0.0245486220000841
 10
-79.5059423175535
 20
6.173272847656123
 42
0.0245486220000406
 10
-79.39245335004274
 20
6.369140587939146
 42
0.0245486219998843
 10
-79.29451031051695
 20
6.578303617946108
 42
0.0245486220000547
 10
-79.21305560797853
 20
6.798747602110906
 42
0.0245486219998577
 10
-79.14887373424815
 20
7.028349636795923
 42
0.024548622000108
 10
-79.10258234927981
 20
7.264898435690247
 42
0.0245486220000094
 97
        0
 92
        7
 72
     1
 73
     1
 93
        8
 10
-79.06526995712352
 20
9.069770868532941
 42
0.4142135623730951
 10
-79.14295502364712
 20
9.147455935055859
 42
0.0
 10
-79.64764688328364
 20
9.147455935055859
 42
0.4142135623730951
 10
-79.72533194980655
 20
9.069770868532941
 42
0.0
 10
-79.72533194980655
 20
8.565059205571969
 42
0.4142135623730951
 10
-79.64764688328364
 20
8.487374139048597
 42
0.0
 10
-79.14295502364712
 20
8.487374139048597
 42
0.4142135623730951
 10
-79.06526995712352
 20
8.565059205571969
 42
0.0
 97
        0
 92
        7
 72
     1
 73
     1
 93
        8
 10
-78.17225146311102
 20
9.069770868532941
 42
0.4142135623730951
 10
-78.24993652963439
 20
9.147455935055859
 42
0.0
 10
-78.75462838927091
 20
9.147455935055859
 42
0.4142135623730951
 10
-78.83231345579407
 20
9.069770868532941
 42
0.0
 10
-78.83231345579407
 20
8.565059205571969
 42
0.4142135623730951
 10
-78.75462838927091
 20
8.487374139048597
 42
0.0
 10
-78.24993652963439
 20
8.487374139048597
 42
0.4142135623730951
 10
-78.17225146311102
 20
8.565059205571969
 42
0.0
 97
        0
 92
        7
 72
     1
 73
     1
 93
       20
 10
-69.43627218490224
 20
8.686902633281381
 42
0.0188381439369318
 10
-69.43714900733311
 20
8.704420229343952
 42
0.0245951490006684
 10
-69.43989918604064
 20
8.727075996499232
 42
0.0245951489988067
 10
-69.44449024611948
 20
8.749291633177598
 42
0.0245951490012403
 10
-69.4508788876974
 20
8.77085229560042
 42
0.0245951489990651
 10
-69.45900334477681
 20
8.791549634962711
 42
0.0245951489991956
 10
-69.46878402200427
 20
8.811183516705279
 42
0.0245951489995369
 10
-69.48012731524247
 20
8.829564185502336
 42
0.0245951490059664
 10
-69.49292370128545
 20
8.846513920848373
 42
0.024595148993888
 10
-69.50704901136917
 20
8.861868883652952
 42
0.024595149002395
 10
-69.52236634149548
 20
8.875480644511283
 42
0.0245951489988252
 10
-69.53872859944046
 20
8.887217584536617
 42
0.0245951489997415
 10
-69.55597659449702
 20
8.896966232593529
 42
0.0245951490004225
 10
-69.57394413156349
 20
8.904632411457622
 42
0.0245951490002582
 10
-69.59245801114713
 20
8.910142001933776
 42
0.0245951489999196
 10
-69.61133802936365
 20
8.913441706972436
 42
0.02459514899999
 10
-69.63040270880378
 20
8.914499624755535
 42
0.0
 10
-73.08597964968567
 20
8.914499624755537
 42
0.0
 10
-73.08597964968568
 20
8.254417828748273
 42
0.0
 10
-69.43627218490224
 20
8.254417828748273
 42
0.0
 97
        0
 92
        7
 72
     1
 73
     1
 93
       20
 10
-69.04801177386161
 20
5.969001055394301
 42
0.018838192805901
 10
-69.04888859629301
 20
5.986518648172896
 42
0.0245951489999125
 10
-69.05163813823726
 20
6.009174415327807
 42
0.0245951489996092
 10
-69.05622983507921
 20
6.031390052006678
 42
0.024595149000193
 10
-69.06261847665641
 20
6.052950778105015
 42
0.0245951489996545
 10
-69.07074229697375
 20
6.073648053791156
 42
0.024595148999105
 10
-69.08052361096411
 20
6.093281999210089
 42
0.0245951489998459
 10
-69.09186690420177
 20
6.111662668007359
 42
0.0245951489986985
 10
-69.10466329024122
 20
6.128612403348564
 42
0.0245951489983862
 10
-69.11878796356451
 20
6.143967366156455
 42
0.0245951490036994
 10
-69.13410593045401
 20
6.157579063339412
 42
0.0245951490009212
 10
-69.1504675516374
 20
6.169316003365973
 42
0.0245951489995407
 10
-69.16771618345683
 20
6.179064715098542
 42
0.024595149000153
 10
-69.18568372052331
 20
6.186730893962508
 42
0.0245951489999677
 10
-69.20419696334384
 20
6.192240420762368
 42
0.0245951489999171
 10
-69.22307761832306
 20
6.195540125801247
 42
0.0245951489948941
 10
-69.24214229775955
 20
6.19659804358389
 42
0.0
 10
-73.39658810587048
 20
6.19659804358389
 42
0.0
 10
-73.39658810587046
 20
5.342424884589717
 42
0.0
 10
-69.04801177386161
 20
5.342424884589717
 42
0.0
 97
        0
 75
     0
 76
     1
 47
0.0169621395940554
 98
       22
 10
-99.98230234580502
 20
6.652809220983442
 10
-113.0210640430699
 20
6.619512919722893
 10
-110.7476312720672
 20
5.991913822431172
 10
-108.9322783426091
 20
7.620279280303719
 10
-106.607947704539
 20
6.076724496093476
 10
-104.4193447119819
 20
7.264074301334545
 10
-98.0486896821443
 20
6.466598997064011
 10
-94.63854052564029
 20
6.466598997064011
 10
-92.82079807577138
 20
7.756112183587333
 10
-92.82079807577138
 20
7.756112183587333
 10
-91.05634277286517
 20
7.365982822962621
 10
-89.81783089374454
 20
6.517875899355146
 10
-85.89870450965944
 20
7.365982822962621
 10
-85.62724969966438
 20
8.400673378214634
 10
-84.5414311812304
 20
7.620415030933884
 10
-74.80568923702151
 20
6.144420119230829
 10
-74.80568923702151
 20
6.144420119230829
 10
-79.3695204942006
 20
7.348732021807478
 10
-79.30165691195952
 20
8.926211000688908
 10
-78.50425891869429
 20
8.824438229690997
 10
-70.93746023897296
 20
8.586968119055313
 10
-71.15801718190065
 20
5.652517987608206
1001
ACAD
1010
0.0
1020
0.0
1030
0.0
  0
LINE
  5
B5CB
330
B56D
100
AcDbEntity
  8
waku
  6
Continuous
370
    40
100
AcDbLine
 10
-162.0000000000006
 20
24.99999999999884
 30
0.0
 11
-144.8826666666666
 21
25.00000000000043
 31
0.0
  0
ENDBLK
  5
B5CC
330
B56D
100
AcDbEntity
  8
0
100
AcDbBlockEnd
  0
BLOCK
  5
BA64
330
BA5A
100
AcDbEntity
  8
0
100
AcDbBlockBegin
  2
*D7
 70
     1
 10
0.0
 20
0.0
 30
0.0
  3
*D7
  1

  0
LINE
  5
BBAE
330
BA5A
100
AcDbEntity
  8
AM_5
100
AcDbLine
 10
2190.30067465329
 20
1759.067815320079
 30
0.0
 11
2190.30067465329
 21
1782.424116786298
 31
0.0
  0
LINE
  5
BBAF
330
BA5A
100
AcDbEntity
  8
AM_5
100
AcDbLine
 10
2284.30067465329
 20
1758.282413954236
 30
0.0
 11
2284.30067465329
 21
1782.424116786298
 31
0.0
  0
LINE
  5
BBB0
330
BA5A
100
AcDbEntity
  8
AM_5
100
AcDbLine
 10
2191.30067465329
 20
1781.424116786298
 30
0.0
 11
2283.30067465329
 21
1781.424116786298
 31
0.0
  0
INSERT
  5
BBB1
330
BA5A
100
AcDbEntity
  8
AM_5
100
AcDbBlockReference
  2
_Dot
 10
2190.30067465329
 20
1781.424116786298
 30
0.0
 50
180.0
  0
INSERT
  5
BBB2
330
BA5A
100
AcDbEntity
  8
AM_5
100
AcDbBlockReference
  2
_Dot
 10
2284.30067465329
 20
1781.424116786298
 30
0.0
  0
MTEXT
  5
BBB3
330
BA5A
100
AcDbEntity
  8
AM_5
 62
     2
100
AcDbMText
 10
2237.30067465329
 20
1784.224116786298
 30
0.0
 40
3.000000000000001
 41
0.0
 71
     5
 72
     1
  1
94
 73
     1
 44
1.0
1001
ACAD
1000
MTEXTBEGIN
1070
    73
1070
     1
1070
    44
1040
1.0
1070
    74
1070
     0
1000
MTEXTEND
  0
POINT
  5
BBB4
330
BA5A
100
AcDbEntity
  8
Defpoints
 62
     0
100
AcDbPoint
 10
2190.30067465329
 20
1758.067815320078
 30
0.0
  0
POINT
  5
BBB5
330
BA5A
100
AcDbEntity
  8
Defpoints
 62
     0
100
AcDbPoint
 10
2284.30067465329
 20
1757.282413954236
 30
0.0
  0
POINT
  5
BBB6
330
BA5A
100
AcDbEntity
  8
Defpoints
 62
     0
100
AcDbPoint
 10
2284.30067465329
 20
1781.424116786298
 30
0.0
  0
ENDBLK
  5
BA65
330
BA5A
100
AcDbEntity
  8
0
100
AcDbBlockEnd
  0
BLOCK
  5
BA70
330
BA66
100
AcDbEntity
  8
0
100
AcDbBlockBegin
  2
*D8
 70
     1
 10
0.0
 20
0.0
 30
0.0
  3
*D8
  1

  0
LINE
  5
BBB7
330
BA66
100
AcDbEntity
  8
AM_5
100
AcDbLine
 10
2281.023012243563
 20
1761.828573877082
 30
0.0
 11
2303.993255416432
 21
1761.828573877082
 31
0.0
  0
LINE
  5
BBB8
330
BA66
100
AcDbEntity
  8
AM_5
100
AcDbLine
 10
2281.284810924126
 20
1655.828573877083
 30
0.0
 11
2303.993255416432
 21
1655.828573877083
 31
0.0
  0
LINE
  5
BBB9
330
BA66
100
AcDbEntity
  8
AM_5
100
AcDbLine
 10
2302.993255416432
 20
1760.828573877082
 30
0.0
 11
2302.993255416432
 21
1656.828573877082
 31
0.0
  0
INSERT
  5
BBBA
330
BA66
100
AcDbEntity
  8
AM_5
100
AcDbBlockReference
  2
_Dot
 10
2302.993255416432
 20
1761.828573877082
 30
0.0
 50
90.0
  0
INSERT
  5
BBBB
330
BA66
100
AcDbEntity
  8
AM_5
100
AcDbBlockReference
  2
_Dot
 10
2302.993255416432
 20
1655.828573877083
 30
0.0
 50
270.0
  0
MTEXT
  5
BBBC
330
BA66
100
AcDbEntity
  8
AM_5
 62
     2
100
AcDbMText
 10
2300.193255416431
 20
1708.828573877083
 30
0.0
 40
3.000000000000001
 41
0.0
 71
     5
 72
     1
  1
106
 11
0.0000000000000001
 21
1.0
 31
0.0
 73
     1
 44
1.0
1001
ACAD
1000
MTEXTBEGIN
1070
    73
1070
     1
1070
    44
1040
1.0
1070
    74
1070
     0
1000
MTEXTEND
  0
POINT
  5
BBBD
330
BA66
100
AcDbEntity
  8
Defpoints
 62
     0
100
AcDbPoint
 10
2280.023012243563
 20
1761.828573877082
 30
0.0
  0
POINT
  5
BBBE
330
BA66
100
AcDbEntity
  8
Defpoints
 62
     0
100
AcDbPoint
 10
2280.284810924126
 20
1655.828573877083
 30
0.0
  0
POINT
  5
BBBF
330
BA66
100
AcDbEntity
  8
Defpoints
 62
     0
100
AcDbPoint
 10
2302.993255416432
 20
1655.828573877083
 30
0.0
  0
ENDBLK
  5
BA71
330
BA66
100
AcDbEntity
  8
0
100
AcDbBlockEnd
  0
BLOCK
  5
BA7C
330
BA72
100
AcDbEntity
  8
0
100
AcDbBlockBegin
  2
*D9
 70
     1
 10
0.0
 20
0.0
 30
0.0
  3
*D9
  1

  0
LINE
  5
BBC0
330
BA72
100
AcDbEntity
  8
AM_5
100
AcDbLine
 10
2287.30067465329
 20
1775.828573877082
 30
0.0
 11
2287.30067465329
 21
1792.424116786296
 31
0.0
  0
LINE
  5
BBC1
330
BA72
100
AcDbEntity
  8
AM_5
100
AcDbLine
 10
2187.30067465329
 20
1775.828573877082
 30
0.0
 11
2187.30067465329
 21
1792.424116786296
 31
0.0
  0
LINE
  5
BBC2
330
BA72
100
AcDbEntity
  8
AM_5
100
AcDbLine
 10
2286.30067465329
 20
1791.424116786296
 30
0.0
 11
2188.30067465329
 21
1791.424116786296
 31
0.0
  0
INSERT
  5
BBC3
330
BA72
100
AcDbEntity
  8
AM_5
100
AcDbBlockReference
  2
_Dot
 10
2287.30067465329
 20
1791.424116786296
 30
0.0
  0
INSERT
  5
BBC4
330
BA72
100
AcDbEntity
  8
AM_5
100
AcDbBlockReference
  2
_Dot
 10
2187.30067465329
 20
1791.424116786296
 30
0.0
 50
180.0
  0
MTEXT
  5
BBC5
330
BA72
100
AcDbEntity
  8
AM_5
 62
     2
100
AcDbMText
 10
2237.30067465329
 20
1794.224116786296
 30
0.0
 40
3.000000000000001
 41
0.0
 71
     5
 72
     1
  1
100
 73
     1
 44
1.0
1001
ACAD
1000
MTEXTBEGIN
1070
    73
1070
     1
1070
    44
1040
1.0
1070
    74
1070
     0
1000
MTEXTEND
  0
POINT
  5
BBC6
330
BA72
100
AcDbEntity
  8
Defpoints
 62
     0
100
AcDbPoint
 10
2287.30067465329
 20
1774.828573877082
 30
0.0
  0
POINT
  5
BBC7
330
BA72
100
AcDbEntity
  8
Defpoints
 62
     0
100
AcDbPoint
 10
2187.30067465329
 20
1774.828573877082
 30
0.0
  0
POINT
  5
BBC8
330
BA72
100
AcDbEntity
  8
Defpoints
 62
     0
100
AcDbPoint
 10
2187.30067465329
 20
1791.424116786296
 30
0.0
  0
ENDBLK
  5
BA7D
330
BA72
100
AcDbEntity
  8
0
100
AcDbBlockEnd
  0
BLOCK
  5
BA88
330
BA7E
100
AcDbEntity
  8
0
100
AcDbBlockBegin
  2
*D10
 70
     1
 10
0.0
 20
0.0
 30
0.0
  3
*D10
  1

  0
LINE
  5
BBC9
330
BA7E
100
AcDbEntity
  8
AM_5
100
AcDbLine
 10
2294.30067465329
 20
1768.828573877082
 30
0.0
 11
2313.993255416433
 21
1768.828573877082
 31
0.0
  0
LINE
  5
BBCA
330
BA7E
100
AcDbEntity
  8
AM_5
100
AcDbLine
 10
2294.30067465329
 20
1648.828573877082
 30
0.0
 11
2313.993255416433
 21
1648.828573877082
 31
0.0
  0
LINE
  5
BBCB
330
BA7E
100
AcDbEntity
  8
AM_5
100
AcDbLine
 10
2312.993255416433
 20
1767.828573877082
 30
0.0
 11
2312.993255416433
 21
1649.828573877082
 31
0.0
  0
INSERT
  5
BBCC
330
BA7E
100
AcDbEntity
  8
AM_5
100
AcDbBlockReference
  2
_Dot
 10
2312.993255416433
 20
1768.828573877082
 30
0.0
 50
90.0
  0
INSERT
  5
BBCD
330
BA7E
100
AcDbEntity
  8
AM_5
100
AcDbBlockReference
  2
_Dot
 10
2312.993255416433
 20
1648.828573877082
 30
0.0
 50
270.0
  0
MTEXT
  5
BBCE
330
BA7E
100
AcDbEntity
  8
AM_5
 62
     2
100
AcDbMText
 10
2310.193255416432
 20
1708.828573877083
 30
0.0
 40
3.000000000000001
 41
0.0
 71
     5
 72
     1
  1
120
 11
0.0000000000000001
 21
1.0
 31
0.0
 73
     1
 44
1.0
1001
ACAD
1000
MTEXTBEGIN
1070
    73
1070
     1
1070
    44
1040
1.0
1070
    74
1070
     0
1000
MTEXTEND
  0
POINT
  5
BBCF
330
BA7E
100
AcDbEntity
  8
Defpoints
 62
     0
100
AcDbPoint
 10
2293.30067465329
 20
1768.828573877082
 30
0.0
  0
POINT
  5
BBD0
330
BA7E
100
AcDbEntity
  8
Defpoints
 62
     0
100
AcDbPoint
 10
2293.30067465329
 20
1648.828573877082
 30
0.0
  0
POINT
  5
BBD1
330
BA7E
100
AcDbEntity
  8
Defpoints
 62
     0
100
AcDbPoint
 10
2312.993255416433
 20
1648.828573877082
 30
0.0
  0
ENDBLK
  5
BA89
330
BA7E
100
AcDbEntity
  8
0
100
AcDbBlockEnd
  0
BLOCK
  5
BAA4
330
BA9A
100
AcDbEntity
  8
0
100
AcDbBlockBegin
  2
*D11
 70
     1
 10
0.0
 20
0.0
 30
0.0
  3
*D11
  1

  0
LINE
  5
BBDC
330
BA9A
100
AcDbEntity
  8
AM_5
100
AcDbLine
 10
2123.449479797951
 20
1777.220530131005
 30
0.0
 11
2123.449479797951
 21
1800.325616901862
 31
0.0
  0
LINE
  5
BBDD
330
BA9A
100
AcDbEntity
  8
AM_5
100
AcDbLine
 10
2129.449479797951
 20
1779.828573877083
 30
0.0
 11
2129.449479797951
 21
1800.325616901862
 31
0.0
  0
LINE
  5
BBDE
330
BA9A
100
AcDbEntity
  8
AM_5
100
AcDbLine
 10
2124.449479797951
 20
1799.325616901862
 30
0.0
 11
2128.449479797951
 21
1799.325616901862
 31
0.0
  0
INSERT
  5
BBDF
330
BA9A
100
AcDbEntity
  8
AM_5
100
AcDbBlockReference
  2
_Dot
 10
2123.449479797951
 20
1799.325616901862
 30
0.0
 50
180.0
  0
INSERT
  5
BBE0
330
BA9A
100
AcDbEntity
  8
AM_5
100
AcDbBlockReference
  2
_Dot
 10
2129.449479797951
 20
1799.325616901862
 30
0.0
  0
MTEXT
  5
BBE1
330
BA9A
100
AcDbEntity
  8
AM_5
 62
     2
100
AcDbMText
 10
2126.449479797951
 20
1802.125616901862
 30
0.0
 40
3.000000000000001
 41
0.0
 71
     5
 72
     1
  1
6
 73
     1
 44
1.0
1001
ACAD
1000
MTEXTBEGIN
1070
    73
1070
     1
1070
    44
1040
1.0
1070
    74
1070
     0
1000
MTEXTEND
  0
POINT
  5
BBE2
330
BA9A
100
AcDbEntity
  8
Defpoints
 62
     0
100
AcDbPoint
 10
2123.449479797951
 20
1776.220530131005
 30
0.0
  0
POINT
  5
BBE3
330
BA9A
100
AcDbEntity
  8
Defpoints
 62
     0
100
AcDbPoint
 10
2129.449479797951
 20
1778.828573877083
 30
0.0
  0
POINT
  5
BBE4
330
BA9A
100
AcDbEntity
  8
Defpoints
 62
     0
100
AcDbPoint
 10
2129.449479797951
 20
1799.325616901862
 30
0.0
  0
ENDBLK
  5
BAA5
330
BA9A
100
AcDbEntity
  8
0
100
AcDbBlockEnd
  0
BLOCK
  5
BAB0
330
BAA6
100
AcDbEntity
  8
0
100
AcDbBlockBegin
  2
*D12
 70
     1
 10
0.0
 20
0.0
 30
0.0
  3
*D12
  1

  0
LINE
  5
BBE5
330
BAA6
100
AcDbEntity
  8
AM_5
100
AcDbLine
 10
2129.449479797951
 20
1779.828573877083
 30
0.0
 11
2129.449479797951
 21
1800.325616901861
 31
0.0
  0
LINE
  5
BBE6
330
BAA6
100
AcDbEntity
  8
AM_5
100
AcDbLine
 10
2154.449479797951
 20
1744.10497009701
 30
0.0
 11
2154.449479797951
 21
1800.325616901861
 31
0.0
  0
LINE
  5
BBE7
330
BAA6
100
AcDbEntity
  8
AM_5
100
AcDbLine
 10
2130.449479797951
 20
1799.325616901861
 30
0.0
 11
2153.449479797951
 21
1799.325616901861
 31
0.0
  0
INSERT
  5
BBE8
330
BAA6
100
AcDbEntity
  8
AM_5
100
AcDbBlockReference
  2
_Dot
 10
2129.449479797951
 20
1799.325616901861
 30
0.0
 50
180.0
  0
INSERT
  5
BBE9
330
BAA6
100
AcDbEntity
  8
AM_5
100
AcDbBlockReference
  2
_Dot
 10
2154.449479797951
 20
1799.325616901861
 30
0.0
  0
MTEXT
  5
BBEA
330
BAA6
100
AcDbEntity
  8
AM_5
 62
     2
100
AcDbMText
 10
2141.949479797951
 20
1802.125616901861
 30
0.0
 40
3.000000000000001
 41
0.0
 71
     5
 72
     1
  1
25
 73
     1
 44
1.0
1001
ACAD
1000
MTEXTBEGIN
1070
    73
1070
     1
1070
    44
1040
1.0
1070
    74
1070
     0
1000
MTEXTEND
  0
POINT
  5
BBEB
330
BAA6
100
AcDbEntity
  8
Defpoints
 62
     0
100
AcDbPoint
 10
2129.449479797951
 20
1778.828573877083
 30
0.0
  0
POINT
  5
BBEC
330
BAA6
100
AcDbEntity
  8
Defpoints
 62
     0
100
AcDbPoint
 10
2154.449479797951
 20
1743.10497009701
 30
0.0
  0
POINT
  5
BBED
330
BAA6
100
AcDbEntity
  8
Defpoints
 62
     0
100
AcDbPoint
 10
2154.449479797951
 20
1799.325616901861
 30
0.0
  0
ENDBLK
  5
BAB1
330
BAA6
100
AcDbEntity
  8
0
100
AcDbBlockEnd
  0
BLOCK
  5
BABC
330
BAB2
100
AcDbEntity
  8
0
100
AcDbBlockBegin
  2
*D13
 70
     1
 10
0.0
 20
0.0
 30
0.0
  3
*D13
  1

  0
LINE
  5
BBEE
330
BAB2
100
AcDbEntity
  8
AM_5
100
AcDbLine
 10
1959.756300732836
 20
1777.828573877082
 30
0.0
 11
1959.756300732836
 21
1790.325616901861
 31
0.0
  0
LINE
  5
BBEF
330
BAB2
100
AcDbEntity
  8
AM_5
100
AcDbLine
 10
2059.756300732836
 20
1777.828573877082
 30
0.0
 11
2059.756300732836
 21
1790.325616901861
 31
0.0
  0
LINE
  5
BBF0
330
BAB2
100
AcDbEntity
  8
AM_5
100
AcDbLine
 10
1960.756300732836
 20
1789.32561690186
 30
0.0
 11
2058.756300732836
 21
1789.32561690186
 31
0.0
  0
INSERT
  5
BBF1
330
BAB2
100
AcDbEntity
  8
AM_5
100
AcDbBlockReference
  2
_Dot
 10
1959.756300732836
 20
1789.32561690186
 30
0.0
 50
180.0
  0
INSERT
  5
BBF2
330
BAB2
100
AcDbEntity
  8
AM_5
100
AcDbBlockReference
  2
_Dot
 10
2059.756300732836
 20
1789.32561690186
 30
0.0
  0
MTEXT
  5
BBF3
330
BAB2
100
AcDbEntity
  8
AM_5
 62
     2
100
AcDbMText
 10
2009.756300732837
 20
1792.125616901861
 30
0.0
 40
3.000000000000001
 41
0.0
 71
     5
 72
     1
  1
100
 73
     1
 44
1.0
1001
ACAD
1000
MTEXTBEGIN
1070
    73
1070
     1
1070
    44
1040
1.0
1070
    74
1070
     0
1000
MTEXTEND
  0
POINT
  5
BBF4
330
BAB2
100
AcDbEntity
  8
Defpoints
 62
     0
100
AcDbPoint
 10
1959.756300732836
 20
1776.828573877082
 30
0.0
  0
POINT
  5
BBF5
330
BAB2
100
AcDbEntity
  8
Defpoints
 62
     0
100
AcDbPoint
 10
2059.756300732836
 20
1776.828573877082
 30
0.0
  0
POINT
  5
BBF6
330
BAB2
100
AcDbEntity
  8
Defpoints
 62
     0
100
AcDbPoint
 10
2059.756300732836
 20
1789.32561690186
 30
0.0
  0
ENDBLK
  5
BABD
330
BAB2
100
AcDbEntity
  8
0
100
AcDbBlockEnd
  0
BLOCK
  5
BAC8
330
BABE
100
AcDbEntity
  8
0
100
AcDbBlockBegin
  2
*D14
 70
     1
 10
0.0
 20
0.0
 30
0.0
  3
*D14
  1

  0
LINE
  5
BBF7
330
BABE
100
AcDbEntity
  8
AM_5
100
AcDbLine
 10
1949.756300732836
 20
1774.828573877082
 30
0.0
 11
1949.756300732836
 21
1800.325616901859
 31
0.0
  0
LINE
  5
BBF8
330
BABE
100
AcDbEntity
  8
AM_5
100
AcDbLine
 10
2069.756300732836
 20
1774.828573877082
 30
0.0
 11
2069.756300732836
 21
1800.325616901859
 31
0.0
  0
LINE
  5
BBF9
330
BABE
100
AcDbEntity
  8
AM_5
100
AcDbLine
 10
1950.756300732836
 20
1799.325616901859
 30
0.0
 11
2068.756300732836
 21
1799.325616901859
 31
0.0
  0
INSERT
  5
BBFA
330
BABE
100
AcDbEntity
  8
AM_5
100
AcDbBlockReference
  2
_Dot
 10
1949.756300732836
 20
1799.325616901859
 30
0.0
 50
180.0
  0
INSERT
  5
BBFB
330
BABE
100
AcDbEntity
  8
AM_5
100
AcDbBlockReference
  2
_Dot
 10
2069.756300732836
 20
1799.325616901859
 30
0.0
  0
MTEXT
  5
BBFC
330
BABE
100
AcDbEntity
  8
AM_5
 62
     2
100
AcDbMText
 10
2009.756300732837
 20
1802.125616901859
 30
0.0
 40
3.000000000000001
 41
0.0
 71
     5
 72
     1
  1
120
 73
     1
 44
1.0
1001
ACAD
1000
MTEXTBEGIN
1070
    73
1070
     1
1070
    44
1040
1.0
1070
    74
1070
     0
1000
MTEXTEND
  0
POINT
  5
BBFD
330
BABE
100
AcDbEntity
  8
Defpoints
 62
     0
100
AcDbPoint
 10
1949.756300732836
 20
1773.828573877082
 30
0.0
  0
POINT
  5
BBFE
330
BABE
100
AcDbEntity
  8
Defpoints
 62
     0
100
AcDbPoint
 10
2069.756300732836
 20
1773.828573877082
 30
0.0
  0
POINT
  5
BBFF
330
BABE
100
AcDbEntity
  8
Defpoints
 62
     0
100
AcDbPoint
 10
2069.756300732836
 20
1799.325616901859
 30
0.0
  0
ENDBLK
  5
BAC9
330
BABE
100
AcDbEntity
  8
0
100
AcDbBlockEnd
  0
BLOCK
  5
BAD4
330
BACA
100
AcDbEntity
  8
0
100
AcDbBlockBegin
  2
*D15
 70
     1
 10
0.0
 20
0.0
 30
0.0
  3
*D15
  1

  0
LINE
  5
BF5D
330
BACA
100
AcDbEntity
  8
AM_5
100
AcDbLine
 10
2068.756300732836
 20
1768.828573877082
 30
0.0
 11
2085.756300732836
 21
1768.828573877082
 31
0.0
  0
LINE
  5
BF5E
330
BACA
100
AcDbEntity
  8
AM_5
100
AcDbLine
 10
2068.756300732836
 20
1648.828573877082
 30
0.0
 11
2085.756300732836
 21
1648.828573877082
 31
0.0
  0
LINE
  5
BF5F
330
BACA
100
AcDbEntity
  8
AM_5
100
AcDbLine
 10
2084.756300732836
 20
1767.828573877082
 30
0.0
 11
2084.756300732836
 21
1649.828573877082
 31
0.0
  0
INSERT
  5
BF60
330
BACA
100
AcDbEntity
  8
AM_5
100
AcDbBlockReference
  2
_Dot
 10
2084.756300732836
 20
1768.828573877082
 30
0.0
 50
90.0
  0
INSERT
  5
BF61
330
BACA
100
AcDbEntity
  8
AM_5
100
AcDbBlockReference
  2
_Dot
 10
2084.756300732836
 20
1648.828573877082
 30
0.0
 50
270.0
  0
MTEXT
  5
BF62
330
BACA
100
AcDbEntity
  8
AM_5
 62
     2
100
AcDbMText
 10
2081.956300732835
 20
1708.828573877083
 30
0.0
 40
3.000000000000001
 41
0.0
 71
     5
 72
     1
  1
120
 11
0.0000000000000001
 21
1.0
 31
0.0
 73
     1
 44
1.0
1001
ACAD
1000
MTEXTBEGIN
1070
    73
1070
     1
1070
    44
1040
1.0
1070
    74
1070
     0
1000
MTEXTEND
  0
POINT
  5
BF63
330
BACA
100
AcDbEntity
  8
Defpoints
 62
     0
100
AcDbPoint
 10
2067.756300732837
 20
1768.828573877082
 30
0.0
  0
POINT
  5
BF64
330
BACA
100
AcDbEntity
  8
Defpoints
 62
     0
100
AcDbPoint
 10
2067.756300732837
 20
1648.828573877082
 30
0.0
  0
POINT
  5
BF65
330
BACA
100
AcDbEntity
  8
Defpoints
 62
     0
100
AcDbPoint
 10
2084.756300732836
 20
1648.828573877082
 30
0.0
  0
ENDBLK
  5
BAD5
330
BACA
100
AcDbEntity
  8
0
100
AcDbBlockEnd
  0
BLOCK
  5
BAE0
330
BAD6
100
AcDbEntity
  8
0
100
AcDbBlockBegin
  2
*D16
 70
     1
 10
0.0
 20
0.0
 30
0.0
  3
*D16
  1

  0
LINE
  5
BF66
330
BAD6
100
AcDbEntity
  8
AM_5
100
AcDbLine
 10
2065.756300732836
 20
1778.828573877082
 30
0.0
 11
2095.756300732837
 21
1778.828573877082
 31
0.0
  0
LINE
  5
BF67
330
BAD6
100
AcDbEntity
  8
AM_5
100
AcDbLine
 10
2065.756300732836
 20
1638.828573877082
 30
0.0
 11
2095.756300732837
 21
1638.828573877082
 31
0.0
  0
LINE
  5
BF68
330
BAD6
100
AcDbEntity
  8
AM_5
100
AcDbLine
 10
2094.756300732836
 20
1777.828573877082
 30
0.0
 11
2094.756300732836
 21
1639.828573877083
 31
0.0
  0
INSERT
  5
BF69
330
BAD6
100
AcDbEntity
  8
AM_5
100
AcDbBlockReference
  2
_Dot
 10
2094.756300732836
 20
1778.828573877082
 30
0.0
 50
90.0
  0
INSERT
  5
BF6A
330
BAD6
100
AcDbEntity
  8
AM_5
100
AcDbBlockReference
  2
_Dot
 10
2094.756300732836
 20
1638.828573877082
 30
0.0
 50
270.0
  0
MTEXT
  5
BF6B
330
BAD6
100
AcDbEntity
  8
AM_5
 62
     2
100
AcDbMText
 10
2091.956300732836
 20
1708.828573877082
 30
0.0
 40
3.000000000000001
 41
0.0
 71
     5
 72
     1
  1
140
 11
0.0000000000000001
 21
1.0
 31
0.0
 73
     1
 44
1.0
1001
ACAD
1000
MTEXTBEGIN
1070
    73
1070
     1
1070
    44
1040
1.0
1070
    74
1070
     0
1000
MTEXTEND
  0
POINT
  5
BF6C
330
BAD6
100
AcDbEntity
  8
Defpoints
 62
     0
100
AcDbPoint
 10
2064.756300732836
 20
1778.828573877082
 30
0.0
  0
POINT
  5
BF6D
330
BAD6
100
AcDbEntity
  8
Defpoints
 62
     0
100
AcDbPoint
 10
2064.756300732836
 20
1638.828573877082
 30
0.0
  0
POINT
  5
BF6E
330
BAD6
100
AcDbEntity
  8
Defpoints
 62
     0
100
AcDbPoint
 10
2094.756300732836
 20
1638.828573877082
 30
0.0
  0
ENDBLK
  5
BAE1
330
BAD6
100
AcDbEntity
  8
0
100
AcDbBlockEnd
  0
BLOCK
  5
BAEC
330
BAE2
100
AcDbEntity
  8
0
100
AcDbBlockBegin
  2
*D17
 70
     1
 10
0.0
 20
0.0
 30
0.0
  3
*D17
  1

  0
LINE
  5
BC12
330
BAE2
100
AcDbEntity
  8
AM_5
100
AcDbLine
 10
2000.756300732836
 20
1664.127224112462
 30
0.0
 11
2000.756300732836
 21
1622.364785934443
 31
0.0
  0
LINE
  5
BC13
330
BAE2
100
AcDbEntity
  8
AM_5
100
AcDbLine
 10
2018.756300732837
 20
1664.25776451665
 30
0.0
 11
2018.756300732837
 21
1622.364785934443
 31
0.0
  0
LINE
  5
BC14
330
BAE2
100
AcDbEntity
  8
AM_5
100
AcDbLine
 10
2001.756300732836
 20
1623.364785934444
 30
0.0
 11
2017.756300732836
 21
1623.364785934444
 31
0.0
  0
INSERT
  5
BC15
330
BAE2
100
AcDbEntity
  8
AM_5
100
AcDbBlockReference
  2
_Dot
 10
2000.756300732836
 20
1623.364785934444
 30
0.0
 50
180.0
  0
INSERT
  5
BC16
330
BAE2
100
AcDbEntity
  8
AM_5
100
AcDbBlockReference
  2
_Dot
 10
2018.756300732837
 20
1623.364785934444
 30
0.0
  0
MTEXT
  5
BC17
330
BAE2
100
AcDbEntity
  8
AM_5
 62
     2
100
AcDbMText
 10
2009.756300732837
 20
1626.164785934443
 30
0.0
 40
3.000000000000001
 41
0.0
 71
     5
 72
     1
  1
（18）
 73
     1
 44
1.0
1001
ACAD
1000
MTEXTBEGIN
1070
    73
1070
     1
1070
    44
1040
1.0
1070
    74
1070
     0
1000
MTEXTEND
  0
POINT
  5
BC18
330
BAE2
100
AcDbEntity
  8
Defpoints
 62
     0
100
AcDbPoint
 10
2000.756300732836
 20
1665.127224112462
 30
0.0
  0
POINT
  5
BC19
330
BAE2
100
AcDbEntity
  8
Defpoints
 62
     0
100
AcDbPoint
 10
2018.756300732837
 20
1665.25776451665
 30
0.0
  0
POINT
  5
BC1A
330
BAE2
100
AcDbEntity
  8
Defpoints
 62
     0
100
AcDbPoint
 10
2018.756300732837
 20
1623.364785934444
 30
0.0
  0
ENDBLK
  5
BAED
330
BAE2
100
AcDbEntity
  8
0
100
AcDbBlockEnd
  0
BLOCK
  5
BCD1
330
BCCE
100
AcDbEntity
  8
0
100
AcDbBlockBegin
  2
GENDOT
 70
     0
 10
0.0
 20
0.0
 30
0.0
  3
GENDOT
  1

  0
LINE
  5
BCCF
330
BCCE
100
AcDbEntity
  8
0
100
AcDbLine
 10
0.0
 20
0.0
 30
0.0
 11
-1.0
 21
0.0
 31
0.0
  0
LWPOLYLINE
  5
BCD0
330
BCCE
100
AcDbEntity
  8
0
100
AcDbPolyline
 90
        2
 70
     1
 43
0.25
 10
-0.125
 20
0.0
 42
1.0
 10
0.125
 20
0.0
 42
1.0
  0
ENDBLK
  5
BCD2
330
BCCE
100
AcDbEntity
  8
0
100
AcDbBlockEnd
  0
BLOCK
  5
BDAA
330
BDA4
100
AcDbEntity
  8
0
100
AcDbBlockBegin
  2
*D19
 70
     1
 10
0.0
 20
0.0
 30
0.0
  3
*D19
  1

  0
LINE
  5
BDB1
330
BDA4
100
AcDbEntity
  8
AM_5
100
AcDbLine
 10
2177.125784725102
 20
1654.249864666386
 30
0.0
 11
2181.825784725102
 21
1654.249864666386
 31
0.0
  0
LINE
  5
BDB2
330
BDA4
100
AcDbEntity
  8
AM_5
100
AcDbLine
 10
2181.825784725102
 20
1654.249864666386
 30
0.0
 11
2189.429277962855
 21
1658.464961366581
 31
0.0
  0
MTEXT
  5
BDB3
330
BDA4
100
AcDbEntity
  8
AM_5
 62
     2
100
AcDbMText
 10
2178.825784725102
 20
1657.049864666386
 30
0.0
 40
3.000000000000001
 41
0.0
 71
     5
 72
     1
  1
R7
 73
     1
 44
1.0
1001
ACAD
1000
MTEXTBEGIN
1070
    73
1070
     1
1070
    44
1040
1.0
1070
    74
1070
     0
1000
MTEXTEND
  0
INSERT
  5
BDB4
330
BDA4
100
AcDbEntity
  8
AM_5
100
AcDbBlockReference
  2
_OPEN30
 10
2191.178477227397
 20
1659.434653035581
 30
0.0
 41
2.0
 42
2.0
 43
2.0
 50
29.00237239991465
  0
POINT
  5
BDB5
330
BDA4
100
AcDbEntity
  8
Defpoints
 62
     0
100
AcDbPoint
 10
2191.178477227397
 20
1659.434653035581
 30
0.0
  0
POINT
  5
BDB6
330
BDA4
100
AcDbEntity
  8
Defpoints
 62
     0
100
AcDbPoint
 10
2197.30067465329
 20
1662.828573877083
 30
0.0
  0
ENDBLK
  5
BDAB
330
BDA4
100
AcDbEntity
  8
0
100
AcDbBlockEnd
  0
BLOCK
  5
BDC0
330
BDBA
100
AcDbEntity
  8
0
100
AcDbBlockBegin
  2
*D20
 70
     1
 10
0.0
 20
0.0
 30
0.0
  3
*D20
  1

  0
LINE
  5
BDE8
330
BDBA
100
AcDbEntity
  8
AM_5
100
AcDbLine
 10
2304.604527551883
 20
1637.231382647025
 30
0.0
 11
2295.504527551883
 21
1637.231382647025
 31
0.0
  0
LINE
  5
BDE9
330
BDBA
100
AcDbEntity
  8
AM_5
100
AcDbLine
 10
2295.504527551883
 20
1637.231382647025
 30
0.0
 11
2290.188223832668
 21
1644.746655242828
 31
0.0
  0
LINE
  5
BDEA
330
BDBA
100
AcDbEntity
  8
AM_5
100
AcDbLine
 10
2284.413125473911
 20
1652.910492511336
 30
0.0
 11
2283.258105802159
 21
1654.543259965038
 31
0.0
  0
MTEXT
  5
BDEB
330
BDBA
100
AcDbEntity
  8
AM_5
 62
     2
100
AcDbMText
 10
2300.704527551883
 20
1640.031382647025
 30
0.0
 40
3.000000000000001
 41
0.0
 71
     5
 72
     1
  1
6-\U+22056
 73
     1
 44
1.0
1001
ACAD
1000
MTEXTBEGIN
1070
    73
1070
     1
1070
    44
1040
1.0
1070
    74
1070
     0
1000
MTEXTEND
  0
LINE
  5
BDEC
330
BDBA
100
AcDbEntity
  8
AM_5
100
AcDbLine
 10
2285.568145145663
 20
1651.277725057635
 30
0.0
 11
2289.033204160917
 21
1646.379422696529
 31
0.0
  0
INSERT
  5
BDED
330
BDBA
100
AcDbEntity
  8
AM_5
100
AcDbBlockReference
  2
GENDOT
 10
2285.568145145663
 20
1651.277725057635
 30
0.0
 41
2.0
 42
2.0
 43
2.0
 50
305.2755876837224
  0
INSERT
  5
BDEE
330
BDBA
100
AcDbEntity
  8
AM_5
100
AcDbBlockReference
  2
GENDOT
 10
2289.033204160917
 20
1646.379422696529
 30
0.0
 41
2.0
 42
2.0
 43
2.0
 50
125.2755876837224
  0
POINT
  5
BDEF
330
BDBA
100
AcDbEntity
  8
Defpoints
 62
     0
100
AcDbPoint
 10
2289.033204160917
 20
1646.379422696529
 30
0.0
  0
POINT
  5
BDF0
330
BDBA
100
AcDbEntity
  8
Defpoints
 62
     0
100
AcDbPoint
 10
2285.568145145663
 20
1651.277725057635
 30
0.0
  0
ENDBLK
  5
BDC1
330
BDBA
100
AcDbEntity
  8
0
100
AcDbBlockEnd
  0
BLOCK
  5
BF35
330
BF2B
100
AcDbEntity
  8
0
100
AcDbBlockBegin
  2
*D21
 70
     1
 10
0.0
 20
0.0
 30
0.0
  3
*D21
  1

  0
LINE
  5
BF49
330
BF2B
100
AcDbEntity
  8
AM_5
100
AcDbLine
 10
2030.779389848614
 20
1623.568884649592
 30
0.0
 11
2042.879389848614
 21
1623.568884649592
 31
0.0
  0
LINE
  5
BF4A
330
BF2B
100
AcDbEntity
  8
AM_5
100
AcDbLine
 10
2042.879389848614
 20
1623.568884649592
 30
0.0
 11
2057.117458207871
 21
1644.879015657681
 31
0.0
  0
LINE
  5
BF4B
330
BF2B
100
AcDbEntity
  8
AM_5
100
AcDbLine
 10
2062.395143257801
 20
1652.778132096485
 30
0.0
 11
2063.50623484726
 21
1654.441103978338
 31
0.0
  0
MTEXT
  5
BF4C
330
BF2B
100
AcDbEntity
  8
AM_5
 62
     2
100
AcDbMText
 10
2036.179389848614
 20
1626.368884649593
 30
0.0
 40
3.000000000000001
 41
0.0
 71
     5
 72
     1
  1
6-\U+22055.5
 73
     1
 44
1.0
1001
ACAD
1000
MTEXTBEGIN
1070
    73
1070
     1
1070
    44
1040
1.0
1070
    74
1070
     0
1000
MTEXTEND
  0
LINE
  5
BF4D
330
BF2B
100
AcDbEntity
  8
AM_5
100
AcDbLine
 10
2061.284051668343
 20
1651.115160214632
 30
0.0
 11
2058.22854979733
 21
1646.541987539535
 31
0.0
  0
INSERT
  5
BF4E
330
BF2B
100
AcDbEntity
  8
AM_5
100
AcDbBlockReference
  2
GENDOT
 10
2061.284051668343
 20
1651.115160214632
 30
0.0
 41
2.0
 42
2.0
 43
2.0
 50
236.2516840027854
  0
INSERT
  5
BF4F
330
BF2B
100
AcDbEntity
  8
AM_5
100
AcDbBlockReference
  2
GENDOT
 10
2058.22854979733
 20
1646.541987539535
 30
0.0
 41
2.0
 42
2.0
 43
2.0
 50
56.25168400278537
  0
POINT
  5
BF50
330
BF2B
100
AcDbEntity
  8
Defpoints
 62
     0
100
AcDbPoint
 10
2058.22854979733
 20
1646.541987539535
 30
0.0
  0
POINT
  5
BF51
330
BF2B
100
AcDbEntity
  8
Defpoints
 62
     0
100
AcDbPoint
 10
2061.284051668343
 20
1651.115160214632
 30
0.0
  0
ENDBLK
  5
BF36
330
BF2B
100
AcDbEntity
  8
0
100
AcDbBlockEnd
  0
ENDSEC
  0
SECTION
  2
ENTITIES
  0
LINE
  5
B8D1
330
1F
100
AcDbEntity
  8
AM_0
100
AcDbLine
 10
2245.62328682455
 20
1851.958547260965
 30
0.0
 11
2323.512050879946
 21
1851.958547260965
 31
0.0
  0
LINE
  5
B8D2
330
1F
100
AcDbEntity
  8
AM_2
100
AcDbLine
 10
2245.62328682455
 20
1846.958547260965
 30
0.0
 11
2323.512050879946
 21
1846.958547260965
 31
0.0
  0
LINE
  5
B8D3
330
1F
100
AcDbEntity
  8
AM_0
100
AcDbLine
 10
2245.62328682455
 20
1851.958547260965
 30
0.0
 11
2245.62328682455
 21
1816.958547260965
 31
0.0
  0
LINE
  5
B8D4
330
1F
100
AcDbEntity
  8
AM_2
100
AcDbLine
 10
2268.62328682455
 20
1851.958547260965
 30
0.0
 11
2268.62328682455
 21
1816.958547260965
 31
0.0
  0
MTEXT
  5
B8D5
330
1F
100
AcDbEntity
  8
AM_6
100
AcDbMText
 10
2257.12328682455
 20
1849.571547231533
 30
0.0
 40
3.2
 41
23.0
 71
     5
 72
     5
  1
品　名
 73
     1
 44
1.0
1001
ACAD
1000
MTEXTBEGIN
1070
    73
1070
     1
1070
    44
1040
1.0
1070
    74
1070
     0
1000
MTEXTEND
  0
MTEXT
  5
B8D6
330
1F
100
AcDbEntity
  8
AM_6
100
AcDbMText
 10
2268.62328682455
 20
1849.458547260965
 30
0.0
 40
3.2
 41
54.88876405539577
 71
     4
 72
     5
  1
　　大型埋込取手
 73
     1
 44
1.0
1001
ACAD
1000
MTEXTBEGIN
1070
    73
1070
     1
1070
    44
1040
1.0
1070
    74
1070
     0
1000
MTEXTEND
1000
ACAD_MTEXT_DEFINED_HEIGHT_BEGIN
1070
    46
1040
5.000000000000182
1000
ACAD_MTEXT_DEFINED_HEIGHT_END
  0
MTEXT
  5
B8D7
330
1F
100
AcDbEntity
  8
AM_6
100
AcDbMText
 10
2257.12328682455
 20
1844.458547260965
 30
0.0
 40
3.2
 41
22.99999999999998
 71
     5
 72
     5
  1
品　番
 73
     1
 44
1.0
1001
ACAD
1000
MTEXTBEGIN
1070
    73
1070
     1
1070
    44
1040
1.0
1070
    74
1070
     0
1000
MTEXTEND
1000
ACAD_MTEXT_DEFINED_HEIGHT_BEGIN
1070
    46
1040
5.762029914680866
1000
ACAD_MTEXT_DEFINED_HEIGHT_END
  0
LINE
  5
B8D8
330
1F
100
AcDbEntity
  8
AM_0
100
AcDbLine
 10
2323.512050879946
 20
1851.958547260965
 30
0.0
 11
2323.512050879946
 21
1821.958547260965
 31
0.0
  0
LINE
  5
B8D9
330
1F
100
AcDbEntity
  8
AM_2
100
AcDbLine
 10
2245.62328682455
 20
1841.958547260965
 30
0.0
 11
2323.512050879946
 21
1841.958547260965
 31
0.0
  0
LINE
  5
B8DA
330
1F
100
AcDbEntity
  8
AM_2
100
AcDbLine
 10
2245.62328682455
 20
1831.958547260965
 30
0.0
 11
2323.512050879946
 21
1831.958547260965
 31
0.0
  0
LINE
  5
B8DB
330
1F
100
AcDbEntity
  8
AM_2
100
AcDbLine
 10
2245.62328682455
 20
1826.958547260965
 30
0.0
 11
2323.512050879946
 21
1826.958547260965
 31
0.0
  0
LINE
  5
B8DC
330
1F
100
AcDbEntity
  8
AM_2
100
AcDbLine
 10
2245.62328682455
 20
1826.958547260965
 30
0.0
 11
2323.512050879946
 21
1826.958547260965
 31
0.0
  0
LINE
  5
B8DD
330
1F
100
AcDbEntity
  8
AM_2
100
AcDbLine
 10
2245.62328682455
 20
1826.958547260965
 30
0.0
 11
2323.512050879946
 21
1826.958547260965
 31
0.0
  0
LINE
  5
B8DE
330
1F
100
AcDbEntity
  8
AM_0
100
AcDbLine
 10
2245.62328682455
 20
1816.958547260965
 30
0.0
 11
2323.512050879946
 21
1816.958547260965
 31
0.0
  0
MTEXT
  5
B8DF
330
1F
100
AcDbEntity
  8
AM_6
100
AcDbMText
 10
2257.123286824549
 20
1836.958547260965
 30
0.0
 40
3.2
 41
23.00000000000046
 71
     5
 72
     5
  1
材　質
 73
     1
 44
1.0
1001
ACAD
1000
MTEXTBEGIN
1070
    73
1070
     1
1070
    44
1040
1.0
1070
    74
1070
     0
1000
MTEXTEND
1000
ACAD_MTEXT_DEFINED_HEIGHT_BEGIN
1070
    46
1040
9.999999999999729
1000
ACAD_MTEXT_DEFINED_HEIGHT_END
  0
MTEXT
  5
B8E0
330
1F
100
AcDbEntity
  8
AM_6
100
AcDbMText
 10
2257.12328682455
 20
1829.571547231534
 30
0.0
 40
3.2
 41
23.0
 71
     5
 72
     5
  1
仕上げ
 73
     1
 44
1.0
1001
ACAD
1000
MTEXTBEGIN
1070
    73
1070
     1
1070
    44
1040
1.0
1070
    74
1070
     0
1000
MTEXTEND
  0
MTEXT
  5
B8E1
330
1F
100
AcDbEntity
  8
AM_6
100
AcDbMText
 10
2257.12328682455
 20
1822.071547231533
 30
0.0
 40
3.2
 41
23.0
 71
     5
 72
     5
  1
備　考
 73
     1
 44
1.0
1001
ACAD
1000
MTEXTBEGIN
1070
    73
1070
     1
1070
    44
1040
1.0
1070
    74
1070
     0
1000
MTEXTEND
  0
MTEXT
  5
B8E2
330
1F
100
AcDbEntity
  8
AM_6
100
AcDbMText
 10
2268.62328682455
 20
1836.958547260965
 30
0.0
 40
3.2
 41
54.88876405539553
 71
     4
 72
     5
  1
　　ハンドル：エラストマー樹脂\P　　芯材　　：スチール
 73
     1
 44
0.9375
1001
ACAD
1000
MTEXTBEGIN
1070
    73
1070
     1
1070
    44
1040
0.9375
1070
    74
1070
     0
1000
MTEXTEND
1000
ACAD_MTEXT_DEFINED_HEIGHT_BEGIN
1070
    46
1040
9.999999999999898
1000
ACAD_MTEXT_DEFINED_HEIGHT_END
  0
MTEXT
  5
B8E3
330
1F
100
AcDbEntity
  8
AM_6
100
AcDbMText
 10
2268.62328682455
 20
1829.458547260965
 30
0.0
 40
3.2
 41
54.88876405539532
 71
     4
 72
     5
  1
　　生地（ブラック）
 73
     1
 44
1.0
1001
ACAD
1000
MTEXTBEGIN
1070
    73
1070
     1
1070
    44
1040
1.0
1070
    74
1070
     0
1000
MTEXTEND
1000
ACAD_MTEXT_DEFINED_HEIGHT_BEGIN
1070
    46
1040
5.000000000000182
1000
ACAD_MTEXT_DEFINED_HEIGHT_END
  0
LINE
  5
B8E4
330
1F
100
AcDbEntity
  8
AM_2
100
AcDbLine
 10
2268.62328682455
 20
1821.958547260965
 30
0.0
 11
2323.512050879946
 21
1821.958547260965
 31
0.0
  0
MTEXT
  5
B8E5
330
1F
100
AcDbEntity
  8
AM_6
100
AcDbMText
 10
2268.62328682455
 20
1844.458547260965
 30
0.0
 40
3.2
 41
54.88876405539577
 71
     4
 72
     5
  1
　　ETP-131-1
 73
     1
 44
1.0
1001
ACAD
1000
MTEXTBEGIN
1070
    73
1070
     1
1070
    44
1040
1.0
1070
    74
1070
     0
1000
MTEXTEND
1000
ACAD_MTEXT_DEFINED_HEIGHT_BEGIN
1070
    46
1040
5.000000000000182
1000
ACAD_MTEXT_DEFINED_HEIGHT_END
  0
CIRCLE
  5
B8E7
330
1F
100
AcDbEntity
  8
AM_0
100
AcDbCircle
 10
2059.756300732836
 20
1768.828573877082
 30
0.0
 40
5.25
  0
CIRCLE
  5
B8E8
330
1F
100
AcDbEntity
  8
AM_0
100
AcDbCircle
 10
2009.756300732837
 20
1768.828573877082
 30
0.0
 40
2.75
  0
CIRCLE
  5
B8E9
330
1F
100
AcDbEntity
  8
AM_0
100
AcDbCircle
 10
1959.756300732836
 20
1768.828573877082
 30
0.0
 40
2.75
  0
CIRCLE
  5
B8EA
330
1F
100
AcDbEntity
  8
AM_0
100
AcDbCircle
 10
1959.756300732836
 20
1648.828573877082
 30
0.0
 40
2.75
  0
LINE
  5
B8ED
330
1F
100
AcDbEntity
  8
AM_7
100
AcDbLine
 10
2112.586161797951
 20
1708.828573877082
 30
0.0
 11
2158.835436797951
 21
1708.828573877082
 31
0.0
  0
LINE
  5
B8EE
330
1F
100
AcDbEntity
  8
AM_0
100
AcDbLine
 10
2154.449479797951
 20
1734.997226877083
 30
0.0
 11
2154.449479797951
 21
1682.659920877082
 31
0.0
  0
LINE
  5
B8F1
330
1F
100
AcDbEntity
  8
AM_0
100
AcDbLine
 10
2129.449479797951
 20
1639.328573877082
 30
0.0
 11
2129.449479797951
 21
1778.328573877083
 31
0.0
  0
LINE
  5
B8F2
330
1F
100
AcDbEntity
  8
AM_0
100
AcDbLine
 10
2123.449479797951
 20
1641.828573877082
 30
0.0
 11
2123.449479797951
 21
1775.828573877083
 31
0.0
  0
ARC
  5
B8F3
330
1F
100
AcDbEntity
  8
AM_0
100
AcDbCircle
 10
2126.449479797951
 20
1641.828573877082
 30
0.0
 40
3.0
100
AcDbArc
 50
180.0
 51
270.0
  0
ARC
  5
B8F4
330
1F
100
AcDbEntity
  8
AM_0
100
AcDbCircle
 10
2126.449479797952
 20
1775.828573877083
 30
0.0
 40
3.0
100
AcDbArc
 50
90.0
 51
180.0
  0
LINE
  5
B8F5
330
1F
100
AcDbEntity
  8
AM_0
100
AcDbLine
 10
2154.449479797951
 20
1682.659920877082
 30
0.0
 11
2154.449479797951
 21
1734.997226877083
 31
0.0
  0
LINE
  5
B8F6
330
1F
100
AcDbEntity
  8
AM_0
100
AcDbLine
 10
1949.756300732836
 20
1643.828573877082
 30
0.0
 11
1949.756300732836
 21
1773.828573877082
 31
0.0
  0
ARC
  5
B8F7
330
1F
100
AcDbEntity
  8
AM_0
100
AcDbCircle
 10
1954.756300732836
 20
1643.828573877082
 30
0.0
 40
5.0
100
AcDbArc
 50
180.0
 51
270.0
  0
ARC
  5
B8F8
330
1F
100
AcDbEntity
  8
AM_0
100
AcDbCircle
 10
1954.756300732836
 20
1773.828573877082
 30
0.0
 40
5.0
100
AcDbArc
 50
90.0
 51
180.0
  0
LINE
  5
B8F9
330
1F
100
AcDbEntity
  8
AM_0
100
AcDbLine
 10
2064.756300732836
 20
1778.828573877082
 30
0.0
 11
1954.756300732836
 21
1778.828573877083
 31
0.0
  0
LINE
  5
B8FA
330
1F
100
AcDbEntity
  8
AM_0
100
AcDbLine
 10
2069.756300732836
 20
1643.828573877082
 30
0.0
 11
2069.756300732836
 21
1773.828573877082
 31
0.0
  0
ARC
  5
B8FB
330
1F
100
AcDbEntity
  8
AM_0
100
AcDbCircle
 10
2064.756300732836
 20
1643.828573877082
 30
0.0
 40
5.0
100
AcDbArc
 50
270.0
 51
0.0
  0
ARC
  5
B8FC
330
1F
100
AcDbEntity
  8
AM_0
100
AcDbCircle
 10
2064.756300732836
 20
1773.828573877082
 30
0.0
 40
5.0
100
AcDbArc
 50
0.0
 51
90.0
  0
LINE
  5
B8FD
330
1F
100
AcDbEntity
  8
AM_7
100
AcDbLine
 10
2009.756300732837
 20
1783.568147877083
 30
0.0
 11
2009.756300732837
 21
1631.905633096662
 31
0.0
  0
LINE
  5
B8FE
330
1F
100
AcDbEntity
  8
AM_0
100
AcDbLine
 10
1966.756300732836
 20
1667.828573877082
 30
0.0
 11
1966.756300732836
 21
1749.828573877083
 31
0.0
  0
ARC
  5
B8FF
330
1F
100
AcDbEntity
  8
AM_0
100
AcDbCircle
 10
1974.756300732836
 20
1749.828573877083
 30
0.0
 40
8.0
100
AcDbArc
 50
90.0
 51
180.0
  0
ARC
  5
B900
330
1F
100
AcDbEntity
  8
AM_0
100
AcDbCircle
 10
1974.756300732836
 20
1667.828573877082
 30
0.0
 40
8.0
100
AcDbArc
 50
180.0
 51
270.0
  0
LINE
  5
B901
330
1F
100
AcDbEntity
  8
AM_0
100
AcDbLine
 10
1992.756300732836
 20
1659.828573877082
 30
0.0
 11
1974.756300732836
 21
1659.828573877083
 31
0.0
  0
LINE
  5
B902
330
1F
100
AcDbEntity
  8
AM_0
100
AcDbLine
 10
2000.756300732836
 20
1749.828573877082
 30
0.0
 11
2000.756300732836
 21
1667.828573877082
 31
0.0
  0
ARC
  5
B903
330
1F
100
AcDbEntity
  8
AM_0
100
AcDbCircle
 10
1992.756300732836
 20
1667.828573877082
 30
0.0
 40
8.0
100
AcDbArc
 50
270.0
 51
0.0
  0
ARC
  5
B904
330
1F
100
AcDbEntity
  8
AM_0
100
AcDbCircle
 10
1992.756300732836
 20
1749.828573877082
 30
0.0
 40
8.0
100
AcDbArc
 50
0.0
 51
90.0
  0
LINE
  5
B906
330
1F
100
AcDbEntity
  8
AM_0
100
AcDbLine
 10
2052.756300732836
 20
1667.828573877082
 30
0.0
 11
2052.756300732836
 21
1749.828573877082
 31
0.0
  0
ARC
  5
B907
330
1F
100
AcDbEntity
  8
AM_0
100
AcDbCircle
 10
2044.756300732836
 20
1749.828573877082
 30
0.0
 40
8.0
100
AcDbArc
 50
0.0
 51
90.0
  0
LINE
  5
B908
330
1F
100
AcDbEntity
  8
AM_0
100
AcDbLine
 10
2026.756300732836
 20
1659.828573877082
 30
0.0
 11
2044.756300732836
 21
1659.828573877083
 31
0.0
  0
ARC
  5
B909
330
1F
100
AcDbEntity
  8
AM_0
100
AcDbCircle
 10
2044.756300732836
 20
1667.828573877082
 30
0.0
 40
8.0
100
AcDbArc
 50
270.0
 51
0.0
  0
LINE
  5
B90A
330
1F
100
AcDbEntity
  8
AM_0
100
AcDbLine
 10
2018.756300732837
 20
1749.828573877082
 30
0.0
 11
2018.756300732837
 21
1667.828573877082
 31
0.0
  0
ARC
  5
B90B
330
1F
100
AcDbEntity
  8
AM_0
100
AcDbCircle
 10
2026.756300732836
 20
1667.828573877082
 30
0.0
 40
8.0
100
AcDbArc
 50
180.0
 51
270.0
  0
LINE
  5
B90C
330
1F
100
AcDbEntity
  8
AM_0
100
AcDbLine
 10
1992.756300732836
 20
1757.828573877082
 30
0.0
 11
1974.756300732836
 21
1757.828573877082
 31
0.0
  0
LINE
  5
B90D
330
1F
100
AcDbEntity
  8
AM_0
100
AcDbLine
 10
2026.756300732837
 20
1757.828573877082
 30
0.0
 11
2044.756300732836
 21
1757.828573877082
 31
0.0
  0
ARC
  5
B90E
330
1F
100
AcDbEntity
  8
AM_0
100
AcDbCircle
 10
2026.756300732837
 20
1749.828573877082
 30
0.0
 40
8.0
100
AcDbArc
 50
90.0
 51
180.0
  0
LINE
  5
B90F
330
1F
100
AcDbEntity
  8
AM_7
100
AcDbLine
 10
2059.756300732836
 20
1640.828573877082
 30
0.0
 11
2059.756300732836
 21
1776.828573877082
 31
0.0
  0
LINE
  5
B910
330
1F
100
AcDbEntity
  8
AM_7
100
AcDbLine
 10
1951.756300732836
 20
1768.828573877082
 30
0.0
 11
2067.756300732837
 21
1768.828573877082
 31
0.0
  0
LINE
  5
B911
330
1F
100
AcDbEntity
  8
AM_7
100
AcDbLine
 10
1959.756300732836
 20
1640.828573877082
 30
0.0
 11
1959.756300732836
 21
1776.828573877082
 31
0.0
  0
LINE
  5
B912
330
1F
100
AcDbEntity
  8
AM_7
100
AcDbLine
 10
1944.207857732836
 20
1708.828573877082
 30
0.0
 11
2076.998360732837
 21
1708.828573877082
 31
0.0
  0
LINE
  5
B913
330
1F
100
AcDbEntity
  8
AM_7
100
AcDbLine
 10
2067.756300732837
 20
1648.828573877082
 30
0.0
 11
1951.756300732836
 21
1648.828573877082
 31
0.0
  0
CIRCLE
  5
B914
330
1F
100
AcDbEntity
  8
AM_0
100
AcDbCircle
 10
2059.756300732836
 20
1648.828573877082
 30
0.0
 40
2.75
  0
CIRCLE
  5
B915
330
1F
100
AcDbEntity
  8
AM_0
100
AcDbCircle
 10
2009.756300732837
 20
1648.828573877082
 30
0.0
 40
5.25
  0
CIRCLE
  5
B916
330
1F
100
AcDbEntity
  8
AM_0
100
AcDbCircle
 10
1959.756300732836
 20
1648.828573877082
 30
0.0
 40
5.25
  0
LINE
  5
B917
330
1F
100
AcDbEntity
  8
AM_0
100
AcDbLine
 10
2064.756300732836
 20
1638.828573877082
 30
0.0
 11
1954.756300732836
 21
1638.828573877082
 31
0.0
  0
CIRCLE
  5
B918
330
1F
100
AcDbEntity
  8
AM_0
100
AcDbCircle
 10
2059.756300732836
 20
1768.828573877082
 30
0.0
 40
2.75
  0
CIRCLE
  5
B919
330
1F
100
AcDbEntity
  8
AM_0
100
AcDbCircle
 10
2009.756300732837
 20
1768.828573877082
 30
0.0
 40
5.25
  0
CIRCLE
  5
B91A
330
1F
100
AcDbEntity
  8
AM_0
100
AcDbCircle
 10
1959.756300732836
 20
1768.828573877082
 30
0.0
 40
5.25
  0
CIRCLE
  5
B920
330
1F
100
AcDbEntity
  8
AM_0
100
AcDbCircle
 10
2009.756300732837
 20
1648.828573877082
 30
0.0
 40
2.75
  0
CIRCLE
  5
B921
330
1F
100
AcDbEntity
  8
AM_0
100
AcDbCircle
 10
2059.756300732836
 20
1648.828573877082
 30
0.0
 40
5.25
  0
CIRCLE
  5
B923
330
1F
100
AcDbEntity
  8
AM_0
100
AcDbCircle
 10
2287.30067465329
 20
1648.828573877082
 30
0.0
 40
3.0
  0
CIRCLE
  5
B924
330
1F
100
AcDbEntity
  8
AM_0
100
AcDbCircle
 10
2237.30067465329
 20
1648.828573877082
 30
0.0
 40
3.0
  0
LINE
  5
B925
330
1F
100
AcDbEntity
  8
AM_7
100
AcDbLine
 10
2181.300674653289
 20
1648.828573877082
 30
0.0
 11
2293.30067465329
 21
1648.828573877082
 31
0.0
  0
CIRCLE
  5
B926
330
1F
100
AcDbEntity
  8
AM_0
100
AcDbCircle
 10
2187.30067465329
 20
1648.828573877082
 30
0.0
 40
3.0
  0
CIRCLE
  5
B927
330
1F
100
AcDbEntity
  8
AM_0
100
AcDbCircle
 10
2187.30067465329
 20
1768.828573877082
 30
0.0
 40
3.0
  0
CIRCLE
  5
B928
330
1F
100
AcDbEntity
  8
AM_0
100
AcDbCircle
 10
2237.30067465329
 20
1768.828573877082
 30
0.0
 40
3.0
  0
CIRCLE
  5
B929
330
1F
100
AcDbEntity
  8
AM_0
100
AcDbCircle
 10
2287.30067465329
 20
1768.828573877082
 30
0.0
 40
3.0
  0
LINE
  5
B92A
330
1F
100
AcDbEntity
  8
AM_7
100
AcDbLine
 10
2181.300674653289
 20
1768.828573877082
 30
0.0
 11
2293.30067465329
 21
1768.828573877082
 31
0.0
  0
LINE
  5
B92B
330
1F
100
AcDbEntity
  8
AM_7
100
AcDbLine
 10
2287.30067465329
 20
1642.828573877082
 30
0.0
 11
2287.30067465329
 21
1774.828573877082
 31
0.0
  0
LINE
  5
B92C
330
1F
100
AcDbEntity
  8
AM_7
100
AcDbLine
 10
2187.30067465329
 20
1642.828573877082
 30
0.0
 11
2187.30067465329
 21
1774.828573877082
 31
0.0
  0
LINE
  5
B92D
330
1F
100
AcDbEntity
  8
AM_7
100
AcDbLine
 10
2237.30067465329
 20
1774.828573877082
 30
0.0
 11
2237.30067465329
 21
1642.828573877082
 31
0.0
  0
LINE
  5
B92E
330
1F
100
AcDbEntity
  8
AM_7
100
AcDbLine
 10
2179.92657943054
 20
1708.828573877082
 30
0.0
 11
2295.366795013807
 21
1708.828573877082
 31
0.0
  0
LINE
  5
B92F
330
1F
100
AcDbEntity
  8
AM_0
100
AcDbLine
 10
2190.30067465329
 20
1662.828573877083
 30
0.0
 11
2190.30067465329
 21
1754.828573877082
 31
0.0
  0
ARC
  5
B930
330
1F
100
AcDbEntity
  8
AM_0
100
AcDbCircle
 10
2197.300674653289
 20
1662.828573877083
 30
0.0
 40
7.0
100
AcDbArc
 50
180.0
 51
270.0
  0
LINE
  5
B931
330
1F
100
AcDbEntity
  8
AM_0
100
AcDbLine
 10
2277.30067465329
 20
1655.828573877083
 30
0.0
 11
2197.300674653289
 21
1655.828573877083
 31
0.0
  0
LINE
  5
B932
330
1F
100
AcDbEntity
  8
AM_0
100
AcDbLine
 10
2284.30067465329
 20
1754.828573877082
 30
0.0
 11
2284.30067465329
 21
1662.828573877083
 31
0.0
  0
ARC
  5
B933
330
1F
100
AcDbEntity
  8
AM_0
100
AcDbCircle
 10
2277.30067465329
 20
1662.828573877083
 30
0.0
 40
7.0
100
AcDbArc
 50
270.0
 51
0.0
  0
ARC
  5
B934
330
1F
100
AcDbEntity
  8
AM_0
100
AcDbCircle
 10
2277.30067465329
 20
1754.828573877082
 30
0.0
 40
7.0
100
AcDbArc
 50
0.0
 51
90.0
  0
LINE
  5
B935
330
1F
100
AcDbEntity
  8
AM_0
100
AcDbLine
 10
2197.300674653289
 20
1761.828573877082
 30
0.0
 11
2277.30067465329
 21
1761.828573877082
 31
0.0
  0
ARC
  5
B936
330
1F
100
AcDbEntity
  8
AM_0
100
AcDbCircle
 10
2197.300674653289
 20
1754.828573877082
 30
0.0
 40
7.0
100
AcDbArc
 50
90.0
 51
180.0
  0
DIMENSION
  5
B937
330
1F
100
AcDbEntity
  8
AM_5
100
AcDbDimension
  2
*D7
 10
2284.30067465329
 20
1781.424116786298
 30
0.0
 11
2237.30067465329
 21
1784.224116786298
 31
0.0
 70
    32
 71
     5
 42
94.0
  3
SYS$0
100
AcDbAlignedDimension
 13
2190.30067465329
 23
1758.067815320078
 33
0.0
 14
2284.30067465329
 24
1757.282413954236
 34
0.0
100
AcDbRotatedDimension
  0
DIMENSION
  5
B938
330
1F
100
AcDbEntity
  8
AM_5
100
AcDbDimension
  2
*D8
 10
2302.993255416432
 20
1655.828573877083
 30
0.0
 11
2300.193255416431
 21
1708.828573877083
 31
0.0
 70
    32
 71
     5
 42
106.0
  3
SYS$0
100
AcDbAlignedDimension
 13
2280.023012243563
 23
1761.828573877082
 33
0.0
 14
2280.284810924126
 24
1655.828573877083
 34
0.0
 50
90.0
100
AcDbRotatedDimension
  0
DIMENSION
  5
B939
330
1F
100
AcDbEntity
  8
AM_5
100
AcDbDimension
  2
*D9
 10
2187.30067465329
 20
1791.424116786296
 30
0.0
 11
2237.30067465329
 21
1794.224116786296
 31
0.0
 70
    32
 71
     5
 42
100.0
  3
SYS$0
100
AcDbAlignedDimension
 13
2287.30067465329
 23
1774.828573877082
 33
0.0
 14
2187.30067465329
 24
1774.828573877082
 34
0.0
100
AcDbRotatedDimension
  0
DIMENSION
  5
B93A
330
1F
100
AcDbEntity
  8
AM_5
100
AcDbDimension
  2
*D10
 10
2312.993255416433
 20
1648.828573877082
 30
0.0
 11
2310.193255416432
 21
1708.828573877083
 31
0.0
 70
    32
 71
     5
 42
120.0
  3
SYS$0
100
AcDbAlignedDimension
 13
2293.30067465329
 23
1768.828573877082
 33
0.0
 14
2293.30067465329
 24
1648.828573877082
 34
0.0
 50
90.0
100
AcDbRotatedDimension
  0
MTEXT
  5
B93C
330
1F
100
AcDbEntity
  8
AM_6
100
AcDbMText
 10
2229.269716799982
 20
1636.326106001696
 30
0.0
 40
3.2
 41
19.2796450245637
 71
     1
 72
     5
  1
{\L切欠推奨寸法}
 73
     1
 44
1.0
1001
ACAD
1000
MTEXTBEGIN
1070
    73
1070
     1
1070
    44
1040
1.0
1070
    74
1070
     0
1000
MTEXTEND
  0
LINE
  5
B93E
330
1F
100
AcDbEntity
  8
AM_0
100
AcDbLine
 10
2128.949479797951
 20
1778.828573877083
 30
0.0
 11
2126.449479797952
 21
1778.828573877083
 31
0.0
  0
ARC
  5
B93F
330
1F
100
AcDbEntity
  8
AM_0
100
AcDbCircle
 10
2128.949479797951
 20
1778.328573877083
 30
0.0
 40
0.5
100
AcDbArc
 50
0.0
 51
90.0
  0
LINE
  5
B940
330
1F
100
AcDbEntity
  8
AM_0
100
AcDbLine
 10
2128.949479797951
 20
1638.828573877082
 30
0.0
 11
2126.449479797951
 21
1638.828573877082
 31
0.0
  0
ARC
  5
B941
330
1F
100
AcDbEntity
  8
AM_0
100
AcDbCircle
 10
2128.949479797951
 20
1639.328573877082
 30
0.0
 40
0.5
100
AcDbArc
 50
270.0
 51
0.0
  0
DIMENSION
  5
B942
330
1F
100
AcDbEntity
  8
AM_5
100
AcDbDimension
  2
*D11
 10
2129.449479797951
 20
1799.325616901862
 30
0.0
 11
2126.449479797951
 21
1802.125616901862
 31
0.0
 70
    32
 71
     5
 42
6.0
  3
SYS$0
100
AcDbAlignedDimension
 13
2123.449479797951
 23
1776.220530131005
 33
0.0
 14
2129.449479797951
 24
1778.828573877083
 34
0.0
100
AcDbRotatedDimension
  0
DIMENSION
  5
B943
330
1F
100
AcDbEntity
  8
AM_5
100
AcDbDimension
  2
*D12
 10
2154.449479797951
 20
1799.325616901861
 30
0.0
 11
2141.949479797951
 21
1802.125616901861
 31
0.0
 70
    32
 71
     5
 42
25.0
  3
SYS$0
100
AcDbAlignedDimension
 13
2129.449479797951
 23
1778.828573877083
 33
0.0
 14
2154.449479797951
 24
1743.10497009701
 34
0.0
100
AcDbRotatedDimension
  0
DIMENSION
  5
B944
330
1F
100
AcDbEntity
  8
AM_5
100
AcDbDimension
  2
*D13
 10
2059.756300732836
 20
1789.32561690186
 30
0.0
 11
2009.756300732837
 21
1792.125616901861
 31
0.0
 70
    32
 71
     5
 42
100.0
  3
SYS$0
100
AcDbAlignedDimension
 13
1959.756300732836
 23
1776.828573877082
 33
0.0
 14
2059.756300732836
 24
1776.828573877082
 34
0.0
100
AcDbRotatedDimension
  0
DIMENSION
  5
B945
330
1F
100
AcDbEntity
  8
AM_5
100
AcDbDimension
  2
*D14
 10
2069.756300732836
 20
1799.325616901859
 30
0.0
 11
2009.756300732837
 21
1802.125616901859
 31
0.0
 70
    32
 71
     5
 42
120.0
  3
SYS$0
100
AcDbAlignedDimension
 13
1949.756300732836
 23
1773.828573877082
 33
0.0
 14
2069.756300732836
 24
1773.828573877082
 34
0.0
100
AcDbRotatedDimension
  0
DIMENSION
  5
B946
330
1F
100
AcDbEntity
  8
AM_5
100
AcDbDimension
  2
*D15
 10
2084.756300732836
 20
1648.828573877082
 30
0.0
 11
2081.956300732835
 21
1708.828573877083
 31
0.0
 70
    32
 71
     5
 42
120.0
  3
SYS$0
100
AcDbAlignedDimension
 13
2067.756300732837
 23
1768.828573877082
 33
0.0
 14
2067.756300732837
 24
1648.828573877082
 34
0.0
 50
90.0
100
AcDbRotatedDimension
  0
DIMENSION
  5
B947
330
1F
100
AcDbEntity
  8
AM_5
100
AcDbDimension
  2
*D16
 10
2094.756300732836
 20
1638.828573877082
 30
0.0
 11
2091.956300732836
 21
1708.828573877082
 31
0.0
 70
    32
 71
     5
 42
139.9999999999997
  3
SYS$0
100
AcDbAlignedDimension
 13
2064.756300732836
 23
1778.828573877082
 33
0.0
 14
2064.756300732836
 24
1638.828573877082
 34
0.0
 50
90.0
100
AcDbRotatedDimension
  0
DIMENSION
  5
B948
330
1F
100
AcDbEntity
  8
AM_5
100
AcDbDimension
  2
*D17
 10
2018.756300732837
 20
1623.364785934444
 30
0.0
 11
2009.756300732837
 21
1626.164785934443
 31
0.0
 70
    32
  1
（<>）
 71
     5
 42
18.0
  3
SYS$0
100
AcDbAlignedDimension
 13
2000.756300732836
 23
1665.127224112462
 33
0.0
 14
2018.756300732837
 24
1665.25776451665
 34
0.0
100
AcDbRotatedDimension
  0
LINE
  5
B94D
330
1F
100
AcDbEntity
  8
AM_0
100
AcDbLine
 10
2129.738170667081
 20
1656.948603938811
 30
0.0
 11
2142.901845032765
 21
1663.086926104989
 31
0.0
  0
ARC
  5
B94E
330
1F
100
AcDbEntity
  8
AM_0
100
AcDbCircle
 10
2129.949479797951
 20
1656.495450045294
 30
0.0
 40
0.5
100
AcDbArc
 50
115.0000000000052
 51
180.000000000026
  0
LINE
  5
B94F
330
1F
100
AcDbEntity
  8
AM_0
100
AcDbLine
 10
2154.449479797952
 20
1736.444065908442
 30
0.0
 11
2154.449479797951
 21
1681.213081845722
 31
0.0
  0
ARC
  5
B950
330
1F
100
AcDbEntity
  8
AM_0
100
AcDbCircle
 10
2134.449479797952
 20
1736.444065908442
 30
0.0
 40
20.0
100
AcDbArc
 50
0.0
 51
64.99999999999474
  0
ARC
  5
B951
330
1F
100
AcDbEntity
  8
AM_0
100
AcDbCircle
 10
2134.449479797951
 20
1681.213081845722
 30
0.0
 40
20.0
100
AcDbArc
 50
295.0000000000053
 51
0.0
  0
LINE
  5
B959
330
1F
100
AcDbEntity
  8
AM_0
100
AcDbLine
 10
2129.738170667081
 20
1760.708543815353
 30
0.0
 11
2142.901845032765
 21
1754.570221649175
 31
0.0
  0
ARC
  5
B95A
330
1F
100
AcDbEntity
  8
AM_0
100
AcDbCircle
 10
2129.949479797951
 20
1761.161697708871
 30
0.0
 40
0.5
100
AcDbArc
 50
179.9999999999739
 51
244.9999999999947
  0
POINT
  5
BA58
330
1F
100
AcDbEntity
  8
0
 60
     1
100
AcDbPoint
 10
-1522.629252857258
 20
213.6341093800386
 30
0.0
1001
GENIUS_GENOENT_13
1002
{
1000
MYREF
1005
BA58
1002
}
1002
{
1000
GRP
1005
0
1002
}
1001
GENIUS_GENOBJ-N-TIT_13
1002
{
1000
OWNER
1000
GEN
1002
}
1001
GENIUS_GENOLIS_13
1002
{
1000
ENT
1005
B8C2
1005
B8C1
1005
0
1002
}
1001
GENIUS_GENTITLE_13
1002
{
1000
BORDER
1000
Z:\000 共通使用ファイル（テンプレート等）\002 SYS図枠13\AIS 11\SYS図枠A3(AIS11)
1002
}
1002
{
1000
TITLE
1000
Z:\000 共通使用ファイル（テンプレート等）\002 SYS図枠13\AIS 11\SYS表題(AIS11)
1002
}
1002
{
1000
SCALE
1000
1:1
1002
}
1002
{
1000
TITLESTD
1000
SYS
1002
}
1002
{
1000
HRA
1005
B8C1
1002
}
1002
{
1000
HTIT
1005
B8C2
1002
}
1002
{
1000
GENIUSID
1005
BA58
1002
}
1002
{
1000
INVTXTID
1005
0
1002
}
1002
{
1000
UNCHG
1002
{
1000
GEN-TITLE-SIZ
1000
GEN-TITLE-SCA
1002
}
1002
}
1001
GENIUS_GENODEF_13
1002
{
1000
HIER
1070
     1
1002
}
1002
{
1000
MANEDIT
1070
     1
1002
}
1002
{
1000
NOSEL
1070
     0
1002
}
1002
{
1000
BEHIND
1070
     0
1002
}
1002
{
1000
OTHER
1070
     0
1002
}
1002
{
1000
REACTOR
1002
}
  0
POINT
  5
BA59
330
1F
100
AcDbEntity
  8
0
 60
     1
100
AcDbPoint
 10
-2507.672341321298
 20
154.489711971122
 30
0.0
1001
GENIUS_GENOENT_13
1002
{
1000
MYREF
1005
BA59
1002
}
1002
{
1000
GRP
1005
0
1002
}
1001
GENIUS_GENOBJ-N-TIT_13
1002
{
1000
OWNER
1000
GEN
1002
}
1001
GENIUS_GENOLIS_13
1002
{
1000
ENT
1005
B95C
1005
B95B
1005
0
1002
}
1001
GENIUS_GENTITLE_13
1002
{
1000
BORDER
1000
Z:\000 共通使用ファイル（テンプレート等）\002 SYS図枠13\AIS 11\SYS図枠A3(AIS11)
1002
}
1002
{
1000
TITLE
1000
Z:\000 共通使用ファイル（テンプレート等）\002 SYS図枠13\AIS 11\SYS表題(AIS11)
1002
}
1002
{
1000
SCALE
1000
1:1
1002
}
1002
{
1000
TITLESTD
1000
SYS
1002
}
1002
{
1000
HRA
1005
B95B
1002
}
1002
{
1000
HTIT
1005
B95C
1002
}
1002
{
1000
GENIUSID
1005
BA59
1002
}
1002
{
1000
INVTXTID
1005
0
1002
}
1002
{
1000
UNCHG
1002
{
1000
GEN-TITLE-SIZ
1000
GEN-TITLE-SCA
1002
}
1002
}
1001
GENIUS_GENODEF_13
1002
{
1000
HIER
1070
     1
1002
}
1002
{
1000
MANEDIT
1070
     1
1002
}
1002
{
1000
NOSEL
1070
     0
1002
}
1002
{
1000
BEHIND
1070
     0
1002
}
1002
{
1000
OTHER
1070
     0
1002
}
1002
{
1000
REACTOR
1002
}
  0
TEXT
  5
BCA8
330
1F
100
AcDbEntity
  8
AM_6
 60
     1
100
AcDbText
 10
2323.512050879946
 20
1571.958547260965
 30
0.0
 40
2.5
  1
!GENTITLE-INSERT
100
AcDbText
  0
TEXT
  5
BCA9
330
1F
100
AcDbEntity
  8
AM_6
 60
     1
100
AcDbText
 10
1915.012050879946
 20
1563.458547260965
 30
0.0
 40
2.5
  1
!GENTITLE-LL
100
AcDbText
  0
TEXT
  5
BCAA
330
1F
100
AcDbEntity
  8
AM_6
 60
     1
100
AcDbText
 10
2335.012050879946
 20
1860.458547260965
 30
0.0
 40
2.5
  1
!GENTITLE-RU
100
AcDbText
  0
TEXT
  5
BCAB
330
1F
100
AcDbEntity
  8
AM_6
 60
     1
100
AcDbText
 10
2335.012050879946
 20
1860.458547260965
 30
0.0
 40
2.5
  1
!GENTITLE-MAX
100
AcDbText
  0
LINE
  5
BCAC
330
1F
100
AcDbEntity
  8
size
100
AcDbLine
 10
1915.012050879946
 20
1563.458547260965
 30
0.0
 11
2335.012050879946
 21
1563.458547260965
 31
0.0
1001
GENIUS_GENREC_14
1002
{
1000
PYDIR
1011
1915.012050879946
1021
1860.458547260965
1031
0.0
1002
}
1002
{
1000
PXDIR
1011
2335.012050879946
1021
1563.458547260965
1031
0.0
1002
}
1002
{
1000
PORI
1011
1915.012050879946
1021
1563.458547260965
1031
0.0
1002
}
1002
{
1000
PINS
1011
2125.012050879945
1021
1711.958547260965
1031
0.0
1002
}
1002
{
1000
HVAL
1000
297
1002
}
1002
{
1000
H
1070
     2
1002
}
1002
{
1000
WVAL
1000
420
1002
}
1002
{
1000
W
1070
     2
1002
}
1002
{
1000
C
1070
     4
1002
}
1001
GENIUS_GENOBJ-N-REC_13
1002
{
1000
OWNER
1000
GEN
1002
}
1001
GENIUS_GENODEF_13
1002
{
1000
HIER
1070
     0
1002
}
1002
{
1000
MANEDIT
1070
     0
1002
}
1002
{
1000
NOSEL
1070
     0
1002
}
1002
{
1000
BEHIND
1070
     0
1002
}
1002
{
1000
OTHER
1070
     0
1002
}
1002
{
1000
REACTOR
1002
}
  0
LINE
  5
BCAD
330
1F
100
AcDbEntity
  8
size
100
AcDbLine
 10
2335.012050879946
 20
1563.458547260965
 30
0.0
 11
2335.012050879946
 21
1860.458547260965
 31
0.0
1001
GENIUS_GENREC_14
1002
{
1000
PYDIR
1011
1915.012050879946
1021
1860.458547260965
1031
0.0
1002
}
1002
{
1000
PXDIR
1011
2335.012050879946
1021
1563.458547260965
1031
0.0
1002
}
1002
{
1000
PORI
1011
1915.012050879946
1021
1563.458547260965
1031
0.0
1002
}
1002
{
1000
PINS
1011
2125.012050879945
1021
1711.958547260965
1031
0.0
1002
}
1002
{
1000
HVAL
1000
297
1002
}
1002
{
1000
H
1070
     2
1002
}
1002
{
1000
WVAL
1000
420
1002
}
1002
{
1000
W
1070
     2
1002
}
1002
{
1000
C
1070
     4
1002
}
1001
GENIUS_GENOBJ-N-REC_13
1002
{
1000
OWNER
1000
GEN
1002
}
1001
GENIUS_GENODEF_13
1002
{
1000
HIER
1070
     0
1002
}
1002
{
1000
MANEDIT
1070
     0
1002
}
1002
{
1000
NOSEL
1070
     0
1002
}
1002
{
1000
BEHIND
1070
     0
1002
}
1002
{
1000
OTHER
1070
     0
1002
}
1002
{
1000
REACTOR
1002
}
  0
LINE
  5
BCAE
330
1F
100
AcDbEntity
  8
size
100
AcDbLine
 10
2335.012050879946
 20
1860.458547260965
 30
0.0
 11
1915.012050879946
 21
1860.458547260965
 31
0.0
1001
GENIUS_GENREC_14
1002
{
1000
PYDIR
1011
1915.012050879946
1021
1860.458547260965
1031
0.0
1002
}
1002
{
1000
PXDIR
1011
2335.012050879946
1021
1563.458547260965
1031
0.0
1002
}
1002
{
1000
PORI
1011
1915.012050879946
1021
1563.458547260965
1031
0.0
1002
}
1002
{
1000
PINS
1011
2125.012050879945
1021
1711.958547260965
1031
0.0
1002
}
1002
{
1000
HVAL
1000
297
1002
}
1002
{
1000
H
1070
     2
1002
}
1002
{
1000
WVAL
1000
420
1002
}
1002
{
1000
W
1070
     2
1002
}
1002
{
1000
C
1070
     4
1002
}
1001
GENIUS_GENOBJ-N-REC_13
1002
{
1000
OWNER
1000
GEN
1002
}
1001
GENIUS_GENODEF_13
1002
{
1000
HIER
1070
     0
1002
}
1002
{
1000
MANEDIT
1070
     0
1002
}
1002
{
1000
NOSEL
1070
     0
1002
}
1002
{
1000
BEHIND
1070
     0
1002
}
1002
{
1000
OTHER
1070
     0
1002
}
1002
{
1000
REACTOR
1002
}
  0
LINE
  5
BCAF
330
1F
100
AcDbEntity
  8
size
100
AcDbLine
 10
1915.012050879946
 20
1860.458547260965
 30
0.0
 11
1915.012050879946
 21
1563.458547260965
 31
0.0
1001
GENIUS_GENREC_14
1002
{
1000
PYDIR
1011
1915.012050879946
1021
1860.458547260965
1031
0.0
1002
}
1002
{
1000
PXDIR
1011
2335.012050879946
1021
1563.458547260965
1031
0.0
1002
}
1002
{
1000
PORI
1011
1915.012050879946
1021
1563.458547260965
1031
0.0
1002
}
1002
{
1000
PINS
1011
2125.012050879945
1021
1711.958547260965
1031
0.0
1002
}
1002
{
1000
HVAL
1000
297
1002
}
1002
{
1000
H
1070
     2
1002
}
1002
{
1000
WVAL
1000
420
1002
}
1002
{
1000
W
1070
     2
1002
}
1002
{
1000
C
1070
     4
1002
}
1001
GENIUS_GENOBJ-N-REC_13
1002
{
1000
OWNER
1000
GEN
1002
}
1001
GENIUS_GENODEF_13
1002
{
1000
HIER
1070
     0
1002
}
1002
{
1000
MANEDIT
1070
     0
1002
}
1002
{
1000
NOSEL
1070
     0
1002
}
1002
{
1000
BEHIND
1070
     0
1002
}
1002
{
1000
OTHER
1070
     0
1002
}
1002
{
1000
REACTOR
1002
}
  0
LINE
  5
BCB0
330
1F
100
AcDbEntity
  8
waku
100
AcDbLine
 10
2323.512050879946
 20
1571.958547260965
 30
0.0
 11
2323.512050879946
 21
1851.958547260965
 31
0.0
1001
GENIUS_GENREC_14
1002
{
1000
PYDIR
1011
1915.012050879946
1021
1860.458547260965
1031
0.0
1002
}
1002
{
1000
PXDIR
1011
2335.012050879946
1021
1563.458547260965
1031
0.0
1002
}
1002
{
1000
PORI
1011
1915.012050879946
1021
1563.458547260965
1031
0.0
1002
}
1002
{
1000
PINS
1011
2125.012050879945
1021
1711.958547260965
1031
0.0
1002
}
1002
{
1000
HVAL
1000
297
1002
}
1002
{
1000
H
1070
     2
1002
}
1002
{
1000
WVAL
1000
420
1002
}
1002
{
1000
W
1070
     2
1002
}
1002
{
1000
C
1070
     4
1002
}
1001
GENIUS_GENOBJ-N-REC_13
1002
{
1000
OWNER
1000
GEN
1002
}
1001
GENIUS_GENODEF_13
1002
{
1000
HIER
1070
     0
1002
}
1002
{
1000
MANEDIT
1070
     0
1002
}
1002
{
1000
NOSEL
1070
     0
1002
}
1002
{
1000
BEHIND
1070
     0
1002
}
1002
{
1000
OTHER
1070
     0
1002
}
1002
{
1000
REACTOR
1002
}
  0
LINE
  5
BCB1
330
1F
100
AcDbEntity
  8
waku
100
AcDbLine
 10
1926.512050879945
 20
1851.958547260965
 30
0.0
 11
1926.512050879945
 21
1571.958547260965
 31
0.0
1001
GENIUS_GENREC_14
1002
{
1000
PYDIR
1011
1915.012050879946
1021
1860.458547260965
1031
0.0
1002
}
1002
{
1000
PXDIR
1011
2335.012050879946
1021
1563.458547260965
1031
0.0
1002
}
1002
{
1000
PORI
1011
1915.012050879946
1021
1563.458547260965
1031
0.0
1002
}
1002
{
1000
PINS
1011
2125.012050879945
1021
1711.958547260965
1031
0.0
1002
}
1002
{
1000
HVAL
1000
297
1002
}
1002
{
1000
H
1070
     2
1002
}
1002
{
1000
WVAL
1000
420
1002
}
1002
{
1000
W
1070
     2
1002
}
1002
{
1000
C
1070
     4
1002
}
1001
GENIUS_GENOBJ-N-REC_13
1002
{
1000
OWNER
1000
GEN
1002
}
1001
GENIUS_GENODEF_13
1002
{
1000
HIER
1070
     0
1002
}
1002
{
1000
MANEDIT
1070
     0
1002
}
1002
{
1000
NOSEL
1070
     0
1002
}
1002
{
1000
BEHIND
1070
     0
1002
}
1002
{
1000
OTHER
1070
     0
1002
}
1002
{
1000
REACTOR
1002
}
  0
LINE
  5
BCB2
330
1F
100
AcDbEntity
  8
waku
100
AcDbLine
 10
2323.512050879946
 20
1851.958547260965
 30
0.0
 11
1926.512050879945
 21
1851.958547260965
 31
0.0
1001
GENIUS_GENREC_14
1002
{
1000
PYDIR
1011
1915.012050879946
1021
1860.458547260965
1031
0.0
1002
}
1002
{
1000
PXDIR
1011
2335.012050879946
1021
1563.458547260965
1031
0.0
1002
}
1002
{
1000
PORI
1011
1915.012050879946
1021
1563.458547260965
1031
0.0
1002
}
1002
{
1000
PINS
1011
2125.012050879945
1021
1711.958547260965
1031
0.0
1002
}
1002
{
1000
HVAL
1000
297
1002
}
1002
{
1000
H
1070
     2
1002
}
1002
{
1000
WVAL
1000
420
1002
}
1002
{
1000
W
1070
     2
1002
}
1002
{
1000
C
1070
     4
1002
}
1001
GENIUS_GENOBJ-N-REC_13
1002
{
1000
OWNER
1000
GEN
1002
}
1001
GENIUS_GENODEF_13
1002
{
1000
HIER
1070
     0
1002
}
1002
{
1000
MANEDIT
1070
     0
1002
}
1002
{
1000
NOSEL
1070
     0
1002
}
1002
{
1000
BEHIND
1070
     0
1002
}
1002
{
1000
OTHER
1070
     0
1002
}
1002
{
1000
REACTOR
1002
}
  0
TEXT
  5
BCB3
330
1F
100
AcDbEntity
  8
AM_6
 60
     1
100
AcDbText
 10
1915.012050879946
 20
1563.458547260965
 30
0.0
 40
2.5
  1
!GENTITLE-LL
100
AcDbText
  0
TEXT
  5
BCB4
330
1F
100
AcDbEntity
  8
AM_6
 60
     1
100
AcDbText
 10
2323.512050879946
 20
1851.958547260965
 30
0.0
 40
2.5
  1
!GENTITLE-RU
100
AcDbText
  0
TEXT
  5
BCB5
330
1F
100
AcDbEntity
  8
AM_6
 60
     1
100
AcDbText
 10
2335.012050879946
 20
1860.458547260965
 30
0.0
 40
2.5
  1
!GENTITLE-MAX
100
AcDbText
  0
TEXT
  5
BCB6
330
1F
100
AcDbEntity
  8
AM_6
 60
     1
100
AcDbText
 10
2323.512050879946
 20
1571.958547260965
 30
0.0
 40
2.5
  1
!GENTITLE-INSERT
100
AcDbText
  0
LINE
  5
BCB7
330
1F
100
AcDbEntity
  8
waku
100
AcDbLine
 10
1926.512050879945
 20
1571.958547260965
 30
0.0
 11
2323.512050879946
 21
1571.958547260965
 31
0.0
  0
TEXT
  5
BCBB
330
1F
100
AcDbEntity
  8
AM_6
 60
     1
100
AcDbText
 10
2743.512050879946
 20
1571.958547260965
 30
0.0
 40
2.5
  1
!GENTITLE-INSERT
100
AcDbText
  0
TEXT
  5
BCBC
330
1F
100
AcDbEntity
  8
AM_6
 60
     1
100
AcDbText
 10
2335.012050879946
 20
1563.458547260965
 30
0.0
 40
2.5
  1
!GENTITLE-LL
100
AcDbText
  0
TEXT
  5
BCBD
330
1F
100
AcDbEntity
  8
AM_6
 60
     1
100
AcDbText
 10
2755.012050879946
 20
1860.458547260965
 30
0.0
 40
2.5
  1
!GENTITLE-RU
100
AcDbText
  0
TEXT
  5
BCBE
330
1F
100
AcDbEntity
  8
AM_6
 60
     1
100
AcDbText
 10
2755.012050879946
 20
1860.458547260965
 30
0.0
 40
2.5
  1
!GENTITLE-MAX
100
AcDbText
  0
LINE
  5
BCC2
330
1F
100
AcDbEntity
  8
size
100
AcDbLine
 10
2335.012050879946
 20
1860.458547260965
 30
0.0
 11
2335.012050879946
 21
1563.458547260965
 31
0.0
1001
GENIUS_GENREC_14
1002
{
1000
PYDIR
1011
2335.012050879946
1021
1860.458547260965
1031
0.0
1002
}
1002
{
1000
PXDIR
1011
2755.012050879946
1021
1563.458547260965
1031
0.0
1002
}
1002
{
1000
PORI
1011
2335.012050879946
1021
1563.458547260965
1031
0.0
1002
}
1002
{
1000
PINS
1011
2545.012050879945
1021
1711.958547260965
1031
0.0
1002
}
1002
{
1000
HVAL
1000
297
1002
}
1002
{
1000
H
1070
     2
1002
}
1002
{
1000
WVAL
1000
420
1002
}
1002
{
1000
W
1070
     2
1002
}
1002
{
1000
C
1070
     4
1002
}
1001
GENIUS_GENOBJ-N-REC_13
1002
{
1000
OWNER
1000
GEN
1002
}
1001
GENIUS_GENODEF_13
1002
{
1000
HIER
1070
     0
1002
}
1002
{
1000
MANEDIT
1070
     0
1002
}
1002
{
1000
NOSEL
1070
     0
1002
}
1002
{
1000
BEHIND
1070
     0
1002
}
1002
{
1000
OTHER
1070
     0
1002
}
1002
{
1000
REACTOR
1002
}
  0
TEXT
  5
BCC6
330
1F
100
AcDbEntity
  8
AM_6
 60
     1
100
AcDbText
 10
2335.012050879946
 20
1563.458547260965
 30
0.0
 40
2.5
  1
!GENTITLE-LL
100
AcDbText
  0
TEXT
  5
BCC7
330
1F
100
AcDbEntity
  8
AM_6
 60
     1
100
AcDbText
 10
2743.512050879946
 20
1851.958547260965
 30
0.0
 40
2.5
  1
!GENTITLE-RU
100
AcDbText
  0
TEXT
  5
BCC8
330
1F
100
AcDbEntity
  8
AM_6
 60
     1
100
AcDbText
 10
2755.012050879946
 20
1860.458547260965
 30
0.0
 40
2.5
  1
!GENTITLE-MAX
100
AcDbText
  0
TEXT
  5
BCC9
330
1F
100
AcDbEntity
  8
AM_6
 60
     1
100
AcDbText
 10
2743.512050879946
 20
1571.958547260965
 30
0.0
 40
2.5
  1
!GENTITLE-INSERT
100
AcDbText
  0
DIMENSION
  5
BDA3
330
1F
100
AcDbEntity
  8
AM_5
100
AcDbDimension
  2
*D19
 10
2197.30067465329
 20
1662.828573877083
 30
0.0
 11
2178.825784725102
 21
1654.249864666386
 31
0.0
 70
   164
 71
     5
 42
7.0
  3
SYS$4
100
AcDbRadialDimension
 15
2191.178477227397
 25
1659.434653035581
 35
0.0
 40
0.0
  0
HATCH
  5
BDB8
330
1F
100
AcDbEntity
  8
AM_8
100
AcDbHatch
 10
0.0
 20
0.0
 30
0.0
210
0.0
220
0.0
230
1.0
  2
_U
 70
     0
 71
     0
 91
        1
 92
        1
 93
        8
 72
     1
 10
2197.300674653289
 20
1655.828573877083
 11
2277.30067465329
 21
1655.828573877083
 72
     2
 10
2277.30067465329
 20
1662.828573877083
 40
7.0
 50
270.0
 51
360.0
 73
     1
 72
     1
 10
2284.30067465329
 20
1662.828573877083
 11
2284.30067465329
 21
1754.828573877082
 72
     2
 10
2277.30067465329
 20
1754.828573877082
 40
7.0
 50
0.0
 51
90.0
 73
     1
 72
     1
 10
2277.30067465329
 20
1761.828573877082
 11
2197.300674653289
 21
1761.828573877082
 72
     2
 10
2197.300674653289
 20
1754.828573877082
 40
7.0
 50
90.0
 51
180.0
 73
     1
 72
     1
 10
2190.30067465329
 20
1754.828573877082
 11
2190.30067465329
 21
1662.828573877083
 72
     2
 10
2197.300674653289
 20
1662.828573877083
 40
7.0
 50
180.0
 51
270.0
 73
     1
 97
        0
 75
     0
 76
     0
 52
45.0
 41
5.0
 77
     0
 78
     1
 53
45.0
 43
0.0
 44
0.0
 45
-3.535533905932737
 46
3.535533905932737
 79
     0
 98
        1
 10
0.0
 20
0.0
1001
GENIUS_GENODEF_13
1002
{
1000
HIER
1070
     0
1002
}
1002
{
1000
MANEDIT
1070
     0
1002
}
1002
{
1000
NOSEL
1070
     0
1002
}
1002
{
1000
BEHIND
1070
     0
1002
}
1002
{
1000
OTHER
1070
     0
1002
}
1002
{
1000
REACTOR
1002
}
1001
GENIUS_GENOBJ-N-HTC_13
1002
{
1000
OWNER
1000
GEN
1002
}
1001
GENIUS_GENHATCH_13
1002
{
1000
DATA
1040
45.0
1042
2.5
1000
_U
1070
     0
1011
2214.565865662079
1021
1694.021201465846
1031
0.0
1002
}
1002
{
1000
UCS
1010
0.0
1020
0.0
1030
0.0
1010
1.0
1020
0.0
1030
0.0
1010
0.0
1020
1.0
1030
0.0
1002
}
  0
DIMENSION
  5
BDB9
330
1F
100
AcDbEntity
  8
AM_5
100
AcDbDimension
  2
*D20
 10
2285.568145145663
 20
1651.277725057635
 30
0.0
 11
2300.704527551883
 21
1637.231382647025
 31
0.0
 70
   163
  1
6-<>
 71
     5
 42
6.0
  3
SYS$3
100
AcDbDiametricDimension
 15
2289.033204160917
 25
1646.379422696529
 35
0.0
 40
0.0
1001
ACAD
1000
DSTYLE
1002
{
1070
   172
1070
     1
1070
   281
1070
     1
1070
   342
1005
BCCE
1002
}
  0
HATCH
  5
BE30
330
1F
100
AcDbEntity
  8
AM_8
100
AcDbHatch
 10
0.0
 20
0.0
 30
0.0
210
0.0
220
0.0
230
1.0
  2
_U
 70
     0
 71
     0
 91
        1
 92
        1
 93
        2
 72
     2
 10
2187.30067465329
 20
1648.828573877082
 40
2.999999999999804
 50
191.4591559026183
 51
400.5180947344674
 73
     1
 72
     2
 10
2187.30067465329
 20
1648.828573877082
 40
2.999999999999921
 50
40.51809473446748
 51
191.4591559026183
 73
     1
 97
        0
 75
     0
 76
     0
 52
45.0
 41
1.0
 77
     0
 78
     1
 53
45.0
 43
0.0
 44
0.0
 45
-0.7071067811865475
 46
0.7071067811865476
 79
     0
 98
        1
 10
0.0
 20
0.0
1001
GENIUS_GENOBJ-N-HTC_13
1002
{
1000
OWNER
1000
GEN
1002
}
1001
GENIUS_GENODEF_13
1002
{
1000
HIER
1070
     0
1002
}
1002
{
1000
MANEDIT
1070
     0
1002
}
1002
{
1000
NOSEL
1070
     0
1002
}
1002
{
1000
BEHIND
1070
     0
1002
}
1002
{
1000
OTHER
1070
     0
1002
}
1002
{
1000
REACTOR
1002
}
1001
GENIUS_GENHATCH_13
1002
{
1000
DATA
1040
45.0
1042
2.5
1000
_U
1070
     0
1011
2188.709790821973
1021
1650.032842623961
1031
0.0
1002
}
1002
{
1000
UCS
1010
0.0
1020
0.0
1030
0.0
1010
1.0
1020
0.0
1030
0.0
1010
0.0
1020
1.0
1030
0.0
1002
}
  0
HATCH
  5
BE32
330
1F
100
AcDbEntity
  8
AM_8
100
AcDbHatch
 10
0.0
 20
0.0
 30
0.0
210
0.0
220
0.0
230
1.0
  2
_U
 70
     0
 71
     0
 91
        1
 92
        1
 93
        2
 72
     2
 10
2237.30067465329
 20
1648.828573877082
 40
2.999999999999804
 50
191.4591559026183
 51
405.6223298597388
 73
     1
 72
     2
 10
2237.30067465329
 20
1648.828573877082
 40
2.999999999999952
 50
45.6223298597389
 51
191.4591559026183
 73
     1
 97
        0
 75
     0
 76
     0
 52
45.0
 41
1.0
 77
     0
 78
     1
 53
45.0
 43
0.0
 44
0.0
 45
-0.7071067811865475
 46
0.7071067811865476
 79
     0
 98
        1
 10
0.0
 20
0.0
1001
GENIUS_GENOBJ-N-HTC_13
1002
{
1000
OWNER
1000
GEN
1002
}
1001
GENIUS_GENODEF_13
1002
{
1000
HIER
1070
     0
1002
}
1002
{
1000
MANEDIT
1070
     0
1002
}
1002
{
1000
NOSEL
1070
     0
1002
}
1002
{
1000
BEHIND
1070
     0
1002
}
1002
{
1000
OTHER
1070
     0
1002
}
1002
{
1000
REACTOR
1002
}
1001
GENIUS_GENHATCH_13
1002
{
1000
DATA
1040
45.0
1042
2.5
1000
_U
1070
     0
1011
2238.605472132167
1021
1650.162028398088
1031
0.0
1002
}
1002
{
1000
UCS
1010
0.0
1020
0.0
1030
0.0
1010
1.0
1020
0.0
1030
0.0
1010
0.0
1020
1.0
1030
0.0
1002
}
  0
HATCH
  5
BE34
330
1F
100
AcDbEntity
  8
AM_8
100
AcDbHatch
 10
0.0
 20
0.0
 30
0.0
210
0.0
220
0.0
230
1.0
  2
_U
 70
     0
 71
     0
 91
        1
 92
        1
 93
        2
 72
     2
 10
2287.30067465329
 20
1648.828573877082
 40
2.999999999999804
 50
191.4591559026183
 51
399.5364427170286
 73
     1
 72
     2
 10
2287.30067465329
 20
1648.828573877082
 40
2.999999999999988
 50
39.53644271702859
 51
191.4591559026183
 73
     1
 97
        0
 75
     0
 76
     0
 52
45.0
 41
1.0
 77
     0
 78
     1
 53
45.0
 43
0.0
 44
0.0
 45
-0.7071067811865475
 46
0.7071067811865476
 79
     0
 98
        1
 10
0.0
 20
0.0
1001
GENIUS_GENOBJ-N-HTC_13
1002
{
1000
OWNER
1000
GEN
1002
}
1001
GENIUS_GENODEF_13
1002
{
1000
HIER
1070
     0
1002
}
1002
{
1000
MANEDIT
1070
     0
1002
}
1002
{
1000
NOSEL
1070
     0
1002
}
1002
{
1000
BEHIND
1070
     0
1002
}
1002
{
1000
OTHER
1070
     0
1002
}
1002
{
1000
REACTOR
1002
}
1001
GENIUS_GENHATCH_13
1002
{
1000
DATA
1040
45.0
1042
2.5
1000
_U
1070
     0
1011
2288.759677747831
1021
1650.032842623961
1031
0.0
1002
}
1002
{
1000
UCS
1010
0.0
1020
0.0
1030
0.0
1010
1.0
1020
0.0
1030
0.0
1010
0.0
1020
1.0
1030
0.0
1002
}
  0
HATCH
  5
BE36
330
1F
100
AcDbEntity
  8
AM_8
100
AcDbHatch
 10
0.0
 20
0.0
 30
0.0
210
0.0
220
0.0
230
1.0
  2
_U
 70
     0
 71
     0
 91
        1
 92
        1
 93
        2
 72
     2
 10
2287.300674653289
 20
1768.828573877082
 40
3.000000000000249
 50
11.45915590261657
 51
223.0066637575299
 73
     1
 72
     2
 10
2287.300674653289
 20
1768.828573877082
 40
2.99999999999962
 50
223.0066637575299
 51
371.4591559026166
 73
     1
 97
        0
 75
     0
 76
     0
 52
45.0
 41
1.0
 77
     0
 78
     1
 53
45.0
 43
0.0
 44
0.0
 45
-0.7071067811865475
 46
0.7071067811865476
 79
     0
 98
        1
 10
0.0
 20
0.0
1001
GENIUS_GENOBJ-N-HTC_13
1002
{
1000
OWNER
1000
GEN
1002
}
1001
GENIUS_GENODEF_13
1002
{
1000
HIER
1070
     0
1002
}
1002
{
1000
MANEDIT
1070
     0
1002
}
1002
{
1000
NOSEL
1070
     0
1002
}
1002
{
1000
BEHIND
1070
     0
1002
}
1002
{
1000
OTHER
1070
     0
1002
}
1002
{
1000
REACTOR
1002
}
1001
GENIUS_GENHATCH_13
1002
{
1000
DATA
1040
45.0
1042
2.5
1000
_U
1070
     0
1011
2286.040747741691
1021
1767.653399034982
1031
0.0
1002
}
1002
{
1000
UCS
1010
0.0
1020
0.0
1030
0.0
1010
1.0
1020
0.0
1030
0.0
1010
0.0
1020
1.0
1030
0.0
1002
}
  0
HATCH
  5
BE38
330
1F
100
AcDbEntity
  8
AM_8
100
AcDbHatch
 10
0.0
 20
0.0
 30
0.0
210
0.0
220
0.0
230
1.0
  2
_U
 70
     0
 71
     0
 91
        1
 92
        1
 93
        2
 72
     2
 10
2237.30067465329
 20
1768.828573877083
 40
2.999999999999849
 50
191.4591559026225
 51
393.0385297648021
 73
     1
 72
     2
 10
2237.30067465329
 20
1768.828573877083
 40
3.000000000000014
 50
33.03852976480206
 51
191.4591559026225
 73
     1
 97
        0
 75
     0
 76
     0
 52
45.0
 41
1.0
 77
     0
 78
     1
 53
45.0
 43
0.0
 44
0.0
 45
-0.7071067811865475
 46
0.7071067811865476
 79
     0
 98
        1
 10
0.0
 20
0.0
1001
GENIUS_GENOBJ-N-HTC_13
1002
{
1000
OWNER
1000
GEN
1002
}
1001
GENIUS_GENODEF_13
1002
{
1000
HIER
1070
     0
1002
}
1002
{
1000
MANEDIT
1070
     0
1002
}
1002
{
1000
NOSEL
1070
     0
1002
}
1002
{
1000
BEHIND
1070
     0
1002
}
1002
{
1000
OTHER
1070
     0
1002
}
1002
{
1000
REACTOR
1002
}
1001
GENIUS_GENHATCH_13
1002
{
1000
DATA
1040
45.0
1042
2.5
1000
_U
1070
     0
1011
2238.799083915055
1021
1769.803085443703
1031
0.0
1002
}
1002
{
1000
UCS
1010
0.0
1020
0.0
1030
0.0
1010
1.0
1020
0.0
1030
0.0
1010
0.0
1020
1.0
1030
0.0
1002
}
  0
HATCH
  5
BE3A
330
1F
100
AcDbEntity
  8
AM_8
100
AcDbHatch
 10
0.0
 20
0.0
 30
0.0
210
0.0
220
0.0
230
1.0
  2
_U
 70
     0
 71
     0
 91
        1
 92
        1
 93
        2
 72
     2
 10
2187.30067465329
 20
1768.828573877083
 40
2.999999999999894
 50
191.4591559026268
 51
504.2221150057326
 73
     1
 72
     2
 10
2187.30067465329
 20
1768.828573877083
 40
2.999999999999909
 50
144.2221150057325
 51
191.4591559026268
 73
     1
 97
        0
 75
     0
 76
     0
 52
45.0
 41
1.0
 77
     0
 78
     1
 53
45.0
 43
0.0
 44
0.0
 45
-0.7071067811865475
 46
0.7071067811865476
 79
     0
 98
        1
 10
0.0
 20
0.0
1001
GENIUS_GENOBJ-N-HTC_13
1002
{
1000
OWNER
1000
GEN
1002
}
1001
GENIUS_GENODEF_13
1002
{
1000
HIER
1070
     0
1002
}
1002
{
1000
MANEDIT
1070
     0
1002
}
1002
{
1000
NOSEL
1070
     0
1002
}
1002
{
1000
BEHIND
1070
     0
1002
}
1002
{
1000
OTHER
1070
     0
1002
}
1002
{
1000
REACTOR
1002
}
1001
GENIUS_GENHATCH_13
1002
{
1000
DATA
1040
45.0
1042
2.5
1000
_U
1070
     0
1011
2186.067602783906
1021
1769.717170051434
1031
0.0
1002
}
1002
{
1000
UCS
1010
0.0
1020
0.0
1030
0.0
1010
1.0
1020
0.0
1030
0.0
1010
0.0
1020
1.0
1030
0.0
1002
}
  0
DIMENSION
  5
BF2A
330
1F
100
AcDbEntity
  8
AM_5
100
AcDbDimension
  2
*D21
 10
2061.284051668343
 20
1651.115160214632
 30
0.0
 11
2036.179389848614
 21
1623.568884649593
 31
0.0
 70
   163
  1
6-<>
 71
     5
 42
5.500000000001364
  3
SYS$3
100
AcDbDiametricDimension
 15
2058.22854979733
 25
1646.541987539535
 35
0.0
 40
0.0
1001
ACAD
1000
DSTYLE
1002
{
1070
   172
1070
     1
1070
   281
1070
     1
1070
   342
1005
BCCE
1002
}
  0
ENDSEC
  0
SECTION
  2
OBJECTS
  0
DICTIONARY
  5
C
330
0
100
AcDbDictionary
281
     1
  3
ACAD_2007HEADERVARS_RT
350
BFAA
  3
ACAD_BGPLOT_KEY
350
AB06
  3
ACAD_COLOR
350
A91D
  3
ACAD_GROUP
350
D
  3
ACAD_LAYOUT
350
1A
  3
ACAD_MATERIAL
350
A91C
  3
ACAD_MLINESTYLE
350
17
  3
ACAD_PLOTSETTINGS
350
19
  3
ACAD_PLOTSTYLENAME
350
E
  3
ACAD_TABLESTYLE
350
AAB9
  3
ACAD_VISUALSTYLE
350
B0F1
  3
AcAsAppObject
350
3DA1
  3
ACASGREF_MASTER
350
3DE9
  3
AcDbVariableDictionary
350
34
  3
AcmDictionary
350
47
  3
AD_GREF_MODULE
350
3DEA
  3
AD_MAPI_MODULE
350
3E06
  3
AMG
350
2B
  3
AMGSNAPSETTINGS
350
7D
  3
ASE_INDEX_DICTIONARY
350
B331
  3
DWGPROPS
350
BFA9
  3
MAPISURF_MODULE
350
3DEB
  0
DICTIONARY
  5
3F95
330
2
100
AcDbDictionary
280
     1
281
     1
  3
ACAD_LAYERFILTERS
360
B519
  3
ACAD_LAYERSTATES
360
3F96
  3
ACLYDICTIONARY
360
B518
  3
AMLAYER_GROUPCOLORS
360
AAB4
  0
DICTIONARY
  5
8A
330
1F
100
AcDbDictionary
280
     1
281
     1
  3
ACAD_SORTENTS
360
B1BA
  0
DICTIONARY
  5
B556
330
B555
100
AcDbDictionary
280
     1
281
     1
  3
ACAD_SORTENTS
360
B557
  0
DICTIONARY
  5
B56E
330
B56D
100
AcDbDictionary
280
     1
281
     1
  3
ACAD_SORTENTS
360
B56F
  0
DICTIONARY
  5
BFAA
102
{ACAD_REACTORS
330
C
102
}
330
C
100
AcDbDictionary
281
     1
  3
DIMARCSYM
350
BFAB
  0
DICTIONARY
  5
AB06
102
{ACAD_REACTORS
330
C
102
}
330
C
100
AcDbDictionary
280
     1
281
     1
  0
DICTIONARY
  5
A91D
102
{ACAD_REACTORS
330
C
102
}
330
C
100
AcDbDictionary
281
     1
  0
DICTIONARY
  5
D
102
{ACAD_REACTORS
330
C
102
}
330
C
100
AcDbDictionary
281
     1
  0
DICTIONARY
  5
1A
102
{ACAD_REACTORS
330
C
102
}
330
C
100
AcDbDictionary
281
     1
  3
Model
350
22
  3
ﾚｲｱｳﾄ1
350
1E
  3
ﾚｲｱｳﾄ2
350
26
  0
DICTIONARY
  5
A91C
102
{ACAD_REACTORS
330
C
102
}
330
C
100
AcDbDictionary
281
     1
  3
ByBlock
350
B0EF
  3
ByLayer
350
B0EE
  3
Global
350
B0F0
  0
DICTIONARY
  5
17
102
{ACAD_REACTORS
330
C
102
}
330
C
100
AcDbDictionary
281
     1
  3
Standard
350
18
  0
DICTIONARY
  5
19
102
{ACAD_REACTORS
330
C
102
}
330
C
100
AcDbDictionary
281
     1
  0
ACDBDICTIONARYWDFLT
  5
E
102
{ACAD_REACTORS
330
C
102
}
330
C
100
AcDbDictionary
281
     1
  3
Normal
350
F
100
AcDbDictionaryWithDefault
340
F
  0
DICTIONARY
  5
AAB9
102
{ACAD_REACTORS
330
C
102
}
330
C
100
AcDbDictionary
281
     1
  3
Standard
350
AABA
  0
DICTIONARY
  5
B0F1
102
{ACAD_REACTORS
330
C
102
}
330
C
100
AcDbDictionary
281
     1
  3
2dWireframe
350
B0F7
  3
3D Hidden
350
B0F9
  3
3dWireframe
350
B0F8
  3
Basic
350
B0F6
  3
Brighten
350
B0FD
  3
ColorChange
350
B101
  3
Conceptual
350
B0FA
  3
Dim
350
B0FC
  3
Facepattern
350
B100
  3
Flat
350
B0F2
  3
FlatWithEdges
350
B0F3
  3
Gouraud
350
B0F4
  3
GouraudWithEdges
350
B0F5
  3
Linepattern
350
B0FF
  3
Realistic
350
B0FB
  3
Thicken
350
B0FE
  0
ACAD_PROXY_OBJECT
  5
3DA1
102
{ACAD_REACTORS
330
C
102
}
330
C
100
AcDbProxyObject
 90
      499
 91
      576
 95
   917527
 70
     0
 93
       10
310
407F
 94
        0
1001
ACAD
1000
AcRTDxfName
1000
ASAPP
  0
ACAD_PROXY_OBJECT
  5
3DE9
102
{ACAD_REACTORS
330
C
102
}
330
C
100
AcDbProxyObject
 90
      499
 91
      581
 95
   917527
 70
     0
 93
       34
310
010000407F
 94
        0
1001
ACAD
1000
AcRTDxfName
1000
ACASGREFMASTER
  0
DICTIONARY
  5
34
102
{ACAD_REACTORS
330
C
102
}
330
C
100
AcDbDictionary
281
     1
  3
CTABLESTYLE
350
AAF3
  3
DIMASSOC
350
A10C
  3
FIELDEVAL
350
AB07
  3
INDEXCTL
350
35
  3
SORTENTS
350
194C
  0
DICTIONARY
  5
47
102
{ACAD_REACTORS
330
C
102
}
330
C
100
AcDbDictionary
281
     1
  3
AcmBOM
350
7E8
  3
AcmStdDictionary
350
4C
  3
AMDTSECTSYM_ARROWCOLOR
350
A929
  0
ACAD_PROXY_OBJECT
  5
3DEA
102
{ACAD_REACTORS
330
C
102
}
330
C
100
AcDbProxyObject
 90
      499
 91
      582
 95
   917527
 70
     0
 93
      114
310
00000043800000000000000000003F
 94
        0
1001
ACAD
1000
AcRTDxfName
1000
ACADGREFMODULE
  0
ACAD_PROXY_OBJECT
  5
3E06
102
{ACAD_REACTORS
330
C
102
}
330
C
100
AcDbProxyObject
 90
      499
 91
      594
 95
   917527
 70
     0
 93
       34
310
05000044FF
 94
        0
1001
ACAD
1000
AcRTDxfName
1000
MAPIADMODULE
  0
DICTIONARY
  5
2B
102
{ACAD_REACTORS
330
C
102
}
330
C
100
AcDbDictionary
281
     1
  0
DICTIONARY
  5
7D
102
{ACAD_REACTORS
330
C
102
}
330
C
100
AcDbDictionary
281
     1
  0
DICTIONARY
  5
B331
102
{ACAD_REACTORS
330
C
102
}
330
C
100
AcDbDictionary
281
     1
  3
ASEBlockHierarchyIndexRecord
350
B332
1001
DCO15
1040
1594111214.218
  0
XRECORD
  5
BFA9
102
{ACAD_REACTORS
330
C
102
}
330
C
100
AcDbXrecord
280
     1
  1
DWGPROPS COOKIE
  2

  3

  4

  6

  7

  8
Administrator
  9

300
AmdtFileType=84
301
=
302
=
303
=
304
=
305
=
306
=
307
=
308
=
309
=
 40
0.0115064351851852
 41
2456140.69776728
 42
2456268.701695151
  1

 90
        1
  0
ACAD_PROXY_OBJECT
  5
3DEB
102
{ACAD_REACTORS
330
C
102
}
330
C
100
AcDbProxyObject
 90
      499
 91
      583
 95
   917527
 70
     0
 93
        8
310
047E
 94
        0
1001
ACAD
1000
AcRTDxfName
1000
AMDTMAPISURFMOUDULE
  0
DICTIONARY
  5
B519
102
{ACAD_REACTORS
330
3F95
102
}
330
3F95
100
AcDbDictionary
281
     1
  0
DICTIONARY
  5
3F96
102
{ACAD_REACTORS
330
3F95
102
}
330
3F95
100
AcDbDictionary
281
     1
  3
20011210
350
3FB7
  0
DICTIONARY
  5
B518
102
{ACAD_REACTORS
330
3F95
102
}
330
3F95
100
AcDbDictionary
281
     1
1001
ACAD
1000
<All
  0
DICTIONARY
  5
AAB4
102
{ACAD_REACTORS
330
3F95
102
}
330
3F95
100
AcDbDictionary
280
     1
281
     1
  0
SORTENTSTABLE
  5
B1BA
102
{ACAD_REACTORS
330
8A
102
}
330
8A
100
AcDbSortentsTable
330
1F
331
B933
  5
B946
331
BCAF
  5
B8D8
331
B8FC
  5
B90F
331
BCB7
  5
B8E0
331
B904
  5
B917
331
B90C
  5
B91F
331
B943
  5
B956
331
B8D5
  5
B8E8
331
B914
  5
B927
331
BCC7
  5
B98A
331
B8DD
  5
B8F0
331
B924
  5
B937
331
B8E5
  5
B8F8
331
B92C
  5
B93F
331
B8ED
  5
B900
331
B8F5
  5
B908
331
BE36
  5
BE35
331
BCA8
  5
B8D1
331
B934
  5
B947
331
BCB0
  5
B8D9
331
B8FD
  5
B910
331
B93C
  5
B94F
331
B944
  5
B957
331
B90D
  5
B920
331
B915
  5
B928
331
B8D6
  5
B8E9
331
BCC8
  5
B98B
331
B8DE
  5
B8F1
331
B925
  5
B938
331
B8EE
  5
B901
331
B92D
  5
B940
331
B8F6
  5
B909
331
BCA9
  5
B8D2
331
B935
  5
B948
331
BCB1
  5
B8DA
331
B8FE
  5
B911
331
B906
  5
B919
331
B90E
  5
B921
331
B945
  5
B958
331
B8D7
  5
B8EA
331
B916
  5
B929
331
B94D
  5
B96F
331
BDB8
  5
BDB7
331
BCC9
  5
B98C
331
B8DF
  5
B8F2
331
B926
  5
B939
331
B8E7
  5
B8FA
331
B92E
  5
B941
331
B8F7
  5
B90A
331
BE30
  5
BE2F
331
BE38
  5
BE37
331
BCAA
  5
B8D3
331
B936
  5
B949
331
BCB2
  5
B8DB
331
B8FF
  5
B912
331
B93E
  5
B951
331
B907
  5
B91A
331
B946
  5
B959
331
B90F
  5
B922
331
B917
  5
B92A
331
B94E
  5
B970
331
BDB9
  5
BDB9
331
BCC2
  5
B985
331
B8D8
  5
B8EB
331
B8E0
  5
B8F3
331
B8E8
  5
B8FB
331
B927
  5
B93A
331
B92F
  5
B942
331
BCAB
  5
B8D4
331
B8F8
  5
B90B
331
B937
  5
B94A
331
BCB3
  5
B8DC
331
B900
  5
B913
331
B93F
  5
B952
331
B908
  5
B91B
331
B8D1
  5
B8E4
331
B910
  5
B923
331
B947
  5
B95A
331
B94F
  5
B971
331
BCBB
  5
B97E
331
B8D9
  5
B8EC
331
B918
  5
B92B
331
B8E1
  5
B8F4
331
B920
  5
B933
331
B928
  5
B93B
331
B8E9
  5
B8FC
331
B8F1
  5
B904
331
BE32
  5
BE31
331
BDA3
  5
BDA3
331
B930
  5
B943
331
BE3A
  5
BE39
331
BCAC
  5
B8D5
331
B8F9
  5
B90C
331
B938
  5
B94B
331
BCB4
  5
B8DD
331
B901
  5
B914
331
B909
  5
B91C
331
B940
  5
B953
331
B911
  5
B924
331
B8D2
  5
B8E5
331
B948
  5
B95B
331
BCBC
  5
B97F
331
B8DA
  5
B8ED
331
B919
  5
B92C
331
B950
  5
B972
331
B8E2
  5
B8F5
331
B921
  5
B934
331
B8EA
  5
B8FD
331
B929
  5
B93C
331
B8F2
  5
B905
331
B931
  5
B944
331
BCAD
  5
B8D6
331
B8FA
  5
B90D
331
B939
  5
B94C
331
BCB5
  5
B8DE
331
B902
  5
B915
331
B90A
  5
B91D
331
B941
  5
B954
331
B8D3
  5
B8E6
331
B912
  5
B925
331
BCBD
  5
B980
331
B8DB
  5
B8EE
331
B91A
  5
B92D
331
B951
  5
B973
331
B8E3
  5
B8F6
331
B959
  5
B97B
331
B92A
  5
B93D
331
B8F3
  5
B906
331
BE34
  5
BE33
331
B932
  5
B945
331
B8FB
  5
B90E
331
BCAE
  5
B8D7
331
B93A
  5
B94D
331
B903
  5
B916
331
BCB6
  5
B8DF
331
B90B
  5
B91E
331
B942
  5
B955
331
B913
  5
B926
331
B8D4
  5
B8E7
331
BCBE
  5
B981
331
BCC6
  5
B989
331
B8DC
  5
B8EF
331
B8E4
  5
B8F7
331
B923
  5
B936
331
B95A
  5
B97C
331
B92B
  5
B93E
331
B8F4
  5
B907
  0
SORTENTSTABLE
  5
B557
102
{ACAD_REACTORS
330
B556
102
}
330
B556
100
AcDbSortentsTable
330
B555
  0
SORTENTSTABLE
  5
B56F
102
{ACAD_REACTORS
330
B56E
102
}
330
B56E
100
AcDbSortentsTable
330
B56D
331
B5AA
  5
84
331
B58C
  5
C1
331
B5C0
  5
9A
331
B581
  5
B6
331
B5B6
  5
90
331
B598
  5
6F
331
B57A
  5
AF
331
B5AB
  5
85
331
B58D
  5
C2
331
B5C1
  5
9B
331
B5A0
  5
79
331
B582
  5
B7
331
B5B7
  5
91
331
B599
  5
71
331
B57B
  5
B0
331
B5AC
  5
86
331
B58E
  5
C3
331
B5C2
  5
9C
331
B5A1
  5
7B
331
B583
  5
B8
331
B59A
  5
72
331
B57C
  5
B1
331
B5AD
  5
87
331
B58F
  5
C4
331
B571
  5
A4
331
B5C3
  5
9D
331
B5B8
  5
92
331
B584
  5
B9
331
B5A2
  5
7C
331
B59B
  5
73
331
B57D
  5
B2
331
B5C4
  5
9E
331
B572
  5
A7
331
B590
  5
C5
331
B5AE
  5
88
331
B5B9
  5
93
331
B585
  5
BA
331
B5A3
  5
7D
331
B59C
  5
74
331
B57E
  5
B3
331
B5C5
  5
9F
331
B573
  5
A8
331
B591
  5
C6
331
B5AF
  5
89
331
B5BA
  5
94
331
B586
  5
BB
331
B5A4
  5
7E
331
B59D
  5
75
331
B57F
  5
B4
331
B5C6
  5
A0
331
B574
  5
A9
331
B592
  5
C7
331
B5B0
  5
8A
331
B5BB
  5
95
331
B587
  5
BC
331
B5A5
  5
7F
331
B59E
  5
77
331
B5C7
  5
A1
331
B575
  5
AA
331
B593
  5
C8
331
B5B1
  5
8B
331
B5BC
  5
96
331
B588
  5
BD
331
B5A6
  5
80
331
B59F
  5
78
331
B5C8
  5
A2
331
B576
  5
AB
331
B594
  5
C9
331
B5B2
  5
8C
331
B5BD
  5
97
331
B589
  5
BE
331
B5A7
  5
81
331
B5C9
  5
A3
331
B577
  5
AC
331
B595
  5
CA
331
B5B3
  5
8D
331
B5BE
  5
98
331
B58A
  5
BF
331
B5A8
  5
82
331
B5CA
  5
6E
331
B578
  5
AD
331
B596
  5
CB
331
B5B4
  5
8E
331
B5BF
  5
99
331
B58B
  5
C0
331
B5A9
  5
83
331
B580
  5
B5
331
B597
  5
CC
331
B579
  5
AE
331
B5B5
  5
8F
  0
XRECORD
  5
BFAB
102
{ACAD_REACTORS
330
BFAA
102
}
330
BFAA
100
AcDbXrecord
280
     1
 70
     1
  0
LAYOUT
  5
22
102
{ACAD_XDICTIONARY
360
BFAE
102
}
102
{ACAD_REACTORS
330
1A
102
}
330
1A
100
AcDbPlotSettings
  1

  2
FX DocuWide 2050/2051
  4
A3
  6
AM_VIEW1
 40
3.174999952316284
 41
3.174999952316284
 42
3.17498779296875
 43
3.17498779296875
 44
296.989501953125
 45
419.9889831542968
 46
0.0
 47
1.295841228961961
 48
214.3704939521119
 49
367.5855324241176
140
275.6727856380065
141
407.629191407817
142
1.0
143
0.7225445603030646
 70
  3764
 72
     1
 73
     1
 74
     2
  7
monochrome.ctb
 75
     0
147
1.383997686703999
148
-1700.85588156276
149
-1647.985052086429
100
AcDbLayout
  1
Model
 70
     1
 71
     0
 10
0.0
 20
0.0
 11
12.0
 21
9.0
 12
0.0
 22
0.0
 32
0.0
 14
0.0
 24
0.0
 34
0.0
 15
0.0
 25
0.0
 35
0.0
146
0.0
 13
0.0
 23
0.0
 33
0.0
 16
1.0
 26
0.0
 36
0.0
 17
0.0
 27
1.0
 37
0.0
 76
     0
330
1F
331
B0EC
1001
ACAD_PSEXT
1000
FX DocuWide 2050/2051
1000
FX DocuWide 2050/2051
1000
IP_192.200.15.252
1000

1070
     0
  0
LAYOUT
  5
1E
102
{ACAD_XDICTIONARY
360
BFAC
102
}
102
{ACAD_REACTORS
330
1A
102
}
330
1A
100
AcDbPlotSettings
  1

  2
\\ML370\XEROX
  4
A4
  6

 40
3.174999952316284
 41
3.174999952316284
 42
3.175003051757812
 43
3.17498779296875
 44
209.8674926757813
 45
296.6719970703125
 46
0.0
 47
0.0
 48
0.0
 49
0.0
140
0.0
141
0.0
142
1.0
143
1.0
 70
   688
 72
     1
 73
     1
 74
     5
  7
monochrome.ctb
 75
    16
147
1.0
148
0.0
149
0.0
100
AcDbLayout
  1
ﾚｲｱｳﾄ1
 70
     1
 71
     1
 10
-3.17498779296875
 20
-3.174999952316284
 11
293.4970092773438
 21
206.692492723465
 12
0.0
 22
0.0
 32
0.0
 14
1.000000000000000E+20
 24
1.000000000000000E+20
 34
1.000000000000000E+20
 15
-1.000000000000000E+20
 25
-1.000000000000000E+20
 35
-1.000000000000000E+20
146
0.0
 13
0.0
 23
0.0
 33
0.0
 16
1.0
 26
0.0
 36
0.0
 17
0.0
 27
1.0
 37
0.0
 76
     0
330
1B
  0
LAYOUT
  5
26
102
{ACAD_XDICTIONARY
360
BFB0
102
}
102
{ACAD_REACTORS
330
1A
102
}
330
1A
100
AcDbPlotSettings
  1

  2
\\ML370\XEROX
  4

  6

 40
0.0
 41
0.0
 42
0.0
 43
0.0
 44
0.0
 45
0.0
 46
0.0
 47
0.0
 48
0.0
 49
0.0
140
0.0
141
0.0
142
1.0
143
1.0
 70
   688
 72
     0
 73
     0
 74
     5
  7
monochrome.ctb
 75
    16
147
1.0
148
0.0
149
0.0
100
AcDbLayout
  1
ﾚｲｱｳﾄ2
 70
     1
 71
     2
 10
0.0
 20
0.0
 11
12.0
 21
9.0
 12
0.0
 22
0.0
 32
0.0
 14
0.0
 24
0.0
 34
0.0
 15
0.0
 25
0.0
 35
0.0
146
0.0
 13
0.0
 23
0.0
 33
0.0
 16
1.0
 26
0.0
 36
0.0
 17
0.0
 27
1.0
 37
0.0
 76
     0
330
23
  0
MATERIAL
  5
B0EF
102
{ACAD_XDICTIONARY
360
BFB6
102
}
102
{ACAD_REACTORS
330
A91C
102
}
330
A91C
100
AcDbMaterial
  1
ByBlock
  0
MATERIAL
  5
B0EE
102
{ACAD_XDICTIONARY
360
BFB4
102
}
102
{ACAD_REACTORS
330
A91C
102
}
330
A91C
100
AcDbMaterial
  1
ByLayer
  0
MATERIAL
  5
B0F0
102
{ACAD_XDICTIONARY
360
BFB8
102
}
102
{ACAD_REACTORS
330
A91C
102
}
330
A91C
100
AcDbMaterial
  1
Global
  0
MLINESTYLE
  5
18
102
{ACAD_REACTORS
330
17
102
}
330
17
100
AcDbMlineStyle
  2
STANDARD
 70
     0
  3

 62
   256
 51
90.0
 52
90.0
 71
     2
 49
0.5
 62
   256
  6
BYLAYER
 49
-0.5
 62
   256
  6
BYLAYER
  0
ACDBPLACEHOLDER
  5
F
102
{ACAD_REACTORS
330
E
102
}
330
E
  0
TABLESTYLE
  5
AABA
102
{ACAD_XDICTIONARY
360
BFB2
102
}
102
{ACAD_REACTORS
330
AAB9
102
}
330
AAB9
100
AcDbTableStyle
  3
Standard
 70
     0
 71
     0
 40
1.5
 41
1.5
280
     0
281
     0
  7
STANDARD
140
4.5
170
     2
 62
     0
 63
     7
283
     0
274
    -2
284
     1
 64
     0
275
    -2
285
     1
 65
     0
276
    -2
286
     1
 66
     0
277
    -2
287
     1
 67
     0
278
    -2
288
     1
 68
     0
279
    -2
289
     1
 69
     0
  7
STANDARD
140
6.0
170
     5
 62
     0
 63
     7
283
     0
274
    -2
284
     1
 64
     0
275
    -2
285
     1
 65
     0
276
    -2
286
     1
 66
     0
277
    -2
287
     1
 67
     0
278
    -2
288
     1
 68
     0
279
    -2
289
     1
 69
     0
  7
STANDARD
140
4.5
170
     5
 62
     0
 63
     7
283
     0
274
    -2
284
     1
 64
     0
275
    -2
285
     1
 65
     0
276
    -2
286
     1
 66
     0
277
    -2
287
     1
 67
     0
278
    -2
288
     1
 68
     0
279
    -2
289
     1
 69
     0
  0
VISUALSTYLE
  5
B0F7
102
{ACAD_REACTORS
330
B0F1
102
}
330
B0F1
100
AcDbVisualStyle
  2
2dWireframe
 70
     4
 71
     0
 72
     2
 73
     0
 90
        0
 40
-0.6
 41
-30.0
 62
     5
 63
     7
 74
     1
 91
        4
 64
     7
 65
   257
 75
     1
175
     1
 42
1.0
 92
        0
 66
   257
 43
1.0
 76
     1
 77
     6
 78
     2
 67
     7
 79
     5
170
     0
171
     0
290
     0
174
     0
 93
        1
 44
0.0
173
     0
291
     0
 45
0.0
1001
ACAD
1000
AcDbSavedByObjectVersion
1070
     0
  0
VISUALSTYLE
  5
B0F9
102
{ACAD_REACTORS
330
B0F1
102
}
330
B0F1
100
AcDbVisualStyle
  2
3D Hidden
 70
     6
 71
     1
 72
     2
 73
     2
 90
        0
 40
-0.6
 41
-30.0
 62
     5
 63
     7
 74
     2
 91
        2
 64
     7
 65
   257
 75
     2
175
     1
 42
40.0
 92
        0
 66
   257
 43
1.0
 76
     1
 77
     6
 78
     2
 67
     7
 79
     3
170
     0
171
     0
290
     0
174
     0
 93
        1
 44
0.0
173
     0
291
     0
 45
0.0
1001
ACAD
1000
AcDbSavedByObjectVersion
1070
     0
  0
VISUALSTYLE
  5
B0F8
102
{ACAD_REACTORS
330
B0F1
102
}
330
B0F1
100
AcDbVisualStyle
  2
3dWireframe
 70
     5
 71
     0
 72
     2
 73
     0
 90
        0
 40
-0.6
 41
-30.0
 62
     5
 63
     7
 74
     1
 91
        4
 64
     7
 65
   257
 75
     1
175
     1
 42
1.0
 92
        0
 66
   257
 43
1.0
 76
     1
 77
     6
 78
     2
 67
     7
 79
     5
170
     0
171
     0
290
     0
174
     0
 93
        1
 44
0.0
173
     0
291
     0
 45
0.0
1001
ACAD
1000
AcDbSavedByObjectVersion
1070
     0
  0
VISUALSTYLE
  5
B0F6
102
{ACAD_REACTORS
330
B0F1
102
}
330
B0F1
100
AcDbVisualStyle
  2
Basic
 70
     7
 71
     1
 72
     0
 73
     1
 90
        0
 40
-0.6
 41
-30.0
 62
     5
 63
     7
 74
     0
 91
        4
 64
     7
 65
   257
 75
     1
175
     1
 42
1.0
 92
        8
 66
     7
 43
1.0
 76
     1
 77
     6
 78
     2
 67
     7
 79
     5
170
     0
171
     0
290
     0
174
     0
 93
        1
 44
0.0
173
     0
291
     1
 45
0.0
1001
ACAD
1000
AcDbSavedByObjectVersion
1070
     0
  0
VISUALSTYLE
  5
B0FD
102
{ACAD_REACTORS
330
B0F1
102
}
330
B0F1
100
AcDbVisualStyle
  2
Brighten
 70
    12
 71
     2
 72
     2
 73
     0
 90
        0
 40
-0.6
 41
-30.0
 62
     5
 63
     7
 74
     1
 91
        4
 64
     7
 65
   257
 75
     1
175
     1
 42
1.0
 92
        8
 66
     7
 43
1.0
 76
     1
 77
     6
 78
     2
 67
     7
 79
     5
170
     0
171
     0
290
     0
174
     0
 93
        1
 44
50.0
173
     0
291
     1
 45
0.0
1001
ACAD
1000
AcDbSavedByObjectVersion
1070
     0
  0
VISUALSTYLE
  5
B101
102
{ACAD_REACTORS
330
B0F1
102
}
330
B0F1
100
AcDbVisualStyle
  2
ColorChange
 70
    16
 71
     2
 72
     2
 73
     3
 90
        0
 40
-0.6
 41
-30.0
 62
     5
 63
     8
 74
     1
 91
        4
 64
     7
 65
   257
 75
     1
175
     1
 42
1.0
 92
        8
 66
     8
 43
1.0
 76
     1
 77
     6
 78
     2
 67
     7
 79
     5
170
     0
171
     0
290
     0
174
     0
 93
        1
 44
0.0
173
     0
291
     1
 45
0.0
1001
ACAD
1000
AcDbSavedByObjectVersion
1070
     0
  0
VISUALSTYLE
  5
B0FA
102
{ACAD_REACTORS
330
B0F1
102
}
330
B0F1
100
AcDbVisualStyle
  2
Conceptual
 70
     9
 71
     3
 72
     2
 73
     0
 90
        0
 40
-0.6
 41
-30.0
 62
     5
 63
     7
 74
     2
 91
        2
 64
     7
 65
   257
 75
     1
175
     1
 42
40.0
 92
        8
 66
     7
 43
1.0
 76
     1
 77
     6
 78
     2
 67
     7
 79
     3
170
     0
171
     0
290
     0
174
     0
 93
        1
 44
0.0
173
     0
291
     0
 45
0.0
1001
ACAD
1000
AcDbSavedByObjectVersion
1070
     0
  0
VISUALSTYLE
  5
B0FC
102
{ACAD_REACTORS
330
B0F1
102
}
330
B0F1
100
AcDbVisualStyle
  2
Dim
 70
    11
 71
     2
 72
     2
 73
     0
 90
        0
 40
-0.6
 41
-30.0
 62
     5
 63
     7
 74
     1
 91
        4
 64
     7
 65
   257
 75
     1
175
     1
 42
1.0
 92
        8
 66
     7
 43
1.0
 76
     1
 77
     6
 78
     2
 67
     7
 79
     5
170
     0
171
     0
290
     0
174
     0
 93
        1
 44
-50.0
173
     0
291
     1
 45
0.0
1001
ACAD
1000
AcDbSavedByObjectVersion
1070
     0
  0
VISUALSTYLE
  5
B100
102
{ACAD_REACTORS
330
B0F1
102
}
330
B0F1
100
AcDbVisualStyle
  2
Facepattern
 70
    15
 71
     2
 72
     2
 73
     0
 90
        0
 40
-0.6
 41
-30.0
 62
     5
 63
     7
 74
     1
 91
        4
 64
     7
 65
   257
 75
     1
175
     1
 42
1.0
 92
        8
 66
     7
 43
1.0
 76
     1
 77
     6
 78
     2
 67
     7
 79
     5
170
     0
171
     0
290
     0
174
     0
 93
        1
 44
0.0
173
     0
291
     1
 45
0.0
1001
ACAD
1000
AcDbSavedByObjectVersion
1070
     0
  0
VISUALSTYLE
  5
B0F2
102
{ACAD_REACTORS
330
B0F1
102
}
330
B0F1
100
AcDbVisualStyle
  2
Flat
 70
     0
 71
     2
 72
     1
 73
     1
 90
        2
 40
-0.6
 41
30.0
 62
     5
 63
     7
 74
     0
 91
        4
 64
     7
 65
   257
 75
     1
175
     1
 42
1.0
 92
        8
 66
     7
 43
1.0
 76
     1
 77
     6
 78
     2
 67
     7
 79
     5
170
     0
171
     0
290
     0
174
     0
 93
       13
 44
0.0
173
     0
291
     1
 45
0.0
1001
ACAD
1000
AcDbSavedByObjectVersion
1070
     0
  0
VISUALSTYLE
  5
B0F3
102
{ACAD_REACTORS
330
B0F1
102
}
330
B0F1
100
AcDbVisualStyle
  2
FlatWithEdges
 70
     1
 71
     2
 72
     1
 73
     1
 90
        2
 40
-0.6
 41
30.0
 62
     5
 63
     7
 74
     1
 91
        4
 64
     7
 65
   257
 75
     1
175
     1
 42
1.0
 92
        0
 66
   257
 43
1.0
 76
     1
 77
     6
 78
     2
 67
     7
 79
     5
170
     0
171
     0
290
     0
174
     0
 93
       13
 44
0.0
173
     0
291
     1
 45
0.0
1001
ACAD
1000
AcDbSavedByObjectVersion
1070
     0
  0
VISUALSTYLE
  5
B0F4
102
{ACAD_REACTORS
330
B0F1
102
}
330
B0F1
100
AcDbVisualStyle
  2
Gouraud
 70
     2
 71
     2
 72
     2
 73
     1
 90
        2
 40
-0.6
 41
30.0
 62
     5
 63
     7
 74
     0
 91
        4
 64
     7
 65
   257
 75
     1
175
     1
 42
1.0
 92
        0
 66
     7
 43
1.0
 76
     1
 77
     6
 78
     2
 67
     7
 79
     5
170
     0
171
     0
290
     0
174
     0
 93
       13
 44
0.0
173
     0
291
     1
 45
0.0
1001
ACAD
1000
AcDbSavedByObjectVersion
1070
     0
  0
VISUALSTYLE
  5
B0F5
102
{ACAD_REACTORS
330
B0F1
102
}
330
B0F1
100
AcDbVisualStyle
  2
GouraudWithEdges
 70
     3
 71
     2
 72
     2
 73
     1
 90
        2
 40
-0.6
 41
30.0
 62
     5
 63
     7
 74
     1
 91
        4
 64
     7
 65
   257
 75
     1
175
     1
 42
1.0
 92
        0
 66
   257
 43
1.0
 76
     1
 77
     6
 78
     2
 67
     7
 79
     5
170
     0
171
     0
290
     0
174
     0
 93
       13
 44
0.0
173
     0
291
     1
 45
0.0
1001
ACAD
1000
AcDbSavedByObjectVersion
1070
     0
  0
VISUALSTYLE
  5
B0FF
102
{ACAD_REACTORS
330
B0F1
102
}
330
B0F1
100
AcDbVisualStyle
  2
Linepattern
 70
    14
 71
     2
 72
     2
 73
     0
 90
        0
 40
-0.6
 41
-30.0
 62
     5
 63
     7
 74
     1
 91
        4
 64
     7
 65
   257
 75
     7
175
     7
 42
1.0
 92
        8
 66
     7
 43
1.0
 76
     1
 77
     6
 78
     2
 67
     7
 79
     5
170
     0
171
     0
290
     0
174
     0
 93
        1
 44
0.0
173
     0
291
     1
 45
0.0
1001
ACAD
1000
AcDbSavedByObjectVersion
1070
     0
  0
VISUALSTYLE
  5
B0FB
102
{ACAD_REACTORS
330
B0F1
102
}
330
B0F1
100
AcDbVisualStyle
  2
Realistic
 70
     8
 71
     2
 72
     2
 73
     0
 90
        0
 40
-0.6
 41
-30.0
 62
     5
 63
     7
 74
     1
 91
        0
 64
     7
 65
   257
 75
     1
175
     1
 42
1.0
 92
        8
 66
     8
 43
1.0
 76
     1
 77
     6
 78
     2
 67
     7
 79
     5
170
     0
171
     0
290
     0
174
     0
 93
       13
 44
0.0
173
     0
291
     0
 45
0.0
1001
ACAD
1000
AcDbSavedByObjectVersion
1070
     0
  0
VISUALSTYLE
  5
B0FE
102
{ACAD_REACTORS
330
B0F1
102
}
330
B0F1
100
AcDbVisualStyle
  2
Thicken
 70
    13
 71
     2
 72
     2
 73
     0
 90
        0
 40
-0.6
 41
-30.0
 62
     5
 63
     7
 74
     1
 91
        4
 64
     7
 65
   257
 75
     1
175
     1
 42
1.0
 92
       12
 66
     7
 43
1.0
 76
     1
 77
     6
 78
     2
 67
     7
 79
     5
170
     0
171
     0
290
     0
174
     0
 93
        1
 44
0.0
173
     0
291
     1
 45
0.0
1001
ACAD
1000
AcDbSavedByObjectVersion
1070
     0
  0
DICTIONARYVAR
  5
AAF3
102
{ACAD_REACTORS
330
34
102
}
330
34
100
DictionaryVariables
280
     0
  1
STANDARD
  0
DICTIONARYVAR
  5
A10C
102
{ACAD_REACTORS
330
34
102
}
330
34
100
DictionaryVariables
280
     0
  1
1
  0
DICTIONARYVAR
  5
AB07
102
{ACAD_REACTORS
330
34
102
}
330
34
100
DictionaryVariables
280
     0
  1
4
  0
DICTIONARYVAR
  5
35
102
{ACAD_REACTORS
330
34
102
}
330
34
100
DictionaryVariables
280
     0
  1
0
  0
DICTIONARYVAR
  5
194C
102
{ACAD_REACTORS
330
34
102
}
330
34
100
DictionaryVariables
280
     0
  1
96
  0
DICTIONARY
  5
7E8
102
{ACAD_REACTORS
330
47
102
}
330
47
100
AcDbDictionary
281
     1
  0
DICTIONARY
  5
4C
102
{ACAD_REACTORS
330
47
102
}
330
47
100
AcDbDictionary
281
     1
  0
XRECORD
  5
A929
102
{ACAD_REACTORS
330
47
102
}
330
47
100
AcDbXrecord
280
     1
 90
-1023410169
  0
XRECORD
  5
B332
102
{ACAD_REACTORS
330
B331
102
}
330
B331
100
AcDbXrecord
280
     1
  0
XRECORD
  5
3FB7
102
{ACAD_REACTORS
330
3F96
102
}
330
3F96
100
AcDbXrecord
280
     1
 91
        3
330
0
 90
        8
 62
     7
370
    40
331
16
  1
Color_7
330
0
 90
        0
 62
    14
370
    -3
331
16
  1
Color_14
330
0
 90
        8
 62
     7
370
    20
331
16
  1
Color_7
330
6D1
 90
        0
 62
     7
370
    -3
331
16
  1
Color_7
330
0
 90
        8
 62
     7
370
    50
331
16
  1
Color_7
330
0
 90
        8
 62
     2
370
    35
331
16
  1
Color_2
330
0
 90
        8
 62
     7
370
    -3
331
16
  1
Color_7
330
10
 90
        8
 62
     7
370
    -3
331
16
  1
Color_7
  0
DICTIONARY
  5
BFAE
330
22
100
AcDbDictionary
280
     1
281
     1
  3
ACAD_XREC_ROUNDTRIP
360
BFAF
  0
DICTIONARY
  5
BFAC
330
1E
100
AcDbDictionary
280
     1
281
     1
  3
ACAD_XREC_ROUNDTRIP
360
BFAD
  0
DICTIONARY
  5
BFB0
330
26
100
AcDbDictionary
280
     1
281
     1
  3
ACAD_XREC_ROUNDTRIP
360
BFB1
  0
DICTIONARY
  5
BFB6
330
B0EF
100
AcDbDictionary
280
     1
281
     1
  3
ACAD_XREC_ROUNDTRIP
360
BFB7
  0
DICTIONARY
  5
BFB4
330
B0EE
100
AcDbDictionary
280
     1
281
     1
  3
ACAD_XREC_ROUNDTRIP
360
BFB5
  0
DICTIONARY
  5
BFB8
330
B0F0
100
AcDbDictionary
280
     1
281
     1
  3
ACAD_XREC_ROUNDTRIP
360
BFB9
  0
DICTIONARY
  5
BFB2
330
AABA
100
AcDbDictionary
280
     1
281
     1
  3
ACAD_XREC_ROUNDTRIP
360
BFB3
  0
XRECORD
  5
BFAF
102
{ACAD_REACTORS
330
BFAE
102
}
330
BFAE
100
AcDbXrecord
280
     1
102
SHADEPLOT
 70
     0
102
SHADEPLOTRESLEVEL
 70
     2
102
SHADEPLOTCUSTOMDPI
 70
   200
  0
XRECORD
  5
BFAD
102
{ACAD_REACTORS
330
BFAC
102
}
330
BFAC
100
AcDbXrecord
280
     1
102
SHADEPLOT
 70
     0
102
SHADEPLOTRESLEVEL
 70
     2
102
SHADEPLOTCUSTOMDPI
 70
   300
  0
XRECORD
  5
BFB1
102
{ACAD_REACTORS
330
BFB0
102
}
330
BFB0
100
AcDbXrecord
280
     1
102
SHADEPLOT
 70
     0
102
SHADEPLOTRESLEVEL
 70
     2
102
SHADEPLOTCUSTOMDPI
 70
   300
  0
XRECORD
  5
BFB7
102
{ACAD_REACTORS
330
BFB6
102
}
330
BFB6
100
AcDbXrecord
280
     1
102
MATERIAL
148
0.0
149
0.0
149
0.0
 93
        0
 94
       63
282
     0
 72
     1
 77
     1
171
     1
175
     1
179
     1
273
     0
  0
XRECORD
  5
BFB5
102
{ACAD_REACTORS
330
BFB4
102
}
330
BFB4
100
AcDbXrecord
280
     1
102
MATERIAL
148
0.0
149
0.0
149
0.0
 93
        0
 94
       63
282
     0
 72
     1
 77
     1
171
     1
175
     1
179
     1
273
     0
  0
XRECORD
  5
BFB9
102
{ACAD_REACTORS
330
BFB8
102
}
330
BFB8
100
AcDbXrecord
280
     1
102
MATERIAL
148
0.0
149
0.0
149
0.0
 93
        0
 94
       63
282
     0
 72
     1
 77
     1
171
     1
175
     1
179
     1
273
     0
  0
XRECORD
  5
BFB3
102
{ACAD_REACTORS
330
BFB2
102
}
330
BFB2
100
AcDbXrecord
280
     1
102
ACAD_ROUNDTRIP_PRE2007_TABLESTYLE
 90
        4
 91
        0
  1

 92
        4
 93
        0
  2

 94
        4
 95
        0
  3

  0
ENDSEC
  0
EOF
