  0
SECTION
  2
HEADER
  9
$ACADVER
  1
AC1015
  9
$ACADMAINTVER
 70
    20
  9
$DWGCODEPAGE
  3
ANSI_932
  9
$INSBASE
 10
0.0
 20
0.0
 30
0.0
  9
$EXTMIN
 10
85.93322076968775
 20
35.1266062854761
 30
-0.0000000349181948
  9
$EXTMAX
 10
926.0357629615512
 20
629.1991182640079
 30
0.0000000814935746
  9
$LIMMIN
 10
85.98448795394507
 20
35.16285950862948
  9
$LIMMAX
 10
925.984487953945
 20
629.1628595086295
  9
$ORTHOMODE
 70
     0
  9
$REGENMODE
 70
     1
  9
$FILLMODE
 70
     1
  9
$QTEXTMODE
 70
     0
  9
$MIRRTEXT
 70
     0
  9
$LTSCALE
 40
2.0
  9
$ATTMODE
 70
     1
  9
$TEXTSIZE
 40
3.2
  9
$TRACEWID
 40
1.0
  9
$TEXTSTYLE
  7
STANDARD
  9
$CLAYER
  8
AM_0
  9
$CELTYPE
  6
ByLayer
  9
$CECOLOR
 62
   256
  9
$CELTSCALE
 40
1.0
  9
$DISPSILH
 70
     0
  9
$DIMSCALE
 40
1.0
  9
$DIMASZ
 40
1.0
  9
$DIMEXO
 40
1.0
  9
$DIMDLI
 40
10.0
  9
$DIMRND
 40
0.0
  9
$DIMDLE
 40
0.0
  9
$DIMEXE
 40
1.0
  9
$DIMTP
 40
0.1
  9
$DIMTM
 40
0.1
  9
$DIMTXT
 40
3.5
  9
$DIMCEN
 40
0.0
  9
$DIMTSZ
 40
0.0
  9
$DIMTOL
 70
     0
  9
$DIMLIM
 70
     0
  9
$DIMTIH
 70
     0
  9
$DIMTOH
 70
     0
  9
$DIMSE1
 70
     0
  9
$DIMSE2
 70
     0
  9
$DIMTAD
 70
     1
  9
$DIMZIN
 70
     8
  9
$DIMBLK
  1

  9
$DIMASO
 70
     1
  9
$DIMSHO
 70
     1
  9
$DIMPOST
  1

  9
$DIMAPOST
  1
"
  9
$DIMALT
 70
     0
  9
$DIMALTD
 70
     2
  9
$DIMALTF
 40
0.0393701
  9
$DIMLFAC
 40
1.0
  9
$DIMTOFL
 70
     1
  9
$DIMTVP
 40
0.0
  9
$DIMTIX
 70
     0
  9
$DIMSOXD
 70
     0
  9
$DIMSAH
 70
     0
  9
$DIMBLK1
  1

  9
$DIMBLK2
  1

  9
$DIMSTYLE
  2
SYS
  9
$DIMCLRD
 70
   256
  9
$DIMCLRE
 70
   256
  9
$DIMCLRT
 70
     7
  9
$DIMTFAC
 40
0.71
  9
$DIMGAP
 40
1.5
  9
$DIMJUST
 70
     0
  9
$DIMSD1
 70
     0
  9
$DIMSD2
 70
     0
  9
$DIMTOLJ
 70
     0
  9
$DIMTZIN
 70
     8
  9
$DIMALTZ
 70
     0
  9
$DIMALTTZ
 70
     0
  9
$DIMUPT
 70
     0
  9
$DIMDEC
 70
     2
  9
$DIMTDEC
 70
     2
  9
$DIMALTU
 70
     2
  9
$DIMALTTD
 70
     2
  9
$DIMTXSTY
  7
STANDARD
  9
$DIMAUNIT
 70
     0
  9
$DIMADEC
 70
     0
  9
$DIMALTRND
 40
0.0
  9
$DIMAZIN
 70
     2
  9
$DIMDSEP
 70
    46
  9
$DIMATFIT
 70
     3
  9
$DIMFRAC
 70
     0
  9
$DIMLDRBLK
  1

  9
$DIMLUNIT
 70
     2
  9
$DIMLWD
 70
    -1
  9
$DIMLWE
 70
    -1
  9
$DIMTMOVE
 70
     0
  9
$LUNITS
 70
     2
  9
$LUPREC
 70
     2
  9
$SKETCHINC
 40
1.0
  9
$FILLETRAD
 40
2.0
  9
$AUNITS
 70
     0
  9
$AUPREC
 70
     0
  9
$MENU
  1
.
  9
$ELEVATION
 40
0.0
  9
$PELEVATION
 40
0.0
  9
$THICKNESS
 40
0.0
  9
$LIMCHECK
 70
     0
  9
$CHAMFERA
 40
0.0
  9
$CHAMFERB
 40
0.0
  9
$CHAMFERC
 40
20.0
  9
$CHAMFERD
 40
0.0
  9
$SKPOLY
 70
     0
  9
$TDCREATE
 40
2454161.406865047
  9
$TDUCREATE
 40
2454161.031865047
  9
$TDUPDATE
 40
2454330.619488924
  9
$TDUUPDATE
 40
2454330.244488924
  9
$TDINDWG
 40
0.1794751968
  9
$TDUSRTIMER
 40
0.1794751968
  9
$USRTIMER
 70
     1
  9
$ANGBASE
 50
0.0
  9
$ANGDIR
 70
     0
  9
$PDMODE
 70
     0
  9
$PDSIZE
 40
-3.0
  9
$PLINEWID
 40
0.0
  9
$SPLFRAME
 70
     0
  9
$SPLINETYPE
 70
     6
  9
$SPLINESEGS
 70
     8
  9
$HANDSEED
  5
DB2D
  9
$SURFTAB1
 70
     6
  9
$SURFTAB2
 70
     6
  9
$SURFTYPE
 70
     6
  9
$SURFU
 70
     6
  9
$SURFV
 70
     6
  9
$UCSBASE
  2

  9
$UCSNAME
  2

  9
$UCSORG
 10
0.0
 20
0.0
 30
0.0
  9
$UCSXDIR
 10
1.0
 20
0.0
 30
0.0
  9
$UCSYDIR
 10
0.0
 20
1.0
 30
0.0
  9
$UCSORTHOREF
  2

  9
$UCSORTHOVIEW
 70
     0
  9
$UCSORGTOP
 10
0.0
 20
0.0
 30
0.0
  9
$UCSORGBOTTOM
 10
0.0
 20
0.0
 30
0.0
  9
$UCSORGLEFT
 10
0.0
 20
0.0
 30
0.0
  9
$UCSORGRIGHT
 10
0.0
 20
0.0
 30
0.0
  9
$UCSORGFRONT
 10
0.0
 20
0.0
 30
0.0
  9
$UCSORGBACK
 10
0.0
 20
0.0
 30
0.0
  9
$PUCSBASE
  2

  9
$PUCSNAME
  2

  9
$PUCSORG
 10
0.0
 20
0.0
 30
0.0
  9
$PUCSXDIR
 10
1.0
 20
0.0
 30
0.0
  9
$PUCSYDIR
 10
0.0
 20
1.0
 30
0.0
  9
$PUCSORTHOREF
  2

  9
$PUCSORTHOVIEW
 70
     0
  9
$PUCSORGTOP
 10
0.0
 20
0.0
 30
0.0
  9
$PUCSORGBOTTOM
 10
0.0
 20
0.0
 30
0.0
  9
$PUCSORGLEFT
 10
0.0
 20
0.0
 30
0.0
  9
$PUCSORGRIGHT
 10
0.0
 20
0.0
 30
0.0
  9
$PUCSORGFRONT
 10
0.0
 20
0.0
 30
0.0
  9
$PUCSORGBACK
 10
0.0
 20
0.0
 30
0.0
  9
$USERI1
 70
     0
  9
$USERI2
 70
     0
  9
$USERI3
 70
     0
  9
$USERI4
 70
     0
  9
$USERI5
 70
     0
  9
$USERR1
 40
0.0
  9
$USERR2
 40
0.0
  9
$USERR3
 40
0.0
  9
$USERR4
 40
0.0
  9
$USERR5
 40
0.0
  9
$WORLDVIEW
 70
     1
  9
$SHADEDGE
 70
     3
  9
$SHADEDIF
 70
    70
  9
$TILEMODE
 70
     1
  9
$MAXACTVP
 70
    64
  9
$PINSBASE
 10
0.0
 20
0.0
 30
0.0
  9
$PLIMCHECK
 70
     0
  9
$PEXTMIN
 10
1.000000000000000E+20
 20
1.000000000000000E+20
 30
1.000000000000000E+20
  9
$PEXTMAX
 10
-1.000000000000000E+20
 20
-1.000000000000000E+20
 30
-1.000000000000000E+20
  9
$PLIMMIN
 10
-3.17498779296875
 20
-3.174999952316284
  9
$PLIMMAX
 10
293.4970092773438
 20
206.692492723465
  9
$UNITMODE
 70
     0
  9
$VISRETAIN
 70
     1
  9
$PLINEGEN
 70
     0
  9
$PSLTSCALE
 70
     1
  9
$TREEDEPTH
 70
  3020
  9
$CMLSTYLE
  2
Standard
  9
$CMLJUST
 70
     0
  9
$CMLSCALE
 40
20.0
  9
$PROXYGRAPHICS
 70
     1
  9
$MEASUREMENT
 70
     1
  9
$CELWEIGHT
370
    -1
  9
$ENDCAPS
280
     0
  9
$JOINSTYLE
280
     0
  9
$LWDISPLAY
290
     0
  9
$INSUNITS
 70
     4
  9
$HYPERLINKBASE
  1

  9
$STYLESHEET
  1
monochrome.ctb
  9
$XEDIT
290
     1
  9
$CEPSNTYPE
380
     0
  9
$PSTYLEMODE
290
     1
  9
$FINGERPRINTGUID
  2
{A47E9F59-376E-4C2B-BF1E-34D2BCA44FF9}
  9
$VERSIONGUID
  2
{2760B991-593D-4766-B85A-3A8CF55FDA81}
  9
$EXTNAMES
290
     1
  9
$PSVPSCALE
 40
0.0
  9
$OLESTARTUP
290
     0
  0
ENDSEC
  0
SECTION
  2
CLASSES
  0
CLASS
  1
ACDBDICTIONARYWDFLT
  2
AcDbDictionaryWithDefault
  3
ObjectDBX Classes
 90
        0
280
     0
281
     0
  0
CLASS
  1
ACDBPLACEHOLDER
  2
AcDbPlaceHolder
  3
ObjectDBX Classes
 90
        0
280
     0
281
     0
  0
CLASS
  1
LAYOUT
  2
AcDbLayout
  3
ObjectDBX Classes
 90
        0
280
     0
281
     0
  0
CLASS
  1
AMGSETTINGSOBJ
  2
AmgSettingsObj
  3
"AcadM|Product Description: AutoCAD Mechanical|Company: Autodesk"
 90
        0
280
     0
281
     0
  0
CLASS
  1
ACME_DOCUMENT
  2
AcMeDbDoc
  3
AcMeServices
 90
        0
280
     0
281
     0
  0
CLASS
  1
ACMESCOPE
  2
AcMeScope
  3
AcMeServices
 90
        0
280
     0
281
     0
  0
CLASS
  1
ACMECOMMANDHISTORY
  2
AcMeCommandHistory
  3
AcMeServices
 90
        0
280
     0
281
     0
  0
CLASS
  1
DICTIONARYVAR
  2
AcDbDictionaryVar
  3
ObjectDBX Classes
 90
        0
280
     0
281
     0
  0
CLASS
  1
ACIMSYSVARMAN
  2
AcImSysVarManager
  3
AcMeServices
 90
        0
280
     0
281
     0
  0
CLASS
  1
ACIMREALSYSVAR
  2
AcImRealSysVar
  3
AcMeServices
 90
        0
280
     0
281
     0
  0
CLASS
  1
ACIMINTSYSVAR
  2
AcImIntSysVar
  3
AcMeServices
 90
        0
280
     0
281
     0
  0
CLASS
  1
ACMEDRAWINGMAN
  2
AcMeDrawingMan
  3
AcMeServices
 90
        0
280
     0
281
     0
  0
CLASS
  1
ACMEVIEW
  2
AcMeView
  3
AcMeServices
 90
        0
280
     0
281
     0
  0
CLASS
  1
ACDBENTITYCACHE
  2
AcMeEntityCache
  3
AcMeServices
 90
        0
280
     0
281
     0
  0
CLASS
  1
GSMANAGER
  2
AcMeGSManager
  3
AcMeServices
 90
        0
280
     0
281
     0
  0
CLASS
  1
AMDTINTERNALREACTOR
  2
AmdtInternalReactor
  3
AcMeServices
 90
        0
280
     0
281
     0
  0
CLASS
  1
ACMESTATEMGR
  2
AcMeStateMgr
  3
AcMeServices
 90
        0
280
     0
281
     0
  0
CLASS
  1
ACGREFMASTER
  2
AcGrefMaster
  3
AcAttribServices
 90
        0
280
     0
281
     0
  0
CLASS
  1
ACME_DATABASE
  2
AcMeDbDatabase
  3
AcMeServices
 90
        0
280
     0
281
     0
  0
CLASS
  1
ACRFINSADJUSTERMGR
  2
AcRfInsAdjusterMgr
  3
AcMeServices
 90
        0
280
     0
281
     0
  0
CLASS
  1
ACGREFACADMASTER
  2
AcGrefacadMaster
  3
AcGrefServices
 90
        0
280
     0
281
     0
  0
CLASS
  1
AMIMASTER
  2
AmiMaster
  3
AmiServices
 90
        0
280
     0
281
     0
  0
CLASS
  1
ACMDATADICTIONARY
  2
AcmDataDictionary
  3
"AcmSymBB|Product Description: AutoCAD Mechanical|Company: Autodesk"
 90
        0
280
     0
281
     0
  0
CLASS
  1
ACMDATAENTRYBLOCK
  2
AcmDataEntryBlock
  3
"AcmSymBB|Product Description: AutoCAD Mechanical|Company: Autodesk"
 90
        0
280
     0
281
     0
  0
CLASS
  1
ACIMSTRSYSVAR
  2
AcImStrSysVar
  3
AcMeServices
 90
        0
280
     0
281
     0
  0
CLASS
  1
ACMSTANDARDISO
  2
AcmStandardISO
  3
"Amdt_StdImp|Product Description: AutoCAD Mechanical|Company: Autodesk"
 90
        0
280
     0
281
     0
  0
CLASS
  1
AMGOBJPROPCFG
  2
AmgObjPropCfg
  3
"AmgLay|Product Description: AutoCAD Mechanical|Company: Autodesk"
 90
        1
280
     0
281
     0
  0
CLASS
  1
AMDTEDGESTANDARDISO
  2
AmdtEdgeStdISO
  3
"Amdt_StdImp|Product Description: AutoCAD Mechanical|Company: Autodesk"
 90
        0
280
     0
281
     0
  0
CLASS
  1
ACMSURFSTANDARDISO
  2
AcmSurfTextStdISO
  3
"Amdt_StdImp|Product Description: AutoCAD Mechanical|Company: Autodesk"
 90
        0
280
     0
281
     0
  0
CLASS
  1
ACMFCFSTANDARDISO
  2
AcmFCFStdISO
  3
"Amdt_StdImp|Product Description: AutoCAD Mechanical|Company: Autodesk"
 90
        0
280
     0
281
     0
  0
CLASS
  1
ACMWELDSTANDARDISO
  2
AcmWeldingStdISO
  3
"Amdt_StdImp|Product Description: AutoCAD Mechanical|Company: Autodesk"
 90
        0
280
     0
281
     0
  0
CLASS
  1
ACMIDSTANDARDISO
  2
AcmIdStdISO
  3
"Amdt_StdImp|Product Description: AutoCAD Mechanical|Company: Autodesk"
 90
        0
280
     0
281
     0
  0
CLASS
  1
ACMDATUMSTANDARDISO
  2
AcmDatumStdISO
  3
"Amdt_StdImp|Product Description: AutoCAD Mechanical|Company: Autodesk"
 90
        0
280
     0
281
     0
  0
CLASS
  1
ACMBOMSTANDARDISO
  2
AcmBOMStdISO
  3
"Amdt_StdImp|Product Description: AutoCAD Mechanical|Company: Autodesk"
 90
        0
280
     0
281
     0
  0
CLASS
  1
ACMDETAILSTANDARDISO
  2
AmdtDetailSymStdISO
  3
"Amdt_StdImp|Product Description: AutoCAD Mechanical|Company: Autodesk"
 90
        0
280
     0
281
     0
  0
CLASS
  1
ACMSECTIONSTANDARDISO
  2
AmdtSectionSymStdISO
  3
"Amdt_StdImp|Product Description: AutoCAD Mechanical|Company: Autodesk"
 90
        0
280
     0
281
     0
  0
CLASS
  1
ACMCENTERLINESTANDARDISO
  2
AmdtCenterLineStdISO
  3
"Amdt_StdImp|Product Description: AutoCAD Mechanical|Company: Autodesk"
 90
        0
280
     0
281
     0
  0
CLASS
  1
ACAMGLAYSTD
  2
AcAmgLayStd
  3
"AmgLay|Product Description: AutoCAD Mechanical|Company: Autodesk"
 90
        0
280
     0
281
     0
  0
CLASS
  1
ACAMGDIMSTD
  2
AcAmgDimStd
  3
"AmgDim|Product Description: AutoCAD Mechanical|Company: Autodesk"
 90
        0
280
     0
281
     0
  0
CLASS
  1
ACAMGTITLESTD
  2
AcAmgTitleStd
  3
"AmgTitle|Product Description: AutoCAD Mechanical|Company: Autodesk"
 90
        0
280
     0
281
     0
  0
CLASS
  1
ACAMGFILTERDAT
  2
AcAmgFilterDat
  3
"AcadM|Product Description: AutoCAD Mechanical|Company: Autodesk"
 90
        0
280
     0
281
     0
  0
CLASS
  1
LAYER_INDEX
  2
AcDbLayerIndex
  3
ObjectDBX Classes
 90
    32768
280
     0
281
     0
  0
CLASS
  1
IDBUFFER
  2
AcDbIdBuffer
  3
ObjectDBX Classes
 90
    32768
280
     0
281
     0
  0
CLASS
  1
PLOTSETTINGS
  2
AcDbPlotSettings
  3
ObjectDBX Classes
 90
        0
280
     0
281
     0
  0
CLASS
  1
AMDTFORMULAUPDATEDISPATCHER
  2
AmdtFormulaUpdateDispatcher
  3
AcMeServices
 90
        0
280
     0
281
     0
  0
CLASS
  1
ACMSTANDARDANSI
  2
AcmStandardANSI
  3
"Amdt_StdImp|Product Description: AutoCAD Mechanical|Company: Autodesk"
 90
    32768
280
     0
281
     0
  0
CLASS
  1
ACMSURFSTANDARDANSI
  2
AcmSurfTextStdANSI
  3
"Amdt_StdImp|Product Description: AutoCAD Mechanical|Company: Autodesk"
 90
    32768
280
     0
281
     0
  0
CLASS
  1
ACMFCFSTANDARDANSI
  2
AcmFCFStdANSI
  3
"Amdt_StdImp|Product Description: AutoCAD Mechanical|Company: Autodesk"
 90
    32768
280
     0
281
     0
  0
CLASS
  1
ACMWELDSTANDARDANSI
  2
AcmWeldingStdANSI
  3
"Amdt_StdImp|Product Description: AutoCAD Mechanical|Company: Autodesk"
 90
    32768
280
     0
281
     0
  0
CLASS
  1
ACMIDSTANDARDANSI
  2
AcmIdStdANSI
  3
"Amdt_StdImp|Product Description: AutoCAD Mechanical|Company: Autodesk"
 90
    32768
280
     0
281
     0
  0
CLASS
  1
ACMDATUMSTANDARDANSI
  2
AcmDatumStdANSI
  3
"Amdt_StdImp|Product Description: AutoCAD Mechanical|Company: Autodesk"
 90
    32768
280
     0
281
     0
  0
CLASS
  1
ACMBOMSTANDARDANSI
  2
AcmBOMStdANSI
  3
"Amdt_StdImp|Product Description: AutoCAD Mechanical|Company: Autodesk"
 90
    32768
280
     0
281
     0
  0
CLASS
  1
ACMDETAILSTANDARDANSI
  2
AmdtDetailSymStdANSI
  3
"Amdt_StdImp|Product Description: AutoCAD Mechanical|Company: Autodesk"
 90
    32768
280
     0
281
     0
  0
CLASS
  1
ACMSECTIONSTANDARDANSI
  2
AmdtSectionSymStdANSI
  3
"Amdt_StdImp|Product Description: AutoCAD Mechanical|Company: Autodesk"
 90
    32768
280
     0
281
     0
  0
CLASS
  1
ACMCENTERLINESTANDARDANSI
  2
AmdtCenterLineStdANSI
  3
"Amdt_StdImp|Product Description: AutoCAD Mechanical|Company: Autodesk"
 90
    32768
280
     0
281
     0
  0
CLASS
  1
ACMBOM
  2
AcmBom
  3
"AcmSymBB|Product Description: AutoCAD Mechanical|Company: Autodesk"
 90
        0
280
     0
281
     0
  0
CLASS
  1
ACMDATAENTRYPART
  2
AcmDataEntryPart
  3
"AcmSymBB|Product Description: AutoCAD Mechanical|Company: Autodesk"
 90
    32768
280
     0
281
     0
  0
CLASS
  1
ACMPARTREF
  2
AcmPartRef
  3
"AcmSymBB|Product Description: AutoCAD Mechanical|Company: Autodesk"
 90
    35839
280
     0
281
     1
  0
CLASS
  1
ACDBCIRCARCRES
  2
AcDbCircArcRes
  3
AcGrefServices
 90
    32768
280
     0
281
     0
  0
CLASS
  1
ACMBOMROW
  2
AcmBomRow
  3
"AcmSymBB|Product Description: AutoCAD Mechanical|Company: Autodesk"
 90
    32768
280
     0
281
     0
  0
CLASS
  1
ACMBALLOON
  2
AcmBalloon
  3
"AcmSymBB|Product Description: AutoCAD Mechanical|Company: Autodesk"
 90
    35839
280
     0
281
     1
  0
CLASS
  1
AMDTNOTE
  2
AmdtNote
  3
"AcmSymBB|Product Description: AutoCAD Mechanical|Company: Autodesk"
 90
     3071
280
     0
281
     1
  0
CLASS
  1
STDPART2D
  2
AmgStdPart
  3
"g3vace|Class: AmgStdPart|Product Description: AutoCAD Mechanical|Company: Autodesk"
 90
    35839
280
     0
281
     1
  0
CLASS
  1
ACDBSTDPARTRES_LINE
  2
AcDbStdPartRes_Line
  3
"g3vace|Class: AcDbStdPartRes_Line|Product Description: AutoCAD Mechanical|Company: Autodesk"
 90
    32768
280
     0
281
     0
  0
CLASS
  1
ACMDATAENTRY
  2
AcmDataEntry
  3
"AcmSymBB|Product Description: AutoCAD Mechanical|Company: Autodesk"
 90
        0
280
     0
281
     0
  0
CLASS
  1
ACDBOPPOLYLINERES
  2
AcDbOpPolylineRes
  3
AcGrefServices
 90
    32768
280
     0
281
     0
  0
CLASS
  1
ACMPARTLIST
  2
AcmPartList
  3
"AcmSymBB|Product Description: AutoCAD Mechanical|Company: Autodesk"
 90
    35839
280
     0
281
     1
  0
CLASS
  1
ACDBLINERES
  2
AcDbLineRes
  3
AcGrefServices
 90
    32768
280
     0
281
     0
  0
CLASS
  1
ACRFINSADJ
  2
AcRfInsAdjuster
  3
AcMeServices
 90
    32768
280
     0
281
     0
  0
CLASS
  1
AM_DRAWING_MGR
  2
AcDmDwgMgr
  3
AcMechDwgViewMgmt
 90
        0
280
     0
281
     0
  0
CLASS
  1
AM_DWG_DOCUMENT
  2
AcDmDwgDocument
  3
AcMechDwgViewMgmt
 90
        0
280
     0
281
     0
  0
CLASS
  1
AM_DWG_SHEET
  2
AcDmSheet
  3
AcMechDwgViewMgmt
 90
        0
280
     0
281
     0
  0
CLASS
  1
AM_VIEWDIMPARMAP
  2
AcDmViewDimParMap
  3
AcMechDwgViewMgmt
 90
        0
280
     0
281
     0
  0
CLASS
  1
AM_DWGMGR_NAME
  2
AcDmDwgMgrName
  3
AcMechDwgViewMgmt
 90
        0
280
     0
281
     0
  0
CLASS
  1
AMDTMENUSTATEMGR
  2
AmdtMenuStateMgr
  3
McadcomServices
 90
        0
280
     0
281
     0
  0
CLASS
  1
AMDTMCOMMENUSTATE
  2
AmdtMcomMenuState
  3
McadcomServices
 90
        0
280
     0
281
     0
  0
CLASS
  1
ASAPP
  2
AcAsAppObject
  3
AutoSurfServices
 90
        0
280
     0
281
     0
  0
CLASS
  1
IM_STATIC_MAN
  2
AcImStaticVarManager
  3
AcMeServices
 90
        0
280
     0
281
     0
  0
CLASS
  1
ACIMDBLSTATICVAR
  2
AcImDblStaticVar
  3
AcMeServices
 90
        0
280
     0
281
     0
  0
CLASS
  1
ACIMSTRSTATICVAR
  2
AcImStrStaticVar
  3
AcMeServices
 90
        0
280
     0
281
     0
  0
CLASS
  1
ACIMINTSTATICVAR
  2
AcImIntStaticVar
  3
AcMeServices
 90
        0
280
     0
281
     0
  0
CLASS
  1
ACASGREFMASTER
  2
AcAsGrefMaster
  3
AutoSurfResolverServices
 90
        0
280
     0
281
     0
  0
CLASS
  1
ACADGREFMODULE
  2
AcAdGrefModule
  3
AdGrefServices
 90
        0
280
     0
281
     0
  0
CLASS
  1
AMDTMAPISURFMOUDULE
  2
AmdtMApiSurfModule
  3
MApiSurfServices
 90
        0
280
     0
281
     0
  0
CLASS
  1
MAPIAMMOUDLE
  2
MApiAmModule
  3
MApiAmServices
 90
        0
280
     0
281
     0
  0
CLASS
  1
AMDTADMENUSTATE
  2
AmdtAdMenuState
  3
DesignerServices
 90
        0
280
     0
281
     0
  0
CLASS
  1
ADAPPL
  2
AcAdAppl
  3
DesignerServices
 90
        0
280
     0
281
     0
  0
CLASS
  1
DEPMGR
  2
AcAdDepMgr
  3
DesignerServices
 90
        0
280
     0
281
     0
  0
CLASS
  1
PARAMMGR
  2
AcAdParamMgr
  3
DesignerServices
 90
        0
280
     0
281
     0
  0
CLASS
  1
PARAMSCOPE
  2
AcAdParamScope
  3
DesignerServices
 90
        0
280
     0
281
     0
  0
CLASS
  1
NAMEDAPPL
  2
AcAdNamedAppl
  3
DesignerServices
 90
        0
280
     0
281
     0
  0
CLASS
  1
ADHNTMPLT
  2
AdHoleNoteTemplateMgr
  3
DesignerServices
 90
    32768
280
     0
281
     0
  0
CLASS
  1
AM_HNTEMPLATE_MGR_NAME
  2
AdHoleNoteTemplateMgrName
  3
DesignerServices
 90
    32768
280
     0
281
     0
  0
CLASS
  1
AMDTDMMENUSTATE
  2
AmdtDmMenuState
  3
AcMechDwgViewMgmt
 90
        0
280
     0
281
     0
  0
CLASS
  1
MAPIADMODULE
  2
MApiAdModule
  3
MApiAdServices
 90
        0
280
     0
281
     0
  0
CLASS
  1
AMDTAMMENUSTATE
  2
AmdtAmMenuState
  3
DesignerAssemblies
 90
        0
280
     0
281
     0
  0
CLASS
  1
ACAMPROJECT
  2
AcAmProject
  3
DesignerAssemblies
 90
        0
280
     0
281
     0
  0
CLASS
  1
ACAMGRCOMPDEF
  2
AcAmGrCompDef
  3
DesignerAssemblies
 90
        0
280
     0
281
     0
  0
CLASS
  1
ACCMCONTEXT
  2
AcCmContext
  3
DesignerAssemblies
 90
        0
280
     0
281
     0
  0
CLASS
  1
ACAMCOMPDEF
  2
AcAmCompDef
  3
DesignerAssemblies
 90
        0
280
     0
281
     0
  0
CLASS
  1
ACAMCOMPDEFMGR
  2
AcAmCompDefMgr
  3
DesignerAssemblies
 90
        0
280
     0
281
     0
  0
CLASS
  1
AMCONTEXTMGR
  2
AcAmContextMgr
  3
DesignerAssemblies
 90
        0
280
     0
281
     0
  0
CLASS
  1
ACAMCONTEXTMODELER
  2
AcAmContextModeler
  3
DesignerAssemblies
 90
        0
280
     0
281
     0
  0
CLASS
  1
CATALOGSTATE
  2
AcAmCatalogState
  3
DesignerAssemblies
 90
        0
280
     0
281
     0
  0
CLASS
  1
ACAMGRCOMPDEFSET
  2
AcAmGrCompDefSet
  3
DesignerAssemblies
 90
        0
280
     0
281
     0
  0
CLASS
  1
AMDTBROWSERDBTAB
  2
AmdtBrowserDbTab
  3
McadcomServices
 90
        0
280
     0
281
     0
  0
CLASS
  1
CBROWSERAPPOBJECT
  2
CBrowserAppObject
  3
McadcomServices
 90
        0
280
     0
281
     0
  0
CLASS
  1
DM_PLACEHOLDER
  2
AcDmSelsetPlaceholder
  3
AcMechDwgViewMgmt
 90
        0
280
     0
281
     0
  0
CLASS
  1
ACMPICKOBJ
  2
AcmPickEnt
  3
"AcmSymBB|Product Description: AutoCAD Mechanical|Company: Autodesk"
 90
    32768
280
     0
281
     1
  0
CLASS
  1
ACMNOTESTANDARDISO
  2
AmdtNoteStdISO
  3
"Amdt_StdImp|Product Description: AutoCAD Mechanical|Company: Autodesk"
 90
        0
280
     0
281
     0
  0
CLASS
  1
ACMNOTESTANDARDANSI
  2
AmdtNoteStdANSI
  3
"Amdt_StdImp|Product Description: AutoCAD Mechanical|Company: Autodesk"
 90
    32768
280
     0
281
     0
  0
CLASS
  1
ACMTHREADLINESTANDARDISO
  2
AmdtThreadLineStdISO
  3
"Amdt_StdImp|Product Description: AutoCAD Mechanical|Company: Autodesk"
 90
        0
280
     0
281
     0
  0
CLASS
  1
ACMTHREADLINESTANDARDANSI
  2
AmdtThreadLineStdANSI
  3
"Amdt_StdImp|Product Description: AutoCAD Mechanical|Company: Autodesk"
 90
    32768
280
     0
281
     0
  0
CLASS
  1
TABLESTYLE
  2
AcDbTableStyle
  3
ObjectDBX Classes
 90
     4095
280
     0
281
     0
  0
CLASS
  1
SORTENTSTABLE
  2
AcDbSortentsTable
  3
ObjectDBX Classes
 90
        0
280
     0
281
     0
  0
CLASS
  1
EXACXREFPANELOBJECT
  2
ExAcXREFPanelObject
  3
EXAC_ESW
 90
    32768
280
     0
281
     0
  0
CLASS
  1
DIMASSOC
  2
AcDbDimAssoc
  3
"AcDbDimAssoc|Product Desc:     AcDim ARX App For Dimension|Company:          Autodesk, Inc.|WEB Address:      www.autodesk.com"
 90
        0
280
     0
281
     0
  0
CLASS
  1
MATERIAL
  2
AcDbMaterial
  3
ObjectDBX Classes
 90
     1024
280
     0
281
     0
  0
CLASS
  1
VISUALSTYLE
  2
AcDbVisualStyle
  3
ObjectDBX Classes
 90
     4095
280
     0
281
     0
  0
CLASS
  1
ACRFATTGENMGR
  2
AcRfAttGeneralMgr
  3
AcAttribServices
 90
        0
280
     0
281
     0
  0
CLASS
  1
ACRFOBJATTMGR
  2
AcRfObjAttGroupMgr
  3
AcAttribServices
 90
        0
280
     0
281
     0
  0
CLASS
  1
ACRFMCADAPIATTHOLDER
  2
AcRfMCADAPIAttHolder
  3
AcAttribServices
 90
        0
280
     0
281
     0
  0
CLASS
  1
AMDTSYSATTR
  2
AmdtSystemAttribute
  3
AcAttribServices
 90
        0
280
     0
281
     0
  0
CLASS
  1
ACMTAPERSTANDARDISO
  2
AcmTaperStdISO
  3
"Amdt_StdImp|Product Description: AutoCAD Mechanical|Company: Autodesk"
 90
        0
280
     0
281
     0
  0
CLASS
  1
CAMSSTRUCTBTNSTATE
  2
StructBtnState
  3
L"DesignerAssemblies"
 90
        0
280
     0
281
     0
  0
ENDSEC
  0
SECTION
  2
TABLES
  0
TABLE
  2
VPORT
  5
8
330
0
100
AcDbSymbolTable
 70
     1
  0
VPORT
  5
DAAB
330
8
100
AcDbSymbolTableRecord
100
AcDbViewportTableRecord
  2
*Active
 70
     0
 10
0.0
 20
0.0
 11
1.0
 21
1.0
 12
505.9844918656194
 22
332.162862274742
 13
0.0
 23
0.0
 14
5.0
 24
5.0
 15
20.0
 25
20.0
 16
0.0
 26
0.0
 36
1.0
 17
0.0
 27
0.0
 37
0.0
 40
693.2483909972733
 41
1.219298245614035
 42
50.0
 43
-1370.695619172058
 44
-1370.695619172058
 50
0.0
 51
0.0
 71
     0
 72
   100
 73
     1
 74
     3
 75
     0
 76
     0
 77
     0
 78
     0
281
     0
 65
     0
110
0.0
120
0.0
130
0.0
111
1.0
121
0.0
131
0.0
112
0.0
122
1.0
132
0.0
 79
     0
146
0.0
  0
ENDTAB
  0
TABLE
  2
LTYPE
  5
5
330
0
100
AcDbSymbolTable
 70
    27
  0
LTYPE
  5
14
330
5
100
AcDbSymbolTableRecord
100
AcDbLinetypeTableRecord
  2
ByBlock
 70
     0
  3

 72
    65
 73
     0
 40
0.0
  0
LTYPE
  5
15
330
5
100
AcDbSymbolTableRecord
100
AcDbLinetypeTableRecord
  2
ByLayer
 70
     0
  3

 72
    65
 73
     0
 40
0.0
  0
LTYPE
  5
16
330
5
100
AcDbSymbolTableRecord
100
AcDbLinetypeTableRecord
  2
Continuous
 70
     0
  3
Solid line
 72
    65
 73
     0
 40
0.0
  0
LTYPE
  5
4F
330
5
100
AcDbSymbolTableRecord
100
AcDbLinetypeTableRecord
  2
AM_ISO02W050
 70
     0
  3
__ __ __ __ __ __ __ __ __ __ __ __ __ __ __
 72
    65
 73
     2
 40
7.5
 49
6.0
 74
     0
 49
-1.5
 74
     0
  0
LTYPE
  5
52
330
5
100
AcDbSymbolTableRecord
100
AcDbLinetypeTableRecord
  2
Amconstr
 70
     0
  3
_______________________
 72
    65
 73
     2
 40
9999.0
 49
9999.0
 74
     0
 49
0.0
 74
     0
  0
LTYPE
  5
64
330
5
100
AcDbSymbolTableRecord
100
AcDbLinetypeTableRecord
  2
ACISOWELD
 70
     0
  3
_ _ _ _ _
 72
    65
 73
     2
 40
2.0
 49
2.0
 74
     0
 49
-1.0
 74
     0
  0
LTYPE
  5
65
330
5
100
AcDbSymbolTableRecord
100
AcDbLinetypeTableRecord
  2
ACISOTGB
 70
     0
  3
__ . . __ . .
 72
    65
 73
     6
 40
9.0
 49
4.0
 74
     0
 49
-1.0
 74
     0
 49
1.0
 74
     0
 49
-1.0
 74
     0
 49
1.0
 74
     0
 49
-1.0
 74
     0
  0
LTYPE
  5
66
330
5
100
AcDbSymbolTableRecord
100
AcDbLinetypeTableRecord
  2
ACISOTGL
 70
     0
  3
_ _ _ _ _
 72
    65
 73
     2
 40
3.0
 49
2.0
 74
     0
 49
-1.0
 74
     0
  0
LTYPE
  5
69
330
5
100
AcDbSymbolTableRecord
100
AcDbLinetypeTableRecord
  2
CENTER
 70
     0
  3
__ . __
 72
    65
 73
     4
 40
7.0
 49
4.0
 74
     0
 49
-1.0
 74
     0
 49
1.0
 74
     0
 49
-1.0
 74
     0
  0
LTYPE
  5
A6E
330
5
100
AcDbSymbolTableRecord
100
AcDbLinetypeTableRecord
  2
PHANTOM2
 70
     0
  3
Phantom (.5x) ___ _ _ ___ _ _ ___ _ _ ___ _ _
 72
    65
 73
     6
 40
31.75
 49
15.875
 74
     0
 49
-3.174999999999999
 74
     0
 49
3.174999999999999
 74
     0
 49
-3.174999999999999
 74
     0
 49
3.174999999999999
 74
     0
 49
-3.174999999999999
 74
     0
  0
LTYPE
  5
4DED
330
5
100
AcDbSymbolTableRecord
100
AcDbLinetypeTableRecord
  2
中線
 70
     0
  3
___________________
 72
    65
 73
     2
 40
2.0
 49
1.0
 74
     0
 49
1.0
 74
     0
  0
LTYPE
  5
4DF6
330
5
100
AcDbSymbolTableRecord
100
AcDbLinetypeTableRecord
  2
細線
 70
     0
  3
___________________
 72
    65
 73
     2
 40
2.0
 49
1.0
 74
     0
 49
1.0
 74
     0
  0
LTYPE
  5
4DF7
330
5
100
AcDbSymbolTableRecord
100
AcDbLinetypeTableRecord
  2
太線
 70
     0
  3
___________________
 72
    65
 73
     2
 40
2.0
 49
1.0
 74
     0
 49
1.0
 74
     0
  0
LTYPE
  5
4EA7
330
5
100
AcDbSymbolTableRecord
100
AcDbLinetypeTableRecord
  2
文字
 70
     0
  3
_________________
 72
    65
 73
     2
 40
2.0
 49
1.0
 74
     0
 49
1.0
 74
     0
  0
LTYPE
  5
4EA9
330
5
100
AcDbSymbolTableRecord
100
AcDbLinetypeTableRecord
  2
寸法線
 70
     0
  3
________________
 72
    65
 73
     2
 40
2.0
 49
1.0
 74
     0
 49
1.0
 74
     0
  0
LTYPE
  5
4F12
330
5
100
AcDbSymbolTableRecord
100
AcDbLinetypeTableRecord
  2
ハッチング
 70
     0
  3
_________________
 72
    65
 73
     2
 40
2.0
 49
1.0
 74
     0
 49
1.0
 74
     0
  0
LTYPE
  5
5180
330
5
100
AcDbSymbolTableRecord
100
AcDbLinetypeTableRecord
  2
陰線1
 70
     0
  3
__ __ __ __
 72
    65
 73
     2
 40
4.0
 49
2.2
 74
     0
 49
-1.8
 74
     0
  0
LTYPE
  5
5182
330
5
100
AcDbSymbolTableRecord
100
AcDbLinetypeTableRecord
  2
切断線
 70
     0
  3
/\/-/\/-/\/-/\/-/\/-/\/
 72
    65
 73
     2
 40
11.0001
 49
0.0001
 74
     4
 75
   135
340
56
 46
0.04
 50
0.0
 44
0.0
 45
0.0
 49
-11.0
 74
     0
  0
LTYPE
  5
5183
330
5
100
AcDbSymbolTableRecord
100
AcDbLinetypeTableRecord
  2
想像線1
 70
     0
  3
__ __ __ _____ __ __ ____
 72
    65
 73
     6
 40
14.5
 49
6.0
 74
     0
 49
-1.5
 74
     0
 49
2.0
 74
     0
 49
-1.5
 74
     0
 49
2.0
 74
     0
 49
-1.5
 74
     0
  0
LTYPE
  5
5185
330
5
100
AcDbSymbolTableRecord
100
AcDbLinetypeTableRecord
  2
中心線1
 70
     0
  3
___ _ ___ _ ___
 72
    65
 73
     4
 40
18.0
 49
12.0
 74
     0
 49
-2.0
 74
     0
 49
2.0
 74
     0
 49
-2.0
 74
     0
  0
LTYPE
  5
5188
330
5
100
AcDbSymbolTableRecord
100
AcDbLinetypeTableRecord
  2
補助線
 70
     0
  3
______________
 72
    65
 73
     2
 40
2.0
 49
1.0
 74
     0
 49
1.0
 74
     0
  0
LTYPE
  5
6427
330
5
100
AcDbSymbolTableRecord
100
AcDbLinetypeTableRecord
  2
HIDDEN
 70
     0
  3
Hidden __ __ __ __ __ __ __ __ __ __ __ __ __ _
 72
    65
 73
     2
 40
0.375
 49
0.25
 74
     0
 49
-0.125
 74
     0
  0
LTYPE
  5
AC81
330
5
100
AcDbSymbolTableRecord
100
AcDbLinetypeTableRecord
  2
破断線
 70
     0
  3
/\/-/\/-/\/-/\/-/\/-/\/
 72
    65
 73
     2
 40
0.4401
 49
0.0001
 74
     4
 75
   136
340
AC80
 46
0.0016
 50
0.0
 44
0.0
 45
0.0
 49
-0.4400000000000001
 74
     0
  0
LTYPE
  5
AC9E
330
5
100
AcDbSymbolTableRecord
100
AcDbLinetypeTableRecord
  2
Amzigzag
 70
     0
  3
/\/-/\/-/\/-/\/-/\/-/\/
 72
    65
 73
     2
 40
11.0001
 49
0.0001
 74
     4
 75
   135
340
56
 46
0.04
 50
0.0
 44
0.0
 45
0.0
 49
-11.0
 74
     0
  0
LTYPE
  5
AF0F
330
5
100
AcDbSymbolTableRecord
100
AcDbLinetypeTableRecord
  2
genzigzag
 70
     0
  3
/\/-/\/-/\/-/\/-/\/-/\/
 72
    65
 73
     2
 40
12.0001
 49
0.0001
 74
     4
 75
   135
340
AC80
 46
2.0
 50
0.0
 44
0.0
 45
0.0
 49
-12.0
 74
     0
  0
LTYPE
  5
AF95
330
5
100
AcDbSymbolTableRecord
100
AcDbLinetypeTableRecord
  2
AM_ISO08W050
 70
     0
  3
____ . ____ . ____ . ____ . ____ . ____ . ____
 72
    65
 73
     4
 40
18.0
 49
12.0
 74
     0
 49
-1.5
 74
     0
 49
3.0
 74
     0
 49
-1.5
 74
     0
  0
LTYPE
  5
AF96
330
5
100
AcDbSymbolTableRecord
100
AcDbLinetypeTableRecord
  2
AM_ISO09W050
 70
     0
  3
_____ . . _____ . . _____ . . ____ .. ____
 72
    65
 73
     6
 40
22.5
 49
12.0
 74
     0
 49
-1.5
 74
     0
 49
3.0
 74
     0
 49
-1.5
 74
     0
 49
3.0
 74
     0
 49
-1.5
 74
     0
  0
LTYPE
  5
AF97
330
5
100
AcDbSymbolTableRecord
100
AcDbLinetypeTableRecord
  2
AM_ISO08W050x2
 70
     0
  3
__ . __ . __ . __ . __ . __
 72
    65
 73
     4
 40
9.0
 49
6.0
 74
     0
 49
-0.75
 74
     0
 49
1.5
 74
     0
 49
-0.75
 74
     0
  0
LTYPE
  5
AF98
330
5
100
AcDbSymbolTableRecord
100
AcDbLinetypeTableRecord
  2
AM_ISO02W050x2
 70
     0
  3
 _ _ _ _ _ _ _ _ _ _ _ _
 72
    65
 73
     2
 40
3.75
 49
3.0
 74
     0
 49
-0.75
 74
     0
  0
ENDTAB
  0
TABLE
  2
LAYER
  5
2
102
{ACAD_XDICTIONARY
360
3F95
102
}
330
0
100
AcDbSymbolTable
 70
    21
  0
LAYER
  5
10
330
2
100
AcDbSymbolTableRecord
100
AcDbLayerTableRecord
  2
0
 70
     0
 62
     7
  6
Continuous
370
    -3
390
F
  0
LAYER
  5
6D1
330
2
100
AcDbSymbolTableRecord
100
AcDbLayerTableRecord
  2
Defpoints
 70
     0
 62
     7
  6
Continuous
290
     0
370
    -3
390
F
  0
LAYER
  5
5F85
330
2
100
AcDbSymbolTableRecord
100
AcDbLayerTableRecord
  2
AM_0
 70
     0
 62
     7
  6
中線
370
    25
390
F
1001
AcAecLayerStandard
1000

1000

  0
LAYER
  5
AC9F
330
2
100
AcDbSymbolTableRecord
100
AcDbLayerTableRecord
  2
size
 70
     0
 62
     5
  6
Continuous
290
     0
370
    25
390
F
  0
LAYER
  5
ACA0
330
2
100
AcDbSymbolTableRecord
100
AcDbLayerTableRecord
  2
waku
 70
     0
 62
     7
  6
Continuous
370
    35
390
F
  0
LAYER
  5
ACA1
330
2
100
AcDbSymbolTableRecord
100
AcDbLayerTableRecord
  2
AM_6
 70
     0
 62
     2
  6
文字
370
    15
390
F
1001
AcAecLayerStandard
1000

1000

  0
LAYER
  5
ACC8
330
2
100
AcDbSymbolTableRecord
100
AcDbLayerTableRecord
  2
hyomoji
 70
     0
 62
     2
  6
Continuous
370
    15
390
F
  0
LAYER
  5
ACC9
330
2
100
AcDbSymbolTableRecord
100
AcDbLayerTableRecord
  2
hyosen1
 70
     0
 62
     1
  6
Continuous
370
    25
390
F
  0
LAYER
  5
ACCA
330
2
100
AcDbSymbolTableRecord
100
AcDbLayerTableRecord
  2
hyosen2
 70
     0
 62
     1
  6
Continuous
370
    15
390
F
  0
LAYER
  5
AD60
330
2
100
AcDbSymbolTableRecord
100
AcDbLayerTableRecord
  2
AM_1
 70
     0
 62
    30
  6
太線
370
    25
390
F
1001
AcAecLayerStandard
1000

1000

  0
LAYER
  5
AD64
330
2
100
AcDbSymbolTableRecord
100
AcDbLayerTableRecord
  2
AM_2
 70
     0
 62
     1
  6
細線
370
    15
390
F
1001
AcAecLayerStandard
1000

1000

  0
LAYER
  5
AD67
330
2
100
AcDbSymbolTableRecord
100
AcDbLayerTableRecord
  2
AM_3
 70
     0
 62
     6
  6
陰線1
370
    15
390
F
1001
AcAecLayerStandard
1000

1000

  0
LAYER
  5
AD68
330
2
100
AcDbSymbolTableRecord
100
AcDbLayerTableRecord
  2
AM_5
 70
     0
 62
     3
  6
寸法線
370
    15
390
F
1001
AcAecLayerStandard
1000

1000

  0
LAYER
  5
AD69
330
2
100
AcDbSymbolTableRecord
100
AcDbLayerTableRecord
  2
AM_7
 70
     0
 62
     4
  6
中心線1
370
    15
390
F
1001
AcAecLayerStandard
1000

1000

  0
LAYER
  5
AD6A
330
2
100
AcDbSymbolTableRecord
100
AcDbLayerTableRecord
  2
AM_8
 70
     0
 62
     1
  6
ハッチング
370
    15
390
F
1001
AcAecLayerStandard
1000

1000

  0
LAYER
  5
AD6E
330
2
100
AcDbSymbolTableRecord
100
AcDbLayerTableRecord
  2
AM_10
 70
     0
 62
     7
  6
genzigzag
370
    25
390
F
1001
AcAecLayerStandard
1000

1000

  0
LAYER
  5
AD6F
330
2
100
AcDbSymbolTableRecord
100
AcDbLayerTableRecord
  2
AM_11
 70
     0
 62
     2
  6
想像線1
370
    15
390
F
1001
AcAecLayerStandard
1000

1000

  0
LAYER
  5
C26E
330
2
100
AcDbSymbolTableRecord
100
AcDbLayerTableRecord
  2
AM_14
 70
     0
 62
     5
  6
細線
370
     9
390
F
1001
AcAecLayerStandard
1000

1000

  0
LAYER
  5
C3DF
330
2
100
AcDbSymbolTableRecord
100
AcDbLayerTableRecord
  2
ハンドル-AM_2
 70
     0
 62
     1
  6
細線
370
    15
390
F
1001
AcAecLayerStandard
1000

1000

  0
LAYER
  5
C3E0
330
2
100
AcDbSymbolTableRecord
100
AcDbLayerTableRecord
  2
スラセ-AM_0
 70
     0
 62
     7
  6
中線
370
    25
390
F
1001
AcAecLayerStandard
1000

1000

  0
LAYER
  5
D0B1
330
2
100
AcDbSymbolTableRecord
100
AcDbLayerTableRecord
  2
ハンドル-AM_0
 70
     0
 62
     7
  6
中線
370
    25
390
F
1001
AcAecLayerStandard
1000

1000

  0
ENDTAB
  0
TABLE
  2
STYLE
  5
3
330
0
100
AcDbSymbolTable
 70
     6
  0
STYLE
  5
11
330
3
100
AcDbSymbolTableRecord
100
AcDbTextStyleTableRecord
  2
STANDARD
 70
     0
 40
0.0
 41
0.7
 50
0.0
 71
     0
 42
3.2
  3
romans.shx
  4
extfont.shx
  0
STYLE
  5
56
330
3
100
AcDbSymbolTableRecord
100
AcDbTextStyleTableRecord
  2

 70
     1
 40
0.0
 41
1.0
 50
0.0
 71
     0
 42
2.5
  3
ltypeshp.shx
  4

  0
STYLE
  5
58
330
3
100
AcDbSymbolTableRecord
100
AcDbTextStyleTableRecord
  2
ACISOTS
 70
     0
 40
1.0
 41
1.0
 50
0.0
 71
     0
 42
2.5
  3
isocp.shx
  4
extfont.shx
  0
STYLE
  5
63
330
3
100
AcDbSymbolTableRecord
100
AcDbTextStyleTableRecord
  2
ACISOGDT
 70
     0
 40
0.0
 41
1.0
 50
0.0
 71
     0
 42
2.5
  3
amgdt.shx
  4

  0
STYLE
  5
A74
330
3
100
AcDbSymbolTableRecord
100
AcDbTextStyleTableRecord
  2
DIM
 70
     0
 40
0.0
 41
1.0
 50
0.0
 71
     0
 42
2.5
  3
monotxt.shx
  4
extfont.shx
  0
STYLE
  5
AC80
330
3
100
AcDbSymbolTableRecord
100
AcDbTextStyleTableRecord
  2

 70
     1
 40
0.0
 41
1.0
 50
0.0
 71
     0
 42
3.2
  3
genltshp.shx
  4

  0
ENDTAB
  0
TABLE
  2
VIEW
  5
6
330
0
100
AcDbSymbolTable
 70
     6
  0
VIEW
  5
AE1
330
6
100
AcDbSymbolTableRecord
100
AcDbViewTableRecord
  2
AM_VIEW1
 70
     0
 40
297.0
 10
307.5673174581773
 20
480.6628595086294
 41
443.1656590084644
 11
0.0
 21
0.0
 31
1.0
 12
0.0
 22
0.0
 32
0.0
 42
50.0
 43
-1370.695619172058
 44
-1370.695619172058
 50
0.0
 71
     0
281
     0
 72
     0
  0
VIEW
  5
AE2
330
6
100
AcDbSymbolTableRecord
100
AcDbViewTableRecord
  2
AM_VIEW2
 70
     0
 40
297.0
 10
704.4016584497128
 20
480.6628595086294
 41
443.1656590084643
 11
0.0
 21
0.0
 31
1.0
 12
0.0
 22
0.0
 32
0.0
 42
50.0
 43
-1370.695619172058
 44
-1370.695619172058
 50
0.0
 71
     0
281
     0
 72
     0
  0
VIEW
  5
AE3
330
6
100
AcDbSymbolTableRecord
100
AcDbViewTableRecord
  2
AM_VIEW3
 70
     0
 40
297.0
 10
307.5673174581773
 20
183.6628595086295
 41
443.1656590084644
 11
0.0
 21
0.0
 31
1.0
 12
0.0
 22
0.0
 32
0.0
 42
50.0
 43
-1370.695619172058
 44
-1370.695619172058
 50
0.0
 71
     0
281
     0
 72
     0
  0
VIEW
  5
AE4
330
6
100
AcDbSymbolTableRecord
100
AcDbViewTableRecord
  2
AM_VIEW4
 70
     0
 40
297.0
 10
704.4016584497128
 20
183.6628595086295
 41
443.1656590084643
 11
0.0
 21
0.0
 31
1.0
 12
0.0
 22
0.0
 32
0.0
 42
50.0
 43
-1370.695619172058
 44
-1370.695619172058
 50
0.0
 71
     0
281
     0
 72
     0
  0
VIEW
  5
AE5
330
6
100
AcDbSymbolTableRecord
100
AcDbViewTableRecord
  2
AM_VIEW5
 70
     0
 40
297.0
 10
505.9844879539451
 20
332.1628595086295
 41
443.1656590084644
 11
0.0
 21
0.0
 31
1.0
 12
0.0
 22
0.0
 32
0.0
 42
50.0
 43
-1370.695619172058
 44
-1370.695619172058
 50
0.0
 71
     0
281
     0
 72
     0
  0
VIEW
  5
AE6
330
6
100
AcDbSymbolTableRecord
100
AcDbViewTableRecord
  2
AM_VIEW6
 70
     0
 40
593.9940599999999
 10
505.9844879539451
 20
332.1628595086295
 41
886.3224547037487
 11
0.0
 21
0.0
 31
1.0
 12
0.0
 22
0.0
 32
0.0
 42
50.0
 43
-1370.695619172058
 44
-1370.695619172058
 50
0.0
 71
     0
281
     0
 72
     0
  0
ENDTAB
  0
TABLE
  2
UCS
  5
7
330
0
100
AcDbSymbolTable
 70
     0
  0
ENDTAB
  0
TABLE
  2
APPID
  5
9
330
0
100
AcDbSymbolTable
 70
    61
  0
APPID
  5
12
330
9
100
AcDbSymbolTableRecord
100
AcDbRegAppTableRecord
  2
ACAD
 70
     0
  0
APPID
  5
30
330
9
100
AcDbSymbolTableRecord
100
AcDbRegAppTableRecord
  2
MCAD_NO_VIS
 70
     0
  0
APPID
  5
31
330
9
100
AcDbSymbolTableRecord
100
AcDbRegAppTableRecord
  2
ACAD_TEMP_GRAPHIC
 70
     0
  0
APPID
  5
44
330
9
100
AcDbSymbolTableRecord
100
AcDbRegAppTableRecord
  2
ACATTRIBSERVICES
 70
     0
  0
APPID
  5
7A1
330
9
100
AcDbSymbolTableRecord
100
AcDbRegAppTableRecord
  2
GENIUS_GENDIMSH_14
 70
     0
  0
APPID
  5
A49
330
9
100
AcDbSymbolTableRecord
100
AcDbRegAppTableRecord
  2
GENIUS_GENREC_14
 70
     0
  0
APPID
  5
A4A
330
9
100
AcDbSymbolTableRecord
100
AcDbRegAppTableRecord
  2
GENIUS_GENOBJ-N-REC_13
 70
     0
  0
APPID
  5
A4B
330
9
100
AcDbSymbolTableRecord
100
AcDbRegAppTableRecord
  2
GENIUS_GENODEF_13
 70
     0
  0
APPID
  5
A4C
330
9
100
AcDbSymbolTableRecord
100
AcDbRegAppTableRecord
  2
DCO15
 70
     0
  0
APPID
  5
ADC
330
9
100
AcDbSymbolTableRecord
100
AcDbRegAppTableRecord
  2
GENIUS_GENOLIS_13
 70
     0
  0
APPID
  5
ADD
330
9
100
AcDbSymbolTableRecord
100
AcDbRegAppTableRecord
  2
GENIUS_GENOENT_13
 70
     0
  0
APPID
  5
ADE
330
9
100
AcDbSymbolTableRecord
100
AcDbRegAppTableRecord
  2
GENIUS_GENOBJ-N-TIT_13
 70
     0
  0
APPID
  5
ADF
330
9
100
AcDbSymbolTableRecord
100
AcDbRegAppTableRecord
  2
GENIUS_GENTITLE_13
 70
     0
  0
APPID
  5
AE0
330
9
100
AcDbSymbolTableRecord
100
AcDbRegAppTableRecord
  2
GENIUS_GENOREF_13
 70
     0
  0
APPID
  5
AE7
330
9
100
AcDbSymbolTableRecord
100
AcDbRegAppTableRecord
  2
GENIUS_GENSCREG_15
 70
     0
  0
APPID
  5
AE8
330
9
100
AcDbSymbolTableRecord
100
AcDbRegAppTableRecord
  2
GENIUS_GENOBJ-N-SDF_13
 70
     0
  0
APPID
  5
FAF
330
9
100
AcDbSymbolTableRecord
100
AcDbRegAppTableRecord
  2
GENIUS_GENBLLY_14
 70
     0
  0
APPID
  5
FB0
330
9
100
AcDbSymbolTableRecord
100
AcDbRegAppTableRecord
  2
GENIUS_GENTRA_14
 70
     0
  0
APPID
  5
1285
330
9
100
AcDbSymbolTableRecord
100
AcDbRegAppTableRecord
  2
GENIUS_GENDTOL_13
 70
     0
  0
APPID
  5
142D
330
9
100
AcDbSymbolTableRecord
100
AcDbRegAppTableRecord
  2
GENIUS_GENOBJ-N-CEN_13
 70
     0
  0
APPID
  5
1AB5
330
9
100
AcDbSymbolTableRecord
100
AcDbRegAppTableRecord
  2
GENIUS_GENOBJ-N-CRS_13
 70
     0
  0
APPID
  5
1B36
330
9
100
AcDbSymbolTableRecord
100
AcDbRegAppTableRecord
  2
GENIUS_GENOBJ-N-HTC_13
 70
     0
  0
APPID
  5
1B37
330
9
100
AcDbSymbolTableRecord
100
AcDbRegAppTableRecord
  2
GENIUS_GENHATCH_13
 70
     0
  0
APPID
  5
216D
330
9
100
AcDbSymbolTableRecord
100
AcDbRegAppTableRecord
  2
GENIUS_GENOBJ-N-FIL_13
 70
     0
  0
APPID
  5
2356
330
9
100
AcDbSymbolTableRecord
100
AcDbRegAppTableRecord
  2
GEVID990412420
 70
     0
  0
APPID
  5
2357
330
9
100
AcDbSymbolTableRecord
100
AcDbRegAppTableRecord
  2
GEVDC
 70
     0
  0
APPID
  5
2358
330
9
100
AcDbSymbolTableRecord
100
AcDbRegAppTableRecord
  2
GEVCON
 70
     0
  0
APPID
  5
235B
330
9
100
AcDbSymbolTableRecord
100
AcDbRegAppTableRecord
  2
GEVRADREF
 70
     0
  0
APPID
  5
2360
330
9
100
AcDbSymbolTableRecord
100
AcDbRegAppTableRecord
  2
GENIUS_GENBH_13
 70
     0
  0
APPID
  5
2362
330
9
100
AcDbSymbolTableRecord
100
AcDbRegAppTableRecord
  2
GENIUS_GENOBJ-NBEHI-BHF_13
 70
     0
  0
APPID
  5
2364
330
9
100
AcDbSymbolTableRecord
100
AcDbRegAppTableRecord
  2
GENIUS_GENOBJ-NBEHI-BHB_13
 70
     0
  0
APPID
  5
2379
330
9
100
AcDbSymbolTableRecord
100
AcDbRegAppTableRecord
  2
GENIUS_GENOBJ-F-SCPASSM_13
 70
     0
  0
APPID
  5
3D74
330
9
100
AcDbSymbolTableRecord
100
AcDbRegAppTableRecord
  2
GENIUS_GENDIM_13
 70
     0
  0
APPID
  5
3D76
330
9
100
AcDbSymbolTableRecord
100
AcDbRegAppTableRecord
  2
GENIUS_GE3DTOL_13
 70
     0
  0
APPID
  5
3D9C
330
9
100
AcDbSymbolTableRecord
100
AcDbRegAppTableRecord
  2
AD_DRAW
 70
     0
  0
APPID
  5
3DE8
330
9
100
AcDbSymbolTableRecord
100
AcDbRegAppTableRecord
  2
ASURF_PCURVE_APPNAME
 70
     0
  0
APPID
  5
3DED
330
9
100
AcDbSymbolTableRecord
100
AcDbRegAppTableRecord
  2
AMG_3D2D_5.0
 70
     0
  0
APPID
  5
3E1B
330
9
100
AcDbSymbolTableRecord
100
AcDbRegAppTableRecord
  2
DESIGNERASSEMBLIES
 70
     0
  0
APPID
  5
3E20
330
9
100
AcDbSymbolTableRecord
100
AcDbRegAppTableRecord
  2
ACADM_DIM_EDIT
 70
     0
  0
APPID
  5
3E21
330
9
100
AcDbSymbolTableRecord
100
AcDbRegAppTableRecord
  2
AMDT_DM_ADJ
 70
     0
  0
APPID
  5
4143
330
9
100
AcDbSymbolTableRecord
100
AcDbRegAppTableRecord
  2
GENIUS_GENFIL_13
 70
     0
  0
APPID
  5
4144
330
9
100
AcDbSymbolTableRecord
100
AcDbRegAppTableRecord
  2
GENIUS_GENOBJ-N-CHA_13
 70
     0
  0
APPID
  5
4E17
330
9
100
AcDbSymbolTableRecord
100
AcDbRegAppTableRecord
  2
GEVID1008153417
 70
     0
  0
APPID
  5
4E58
330
9
100
AcDbSymbolTableRecord
100
AcDbRegAppTableRecord
  2
GEVID1008153418
 70
     0
  0
APPID
  5
4E5E
330
9
100
AcDbSymbolTableRecord
100
AcDbRegAppTableRecord
  2
GEVID1008153419
 70
     0
  0
APPID
  5
4E64
330
9
100
AcDbSymbolTableRecord
100
AcDbRegAppTableRecord
  2
GEVID1008153420
 70
     0
  0
APPID
  5
4E75
330
9
100
AcDbSymbolTableRecord
100
AcDbRegAppTableRecord
  2
GEVID1008153421
 70
     0
  0
APPID
  5
4EB7
330
9
100
AcDbSymbolTableRecord
100
AcDbRegAppTableRecord
  2
GENIUS_AMGTXT_16
 70
     0
  0
APPID
  5
7645
330
9
100
AcDbSymbolTableRecord
100
AcDbRegAppTableRecord
  2
GENIUS_GENOBJ-N-DIM_13
 70
     0
  0
APPID
  5
AAD0
330
9
100
AcDbSymbolTableRecord
100
AcDbRegAppTableRecord
  2
ACAD_DSTYLE_DIMARC_LENGTH_SYMBOL
 70
     0
  0
APPID
  5
AAD1
330
9
100
AcDbSymbolTableRecord
100
AcDbRegAppTableRecord
  2
ACAD_DSTYLE_DIMJOGGED_JOGANGLE_SYMBOL
 70
     0
  0
APPID
  5
AAFD
330
9
100
AcDbSymbolTableRecord
100
AcDbRegAppTableRecord
  2
ACAD_PSEXT
 70
     0
  0
APPID
  5
AD61
330
9
100
AcDbSymbolTableRecord
100
AcDbRegAppTableRecord
  2
AcAecLayerStandard
 70
     0
  0
APPID
  5
AEE3
330
9
100
AcDbSymbolTableRecord
100
AcDbRegAppTableRecord
  2
ACAD_EXEMPT_FROM_CAD_STANDARDS
 70
     0
  0
APPID
  5
B0F5
330
9
100
AcDbSymbolTableRecord
100
AcDbRegAppTableRecord
  2
ACAD_DSTYLE_DIMTEXT_FILL
 70
     0
  0
APPID
  5
B0F6
330
9
100
AcDbSymbolTableRecord
100
AcDbRegAppTableRecord
  2
ACAD_DSTYLE_DIMEXT_LENGTH
 70
     0
  0
APPID
  5
B0F7
330
9
100
AcDbSymbolTableRecord
100
AcDbRegAppTableRecord
  2
ACAD_DSTYLE_DIMEXT_ENABLED
 70
     0
  0
APPID
  5
B0F8
330
9
100
AcDbSymbolTableRecord
100
AcDbRegAppTableRecord
  2
ACAD_DSTYLE_DIM_LINETYPE
 70
     0
  0
APPID
  5
B0F9
330
9
100
AcDbSymbolTableRecord
100
AcDbRegAppTableRecord
  2
ACAD_DSTYLE_DIM_EXT1_LINETYPE
 70
     0
  0
APPID
  5
B0FA
330
9
100
AcDbSymbolTableRecord
100
AcDbRegAppTableRecord
  2
ACAD_DSTYLE_DIM_EXT2_LINETYPE
 70
     0
  0
APPID
  5
C3E1
330
9
100
AcDbSymbolTableRecord
100
AcDbRegAppTableRecord
  2
GENIUS_GENCEN_19
 70
     0
  0
ENDTAB
  0
TABLE
  2
DIMSTYLE
  5
A
330
0
100
AcDbSymbolTable
 70
    17
100
AcDbDimStyleTable
 71
     3
340
2515
340
251A
340
251B
  0
DIMSTYLE
105
A76
330
A
100
AcDbSymbolTableRecord
100
AcDbDimStyleTableRecord
  2
STANDARD
 70
     0
 41
3.0
 42
1.0
 43
7.0
 44
2.0
 73
     0
 74
     0
 77
     1
140
2.799999999999999
141
0.0
143
0.0394
147
0.7
171
     4
172
     1
173
     1
176
     3
177
     3
178
     2
271
     3
272
     3
273
     8
274
     4
289
     0
340
A74
341
A66
343
A66
344
A66
  0
DIMSTYLE
105
2515
330
A
100
AcDbSymbolTableRecord
100
AcDbDimStyleTableRecord
  2
SYS
 70
     0
  4
"
 41
1.0
 42
1.0
 43
10.0
 44
1.0
 47
0.1
 48
0.1
 73
     0
 74
     0
 77
     1
 78
     8
 79
     2
140
3.5
141
0.0
143
0.0393701
146
0.71
147
1.5
172
     1
176
   256
177
   256
178
     7
271
     2
272
     2
283
     0
284
     8
340
11
371
    -1
372
    -1
1001
ACAD_DSTYLE_DIMJOGGED_JOGANGLE_SYMBOL
1070
   384
1040
0.7853981633974483
1001
ACAD_DSTYLE_DIMARC_LENGTH_SYMBOL
1070
   379
1070
     1
  0
DIMSTYLE
105
2516
102
{ACAD_REACTORS
330
CC27
102
}
330
A
100
AcDbSymbolTableRecord
100
AcDbDimStyleTableRecord
  2
SYS$3
 70
     0
  4
"
 41
2.0
 42
1.0
 43
10.0
 44
1.0
 47
0.1
 48
0.1
 73
     0
 77
     1
 78
     8
 79
     2
140
3.200000000000001
141
0.0
143
0.0393701
146
0.71
147
1.5
176
   256
177
   256
178
     2
271
     2
272
     2
283
     0
284
     8
288
     1
340
11
342
A66
371
    -1
372
    -1
1001
ACAD_DSTYLE_DIMJOGGED_JOGANGLE_SYMBOL
1070
   384
1040
0.7853981633974483
1001
ACAD_DSTYLE_DIMARC_LENGTH_SYMBOL
1070
   379
1070
     1
1001
ACAD_DSTYLE_DIMEXT_LENGTH
1070
   378
1040
0.0
  0
DIMSTYLE
105
2517
330
A
100
AcDbSymbolTableRecord
100
AcDbDimStyleTableRecord
  2
SYS$4
 70
     0
  4
"
 41
2.0
 42
1.0
 43
10.0
 44
1.0
 47
0.1
 48
0.1
 73
     0
 77
     1
 78
     8
 79
     2
140
3.200000000000001
141
0.0
143
0.0393701
146
0.71
147
1.5
173
     1
176
   256
177
   256
178
     2
271
     2
272
     2
283
     0
284
     8
288
     1
340
11
344
A66
371
    -1
372
    -1
1001
ACAD_DSTYLE_DIMJOGGED_JOGANGLE_SYMBOL
1070
   384
1040
0.7853981633974483
1001
ACAD_DSTYLE_DIMARC_LENGTH_SYMBOL
1070
   379
1070
     1
1001
ACAD_DSTYLE_DIMEXT_LENGTH
1070
   378
1040
0.0
  0
DIMSTYLE
105
2518
330
A
100
AcDbSymbolTableRecord
100
AcDbDimStyleTableRecord
  2
SYS$6
 70
     0
  4
"
 41
2.0
 42
1.0
 43
10.0
 44
1.0
 47
0.1
 48
0.1
 73
     0
 74
     0
 78
     8
 79
     2
140
3.200000000000001
141
0.0
143
0.0393701
146
0.71
147
1.5
172
     1
176
   256
177
   256
178
     2
271
     2
272
     2
283
     0
284
     8
340
11
341
A66
371
    -1
372
    -1
1001
ACAD_DSTYLE_DIMJOGGED_JOGANGLE_SYMBOL
1070
   384
1040
0.7853981633974483
1001
ACAD_DSTYLE_DIMARC_LENGTH_SYMBOL
1070
   379
1070
     1
1001
ACAD_DSTYLE_DIMEXT_LENGTH
1070
   378
1040
0.0
  0
DIMSTYLE
105
2519
330
A
100
AcDbSymbolTableRecord
100
AcDbDimStyleTableRecord
  2
SYS$7
 70
     0
  4
"
 41
2.0
 42
1.0
 43
10.0
 44
1.0
 47
0.1
 48
0.1
 73
     0
 74
     0
 77
     1
 78
     8
 79
     2
140
3.200000000000006
141
0.0
143
0.0393701
146
0.71
147
1.5
172
     1
176
   256
177
   256
178
     2
271
     2
272
     2
283
     0
284
     8
340
11
341
A66
342
A66
371
    -1
372
    -1
1001
ACAD_DSTYLE_DIMJOGGED_JOGANGLE_SYMBOL
1070
   384
1040
0.7853981633974483
1001
ACAD_DSTYLE_DIMARC_LENGTH_SYMBOL
1070
   379
1070
     1
1001
ACAD_DSTYLE_DIMEXT_LENGTH
1070
   378
1040
0.0
  0
DIMSTYLE
105
251A
330
A
100
AcDbSymbolTableRecord
100
AcDbDimStyleTableRecord
  2
SYS$SF
 70
     0
  4
"
 41
2.5
 42
1.0
 43
10.0
 44
1.0
 47
0.1
 48
0.1
 73
     0
 74
     0
 75
     1
 76
     1
 77
     1
 78
     8
 79
     2
140
3.200000000000001
141
0.0
143
0.0393701
146
0.71
147
1.5
172
     1
176
   256
177
   256
178
     2
271
     2
272
     2
283
     0
284
     8
340
11
341
6C4
342
6C4
371
    -1
372
    -1
1001
ACAD_DSTYLE_DIMJOGGED_JOGANGLE_SYMBOL
1070
   384
1040
0.7853981633974483
1001
ACAD_DSTYLE_DIMARC_LENGTH_SYMBOL
1070
   379
1070
     1
1001
ACAD_DSTYLE_DIMEXT_LENGTH
1070
   378
1040
0.0
  0
DIMSTYLE
105
251B
330
A
100
AcDbSymbolTableRecord
100
AcDbDimStyleTableRecord
  2
SYS$SH
 70
     0
  4
"
 41
2.5
 42
1.0
 43
10.0
 44
1.0
 47
0.1
 48
0.1
 73
     0
 74
     0
 75
     1
 76
     1
 77
     1
 78
     8
 79
     2
140
3.200000000000001
141
0.0
143
0.0393701
144
2.0
146
0.71
147
1.5
172
     1
173
     1
176
   256
177
   256
178
     2
271
     2
272
     2
283
     0
284
     8
340
11
341
6C4
343
72
344
6C4
371
    -1
372
    -1
1001
ACAD_DSTYLE_DIMJOGGED_JOGANGLE_SYMBOL
1070
   384
1040
0.7853981633974483
1001
ACAD_DSTYLE_DIMARC_LENGTH_SYMBOL
1070
   379
1070
     1
1001
ACAD_DSTYLE_DIMEXT_LENGTH
1070
   378
1040
0.0
  0
DIMSTYLE
105
2A59
102
{ACAD_REACTORS
330
D852
102
}
330
A
100
AcDbSymbolTableRecord
100
AcDbDimStyleTableRecord
  2
SYS$2
 70
     0
  4
"
 41
1.0
 42
1.0
 43
10.0
 44
1.0
 47
0.1
 48
0.1
 73
     0
 74
     0
 77
     1
 78
     8
 79
     2
140
3.200000000000001
141
0.0
143
0.0393701
146
0.71
147
1.5
172
     1
176
   256
177
   256
178
     2
271
     2
272
     2
283
     0
284
     8
340
11
342
6C4
371
    -1
372
    -1
1001
ACAD_DSTYLE_DIMJOGGED_JOGANGLE_SYMBOL
1070
   384
1040
0.7853981633974483
1001
ACAD_DSTYLE_DIMARC_LENGTH_SYMBOL
1070
   379
1070
     1
1001
ACAD_DSTYLE_DIMEXT_LENGTH
1070
   378
1040
0.0
  0
DIMSTYLE
105
2AAB
102
{ACAD_REACTORS
330
C989
330
C98C
330
C9D4
330
C9D7
330
C9D8
330
C8A3
330
C8C6
330
CCC7
330
CCED
330
D05C
330
D2E2
330
D767
330
D78F
330
D7C2
330
D8EA
330
D919
330
D955
330
D97B
102
}
330
A
100
AcDbSymbolTableRecord
100
AcDbDimStyleTableRecord
  2
SYS$0
 70
     0
  4
"
 41
1.0
 42
1.0
 43
10.0
 44
1.0
 47
0.1
 48
0.1
 73
     0
 74
     0
 77
     1
 78
     8
 79
     2
140
3.200000000000001
141
0.0
143
0.0393701
146
0.71
147
1.5
172
     1
176
   256
177
   256
178
     2
271
     2
272
     2
283
     0
284
     8
340
11
341
A66
342
6C4
371
    -1
372
    -1
1001
ACAD_DSTYLE_DIMJOGGED_JOGANGLE_SYMBOL
1070
   384
1040
0.7853981633974483
1001
ACAD_DSTYLE_DIMARC_LENGTH_SYMBOL
1070
   379
1070
     1
1001
ACAD_DSTYLE_DIMEXT_LENGTH
1070
   378
1040
0.0
  0
DIMSTYLE
105
AF99
330
A
100
AcDbSymbolTableRecord
100
AcDbDimStyleTableRecord
  2
AM_ISO
 70
     0
  4
"
 41
2.5
 42
1.0
 43
10.0
 44
1.0
 47
0.1
 48
0.1
 73
     0
 74
     0
 77
     1
 78
     8
 79
     2
140
3.5
141
0.0
143
0.0393701
146
0.71
147
1.5
172
     1
176
   256
177
   256
178
     2
271
     2
272
     3
274
     4
283
     0
284
     8
340
11
371
    -1
372
    -1
  0
DIMSTYLE
105
AF9A
330
A
100
AcDbSymbolTableRecord
100
AcDbDimStyleTableRecord
  2
AM_ISO$3
 70
     0
  4
"
 41
2.5
 42
1.0
 43
10.0
 44
1.0
 47
0.1
 48
0.1
 73
     0
 77
     1
 78
     8
 79
     2
140
3.5
141
0.0
143
0.0393701
146
0.71
147
1.5
176
   256
177
   256
178
     2
271
     2
272
     3
274
     4
283
     0
284
     8
288
     1
289
     0
340
11
371
    -1
372
    -1
  0
DIMSTYLE
105
AF9B
330
A
100
AcDbSymbolTableRecord
100
AcDbDimStyleTableRecord
  2
AM_ISO$4
 70
     0
  4
"
 41
2.5
 42
1.0
 43
10.0
 44
1.0
 47
0.1
 48
0.1
 73
     0
 77
     1
 78
     8
 79
     2
140
3.5
141
0.0
143
0.0393701
146
0.71
147
1.5
176
   256
177
   256
178
     2
271
     2
272
     3
274
     4
283
     0
284
     8
288
     1
289
     0
340
11
371
    -1
372
    -1
  0
DIMSTYLE
105
AF9C
330
A
100
AcDbSymbolTableRecord
100
AcDbDimStyleTableRecord
  2
AM_ISO$6
 70
     0
  4
"
 41
2.5
 42
1.0
 43
10.0
 44
1.0
 47
0.1
 48
0.1
 73
     0
 74
     0
 78
     8
 79
     2
140
3.5
141
0.0
143
0.0393701
146
0.71
147
1.5
172
     1
176
   256
177
   256
178
     2
271
     2
272
     3
274
     4
283
     0
284
     8
340
11
371
    -1
372
    -1
  0
DIMSTYLE
105
AF9D
330
A
100
AcDbSymbolTableRecord
100
AcDbDimStyleTableRecord
  2
AM_ISO$7
 70
     0
  4
"
 41
2.5
 42
1.0
 43
10.0
 44
1.0
 47
0.1
 48
0.1
 73
     0
 74
     0
 77
     1
 78
     8
 79
     2
140
5.0
141
0.0
143
0.0393701
146
0.71
147
1.5
172
     1
176
   256
177
   256
178
     2
271
     2
272
     3
274
     4
283
     0
284
     8
340
11
371
    -1
372
    -1
  0
DIMSTYLE
105
AF9E
330
A
100
AcDbSymbolTableRecord
100
AcDbDimStyleTableRecord
  2
AM_ISO$SF
 70
     0
  4
"
 41
2.5
 42
1.0
 43
10.0
 44
1.0
 47
0.1
 48
0.1
 73
     0
 74
     0
 75
     1
 76
     1
 77
     1
 78
     8
 79
     2
140
3.5
141
0.0
143
0.0393701
146
0.71
147
1.5
172
     1
176
   256
177
   256
178
     2
271
     2
272
     3
274
     4
283
     0
284
     8
340
11
371
    -1
372
    -1
  0
DIMSTYLE
105
AF9F
330
A
100
AcDbSymbolTableRecord
100
AcDbDimStyleTableRecord
  2
AM_ISO$SH
 70
     0
  4
"
 41
2.5
 42
1.0
 43
10.0
 44
1.0
 47
0.1
 48
0.1
 73
     0
 74
     0
 75
     1
 76
     1
 77
     1
 78
     8
 79
     2
140
3.5
141
0.0
143
0.0393701
144
2.0
146
0.71
147
1.5
172
     1
173
     1
176
   256
177
   256
178
     2
271
     2
272
     3
274
     4
283
     0
284
     8
340
11
343
72
371
    -1
372
    -1
  0
ENDTAB
  0
TABLE
  2
BLOCK_RECORD
  5
1
330
0
100
AcDbSymbolTable
 70
    27
  0
BLOCK_RECORD
  5
1F
102
{ACAD_XDICTIONARY
360
8A
102
}
330
1
100
AcDbSymbolTableRecord
100
AcDbBlockTableRecord
  2
*Model_Space
340
22
  0
BLOCK_RECORD
  5
1B
330
1
100
AcDbSymbolTableRecord
100
AcDbBlockTableRecord
  2
*Paper_Space
340
1E
  0
BLOCK_RECORD
  5
23
330
1
100
AcDbSymbolTableRecord
100
AcDbBlockTableRecord
  2
*Paper_Space0
340
26
  0
BLOCK_RECORD
  5
72
330
1
100
AcDbSymbolTableRecord
100
AcDbBlockTableRecord
  2
GENAXEH
340
0
  0
BLOCK_RECORD
  5
6C4
330
1
100
AcDbSymbolTableRecord
100
AcDbBlockTableRecord
  2
_Dot
340
0
102
{BLKREFS
331
CDF7
331
CDF8
331
CE00
331
CE01
331
CE09
331
CE0A
331
CE12
331
CE13
331
CE1B
331
CE1C
331
CE25
331
CE26
331
CE2D
331
CE2E
331
D2CD
331
D2CE
331
D2F4
331
D2F5
331
D77B
331
D77C
331
D7AD
331
D7AE
331
D7D4
331
D7D5
331
D800
331
D801
331
D824
331
D825
331
D875
331
D876
331
D905
331
D906
331
D940
331
D941
331
D967
331
D968
331
D9AB
331
D9AC
102
}
  0
BLOCK_RECORD
  5
A66
330
1
100
AcDbSymbolTableRecord
100
AcDbBlockTableRecord
  2
_OPEN30
340
0
  0
BLOCK_RECORD
  5
C9D9
330
1
100
AcDbSymbolTableRecord
100
AcDbBlockTableRecord
  2
*D5
340
0
  0
BLOCK_RECORD
  5
C9E3
330
1
100
AcDbSymbolTableRecord
100
AcDbBlockTableRecord
  2
*D6
340
0
  0
BLOCK_RECORD
  5
C9ED
330
1
100
AcDbSymbolTableRecord
100
AcDbBlockTableRecord
  2
*D7
340
0
  0
BLOCK_RECORD
  5
C9F8
330
1
100
AcDbSymbolTableRecord
100
AcDbBlockTableRecord
  2
*D8
340
0
  0
BLOCK_RECORD
  5
CA03
330
1
100
AcDbSymbolTableRecord
100
AcDbBlockTableRecord
  2
*D9
340
0
  0
BLOCK_RECORD
  5
CA0D
330
1
100
AcDbSymbolTableRecord
100
AcDbBlockTableRecord
  2
*D10
340
0
  0
BLOCK_RECORD
  5
CA3D
330
1
100
AcDbSymbolTableRecord
100
AcDbBlockTableRecord
  2
*D11
340
0
  0
BLOCK_RECORD
  5
CC28
330
1
100
AcDbSymbolTableRecord
100
AcDbBlockTableRecord
  2
*D12
340
0
  0
BLOCK_RECORD
  5
CC50
330
1
100
AcDbSymbolTableRecord
100
AcDbBlockTableRecord
  2
_DotSmall
340
0
102
{BLKREFS
331
CE6C
331
CE6D
102
}
  0
BLOCK_RECORD
  5
CCC8
330
1
100
AcDbSymbolTableRecord
100
AcDbBlockTableRecord
  2
*D14
340
0
  0
BLOCK_RECORD
  5
CCEE
330
1
100
AcDbSymbolTableRecord
100
AcDbBlockTableRecord
  2
*D15
340
0
  0
BLOCK_RECORD
  5
D05D
330
1
100
AcDbSymbolTableRecord
100
AcDbBlockTableRecord
  2
*D16
340
0
  0
BLOCK_RECORD
  5
D2E3
330
1
100
AcDbSymbolTableRecord
100
AcDbBlockTableRecord
  2
*D17
340
0
  0
BLOCK_RECORD
  5
D768
330
1
100
AcDbSymbolTableRecord
100
AcDbBlockTableRecord
  2
*D18
340
0
  0
BLOCK_RECORD
  5
D790
330
1
100
AcDbSymbolTableRecord
100
AcDbBlockTableRecord
  2
*D19
340
0
  0
BLOCK_RECORD
  5
D7C3
330
1
100
AcDbSymbolTableRecord
100
AcDbBlockTableRecord
  2
*D20
340
0
  0
BLOCK_RECORD
  5
D853
330
1
100
AcDbSymbolTableRecord
100
AcDbBlockTableRecord
  2
*D21
340
0
  0
BLOCK_RECORD
  5
D8EB
330
1
100
AcDbSymbolTableRecord
100
AcDbBlockTableRecord
  2
*D22
340
0
  0
BLOCK_RECORD
  5
D91A
330
1
100
AcDbSymbolTableRecord
100
AcDbBlockTableRecord
  2
*D23
340
0
  0
BLOCK_RECORD
  5
D956
330
1
100
AcDbSymbolTableRecord
100
AcDbBlockTableRecord
  2
*D24
340
0
  0
BLOCK_RECORD
  5
D97C
330
1
100
AcDbSymbolTableRecord
100
AcDbBlockTableRecord
  2
*D25
340
0
  0
BLOCK_RECORD
  5
DB01
330
1
100
AcDbSymbolTableRecord
100
AcDbBlockTableRecord
  2
*S26
340
0
  0
ENDTAB
  0
ENDSEC
  0
SECTION
  2
BLOCKS
  0
BLOCK
  5
20
330
1F
100
AcDbEntity
  8
0
100
AcDbBlockBegin
  2
*Model_Space
 70
     0
 10
0.0
 20
0.0
 30
0.0
  3
*Model_Space
  1

  0
ENDBLK
  5
21
330
1F
100
AcDbEntity
  8
0
100
AcDbBlockEnd
  0
BLOCK
  5
1C
330
1B
100
AcDbEntity
 67
     1
  8
0
100
AcDbBlockBegin
  2
*Paper_Space
 70
     0
 10
0.0
 20
0.0
 30
0.0
  3
*Paper_Space
  1

  0
ENDBLK
  5
1D
330
1B
100
AcDbEntity
 67
     1
  8
0
100
AcDbBlockEnd
  0
BLOCK
  5
24
330
23
100
AcDbEntity
 67
     1
  8
0
100
AcDbBlockBegin
  2
*Paper_Space0
 70
     0
 10
0.0
 20
0.0
 30
0.0
  3
*Paper_Space0
  1

  0
ENDBLK
  5
25
330
23
100
AcDbEntity
 67
     1
  8
0
100
AcDbBlockEnd
  0
BLOCK
  5
74
330
72
100
AcDbEntity
  8
0
100
AcDbBlockBegin
  2
GENAXEH
 70
     0
 10
0.0
 20
0.0
 30
0.0
  3
GENAXEH
  1

  0
LINE
  5
73
330
72
100
AcDbEntity
  8
0
100
AcDbLine
 10
-1.0
 20
0.0
 30
0.0
 11
1.0
 21
0.0
 31
0.0
  0
ENDBLK
  5
75
330
72
100
AcDbEntity
  8
0
100
AcDbBlockEnd
  0
BLOCK
  5
6C7
330
6C4
100
AcDbEntity
  8
0
100
AcDbBlockBegin
  2
_Dot
 70
     0
 10
0.0
 20
0.0
 30
0.0
  3
_Dot
  1

  0
LWPOLYLINE
  5
6C5
330
6C4
100
AcDbEntity
  8
0
  6
ByBlock
 62
     0
100
AcDbPolyline
 90
        2
 70
     1
 43
0.5
 10
-0.25
 20
0.0
 42
1.0
 10
0.25
 20
0.0
 42
1.0
  0
LINE
  5
6C6
330
6C4
100
AcDbEntity
  8
0
  6
ByBlock
 62
     0
370
    -2
100
AcDbLine
 10
-0.5
 20
0.0
 30
0.0
 11
-1.0
 21
0.0
 31
0.0
  0
ENDBLK
  5
6C8
330
6C4
100
AcDbEntity
  8
0
100
AcDbBlockEnd
  0
BLOCK
  5
A6A
330
A66
100
AcDbEntity
  8
0
100
AcDbBlockBegin
  2
_OPEN30
 70
     0
 10
0.0
 20
0.0
 30
0.0
  3
_OPEN30
  1

  0
LINE
  5
A67
330
A66
100
AcDbEntity
  8
0
  6
ByBlock
 62
     0
100
AcDbLine
 10
-1.0
 20
0.26794919
 30
0.0
 11
0.0
 21
0.0
 31
0.0
  0
LINE
  5
A68
330
A66
100
AcDbEntity
  8
0
  6
ByBlock
 62
     0
100
AcDbLine
 10
0.0
 20
0.0
 30
0.0
 11
-1.0
 21
-0.26794919
 31
0.0
  0
LINE
  5
A69
330
A66
100
AcDbEntity
  8
0
  6
ByBlock
 62
     0
100
AcDbLine
 10
0.0
 20
0.0
 30
0.0
 11
-1.0
 21
0.0
 31
0.0
  0
ENDBLK
  5
A6B
330
A66
100
AcDbEntity
  8
0
100
AcDbBlockEnd
  0
BLOCK
  5
CA50
330
C9D9
100
AcDbEntity
  8
0
100
AcDbBlockBegin
  2
*D5
 70
     1
 10
0.0
 20
0.0
 30
0.0
  3
*D5
  1

  0
LINE
  5
CE0F
330
C9D9
100
AcDbEntity
  8
AM_5
 48
1.01
100
AcDbLine
 10
523.8517980671048
 20
501.9985696668186
 30
0.0
 11
552.8518773697595
 21
501.9985696668186
 31
0.0
  0
LINE
  5
CE10
330
C9D9
100
AcDbEntity
  8
AM_5
 48
1.01
100
AcDbLine
 10
528.8517980671048
 20
459.9985694284014
 30
0.0
 11
552.8518773697595
 21
459.9985694284014
 31
0.0
  0
LINE
  5
CE11
330
C9D9
100
AcDbEntity
  8
AM_5
 48
1.01
100
AcDbLine
 10
550.8518773697595
 20
499.9985696668186
 30
0.0
 11
550.8518773697595
 21
461.9985694284014
 31
0.0
  0
INSERT
  5
CE12
330
C9D9
100
AcDbEntity
  8
AM_5
 48
1.01
100
AcDbBlockReference
  2
_Dot
 10
550.8518773697595
 20
501.9985696668186
 30
0.0
 41
2.0
 42
2.0
 43
2.0
 50
90.0
  0
INSERT
  5
CE13
330
C9D9
100
AcDbEntity
  8
AM_5
 48
1.01
100
AcDbBlockReference
  2
_Dot
 10
550.8518773697595
 20
459.9985694284014
 30
0.0
 41
2.0
 42
2.0
 43
2.0
 50
270.0
  0
MTEXT
  5
CE14
330
C9D9
100
AcDbEntity
  8
AM_5
 62
     2
 48
1.01
100
AcDbMText
 10
544.6518773697594
 20
480.99856954761
 30
0.0
 40
6.400000000000002
 41
0.0
 71
     5
 72
     1
  1
42
 11
0.0000000000000001
 21
1.0
 31
0.0
 73
     1
 44
1.0
1001
ACAD
1000
MTEXTBEGIN
1070
    73
1070
     1
1070
    44
1040
1.0
1070
    74
1070
     0
1000
MTEXTEND
  0
POINT
  5
CE15
330
C9D9
100
AcDbEntity
  8
Defpoints
 62
     0
 48
1.01
100
AcDbPoint
 10
521.8517980671048
 20
501.9985696668186
 30
0.0
  0
POINT
  5
CE16
330
C9D9
100
AcDbEntity
  8
Defpoints
 62
     0
 48
1.01
100
AcDbPoint
 10
526.8517980671048
 20
459.9985694284014
 30
0.0
  0
POINT
  5
CE17
330
C9D9
100
AcDbEntity
  8
Defpoints
 62
     0
 48
1.01
100
AcDbPoint
 10
550.8518773697595
 20
459.9985694284014
 30
0.0
  0
ENDBLK
  5
CA51
330
C9D9
100
AcDbEntity
  8
0
100
AcDbBlockEnd
  0
BLOCK
  5
CA52
330
C9E3
100
AcDbEntity
  8
0
100
AcDbBlockBegin
  2
*D6
 70
     1
 10
0.0
 20
0.0
 30
0.0
  3
*D6
  1

  0
LINE
  5
CE18
330
C9E3
100
AcDbEntity
  8
AM_5
 48
1.01
100
AcDbLine
 10
528.8517980671048
 20
419.9985694284014
 30
0.0
 11
552.8517187644497
 21
419.9985694284014
 31
0.0
  0
LINE
  5
CE19
330
C9E3
100
AcDbEntity
  8
AM_5
 48
1.01
100
AcDbLine
 10
528.8517980671048
 20
459.9985694284014
 30
0.0
 11
552.8517187644497
 21
459.9985694284014
 31
0.0
  0
LINE
  5
CE1A
330
C9E3
100
AcDbEntity
  8
AM_5
 48
1.01
100
AcDbLine
 10
550.8517187644497
 20
421.9985694284014
 30
0.0
 11
550.8517187644497
 21
457.9985694284014
 31
0.0
  0
INSERT
  5
CE1B
330
C9E3
100
AcDbEntity
  8
AM_5
 48
1.01
100
AcDbBlockReference
  2
_Dot
 10
550.8517187644497
 20
419.9985694284014
 30
0.0
 41
2.0
 42
2.0
 43
2.0
 50
270.0
  0
INSERT
  5
CE1C
330
C9E3
100
AcDbEntity
  8
AM_5
 48
1.01
100
AcDbBlockReference
  2
_Dot
 10
550.8517187644497
 20
459.9985694284014
 30
0.0
 41
2.0
 42
2.0
 43
2.0
 50
90.0
  0
MTEXT
  5
CE1D
330
C9E3
100
AcDbEntity
  8
AM_5
 62
     2
 48
1.01
100
AcDbMText
 10
544.6517187644495
 20
439.9985694284015
 30
0.0
 40
6.400000000000002
 41
0.0
 71
     5
 72
     1
  1
Dt
 11
0.0000000000000001
 21
1.0
 31
0.0
 73
     1
 44
1.0
1001
ACAD
1000
MTEXTBEGIN
1070
    73
1070
     1
1070
    44
1040
1.0
1070
    74
1070
     0
1000
MTEXTEND
  0
POINT
  5
CE1E
330
C9E3
100
AcDbEntity
  8
Defpoints
 62
     0
 48
1.01
100
AcDbPoint
 10
526.8517980671048
 20
419.9985694284014
 30
0.0
  0
POINT
  5
CE1F
330
C9E3
100
AcDbEntity
  8
Defpoints
 62
     0
 48
1.01
100
AcDbPoint
 10
526.8517980671048
 20
459.9985694284014
 30
0.0
  0
POINT
  5
CE20
330
C9E3
100
AcDbEntity
  8
Defpoints
 62
     0
 48
1.01
100
AcDbPoint
 10
550.8517187644497
 20
459.9985694284014
 30
0.0
  0
ENDBLK
  5
CA53
330
C9E3
100
AcDbEntity
  8
0
100
AcDbBlockEnd
  0
BLOCK
  5
CA54
330
C9ED
100
AcDbEntity
  8
0
100
AcDbBlockBegin
  2
*D7
 70
     1
 10
0.0
 20
0.0
 30
0.0
  3
*D7
  1

  0
LINE
  5
CE21
330
C9ED
100
AcDbEntity
  8
AM_5
 48
1.01
100
AcDbLine
 10
426.2555629032363
 20
412.9985694284014
 30
0.0
 11
451.8517942524074
 21
412.9985694284014
 31
0.0
  0
LINE
  5
CE22
330
C9ED
100
AcDbEntity
  8
AM_5
 48
1.01
100
AcDbLine
 10
449.8517942524074
 20
421.9985694284014
 30
0.0
 11
449.8517942524074
 21
423.9985694284014
 31
0.0
  0
LINE
  5
CE23
330
C9ED
100
AcDbEntity
  8
AM_5
 48
1.01
100
AcDbLine
 10
449.8517942524074
 20
410.9985694284014
 30
0.0
 11
449.8517942524074
 21
400.0119027617347
 31
0.0
  0
LINE
  5
CE24
330
C9ED
100
AcDbEntity
  8
AM_5
 48
1.01
100
AcDbLine
 10
449.8517942524074
 20
419.9985694284014
 30
0.0
 11
449.8517942524074
 21
412.9985694284014
 31
0.0
  0
INSERT
  5
CE25
330
C9ED
100
AcDbEntity
  8
AM_5
 48
1.01
100
AcDbBlockReference
  2
_Dot
 10
449.8517942524074
 20
419.9985694284014
 30
0.0
 41
2.0
 42
2.0
 43
2.0
 50
270.0
  0
INSERT
  5
CE26
330
C9ED
100
AcDbEntity
  8
AM_5
 48
1.01
100
AcDbBlockReference
  2
_Dot
 10
449.8517942524074
 20
412.9985694284014
 30
0.0
 41
2.0
 42
2.0
 43
2.0
 50
90.0
  0
MTEXT
  5
CE27
330
C9ED
100
AcDbEntity
  8
AM_5
 62
     2
 48
1.01
100
AcDbMText
 10
443.6517942524073
 20
404.5052360950681
 30
0.0
 40
6.400000000000002
 41
0.0
 71
     5
 72
     1
  1
7
 11
0.0000000000000001
 21
1.0
 31
0.0
 73
     1
 44
1.0
1001
ACAD
1000
MTEXTBEGIN
1070
    73
1070
     1
1070
    44
1040
1.0
1070
    74
1070
     0
1000
MTEXTEND
  0
POINT
  5
CE28
330
C9ED
100
AcDbEntity
  8
Defpoints
 62
     0
 48
1.01
100
AcDbPoint
 10
425.8517942524074
 20
419.9985694284014
 30
0.0
  0
POINT
  5
CE29
330
C9ED
100
AcDbEntity
  8
Defpoints
 62
     0
 48
1.01
100
AcDbPoint
 10
424.2555629032364
 20
412.9985694284014
 30
0.0
  0
POINT
  5
CE2A
330
C9ED
100
AcDbEntity
  8
Defpoints
 62
     0
 48
1.01
100
AcDbPoint
 10
449.8517942524074
 20
412.9985694284014
 30
0.0
  0
ENDBLK
  5
CA55
330
C9ED
100
AcDbEntity
  8
0
100
AcDbBlockEnd
  0
BLOCK
  5
CA56
330
C9F8
100
AcDbEntity
  8
0
100
AcDbBlockBegin
  2
*D8
 70
     1
 10
0.0
 20
0.0
 30
0.0
  3
*D8
  1

  0
LINE
  5
CE2B
330
C9F8
100
AcDbEntity
  8
AM_5
 48
1.01
100
AcDbLine
 10
382.3517942524075
 20
433.5148771499625
 30
0.0
 11
389.3517942524076
 21
433.5148771499625
 31
0.0
  0
LINE
  5
CE2C
330
C9F8
100
AcDbEntity
  8
AM_5
 48
1.01
100
AcDbLine
 10
391.3517942524076
 20
433.5148771499625
 30
0.0
 11
410.7437942524075
 21
433.5148771499625
 31
0.0
  0
INSERT
  5
CE2D
330
C9F8
100
AcDbEntity
  8
AM_5
 48
1.01
100
AcDbBlockReference
  2
_Dot
 10
380.3517942524075
 20
433.5148771499625
 30
0.0
 41
2.0
 42
2.0
 43
2.0
 50
180.0
  0
INSERT
  5
CE2E
330
C9F8
100
AcDbEntity
  8
AM_5
 48
1.01
100
AcDbBlockReference
  2
_Dot
 10
391.3517942524076
 20
433.5148771499625
 30
0.0
 41
2.0
 42
2.0
 43
2.0
  0
MTEXT
  5
CE2F
330
C9F8
100
AcDbEntity
  8
AM_5
 62
     2
 48
1.01
100
AcDbMText
 10
402.0477942524076
 20
439.7148771499625
 30
0.0
 40
6.400000000000002
 41
0.0
 71
     5
 72
     1
  1
ロ11
 73
     1
 44
1.0
1001
ACAD
1000
MTEXTBEGIN
1070
    73
1070
     1
1070
    44
1040
1.0
1070
    74
1070
     0
1000
MTEXTEND
  0
POINT
  5
CE30
330
C9F8
100
AcDbEntity
  8
Defpoints
 62
     0
 48
1.01
100
AcDbPoint
 10
380.3517942524075
 20
451.5985694284013
 30
0.0
  0
POINT
  5
CE31
330
C9F8
100
AcDbEntity
  8
Defpoints
 62
     0
 48
1.01
100
AcDbPoint
 10
391.3517942524076
 20
451.5985694284013
 30
0.0
  0
POINT
  5
CE32
330
C9F8
100
AcDbEntity
  8
Defpoints
 62
     0
 48
1.01
100
AcDbPoint
 10
391.3517942524076
 20
433.5148771499625
 30
0.0
  0
ENDBLK
  5
CA57
330
C9F8
100
AcDbEntity
  8
0
100
AcDbBlockEnd
  0
BLOCK
  5
CA58
330
CA03
100
AcDbEntity
  8
0
100
AcDbBlockBegin
  2
*D9
 70
     1
 10
0.0
 20
0.0
 30
0.0
  3
*D9
  1

  0
LINE
  5
CDFD
330
CA03
100
AcDbEntity
  8
AM_5
 48
1.01
100
AcDbLine
 10
523.8517980671048
 20
377.998569189984
 30
0.0
 11
552.8518710288746
 21
377.998569189984
 31
0.0
  0
LINE
  5
CDFE
330
CA03
100
AcDbEntity
  8
AM_5
 48
1.01
100
AcDbLine
 10
528.8517980671048
 20
419.9985694284014
 30
0.0
 11
552.8518710288746
 21
419.9985694284014
 31
0.0
  0
LINE
  5
CDFF
330
CA03
100
AcDbEntity
  8
AM_5
 48
1.01
100
AcDbLine
 10
550.8518710288747
 20
379.998569189984
 30
0.0
 11
550.8518710288747
 21
417.9985694284014
 31
0.0
  0
INSERT
  5
CE00
330
CA03
100
AcDbEntity
  8
AM_5
 48
1.01
100
AcDbBlockReference
  2
_Dot
 10
550.8518710288747
 20
377.998569189984
 30
0.0
 41
2.0
 42
2.0
 43
2.0
 50
270.0
  0
INSERT
  5
CE01
330
CA03
100
AcDbEntity
  8
AM_5
 48
1.01
100
AcDbBlockReference
  2
_Dot
 10
550.8518710288747
 20
419.9985694284014
 30
0.0
 41
2.0
 42
2.0
 43
2.0
 50
90.0
  0
MTEXT
  5
CE02
330
CA03
100
AcDbEntity
  8
AM_5
 62
     2
 48
1.01
100
AcDbMText
 10
544.6518710288745
 20
398.9985693091928
 30
0.0
 40
6.400000000000002
 41
0.0
 71
     5
 72
     1
  1
42
 11
0.0000000000000001
 21
1.0
 31
0.0
 73
     1
 44
1.0
1001
ACAD
1000
MTEXTBEGIN
1070
    73
1070
     1
1070
    44
1040
1.0
1070
    74
1070
     0
1000
MTEXTEND
  0
POINT
  5
CE03
330
CA03
100
AcDbEntity
  8
Defpoints
 62
     0
 48
1.01
100
AcDbPoint
 10
521.8517980671048
 20
377.998569189984
 30
0.0
  0
POINT
  5
CE04
330
CA03
100
AcDbEntity
  8
Defpoints
 62
     0
 48
1.01
100
AcDbPoint
 10
526.8517980671048
 20
419.9985694284014
 30
0.0
  0
POINT
  5
CE05
330
CA03
100
AcDbEntity
  8
Defpoints
 62
     0
 48
1.01
100
AcDbPoint
 10
550.8518710288747
 20
419.9985694284014
 30
0.0
  0
ENDBLK
  5
CA59
330
CA03
100
AcDbEntity
  8
0
100
AcDbBlockEnd
  0
BLOCK
  5
CA5A
330
CA0D
100
AcDbEntity
  8
0
100
AcDbBlockBegin
  2
*D10
 70
     1
 10
0.0
 20
0.0
 30
0.0
  3
*D10
  1

  0
LINE
  5
CE06
330
CA0D
100
AcDbEntity
  8
AM_5
 48
1.01
100
AcDbLine
 10
525.8517985200252
 20
522.9985697303472
 30
0.0
 11
552.8517767442432
 21
522.9985697303472
 31
0.0
  0
LINE
  5
CE07
330
CA0D
100
AcDbEntity
  8
AM_5
 48
1.01
100
AcDbLine
 10
523.851798067105
 20
501.9985696668189
 30
0.0
 11
552.8517767442432
 21
501.9985696668189
 31
0.0
  0
LINE
  5
CE08
330
CA0D
100
AcDbEntity
  8
AM_5
 48
1.01
100
AcDbLine
 10
550.8517767442432
 20
520.9985697303473
 30
0.0
 11
550.8517767442432
 21
503.9985696668188
 31
0.0
  0
INSERT
  5
CE09
330
CA0D
100
AcDbEntity
  8
AM_5
 48
1.01
100
AcDbBlockReference
  2
_Dot
 10
550.8517767442432
 20
522.9985697303472
 30
0.0
 41
2.0
 42
2.0
 43
2.0
 50
90.0
  0
INSERT
  5
CE0A
330
CA0D
100
AcDbEntity
  8
AM_5
 48
1.01
100
AcDbBlockReference
  2
_Dot
 10
550.8517767442432
 20
501.9985696668189
 30
0.0
 41
2.0
 42
2.0
 43
2.0
 50
270.0
  0
MTEXT
  5
CE0B
330
CA0D
100
AcDbEntity
  8
AM_5
 62
     2
 48
1.01
100
AcDbMText
 10
544.651776744243
 20
512.4985696985832
 30
0.0
 40
6.400000000000002
 41
0.0
 71
     5
 72
     1
  1
21
 11
0.0000000000000001
 21
1.0
 31
0.0
 73
     1
 44
1.0
1001
ACAD
1000
MTEXTBEGIN
1070
    73
1070
     1
1070
    44
1040
1.0
1070
    74
1070
     0
1000
MTEXTEND
  0
POINT
  5
CE0C
330
CA0D
100
AcDbEntity
  8
Defpoints
 62
     0
 48
1.01
100
AcDbPoint
 10
523.8517985200252
 20
522.9985697303472
 30
0.0
  0
POINT
  5
CE0D
330
CA0D
100
AcDbEntity
  8
Defpoints
 62
     0
 48
1.01
100
AcDbPoint
 10
521.851798067105
 20
501.9985696668189
 30
0.0
  0
POINT
  5
CE0E
330
CA0D
100
AcDbEntity
  8
Defpoints
 62
     0
 48
1.01
100
AcDbPoint
 10
550.8517767442432
 20
501.9985696668189
 30
0.0
  0
ENDBLK
  5
CA5B
330
CA0D
100
AcDbEntity
  8
0
100
AcDbBlockEnd
  0
BLOCK
  5
CA5C
330
CA3D
100
AcDbEntity
  8
0
100
AcDbBlockBegin
  2
*D11
 70
     1
 10
0.0
 20
0.0
 30
0.0
  3
*D11
  1

  0
LINE
  5
CDF4
330
CA3D
100
AcDbEntity
  8
AM_5
 48
1.01
100
AcDbLine
 10
525.8517985200251
 20
356.9985691264553
 30
0.0
 11
552.8517735738007
 21
356.9985691264553
 31
0.0
  0
LINE
  5
CDF5
330
CA3D
100
AcDbEntity
  8
AM_5
 48
1.01
100
AcDbLine
 10
523.8517980671049
 20
377.9985691899837
 30
0.0
 11
552.8517735738007
 21
377.9985691899837
 31
0.0
  0
LINE
  5
CDF6
330
CA3D
100
AcDbEntity
  8
AM_5
 48
1.01
100
AcDbLine
 10
550.8517735738007
 20
358.9985691264553
 30
0.0
 11
550.8517735738007
 21
375.9985691899837
 31
0.0
  0
INSERT
  5
CDF7
330
CA3D
100
AcDbEntity
  8
AM_5
 48
1.01
100
AcDbBlockReference
  2
_Dot
 10
550.8517735738007
 20
356.9985691264553
 30
0.0
 41
2.0
 42
2.0
 43
2.0
 50
270.0
  0
INSERT
  5
CDF8
330
CA3D
100
AcDbEntity
  8
AM_5
 48
1.01
100
AcDbBlockReference
  2
_Dot
 10
550.8517735738007
 20
377.9985691899837
 30
0.0
 41
2.0
 42
2.0
 43
2.0
 50
90.0
  0
MTEXT
  5
CDF9
330
CA3D
100
AcDbEntity
  8
AM_5
 62
     2
 48
1.01
100
AcDbMText
 10
544.6517735738005
 20
367.4985691582195
 30
0.0
 40
6.400000000000002
 41
0.0
 71
     5
 72
     1
  1
21
 11
0.0000000000000001
 21
1.0
 31
0.0
 73
     1
 44
1.0
1001
ACAD
1000
MTEXTBEGIN
1070
    73
1070
     1
1070
    44
1040
1.0
1070
    74
1070
     0
1000
MTEXTEND
  0
POINT
  5
CDFA
330
CA3D
100
AcDbEntity
  8
Defpoints
 62
     0
 48
1.01
100
AcDbPoint
 10
523.8517985200251
 20
356.9985691264553
 30
0.0
  0
POINT
  5
CDFB
330
CA3D
100
AcDbEntity
  8
Defpoints
 62
     0
 48
1.01
100
AcDbPoint
 10
521.8517980671049
 20
377.9985691899837
 30
0.0
  0
POINT
  5
CDFC
330
CA3D
100
AcDbEntity
  8
Defpoints
 62
     0
 48
1.01
100
AcDbPoint
 10
550.8517735738007
 20
377.9985691899837
 30
0.0
  0
ENDBLK
  5
CA5D
330
CA3D
100
AcDbEntity
  8
0
100
AcDbBlockEnd
  0
BLOCK
  5
CC31
330
CC28
100
AcDbEntity
  8
0
100
AcDbBlockBegin
  2
*D12
 70
     1
 10
0.0
 20
0.0
 30
0.0
  3
*D12
  1

  0
LINE
  5
CE69
330
CC28
100
AcDbEntity
  8
AM_5
100
AcDbLine
 10
394.4196961138723
 20
260.062306499014
 30
0.0
 11
401.2838923909431
 21
270.3891070427371
 31
0.0
  0
LINE
  5
CE6A
330
CC28
100
AcDbEntity
  8
AM_5
100
AcDbLine
 10
401.2838923909431
 20
270.3891070427371
 30
0.0
 11
411.6179168675821
 21
285.9360706312763
 31
0.0
  0
LINE
  5
CE6B
330
CC28
100
AcDbEntity
  8
AM_5
100
AcDbLine
 10
411.6179168675821
 20
285.9360706312763
 30
0.0
 11
473.6259168675822
 21
285.9360706312763
 31
0.0
  0
INSERT
  5
CE6C
330
CC28
100
AcDbEntity
  8
AM_5
100
AcDbBlockReference
  2
_DotSmall
 10
394.4196961138723
 20
260.062306499014
 30
0.0
 41
4.0
 42
4.0
 43
4.0
 50
236.388121623928
  0
INSERT
  5
CE6D
330
CC28
100
AcDbEntity
  8
AM_5
100
AcDbBlockReference
  2
_DotSmall
 10
401.2838923909431
 20
270.3891070427371
 30
0.0
 41
4.0
 42
4.0
 43
4.0
 50
56.38812162392804
  0
MTEXT
  5
CE6E
330
CC28
100
AcDbEntity
  8
AM_5
 62
     2
100
AcDbMText
 10
444.1219168675822
 20
292.1360706312763
 30
0.0
 40
6.400000000000002
 41
0.0
 71
     5
 72
     1
  1
3-%%c6.5×\U+220512.4サラ
 73
     1
 44
1.0
1001
ACAD
1000
MTEXTBEGIN
1070
    73
1070
     1
1070
    44
1040
1.0
1070
    74
1070
     0
1000
MTEXTEND
  0
POINT
  5
CE6F
330
CC28
100
AcDbEntity
  8
Defpoints
 62
     0
100
AcDbPoint
 10
401.2838923909431
 20
270.3891070427371
 30
0.0
  0
POINT
  5
CE70
330
CC28
100
AcDbEntity
  8
Defpoints
 62
     0
100
AcDbPoint
 10
394.4196961138723
 20
260.062306499014
 30
0.0
  0
ENDBLK
  5
CC32
330
CC28
100
AcDbEntity
  8
0
100
AcDbBlockEnd
  0
BLOCK
  5
CC52
330
CC50
100
AcDbEntity
  8
0
100
AcDbBlockBegin
  2
_DotSmall
 70
     0
 10
0.0
 20
0.0
 30
0.0
  3
_DotSmall
  1

  0
LWPOLYLINE
  5
CC51
330
CC50
100
AcDbEntity
  8
0
  6
ByBlock
 62
     0
100
AcDbPolyline
 90
        2
 70
     1
 43
0.5
 10
-0.0625
 20
0.0
 42
1.0
 10
0.0625
 20
0.0
 42
1.0
  0
ENDBLK
  5
CC53
330
CC50
100
AcDbEntity
  8
0
100
AcDbBlockEnd
  0
BLOCK
  5
CCD2
330
CCC8
100
AcDbEntity
  8
0
100
AcDbBlockBegin
  2
*D14
 70
     1
 10
0.0
 20
0.0
 30
0.0
  3
*D14
  1

  0
LINE
  5
D7FD
330
CCC8
100
AcDbEntity
  8
AM_5
100
AcDbLine
 10
381.6517942524076
 20
265.2257067708753
 30
0.0
 11
296.8517942524075
 21
265.2257067708753
 31
0.0
  0
LINE
  5
D7FE
330
CCC8
100
AcDbEntity
  8
AM_5
100
AcDbLine
 10
381.6517942524076
 20
205.2257067708753
 30
0.0
 11
296.8517942524075
 21
205.2257067708754
 31
0.0
  0
LINE
  5
D7FF
330
CCC8
100
AcDbEntity
  8
AM_5
100
AcDbLine
 10
298.8517942524075
 20
263.2257067708753
 30
0.0
 11
298.8517942524075
 21
207.2257067708754
 31
0.0
  0
INSERT
  5
D800
330
CCC8
100
AcDbEntity
  8
AM_5
100
AcDbBlockReference
  2
_Dot
 10
298.8517942524075
 20
265.2257067708753
 30
0.0
 41
2.0
 42
2.0
 43
2.0
 50
90.0
  0
INSERT
  5
D801
330
CCC8
100
AcDbEntity
  8
AM_5
100
AcDbBlockReference
  2
_Dot
 10
298.8517942524075
 20
205.2257067708754
 30
0.0
 41
2.0
 42
2.0
 43
2.0
 50
270.0
  0
MTEXT
  5
D802
330
CCC8
100
AcDbEntity
  8
AM_5
 62
     2
100
AcDbMText
 10
292.6517942524075
 20
235.2257067708753
 30
0.0
 40
6.400000000000002
 41
0.0
 71
     5
 72
     1
  1
60
 11
0.0000000000000001
 21
1.0
 31
0.0
 73
     1
 44
1.0
1001
ACAD
1000
MTEXTBEGIN
1070
    73
1070
     1
1070
    44
1040
1.0
1070
    74
1070
     0
1000
MTEXTEND
  0
POINT
  5
D803
330
CCC8
100
AcDbEntity
  8
Defpoints
 62
     0
100
AcDbPoint
 10
383.6517942524076
 20
265.2257067708753
 30
0.0
  0
POINT
  5
D804
330
CCC8
100
AcDbEntity
  8
Defpoints
 62
     0
100
AcDbPoint
 10
383.6517942524076
 20
205.2257067708753
 30
0.0
  0
POINT
  5
D805
330
CCC8
100
AcDbEntity
  8
Defpoints
 62
     0
100
AcDbPoint
 10
298.8517942524075
 20
205.2257067708754
 30
0.0
  0
ENDBLK
  5
CCD3
330
CCC8
100
AcDbEntity
  8
0
100
AcDbBlockEnd
  0
BLOCK
  5
CCF8
330
CCEE
100
AcDbEntity
  8
0
100
AcDbBlockBegin
  2
*D15
 70
     1
 10
0.0
 20
0.0
 30
0.0
  3
*D15
  1

  0
LINE
  5
D821
330
CCEE
100
AcDbEntity
  8
AM_5
100
AcDbLine
 10
383.8517942524076
 20
195.2257067708753
 30
0.0
 11
276.8517942524075
 21
195.2257067708753
 31
0.0
  0
LINE
  5
D822
330
CCEE
100
AcDbEntity
  8
AM_5
100
AcDbLine
 10
383.8517942524076
 20
275.2257067708754
 30
0.0
 11
276.8517942524075
 21
275.2257067708754
 31
0.0
  0
LINE
  5
D823
330
CCEE
100
AcDbEntity
  8
AM_5
100
AcDbLine
 10
278.8517942524075
 20
197.2257067708753
 30
0.0
 11
278.8517942524075
 21
273.2257067708754
 31
0.0
  0
INSERT
  5
D824
330
CCEE
100
AcDbEntity
  8
AM_5
100
AcDbBlockReference
  2
_Dot
 10
278.8517942524075
 20
195.2257067708753
 30
0.0
 41
2.0
 42
2.0
 43
2.0
 50
270.0
  0
INSERT
  5
D825
330
CCEE
100
AcDbEntity
  8
AM_5
100
AcDbBlockReference
  2
_Dot
 10
278.8517942524075
 20
275.2257067708754
 30
0.0
 41
2.0
 42
2.0
 43
2.0
 50
90.0
  0
MTEXT
  5
D826
330
CCEE
100
AcDbEntity
  8
AM_5
 62
     2
100
AcDbMText
 10
272.6517942524075
 20
235.2257067708754
 30
0.0
 40
6.400000000000002
 41
0.0
 71
     5
 72
     1
  1
%%c80
 11
0.0000000000000001
 21
1.0
 31
0.0
 73
     1
 44
1.0
1001
ACAD
1000
MTEXTBEGIN
1070
    73
1070
     1
1070
    44
1040
1.0
1070
    74
1070
     0
1000
MTEXTEND
  0
POINT
  5
D827
330
CCEE
100
AcDbEntity
  8
Defpoints
 62
     0
100
AcDbPoint
 10
385.8517942524076
 20
195.2257067708753
 30
0.0
  0
POINT
  5
D828
330
CCEE
100
AcDbEntity
  8
Defpoints
 62
     0
100
AcDbPoint
 10
385.8517942524076
 20
275.2257067708753
 30
0.0
  0
POINT
  5
D829
330
CCEE
100
AcDbEntity
  8
Defpoints
 62
     0
100
AcDbPoint
 10
278.8517942524075
 20
275.2257067708754
 30
0.0
  0
ENDBLK
  5
CCF9
330
CCEE
100
AcDbEntity
  8
0
100
AcDbBlockEnd
  0
BLOCK
  5
D067
330
D05D
100
AcDbEntity
  8
0
100
AcDbBlockBegin
  2
*D16
 70
     1
 10
0.0
 20
0.0
 30
0.0
  3
*D16
  1

  0
LINE
  5
D2CA
330
D05D
100
AcDbEntity
  8
AM_5
100
AcDbLine
 10
315.3517942524076
 20
419.9985694284014
 30
0.0
 11
301.8517942524076
 21
419.9985694284014
 31
0.0
  0
LINE
  5
D2CB
330
D05D
100
AcDbEntity
  8
AM_5
100
AcDbLine
 10
362.7397016285313
 20
383.9951576585172
 30
0.0
 11
301.8517942524076
 21
383.9951576585172
 31
0.0
  0
LINE
  5
D2CC
330
D05D
100
AcDbEntity
  8
AM_5
100
AcDbLine
 10
303.8517942524076
 20
417.9985694284014
 30
0.0
 11
303.8517942524076
 21
385.9951576585172
 31
0.0
  0
INSERT
  5
D2CD
330
D05D
100
AcDbEntity
  8
AM_5
100
AcDbBlockReference
  2
_Dot
 10
303.8517942524076
 20
419.9985694284014
 30
0.0
 41
2.0
 42
2.0
 43
2.0
 50
90.0
  0
INSERT
  5
D2CE
330
D05D
100
AcDbEntity
  8
AM_5
100
AcDbBlockReference
  2
_Dot
 10
303.8517942524076
 20
383.9951576585172
 30
0.0
 41
2.0
 42
2.0
 43
2.0
 50
270.0
  0
MTEXT
  5
D2CF
330
D05D
100
AcDbEntity
  8
AM_5
 62
     2
100
AcDbMText
 10
297.6517942524075
 20
401.9968635434593
 30
0.0
 40
6.400000000000002
 41
0.0
 71
     5
 72
     1
  1
36
 11
0.0000000000000001
 21
1.0
 31
0.0
 73
     1
 44
1.0
1001
ACAD
1000
MTEXTBEGIN
1070
    73
1070
     1
1070
    44
1040
1.0
1070
    74
1070
     0
1000
MTEXTEND
  0
POINT
  5
D2D0
330
D05D
100
AcDbEntity
  8
Defpoints
 62
     0
100
AcDbPoint
 10
317.3517942524076
 20
419.9985694284014
 30
0.0
  0
POINT
  5
D2D1
330
D05D
100
AcDbEntity
  8
Defpoints
 62
     0
100
AcDbPoint
 10
364.7397016285313
 20
383.9951576585172
 30
0.0
  0
POINT
  5
D2D2
330
D05D
100
AcDbEntity
  8
Defpoints
 62
     0
100
AcDbPoint
 10
303.8517942524076
 20
383.9951576585172
 30
0.0
  0
ENDBLK
  5
D068
330
D05D
100
AcDbEntity
  8
0
100
AcDbBlockEnd
  0
BLOCK
  5
D2ED
330
D2E3
100
AcDbEntity
  8
0
100
AcDbBlockBegin
  2
*D17
 70
     1
 10
0.0
 20
0.0
 30
0.0
  3
*D17
  1

  0
LINE
  5
D2F1
330
D2E3
100
AcDbEntity
  8
AM_5
100
AcDbLine
 10
315.3517942524076
 20
419.9985694284014
 30
0.0
 11
281.8517942524076
 21
419.9985694284014
 31
0.0
  0
LINE
  5
D2F2
330
D2E3
100
AcDbEntity
  8
AM_5
100
AcDbLine
 10
341.6746458872441
 20
373.9985694283658
 30
0.0
 11
281.8517942524075
 21
373.9985694283658
 31
0.0
  0
LINE
  5
D2F3
330
D2E3
100
AcDbEntity
  8
AM_5
100
AcDbLine
 10
283.8517942524076
 20
417.9985694284014
 30
0.0
 11
283.8517942524075
 21
375.9985694283658
 31
0.0
  0
INSERT
  5
D2F4
330
D2E3
100
AcDbEntity
  8
AM_5
100
AcDbBlockReference
  2
_Dot
 10
283.8517942524076
 20
419.9985694284014
 30
0.0
 41
2.0
 42
2.0
 43
2.0
 50
90.0
  0
INSERT
  5
D2F5
330
D2E3
100
AcDbEntity
  8
AM_5
100
AcDbBlockReference
  2
_Dot
 10
283.8517942524075
 20
373.9985694283658
 30
0.0
 41
2.0
 42
2.0
 43
2.0
 50
270.0
  0
MTEXT
  5
D2F6
330
D2E3
100
AcDbEntity
  8
AM_5
 62
     2
100
AcDbMText
 10
277.6517942524074
 20
396.9985694283837
 30
0.0
 40
6.400000000000002
 41
0.0
 71
     5
 72
     1
  1
46
 11
0.0000000000000001
 21
1.0
 31
0.0
 73
     1
 44
1.0
1001
ACAD
1000
MTEXTBEGIN
1070
    73
1070
     1
1070
    44
1040
1.0
1070
    74
1070
     0
1000
MTEXTEND
  0
POINT
  5
D2F7
330
D2E3
100
AcDbEntity
  8
Defpoints
 62
     0
100
AcDbPoint
 10
317.3517942524076
 20
419.9985694284014
 30
0.0
  0
POINT
  5
D2F8
330
D2E3
100
AcDbEntity
  8
Defpoints
 62
     0
100
AcDbPoint
 10
343.6746458872441
 20
373.9985694283658
 30
0.0
  0
POINT
  5
D2F9
330
D2E3
100
AcDbEntity
  8
Defpoints
 62
     0
100
AcDbPoint
 10
283.8517942524075
 20
373.9985694283658
 30
0.0
  0
ENDBLK
  5
D2EE
330
D2E3
100
AcDbEntity
  8
0
100
AcDbBlockEnd
  0
BLOCK
  5
D773
330
D768
100
AcDbEntity
  8
0
100
AcDbBlockBegin
  2
*D18
 70
     1
 10
0.0
 20
0.0
 30
0.0
  3
*D18
  1

  0
LINE
  5
D777
330
D768
100
AcDbEntity
  8
AM_5
100
AcDbLine
 10
385.8517942524076
 20
285.2257067708753
 30
0.0
 11
385.8517942524076
 21
309.2257067708753
 31
0.0
  0
LINE
  5
D778
330
D768
100
AcDbEntity
  8
AM_5
100
AcDbLine
 10
397.8517942524076
 20
281.4257067708753
 30
0.0
 11
397.8517942524076
 21
309.2257067708753
 31
0.0
  0
LINE
  5
D779
330
D768
100
AcDbEntity
  8
AM_5
100
AcDbLine
 10
387.8517942524076
 20
307.2257067708753
 30
0.0
 11
395.8517942524076
 21
307.2257067708753
 31
0.0
  0
LINE
  5
D77A
330
D768
100
AcDbEntity
  8
AM_5
100
AcDbLine
 10
397.8517942524076
 20
307.2257067708753
 30
0.0
 11
412.4651275857408
 21
307.2257067708753
 31
0.0
  0
INSERT
  5
D77B
330
D768
100
AcDbEntity
  8
AM_5
100
AcDbBlockReference
  2
_Dot
 10
385.8517942524076
 20
307.2257067708753
 30
0.0
 41
2.0
 42
2.0
 43
2.0
 50
180.0
  0
INSERT
  5
D77C
330
D768
100
AcDbEntity
  8
AM_5
100
AcDbBlockReference
  2
_Dot
 10
397.8517942524076
 20
307.2257067708753
 30
0.0
 41
2.0
 42
2.0
 43
2.0
  0
MTEXT
  5
D77D
330
D768
100
AcDbEntity
  8
AM_5
 62
     2
100
AcDbMText
 10
406.1584609190742
 20
313.4257067708753
 30
0.0
 40
6.400000000000002
 41
0.0
 71
     5
 72
     1
  1
12
 73
     1
 44
1.0
1001
ACAD
1000
MTEXTBEGIN
1070
    73
1070
     1
1070
    44
1040
1.0
1070
    74
1070
     0
1000
MTEXTEND
  0
POINT
  5
D77E
330
D768
100
AcDbEntity
  8
Defpoints
 62
     0
100
AcDbPoint
 10
385.8517942524076
 20
283.2257067708753
 30
0.0
  0
POINT
  5
D77F
330
D768
100
AcDbEntity
  8
Defpoints
 62
     0
100
AcDbPoint
 10
397.8517942524076
 20
279.4257067708753
 30
0.0
  0
POINT
  5
D780
330
D768
100
AcDbEntity
  8
Defpoints
 62
     0
100
AcDbPoint
 10
397.8517942524076
 20
307.2257067708753
 30
0.0
  0
ENDBLK
  5
D774
330
D768
100
AcDbEntity
  8
0
100
AcDbBlockEnd
  0
BLOCK
  5
D79A
330
D790
100
AcDbEntity
  8
0
100
AcDbBlockBegin
  2
*D19
 70
     1
 10
0.0
 20
0.0
 30
0.0
  3
*D19
  1

  0
LINE
  5
D7AA
330
D790
100
AcDbEntity
  8
AM_5
100
AcDbLine
 10
385.8517942524076
 20
285.2257067708753
 30
0.0
 11
385.8517942524076
 21
309.2257067708751
 31
0.0
  0
LINE
  5
D7AB
330
D790
100
AcDbEntity
  8
AM_5
100
AcDbLine
 10
353.8517942524076
 20
251.4257067708753
 30
0.0
 11
353.8517942524076
 21
309.2257067708751
 31
0.0
  0
LINE
  5
D7AC
330
D790
100
AcDbEntity
  8
AM_5
100
AcDbLine
 10
383.8517942524076
 20
307.2257067708751
 30
0.0
 11
355.8517942524076
 21
307.2257067708751
 31
0.0
  0
INSERT
  5
D7AD
330
D790
100
AcDbEntity
  8
AM_5
100
AcDbBlockReference
  2
_Dot
 10
385.8517942524076
 20
307.2257067708751
 30
0.0
 41
2.0
 42
2.0
 43
2.0
  0
INSERT
  5
D7AE
330
D790
100
AcDbEntity
  8
AM_5
100
AcDbBlockReference
  2
_Dot
 10
353.8517942524076
 20
307.2257067708751
 30
0.0
 41
2.0
 42
2.0
 43
2.0
 50
180.0
  0
MTEXT
  5
D7AF
330
D790
100
AcDbEntity
  8
AM_5
 62
     2
100
AcDbMText
 10
369.8517942524075
 20
313.4257067708751
 30
0.0
 40
6.400000000000002
 41
0.0
 71
     5
 72
     1
  1
32
 73
     1
 44
1.0
1001
ACAD
1000
MTEXTBEGIN
1070
    73
1070
     1
1070
    44
1040
1.0
1070
    74
1070
     0
1000
MTEXTEND
  0
POINT
  5
D7B0
330
D790
100
AcDbEntity
  8
Defpoints
 62
     0
100
AcDbPoint
 10
385.8517942524076
 20
283.2257067708753
 30
0.0
  0
POINT
  5
D7B1
330
D790
100
AcDbEntity
  8
Defpoints
 62
     0
100
AcDbPoint
 10
353.8517942524076
 20
249.4257067708753
 30
0.0
  0
POINT
  5
D7B2
330
D790
100
AcDbEntity
  8
Defpoints
 62
     0
100
AcDbPoint
 10
353.8517942524076
 20
307.2257067708751
 30
0.0
  0
ENDBLK
  5
D79B
330
D790
100
AcDbEntity
  8
0
100
AcDbBlockEnd
  0
BLOCK
  5
D7CD
330
D7C3
100
AcDbEntity
  8
0
100
AcDbBlockBegin
  2
*D20
 70
     1
 10
0.0
 20
0.0
 30
0.0
  3
*D20
  1

  0
LINE
  5
D7D1
330
D7C3
100
AcDbEntity
  8
AM_5
100
AcDbLine
 10
385.8517942524076
 20
285.2257067708753
 30
0.0
 11
385.8517942524076
 21
329.2257067708751
 31
0.0
  0
LINE
  5
D7D2
330
D7C3
100
AcDbEntity
  8
AM_5
100
AcDbLine
 10
526.8517980671048
 20
240.6279592661642
 30
0.0
 11
526.8517980671048
 21
329.2257067708751
 31
0.0
  0
LINE
  5
D7D3
330
D7C3
100
AcDbEntity
  8
AM_5
100
AcDbLine
 10
387.8517942524076
 20
327.2257067708751
 30
0.0
 11
524.8517980671048
 21
327.2257067708751
 31
0.0
  0
INSERT
  5
D7D4
330
D7C3
100
AcDbEntity
  8
AM_5
100
AcDbBlockReference
  2
_Dot
 10
385.8517942524076
 20
327.2257067708751
 30
0.0
 41
2.0
 42
2.0
 43
2.0
 50
180.0
  0
INSERT
  5
D7D5
330
D7C3
100
AcDbEntity
  8
AM_5
100
AcDbBlockReference
  2
_Dot
 10
526.8517980671048
 20
327.2257067708751
 30
0.0
 41
2.0
 42
2.0
 43
2.0
  0
MTEXT
  5
D7D6
330
D7C3
100
AcDbEntity
  8
AM_5
 62
     2
100
AcDbMText
 10
456.3517961597561
 20
333.4257067708751
 30
0.0
 40
6.400000000000002
 41
0.0
 71
     5
 72
     1
  1
141
 73
     1
 44
1.0
1001
ACAD
1000
MTEXTBEGIN
1070
    73
1070
     1
1070
    44
1040
1.0
1070
    74
1070
     0
1000
MTEXTEND
  0
POINT
  5
D7D7
330
D7C3
100
AcDbEntity
  8
Defpoints
 62
     0
100
AcDbPoint
 10
385.8517942524076
 20
283.2257067708753
 30
0.0
  0
POINT
  5
D7D8
330
D7C3
100
AcDbEntity
  8
Defpoints
 62
     0
100
AcDbPoint
 10
526.8517980671048
 20
238.6279592661642
 30
0.0
  0
POINT
  5
D7D9
330
D7C3
100
AcDbEntity
  8
Defpoints
 62
     0
100
AcDbPoint
 10
526.8517980671048
 20
327.2257067708751
 30
0.0
  0
ENDBLK
  5
D7CE
330
D7C3
100
AcDbEntity
  8
0
100
AcDbBlockEnd
  0
BLOCK
  5
D861
330
D853
100
AcDbEntity
  8
0
100
AcDbBlockBegin
  2
*D21
 70
     1
 10
0.0
 20
0.0
 30
0.0
  3
*D21
  1

  0
ARC
  5
D874
330
D853
100
AcDbEntity
  8
AM_5
100
AcDbCircle
 10
385.8517942524076
 20
235.2257067708755
 30
0.0
 40
97.91362077412813
100
AcDbArc
 50
291.1703535252001
 51
358.8296464747996
  0
INSERT
  5
D875
330
D853
100
AcDbEntity
  8
AM_5
100
AcDbBlockReference
  2
_Dot
 10
419.3402248631098
 20
143.2169998549974
 30
0.0
 41
2.0
 42
2.0
 43
2.0
 50
200.5851767626
  0
INSERT
  5
D876
330
D853
100
AcDbEntity
  8
AM_5
100
AcDbBlockReference
  2
_Dot
 10
483.7654150265357
 20
235.2257067708752
 30
0.0
 41
2.0
 42
2.0
 43
2.0
 50
89.41482323739977
  0
MTEXT
  5
D877
330
D853
100
AcDbEntity
  8
AM_5
 62
     2
100
AcDbMText
 10
460.9791941986798
 20
182.6209350023997
 30
0.0
 40
6.400000000000002
 41
0.0
 71
     5
 72
     1
  1
70°
 11
0.5735764363510474
 21
0.8191520442889908
 31
0.0
 73
     1
 44
1.0
1001
ACAD
1000
MTEXTBEGIN
1070
    73
1070
     1
1070
    44
1040
1.0
1070
    74
1070
     0
1000
MTEXTEND
  0
POINT
  5
D878
330
D853
100
AcDbEntity
  8
Defpoints
 62
     0
100
AcDbPoint
 10
453.0441977421031
 20
164.0059198687953
 30
0.0
  0
POINT
  5
D879
330
D853
100
AcDbEntity
  8
Defpoints
 62
     0
100
AcDbPoint
 10
377.6433108125916
 20
257.778329669737
 30
0.0
  0
POINT
  5
D87A
330
D853
100
AcDbEntity
  8
Defpoints
 62
     0
100
AcDbPoint
 10
302.8517942524075
 20
235.2257067708756
 30
0.0
  0
POINT
  5
D87B
330
D853
100
AcDbEntity
  8
Defpoints
 62
     0
100
AcDbPoint
 10
534.8517942524076
 20
235.2257067708753
 30
0.0
  0
POINT
  5
D87C
330
D853
100
AcDbEntity
  8
Defpoints
 62
     0
100
AcDbPoint
 10
435.4447150346293
 20
98.97027675691852
 30
0.0
  0
ENDBLK
  5
D862
330
D853
100
AcDbEntity
  8
0
100
AcDbBlockEnd
  0
BLOCK
  5
D8F5
330
D8EB
100
AcDbEntity
  8
0
100
AcDbBlockBegin
  2
*D22
 70
     1
 10
0.0
 20
0.0
 30
0.0
  3
*D22
  1

  0
LINE
  5
D902
330
D8EB
100
AcDbEntity
  8
AM_5
100
AcDbLine
 10
367.9734768034041
 20
159.7911936804295
 30
0.0
 11
359.764993363588
 21
137.2385707815677
 31
0.0
  0
LINE
  5
D903
330
D8EB
100
AcDbEntity
  8
AM_5
100
AcDbLine
 10
351.0590096292578
 20
165.9475562602916
 30
0.0
 11
342.8505261894417
 21
143.3949333614297
 31
0.0
  0
LINE
  5
D904
330
D8EB
100
AcDbEntity
  8
AM_5
100
AcDbLine
 10
358.5696484086675
 20
139.8019963097908
 30
0.0
 11
345.4139517176649
 21
144.5902783163502
 31
0.0
  0
INSERT
  5
D905
330
D8EB
100
AcDbEntity
  8
AM_5
100
AcDbBlockReference
  2
_Dot
 10
360.4490336502393
 20
139.1179560231395
 30
0.0
 41
2.0
 42
2.0
 43
2.0
 50
339.9999999999999
  0
INSERT
  5
D906
330
D8EB
100
AcDbEntity
  8
AM_5
100
AcDbBlockReference
  2
_Dot
 10
343.5345664760931
 20
145.2743186030015
 30
0.0
 41
2.0
 42
2.0
 43
2.0
 50
159.9999999999998
  0
MTEXT
  5
D907
330
D8EB
100
AcDbEntity
  8
AM_5
 62
     2
100
AcDbMText
 10
354.1123249517854
 20
148.0222315619431
 30
0.0
 40
6.400000000000002
 41
0.0
 71
     5
 72
     1
  1
%%c18
 11
0.9396926207859072
 21
-0.3420201433256717
 31
0.0
 73
     1
 44
1.0
1001
ACAD
1000
MTEXTBEGIN
1070
    73
1070
     1
1070
    44
1040
1.0
1070
    74
1070
     0
1000
MTEXTEND
  0
POINT
  5
D908
330
D8EB
100
AcDbEntity
  8
Defpoints
 62
     0
100
AcDbPoint
 10
368.6575170900554
 20
161.6705789220013
 30
0.0
  0
POINT
  5
D909
330
D8EB
100
AcDbEntity
  8
Defpoints
 62
     0
100
AcDbPoint
 10
351.7430499159092
 20
167.8269415018634
 30
0.0
  0
POINT
  5
D90A
330
D8EB
100
AcDbEntity
  8
Defpoints
 62
     0
100
AcDbPoint
 10
343.5345664760931
 20
145.2743186030015
 30
0.0
  0
ENDBLK
  5
D8F6
330
D8EB
100
AcDbEntity
  8
0
100
AcDbBlockEnd
  0
BLOCK
  5
D924
330
D91A
100
AcDbEntity
  8
0
100
AcDbBlockBegin
  2
*D23
 70
     1
 10
0.0
 20
0.0
 30
0.0
  3
*D23
  1

  0
LINE
  5
D93D
330
D91A
100
AcDbEntity
  8
AM_5
100
AcDbLine
 10
373.1884212157611
 20
171.1953312969281
 30
0.0
 11
353.8642831178695
 21
118.102698222539
 31
0.0
  0
LINE
  5
D93E
330
D91A
100
AcDbEntity
  8
AM_5
100
AcDbLine
 10
354.3945688000426
 20
178.0357341634405
 30
0.0
 11
335.0704307021509
 21
124.9431010890514
 31
0.0
  0
LINE
  5
D93F
330
D91A
100
AcDbEntity
  8
AM_5
100
AcDbLine
 10
352.6689381629489
 20
120.6661237507621
 30
0.0
 11
337.633856230374
 21
126.138446043972
 31
0.0
  0
INSERT
  5
D940
330
D91A
100
AcDbEntity
  8
AM_5
100
AcDbBlockReference
  2
_Dot
 10
354.5483234045207
 20
119.9820834641109
 30
0.0
 41
2.0
 42
2.0
 43
2.0
 50
340.000000000003
  0
INSERT
  5
D941
330
D91A
100
AcDbEntity
  8
AM_5
100
AcDbBlockReference
  2
_Dot
 10
335.7544709888022
 20
126.8224863306232
 30
0.0
 41
2.0
 42
2.0
 43
2.0
 50
160.000000000003
  0
MTEXT
  5
D942
330
D91A
100
AcDbEntity
  8
AM_5
 62
     2
100
AcDbMText
 10
347.2719220852803
 20
129.2283791462398
 30
0.0
 40
6.400000000000002
 41
0.0
 71
     5
 72
     1
  1
%%c20
 11
0.9396926207859269
 21
-0.3420201433256183
 31
0.0
 73
     1
 44
1.0
1001
ACAD
1000
MTEXTBEGIN
1070
    73
1070
     1
1070
    44
1040
1.0
1070
    74
1070
     0
1000
MTEXTEND
  0
POINT
  5
D943
330
D91A
100
AcDbEntity
  8
Defpoints
 62
     0
100
AcDbPoint
 10
373.8724615024124
 20
173.0747165384999
 30
0.0
  0
POINT
  5
D944
330
D91A
100
AcDbEntity
  8
Defpoints
 62
     0
100
AcDbPoint
 10
355.0786090866939
 20
179.9151194050123
 30
0.0
  0
POINT
  5
D945
330
D91A
100
AcDbEntity
  8
Defpoints
 62
     0
100
AcDbPoint
 10
335.7544709888022
 20
126.8224863306232
 30
0.0
  0
ENDBLK
  5
D925
330
D91A
100
AcDbEntity
  8
0
100
AcDbBlockEnd
  0
BLOCK
  5
D960
330
D956
100
AcDbEntity
  8
0
100
AcDbBlockBegin
  2
*D24
 70
     1
 10
0.0
 20
0.0
 30
0.0
  3
*D24
  1

  0
LINE
  5
D964
330
D956
100
AcDbEntity
  8
AM_5
100
AcDbLine
 10
349.8636646743368
 20
168.5109817885114
 30
0.0
 11
326.3713482055991
 21
177.0614857170935
 31
0.0
  0
LINE
  5
D965
330
D956
100
AcDbEntity
  8
AM_5
100
AcDbLine
 10
358.4141682574801
 20
192.0032973081643
 30
0.0
 11
334.9218517887425
 21
200.5538012367463
 31
0.0
  0
LINE
  5
D966
330
D956
100
AcDbEntity
  8
AM_5
100
AcDbLine
 10
328.9347737338222
 20
178.2568306720139
 30
0.0
 11
336.117196743663
 21
197.9903757085231
 31
0.0
  0
INSERT
  5
D967
330
D956
100
AcDbEntity
  8
AM_5
100
AcDbBlockReference
  2
_Dot
 10
328.2507334471709
 20
176.3774454304421
 30
0.0
 41
2.0
 42
2.0
 43
2.0
 50
250.0000000000003
  0
INSERT
  5
D968
330
D956
100
AcDbEntity
  8
AM_5
100
AcDbBlockReference
  2
_Dot
 10
336.8012370303143
 20
199.869760950095
 30
0.0
 41
2.0
 42
2.0
 43
2.0
 50
70.00000000000034
  0
MTEXT
  5
D969
330
D956
100
AcDbEntity
  8
AM_5
 62
     2
100
AcDbMText
 10
326.69989098987
 20
190.2441280788877
 30
0.0
 40
6.400000000000002
 41
0.0
 71
     5
 72
     1
  1
25
 11
0.3420201433256632
 21
0.9396926207859104
 31
0.0
 73
     1
 44
1.0
1001
ACAD
1000
MTEXTBEGIN
1070
    73
1070
     1
1070
    44
1040
1.0
1070
    74
1070
     0
1000
MTEXTEND
  0
POINT
  5
D96A
330
D956
100
AcDbEntity
  8
Defpoints
 62
     0
100
AcDbPoint
 10
351.7430499159086
 20
167.8269415018601
 30
0.0
  0
POINT
  5
D96B
330
D956
100
AcDbEntity
  8
Defpoints
 62
     0
100
AcDbPoint
 10
360.293553499052
 20
191.3192570215129
 30
0.0
  0
POINT
  5
D96C
330
D956
100
AcDbEntity
  8
Defpoints
 62
     0
100
AcDbPoint
 10
336.8012370303143
 20
199.869760950095
 30
0.0
  0
ENDBLK
  5
D961
330
D956
100
AcDbEntity
  8
0
100
AcDbBlockEnd
  0
BLOCK
  5
D986
330
D97C
100
AcDbEntity
  8
0
100
AcDbBlockBegin
  2
*D25
 70
     1
 10
0.0
 20
0.0
 30
0.0
  3
*D25
  1

  0
LINE
  5
D9A8
330
D97C
100
AcDbEntity
  8
AM_5
100
AcDbLine
 10
358.41416825748
 20
192.0032973081642
 30
0.0
 11
334.9218517887425
 21
200.5538012367464
 31
0.0
  0
LINE
  5
D9A9
330
D97C
100
AcDbEntity
  8
AM_5
100
AcDbLine
 10
383.9724090108357
 20
235.9097470575266
 30
0.0
 11
352.0228589550253
 21
247.5384322760397
 31
0.0
  0
LINE
  5
D9AA
330
D97C
100
AcDbEntity
  8
AM_5
100
AcDbLine
 10
337.4852773169657
 20
201.7491461916669
 30
0.0
 11
353.2182039099458
 21
244.9750067478166
 31
0.0
  0
INSERT
  5
D9AB
330
D97C
100
AcDbEntity
  8
AM_5
100
AcDbBlockReference
  2
_Dot
 10
336.8012370303144
 20
199.8697609500951
 30
0.0
 41
2.0
 42
2.0
 43
2.0
 50
249.9999999999999
  0
INSERT
  5
D9AC
330
D97C
100
AcDbEntity
  8
AM_5
100
AcDbBlockReference
  2
_Dot
 10
353.9022441965972
 20
246.8543919893884
 30
0.0
 41
2.0
 42
2.0
 43
2.0
 50
69.99999999999985
  0
MTEXT
  5
D9AD
330
D97C
100
AcDbEntity
  8
AM_5
 62
     2
100
AcDbMText
 10
335.8769346708406
 20
215.4578483697033
 30
0.0
 40
6.400000000000002
 41
0.0
 71
     5
 72
     1
  1
50
 11
0.3420201433256711
 21
0.9396926207859074
 31
0.0
 73
     1
 44
1.0
1001
ACAD
1000
MTEXTBEGIN
1070
    73
1070
     1
1070
    44
1040
1.0
1070
    74
1070
     0
1000
MTEXTEND
  0
POINT
  5
D9AE
330
D97C
100
AcDbEntity
  8
Defpoints
 62
     0
100
AcDbPoint
 10
360.2935534990518
 20
191.3192570215129
 30
0.0
  0
POINT
  5
D9AF
330
D97C
100
AcDbEntity
  8
Defpoints
 62
     0
100
AcDbPoint
 10
385.8517942524075
 20
235.2257067708752
 30
0.0
  0
POINT
  5
D9B0
330
D97C
100
AcDbEntity
  8
Defpoints
 62
     0
100
AcDbPoint
 10
353.9022441965972
 20
246.8543919893884
 30
0.0
  0
ENDBLK
  5
D987
330
D97C
100
AcDbEntity
  8
0
100
AcDbBlockEnd
  0
BLOCK
  5
DB08
330
DB01
100
AcDbEntity
  8
0
100
AcDbBlockBegin
  2
*S26
 70
     1
 10
0.0
 20
0.0
 30
0.0
  3
*S26
  1

  0
LINE
  5
DB02
330
DB01
100
AcDbEntity
  8
AM_5
 62
     3
 48
1.01
100
AcDbLine
 10
481.0083537213604
 20
480.4698567555226
 30
0.0
 11
454.2990203880272
 21
480.4698567555226
 31
0.0
  0
LINE
  5
DB03
330
DB01
100
AcDbEntity
  8
AM_5
 62
     3
 48
1.01
100
AcDbLine
 10
454.2990203880272
 20
480.4698567555226
 30
0.0
 11
425.9714697994717
 21
458.0630899261121
 31
0.0
  0
LINE
  5
DB04
330
DB01
100
AcDbEntity
  8
AM_5
  6
Continuous
 62
     3
 48
1.01
100
AcDbLine
 10
425.9714697994717
 20
458.0630899261121
 30
0.0
 11
422.8342513827642
 21
455.5815862275714
 31
0.0
  0
LINE
  5
DB05
330
DB01
100
AcDbEntity
  8
AM_5
  6
Continuous
 62
     3
 48
1.01
100
AcDbLine
 10
425.3065528934658
 20
458.903705059722
 30
0.0
 11
422.8342513827642
 21
455.5815862275714
 31
0.0
  0
LINE
  5
DB06
330
DB01
100
AcDbEntity
  8
AM_5
  6
Continuous
 62
     3
 48
1.01
100
AcDbLine
 10
422.8342513827642
 20
455.5815862275714
 30
0.0
 11
426.6363867054777
 21
457.2224747925022
 31
0.0
  0
MTEXT
  5
DB07
330
DB01
100
AcDbEntity
  8
AM_5
 62
     2
100
AcDbMText
 10
460.6990203880271
 20
483.6698567555226
 30
0.0
 40
6.4
 41
0.0
 71
     7
 72
     5
  1
裏板別途
 73
     1
 44
1.0
1001
ACAD
1000
MTEXTBEGIN
1070
    73
1070
     1
1070
    44
1040
1.0
1070
    74
1070
     0
1000
MTEXTEND
  0
ENDBLK
  5
DB09
330
DB01
100
AcDbEntity
  8
0
100
AcDbBlockEnd
  0
ENDSEC
  0
SECTION
  2
ENTITIES
  0
ARC
  5
C709
330
1F
100
AcDbEntity
  8
AM_0
100
AcDbCircle
 10
385.8517942524076
 20
235.2257067708753
 30
0.0
 40
20.0
100
AcDbArc
 50
77.47575124248966
 51
208.2952257235063
  0
POLYLINE
  5
C72A
330
1F
100
AcDbEntity
  8
AM_0
 48
1.01
100
AcDb2dPolyline
 66
     1
 10
0.0
 20
0.0
 30
0.0
  0
VERTEX
  5
C72B
330
C72A
100
AcDbEntity
  8
AM_0
 48
1.01
100
AcDbVertex
100
AcDb2dVertex
 10
390.1888499160178
 20
254.7497931303121
 30
0.0
  0
VERTEX
  5
C72C
330
C72A
100
AcDbEntity
  8
AM_0
 48
1.01
100
AcDbVertex
100
AcDb2dVertex
 10
390.2787322497487
 20
254.7373396901869
 30
0.0
  0
VERTEX
  5
C72D
330
C72A
100
AcDbEntity
  8
AM_0
 48
1.01
100
AcDbVertex
100
AcDb2dVertex
 10
390.7694754696012
 20
254.6665722875379
 30
0.0
  0
VERTEX
  5
C72E
330
C72A
100
AcDbEntity
  8
AM_0
 48
1.01
100
AcDbVertex
100
AcDb2dVertex
 10
391.2496260500073
 20
254.5930714158796
 30
0.0
  0
VERTEX
  5
C72F
330
C72A
100
AcDbEntity
  8
AM_0
 48
1.01
100
AcDbVertex
100
AcDb2dVertex
 10
392.1778056717038
 20
254.4406194238447
 30
0.0
  0
VERTEX
  5
C730
330
C72A
100
AcDbEntity
  8
AM_0
 48
1.01
100
AcDbVertex
100
AcDb2dVertex
 10
393.0719927644849
 20
254.2831463365339
 30
0.0
  0
VERTEX
  5
C731
330
C72A
100
AcDbEntity
  8
AM_0
 48
1.01
100
AcDbVertex
100
AcDb2dVertex
 10
393.9396295642972
 20
254.1223628072523
 30
0.0
  0
VERTEX
  5
C732
330
C72A
100
AcDbEntity
  8
AM_0
 48
1.01
100
AcDbVertex
100
AcDb2dVertex
 10
394.7868660783887
 20
253.9600283651136
 30
0.0
  0
VERTEX
  5
C733
330
C72A
100
AcDbEntity
  8
AM_0
 48
1.01
100
AcDbVertex
100
AcDb2dVertex
 10
396.4473948574185
 20
253.634529784181
 30
0.0
  0
VERTEX
  5
C734
330
C72A
100
AcDbEntity
  8
AM_0
 48
1.01
100
AcDbVertex
100
AcDb2dVertex
 10
399.7341427898526
 20
252.9882342366956
 30
0.0
  0
VERTEX
  5
C735
330
C72A
100
AcDbEntity
  8
AM_0
 48
1.01
100
AcDbVertex
100
AcDb2dVertex
 10
401.4107093906521
 20
252.6719374208235
 30
0.0
  0
VERTEX
  5
C736
330
C72A
100
AcDbEntity
  8
AM_0
 48
1.01
100
AcDbVertex
100
AcDb2dVertex
 10
402.26797557832
 20
252.5161106138014
 30
0.0
  0
VERTEX
  5
C737
330
C72A
100
AcDbEntity
  8
AM_0
 48
1.01
100
AcDbVertex
100
AcDb2dVertex
 10
403.1394813156246
 20
252.362055256822
 30
0.0
  0
VERTEX
  5
C738
330
C72A
100
AcDbEntity
  8
AM_0
 48
1.01
100
AcDbVertex
100
AcDb2dVertex
 10
404.0255413150906
 20
252.2101301698469
 30
0.0
  0
VERTEX
  5
C739
330
C72A
100
AcDbEntity
  8
AM_0
 48
1.01
100
AcDbVertex
100
AcDb2dVertex
 10
404.9264667129635
 20
252.0606953649305
 30
0.0
  0
VERTEX
  5
C73A
330
C72A
100
AcDbEntity
  8
AM_0
 48
1.01
100
AcDbVertex
100
AcDb2dVertex
 10
405.8425722217679
 20
251.9141120462202
 30
0.0
  0
VERTEX
  5
C73B
330
C72A
100
AcDbEntity
  8
AM_0
 48
1.01
100
AcDbVertex
100
AcDb2dVertex
 10
406.7741689777493
 20
251.7707390336775
 30
0.0
  0
VERTEX
  5
C73C
330
C72A
100
AcDbEntity
  8
AM_0
 48
1.01
100
AcDbVertex
100
AcDb2dVertex
 10
407.7215705013394
 20
251.6309351472639
 30
0.0
  0
VERTEX
  5
C73D
330
C72A
100
AcDbEntity
  8
AM_0
 48
1.01
100
AcDbVertex
100
AcDb2dVertex
 10
408.6850891208768
 20
251.4950615911268
 30
0.0
  0
VERTEX
  5
C73E
330
C72A
100
AcDbEntity
  8
AM_0
 48
1.01
100
AcDbVertex
100
AcDb2dVertex
 10
409.6653995609402
 20
251.3634140043043
 30
0.0
  0
VERTEX
  5
C73F
330
C72A
100
AcDbEntity
  8
AM_0
 48
1.01
100
AcDbVertex
100
AcDb2dVertex
 10
410.6632385349392
 20
251.2361807374738
 30
0.0
  0
VERTEX
  5
C740
330
C72A
100
AcDbEntity
  8
AM_0
 48
1.01
100
AcDbVertex
100
AcDb2dVertex
 10
411.6769347286343
 20
251.1138517408155
 30
0.0
  0
VERTEX
  5
C741
330
C72A
100
AcDbEntity
  8
AM_0
 48
1.01
100
AcDbVertex
100
AcDb2dVertex
 10
412.7046237087369
 20
250.9969419984602
 30
0.0
  0
VERTEX
  5
C742
330
C72A
100
AcDbEntity
  8
AM_0
 48
1.01
100
AcDbVertex
100
AcDb2dVertex
 10
413.7444458103299
 20
250.8859688787244
 30
0.0
  0
VERTEX
  5
C743
330
C72A
100
AcDbEntity
  8
AM_0
 48
1.01
100
AcDbVertex
100
AcDb2dVertex
 10
414.796405801785
 20
250.7812613992475
 30
0.0
  0
VERTEX
  5
C744
330
C72A
100
AcDbEntity
  8
AM_0
 48
1.01
100
AcDbVertex
100
AcDb2dVertex
 10
415.8602628803372
 20
250.6830770520948
 30
0.0
  0
VERTEX
  5
C745
330
C72A
100
AcDbEntity
  8
AM_0
 48
1.01
100
AcDbVertex
100
AcDb2dVertex
 10
416.9325552082181
 20
250.5919332055829
 30
0.0
  0
VERTEX
  5
C746
330
C72A
100
AcDbEntity
  8
AM_0
 48
1.01
100
AcDbVertex
100
AcDb2dVertex
 10
418.0098114109158
 20
250.5083496122144
 30
0.0
  0
VERTEX
  5
C747
330
C72A
100
AcDbEntity
  8
AM_0
 48
1.01
100
AcDbVertex
100
AcDb2dVertex
 10
419.0885553455472
 20
250.4328448323988
 30
0.0
  0
SEQEND
  5
C748
330
C72A
100
AcDbEntity
  8
AM_0
 48
1.01
  0
LINE
  5
C749
330
1F
100
AcDbEntity
  8
AM_0
100
AcDbLine
 10
522.1816384300422
 20
226.8343458807785
 30
0.0
 11
419.0885549916646
 21
220.0185685478083
 31
0.0
  0
LINE
  5
C74A
330
1F
100
AcDbEntity
  8
AM_0
100
AcDbLine
 10
419.0885549877043
 20
250.4328449942042
 30
0.0
 11
522.1816384300422
 21
243.6170676609723
 31
0.0
  0
LINE
  5
C7ED
330
1F
100
AcDbEntity
  8
AM_0
 48
0.15
100
AcDbLine
 10
526.8517980671048
 20
231.8234542755865
 30
0.0
 11
526.8517980671048
 21
233.8428857176088
 31
0.0
  0
LINE
  5
C7EE
102
{ACAD_REACTORS
330
D7D0
102
}
330
1F
100
AcDbEntity
  8
AM_0
 48
0.15
100
AcDbLine
 10
526.8517980671048
 20
236.6085278241418
 30
0.0
 11
526.8517980671048
 21
238.6279592661642
 31
0.0
  0
ARC
  5
C7EF
330
1F
100
AcDbEntity
  8
AM_0
 48
0.5
100
AcDbCircle
 10
521.8517942524075
 20
231.8234542999732
 30
0.0
 40
5.0
100
AcDbArc
 50
273.7824827352293
 51
0.0
  0
ARC
  5
C7F0
330
1F
100
AcDbEntity
  8
AM_0
 48
0.5
100
AcDbCircle
 10
521.8517942524075
 20
238.6279592417774
 30
0.0
 40
5.0
100
AcDbArc
 50
0.0
 51
86.21751726477071
  0
LINE
  5
C7F2
330
1F
100
AcDbEntity
  8
AM_0
 48
0.15
100
AcDbLine
 10
526.8517942524075
 20
236.6085278148213
 30
0.0
 11
526.8517942524075
 21
233.8428857269293
 31
0.0
  0
CIRCLE
  5
C847
330
1F
100
AcDbEntity
  8
AM_0
 48
0.4
100
AcDbCircle
 10
353.8517942524076
 20
235.2257067708753
 30
0.0
 40
3.250000000000001
  0
CIRCLE
  5
C848
330
1F
100
AcDbEntity
  8
AM_0
 48
0.4
100
AcDbCircle
 10
397.8517942524076
 20
205.2257067708753
 30
0.0
 40
3.250000000000001
  0
CIRCLE
  5
C849
330
1F
100
AcDbEntity
  8
AM_0
 48
0.4
100
AcDbCircle
 10
397.8517942524076
 20
265.2257067708753
 30
0.0
 40
3.250000000000001
  0
ARC
  5
C84A
102
{ACAD_REACTORS
330
CCFB
102
}
330
1F
100
AcDbEntity
  8
AM_0
100
AcDbCircle
 10
385.8517942524076
 20
235.2257067708753
 30
0.0
 40
40.00000000000001
100
AcDbArc
 50
21.94969506778186
 51
234.9349162577441
  0
LINE
  5
C84B
330
1F
100
AcDbEntity
  8
AM_0
100
AcDbLine
 10
370.2910628043491
 20
360.9610838371916
 30
0.0
 11
365.8517942524075
 21
388.9985694284014
 31
0.0
  0
ARC
  5
C84C
330
1F
100
AcDbEntity
  8
AM_0
100
AcDbCircle
 10
420.3086265472085
 20
392.9985694284014
 30
0.0
 40
15.0
100
AcDbArc
 50
195.4660099534196
 51
270.0
  0
ARC
  5
C84D
330
1F
100
AcDbEntity
  8
AM_0
100
AcDbCircle
 10
385.8517942524076
 20
416.1385694284015
 30
0.0
 40
59.14002113628301
100
AcDbArc
 50
257.0325875925988
 51
270.0000173840696
  0
ARC
  5
C84E
330
1F
100
AcDbEntity
  8
AM_0
 48
0.3
100
AcDbCircle
 10
373.2541512203742
 20
361.4302395030624
 30
0.0
 40
3.0
100
AcDbArc
 50
188.9971434210663
 51
257.0325875925988
1001
GENIUS_GENODEF_13
1002
{
1000
HIER
1070
     0
1002
}
1002
{
1000
MANEDIT
1070
     0
1002
}
1002
{
1000
NOSEL
1070
     0
1002
}
1002
{
1000
BEHIND
1070
     0
1002
}
1002
{
1000
OTHER
1070
     0
1002
}
1002
{
1000
REACTOR
1002
}
1001
GENIUS_GENOBJ-N-FIL_13
1002
{
1000
OWNER
1000
GEN
1002
}
  0
LINE
  5
C851
330
1F
100
AcDbEntity
  8
AM_0
100
AcDbLine
 10
523.8517985200251
 20
356.9985691264553
 30
0.0
 11
385.8518121960384
 21
356.9985482921213
 31
0.0
  0
LINE
  5
C852
102
{ACAD_REACTORS
330
C8A5
102
}
330
1F
100
AcDbEntity
  8
AM_0
100
AcDbLine
 10
521.8517980671048
 20
377.998569189984
 30
0.0
 11
420.3086265472082
 21
377.9985694284014
 31
0.0
  0
ARC
  5
C896
330
1F
100
AcDbEntity
  8
AM_0
 48
0.5000000000000014
100
AcDbCircle
 10
521.8517942524075
 20
372.9985694284025
 30
0.0
 40
5.000000000000013
100
AcDbArc
 50
0.0
 51
90.0
  0
LINE
  5
C897
330
1F
100
AcDbEntity
  8
AM_0
 48
0.6500000031764387
100
AcDbLine
 10
526.8517980671048
 20
359.9985691264552
 30
0.0
 11
526.8517980671048
 21
372.998569189984
 31
0.0
  0
ARC
  5
C898
102
{ACAD_REACTORS
330
C8A5
102
}
330
1F
100
AcDbEntity
  8
AM_0
 48
0.3
100
AcDbCircle
 10
523.8517980671048
 20
359.9985691264552
 30
0.0
 40
3.0
100
AcDbArc
 50
270.0000086501414
 51
0.0
1001
GENIUS_GENOBJ-N-FIL_13
1002
{
1000
OWNER
1000
GEN
1002
}
1001
GENIUS_GENODEF_13
1002
{
1000
HIER
1070
     0
1002
}
1002
{
1000
MANEDIT
1070
     0
1002
}
1002
{
1000
NOSEL
1070
     0
1002
}
1002
{
1000
BEHIND
1070
     0
1002
}
1002
{
1000
OTHER
1070
     0
1002
}
1002
{
1000
REACTOR
1002
}
  0
LINE
  5
C899
330
1F
100
AcDbEntity
  8
AM_0
 48
0.15
100
AcDbLine
 10
526.8517942524075
 20
360.2097693900725
 30
0.0
 11
526.8517942524075
 21
360.0703661981261
 31
0.0
  0
LINE
  5
C89A
102
{ACAD_REACTORS
330
D864
102
}
330
1F
100
AcDbEntity
  8
AM_7
100
AcDbLine
 10
302.8517942524075
 20
235.2257067708756
 30
0.0
 11
534.8517942524075
 21
235.2257067708753
 31
0.0
1001
GENIUS_GENODEF_13
1002
{
1000
HIER
1070
     0
1002
}
1002
{
1000
MANEDIT
1070
     0
1002
}
1002
{
1000
NOSEL
1070
     0
1002
}
1002
{
1000
BEHIND
1070
     0
1002
}
1002
{
1000
OTHER
1070
     0
1002
}
1002
{
1000
REACTOR
1002
}
1001
GENIUS_GENOBJ-N-CEN_13
1002
{
1000
OWNER
1000
GEN
1002
}
1001
GENIUS_GENCEN_19
1002
{
1040
8.0
1002
}
  0
LINE
  5
C89B
102
{ACAD_REACTORS
330
D776
330
D79D
330
D7D0
102
}
330
1F
100
AcDbEntity
  8
AM_7
100
AcDbLine
 10
385.8517942524076
 20
187.2257067708753
 30
0.0
 11
385.8517942524076
 21
283.2257067708753
 31
0.0
1001
GENIUS_GENOBJ-N-CEN_13
1002
{
1000
OWNER
1000
GEN
1002
}
1001
GENIUS_GENODEF_13
1002
{
1000
HIER
1070
     0
1002
}
1002
{
1000
MANEDIT
1070
     0
1002
}
1002
{
1000
NOSEL
1070
     0
1002
}
1002
{
1000
BEHIND
1070
     0
1002
}
1002
{
1000
OTHER
1070
     0
1002
}
1002
{
1000
REACTOR
1002
}
1001
GENIUS_GENCEN_19
1002
{
1040
8.0
1002
}
  0
LINE
  5
C89C
330
1F
100
AcDbEntity
  8
AM_7
 48
0.5
100
AcDbLine
 10
353.8517942524076
 20
221.0257067708753
 30
0.0
 11
353.8517942524076
 21
249.4257067708753
 31
0.0
1001
GENIUS_GENOBJ-N-CEN_13
1002
{
1000
OWNER
1000
GEN
1002
}
1001
GENIUS_GENODEF_13
1002
{
1000
HIER
1070
     0
1002
}
1002
{
1000
MANEDIT
1070
     0
1002
}
1002
{
1000
NOSEL
1070
     0
1002
}
1002
{
1000
BEHIND
1070
     0
1002
}
1002
{
1000
OTHER
1070
     0
1002
}
1002
{
1000
REACTOR
1002
}
1001
GENIUS_GENCEN_19
1002
{
1040
8.0
1002
}
  0
LINE
  5
C89F
102
{ACAD_REACTORS
330
CCD5
102
}
330
1F
100
AcDbEntity
  8
AM_7
 48
0.5
100
AcDbLine
 10
383.6517942524076
 20
205.2257067708753
 30
0.0
 11
412.0517942524075
 21
205.2257067708753
 31
0.0
1001
GENIUS_GENODEF_13
1002
{
1000
HIER
1070
     0
1002
}
1002
{
1000
MANEDIT
1070
     0
1002
}
1002
{
1000
NOSEL
1070
     0
1002
}
1002
{
1000
BEHIND
1070
     0
1002
}
1002
{
1000
OTHER
1070
     0
1002
}
1002
{
1000
REACTOR
1002
}
1001
GENIUS_GENOBJ-N-CEN_13
1002
{
1000
OWNER
1000
GEN
1002
}
1001
GENIUS_GENCEN_19
1002
{
1040
8.0
1002
}
  0
LINE
  5
C8A0
330
1F
100
AcDbEntity
  8
AM_7
 48
0.5
100
AcDbLine
 10
397.8517942524076
 20
191.0257067708753
 30
0.0
 11
397.8517942524076
 21
219.4257067708754
 31
0.0
1001
GENIUS_GENOBJ-N-CEN_13
1002
{
1000
OWNER
1000
GEN
1002
}
1001
GENIUS_GENODEF_13
1002
{
1000
HIER
1070
     0
1002
}
1002
{
1000
MANEDIT
1070
     0
1002
}
1002
{
1000
NOSEL
1070
     0
1002
}
1002
{
1000
BEHIND
1070
     0
1002
}
1002
{
1000
OTHER
1070
     0
1002
}
1002
{
1000
REACTOR
1002
}
1001
GENIUS_GENCEN_19
1002
{
1040
8.0
1002
}
  0
ARC
  5
C8A1
330
1F
100
AcDbEntity
  8
AM_3
100
AcDbCircle
 10
385.8517942524076
 20
235.2257067708753
 30
0.0
 40
40.0
100
AcDbArc
 50
338.0503050454633
 51
21.94969495453671
  0
LINE
  5
C8A2
330
1F
100
AcDbEntity
  8
AM_7
100
AcDbLine
 10
385.8517942524076
 20
530.9985905646841
 30
0.0
 11
385.8517942524076
 21
348.9985482921185
 31
0.0
1001
GENIUS_GENODEF_13
1002
{
1000
HIER
1070
     0
1002
}
1002
{
1000
MANEDIT
1070
     0
1002
}
1002
{
1000
NOSEL
1070
     0
1002
}
1002
{
1000
BEHIND
1070
     0
1002
}
1002
{
1000
OTHER
1070
     0
1002
}
1002
{
1000
REACTOR
1002
}
1001
GENIUS_GENOBJ-N-CEN_13
1002
{
1000
OWNER
1000
GEN
1002
}
1001
GENIUS_GENCEN_19
1002
{
1040
8.0
1002
}
  0
DIMENSION
  5
C8A3
102
{ACAD_XDICTIONARY
360
C8A4
102
}
102
{ACAD_REACTORS
330
C8A5
102
}
330
1F
100
AcDbEntity
  8
AM_5
 48
1.01
100
AcDbDimension
  2
*D11
 10
550.8517735738007
 20
377.9985691899837
 30
0.0
 11
544.6517735738005
 21
367.4985691582195
 31
0.0
 70
    32
 71
     5
 42
21.00000006352843
  3
SYS$0
100
AcDbAlignedDimension
 13
523.8517985200251
 23
356.9985691264553
 33
0.0
 14
521.8517980671049
 24
377.9985691899837
 34
0.0
 50
90.00000865014143
100
AcDbRotatedDimension
1001
ACAD
1000
DSTYLE
1002
{
1070
    40
1040
2.0
1002
}
  0
DIMENSION
  5
C8C6
330
1F
100
AcDbEntity
  8
AM_5
 48
1.01
100
AcDbDimension
  2
*D9
 10
550.8518710288747
 20
419.9985694284014
 30
0.0
 11
544.6518710288745
 21
398.9985693091928
 31
0.0
 70
    32
 71
     5
 42
42.00000023841744
  3
SYS$0
100
AcDbAlignedDimension
 13
521.8517980671048
 23
377.998569189984
 33
0.0
 14
526.8517980671048
 24
419.9985694284014
 34
0.0
 50
90.00000865014143
100
AcDbRotatedDimension
1001
ACAD
1000
DSTYLE
1002
{
1070
    40
1040
2.0
1070
   271
1070
     1
1002
}
  0
LINE
  5
C8C7
330
1F
100
AcDbEntity
  8
AM_0
100
AcDbLine
 10
365.8517942524075
 20
388.9985694284014
 30
0.0
 11
392.1951171644114
 21
388.9985694284071
 31
0.0
  0
LINE
  5
C8C8
330
1F
100
AcDbEntity
  8
AM_0
 48
0.6828338543998087
100
AcDbLine
 10
392.1951171644114
 20
388.9985694284071
 30
0.0
 11
405.8517942524075
 21
388.9985694284014
 31
0.0
  0
POLYLINE
  5
C8C9
330
1F
100
AcDbEntity
  8
AM_0
 48
1.01
100
AcDb2dPolyline
 66
     1
 10
0.0
 20
0.0
 30
0.0
 70
   128
  0
VERTEX
  5
C8CA
330
C8C9
100
AcDbEntity
  8
AM_0
 48
1.01
100
AcDbVertex
100
AcDb2dVertex
 10
397.5427327251553
 20
412.9985695476177
 30
0.0
  0
VERTEX
  5
C8CB
330
C8C9
100
AcDbEntity
  8
AM_0
 48
1.01
100
AcDbVertex
100
AcDb2dVertex
 10
397.3707220649838
 20
412.997847139323
 30
0.0
  0
VERTEX
  5
C8CC
330
C8C9
100
AcDbEntity
  8
AM_0
 48
1.01
100
AcDbVertex
100
AcDb2dVertex
 10
397.1989820098995
 20
412.9958599204663
 30
0.0
  0
VERTEX
  5
C8CD
330
C8C9
100
AcDbEntity
  8
AM_0
 48
1.01
100
AcDbVertex
100
AcDb2dVertex
 10
397.0276186561703
 20
412.9928820724132
 30
0.0
  0
VERTEX
  5
C8CE
330
C8C9
100
AcDbEntity
  8
AM_0
 48
1.01
100
AcDbVertex
100
AcDb2dVertex
 10
396.8567345237851
 20
412.989188968623
 30
0.0
  0
VERTEX
  5
C8CF
330
C8C9
100
AcDbEntity
  8
AM_0
 48
1.01
100
AcDbVertex
100
AcDb2dVertex
 10
396.6864369011044
 20
412.9850553865078
 30
0.0
  0
VERTEX
  5
C8D0
330
C8C9
100
AcDbEntity
  8
AM_0
 48
1.01
100
AcDbVertex
100
AcDb2dVertex
 10
396.5168295002102
 20
412.9807566995266
 30
0.0
  0
VERTEX
  5
C8D1
330
C8C9
100
AcDbEntity
  8
AM_0
 48
1.01
100
AcDbVertex
100
AcDb2dVertex
 10
396.3480160331845
 20
412.9765664929989
 30
0.0
  0
VERTEX
  5
C8D2
330
C8C9
100
AcDbEntity
  8
AM_0
 48
1.01
100
AcDbVertex
100
AcDb2dVertex
 10
396.1801025962948
 20
412.9727601403835
 30
0.0
  0
VERTEX
  5
C8D3
330
C8C9
100
AcDbEntity
  8
AM_0
 48
1.01
100
AcDbVertex
100
AcDb2dVertex
 10
396.0136077499508
 20
412.9695838088634
 30
0.0
  0
VERTEX
  5
C8D4
330
C8C9
100
AcDbEntity
  8
AM_0
 48
1.01
100
AcDbVertex
100
AcDb2dVertex
 10
395.8489123678326
 20
412.9671978349331
 30
0.0
  0
VERTEX
  5
C8D5
330
C8C9
100
AcDbEntity
  8
AM_0
 48
1.01
100
AcDbVertex
100
AcDb2dVertex
 10
395.686069498074
 20
412.9657416934612
 30
0.0
  0
VERTEX
  5
C8D6
330
C8C9
100
AcDbEntity
  8
AM_0
 48
1.01
100
AcDbVertex
100
AcDb2dVertex
 10
395.5255231952786
 20
412.9652976388577
 30
0.0
  0
VERTEX
  5
C8D7
330
C8C9
100
AcDbEntity
  8
AM_0
 48
1.01
100
AcDbVertex
100
AcDb2dVertex
 10
395.3674987650036
 20
412.9658847446087
 30
0.0
  0
VERTEX
  5
C8D8
330
C8C9
100
AcDbEntity
  8
AM_0
 48
1.01
100
AcDbVertex
100
AcDb2dVertex
 10
395.2121511793255
 20
412.9674618835097
 30
0.0
  0
VERTEX
  5
C8D9
330
C8C9
100
AcDbEntity
  8
AM_0
 48
1.01
100
AcDbVertex
100
AcDb2dVertex
 10
395.0595281219601
 20
412.9699378604536
 30
0.0
  0
VERTEX
  5
C8DA
330
C8C9
100
AcDbEntity
  8
AM_0
 48
1.01
100
AcDbVertex
100
AcDb2dVertex
 10
394.9097911214947
 20
412.9731565112715
 30
0.0
  0
VERTEX
  5
C8DB
330
C8C9
100
AcDbEntity
  8
AM_0
 48
1.01
100
AcDbVertex
100
AcDb2dVertex
 10
394.7626862621426
 20
412.9769330615645
 30
0.0
  0
VERTEX
  5
C8DC
330
C8C9
100
AcDbEntity
  8
AM_0
 48
1.01
100
AcDbVertex
100
AcDb2dVertex
 10
394.6181402301907
 20
412.9810672397261
 30
0.0
  0
VERTEX
  5
C8DD
330
C8C9
100
AcDbEntity
  8
AM_0
 48
1.01
100
AcDbVertex
100
AcDb2dVertex
 10
394.4763467407345
 20
412.9852997655516
 30
0.0
  0
VERTEX
  5
C8DE
330
C8C9
100
AcDbEntity
  8
AM_0
 48
1.01
100
AcDbVertex
100
AcDb2dVertex
 10
394.3372074461102
 20
412.9893636102324
 30
0.0
  0
VERTEX
  5
C8DF
330
C8C9
100
AcDbEntity
  8
AM_0
 48
1.01
100
AcDbVertex
100
AcDb2dVertex
 10
394.2006156540036
 20
412.9929899568205
 30
0.0
  0
VERTEX
  5
C8E0
330
C8C9
100
AcDbEntity
  8
AM_0
 48
1.01
100
AcDbVertex
100
AcDb2dVertex
 10
394.0664634800076
 20
412.9959117765077
 30
0.0
  0
VERTEX
  5
C8E1
330
C8C9
100
AcDbEntity
  8
AM_0
 48
1.01
100
AcDbVertex
100
AcDb2dVertex
 10
393.9346448278546
 20
412.9978608483918
 30
0.0
  0
VERTEX
  5
C8E2
330
C8C9
100
AcDbEntity
  8
AM_0
 48
1.01
100
AcDbVertex
100
AcDb2dVertex
 10
393.805051217091
 20
412.9985689515717
 30
0.0
  0
SEQEND
  5
C8E3
330
C8C9
100
AcDbEntity
  8
AM_0
 48
1.01
  0
POLYLINE
  5
C8E4
330
1F
100
AcDbEntity
  8
AM_0
 48
1.01
100
AcDb2dPolyline
 66
     1
 10
0.0
 20
0.0
 30
0.0
 70
   128
  0
VERTEX
  5
C8E5
330
C8E4
100
AcDbEntity
  8
AM_0
 48
1.01
100
AcDbVertex
100
AcDb2dVertex
 10
359.460483560574
 20
412.9985588187753
 30
0.0
  0
VERTEX
  5
C8E6
330
C8E4
100
AcDbEntity
  8
AM_0
 48
1.01
100
AcDbVertex
100
AcDb2dVertex
 10
359.5121059513211
 20
412.9978966111718
 30
0.0
  0
VERTEX
  5
C8E7
330
C8E4
100
AcDbEntity
  8
AM_0
 48
1.01
100
AcDbVertex
100
AcDb2dVertex
 10
359.562383661282
 20
412.9960166806756
 30
0.0
  0
VERTEX
  5
C8E8
330
C8E4
100
AcDbEntity
  8
AM_0
 48
1.01
100
AcDbVertex
100
AcDb2dVertex
 10
359.6112403965115
 20
412.9930352563439
 30
0.0
  0
VERTEX
  5
C8E9
330
C8E4
100
AcDbEntity
  8
AM_0
 48
1.01
100
AcDbVertex
100
AcDb2dVertex
 10
359.6586022472501
 20
412.9890661830484
 30
0.0
  0
VERTEX
  5
C8EA
330
C8E4
100
AcDbEntity
  8
AM_0
 48
1.01
100
AcDbVertex
100
AcDb2dVertex
 10
359.7043881511807
 20
412.9842250937997
 30
0.0
  0
VERTEX
  5
C8EB
330
C8E4
100
AcDbEntity
  8
AM_0
 48
1.01
100
AcDbVertex
100
AcDb2dVertex
 10
359.7485218143582
 20
412.9786264295157
 30
0.0
  0
VERTEX
  5
C8EC
330
C8E4
100
AcDbEntity
  8
AM_0
 48
1.01
100
AcDbVertex
100
AcDb2dVertex
 10
359.7909269428372
 20
412.9723864192542
 30
0.0
  0
VERTEX
  5
C8ED
330
C8E4
100
AcDbEntity
  8
AM_0
 48
1.01
100
AcDbVertex
100
AcDb2dVertex
 10
359.8315272426724
 20
412.9656189078864
 30
0.0
  0
VERTEX
  5
C8EE
330
C8E4
100
AcDbEntity
  8
AM_0
 48
1.01
100
AcDbVertex
100
AcDb2dVertex
 10
359.8702440357327
 20
412.9584389323768
 30
0.0
  0
VERTEX
  5
C8EF
330
C8E4
100
AcDbEntity
  8
AM_0
 48
1.01
100
AcDbVertex
100
AcDb2dVertex
 10
359.9070010280728
 20
412.9509621257361
 30
0.0
  0
VERTEX
  5
C8F0
330
C8E4
100
AcDbEntity
  8
AM_0
 48
1.01
100
AcDbVertex
100
AcDb2dVertex
 10
359.9417195415615
 20
412.943303524929
 30
0.0
  0
VERTEX
  5
C8F1
330
C8E4
100
AcDbEntity
  8
AM_0
 48
1.01
100
AcDbVertex
100
AcDb2dVertex
 10
359.9743256664395
 20
412.9355775708729
 30
0.0
  0
VERTEX
  5
C8F2
330
C8E4
100
AcDbEntity
  8
AM_0
 48
1.01
100
AcDbVertex
100
AcDb2dVertex
 10
360.0047383403897
 20
412.9278998965794
 30
0.0
  0
VERTEX
  5
C8F3
330
C8E4
100
AcDbEntity
  8
AM_0
 48
1.01
100
AcDbVertex
100
AcDb2dVertex
 10
360.0328836536526
 20
412.9203849429662
 30
0.0
  0
VERTEX
  5
C8F4
330
C8E4
100
AcDbEntity
  8
AM_0
 48
1.01
100
AcDbVertex
100
AcDb2dVertex
 10
360.0586829280972
 20
412.9131483430439
 30
0.0
  0
VERTEX
  5
C8F5
330
C8E4
100
AcDbEntity
  8
AM_0
 48
1.01
100
AcDbVertex
100
AcDb2dVertex
 10
360.0820598697781
 20
412.9063045377308
 30
0.0
  0
VERTEX
  5
C8F6
330
C8E4
100
AcDbEntity
  8
AM_0
 48
1.01
100
AcDbVertex
100
AcDb2dVertex
 10
360.10293818475
 20
412.8999691600377
 30
0.0
  0
VERTEX
  5
C8F7
330
C8E4
100
AcDbEntity
  8
AM_0
 48
1.01
100
AcDbVertex
100
AcDb2dVertex
 10
360.1212368106961
 20
412.8942566508824
 30
0.0
  0
VERTEX
  5
C8F8
330
C8E4
100
AcDbEntity
  8
AM_0
 48
1.01
100
AcDbVertex
100
AcDb2dVertex
 10
360.1368866062283
 20
412.8892582053715
 30
0.0
  0
VERTEX
  5
C8F9
330
C8E4
100
AcDbEntity
  8
AM_0
 48
1.01
100
AcDbVertex
100
AcDb2dVertex
 10
360.1498184299588
 20
412.8850370044283
 30
0.0
  0
VERTEX
  5
C8FA
330
C8E4
100
AcDbEntity
  8
AM_0
 48
1.01
100
AcDbVertex
100
AcDb2dVertex
 10
360.1599750614285
 20
412.8816615933946
 30
0.0
  0
VERTEX
  5
C8FB
330
C8E4
100
AcDbEntity
  8
AM_0
 48
1.01
100
AcDbVertex
100
AcDb2dVertex
 10
360.1672873592495
 20
412.8792017097048
 30
0.0
  0
VERTEX
  5
C8FC
330
C8E4
100
AcDbEntity
  8
AM_0
 48
1.01
100
AcDbVertex
100
AcDb2dVertex
 10
360.171686182034
 20
412.8777086133531
 30
0.0
  0
VERTEX
  5
C8FD
330
C8E4
100
AcDbEntity
  8
AM_0
 48
1.01
100
AcDbVertex
100
AcDb2dVertex
 10
360.1731548404812
 20
412.8772085303835
 30
0.0
  0
SEQEND
  5
C8FE
330
C8E4
100
AcDbEntity
  8
AM_0
 48
1.01
  0
ARC
  5
C8FF
330
1F
100
AcDbEntity
  8
AM_0
 48
0.3
100
AcDbCircle
 10
412.375085781954
 20
409.9985694284014
 30
0.0
 40
2.999999999999997
100
AcDbArc
 50
90.0
 51
170.134193056918
  0
ARC
  5
C900
330
1F
100
AcDbEntity
  8
AM_0
 48
0.3
100
AcDbCircle
 10
359.3285027228609
 20
409.9985694284014
 30
0.0
 40
2.999999999999997
100
AcDbArc
 50
9.865806943081942
 51
73.64721240250872
  0
LINE
  5
C901
330
1F
100
AcDbEntity
  8
AM_0
100
AcDbLine
 10
424.2555629032364
 20
412.9985694284014
 30
0.0
 11
347.4480256015786
 21
412.9985694284014
 31
0.0
  0
LINE
  5
C902
330
1F
100
AcDbEntity
  8
AM_0
100
AcDbLine
 10
425.8517942524074
 20
419.9985694284014
 30
0.0
 11
345.8517942524076
 21
419.9985694284014
 31
0.0
  0
LINE
  5
C903
330
1F
100
AcDbEntity
  8
AM_0
 48
0.2763510200816932
100
AcDbLine
 10
345.948254058844
 20
414.4723908187454
 30
0.0
 11
345.8517942524076
 21
419.9985694284014
 31
0.0
  0
ARC
  5
C904
330
1F
100
AcDbEntity
  8
AM_0
 48
0.3
100
AcDbCircle
 10
347.4480256015786
 20
414.4985694284014
 30
0.0
 40
1.5
100
AcDbArc
 50
180.9999999999985
 51
270.0
1001
GENIUS_GENOBJ-N-FIL_13
1002
{
1000
OWNER
1000
GEN
1002
}
1001
GENIUS_GENODEF_13
1002
{
1000
HIER
1070
     0
1002
}
1002
{
1000
MANEDIT
1070
     0
1002
}
1002
{
1000
NOSEL
1070
     0
1002
}
1002
{
1000
BEHIND
1070
     0
1002
}
1002
{
1000
OTHER
1070
     0
1002
}
1002
{
1000
REACTOR
1002
}
  0
LINE
  5
C905
330
1F
100
AcDbEntity
  8
AM_0
 48
0.2763510200816932
100
AcDbLine
 10
425.755334445971
 20
414.4723908187454
 30
0.0
 11
425.8517942524074
 21
419.9985694284014
 31
0.0
  0
ARC
  5
C906
330
1F
100
AcDbEntity
  8
AM_0
 48
0.3
100
AcDbCircle
 10
424.2555629032364
 20
414.4985694284014
 30
0.0
 40
1.5
100
AcDbArc
 50
270.0
 51
359.0000000000015
1001
GENIUS_GENODEF_13
1002
{
1000
HIER
1070
     0
1002
}
1002
{
1000
MANEDIT
1070
     0
1002
}
1002
{
1000
NOSEL
1070
     0
1002
}
1002
{
1000
BEHIND
1070
     0
1002
}
1002
{
1000
OTHER
1070
     0
1002
}
1002
{
1000
REACTOR
1002
}
1001
GENIUS_GENOBJ-N-FIL_13
1002
{
1000
OWNER
1000
GEN
1002
}
  0
ARC
  5
C907
330
1F
100
AcDbEntity
  8
AM_0
 48
0.3
100
AcDbCircle
 10
366.2723428406652
 20
390.4985694284014
 30
0.0
 40
0.4999999999999999
100
AcDbArc
 50
189.8658069430819
 51
270.0
  0
ARC
  5
C908
330
1F
100
AcDbEntity
  8
AM_0
 48
0.3
100
AcDbCircle
 10
405.4312456641496
 20
390.4985694284014
 30
0.0
 40
0.4999999999999997
100
AcDbArc
 50
270.0
 51
350.134193056918
  0
LINE
  5
C909
330
1F
100
AcDbEntity
  8
AM_0
100
AcDbLine
 10
365.7797369632555
 20
390.4128988410257
 30
0.0
 11
362.2841379873199
 21
410.512592952655
 31
0.0
  0
LINE
  5
C90A
330
1F
100
AcDbEntity
  8
AM_0
100
AcDbLine
 10
405.9238515415595
 20
390.4128988410257
 30
0.0
 11
409.419450517495
 21
410.512592952655
 31
0.0
  0
LINE
  5
C90B
330
1F
100
AcDbEntity
  8
スラセ-AM_0
 48
0.15
100
AcDbLine
 10
366.6017942524076
 20
388.9985694284058
 30
0.0
 11
366.6017942524076
 21
389.9985694284057
 31
0.0
  0
LINE
  5
C90C
330
1F
100
AcDbEntity
  8
スラセ-AM_0
100
AcDbLine
 10
366.2723428406652
 20
389.9985694284057
 30
0.0
 11
405.4312456641496
 21
389.9985694284057
 31
0.0
  0
LINE
  5
C90D
330
1F
100
AcDbEntity
  8
スラセ-AM_0
 48
0.15
100
AcDbLine
 10
405.1017942524076
 20
389.9985694284057
 30
0.0
 11
405.1017942524076
 21
388.9985694284056
 31
0.0
  0
LINE
  5
C914
330
1F
100
AcDbEntity
  8
AM_11
100
AcDbLine
 10
321.0517902524076
 20
428.3985694284012
 30
0.0
 11
445.8517942524075
 21
428.3985694284012
 31
0.0
  0
LINE
  5
C915
330
1F
100
AcDbEntity
  8
AM_11
100
AcDbLine
 10
321.0517902524076
 20
451.5985694284013
 30
0.0
 11
445.8517942524075
 21
451.5985694284013
 31
0.0
  0
LINE
  5
C916
330
1F
100
AcDbEntity
  8
AM_11
100
AcDbLine
 10
445.8517942524075
 20
451.5985694284013
 30
0.0
 11
445.8517942524075
 21
428.3985694284012
 31
0.0
  0
LINE
  5
C925
330
1F
100
AcDbEntity
  8
AM_0
100
AcDbLine
 10
391.3517942524076
 20
459.9985694284014
 30
0.0
 11
391.3517942524076
 21
419.9985694284014
 31
0.0
  0
LINE
  5
C926
330
1F
100
AcDbEntity
  8
AM_0
100
AcDbLine
 10
380.3517942524075
 20
459.9985694284014
 30
0.0
 11
380.3517942524075
 21
419.9985694284014
 31
0.0
  0
LINE
  5
C931
330
1F
100
AcDbEntity
  8
AM_11
 48
0.15
100
AcDbLine
 10
318.8517942524076
 20
427.4985694284014
 30
0.0
 11
315.8517942524075
 21
427.4985694284014
 31
0.0
  0
LINE
  5
C932
330
1F
100
AcDbEntity
  8
AM_11
 48
0.2599997999999999
100
AcDbLine
 10
315.8517942524075
 20
452.4985694284014
 30
0.0
 11
321.0517902524076
 21
452.4985694284014
 31
0.0
  0
LINE
  5
C933
330
1F
100
AcDbEntity
  8
AM_11
 48
0.2599997999999999
100
AcDbLine
 10
315.8517942524075
 20
427.4985694284014
 30
0.0
 11
321.0517902524076
 21
427.4985694284014
 31
0.0
  0
LINE
  5
C934
330
1F
100
AcDbEntity
  8
AM_11
100
AcDbLine
 10
321.0517902524076
 20
452.4985694284014
 30
0.0
 11
321.0517902524076
 21
427.4985694284014
 31
0.0
  0
LINE
  5
C935
330
1F
100
AcDbEntity
  8
AM_11
100
AcDbLine
 10
315.8517942524075
 20
452.4985694284014
 30
0.0
 11
315.8517942524075
 21
427.4985694284014
 31
0.0
  0
LINE
  5
C936
330
1F
100
AcDbEntity
  8
AM_11
100
AcDbLine
 10
317.8517942524075
 20
452.4985694284014
 30
0.0
 11
317.8517942524075
 21
427.4985694284014
 31
0.0
  0
LINE
  5
C93A
330
1F
100
AcDbEntity
  8
AM_0
100
AcDbLine
 10
370.2910628043491
 20
519.036055019611
 30
0.0
 11
365.8517942524075
 21
490.9985694284012
 31
0.0
  0
ARC
  5
C93B
330
1F
100
AcDbEntity
  8
AM_0
100
AcDbCircle
 10
420.3086265472085
 20
486.9985694284012
 30
0.0
 40
15.0
100
AcDbArc
 50
90.0
 51
164.5339900465803
  0
ARC
  5
C93C
330
1F
100
AcDbEntity
  8
AM_0
100
AcDbCircle
 10
385.8517942524076
 20
463.858569428401
 30
0.0
 40
59.14002113628301
100
AcDbArc
 50
89.99998261593042
 51
102.9674124074037
  0
ARC
  5
C93D
330
1F
100
AcDbEntity
  8
AM_0
 48
0.3
100
AcDbCircle
 10
373.2541512203742
 20
518.5668993537401
 30
0.0
 40
3.0
100
AcDbArc
 50
102.9674124074037
 51
171.002856578937
1001
GENIUS_GENODEF_13
1002
{
1000
HIER
1070
     0
1002
}
1002
{
1000
MANEDIT
1070
     0
1002
}
1002
{
1000
NOSEL
1070
     0
1002
}
1002
{
1000
BEHIND
1070
     0
1002
}
1002
{
1000
OTHER
1070
     0
1002
}
1002
{
1000
REACTOR
1002
}
1001
GENIUS_GENOBJ-N-FIL_13
1002
{
1000
OWNER
1000
GEN
1002
}
  0
LINE
  5
C940
330
1F
100
AcDbEntity
  8
AM_0
100
AcDbLine
 10
523.8517985200251
 20
522.9985697303472
 30
0.0
 11
385.8518121960384
 21
522.9985905646812
 31
0.0
  0
LINE
  5
C941
102
{ACAD_REACTORS
330
C98B
102
}
330
1F
100
AcDbEntity
  8
AM_0
100
AcDbLine
 10
521.8517980671048
 20
501.9985696668186
 30
0.0
 11
420.3086265472082
 21
501.9985694284011
 31
0.0
  0
ARC
  5
C985
330
1F
100
AcDbEntity
  8
AM_0
 48
0.5000000000000014
100
AcDbCircle
 10
521.8517942524075
 20
506.9985694284
 30
0.0
 40
5.000000000000013
100
AcDbArc
 50
270.0
 51
0.0
  0
LINE
  5
C986
330
1F
100
AcDbEntity
  8
AM_0
 48
0.650000003176433
100
AcDbLine
 10
526.8517980671048
 20
519.9985697303473
 30
0.0
 11
526.8517980671048
 21
506.9985696668186
 31
0.0
  0
ARC
  5
C987
102
{ACAD_REACTORS
330
C98B
102
}
330
1F
100
AcDbEntity
  8
AM_0
 48
0.3
100
AcDbCircle
 10
523.8517980671048
 20
519.9985697303473
 30
0.0
 40
3.0
100
AcDbArc
 50
0.0
 51
89.99999134985856
1001
GENIUS_GENOBJ-N-FIL_13
1002
{
1000
OWNER
1000
GEN
1002
}
1001
GENIUS_GENODEF_13
1002
{
1000
HIER
1070
     0
1002
}
1002
{
1000
MANEDIT
1070
     0
1002
}
1002
{
1000
NOSEL
1070
     0
1002
}
1002
{
1000
BEHIND
1070
     0
1002
}
1002
{
1000
OTHER
1070
     0
1002
}
1002
{
1000
REACTOR
1002
}
  0
LINE
  5
C988
330
1F
100
AcDbEntity
  8
AM_0
 48
0.15
100
AcDbLine
 10
526.8517942524075
 20
519.78736946673
 30
0.0
 11
526.8517942524075
 21
519.9267726586765
 31
0.0
  0
DIMENSION
  5
C989
102
{ACAD_XDICTIONARY
360
C98A
102
}
102
{ACAD_REACTORS
330
C98B
102
}
330
1F
100
AcDbEntity
  8
AM_5
 48
1.01
100
AcDbDimension
  2
*D10
 10
550.8517767442432
 20
501.9985696668189
 30
0.0
 11
544.651776744243
 21
512.4985696985832
 31
0.0
 70
    32
 71
     5
 42
21.00000006352843
  3
SYS$0
100
AcDbAlignedDimension
 13
523.8517985200252
 23
522.9985697303472
 33
0.0
 14
521.851798067105
 24
501.9985696668189
 34
0.0
 50
269.9999913498585
100
AcDbRotatedDimension
1001
ACAD
1000
DSTYLE
1002
{
1070
    40
1040
2.0
1002
}
  0
DIMENSION
  5
C98C
330
1F
100
AcDbEntity
  8
AM_5
 48
1.01
100
AcDbDimension
  2
*D5
 10
550.8518773697595
 20
459.9985694284014
 30
0.0
 11
544.6518773697594
 21
480.99856954761
 31
0.0
 70
    32
 71
     5
 42
42.00000023841721
  3
SYS$0
100
AcDbAlignedDimension
 13
521.8517980671048
 23
501.9985696668186
 33
0.0
 14
526.8517980671048
 24
459.9985694284014
 34
0.0
 50
269.9999913498585
100
AcDbRotatedDimension
1001
ACAD
1000
DSTYLE
1002
{
1070
    40
1040
2.0
1070
   271
1070
     1
1002
}
  0
LINE
  5
C98D
330
1F
100
AcDbEntity
  8
AM_0
100
AcDbLine
 10
365.8517942524075
 20
490.9985694284012
 30
0.0
 11
392.1951171644114
 21
490.9985694283955
 31
0.0
  0
LINE
  5
C98E
330
1F
100
AcDbEntity
  8
AM_0
 48
0.6828338543998087
100
AcDbLine
 10
392.1951171644114
 20
490.9985694283955
 30
0.0
 11
405.8517942524075
 21
490.9985694284012
 31
0.0
  0
POLYLINE
  5
C98F
330
1F
100
AcDbEntity
  8
AM_0
 48
1.01
100
AcDb2dPolyline
 66
     1
 10
0.0
 20
0.0
 30
0.0
 70
   128
  0
VERTEX
  5
C990
330
C98F
100
AcDbEntity
  8
AM_0
 48
1.01
100
AcDbVertex
100
AcDb2dVertex
 10
397.5427327251553
 20
466.9985693091848
 30
0.0
  0
VERTEX
  5
C991
330
C98F
100
AcDbEntity
  8
AM_0
 48
1.01
100
AcDbVertex
100
AcDb2dVertex
 10
397.3707220649838
 20
466.9992917174795
 30
0.0
  0
VERTEX
  5
C992
330
C98F
100
AcDbEntity
  8
AM_0
 48
1.01
100
AcDbVertex
100
AcDb2dVertex
 10
397.1989820098995
 20
467.0012789363363
 30
0.0
  0
VERTEX
  5
C993
330
C98F
100
AcDbEntity
  8
AM_0
 48
1.01
100
AcDbVertex
100
AcDb2dVertex
 10
397.0276186561703
 20
467.0042567843893
 30
0.0
  0
VERTEX
  5
C994
330
C98F
100
AcDbEntity
  8
AM_0
 48
1.01
100
AcDbVertex
100
AcDb2dVertex
 10
396.8567345237851
 20
467.0079498881796
 30
0.0
  0
VERTEX
  5
C995
330
C98F
100
AcDbEntity
  8
AM_0
 48
1.01
100
AcDbVertex
100
AcDb2dVertex
 10
396.6864369011044
 20
467.0120834702948
 30
0.0
  0
VERTEX
  5
C996
330
C98F
100
AcDbEntity
  8
AM_0
 48
1.01
100
AcDbVertex
100
AcDb2dVertex
 10
396.5168295002102
 20
467.0163821572759
 30
0.0
  0
VERTEX
  5
C997
330
C98F
100
AcDbEntity
  8
AM_0
 48
1.01
100
AcDbVertex
100
AcDb2dVertex
 10
396.3480160331845
 20
467.0205723638036
 30
0.0
  0
VERTEX
  5
C998
330
C98F
100
AcDbEntity
  8
AM_0
 48
1.01
100
AcDbVertex
100
AcDb2dVertex
 10
396.1801025962948
 20
467.024378716419
 30
0.0
  0
VERTEX
  5
C999
330
C98F
100
AcDbEntity
  8
AM_0
 48
1.01
100
AcDbVertex
100
AcDb2dVertex
 10
396.0136077499508
 20
467.0275550479391
 30
0.0
  0
VERTEX
  5
C99A
330
C98F
100
AcDbEntity
  8
AM_0
 48
1.01
100
AcDbVertex
100
AcDb2dVertex
 10
395.8489123678326
 20
467.0299410218695
 30
0.0
  0
VERTEX
  5
C99B
330
C98F
100
AcDbEntity
  8
AM_0
 48
1.01
100
AcDbVertex
100
AcDb2dVertex
 10
395.686069498074
 20
467.0313971633413
 30
0.0
  0
VERTEX
  5
C99C
330
C98F
100
AcDbEntity
  8
AM_0
 48
1.01
100
AcDbVertex
100
AcDb2dVertex
 10
395.5255231952786
 20
467.0318412179449
 30
0.0
  0
VERTEX
  5
C99D
330
C98F
100
AcDbEntity
  8
AM_0
 48
1.01
100
AcDbVertex
100
AcDb2dVertex
 10
395.3674987650036
 20
467.0312541121939
 30
0.0
  0
VERTEX
  5
C99E
330
C98F
100
AcDbEntity
  8
AM_0
 48
1.01
100
AcDbVertex
100
AcDb2dVertex
 10
395.2121511793255
 20
467.0296769732929
 30
0.0
  0
VERTEX
  5
C99F
330
C98F
100
AcDbEntity
  8
AM_0
 48
1.01
100
AcDbVertex
100
AcDb2dVertex
 10
395.0595281219601
 20
467.0272009963489
 30
0.0
  0
VERTEX
  5
C9A0
330
C98F
100
AcDbEntity
  8
AM_0
 48
1.01
100
AcDbVertex
100
AcDb2dVertex
 10
394.9097911214947
 20
467.023982345531
 30
0.0
  0
VERTEX
  5
C9A1
330
C98F
100
AcDbEntity
  8
AM_0
 48
1.01
100
AcDbVertex
100
AcDb2dVertex
 10
394.7626862621426
 20
467.0202057952381
 30
0.0
  0
VERTEX
  5
C9A2
330
C98F
100
AcDbEntity
  8
AM_0
 48
1.01
100
AcDbVertex
100
AcDb2dVertex
 10
394.6181402301907
 20
467.0160716170764
 30
0.0
  0
VERTEX
  5
C9A3
330
C98F
100
AcDbEntity
  8
AM_0
 48
1.01
100
AcDbVertex
100
AcDb2dVertex
 10
394.4763467407345
 20
467.0118390912509
 30
0.0
  0
VERTEX
  5
C9A4
330
C98F
100
AcDbEntity
  8
AM_0
 48
1.01
100
AcDbVertex
100
AcDb2dVertex
 10
394.3372074461102
 20
467.0077752465702
 30
0.0
  0
VERTEX
  5
C9A5
330
C98F
100
AcDbEntity
  8
AM_0
 48
1.01
100
AcDbVertex
100
AcDb2dVertex
 10
394.2006156540036
 20
467.004148899982
 30
0.0
  0
VERTEX
  5
C9A6
330
C98F
100
AcDbEntity
  8
AM_0
 48
1.01
100
AcDbVertex
100
AcDb2dVertex
 10
394.0664634800076
 20
467.0012270802949
 30
0.0
  0
VERTEX
  5
C9A7
330
C98F
100
AcDbEntity
  8
AM_0
 48
1.01
100
AcDbVertex
100
AcDb2dVertex
 10
393.9346448278546
 20
466.9992780084108
 30
0.0
  0
VERTEX
  5
C9A8
330
C98F
100
AcDbEntity
  8
AM_0
 48
1.01
100
AcDbVertex
100
AcDb2dVertex
 10
393.805051217091
 20
466.9985699052308
 30
0.0
  0
SEQEND
  5
C9A9
330
C98F
100
AcDbEntity
  8
AM_0
 48
1.01
  0
POLYLINE
  5
C9AA
330
1F
100
AcDbEntity
  8
AM_0
 48
1.01
100
AcDb2dPolyline
 66
     1
 10
0.0
 20
0.0
 30
0.0
 70
   128
  0
VERTEX
  5
C9AB
330
C9AA
100
AcDbEntity
  8
AM_0
 48
1.01
100
AcDbVertex
100
AcDb2dVertex
 10
359.460483560574
 20
466.9985800380272
 30
0.0
  0
VERTEX
  5
C9AC
330
C9AA
100
AcDbEntity
  8
AM_0
 48
1.01
100
AcDbVertex
100
AcDb2dVertex
 10
359.5121059513211
 20
466.9992422456307
 30
0.0
  0
VERTEX
  5
C9AD
330
C9AA
100
AcDbEntity
  8
AM_0
 48
1.01
100
AcDbVertex
100
AcDb2dVertex
 10
359.562383661282
 20
467.0011221761269
 30
0.0
  0
VERTEX
  5
C9AE
330
C9AA
100
AcDbEntity
  8
AM_0
 48
1.01
100
AcDbVertex
100
AcDb2dVertex
 10
359.6112403965115
 20
467.0041036004586
 30
0.0
  0
VERTEX
  5
C9AF
330
C9AA
100
AcDbEntity
  8
AM_0
 48
1.01
100
AcDbVertex
100
AcDb2dVertex
 10
359.6586022472501
 20
467.0080726737542
 30
0.0
  0
VERTEX
  5
C9B0
330
C9AA
100
AcDbEntity
  8
AM_0
 48
1.01
100
AcDbVertex
100
AcDb2dVertex
 10
359.7043881511807
 20
467.0129137630028
 30
0.0
  0
VERTEX
  5
C9B1
330
C9AA
100
AcDbEntity
  8
AM_0
 48
1.01
100
AcDbVertex
100
AcDb2dVertex
 10
359.7485218143582
 20
467.0185124272868
 30
0.0
  0
VERTEX
  5
C9B2
330
C9AA
100
AcDbEntity
  8
AM_0
 48
1.01
100
AcDbVertex
100
AcDb2dVertex
 10
359.7909269428372
 20
467.0247524375484
 30
0.0
  0
VERTEX
  5
C9B3
330
C9AA
100
AcDbEntity
  8
AM_0
 48
1.01
100
AcDbVertex
100
AcDb2dVertex
 10
359.8315272426724
 20
467.0315199489161
 30
0.0
  0
VERTEX
  5
C9B4
330
C9AA
100
AcDbEntity
  8
AM_0
 48
1.01
100
AcDbVertex
100
AcDb2dVertex
 10
359.8702440357327
 20
467.0386999244258
 30
0.0
  0
VERTEX
  5
C9B5
330
C9AA
100
AcDbEntity
  8
AM_0
 48
1.01
100
AcDbVertex
100
AcDb2dVertex
 10
359.9070010280728
 20
467.0461767310664
 30
0.0
  0
VERTEX
  5
C9B6
330
C9AA
100
AcDbEntity
  8
AM_0
 48
1.01
100
AcDbVertex
100
AcDb2dVertex
 10
359.9417195415615
 20
467.0538353318736
 30
0.0
  0
VERTEX
  5
C9B7
330
C9AA
100
AcDbEntity
  8
AM_0
 48
1.01
100
AcDbVertex
100
AcDb2dVertex
 10
359.9743256664395
 20
467.0615612859296
 30
0.0
  0
VERTEX
  5
C9B8
330
C9AA
100
AcDbEntity
  8
AM_0
 48
1.01
100
AcDbVertex
100
AcDb2dVertex
 10
360.0047383403897
 20
467.0692389602232
 30
0.0
  0
VERTEX
  5
C9B9
330
C9AA
100
AcDbEntity
  8
AM_0
 48
1.01
100
AcDbVertex
100
AcDb2dVertex
 10
360.0328836536526
 20
467.0767539138364
 30
0.0
  0
VERTEX
  5
C9BA
330
C9AA
100
AcDbEntity
  8
AM_0
 48
1.01
100
AcDbVertex
100
AcDb2dVertex
 10
360.0586829280972
 20
467.0839905137586
 30
0.0
  0
VERTEX
  5
C9BB
330
C9AA
100
AcDbEntity
  8
AM_0
 48
1.01
100
AcDbVertex
100
AcDb2dVertex
 10
360.0820598697781
 20
467.0908343190717
 30
0.0
  0
VERTEX
  5
C9BC
330
C9AA
100
AcDbEntity
  8
AM_0
 48
1.01
100
AcDbVertex
100
AcDb2dVertex
 10
360.10293818475
 20
467.0971696967649
 30
0.0
  0
VERTEX
  5
C9BD
330
C9AA
100
AcDbEntity
  8
AM_0
 48
1.01
100
AcDbVertex
100
AcDb2dVertex
 10
360.1212368106961
 20
467.1028822059201
 30
0.0
  0
VERTEX
  5
C9BE
330
C9AA
100
AcDbEntity
  8
AM_0
 48
1.01
100
AcDbVertex
100
AcDb2dVertex
 10
360.1368866062283
 20
467.107880651431
 30
0.0
  0
VERTEX
  5
C9BF
330
C9AA
100
AcDbEntity
  8
AM_0
 48
1.01
100
AcDbVertex
100
AcDb2dVertex
 10
360.1498184299588
 20
467.1121018523742
 30
0.0
  0
VERTEX
  5
C9C0
330
C9AA
100
AcDbEntity
  8
AM_0
 48
1.01
100
AcDbVertex
100
AcDb2dVertex
 10
360.1599750614285
 20
467.1154772634078
 30
0.0
  0
VERTEX
  5
C9C1
330
C9AA
100
AcDbEntity
  8
AM_0
 48
1.01
100
AcDbVertex
100
AcDb2dVertex
 10
360.1672873592495
 20
467.1179371470977
 30
0.0
  0
VERTEX
  5
C9C2
330
C9AA
100
AcDbEntity
  8
AM_0
 48
1.01
100
AcDbVertex
100
AcDb2dVertex
 10
360.171686182034
 20
467.1194302434494
 30
0.0
  0
VERTEX
  5
C9C3
330
C9AA
100
AcDbEntity
  8
AM_0
 48
1.01
100
AcDbVertex
100
AcDb2dVertex
 10
360.1731548404812
 20
467.1199303264191
 30
0.0
  0
SEQEND
  5
C9C4
330
C9AA
100
AcDbEntity
  8
AM_0
 48
1.01
  0
ARC
  5
C9C5
330
1F
100
AcDbEntity
  8
AM_0
 48
0.3
100
AcDbCircle
 10
412.375085781954
 20
469.9985694284012
 30
0.0
 40
2.999999999999997
100
AcDbArc
 50
189.8658069430819
 51
270.0
  0
ARC
  5
C9C6
330
1F
100
AcDbEntity
  8
AM_0
 48
0.3
100
AcDbCircle
 10
359.3285027228609
 20
469.9985694284012
 30
0.0
 40
2.999999999999997
100
AcDbArc
 50
286.3527875974913
 51
350.134193056918
  0
LINE
  5
C9C7
330
1F
100
AcDbEntity
  8
AM_0
100
AcDbLine
 10
424.2555629032364
 20
466.9985694284012
 30
0.0
 11
347.4480256015786
 21
466.9985694284012
 31
0.0
  0
LINE
  5
C9C8
330
1F
100
AcDbEntity
  8
AM_0
100
AcDbLine
 10
425.8517942524074
 20
459.9985694284011
 30
0.0
 11
345.8517942524076
 21
459.9985694284011
 31
0.0
  0
LINE
  5
C9C9
330
1F
100
AcDbEntity
  8
AM_0
 48
0.2763510200816932
100
AcDbLine
 10
345.948254058844
 20
465.5247480380571
 30
0.0
 11
345.8517942524076
 21
459.9985694284011
 31
0.0
  0
ARC
  5
C9CA
330
1F
100
AcDbEntity
  8
AM_0
 48
0.3
100
AcDbCircle
 10
347.4480256015786
 20
465.4985694284012
 30
0.0
 40
1.5
100
AcDbArc
 50
90.0
 51
179.0000000000047
1001
GENIUS_GENOBJ-N-FIL_13
1002
{
1000
OWNER
1000
GEN
1002
}
1001
GENIUS_GENODEF_13
1002
{
1000
HIER
1070
     0
1002
}
1002
{
1000
MANEDIT
1070
     0
1002
}
1002
{
1000
NOSEL
1070
     0
1002
}
1002
{
1000
BEHIND
1070
     0
1002
}
1002
{
1000
OTHER
1070
     0
1002
}
1002
{
1000
REACTOR
1002
}
  0
LINE
  5
C9CB
330
1F
100
AcDbEntity
  8
AM_0
 48
0.2763510200816932
100
AcDbLine
 10
425.755334445971
 20
465.5247480380571
 30
0.0
 11
425.8517942524074
 21
459.9985694284011
 31
0.0
  0
ARC
  5
C9CC
330
1F
100
AcDbEntity
  8
AM_0
 48
0.3
100
AcDbCircle
 10
424.2555629032364
 20
465.4985694284012
 30
0.0
 40
1.5
100
AcDbArc
 50
1.000000000001776
 51
90.0
1001
GENIUS_GENODEF_13
1002
{
1000
HIER
1070
     0
1002
}
1002
{
1000
MANEDIT
1070
     0
1002
}
1002
{
1000
NOSEL
1070
     0
1002
}
1002
{
1000
BEHIND
1070
     0
1002
}
1002
{
1000
OTHER
1070
     0
1002
}
1002
{
1000
REACTOR
1002
}
1001
GENIUS_GENOBJ-N-FIL_13
1002
{
1000
OWNER
1000
GEN
1002
}
  0
ARC
  5
C9CD
330
1F
100
AcDbEntity
  8
AM_0
 48
0.3
100
AcDbCircle
 10
366.2723428406652
 20
489.4985694284011
 30
0.0
 40
0.4999999999999999
100
AcDbArc
 50
90.0
 51
170.134193056918
  0
ARC
  5
C9CE
330
1F
100
AcDbEntity
  8
AM_0
 48
0.3
100
AcDbCircle
 10
405.4312456641496
 20
489.4985694284011
 30
0.0
 40
0.4999999999999997
100
AcDbArc
 50
9.865806943081942
 51
90.0
  0
LINE
  5
C9CF
330
1F
100
AcDbEntity
  8
AM_0
100
AcDbLine
 10
365.7797369632555
 20
489.5842400157769
 30
0.0
 11
362.2841379873199
 21
469.4845459041475
 31
0.0
  0
LINE
  5
C9D0
330
1F
100
AcDbEntity
  8
AM_0
100
AcDbLine
 10
405.9238515415595
 20
489.5842400157769
 30
0.0
 11
409.419450517495
 21
469.4845459041475
 31
0.0
  0
LINE
  5
C9D1
330
1F
100
AcDbEntity
  8
スラセ-AM_0
 48
0.15
100
AcDbLine
 10
366.6017942524076
 20
490.9985694283968
 30
0.0
 11
366.6017942524076
 21
489.9985694283969
 31
0.0
  0
LINE
  5
C9D2
330
1F
100
AcDbEntity
  8
スラセ-AM_0
100
AcDbLine
 10
366.2723428406652
 20
489.9985694283969
 30
0.0
 11
405.4312456641496
 21
489.9985694283969
 31
0.0
  0
LINE
  5
C9D3
330
1F
100
AcDbEntity
  8
スラセ-AM_0
 48
0.15
100
AcDbLine
 10
405.1017942524076
 20
489.9985694283969
 30
0.0
 11
405.1017942524076
 21
490.9985694283968
 31
0.0
  0
DIMENSION
  5
C9D4
330
1F
100
AcDbEntity
  8
AM_5
 48
1.01
100
AcDbDimension
  2
*D6
 10
550.8517187644497
 20
459.9985694284014
 30
0.0
 11
544.6517187644495
 21
439.9985694284015
 31
0.0
 70
    32
  1
Dt
 71
     5
 42
40.0
  3
SYS$0
100
AcDbAlignedDimension
 13
526.8517980671048
 23
419.9985694284014
 33
0.0
 14
526.8517980671048
 24
459.9985694284014
 34
0.0
 50
90.0
100
AcDbRotatedDimension
1001
ACAD
1000
DSTYLE
1002
{
1070
    40
1040
2.0
1002
}
  0
INSERT
  5
C9D6
330
1F
100
AcDbEntity
  8
AM_5
100
AcDbBlockReference
  2
*S26
 10
0.0
 20
0.0
 30
0.0
  0
DIMENSION
  5
C9D7
330
1F
100
AcDbEntity
  8
AM_5
 48
1.01
100
AcDbDimension
  2
*D7
 10
449.8517942524074
 20
412.9985694284014
 30
0.0
 11
443.6517942524073
 21
404.5052360950681
 31
0.0
 70
    32
 71
     5
 42
7.0
  3
SYS$0
100
AcDbAlignedDimension
 13
425.8517942524074
 23
419.9985694284014
 33
0.0
 14
424.2555629032364
 24
412.9985694284014
 34
0.0
 50
90.0
100
AcDbRotatedDimension
1001
ACAD
1000
DSTYLE
1002
{
1070
    40
1040
2.0
1070
    75
1070
     1
1002
}
  0
DIMENSION
  5
C9D8
330
1F
100
AcDbEntity
  8
AM_5
 48
1.01
100
AcDbDimension
  2
*D8
 10
391.3517942524076
 20
433.5148771499625
 30
0.0
 11
402.0477942524076
 21
433.5148771499625
 31
0.0
 70
   160
  1
ロ<>
 71
     5
 42
11.0
  3
SYS$0
100
AcDbAlignedDimension
 13
380.3517942524075
 23
451.5985694284013
 33
0.0
 14
391.3517942524076
 24
451.5985694284013
 34
0.0
100
AcDbRotatedDimension
1001
ACAD
1000
DSTYLE
1002
{
1070
    40
1040
2.0
1070
    75
1070
     1
1070
    76
1070
     1
1002
}
  0
MTEXT
  5
CA88
330
1F
100
AcDbEntity
  8
AM_6
 48
1.01
100
AcDbMText
 10
704.1141895207076
 20
577.4555350982654
 30
0.0
 40
8.0
 41
35.56793868559998
 71
     5
 72
     5
  1
品　番
 73
     1
 44
1.0
1001
ACAD
1000
MTEXTBEGIN
1070
    73
1070
     1
1070
    44
1040
1.0
1070
    74
1070
     0
1000
MTEXTEND
1000
ACAD_MTEXT_DEFINED_HEIGHT_BEGIN
1070
    46
1040
41.64878929243696
1000
ACAD_MTEXT_DEFINED_HEIGHT_END
  0
MTEXT
  5
CA89
330
1F
100
AcDbEntity
  8
AM_6
 48
1.01
100
AcDbMText
 10
721.8981588635075
 20
591.3384648624112
 30
0.0
 40
8.0
 41
127.2033993262921
 71
     4
 72
     5
  1
　H86V
 73
     1
 44
1.0
1001
ACAD
1000
MTEXTBEGIN
1070
    73
1070
     1
1070
    44
1040
1.0
1070
    74
1070
     0
1000
MTEXTEND
1000
ACAD_MTEXT_DEFINED_HEIGHT_BEGIN
1070
    46
1040
13.8829297641455
1000
ACAD_MTEXT_DEFINED_HEIGHT_END
  0
MTEXT
  5
CA8A
330
1F
100
AcDbEntity
  8
AM_6
 48
1.01
100
AcDbMText
 10
704.1141895207076
 20
549.6896755699743
 30
0.0
 40
8.0
 41
35.56793868559998
 71
     5
 72
     5
  1
材　質
 73
     1
 44
1.0
1001
ACAD
1000
MTEXTBEGIN
1070
    73
1070
     1
1070
    44
1040
1.0
1070
    74
1070
     0
1000
MTEXTEND
1000
ACAD_MTEXT_DEFINED_HEIGHT_BEGIN
1070
    46
1040
13.8829297641455
1000
ACAD_MTEXT_DEFINED_HEIGHT_END
  0
LWPOLYLINE
  5
CA91
330
1F
100
AcDbEntity
  8
AM_0
 48
1.01
100
AcDbPolyline
 90
        4
 70
     1
 43
0.0
 10
686.3302201779076
 20
598.279929744484
 10
889.1015581897997
 20
598.279929744484
 10
889.1015581897997
 20
514.9823511596105
 10
686.3302201779076
 20
514.9823511596105
1001
GENIUS_GENREC_14
1002
{
1000
PYDIR
1011
686.3302201779076
1021
514.9823511596105
1031
0.0
1002
}
1002
{
1000
PXDIR
1011
889.1015581897997
1021
598.279929744484
1031
0.0
1002
}
1002
{
1000
PORI
1011
686.3302201779076
1021
598.279929744484
1031
0.0
1002
}
1002
{
1000
PINS
1011
686.3302201779076
1021
598.279929744484
1031
0.0
1002
}
1002
{
1000
PINS2
1011
889.1015581897997
1021
514.9823511596105
1031
0.0
1002
}
1002
{
1000
C
1070
     1
1002
}
1001
GENIUS_GENOBJ-N-REC_13
1002
{
1000
OWNER
1000
GEN
1002
}
1001
GENIUS_GENODEF_13
1002
{
1000
HIER
1070
     0
1002
}
1002
{
1000
MANEDIT
1070
     0
1002
}
1002
{
1000
NOSEL
1070
     0
1002
}
1002
{
1000
BEHIND
1070
     0
1002
}
1002
{
1000
OTHER
1070
     0
1002
}
1002
{
1000
REACTOR
1002
}
  0
LINE
  5
CA92
330
1F
100
AcDbEntity
  8
AM_0
100
AcDbLine
 10
721.8981588635075
 20
598.279929744484
 30
0.0
 11
721.8981588635075
 21
514.9823511596105
 31
0.0
  0
LINE
  5
CA93
330
1F
100
AcDbEntity
  8
AM_0
100
AcDbLine
 10
721.8981588635075
 20
584.3969999803384
 30
0.0
 11
889.1015581897997
 21
584.3969999803384
 31
0.0
  0
LINE
  5
CA95
330
1F
100
AcDbEntity
  8
AM_0
100
AcDbLine
 10
721.8981588635075
 20
570.5140702161927
 30
0.0
 11
889.1015581897997
 21
570.5140702161927
 31
0.0
  0
LINE
  5
CA96
330
1F
100
AcDbEntity
  8
AM_0
100
AcDbLine
 10
889.1015581897997
 20
556.631140452047
 30
0.0
 11
686.3302201779076
 21
556.631140452047
 31
0.0
  0
LINE
  5
CA97
330
1F
100
AcDbEntity
  8
AM_0
100
AcDbLine
 10
686.3302201779076
 20
542.7482106879015
 30
0.0
 11
889.1015581897997
 21
542.7482106879015
 31
0.0
  0
TEXT
  5
CA98
330
1F
100
AcDbEntity
  8
AM_6
 48
1.01
 60
     1
100
AcDbText
 10
902.9844879539449
 20
52.16285950862948
 30
0.0
 40
5.0
  1
!GENTITLE-INSERT
100
AcDbText
  0
TEXT
  5
CA99
330
1F
100
AcDbEntity
  8
AM_6
 48
1.01
 60
     1
100
AcDbText
 10
85.98448795394507
 20
35.16285950862948
 30
0.0
 40
5.0
  1
!GENTITLE-LL
100
AcDbText
  0
TEXT
  5
CA9A
330
1F
100
AcDbEntity
  8
AM_6
 48
1.01
 60
     1
100
AcDbText
 10
925.984487953945
 20
629.1628595086295
 30
0.0
 40
5.0
  1
!GENTITLE-RU
100
AcDbText
  0
TEXT
  5
CA9B
330
1F
100
AcDbEntity
  8
AM_6
 48
1.01
 60
     1
100
AcDbText
 10
925.984487953945
 20
629.1628595086295
 30
0.0
 40
5.0
  1
!GENTITLE-MAX
100
AcDbText
  0
LINE
  5
CA9E
330
1F
100
AcDbEntity
  8
size
100
AcDbLine
 10
85.98448795394507
 20
35.16285950862948
 30
0.0
 11
925.984487953945
 21
35.16285950862948
 31
0.0
1001
GENIUS_GENREC_14
1002
{
1000
PYDIR
1011
85.98448795394508
1021
629.1628595086295
1031
0.0
1002
}
1002
{
1000
PXDIR
1011
925.984487953945
1021
35.16285950862948
1031
0.0
1002
}
1002
{
1000
PORI
1011
85.98448795394507
1021
35.16285950862948
1031
0.0
1002
}
1002
{
1000
PINS
1011
505.9844879539451
1021
332.1628595086294
1031
0.0
1002
}
1002
{
1000
HVAL
1000
297
1002
}
1002
{
1000
H
1070
     2
1002
}
1002
{
1000
WVAL
1000
420
1002
}
1002
{
1000
W
1070
     2
1002
}
1002
{
1000
C
1070
     4
1002
}
1001
GENIUS_GENOBJ-N-REC_13
1002
{
1000
OWNER
1000
GEN
1002
}
1001
GENIUS_GENODEF_13
1002
{
1000
HIER
1070
     0
1002
}
1002
{
1000
MANEDIT
1070
     0
1002
}
1002
{
1000
NOSEL
1070
     0
1002
}
1002
{
1000
BEHIND
1070
     0
1002
}
1002
{
1000
OTHER
1070
     0
1002
}
1002
{
1000
REACTOR
1002
}
  0
LINE
  5
CA9F
330
1F
100
AcDbEntity
  8
size
100
AcDbLine
 10
925.984487953945
 20
35.16285950862948
 30
0.0
 11
925.984487953945
 21
629.1628595086295
 31
0.0
1001
GENIUS_GENREC_14
1002
{
1000
PYDIR
1011
85.98448795394508
1021
629.1628595086295
1031
0.0
1002
}
1002
{
1000
PXDIR
1011
925.984487953945
1021
35.16285950862948
1031
0.0
1002
}
1002
{
1000
PORI
1011
85.98448795394507
1021
35.16285950862948
1031
0.0
1002
}
1002
{
1000
PINS
1011
505.9844879539451
1021
332.1628595086294
1031
0.0
1002
}
1002
{
1000
HVAL
1000
297
1002
}
1002
{
1000
H
1070
     2
1002
}
1002
{
1000
WVAL
1000
420
1002
}
1002
{
1000
W
1070
     2
1002
}
1002
{
1000
C
1070
     4
1002
}
1001
GENIUS_GENOBJ-N-REC_13
1002
{
1000
OWNER
1000
GEN
1002
}
1001
GENIUS_GENODEF_13
1002
{
1000
HIER
1070
     0
1002
}
1002
{
1000
MANEDIT
1070
     0
1002
}
1002
{
1000
NOSEL
1070
     0
1002
}
1002
{
1000
BEHIND
1070
     0
1002
}
1002
{
1000
OTHER
1070
     0
1002
}
1002
{
1000
REACTOR
1002
}
  0
LINE
  5
CAA0
330
1F
100
AcDbEntity
  8
size
100
AcDbLine
 10
925.984487953945
 20
629.1628595086295
 30
0.0
 11
85.98448795394512
 21
629.1628595086295
 31
0.0
1001
GENIUS_GENREC_14
1002
{
1000
PYDIR
1011
85.98448795394508
1021
629.1628595086295
1031
0.0
1002
}
1002
{
1000
PXDIR
1011
925.984487953945
1021
35.16285950862948
1031
0.0
1002
}
1002
{
1000
PORI
1011
85.98448795394507
1021
35.16285950862948
1031
0.0
1002
}
1002
{
1000
PINS
1011
505.9844879539451
1021
332.1628595086294
1031
0.0
1002
}
1002
{
1000
HVAL
1000
297
1002
}
1002
{
1000
H
1070
     2
1002
}
1002
{
1000
WVAL
1000
420
1002
}
1002
{
1000
W
1070
     2
1002
}
1002
{
1000
C
1070
     4
1002
}
1001
GENIUS_GENOBJ-N-REC_13
1002
{
1000
OWNER
1000
GEN
1002
}
1001
GENIUS_GENODEF_13
1002
{
1000
HIER
1070
     0
1002
}
1002
{
1000
MANEDIT
1070
     0
1002
}
1002
{
1000
NOSEL
1070
     0
1002
}
1002
{
1000
BEHIND
1070
     0
1002
}
1002
{
1000
OTHER
1070
     0
1002
}
1002
{
1000
REACTOR
1002
}
  0
LINE
  5
CAA1
330
1F
100
AcDbEntity
  8
size
100
AcDbLine
 10
85.98448795394512
 20
629.1628595086295
 30
0.0
 11
85.98448795394507
 21
35.16285950862948
 31
0.0
1001
GENIUS_GENREC_14
1002
{
1000
PYDIR
1011
85.98448795394508
1021
629.1628595086295
1031
0.0
1002
}
1002
{
1000
PXDIR
1011
925.984487953945
1021
35.16285950862948
1031
0.0
1002
}
1002
{
1000
PORI
1011
85.98448795394507
1021
35.16285950862948
1031
0.0
1002
}
1002
{
1000
PINS
1011
505.9844879539451
1021
332.1628595086294
1031
0.0
1002
}
1002
{
1000
HVAL
1000
297
1002
}
1002
{
1000
H
1070
     2
1002
}
1002
{
1000
WVAL
1000
420
1002
}
1002
{
1000
W
1070
     2
1002
}
1002
{
1000
C
1070
     4
1002
}
1001
GENIUS_GENOBJ-N-REC_13
1002
{
1000
OWNER
1000
GEN
1002
}
1001
GENIUS_GENODEF_13
1002
{
1000
HIER
1070
     0
1002
}
1002
{
1000
MANEDIT
1070
     0
1002
}
1002
{
1000
NOSEL
1070
     0
1002
}
1002
{
1000
BEHIND
1070
     0
1002
}
1002
{
1000
OTHER
1070
     0
1002
}
1002
{
1000
REACTOR
1002
}
  0
LINE
  5
CAA2
330
1F
100
AcDbEntity
  8
waku
100
AcDbLine
 10
902.9844879539449
 20
52.16285950862948
 30
0.0
 11
902.9844879539451
 21
612.1628595086295
 31
0.0
1001
GENIUS_GENREC_14
1002
{
1000
PYDIR
1011
85.98448795394508
1021
629.1628595086295
1031
0.0
1002
}
1002
{
1000
PXDIR
1011
925.984487953945
1021
35.16285950862948
1031
0.0
1002
}
1002
{
1000
PORI
1011
85.98448795394507
1021
35.16285950862948
1031
0.0
1002
}
1002
{
1000
PINS
1011
505.9844879539451
1021
332.1628595086294
1031
0.0
1002
}
1002
{
1000
HVAL
1000
297
1002
}
1002
{
1000
H
1070
     2
1002
}
1002
{
1000
WVAL
1000
420
1002
}
1002
{
1000
W
1070
     2
1002
}
1002
{
1000
C
1070
     4
1002
}
1001
GENIUS_GENOBJ-N-REC_13
1002
{
1000
OWNER
1000
GEN
1002
}
1001
GENIUS_GENODEF_13
1002
{
1000
HIER
1070
     0
1002
}
1002
{
1000
MANEDIT
1070
     0
1002
}
1002
{
1000
NOSEL
1070
     0
1002
}
1002
{
1000
BEHIND
1070
     0
1002
}
1002
{
1000
OTHER
1070
     0
1002
}
1002
{
1000
REACTOR
1002
}
  0
LINE
  5
CAA3
330
1F
100
AcDbEntity
  8
waku
100
AcDbLine
 10
108.9844879539451
 20
612.1628595086295
 30
0.0
 11
108.984487953945
 21
52.16285950862948
 31
0.0
1001
GENIUS_GENREC_14
1002
{
1000
PYDIR
1011
85.98448795394508
1021
629.1628595086295
1031
0.0
1002
}
1002
{
1000
PXDIR
1011
925.984487953945
1021
35.16285950862948
1031
0.0
1002
}
1002
{
1000
PORI
1011
85.98448795394507
1021
35.16285950862948
1031
0.0
1002
}
1002
{
1000
PINS
1011
505.9844879539451
1021
332.1628595086294
1031
0.0
1002
}
1002
{
1000
HVAL
1000
297
1002
}
1002
{
1000
H
1070
     2
1002
}
1002
{
1000
WVAL
1000
420
1002
}
1002
{
1000
W
1070
     2
1002
}
1002
{
1000
C
1070
     4
1002
}
1001
GENIUS_GENOBJ-N-REC_13
1002
{
1000
OWNER
1000
GEN
1002
}
1001
GENIUS_GENODEF_13
1002
{
1000
HIER
1070
     0
1002
}
1002
{
1000
MANEDIT
1070
     0
1002
}
1002
{
1000
NOSEL
1070
     0
1002
}
1002
{
1000
BEHIND
1070
     0
1002
}
1002
{
1000
OTHER
1070
     0
1002
}
1002
{
1000
REACTOR
1002
}
  0
LINE
  5
CAA4
330
1F
100
AcDbEntity
  8
waku
100
AcDbLine
 10
902.9844879539451
 20
612.1628595086295
 30
0.0
 11
108.9844879539451
 21
612.1628595086295
 31
0.0
1001
GENIUS_GENREC_14
1002
{
1000
PYDIR
1011
85.98448795394508
1021
629.1628595086295
1031
0.0
1002
}
1002
{
1000
PXDIR
1011
925.984487953945
1021
35.16285950862948
1031
0.0
1002
}
1002
{
1000
PORI
1011
85.98448795394507
1021
35.16285950862948
1031
0.0
1002
}
1002
{
1000
PINS
1011
505.9844879539451
1021
332.1628595086294
1031
0.0
1002
}
1002
{
1000
HVAL
1000
297
1002
}
1002
{
1000
H
1070
     2
1002
}
1002
{
1000
WVAL
1000
420
1002
}
1002
{
1000
W
1070
     2
1002
}
1002
{
1000
C
1070
     4
1002
}
1001
GENIUS_GENOBJ-N-REC_13
1002
{
1000
OWNER
1000
GEN
1002
}
1001
GENIUS_GENODEF_13
1002
{
1000
HIER
1070
     0
1002
}
1002
{
1000
MANEDIT
1070
     0
1002
}
1002
{
1000
NOSEL
1070
     0
1002
}
1002
{
1000
BEHIND
1070
     0
1002
}
1002
{
1000
OTHER
1070
     0
1002
}
1002
{
1000
REACTOR
1002
}
  0
TEXT
  5
CAA5
330
1F
100
AcDbEntity
  8
AM_6
 48
1.01
 60
     1
100
AcDbText
 10
85.98448795394507
 20
35.16285950862948
 30
0.0
 40
5.0
  1
!GENTITLE-LL
100
AcDbText
  0
TEXT
  5
CAA6
330
1F
100
AcDbEntity
  8
AM_6
 48
1.01
 60
     1
100
AcDbText
 10
902.9844879539451
 20
612.1628595086295
 30
0.0
 40
5.0
  1
!GENTITLE-RU
100
AcDbText
  0
TEXT
  5
CAA7
330
1F
100
AcDbEntity
  8
AM_6
 48
1.01
 60
     1
100
AcDbText
 10
925.984487953945
 20
629.1628595086295
 30
0.0
 40
5.0
  1
!GENTITLE-MAX
100
AcDbText
  0
TEXT
  5
CAA8
330
1F
100
AcDbEntity
  8
AM_6
 48
1.01
 60
     1
100
AcDbText
 10
902.9844879539449
 20
52.16285950862948
 30
0.0
 40
5.0
  1
!GENTITLE-INSERT
100
AcDbText
  0
LINE
  5
CAA9
330
1F
100
AcDbEntity
  8
waku
100
AcDbLine
 10
108.984487953945
 20
52.16285950862948
 30
0.0
 11
902.9844879539449
 21
52.16285950862948
 31
0.0
  0
LINE
  5
CB4C
330
1F
100
AcDbEntity
  8
AM_7
100
AcDbLine
 10
307.8517942524076
 20
439.9985694284014
 30
0.0
 11
393.463803529349
 21
439.9985694284014
 31
0.0
1001
GENIUS_GENOBJ-N-CEN_13
1002
{
1000
OWNER
1000
GEN
1002
}
1001
GENIUS_GENODEF_13
1002
{
1000
HIER
1070
     0
1002
}
1002
{
1000
MANEDIT
1070
     0
1002
}
1002
{
1000
NOSEL
1070
     0
1002
}
1002
{
1000
BEHIND
1070
     0
1002
}
1002
{
1000
OTHER
1070
     0
1002
}
1002
{
1000
REACTOR
1002
}
1001
GENIUS_GENCEN_19
1002
{
1040
8.0
1002
}
  0
LINE
  5
CB5F
330
1F
100
AcDbEntity
  8
AM_7
100
AcDbLine
 10
412.8131737297015
 20
439.9985694284013
 30
0.0
 11
534.8517980671048
 21
439.9985694284014
 31
0.0
1001
GENIUS_GENOBJ-N-CEN_13
1002
{
1000
OWNER
1000
GEN
1002
}
1001
GENIUS_GENODEF_13
1002
{
1000
HIER
1070
     0
1002
}
1002
{
1000
MANEDIT
1070
     0
1002
}
1002
{
1000
NOSEL
1070
     0
1002
}
1002
{
1000
BEHIND
1070
     0
1002
}
1002
{
1000
OTHER
1070
     0
1002
}
1002
{
1000
REACTOR
1002
}
1001
GENIUS_GENCEN_19
1002
{
1040
8.0
1002
}
  0
LINE
  5
CBB8
102
{ACAD_REACTORS
330
D776
102
}
330
1F
100
AcDbEntity
  8
AM_7
 48
0.5
100
AcDbLine
 10
397.8517942524076
 20
251.0257067708753
 30
0.0
 11
397.8517942524076
 21
279.4257067708753
 31
0.0
1001
GENIUS_GENODEF_13
1002
{
1000
HIER
1070
     0
1002
}
1002
{
1000
MANEDIT
1070
     0
1002
}
1002
{
1000
NOSEL
1070
     0
1002
}
1002
{
1000
BEHIND
1070
     0
1002
}
1002
{
1000
OTHER
1070
     0
1002
}
1002
{
1000
REACTOR
1002
}
1001
GENIUS_GENOBJ-N-CEN_13
1002
{
1000
OWNER
1000
GEN
1002
}
1001
GENIUS_GENCEN_19
1002
{
1040
8.0
1002
}
  0
LINE
  5
CBC5
102
{ACAD_REACTORS
330
CCD5
102
}
330
1F
100
AcDbEntity
  8
AM_7
 48
0.5
100
AcDbLine
 10
383.6517942524076
 20
265.2257067708753
 30
0.0
 11
412.0517942524075
 21
265.2257067708753
 31
0.0
1001
GENIUS_GENODEF_13
1002
{
1000
HIER
1070
     0
1002
}
1002
{
1000
MANEDIT
1070
     0
1002
}
1002
{
1000
NOSEL
1070
     0
1002
}
1002
{
1000
BEHIND
1070
     0
1002
}
1002
{
1000
OTHER
1070
     0
1002
}
1002
{
1000
REACTOR
1002
}
1001
GENIUS_GENOBJ-N-CEN_13
1002
{
1000
OWNER
1000
GEN
1002
}
1001
GENIUS_GENCEN_19
1002
{
1040
8.0
1002
}
  0
CIRCLE
  5
CC09
102
{ACAD_REACTORS
330
CC34
102
}
330
1F
100
AcDbEntity
  8
AM_0
100
AcDbCircle
 10
397.8517942524076
 20
265.2257067708753
 30
0.0
 40
6.199999999999988
  0
CIRCLE
  5
CC0A
330
1F
100
AcDbEntity
  8
AM_0
100
AcDbCircle
 10
397.8517942524076
 20
205.2257067708753
 30
0.0
 40
6.199999999999988
  0
CIRCLE
  5
CC0B
330
1F
100
AcDbEntity
  8
AM_0
100
AcDbCircle
 10
353.8517942524076
 20
235.2257067708753
 30
0.0
 40
6.199999999999988
  0
DIMENSION
  5
CC27
102
{ACAD_XDICTIONARY
360
CC33
102
}
102
{ACAD_REACTORS
330
CC34
102
}
330
1F
100
AcDbEntity
  8
AM_5
100
AcDbDimension
  2
*D12
 10
394.4196961138723
 20
260.062306499014
 30
0.0
 11
444.1219168675822
 21
285.9360706312763
 31
0.0
 70
   163
  1
3-%%c6.5×<>サラ
 71
     5
 42
12.39999999999964
  3
SYS$3
100
AcDbDiametricDimension
 15
401.2838923909431
 25
270.3891070427371
 35
0.0
 40
0.0
1001
ACAD
1000
DSTYLE
1002
{
1070
    40
1040
2.0
1070
   172
1070
     1
1070
   289
1070
     2
1070
   342
1005
CC50
1002
}
  0
DIMENSION
  5
CCC7
102
{ACAD_XDICTIONARY
360
CCD4
102
}
102
{ACAD_REACTORS
330
CCD5
102
}
330
1F
100
AcDbEntity
  8
AM_5
100
AcDbDimension
  2
*D14
 10
298.8517942524075
 20
205.2257067708754
 30
0.0
 11
292.6517942524075
 21
235.2257067708753
 31
0.0
 70
    32
 71
     5
 42
59.99999999999997
  3
SYS$0
100
AcDbAlignedDimension
 13
383.6517942524076
 23
265.2257067708753
 33
0.0
 14
383.6517942524076
 24
205.2257067708753
 34
0.0
 50
90.0
100
AcDbRotatedDimension
1001
ACAD
1000
DSTYLE
1002
{
1070
    40
1040
2.0
1002
}
  0
DIMENSION
  5
CCED
102
{ACAD_XDICTIONARY
360
CCFA
102
}
102
{ACAD_REACTORS
330
CCFB
102
}
330
1F
100
AcDbEntity
  8
AM_5
100
AcDbDimension
  2
*D15
 10
278.8517942524075
 20
275.2257067708754
 30
0.0
 11
272.6517942524075
 21
235.2257067708754
 31
0.0
 70
    32
  1
%%c<>
 71
     5
 42
80.00000000000003
  3
SYS$0
100
AcDbAlignedDimension
 13
385.8517942524076
 23
195.2257067708753
 33
0.0
 14
385.8517942524076
 24
275.2257067708753
 34
0.0
 50
90.0
100
AcDbRotatedDimension
1001
ACAD
1000
DSTYLE
1002
{
1070
    40
1040
2.0
1002
}
  0
MTEXT
  5
CD8C
330
1F
100
AcDbEntity
  8
AM_6
 48
1.01
100
AcDbMText
 10
721.8981588635075
 20
577.4555350982654
 30
0.0
 40
8.0
 41
127.2033993262921
 71
     4
 72
     5
  1
　H86V-4
 73
     1
 44
1.0
1001
ACAD
1000
MTEXTBEGIN
1070
    73
1070
     1
1070
    44
1040
1.0
1070
    74
1070
     0
1000
MTEXTEND
1000
ACAD_MTEXT_DEFINED_HEIGHT_BEGIN
1070
    46
1040
13.8829297641455
1000
ACAD_MTEXT_DEFINED_HEIGHT_END
  0
MTEXT
  5
CD8D
330
1F
100
AcDbEntity
  8
AM_6
 48
1.01
100
AcDbMText
 10
721.8981588635075
 20
563.5726053341198
 30
0.0
 40
8.0
 41
127.2033993262921
 71
     4
 72
     5
  1
　H86V-5
 73
     1
 44
1.0
1001
ACAD
1000
MTEXTBEGIN
1070
    73
1070
     1
1070
    44
1040
1.0
1070
    74
1070
     0
1000
MTEXTEND
1000
ACAD_MTEXT_DEFINED_HEIGHT_BEGIN
1070
    46
1040
13.8829297641455
1000
ACAD_MTEXT_DEFINED_HEIGHT_END
  0
MTEXT
  5
CD93
330
1F
100
AcDbEntity
  8
AM_6
 48
1.01
100
AcDbMText
 10
721.8981588635075
 20
549.6896755699743
 30
0.0
 40
8.0
 41
127.2033993262921
 71
     4
 72
     5
  1
　アルミダイキャスト
 73
     1
 44
1.0
1001
ACAD
1000
MTEXTBEGIN
1070
    73
1070
     1
1070
    44
1040
1.0
1070
    74
1070
     0
1000
MTEXTEND
1000
ACAD_MTEXT_DEFINED_HEIGHT_BEGIN
1070
    46
1040
13.8829297641455
1000
ACAD_MTEXT_DEFINED_HEIGHT_END
  0
MTEXT
  5
CD96
330
1F
100
AcDbEntity
  8
AM_6
 48
1.01
100
AcDbMText
 10
704.1141895207076
 20
528.865280923756
 30
0.0
 40
8.0
 41
35.56793868559998
 71
     5
 72
     5
  1
セット部品
 73
     1
 44
1.0
1001
ACAD
1000
MTEXTBEGIN
1070
    73
1070
     1
1070
    44
1040
1.0
1070
    74
1070
     0
1000
MTEXTEND
1000
ACAD_MTEXT_DEFINED_HEIGHT_BEGIN
1070
    46
1040
27.76585952829101
1000
ACAD_MTEXT_DEFINED_HEIGHT_END
  0
MTEXT
  5
CD97
330
1F
100
AcDbEntity
  8
AM_6
 48
1.01
100
AcDbMText
 10
721.8981588635075
 20
535.8067458058287
 30
0.0
 40
8.0
 41
239.6164415515587
 71
     4
 72
     5
  1
　M6×12丸サラ小ネジ　+ SUS 6本又は3本
 73
     1
 44
1.0
1001
ACAD
1000
MTEXTBEGIN
1070
    73
1070
     1
1070
    44
1040
1.0
1070
    74
1070
     0
1000
MTEXTEND
1000
ACAD_MTEXT_DEFINED_HEIGHT_BEGIN
1070
    46
1040
13.8829297641455
1000
ACAD_MTEXT_DEFINED_HEIGHT_END
  0
MTEXT
  5
CDEF
330
1F
100
AcDbEntity
  8
AM_6
 48
1.01
100
AcDbMText
 10
721.8981588635075
 20
521.9238160416832
 30
0.0
 40
8.0
 41
239.6164415515587
 71
     4
 72
     5
  1
　ロ11角芯
 73
     1
 44
1.0
1001
ACAD
1000
MTEXTBEGIN
1070
    73
1070
     1
1070
    44
1040
1.0
1070
    74
1070
     0
1000
MTEXTEND
1000
ACAD_MTEXT_DEFINED_HEIGHT_BEGIN
1070
    46
1040
13.8829297641455
1000
ACAD_MTEXT_DEFINED_HEIGHT_END
  0
LINE
  5
CDF2
330
1F
100
AcDbEntity
  8
AM_0
100
AcDbLine
 10
721.8981588635075
 20
528.8652809237556
 30
0.0
 11
889.1015581897997
 21
528.8652809237556
 31
0.0
  0
LINE
  5
D04C
102
{ACAD_REACTORS
330
D2F0
102
}
330
1F
100
AcDbEntity
  8
AM_7
 48
0.5
100
AcDbLine
 10
343.6746458872441
 20
373.9985694283658
 30
0.0
 11
376.7507870861241
 21
373.9985694283945
 31
0.0
1001
GENIUS_GENOBJ-N-CEN_13
1002
{
1000
OWNER
1000
GEN
1002
}
1001
GENIUS_GENODEF_13
1002
{
1000
HIER
1070
     0
1002
}
1002
{
1000
MANEDIT
1070
     0
1002
}
1002
{
1000
NOSEL
1070
     0
1002
}
1002
{
1000
BEHIND
1070
     0
1002
}
1002
{
1000
OTHER
1070
     0
1002
}
1002
{
1000
REACTOR
1002
}
1001
GENIUS_GENCEN_19
1002
{
1040
8.0
1002
}
  0
DIMENSION
  5
D05C
330
1F
100
AcDbEntity
  8
AM_5
100
AcDbDimension
  2
*D16
 10
303.8517942524076
 20
383.9951576585172
 30
0.0
 11
297.6517942524075
 21
401.9968635434593
 31
0.0
 70
    32
 71
     5
 42
36.00341176988422
  3
SYS$0
100
AcDbAlignedDimension
 13
317.3517942524076
 23
419.9985694284014
 33
0.0
 14
364.7397016285313
 24
383.9951576585172
 34
0.0
 50
90.00000000000003
100
AcDbRotatedDimension
1001
ACAD
1000
DSTYLE
1002
{
1070
    40
1040
2.0
1002
}
  0
ELLIPSE
  5
D26D
330
1F
100
AcDbEntity
  8
AM_0
100
AcDbEllipse
 10
360.1318794743173
 20
373.9985694283805
 30
0.0
 11
0.0000000000082062
 21
-9.000000000000001
 31
0.0
210
0.0
220
0.0
230
1.0
 40
0.9396926207859083
 41
3.59989683386162
 42
5.824881126905781
  0
POLYLINE
  5
D26E
330
1F
100
AcDbEntity
  8
AM_0
100
AcDb2dPolyline
 66
     1
 10
0.0
 20
0.0
 30
0.0
 70
   128
  0
VERTEX
  5
D26F
330
D26E
100
AcDbEntity
  8
AM_0
100
AcDbVertex
100
AcDb2dVertex
 10
356.3901631536728
 20
365.9273328179684
 30
0.0
  0
VERTEX
  5
D270
330
D26E
100
AcDbEntity
  8
AM_0
100
AcDbVertex
100
AcDb2dVertex
 10
357.0193232785939
 20
365.6148197049467
 30
0.0
  0
VERTEX
  5
D271
330
D26E
100
AcDbEntity
  8
AM_0
100
AcDbVertex
100
AcDb2dVertex
 10
357.6799199012169
 20
365.3224666709276
 30
0.0
  0
VERTEX
  5
D272
330
D26E
100
AcDbEntity
  8
AM_0
100
AcDbVertex
100
AcDb2dVertex
 10
358.3697741080227
 20
365.05302566236
 30
0.0
  0
VERTEX
  5
D273
330
D26E
100
AcDbEntity
  8
AM_0
100
AcDbVertex
100
AcDb2dVertex
 10
359.0867076485519
 20
364.8092504138328
 30
0.0
  0
VERTEX
  5
D274
330
D26E
100
AcDbEntity
  8
AM_0
100
AcDbVertex
100
AcDb2dVertex
 10
359.8284244947692
 20
364.5938875073771
 30
0.0
  0
VERTEX
  5
D275
330
D26E
100
AcDbEntity
  8
AM_0
100
AcDbVertex
100
AcDb2dVertex
 10
360.5917637392364
 20
364.4091542357786
 30
0.0
  0
VERTEX
  5
D276
330
D26E
100
AcDbEntity
  8
AM_0
100
AcDbVertex
100
AcDb2dVertex
 10
361.3732100133463
 20
364.256736814438
 30
0.0
  0
VERTEX
  5
D277
330
D26E
100
AcDbEntity
  8
AM_0
100
AcDbVertex
100
AcDb2dVertex
 10
362.169249425962
 20
364.1383035773624
 30
0.0
  0
VERTEX
  5
D278
330
D26E
100
AcDbEntity
  8
AM_0
100
AcDbVertex
100
AcDb2dVertex
 10
362.9763404335647
 20
364.055514513909
 30
0.0
  0
VERTEX
  5
D279
330
D26E
100
AcDbEntity
  8
AM_0
100
AcDbVertex
100
AcDb2dVertex
 10
363.7905376576916
 20
364.0094031686183
 30
0.0
  0
VERTEX
  5
D27A
330
D26E
100
AcDbEntity
  8
AM_0
100
AcDbVertex
100
AcDb2dVertex
 10
364.6077765850373
 20
364.0000464314817
 30
0.0
  0
VERTEX
  5
D27B
330
D26E
100
AcDbEntity
  8
AM_0
100
AcDbVertex
100
AcDb2dVertex
 10
365.424026134317
 20
364.0274454945922
 30
0.0
  0
VERTEX
  5
D27C
330
D26E
100
AcDbEntity
  8
AM_0
100
AcDbVertex
100
AcDb2dVertex
 10
366.2352547722532
 20
364.0915973777179
 30
0.0
  0
VERTEX
  5
D27D
330
D26E
100
AcDbEntity
  8
AM_0
100
AcDbVertex
100
AcDb2dVertex
 10
367.0374476784899
 20
364.1919823283561
 30
0.0
  0
VERTEX
  5
D27E
330
D26E
100
AcDbEntity
  8
AM_0
100
AcDbVertex
100
AcDb2dVertex
 10
367.8268565238477
 20
364.3271740073572
 30
0.0
  0
VERTEX
  5
D27F
330
D26E
100
AcDbEntity
  8
AM_0
100
AcDbVertex
100
AcDb2dVertex
 10
368.599825566622
 20
364.4957073325528
 30
0.0
  0
SEQEND
  5
D280
330
D26E
100
AcDbEntity
  8
AM_0
  0
POLYLINE
  5
D281
330
1F
100
AcDbEntity
  8
AM_0
100
AcDb2dPolyline
 66
     1
 10
0.0
 20
0.0
 30
0.0
  0
VERTEX
  5
D282
330
D281
100
AcDbEntity
  8
AM_0
100
AcDbVertex
100
AcDb2dVertex
 10
366.6663861425464
 20
383.853778543315
 30
0.0
  0
VERTEX
  5
D283
330
D281
100
AcDbEntity
  8
AM_0
100
AcDbVertex
100
AcDb2dVertex
 10
366.1371358635035
 20
383.9152916068439
 30
0.0
  0
VERTEX
  5
D284
330
D281
100
AcDbEntity
  8
AM_0
100
AcDbVertex
100
AcDb2dVertex
 10
365.4402988172246
 20
383.9687712783219
 30
0.0
  0
VERTEX
  5
D285
330
D281
100
AcDbEntity
  8
AM_0
100
AcDbVertex
100
AcDb2dVertex
 10
364.7397016285313
 20
383.9951576585172
 30
0.0
  0
VERTEX
  5
D286
330
D281
100
AcDbEntity
  8
AM_0
100
AcDbVertex
100
AcDb2dVertex
 10
364.0378955149361
 20
383.994449555337
 30
0.0
  0
VERTEX
  5
D287
330
D281
100
AcDbEntity
  8
AM_0
100
AcDbVertex
100
AcDb2dVertex
 10
363.3374316494205
 20
383.9666475648278
 30
0.0
  0
VERTEX
  5
D288
330
D281
100
AcDbEntity
  8
AM_0
100
AcDbVertex
100
AcDb2dVertex
 10
362.6408613004621
 20
383.9117516869894
 30
0.0
  0
VERTEX
  5
D289
330
D281
100
AcDbEntity
  8
AM_0
100
AcDbVertex
100
AcDb2dVertex
 10
361.9507882859732
 20
383.8299854392399
 30
0.0
  0
VERTEX
  5
D28A
330
D281
100
AcDbEntity
  8
AM_0
100
AcDbVertex
100
AcDb2dVertex
 10
361.2695889612103
 20
383.722272693573
 30
0.0
  0
VERTEX
  5
D28B
330
D281
100
AcDbEntity
  8
AM_0
100
AcDbVertex
100
AcDb2dVertex
 10
360.5994875348986
 20
383.5896696442945
 30
0.0
  0
VERTEX
  5
D28C
330
D281
100
AcDbEntity
  8
AM_0
100
AcDbVertex
100
AcDb2dVertex
 10
359.9427076299236
 20
383.4332342738491
 30
0.0
  0
VERTEX
  5
D28D
330
D281
100
AcDbEntity
  8
AM_0
100
AcDbVertex
100
AcDb2dVertex
 10
359.3014730349353
 20
383.2540215844491
 30
0.0
  0
VERTEX
  5
D28E
330
D281
100
AcDbEntity
  8
AM_0
100
AcDbVertex
100
AcDb2dVertex
 10
358.6779261356137
 20
383.0532945985174
 30
0.0
  0
VERTEX
  5
D28F
330
D281
100
AcDbEntity
  8
AM_0
100
AcDbVertex
100
AcDb2dVertex
 10
358.0736426916835
 20
382.8327669495914
 30
0.0
  0
VERTEX
  5
D290
330
D281
100
AcDbEntity
  8
AM_0
100
AcDbVertex
100
AcDb2dVertex
 10
357.4900019561851
 20
382.5941820735307
 30
0.0
  0
VERTEX
  5
D291
330
D281
100
AcDbEntity
  8
AM_0
100
AcDbVertex
100
AcDb2dVertex
 10
356.9283825458683
 20
382.3392810220091
 30
0.0
  0
VERTEX
  5
D292
330
D281
100
AcDbEntity
  8
AM_0
100
AcDbVertex
100
AcDb2dVertex
 10
356.3901631536728
 20
382.0698060387936
 30
0.0
  0
SEQEND
  5
D293
330
D281
100
AcDbEntity
  8
AM_0
  0
ELLIPSE
  5
D294
330
1F
100
AcDbEntity
  8
ハンドル-AM_0
100
AcDbEllipse
 10
368.7507870861241
 20
373.9985694283876
 30
0.0
 11
0.0000000000073302
 21
-9.0
 31
0.0
210
0.0
220
0.0
230
1.0
 40
0.9396926207859083
 41
3.485690779800229
 42
5.939087180967414
  0
LINE
  5
D295
330
1F
100
AcDbEntity
  8
ハンドル-AM_0
100
AcDbLine
 10
365.8977578692279
 20
382.4709901534241
 30
0.0
 11
366.8290928154042
 21
382.8261574515693
 31
0.0
  0
LINE
  5
D296
330
1F
100
AcDbEntity
  8
ハンドル-AM_0
100
AcDbLine
 10
365.8977578692279
 20
365.5261487033517
 30
0.0
 11
369.8041311154716
 21
364.0364418722011
 31
0.0
  0
DIMENSION
  5
D2E2
102
{ACAD_XDICTIONARY
360
D2EF
102
}
102
{ACAD_REACTORS
330
D2F0
102
}
330
1F
100
AcDbEntity
  8
AM_5
100
AcDbDimension
  2
*D17
 10
283.8517942524075
 20
373.9985694283658
 30
0.0
 11
277.6517942524074
 21
396.9985694283837
 31
0.0
 70
    32
 71
     5
 42
46.00000000003558
  3
SYS$0
100
AcDbAlignedDimension
 13
317.3517942524076
 23
419.9985694284014
 33
0.0
 14
343.6746458872441
 24
373.9985694283658
 34
0.0
 50
90.00000000000003
100
AcDbRotatedDimension
1001
ACAD
1000
DSTYLE
1002
{
1070
    40
1040
2.0
1002
}
  0
DIMENSION
  5
D767
102
{ACAD_XDICTIONARY
360
D775
102
}
102
{ACAD_REACTORS
330
D776
102
}
330
1F
100
AcDbEntity
  8
AM_5
100
AcDbDimension
  2
*D18
 10
397.8517942524076
 20
307.2257067708753
 30
0.0
 11
406.1584609190742
 21
313.4257067708753
 31
0.0
 70
    32
 71
     5
 42
12.0
  3
SYS$0
100
AcDbAlignedDimension
 13
385.8517942524076
 23
283.2257067708753
 33
0.0
 14
397.8517942524076
 24
279.4257067708753
 34
0.0
100
AcDbRotatedDimension
1001
ACAD
1000
DSTYLE
1002
{
1070
    40
1040
2.0
1002
}
  0
DIMENSION
  5
D78F
102
{ACAD_XDICTIONARY
360
D79C
102
}
102
{ACAD_REACTORS
330
D79D
102
}
330
1F
100
AcDbEntity
  8
AM_5
100
AcDbDimension
  2
*D19
 10
353.8517942524076
 20
307.2257067708751
 30
0.0
 11
369.8517942524075
 21
313.4257067708751
 31
0.0
 70
    32
 71
     5
 42
32.0
  3
SYS$0
100
AcDbAlignedDimension
 13
385.8517942524076
 23
283.2257067708753
 33
0.0
 14
353.8517942524076
 24
249.4257067708753
 34
0.0
100
AcDbRotatedDimension
1001
ACAD
1000
DSTYLE
1002
{
1070
    40
1040
2.0
1002
}
  0
DIMENSION
  5
D7C2
102
{ACAD_XDICTIONARY
360
D7CF
102
}
102
{ACAD_REACTORS
330
D7D0
102
}
330
1F
100
AcDbEntity
  8
AM_5
100
AcDbDimension
  2
*D20
 10
526.8517980671048
 20
327.2257067708751
 30
0.0
 11
456.3517961597561
 21
333.4257067708751
 31
0.0
 70
    32
 71
     5
 42
141.0000038146972
  3
SYS$0
100
AcDbAlignedDimension
 13
385.8517942524076
 23
283.2257067708753
 33
0.0
 14
526.8517980671048
 24
238.6279592661642
 34
0.0
100
AcDbRotatedDimension
1001
ACAD
1000
DSTYLE
1002
{
1070
    40
1040
2.0
1002
}
  0
LINE
  5
D7DD
330
1F
100
AcDbEntity
  8
AM_11
100
AcDbLine
 10
335.8517942524076
 20
244.2257067708755
 30
0.0
 11
335.8517942524076
 21
226.2257067708756
 31
0.0
  0
LINE
  5
D7DE
330
1F
100
AcDbEntity
  8
AM_11
100
AcDbLine
 10
335.8517942524076
 20
244.2257067708756
 30
0.0
 11
374.6031626086276
 21
248.9837765188807
 31
0.0
  0
LINE
  5
D7DF
330
1F
100
AcDbEntity
  8
AM_11
100
AcDbLine
 10
335.8517942524076
 20
226.2257067708756
 30
0.0
 11
371.6129352360183
 21
221.8347907778161
 31
0.0
  0
LINE
  5
D7E0
330
1F
100
AcDbEntity
  8
AM_11
100
AcDbLine
 10
310.8517942524074
 20
226.2257067708757
 30
0.0
 11
310.8517942524076
 21
244.2257067708756
 31
0.0
  0
LINE
  5
D7E1
330
1F
100
AcDbEntity
  8
AM_11
100
AcDbLine
 10
335.8517942524076
 20
226.2257067708755
 30
0.0
 11
335.8517942524076
 21
244.2257067708756
 31
0.0
  0
ARC
  5
D7E2
330
1F
100
AcDbEntity
  8
AM_11
100
AcDbCircle
 10
323.3517942524074
 20
166.6007067708755
 30
0.0
 40
78.62499999999998
100
AcDbArc
 50
80.85215748019869
 51
99.1478425198013
  0
ARC
  5
D7E3
330
1F
100
AcDbEntity
  8
AM_11
100
AcDbCircle
 10
323.3517942524076
 20
303.8507067708756
 30
0.0
 40
78.62499999999998
100
AcDbArc
 50
260.852157480192
 51
279.1478425198079
  0
LINE
  5
D839
330
1F
100
AcDbEntity
  8
AM_11
100
AcDbLine
 10
424.5940471908325
 20
104.2475437499308
 30
0.0
 11
382.9294003526418
 21
198.792220370742
 31
0.0
  0
LINE
  5
D83A
330
1F
100
AcDbEntity
  8
AM_11
100
AcDbLine
 10
411.5094714945081
 20
209.1945155638062
 30
0.0
 11
440.3646470043836
 21
109.9875726585875
 31
0.0
  0
LINE
  5
D83B
330
1F
100
AcDbEntity
  8
AM_11
100
AcDbLine
 10
430.8795642021566
 20
101.5654047693505
 30
0.0
 11
432.7772090264081
 21
102.2560910005873
 31
0.0
  0
LINE
  5
D83C
330
1F
100
AcDbEntity
  8
AM_11
100
AcDbLine
 10
435.3760625056519
 20
103.2019963102512
 30
0.0
 11
437.2737073299033
 21
103.8926825414881
 31
0.0
  0
ARC
  5
D83D
330
1F
100
AcDbEntity
  8
AM_11
100
AcDbCircle
 10
429.1694622037409
 20
106.2638714662636
 30
0.0
 40
4.999999999999999
100
AcDbArc
 50
203.7824827352307
 51
290.0000000000001
  0
ARC
  5
D83E
330
1F
100
AcDbEntity
  8
AM_11
100
AcDbCircle
 10
435.5636052856556
 20
108.5911492217197
 30
0.0
 40
4.999999999999999
100
AcDbArc
 50
290.0000000000001
 51
16.21751726477199
  0
LINE
  5
D83F
330
1F
100
AcDbEntity
  8
AM_11
100
AcDbLine
 10
435.3760611921901
 20
103.2019998917063
 30
0.0
 11
432.7772077304631
 21
102.256094588418
 31
0.0
  0
LINE
  5
D849
102
{ACAD_REACTORS
330
D864
102
}
330
1F
100
AcDbEntity
  8
AM_7
100
AcDbLine
 10
377.6433108125916
 20
257.778329669737
 30
0.0
 11
435.4447150346293
 21
98.97027675691848
 31
0.0
1001
GENIUS_GENODEF_13
1002
{
1000
HIER
1070
     0
1002
}
1002
{
1000
MANEDIT
1070
     0
1002
}
1002
{
1000
NOSEL
1070
     0
1002
}
1002
{
1000
BEHIND
1070
     0
1002
}
1002
{
1000
OTHER
1070
     0
1002
}
1002
{
1000
REACTOR
1002
}
1001
GENIUS_GENOBJ-N-CEN_13
1002
{
1000
OWNER
1000
GEN
1002
}
1001
GENIUS_GENCEN_19
1002
{
1040
4.0
1002
}
  0
DIMENSION
  5
D852
102
{ACAD_XDICTIONARY
360
D863
102
}
102
{ACAD_REACTORS
330
D864
102
}
330
1F
100
AcDbEntity
  8
AM_5
100
AcDbDimension
  2
*D21
 10
435.4447150346293
 20
98.97027675691848
 30
0.0
 11
460.9791941986798
 21
182.6209350023997
 31
0.0
 70
    34
 71
     5
 42
1.22173047639603
  3
SYS$2
100
AcDb2LineAngularDimension
 13
302.8517942524075
 23
235.2257067708756
 33
0.0
 14
534.8517942524075
 24
235.2257067708753
 34
0.0
 15
377.6433108125916
 25
257.778329669737
 35
0.0
 16
453.0441977421031
 26
164.0059198687953
 36
0.0
1001
ACAD
1000
DSTYLE
1002
{
1070
    40
1040
2.0
1002
}
  0
MTEXT
  5
D87E
330
1F
100
AcDbEntity
  8
AM_6
 48
1.01
100
AcDbMText
 10
493.6292894603707
 20
208.8430245338304
 30
0.0
 40
8.0
 41
127.2033993262921
 71
     4
 72
     5
  1
（解錠位置）
 73
     1
 44
1.0
1001
ACAD
1000
MTEXTBEGIN
1070
    73
1070
     1
1070
    44
1040
1.0
1070
    74
1070
     0
1000
MTEXTEND
1000
ACAD_MTEXT_DEFINED_HEIGHT_BEGIN
1070
    46
1040
13.8829297641455
1000
ACAD_MTEXT_DEFINED_HEIGHT_END
  0
MTEXT
  5
D880
330
1F
100
AcDbEntity
  8
AM_6
 48
1.01
100
AcDbMText
 10
440.0152124208261
 20
127.2554498028216
 30
0.0
 40
8.0
 41
127.2033993262921
 71
     4
 72
     5
  1
（施錠位置）
 73
     1
 44
1.0
1001
ACAD
1000
MTEXTBEGIN
1070
    73
1070
     1
1070
    44
1040
1.0
1070
    74
1070
     0
1000
MTEXTEND
1000
ACAD_MTEXT_DEFINED_HEIGHT_BEGIN
1070
    46
1040
13.8829297641455
1000
ACAD_MTEXT_DEFINED_HEIGHT_END
  0
LINE
  5
D883
330
1F
100
AcDbEntity
  8
AM_0
100
AcDbLine
 10
360.293553499051
 20
191.3192570215111
 30
0.0
 11
377.2080206731972
 21
185.162894441649
 31
0.0
  0
LINE
  5
D884
330
1F
100
AcDbEntity
  8
AM_0
100
AcDbLine
 10
360.2935534990509
 20
191.3192570215111
 30
0.0
 11
369.0761790269259
 21
229.3609876083738
 31
0.0
  0
LINE
  5
D885
330
1F
100
AcDbEntity
  8
AM_0
100
AcDbLine
 10
377.2080206731972
 20
185.162894441649
 30
0.0
 11
393.5651625950701
 21
217.2655930175555
 31
0.0
  0
LINE
  5
D886
102
{ACAD_REACTORS
330
D8F8
102
}
330
1F
100
AcDbEntity
  8
AM_0
100
AcDbLine
 10
368.6575170900554
 20
161.6705789220013
 30
0.0
 11
351.7430499159092
 21
167.8269415018633
 31
0.0
  0
ARC
  5
D887
102
{ACAD_REACTORS
330
D963
330
D989
102
}
330
1F
100
AcDbEntity
  8
AM_0
100
AcDbCircle
 10
428.9619413959862
 20
153.0237856360322
 30
0.0
 40
78.625
100
AcDbArc
 50
150.8521574801967
 51
169.1478425198041
  0
ARC
  5
D888
330
1F
100
AcDbEntity
  8
AM_0
100
AcDbCircle
 10
299.9891291931202
 20
199.9660503074802
 30
0.0
 40
78.625
100
AcDbArc
 50
330.8521574801967
 51
349.1478425198041
  0
POLYLINE
  5
D8C6
330
1F
100
AcDbEntity
  8
AM_0
 48
1.01
100
AcDb2dPolyline
 66
     1
 10
0.0
 20
0.0
 30
0.0
  0
VERTEX
  5
D8C7
330
D8C6
100
AcDbEntity
  8
AM_0
 48
1.01
100
AcDbVertex
100
AcDb2dVertex
 10
392.9995464690243
 20
216.1555088664949
 30
0.0
  0
VERTEX
  5
D8C8
330
D8C6
100
AcDbEntity
  8
AM_0
 48
1.01
100
AcDbVertex
100
AcDb2dVertex
 10
393.0719927644849
 20
216.1682672052168
 30
0.0
  0
VERTEX
  5
D8C9
330
D8C6
100
AcDbEntity
  8
AM_0
 48
1.01
100
AcDbVertex
100
AcDb2dVertex
 10
393.9396295642972
 20
216.3290507344984
 30
0.0
  0
VERTEX
  5
D8CA
330
D8C6
100
AcDbEntity
  8
AM_0
 48
1.01
100
AcDbVertex
100
AcDb2dVertex
 10
394.7868660783887
 20
216.4913851766371
 30
0.0
  0
VERTEX
  5
D8CB
330
D8C6
100
AcDbEntity
  8
AM_0
 48
1.01
100
AcDbVertex
100
AcDb2dVertex
 10
396.4473948574185
 20
216.8168837575696
 30
0.0
  0
VERTEX
  5
D8CC
330
D8C6
100
AcDbEntity
  8
AM_0
 48
1.01
100
AcDbVertex
100
AcDb2dVertex
 10
399.7341427898526
 20
217.463179305055
 30
0.0
  0
VERTEX
  5
D8CD
330
D8C6
100
AcDbEntity
  8
AM_0
 48
1.01
100
AcDbVertex
100
AcDb2dVertex
 10
401.4107093906521
 20
217.7794761209272
 30
0.0
  0
VERTEX
  5
D8CE
330
D8C6
100
AcDbEntity
  8
AM_0
 48
1.01
100
AcDbVertex
100
AcDb2dVertex
 10
402.26797557832
 20
217.9353029279493
 30
0.0
  0
VERTEX
  5
D8CF
330
D8C6
100
AcDbEntity
  8
AM_0
 48
1.01
100
AcDbVertex
100
AcDb2dVertex
 10
403.1394813156246
 20
218.0893582849287
 30
0.0
  0
VERTEX
  5
D8D0
330
D8C6
100
AcDbEntity
  8
AM_0
 48
1.01
100
AcDbVertex
100
AcDb2dVertex
 10
404.0255413150906
 20
218.2412833719038
 30
0.0
  0
VERTEX
  5
D8D1
330
D8C6
100
AcDbEntity
  8
AM_0
 48
1.01
100
AcDbVertex
100
AcDb2dVertex
 10
404.9264667129635
 20
218.3907181768201
 30
0.0
  0
VERTEX
  5
D8D2
330
D8C6
100
AcDbEntity
  8
AM_0
 48
1.01
100
AcDbVertex
100
AcDb2dVertex
 10
405.8425722217679
 20
218.5373014955305
 30
0.0
  0
VERTEX
  5
D8D3
330
D8C6
100
AcDbEntity
  8
AM_0
 48
1.01
100
AcDbVertex
100
AcDb2dVertex
 10
406.7741689777493
 20
218.6806745080732
 30
0.0
  0
VERTEX
  5
D8D4
330
D8C6
100
AcDbEntity
  8
AM_0
 48
1.01
100
AcDbVertex
100
AcDb2dVertex
 10
407.7215705013394
 20
218.8204783944868
 30
0.0
  0
VERTEX
  5
D8D5
330
D8C6
100
AcDbEntity
  8
AM_0
 48
1.01
100
AcDbVertex
100
AcDb2dVertex
 10
408.6850891208768
 20
218.9563519506239
 30
0.0
  0
VERTEX
  5
D8D6
330
D8C6
100
AcDbEntity
  8
AM_0
 48
1.01
100
AcDbVertex
100
AcDb2dVertex
 10
409.6653995609402
 20
219.0879995374463
 30
0.0
  0
VERTEX
  5
D8D7
330
D8C6
100
AcDbEntity
  8
AM_0
 48
1.01
100
AcDbVertex
100
AcDb2dVertex
 10
410.6632385349392
 20
219.2152328042768
 30
0.0
  0
VERTEX
  5
D8D8
330
D8C6
100
AcDbEntity
  8
AM_0
 48
1.01
100
AcDbVertex
100
AcDb2dVertex
 10
411.6769347286343
 20
219.3375618009351
 30
0.0
  0
VERTEX
  5
D8D9
330
D8C6
100
AcDbEntity
  8
AM_0
 48
1.01
100
AcDbVertex
100
AcDb2dVertex
 10
412.7046237087369
 20
219.4544715432905
 30
0.0
  0
VERTEX
  5
D8DA
330
D8C6
100
AcDbEntity
  8
AM_0
 48
1.01
100
AcDbVertex
100
AcDb2dVertex
 10
413.7444458103299
 20
219.5654446630262
 30
0.0
  0
VERTEX
  5
D8DB
330
D8C6
100
AcDbEntity
  8
AM_0
 48
1.01
100
AcDbVertex
100
AcDb2dVertex
 10
414.796405801785
 20
219.6701521425031
 30
0.0
  0
VERTEX
  5
D8DC
330
D8C6
100
AcDbEntity
  8
AM_0
 48
1.01
100
AcDbVertex
100
AcDb2dVertex
 10
415.8602628803372
 20
219.7683364896558
 30
0.0
  0
VERTEX
  5
D8DD
330
D8C6
100
AcDbEntity
  8
AM_0
 48
1.01
100
AcDbVertex
100
AcDb2dVertex
 10
416.9325552082181
 20
219.8594803361677
 30
0.0
  0
VERTEX
  5
D8DE
330
D8C6
100
AcDbEntity
  8
AM_0
 48
1.01
100
AcDbVertex
100
AcDb2dVertex
 10
418.0098114109158
 20
219.9430639295362
 30
0.0
  0
VERTEX
  5
D8DF
330
D8C6
100
AcDbEntity
  8
AM_0
 48
1.01
100
AcDbVertex
100
AcDb2dVertex
 10
419.0885553455472
 20
220.0185687093519
 30
0.0
  0
SEQEND
  5
D8E0
330
D8C6
100
AcDbEntity
  8
AM_0
 48
1.01
  0
ARC
  5
D8E1
330
1F
100
AcDbEntity
  8
AM_0
100
AcDbCircle
 10
385.8517942524076
 20
235.2257067708753
 30
0.0
 40
40.00000000000001
100
AcDbArc
 50
265.0650837422556
 51
338.0503050454633
  0
LINE
  5
D8E2
330
1F
100
AcDbEntity
  8
AM_7
100
AcDbLine
 10
358.7637989010145
 20
160.8020512046315
 30
0.0
 11
394.797798538629
 21
259.8046515416128
 31
0.0
1001
GENIUS_GENOBJ-N-CEN_13
1002
{
1000
OWNER
1000
GEN
1002
}
1001
GENIUS_GENODEF_13
1002
{
1000
HIER
1070
     0
1002
}
1002
{
1000
MANEDIT
1070
     0
1002
}
1002
{
1000
NOSEL
1070
     0
1002
}
1002
{
1000
BEHIND
1070
     0
1002
}
1002
{
1000
OTHER
1070
     0
1002
}
1002
{
1000
REACTOR
1002
}
1001
GENIUS_GENCEN_19
1002
{
1040
4.0
1002
}
  0
DIMENSION
  5
D8EA
102
{ACAD_XDICTIONARY
360
D8F7
102
}
102
{ACAD_REACTORS
330
D8F8
102
}
330
1F
100
AcDbEntity
  8
AM_5
100
AcDbDimension
  2
*D22
 10
343.5345664760931
 20
145.2743186030015
 30
0.0
 11
354.1123249517854
 21
148.0222315619431
 31
0.0
 70
    33
  1
%%c<>
 71
     5
 42
17.99999999999988
  3
SYS$0
100
AcDbAlignedDimension
 13
368.6575170900554
 23
161.6705789220013
 33
0.0
 14
351.7430499159092
 24
167.8269415018634
 34
0.0
1001
ACAD
1000
DSTYLE
1002
{
1070
    40
1040
2.0
1002
}
  0
DIMENSION
  5
D919
330
1F
100
AcDbEntity
  8
AM_5
100
AcDbDimension
  2
*D23
 10
335.7544709888022
 20
126.8224863306232
 30
0.0
 11
347.2719220852803
 21
129.2283791462398
 31
0.0
 70
    33
  1
%%c<>
 71
     5
 42
20.0
  3
SYS$0
100
AcDbAlignedDimension
 13
373.8724615024124
 23
173.0747165385
 33
0.0
 14
355.0786090866939
 24
179.9151194050123
 34
0.0
1001
ACAD
1000
DSTYLE
1002
{
1070
    40
1040
2.0
1002
}
  0
DIMENSION
  5
D955
102
{ACAD_XDICTIONARY
360
D962
102
}
102
{ACAD_REACTORS
330
D963
102
}
330
1F
100
AcDbEntity
  8
AM_5
100
AcDbDimension
  2
*D24
 10
336.8012370303143
 20
199.869760950095
 30
0.0
 11
326.69989098987
 21
190.2441280788877
 31
0.0
 70
    33
 71
     5
 42
25.0000000000054
  3
SYS$0
100
AcDbAlignedDimension
 13
351.7430499159085
 23
167.8269415018601
 33
0.0
 14
360.2935534990519
 24
191.3192570215129
 34
0.0
1001
ACAD
1000
DSTYLE
1002
{
1070
    40
1040
2.0
1002
}
  0
DIMENSION
  5
D97B
102
{ACAD_XDICTIONARY
360
D988
102
}
102
{ACAD_REACTORS
330
D989
102
}
330
1F
100
AcDbEntity
  8
AM_5
100
AcDbDimension
  2
*D25
 10
353.9022441965972
 20
246.8543919893884
 30
0.0
 11
341.7030289197132
 21
213.3373234810841
 31
0.0
 70
   160
 71
     5
 42
49.99999999999778
  3
SYS$0
100
AcDbAlignedDimension
 13
360.2935534990519
 23
191.3192570215129
 33
0.0
 14
385.8517942524076
 24
235.2257067708753
 34
0.0
 50
69.99999999999985
100
AcDbRotatedDimension
1001
ACAD
1000
DSTYLE
1002
{
1070
    40
1040
2.0
1002
}
  0
LINE
  5
DA91
330
1F
100
AcDbEntity
  8
AM_11
 48
0.325
100
AcDbLine
 10
315.8517942524077
 20
458.3985694284019
 30
0.0
 11
315.8517942524075
 21
452.4985694284014
 31
0.0
  0
LINE
  5
DA92
330
1F
100
AcDbEntity
  8
AM_11
 48
0.275
100
AcDbLine
 10
317.4517942524076
 20
458.3985694284015
 30
0.0
 11
317.4517942524076
 21
452.4985694284014
 31
0.0
  0
ARC
  5
DA93
330
1F
100
AcDbEntity
  8
AM_11
 48
0.275
100
AcDbCircle
 10
319.7517942524076
 20
456.0985694284018
 30
0.0
 40
2.299999999999999
100
AcDbArc
 50
90.0
 51
180.0
1001
GENIUS_GENODEF_13
1002
{
1000
HIER
1070
     0
1002
}
1002
{
1000
MANEDIT
1070
     0
1002
}
1002
{
1000
NOSEL
1070
     0
1002
}
1002
{
1000
BEHIND
1070
     0
1002
}
1002
{
1000
OTHER
1070
     0
1002
}
1002
{
1000
REACTOR
1002
}
1001
GENIUS_GENOBJ-N-FIL_13
1002
{
1000
OWNER
1000
GEN
1002
}
  0
LINE
  5
DA94
330
1F
100
AcDbEntity
  8
AM_11
 48
0.175
100
AcDbLine
 10
319.7517942524076
 20
456.0985694284013
 30
0.0
 11
319.7517942524076
 21
452.4985694284014
 31
0.0
  0
LINE
  5
DA95
330
1F
100
AcDbEntity
  8
AM_11
 48
0.175
100
AcDbLine
 10
319.7517942524076
 20
427.4985694284014
 30
0.0
 11
319.7517942524076
 21
423.8985694284015
 31
0.0
  0
LINE
  5
DA96
330
1F
100
AcDbEntity
  8
AM_11
 48
0.6000000000000001
100
AcDbLine
 10
319.7517942524076
 20
456.0985694284013
 30
0.0
 11
331.8517942524076
 21
456.0985694284013
 31
0.0
  0
LINE
  5
DA97
330
1F
100
AcDbEntity
  8
AM_11
 48
0.6000000000000001
100
AcDbLine
 10
319.7517942524076
 20
423.8985694284015
 30
0.0
 11
331.8517942524076
 21
423.8985694284015
 31
0.0
  0
LINE
  5
DA98
330
1F
100
AcDbEntity
  8
AM_11
 48
0.15
100
AcDbLine
 10
331.8517942524075
 20
458.3985694284015
 30
0.0
 11
331.8517942524076
 21
456.0985694284013
 31
0.0
  0
LINE
  5
DA99
330
1F
100
AcDbEntity
  8
AM_11
 48
0.15
100
AcDbLine
 10
331.8517942524076
 20
423.8985694284015
 30
0.0
 11
331.8517942524076
 21
421.5985694284015
 31
0.0
  0
LINE
  5
DA9A
330
1F
100
AcDbEntity
  8
AM_11
100
AcDbLine
 10
317.4517942524077
 20
459.9985694284018
 30
0.0
 11
526.8517980671048
 21
459.9985694284014
 31
0.0
  0
ARC
  5
DA9B
330
1F
100
AcDbEntity
  8
AM_11
100
AcDbCircle
 10
317.4517942524077
 20
458.3985694284019
 30
0.0
 40
1.6
100
AcDbArc
 50
90.0
 51
180.0
1001
GENIUS_GENODEF_13
1002
{
1000
HIER
1070
     0
1002
}
1002
{
1000
MANEDIT
1070
     0
1002
}
1002
{
1000
NOSEL
1070
     0
1002
}
1002
{
1000
BEHIND
1070
     0
1002
}
1002
{
1000
OTHER
1070
     0
1002
}
1002
{
1000
REACTOR
1002
}
1001
GENIUS_GENOBJ-N-FIL_13
1002
{
1000
OWNER
1000
GEN
1002
}
  0
LINE
  5
DA9C
330
1F
100
AcDbEntity
  8
AM_11
100
AcDbLine
 10
319.7517942524076
 20
421.5985694284015
 30
0.0
 11
526.8517980671047
 21
421.5985694284013
 31
0.0
  0
LINE
  5
DA9D
330
1F
100
AcDbEntity
  8
AM_11
100
AcDbLine
 10
317.3517942524076
 20
419.9985694284014
 30
0.0
 11
526.8517980671048
 21
419.9985694284014
 31
0.0
  0
LINE
  5
DA9E
330
1F
100
AcDbEntity
  8
AM_11
 48
0.4792860000000019
100
AcDbLine
 10
317.3517942524076
 20
427.4985694284014
 30
0.0
 11
317.3517942524076
 21
417.9128494284014
 31
0.0
  0
LINE
  5
DA9F
330
1F
100
AcDbEntity
  8
AM_11
 48
0.2621333226208578
100
AcDbLine
 10
317.6446862524076
 20
417.2057494284013
 30
0.0
 11
321.3518162524076
 21
413.4986294284012
 31
0.0
  0
LINE
  5
DAA0
330
1F
100
AcDbEntity
  8
AM_11
 48
0.2932005540268253
100
AcDbLine
 10
316.1446942524076
 20
416.5844694284009
 30
0.0
 11
320.2911782524076
 21
412.4379894284011
 31
0.0
  0
LINE
  5
DAA1
330
1F
100
AcDbEntity
  8
AM_11
 48
0.325
100
AcDbLine
 10
322.8517942524076
 20
419.9985694284014
 30
0.0
 11
322.8517942524076
 21
413.4985694284014
 31
0.0
  0
LINE
  5
DAA2
330
1F
100
AcDbEntity
  8
AM_11
 48
0.325
100
AcDbLine
 10
321.3517942524076
 20
419.9985694284014
 30
0.0
 11
321.3517942524076
 21
413.4985694284014
 31
0.0
  0
LINE
  5
DAA3
330
1F
100
AcDbEntity
  8
AM_11
100
AcDbLine
 10
317.4517942524076
 20
458.3985694284015
 30
0.0
 11
526.8517980671048
 21
458.3985694284014
 31
0.0
  0
LINE
  5
DAA4
330
1F
100
AcDbEntity
  8
AM_11
 48
0.5103500000000168
100
AcDbLine
 10
315.8517942524075
 20
427.4985694284014
 30
0.0
 11
315.8517942524075
 21
417.2915694284011
 31
0.0
  0
LINE
  5
DAA5
330
1F
100
AcDbEntity
  8
AM_11
 48
0.15
100
AcDbLine
 10
321.3517942524076
 20
419.9985694284014
 30
0.0
 11
322.8517942524076
 21
419.9985694284014
 31
0.0
  0
ARC
  5
DAA6
330
1F
100
AcDbEntity
  8
AM_11
 48
0.3
100
AcDbCircle
 10
321.3517942524076
 20
413.4985694284014
 30
0.0
 40
1.5
100
AcDbArc
 50
225.0001900000121
 51
0.0
  0
ARC
  5
DAA7
330
1F
100
AcDbEntity
  8
AM_11
 48
0.3
100
AcDbCircle
 10
318.3517942524076
 20
417.9128494284014
 30
0.0
 40
1.0
100
AcDbArc
 50
179.9999799999979
 51
225.0005999999937
  0
ARC
  5
DAA8
330
1F
100
AcDbEntity
  8
AM_11
 48
0.3
100
AcDbCircle
 10
316.8517942524076
 20
417.2915694284011
 30
0.0
 40
1.0
100
AcDbArc
 50
179.9999799999979
 51
225.0005999999937
  0
LINE
  5
DAA9
330
1F
100
AcDbEntity
  8
AM_11
 48
0.275
100
AcDbLine
 10
317.4517942524076
 20
423.8985694284015
 30
0.0
 11
317.4517942524076
 21
427.4985694284014
 31
0.0
  0
ARC
  5
DAAA
330
1F
100
AcDbEntity
  8
AM_11
 48
0.275
100
AcDbCircle
 10
319.7517942524076
 20
423.8985694284015
 30
0.0
 40
2.299999999999999
100
AcDbArc
 50
180.0
 51
270.0
1001
GENIUS_GENODEF_13
1002
{
1000
HIER
1070
     0
1002
}
1002
{
1000
MANEDIT
1070
     0
1002
}
1002
{
1000
NOSEL
1070
     0
1002
}
1002
{
1000
BEHIND
1070
     0
1002
}
1002
{
1000
OTHER
1070
     0
1002
}
1002
{
1000
REACTOR
1002
}
1001
GENIUS_GENOBJ-N-FIL_13
1002
{
1000
OWNER
1000
GEN
1002
}
  0
ENDSEC
  0
SECTION
  2
OBJECTS
  0
DICTIONARY
  5
C
330
0
100
AcDbDictionary
281
     1
  3
ACAD_2007HEADERVARS_RT
350
DB0C
  3
ACAD_BGPLOT_KEY
350
AB06
  3
ACAD_COLOR
350
A91D
  3
ACAD_GROUP
350
D
  3
ACAD_LAYOUT
350
1A
  3
ACAD_MATERIAL
350
A91C
  3
ACAD_MLINESTYLE
350
17
  3
ACAD_PLOTSETTINGS
350
19
  3
ACAD_PLOTSTYLENAME
350
E
  3
ACAD_TABLESTYLE
350
AAB9
  3
ACAD_VISUALSTYLE
350
DAB0
  3
AcAsAppObject
350
3DA1
  3
ACASGREF_MASTER
350
3DE9
  3
AcDbVariableDictionary
350
34
  3
AcmDictionary
350
47
  3
AD_GREF_MODULE
350
3DEA
  3
AD_MAPI_MODULE
350
3E06
  3
AMG
350
2B
  3
AMGSNAPSETTINGS
350
7D
  3
ASE_INDEX_DICTIONARY
350
9F48
  3
DWGPROPS
350
DB0B
  3
MAPISURF_MODULE
350
3DEB
  0
DICTIONARY
  5
3F95
330
2
100
AcDbDictionary
280
     1
281
     1
  3
ACAD_LAYERFILTERS
360
C291
  3
ACAD_LAYERSTATES
360
3F96
  3
ACLYDICTIONARY
360
C290
  3
AMLAYER_GROUPCOLORS
360
AAB4
  0
DICTIONARY
  5
8A
330
1F
100
AcDbDictionary
280
     1
281
     1
  3
ACAD_SORTENTS
360
CA9D
  0
DICTIONARY
  5
C8A4
330
C8A3
100
AcDbDictionary
280
     1
281
     1
  3
ACAD_DIMASSOC
360
C8A5
  0
DICTIONARY
  5
C98A
330
C989
100
AcDbDictionary
280
     1
281
     1
  3
ACAD_DIMASSOC
360
C98B
  0
DICTIONARY
  5
CC33
330
CC27
100
AcDbDictionary
280
     1
281
     1
  3
ACAD_DIMASSOC
360
CC34
  0
DICTIONARY
  5
CCD4
330
CCC7
100
AcDbDictionary
280
     1
281
     1
  3
ACAD_DIMASSOC
360
CCD5
  0
DICTIONARY
  5
CCFA
330
CCED
100
AcDbDictionary
280
     1
281
     1
  3
ACAD_DIMASSOC
360
CCFB
  0
DICTIONARY
  5
D2EF
330
D2E2
100
AcDbDictionary
280
     1
281
     1
  3
ACAD_DIMASSOC
360
D2F0
  0
DICTIONARY
  5
D775
330
D767
100
AcDbDictionary
280
     1
281
     1
  3
ACAD_DIMASSOC
360
D776
  0
DICTIONARY
  5
D79C
330
D78F
100
AcDbDictionary
280
     1
281
     1
  3
ACAD_DIMASSOC
360
D79D
  0
DICTIONARY
  5
D7CF
330
D7C2
100
AcDbDictionary
280
     1
281
     1
  3
ACAD_DIMASSOC
360
D7D0
  0
DICTIONARY
  5
D863
330
D852
100
AcDbDictionary
280
     1
281
     1
  3
ACAD_DIMASSOC
360
D864
  0
DICTIONARY
  5
D8F7
330
D8EA
100
AcDbDictionary
280
     1
281
     1
  3
ACAD_DIMASSOC
360
D8F8
  0
DICTIONARY
  5
D962
330
D955
100
AcDbDictionary
280
     1
281
     1
  3
ACAD_DIMASSOC
360
D963
  0
DICTIONARY
  5
D988
330
D97B
100
AcDbDictionary
280
     1
281
     1
  3
ACAD_DIMASSOC
360
D989
  0
DICTIONARY
  5
DB0C
102
{ACAD_REACTORS
330
C
102
}
330
C
100
AcDbDictionary
281
     1
  3
DIMARCSYM
350
DB0E
  3
DIMFXL
350
DB0D
  0
DICTIONARY
  5
AB06
102
{ACAD_REACTORS
330
C
102
}
330
C
100
AcDbDictionary
280
     1
281
     1
  0
DICTIONARY
  5
A91D
102
{ACAD_REACTORS
330
C
102
}
330
C
100
AcDbDictionary
281
     1
  0
DICTIONARY
  5
D
102
{ACAD_REACTORS
330
C
102
}
330
C
100
AcDbDictionary
281
     1
  0
DICTIONARY
  5
1A
102
{ACAD_REACTORS
330
C
102
}
330
C
100
AcDbDictionary
281
     1
  3
Model
350
22
  3
ﾚｲｱｳﾄ1
350
1E
  3
ﾚｲｱｳﾄ2
350
26
  0
DICTIONARY
  5
A91C
102
{ACAD_REACTORS
330
C
102
}
330
C
100
AcDbDictionary
281
     1
  3
ByBlock
350
DAAE
  3
ByLayer
350
DAAD
  3
Global
350
DAAF
  0
DICTIONARY
  5
17
102
{ACAD_REACTORS
330
C
102
}
330
C
100
AcDbDictionary
281
     1
  3
Standard
350
18
  0
DICTIONARY
  5
19
102
{ACAD_REACTORS
330
C
102
}
330
C
100
AcDbDictionary
281
     1
  3
01 A3フィット
350
C2E8
  3
02 A3
350
C2E9
  3
03 A2フィット
350
C2EA
  3
04 A2
350
C2EB
  3
05 A1フィット
350
C2EC
  3
06 A1
350
C2ED
  3
06 A4フィット
350
C2EE
  3
07 A4
350
C2EF
  0
ACDBDICTIONARYWDFLT
  5
E
102
{ACAD_REACTORS
330
C
102
}
330
C
100
AcDbDictionary
281
     1
  3
Normal
350
F
100
AcDbDictionaryWithDefault
340
F
  0
DICTIONARY
  5
AAB9
102
{ACAD_REACTORS
330
C
102
}
330
C
100
AcDbDictionary
281
     1
  3
Standard
350
AABA
  0
DICTIONARY
  5
DAB0
102
{ACAD_REACTORS
330
C
102
}
330
C
100
AcDbDictionary
281
     1
  3
2dWireframe
350
DAB6
  3
3D Hidden
350
DAB8
  3
3dWireframe
350
DAB7
  3
Basic
350
DAB5
  3
Brighten
350
DABC
  3
ColorChange
350
DAC0
  3
Conceptual
350
DAB9
  3
Dim
350
DABB
  3
Facepattern
350
DABF
  3
Flat
350
DAB1
  3
FlatWithEdges
350
DAB2
  3
Gouraud
350
DAB3
  3
GouraudWithEdges
350
DAB4
  3
Linepattern
350
DABE
  3
Realistic
350
DABA
  3
Thicken
350
DABD
  0
ACAD_PROXY_OBJECT
  5
3DA1
102
{ACAD_REACTORS
330
C
102
}
330
C
100
AcDbProxyObject
 90
      499
 91
      576
 95
   917527
 70
     0
 93
       10
310
407F
 94
        0
1001
ACAD
1000
AcRTDxfName
1000
ASAPP
  0
ACAD_PROXY_OBJECT
  5
3DE9
102
{ACAD_REACTORS
330
C
102
}
330
C
100
AcDbProxyObject
 90
      499
 91
      581
 95
   917527
 70
     0
 93
       34
310
010000407F
 94
        0
1001
ACAD
1000
AcRTDxfName
1000
ACASGREFMASTER
  0
DICTIONARY
  5
34
102
{ACAD_REACTORS
330
C
102
}
330
C
100
AcDbDictionary
281
     1
  3
CTABLESTYLE
350
AAF3
  3
DIMASSOC
350
A10C
  3
FIELDEVAL
350
AB07
  3
INDEXCTL
350
35
  3
SORTENTS
350
194C
  0
DICTIONARY
  5
47
102
{ACAD_REACTORS
330
C
102
}
330
C
100
AcDbDictionary
281
     1
  3
AcmBOM
350
7E8
  3
AcmStdDictionary
350
4C
  3
AMDTSECTSYM_ARROWCOLOR
350
A929
  0
ACAD_PROXY_OBJECT
  5
3DEA
102
{ACAD_REACTORS
330
C
102
}
330
C
100
AcDbProxyObject
 90
      499
 91
      582
 95
   917527
 70
     0
 93
      114
310
00000043800000000000000000003F
 94
        0
1001
ACAD
1000
AcRTDxfName
1000
ACADGREFMODULE
  0
ACAD_PROXY_OBJECT
  5
3E06
102
{ACAD_REACTORS
330
C
102
}
330
C
100
AcDbProxyObject
 90
      499
 91
      594
 95
   917527
 70
     0
 93
       34
310
05000044FF
 94
        0
1001
ACAD
1000
AcRTDxfName
1000
MAPIADMODULE
  0
DICTIONARY
  5
2B
102
{ACAD_REACTORS
330
C
102
}
330
C
100
AcDbDictionary
281
     1
  0
DICTIONARY
  5
7D
102
{ACAD_REACTORS
330
C
102
}
330
C
100
AcDbDictionary
281
     1
  0
DICTIONARY
  5
9F48
102
{ACAD_REACTORS
330
C
102
}
330
C
100
AcDbDictionary
281
     1
  3
ASEBlockHierarchyIndexRecord
350
9F49
1001
DCO15
1040
1425739953.442
  0
XRECORD
  5
DB0B
102
{ACAD_REACTORS
330
C
102
}
330
C
100
AcDbXrecord
280
     1
  1
DWGPROPS COOKIE
  2

  3

  4

  6

  7

  8
OSK-CAD18
  9

300
AmdtFileType=84
301
=
302
=
303
=
304
=
305
=
306
=
307
=
308
=
309
=
 40
0.179474837962963
 41
2454161.406865047
 42
2454330.619488924
  1

 90
        1
  0
ACAD_PROXY_OBJECT
  5
3DEB
102
{ACAD_REACTORS
330
C
102
}
330
C
100
AcDbProxyObject
 90
      499
 91
      583
 95
   917527
 70
     0
 93
        8
310
0479
 94
        0
1001
ACAD
1000
AcRTDxfName
1000
AMDTMAPISURFMOUDULE
  0
DICTIONARY
  5
C291
102
{ACAD_REACTORS
330
3F95
102
}
330
3F95
100
AcDbDictionary
281
     1
  0
DICTIONARY
  5
3F96
102
{ACAD_REACTORS
330
3F95
102
}
330
3F95
100
AcDbDictionary
281
     1
  3
20011210
350
3FB7
  0
DICTIONARY
  5
C290
102
{ACAD_REACTORS
330
3F95
102
}
330
3F95
100
AcDbDictionary
281
     1
1001
ACAD
1000
<All
  0
DICTIONARY
  5
AAB4
102
{ACAD_REACTORS
330
3F95
102
}
330
3F95
100
AcDbDictionary
280
     1
281
     1
  0
SORTENTSTABLE
  5
CA9D
102
{ACAD_REACTORS
330
8A
102
}
330
8A
100
AcDbSortentsTable
330
1F
331
D7E2
  5
D83D
331
D295
  5
D53F
331
C898
  5
C900
331
C936
  5
C9AA
331
C8A0
  5
C908
331
C749
  5
C846
331
CC0A
  5
CD8C
331
CA93
  5
CB5F
331
C8FF
  5
C917
331
C986
  5
C9D4
331
CA9B
  5
C725
331
D26E
  5
D51C
331
D83A
  5
D849
331
C72A
  5
C845
331
C8C8
  5
C914
331
CAA3
  5
C74A
331
C907
  5
C91F
331
C98E
  5
CA89
331
C9C5
  5
CA8C
331
C849
  5
C89C
331
C9CD
  5
CA94
331
C851
  5
C8C5
331
D852
  5
D886
331
D7E3
  5
D83E
331
D296
  5
D540
331
D8E1
  5
C89E
331
C899
  5
C901
331
C8A1
  5
C909
331
C74A
  5
C847
331
CC0B
  5
CD8D
331
C987
  5
C9D5
331
D83B
  5
D852
331
C8C9
  5
C915
331
C7F2
  5
C899
331
C900
  5
C918
331
CAA4
  5
C74B
331
C908
  5
C920
331
C98F
  5
CA8A
331
C9C6
  5
CA8D
331
C84A
  5
C89D
331
C9CE
  5
CA95
331
C852
  5
C8C6
331
C9D6
  5
CAA4
331
CB4C
  5
CC0B
331
C89A
  5
C902
331
C8A2
  5
C90A
331
C940
  5
C9CE
331
CA95
  5
CBC5
331
CDF2
  5
D294
331
D83C
  5
D87E
331
D883
  5
D889
331
C901
  5
C919
331
C988
  5
C9D6
331
CAA5
  5
C766
331
C909
  5
C921
331
C9C7
  5
CA8E
331
C84B
  5
C89F
331
C9CF
  5
CA96
331
C9D7
  5
CAA5
331
D7DD
  5
D7E3
331
CD93
  5
D05C
331
D767
  5
D7E0
331
C931
  5
C989
331
C89B
  5
C905
331
CBC5
  5
CCED
331
C8A3
  5
C90E
331
C941
  5
C9CF
331
CA96
  5
CC09
331
CA9E
  5
C727
331
D83D
  5
D880
331
D78F
  5
D7E1
331
D884
  5
D88A
331
C902
  5
C91A
331
C989
  5
C9D7
331
CAA6
  5
C781
331
C90A
  5
C922
331
C9C8
  5
CA8F
331
C9D0
  5
CA97
331
C84C
  5
C8A0
331
C9D8
  5
CAA6
331
D281
  5
D51D
331
CD8C
  5
CDF2
331
D7DE
  5
D839
331
C932
  5
C98C
331
C89C
  5
C906
331
C93A
  5
C9C8
331
C7ED
  5
C84E
331
CA97
  5
CC0A
331
CA9F
  5
C728
331
CCED
  5
CD97
331
D83E
  5
D883
331
D885
  5
D890
331
C903
  5
C91B
331
CAA7
  5
C79C
331
C90B
  5
C923
331
C9C9
  5
CA90
331
C84D
  5
C8A1
331
C9D1
  5
CA98
331
CB5F
  5
CC27
331
CD8D
  5
D04C
331
D7DF
  5
D83A
331
C8E4
  5
C916
331
C933
  5
C98D
331
C9AA
  5
CA8B
331
C93B
  5
C9C9
331
CA88
  5
CAA7
331
C7EE
  5
C84F
331
CA98
  5
C371
331
CC27
  5
CD93
331
D2E2
  5
D541
331
D83F
  5
D884
331
D87E
  5
D887
331
D886
  5
D8AB
331
D8C6
  5
C910
331
C904
  5
C91C
331
CAA0
  5
C729
331
CAA8
  5
C7B7
331
C90C
  5
C924
331
C9CA
  5
CA91
331
C914
  5
C92C
331
C84E
  5
C8A2
331
C9D2
  5
CA99
331
D04C
  5
D295
331
D05C
  5
D296
331
D7E0
  5
D83B
331
CD96
  5
D26D
331
CBB8
  5
CCC7
331
C896
  5
C8E4
331
C934
  5
C98E
331
CA89
  5
CAA8
331
C93C
  5
C9CA
331
CA91
  5
CAAA
331
C8C6
  5
C912
331
C7EF
  5
C850
331
CA99
  5
C709
331
CCC7
  5
CD96
331
D887
  5
D8C6
331
C905
  5
C91D
331
C98C
  5
C9D8
331
CAA1
  5
C72A
331
CAA9
  5
C7D2
331
C90D
  5
C925
331
C847
  5
C89A
331
C9CB
  5
CA92
331
C915
  5
C92D
331
C9D3
  5
CA9A
331
C925
  5
C93D
331
D7E1
  5
D83C
331
CD97
  5
D26E
331
D294
  5
D538
331
CDEF
  5
D281
331
C897
  5
C8FF
331
C935
  5
C98F
331
CA8A
  5
CAA9
331
C89F
  5
C907
331
C93D
  5
C9CB
331
CC09
  5
CD8B
331
CA92
  5
CB4C
331
C8C7
  5
C913
331
C985
  5
C9D3
331
CA9A
  5
C70A
331
D26D
  5
D2E2
331
D7C2
  5
D7E2
331
D839
  5
D83F
331
D849
  5
D885
331
D880
  5
D888
331
D888
  5
D8E1
331
C709
  5
C7EF
331
C7F0
  5
C851
331
C906
  5
C91E
331
C98D
  5
CA88
331
CAA2
  5
C749
331
C848
  5
C89B
331
C9CC
  5
CA93
331
C916
  5
C92E
331
C9D4
  5
CA9B
331
C926
  5
C93E
  0
DIMASSOC
  5
C8A5
102
{ACAD_REACTORS
330
C8A4
102
}
330
C8A4
100
AcDbDimAssoc
330
C8A3
 90
        3
 70
     0
 71
     0
  1
AcDbOsnapPointRef
 72
    13
331
C898
 73
     0
 91
        0
 40
0.0
 10
0.0
 20
0.0
 30
2.000000000000000E+50
 75
     0
  1
AcDbOsnapPointRef
 72
    13
331
C852
 73
     0
 91
        0
 40
0.0
 10
0.0
 20
0.0
 30
2.000000000000000E+50
 75
     0
  0
DIMASSOC
  5
C98B
102
{ACAD_REACTORS
330
C98A
102
}
330
C98A
100
AcDbDimAssoc
330
C989
 90
        3
 70
     0
 71
     0
  1
AcDbOsnapPointRef
 72
     1
331
C987
 73
     0
 91
        0
 40
0.0
 10
0.0
 20
0.0
 30
2.000000000000000E+50
 75
     0
  1
AcDbOsnapPointRef
 72
    13
331
C941
 73
     0
 91
        0
 40
0.0
 10
0.0
 20
0.0
 30
2.000000000000000E+50
 75
     0
  0
DIMASSOC
  5
CC34
102
{ACAD_REACTORS
330
CC33
102
}
330
CC33
100
AcDbDimAssoc
330
CC27
 90
        2
 70
     0
 71
     0
  1
AcDbOsnapPointRef
 72
     3
331
CC09
 73
     2
 91
        0
 40
0.0
 10
0.0
 20
0.0
 30
0.0
 75
     0
  0
DIMASSOC
  5
CCD5
102
{ACAD_REACTORS
330
CCD4
102
}
330
CCD4
100
AcDbDimAssoc
330
CCC7
 90
        3
 70
     0
 71
     0
  1
AcDbOsnapPointRef
 72
    13
331
CBC5
 73
     0
 91
        0
 40
0.0
 10
0.0
 20
0.0
 30
2.000000000000000E+50
 75
     0
  1
AcDbOsnapPointRef
 72
    13
331
C89F
 73
     0
 91
        0
 40
0.0
 10
0.0
 20
0.0
 30
2.000000000000000E+50
 75
     0
  0
DIMASSOC
  5
CCFB
102
{ACAD_REACTORS
330
CCFA
102
}
330
CCFA
100
AcDbDimAssoc
330
CCED
 90
        3
 70
     0
 71
     0
  1
AcDbOsnapPointRef
 72
     5
331
C84A
 73
     0
 91
        0
 40
4.712388980384689
 10
0.0
 20
0.0
 30
0.0
 75
     0
  1
AcDbOsnapPointRef
 72
     5
331
C84A
 73
     0
 91
        0
 40
1.570796326794896
 10
0.0
 20
0.0
 30
0.0
 75
     0
  0
DIMASSOC
  5
D2F0
102
{ACAD_REACTORS
330
D2EF
102
}
330
D2EF
100
AcDbDimAssoc
330
D2E2
 90
        2
 70
     0
 71
     0
  1
AcDbOsnapPointRef
 72
    13
331
D04C
 73
     0
 91
        0
 40
0.0
 10
0.0
 20
0.0
 30
2.000000000000000E+50
 75
     0
  0
DIMASSOC
  5
D776
102
{ACAD_REACTORS
330
D775
102
}
330
D775
100
AcDbDimAssoc
330
D767
 90
        3
 70
     0
 71
     0
  1
AcDbOsnapPointRef
 72
     1
331
C89B
 73
     0
 91
        0
 40
0.0
 10
0.0
 20
0.0
 30
2.000000000000000E+50
 75
     0
  1
AcDbOsnapPointRef
 72
     1
331
CBB8
 73
     0
 91
        0
 40
0.0
 10
0.0
 20
0.0
 30
2.000000000000000E+50
 75
     0
  0
DIMASSOC
  5
D79D
102
{ACAD_REACTORS
330
D79C
102
}
330
D79C
100
AcDbDimAssoc
330
D78F
 90
        1
 70
     0
 71
     0
  1
AcDbOsnapPointRef
 72
     1
331
C89B
 73
     0
 91
        0
 40
0.0
 10
0.0
 20
0.0
 30
2.000000000000000E+50
 75
     0
  0
DIMASSOC
  5
D7D0
102
{ACAD_REACTORS
330
D7CF
102
}
330
D7CF
100
AcDbDimAssoc
330
D7C2
 90
        3
 70
     0
 71
     0
  1
AcDbOsnapPointRef
 72
     1
331
C89B
 73
     0
 91
        0
 40
0.0
 10
0.0
 20
0.0
 30
2.000000000000000E+50
 75
     0
  1
AcDbOsnapPointRef
 72
     1
331
C7EE
 73
     0
 91
        0
 40
0.0
 10
0.0
 20
0.0
 30
2.000000000000000E+50
 75
     0
  0
DIMASSOC
  5
D864
102
{ACAD_REACTORS
330
D863
102
}
330
D863
100
AcDbDimAssoc
330
D852
 90
       15
 70
     0
 71
     0
  1
AcDbOsnapPointRef
 72
    13
331
C89A
 73
     2
 91
        0
 40
0.0
 10
0.0
 20
0.0
 30
2.000000000000000E+50
 75
     0
  1
AcDbOsnapPointRef
 72
     1
331
C89A
 73
     2
 91
        0
 40
0.0
 10
0.0
 20
0.0
 30
2.000000000000000E+50
 75
     0
  1
AcDbOsnapPointRef
 72
    13
331
D849
 73
     2
 91
        0
 40
0.0
 10
0.0
 20
0.0
 30
2.000000000000000E+50
 75
     0
  1
AcDbOsnapPointRef
 72
     1
331
D849
 73
     2
 91
        0
 40
0.0
 10
0.0
 20
0.0
 30
2.000000000000000E+50
 75
     0
  0
DIMASSOC
  5
D8F8
102
{ACAD_REACTORS
330
D8F7
102
}
330
D8F7
100
AcDbDimAssoc
330
D8EA
 90
        3
 70
     0
 71
     0
  1
AcDbOsnapPointRef
 72
    13
331
D886
 73
     2
 91
        0
 40
0.0
 10
0.0
 20
0.0
 30
2.000000000000000E+50
 75
     0
  1
AcDbOsnapPointRef
 72
     1
331
D886
 73
     2
 91
        0
 40
0.0
 10
0.0
 20
0.0
 30
2.000000000000000E+50
 75
     0
  0
DIMASSOC
  5
D963
102
{ACAD_REACTORS
330
D962
102
}
330
D962
100
AcDbDimAssoc
330
D955
 90
        3
 70
     0
 71
     0
  1
AcDbOsnapPointRef
 72
     1
331
D887
 73
     0
 91
        0
 40
0.0
 10
0.0
 20
0.0
 30
2.000000000000000E+50
 75
     0
  1
AcDbOsnapPointRef
 72
    13
331
D887
 73
     0
 91
        0
 40
0.0
 10
0.0
 20
0.0
 30
2.000000000000000E+50
 75
     0
  0
DIMASSOC
  5
D989
102
{ACAD_REACTORS
330
D988
102
}
330
D988
100
AcDbDimAssoc
330
D97B
 90
        1
 70
     0
 71
     1
  1
AcDbOsnapPointRef
 72
    13
331
D887
 73
     0
 91
        0
 40
0.0
 10
0.0
 20
0.0
 30
2.000000000000000E+50
 75
     0
  0
XRECORD
  5
DB0E
102
{ACAD_REACTORS
330
DB0C
102
}
330
DB0C
100
AcDbXrecord
280
     1
 70
     1
  0
XRECORD
  5
DB0D
102
{ACAD_REACTORS
330
DB0C
102
}
330
DB0C
100
AcDbXrecord
280
     1
 40
0.0
  0
LAYOUT
  5
22
102
{ACAD_XDICTIONARY
360
DB11
102
}
102
{ACAD_REACTORS
330
1A
102
}
330
1A
100
AcDbPlotSettings
  1

  2
FX DocuWide 2050/2051
  4
A3
  6
AM_VIEW1
 40
3.174999952316284
 41
3.174999952316284
 42
3.17498779296875
 43
3.17498779296875
 44
296.989501953125
 45
419.9889831542968
 46
0.0
 47
1.316810890881697
 48
85.98448795394507
 49
35.16285950862948
140
925.984487953945
141
629.1628595086295
142
1.0
143
2.043768899142953
 70
  3764
 72
     1
 73
     1
 74
     4
  7
monochrome.ctb
 75
     0
147
0.4892921114610101
148
-85.98448795394507
149
-35.16285950862948
100
AcDbLayout
  1
Model
 70
     1
 71
     0
 10
0.0
 20
0.0
 11
12.0
 21
9.0
 12
0.0
 22
0.0
 32
0.0
 14
0.0
 24
0.0
 34
0.0
 15
0.0
 25
0.0
 35
0.0
146
0.0
 13
0.0
 23
0.0
 33
0.0
 16
1.0
 26
0.0
 36
0.0
 17
0.0
 27
1.0
 37
0.0
 76
     0
330
1F
331
DAAB
1001
ACAD_PSEXT
1000
FX DocuWide 2050/2051
1000
FX DocuWide 2050/2051
1000
IP_192.168.2.203
1000

1070
     0
  0
LAYOUT
  5
1E
102
{ACAD_XDICTIONARY
360
DB0F
102
}
102
{ACAD_REACTORS
330
1A
102
}
330
1A
100
AcDbPlotSettings
  1

  2
\\ML370\XEROX
  4
A4
  6

 40
3.174999952316284
 41
3.174999952316284
 42
3.175003051757812
 43
3.17498779296875
 44
209.8674926757813
 45
296.6719970703125
 46
0.0
 47
0.0
 48
0.0
 49
0.0
140
0.0
141
0.0
142
1.0
143
1.0
 70
   688
 72
     1
 73
     1
 74
     5
  7
monochrome.ctb
 75
    16
147
1.0
148
0.0
149
0.0
100
AcDbLayout
  1
ﾚｲｱｳﾄ1
 70
     1
 71
     1
 10
-3.17498779296875
 20
-3.174999952316284
 11
293.4970092773438
 21
206.692492723465
 12
0.0
 22
0.0
 32
0.0
 14
1.000000000000000E+20
 24
1.000000000000000E+20
 34
1.000000000000000E+20
 15
-1.000000000000000E+20
 25
-1.000000000000000E+20
 35
-1.000000000000000E+20
146
0.0
 13
0.0
 23
0.0
 33
0.0
 16
1.0
 26
0.0
 36
0.0
 17
0.0
 27
1.0
 37
0.0
 76
     0
330
1B
  0
LAYOUT
  5
26
102
{ACAD_XDICTIONARY
360
DB13
102
}
102
{ACAD_REACTORS
330
1A
102
}
330
1A
100
AcDbPlotSettings
  1

  2
\\ML370\XEROX
  4

  6

 40
0.0
 41
0.0
 42
0.0
 43
0.0
 44
0.0
 45
0.0
 46
0.0
 47
0.0
 48
0.0
 49
0.0
140
0.0
141
0.0
142
1.0
143
1.0
 70
   688
 72
     0
 73
     0
 74
     5
  7
monochrome.ctb
 75
    16
147
1.0
148
0.0
149
0.0
100
AcDbLayout
  1
ﾚｲｱｳﾄ2
 70
     1
 71
     2
 10
0.0
 20
0.0
 11
12.0
 21
9.0
 12
0.0
 22
0.0
 32
0.0
 14
0.0
 24
0.0
 34
0.0
 15
0.0
 25
0.0
 35
0.0
146
0.0
 13
0.0
 23
0.0
 33
0.0
 16
1.0
 26
0.0
 36
0.0
 17
0.0
 27
1.0
 37
0.0
 76
     0
330
23
  0
MATERIAL
  5
DAAE
102
{ACAD_XDICTIONARY
360
DB29
102
}
102
{ACAD_REACTORS
330
A91C
102
}
330
A91C
100
AcDbMaterial
  1
ByBlock
  0
MATERIAL
  5
DAAD
102
{ACAD_XDICTIONARY
360
DB27
102
}
102
{ACAD_REACTORS
330
A91C
102
}
330
A91C
100
AcDbMaterial
  1
ByLayer
  0
MATERIAL
  5
DAAF
102
{ACAD_XDICTIONARY
360
DB2B
102
}
102
{ACAD_REACTORS
330
A91C
102
}
330
A91C
100
AcDbMaterial
  1
Global
  0
MLINESTYLE
  5
18
102
{ACAD_REACTORS
330
17
102
}
330
17
100
AcDbMlineStyle
  2
STANDARD
 70
     0
  3

 62
   256
 51
90.0
 52
90.0
 71
     2
 49
0.5
 62
   256
  6
BYLAYER
 49
-0.5
 62
   256
  6
BYLAYER
  0
PLOTSETTINGS
  5
C2E8
102
{ACAD_XDICTIONARY
360
DB17
102
}
102
{ACAD_REACTORS
330
19
102
}
330
19
100
AcDbPlotSettings
  1
01 A3フィット
  2
FX DocuWide 2050/2051
  4
A3
  6

 40
3.174999952316284
 41
3.174999952316284
 42
3.17498779296875
 43
3.17498779296875
 44
296.989501953125
 45
419.9889831542968
 46
0.0
 47
1.295841228961961
 48
214.3704939521119
 49
367.5855324241176
140
275.6727856380065
141
407.629191407817
142
1.0
143
1.445089120606129
 70
  3764
 72
     1
 73
     1
 74
     2
  7
monochrome.ctb
 75
     0
147
0.6919988433519999
148
0.0
149
0.0
1001
ACAD_PSEXT
1000
FX DocuWide 2050/2051
1000
FX DocuWide 2050/2051
1000
IP_192.200.15.252
1000

1070
     0
  0
PLOTSETTINGS
  5
C2E9
102
{ACAD_XDICTIONARY
360
DB19
102
}
102
{ACAD_REACTORS
330
19
102
}
330
19
100
AcDbPlotSettings
  1
02 A3
  2
FX DocuWide 2050/2051
  4
A3
  6

 40
3.174999952316284
 41
3.174999952316284
 42
3.17498779296875
 43
3.17498779296875
 44
296.989501953125
 45
419.9889831542968
 46
-64.68024289608002
 47
-90.18050229549407
 48
214.3704939521119
 49
367.5855324241176
140
275.6727856380065
141
407.629191407817
142
1.0
143
1.0
 70
  3764
 72
     1
 73
     1
 74
     2
  7
monochrome.ctb
 75
    16
147
1.0
148
0.0
149
0.0
1001
ACAD_PSEXT
1000
FX DocuWide 2050/2051
1000
FX DocuWide 2050/2051
1000
IP_192.200.15.252
1000

1070
     0
  0
PLOTSETTINGS
  5
C2EA
102
{ACAD_XDICTIONARY
360
DB1B
102
}
102
{ACAD_REACTORS
330
19
102
}
330
19
100
AcDbPlotSettings
  1
03 A2フィット
  2
FX DocuWide 2050/2051
  4
User66
  6

 40
3.174999952316284
 41
3.174999952316284
 42
3.17498779296875
 43
3.17498779296875
 44
419.9889831542968
 45
593.97900390625
 46
0.0
 47
1.312647041252716
 48
214.3704939521119
 49
367.5855324241176
140
275.6727856380065
141
407.629191407817
142
1.0
143
1.015378155013403
 70
  3764
 72
     1
 73
     1
 74
     2
  7
monochrome.ctb
 75
     0
147
0.9848547509738377
148
0.0
149
0.0
1001
ACAD_PSEXT
1000
FX DocuWide 2050/2051
1000
FX DocuWide 2050/2051
1000
IP_192.200.15.252
1000

1070
     0
  0
PLOTSETTINGS
  5
C2EB
102
{ACAD_XDICTIONARY
360
DB1D
102
}
102
{ACAD_REACTORS
330
19
102
}
330
19
100
AcDbPlotSettings
  1
04 A2
  2
FX DocuWide 2050/2051
  4
User66
  6

 40
3.174999952316284
 41
3.174999952316284
 42
3.17498779296875
 43
3.17498779296875
 44
419.9889831542968
 45
593.97900390625
 46
-3.180502295494079
 47
-3.185491919517517
 48
214.3704939521119
 49
367.5855324241176
140
275.6727856380065
141
407.629191407817
142
1.0
143
1.0
 70
  3764
 72
     1
 73
     1
 74
     2
  7
monochrome.ctb
 75
    16
147
1.0
148
0.0
149
0.0
1001
ACAD_PSEXT
1000
FX DocuWide 2050/2051
1000
FX DocuWide 2050/2051
1000
IP_192.200.15.252
1000

1070
     0
  0
PLOTSETTINGS
  5
C2EC
102
{ACAD_XDICTIONARY
360
DB1F
102
}
102
{ACAD_REACTORS
330
19
102
}
330
19
100
AcDbPlotSettings
  1
05 A1フィット
  2
FX DocuWide 2050/2051
  4
User139
  6

 40
3.174999952316284
 41
3.174999952316284
 42
3.17498779296875
 43
3.17498779296875
 44
593.97900390625
 45
840.9939575195313
 46
0.0
 47
1.784323459012171
 48
214.3704939521119
 49
367.5855324241176
140
275.6727856380065
141
407.629191407817
142
1.0
143
0.7147366594384652
 70
  3764
 72
     1
 73
     1
 74
     2
  7
monochrome.ctb
 75
     0
147
1.399116705145154
148
0.0
149
0.0
1001
ACAD_PSEXT
1000
FX DocuWide 2050/2051
1000
FX DocuWide 2050/2051
1000
IP_192.200.15.252
1000

1070
     0
  0
PLOTSETTINGS
  5
C2ED
102
{ACAD_XDICTIONARY
360
DB21
102
}
102
{ACAD_REACTORS
330
19
102
}
330
19
100
AcDbPlotSettings
  1
06 A1
  2
FX DocuWide 2050/2051
  4
User139
  6

 40
3.174999952316284
 41
3.174999952316284
 42
3.17498779296875
 43
3.17498779296875
 44
593.97900390625
 45
840.9939575195313
 46
83.81450808048247
 47
120.3219848871231
 48
214.3704939521119
 49
367.5855324241176
140
275.6727856380065
141
407.629191407817
142
1.0
143
1.0
 70
  3764
 72
     1
 73
     1
 74
     2
  7
monochrome.ctb
 75
    16
147
1.0
148
0.0
149
0.0
1001
ACAD_PSEXT
1000
FX DocuWide 2050/2051
1000
FX DocuWide 2050/2051
1000
IP_192.200.15.252
1000

1070
     0
  0
PLOTSETTINGS
  5
C2EE
102
{ACAD_XDICTIONARY
360
DB23
102
}
102
{ACAD_REACTORS
330
19
102
}
330
19
100
AcDbPlotSettings
  1
06 A4フィット
  2
FX DocuWide 2050/2051
  4
A4
  6

 40
3.174999952316284
 41
3.174999952316284
 42
3.175003051757812
 43
3.17498779296875
 44
209.9944915771484
 45
296.989501953125
 46
0.0
 47
1.314011612960285
 48
214.3704939521119
 49
367.5855324241176
140
275.6727856380065
141
407.629191407817
142
1.0
143
2.06241771109504
 70
  3764
 72
     1
 73
     1
 74
     2
  7
monochrome.ctb
 75
     0
147
0.4848678299358913
148
0.0
149
0.0
1001
ACAD_PSEXT
1000
FX DocuWide 2050/2051
1000
FX DocuWide 2050/2051
1000
IP_192.200.15.252
1000

1070
     0
  0
PLOTSETTINGS
  5
C2EF
102
{ACAD_XDICTIONARY
360
DB25
102
}
102
{ACAD_REACTORS
330
19
102
}
330
19
100
AcDbPlotSettings
  1
07 A4
  2
FX DocuWide 2050/2051
  4
A4
  6

 40
3.174999952316284
 41
3.174999952316284
 42
3.175003051757812
 43
3.17498779296875
 44
209.9944915771484
 45
296.989501953125
 46
-108.1777557134628
 47
-151.68024289608
 48
214.3704939521119
 49
367.5855324241176
140
275.6727856380065
141
407.629191407817
142
1.0
143
1.0
 70
  3764
 72
     1
 73
     1
 74
     2
  7
monochrome.ctb
 75
    16
147
1.0
148
0.0
149
0.0
1001
ACAD_PSEXT
1000
FX DocuWide 2050/2051
1000
FX DocuWide 2050/2051
1000
IP_192.200.15.252
1000

1070
     0
  0
ACDBPLACEHOLDER
  5
F
102
{ACAD_REACTORS
330
E
102
}
330
E
  0
TABLESTYLE
  5
AABA
102
{ACAD_XDICTIONARY
360
DB15
102
}
102
{ACAD_REACTORS
330
AAB9
102
}
330
AAB9
100
AcDbTableStyle
  3
Standard
 70
     0
 71
     0
 40
1.5
 41
1.5
280
     0
281
     0
  7
STANDARD
140
4.5
170
     2
 62
     0
 63
     7
283
     0
274
    -2
284
     1
 64
     0
275
    -2
285
     1
 65
     0
276
    -2
286
     1
 66
     0
277
    -2
287
     1
 67
     0
278
    -2
288
     1
 68
     0
279
    -2
289
     1
 69
     0
  7
STANDARD
140
6.0
170
     5
 62
     0
 63
     7
283
     0
274
    -2
284
     1
 64
     0
275
    -2
285
     1
 65
     0
276
    -2
286
     1
 66
     0
277
    -2
287
     1
 67
     0
278
    -2
288
     1
 68
     0
279
    -2
289
     1
 69
     0
  7
STANDARD
140
4.5
170
     5
 62
     0
 63
     7
283
     0
274
    -2
284
     1
 64
     0
275
    -2
285
     1
 65
     0
276
    -2
286
     1
 66
     0
277
    -2
287
     1
 67
     0
278
    -2
288
     1
 68
     0
279
    -2
289
     1
 69
     0
  0
VISUALSTYLE
  5
DAB6
102
{ACAD_REACTORS
330
DAB0
102
}
330
DAB0
100
AcDbVisualStyle
  2
2dWireframe
 70
     4
 71
     0
 72
     2
 73
     0
 90
        0
 40
-0.6
 41
-30.0
 62
     5
 63
     7
 74
     1
 91
        4
 64
     7
 65
   257
 75
     1
175
     1
 42
1.0
 92
        0
 66
   257
 43
1.0
 76
     1
 77
     6
 78
     2
 67
     7
 79
     5
170
     0
171
     0
290
     0
174
     0
 93
        1
 44
0.0
173
     0
291
     0
 45
0.0
1001
ACAD
1000
AcDbSavedByObjectVersion
1070
     0
  0
VISUALSTYLE
  5
DAB8
102
{ACAD_REACTORS
330
DAB0
102
}
330
DAB0
100
AcDbVisualStyle
  2
3D Hidden
 70
     6
 71
     1
 72
     2
 73
     2
 90
        0
 40
-0.6
 41
-30.0
 62
     5
 63
     7
 74
     2
 91
        2
 64
     7
 65
   257
 75
     2
175
     1
 42
40.0
 92
        0
 66
   257
 43
1.0
 76
     1
 77
     6
 78
     2
 67
     7
 79
     3
170
     0
171
     0
290
     0
174
     0
 93
        1
 44
0.0
173
     0
291
     0
 45
0.0
1001
ACAD
1000
AcDbSavedByObjectVersion
1070
     0
  0
VISUALSTYLE
  5
DAB7
102
{ACAD_REACTORS
330
DAB0
102
}
330
DAB0
100
AcDbVisualStyle
  2
3dWireframe
 70
     5
 71
     0
 72
     2
 73
     0
 90
        0
 40
-0.6
 41
-30.0
 62
     5
 63
     7
 74
     1
 91
        4
 64
     7
 65
   257
 75
     1
175
     1
 42
1.0
 92
        0
 66
   257
 43
1.0
 76
     1
 77
     6
 78
     2
 67
     7
 79
     5
170
     0
171
     0
290
     0
174
     0
 93
        1
 44
0.0
173
     0
291
     0
 45
0.0
1001
ACAD
1000
AcDbSavedByObjectVersion
1070
     0
  0
VISUALSTYLE
  5
DAB5
102
{ACAD_REACTORS
330
DAB0
102
}
330
DAB0
100
AcDbVisualStyle
  2
Basic
 70
     7
 71
     1
 72
     0
 73
     1
 90
        0
 40
-0.6
 41
-30.0
 62
     5
 63
     7
 74
     0
 91
        4
 64
     7
 65
   257
 75
     1
175
     1
 42
1.0
 92
        8
 66
     7
 43
1.0
 76
     1
 77
     6
 78
     2
 67
     7
 79
     5
170
     0
171
     0
290
     0
174
     0
 93
        1
 44
0.0
173
     0
291
     1
 45
0.0
1001
ACAD
1000
AcDbSavedByObjectVersion
1070
     0
  0
VISUALSTYLE
  5
DABC
102
{ACAD_REACTORS
330
DAB0
102
}
330
DAB0
100
AcDbVisualStyle
  2
Brighten
 70
    12
 71
     2
 72
     2
 73
     0
 90
        0
 40
-0.6
 41
-30.0
 62
     5
 63
     7
 74
     1
 91
        4
 64
     7
 65
   257
 75
     1
175
     1
 42
1.0
 92
        8
 66
     7
 43
1.0
 76
     1
 77
     6
 78
     2
 67
     7
 79
     5
170
     0
171
     0
290
     0
174
     0
 93
        1
 44
50.0
173
     0
291
     1
 45
0.0
1001
ACAD
1000
AcDbSavedByObjectVersion
1070
     0
  0
VISUALSTYLE
  5
DAC0
102
{ACAD_REACTORS
330
DAB0
102
}
330
DAB0
100
AcDbVisualStyle
  2
ColorChange
 70
    16
 71
     2
 72
     2
 73
     3
 90
        0
 40
-0.6
 41
-30.0
 62
     5
 63
     8
 74
     1
 91
        4
 64
     7
 65
   257
 75
     1
175
     1
 42
1.0
 92
        8
 66
     8
 43
1.0
 76
     1
 77
     6
 78
     2
 67
     7
 79
     5
170
     0
171
     0
290
     0
174
     0
 93
        1
 44
0.0
173
     0
291
     1
 45
0.0
1001
ACAD
1000
AcDbSavedByObjectVersion
1070
     0
  0
VISUALSTYLE
  5
DAB9
102
{ACAD_REACTORS
330
DAB0
102
}
330
DAB0
100
AcDbVisualStyle
  2
Conceptual
 70
     9
 71
     3
 72
     2
 73
     0
 90
        0
 40
-0.6
 41
-30.0
 62
     5
 63
     7
 74
     2
 91
        2
 64
     7
 65
   257
 75
     1
175
     1
 42
40.0
 92
        8
 66
     7
 43
1.0
 76
     1
 77
     6
 78
     2
 67
     7
 79
     3
170
     0
171
     0
290
     0
174
     0
 93
        1
 44
0.0
173
     0
291
     0
 45
0.0
1001
ACAD
1000
AcDbSavedByObjectVersion
1070
     0
  0
VISUALSTYLE
  5
DABB
102
{ACAD_REACTORS
330
DAB0
102
}
330
DAB0
100
AcDbVisualStyle
  2
Dim
 70
    11
 71
     2
 72
     2
 73
     0
 90
        0
 40
-0.6
 41
-30.0
 62
     5
 63
     7
 74
     1
 91
        4
 64
     7
 65
   257
 75
     1
175
     1
 42
1.0
 92
        8
 66
     7
 43
1.0
 76
     1
 77
     6
 78
     2
 67
     7
 79
     5
170
     0
171
     0
290
     0
174
     0
 93
        1
 44
-50.0
173
     0
291
     1
 45
0.0
1001
ACAD
1000
AcDbSavedByObjectVersion
1070
     0
  0
VISUALSTYLE
  5
DABF
102
{ACAD_REACTORS
330
DAB0
102
}
330
DAB0
100
AcDbVisualStyle
  2
Facepattern
 70
    15
 71
     2
 72
     2
 73
     0
 90
        0
 40
-0.6
 41
-30.0
 62
     5
 63
     7
 74
     1
 91
        4
 64
     7
 65
   257
 75
     1
175
     1
 42
1.0
 92
        8
 66
     7
 43
1.0
 76
     1
 77
     6
 78
     2
 67
     7
 79
     5
170
     0
171
     0
290
     0
174
     0
 93
        1
 44
0.0
173
     0
291
     1
 45
0.0
1001
ACAD
1000
AcDbSavedByObjectVersion
1070
     0
  0
VISUALSTYLE
  5
DAB1
102
{ACAD_REACTORS
330
DAB0
102
}
330
DAB0
100
AcDbVisualStyle
  2
Flat
 70
     0
 71
     2
 72
     1
 73
     1
 90
        2
 40
-0.6
 41
30.0
 62
     5
 63
     7
 74
     0
 91
        4
 64
     7
 65
   257
 75
     1
175
     1
 42
1.0
 92
        8
 66
     7
 43
1.0
 76
     1
 77
     6
 78
     2
 67
     7
 79
     5
170
     0
171
     0
290
     0
174
     0
 93
       13
 44
0.0
173
     0
291
     1
 45
0.0
1001
ACAD
1000
AcDbSavedByObjectVersion
1070
     0
  0
VISUALSTYLE
  5
DAB2
102
{ACAD_REACTORS
330
DAB0
102
}
330
DAB0
100
AcDbVisualStyle
  2
FlatWithEdges
 70
     1
 71
     2
 72
     1
 73
     1
 90
        2
 40
-0.6
 41
30.0
 62
     5
 63
     7
 74
     1
 91
        4
 64
     7
 65
   257
 75
     1
175
     1
 42
1.0
 92
        0
 66
   257
 43
1.0
 76
     1
 77
     6
 78
     2
 67
     7
 79
     5
170
     0
171
     0
290
     0
174
     0
 93
       13
 44
0.0
173
     0
291
     1
 45
0.0
1001
ACAD
1000
AcDbSavedByObjectVersion
1070
     0
  0
VISUALSTYLE
  5
DAB3
102
{ACAD_REACTORS
330
DAB0
102
}
330
DAB0
100
AcDbVisualStyle
  2
Gouraud
 70
     2
 71
     2
 72
     2
 73
     1
 90
        2
 40
-0.6
 41
30.0
 62
     5
 63
     7
 74
     0
 91
        4
 64
     7
 65
   257
 75
     1
175
     1
 42
1.0
 92
        0
 66
     7
 43
1.0
 76
     1
 77
     6
 78
     2
 67
     7
 79
     5
170
     0
171
     0
290
     0
174
     0
 93
       13
 44
0.0
173
     0
291
     1
 45
0.0
1001
ACAD
1000
AcDbSavedByObjectVersion
1070
     0
  0
VISUALSTYLE
  5
DAB4
102
{ACAD_REACTORS
330
DAB0
102
}
330
DAB0
100
AcDbVisualStyle
  2
GouraudWithEdges
 70
     3
 71
     2
 72
     2
 73
     1
 90
        2
 40
-0.6
 41
30.0
 62
     5
 63
     7
 74
     1
 91
        4
 64
     7
 65
   257
 75
     1
175
     1
 42
1.0
 92
        0
 66
   257
 43
1.0
 76
     1
 77
     6
 78
     2
 67
     7
 79
     5
170
     0
171
     0
290
     0
174
     0
 93
       13
 44
0.0
173
     0
291
     1
 45
0.0
1001
ACAD
1000
AcDbSavedByObjectVersion
1070
     0
  0
VISUALSTYLE
  5
DABE
102
{ACAD_REACTORS
330
DAB0
102
}
330
DAB0
100
AcDbVisualStyle
  2
Linepattern
 70
    14
 71
     2
 72
     2
 73
     0
 90
        0
 40
-0.6
 41
-30.0
 62
     5
 63
     7
 74
     1
 91
        4
 64
     7
 65
   257
 75
     7
175
     7
 42
1.0
 92
        8
 66
     7
 43
1.0
 76
     1
 77
     6
 78
     2
 67
     7
 79
     5
170
     0
171
     0
290
     0
174
     0
 93
        1
 44
0.0
173
     0
291
     1
 45
0.0
1001
ACAD
1000
AcDbSavedByObjectVersion
1070
     0
  0
VISUALSTYLE
  5
DABA
102
{ACAD_REACTORS
330
DAB0
102
}
330
DAB0
100
AcDbVisualStyle
  2
Realistic
 70
     8
 71
     2
 72
     2
 73
     0
 90
        0
 40
-0.6
 41
-30.0
 62
     5
 63
     7
 74
     1
 91
        0
 64
     7
 65
   257
 75
     1
175
     1
 42
1.0
 92
        8
 66
     8
 43
1.0
 76
     1
 77
     6
 78
     2
 67
     7
 79
     5
170
     0
171
     0
290
     0
174
     0
 93
       13
 44
0.0
173
     0
291
     0
 45
0.0
1001
ACAD
1000
AcDbSavedByObjectVersion
1070
     0
  0
VISUALSTYLE
  5
DABD
102
{ACAD_REACTORS
330
DAB0
102
}
330
DAB0
100
AcDbVisualStyle
  2
Thicken
 70
    13
 71
     2
 72
     2
 73
     0
 90
        0
 40
-0.6
 41
-30.0
 62
     5
 63
     7
 74
     1
 91
        4
 64
     7
 65
   257
 75
     1
175
     1
 42
1.0
 92
       12
 66
     7
 43
1.0
 76
     1
 77
     6
 78
     2
 67
     7
 79
     5
170
     0
171
     0
290
     0
174
     0
 93
        1
 44
0.0
173
     0
291
     1
 45
0.0
1001
ACAD
1000
AcDbSavedByObjectVersion
1070
     0
  0
DICTIONARYVAR
  5
AAF3
102
{ACAD_REACTORS
330
34
102
}
330
34
100
DictionaryVariables
280
     0
  1
STANDARD
  0
DICTIONARYVAR
  5
A10C
102
{ACAD_REACTORS
330
34
102
}
330
34
100
DictionaryVariables
280
     0
  1
2
  0
DICTIONARYVAR
  5
AB07
102
{ACAD_REACTORS
330
34
102
}
330
34
100
DictionaryVariables
280
     0
  1
4
  0
DICTIONARYVAR
  5
35
102
{ACAD_REACTORS
330
34
102
}
330
34
100
DictionaryVariables
280
     0
  1
0
  0
DICTIONARYVAR
  5
194C
102
{ACAD_REACTORS
330
34
102
}
330
34
100
DictionaryVariables
280
     0
  1
96
  0
DICTIONARY
  5
7E8
102
{ACAD_REACTORS
330
47
102
}
330
47
100
AcDbDictionary
281
     1
  0
DICTIONARY
  5
4C
102
{ACAD_REACTORS
330
47
102
}
330
47
100
AcDbDictionary
281
     1
  0
XRECORD
  5
A929
102
{ACAD_REACTORS
330
47
102
}
330
47
100
AcDbXrecord
280
     1
 90
-1023410169
  0
XRECORD
  5
9F49
102
{ACAD_REACTORS
330
9F48
102
}
330
9F48
100
AcDbXrecord
280
     1
330
0
330
0
330
0
330
0
330
0
330
0
330
0
330
0
  0
XRECORD
  5
3FB7
102
{ACAD_REACTORS
330
3F96
102
}
330
3F96
100
AcDbXrecord
280
     1
 91
        3
330
0
 90
        8
 62
     7
370
    40
331
16
  1
Color_7
330
0
 90
        0
 62
    14
370
    -3
331
16
  1
Color_14
330
0
 90
        8
 62
     7
370
    20
331
16
  1
Color_7
330
6D1
 90
        0
 62
     7
370
    -3
331
16
  1
Color_7
330
0
 90
        8
 62
     7
370
    50
331
16
  1
Color_7
330
0
 90
        8
 62
     2
370
    35
331
16
  1
Color_2
330
0
 90
        8
 62
     7
370
    -3
331
16
  1
Color_7
330
10
 90
        8
 62
     7
370
    -3
331
16
  1
Color_7
  0
DICTIONARY
  5
DB11
330
22
100
AcDbDictionary
280
     1
281
     1
  3
ACAD_XREC_ROUNDTRIP
360
DB12
  0
DICTIONARY
  5
DB0F
330
1E
100
AcDbDictionary
280
     1
281
     1
  3
ACAD_XREC_ROUNDTRIP
360
DB10
  0
DICTIONARY
  5
DB13
330
26
100
AcDbDictionary
280
     1
281
     1
  3
ACAD_XREC_ROUNDTRIP
360
DB14
  0
DICTIONARY
  5
DB29
330
DAAE
100
AcDbDictionary
280
     1
281
     1
  3
ACAD_XREC_ROUNDTRIP
360
DB2A
  0
DICTIONARY
  5
DB27
330
DAAD
100
AcDbDictionary
280
     1
281
     1
  3
ACAD_XREC_ROUNDTRIP
360
DB28
  0
DICTIONARY
  5
DB2B
330
DAAF
100
AcDbDictionary
280
     1
281
     1
  3
ACAD_XREC_ROUNDTRIP
360
DB2C
  0
DICTIONARY
  5
DB17
330
C2E8
100
AcDbDictionary
280
     1
281
     1
  3
ACAD_XREC_ROUNDTRIP
360
DB18
  0
DICTIONARY
  5
DB19
330
C2E9
100
AcDbDictionary
280
     1
281
     1
  3
ACAD_XREC_ROUNDTRIP
360
DB1A
  0
DICTIONARY
  5
DB1B
330
C2EA
100
AcDbDictionary
280
     1
281
     1
  3
ACAD_XREC_ROUNDTRIP
360
DB1C
  0
DICTIONARY
  5
DB1D
330
C2EB
100
AcDbDictionary
280
     1
281
     1
  3
ACAD_XREC_ROUNDTRIP
360
DB1E
  0
DICTIONARY
  5
DB1F
330
C2EC
100
AcDbDictionary
280
     1
281
     1
  3
ACAD_XREC_ROUNDTRIP
360
DB20
  0
DICTIONARY
  5
DB21
330
C2ED
100
AcDbDictionary
280
     1
281
     1
  3
ACAD_XREC_ROUNDTRIP
360
DB22
  0
DICTIONARY
  5
DB23
330
C2EE
100
AcDbDictionary
280
     1
281
     1
  3
ACAD_XREC_ROUNDTRIP
360
DB24
  0
DICTIONARY
  5
DB25
330
C2EF
100
AcDbDictionary
280
     1
281
     1
  3
ACAD_XREC_ROUNDTRIP
360
DB26
  0
DICTIONARY
  5
DB15
330
AABA
100
AcDbDictionary
280
     1
281
     1
  3
ACAD_XREC_ROUNDTRIP
360
DB16
  0
XRECORD
  5
DB12
102
{ACAD_REACTORS
330
DB11
102
}
330
DB11
100
AcDbXrecord
280
     1
102
SHADEPLOT
 70
     0
102
SHADEPLOTRESLEVEL
 70
     2
102
SHADEPLOTCUSTOMDPI
 70
   200
  0
XRECORD
  5
DB10
102
{ACAD_REACTORS
330
DB0F
102
}
330
DB0F
100
AcDbXrecord
280
     1
102
SHADEPLOT
 70
     0
102
SHADEPLOTRESLEVEL
 70
     2
102
SHADEPLOTCUSTOMDPI
 70
   300
  0
XRECORD
  5
DB14
102
{ACAD_REACTORS
330
DB13
102
}
330
DB13
100
AcDbXrecord
280
     1
102
SHADEPLOT
 70
     0
102
SHADEPLOTRESLEVEL
 70
     2
102
SHADEPLOTCUSTOMDPI
 70
   300
  0
XRECORD
  5
DB2A
102
{ACAD_REACTORS
330
DB29
102
}
330
DB29
100
AcDbXrecord
280
     1
102
MATERIAL
148
0.0
149
0.0
149
0.0
 93
        0
 94
       63
282
     0
 72
     1
 77
     1
171
     1
175
     1
179
     1
273
     0
  0
XRECORD
  5
DB28
102
{ACAD_REACTORS
330
DB27
102
}
330
DB27
100
AcDbXrecord
280
     1
102
MATERIAL
148
0.0
149
0.0
149
0.0
 93
        0
 94
       63
282
     0
 72
     1
 77
     1
171
     1
175
     1
179
     1
273
     0
  0
XRECORD
  5
DB2C
102
{ACAD_REACTORS
330
DB2B
102
}
330
DB2B
100
AcDbXrecord
280
     1
102
MATERIAL
148
0.0
149
0.0
149
0.0
 93
        0
 94
       63
282
     0
 72
     1
 77
     1
171
     1
175
     1
179
     1
273
     0
  0
XRECORD
  5
DB18
102
{ACAD_REACTORS
330
DB17
102
}
330
DB17
100
AcDbXrecord
280
     1
102
SHADEPLOT
 70
     0
102
SHADEPLOTRESLEVEL
 70
     2
102
SHADEPLOTCUSTOMDPI
 70
   200
  0
XRECORD
  5
DB1A
102
{ACAD_REACTORS
330
DB19
102
}
330
DB19
100
AcDbXrecord
280
     1
102
SHADEPLOT
 70
     0
102
SHADEPLOTRESLEVEL
 70
     2
102
SHADEPLOTCUSTOMDPI
 70
   200
  0
XRECORD
  5
DB1C
102
{ACAD_REACTORS
330
DB1B
102
}
330
DB1B
100
AcDbXrecord
280
     1
102
SHADEPLOT
 70
     0
102
SHADEPLOTRESLEVEL
 70
     2
102
SHADEPLOTCUSTOMDPI
 70
   200
  0
XRECORD
  5
DB1E
102
{ACAD_REACTORS
330
DB1D
102
}
330
DB1D
100
AcDbXrecord
280
     1
102
SHADEPLOT
 70
     0
102
SHADEPLOTRESLEVEL
 70
     2
102
SHADEPLOTCUSTOMDPI
 70
   200
  0
XRECORD
  5
DB20
102
{ACAD_REACTORS
330
DB1F
102
}
330
DB1F
100
AcDbXrecord
280
     1
102
SHADEPLOT
 70
     0
102
SHADEPLOTRESLEVEL
 70
     2
102
SHADEPLOTCUSTOMDPI
 70
   200
  0
XRECORD
  5
DB22
102
{ACAD_REACTORS
330
DB21
102
}
330
DB21
100
AcDbXrecord
280
     1
102
SHADEPLOT
 70
     0
102
SHADEPLOTRESLEVEL
 70
     2
102
SHADEPLOTCUSTOMDPI
 70
   200
  0
XRECORD
  5
DB24
102
{ACAD_REACTORS
330
DB23
102
}
330
DB23
100
AcDbXrecord
280
     1
102
SHADEPLOT
 70
     0
102
SHADEPLOTRESLEVEL
 70
     2
102
SHADEPLOTCUSTOMDPI
 70
   200
  0
XRECORD
  5
DB26
102
{ACAD_REACTORS
330
DB25
102
}
330
DB25
100
AcDbXrecord
280
     1
102
SHADEPLOT
 70
     0
102
SHADEPLOTRESLEVEL
 70
     2
102
SHADEPLOTCUSTOMDPI
 70
   200
  0
XRECORD
  5
DB16
102
{ACAD_REACTORS
330
DB15
102
}
330
DB15
100
AcDbXrecord
280
     1
102
ACAD_ROUNDTRIP_PRE2007_TABLESTYLE
 90
        4
 91
        0
  1

 92
        4
 93
        0
  2

 94
        4
 95
        0
  3

  0
ENDSEC
  0
EOF
