  0
SECTION
  2
HEADER
  9
$ACADVER
  1
AC1015
  9
$ACADMAINTVER
 70
    20
  9
$DWGCODEPAGE
  3
ANSI_932
  9
$INSBASE
 10
0.0
 20
0.0
 30
0.0
  9
$EXTMIN
 10
-0.1138133654649209
 20
-0.1669231440318981
 30
-0.0015258207003583
  9
$EXTMAX
 10
840.0624714042759
 20
594.3905437391877
 30
0.0000000349246037
  9
$LIMMIN
 10
-1206.906806347062
 20
-12202.36094600418
  9
$LIMMAX
 10
-366.9068063470622
 20
-11608.36094600418
  9
$ORTHOMODE
 70
     0
  9
$REGENMODE
 70
     1
  9
$FILLMODE
 70
     1
  9
$QTEXTMODE
 70
     0
  9
$MIRRTEXT
 70
     0
  9
$LTSCALE
 40
1.0
  9
$ATTMODE
 70
     1
  9
$TEXTSIZE
 40
3.2
  9
$TRACEWID
 40
1.0
  9
$TEXTSTYLE
  7
STANDARD
  9
$CLAYER
  8
AM_6
  9
$CELTYPE
  6
ByLayer
  9
$CECOLOR
 62
   256
  9
$CELTSCALE
 40
1.0
  9
$DISPSILH
 70
     0
  9
$DIMSCALE
 40
1.0
  9
$DIMASZ
 40
1.0
  9
$DIMEXO
 40
1.0
  9
$DIMDLI
 40
10.0
  9
$DIMRND
 40
0.0
  9
$DIMDLE
 40
0.0
  9
$DIMEXE
 40
1.0
  9
$DIMTP
 40
0.1
  9
$DIMTM
 40
0.1
  9
$DIMTXT
 40
3.5
  9
$DIMCEN
 40
0.0
  9
$DIMTSZ
 40
0.0
  9
$DIMTOL
 70
     0
  9
$DIMLIM
 70
     0
  9
$DIMTIH
 70
     0
  9
$DIMTOH
 70
     0
  9
$DIMSE1
 70
     0
  9
$DIMSE2
 70
     0
  9
$DIMTAD
 70
     1
  9
$DIMZIN
 70
     8
  9
$DIMBLK
  1

  9
$DIMASO
 70
     1
  9
$DIMSHO
 70
     1
  9
$DIMPOST
  1

  9
$DIMAPOST
  1
"
  9
$DIMALT
 70
     0
  9
$DIMALTD
 70
     2
  9
$DIMALTF
 40
0.0393701
  9
$DIMLFAC
 40
1.0
  9
$DIMTOFL
 70
     1
  9
$DIMTVP
 40
0.0
  9
$DIMTIX
 70
     0
  9
$DIMSOXD
 70
     0
  9
$DIMSAH
 70
     0
  9
$DIMBLK1
  1

  9
$DIMBLK2
  1

  9
$DIMSTYLE
  2
SYS
  9
$DIMCLRD
 70
   256
  9
$DIMCLRE
 70
   256
  9
$DIMCLRT
 70
     7
  9
$DIMTFAC
 40
0.71
  9
$DIMGAP
 40
1.5
  9
$DIMJUST
 70
     0
  9
$DIMSD1
 70
     0
  9
$DIMSD2
 70
     0
  9
$DIMTOLJ
 70
     0
  9
$DIMTZIN
 70
     8
  9
$DIMALTZ
 70
     0
  9
$DIMALTTZ
 70
     0
  9
$DIMUPT
 70
     0
  9
$DIMDEC
 70
     1
  9
$DIMTDEC
 70
     2
  9
$DIMALTU
 70
     2
  9
$DIMALTTD
 70
     2
  9
$DIMTXSTY
  7
STANDARD
  9
$DIMAUNIT
 70
     0
  9
$DIMADEC
 70
     0
  9
$DIMALTRND
 40
0.0
  9
$DIMAZIN
 70
     2
  9
$DIMDSEP
 70
    46
  9
$DIMATFIT
 70
     3
  9
$DIMFRAC
 70
     0
  9
$DIMLDRBLK
  1

  9
$DIMLUNIT
 70
     2
  9
$DIMLWD
 70
    -1
  9
$DIMLWE
 70
    -1
  9
$DIMTMOVE
 70
     0
  9
$LUNITS
 70
     2
  9
$LUPREC
 70
     2
  9
$SKETCHINC
 40
1.0
  9
$FILLETRAD
 40
0.0
  9
$AUNITS
 70
     0
  9
$AUPREC
 70
     0
  9
$MENU
  1
.
  9
$ELEVATION
 40
0.0
  9
$PELEVATION
 40
0.0
  9
$THICKNESS
 40
0.0
  9
$LIMCHECK
 70
     0
  9
$CHAMFERA
 40
0.0
  9
$CHAMFERB
 40
0.0
  9
$CHAMFERC
 40
20.0
  9
$CHAMFERD
 40
0.0
  9
$SKPOLY
 70
     0
  9
$TDCREATE
 40
2455567.561054317
  9
$TDUCREATE
 40
2455567.186054318
  9
$TDUPDATE
 40
2456267.576491782
  9
$TDUUPDATE
 40
2456267.201491783
  9
$TDINDWG
 40
3.1643346528
  9
$TDUSRTIMER
 40
3.1643326620
  9
$USRTIMER
 70
     1
  9
$ANGBASE
 50
0.0
  9
$ANGDIR
 70
     0
  9
$PDMODE
 70
     0
  9
$PDSIZE
 40
-3.0
  9
$PLINEWID
 40
0.0
  9
$SPLFRAME
 70
     0
  9
$SPLINETYPE
 70
     6
  9
$SPLINESEGS
 70
     8
  9
$HANDSEED
  5
AB215
  9
$SURFTAB1
 70
     6
  9
$SURFTAB2
 70
     6
  9
$SURFTYPE
 70
     6
  9
$SURFU
 70
     6
  9
$SURFV
 70
     6
  9
$UCSBASE
  2

  9
$UCSNAME
  2

  9
$UCSORG
 10
0.0
 20
0.0
 30
0.0
  9
$UCSXDIR
 10
1.0
 20
0.0
 30
0.0
  9
$UCSYDIR
 10
0.0
 20
1.0
 30
0.0
  9
$UCSORTHOREF
  2

  9
$UCSORTHOVIEW
 70
     0
  9
$UCSORGTOP
 10
0.0
 20
0.0
 30
0.0
  9
$UCSORGBOTTOM
 10
0.0
 20
0.0
 30
0.0
  9
$UCSORGLEFT
 10
0.0
 20
0.0
 30
0.0
  9
$UCSORGRIGHT
 10
0.0
 20
0.0
 30
0.0
  9
$UCSORGFRONT
 10
0.0
 20
0.0
 30
0.0
  9
$UCSORGBACK
 10
0.0
 20
0.0
 30
0.0
  9
$PUCSBASE
  2

  9
$PUCSNAME
  2

  9
$PUCSORG
 10
0.0
 20
0.0
 30
0.0
  9
$PUCSXDIR
 10
1.0
 20
0.0
 30
0.0
  9
$PUCSYDIR
 10
0.0
 20
1.0
 30
0.0
  9
$PUCSORTHOREF
  2

  9
$PUCSORTHOVIEW
 70
     0
  9
$PUCSORGTOP
 10
0.0
 20
0.0
 30
0.0
  9
$PUCSORGBOTTOM
 10
0.0
 20
0.0
 30
0.0
  9
$PUCSORGLEFT
 10
0.0
 20
0.0
 30
0.0
  9
$PUCSORGRIGHT
 10
0.0
 20
0.0
 30
0.0
  9
$PUCSORGFRONT
 10
0.0
 20
0.0
 30
0.0
  9
$PUCSORGBACK
 10
0.0
 20
0.0
 30
0.0
  9
$USERI1
 70
     0
  9
$USERI2
 70
     0
  9
$USERI3
 70
     0
  9
$USERI4
 70
     0
  9
$USERI5
 70
     0
  9
$USERR1
 40
0.0
  9
$USERR2
 40
0.0
  9
$USERR3
 40
0.0
  9
$USERR4
 40
0.0
  9
$USERR5
 40
0.0
  9
$WORLDVIEW
 70
     1
  9
$SHADEDGE
 70
     3
  9
$SHADEDIF
 70
    70
  9
$TILEMODE
 70
     1
  9
$MAXACTVP
 70
    64
  9
$PINSBASE
 10
0.0
 20
0.0
 30
0.0
  9
$PLIMCHECK
 70
     0
  9
$PEXTMIN
 10
1.000000000000000E+20
 20
1.000000000000000E+20
 30
1.000000000000000E+20
  9
$PEXTMAX
 10
-1.000000000000000E+20
 20
-1.000000000000000E+20
 30
-1.000000000000000E+20
  9
$PLIMMIN
 10
-3.17498779296875
 20
-3.174999952316284
  9
$PLIMMAX
 10
293.4970092773438
 20
206.692492723465
  9
$UNITMODE
 70
     0
  9
$VISRETAIN
 70
     1
  9
$PLINEGEN
 70
     0
  9
$PSLTSCALE
 70
     1
  9
$TREEDEPTH
 70
  3020
  9
$CMLSTYLE
  2
Standard
  9
$CMLJUST
 70
     0
  9
$CMLSCALE
 40
20.0
  9
$PROXYGRAPHICS
 70
     1
  9
$MEASUREMENT
 70
     1
  9
$CELWEIGHT
370
    -1
  9
$ENDCAPS
280
     0
  9
$JOINSTYLE
280
     0
  9
$LWDISPLAY
290
     1
  9
$INSUNITS
 70
     4
  9
$HYPERLINKBASE
  1

  9
$STYLESHEET
  1
monochrome.ctb
  9
$XEDIT
290
     1
  9
$CEPSNTYPE
380
     0
  9
$PSTYLEMODE
290
     1
  9
$FINGERPRINTGUID
  2
{E0FB5660-30B4-4D8A-8C1D-9D7E99D72F0A}
  9
$VERSIONGUID
  2
{24392C87-E934-4560-B505-06CDF667D2F7}
  9
$EXTNAMES
290
     1
  9
$PSVPSCALE
 40
0.0
  9
$OLESTARTUP
290
     0
  0
ENDSEC
  0
SECTION
  2
CLASSES
  0
CLASS
  1
ACDBDICTIONARYWDFLT
  2
AcDbDictionaryWithDefault
  3
ObjectDBX Classes
 90
        0
280
     0
281
     0
  0
CLASS
  1
ACDBPLACEHOLDER
  2
AcDbPlaceHolder
  3
ObjectDBX Classes
 90
        0
280
     0
281
     0
  0
CLASS
  1
LAYOUT
  2
AcDbLayout
  3
ObjectDBX Classes
 90
        0
280
     0
281
     0
  0
CLASS
  1
AMGSETTINGSOBJ
  2
AmgSettingsObj
  3
"AcadM|Product Description: AutoCAD Mechanical|Company: Autodesk"
 90
        0
280
     0
281
     0
  0
CLASS
  1
ACME_DOCUMENT
  2
AcMeDbDoc
  3
AcMeServices
 90
        0
280
     0
281
     0
  0
CLASS
  1
ACMESCOPE
  2
AcMeScope
  3
AcMeServices
 90
        0
280
     0
281
     0
  0
CLASS
  1
ACMECOMMANDHISTORY
  2
AcMeCommandHistory
  3
AcMeServices
 90
        0
280
     0
281
     0
  0
CLASS
  1
DICTIONARYVAR
  2
AcDbDictionaryVar
  3
ObjectDBX Classes
 90
        0
280
     0
281
     0
  0
CLASS
  1
ACIMSYSVARMAN
  2
AcImSysVarManager
  3
AcMeServices
 90
        0
280
     0
281
     0
  0
CLASS
  1
ACIMREALSYSVAR
  2
AcImRealSysVar
  3
AcMeServices
 90
        0
280
     0
281
     0
  0
CLASS
  1
ACIMINTSYSVAR
  2
AcImIntSysVar
  3
AcMeServices
 90
        0
280
     0
281
     0
  0
CLASS
  1
ACMEDRAWINGMAN
  2
AcMeDrawingMan
  3
AcMeServices
 90
        0
280
     0
281
     0
  0
CLASS
  1
ACMEVIEW
  2
AcMeView
  3
AcMeServices
 90
        0
280
     0
281
     0
  0
CLASS
  1
ACDBENTITYCACHE
  2
AcMeEntityCache
  3
AcMeServices
 90
        0
280
     0
281
     0
  0
CLASS
  1
GSMANAGER
  2
AcMeGSManager
  3
AcMeServices
 90
        0
280
     0
281
     0
  0
CLASS
  1
AMDTINTERNALREACTOR
  2
AmdtInternalReactor
  3
AcMeServices
 90
        0
280
     0
281
     0
  0
CLASS
  1
ACMESTATEMGR
  2
AcMeStateMgr
  3
AcMeServices
 90
        0
280
     0
281
     0
  0
CLASS
  1
ACGREFMASTER
  2
AcGrefMaster
  3
AcAttribServices
 90
        0
280
     0
281
     0
  0
CLASS
  1
ACME_DATABASE
  2
AcMeDbDatabase
  3
AcMeServices
 90
        0
280
     0
281
     0
  0
CLASS
  1
ACRFINSADJUSTERMGR
  2
AcRfInsAdjusterMgr
  3
AcMeServices
 90
        0
280
     0
281
     0
  0
CLASS
  1
ACGREFACADMASTER
  2
AcGrefacadMaster
  3
AcGrefServices
 90
        0
280
     0
281
     0
  0
CLASS
  1
AMIMASTER
  2
AmiMaster
  3
AmiServices
 90
        0
280
     0
281
     0
  0
CLASS
  1
ACMDATADICTIONARY
  2
AcmDataDictionary
  3
"AcmSymBB|Product Description: AutoCAD Mechanical|Company: Autodesk"
 90
        0
280
     0
281
     0
  0
CLASS
  1
ACMDATAENTRYBLOCK
  2
AcmDataEntryBlock
  3
"AcmSymBB|Product Description: AutoCAD Mechanical|Company: Autodesk"
 90
    32768
280
     0
281
     0
  0
CLASS
  1
ACIMSTRSYSVAR
  2
AcImStrSysVar
  3
AcMeServices
 90
        0
280
     0
281
     0
  0
CLASS
  1
ACMSTANDARDISO
  2
AcmStandardISO
  3
"Amdt_StdImp|Product Description: AutoCAD Mechanical|Company: Autodesk"
 90
        0
280
     0
281
     0
  0
CLASS
  1
AMGOBJPROPCFG
  2
AmgObjPropCfg
  3
"AmgLay|Product Description: AutoCAD Mechanical|Company: Autodesk"
 90
        1
280
     0
281
     0
  0
CLASS
  1
AMDTEDGESTANDARDISO
  2
AmdtEdgeStdISO
  3
"Amdt_StdImp|Product Description: AutoCAD Mechanical|Company: Autodesk"
 90
    32768
280
     0
281
     0
  0
CLASS
  1
ACMSURFSTANDARDISO
  2
AcmSurfTextStdISO
  3
"Amdt_StdImp|Product Description: AutoCAD Mechanical|Company: Autodesk"
 90
        0
280
     0
281
     0
  0
CLASS
  1
ACMFCFSTANDARDISO
  2
AcmFCFStdISO
  3
"Amdt_StdImp|Product Description: AutoCAD Mechanical|Company: Autodesk"
 90
        0
280
     0
281
     0
  0
CLASS
  1
ACMWELDSTANDARDISO
  2
AcmWeldingStdISO
  3
"Amdt_StdImp|Product Description: AutoCAD Mechanical|Company: Autodesk"
 90
        0
280
     0
281
     0
  0
CLASS
  1
ACMIDSTANDARDISO
  2
AcmIdStdISO
  3
"Amdt_StdImp|Product Description: AutoCAD Mechanical|Company: Autodesk"
 90
        0
280
     0
281
     0
  0
CLASS
  1
ACMDATUMSTANDARDISO
  2
AcmDatumStdISO
  3
"Amdt_StdImp|Product Description: AutoCAD Mechanical|Company: Autodesk"
 90
        0
280
     0
281
     0
  0
CLASS
  1
ACMBOMSTANDARDISO
  2
AcmBOMStdISO
  3
"Amdt_StdImp|Product Description: AutoCAD Mechanical|Company: Autodesk"
 90
        0
280
     0
281
     0
  0
CLASS
  1
ACMDETAILSTANDARDISO
  2
AmdtDetailSymStdISO
  3
"Amdt_StdImp|Product Description: AutoCAD Mechanical|Company: Autodesk"
 90
        0
280
     0
281
     0
  0
CLASS
  1
ACMSECTIONSTANDARDISO
  2
AmdtSectionSymStdISO
  3
"Amdt_StdImp|Product Description: AutoCAD Mechanical|Company: Autodesk"
 90
        0
280
     0
281
     0
  0
CLASS
  1
ACMCENTERLINESTANDARDISO
  2
AmdtCenterLineStdISO
  3
"Amdt_StdImp|Product Description: AutoCAD Mechanical|Company: Autodesk"
 90
        0
280
     0
281
     0
  0
CLASS
  1
ACAMGLAYSTD
  2
AcAmgLayStd
  3
"AmgLay|Product Description: AutoCAD Mechanical|Company: Autodesk"
 90
        0
280
     0
281
     0
  0
CLASS
  1
ACAMGDIMSTD
  2
AcAmgDimStd
  3
"AmgDim|Product Description: AutoCAD Mechanical|Company: Autodesk"
 90
        0
280
     0
281
     0
  0
CLASS
  1
ACAMGTITLESTD
  2
AcAmgTitleStd
  3
"AmgTitle|Product Description: AutoCAD Mechanical|Company: Autodesk"
 90
        0
280
     0
281
     0
  0
CLASS
  1
ACAMGFILTERDAT
  2
AcAmgFilterDat
  3
"AcadM|Product Description: AutoCAD Mechanical|Company: Autodesk"
 90
    32768
280
     0
281
     0
  0
CLASS
  1
LAYER_INDEX
  2
AcDbLayerIndex
  3
ObjectDBX Classes
 90
    32768
280
     0
281
     0
  0
CLASS
  1
IDBUFFER
  2
AcDbIdBuffer
  3
ObjectDBX Classes
 90
    32768
280
     0
281
     0
  0
CLASS
  1
PLOTSETTINGS
  2
AcDbPlotSettings
  3
ObjectDBX Classes
 90
    32768
280
     0
281
     0
  0
CLASS
  1
AMDTFORMULAUPDATEDISPATCHER
  2
AmdtFormulaUpdateDispatcher
  3
AcMeServices
 90
    32768
280
     0
281
     0
  0
CLASS
  1
ACMSTANDARDANSI
  2
AcmStandardANSI
  3
"Amdt_StdImp|Product Description: AutoCAD Mechanical|Company: Autodesk"
 90
    32768
280
     0
281
     0
  0
CLASS
  1
ACMSURFSTANDARDANSI
  2
AcmSurfTextStdANSI
  3
"Amdt_StdImp|Product Description: AutoCAD Mechanical|Company: Autodesk"
 90
    32768
280
     0
281
     0
  0
CLASS
  1
ACMFCFSTANDARDANSI
  2
AcmFCFStdANSI
  3
"Amdt_StdImp|Product Description: AutoCAD Mechanical|Company: Autodesk"
 90
    32768
280
     0
281
     0
  0
CLASS
  1
ACMWELDSTANDARDANSI
  2
AcmWeldingStdANSI
  3
"Amdt_StdImp|Product Description: AutoCAD Mechanical|Company: Autodesk"
 90
    32768
280
     0
281
     0
  0
CLASS
  1
ACMIDSTANDARDANSI
  2
AcmIdStdANSI
  3
"Amdt_StdImp|Product Description: AutoCAD Mechanical|Company: Autodesk"
 90
    32768
280
     0
281
     0
  0
CLASS
  1
ACMDATUMSTANDARDANSI
  2
AcmDatumStdANSI
  3
"Amdt_StdImp|Product Description: AutoCAD Mechanical|Company: Autodesk"
 90
    32768
280
     0
281
     0
  0
CLASS
  1
ACMBOMSTANDARDANSI
  2
AcmBOMStdANSI
  3
"Amdt_StdImp|Product Description: AutoCAD Mechanical|Company: Autodesk"
 90
    32768
280
     0
281
     0
  0
CLASS
  1
ACMDETAILSTANDARDANSI
  2
AmdtDetailSymStdANSI
  3
"Amdt_StdImp|Product Description: AutoCAD Mechanical|Company: Autodesk"
 90
    32768
280
     0
281
     0
  0
CLASS
  1
ACMSECTIONSTANDARDANSI
  2
AmdtSectionSymStdANSI
  3
"Amdt_StdImp|Product Description: AutoCAD Mechanical|Company: Autodesk"
 90
    32768
280
     0
281
     0
  0
CLASS
  1
ACMCENTERLINESTANDARDANSI
  2
AmdtCenterLineStdANSI
  3
"Amdt_StdImp|Product Description: AutoCAD Mechanical|Company: Autodesk"
 90
    32768
280
     0
281
     0
  0
CLASS
  1
ACMBOM
  2
AcmBom
  3
"AcmSymBB|Product Description: AutoCAD Mechanical|Company: Autodesk"
 90
    32768
280
     0
281
     0
  0
CLASS
  1
ACMDATAENTRYPART
  2
AcmDataEntryPart
  3
"AcmSymBB|Product Description: AutoCAD Mechanical|Company: Autodesk"
 90
    32768
280
     0
281
     0
  0
CLASS
  1
ACMPARTREF
  2
AcmPartRef
  3
"AcmSymBB|Product Description: AutoCAD Mechanical|Company: Autodesk"
 90
    35839
280
     0
281
     1
  0
CLASS
  1
ACDBCIRCARCRES
  2
AcDbCircArcRes
  3
AcGrefServices
 90
    32768
280
     0
281
     0
  0
CLASS
  1
ACMBOMROW
  2
AcmBomRow
  3
"AcmSymBB|Product Description: AutoCAD Mechanical|Company: Autodesk"
 90
    32768
280
     0
281
     0
  0
CLASS
  1
ACMBALLOON
  2
AcmBalloon
  3
"AcmSymBB|Product Description: AutoCAD Mechanical|Company: Autodesk"
 90
    35839
280
     0
281
     1
  0
CLASS
  1
AMDTNOTE
  2
AmdtNote
  3
"AcmSymBB|Product Description: AutoCAD Mechanical|Company: Autodesk"
 90
    35839
280
     0
281
     1
  0
CLASS
  1
STDPART2D
  2
AmgStdPart
  3
"g3vace|Class: AmgStdPart|Product Description: AutoCAD Mechanical|Company: Autodesk"
 90
    35839
280
     0
281
     1
  0
CLASS
  1
ACDBSTDPARTRES_LINE
  2
AcDbStdPartRes_Line
  3
"g3vace|Class: AcDbStdPartRes_Line|Product Description: AutoCAD Mechanical|Company: Autodesk"
 90
    32768
280
     0
281
     0
  0
CLASS
  1
ACMDATAENTRY
  2
AcmDataEntry
  3
"AcmSymBB|Product Description: AutoCAD Mechanical|Company: Autodesk"
 90
    32768
280
     0
281
     0
  0
CLASS
  1
ACDBOPPOLYLINERES
  2
AcDbOpPolylineRes
  3
AcGrefServices
 90
    32768
280
     0
281
     0
  0
CLASS
  1
ACMPARTLIST
  2
AcmPartList
  3
"AcmSymBB|Product Description: AutoCAD Mechanical|Company: Autodesk"
 90
    35839
280
     0
281
     1
  0
CLASS
  1
ACDBLINERES
  2
AcDbLineRes
  3
AcGrefServices
 90
    32768
280
     0
281
     0
  0
CLASS
  1
ACRFINSADJ
  2
AcRfInsAdjuster
  3
AcMeServices
 90
    32768
280
     0
281
     0
  0
CLASS
  1
AM_DRAWING_MGR
  2
AcDmDwgMgr
  3
AcMechDwgViewMgmt
 90
        0
280
     0
281
     0
  0
CLASS
  1
AM_DWG_DOCUMENT
  2
AcDmDwgDocument
  3
AcMechDwgViewMgmt
 90
        0
280
     0
281
     0
  0
CLASS
  1
AM_DWG_SHEET
  2
AcDmSheet
  3
AcMechDwgViewMgmt
 90
        0
280
     0
281
     0
  0
CLASS
  1
AM_VIEWDIMPARMAP
  2
AcDmViewDimParMap
  3
AcMechDwgViewMgmt
 90
        0
280
     0
281
     0
  0
CLASS
  1
AM_DWGMGR_NAME
  2
AcDmDwgMgrName
  3
AcMechDwgViewMgmt
 90
        0
280
     0
281
     0
  0
CLASS
  1
AMDTMENUSTATEMGR
  2
AmdtMenuStateMgr
  3
McadcomServices
 90
        0
280
     0
281
     0
  0
CLASS
  1
AMDTMCOMMENUSTATE
  2
AmdtMcomMenuState
  3
McadcomServices
 90
        0
280
     0
281
     0
  0
CLASS
  1
ASAPP
  2
AcAsAppObject
  3
AutoSurfServices
 90
        0
280
     0
281
     0
  0
CLASS
  1
IM_STATIC_MAN
  2
AcImStaticVarManager
  3
AcMeServices
 90
        0
280
     0
281
     0
  0
CLASS
  1
ACIMDBLSTATICVAR
  2
AcImDblStaticVar
  3
AcMeServices
 90
    32768
280
     0
281
     0
  0
CLASS
  1
ACIMSTRSTATICVAR
  2
AcImStrStaticVar
  3
AcMeServices
 90
    32768
280
     0
281
     0
  0
CLASS
  1
ACIMINTSTATICVAR
  2
AcImIntStaticVar
  3
AcMeServices
 90
    32768
280
     0
281
     0
  0
CLASS
  1
ACASGREFMASTER
  2
AcAsGrefMaster
  3
AutoSurfResolverServices
 90
        0
280
     0
281
     0
  0
CLASS
  1
ACADGREFMODULE
  2
AcAdGrefModule
  3
AdGrefServices
 90
        0
280
     0
281
     0
  0
CLASS
  1
AMDTMAPISURFMOUDULE
  2
AmdtMApiSurfModule
  3
MApiSurfServices
 90
        0
280
     0
281
     0
  0
CLASS
  1
MAPIAMMOUDLE
  2
MApiAmModule
  3
MApiAmServices
 90
        0
280
     0
281
     0
  0
CLASS
  1
AMDTADMENUSTATE
  2
AmdtAdMenuState
  3
DesignerServices
 90
        0
280
     0
281
     0
  0
CLASS
  1
ADAPPL
  2
AcAdAppl
  3
DesignerServices
 90
        0
280
     0
281
     0
  0
CLASS
  1
DEPMGR
  2
AcAdDepMgr
  3
DesignerServices
 90
        0
280
     0
281
     0
  0
CLASS
  1
PARAMMGR
  2
AcAdParamMgr
  3
DesignerServices
 90
        0
280
     0
281
     0
  0
CLASS
  1
PARAMSCOPE
  2
AcAdParamScope
  3
DesignerServices
 90
        0
280
     0
281
     0
  0
CLASS
  1
NAMEDAPPL
  2
AcAdNamedAppl
  3
DesignerServices
 90
        0
280
     0
281
     0
  0
CLASS
  1
ADHNTMPLT
  2
AdHoleNoteTemplateMgr
  3
DesignerServices
 90
    32768
280
     0
281
     0
  0
CLASS
  1
AM_HNTEMPLATE_MGR_NAME
  2
AdHoleNoteTemplateMgrName
  3
DesignerServices
 90
    32768
280
     0
281
     0
  0
CLASS
  1
AMDTDMMENUSTATE
  2
AmdtDmMenuState
  3
AcMechDwgViewMgmt
 90
        0
280
     0
281
     0
  0
CLASS
  1
MAPIADMODULE
  2
MApiAdModule
  3
MApiAdServices
 90
        0
280
     0
281
     0
  0
CLASS
  1
AMDTAMMENUSTATE
  2
AmdtAmMenuState
  3
DesignerAssemblies
 90
        0
280
     0
281
     0
  0
CLASS
  1
ACAMPROJECT
  2
AcAmProject
  3
DesignerAssemblies
 90
        0
280
     0
281
     0
  0
CLASS
  1
ACAMGRCOMPDEF
  2
AcAmGrCompDef
  3
DesignerAssemblies
 90
        0
280
     0
281
     0
  0
CLASS
  1
ACCMCONTEXT
  2
AcCmContext
  3
DesignerAssemblies
 90
        0
280
     0
281
     0
  0
CLASS
  1
ACAMCOMPDEF
  2
AcAmCompDef
  3
DesignerAssemblies
 90
        0
280
     0
281
     0
  0
CLASS
  1
ACAMCOMPDEFMGR
  2
AcAmCompDefMgr
  3
DesignerAssemblies
 90
        0
280
     0
281
     0
  0
CLASS
  1
AMCONTEXTMGR
  2
AcAmContextMgr
  3
DesignerAssemblies
 90
        0
280
     0
281
     0
  0
CLASS
  1
ACAMCONTEXTMODELER
  2
AcAmContextModeler
  3
DesignerAssemblies
 90
        0
280
     0
281
     0
  0
CLASS
  1
CATALOGSTATE
  2
AcAmCatalogState
  3
DesignerAssemblies
 90
        0
280
     0
281
     0
  0
CLASS
  1
ACAMGRCOMPDEFSET
  2
AcAmGrCompDefSet
  3
DesignerAssemblies
 90
        0
280
     0
281
     0
  0
CLASS
  1
AMDTBROWSERDBTAB
  2
AmdtBrowserDbTab
  3
McadcomServices
 90
        0
280
     0
281
     0
  0
CLASS
  1
CBROWSERAPPOBJECT
  2
CBrowserAppObject
  3
McadcomServices
 90
        0
280
     0
281
     0
  0
CLASS
  1
DM_PLACEHOLDER
  2
AcDmSelsetPlaceholder
  3
AcMechDwgViewMgmt
 90
        0
280
     0
281
     0
  0
CLASS
  1
ACMPICKOBJ
  2
AcmPickEnt
  3
"AcmSymBB|Product Description: AutoCAD Mechanical|Company: Autodesk"
 90
    32768
280
     0
281
     1
  0
CLASS
  1
ACMNOTESTANDARDISO
  2
AmdtNoteStdISO
  3
"Amdt_StdImp|Product Description: AutoCAD Mechanical|Company: Autodesk"
 90
        0
280
     0
281
     0
  0
CLASS
  1
ACMNOTESTANDARDANSI
  2
AmdtNoteStdANSI
  3
"Amdt_StdImp|Product Description: AutoCAD Mechanical|Company: Autodesk"
 90
    32768
280
     0
281
     0
  0
CLASS
  1
ACMTHREADLINESTANDARDISO
  2
AmdtThreadLineStdISO
  3
"Amdt_StdImp|Product Description: AutoCAD Mechanical|Company: Autodesk"
 90
        0
280
     0
281
     0
  0
CLASS
  1
ACMTHREADLINESTANDARDANSI
  2
AmdtThreadLineStdANSI
  3
"Amdt_StdImp|Product Description: AutoCAD Mechanical|Company: Autodesk"
 90
    32768
280
     0
281
     0
  0
CLASS
  1
TABLESTYLE
  2
AcDbTableStyle
  3
ObjectDBX Classes
 90
     4095
280
     0
281
     0
  0
CLASS
  1
SORTENTSTABLE
  2
AcDbSortentsTable
  3
ObjectDBX Classes
 90
        0
280
     0
281
     0
  0
CLASS
  1
MATERIAL
  2
AcDbMaterial
  3
ObjectDBX Classes
 90
     1024
280
     0
281
     0
  0
CLASS
  1
VISUALSTYLE
  2
AcDbVisualStyle
  3
ObjectDBX Classes
 90
     4095
280
     0
281
     0
  0
CLASS
  1
ACRFATTGENMGR
  2
AcRfAttGeneralMgr
  3
AcAttribServices
 90
    32768
280
     0
281
     0
  0
CLASS
  1
ACRFOBJATTMGR
  2
AcRfObjAttGroupMgr
  3
AcAttribServices
 90
    32768
280
     0
281
     0
  0
CLASS
  1
ACRFMCADAPIATTHOLDER
  2
AcRfMCADAPIAttHolder
  3
AcAttribServices
 90
    32768
280
     0
281
     0
  0
CLASS
  1
AMDTSYSATTR
  2
AmdtSystemAttribute
  3
AcAttribServices
 90
    32768
280
     0
281
     0
  0
CLASS
  1
ACMTAPERSTANDARDISO
  2
AcmTaperStdISO
  3
"Amdt_StdImp|Product Description: AutoCAD Mechanical|Company: Autodesk"
 90
        0
280
     0
281
     0
  0
CLASS
  1
CAMSSTRUCTBTNSTATE
  2
StructBtnState
  3
L"DesignerAssemblies"
 90
        0
280
     0
281
     0
  0
CLASS
  1
DIMASSOC
  2
AcDbDimAssoc
  3
"AcDbDimAssoc|Product Desc:     AcDim ARX App For Dimension|Company:          Autodesk, Inc.|WEB Address:      www.autodesk.com"
 90
    32768
280
     0
281
     0
  0
CLASS
  1
AMDTNOTETEMPLATEDB
  2
AmdtNoteTemplateDB
  3
AMDT_STDIMP_MODULE_NAME
 90
        0
280
     0
281
     0
  0
CLASS
  1
ACMTAPERSTANDARDANSI
  2
AcmTaperStdANSI
  3
"Amdt_StdImp|Product Description: AutoCAD Mechanical|Company: Autodesk"
 90
    32768
280
     0
281
     0
  0
CLASS
  1
ACAMGHOLECHARTSTDANSI
  2
AcAmgHoleChartStdANSI
  3
ACMSYMBB_MODULE_NAME
 90
    32768
280
     0
281
     0
  0
CLASS
  1
AMDTEDGESTANDARDISO13715
  2
AmdtEdgeStdISO13715
  3
"Amdt_StdImp|Product Description: AutoCAD Mechanical|Company: Autodesk"
 90
        0
280
     0
281
     0
  0
CLASS
  1
ACAMGHOLECHARTSTDISO
  2
AcAmgHoleChartStdISO
  3
ACMSYMBB_MODULE_NAME
 90
        0
280
     0
281
     0
  0
CLASS
  1
ACDBDIMENSIONRES
  2
AcDbDimensionRes
  3
L"AcDbDimensionRes|Product Description: AutoCAD Mechanical 2000|Company: Autodesk"
 90
    32768
280
     0
281
     0
  0
ENDSEC
  0
SECTION
  2
TABLES
  0
TABLE
  2
VPORT
  5
8
330
0
100
AcDbSymbolTable
 70
     1
  0
VPORT
  5
B0EC
330
8
100
AcDbSymbolTableRecord
100
AcDbViewportTableRecord
  2
*Active
 70
     0
 10
0.0
 20
0.0
 11
1.0
 21
1.0
 12
419.9743290194055
 22
297.1118102975779
 13
0.0
 23
0.0
 14
2.5
 24
2.5
 15
10.0
 25
10.0
 16
0.0
 26
0.0
 36
1.0
 17
0.0
 27
0.0
 37
0.0
 40
598.9345770688628
 41
1.648648648648648
 42
50.0
 43
-1370.695619172058
 44
-1370.695619172058
 50
0.0
 51
0.0
 71
     0
 72
   100
 73
     1
 74
     3
 75
     0
 76
     0
 77
     0
 78
     0
281
     0
 65
     0
110
0.0
120
0.0
130
0.0
111
1.0
121
0.0
131
0.0
112
0.0
122
1.0
132
0.0
 79
     0
146
0.0
  0
ENDTAB
  0
TABLE
  2
LTYPE
  5
5
330
0
100
AcDbSymbolTable
 70
    36
  0
LTYPE
  5
14
330
5
100
AcDbSymbolTableRecord
100
AcDbLinetypeTableRecord
  2
ByBlock
 70
     0
  3

 72
    65
 73
     0
 40
0.0
  0
LTYPE
  5
15
330
5
100
AcDbSymbolTableRecord
100
AcDbLinetypeTableRecord
  2
ByLayer
 70
     0
  3

 72
    65
 73
     0
 40
0.0
  0
LTYPE
  5
16
330
5
100
AcDbSymbolTableRecord
100
AcDbLinetypeTableRecord
  2
Continuous
 70
     0
  3
Solid line
 72
    65
 73
     0
 40
0.0
  0
LTYPE
  5
4F
330
5
100
AcDbSymbolTableRecord
100
AcDbLinetypeTableRecord
  2
AM_ISO02W050
 70
     0
  3
__ __ __ __ __ __ __ __ __ __ __ __ __ __ __
 72
    65
 73
     2
 40
7.5
 49
6.0
 74
     0
 49
-1.5
 74
     0
  0
LTYPE
  5
52
330
5
100
AcDbSymbolTableRecord
100
AcDbLinetypeTableRecord
  2
Amconstr
 70
     0
  3
_______________________
 72
    65
 73
     2
 40
9999.0
 49
9999.0
 74
     0
 49
0.0
 74
     0
  0
LTYPE
  5
64
330
5
100
AcDbSymbolTableRecord
100
AcDbLinetypeTableRecord
  2
ACISOWELD
 70
     0
  3
_ _ _ _ _
 72
    65
 73
     2
 40
2.0
 49
2.0
 74
     0
 49
-1.0
 74
     0
  0
LTYPE
  5
65
330
5
100
AcDbSymbolTableRecord
100
AcDbLinetypeTableRecord
  2
ACISOTGB
 70
     0
  3
__ . . __ . .
 72
    65
 73
     6
 40
9.0
 49
4.0
 74
     0
 49
-1.0
 74
     0
 49
1.0
 74
     0
 49
-1.0
 74
     0
 49
1.0
 74
     0
 49
-1.0
 74
     0
  0
LTYPE
  5
66
330
5
100
AcDbSymbolTableRecord
100
AcDbLinetypeTableRecord
  2
ACISOTGL
 70
     0
  3
_ _ _ _ _
 72
    65
 73
     2
 40
3.0
 49
2.0
 74
     0
 49
-1.0
 74
     0
  0
LTYPE
  5
69
330
5
100
AcDbSymbolTableRecord
100
AcDbLinetypeTableRecord
  2
CENTER
 70
     0
  3
__ . __
 72
    65
 73
     4
 40
7.0
 49
4.0
 74
     0
 49
-1.0
 74
     0
 49
1.0
 74
     0
 49
-1.0
 74
     0
  0
LTYPE
  5
A6E
330
5
100
AcDbSymbolTableRecord
100
AcDbLinetypeTableRecord
  2
PHANTOM2
 70
     0
  3
Phantom (.5x) ___ _ _ ___ _ _ ___ _ _ ___ _ _
 72
    65
 73
     6
 40
31.75
 49
15.875
 74
     0
 49
-3.174999999999999
 74
     0
 49
3.174999999999999
 74
     0
 49
-3.174999999999999
 74
     0
 49
3.174999999999999
 74
     0
 49
-3.174999999999999
 74
     0
  0
LTYPE
  5
4DED
330
5
100
AcDbSymbolTableRecord
100
AcDbLinetypeTableRecord
  2
中線
 70
     0
  3
___________________
 72
    65
 73
     2
 40
2.0
 49
1.0
 74
     0
 49
1.0
 74
     0
  0
LTYPE
  5
4DF6
330
5
100
AcDbSymbolTableRecord
100
AcDbLinetypeTableRecord
  2
細線
 70
     0
  3
___________________
 72
    65
 73
     2
 40
2.0
 49
1.0
 74
     0
 49
1.0
 74
     0
  0
LTYPE
  5
4DF7
330
5
100
AcDbSymbolTableRecord
100
AcDbLinetypeTableRecord
  2
太線
 70
     0
  3
___________________
 72
    65
 73
     2
 40
2.0
 49
1.0
 74
     0
 49
1.0
 74
     0
  0
LTYPE
  5
4EA7
330
5
100
AcDbSymbolTableRecord
100
AcDbLinetypeTableRecord
  2
文字
 70
     0
  3
_________________
 72
    65
 73
     2
 40
2.0
 49
1.0
 74
     0
 49
1.0
 74
     0
  0
LTYPE
  5
4EA9
330
5
100
AcDbSymbolTableRecord
100
AcDbLinetypeTableRecord
  2
寸法線
 70
     0
  3
________________
 72
    65
 73
     2
 40
2.0
 49
1.0
 74
     0
 49
1.0
 74
     0
  0
LTYPE
  5
4F12
330
5
100
AcDbSymbolTableRecord
100
AcDbLinetypeTableRecord
  2
ハッチング
 70
     0
  3
_________________
 72
    65
 73
     2
 40
2.0
 49
1.0
 74
     0
 49
1.0
 74
     0
  0
LTYPE
  5
5180
330
5
100
AcDbSymbolTableRecord
100
AcDbLinetypeTableRecord
  2
陰線1
 70
     0
  3
__ __ __ __
 72
    65
 73
     2
 40
4.0
 49
2.2
 74
     0
 49
-1.8
 74
     0
  0
LTYPE
  5
5182
330
5
100
AcDbSymbolTableRecord
100
AcDbLinetypeTableRecord
  2
切断線
 70
     0
  3
/\/-/\/-/\/-/\/-/\/-/\/
 72
    65
 73
     2
 40
11.0001
 49
0.0001
 74
     4
 75
   135
340
56
 46
0.04
 50
0.0
 44
0.0
 45
0.0
 49
-11.0
 74
     0
  0
LTYPE
  5
5183
330
5
100
AcDbSymbolTableRecord
100
AcDbLinetypeTableRecord
  2
想像線1
 70
     0
  3
__ __ __ _____ __ __ ____
 72
    65
 73
     6
 40
14.5
 49
6.0
 74
     0
 49
-1.5
 74
     0
 49
2.0
 74
     0
 49
-1.5
 74
     0
 49
2.0
 74
     0
 49
-1.5
 74
     0
  0
LTYPE
  5
5185
330
5
100
AcDbSymbolTableRecord
100
AcDbLinetypeTableRecord
  2
中心線1
 70
     0
  3
___ _ ___ _ ___
 72
    65
 73
     4
 40
18.0
 49
12.0
 74
     0
 49
-2.0
 74
     0
 49
2.0
 74
     0
 49
-2.0
 74
     0
  0
LTYPE
  5
5188
330
5
100
AcDbSymbolTableRecord
100
AcDbLinetypeTableRecord
  2
補助線
 70
     0
  3
______________
 72
    65
 73
     2
 40
2.0
 49
1.0
 74
     0
 49
1.0
 74
     0
  0
LTYPE
  5
6427
330
5
100
AcDbSymbolTableRecord
100
AcDbLinetypeTableRecord
  2
HIDDEN
 70
     0
  3
Hidden __ __ __ __ __ __ __ __ __ __ __ __ __ _
 72
    65
 73
     2
 40
0.375
 49
0.25
 74
     0
 49
-0.125
 74
     0
  0
LTYPE
  5
AC81
330
5
100
AcDbSymbolTableRecord
100
AcDbLinetypeTableRecord
  2
破断線
 70
     0
  3
/\/-/\/-/\/-/\/-/\/-/\/
 72
    65
 73
     2
 40
0.4401
 49
0.0001
 74
     4
 75
   136
340
AC80
 46
0.0016
 50
0.0
 44
0.0
 45
0.0
 49
-0.4400000000000001
 74
     0
  0
LTYPE
  5
AC9E
330
5
100
AcDbSymbolTableRecord
100
AcDbLinetypeTableRecord
  2
Amzigzag
 70
     0
  3
/\/-/\/-/\/-/\/-/\/-/\/
 72
    65
 73
     2
 40
11.0001
 49
0.0001
 74
     4
 75
   135
340
56
 46
0.04
 50
0.0
 44
0.0
 45
0.0
 49
-11.0
 74
     0
  0
LTYPE
  5
AF0F
330
5
100
AcDbSymbolTableRecord
100
AcDbLinetypeTableRecord
  2
genzigzag
 70
     0
  3
/\/-/\/-/\/-/\/-/\/-/\/
 72
    65
 73
     2
 40
12.0001
 49
0.0001
 74
     4
 75
   135
340
AC80
 46
2.0
 50
0.0
 44
0.0
 45
0.0
 49
-12.0
 74
     0
  0
LTYPE
  5
AF95
330
5
100
AcDbSymbolTableRecord
100
AcDbLinetypeTableRecord
  2
AM_ISO08W050
 70
     0
  3
____ . ____ . ____ . ____ . ____ . ____ . ____
 72
    65
 73
     4
 40
18.0
 49
12.0
 74
     0
 49
-1.5
 74
     0
 49
3.0
 74
     0
 49
-1.5
 74
     0
  0
LTYPE
  5
AF96
330
5
100
AcDbSymbolTableRecord
100
AcDbLinetypeTableRecord
  2
AM_ISO09W050
 70
     0
  3
_____ . . _____ . . _____ . . ____ .. ____
 72
    65
 73
     6
 40
22.5
 49
12.0
 74
     0
 49
-1.5
 74
     0
 49
3.0
 74
     0
 49
-1.5
 74
     0
 49
3.0
 74
     0
 49
-1.5
 74
     0
  0
LTYPE
  5
AF97
330
5
100
AcDbSymbolTableRecord
100
AcDbLinetypeTableRecord
  2
AM_ISO08W050x2
 70
     0
  3
__ . __ . __ . __ . __ . __
 72
    65
 73
     4
 40
9.0
 49
6.0
 74
     0
 49
-0.75
 74
     0
 49
1.5
 74
     0
 49
-0.75
 74
     0
  0
LTYPE
  5
AF98
330
5
100
AcDbSymbolTableRecord
100
AcDbLinetypeTableRecord
  2
AM_ISO02W050x2
 70
     0
  3
 _ _ _ _ _ _ _ _ _ _ _ _
 72
    65
 73
     2
 40
3.75
 49
3.0
 74
     0
 49
-0.75
 74
     0
  0
LTYPE
  5
D8F5
330
5
100
AcDbSymbolTableRecord
100
AcDbLinetypeTableRecord
  2
DOT
 70
     0
  3
・・・・・・・・・・・・・・・
 72
    65
 73
     2
 40
6.5
 49
0.1
 74
     0
 49
-6.4
 74
     0
  0
LTYPE
  5
D8F6
330
5
100
AcDbSymbolTableRecord
100
AcDbLinetypeTableRecord
  2
CENTER2
 70
     0
  3
Center (.5x) ___ _ ___ _ ___ _ ___ _ ___ _ ___
 72
    65
 73
     4
 40
1.125
 49
0.75
 74
     0
 49
-0.125
 74
     0
 49
0.125
 74
     0
 49
-0.125
 74
     0
  0
LTYPE
  5
D8F7
330
5
100
AcDbSymbolTableRecord
100
AcDbLinetypeTableRecord
  2
HIDDEN2
 70
     0
  3
Hidden (.5x) _ _ _ _ _ _ _ _ _ _ _ _ _ _ _ _ _
 72
    65
 73
     2
 40
0.1875
 49
0.125
 74
     0
 49
-0.0625
 74
     0
  0
LTYPE
  5
D8F8
330
5
100
AcDbSymbolTableRecord
100
AcDbLinetypeTableRecord
  2
Amzigzag2
 70
     0
  3
/\/-/\/-/\/-/\/-/\/-/\/
 72
    65
 73
     2
 40
0.4401
 49
0.0001
 74
     4
 75
   136
340
AC80
 46
0.0016
 50
0.0
 44
0.0
 45
0.0
 49
-0.4400000000000001
 74
     0
  0
LTYPE
  5
D8F9
330
5
100
AcDbSymbolTableRecord
100
AcDbLinetypeTableRecord
  2
ACANSTGB
 70
     0
  3
__ . . __ . .
 72
    65
 73
     6
 40
0.35433070866
 49
0.15748031496
 74
     0
 49
-0.03937007874
 74
     0
 49
0.03937007874
 74
     0
 49
-0.03937007874
 74
     0
 49
0.03937007874
 74
     0
 49
-0.03937007874
 74
     0
  0
LTYPE
  5
D8FA
330
5
100
AcDbSymbolTableRecord
100
AcDbLinetypeTableRecord
  2
ACANSTGL
 70
     0
  3
_ _ _ _ _
 72
    65
 73
     2
 40
0.11811023622
 49
0.07874015748
 74
     0
 49
-0.03937007874
 74
     0
  0
LTYPE
  5
DC14
330
5
100
AcDbSymbolTableRecord
100
AcDbLinetypeTableRecord
  2
DASHED
 70
     0
  3
- - - - - - - - - - -
 72
    65
 73
     2
 40
19.1
 49
12.7
 74
     0
 49
-6.4
 74
     0
  0
LTYPE
  5
186CB
330
5
100
AcDbSymbolTableRecord
100
AcDbLinetypeTableRecord
  2
PHANTOM
 70
     0
  3
- ･ ･ - ･ ･ - ･ ･ - ･ ･ - ･ ･ - ･ ･ - ･ ･ - 
 72
    65
 73
     6
 40
63.79999999999999
 49
31.8
 74
     0
 49
-6.4
 74
     0
 49
6.4
 74
     0
 49
-6.4
 74
     0
 49
6.4
 74
     0
 49
-6.4
 74
     0
  0
LTYPE
  5
93D29
330
5
100
AcDbSymbolTableRecord
100
AcDbLinetypeTableRecord
  2
BORDER
 70
     0
  3
__ __ . __ __ . __ __ . __ __ . __ __ . __ __ .
 72
    65
 73
     6
 40
8.75
 49
2.5
 74
     0
 49
-1.25
 74
     0
 49
2.5
 74
     0
 49
-1.25
 74
     0
 49
0.0
 74
     0
 49
-1.25
 74
     0
  0
ENDTAB
  0
TABLE
  2
LAYER
  5
2
102
{ACAD_XDICTIONARY
360
3F95
102
}
330
0
100
AcDbSymbolTable
 70
    41
  0
LAYER
  5
10
330
2
100
AcDbSymbolTableRecord
100
AcDbLayerTableRecord
  2
0
 70
     0
 62
     7
  6
Continuous
370
    -3
390
F
  0
LAYER
  5
6D1
330
2
100
AcDbSymbolTableRecord
100
AcDbLayerTableRecord
  2
Defpoints
 70
     0
 62
     7
  6
Continuous
290
     0
370
    -3
390
F
  0
LAYER
  5
5F85
330
2
100
AcDbSymbolTableRecord
100
AcDbLayerTableRecord
  2
AM_0
 70
     0
 62
     7
  6
中線
370
    30
390
F
1001
AcAecLayerStandard
1000

1000

  0
LAYER
  5
AC9F
330
2
100
AcDbSymbolTableRecord
100
AcDbLayerTableRecord
  2
size
 70
     0
 62
     5
  6
Continuous
290
     0
370
    25
390
F
  0
LAYER
  5
ACA0
330
2
100
AcDbSymbolTableRecord
100
AcDbLayerTableRecord
  2
waku
 70
     0
 62
     7
  6
Continuous
370
    35
390
F
  0
LAYER
  5
ACA1
330
2
100
AcDbSymbolTableRecord
100
AcDbLayerTableRecord
  2
AM_6
 70
     0
 62
     2
  6
文字
370
    13
390
F
1001
AcAecLayerStandard
1000

1000

  0
LAYER
  5
ACC8
330
2
100
AcDbSymbolTableRecord
100
AcDbLayerTableRecord
  2
hyomoji
 70
     0
 62
     2
  6
Continuous
370
    13
390
F
  0
LAYER
  5
ACC9
330
2
100
AcDbSymbolTableRecord
100
AcDbLayerTableRecord
  2
hyosen1
 70
     0
 62
     1
  6
Continuous
370
    25
390
F
  0
LAYER
  5
ACCA
330
2
100
AcDbSymbolTableRecord
100
AcDbLayerTableRecord
  2
hyosen2
 70
     0
 62
     1
  6
Continuous
370
    13
390
F
  0
LAYER
  5
AD60
330
2
100
AcDbSymbolTableRecord
100
AcDbLayerTableRecord
  2
AM_1
 70
     0
 62
    30
  6
太線
370
    40
390
F
1001
AcAecLayerStandard
1000

1000

  0
LAYER
  5
AD64
330
2
100
AcDbSymbolTableRecord
100
AcDbLayerTableRecord
  2
AM_2
 70
     0
 62
     1
  6
細線
370
    13
390
F
1001
AcAecLayerStandard
1000

1000

  0
LAYER
  5
AD67
330
2
100
AcDbSymbolTableRecord
100
AcDbLayerTableRecord
  2
AM_3
 70
     0
 62
     6
  6
陰線1
370
    13
390
F
1001
AcAecLayerStandard
1000

1000

  0
LAYER
  5
AD68
330
2
100
AcDbSymbolTableRecord
100
AcDbLayerTableRecord
  2
AM_5
 70
     0
 62
     3
  6
寸法線
370
    13
390
F
1001
AcAecLayerStandard
1000

1000

  0
LAYER
  5
AD69
330
2
100
AcDbSymbolTableRecord
100
AcDbLayerTableRecord
  2
AM_7
 70
     0
 62
     4
  6
中心線1
370
    13
390
F
1001
AcAecLayerStandard
1000

1000

  0
LAYER
  5
AD6A
330
2
100
AcDbSymbolTableRecord
100
AcDbLayerTableRecord
  2
AM_8
 70
     0
 62
     1
  6
ハッチング
370
    13
390
F
1001
AcAecLayerStandard
1000

1000

  0
LAYER
  5
AD6E
330
2
100
AcDbSymbolTableRecord
100
AcDbLayerTableRecord
  2
AM_10
 70
     0
 62
     7
  6
切断線
370
    13
390
F
1001
AcAecLayerStandard
1000

1000

  0
LAYER
  5
AD6F
330
2
100
AcDbSymbolTableRecord
100
AcDbLayerTableRecord
  2
AM_11
 70
     0
 62
     2
  6
想像線1
370
    13
390
F
1001
AcAecLayerStandard
1000

1000

  0
LAYER
  5
B1B6
330
2
100
AcDbSymbolTableRecord
100
AcDbLayerTableRecord
  2
AM_CL
 70
     0
 62
     1
  6
Amconstr
370
    15
390
F
1001
AcAecLayerStandard
1000

1000

  0
LAYER
  5
B2EB
330
2
100
AcDbSymbolTableRecord
100
AcDbLayerTableRecord
  2
AM_14
 70
     0
 62
     5
  6
細線
370
     9
390
F
1001
AcAecLayerStandard
1000

1000

  0
LAYER
  5
B2EC
330
2
100
AcDbSymbolTableRecord
100
AcDbLayerTableRecord
  2
AM_15
 70
     0
 62
     6
  6
陰線1
370
     9
390
F
1001
AcAecLayerStandard
1000

1000

  0
LAYER
  5
B657
330
2
100
AcDbSymbolTableRecord
100
AcDbLayerTableRecord
  2
カバー取付ブラケット
 70
     0
 62
     1
  6
中線
370
    30
390
F
1001
AcAecLayerStandard
1000

1000

  0
LAYER
  5
C364
330
2
100
AcDbSymbolTableRecord
100
AcDbLayerTableRecord
  2
調整板
 70
     0
 62
   191
  6
中線
370
    30
390
F
1001
AcAecLayerStandard
1000

1000

  0
LAYER
  5
C365
330
2
100
AcDbSymbolTableRecord
100
AcDbLayerTableRecord
  2
本体（枠）
 70
     0
 62
    11
  6
中線
370
    30
390
F
1001
AcAecLayerStandard
1000

1000

  0
LAYER
  5
C366
330
2
100
AcDbSymbolTableRecord
100
AcDbLayerTableRecord
  2
本体（扉）
 70
     0
 62
   151
  6
中線
370
    30
390
F
1001
AcAecLayerStandard
1000

1000

  0
LAYER
  5
C367
330
2
100
AcDbSymbolTableRecord
100
AcDbLayerTableRecord
  2
カバー
 70
     0
 62
    41
  6
中線
370
    30
390
F
1001
AcAecLayerStandard
1000

1000

  0
LAYER
  5
C368
330
2
100
AcDbSymbolTableRecord
100
AcDbLayerTableRecord
  2
軸
 70
     0
 62
    91
  6
中線
370
    30
390
F
1001
AcAecLayerStandard
1000

1000

  0
LAYER
  5
C369
330
2
100
AcDbSymbolTableRecord
100
AcDbLayerTableRecord
  2
樹脂ワッシャA
 70
     0
 62
    40
  6
中線
370
    30
390
F
1001
AcAecLayerStandard
1000

1000

  0
LAYER
  5
C36A
330
2
100
AcDbSymbolTableRecord
100
AcDbLayerTableRecord
  2
樹脂ワッシャB
 70
     0
 62
   200
  6
中線
370
    30
390
F
1001
AcAecLayerStandard
1000

1000

  0
LAYER
  5
DC15
330
2
100
AcDbSymbolTableRecord
100
AcDbLayerTableRecord
  2
CSLAYER2
 70
     0
 62
     3
  6
Continuous
370
    -3
390
F
  0
LAYER
  5
DC16
330
2
100
AcDbSymbolTableRecord
100
AcDbLayerTableRecord
  2
CSLAYER4
 70
     0
 62
     3
  6
Continuous
370
    -3
390
F
  0
LAYER
  5
E707
330
2
100
AcDbSymbolTableRecord
100
AcDbLayerTableRecord
  2
CSLAYER3
 70
     0
 62
     3
  6
Continuous
370
    -3
390
F
  0
LAYER
  5
161BF
330
2
100
AcDbSymbolTableRecord
100
AcDbLayerTableRecord
  2
CSLAYER8
 70
     0
 62
     3
  6
Continuous
370
    -3
390
F
  0
LAYER
  5
19481
330
2
100
AcDbSymbolTableRecord
100
AcDbLayerTableRecord
  2
CSLAYER7
 70
     0
 62
     3
  6
Continuous
370
    -3
390
F
  0
LAYER
  5
19482
330
2
100
AcDbSymbolTableRecord
100
AcDbLayerTableRecord
  2
CSLAYER11
 70
     0
 62
     3
  6
Continuous
370
    -3
390
F
  0
LAYER
  5
19483
330
2
100
AcDbSymbolTableRecord
100
AcDbLayerTableRecord
  2
CSLAYER12
 70
     0
 62
     3
  6
Continuous
370
    -3
390
F
  0
LAYER
  5
1F5A4
330
2
100
AcDbSymbolTableRecord
100
AcDbLayerTableRecord
  2
CSLAYER5
 70
     0
 62
     3
  6
Continuous
370
    -3
390
F
  0
LAYER
  5
5AFB5
330
2
100
AcDbSymbolTableRecord
100
AcDbLayerTableRecord
  2
取手
 70
     0
 62
   120
  6
中線
370
    30
390
F
1001
AcAecLayerStandard
1000

1000

  0
LAYER
  5
5AFB6
330
2
100
AcDbSymbolTableRecord
100
AcDbLayerTableRecord
  2
台座
 70
     0
 62
   211
  6
中線
370
    30
390
F
1001
AcAecLayerStandard
1000

1000

  0
LAYER
  5
5AFB7
330
2
100
AcDbSymbolTableRecord
100
AcDbLayerTableRecord
  2
スプリングピン
 70
     0
 62
   230
  6
中線
370
    30
390
F
1001
AcAecLayerStandard
1000

1000

  0
LAYER
  5
9211F
330
2
100
AcDbSymbolTableRecord
100
AcDbLayerTableRecord
  2
0文字
 70
     0
 62
     2
  6
Continuous
370
    13
390
F
1001
AcAecLayerStandard
1000

1000

  0
LAYER
  5
92120
330
2
100
AcDbSymbolTableRecord
100
AcDbLayerTableRecord
  2
1
 70
     0
 62
     7
  6
Continuous
370
    30
390
F
  0
ENDTAB
  0
TABLE
  2
STYLE
  5
3
330
0
100
AcDbSymbolTable
 70
     9
  0
STYLE
  5
11
330
3
100
AcDbSymbolTableRecord
100
AcDbTextStyleTableRecord
  2
STANDARD
 70
     0
 40
0.0
 41
0.7
 50
0.0
 71
     0
 42
3.2
  3
romans.shx
  4
extfont.shx
  0
STYLE
  5
56
330
3
100
AcDbSymbolTableRecord
100
AcDbTextStyleTableRecord
  2

 70
     1
 40
0.0
 41
1.0
 50
0.0
 71
     0
 42
2.5
  3
ltypeshp.shx
  4

  0
STYLE
  5
58
330
3
100
AcDbSymbolTableRecord
100
AcDbTextStyleTableRecord
  2
ACISOTS
 70
     0
 40
1.0
 41
1.0
 50
0.0
 71
     0
 42
2.5
  3
isocp.shx
  4
extfont.shx
  0
STYLE
  5
63
330
3
100
AcDbSymbolTableRecord
100
AcDbTextStyleTableRecord
  2
ACISOGDT
 70
     0
 40
0.0
 41
1.0
 50
0.0
 71
     0
 42
2.5
  3
amgdt.shx
  4

  0
STYLE
  5
A74
330
3
100
AcDbSymbolTableRecord
100
AcDbTextStyleTableRecord
  2
DIM
 70
     0
 40
0.0
 41
1.0
 50
0.0
 71
     0
 42
2.5
  3
monotxt.shx
  4
extfont.shx
  0
STYLE
  5
AC80
330
3
100
AcDbSymbolTableRecord
100
AcDbTextStyleTableRecord
  2

 70
     1
 40
0.0
 41
1.0
 50
0.0
 71
     0
 42
3.2
  3
genltshp.shx
  4

  0
STYLE
  5
D8FB
330
3
100
AcDbSymbolTableRecord
100
AcDbTextStyleTableRecord
  2
ED_VECTOR
 70
     0
 40
0.0
 41
1.0
 50
0.0
 71
     0
 42
0.0
  3
MONOTXT.SHX
  4
BIGFONT.SHX
  0
STYLE
  5
D8FC
330
3
100
AcDbSymbolTableRecord
100
AcDbTextStyleTableRecord
  2
ACANSTS
 70
     0
 40
1.0
 41
1.0
 50
0.0
 71
     0
 42
2.5
  3
romans.shx
  4
extfont.shx
  0
STYLE
  5
D8FD
330
3
100
AcDbSymbolTableRecord
100
AcDbTextStyleTableRecord
  2
ACANSGDT
 70
     0
 40
0.0
 41
1.0
 50
0.0
 71
     0
 42
2.5
  3
amgdt.shx
  4

  0
ENDTAB
  0
TABLE
  2
VIEW
  5
6
330
0
100
AcDbSymbolTable
 70
     6
  0
VIEW
  5
AE1
330
6
100
AcDbSymbolTableRecord
100
AcDbViewTableRecord
  2
AM_VIEW1
 70
     0
 40
297.0
 10
-970.0097649269439
 20
-11756.86094600418
 41
473.7940828402367
 11
0.0
 21
0.0
 31
1.0
 12
0.0
 22
0.0
 32
0.0
 42
50.0
 43
-1370.695619172058
 44
-1370.695619172058
 50
0.0
 71
     0
281
     0
 72
     0
  0
VIEW
  5
AE2
330
6
100
AcDbSymbolTableRecord
100
AcDbViewTableRecord
  2
AM_VIEW2
 70
     0
 40
297.0
 10
-603.8038477671805
 20
-11756.86094600418
 41
473.7940828402367
 11
0.0
 21
0.0
 31
1.0
 12
0.0
 22
0.0
 32
0.0
 42
50.0
 43
-1370.695619172058
 44
-1370.695619172058
 50
0.0
 71
     0
281
     0
 72
     0
  0
VIEW
  5
AE3
330
6
100
AcDbSymbolTableRecord
100
AcDbViewTableRecord
  2
AM_VIEW3
 70
     0
 40
297.0
 10
-970.0097649269439
 20
-12053.86094600418
 41
473.7940828402367
 11
0.0
 21
0.0
 31
1.0
 12
0.0
 22
0.0
 32
0.0
 42
50.0
 43
-1370.695619172058
 44
-1370.695619172058
 50
0.0
 71
     0
281
     0
 72
     0
  0
VIEW
  5
AE4
330
6
100
AcDbSymbolTableRecord
100
AcDbViewTableRecord
  2
AM_VIEW4
 70
     0
 40
297.0
 10
-603.8038477671805
 20
-12053.86094600418
 41
473.7940828402367
 11
0.0
 21
0.0
 31
1.0
 12
0.0
 22
0.0
 32
0.0
 42
50.0
 43
-1370.695619172058
 44
-1370.695619172058
 50
0.0
 71
     0
281
     0
 72
     0
  0
VIEW
  5
AE5
330
6
100
AcDbSymbolTableRecord
100
AcDbViewTableRecord
  2
AM_VIEW5
 70
     0
 40
297.0
 10
-786.9068063470622
 20
-11905.36094600418
 41
473.7940828402365
 11
0.0
 21
0.0
 31
1.0
 12
0.0
 22
0.0
 32
0.0
 42
50.0
 43
-1370.695619172058
 44
-1370.695619172058
 50
0.0
 71
     0
281
     0
 72
     0
  0
VIEW
  5
AE6
330
6
100
AcDbSymbolTableRecord
100
AcDbViewTableRecord
  2
AM_VIEW6
 70
     0
 40
593.9940600000008
 10
-786.9068063470622
 20
-11905.36094600418
 41
947.5786897988164
 11
0.0
 21
0.0
 31
1.0
 12
0.0
 22
0.0
 32
0.0
 42
50.0
 43
-1370.695619172058
 44
-1370.695619172058
 50
0.0
 71
     0
281
     0
 72
     0
  0
ENDTAB
  0
TABLE
  2
UCS
  5
7
330
0
100
AcDbSymbolTable
 70
     0
  0
ENDTAB
  0
TABLE
  2
APPID
  5
9
330
0
100
AcDbSymbolTable
 70
    56
  0
APPID
  5
12
330
9
100
AcDbSymbolTableRecord
100
AcDbRegAppTableRecord
  2
ACAD
 70
     0
  0
APPID
  5
30
330
9
100
AcDbSymbolTableRecord
100
AcDbRegAppTableRecord
  2
MCAD_NO_VIS
 70
     0
  0
APPID
  5
31
330
9
100
AcDbSymbolTableRecord
100
AcDbRegAppTableRecord
  2
ACAD_TEMP_GRAPHIC
 70
     0
  0
APPID
  5
44
330
9
100
AcDbSymbolTableRecord
100
AcDbRegAppTableRecord
  2
ACATTRIBSERVICES
 70
     0
  0
APPID
  5
7A1
330
9
100
AcDbSymbolTableRecord
100
AcDbRegAppTableRecord
  2
GENIUS_GENDIMSH_14
 70
     0
  0
APPID
  5
A49
330
9
100
AcDbSymbolTableRecord
100
AcDbRegAppTableRecord
  2
GENIUS_GENREC_14
 70
     0
  0
APPID
  5
A4A
330
9
100
AcDbSymbolTableRecord
100
AcDbRegAppTableRecord
  2
GENIUS_GENOBJ-N-REC_13
 70
     0
  0
APPID
  5
A4B
330
9
100
AcDbSymbolTableRecord
100
AcDbRegAppTableRecord
  2
GENIUS_GENODEF_13
 70
     0
  0
APPID
  5
A4C
330
9
100
AcDbSymbolTableRecord
100
AcDbRegAppTableRecord
  2
DCO15
 70
     0
  0
APPID
  5
ADC
330
9
100
AcDbSymbolTableRecord
100
AcDbRegAppTableRecord
  2
GENIUS_GENOLIS_13
 70
     0
  0
APPID
  5
ADD
330
9
100
AcDbSymbolTableRecord
100
AcDbRegAppTableRecord
  2
GENIUS_GENOENT_13
 70
     0
  0
APPID
  5
ADE
330
9
100
AcDbSymbolTableRecord
100
AcDbRegAppTableRecord
  2
GENIUS_GENOBJ-N-TIT_13
 70
     0
  0
APPID
  5
ADF
330
9
100
AcDbSymbolTableRecord
100
AcDbRegAppTableRecord
  2
GENIUS_GENTITLE_13
 70
     0
  0
APPID
  5
AE0
330
9
100
AcDbSymbolTableRecord
100
AcDbRegAppTableRecord
  2
GENIUS_GENOREF_13
 70
     0
  0
APPID
  5
AE7
330
9
100
AcDbSymbolTableRecord
100
AcDbRegAppTableRecord
  2
GENIUS_GENSCREG_15
 70
     0
  0
APPID
  5
AE8
330
9
100
AcDbSymbolTableRecord
100
AcDbRegAppTableRecord
  2
GENIUS_GENOBJ-N-SDF_13
 70
     0
  0
APPID
  5
FAF
330
9
100
AcDbSymbolTableRecord
100
AcDbRegAppTableRecord
  2
GENIUS_GENBLLY_14
 70
     0
  0
APPID
  5
FB0
330
9
100
AcDbSymbolTableRecord
100
AcDbRegAppTableRecord
  2
GENIUS_GENTRA_14
 70
     0
  0
APPID
  5
1285
330
9
100
AcDbSymbolTableRecord
100
AcDbRegAppTableRecord
  2
GENIUS_GENDTOL_13
 70
     0
  0
APPID
  5
142D
330
9
100
AcDbSymbolTableRecord
100
AcDbRegAppTableRecord
  2
GENIUS_GENOBJ-N-CEN_13
 70
     0
  0
APPID
  5
1AB5
330
9
100
AcDbSymbolTableRecord
100
AcDbRegAppTableRecord
  2
GENIUS_GENOBJ-N-CRS_13
 70
     0
  0
APPID
  5
1B36
330
9
100
AcDbSymbolTableRecord
100
AcDbRegAppTableRecord
  2
GENIUS_GENOBJ-N-HTC_13
 70
     0
  0
APPID
  5
1B37
330
9
100
AcDbSymbolTableRecord
100
AcDbRegAppTableRecord
  2
GENIUS_GENHATCH_13
 70
     0
  0
APPID
  5
216D
330
9
100
AcDbSymbolTableRecord
100
AcDbRegAppTableRecord
  2
GENIUS_GENOBJ-N-FIL_13
 70
     0
  0
APPID
  5
2356
330
9
100
AcDbSymbolTableRecord
100
AcDbRegAppTableRecord
  2
GEVID990412420
 70
     0
  0
APPID
  5
2357
330
9
100
AcDbSymbolTableRecord
100
AcDbRegAppTableRecord
  2
GEVDC
 70
     0
  0
APPID
  5
2358
330
9
100
AcDbSymbolTableRecord
100
AcDbRegAppTableRecord
  2
GEVCON
 70
     0
  0
APPID
  5
235B
330
9
100
AcDbSymbolTableRecord
100
AcDbRegAppTableRecord
  2
GEVRADREF
 70
     0
  0
APPID
  5
2360
330
9
100
AcDbSymbolTableRecord
100
AcDbRegAppTableRecord
  2
GENIUS_GENBH_13
 70
     0
  0
APPID
  5
2362
330
9
100
AcDbSymbolTableRecord
100
AcDbRegAppTableRecord
  2
GENIUS_GENOBJ-NBEHI-BHF_13
 70
     0
  0
APPID
  5
2364
330
9
100
AcDbSymbolTableRecord
100
AcDbRegAppTableRecord
  2
GENIUS_GENOBJ-NBEHI-BHB_13
 70
     0
  0
APPID
  5
2379
330
9
100
AcDbSymbolTableRecord
100
AcDbRegAppTableRecord
  2
GENIUS_GENOBJ-F-SCPASSM_13
 70
     0
  0
APPID
  5
3D74
330
9
100
AcDbSymbolTableRecord
100
AcDbRegAppTableRecord
  2
GENIUS_GENDIM_13
 70
     0
  0
APPID
  5
3D76
330
9
100
AcDbSymbolTableRecord
100
AcDbRegAppTableRecord
  2
GENIUS_GE3DTOL_13
 70
     0
  0
APPID
  5
3D9C
330
9
100
AcDbSymbolTableRecord
100
AcDbRegAppTableRecord
  2
AD_DRAW
 70
     0
  0
APPID
  5
3DE8
330
9
100
AcDbSymbolTableRecord
100
AcDbRegAppTableRecord
  2
ASURF_PCURVE_APPNAME
 70
     0
  0
APPID
  5
3DED
330
9
100
AcDbSymbolTableRecord
100
AcDbRegAppTableRecord
  2
AMG_3D2D_5.0
 70
     0
  0
APPID
  5
3E1B
330
9
100
AcDbSymbolTableRecord
100
AcDbRegAppTableRecord
  2
DESIGNERASSEMBLIES
 70
     0
  0
APPID
  5
3E20
330
9
100
AcDbSymbolTableRecord
100
AcDbRegAppTableRecord
  2
ACADM_DIM_EDIT
 70
     0
  0
APPID
  5
3E21
330
9
100
AcDbSymbolTableRecord
100
AcDbRegAppTableRecord
  2
AMDT_DM_ADJ
 70
     0
  0
APPID
  5
4143
330
9
100
AcDbSymbolTableRecord
100
AcDbRegAppTableRecord
  2
GENIUS_GENFIL_13
 70
     0
  0
APPID
  5
4144
330
9
100
AcDbSymbolTableRecord
100
AcDbRegAppTableRecord
  2
GENIUS_GENOBJ-N-CHA_13
 70
     0
  0
APPID
  5
4E17
330
9
100
AcDbSymbolTableRecord
100
AcDbRegAppTableRecord
  2
GEVID1008153417
 70
     0
  0
APPID
  5
4E58
330
9
100
AcDbSymbolTableRecord
100
AcDbRegAppTableRecord
  2
GEVID1008153418
 70
     0
  0
APPID
  5
4E5E
330
9
100
AcDbSymbolTableRecord
100
AcDbRegAppTableRecord
  2
GEVID1008153419
 70
     0
  0
APPID
  5
4E64
330
9
100
AcDbSymbolTableRecord
100
AcDbRegAppTableRecord
  2
GEVID1008153420
 70
     0
  0
APPID
  5
4E75
330
9
100
AcDbSymbolTableRecord
100
AcDbRegAppTableRecord
  2
GEVID1008153421
 70
     0
  0
APPID
  5
4EB7
330
9
100
AcDbSymbolTableRecord
100
AcDbRegAppTableRecord
  2
GENIUS_AMGTXT_16
 70
     0
  0
APPID
  5
7645
330
9
100
AcDbSymbolTableRecord
100
AcDbRegAppTableRecord
  2
GENIUS_GENOBJ-N-DIM_13
 70
     0
  0
APPID
  5
AAD0
330
9
100
AcDbSymbolTableRecord
100
AcDbRegAppTableRecord
  2
ACAD_DSTYLE_DIMARC_LENGTH_SYMBOL
 70
     0
  0
APPID
  5
AAD1
330
9
100
AcDbSymbolTableRecord
100
AcDbRegAppTableRecord
  2
ACAD_DSTYLE_DIMJOGGED_JOGANGLE_SYMBOL
 70
     0
  0
APPID
  5
AAFD
330
9
100
AcDbSymbolTableRecord
100
AcDbRegAppTableRecord
  2
ACAD_PSEXT
 70
     0
  0
APPID
  5
AD61
330
9
100
AcDbSymbolTableRecord
100
AcDbRegAppTableRecord
  2
AcAecLayerStandard
 70
     0
  0
APPID
  5
AEE3
330
9
100
AcDbSymbolTableRecord
100
AcDbRegAppTableRecord
  2
ACAD_EXEMPT_FROM_CAD_STANDARDS
 70
     0
  0
APPID
  5
B1BE
330
9
100
AcDbSymbolTableRecord
100
AcDbRegAppTableRecord
  2
GENIUS_GENCEN_19
 70
     0
  0
APPID
  5
B4DF
330
9
100
AcDbSymbolTableRecord
100
AcDbRegAppTableRecord
  2
ACAD_MLEADERVER
 70
     0
  0
ENDTAB
  0
TABLE
  2
DIMSTYLE
  5
A
330
0
100
AcDbSymbolTable
 70
    26
100
AcDbDimStyleTable
 71
     1
340
2515
  0
DIMSTYLE
105
A76
330
A
100
AcDbSymbolTableRecord
100
AcDbDimStyleTableRecord
  2
STANDARD
 70
     0
 41
3.0
 42
1.0
 43
7.0
 44
2.0
 73
     0
 74
     0
 77
     1
140
2.799999999999999
141
0.0
143
0.0394
147
0.7
171
     4
172
     1
173
     1
176
     3
177
     3
178
     2
271
     3
272
     3
273
     8
274
     4
289
     0
340
A74
341
A66
343
A66
344
A66
  0
DIMSTYLE
105
2515
330
A
100
AcDbSymbolTableRecord
100
AcDbDimStyleTableRecord
  2
SYS
 70
     0
  4
"
 41
1.0
 42
1.0
 43
10.0
 44
1.0
 47
0.1
 48
0.1
 73
     0
 74
     0
 77
     1
 78
     8
 79
     2
140
3.5
141
0.0
143
0.0393701
146
0.71
147
1.5
172
     1
176
   256
177
   256
178
     7
271
     2
272
     2
283
     0
284
     8
340
11
371
    -1
372
    -1
1001
ACAD_DSTYLE_DIMJOGGED_JOGANGLE_SYMBOL
1070
   384
1040
0.7853981633974483
1001
ACAD_DSTYLE_DIMARC_LENGTH_SYMBOL
1070
   379
1070
     1
  0
DIMSTYLE
105
2516
102
{ACAD_REACTORS
330
7FBD9
330
7FFC1
330
7FFF8
102
}
330
A
100
AcDbSymbolTableRecord
100
AcDbDimStyleTableRecord
  2
SYS$3
 70
     0
  4
"
 41
2.0
 42
1.0
 43
10.0
 44
1.0
 47
0.1
 48
0.1
 73
     0
 77
     1
 78
     8
 79
     2
140
3.5
141
0.0
143
0.0393701
146
0.71
147
1.5
176
   256
177
   256
178
     2
271
     2
272
     2
283
     0
284
     8
288
     1
340
11
342
A66
371
    -1
372
    -1
1001
ACAD_DSTYLE_DIMJOGGED_JOGANGLE_SYMBOL
1070
   384
1040
0.7853981633974483
1001
ACAD_DSTYLE_DIMARC_LENGTH_SYMBOL
1070
   379
1070
     1
  0
DIMSTYLE
105
2517
330
A
100
AcDbSymbolTableRecord
100
AcDbDimStyleTableRecord
  2
SYS$4
 70
     0
  4
"
 41
2.0
 42
1.0
 43
10.0
 44
1.0
 47
0.1
 48
0.1
 73
     0
 77
     1
 78
     8
 79
     2
140
3.5
141
0.0
143
0.0393701
146
0.71
147
1.5
173
     1
176
   256
177
   256
178
     2
271
     2
272
     2
283
     0
284
     8
288
     1
340
11
344
A66
371
    -1
372
    -1
1001
ACAD_DSTYLE_DIMJOGGED_JOGANGLE_SYMBOL
1070
   384
1040
0.7853981633974483
1001
ACAD_DSTYLE_DIMARC_LENGTH_SYMBOL
1070
   379
1070
     1
  0
DIMSTYLE
105
2518
330
A
100
AcDbSymbolTableRecord
100
AcDbDimStyleTableRecord
  2
SYS$6
 70
     0
  4
"
 41
2.0
 42
1.0
 43
10.0
 44
1.0
 47
0.1
 48
0.1
 73
     0
 74
     0
 78
     8
 79
     2
140
3.5
141
0.0
143
0.0393701
146
0.71
147
1.5
172
     1
176
   256
177
   256
178
     2
271
     2
272
     2
283
     0
284
     8
340
11
341
A66
371
    -1
372
    -1
1001
ACAD_DSTYLE_DIMJOGGED_JOGANGLE_SYMBOL
1070
   384
1040
0.7853981633974483
1001
ACAD_DSTYLE_DIMARC_LENGTH_SYMBOL
1070
   379
1070
     1
  0
DIMSTYLE
105
2519
330
A
100
AcDbSymbolTableRecord
100
AcDbDimStyleTableRecord
  2
SYS$7
 70
     0
  4
"
 41
2.0
 42
1.0
 43
10.0
 44
1.0
 47
0.1
 48
0.1
 73
     0
 74
     0
 77
     1
 78
     8
 79
     2
140
5.0
141
0.0
143
0.0393701
146
0.71
147
1.5
172
     1
176
   256
177
   256
178
     2
271
     2
272
     2
283
     0
284
     8
340
11
341
A66
342
A66
371
    -1
372
    -1
1001
ACAD_DSTYLE_DIMJOGGED_JOGANGLE_SYMBOL
1070
   384
1040
0.7853981633974483
1001
ACAD_DSTYLE_DIMARC_LENGTH_SYMBOL
1070
   379
1070
     1
  0
DIMSTYLE
105
251A
330
A
100
AcDbSymbolTableRecord
100
AcDbDimStyleTableRecord
  2
SYS$SF
 70
     0
  4
"
 41
2.5
 42
1.0
 43
10.0
 44
1.0
 47
0.1
 48
0.1
 73
     0
 74
     0
 75
     1
 76
     1
 77
     1
 78
     8
 79
     2
140
3.5
141
0.0
143
0.0393701
146
0.71
147
1.5
172
     1
176
   256
177
   256
178
     2
271
     2
272
     3
283
     0
284
     8
340
11
341
6C4
342
6C4
371
    -1
372
    -1
1001
ACAD_DSTYLE_DIMJOGGED_JOGANGLE_SYMBOL
1070
   384
1040
0.7853981633974483
1001
ACAD_DSTYLE_DIMARC_LENGTH_SYMBOL
1070
   379
1070
     1
  0
DIMSTYLE
105
251B
330
A
100
AcDbSymbolTableRecord
100
AcDbDimStyleTableRecord
  2
SYS$SH
 70
     0
  4
"
 41
2.5
 42
1.0
 43
10.0
 44
1.0
 47
0.1
 48
0.1
 73
     0
 74
     0
 75
     1
 76
     1
 77
     1
 78
     8
 79
     2
140
3.5
141
0.0
143
0.0393701
144
2.0
146
0.71
147
1.5
172
     1
173
     1
176
   256
177
   256
178
     2
271
     2
272
     3
283
     0
284
     8
340
11
341
6C4
343
72
344
6C4
371
    -1
372
    -1
1001
ACAD_DSTYLE_DIMJOGGED_JOGANGLE_SYMBOL
1070
   384
1040
0.7853981633974483
1001
ACAD_DSTYLE_DIMARC_LENGTH_SYMBOL
1070
   379
1070
     1
  0
DIMSTYLE
105
2A59
330
A
100
AcDbSymbolTableRecord
100
AcDbDimStyleTableRecord
  2
SYS$2
 70
     0
  4
"
 41
1.0
 42
1.0
 43
10.0
 44
1.0
 47
0.1
 48
0.1
 73
     0
 74
     0
 77
     1
 78
     8
 79
     2
140
3.5
141
0.0
143
0.0393701
146
0.71
147
1.5
172
     1
176
   256
177
   256
178
     2
271
     2
272
     2
283
     0
284
     8
340
11
342
6C4
371
    -1
372
    -1
1001
ACAD_DSTYLE_DIMJOGGED_JOGANGLE_SYMBOL
1070
   384
1040
0.7853981633974483
1001
ACAD_DSTYLE_DIMARC_LENGTH_SYMBOL
1070
   379
1070
     1
  0
DIMSTYLE
105
2AAB
102
{ACAD_REACTORS
330
7FB50
330
7FB51
330
7FB52
330
7FB53
330
7FB54
330
7FB55
330
7FBD7
330
7FBD8
330
7FCD0
330
7FD1B
330
7FD4C
330
7FFC0
330
7FFF4
330
7FFF5
330
7FFF6
330
7FFF7
330
80067
330
80068
330
80069
330
A2E76
102
}
330
A
100
AcDbSymbolTableRecord
100
AcDbDimStyleTableRecord
  2
SYS$0
 70
     0
  4
"
 41
1.0
 42
1.0
 43
10.0
 44
1.0
 47
0.1
 48
0.1
 73
     0
 74
     0
 77
     1
 78
     8
 79
     2
140
3.200000000000001
141
0.0
143
0.0393701
146
0.71
147
1.5
172
     1
176
   256
177
   256
178
     2
271
     2
272
     2
283
     0
284
     8
340
11
341
A66
342
6C4
371
    -1
372
    -1
1001
ACAD_DSTYLE_DIMJOGGED_JOGANGLE_SYMBOL
1070
   384
1040
0.7853981633974483
1001
ACAD_DSTYLE_DIMARC_LENGTH_SYMBOL
1070
   379
1070
     1
  0
DIMSTYLE
105
AF99
330
A
100
AcDbSymbolTableRecord
100
AcDbDimStyleTableRecord
  2
AM_ISO
 70
     0
  4
"
 41
2.5
 42
1.0
 43
10.0
 44
1.0
 47
0.1
 48
0.1
 73
     0
 74
     0
 77
     1
 78
     8
 79
     2
140
3.5
141
0.0
143
0.0393701
146
0.71
147
1.5
172
     1
176
   256
177
   256
178
     2
271
     2
272
     3
274
     4
283
     0
284
     8
340
11
371
    -1
372
    -1
  0
DIMSTYLE
105
AF9A
330
A
100
AcDbSymbolTableRecord
100
AcDbDimStyleTableRecord
  2
AM_ISO$3
 70
     0
  4
"
 41
2.5
 42
1.0
 43
10.0
 44
1.0
 47
0.1
 48
0.1
 73
     0
 77
     1
 78
     8
 79
     2
140
3.5
141
0.0
143
0.0393701
146
0.71
147
1.5
176
   256
177
   256
178
     2
271
     2
272
     3
274
     4
283
     0
284
     8
288
     1
289
     0
340
11
371
    -1
372
    -1
  0
DIMSTYLE
105
AF9B
330
A
100
AcDbSymbolTableRecord
100
AcDbDimStyleTableRecord
  2
AM_ISO$4
 70
     0
  4
"
 41
2.5
 42
1.0
 43
10.0
 44
1.0
 47
0.1
 48
0.1
 73
     0
 77
     1
 78
     8
 79
     2
140
3.5
141
0.0
143
0.0393701
146
0.71
147
1.5
176
   256
177
   256
178
     2
271
     2
272
     3
274
     4
283
     0
284
     8
288
     1
289
     0
340
11
371
    -1
372
    -1
  0
DIMSTYLE
105
AF9C
330
A
100
AcDbSymbolTableRecord
100
AcDbDimStyleTableRecord
  2
AM_ISO$6
 70
     0
  4
"
 41
2.5
 42
1.0
 43
10.0
 44
1.0
 47
0.1
 48
0.1
 73
     0
 74
     0
 78
     8
 79
     2
140
3.5
141
0.0
143
0.0393701
146
0.71
147
1.5
172
     1
176
   256
177
   256
178
     2
271
     2
272
     3
274
     4
283
     0
284
     8
340
11
371
    -1
372
    -1
  0
DIMSTYLE
105
AF9D
330
A
100
AcDbSymbolTableRecord
100
AcDbDimStyleTableRecord
  2
AM_ISO$7
 70
     0
  4
"
 41
2.5
 42
1.0
 43
10.0
 44
1.0
 47
0.1
 48
0.1
 73
     0
 74
     0
 77
     1
 78
     8
 79
     2
140
5.0
141
0.0
143
0.0393701
146
0.71
147
1.5
172
     1
176
   256
177
   256
178
     2
271
     2
272
     3
274
     4
283
     0
284
     8
340
11
371
    -1
372
    -1
  0
DIMSTYLE
105
AF9E
330
A
100
AcDbSymbolTableRecord
100
AcDbDimStyleTableRecord
  2
AM_ISO$SF
 70
     0
  4
"
 41
2.5
 42
1.0
 43
10.0
 44
1.0
 47
0.1
 48
0.1
 73
     0
 74
     0
 75
     1
 76
     1
 77
     1
 78
     8
 79
     2
140
3.5
141
0.0
143
0.0393701
146
0.71
147
1.5
172
     1
176
   256
177
   256
178
     2
271
     2
272
     3
274
     4
283
     0
284
     8
340
11
371
    -1
372
    -1
  0
DIMSTYLE
105
AF9F
330
A
100
AcDbSymbolTableRecord
100
AcDbDimStyleTableRecord
  2
AM_ISO$SH
 70
     0
  4
"
 41
2.5
 42
1.0
 43
10.0
 44
1.0
 47
0.1
 48
0.1
 73
     0
 74
     0
 75
     1
 76
     1
 77
     1
 78
     8
 79
     2
140
3.5
141
0.0
143
0.0393701
144
2.0
146
0.71
147
1.5
172
     1
173
     1
176
   256
177
   256
178
     2
271
     2
272
     3
274
     4
283
     0
284
     8
340
11
343
72
371
    -1
372
    -1
  0
DIMSTYLE
105
B658
330
A
100
AcDbSymbolTableRecord
100
AcDbDimStyleTableRecord
  2
AM_ANSI
 70
     0
  4
mm
 41
0.1
 42
0.05
 43
0.5
 44
0.1
 47
0.1
 48
0.1
 78
     7
 79
     2
140
0.12
141
0.0
146
0.71
147
0.06
176
   256
177
   256
178
     2
274
     4
284
     7
340
11
371
    -1
372
    -1
  0
DIMSTYLE
105
D8FE
330
A
100
AcDbSymbolTableRecord
100
AcDbDimStyleTableRecord
  2
EDDIMINFO
 70
     0
 41
5.0
 42
2.0
 43
0.0
 44
2.0
 46
10.0
 73
     0
 74
     0
 77
     1
 78
     8
140
4.0
141
2.5
143
0.03937
147
1.0
171
     3
172
     1
173
     1
176
     6
177
     6
178
     6
271
     2
272
     2
274
     3
283
     0
340
D8FB
341
D855
343
D855
344
D85B
  0
DIMSTYLE
105
D8FF
330
A
100
AcDbSymbolTableRecord
100
AcDbDimStyleTableRecord
  2
AM_ANSI$3
 70
     0
  4
mm
 41
0.1
 42
0.05
 43
0.5
 44
0.1
 47
0.1
 48
0.1
 78
     7
 79
     2
140
0.12
141
0.0
146
0.71
147
0.06
176
   256
177
   256
178
     2
274
     4
284
     7
288
     1
289
     0
340
11
371
    -1
372
    -1
1001
ACAD_DSTYLE_DIMARC_LENGTH_SYMBOL
1070
   379
1070
     1
  0
DIMSTYLE
105
D900
330
A
100
AcDbSymbolTableRecord
100
AcDbDimStyleTableRecord
  2
AM_ANSI$4
 70
     0
  4
mm
 41
0.1
 42
0.05
 43
0.5
 44
0.1
 47
0.1
 48
0.1
 78
     7
 79
     2
140
0.12
141
0.0
146
0.71
147
0.06
176
   256
177
   256
178
     2
274
     4
284
     7
288
     1
289
     0
340
11
371
    -1
372
    -1
1001
ACAD_DSTYLE_DIMARC_LENGTH_SYMBOL
1070
   379
1070
     1
  0
DIMSTYLE
105
D901
330
A
100
AcDbSymbolTableRecord
100
AcDbDimStyleTableRecord
  2
AM_ANSI$7
 70
     0
  4
mm
 41
0.1
 42
0.05
 43
0.5
 44
0.1
 47
0.1
 48
0.1
 78
     7
 79
     2
140
0.24
141
0.0
146
0.71
147
0.06
176
   256
177
   256
178
     2
274
     4
284
     7
340
11
371
    -1
372
    -1
1001
ACAD_DSTYLE_DIMARC_LENGTH_SYMBOL
1070
   379
1070
     1
  0
DIMSTYLE
105
D902
330
A
100
AcDbSymbolTableRecord
100
AcDbDimStyleTableRecord
  2
AM_ANSI$SF
 70
     0
  4
mm
 41
0.1
 42
0.05
 43
0.5
 44
0.1
 47
0.1
 48
0.1
 75
     1
 76
     1
 78
     7
 79
     2
140
0.12
141
0.0
146
0.71
147
0.06
176
   256
177
   256
178
     2
274
     4
284
     7
340
11
371
    -1
372
    -1
1001
ACAD_DSTYLE_DIMARC_LENGTH_SYMBOL
1070
   379
1070
     1
  0
DIMSTYLE
105
D903
330
A
100
AcDbSymbolTableRecord
100
AcDbDimStyleTableRecord
  2
AM_ANSI$SH
 70
     0
  4
mm
 41
0.1
 42
0.05
 43
0.5
 44
0.1
 47
0.1
 48
0.1
 75
     1
 76
     1
 78
     7
 79
     2
140
0.12
141
0.0
146
0.71
147
0.06
173
     1
176
   256
177
   256
178
     2
274
     4
284
     7
340
11
343
72
371
    -1
372
    -1
1001
ACAD_DSTYLE_DIMARC_LENGTH_SYMBOL
1070
   379
1070
     1
  0
DIMSTYLE
105
5AFB8
330
A
100
AcDbSymbolTableRecord
100
AcDbDimStyleTableRecord
  2
AM_ISO$0
 70
     0
  4
"
 41
0.8
 42
1.0
 43
10.0
 44
1.0
 47
0.1
 48
0.1
 73
     0
 74
     0
 77
     1
 78
     8
 79
     2
140
3.2
141
0.0
143
0.0393701
146
0.71
147
0.9999999999999996
172
     1
176
   256
177
   256
178
     2
271
     2
272
     2
283
     0
284
     8
340
11
341
6C4
342
6C4
371
    -1
372
    -1
  0
DIMSTYLE
105
5AFB9
330
A
100
AcDbSymbolTableRecord
100
AcDbDimStyleTableRecord
  2
AM_ISO$2
 70
     0
  4
"
 41
0.8
 42
1.0
 43
10.0
 44
1.0
 47
0.1
 48
0.1
 73
     0
 74
     0
 77
     3
 78
     8
 79
     2
140
3.200000000000001
141
0.0
143
0.0393701
146
0.71
147
0.9999999999999996
172
     1
176
   256
177
   256
178
     2
271
     2
272
     2
283
     0
284
     8
340
11
342
6C4
371
    -1
372
    -1
  0
ENDTAB
  0
TABLE
  2
BLOCK_RECORD
  5
1
330
0
100
AcDbSymbolTable
 70
    30
  0
BLOCK_RECORD
  5
1F
102
{ACAD_XDICTIONARY
360
8A
102
}
330
1
100
AcDbSymbolTableRecord
100
AcDbBlockTableRecord
  2
*Model_Space
340
22
  0
BLOCK_RECORD
  5
1B
330
1
100
AcDbSymbolTableRecord
100
AcDbBlockTableRecord
  2
*Paper_Space
340
1E
  0
BLOCK_RECORD
  5
23
330
1
100
AcDbSymbolTableRecord
100
AcDbBlockTableRecord
  2
*Paper_Space0
340
26
  0
BLOCK_RECORD
  5
72
330
1
100
AcDbSymbolTableRecord
100
AcDbBlockTableRecord
  2
GENAXEH
340
0
  0
BLOCK_RECORD
  5
6C4
330
1
100
AcDbSymbolTableRecord
100
AcDbBlockTableRecord
  2
_Dot
340
0
102
{BLKREFS
331
AB065
331
AB066
331
AB06E
331
AB06F
331
AB077
331
AB078
331
AB080
331
AB081
331
AB089
331
AB08A
331
AB092
331
AB093
331
AB09B
331
AB09C
331
AB0A4
331
AB0A5
331
AB0AF
331
AB0B0
331
AB0B6
331
AB0B7
331
AB0BF
331
AB0C0
331
AB0C8
331
AB0C9
331
AB0D1
331
AB0D2
331
AB0DC
331
AB0DD
331
AB0E3
331
AB0E4
331
AB0EC
331
AB0ED
331
AB0F5
331
AB0F6
331
AB0FE
331
AB0FF
331
AB109
331
AB10A
331
AB110
331
AB111
331
AB119
331
AB11A
331
AB122
331
AB123
331
AB12D
331
AB12E
102
}
  0
BLOCK_RECORD
  5
A66
330
1
100
AcDbSymbolTableRecord
100
AcDbBlockTableRecord
  2
_OPEN30
340
0
  0
BLOCK_RECORD
  5
D855
330
1
100
AcDbSymbolTableRecord
100
AcDbBlockTableRecord
  2
EDTIP_ARROW_S
340
0
  0
BLOCK_RECORD
  5
D85B
330
1
100
AcDbSymbolTableRecord
100
AcDbBlockTableRecord
  2
EDTIP_ARROW_E
340
0
  0
BLOCK_RECORD
  5
7FB58
330
1
100
AcDbSymbolTableRecord
100
AcDbBlockTableRecord
  2
*D6
340
0
  0
BLOCK_RECORD
  5
7FB64
330
1
100
AcDbSymbolTableRecord
100
AcDbBlockTableRecord
  2
*D7
340
0
  0
BLOCK_RECORD
  5
7FB70
330
1
100
AcDbSymbolTableRecord
100
AcDbBlockTableRecord
  2
*D8
340
0
  0
BLOCK_RECORD
  5
7FB7C
330
1
100
AcDbSymbolTableRecord
100
AcDbBlockTableRecord
  2
*D9
340
0
  0
BLOCK_RECORD
  5
7FB88
330
1
100
AcDbSymbolTableRecord
100
AcDbBlockTableRecord
  2
*D10
340
0
  0
BLOCK_RECORD
  5
7FB94
330
1
100
AcDbSymbolTableRecord
100
AcDbBlockTableRecord
  2
*D11
340
0
  0
BLOCK_RECORD
  5
7FBDA
330
1
100
AcDbSymbolTableRecord
100
AcDbBlockTableRecord
  2
*D12
340
0
  0
BLOCK_RECORD
  5
7FBE6
330
1
100
AcDbSymbolTableRecord
100
AcDbBlockTableRecord
  2
*D13
340
0
  0
BLOCK_RECORD
  5
7FBF2
330
1
100
AcDbSymbolTableRecord
100
AcDbBlockTableRecord
  2
*D14
340
0
  0
BLOCK_RECORD
  5
7FCD1
330
1
100
AcDbSymbolTableRecord
100
AcDbBlockTableRecord
  2
*D15
340
0
  0
BLOCK_RECORD
  5
7FD1C
330
1
100
AcDbSymbolTableRecord
100
AcDbBlockTableRecord
  2
*D16
340
0
  0
BLOCK_RECORD
  5
7FD4D
330
1
100
AcDbSymbolTableRecord
100
AcDbBlockTableRecord
  2
*D17
340
0
  0
BLOCK_RECORD
  5
7FFC2
330
1
100
AcDbSymbolTableRecord
100
AcDbBlockTableRecord
  2
*D18
340
0
  0
BLOCK_RECORD
  5
7FFCE
330
1
100
AcDbSymbolTableRecord
100
AcDbBlockTableRecord
  2
*D19
340
0
  0
BLOCK_RECORD
  5
7FFF9
330
1
100
AcDbSymbolTableRecord
100
AcDbBlockTableRecord
  2
*D20
340
0
  0
BLOCK_RECORD
  5
80005
330
1
100
AcDbSymbolTableRecord
100
AcDbBlockTableRecord
  2
*D21
340
0
  0
BLOCK_RECORD
  5
80011
330
1
100
AcDbSymbolTableRecord
100
AcDbBlockTableRecord
  2
*D22
340
0
  0
BLOCK_RECORD
  5
8001D
330
1
100
AcDbSymbolTableRecord
100
AcDbBlockTableRecord
  2
*D23
340
0
  0
BLOCK_RECORD
  5
80029
330
1
100
AcDbSymbolTableRecord
100
AcDbBlockTableRecord
  2
*D24
340
0
  0
BLOCK_RECORD
  5
8006A
330
1
100
AcDbSymbolTableRecord
100
AcDbBlockTableRecord
  2
*D25
340
0
  0
BLOCK_RECORD
  5
80076
330
1
100
AcDbSymbolTableRecord
100
AcDbBlockTableRecord
  2
*D26
340
0
  0
BLOCK_RECORD
  5
80082
330
1
100
AcDbSymbolTableRecord
100
AcDbBlockTableRecord
  2
*D27
340
0
  0
BLOCK_RECORD
  5
A2E77
330
1
100
AcDbSymbolTableRecord
100
AcDbBlockTableRecord
  2
*D28
340
0
  0
ENDTAB
  0
ENDSEC
  0
SECTION
  2
BLOCKS
  0
BLOCK
  5
20
330
1F
100
AcDbEntity
  8
0
100
AcDbBlockBegin
  2
*Model_Space
 70
     0
 10
0.0
 20
0.0
 30
0.0
  3
*Model_Space
  1

  0
ENDBLK
  5
21
330
1F
100
AcDbEntity
  8
0
100
AcDbBlockEnd
  0
BLOCK
  5
1C
330
1B
100
AcDbEntity
 67
     1
  8
0
100
AcDbBlockBegin
  2
*Paper_Space
 70
     0
 10
0.0
 20
0.0
 30
0.0
  3
*Paper_Space
  1

  0
ENDBLK
  5
1D
330
1B
100
AcDbEntity
 67
     1
  8
0
100
AcDbBlockEnd
  0
BLOCK
  5
24
330
23
100
AcDbEntity
 67
     1
  8
0
100
AcDbBlockBegin
  2
*Paper_Space0
 70
     0
 10
0.0
 20
0.0
 30
0.0
  3
*Paper_Space0
  1

  0
ENDBLK
  5
25
330
23
100
AcDbEntity
 67
     1
  8
0
100
AcDbBlockEnd
  0
BLOCK
  5
74
330
72
100
AcDbEntity
  8
0
100
AcDbBlockBegin
  2
GENAXEH
 70
     0
 10
0.0
 20
0.0
 30
0.0
  3
GENAXEH
  1

  0
LINE
  5
73
330
72
100
AcDbEntity
  8
0
100
AcDbLine
 10
-1.0
 20
0.0
 30
0.0
 11
1.0
 21
0.0
 31
0.0
  0
ENDBLK
  5
75
330
72
100
AcDbEntity
  8
0
100
AcDbBlockEnd
  0
BLOCK
  5
6C7
330
6C4
100
AcDbEntity
  8
0
100
AcDbBlockBegin
  2
_Dot
 70
     0
 10
0.0
 20
0.0
 30
0.0
  3
_Dot
  1

  0
LWPOLYLINE
  5
6C5
330
6C4
100
AcDbEntity
  8
0
  6
ByBlock
 62
     0
100
AcDbPolyline
 90
        2
 70
     1
 43
0.5
 10
-0.25
 20
0.0
 42
1.0
 10
0.25
 20
0.0
 42
1.0
  0
LINE
  5
6C6
330
6C4
100
AcDbEntity
  8
0
  6
ByBlock
 62
     0
370
    -2
100
AcDbLine
 10
-0.5
 20
0.0
 30
0.0
 11
-1.0
 21
0.0
 31
0.0
  0
ENDBLK
  5
6C8
330
6C4
100
AcDbEntity
  8
0
100
AcDbBlockEnd
  0
BLOCK
  5
A6A
330
A66
100
AcDbEntity
  8
0
100
AcDbBlockBegin
  2
_OPEN30
 70
     0
 10
0.0
 20
0.0
 30
0.0
  3
_OPEN30
  1

  0
LINE
  5
A67
330
A66
100
AcDbEntity
  8
0
  6
ByBlock
 62
     0
100
AcDbLine
 10
-1.0
 20
0.26794919
 30
0.0
 11
0.0
 21
0.0
 31
0.0
  0
LINE
  5
A68
330
A66
100
AcDbEntity
  8
0
  6
ByBlock
 62
     0
100
AcDbLine
 10
0.0
 20
0.0
 30
0.0
 11
-1.0
 21
-0.26794919
 31
0.0
  0
LINE
  5
A69
330
A66
100
AcDbEntity
  8
0
  6
ByBlock
 62
     0
100
AcDbLine
 10
0.0
 20
0.0
 30
0.0
 11
-1.0
 21
0.0
 31
0.0
  0
ENDBLK
  5
A6B
330
A66
100
AcDbEntity
  8
0
100
AcDbBlockEnd
  0
BLOCK
  5
D856
330
D855
100
AcDbEntity
  8
0
  6
ByBlock
 62
     0
100
AcDbBlockBegin
  2
EDTIP_ARROW_S
 70
     0
 10
0.0
 20
0.0
 30
0.0
  3
EDTIP_ARROW_S
  1

  0
LINE
  5
D857
330
D855
100
AcDbEntity
  8
0
  6
Continuous
 62
     0
100
AcDbLine
 10
0.0
 20
0.0
 30
0.0
 11
-1.0
 21
0.0
 31
0.0
  0
LINE
  5
D858
330
D855
100
AcDbEntity
  8
0
  6
Continuous
 62
     0
100
AcDbLine
 10
0.0
 20
0.0
 30
0.0
 11
-0.9659259999999999
 21
0.258819
 31
0.0
  0
LINE
  5
D859
330
D855
100
AcDbEntity
  8
0
  6
Continuous
 62
     0
100
AcDbLine
 10
0.0
 20
0.0
 30
0.0
 11
-0.9659259999999999
 21
-0.258819
 31
0.0
  0
ENDBLK
  5
D85A
330
D855
100
AcDbEntity
  8
0
  6
ByBlock
 62
     0
100
AcDbBlockEnd
  0
BLOCK
  5
D85C
330
D85B
100
AcDbEntity
  8
0
  6
ByBlock
 62
     0
100
AcDbBlockBegin
  2
EDTIP_ARROW_E
 70
     0
 10
0.0
 20
0.0
 30
0.0
  3
EDTIP_ARROW_E
  1

  0
LINE
  5
D85D
330
D85B
100
AcDbEntity
  8
0
  6
Continuous
 62
     0
100
AcDbLine
 10
0.0
 20
0.0
 30
0.0
 11
-1.0
 21
0.0
 31
0.0
  0
LINE
  5
D85E
330
D85B
100
AcDbEntity
  8
0
  6
Continuous
 62
     0
100
AcDbLine
 10
0.0
 20
0.0
 30
0.0
 11
-0.9659259999999999
 21
-0.258819
 31
0.0
  0
LINE
  5
D85F
330
D85B
100
AcDbEntity
  8
0
  6
Continuous
 62
     0
100
AcDbLine
 10
0.0
 20
0.0
 30
0.0
 11
-0.9659259999999999
 21
0.258819
 31
0.0
  0
ENDBLK
  5
D860
330
D85B
100
AcDbEntity
  8
0
  6
ByBlock
 62
     0
100
AcDbBlockEnd
  0
BLOCK
  5
7FB62
330
7FB58
100
AcDbEntity
  8
0
100
AcDbBlockBegin
  2
*D6
 70
     1
 10
0.0
 20
0.0
 30
0.0
  3
*D6
  1

  0
LINE
  5
AB062
330
7FB58
100
AcDbEntity
  8
AM_5
100
AcDbLine
 10
383.2500000000001
 20
467.4999999999999
 30
0.0
 11
406.0000000000001
 21
467.4999999999999
 31
0.0
  0
LINE
  5
AB063
330
7FB58
100
AcDbEntity
  8
AM_5
100
AcDbLine
 10
383.2500000000001
 20
412.5
 30
0.0
 11
406.0000000000001
 21
412.4999999999999
 31
0.0
  0
LINE
  5
AB064
330
7FB58
100
AcDbEntity
  8
AM_5
100
AcDbLine
 10
404.0
 20
465.4999999999999
 30
0.0
 11
404.0
 21
414.4999999999999
 31
0.0
  0
INSERT
  5
AB065
330
7FB58
100
AcDbEntity
  8
AM_5
100
AcDbBlockReference
  2
_Dot
 10
404.0
 20
467.4999999999999
 30
0.0
 41
2.0
 42
2.0
 43
2.0
 50
90.0
  0
INSERT
  5
AB066
330
7FB58
100
AcDbEntity
  8
AM_5
100
AcDbBlockReference
  2
_Dot
 10
404.0
 20
412.4999999999999
 30
0.0
 41
2.0
 42
2.0
 43
2.0
 50
270.0
  0
MTEXT
  5
AB067
330
7FB58
100
AcDbEntity
  8
AM_5
 62
     2
100
AcDbMText
 10
397.8
 20
440.0
 30
0.0
 40
6.400000000000002
 41
0.0
 71
     5
 72
     1
  1
Y
 11
0.0000000000000001
 21
1.0
 31
0.0
 73
     1
 44
1.0
1001
ACAD
1000
MTEXTBEGIN
1070
    73
1070
     1
1070
    44
1040
1.0
1070
    74
1070
     0
1000
MTEXTEND
  0
POINT
  5
AB068
330
7FB58
100
AcDbEntity
  8
Defpoints
 62
     0
100
AcDbPoint
 10
381.2500000000001
 20
467.4999999999999
 30
0.0
  0
POINT
  5
AB069
330
7FB58
100
AcDbEntity
  8
Defpoints
 62
     0
100
AcDbPoint
 10
381.2500000000001
 20
412.5
 30
0.0
  0
POINT
  5
AB06A
330
7FB58
100
AcDbEntity
  8
Defpoints
 62
     0
100
AcDbPoint
 10
404.0
 20
412.4999999999999
 30
0.0
  0
ENDBLK
  5
7FB63
330
7FB58
100
AcDbEntity
  8
0
100
AcDbBlockEnd
  0
BLOCK
  5
7FB6E
330
7FB64
100
AcDbEntity
  8
0
100
AcDbBlockBegin
  2
*D7
 70
     1
 10
0.0
 20
0.0
 30
0.0
  3
*D7
  1

  0
LINE
  5
AB06B
330
7FB64
100
AcDbEntity
  8
AM_5
100
AcDbLine
 10
388.2500000000001
 20
407.5
 30
0.0
 11
422.0000000000001
 21
407.5
 31
0.0
  0
LINE
  5
AB06C
330
7FB64
100
AcDbEntity
  8
AM_5
100
AcDbLine
 10
388.2500000000001
 20
472.5
 30
0.0
 11
422.0000000000001
 21
472.5
 31
0.0
  0
LINE
  5
AB06D
330
7FB64
100
AcDbEntity
  8
AM_5
100
AcDbLine
 10
420.0000000000001
 20
409.4999999999999
 30
0.0
 11
420.0000000000001
 21
470.5
 31
0.0
  0
INSERT
  5
AB06E
330
7FB64
100
AcDbEntity
  8
AM_5
100
AcDbBlockReference
  2
_Dot
 10
420.0000000000001
 20
407.5
 30
0.0
 41
2.0
 42
2.0
 43
2.0
 50
270.0
  0
INSERT
  5
AB06F
330
7FB64
100
AcDbEntity
  8
AM_5
100
AcDbBlockReference
  2
_Dot
 10
420.0000000000001
 20
472.5
 30
0.0
 41
2.0
 42
2.0
 43
2.0
 50
90.0
  0
MTEXT
  5
AB070
330
7FB64
100
AcDbEntity
  8
AM_5
 62
     2
100
AcDbMText
 10
413.1904761904761
 20
440.0000000000001
 30
0.0
 40
6.400000000000002
 41
0.0
 71
     5
 72
     1
  1
Y'
 11
0.0000000000000001
 21
1.0
 31
0.0
 73
     1
 44
1.0
1001
ACAD
1000
MTEXTBEGIN
1070
    73
1070
     1
1070
    44
1040
1.0
1070
    74
1070
     0
1000
MTEXTEND
  0
POINT
  5
AB071
330
7FB64
100
AcDbEntity
  8
Defpoints
 62
     0
100
AcDbPoint
 10
386.2500000000001
 20
407.5
 30
0.0
  0
POINT
  5
AB072
330
7FB64
100
AcDbEntity
  8
Defpoints
 62
     0
100
AcDbPoint
 10
386.2500000000001
 20
472.5
 30
0.0
  0
POINT
  5
AB073
330
7FB64
100
AcDbEntity
  8
Defpoints
 62
     0
100
AcDbPoint
 10
420.0000000000001
 20
472.5
 30
0.0
  0
ENDBLK
  5
7FB6F
330
7FB64
100
AcDbEntity
  8
0
100
AcDbBlockEnd
  0
BLOCK
  5
7FB7A
330
7FB70
100
AcDbEntity
  8
0
100
AcDbBlockBegin
  2
*D8
 70
     1
 10
0.0
 20
0.0
 30
0.0
  3
*D8
  1

  0
LINE
  5
AB074
330
7FB70
100
AcDbEntity
  8
AM_5
100
AcDbLine
 10
376.5000000000001
 20
399.0
 30
0.0
 11
438.0000000000001
 21
398.9999999999999
 31
0.0
  0
LINE
  5
AB075
330
7FB70
100
AcDbEntity
  8
AM_5
100
AcDbLine
 10
376.5000000000001
 20
481.0
 30
0.0
 11
438.0000000000001
 21
480.9999999999999
 31
0.0
  0
LINE
  5
AB076
330
7FB70
100
AcDbEntity
  8
AM_5
100
AcDbLine
 10
436.0000000000001
 20
400.9999999999999
 30
0.0
 11
436.0000000000001
 21
478.9999999999999
 31
0.0
  0
INSERT
  5
AB077
330
7FB70
100
AcDbEntity
  8
AM_5
100
AcDbBlockReference
  2
_Dot
 10
436.0000000000001
 20
398.9999999999999
 30
0.0
 41
2.0
 42
2.0
 43
2.0
 50
270.0
  0
INSERT
  5
AB078
330
7FB70
100
AcDbEntity
  8
AM_5
100
AcDbBlockReference
  2
_Dot
 10
436.0000000000001
 20
480.9999999999999
 30
0.0
 41
2.0
 42
2.0
 43
2.0
 50
90.0
  0
MTEXT
  5
AB079
330
7FB70
100
AcDbEntity
  8
AM_5
 62
     2
100
AcDbMText
 10
429.8
 20
440.0
 30
0.0
 40
6.400000000000002
 41
0.0
 71
     5
 72
     1
  1
B
 11
0.0000000000000001
 21
1.0
 31
0.0
 73
     1
 44
1.0
1001
ACAD
1000
MTEXTBEGIN
1070
    73
1070
     1
1070
    44
1040
1.0
1070
    74
1070
     0
1000
MTEXTEND
  0
POINT
  5
AB07A
330
7FB70
100
AcDbEntity
  8
Defpoints
 62
     0
100
AcDbPoint
 10
374.5000000000001
 20
399.0
 30
0.0
  0
POINT
  5
AB07B
330
7FB70
100
AcDbEntity
  8
Defpoints
 62
     0
100
AcDbPoint
 10
374.5000000000001
 20
481.0
 30
0.0
  0
POINT
  5
AB07C
330
7FB70
100
AcDbEntity
  8
Defpoints
 62
     0
100
AcDbPoint
 10
436.0000000000001
 20
480.9999999999999
 30
0.0
  0
ENDBLK
  5
7FB7B
330
7FB70
100
AcDbEntity
  8
0
100
AcDbBlockEnd
  0
BLOCK
  5
7FB86
330
7FB7C
100
AcDbEntity
  8
0
100
AcDbBlockBegin
  2
*D9
 70
     1
 10
0.0
 20
0.0
 30
0.0
  3
*D9
  1

  0
LINE
  5
AB07D
330
7FB7C
100
AcDbEntity
  8
AM_5
100
AcDbLine
 10
315.5000000000001
 20
480.25
 30
0.0
 11
315.5000000000001
 21
499.0
 31
0.0
  0
LINE
  5
AB07E
330
7FB7C
100
AcDbEntity
  8
AM_5
100
AcDbLine
 10
370.5000000000001
 20
480.25
 30
0.0
 11
370.5000000000001
 21
499.0
 31
0.0
  0
LINE
  5
AB07F
330
7FB7C
100
AcDbEntity
  8
AM_5
100
AcDbLine
 10
317.5000000000001
 20
497.0
 30
0.0
 11
368.5000000000001
 21
497.0
 31
0.0
  0
INSERT
  5
AB080
330
7FB7C
100
AcDbEntity
  8
AM_5
100
AcDbBlockReference
  2
_Dot
 10
315.5000000000001
 20
497.0
 30
0.0
 41
2.0
 42
2.0
 43
2.0
 50
180.0
  0
INSERT
  5
AB081
330
7FB7C
100
AcDbEntity
  8
AM_5
100
AcDbBlockReference
  2
_Dot
 10
370.5000000000001
 20
497.0
 30
0.0
 41
2.0
 42
2.0
 43
2.0
  0
MTEXT
  5
AB082
330
7FB7C
100
AcDbEntity
  8
AM_5
 62
     2
100
AcDbMText
 10
343.0000000000001
 20
503.2
 30
0.0
 40
6.400000000000002
 41
0.0
 71
     5
 72
     1
  1
X
 73
     1
 44
1.0
1001
ACAD
1000
MTEXTBEGIN
1070
    73
1070
     1
1070
    44
1040
1.0
1070
    74
1070
     0
1000
MTEXTEND
  0
POINT
  5
AB083
330
7FB7C
100
AcDbEntity
  8
Defpoints
 62
     0
100
AcDbPoint
 10
315.5000000000001
 20
478.2499999999999
 30
0.0
  0
POINT
  5
AB084
330
7FB7C
100
AcDbEntity
  8
Defpoints
 62
     0
100
AcDbPoint
 10
370.5000000000001
 20
478.2499999999999
 30
0.0
  0
POINT
  5
AB085
330
7FB7C
100
AcDbEntity
  8
Defpoints
 62
     0
100
AcDbPoint
 10
370.5000000000001
 20
497.0
 30
0.0
  0
ENDBLK
  5
7FB87
330
7FB7C
100
AcDbEntity
  8
0
100
AcDbBlockEnd
  0
BLOCK
  5
7FB92
330
7FB88
100
AcDbEntity
  8
0
100
AcDbBlockBegin
  2
*D10
 70
     1
 10
0.0
 20
0.0
 30
0.0
  3
*D10
  1

  0
LINE
  5
AB086
330
7FB88
100
AcDbEntity
  8
AM_5
100
AcDbLine
 10
310.5000000000001
 20
485.25
 30
0.0
 11
310.5000000000001
 21
515.0
 31
0.0
  0
LINE
  5
AB087
330
7FB88
100
AcDbEntity
  8
AM_5
100
AcDbLine
 10
375.5000000000001
 20
485.25
 30
0.0
 11
375.5000000000001
 21
515.0
 31
0.0
  0
LINE
  5
AB088
330
7FB88
100
AcDbEntity
  8
AM_5
100
AcDbLine
 10
312.5000000000001
 20
513.0
 30
0.0
 11
373.5000000000001
 21
513.0
 31
0.0
  0
INSERT
  5
AB089
330
7FB88
100
AcDbEntity
  8
AM_5
100
AcDbBlockReference
  2
_Dot
 10
310.5000000000001
 20
513.0
 30
0.0
 41
2.0
 42
2.0
 43
2.0
 50
180.0
  0
INSERT
  5
AB08A
330
7FB88
100
AcDbEntity
  8
AM_5
100
AcDbBlockReference
  2
_Dot
 10
375.5000000000001
 20
513.0
 30
0.0
 41
2.0
 42
2.0
 43
2.0
  0
MTEXT
  5
AB08B
330
7FB88
100
AcDbEntity
  8
AM_5
 62
     2
100
AcDbMText
 10
343.0000000000001
 20
519.8095238095238
 30
0.0
 40
6.400000000000002
 41
0.0
 71
     5
 72
     1
  1
X'
 73
     1
 44
1.0
1001
ACAD
1000
MTEXTBEGIN
1070
    73
1070
     1
1070
    44
1040
1.0
1070
    74
1070
     0
1000
MTEXTEND
  0
POINT
  5
AB08C
330
7FB88
100
AcDbEntity
  8
Defpoints
 62
     0
100
AcDbPoint
 10
310.5000000000001
 20
483.25
 30
0.0
  0
POINT
  5
AB08D
330
7FB88
100
AcDbEntity
  8
Defpoints
 62
     0
100
AcDbPoint
 10
375.5000000000001
 20
483.25
 30
0.0
  0
POINT
  5
AB08E
330
7FB88
100
AcDbEntity
  8
Defpoints
 62
     0
100
AcDbPoint
 10
375.5000000000001
 20
513.0
 30
0.0
  0
ENDBLK
  5
7FB93
330
7FB88
100
AcDbEntity
  8
0
100
AcDbBlockEnd
  0
BLOCK
  5
7FB9E
330
7FB94
100
AcDbEntity
  8
0
100
AcDbBlockBegin
  2
*D11
 70
     1
 10
0.0
 20
0.0
 30
0.0
  3
*D11
  1

  0
LINE
  5
AB08F
330
7FB94
100
AcDbEntity
  8
AM_5
100
AcDbLine
 10
302.0000000000001
 20
473.5
 30
0.0
 11
302.0000000000001
 21
531.0
 31
0.0
  0
LINE
  5
AB090
330
7FB94
100
AcDbEntity
  8
AM_5
100
AcDbLine
 10
384.0000000000001
 20
473.5
 30
0.0
 11
384.0000000000001
 21
531.0
 31
0.0
  0
LINE
  5
AB091
330
7FB94
100
AcDbEntity
  8
AM_5
100
AcDbLine
 10
304.0000000000001
 20
529.0
 30
0.0
 11
382.0000000000001
 21
529.0
 31
0.0
  0
INSERT
  5
AB092
330
7FB94
100
AcDbEntity
  8
AM_5
100
AcDbBlockReference
  2
_Dot
 10
302.0000000000001
 20
529.0
 30
0.0
 41
2.0
 42
2.0
 43
2.0
 50
180.0
  0
INSERT
  5
AB093
330
7FB94
100
AcDbEntity
  8
AM_5
100
AcDbBlockReference
  2
_Dot
 10
384.0000000000001
 20
529.0
 30
0.0
 41
2.0
 42
2.0
 43
2.0
  0
MTEXT
  5
AB094
330
7FB94
100
AcDbEntity
  8
AM_5
 62
     2
100
AcDbMText
 10
343.0000000000001
 20
535.2
 30
0.0
 40
6.400000000000002
 41
0.0
 71
     5
 72
     1
  1
A
 73
     1
 44
1.0
1001
ACAD
1000
MTEXTBEGIN
1070
    73
1070
     1
1070
    44
1040
1.0
1070
    74
1070
     0
1000
MTEXTEND
  0
POINT
  5
AB095
330
7FB94
100
AcDbEntity
  8
Defpoints
 62
     0
100
AcDbPoint
 10
302.0000000000001
 20
471.4999999999999
 30
0.0
  0
POINT
  5
AB096
330
7FB94
100
AcDbEntity
  8
Defpoints
 62
     0
100
AcDbPoint
 10
384.0000000000001
 20
471.4999999999999
 30
0.0
  0
POINT
  5
AB097
330
7FB94
100
AcDbEntity
  8
Defpoints
 62
     0
100
AcDbPoint
 10
384.0000000000001
 20
529.0
 30
0.0
  0
ENDBLK
  5
7FB9F
330
7FB94
100
AcDbEntity
  8
0
100
AcDbBlockEnd
  0
BLOCK
  5
7FBE4
330
7FBDA
100
AcDbEntity
  8
0
100
AcDbBlockBegin
  2
*D12
 70
     1
 10
0.0
 20
0.0
 30
0.0
  3
*D12
  1

  0
LINE
  5
AB098
330
7FBDA
100
AcDbEntity
  8
AM_5
100
AcDbLine
 10
342.9999999999997
 20
296.0
 30
0.0
 11
342.9999999999997
 21
251.0
 31
0.0
  0
LINE
  5
AB099
330
7FBDA
100
AcDbEntity
  8
AM_5
100
AcDbLine
 10
324.9999999999996
 20
265.0
 30
0.0
 11
324.9999999999996
 21
251.0
 31
0.0
  0
LINE
  5
AB09A
330
7FBDA
100
AcDbEntity
  8
AM_5
100
AcDbLine
 10
340.9999999999997
 20
253.0
 30
0.0
 11
326.9999999999996
 21
253.0
 31
0.0
  0
INSERT
  5
AB09B
330
7FBDA
100
AcDbEntity
  8
AM_5
100
AcDbBlockReference
  2
_Dot
 10
342.9999999999997
 20
253.0
 30
0.0
 41
2.0
 42
2.0
 43
2.0
  0
INSERT
  5
AB09C
330
7FBDA
100
AcDbEntity
  8
AM_5
100
AcDbBlockReference
  2
_Dot
 10
324.9999999999996
 20
253.0
 30
0.0
 41
2.0
 42
2.0
 43
2.0
 50
180.0
  0
MTEXT
  5
AB09D
330
7FBDA
100
AcDbEntity
  8
AM_5
 62
     2
100
AcDbMText
 10
333.9999999999997
 20
259.2
 30
0.0
 40
6.400000000000002
 41
0.0
 71
     5
 72
     1
  1
E
 73
     1
 44
1.0
1001
ACAD
1000
MTEXTBEGIN
1070
    73
1070
     1
1070
    44
1040
1.0
1070
    74
1070
     0
1000
MTEXTEND
  0
POINT
  5
AB09E
330
7FBDA
100
AcDbEntity
  8
Defpoints
 62
     0
100
AcDbPoint
 10
342.9999999999997
 20
298.0
 30
0.0
  0
POINT
  5
AB09F
330
7FBDA
100
AcDbEntity
  8
Defpoints
 62
     0
100
AcDbPoint
 10
324.9999999999996
 20
267.0
 30
0.0
  0
POINT
  5
AB0A0
330
7FBDA
100
AcDbEntity
  8
Defpoints
 62
     0
100
AcDbPoint
 10
324.9999999999996
 20
253.0
 30
0.0
  0
ENDBLK
  5
7FBE5
330
7FBDA
100
AcDbEntity
  8
0
100
AcDbBlockEnd
  0
BLOCK
  5
7FBF0
330
7FBE6
100
AcDbEntity
  8
0
100
AcDbBlockBegin
  2
*D13
 70
     1
 10
0.0
 20
0.0
 30
0.0
  3
*D13
  1

  0
LINE
  5
AB0A1
330
7FBE6
100
AcDbEntity
  8
AM_5
100
AcDbLine
 10
385.9999999999997
 20
350.9999999999999
 30
0.0
 11
405.9999999999996
 21
350.9999999999999
 31
0.0
  0
LINE
  5
AB0A2
330
7FBE6
100
AcDbEntity
  8
AM_5
100
AcDbLine
 10
326.9999999999996
 20
273.0
 30
0.0
 11
405.9999999999996
 21
272.9999999999999
 31
0.0
  0
LINE
  5
AB0A3
330
7FBE6
100
AcDbEntity
  8
AM_5
100
AcDbLine
 10
403.9999999999996
 20
348.9999999999999
 30
0.0
 11
403.9999999999996
 21
275.0
 31
0.0
  0
INSERT
  5
AB0A4
330
7FBE6
100
AcDbEntity
  8
AM_5
100
AcDbBlockReference
  2
_Dot
 10
403.9999999999996
 20
350.9999999999999
 30
0.0
 41
2.0
 42
2.0
 43
2.0
 50
90.0
  0
INSERT
  5
AB0A5
330
7FBE6
100
AcDbEntity
  8
AM_5
100
AcDbBlockReference
  2
_Dot
 10
403.9999999999996
 20
272.9999999999999
 30
0.0
 41
2.0
 42
2.0
 43
2.0
 50
270.0
  0
MTEXT
  5
AB0A6
330
7FBE6
100
AcDbEntity
  8
AM_5
 62
     2
100
AcDbMText
 10
397.7999999999996
 20
312.0
 30
0.0
 40
6.400000000000002
 41
0.0
 71
     5
 72
     1
  1
H
 11
0.0000000000000001
 21
1.0
 31
0.0
 73
     1
 44
1.0
1001
ACAD
1000
MTEXTBEGIN
1070
    73
1070
     1
1070
    44
1040
1.0
1070
    74
1070
     0
1000
MTEXTEND
  0
POINT
  5
AB0A7
330
7FBE6
100
AcDbEntity
  8
Defpoints
 62
     0
100
AcDbPoint
 10
383.9999999999997
 20
351.0
 30
0.0
  0
POINT
  5
AB0A8
330
7FBE6
100
AcDbEntity
  8
Defpoints
 62
     0
100
AcDbPoint
 10
324.9999999999996
 20
273.0
 30
0.0
  0
POINT
  5
AB0A9
330
7FBE6
100
AcDbEntity
  8
Defpoints
 62
     0
100
AcDbPoint
 10
403.9999999999996
 20
272.9999999999999
 30
0.0
  0
ENDBLK
  5
7FBF1
330
7FBE6
100
AcDbEntity
  8
0
100
AcDbBlockEnd
  0
BLOCK
  5
7FBFC
330
7FBF2
100
AcDbEntity
  8
0
100
AcDbBlockBegin
  2
*D14
 70
     1
 10
0.0
 20
0.0
 30
0.0
  3
*D14
  1

  0
LINE
  5
AB0AA
330
7FBF2
100
AcDbEntity
  8
AM_5
100
AcDbLine
 10
285.7333333333217
 20
272.9999999999964
 30
0.0
 11
291.9999999999884
 21
272.9999999999964
 31
0.0
  0
LINE
  5
AB0AB
330
7FBF2
100
AcDbEntity
  8
AM_5
100
AcDbLine
 10
291.9999999999884
 20
272.9999999999964
 30
0.0
 11
303.478511999844
 21
281.6958424241294
 31
0.0
  0
LINE
  5
AB0AC
330
7FBF2
100
AcDbEntity
  8
AM_5
100
AcDbLine
 10
346.5214880001596
 20
314.3041575758833
 30
0.0
 11
348.1156722964676
 21
315.5118729518743
 31
0.0
  0
MTEXT
  5
AB0AD
330
7FBF2
100
AcDbEntity
  8
AM_5
 62
     2
100
AcDbMText
 10
287.3666666666551
 20
279.4999999999963
 30
0.0
 40
7.0
 41
0.0
 71
     5
 72
     1
  1
D
 73
     1
 44
1.0
1001
ACAD
1000
MTEXTBEGIN
1070
    73
1070
     1
1070
    44
1040
1.0
1070
    74
1070
     0
1000
MTEXTEND
  0
LINE
  5
AB0AE
330
7FBF2
100
AcDbEntity
  8
AM_5
100
AcDbLine
 10
344.9273037038515
 20
313.0964421998924
 30
0.0
 11
305.0726962961521
 21
282.9035578001203
 31
0.0
  0
INSERT
  5
AB0AF
330
7FBF2
100
AcDbEntity
  8
AM_5
100
AcDbBlockReference
  2
_Dot
 10
344.9273037038515
 20
313.0964421998924
 30
0.0
 41
2.0
 42
2.0
 43
2.0
 50
217.1466866980216
  0
INSERT
  5
AB0B0
330
7FBF2
100
AcDbEntity
  8
AM_5
100
AcDbBlockReference
  2
_Dot
 10
305.0726962961521
 20
282.9035578001203
 30
0.0
 41
2.0
 42
2.0
 43
2.0
 50
37.14668669802159
  0
POINT
  5
AB0B1
330
7FBF2
100
AcDbEntity
  8
Defpoints
 62
     0
100
AcDbPoint
 10
305.0726962961521
 20
282.9035578001203
 30
0.0
  0
POINT
  5
AB0B2
330
7FBF2
100
AcDbEntity
  8
Defpoints
 62
     0
100
AcDbPoint
 10
344.9273037038515
 20
313.0964421998924
 30
0.0
  0
ENDBLK
  5
7FBFD
330
7FBF2
100
AcDbEntity
  8
0
100
AcDbBlockEnd
  0
BLOCK
  5
7FCDB
330
7FCD1
100
AcDbEntity
  8
0
100
AcDbBlockBegin
  2
*D15
 70
     1
 10
0.0
 20
0.0
 30
0.0
  3
*D15
  1

  0
LINE
  5
AB0B3
330
7FCD1
100
AcDbEntity
  8
AM_5
100
AcDbLine
 10
456.5000000000001
 20
273.1720439999999
 30
0.0
 11
456.5000000000001
 21
235.0
 31
0.0
  0
LINE
  5
AB0B4
330
7FCD1
100
AcDbEntity
  8
AM_5
100
AcDbLine
 10
489.5000000000003
 20
273.1720439999999
 30
0.0
 11
489.5000000000003
 21
235.0
 31
0.0
  0
LINE
  5
AB0B5
330
7FCD1
100
AcDbEntity
  8
AM_5
100
AcDbLine
 10
458.5
 20
237.0
 30
0.0
 11
487.5000000000003
 21
237.0
 31
0.0
  0
INSERT
  5
AB0B6
330
7FCD1
100
AcDbEntity
  8
AM_5
100
AcDbBlockReference
  2
_Dot
 10
456.5000000000001
 20
237.0
 30
0.0
 41
2.0
 42
2.0
 43
2.0
 50
180.0
  0
INSERT
  5
AB0B7
330
7FCD1
100
AcDbEntity
  8
AM_5
100
AcDbBlockReference
  2
_Dot
 10
489.5000000000003
 20
237.0
 30
0.0
 41
2.0
 42
2.0
 43
2.0
  0
MTEXT
  5
AB0B8
330
7FCD1
100
AcDbEntity
  8
AM_5
 62
     2
100
AcDbMText
 10
473.0000000000002
 20
243.2
 30
0.0
 40
6.400000000000002
 41
0.0
 71
     5
 72
     1
  1
W1
 73
     1
 44
1.0
1001
ACAD
1000
MTEXTBEGIN
1070
    73
1070
     1
1070
    44
1040
1.0
1070
    74
1070
     0
1000
MTEXTEND
  0
POINT
  5
AB0B9
330
7FCD1
100
AcDbEntity
  8
Defpoints
 62
     0
100
AcDbPoint
 10
456.5000000000001
 20
275.1720439999999
 30
0.0
  0
POINT
  5
AB0BA
330
7FCD1
100
AcDbEntity
  8
Defpoints
 62
     0
100
AcDbPoint
 10
489.5000000000003
 20
275.1720439999999
 30
0.0
  0
POINT
  5
AB0BB
330
7FCD1
100
AcDbEntity
  8
Defpoints
 62
     0
100
AcDbPoint
 10
489.5000000000003
 20
237.0
 30
0.0
  0
ENDBLK
  5
7FCDC
330
7FCD1
100
AcDbEntity
  8
0
100
AcDbBlockEnd
  0
BLOCK
  5
7FD26
330
7FD1C
100
AcDbEntity
  8
0
100
AcDbBlockBegin
  2
*D16
 70
     1
 10
0.0
 20
0.0
 30
0.0
  3
*D16
  1

  0
LINE
  5
AB0BC
330
7FD1C
100
AcDbEntity
  8
AM_5
100
AcDbLine
 10
471.5000000000001
 20
273.1720439999999
 30
0.0
 11
471.5000000000001
 21
251.0
 31
0.0
  0
LINE
  5
AB0BD
330
7FD1C
100
AcDbEntity
  8
AM_5
100
AcDbLine
 10
456.5000000000001
 20
273.1720439999999
 30
0.0
 11
456.5000000000001
 21
251.0
 31
0.0
  0
LINE
  5
AB0BE
330
7FD1C
100
AcDbEntity
  8
AM_5
100
AcDbLine
 10
469.5000000000001
 20
253.0
 30
0.0
 11
458.5
 21
253.0
 31
0.0
  0
INSERT
  5
AB0BF
330
7FD1C
100
AcDbEntity
  8
AM_5
100
AcDbBlockReference
  2
_Dot
 10
471.5000000000001
 20
253.0
 30
0.0
 41
2.0
 42
2.0
 43
2.0
  0
INSERT
  5
AB0C0
330
7FD1C
100
AcDbEntity
  8
AM_5
100
AcDbBlockReference
  2
_Dot
 10
456.5000000000001
 20
253.0
 30
0.0
 41
2.0
 42
2.0
 43
2.0
 50
180.0
  0
MTEXT
  5
AB0C1
330
7FD1C
100
AcDbEntity
  8
AM_5
 62
     2
100
AcDbMText
 10
464.0000000000001
 20
259.2
 30
0.0
 40
6.400000000000002
 41
0.0
 71
     5
 72
     1
  1
W2
 73
     1
 44
1.0
1001
ACAD
1000
MTEXTBEGIN
1070
    73
1070
     1
1070
    44
1040
1.0
1070
    74
1070
     0
1000
MTEXTEND
  0
POINT
  5
AB0C2
330
7FD1C
100
AcDbEntity
  8
Defpoints
 62
     0
100
AcDbPoint
 10
471.5000000000001
 20
275.1720439999999
 30
0.0
  0
POINT
  5
AB0C3
330
7FD1C
100
AcDbEntity
  8
Defpoints
 62
     0
100
AcDbPoint
 10
456.5000000000001
 20
275.1720439999999
 30
0.0
  0
POINT
  5
AB0C4
330
7FD1C
100
AcDbEntity
  8
Defpoints
 62
     0
100
AcDbPoint
 10
456.5000000000001
 20
253.0
 30
0.0
  0
ENDBLK
  5
7FD27
330
7FD1C
100
AcDbEntity
  8
0
100
AcDbBlockEnd
  0
BLOCK
  5
7FD57
330
7FD4D
100
AcDbEntity
  8
0
100
AcDbBlockBegin
  2
*D17
 70
     1
 10
0.0
 20
0.0
 30
0.0
  3
*D17
  1

  0
LINE
  5
AB0C5
330
7FD4D
100
AcDbEntity
  8
AM_5
100
AcDbLine
 10
474.5
 20
273.1720439999999
 30
0.0
 11
474.5
 21
251.0
 31
0.0
  0
LINE
  5
AB0C6
330
7FD4D
100
AcDbEntity
  8
AM_5
100
AcDbLine
 10
489.5000000000001
 20
273.1720439999999
 30
0.0
 11
489.5000000000001
 21
251.0
 31
0.0
  0
LINE
  5
AB0C7
330
7FD4D
100
AcDbEntity
  8
AM_5
100
AcDbLine
 10
476.5000000000001
 20
253.0
 30
0.0
 11
487.5
 21
253.0
 31
0.0
  0
INSERT
  5
AB0C8
330
7FD4D
100
AcDbEntity
  8
AM_5
100
AcDbBlockReference
  2
_Dot
 10
474.5
 20
253.0
 30
0.0
 41
2.0
 42
2.0
 43
2.0
 50
180.0
  0
INSERT
  5
AB0C9
330
7FD4D
100
AcDbEntity
  8
AM_5
100
AcDbBlockReference
  2
_Dot
 10
489.5000000000001
 20
253.0
 30
0.0
 41
2.0
 42
2.0
 43
2.0
  0
MTEXT
  5
AB0CA
330
7FD4D
100
AcDbEntity
  8
AM_5
 62
     2
100
AcDbMText
 10
482.0000000000001
 20
259.2
 30
0.0
 40
6.400000000000002
 41
0.0
 71
     5
 72
     1
  1
W2
 73
     1
 44
1.0
1001
ACAD
1000
MTEXTBEGIN
1070
    73
1070
     1
1070
    44
1040
1.0
1070
    74
1070
     0
1000
MTEXTEND
  0
POINT
  5
AB0CB
330
7FD4D
100
AcDbEntity
  8
Defpoints
 62
     0
100
AcDbPoint
 10
474.5
 20
275.1720439999999
 30
0.0
  0
POINT
  5
AB0CC
330
7FD4D
100
AcDbEntity
  8
Defpoints
 62
     0
100
AcDbPoint
 10
489.5000000000001
 20
275.1720439999999
 30
0.0
  0
POINT
  5
AB0CD
330
7FD4D
100
AcDbEntity
  8
Defpoints
 62
     0
100
AcDbPoint
 10
489.5000000000001
 20
253.0
 30
0.0
  0
ENDBLK
  5
7FD58
330
7FD4D
100
AcDbEntity
  8
0
100
AcDbBlockEnd
  0
BLOCK
  5
7FFCC
330
7FFC2
100
AcDbEntity
  8
0
100
AcDbBlockBegin
  2
*D18
 70
     1
 10
0.0
 20
0.0
 30
0.0
  3
*D18
  1

  0
LINE
  5
AB0D7
330
7FFC2
100
AcDbEntity
  8
AM_5
100
AcDbLine
 10
565.2333333333307
 20
273.0000000000019
 30
0.0
 11
571.499999999999
 21
273.0000000000019
 31
0.0
  0
LINE
  5
AB0D8
330
7FFC2
100
AcDbEntity
  8
AM_5
100
AcDbLine
 10
571.499999999999
 20
273.0000000000019
 30
0.0
 11
582.9785119998446
 21
281.6958424241276
 31
0.0
  0
LINE
  5
AB0D9
330
7FFC2
100
AcDbEntity
  8
AM_5
100
AcDbLine
 10
626.0214880001572
 20
314.3041575758807
 30
0.0
 11
627.6156722964652
 21
315.5118729518715
 31
0.0
  0
MTEXT
  5
AB0DA
330
7FFC2
100
AcDbEntity
  8
AM_5
 62
     2
100
AcDbMText
 10
566.866666666664
 20
279.5000000000018
 30
0.0
 40
7.0
 41
0.0
 71
     5
 72
     1
  1
D
 73
     1
 44
1.0
1001
ACAD
1000
MTEXTBEGIN
1070
    73
1070
     1
1070
    44
1040
1.0
1070
    74
1070
     0
1000
MTEXTEND
  0
LINE
  5
AB0DB
330
7FFC2
100
AcDbEntity
  8
AM_5
100
AcDbLine
 10
624.4273037038492
 20
313.0964421998897
 30
0.0
 11
584.5726962961527
 21
282.9035578001185
 31
0.0
  0
INSERT
  5
AB0DC
330
7FFC2
100
AcDbEntity
  8
AM_5
100
AcDbBlockReference
  2
_Dot
 10
624.4273037038492
 20
313.0964421998897
 30
0.0
 41
2.0
 42
2.0
 43
2.0
 50
217.1466866980226
  0
INSERT
  5
AB0DD
330
7FFC2
100
AcDbEntity
  8
AM_5
100
AcDbBlockReference
  2
_Dot
 10
584.5726962961527
 20
282.9035578001185
 30
0.0
 41
2.0
 42
2.0
 43
2.0
 50
37.14668669802263
  0
POINT
  5
AB0DE
330
7FFC2
100
AcDbEntity
  8
Defpoints
 62
     0
100
AcDbPoint
 10
584.5726962961527
 20
282.9035578001185
 30
0.0
  0
POINT
  5
AB0DF
330
7FFC2
100
AcDbEntity
  8
Defpoints
 62
     0
100
AcDbPoint
 10
624.4273037038492
 20
313.0964421998897
 30
0.0
  0
ENDBLK
  5
7FFCD
330
7FFC2
100
AcDbEntity
  8
0
100
AcDbBlockEnd
  0
BLOCK
  5
7FFD8
330
7FFCE
100
AcDbEntity
  8
0
100
AcDbBlockBegin
  2
*D19
 70
     1
 10
0.0
 20
0.0
 30
0.0
  3
*D19
  1

  0
LINE
  5
AB0CE
330
7FFCE
100
AcDbEntity
  8
AM_5
100
AcDbLine
 10
606.5
 20
273.0
 30
0.0
 11
669.0
 21
272.9999999999999
 31
0.0
  0
LINE
  5
AB0CF
330
7FFCE
100
AcDbEntity
  8
AM_5
100
AcDbLine
 10
645.3000000000002
 20
351.0
 30
0.0
 11
669.0
 21
351.0
 31
0.0
  0
LINE
  5
AB0D0
330
7FFCE
100
AcDbEntity
  8
AM_5
100
AcDbLine
 10
667.0
 20
275.0
 30
0.0
 11
667.0
 21
349.0
 31
0.0
  0
INSERT
  5
AB0D1
330
7FFCE
100
AcDbEntity
  8
AM_5
100
AcDbBlockReference
  2
_Dot
 10
667.0
 20
272.9999999999999
 30
0.0
 41
2.0
 42
2.0
 43
2.0
 50
270.0
  0
INSERT
  5
AB0D2
330
7FFCE
100
AcDbEntity
  8
AM_5
100
AcDbBlockReference
  2
_Dot
 10
667.0
 20
351.0
 30
0.0
 41
2.0
 42
2.0
 43
2.0
 50
90.0
  0
MTEXT
  5
AB0D3
330
7FFCE
100
AcDbEntity
  8
AM_5
 62
     2
100
AcDbMText
 10
660.7999999999998
 20
312.0
 30
0.0
 40
6.400000000000002
 41
0.0
 71
     5
 72
     1
  1
H
 11
0.0000000000000001
 21
1.0
 31
0.0
 73
     1
 44
1.0
1001
ACAD
1000
MTEXTBEGIN
1070
    73
1070
     1
1070
    44
1040
1.0
1070
    74
1070
     0
1000
MTEXTEND
  0
POINT
  5
AB0D4
330
7FFCE
100
AcDbEntity
  8
Defpoints
 62
     0
100
AcDbPoint
 10
604.4999999999999
 20
273.0
 30
0.0
  0
POINT
  5
AB0D5
330
7FFCE
100
AcDbEntity
  8
Defpoints
 62
     0
100
AcDbPoint
 10
643.3000000000001
 20
351.0
 30
0.0
  0
POINT
  5
AB0D6
330
7FFCE
100
AcDbEntity
  8
Defpoints
 62
     0
100
AcDbPoint
 10
667.0
 20
351.0
 30
0.0
  0
ENDBLK
  5
7FFD9
330
7FFCE
100
AcDbEntity
  8
0
100
AcDbBlockEnd
  0
BLOCK
  5
80003
330
7FFF9
100
AcDbEntity
  8
0
100
AcDbBlockBegin
  2
*D20
 70
     1
 10
0.0
 20
0.0
 30
0.0
  3
*D20
  1

  0
LINE
  5
AB0E0
330
7FFF9
100
AcDbEntity
  8
AM_5
100
AcDbLine
 10
644.7499999999999
 20
426.0
 30
0.0
 11
669.0
 21
426.0
 31
0.0
  0
LINE
  5
AB0E1
330
7FFF9
100
AcDbEntity
  8
AM_5
100
AcDbLine
 10
644.7499999999999
 20
453.9999999999991
 30
0.0
 11
669.0
 21
453.9999999999991
 31
0.0
  0
LINE
  5
AB0E2
330
7FFF9
100
AcDbEntity
  8
AM_5
100
AcDbLine
 10
667.0
 20
428.0
 30
0.0
 11
667.0
 21
451.999999999999
 31
0.0
  0
INSERT
  5
AB0E3
330
7FFF9
100
AcDbEntity
  8
AM_5
100
AcDbBlockReference
  2
_Dot
 10
667.0
 20
426.0
 30
0.0
 41
2.0
 42
2.0
 43
2.0
 50
270.0
  0
INSERT
  5
AB0E4
330
7FFF9
100
AcDbEntity
  8
AM_5
100
AcDbBlockReference
  2
_Dot
 10
667.0
 20
453.9999999999991
 30
0.0
 41
2.0
 42
2.0
 43
2.0
 50
90.0
  0
MTEXT
  5
AB0E5
330
7FFF9
100
AcDbEntity
  8
AM_5
 62
     2
100
AcDbMText
 10
660.7999999999998
 20
439.9999999999996
 30
0.0
 40
6.400000000000002
 41
0.0
 71
     5
 72
     1
  1
Y
 11
0.0000000000000001
 21
1.0
 31
0.0
 73
     1
 44
1.0
1001
ACAD
1000
MTEXTBEGIN
1070
    73
1070
     1
1070
    44
1040
1.0
1070
    74
1070
     0
1000
MTEXTEND
  0
POINT
  5
AB0E6
330
7FFF9
100
AcDbEntity
  8
Defpoints
 62
     0
100
AcDbPoint
 10
642.75
 20
426.0
 30
0.0
  0
POINT
  5
AB0E7
330
7FFF9
100
AcDbEntity
  8
Defpoints
 62
     0
100
AcDbPoint
 10
642.75
 20
453.9999999999991
 30
0.0
  0
POINT
  5
AB0E8
330
7FFF9
100
AcDbEntity
  8
Defpoints
 62
     0
100
AcDbPoint
 10
667.0
 20
453.9999999999991
 30
0.0
  0
ENDBLK
  5
80004
330
7FFF9
100
AcDbEntity
  8
0
100
AcDbBlockEnd
  0
BLOCK
  5
8000F
330
80005
100
AcDbEntity
  8
0
100
AcDbBlockBegin
  2
*D21
 70
     1
 10
0.0
 20
0.0
 30
0.0
  3
*D21
  1

  0
LINE
  5
AB0E9
330
80005
100
AcDbEntity
  8
AM_5
100
AcDbLine
 10
577.0000000000001
 20
466.75
 30
0.0
 11
577.0000000000001
 21
487.0
 31
0.0
  0
LINE
  5
AB0EA
330
80005
100
AcDbEntity
  8
AM_5
100
AcDbLine
 10
632.0
 20
466.749999999999
 30
0.0
 11
632.0
 21
487.0
 31
0.0
  0
LINE
  5
AB0EB
330
80005
100
AcDbEntity
  8
AM_5
100
AcDbLine
 10
579.0
 20
485.0
 30
0.0
 11
630.0
 21
485.0
 31
0.0
  0
INSERT
  5
AB0EC
330
80005
100
AcDbEntity
  8
AM_5
100
AcDbBlockReference
  2
_Dot
 10
577.0000000000001
 20
485.0
 30
0.0
 41
2.0
 42
2.0
 43
2.0
 50
180.0
  0
INSERT
  5
AB0ED
330
80005
100
AcDbEntity
  8
AM_5
100
AcDbBlockReference
  2
_Dot
 10
632.0
 20
485.0
 30
0.0
 41
2.0
 42
2.0
 43
2.0
  0
MTEXT
  5
AB0EE
330
80005
100
AcDbEntity
  8
AM_5
 62
     2
100
AcDbMText
 10
604.4999999999999
 20
491.1999999999999
 30
0.0
 40
6.400000000000002
 41
0.0
 71
     5
 72
     1
  1
X
 73
     1
 44
1.0
1001
ACAD
1000
MTEXTBEGIN
1070
    73
1070
     1
1070
    44
1040
1.0
1070
    74
1070
     0
1000
MTEXTEND
  0
POINT
  5
AB0EF
330
80005
100
AcDbEntity
  8
Defpoints
 62
     0
100
AcDbPoint
 10
577.0000000000001
 20
464.7499999999999
 30
0.0
  0
POINT
  5
AB0F0
330
80005
100
AcDbEntity
  8
Defpoints
 62
     0
100
AcDbPoint
 10
632.0
 20
464.7499999999991
 30
0.0
  0
POINT
  5
AB0F1
330
80005
100
AcDbEntity
  8
Defpoints
 62
     0
100
AcDbPoint
 10
632.0
 20
485.0
 30
0.0
  0
ENDBLK
  5
80010
330
80005
100
AcDbEntity
  8
0
100
AcDbBlockEnd
  0
BLOCK
  5
8001B
330
80011
100
AcDbEntity
  8
0
100
AcDbBlockBegin
  2
*D22
 70
     1
 10
0.0
 20
0.0
 30
0.0
  3
*D22
  1

  0
LINE
  5
AB0F2
330
80011
100
AcDbEntity
  8
AM_5
100
AcDbLine
 10
637.8000000000001
 20
411.0
 30
0.0
 11
685.0
 21
410.9999999999999
 31
0.0
  0
LINE
  5
AB0F3
330
80011
100
AcDbEntity
  8
AM_5
100
AcDbLine
 10
637.8000000000001
 20
469.0
 30
0.0
 11
685.0
 21
468.9999999999999
 31
0.0
  0
LINE
  5
AB0F4
330
80011
100
AcDbEntity
  8
AM_5
100
AcDbLine
 10
683.0
 20
412.9999999999999
 30
0.0
 11
683.0
 21
466.9999999999999
 31
0.0
  0
INSERT
  5
AB0F5
330
80011
100
AcDbEntity
  8
AM_5
100
AcDbBlockReference
  2
_Dot
 10
683.0
 20
410.9999999999999
 30
0.0
 41
2.0
 42
2.0
 43
2.0
 50
270.0
  0
INSERT
  5
AB0F6
330
80011
100
AcDbEntity
  8
AM_5
100
AcDbBlockReference
  2
_Dot
 10
683.0
 20
468.9999999999999
 30
0.0
 41
2.0
 42
2.0
 43
2.0
 50
90.0
  0
MTEXT
  5
AB0F7
330
80011
100
AcDbEntity
  8
AM_5
 62
     2
100
AcDbMText
 10
676.7999999999998
 20
440.0
 30
0.0
 40
6.400000000000002
 41
0.0
 71
     5
 72
     1
  1
B
 11
0.0000000000000001
 21
1.0
 31
0.0
 73
     1
 44
1.0
1001
ACAD
1000
MTEXTBEGIN
1070
    73
1070
     1
1070
    44
1040
1.0
1070
    74
1070
     0
1000
MTEXTEND
  0
POINT
  5
AB0F8
330
80011
100
AcDbEntity
  8
Defpoints
 62
     0
100
AcDbPoint
 10
635.8000000000002
 20
411.0
 30
0.0
  0
POINT
  5
AB0F9
330
80011
100
AcDbEntity
  8
Defpoints
 62
     0
100
AcDbPoint
 10
635.8000000000002
 20
469.0
 30
0.0
  0
POINT
  5
AB0FA
330
80011
100
AcDbEntity
  8
Defpoints
 62
     0
100
AcDbPoint
 10
683.0
 20
468.9999999999999
 30
0.0
  0
ENDBLK
  5
8001C
330
80011
100
AcDbEntity
  8
0
100
AcDbBlockEnd
  0
BLOCK
  5
80027
330
8001D
100
AcDbEntity
  8
0
100
AcDbBlockBegin
  2
*D23
 70
     1
 10
0.0
 20
0.0
 30
0.0
  3
*D23
  1

  0
LINE
  5
AB0FB
330
8001D
100
AcDbEntity
  8
AM_5
100
AcDbLine
 10
562.0
 20
459.8000000000001
 30
0.0
 11
562.0
 21
503.0
 31
0.0
  0
LINE
  5
AB0FC
330
8001D
100
AcDbEntity
  8
AM_5
100
AcDbLine
 10
647.0
 20
459.8000000000001
 30
0.0
 11
647.0
 21
503.0
 31
0.0
  0
LINE
  5
AB0FD
330
8001D
100
AcDbEntity
  8
AM_5
100
AcDbLine
 10
564.0000000000001
 20
501.0
 30
0.0
 11
645.0
 21
501.0
 31
0.0
  0
INSERT
  5
AB0FE
330
8001D
100
AcDbEntity
  8
AM_5
100
AcDbBlockReference
  2
_Dot
 10
562.0
 20
501.0
 30
0.0
 41
2.0
 42
2.0
 43
2.0
 50
180.0
  0
INSERT
  5
AB0FF
330
8001D
100
AcDbEntity
  8
AM_5
100
AcDbBlockReference
  2
_Dot
 10
647.0
 20
501.0
 30
0.0
 41
2.0
 42
2.0
 43
2.0
  0
MTEXT
  5
AB100
330
8001D
100
AcDbEntity
  8
AM_5
 62
     2
100
AcDbMText
 10
604.4999999999999
 20
507.2
 30
0.0
 40
6.400000000000002
 41
0.0
 71
     5
 72
     1
  1
A
 73
     1
 44
1.0
1001
ACAD
1000
MTEXTBEGIN
1070
    73
1070
     1
1070
    44
1040
1.0
1070
    74
1070
     0
1000
MTEXTEND
  0
POINT
  5
AB101
330
8001D
100
AcDbEntity
  8
Defpoints
 62
     0
100
AcDbPoint
 10
562.0
 20
457.8000000000002
 30
0.0
  0
POINT
  5
AB102
330
8001D
100
AcDbEntity
  8
Defpoints
 62
     0
100
AcDbPoint
 10
647.0
 20
457.8000000000002
 30
0.0
  0
POINT
  5
AB103
330
8001D
100
AcDbEntity
  8
Defpoints
 62
     0
100
AcDbPoint
 10
647.0
 20
501.0
 30
0.0
  0
ENDBLK
  5
80028
330
8001D
100
AcDbEntity
  8
0
100
AcDbBlockEnd
  0
BLOCK
  5
80033
330
80029
100
AcDbEntity
  8
0
100
AcDbBlockBegin
  2
*D24
 70
     1
 10
0.0
 20
0.0
 30
0.0
  3
*D24
  1

  0
LINE
  5
AB104
330
80029
100
AcDbEntity
  8
AM_5
100
AcDbLine
 10
661.2666666666856
 20
477.0000000000017
 30
0.0
 11
655.0000000000023
 21
477.0000000000018
 31
0.0
  0
LINE
  5
AB105
330
80029
100
AcDbEntity
  8
AM_5
100
AcDbLine
 10
655.0000000000023
 20
477.0000000000018
 30
0.0
 11
636.7729707730108
 21
458.7729707730066
 31
0.0
  0
LINE
  5
AB106
330
80029
100
AcDbEntity
  8
AM_5
100
AcDbLine
 10
627.2270292269949
 20
449.2270292269887
 30
0.0
 11
625.812815664622
 21
447.8128156646155
 31
0.0
  0
MTEXT
  5
AB107
330
80029
100
AcDbEntity
  8
AM_5
 62
     2
100
AcDbMText
 10
659.6333333333523
 20
483.5000000000018
 30
0.0
 40
7.0
 41
0.0
 71
     5
 72
     1
  1
P
 73
     1
 44
1.0
1001
ACAD
1000
MTEXTBEGIN
1070
    73
1070
     1
1070
    44
1040
1.0
1070
    74
1070
     0
1000
MTEXTEND
  0
LINE
  5
AB108
330
80029
100
AcDbEntity
  8
AM_5
100
AcDbLine
 10
628.6412427893679
 20
450.641242789362
 30
0.0
 11
635.3587572106379
 21
457.3587572106333
 31
0.0
  0
INSERT
  5
AB109
330
80029
100
AcDbEntity
  8
AM_5
100
AcDbBlockReference
  2
_Dot
 10
628.6412427893679
 20
450.641242789362
 30
0.0
 41
2.0
 42
2.0
 43
2.0
 50
45.00000000000583
  0
INSERT
  5
AB10A
330
80029
100
AcDbEntity
  8
AM_5
100
AcDbBlockReference
  2
_Dot
 10
635.3587572106379
 20
457.3587572106333
 30
0.0
 41
2.0
 42
2.0
 43
2.0
 50
225.0000000000058
  0
POINT
  5
AB10B
330
80029
100
AcDbEntity
  8
Defpoints
 62
     0
100
AcDbPoint
 10
635.3587572106379
 20
457.3587572106333
 30
0.0
  0
POINT
  5
AB10C
330
80029
100
AcDbEntity
  8
Defpoints
 62
     0
100
AcDbPoint
 10
628.6412427893679
 20
450.641242789362
 30
0.0
  0
ENDBLK
  5
80034
330
80029
100
AcDbEntity
  8
0
100
AcDbBlockEnd
  0
BLOCK
  5
80074
330
8006A
100
AcDbEntity
  8
0
100
AcDbBlockBegin
  2
*D25
 70
     1
 10
0.0
 20
0.0
 30
0.0
  3
*D25
  1

  0
LINE
  5
AB10D
330
8006A
100
AcDbEntity
  8
AM_5
100
AcDbLine
 10
707.5
 20
273.1720439999999
 30
0.0
 11
707.5
 21
235.0
 31
0.0
  0
LINE
  5
AB10E
330
8006A
100
AcDbEntity
  8
AM_5
100
AcDbLine
 10
740.5000000000002
 20
273.1720439999999
 30
0.0
 11
740.5000000000002
 21
235.0
 31
0.0
  0
LINE
  5
AB10F
330
8006A
100
AcDbEntity
  8
AM_5
100
AcDbLine
 10
709.4999999999999
 20
237.0
 30
0.0
 11
738.5000000000002
 21
237.0
 31
0.0
  0
INSERT
  5
AB110
330
8006A
100
AcDbEntity
  8
AM_5
100
AcDbBlockReference
  2
_Dot
 10
707.5
 20
237.0
 30
0.0
 41
2.0
 42
2.0
 43
2.0
 50
180.0
  0
INSERT
  5
AB111
330
8006A
100
AcDbEntity
  8
AM_5
100
AcDbBlockReference
  2
_Dot
 10
740.5000000000002
 20
237.0
 30
0.0
 41
2.0
 42
2.0
 43
2.0
  0
MTEXT
  5
AB112
330
8006A
100
AcDbEntity
  8
AM_5
 62
     2
100
AcDbMText
 10
724.0000000000001
 20
243.2
 30
0.0
 40
6.400000000000002
 41
0.0
 71
     5
 72
     1
  1
W1
 73
     1
 44
1.0
1001
ACAD
1000
MTEXTBEGIN
1070
    73
1070
     1
1070
    44
1040
1.0
1070
    74
1070
     0
1000
MTEXTEND
  0
POINT
  5
AB113
330
8006A
100
AcDbEntity
  8
Defpoints
 62
     0
100
AcDbPoint
 10
707.5
 20
275.1720439999999
 30
0.0
  0
POINT
  5
AB114
330
8006A
100
AcDbEntity
  8
Defpoints
 62
     0
100
AcDbPoint
 10
740.5000000000002
 20
275.1720439999999
 30
0.0
  0
POINT
  5
AB115
330
8006A
100
AcDbEntity
  8
Defpoints
 62
     0
100
AcDbPoint
 10
740.5000000000002
 20
237.0
 30
0.0
  0
ENDBLK
  5
80075
330
8006A
100
AcDbEntity
  8
0
100
AcDbBlockEnd
  0
BLOCK
  5
80080
330
80076
100
AcDbEntity
  8
0
100
AcDbBlockBegin
  2
*D26
 70
     1
 10
0.0
 20
0.0
 30
0.0
  3
*D26
  1

  0
LINE
  5
AB116
330
80076
100
AcDbEntity
  8
AM_5
100
AcDbLine
 10
722.5
 20
273.1720439999999
 30
0.0
 11
722.5
 21
251.0
 31
0.0
  0
LINE
  5
AB117
330
80076
100
AcDbEntity
  8
AM_5
100
AcDbLine
 10
707.5
 20
273.1720439999999
 30
0.0
 11
707.5
 21
251.0
 31
0.0
  0
LINE
  5
AB118
330
80076
100
AcDbEntity
  8
AM_5
100
AcDbLine
 10
720.5
 20
253.0
 30
0.0
 11
709.4999999999999
 21
253.0
 31
0.0
  0
INSERT
  5
AB119
330
80076
100
AcDbEntity
  8
AM_5
100
AcDbBlockReference
  2
_Dot
 10
722.5
 20
253.0
 30
0.0
 41
2.0
 42
2.0
 43
2.0
  0
INSERT
  5
AB11A
330
80076
100
AcDbEntity
  8
AM_5
100
AcDbBlockReference
  2
_Dot
 10
707.5
 20
253.0
 30
0.0
 41
2.0
 42
2.0
 43
2.0
 50
180.0
  0
MTEXT
  5
AB11B
330
80076
100
AcDbEntity
  8
AM_5
 62
     2
100
AcDbMText
 10
715.0
 20
259.2
 30
0.0
 40
6.400000000000002
 41
0.0
 71
     5
 72
     1
  1
W2
 73
     1
 44
1.0
1001
ACAD
1000
MTEXTBEGIN
1070
    73
1070
     1
1070
    44
1040
1.0
1070
    74
1070
     0
1000
MTEXTEND
  0
POINT
  5
AB11C
330
80076
100
AcDbEntity
  8
Defpoints
 62
     0
100
AcDbPoint
 10
722.5
 20
275.1720439999999
 30
0.0
  0
POINT
  5
AB11D
330
80076
100
AcDbEntity
  8
Defpoints
 62
     0
100
AcDbPoint
 10
707.5
 20
275.1720439999999
 30
0.0
  0
POINT
  5
AB11E
330
80076
100
AcDbEntity
  8
Defpoints
 62
     0
100
AcDbPoint
 10
707.5
 20
253.0
 30
0.0
  0
ENDBLK
  5
80081
330
80076
100
AcDbEntity
  8
0
100
AcDbBlockEnd
  0
BLOCK
  5
8008C
330
80082
100
AcDbEntity
  8
0
100
AcDbBlockBegin
  2
*D27
 70
     1
 10
0.0
 20
0.0
 30
0.0
  3
*D27
  1

  0
LINE
  5
AB11F
330
80082
100
AcDbEntity
  8
AM_5
100
AcDbLine
 10
725.4999999999999
 20
273.1720439999999
 30
0.0
 11
725.4999999999999
 21
251.0
 31
0.0
  0
LINE
  5
AB120
330
80082
100
AcDbEntity
  8
AM_5
100
AcDbLine
 10
740.5
 20
273.1720439999999
 30
0.0
 11
740.5
 21
251.0
 31
0.0
  0
LINE
  5
AB121
330
80082
100
AcDbEntity
  8
AM_5
100
AcDbLine
 10
727.5
 20
253.0
 30
0.0
 11
738.4999999999999
 21
253.0
 31
0.0
  0
INSERT
  5
AB122
330
80082
100
AcDbEntity
  8
AM_5
100
AcDbBlockReference
  2
_Dot
 10
725.4999999999999
 20
253.0
 30
0.0
 41
2.0
 42
2.0
 43
2.0
 50
180.0
  0
INSERT
  5
AB123
330
80082
100
AcDbEntity
  8
AM_5
100
AcDbBlockReference
  2
_Dot
 10
740.5
 20
253.0
 30
0.0
 41
2.0
 42
2.0
 43
2.0
  0
MTEXT
  5
AB124
330
80082
100
AcDbEntity
  8
AM_5
 62
     2
100
AcDbMText
 10
733.0
 20
259.2
 30
0.0
 40
6.400000000000002
 41
0.0
 71
     5
 72
     1
  1
W2
 73
     1
 44
1.0
1001
ACAD
1000
MTEXTBEGIN
1070
    73
1070
     1
1070
    44
1040
1.0
1070
    74
1070
     0
1000
MTEXTEND
  0
POINT
  5
AB125
330
80082
100
AcDbEntity
  8
Defpoints
 62
     0
100
AcDbPoint
 10
725.4999999999999
 20
275.1720439999999
 30
0.0
  0
POINT
  5
AB126
330
80082
100
AcDbEntity
  8
Defpoints
 62
     0
100
AcDbPoint
 10
740.5
 20
275.1720439999999
 30
0.0
  0
POINT
  5
AB127
330
80082
100
AcDbEntity
  8
Defpoints
 62
     0
100
AcDbPoint
 10
740.5
 20
253.0
 30
0.0
  0
ENDBLK
  5
8008D
330
80082
100
AcDbEntity
  8
0
100
AcDbBlockEnd
  0
BLOCK
  5
A2E81
330
A2E77
100
AcDbEntity
  8
0
100
AcDbBlockBegin
  2
*D28
 70
     1
 10
0.0
 20
0.0
 30
0.0
  3
*D28
  1

  0
LINE
  5
AB128
330
A2E77
100
AcDbEntity
  8
AM_5
100
AcDbLine
 10
373.5554565623733
 20
477.2729705623731
 30
0.0
 11
394.6557955306694
 21
498.3733095306706
 31
0.0
  0
LINE
  5
AB129
330
A2E77
100
AcDbEntity
  8
AM_5
100
AcDbLine
 10
380.2729707730089
 20
470.5554563517378
 30
0.0
 11
401.373309741305
 21
491.6557953200354
 31
0.0
  0
LINE
  5
AB12A
330
A2E77
100
AcDbEntity
  8
AM_5
100
AcDbLine
 10
391.8273684059231
 20
498.3733095306705
 30
0.0
 11
390.4131548435501
 21
499.7875230930436
 31
0.0
  0
LINE
  5
AB12B
330
A2E77
100
AcDbEntity
  8
AM_5
100
AcDbLine
 10
401.3733097413051
 20
488.8273681952892
 30
0.0
 11
402.7875233036783
 21
487.4131546329161
 31
0.0
  0
LINE
  5
AB12C
330
A2E77
100
AcDbEntity
  8
AM_5
100
AcDbLine
 10
393.2415819682963
 20
496.9590959682975
 30
0.0
 11
399.959096178932
 21
490.2415817576622
 31
0.0
  0
INSERT
  5
AB12D
330
A2E77
100
AcDbEntity
  8
AM_5
100
AcDbBlockReference
  2
_Dot
 10
393.2415819682963
 20
496.9590959682975
 30
0.0
 41
2.0
 42
2.0
 43
2.0
 50
315.0000000000019
  0
INSERT
  5
AB12E
330
A2E77
100
AcDbEntity
  8
AM_5
100
AcDbBlockReference
  2
_Dot
 10
399.959096178932
 20
490.2415817576622
 30
0.0
 41
2.0
 42
2.0
 43
2.0
 50
135.0000000000019
  0
MTEXT
  5
AB12F
330
A2E77
100
AcDbEntity
  8
AM_5
 62
     2
100
AcDbMText
 10
400.9844011169707
 20
497.9844009063366
 30
0.0
 40
6.400000000000002
 41
0.0
 71
     5
 72
     1
  1
P
 11
0.7071067811865711
 21
-0.707106781186524
 31
0.0
 73
     1
 44
1.0
1001
ACAD
1000
MTEXTBEGIN
1070
    73
1070
     1
1070
    44
1040
1.0
1070
    74
1070
     0
1000
MTEXTEND
  0
POINT
  5
AB130
330
A2E77
100
AcDbEntity
  8
Defpoints
 62
     0
100
AcDbPoint
 10
372.1412430000002
 20
475.8587569999999
 30
0.0
  0
POINT
  5
AB131
330
A2E77
100
AcDbEntity
  8
Defpoints
 62
     0
100
AcDbPoint
 10
378.8587572106359
 20
469.1412427893647
 30
0.0
  0
POINT
  5
AB132
330
A2E77
100
AcDbEntity
  8
Defpoints
 62
     0
100
AcDbPoint
 10
399.959096178932
 20
490.2415817576622
 30
0.0
  0
ENDBLK
  5
A2E82
330
A2E77
100
AcDbEntity
  8
0
100
AcDbBlockEnd
  0
ENDSEC
  0
SECTION
  2
ENTITIES
  0
MTEXT
  5
7AC05
330
1F
100
AcDbEntity
  8
AM_6
100
AcDbMText
 10
-1051.000000000001
 20
-5888.0
 30
0.0
 40
6.4
 41
180.0
 71
     4
 72
     5
  1
　
 73
     1
 44
1.0
1001
ACAD
1000
MTEXTBEGIN
1070
    73
1070
     1
1070
    44
1040
1.0
1070
    74
1070
     0
1000
MTEXTEND
  0
MTEXT
  5
7AC06
330
1F
100
AcDbEntity
  8
AM_6
100
AcDbMText
 10
-1051.000000000001
 20
-5920.0
 30
0.0
 40
6.4
 41
180.0
 71
     4
 72
     5
  1
　
 73
     1
 44
1.0
1001
ACAD
1000
MTEXTBEGIN
1070
    73
1070
     1
1070
    44
1040
1.0
1070
    74
1070
     0
1000
MTEXTEND
  0
LINE
  5
7BAAB
330
1F
100
AcDbEntity
  8
AM_0
100
AcDbLine
 10
311.5000000000001
 20
399.0
 30
0.0
 11
374.5000000000001
 21
399.0
 31
0.0
  0
LINE
  5
7BAAC
330
1F
100
AcDbEntity
  8
AM_0
100
AcDbLine
 10
384.0000000000001
 20
408.4999999999999
 30
0.0
 11
384.0000000000001
 21
471.4999999999999
 31
0.0
  0
LINE
  5
7BAAD
330
1F
100
AcDbEntity
  8
AM_0
100
AcDbLine
 10
374.5000000000001
 20
481.0
 30
0.0
 11
311.5000000000001
 21
481.0
 31
0.0
  0
LINE
  5
7BAAE
330
1F
100
AcDbEntity
  8
AM_0
100
AcDbLine
 10
302.0000000000001
 20
471.4999999999999
 30
0.0
 11
302.0000000000001
 21
408.4999999999999
 31
0.0
  0
ARC
  5
7BAAF
330
1F
100
AcDbEntity
  8
AM_0
100
AcDbCircle
 10
375.5000000000001
 20
472.5
 30
0.0
 40
4.75
100
AcDbArc
 50
315.0
 51
135.0
  0
ARC
  5
7BAB0
330
1F
100
AcDbEntity
  8
AM_0
100
AcDbCircle
 10
370.5000000000001
 20
467.4999999999999
 30
0.0
 40
4.75
100
AcDbArc
 50
135.0
 51
315.0
  0
ARC
  5
7BAB1
330
1F
100
AcDbEntity
  8
AM_0
100
AcDbCircle
 10
315.5000000000001
 20
412.5
 30
0.0
 40
4.75
100
AcDbArc
 50
315.0
 51
135.0
  0
ARC
  5
7BAB2
330
1F
100
AcDbEntity
  8
AM_0
100
AcDbCircle
 10
310.5000000000001
 20
407.5
 30
0.0
 40
4.75
100
AcDbArc
 50
135.0
 51
315.0
  0
LINE
  5
7BAB3
330
1F
100
AcDbEntity
  8
AM_0
100
AcDbLine
 10
367.1412430000001
 20
470.8587569999999
 30
0.0
 11
372.1412430000001
 21
475.8587569999999
 31
0.0
  0
LINE
  5
7BAB4
330
1F
100
AcDbEntity
  8
AM_0
100
AcDbLine
 10
373.858758
 20
464.141243
 30
0.0
 11
378.858758
 21
469.141243
 31
0.0
  0
LINE
  5
7BAB5
330
1F
100
AcDbEntity
  8
AM_0
100
AcDbLine
 10
307.1412430000001
 20
410.858757
 30
0.0
 11
312.1412430000002
 21
415.8587569999999
 31
0.0
  0
LINE
  5
7BAB6
330
1F
100
AcDbEntity
  8
AM_0
100
AcDbLine
 10
313.858758
 20
404.141243
 30
0.0
 11
318.858758
 21
409.141243
 31
0.0
  0
ARC
  5
7BAB7
330
1F
100
AcDbEntity
  8
AM_0
100
AcDbCircle
 10
375.5000000000001
 20
407.5
 30
0.0
 40
4.75
100
AcDbArc
 50
225.0
 51
45.0
  0
ARC
  5
7BAB8
330
1F
100
AcDbEntity
  8
AM_0
100
AcDbCircle
 10
370.5000000000001
 20
412.5
 30
0.0
 40
4.75
100
AcDbArc
 50
45.0
 51
225.0
  0
LINE
  5
7BAB9
330
1F
100
AcDbEntity
  8
AM_0
100
AcDbLine
 10
367.1412430000001
 20
409.141243
 30
0.0
 11
372.1412430000001
 21
404.141243
 31
0.0
  0
LINE
  5
7BABA
330
1F
100
AcDbEntity
  8
AM_0
100
AcDbLine
 10
373.858758
 20
415.8587569999999
 30
0.0
 11
378.858758
 21
410.858757
 31
0.0
  0
ARC
  5
7BABB
330
1F
100
AcDbEntity
  8
AM_0
100
AcDbCircle
 10
310.5000000000001
 20
472.5
 30
0.0
 40
4.75
100
AcDbArc
 50
45.0
 51
225.0
  0
ARC
  5
7BABC
330
1F
100
AcDbEntity
  8
AM_0
100
AcDbCircle
 10
315.5000000000001
 20
467.4999999999999
 30
0.0
 40
4.75
100
AcDbArc
 50
225.0
 51
45.0
  0
LINE
  5
7BABD
330
1F
100
AcDbEntity
  8
AM_0
100
AcDbLine
 10
318.858758
 20
470.8587569999999
 30
0.0
 11
313.858758
 21
475.8587569999999
 31
0.0
  0
LINE
  5
7BABE
330
1F
100
AcDbEntity
  8
AM_0
100
AcDbLine
 10
312.1412430000002
 20
464.141243
 30
0.0
 11
307.1412430000001
 21
469.141243
 31
0.0
  0
ARC
  5
7BABF
330
1F
100
AcDbEntity
  8
AM_0
100
AcDbCircle
 10
374.5000000000001
 20
471.4999999999999
 30
0.0
 40
9.5
100
AcDbArc
 50
0.0
 51
90.0
  0
ARC
  5
7BAC0
330
1F
100
AcDbEntity
  8
AM_0
100
AcDbCircle
 10
311.5000000000001
 20
471.4999999999999
 30
0.0
 40
9.5
100
AcDbArc
 50
90.0
 51
180.0
  0
ARC
  5
7BAC1
330
1F
100
AcDbEntity
  8
AM_0
100
AcDbCircle
 10
311.5000000000001
 20
408.4999999999999
 30
0.0
 40
9.5
100
AcDbArc
 50
180.0
 51
270.0
  0
ARC
  5
7BAC2
330
1F
100
AcDbEntity
  8
AM_0
100
AcDbCircle
 10
374.5000000000001
 20
408.4999999999999
 30
0.0
 40
9.5
100
AcDbArc
 50
270.0
 51
0.0
  0
CIRCLE
  5
7BAC3
330
1F
100
AcDbEntity
  8
AM_0
100
AcDbCircle
 10
343.0000000000001
 20
440.0
 30
0.0
 40
26.5
  0
CIRCLE
  5
7BAC4
330
1F
100
AcDbEntity
  8
AM_0
100
AcDbCircle
 10
343.0000000000001
 20
440.0
 30
0.0
 40
15.05
  0
CIRCLE
  5
7BAC6
330
1F
100
AcDbEntity
  8
AM_0
100
AcDbCircle
 10
343.0000000000001
 20
440.0
 30
0.0
 40
10.5
  0
LINE
  5
7BAD8
330
1F
100
AcDbEntity
  8
AM_0
100
AcDbLine
 10
369.0000000000001
 20
330.9499999999998
 30
0.0
 11
369.0000000000001
 21
326.1499999999996
 31
0.0
  0
ARC
  5
7BAD9
330
1F
100
AcDbEntity
  8
AM_0
100
AcDbCircle
 10
363.8000000000003
 20
330.9499999999998
 30
0.0
 40
5.2
100
AcDbArc
 50
0.0
 51
90.0
  0
ARC
  5
7BADA
330
1F
100
AcDbEntity
  8
AM_0
100
AcDbCircle
 10
325.0000000000001
 20
298.0
 30
0.0
 40
11.0
100
AcDbArc
 50
201.2744739999805
 51
291.3964019999996
  0
ARC
  5
7BADB
330
1F
100
AcDbEntity
  8
AM_0
100
AcDbCircle
 10
322.1999999999999
 20
330.9499999999998
 30
0.0
 40
5.2
100
AcDbArc
 50
90.0
 51
134.9081239999923
  0
ARC
  5
7BADD
330
1F
100
AcDbEntity
  8
AM_0
100
AcDbCircle
 10
337.7289910000001
 20
317.9801509999998
 30
0.0
 40
25.0
100
AcDbArc
 50
291.2744739999805
 51
345.0000000000056
  0
LINE
  5
7BADE
330
1F
100
AcDbEntity
  8
AM_0
100
AcDbLine
 10
361.8771370000001
 20
311.5096750000002
 30
0.0
 11
364.6561760000001
 21
321.8811910000004
 31
0.0
  0
LINE
  5
7BADF
330
1F
100
AcDbEntity
  8
AM_0
100
AcDbLine
 10
329.0130020000002
 20
287.7581339999997
 30
0.0
 11
346.7998940000003
 21
294.6838269999998
 31
0.0
  0
ARC
  5
7BAE0
330
1F
100
AcDbEntity
  8
AM_0
100
AcDbCircle
 10
370.4517310000002
 20
320.3282760000002
 30
0.0
 40
6.0
100
AcDbArc
 50
104.0019609999882
 51
165.0000000000055
  0
CIRCLE
  5
7BAE1
330
1F
100
AcDbEntity
  8
AM_0
100
AcDbCircle
 10
325.0000000000001
 20
298.0
 30
0.0
 40
7.5
  0
CIRCLE
  5
7BAE2
330
1F
100
AcDbEntity
  8
AM_0
100
AcDbCircle
 10
325.0000000000001
 20
298.0
 30
0.0
 40
6.5
  0
ARC
  5
7BAE5
330
1F
100
AcDbEntity
  8
AM_0
100
AcDbCircle
 10
325.0000000000001
 20
298.0
 30
0.0
 40
9.5
100
AcDbArc
 50
0.0
 51
66.4218219999848
  0
LINE
  5
7BAE6
330
1F
100
AcDbEntity
  8
AM_0
100
AcDbLine
 10
327.0000000000001
 20
329.8464759999997
 30
0.0
 11
327.0000000000001
 21
309.4564399999999
 31
0.0
  0
LINE
  5
7BAE7
330
1F
100
AcDbEntity
  8
AM_0
100
AcDbLine
 10
334.5000000000001
 20
291.6988629999996
 30
0.0
 11
334.5000000000001
 21
298.0
 31
0.0
  0
ARC
  5
7BAE8
330
1F
100
AcDbEntity
  8
AM_0
100
AcDbCircle
 10
330.0000000000001
 20
309.4564399999999
 30
0.0
 40
3.0
100
AcDbArc
 50
180.0
 51
246.4218219999848
  0
ARC
  5
7BAE9
330
1F
100
AcDbEntity
  8
AM_0
100
AcDbCircle
 10
325.0000000000001
 20
298.0
 30
0.0
 40
37.20000000000001
100
AcDbArc
 50
100.017739000004
 51
126.2562669999965
  0
LINE
  5
7BAEA
330
1F
100
AcDbEntity
  8
AM_0
100
AcDbLine
 10
303.0000000000001
 20
327.9973330000002
 30
0.0
 11
314.7418309999999
 21
294.0061130000004
 31
0.0
  0
LINE
  5
7BAEB
330
1F
100
AcDbEntity
  8
AM_0
100
AcDbLine
 10
320.825
 20
336.1499999999996
 30
0.0
 11
365.1750000000003
 21
336.1499999999996
 31
0.0
  0
ARC
  5
7BAEC
330
1F
100
AcDbEntity
  8
AM_0
100
AcDbCircle
 10
320.825
 20
340.9499999999998
 30
0.0
 40
4.799999999999999
100
AcDbArc
 50
193.861949999976
 51
270.0
  0
ARC
  5
7BAED
330
1F
100
AcDbEntity
  8
AM_0
100
AcDbCircle
 10
365.1750000000003
 20
340.9499999999998
 30
0.0
 40
4.799999999999999
100
AcDbArc
 50
270.0
 51
346.138050000024
  0
LINE
  5
7BAEE
330
1F
100
AcDbEntity
  8
AM_0
100
AcDbLine
 10
302.0000000000001
 20
347.8000000000002
 30
0.0
 11
384.0000000000001
 21
347.8000000000002
 31
0.0
  0
LINE
  5
7BAEF
330
1F
100
AcDbEntity
  8
AM_0
100
AcDbLine
 10
302.0000000000001
 20
351.0
 30
0.0
 11
384.0000000000001
 21
351.0
 31
0.0
  0
ARC
  5
7BAF0
330
1F
100
AcDbEntity
  8
AM_0
100
AcDbCircle
 10
312.9499999999999
 20
347.3000000000002
 30
0.0
 40
0.5
100
AcDbArc
 50
31.58813600000838
 51
90.0
  0
LINE
  5
7BAF1
330
1F
100
AcDbEntity
  8
AM_0
100
AcDbLine
 10
302.0000000000001
 20
351.0
 30
0.0
 11
302.0000000000001
 21
347.8000000000002
 31
0.0
  0
ARC
  5
7BAF2
330
1F
100
AcDbEntity
  8
AM_0
100
AcDbCircle
 10
316.5277090000001
 20
349.5
 30
0.0
 40
3.7
100
AcDbArc
 50
211.5881360000084
 51
270.0
  0
LINE
  5
7BAF3
330
1F
100
AcDbEntity
  8
AM_0
100
AcDbLine
 10
315.1
 20
345.8000000000002
 30
0.0
 11
370.9000000000002
 21
345.8000000000002
 31
0.0
  0
ARC
  5
7BAF4
330
1F
100
AcDbEntity
  8
AM_0
100
AcDbCircle
 10
373.0500000000003
 20
347.3000000000002
 30
0.0
 40
0.5
100
AcDbArc
 50
90.0
 51
148.4118639999916
  0
LINE
  5
7BAF5
330
1F
100
AcDbEntity
  8
AM_0
100
AcDbLine
 10
384.0000000000001
 20
351.0
 30
0.0
 11
384.0000000000001
 21
347.8000000000002
 31
0.0
  0
ARC
  5
7BAF6
330
1F
100
AcDbEntity
  8
AM_0
100
AcDbCircle
 10
369.472292
 20
349.5
 30
0.0
 40
3.7
100
AcDbArc
 50
270.0
 51
328.4118639999916
  0
LINE
  5
7BAF7
330
1F
100
AcDbEntity
  8
AM_0
100
AcDbLine
 10
372.4000000000002
 20
344.3000000000002
 30
0.0
 11
372.4000000000002
 21
339.8000000000002
 31
0.0
  0
ARC
  5
7BAF8
330
1F
100
AcDbEntity
  8
AM_0
100
AcDbCircle
 10
370.9000000000002
 20
344.3000000000002
 30
0.0
 40
1.5
100
AcDbArc
 50
0.0
 51
90.0
  0
LINE
  5
7BAF9
330
1F
100
AcDbEntity
  8
AM_0
100
AcDbLine
 10
313.6
 20
339.8000000000002
 30
0.0
 11
372.4000000000002
 21
339.8000000000002
 31
0.0
  0
LINE
  5
7BAFA
330
1F
100
AcDbEntity
  8
AM_0
100
AcDbLine
 10
313.6
 20
344.3000000000002
 30
0.0
 11
313.6
 21
339.8000000000002
 31
0.0
  0
ARC
  5
7BAFB
330
1F
100
AcDbEntity
  8
AM_0
100
AcDbCircle
 10
315.1
 20
344.3000000000002
 30
0.0
 40
1.5
100
AcDbArc
 50
90.0
 51
180.0
  0
ARC
  5
7BAFC
330
1F
100
AcDbEntity
  8
AM_0
100
AcDbCircle
 10
325.0000000000001
 20
298.0
 30
0.0
 40
25.0
100
AcDbArc
 50
135.1606949999911
 51
355.7812580000152
  0
LINE
  5
7BAFD
330
1F
100
AcDbEntity
  8
AM_0
100
AcDbLine
 10
432.0000000000001
 20
351.0
 30
0.0
 11
514.0000000000001
 21
351.0
 31
0.0
  0
LINE
  5
7BAFE
330
1F
100
AcDbEntity
  8
AM_0
100
AcDbLine
 10
432.0000000000001
 20
351.0
 30
0.0
 11
432.0000000000001
 21
347.8000000000002
 31
0.0
  0
LINE
  5
7BAFF
330
1F
100
AcDbEntity
  8
AM_0
100
AcDbLine
 10
432.0000000000001
 20
347.8000000000002
 30
0.0
 11
514.0000000000001
 21
347.8000000000002
 31
0.0
  0
LINE
  5
7BB00
330
1F
100
AcDbEntity
  8
AM_0
100
AcDbLine
 10
514.0000000000001
 20
351.0
 30
0.0
 11
514.0000000000001
 21
347.8000000000002
 31
0.0
  0
ARC
  5
7BB01
330
1F
100
AcDbEntity
  8
AM_0
100
AcDbCircle
 10
442.4499999999999
 20
347.3000000000002
 30
0.0
 40
0.5
100
AcDbArc
 50
25.3769340000026
 51
90.0
  0
ARC
  5
7BB02
330
1F
100
AcDbEntity
  8
AM_0
100
AcDbCircle
 10
445.6122780000002
 20
348.8000000000002
 30
0.0
 40
3.0
100
AcDbArc
 50
205.3769340000026
 51
270.0
  0
LINE
  5
7BB03
330
1F
100
AcDbEntity
  8
AM_0
100
AcDbLine
 10
445.6122780000002
 20
345.8000000000002
 30
0.0
 11
500.3877229999999
 21
345.8000000000002
 31
0.0
  0
ARC
  5
7BB04
330
1F
100
AcDbEntity
  8
AM_0
100
AcDbCircle
 10
503.5500000000003
 20
347.3000000000002
 30
0.0
 40
0.5
100
AcDbArc
 50
90.0
 51
154.6230659999974
  0
ARC
  5
7BB05
330
1F
100
AcDbEntity
  8
AM_0
100
AcDbCircle
 10
500.3877229999999
 20
348.8000000000002
 30
0.0
 40
3.0
100
AcDbArc
 50
270.0
 51
334.6230659999974
  0
ARC
  5
7BB06
330
1F
100
AcDbEntity
  8
AM_0
100
AcDbCircle
 10
445.1
 20
344.3000000000002
 30
0.0
 40
1.5
100
AcDbArc
 50
90.0
 51
180.0
  0
LINE
  5
7BB07
330
1F
100
AcDbEntity
  8
AM_0
100
AcDbLine
 10
443.5999999999999
 20
344.3000000000002
 30
0.0
 11
443.5999999999999
 21
339.8000000000002
 31
0.0
  0
LINE
  5
7BB08
330
1F
100
AcDbEntity
  8
AM_0
100
AcDbLine
 10
443.5999999999999
 20
339.8000000000002
 30
0.0
 11
502.4000000000001
 21
339.8000000000002
 31
0.0
  0
LINE
  5
7BB09
330
1F
100
AcDbEntity
  8
AM_0
100
AcDbLine
 10
502.4000000000001
 20
344.3000000000002
 30
0.0
 11
502.4000000000001
 21
339.8000000000002
 31
0.0
  0
ARC
  5
7BB0A
330
1F
100
AcDbEntity
  8
AM_0
100
AcDbCircle
 10
500.9000000000002
 20
344.3000000000002
 30
0.0
 40
1.5
100
AcDbArc
 50
0.0
 51
90.0
  0
ARC
  5
7BB0B
330
1F
100
AcDbEntity
  8
AM_0
100
AcDbCircle
 10
451.0000000000001
 20
340.9499999999998
 30
0.0
 40
4.799999999999999
100
AcDbArc
 50
193.861949999976
 51
270.0
  0
LINE
  5
7BB0C
330
1F
100
AcDbEntity
  8
AM_0
100
AcDbLine
 10
495.0000000000001
 20
336.1499999999996
 30
0.0
 11
451.0000000000001
 21
336.1499999999996
 31
0.0
  0
ARC
  5
7BB0D
330
1F
100
AcDbEntity
  8
AM_0
100
AcDbCircle
 10
495.0000000000001
 20
340.9499999999998
 30
0.0
 40
4.799999999999999
100
AcDbArc
 50
270.0
 51
346.138050000024
  0
LINE
  5
7BB0E
330
1F
100
AcDbEntity
  8
AM_0
100
AcDbLine
 10
447.0000000000001
 20
330.9499999999998
 30
0.0
 11
447.0000000000001
 21
293.0027700000001
 31
0.0
  0
LINE
  5
7BB0F
330
1F
100
AcDbEntity
  8
AM_0
100
AcDbLine
 10
451.3000000000003
 20
287.0
 30
0.0
 11
454.5
 21
287.0
 31
0.0
  0
ARC
  5
7BB10
330
1F
100
AcDbEntity
  8
AM_0
100
AcDbCircle
 10
452.1999999999999
 20
330.9499999999998
 30
0.0
 40
5.2
100
AcDbArc
 50
90.0
 51
180.0
  0
ARC
  5
7BB11
330
1F
100
AcDbEntity
  8
AM_0
100
AcDbCircle
 10
473.0000000000001
 20
300.1499999999996
 30
0.0
 40
26.0
100
AcDbArc
 50
69.91390699997253
 51
110.0860930000274
  0
ARC
  5
7BB12
330
1F
100
AcDbEntity
  8
AM_0
100
AcDbCircle
 10
468.1919560000002
 20
313.298487
 30
0.0
 40
12.0
100
AcDbArc
 50
110.0860930000274
 51
162.458008000024
  0
ARC
  5
7BB13
330
1F
100
AcDbEntity
  8
AM_0
100
AcDbCircle
 10
470.31299
 20
313.8897230000002
 30
0.0
 40
12.0
100
AcDbArc
 50
101.0653970000047
 51
164.4259699999838
  0
ARC
  5
7BB14
330
1F
100
AcDbEntity
  8
AM_0
100
AcDbCircle
 10
470.1924460000001
 20
292.5496489999996
 30
0.0
 40
20.0
100
AcDbArc
 50
151.2015490000199
 51
178.4267599999755
  0
ARC
  5
7BB15
330
1F
100
AcDbEntity
  8
AM_0
100
AcDbCircle
 10
391.323673
 20
335.9053480000002
 30
0.0
 40
70.0
100
AcDbArc
 50
331.2015490000199
 51
344.4259699999838
  0
ARC
  5
7BB16
330
1F
100
AcDbEntity
  8
AM_0
100
AcDbCircle
 10
452.1992310000001
 20
293.0438350000004
 30
0.0
 40
2.0
100
AcDbArc
 50
178.4267599999755
 51
235.0975039999702
  0
ARC
  5
7BB17
330
1F
100
AcDbEntity
  8
AM_0
100
AcDbCircle
 10
476.6757840000001
 20
288.60138
 30
0.0
 40
30.0
100
AcDbArc
 50
149.0121140000132
 51
171.5688599999873
  0
ARC
  5
7BB18
330
1F
100
AcDbEntity
  8
AM_0
100
AcDbCircle
 10
399.520928
 20
334.9384950000003
 30
0.0
 40
60.0
100
AcDbArc
 50
329.0121140000132
 51
342.5090200000226
  0
ARC
  5
7BB19
330
1F
100
AcDbEntity
  8
AM_0
100
AcDbCircle
 10
449.0000000000001
 20
293.0432979999996
 30
0.0
 40
2.0
100
AcDbArc
 50
180.0
 51
235.0975039999702
  0
LINE
  5
7BB1A
330
1F
100
AcDbEntity
  8
AM_0
100
AcDbLine
 10
454.5
 20
305.7598399999997
 30
0.0
 11
454.5
 21
287.0
 31
0.0
  0
ARC
  5
7BB1B
330
1F
100
AcDbEntity
  8
AM_0
100
AcDbCircle
 10
449.3000000000002
 20
287.9567020000004
 30
0.0
 40
2.0
100
AcDbArc
 50
0.0
 51
55.09750399997017
  0
ARC
  5
7BB1C
330
1F
100
AcDbEntity
  8
AM_0
100
AcDbCircle
 10
452.5000000000001
 20
287.9567020000004
 30
0.0
 40
2.0
100
AcDbArc
 50
0.0
 51
55.09750399997017
  0
LINE
  5
7BB1D
330
1F
100
AcDbEntity
  8
AM_0
100
AcDbLine
 10
451.3000000000003
 20
287.9567020000004
 30
0.0
 11
451.3000000000003
 21
287.0
 31
0.0
  0
LINE
  5
7BB1E
330
1F
100
AcDbEntity
  8
AM_0
100
AcDbLine
 10
450.444364
 20
289.5969560000003
 30
0.0
 11
447.8556370000002
 21
291.4030439999997
 31
0.0
  0
LINE
  5
7BB1F
330
1F
100
AcDbEntity
  8
AM_0
100
AcDbLine
 10
453.6443639999999
 20
289.5969560000003
 30
0.0
 11
451.0548680000002
 21
291.4035809999996
 31
0.0
  0
LINE
  5
7BB20
330
1F
100
AcDbEntity
  8
AM_0
100
AcDbLine
 10
494.6999999999999
 20
287.0
 30
0.0
 11
491.5
 21
287.0
 31
0.0
  0
ARC
  5
7BB21
330
1F
100
AcDbEntity
  8
AM_0
100
AcDbCircle
 10
475.807555
 20
292.5496489999996
 30
0.0
 40
20.0
100
AcDbArc
 50
1.573240000024436
 51
28.79845099998009
  0
ARC
  5
7BB22
330
1F
100
AcDbEntity
  8
AM_0
100
AcDbCircle
 10
493.8007699999999
 20
293.0438350000004
 30
0.0
 40
2.0
100
AcDbArc
 50
304.9024960000298
 51
1.573240000024436
  0
ARC
  5
7BB23
330
1F
100
AcDbEntity
  8
AM_0
100
AcDbCircle
 10
469.3242169999999
 20
288.60138
 30
0.0
 40
30.0
100
AcDbArc
 50
8.431140000012716
 51
30.98788599998678
  0
LINE
  5
7BB24
330
1F
100
AcDbEntity
  8
AM_0
100
AcDbLine
 10
491.5
 20
305.7598399999997
 30
0.0
 11
491.5
 21
287.0
 31
0.0
  0
ARC
  5
7BB25
330
1F
100
AcDbEntity
  8
AM_0
100
AcDbCircle
 10
496.6999999999999
 20
287.9567020000004
 30
0.0
 40
2.0
100
AcDbArc
 50
124.9024960000298
 51
180.0
  0
ARC
  5
7BB26
330
1F
100
AcDbEntity
  8
AM_0
100
AcDbCircle
 10
493.5000000000001
 20
287.9567020000004
 30
0.0
 40
2.0
100
AcDbArc
 50
124.9024960000298
 51
180.0
  0
LINE
  5
7BB27
330
1F
100
AcDbEntity
  8
AM_0
100
AcDbLine
 10
494.6999999999999
 20
287.9567020000004
 30
0.0
 11
494.6999999999999
 21
287.0
 31
0.0
  0
LINE
  5
7BB28
330
1F
100
AcDbEntity
  8
AM_0
100
AcDbLine
 10
495.555637
 20
289.5969560000003
 30
0.0
 11
498.1443639999999
 21
291.4030439999997
 31
0.0
  0
LINE
  5
7BB29
330
1F
100
AcDbEntity
  8
AM_0
100
AcDbLine
 10
492.3556370000002
 20
289.5969560000003
 30
0.0
 11
494.9451330000003
 21
291.4035809999996
 31
0.0
  0
ARC
  5
7BB2A
330
1F
100
AcDbEntity
  8
AM_0
100
AcDbCircle
 10
554.6763280000001
 20
335.9053480000002
 30
0.0
 40
70.0
100
AcDbArc
 50
195.5740300000162
 51
208.7984509999801
  0
ARC
  5
7BB2B
330
1F
100
AcDbEntity
  8
AM_0
100
AcDbCircle
 10
546.479073
 20
334.9384950000003
 30
0.0
 40
60.0
100
AcDbArc
 50
197.4909799999774
 51
210.9878859999867
  0
ARC
  5
7BB2C
330
1F
100
AcDbEntity
  8
AM_0
100
AcDbCircle
 10
475.6870110000001
 20
313.8897230000002
 30
0.0
 40
12.0
100
AcDbArc
 50
15.57403000001618
 51
78.93460299999524
  0
ARC
  5
7BB2D
330
1F
100
AcDbEntity
  8
AM_0
100
AcDbCircle
 10
477.8080449999999
 20
313.298487
 30
0.0
 40
12.0
100
AcDbArc
 50
17.54199199997594
 51
69.91390699997253
  0
LINE
  5
7BB2E
330
1F
100
AcDbEntity
  8
AM_0
100
AcDbLine
 10
499.0000000000001
 20
330.9499999999998
 30
0.0
 11
499.0000000000001
 21
293.0027700000001
 31
0.0
  0
ARC
  5
7BB2F
330
1F
100
AcDbEntity
  8
AM_0
100
AcDbCircle
 10
493.8000000000003
 20
330.9499999999998
 30
0.0
 40
5.2
100
AcDbArc
 50
0.0
 51
90.0
  0
ARC
  5
7BB3D
330
1F
100
AcDbEntity
  8
AM_0
100
AcDbCircle
 10
497.0000000000001
 20
293.0432979999996
 30
0.0
 40
2.0
100
AcDbArc
 50
304.9024960000298
 51
0.0
  0
LINE
  5
7BB3E
330
1F
100
AcDbEntity
  8
AM_0
100
AcDbLine
 10
503.797412
 20
301.0
 30
0.0
 11
503.797412
 21
295.0
 31
0.0
  0
LINE
  5
7BB3F
330
1F
100
AcDbEntity
  8
AM_0
100
AcDbLine
 10
502.0999999999999
 20
302.0
 30
0.0
 11
502.797412
 21
302.0
 31
0.0
  0
LINE
  5
7BB40
330
1F
100
AcDbEntity
  8
AM_0
100
AcDbLine
 10
502.797412
 20
302.0
 30
0.0
 11
502.797412
 21
294.0
 31
0.0
  0
LINE
  5
7BB41
330
1F
100
AcDbEntity
  8
AM_0
100
AcDbLine
 10
502.0999999999999
 20
301.0
 30
0.0
 11
503.797412
 21
301.0
 31
0.0
  0
LINE
  5
7BB42
330
1F
100
AcDbEntity
  8
AM_0
100
AcDbLine
 10
502.797412
 20
302.0
 30
0.0
 11
503.797412
 21
301.0
 31
0.0
  0
LINE
  5
7BB43
330
1F
100
AcDbEntity
  8
AM_0
100
AcDbLine
 10
502.0999999999999
 20
294.0
 30
0.0
 11
502.797412
 21
294.0
 31
0.0
  0
LINE
  5
7BB44
330
1F
100
AcDbEntity
  8
AM_0
100
AcDbLine
 10
502.0999999999999
 20
295.0
 30
0.0
 11
503.797412
 21
295.0
 31
0.0
  0
LINE
  5
7BB45
330
1F
100
AcDbEntity
  8
AM_0
100
AcDbLine
 10
502.797412
 20
294.0
 30
0.0
 11
503.797412
 21
295.0
 31
0.0
  0
LINE
  5
7BB46
330
1F
100
AcDbEntity
  8
AM_0
100
AcDbLine
 10
502.0999999999999
 20
302.75
 30
0.0
 11
502.0999999999999
 21
293.25
 31
0.0
  0
ARC
  5
7BB47
330
1F
100
AcDbEntity
  8
AM_0
100
AcDbCircle
 10
498.7763890000002
 20
303.6291659999997
 30
0.0
 40
1.923611
100
AcDbArc
 50
282.7217560000223
 51
77.27824399997775
  0
ARC
  5
7BB48
330
1F
100
AcDbEntity
  8
AM_0
100
AcDbCircle
 10
495.2555560000002
 20
298.0
 30
0.0
 40
5.444443999999999
100
AcDbArc
 50
316.4264209999853
 51
43.5735790000147
  0
LINE
  5
7BB49
330
1F
100
AcDbEntity
  8
AM_0
100
AcDbLine
 10
500.9000000000002
 20
299.6707310000001
 30
0.0
 11
500.9000000000002
 21
296.3292700000002
 31
0.0
  0
LINE
  5
7BB4A
330
1F
100
AcDbEntity
  8
AM_0
100
AcDbLine
 10
502.0999999999999
 20
301.1367689999997
 30
0.0
 11
500.9618140000003
 21
299.8353090000001
 31
0.0
  0
ARC
  5
7BB4B
330
1F
100
AcDbEntity
  8
AM_0
100
AcDbCircle
 10
501.1500000000002
 20
299.6707310000001
 30
0.0
 40
0.25
100
AcDbArc
 50
138.8288310000014
 51
180.0
  0
LINE
  5
7BB4C
330
1F
100
AcDbEntity
  8
AM_0
100
AcDbLine
 10
502.0999999999999
 20
302.75
 30
0.0
 11
500.22462
 21
304.8952250000002
 31
0.0
  0
ARC
  5
7BB4D
330
1F
100
AcDbEntity
  8
AM_0
100
AcDbCircle
 10
498.7763890000002
 20
292.3708349999997
 30
0.0
 40
1.923611
100
AcDbArc
 50
282.7217560000223
 51
77.27824399997775
  0
LINE
  5
7BB4E
330
1F
100
AcDbEntity
  8
AM_0
100
AcDbLine
 10
502.0999999999999
 20
294.8632310000003
 30
0.0
 11
500.9618140000003
 21
296.1646920000003
 31
0.0
  0
ARC
  5
7BB4F
330
1F
100
AcDbEntity
  8
AM_0
100
AcDbCircle
 10
501.1500000000002
 20
296.3292700000002
 30
0.0
 40
0.25
100
AcDbArc
 50
180.0
 51
221.1711689999986
  0
LINE
  5
7BB50
330
1F
100
AcDbEntity
  8
AM_0
100
AcDbLine
 10
502.0999999999999
 20
293.25
 30
0.0
 11
500.22462
 21
291.1047749999998
 31
0.0
  0
LINE
  5
7BB51
330
1F
100
AcDbEntity
  8
AM_0
100
AcDbLine
 10
499.1999999999999
 20
290.494447
 30
0.0
 11
496.842041
 21
290.494447
 31
0.0
  0
LINE
  5
7BB52
330
1F
100
AcDbEntity
  8
AM_0
100
AcDbLine
 10
499.1999999999999
 20
294.2472239999997
 30
0.0
 11
499.0000000000001
 21
294.2472239999997
 31
0.0
  0
LINE
  5
7BB53
330
1F
100
AcDbEntity
  8
AM_0
100
AcDbLine
 10
499.1999999999999
 20
301.7527769999997
 30
0.0
 11
499.0000000000001
 21
301.7527769999997
 31
0.0
  0
LINE
  5
7BB54
330
1F
100
AcDbEntity
  8
AM_0
100
AcDbLine
 10
499.1999999999999
 20
305.5055540000003
 30
0.0
 11
499.0000000000001
 21
305.5055540000003
 31
0.0
  0
ARC
  5
7BB60
330
1F
100
AcDbEntity
  8
AM_0
100
AcDbCircle
 10
464.0000000000001
 20
363.0
 30
0.0
 40
90.0
100
AcDbArc
 50
266.416678000001
 51
273.583321999999
  0
ARC
  5
7BB61
330
1F
100
AcDbEntity
  8
AM_0
100
AcDbCircle
 10
458.5
 20
275.1720439999999
 30
0.0
 40
2.0
100
AcDbArc
 50
180.0
 51
266.416678000001
  0
ARC
  5
7BB62
330
1F
100
AcDbEntity
  8
AM_0
100
AcDbCircle
 10
469.5000000000001
 20
275.1720439999999
 30
0.0
 40
2.0
100
AcDbArc
 50
273.583321999999
 51
0.0
  0
ARC
  5
7BB63
330
1F
100
AcDbEntity
  8
AM_0
100
AcDbCircle
 10
487.5
 20
275.1720439999999
 30
0.0
 40
2.0
100
AcDbArc
 50
273.583321999999
 51
0.0
  0
ARC
  5
7BB64
330
1F
100
AcDbEntity
  8
AM_0
100
AcDbCircle
 10
482.0000000000001
 20
363.0
 30
0.0
 40
90.0
100
AcDbArc
 50
266.416678000001
 51
273.583321999999
  0
ARC
  5
7BB65
330
1F
100
AcDbEntity
  8
AM_0
100
AcDbCircle
 10
476.5000000000001
 20
275.1720439999999
 30
0.0
 40
2.0
100
AcDbArc
 50
180.0
 51
266.416678000001
  0
LINE
  5
7BB67
330
1F
100
AcDbEntity
  8
AM_0
100
AcDbLine
 10
456.5000000000001
 20
292.1000000000004
 30
0.0
 11
455.3000000000003
 21
292.1000000000004
 31
0.0
  0
LINE
  5
7BB68
330
1F
100
AcDbEntity
  8
AM_0
100
AcDbLine
 10
455.0000000000001
 20
292.3999999999996
 30
0.0
 11
455.3000000000003
 21
292.1000000000004
 31
0.0
  0
LINE
  5
7BB69
330
1F
100
AcDbEntity
  8
AM_0
100
AcDbLine
 10
454.5
 20
294.0
 30
0.0
 11
455.0000000000001
 21
294.0
 31
0.0
  0
LINE
  5
7BB6A
330
1F
100
AcDbEntity
  8
AM_0
100
AcDbLine
 10
473.0000000000001
 20
292.3999999999996
 30
0.0
 11
473.0000000000001
 21
294.0
 31
0.0
  0
LINE
  5
7BB6B
330
1F
100
AcDbEntity
  8
AM_0
100
AcDbLine
 10
471.5000000000001
 20
292.1000000000004
 30
0.0
 11
472.6999999999999
 21
292.1000000000004
 31
0.0
  0
LINE
  5
7BB6C
330
1F
100
AcDbEntity
  8
AM_0
100
AcDbLine
 10
473.0000000000001
 20
292.3999999999996
 30
0.0
 11
472.6999999999999
 21
292.1000000000004
 31
0.0
  0
LINE
  5
7BB6D
330
1F
100
AcDbEntity
  8
AM_0
100
AcDbLine
 10
473.0000000000001
 20
292.3999999999996
 30
0.0
 11
473.0000000000001
 21
294.0
 31
0.0
  0
LINE
  5
7BB6E
330
1F
100
AcDbEntity
  8
AM_0
100
AcDbLine
 10
474.5
 20
292.1000000000004
 30
0.0
 11
473.3000000000003
 21
292.1000000000004
 31
0.0
  0
LINE
  5
7BB6F
330
1F
100
AcDbEntity
  8
AM_0
100
AcDbLine
 10
473.0000000000001
 20
292.3999999999996
 30
0.0
 11
473.3000000000003
 21
292.1000000000004
 31
0.0
  0
LINE
  5
7BB71
330
1F
100
AcDbEntity
  8
AM_0
100
AcDbLine
 10
489.5000000000001
 20
292.1000000000004
 30
0.0
 11
490.6999999999999
 21
292.1000000000004
 31
0.0
  0
LINE
  5
7BB72
330
1F
100
AcDbEntity
  8
AM_0
100
AcDbLine
 10
491.0000000000001
 20
292.3999999999996
 30
0.0
 11
490.6999999999999
 21
292.1000000000004
 31
0.0
  0
LINE
  5
7BB73
330
1F
100
AcDbEntity
  8
AM_0
100
AcDbLine
 10
491.5
 20
294.0
 30
0.0
 11
491.0000000000001
 21
294.0
 31
0.0
  0
LINE
  5
7BB78
330
1F
100
AcDbEntity
  8
AM_0
100
AcDbLine
 10
455.0000000000001
 20
303.6000000000004
 30
0.0
 11
454.9999999999998
 21
292.3999999999987
 31
0.0
  0
LINE
  5
7BB79
330
1F
100
AcDbEntity
  8
AM_0
100
AcDbLine
 10
456.5000000000001
 20
303.8999999999997
 30
0.0
 11
455.3000000000003
 21
303.8999999999997
 31
0.0
  0
LINE
  5
7BB7A
330
1F
100
AcDbEntity
  8
AM_0
100
AcDbLine
 10
455.0000000000001
 20
303.6000000000004
 30
0.0
 11
455.3000000000003
 21
303.8999999999997
 31
0.0
  0
LINE
  5
7BB7B
330
1F
100
AcDbEntity
  8
AM_0
100
AcDbLine
 10
454.5
 20
302.0
 30
0.0
 11
455.0000000000001
 21
302.0
 31
0.0
  0
LINE
  5
7BB7C
330
1F
100
AcDbEntity
  8
AM_0
100
AcDbLine
 10
473.0000000000001
 20
303.6000000000004
 30
0.0
 11
473.0000000000001
 21
302.0
 31
0.0
  0
LINE
  5
7BB7D
330
1F
100
AcDbEntity
  8
AM_0
100
AcDbLine
 10
471.5000000000001
 20
303.8999999999997
 30
0.0
 11
472.6999999999999
 21
303.8999999999997
 31
0.0
  0
LINE
  5
7BB7E
330
1F
100
AcDbEntity
  8
AM_0
100
AcDbLine
 10
473.0000000000001
 20
303.6000000000004
 30
0.0
 11
472.6999999999999
 21
303.8999999999997
 31
0.0
  0
LINE
  5
7BB7F
330
1F
100
AcDbEntity
  8
AM_0
100
AcDbLine
 10
473.0000000000001
 20
303.6000000000004
 30
0.0
 11
473.0000000000001
 21
302.0
 31
0.0
  0
LINE
  5
7BB80
330
1F
100
AcDbEntity
  8
AM_0
100
AcDbLine
 10
474.5
 20
303.8999999999997
 30
0.0
 11
473.3000000000003
 21
303.8999999999997
 31
0.0
  0
LINE
  5
7BB81
330
1F
100
AcDbEntity
  8
AM_0
100
AcDbLine
 10
473.0000000000001
 20
303.6000000000004
 30
0.0
 11
473.3000000000003
 21
303.8999999999997
 31
0.0
  0
LINE
  5
7BB82
330
1F
100
AcDbEntity
  8
AM_0
100
AcDbLine
 10
491.0000000000001
 20
303.6000000000004
 30
0.0
 11
491.0000000000001
 21
292.3999999999996
 31
0.0
  0
LINE
  5
7BB83
330
1F
100
AcDbEntity
  8
AM_0
100
AcDbLine
 10
489.5000000000001
 20
303.8999999999997
 30
0.0
 11
490.6999999999999
 21
303.8999999999997
 31
0.0
  0
LINE
  5
7BB84
330
1F
100
AcDbEntity
  8
AM_0
100
AcDbLine
 10
491.0000000000001
 20
303.6000000000004
 30
0.0
 11
490.6999999999999
 21
303.8999999999997
 31
0.0
  0
LINE
  5
7BB85
330
1F
100
AcDbEntity
  8
AM_0
100
AcDbLine
 10
491.5
 20
302.0
 30
0.0
 11
491.0000000000001
 21
302.0
 31
0.0
  0
LINE
  5
7BB86
330
1F
100
AcDbEntity
  8
AM_0
100
AcDbLine
 10
455.3000000000003
 20
303.8999999999997
 30
0.0
 11
455.3000000000003
 21
292.1000000000004
 31
0.0
  0
LINE
  5
7BB87
330
1F
100
AcDbEntity
  8
AM_0
100
AcDbLine
 10
472.6999999999999
 20
303.8999999999997
 30
0.0
 11
472.6999999999999
 21
292.1000000000004
 31
0.0
  0
LINE
  5
7BB88
330
1F
100
AcDbEntity
  8
AM_0
100
AcDbLine
 10
473.3000000000003
 20
303.8999999999997
 30
0.0
 11
473.3000000000003
 21
292.0999999999994
 31
0.0
  0
LINE
  5
7BB89
330
1F
100
AcDbEntity
  8
AM_0
100
AcDbLine
 10
490.6999999999999
 20
303.8999999999997
 30
0.0
 11
490.6999999999999
 21
292.1000000000004
 31
0.0
  0
LINE
  5
7BB8A
330
1F
100
AcDbEntity
  8
AM_0
100
AcDbLine
 10
456.5000000000001
 20
275.1720439999999
 30
0.0
 11
456.5000000000001
 21
310.3701490000003
 31
0.0
  0
LINE
  5
7BB8B
330
1F
100
AcDbEntity
  8
AM_0
100
AcDbLine
 10
471.5000000000001
 20
320.8279570000004
 30
0.0
 11
471.4999999999998
 21
275.1720439999999
 31
0.0
  0
LINE
  5
7BB8C
330
1F
100
AcDbEntity
  8
AM_0
100
AcDbLine
 10
474.5
 20
320.8279570000004
 30
0.0
 11
474.5
 21
275.1720439999999
 31
0.0
  0
LINE
  5
7BB8D
330
1F
100
AcDbEntity
  8
AM_0
100
AcDbLine
 10
489.5000000000003
 20
275.1720439999999
 30
0.0
 11
489.5000000000001
 21
310.3701520000004
 31
0.0
  0
ARC
  5
7BB8E
330
1F
100
AcDbEntity
  8
AM_0
100
AcDbCircle
 10
464.0000000000001
 20
232.9999999999991
 30
0.0
 40
90.0
100
AcDbArc
 50
86.41667800000101
 51
90.96276600000861
  0
ARC
  5
7BB8F
330
1F
100
AcDbEntity
  8
AM_0
100
AcDbCircle
 10
469.5000000000001
 20
320.8279570000004
 30
0.0
 40
2.0
100
AcDbArc
 50
0.0
 51
86.41667800000101
  0
ARC
  5
7BB90
330
1F
100
AcDbEntity
  8
AM_0
100
AcDbCircle
 10
476.5000000000001
 20
320.8279570000004
 30
0.0
 40
2.0
100
AcDbArc
 50
93.58332199999898
 51
180.0
  0
ARC
  5
7BB91
330
1F
100
AcDbEntity
  8
AM_0
100
AcDbCircle
 10
482.0000000000001
 20
232.9999999999991
 30
0.0
 40
90.0
100
AcDbArc
 50
89.03723300001203
 51
93.58332199999898
  0
LINE
  5
7BC94
330
1F
100
AcDbEntity
  8
AM_0
100
AcDbLine
 10
647.0
 20
457.7999999999993
 30
0.0
 11
647.0
 21
422.2000000000007
 31
0.0
  0
CIRCLE
  5
7BC95
330
1F
100
AcDbEntity
  8
AM_0
100
AcDbCircle
 10
632.0
 20
454.0
 30
0.0
 40
4.75
  0
ARC
  5
7BC96
330
1F
100
AcDbEntity
  8
AM_0
100
AcDbCircle
 10
635.8000000000002
 20
457.7999999999993
 30
0.0
 40
11.2
100
AcDbArc
 50
0.0
 51
90.0
  0
LINE
  5
7BC97
330
1F
100
AcDbEntity
  8
AM_0
100
AcDbLine
 10
632.0806430000002
 20
469.0
 30
0.0
 11
635.8000000000002
 21
469.0
 31
0.0
  0
LINE
  5
7BC9A
330
1F
100
AcDbEntity
  8
AM_0
100
AcDbLine
 10
627.1795590000001
 20
467.8707200000007
 30
0.0
 11
615.9502750000001
 21
462.4058010000007
 31
0.0
  0
ARC
  5
7BC9B
330
1F
100
AcDbEntity
  8
AM_0
100
AcDbCircle
 10
612.8870980000002
 20
468.7000000000007
 30
0.0
 40
7.0
100
AcDbArc
 50
270.0
 51
295.950642999994
  0
ARC
  5
7BC9C
330
1F
100
AcDbEntity
  8
AM_0
100
AcDbCircle
 10
632.0806430000002
 20
457.7999999999993
 30
0.0
 40
11.2
100
AcDbArc
 50
90.0
 51
115.950642999994
  0
LINE
  5
7BC9D
330
1F
100
AcDbEntity
  8
AM_0
100
AcDbLine
 10
612.8870980000002
 20
461.7000000000007
 30
0.0
 11
596.112901
 21
461.7000000000007
 31
0.0
  0
ARC
  5
7BC9E
330
1F
100
AcDbEntity
  8
AM_0
100
AcDbCircle
 10
613.4999999999999
 20
440.0
 30
0.0
 40
6.0
100
AcDbArc
 50
270.0
 51
90.0
  0
LINE
  5
7BC9F
330
1F
100
AcDbEntity
  8
AM_0
100
AcDbLine
 10
613.4999999999999
 20
446.0
 30
0.0
 11
595.5
 21
446.0
 31
0.0
  0
CIRCLE
  5
7BCA0
330
1F
100
AcDbEntity
  8
AM_0
100
AcDbCircle
 10
632.0
 20
426.0
 30
0.0
 40
4.75
  0
ARC
  5
7BCA1
330
1F
100
AcDbEntity
  8
AM_0
100
AcDbCircle
 10
635.8000000000002
 20
422.2000000000007
 30
0.0
 40
11.2
100
AcDbArc
 50
270.0
 51
0.0
  0
LINE
  5
7BCA2
330
1F
100
AcDbEntity
  8
AM_0
100
AcDbLine
 10
632.0806430000002
 20
411.0
 30
0.0
 11
635.8000000000002
 21
411.0
 31
0.0
  0
LINE
  5
7BCA5
330
1F
100
AcDbEntity
  8
AM_0
100
AcDbLine
 10
627.1795590000001
 20
412.1292809999995
 30
0.0
 11
615.9502750000001
 21
417.5941999999995
 31
0.0
  0
ARC
  5
7BCA6
330
1F
100
AcDbEntity
  8
AM_0
100
AcDbCircle
 10
612.8870980000002
 20
411.2999999999992
 30
0.0
 40
7.0
100
AcDbArc
 50
64.04935700000596
 51
90.0
  0
ARC
  5
7BCA7
330
1F
100
AcDbEntity
  8
AM_0
100
AcDbCircle
 10
632.0806430000002
 20
422.2000000000007
 30
0.0
 40
11.2
100
AcDbArc
 50
244.049357000006
 51
270.0
  0
LINE
  5
7BCA8
330
1F
100
AcDbEntity
  8
AM_0
100
AcDbLine
 10
612.8870980000002
 20
418.2999999999992
 30
0.0
 11
596.112901
 21
418.2999999999992
 31
0.0
  0
LINE
  5
7BCA9
330
1F
100
AcDbEntity
  8
AM_0
100
AcDbLine
 10
613.4999999999999
 20
434.0
 30
0.0
 11
595.5
 21
434.0
 31
0.0
  0
LINE
  5
7BCAA
330
1F
100
AcDbEntity
  8
AM_0
100
AcDbLine
 10
562.0
 20
457.7999999999993
 30
0.0
 11
562.0
 21
422.2000000000007
 31
0.0
  0
CIRCLE
  5
7BCAB
330
1F
100
AcDbEntity
  8
AM_0
100
AcDbCircle
 10
577.0000000000001
 20
454.0
 30
0.0
 40
4.75
  0
ARC
  5
7BCAC
330
1F
100
AcDbEntity
  8
AM_0
100
AcDbCircle
 10
573.1999999999999
 20
457.7999999999993
 30
0.0
 40
11.2
100
AcDbArc
 50
90.0
 51
180.0
  0
LINE
  5
7BCAD
330
1F
100
AcDbEntity
  8
AM_0
100
AcDbLine
 10
576.9193559999999
 20
469.0
 30
0.0
 11
573.1999999999999
 21
469.0
 31
0.0
  0
LINE
  5
7BCB0
330
1F
100
AcDbEntity
  8
AM_0
100
AcDbLine
 10
581.82044
 20
467.8707200000007
 30
0.0
 11
593.0497240000001
 21
462.4058010000007
 31
0.0
  0
ARC
  5
7BCB1
330
1F
100
AcDbEntity
  8
AM_0
100
AcDbCircle
 10
596.112901
 20
468.7000000000007
 30
0.0
 40
7.0
100
AcDbArc
 50
244.049357000006
 51
270.0
  0
ARC
  5
7BCB2
330
1F
100
AcDbEntity
  8
AM_0
100
AcDbCircle
 10
576.9193559999999
 20
457.7999999999993
 30
0.0
 40
11.2
100
AcDbArc
 50
64.04935700000596
 51
90.0
  0
ARC
  5
7BCB3
330
1F
100
AcDbEntity
  8
AM_0
100
AcDbCircle
 10
595.5
 20
440.0
 30
0.0
 40
6.0
100
AcDbArc
 50
90.0
 51
270.0
  0
CIRCLE
  5
7BCB4
330
1F
100
AcDbEntity
  8
AM_0
100
AcDbCircle
 10
577.0000000000001
 20
426.0
 30
0.0
 40
4.75
  0
ARC
  5
7BCB5
330
1F
100
AcDbEntity
  8
AM_0
100
AcDbCircle
 10
573.1999999999999
 20
422.2000000000007
 30
0.0
 40
11.2
100
AcDbArc
 50
180.0
 51
270.0
  0
LINE
  5
7BCB6
330
1F
100
AcDbEntity
  8
AM_0
100
AcDbLine
 10
576.9193559999999
 20
411.0
 30
0.0
 11
573.1999999999999
 21
411.0
 31
0.0
  0
LINE
  5
7BCB9
330
1F
100
AcDbEntity
  8
AM_0
100
AcDbLine
 10
581.82044
 20
412.1292809999995
 30
0.0
 11
593.0497240000001
 21
417.5941999999995
 31
0.0
  0
ARC
  5
7BCBA
330
1F
100
AcDbEntity
  8
AM_0
100
AcDbCircle
 10
596.112901
 20
411.2999999999992
 30
0.0
 40
7.0
100
AcDbArc
 50
90.0
 51
115.950642999994
  0
ARC
  5
7BCBB
330
1F
100
AcDbEntity
  8
AM_0
100
AcDbCircle
 10
576.9193559999999
 20
422.2000000000007
 30
0.0
 40
11.2
100
AcDbArc
 50
270.0
 51
295.950642999994
  0
LINE
  5
7BCBD
330
1F
100
AcDbEntity
  8
AM_0
100
AcDbLine
 10
611.0
 20
414.7999999999992
 30
0.0
 11
598.0000000000001
 21
414.7999999999992
 31
0.0
  0
LINE
  5
7BCBE
330
1F
100
AcDbEntity
  8
AM_0
100
AcDbLine
 10
612.0
 20
415.7999999999992
 30
0.0
 11
597.0000000000001
 21
415.7999999999992
 31
0.0
  0
LINE
  5
7BCBF
330
1F
100
AcDbEntity
  8
AM_0
100
AcDbLine
 10
611.0
 20
414.7999999999992
 30
0.0
 11
612.0
 21
415.7999999999992
 31
0.0
  0
LINE
  5
7BCC0
330
1F
100
AcDbEntity
  8
AM_0
100
AcDbLine
 10
612.0
 20
418.2999999999992
 30
0.0
 11
612.0
 21
415.7999999999992
 31
0.0
  0
LINE
  5
7BCC1
330
1F
100
AcDbEntity
  8
AM_0
100
AcDbLine
 10
598.0000000000001
 20
414.7999999999992
 30
0.0
 11
597.0000000000001
 21
415.7999999999992
 31
0.0
  0
LINE
  5
7BCC2
330
1F
100
AcDbEntity
  8
AM_0
100
AcDbLine
 10
597.0000000000001
 20
418.2999999999992
 30
0.0
 11
597.0000000000001
 21
415.7999999999992
 31
0.0
  0
LINE
  5
7BCC4
330
1F
100
AcDbEntity
  8
AM_0
100
AcDbLine
 10
614.5
 20
344.7999999999993
 30
0.0
 11
614.5
 21
294.5743949999997
 31
0.0
  0
LINE
  5
7BCC5
330
1F
100
AcDbEntity
  8
AM_0
100
AcDbLine
 10
629.4999999999999
 20
344.7999999999993
 30
0.0
 11
629.4999999999999
 21
314.8373709999996
 31
0.0
  0
LINE
  5
7BCC6
330
1F
100
AcDbEntity
  8
AM_0
100
AcDbLine
 10
647.0
 20
347.2999999999993
 30
0.0
 11
647.0
 21
345.0
 31
0.0
  0
ARC
  5
7BCC7
330
1F
100
AcDbEntity
  8
AM_0
100
AcDbCircle
 10
643.3000000000001
 20
347.2999999999993
 30
0.0
 40
3.7
100
AcDbArc
 50
0.0
 51
90.0
  0
LINE
  5
7BCC8
330
1F
100
AcDbEntity
  8
AM_0
100
AcDbLine
 10
643.3000000000001
 20
351.0
 30
0.0
 11
565.6999999999999
 21
351.0
 31
0.0
  0
ARC
  5
7BCC9
330
1F
100
AcDbEntity
  8
AM_0
100
AcDbCircle
 10
604.4999999999999
 20
298.0
 30
0.0
 40
11.0
100
AcDbArc
 50
233.9619170000257
 51
306.0380829999743
  0
LINE
  5
7BCCA
330
1F
100
AcDbEntity
  8
AM_0
100
AcDbLine
 10
627.2793820000002
 20
300.1413350000003
 30
0.0
 11
642.8322499999999
 21
342.8724910000001
 31
0.0
  0
LINE
  5
7BCCB
330
1F
100
AcDbEntity
  8
AM_0
100
AcDbLine
 10
624.1639129999998
 20
299.5640810000005
 30
0.0
 11
641.9050910000001
 21
341.3596809999999
 31
0.0
  0
ARC
  5
7BCCC
330
1F
100
AcDbEntity
  8
AM_0
100
AcDbCircle
 10
647.4281209999999
 20
339.0152940000007
 30
0.0
 40
6.0
100
AcDbArc
 50
94.09173600000322
 51
157.0000020000496
  0
LINE
  5
7BCCD
330
1F
100
AcDbEntity
  8
AM_0
100
AcDbLine
 10
622.1145679999999
 20
297.0162789999995
 30
0.0
 11
610.8684210000001
 21
289.0309859999998
 31
0.0
  0
ARC
  5
7BCCE
330
1F
100
AcDbEntity
  8
AM_0
100
AcDbCircle
 10
621.6412260000002
 20
302.1934560000009
 30
0.0
 40
6.0
100
AcDbArc
 50
300.0000000000103
 51
340.0000000000107
  0
ARC
  5
7BCCF
330
1F
100
AcDbEntity
  8
AM_0
100
AcDbCircle
 10
618.640883
 20
301.9084679999996
 30
0.0
 40
6.0
100
AcDbArc
 50
305.3765400000161
 51
337.0000000000008
  0
LINE
  5
7BCD0
330
1F
100
AcDbEntity
  8
AM_0
100
AcDbLine
 10
610.8621050000001
 20
289.0419249999995
 30
0.0
 11
624.6412260000002
 21
296.9973040000004
 31
0.0
  0
LINE
  5
7BCD1
330
1F
100
AcDbEntity
  8
AM_0
100
AcDbLine
 10
594.5000000000001
 20
344.7999999999993
 30
0.0
 11
594.5000000000001
 21
294.5743949999997
 31
0.0
  0
LINE
  5
7BCD2
330
1F
100
AcDbEntity
  8
AM_0
100
AcDbLine
 10
579.5
 20
344.7999999999993
 30
0.0
 11
579.5
 21
314.8373709999996
 31
0.0
  0
LINE
  5
7BCD3
330
1F
100
AcDbEntity
  8
AM_0
100
AcDbLine
 10
562.0
 20
347.2999999999993
 30
0.0
 11
562.0
 21
345.0
 31
0.0
  0
ARC
  5
7BCD4
330
1F
100
AcDbEntity
  8
AM_0
100
AcDbCircle
 10
565.6999999999999
 20
347.2999999999993
 30
0.0
 40
3.7
100
AcDbArc
 50
90.0
 51
180.0
  0
LINE
  5
7BCD5
330
1F
100
AcDbEntity
  8
AM_0
100
AcDbLine
 10
581.720617
 20
300.1413350000003
 30
0.0
 11
566.1677479999999
 21
342.8724920000004
 31
0.0
  0
LINE
  5
7BCD6
330
1F
100
AcDbEntity
  8
AM_0
100
AcDbLine
 10
584.8360870000002
 20
299.5640810000005
 30
0.0
 11
567.0949070000002
 21
341.3596809999999
 31
0.0
  0
ARC
  5
7BCD7
330
1F
100
AcDbEntity
  8
AM_0
100
AcDbCircle
 10
561.5718780000003
 20
339.0152940000007
 30
0.0
 40
6.0
100
AcDbArc
 50
22.99999999999926
 51
85.90826399999677
  0
LINE
  5
7BCD8
330
1F
100
AcDbEntity
  8
AM_0
100
AcDbLine
 10
586.8854310000002
 20
297.0162789999995
 30
0.0
 11
598.131578
 21
289.0309859999998
 31
0.0
  0
ARC
  5
7BCD9
330
1F
100
AcDbEntity
  8
AM_0
100
AcDbCircle
 10
587.358773
 20
302.1934560000009
 30
0.0
 40
6.0
100
AcDbArc
 50
199.9999999999892
 51
239.9999999999897
  0
ARC
  5
7BCDA
330
1F
100
AcDbEntity
  8
AM_0
100
AcDbCircle
 10
590.3591160000002
 20
301.9084679999996
 30
0.0
 40
6.0
100
AcDbArc
 50
202.9999999999993
 51
234.6234599999839
  0
LINE
  5
7BCDB
330
1F
100
AcDbEntity
  8
AM_0
100
AcDbLine
 10
598.137894
 20
289.0419249999995
 30
0.0
 11
584.358773
 21
296.9973040000004
 31
0.0
  0
ARC
  5
7BCDC
330
1F
100
AcDbEntity
  8
AM_0
100
AcDbCircle
 10
591.5
 20
344.7999999999993
 30
0.0
 40
3.0
100
AcDbArc
 50
0.0
 51
90.0
  0
ARC
  5
7BCDD
330
1F
100
AcDbEntity
  8
AM_0
100
AcDbCircle
 10
576.5000000000001
 20
344.7999999999993
 30
0.0
 40
3.0
100
AcDbArc
 50
0.0
 51
90.0
  0
CIRCLE
  5
7BCDF
330
1F
100
AcDbEntity
  8
AM_0
100
AcDbCircle
 10
604.4999999999999
 20
298.0
 30
0.0
 40
7.5
  0
CIRCLE
  5
7BCE1
330
1F
100
AcDbEntity
  8
AM_0
100
AcDbCircle
 10
604.4999999999999
 20
298.0
 30
0.0
 40
6.5
  0
ARC
  5
7BCE2
330
1F
100
AcDbEntity
  8
AM_0
100
AcDbCircle
 10
604.4999999999999
 20
298.0
 30
0.0
 40
25.0
100
AcDbArc
 50
165.7846070000091
 51
14.21539699999518
  0
ARC
  5
7BCE3
330
1F
100
AcDbEntity
  8
AM_0
100
AcDbCircle
 10
617.4999999999999
 20
344.7999999999993
 30
0.0
 40
3.0
100
AcDbArc
 50
90.0
 51
180.0
  0
ARC
  5
7BCE4
330
1F
100
AcDbEntity
  8
AM_0
100
AcDbCircle
 10
632.5
 20
344.7999999999993
 30
0.0
 40
3.0
100
AcDbArc
 50
90.0
 51
180.0
  0
LINE
  5
7BCE5
330
1F
100
AcDbEntity
  8
AM_0
100
AcDbLine
 10
753.0
 20
347.2999999999993
 30
0.0
 11
753.0
 21
299.7062210000004
 31
0.0
  0
ARC
  5
7BCE6
330
1F
100
AcDbEntity
  8
AM_0
100
AcDbCircle
 10
749.3000000000002
 20
347.2999999999993
 30
0.0
 40
3.7
100
AcDbArc
 50
0.0
 51
90.0
  0
LINE
  5
7BCE7
330
1F
100
AcDbEntity
  8
AM_0
100
AcDbLine
 10
749.3000000000002
 20
351.0
 30
0.0
 11
698.6999999999998
 21
351.0
 31
0.0
  0
LINE
  5
7BCE8
330
1F
100
AcDbEntity
  8
AM_0
100
AcDbLine
 10
744.0
 20
345.0
 30
0.0
 11
704.0
 21
345.0
 31
0.0
  0
LINE
  5
7BCE9
330
1F
100
AcDbEntity
  8
AM_0
100
AcDbLine
 10
742.4999999999999
 20
287.0
 30
0.0
 11
745.6999999999998
 21
287.0
 31
0.0
  0
ARC
  5
7BCEA
330
1F
100
AcDbEntity
  8
AM_0
100
AcDbCircle
 10
743.0
 20
335.0501260000001
 30
0.0
 40
10.0
100
AcDbArc
 50
0.0
 51
84.26083000003877
  0
ARC
  5
7BCEB
330
1F
100
AcDbEntity
  8
AM_0
100
AcDbCircle
 10
741.8000000000001
 20
337.3084469999994
 30
0.0
 40
8.0
100
AcDbArc
 50
0.0
 51
74.03798599999129
  0
LINE
  5
7BCEC
330
1F
100
AcDbEntity
  8
AM_0
100
AcDbLine
 10
742.4999999999999
 20
345.0
 30
0.0
 11
742.4999999999999
 21
287.0
 31
0.0
  0
LINE
  5
7BCED
330
1F
100
AcDbEntity
  8
AM_0
100
AcDbLine
 10
749.8000000000001
 20
337.3084469999994
 30
0.0
 11
749.8000000000001
 21
301.0711969999993
 31
0.0
  0
ARC
  5
7BCEE
330
1F
100
AcDbEntity
  8
AM_0
100
AcDbCircle
 10
750.6999999999997
 20
288.8672249999999
 30
0.0
 40
5.0
100
AcDbArc
 50
133.7981669999823
 51
180.0
  0
ARC
  5
7BCEF
330
1F
100
AcDbEntity
  8
AM_0
100
AcDbCircle
 10
748.5
 20
289.8056460000007
 30
0.0
 40
6.0
100
AcDbArc
 50
133.7981669999823
 51
180.0
  0
LINE
  5
7BCF0
330
1F
100
AcDbEntity
  8
AM_0
100
AcDbLine
 10
744.3472790000001
 20
294.1363409999994
 30
0.0
 11
748.5684799999999
 21
298.1840670000001
 31
0.0
  0
LINE
  5
7BCF1
330
1F
100
AcDbEntity
  8
AM_0
100
AcDbLine
 10
745.6999999999998
 20
288.8672249999999
 30
0.0
 11
745.6999999999998
 21
287.0
 31
0.0
  0
LINE
  5
7BCF2
330
1F
100
AcDbEntity
  8
AM_0
100
AcDbLine
 10
695.0
 20
347.2999999999993
 30
0.0
 11
695.0
 21
299.7062210000004
 31
0.0
  0
ARC
  5
7BCF3
330
1F
100
AcDbEntity
  8
AM_0
100
AcDbCircle
 10
698.6999999999998
 20
347.2999999999993
 30
0.0
 40
3.7
100
AcDbArc
 50
90.0
 51
180.0
  0
LINE
  5
7BCF4
330
1F
100
AcDbEntity
  8
AM_0
100
AcDbLine
 10
705.4999999999999
 20
287.0
 30
0.0
 11
702.3000000000002
 21
287.0
 31
0.0
  0
ARC
  5
7BCF5
330
1F
100
AcDbEntity
  8
AM_0
100
AcDbCircle
 10
705.0
 20
335.0501260000001
 30
0.0
 40
10.0
100
AcDbArc
 50
95.7391699999612
 51
180.0
  0
ARC
  5
7BCF6
330
1F
100
AcDbEntity
  8
AM_0
100
AcDbCircle
 10
706.1999999999998
 20
337.3084469999994
 30
0.0
 40
8.0
100
AcDbArc
 50
105.9620140000087
 51
180.0
  0
LINE
  5
7BCF7
330
1F
100
AcDbEntity
  8
AM_0
100
AcDbLine
 10
705.4999999999999
 20
345.0
 30
0.0
 11
705.4999999999999
 21
287.0
 31
0.0
  0
LINE
  5
7BCF8
330
1F
100
AcDbEntity
  8
AM_0
100
AcDbLine
 10
698.1999999999998
 20
337.3084469999994
 30
0.0
 11
698.1999999999998
 21
301.0711969999993
 31
0.0
  0
ARC
  5
7BCF9
330
1F
100
AcDbEntity
  8
AM_0
100
AcDbCircle
 10
699.0
 20
299.7062210000004
 30
0.0
 40
4.0
100
AcDbArc
 50
180.0
 51
226.2018330000177
  0
ARC
  5
7BCFA
330
1F
100
AcDbEntity
  8
AM_0
100
AcDbCircle
 10
702.1999999999998
 20
301.0711969999993
 30
0.0
 40
4.0
100
AcDbArc
 50
180.0
 51
226.2018330000177
  0
ARC
  5
7BCFB
330
1F
100
AcDbEntity
  8
AM_0
100
AcDbCircle
 10
697.3000000000001
 20
288.8672249999999
 30
0.0
 40
5.0
100
AcDbArc
 50
0.0
 51
46.20183300001772
  0
ARC
  5
7BCFC
330
1F
100
AcDbEntity
  8
AM_0
100
AcDbCircle
 10
699.5
 20
289.8056460000007
 30
0.0
 40
6.0
100
AcDbArc
 50
0.0
 51
46.20183300001772
  0
LINE
  5
7BCFD
330
1F
100
AcDbEntity
  8
AM_0
100
AcDbLine
 10
703.65272
 20
294.1363409999994
 30
0.0
 11
699.4315189999997
 21
298.1840670000001
 31
0.0
  0
LINE
  5
7BCFE
330
1F
100
AcDbEntity
  8
AM_0
100
AcDbLine
 10
700.7606
 20
292.4761369999997
 30
0.0
 11
696.2315189999999
 21
296.8190909999994
 31
0.0
  0
LINE
  5
7BCFF
330
1F
100
AcDbEntity
  8
AM_0
100
AcDbLine
 10
702.3000000000002
 20
288.8672249999999
 30
0.0
 11
702.3000000000002
 21
287.0
 31
0.0
  0
LINE
  5
7BD02
330
1F
100
AcDbEntity
  8
AM_0
100
AcDbLine
 10
698.8000000000002
 20
291.5
 30
0.0
 11
699.8000000000001
 21
290.5
 31
0.0
  0
LINE
  5
7BD03
330
1F
100
AcDbEntity
  8
AM_0
100
AcDbLine
 10
698.8000000000002
 20
294.3561649999992
 30
0.0
 11
698.8000000000002
 21
291.5
 31
0.0
  0
LINE
  5
7BD04
330
1F
100
AcDbEntity
  8
AM_0
100
AcDbLine
 10
699.8000000000001
 20
293.3972610000001
 30
0.0
 11
699.8000000000001
 21
290.5
 31
0.0
  0
LINE
  5
7BD05
330
1F
100
AcDbEntity
  8
AM_0
100
AcDbLine
 10
702.0258899999999
 20
290.5
 30
0.0
 11
699.8000000000001
 21
290.5
 31
0.0
  0
LINE
  5
7BD06
330
1F
100
AcDbEntity
  8
AM_0
100
AcDbLine
 10
702.0258899999999
 20
290.5
 30
0.0
 11
702.3000000000002
 21
290.5
 31
0.0
  0
LINE
  5
7BD07
330
1F
100
AcDbEntity
  8
AM_0
100
AcDbLine
 10
608.5000009999999
 20
469.2999999999992
 30
0.0
 11
608.5000009999999
 21
469.1000000000003
 31
0.0
  0
LINE
  5
7BD08
330
1F
100
AcDbEntity
  8
AM_0
100
AcDbLine
 10
607.5000009999999
 20
470.2999999999993
 30
0.0
 11
608.5000009999999
 21
469.2999999999992
 31
0.0
  0
LINE
  5
7BD09
330
1F
100
AcDbEntity
  8
AM_0
100
AcDbLine
 10
607.5000009999999
 20
470.2999999999993
 30
0.0
 11
601.500001
 21
470.2999999999993
 31
0.0
  0
LINE
  5
7BD0A
330
1F
100
AcDbEntity
  8
AM_0
100
AcDbLine
 10
608.5000009999999
 20
469.2999999999992
 30
0.0
 11
600.5000009999999
 21
469.2999999999992
 31
0.0
  0
LINE
  5
7BD0B
330
1F
100
AcDbEntity
  8
AM_0
100
AcDbLine
 10
600.5000009999999
 20
469.2999999999992
 30
0.0
 11
600.5000009999999
 21
469.1000000000003
 31
0.0
  0
LINE
  5
7BD0C
330
1F
100
AcDbEntity
  8
AM_0
100
AcDbLine
 10
601.500001
 20
470.2999999999993
 30
0.0
 11
600.5000009999999
 21
469.2999999999992
 31
0.0
  0
LINE
  5
7BD0D
330
1F
100
AcDbEntity
  8
AM_0
100
AcDbLine
 10
599.750001
 20
469.1000000000003
 30
0.0
 11
609.2500009999999
 21
469.1000000000003
 31
0.0
  0
LINE
  5
7BD0E
330
1F
100
AcDbEntity
  8
AM_0
100
AcDbLine
 10
598.500001
 20
461.7000000000007
 30
0.0
 11
610.5000009999998
 21
461.7000000000007
 31
0.0
  0
LINE
  5
7BD0F
330
1F
100
AcDbEntity
  8
AM_0
100
AcDbLine
 10
599.750001
 20
469.1000000000003
 30
0.0
 11
598.000001
 21
467.57013
 31
0.0
  0
LINE
  5
7BD10
330
1F
100
AcDbEntity
  8
AM_0
100
AcDbLine
 10
598.000001
 20
462.2000000000006
 30
0.0
 11
598.000001
 21
467.57013
 31
0.0
  0
ARC
  5
7BD11
330
1F
100
AcDbEntity
  8
AM_0
100
AcDbCircle
 10
601.250001
 20
468.7015620000002
 30
0.0
 40
7.001563
100
AcDbArc
 50
242.3426979999917
 51
297.6573020000083
  0
ARC
  5
7BD12
330
1F
100
AcDbEntity
  8
AM_0
100
AcDbCircle
 10
601.250001
 20
463.4291659999998
 30
0.0
 40
4.270833
100
AcDbArc
 50
40.44971900000326
 51
139.5502809999967
  0
LINE
  5
7BD13
330
1F
100
AcDbEntity
  8
AM_0
100
AcDbLine
 10
604.5000009999998
 20
462.5
 30
0.0
 11
604.5000009999998
 21
466.2000000000007
 31
0.0
  0
ARC
  5
7BD14
330
1F
100
AcDbEntity
  8
AM_0
100
AcDbCircle
 10
598.500001
 20
462.2000000000006
 30
0.0
 40
0.5
100
AcDbArc
 50
180.0
 51
270.0
  0
LINE
  5
7BD15
330
1F
100
AcDbEntity
  8
AM_0
100
AcDbLine
 10
609.2500009999999
 20
469.1000000000003
 30
0.0
 11
611.0000009999999
 21
467.57013
 31
0.0
  0
LINE
  5
7BD16
330
1F
100
AcDbEntity
  8
AM_0
100
AcDbLine
 10
611.0000009999999
 20
462.2000000000006
 30
0.0
 11
611.0000009999999
 21
467.57013
 31
0.0
  0
ARC
  5
7BD17
330
1F
100
AcDbEntity
  8
AM_0
100
AcDbCircle
 10
607.7500009999998
 20
468.7015620000002
 30
0.0
 40
7.001563
100
AcDbArc
 50
242.3426979999917
 51
297.6573020000083
  0
ARC
  5
7BD18
330
1F
100
AcDbEntity
  8
AM_0
100
AcDbCircle
 10
607.7500009999998
 20
463.4291659999998
 30
0.0
 40
4.270833
100
AcDbArc
 50
40.44971900000326
 51
139.5502809999967
  0
ARC
  5
7BD19
330
1F
100
AcDbEntity
  8
AM_0
100
AcDbCircle
 10
610.5000009999998
 20
462.2000000000006
 30
0.0
 40
0.5
100
AcDbArc
 50
270.0
 51
0.0
  0
LINE
  5
7BD1A
330
1F
100
AcDbEntity
  8
AM_0
100
AcDbLine
 10
601.500001
 20
469.1000000000003
 30
0.0
 11
601.500001
 21
470.2974109999995
 31
0.0
  0
LINE
  5
7BD1B
330
1F
100
AcDbEntity
  8
AM_0
100
AcDbLine
 10
607.5000009999999
 20
469.1000000000003
 30
0.0
 11
607.5000009999999
 21
470.2974109999995
 31
0.0
  0
ARC
  5
7BD1C
330
1F
100
AcDbEntity
  8
AM_0
100
AcDbCircle
 10
749.0
 20
299.7062210000004
 30
0.0
 40
4.0
100
AcDbArc
 50
313.7981669999823
 51
0.0
  0
ARC
  5
7BD1D
330
1F
100
AcDbEntity
  8
AM_0
100
AcDbCircle
 10
745.8000000000001
 20
301.0711969999993
 30
0.0
 40
4.0
100
AcDbArc
 50
313.7981669999823
 51
0.0
  0
LINE
  5
7BD1E
330
1F
100
AcDbEntity
  8
AM_0
100
AcDbLine
 10
747.239399
 20
292.4761369999997
 30
0.0
 11
751.7684799999997
 21
296.8190909999994
 31
0.0
  0
LINE
  5
7BD1F
330
1F
100
AcDbEntity
  8
AM_0
100
AcDbLine
 10
753.3000000000002
 20
294.0
 30
0.0
 11
753.0999999999998
 21
294.0
 31
0.0
  0
LINE
  5
7BD20
330
1F
100
AcDbEntity
  8
AM_0
100
AcDbLine
 10
754.3000000000001
 20
295.0
 30
0.0
 11
753.3000000000002
 21
294.0
 31
0.0
  0
LINE
  5
7BD21
330
1F
100
AcDbEntity
  8
AM_0
100
AcDbLine
 10
754.3000000000001
 20
295.0
 30
0.0
 11
754.3000000000001
 21
301.0
 31
0.0
  0
LINE
  5
7BD22
330
1F
100
AcDbEntity
  8
AM_0
100
AcDbLine
 10
753.3000000000002
 20
294.0
 30
0.0
 11
753.3000000000002
 21
302.0
 31
0.0
  0
LINE
  5
7BD23
330
1F
100
AcDbEntity
  8
AM_0
100
AcDbLine
 10
753.3000000000002
 20
302.0
 30
0.0
 11
753.0999999999998
 21
302.0
 31
0.0
  0
LINE
  5
7BD24
330
1F
100
AcDbEntity
  8
AM_0
100
AcDbLine
 10
754.3000000000001
 20
301.0
 30
0.0
 11
753.3000000000002
 21
302.0
 31
0.0
  0
LINE
  5
7BD25
330
1F
100
AcDbEntity
  8
AM_0
100
AcDbLine
 10
754.3000000000001
 20
295.0
 30
0.0
 11
753.0999999999998
 21
295.0
 31
0.0
  0
LINE
  5
7BD26
330
1F
100
AcDbEntity
  8
AM_0
100
AcDbLine
 10
754.3000000000001
 20
301.0
 30
0.0
 11
753.0999999999998
 21
301.0
 31
0.0
  0
LINE
  5
7BD27
330
1F
100
AcDbEntity
  8
AM_0
100
AcDbLine
 10
753.0999999999998
 20
302.75
 30
0.0
 11
753.0999999999998
 21
293.25
 31
0.0
  0
ARC
  5
7BD28
330
1F
100
AcDbEntity
  8
AM_0
100
AcDbCircle
 10
746.2555560000001
 20
298.0
 30
0.0
 40
5.444443999999999
100
AcDbArc
 50
316.4264209999763
 51
344.7743489999709
  0
LINE
  5
7BD29
330
1F
100
AcDbEntity
  8
AM_0
100
AcDbLine
 10
751.9000000000001
 20
296.9512250000007
 30
0.0
 11
751.9000000000001
 21
296.3292689999999
 31
0.0
  0
LINE
  5
7BD2A
330
1F
100
AcDbEntity
  8
AM_0
100
AcDbLine
 10
753.0999999999998
 20
301.1367690000006
 30
0.0
 11
753.0
 21
301.0224240000007
 31
0.0
  0
LINE
  5
7BD2B
330
1F
100
AcDbEntity
  8
AM_0
100
AcDbLine
 10
753.0999999999998
 20
302.75
 30
0.0
 11
753.0
 21
302.8643890000003
 31
0.0
  0
ARC
  5
7BD2C
330
1F
100
AcDbEntity
  8
AM_0
100
AcDbCircle
 10
749.7763890000001
 20
292.3708349999997
 30
0.0
 40
1.923611
100
AcDbArc
 50
282.7217559999714
 51
77.27824400002856
  0
LINE
  5
7BD2D
330
1F
100
AcDbEntity
  8
AM_0
100
AcDbLine
 10
753.0999999999998
 20
294.8632309999993
 30
0.0
 11
751.9618129999998
 21
296.1646920000003
 31
0.0
  0
ARC
  5
7BD2E
330
1F
100
AcDbEntity
  8
AM_0
100
AcDbCircle
 10
752.1500000000001
 20
296.3292689999999
 30
0.0
 40
0.25
100
AcDbArc
 50
180.0
 51
221.17116899999
  0
LINE
  5
7BD2F
330
1F
100
AcDbEntity
  8
AM_0
100
AcDbLine
 10
753.0999999999998
 20
293.25
 30
0.0
 11
751.2246199999999
 21
291.1047749999998
 31
0.0
  0
LINE
  5
7BD30
330
1F
100
AcDbEntity
  8
AM_0
100
AcDbLine
 10
750.1999999999998
 20
294.2472230000003
 30
0.0
 11
749.086389
 21
294.2472230000003
 31
0.0
  0
LINE
  5
7BD31
330
1F
100
AcDbEntity
  8
AM_0
100
AcDbLine
 10
750.1999999999998
 20
290.4944460000006
 30
0.0
 11
746.4999999999999
 21
290.4944460000006
 31
0.0
  0
ARC
  5
7BD32
330
1F
100
AcDbEntity
  8
AM_0
100
AcDbCircle
 10
748.3005210000001
 20
292.3708349999997
 30
0.0
 40
2.600521
100
AcDbArc
 50
213.8751070000156
 51
226.1820449999757
  0
ARC
  5
7BD40
330
1F
100
AcDbEntity
  8
AM_0
100
AcDbCircle
 10
715.0
 20
363.0
 30
0.0
 40
90.0
100
AcDbArc
 50
266.416678000001
 51
273.583321999999
  0
ARC
  5
7BD41
330
1F
100
AcDbEntity
  8
AM_0
100
AcDbCircle
 10
709.4999999999999
 20
275.1720430000005
 30
0.0
 40
2.0
100
AcDbArc
 50
180.0
 51
266.416678000001
  0
ARC
  5
7BD42
330
1F
100
AcDbEntity
  8
AM_0
100
AcDbCircle
 10
720.5
 20
275.1720430000005
 30
0.0
 40
2.0
100
AcDbArc
 50
273.583321999999
 51
0.0
  0
ARC
  5
7BD43
330
1F
100
AcDbEntity
  8
AM_0
100
AcDbCircle
 10
738.4999999999999
 20
275.1720430000005
 30
0.0
 40
2.0
100
AcDbArc
 50
273.583321999999
 51
0.0
  0
ARC
  5
7BD44
330
1F
100
AcDbEntity
  8
AM_0
100
AcDbCircle
 10
733.0
 20
363.0
 30
0.0
 40
90.0
100
AcDbArc
 50
266.416678000001
 51
273.583321999999
  0
ARC
  5
7BD45
330
1F
100
AcDbEntity
  8
AM_0
100
AcDbCircle
 10
727.5
 20
275.1720430000005
 30
0.0
 40
2.0
100
AcDbArc
 50
180.0
 51
266.416678000001
  0
LINE
  5
7BD47
330
1F
100
AcDbEntity
  8
AM_0
100
AcDbLine
 10
707.5
 20
292.1000000000004
 30
0.0
 11
706.3000000000002
 21
292.1000000000004
 31
0.0
  0
LINE
  5
7BD48
330
1F
100
AcDbEntity
  8
AM_0
100
AcDbLine
 10
706.0
 20
292.3999999999996
 30
0.0
 11
706.3000000000002
 21
292.1000000000004
 31
0.0
  0
LINE
  5
7BD49
330
1F
100
AcDbEntity
  8
AM_0
100
AcDbLine
 10
705.4999999999999
 20
294.0
 30
0.0
 11
706.0
 21
294.0
 31
0.0
  0
LINE
  5
7BD4B
330
1F
100
AcDbEntity
  8
AM_0
100
AcDbLine
 10
722.5
 20
292.1000000000004
 30
0.0
 11
723.6999999999998
 21
292.1000000000004
 31
0.0
  0
LINE
  5
7BD4C
330
1F
100
AcDbEntity
  8
AM_0
100
AcDbLine
 10
724.0
 20
292.3999999999996
 30
0.0
 11
723.6999999999998
 21
292.1000000000004
 31
0.0
  0
LINE
  5
7BD4E
330
1F
100
AcDbEntity
  8
AM_0
100
AcDbLine
 10
725.4999999999999
 20
292.1000000000004
 30
0.0
 11
724.3000000000002
 21
292.1000000000004
 31
0.0
  0
LINE
  5
7BD4F
330
1F
100
AcDbEntity
  8
AM_0
100
AcDbLine
 10
724.0
 20
292.3999999999996
 30
0.0
 11
724.3000000000002
 21
292.1000000000004
 31
0.0
  0
LINE
  5
7BD51
330
1F
100
AcDbEntity
  8
AM_0
100
AcDbLine
 10
740.5
 20
292.1000000000004
 30
0.0
 11
741.6999999999998
 21
292.1000000000004
 31
0.0
  0
LINE
  5
7BD52
330
1F
100
AcDbEntity
  8
AM_0
100
AcDbLine
 10
742.0
 20
292.3999999999996
 30
0.0
 11
741.6999999999998
 21
292.1000000000004
 31
0.0
  0
LINE
  5
7BD53
330
1F
100
AcDbEntity
  8
AM_0
100
AcDbLine
 10
742.4999999999999
 20
294.0
 30
0.0
 11
742.0
 21
294.0
 31
0.0
  0
LINE
  5
7BD58
330
1F
100
AcDbEntity
  8
AM_0
100
AcDbLine
 10
707.5000000000002
 20
275.1720430000005
 30
0.0
 11
707.5
 21
320.8279569999995
 31
0.0
  0
LINE
  5
7BD59
330
1F
100
AcDbEntity
  8
AM_0
100
AcDbLine
 10
722.5
 20
320.8279569999995
 30
0.0
 11
722.4999999999997
 21
275.1720430000005
 31
0.0
  0
LINE
  5
7BD5A
330
1F
100
AcDbEntity
  8
AM_0
100
AcDbLine
 10
740.5
 20
275.1720430000005
 30
0.0
 11
740.5
 21
320.8279569999995
 31
0.0
  0
LINE
  5
7BD5B
330
1F
100
AcDbEntity
  8
AM_0
100
AcDbLine
 10
725.4999999999999
 20
320.8279569999995
 30
0.0
 11
725.4999999999998
 21
275.1720430000005
 31
0.0
  0
ARC
  5
7BD5C
330
1F
100
AcDbEntity
  8
AM_0
100
AcDbCircle
 10
715.0
 20
233.0
 30
0.0
 40
90.0
100
AcDbArc
 50
86.41667800000101
 51
93.58332199999898
  0
ARC
  5
7BD5D
330
1F
100
AcDbEntity
  8
AM_0
100
AcDbCircle
 10
709.4999999999999
 20
320.8279569999995
 30
0.0
 40
2.0
100
AcDbArc
 50
93.58332199999898
 51
180.0
  0
ARC
  5
7BD5E
330
1F
100
AcDbEntity
  8
AM_0
100
AcDbCircle
 10
720.5
 20
320.8279569999995
 30
0.0
 40
2.0
100
AcDbArc
 50
0.0
 51
86.41667800000101
  0
ARC
  5
7BD5F
330
1F
100
AcDbEntity
  8
AM_0
100
AcDbCircle
 10
738.4999999999999
 20
320.8279569999995
 30
0.0
 40
2.0
100
AcDbArc
 50
0.0
 51
86.41667800000101
  0
ARC
  5
7BD60
330
1F
100
AcDbEntity
  8
AM_0
100
AcDbCircle
 10
733.0
 20
233.0
 30
0.0
 40
90.0
100
AcDbArc
 50
86.41667800000101
 51
93.58332199999898
  0
ARC
  5
7BD61
330
1F
100
AcDbEntity
  8
AM_0
100
AcDbCircle
 10
727.5
 20
320.8279569999995
 30
0.0
 40
2.0
100
AcDbArc
 50
93.58332199999898
 51
180.0
  0
LINE
  5
7BD62
330
1F
100
AcDbEntity
  8
AM_0
100
AcDbLine
 10
706.0
 20
303.6000000000004
 30
0.0
 11
705.9999999999997
 21
292.3999999999996
 31
0.0
  0
LINE
  5
7BD63
330
1F
100
AcDbEntity
  8
AM_0
100
AcDbLine
 10
707.5
 20
303.8999999999997
 30
0.0
 11
706.3000000000002
 21
303.8999999999997
 31
0.0
  0
LINE
  5
7BD64
330
1F
100
AcDbEntity
  8
AM_0
100
AcDbLine
 10
706.0
 20
303.6000000000004
 30
0.0
 11
706.3000000000002
 21
303.8999999999997
 31
0.0
  0
LINE
  5
7BD65
330
1F
100
AcDbEntity
  8
AM_0
100
AcDbLine
 10
705.4999999999999
 20
302.0
 30
0.0
 11
706.0
 21
302.0
 31
0.0
  0
LINE
  5
7BD66
330
1F
100
AcDbEntity
  8
AM_0
100
AcDbLine
 10
724.0
 20
303.6000000000004
 30
0.0
 11
724.0
 21
292.3999999999996
 31
0.0
  0
LINE
  5
7BD67
330
1F
100
AcDbEntity
  8
AM_0
100
AcDbLine
 10
722.5
 20
303.8999999999997
 30
0.0
 11
723.6999999999998
 21
303.8999999999997
 31
0.0
  0
LINE
  5
7BD68
330
1F
100
AcDbEntity
  8
AM_0
100
AcDbLine
 10
724.0
 20
303.6000000000004
 30
0.0
 11
723.6999999999998
 21
303.8999999999997
 31
0.0
  0
LINE
  5
7BD69
330
1F
100
AcDbEntity
  8
AM_0
100
AcDbLine
 10
724.0
 20
303.6000000000004
 30
0.0
 11
724.0
 21
292.3999999999996
 31
0.0
  0
LINE
  5
7BD6A
330
1F
100
AcDbEntity
  8
AM_0
100
AcDbLine
 10
725.4999999999999
 20
303.8999999999997
 30
0.0
 11
724.3000000000002
 21
303.8999999999997
 31
0.0
  0
LINE
  5
7BD6B
330
1F
100
AcDbEntity
  8
AM_0
100
AcDbLine
 10
724.0
 20
303.6000000000004
 30
0.0
 11
724.3000000000002
 21
303.8999999999997
 31
0.0
  0
LINE
  5
7BD6C
330
1F
100
AcDbEntity
  8
AM_0
100
AcDbLine
 10
742.0
 20
303.6000000000004
 30
0.0
 11
741.9999999999998
 21
292.3999999999987
 31
0.0
  0
LINE
  5
7BD6D
330
1F
100
AcDbEntity
  8
AM_0
100
AcDbLine
 10
740.5
 20
303.8999999999997
 30
0.0
 11
741.6999999999998
 21
303.8999999999997
 31
0.0
  0
LINE
  5
7BD6E
330
1F
100
AcDbEntity
  8
AM_0
100
AcDbLine
 10
742.0
 20
303.6000000000004
 30
0.0
 11
741.6999999999998
 21
303.8999999999997
 31
0.0
  0
LINE
  5
7BD6F
330
1F
100
AcDbEntity
  8
AM_0
100
AcDbLine
 10
742.4999999999999
 20
302.0
 30
0.0
 11
742.0
 21
302.0
 31
0.0
  0
LINE
  5
7BD70
330
1F
100
AcDbEntity
  8
AM_0
100
AcDbLine
 10
706.3000000000002
 20
303.8999999999997
 30
0.0
 11
706.3000000000004
 21
292.1000000000004
 31
0.0
  0
LINE
  5
7BD71
330
1F
100
AcDbEntity
  8
AM_0
100
AcDbLine
 10
723.6999999999998
 20
303.8999999999997
 30
0.0
 11
723.6999999999998
 21
292.1000000000004
 31
0.0
  0
LINE
  5
7BD72
330
1F
100
AcDbEntity
  8
AM_0
100
AcDbLine
 10
724.3000000000002
 20
303.8999999999997
 30
0.0
 11
724.3000000000003
 21
292.1000000000013
 31
0.0
  0
LINE
  5
7BD73
330
1F
100
AcDbEntity
  8
AM_0
100
AcDbLine
 10
741.6999999999998
 20
303.8999999999997
 30
0.0
 11
741.6999999999998
 21
292.1000000000004
 31
0.0
  0
LWPOLYLINE
  5
7C1F5
330
1F
100
AcDbEntity
  8
waku
100
AcDbPolyline
 90
        4
 70
     1
 43
0.0
 10
23.0
 20
577.0
 10
817.0
 20
577.0
 10
817.0
 20
17.0
 10
23.0
 20
17.0
1001
GENIUS_GENREC_14
1002
{
1000
PYDIR
1011
23.0
1021
17.0
1031
0.0
1002
}
1002
{
1000
PXDIR
1011
817.0
1021
577.0
1031
0.0
1002
}
1002
{
1000
PORI
1011
23.0
1021
577.0
1031
0.0
1002
}
1002
{
1000
PINS
1011
23.0
1021
577.0
1031
0.0
1002
}
1002
{
1000
PINS2
1011
817.0
1021
17.0
1031
0.0
1002
}
1002
{
1000
C
1070
     1
1002
}
1001
GENIUS_GENODEF_13
1002
{
1000
HIER
1070
     0
1002
}
1002
{
1000
MANEDIT
1070
     0
1002
}
1002
{
1000
NOSEL
1070
     0
1002
}
1002
{
1000
BEHIND
1070
     0
1002
}
1002
{
1000
OTHER
1070
     0
1002
}
1002
{
1000
REACTOR
1002
}
1001
GENIUS_GENOBJ-N-REC_13
1002
{
1000
OWNER
1000
GEN
1002
}
  0
LWPOLYLINE
  5
7C1F6
330
1F
100
AcDbEntity
  8
size
100
AcDbPolyline
 90
        4
 70
     1
 43
0.0
 10
0.0
 20
594.0
 10
840.0
 20
594.0
 10
840.0
 20
0.0
 10
0.0
 20
0.0
1001
GENIUS_GENREC_14
1002
{
1000
PYDIR
1011
0.0
1021
0.0
1031
0.0
1002
}
1002
{
1000
PXDIR
1011
840.0
1021
594.0
1031
0.0
1002
}
1002
{
1000
PORI
1011
0.0
1021
594.0
1031
0.0
1002
}
1002
{
1000
PINS
1011
0.0
1021
594.0
1031
0.0
1002
}
1002
{
1000
PINS2
1011
840.0
1021
0.0
1031
0.0
1002
}
1002
{
1000
C
1070
     1
1002
}
1001
GENIUS_GENOBJ-N-REC_13
1002
{
1000
OWNER
1000
GEN
1002
}
1001
GENIUS_GENODEF_13
1002
{
1000
HIER
1070
     0
1002
}
1002
{
1000
MANEDIT
1070
     0
1002
}
1002
{
1000
NOSEL
1070
     0
1002
}
1002
{
1000
BEHIND
1070
     0
1002
}
1002
{
1000
OTHER
1070
     0
1002
}
1002
{
1000
REACTOR
1002
}
  0
LINE
  5
7C1F8
330
1F
100
AcDbEntity
  8
AM_0
100
AcDbLine
 10
23.0
 20
577.0
 30
0.0
 11
23.00000000000932
 21
433.0
 31
0.0
  0
LINE
  5
7C1F9
330
1F
100
AcDbEntity
  8
AM_0
100
AcDbLine
 10
23.0
 20
577.0
 30
0.0
 11
219.0
 21
577.0
 31
0.0
  0
LINE
  5
7C1FA
330
1F
100
AcDbEntity
  8
AM_0
100
AcDbLine
 10
219.0
 20
577.0
 30
0.0
 11
218.9999999999979
 21
433.0
 31
0.0
  0
LINE
  5
7C1FB
330
1F
100
AcDbEntity
  8
AM_0
100
AcDbLine
 10
62.99999999999636
 20
433.0
 30
0.0
 11
63.0
 21
577.0
 31
0.0
  0
LINE
  5
7C1FD
330
1F
100
AcDbEntity
  8
AM_5
100
AcDbLine
 10
22.99999999999954
 20
529.0
 30
0.0
 11
218.9999999999995
 21
529.0
 31
0.0
  0
MTEXT
  5
7C1FE
330
1F
100
AcDbEntity
  8
AM_6
100
AcDbMText
 10
43.0
 20
569.0
 30
0.0
 40
6.4
 41
40.0
 71
     5
 72
     5
  1
品　名
 73
     1
 44
1.0
1001
ACAD
1000
MTEXTBEGIN
1070
    73
1070
     1
1070
    44
1040
1.0
1070
    74
1070
     0
1000
MTEXTEND
  0
MTEXT
  5
7C1FF
330
1F
100
AcDbEntity
  8
AM_6
100
AcDbMText
 10
63.0
 20
569.0
 30
0.0
 40
6.4
 41
156.0
 71
     4
 72
     5
  1
　低床用双輪キャスター
 73
     1
 44
1.0
1001
ACAD
1000
MTEXTBEGIN
1070
    73
1070
     1
1070
    44
1040
1.0
1070
    74
1070
     0
1000
MTEXTEND
  0
MTEXT
  5
7C200
330
1F
100
AcDbEntity
  8
AM_6
100
AcDbMText
 10
43.0
 20
553.0
 30
0.0
 40
6.4
 41
40.0
 71
     5
 72
     5
  1
品　番
 73
     1
 44
1.0
1001
ACAD
1000
MTEXTBEGIN
1070
    73
1070
     1
1070
    44
1040
1.0
1070
    74
1070
     0
1000
MTEXTEND
  0
MTEXT
  5
7C201
330
1F
100
AcDbEntity
  8
AM_6
100
AcDbMText
 10
63.0
 20
553.0
 30
0.0
 40
6.4
 41
156.0
 71
     4
 72
     5
  1
　HJT/ HKT
 73
     1
 44
1.0
1001
ACAD
1000
MTEXTBEGIN
1070
    73
1070
     1
1070
    44
1040
1.0
1070
    74
1070
     0
1000
MTEXTEND
  0
MTEXT
  5
7C202
330
1F
100
AcDbEntity
  8
AM_6
100
AcDbMText
 10
42.99999999999954
 20
521.0
 30
0.0
 40
6.4
 41
40.0
 71
     5
 72
     5
  1
材　質
 73
     1
 44
1.0
1001
ACAD
1000
MTEXTBEGIN
1070
    73
1070
     1
1070
    44
1040
1.0
1070
    74
1070
     0
1000
MTEXTEND
  0
MTEXT
  5
7C203
330
1F
100
AcDbEntity
  8
AM_6
100
AcDbMText
 10
62.99999999999954
 20
521.0
 30
0.0
 40
6.4
 41
156.0
 71
     4
 72
     5
  1
　本体 ： スチール　（HJT、HKT）
 73
     1
 44
1.0
1001
ACAD
1000
MTEXTBEGIN
1070
    73
1070
     1
1070
    44
1040
1.0
1070
    74
1070
     0
1000
MTEXTEND
  0
LINE
  5
7C204
330
1F
100
AcDbEntity
  8
AM_5
100
AcDbLine
 10
22.99999999999909
 20
481.0
 30
0.0
 11
218.9999999999993
 21
481.0
 31
0.0
  0
MTEXT
  5
7C205
330
1F
100
AcDbEntity
  8
AM_6
100
AcDbMText
 10
42.99999999999909
 20
473.0
 30
0.0
 40
6.4
 41
40.0
 71
     5
 72
     5
  1
仕上げ
 73
     1
 44
1.0
1001
ACAD
1000
MTEXTBEGIN
1070
    73
1070
     1
1070
    44
1040
1.0
1070
    74
1070
     0
1000
MTEXTEND
  0
MTEXT
  5
7C206
330
1F
100
AcDbEntity
  8
AM_6
100
AcDbMText
 10
62.99999999999818
 20
473.0
 30
0.0
 40
6.4
 41
156.0
 71
     4
 72
     5
  1
　本体 ： 焼付塗装（ブラック）　（HJT、HKT）
 73
     1
 44
1.0
1001
ACAD
1000
MTEXTBEGIN
1070
    73
1070
     1
1070
    44
1040
1.0
1070
    74
1070
     0
1000
MTEXTEND
  0
LINE
  5
7C207
330
1F
100
AcDbEntity
  8
AM_5
100
AcDbLine
 10
23.00000000000682
 20
449.0
 30
0.0
 11
219.0000000000014
 21
449.0
 31
0.0
  0
LINE
  5
7C208
330
1F
100
AcDbEntity
  8
AM_5
100
AcDbLine
 10
62.99999999999818
 20
497.0
 30
0.0
 11
218.9999999999993
 21
497.0
 31
0.0
  0
MTEXT
  5
7C209
330
1F
100
AcDbEntity
  8
AM_6
100
AcDbMText
 10
62.99999999999909
 20
489.0
 30
0.0
 40
6.4
 41
156.0
 71
     4
 72
     5
  1
　キャスター ： モノマーキャスティングナイロン（ブルー）
 73
     1
 44
1.0
1001
ACAD
1000
MTEXTBEGIN
1070
    73
1070
     1
1070
    44
1040
1.0
1070
    74
1070
     0
1000
MTEXTEND
  0
MTEXT
  5
7F557
330
1F
100
AcDbEntity
  8
AM_6
100
AcDbMText
 10
62.99999999999909
 20
505.0
 30
0.0
 40
6.4
 41
156.0
 71
     4
 72
     5
  1
　        ステンレス　（SUHJT、SUHKT）
 73
     1
 44
1.0
1001
ACAD
1000
MTEXTBEGIN
1070
    73
1070
     1
1070
    44
1040
1.0
1070
    74
1070
     0
1000
MTEXTEND
  0
MTEXT
  5
7F558
330
1F
100
AcDbEntity
  8
AM_6
100
AcDbMText
 10
62.99999999999773
 20
457.0
 30
0.0
 40
6.4
 41
156.0
 71
     4
 72
     5
  1
　　　　　生地　（SUHJT、SUHKT）
 73
     1
 44
1.0
1001
ACAD
1000
MTEXTBEGIN
1070
    73
1070
     1
1070
    44
1040
1.0
1070
    74
1070
     0
1000
MTEXTEND
  0
LINE
  5
7FB32
330
1F
100
AcDbEntity
  8
AM_5
100
AcDbLine
 10
23.0
 20
561.0
 30
0.0
 11
219.0
 21
561.0
 31
0.0
  0
ARC
  5
7FB37
330
1F
100
AcDbEntity
  8
AM_3
370
     9
100
AcDbCircle
 10
325.0000000000001
 20
298.0
 30
0.0
 40
25.0
100
AcDbArc
 50
355.7812575765139
 51
135.1606945754511
  0
LINE
  5
7FB38
330
1F
100
AcDbEntity
  8
AM_7
370
     9
100
AcDbLine
 10
325.0000000000006
 20
267.0
 30
0.0
 11
325.0000000000006
 21
329.0
 31
0.0
1001
GENIUS_GENOBJ-N-CEN_13
1002
{
1000
OWNER
1000
GEN
1002
}
1001
GENIUS_GENODEF_13
1002
{
1000
HIER
1070
     0
1002
}
1002
{
1000
MANEDIT
1070
     0
1002
}
1002
{
1000
NOSEL
1070
     0
1002
}
1002
{
1000
BEHIND
1070
     0
1002
}
1002
{
1000
OTHER
1070
     0
1002
}
1002
{
1000
REACTOR
1002
}
1001
GENIUS_GENCEN_19
1002
{
1040
6.0
1002
}
  0
LINE
  5
7FB39
330
1F
100
AcDbEntity
  8
AM_7
370
     9
100
AcDbLine
 10
294.0000000000001
 20
298.0
 30
0.0
 11
356.0000000000001
 21
298.0
 31
0.0
1001
GENIUS_GENOBJ-N-CEN_13
1002
{
1000
OWNER
1000
GEN
1002
}
1001
GENIUS_GENODEF_13
1002
{
1000
HIER
1070
     0
1002
}
1002
{
1000
MANEDIT
1070
     0
1002
}
1002
{
1000
NOSEL
1070
     0
1002
}
1002
{
1000
BEHIND
1070
     0
1002
}
1002
{
1000
OTHER
1070
     0
1002
}
1002
{
1000
REACTOR
1002
}
1001
GENIUS_GENCEN_19
1002
{
1040
6.0
1002
}
  0
LINE
  5
7FB3A
330
1F
100
AcDbEntity
  8
AM_7
370
     9
100
AcDbLine
 10
343.0000000000001
 20
357.0
 30
0.0
 11
343.0000000000001
 21
297.9999999999991
 31
0.0
1001
GENIUS_GENOBJ-N-CEN_13
1002
{
1000
OWNER
1000
GEN
1002
}
1001
GENIUS_GENODEF_13
1002
{
1000
HIER
1070
     0
1002
}
1002
{
1000
MANEDIT
1070
     0
1002
}
1002
{
1000
NOSEL
1070
     0
1002
}
1002
{
1000
BEHIND
1070
     0
1002
}
1002
{
1000
OTHER
1070
     0
1002
}
1002
{
1000
REACTOR
1002
}
1001
GENIUS_GENCEN_19
1002
{
1040
6.0
1002
}
  0
LINE
  5
7FB3D
330
1F
100
AcDbEntity
  8
AM_7
370
     9
100
AcDbLine
 10
390.0000000000001
 20
440.0
 30
0.0
 11
296.0000000000001
 21
440.0
 31
0.0
1001
GENIUS_GENODEF_13
1002
{
1000
HIER
1070
     0
1002
}
1002
{
1000
MANEDIT
1070
     0
1002
}
1002
{
1000
NOSEL
1070
     0
1002
}
1002
{
1000
BEHIND
1070
     0
1002
}
1002
{
1000
OTHER
1070
     0
1002
}
1002
{
1000
REACTOR
1002
}
1001
GENIUS_GENOBJ-N-CEN_13
1002
{
1000
OWNER
1000
GEN
1002
}
1001
GENIUS_GENCEN_19
1002
{
1040
6.0
1002
}
  0
LINE
  5
7FB3F
330
1F
100
AcDbEntity
  8
AM_7
370
     9
100
AcDbLine
 10
343.0000000000001
 20
487.0
 30
0.0
 11
343.0000000000001
 21
393.0
 31
0.0
1001
GENIUS_GENODEF_13
1002
{
1000
HIER
1070
     0
1002
}
1002
{
1000
MANEDIT
1070
     0
1002
}
1002
{
1000
NOSEL
1070
     0
1002
}
1002
{
1000
BEHIND
1070
     0
1002
}
1002
{
1000
OTHER
1070
     0
1002
}
1002
{
1000
REACTOR
1002
}
1001
GENIUS_GENOBJ-N-CEN_13
1002
{
1000
OWNER
1000
GEN
1002
}
1001
GENIUS_GENCEN_19
1002
{
1040
6.0
1002
}
  0
LINE
  5
7FB40
330
1F
100
AcDbEntity
  8
AM_7
370
     9
100
AcDbLine
 10
364.7500000000001
 20
472.5
 30
0.0
 11
386.2500000000001
 21
472.5
 31
0.0
1001
GENIUS_GENODEF_13
1002
{
1000
HIER
1070
     0
1002
}
1002
{
1000
MANEDIT
1070
     0
1002
}
1002
{
1000
NOSEL
1070
     0
1002
}
1002
{
1000
BEHIND
1070
     0
1002
}
1002
{
1000
OTHER
1070
     0
1002
}
1002
{
1000
REACTOR
1002
}
1001
GENIUS_GENOBJ-N-CEN_13
1002
{
1000
OWNER
1000
GEN
1002
}
1001
GENIUS_GENCEN_19
1002
{
1040
6.0
1002
}
  0
LINE
  5
7FB41
330
1F
100
AcDbEntity
  8
AM_7
370
     9
100
AcDbLine
 10
375.5000000000001
 20
483.25
 30
0.0
 11
375.5000000000001
 21
461.7499999999999
 31
0.0
1001
GENIUS_GENODEF_13
1002
{
1000
HIER
1070
     0
1002
}
1002
{
1000
MANEDIT
1070
     0
1002
}
1002
{
1000
NOSEL
1070
     0
1002
}
1002
{
1000
BEHIND
1070
     0
1002
}
1002
{
1000
OTHER
1070
     0
1002
}
1002
{
1000
REACTOR
1002
}
1001
GENIUS_GENOBJ-N-CEN_13
1002
{
1000
OWNER
1000
GEN
1002
}
1001
GENIUS_GENCEN_19
1002
{
1040
6.0
1002
}
  0
LINE
  5
7FB42
330
1F
100
AcDbEntity
  8
AM_7
370
     9
100
AcDbLine
 10
359.7500000000001
 20
467.4999999999999
 30
0.0
 11
381.2500000000001
 21
467.4999999999999
 31
0.0
1001
GENIUS_GENODEF_13
1002
{
1000
HIER
1070
     0
1002
}
1002
{
1000
MANEDIT
1070
     0
1002
}
1002
{
1000
NOSEL
1070
     0
1002
}
1002
{
1000
BEHIND
1070
     0
1002
}
1002
{
1000
OTHER
1070
     0
1002
}
1002
{
1000
REACTOR
1002
}
1001
GENIUS_GENOBJ-N-CEN_13
1002
{
1000
OWNER
1000
GEN
1002
}
1001
GENIUS_GENCEN_19
1002
{
1040
6.0
1002
}
  0
LINE
  5
7FB43
330
1F
100
AcDbEntity
  8
AM_7
370
     9
100
AcDbLine
 10
370.5000000000001
 20
478.2499999999999
 30
0.0
 11
370.5000000000001
 21
456.7499999999999
 31
0.0
1001
GENIUS_GENODEF_13
1002
{
1000
HIER
1070
     0
1002
}
1002
{
1000
MANEDIT
1070
     0
1002
}
1002
{
1000
NOSEL
1070
     0
1002
}
1002
{
1000
BEHIND
1070
     0
1002
}
1002
{
1000
OTHER
1070
     0
1002
}
1002
{
1000
REACTOR
1002
}
1001
GENIUS_GENOBJ-N-CEN_13
1002
{
1000
OWNER
1000
GEN
1002
}
1001
GENIUS_GENCEN_19
1002
{
1040
6.0
1002
}
  0
LINE
  5
7FB44
330
1F
100
AcDbEntity
  8
AM_7
370
     9
100
AcDbLine
 10
364.7500000000001
 20
407.5
 30
0.0
 11
386.2500000000001
 21
407.5
 31
0.0
1001
GENIUS_GENODEF_13
1002
{
1000
HIER
1070
     0
1002
}
1002
{
1000
MANEDIT
1070
     0
1002
}
1002
{
1000
NOSEL
1070
     0
1002
}
1002
{
1000
BEHIND
1070
     0
1002
}
1002
{
1000
OTHER
1070
     0
1002
}
1002
{
1000
REACTOR
1002
}
1001
GENIUS_GENOBJ-N-CEN_13
1002
{
1000
OWNER
1000
GEN
1002
}
1001
GENIUS_GENCEN_19
1002
{
1040
6.0
1002
}
  0
LINE
  5
7FB45
330
1F
100
AcDbEntity
  8
AM_7
370
     9
100
AcDbLine
 10
375.5000000000001
 20
418.25
 30
0.0
 11
375.5000000000001
 21
396.75
 31
0.0
1001
GENIUS_GENODEF_13
1002
{
1000
HIER
1070
     0
1002
}
1002
{
1000
MANEDIT
1070
     0
1002
}
1002
{
1000
NOSEL
1070
     0
1002
}
1002
{
1000
BEHIND
1070
     0
1002
}
1002
{
1000
OTHER
1070
     0
1002
}
1002
{
1000
REACTOR
1002
}
1001
GENIUS_GENOBJ-N-CEN_13
1002
{
1000
OWNER
1000
GEN
1002
}
1001
GENIUS_GENCEN_19
1002
{
1040
6.0
1002
}
  0
LINE
  5
7FB46
330
1F
100
AcDbEntity
  8
AM_7
370
     9
100
AcDbLine
 10
359.7500000000001
 20
412.5
 30
0.0
 11
381.2500000000001
 21
412.5
 31
0.0
1001
GENIUS_GENODEF_13
1002
{
1000
HIER
1070
     0
1002
}
1002
{
1000
MANEDIT
1070
     0
1002
}
1002
{
1000
NOSEL
1070
     0
1002
}
1002
{
1000
BEHIND
1070
     0
1002
}
1002
{
1000
OTHER
1070
     0
1002
}
1002
{
1000
REACTOR
1002
}
1001
GENIUS_GENOBJ-N-CEN_13
1002
{
1000
OWNER
1000
GEN
1002
}
1001
GENIUS_GENCEN_19
1002
{
1040
6.0
1002
}
  0
LINE
  5
7FB47
330
1F
100
AcDbEntity
  8
AM_7
370
     9
100
AcDbLine
 10
370.5000000000001
 20
423.2499999999999
 30
0.0
 11
370.5000000000001
 21
401.75
 31
0.0
1001
GENIUS_GENODEF_13
1002
{
1000
HIER
1070
     0
1002
}
1002
{
1000
MANEDIT
1070
     0
1002
}
1002
{
1000
NOSEL
1070
     0
1002
}
1002
{
1000
BEHIND
1070
     0
1002
}
1002
{
1000
OTHER
1070
     0
1002
}
1002
{
1000
REACTOR
1002
}
1001
GENIUS_GENOBJ-N-CEN_13
1002
{
1000
OWNER
1000
GEN
1002
}
1001
GENIUS_GENCEN_19
1002
{
1040
6.0
1002
}
  0
LINE
  5
7FB48
330
1F
100
AcDbEntity
  8
AM_7
370
     9
100
AcDbLine
 10
299.7500000000001
 20
407.5
 30
0.0
 11
321.2500000000001
 21
407.5
 31
0.0
1001
GENIUS_GENODEF_13
1002
{
1000
HIER
1070
     0
1002
}
1002
{
1000
MANEDIT
1070
     0
1002
}
1002
{
1000
NOSEL
1070
     0
1002
}
1002
{
1000
BEHIND
1070
     0
1002
}
1002
{
1000
OTHER
1070
     0
1002
}
1002
{
1000
REACTOR
1002
}
1001
GENIUS_GENOBJ-N-CEN_13
1002
{
1000
OWNER
1000
GEN
1002
}
1001
GENIUS_GENCEN_19
1002
{
1040
6.0
1002
}
  0
LINE
  5
7FB49
330
1F
100
AcDbEntity
  8
AM_7
370
     9
100
AcDbLine
 10
310.5000000000001
 20
418.25
 30
0.0
 11
310.5000000000001
 21
396.75
 31
0.0
1001
GENIUS_GENODEF_13
1002
{
1000
HIER
1070
     0
1002
}
1002
{
1000
MANEDIT
1070
     0
1002
}
1002
{
1000
NOSEL
1070
     0
1002
}
1002
{
1000
BEHIND
1070
     0
1002
}
1002
{
1000
OTHER
1070
     0
1002
}
1002
{
1000
REACTOR
1002
}
1001
GENIUS_GENOBJ-N-CEN_13
1002
{
1000
OWNER
1000
GEN
1002
}
1001
GENIUS_GENCEN_19
1002
{
1040
6.0
1002
}
  0
LINE
  5
7FB4A
330
1F
100
AcDbEntity
  8
AM_7
370
     9
100
AcDbLine
 10
304.7500000000001
 20
412.5
 30
0.0
 11
326.2500000000001
 21
412.5
 31
0.0
1001
GENIUS_GENODEF_13
1002
{
1000
HIER
1070
     0
1002
}
1002
{
1000
MANEDIT
1070
     0
1002
}
1002
{
1000
NOSEL
1070
     0
1002
}
1002
{
1000
BEHIND
1070
     0
1002
}
1002
{
1000
OTHER
1070
     0
1002
}
1002
{
1000
REACTOR
1002
}
1001
GENIUS_GENOBJ-N-CEN_13
1002
{
1000
OWNER
1000
GEN
1002
}
1001
GENIUS_GENCEN_19
1002
{
1040
6.0
1002
}
  0
LINE
  5
7FB4B
330
1F
100
AcDbEntity
  8
AM_7
370
     9
100
AcDbLine
 10
315.5000000000001
 20
423.2499999999999
 30
0.0
 11
315.5000000000001
 21
401.75
 31
0.0
1001
GENIUS_GENODEF_13
1002
{
1000
HIER
1070
     0
1002
}
1002
{
1000
MANEDIT
1070
     0
1002
}
1002
{
1000
NOSEL
1070
     0
1002
}
1002
{
1000
BEHIND
1070
     0
1002
}
1002
{
1000
OTHER
1070
     0
1002
}
1002
{
1000
REACTOR
1002
}
1001
GENIUS_GENOBJ-N-CEN_13
1002
{
1000
OWNER
1000
GEN
1002
}
1001
GENIUS_GENCEN_19
1002
{
1040
6.0
1002
}
  0
LINE
  5
7FB4C
330
1F
100
AcDbEntity
  8
AM_7
370
     9
100
AcDbLine
 10
299.7500000000001
 20
472.5
 30
0.0
 11
321.2500000000001
 21
472.5
 31
0.0
1001
GENIUS_GENODEF_13
1002
{
1000
HIER
1070
     0
1002
}
1002
{
1000
MANEDIT
1070
     0
1002
}
1002
{
1000
NOSEL
1070
     0
1002
}
1002
{
1000
BEHIND
1070
     0
1002
}
1002
{
1000
OTHER
1070
     0
1002
}
1002
{
1000
REACTOR
1002
}
1001
GENIUS_GENOBJ-N-CEN_13
1002
{
1000
OWNER
1000
GEN
1002
}
1001
GENIUS_GENCEN_19
1002
{
1040
6.0
1002
}
  0
LINE
  5
7FB4D
330
1F
100
AcDbEntity
  8
AM_7
370
     9
100
AcDbLine
 10
310.5000000000001
 20
483.25
 30
0.0
 11
310.5000000000001
 21
461.7499999999999
 31
0.0
1001
GENIUS_GENODEF_13
1002
{
1000
HIER
1070
     0
1002
}
1002
{
1000
MANEDIT
1070
     0
1002
}
1002
{
1000
NOSEL
1070
     0
1002
}
1002
{
1000
BEHIND
1070
     0
1002
}
1002
{
1000
OTHER
1070
     0
1002
}
1002
{
1000
REACTOR
1002
}
1001
GENIUS_GENOBJ-N-CEN_13
1002
{
1000
OWNER
1000
GEN
1002
}
1001
GENIUS_GENCEN_19
1002
{
1040
6.0
1002
}
  0
LINE
  5
7FB4E
330
1F
100
AcDbEntity
  8
AM_7
370
     9
100
AcDbLine
 10
304.7500000000001
 20
467.4999999999999
 30
0.0
 11
326.2500000000001
 21
467.4999999999999
 31
0.0
1001
GENIUS_GENODEF_13
1002
{
1000
HIER
1070
     0
1002
}
1002
{
1000
MANEDIT
1070
     0
1002
}
1002
{
1000
NOSEL
1070
     0
1002
}
1002
{
1000
BEHIND
1070
     0
1002
}
1002
{
1000
OTHER
1070
     0
1002
}
1002
{
1000
REACTOR
1002
}
1001
GENIUS_GENOBJ-N-CEN_13
1002
{
1000
OWNER
1000
GEN
1002
}
1001
GENIUS_GENCEN_19
1002
{
1040
6.0
1002
}
  0
LINE
  5
7FB4F
330
1F
100
AcDbEntity
  8
AM_7
370
     9
100
AcDbLine
 10
315.5000000000001
 20
478.2499999999999
 30
0.0
 11
315.5000000000001
 21
456.7499999999999
 31
0.0
1001
GENIUS_GENODEF_13
1002
{
1000
HIER
1070
     0
1002
}
1002
{
1000
MANEDIT
1070
     0
1002
}
1002
{
1000
NOSEL
1070
     0
1002
}
1002
{
1000
BEHIND
1070
     0
1002
}
1002
{
1000
OTHER
1070
     0
1002
}
1002
{
1000
REACTOR
1002
}
1001
GENIUS_GENOBJ-N-CEN_13
1002
{
1000
OWNER
1000
GEN
1002
}
1001
GENIUS_GENCEN_19
1002
{
1040
6.0
1002
}
  0
DIMENSION
  5
7FB50
330
1F
100
AcDbEntity
  8
AM_5
100
AcDbDimension
  2
*D6
 10
404.0
 20
412.4999999999999
 30
0.0
 11
397.8
 21
440.0
 31
0.0
 70
    32
  1
Y
 71
     5
 42
55.0
  3
SYS$0
100
AcDbAlignedDimension
 13
381.2500000000001
 23
467.4999999999999
 33
0.0
 14
381.2500000000001
 24
412.5
 34
0.0
 50
90.0
100
AcDbRotatedDimension
1001
ACAD
1000
DSTYLE
1002
{
1070
    40
1040
2.0
1002
}
  0
DIMENSION
  5
7FB51
330
1F
100
AcDbEntity
  8
AM_5
100
AcDbDimension
  2
*D7
 10
420.0000000000001
 20
472.5
 30
0.0
 11
413.1904761904761
 21
440.0000000000001
 31
0.0
 70
    32
  1
Y'
 71
     5
 42
65.0
  3
SYS$0
100
AcDbAlignedDimension
 13
386.2500000000001
 23
407.5
 33
0.0
 14
386.2500000000001
 24
472.5
 34
0.0
 50
90.0
100
AcDbRotatedDimension
1001
ACAD
1000
DSTYLE
1002
{
1070
    40
1040
2.0
1002
}
  0
DIMENSION
  5
7FB52
330
1F
100
AcDbEntity
  8
AM_5
100
AcDbDimension
  2
*D8
 10
436.0000000000001
 20
480.9999999999999
 30
0.0
 11
429.8
 21
440.0
 31
0.0
 70
    32
  1
B
 71
     5
 42
82.0
  3
SYS$0
100
AcDbAlignedDimension
 13
374.5000000000001
 23
399.0
 33
0.0
 14
374.5000000000001
 24
481.0
 34
0.0
 50
90.0
100
AcDbRotatedDimension
1001
ACAD
1000
DSTYLE
1002
{
1070
    40
1040
2.0
1002
}
  0
DIMENSION
  5
7FB53
330
1F
100
AcDbEntity
  8
AM_5
100
AcDbDimension
  2
*D9
 10
370.5000000000001
 20
497.0
 30
0.0
 11
343.0000000000001
 21
503.2
 31
0.0
 70
    32
  1
X
 71
     5
 42
55.0
  3
SYS$0
100
AcDbAlignedDimension
 13
315.5000000000001
 23
478.2499999999999
 33
0.0
 14
370.5000000000001
 24
478.2499999999999
 34
0.0
100
AcDbRotatedDimension
1001
ACAD
1000
DSTYLE
1002
{
1070
    40
1040
2.0
1002
}
  0
DIMENSION
  5
7FB54
330
1F
100
AcDbEntity
  8
AM_5
100
AcDbDimension
  2
*D10
 10
375.5000000000001
 20
513.0
 30
0.0
 11
343.0000000000001
 21
519.8095238095238
 31
0.0
 70
    32
  1
X'
 71
     5
 42
65.0
  3
SYS$0
100
AcDbAlignedDimension
 13
310.5000000000001
 23
483.25
 33
0.0
 14
375.5000000000001
 24
483.25
 34
0.0
100
AcDbRotatedDimension
1001
ACAD
1000
DSTYLE
1002
{
1070
    40
1040
2.0
1002
}
  0
DIMENSION
  5
7FB55
330
1F
100
AcDbEntity
  8
AM_5
100
AcDbDimension
  2
*D11
 10
384.0000000000001
 20
529.0
 30
0.0
 11
343.0000000000001
 21
535.2
 31
0.0
 70
    32
  1
A
 71
     5
 42
82.0
  3
SYS$0
100
AcDbAlignedDimension
 13
302.0000000000001
 23
471.4999999999999
 33
0.0
 14
384.0000000000001
 24
471.4999999999999
 34
0.0
100
AcDbRotatedDimension
1001
ACAD
1000
DSTYLE
1002
{
1070
    40
1040
2.0
1002
}
  0
DIMENSION
  5
7FBD7
330
1F
100
AcDbEntity
  8
AM_5
100
AcDbDimension
  2
*D12
 10
324.9999999999996
 20
253.0
 30
0.0
 11
333.9999999999997
 21
259.2
 31
0.0
 70
    32
  1
E
 71
     5
 42
18.0
  3
SYS$0
100
AcDbAlignedDimension
 13
342.9999999999997
 23
298.0
 33
0.0
 14
324.9999999999996
 24
267.0
 34
0.0
100
AcDbRotatedDimension
1001
ACAD
1000
DSTYLE
1002
{
1070
    40
1040
2.0
1002
}
  0
DIMENSION
  5
7FBD8
330
1F
100
AcDbEntity
  8
AM_5
100
AcDbDimension
  2
*D13
 10
403.9999999999996
 20
272.9999999999999
 30
0.0
 11
397.7999999999996
 21
312.0
 31
0.0
 70
    32
  1
H
 71
     5
 42
78.0
  3
SYS$0
100
AcDbAlignedDimension
 13
383.9999999999997
 23
351.0
 33
0.0
 14
324.9999999999996
 24
273.0
 34
0.0
 50
90.0
100
AcDbRotatedDimension
1001
ACAD
1000
DSTYLE
1002
{
1070
    40
1040
2.0
1002
}
  0
DIMENSION
  5
7FBD9
330
1F
100
AcDbEntity
  8
AM_5
100
AcDbDimension
  2
*D14
 10
344.9273037038515
 20
313.0964421998924
 30
0.0
 11
287.3666666666551
 21
272.9999999999964
 31
0.0
 70
   163
  1
D
 71
     5
 42
49.99999999999852
  3
SYS$3
100
AcDbDiametricDimension
 15
305.0726962961521
 25
282.9035578001203
 35
0.0
 40
0.0
1001
ACAD
1000
DSTYLE
1002
{
1070
    40
1040
2.0
1070
    41
1040
1.0
1070
   172
1070
     1
1070
   173
1070
     1
1070
   342
1005
0
1070
   343
1005
6C4
1070
   344
1005
6C4
1002
}
  0
LINE
  5
7FC66
330
1F
100
AcDbEntity
  8
AM_7
370
     9
100
AcDbLine
 10
473.0000000000001
 20
357.0
 30
0.0
 11
473.0000000000001
 21
267.0
 31
0.0
1001
GENIUS_GENODEF_13
1002
{
1000
HIER
1070
     0
1002
}
1002
{
1000
MANEDIT
1070
     0
1002
}
1002
{
1000
NOSEL
1070
     0
1002
}
1002
{
1000
BEHIND
1070
     0
1002
}
1002
{
1000
OTHER
1070
     0
1002
}
1002
{
1000
REACTOR
1002
}
1001
GENIUS_GENOBJ-N-CEN_13
1002
{
1000
OWNER
1000
GEN
1002
}
1001
GENIUS_GENCEN_19
1002
{
1040
6.0
1002
}
  0
DIMENSION
  5
7FCD0
330
1F
100
AcDbEntity
  8
AM_5
100
AcDbDimension
  2
*D15
 10
489.5000000000003
 20
237.0
 30
0.0
 11
473.0000000000002
 21
243.2
 31
0.0
 70
    32
  1
W1
 71
     5
 42
33.00000000000023
  3
SYS$0
100
AcDbAlignedDimension
 13
456.5000000000001
 23
275.1720439999999
 33
0.0
 14
489.5000000000003
 24
275.1720439999999
 34
0.0
100
AcDbRotatedDimension
1001
ACAD
1000
DSTYLE
1002
{
1070
    40
1040
2.0
1002
}
  0
DIMENSION
  5
7FD1B
330
1F
100
AcDbEntity
  8
AM_5
100
AcDbDimension
  2
*D16
 10
456.5000000000001
 20
253.0
 30
0.0
 11
464.0000000000001
 21
259.2
 31
0.0
 70
    32
  1
W2
 71
     5
 42
15.0
  3
SYS$0
100
AcDbAlignedDimension
 13
471.5000000000001
 23
275.1720439999999
 33
0.0
 14
456.5000000000001
 24
275.1720439999999
 34
0.0
100
AcDbRotatedDimension
1001
ACAD
1000
DSTYLE
1002
{
1070
    40
1040
2.0
1002
}
  0
DIMENSION
  5
7FD4C
330
1F
100
AcDbEntity
  8
AM_5
100
AcDbDimension
  2
*D17
 10
489.5000000000001
 20
253.0
 30
0.0
 11
482.0000000000001
 21
259.2
 31
0.0
 70
    32
  1
W2
 71
     5
 42
15.0
  3
SYS$0
100
AcDbAlignedDimension
 13
474.5
 23
275.1720439999999
 33
0.0
 14
489.5000000000001
 24
275.1720439999999
 34
0.0
 50
180.0
100
AcDbRotatedDimension
1001
ACAD
1000
DSTYLE
1002
{
1070
    40
1040
2.0
1002
}
  0
ARC
  5
7FFBC
330
1F
100
AcDbEntity
  8
AM_3
370
     9
100
AcDbCircle
 10
604.4999999999999
 20
298.0
 30
0.0
 40
25.0
100
AcDbArc
 50
14.21539710046609
 51
165.7846069573821
  0
LINE
  5
7FFBD
330
1F
100
AcDbEntity
  8
AM_7
370
     9
100
AcDbLine
 10
509.7974119999999
 20
298.0
 30
0.0
 11
441.0000000000001
 21
298.0
 31
0.0
1001
GENIUS_GENOBJ-N-CEN_13
1002
{
1000
OWNER
1000
GEN
1002
}
1001
GENIUS_GENODEF_13
1002
{
1000
HIER
1070
     0
1002
}
1002
{
1000
MANEDIT
1070
     0
1002
}
1002
{
1000
NOSEL
1070
     0
1002
}
1002
{
1000
BEHIND
1070
     0
1002
}
1002
{
1000
OTHER
1070
     0
1002
}
1002
{
1000
REACTOR
1002
}
1001
GENIUS_GENCEN_19
1002
{
1040
3.0
1002
}
  0
LINE
  5
7FFBE
330
1F
100
AcDbEntity
  8
AM_7
370
     9
100
AcDbLine
 10
604.4999999999999
 20
357.0
 30
0.0
 11
604.4999999999999
 21
267.0
 31
0.0
1001
GENIUS_GENODEF_13
1002
{
1000
HIER
1070
     0
1002
}
1002
{
1000
MANEDIT
1070
     0
1002
}
1002
{
1000
NOSEL
1070
     0
1002
}
1002
{
1000
BEHIND
1070
     0
1002
}
1002
{
1000
OTHER
1070
     0
1002
}
1002
{
1000
REACTOR
1002
}
1001
GENIUS_GENOBJ-N-CEN_13
1002
{
1000
OWNER
1000
GEN
1002
}
1001
GENIUS_GENCEN_19
1002
{
1040
6.0
1002
}
  0
LINE
  5
7FFBF
330
1F
100
AcDbEntity
  8
AM_7
370
     9
100
AcDbLine
 10
573.5000452091031
 20
297.9470569897139
 30
0.0
 11
635.4999547908969
 21
298.052943010286
 31
0.0
1001
GENIUS_GENODEF_13
1002
{
1000
HIER
1070
     0
1002
}
1002
{
1000
MANEDIT
1070
     0
1002
}
1002
{
1000
NOSEL
1070
     0
1002
}
1002
{
1000
BEHIND
1070
     0
1002
}
1002
{
1000
OTHER
1070
     0
1002
}
1002
{
1000
REACTOR
1002
}
1001
GENIUS_GENOBJ-N-CEN_13
1002
{
1000
OWNER
1000
GEN
1002
}
1001
GENIUS_GENCEN_19
1002
{
1040
6.0
1002
}
  0
DIMENSION
  5
7FFC0
330
1F
100
AcDbEntity
  8
AM_5
100
AcDbDimension
  2
*D19
 10
667.0
 20
351.0
 30
0.0
 11
660.7999999999998
 21
312.0
 31
0.0
 70
    32
  1
H
 71
     5
 42
78.00000000000006
  3
SYS$0
100
AcDbAlignedDimension
 13
604.4999999999999
 23
273.0
 33
0.0
 14
643.3000000000001
 24
351.0
 34
0.0
 50
90.0
100
AcDbRotatedDimension
1001
ACAD
1000
DSTYLE
1002
{
1070
    40
1040
2.0
1002
}
  0
DIMENSION
  5
7FFC1
330
1F
100
AcDbEntity
  8
AM_5
100
AcDbDimension
  2
*D18
 10
624.4273037038492
 20
313.0964421998897
 30
0.0
 11
566.866666666664
 21
273.0000000000018
 31
0.0
 70
   163
  1
D
 71
     5
 42
49.99999999999568
  3
SYS$3
100
AcDbDiametricDimension
 15
584.5726962961527
 25
282.9035578001185
 35
0.0
 40
0.0
1001
ACAD
1000
DSTYLE
1002
{
1070
    40
1040
2.0
1070
    41
1040
1.0
1070
   172
1070
     1
1070
   173
1070
     1
1070
   342
1005
0
1070
   343
1005
6C4
1070
   344
1005
6C4
1002
}
  0
LINE
  5
7FFEC
330
1F
100
AcDbEntity
  8
AM_7
370
     9
100
AcDbLine
 10
556.0000000000001
 20
440.0
 30
0.0
 11
653.0
 21
440.0
 31
0.0
1001
GENIUS_GENOBJ-N-CEN_13
1002
{
1000
OWNER
1000
GEN
1002
}
1001
GENIUS_GENODEF_13
1002
{
1000
HIER
1070
     0
1002
}
1002
{
1000
MANEDIT
1070
     0
1002
}
1002
{
1000
NOSEL
1070
     0
1002
}
1002
{
1000
BEHIND
1070
     0
1002
}
1002
{
1000
OTHER
1070
     0
1002
}
1002
{
1000
REACTOR
1002
}
1001
GENIUS_GENCEN_19
1002
{
1040
6.0
1002
}
  0
LINE
  5
7FFED
330
1F
100
AcDbEntity
  8
AM_7
370
     9
100
AcDbLine
 10
604.4999999999999
 20
408.8000000000001
 30
0.0
 11
604.4999999999999
 21
476.3000000000001
 31
0.0
1001
GENIUS_GENODEF_13
1002
{
1000
HIER
1070
     0
1002
}
1002
{
1000
MANEDIT
1070
     0
1002
}
1002
{
1000
NOSEL
1070
     0
1002
}
1002
{
1000
BEHIND
1070
     0
1002
}
1002
{
1000
OTHER
1070
     0
1002
}
1002
{
1000
REACTOR
1002
}
1001
GENIUS_GENOBJ-N-CEN_13
1002
{
1000
OWNER
1000
GEN
1002
}
1001
GENIUS_GENCEN_19
1002
{
1040
6.0
1002
}
  0
LINE
  5
7FFEE
330
1F
100
AcDbEntity
  8
AM_7
370
     9
100
AcDbLine
 10
632.0
 20
436.7499999999999
 30
0.0
 11
632.0
 21
415.2499999999999
 31
0.0
1001
GENIUS_GENODEF_13
1002
{
1000
HIER
1070
     0
1002
}
1002
{
1000
MANEDIT
1070
     0
1002
}
1002
{
1000
NOSEL
1070
     0
1002
}
1002
{
1000
BEHIND
1070
     0
1002
}
1002
{
1000
OTHER
1070
     0
1002
}
1002
{
1000
REACTOR
1002
}
1001
GENIUS_GENOBJ-N-CEN_13
1002
{
1000
OWNER
1000
GEN
1002
}
1001
GENIUS_GENCEN_19
1002
{
1040
6.0
1002
}
  0
LINE
  5
7FFEF
330
1F
100
AcDbEntity
  8
AM_7
370
     9
100
AcDbLine
 10
621.25
 20
426.0
 30
0.0
 11
642.75
 21
426.0
 31
0.0
1001
GENIUS_GENODEF_13
1002
{
1000
HIER
1070
     0
1002
}
1002
{
1000
MANEDIT
1070
     0
1002
}
1002
{
1000
NOSEL
1070
     0
1002
}
1002
{
1000
BEHIND
1070
     0
1002
}
1002
{
1000
OTHER
1070
     0
1002
}
1002
{
1000
REACTOR
1002
}
1001
GENIUS_GENOBJ-N-CEN_13
1002
{
1000
OWNER
1000
GEN
1002
}
1001
GENIUS_GENCEN_19
1002
{
1040
6.0
1002
}
  0
LINE
  5
7FFF0
330
1F
100
AcDbEntity
  8
AM_7
370
     9
100
AcDbLine
 10
577.0000000000001
 20
436.7499999999999
 30
0.0
 11
577.0000000000001
 21
415.2499999999999
 31
0.0
1001
GENIUS_GENODEF_13
1002
{
1000
HIER
1070
     0
1002
}
1002
{
1000
MANEDIT
1070
     0
1002
}
1002
{
1000
NOSEL
1070
     0
1002
}
1002
{
1000
BEHIND
1070
     0
1002
}
1002
{
1000
OTHER
1070
     0
1002
}
1002
{
1000
REACTOR
1002
}
1001
GENIUS_GENOBJ-N-CEN_13
1002
{
1000
OWNER
1000
GEN
1002
}
1001
GENIUS_GENCEN_19
1002
{
1040
6.0
1002
}
  0
LINE
  5
7FFF1
330
1F
100
AcDbEntity
  8
AM_7
370
     9
100
AcDbLine
 10
566.2500000000001
 20
426.0
 30
0.0
 11
587.7500000000001
 21
426.0
 31
0.0
1001
GENIUS_GENODEF_13
1002
{
1000
HIER
1070
     0
1002
}
1002
{
1000
MANEDIT
1070
     0
1002
}
1002
{
1000
NOSEL
1070
     0
1002
}
1002
{
1000
BEHIND
1070
     0
1002
}
1002
{
1000
OTHER
1070
     0
1002
}
1002
{
1000
REACTOR
1002
}
1001
GENIUS_GENOBJ-N-CEN_13
1002
{
1000
OWNER
1000
GEN
1002
}
1001
GENIUS_GENCEN_19
1002
{
1040
6.0
1002
}
  0
LINE
  5
7FFF2
330
1F
100
AcDbEntity
  8
AM_7
370
     9
100
AcDbLine
 10
577.0000000000001
 20
464.7499999999999
 30
0.0
 11
577.0000000000001
 21
443.25
 31
0.0
1001
GENIUS_GENODEF_13
1002
{
1000
HIER
1070
     0
1002
}
1002
{
1000
MANEDIT
1070
     0
1002
}
1002
{
1000
NOSEL
1070
     0
1002
}
1002
{
1000
BEHIND
1070
     0
1002
}
1002
{
1000
OTHER
1070
     0
1002
}
1002
{
1000
REACTOR
1002
}
1001
GENIUS_GENOBJ-N-CEN_13
1002
{
1000
OWNER
1000
GEN
1002
}
1001
GENIUS_GENCEN_19
1002
{
1040
6.0
1002
}
  0
LINE
  5
7FFF3
330
1F
100
AcDbEntity
  8
AM_7
370
     9
100
AcDbLine
 10
566.2500000000001
 20
454.0
 30
0.0
 11
587.7500000000001
 21
454.0
 31
0.0
1001
GENIUS_GENODEF_13
1002
{
1000
HIER
1070
     0
1002
}
1002
{
1000
MANEDIT
1070
     0
1002
}
1002
{
1000
NOSEL
1070
     0
1002
}
1002
{
1000
BEHIND
1070
     0
1002
}
1002
{
1000
OTHER
1070
     0
1002
}
1002
{
1000
REACTOR
1002
}
1001
GENIUS_GENOBJ-N-CEN_13
1002
{
1000
OWNER
1000
GEN
1002
}
1001
GENIUS_GENCEN_19
1002
{
1040
6.0
1002
}
  0
DIMENSION
  5
7FFF4
330
1F
100
AcDbEntity
  8
AM_5
100
AcDbDimension
  2
*D20
 10
667.0
 20
453.9999999999991
 30
0.0
 11
660.7999999999998
 21
439.9999999999996
 31
0.0
 70
    32
  1
Y
 71
     5
 42
27.99999999999909
  3
SYS$0
100
AcDbAlignedDimension
 13
642.75
 23
426.0
 33
0.0
 14
642.75
 24
453.9999999999991
 34
0.0
 50
90.0
100
AcDbRotatedDimension
1001
ACAD
1000
DSTYLE
1002
{
1070
    40
1040
2.0
1002
}
  0
DIMENSION
  5
7FFF5
330
1F
100
AcDbEntity
  8
AM_5
100
AcDbDimension
  2
*D21
 10
632.0
 20
485.0
 30
0.0
 11
604.4999999999999
 21
491.1999999999999
 31
0.0
 70
    32
  1
X
 71
     5
 42
54.99999999999989
  3
SYS$0
100
AcDbAlignedDimension
 13
577.0000000000001
 23
464.7499999999999
 33
0.0
 14
632.0
 24
464.7499999999991
 34
0.0
100
AcDbRotatedDimension
1001
ACAD
1000
DSTYLE
1002
{
1070
    40
1040
2.0
1002
}
  0
DIMENSION
  5
7FFF6
330
1F
100
AcDbEntity
  8
AM_5
100
AcDbDimension
  2
*D22
 10
683.0
 20
468.9999999999999
 30
0.0
 11
676.7999999999998
 21
440.0
 31
0.0
 70
    32
  1
B
 71
     5
 42
58.0
  3
SYS$0
100
AcDbAlignedDimension
 13
635.8000000000002
 23
411.0
 33
0.0
 14
635.8000000000002
 24
469.0
 34
0.0
 50
90.0
100
AcDbRotatedDimension
1001
ACAD
1000
DSTYLE
1002
{
1070
    40
1040
2.0
1002
}
  0
DIMENSION
  5
7FFF7
330
1F
100
AcDbEntity
  8
AM_5
100
AcDbDimension
  2
*D23
 10
647.0
 20
501.0
 30
0.0
 11
604.4999999999999
 21
507.2
 31
0.0
 70
    32
  1
A
 71
     5
 42
84.99999999999989
  3
SYS$0
100
AcDbAlignedDimension
 13
562.0
 23
457.8000000000002
 33
0.0
 14
647.0
 24
457.8000000000002
 34
0.0
100
AcDbRotatedDimension
1001
ACAD
1000
DSTYLE
1002
{
1070
    40
1040
2.0
1002
}
  0
DIMENSION
  5
7FFF8
330
1F
100
AcDbEntity
  8
AM_5
100
AcDbDimension
  2
*D24
 10
628.6412427893679
 20
450.641242789362
 30
0.0
 11
659.6333333333523
 21
477.0000000000018
 31
0.0
 70
   163
  1
P
 71
     5
 42
9.499999999997953
  3
SYS$3
100
AcDbDiametricDimension
 15
635.3587572106379
 25
457.3587572106333
 35
0.0
 40
0.0
1001
ACAD
1000
DSTYLE
1002
{
1070
    40
1040
2.0
1070
    41
1040
1.0
1070
   172
1070
     1
1070
   173
1070
     1
1070
   342
1005
0
1070
   343
1005
6C4
1070
   344
1005
6C4
1002
}
  0
LINE
  5
80062
330
1F
100
AcDbEntity
  8
AM_7
370
     9
100
AcDbLine
 10
632.0
 20
464.7499999999999
 30
0.0
 11
632.0
 21
443.25
 31
0.0
1001
GENIUS_GENODEF_13
1002
{
1000
HIER
1070
     0
1002
}
1002
{
1000
MANEDIT
1070
     0
1002
}
1002
{
1000
NOSEL
1070
     0
1002
}
1002
{
1000
BEHIND
1070
     0
1002
}
1002
{
1000
OTHER
1070
     0
1002
}
1002
{
1000
REACTOR
1002
}
1001
GENIUS_GENOBJ-N-CEN_13
1002
{
1000
OWNER
1000
GEN
1002
}
1001
GENIUS_GENCEN_19
1002
{
1040
6.0
1002
}
  0
LINE
  5
80063
330
1F
100
AcDbEntity
  8
AM_7
370
     9
100
AcDbLine
 10
621.25
 20
454.0
 30
0.0
 11
642.75
 21
454.0
 31
0.0
1001
GENIUS_GENODEF_13
1002
{
1000
HIER
1070
     0
1002
}
1002
{
1000
MANEDIT
1070
     0
1002
}
1002
{
1000
NOSEL
1070
     0
1002
}
1002
{
1000
BEHIND
1070
     0
1002
}
1002
{
1000
OTHER
1070
     0
1002
}
1002
{
1000
REACTOR
1002
}
1001
GENIUS_GENOBJ-N-CEN_13
1002
{
1000
OWNER
1000
GEN
1002
}
1001
GENIUS_GENCEN_19
1002
{
1040
6.0
1002
}
  0
LINE
  5
80065
330
1F
100
AcDbEntity
  8
AM_7
370
     9
100
AcDbLine
 10
724.0
 20
357.0
 30
0.0
 11
724.0
 21
267.0
 31
0.0
1001
GENIUS_GENODEF_13
1002
{
1000
HIER
1070
     0
1002
}
1002
{
1000
MANEDIT
1070
     0
1002
}
1002
{
1000
NOSEL
1070
     0
1002
}
1002
{
1000
BEHIND
1070
     0
1002
}
1002
{
1000
OTHER
1070
     0
1002
}
1002
{
1000
REACTOR
1002
}
1001
GENIUS_GENOBJ-N-CEN_13
1002
{
1000
OWNER
1000
GEN
1002
}
1001
GENIUS_GENCEN_19
1002
{
1040
6.0
1002
}
  0
LINE
  5
80066
330
1F
100
AcDbEntity
  8
AM_7
370
     9
100
AcDbLine
 10
760.3000000000001
 20
298.0
 30
0.0
 11
689.0
 21
297.9999999999964
 31
0.0
1001
GENIUS_GENODEF_13
1002
{
1000
HIER
1070
     0
1002
}
1002
{
1000
MANEDIT
1070
     0
1002
}
1002
{
1000
NOSEL
1070
     0
1002
}
1002
{
1000
BEHIND
1070
     0
1002
}
1002
{
1000
OTHER
1070
     0
1002
}
1002
{
1000
REACTOR
1002
}
1001
GENIUS_GENOBJ-N-CEN_13
1002
{
1000
OWNER
1000
GEN
1002
}
1001
GENIUS_GENCEN_19
1002
{
1040
6.0
1002
}
  0
DIMENSION
  5
80067
330
1F
100
AcDbEntity
  8
AM_5
100
AcDbDimension
  2
*D25
 10
740.5000000000002
 20
237.0
 30
0.0
 11
724.0000000000001
 21
243.2
 31
0.0
 70
    32
  1
W1
 71
     5
 42
33.00000000000023
  3
SYS$0
100
AcDbAlignedDimension
 13
707.5
 23
275.1720439999999
 33
0.0
 14
740.5000000000002
 24
275.1720439999999
 34
0.0
100
AcDbRotatedDimension
1001
ACAD
1000
DSTYLE
1002
{
1070
    40
1040
2.0
1002
}
  0
DIMENSION
  5
80068
330
1F
100
AcDbEntity
  8
AM_5
100
AcDbDimension
  2
*D26
 10
707.5
 20
253.0
 30
0.0
 11
715.0
 21
259.2
 31
0.0
 70
    32
  1
W2
 71
     5
 42
15.0
  3
SYS$0
100
AcDbAlignedDimension
 13
722.5
 23
275.1720439999999
 33
0.0
 14
707.5
 24
275.1720439999999
 34
0.0
100
AcDbRotatedDimension
1001
ACAD
1000
DSTYLE
1002
{
1070
    40
1040
2.0
1002
}
  0
DIMENSION
  5
80069
330
1F
100
AcDbEntity
  8
AM_5
100
AcDbDimension
  2
*D27
 10
740.5
 20
253.0
 30
0.0
 11
733.0
 21
259.2
 31
0.0
 70
    32
  1
W2
 71
     5
 42
15.0
  3
SYS$0
100
AcDbAlignedDimension
 13
725.4999999999999
 23
275.1720439999999
 33
0.0
 14
740.5
 24
275.1720439999999
 34
0.0
 50
180.0
100
AcDbRotatedDimension
1001
ACAD
1000
DSTYLE
1002
{
1070
    40
1040
2.0
1002
}
  0
MTEXT
  5
806CA
330
1F
100
AcDbEntity
  8
AM_6
100
AcDbMText
 10
151.0000000000401
 20
121.000000000171
 30
0.0
 40
6.4
 41
64.00000000005843
 71
     5
 72
     5
  1
ステンレス
 73
     1
 44
1.0
1001
ACAD
1000
MTEXTBEGIN
1070
    73
1070
     1
1070
    44
1040
1.0
1070
    74
1070
     0
1000
MTEXTEND
1000
ACAD_MTEXT_DEFINED_HEIGHT_BEGIN
1070
    46
1040
6.399999999995456
1000
ACAD_MTEXT_DEFINED_HEIGHT_END
  0
MTEXT
  5
806CB
330
1F
100
AcDbEntity
  8
AM_6
100
AcDbMText
 10
199.0000000000697
 20
121.0000000001737
 30
0.0
 40
6.4
 41
32.0
 71
     5
 72
     5
  1
D
 73
     1
 44
1.0
1001
ACAD
1000
MTEXTBEGIN
1070
    73
1070
     1
1070
    44
1040
1.0
1070
    74
1070
     0
1000
MTEXTEND
  0
MTEXT
  5
806CC
330
1F
100
AcDbEntity
  8
AM_6
100
AcDbMText
 10
231.0000000000697
 20
121.00000000007
 30
0.0
 40
6.4
 41
32.0
 71
     5
 72
     5
  1
W1
 73
     1
 44
1.0
1001
ACAD
1000
MTEXTBEGIN
1070
    73
1070
     1
1070
    44
1040
1.0
1070
    74
1070
     0
1000
MTEXTEND
  0
MTEXT
  5
806CD
330
1F
100
AcDbEntity
  8
AM_6
100
AcDbMText
 10
359.0000000000697
 20
121.0000000001018
 30
0.0
 40
6.4
 41
32.0
 71
     5
 72
     5
  1
H
 73
     1
 44
1.0
1001
ACAD
1000
MTEXTBEGIN
1070
    73
1070
     1
1070
    44
1040
1.0
1070
    74
1070
     0
1000
MTEXTEND
  0
LINE
  5
806CE
330
1F
100
AcDbEntity
  8
AM_5
100
AcDbLine
 10
55.00000000000864
 20
129.0000000001482
 30
0.0
 11
183.0000000000697
 21
129.0000000002001
 31
0.0
  0
LINE
  5
806CF
330
1F
100
AcDbEntity
  8
AM_5
100
AcDbLine
 10
375.0000000000697
 20
145.0000000003092
 30
0.0
 11
375.0000000000696
 21
17.00000000017462
 31
0.0
  0
LINE
  5
806D0
330
1F
100
AcDbEntity
  8
AM_0
100
AcDbLine
 10
551.0000000000699
 20
17.00000000017462
 30
0.0
 11
23.0
 21
17.00000000017371
 31
0.0
  0
LINE
  5
806D1
330
1F
100
AcDbEntity
  8
AM_5
100
AcDbLine
 10
119.0000000001392
 20
17.00000000017371
 30
0.0
 11
119.0000000000183
 21
129.0000000001728
 31
0.0
  0
LINE
  5
806D2
330
1F
100
AcDbEntity
  8
AM_0
100
AcDbLine
 10
23.0
 20
113.0000000001737
 30
0.0
 11
551.0000000000699
 21
113.0000000001746
 31
0.0
  0
LINE
  5
806D3
330
1F
100
AcDbEntity
  8
AM_0
100
AcDbLine
 10
23.0
 20
65.00000000017462
 30
0.0
 11
551.0000000000871
 21
65.00000000017462
 31
0.0
  0
LINE
  5
806D4
330
1F
100
AcDbEntity
  8
AM_5
100
AcDbLine
 10
183.0000000000696
 20
17.00000000017371
 30
0.0
 11
183.0000000000697
 21
145.0000000002364
 31
0.0
  0
LINE
  5
806D5
330
1F
100
AcDbEntity
  8
AM_5
100
AcDbLine
 10
215.0000000000697
 20
145.0000000002501
 30
0.0
 11
215.0000000000697
 21
17.00000000017462
 31
0.0
  0
LINE
  5
806D6
330
1F
100
AcDbEntity
  8
AM_5
100
AcDbLine
 10
279.0000000000697
 20
145.0000000002637
 30
0.0
 11
279.0000000000697
 21
17.00000000017371
 31
0.0
  0
LINE
  5
806D8
330
1F
100
AcDbEntity
  8
AM_5
100
AcDbLine
 10
55.00000000005184
 20
97.0000000001719
 30
0.0
 11
551.0000000000697
 21
97.00000000017553
 31
0.0
  0
MTEXT
  5
806DC
330
1F
100
AcDbEntity
  8
AM_6
100
AcDbMText
 10
199.0000000000697
 20
89.00000000021282
 30
0.0
 40
6.4
 41
32.0
 71
     5
 72
     5
  1
65
 73
     1
 44
1.0
1001
ACAD
1000
MTEXTBEGIN
1070
    73
1070
     1
1070
    44
1040
1.0
1070
    74
1070
     0
1000
MTEXTEND
  0
MTEXT
  5
806DD
330
1F
100
AcDbEntity
  8
AM_6
100
AcDbMText
 10
199.0000000000697
 20
73.00000000021282
 30
0.0
 40
6.4
 41
32.0
 71
     5
 72
     5
  1
75
 73
     1
 44
1.0
1001
ACAD
1000
MTEXTBEGIN
1070
    73
1070
     1
1070
    44
1040
1.0
1070
    74
1070
     0
1000
MTEXTEND
  0
MTEXT
  5
806DE
330
1F
100
AcDbEntity
  8
AM_6
100
AcDbMText
 10
359.0000000000956
 20
105.0000000002055
 30
0.0
 40
6.4
 41
32.0
 71
     5
 72
     5
  1
78
 73
     1
 44
1.0
1001
ACAD
1000
MTEXTBEGIN
1070
    73
1070
     1
1070
    44
1040
1.0
1070
    74
1070
     0
1000
MTEXTEND
  0
MTEXT
  5
806DF
330
1F
100
AcDbEntity
  8
AM_6
100
AcDbMText
 10
359.0000000000956
 20
89.00000000020554
 30
0.0
 40
6.4
 41
32.0
 71
     5
 72
     5
  1
96.5
 73
     1
 44
1.0
1001
ACAD
1000
MTEXTBEGIN
1070
    73
1070
     1
1070
    44
1040
1.0
1070
    74
1070
     0
1000
MTEXTEND
  0
LINE
  5
806E0
330
1F
100
AcDbEntity
  8
AM_0
100
AcDbLine
 10
23.0
 20
145.0000000001591
 30
0.0
 11
551.0000000000697
 21
145.0000000003929
 31
0.0
  0
MTEXT
  5
806E1
330
1F
100
AcDbEntity
  8
AM_6
100
AcDbMText
 10
87.00000000006957
 20
105.0000000001737
 30
0.0
 40
6.4
 41
64.0
 71
     5
 72
     5
  1
HJT-50B-MC
 73
     1
 44
1.0
1001
ACAD
1000
MTEXTBEGIN
1070
    73
1070
     1
1070
    44
1040
1.0
1070
    74
1070
     0
1000
MTEXTEND
  0
MTEXT
  5
806E2
330
1F
100
AcDbEntity
  8
AM_6
100
AcDbMText
 10
87.00000000006957
 20
121.0000000001737
 30
0.0
 40
6.4
 41
64.0
 71
     5
 72
     5
  1
スチール
 73
     1
 44
1.0
1001
ACAD
1000
MTEXTBEGIN
1070
    73
1070
     1
1070
    44
1040
1.0
1070
    74
1070
     0
1000
MTEXTEND
  0
LINE
  5
806E3
330
1F
100
AcDbEntity
  8
AM_5
100
AcDbLine
 10
55.00000000013869
 20
17.00000000017462
 30
0.0
 11
55.0
 21
145.0000000001737
 31
0.0
  0
MTEXT
  5
806E4
330
1F
100
AcDbEntity
  8
AM_6
100
AcDbMText
 10
119.0000000000374
 20
137.5879561194742
 30
0.0
 40
6.4
 41
128.000000000065
 71
     5
 72
     5
  1
品　番
 73
     1
 44
1.0
1001
ACAD
1000
MTEXTBEGIN
1070
    73
1070
     1
1070
    44
1040
1.0
1070
    74
1070
     0
1000
MTEXTEND
1000
ACAD_MTEXT_DEFINED_HEIGHT_BEGIN
1070
    46
1040
6.39999999992997
1000
ACAD_MTEXT_DEFINED_HEIGHT_END
  0
MTEXT
  5
806E5
330
1F
100
AcDbEntity
  8
AM_6
100
AcDbMText
 10
199.0000000000697
 20
137.0000000002428
 30
0.0
 40
6.4
 41
32.0
 71
     5
 72
     5
  1
車輪サイズ
 73
     1
 44
1.0
1001
ACAD
1000
MTEXTBEGIN
1070
    73
1070
     1
1070
    44
1040
1.0
1070
    74
1070
     0
1000
MTEXTEND
  0
MTEXT
  5
806E6
330
1F
100
AcDbEntity
  8
AM_6
100
AcDbMText
 10
247.0000000000697
 20
137.0000000001391
 30
0.0
 40
6.4
 41
64.0
 71
     5
 72
     5
  1
タイヤ幅
 73
     1
 44
1.0
1001
ACAD
1000
MTEXTBEGIN
1070
    73
1070
     1
1070
    44
1040
1.0
1070
    74
1070
     0
1000
MTEXTEND
  0
MTEXT
  5
806E7
330
1F
100
AcDbEntity
  8
AM_6
100
AcDbMText
 10
359.0000000000697
 20
137.000000000171
 30
0.0
 40
6.4
 41
32.0
 71
     5
 72
     5
  1
高さ
 73
     1
 44
1.0
1001
ACAD
1000
MTEXTBEGIN
1070
    73
1070
     1
1070
    44
1040
1.0
1070
    74
1070
     0
1000
MTEXTEND
  0
MTEXT
  5
806E8
330
1F
100
AcDbEntity
  8
AM_6
100
AcDbMText
 10
151.0000000000446
 20
105.0000000001719
 30
0.0
 40
6.4
 41
64.00000000004957
 71
     5
 72
     5
  1
SUHJT-50-MC
 73
     1
 44
1.0
1001
ACAD
1000
MTEXTBEGIN
1070
    73
1070
     1
1070
    44
1040
1.0
1070
    74
1070
     0
1000
MTEXTEND
1000
ACAD_MTEXT_DEFINED_HEIGHT_BEGIN
1070
    46
1040
6.399999999995909
1000
ACAD_MTEXT_DEFINED_HEIGHT_END
  0
MTEXT
  5
806EA
330
1F
100
AcDbEntity
  8
AM_6
100
AcDbMText
 10
231.0000000000697
 20
105.0000000001737
 30
0.0
 40
6.4
 41
32.0
 71
     5
 72
     5
  1
33
 73
     1
 44
1.0
1001
ACAD
1000
MTEXTBEGIN
1070
    73
1070
     1
1070
    44
1040
1.0
1070
    74
1070
     0
1000
MTEXTEND
  0
MTEXT
  5
806F2
330
1F
100
AcDbEntity
  8
AM_6
100
AcDbMText
 10
399.0000000000697
 20
129.0000000001291
 30
0.0
 40
6.4
 41
48.0
 71
     5
 72
     5
  1
X  × Y
 73
     1
 44
1.0
1001
ACAD
1000
MTEXTBEGIN
1070
    73
1070
     1
1070
    44
1040
1.0
1070
    74
1070
     0
1000
MTEXTEND
  0
LINE
  5
806F3
330
1F
100
AcDbEntity
  8
AM_5
100
AcDbLine
 10
423.0000000000696
 20
145.0000000003365
 30
0.0
 11
423.0000000000696
 21
17.00000000017371
 31
0.0
  0
MTEXT
  5
806F4
330
1F
100
AcDbEntity
  8
AM_6
100
AcDbMText
 10
399.0000000000824
 20
105.0000000001737
 30
0.0
 40
6.4
 41
47.99999999997408
 71
     5
 72
     5
  1
55 ×55\P65 ×65
 73
     1
 44
0.7
1001
ACAD
1000
MTEXTBEGIN
1070
    73
1070
     1
1070
    44
1040
0.7
1070
    74
1070
     0
1000
MTEXTEND
  0
MTEXT
  5
806F5
330
1F
100
AcDbEntity
  8
AM_6
100
AcDbMText
 10
399.0000000000697
 20
139.0000000001982
 30
0.0
 40
6.4
 41
48.0
 71
     5
 72
     5
  1
取付孔ピッチ
 73
     1
 44
1.0
1001
ACAD
1000
MTEXTBEGIN
1070
    73
1070
     1
1070
    44
1040
1.0
1070
    74
1070
     0
1000
MTEXTEND
  0
MTEXT
  5
806F6
330
1F
100
AcDbEntity
  8
AM_6
100
AcDbMText
 10
447.0000000000696
 20
121.0000000001528
 30
0.0
 40
6.4
 41
48.0
 71
     5
 72
     5
  1
A  × B
 73
     1
 44
1.0
1001
ACAD
1000
MTEXTBEGIN
1070
    73
1070
     1
1070
    44
1040
1.0
1070
    74
1070
     0
1000
MTEXTEND
  0
LINE
  5
806F7
330
1F
100
AcDbEntity
  8
AM_5
100
AcDbLine
 10
471.0000000000697
 20
145.0000000003601
 30
0.0
 11
471.0000000000697
 21
17.00000000017462
 31
0.0
  0
MTEXT
  5
806F8
330
1F
100
AcDbEntity
  8
AM_6
100
AcDbMText
 10
447.0000000000826
 20
105.0000000001746
 30
0.0
 40
6.4
 41
47.99999999997408
 71
     5
 72
     5
  1
82 ×82
 73
     1
 44
1.0
1001
ACAD
1000
MTEXTBEGIN
1070
    73
1070
     1
1070
    44
1040
1.0
1070
    74
1070
     0
1000
MTEXTEND
  0
MTEXT
  5
806F9
330
1F
100
AcDbEntity
  8
AM_6
100
AcDbMText
 10
447.0000000000696
 20
137.0000000002219
 30
0.0
 40
6.4
 41
48.0
 71
     5
 72
     5
  1
取付座寸法
 73
     1
 44
1.0
1001
ACAD
1000
MTEXTBEGIN
1070
    73
1070
     1
1070
    44
1040
1.0
1070
    74
1070
     0
1000
MTEXTEND
  0
MTEXT
  5
806FA
330
1F
100
AcDbEntity
  8
AM_6
100
AcDbMText
 10
447.000000000087
 20
57.00000000017462
 30
0.0
 40
6.4
 41
47.99999999997408
 71
     5
 72
     5
  1
85 ×58
 73
     1
 44
1.0
1001
ACAD
1000
MTEXTBEGIN
1070
    73
1070
     1
1070
    44
1040
1.0
1070
    74
1070
     0
1000
MTEXTEND
  0
LINE
  5
806FC
330
1F
100
AcDbEntity
  8
AM_5
100
AcDbLine
 10
519.0000000000696
 20
145.0000000003756
 30
0.0
 11
519.0000000000696
 21
17.00000000017371
 31
0.0
  0
MTEXT
  5
806FD
330
1F
100
AcDbEntity
  8
AM_6
100
AcDbMText
 10
495.0000000000955
 20
105.0000000001737
 30
0.0
 40
6.4
 41
48.0
 71
     5
 72
     5
  1
9.5 ×16.5
 73
     1
 44
1.0
1001
ACAD
1000
MTEXTBEGIN
1070
    73
1070
     1
1070
    44
1040
1.0
1070
    74
1070
     0
1000
MTEXTEND
  0
MTEXT
  5
806FE
330
1F
100
AcDbEntity
  8
AM_6
100
AcDbMText
 10
495.0000000000697
 20
137.0000000002373
 30
0.0
 40
6.4
 41
48.0
 71
     5
 72
     5
  1
取付孔径
 73
     1
 44
1.0
1001
ACAD
1000
MTEXTBEGIN
1070
    73
1070
     1
1070
    44
1040
1.0
1070
    74
1070
     0
1000
MTEXTEND
  0
MTEXT
  5
806FF
330
1F
100
AcDbEntity
  8
AM_6
100
AcDbMText
 10
535.0000000000696
 20
121.0000000001018
 30
0.0
 40
6.4
 41
32.0
 71
     5
 72
     5
  1
E
 73
     1
 44
1.0
1001
ACAD
1000
MTEXTBEGIN
1070
    73
1070
     1
1070
    44
1040
1.0
1070
    74
1070
     0
1000
MTEXTEND
  0
LINE
  5
80700
330
1F
100
AcDbEntity
  8
AM_0
100
AcDbLine
 10
551.0000000000697
 20
145.0000000003092
 30
0.0
 11
551.0000000000697
 21
17.00000000017462
 31
0.0
  0
MTEXT
  5
80701
330
1F
100
AcDbEntity
  8
AM_6
100
AcDbMText
 10
535.0000000000956
 20
105.0000000002055
 30
0.0
 40
6.4
 41
32.0
 71
     5
 72
     5
  1
18
 73
     1
 44
1.0
1001
ACAD
1000
MTEXTBEGIN
1070
    73
1070
     1
1070
    44
1040
1.0
1070
    74
1070
     0
1000
MTEXTEND
  0
MTEXT
  5
80702
330
1F
100
AcDbEntity
  8
AM_6
100
AcDbMText
 10
535.0000000000956
 20
89.00000000020554
 30
0.0
 40
6.4
 41
32.0
 71
     5
 72
     5
  1
22
 73
     1
 44
1.0
1001
ACAD
1000
MTEXTBEGIN
1070
    73
1070
     1
1070
    44
1040
1.0
1070
    74
1070
     0
1000
MTEXTEND
  0
MTEXT
  5
80703
330
1F
100
AcDbEntity
  8
AM_6
100
AcDbMText
 10
535.0000000000696
 20
137.000000000171
 30
0.0
 40
6.4
 41
32.0
 71
     5
 72
     5
  1
偏芯
 73
     1
 44
1.0
1001
ACAD
1000
MTEXTBEGIN
1070
    73
1070
     1
1070
    44
1040
1.0
1070
    74
1070
     0
1000
MTEXTEND
  0
MTEXT
  5
80704
330
1F
100
AcDbEntity
  8
AM_6
100
AcDbMText
 10
495.0000000001129
 20
57.00000000017462
 30
0.0
 40
6.4
 41
48.0
 71
     5
 72
     5
  1
9.5
 73
     1
 44
1.0
1001
ACAD
1000
MTEXTBEGIN
1070
    73
1070
     1
1070
    44
1040
1.0
1070
    74
1070
     0
1000
MTEXTEND
  0
MTEXT
  5
80707
330
1F
100
AcDbEntity
  8
AM_6
100
AcDbMText
 10
295.0000000000697
 20
121.0000000001737
 30
0.0
 40
6.4
 41
32.0
 71
     5
 72
     5
  1
N
 73
     1
 44
1.0
1001
ACAD
1000
MTEXTBEGIN
1070
    73
1070
     1
1070
    44
1040
1.0
1070
    74
1070
     0
1000
MTEXTEND
  0
MTEXT
  5
80708
330
1F
100
AcDbEntity
  8
AM_6
100
AcDbMText
 10
327.0000000000697
 20
121.00000000007
 30
0.0
 40
6.4
 41
32.0
 71
     5
 72
     5
  1
kgf
 73
     1
 44
1.0
1001
ACAD
1000
MTEXTBEGIN
1070
    73
1070
     1
1070
    44
1040
1.0
1070
    74
1070
     0
1000
MTEXTEND
  0
LINE
  5
80709
330
1F
100
AcDbEntity
  8
AM_5
100
AcDbLine
 10
311.0000000000697
 20
129.0000000001746
 30
0.0
 11
311.0000000000697
 21
17.00000000017371
 31
0.0
  0
LINE
  5
8070A
330
1F
100
AcDbEntity
  8
AM_5
100
AcDbLine
 10
343.0000000000697
 20
145.0000000002637
 30
0.0
 11
343.0000000000696
 21
17.00000000017371
 31
0.0
  0
MTEXT
  5
8070B
330
1F
100
AcDbEntity
  8
AM_6
100
AcDbMText
 10
295.0000000000697
 20
105.0000000001737
 30
0.0
 40
6.4
 41
32.0
 71
     5
 72
     5
  1
2940
 73
     1
 44
1.0
1001
ACAD
1000
MTEXTBEGIN
1070
    73
1070
     1
1070
    44
1040
1.0
1070
    74
1070
     0
1000
MTEXTEND
  0
MTEXT
  5
8070C
330
1F
100
AcDbEntity
  8
AM_6
100
AcDbMText
 10
295.0000000000697
 20
89.00000000017371
 30
0.0
 40
6.4
 41
32.0
 71
     5
 72
     5
  1
3920
 73
     1
 44
1.0
1001
ACAD
1000
MTEXTBEGIN
1070
    73
1070
     1
1070
    44
1040
1.0
1070
    74
1070
     0
1000
MTEXTEND
  0
MTEXT
  5
8070D
330
1F
100
AcDbEntity
  8
AM_6
100
AcDbMText
 10
311.0000000000697
 20
137.0000000002428
 30
0.0
 40
6.4
 41
64.0
 71
     5
 72
     5
  1
最大荷重（1ヶ）
 73
     1
 44
1.0
1001
ACAD
1000
MTEXTBEGIN
1070
    73
1070
     1
1070
    44
1040
1.0
1070
    74
1070
     0
1000
MTEXTEND
  0
MTEXT
  5
8070E
330
1F
100
AcDbEntity
  8
AM_6
100
AcDbMText
 10
327.0000000000697
 20
105.0000000001737
 30
0.0
 40
6.4
 41
32.0
 71
     5
 72
     5
  1
300
 73
     1
 44
1.0
1001
ACAD
1000
MTEXTBEGIN
1070
    73
1070
     1
1070
    44
1040
1.0
1070
    74
1070
     0
1000
MTEXTEND
  0
MTEXT
  5
8070F
330
1F
100
AcDbEntity
  8
AM_6
100
AcDbMText
 10
327.0000000000697
 20
89.00000000017371
 30
0.0
 40
6.4
 41
32.0
 71
     5
 72
     5
  1
400
 73
     1
 44
1.0
1001
ACAD
1000
MTEXTBEGIN
1070
    73
1070
     1
1070
    44
1040
1.0
1070
    74
1070
     0
1000
MTEXTEND
  0
LINE
  5
80710
330
1F
100
AcDbEntity
  8
AM_5
100
AcDbLine
 10
279.0000000000697
 20
129.0000000001746
 30
0.0
 11
343.0000000000697
 21
129.0000000001746
 31
0.0
  0
MTEXT
  5
8071B
330
1F
100
AcDbEntity
  8
AM_6
100
AcDbMText
 10
399.0000000000997
 20
25.32272089610433
 30
0.0
 40
6.4
 41
47.99999999997408
 71
     5
 72
     5
  1
63 ×40
 73
     1
 44
1.0
1001
ACAD
1000
MTEXTBEGIN
1070
    73
1070
     1
1070
    44
1040
1.0
1070
    74
1070
     0
1000
MTEXTEND
  0
LINE
  5
80768
330
1F
100
AcDbEntity
  8
AM_0
100
AcDbLine
 10
23.0
 20
17.0
 30
0.0
 11
23.0
 21
145.0000000000627
 31
0.0
  0
MTEXT
  5
80769
330
1F
100
AcDbEntity
  8
AM_6
100
AcDbMText
 10
39.0
 20
89.0
 30
0.0
 40
6.4
 41
32.0
 71
     5
 72
     5
  1
自在
 73
     1
 44
1.0
1001
ACAD
1000
MTEXTBEGIN
1070
    73
1070
     1
1070
    44
1040
1.0
1070
    74
1070
     0
1000
MTEXTEND
  0
MTEXT
  5
8076A
330
1F
100
AcDbEntity
  8
AM_6
100
AcDbMText
 10
39.00000000001728
 20
41.00000000000091
 30
0.0
 40
6.4
 41
32.0
 71
     5
 72
     5
  1
固定
 73
     1
 44
1.0
1001
ACAD
1000
MTEXTBEGIN
1070
    73
1070
     1
1070
    44
1040
1.0
1070
    74
1070
     0
1000
MTEXTEND
  0
LINE
  5
8076C
330
1F
100
AcDbEntity
  8
AM_5
100
AcDbLine
 10
55.00000000006912
 20
81.00000000017098
 30
0.0
 11
375.0000000000697
 21
81.00000000017553
 31
0.0
  0
MTEXT
  5
8076D
330
1F
100
AcDbEntity
  8
AM_6
100
AcDbMText
 10
87.00000000008685
 20
89.0000000001728
 30
0.0
 40
6.4
 41
64.0
 71
     5
 72
     5
  1
HJT-65B-MC
 73
     1
 44
1.0
1001
ACAD
1000
MTEXTBEGIN
1070
    73
1070
     1
1070
    44
1040
1.0
1070
    74
1070
     0
1000
MTEXTEND
  0
MTEXT
  5
8076E
330
1F
100
AcDbEntity
  8
AM_6
100
AcDbMText
 10
151.0000000000619
 20
89.00000000017099
 30
0.0
 40
6.4
 41
64.00000000004957
 71
     5
 72
     5
  1
SUHJT-65-MC
 73
     1
 44
1.0
1001
ACAD
1000
MTEXTBEGIN
1070
    73
1070
     1
1070
    44
1040
1.0
1070
    74
1070
     0
1000
MTEXTEND
1000
ACAD_MTEXT_DEFINED_HEIGHT_BEGIN
1070
    46
1040
6.399999999995909
1000
ACAD_MTEXT_DEFINED_HEIGHT_END
  0
MTEXT
  5
80770
330
1F
100
AcDbEntity
  8
AM_6
100
AcDbMText
 10
87.00000000007003
 20
73.00000000017007
 30
0.0
 40
6.4
 41
64.0
 71
     5
 72
     5
  1
HJT-75B-MC
 73
     1
 44
1.0
1001
ACAD
1000
MTEXTBEGIN
1070
    73
1070
     1
1070
    44
1040
1.0
1070
    74
1070
     0
1000
MTEXTEND
  0
MTEXT
  5
80771
330
1F
100
AcDbEntity
  8
AM_6
100
AcDbMText
 10
151.0000000000451
 20
73.00000000016826
 30
0.0
 40
6.4
 41
64.00000000004957
 71
     5
 72
     5
  1
SUHJT-75-MC
 73
     1
 44
1.0
1001
ACAD
1000
MTEXTBEGIN
1070
    73
1070
     1
1070
    44
1040
1.0
1070
    74
1070
     0
1000
MTEXTEND
1000
ACAD_MTEXT_DEFINED_HEIGHT_BEGIN
1070
    46
1040
6.399999999995909
1000
ACAD_MTEXT_DEFINED_HEIGHT_END
  0
LINE
  5
80772
330
1F
100
AcDbEntity
  8
AM_5
100
AcDbLine
 10
55.00000000010413
 20
49.0000000001728
 30
0.0
 11
375.0000000000697
 21
49.00000000017644
 31
0.0
  0
MTEXT
  5
80773
330
1F
100
AcDbEntity
  8
AM_6
100
AcDbMText
 10
87.00000000012142
 20
57.00000000017462
 30
0.0
 40
6.4
 41
64.0
 71
     5
 72
     5
  1
HKT-50B-MC
 73
     1
 44
1.0
1001
ACAD
1000
MTEXTBEGIN
1070
    73
1070
     1
1070
    44
1040
1.0
1070
    74
1070
     0
1000
MTEXTEND
  0
MTEXT
  5
80774
330
1F
100
AcDbEntity
  8
AM_6
100
AcDbMText
 10
151.0000000000969
 20
57.0000000001728
 30
0.0
 40
6.4
 41
64.00000000004957
 71
     5
 72
     5
  1
SUHKT-50-MC
 73
     1
 44
1.0
1001
ACAD
1000
MTEXTBEGIN
1070
    73
1070
     1
1070
    44
1040
1.0
1070
    74
1070
     0
1000
MTEXTEND
1000
ACAD_MTEXT_DEFINED_HEIGHT_BEGIN
1070
    46
1040
6.399999999995909
1000
ACAD_MTEXT_DEFINED_HEIGHT_END
  0
LINE
  5
80775
330
1F
100
AcDbEntity
  8
AM_5
100
AcDbLine
 10
55.00000000012142
 20
33.0000000001719
 30
0.0
 11
471.0000000000697
 21
33.00000000017644
 31
0.0
  0
MTEXT
  5
80776
330
1F
100
AcDbEntity
  8
AM_6
100
AcDbMText
 10
87.0000000001387
 20
41.00000000017371
 30
0.0
 40
6.4
 41
64.0
 71
     5
 72
     5
  1
HKT-65B-MC
 73
     1
 44
1.0
1001
ACAD
1000
MTEXTBEGIN
1070
    73
1070
     1
1070
    44
1040
1.0
1070
    74
1070
     0
1000
MTEXTEND
  0
MTEXT
  5
80777
330
1F
100
AcDbEntity
  8
AM_6
100
AcDbMText
 10
151.0000000001142
 20
41.00000000017189
 30
0.0
 40
6.4
 41
64.00000000004957
 71
     5
 72
     5
  1
SUHKT-65-MC
 73
     1
 44
1.0
1001
ACAD
1000
MTEXTBEGIN
1070
    73
1070
     1
1070
    44
1040
1.0
1070
    74
1070
     0
1000
MTEXTEND
1000
ACAD_MTEXT_DEFINED_HEIGHT_BEGIN
1070
    46
1040
6.399999999995909
1000
ACAD_MTEXT_DEFINED_HEIGHT_END
  0
MTEXT
  5
80778
330
1F
100
AcDbEntity
  8
AM_6
100
AcDbMText
 10
87.00000000012186
 20
25.00000000017099
 30
0.0
 40
6.4
 41
64.0
 71
     5
 72
     5
  1
HKT-75B-MC
 73
     1
 44
1.0
1001
ACAD
1000
MTEXTBEGIN
1070
    73
1070
     1
1070
    44
1040
1.0
1070
    74
1070
     0
1000
MTEXTEND
  0
MTEXT
  5
80779
330
1F
100
AcDbEntity
  8
AM_6
100
AcDbMText
 10
151.0000000000974
 20
25.00000000016917
 30
0.0
 40
6.4
 41
64.00000000004957
 71
     5
 72
     5
  1
SUHKT-75-MC
 73
     1
 44
1.0
1001
ACAD
1000
MTEXTBEGIN
1070
    73
1070
     1
1070
    44
1040
1.0
1070
    74
1070
     0
1000
MTEXTEND
1000
ACAD_MTEXT_DEFINED_HEIGHT_BEGIN
1070
    46
1040
6.399999999995909
1000
ACAD_MTEXT_DEFINED_HEIGHT_END
  0
MTEXT
  5
8077A
330
1F
100
AcDbEntity
  8
AM_6
100
AcDbMText
 10
199.0000000000697
 20
105.0000000002128
 30
0.0
 40
6.4
 41
32.0
 71
     5
 72
     5
  1
50
 73
     1
 44
1.0
1001
ACAD
1000
MTEXTBEGIN
1070
    73
1070
     1
1070
    44
1040
1.0
1070
    74
1070
     0
1000
MTEXTEND
  0
MTEXT
  5
8077B
330
1F
100
AcDbEntity
  8
AM_6
100
AcDbMText
 10
199.0000000000697
 20
41.00000000021373
 30
0.0
 40
6.4
 41
32.0
 71
     5
 72
     5
  1
65
 73
     1
 44
1.0
1001
ACAD
1000
MTEXTBEGIN
1070
    73
1070
     1
1070
    44
1040
1.0
1070
    74
1070
     0
1000
MTEXTEND
  0
MTEXT
  5
8077C
330
1F
100
AcDbEntity
  8
AM_6
100
AcDbMText
 10
199.0000000000697
 20
25.00000000021373
 30
0.0
 40
6.4
 41
32.0
 71
     5
 72
     5
  1
75
 73
     1
 44
1.0
1001
ACAD
1000
MTEXTBEGIN
1070
    73
1070
     1
1070
    44
1040
1.0
1070
    74
1070
     0
1000
MTEXTEND
  0
MTEXT
  5
8077D
330
1F
100
AcDbEntity
  8
AM_6
100
AcDbMText
 10
199.0000000000697
 20
57.00000000021373
 30
0.0
 40
6.4
 41
32.0
 71
     5
 72
     5
  1
50
 73
     1
 44
1.0
1001
ACAD
1000
MTEXTBEGIN
1070
    73
1070
     1
1070
    44
1040
1.0
1070
    74
1070
     0
1000
MTEXTEND
  0
LINE
  5
80794
330
1F
100
AcDbEntity
  8
AM_5
100
AcDbLine
 10
247.0000000000697
 20
129.0000000001746
 30
0.0
 11
247.0000000000697
 21
17.00000000017371
 31
0.0
  0
LINE
  5
80795
330
1F
100
AcDbEntity
  8
AM_5
100
AcDbLine
 10
215.0000000000697
 20
129.0000000001746
 30
0.0
 11
279.0000000000697
 21
129.0000000001746
 31
0.0
  0
MTEXT
  5
80796
330
1F
100
AcDbEntity
  8
AM_6
100
AcDbMText
 10
263.0000000000697
 20
121.00000000007
 30
0.0
 40
6.4
 41
32.0
 71
     5
 72
     5
  1
W2
 73
     1
 44
1.0
1001
ACAD
1000
MTEXTBEGIN
1070
    73
1070
     1
1070
    44
1040
1.0
1070
    74
1070
     0
1000
MTEXTEND
  0
MTEXT
  5
80797
330
1F
100
AcDbEntity
  8
AM_6
100
AcDbMText
 10
263.0000000000697
 20
105.0000000001737
 30
0.0
 40
6.4
 41
32.0
 71
     5
 72
     5
  1
15
 73
     1
 44
1.0
1001
ACAD
1000
MTEXTBEGIN
1070
    73
1070
     1
1070
    44
1040
1.0
1070
    74
1070
     0
1000
MTEXTEND
  0
MTEXT
  5
80798
330
1F
100
AcDbEntity
  8
AM_6
100
AcDbMText
 10
231.0000000000697
 20
89.00000000017371
 30
0.0
 40
6.4
 41
32.0
 71
     5
 72
     5
  1
36
 73
     1
 44
1.0
1001
ACAD
1000
MTEXTBEGIN
1070
    73
1070
     1
1070
    44
1040
1.0
1070
    74
1070
     0
1000
MTEXTEND
  0
MTEXT
  5
80799
330
1F
100
AcDbEntity
  8
AM_6
100
AcDbMText
 10
263.0000000000697
 20
89.00000000017371
 30
0.0
 40
6.4
 41
32.0
 71
     5
 72
     5
  1
17
 73
     1
 44
1.0
1001
ACAD
1000
MTEXTBEGIN
1070
    73
1070
     1
1070
    44
1040
1.0
1070
    74
1070
     0
1000
MTEXTEND
  0
MTEXT
  5
8079A
330
1F
100
AcDbEntity
  8
AM_6
100
AcDbMText
 10
231.0000000000697
 20
73.00000000021282
 30
0.0
 40
6.4
 41
32.0
 71
     5
 72
     5
  1
40
 73
     1
 44
1.0
1001
ACAD
1000
MTEXTBEGIN
1070
    73
1070
     1
1070
    44
1040
1.0
1070
    74
1070
     0
1000
MTEXTEND
  0
MTEXT
  5
8079B
330
1F
100
AcDbEntity
  8
AM_6
100
AcDbMText
 10
263.0000000000697
 20
73.00000000021282
 30
0.0
 40
6.4
 41
32.0
 71
     5
 72
     5
  1
18.5
 73
     1
 44
1.0
1001
ACAD
1000
MTEXTBEGIN
1070
    73
1070
     1
1070
    44
1040
1.0
1070
    74
1070
     0
1000
MTEXTEND
  0
MTEXT
  5
80896
330
1F
100
AcDbEntity
  8
AM_6
100
AcDbMText
 10
231.0000000000697
 20
57.00000000017462
 30
0.0
 40
6.4
 41
32.0
 71
     5
 72
     5
  1
33
 73
     1
 44
1.0
1001
ACAD
1000
MTEXTBEGIN
1070
    73
1070
     1
1070
    44
1040
1.0
1070
    74
1070
     0
1000
MTEXTEND
  0
MTEXT
  5
80897
330
1F
100
AcDbEntity
  8
AM_6
100
AcDbMText
 10
263.0000000000697
 20
57.00000000017462
 30
0.0
 40
6.4
 41
32.0
 71
     5
 72
     5
  1
15
 73
     1
 44
1.0
1001
ACAD
1000
MTEXTBEGIN
1070
    73
1070
     1
1070
    44
1040
1.0
1070
    74
1070
     0
1000
MTEXTEND
  0
MTEXT
  5
80898
330
1F
100
AcDbEntity
  8
AM_6
100
AcDbMText
 10
231.0000000000697
 20
41.00000000017462
 30
0.0
 40
6.4
 41
32.0
 71
     5
 72
     5
  1
36
 73
     1
 44
1.0
1001
ACAD
1000
MTEXTBEGIN
1070
    73
1070
     1
1070
    44
1040
1.0
1070
    74
1070
     0
1000
MTEXTEND
  0
MTEXT
  5
80899
330
1F
100
AcDbEntity
  8
AM_6
100
AcDbMText
 10
263.0000000000697
 20
41.00000000017462
 30
0.0
 40
6.4
 41
32.0
 71
     5
 72
     5
  1
17
 73
     1
 44
1.0
1001
ACAD
1000
MTEXTBEGIN
1070
    73
1070
     1
1070
    44
1040
1.0
1070
    74
1070
     0
1000
MTEXTEND
  0
MTEXT
  5
8089A
330
1F
100
AcDbEntity
  8
AM_6
100
AcDbMText
 10
231.0000000000697
 20
25.00000000021373
 30
0.0
 40
6.4
 41
32.0
 71
     5
 72
     5
  1
40
 73
     1
 44
1.0
1001
ACAD
1000
MTEXTBEGIN
1070
    73
1070
     1
1070
    44
1040
1.0
1070
    74
1070
     0
1000
MTEXTEND
  0
MTEXT
  5
8089B
330
1F
100
AcDbEntity
  8
AM_6
100
AcDbMText
 10
263.0000000000697
 20
25.00000000021373
 30
0.0
 40
6.4
 41
32.0
 71
     5
 72
     5
  1
18.5
 73
     1
 44
1.0
1001
ACAD
1000
MTEXTBEGIN
1070
    73
1070
     1
1070
    44
1040
1.0
1070
    74
1070
     0
1000
MTEXTEND
  0
MTEXT
  5
8089C
330
1F
100
AcDbEntity
  8
AM_6
100
AcDbMText
 10
295.0000000000697
 20
73.00000000017281
 30
0.0
 40
6.4
 41
32.0
 71
     5
 72
     5
  1
4900
 73
     1
 44
1.0
1001
ACAD
1000
MTEXTBEGIN
1070
    73
1070
     1
1070
    44
1040
1.0
1070
    74
1070
     0
1000
MTEXTEND
  0
MTEXT
  5
8089D
330
1F
100
AcDbEntity
  8
AM_6
100
AcDbMText
 10
327.0000000000697
 20
73.00000000017281
 30
0.0
 40
6.4
 41
32.0
 71
     5
 72
     5
  1
500
 73
     1
 44
1.0
1001
ACAD
1000
MTEXTBEGIN
1070
    73
1070
     1
1070
    44
1040
1.0
1070
    74
1070
     0
1000
MTEXTEND
  0
MTEXT
  5
8089E
330
1F
100
AcDbEntity
  8
AM_6
100
AcDbMText
 10
295.0000000000697
 20
57.00000000017372
 30
0.0
 40
6.4
 41
32.0
 71
     5
 72
     5
  1
2940
 73
     1
 44
1.0
1001
ACAD
1000
MTEXTBEGIN
1070
    73
1070
     1
1070
    44
1040
1.0
1070
    74
1070
     0
1000
MTEXTEND
  0
MTEXT
  5
8089F
330
1F
100
AcDbEntity
  8
AM_6
100
AcDbMText
 10
295.0000000000697
 20
41.00000000017371
 30
0.0
 40
6.4
 41
32.0
 71
     5
 72
     5
  1
3920
 73
     1
 44
1.0
1001
ACAD
1000
MTEXTBEGIN
1070
    73
1070
     1
1070
    44
1040
1.0
1070
    74
1070
     0
1000
MTEXTEND
  0
MTEXT
  5
808A0
330
1F
100
AcDbEntity
  8
AM_6
100
AcDbMText
 10
327.0000000000697
 20
57.00000000017372
 30
0.0
 40
6.4
 41
32.0
 71
     5
 72
     5
  1
300
 73
     1
 44
1.0
1001
ACAD
1000
MTEXTBEGIN
1070
    73
1070
     1
1070
    44
1040
1.0
1070
    74
1070
     0
1000
MTEXTEND
  0
MTEXT
  5
808A1
330
1F
100
AcDbEntity
  8
AM_6
100
AcDbMText
 10
327.0000000000697
 20
41.00000000017371
 30
0.0
 40
6.4
 41
32.0
 71
     5
 72
     5
  1
400
 73
     1
 44
1.0
1001
ACAD
1000
MTEXTBEGIN
1070
    73
1070
     1
1070
    44
1040
1.0
1070
    74
1070
     0
1000
MTEXTEND
  0
MTEXT
  5
808A2
330
1F
100
AcDbEntity
  8
AM_6
100
AcDbMText
 10
295.0000000000697
 20
25.0000000001728
 30
0.0
 40
6.4
 41
32.0
 71
     5
 72
     5
  1
4900
 73
     1
 44
1.0
1001
ACAD
1000
MTEXTBEGIN
1070
    73
1070
     1
1070
    44
1040
1.0
1070
    74
1070
     0
1000
MTEXTEND
  0
MTEXT
  5
808A3
330
1F
100
AcDbEntity
  8
AM_6
100
AcDbMText
 10
327.0000000000697
 20
25.0000000001728
 30
0.0
 40
6.4
 41
32.0
 71
     5
 72
     5
  1
500
 73
     1
 44
1.0
1001
ACAD
1000
MTEXTBEGIN
1070
    73
1070
     1
1070
    44
1040
1.0
1070
    74
1070
     0
1000
MTEXTEND
  0
MTEXT
  5
808A4
330
1F
100
AcDbEntity
  8
AM_6
100
AcDbMText
 10
359.0000000000956
 20
73.00000000020645
 30
0.0
 40
6.4
 41
32.0
 71
     5
 72
     5
  1
108
 73
     1
 44
1.0
1001
ACAD
1000
MTEXTBEGIN
1070
    73
1070
     1
1070
    44
1040
1.0
1070
    74
1070
     0
1000
MTEXTEND
  0
MTEXT
  5
808A5
330
1F
100
AcDbEntity
  8
AM_6
100
AcDbMText
 10
359.0000000000956
 20
57.00000000020555
 30
0.0
 40
6.4
 41
32.0
 71
     5
 72
     5
  1
78
 73
     1
 44
1.0
1001
ACAD
1000
MTEXTBEGIN
1070
    73
1070
     1
1070
    44
1040
1.0
1070
    74
1070
     0
1000
MTEXTEND
  0
MTEXT
  5
808A6
330
1F
100
AcDbEntity
  8
AM_6
100
AcDbMText
 10
359.0000000000956
 20
41.00000000020554
 30
0.0
 40
6.4
 41
32.0
 71
     5
 72
     5
  1
96.5
 73
     1
 44
1.0
1001
ACAD
1000
MTEXTBEGIN
1070
    73
1070
     1
1070
    44
1040
1.0
1070
    74
1070
     0
1000
MTEXTEND
  0
MTEXT
  5
808A7
330
1F
100
AcDbEntity
  8
AM_6
100
AcDbMText
 10
359.0000000000956
 20
25.00000000020646
 30
0.0
 40
6.4
 41
32.0
 71
     5
 72
     5
  1
108
 73
     1
 44
1.0
1001
ACAD
1000
MTEXTBEGIN
1070
    73
1070
     1
1070
    44
1040
1.0
1070
    74
1070
     0
1000
MTEXTEND
  0
MTEXT
  5
808BE
330
1F
100
AcDbEntity
  8
AM_6
100
AcDbMText
 10
399.0000000000697
 20
119.0000000001291
 30
0.0
 40
6.4
 41
48.0
 71
     5
 72
     5
  1
X'  × Y'
 73
     1
 44
1.0
1001
ACAD
1000
MTEXTBEGIN
1070
    73
1070
     1
1070
    44
1040
1.0
1070
    74
1070
     0
1000
MTEXTEND
  0
MTEXT
  5
808BF
330
1F
100
AcDbEntity
  8
AM_6
100
AcDbMText
 10
399.0000000000997
 20
73.00000000020464
 30
0.0
 40
6.4
 41
47.99999999997408
 71
     5
 72
     5
  1
78 ×78
 73
     1
 44
1.0
1001
ACAD
1000
MTEXTBEGIN
1070
    73
1070
     1
1070
    44
1040
1.0
1070
    74
1070
     0
1000
MTEXTEND
  0
MTEXT
  5
808C0
330
1F
100
AcDbEntity
  8
AM_6
100
AcDbMText
 10
399.0000000000997
 20
89.00000000020373
 30
0.0
 40
6.4
 41
47.99999999997408
 71
     5
 72
     5
  1
63 ×63
 73
     1
 44
1.0
1001
ACAD
1000
MTEXTBEGIN
1070
    73
1070
     1
1070
    44
1040
1.0
1070
    74
1070
     0
1000
MTEXTEND
  0
LINE
  5
808C1
330
1F
100
AcDbEntity
  8
AM_5
100
AcDbLine
 10
519.0000000000696
 20
81.00000000017644
 30
0.0
 11
551.0000000000697
 21
81.00000000017644
 31
0.0
  0
LINE
  5
808C3
330
1F
100
AcDbEntity
  8
AM_5
100
AcDbLine
 10
423.0000000000696
 20
49.00000000017735
 30
0.0
 11
519.0000000000696
 21
49.00000000017803
 31
0.0
  0
MTEXT
  5
808C5
330
1F
100
AcDbEntity
  8
AM_6
100
AcDbMText
 10
399.0000000000997
 20
49.00000000020373
 30
0.0
 40
6.4
 41
47.99999999997408
 71
     5
 72
     5
  1
55 ×28
 73
     1
 44
1.0
1001
ACAD
1000
MTEXTBEGIN
1070
    73
1070
     1
1070
    44
1040
1.0
1070
    74
1070
     0
1000
MTEXTEND
  0
MTEXT
  5
808EA
330
1F
100
AcDbEntity
  8
AM_6
100
AcDbMText
 10
447.0000000000826
 20
81.00000000017644
 30
0.0
 40
6.4
 41
47.99999999997408
 71
     5
 72
     5
  1
100 ×100
 73
     1
 44
1.0
1001
ACAD
1000
MTEXTBEGIN
1070
    73
1070
     1
1070
    44
1040
1.0
1070
    74
1070
     0
1000
MTEXTEND
  0
MTEXT
  5
808EB
330
1F
100
AcDbEntity
  8
AM_6
100
AcDbMText
 10
447.0000000000871
 20
41.00000000017462
 30
0.0
 40
6.4
 41
47.99999999997408
 71
     5
 72
     5
  1
86 ×59
 73
     1
 44
1.0
1001
ACAD
1000
MTEXTBEGIN
1070
    73
1070
     1
1070
    44
1040
1.0
1070
    74
1070
     0
1000
MTEXTEND
  0
MTEXT
  5
808EC
330
1F
100
AcDbEntity
  8
AM_6
100
AcDbMText
 10
447.0000000000871
 20
25.0000000001719
 30
0.0
 40
6.4
 41
47.99999999997408
 71
     5
 72
     5
  1
95 ×72
 73
     1
 44
1.0
1001
ACAD
1000
MTEXTBEGIN
1070
    73
1070
     1
1070
    44
1040
1.0
1070
    74
1070
     0
1000
MTEXTEND
  0
MTEXT
  5
808ED
330
1F
100
AcDbEntity
  8
AM_6
100
AcDbMText
 10
495.6488363645264
 20
120.8918275219466
 30
0.0
 40
6.4
 41
48.0
 71
     5
 72
     5
  1
P
 73
     1
 44
1.0
1001
ACAD
1000
MTEXTBEGIN
1070
    73
1070
     1
1070
    44
1040
1.0
1070
    74
1070
     0
1000
MTEXTEND
  0
MTEXT
  5
808EE
330
1F
100
AcDbEntity
  8
AM_6
100
AcDbMText
 10
535.0000000001129
 20
73.00000000013824
 30
0.0
 40
6.4
 41
32.0
 71
     5
 72
     5
  1
25
 73
     1
 44
1.0
1001
ACAD
1000
MTEXTBEGIN
1070
    73
1070
     1
1070
    44
1040
1.0
1070
    74
1070
     0
1000
MTEXTEND
  0
MTEXT
  5
808F0
330
1F
100
AcDbEntity
  8
AM_6
100
AcDbMText
 10
495.0000000001133
 20
33.00000000017826
 30
0.0
 40
6.4
 41
48.0
 71
     5
 72
     5
  1
10.5
 73
     1
 44
1.0
1001
ACAD
1000
MTEXTBEGIN
1070
    73
1070
     1
1070
    44
1040
1.0
1070
    74
1070
     0
1000
MTEXTEND
  0
MTEXT
  5
808F1
330
1F
100
AcDbEntity
  8
AM_6
100
AcDbMText
 10
495.0000000000955
 20
81.00000000017644
 30
0.0
 40
6.4
 41
48.0
 71
     5
 72
     5
  1
10.5 ×21
 73
     1
 44
1.0
1001
ACAD
1000
MTEXTBEGIN
1070
    73
1070
     1
1070
    44
1040
1.0
1070
    74
1070
     0
1000
MTEXTEND
  0
LWPOLYLINE
  5
82173
330
1F
100
AcDbEntity
  8
AM_0
100
AcDbPolyline
 90
        4
 70
     1
 43
0.0
 10
453.0000000000001
 20
221.0
 10
493.0000000000001
 20
221.0
 10
493.0000000000001
 20
209.0
 10
453.0000000000001
 20
209.0
1001
GENIUS_GENREC_14
1002
{
1000
PYDIR
1011
453.0000000000001
1021
209.0
1031
0.0
1002
}
1002
{
1000
PXDIR
1011
493.0000000000001
1021
221.0
1031
0.0
1002
}
1002
{
1000
PORI
1011
453.0000000000001
1021
221.0
1031
0.0
1002
}
1002
{
1000
PINS
1011
453.0000000000001
1021
221.0
1031
0.0
1002
}
1002
{
1000
PINS2
1011
493.0000000000001
1021
209.0
1031
0.0
1002
}
1002
{
1000
C
1070
     1
1002
}
1001
GENIUS_GENODEF_13
1002
{
1000
HIER
1070
     0
1002
}
1002
{
1000
MANEDIT
1070
     0
1002
}
1002
{
1000
NOSEL
1070
     0
1002
}
1002
{
1000
BEHIND
1070
     0
1002
}
1002
{
1000
OTHER
1070
     0
1002
}
1002
{
1000
REACTOR
1002
}
1001
GENIUS_GENOBJ-N-REC_13
1002
{
1000
OWNER
1000
GEN
1002
}
  0
MTEXT
  5
82174
330
1F
100
AcDbEntity
  8
AM_6
100
AcDbMText
 10
473.0000000000001
 20
215.0
 30
0.0
 40
6.4
 41
40.0
 71
     5
 72
     5
  1
HJT
 73
     1
 44
1.0
1001
ACAD
1000
MTEXTBEGIN
1070
    73
1070
     1
1070
    44
1040
1.0
1070
    74
1070
     0
1000
MTEXTEND
  0
LWPOLYLINE
  5
82175
330
1F
100
AcDbEntity
  8
AM_0
100
AcDbPolyline
 90
        4
 70
     1
 43
0.0
 10
453.0000000000001
 20
201.0
 10
493.0000000000001
 20
201.0
 10
493.0000000000001
 20
189.0
 10
453.0000000000001
 20
189.0
1001
GENIUS_GENREC_14
1002
{
1000
PYDIR
1011
453.0000000000001
1021
189.0
1031
0.0
1002
}
1002
{
1000
PXDIR
1011
493.0000000000001
1021
201.0
1031
0.0
1002
}
1002
{
1000
PORI
1011
453.0000000000001
1021
201.0
1031
0.0
1002
}
1002
{
1000
PINS
1011
453.0000000000001
1021
201.0
1031
0.0
1002
}
1002
{
1000
PINS2
1011
493.0000000000001
1021
189.0
1031
0.0
1002
}
1002
{
1000
C
1070
     1
1002
}
1001
GENIUS_GENODEF_13
1002
{
1000
HIER
1070
     0
1002
}
1002
{
1000
MANEDIT
1070
     0
1002
}
1002
{
1000
NOSEL
1070
     0
1002
}
1002
{
1000
BEHIND
1070
     0
1002
}
1002
{
1000
OTHER
1070
     0
1002
}
1002
{
1000
REACTOR
1002
}
1001
GENIUS_GENOBJ-N-REC_13
1002
{
1000
OWNER
1000
GEN
1002
}
  0
MTEXT
  5
82176
330
1F
100
AcDbEntity
  8
AM_6
100
AcDbMText
 10
473.0000000000001
 20
195.0
 30
0.0
 40
6.4
 41
40.0
 71
     5
 72
     5
  1
SUHJT
 73
     1
 44
1.0
1001
ACAD
1000
MTEXTBEGIN
1070
    73
1070
     1
1070
    44
1040
1.0
1070
    74
1070
     0
1000
MTEXTEND
  0
LWPOLYLINE
  5
82178
330
1F
100
AcDbEntity
  8
AM_0
100
AcDbPolyline
 90
        4
 70
     1
 43
0.0
 10
704.0
 20
221.0
 10
744.0
 20
221.0
 10
744.0
 20
209.0
 10
704.0
 20
209.0
1001
GENIUS_GENREC_14
1002
{
1000
PYDIR
1011
704.0
1021
209.0
1031
0.0
1002
}
1002
{
1000
PXDIR
1011
744.0
1021
221.0
1031
0.0
1002
}
1002
{
1000
PORI
1011
704.0
1021
221.0
1031
0.0
1002
}
1002
{
1000
PINS
1011
704.0
1021
221.0
1031
0.0
1002
}
1002
{
1000
PINS2
1011
744.0
1021
209.0
1031
0.0
1002
}
1002
{
1000
C
1070
     1
1002
}
1001
GENIUS_GENODEF_13
1002
{
1000
HIER
1070
     0
1002
}
1002
{
1000
MANEDIT
1070
     0
1002
}
1002
{
1000
NOSEL
1070
     0
1002
}
1002
{
1000
BEHIND
1070
     0
1002
}
1002
{
1000
OTHER
1070
     0
1002
}
1002
{
1000
REACTOR
1002
}
1001
GENIUS_GENOBJ-N-REC_13
1002
{
1000
OWNER
1000
GEN
1002
}
  0
MTEXT
  5
82179
330
1F
100
AcDbEntity
  8
AM_6
100
AcDbMText
 10
724.0
 20
215.0
 30
0.0
 40
6.4
 41
40.0
 71
     5
 72
     5
  1
HKT
 73
     1
 44
1.0
1001
ACAD
1000
MTEXTBEGIN
1070
    73
1070
     1
1070
    44
1040
1.0
1070
    74
1070
     0
1000
MTEXTEND
  0
LWPOLYLINE
  5
8217A
330
1F
100
AcDbEntity
  8
AM_0
100
AcDbPolyline
 90
        4
 70
     1
 43
0.0
 10
704.0
 20
201.0
 10
744.0
 20
201.0
 10
744.0
 20
189.0
 10
704.0
 20
189.0
1001
GENIUS_GENREC_14
1002
{
1000
PYDIR
1011
704.0
1021
189.0
1031
0.0
1002
}
1002
{
1000
PXDIR
1011
744.0
1021
201.0
1031
0.0
1002
}
1002
{
1000
PORI
1011
704.0
1021
201.0
1031
0.0
1002
}
1002
{
1000
PINS
1011
704.0
1021
201.0
1031
0.0
1002
}
1002
{
1000
PINS2
1011
744.0
1021
189.0
1031
0.0
1002
}
1002
{
1000
C
1070
     1
1002
}
1001
GENIUS_GENODEF_13
1002
{
1000
HIER
1070
     0
1002
}
1002
{
1000
MANEDIT
1070
     0
1002
}
1002
{
1000
NOSEL
1070
     0
1002
}
1002
{
1000
BEHIND
1070
     0
1002
}
1002
{
1000
OTHER
1070
     0
1002
}
1002
{
1000
REACTOR
1002
}
1001
GENIUS_GENOBJ-N-REC_13
1002
{
1000
OWNER
1000
GEN
1002
}
  0
MTEXT
  5
8217B
330
1F
100
AcDbEntity
  8
AM_6
100
AcDbMText
 10
724.0
 20
195.0
 30
0.0
 40
6.4
 41
40.0
 71
     5
 72
     5
  1
SUHKT
 73
     1
 44
1.0
1001
ACAD
1000
MTEXTBEGIN
1070
    73
1070
     1
1070
    44
1040
1.0
1070
    74
1070
     0
1000
MTEXTEND
  0
MTEXT
  5
929C1
330
1F
100
AcDbEntity
  8
AM_6
100
AcDbMText
 10
535.0000000000829
 20
41.00000000028012
 30
0.0
 40
6.4
 41
32.00000000002638
 71
     5
 72
     5
  1
-
 73
     1
 44
1.0
1001
ACAD
1000
MTEXTBEGIN
1070
    73
1070
     1
1070
    44
1040
1.0
1070
    74
1070
     0
1000
MTEXTEND
  0
DIMENSION
  5
A2E76
330
1F
100
AcDbEntity
  8
AM_5
100
AcDbDimension
  2
*D28
 10
399.959096178932
 20
490.2415817576622
 30
0.0
 11
400.9844011169707
 21
497.9844009063366
 31
0.0
 70
    33
  1
P
 71
     5
 42
9.499999702114678
  3
SYS$0
100
AcDbAlignedDimension
 13
372.1412430000001
 23
475.8587569999999
 33
0.0
 14
378.8587572106359
 24
469.1412427893647
 34
0.0
1001
ACAD
1000
DSTYLE
1002
{
1070
    40
1040
2.0
1002
}
  0
LINE
  5
A9BB0
330
1F
100
AcDbEntity
  8
AM_0
100
AcDbLine
 10
23.00000000000569
 20
433.0
 30
0.0
 11
218.9999999999981
 21
433.0
 31
0.0
  0
MTEXT
  5
A9BB1
330
1F
100
AcDbEntity
  8
AM_6
100
AcDbMText
 10
42.99999999999658
 20
441.0
 30
0.0
 40
6.4
 41
40.0
 71
     5
 72
     5
  1
備　考
 73
     1
 44
1.0
1001
ACAD
1000
MTEXTBEGIN
1070
    73
1070
     1
1070
    44
1040
1.0
1070
    74
1070
     0
1000
MTEXTEND
  0
MTEXT
  5
A9BB3
330
1F
100
AcDbEntity
  8
AM_6
100
AcDbMText
 10
62.99999999999795
 20
537.0
 30
0.0
 40
6.4
 41
156.0
 71
     4
 72
     5
  1
  SUHJT/ SUHKT
 73
     1
 44
1.0
1001
ACAD
1000
MTEXTBEGIN
1070
    73
1070
     1
1070
    44
1040
1.0
1070
    74
1070
     0
1000
MTEXTEND
  0
ENDSEC
  0
SECTION
  2
OBJECTS
  0
DICTIONARY
  5
C
330
0
100
AcDbDictionary
281
     1
  3
ACAD_2007HEADERVARS_RT
350
AB205
  3
ACAD_BGPLOT_KEY
350
AB06
  3
ACAD_COLOR
350
A91D
  3
ACAD_GROUP
350
D
  3
ACAD_LAYOUT
350
1A
  3
ACAD_MATERIAL
350
A91C
  3
ACAD_MLINESTYLE
350
17
  3
ACAD_PLOTSETTINGS
350
19
  3
ACAD_PLOTSTYLENAME
350
E
  3
ACAD_TABLESTYLE
350
AAB9
  3
ACAD_VISUALSTYLE
350
B0F1
  3
AcAsAppObject
350
3DA1
  3
ACASGREF_MASTER
350
3DE9
  3
AcDbVariableDictionary
350
34
  3
AcmDictionary
350
47
  3
AD_GREF_MODULE
350
3DEA
  3
AD_MAPI_MODULE
350
3E06
  3
AMG
350
2B
  3
AMGSNAPSETTINGS
350
7D
  3
ASE_INDEX_DICTIONARY
350
AA8D8
  3
DWGPROPS
350
AB204
  3
MAPISURF_MODULE
350
3DEB
  0
DICTIONARY
  5
3F95
330
2
100
AcDbDictionary
280
     1
281
     1
  3
ACAD_LAYERFILTERS
360
B466
  3
ACAD_LAYERSTATES
360
3F96
  3
ACLYDICTIONARY
360
B465
  3
AMLAYER_GROUPCOLORS
360
AAB4
  0
DICTIONARY
  5
8A
330
1F
100
AcDbDictionary
280
     1
281
     1
  3
ACAD_SORTENTS
360
B1BA
  0
DICTIONARY
  5
AB205
102
{ACAD_REACTORS
330
C
102
}
330
C
100
AcDbDictionary
281
     1
  3
DIMARCSYM
350
AB206
  0
DICTIONARY
  5
AB06
102
{ACAD_REACTORS
330
C
102
}
330
C
100
AcDbDictionary
280
     1
281
     1
  0
DICTIONARY
  5
A91D
102
{ACAD_REACTORS
330
C
102
}
330
C
100
AcDbDictionary
281
     1
  0
DICTIONARY
  5
D
102
{ACAD_REACTORS
330
C
102
}
330
C
100
AcDbDictionary
281
     1
  0
DICTIONARY
  5
1A
102
{ACAD_REACTORS
330
C
102
}
330
C
100
AcDbDictionary
281
     1
  3
Model
350
22
  3
ﾚｲｱｳﾄ1
350
1E
  3
ﾚｲｱｳﾄ2
350
26
  0
DICTIONARY
  5
A91C
102
{ACAD_REACTORS
330
C
102
}
330
C
100
AcDbDictionary
281
     1
  3
ByBlock
350
B0EF
  3
ByLayer
350
B0EE
  3
Global
350
B0F0
  0
DICTIONARY
  5
17
102
{ACAD_REACTORS
330
C
102
}
330
C
100
AcDbDictionary
281
     1
  3
Standard
350
18
  0
DICTIONARY
  5
19
102
{ACAD_REACTORS
330
C
102
}
330
C
100
AcDbDictionary
281
     1
  0
ACDBDICTIONARYWDFLT
  5
E
102
{ACAD_REACTORS
330
C
102
}
330
C
100
AcDbDictionary
281
     1
  3
Normal
350
F
100
AcDbDictionaryWithDefault
340
F
  0
DICTIONARY
  5
AAB9
102
{ACAD_REACTORS
330
C
102
}
330
C
100
AcDbDictionary
281
     1
  3
Standard
350
AABA
  0
DICTIONARY
  5
B0F1
102
{ACAD_REACTORS
330
C
102
}
330
C
100
AcDbDictionary
281
     1
  3
2dWireframe
350
B0F7
  3
3D Hidden
350
B0F9
  3
3dWireframe
350
B0F8
  3
Basic
350
B0F6
  3
Brighten
350
B0FD
  3
ColorChange
350
B101
  3
Conceptual
350
B0FA
  3
Dim
350
B0FC
  3
Facepattern
350
B100
  3
Flat
350
B0F2
  3
FlatWithEdges
350
B0F3
  3
Gouraud
350
B0F4
  3
GouraudWithEdges
350
B0F5
  3
Linepattern
350
B0FF
  3
Realistic
350
B0FB
  3
Thicken
350
B0FE
  0
ACAD_PROXY_OBJECT
  5
3DA1
102
{ACAD_REACTORS
330
C
102
}
330
C
100
AcDbProxyObject
 90
      499
 91
      576
 95
   917527
 70
     0
 93
       10
310
407F
 94
        0
1001
ACAD
1000
AcRTDxfName
1000
ASAPP
  0
ACAD_PROXY_OBJECT
  5
3DE9
102
{ACAD_REACTORS
330
C
102
}
330
C
100
AcDbProxyObject
 90
      499
 91
      581
 95
   917527
 70
     0
 93
       34
310
010000407F
 94
        0
1001
ACAD
1000
AcRTDxfName
1000
ACASGREFMASTER
  0
DICTIONARY
  5
34
102
{ACAD_REACTORS
330
C
102
}
330
C
100
AcDbDictionary
281
     1
  3
CTABLESTYLE
350
AAF3
  3
DIMASSOC
350
A10C
  3
FIELDEVAL
350
AB07
  3
INDEXCTL
350
35
  3
SORTENTS
350
194C
  0
DICTIONARY
  5
47
102
{ACAD_REACTORS
330
C
102
}
330
C
100
AcDbDictionary
281
     1
  3
AcmBOM
350
7E8
  3
AcmStdDictionary
350
4C
  3
AMDTSECTSYM_ARROWCOLOR
350
A929
  0
ACAD_PROXY_OBJECT
  5
3DEA
102
{ACAD_REACTORS
330
C
102
}
330
C
100
AcDbProxyObject
 90
      499
 91
      582
 95
   917527
 70
     0
 93
      114
310
00000043800000000000000000003F
 94
        0
1001
ACAD
1000
AcRTDxfName
1000
ACADGREFMODULE
  0
ACAD_PROXY_OBJECT
  5
3E06
102
{ACAD_REACTORS
330
C
102
}
330
C
100
AcDbProxyObject
 90
      499
 91
      594
 95
   917527
 70
     0
 93
       34
310
05000044FF
 94
        0
1001
ACAD
1000
AcRTDxfName
1000
MAPIADMODULE
  0
DICTIONARY
  5
2B
102
{ACAD_REACTORS
330
C
102
}
330
C
100
AcDbDictionary
281
     1
  0
DICTIONARY
  5
7D
102
{ACAD_REACTORS
330
C
102
}
330
C
100
AcDbDictionary
281
     1
  0
DICTIONARY
  5
AA8D8
102
{ACAD_REACTORS
330
C
102
}
330
C
100
AcDbDictionary
281
     1
  3
ASEBlockHierarchyIndexRecord
350
AA8D9
1001
DCO15
1040
1749812023.093
  0
XRECORD
  5
AB204
102
{ACAD_REACTORS
330
C
102
}
330
C
100
AcDbXrecord
280
     1
  1
DWGPROPS COOKIE
  2

  3

  4

  6

  7

  8
Administrator
  9

300
AmdtFileType=84
301
=
302
=
303
=
304
=
305
=
306
=
307
=
308
=
309
=
 40
3.164334467592592
 41
2455567.561054317
 42
2456267.576491782
  1

 90
        1
  0
ACAD_PROXY_OBJECT
  5
3DEB
102
{ACAD_REACTORS
330
C
102
}
330
C
100
AcDbProxyObject
 90
      499
 91
      583
 95
   917527
 70
     0
 93
        8
310
047E
 94
        0
1001
ACAD
1000
AcRTDxfName
1000
AMDTMAPISURFMOUDULE
  0
DICTIONARY
  5
B466
102
{ACAD_REACTORS
330
3F95
102
}
330
3F95
100
AcDbDictionary
281
     1
  0
DICTIONARY
  5
3F96
102
{ACAD_REACTORS
330
3F95
102
}
330
3F95
100
AcDbDictionary
281
     1
  3
20011210
350
3FB7
  0
DICTIONARY
  5
B465
102
{ACAD_REACTORS
330
3F95
102
}
330
3F95
100
AcDbDictionary
281
     1
1001
ACAD
1000
<All
  0
DICTIONARY
  5
AAB4
102
{ACAD_REACTORS
330
3F95
102
}
330
3F95
100
AcDbDictionary
280
     1
281
     1
  0
SORTENTSTABLE
  5
B1BA
102
{ACAD_REACTORS
330
8A
102
}
330
8A
100
AcDbSortentsTable
330
1F
331
7BAC0
  5
7BAE1
331
7C201
  5
7F76C
331
7BD0B
  5
7BD19
331
7BCCC
  5
7BCDA
331
7BB17
  5
7BB25
331
7BAD8
  5
7BAE9
331
7BC95
  5
7BCA7
331
7BD52
  5
7BD64
331
7BD13
  5
7BD21
331
7BCD4
  5
7BCE4
331
7BC9D
  5
7BCAD
331
7BB1F
  5
7BB2D
331
7BAE0
  5
7BAF0
331
7C209
  5
7F774
331
7BD5A
  5
7BD68
331
7BD1B
  5
7BD29
331
7BCA5
  5
7BCB5
331
7BB6E
  5
7BB81
331
7BB27
  5
7BB42
331
7BAE8
  5
7BAF6
331
7BCDC
  5
7BCEC
331
7BD62
  5
7BD70
331
7BCE4
  5
7BCF2
331
7FB48
  5
7FB56
331
80063
  5
802DE
331
7FB50
  5
7FFBC
331
7FFBD
  5
7FFF5
331
7FC66
  5
7FFF0
331
808EA
  5
813C2
331
8077B
  5
8089D
331
806FC
  5
8070C
331
80704
  5
8076A
331
8079B
  5
808A7
331
8070C
  5
80771
331
806CD
  5
806DF
331
8217A
  5
82553
331
806D5
  5
806E7
331
7BAF0
  5
7BAFE
331
7BD6A
  5
7C1F9
331
7BD23
  5
7BD31
331
7BCEC
  5
7BCFA
331
7BCAD
  5
7BCC0
331
7BB7E
  5
7BB8C
331
7BB2F
  5
7BB4A
331
7BAF8
  5
7BB06
331
7BD72
  5
7C202
331
7BCF4
  5
7BD04
331
7BCB5
  5
7BCC7
331
7BB86
  5
7BC96
331
7BB3F
  5
7BB4D
331
7BB00
  5
7BB0E
331
7BAB1
  5
7BABF
331
7BD2B
  5
7BD47
331
7BCFC
  5
7BD0C
331
7BCBD
  5
7BCCC
331
7BB8E
  5
7BCA0
331
7BB47
  5
7BB55
331
7BAB9
  5
7BAD9
331
7BB08
  5
7BB16
331
7C1FA
  5
7C209
331
7BD04
  5
7BD12
331
7BCC5
  5
7BCD3
331
7BB4F
  5
7BB62
331
7BD43
  5
7BD59
331
7FBD7
  5
7FFED
331
7FB39
  5
7FB4A
331
7FFED
  5
80065
331
7FB41
  5
7FB4F
331
7FFF5
  5
802D9
331
8089B
  5
808C3
331
806DD
  5
806F3
331
808A3
  5
808F1
331
8076C
  5
8077C
331
806E5
  5
806FB
331
80774
  5
8079B
331
808C3
  5
80799
331
806F5
  5
80703
331
7BB10
  5
7BB1E
331
7BAC1
  5
7BAE2
331
7C202
  5
7F76D
331
7BD4B
  5
7BD5F
331
7BD0C
  5
7BD1A
331
7BCCD
  5
7BCDB
331
7BC96
  5
7BCA8
331
7BB18
  5
7BB26
331
7BAD9
  5
7BAEA
331
7BD14
  5
7BD22
331
7BCD5
  5
7BCE5
331
7BC9E
  5
7BCB0
331
7BB67
  5
7BB7A
331
7BB20
  5
7BB2E
331
7BAE1
  5
7BAF1
331
7BD53
  5
7BD65
331
7BD5B
  5
7BD69
331
7BD1C
  5
7BD2A
331
7BCDD
  5
7BCED
331
7BCA6
  5
7BCB6
331
7BB6F
  5
7BB82
331
7BAE9
  5
7BAF7
331
7BCE5
  5
7BCF3
331
7BD63
  5
7BD71
331
7FB49
  5
7FBD7
331
7FB51
  5
7FFBD
331
7FFBE
  5
7FFF6
331
808EB
  5
813C3
331
8077C
  5
8089E
331
806FD
  5
8070D
331
80794
  5
808A0
331
82173
  5
8254D
331
8070D
  5
80772
331
806CE
  5
806E0
331
8217B
  5
82554
331
806D6
  5
806E8
331
7BAF1
  5
7BAFF
331
7BB28
  5
7BB43
331
7BD24
  5
7BD32
331
7BCED
  5
7BCFB
331
7BB7F
  5
7BB8D
331
7BAF9
  5
7BB07
331
7BD6B
  5
7C1FA
331
7BD73
  5
7C203
331
7BD2C
  5
7BD48
331
7BCF5
  5
7BD05
331
7BB87
  5
7BC97
331
7BB40
  5
7BB4E
331
7BB01
  5
7BB0F
331
7BAB2
  5
7BAC0
331
7BCB6
  5
7BCC8
331
7BCFD
  5
7BD0D
331
7BCBE
  5
7BCCD
331
7BB8F
  5
7BCA1
331
7BB48
  5
7BB56
331
7BB09
  5
7BB17
331
7BABA
  5
7BADA
331
7C1FB
  5
7F557
331
7BD05
  5
7BD13
331
7BCC6
  5
7BCD4
331
7BD44
  5
7BD5A
331
7FBD8
  5
7FFEE
331
7FB32
  5
7FB47
331
7FB3A
  5
7FB4B
331
7FFEE
  5
80066
331
7FB42
  5
7FB50
331
7FFF6
  5
802DA
331
8089C
  5
808C5
331
806DE
  5
806F4
331
8076D
  5
80794
331
806E6
  5
806FC
331
808A4
  5
80B07
331
80775
  5
80896
331
806F6
  5
80704
331
7BB50
  5
7BB63
331
7BB11
  5
7BB1F
331
7BAC2
  5
7BAE5
331
7C203
  5
7F76E
331
7BD0D
  5
7BD1B
331
7BCCE
  5
7BCDC
331
7BC97
  5
7BCA9
331
7BB60
  5
7BB6F
331
7BB19
  5
7BB27
331
7BADA
  5
7BAEB
331
7BD4C
  5
7BD60
331
7BD15
  5
7BD23
331
7BCD6
  5
7BCE6
331
7BC9F
  5
7BCB1
331
7BB68
  5
7BB7B
331
7BAE2
  5
7BAF2
331
7BB21
  5
7BB2F
331
7BD1D
  5
7BD2B
331
7BCA7
  5
7BCB9
331
7BAEA
  5
7BAF8
331
7BD5C
  5
7BD6A
331
7BD64
  5
7BD72
331
7BCE6
  5
7BCF4
331
7FB4A
  5
7FBD8
331
7FB52
  5
7FFBE
331
80065
  5
802DF
331
7FFBF
  5
7FFF7
331
7FCD0
  5
7FFF1
331
808EC
  5
813C4
331
8077D
  5
8089F
331
806FE
  5
8070E
331
80795
  5
808A1
331
929C1
  5
92B96
331
82174
  5
8254E
331
8070E
  5
80773
331
806CF
  5
806E1
331
7BB78
  5
7BB86
331
7BB29
  5
7BB44
331
7BAF2
  5
7BB00
331
7BD6C
  5
7C1FB
331
7BCEE
  5
7BCFC
331
7BB80
  5
7BB8E
331
7BAFA
  5
7BB08
331
7BAAB
  5
7BAB9
331
7BD25
  5
7BD40
331
7BD2D
  5
7BD49
331
7BCF6
  5
7BD06
331
7BB88
  5
7BC9A
331
7BB41
  5
7BB4F
331
7BB02
  5
7BB10
331
7BAB3
  5
7BAC1
331
7BCFE
  5
7BD0E
331
7BCBF
  5
7BCCE
331
7BB90
  5
7BCA2
331
7BB49
  5
7BB57
331
7BB0A
  5
7BB18
331
7BABB
  5
7BADB
331
7BD45
  5
7BD5B
331
7BD06
  5
7BD14
331
7BCC7
  5
7BCD5
331
7FBD9
  5
7FFEF
331
7FFEF
  5
80067
331
7FB43
  5
7FB51
331
7FFF7
  5
802DB
331
8089D
  5
808EA
331
806DF
  5
806F5
331
808A5
  5
80B08
331
8076E
  5
80795
331
806E7
  5
806FD
331
80776
  5
80898
331
808C5
  5
813C1
331
806F7
  5
80707
331
7BB51
  5
7BB64
331
7BB12
  5
7BB20
331
7BAC3
  5
7BAE6
331
7C204
  5
7F76F
331
7BD0E
  5
7BD1C
331
7BB61
  5
7BB71
331
7BB1A
  5
7BB28
331
7BADB
  5
7BAEC
331
7BCCF
  5
7BCDD
331
7BD16
  5
7BD24
331
7BCD7
  5
7BCE7
331
7BCA0
  5
7BCB2
331
7BB69
  5
7BB7C
331
7BB22
  5
7BB3D
331
7BD5D
  5
7BD6B
331
7BCDF
  5
7BCEE
331
7BB71
  5
7BB83
331
7BAEB
  5
7BAF9
331
7BD1E
  5
7BD2C
331
7BD65
  5
7BD73
331
7BCE7
  5
7BCF5
331
7FB4B
  5
7FBD9
331
80066
  5
802E0
331
7FB53
  5
7FFBF
331
7FFC0
  5
7FFF8
331
A2E76
  5
A2F6A
331
806FF
  5
8070F
331
808ED
  5
813C5
331
80796
  5
808A2
331
80707
  5
8076B
331
82175
  5
8254F
331
8070F
  5
80774
331
806D0
  5
806E2
331
80896
  5
808BE
331
7BCA8
  5
7BCBA
331
7BB79
  5
7BB87
331
7BB2A
  5
7BB45
331
7BAF3
  5
7BB01
331
7BD6D
  5
7C1FD
331
7BD26
  5
7BD41
331
7BCEF
  5
7BCFD
331
7BCB0
  5
7BCC1
331
7BB81
  5
7BB8F
331
7BAAC
  5
7BABA
331
7BAFB
  5
7BB09
331
7BCF7
  5
7BD07
331
7BB89
  5
7BC9B
331
7BB42
  5
7BB50
331
7BB03
  5
7BB11
331
7BAB4
  5
7BAC2
331
7BD2E
  5
7BD4B
331
7C1F5
  5
7C204
331
7BCFF
  5
7BD0F
331
7BCC0
  5
7BCCF
331
7BB4A
  5
7BB58
331
7BB0B
  5
7BB19
331
7BABC
  5
7BADD
331
7BB91
  5
7BCA5
331
7C1FD
  5
7F558
331
7BD07
  5
7BD15
331
7FFF0
  5
80068
331
7FB44
  5
7FB52
331
806D8
  5
806EA
331
8089E
  5
808EB
331
806E0
  5
806F6
331
808A6
  5
80B09
331
806E8
  5
806FE
331
808BE
  5
813BE
331
80777
  5
80899
331
7BCC8
  5
7BCD6
331
7BB52
  5
7BB65
331
7BB13
  5
7BB21
331
7BAC4
  5
7BAE7
331
7C205
  5
7F770
331
7BD4E
  5
7BD61
331
7BD0F
  5
7BD1D
331
7BCD0
  5
7BCDF
331
7BB62
  5
7BB72
331
7BB1B
  5
7BB29
331
7BD17
  5
7BD25
331
7BCD8
  5
7BCE8
331
7BCA1
  5
7BCB3
331
7BB6A
  5
7BB7D
331
7BB23
  5
7BB3E
331
7BD5E
  5
7BD6C
331
7BD1F
  5
7BD2D
331
7BB72
  5
7BB84
331
7BAEC
  5
7BAFA
331
7BD66
  5
7C1F5
331
7FB4C
  5
7FC66
331
7FFF8
  5
802DC
331
80067
  5
802E1
331
7FB54
  5
7FFC0
331
7FFC1
  5
80062
331
806F8
  5
80708
331
808EE
  5
813C6
331
80700
  5
80710
331
80797
  5
808A3
331
80708
  5
8076C
331
82176
  5
82550
331
80710
  5
80775
331
806D1
  5
806E3
331
80897
  5
808BF
331
7BCE8
  5
7BCF6
331
7BCA9
  5
7BCBB
331
7BB2B
  5
7BB46
331
7BAF4
  5
7BB02
331
7AC05
  5
7BAAD
331
7BB7A
  5
7BB88
331
7BD6E
  5
7C1FE
331
7BD27
  5
7BD42
331
7BCF0
  5
7BCFE
331
7BCB1
  5
7BCC2
331
7BB82
  5
7BB90
331
7BAFC
  5
7BB0A
331
7BAAD
  5
7BABB
331
7BD2F
  5
7BD4C
331
7BCB9
  5
7BCC9
331
7BB8A
  5
7BC9C
331
7BB43
  5
7BB51
331
7BB04
  5
7BB12
331
7BAB5
  5
7BAC3
331
7BCF8
  5
7BD08
331
7C1F6
  5
7C205
331
7BCC1
  5
7BCD0
331
7BB4B
  5
7BB59
331
7BB0C
  5
7BB1A
331
7BABD
  5
7BADE
331
7C1FE
  5
7F769
331
7BD47
  5
7BD5C
331
7FB3D
  5
7FB4C
331
7FFF1
  5
80069
331
7FB45
  5
7FB53
331
8089F
  5
808EC
331
80768
  5
80778
331
806E1
  5
806F7
331
808A7
  5
80B0A
331
80770
  5
80796
331
808BF
  5
813BF
331
7BD08
  5
7BD16
331
7BCC9
  5
7BCD7
331
7BB53
  5
7BB67
331
7BB14
  5
7BB22
331
7C206
  5
7F771
331
7BD10
  5
7BD1E
331
7BCD1
  5
7BCE1
331
7BC9A
  5
7BCAA
331
7BB63
  5
7BB73
331
7BB1C
  5
7BB2A
331
7BADD
  5
7BAED
331
7BD4F
  5
7BD62
331
7BD18
  5
7BD26
331
7BCD9
  5
7BCE9
331
7BCA2
  5
7BCB4
331
7BB24
  5
7BB3F
331
7BAE5
  5
7BAF3
331
7BB6B
  5
7BB7E
331
7BD5F
  5
7BD6D
331
7BCE1
  5
7BCEF
331
7BB73
  5
7BB85
331
7BAED
  5
7BAFB
331
7BD67
  5
7C1F6
331
7FB4D
  5
7FCD0
331
80068
  5
802E2
331
7FB55
  5
7FFC1
331
80778
  5
8089A
331
806F9
  5
80709
331
80701
  5
8071B
331
80709
  5
8076D
331
806CA
  5
806DC
331
80798
  5
808A4
331
806D2
  5
806E4
331
7BD20
  5
7BD2E
331
7BCE9
  5
7BCF7
331
7BCAA
  5
7BCBD
331
7BB7B
  5
7BB89
331
7BB2C
  5
7BB47
331
7BAF5
  5
7BB03
331
7AC06
  5
7BAAE
331
7BD6F
  5
7C1FF
331
7BCF1
  5
7BCFF
331
7BCB2
  5
7BCC4
331
7BB83
  5
7BB91
331
7BAFD
  5
7BB0B
331
7BAAE
  5
7BABC
331
7BD28
  5
7BD43
331
7BD30
  5
7BD4E
331
7BCF9
  5
7BD09
331
7BCBA
  5
7BCCA
331
7BB8B
  5
7BC9D
331
7BB44
  5
7BB52
331
7BB05
  5
7BB13
331
7BAB6
  5
7BAC4
331
7BCC2
  5
7BCD1
331
7BB4C
  5
7BB5A
331
7BB0D
  5
7BB1B
331
7BABE
  5
7BADF
331
7BD40
  5
7BD52
331
7C1FF
  5
7F76A
331
7FD1B
  5
7FFF2
331
7FFF2
  5
802D6
331
7FB46
  5
7FB54
331
80898
  5
808C0
331
808A0
  5
808ED
331
80769
  5
80779
331
806E2
  5
806F8
331
80771
  5
80797
331
806EA
  5
806FF
331
808C0
  5
813C0
331
806F2
  5
80700
331
7BD48
  5
7BD5D
331
7BD09
  5
7BD17
331
7BCCA
  5
7BCD8
331
7BB54
  5
7BB68
331
7BB15
  5
7BB23
331
7BAC6
  5
7BAE8
331
7C207
  5
7F772
331
7BCD2
  5
7BCE2
331
7BC9B
  5
7BCAB
331
7BB64
  5
7BB78
331
7BB1D
  5
7BB2B
331
7BADE
  5
7BAEE
331
7BD11
  5
7BD1F
331
7BD58
  5
7BD66
331
7BD19
  5
7BD27
331
7BCDA
  5
7BCEA
331
7BB6C
  5
7BB7F
331
7BB25
  5
7BB40
331
7BAE6
  5
7BAF4
331
7F557
  5
7F775
331
7BCE2
  5
7BCF0
331
7BAEE
  5
7BAFC
331
7BD60
  5
7BD6E
331
7FB4E
  5
7FD1B
331
80069
  5
802E3
331
80779
  5
8089B
331
806FA
  5
8070A
331
808F0
  5
813C7
331
80702
  5
80768
331
80799
  5
808A5
331
8070A
  5
8076E
331
806CB
  5
806DD
331
82178
  5
82551
331
806D3
  5
806E5
331
7BD68
  5
7C1F7
331
7BCEA
  5
7BCF8
331
7BCAB
  5
7BCBE
331
7BB7C
  5
7BB8A
331
7BB2D
  5
7BB48
331
7BAF6
  5
7BB04
331
7BD21
  5
7BD2F
331
7BD70
  5
7C200
331
7BD29
  5
7BD44
331
7BCF2
  5
7BD02
331
7BCB3
  5
7BCC5
331
7BB84
  5
7BC94
331
7BAFE
  5
7BB0C
331
7BAAF
  5
7BABD
331
7BB3D
  5
7BB4B
331
7BD31
  5
7BD4F
331
7BCFA
  5
7BD0A
331
7BCBB
  5
7BCCB
331
7BB8C
  5
7BC9E
331
7BB45
  5
7BB53
331
7BB06
  5
7BB14
331
7BAB7
  5
7BAC6
331
7C1F8
  5
7C207
331
7BD41
  5
7BD53
331
7BB4D
  5
7BB60
331
7BB0E
  5
7BB1C
331
7BABF
  5
7BAE0
331
7BD02
  5
7BD10
331
7FB37
  5
7FB48
331
7FD4C
  5
7FFF3
331
7FB3F
  5
7FB4D
331
7FB47
  5
7FB55
331
7FFF3
  5
802D7
331
80899
  5
808C1
331
808A1
  5
808EE
331
806E3
  5
806F9
331
8076A
  5
8077A
331
80772
  5
80798
331
808C1
  5
8077D
331
806F3
  5
80701
331
7C200
  5
7F76B
331
7BD0A
  5
7BD18
331
7BCCB
  5
7BCD9
331
7BC94
  5
7BCA6
331
7BB16
  5
7BB24
331
7BD49
  5
7BD5E
331
7C208
  5
7F773
331
7BD51
  5
7BD63
331
7BD12
  5
7BD20
331
7BCD3
  5
7BCE3
331
7BC9C
  5
7BCAC
331
7BB65
  5
7BB79
331
7BB1E
  5
7BB2C
331
7BADF
  5
7BAEF
331
7BD1A
  5
7BD28
331
7BCDB
  5
7BCEB
331
7BB6D
  5
7BB80
331
7BB26
  5
7BB41
331
7BAE7
  5
7BAF5
331
7BD59
  5
7BD67
331
7BD61
  5
7BD6F
331
7BAEF
  5
7BAFD
331
7BCE3
  5
7BCF1
331
7FB4F
  5
7FD4C
331
80062
  5
802DD
331
7FFBC
  5
7FFF4
331
8077A
  5
8089C
331
808F1
  5
813C8
331
80703
  5
80769
331
8079A
  5
808A6
331
8070B
  5
80770
331
806CC
  5
806DE
331
806D4
  5
806E6
331
82179
  5
82552
331
7BD69
  5
7C1F8
331
7BD22
  5
7BD30
331
7BCAC
  5
7BCBF
331
7BB7D
  5
7BB8B
331
7BB2E
  5
7BB49
331
7BAF7
  5
7BB05
331
7BCEB
  5
7BCF9
331
7BD71
  5
7C201
331
7BD2A
  5
7BD45
331
7BCF3
  5
7BD03
331
7BCB4
  5
7BCC6
331
7BB85
  5
7BC95
331
7BB3E
  5
7BB4C
331
7BAFF
  5
7BB0D
331
7BAB0
  5
7BABE
331
7BCFB
  5
7BD0B
331
7BB8D
  5
7BC9F
331
7BB46
  5
7BB54
331
7BB07
  5
7BB15
331
7BAB8
  5
7BAD8
331
7BD32
  5
7BD51
331
7C1F9
  5
7C208
331
7BD42
  5
7BD58
331
7BD03
  5
7BD11
331
7BCC4
  5
7BCD2
331
7BB4E
  5
7BB61
331
7BB0F
  5
7BB1D
331
7F558
  5
7F776
331
7FB38
  5
7FB49
331
7FB40
  5
7FB4E
331
7FFEC
  5
80063
331
7FFF4
  5
802D8
331
8089A
  5
808C2
331
8071B
  5
80776
331
806DC
  5
806F2
331
808A2
  5
808F0
331
806E4
  5
806FA
331
80773
  5
8079A
331
806F4
  5
80702
  0
XRECORD
  5
AB206
102
{ACAD_REACTORS
330
AB205
102
}
330
AB205
100
AcDbXrecord
280
     1
 70
     1
  0
LAYOUT
  5
22
102
{ACAD_XDICTIONARY
360
AB209
102
}
102
{ACAD_REACTORS
330
1A
102
}
330
1A
100
AcDbPlotSettings
  1

  2
Adobe PDF
  4
A3
  6

 40
3.174999952316284
 41
3.174999952316284
 42
3.17498779296875
 43
3.17498779296875
 44
297.0318298339844
 45
420.1583251953125
 46
-3.159078955650329
 47
-3.095831274986267
 48
0.0
 49
0.0
140
840.0
141
594.0
142
1.0
143
2.0
 70
  3748
 72
     1
 73
     1
 74
     4
  7
monochrome.ctb
 75
     0
147
0.4848174396015349
148
0.0
149
0.0
100
AcDbLayout
  1
Model
 70
     1
 71
     0
 10
0.0
 20
0.0
 11
12.0
 21
9.0
 12
0.0
 22
0.0
 32
0.0
 14
0.0
 24
0.0
 34
0.0
 15
0.0
 25
0.0
 35
0.0
146
0.0
 13
0.0
 23
0.0
 33
0.0
 16
1.0
 26
0.0
 36
0.0
 17
0.0
 27
1.0
 37
0.0
 76
     0
330
1F
331
B0EC
1001
ACAD_PSEXT
1000
Adobe PDF
1000
Adobe PDF Converter
1000
My Documents\*.pdf
1000

1070
     0
  0
LAYOUT
  5
1E
102
{ACAD_XDICTIONARY
360
AB207
102
}
102
{ACAD_REACTORS
330
1A
102
}
330
1A
100
AcDbPlotSettings
  1

  2
\\ML370\XEROX
  4
A4
  6

 40
3.174999952316284
 41
3.174999952316284
 42
3.175003051757812
 43
3.17498779296875
 44
209.8674926757813
 45
296.6719970703125
 46
0.0
 47
0.0
 48
0.0
 49
0.0
140
0.0
141
0.0
142
1.0
143
1.0
 70
   688
 72
     1
 73
     1
 74
     5
  7
monochrome.ctb
 75
    16
147
1.0
148
0.0
149
0.0
100
AcDbLayout
  1
ﾚｲｱｳﾄ1
 70
     1
 71
     1
 10
-3.17498779296875
 20
-3.174999952316284
 11
293.4970092773438
 21
206.692492723465
 12
0.0
 22
0.0
 32
0.0
 14
1.000000000000000E+20
 24
1.000000000000000E+20
 34
1.000000000000000E+20
 15
-1.000000000000000E+20
 25
-1.000000000000000E+20
 35
-1.000000000000000E+20
146
0.0
 13
0.0
 23
0.0
 33
0.0
 16
1.0
 26
0.0
 36
0.0
 17
0.0
 27
1.0
 37
0.0
 76
     0
330
1B
  0
LAYOUT
  5
26
102
{ACAD_XDICTIONARY
360
AB20B
102
}
102
{ACAD_REACTORS
330
1A
102
}
330
1A
100
AcDbPlotSettings
  1

  2
\\ML370\XEROX
  4

  6

 40
0.0
 41
0.0
 42
0.0
 43
0.0
 44
0.0
 45
0.0
 46
0.0
 47
0.0
 48
0.0
 49
0.0
140
0.0
141
0.0
142
1.0
143
1.0
 70
   688
 72
     0
 73
     0
 74
     5
  7
monochrome.ctb
 75
    16
147
1.0
148
0.0
149
0.0
100
AcDbLayout
  1
ﾚｲｱｳﾄ2
 70
     1
 71
     2
 10
0.0
 20
0.0
 11
12.0
 21
9.0
 12
0.0
 22
0.0
 32
0.0
 14
0.0
 24
0.0
 34
0.0
 15
0.0
 25
0.0
 35
0.0
146
0.0
 13
0.0
 23
0.0
 33
0.0
 16
1.0
 26
0.0
 36
0.0
 17
0.0
 27
1.0
 37
0.0
 76
     0
330
23
  0
MATERIAL
  5
B0EF
102
{ACAD_XDICTIONARY
360
AB211
102
}
102
{ACAD_REACTORS
330
A91C
102
}
330
A91C
100
AcDbMaterial
  1
ByBlock
  0
MATERIAL
  5
B0EE
102
{ACAD_XDICTIONARY
360
AB20F
102
}
102
{ACAD_REACTORS
330
A91C
102
}
330
A91C
100
AcDbMaterial
  1
ByLayer
  0
MATERIAL
  5
B0F0
102
{ACAD_XDICTIONARY
360
AB213
102
}
102
{ACAD_REACTORS
330
A91C
102
}
330
A91C
100
AcDbMaterial
  1
Global
  0
MLINESTYLE
  5
18
102
{ACAD_REACTORS
330
17
102
}
330
17
100
AcDbMlineStyle
  2
STANDARD
 70
     0
  3

 62
   256
 51
90.0
 52
90.0
 71
     2
 49
0.5
 62
   256
  6
BYLAYER
 49
-0.5
 62
   256
  6
BYLAYER
  0
ACDBPLACEHOLDER
  5
F
102
{ACAD_REACTORS
330
E
102
}
330
E
  0
TABLESTYLE
  5
AABA
102
{ACAD_XDICTIONARY
360
AB20D
102
}
102
{ACAD_REACTORS
330
AAB9
102
}
330
AAB9
100
AcDbTableStyle
  3
Standard
 70
     0
 71
     0
 40
1.5
 41
1.5
280
     0
281
     0
  7
STANDARD
140
4.5
170
     2
 62
     0
 63
     7
283
     0
274
    -2
284
     1
 64
     0
275
    -2
285
     1
 65
     0
276
    -2
286
     1
 66
     0
277
    -2
287
     1
 67
     0
278
    -2
288
     1
 68
     0
279
    -2
289
     1
 69
     0
  7
STANDARD
140
6.0
170
     5
 62
     0
 63
     7
283
     0
274
    -2
284
     1
 64
     0
275
    -2
285
     1
 65
     0
276
    -2
286
     1
 66
     0
277
    -2
287
     1
 67
     0
278
    -2
288
     1
 68
     0
279
    -2
289
     1
 69
     0
  7
STANDARD
140
4.5
170
     5
 62
     0
 63
     7
283
     0
274
    -2
284
     1
 64
     0
275
    -2
285
     1
 65
     0
276
    -2
286
     1
 66
     0
277
    -2
287
     1
 67
     0
278
    -2
288
     1
 68
     0
279
    -2
289
     1
 69
     0
  0
VISUALSTYLE
  5
B0F7
102
{ACAD_REACTORS
330
B0F1
102
}
330
B0F1
100
AcDbVisualStyle
  2
2dWireframe
 70
     4
 71
     0
 72
     2
 73
     0
 90
        0
 40
-0.6
 41
-30.0
 62
     5
 63
     7
 74
     1
 91
        4
 64
     7
 65
   257
 75
     1
175
     1
 42
1.0
 92
        0
 66
   257
 43
1.0
 76
     1
 77
     6
 78
     2
 67
     7
 79
     5
170
     0
171
     0
290
     0
174
     0
 93
        1
 44
0.0
173
     0
291
     0
 45
0.0
1001
ACAD
1000
AcDbSavedByObjectVersion
1070
     0
  0
VISUALSTYLE
  5
B0F9
102
{ACAD_REACTORS
330
B0F1
102
}
330
B0F1
100
AcDbVisualStyle
  2
3D Hidden
 70
     6
 71
     1
 72
     2
 73
     2
 90
        0
 40
-0.6
 41
-30.0
 62
     5
 63
     7
 74
     2
 91
        2
 64
     7
 65
   257
 75
     2
175
     1
 42
40.0
 92
        0
 66
   257
 43
1.0
 76
     1
 77
     6
 78
     2
 67
     7
 79
     3
170
     0
171
     0
290
     0
174
     0
 93
        1
 44
0.0
173
     0
291
     0
 45
0.0
1001
ACAD
1000
AcDbSavedByObjectVersion
1070
     0
  0
VISUALSTYLE
  5
B0F8
102
{ACAD_REACTORS
330
B0F1
102
}
330
B0F1
100
AcDbVisualStyle
  2
3dWireframe
 70
     5
 71
     0
 72
     2
 73
     0
 90
        0
 40
-0.6
 41
-30.0
 62
     5
 63
     7
 74
     1
 91
        4
 64
     7
 65
   257
 75
     1
175
     1
 42
1.0
 92
        0
 66
   257
 43
1.0
 76
     1
 77
     6
 78
     2
 67
     7
 79
     5
170
     0
171
     0
290
     0
174
     0
 93
        1
 44
0.0
173
     0
291
     0
 45
0.0
1001
ACAD
1000
AcDbSavedByObjectVersion
1070
     0
  0
VISUALSTYLE
  5
B0F6
102
{ACAD_REACTORS
330
B0F1
102
}
330
B0F1
100
AcDbVisualStyle
  2
Basic
 70
     7
 71
     1
 72
     0
 73
     1
 90
        0
 40
-0.6
 41
-30.0
 62
     5
 63
     7
 74
     0
 91
        4
 64
     7
 65
   257
 75
     1
175
     1
 42
1.0
 92
        8
 66
     7
 43
1.0
 76
     1
 77
     6
 78
     2
 67
     7
 79
     5
170
     0
171
     0
290
     0
174
     0
 93
        1
 44
0.0
173
     0
291
     1
 45
0.0
1001
ACAD
1000
AcDbSavedByObjectVersion
1070
     0
  0
VISUALSTYLE
  5
B0FD
102
{ACAD_REACTORS
330
B0F1
102
}
330
B0F1
100
AcDbVisualStyle
  2
Brighten
 70
    12
 71
     2
 72
     2
 73
     0
 90
        0
 40
-0.6
 41
-30.0
 62
     5
 63
     7
 74
     1
 91
        4
 64
     7
 65
   257
 75
     1
175
     1
 42
1.0
 92
        8
 66
     7
 43
1.0
 76
     1
 77
     6
 78
     2
 67
     7
 79
     5
170
     0
171
     0
290
     0
174
     0
 93
        1
 44
50.0
173
     0
291
     1
 45
0.0
1001
ACAD
1000
AcDbSavedByObjectVersion
1070
     0
  0
VISUALSTYLE
  5
B101
102
{ACAD_REACTORS
330
B0F1
102
}
330
B0F1
100
AcDbVisualStyle
  2
ColorChange
 70
    16
 71
     2
 72
     2
 73
     3
 90
        0
 40
-0.6
 41
-30.0
 62
     5
 63
     8
 74
     1
 91
        4
 64
     7
 65
   257
 75
     1
175
     1
 42
1.0
 92
        8
 66
     8
 43
1.0
 76
     1
 77
     6
 78
     2
 67
     7
 79
     5
170
     0
171
     0
290
     0
174
     0
 93
        1
 44
0.0
173
     0
291
     1
 45
0.0
1001
ACAD
1000
AcDbSavedByObjectVersion
1070
     0
  0
VISUALSTYLE
  5
B0FA
102
{ACAD_REACTORS
330
B0F1
102
}
330
B0F1
100
AcDbVisualStyle
  2
Conceptual
 70
     9
 71
     3
 72
     2
 73
     0
 90
        0
 40
-0.6
 41
-30.0
 62
     5
 63
     7
 74
     2
 91
        2
 64
     7
 65
   257
 75
     1
175
     1
 42
40.0
 92
        8
 66
     7
 43
1.0
 76
     1
 77
     6
 78
     2
 67
     7
 79
     3
170
     0
171
     0
290
     0
174
     0
 93
        1
 44
0.0
173
     0
291
     0
 45
0.0
1001
ACAD
1000
AcDbSavedByObjectVersion
1070
     0
  0
VISUALSTYLE
  5
B0FC
102
{ACAD_REACTORS
330
B0F1
102
}
330
B0F1
100
AcDbVisualStyle
  2
Dim
 70
    11
 71
     2
 72
     2
 73
     0
 90
        0
 40
-0.6
 41
-30.0
 62
     5
 63
     7
 74
     1
 91
        4
 64
     7
 65
   257
 75
     1
175
     1
 42
1.0
 92
        8
 66
     7
 43
1.0
 76
     1
 77
     6
 78
     2
 67
     7
 79
     5
170
     0
171
     0
290
     0
174
     0
 93
        1
 44
-50.0
173
     0
291
     1
 45
0.0
1001
ACAD
1000
AcDbSavedByObjectVersion
1070
     0
  0
VISUALSTYLE
  5
B100
102
{ACAD_REACTORS
330
B0F1
102
}
330
B0F1
100
AcDbVisualStyle
  2
Facepattern
 70
    15
 71
     2
 72
     2
 73
     0
 90
        0
 40
-0.6
 41
-30.0
 62
     5
 63
     7
 74
     1
 91
        4
 64
     7
 65
   257
 75
     1
175
     1
 42
1.0
 92
        8
 66
     7
 43
1.0
 76
     1
 77
     6
 78
     2
 67
     7
 79
     5
170
     0
171
     0
290
     0
174
     0
 93
        1
 44
0.0
173
     0
291
     1
 45
0.0
1001
ACAD
1000
AcDbSavedByObjectVersion
1070
     0
  0
VISUALSTYLE
  5
B0F2
102
{ACAD_REACTORS
330
B0F1
102
}
330
B0F1
100
AcDbVisualStyle
  2
Flat
 70
     0
 71
     2
 72
     1
 73
     1
 90
        2
 40
-0.6
 41
30.0
 62
     5
 63
     7
 74
     0
 91
        4
 64
     7
 65
   257
 75
     1
175
     1
 42
1.0
 92
        8
 66
     7
 43
1.0
 76
     1
 77
     6
 78
     2
 67
     7
 79
     5
170
     0
171
     0
290
     0
174
     0
 93
       13
 44
0.0
173
     0
291
     1
 45
0.0
1001
ACAD
1000
AcDbSavedByObjectVersion
1070
     0
  0
VISUALSTYLE
  5
B0F3
102
{ACAD_REACTORS
330
B0F1
102
}
330
B0F1
100
AcDbVisualStyle
  2
FlatWithEdges
 70
     1
 71
     2
 72
     1
 73
     1
 90
        2
 40
-0.6
 41
30.0
 62
     5
 63
     7
 74
     1
 91
        4
 64
     7
 65
   257
 75
     1
175
     1
 42
1.0
 92
        0
 66
   257
 43
1.0
 76
     1
 77
     6
 78
     2
 67
     7
 79
     5
170
     0
171
     0
290
     0
174
     0
 93
       13
 44
0.0
173
     0
291
     1
 45
0.0
1001
ACAD
1000
AcDbSavedByObjectVersion
1070
     0
  0
VISUALSTYLE
  5
B0F4
102
{ACAD_REACTORS
330
B0F1
102
}
330
B0F1
100
AcDbVisualStyle
  2
Gouraud
 70
     2
 71
     2
 72
     2
 73
     1
 90
        2
 40
-0.6
 41
30.0
 62
     5
 63
     7
 74
     0
 91
        4
 64
     7
 65
   257
 75
     1
175
     1
 42
1.0
 92
        0
 66
     7
 43
1.0
 76
     1
 77
     6
 78
     2
 67
     7
 79
     5
170
     0
171
     0
290
     0
174
     0
 93
       13
 44
0.0
173
     0
291
     1
 45
0.0
1001
ACAD
1000
AcDbSavedByObjectVersion
1070
     0
  0
VISUALSTYLE
  5
B0F5
102
{ACAD_REACTORS
330
B0F1
102
}
330
B0F1
100
AcDbVisualStyle
  2
GouraudWithEdges
 70
     3
 71
     2
 72
     2
 73
     1
 90
        2
 40
-0.6
 41
30.0
 62
     5
 63
     7
 74
     1
 91
        4
 64
     7
 65
   257
 75
     1
175
     1
 42
1.0
 92
        0
 66
   257
 43
1.0
 76
     1
 77
     6
 78
     2
 67
     7
 79
     5
170
     0
171
     0
290
     0
174
     0
 93
       13
 44
0.0
173
     0
291
     1
 45
0.0
1001
ACAD
1000
AcDbSavedByObjectVersion
1070
     0
  0
VISUALSTYLE
  5
B0FF
102
{ACAD_REACTORS
330
B0F1
102
}
330
B0F1
100
AcDbVisualStyle
  2
Linepattern
 70
    14
 71
     2
 72
     2
 73
     0
 90
        0
 40
-0.6
 41
-30.0
 62
     5
 63
     7
 74
     1
 91
        4
 64
     7
 65
   257
 75
     7
175
     7
 42
1.0
 92
        8
 66
     7
 43
1.0
 76
     1
 77
     6
 78
     2
 67
     7
 79
     5
170
     0
171
     0
290
     0
174
     0
 93
        1
 44
0.0
173
     0
291
     1
 45
0.0
1001
ACAD
1000
AcDbSavedByObjectVersion
1070
     0
  0
VISUALSTYLE
  5
B0FB
102
{ACAD_REACTORS
330
B0F1
102
}
330
B0F1
100
AcDbVisualStyle
  2
Realistic
 70
     8
 71
     2
 72
     2
 73
     0
 90
        0
 40
-0.6
 41
-30.0
 62
     5
 63
     7
 74
     1
 91
        0
 64
     7
 65
   257
 75
     1
175
     1
 42
1.0
 92
        8
 66
     8
 43
1.0
 76
     1
 77
     6
 78
     2
 67
     7
 79
     5
170
     0
171
     0
290
     0
174
     0
 93
       13
 44
0.0
173
     0
291
     0
 45
0.0
1001
ACAD
1000
AcDbSavedByObjectVersion
1070
     0
  0
VISUALSTYLE
  5
B0FE
102
{ACAD_REACTORS
330
B0F1
102
}
330
B0F1
100
AcDbVisualStyle
  2
Thicken
 70
    13
 71
     2
 72
     2
 73
     0
 90
        0
 40
-0.6
 41
-30.0
 62
     5
 63
     7
 74
     1
 91
        4
 64
     7
 65
   257
 75
     1
175
     1
 42
1.0
 92
       12
 66
     7
 43
1.0
 76
     1
 77
     6
 78
     2
 67
     7
 79
     5
170
     0
171
     0
290
     0
174
     0
 93
        1
 44
0.0
173
     0
291
     1
 45
0.0
1001
ACAD
1000
AcDbSavedByObjectVersion
1070
     0
  0
DICTIONARYVAR
  5
AAF3
102
{ACAD_REACTORS
330
34
102
}
330
34
100
DictionaryVariables
280
     0
  1
STANDARD
  0
DICTIONARYVAR
  5
A10C
102
{ACAD_REACTORS
330
34
102
}
330
34
100
DictionaryVariables
280
     0
  1
1
  0
DICTIONARYVAR
  5
AB07
102
{ACAD_REACTORS
330
34
102
}
330
34
100
DictionaryVariables
280
     0
  1
4
  0
DICTIONARYVAR
  5
35
102
{ACAD_REACTORS
330
34
102
}
330
34
100
DictionaryVariables
280
     0
  1
0
  0
DICTIONARYVAR
  5
194C
102
{ACAD_REACTORS
330
34
102
}
330
34
100
DictionaryVariables
280
     0
  1
96
  0
DICTIONARY
  5
7E8
102
{ACAD_REACTORS
330
47
102
}
330
47
100
AcDbDictionary
281
     1
  0
DICTIONARY
  5
4C
102
{ACAD_REACTORS
330
47
102
}
330
47
100
AcDbDictionary
281
     1
  0
XRECORD
  5
A929
102
{ACAD_REACTORS
330
47
102
}
330
47
100
AcDbXrecord
280
     1
 90
-1023410169
  0
XRECORD
  5
AA8D9
102
{ACAD_REACTORS
330
AA8D8
102
}
330
AA8D8
100
AcDbXrecord
280
     1
330
0
330
0
330
0
330
0
330
0
330
0
330
0
330
0
330
0
330
0
330
0
330
0
330
0
330
0
330
0
330
0
330
0
330
0
330
0
330
0
330
0
330
0
330
0
330
0
330
0
330
0
330
0
330
0
330
0
330
0
330
0
330
0
330
0
330
0
330
0
330
0
330
0
330
0
330
0
330
0
330
0
330
0
330
0
330
0
330
0
330
0
330
0
330
0
330
0
330
0
330
0
330
0
330
0
330
0
330
0
330
0
330
0
330
0
330
0
330
0
330
0
330
0
330
0
330
0
330
0
330
0
330
0
330
0
330
0
330
0
330
0
330
0
330
0
330
0
330
0
330
0
330
0
330
0
330
0
330
0
330
0
330
0
330
0
330
0
330
0
330
0
330
0
330
0
330
0
330
0
330
0
330
0
330
0
330
0
330
0
330
0
330
0
330
0
330
0
330
0
330
0
330
0
330
0
330
0
330
0
330
0
330
0
330
0
330
0
330
0
330
0
330
0
330
0
330
0
330
0
330
0
330
0
330
0
330
0
330
0
330
0
330
0
330
0
330
0
330
0
330
0
330
0
330
0
330
0
330
0
330
0
330
0
330
0
330
0
330
0
330
0
330
0
330
0
330
0
330
0
330
0
330
0
330
0
330
0
330
0
330
0
330
0
330
0
330
0
330
0
330
0
330
0
330
0
330
0
330
0
330
0
330
0
330
0
330
0
330
0
330
0
330
0
330
0
330
0
330
0
330
0
330
0
330
0
330
0
330
0
330
0
330
0
330
0
330
0
330
0
330
0
330
0
330
0
330
0
330
0
330
0
330
0
330
0
330
0
330
0
330
0
330
0
330
0
330
0
330
0
330
0
330
0
330
0
330
0
330
0
330
0
330
0
330
0
330
0
330
0
330
0
330
0
330
0
330
0
330
0
330
0
330
0
330
0
330
0
330
0
330
0
330
0
330
0
330
0
330
0
330
0
330
0
330
0
330
0
330
0
330
0
330
0
330
0
330
0
330
0
330
0
330
0
330
0
330
0
330
0
330
0
330
0
330
0
330
0
330
0
330
0
330
0
330
0
330
0
330
0
330
0
330
0
330
0
330
0
330
0
330
0
330
0
330
0
330
0
330
0
330
0
330
0
330
0
330
0
330
0
330
0
330
0
330
0
330
0
330
0
330
0
330
0
330
0
330
0
330
0
330
0
330
0
330
0
330
0
330
0
330
0
330
0
330
0
330
0
330
0
330
0
330
0
330
0
330
0
330
0
330
0
330
0
330
0
330
0
330
0
330
0
330
0
330
0
330
0
330
0
330
0
330
0
330
0
330
0
330
0
330
0
330
0
330
0
330
0
330
0
330
0
330
0
330
0
330
0
330
0
330
0
330
0
330
0
330
0
330
0
330
0
330
0
330
0
330
0
330
0
330
0
330
0
330
0
330
0
330
0
330
0
330
0
330
0
330
0
330
0
330
0
330
0
330
0
330
0
330
0
330
0
330
0
330
0
330
0
330
0
330
0
330
0
330
0
330
0
330
0
330
0
330
0
330
0
330
0
330
0
330
0
330
0
330
0
330
0
330
0
330
0
330
0
330
0
330
0
330
0
330
0
330
0
330
0
330
0
330
0
330
0
330
0
330
0
330
0
330
0
330
0
330
0
330
0
330
0
330
0
330
0
330
0
330
0
330
0
330
0
330
0
330
0
330
0
330
0
330
0
330
0
330
0
330
0
330
0
330
0
330
0
330
0
330
0
330
0
330
0
330
0
330
0
330
0
330
0
330
0
330
0
330
0
330
0
330
0
330
0
330
0
330
0
330
0
330
0
330
0
330
0
330
0
330
0
330
0
330
0
330
0
330
0
330
0
330
0
330
0
330
0
330
0
330
0
330
0
330
0
330
0
330
0
330
0
330
0
330
0
330
0
330
0
330
0
330
0
330
0
330
0
330
0
330
0
330
0
330
0
330
0
330
0
330
0
330
0
330
0
330
0
330
0
330
0
330
0
330
0
330
0
330
0
330
0
330
0
330
0
330
0
330
0
330
0
330
0
330
0
330
0
330
0
330
0
330
0
330
0
330
0
330
0
330
0
330
0
330
0
330
0
330
0
330
0
330
0
330
0
330
0
330
0
330
0
330
0
330
0
330
0
330
0
330
0
330
0
330
0
330
0
330
0
330
0
330
0
330
0
330
0
330
0
330
0
330
0
330
0
330
0
330
0
330
0
330
0
330
0
330
0
  0
XRECORD
  5
3FB7
102
{ACAD_REACTORS
330
3F96
102
}
330
3F96
100
AcDbXrecord
280
     1
 91
        3
330
0
 90
        8
 62
     7
370
    40
331
16
  1
Color_7
330
0
 90
        0
 62
    14
370
    -3
331
16
  1
Color_14
330
0
 90
        8
 62
     7
370
    20
331
16
  1
Color_7
330
6D1
 90
        0
 62
     7
370
    -3
331
16
  1
Color_7
330
0
 90
        8
 62
     7
370
    50
331
16
  1
Color_7
330
0
 90
        8
 62
     2
370
    35
331
16
  1
Color_2
330
0
 90
        8
 62
     7
370
    -3
331
16
  1
Color_7
330
10
 90
        8
 62
     7
370
    -3
331
16
  1
Color_7
  0
DICTIONARY
  5
AB209
330
22
100
AcDbDictionary
280
     1
281
     1
  3
ACAD_XREC_ROUNDTRIP
360
AB20A
  0
DICTIONARY
  5
AB207
330
1E
100
AcDbDictionary
280
     1
281
     1
  3
ACAD_XREC_ROUNDTRIP
360
AB208
  0
DICTIONARY
  5
AB20B
330
26
100
AcDbDictionary
280
     1
281
     1
  3
ACAD_XREC_ROUNDTRIP
360
AB20C
  0
DICTIONARY
  5
AB211
330
B0EF
100
AcDbDictionary
280
     1
281
     1
  3
ACAD_XREC_ROUNDTRIP
360
AB212
  0
DICTIONARY
  5
AB20F
330
B0EE
100
AcDbDictionary
280
     1
281
     1
  3
ACAD_XREC_ROUNDTRIP
360
AB210
  0
DICTIONARY
  5
AB213
330
B0F0
100
AcDbDictionary
280
     1
281
     1
  3
ACAD_XREC_ROUNDTRIP
360
AB214
  0
DICTIONARY
  5
AB20D
330
AABA
100
AcDbDictionary
280
     1
281
     1
  3
ACAD_XREC_ROUNDTRIP
360
AB20E
  0
XRECORD
  5
AB20A
102
{ACAD_REACTORS
330
AB209
102
}
330
AB209
100
AcDbXrecord
280
     1
102
SHADEPLOT
 70
     1
102
SHADEPLOTRESLEVEL
 70
     2
102
SHADEPLOTCUSTOMDPI
 70
   300
  0
XRECORD
  5
AB208
102
{ACAD_REACTORS
330
AB207
102
}
330
AB207
100
AcDbXrecord
280
     1
102
SHADEPLOT
 70
     0
102
SHADEPLOTRESLEVEL
 70
     2
102
SHADEPLOTCUSTOMDPI
 70
   300
  0
XRECORD
  5
AB20C
102
{ACAD_REACTORS
330
AB20B
102
}
330
AB20B
100
AcDbXrecord
280
     1
102
SHADEPLOT
 70
     0
102
SHADEPLOTRESLEVEL
 70
     2
102
SHADEPLOTCUSTOMDPI
 70
   300
  0
XRECORD
  5
AB212
102
{ACAD_REACTORS
330
AB211
102
}
330
AB211
100
AcDbXrecord
280
     1
102
MATERIAL
148
0.0
149
0.0
149
0.0
 93
        0
 94
       63
282
     0
 72
     1
 77
     1
171
     1
175
     1
179
     1
273
     0
  0
XRECORD
  5
AB210
102
{ACAD_REACTORS
330
AB20F
102
}
330
AB20F
100
AcDbXrecord
280
     1
102
MATERIAL
148
0.0
149
0.0
149
0.0
 93
        0
 94
       63
282
     0
 72
     1
 77
     1
171
     1
175
     1
179
     1
273
     0
  0
XRECORD
  5
AB214
102
{ACAD_REACTORS
330
AB213
102
}
330
AB213
100
AcDbXrecord
280
     1
102
MATERIAL
148
0.0
149
0.0
149
0.0
 93
        0
 94
       63
282
     0
 72
     1
 77
     1
171
     1
175
     1
179
     1
273
     0
  0
XRECORD
  5
AB20E
102
{ACAD_REACTORS
330
AB20D
102
}
330
AB20D
100
AcDbXrecord
280
     1
102
ACAD_ROUNDTRIP_PRE2007_TABLESTYLE
 90
        4
 91
        0
  1

 92
        4
 93
        0
  2

 94
        4
 95
        0
  3

  0
ENDSEC
  0
EOF
