  0
SECTION
  2
HEADER
  9
$ACADVER
  1
AC1015
  9
$ACADMAINTVER
 70
    20
  9
$DWGCODEPAGE
  3
ANSI_932
  9
$INSBASE
 10
0.0
 20
0.0
 30
0.0
  9
$EXTMIN
 10
-0.1348348580759193
 20
-0.4218651418341324
 30
-0.0015258207003583
  9
$EXTMAX
 10
1188.073092331727
 20
840.3980516361771
 30
0.0000000349246037
  9
$LIMMIN
 10
-1206.906806347062
 20
-12202.36094600418
  9
$LIMMAX
 10
-366.9068063470622
 20
-11608.36094600418
  9
$ORTHOMODE
 70
     0
  9
$REGENMODE
 70
     1
  9
$FILLMODE
 70
     1
  9
$QTEXTMODE
 70
     0
  9
$MIRRTEXT
 70
     0
  9
$LTSCALE
 40
1.0
  9
$ATTMODE
 70
     1
  9
$TEXTSIZE
 40
3.2
  9
$TRACEWID
 40
1.0
  9
$TEXTSTYLE
  7
STANDARD
  9
$CLAYER
  8
AM_6
  9
$CELTYPE
  6
ByLayer
  9
$CECOLOR
 62
   256
  9
$CELTSCALE
 40
1.0
  9
$DISPSILH
 70
     0
  9
$DIMSCALE
 40
1.0
  9
$DIMASZ
 40
1.0
  9
$DIMEXO
 40
1.0
  9
$DIMDLI
 40
10.0
  9
$DIMRND
 40
0.0
  9
$DIMDLE
 40
0.0
  9
$DIMEXE
 40
1.0
  9
$DIMTP
 40
0.1
  9
$DIMTM
 40
0.1
  9
$DIMTXT
 40
3.5
  9
$DIMCEN
 40
0.0
  9
$DIMTSZ
 40
0.0
  9
$DIMTOL
 70
     0
  9
$DIMLIM
 70
     0
  9
$DIMTIH
 70
     0
  9
$DIMTOH
 70
     0
  9
$DIMSE1
 70
     0
  9
$DIMSE2
 70
     0
  9
$DIMTAD
 70
     1
  9
$DIMZIN
 70
     8
  9
$DIMBLK
  1

  9
$DIMASO
 70
     1
  9
$DIMSHO
 70
     1
  9
$DIMPOST
  1

  9
$DIMAPOST
  1
"
  9
$DIMALT
 70
     0
  9
$DIMALTD
 70
     2
  9
$DIMALTF
 40
0.0393701
  9
$DIMLFAC
 40
1.0
  9
$DIMTOFL
 70
     1
  9
$DIMTVP
 40
0.0
  9
$DIMTIX
 70
     0
  9
$DIMSOXD
 70
     0
  9
$DIMSAH
 70
     0
  9
$DIMBLK1
  1

  9
$DIMBLK2
  1

  9
$DIMSTYLE
  2
SYS
  9
$DIMCLRD
 70
   256
  9
$DIMCLRE
 70
   256
  9
$DIMCLRT
 70
     7
  9
$DIMTFAC
 40
0.71
  9
$DIMGAP
 40
1.5
  9
$DIMJUST
 70
     0
  9
$DIMSD1
 70
     0
  9
$DIMSD2
 70
     0
  9
$DIMTOLJ
 70
     0
  9
$DIMTZIN
 70
     8
  9
$DIMALTZ
 70
     0
  9
$DIMALTTZ
 70
     0
  9
$DIMUPT
 70
     0
  9
$DIMDEC
 70
     1
  9
$DIMTDEC
 70
     2
  9
$DIMALTU
 70
     2
  9
$DIMALTTD
 70
     2
  9
$DIMTXSTY
  7
STANDARD
  9
$DIMAUNIT
 70
     0
  9
$DIMADEC
 70
     0
  9
$DIMALTRND
 40
0.0
  9
$DIMAZIN
 70
     2
  9
$DIMDSEP
 70
    46
  9
$DIMATFIT
 70
     3
  9
$DIMFRAC
 70
     0
  9
$DIMLDRBLK
  1

  9
$DIMLUNIT
 70
     2
  9
$DIMLWD
 70
    -1
  9
$DIMLWE
 70
    -1
  9
$DIMTMOVE
 70
     0
  9
$LUNITS
 70
     2
  9
$LUPREC
 70
     2
  9
$SKETCHINC
 40
1.0
  9
$FILLETRAD
 40
0.0
  9
$AUNITS
 70
     0
  9
$AUPREC
 70
     0
  9
$MENU
  1
.
  9
$ELEVATION
 40
0.0
  9
$PELEVATION
 40
0.0
  9
$THICKNESS
 40
0.0
  9
$LIMCHECK
 70
     0
  9
$CHAMFERA
 40
0.0
  9
$CHAMFERB
 40
0.0
  9
$CHAMFERC
 40
20.0
  9
$CHAMFERD
 40
0.0
  9
$SKPOLY
 70
     0
  9
$TDCREATE
 40
2455567.561054317
  9
$TDUCREATE
 40
2455567.186054318
  9
$TDUPDATE
 40
2456267.576266990
  9
$TDUUPDATE
 40
2456267.201266991
  9
$TDINDWG
 40
3.1669558449
  9
$TDUSRTIMER
 40
3.1669538542
  9
$USRTIMER
 70
     1
  9
$ANGBASE
 50
0.0
  9
$ANGDIR
 70
     0
  9
$PDMODE
 70
     0
  9
$PDSIZE
 40
-3.0
  9
$PLINEWID
 40
0.0
  9
$SPLFRAME
 70
     0
  9
$SPLINETYPE
 70
     6
  9
$SPLINESEGS
 70
     8
  9
$HANDSEED
  5
AB243
  9
$SURFTAB1
 70
     6
  9
$SURFTAB2
 70
     6
  9
$SURFTYPE
 70
     6
  9
$SURFU
 70
     6
  9
$SURFV
 70
     6
  9
$UCSBASE
  2

  9
$UCSNAME
  2

  9
$UCSORG
 10
0.0
 20
0.0
 30
0.0
  9
$UCSXDIR
 10
1.0
 20
0.0
 30
0.0
  9
$UCSYDIR
 10
0.0
 20
1.0
 30
0.0
  9
$UCSORTHOREF
  2

  9
$UCSORTHOVIEW
 70
     0
  9
$UCSORGTOP
 10
0.0
 20
0.0
 30
0.0
  9
$UCSORGBOTTOM
 10
0.0
 20
0.0
 30
0.0
  9
$UCSORGLEFT
 10
0.0
 20
0.0
 30
0.0
  9
$UCSORGRIGHT
 10
0.0
 20
0.0
 30
0.0
  9
$UCSORGFRONT
 10
0.0
 20
0.0
 30
0.0
  9
$UCSORGBACK
 10
0.0
 20
0.0
 30
0.0
  9
$PUCSBASE
  2

  9
$PUCSNAME
  2

  9
$PUCSORG
 10
0.0
 20
0.0
 30
0.0
  9
$PUCSXDIR
 10
1.0
 20
0.0
 30
0.0
  9
$PUCSYDIR
 10
0.0
 20
1.0
 30
0.0
  9
$PUCSORTHOREF
  2

  9
$PUCSORTHOVIEW
 70
     0
  9
$PUCSORGTOP
 10
0.0
 20
0.0
 30
0.0
  9
$PUCSORGBOTTOM
 10
0.0
 20
0.0
 30
0.0
  9
$PUCSORGLEFT
 10
0.0
 20
0.0
 30
0.0
  9
$PUCSORGRIGHT
 10
0.0
 20
0.0
 30
0.0
  9
$PUCSORGFRONT
 10
0.0
 20
0.0
 30
0.0
  9
$PUCSORGBACK
 10
0.0
 20
0.0
 30
0.0
  9
$USERI1
 70
     0
  9
$USERI2
 70
     0
  9
$USERI3
 70
     0
  9
$USERI4
 70
     0
  9
$USERI5
 70
     0
  9
$USERR1
 40
0.0
  9
$USERR2
 40
0.0
  9
$USERR3
 40
0.0
  9
$USERR4
 40
0.0
  9
$USERR5
 40
0.0
  9
$WORLDVIEW
 70
     1
  9
$SHADEDGE
 70
     3
  9
$SHADEDIF
 70
    70
  9
$TILEMODE
 70
     1
  9
$MAXACTVP
 70
    64
  9
$PINSBASE
 10
0.0
 20
0.0
 30
0.0
  9
$PLIMCHECK
 70
     0
  9
$PEXTMIN
 10
1.000000000000000E+20
 20
1.000000000000000E+20
 30
1.000000000000000E+20
  9
$PEXTMAX
 10
-1.000000000000000E+20
 20
-1.000000000000000E+20
 30
-1.000000000000000E+20
  9
$PLIMMIN
 10
-3.17498779296875
 20
-3.174999952316284
  9
$PLIMMAX
 10
293.4970092773438
 20
206.692492723465
  9
$UNITMODE
 70
     0
  9
$VISRETAIN
 70
     1
  9
$PLINEGEN
 70
     0
  9
$PSLTSCALE
 70
     1
  9
$TREEDEPTH
 70
  3020
  9
$CMLSTYLE
  2
Standard
  9
$CMLJUST
 70
     0
  9
$CMLSCALE
 40
20.0
  9
$PROXYGRAPHICS
 70
     1
  9
$MEASUREMENT
 70
     1
  9
$CELWEIGHT
370
    -1
  9
$ENDCAPS
280
     0
  9
$JOINSTYLE
280
     0
  9
$LWDISPLAY
290
     1
  9
$INSUNITS
 70
     4
  9
$HYPERLINKBASE
  1

  9
$STYLESHEET
  1
monochrome.ctb
  9
$XEDIT
290
     1
  9
$CEPSNTYPE
380
     0
  9
$PSTYLEMODE
290
     1
  9
$FINGERPRINTGUID
  2
{E0FB5660-30B4-4D8A-8C1D-9D7E99D72F0A}
  9
$VERSIONGUID
  2
{6F0803D5-E4AF-4369-91B8-636DDEFE71A7}
  9
$EXTNAMES
290
     1
  9
$PSVPSCALE
 40
0.0
  9
$OLESTARTUP
290
     0
  0
ENDSEC
  0
SECTION
  2
CLASSES
  0
CLASS
  1
ACDBDICTIONARYWDFLT
  2
AcDbDictionaryWithDefault
  3
ObjectDBX Classes
 90
        0
280
     0
281
     0
  0
CLASS
  1
ACDBPLACEHOLDER
  2
AcDbPlaceHolder
  3
ObjectDBX Classes
 90
        0
280
     0
281
     0
  0
CLASS
  1
LAYOUT
  2
AcDbLayout
  3
ObjectDBX Classes
 90
        0
280
     0
281
     0
  0
CLASS
  1
AMGSETTINGSOBJ
  2
AmgSettingsObj
  3
"AcadM|Product Description: AutoCAD Mechanical|Company: Autodesk"
 90
        0
280
     0
281
     0
  0
CLASS
  1
ACME_DOCUMENT
  2
AcMeDbDoc
  3
AcMeServices
 90
        0
280
     0
281
     0
  0
CLASS
  1
ACMESCOPE
  2
AcMeScope
  3
AcMeServices
 90
        0
280
     0
281
     0
  0
CLASS
  1
ACMECOMMANDHISTORY
  2
AcMeCommandHistory
  3
AcMeServices
 90
        0
280
     0
281
     0
  0
CLASS
  1
DICTIONARYVAR
  2
AcDbDictionaryVar
  3
ObjectDBX Classes
 90
        0
280
     0
281
     0
  0
CLASS
  1
ACIMSYSVARMAN
  2
AcImSysVarManager
  3
AcMeServices
 90
        0
280
     0
281
     0
  0
CLASS
  1
ACIMREALSYSVAR
  2
AcImRealSysVar
  3
AcMeServices
 90
        0
280
     0
281
     0
  0
CLASS
  1
ACIMINTSYSVAR
  2
AcImIntSysVar
  3
AcMeServices
 90
        0
280
     0
281
     0
  0
CLASS
  1
ACMEDRAWINGMAN
  2
AcMeDrawingMan
  3
AcMeServices
 90
        0
280
     0
281
     0
  0
CLASS
  1
ACMEVIEW
  2
AcMeView
  3
AcMeServices
 90
        0
280
     0
281
     0
  0
CLASS
  1
ACDBENTITYCACHE
  2
AcMeEntityCache
  3
AcMeServices
 90
        0
280
     0
281
     0
  0
CLASS
  1
GSMANAGER
  2
AcMeGSManager
  3
AcMeServices
 90
        0
280
     0
281
     0
  0
CLASS
  1
AMDTINTERNALREACTOR
  2
AmdtInternalReactor
  3
AcMeServices
 90
        0
280
     0
281
     0
  0
CLASS
  1
ACMESTATEMGR
  2
AcMeStateMgr
  3
AcMeServices
 90
        0
280
     0
281
     0
  0
CLASS
  1
ACGREFMASTER
  2
AcGrefMaster
  3
AcAttribServices
 90
        0
280
     0
281
     0
  0
CLASS
  1
ACME_DATABASE
  2
AcMeDbDatabase
  3
AcMeServices
 90
        0
280
     0
281
     0
  0
CLASS
  1
ACRFINSADJUSTERMGR
  2
AcRfInsAdjusterMgr
  3
AcMeServices
 90
        0
280
     0
281
     0
  0
CLASS
  1
ACGREFACADMASTER
  2
AcGrefacadMaster
  3
AcGrefServices
 90
        0
280
     0
281
     0
  0
CLASS
  1
AMIMASTER
  2
AmiMaster
  3
AmiServices
 90
        0
280
     0
281
     0
  0
CLASS
  1
ACMDATADICTIONARY
  2
AcmDataDictionary
  3
"AcmSymBB|Product Description: AutoCAD Mechanical|Company: Autodesk"
 90
        0
280
     0
281
     0
  0
CLASS
  1
ACMDATAENTRYBLOCK
  2
AcmDataEntryBlock
  3
"AcmSymBB|Product Description: AutoCAD Mechanical|Company: Autodesk"
 90
    32768
280
     0
281
     0
  0
CLASS
  1
ACIMSTRSYSVAR
  2
AcImStrSysVar
  3
AcMeServices
 90
        0
280
     0
281
     0
  0
CLASS
  1
ACMSTANDARDISO
  2
AcmStandardISO
  3
"Amdt_StdImp|Product Description: AutoCAD Mechanical|Company: Autodesk"
 90
        0
280
     0
281
     0
  0
CLASS
  1
AMGOBJPROPCFG
  2
AmgObjPropCfg
  3
"AmgLay|Product Description: AutoCAD Mechanical|Company: Autodesk"
 90
        1
280
     0
281
     0
  0
CLASS
  1
AMDTEDGESTANDARDISO
  2
AmdtEdgeStdISO
  3
"Amdt_StdImp|Product Description: AutoCAD Mechanical|Company: Autodesk"
 90
    32768
280
     0
281
     0
  0
CLASS
  1
ACMSURFSTANDARDISO
  2
AcmSurfTextStdISO
  3
"Amdt_StdImp|Product Description: AutoCAD Mechanical|Company: Autodesk"
 90
        0
280
     0
281
     0
  0
CLASS
  1
ACMFCFSTANDARDISO
  2
AcmFCFStdISO
  3
"Amdt_StdImp|Product Description: AutoCAD Mechanical|Company: Autodesk"
 90
        0
280
     0
281
     0
  0
CLASS
  1
ACMWELDSTANDARDISO
  2
AcmWeldingStdISO
  3
"Amdt_StdImp|Product Description: AutoCAD Mechanical|Company: Autodesk"
 90
        0
280
     0
281
     0
  0
CLASS
  1
ACMIDSTANDARDISO
  2
AcmIdStdISO
  3
"Amdt_StdImp|Product Description: AutoCAD Mechanical|Company: Autodesk"
 90
        0
280
     0
281
     0
  0
CLASS
  1
ACMDATUMSTANDARDISO
  2
AcmDatumStdISO
  3
"Amdt_StdImp|Product Description: AutoCAD Mechanical|Company: Autodesk"
 90
        0
280
     0
281
     0
  0
CLASS
  1
ACMBOMSTANDARDISO
  2
AcmBOMStdISO
  3
"Amdt_StdImp|Product Description: AutoCAD Mechanical|Company: Autodesk"
 90
        0
280
     0
281
     0
  0
CLASS
  1
ACMDETAILSTANDARDISO
  2
AmdtDetailSymStdISO
  3
"Amdt_StdImp|Product Description: AutoCAD Mechanical|Company: Autodesk"
 90
        0
280
     0
281
     0
  0
CLASS
  1
ACMSECTIONSTANDARDISO
  2
AmdtSectionSymStdISO
  3
"Amdt_StdImp|Product Description: AutoCAD Mechanical|Company: Autodesk"
 90
        0
280
     0
281
     0
  0
CLASS
  1
ACMCENTERLINESTANDARDISO
  2
AmdtCenterLineStdISO
  3
"Amdt_StdImp|Product Description: AutoCAD Mechanical|Company: Autodesk"
 90
        0
280
     0
281
     0
  0
CLASS
  1
ACAMGLAYSTD
  2
AcAmgLayStd
  3
"AmgLay|Product Description: AutoCAD Mechanical|Company: Autodesk"
 90
        0
280
     0
281
     0
  0
CLASS
  1
ACAMGDIMSTD
  2
AcAmgDimStd
  3
"AmgDim|Product Description: AutoCAD Mechanical|Company: Autodesk"
 90
        0
280
     0
281
     0
  0
CLASS
  1
ACAMGTITLESTD
  2
AcAmgTitleStd
  3
"AmgTitle|Product Description: AutoCAD Mechanical|Company: Autodesk"
 90
        0
280
     0
281
     0
  0
CLASS
  1
ACAMGFILTERDAT
  2
AcAmgFilterDat
  3
"AcadM|Product Description: AutoCAD Mechanical|Company: Autodesk"
 90
    32768
280
     0
281
     0
  0
CLASS
  1
LAYER_INDEX
  2
AcDbLayerIndex
  3
ObjectDBX Classes
 90
    32768
280
     0
281
     0
  0
CLASS
  1
IDBUFFER
  2
AcDbIdBuffer
  3
ObjectDBX Classes
 90
    32768
280
     0
281
     0
  0
CLASS
  1
PLOTSETTINGS
  2
AcDbPlotSettings
  3
ObjectDBX Classes
 90
    32768
280
     0
281
     0
  0
CLASS
  1
AMDTFORMULAUPDATEDISPATCHER
  2
AmdtFormulaUpdateDispatcher
  3
AcMeServices
 90
    32768
280
     0
281
     0
  0
CLASS
  1
ACMSTANDARDANSI
  2
AcmStandardANSI
  3
"Amdt_StdImp|Product Description: AutoCAD Mechanical|Company: Autodesk"
 90
    32768
280
     0
281
     0
  0
CLASS
  1
ACMSURFSTANDARDANSI
  2
AcmSurfTextStdANSI
  3
"Amdt_StdImp|Product Description: AutoCAD Mechanical|Company: Autodesk"
 90
    32768
280
     0
281
     0
  0
CLASS
  1
ACMFCFSTANDARDANSI
  2
AcmFCFStdANSI
  3
"Amdt_StdImp|Product Description: AutoCAD Mechanical|Company: Autodesk"
 90
    32768
280
     0
281
     0
  0
CLASS
  1
ACMWELDSTANDARDANSI
  2
AcmWeldingStdANSI
  3
"Amdt_StdImp|Product Description: AutoCAD Mechanical|Company: Autodesk"
 90
    32768
280
     0
281
     0
  0
CLASS
  1
ACMIDSTANDARDANSI
  2
AcmIdStdANSI
  3
"Amdt_StdImp|Product Description: AutoCAD Mechanical|Company: Autodesk"
 90
    32768
280
     0
281
     0
  0
CLASS
  1
ACMDATUMSTANDARDANSI
  2
AcmDatumStdANSI
  3
"Amdt_StdImp|Product Description: AutoCAD Mechanical|Company: Autodesk"
 90
    32768
280
     0
281
     0
  0
CLASS
  1
ACMBOMSTANDARDANSI
  2
AcmBOMStdANSI
  3
"Amdt_StdImp|Product Description: AutoCAD Mechanical|Company: Autodesk"
 90
    32768
280
     0
281
     0
  0
CLASS
  1
ACMDETAILSTANDARDANSI
  2
AmdtDetailSymStdANSI
  3
"Amdt_StdImp|Product Description: AutoCAD Mechanical|Company: Autodesk"
 90
    32768
280
     0
281
     0
  0
CLASS
  1
ACMSECTIONSTANDARDANSI
  2
AmdtSectionSymStdANSI
  3
"Amdt_StdImp|Product Description: AutoCAD Mechanical|Company: Autodesk"
 90
    32768
280
     0
281
     0
  0
CLASS
  1
ACMCENTERLINESTANDARDANSI
  2
AmdtCenterLineStdANSI
  3
"Amdt_StdImp|Product Description: AutoCAD Mechanical|Company: Autodesk"
 90
    32768
280
     0
281
     0
  0
CLASS
  1
ACMBOM
  2
AcmBom
  3
"AcmSymBB|Product Description: AutoCAD Mechanical|Company: Autodesk"
 90
    32768
280
     0
281
     0
  0
CLASS
  1
ACMDATAENTRYPART
  2
AcmDataEntryPart
  3
"AcmSymBB|Product Description: AutoCAD Mechanical|Company: Autodesk"
 90
    32768
280
     0
281
     0
  0
CLASS
  1
ACMPARTREF
  2
AcmPartRef
  3
"AcmSymBB|Product Description: AutoCAD Mechanical|Company: Autodesk"
 90
    35839
280
     0
281
     1
  0
CLASS
  1
ACDBCIRCARCRES
  2
AcDbCircArcRes
  3
AcGrefServices
 90
    32768
280
     0
281
     0
  0
CLASS
  1
ACMBOMROW
  2
AcmBomRow
  3
"AcmSymBB|Product Description: AutoCAD Mechanical|Company: Autodesk"
 90
    32768
280
     0
281
     0
  0
CLASS
  1
ACMBALLOON
  2
AcmBalloon
  3
"AcmSymBB|Product Description: AutoCAD Mechanical|Company: Autodesk"
 90
    35839
280
     0
281
     1
  0
CLASS
  1
AMDTNOTE
  2
AmdtNote
  3
"AcmSymBB|Product Description: AutoCAD Mechanical|Company: Autodesk"
 90
    35839
280
     0
281
     1
  0
CLASS
  1
STDPART2D
  2
AmgStdPart
  3
"g3vace|Class: AmgStdPart|Product Description: AutoCAD Mechanical|Company: Autodesk"
 90
    35839
280
     0
281
     1
  0
CLASS
  1
ACDBSTDPARTRES_LINE
  2
AcDbStdPartRes_Line
  3
"g3vace|Class: AcDbStdPartRes_Line|Product Description: AutoCAD Mechanical|Company: Autodesk"
 90
    32768
280
     0
281
     0
  0
CLASS
  1
ACMDATAENTRY
  2
AcmDataEntry
  3
"AcmSymBB|Product Description: AutoCAD Mechanical|Company: Autodesk"
 90
    32768
280
     0
281
     0
  0
CLASS
  1
ACDBOPPOLYLINERES
  2
AcDbOpPolylineRes
  3
AcGrefServices
 90
    32768
280
     0
281
     0
  0
CLASS
  1
ACMPARTLIST
  2
AcmPartList
  3
"AcmSymBB|Product Description: AutoCAD Mechanical|Company: Autodesk"
 90
    35839
280
     0
281
     1
  0
CLASS
  1
ACDBLINERES
  2
AcDbLineRes
  3
AcGrefServices
 90
    32768
280
     0
281
     0
  0
CLASS
  1
ACRFINSADJ
  2
AcRfInsAdjuster
  3
AcMeServices
 90
    32768
280
     0
281
     0
  0
CLASS
  1
AM_DRAWING_MGR
  2
AcDmDwgMgr
  3
AcMechDwgViewMgmt
 90
        0
280
     0
281
     0
  0
CLASS
  1
AM_DWG_DOCUMENT
  2
AcDmDwgDocument
  3
AcMechDwgViewMgmt
 90
        0
280
     0
281
     0
  0
CLASS
  1
AM_DWG_SHEET
  2
AcDmSheet
  3
AcMechDwgViewMgmt
 90
        0
280
     0
281
     0
  0
CLASS
  1
AM_VIEWDIMPARMAP
  2
AcDmViewDimParMap
  3
AcMechDwgViewMgmt
 90
        0
280
     0
281
     0
  0
CLASS
  1
AM_DWGMGR_NAME
  2
AcDmDwgMgrName
  3
AcMechDwgViewMgmt
 90
        0
280
     0
281
     0
  0
CLASS
  1
AMDTMENUSTATEMGR
  2
AmdtMenuStateMgr
  3
McadcomServices
 90
        0
280
     0
281
     0
  0
CLASS
  1
AMDTMCOMMENUSTATE
  2
AmdtMcomMenuState
  3
McadcomServices
 90
        0
280
     0
281
     0
  0
CLASS
  1
ASAPP
  2
AcAsAppObject
  3
AutoSurfServices
 90
        0
280
     0
281
     0
  0
CLASS
  1
IM_STATIC_MAN
  2
AcImStaticVarManager
  3
AcMeServices
 90
        0
280
     0
281
     0
  0
CLASS
  1
ACIMDBLSTATICVAR
  2
AcImDblStaticVar
  3
AcMeServices
 90
    32768
280
     0
281
     0
  0
CLASS
  1
ACIMSTRSTATICVAR
  2
AcImStrStaticVar
  3
AcMeServices
 90
    32768
280
     0
281
     0
  0
CLASS
  1
ACIMINTSTATICVAR
  2
AcImIntStaticVar
  3
AcMeServices
 90
    32768
280
     0
281
     0
  0
CLASS
  1
ACASGREFMASTER
  2
AcAsGrefMaster
  3
AutoSurfResolverServices
 90
        0
280
     0
281
     0
  0
CLASS
  1
ACADGREFMODULE
  2
AcAdGrefModule
  3
AdGrefServices
 90
        0
280
     0
281
     0
  0
CLASS
  1
AMDTMAPISURFMOUDULE
  2
AmdtMApiSurfModule
  3
MApiSurfServices
 90
        0
280
     0
281
     0
  0
CLASS
  1
MAPIAMMOUDLE
  2
MApiAmModule
  3
MApiAmServices
 90
        0
280
     0
281
     0
  0
CLASS
  1
AMDTADMENUSTATE
  2
AmdtAdMenuState
  3
DesignerServices
 90
        0
280
     0
281
     0
  0
CLASS
  1
ADAPPL
  2
AcAdAppl
  3
DesignerServices
 90
        0
280
     0
281
     0
  0
CLASS
  1
DEPMGR
  2
AcAdDepMgr
  3
DesignerServices
 90
        0
280
     0
281
     0
  0
CLASS
  1
PARAMMGR
  2
AcAdParamMgr
  3
DesignerServices
 90
        0
280
     0
281
     0
  0
CLASS
  1
PARAMSCOPE
  2
AcAdParamScope
  3
DesignerServices
 90
        0
280
     0
281
     0
  0
CLASS
  1
NAMEDAPPL
  2
AcAdNamedAppl
  3
DesignerServices
 90
        0
280
     0
281
     0
  0
CLASS
  1
ADHNTMPLT
  2
AdHoleNoteTemplateMgr
  3
DesignerServices
 90
    32768
280
     0
281
     0
  0
CLASS
  1
AM_HNTEMPLATE_MGR_NAME
  2
AdHoleNoteTemplateMgrName
  3
DesignerServices
 90
    32768
280
     0
281
     0
  0
CLASS
  1
AMDTDMMENUSTATE
  2
AmdtDmMenuState
  3
AcMechDwgViewMgmt
 90
        0
280
     0
281
     0
  0
CLASS
  1
MAPIADMODULE
  2
MApiAdModule
  3
MApiAdServices
 90
        0
280
     0
281
     0
  0
CLASS
  1
AMDTAMMENUSTATE
  2
AmdtAmMenuState
  3
DesignerAssemblies
 90
        0
280
     0
281
     0
  0
CLASS
  1
ACAMPROJECT
  2
AcAmProject
  3
DesignerAssemblies
 90
        0
280
     0
281
     0
  0
CLASS
  1
ACAMGRCOMPDEF
  2
AcAmGrCompDef
  3
DesignerAssemblies
 90
        0
280
     0
281
     0
  0
CLASS
  1
ACCMCONTEXT
  2
AcCmContext
  3
DesignerAssemblies
 90
        0
280
     0
281
     0
  0
CLASS
  1
ACAMCOMPDEF
  2
AcAmCompDef
  3
DesignerAssemblies
 90
        0
280
     0
281
     0
  0
CLASS
  1
ACAMCOMPDEFMGR
  2
AcAmCompDefMgr
  3
DesignerAssemblies
 90
        0
280
     0
281
     0
  0
CLASS
  1
AMCONTEXTMGR
  2
AcAmContextMgr
  3
DesignerAssemblies
 90
        0
280
     0
281
     0
  0
CLASS
  1
ACAMCONTEXTMODELER
  2
AcAmContextModeler
  3
DesignerAssemblies
 90
        0
280
     0
281
     0
  0
CLASS
  1
CATALOGSTATE
  2
AcAmCatalogState
  3
DesignerAssemblies
 90
        0
280
     0
281
     0
  0
CLASS
  1
ACAMGRCOMPDEFSET
  2
AcAmGrCompDefSet
  3
DesignerAssemblies
 90
        0
280
     0
281
     0
  0
CLASS
  1
AMDTBROWSERDBTAB
  2
AmdtBrowserDbTab
  3
McadcomServices
 90
        0
280
     0
281
     0
  0
CLASS
  1
CBROWSERAPPOBJECT
  2
CBrowserAppObject
  3
McadcomServices
 90
        0
280
     0
281
     0
  0
CLASS
  1
DM_PLACEHOLDER
  2
AcDmSelsetPlaceholder
  3
AcMechDwgViewMgmt
 90
        0
280
     0
281
     0
  0
CLASS
  1
ACMPICKOBJ
  2
AcmPickEnt
  3
"AcmSymBB|Product Description: AutoCAD Mechanical|Company: Autodesk"
 90
    32768
280
     0
281
     1
  0
CLASS
  1
ACMNOTESTANDARDISO
  2
AmdtNoteStdISO
  3
"Amdt_StdImp|Product Description: AutoCAD Mechanical|Company: Autodesk"
 90
        0
280
     0
281
     0
  0
CLASS
  1
ACMNOTESTANDARDANSI
  2
AmdtNoteStdANSI
  3
"Amdt_StdImp|Product Description: AutoCAD Mechanical|Company: Autodesk"
 90
    32768
280
     0
281
     0
  0
CLASS
  1
ACMTHREADLINESTANDARDISO
  2
AmdtThreadLineStdISO
  3
"Amdt_StdImp|Product Description: AutoCAD Mechanical|Company: Autodesk"
 90
        0
280
     0
281
     0
  0
CLASS
  1
ACMTHREADLINESTANDARDANSI
  2
AmdtThreadLineStdANSI
  3
"Amdt_StdImp|Product Description: AutoCAD Mechanical|Company: Autodesk"
 90
    32768
280
     0
281
     0
  0
CLASS
  1
TABLESTYLE
  2
AcDbTableStyle
  3
ObjectDBX Classes
 90
     4095
280
     0
281
     0
  0
CLASS
  1
SORTENTSTABLE
  2
AcDbSortentsTable
  3
ObjectDBX Classes
 90
        0
280
     0
281
     0
  0
CLASS
  1
MATERIAL
  2
AcDbMaterial
  3
ObjectDBX Classes
 90
     1024
280
     0
281
     0
  0
CLASS
  1
VISUALSTYLE
  2
AcDbVisualStyle
  3
ObjectDBX Classes
 90
     4095
280
     0
281
     0
  0
CLASS
  1
ACRFATTGENMGR
  2
AcRfAttGeneralMgr
  3
AcAttribServices
 90
    32768
280
     0
281
     0
  0
CLASS
  1
ACRFOBJATTMGR
  2
AcRfObjAttGroupMgr
  3
AcAttribServices
 90
    32768
280
     0
281
     0
  0
CLASS
  1
ACRFMCADAPIATTHOLDER
  2
AcRfMCADAPIAttHolder
  3
AcAttribServices
 90
    32768
280
     0
281
     0
  0
CLASS
  1
AMDTSYSATTR
  2
AmdtSystemAttribute
  3
AcAttribServices
 90
    32768
280
     0
281
     0
  0
CLASS
  1
ACMTAPERSTANDARDISO
  2
AcmTaperStdISO
  3
"Amdt_StdImp|Product Description: AutoCAD Mechanical|Company: Autodesk"
 90
        0
280
     0
281
     0
  0
CLASS
  1
CAMSSTRUCTBTNSTATE
  2
StructBtnState
  3
L"DesignerAssemblies"
 90
        0
280
     0
281
     0
  0
CLASS
  1
DIMASSOC
  2
AcDbDimAssoc
  3
"AcDbDimAssoc|Product Desc:     AcDim ARX App For Dimension|Company:          Autodesk, Inc.|WEB Address:      www.autodesk.com"
 90
    32768
280
     0
281
     0
  0
CLASS
  1
AMDTNOTETEMPLATEDB
  2
AmdtNoteTemplateDB
  3
AMDT_STDIMP_MODULE_NAME
 90
        0
280
     0
281
     0
  0
CLASS
  1
ACMTAPERSTANDARDANSI
  2
AcmTaperStdANSI
  3
"Amdt_StdImp|Product Description: AutoCAD Mechanical|Company: Autodesk"
 90
    32768
280
     0
281
     0
  0
CLASS
  1
ACAMGHOLECHARTSTDANSI
  2
AcAmgHoleChartStdANSI
  3
ACMSYMBB_MODULE_NAME
 90
    32768
280
     0
281
     0
  0
CLASS
  1
AMDTEDGESTANDARDISO13715
  2
AmdtEdgeStdISO13715
  3
"Amdt_StdImp|Product Description: AutoCAD Mechanical|Company: Autodesk"
 90
        0
280
     0
281
     0
  0
CLASS
  1
ACAMGHOLECHARTSTDISO
  2
AcAmgHoleChartStdISO
  3
ACMSYMBB_MODULE_NAME
 90
        0
280
     0
281
     0
  0
CLASS
  1
ACDBDIMENSIONRES
  2
AcDbDimensionRes
  3
L"AcDbDimensionRes|Product Description: AutoCAD Mechanical 2000|Company: Autodesk"
 90
    32768
280
     0
281
     0
  0
ENDSEC
  0
SECTION
  2
TABLES
  0
TABLE
  2
VPORT
  5
8
330
0
100
AcDbSymbolTable
 70
     1
  0
VPORT
  5
B0EC
330
8
100
AcDbSymbolTableRecord
100
AcDbViewportTableRecord
  2
*Active
 70
     0
 10
0.0
 20
0.0
 11
1.0
 21
1.0
 12
593.9691287368254
 22
419.9880932471715
 13
0.0
 23
0.0
 14
2.5
 24
2.5
 15
10.0
 25
10.0
 16
0.0
 26
0.0
 36
1.0
 17
0.0
 27
0.0
 37
0.0
 40
847.0100020549045
 41
1.648648648648648
 42
50.0
 43
-1370.695619172058
 44
-1370.695619172058
 50
0.0
 51
0.0
 71
     0
 72
   100
 73
     1
 74
     3
 75
     0
 76
     0
 77
     0
 78
     0
281
     0
 65
     0
110
0.0
120
0.0
130
0.0
111
1.0
121
0.0
131
0.0
112
0.0
122
1.0
132
0.0
 79
     0
146
0.0
  0
ENDTAB
  0
TABLE
  2
LTYPE
  5
5
330
0
100
AcDbSymbolTable
 70
    36
  0
LTYPE
  5
14
330
5
100
AcDbSymbolTableRecord
100
AcDbLinetypeTableRecord
  2
ByBlock
 70
     0
  3

 72
    65
 73
     0
 40
0.0
  0
LTYPE
  5
15
330
5
100
AcDbSymbolTableRecord
100
AcDbLinetypeTableRecord
  2
ByLayer
 70
     0
  3

 72
    65
 73
     0
 40
0.0
  0
LTYPE
  5
16
330
5
100
AcDbSymbolTableRecord
100
AcDbLinetypeTableRecord
  2
Continuous
 70
     0
  3
Solid line
 72
    65
 73
     0
 40
0.0
  0
LTYPE
  5
4F
330
5
100
AcDbSymbolTableRecord
100
AcDbLinetypeTableRecord
  2
AM_ISO02W050
 70
     0
  3
__ __ __ __ __ __ __ __ __ __ __ __ __ __ __
 72
    65
 73
     2
 40
7.5
 49
6.0
 74
     0
 49
-1.5
 74
     0
  0
LTYPE
  5
52
330
5
100
AcDbSymbolTableRecord
100
AcDbLinetypeTableRecord
  2
Amconstr
 70
     0
  3
_______________________
 72
    65
 73
     2
 40
9999.0
 49
9999.0
 74
     0
 49
0.0
 74
     0
  0
LTYPE
  5
64
330
5
100
AcDbSymbolTableRecord
100
AcDbLinetypeTableRecord
  2
ACISOWELD
 70
     0
  3
_ _ _ _ _
 72
    65
 73
     2
 40
2.0
 49
2.0
 74
     0
 49
-1.0
 74
     0
  0
LTYPE
  5
65
330
5
100
AcDbSymbolTableRecord
100
AcDbLinetypeTableRecord
  2
ACISOTGB
 70
     0
  3
__ . . __ . .
 72
    65
 73
     6
 40
9.0
 49
4.0
 74
     0
 49
-1.0
 74
     0
 49
1.0
 74
     0
 49
-1.0
 74
     0
 49
1.0
 74
     0
 49
-1.0
 74
     0
  0
LTYPE
  5
66
330
5
100
AcDbSymbolTableRecord
100
AcDbLinetypeTableRecord
  2
ACISOTGL
 70
     0
  3
_ _ _ _ _
 72
    65
 73
     2
 40
3.0
 49
2.0
 74
     0
 49
-1.0
 74
     0
  0
LTYPE
  5
69
330
5
100
AcDbSymbolTableRecord
100
AcDbLinetypeTableRecord
  2
CENTER
 70
     0
  3
__ . __
 72
    65
 73
     4
 40
7.0
 49
4.0
 74
     0
 49
-1.0
 74
     0
 49
1.0
 74
     0
 49
-1.0
 74
     0
  0
LTYPE
  5
A6E
330
5
100
AcDbSymbolTableRecord
100
AcDbLinetypeTableRecord
  2
PHANTOM2
 70
     0
  3
Phantom (.5x) ___ _ _ ___ _ _ ___ _ _ ___ _ _
 72
    65
 73
     6
 40
31.75
 49
15.875
 74
     0
 49
-3.174999999999999
 74
     0
 49
3.174999999999999
 74
     0
 49
-3.174999999999999
 74
     0
 49
3.174999999999999
 74
     0
 49
-3.174999999999999
 74
     0
  0
LTYPE
  5
4DED
330
5
100
AcDbSymbolTableRecord
100
AcDbLinetypeTableRecord
  2
中線
 70
     0
  3
___________________
 72
    65
 73
     2
 40
2.0
 49
1.0
 74
     0
 49
1.0
 74
     0
  0
LTYPE
  5
4DF6
330
5
100
AcDbSymbolTableRecord
100
AcDbLinetypeTableRecord
  2
細線
 70
     0
  3
___________________
 72
    65
 73
     2
 40
2.0
 49
1.0
 74
     0
 49
1.0
 74
     0
  0
LTYPE
  5
4DF7
330
5
100
AcDbSymbolTableRecord
100
AcDbLinetypeTableRecord
  2
太線
 70
     0
  3
___________________
 72
    65
 73
     2
 40
2.0
 49
1.0
 74
     0
 49
1.0
 74
     0
  0
LTYPE
  5
4EA7
330
5
100
AcDbSymbolTableRecord
100
AcDbLinetypeTableRecord
  2
文字
 70
     0
  3
_________________
 72
    65
 73
     2
 40
2.0
 49
1.0
 74
     0
 49
1.0
 74
     0
  0
LTYPE
  5
4EA9
330
5
100
AcDbSymbolTableRecord
100
AcDbLinetypeTableRecord
  2
寸法線
 70
     0
  3
________________
 72
    65
 73
     2
 40
2.0
 49
1.0
 74
     0
 49
1.0
 74
     0
  0
LTYPE
  5
4F12
330
5
100
AcDbSymbolTableRecord
100
AcDbLinetypeTableRecord
  2
ハッチング
 70
     0
  3
_________________
 72
    65
 73
     2
 40
2.0
 49
1.0
 74
     0
 49
1.0
 74
     0
  0
LTYPE
  5
5180
330
5
100
AcDbSymbolTableRecord
100
AcDbLinetypeTableRecord
  2
陰線1
 70
     0
  3
__ __ __ __
 72
    65
 73
     2
 40
4.0
 49
2.2
 74
     0
 49
-1.8
 74
     0
  0
LTYPE
  5
5182
330
5
100
AcDbSymbolTableRecord
100
AcDbLinetypeTableRecord
  2
切断線
 70
     0
  3
/\/-/\/-/\/-/\/-/\/-/\/
 72
    65
 73
     2
 40
11.0001
 49
0.0001
 74
     4
 75
   135
340
56
 46
0.04
 50
0.0
 44
0.0
 45
0.0
 49
-11.0
 74
     0
  0
LTYPE
  5
5183
330
5
100
AcDbSymbolTableRecord
100
AcDbLinetypeTableRecord
  2
想像線1
 70
     0
  3
__ __ __ _____ __ __ ____
 72
    65
 73
     6
 40
14.5
 49
6.0
 74
     0
 49
-1.5
 74
     0
 49
2.0
 74
     0
 49
-1.5
 74
     0
 49
2.0
 74
     0
 49
-1.5
 74
     0
  0
LTYPE
  5
5185
330
5
100
AcDbSymbolTableRecord
100
AcDbLinetypeTableRecord
  2
中心線1
 70
     0
  3
___ _ ___ _ ___
 72
    65
 73
     4
 40
18.0
 49
12.0
 74
     0
 49
-2.0
 74
     0
 49
2.0
 74
     0
 49
-2.0
 74
     0
  0
LTYPE
  5
5188
330
5
100
AcDbSymbolTableRecord
100
AcDbLinetypeTableRecord
  2
補助線
 70
     0
  3
______________
 72
    65
 73
     2
 40
2.0
 49
1.0
 74
     0
 49
1.0
 74
     0
  0
LTYPE
  5
6427
330
5
100
AcDbSymbolTableRecord
100
AcDbLinetypeTableRecord
  2
HIDDEN
 70
     0
  3
Hidden __ __ __ __ __ __ __ __ __ __ __ __ __ _
 72
    65
 73
     2
 40
0.375
 49
0.25
 74
     0
 49
-0.125
 74
     0
  0
LTYPE
  5
AC81
330
5
100
AcDbSymbolTableRecord
100
AcDbLinetypeTableRecord
  2
破断線
 70
     0
  3
/\/-/\/-/\/-/\/-/\/-/\/
 72
    65
 73
     2
 40
0.4401
 49
0.0001
 74
     4
 75
   136
340
AC80
 46
0.0016
 50
0.0
 44
0.0
 45
0.0
 49
-0.4400000000000001
 74
     0
  0
LTYPE
  5
AC9E
330
5
100
AcDbSymbolTableRecord
100
AcDbLinetypeTableRecord
  2
Amzigzag
 70
     0
  3
/\/-/\/-/\/-/\/-/\/-/\/
 72
    65
 73
     2
 40
11.0001
 49
0.0001
 74
     4
 75
   135
340
56
 46
0.04
 50
0.0
 44
0.0
 45
0.0
 49
-11.0
 74
     0
  0
LTYPE
  5
AF0F
330
5
100
AcDbSymbolTableRecord
100
AcDbLinetypeTableRecord
  2
genzigzag
 70
     0
  3
/\/-/\/-/\/-/\/-/\/-/\/
 72
    65
 73
     2
 40
12.0001
 49
0.0001
 74
     4
 75
   135
340
AC80
 46
2.0
 50
0.0
 44
0.0
 45
0.0
 49
-12.0
 74
     0
  0
LTYPE
  5
AF95
330
5
100
AcDbSymbolTableRecord
100
AcDbLinetypeTableRecord
  2
AM_ISO08W050
 70
     0
  3
____ . ____ . ____ . ____ . ____ . ____ . ____
 72
    65
 73
     4
 40
18.0
 49
12.0
 74
     0
 49
-1.5
 74
     0
 49
3.0
 74
     0
 49
-1.5
 74
     0
  0
LTYPE
  5
AF96
330
5
100
AcDbSymbolTableRecord
100
AcDbLinetypeTableRecord
  2
AM_ISO09W050
 70
     0
  3
_____ . . _____ . . _____ . . ____ .. ____
 72
    65
 73
     6
 40
22.5
 49
12.0
 74
     0
 49
-1.5
 74
     0
 49
3.0
 74
     0
 49
-1.5
 74
     0
 49
3.0
 74
     0
 49
-1.5
 74
     0
  0
LTYPE
  5
AF97
330
5
100
AcDbSymbolTableRecord
100
AcDbLinetypeTableRecord
  2
AM_ISO08W050x2
 70
     0
  3
__ . __ . __ . __ . __ . __
 72
    65
 73
     4
 40
9.0
 49
6.0
 74
     0
 49
-0.75
 74
     0
 49
1.5
 74
     0
 49
-0.75
 74
     0
  0
LTYPE
  5
AF98
330
5
100
AcDbSymbolTableRecord
100
AcDbLinetypeTableRecord
  2
AM_ISO02W050x2
 70
     0
  3
 _ _ _ _ _ _ _ _ _ _ _ _
 72
    65
 73
     2
 40
3.75
 49
3.0
 74
     0
 49
-0.75
 74
     0
  0
LTYPE
  5
D8F5
330
5
100
AcDbSymbolTableRecord
100
AcDbLinetypeTableRecord
  2
DOT
 70
     0
  3
・・・・・・・・・・・・・・・
 72
    65
 73
     2
 40
6.5
 49
0.1
 74
     0
 49
-6.4
 74
     0
  0
LTYPE
  5
D8F6
330
5
100
AcDbSymbolTableRecord
100
AcDbLinetypeTableRecord
  2
CENTER2
 70
     0
  3
Center (.5x) ___ _ ___ _ ___ _ ___ _ ___ _ ___
 72
    65
 73
     4
 40
1.125
 49
0.75
 74
     0
 49
-0.125
 74
     0
 49
0.125
 74
     0
 49
-0.125
 74
     0
  0
LTYPE
  5
D8F7
330
5
100
AcDbSymbolTableRecord
100
AcDbLinetypeTableRecord
  2
HIDDEN2
 70
     0
  3
Hidden (.5x) _ _ _ _ _ _ _ _ _ _ _ _ _ _ _ _ _
 72
    65
 73
     2
 40
0.1875
 49
0.125
 74
     0
 49
-0.0625
 74
     0
  0
LTYPE
  5
D8F8
330
5
100
AcDbSymbolTableRecord
100
AcDbLinetypeTableRecord
  2
Amzigzag2
 70
     0
  3
/\/-/\/-/\/-/\/-/\/-/\/
 72
    65
 73
     2
 40
0.4401
 49
0.0001
 74
     4
 75
   136
340
AC80
 46
0.0016
 50
0.0
 44
0.0
 45
0.0
 49
-0.4400000000000001
 74
     0
  0
LTYPE
  5
D8F9
330
5
100
AcDbSymbolTableRecord
100
AcDbLinetypeTableRecord
  2
ACANSTGB
 70
     0
  3
__ . . __ . .
 72
    65
 73
     6
 40
0.35433070866
 49
0.15748031496
 74
     0
 49
-0.03937007874
 74
     0
 49
0.03937007874
 74
     0
 49
-0.03937007874
 74
     0
 49
0.03937007874
 74
     0
 49
-0.03937007874
 74
     0
  0
LTYPE
  5
D8FA
330
5
100
AcDbSymbolTableRecord
100
AcDbLinetypeTableRecord
  2
ACANSTGL
 70
     0
  3
_ _ _ _ _
 72
    65
 73
     2
 40
0.11811023622
 49
0.07874015748
 74
     0
 49
-0.03937007874
 74
     0
  0
LTYPE
  5
DC14
330
5
100
AcDbSymbolTableRecord
100
AcDbLinetypeTableRecord
  2
DASHED
 70
     0
  3
- - - - - - - - - - -
 72
    65
 73
     2
 40
19.1
 49
12.7
 74
     0
 49
-6.4
 74
     0
  0
LTYPE
  5
186CB
330
5
100
AcDbSymbolTableRecord
100
AcDbLinetypeTableRecord
  2
PHANTOM
 70
     0
  3
- ･ ･ - ･ ･ - ･ ･ - ･ ･ - ･ ･ - ･ ･ - ･ ･ - 
 72
    65
 73
     6
 40
63.79999999999999
 49
31.8
 74
     0
 49
-6.4
 74
     0
 49
6.4
 74
     0
 49
-6.4
 74
     0
 49
6.4
 74
     0
 49
-6.4
 74
     0
  0
LTYPE
  5
93D29
330
5
100
AcDbSymbolTableRecord
100
AcDbLinetypeTableRecord
  2
BORDER
 70
     0
  3
__ __ . __ __ . __ __ . __ __ . __ __ . __ __ .
 72
    65
 73
     6
 40
8.75
 49
2.5
 74
     0
 49
-1.25
 74
     0
 49
2.5
 74
     0
 49
-1.25
 74
     0
 49
0.0
 74
     0
 49
-1.25
 74
     0
  0
ENDTAB
  0
TABLE
  2
LAYER
  5
2
102
{ACAD_XDICTIONARY
360
3F95
102
}
330
0
100
AcDbSymbolTable
 70
    41
  0
LAYER
  5
10
330
2
100
AcDbSymbolTableRecord
100
AcDbLayerTableRecord
  2
0
 70
     0
 62
     7
  6
Continuous
370
    -3
390
F
  0
LAYER
  5
6D1
330
2
100
AcDbSymbolTableRecord
100
AcDbLayerTableRecord
  2
Defpoints
 70
     0
 62
     7
  6
Continuous
290
     0
370
    -3
390
F
  0
LAYER
  5
5F85
330
2
100
AcDbSymbolTableRecord
100
AcDbLayerTableRecord
  2
AM_0
 70
     0
 62
     7
  6
中線
370
    30
390
F
1001
AcAecLayerStandard
1000

1000

  0
LAYER
  5
AC9F
330
2
100
AcDbSymbolTableRecord
100
AcDbLayerTableRecord
  2
size
 70
     0
 62
     5
  6
Continuous
290
     0
370
    25
390
F
  0
LAYER
  5
ACA0
330
2
100
AcDbSymbolTableRecord
100
AcDbLayerTableRecord
  2
waku
 70
     0
 62
     7
  6
Continuous
370
    35
390
F
  0
LAYER
  5
ACA1
330
2
100
AcDbSymbolTableRecord
100
AcDbLayerTableRecord
  2
AM_6
 70
     0
 62
     2
  6
文字
370
    13
390
F
1001
AcAecLayerStandard
1000

1000

  0
LAYER
  5
ACC8
330
2
100
AcDbSymbolTableRecord
100
AcDbLayerTableRecord
  2
hyomoji
 70
     0
 62
     2
  6
Continuous
370
    13
390
F
  0
LAYER
  5
ACC9
330
2
100
AcDbSymbolTableRecord
100
AcDbLayerTableRecord
  2
hyosen1
 70
     0
 62
     1
  6
Continuous
370
    25
390
F
  0
LAYER
  5
ACCA
330
2
100
AcDbSymbolTableRecord
100
AcDbLayerTableRecord
  2
hyosen2
 70
     0
 62
     1
  6
Continuous
370
    13
390
F
  0
LAYER
  5
AD60
330
2
100
AcDbSymbolTableRecord
100
AcDbLayerTableRecord
  2
AM_1
 70
     0
 62
    30
  6
太線
370
    40
390
F
1001
AcAecLayerStandard
1000

1000

  0
LAYER
  5
AD64
330
2
100
AcDbSymbolTableRecord
100
AcDbLayerTableRecord
  2
AM_2
 70
     0
 62
     1
  6
細線
370
    13
390
F
1001
AcAecLayerStandard
1000

1000

  0
LAYER
  5
AD67
330
2
100
AcDbSymbolTableRecord
100
AcDbLayerTableRecord
  2
AM_3
 70
     0
 62
     6
  6
陰線1
370
    13
390
F
1001
AcAecLayerStandard
1000

1000

  0
LAYER
  5
AD68
330
2
100
AcDbSymbolTableRecord
100
AcDbLayerTableRecord
  2
AM_5
 70
     0
 62
     3
  6
寸法線
370
    13
390
F
1001
AcAecLayerStandard
1000

1000

  0
LAYER
  5
AD69
330
2
100
AcDbSymbolTableRecord
100
AcDbLayerTableRecord
  2
AM_7
 70
     0
 62
     4
  6
中心線1
370
    13
390
F
1001
AcAecLayerStandard
1000

1000

  0
LAYER
  5
AD6A
330
2
100
AcDbSymbolTableRecord
100
AcDbLayerTableRecord
  2
AM_8
 70
     0
 62
     1
  6
ハッチング
370
    13
390
F
1001
AcAecLayerStandard
1000

1000

  0
LAYER
  5
AD6E
330
2
100
AcDbSymbolTableRecord
100
AcDbLayerTableRecord
  2
AM_10
 70
     0
 62
     7
  6
切断線
370
    13
390
F
1001
AcAecLayerStandard
1000

1000

  0
LAYER
  5
AD6F
330
2
100
AcDbSymbolTableRecord
100
AcDbLayerTableRecord
  2
AM_11
 70
     0
 62
     2
  6
想像線1
370
    13
390
F
1001
AcAecLayerStandard
1000

1000

  0
LAYER
  5
B1B6
330
2
100
AcDbSymbolTableRecord
100
AcDbLayerTableRecord
  2
AM_CL
 70
     0
 62
     1
  6
Amconstr
370
    15
390
F
1001
AcAecLayerStandard
1000

1000

  0
LAYER
  5
B2EB
330
2
100
AcDbSymbolTableRecord
100
AcDbLayerTableRecord
  2
AM_14
 70
     0
 62
     5
  6
細線
370
     9
390
F
1001
AcAecLayerStandard
1000

1000

  0
LAYER
  5
B2EC
330
2
100
AcDbSymbolTableRecord
100
AcDbLayerTableRecord
  2
AM_15
 70
     0
 62
     6
  6
陰線1
370
     9
390
F
1001
AcAecLayerStandard
1000

1000

  0
LAYER
  5
B657
330
2
100
AcDbSymbolTableRecord
100
AcDbLayerTableRecord
  2
カバー取付ブラケット
 70
     0
 62
     1
  6
中線
370
    30
390
F
1001
AcAecLayerStandard
1000

1000

  0
LAYER
  5
C364
330
2
100
AcDbSymbolTableRecord
100
AcDbLayerTableRecord
  2
調整板
 70
     0
 62
   191
  6
中線
370
    30
390
F
1001
AcAecLayerStandard
1000

1000

  0
LAYER
  5
C365
330
2
100
AcDbSymbolTableRecord
100
AcDbLayerTableRecord
  2
本体（枠）
 70
     0
 62
    11
  6
中線
370
    30
390
F
1001
AcAecLayerStandard
1000

1000

  0
LAYER
  5
C366
330
2
100
AcDbSymbolTableRecord
100
AcDbLayerTableRecord
  2
本体（扉）
 70
     0
 62
   151
  6
中線
370
    30
390
F
1001
AcAecLayerStandard
1000

1000

  0
LAYER
  5
C367
330
2
100
AcDbSymbolTableRecord
100
AcDbLayerTableRecord
  2
カバー
 70
     0
 62
    41
  6
中線
370
    30
390
F
1001
AcAecLayerStandard
1000

1000

  0
LAYER
  5
C368
330
2
100
AcDbSymbolTableRecord
100
AcDbLayerTableRecord
  2
軸
 70
     0
 62
    91
  6
中線
370
    30
390
F
1001
AcAecLayerStandard
1000

1000

  0
LAYER
  5
C369
330
2
100
AcDbSymbolTableRecord
100
AcDbLayerTableRecord
  2
樹脂ワッシャA
 70
     0
 62
    40
  6
中線
370
    30
390
F
1001
AcAecLayerStandard
1000

1000

  0
LAYER
  5
C36A
330
2
100
AcDbSymbolTableRecord
100
AcDbLayerTableRecord
  2
樹脂ワッシャB
 70
     0
 62
   200
  6
中線
370
    30
390
F
1001
AcAecLayerStandard
1000

1000

  0
LAYER
  5
DC15
330
2
100
AcDbSymbolTableRecord
100
AcDbLayerTableRecord
  2
CSLAYER2
 70
     0
 62
     3
  6
Continuous
370
    -3
390
F
  0
LAYER
  5
DC16
330
2
100
AcDbSymbolTableRecord
100
AcDbLayerTableRecord
  2
CSLAYER4
 70
     0
 62
     3
  6
Continuous
370
    -3
390
F
  0
LAYER
  5
E707
330
2
100
AcDbSymbolTableRecord
100
AcDbLayerTableRecord
  2
CSLAYER3
 70
     0
 62
     3
  6
Continuous
370
    -3
390
F
  0
LAYER
  5
161BF
330
2
100
AcDbSymbolTableRecord
100
AcDbLayerTableRecord
  2
CSLAYER8
 70
     0
 62
     3
  6
Continuous
370
    -3
390
F
  0
LAYER
  5
19481
330
2
100
AcDbSymbolTableRecord
100
AcDbLayerTableRecord
  2
CSLAYER7
 70
     0
 62
     3
  6
Continuous
370
    -3
390
F
  0
LAYER
  5
19482
330
2
100
AcDbSymbolTableRecord
100
AcDbLayerTableRecord
  2
CSLAYER11
 70
     0
 62
     3
  6
Continuous
370
    -3
390
F
  0
LAYER
  5
19483
330
2
100
AcDbSymbolTableRecord
100
AcDbLayerTableRecord
  2
CSLAYER12
 70
     0
 62
     3
  6
Continuous
370
    -3
390
F
  0
LAYER
  5
1F5A4
330
2
100
AcDbSymbolTableRecord
100
AcDbLayerTableRecord
  2
CSLAYER5
 70
     0
 62
     3
  6
Continuous
370
    -3
390
F
  0
LAYER
  5
5AFB5
330
2
100
AcDbSymbolTableRecord
100
AcDbLayerTableRecord
  2
取手
 70
     0
 62
   120
  6
中線
370
    30
390
F
1001
AcAecLayerStandard
1000

1000

  0
LAYER
  5
5AFB6
330
2
100
AcDbSymbolTableRecord
100
AcDbLayerTableRecord
  2
台座
 70
     0
 62
   211
  6
中線
370
    30
390
F
1001
AcAecLayerStandard
1000

1000

  0
LAYER
  5
5AFB7
330
2
100
AcDbSymbolTableRecord
100
AcDbLayerTableRecord
  2
スプリングピン
 70
     0
 62
   230
  6
中線
370
    30
390
F
1001
AcAecLayerStandard
1000

1000

  0
LAYER
  5
9211F
330
2
100
AcDbSymbolTableRecord
100
AcDbLayerTableRecord
  2
0文字
 70
     0
 62
     2
  6
Continuous
370
    13
390
F
1001
AcAecLayerStandard
1000

1000

  0
LAYER
  5
92120
330
2
100
AcDbSymbolTableRecord
100
AcDbLayerTableRecord
  2
1
 70
     0
 62
     7
  6
Continuous
370
    30
390
F
  0
ENDTAB
  0
TABLE
  2
STYLE
  5
3
330
0
100
AcDbSymbolTable
 70
     9
  0
STYLE
  5
11
330
3
100
AcDbSymbolTableRecord
100
AcDbTextStyleTableRecord
  2
STANDARD
 70
     0
 40
0.0
 41
0.7
 50
0.0
 71
     0
 42
3.2
  3
romans.shx
  4
extfont.shx
  0
STYLE
  5
56
330
3
100
AcDbSymbolTableRecord
100
AcDbTextStyleTableRecord
  2

 70
     1
 40
0.0
 41
1.0
 50
0.0
 71
     0
 42
2.5
  3
ltypeshp.shx
  4

  0
STYLE
  5
58
330
3
100
AcDbSymbolTableRecord
100
AcDbTextStyleTableRecord
  2
ACISOTS
 70
     0
 40
1.0
 41
1.0
 50
0.0
 71
     0
 42
2.5
  3
isocp.shx
  4
extfont.shx
  0
STYLE
  5
63
330
3
100
AcDbSymbolTableRecord
100
AcDbTextStyleTableRecord
  2
ACISOGDT
 70
     0
 40
0.0
 41
1.0
 50
0.0
 71
     0
 42
2.5
  3
amgdt.shx
  4

  0
STYLE
  5
A74
330
3
100
AcDbSymbolTableRecord
100
AcDbTextStyleTableRecord
  2
DIM
 70
     0
 40
0.0
 41
1.0
 50
0.0
 71
     0
 42
2.5
  3
monotxt.shx
  4
extfont.shx
  0
STYLE
  5
AC80
330
3
100
AcDbSymbolTableRecord
100
AcDbTextStyleTableRecord
  2

 70
     1
 40
0.0
 41
1.0
 50
0.0
 71
     0
 42
3.2
  3
genltshp.shx
  4

  0
STYLE
  5
D8FB
330
3
100
AcDbSymbolTableRecord
100
AcDbTextStyleTableRecord
  2
ED_VECTOR
 70
     0
 40
0.0
 41
1.0
 50
0.0
 71
     0
 42
0.0
  3
MONOTXT.SHX
  4
BIGFONT.SHX
  0
STYLE
  5
D8FC
330
3
100
AcDbSymbolTableRecord
100
AcDbTextStyleTableRecord
  2
ACANSTS
 70
     0
 40
1.0
 41
1.0
 50
0.0
 71
     0
 42
2.5
  3
romans.shx
  4
extfont.shx
  0
STYLE
  5
D8FD
330
3
100
AcDbSymbolTableRecord
100
AcDbTextStyleTableRecord
  2
ACANSGDT
 70
     0
 40
0.0
 41
1.0
 50
0.0
 71
     0
 42
2.5
  3
amgdt.shx
  4

  0
ENDTAB
  0
TABLE
  2
VIEW
  5
6
330
0
100
AcDbSymbolTable
 70
     6
  0
VIEW
  5
AE1
330
6
100
AcDbSymbolTableRecord
100
AcDbViewTableRecord
  2
AM_VIEW1
 70
     0
 40
297.0
 10
-970.0097649269439
 20
-11756.86094600418
 41
473.7940828402367
 11
0.0
 21
0.0
 31
1.0
 12
0.0
 22
0.0
 32
0.0
 42
50.0
 43
-1370.695619172058
 44
-1370.695619172058
 50
0.0
 71
     0
281
     0
 72
     0
  0
VIEW
  5
AE2
330
6
100
AcDbSymbolTableRecord
100
AcDbViewTableRecord
  2
AM_VIEW2
 70
     0
 40
297.0
 10
-603.8038477671805
 20
-11756.86094600418
 41
473.7940828402367
 11
0.0
 21
0.0
 31
1.0
 12
0.0
 22
0.0
 32
0.0
 42
50.0
 43
-1370.695619172058
 44
-1370.695619172058
 50
0.0
 71
     0
281
     0
 72
     0
  0
VIEW
  5
AE3
330
6
100
AcDbSymbolTableRecord
100
AcDbViewTableRecord
  2
AM_VIEW3
 70
     0
 40
297.0
 10
-970.0097649269439
 20
-12053.86094600418
 41
473.7940828402367
 11
0.0
 21
0.0
 31
1.0
 12
0.0
 22
0.0
 32
0.0
 42
50.0
 43
-1370.695619172058
 44
-1370.695619172058
 50
0.0
 71
     0
281
     0
 72
     0
  0
VIEW
  5
AE4
330
6
100
AcDbSymbolTableRecord
100
AcDbViewTableRecord
  2
AM_VIEW4
 70
     0
 40
297.0
 10
-603.8038477671805
 20
-12053.86094600418
 41
473.7940828402367
 11
0.0
 21
0.0
 31
1.0
 12
0.0
 22
0.0
 32
0.0
 42
50.0
 43
-1370.695619172058
 44
-1370.695619172058
 50
0.0
 71
     0
281
     0
 72
     0
  0
VIEW
  5
AE5
330
6
100
AcDbSymbolTableRecord
100
AcDbViewTableRecord
  2
AM_VIEW5
 70
     0
 40
297.0
 10
-786.9068063470622
 20
-11905.36094600418
 41
473.7940828402365
 11
0.0
 21
0.0
 31
1.0
 12
0.0
 22
0.0
 32
0.0
 42
50.0
 43
-1370.695619172058
 44
-1370.695619172058
 50
0.0
 71
     0
281
     0
 72
     0
  0
VIEW
  5
AE6
330
6
100
AcDbSymbolTableRecord
100
AcDbViewTableRecord
  2
AM_VIEW6
 70
     0
 40
593.9940600000008
 10
-786.9068063470622
 20
-11905.36094600418
 41
947.5786897988164
 11
0.0
 21
0.0
 31
1.0
 12
0.0
 22
0.0
 32
0.0
 42
50.0
 43
-1370.695619172058
 44
-1370.695619172058
 50
0.0
 71
     0
281
     0
 72
     0
  0
ENDTAB
  0
TABLE
  2
UCS
  5
7
330
0
100
AcDbSymbolTable
 70
     0
  0
ENDTAB
  0
TABLE
  2
APPID
  5
9
330
0
100
AcDbSymbolTable
 70
    56
  0
APPID
  5
12
330
9
100
AcDbSymbolTableRecord
100
AcDbRegAppTableRecord
  2
ACAD
 70
     0
  0
APPID
  5
30
330
9
100
AcDbSymbolTableRecord
100
AcDbRegAppTableRecord
  2
MCAD_NO_VIS
 70
     0
  0
APPID
  5
31
330
9
100
AcDbSymbolTableRecord
100
AcDbRegAppTableRecord
  2
ACAD_TEMP_GRAPHIC
 70
     0
  0
APPID
  5
44
330
9
100
AcDbSymbolTableRecord
100
AcDbRegAppTableRecord
  2
ACATTRIBSERVICES
 70
     0
  0
APPID
  5
7A1
330
9
100
AcDbSymbolTableRecord
100
AcDbRegAppTableRecord
  2
GENIUS_GENDIMSH_14
 70
     0
  0
APPID
  5
A49
330
9
100
AcDbSymbolTableRecord
100
AcDbRegAppTableRecord
  2
GENIUS_GENREC_14
 70
     0
  0
APPID
  5
A4A
330
9
100
AcDbSymbolTableRecord
100
AcDbRegAppTableRecord
  2
GENIUS_GENOBJ-N-REC_13
 70
     0
  0
APPID
  5
A4B
330
9
100
AcDbSymbolTableRecord
100
AcDbRegAppTableRecord
  2
GENIUS_GENODEF_13
 70
     0
  0
APPID
  5
A4C
330
9
100
AcDbSymbolTableRecord
100
AcDbRegAppTableRecord
  2
DCO15
 70
     0
  0
APPID
  5
ADC
330
9
100
AcDbSymbolTableRecord
100
AcDbRegAppTableRecord
  2
GENIUS_GENOLIS_13
 70
     0
  0
APPID
  5
ADD
330
9
100
AcDbSymbolTableRecord
100
AcDbRegAppTableRecord
  2
GENIUS_GENOENT_13
 70
     0
  0
APPID
  5
ADE
330
9
100
AcDbSymbolTableRecord
100
AcDbRegAppTableRecord
  2
GENIUS_GENOBJ-N-TIT_13
 70
     0
  0
APPID
  5
ADF
330
9
100
AcDbSymbolTableRecord
100
AcDbRegAppTableRecord
  2
GENIUS_GENTITLE_13
 70
     0
  0
APPID
  5
AE0
330
9
100
AcDbSymbolTableRecord
100
AcDbRegAppTableRecord
  2
GENIUS_GENOREF_13
 70
     0
  0
APPID
  5
AE7
330
9
100
AcDbSymbolTableRecord
100
AcDbRegAppTableRecord
  2
GENIUS_GENSCREG_15
 70
     0
  0
APPID
  5
AE8
330
9
100
AcDbSymbolTableRecord
100
AcDbRegAppTableRecord
  2
GENIUS_GENOBJ-N-SDF_13
 70
     0
  0
APPID
  5
FAF
330
9
100
AcDbSymbolTableRecord
100
AcDbRegAppTableRecord
  2
GENIUS_GENBLLY_14
 70
     0
  0
APPID
  5
FB0
330
9
100
AcDbSymbolTableRecord
100
AcDbRegAppTableRecord
  2
GENIUS_GENTRA_14
 70
     0
  0
APPID
  5
1285
330
9
100
AcDbSymbolTableRecord
100
AcDbRegAppTableRecord
  2
GENIUS_GENDTOL_13
 70
     0
  0
APPID
  5
142D
330
9
100
AcDbSymbolTableRecord
100
AcDbRegAppTableRecord
  2
GENIUS_GENOBJ-N-CEN_13
 70
     0
  0
APPID
  5
1AB5
330
9
100
AcDbSymbolTableRecord
100
AcDbRegAppTableRecord
  2
GENIUS_GENOBJ-N-CRS_13
 70
     0
  0
APPID
  5
1B36
330
9
100
AcDbSymbolTableRecord
100
AcDbRegAppTableRecord
  2
GENIUS_GENOBJ-N-HTC_13
 70
     0
  0
APPID
  5
1B37
330
9
100
AcDbSymbolTableRecord
100
AcDbRegAppTableRecord
  2
GENIUS_GENHATCH_13
 70
     0
  0
APPID
  5
216D
330
9
100
AcDbSymbolTableRecord
100
AcDbRegAppTableRecord
  2
GENIUS_GENOBJ-N-FIL_13
 70
     0
  0
APPID
  5
2356
330
9
100
AcDbSymbolTableRecord
100
AcDbRegAppTableRecord
  2
GEVID990412420
 70
     0
  0
APPID
  5
2357
330
9
100
AcDbSymbolTableRecord
100
AcDbRegAppTableRecord
  2
GEVDC
 70
     0
  0
APPID
  5
2358
330
9
100
AcDbSymbolTableRecord
100
AcDbRegAppTableRecord
  2
GEVCON
 70
     0
  0
APPID
  5
235B
330
9
100
AcDbSymbolTableRecord
100
AcDbRegAppTableRecord
  2
GEVRADREF
 70
     0
  0
APPID
  5
2360
330
9
100
AcDbSymbolTableRecord
100
AcDbRegAppTableRecord
  2
GENIUS_GENBH_13
 70
     0
  0
APPID
  5
2362
330
9
100
AcDbSymbolTableRecord
100
AcDbRegAppTableRecord
  2
GENIUS_GENOBJ-NBEHI-BHF_13
 70
     0
  0
APPID
  5
2364
330
9
100
AcDbSymbolTableRecord
100
AcDbRegAppTableRecord
  2
GENIUS_GENOBJ-NBEHI-BHB_13
 70
     0
  0
APPID
  5
2379
330
9
100
AcDbSymbolTableRecord
100
AcDbRegAppTableRecord
  2
GENIUS_GENOBJ-F-SCPASSM_13
 70
     0
  0
APPID
  5
3D74
330
9
100
AcDbSymbolTableRecord
100
AcDbRegAppTableRecord
  2
GENIUS_GENDIM_13
 70
     0
  0
APPID
  5
3D76
330
9
100
AcDbSymbolTableRecord
100
AcDbRegAppTableRecord
  2
GENIUS_GE3DTOL_13
 70
     0
  0
APPID
  5
3D9C
330
9
100
AcDbSymbolTableRecord
100
AcDbRegAppTableRecord
  2
AD_DRAW
 70
     0
  0
APPID
  5
3DE8
330
9
100
AcDbSymbolTableRecord
100
AcDbRegAppTableRecord
  2
ASURF_PCURVE_APPNAME
 70
     0
  0
APPID
  5
3DED
330
9
100
AcDbSymbolTableRecord
100
AcDbRegAppTableRecord
  2
AMG_3D2D_5.0
 70
     0
  0
APPID
  5
3E1B
330
9
100
AcDbSymbolTableRecord
100
AcDbRegAppTableRecord
  2
DESIGNERASSEMBLIES
 70
     0
  0
APPID
  5
3E20
330
9
100
AcDbSymbolTableRecord
100
AcDbRegAppTableRecord
  2
ACADM_DIM_EDIT
 70
     0
  0
APPID
  5
3E21
330
9
100
AcDbSymbolTableRecord
100
AcDbRegAppTableRecord
  2
AMDT_DM_ADJ
 70
     0
  0
APPID
  5
4143
330
9
100
AcDbSymbolTableRecord
100
AcDbRegAppTableRecord
  2
GENIUS_GENFIL_13
 70
     0
  0
APPID
  5
4144
330
9
100
AcDbSymbolTableRecord
100
AcDbRegAppTableRecord
  2
GENIUS_GENOBJ-N-CHA_13
 70
     0
  0
APPID
  5
4E17
330
9
100
AcDbSymbolTableRecord
100
AcDbRegAppTableRecord
  2
GEVID1008153417
 70
     0
  0
APPID
  5
4E58
330
9
100
AcDbSymbolTableRecord
100
AcDbRegAppTableRecord
  2
GEVID1008153418
 70
     0
  0
APPID
  5
4E5E
330
9
100
AcDbSymbolTableRecord
100
AcDbRegAppTableRecord
  2
GEVID1008153419
 70
     0
  0
APPID
  5
4E64
330
9
100
AcDbSymbolTableRecord
100
AcDbRegAppTableRecord
  2
GEVID1008153420
 70
     0
  0
APPID
  5
4E75
330
9
100
AcDbSymbolTableRecord
100
AcDbRegAppTableRecord
  2
GEVID1008153421
 70
     0
  0
APPID
  5
4EB7
330
9
100
AcDbSymbolTableRecord
100
AcDbRegAppTableRecord
  2
GENIUS_AMGTXT_16
 70
     0
  0
APPID
  5
7645
330
9
100
AcDbSymbolTableRecord
100
AcDbRegAppTableRecord
  2
GENIUS_GENOBJ-N-DIM_13
 70
     0
  0
APPID
  5
AAD0
330
9
100
AcDbSymbolTableRecord
100
AcDbRegAppTableRecord
  2
ACAD_DSTYLE_DIMARC_LENGTH_SYMBOL
 70
     0
  0
APPID
  5
AAD1
330
9
100
AcDbSymbolTableRecord
100
AcDbRegAppTableRecord
  2
ACAD_DSTYLE_DIMJOGGED_JOGANGLE_SYMBOL
 70
     0
  0
APPID
  5
AAFD
330
9
100
AcDbSymbolTableRecord
100
AcDbRegAppTableRecord
  2
ACAD_PSEXT
 70
     0
  0
APPID
  5
AD61
330
9
100
AcDbSymbolTableRecord
100
AcDbRegAppTableRecord
  2
AcAecLayerStandard
 70
     0
  0
APPID
  5
AEE3
330
9
100
AcDbSymbolTableRecord
100
AcDbRegAppTableRecord
  2
ACAD_EXEMPT_FROM_CAD_STANDARDS
 70
     0
  0
APPID
  5
B1BE
330
9
100
AcDbSymbolTableRecord
100
AcDbRegAppTableRecord
  2
GENIUS_GENCEN_19
 70
     0
  0
APPID
  5
B4DF
330
9
100
AcDbSymbolTableRecord
100
AcDbRegAppTableRecord
  2
ACAD_MLEADERVER
 70
     0
  0
ENDTAB
  0
TABLE
  2
DIMSTYLE
  5
A
330
0
100
AcDbSymbolTable
 70
    26
100
AcDbDimStyleTable
 71
     1
340
2515
  0
DIMSTYLE
105
A76
330
A
100
AcDbSymbolTableRecord
100
AcDbDimStyleTableRecord
  2
STANDARD
 70
     0
 41
3.0
 42
1.0
 43
7.0
 44
2.0
 73
     0
 74
     0
 77
     1
140
2.799999999999999
141
0.0
143
0.0394
147
0.7
171
     4
172
     1
173
     1
176
     3
177
     3
178
     2
271
     3
272
     3
273
     8
274
     4
289
     0
340
A74
341
A66
343
A66
344
A66
  0
DIMSTYLE
105
2515
330
A
100
AcDbSymbolTableRecord
100
AcDbDimStyleTableRecord
  2
SYS
 70
     0
  4
"
 41
1.0
 42
1.0
 43
10.0
 44
1.0
 47
0.1
 48
0.1
 73
     0
 74
     0
 77
     1
 78
     8
 79
     2
140
3.5
141
0.0
143
0.0393701
146
0.71
147
1.5
172
     1
176
   256
177
   256
178
     7
271
     2
272
     2
283
     0
284
     8
340
11
371
    -1
372
    -1
1001
ACAD_DSTYLE_DIMJOGGED_JOGANGLE_SYMBOL
1070
   384
1040
0.7853981633974483
1001
ACAD_DSTYLE_DIMARC_LENGTH_SYMBOL
1070
   379
1070
     1
  0
DIMSTYLE
105
2516
102
{ACAD_REACTORS
330
8B747
330
8B752
330
8B753
330
8B754
102
}
330
A
100
AcDbSymbolTableRecord
100
AcDbDimStyleTableRecord
  2
SYS$3
 70
     0
  4
"
 41
2.0
 42
1.0
 43
10.0
 44
1.0
 47
0.1
 48
0.1
 73
     0
 77
     1
 78
     8
 79
     2
140
3.5
141
0.0
143
0.0393701
146
0.71
147
1.5
176
   256
177
   256
178
     2
271
     2
272
     2
283
     0
284
     8
288
     1
340
11
342
A66
371
    -1
372
    -1
1001
ACAD_DSTYLE_DIMJOGGED_JOGANGLE_SYMBOL
1070
   384
1040
0.7853981633974483
1001
ACAD_DSTYLE_DIMARC_LENGTH_SYMBOL
1070
   379
1070
     1
  0
DIMSTYLE
105
2517
330
A
100
AcDbSymbolTableRecord
100
AcDbDimStyleTableRecord
  2
SYS$4
 70
     0
  4
"
 41
2.0
 42
1.0
 43
10.0
 44
1.0
 47
0.1
 48
0.1
 73
     0
 77
     1
 78
     8
 79
     2
140
3.5
141
0.0
143
0.0393701
146
0.71
147
1.5
173
     1
176
   256
177
   256
178
     2
271
     2
272
     2
283
     0
284
     8
288
     1
340
11
344
A66
371
    -1
372
    -1
1001
ACAD_DSTYLE_DIMJOGGED_JOGANGLE_SYMBOL
1070
   384
1040
0.7853981633974483
1001
ACAD_DSTYLE_DIMARC_LENGTH_SYMBOL
1070
   379
1070
     1
  0
DIMSTYLE
105
2518
330
A
100
AcDbSymbolTableRecord
100
AcDbDimStyleTableRecord
  2
SYS$6
 70
     0
  4
"
 41
2.0
 42
1.0
 43
10.0
 44
1.0
 47
0.1
 48
0.1
 73
     0
 74
     0
 78
     8
 79
     2
140
3.5
141
0.0
143
0.0393701
146
0.71
147
1.5
172
     1
176
   256
177
   256
178
     2
271
     2
272
     2
283
     0
284
     8
340
11
341
A66
371
    -1
372
    -1
1001
ACAD_DSTYLE_DIMJOGGED_JOGANGLE_SYMBOL
1070
   384
1040
0.7853981633974483
1001
ACAD_DSTYLE_DIMARC_LENGTH_SYMBOL
1070
   379
1070
     1
  0
DIMSTYLE
105
2519
330
A
100
AcDbSymbolTableRecord
100
AcDbDimStyleTableRecord
  2
SYS$7
 70
     0
  4
"
 41
2.0
 42
1.0
 43
10.0
 44
1.0
 47
0.1
 48
0.1
 73
     0
 74
     0
 77
     1
 78
     8
 79
     2
140
5.0
141
0.0
143
0.0393701
146
0.71
147
1.5
172
     1
176
   256
177
   256
178
     2
271
     2
272
     2
283
     0
284
     8
340
11
341
A66
342
A66
371
    -1
372
    -1
1001
ACAD_DSTYLE_DIMJOGGED_JOGANGLE_SYMBOL
1070
   384
1040
0.7853981633974483
1001
ACAD_DSTYLE_DIMARC_LENGTH_SYMBOL
1070
   379
1070
     1
  0
DIMSTYLE
105
251A
330
A
100
AcDbSymbolTableRecord
100
AcDbDimStyleTableRecord
  2
SYS$SF
 70
     0
  4
"
 41
2.5
 42
1.0
 43
10.0
 44
1.0
 47
0.1
 48
0.1
 73
     0
 74
     0
 75
     1
 76
     1
 77
     1
 78
     8
 79
     2
140
3.5
141
0.0
143
0.0393701
146
0.71
147
1.5
172
     1
176
   256
177
   256
178
     2
271
     2
272
     3
283
     0
284
     8
340
11
341
6C4
342
6C4
371
    -1
372
    -1
1001
ACAD_DSTYLE_DIMJOGGED_JOGANGLE_SYMBOL
1070
   384
1040
0.7853981633974483
1001
ACAD_DSTYLE_DIMARC_LENGTH_SYMBOL
1070
   379
1070
     1
  0
DIMSTYLE
105
251B
330
A
100
AcDbSymbolTableRecord
100
AcDbDimStyleTableRecord
  2
SYS$SH
 70
     0
  4
"
 41
2.5
 42
1.0
 43
10.0
 44
1.0
 47
0.1
 48
0.1
 73
     0
 74
     0
 75
     1
 76
     1
 77
     1
 78
     8
 79
     2
140
3.5
141
0.0
143
0.0393701
144
2.0
146
0.71
147
1.5
172
     1
173
     1
176
   256
177
   256
178
     2
271
     2
272
     3
283
     0
284
     8
340
11
341
6C4
343
72
344
6C4
371
    -1
372
    -1
1001
ACAD_DSTYLE_DIMJOGGED_JOGANGLE_SYMBOL
1070
   384
1040
0.7853981633974483
1001
ACAD_DSTYLE_DIMARC_LENGTH_SYMBOL
1070
   379
1070
     1
  0
DIMSTYLE
105
2A59
330
A
100
AcDbSymbolTableRecord
100
AcDbDimStyleTableRecord
  2
SYS$2
 70
     0
  4
"
 41
1.0
 42
1.0
 43
10.0
 44
1.0
 47
0.1
 48
0.1
 73
     0
 74
     0
 77
     1
 78
     8
 79
     2
140
3.5
141
0.0
143
0.0393701
146
0.71
147
1.5
172
     1
176
   256
177
   256
178
     2
271
     2
272
     2
283
     0
284
     8
340
11
342
6C4
371
    -1
372
    -1
1001
ACAD_DSTYLE_DIMJOGGED_JOGANGLE_SYMBOL
1070
   384
1040
0.7853981633974483
1001
ACAD_DSTYLE_DIMARC_LENGTH_SYMBOL
1070
   379
1070
     1
  0
DIMSTYLE
105
2AAB
102
{ACAD_REACTORS
330
8B57B
330
8B57D
330
8B57E
330
8B57F
330
8B580
330
8B581
330
8B582
330
8B583
330
8B674
330
8B675
330
8B676
330
8B677
330
8B678
330
8B679
330
8B683
330
8B684
330
8B742
330
8B743
330
8B744
330
8B745
330
8B749
330
A2DC7
330
A2E00
102
}
330
A
100
AcDbSymbolTableRecord
100
AcDbDimStyleTableRecord
  2
SYS$0
 70
     0
  4
"
 41
1.0
 42
1.0
 43
10.0
 44
1.0
 47
0.1
 48
0.1
 73
     0
 74
     0
 77
     1
 78
     8
 79
     2
140
3.200000000000001
141
0.0
143
0.0393701
146
0.71
147
1.5
172
     1
176
   256
177
   256
178
     2
271
     2
272
     2
283
     0
284
     8
340
11
341
A66
342
6C4
371
    -1
372
    -1
1001
ACAD_DSTYLE_DIMJOGGED_JOGANGLE_SYMBOL
1070
   384
1040
0.7853981633974483
1001
ACAD_DSTYLE_DIMARC_LENGTH_SYMBOL
1070
   379
1070
     1
  0
DIMSTYLE
105
AF99
330
A
100
AcDbSymbolTableRecord
100
AcDbDimStyleTableRecord
  2
AM_ISO
 70
     0
  4
"
 41
2.5
 42
1.0
 43
10.0
 44
1.0
 47
0.1
 48
0.1
 73
     0
 74
     0
 77
     1
 78
     8
 79
     2
140
3.5
141
0.0
143
0.0393701
146
0.71
147
1.5
172
     1
176
   256
177
   256
178
     2
271
     2
272
     3
274
     4
283
     0
284
     8
340
11
371
    -1
372
    -1
  0
DIMSTYLE
105
AF9A
330
A
100
AcDbSymbolTableRecord
100
AcDbDimStyleTableRecord
  2
AM_ISO$3
 70
     0
  4
"
 41
2.5
 42
1.0
 43
10.0
 44
1.0
 47
0.1
 48
0.1
 73
     0
 77
     1
 78
     8
 79
     2
140
3.5
141
0.0
143
0.0393701
146
0.71
147
1.5
176
   256
177
   256
178
     2
271
     2
272
     3
274
     4
283
     0
284
     8
288
     1
289
     0
340
11
371
    -1
372
    -1
  0
DIMSTYLE
105
AF9B
330
A
100
AcDbSymbolTableRecord
100
AcDbDimStyleTableRecord
  2
AM_ISO$4
 70
     0
  4
"
 41
2.5
 42
1.0
 43
10.0
 44
1.0
 47
0.1
 48
0.1
 73
     0
 77
     1
 78
     8
 79
     2
140
3.5
141
0.0
143
0.0393701
146
0.71
147
1.5
176
   256
177
   256
178
     2
271
     2
272
     3
274
     4
283
     0
284
     8
288
     1
289
     0
340
11
371
    -1
372
    -1
  0
DIMSTYLE
105
AF9C
330
A
100
AcDbSymbolTableRecord
100
AcDbDimStyleTableRecord
  2
AM_ISO$6
 70
     0
  4
"
 41
2.5
 42
1.0
 43
10.0
 44
1.0
 47
0.1
 48
0.1
 73
     0
 74
     0
 78
     8
 79
     2
140
3.5
141
0.0
143
0.0393701
146
0.71
147
1.5
172
     1
176
   256
177
   256
178
     2
271
     2
272
     3
274
     4
283
     0
284
     8
340
11
371
    -1
372
    -1
  0
DIMSTYLE
105
AF9D
330
A
100
AcDbSymbolTableRecord
100
AcDbDimStyleTableRecord
  2
AM_ISO$7
 70
     0
  4
"
 41
2.5
 42
1.0
 43
10.0
 44
1.0
 47
0.1
 48
0.1
 73
     0
 74
     0
 77
     1
 78
     8
 79
     2
140
5.0
141
0.0
143
0.0393701
146
0.71
147
1.5
172
     1
176
   256
177
   256
178
     2
271
     2
272
     3
274
     4
283
     0
284
     8
340
11
371
    -1
372
    -1
  0
DIMSTYLE
105
AF9E
330
A
100
AcDbSymbolTableRecord
100
AcDbDimStyleTableRecord
  2
AM_ISO$SF
 70
     0
  4
"
 41
2.5
 42
1.0
 43
10.0
 44
1.0
 47
0.1
 48
0.1
 73
     0
 74
     0
 75
     1
 76
     1
 77
     1
 78
     8
 79
     2
140
3.5
141
0.0
143
0.0393701
146
0.71
147
1.5
172
     1
176
   256
177
   256
178
     2
271
     2
272
     3
274
     4
283
     0
284
     8
340
11
371
    -1
372
    -1
  0
DIMSTYLE
105
AF9F
330
A
100
AcDbSymbolTableRecord
100
AcDbDimStyleTableRecord
  2
AM_ISO$SH
 70
     0
  4
"
 41
2.5
 42
1.0
 43
10.0
 44
1.0
 47
0.1
 48
0.1
 73
     0
 74
     0
 75
     1
 76
     1
 77
     1
 78
     8
 79
     2
140
3.5
141
0.0
143
0.0393701
144
2.0
146
0.71
147
1.5
172
     1
173
     1
176
   256
177
   256
178
     2
271
     2
272
     3
274
     4
283
     0
284
     8
340
11
343
72
371
    -1
372
    -1
  0
DIMSTYLE
105
B658
330
A
100
AcDbSymbolTableRecord
100
AcDbDimStyleTableRecord
  2
AM_ANSI
 70
     0
  4
mm
 41
0.1
 42
0.05
 43
0.5
 44
0.1
 47
0.1
 48
0.1
 78
     7
 79
     2
140
0.12
141
0.0
146
0.71
147
0.06
176
   256
177
   256
178
     2
274
     4
284
     7
340
11
371
    -1
372
    -1
  0
DIMSTYLE
105
D8FE
330
A
100
AcDbSymbolTableRecord
100
AcDbDimStyleTableRecord
  2
EDDIMINFO
 70
     0
 41
5.0
 42
2.0
 43
0.0
 44
2.0
 46
10.0
 73
     0
 74
     0
 77
     1
 78
     8
140
4.0
141
2.5
143
0.03937
147
1.0
171
     3
172
     1
173
     1
176
     6
177
     6
178
     6
271
     2
272
     2
274
     3
283
     0
340
D8FB
341
D855
343
D855
344
D85B
  0
DIMSTYLE
105
D8FF
330
A
100
AcDbSymbolTableRecord
100
AcDbDimStyleTableRecord
  2
AM_ANSI$3
 70
     0
  4
mm
 41
0.1
 42
0.05
 43
0.5
 44
0.1
 47
0.1
 48
0.1
 78
     7
 79
     2
140
0.12
141
0.0
146
0.71
147
0.06
176
   256
177
   256
178
     2
274
     4
284
     7
288
     1
289
     0
340
11
371
    -1
372
    -1
1001
ACAD_DSTYLE_DIMARC_LENGTH_SYMBOL
1070
   379
1070
     1
  0
DIMSTYLE
105
D900
330
A
100
AcDbSymbolTableRecord
100
AcDbDimStyleTableRecord
  2
AM_ANSI$4
 70
     0
  4
mm
 41
0.1
 42
0.05
 43
0.5
 44
0.1
 47
0.1
 48
0.1
 78
     7
 79
     2
140
0.12
141
0.0
146
0.71
147
0.06
176
   256
177
   256
178
     2
274
     4
284
     7
288
     1
289
     0
340
11
371
    -1
372
    -1
1001
ACAD_DSTYLE_DIMARC_LENGTH_SYMBOL
1070
   379
1070
     1
  0
DIMSTYLE
105
D901
330
A
100
AcDbSymbolTableRecord
100
AcDbDimStyleTableRecord
  2
AM_ANSI$7
 70
     0
  4
mm
 41
0.1
 42
0.05
 43
0.5
 44
0.1
 47
0.1
 48
0.1
 78
     7
 79
     2
140
0.24
141
0.0
146
0.71
147
0.06
176
   256
177
   256
178
     2
274
     4
284
     7
340
11
371
    -1
372
    -1
1001
ACAD_DSTYLE_DIMARC_LENGTH_SYMBOL
1070
   379
1070
     1
  0
DIMSTYLE
105
D902
330
A
100
AcDbSymbolTableRecord
100
AcDbDimStyleTableRecord
  2
AM_ANSI$SF
 70
     0
  4
mm
 41
0.1
 42
0.05
 43
0.5
 44
0.1
 47
0.1
 48
0.1
 75
     1
 76
     1
 78
     7
 79
     2
140
0.12
141
0.0
146
0.71
147
0.06
176
   256
177
   256
178
     2
274
     4
284
     7
340
11
371
    -1
372
    -1
1001
ACAD_DSTYLE_DIMARC_LENGTH_SYMBOL
1070
   379
1070
     1
  0
DIMSTYLE
105
D903
330
A
100
AcDbSymbolTableRecord
100
AcDbDimStyleTableRecord
  2
AM_ANSI$SH
 70
     0
  4
mm
 41
0.1
 42
0.05
 43
0.5
 44
0.1
 47
0.1
 48
0.1
 75
     1
 76
     1
 78
     7
 79
     2
140
0.12
141
0.0
146
0.71
147
0.06
173
     1
176
   256
177
   256
178
     2
274
     4
284
     7
340
11
343
72
371
    -1
372
    -1
1001
ACAD_DSTYLE_DIMARC_LENGTH_SYMBOL
1070
   379
1070
     1
  0
DIMSTYLE
105
5AFB8
330
A
100
AcDbSymbolTableRecord
100
AcDbDimStyleTableRecord
  2
AM_ISO$0
 70
     0
  4
"
 41
0.8
 42
1.0
 43
10.0
 44
1.0
 47
0.1
 48
0.1
 73
     0
 74
     0
 77
     1
 78
     8
 79
     2
140
3.2
141
0.0
143
0.0393701
146
0.71
147
0.9999999999999996
172
     1
176
   256
177
   256
178
     2
271
     2
272
     2
283
     0
284
     8
340
11
341
6C4
342
6C4
371
    -1
372
    -1
  0
DIMSTYLE
105
5AFB9
330
A
100
AcDbSymbolTableRecord
100
AcDbDimStyleTableRecord
  2
AM_ISO$2
 70
     0
  4
"
 41
0.8
 42
1.0
 43
10.0
 44
1.0
 47
0.1
 48
0.1
 73
     0
 74
     0
 77
     3
 78
     8
 79
     2
140
3.200000000000001
141
0.0
143
0.0393701
146
0.71
147
0.9999999999999996
172
     1
176
   256
177
   256
178
     2
271
     2
272
     2
283
     0
284
     8
340
11
342
6C4
371
    -1
372
    -1
  0
ENDTAB
  0
TABLE
  2
BLOCK_RECORD
  5
1
330
0
100
AcDbSymbolTable
 70
    34
  0
BLOCK_RECORD
  5
1F
102
{ACAD_XDICTIONARY
360
8A
102
}
330
1
100
AcDbSymbolTableRecord
100
AcDbBlockTableRecord
  2
*Model_Space
340
22
  0
BLOCK_RECORD
  5
1B
330
1
100
AcDbSymbolTableRecord
100
AcDbBlockTableRecord
  2
*Paper_Space
340
1E
  0
BLOCK_RECORD
  5
23
330
1
100
AcDbSymbolTableRecord
100
AcDbBlockTableRecord
  2
*Paper_Space0
340
26
  0
BLOCK_RECORD
  5
72
330
1
100
AcDbSymbolTableRecord
100
AcDbBlockTableRecord
  2
GENAXEH
340
0
  0
BLOCK_RECORD
  5
6C4
330
1
100
AcDbSymbolTableRecord
100
AcDbBlockTableRecord
  2
_Dot
340
0
102
{BLKREFS
331
AB065
331
AB066
331
AB06E
331
AB06F
331
AB077
331
AB078
331
AB080
331
AB081
331
AB089
331
AB08A
331
AB092
331
AB093
331
AB09B
331
AB09C
331
AB0A4
331
AB0A5
331
AB0AD
331
AB0AE
331
AB0B6
331
AB0B7
331
AB0BF
331
AB0C0
331
AB0C8
331
AB0C9
331
AB0D1
331
AB0D2
331
AB0DA
331
AB0DB
331
AB0E3
331
AB0E4
331
AB0EC
331
AB0ED
331
AB0F5
331
AB0F6
331
AB0FE
331
AB0FF
331
AB107
331
AB108
331
AB110
331
AB111
331
AB11B
331
AB11C
331
AB122
331
AB123
331
AB12D
331
AB12E
331
AB136
331
AB137
331
AB13F
331
AB140
331
AB148
331
AB149
331
AB153
331
AB154
102
}
  0
BLOCK_RECORD
  5
A66
330
1
100
AcDbSymbolTableRecord
100
AcDbBlockTableRecord
  2
_OPEN30
340
0
  0
BLOCK_RECORD
  5
D855
330
1
100
AcDbSymbolTableRecord
100
AcDbBlockTableRecord
  2
EDTIP_ARROW_S
340
0
  0
BLOCK_RECORD
  5
D85B
330
1
100
AcDbSymbolTableRecord
100
AcDbBlockTableRecord
  2
EDTIP_ARROW_E
340
0
  0
BLOCK_RECORD
  5
8B755
330
1
100
AcDbSymbolTableRecord
100
AcDbBlockTableRecord
  2
*D6
340
0
  0
BLOCK_RECORD
  5
8B76D
330
1
100
AcDbSymbolTableRecord
100
AcDbBlockTableRecord
  2
*D7
340
0
  0
BLOCK_RECORD
  5
8B779
330
1
100
AcDbSymbolTableRecord
100
AcDbBlockTableRecord
  2
*D8
340
0
  0
BLOCK_RECORD
  5
8B785
330
1
100
AcDbSymbolTableRecord
100
AcDbBlockTableRecord
  2
*D9
340
0
  0
BLOCK_RECORD
  5
8B791
330
1
100
AcDbSymbolTableRecord
100
AcDbBlockTableRecord
  2
*D10
340
0
  0
BLOCK_RECORD
  5
8B79D
330
1
100
AcDbSymbolTableRecord
100
AcDbBlockTableRecord
  2
*D11
340
0
  0
BLOCK_RECORD
  5
8B7A9
330
1
100
AcDbSymbolTableRecord
100
AcDbBlockTableRecord
  2
*D12
340
0
  0
BLOCK_RECORD
  5
8B7B5
330
1
100
AcDbSymbolTableRecord
100
AcDbBlockTableRecord
  2
*D13
340
0
  0
BLOCK_RECORD
  5
8B7C1
330
1
100
AcDbSymbolTableRecord
100
AcDbBlockTableRecord
  2
*D14
340
0
  0
BLOCK_RECORD
  5
8B7CD
330
1
100
AcDbSymbolTableRecord
100
AcDbBlockTableRecord
  2
*D15
340
0
  0
BLOCK_RECORD
  5
8B7D9
330
1
100
AcDbSymbolTableRecord
100
AcDbBlockTableRecord
  2
*D16
340
0
  0
BLOCK_RECORD
  5
8B7E5
330
1
100
AcDbSymbolTableRecord
100
AcDbBlockTableRecord
  2
*D17
340
0
  0
BLOCK_RECORD
  5
8B7F1
330
1
100
AcDbSymbolTableRecord
100
AcDbBlockTableRecord
  2
*D18
340
0
  0
BLOCK_RECORD
  5
8B7FD
330
1
100
AcDbSymbolTableRecord
100
AcDbBlockTableRecord
  2
*D19
340
0
  0
BLOCK_RECORD
  5
8B809
330
1
100
AcDbSymbolTableRecord
100
AcDbBlockTableRecord
  2
*D20
340
0
  0
BLOCK_RECORD
  5
8B815
330
1
100
AcDbSymbolTableRecord
100
AcDbBlockTableRecord
  2
*D21
340
0
  0
BLOCK_RECORD
  5
8B82D
330
1
100
AcDbSymbolTableRecord
100
AcDbBlockTableRecord
  2
*D22
340
0
  0
BLOCK_RECORD
  5
8B839
330
1
100
AcDbSymbolTableRecord
100
AcDbBlockTableRecord
  2
*D23
340
0
  0
BLOCK_RECORD
  5
8B845
330
1
100
AcDbSymbolTableRecord
100
AcDbBlockTableRecord
  2
*D24
340
0
  0
BLOCK_RECORD
  5
8B851
330
1
100
AcDbSymbolTableRecord
100
AcDbBlockTableRecord
  2
*D25
340
0
  0
BLOCK_RECORD
  5
8B85D
330
1
100
AcDbSymbolTableRecord
100
AcDbBlockTableRecord
  2
*D26
340
0
  0
BLOCK_RECORD
  5
8B875
330
1
100
AcDbSymbolTableRecord
100
AcDbBlockTableRecord
  2
*D27
340
0
  0
BLOCK_RECORD
  5
8B881
330
1
100
AcDbSymbolTableRecord
100
AcDbBlockTableRecord
  2
*D28
340
0
  0
BLOCK_RECORD
  5
8B88D
330
1
100
AcDbSymbolTableRecord
100
AcDbBlockTableRecord
  2
*D29
340
0
  0
BLOCK_RECORD
  5
8B899
330
1
100
AcDbSymbolTableRecord
100
AcDbBlockTableRecord
  2
*D30
340
0
  0
BLOCK_RECORD
  5
A2DC8
330
1
100
AcDbSymbolTableRecord
100
AcDbBlockTableRecord
  2
*D31
340
0
  0
BLOCK_RECORD
  5
A2E01
330
1
100
AcDbSymbolTableRecord
100
AcDbBlockTableRecord
  2
*D32
340
0
  0
ENDTAB
  0
ENDSEC
  0
SECTION
  2
BLOCKS
  0
BLOCK
  5
20
330
1F
100
AcDbEntity
  8
0
100
AcDbBlockBegin
  2
*Model_Space
 70
     0
 10
0.0
 20
0.0
 30
0.0
  3
*Model_Space
  1

  0
ENDBLK
  5
21
330
1F
100
AcDbEntity
  8
0
100
AcDbBlockEnd
  0
BLOCK
  5
1C
330
1B
100
AcDbEntity
 67
     1
  8
0
100
AcDbBlockBegin
  2
*Paper_Space
 70
     0
 10
0.0
 20
0.0
 30
0.0
  3
*Paper_Space
  1

  0
ENDBLK
  5
1D
330
1B
100
AcDbEntity
 67
     1
  8
0
100
AcDbBlockEnd
  0
BLOCK
  5
24
330
23
100
AcDbEntity
 67
     1
  8
0
100
AcDbBlockBegin
  2
*Paper_Space0
 70
     0
 10
0.0
 20
0.0
 30
0.0
  3
*Paper_Space0
  1

  0
ENDBLK
  5
25
330
23
100
AcDbEntity
 67
     1
  8
0
100
AcDbBlockEnd
  0
BLOCK
  5
74
330
72
100
AcDbEntity
  8
0
100
AcDbBlockBegin
  2
GENAXEH
 70
     0
 10
0.0
 20
0.0
 30
0.0
  3
GENAXEH
  1

  0
LINE
  5
73
330
72
100
AcDbEntity
  8
0
100
AcDbLine
 10
-1.0
 20
0.0
 30
0.0
 11
1.0
 21
0.0
 31
0.0
  0
ENDBLK
  5
75
330
72
100
AcDbEntity
  8
0
100
AcDbBlockEnd
  0
BLOCK
  5
6C7
330
6C4
100
AcDbEntity
  8
0
100
AcDbBlockBegin
  2
_Dot
 70
     0
 10
0.0
 20
0.0
 30
0.0
  3
_Dot
  1

  0
LWPOLYLINE
  5
6C5
330
6C4
100
AcDbEntity
  8
0
  6
ByBlock
 62
     0
100
AcDbPolyline
 90
        2
 70
     1
 43
0.5
 10
-0.25
 20
0.0
 42
1.0
 10
0.25
 20
0.0
 42
1.0
  0
LINE
  5
6C6
330
6C4
100
AcDbEntity
  8
0
  6
ByBlock
 62
     0
370
    -2
100
AcDbLine
 10
-0.5
 20
0.0
 30
0.0
 11
-1.0
 21
0.0
 31
0.0
  0
ENDBLK
  5
6C8
330
6C4
100
AcDbEntity
  8
0
100
AcDbBlockEnd
  0
BLOCK
  5
A6A
330
A66
100
AcDbEntity
  8
0
100
AcDbBlockBegin
  2
_OPEN30
 70
     0
 10
0.0
 20
0.0
 30
0.0
  3
_OPEN30
  1

  0
LINE
  5
A67
330
A66
100
AcDbEntity
  8
0
  6
ByBlock
 62
     0
100
AcDbLine
 10
-1.0
 20
0.26794919
 30
0.0
 11
0.0
 21
0.0
 31
0.0
  0
LINE
  5
A68
330
A66
100
AcDbEntity
  8
0
  6
ByBlock
 62
     0
100
AcDbLine
 10
0.0
 20
0.0
 30
0.0
 11
-1.0
 21
-0.26794919
 31
0.0
  0
LINE
  5
A69
330
A66
100
AcDbEntity
  8
0
  6
ByBlock
 62
     0
100
AcDbLine
 10
0.0
 20
0.0
 30
0.0
 11
-1.0
 21
0.0
 31
0.0
  0
ENDBLK
  5
A6B
330
A66
100
AcDbEntity
  8
0
100
AcDbBlockEnd
  0
BLOCK
  5
D856
330
D855
100
AcDbEntity
  8
0
  6
ByBlock
 62
     0
100
AcDbBlockBegin
  2
EDTIP_ARROW_S
 70
     0
 10
0.0
 20
0.0
 30
0.0
  3
EDTIP_ARROW_S
  1

  0
LINE
  5
D857
330
D855
100
AcDbEntity
  8
0
  6
Continuous
 62
     0
100
AcDbLine
 10
0.0
 20
0.0
 30
0.0
 11
-1.0
 21
0.0
 31
0.0
  0
LINE
  5
D858
330
D855
100
AcDbEntity
  8
0
  6
Continuous
 62
     0
100
AcDbLine
 10
0.0
 20
0.0
 30
0.0
 11
-0.9659259999999999
 21
0.258819
 31
0.0
  0
LINE
  5
D859
330
D855
100
AcDbEntity
  8
0
  6
Continuous
 62
     0
100
AcDbLine
 10
0.0
 20
0.0
 30
0.0
 11
-0.9659259999999999
 21
-0.258819
 31
0.0
  0
ENDBLK
  5
D85A
330
D855
100
AcDbEntity
  8
0
  6
ByBlock
 62
     0
100
AcDbBlockEnd
  0
BLOCK
  5
D85C
330
D85B
100
AcDbEntity
  8
0
  6
ByBlock
 62
     0
100
AcDbBlockBegin
  2
EDTIP_ARROW_E
 70
     0
 10
0.0
 20
0.0
 30
0.0
  3
EDTIP_ARROW_E
  1

  0
LINE
  5
D85D
330
D85B
100
AcDbEntity
  8
0
  6
Continuous
 62
     0
100
AcDbLine
 10
0.0
 20
0.0
 30
0.0
 11
-1.0
 21
0.0
 31
0.0
  0
LINE
  5
D85E
330
D85B
100
AcDbEntity
  8
0
  6
Continuous
 62
     0
100
AcDbLine
 10
0.0
 20
0.0
 30
0.0
 11
-0.9659259999999999
 21
-0.258819
 31
0.0
  0
LINE
  5
D85F
330
D85B
100
AcDbEntity
  8
0
  6
Continuous
 62
     0
100
AcDbLine
 10
0.0
 20
0.0
 30
0.0
 11
-0.9659259999999999
 21
0.258819
 31
0.0
  0
ENDBLK
  5
D860
330
D85B
100
AcDbEntity
  8
0
  6
ByBlock
 62
     0
100
AcDbBlockEnd
  0
BLOCK
  5
8B75F
330
8B755
100
AcDbEntity
  8
0
100
AcDbBlockBegin
  2
*D6
 70
     1
 10
0.0
 20
0.0
 30
0.0
  3
*D6
  1

  0
LINE
  5
AB062
330
8B755
100
AcDbEntity
  8
AM_5
100
AcDbLine
 10
371.5688785279163
 20
493.0
 30
0.0
 11
371.5688785279163
 21
448.0
 31
0.0
  0
LINE
  5
AB063
330
8B755
100
AcDbEntity
  8
AM_5
100
AcDbLine
 10
353.5688785279162
 20
462.0
 30
0.0
 11
353.5688785279162
 21
448.0
 31
0.0
  0
LINE
  5
AB064
330
8B755
100
AcDbEntity
  8
AM_5
100
AcDbLine
 10
369.5688785279163
 20
450.0
 30
0.0
 11
355.5688785279162
 21
450.0
 31
0.0
  0
INSERT
  5
AB065
330
8B755
100
AcDbEntity
  8
AM_5
100
AcDbBlockReference
  2
_Dot
 10
371.5688785279163
 20
450.0
 30
0.0
 41
2.0
 42
2.0
 43
2.0
  0
INSERT
  5
AB066
330
8B755
100
AcDbEntity
  8
AM_5
100
AcDbBlockReference
  2
_Dot
 10
353.5688785279162
 20
450.0
 30
0.0
 41
2.0
 42
2.0
 43
2.0
 50
180.0
  0
MTEXT
  5
AB067
330
8B755
100
AcDbEntity
  8
AM_5
 62
     2
100
AcDbMText
 10
362.5688785279162
 20
456.2
 30
0.0
 40
6.400000000000002
 41
0.0
 71
     5
 72
     1
  1
E
 73
     1
 44
1.0
1001
ACAD
1000
MTEXTBEGIN
1070
    73
1070
     1
1070
    44
1040
1.0
1070
    74
1070
     0
1000
MTEXTEND
  0
POINT
  5
AB068
330
8B755
100
AcDbEntity
  8
Defpoints
 62
     0
100
AcDbPoint
 10
371.5688785279163
 20
495.0
 30
0.0
  0
POINT
  5
AB069
330
8B755
100
AcDbEntity
  8
Defpoints
 62
     0
100
AcDbPoint
 10
353.5688785279162
 20
464.0
 30
0.0
  0
POINT
  5
AB06A
330
8B755
100
AcDbEntity
  8
Defpoints
 62
     0
100
AcDbPoint
 10
353.5688785279162
 20
450.0
 30
0.0
  0
ENDBLK
  5
8B760
330
8B755
100
AcDbEntity
  8
0
100
AcDbBlockEnd
  0
BLOCK
  5
8B777
330
8B76D
100
AcDbEntity
  8
0
100
AcDbBlockBegin
  2
*D7
 70
     1
 10
0.0
 20
0.0
 30
0.0
  3
*D7
  1

  0
LINE
  5
AB06B
330
8B76D
100
AcDbEntity
  8
AM_5
100
AcDbLine
 10
411.8188785279162
 20
664.5
 30
0.0
 11
434.5688785279163
 21
664.5
 31
0.0
  0
LINE
  5
AB06C
330
8B76D
100
AcDbEntity
  8
AM_5
100
AcDbLine
 10
411.8188785279162
 20
609.4999999999999
 30
0.0
 11
434.5688785279162
 21
609.4999999999999
 31
0.0
  0
LINE
  5
AB06D
330
8B76D
100
AcDbEntity
  8
AM_5
100
AcDbLine
 10
432.5688785279163
 20
662.5
 30
0.0
 11
432.5688785279162
 21
611.5
 31
0.0
  0
INSERT
  5
AB06E
330
8B76D
100
AcDbEntity
  8
AM_5
100
AcDbBlockReference
  2
_Dot
 10
432.5688785279163
 20
664.5
 30
0.0
 41
2.0
 42
2.0
 43
2.0
 50
90.0
  0
INSERT
  5
AB06F
330
8B76D
100
AcDbEntity
  8
AM_5
100
AcDbBlockReference
  2
_Dot
 10
432.5688785279162
 20
609.4999999999999
 30
0.0
 41
2.0
 42
2.0
 43
2.0
 50
270.0
  0
MTEXT
  5
AB070
330
8B76D
100
AcDbEntity
  8
AM_5
 62
     2
100
AcDbMText
 10
426.3688785279161
 20
637.0
 30
0.0
 40
6.400000000000002
 41
0.0
 71
     5
 72
     1
  1
Y
 11
0.0000000000000001
 21
1.0
 31
0.0
 73
     1
 44
1.0
1001
ACAD
1000
MTEXTBEGIN
1070
    73
1070
     1
1070
    44
1040
1.0
1070
    74
1070
     0
1000
MTEXTEND
  0
POINT
  5
AB071
330
8B76D
100
AcDbEntity
  8
Defpoints
 62
     0
100
AcDbPoint
 10
409.8188785279162
 20
664.5
 30
0.0
  0
POINT
  5
AB072
330
8B76D
100
AcDbEntity
  8
Defpoints
 62
     0
100
AcDbPoint
 10
409.8188785279162
 20
609.4999999999999
 30
0.0
  0
POINT
  5
AB073
330
8B76D
100
AcDbEntity
  8
Defpoints
 62
     0
100
AcDbPoint
 10
432.5688785279162
 20
609.4999999999999
 30
0.0
  0
ENDBLK
  5
8B778
330
8B76D
100
AcDbEntity
  8
0
100
AcDbBlockEnd
  0
BLOCK
  5
8B783
330
8B779
100
AcDbEntity
  8
0
100
AcDbBlockBegin
  2
*D8
 70
     1
 10
0.0
 20
0.0
 30
0.0
  3
*D8
  1

  0
LINE
  5
AB074
330
8B779
100
AcDbEntity
  8
AM_5
100
AcDbLine
 10
416.8188785279162
 20
604.4999999999999
 30
0.0
 11
450.5688785279161
 21
604.4999999999999
 31
0.0
  0
LINE
  5
AB075
330
8B779
100
AcDbEntity
  8
AM_5
100
AcDbLine
 10
416.8188785279162
 20
669.5
 30
0.0
 11
450.5688785279162
 21
669.5
 31
0.0
  0
LINE
  5
AB076
330
8B779
100
AcDbEntity
  8
AM_5
100
AcDbLine
 10
448.5688785279162
 20
606.5
 30
0.0
 11
448.5688785279162
 21
667.4999999999999
 31
0.0
  0
INSERT
  5
AB077
330
8B779
100
AcDbEntity
  8
AM_5
100
AcDbBlockReference
  2
_Dot
 10
448.5688785279162
 20
604.4999999999999
 30
0.0
 41
2.0
 42
2.0
 43
2.0
 50
270.0
  0
INSERT
  5
AB078
330
8B779
100
AcDbEntity
  8
AM_5
100
AcDbBlockReference
  2
_Dot
 10
448.5688785279162
 20
669.5
 30
0.0
 41
2.0
 42
2.0
 43
2.0
 50
90.0
  0
MTEXT
  5
AB079
330
8B779
100
AcDbEntity
  8
AM_5
 62
     2
100
AcDbMText
 10
441.7593547183923
 20
637.0
 30
0.0
 40
6.400000000000002
 41
0.0
 71
     5
 72
     1
  1
Y'
 11
0.0000000000000001
 21
1.0
 31
0.0
 73
     1
 44
1.0
1001
ACAD
1000
MTEXTBEGIN
1070
    73
1070
     1
1070
    44
1040
1.0
1070
    74
1070
     0
1000
MTEXTEND
  0
POINT
  5
AB07A
330
8B779
100
AcDbEntity
  8
Defpoints
 62
     0
100
AcDbPoint
 10
414.8188785279162
 20
604.4999999999999
 30
0.0
  0
POINT
  5
AB07B
330
8B779
100
AcDbEntity
  8
Defpoints
 62
     0
100
AcDbPoint
 10
414.8188785279162
 20
669.5
 30
0.0
  0
POINT
  5
AB07C
330
8B779
100
AcDbEntity
  8
Defpoints
 62
     0
100
AcDbPoint
 10
448.5688785279162
 20
669.5
 30
0.0
  0
ENDBLK
  5
8B784
330
8B779
100
AcDbEntity
  8
0
100
AcDbBlockEnd
  0
BLOCK
  5
8B78F
330
8B785
100
AcDbEntity
  8
0
100
AcDbBlockBegin
  2
*D9
 70
     1
 10
0.0
 20
0.0
 30
0.0
  3
*D9
  1

  0
LINE
  5
AB07D
330
8B785
100
AcDbEntity
  8
AM_5
100
AcDbLine
 10
405.0688785279162
 20
596.0
 30
0.0
 11
466.5688785279162
 21
596.0
 31
0.0
  0
LINE
  5
AB07E
330
8B785
100
AcDbEntity
  8
AM_5
100
AcDbLine
 10
405.0688785279162
 20
678.0
 30
0.0
 11
466.5688785279163
 21
678.0
 31
0.0
  0
LINE
  5
AB07F
330
8B785
100
AcDbEntity
  8
AM_5
100
AcDbLine
 10
464.5688785279163
 20
598.0
 30
0.0
 11
464.5688785279163
 21
676.0
 31
0.0
  0
INSERT
  5
AB080
330
8B785
100
AcDbEntity
  8
AM_5
100
AcDbBlockReference
  2
_Dot
 10
464.5688785279163
 20
596.0
 30
0.0
 41
2.0
 42
2.0
 43
2.0
 50
270.0
  0
INSERT
  5
AB081
330
8B785
100
AcDbEntity
  8
AM_5
100
AcDbBlockReference
  2
_Dot
 10
464.5688785279163
 20
678.0
 30
0.0
 41
2.0
 42
2.0
 43
2.0
 50
90.0
  0
MTEXT
  5
AB082
330
8B785
100
AcDbEntity
  8
AM_5
 62
     2
100
AcDbMText
 10
458.3688785279163
 20
637.0
 30
0.0
 40
6.400000000000002
 41
0.0
 71
     5
 72
     1
  1
B
 11
0.0000000000000001
 21
1.0
 31
0.0
 73
     1
 44
1.0
1001
ACAD
1000
MTEXTBEGIN
1070
    73
1070
     1
1070
    44
1040
1.0
1070
    74
1070
     0
1000
MTEXTEND
  0
POINT
  5
AB083
330
8B785
100
AcDbEntity
  8
Defpoints
 62
     0
100
AcDbPoint
 10
403.0688785279162
 20
596.0
 30
0.0
  0
POINT
  5
AB084
330
8B785
100
AcDbEntity
  8
Defpoints
 62
     0
100
AcDbPoint
 10
403.0688785279162
 20
678.0
 30
0.0
  0
POINT
  5
AB085
330
8B785
100
AcDbEntity
  8
Defpoints
 62
     0
100
AcDbPoint
 10
464.5688785279163
 20
678.0
 30
0.0
  0
ENDBLK
  5
8B790
330
8B785
100
AcDbEntity
  8
0
100
AcDbBlockEnd
  0
BLOCK
  5
8B79B
330
8B791
100
AcDbEntity
  8
0
100
AcDbBlockBegin
  2
*D10
 70
     1
 10
0.0
 20
0.0
 30
0.0
  3
*D10
  1

  0
LINE
  5
AB086
330
8B791
100
AcDbEntity
  8
AM_5
100
AcDbLine
 10
344.0688785279162
 20
677.2499999999999
 30
0.0
 11
344.0688785279162
 21
696.0
 31
0.0
  0
LINE
  5
AB087
330
8B791
100
AcDbEntity
  8
AM_5
100
AcDbLine
 10
399.0688785279163
 20
677.2499999999999
 30
0.0
 11
399.0688785279163
 21
696.0
 31
0.0
  0
LINE
  5
AB088
330
8B791
100
AcDbEntity
  8
AM_5
100
AcDbLine
 10
346.0688785279162
 20
694.0
 30
0.0
 11
397.0688785279163
 21
694.0
 31
0.0
  0
INSERT
  5
AB089
330
8B791
100
AcDbEntity
  8
AM_5
100
AcDbBlockReference
  2
_Dot
 10
344.0688785279162
 20
694.0
 30
0.0
 41
2.0
 42
2.0
 43
2.0
 50
180.0
  0
INSERT
  5
AB08A
330
8B791
100
AcDbEntity
  8
AM_5
100
AcDbBlockReference
  2
_Dot
 10
399.0688785279163
 20
694.0
 30
0.0
 41
2.0
 42
2.0
 43
2.0
  0
MTEXT
  5
AB08B
330
8B791
100
AcDbEntity
  8
AM_5
 62
     2
100
AcDbMText
 10
371.5688785279163
 20
700.2
 30
0.0
 40
6.400000000000002
 41
0.0
 71
     5
 72
     1
  1
X
 73
     1
 44
1.0
1001
ACAD
1000
MTEXTBEGIN
1070
    73
1070
     1
1070
    44
1040
1.0
1070
    74
1070
     0
1000
MTEXTEND
  0
POINT
  5
AB08C
330
8B791
100
AcDbEntity
  8
Defpoints
 62
     0
100
AcDbPoint
 10
344.0688785279162
 20
675.25
 30
0.0
  0
POINT
  5
AB08D
330
8B791
100
AcDbEntity
  8
Defpoints
 62
     0
100
AcDbPoint
 10
399.0688785279163
 20
675.25
 30
0.0
  0
POINT
  5
AB08E
330
8B791
100
AcDbEntity
  8
Defpoints
 62
     0
100
AcDbPoint
 10
399.0688785279163
 20
694.0
 30
0.0
  0
ENDBLK
  5
8B79C
330
8B791
100
AcDbEntity
  8
0
100
AcDbBlockEnd
  0
BLOCK
  5
8B7A7
330
8B79D
100
AcDbEntity
  8
0
100
AcDbBlockBegin
  2
*D11
 70
     1
 10
0.0
 20
0.0
 30
0.0
  3
*D11
  1

  0
LINE
  5
AB08F
330
8B79D
100
AcDbEntity
  8
AM_5
100
AcDbLine
 10
339.0688785279162
 20
682.2499999999999
 30
0.0
 11
339.0688785279162
 21
712.0
 31
0.0
  0
LINE
  5
AB090
330
8B79D
100
AcDbEntity
  8
AM_5
100
AcDbLine
 10
404.0688785279162
 20
682.2499999999999
 30
0.0
 11
404.0688785279162
 21
712.0
 31
0.0
  0
LINE
  5
AB091
330
8B79D
100
AcDbEntity
  8
AM_5
100
AcDbLine
 10
341.0688785279162
 20
710.0
 30
0.0
 11
402.0688785279162
 21
710.0
 31
0.0
  0
INSERT
  5
AB092
330
8B79D
100
AcDbEntity
  8
AM_5
100
AcDbBlockReference
  2
_Dot
 10
339.0688785279162
 20
710.0
 30
0.0
 41
2.0
 42
2.0
 43
2.0
 50
180.0
  0
INSERT
  5
AB093
330
8B79D
100
AcDbEntity
  8
AM_5
100
AcDbBlockReference
  2
_Dot
 10
404.0688785279162
 20
710.0
 30
0.0
 41
2.0
 42
2.0
 43
2.0
  0
MTEXT
  5
AB094
330
8B79D
100
AcDbEntity
  8
AM_5
 62
     2
100
AcDbMText
 10
371.5688785279163
 20
716.8095238095238
 30
0.0
 40
6.400000000000002
 41
0.0
 71
     5
 72
     1
  1
X'
 73
     1
 44
1.0
1001
ACAD
1000
MTEXTBEGIN
1070
    73
1070
     1
1070
    44
1040
1.0
1070
    74
1070
     0
1000
MTEXTEND
  0
POINT
  5
AB095
330
8B79D
100
AcDbEntity
  8
Defpoints
 62
     0
100
AcDbPoint
 10
339.0688785279162
 20
680.25
 30
0.0
  0
POINT
  5
AB096
330
8B79D
100
AcDbEntity
  8
Defpoints
 62
     0
100
AcDbPoint
 10
404.0688785279162
 20
680.25
 30
0.0
  0
POINT
  5
AB097
330
8B79D
100
AcDbEntity
  8
Defpoints
 62
     0
100
AcDbPoint
 10
404.0688785279162
 20
710.0
 30
0.0
  0
ENDBLK
  5
8B7A8
330
8B79D
100
AcDbEntity
  8
0
100
AcDbBlockEnd
  0
BLOCK
  5
8B7B3
330
8B7A9
100
AcDbEntity
  8
0
100
AcDbBlockBegin
  2
*D12
 70
     1
 10
0.0
 20
0.0
 30
0.0
  3
*D12
  1

  0
LINE
  5
AB098
330
8B7A9
100
AcDbEntity
  8
AM_5
100
AcDbLine
 10
330.5688785279162
 20
670.5
 30
0.0
 11
330.5688785279162
 21
728.0
 31
0.0
  0
LINE
  5
AB099
330
8B7A9
100
AcDbEntity
  8
AM_5
100
AcDbLine
 10
412.5688785279162
 20
670.5
 30
0.0
 11
412.5688785279162
 21
728.0
 31
0.0
  0
LINE
  5
AB09A
330
8B7A9
100
AcDbEntity
  8
AM_5
100
AcDbLine
 10
332.5688785279163
 20
726.0
 30
0.0
 11
410.5688785279162
 21
726.0
 31
0.0
  0
INSERT
  5
AB09B
330
8B7A9
100
AcDbEntity
  8
AM_5
100
AcDbBlockReference
  2
_Dot
 10
330.5688785279162
 20
726.0
 30
0.0
 41
2.0
 42
2.0
 43
2.0
 50
180.0
  0
INSERT
  5
AB09C
330
8B7A9
100
AcDbEntity
  8
AM_5
100
AcDbBlockReference
  2
_Dot
 10
412.5688785279162
 20
726.0
 30
0.0
 41
2.0
 42
2.0
 43
2.0
  0
MTEXT
  5
AB09D
330
8B7A9
100
AcDbEntity
  8
AM_5
 62
     2
100
AcDbMText
 10
371.5688785279163
 20
732.2
 30
0.0
 40
6.400000000000002
 41
0.0
 71
     5
 72
     1
  1
A
 73
     1
 44
1.0
1001
ACAD
1000
MTEXTBEGIN
1070
    73
1070
     1
1070
    44
1040
1.0
1070
    74
1070
     0
1000
MTEXTEND
  0
POINT
  5
AB09E
330
8B7A9
100
AcDbEntity
  8
Defpoints
 62
     0
100
AcDbPoint
 10
330.5688785279162
 20
668.5
 30
0.0
  0
POINT
  5
AB09F
330
8B7A9
100
AcDbEntity
  8
Defpoints
 62
     0
100
AcDbPoint
 10
412.5688785279162
 20
668.5
 30
0.0
  0
POINT
  5
AB0A0
330
8B7A9
100
AcDbEntity
  8
Defpoints
 62
     0
100
AcDbPoint
 10
412.5688785279162
 20
726.0
 30
0.0
  0
ENDBLK
  5
8B7B4
330
8B7A9
100
AcDbEntity
  8
0
100
AcDbBlockEnd
  0
BLOCK
  5
8B7BF
330
8B7B5
100
AcDbEntity
  8
0
100
AcDbBlockBegin
  2
*D13
 70
     1
 10
0.0
 20
0.0
 30
0.0
  3
*D13
  1

  0
LINE
  5
AB0A1
330
8B7B5
100
AcDbEntity
  8
AM_5
100
AcDbLine
 10
414.5688785279162
 20
548.0
 30
0.0
 11
434.5688785279162
 21
548.0
 31
0.0
  0
LINE
  5
AB0A2
330
8B7B5
100
AcDbEntity
  8
AM_5
100
AcDbLine
 10
355.5688785279162
 20
470.0
 30
0.0
 11
434.5688785279162
 21
469.9999999999999
 31
0.0
  0
LINE
  5
AB0A3
330
8B7B5
100
AcDbEntity
  8
AM_5
100
AcDbLine
 10
432.5688785279162
 20
546.0
 30
0.0
 11
432.5688785279162
 21
471.9999999999999
 31
0.0
  0
INSERT
  5
AB0A4
330
8B7B5
100
AcDbEntity
  8
AM_5
100
AcDbBlockReference
  2
_Dot
 10
432.5688785279162
 20
548.0
 30
0.0
 41
2.0
 42
2.0
 43
2.0
 50
90.0
  0
INSERT
  5
AB0A5
330
8B7B5
100
AcDbEntity
  8
AM_5
100
AcDbBlockReference
  2
_Dot
 10
432.5688785279162
 20
469.9999999999999
 30
0.0
 41
2.0
 42
2.0
 43
2.0
 50
270.0
  0
MTEXT
  5
AB0A6
330
8B7B5
100
AcDbEntity
  8
AM_5
 62
     2
100
AcDbMText
 10
426.3688785279161
 20
509.0000000000001
 30
0.0
 40
6.400000000000002
 41
0.0
 71
     5
 72
     1
  1
H
 11
0.0000000000000001
 21
1.0
 31
0.0
 73
     1
 44
1.0
1001
ACAD
1000
MTEXTBEGIN
1070
    73
1070
     1
1070
    44
1040
1.0
1070
    74
1070
     0
1000
MTEXTEND
  0
POINT
  5
AB0A7
330
8B7B5
100
AcDbEntity
  8
Defpoints
 62
     0
100
AcDbPoint
 10
412.5688785279162
 20
548.0
 30
0.0
  0
POINT
  5
AB0A8
330
8B7B5
100
AcDbEntity
  8
Defpoints
 62
     0
100
AcDbPoint
 10
353.5688785279162
 20
470.0
 30
0.0
  0
POINT
  5
AB0A9
330
8B7B5
100
AcDbEntity
  8
Defpoints
 62
     0
100
AcDbPoint
 10
432.5688785279162
 20
469.9999999999999
 30
0.0
  0
ENDBLK
  5
8B7C0
330
8B7B5
100
AcDbEntity
  8
0
100
AcDbBlockEnd
  0
BLOCK
  5
8B7CB
330
8B7C1
100
AcDbEntity
  8
0
100
AcDbBlockBegin
  2
*D14
 70
     1
 10
0.0
 20
0.0
 30
0.0
  3
*D14
  1

  0
LINE
  5
AB0AA
330
8B7C1
100
AcDbEntity
  8
AM_5
100
AcDbLine
 10
703.8188785279165
 20
664.5
 30
0.0
 11
726.5688785279165
 21
664.5
 31
0.0
  0
LINE
  5
AB0AB
330
8B7C1
100
AcDbEntity
  8
AM_5
100
AcDbLine
 10
703.8188785279165
 20
609.4999999999999
 30
0.0
 11
726.5688785279165
 21
609.4999999999999
 31
0.0
  0
LINE
  5
AB0AC
330
8B7C1
100
AcDbEntity
  8
AM_5
100
AcDbLine
 10
724.5688785279164
 20
662.5
 30
0.0
 11
724.5688785279164
 21
611.5
 31
0.0
  0
INSERT
  5
AB0AD
330
8B7C1
100
AcDbEntity
  8
AM_5
100
AcDbBlockReference
  2
_Dot
 10
724.5688785279164
 20
664.5
 30
0.0
 41
2.0
 42
2.0
 43
2.0
 50
90.0
  0
INSERT
  5
AB0AE
330
8B7C1
100
AcDbEntity
  8
AM_5
100
AcDbBlockReference
  2
_Dot
 10
724.5688785279164
 20
609.4999999999999
 30
0.0
 41
2.0
 42
2.0
 43
2.0
 50
270.0
  0
MTEXT
  5
AB0AF
330
8B7C1
100
AcDbEntity
  8
AM_5
 62
     2
100
AcDbMText
 10
718.3688785279163
 20
637.0
 30
0.0
 40
6.400000000000002
 41
0.0
 71
     5
 72
     1
  1
Y
 11
0.0000000000000001
 21
1.0
 31
0.0
 73
     1
 44
1.0
1001
ACAD
1000
MTEXTBEGIN
1070
    73
1070
     1
1070
    44
1040
1.0
1070
    74
1070
     0
1000
MTEXTEND
  0
POINT
  5
AB0B0
330
8B7C1
100
AcDbEntity
  8
Defpoints
 62
     0
100
AcDbPoint
 10
701.8188785279164
 20
664.5
 30
0.0
  0
POINT
  5
AB0B1
330
8B7C1
100
AcDbEntity
  8
Defpoints
 62
     0
100
AcDbPoint
 10
701.8188785279164
 20
609.4999999999999
 30
0.0
  0
POINT
  5
AB0B2
330
8B7C1
100
AcDbEntity
  8
Defpoints
 62
     0
100
AcDbPoint
 10
724.5688785279164
 20
609.4999999999999
 30
0.0
  0
ENDBLK
  5
8B7CC
330
8B7C1
100
AcDbEntity
  8
0
100
AcDbBlockEnd
  0
BLOCK
  5
8B7D7
330
8B7CD
100
AcDbEntity
  8
0
100
AcDbBlockBegin
  2
*D15
 70
     1
 10
0.0
 20
0.0
 30
0.0
  3
*D15
  1

  0
LINE
  5
AB0B3
330
8B7CD
100
AcDbEntity
  8
AM_5
100
AcDbLine
 10
708.8188785279164
 20
604.4999999999999
 30
0.0
 11
742.5688785279164
 21
604.4999999999999
 31
0.0
  0
LINE
  5
AB0B4
330
8B7CD
100
AcDbEntity
  8
AM_5
100
AcDbLine
 10
708.8188785279164
 20
669.5
 30
0.0
 11
742.5688785279164
 21
669.5
 31
0.0
  0
LINE
  5
AB0B5
330
8B7CD
100
AcDbEntity
  8
AM_5
100
AcDbLine
 10
740.5688785279164
 20
606.5
 30
0.0
 11
740.5688785279164
 21
667.4999999999999
 31
0.0
  0
INSERT
  5
AB0B6
330
8B7CD
100
AcDbEntity
  8
AM_5
100
AcDbBlockReference
  2
_Dot
 10
740.5688785279164
 20
604.4999999999999
 30
0.0
 41
2.0
 42
2.0
 43
2.0
 50
270.0
  0
INSERT
  5
AB0B7
330
8B7CD
100
AcDbEntity
  8
AM_5
100
AcDbBlockReference
  2
_Dot
 10
740.5688785279164
 20
669.5
 30
0.0
 41
2.0
 42
2.0
 43
2.0
 50
90.0
  0
MTEXT
  5
AB0B8
330
8B7CD
100
AcDbEntity
  8
AM_5
 62
     2
100
AcDbMText
 10
733.7593547183924
 20
637.0
 30
0.0
 40
6.400000000000002
 41
0.0
 71
     5
 72
     1
  1
Y'
 11
0.0000000000000001
 21
1.0
 31
0.0
 73
     1
 44
1.0
1001
ACAD
1000
MTEXTBEGIN
1070
    73
1070
     1
1070
    44
1040
1.0
1070
    74
1070
     0
1000
MTEXTEND
  0
POINT
  5
AB0B9
330
8B7CD
100
AcDbEntity
  8
Defpoints
 62
     0
100
AcDbPoint
 10
706.8188785279164
 20
604.4999999999999
 30
0.0
  0
POINT
  5
AB0BA
330
8B7CD
100
AcDbEntity
  8
Defpoints
 62
     0
100
AcDbPoint
 10
706.8188785279164
 20
669.5
 30
0.0
  0
POINT
  5
AB0BB
330
8B7CD
100
AcDbEntity
  8
Defpoints
 62
     0
100
AcDbPoint
 10
740.5688785279164
 20
669.5
 30
0.0
  0
ENDBLK
  5
8B7D8
330
8B7CD
100
AcDbEntity
  8
0
100
AcDbBlockEnd
  0
BLOCK
  5
8B7E3
330
8B7D9
100
AcDbEntity
  8
0
100
AcDbBlockBegin
  2
*D16
 70
     1
 10
0.0
 20
0.0
 30
0.0
  3
*D16
  1

  0
LINE
  5
AB0BC
330
8B7D9
100
AcDbEntity
  8
AM_5
100
AcDbLine
 10
697.0688785279165
 20
596.0
 30
0.0
 11
758.5688785279164
 21
596.0
 31
0.0
  0
LINE
  5
AB0BD
330
8B7D9
100
AcDbEntity
  8
AM_5
100
AcDbLine
 10
697.0688785279165
 20
678.0
 30
0.0
 11
758.5688785279164
 21
678.0
 31
0.0
  0
LINE
  5
AB0BE
330
8B7D9
100
AcDbEntity
  8
AM_5
100
AcDbLine
 10
756.5688785279164
 20
598.0
 30
0.0
 11
756.5688785279164
 21
676.0
 31
0.0
  0
INSERT
  5
AB0BF
330
8B7D9
100
AcDbEntity
  8
AM_5
100
AcDbBlockReference
  2
_Dot
 10
756.5688785279164
 20
596.0
 30
0.0
 41
2.0
 42
2.0
 43
2.0
 50
270.0
  0
INSERT
  5
AB0C0
330
8B7D9
100
AcDbEntity
  8
AM_5
100
AcDbBlockReference
  2
_Dot
 10
756.5688785279164
 20
678.0
 30
0.0
 41
2.0
 42
2.0
 43
2.0
 50
90.0
  0
MTEXT
  5
AB0C1
330
8B7D9
100
AcDbEntity
  8
AM_5
 62
     2
100
AcDbMText
 10
750.3688785279162
 20
637.0
 30
0.0
 40
6.400000000000002
 41
0.0
 71
     5
 72
     1
  1
B
 11
0.0000000000000001
 21
1.0
 31
0.0
 73
     1
 44
1.0
1001
ACAD
1000
MTEXTBEGIN
1070
    73
1070
     1
1070
    44
1040
1.0
1070
    74
1070
     0
1000
MTEXTEND
  0
POINT
  5
AB0C2
330
8B7D9
100
AcDbEntity
  8
Defpoints
 62
     0
100
AcDbPoint
 10
695.0688785279164
 20
596.0
 30
0.0
  0
POINT
  5
AB0C3
330
8B7D9
100
AcDbEntity
  8
Defpoints
 62
     0
100
AcDbPoint
 10
695.0688785279164
 20
678.0
 30
0.0
  0
POINT
  5
AB0C4
330
8B7D9
100
AcDbEntity
  8
Defpoints
 62
     0
100
AcDbPoint
 10
756.5688785279164
 20
678.0
 30
0.0
  0
ENDBLK
  5
8B7E4
330
8B7D9
100
AcDbEntity
  8
0
100
AcDbBlockEnd
  0
BLOCK
  5
8B7EF
330
8B7E5
100
AcDbEntity
  8
0
100
AcDbBlockBegin
  2
*D17
 70
     1
 10
0.0
 20
0.0
 30
0.0
  3
*D17
  1

  0
LINE
  5
AB0C5
330
8B7E5
100
AcDbEntity
  8
AM_5
100
AcDbLine
 10
636.0688785279164
 20
677.2499999999999
 30
0.0
 11
636.0688785279164
 21
696.0
 31
0.0
  0
LINE
  5
AB0C6
330
8B7E5
100
AcDbEntity
  8
AM_5
100
AcDbLine
 10
691.0688785279164
 20
677.2499999999999
 30
0.0
 11
691.0688785279164
 21
696.0
 31
0.0
  0
LINE
  5
AB0C7
330
8B7E5
100
AcDbEntity
  8
AM_5
100
AcDbLine
 10
638.0688785279164
 20
694.0
 30
0.0
 11
689.0688785279165
 21
694.0
 31
0.0
  0
INSERT
  5
AB0C8
330
8B7E5
100
AcDbEntity
  8
AM_5
100
AcDbBlockReference
  2
_Dot
 10
636.0688785279164
 20
694.0
 30
0.0
 41
2.0
 42
2.0
 43
2.0
 50
180.0
  0
INSERT
  5
AB0C9
330
8B7E5
100
AcDbEntity
  8
AM_5
100
AcDbBlockReference
  2
_Dot
 10
691.0688785279164
 20
694.0
 30
0.0
 41
2.0
 42
2.0
 43
2.0
  0
MTEXT
  5
AB0CA
330
8B7E5
100
AcDbEntity
  8
AM_5
 62
     2
100
AcDbMText
 10
663.5688785279164
 20
700.2
 30
0.0
 40
6.400000000000002
 41
0.0
 71
     5
 72
     1
  1
X
 73
     1
 44
1.0
1001
ACAD
1000
MTEXTBEGIN
1070
    73
1070
     1
1070
    44
1040
1.0
1070
    74
1070
     0
1000
MTEXTEND
  0
POINT
  5
AB0CB
330
8B7E5
100
AcDbEntity
  8
Defpoints
 62
     0
100
AcDbPoint
 10
636.0688785279164
 20
675.25
 30
0.0
  0
POINT
  5
AB0CC
330
8B7E5
100
AcDbEntity
  8
Defpoints
 62
     0
100
AcDbPoint
 10
691.0688785279164
 20
675.25
 30
0.0
  0
POINT
  5
AB0CD
330
8B7E5
100
AcDbEntity
  8
Defpoints
 62
     0
100
AcDbPoint
 10
691.0688785279164
 20
694.0
 30
0.0
  0
ENDBLK
  5
8B7F0
330
8B7E5
100
AcDbEntity
  8
0
100
AcDbBlockEnd
  0
BLOCK
  5
8B7FB
330
8B7F1
100
AcDbEntity
  8
0
100
AcDbBlockBegin
  2
*D18
 70
     1
 10
0.0
 20
0.0
 30
0.0
  3
*D18
  1

  0
LINE
  5
AB0CE
330
8B7F1
100
AcDbEntity
  8
AM_5
100
AcDbLine
 10
631.0688785279165
 20
682.2499999999999
 30
0.0
 11
631.0688785279165
 21
712.0
 31
0.0
  0
LINE
  5
AB0CF
330
8B7F1
100
AcDbEntity
  8
AM_5
100
AcDbLine
 10
696.0688785279164
 20
682.2499999999999
 30
0.0
 11
696.0688785279164
 21
712.0
 31
0.0
  0
LINE
  5
AB0D0
330
8B7F1
100
AcDbEntity
  8
AM_5
100
AcDbLine
 10
633.0688785279164
 20
710.0
 30
0.0
 11
694.0688785279164
 21
710.0
 31
0.0
  0
INSERT
  5
AB0D1
330
8B7F1
100
AcDbEntity
  8
AM_5
100
AcDbBlockReference
  2
_Dot
 10
631.0688785279165
 20
710.0
 30
0.0
 41
2.0
 42
2.0
 43
2.0
 50
180.0
  0
INSERT
  5
AB0D2
330
8B7F1
100
AcDbEntity
  8
AM_5
100
AcDbBlockReference
  2
_Dot
 10
696.0688785279164
 20
710.0
 30
0.0
 41
2.0
 42
2.0
 43
2.0
  0
MTEXT
  5
AB0D3
330
8B7F1
100
AcDbEntity
  8
AM_5
 62
     2
100
AcDbMText
 10
663.5688785279164
 20
716.8095238095238
 30
0.0
 40
6.400000000000002
 41
0.0
 71
     5
 72
     1
  1
X'
 73
     1
 44
1.0
1001
ACAD
1000
MTEXTBEGIN
1070
    73
1070
     1
1070
    44
1040
1.0
1070
    74
1070
     0
1000
MTEXTEND
  0
POINT
  5
AB0D4
330
8B7F1
100
AcDbEntity
  8
Defpoints
 62
     0
100
AcDbPoint
 10
631.0688785279165
 20
680.25
 30
0.0
  0
POINT
  5
AB0D5
330
8B7F1
100
AcDbEntity
  8
Defpoints
 62
     0
100
AcDbPoint
 10
696.0688785279164
 20
680.25
 30
0.0
  0
POINT
  5
AB0D6
330
8B7F1
100
AcDbEntity
  8
Defpoints
 62
     0
100
AcDbPoint
 10
696.0688785279164
 20
710.0
 30
0.0
  0
ENDBLK
  5
8B7FC
330
8B7F1
100
AcDbEntity
  8
0
100
AcDbBlockEnd
  0
BLOCK
  5
8B807
330
8B7FD
100
AcDbEntity
  8
0
100
AcDbBlockBegin
  2
*D19
 70
     1
 10
0.0
 20
0.0
 30
0.0
  3
*D19
  1

  0
LINE
  5
AB0D7
330
8B7FD
100
AcDbEntity
  8
AM_5
100
AcDbLine
 10
622.5688785279165
 20
670.5
 30
0.0
 11
622.5688785279165
 21
728.0
 31
0.0
  0
LINE
  5
AB0D8
330
8B7FD
100
AcDbEntity
  8
AM_5
100
AcDbLine
 10
704.5688785279164
 20
670.5
 30
0.0
 11
704.5688785279164
 21
728.0
 31
0.0
  0
LINE
  5
AB0D9
330
8B7FD
100
AcDbEntity
  8
AM_5
100
AcDbLine
 10
624.5688785279164
 20
726.0
 30
0.0
 11
702.5688785279164
 21
726.0
 31
0.0
  0
INSERT
  5
AB0DA
330
8B7FD
100
AcDbEntity
  8
AM_5
100
AcDbBlockReference
  2
_Dot
 10
622.5688785279165
 20
726.0
 30
0.0
 41
2.0
 42
2.0
 43
2.0
 50
180.0
  0
INSERT
  5
AB0DB
330
8B7FD
100
AcDbEntity
  8
AM_5
100
AcDbBlockReference
  2
_Dot
 10
704.5688785279164
 20
726.0
 30
0.0
 41
2.0
 42
2.0
 43
2.0
  0
MTEXT
  5
AB0DC
330
8B7FD
100
AcDbEntity
  8
AM_5
 62
     2
100
AcDbMText
 10
663.5688785279164
 20
732.2
 30
0.0
 40
6.400000000000002
 41
0.0
 71
     5
 72
     1
  1
A
 73
     1
 44
1.0
1001
ACAD
1000
MTEXTBEGIN
1070
    73
1070
     1
1070
    44
1040
1.0
1070
    74
1070
     0
1000
MTEXTEND
  0
POINT
  5
AB0DD
330
8B7FD
100
AcDbEntity
  8
Defpoints
 62
     0
100
AcDbPoint
 10
622.5688785279165
 20
668.5
 30
0.0
  0
POINT
  5
AB0DE
330
8B7FD
100
AcDbEntity
  8
Defpoints
 62
     0
100
AcDbPoint
 10
704.5688785279164
 20
668.5
 30
0.0
  0
POINT
  5
AB0DF
330
8B7FD
100
AcDbEntity
  8
Defpoints
 62
     0
100
AcDbPoint
 10
704.5688785279164
 20
726.0
 30
0.0
  0
ENDBLK
  5
8B808
330
8B7FD
100
AcDbEntity
  8
0
100
AcDbBlockEnd
  0
BLOCK
  5
8B813
330
8B809
100
AcDbEntity
  8
0
100
AcDbBlockBegin
  2
*D20
 70
     1
 10
0.0
 20
0.0
 30
0.0
  3
*D20
  1

  0
LINE
  5
AB0E0
330
8B809
100
AcDbEntity
  8
AM_5
100
AcDbLine
 10
663.5688785279164
 20
493.0
 30
0.0
 11
663.5688785279164
 21
448.0
 31
0.0
  0
LINE
  5
AB0E1
330
8B809
100
AcDbEntity
  8
AM_5
100
AcDbLine
 10
645.5688785279164
 20
462.0
 30
0.0
 11
645.5688785279164
 21
448.0
 31
0.0
  0
LINE
  5
AB0E2
330
8B809
100
AcDbEntity
  8
AM_5
100
AcDbLine
 10
661.5688785279164
 20
450.0
 30
0.0
 11
647.5688785279165
 21
450.0
 31
0.0
  0
INSERT
  5
AB0E3
330
8B809
100
AcDbEntity
  8
AM_5
100
AcDbBlockReference
  2
_Dot
 10
663.5688785279164
 20
450.0
 30
0.0
 41
2.0
 42
2.0
 43
2.0
  0
INSERT
  5
AB0E4
330
8B809
100
AcDbEntity
  8
AM_5
100
AcDbBlockReference
  2
_Dot
 10
645.5688785279164
 20
450.0
 30
0.0
 41
2.0
 42
2.0
 43
2.0
 50
180.0
  0
MTEXT
  5
AB0E5
330
8B809
100
AcDbEntity
  8
AM_5
 62
     2
100
AcDbMText
 10
654.5688785279164
 20
456.2
 30
0.0
 40
6.400000000000002
 41
0.0
 71
     5
 72
     1
  1
E
 73
     1
 44
1.0
1001
ACAD
1000
MTEXTBEGIN
1070
    73
1070
     1
1070
    44
1040
1.0
1070
    74
1070
     0
1000
MTEXTEND
  0
POINT
  5
AB0E6
330
8B809
100
AcDbEntity
  8
Defpoints
 62
     0
100
AcDbPoint
 10
663.5688785279164
 20
495.0
 30
0.0
  0
POINT
  5
AB0E7
330
8B809
100
AcDbEntity
  8
Defpoints
 62
     0
100
AcDbPoint
 10
645.5688785279164
 20
464.0
 30
0.0
  0
POINT
  5
AB0E8
330
8B809
100
AcDbEntity
  8
Defpoints
 62
     0
100
AcDbPoint
 10
645.5688785279164
 20
450.0
 30
0.0
  0
ENDBLK
  5
8B814
330
8B809
100
AcDbEntity
  8
0
100
AcDbBlockEnd
  0
BLOCK
  5
8B81F
330
8B815
100
AcDbEntity
  8
0
100
AcDbBlockBegin
  2
*D21
 70
     1
 10
0.0
 20
0.0
 30
0.0
  3
*D21
  1

  0
LINE
  5
AB0E9
330
8B815
100
AcDbEntity
  8
AM_5
100
AcDbLine
 10
706.5688785279164
 20
548.0
 30
0.0
 11
726.5688785279165
 21
548.0
 31
0.0
  0
LINE
  5
AB0EA
330
8B815
100
AcDbEntity
  8
AM_5
100
AcDbLine
 10
647.5688785279165
 20
470.0
 30
0.0
 11
726.5688785279165
 21
470.0
 31
0.0
  0
LINE
  5
AB0EB
330
8B815
100
AcDbEntity
  8
AM_5
100
AcDbLine
 10
724.5688785279164
 20
546.0
 30
0.0
 11
724.5688785279164
 21
472.0
 31
0.0
  0
INSERT
  5
AB0EC
330
8B815
100
AcDbEntity
  8
AM_5
100
AcDbBlockReference
  2
_Dot
 10
724.5688785279164
 20
548.0
 30
0.0
 41
2.0
 42
2.0
 43
2.0
 50
90.0
  0
INSERT
  5
AB0ED
330
8B815
100
AcDbEntity
  8
AM_5
100
AcDbBlockReference
  2
_Dot
 10
724.5688785279164
 20
470.0
 30
0.0
 41
2.0
 42
2.0
 43
2.0
 50
270.0
  0
MTEXT
  5
AB0EE
330
8B815
100
AcDbEntity
  8
AM_5
 62
     2
100
AcDbMText
 10
718.3688785279163
 20
509.0
 30
0.0
 40
6.400000000000002
 41
0.0
 71
     5
 72
     1
  1
H
 11
0.0000000000000001
 21
1.0
 31
0.0
 73
     1
 44
1.0
1001
ACAD
1000
MTEXTBEGIN
1070
    73
1070
     1
1070
    44
1040
1.0
1070
    74
1070
     0
1000
MTEXTEND
  0
POINT
  5
AB0EF
330
8B815
100
AcDbEntity
  8
Defpoints
 62
     0
100
AcDbPoint
 10
704.5688785279164
 20
548.0
 30
0.0
  0
POINT
  5
AB0F0
330
8B815
100
AcDbEntity
  8
Defpoints
 62
     0
100
AcDbPoint
 10
645.5688785279164
 20
470.0
 30
0.0
  0
POINT
  5
AB0F1
330
8B815
100
AcDbEntity
  8
Defpoints
 62
     0
100
AcDbPoint
 10
724.5688785279164
 20
470.0
 30
0.0
  0
ENDBLK
  5
8B820
330
8B815
100
AcDbEntity
  8
0
100
AcDbBlockEnd
  0
BLOCK
  5
8B837
330
8B82D
100
AcDbEntity
  8
0
100
AcDbBlockBegin
  2
*D22
 70
     1
 10
0.0
 20
0.0
 30
0.0
  3
*D22
  1

  0
LINE
  5
AB0F2
330
8B82D
100
AcDbEntity
  8
AM_5
100
AcDbLine
 10
965.3188785279164
 20
623.0
 30
0.0
 11
989.5688785279164
 21
623.0
 31
0.0
  0
LINE
  5
AB0F3
330
8B82D
100
AcDbEntity
  8
AM_5
100
AcDbLine
 10
965.3188785279164
 20
650.999999999999
 30
0.0
 11
989.5688785279164
 21
650.999999999999
 31
0.0
  0
LINE
  5
AB0F4
330
8B82D
100
AcDbEntity
  8
AM_5
100
AcDbLine
 10
987.5688785279164
 20
625.0
 30
0.0
 11
987.5688785279164
 21
648.9999999999991
 31
0.0
  0
INSERT
  5
AB0F5
330
8B82D
100
AcDbEntity
  8
AM_5
100
AcDbBlockReference
  2
_Dot
 10
987.5688785279164
 20
623.0
 30
0.0
 41
2.0
 42
2.0
 43
2.0
 50
270.0
  0
INSERT
  5
AB0F6
330
8B82D
100
AcDbEntity
  8
AM_5
100
AcDbBlockReference
  2
_Dot
 10
987.5688785279164
 20
650.999999999999
 30
0.0
 41
2.0
 42
2.0
 43
2.0
 50
90.0
  0
MTEXT
  5
AB0F7
330
8B82D
100
AcDbEntity
  8
AM_5
 62
     2
100
AcDbMText
 10
981.3688785279163
 20
636.9999999999996
 30
0.0
 40
6.400000000000002
 41
0.0
 71
     5
 72
     1
  1
Y
 11
0.0000000000000001
 21
1.0
 31
0.0
 73
     1
 44
1.0
1001
ACAD
1000
MTEXTBEGIN
1070
    73
1070
     1
1070
    44
1040
1.0
1070
    74
1070
     0
1000
MTEXTEND
  0
POINT
  5
AB0F8
330
8B82D
100
AcDbEntity
  8
Defpoints
 62
     0
100
AcDbPoint
 10
963.3188785279164
 20
623.0
 30
0.0
  0
POINT
  5
AB0F9
330
8B82D
100
AcDbEntity
  8
Defpoints
 62
     0
100
AcDbPoint
 10
963.3188785279164
 20
650.999999999999
 30
0.0
  0
POINT
  5
AB0FA
330
8B82D
100
AcDbEntity
  8
Defpoints
 62
     0
100
AcDbPoint
 10
987.5688785279164
 20
650.999999999999
 30
0.0
  0
ENDBLK
  5
8B838
330
8B82D
100
AcDbEntity
  8
0
100
AcDbBlockEnd
  0
BLOCK
  5
8B843
330
8B839
100
AcDbEntity
  8
0
100
AcDbBlockBegin
  2
*D23
 70
     1
 10
0.0
 20
0.0
 30
0.0
  3
*D23
  1

  0
LINE
  5
AB0FB
330
8B839
100
AcDbEntity
  8
AM_5
100
AcDbLine
 10
897.5688785279164
 20
663.75
 30
0.0
 11
897.5688785279164
 21
684.0
 31
0.0
  0
LINE
  5
AB0FC
330
8B839
100
AcDbEntity
  8
AM_5
100
AcDbLine
 10
952.5688785279164
 20
663.7499999999991
 30
0.0
 11
952.5688785279164
 21
684.0
 31
0.0
  0
LINE
  5
AB0FD
330
8B839
100
AcDbEntity
  8
AM_5
100
AcDbLine
 10
899.5688785279165
 20
682.0
 30
0.0
 11
950.5688785279165
 21
682.0
 31
0.0
  0
INSERT
  5
AB0FE
330
8B839
100
AcDbEntity
  8
AM_5
100
AcDbBlockReference
  2
_Dot
 10
897.5688785279164
 20
682.0
 30
0.0
 41
2.0
 42
2.0
 43
2.0
 50
180.0
  0
INSERT
  5
AB0FF
330
8B839
100
AcDbEntity
  8
AM_5
100
AcDbBlockReference
  2
_Dot
 10
952.5688785279164
 20
682.0
 30
0.0
 41
2.0
 42
2.0
 43
2.0
  0
MTEXT
  5
AB100
330
8B839
100
AcDbEntity
  8
AM_5
 62
     2
100
AcDbMText
 10
925.0688785279164
 20
688.2
 30
0.0
 40
6.400000000000002
 41
0.0
 71
     5
 72
     1
  1
X
 73
     1
 44
1.0
1001
ACAD
1000
MTEXTBEGIN
1070
    73
1070
     1
1070
    44
1040
1.0
1070
    74
1070
     0
1000
MTEXTEND
  0
POINT
  5
AB101
330
8B839
100
AcDbEntity
  8
Defpoints
 62
     0
100
AcDbPoint
 10
897.5688785279164
 20
661.7499999999999
 30
0.0
  0
POINT
  5
AB102
330
8B839
100
AcDbEntity
  8
Defpoints
 62
     0
100
AcDbPoint
 10
952.5688785279164
 20
661.749999999999
 30
0.0
  0
POINT
  5
AB103
330
8B839
100
AcDbEntity
  8
Defpoints
 62
     0
100
AcDbPoint
 10
952.5688785279164
 20
682.0
 30
0.0
  0
ENDBLK
  5
8B844
330
8B839
100
AcDbEntity
  8
0
100
AcDbBlockEnd
  0
BLOCK
  5
8B84F
330
8B845
100
AcDbEntity
  8
0
100
AcDbBlockBegin
  2
*D24
 70
     1
 10
0.0
 20
0.0
 30
0.0
  3
*D24
  1

  0
LINE
  5
AB104
330
8B845
100
AcDbEntity
  8
AM_5
100
AcDbLine
 10
958.3688785279166
 20
608.0
 30
0.0
 11
1005.568878527916
 21
608.0
 31
0.0
  0
LINE
  5
AB105
330
8B845
100
AcDbEntity
  8
AM_5
100
AcDbLine
 10
958.3688785279166
 20
666.0
 30
0.0
 11
1005.568878527916
 21
666.0
 31
0.0
  0
LINE
  5
AB106
330
8B845
100
AcDbEntity
  8
AM_5
100
AcDbLine
 10
1003.568878527916
 20
610.0
 30
0.0
 11
1003.568878527916
 21
664.0
 31
0.0
  0
INSERT
  5
AB107
330
8B845
100
AcDbEntity
  8
AM_5
100
AcDbBlockReference
  2
_Dot
 10
1003.568878527916
 20
608.0
 30
0.0
 41
2.0
 42
2.0
 43
2.0
 50
270.0
  0
INSERT
  5
AB108
330
8B845
100
AcDbEntity
  8
AM_5
100
AcDbBlockReference
  2
_Dot
 10
1003.568878527916
 20
666.0
 30
0.0
 41
2.0
 42
2.0
 43
2.0
 50
90.0
  0
MTEXT
  5
AB109
330
8B845
100
AcDbEntity
  8
AM_5
 62
     2
100
AcDbMText
 10
997.3688785279163
 20
637.0
 30
0.0
 40
6.400000000000002
 41
0.0
 71
     5
 72
     1
  1
B
 11
0.0000000000000001
 21
1.0
 31
0.0
 73
     1
 44
1.0
1001
ACAD
1000
MTEXTBEGIN
1070
    73
1070
     1
1070
    44
1040
1.0
1070
    74
1070
     0
1000
MTEXTEND
  0
POINT
  5
AB10A
330
8B845
100
AcDbEntity
  8
Defpoints
 62
     0
100
AcDbPoint
 10
956.3688785279166
 20
608.0
 30
0.0
  0
POINT
  5
AB10B
330
8B845
100
AcDbEntity
  8
Defpoints
 62
     0
100
AcDbPoint
 10
956.3688785279166
 20
666.0
 30
0.0
  0
POINT
  5
AB10C
330
8B845
100
AcDbEntity
  8
Defpoints
 62
     0
100
AcDbPoint
 10
1003.568878527916
 20
666.0
 30
0.0
  0
ENDBLK
  5
8B850
330
8B845
100
AcDbEntity
  8
0
100
AcDbBlockEnd
  0
BLOCK
  5
8B85B
330
8B851
100
AcDbEntity
  8
0
100
AcDbBlockBegin
  2
*D25
 70
     1
 10
0.0
 20
0.0
 30
0.0
  3
*D25
  1

  0
LINE
  5
AB10D
330
8B851
100
AcDbEntity
  8
AM_5
100
AcDbLine
 10
882.5688785279165
 20
656.8000000000002
 30
0.0
 11
882.5688785279165
 21
700.0
 31
0.0
  0
LINE
  5
AB10E
330
8B851
100
AcDbEntity
  8
AM_5
100
AcDbLine
 10
967.5688785279165
 20
656.8000000000002
 30
0.0
 11
967.5688785279165
 21
700.0
 31
0.0
  0
LINE
  5
AB10F
330
8B851
100
AcDbEntity
  8
AM_5
100
AcDbLine
 10
884.5688785279165
 20
698.0
 30
0.0
 11
965.5688785279165
 21
698.0
 31
0.0
  0
INSERT
  5
AB110
330
8B851
100
AcDbEntity
  8
AM_5
100
AcDbBlockReference
  2
_Dot
 10
882.5688785279165
 20
698.0
 30
0.0
 41
2.0
 42
2.0
 43
2.0
 50
180.0
  0
INSERT
  5
AB111
330
8B851
100
AcDbEntity
  8
AM_5
100
AcDbBlockReference
  2
_Dot
 10
967.5688785279165
 20
698.0
 30
0.0
 41
2.0
 42
2.0
 43
2.0
  0
MTEXT
  5
AB112
330
8B851
100
AcDbEntity
  8
AM_5
 62
     2
100
AcDbMText
 10
925.0688785279164
 20
704.2
 30
0.0
 40
6.400000000000002
 41
0.0
 71
     5
 72
     1
  1
A
 73
     1
 44
1.0
1001
ACAD
1000
MTEXTBEGIN
1070
    73
1070
     1
1070
    44
1040
1.0
1070
    74
1070
     0
1000
MTEXTEND
  0
POINT
  5
AB113
330
8B851
100
AcDbEntity
  8
Defpoints
 62
     0
100
AcDbPoint
 10
882.5688785279165
 20
654.8000000000001
 30
0.0
  0
POINT
  5
AB114
330
8B851
100
AcDbEntity
  8
Defpoints
 62
     0
100
AcDbPoint
 10
967.5688785279165
 20
654.8000000000001
 30
0.0
  0
POINT
  5
AB115
330
8B851
100
AcDbEntity
  8
Defpoints
 62
     0
100
AcDbPoint
 10
967.5688785279165
 20
698.0
 30
0.0
  0
ENDBLK
  5
8B85C
330
8B851
100
AcDbEntity
  8
0
100
AcDbBlockEnd
  0
BLOCK
  5
8B867
330
8B85D
100
AcDbEntity
  8
0
100
AcDbBlockBegin
  2
*D26
 70
     1
 10
0.0
 20
0.0
 30
0.0
  3
*D26
  1

  0
LINE
  5
AB116
330
8B85D
100
AcDbEntity
  8
AM_5
100
AcDbLine
 10
981.8355451946072
 20
674.0000000000019
 30
0.0
 11
975.5688785279383
 21
674.0000000000017
 31
0.0
  0
LINE
  5
AB117
330
8B85D
100
AcDbEntity
  8
AM_5
100
AcDbLine
 10
975.5688785279383
 20
674.0000000000017
 30
0.0
 11
957.3418493009302
 21
655.772970773006
 31
0.0
  0
LINE
  5
AB118
330
8B85D
100
AcDbEntity
  8
AM_5
100
AcDbLine
 10
947.795907754908
 20
646.2270292269902
 30
0.0
 11
946.3816941925344
 21
644.8128156646175
 31
0.0
  0
MTEXT
  5
AB119
330
8B85D
100
AcDbEntity
  8
AM_5
 62
     2
100
AcDbMText
 10
980.2022118612738
 20
680.5000000000019
 30
0.0
 40
7.0
 41
0.0
 71
     5
 72
     1
  1
P
 73
     1
 44
1.0
1001
ACAD
1000
MTEXTBEGIN
1070
    73
1070
     1
1070
    44
1040
1.0
1070
    74
1070
     0
1000
MTEXTEND
  0
LINE
  5
AB11A
330
8B85D
100
AcDbEntity
  8
AM_5
100
AcDbLine
 10
949.2101213172816
 20
647.6412427893628
 30
0.0
 11
955.9276357385567
 21
654.3587572106333
 31
0.0
  0
INSERT
  5
AB11B
330
8B85D
100
AcDbEntity
  8
AM_5
100
AcDbBlockReference
  2
_Dot
 10
949.2101213172816
 20
647.6412427893628
 30
0.0
 41
2.0
 42
2.0
 43
2.0
 50
44.99999999998057
  0
INSERT
  5
AB11C
330
8B85D
100
AcDbEntity
  8
AM_5
100
AcDbBlockReference
  2
_Dot
 10
955.9276357385567
 20
654.3587572106333
 30
0.0
 41
2.0
 42
2.0
 43
2.0
 50
224.9999999999806
  0
POINT
  5
AB11D
330
8B85D
100
AcDbEntity
  8
Defpoints
 62
     0
100
AcDbPoint
 10
955.9276357385567
 20
654.3587572106333
 30
0.0
  0
POINT
  5
AB11E
330
8B85D
100
AcDbEntity
  8
Defpoints
 62
     0
100
AcDbPoint
 10
949.2101213172816
 20
647.6412427893628
 30
0.0
  0
ENDBLK
  5
8B868
330
8B85D
100
AcDbEntity
  8
0
100
AcDbBlockEnd
  0
BLOCK
  5
8B87F
330
8B875
100
AcDbEntity
  8
0
100
AcDbBlockBegin
  2
*D27
 70
     1
 10
0.0
 20
0.0
 30
0.0
  3
*D27
  1

  0
LINE
  5
AB11F
330
8B875
100
AcDbEntity
  8
AM_5
100
AcDbLine
 10
927.0688785279164
 20
470.0
 30
0.0
 11
989.5688785279164
 21
470.0
 31
0.0
  0
LINE
  5
AB120
330
8B875
100
AcDbEntity
  8
AM_5
100
AcDbLine
 10
965.8688785279165
 20
548.0
 30
0.0
 11
989.5688785279164
 21
548.0
 31
0.0
  0
LINE
  5
AB121
330
8B875
100
AcDbEntity
  8
AM_5
100
AcDbLine
 10
987.5688785279164
 20
472.0
 30
0.0
 11
987.5688785279164
 21
546.0
 31
0.0
  0
INSERT
  5
AB122
330
8B875
100
AcDbEntity
  8
AM_5
100
AcDbBlockReference
  2
_Dot
 10
987.5688785279164
 20
470.0
 30
0.0
 41
2.0
 42
2.0
 43
2.0
 50
270.0
  0
INSERT
  5
AB123
330
8B875
100
AcDbEntity
  8
AM_5
100
AcDbBlockReference
  2
_Dot
 10
987.5688785279164
 20
548.0
 30
0.0
 41
2.0
 42
2.0
 43
2.0
 50
90.0
  0
MTEXT
  5
AB124
330
8B875
100
AcDbEntity
  8
AM_5
 62
     2
100
AcDbMText
 10
981.3688785279163
 20
509.0000000000001
 30
0.0
 40
6.400000000000002
 41
0.0
 71
     5
 72
     1
  1
H
 11
0.0000000000000001
 21
1.0
 31
0.0
 73
     1
 44
1.0
1001
ACAD
1000
MTEXTBEGIN
1070
    73
1070
     1
1070
    44
1040
1.0
1070
    74
1070
     0
1000
MTEXTEND
  0
POINT
  5
AB125
330
8B875
100
AcDbEntity
  8
Defpoints
 62
     0
100
AcDbPoint
 10
925.0688785279164
 20
470.0
 30
0.0
  0
POINT
  5
AB126
330
8B875
100
AcDbEntity
  8
Defpoints
 62
     0
100
AcDbPoint
 10
963.8688785279166
 20
548.0
 30
0.0
  0
POINT
  5
AB127
330
8B875
100
AcDbEntity
  8
Defpoints
 62
     0
100
AcDbPoint
 10
987.5688785279164
 20
548.0
 30
0.0
  0
ENDBLK
  5
8B880
330
8B875
100
AcDbEntity
  8
0
100
AcDbBlockEnd
  0
BLOCK
  5
8B88B
330
8B881
100
AcDbEntity
  8
0
100
AcDbBlockBegin
  2
*D28
 70
     1
 10
0.0
 20
0.0
 30
0.0
  3
*D28
  1

  0
LINE
  5
AB128
330
8B881
100
AcDbEntity
  8
AM_5
100
AcDbLine
 10
314.302211861244
 20
469.9999999999981
 30
0.0
 11
320.5688785279108
 21
469.9999999999981
 31
0.0
  0
LINE
  5
AB129
330
8B881
100
AcDbEntity
  8
AM_5
100
AcDbLine
 10
320.5688785279108
 20
469.9999999999981
 30
0.0
 11
332.0473905277596
 21
478.6958424241257
 31
0.0
  0
LINE
  5
AB12A
330
8B881
100
AcDbEntity
  8
AM_5
100
AcDbLine
 10
375.090366528076
 20
511.3041575758796
 30
0.0
 11
376.6845508243841
 21
512.5118729518706
 31
0.0
  0
MTEXT
  5
AB12B
330
8B881
100
AcDbEntity
  8
AM_5
 62
     2
100
AcDbMText
 10
315.9355451945773
 20
476.4999999999981
 30
0.0
 40
7.0
 41
0.0
 71
     5
 72
     1
  1
D
 73
     1
 44
1.0
1001
ACAD
1000
MTEXTBEGIN
1070
    73
1070
     1
1070
    44
1040
1.0
1070
    74
1070
     0
1000
MTEXTEND
  0
LINE
  5
AB12C
330
8B881
100
AcDbEntity
  8
AM_5
100
AcDbLine
 10
373.496182231768
 20
510.0964421998887
 30
0.0
 11
333.6415748240677
 21
479.9035578001166
 31
0.0
  0
INSERT
  5
AB12D
330
8B881
100
AcDbEntity
  8
AM_5
100
AcDbBlockReference
  2
_Dot
 10
373.496182231768
 20
510.0964421998887
 30
0.0
 41
2.0
 42
2.0
 43
2.0
 50
217.1466866980209
  0
INSERT
  5
AB12E
330
8B881
100
AcDbEntity
  8
AM_5
100
AcDbBlockReference
  2
_Dot
 10
333.6415748240677
 20
479.9035578001166
 30
0.0
 41
2.0
 42
2.0
 43
2.0
 50
37.14668669802095
  0
POINT
  5
AB12F
330
8B881
100
AcDbEntity
  8
Defpoints
 62
     0
100
AcDbPoint
 10
333.6415748240677
 20
479.9035578001166
 30
0.0
  0
POINT
  5
AB130
330
8B881
100
AcDbEntity
  8
Defpoints
 62
     0
100
AcDbPoint
 10
373.496182231768
 20
510.0964421998887
 30
0.0
  0
ENDBLK
  5
8B88C
330
8B881
100
AcDbEntity
  8
0
100
AcDbBlockEnd
  0
BLOCK
  5
8B897
330
8B88D
100
AcDbEntity
  8
0
100
AcDbBlockBegin
  2
*D29
 70
     1
 10
0.0
 20
0.0
 30
0.0
  3
*D29
  1

  0
LINE
  5
AB131
330
8B88D
100
AcDbEntity
  8
AM_5
100
AcDbLine
 10
606.3022118612451
 20
469.9999999999989
 30
0.0
 11
612.5688785279144
 21
469.999999999999
 31
0.0
  0
LINE
  5
AB132
330
8B88D
100
AcDbEntity
  8
AM_5
100
AcDbLine
 10
612.5688785279144
 20
469.999999999999
 30
0.0
 11
624.0473905277617
 21
478.6958424241249
 31
0.0
  0
LINE
  5
AB133
330
8B88D
100
AcDbEntity
  8
AM_5
100
AcDbLine
 10
667.0903665280766
 20
511.3041575758759
 30
0.0
 11
668.6845508243846
 21
512.5118729518668
 31
0.0
  0
MTEXT
  5
AB134
330
8B88D
100
AcDbEntity
  8
AM_5
 62
     2
100
AcDbMText
 10
607.9355451945783
 20
476.499999999999
 30
0.0
 40
7.0
 41
0.0
 71
     5
 72
     1
  1
D
 73
     1
 44
1.0
1001
ACAD
1000
MTEXTBEGIN
1070
    73
1070
     1
1070
    44
1040
1.0
1070
    74
1070
     0
1000
MTEXTEND
  0
LINE
  5
AB135
330
8B88D
100
AcDbEntity
  8
AM_5
100
AcDbLine
 10
665.4961822317686
 20
510.0964421998851
 30
0.0
 11
625.6415748240697
 21
479.9035578001158
 31
0.0
  0
INSERT
  5
AB136
330
8B88D
100
AcDbEntity
  8
AM_5
100
AcDbBlockReference
  2
_Dot
 10
665.4961822317686
 20
510.0964421998851
 30
0.0
 41
2.0
 42
2.0
 43
2.0
 50
217.1466866980194
  0
INSERT
  5
AB137
330
8B88D
100
AcDbEntity
  8
AM_5
100
AcDbBlockReference
  2
_Dot
 10
625.6415748240697
 20
479.9035578001158
 30
0.0
 41
2.0
 42
2.0
 43
2.0
 50
37.14668669801943
  0
POINT
  5
AB138
330
8B88D
100
AcDbEntity
  8
Defpoints
 62
     0
100
AcDbPoint
 10
625.6415748240697
 20
479.9035578001158
 30
0.0
  0
POINT
  5
AB139
330
8B88D
100
AcDbEntity
  8
Defpoints
 62
     0
100
AcDbPoint
 10
665.4961822317686
 20
510.0964421998851
 30
0.0
  0
ENDBLK
  5
8B898
330
8B88D
100
AcDbEntity
  8
0
100
AcDbBlockEnd
  0
BLOCK
  5
8B8A3
330
8B899
100
AcDbEntity
  8
0
100
AcDbBlockBegin
  2
*D30
 70
     1
 10
0.0
 20
0.0
 30
0.0
  3
*D30
  1

  0
LINE
  5
AB13A
330
8B899
100
AcDbEntity
  8
AM_5
100
AcDbLine
 10
885.8022118612469
 20
470.0000000000028
 30
0.0
 11
892.0688785279185
 21
470.0000000000027
 31
0.0
  0
LINE
  5
AB13B
330
8B899
100
AcDbEntity
  8
AM_5
100
AcDbLine
 10
892.0688785279185
 20
470.0000000000027
 30
0.0
 11
903.5473905277603
 21
478.6958424241257
 31
0.0
  0
LINE
  5
AB13C
330
8B899
100
AcDbEntity
  8
AM_5
100
AcDbLine
 10
946.5903665280743
 20
511.3041575758797
 30
0.0
 11
948.1845508243823
 21
512.5118729518706
 31
0.0
  0
MTEXT
  5
AB13D
330
8B899
100
AcDbEntity
  8
AM_5
 62
     2
100
AcDbMText
 10
887.4355451945801
 20
476.5000000000027
 30
0.0
 40
7.0
 41
0.0
 71
     5
 72
     1
  1
D
 73
     1
 44
1.0
1001
ACAD
1000
MTEXTBEGIN
1070
    73
1070
     1
1070
    44
1040
1.0
1070
    74
1070
     0
1000
MTEXTEND
  0
LINE
  5
AB13E
330
8B899
100
AcDbEntity
  8
AM_5
100
AcDbLine
 10
944.9961822317664
 20
510.0964421998888
 30
0.0
 11
905.1415748240685
 21
479.9035578001167
 31
0.0
  0
INSERT
  5
AB13F
330
8B899
100
AcDbEntity
  8
AM_5
100
AcDbBlockReference
  2
_Dot
 10
944.9961822317664
 20
510.0964421998888
 30
0.0
 41
2.0
 42
2.0
 43
2.0
 50
217.1466866980225
  0
INSERT
  5
AB140
330
8B899
100
AcDbEntity
  8
AM_5
100
AcDbBlockReference
  2
_Dot
 10
905.1415748240685
 20
479.9035578001167
 30
0.0
 41
2.0
 42
2.0
 43
2.0
 50
37.14668669802255
  0
POINT
  5
AB141
330
8B899
100
AcDbEntity
  8
Defpoints
 62
     0
100
AcDbPoint
 10
905.1415748240685
 20
479.9035578001167
 30
0.0
  0
POINT
  5
AB142
330
8B899
100
AcDbEntity
  8
Defpoints
 62
     0
100
AcDbPoint
 10
944.9961822317664
 20
510.0964421998888
 30
0.0
  0
ENDBLK
  5
8B8A4
330
8B899
100
AcDbEntity
  8
0
100
AcDbBlockEnd
  0
BLOCK
  5
A2DD2
330
A2DC8
100
AcDbEntity
  8
0
100
AcDbBlockBegin
  2
*D31
 70
     1
 10
0.0
 20
0.0
 30
0.0
  3
*D31
  1

  0
LINE
  5
AB143
330
A2DC8
100
AcDbEntity
  8
AM_5
100
AcDbLine
 10
402.1243348796538
 20
674.27297077301
 30
0.0
 11
423.2889588210886
 21
695.4375947144361
 31
0.0
  0
LINE
  5
AB144
330
A2DC8
100
AcDbEntity
  8
AM_5
100
AcDbLine
 10
408.8418493009253
 20
667.5554563517358
 30
0.0
 11
430.0064732423601
 21
688.7200802931618
 31
0.0
  0
LINE
  5
AB145
330
A2DC8
100
AcDbEntity
  8
AM_5
100
AcDbLine
 10
420.4605316963425
 20
695.4375947144366
 30
0.0
 11
419.0463181339697
 21
696.85180827681
 31
0.0
  0
LINE
  5
AB146
330
A2DC8
100
AcDbEntity
  8
AM_5
100
AcDbLine
 10
430.0064732423597
 20
685.8916531684156
 30
0.0
 11
431.4206868047324
 21
684.4774396060422
 31
0.0
  0
LINE
  5
AB147
330
A2DC8
100
AcDbEntity
  8
AM_5
100
AcDbLine
 10
421.8747452587153
 20
694.0233811520633
 30
0.0
 11
428.5922596799868
 21
687.3058667307889
 31
0.0
  0
INSERT
  5
AB148
330
A2DC8
100
AcDbEntity
  8
AM_5
100
AcDbBlockReference
  2
_Dot
 10
421.8747452587153
 20
694.0233811520633
 30
0.0
 41
2.0
 42
2.0
 43
2.0
 50
314.9999999999884
  0
INSERT
  5
AB149
330
A2DC8
100
AcDbEntity
  8
AM_5
100
AcDbBlockReference
  2
_Dot
 10
428.5922596799868
 20
687.3058667307889
 30
0.0
 41
2.0
 42
2.0
 43
2.0
 50
134.9999999999883
  0
MTEXT
  5
AB14A
330
A2DC8
100
AcDbEntity
  8
AM_5
 62
     2
100
AcDbMText
 10
429.6175645127085
 20
695.048685984782
 30
0.0
 40
6.400000000000002
 41
0.0
 71
     5
 72
     1
  1
P
 11
0.7071067811864035
 21
-0.7071067811866917
 31
0.0
 73
     1
 44
1.0
1001
ACAD
1000
MTEXTBEGIN
1070
    73
1070
     1
1070
    44
1040
1.0
1070
    74
1070
     0
1000
MTEXTEND
  0
POINT
  5
AB14B
330
A2DC8
100
AcDbEntity
  8
Defpoints
 62
     0
100
AcDbPoint
 10
400.7101213172805
 20
672.8587572106371
 30
0.0
  0
POINT
  5
AB14C
330
A2DC8
100
AcDbEntity
  8
Defpoints
 62
     0
100
AcDbPoint
 10
407.427635738552
 20
666.1412427893629
 30
0.0
  0
POINT
  5
AB14D
330
A2DC8
100
AcDbEntity
  8
Defpoints
 62
     0
100
AcDbPoint
 10
428.5922596799868
 20
687.3058667307889
 30
0.0
  0
ENDBLK
  5
A2DD3
330
A2DC8
100
AcDbEntity
  8
0
100
AcDbBlockEnd
  0
BLOCK
  5
A2E0D
330
A2E01
100
AcDbEntity
  8
0
100
AcDbBlockBegin
  2
*D32
 70
     1
 10
0.0
 20
0.0
 30
0.0
  3
*D32
  1

  0
LINE
  5
AB14E
330
A2E01
100
AcDbEntity
  8
AM_5
100
AcDbLine
 10
694.1243348796541
 20
674.27297077301
 30
0.0
 11
715.2889588210886
 21
695.4375947144358
 31
0.0
  0
LINE
  5
AB14F
330
A2E01
100
AcDbEntity
  8
AM_5
100
AcDbLine
 10
700.8418493009257
 20
667.5554563517356
 30
0.0
 11
722.0064732423601
 21
688.7200802931614
 31
0.0
  0
LINE
  5
AB150
330
A2E01
100
AcDbEntity
  8
AM_5
100
AcDbLine
 10
712.4605316963423
 20
695.4375947144363
 30
0.0
 11
711.0463181339695
 21
696.8518082768098
 31
0.0
  0
LINE
  5
AB151
330
A2E01
100
AcDbEntity
  8
AM_5
100
AcDbLine
 10
722.0064732423594
 20
685.8916531684153
 30
0.0
 11
723.4206868047323
 21
684.4774396060419
 31
0.0
  0
LINE
  5
AB152
330
A2E01
100
AcDbEntity
  8
AM_5
100
AcDbLine
 10
713.8747452587152
 20
694.023381152063
 30
0.0
 11
720.5922596799866
 21
687.3058667307887
 31
0.0
  0
INSERT
  5
AB153
330
A2E01
100
AcDbEntity
  8
AM_5
100
AcDbBlockReference
  2
_Dot
 10
713.8747452587152
 20
694.023381152063
 30
0.0
 41
2.0
 42
2.0
 43
2.0
 50
314.9999999999884
  0
INSERT
  5
AB154
330
A2E01
100
AcDbEntity
  8
AM_5
100
AcDbBlockReference
  2
_Dot
 10
720.5922596799866
 20
687.3058667307887
 30
0.0
 41
2.0
 42
2.0
 43
2.0
 50
134.9999999999883
  0
MTEXT
  5
AB155
330
A2E01
100
AcDbEntity
  8
AM_5
 62
     2
100
AcDbMText
 10
721.6175645127084
 20
695.0486859847817
 30
0.0
 40
6.400000000000002
 41
0.0
 71
     5
 72
     1
  1
P
 11
0.7071067811864035
 21
-0.7071067811866917
 31
0.0
 73
     1
 44
1.0
1001
ACAD
1000
MTEXTBEGIN
1070
    73
1070
     1
1070
    44
1040
1.0
1070
    74
1070
     0
1000
MTEXTEND
  0
POINT
  5
AB156
330
A2E01
100
AcDbEntity
  8
Defpoints
 62
     0
100
AcDbPoint
 10
692.7101213172806
 20
672.8587572106371
 30
0.0
  0
POINT
  5
AB157
330
A2E01
100
AcDbEntity
  8
Defpoints
 62
     0
100
AcDbPoint
 10
699.4276357385522
 20
666.1412427893627
 30
0.0
  0
POINT
  5
AB158
330
A2E01
100
AcDbEntity
  8
Defpoints
 62
     0
100
AcDbPoint
 10
720.5922596799866
 20
687.3058667307887
 30
0.0
  0
ENDBLK
  5
A2E0E
330
A2E01
100
AcDbEntity
  8
0
100
AcDbBlockEnd
  0
ENDSEC
  0
SECTION
  2
ENTITIES
  0
MTEXT
  5
7AC05
330
1F
100
AcDbEntity
  8
AM_6
100
AcDbMText
 10
-1051.000000000001
 20
-5888.0
 30
0.0
 40
6.4
 41
180.0
 71
     4
 72
     5
  1
　
 73
     1
 44
1.0
1001
ACAD
1000
MTEXTBEGIN
1070
    73
1070
     1
1070
    44
1040
1.0
1070
    74
1070
     0
1000
MTEXTEND
  0
MTEXT
  5
7AC06
330
1F
100
AcDbEntity
  8
AM_6
100
AcDbMText
 10
-1051.000000000001
 20
-5920.0
 30
0.0
 40
6.4
 41
180.0
 71
     4
 72
     5
  1
　
 73
     1
 44
1.0
1001
ACAD
1000
MTEXTBEGIN
1070
    73
1070
     1
1070
    44
1040
1.0
1070
    74
1070
     0
1000
MTEXTEND
  0
LWPOLYLINE
  5
8B3B3
330
1F
100
AcDbEntity
  8
waku
100
AcDbPolyline
 90
        4
 70
     1
 43
0.0
 10
23.0
 20
823.0
 10
1165.000000000001
 20
823.0
 10
1165.000000000001
 20
17.0
 10
23.0
 20
17.0
1001
GENIUS_GENREC_14
1002
{
1000
PYDIR
1011
23.0
1021
17.0
1031
0.0
1002
}
1002
{
1000
PXDIR
1011
1165.000000000001
1021
823.0
1031
0.0
1002
}
1002
{
1000
PORI
1011
23.0
1021
823.0
1031
0.0
1002
}
1002
{
1000
PINS
1011
23.0
1021
823.0
1031
0.0
1002
}
1002
{
1000
PINS2
1011
1165.000000000001
1021
17.0
1031
0.0
1002
}
1002
{
1000
C
1070
     1
1002
}
1001
GENIUS_GENOBJ-N-REC_13
1002
{
1000
OWNER
1000
GEN
1002
}
1001
GENIUS_GENODEF_13
1002
{
1000
HIER
1070
     0
1002
}
1002
{
1000
MANEDIT
1070
     0
1002
}
1002
{
1000
NOSEL
1070
     0
1002
}
1002
{
1000
BEHIND
1070
     0
1002
}
1002
{
1000
OTHER
1070
     0
1002
}
1002
{
1000
REACTOR
1002
}
  0
LWPOLYLINE
  5
8B3B4
330
1F
100
AcDbEntity
  8
size
100
AcDbPolyline
 90
        4
 70
     1
 43
0.0
 10
0.0
 20
840.0
 10
1188.0
 20
840.0
 10
1188.0
 20
0.0
 10
0.0
 20
0.0
1001
GENIUS_GENREC_14
1002
{
1000
PYDIR
1011
0.0
1021
0.0
1031
0.0
1002
}
1002
{
1000
PXDIR
1011
1188.0
1021
840.0
1031
0.0
1002
}
1002
{
1000
PORI
1011
0.0
1021
840.0
1031
0.0
1002
}
1002
{
1000
PINS
1011
0.0
1021
840.0
1031
0.0
1002
}
1002
{
1000
PINS2
1011
1188.0
1021
0.0
1031
0.0
1002
}
1002
{
1000
C
1070
     1
1002
}
1001
GENIUS_GENODEF_13
1002
{
1000
HIER
1070
     0
1002
}
1002
{
1000
MANEDIT
1070
     0
1002
}
1002
{
1000
NOSEL
1070
     0
1002
}
1002
{
1000
BEHIND
1070
     0
1002
}
1002
{
1000
OTHER
1070
     0
1002
}
1002
{
1000
REACTOR
1002
}
1001
GENIUS_GENOBJ-N-REC_13
1002
{
1000
OWNER
1000
GEN
1002
}
  0
LINE
  5
8B3B6
330
1F
100
AcDbEntity
  8
AM_0
100
AcDbLine
 10
23.0
 20
823.0
 30
0.0
 11
23.0000000000091
 21
647.0
 31
0.0
  0
LINE
  5
8B3B7
330
1F
100
AcDbEntity
  8
AM_0
100
AcDbLine
 10
23.0
 20
823.0
 30
0.0
 11
243.0
 21
823.0
 31
0.0
  0
LINE
  5
8B3B8
330
1F
100
AcDbEntity
  8
AM_0
100
AcDbLine
 10
243.0
 20
823.0
 30
0.0
 11
242.999999999998
 21
647.0
 31
0.0
  0
LINE
  5
8B3B9
330
1F
100
AcDbEntity
  8
AM_0
100
AcDbLine
 10
62.99999999999659
 20
647.0
 30
0.0
 11
63.0
 21
823.0
 31
0.0
  0
LINE
  5
8B3BA
330
1F
100
AcDbEntity
  8
AM_5
100
AcDbLine
 10
23.0
 20
807.0
 30
0.0
 11
242.9999999999996
 21
807.0
 31
0.0
  0
LINE
  5
8B3BB
330
1F
100
AcDbEntity
  8
AM_5
100
AcDbLine
 10
22.99999999999909
 20
775.0
 30
0.0
 11
242.9999999999996
 21
775.0
 31
0.0
  0
MTEXT
  5
8B3BC
330
1F
100
AcDbEntity
  8
AM_6
100
AcDbMText
 10
43.0
 20
815.0
 30
0.0
 40
6.4
 41
40.0
 71
     5
 72
     5
  1
品　名
 73
     1
 44
1.0
1001
ACAD
1000
MTEXTBEGIN
1070
    73
1070
     1
1070
    44
1040
1.0
1070
    74
1070
     0
1000
MTEXTEND
  0
MTEXT
  5
8B3BD
330
1F
100
AcDbEntity
  8
AM_6
100
AcDbMText
 10
63.0
 20
815.0
 30
0.0
 40
6.4
 41
180.0
 71
     4
 72
     5
  1
　低床用キャスター
 73
     1
 44
1.0
1001
ACAD
1000
MTEXTBEGIN
1070
    73
1070
     1
1070
    44
1040
1.0
1070
    74
1070
     0
1000
MTEXTEND
  0
MTEXT
  5
8B3BE
330
1F
100
AcDbEntity
  8
AM_6
100
AcDbMText
 10
42.99999999999954
 20
799.0
 30
0.0
 40
6.4
 41
40.0
 71
     5
 72
     5
  1
品　番
 73
     1
 44
1.0
1001
ACAD
1000
MTEXTBEGIN
1070
    73
1070
     1
1070
    44
1040
1.0
1070
    74
1070
     0
1000
MTEXTEND
  0
MTEXT
  5
8B3BF
330
1F
100
AcDbEntity
  8
AM_6
100
AcDbMText
 10
62.99999999999954
 20
799.0
 30
0.0
 40
6.4
 41
180.0
 71
     4
 72
     5
  1
　HJ / HJB / HK
 73
     1
 44
1.0
1001
ACAD
1000
MTEXTBEGIN
1070
    73
1070
     1
1070
    44
1040
1.0
1070
    74
1070
     0
1000
MTEXTEND
  0
MTEXT
  5
8B3C0
330
1F
100
AcDbEntity
  8
AM_6
100
AcDbMText
 10
42.99999999999954
 20
767.0
 30
0.0
 40
6.4
 41
40.0
 71
     5
 72
     5
  1
材　質
 73
     1
 44
1.0
1001
ACAD
1000
MTEXTBEGIN
1070
    73
1070
     1
1070
    44
1040
1.0
1070
    74
1070
     0
1000
MTEXTEND
  0
MTEXT
  5
8B3C1
330
1F
100
AcDbEntity
  8
AM_6
100
AcDbMText
 10
62.99999999999954
 20
767.0
 30
0.0
 40
6.4
 41
180.0
 71
     4
 72
     5
  1
　本体 ： スチール　（HJ、HJB、HK）
 73
     1
 44
1.0
1001
ACAD
1000
MTEXTBEGIN
1070
    73
1070
     1
1070
    44
1040
1.0
1070
    74
1070
     0
1000
MTEXTEND
  0
LINE
  5
8B3C2
330
1F
100
AcDbEntity
  8
AM_5
100
AcDbLine
 10
22.99999999999909
 20
711.0
 30
0.0
 11
242.9999999999991
 21
711.0
 31
0.0
  0
MTEXT
  5
8B3C3
330
1F
100
AcDbEntity
  8
AM_6
100
AcDbMText
 10
42.99999999999909
 20
703.0
 30
0.0
 40
6.4
 41
40.0
 71
     5
 72
     5
  1
仕上げ
 73
     1
 44
1.0
1001
ACAD
1000
MTEXTBEGIN
1070
    73
1070
     1
1070
    44
1040
1.0
1070
    74
1070
     0
1000
MTEXTEND
  0
MTEXT
  5
8B3C4
330
1F
100
AcDbEntity
  8
AM_6
100
AcDbMText
 10
62.99999999999818
 20
703.0
 30
0.0
 40
6.4
 41
180.0
 71
     4
 72
     5
  1
　本体 ： 光沢クロメート　（HJ-U、HJB-U、HK-U）
 73
     1
 44
1.0
1001
ACAD
1000
MTEXTBEGIN
1070
    73
1070
     1
1070
    44
1040
1.0
1070
    74
1070
     0
1000
MTEXTEND
  0
LINE
  5
8B3C5
330
1F
100
AcDbEntity
  8
AM_5
100
AcDbLine
 10
23.00000000000637
 20
663.0
 30
0.0
 11
243.0000000000013
 21
663.0
 31
0.0
  0
LINE
  5
8B3C6
330
1F
100
AcDbEntity
  8
AM_5
100
AcDbLine
 10
62.99999999999818
 20
743.0
 30
0.0
 11
242.9999999999991
 21
743.0
 31
0.0
  0
MTEXT
  5
8B3C7
330
1F
100
AcDbEntity
  8
AM_6
100
AcDbMText
 10
62.99999999999909
 20
735.0
 30
0.0
 40
6.4
 41
180.0
 71
     4
 72
     5
  1
　キャスター ： ナイロン6 + 特殊再生ナイロン　（YN）
 73
     1
 44
1.0
1001
ACAD
1000
MTEXTBEGIN
1070
    73
1070
     1
1070
    44
1040
1.0
1070
    74
1070
     0
1000
MTEXTEND
  0
MTEXT
  5
8B3C8
330
1F
100
AcDbEntity
  8
AM_6
100
AcDbMText
 10
62.99999999999863
 20
751.0
 30
0.0
 40
6.4
 41
180.0
 71
     4
 72
     5
  1
　        ステンレス　（SUHJ、SUHK）
 73
     1
 44
1.0
1001
ACAD
1000
MTEXTBEGIN
1070
    73
1070
     1
1070
    44
1040
1.0
1070
    74
1070
     0
1000
MTEXTEND
  0
MTEXT
  5
8B3C9
330
1F
100
AcDbEntity
  8
AM_6
100
AcDbMText
 10
62.99999999999773
 20
671.0
 30
0.0
 40
6.4
 41
180.0
 71
     4
 72
     5
  1
　　　　　生地　（SUHJ、SUHK）
 73
     1
 44
1.0
1001
ACAD
1000
MTEXTBEGIN
1070
    73
1070
     1
1070
    44
1040
1.0
1070
    74
1070
     0
1000
MTEXTEND
  0
MTEXT
  5
8B3CA
330
1F
100
AcDbEntity
  8
AM_6
100
AcDbMText
 10
62.99999999999773
 20
687.0
 30
0.0
 40
6.4
 41
180.0
 71
     4
 72
     5
  1
　        焼付塗装（ブラック）　（HJ-B、HJB-B、HK-B）
 73
     1
 44
1.0
1001
ACAD
1000
MTEXTBEGIN
1070
    73
1070
     1
1070
    44
1040
1.0
1070
    74
1070
     0
1000
MTEXTEND
  0
MTEXT
  5
8B3CB
330
1F
100
AcDbEntity
  8
AM_6
100
AcDbMText
 10
62.99999999999954
 20
783.0
 30
0.0
 40
6.4
 41
180.0
 71
     4
 72
     5
  1
　SUHJ / SUHK
 73
     1
 44
1.0
1001
ACAD
1000
MTEXTBEGIN
1070
    73
1070
     1
1070
    44
1040
1.0
1070
    74
1070
     0
1000
MTEXTEND
  0
MTEXT
  5
8B3CD
330
1F
100
AcDbEntity
  8
AM_6
100
AcDbMText
 10
62.99999999999909
 20
719.0
 30
0.0
 40
6.4
 41
180.0
 71
     4
 72
     5
  1
　              モノマーキャスティングナイロン（ブルー）　（MC）
 73
     1
 44
1.0
1001
ACAD
1000
MTEXTBEGIN
1070
    73
1070
     1
1070
    44
1040
1.0
1070
    74
1070
     0
1000
MTEXTEND
  0
ARC
  5
8B4BE
330
1F
100
AcDbEntity
  8
AM_0
100
AcDbCircle
 10
353.5688785279162
 20
495.0
 30
0.0
 40
25.0
100
AcDbArc
 50
135.1606950000648
 51
355.7812569999684
  0
LINE
  5
8B4BF
330
1F
100
AcDbEntity
  8
AM_0
100
AcDbLine
 10
397.5688785279162
 20
527.9499999999988
 30
0.0
 11
397.5688785279162
 21
523.1499999999996
 31
0.0
  0
ARC
  5
8B4C0
330
1F
100
AcDbEntity
  8
AM_0
100
AcDbCircle
 10
392.3688785279164
 20
527.9499999999988
 30
0.0
 40
5.2
100
AcDbArc
 50
0.0
 51
90.0
  0
ARC
  5
8B4C1
330
1F
100
AcDbEntity
  8
AM_0
100
AcDbCircle
 10
353.5688785279162
 20
495.0
 30
0.0
 40
11.0
100
AcDbArc
 50
199.0779255333847
 51
291.3964019999685
  0
ARC
  5
8B4C2
330
1F
100
AcDbEntity
  8
AM_0
100
AcDbCircle
 10
350.7688785279165
 20
527.9499999999988
 30
0.0
 40
5.2
100
AcDbArc
 50
90.0
 51
134.9081240000659
  0
LINE
  5
8B4C3
330
1F
100
AcDbEntity
  8
AM_7
370
     9
100
AcDbLine
 10
371.5688785279163
 20
554.0
 30
0.0
 11
371.5688785279163
 21
495.0
 31
0.0
  0
ARC
  5
8B4C4
330
1F
100
AcDbEntity
  8
AM_0
100
AcDbCircle
 10
366.2978695279162
 20
514.9801509999997
 30
0.0
 40
25.0
100
AcDbArc
 50
291.2744739999805
 51
345.0000000000056
  0
LINE
  5
8B4C5
330
1F
100
AcDbEntity
  8
AM_0
100
AcDbLine
 10
390.4460155279167
 20
508.5096749999993
 30
0.0
 11
393.2250535279163
 21
518.8811910000004
 31
0.0
  0
LINE
  5
8B4C6
330
1F
100
AcDbEntity
  8
AM_0
100
AcDbLine
 10
357.5818805279164
 20
484.7581339999996
 30
0.0
 11
375.3687725279164
 21
491.6838269999989
 31
0.0
  0
ARC
  5
8B4C7
330
1F
100
AcDbEntity
  8
AM_0
100
AcDbCircle
 10
399.0206095279163
 20
517.3282760000001
 30
0.0
 40
6.0
100
AcDbArc
 50
104.0019610000388
 51
165.0000000000055
  0
ARC
  5
8B4C8
330
1F
100
AcDbEntity
  8
AM_0
100
AcDbCircle
 10
353.5688785279162
 20
495.0
 30
0.0
 40
17.75
100
AcDbArc
 50
147.3523810000219
 51
342.9790100000148
  0
ARC
  5
8B4C9
330
1F
100
AcDbEntity
  8
AM_0
100
AcDbCircle
 10
353.5688785279162
 20
495.0
 30
0.0
 40
15.95
100
AcDbArc
 50
152.6596329999838
 51
337.6717789999687
  0
CIRCLE
  5
8B4CA
330
1F
100
AcDbEntity
  8
AM_0
100
AcDbCircle
 10
353.5688785279162
 20
495.0
 30
0.0
 40
7.5
  0
CIRCLE
  5
8B4CB
330
1F
100
AcDbEntity
  8
AM_0
100
AcDbCircle
 10
353.5688785279162
 20
495.0
 30
0.0
 40
6.5
  0
ARC
  5
8B4CC
330
1F
100
AcDbEntity
  8
AM_0
100
AcDbCircle
 10
353.5688785279162
 20
495.0
 30
0.0
 40
9.5
100
AcDbArc
 50
0.0
 51
66.4218219999848
  0
LINE
  5
8B4CD
330
1F
100
AcDbEntity
  8
AM_0
100
AcDbLine
 10
355.5688785279162
 20
529.1665599999996
 30
0.0
 11
355.5688785279162
 21
506.4564399999999
 31
0.0
  0
LINE
  5
8B4CE
330
1F
100
AcDbEntity
  8
AM_0
100
AcDbLine
 10
363.0688785279162
 20
488.6988629999996
 30
0.0
 11
363.0688785279162
 21
495.0
 31
0.0
  0
ARC
  5
8B4CF
330
1F
100
AcDbEntity
  8
AM_0
100
AcDbCircle
 10
358.5688785279162
 20
506.4564399999999
 30
0.0
 40
3.0
100
AcDbArc
 50
180.0
 51
246.4218219999848
  0
ARC
  5
8B4D0
330
1F
100
AcDbEntity
  8
AM_0
100
AcDbCircle
 10
353.5688785279162
 20
495.0
 30
0.0
 40
37.20000000000001
100
AcDbArc
 50
100.017739000004
 51
126.256266999986
  0
LINE
  5
8B4D1
330
1F
100
AcDbEntity
  8
AM_0
100
AcDbLine
 10
331.5688785279162
 20
524.9973329999993
 30
0.0
 11
343.1730545183846
 21
491.4046080654761
 31
0.0
  0
ARC
  5
8B4D2
330
1F
100
AcDbEntity
  8
AM_0
100
AcDbCircle
 10
349.3938785279165
 20
537.9499999999989
 30
0.0
 40
4.799999999999999
100
AcDbArc
 50
193.8619500000297
 51
270.0
  0
ARC
  5
8B4D3
330
1F
100
AcDbEntity
  8
AM_0
100
AcDbCircle
 10
393.7438785279164
 20
537.9499999999989
 30
0.0
 40
4.799999999999999
100
AcDbArc
 50
270.0
 51
346.1380499999703
  0
LINE
  5
8B4D4
330
1F
100
AcDbEntity
  8
AM_0
100
AcDbLine
 10
349.3938785279165
 20
533.1499999999996
 30
0.0
 11
393.7438785279164
 21
533.1499999999996
 31
0.0
  0
LINE
  5
8B4D5
330
1F
100
AcDbEntity
  8
AM_0
100
AcDbLine
 10
330.5688785279162
 20
548.0
 30
0.0
 11
412.5688785279162
 21
548.0
 31
0.0
  0
ARC
  5
8B4D6
330
1F
100
AcDbEntity
  8
AM_0
100
AcDbCircle
 10
341.5188785279165
 20
544.2999999999992
 30
0.0
 40
0.5
100
AcDbArc
 50
31.58813599995717
 51
90.0
  0
LINE
  5
8B4D7
330
1F
100
AcDbEntity
  8
AM_0
100
AcDbLine
 10
330.5688785279162
 20
548.0
 30
0.0
 11
330.5688785279162
 21
544.7999999999992
 31
0.0
  0
ARC
  5
8B4D8
330
1F
100
AcDbEntity
  8
AM_0
100
AcDbCircle
 10
345.0965875279162
 20
546.4999999999999
 30
0.0
 40
3.7
100
AcDbArc
 50
211.5881359999572
 51
270.0
  0
LINE
  5
8B4D9
330
1F
100
AcDbEntity
  8
AM_0
100
AcDbLine
 10
412.5688785279162
 20
544.7999999999992
 30
0.0
 11
330.5688785279162
 21
544.7999999999992
 31
0.0
  0
ARC
  5
8B4DA
330
1F
100
AcDbEntity
  8
AM_0
100
AcDbCircle
 10
401.6188785279164
 20
544.2999999999992
 30
0.0
 40
0.5
100
AcDbArc
 50
90.0
 51
148.4118640000428
  0
LINE
  5
8B4DB
330
1F
100
AcDbEntity
  8
AM_0
100
AcDbLine
 10
412.5688785279162
 20
548.0
 30
0.0
 11
412.5688785279162
 21
544.7999999999992
 31
0.0
  0
ARC
  5
8B4DC
330
1F
100
AcDbEntity
  8
AM_0
100
AcDbCircle
 10
398.0411705279166
 20
546.4999999999999
 30
0.0
 40
3.7
100
AcDbArc
 50
270.0
 51
328.4118640000428
  0
LINE
  5
8B4DD
330
1F
100
AcDbEntity
  8
AM_0
100
AcDbLine
 10
399.4688785279164
 20
542.7999999999992
 30
0.0
 11
343.6688785279166
 21
542.7999999999992
 31
0.0
  0
LINE
  5
8B4DE
330
1F
100
AcDbEntity
  8
AM_0
100
AcDbLine
 10
400.9688785279163
 20
536.7999999999993
 30
0.0
 11
342.1688785279166
 21
536.7999999999993
 31
0.0
  0
LINE
  5
8B4DF
330
1F
100
AcDbEntity
  8
AM_0
100
AcDbLine
 10
400.9688785279163
 20
541.2999999999993
 30
0.0
 11
400.9688785279163
 21
536.7999999999993
 31
0.0
  0
ARC
  5
8B4E0
330
1F
100
AcDbEntity
  8
AM_0
100
AcDbCircle
 10
399.4688785279164
 20
541.2999999999993
 30
0.0
 40
1.5
100
AcDbArc
 50
0.0
 51
90.0
  0
LINE
  5
8B4E1
330
1F
100
AcDbEntity
  8
AM_0
100
AcDbLine
 10
342.1688785279166
 20
541.2999999999993
 30
0.0
 11
342.1688785279166
 21
536.7999999999993
 31
0.0
  0
ARC
  5
8B4E2
330
1F
100
AcDbEntity
  8
AM_0
100
AcDbCircle
 10
343.6688785279166
 20
541.2999999999993
 30
0.0
 40
1.5
100
AcDbArc
 50
90.0
 51
180.0
  0
LINE
  5
8B4E3
330
1F
100
AcDbEntity
  8
AM_0
100
AcDbLine
 10
340.0688785279162
 20
596.0
 30
0.0
 11
403.0688785279162
 21
596.0
 31
0.0
  0
LINE
  5
8B4E4
330
1F
100
AcDbEntity
  8
AM_0
100
AcDbLine
 10
412.5688785279162
 20
605.4999999999999
 30
0.0
 11
412.5688785279162
 21
668.5
 31
0.0
  0
LINE
  5
8B4E5
330
1F
100
AcDbEntity
  8
AM_0
100
AcDbLine
 10
403.0688785279162
 20
678.0
 30
0.0
 11
340.0688785279162
 21
678.0
 31
0.0
  0
LINE
  5
8B4E6
330
1F
100
AcDbEntity
  8
AM_0
100
AcDbLine
 10
330.5688785279162
 20
668.5
 30
0.0
 11
330.5688785279162
 21
605.4999999999999
 31
0.0
  0
ARC
  5
8B4E7
330
1F
100
AcDbEntity
  8
AM_0
100
AcDbCircle
 10
404.0688785279162
 20
669.5
 30
0.0
 40
4.75
100
AcDbArc
 50
314.9999999999908
 51
134.9999999999908
  0
ARC
  5
8B4E8
330
1F
100
AcDbEntity
  8
AM_0
100
AcDbCircle
 10
399.0688785279163
 20
664.5
 30
0.0
 40
4.75
100
AcDbArc
 50
134.9999999999908
 51
314.9999999999908
  0
ARC
  5
8B4E9
330
1F
100
AcDbEntity
  8
AM_0
100
AcDbCircle
 10
344.0688785279162
 20
609.4999999999999
 30
0.0
 40
4.75
100
AcDbArc
 50
314.9999999999908
 51
134.9999999999908
  0
ARC
  5
8B4EA
330
1F
100
AcDbEntity
  8
AM_0
100
AcDbCircle
 10
339.0688785279162
 20
604.4999999999999
 30
0.0
 40
4.75
100
AcDbArc
 50
134.9999999999908
 51
314.9999999999908
  0
LINE
  5
8B4EB
330
1F
100
AcDbEntity
  8
AM_0
100
AcDbLine
 10
395.7101215279163
 20
667.8587569999999
 30
0.0
 11
400.7101215279162
 21
672.858757
 31
0.0
  0
LINE
  5
8B4EC
330
1F
100
AcDbEntity
  8
AM_0
100
AcDbLine
 10
402.4276365279165
 20
661.141243
 30
0.0
 11
407.4276365279165
 21
666.141243
 31
0.0
  0
LINE
  5
8B4ED
330
1F
100
AcDbEntity
  8
AM_0
100
AcDbLine
 10
335.7101215279163
 20
607.8587569999999
 30
0.0
 11
340.7101215279163
 21
612.8587569999999
 31
0.0
  0
LINE
  5
8B4EE
330
1F
100
AcDbEntity
  8
AM_0
100
AcDbLine
 10
342.4276365279165
 20
601.141243
 30
0.0
 11
347.4276365279166
 21
606.141243
 31
0.0
  0
ARC
  5
8B4EF
330
1F
100
AcDbEntity
  8
AM_0
100
AcDbCircle
 10
404.0688785279162
 20
604.4999999999999
 30
0.0
 40
4.75
100
AcDbArc
 50
225.0000000000092
 51
45.00000000000921
  0
ARC
  5
8B4F0
330
1F
100
AcDbEntity
  8
AM_0
100
AcDbCircle
 10
399.0688785279163
 20
609.4999999999999
 30
0.0
 40
4.75
100
AcDbArc
 50
45.00000000000921
 51
225.0000000000092
  0
LINE
  5
8B4F1
330
1F
100
AcDbEntity
  8
AM_0
100
AcDbLine
 10
395.7101215279163
 20
606.141243
 30
0.0
 11
400.7101215279162
 21
601.141243
 31
0.0
  0
LINE
  5
8B4F2
330
1F
100
AcDbEntity
  8
AM_0
100
AcDbLine
 10
402.4276365279165
 20
612.8587569999999
 30
0.0
 11
407.4276365279165
 21
607.8587569999999
 31
0.0
  0
ARC
  5
8B4F3
330
1F
100
AcDbEntity
  8
AM_0
100
AcDbCircle
 10
339.0688785279162
 20
669.5
 30
0.0
 40
4.75
100
AcDbArc
 50
45.00000000000921
 51
225.0000000000092
  0
ARC
  5
8B4F4
330
1F
100
AcDbEntity
  8
AM_0
100
AcDbCircle
 10
344.0688785279162
 20
664.5
 30
0.0
 40
4.75
100
AcDbArc
 50
225.0000000000092
 51
45.00000000000921
  0
LINE
  5
8B4F5
330
1F
100
AcDbEntity
  8
AM_0
100
AcDbLine
 10
347.4276365279166
 20
667.8587569999999
 30
0.0
 11
342.4276365279165
 21
672.858757
 31
0.0
  0
LINE
  5
8B4F6
330
1F
100
AcDbEntity
  8
AM_0
100
AcDbLine
 10
340.7101215279163
 20
661.141243
 30
0.0
 11
335.7101215279163
 21
666.141243
 31
0.0
  0
ARC
  5
8B4F7
330
1F
100
AcDbEntity
  8
AM_0
100
AcDbCircle
 10
403.0688785279162
 20
668.5
 30
0.0
 40
9.5
100
AcDbArc
 50
0.0
 51
90.0
  0
ARC
  5
8B4F8
330
1F
100
AcDbEntity
  8
AM_0
100
AcDbCircle
 10
340.0688785279162
 20
668.5
 30
0.0
 40
9.5
100
AcDbArc
 50
90.0
 51
180.0
  0
ARC
  5
8B4F9
330
1F
100
AcDbEntity
  8
AM_0
100
AcDbCircle
 10
340.0688785279162
 20
605.4999999999999
 30
0.0
 40
9.5
100
AcDbArc
 50
180.0
 51
270.0
  0
ARC
  5
8B4FA
330
1F
100
AcDbEntity
  8
AM_0
100
AcDbCircle
 10
403.0688785279162
 20
605.4999999999999
 30
0.0
 40
9.5
100
AcDbArc
 50
270.0
 51
0.0
  0
CIRCLE
  5
8B4FB
330
1F
100
AcDbEntity
  8
AM_0
100
AcDbCircle
 10
371.5688785279163
 20
637.0
 30
0.0
 40
26.5
  0
CIRCLE
  5
8B4FC
330
1F
100
AcDbEntity
  8
AM_0
100
AcDbCircle
 10
371.5688785279163
 20
637.0
 30
0.0
 40
15.05
  0
CIRCLE
  5
8B500
330
1F
100
AcDbEntity
  8
AM_0
100
AcDbCircle
 10
371.5688785279163
 20
637.0
 30
0.0
 40
10.5
  0
LINE
  5
8B564
330
1F
100
AcDbEntity
  8
AM_7
370
     9
100
AcDbLine
 10
418.5688785279162
 20
637.0
 30
0.0
 11
324.5688785279162
 21
637.0
 31
0.0
1001
GENIUS_GENOBJ-N-CEN_13
1002
{
1000
OWNER
1000
GEN
1002
}
1001
GENIUS_GENODEF_13
1002
{
1000
HIER
1070
     0
1002
}
1002
{
1000
MANEDIT
1070
     0
1002
}
1002
{
1000
NOSEL
1070
     0
1002
}
1002
{
1000
BEHIND
1070
     0
1002
}
1002
{
1000
OTHER
1070
     0
1002
}
1002
{
1000
REACTOR
1002
}
1001
GENIUS_GENCEN_19
1002
{
1040
6.0
1002
}
  0
LINE
  5
8B565
330
1F
100
AcDbEntity
  8
AM_7
370
     9
100
AcDbLine
 10
371.5688785279163
 20
684.0
 30
0.0
 11
371.5688785279163
 21
590.0
 31
0.0
1001
GENIUS_GENODEF_13
1002
{
1000
HIER
1070
     0
1002
}
1002
{
1000
MANEDIT
1070
     0
1002
}
1002
{
1000
NOSEL
1070
     0
1002
}
1002
{
1000
BEHIND
1070
     0
1002
}
1002
{
1000
OTHER
1070
     0
1002
}
1002
{
1000
REACTOR
1002
}
1001
GENIUS_GENOBJ-N-CEN_13
1002
{
1000
OWNER
1000
GEN
1002
}
1001
GENIUS_GENCEN_19
1002
{
1040
6.0
1002
}
  0
LINE
  5
8B566
330
1F
100
AcDbEntity
  8
AM_7
370
     9
100
AcDbLine
 10
393.3188785279162
 20
669.5
 30
0.0
 11
414.8188785279162
 21
669.5
 31
0.0
1001
GENIUS_GENODEF_13
1002
{
1000
HIER
1070
     0
1002
}
1002
{
1000
MANEDIT
1070
     0
1002
}
1002
{
1000
NOSEL
1070
     0
1002
}
1002
{
1000
BEHIND
1070
     0
1002
}
1002
{
1000
OTHER
1070
     0
1002
}
1002
{
1000
REACTOR
1002
}
1001
GENIUS_GENOBJ-N-CEN_13
1002
{
1000
OWNER
1000
GEN
1002
}
1001
GENIUS_GENCEN_19
1002
{
1040
6.0
1002
}
  0
LINE
  5
8B567
330
1F
100
AcDbEntity
  8
AM_7
370
     9
100
AcDbLine
 10
404.0688785279162
 20
680.25
 30
0.0
 11
404.0688785279162
 21
658.75
 31
0.0
1001
GENIUS_GENODEF_13
1002
{
1000
HIER
1070
     0
1002
}
1002
{
1000
MANEDIT
1070
     0
1002
}
1002
{
1000
NOSEL
1070
     0
1002
}
1002
{
1000
BEHIND
1070
     0
1002
}
1002
{
1000
OTHER
1070
     0
1002
}
1002
{
1000
REACTOR
1002
}
1001
GENIUS_GENOBJ-N-CEN_13
1002
{
1000
OWNER
1000
GEN
1002
}
1001
GENIUS_GENCEN_19
1002
{
1040
6.0
1002
}
  0
LINE
  5
8B568
330
1F
100
AcDbEntity
  8
AM_7
370
     9
100
AcDbLine
 10
388.3188785279163
 20
664.5
 30
0.0
 11
409.8188785279162
 21
664.5
 31
0.0
1001
GENIUS_GENODEF_13
1002
{
1000
HIER
1070
     0
1002
}
1002
{
1000
MANEDIT
1070
     0
1002
}
1002
{
1000
NOSEL
1070
     0
1002
}
1002
{
1000
BEHIND
1070
     0
1002
}
1002
{
1000
OTHER
1070
     0
1002
}
1002
{
1000
REACTOR
1002
}
1001
GENIUS_GENOBJ-N-CEN_13
1002
{
1000
OWNER
1000
GEN
1002
}
1001
GENIUS_GENCEN_19
1002
{
1040
6.0
1002
}
  0
LINE
  5
8B569
330
1F
100
AcDbEntity
  8
AM_7
370
     9
100
AcDbLine
 10
399.0688785279163
 20
675.25
 30
0.0
 11
399.0688785279163
 21
653.75
 31
0.0
1001
GENIUS_GENODEF_13
1002
{
1000
HIER
1070
     0
1002
}
1002
{
1000
MANEDIT
1070
     0
1002
}
1002
{
1000
NOSEL
1070
     0
1002
}
1002
{
1000
BEHIND
1070
     0
1002
}
1002
{
1000
OTHER
1070
     0
1002
}
1002
{
1000
REACTOR
1002
}
1001
GENIUS_GENOBJ-N-CEN_13
1002
{
1000
OWNER
1000
GEN
1002
}
1001
GENIUS_GENCEN_19
1002
{
1040
6.0
1002
}
  0
LINE
  5
8B56A
330
1F
100
AcDbEntity
  8
AM_7
370
     9
100
AcDbLine
 10
393.3188785279162
 20
604.4999999999999
 30
0.0
 11
414.8188785279162
 21
604.4999999999999
 31
0.0
1001
GENIUS_GENODEF_13
1002
{
1000
HIER
1070
     0
1002
}
1002
{
1000
MANEDIT
1070
     0
1002
}
1002
{
1000
NOSEL
1070
     0
1002
}
1002
{
1000
BEHIND
1070
     0
1002
}
1002
{
1000
OTHER
1070
     0
1002
}
1002
{
1000
REACTOR
1002
}
1001
GENIUS_GENOBJ-N-CEN_13
1002
{
1000
OWNER
1000
GEN
1002
}
1001
GENIUS_GENCEN_19
1002
{
1040
6.0
1002
}
  0
LINE
  5
8B56B
330
1F
100
AcDbEntity
  8
AM_7
370
     9
100
AcDbLine
 10
404.0688785279162
 20
615.2499999999999
 30
0.0
 11
404.0688785279162
 21
593.75
 31
0.0
1001
GENIUS_GENODEF_13
1002
{
1000
HIER
1070
     0
1002
}
1002
{
1000
MANEDIT
1070
     0
1002
}
1002
{
1000
NOSEL
1070
     0
1002
}
1002
{
1000
BEHIND
1070
     0
1002
}
1002
{
1000
OTHER
1070
     0
1002
}
1002
{
1000
REACTOR
1002
}
1001
GENIUS_GENOBJ-N-CEN_13
1002
{
1000
OWNER
1000
GEN
1002
}
1001
GENIUS_GENCEN_19
1002
{
1040
6.0
1002
}
  0
LINE
  5
8B56C
330
1F
100
AcDbEntity
  8
AM_7
370
     9
100
AcDbLine
 10
388.3188785279163
 20
609.4999999999999
 30
0.0
 11
409.8188785279162
 21
609.4999999999999
 31
0.0
1001
GENIUS_GENODEF_13
1002
{
1000
HIER
1070
     0
1002
}
1002
{
1000
MANEDIT
1070
     0
1002
}
1002
{
1000
NOSEL
1070
     0
1002
}
1002
{
1000
BEHIND
1070
     0
1002
}
1002
{
1000
OTHER
1070
     0
1002
}
1002
{
1000
REACTOR
1002
}
1001
GENIUS_GENOBJ-N-CEN_13
1002
{
1000
OWNER
1000
GEN
1002
}
1001
GENIUS_GENCEN_19
1002
{
1040
6.0
1002
}
  0
LINE
  5
8B56D
330
1F
100
AcDbEntity
  8
AM_7
370
     9
100
AcDbLine
 10
399.0688785279163
 20
620.25
 30
0.0
 11
399.0688785279163
 21
598.7499999999999
 31
0.0
1001
GENIUS_GENODEF_13
1002
{
1000
HIER
1070
     0
1002
}
1002
{
1000
MANEDIT
1070
     0
1002
}
1002
{
1000
NOSEL
1070
     0
1002
}
1002
{
1000
BEHIND
1070
     0
1002
}
1002
{
1000
OTHER
1070
     0
1002
}
1002
{
1000
REACTOR
1002
}
1001
GENIUS_GENOBJ-N-CEN_13
1002
{
1000
OWNER
1000
GEN
1002
}
1001
GENIUS_GENCEN_19
1002
{
1040
6.0
1002
}
  0
LINE
  5
8B56E
330
1F
100
AcDbEntity
  8
AM_7
370
     9
100
AcDbLine
 10
328.3188785279163
 20
604.4999999999999
 30
0.0
 11
349.8188785279162
 21
604.4999999999999
 31
0.0
1001
GENIUS_GENODEF_13
1002
{
1000
HIER
1070
     0
1002
}
1002
{
1000
MANEDIT
1070
     0
1002
}
1002
{
1000
NOSEL
1070
     0
1002
}
1002
{
1000
BEHIND
1070
     0
1002
}
1002
{
1000
OTHER
1070
     0
1002
}
1002
{
1000
REACTOR
1002
}
1001
GENIUS_GENOBJ-N-CEN_13
1002
{
1000
OWNER
1000
GEN
1002
}
1001
GENIUS_GENCEN_19
1002
{
1040
6.0
1002
}
  0
LINE
  5
8B56F
330
1F
100
AcDbEntity
  8
AM_7
370
     9
100
AcDbLine
 10
339.0688785279162
 20
615.2499999999999
 30
0.0
 11
339.0688785279162
 21
593.75
 31
0.0
1001
GENIUS_GENODEF_13
1002
{
1000
HIER
1070
     0
1002
}
1002
{
1000
MANEDIT
1070
     0
1002
}
1002
{
1000
NOSEL
1070
     0
1002
}
1002
{
1000
BEHIND
1070
     0
1002
}
1002
{
1000
OTHER
1070
     0
1002
}
1002
{
1000
REACTOR
1002
}
1001
GENIUS_GENOBJ-N-CEN_13
1002
{
1000
OWNER
1000
GEN
1002
}
1001
GENIUS_GENCEN_19
1002
{
1040
6.0
1002
}
  0
LINE
  5
8B570
330
1F
100
AcDbEntity
  8
AM_7
370
     9
100
AcDbLine
 10
333.3188785279162
 20
609.4999999999999
 30
0.0
 11
354.8188785279162
 21
609.4999999999999
 31
0.0
1001
GENIUS_GENODEF_13
1002
{
1000
HIER
1070
     0
1002
}
1002
{
1000
MANEDIT
1070
     0
1002
}
1002
{
1000
NOSEL
1070
     0
1002
}
1002
{
1000
BEHIND
1070
     0
1002
}
1002
{
1000
OTHER
1070
     0
1002
}
1002
{
1000
REACTOR
1002
}
1001
GENIUS_GENOBJ-N-CEN_13
1002
{
1000
OWNER
1000
GEN
1002
}
1001
GENIUS_GENCEN_19
1002
{
1040
6.0
1002
}
  0
LINE
  5
8B571
330
1F
100
AcDbEntity
  8
AM_7
370
     9
100
AcDbLine
 10
344.0688785279162
 20
620.25
 30
0.0
 11
344.0688785279162
 21
598.7499999999999
 31
0.0
1001
GENIUS_GENODEF_13
1002
{
1000
HIER
1070
     0
1002
}
1002
{
1000
MANEDIT
1070
     0
1002
}
1002
{
1000
NOSEL
1070
     0
1002
}
1002
{
1000
BEHIND
1070
     0
1002
}
1002
{
1000
OTHER
1070
     0
1002
}
1002
{
1000
REACTOR
1002
}
1001
GENIUS_GENOBJ-N-CEN_13
1002
{
1000
OWNER
1000
GEN
1002
}
1001
GENIUS_GENCEN_19
1002
{
1040
6.0
1002
}
  0
LINE
  5
8B572
330
1F
100
AcDbEntity
  8
AM_7
370
     9
100
AcDbLine
 10
328.3188785279163
 20
669.5
 30
0.0
 11
349.8188785279162
 21
669.5
 31
0.0
1001
GENIUS_GENODEF_13
1002
{
1000
HIER
1070
     0
1002
}
1002
{
1000
MANEDIT
1070
     0
1002
}
1002
{
1000
NOSEL
1070
     0
1002
}
1002
{
1000
BEHIND
1070
     0
1002
}
1002
{
1000
OTHER
1070
     0
1002
}
1002
{
1000
REACTOR
1002
}
1001
GENIUS_GENOBJ-N-CEN_13
1002
{
1000
OWNER
1000
GEN
1002
}
1001
GENIUS_GENCEN_19
1002
{
1040
6.0
1002
}
  0
LINE
  5
8B573
330
1F
100
AcDbEntity
  8
AM_7
370
     9
100
AcDbLine
 10
339.0688785279162
 20
680.25
 30
0.0
 11
339.0688785279162
 21
658.75
 31
0.0
1001
GENIUS_GENODEF_13
1002
{
1000
HIER
1070
     0
1002
}
1002
{
1000
MANEDIT
1070
     0
1002
}
1002
{
1000
NOSEL
1070
     0
1002
}
1002
{
1000
BEHIND
1070
     0
1002
}
1002
{
1000
OTHER
1070
     0
1002
}
1002
{
1000
REACTOR
1002
}
1001
GENIUS_GENOBJ-N-CEN_13
1002
{
1000
OWNER
1000
GEN
1002
}
1001
GENIUS_GENCEN_19
1002
{
1040
6.0
1002
}
  0
LINE
  5
8B574
330
1F
100
AcDbEntity
  8
AM_7
370
     9
100
AcDbLine
 10
333.3188785279162
 20
664.5
 30
0.0
 11
354.8188785279162
 21
664.5
 31
0.0
1001
GENIUS_GENODEF_13
1002
{
1000
HIER
1070
     0
1002
}
1002
{
1000
MANEDIT
1070
     0
1002
}
1002
{
1000
NOSEL
1070
     0
1002
}
1002
{
1000
BEHIND
1070
     0
1002
}
1002
{
1000
OTHER
1070
     0
1002
}
1002
{
1000
REACTOR
1002
}
1001
GENIUS_GENOBJ-N-CEN_13
1002
{
1000
OWNER
1000
GEN
1002
}
1001
GENIUS_GENCEN_19
1002
{
1040
6.0
1002
}
  0
LINE
  5
8B575
330
1F
100
AcDbEntity
  8
AM_7
370
     9
100
AcDbLine
 10
344.0688785279162
 20
675.25
 30
0.0
 11
344.0688785279162
 21
653.75
 31
0.0
1001
GENIUS_GENODEF_13
1002
{
1000
HIER
1070
     0
1002
}
1002
{
1000
MANEDIT
1070
     0
1002
}
1002
{
1000
NOSEL
1070
     0
1002
}
1002
{
1000
BEHIND
1070
     0
1002
}
1002
{
1000
OTHER
1070
     0
1002
}
1002
{
1000
REACTOR
1002
}
1001
GENIUS_GENOBJ-N-CEN_13
1002
{
1000
OWNER
1000
GEN
1002
}
1001
GENIUS_GENCEN_19
1002
{
1040
6.0
1002
}
  0
ARC
  5
8B576
330
1F
100
AcDbEntity
  8
AM_3
370
     9
100
AcDbCircle
 10
353.5688785279162
 20
495.0
 30
0.0
 40
25.0
100
AcDbArc
 50
355.7812575765139
 51
135.1606945754511
  0
LINE
  5
8B577
330
1F
100
AcDbEntity
  8
AM_7
100
AcDbLine
 10
322.5688785279171
 20
495.0
 30
0.0
 11
384.5688785279171
 21
495.0
 31
0.0
1001
GENIUS_GENOBJ-N-CEN_13
1002
{
1000
OWNER
1000
GEN
1002
}
1001
GENIUS_GENODEF_13
1002
{
1000
HIER
1070
     0
1002
}
1002
{
1000
MANEDIT
1070
     0
1002
}
1002
{
1000
NOSEL
1070
     0
1002
}
1002
{
1000
BEHIND
1070
     0
1002
}
1002
{
1000
OTHER
1070
     0
1002
}
1002
{
1000
REACTOR
1002
}
1001
GENIUS_GENCEN_19
1002
{
1040
6.0
1002
}
  0
LINE
  5
8B578
330
1F
100
AcDbEntity
  8
AM_7
100
AcDbLine
 10
353.5688785279162
 20
526.0
 30
0.0
 11
353.5688785279162
 21
464.0
 31
0.0
1001
GENIUS_GENOBJ-N-CEN_13
1002
{
1000
OWNER
1000
GEN
1002
}
1001
GENIUS_GENODEF_13
1002
{
1000
HIER
1070
     0
1002
}
1002
{
1000
MANEDIT
1070
     0
1002
}
1002
{
1000
NOSEL
1070
     0
1002
}
1002
{
1000
BEHIND
1070
     0
1002
}
1002
{
1000
OTHER
1070
     0
1002
}
1002
{
1000
REACTOR
1002
}
1001
GENIUS_GENCEN_19
1002
{
1040
6.0
1002
}
  0
DIMENSION
  5
8B57B
330
1F
100
AcDbEntity
  8
AM_5
100
AcDbDimension
  2
*D6
 10
353.5688785279162
 20
450.0
 30
0.0
 11
362.5688785279162
 21
456.2
 31
0.0
 70
    32
  1
E
 71
     5
 42
18.0
  3
SYS$0
100
AcDbAlignedDimension
 13
371.5688785279163
 23
495.0
 33
0.0
 14
353.5688785279162
 24
464.0
 34
0.0
100
AcDbRotatedDimension
1001
ACAD
1000
DSTYLE
1002
{
1070
    40
1040
2.0
1002
}
  0
DIMENSION
  5
8B57D
330
1F
100
AcDbEntity
  8
AM_5
100
AcDbDimension
  2
*D7
 10
432.5688785279162
 20
609.4999999999999
 30
0.0
 11
426.3688785279161
 21
637.0
 31
0.0
 70
    32
  1
Y
 71
     5
 42
55.0
  3
SYS$0
100
AcDbAlignedDimension
 13
409.8188785279162
 23
664.5
 33
0.0
 14
409.8188785279162
 24
609.4999999999999
 34
0.0
 50
90.0
100
AcDbRotatedDimension
1001
ACAD
1000
DSTYLE
1002
{
1070
    40
1040
2.0
1002
}
  0
DIMENSION
  5
8B57E
330
1F
100
AcDbEntity
  8
AM_5
100
AcDbDimension
  2
*D8
 10
448.5688785279162
 20
669.5
 30
0.0
 11
441.7593547183923
 21
637.0
 31
0.0
 70
    32
  1
Y'
 71
     5
 42
65.0
  3
SYS$0
100
AcDbAlignedDimension
 13
414.8188785279162
 23
604.4999999999999
 33
0.0
 14
414.8188785279162
 24
669.5
 34
0.0
 50
90.0
100
AcDbRotatedDimension
1001
ACAD
1000
DSTYLE
1002
{
1070
    40
1040
2.0
1002
}
  0
DIMENSION
  5
8B57F
330
1F
100
AcDbEntity
  8
AM_5
100
AcDbDimension
  2
*D9
 10
464.5688785279163
 20
678.0
 30
0.0
 11
458.3688785279163
 21
637.0
 31
0.0
 70
    32
  1
B
 71
     5
 42
82.0
  3
SYS$0
100
AcDbAlignedDimension
 13
403.0688785279162
 23
596.0
 33
0.0
 14
403.0688785279162
 24
678.0
 34
0.0
 50
90.0
100
AcDbRotatedDimension
1001
ACAD
1000
DSTYLE
1002
{
1070
    40
1040
2.0
1002
}
  0
DIMENSION
  5
8B580
330
1F
100
AcDbEntity
  8
AM_5
100
AcDbDimension
  2
*D10
 10
399.0688785279163
 20
694.0
 30
0.0
 11
371.5688785279163
 21
700.2
 31
0.0
 70
    32
  1
X
 71
     5
 42
55.0
  3
SYS$0
100
AcDbAlignedDimension
 13
344.0688785279162
 23
675.25
 33
0.0
 14
399.0688785279163
 24
675.25
 34
0.0
100
AcDbRotatedDimension
1001
ACAD
1000
DSTYLE
1002
{
1070
    40
1040
2.0
1002
}
  0
DIMENSION
  5
8B581
330
1F
100
AcDbEntity
  8
AM_5
100
AcDbDimension
  2
*D11
 10
404.0688785279162
 20
710.0
 30
0.0
 11
371.5688785279163
 21
716.8095238095238
 31
0.0
 70
    32
  1
X'
 71
     5
 42
65.0
  3
SYS$0
100
AcDbAlignedDimension
 13
339.0688785279162
 23
680.25
 33
0.0
 14
404.0688785279162
 24
680.25
 34
0.0
100
AcDbRotatedDimension
1001
ACAD
1000
DSTYLE
1002
{
1070
    40
1040
2.0
1002
}
  0
DIMENSION
  5
8B582
330
1F
100
AcDbEntity
  8
AM_5
100
AcDbDimension
  2
*D12
 10
412.5688785279162
 20
726.0
 30
0.0
 11
371.5688785279163
 21
732.2
 31
0.0
 70
    32
  1
A
 71
     5
 42
82.0
  3
SYS$0
100
AcDbAlignedDimension
 13
330.5688785279162
 23
668.5
 33
0.0
 14
412.5688785279162
 24
668.5
 34
0.0
100
AcDbRotatedDimension
1001
ACAD
1000
DSTYLE
1002
{
1070
    40
1040
2.0
1002
}
  0
DIMENSION
  5
8B583
330
1F
100
AcDbEntity
  8
AM_5
100
AcDbDimension
  2
*D13
 10
432.5688785279162
 20
469.9999999999999
 30
0.0
 11
426.3688785279161
 21
509.0000000000001
 31
0.0
 70
    32
  1
H
 71
     5
 42
78.00000000000006
  3
SYS$0
100
AcDbAlignedDimension
 13
412.5688785279162
 23
548.0
 33
0.0
 14
353.5688785279162
 24
470.0
 34
0.0
 50
90.0
100
AcDbRotatedDimension
1001
ACAD
1000
DSTYLE
1002
{
1070
    40
1040
2.0
1002
}
  0
LWPOLYLINE
  5
8B586
330
1F
100
AcDbEntity
  8
AM_0
100
AcDbPolyline
 90
        4
 70
     1
 43
0.0
 10
319.5688785279163
 20
414.0
 10
367.5688785279163
 20
414.0
 10
367.5688785279163
 20
402.0
 10
319.5688785279163
 20
402.0
1001
GENIUS_GENREC_14
1002
{
1000
PYDIR
1011
319.5688785279163
1021
402.0
1031
0.0
1002
}
1002
{
1000
PXDIR
1011
367.5688785279163
1021
414.0
1031
0.0
1002
}
1002
{
1000
PORI
1011
319.5688785279163
1021
414.0
1031
0.0
1002
}
1002
{
1000
PINS
1011
319.5688785279163
1021
414.0
1031
0.0
1002
}
1002
{
1000
PINS2
1011
367.5688785279163
1021
402.0
1031
0.0
1002
}
1002
{
1000
C
1070
     1
1002
}
1001
GENIUS_GENODEF_13
1002
{
1000
HIER
1070
     0
1002
}
1002
{
1000
MANEDIT
1070
     0
1002
}
1002
{
1000
NOSEL
1070
     0
1002
}
1002
{
1000
BEHIND
1070
     0
1002
}
1002
{
1000
OTHER
1070
     0
1002
}
1002
{
1000
REACTOR
1002
}
1001
GENIUS_GENOBJ-N-REC_13
1002
{
1000
OWNER
1000
GEN
1002
}
  0
MTEXT
  5
8B587
330
1F
100
AcDbEntity
  8
AM_6
100
AcDbMText
 10
343.5688785279162
 20
408.0
 30
0.0
 40
6.4
 41
48.0
 71
     5
 72
     5
  1
SUHJ-YN
 73
     1
 44
1.0
1001
ACAD
1000
MTEXTBEGIN
1070
    73
1070
     1
1070
    44
1040
1.0
1070
    74
1070
     0
1000
MTEXTEND
  0
LWPOLYLINE
  5
8B588
330
1F
100
AcDbEntity
  8
AM_0
100
AcDbPolyline
 90
        4
 70
     1
 43
0.0
 10
375.5688785279162
 20
434.0
 10
423.5688785279162
 20
434.0
 10
423.5688785279162
 20
422.0
 10
375.5688785279162
 20
422.0
1001
GENIUS_GENREC_14
1002
{
1000
PYDIR
1011
375.5688785279162
1021
422.0
1031
0.0
1002
}
1002
{
1000
PXDIR
1011
423.5688785279162
1021
434.0
1031
0.0
1002
}
1002
{
1000
PORI
1011
375.5688785279162
1021
434.0
1031
0.0
1002
}
1002
{
1000
PINS
1011
375.5688785279162
1021
434.0
1031
0.0
1002
}
1002
{
1000
PINS2
1011
423.5688785279162
1021
422.0
1031
0.0
1002
}
1002
{
1000
C
1070
     1
1002
}
1001
GENIUS_GENODEF_13
1002
{
1000
HIER
1070
     0
1002
}
1002
{
1000
MANEDIT
1070
     0
1002
}
1002
{
1000
NOSEL
1070
     0
1002
}
1002
{
1000
BEHIND
1070
     0
1002
}
1002
{
1000
OTHER
1070
     0
1002
}
1002
{
1000
REACTOR
1002
}
1001
GENIUS_GENOBJ-N-REC_13
1002
{
1000
OWNER
1000
GEN
1002
}
  0
LWPOLYLINE
  5
8B589
330
1F
100
AcDbEntity
  8
AM_0
100
AcDbPolyline
 90
        4
 70
     1
 43
0.0
 10
319.5688785279163
 20
434.0
 10
367.5688785279163
 20
434.0
 10
367.5688785279163
 20
422.0
 10
319.5688785279163
 20
422.0
1001
GENIUS_GENREC_14
1002
{
1000
PYDIR
1011
319.5688785279163
1021
422.0
1031
0.0
1002
}
1002
{
1000
PXDIR
1011
367.5688785279163
1021
434.0
1031
0.0
1002
}
1002
{
1000
PORI
1011
319.5688785279163
1021
434.0
1031
0.0
1002
}
1002
{
1000
PINS
1011
319.5688785279163
1021
434.0
1031
0.0
1002
}
1002
{
1000
PINS2
1011
367.5688785279163
1021
422.0
1031
0.0
1002
}
1002
{
1000
C
1070
     1
1002
}
1001
GENIUS_GENODEF_13
1002
{
1000
HIER
1070
     0
1002
}
1002
{
1000
MANEDIT
1070
     0
1002
}
1002
{
1000
NOSEL
1070
     0
1002
}
1002
{
1000
BEHIND
1070
     0
1002
}
1002
{
1000
OTHER
1070
     0
1002
}
1002
{
1000
REACTOR
1002
}
1001
GENIUS_GENOBJ-N-REC_13
1002
{
1000
OWNER
1000
GEN
1002
}
  0
MTEXT
  5
8B58A
330
1F
100
AcDbEntity
  8
AM_6
100
AcDbMText
 10
343.5688785279162
 20
428.0
 30
0.0
 40
6.4
 41
48.0
 71
     5
 72
     5
  1
HJ-U-YN
 73
     1
 44
1.0
1001
ACAD
1000
MTEXTBEGIN
1070
    73
1070
     1
1070
    44
1040
1.0
1070
    74
1070
     0
1000
MTEXTEND
  0
LWPOLYLINE
  5
8B58B
330
1F
100
AcDbEntity
  8
AM_0
100
AcDbPolyline
 90
        4
 70
     1
 43
0.0
 10
375.5688785279162
 20
414.0
 10
423.5688785279162
 20
414.0
 10
423.5688785279162
 20
402.0
 10
375.5688785279162
 20
402.0
1001
GENIUS_GENREC_14
1002
{
1000
PYDIR
1011
375.5688785279162
1021
402.0
1031
0.0
1002
}
1002
{
1000
PXDIR
1011
423.5688785279162
1021
414.0
1031
0.0
1002
}
1002
{
1000
PORI
1011
375.5688785279162
1021
414.0
1031
0.0
1002
}
1002
{
1000
PINS
1011
375.5688785279162
1021
414.0
1031
0.0
1002
}
1002
{
1000
PINS2
1011
423.5688785279162
1021
402.0
1031
0.0
1002
}
1002
{
1000
C
1070
     1
1002
}
1001
GENIUS_GENODEF_13
1002
{
1000
HIER
1070
     0
1002
}
1002
{
1000
MANEDIT
1070
     0
1002
}
1002
{
1000
NOSEL
1070
     0
1002
}
1002
{
1000
BEHIND
1070
     0
1002
}
1002
{
1000
OTHER
1070
     0
1002
}
1002
{
1000
REACTOR
1002
}
1001
GENIUS_GENOBJ-N-REC_13
1002
{
1000
OWNER
1000
GEN
1002
}
  0
MTEXT
  5
8B58C
330
1F
100
AcDbEntity
  8
AM_6
100
AcDbMText
 10
399.5688785279162
 20
408.0
 30
0.0
 40
6.4
 41
48.0
 71
     5
 72
     5
  1
SUHJ-MC
 73
     1
 44
1.0
1001
ACAD
1000
MTEXTBEGIN
1070
    73
1070
     1
1070
    44
1040
1.0
1070
    74
1070
     0
1000
MTEXTEND
  0
MTEXT
  5
8B58D
330
1F
100
AcDbEntity
  8
AM_6
100
AcDbMText
 10
399.5688785279162
 20
428.0
 30
0.0
 40
6.4
 41
48.0
 71
     5
 72
     5
  1
HJ-B-MC
 73
     1
 44
1.0
1001
ACAD
1000
MTEXTBEGIN
1070
    73
1070
     1
1070
    44
1040
1.0
1070
    74
1070
     0
1000
MTEXTEND
  0
ARC
  5
8B58E
330
1F
100
AcDbEntity
  8
AM_0
100
AcDbCircle
 10
645.5688785279164
 20
495.0
 30
0.0
 40
25.0
100
AcDbArc
 50
179.4755900000099
 51
355.7812569999684
  0
LINE
  5
8B58F
330
1F
100
AcDbEntity
  8
AM_0
100
AcDbLine
 10
689.5688785279165
 20
527.9499999999997
 30
0.0
 11
689.5688785279165
 21
523.1499999999996
 31
0.0
  0
ARC
  5
8B590
330
1F
100
AcDbEntity
  8
AM_0
100
AcDbCircle
 10
684.3688785279166
 20
527.9499999999997
 30
0.0
 40
5.2
100
AcDbArc
 50
0.0
 51
90.0
  0
ARC
  5
8B591
330
1F
100
AcDbEntity
  8
AM_0
100
AcDbCircle
 10
645.5688785279164
 20
495.0
 30
0.0
 40
11.0
100
AcDbArc
 50
201.2744739999805
 51
291.3964020000118
  0
ARC
  5
8B592
330
1F
100
AcDbEntity
  8
AM_0
100
AcDbCircle
 10
642.7688785279163
 20
527.9499999999997
 30
0.0
 40
5.2
100
AcDbArc
 50
90.0
 51
134.9081239999831
  0
ARC
  5
8B593
330
1F
100
AcDbEntity
  8
AM_0
100
AcDbCircle
 10
658.2978695279164
 20
514.9801509999997
 30
0.0
 40
25.0
100
AcDbArc
 50
291.2744739999805
 51
345.0000000000056
  0
LINE
  5
8B594
330
1F
100
AcDbEntity
  8
AM_0
100
AcDbLine
 10
682.4460155279163
 20
508.5096750000002
 30
0.0
 11
685.2250535279165
 21
518.8811910000004
 31
0.0
  0
LINE
  5
8B595
330
1F
100
AcDbEntity
  8
AM_0
100
AcDbLine
 10
649.5818805279165
 20
484.7581339999996
 30
0.0
 11
667.3687725279162
 21
491.6838269999998
 31
0.0
  0
ARC
  5
8B596
330
1F
100
AcDbEntity
  8
AM_0
100
AcDbCircle
 10
691.0206095279165
 20
517.3282760000001
 30
0.0
 40
6.0
100
AcDbArc
 50
104.0019609999882
 51
165.0000000000055
  0
ARC
  5
8B597
330
1F
100
AcDbEntity
  8
AM_0
100
AcDbCircle
 10
645.5688785279164
 20
495.0
 30
0.0
 40
17.75
100
AcDbArc
 50
166.2303739999829
 51
342.9790100000148
  0
ARC
  5
8B598
330
1F
100
AcDbEntity
  8
AM_0
100
AcDbCircle
 10
645.5688785279164
 20
495.0
 30
0.0
 40
15.95
100
AcDbArc
 50
159.7799590000067
 51
337.6717790000218
  0
CIRCLE
  5
8B599
330
1F
100
AcDbEntity
  8
AM_0
100
AcDbCircle
 10
645.5688785279164
 20
495.0
 30
0.0
 40
7.5
  0
CIRCLE
  5
8B59A
330
1F
100
AcDbEntity
  8
AM_0
100
AcDbCircle
 10
645.5688785279164
 20
495.0
 30
0.0
 40
6.5
  0
ARC
  5
8B59B
330
1F
100
AcDbEntity
  8
AM_0
100
AcDbCircle
 10
645.5688785279164
 20
495.0
 30
0.0
 40
9.5
100
AcDbArc
 50
0.0
 51
66.4218219999848
  0
LINE
  5
8B59C
330
1F
100
AcDbEntity
  8
AM_0
100
AcDbLine
 10
647.5688785279165
 20
529.1665599999996
 30
0.0
 11
647.5688785279165
 21
506.4564399999999
 31
0.0
  0
LINE
  5
8B59D
330
1F
100
AcDbEntity
  8
AM_0
100
AcDbLine
 10
655.0688785279164
 20
488.6988629999996
 30
0.0
 11
655.0688785279164
 21
495.0
 31
0.0
  0
ARC
  5
8B59E
330
1F
100
AcDbEntity
  8
AM_0
100
AcDbCircle
 10
650.5688785279164
 20
506.4564399999999
 30
0.0
 40
3.0
100
AcDbArc
 50
180.0
 51
246.4218219999848
  0
ARC
  5
8B59F
330
1F
100
AcDbEntity
  8
AM_0
100
AcDbCircle
 10
645.5688785279164
 20
495.0
 30
0.0
 40
37.20000000000001
100
AcDbArc
 50
100.017739000004
 51
126.256266999986
  0
LINE
  5
8B5A0
330
1F
100
AcDbEntity
  8
AM_0
100
AcDbLine
 10
623.5688785279164
 20
524.9973330000002
 30
0.0
 11
635.3107095279162
 21
491.0061129999994
 31
0.0
  0
ARC
  5
8B5A1
330
1F
100
AcDbEntity
  8
AM_0
100
AcDbCircle
 10
641.3938785279163
 20
537.9499999999998
 30
0.0
 40
4.799999999999999
100
AcDbArc
 50
193.861949999976
 51
270.0
  0
ARC
  5
8B5A2
330
1F
100
AcDbEntity
  8
AM_0
100
AcDbCircle
 10
685.7438785279166
 20
537.9499999999998
 30
0.0
 40
4.799999999999999
100
AcDbArc
 50
270.0
 51
346.138050000024
  0
LINE
  5
8B5A3
330
1F
100
AcDbEntity
  8
AM_0
100
AcDbLine
 10
641.3938785279163
 20
533.1499999999996
 30
0.0
 11
685.7438785279166
 21
533.1499999999996
 31
0.0
  0
LINE
  5
8B5A4
330
1F
100
AcDbEntity
  8
AM_0
100
AcDbLine
 10
622.5688785279165
 20
548.0
 30
0.0
 11
704.5688785279164
 21
548.0
 31
0.0
  0
ARC
  5
8B5A5
330
1F
100
AcDbEntity
  8
AM_0
100
AcDbCircle
 10
633.5188785279163
 20
544.3000000000002
 30
0.0
 40
0.5
100
AcDbArc
 50
31.58813600000838
 51
90.0
  0
LINE
  5
8B5A6
330
1F
100
AcDbEntity
  8
AM_0
100
AcDbLine
 10
622.5688785279165
 20
548.0
 30
0.0
 11
622.5688785279165
 21
544.8000000000002
 31
0.0
  0
ARC
  5
8B5A7
330
1F
100
AcDbEntity
  8
AM_0
100
AcDbCircle
 10
637.0965875279164
 20
546.4999999999999
 30
0.0
 40
3.7
100
AcDbArc
 50
211.5881360000084
 51
270.0
  0
LINE
  5
8B5A8
330
1F
100
AcDbEntity
  8
AM_0
100
AcDbLine
 10
704.5688785279164
 20
544.8000000000002
 30
0.0
 11
622.5688785279165
 21
544.8000000000002
 31
0.0
  0
ARC
  5
8B5A9
330
1F
100
AcDbEntity
  8
AM_0
100
AcDbCircle
 10
693.6188785279166
 20
544.3000000000002
 30
0.0
 40
0.5
100
AcDbArc
 50
90.0
 51
148.4118639999916
  0
LINE
  5
8B5AA
330
1F
100
AcDbEntity
  8
AM_0
100
AcDbLine
 10
704.5688785279164
 20
548.0
 30
0.0
 11
704.5688785279164
 21
544.8000000000002
 31
0.0
  0
ARC
  5
8B5AB
330
1F
100
AcDbEntity
  8
AM_0
100
AcDbCircle
 10
690.0411705279164
 20
546.4999999999999
 30
0.0
 40
3.7
100
AcDbArc
 50
270.0
 51
328.4118639999916
  0
LINE
  5
8B5AC
330
1F
100
AcDbEntity
  8
AM_0
100
AcDbLine
 10
691.4688785279166
 20
542.8000000000001
 30
0.0
 11
635.6688785279163
 21
542.8000000000001
 31
0.0
  0
LINE
  5
8B5AD
330
1F
100
AcDbEntity
  8
AM_0
100
AcDbLine
 10
692.9688785279165
 20
536.8000000000002
 30
0.0
 11
634.1688785279163
 21
536.8000000000002
 31
0.0
  0
LINE
  5
8B5AE
330
1F
100
AcDbEntity
  8
AM_0
100
AcDbLine
 10
692.9688785279165
 20
541.3000000000002
 30
0.0
 11
692.9688785279165
 21
536.8000000000002
 31
0.0
  0
ARC
  5
8B5AF
330
1F
100
AcDbEntity
  8
AM_0
100
AcDbCircle
 10
691.4688785279166
 20
541.3000000000002
 30
0.0
 40
1.5
100
AcDbArc
 50
0.0
 51
90.0
  0
LINE
  5
8B5B0
330
1F
100
AcDbEntity
  8
AM_0
100
AcDbLine
 10
634.1688785279163
 20
541.3000000000002
 30
0.0
 11
634.1688785279163
 21
536.8000000000002
 31
0.0
  0
ARC
  5
8B5B1
330
1F
100
AcDbEntity
  8
AM_0
100
AcDbCircle
 10
635.6688785279163
 20
541.3000000000002
 30
0.0
 40
1.5
100
AcDbArc
 50
90.0
 51
180.0
  0
LINE
  5
8B5B2
330
1F
100
AcDbEntity
  8
AM_0
100
AcDbLine
 10
632.0688785279164
 20
596.0
 30
0.0
 11
695.0688785279164
 21
596.0
 31
0.0
  0
LINE
  5
8B5B3
330
1F
100
AcDbEntity
  8
AM_0
100
AcDbLine
 10
704.5688785279164
 20
605.4999999999999
 30
0.0
 11
704.5688785279164
 21
668.5
 31
0.0
  0
LINE
  5
8B5B4
330
1F
100
AcDbEntity
  8
AM_0
100
AcDbLine
 10
695.0688785279164
 20
678.0
 30
0.0
 11
632.0688785279164
 21
678.0
 31
0.0
  0
LINE
  5
8B5B5
330
1F
100
AcDbEntity
  8
AM_0
100
AcDbLine
 10
622.5688785279165
 20
668.5
 30
0.0
 11
622.5688785279165
 21
605.4999999999999
 31
0.0
  0
ARC
  5
8B5B6
330
1F
100
AcDbEntity
  8
AM_0
100
AcDbCircle
 10
696.0688785279164
 20
669.5
 30
0.0
 40
4.75
100
AcDbArc
 50
314.9999999999908
 51
134.9999999999908
  0
ARC
  5
8B5B7
330
1F
100
AcDbEntity
  8
AM_0
100
AcDbCircle
 10
691.0688785279164
 20
664.5
 30
0.0
 40
4.75
100
AcDbArc
 50
134.9999999999908
 51
314.9999999999908
  0
ARC
  5
8B5B8
330
1F
100
AcDbEntity
  8
AM_0
100
AcDbCircle
 10
636.0688785279164
 20
609.4999999999999
 30
0.0
 40
4.75
100
AcDbArc
 50
314.9999999999908
 51
134.9999999999908
  0
ARC
  5
8B5B9
330
1F
100
AcDbEntity
  8
AM_0
100
AcDbCircle
 10
631.0688785279165
 20
604.4999999999999
 30
0.0
 40
4.75
100
AcDbArc
 50
134.9999999999908
 51
314.9999999999908
  0
LINE
  5
8B5BA
330
1F
100
AcDbEntity
  8
AM_0
100
AcDbLine
 10
687.7101215279164
 20
667.8587569999999
 30
0.0
 11
692.7101215279165
 21
672.858757
 31
0.0
  0
LINE
  5
8B5BB
330
1F
100
AcDbEntity
  8
AM_0
100
AcDbLine
 10
694.4276365279163
 20
661.141243
 30
0.0
 11
699.4276365279163
 21
666.141243
 31
0.0
  0
LINE
  5
8B5BC
330
1F
100
AcDbEntity
  8
AM_0
100
AcDbLine
 10
627.7101215279165
 20
607.8587569999999
 30
0.0
 11
632.7101215279165
 21
612.8587569999999
 31
0.0
  0
LINE
  5
8B5BD
330
1F
100
AcDbEntity
  8
AM_0
100
AcDbLine
 10
634.4276365279163
 20
601.141243
 30
0.0
 11
639.4276365279162
 21
606.141243
 31
0.0
  0
ARC
  5
8B5BE
330
1F
100
AcDbEntity
  8
AM_0
100
AcDbCircle
 10
696.0688785279164
 20
604.4999999999999
 30
0.0
 40
4.75
100
AcDbArc
 50
225.0000000000092
 51
45.00000000000921
  0
ARC
  5
8B5BF
330
1F
100
AcDbEntity
  8
AM_0
100
AcDbCircle
 10
691.0688785279164
 20
609.4999999999999
 30
0.0
 40
4.75
100
AcDbArc
 50
45.00000000000921
 51
225.0000000000092
  0
LINE
  5
8B5C0
330
1F
100
AcDbEntity
  8
AM_0
100
AcDbLine
 10
687.7101215279164
 20
606.141243
 30
0.0
 11
692.7101215279165
 21
601.141243
 31
0.0
  0
LINE
  5
8B5C1
330
1F
100
AcDbEntity
  8
AM_0
100
AcDbLine
 10
694.4276365279163
 20
612.8587569999999
 30
0.0
 11
699.4276365279163
 21
607.8587569999999
 31
0.0
  0
ARC
  5
8B5C2
330
1F
100
AcDbEntity
  8
AM_0
100
AcDbCircle
 10
631.0688785279165
 20
669.5
 30
0.0
 40
4.75
100
AcDbArc
 50
45.00000000000921
 51
225.0000000000092
  0
ARC
  5
8B5C3
330
1F
100
AcDbEntity
  8
AM_0
100
AcDbCircle
 10
636.0688785279164
 20
664.5
 30
0.0
 40
4.75
100
AcDbArc
 50
225.0000000000092
 51
45.00000000000921
  0
LINE
  5
8B5C4
330
1F
100
AcDbEntity
  8
AM_0
100
AcDbLine
 10
639.4276365279162
 20
667.8587569999999
 30
0.0
 11
634.4276365279163
 21
672.858757
 31
0.0
  0
LINE
  5
8B5C5
330
1F
100
AcDbEntity
  8
AM_0
100
AcDbLine
 10
632.7101215279165
 20
661.141243
 30
0.0
 11
627.7101215279165
 21
666.141243
 31
0.0
  0
ARC
  5
8B5C6
330
1F
100
AcDbEntity
  8
AM_0
100
AcDbCircle
 10
695.0688785279164
 20
668.5
 30
0.0
 40
9.5
100
AcDbArc
 50
0.0
 51
90.0
  0
ARC
  5
8B5C7
330
1F
100
AcDbEntity
  8
AM_0
100
AcDbCircle
 10
632.0688785279164
 20
668.5
 30
0.0
 40
9.5
100
AcDbArc
 50
90.0
 51
180.0
  0
ARC
  5
8B5C8
330
1F
100
AcDbEntity
  8
AM_0
100
AcDbCircle
 10
632.0688785279164
 20
605.4999999999999
 30
0.0
 40
9.5
100
AcDbArc
 50
180.0
 51
270.0
  0
ARC
  5
8B5C9
330
1F
100
AcDbEntity
  8
AM_0
100
AcDbCircle
 10
695.0688785279164
 20
605.4999999999999
 30
0.0
 40
9.5
100
AcDbArc
 50
270.0
 51
0.0
  0
CIRCLE
  5
8B5CA
330
1F
100
AcDbEntity
  8
AM_0
100
AcDbCircle
 10
663.5688785279164
 20
637.0
 30
0.0
 40
26.5
  0
CIRCLE
  5
8B5CB
330
1F
100
AcDbEntity
  8
AM_0
100
AcDbCircle
 10
663.5688785279164
 20
637.0
 30
0.0
 40
15.05
  0
CIRCLE
  5
8B5CC
330
1F
100
AcDbEntity
  8
AM_0
100
AcDbCircle
 10
663.5688785279164
 20
637.0
 30
0.0
 40
10.5
  0
LINE
  5
8B619
330
1F
100
AcDbEntity
  8
AM_0
100
AcDbLine
 10
601.3774445279166
 20
618.5
 30
0.0
 11
601.3774445279166
 21
619.0
 31
0.0
  0
LINE
  5
8B61A
330
1F
100
AcDbEntity
  8
AM_0
100
AcDbLine
 10
581.8043705279162
 20
624.6999999999998
 30
0.0
 11
581.8043705279162
 21
649.3000000000002
 31
0.0
  0
LINE
  5
8B61B
330
1F
100
AcDbEntity
  8
AM_0
100
AcDbLine
 10
581.4037825279163
 20
624.6999999999998
 30
0.0
 11
581.4037825279163
 21
649.3000000000002
 31
0.0
  0
ARC
  5
8B61C
330
1F
100
AcDbEntity
  8
AM_0
100
AcDbCircle
 10
584.8043705279162
 20
649.3000000000002
 30
0.0
 40
3.0
100
AcDbArc
 50
90.0
 51
180.0
  0
ARC
  5
8B61D
330
1F
100
AcDbEntity
  8
AM_0
100
AcDbCircle
 10
584.4037825279163
 20
649.3000000000002
 30
0.0
 40
3.0
100
AcDbArc
 50
90.0
 51
180.0
  0
ARC
  5
8B61E
330
1F
100
AcDbEntity
  8
AM_0
100
AcDbCircle
 10
604.5774445279164
 20
655.4999999999999
 30
0.0
 40
3.2
100
AcDbArc
 50
90.0
 51
180.0
  0
ARC
  5
8B61F
330
1F
100
AcDbEntity
  8
AM_0
100
AcDbCircle
 10
604.5774445279164
 20
618.5
 30
0.0
 40
3.2
100
AcDbArc
 50
180.0
 51
270.0
  0
LINE
  5
8B620
330
1F
100
AcDbEntity
  8
AM_0
100
AcDbLine
 10
603.8194935279164
 20
619.0
 30
0.0
 11
603.8194935279164
 21
655.0
 31
0.0
  0
LINE
  5
8B621
330
1F
100
AcDbEntity
  8
AM_0
100
AcDbLine
 10
603.1649255279164
 20
619.0
 30
0.0
 11
603.1649255279164
 21
655.0
 31
0.0
  0
LINE
  5
8B622
330
1F
100
AcDbEntity
  8
AM_0
100
AcDbLine
 10
603.8194935279164
 20
655.0
 30
0.0
 11
600.6515775279165
 21
655.0
 31
0.0
  0
LINE
  5
8B623
330
1F
100
AcDbEntity
  8
AM_0
100
AcDbLine
 10
600.6515775279165
 20
619.0
 30
0.0
 11
600.6515775279165
 21
655.0
 31
0.0
  0
LINE
  5
8B624
330
1F
100
AcDbEntity
  8
AM_0
100
AcDbLine
 10
603.8194935279164
 20
619.0
 30
0.0
 11
600.6515775279165
 21
619.0
 31
0.0
  0
LINE
  5
8B625
330
1F
100
AcDbEntity
  8
AM_0
100
AcDbLine
 10
599.5968005279166
 20
652.3000000000002
 30
0.0
 11
599.5968005279166
 21
655.4999999999999
 31
0.0
  0
LINE
  5
8B626
330
1F
100
AcDbEntity
  8
AM_0
100
AcDbLine
 10
599.5968005279166
 20
655.4999999999999
 30
0.0
 11
601.3774445279166
 21
655.4999999999999
 31
0.0
  0
LINE
  5
8B627
330
1F
100
AcDbEntity
  8
AM_0
100
AcDbLine
 10
599.5968005279166
 20
652.3000000000002
 30
0.0
 11
584.4037825279163
 21
652.3000000000002
 31
0.0
  0
ARC
  5
8B628
330
1F
100
AcDbEntity
  8
AM_0
100
AcDbCircle
 10
584.8043705279162
 20
624.6999999999998
 30
0.0
 40
3.0
100
AcDbArc
 50
180.0
 51
270.0
  0
ARC
  5
8B629
330
1F
100
AcDbEntity
  8
AM_0
100
AcDbCircle
 10
584.4037825279163
 20
624.6999999999998
 30
0.0
 40
3.0
100
AcDbArc
 50
180.0
 51
270.0
  0
LINE
  5
8B62A
330
1F
100
AcDbEntity
  8
AM_0
100
AcDbLine
 10
599.5968005279166
 20
621.6999999999998
 30
0.0
 11
599.5968005279166
 21
618.5
 31
0.0
  0
LINE
  5
8B62B
330
1F
100
AcDbEntity
  8
AM_0
100
AcDbLine
 10
599.5968005279166
 20
618.5
 30
0.0
 11
601.3774445279166
 21
618.5
 31
0.0
  0
LINE
  5
8B62C
330
1F
100
AcDbEntity
  8
AM_0
100
AcDbLine
 10
599.5968005279166
 20
621.6999999999998
 30
0.0
 11
584.4037825279163
 21
621.6999999999998
 31
0.0
  0
LINE
  5
8B62D
330
1F
100
AcDbEntity
  8
AM_0
100
AcDbLine
 10
622.5688785279165
 20
615.3000000000002
 30
0.0
 11
604.5774445279164
 21
615.3000000000002
 31
0.0
  0
LINE
  5
8B62E
330
1F
100
AcDbEntity
  8
AM_0
100
AcDbLine
 10
622.5688785279165
 20
658.6999999999997
 30
0.0
 11
604.5774445279164
 21
658.6999999999997
 31
0.0
  0
LINE
  5
8B62F
330
1F
100
AcDbEntity
  8
AM_0
100
AcDbLine
 10
601.3774445279166
 20
655.0
 30
0.0
 11
601.3774445279166
 21
655.4999999999999
 31
0.0
  0
LINE
  5
8B630
330
1F
100
AcDbEntity
  8
AM_0
100
AcDbLine
 10
622.4194635279165
 20
528.0590730000003
 30
0.0
 11
631.8514905279164
 21
501.220859
 31
0.0
  0
LINE
  5
8B631
330
1F
100
AcDbEntity
  8
AM_0
100
AcDbLine
 10
622.4194635279165
 20
528.0590730000003
 30
0.0
 11
597.5892985279163
 21
513.98898
 31
0.0
  0
LINE
  5
8B632
330
1F
100
AcDbEntity
  8
AM_0
100
AcDbLine
 10
598.2691565279163
 20
511.431786
 30
0.0
 11
613.3411635279164
 21
497.2173199999997
 31
0.0
  0
LINE
  5
8B633
330
1F
100
AcDbEntity
  8
AM_0
100
AcDbLine
 10
631.8514905279164
 20
501.220859
 30
0.0
 11
622.7740565279166
 21
496.0771020000001
 31
0.0
  0
ARC
  5
8B634
330
1F
100
AcDbEntity
  8
AM_0
100
AcDbCircle
 10
618.8300265279165
 20
503.037319
 30
0.0
 40
8.0
100
AcDbArc
 50
226.6772050000213
 51
299.5382000000142
  0
LINE
  5
8B635
330
1F
100
AcDbEntity
  8
AM_0
100
AcDbLine
 10
597.1906415279165
 20
513.3350929999997
 30
0.0
 11
598.2691565279163
 21
511.431786
 31
0.0
  0
CIRCLE
  5
8B636
330
1F
100
AcDbEntity
  8
AM_0
100
AcDbCircle
 10
612.1802295279165
 20
511.2228400000003
 30
0.0
 40
2.399999999999999
  0
CIRCLE
  5
8B637
330
1F
100
AcDbEntity
  8
AM_0
100
AcDbCircle
 10
619.9026215279165
 20
518.145211
 30
0.0
 40
2.399999999999999
  0
LINE
  5
8B638
330
1F
100
AcDbEntity
  8
AM_0
100
AcDbLine
 10
599.1191065279165
 20
517.8241360000002
 30
0.0
 11
596.5833725279164
 21
514.228298
 31
0.0
  0
LINE
  5
8B639
330
1F
100
AcDbEntity
  8
AM_0
100
AcDbLine
 10
599.9036535279162
 20
517.2708849999999
 30
0.0
 11
597.3679185279163
 21
513.6750469999997
 31
0.0
  0
ARC
  5
8B63A
330
1F
100
AcDbEntity
  8
AM_0
100
AcDbCircle
 10
598.5447385279164
 20
512.8451709999999
 30
0.0
 40
2.399999999999999
100
AcDbArc
 50
144.8090519999966
 51
226.8702239999852
  0
ARC
  5
8B63B
330
1F
100
AcDbEntity
  8
AM_0
100
AcDbCircle
 10
598.5447385279164
 20
512.8451709999999
 30
0.0
 40
1.439999999999999
100
AcDbArc
 50
144.8090519999966
 51
258.9668569999962
  0
LINE
  5
8B63C
330
1F
100
AcDbEntity
  8
AM_0
100
AcDbLine
 10
599.9036535279162
 20
517.2708849999999
 30
0.0
 11
599.1191065279165
 21
517.8241360000002
 31
0.0
  0
LINE
  5
8B63D
330
1F
100
AcDbEntity
  8
AM_0
100
AcDbLine
 10
623.2818205279166
 20
525.6052930000005
 30
0.0
 11
634.2203645279166
 21
530.7868099999995
 31
0.0
  0
LINE
  5
8B63E
330
1F
100
AcDbEntity
  8
AM_0
100
AcDbLine
 10
622.4194635279165
 20
528.0590730000003
 30
0.0
 11
633.1130005279167
 21
533.1245319999998
 31
0.0
  0
LINE
  5
8B63F
330
1F
100
AcDbEntity
  8
AM_0
100
AcDbLine
 10
628.7979565279163
 20
528.2182510000002
 30
0.0
 11
627.6905935279167
 21
530.5559720000001
 31
0.0
  0
LINE
  5
8B640
330
1F
100
AcDbEntity
  8
AM_0
100
AcDbLine
 10
634.2203645279166
 20
530.7868099999995
 30
0.0
 11
633.1130005279167
 21
533.1245319999998
 31
0.0
  0
CIRCLE
  5
8B641
330
1F
100
AcDbEntity
  8
AM_0
100
AcDbCircle
 10
612.1802295279165
 20
511.2228400000003
 30
0.0
 40
2.399999999999999
  0
LINE
  5
8B642
330
1F
100
AcDbEntity
  8
AM_0
100
AcDbLine
 10
592.8126045279165
 20
510.5644520000005
 30
0.0
 11
574.5934255279165
 21
520.0181570000004
 31
0.0
  0
LINE
  5
8B643
330
1F
100
AcDbEntity
  8
AM_0
100
AcDbLine
 10
573.4143525279166
 20
517.7458480000004
 30
0.0
 11
574.5934255279165
 21
520.0181570000004
 31
0.0
  0
LINE
  5
8B644
330
1F
100
AcDbEntity
  8
AM_0
100
AcDbLine
 10
591.6335315279163
 20
508.2921430000006
 30
0.0
 11
573.4143525279166
 21
517.7458480000004
 31
0.0
  0
ARC
  5
8B645
330
1F
100
AcDbEntity
  8
AM_0
100
AcDbCircle
 10
593.5495245279164
 20
511.9846450000004
 30
0.0
 40
1.6
100
AcDbArc
 50
242.575764
 51
282.5757640000277
  0
ARC
  5
8B646
330
1F
100
AcDbEntity
  8
AM_0
100
AcDbCircle
 10
593.5495245279164
 20
511.9846450000004
 30
0.0
 40
4.16
100
AcDbArc
 50
242.575764
 51
282.5757640000277
  0
LINE
  5
8B647
330
1F
100
AcDbEntity
  8
AM_0
100
AcDbLine
 10
595.2918285279163
 20
504.1745090000004
 30
0.0
 11
593.8978935279163
 21
510.4230310000002
 31
0.0
  0
LINE
  5
8B648
330
1F
100
AcDbEntity
  8
AM_0
100
AcDbLine
 10
597.1997465279166
 20
502.9608040000002
 30
0.0
 11
605.3381045279163
 21
504.765034
 31
0.0
  0
ARC
  5
8B649
330
1F
100
AcDbEntity
  8
AM_0
100
AcDbCircle
 10
596.8534425279165
 20
504.5228770000003
 30
0.0
 40
1.6
100
AcDbArc
 50
192.5757639999712
 51
282.4999999999811
  0
LINE
  5
8B64A
330
1F
100
AcDbEntity
  8
AM_0
100
AcDbLine
 10
598.2979715279164
 20
511.4046109999999
 30
0.0
 11
593.8978935279163
 21
510.4230310000002
 31
0.0
  0
LINE
  5
8B662
330
1F
100
AcDbEntity
  8
AM_7
370
     9
100
AcDbLine
 10
710.5688785279165
 20
637.0
 30
0.0
 11
575.4037825279162
 21
637.0
 31
0.0
1001
GENIUS_GENOBJ-N-CEN_13
1002
{
1000
OWNER
1000
GEN
1002
}
1001
GENIUS_GENODEF_13
1002
{
1000
HIER
1070
     0
1002
}
1002
{
1000
MANEDIT
1070
     0
1002
}
1002
{
1000
NOSEL
1070
     0
1002
}
1002
{
1000
BEHIND
1070
     0
1002
}
1002
{
1000
OTHER
1070
     0
1002
}
1002
{
1000
REACTOR
1002
}
1001
GENIUS_GENCEN_19
1002
{
1040
6.0
1002
}
  0
LINE
  5
8B663
330
1F
100
AcDbEntity
  8
AM_7
370
     9
100
AcDbLine
 10
663.5688785279164
 20
684.0
 30
0.0
 11
663.5688785279164
 21
590.0
 31
0.0
1001
GENIUS_GENODEF_13
1002
{
1000
HIER
1070
     0
1002
}
1002
{
1000
MANEDIT
1070
     0
1002
}
1002
{
1000
NOSEL
1070
     0
1002
}
1002
{
1000
BEHIND
1070
     0
1002
}
1002
{
1000
OTHER
1070
     0
1002
}
1002
{
1000
REACTOR
1002
}
1001
GENIUS_GENOBJ-N-CEN_13
1002
{
1000
OWNER
1000
GEN
1002
}
1001
GENIUS_GENCEN_19
1002
{
1040
6.0
1002
}
  0
LINE
  5
8B664
330
1F
100
AcDbEntity
  8
AM_7
370
     9
100
AcDbLine
 10
685.3188785279164
 20
669.5
 30
0.0
 11
706.8188785279164
 21
669.5
 31
0.0
1001
GENIUS_GENODEF_13
1002
{
1000
HIER
1070
     0
1002
}
1002
{
1000
MANEDIT
1070
     0
1002
}
1002
{
1000
NOSEL
1070
     0
1002
}
1002
{
1000
BEHIND
1070
     0
1002
}
1002
{
1000
OTHER
1070
     0
1002
}
1002
{
1000
REACTOR
1002
}
1001
GENIUS_GENOBJ-N-CEN_13
1002
{
1000
OWNER
1000
GEN
1002
}
1001
GENIUS_GENCEN_19
1002
{
1040
6.0
1002
}
  0
LINE
  5
8B665
330
1F
100
AcDbEntity
  8
AM_7
370
     9
100
AcDbLine
 10
696.0688785279164
 20
680.25
 30
0.0
 11
696.0688785279164
 21
658.75
 31
0.0
1001
GENIUS_GENODEF_13
1002
{
1000
HIER
1070
     0
1002
}
1002
{
1000
MANEDIT
1070
     0
1002
}
1002
{
1000
NOSEL
1070
     0
1002
}
1002
{
1000
BEHIND
1070
     0
1002
}
1002
{
1000
OTHER
1070
     0
1002
}
1002
{
1000
REACTOR
1002
}
1001
GENIUS_GENOBJ-N-CEN_13
1002
{
1000
OWNER
1000
GEN
1002
}
1001
GENIUS_GENCEN_19
1002
{
1040
6.0
1002
}
  0
LINE
  5
8B666
330
1F
100
AcDbEntity
  8
AM_7
370
     9
100
AcDbLine
 10
680.3188785279164
 20
664.5
 30
0.0
 11
701.8188785279164
 21
664.5
 31
0.0
1001
GENIUS_GENODEF_13
1002
{
1000
HIER
1070
     0
1002
}
1002
{
1000
MANEDIT
1070
     0
1002
}
1002
{
1000
NOSEL
1070
     0
1002
}
1002
{
1000
BEHIND
1070
     0
1002
}
1002
{
1000
OTHER
1070
     0
1002
}
1002
{
1000
REACTOR
1002
}
1001
GENIUS_GENOBJ-N-CEN_13
1002
{
1000
OWNER
1000
GEN
1002
}
1001
GENIUS_GENCEN_19
1002
{
1040
6.0
1002
}
  0
LINE
  5
8B667
330
1F
100
AcDbEntity
  8
AM_7
370
     9
100
AcDbLine
 10
691.0688785279164
 20
675.25
 30
0.0
 11
691.0688785279164
 21
653.75
 31
0.0
1001
GENIUS_GENODEF_13
1002
{
1000
HIER
1070
     0
1002
}
1002
{
1000
MANEDIT
1070
     0
1002
}
1002
{
1000
NOSEL
1070
     0
1002
}
1002
{
1000
BEHIND
1070
     0
1002
}
1002
{
1000
OTHER
1070
     0
1002
}
1002
{
1000
REACTOR
1002
}
1001
GENIUS_GENOBJ-N-CEN_13
1002
{
1000
OWNER
1000
GEN
1002
}
1001
GENIUS_GENCEN_19
1002
{
1040
6.0
1002
}
  0
LINE
  5
8B668
330
1F
100
AcDbEntity
  8
AM_7
370
     9
100
AcDbLine
 10
685.3188785279164
 20
604.4999999999999
 30
0.0
 11
706.8188785279164
 21
604.4999999999999
 31
0.0
1001
GENIUS_GENODEF_13
1002
{
1000
HIER
1070
     0
1002
}
1002
{
1000
MANEDIT
1070
     0
1002
}
1002
{
1000
NOSEL
1070
     0
1002
}
1002
{
1000
BEHIND
1070
     0
1002
}
1002
{
1000
OTHER
1070
     0
1002
}
1002
{
1000
REACTOR
1002
}
1001
GENIUS_GENOBJ-N-CEN_13
1002
{
1000
OWNER
1000
GEN
1002
}
1001
GENIUS_GENCEN_19
1002
{
1040
6.0
1002
}
  0
LINE
  5
8B669
330
1F
100
AcDbEntity
  8
AM_7
370
     9
100
AcDbLine
 10
696.0688785279164
 20
615.2499999999999
 30
0.0
 11
696.0688785279164
 21
593.75
 31
0.0
1001
GENIUS_GENODEF_13
1002
{
1000
HIER
1070
     0
1002
}
1002
{
1000
MANEDIT
1070
     0
1002
}
1002
{
1000
NOSEL
1070
     0
1002
}
1002
{
1000
BEHIND
1070
     0
1002
}
1002
{
1000
OTHER
1070
     0
1002
}
1002
{
1000
REACTOR
1002
}
1001
GENIUS_GENOBJ-N-CEN_13
1002
{
1000
OWNER
1000
GEN
1002
}
1001
GENIUS_GENCEN_19
1002
{
1040
6.0
1002
}
  0
LINE
  5
8B66A
330
1F
100
AcDbEntity
  8
AM_7
370
     9
100
AcDbLine
 10
680.3188785279164
 20
609.4999999999999
 30
0.0
 11
701.8188785279164
 21
609.4999999999999
 31
0.0
1001
GENIUS_GENODEF_13
1002
{
1000
HIER
1070
     0
1002
}
1002
{
1000
MANEDIT
1070
     0
1002
}
1002
{
1000
NOSEL
1070
     0
1002
}
1002
{
1000
BEHIND
1070
     0
1002
}
1002
{
1000
OTHER
1070
     0
1002
}
1002
{
1000
REACTOR
1002
}
1001
GENIUS_GENOBJ-N-CEN_13
1002
{
1000
OWNER
1000
GEN
1002
}
1001
GENIUS_GENCEN_19
1002
{
1040
6.0
1002
}
  0
LINE
  5
8B66B
330
1F
100
AcDbEntity
  8
AM_7
370
     9
100
AcDbLine
 10
691.0688785279164
 20
620.25
 30
0.0
 11
691.0688785279164
 21
598.7499999999999
 31
0.0
1001
GENIUS_GENODEF_13
1002
{
1000
HIER
1070
     0
1002
}
1002
{
1000
MANEDIT
1070
     0
1002
}
1002
{
1000
NOSEL
1070
     0
1002
}
1002
{
1000
BEHIND
1070
     0
1002
}
1002
{
1000
OTHER
1070
     0
1002
}
1002
{
1000
REACTOR
1002
}
1001
GENIUS_GENOBJ-N-CEN_13
1002
{
1000
OWNER
1000
GEN
1002
}
1001
GENIUS_GENCEN_19
1002
{
1040
6.0
1002
}
  0
LINE
  5
8B66C
330
1F
100
AcDbEntity
  8
AM_7
370
     9
100
AcDbLine
 10
620.3188785279165
 20
604.4999999999999
 30
0.0
 11
641.8188785279165
 21
604.4999999999999
 31
0.0
1001
GENIUS_GENODEF_13
1002
{
1000
HIER
1070
     0
1002
}
1002
{
1000
MANEDIT
1070
     0
1002
}
1002
{
1000
NOSEL
1070
     0
1002
}
1002
{
1000
BEHIND
1070
     0
1002
}
1002
{
1000
OTHER
1070
     0
1002
}
1002
{
1000
REACTOR
1002
}
1001
GENIUS_GENOBJ-N-CEN_13
1002
{
1000
OWNER
1000
GEN
1002
}
1001
GENIUS_GENCEN_19
1002
{
1040
6.0
1002
}
  0
LINE
  5
8B66D
330
1F
100
AcDbEntity
  8
AM_7
370
     9
100
AcDbLine
 10
631.0688785279165
 20
615.2499999999999
 30
0.0
 11
631.0688785279165
 21
593.75
 31
0.0
1001
GENIUS_GENODEF_13
1002
{
1000
HIER
1070
     0
1002
}
1002
{
1000
MANEDIT
1070
     0
1002
}
1002
{
1000
NOSEL
1070
     0
1002
}
1002
{
1000
BEHIND
1070
     0
1002
}
1002
{
1000
OTHER
1070
     0
1002
}
1002
{
1000
REACTOR
1002
}
1001
GENIUS_GENOBJ-N-CEN_13
1002
{
1000
OWNER
1000
GEN
1002
}
1001
GENIUS_GENCEN_19
1002
{
1040
6.0
1002
}
  0
LINE
  5
8B66E
330
1F
100
AcDbEntity
  8
AM_7
370
     9
100
AcDbLine
 10
625.3188785279164
 20
609.4999999999999
 30
0.0
 11
646.8188785279164
 21
609.4999999999999
 31
0.0
1001
GENIUS_GENODEF_13
1002
{
1000
HIER
1070
     0
1002
}
1002
{
1000
MANEDIT
1070
     0
1002
}
1002
{
1000
NOSEL
1070
     0
1002
}
1002
{
1000
BEHIND
1070
     0
1002
}
1002
{
1000
OTHER
1070
     0
1002
}
1002
{
1000
REACTOR
1002
}
1001
GENIUS_GENOBJ-N-CEN_13
1002
{
1000
OWNER
1000
GEN
1002
}
1001
GENIUS_GENCEN_19
1002
{
1040
6.0
1002
}
  0
LINE
  5
8B66F
330
1F
100
AcDbEntity
  8
AM_7
370
     9
100
AcDbLine
 10
636.0688785279164
 20
620.25
 30
0.0
 11
636.0688785279164
 21
598.7499999999999
 31
0.0
1001
GENIUS_GENODEF_13
1002
{
1000
HIER
1070
     0
1002
}
1002
{
1000
MANEDIT
1070
     0
1002
}
1002
{
1000
NOSEL
1070
     0
1002
}
1002
{
1000
BEHIND
1070
     0
1002
}
1002
{
1000
OTHER
1070
     0
1002
}
1002
{
1000
REACTOR
1002
}
1001
GENIUS_GENOBJ-N-CEN_13
1002
{
1000
OWNER
1000
GEN
1002
}
1001
GENIUS_GENCEN_19
1002
{
1040
6.0
1002
}
  0
LINE
  5
8B670
330
1F
100
AcDbEntity
  8
AM_7
370
     9
100
AcDbLine
 10
620.3188785279165
 20
669.5
 30
0.0
 11
641.8188785279165
 21
669.5
 31
0.0
1001
GENIUS_GENODEF_13
1002
{
1000
HIER
1070
     0
1002
}
1002
{
1000
MANEDIT
1070
     0
1002
}
1002
{
1000
NOSEL
1070
     0
1002
}
1002
{
1000
BEHIND
1070
     0
1002
}
1002
{
1000
OTHER
1070
     0
1002
}
1002
{
1000
REACTOR
1002
}
1001
GENIUS_GENOBJ-N-CEN_13
1002
{
1000
OWNER
1000
GEN
1002
}
1001
GENIUS_GENCEN_19
1002
{
1040
6.0
1002
}
  0
LINE
  5
8B671
330
1F
100
AcDbEntity
  8
AM_7
370
     9
100
AcDbLine
 10
631.0688785279165
 20
680.25
 30
0.0
 11
631.0688785279165
 21
658.75
 31
0.0
1001
GENIUS_GENODEF_13
1002
{
1000
HIER
1070
     0
1002
}
1002
{
1000
MANEDIT
1070
     0
1002
}
1002
{
1000
NOSEL
1070
     0
1002
}
1002
{
1000
BEHIND
1070
     0
1002
}
1002
{
1000
OTHER
1070
     0
1002
}
1002
{
1000
REACTOR
1002
}
1001
GENIUS_GENOBJ-N-CEN_13
1002
{
1000
OWNER
1000
GEN
1002
}
1001
GENIUS_GENCEN_19
1002
{
1040
6.0
1002
}
  0
LINE
  5
8B672
330
1F
100
AcDbEntity
  8
AM_7
370
     9
100
AcDbLine
 10
625.3188785279164
 20
664.5
 30
0.0
 11
646.8188785279164
 21
664.5
 31
0.0
1001
GENIUS_GENODEF_13
1002
{
1000
HIER
1070
     0
1002
}
1002
{
1000
MANEDIT
1070
     0
1002
}
1002
{
1000
NOSEL
1070
     0
1002
}
1002
{
1000
BEHIND
1070
     0
1002
}
1002
{
1000
OTHER
1070
     0
1002
}
1002
{
1000
REACTOR
1002
}
1001
GENIUS_GENOBJ-N-CEN_13
1002
{
1000
OWNER
1000
GEN
1002
}
1001
GENIUS_GENCEN_19
1002
{
1040
6.0
1002
}
  0
LINE
  5
8B673
330
1F
100
AcDbEntity
  8
AM_7
370
     9
100
AcDbLine
 10
636.0688785279164
 20
675.25
 30
0.0
 11
636.0688785279164
 21
653.75
 31
0.0
1001
GENIUS_GENODEF_13
1002
{
1000
HIER
1070
     0
1002
}
1002
{
1000
MANEDIT
1070
     0
1002
}
1002
{
1000
NOSEL
1070
     0
1002
}
1002
{
1000
BEHIND
1070
     0
1002
}
1002
{
1000
OTHER
1070
     0
1002
}
1002
{
1000
REACTOR
1002
}
1001
GENIUS_GENOBJ-N-CEN_13
1002
{
1000
OWNER
1000
GEN
1002
}
1001
GENIUS_GENCEN_19
1002
{
1040
6.0
1002
}
  0
DIMENSION
  5
8B674
330
1F
100
AcDbEntity
  8
AM_5
100
AcDbDimension
  2
*D14
 10
724.5688785279164
 20
609.4999999999999
 30
0.0
 11
718.3688785279163
 21
637.0
 31
0.0
 70
    32
  1
Y
 71
     5
 42
55.0
  3
SYS$0
100
AcDbAlignedDimension
 13
701.8188785279164
 23
664.5
 33
0.0
 14
701.8188785279164
 24
609.4999999999999
 34
0.0
 50
90.0
100
AcDbRotatedDimension
1001
ACAD
1000
DSTYLE
1002
{
1070
    40
1040
2.0
1002
}
  0
DIMENSION
  5
8B675
330
1F
100
AcDbEntity
  8
AM_5
100
AcDbDimension
  2
*D15
 10
740.5688785279164
 20
669.5
 30
0.0
 11
733.7593547183924
 21
637.0
 31
0.0
 70
    32
  1
Y'
 71
     5
 42
65.0
  3
SYS$0
100
AcDbAlignedDimension
 13
706.8188785279164
 23
604.4999999999999
 33
0.0
 14
706.8188785279164
 24
669.5
 34
0.0
 50
90.0
100
AcDbRotatedDimension
1001
ACAD
1000
DSTYLE
1002
{
1070
    40
1040
2.0
1002
}
  0
DIMENSION
  5
8B676
330
1F
100
AcDbEntity
  8
AM_5
100
AcDbDimension
  2
*D16
 10
756.5688785279164
 20
678.0
 30
0.0
 11
750.3688785279162
 21
637.0
 31
0.0
 70
    32
  1
B
 71
     5
 42
82.0
  3
SYS$0
100
AcDbAlignedDimension
 13
695.0688785279164
 23
596.0
 33
0.0
 14
695.0688785279164
 24
678.0
 34
0.0
 50
90.0
100
AcDbRotatedDimension
1001
ACAD
1000
DSTYLE
1002
{
1070
    40
1040
2.0
1002
}
  0
DIMENSION
  5
8B677
330
1F
100
AcDbEntity
  8
AM_5
100
AcDbDimension
  2
*D17
 10
691.0688785279164
 20
694.0
 30
0.0
 11
663.5688785279164
 21
700.2
 31
0.0
 70
    32
  1
X
 71
     5
 42
55.0
  3
SYS$0
100
AcDbAlignedDimension
 13
636.0688785279164
 23
675.25
 33
0.0
 14
691.0688785279164
 24
675.25
 34
0.0
100
AcDbRotatedDimension
1001
ACAD
1000
DSTYLE
1002
{
1070
    40
1040
2.0
1002
}
  0
DIMENSION
  5
8B678
330
1F
100
AcDbEntity
  8
AM_5
100
AcDbDimension
  2
*D18
 10
696.0688785279164
 20
710.0
 30
0.0
 11
663.5688785279164
 21
716.8095238095238
 31
0.0
 70
    32
  1
X'
 71
     5
 42
65.0
  3
SYS$0
100
AcDbAlignedDimension
 13
631.0688785279165
 23
680.25
 33
0.0
 14
696.0688785279164
 24
680.25
 34
0.0
100
AcDbRotatedDimension
1001
ACAD
1000
DSTYLE
1002
{
1070
    40
1040
2.0
1002
}
  0
DIMENSION
  5
8B679
330
1F
100
AcDbEntity
  8
AM_5
100
AcDbDimension
  2
*D19
 10
704.5688785279164
 20
726.0
 30
0.0
 11
663.5688785279164
 21
732.2
 31
0.0
 70
    32
  1
A
 71
     5
 42
82.0
  3
SYS$0
100
AcDbAlignedDimension
 13
622.5688785279165
 23
668.5
 33
0.0
 14
704.5688785279164
 24
668.5
 34
0.0
100
AcDbRotatedDimension
1001
ACAD
1000
DSTYLE
1002
{
1070
    40
1040
2.0
1002
}
  0
LWPOLYLINE
  5
8B67B
330
1F
100
AcDbEntity
  8
AM_0
100
AcDbPolyline
 90
        4
 70
     1
 43
0.0
 10
611.5688785279164
 20
434.0
 10
659.5688785279165
 20
434.0
 10
659.5688785279165
 20
422.0
 10
611.5688785279164
 20
422.0
1001
GENIUS_GENREC_14
1002
{
1000
PYDIR
1011
611.5688785279164
1021
422.0
1031
0.0
1002
}
1002
{
1000
PXDIR
1011
659.5688785279165
1021
434.0
1031
0.0
1002
}
1002
{
1000
PORI
1011
611.5688785279164
1021
434.0
1031
0.0
1002
}
1002
{
1000
PINS
1011
611.5688785279164
1021
434.0
1031
0.0
1002
}
1002
{
1000
PINS2
1011
659.5688785279165
1021
422.0
1031
0.0
1002
}
1002
{
1000
C
1070
     1
1002
}
1001
GENIUS_GENODEF_13
1002
{
1000
HIER
1070
     0
1002
}
1002
{
1000
MANEDIT
1070
     0
1002
}
1002
{
1000
NOSEL
1070
     0
1002
}
1002
{
1000
BEHIND
1070
     0
1002
}
1002
{
1000
OTHER
1070
     0
1002
}
1002
{
1000
REACTOR
1002
}
1001
GENIUS_GENOBJ-N-REC_13
1002
{
1000
OWNER
1000
GEN
1002
}
  0
LWPOLYLINE
  5
8B67C
330
1F
100
AcDbEntity
  8
AM_0
100
AcDbPolyline
 90
        4
 70
     1
 43
0.0
 10
667.5688785279164
 20
434.0
 10
715.5688785279164
 20
434.0
 10
715.5688785279164
 20
422.0
 10
667.5688785279164
 20
422.0
1001
GENIUS_GENREC_14
1002
{
1000
PYDIR
1011
667.5688785279164
1021
422.0
1031
0.0
1002
}
1002
{
1000
PXDIR
1011
715.5688785279164
1021
434.0
1031
0.0
1002
}
1002
{
1000
PORI
1011
667.5688785279164
1021
434.0
1031
0.0
1002
}
1002
{
1000
PINS
1011
667.5688785279164
1021
434.0
1031
0.0
1002
}
1002
{
1000
PINS2
1011
715.5688785279164
1021
422.0
1031
0.0
1002
}
1002
{
1000
C
1070
     1
1002
}
1001
GENIUS_GENODEF_13
1002
{
1000
HIER
1070
     0
1002
}
1002
{
1000
MANEDIT
1070
     0
1002
}
1002
{
1000
NOSEL
1070
     0
1002
}
1002
{
1000
BEHIND
1070
     0
1002
}
1002
{
1000
OTHER
1070
     0
1002
}
1002
{
1000
REACTOR
1002
}
1001
GENIUS_GENOBJ-N-REC_13
1002
{
1000
OWNER
1000
GEN
1002
}
  0
MTEXT
  5
8B67D
330
1F
100
AcDbEntity
  8
AM_6
100
AcDbMText
 10
635.5688785279165
 20
428.0
 30
0.0
 40
6.4
 41
48.0
 71
     5
 72
     5
  1
HJB-U-YN
 73
     1
 44
1.0
1001
ACAD
1000
MTEXTBEGIN
1070
    73
1070
     1
1070
    44
1040
1.0
1070
    74
1070
     0
1000
MTEXTEND
  0
MTEXT
  5
8B67E
330
1F
100
AcDbEntity
  8
AM_6
100
AcDbMText
 10
691.5688785279164
 20
428.0
 30
0.0
 40
6.4
 41
48.0
 71
     5
 72
     5
  1
HJB-B-MC
 73
     1
 44
1.0
1001
ACAD
1000
MTEXTBEGIN
1070
    73
1070
     1
1070
    44
1040
1.0
1070
    74
1070
     0
1000
MTEXTEND
  0
LINE
  5
8B67F
330
1F
100
AcDbEntity
  8
AM_7
370
     9
100
AcDbLine
 10
663.5688785279164
 20
554.0
 30
0.0
 11
663.5688785279164
 21
495.0
 31
0.0
  0
ARC
  5
8B680
330
1F
100
AcDbEntity
  8
AM_3
370
     9
100
AcDbCircle
 10
645.5688785279164
 20
495.0
 30
0.0
 40
25.0
100
AcDbArc
 50
355.7812575765139
 51
179.4755897143298
  0
LINE
  5
8B681
330
1F
100
AcDbEntity
  8
AM_7
100
AcDbLine
 10
614.5688785279173
 20
495.0
 30
0.0
 11
676.5688785279174
 21
495.0
 31
0.0
1001
GENIUS_GENOBJ-N-CEN_13
1002
{
1000
OWNER
1000
GEN
1002
}
1001
GENIUS_GENODEF_13
1002
{
1000
HIER
1070
     0
1002
}
1002
{
1000
MANEDIT
1070
     0
1002
}
1002
{
1000
NOSEL
1070
     0
1002
}
1002
{
1000
BEHIND
1070
     0
1002
}
1002
{
1000
OTHER
1070
     0
1002
}
1002
{
1000
REACTOR
1002
}
1001
GENIUS_GENCEN_19
1002
{
1040
6.0
1002
}
  0
LINE
  5
8B682
330
1F
100
AcDbEntity
  8
AM_7
100
AcDbLine
 10
645.5688785279164
 20
526.0
 30
0.0
 11
645.5688785279164
 21
464.0
 31
0.0
1001
GENIUS_GENOBJ-N-CEN_13
1002
{
1000
OWNER
1000
GEN
1002
}
1001
GENIUS_GENODEF_13
1002
{
1000
HIER
1070
     0
1002
}
1002
{
1000
MANEDIT
1070
     0
1002
}
1002
{
1000
NOSEL
1070
     0
1002
}
1002
{
1000
BEHIND
1070
     0
1002
}
1002
{
1000
OTHER
1070
     0
1002
}
1002
{
1000
REACTOR
1002
}
1001
GENIUS_GENCEN_19
1002
{
1040
6.0
1002
}
  0
DIMENSION
  5
8B683
330
1F
100
AcDbEntity
  8
AM_5
100
AcDbDimension
  2
*D20
 10
645.5688785279164
 20
450.0
 30
0.0
 11
654.5688785279164
 21
456.2
 31
0.0
 70
    32
  1
E
 71
     5
 42
18.0
  3
SYS$0
100
AcDbAlignedDimension
 13
663.5688785279164
 23
495.0
 33
0.0
 14
645.5688785279164
 24
464.0
 34
0.0
100
AcDbRotatedDimension
1001
ACAD
1000
DSTYLE
1002
{
1070
    40
1040
2.0
1002
}
  0
DIMENSION
  5
8B684
330
1F
100
AcDbEntity
  8
AM_5
100
AcDbDimension
  2
*D21
 10
724.5688785279164
 20
470.0
 30
0.0
 11
718.3688785279163
 21
509.0
 31
0.0
 70
    32
  1
H
 71
     5
 42
77.99999999999994
  3
SYS$0
100
AcDbAlignedDimension
 13
704.5688785279164
 23
548.0
 33
0.0
 14
645.5688785279164
 24
470.0
 34
0.0
 50
90.0
100
AcDbRotatedDimension
1001
ACAD
1000
DSTYLE
1002
{
1070
    40
1040
2.0
1002
}
  0
LINE
  5
8B688
330
1F
100
AcDbEntity
  8
AM_0
100
AcDbLine
 10
967.5688785279165
 20
654.8000000000001
 30
0.0
 11
967.5688785279165
 21
619.1999999999998
 31
0.0
  0
CIRCLE
  5
8B689
330
1F
100
AcDbEntity
  8
AM_0
100
AcDbCircle
 10
952.5688785279164
 20
651.0
 30
0.0
 40
4.75
  0
ARC
  5
8B68A
330
1F
100
AcDbEntity
  8
AM_0
100
AcDbCircle
 10
956.3688785279166
 20
654.8000000000001
 30
0.0
 40
11.2
100
AcDbArc
 50
0.0
 51
90.0
  0
LINE
  5
8B68B
330
1F
100
AcDbEntity
  8
AM_0
100
AcDbLine
 10
952.6495215279162
 20
666.0
 30
0.0
 11
956.3688785279166
 21
666.0
 31
0.0
  0
LINE
  5
8B68C
330
1F
100
AcDbEntity
  8
AM_0
100
AcDbLine
 10
947.7484375279166
 20
664.8707199999998
 30
0.0
 11
936.5191535279166
 21
659.4058009999998
 31
0.0
  0
ARC
  5
8B68D
330
1F
100
AcDbEntity
  8
AM_0
100
AcDbCircle
 10
933.4559765279166
 20
665.6999999999998
 30
0.0
 40
7.0
100
AcDbArc
 50
270.0
 51
295.9506429999823
  0
ARC
  5
8B68E
330
1F
100
AcDbEntity
  8
AM_0
100
AcDbCircle
 10
952.6495215279162
 20
654.8000000000001
 30
0.0
 40
11.2
100
AcDbArc
 50
90.0
 51
115.9506429999823
  0
LINE
  5
8B68F
330
1F
100
AcDbEntity
  8
AM_0
100
AcDbLine
 10
933.4559765279166
 20
658.6999999999997
 30
0.0
 11
916.6817795279165
 21
658.6999999999997
 31
0.0
  0
ARC
  5
8B690
330
1F
100
AcDbEntity
  8
AM_0
100
AcDbCircle
 10
934.0688785279164
 20
637.0
 30
0.0
 40
6.0
100
AcDbArc
 50
270.0
 51
90.0
  0
LINE
  5
8B691
330
1F
100
AcDbEntity
  8
AM_0
100
AcDbLine
 10
934.0688785279164
 20
643.0
 30
0.0
 11
916.0688785279164
 21
643.0
 31
0.0
  0
CIRCLE
  5
8B692
330
1F
100
AcDbEntity
  8
AM_0
100
AcDbCircle
 10
952.5688785279164
 20
623.0
 30
0.0
 40
4.75
  0
ARC
  5
8B693
330
1F
100
AcDbEntity
  8
AM_0
100
AcDbCircle
 10
956.3688785279166
 20
619.1999999999998
 30
0.0
 40
11.2
100
AcDbArc
 50
270.0
 51
0.0
  0
LINE
  5
8B694
330
1F
100
AcDbEntity
  8
AM_0
100
AcDbLine
 10
952.6495215279162
 20
608.0
 30
0.0
 11
956.3688785279166
 21
608.0
 31
0.0
  0
LINE
  5
8B695
330
1F
100
AcDbEntity
  8
AM_0
100
AcDbLine
 10
947.7484375279166
 20
609.1292809999995
 30
0.0
 11
936.5191535279166
 21
614.5941999999995
 31
0.0
  0
ARC
  5
8B696
330
1F
100
AcDbEntity
  8
AM_0
100
AcDbCircle
 10
933.4559765279166
 20
608.3000000000001
 30
0.0
 40
7.0
100
AcDbArc
 50
64.04935700001766
 51
90.0
  0
ARC
  5
8B697
330
1F
100
AcDbEntity
  8
AM_0
100
AcDbCircle
 10
952.6495215279162
 20
619.1999999999998
 30
0.0
 40
11.2
100
AcDbArc
 50
244.0493570000177
 51
270.0
  0
LINE
  5
8B698
330
1F
100
AcDbEntity
  8
AM_0
100
AcDbLine
 10
933.4559765279166
 20
615.3000000000002
 30
0.0
 11
916.6817795279165
 21
615.3000000000002
 31
0.0
  0
LINE
  5
8B699
330
1F
100
AcDbEntity
  8
AM_0
100
AcDbLine
 10
934.0688785279164
 20
631.0
 30
0.0
 11
916.0688785279164
 21
631.0
 31
0.0
  0
LINE
  5
8B69A
330
1F
100
AcDbEntity
  8
AM_0
100
AcDbLine
 10
882.5688785279165
 20
654.8000000000001
 30
0.0
 11
882.5688785279165
 21
619.1999999999998
 31
0.0
  0
CIRCLE
  5
8B69B
330
1F
100
AcDbEntity
  8
AM_0
100
AcDbCircle
 10
897.5688785279164
 20
651.0
 30
0.0
 40
4.75
  0
ARC
  5
8B69C
330
1F
100
AcDbEntity
  8
AM_0
100
AcDbCircle
 10
893.7688785279162
 20
654.8000000000001
 30
0.0
 40
11.2
100
AcDbArc
 50
90.0
 51
180.0
  0
LINE
  5
8B69D
330
1F
100
AcDbEntity
  8
AM_0
100
AcDbLine
 10
897.4882345279164
 20
666.0
 30
0.0
 11
893.7688785279162
 21
666.0
 31
0.0
  0
LINE
  5
8B69E
330
1F
100
AcDbEntity
  8
AM_0
100
AcDbLine
 10
902.3893185279163
 20
664.8707199999998
 30
0.0
 11
913.6186025279164
 21
659.4058009999998
 31
0.0
  0
ARC
  5
8B69F
330
1F
100
AcDbEntity
  8
AM_0
100
AcDbCircle
 10
916.6817795279165
 20
665.6999999999998
 30
0.0
 40
7.0
100
AcDbArc
 50
244.0493570000177
 51
270.0
  0
ARC
  5
8B6A0
330
1F
100
AcDbEntity
  8
AM_0
100
AcDbCircle
 10
897.4882345279164
 20
654.8000000000001
 30
0.0
 40
11.2
100
AcDbArc
 50
64.04935700001766
 51
90.0
  0
ARC
  5
8B6A1
330
1F
100
AcDbEntity
  8
AM_0
100
AcDbCircle
 10
916.0688785279164
 20
637.0
 30
0.0
 40
6.0
100
AcDbArc
 50
90.0
 51
270.0
  0
CIRCLE
  5
8B6A2
330
1F
100
AcDbEntity
  8
AM_0
100
AcDbCircle
 10
897.5688785279164
 20
623.0
 30
0.0
 40
4.75
  0
ARC
  5
8B6A3
330
1F
100
AcDbEntity
  8
AM_0
100
AcDbCircle
 10
893.7688785279162
 20
619.1999999999998
 30
0.0
 40
11.2
100
AcDbArc
 50
180.0
 51
270.0
  0
LINE
  5
8B6A4
330
1F
100
AcDbEntity
  8
AM_0
100
AcDbLine
 10
897.4882345279164
 20
608.0
 30
0.0
 11
893.7688785279162
 21
608.0
 31
0.0
  0
LINE
  5
8B6A5
330
1F
100
AcDbEntity
  8
AM_0
100
AcDbLine
 10
902.3893185279163
 20
609.1292809999995
 30
0.0
 11
913.6186025279164
 21
614.5941999999995
 31
0.0
  0
ARC
  5
8B6A6
330
1F
100
AcDbEntity
  8
AM_0
100
AcDbCircle
 10
916.6817795279165
 20
608.3000000000001
 30
0.0
 40
7.0
100
AcDbArc
 50
90.0
 51
115.9506429999823
  0
ARC
  5
8B6A7
330
1F
100
AcDbEntity
  8
AM_0
100
AcDbCircle
 10
897.4882345279164
 20
619.1999999999998
 30
0.0
 40
11.2
100
AcDbArc
 50
270.0
 51
295.9506429999823
  0
LINE
  5
8B6A8
330
1F
100
AcDbEntity
  8
AM_0
100
AcDbLine
 10
931.5688785279164
 20
611.8000000000002
 30
0.0
 11
918.5688785279165
 21
611.8000000000002
 31
0.0
  0
LINE
  5
8B6A9
330
1F
100
AcDbEntity
  8
AM_0
100
AcDbLine
 10
932.5688785279165
 20
612.8000000000001
 30
0.0
 11
917.5688785279165
 21
612.8000000000001
 31
0.0
  0
LINE
  5
8B6AA
330
1F
100
AcDbEntity
  8
AM_0
100
AcDbLine
 10
931.5688785279164
 20
611.8000000000002
 30
0.0
 11
932.5688785279165
 21
612.8000000000001
 31
0.0
  0
LINE
  5
8B6AB
330
1F
100
AcDbEntity
  8
AM_0
100
AcDbLine
 10
932.5688785279165
 20
615.3000000000002
 30
0.0
 11
932.5688785279165
 21
612.8000000000001
 31
0.0
  0
LINE
  5
8B6AC
330
1F
100
AcDbEntity
  8
AM_0
100
AcDbLine
 10
918.5688785279165
 20
611.8000000000002
 30
0.0
 11
917.5688785279165
 21
612.8000000000001
 31
0.0
  0
LINE
  5
8B6AD
330
1F
100
AcDbEntity
  8
AM_0
100
AcDbLine
 10
917.5688785279165
 20
615.3000000000002
 30
0.0
 11
917.5688785279165
 21
612.8000000000001
 31
0.0
  0
LINE
  5
8B6AE
330
1F
100
AcDbEntity
  8
AM_0
100
AcDbLine
 10
935.0688785279164
 20
541.8000000000001
 30
0.0
 11
935.0688785279164
 21
491.5743949999996
 31
0.0
  0
LINE
  5
8B6AF
330
1F
100
AcDbEntity
  8
AM_0
100
AcDbLine
 10
950.0688785279164
 20
541.8000000000001
 30
0.0
 11
950.0688785279164
 21
511.8373709999996
 31
0.0
  0
LINE
  5
8B6B0
330
1F
100
AcDbEntity
  8
AM_0
100
AcDbLine
 10
967.5688785279165
 20
544.3000000000002
 30
0.0
 11
967.5688785279165
 21
542.0
 31
0.0
  0
ARC
  5
8B6B1
330
1F
100
AcDbEntity
  8
AM_0
100
AcDbCircle
 10
963.8688785279166
 20
544.3000000000002
 30
0.0
 40
3.7
100
AcDbArc
 50
0.0
 51
90.0
  0
LINE
  5
8B6B2
330
1F
100
AcDbEntity
  8
AM_0
100
AcDbLine
 10
963.8688785279166
 20
548.0
 30
0.0
 11
886.2688785279162
 21
548.0
 31
0.0
  0
ARC
  5
8B6B3
330
1F
100
AcDbEntity
  8
AM_0
100
AcDbCircle
 10
925.0688785279164
 20
495.0
 30
0.0
 40
11.0
100
AcDbArc
 50
233.9619170000046
 51
306.0380829999953
  0
LINE
  5
8B6B4
330
1F
100
AcDbEntity
  8
AM_0
100
AcDbLine
 10
947.8482605279166
 20
497.1413350000002
 30
0.0
 11
963.4011295279163
 21
539.8724920000004
 31
0.0
  0
LINE
  5
8B6B5
330
1F
100
AcDbEntity
  8
AM_0
100
AcDbLine
 10
944.7327915279164
 20
496.5640810000004
 30
0.0
 11
962.4739695279165
 21
538.3596809999999
 31
0.0
  0
ARC
  5
8B6B6
330
1F
100
AcDbEntity
  8
AM_0
100
AcDbCircle
 10
967.9969995279163
 20
536.0152939999998
 30
0.0
 40
6.0
100
AcDbArc
 50
94.09173600000322
 51
157.0000019999914
  0
LINE
  5
8B6B7
330
1F
100
AcDbEntity
  8
AM_0
100
AcDbLine
 10
942.6834465279164
 20
494.0162789999995
 30
0.0
 11
931.4372995279166
 21
486.0309859999997
 31
0.0
  0
ARC
  5
8B6B8
330
1F
100
AcDbEntity
  8
AM_0
100
AcDbCircle
 10
942.2101045279166
 20
499.1934559999999
 30
0.0
 40
6.0
100
AcDbArc
 50
300.0000000000216
 51
340.0000000000107
  0
ARC
  5
8B6B9
330
1F
100
AcDbEntity
  8
AM_0
100
AcDbCircle
 10
939.2097615279165
 20
498.9084679999996
 30
0.0
 40
6.0
100
AcDbArc
 50
305.3765400000267
 51
337.0000000000008
  0
LINE
  5
8B6BA
330
1F
100
AcDbEntity
  8
AM_0
100
AcDbLine
 10
931.4309835279166
 20
486.0419249999995
 30
0.0
 11
945.2101045279166
 21
493.9973040000004
 31
0.0
  0
LINE
  5
8B6BB
330
1F
100
AcDbEntity
  8
AM_0
100
AcDbLine
 10
915.0688785279164
 20
541.8000000000001
 30
0.0
 11
915.0688785279164
 21
491.5743949999996
 31
0.0
  0
LINE
  5
8B6BC
330
1F
100
AcDbEntity
  8
AM_0
100
AcDbLine
 10
900.0688785279164
 20
541.8000000000001
 30
0.0
 11
900.0688785279164
 21
511.8373709999996
 31
0.0
  0
LINE
  5
8B6BD
330
1F
100
AcDbEntity
  8
AM_0
100
AcDbLine
 10
882.5688785279165
 20
544.3000000000002
 30
0.0
 11
882.5688785279165
 21
542.0
 31
0.0
  0
ARC
  5
8B6BE
330
1F
100
AcDbEntity
  8
AM_0
100
AcDbCircle
 10
886.2688785279162
 20
544.3000000000002
 30
0.0
 40
3.7
100
AcDbArc
 50
90.0
 51
180.0
  0
LINE
  5
8B6BF
330
1F
100
AcDbEntity
  8
AM_0
100
AcDbLine
 10
902.2894955279165
 20
497.1413350000002
 30
0.0
 11
886.7366265279162
 21
539.8724920000004
 31
0.0
  0
LINE
  5
8B6C0
330
1F
100
AcDbEntity
  8
AM_0
100
AcDbLine
 10
905.4049655279166
 20
496.5640810000004
 30
0.0
 11
887.6637855279167
 21
538.3596809999999
 31
0.0
  0
ARC
  5
8B6C1
330
1F
100
AcDbEntity
  8
AM_0
100
AcDbCircle
 10
882.1407565279162
 20
536.0152939999998
 30
0.0
 40
6.0
100
AcDbArc
 50
22.99999999999926
 51
85.90826399999677
  0
LINE
  5
8B6C2
330
1F
100
AcDbEntity
  8
AM_0
100
AcDbLine
 10
907.4543095279166
 20
494.0162789999995
 30
0.0
 11
918.7004565279165
 21
486.0309859999997
 31
0.0
  0
ARC
  5
8B6C3
330
1F
100
AcDbEntity
  8
AM_0
100
AcDbCircle
 10
907.9276515279163
 20
499.1934559999999
 30
0.0
 40
6.0
100
AcDbArc
 50
199.9999999999892
 51
239.9999999999784
  0
ARC
  5
8B6C4
330
1F
100
AcDbEntity
  8
AM_0
100
AcDbCircle
 10
910.9279945279165
 20
498.9084679999996
 30
0.0
 40
6.0
100
AcDbArc
 50
202.9999999999993
 51
234.6234599999732
  0
LINE
  5
8B6C5
330
1F
100
AcDbEntity
  8
AM_0
100
AcDbLine
 10
918.7067725279163
 20
486.0419249999995
 30
0.0
 11
904.9276515279164
 21
493.9973040000004
 31
0.0
  0
ARC
  5
8B6C6
330
1F
100
AcDbEntity
  8
AM_0
100
AcDbCircle
 10
912.0688785279165
 20
541.8000000000001
 30
0.0
 40
3.0
100
AcDbArc
 50
0.0
 51
90.0
  0
ARC
  5
8B6C7
330
1F
100
AcDbEntity
  8
AM_0
100
AcDbCircle
 10
897.0688785279165
 20
541.8000000000001
 30
0.0
 40
3.0
100
AcDbArc
 50
0.0
 51
90.0
  0
CIRCLE
  5
8B6C8
330
1F
100
AcDbEntity
  8
AM_0
100
AcDbCircle
 10
925.0688785279164
 20
495.0
 30
0.0
 40
7.5
  0
CIRCLE
  5
8B6C9
330
1F
100
AcDbEntity
  8
AM_0
100
AcDbCircle
 10
925.0688785279164
 20
495.0
 30
0.0
 40
6.5
  0
ARC
  5
8B6CA
330
1F
100
AcDbEntity
  8
AM_0
100
AcDbCircle
 10
925.0688785279164
 20
495.0
 30
0.0
 40
11.5
100
AcDbArc
 50
222.029434999973
 51
317.970565000027
  0
ARC
  5
8B6CB
330
1F
100
AcDbEntity
  8
AM_0
100
AcDbCircle
 10
925.0688785279164
 20
495.0
 30
0.0
 40
15.96
100
AcDbArc
 50
193.2670249999842
 51
346.7329750000157
  0
ARC
  5
8B6CC
330
1F
100
AcDbEntity
  8
AM_0
100
AcDbCircle
 10
925.0688785279164
 20
495.0
 30
0.0
 40
17.76
100
AcDbArc
 50
188.0197620000263
 51
351.9802379999737
  0
ARC
  5
8B6CD
330
1F
100
AcDbEntity
  8
AM_0
100
AcDbCircle
 10
925.0688785279164
 20
495.0
 30
0.0
 40
25.0
100
AcDbArc
 50
165.7846040000343
 51
14.21539599996564
  0
ARC
  5
8B6CE
330
1F
100
AcDbEntity
  8
AM_0
100
AcDbCircle
 10
938.0688785279165
 20
541.8000000000001
 30
0.0
 40
3.0
100
AcDbArc
 50
90.0
 51
180.0
  0
ARC
  5
8B6CF
330
1F
100
AcDbEntity
  8
AM_0
100
AcDbCircle
 10
953.0688785279165
 20
541.8000000000001
 30
0.0
 40
3.0
100
AcDbArc
 50
90.0
 51
180.0
  0
LINE
  5
8B70B
330
1F
100
AcDbEntity
  8
AM_0
100
AcDbLine
 10
929.0688785279165
 20
666.3000000000002
 30
0.0
 11
929.0688785279165
 21
666.1000000000004
 31
0.0
  0
LINE
  5
8B70C
330
1F
100
AcDbEntity
  8
AM_0
100
AcDbLine
 10
928.0688785279165
 20
667.3000000000001
 30
0.0
 11
929.0688785279165
 21
666.3000000000002
 31
0.0
  0
LINE
  5
8B70D
330
1F
100
AcDbEntity
  8
AM_0
100
AcDbLine
 10
928.0688785279165
 20
667.3000000000001
 30
0.0
 11
922.0688785279165
 21
667.3000000000001
 31
0.0
  0
LINE
  5
8B70E
330
1F
100
AcDbEntity
  8
AM_0
100
AcDbLine
 10
929.0688785279165
 20
666.3000000000002
 30
0.0
 11
921.0688785279165
 21
666.3000000000002
 31
0.0
  0
LINE
  5
8B70F
330
1F
100
AcDbEntity
  8
AM_0
100
AcDbLine
 10
921.0688785279165
 20
666.3000000000002
 30
0.0
 11
921.0688785279165
 21
666.1000000000004
 31
0.0
  0
LINE
  5
8B710
330
1F
100
AcDbEntity
  8
AM_0
100
AcDbLine
 10
922.0688785279165
 20
667.3000000000001
 30
0.0
 11
921.0688785279165
 21
666.3000000000002
 31
0.0
  0
LINE
  5
8B711
330
1F
100
AcDbEntity
  8
AM_0
100
AcDbLine
 10
920.3188785279165
 20
666.1000000000004
 30
0.0
 11
929.8188785279164
 21
666.1000000000004
 31
0.0
  0
LINE
  5
8B712
330
1F
100
AcDbEntity
  8
AM_0
100
AcDbLine
 10
919.0688785279164
 20
658.6999999999997
 30
0.0
 11
931.0688785279165
 21
658.6999999999997
 31
0.0
  0
LINE
  5
8B713
330
1F
100
AcDbEntity
  8
AM_0
100
AcDbLine
 10
920.3188785279165
 20
666.1000000000004
 30
0.0
 11
918.5688785279165
 21
664.57013
 31
0.0
  0
LINE
  5
8B714
330
1F
100
AcDbEntity
  8
AM_0
100
AcDbLine
 10
918.5688785279165
 20
659.1999999999998
 30
0.0
 11
918.5688785279165
 21
664.57013
 31
0.0
  0
ARC
  5
8B715
330
1F
100
AcDbEntity
  8
AM_0
100
AcDbCircle
 10
921.8188785279165
 20
665.7015630000005
 30
0.0
 40
7.001563
100
AcDbArc
 50
242.3426980000033
 51
297.6573019999967
  0
ARC
  5
8B716
330
1F
100
AcDbEntity
  8
AM_0
100
AcDbCircle
 10
921.8188785279165
 20
660.4291670000002
 30
0.0
 40
4.270833
100
AcDbArc
 50
40.4497189999948
 51
139.5502810000052
  0
LINE
  5
8B717
330
1F
100
AcDbEntity
  8
AM_0
100
AcDbLine
 10
925.0688785279164
 20
659.4999999999999
 30
0.0
 11
925.0688785279164
 21
663.1999999999997
 31
0.0
  0
ARC
  5
8B718
330
1F
100
AcDbEntity
  8
AM_0
100
AcDbCircle
 10
919.0688785279164
 20
659.1999999999998
 30
0.0
 40
0.5
100
AcDbArc
 50
180.0
 51
270.0
  0
LINE
  5
8B719
330
1F
100
AcDbEntity
  8
AM_0
100
AcDbLine
 10
929.8188785279164
 20
666.1000000000004
 30
0.0
 11
931.5688785279164
 21
664.57013
 31
0.0
  0
LINE
  5
8B71A
330
1F
100
AcDbEntity
  8
AM_0
100
AcDbLine
 10
931.5688785279164
 20
659.1999999999998
 30
0.0
 11
931.5688785279164
 21
664.57013
 31
0.0
  0
ARC
  5
8B71B
330
1F
100
AcDbEntity
  8
AM_0
100
AcDbCircle
 10
928.3188785279165
 20
665.7015630000005
 30
0.0
 40
7.001563
100
AcDbArc
 50
242.3426980000033
 51
297.6573019999967
  0
ARC
  5
8B71C
330
1F
100
AcDbEntity
  8
AM_0
100
AcDbCircle
 10
928.3188785279165
 20
660.4291670000002
 30
0.0
 40
4.270833
100
AcDbArc
 50
40.4497189999948
 51
139.5502810000052
  0
ARC
  5
8B71D
330
1F
100
AcDbEntity
  8
AM_0
100
AcDbCircle
 10
931.0688785279165
 20
659.1999999999998
 30
0.0
 40
0.5
100
AcDbArc
 50
270.0
 51
0.0
  0
LINE
  5
8B71E
330
1F
100
AcDbEntity
  8
AM_0
100
AcDbLine
 10
922.0688785279165
 20
666.1000000000004
 30
0.0
 11
922.0688785279165
 21
667.2974109999995
 31
0.0
  0
LINE
  5
8B71F
330
1F
100
AcDbEntity
  8
AM_0
100
AcDbLine
 10
928.0688785279165
 20
666.1000000000004
 30
0.0
 11
928.0688785279165
 21
667.2974109999995
 31
0.0
  0
LINE
  5
8B736
330
1F
100
AcDbEntity
  8
AM_7
370
     9
100
AcDbLine
 10
925.0688785279164
 20
554.0
 30
0.0
 11
925.0688785279164
 21
464.0
 31
0.0
1001
GENIUS_GENODEF_13
1002
{
1000
HIER
1070
     0
1002
}
1002
{
1000
MANEDIT
1070
     0
1002
}
1002
{
1000
NOSEL
1070
     0
1002
}
1002
{
1000
BEHIND
1070
     0
1002
}
1002
{
1000
OTHER
1070
     0
1002
}
1002
{
1000
REACTOR
1002
}
1001
GENIUS_GENOBJ-N-CEN_13
1002
{
1000
OWNER
1000
GEN
1002
}
1001
GENIUS_GENCEN_19
1002
{
1040
6.0
1002
}
  0
LINE
  5
8B737
330
1F
100
AcDbEntity
  8
AM_7
370
     9
100
AcDbLine
 10
894.0689237370195
 20
494.9470569897139
 30
0.0
 11
956.0688333188133
 21
495.052943010286
 31
0.0
1001
GENIUS_GENODEF_13
1002
{
1000
HIER
1070
     0
1002
}
1002
{
1000
MANEDIT
1070
     0
1002
}
1002
{
1000
NOSEL
1070
     0
1002
}
1002
{
1000
BEHIND
1070
     0
1002
}
1002
{
1000
OTHER
1070
     0
1002
}
1002
{
1000
REACTOR
1002
}
1001
GENIUS_GENOBJ-N-CEN_13
1002
{
1000
OWNER
1000
GEN
1002
}
1001
GENIUS_GENCEN_19
1002
{
1040
6.0
1002
}
  0
LINE
  5
8B738
330
1F
100
AcDbEntity
  8
AM_7
370
     9
100
AcDbLine
 10
876.5688785279165
 20
637.0
 30
0.0
 11
973.5688785279164
 21
637.0
 31
0.0
1001
GENIUS_GENOBJ-N-CEN_13
1002
{
1000
OWNER
1000
GEN
1002
}
1001
GENIUS_GENODEF_13
1002
{
1000
HIER
1070
     0
1002
}
1002
{
1000
MANEDIT
1070
     0
1002
}
1002
{
1000
NOSEL
1070
     0
1002
}
1002
{
1000
BEHIND
1070
     0
1002
}
1002
{
1000
OTHER
1070
     0
1002
}
1002
{
1000
REACTOR
1002
}
1001
GENIUS_GENCEN_19
1002
{
1040
6.0
1002
}
  0
LINE
  5
8B739
330
1F
100
AcDbEntity
  8
AM_7
370
     9
100
AcDbLine
 10
925.0688785279164
 20
605.8000000000001
 30
0.0
 11
925.0688785279164
 21
673.3000000000002
 31
0.0
1001
GENIUS_GENODEF_13
1002
{
1000
HIER
1070
     0
1002
}
1002
{
1000
MANEDIT
1070
     0
1002
}
1002
{
1000
NOSEL
1070
     0
1002
}
1002
{
1000
BEHIND
1070
     0
1002
}
1002
{
1000
OTHER
1070
     0
1002
}
1002
{
1000
REACTOR
1002
}
1001
GENIUS_GENOBJ-N-CEN_13
1002
{
1000
OWNER
1000
GEN
1002
}
1001
GENIUS_GENCEN_19
1002
{
1040
6.0
1002
}
  0
LINE
  5
8B73A
330
1F
100
AcDbEntity
  8
AM_7
370
     9
100
AcDbLine
 10
952.5688785279164
 20
661.7499999999999
 30
0.0
 11
952.5688785279164
 21
640.2499999999999
 31
0.0
1001
GENIUS_GENODEF_13
1002
{
1000
HIER
1070
     0
1002
}
1002
{
1000
MANEDIT
1070
     0
1002
}
1002
{
1000
NOSEL
1070
     0
1002
}
1002
{
1000
BEHIND
1070
     0
1002
}
1002
{
1000
OTHER
1070
     0
1002
}
1002
{
1000
REACTOR
1002
}
1001
GENIUS_GENOBJ-N-CEN_13
1002
{
1000
OWNER
1000
GEN
1002
}
1001
GENIUS_GENCEN_19
1002
{
1040
6.0
1002
}
  0
LINE
  5
8B73B
330
1F
100
AcDbEntity
  8
AM_7
370
     9
100
AcDbLine
 10
941.8188785279165
 20
651.0
 30
0.0
 11
963.3188785279164
 21
651.0
 31
0.0
1001
GENIUS_GENODEF_13
1002
{
1000
HIER
1070
     0
1002
}
1002
{
1000
MANEDIT
1070
     0
1002
}
1002
{
1000
NOSEL
1070
     0
1002
}
1002
{
1000
BEHIND
1070
     0
1002
}
1002
{
1000
OTHER
1070
     0
1002
}
1002
{
1000
REACTOR
1002
}
1001
GENIUS_GENOBJ-N-CEN_13
1002
{
1000
OWNER
1000
GEN
1002
}
1001
GENIUS_GENCEN_19
1002
{
1040
6.0
1002
}
  0
LINE
  5
8B73C
330
1F
100
AcDbEntity
  8
AM_7
370
     9
100
AcDbLine
 10
952.5688785279164
 20
633.75
 30
0.0
 11
952.5688785279164
 21
612.25
 31
0.0
1001
GENIUS_GENODEF_13
1002
{
1000
HIER
1070
     0
1002
}
1002
{
1000
MANEDIT
1070
     0
1002
}
1002
{
1000
NOSEL
1070
     0
1002
}
1002
{
1000
BEHIND
1070
     0
1002
}
1002
{
1000
OTHER
1070
     0
1002
}
1002
{
1000
REACTOR
1002
}
1001
GENIUS_GENOBJ-N-CEN_13
1002
{
1000
OWNER
1000
GEN
1002
}
1001
GENIUS_GENCEN_19
1002
{
1040
6.0
1002
}
  0
LINE
  5
8B73D
330
1F
100
AcDbEntity
  8
AM_7
370
     9
100
AcDbLine
 10
941.8188785279165
 20
623.0
 30
0.0
 11
963.3188785279164
 21
623.0
 31
0.0
1001
GENIUS_GENODEF_13
1002
{
1000
HIER
1070
     0
1002
}
1002
{
1000
MANEDIT
1070
     0
1002
}
1002
{
1000
NOSEL
1070
     0
1002
}
1002
{
1000
BEHIND
1070
     0
1002
}
1002
{
1000
OTHER
1070
     0
1002
}
1002
{
1000
REACTOR
1002
}
1001
GENIUS_GENOBJ-N-CEN_13
1002
{
1000
OWNER
1000
GEN
1002
}
1001
GENIUS_GENCEN_19
1002
{
1040
6.0
1002
}
  0
LINE
  5
8B73E
330
1F
100
AcDbEntity
  8
AM_7
370
     9
100
AcDbLine
 10
897.5688785279164
 20
633.75
 30
0.0
 11
897.5688785279164
 21
612.25
 31
0.0
1001
GENIUS_GENODEF_13
1002
{
1000
HIER
1070
     0
1002
}
1002
{
1000
MANEDIT
1070
     0
1002
}
1002
{
1000
NOSEL
1070
     0
1002
}
1002
{
1000
BEHIND
1070
     0
1002
}
1002
{
1000
OTHER
1070
     0
1002
}
1002
{
1000
REACTOR
1002
}
1001
GENIUS_GENOBJ-N-CEN_13
1002
{
1000
OWNER
1000
GEN
1002
}
1001
GENIUS_GENCEN_19
1002
{
1040
6.0
1002
}
  0
LINE
  5
8B73F
330
1F
100
AcDbEntity
  8
AM_7
370
     9
100
AcDbLine
 10
886.8188785279164
 20
623.0
 30
0.0
 11
908.3188785279164
 21
623.0
 31
0.0
1001
GENIUS_GENODEF_13
1002
{
1000
HIER
1070
     0
1002
}
1002
{
1000
MANEDIT
1070
     0
1002
}
1002
{
1000
NOSEL
1070
     0
1002
}
1002
{
1000
BEHIND
1070
     0
1002
}
1002
{
1000
OTHER
1070
     0
1002
}
1002
{
1000
REACTOR
1002
}
1001
GENIUS_GENOBJ-N-CEN_13
1002
{
1000
OWNER
1000
GEN
1002
}
1001
GENIUS_GENCEN_19
1002
{
1040
6.0
1002
}
  0
LINE
  5
8B740
330
1F
100
AcDbEntity
  8
AM_7
370
     9
100
AcDbLine
 10
897.5688785279164
 20
661.7499999999999
 30
0.0
 11
897.5688785279164
 21
640.2499999999999
 31
0.0
1001
GENIUS_GENODEF_13
1002
{
1000
HIER
1070
     0
1002
}
1002
{
1000
MANEDIT
1070
     0
1002
}
1002
{
1000
NOSEL
1070
     0
1002
}
1002
{
1000
BEHIND
1070
     0
1002
}
1002
{
1000
OTHER
1070
     0
1002
}
1002
{
1000
REACTOR
1002
}
1001
GENIUS_GENOBJ-N-CEN_13
1002
{
1000
OWNER
1000
GEN
1002
}
1001
GENIUS_GENCEN_19
1002
{
1040
6.0
1002
}
  0
LINE
  5
8B741
330
1F
100
AcDbEntity
  8
AM_7
370
     9
100
AcDbLine
 10
886.8188785279164
 20
651.0
 30
0.0
 11
908.3188785279164
 21
651.0
 31
0.0
1001
GENIUS_GENODEF_13
1002
{
1000
HIER
1070
     0
1002
}
1002
{
1000
MANEDIT
1070
     0
1002
}
1002
{
1000
NOSEL
1070
     0
1002
}
1002
{
1000
BEHIND
1070
     0
1002
}
1002
{
1000
OTHER
1070
     0
1002
}
1002
{
1000
REACTOR
1002
}
1001
GENIUS_GENOBJ-N-CEN_13
1002
{
1000
OWNER
1000
GEN
1002
}
1001
GENIUS_GENCEN_19
1002
{
1040
6.0
1002
}
  0
DIMENSION
  5
8B742
330
1F
100
AcDbEntity
  8
AM_5
100
AcDbDimension
  2
*D22
 10
987.5688785279164
 20
650.999999999999
 30
0.0
 11
981.3688785279163
 21
636.9999999999996
 31
0.0
 70
    32
  1
Y
 71
     5
 42
27.99999999999909
  3
SYS$0
100
AcDbAlignedDimension
 13
963.3188785279164
 23
623.0
 33
0.0
 14
963.3188785279164
 24
650.999999999999
 34
0.0
 50
90.0
100
AcDbRotatedDimension
1001
ACAD
1000
DSTYLE
1002
{
1070
    40
1040
2.0
1002
}
  0
DIMENSION
  5
8B743
330
1F
100
AcDbEntity
  8
AM_5
100
AcDbDimension
  2
*D23
 10
952.5688785279164
 20
682.0
 30
0.0
 11
925.0688785279164
 21
688.2
 31
0.0
 70
    32
  1
X
 71
     5
 42
55.0
  3
SYS$0
100
AcDbAlignedDimension
 13
897.5688785279164
 23
661.7499999999999
 33
0.0
 14
952.5688785279164
 24
661.749999999999
 34
0.0
100
AcDbRotatedDimension
1001
ACAD
1000
DSTYLE
1002
{
1070
    40
1040
2.0
1002
}
  0
DIMENSION
  5
8B744
330
1F
100
AcDbEntity
  8
AM_5
100
AcDbDimension
  2
*D24
 10
1003.568878527916
 20
666.0
 30
0.0
 11
997.3688785279163
 21
637.0
 31
0.0
 70
    32
  1
B
 71
     5
 42
58.0
  3
SYS$0
100
AcDbAlignedDimension
 13
956.3688785279166
 23
608.0
 33
0.0
 14
956.3688785279166
 24
666.0
 34
0.0
 50
90.0
100
AcDbRotatedDimension
1001
ACAD
1000
DSTYLE
1002
{
1070
    40
1040
2.0
1002
}
  0
DIMENSION
  5
8B745
330
1F
100
AcDbEntity
  8
AM_5
100
AcDbDimension
  2
*D25
 10
967.5688785279165
 20
698.0
 30
0.0
 11
925.0688785279164
 21
704.2
 31
0.0
 70
    32
  1
A
 71
     5
 42
85.0
  3
SYS$0
100
AcDbAlignedDimension
 13
882.5688785279165
 23
654.8000000000001
 33
0.0
 14
967.5688785279165
 24
654.8000000000001
 34
0.0
100
AcDbRotatedDimension
1001
ACAD
1000
DSTYLE
1002
{
1070
    40
1040
2.0
1002
}
  0
ARC
  5
8B746
330
1F
100
AcDbEntity
  8
AM_3
370
     9
100
AcDbCircle
 10
925.0688785279164
 20
495.0
 30
0.0
 40
25.0
100
AcDbArc
 50
14.21539687259132
 51
165.7846069573821
  0
DIMENSION
  5
8B747
330
1F
100
AcDbEntity
  8
AM_5
100
AcDbDimension
  2
*D26
 10
949.2101213172816
 20
647.6412427893628
 30
0.0
 11
980.2022118612738
 21
674.0000000000019
 31
0.0
 70
   163
  1
P
 71
     5
 42
9.500000000000909
  3
SYS$3
100
AcDbDiametricDimension
 15
955.9276357385567
 25
654.3587572106333
 35
0.0
 40
0.0
1001
ACAD
1000
DSTYLE
1002
{
1070
    40
1040
2.0
1070
    41
1040
1.0
1070
   172
1070
     1
1070
   173
1070
     1
1070
   342
1005
0
1070
   343
1005
6C4
1070
   344
1005
6C4
1002
}
  0
DIMENSION
  5
8B749
330
1F
100
AcDbEntity
  8
AM_5
100
AcDbDimension
  2
*D27
 10
987.5688785279164
 20
548.0
 30
0.0
 11
981.3688785279163
 21
509.0000000000001
 31
0.0
 70
    32
  1
H
 71
     5
 42
78.0
  3
SYS$0
100
AcDbAlignedDimension
 13
925.0688785279164
 23
470.0
 33
0.0
 14
963.8688785279166
 24
548.0
 34
0.0
 50
90.0
100
AcDbRotatedDimension
1001
ACAD
1000
DSTYLE
1002
{
1070
    40
1040
2.0
1002
}
  0
LWPOLYLINE
  5
8B74A
330
1F
100
AcDbEntity
  8
AM_0
100
AcDbPolyline
 90
        4
 70
     1
 43
0.0
 10
873.0688785279165
 20
414.0
 10
921.0688785279165
 20
414.0
 10
921.0688785279165
 20
402.0
 10
873.0688785279165
 20
402.0
1001
GENIUS_GENREC_14
1002
{
1000
PYDIR
1011
873.0688785279165
1021
402.0
1031
0.0
1002
}
1002
{
1000
PXDIR
1011
921.0688785279165
1021
414.0
1031
0.0
1002
}
1002
{
1000
PORI
1011
873.0688785279165
1021
414.0
1031
0.0
1002
}
1002
{
1000
PINS
1011
873.0688785279165
1021
414.0
1031
0.0
1002
}
1002
{
1000
PINS2
1011
921.0688785279165
1021
402.0
1031
0.0
1002
}
1002
{
1000
C
1070
     1
1002
}
1001
GENIUS_GENODEF_13
1002
{
1000
HIER
1070
     0
1002
}
1002
{
1000
MANEDIT
1070
     0
1002
}
1002
{
1000
NOSEL
1070
     0
1002
}
1002
{
1000
BEHIND
1070
     0
1002
}
1002
{
1000
OTHER
1070
     0
1002
}
1002
{
1000
REACTOR
1002
}
1001
GENIUS_GENOBJ-N-REC_13
1002
{
1000
OWNER
1000
GEN
1002
}
  0
LWPOLYLINE
  5
8B74B
330
1F
100
AcDbEntity
  8
AM_0
100
AcDbPolyline
 90
        4
 70
     1
 43
0.0
 10
929.0688785279165
 20
434.0
 10
977.0688785279164
 20
434.0
 10
977.0688785279164
 20
422.0
 10
929.0688785279165
 20
422.0
1001
GENIUS_GENREC_14
1002
{
1000
PYDIR
1011
929.0688785279165
1021
422.0
1031
0.0
1002
}
1002
{
1000
PXDIR
1011
977.0688785279164
1021
434.0
1031
0.0
1002
}
1002
{
1000
PORI
1011
929.0688785279165
1021
434.0
1031
0.0
1002
}
1002
{
1000
PINS
1011
929.0688785279165
1021
434.0
1031
0.0
1002
}
1002
{
1000
PINS2
1011
977.0688785279164
1021
422.0
1031
0.0
1002
}
1002
{
1000
C
1070
     1
1002
}
1001
GENIUS_GENODEF_13
1002
{
1000
HIER
1070
     0
1002
}
1002
{
1000
MANEDIT
1070
     0
1002
}
1002
{
1000
NOSEL
1070
     0
1002
}
1002
{
1000
BEHIND
1070
     0
1002
}
1002
{
1000
OTHER
1070
     0
1002
}
1002
{
1000
REACTOR
1002
}
1001
GENIUS_GENOBJ-N-REC_13
1002
{
1000
OWNER
1000
GEN
1002
}
  0
MTEXT
  5
8B74C
330
1F
100
AcDbEntity
  8
AM_6
100
AcDbMText
 10
897.0688785279165
 20
408.0
 30
0.0
 40
6.4
 41
48.0
 71
     5
 72
     5
  1
SUHK-YN
 73
     1
 44
1.0
1001
ACAD
1000
MTEXTBEGIN
1070
    73
1070
     1
1070
    44
1040
1.0
1070
    74
1070
     0
1000
MTEXTEND
  0
MTEXT
  5
8B74D
330
1F
100
AcDbEntity
  8
AM_6
100
AcDbMText
 10
953.0688785279165
 20
428.0
 30
0.0
 40
6.4
 41
48.0
 71
     5
 72
     5
  1
HK-B-MC
 73
     1
 44
1.0
1001
ACAD
1000
MTEXTBEGIN
1070
    73
1070
     1
1070
    44
1040
1.0
1070
    74
1070
     0
1000
MTEXTEND
  0
LWPOLYLINE
  5
8B74E
330
1F
100
AcDbEntity
  8
AM_0
100
AcDbPolyline
 90
        4
 70
     1
 43
0.0
 10
873.0688785279165
 20
434.0
 10
921.0688785279165
 20
434.0
 10
921.0688785279165
 20
422.0
 10
873.0688785279165
 20
422.0
1001
GENIUS_GENREC_14
1002
{
1000
PYDIR
1011
873.0688785279165
1021
422.0
1031
0.0
1002
}
1002
{
1000
PXDIR
1011
921.0688785279165
1021
434.0
1031
0.0
1002
}
1002
{
1000
PORI
1011
873.0688785279165
1021
434.0
1031
0.0
1002
}
1002
{
1000
PINS
1011
873.0688785279165
1021
434.0
1031
0.0
1002
}
1002
{
1000
PINS2
1011
921.0688785279165
1021
422.0
1031
0.0
1002
}
1002
{
1000
C
1070
     1
1002
}
1001
GENIUS_GENODEF_13
1002
{
1000
HIER
1070
     0
1002
}
1002
{
1000
MANEDIT
1070
     0
1002
}
1002
{
1000
NOSEL
1070
     0
1002
}
1002
{
1000
BEHIND
1070
     0
1002
}
1002
{
1000
OTHER
1070
     0
1002
}
1002
{
1000
REACTOR
1002
}
1001
GENIUS_GENOBJ-N-REC_13
1002
{
1000
OWNER
1000
GEN
1002
}
  0
MTEXT
  5
8B74F
330
1F
100
AcDbEntity
  8
AM_6
100
AcDbMText
 10
897.0688785279165
 20
428.0
 30
0.0
 40
6.4
 41
48.0
 71
     5
 72
     5
  1
HK-U-YN
 73
     1
 44
1.0
1001
ACAD
1000
MTEXTBEGIN
1070
    73
1070
     1
1070
    44
1040
1.0
1070
    74
1070
     0
1000
MTEXTEND
  0
LWPOLYLINE
  5
8B750
330
1F
100
AcDbEntity
  8
AM_0
100
AcDbPolyline
 90
        4
 70
     1
 43
0.0
 10
929.0688785279165
 20
414.0
 10
977.0688785279164
 20
414.0
 10
977.0688785279164
 20
402.0
 10
929.0688785279165
 20
402.0
1001
GENIUS_GENREC_14
1002
{
1000
PYDIR
1011
929.0688785279165
1021
402.0
1031
0.0
1002
}
1002
{
1000
PXDIR
1011
977.0688785279164
1021
414.0
1031
0.0
1002
}
1002
{
1000
PORI
1011
929.0688785279165
1021
414.0
1031
0.0
1002
}
1002
{
1000
PINS
1011
929.0688785279165
1021
414.0
1031
0.0
1002
}
1002
{
1000
PINS2
1011
977.0688785279164
1021
402.0
1031
0.0
1002
}
1002
{
1000
C
1070
     1
1002
}
1001
GENIUS_GENODEF_13
1002
{
1000
HIER
1070
     0
1002
}
1002
{
1000
MANEDIT
1070
     0
1002
}
1002
{
1000
NOSEL
1070
     0
1002
}
1002
{
1000
BEHIND
1070
     0
1002
}
1002
{
1000
OTHER
1070
     0
1002
}
1002
{
1000
REACTOR
1002
}
1001
GENIUS_GENOBJ-N-REC_13
1002
{
1000
OWNER
1000
GEN
1002
}
  0
MTEXT
  5
8B751
330
1F
100
AcDbEntity
  8
AM_6
100
AcDbMText
 10
953.0688785279165
 20
408.0
 30
0.0
 40
6.4
 41
48.0
 71
     5
 72
     5
  1
SUHK-YN
 73
     1
 44
1.0
1001
ACAD
1000
MTEXTBEGIN
1070
    73
1070
     1
1070
    44
1040
1.0
1070
    74
1070
     0
1000
MTEXTEND
  0
DIMENSION
  5
8B752
330
1F
100
AcDbEntity
  8
AM_5
100
AcDbDimension
  2
*D28
 10
373.496182231768
 20
510.0964421998887
 30
0.0
 11
315.9355451945773
 21
469.9999999999981
 31
0.0
 70
   163
  1
D
 71
     5
 42
49.9999999999992
  3
SYS$3
100
AcDbDiametricDimension
 15
333.6415748240677
 25
479.9035578001166
 35
0.0
 40
0.0
1001
ACAD
1000
DSTYLE
1002
{
1070
    40
1040
2.0
1070
    41
1040
1.0
1070
   172
1070
     1
1070
   173
1070
     1
1070
   342
1005
0
1070
   343
1005
6C4
1070
   344
1005
6C4
1002
}
  0
DIMENSION
  5
8B753
330
1F
100
AcDbEntity
  8
AM_5
100
AcDbDimension
  2
*D29
 10
665.4961822317686
 20
510.0964421998851
 30
0.0
 11
607.9355451945783
 21
469.999999999999
 31
0.0
 70
   163
  1
D
 71
     5
 42
49.99999999999636
  3
SYS$3
100
AcDbDiametricDimension
 15
625.6415748240697
 25
479.9035578001158
 35
0.0
 40
0.0
1001
ACAD
1000
DSTYLE
1002
{
1070
    40
1040
2.0
1070
    41
1040
1.0
1070
   172
1070
     1
1070
   173
1070
     1
1070
   342
1005
0
1070
   343
1005
6C4
1070
   344
1005
6C4
1002
}
  0
DIMENSION
  5
8B754
330
1F
100
AcDbEntity
  8
AM_5
100
AcDbDimension
  2
*D30
 10
944.9961822317664
 20
510.0964421998888
 30
0.0
 11
887.4355451945801
 21
470.0000000000027
 31
0.0
 70
   163
  1
D
 71
     5
 42
49.99999999999727
  3
SYS$3
100
AcDbDiametricDimension
 15
905.1415748240685
 25
479.9035578001167
 35
0.0
 40
0.0
1001
ACAD
1000
DSTYLE
1002
{
1070
    40
1040
2.0
1070
    41
1040
1.0
1070
   172
1070
     1
1070
   173
1070
     1
1070
   342
1005
0
1070
   343
1005
6C4
1070
   344
1005
6C4
1002
}
  0
MTEXT
  5
953E6
330
1F
100
AcDbEntity
  8
AM_6
100
AcDbMText
 10
262.9999999998081
 20
312.9999999984812
 30
0.0
 40
6.4
 41
32.0
 71
     5
 72
     5
  1
D
 73
     1
 44
1.0
1001
ACAD
1000
MTEXTBEGIN
1070
    73
1070
     1
1070
    44
1040
1.0
1070
    74
1070
     0
1000
MTEXTEND
  0
MTEXT
  5
953E7
330
1F
100
AcDbEntity
  8
AM_6
100
AcDbMText
 10
294.9999999998081
 20
312.9999999983775
 30
0.0
 40
6.4
 41
32.0
 71
     5
 72
     5
  1
W
 73
     1
 44
1.0
1001
ACAD
1000
MTEXTBEGIN
1070
    73
1070
     1
1070
    44
1040
1.0
1070
    74
1070
     0
1000
MTEXTEND
  0
MTEXT
  5
953E8
330
1F
100
AcDbEntity
  8
AM_6
100
AcDbMText
 10
370.9999999998081
 20
312.9999999984093
 30
0.0
 40
6.4
 41
24.0
 71
     5
 72
     5
  1
H
 73
     1
 44
1.0
1001
ACAD
1000
MTEXTBEGIN
1070
    73
1070
     1
1070
    44
1040
1.0
1070
    74
1070
     0
1000
MTEXTEND
  0
LINE
  5
953EA
330
1F
100
AcDbEntity
  8
AM_5
100
AcDbLine
 10
382.9999999998108
 20
336.9999999986403
 30
0.0
 11
382.9999999998099
 21
16.99999999999909
 31
0.0
  0
LINE
  5
953EC
330
1F
100
AcDbEntity
  8
AM_0
100
AcDbLine
 10
22.99999999973079
 20
304.9999999985784
 30
0.0
 11
526.9999999998102
 21
304.9999999985803
 31
0.0
  0
LINE
  5
953ED
330
1F
100
AcDbEntity
  8
AM_0
100
AcDbLine
 10
22.9999999998663
 20
112.9999999993606
 30
0.0
 11
526.9999999998105
 21
112.9999999993597
 31
0.0
  0
LINE
  5
953EE
330
1F
100
AcDbEntity
  8
AM_5
100
AcDbLine
 10
246.9999999998108
 20
208.999999998583
 30
0.0
 11
246.9999999998104
 21
336.9999999985866
 31
0.0
  0
LINE
  5
953EF
330
1F
100
AcDbEntity
  8
AM_5
100
AcDbLine
 10
278.9999999998104
 20
336.9999999985994
 30
0.0
 11
278.9999999998104
 21
17.0
 31
0.0
  0
LINE
  5
953F0
330
1F
100
AcDbEntity
  8
AM_5
100
AcDbLine
 10
310.9999999998108
 20
336.9999999986112
 30
0.0
 11
310.999999999809
 21
17.0
 31
0.0
  0
LINE
  5
953F1
330
1F
100
AcDbEntity
  8
AM_5
100
AcDbLine
 10
54.99999999973579
 20
240.999999998673
 30
0.0
 11
526.9999999998102
 21
240.9999999986721
 31
0.0
  0
MTEXT
  5
953F2
330
1F
100
AcDbEntity
  8
AM_6
100
AcDbMText
 10
262.9999999998108
 20
272.9999999985794
 30
0.0
 40
6.4
 41
32.0
 71
     5
 72
     5
  1
50
 73
     1
 44
1.0
1001
ACAD
1000
MTEXTBEGIN
1070
    73
1070
     1
1070
    44
1040
1.0
1070
    74
1070
     0
1000
MTEXTEND
  0
MTEXT
  5
953F3
330
1F
100
AcDbEntity
  8
AM_6
100
AcDbMText
 10
262.9999999998108
 20
208.999999998673
 30
0.0
 40
6.4
 41
32.0
 71
     5
 72
     5
  1
65
 73
     1
 44
1.0
1001
ACAD
1000
MTEXTBEGIN
1070
    73
1070
     1
1070
    44
1040
1.0
1070
    74
1070
     0
1000
MTEXTEND
  0
LINE
  5
953F5
330
1F
100
AcDbEntity
  8
AM_5
100
AcDbLine
 10
247.0000000002729
 20
17.0
 30
0.0
 11
246.9999999997076
 21
336.9999999985866
 31
0.0
  0
MTEXT
  5
953F7
330
1F
100
AcDbEntity
  8
AM_6
100
AcDbMText
 10
262.9999999998081
 20
328.9999999985503
 30
0.0
 40
6.4
 41
32.0
 71
     5
 72
     5
  1
車輪サイズ
 73
     1
 44
1.0
1001
ACAD
1000
MTEXTBEGIN
1070
    73
1070
     1
1070
    44
1040
1.0
1070
    74
1070
     0
1000
MTEXTEND
  0
MTEXT
  5
953F8
330
1F
100
AcDbEntity
  8
AM_6
100
AcDbMText
 10
294.9999999998081
 20
328.9999999984466
 30
0.0
 40
6.4
 41
32.0
 71
     5
 72
     5
  1
タイヤ幅
 73
     1
 44
1.0
1001
ACAD
1000
MTEXTBEGIN
1070
    73
1070
     1
1070
    44
1040
1.0
1070
    74
1070
     0
1000
MTEXTEND
  0
MTEXT
  5
953F9
330
1F
100
AcDbEntity
  8
AM_6
100
AcDbMText
 10
370.9999999998081
 20
328.9999999984784
 30
0.0
 40
6.4
 41
24.0
 71
     5
 72
     5
  1
高さ
 73
     1
 44
1.0
1001
ACAD
1000
MTEXTBEGIN
1070
    73
1070
     1
1070
    44
1040
1.0
1070
    74
1070
     0
1000
MTEXTEND
  0
MTEXT
  5
953FA
330
1F
100
AcDbEntity
  8
AM_6
100
AcDbMText
 10
402.9999999998016
 20
320.9999999985466
 30
0.0
 40
6.4
 41
40.0
 71
     5
 72
     5
  1
X  × Y
 73
     1
 44
1.0
1001
ACAD
1000
MTEXTBEGIN
1070
    73
1070
     1
1070
    44
1040
1.0
1070
    74
1070
     0
1000
MTEXTEND
  0
LINE
  5
953FB
330
1F
100
AcDbEntity
  8
AM_5
100
AcDbLine
 10
422.9999999998108
 20
336.9999999986557
 30
0.0
 11
422.9999999998098
 21
16.99999999999909
 31
0.0
  0
MTEXT
  5
953FC
330
1F
100
AcDbEntity
  8
AM_6
100
AcDbMText
 10
402.9999999998016
 20
330.9999999985466
 30
0.0
 40
6.4
 41
40.0
 71
     5
 72
     5
  1
取付孔ピッチ
 73
     1
 44
1.0
1001
ACAD
1000
MTEXTBEGIN
1070
    73
1070
     1
1070
    44
1040
1.0
1070
    74
1070
     0
1000
MTEXTEND
  0
MTEXT
  5
953FD
330
1F
100
AcDbEntity
  8
AM_6
100
AcDbMText
 10
442.9999999998082
 20
312.9999999984602
 30
0.0
 40
6.4
 41
40.0
 71
     5
 72
     5
  1
A  × B
 73
     1
 44
1.0
1001
ACAD
1000
MTEXTBEGIN
1070
    73
1070
     1
1070
    44
1040
1.0
1070
    74
1070
     0
1000
MTEXTEND
  0
LINE
  5
953FE
330
1F
100
AcDbEntity
  8
AM_5
100
AcDbLine
 10
462.9999999998114
 20
336.9999999986721
 30
0.0
 11
462.9999999998089
 21
16.99999999999909
 31
0.0
  0
MTEXT
  5
953FF
330
1F
100
AcDbEntity
  8
AM_6
100
AcDbMText
 10
442.9999999998082
 20
328.9999999985294
 30
0.0
 40
6.4
 41
40.0
 71
     5
 72
     5
  1
取付座寸法
 73
     1
 44
1.0
1001
ACAD
1000
MTEXTBEGIN
1070
    73
1070
     1
1070
    44
1040
1.0
1070
    74
1070
     0
1000
MTEXTEND
  0
LINE
  5
95400
330
1F
100
AcDbEntity
  8
AM_5
100
AcDbLine
 10
502.9999999998103
 20
336.9999999986867
 30
0.0
 11
502.999999999812
 21
17.0
 31
0.0
  0
MTEXT
  5
95402
330
1F
100
AcDbEntity
  8
AM_6
100
AcDbMText
 10
514.9999999998128
 20
312.9999999984093
 30
0.0
 40
6.4
 41
24.00000000000864
 71
     5
 72
     5
  1
E
 73
     1
 44
1.0
1001
ACAD
1000
MTEXTBEGIN
1070
    73
1070
     1
1070
    44
1040
1.0
1070
    74
1070
     0
1000
MTEXTEND
  0
LINE
  5
95403
330
1F
100
AcDbEntity
  8
AM_0
100
AcDbLine
 10
526.9999999998105
 20
336.9999999986967
 30
0.0
 11
526.9999999998106
 21
17.00000000000091
 31
0.0
  0
MTEXT
  5
95404
330
1F
100
AcDbEntity
  8
AM_6
100
AcDbMText
 10
514.9999999998368
 20
208.9999999987049
 30
0.0
 40
6.4
 41
24.0
 71
     5
 72
     5
  1
22
 73
     1
 44
1.0
1001
ACAD
1000
MTEXTBEGIN
1070
    73
1070
     1
1070
    44
1040
1.0
1070
    74
1070
     0
1000
MTEXTEND
  0
MTEXT
  5
95405
330
1F
100
AcDbEntity
  8
AM_6
100
AcDbMText
 10
514.9999999998081
 20
328.9999999984784
 30
0.0
 40
6.4
 41
24.0
 71
     5
 72
     5
  1
偏芯
 73
     1
 44
1.0
1001
ACAD
1000
MTEXTBEGIN
1070
    73
1070
     1
1070
    44
1040
1.0
1070
    74
1070
     0
1000
MTEXTEND
  0
MTEXT
  5
95406
330
1F
100
AcDbEntity
  8
AM_6
100
AcDbMText
 10
322.9999999998049
 20
312.9999999985785
 30
0.0
 40
6.4
 41
24.0
 71
     5
 72
     5
  1
N
 73
     1
 44
1.0
1001
ACAD
1000
MTEXTBEGIN
1070
    73
1070
     1
1070
    44
1040
1.0
1070
    74
1070
     0
1000
MTEXTEND
  0
MTEXT
  5
95407
330
1F
100
AcDbEntity
  8
AM_6
100
AcDbMText
 10
346.9999999998049
 20
312.9999999985785
 30
0.0
 40
6.4
 41
24.0
 71
     5
 72
     5
  1
kgf
 73
     1
 44
1.0
1001
ACAD
1000
MTEXTBEGIN
1070
    73
1070
     1
1070
    44
1040
1.0
1070
    74
1070
     0
1000
MTEXTEND
  0
LINE
  5
95408
330
1F
100
AcDbEntity
  8
AM_5
100
AcDbLine
 10
334.9999999998086
 20
320.9999999985366
 30
0.0
 11
334.9999999998145
 21
17.0
 31
0.0
  0
LINE
  5
95409
330
1F
100
AcDbEntity
  8
AM_5
100
AcDbLine
 10
358.9999999998108
 20
336.9999999986303
 30
0.0
 11
358.9999999998104
 21
17.0
 31
0.0
  0
MTEXT
  5
9540A
330
1F
100
AcDbEntity
  8
AM_6
100
AcDbMText
 10
322.9999999998108
 20
208.999999998673
 30
0.0
 40
6.4
 41
24.0
 71
     5
 72
     5
  1
3920
 73
     1
 44
1.0
1001
ACAD
1000
MTEXTBEGIN
1070
    73
1070
     1
1070
    44
1040
1.0
1070
    74
1070
     0
1000
MTEXTEND
  0
MTEXT
  5
9540B
330
1F
100
AcDbEntity
  8
AM_6
100
AcDbMText
 10
334.9999999998058
 20
328.9999999986694
 30
0.0
 40
6.4
 41
47.99999999999147
 71
     5
 72
     5
  1
最大荷重（1ヶ）
 73
     1
 44
1.0
1001
ACAD
1000
MTEXTBEGIN
1070
    73
1070
     1
1070
    44
1040
1.0
1070
    74
1070
     0
1000
MTEXTEND
  0
MTEXT
  5
9540C
330
1F
100
AcDbEntity
  8
AM_6
100
AcDbMText
 10
346.9999999998108
 20
208.999999998673
 30
0.0
 40
6.4
 41
24.0
 71
     5
 72
     5
  1
400
 73
     1
 44
1.0
1001
ACAD
1000
MTEXTBEGIN
1070
    73
1070
     1
1070
    44
1040
1.0
1070
    74
1070
     0
1000
MTEXTEND
  0
LINE
  5
9540D
330
1F
100
AcDbEntity
  8
AM_5
100
AcDbLine
 10
260.9999999998017
 20
336.9999999985666
 30
0.0
 11
308.9999999998017
 21
336.9999999985666
 31
0.0
  0
LINE
  5
9540E
330
1F
100
AcDbEntity
  8
AM_5
100
AcDbLine
 10
54.99999999981127
 20
176.9999999990996
 30
0.0
 11
382.9999999998108
 21
176.9999999990978
 31
0.0
  0
LINE
  5
9540F
330
1F
100
AcDbEntity
  8
AM_5
100
AcDbLine
 10
502.9999999998668
 20
176.9999999990987
 30
0.0
 11
526.9999999998669
 21
176.9999999990987
 31
0.0
  0
MTEXT
  5
95410
330
1F
100
AcDbEntity
  8
AM_6
100
AcDbMText
 10
262.9999999998672
 20
144.9999999990987
 30
0.0
 40
6.4
 41
32.0
 71
     5
 72
     5
  1
75
 73
     1
 44
1.0
1001
ACAD
1000
MTEXTBEGIN
1070
    73
1070
     1
1070
    44
1040
1.0
1070
    74
1070
     0
1000
MTEXTEND
  0
LINE
  5
95414
330
1F
100
AcDbEntity
  8
AM_5
100
AcDbLine
 10
183.0000000002201
 20
17.0
 30
0.0
 11
182.9999999996917
 21
336.9999999985621
 31
0.0
  0
LINE
  5
95415
330
1F
100
AcDbEntity
  8
AM_5
100
AcDbLine
 10
54.99999999969714
 20
320.9999999984257
 30
0.0
 11
182.999999999718
 21
320.9999999984757
 31
0.0
  0
MTEXT
  5
95418
330
1F
100
AcDbEntity
  8
AM_6
100
AcDbMText
 10
150.9999999998322
 20
288.9999999986576
 30
0.0
 40
6.4
 41
64.0
 71
     5
 72
     5
  1
SUHJ-50-YN
 73
     1
 44
1.0
1001
ACAD
1000
MTEXTBEGIN
1070
    73
1070
     1
1070
    44
1040
1.0
1070
    74
1070
     0
1000
MTEXTEND
  0
MTEXT
  5
95419
330
1F
100
AcDbEntity
  8
AM_6
100
AcDbMText
 10
150.9999999998304
 20
224.9999999987977
 30
0.0
 40
6.4
 41
64.0
 71
     5
 72
     5
  1
SUHJ-65-YN
 73
     1
 44
1.0
1001
ACAD
1000
MTEXTBEGIN
1070
    73
1070
     1
1070
    44
1040
1.0
1070
    74
1070
     0
1000
MTEXTEND
  0
MTEXT
  5
9541A
330
1F
100
AcDbEntity
  8
AM_6
100
AcDbMText
 10
150.9999999999231
 20
160.9999999987967
 30
0.0
 40
6.4
 41
64.0
 71
     5
 72
     5
  1
SUHJ-75-YN
 73
     1
 44
1.0
1001
ACAD
1000
MTEXTBEGIN
1070
    73
1070
     1
1070
    44
1040
1.0
1070
    74
1070
     0
1000
MTEXTEND
  0
MTEXT
  5
9541B
330
1F
100
AcDbEntity
  8
AM_6
100
AcDbMText
 10
150.999999999874
 20
256.9999999989959
 30
0.0
 40
6.4
 41
64.0
 71
     5
 72
     5
  1
SUHJ-50-MC
 73
     1
 44
1.0
1001
ACAD
1000
MTEXTBEGIN
1070
    73
1070
     1
1070
    44
1040
1.0
1070
    74
1070
     0
1000
MTEXTEND
  0
MTEXT
  5
9541C
330
1F
100
AcDbEntity
  8
AM_6
100
AcDbMText
 10
150.9999999999613
 20
192.9999999991359
 30
0.0
 40
6.4
 41
64.0
 71
     5
 72
     5
  1
SUHJ-65-MC
 73
     1
 44
1.0
1001
ACAD
1000
MTEXTBEGIN
1070
    73
1070
     1
1070
    44
1040
1.0
1070
    74
1070
     0
1000
MTEXTEND
  0
MTEXT
  5
9541D
330
1F
100
AcDbEntity
  8
AM_6
100
AcDbMText
 10
151.0000000000923
 20
128.9999999998326
 30
0.0
 40
6.4
 41
64.0
 71
     5
 72
     5
  1
SUHJ-75-MC
 73
     1
 44
1.0
1001
ACAD
1000
MTEXTBEGIN
1070
    73
1070
     1
1070
    44
1040
1.0
1070
    74
1070
     0
1000
MTEXTEND
  0
LINE
  5
9541E
330
1F
100
AcDbEntity
  8
AM_0
100
AcDbLine
 10
23.0
 20
17.0
 30
0.0
 11
526.9999999998102
 21
17.0
 31
0.0
  0
MTEXT
  5
95423
330
1F
100
AcDbEntity
  8
AM_6
100
AcDbMText
 10
483.0000000002216
 20
49.00000000003456
 30
0.0
 40
6.4
 41
40.0
 71
     5
 72
     5
  1
10.5
 73
     1
 44
1.0
1001
ACAD
1000
MTEXTBEGIN
1070
    73
1070
     1
1070
    44
1040
1.0
1070
    74
1070
     0
1000
MTEXTEND
  0
MTEXT
  5
95425
330
1F
100
AcDbEntity
  8
AM_6
100
AcDbMText
 10
151.0000000000759
 20
104.9999999994397
 30
0.0
 40
6.4
 41
64.0
 71
     5
 72
     5
  1
SUHK-50-YN
 73
     1
 44
1.0
1001
ACAD
1000
MTEXTBEGIN
1070
    73
1070
     1
1070
    44
1040
1.0
1070
    74
1070
     0
1000
MTEXTEND
  0
MTEXT
  5
95427
330
1F
100
AcDbEntity
  8
AM_6
100
AcDbMText
 10
151.0000000001514
 20
72.99999999944976
 30
0.0
 40
6.4
 41
64.0
 71
     5
 72
     5
  1
SUHK-65-YN
 73
     1
 44
1.0
1001
ACAD
1000
MTEXTBEGIN
1070
    73
1070
     1
1070
    44
1040
1.0
1070
    74
1070
     0
1000
MTEXTEND
  0
MTEXT
  5
95429
330
1F
100
AcDbEntity
  8
AM_6
100
AcDbMText
 10
151.0000000002183
 20
40.99999999951251
 30
0.0
 40
6.4
 41
64.0
 71
     5
 72
     5
  1
SUHK-75-YN
 73
     1
 44
1.0
1001
ACAD
1000
MTEXTBEGIN
1070
    73
1070
     1
1070
    44
1040
1.0
1070
    74
1070
     0
1000
MTEXTEND
  0
MTEXT
  5
9542B
330
1F
100
AcDbEntity
  8
AM_6
100
AcDbMText
 10
151.0000000001678
 20
88.99999999919691
 30
0.0
 40
6.4
 41
64.0
 71
     5
 72
     5
  1
SUHK-50-MC
 73
     1
 44
1.0
1001
ACAD
1000
MTEXTBEGIN
1070
    73
1070
     1
1070
    44
1040
1.0
1070
    74
1070
     0
1000
MTEXTEND
  0
MTEXT
  5
9542D
330
1F
100
AcDbEntity
  8
AM_6
100
AcDbMText
 10
151.0000000002856
 20
57.00000000012278
 30
0.0
 40
6.4
 41
64.0
 71
     5
 72
     5
  1
SUHK-65-MC
 73
     1
 44
1.0
1001
ACAD
1000
MTEXTBEGIN
1070
    73
1070
     1
1070
    44
1040
1.0
1070
    74
1070
     0
1000
MTEXTEND
  0
MTEXT
  5
9542F
330
1F
100
AcDbEntity
  8
AM_6
100
AcDbMText
 10
151.000000000336
 20
24.99999999929424
 30
0.0
 40
6.4
 41
64.0
 71
     5
 72
     5
  1
SUHK-75-MC
 73
     1
 44
1.0
1001
ACAD
1000
MTEXTBEGIN
1070
    73
1070
     1
1070
    44
1040
1.0
1070
    74
1070
     0
1000
MTEXTEND
  0
LINE
  5
95430
330
1F
100
AcDbEntity
  8
AM_0
100
AcDbLine
 10
22.99999999972988
 20
17.0
 30
0.0
 11
22.99999999973033
 21
336.9999999984984
 31
0.0
  0
MTEXT
  5
95431
330
1F
100
AcDbEntity
  8
AM_6
100
AcDbMText
 10
38.99999999973033
 20
208.9999999990114
 30
0.0
 40
6.4
 41
32.0
 71
     5
 72
     5
  1
自在
 73
     1
 44
1.0
1001
ACAD
1000
MTEXTBEGIN
1070
    73
1070
     1
1070
    44
1040
1.0
1070
    74
1070
     0
1000
MTEXTEND
  0
MTEXT
  5
95432
330
1F
100
AcDbEntity
  8
AM_6
100
AcDbMText
 10
39.00000000011505
 20
64.99999999980537
 30
0.0
 40
6.4
 41
32.0
 71
     5
 72
     5
  1
固定
 73
     1
 44
1.0
1001
ACAD
1000
MTEXTBEGIN
1070
    73
1070
     1
1070
    44
1040
1.0
1070
    74
1070
     0
1000
MTEXTEND
  0
MTEXT
  5
95433
330
1F
100
AcDbEntity
  8
AM_6
100
AcDbMText
 10
514.9999999998932
 20
144.9999999991578
 30
0.0
 40
6.4
 41
24.0
 71
     5
 72
     5
  1
25
 73
     1
 44
1.0
1001
ACAD
1000
MTEXTBEGIN
1070
    73
1070
     1
1070
    44
1040
1.0
1070
    74
1070
     0
1000
MTEXTEND
  0
MTEXT
  5
95434
330
1F
100
AcDbEntity
  8
AM_6
100
AcDbMText
 10
514.9999999998377
 20
272.9999999985657
 30
0.0
 40
6.4
 41
24.0
 71
     5
 72
     5
  1
18
 73
     1
 44
1.0
1001
ACAD
1000
MTEXTBEGIN
1070
    73
1070
     1
1070
    44
1040
1.0
1070
    74
1070
     0
1000
MTEXTEND
  0
MTEXT
  5
95435
330
1F
100
AcDbEntity
  8
AM_6
100
AcDbMText
 10
262.9999999999463
 20
96.99999999935972
 30
0.0
 40
6.4
 41
32.0
 71
     5
 72
     5
  1
50
 73
     1
 44
1.0
1001
ACAD
1000
MTEXTBEGIN
1070
    73
1070
     1
1070
    44
1040
1.0
1070
    74
1070
     0
1000
MTEXTEND
  0
MTEXT
  5
95436
330
1F
100
AcDbEntity
  8
AM_6
100
AcDbMText
 10
263.0000000000801
 20
64.99999999966167
 30
0.0
 40
6.4
 41
32.0
 71
     5
 72
     5
  1
65
 73
     1
 44
1.0
1001
ACAD
1000
MTEXTBEGIN
1070
    73
1070
     1
1070
    44
1040
1.0
1070
    74
1070
     0
1000
MTEXTEND
  0
MTEXT
  5
95437
330
1F
100
AcDbEntity
  8
AM_6
100
AcDbMText
 10
263.0000000000801
 20
32.99999999970714
 30
0.0
 40
6.4
 41
32.0
 71
     5
 72
     5
  1
75
 73
     1
 44
1.0
1001
ACAD
1000
MTEXTBEGIN
1070
    73
1070
     1
1070
    44
1040
1.0
1070
    74
1070
     0
1000
MTEXTEND
  0
MTEXT
  5
95438
330
1F
100
AcDbEntity
  8
AM_6
100
AcDbMText
 10
294.9999999998508
 20
272.9999999985794
 30
0.0
 40
6.4
 41
32.0
 71
     5
 72
     5
  1
32.5
 73
     1
 44
1.0
1001
ACAD
1000
MTEXTBEGIN
1070
    73
1070
     1
1070
    44
1040
1.0
1070
    74
1070
     0
1000
MTEXTEND
  0
MTEXT
  5
95439
330
1F
100
AcDbEntity
  8
AM_6
100
AcDbMText
 10
294.9999999998508
 20
208.999999998673
 30
0.0
 40
6.4
 41
32.0
 71
     5
 72
     5
  1
36
 73
     1
 44
1.0
1001
ACAD
1000
MTEXTBEGIN
1070
    73
1070
     1
1070
    44
1040
1.0
1070
    74
1070
     0
1000
MTEXTEND
  0
MTEXT
  5
9543A
330
1F
100
AcDbEntity
  8
AM_6
100
AcDbMText
 10
294.9999999999072
 20
144.9999999990987
 30
0.0
 40
6.4
 41
32.0
 71
     5
 72
     5
  1
39
 73
     1
 44
1.0
1001
ACAD
1000
MTEXTBEGIN
1070
    73
1070
     1
1070
    44
1040
1.0
1070
    74
1070
     0
1000
MTEXTEND
  0
MTEXT
  5
9543B
330
1F
100
AcDbEntity
  8
AM_6
100
AcDbMText
 10
294.9999999999864
 20
96.99999999935972
 30
0.0
 40
6.4
 41
32.0
 71
     5
 72
     5
  1
32.5
 73
     1
 44
1.0
1001
ACAD
1000
MTEXTBEGIN
1070
    73
1070
     1
1070
    44
1040
1.0
1070
    74
1070
     0
1000
MTEXTEND
  0
MTEXT
  5
9543C
330
1F
100
AcDbEntity
  8
AM_6
100
AcDbMText
 10
295.00000000012
 20
64.99999999966167
 30
0.0
 40
6.4
 41
32.0
 71
     5
 72
     5
  1
36
 73
     1
 44
1.0
1001
ACAD
1000
MTEXTBEGIN
1070
    73
1070
     1
1070
    44
1040
1.0
1070
    74
1070
     0
1000
MTEXTEND
  0
MTEXT
  5
9543D
330
1F
100
AcDbEntity
  8
AM_6
100
AcDbMText
 10
295.00000000012
 20
32.99999999970714
 30
0.0
 40
6.4
 41
32.0
 71
     5
 72
     5
  1
39
 73
     1
 44
1.0
1001
ACAD
1000
MTEXTBEGIN
1070
    73
1070
     1
1070
    44
1040
1.0
1070
    74
1070
     0
1000
MTEXTEND
  0
MTEXT
  5
9543E
330
1F
100
AcDbEntity
  8
AM_6
100
AcDbMText
 10
370.9999999998367
 20
208.9999999987049
 30
0.0
 40
6.4
 41
24.0
 71
     5
 72
     5
  1
96.5
 73
     1
 44
1.0
1001
ACAD
1000
MTEXTBEGIN
1070
    73
1070
     1
1070
    44
1040
1.0
1070
    74
1070
     0
1000
MTEXTEND
  0
MTEXT
  5
9543F
330
1F
100
AcDbEntity
  8
AM_6
100
AcDbMText
 10
370.9999999998931
 20
144.9999999991578
 30
0.0
 40
6.4
 41
24.0
 71
     5
 72
     5
  1
108
 73
     1
 44
1.0
1001
ACAD
1000
MTEXTBEGIN
1070
    73
1070
     1
1070
    44
1040
1.0
1070
    74
1070
     0
1000
MTEXTEND
  0
MTEXT
  5
95440
330
1F
100
AcDbEntity
  8
AM_6
100
AcDbMText
 10
370.9999999998377
 20
272.9999999985657
 30
0.0
 40
6.4
 41
24.0
 71
     5
 72
     5
  1
78
 73
     1
 44
1.0
1001
ACAD
1000
MTEXTBEGIN
1070
    73
1070
     1
1070
    44
1040
1.0
1070
    74
1070
     0
1000
MTEXTEND
  0
MTEXT
  5
95441
330
1F
100
AcDbEntity
  8
AM_6
100
AcDbMText
 10
371.000000000106
 20
64.9999999996935
 30
0.0
 40
6.4
 41
24.0
 71
     5
 72
     5
  1
96.5
 73
     1
 44
1.0
1001
ACAD
1000
MTEXTBEGIN
1070
    73
1070
     1
1070
    44
1040
1.0
1070
    74
1070
     0
1000
MTEXTEND
  0
MTEXT
  5
95442
330
1F
100
AcDbEntity
  8
AM_6
100
AcDbMText
 10
371.000000000106
 20
32.99999999976626
 30
0.0
 40
6.4
 41
24.0
 71
     5
 72
     5
  1
108
 73
     1
 44
1.0
1001
ACAD
1000
MTEXTBEGIN
1070
    73
1070
     1
1070
    44
1040
1.0
1070
    74
1070
     0
1000
MTEXTEND
  0
MTEXT
  5
95443
330
1F
100
AcDbEntity
  8
AM_6
100
AcDbMText
 10
370.9999999999732
 20
96.99999999934608
 30
0.0
 40
6.4
 41
24.0
 71
     5
 72
     5
  1
78
 73
     1
 44
1.0
1001
ACAD
1000
MTEXTBEGIN
1070
    73
1070
     1
1070
    44
1040
1.0
1070
    74
1070
     0
1000
MTEXTEND
  0
MTEXT
  5
95444
330
1F
100
AcDbEntity
  8
AM_6
100
AcDbMText
 10
322.9999999998108
 20
272.9999999985803
 30
0.0
 40
6.4
 41
24.0
 71
     5
 72
     5
  1
2940
 73
     1
 44
1.0
1001
ACAD
1000
MTEXTBEGIN
1070
    73
1070
     1
1070
    44
1040
1.0
1070
    74
1070
     0
1000
MTEXTEND
  0
MTEXT
  5
95445
330
1F
100
AcDbEntity
  8
AM_6
100
AcDbMText
 10
346.9999999998108
 20
272.9999999985803
 30
0.0
 40
6.4
 41
24.0
 71
     5
 72
     5
  1
300
 73
     1
 44
1.0
1001
ACAD
1000
MTEXTBEGIN
1070
    73
1070
     1
1070
    44
1040
1.0
1070
    74
1070
     0
1000
MTEXTEND
  0
MTEXT
  5
95446
330
1F
100
AcDbEntity
  8
AM_6
100
AcDbMText
 10
322.9999999998672
 20
144.9999999990987
 30
0.0
 40
6.4
 41
24.0
 71
     5
 72
     5
  1
4900
 73
     1
 44
1.0
1001
ACAD
1000
MTEXTBEGIN
1070
    73
1070
     1
1070
    44
1040
1.0
1070
    74
1070
     0
1000
MTEXTEND
  0
MTEXT
  5
95447
330
1F
100
AcDbEntity
  8
AM_6
100
AcDbMText
 10
346.9999999998672
 20
144.9999999990987
 30
0.0
 40
6.4
 41
24.0
 71
     5
 72
     5
  1
500
 73
     1
 44
1.0
1001
ACAD
1000
MTEXTBEGIN
1070
    73
1070
     1
1070
    44
1040
1.0
1070
    74
1070
     0
1000
MTEXTEND
  0
MTEXT
  5
95448
330
1F
100
AcDbEntity
  8
AM_6
100
AcDbMText
 10
323.00000000008
 20
64.99999999966258
 30
0.0
 40
6.4
 41
24.0
 71
     5
 72
     5
  1
3920
 73
     1
 44
1.0
1001
ACAD
1000
MTEXTBEGIN
1070
    73
1070
     1
1070
    44
1040
1.0
1070
    74
1070
     0
1000
MTEXTEND
  0
MTEXT
  5
95449
330
1F
100
AcDbEntity
  8
AM_6
100
AcDbMText
 10
347.00000000008
 20
64.99999999966258
 30
0.0
 40
6.4
 41
24.0
 71
     5
 72
     5
  1
400
 73
     1
 44
1.0
1001
ACAD
1000
MTEXTBEGIN
1070
    73
1070
     1
1070
    44
1040
1.0
1070
    74
1070
     0
1000
MTEXTEND
  0
MTEXT
  5
9544A
330
1F
100
AcDbEntity
  8
AM_6
100
AcDbMText
 10
322.9999999999463
 20
96.99999999936153
 30
0.0
 40
6.4
 41
24.0
 71
     5
 72
     5
  1
2940
 73
     1
 44
1.0
1001
ACAD
1000
MTEXTBEGIN
1070
    73
1070
     1
1070
    44
1040
1.0
1070
    74
1070
     0
1000
MTEXTEND
  0
MTEXT
  5
9544B
330
1F
100
AcDbEntity
  8
AM_6
100
AcDbMText
 10
346.9999999999463
 20
96.99999999936153
 30
0.0
 40
6.4
 41
24.0
 71
     5
 72
     5
  1
300
 73
     1
 44
1.0
1001
ACAD
1000
MTEXTBEGIN
1070
    73
1070
     1
1070
    44
1040
1.0
1070
    74
1070
     0
1000
MTEXTEND
  0
MTEXT
  5
9544C
330
1F
100
AcDbEntity
  8
AM_6
100
AcDbMText
 10
323.00000000008
 20
32.99999999970805
 30
0.0
 40
6.4
 41
24.0
 71
     5
 72
     5
  1
4900
 73
     1
 44
1.0
1001
ACAD
1000
MTEXTBEGIN
1070
    73
1070
     1
1070
    44
1040
1.0
1070
    74
1070
     0
1000
MTEXTEND
  0
MTEXT
  5
9544D
330
1F
100
AcDbEntity
  8
AM_6
100
AcDbMText
 10
347.00000000008
 20
32.99999999970805
 30
0.0
 40
6.4
 41
24.0
 71
     5
 72
     5
  1
500
 73
     1
 44
1.0
1001
ACAD
1000
MTEXTBEGIN
1070
    73
1070
     1
1070
    44
1040
1.0
1070
    74
1070
     0
1000
MTEXTEND
  0
MTEXT
  5
9544E
330
1F
100
AcDbEntity
  8
AM_6
100
AcDbMText
 10
402.9999999998016
 20
310.9999999985202
 30
0.0
 40
6.4
 41
40.0
 71
     5
 72
     5
  1
X'  × Y'
 73
     1
 44
1.0
1001
ACAD
1000
MTEXTBEGIN
1070
    73
1070
     1
1070
    44
1040
1.0
1070
    74
1070
     0
1000
MTEXTEND
  0
MTEXT
  5
9544F
330
1F
100
AcDbEntity
  8
AM_6
100
AcDbMText
 10
402.9999999998235
 20
280.9999999985339
 30
0.0
 40
6.4
 41
39.99999999997408
 71
     5
 72
     5
  1
55 ×55
 73
     1
 44
0.7
1001
ACAD
1000
MTEXTBEGIN
1070
    73
1070
     1
1070
    44
1040
0.7
1070
    74
1070
     0
1000
MTEXTEND
  0
MTEXT
  5
95450
330
1F
100
AcDbEntity
  8
AM_6
100
AcDbMText
 10
402.9999999998235
 20
168.9999999990978
 30
0.0
 40
6.4
 41
39.99999999997408
 71
     5
 72
     5
  1
78 ×78
 73
     1
 44
1.0
1001
ACAD
1000
MTEXTBEGIN
1070
    73
1070
     1
1070
    44
1040
1.0
1070
    74
1070
     0
1000
MTEXTEND
  0
MTEXT
  5
95451
330
1F
100
AcDbEntity
  8
AM_6
100
AcDbMText
 10
403.0000000001009
 20
80.99999999946158
 30
0.0
 40
6.4
 41
39.99999999997408
 71
     5
 72
     5
  1
55 ×28
 73
     1
 44
1.0
1001
ACAD
1000
MTEXTBEGIN
1070
    73
1070
     1
1070
    44
1040
1.0
1070
    74
1070
     0
1000
MTEXTEND
  0
MTEXT
  5
95452
330
1F
100
AcDbEntity
  8
AM_6
100
AcDbMText
 10
403.0000000002083
 20
32.99999999961983
 30
0.0
 40
6.4
 41
39.99999999997408
 71
     5
 72
     5
  1
63 ×40
 73
     1
 44
1.0
1001
ACAD
1000
MTEXTBEGIN
1070
    73
1070
     1
1070
    44
1040
1.0
1070
    74
1070
     0
1000
MTEXTEND
  0
MTEXT
  5
95453
330
1F
100
AcDbEntity
  8
AM_6
100
AcDbMText
 10
442.9999999999396
 20
272.999999998492
 30
0.0
 40
6.4
 41
39.99999999997408
 71
     5
 72
     5
  1
82 ×82
 73
     1
 44
1.0
1001
ACAD
1000
MTEXTBEGIN
1070
    73
1070
     1
1070
    44
1040
1.0
1070
    74
1070
     0
1000
MTEXTEND
  0
MTEXT
  5
95454
330
1F
100
AcDbEntity
  8
AM_6
100
AcDbMText
 10
442.9999999999396
 20
176.9999999990978
 30
0.0
 40
6.4
 41
39.99999999997408
 71
     5
 72
     5
  1
100 ×100
 73
     1
 44
1.0
1001
ACAD
1000
MTEXTBEGIN
1070
    73
1070
     1
1070
    44
1040
1.0
1070
    74
1070
     0
1000
MTEXTEND
  0
MTEXT
  5
95455
330
1F
100
AcDbEntity
  8
AM_6
100
AcDbMText
 10
443.0000000000746
 20
96.99999999906594
 30
0.0
 40
6.4
 41
39.99999999997408
 71
     5
 72
     5
  1
85 ×58
 73
     1
 44
1.0
1001
ACAD
1000
MTEXTBEGIN
1070
    73
1070
     1
1070
    44
1040
1.0
1070
    74
1070
     0
1000
MTEXTEND
  0
MTEXT
  5
95456
330
1F
100
AcDbEntity
  8
AM_6
100
AcDbMText
 10
443.0000000002079
 20
64.99999999936881
 30
0.0
 40
6.4
 41
39.99999999997408
 71
     5
 72
     5
  1
86 ×59
 73
     1
 44
1.0
1001
ACAD
1000
MTEXTBEGIN
1070
    73
1070
     1
1070
    44
1040
1.0
1070
    74
1070
     0
1000
MTEXTEND
  0
MTEXT
  5
95457
330
1F
100
AcDbEntity
  8
AM_6
100
AcDbMText
 10
443.0000000002084
 20
32.99999999941338
 30
0.0
 40
6.4
 41
39.99999999997408
 71
     5
 72
     5
  1
95 ×72
 73
     1
 44
1.0
1001
ACAD
1000
MTEXTBEGIN
1070
    73
1070
     1
1070
    44
1040
1.0
1070
    74
1070
     0
1000
MTEXTEND
  0
MTEXT
  5
95458
330
1F
100
AcDbEntity
  8
AM_6
100
AcDbMText
 10
482.9999999999391
 20
272.999999998492
 30
0.0
 40
6.4
 41
39.99999999997408
 71
     5
 72
     5
  1
9.5 ×16.5
 73
     1
 44
1.0
1001
ACAD
1000
MTEXTBEGIN
1070
    73
1070
     1
1070
    44
1040
1.0
1070
    74
1070
     0
1000
MTEXTEND
  0
MTEXT
  5
95459
330
1F
100
AcDbEntity
  8
AM_6
100
AcDbMText
 10
482.9999999999389
 20
176.9999999990969
 30
0.0
 40
6.4
 41
39.99999999997408
 71
     5
 72
     5
  1
10.5 ×21
 73
     1
 44
1.0
1001
ACAD
1000
MTEXTBEGIN
1070
    73
1070
     1
1070
    44
1040
1.0
1070
    74
1070
     0
1000
MTEXTEND
  0
MTEXT
  5
9545A
330
1F
100
AcDbEntity
  8
AM_6
100
AcDbMText
 10
483.0000000000751
 20
96.99999999938246
 30
0.0
 40
6.4
 41
39.99999999997408
 71
     5
 72
     5
  1
9.5
 73
     1
 44
1.0
1001
ACAD
1000
MTEXTBEGIN
1070
    73
1070
     1
1070
    44
1040
1.0
1070
    74
1070
     0
1000
MTEXTEND
  0
MTEXT
  5
9545B
330
1F
100
AcDbEntity
  8
AM_6
100
AcDbMText
 10
482.9999999998018
 20
328.9999999985466
 30
0.0
 40
6.4
 41
40.0
 71
     5
 72
     5
  1
取付孔径
 73
     1
 44
1.0
1001
ACAD
1000
MTEXTBEGIN
1070
    73
1070
     1
1070
    44
1040
1.0
1070
    74
1070
     0
1000
MTEXTEND
  0
MTEXT
  5
9545C
330
1F
100
AcDbEntity
  8
AM_6
100
AcDbMText
 10
482.9999999998018
 20
312.9999999986294
 30
0.0
 40
6.4
 41
40.0
 71
     5
 72
     5
  1
P
 73
     1
 44
1.0
1001
ACAD
1000
MTEXTBEGIN
1070
    73
1070
     1
1070
    44
1040
1.0
1070
    74
1070
     0
1000
MTEXTEND
  0
LINE
  5
95460
330
1F
100
AcDbEntity
  8
AM_5
100
AcDbLine
 10
119.0000000002574
 20
17.0
 30
0.0
 11
118.9999999997221
 21
320.9999999983466
 31
0.0
  0
MTEXT
  5
95461
330
1F
100
AcDbEntity
  8
AM_6
100
AcDbMText
 10
86.99999999974579
 20
296.9999999984247
 30
0.0
 40
6.4
 41
64.0
 71
     5
 72
     5
  1
HJ-50U-YN
 73
     1
 44
1.0
1001
ACAD
1000
MTEXTBEGIN
1070
    73
1070
     1
1070
    44
1040
1.0
1070
    74
1070
     0
1000
MTEXTEND
  0
LINE
  5
95462
330
1F
100
AcDbEntity
  8
AM_5
100
AcDbLine
 10
55.00000000018918
 20
17.0
 30
0.0
 11
54.99999999968941
 21
336.999999998513
 31
0.0
  0
MTEXT
  5
95463
330
1F
100
AcDbEntity
  8
AM_6
100
AcDbMText
 10
182.9999999996616
 20
288.9999999983684
 30
0.0
 40
6.4
 41
64.00000000005843
 71
     4
 72
     5
  1
  ナイロン6\P  + 特殊再生ナイロン車
 73
     1
 44
1.0
1001
ACAD
1000
MTEXTBEGIN
1070
    73
1070
     1
1070
    44
1040
1.0
1070
    74
1070
     0
1000
MTEXTEND
1000
ACAD_MTEXT_DEFINED_HEIGHT_BEGIN
1070
    46
1040
6.399999999995456
1000
ACAD_MTEXT_DEFINED_HEIGHT_END
  0
MTEXT
  5
95464
330
1F
100
AcDbEntity
  8
AM_6
100
AcDbMText
 10
214.9999999997417
 20
256.9999999987076
 30
0.0
 40
6.4
 41
64.00000000005843
 71
     5
 72
     5
  1
モノマーキャスティング\P            ナイロン車
 73
     1
 44
1.0
1001
ACAD
1000
MTEXTBEGIN
1070
    73
1070
     1
1070
    44
1040
1.0
1070
    74
1070
     0
1000
MTEXTEND
1000
ACAD_MTEXT_DEFINED_HEIGHT_BEGIN
1070
    46
1040
6.399999999995456
1000
ACAD_MTEXT_DEFINED_HEIGHT_END
  0
MTEXT
  5
95465
330
1F
100
AcDbEntity
  8
AM_6
100
AcDbMText
 10
86.99999999974579
 20
232.9999999985639
 30
0.0
 40
6.4
 41
64.0
 71
     5
 72
     5
  1
HJ-65U-YN
 73
     1
 44
1.0
1001
ACAD
1000
MTEXTBEGIN
1070
    73
1070
     1
1070
    44
1040
1.0
1070
    74
1070
     0
1000
MTEXTEND
  0
MTEXT
  5
95466
330
1F
100
AcDbEntity
  8
AM_6
100
AcDbMText
 10
86.99999999984129
 20
168.9999999989004
 30
0.0
 40
6.4
 41
64.0
 71
     5
 72
     5
  1
HJ-75U-YN
 73
     1
 44
1.0
1001
ACAD
1000
MTEXTBEGIN
1070
    73
1070
     1
1070
    44
1040
1.0
1070
    74
1070
     0
1000
MTEXTEND
  0
MTEXT
  5
95467
330
1F
100
AcDbEntity
  8
AM_6
100
AcDbMText
 10
86.99999999981036
 20
264.999999998684
 30
0.0
 40
6.4
 41
64.0
 71
     5
 72
     5
  1
HJ-50B-MC
 73
     1
 44
1.0
1001
ACAD
1000
MTEXTBEGIN
1070
    73
1070
     1
1070
    44
1040
1.0
1070
    74
1070
     0
1000
MTEXTEND
  0
MTEXT
  5
95468
330
1F
100
AcDbEntity
  8
AM_6
100
AcDbMText
 10
86.99999999985356
 20
200.9999999988186
 30
0.0
 40
6.4
 41
64.0
 71
     5
 72
     5
  1
HJ-65B-MC
 73
     1
 44
1.0
1001
ACAD
1000
MTEXTBEGIN
1070
    73
1070
     1
1070
    44
1040
1.0
1070
    74
1070
     0
1000
MTEXTEND
  0
MTEXT
  5
95469
330
1F
100
AcDbEntity
  8
AM_6
100
AcDbMText
 10
86.99999999993179
 20
136.9999999991551
 30
0.0
 40
6.4
 41
64.0
 71
     5
 72
     5
  1
HJ-75B-MC
 73
     1
 44
1.0
1001
ACAD
1000
MTEXTBEGIN
1070
    73
1070
     1
1070
    44
1040
1.0
1070
    74
1070
     0
1000
MTEXTEND
  0
MTEXT
  5
9546A
330
1F
100
AcDbEntity
  8
AM_6
100
AcDbMText
 10
86.99999999973853
 20
280.9999999983147
 30
0.0
 40
6.4
 41
64.0
 71
     5
 72
     5
  1
HJB-50U-YN
 73
     1
 44
1.0
1001
ACAD
1000
MTEXTBEGIN
1070
    73
1070
     1
1070
    44
1040
1.0
1070
    74
1070
     0
1000
MTEXTEND
  0
MTEXT
  5
9546B
330
1F
100
AcDbEntity
  8
AM_6
100
AcDbMText
 10
86.99999999975579
 20
216.9999999984538
 30
0.0
 40
6.4
 41
64.0
 71
     5
 72
     5
  1
HJB-65U-YN
 73
     1
 44
1.0
1001
ACAD
1000
MTEXTBEGIN
1070
    73
1070
     1
1070
    44
1040
1.0
1070
    74
1070
     0
1000
MTEXTEND
  0
MTEXT
  5
9546C
330
1F
100
AcDbEntity
  8
AM_6
100
AcDbMText
 10
86.99999999986767
 20
152.9999999988467
 30
0.0
 40
6.4
 41
64.0
 71
     5
 72
     5
  1
HJB-75U-YN
 73
     1
 44
1.0
1001
ACAD
1000
MTEXTBEGIN
1070
    73
1070
     1
1070
    44
1040
1.0
1070
    74
1070
     0
1000
MTEXTEND
  0
MTEXT
  5
9546D
330
1F
100
AcDbEntity
  8
AM_6
100
AcDbMText
 10
86.9999999998031
 20
248.9999999985739
 30
0.0
 40
6.4
 41
64.0
 71
     5
 72
     5
  1
HJB-50B-MC
 73
     1
 44
1.0
1001
ACAD
1000
MTEXTBEGIN
1070
    73
1070
     1
1070
    44
1040
1.0
1070
    74
1070
     0
1000
MTEXTEND
  0
MTEXT
  5
9546E
330
1F
100
AcDbEntity
  8
AM_6
100
AcDbMText
 10
86.99999999986358
 20
184.9999999987085
 30
0.0
 40
6.4
 41
64.0
 71
     5
 72
     5
  1
HJB-65B-MC
 73
     1
 44
1.0
1001
ACAD
1000
MTEXTBEGIN
1070
    73
1070
     1
1070
    44
1040
1.0
1070
    74
1070
     0
1000
MTEXTEND
  0
MTEXT
  5
9546F
330
1F
100
AcDbEntity
  8
AM_6
100
AcDbMText
 10
86.99999999995725
 20
120.9999999991014
 30
0.0
 40
6.4
 41
64.0
 71
     5
 72
     5
  1
HJB-75B-MC
 73
     1
 44
1.0
1001
ACAD
1000
MTEXTBEGIN
1070
    73
1070
     1
1070
    44
1040
1.0
1070
    74
1070
     0
1000
MTEXTEND
  0
MTEXT
  5
95470
330
1F
100
AcDbEntity
  8
AM_6
100
AcDbMText
 10
86.99999999999681
 20
104.999999999206
 30
0.0
 40
6.4
 41
64.0
 71
     5
 72
     5
  1
HK-50U-YN
 73
     1
 44
1.0
1001
ACAD
1000
MTEXTBEGIN
1070
    73
1070
     1
1070
    44
1040
1.0
1070
    74
1070
     0
1000
MTEXTEND
  0
MTEXT
  5
95471
330
1F
100
AcDbEntity
  8
AM_6
100
AcDbMText
 10
87.00000000007776
 20
72.9999999993488
 30
0.0
 40
6.4
 41
64.0
 71
     5
 72
     5
  1
HK-65U-YN
 73
     1
 44
1.0
1001
ACAD
1000
MTEXTBEGIN
1070
    73
1070
     1
1070
    44
1040
1.0
1070
    74
1070
     0
1000
MTEXTEND
  0
MTEXT
  5
95472
330
1F
100
AcDbEntity
  8
AM_6
100
AcDbMText
 10
87.00000000014325
 20
40.99999999940701
 30
0.0
 40
6.4
 41
64.0
 71
     5
 72
     5
  1
HK-75U-YN
 73
     1
 44
1.0
1001
ACAD
1000
MTEXTBEGIN
1070
    73
1070
     1
1070
    44
1040
1.0
1070
    74
1070
     0
1000
MTEXTEND
  0
MTEXT
  5
95473
330
1F
100
AcDbEntity
  8
AM_6
100
AcDbMText
 10
87.00000000005458
 20
88.99999999922874
 30
0.0
 40
6.4
 41
64.0
 71
     5
 72
     5
  1
HK-50B-MC
 73
     1
 44
1.0
1001
ACAD
1000
MTEXTBEGIN
1070
    73
1070
     1
1070
    44
1040
1.0
1070
    74
1070
     0
1000
MTEXTEND
  0
MTEXT
  5
95474
330
1F
100
AcDbEntity
  8
AM_6
100
AcDbMText
 10
87.00000000015734
 20
56.99999999961256
 30
0.0
 40
6.4
 41
64.0
 71
     5
 72
     5
  1
HK-65B-MC
 73
     1
 44
1.0
1001
ACAD
1000
MTEXTBEGIN
1070
    73
1070
     1
1070
    44
1040
1.0
1070
    74
1070
     0
1000
MTEXTEND
  0
MTEXT
  5
95475
330
1F
100
AcDbEntity
  8
AM_6
100
AcDbMText
 10
87.00000000020555
 20
24.99999999967077
 30
0.0
 40
6.4
 41
64.0
 71
     5
 72
     5
  1
HK-75B-MC
 73
     1
 44
1.0
1001
ACAD
1000
MTEXTBEGIN
1070
    73
1070
     1
1070
    44
1040
1.0
1070
    74
1070
     0
1000
MTEXTEND
  0
LINE
  5
95476
330
1F
100
AcDbEntity
  8
AM_0
100
AcDbLine
 10
22.99999999973033
 20
336.9999999984984
 30
0.0
 11
526.9999999998105
 21
336.9999999986958
 31
0.0
  0
LINE
  5
9547D
330
1F
100
AcDbEntity
  8
AM_5
100
AcDbLine
 10
54.9999999996794
 20
272.9999999989168
 30
0.0
 11
246.9999999998204
 21
272.9999999989168
 31
0.0
  0
LINE
  5
9547E
330
1F
100
AcDbEntity
  8
AM_5
100
AcDbLine
 10
54.99999999979218
 20
208.9999999990114
 30
0.0
 11
246.9999999999341
 21
208.9999999990105
 31
0.0
  0
LINE
  5
95481
330
1F
100
AcDbEntity
  8
AM_5
100
AcDbLine
 10
54.99999999981127
 20
144.9999999994379
 30
0.0
 11
247.0000000000468
 21
144.999999999437
 31
0.0
  0
LINE
  5
95484
330
1F
100
AcDbEntity
  8
AM_5
100
AcDbLine
 10
54.99999999981127
 20
80.99999999969895
 30
0.0
 11
382.9999999998104
 21
80.99999999969714
 31
0.0
  0
LINE
  5
95485
330
1F
100
AcDbEntity
  8
AM_5
100
AcDbLine
 10
54.99999999981127
 20
49.00000000003728
 30
0.0
 11
462.9999999998091
 21
49.00000000003547
 31
0.0
  0
LINE
  5
95486
330
1F
100
AcDbEntity
  8
AM_5
100
AcDbLine
 10
54.99999999978308
 20
96.99999999946705
 30
0.0
 11
247.0000000001314
 21
96.99999999946612
 31
0.0
  0
LINE
  5
95487
330
1F
100
AcDbEntity
  8
AM_5
100
AcDbLine
 10
54.99999999978308
 20
64.99999999980537
 30
0.0
 11
247.0000000001878
 21
64.99999999980445
 31
0.0
  0
LINE
  5
95488
330
1F
100
AcDbEntity
  8
AM_5
100
AcDbLine
 10
54.99999999983947
 20
33.00000000026921
 30
0.0
 11
247.0000000002442
 21
33.0000000002683
 31
0.0
  0
MTEXT
  5
95489
330
1F
100
AcDbEntity
  8
AM_6
100
AcDbMText
 10
183.0000000000618
 20
104.9999999992542
 30
0.0
 40
6.4
 41
64.00000000005843
 71
     4
 72
     5
  1
  ナイロン6\P  + 特殊再生ナイロン車
 73
     1
 44
0.7
1001
ACAD
1000
MTEXTBEGIN
1070
    73
1070
     1
1070
    44
1040
0.7
1070
    74
1070
     0
1000
MTEXTEND
1000
ACAD_MTEXT_DEFINED_HEIGHT_BEGIN
1070
    46
1040
6.399999999995456
1000
ACAD_MTEXT_DEFINED_HEIGHT_END
  0
MTEXT
  5
9548C
330
1F
100
AcDbEntity
  8
AM_6
100
AcDbMText
 10
215.000000000136
 20
88.99999999936245
 30
0.0
 40
6.4
 41
64.00000000005843
 71
     5
 72
     5
  1
モノマーキャスティング\P            ナイロン車
 73
     1
 44
0.7
1001
ACAD
1000
MTEXTBEGIN
1070
    73
1070
     1
1070
    44
1040
0.7
1070
    74
1070
     0
1000
MTEXTEND
1000
ACAD_MTEXT_DEFINED_HEIGHT_BEGIN
1070
    46
1040
6.399999999995456
1000
ACAD_MTEXT_DEFINED_HEIGHT_END
  0
MTEXT
  5
9548F
330
1F
100
AcDbEntity
  8
AM_6
100
AcDbMText
 10
150.9999999997549
 20
312.9999999985757
 30
0.0
 40
6.4
 41
64.00000000005843
 71
     5
 72
     5
  1
ステンレス
 73
     1
 44
1.0
1001
ACAD
1000
MTEXTBEGIN
1070
    73
1070
     1
1070
    44
1040
1.0
1070
    74
1070
     0
1000
MTEXTEND
1000
ACAD_MTEXT_DEFINED_HEIGHT_BEGIN
1070
    46
1040
6.399999999995456
1000
ACAD_MTEXT_DEFINED_HEIGHT_END
  0
MTEXT
  5
95490
330
1F
100
AcDbEntity
  8
AM_6
100
AcDbMText
 10
86.99999999978444
 20
312.9999999985785
 30
0.0
 40
6.4
 41
64.0
 71
     5
 72
     5
  1
スチール
 73
     1
 44
1.0
1001
ACAD
1000
MTEXTBEGIN
1070
    73
1070
     1
1070
    44
1040
1.0
1070
    74
1070
     0
1000
MTEXTEND
  0
MTEXT
  5
95491
330
1F
100
AcDbEntity
  8
AM_6
100
AcDbMText
 10
214.9999999997476
 20
320.9999999984893
 30
0.0
 40
6.4
 41
64.00000000005843
 71
     5
 72
     5
  1
車　輪
 73
     1
 44
1.0
1001
ACAD
1000
MTEXTBEGIN
1070
    73
1070
     1
1070
    44
1040
1.0
1070
    74
1070
     0
1000
MTEXTEND
1000
ACAD_MTEXT_DEFINED_HEIGHT_BEGIN
1070
    46
1040
6.399999999995456
1000
ACAD_MTEXT_DEFINED_HEIGHT_END
  0
MTEXT
  5
95492
330
1F
100
AcDbEntity
  8
AM_6
100
AcDbMText
 10
118.9999999997376
 20
328.9999999984238
 30
0.0
 40
6.4
 41
128.0000000000807
 71
     5
 72
     5
  1
品　番
 73
     1
 44
1.0
1001
ACAD
1000
MTEXTBEGIN
1070
    73
1070
     1
1070
    44
1040
1.0
1070
    74
1070
     0
1000
MTEXTEND
1000
ACAD_MTEXT_DEFINED_HEIGHT_BEGIN
1070
    46
1040
6.399999999895412
1000
ACAD_MTEXT_DEFINED_HEIGHT_END
  0
LINE
  5
95493
330
1F
100
AcDbEntity
  8
AM_5
100
AcDbLine
 10
310.9999999998104
 20
320.9999999985285
 30
0.0
 11
358.9999999998104
 21
320.9999999985466
 31
0.0
  0
MTEXT
  5
954D9
330
1F
100
AcDbEntity
  8
AM_6
100
AcDbMText
 10
402.9999999998235
 20
184.9999999990977
 30
0.0
 40
6.4
 41
39.99999999997408
 71
     5
 72
     5
  1
63 ×63
 73
     1
 44
1.0
1001
ACAD
1000
MTEXTBEGIN
1070
    73
1070
     1
1070
    44
1040
1.0
1070
    74
1070
     0
1000
MTEXTEND
  0
LINE
  5
954DA
330
1F
100
AcDbEntity
  8
AM_5
100
AcDbLine
 10
502.9999999998111
 20
176.9999999990969
 30
0.0
 11
526.9999999998102
 21
176.9999999990969
 31
0.0
  0
MTEXT
  5
954DB
330
1F
100
AcDbEntity
  8
AM_6
100
AcDbMText
 10
402.9999999998235
 20
264.9999999985339
 30
0.0
 40
6.4
 41
39.99999999997408
 71
     5
 72
     5
  1
65 ×65
 73
     1
 44
0.7
1001
ACAD
1000
MTEXTBEGIN
1070
    73
1070
     1
1070
    44
1040
0.7
1070
    74
1070
     0
1000
MTEXTEND
  0
LINE
  5
9550D
330
1F
100
AcDbEntity
  8
AM_5
100
AcDbLine
 10
422.9999999998104
 20
80.99999999969805
 30
0.0
 11
502.9999999998117
 21
80.99999999969664
 31
0.0
  0
MTEXT
  5
95512
330
1F
100
AcDbEntity
  8
AM_6
100
AcDbMText
 10
515.0000000001075
 20
65.00000000036061
 30
0.0
 40
6.4
 41
24.0
 71
     5
 72
     5
  1
-
 73
     1
 44
1.0
1001
ACAD
1000
MTEXTBEGIN
1070
    73
1070
     1
1070
    44
1040
1.0
1070
    74
1070
     0
1000
MTEXTEND
  0
MTEXT
  5
A093A
330
1F
100
AcDbEntity
  8
AM_6
100
AcDbMText
 10
663.5688785279164
 20
416.0
 30
0.0
 40
6.4
 41
48.0
 71
     5
 72
     5
  1
（ストッパー付）
 73
     1
 44
1.0
1001
ACAD
1000
MTEXTBEGIN
1070
    73
1070
     1
1070
    44
1040
1.0
1070
    74
1070
     0
1000
MTEXTEND
  0
DIMENSION
  5
A2DC7
330
1F
100
AcDbEntity
  8
AM_5
100
AcDbDimension
  2
*D31
 10
428.5922596799868
 20
687.3058667307889
 30
0.0
 11
429.6175645127085
 21
695.048685984782
 31
0.0
 70
    33
  1
P
 71
     5
 42
9.500000000001023
  3
SYS$0
100
AcDbAlignedDimension
 13
400.7101213172805
 23
672.8587572106371
 33
0.0
 14
407.4276357385519
 24
666.1412427893629
 34
0.0
1001
ACAD
1000
DSTYLE
1002
{
1070
    40
1040
2.0
1002
}
  0
DIMENSION
  5
A2E00
330
1F
100
AcDbEntity
  8
AM_5
100
AcDbDimension
  2
*D32
 10
720.5922596799866
 20
687.3058667307887
 30
0.0
 11
721.6175645127084
 21
695.0486859847817
 31
0.0
 70
    33
  1
P
 71
     5
 42
9.500000000001023
  3
SYS$0
100
AcDbAlignedDimension
 13
692.7101213172806
 23
672.8587572106371
 33
0.0
 14
699.4276357385522
 24
666.1412427893629
 34
0.0
1001
ACAD
1000
DSTYLE
1002
{
1070
    40
1040
2.0
1002
}
  0
LINE
  5
A9BAC
330
1F
100
AcDbEntity
  8
AM_0
100
AcDbLine
 10
23.00000000000569
 20
647.0
 30
0.0
 11
243.0000000000013
 21
647.0
 31
0.0
  0
MTEXT
  5
A9BAD
330
1F
100
AcDbEntity
  8
AM_6
100
AcDbMText
 10
42.99999999999658
 20
655.0
 30
0.0
 40
6.4
 41
40.0
 71
     5
 72
     5
  1
備　考
 73
     1
 44
1.0
1001
ACAD
1000
MTEXTBEGIN
1070
    73
1070
     1
1070
    44
1040
1.0
1070
    74
1070
     0
1000
MTEXTEND
  0
MTEXT
  5
AB20B
330
1F
100
AcDbEntity
  8
AM_6
100
AcDbMText
 10
182.9999999996615
 20
224.9999999984622
 30
0.0
 40
6.4
 41
64.00000000005843
 71
     4
 72
     5
  1
  ナイロン6\P  + 特殊再生ナイロン車
 73
     1
 44
1.0
1001
ACAD
1000
MTEXTBEGIN
1070
    73
1070
     1
1070
    44
1040
1.0
1070
    74
1070
     0
1000
MTEXTEND
1000
ACAD_MTEXT_DEFINED_HEIGHT_BEGIN
1070
    46
1040
6.399999999995456
1000
ACAD_MTEXT_DEFINED_HEIGHT_END
  0
MTEXT
  5
AB20C
330
1F
100
AcDbEntity
  8
AM_6
100
AcDbMText
 10
214.9999999997416
 20
192.9999999988014
 30
0.0
 40
6.4
 41
64.00000000005843
 71
     5
 72
     5
  1
モノマーキャスティング\P            ナイロン車
 73
     1
 44
1.0
1001
ACAD
1000
MTEXTBEGIN
1070
    73
1070
     1
1070
    44
1040
1.0
1070
    74
1070
     0
1000
MTEXTEND
1000
ACAD_MTEXT_DEFINED_HEIGHT_BEGIN
1070
    46
1040
6.399999999995456
1000
ACAD_MTEXT_DEFINED_HEIGHT_END
  0
MTEXT
  5
AB20D
330
1F
100
AcDbEntity
  8
AM_6
100
AcDbMText
 10
182.9999999997672
 20
160.9999999990704
 30
0.0
 40
6.4
 41
64.00000000005843
 71
     4
 72
     5
  1
  ナイロン6\P  + 特殊再生ナイロン車
 73
     1
 44
1.0
1001
ACAD
1000
MTEXTBEGIN
1070
    73
1070
     1
1070
    44
1040
1.0
1070
    74
1070
     0
1000
MTEXTEND
1000
ACAD_MTEXT_DEFINED_HEIGHT_BEGIN
1070
    46
1040
6.399999999995456
1000
ACAD_MTEXT_DEFINED_HEIGHT_END
  0
MTEXT
  5
AB20E
330
1F
100
AcDbEntity
  8
AM_6
100
AcDbMText
 10
214.9999999998472
 20
128.9999999994096
 30
0.0
 40
6.4
 41
64.00000000005843
 71
     5
 72
     5
  1
モノマーキャスティング\P            ナイロン車
 73
     1
 44
1.0
1001
ACAD
1000
MTEXTBEGIN
1070
    73
1070
     1
1070
    44
1040
1.0
1070
    74
1070
     0
1000
MTEXTEND
1000
ACAD_MTEXT_DEFINED_HEIGHT_BEGIN
1070
    46
1040
6.399999999995456
1000
ACAD_MTEXT_DEFINED_HEIGHT_END
  0
MTEXT
  5
AB20F
330
1F
100
AcDbEntity
  8
AM_6
100
AcDbMText
 10
183.0000000001147
 20
72.99999999959212
 30
0.0
 40
6.4
 41
64.00000000005843
 71
     4
 72
     5
  1
  ナイロン6\P  + 特殊再生ナイロン車
 73
     1
 44
0.7
1001
ACAD
1000
MTEXTBEGIN
1070
    73
1070
     1
1070
    44
1040
0.7
1070
    74
1070
     0
1000
MTEXTEND
1000
ACAD_MTEXT_DEFINED_HEIGHT_BEGIN
1070
    46
1040
6.399999999995456
1000
ACAD_MTEXT_DEFINED_HEIGHT_END
  0
MTEXT
  5
AB210
330
1F
100
AcDbEntity
  8
AM_6
100
AcDbMText
 10
215.0000000001888
 20
56.99999999970035
 30
0.0
 40
6.4
 41
64.00000000005843
 71
     5
 72
     5
  1
モノマーキャスティング\P            ナイロン車
 73
     1
 44
0.7
1001
ACAD
1000
MTEXTBEGIN
1070
    73
1070
     1
1070
    44
1040
0.7
1070
    74
1070
     0
1000
MTEXTEND
1000
ACAD_MTEXT_DEFINED_HEIGHT_BEGIN
1070
    46
1040
6.399999999995456
1000
ACAD_MTEXT_DEFINED_HEIGHT_END
  0
MTEXT
  5
AB211
330
1F
100
AcDbEntity
  8
AM_6
100
AcDbMText
 10
183.0000000001675
 20
40.99999999993059
 30
0.0
 40
6.4
 41
64.00000000005843
 71
     4
 72
     5
  1
  ナイロン6\P  + 特殊再生ナイロン車
 73
     1
 44
0.7
1001
ACAD
1000
MTEXTBEGIN
1070
    73
1070
     1
1070
    44
1040
0.7
1070
    74
1070
     0
1000
MTEXTEND
1000
ACAD_MTEXT_DEFINED_HEIGHT_BEGIN
1070
    46
1040
6.399999999995456
1000
ACAD_MTEXT_DEFINED_HEIGHT_END
  0
MTEXT
  5
AB212
330
1F
100
AcDbEntity
  8
AM_6
100
AcDbMText
 10
215.0000000002417
 20
25.00000000003883
 30
0.0
 40
6.4
 41
64.00000000005843
 71
     5
 72
     5
  1
モノマーキャスティング\P            ナイロン車
 73
     1
 44
0.7
1001
ACAD
1000
MTEXTBEGIN
1070
    73
1070
     1
1070
    44
1040
0.7
1070
    74
1070
     0
1000
MTEXTEND
1000
ACAD_MTEXT_DEFINED_HEIGHT_BEGIN
1070
    46
1040
6.399999999995456
1000
ACAD_MTEXT_DEFINED_HEIGHT_END
  0
ENDSEC
  0
SECTION
  2
OBJECTS
  0
DICTIONARY
  5
C
330
0
100
AcDbDictionary
281
     1
  3
ACAD_2007HEADERVARS_RT
350
AB233
  3
ACAD_BGPLOT_KEY
350
AB06
  3
ACAD_COLOR
350
A91D
  3
ACAD_GROUP
350
D
  3
ACAD_LAYOUT
350
1A
  3
ACAD_MATERIAL
350
A91C
  3
ACAD_MLINESTYLE
350
17
  3
ACAD_PLOTSETTINGS
350
19
  3
ACAD_PLOTSTYLENAME
350
E
  3
ACAD_TABLESTYLE
350
AAB9
  3
ACAD_VISUALSTYLE
350
B0F1
  3
AcAsAppObject
350
3DA1
  3
ACASGREF_MASTER
350
3DE9
  3
AcDbVariableDictionary
350
34
  3
AcmDictionary
350
47
  3
AD_GREF_MODULE
350
3DEA
  3
AD_MAPI_MODULE
350
3E06
  3
AMG
350
2B
  3
AMGSNAPSETTINGS
350
7D
  3
ASE_INDEX_DICTIONARY
350
AA8D8
  3
DWGPROPS
350
AB232
  3
MAPISURF_MODULE
350
3DEB
  0
DICTIONARY
  5
3F95
330
2
100
AcDbDictionary
280
     1
281
     1
  3
ACAD_LAYERFILTERS
360
B466
  3
ACAD_LAYERSTATES
360
3F96
  3
ACLYDICTIONARY
360
B465
  3
AMLAYER_GROUPCOLORS
360
AAB4
  0
DICTIONARY
  5
8A
330
1F
100
AcDbDictionary
280
     1
281
     1
  3
ACAD_SORTENTS
360
B1BA
  0
DICTIONARY
  5
AB233
102
{ACAD_REACTORS
330
C
102
}
330
C
100
AcDbDictionary
281
     1
  3
DIMARCSYM
350
AB234
  0
DICTIONARY
  5
AB06
102
{ACAD_REACTORS
330
C
102
}
330
C
100
AcDbDictionary
280
     1
281
     1
  0
DICTIONARY
  5
A91D
102
{ACAD_REACTORS
330
C
102
}
330
C
100
AcDbDictionary
281
     1
  0
DICTIONARY
  5
D
102
{ACAD_REACTORS
330
C
102
}
330
C
100
AcDbDictionary
281
     1
  0
DICTIONARY
  5
1A
102
{ACAD_REACTORS
330
C
102
}
330
C
100
AcDbDictionary
281
     1
  3
Model
350
22
  3
ﾚｲｱｳﾄ1
350
1E
  3
ﾚｲｱｳﾄ2
350
26
  0
DICTIONARY
  5
A91C
102
{ACAD_REACTORS
330
C
102
}
330
C
100
AcDbDictionary
281
     1
  3
ByBlock
350
B0EF
  3
ByLayer
350
B0EE
  3
Global
350
B0F0
  0
DICTIONARY
  5
17
102
{ACAD_REACTORS
330
C
102
}
330
C
100
AcDbDictionary
281
     1
  3
Standard
350
18
  0
DICTIONARY
  5
19
102
{ACAD_REACTORS
330
C
102
}
330
C
100
AcDbDictionary
281
     1
  0
ACDBDICTIONARYWDFLT
  5
E
102
{ACAD_REACTORS
330
C
102
}
330
C
100
AcDbDictionary
281
     1
  3
Normal
350
F
100
AcDbDictionaryWithDefault
340
F
  0
DICTIONARY
  5
AAB9
102
{ACAD_REACTORS
330
C
102
}
330
C
100
AcDbDictionary
281
     1
  3
Standard
350
AABA
  0
DICTIONARY
  5
B0F1
102
{ACAD_REACTORS
330
C
102
}
330
C
100
AcDbDictionary
281
     1
  3
2dWireframe
350
B0F7
  3
3D Hidden
350
B0F9
  3
3dWireframe
350
B0F8
  3
Basic
350
B0F6
  3
Brighten
350
B0FD
  3
ColorChange
350
B101
  3
Conceptual
350
B0FA
  3
Dim
350
B0FC
  3
Facepattern
350
B100
  3
Flat
350
B0F2
  3
FlatWithEdges
350
B0F3
  3
Gouraud
350
B0F4
  3
GouraudWithEdges
350
B0F5
  3
Linepattern
350
B0FF
  3
Realistic
350
B0FB
  3
Thicken
350
B0FE
  0
ACAD_PROXY_OBJECT
  5
3DA1
102
{ACAD_REACTORS
330
C
102
}
330
C
100
AcDbProxyObject
 90
      499
 91
      576
 95
   917527
 70
     0
 93
       10
310
407F
 94
        0
1001
ACAD
1000
AcRTDxfName
1000
ASAPP
  0
ACAD_PROXY_OBJECT
  5
3DE9
102
{ACAD_REACTORS
330
C
102
}
330
C
100
AcDbProxyObject
 90
      499
 91
      581
 95
   917527
 70
     0
 93
       34
310
010000407F
 94
        0
1001
ACAD
1000
AcRTDxfName
1000
ACASGREFMASTER
  0
DICTIONARY
  5
34
102
{ACAD_REACTORS
330
C
102
}
330
C
100
AcDbDictionary
281
     1
  3
CTABLESTYLE
350
AAF3
  3
DIMASSOC
350
A10C
  3
FIELDEVAL
350
AB07
  3
INDEXCTL
350
35
  3
SORTENTS
350
194C
  0
DICTIONARY
  5
47
102
{ACAD_REACTORS
330
C
102
}
330
C
100
AcDbDictionary
281
     1
  3
AcmBOM
350
7E8
  3
AcmStdDictionary
350
4C
  3
AMDTSECTSYM_ARROWCOLOR
350
A929
  0
ACAD_PROXY_OBJECT
  5
3DEA
102
{ACAD_REACTORS
330
C
102
}
330
C
100
AcDbProxyObject
 90
      499
 91
      582
 95
   917527
 70
     0
 93
      114
310
00000043800000000000000000003F
 94
        0
1001
ACAD
1000
AcRTDxfName
1000
ACADGREFMODULE
  0
ACAD_PROXY_OBJECT
  5
3E06
102
{ACAD_REACTORS
330
C
102
}
330
C
100
AcDbProxyObject
 90
      499
 91
      594
 95
   917527
 70
     0
 93
       34
310
05000044FF
 94
        0
1001
ACAD
1000
AcRTDxfName
1000
MAPIADMODULE
  0
DICTIONARY
  5
2B
102
{ACAD_REACTORS
330
C
102
}
330
C
100
AcDbDictionary
281
     1
  0
DICTIONARY
  5
7D
102
{ACAD_REACTORS
330
C
102
}
330
C
100
AcDbDictionary
281
     1
  0
DICTIONARY
  5
AA8D8
102
{ACAD_REACTORS
330
C
102
}
330
C
100
AcDbDictionary
281
     1
  3
ASEBlockHierarchyIndexRecord
350
AA8D9
1001
DCO15
1040
1749812023.093
  0
XRECORD
  5
AB232
102
{ACAD_REACTORS
330
C
102
}
330
C
100
AcDbXrecord
280
     1
  1
DWGPROPS COOKIE
  2

  3

  4

  6

  7

  8
Administrator
  9

300
AmdtFileType=84
301
=
302
=
303
=
304
=
305
=
306
=
307
=
308
=
309
=
 40
3.166955486111111
 41
2455567.561054317
 42
2456267.57626699
  1

 90
        1
  0
ACAD_PROXY_OBJECT
  5
3DEB
102
{ACAD_REACTORS
330
C
102
}
330
C
100
AcDbProxyObject
 90
      499
 91
      583
 95
   917527
 70
     0
 93
        8
310
047E
 94
        0
1001
ACAD
1000
AcRTDxfName
1000
AMDTMAPISURFMOUDULE
  0
DICTIONARY
  5
B466
102
{ACAD_REACTORS
330
3F95
102
}
330
3F95
100
AcDbDictionary
281
     1
  0
DICTIONARY
  5
3F96
102
{ACAD_REACTORS
330
3F95
102
}
330
3F95
100
AcDbDictionary
281
     1
  3
20011210
350
3FB7
  0
DICTIONARY
  5
B465
102
{ACAD_REACTORS
330
3F95
102
}
330
3F95
100
AcDbDictionary
281
     1
1001
ACAD
1000
<All
  0
DICTIONARY
  5
AAB4
102
{ACAD_REACTORS
330
3F95
102
}
330
3F95
100
AcDbDictionary
280
     1
281
     1
  0
SORTENTSTABLE
  5
B1BA
102
{ACAD_REACTORS
330
8A
102
}
330
8A
100
AcDbSortentsTable
330
1F
331
8B5C9
  5
8B5D9
331
8B4FB
  5
8B50B
331
8B58A
  5
8B59A
331
8B648
  5
8B658
331
8B70E
  5
8B71E
331
8B592
  5
8B5A2
331
8B4C4
  5
8B4D4
331
8B619
  5
8B629
331
8B69F
  5
8B6AF
331
8B716
  5
8B726
331
8B59A
  5
8B5AA
331
8B4CC
  5
8B4DC
331
8B621
  5
8B631
331
8B668
  5
8B678
331
8B6A7
  5
8B6B7
331
8B6AF
  5
8B6BF
331
8B5A2
  5
8B5B2
331
8B4D4
  5
8B4E4
331
8B670
  5
8B680
331
8B71E
  5
8B72E
331
8B736
  5
8B746
331
953F9
  5
95410
331
95438
  5
95451
331
95440
  5
95459
331
95448
  5
95464
331
95409
  5
9542D
331
95487
  5
98C96
331
95450
  5
9546C
331
9548F
  5
98C9E
331
8B678
  5
8B688
331
8B5AA
  5
8B5BA
331
8B56B
  5
8B57B
331
8B4DC
  5
8B4EC
331
8B629
  5
8B639
331
8B73E
  5
8B74E
331
8B573
  5
8B583
331
8B3BD
  5
8B3CD
331
8B4E4
  5
8B4F4
331
8B5B2
  5
8B5C2
331
8B631
  5
8B641
331
8B680
  5
8B690
331
8B6B7
  5
8B6C7
331
8B6BF
  5
8B6CF
331
8B57B
  5
8B58C
331
8B3C5
  5
8B3D6
331
8B4EC
  5
8B4FC
331
8B5BA
  5
8B5CA
331
8B639
  5
8B649
331
8B688
  5
8B698
331
8B746
  5
8C1C1
331
8B74E
  5
8C1CB
331
8B690
  5
8B6A0
331
8B5C2
  5
8B5D2
331
8B3CD
  5
8B3DD
331
8B4F4
  5
8B504
331
8B583
  5
8B594
331
8B641
  5
8B651
331
8B6C7
  5
8B6D7
331
8B6CF
  5
8B6DF
331
95458
  5
95474
331
95419
  5
9543B
331
953EC
  5
95405
331
95460
  5
9547E
331
95468
  5
95486
331
95429
  5
95445
331
95431
  5
9544A
331
8B4FC
  5
8B50C
331
8B58B
  5
8B59B
331
8B5CA
  5
8B5DA
331
8B649
  5
8B659
331
8B698
  5
8B6A8
331
8B70F
  5
8B71F
331
8B61A
  5
8B62A
331
8B4C5
  5
8B4D5
331
8B593
  5
8B5A3
331
8B6A0
  5
8B6B0
331
8B717
  5
8B727
331
8B59B
  5
8B5AB
331
8B4CD
  5
8B4DD
331
8B564
  5
8B574
331
8B622
  5
8B632
331
8B669
  5
8B679
331
8B6A8
  5
8B6B8
331
8B71F
  5
8B72F
331
8B5A3
  5
8B5B3
331
8B4D5
  5
8B4E5
331
8B671
  5
8B681
331
8B737
  5
8B747
331
95470
  5
9548E
331
95439
  5
95452
331
953FA
  5
95414
331
95402
  5
9541E
331
95441
  5
9545A
331
A2DC7
  5
A2EFC
331
9540A
  5
9542F
331
95449
  5
95465
331
95451
  5
9546D
331
95488
  5
98C97
331
8B6B0
  5
8B6C0
331
8B679
  5
8B689
331
8B5AB
  5
8B5BB
331
8B56C
  5
8B57C
331
8B4DD
  5
8B4ED
331
8B3B6
  5
8B3C5
331
8B62A
  5
8B63A
331
8B73F
  5
8B74F
331
8B6B8
  5
8B6C8
331
8B4E5
  5
8B4F5
331
8B3BE
  5
8B3CE
331
8B574
  5
8B584
331
8B5B3
  5
8B5C3
331
8B632
  5
8B642
331
8B681
  5
8B691
331
8B747
  5
8C1C2
331
8B689
  5
8B699
331
8B5BB
  5
8B5CB
331
8B3C6
  5
8B3D7
331
8B4ED
  5
8B4FD
331
8B63A
  5
8B64A
331
8B6C0
  5
8B6D0
331
8B6C8
  5
8B6D8
331
8B5C3
  5
8B5D3
331
8B4F5
  5
8B505
331
8B642
  5
8B652
331
8B691
  5
8B6A1
331
8B74F
  5
8C1CC
331
95459
  5
95475
331
9541A
  5
9543C
331
95490
  5
98C9F
331
953ED
  5
95406
331
95461
  5
9547F
331
953F5
  5
9540D
331
95469
  5
95487
331
95432
  5
9544B
331
8B58C
  5
8B59C
331
8B4BE
  5
8B4CE
331
8B5CB
  5
8B5DB
331
8B64A
  5
8B65A
331
8B699
  5
8B6A9
331
8B710
  5
8B720
331
8B594
  5
8B5A4
331
8B4C6
  5
8B4D6
331
8B61B
  5
8B62B
331
8B662
  5
8B672
331
8B6A1
  5
8B6B1
331
8B6A9
  5
8B6B9
331
8B623
  5
8B633
331
8B565
  5
8B575
331
8B4CE
  5
8B4DE
331
8B59C
  5
8B5AC
331
8B66A
  5
8B67A
331
8B718
  5
8B728
331
8B5A4
  5
8B5B4
331
8B4D6
  5
8B4E6
331
8B672
  5
8B682
331
95471
  5
9548F
331
9543A
  5
95453
331
953FB
  5
95415
331
95442
  5
9545B
331
95403
  5
95420
331
95481
  5
95511
331
9540B
  5
95430
331
9544A
  5
95466
331
95452
  5
9546E
331
95489
  5
98C98
331
8B738
  5
8B748
331
8B6B1
  5
8B6C1
331
8B56D
  5
8B57D
331
8B4DE
  5
8B4EE
331
8B3B7
  5
8B3C6
331
8B5AC
  5
8B5BC
331
8B62B
  5
8B63B
331
8B6B9
  5
8B6C9
331
8B575
  5
8B586
331
8B3BF
  5
8B3CF
331
8B4E6
  5
8B4F6
331
8B5B4
  5
8B5C4
331
8B633
  5
8B643
331
8B682
  5
8B692
331
8B740
  5
8B750
331
8B68A
  5
8B69A
331
8B5BC
  5
8B5CC
331
8B4EE
  5
8B4FE
331
8B3C7
  5
8B3D8
331
8B57D
  5
8B58E
331
8B63B
  5
8B64B
331
8B6C1
  5
8B6D1
331
8B6C9
  5
8B6D9
331
8B5C4
  5
8B5D4
331
8B4F6
  5
8B506
331
8B643
  5
8B653
331
8B692
  5
8B6A2
331
8B750
  5
8C1CD
331
95491
  5
98CA0
331
9541B
  5
9543D
331
953E6
  5
95401
331
9545A
  5
95476
331
A2E00
  5
A2F50
331
954D9
  5
98CA2
331
953EE
  5
95407
331
95423
  5
95442
331
95462
  5
95480
331
9546A
  5
95488
331
9542B
  5
95446
331
95433
  5
9544C
331
8B5CC
  5
8B5DC
331
8B58D
  5
8B59D
331
8B4BF
  5
8B4CF
331
8B69A
  5
8B6AA
331
8B711
  5
8B721
331
8B595
  5
8B5A5
331
8B4C7
  5
8B4D7
331
8B61C
  5
8B62C
331
8B663
  5
8B673
331
8B6A2
  5
8B6B2
331
8B719
  5
8B729
331
8B624
  5
8B634
331
8B566
  5
8B576
331
8B4CF
  5
8B4DF
331
8B59D
  5
8B5AD
331
8B66B
  5
8B67B
331
8B6AA
  5
8B6BA
331
8B5A5
  5
8B5B5
331
8B4D7
  5
8B4E7
331
8B673
  5
8B683
331
95472
  5
95490
331
9543B
  5
95454
331
953FC
  5
95418
331
95404
  5
95423
331
95443
  5
9545C
331
9544B
  5
95467
331
9540C
  5
95431
331
95414
  5
95437
331
95453
  5
9546F
331
8B739
  5
8B749
331
8B6B2
  5
8B6C2
331
8B67B
  5
8B68B
331
8B5AD
  5
8B5BD
331
8B56E
  5
8B57E
331
8B4DF
  5
8B4EF
331
8B3B8
  5
8B3C7
331
8B62C
  5
8B63C
331
8B6BA
  5
8B6CA
331
8B576
  5
8B587
331
8B4E7
  5
8B4F7
331
8B3C0
  5
8B3D0
331
8B5B5
  5
8B5C5
331
8B634
  5
8B644
331
8B683
  5
8B693
331
8B741
  5
8B751
331
8B6C2
  5
8B6D2
331
8B4EF
  5
8B4FF
331
8B3C8
  5
8B3D9
331
8B57E
  5
8B58F
331
8B5BD
  5
8B5CD
331
8B63C
  5
8B64C
331
8B68B
  5
8B69B
331
8B749
  5
8C1C6
331
8B751
  5
8C1CE
331
8B693
  5
8B6A3
331
8B5C5
  5
8B5D5
331
8B4F7
  5
8B507
331
8B586
  5
8B596
331
8B644
  5
8B654
331
8B6CA
  5
8B6DA
331
9545B
  5
95479
331
9541C
  5
9543E
331
953E7
  5
95402
331
95492
  5
98CA1
331
954DA
  5
95434
331
953EF
  5
95408
331
95463
  5
95481
331
9546B
  5
95489
331
953F7
  5
9540E
331
95512
  5
98CA6
331
95434
  5
9544D
331
8B58E
  5
8B59E
331
8B4C0
  5
8B4D0
331
8B69B
  5
8B6AB
331
8B6A3
  5
8B6B3
331
8B596
  5
8B5A6
331
8B4C8
  5
8B4D8
331
8B61D
  5
8B62D
331
8B664
  5
8B674
331
8B712
  5
8B722
331
8B71A
  5
8B72A
331
8B59E
  5
8B5AE
331
8B4D0
  5
8B4E0
331
8B567
  5
8B577
331
8B625
  5
8B635
331
8B66C
  5
8B67C
331
8B6AB
  5
8B6BB
331
8B5A6
  5
8B5B6
331
8B674
  5
8B684
331
A093A
  5
A093D
331
95473
  5
95491
331
9543C
  5
95455
331
953FD
  5
95419
331
95405
  5
95425
331
95444
  5
9545D
331
9544C
  5
95468
331
9540D
  5
95432
331
95415
  5
95438
331
95454
  5
95470
331
8B4D8
  5
8B4E8
331
7AC05
  5
7BAAD
331
8B73A
  5
8B74A
331
8B6B3
  5
8B6C3
331
8B67C
  5
8B68C
331
8B62D
  5
8B63D
331
8B5AE
  5
8B5BE
331
8B56F
  5
8B57F
331
8B3B9
  5
8B3C8
331
8B4E0
  5
8B4F0
331
8B6BB
  5
8B6CB
331
8B635
  5
8B645
331
8B684
  5
8B694
331
8B742
  5
8B752
331
8B5B6
  5
8B5C6
331
8B4E8
  5
8B4F8
331
8B3C1
  5
8B3D1
331
8B577
  5
8B588
331
8B74A
  5
8C1C7
331
8B68C
  5
8B69C
331
8B63D
  5
8B64D
331
8B6C3
  5
8B6D3
331
8B57F
  5
8B590
331
8B3C9
  5
8B3DA
331
8B4F0
  5
8B500
331
8B5BE
  5
8B5CE
331
8B694
  5
8B6A4
331
8B645
  5
8B655
331
8B6CB
  5
8B6DB
331
8B752
  5
8C1CF
331
8B5C6
  5
8B5D6
331
8B587
  5
8B597
331
9545C
  5
9547B
331
953E8
  5
95403
331
9541D
  5
9543F
331
95493
  5
95439
331
954DB
  5
98CA3
331
95425
  5
95443
331
953F0
  5
95409
331
95464
  5
95482
331
9542D
  5
95447
331
9546C
  5
9548A
331
95435
  5
9544E
331
8B4F8
  5
8B508
331
8B69C
  5
8B6AC
331
8B70B
  5
8B71B
331
8B58F
  5
8B59F
331
8B4C1
  5
8B4D1
331
8B500
  5
8B510
331
8B713
  5
8B723
331
8B665
  5
8B675
331
8B6A4
  5
8B6B4
331
8B4C9
  5
8B4D9
331
8B597
  5
8B5A7
331
8B61E
  5
8B62E
331
8B6AC
  5
8B6BC
331
8B66D
  5
8B67D
331
8B71B
  5
8B72B
331
8B626
  5
8B636
331
8B4D1
  5
8B4E1
331
8B59F
  5
8B5AF
331
8B675
  5
8B685
331
8B5A7
  5
8B5B7
331
95474
  5
95492
331
9543D
  5
95456
331
953FE
  5
9541B
331
95406
  5
95427
331
95445
  5
95461
331
95484
  5
95514
331
9540E
  5
95433
331
9544D
  5
95469
331
95455
  5
95471
331
9548C
  5
98C9B
331
8B568
  5
8B578
331
8B4D9
  5
8B4E9
331
7AC06
  5
7BAAE
331
8B73B
  5
8B74B
331
8B6B4
  5
8B6C4
331
8B67D
  5
8B68D
331
8B62E
  5
8B63E
331
8B5AF
  5
8B5BF
331
8B570
  5
8B580
331
8B3BA
  5
8B3C9
331
8B4E1
  5
8B4F1
331
8B6BC
  5
8B6CC
331
8B636
  5
8B646
331
8B743
  5
8B753
331
8B578
  5
8B589
331
8B3C2
  5
8B3D2
331
8B4E9
  5
8B4F9
331
8B5B7
  5
8B5C7
331
8B74B
  5
8C1C8
331
8B68D
  5
8B69D
331
8B63E
  5
8B64E
331
8B6C4
  5
8B6D4
331
8B5BF
  5
8B5CF
331
8B4F1
  5
8B501
331
8B3CA
  5
8B3DB
331
8B580
  5
8B591
331
8B6CC
  5
8B6DC
331
8B646
  5
8B656
331
8B695
  5
8B6A5
331
8B753
  5
8C1D0
331
8B5C7
  5
8B5D7
331
9541E
  5
95440
331
953F1
  5
9540A
331
95465
  5
95483
331
9546D
  5
9548B
331
95436
  5
9544F
331
8B588
  5
8B598
331
8B4F9
  5
8B509
331
8B69D
  5
8B6AD
331
8B70C
  5
8B71C
331
8B4C2
  5
8B4D2
331
8B590
  5
8B5A0
331
8B714
  5
8B724
331
8B666
  5
8B676
331
8B6A5
  5
8B6B5
331
8B598
  5
8B5A8
331
8B4CA
  5
8B4DA
331
8B61F
  5
8B62F
331
8B6AD
  5
8B6BD
331
8B66E
  5
8B67E
331
8B71C
  5
8B72C
331
8B627
  5
8B637
331
8B5A0
  5
8B5B0
331
8B4D2
  5
8B4E2
331
8B676
  5
8B686
331
95475
  5
95493
331
9543E
  5
95457
331
953FF
  5
9541C
331
9547D
  5
954DB
331
95407
  5
95429
331
95446
  5
95462
331
9544E
  5
9546A
331
9540F
  5
95435
331
95485
  5
95516
331
95456
  5
95472
331
8B5A8
  5
8B5B8
331
8B569
  5
8B579
331
8B4DA
  5
8B4EA
331
8B3B3
  5
8B3C2
331
8B73C
  5
8B74C
331
8B6B5
  5
8B6C5
331
8B67E
  5
8B68E
331
8B4E2
  5
8B4F2
331
8B3BB
  5
8B3CA
331
8B571
  5
8B581
331
8B5B0
  5
8B5C0
331
8B62F
  5
8B63F
331
8B6BD
  5
8B6CD
331
8B5B8
  5
8B5C8
331
8B3C3
  5
8B3D3
331
8B4EA
  5
8B4FA
331
8B637
  5
8B647
331
8B744
  5
8B754
331
8B6C5
  5
8B6D5
331
8B4F2
  5
8B502
331
8B3CB
  5
8B3DC
331
8B581
  5
8B592
331
8B5C0
  5
8B5D0
331
8B63F
  5
8B64F
331
8B68E
  5
8B69E
331
8B74C
  5
8C1C9
331
8B754
  5
8C1D1
331
8B696
  5
8B6A6
331
8B647
  5
8B657
331
8B6CD
  5
8B6DD
331
953EA
  5
95404
331
953F2
  5
9540B
331
95427
  5
95444
331
95466
  5
95484
331
9546E
  5
9548C
331
9542F
  5
95448
331
9550D
  5
95515
331
95437
  5
95450
331
8B589
  5
8B599
331
8B4FA
  5
8B50A
331
8B5C8
  5
8B5D8
331
8B70D
  5
8B71D
331
8B591
  5
8B5A1
331
8B4C3
  5
8B4D3
331
8B69E
  5
8B6AE
331
8B620
  5
8B630
331
8B599
  5
8B5A9
331
8B4CB
  5
8B4DB
331
8B667
  5
8B677
331
8B6A6
  5
8B6B6
331
8B715
  5
8B725
331
8B71D
  5
8B72D
331
8B5A1
  5
8B5B1
331
8B4D3
  5
8B4E3
331
8B66F
  5
8B67F
331
8B6AE
  5
8B6BE
331
8B677
  5
8B687
331
953F8
  5
9540F
331
95476
  5
954D9
331
9543F
  5
95458
331
95400
  5
9541D
331
9547E
  5
9550D
331
95408
  5
9542B
331
95447
  5
95463
331
9544F
  5
9546B
331
95410
  5
95436
331
95486
  5
98C95
331
95457
  5
95473
331
8B5A9
  5
8B5B9
331
8B56A
  5
8B57A
331
8B3B4
  5
8B3C3
331
8B4DB
  5
8B4EB
331
8B628
  5
8B638
331
8B73D
  5
8B74D
331
8B6B6
  5
8B6C6
331
8B67F
  5
8B68F
331
8B572
  5
8B582
331
8B3BC
  5
8B3CB
331
8B4E3
  5
8B4F3
331
8B5B1
  5
8B5C1
331
8B630
  5
8B640
331
8B5B9
  5
8B5C9
331
8B4EB
  5
8B4FB
331
8B3C4
  5
8B3D5
331
8B638
  5
8B648
331
8B6BE
  5
8B6CE
331
8B745
  5
8C1C0
331
8B74D
  5
8C1CA
331
8B582
  5
8B593
331
8B4F3
  5
8B503
331
8B5C1
  5
8B5D1
331
8B640
  5
8B650
331
8B68F
  5
8B69F
331
8B6C6
  5
8B6D6
331
8B697
  5
8B6A7
331
8B6CE
  5
8B6DE
331
95418
  5
9543A
331
95467
  5
95485
331
953F3
  5
9540C
331
95430
  5
95449
331
9546F
  5
9548D
  0
XRECORD
  5
AB234
102
{ACAD_REACTORS
330
AB233
102
}
330
AB233
100
AcDbXrecord
280
     1
 70
     1
  0
LAYOUT
  5
22
102
{ACAD_XDICTIONARY
360
AB237
102
}
102
{ACAD_REACTORS
330
1A
102
}
330
1A
100
AcDbPlotSettings
  1

  2
Adobe PDF
  4
User66
  6

 40
3.174999952316284
 41
3.174999952316284
 42
3.17498779296875
 43
3.17498779296875
 44
420.0
 45
594.0
 46
-3.174993872642517
 47
-3.174993872642573
 48
0.0
 49
0.0
140
1188.0
141
840.0
142
1.0
143
2.0
 70
  3748
 72
     1
 73
     1
 74
     4
  7
monochrome.ctb
 75
     0
147
0.4848174396015349
148
0.0
149
0.0
100
AcDbLayout
  1
Model
 70
     1
 71
     0
 10
0.0
 20
0.0
 11
12.0
 21
9.0
 12
0.0
 22
0.0
 32
0.0
 14
0.0
 24
0.0
 34
0.0
 15
0.0
 25
0.0
 35
0.0
146
0.0
 13
0.0
 23
0.0
 33
0.0
 16
1.0
 26
0.0
 36
0.0
 17
0.0
 27
1.0
 37
0.0
 76
     0
330
1F
331
B0EC
1001
ACAD_PSEXT
1000
Adobe PDF
1000
Adobe PDF Converter
1000
My Documents\*.pdf
1000

1070
     0
  0
LAYOUT
  5
1E
102
{ACAD_XDICTIONARY
360
AB235
102
}
102
{ACAD_REACTORS
330
1A
102
}
330
1A
100
AcDbPlotSettings
  1

  2
\\ML370\XEROX
  4
A4
  6

 40
3.174999952316284
 41
3.174999952316284
 42
3.175003051757812
 43
3.17498779296875
 44
209.8674926757813
 45
296.6719970703125
 46
0.0
 47
0.0
 48
0.0
 49
0.0
140
0.0
141
0.0
142
1.0
143
1.0
 70
   688
 72
     1
 73
     1
 74
     5
  7
monochrome.ctb
 75
    16
147
1.0
148
0.0
149
0.0
100
AcDbLayout
  1
ﾚｲｱｳﾄ1
 70
     1
 71
     1
 10
-3.17498779296875
 20
-3.174999952316284
 11
293.4970092773438
 21
206.692492723465
 12
0.0
 22
0.0
 32
0.0
 14
1.000000000000000E+20
 24
1.000000000000000E+20
 34
1.000000000000000E+20
 15
-1.000000000000000E+20
 25
-1.000000000000000E+20
 35
-1.000000000000000E+20
146
0.0
 13
0.0
 23
0.0
 33
0.0
 16
1.0
 26
0.0
 36
0.0
 17
0.0
 27
1.0
 37
0.0
 76
     0
330
1B
  0
LAYOUT
  5
26
102
{ACAD_XDICTIONARY
360
AB239
102
}
102
{ACAD_REACTORS
330
1A
102
}
330
1A
100
AcDbPlotSettings
  1

  2
\\ML370\XEROX
  4

  6

 40
0.0
 41
0.0
 42
0.0
 43
0.0
 44
0.0
 45
0.0
 46
0.0
 47
0.0
 48
0.0
 49
0.0
140
0.0
141
0.0
142
1.0
143
1.0
 70
   688
 72
     0
 73
     0
 74
     5
  7
monochrome.ctb
 75
    16
147
1.0
148
0.0
149
0.0
100
AcDbLayout
  1
ﾚｲｱｳﾄ2
 70
     1
 71
     2
 10
0.0
 20
0.0
 11
12.0
 21
9.0
 12
0.0
 22
0.0
 32
0.0
 14
0.0
 24
0.0
 34
0.0
 15
0.0
 25
0.0
 35
0.0
146
0.0
 13
0.0
 23
0.0
 33
0.0
 16
1.0
 26
0.0
 36
0.0
 17
0.0
 27
1.0
 37
0.0
 76
     0
330
23
  0
MATERIAL
  5
B0EF
102
{ACAD_XDICTIONARY
360
AB23F
102
}
102
{ACAD_REACTORS
330
A91C
102
}
330
A91C
100
AcDbMaterial
  1
ByBlock
  0
MATERIAL
  5
B0EE
102
{ACAD_XDICTIONARY
360
AB23D
102
}
102
{ACAD_REACTORS
330
A91C
102
}
330
A91C
100
AcDbMaterial
  1
ByLayer
  0
MATERIAL
  5
B0F0
102
{ACAD_XDICTIONARY
360
AB241
102
}
102
{ACAD_REACTORS
330
A91C
102
}
330
A91C
100
AcDbMaterial
  1
Global
  0
MLINESTYLE
  5
18
102
{ACAD_REACTORS
330
17
102
}
330
17
100
AcDbMlineStyle
  2
STANDARD
 70
     0
  3

 62
   256
 51
90.0
 52
90.0
 71
     2
 49
0.5
 62
   256
  6
BYLAYER
 49
-0.5
 62
   256
  6
BYLAYER
  0
ACDBPLACEHOLDER
  5
F
102
{ACAD_REACTORS
330
E
102
}
330
E
  0
TABLESTYLE
  5
AABA
102
{ACAD_XDICTIONARY
360
AB23B
102
}
102
{ACAD_REACTORS
330
AAB9
102
}
330
AAB9
100
AcDbTableStyle
  3
Standard
 70
     0
 71
     0
 40
1.5
 41
1.5
280
     0
281
     0
  7
STANDARD
140
4.5
170
     2
 62
     0
 63
     7
283
     0
274
    -2
284
     1
 64
     0
275
    -2
285
     1
 65
     0
276
    -2
286
     1
 66
     0
277
    -2
287
     1
 67
     0
278
    -2
288
     1
 68
     0
279
    -2
289
     1
 69
     0
  7
STANDARD
140
6.0
170
     5
 62
     0
 63
     7
283
     0
274
    -2
284
     1
 64
     0
275
    -2
285
     1
 65
     0
276
    -2
286
     1
 66
     0
277
    -2
287
     1
 67
     0
278
    -2
288
     1
 68
     0
279
    -2
289
     1
 69
     0
  7
STANDARD
140
4.5
170
     5
 62
     0
 63
     7
283
     0
274
    -2
284
     1
 64
     0
275
    -2
285
     1
 65
     0
276
    -2
286
     1
 66
     0
277
    -2
287
     1
 67
     0
278
    -2
288
     1
 68
     0
279
    -2
289
     1
 69
     0
  0
VISUALSTYLE
  5
B0F7
102
{ACAD_REACTORS
330
B0F1
102
}
330
B0F1
100
AcDbVisualStyle
  2
2dWireframe
 70
     4
 71
     0
 72
     2
 73
     0
 90
        0
 40
-0.6
 41
-30.0
 62
     5
 63
     7
 74
     1
 91
        4
 64
     7
 65
   257
 75
     1
175
     1
 42
1.0
 92
        0
 66
   257
 43
1.0
 76
     1
 77
     6
 78
     2
 67
     7
 79
     5
170
     0
171
     0
290
     0
174
     0
 93
        1
 44
0.0
173
     0
291
     0
 45
0.0
1001
ACAD
1000
AcDbSavedByObjectVersion
1070
     0
  0
VISUALSTYLE
  5
B0F9
102
{ACAD_REACTORS
330
B0F1
102
}
330
B0F1
100
AcDbVisualStyle
  2
3D Hidden
 70
     6
 71
     1
 72
     2
 73
     2
 90
        0
 40
-0.6
 41
-30.0
 62
     5
 63
     7
 74
     2
 91
        2
 64
     7
 65
   257
 75
     2
175
     1
 42
40.0
 92
        0
 66
   257
 43
1.0
 76
     1
 77
     6
 78
     2
 67
     7
 79
     3
170
     0
171
     0
290
     0
174
     0
 93
        1
 44
0.0
173
     0
291
     0
 45
0.0
1001
ACAD
1000
AcDbSavedByObjectVersion
1070
     0
  0
VISUALSTYLE
  5
B0F8
102
{ACAD_REACTORS
330
B0F1
102
}
330
B0F1
100
AcDbVisualStyle
  2
3dWireframe
 70
     5
 71
     0
 72
     2
 73
     0
 90
        0
 40
-0.6
 41
-30.0
 62
     5
 63
     7
 74
     1
 91
        4
 64
     7
 65
   257
 75
     1
175
     1
 42
1.0
 92
        0
 66
   257
 43
1.0
 76
     1
 77
     6
 78
     2
 67
     7
 79
     5
170
     0
171
     0
290
     0
174
     0
 93
        1
 44
0.0
173
     0
291
     0
 45
0.0
1001
ACAD
1000
AcDbSavedByObjectVersion
1070
     0
  0
VISUALSTYLE
  5
B0F6
102
{ACAD_REACTORS
330
B0F1
102
}
330
B0F1
100
AcDbVisualStyle
  2
Basic
 70
     7
 71
     1
 72
     0
 73
     1
 90
        0
 40
-0.6
 41
-30.0
 62
     5
 63
     7
 74
     0
 91
        4
 64
     7
 65
   257
 75
     1
175
     1
 42
1.0
 92
        8
 66
     7
 43
1.0
 76
     1
 77
     6
 78
     2
 67
     7
 79
     5
170
     0
171
     0
290
     0
174
     0
 93
        1
 44
0.0
173
     0
291
     1
 45
0.0
1001
ACAD
1000
AcDbSavedByObjectVersion
1070
     0
  0
VISUALSTYLE
  5
B0FD
102
{ACAD_REACTORS
330
B0F1
102
}
330
B0F1
100
AcDbVisualStyle
  2
Brighten
 70
    12
 71
     2
 72
     2
 73
     0
 90
        0
 40
-0.6
 41
-30.0
 62
     5
 63
     7
 74
     1
 91
        4
 64
     7
 65
   257
 75
     1
175
     1
 42
1.0
 92
        8
 66
     7
 43
1.0
 76
     1
 77
     6
 78
     2
 67
     7
 79
     5
170
     0
171
     0
290
     0
174
     0
 93
        1
 44
50.0
173
     0
291
     1
 45
0.0
1001
ACAD
1000
AcDbSavedByObjectVersion
1070
     0
  0
VISUALSTYLE
  5
B101
102
{ACAD_REACTORS
330
B0F1
102
}
330
B0F1
100
AcDbVisualStyle
  2
ColorChange
 70
    16
 71
     2
 72
     2
 73
     3
 90
        0
 40
-0.6
 41
-30.0
 62
     5
 63
     8
 74
     1
 91
        4
 64
     7
 65
   257
 75
     1
175
     1
 42
1.0
 92
        8
 66
     8
 43
1.0
 76
     1
 77
     6
 78
     2
 67
     7
 79
     5
170
     0
171
     0
290
     0
174
     0
 93
        1
 44
0.0
173
     0
291
     1
 45
0.0
1001
ACAD
1000
AcDbSavedByObjectVersion
1070
     0
  0
VISUALSTYLE
  5
B0FA
102
{ACAD_REACTORS
330
B0F1
102
}
330
B0F1
100
AcDbVisualStyle
  2
Conceptual
 70
     9
 71
     3
 72
     2
 73
     0
 90
        0
 40
-0.6
 41
-30.0
 62
     5
 63
     7
 74
     2
 91
        2
 64
     7
 65
   257
 75
     1
175
     1
 42
40.0
 92
        8
 66
     7
 43
1.0
 76
     1
 77
     6
 78
     2
 67
     7
 79
     3
170
     0
171
     0
290
     0
174
     0
 93
        1
 44
0.0
173
     0
291
     0
 45
0.0
1001
ACAD
1000
AcDbSavedByObjectVersion
1070
     0
  0
VISUALSTYLE
  5
B0FC
102
{ACAD_REACTORS
330
B0F1
102
}
330
B0F1
100
AcDbVisualStyle
  2
Dim
 70
    11
 71
     2
 72
     2
 73
     0
 90
        0
 40
-0.6
 41
-30.0
 62
     5
 63
     7
 74
     1
 91
        4
 64
     7
 65
   257
 75
     1
175
     1
 42
1.0
 92
        8
 66
     7
 43
1.0
 76
     1
 77
     6
 78
     2
 67
     7
 79
     5
170
     0
171
     0
290
     0
174
     0
 93
        1
 44
-50.0
173
     0
291
     1
 45
0.0
1001
ACAD
1000
AcDbSavedByObjectVersion
1070
     0
  0
VISUALSTYLE
  5
B100
102
{ACAD_REACTORS
330
B0F1
102
}
330
B0F1
100
AcDbVisualStyle
  2
Facepattern
 70
    15
 71
     2
 72
     2
 73
     0
 90
        0
 40
-0.6
 41
-30.0
 62
     5
 63
     7
 74
     1
 91
        4
 64
     7
 65
   257
 75
     1
175
     1
 42
1.0
 92
        8
 66
     7
 43
1.0
 76
     1
 77
     6
 78
     2
 67
     7
 79
     5
170
     0
171
     0
290
     0
174
     0
 93
        1
 44
0.0
173
     0
291
     1
 45
0.0
1001
ACAD
1000
AcDbSavedByObjectVersion
1070
     0
  0
VISUALSTYLE
  5
B0F2
102
{ACAD_REACTORS
330
B0F1
102
}
330
B0F1
100
AcDbVisualStyle
  2
Flat
 70
     0
 71
     2
 72
     1
 73
     1
 90
        2
 40
-0.6
 41
30.0
 62
     5
 63
     7
 74
     0
 91
        4
 64
     7
 65
   257
 75
     1
175
     1
 42
1.0
 92
        8
 66
     7
 43
1.0
 76
     1
 77
     6
 78
     2
 67
     7
 79
     5
170
     0
171
     0
290
     0
174
     0
 93
       13
 44
0.0
173
     0
291
     1
 45
0.0
1001
ACAD
1000
AcDbSavedByObjectVersion
1070
     0
  0
VISUALSTYLE
  5
B0F3
102
{ACAD_REACTORS
330
B0F1
102
}
330
B0F1
100
AcDbVisualStyle
  2
FlatWithEdges
 70
     1
 71
     2
 72
     1
 73
     1
 90
        2
 40
-0.6
 41
30.0
 62
     5
 63
     7
 74
     1
 91
        4
 64
     7
 65
   257
 75
     1
175
     1
 42
1.0
 92
        0
 66
   257
 43
1.0
 76
     1
 77
     6
 78
     2
 67
     7
 79
     5
170
     0
171
     0
290
     0
174
     0
 93
       13
 44
0.0
173
     0
291
     1
 45
0.0
1001
ACAD
1000
AcDbSavedByObjectVersion
1070
     0
  0
VISUALSTYLE
  5
B0F4
102
{ACAD_REACTORS
330
B0F1
102
}
330
B0F1
100
AcDbVisualStyle
  2
Gouraud
 70
     2
 71
     2
 72
     2
 73
     1
 90
        2
 40
-0.6
 41
30.0
 62
     5
 63
     7
 74
     0
 91
        4
 64
     7
 65
   257
 75
     1
175
     1
 42
1.0
 92
        0
 66
     7
 43
1.0
 76
     1
 77
     6
 78
     2
 67
     7
 79
     5
170
     0
171
     0
290
     0
174
     0
 93
       13
 44
0.0
173
     0
291
     1
 45
0.0
1001
ACAD
1000
AcDbSavedByObjectVersion
1070
     0
  0
VISUALSTYLE
  5
B0F5
102
{ACAD_REACTORS
330
B0F1
102
}
330
B0F1
100
AcDbVisualStyle
  2
GouraudWithEdges
 70
     3
 71
     2
 72
     2
 73
     1
 90
        2
 40
-0.6
 41
30.0
 62
     5
 63
     7
 74
     1
 91
        4
 64
     7
 65
   257
 75
     1
175
     1
 42
1.0
 92
        0
 66
   257
 43
1.0
 76
     1
 77
     6
 78
     2
 67
     7
 79
     5
170
     0
171
     0
290
     0
174
     0
 93
       13
 44
0.0
173
     0
291
     1
 45
0.0
1001
ACAD
1000
AcDbSavedByObjectVersion
1070
     0
  0
VISUALSTYLE
  5
B0FF
102
{ACAD_REACTORS
330
B0F1
102
}
330
B0F1
100
AcDbVisualStyle
  2
Linepattern
 70
    14
 71
     2
 72
     2
 73
     0
 90
        0
 40
-0.6
 41
-30.0
 62
     5
 63
     7
 74
     1
 91
        4
 64
     7
 65
   257
 75
     7
175
     7
 42
1.0
 92
        8
 66
     7
 43
1.0
 76
     1
 77
     6
 78
     2
 67
     7
 79
     5
170
     0
171
     0
290
     0
174
     0
 93
        1
 44
0.0
173
     0
291
     1
 45
0.0
1001
ACAD
1000
AcDbSavedByObjectVersion
1070
     0
  0
VISUALSTYLE
  5
B0FB
102
{ACAD_REACTORS
330
B0F1
102
}
330
B0F1
100
AcDbVisualStyle
  2
Realistic
 70
     8
 71
     2
 72
     2
 73
     0
 90
        0
 40
-0.6
 41
-30.0
 62
     5
 63
     7
 74
     1
 91
        0
 64
     7
 65
   257
 75
     1
175
     1
 42
1.0
 92
        8
 66
     8
 43
1.0
 76
     1
 77
     6
 78
     2
 67
     7
 79
     5
170
     0
171
     0
290
     0
174
     0
 93
       13
 44
0.0
173
     0
291
     0
 45
0.0
1001
ACAD
1000
AcDbSavedByObjectVersion
1070
     0
  0
VISUALSTYLE
  5
B0FE
102
{ACAD_REACTORS
330
B0F1
102
}
330
B0F1
100
AcDbVisualStyle
  2
Thicken
 70
    13
 71
     2
 72
     2
 73
     0
 90
        0
 40
-0.6
 41
-30.0
 62
     5
 63
     7
 74
     1
 91
        4
 64
     7
 65
   257
 75
     1
175
     1
 42
1.0
 92
       12
 66
     7
 43
1.0
 76
     1
 77
     6
 78
     2
 67
     7
 79
     5
170
     0
171
     0
290
     0
174
     0
 93
        1
 44
0.0
173
     0
291
     1
 45
0.0
1001
ACAD
1000
AcDbSavedByObjectVersion
1070
     0
  0
DICTIONARYVAR
  5
AAF3
102
{ACAD_REACTORS
330
34
102
}
330
34
100
DictionaryVariables
280
     0
  1
STANDARD
  0
DICTIONARYVAR
  5
A10C
102
{ACAD_REACTORS
330
34
102
}
330
34
100
DictionaryVariables
280
     0
  1
1
  0
DICTIONARYVAR
  5
AB07
102
{ACAD_REACTORS
330
34
102
}
330
34
100
DictionaryVariables
280
     0
  1
4
  0
DICTIONARYVAR
  5
35
102
{ACAD_REACTORS
330
34
102
}
330
34
100
DictionaryVariables
280
     0
  1
0
  0
DICTIONARYVAR
  5
194C
102
{ACAD_REACTORS
330
34
102
}
330
34
100
DictionaryVariables
280
     0
  1
96
  0
DICTIONARY
  5
7E8
102
{ACAD_REACTORS
330
47
102
}
330
47
100
AcDbDictionary
281
     1
  0
DICTIONARY
  5
4C
102
{ACAD_REACTORS
330
47
102
}
330
47
100
AcDbDictionary
281
     1
  0
XRECORD
  5
A929
102
{ACAD_REACTORS
330
47
102
}
330
47
100
AcDbXrecord
280
     1
 90
-1023410169
  0
XRECORD
  5
AA8D9
102
{ACAD_REACTORS
330
AA8D8
102
}
330
AA8D8
100
AcDbXrecord
280
     1
330
0
330
0
330
0
330
0
330
0
330
0
330
0
330
0
330
0
330
0
330
0
330
0
330
0
330
0
330
0
330
0
330
0
330
0
330
0
330
0
330
0
330
0
330
0
330
0
330
0
330
0
330
0
330
0
330
0
330
0
330
0
330
0
330
0
330
0
330
0
330
0
330
0
330
0
330
0
330
0
330
0
330
0
330
0
330
0
330
0
330
0
330
0
330
0
330
0
330
0
330
0
330
0
330
0
330
0
330
0
330
0
330
0
330
0
330
0
330
0
330
0
330
0
330
0
330
0
330
0
330
0
330
0
330
0
330
0
330
0
330
0
330
0
330
0
330
0
330
0
330
0
330
0
330
0
330
0
330
0
330
0
330
0
330
0
330
0
330
0
330
0
330
0
330
0
330
0
330
0
330
0
330
0
330
0
330
0
330
0
330
0
330
0
330
0
330
0
330
0
330
0
330
0
330
0
330
0
330
0
330
0
330
0
330
0
330
0
330
0
330
0
330
0
330
0
330
0
330
0
330
0
330
0
330
0
330
0
330
0
330
0
330
0
330
0
330
0
330
0
330
0
330
0
330
0
330
0
330
0
330
0
330
0
330
0
330
0
330
0
330
0
330
0
330
0
330
0
330
0
330
0
330
0
330
0
330
0
330
0
330
0
330
0
330
0
330
0
330
0
330
0
330
0
330
0
330
0
330
0
330
0
330
0
330
0
330
0
330
0
330
0
330
0
330
0
330
0
330
0
330
0
330
0
330
0
330
0
330
0
330
0
330
0
330
0
330
0
330
0
330
0
330
0
330
0
330
0
330
0
330
0
330
0
330
0
330
0
330
0
330
0
330
0
330
0
330
0
330
0
330
0
330
0
330
0
330
0
330
0
330
0
330
0
330
0
330
0
330
0
330
0
330
0
330
0
330
0
330
0
330
0
330
0
330
0
330
0
330
0
330
0
330
0
330
0
330
0
330
0
330
0
330
0
330
0
330
0
330
0
330
0
330
0
330
0
330
0
330
0
330
0
330
0
330
0
330
0
330
0
330
0
330
0
330
0
330
0
330
0
330
0
330
0
330
0
330
0
330
0
330
0
330
0
330
0
330
0
330
0
330
0
330
0
330
0
330
0
330
0
330
0
330
0
330
0
330
0
330
0
330
0
330
0
330
0
330
0
330
0
330
0
330
0
330
0
330
0
330
0
330
0
330
0
330
0
330
0
330
0
330
0
330
0
330
0
330
0
330
0
330
0
330
0
330
0
330
0
330
0
330
0
330
0
330
0
330
0
330
0
330
0
330
0
330
0
330
0
330
0
330
0
330
0
330
0
330
0
330
0
330
0
330
0
330
0
330
0
330
0
330
0
330
0
330
0
330
0
330
0
330
0
330
0
330
0
330
0
330
0
330
0
330
0
330
0
330
0
330
0
330
0
330
0
330
0
330
0
330
0
330
0
330
0
330
0
330
0
330
0
330
0
330
0
330
0
330
0
330
0
330
0
330
0
330
0
330
0
330
0
330
0
330
0
330
0
330
0
330
0
330
0
330
0
330
0
330
0
330
0
330
0
330
0
330
0
330
0
330
0
330
0
330
0
330
0
330
0
330
0
330
0
330
0
330
0
330
0
330
0
330
0
330
0
330
0
330
0
330
0
330
0
330
0
330
0
330
0
330
0
330
0
330
0
330
0
330
0
330
0
330
0
330
0
330
0
330
0
330
0
330
0
330
0
330
0
330
0
330
0
330
0
330
0
330
0
330
0
330
0
330
0
330
0
330
0
330
0
330
0
330
0
330
0
330
0
330
0
330
0
330
0
330
0
330
0
330
0
330
0
330
0
330
0
330
0
330
0
330
0
330
0
330
0
330
0
330
0
330
0
330
0
330
0
330
0
330
0
330
0
330
0
330
0
330
0
330
0
330
0
330
0
330
0
330
0
330
0
330
0
330
0
330
0
330
0
330
0
330
0
330
0
330
0
330
0
330
0
330
0
330
0
330
0
330
0
330
0
330
0
330
0
330
0
330
0
330
0
330
0
330
0
330
0
330
0
330
0
330
0
330
0
330
0
330
0
330
0
330
0
330
0
330
0
330
0
330
0
330
0
330
0
330
0
330
0
330
0
330
0
330
0
330
0
330
0
330
0
330
0
330
0
330
0
330
0
330
0
330
0
330
0
330
0
330
0
330
0
330
0
330
0
330
0
330
0
330
0
330
0
330
0
330
0
330
0
330
0
330
0
330
0
  0
XRECORD
  5
3FB7
102
{ACAD_REACTORS
330
3F96
102
}
330
3F96
100
AcDbXrecord
280
     1
 91
        3
330
0
 90
        8
 62
     7
370
    40
331
16
  1
Color_7
330
0
 90
        0
 62
    14
370
    -3
331
16
  1
Color_14
330
0
 90
        8
 62
     7
370
    20
331
16
  1
Color_7
330
6D1
 90
        0
 62
     7
370
    -3
331
16
  1
Color_7
330
0
 90
        8
 62
     7
370
    50
331
16
  1
Color_7
330
0
 90
        8
 62
     2
370
    35
331
16
  1
Color_2
330
0
 90
        8
 62
     7
370
    -3
331
16
  1
Color_7
330
10
 90
        8
 62
     7
370
    -3
331
16
  1
Color_7
  0
DICTIONARY
  5
AB237
330
22
100
AcDbDictionary
280
     1
281
     1
  3
ACAD_XREC_ROUNDTRIP
360
AB238
  0
DICTIONARY
  5
AB235
330
1E
100
AcDbDictionary
280
     1
281
     1
  3
ACAD_XREC_ROUNDTRIP
360
AB236
  0
DICTIONARY
  5
AB239
330
26
100
AcDbDictionary
280
     1
281
     1
  3
ACAD_XREC_ROUNDTRIP
360
AB23A
  0
DICTIONARY
  5
AB23F
330
B0EF
100
AcDbDictionary
280
     1
281
     1
  3
ACAD_XREC_ROUNDTRIP
360
AB240
  0
DICTIONARY
  5
AB23D
330
B0EE
100
AcDbDictionary
280
     1
281
     1
  3
ACAD_XREC_ROUNDTRIP
360
AB23E
  0
DICTIONARY
  5
AB241
330
B0F0
100
AcDbDictionary
280
     1
281
     1
  3
ACAD_XREC_ROUNDTRIP
360
AB242
  0
DICTIONARY
  5
AB23B
330
AABA
100
AcDbDictionary
280
     1
281
     1
  3
ACAD_XREC_ROUNDTRIP
360
AB23C
  0
XRECORD
  5
AB238
102
{ACAD_REACTORS
330
AB237
102
}
330
AB237
100
AcDbXrecord
280
     1
102
SHADEPLOT
 70
     1
102
SHADEPLOTRESLEVEL
 70
     2
102
SHADEPLOTCUSTOMDPI
 70
   300
  0
XRECORD
  5
AB236
102
{ACAD_REACTORS
330
AB235
102
}
330
AB235
100
AcDbXrecord
280
     1
102
SHADEPLOT
 70
     0
102
SHADEPLOTRESLEVEL
 70
     2
102
SHADEPLOTCUSTOMDPI
 70
   300
  0
XRECORD
  5
AB23A
102
{ACAD_REACTORS
330
AB239
102
}
330
AB239
100
AcDbXrecord
280
     1
102
SHADEPLOT
 70
     0
102
SHADEPLOTRESLEVEL
 70
     2
102
SHADEPLOTCUSTOMDPI
 70
   300
  0
XRECORD
  5
AB240
102
{ACAD_REACTORS
330
AB23F
102
}
330
AB23F
100
AcDbXrecord
280
     1
102
MATERIAL
148
0.0
149
0.0
149
0.0
 93
        0
 94
       63
282
     0
 72
     1
 77
     1
171
     1
175
     1
179
     1
273
     0
  0
XRECORD
  5
AB23E
102
{ACAD_REACTORS
330
AB23D
102
}
330
AB23D
100
AcDbXrecord
280
     1
102
MATERIAL
148
0.0
149
0.0
149
0.0
 93
        0
 94
       63
282
     0
 72
     1
 77
     1
171
     1
175
     1
179
     1
273
     0
  0
XRECORD
  5
AB242
102
{ACAD_REACTORS
330
AB241
102
}
330
AB241
100
AcDbXrecord
280
     1
102
MATERIAL
148
0.0
149
0.0
149
0.0
 93
        0
 94
       63
282
     0
 72
     1
 77
     1
171
     1
175
     1
179
     1
273
     0
  0
XRECORD
  5
AB23C
102
{ACAD_REACTORS
330
AB23B
102
}
330
AB23B
100
AcDbXrecord
280
     1
102
ACAD_ROUNDTRIP_PRE2007_TABLESTYLE
 90
        4
 91
        0
  1

 92
        4
 93
        0
  2

 94
        4
 95
        0
  3

  0
ENDSEC
  0
EOF
