  0
SECTION
  2
HEADER
  9
$ACADVER
  1
AC1015
  9
$ACADMAINTVER
 70
    20
  9
$DWGCODEPAGE
  3
ANSI_932
  9
$INSBASE
 10
0.0
 20
0.0
 30
0.0
  9
$EXTMIN
 10
-0.0483191242908561
 20
-0.0157701013559972
 30
-0.0000000000112498
  9
$EXTMAX
 10
420.0296548654884
 20
297.0134726481093
 30
0.0000000000002956
  9
$LIMMIN
 10
420.0000001334349
 20
-0.0000005520710431
  9
$LIMMAX
 10
717.0000001334349
 20
209.999999447929
  9
$ORTHOMODE
 70
     0
  9
$REGENMODE
 70
     1
  9
$FILLMODE
 70
     1
  9
$QTEXTMODE
 70
     0
  9
$MIRRTEXT
 70
     0
  9
$LTSCALE
 40
1.0
  9
$ATTMODE
 70
     1
  9
$TEXTSIZE
 40
3.2
  9
$TRACEWID
 40
1.0
  9
$TEXTSTYLE
  7
STANDARD
  9
$CLAYER
  8
AM_1
  9
$CELTYPE
  6
ByLayer
  9
$CECOLOR
 62
   256
  9
$CELTSCALE
 40
1.0
  9
$DISPSILH
 70
     0
  9
$DIMSCALE
 40
1.0
  9
$DIMASZ
 40
1.0
  9
$DIMEXO
 40
1.0
  9
$DIMDLI
 40
10.0
  9
$DIMRND
 40
0.0
  9
$DIMDLE
 40
0.0
  9
$DIMEXE
 40
1.0
  9
$DIMTP
 40
0.1
  9
$DIMTM
 40
0.1
  9
$DIMTXT
 40
3.5
  9
$DIMCEN
 40
0.0
  9
$DIMTSZ
 40
0.0
  9
$DIMTOL
 70
     0
  9
$DIMLIM
 70
     0
  9
$DIMTIH
 70
     0
  9
$DIMTOH
 70
     0
  9
$DIMSE1
 70
     0
  9
$DIMSE2
 70
     0
  9
$DIMTAD
 70
     1
  9
$DIMZIN
 70
     8
  9
$DIMBLK
  1

  9
$DIMASO
 70
     1
  9
$DIMSHO
 70
     1
  9
$DIMPOST
  1

  9
$DIMAPOST
  1
"
  9
$DIMALT
 70
     0
  9
$DIMALTD
 70
     2
  9
$DIMALTF
 40
0.0393701
  9
$DIMLFAC
 40
1.0
  9
$DIMTOFL
 70
     1
  9
$DIMTVP
 40
0.0
  9
$DIMTIX
 70
     0
  9
$DIMSOXD
 70
     0
  9
$DIMSAH
 70
     0
  9
$DIMBLK1
  1

  9
$DIMBLK2
  1

  9
$DIMSTYLE
  2
SYS
  9
$DIMCLRD
 70
   256
  9
$DIMCLRE
 70
   256
  9
$DIMCLRT
 70
     7
  9
$DIMTFAC
 40
0.71
  9
$DIMGAP
 40
1.5
  9
$DIMJUST
 70
     0
  9
$DIMSD1
 70
     0
  9
$DIMSD2
 70
     0
  9
$DIMTOLJ
 70
     0
  9
$DIMTZIN
 70
     8
  9
$DIMALTZ
 70
     0
  9
$DIMALTTZ
 70
     0
  9
$DIMUPT
 70
     0
  9
$DIMDEC
 70
     2
  9
$DIMTDEC
 70
     2
  9
$DIMALTU
 70
     2
  9
$DIMALTTD
 70
     2
  9
$DIMTXSTY
  7
STANDARD
  9
$DIMAUNIT
 70
     0
  9
$DIMADEC
 70
     0
  9
$DIMALTRND
 40
0.0
  9
$DIMAZIN
 70
     2
  9
$DIMDSEP
 70
    46
  9
$DIMATFIT
 70
     3
  9
$DIMFRAC
 70
     0
  9
$DIMLDRBLK
  1

  9
$DIMLUNIT
 70
     2
  9
$DIMLWD
 70
    -1
  9
$DIMLWE
 70
    -1
  9
$DIMTMOVE
 70
     0
  9
$LUNITS
 70
     2
  9
$LUPREC
 70
     2
  9
$SKETCHINC
 40
1.0
  9
$FILLETRAD
 40
5.0
  9
$AUNITS
 70
     0
  9
$AUPREC
 70
     0
  9
$MENU
  1
.
  9
$ELEVATION
 40
0.0
  9
$PELEVATION
 40
0.0
  9
$THICKNESS
 40
0.0
  9
$LIMCHECK
 70
     0
  9
$CHAMFERA
 40
0.0
  9
$CHAMFERB
 40
0.0
  9
$CHAMFERC
 40
20.0
  9
$CHAMFERD
 40
0.0
  9
$SKPOLY
 70
     0
  9
$TDCREATE
 40
2456044.409709734
  9
$TDUCREATE
 40
2456044.034709734
  9
$TDUPDATE
 40
2456329.841266632
  9
$TDUUPDATE
 40
2456329.466266632
  9
$TDINDWG
 40
0.9205743750
  9
$TDUSRTIMER
 40
0.9205743750
  9
$USRTIMER
 70
     1
  9
$ANGBASE
 50
0.0
  9
$ANGDIR
 70
     0
  9
$PDMODE
 70
     0
  9
$PDSIZE
 40
-3.0
  9
$PLINEWID
 40
0.0
  9
$SPLFRAME
 70
     0
  9
$SPLINETYPE
 70
     6
  9
$SPLINESEGS
 70
     8
  9
$HANDSEED
  5
EF0A
  9
$SURFTAB1
 70
     6
  9
$SURFTAB2
 70
     6
  9
$SURFTYPE
 70
     6
  9
$SURFU
 70
     6
  9
$SURFV
 70
     6
  9
$UCSBASE
  2

  9
$UCSNAME
  2

  9
$UCSORG
 10
0.0
 20
0.0
 30
0.0
  9
$UCSXDIR
 10
1.0
 20
0.0
 30
0.0
  9
$UCSYDIR
 10
0.0
 20
1.0
 30
0.0
  9
$UCSORTHOREF
  2

  9
$UCSORTHOVIEW
 70
     0
  9
$UCSORGTOP
 10
0.0
 20
0.0
 30
0.0
  9
$UCSORGBOTTOM
 10
0.0
 20
0.0
 30
0.0
  9
$UCSORGLEFT
 10
0.0
 20
0.0
 30
0.0
  9
$UCSORGRIGHT
 10
0.0
 20
0.0
 30
0.0
  9
$UCSORGFRONT
 10
0.0
 20
0.0
 30
0.0
  9
$UCSORGBACK
 10
0.0
 20
0.0
 30
0.0
  9
$PUCSBASE
  2

  9
$PUCSNAME
  2

  9
$PUCSORG
 10
0.0
 20
0.0
 30
0.0
  9
$PUCSXDIR
 10
1.0
 20
0.0
 30
0.0
  9
$PUCSYDIR
 10
0.0
 20
1.0
 30
0.0
  9
$PUCSORTHOREF
  2

  9
$PUCSORTHOVIEW
 70
     0
  9
$PUCSORGTOP
 10
0.0
 20
0.0
 30
0.0
  9
$PUCSORGBOTTOM
 10
0.0
 20
0.0
 30
0.0
  9
$PUCSORGLEFT
 10
0.0
 20
0.0
 30
0.0
  9
$PUCSORGRIGHT
 10
0.0
 20
0.0
 30
0.0
  9
$PUCSORGFRONT
 10
0.0
 20
0.0
 30
0.0
  9
$PUCSORGBACK
 10
0.0
 20
0.0
 30
0.0
  9
$USERI1
 70
     0
  9
$USERI2
 70
     0
  9
$USERI3
 70
     0
  9
$USERI4
 70
     0
  9
$USERI5
 70
     0
  9
$USERR1
 40
0.0
  9
$USERR2
 40
0.0
  9
$USERR3
 40
0.0
  9
$USERR4
 40
0.0
  9
$USERR5
 40
0.0
  9
$WORLDVIEW
 70
     1
  9
$SHADEDGE
 70
     3
  9
$SHADEDIF
 70
    70
  9
$TILEMODE
 70
     1
  9
$MAXACTVP
 70
    64
  9
$PINSBASE
 10
0.0
 20
0.0
 30
0.0
  9
$PLIMCHECK
 70
     0
  9
$PEXTMIN
 10
1.000000000000000E+20
 20
1.000000000000000E+20
 30
1.000000000000000E+20
  9
$PEXTMAX
 10
-1.000000000000000E+20
 20
-1.000000000000000E+20
 30
-1.000000000000000E+20
  9
$PLIMMIN
 10
-3.17498779296875
 20
-3.174999952316284
  9
$PLIMMAX
 10
293.4970092773438
 20
206.692492723465
  9
$UNITMODE
 70
     0
  9
$VISRETAIN
 70
     1
  9
$PLINEGEN
 70
     0
  9
$PSLTSCALE
 70
     1
  9
$TREEDEPTH
 70
  3020
  9
$CMLSTYLE
  2
Standard
  9
$CMLJUST
 70
     0
  9
$CMLSCALE
 40
20.0
  9
$PROXYGRAPHICS
 70
     1
  9
$MEASUREMENT
 70
     1
  9
$CELWEIGHT
370
    -1
  9
$ENDCAPS
280
     0
  9
$JOINSTYLE
280
     0
  9
$LWDISPLAY
290
     1
  9
$INSUNITS
 70
     4
  9
$HYPERLINKBASE
  1

  9
$STYLESHEET
  1
monochrome.ctb
  9
$XEDIT
290
     1
  9
$CEPSNTYPE
380
     0
  9
$PSTYLEMODE
290
     1
  9
$FINGERPRINTGUID
  2
{53B81806-BAED-4F81-AC52-1E994F85C82E}
  9
$VERSIONGUID
  2
{8E68BF78-E986-4049-8340-90F21A922A8C}
  9
$EXTNAMES
290
     1
  9
$PSVPSCALE
 40
0.0
  9
$OLESTARTUP
290
     0
  0
ENDSEC
  0
SECTION
  2
CLASSES
  0
CLASS
  1
ACDBDICTIONARYWDFLT
  2
AcDbDictionaryWithDefault
  3
ObjectDBX Classes
 90
        0
280
     0
281
     0
  0
CLASS
  1
ACDBPLACEHOLDER
  2
AcDbPlaceHolder
  3
ObjectDBX Classes
 90
        0
280
     0
281
     0
  0
CLASS
  1
LAYOUT
  2
AcDbLayout
  3
ObjectDBX Classes
 90
        0
280
     0
281
     0
  0
CLASS
  1
AMGSETTINGSOBJ
  2
AmgSettingsObj
  3
"AcadM|Product Description: AutoCAD Mechanical|Company: Autodesk"
 90
        0
280
     0
281
     0
  0
CLASS
  1
ACME_DOCUMENT
  2
AcMeDbDoc
  3
AcMeServices
 90
        0
280
     0
281
     0
  0
CLASS
  1
ACMESCOPE
  2
AcMeScope
  3
AcMeServices
 90
        0
280
     0
281
     0
  0
CLASS
  1
ACMECOMMANDHISTORY
  2
AcMeCommandHistory
  3
AcMeServices
 90
        0
280
     0
281
     0
  0
CLASS
  1
DICTIONARYVAR
  2
AcDbDictionaryVar
  3
ObjectDBX Classes
 90
        0
280
     0
281
     0
  0
CLASS
  1
ACIMSYSVARMAN
  2
AcImSysVarManager
  3
AcMeServices
 90
        0
280
     0
281
     0
  0
CLASS
  1
ACIMREALSYSVAR
  2
AcImRealSysVar
  3
AcMeServices
 90
        0
280
     0
281
     0
  0
CLASS
  1
ACIMINTSYSVAR
  2
AcImIntSysVar
  3
AcMeServices
 90
        0
280
     0
281
     0
  0
CLASS
  1
ACMEDRAWINGMAN
  2
AcMeDrawingMan
  3
AcMeServices
 90
        0
280
     0
281
     0
  0
CLASS
  1
ACMEVIEW
  2
AcMeView
  3
AcMeServices
 90
        0
280
     0
281
     0
  0
CLASS
  1
ACDBENTITYCACHE
  2
AcMeEntityCache
  3
AcMeServices
 90
        0
280
     0
281
     0
  0
CLASS
  1
GSMANAGER
  2
AcMeGSManager
  3
AcMeServices
 90
        0
280
     0
281
     0
  0
CLASS
  1
AMDTINTERNALREACTOR
  2
AmdtInternalReactor
  3
AcMeServices
 90
        0
280
     0
281
     0
  0
CLASS
  1
ACMESTATEMGR
  2
AcMeStateMgr
  3
AcMeServices
 90
        0
280
     0
281
     0
  0
CLASS
  1
ACGREFMASTER
  2
AcGrefMaster
  3
AcAttribServices
 90
        0
280
     0
281
     0
  0
CLASS
  1
ACME_DATABASE
  2
AcMeDbDatabase
  3
AcMeServices
 90
        0
280
     0
281
     0
  0
CLASS
  1
ACRFINSADJUSTERMGR
  2
AcRfInsAdjusterMgr
  3
AcMeServices
 90
        0
280
     0
281
     0
  0
CLASS
  1
ACGREFACADMASTER
  2
AcGrefacadMaster
  3
AcGrefServices
 90
        0
280
     0
281
     0
  0
CLASS
  1
AMIMASTER
  2
AmiMaster
  3
AmiServices
 90
        0
280
     0
281
     0
  0
CLASS
  1
ACMDATADICTIONARY
  2
AcmDataDictionary
  3
"AcmSymBB|Product Description: AutoCAD Mechanical|Company: Autodesk"
 90
        0
280
     0
281
     0
  0
CLASS
  1
ACMDATAENTRYBLOCK
  2
AcmDataEntryBlock
  3
"AcmSymBB|Product Description: AutoCAD Mechanical|Company: Autodesk"
 90
        0
280
     0
281
     0
  0
CLASS
  1
ACIMSTRSYSVAR
  2
AcImStrSysVar
  3
AcMeServices
 90
        0
280
     0
281
     0
  0
CLASS
  1
ACMSTANDARDISO
  2
AcmStandardISO
  3
"Amdt_StdImp|Product Description: AutoCAD Mechanical|Company: Autodesk"
 90
        0
280
     0
281
     0
  0
CLASS
  1
AMGOBJPROPCFG
  2
AmgObjPropCfg
  3
"AmgLay|Product Description: AutoCAD Mechanical|Company: Autodesk"
 90
        1
280
     0
281
     0
  0
CLASS
  1
AMDTEDGESTANDARDISO
  2
AmdtEdgeStdISO
  3
"Amdt_StdImp|Product Description: AutoCAD Mechanical|Company: Autodesk"
 90
        0
280
     0
281
     0
  0
CLASS
  1
ACMSURFSTANDARDISO
  2
AcmSurfTextStdISO
  3
"Amdt_StdImp|Product Description: AutoCAD Mechanical|Company: Autodesk"
 90
        0
280
     0
281
     0
  0
CLASS
  1
ACMFCFSTANDARDISO
  2
AcmFCFStdISO
  3
"Amdt_StdImp|Product Description: AutoCAD Mechanical|Company: Autodesk"
 90
        0
280
     0
281
     0
  0
CLASS
  1
ACMWELDSTANDARDISO
  2
AcmWeldingStdISO
  3
"Amdt_StdImp|Product Description: AutoCAD Mechanical|Company: Autodesk"
 90
        0
280
     0
281
     0
  0
CLASS
  1
ACMIDSTANDARDISO
  2
AcmIdStdISO
  3
"Amdt_StdImp|Product Description: AutoCAD Mechanical|Company: Autodesk"
 90
        0
280
     0
281
     0
  0
CLASS
  1
ACMDATUMSTANDARDISO
  2
AcmDatumStdISO
  3
"Amdt_StdImp|Product Description: AutoCAD Mechanical|Company: Autodesk"
 90
        0
280
     0
281
     0
  0
CLASS
  1
ACMBOMSTANDARDISO
  2
AcmBOMStdISO
  3
"Amdt_StdImp|Product Description: AutoCAD Mechanical|Company: Autodesk"
 90
        0
280
     0
281
     0
  0
CLASS
  1
ACMDETAILSTANDARDISO
  2
AmdtDetailSymStdISO
  3
"Amdt_StdImp|Product Description: AutoCAD Mechanical|Company: Autodesk"
 90
        0
280
     0
281
     0
  0
CLASS
  1
ACMSECTIONSTANDARDISO
  2
AmdtSectionSymStdISO
  3
"Amdt_StdImp|Product Description: AutoCAD Mechanical|Company: Autodesk"
 90
        0
280
     0
281
     0
  0
CLASS
  1
ACMCENTERLINESTANDARDISO
  2
AmdtCenterLineStdISO
  3
"Amdt_StdImp|Product Description: AutoCAD Mechanical|Company: Autodesk"
 90
        0
280
     0
281
     0
  0
CLASS
  1
ACAMGLAYSTD
  2
AcAmgLayStd
  3
"AmgLay|Product Description: AutoCAD Mechanical|Company: Autodesk"
 90
        0
280
     0
281
     0
  0
CLASS
  1
ACAMGDIMSTD
  2
AcAmgDimStd
  3
"AmgDim|Product Description: AutoCAD Mechanical|Company: Autodesk"
 90
        0
280
     0
281
     0
  0
CLASS
  1
ACAMGTITLESTD
  2
AcAmgTitleStd
  3
"AmgTitle|Product Description: AutoCAD Mechanical|Company: Autodesk"
 90
        0
280
     0
281
     0
  0
CLASS
  1
ACAMGFILTERDAT
  2
AcAmgFilterDat
  3
"AcadM|Product Description: AutoCAD Mechanical|Company: Autodesk"
 90
        0
280
     0
281
     0
  0
CLASS
  1
LAYER_INDEX
  2
AcDbLayerIndex
  3
ObjectDBX Classes
 90
    32768
280
     0
281
     0
  0
CLASS
  1
IDBUFFER
  2
AcDbIdBuffer
  3
ObjectDBX Classes
 90
    32768
280
     0
281
     0
  0
CLASS
  1
PLOTSETTINGS
  2
AcDbPlotSettings
  3
ObjectDBX Classes
 90
    32768
280
     0
281
     0
  0
CLASS
  1
AMDTFORMULAUPDATEDISPATCHER
  2
AmdtFormulaUpdateDispatcher
  3
AcMeServices
 90
        0
280
     0
281
     0
  0
CLASS
  1
ACMSTANDARDANSI
  2
AcmStandardANSI
  3
"Amdt_StdImp|Product Description: AutoCAD Mechanical|Company: Autodesk"
 90
    32768
280
     0
281
     0
  0
CLASS
  1
ACMSURFSTANDARDANSI
  2
AcmSurfTextStdANSI
  3
"Amdt_StdImp|Product Description: AutoCAD Mechanical|Company: Autodesk"
 90
    32768
280
     0
281
     0
  0
CLASS
  1
ACMFCFSTANDARDANSI
  2
AcmFCFStdANSI
  3
"Amdt_StdImp|Product Description: AutoCAD Mechanical|Company: Autodesk"
 90
    32768
280
     0
281
     0
  0
CLASS
  1
ACMWELDSTANDARDANSI
  2
AcmWeldingStdANSI
  3
"Amdt_StdImp|Product Description: AutoCAD Mechanical|Company: Autodesk"
 90
    32768
280
     0
281
     0
  0
CLASS
  1
ACMIDSTANDARDANSI
  2
AcmIdStdANSI
  3
"Amdt_StdImp|Product Description: AutoCAD Mechanical|Company: Autodesk"
 90
    32768
280
     0
281
     0
  0
CLASS
  1
ACMDATUMSTANDARDANSI
  2
AcmDatumStdANSI
  3
"Amdt_StdImp|Product Description: AutoCAD Mechanical|Company: Autodesk"
 90
    32768
280
     0
281
     0
  0
CLASS
  1
ACMBOMSTANDARDANSI
  2
AcmBOMStdANSI
  3
"Amdt_StdImp|Product Description: AutoCAD Mechanical|Company: Autodesk"
 90
    32768
280
     0
281
     0
  0
CLASS
  1
ACMDETAILSTANDARDANSI
  2
AmdtDetailSymStdANSI
  3
"Amdt_StdImp|Product Description: AutoCAD Mechanical|Company: Autodesk"
 90
    32768
280
     0
281
     0
  0
CLASS
  1
ACMSECTIONSTANDARDANSI
  2
AmdtSectionSymStdANSI
  3
"Amdt_StdImp|Product Description: AutoCAD Mechanical|Company: Autodesk"
 90
    32768
280
     0
281
     0
  0
CLASS
  1
ACMCENTERLINESTANDARDANSI
  2
AmdtCenterLineStdANSI
  3
"Amdt_StdImp|Product Description: AutoCAD Mechanical|Company: Autodesk"
 90
    32768
280
     0
281
     0
  0
CLASS
  1
ACMBOM
  2
AcmBom
  3
"AcmSymBB|Product Description: AutoCAD Mechanical|Company: Autodesk"
 90
        0
280
     0
281
     0
  0
CLASS
  1
ACMDATAENTRYPART
  2
AcmDataEntryPart
  3
"AcmSymBB|Product Description: AutoCAD Mechanical|Company: Autodesk"
 90
    32768
280
     0
281
     0
  0
CLASS
  1
ACMPARTREF
  2
AcmPartRef
  3
"AcmSymBB|Product Description: AutoCAD Mechanical|Company: Autodesk"
 90
    35839
280
     0
281
     1
  0
CLASS
  1
ACDBCIRCARCRES
  2
AcDbCircArcRes
  3
AcGrefServices
 90
    32768
280
     0
281
     0
  0
CLASS
  1
ACMBOMROW
  2
AcmBomRow
  3
"AcmSymBB|Product Description: AutoCAD Mechanical|Company: Autodesk"
 90
    32768
280
     0
281
     0
  0
CLASS
  1
ACMBALLOON
  2
AcmBalloon
  3
"AcmSymBB|Product Description: AutoCAD Mechanical|Company: Autodesk"
 90
    35839
280
     0
281
     1
  0
CLASS
  1
AMDTNOTE
  2
AmdtNote
  3
"AcmSymBB|Product Description: AutoCAD Mechanical|Company: Autodesk"
 90
    35839
280
     0
281
     1
  0
CLASS
  1
STDPART2D
  2
AmgStdPart
  3
"g3vace|Class: AmgStdPart|Product Description: AutoCAD Mechanical|Company: Autodesk"
 90
    35839
280
     0
281
     1
  0
CLASS
  1
ACDBSTDPARTRES_LINE
  2
AcDbStdPartRes_Line
  3
"g3vace|Class: AcDbStdPartRes_Line|Product Description: AutoCAD Mechanical|Company: Autodesk"
 90
    32768
280
     0
281
     0
  0
CLASS
  1
ACMDATAENTRY
  2
AcmDataEntry
  3
"AcmSymBB|Product Description: AutoCAD Mechanical|Company: Autodesk"
 90
        0
280
     0
281
     0
  0
CLASS
  1
ACDBOPPOLYLINERES
  2
AcDbOpPolylineRes
  3
AcGrefServices
 90
    32768
280
     0
281
     0
  0
CLASS
  1
ACMPARTLIST
  2
AcmPartList
  3
"AcmSymBB|Product Description: AutoCAD Mechanical|Company: Autodesk"
 90
    35839
280
     0
281
     1
  0
CLASS
  1
ACDBLINERES
  2
AcDbLineRes
  3
AcGrefServices
 90
    32768
280
     0
281
     0
  0
CLASS
  1
ACRFINSADJ
  2
AcRfInsAdjuster
  3
AcMeServices
 90
    32768
280
     0
281
     0
  0
CLASS
  1
AM_DRAWING_MGR
  2
AcDmDwgMgr
  3
AcMechDwgViewMgmt
 90
        0
280
     0
281
     0
  0
CLASS
  1
AM_DWG_DOCUMENT
  2
AcDmDwgDocument
  3
AcMechDwgViewMgmt
 90
        0
280
     0
281
     0
  0
CLASS
  1
AM_DWG_SHEET
  2
AcDmSheet
  3
AcMechDwgViewMgmt
 90
        0
280
     0
281
     0
  0
CLASS
  1
AM_VIEWDIMPARMAP
  2
AcDmViewDimParMap
  3
AcMechDwgViewMgmt
 90
        0
280
     0
281
     0
  0
CLASS
  1
AM_DWGMGR_NAME
  2
AcDmDwgMgrName
  3
AcMechDwgViewMgmt
 90
        0
280
     0
281
     0
  0
CLASS
  1
AMDTMENUSTATEMGR
  2
AmdtMenuStateMgr
  3
McadcomServices
 90
        0
280
     0
281
     0
  0
CLASS
  1
AMDTMCOMMENUSTATE
  2
AmdtMcomMenuState
  3
McadcomServices
 90
        0
280
     0
281
     0
  0
CLASS
  1
ASAPP
  2
AcAsAppObject
  3
AutoSurfServices
 90
        0
280
     0
281
     0
  0
CLASS
  1
IM_STATIC_MAN
  2
AcImStaticVarManager
  3
AcMeServices
 90
        0
280
     0
281
     0
  0
CLASS
  1
ACIMDBLSTATICVAR
  2
AcImDblStaticVar
  3
AcMeServices
 90
        0
280
     0
281
     0
  0
CLASS
  1
ACIMSTRSTATICVAR
  2
AcImStrStaticVar
  3
AcMeServices
 90
        0
280
     0
281
     0
  0
CLASS
  1
ACIMINTSTATICVAR
  2
AcImIntStaticVar
  3
AcMeServices
 90
        0
280
     0
281
     0
  0
CLASS
  1
ACASGREFMASTER
  2
AcAsGrefMaster
  3
AutoSurfResolverServices
 90
        0
280
     0
281
     0
  0
CLASS
  1
ACADGREFMODULE
  2
AcAdGrefModule
  3
AdGrefServices
 90
        0
280
     0
281
     0
  0
CLASS
  1
AMDTMAPISURFMOUDULE
  2
AmdtMApiSurfModule
  3
MApiSurfServices
 90
        0
280
     0
281
     0
  0
CLASS
  1
MAPIAMMOUDLE
  2
MApiAmModule
  3
MApiAmServices
 90
        0
280
     0
281
     0
  0
CLASS
  1
AMDTADMENUSTATE
  2
AmdtAdMenuState
  3
DesignerServices
 90
        0
280
     0
281
     0
  0
CLASS
  1
ADAPPL
  2
AcAdAppl
  3
DesignerServices
 90
        0
280
     0
281
     0
  0
CLASS
  1
DEPMGR
  2
AcAdDepMgr
  3
DesignerServices
 90
        0
280
     0
281
     0
  0
CLASS
  1
PARAMMGR
  2
AcAdParamMgr
  3
DesignerServices
 90
        0
280
     0
281
     0
  0
CLASS
  1
PARAMSCOPE
  2
AcAdParamScope
  3
DesignerServices
 90
        0
280
     0
281
     0
  0
CLASS
  1
NAMEDAPPL
  2
AcAdNamedAppl
  3
DesignerServices
 90
        0
280
     0
281
     0
  0
CLASS
  1
ADHNTMPLT
  2
AdHoleNoteTemplateMgr
  3
DesignerServices
 90
    32768
280
     0
281
     0
  0
CLASS
  1
AM_HNTEMPLATE_MGR_NAME
  2
AdHoleNoteTemplateMgrName
  3
DesignerServices
 90
    32768
280
     0
281
     0
  0
CLASS
  1
AMDTDMMENUSTATE
  2
AmdtDmMenuState
  3
AcMechDwgViewMgmt
 90
        0
280
     0
281
     0
  0
CLASS
  1
MAPIADMODULE
  2
MApiAdModule
  3
MApiAdServices
 90
        0
280
     0
281
     0
  0
CLASS
  1
AMDTAMMENUSTATE
  2
AmdtAmMenuState
  3
DesignerAssemblies
 90
        0
280
     0
281
     0
  0
CLASS
  1
ACAMPROJECT
  2
AcAmProject
  3
DesignerAssemblies
 90
        0
280
     0
281
     0
  0
CLASS
  1
ACAMGRCOMPDEF
  2
AcAmGrCompDef
  3
DesignerAssemblies
 90
        0
280
     0
281
     0
  0
CLASS
  1
ACCMCONTEXT
  2
AcCmContext
  3
DesignerAssemblies
 90
        0
280
     0
281
     0
  0
CLASS
  1
ACAMCOMPDEF
  2
AcAmCompDef
  3
DesignerAssemblies
 90
        0
280
     0
281
     0
  0
CLASS
  1
ACAMCOMPDEFMGR
  2
AcAmCompDefMgr
  3
DesignerAssemblies
 90
        0
280
     0
281
     0
  0
CLASS
  1
AMCONTEXTMGR
  2
AcAmContextMgr
  3
DesignerAssemblies
 90
        0
280
     0
281
     0
  0
CLASS
  1
ACAMCONTEXTMODELER
  2
AcAmContextModeler
  3
DesignerAssemblies
 90
        0
280
     0
281
     0
  0
CLASS
  1
CATALOGSTATE
  2
AcAmCatalogState
  3
DesignerAssemblies
 90
        0
280
     0
281
     0
  0
CLASS
  1
ACAMGRCOMPDEFSET
  2
AcAmGrCompDefSet
  3
DesignerAssemblies
 90
        0
280
     0
281
     0
  0
CLASS
  1
AMDTBROWSERDBTAB
  2
AmdtBrowserDbTab
  3
McadcomServices
 90
        0
280
     0
281
     0
  0
CLASS
  1
CBROWSERAPPOBJECT
  2
CBrowserAppObject
  3
McadcomServices
 90
        0
280
     0
281
     0
  0
CLASS
  1
DM_PLACEHOLDER
  2
AcDmSelsetPlaceholder
  3
AcMechDwgViewMgmt
 90
        0
280
     0
281
     0
  0
CLASS
  1
ACMPICKOBJ
  2
AcmPickEnt
  3
"AcmSymBB|Product Description: AutoCAD Mechanical|Company: Autodesk"
 90
    32768
280
     0
281
     1
  0
CLASS
  1
ACMNOTESTANDARDISO
  2
AmdtNoteStdISO
  3
"Amdt_StdImp|Product Description: AutoCAD Mechanical|Company: Autodesk"
 90
        0
280
     0
281
     0
  0
CLASS
  1
ACMNOTESTANDARDANSI
  2
AmdtNoteStdANSI
  3
"Amdt_StdImp|Product Description: AutoCAD Mechanical|Company: Autodesk"
 90
    32768
280
     0
281
     0
  0
CLASS
  1
ACMTHREADLINESTANDARDISO
  2
AmdtThreadLineStdISO
  3
"Amdt_StdImp|Product Description: AutoCAD Mechanical|Company: Autodesk"
 90
        0
280
     0
281
     0
  0
CLASS
  1
ACMTHREADLINESTANDARDANSI
  2
AmdtThreadLineStdANSI
  3
"Amdt_StdImp|Product Description: AutoCAD Mechanical|Company: Autodesk"
 90
    32768
280
     0
281
     0
  0
CLASS
  1
TABLESTYLE
  2
AcDbTableStyle
  3
ObjectDBX Classes
 90
     4095
280
     0
281
     0
  0
CLASS
  1
SORTENTSTABLE
  2
AcDbSortentsTable
  3
ObjectDBX Classes
 90
        0
280
     0
281
     0
  0
CLASS
  1
MATERIAL
  2
AcDbMaterial
  3
ObjectDBX Classes
 90
     1024
280
     0
281
     0
  0
CLASS
  1
VISUALSTYLE
  2
AcDbVisualStyle
  3
ObjectDBX Classes
 90
     4095
280
     0
281
     0
  0
CLASS
  1
ACRFATTGENMGR
  2
AcRfAttGeneralMgr
  3
AcAttribServices
 90
        0
280
     0
281
     0
  0
CLASS
  1
ACRFOBJATTMGR
  2
AcRfObjAttGroupMgr
  3
AcAttribServices
 90
        0
280
     0
281
     0
  0
CLASS
  1
ACRFMCADAPIATTHOLDER
  2
AcRfMCADAPIAttHolder
  3
AcAttribServices
 90
        0
280
     0
281
     0
  0
CLASS
  1
AMDTSYSATTR
  2
AmdtSystemAttribute
  3
AcAttribServices
 90
        0
280
     0
281
     0
  0
CLASS
  1
ACMTAPERSTANDARDISO
  2
AcmTaperStdISO
  3
"Amdt_StdImp|Product Description: AutoCAD Mechanical|Company: Autodesk"
 90
        0
280
     0
281
     0
  0
CLASS
  1
CAMSSTRUCTBTNSTATE
  2
StructBtnState
  3
L"DesignerAssemblies"
 90
        0
280
     0
281
     0
  0
CLASS
  1
DIMASSOC
  2
AcDbDimAssoc
  3
"AcDbDimAssoc|Product Desc:     AcDim ARX App For Dimension|Company:          Autodesk, Inc.|WEB Address:      www.autodesk.com"
 90
        0
280
     0
281
     0
  0
CLASS
  1
AMDTACMWBLOCKBOMENTITY
  2
AmdtAcmWblockBomEntity
  3
"AcmSymBB|Product Description: AutoCAD Mechanical|Company: Autodesk"
 90
    35839
280
     0
281
     1
  0
ENDSEC
  0
SECTION
  2
TABLES
  0
TABLE
  2
VPORT
  5
8
330
0
100
AcDbSymbolTable
 70
     1
  0
VPORT
  5
B0EC
330
8
100
AcDbSymbolTableRecord
100
AcDbViewportTableRecord
  2
*Active
 70
     0
 10
0.0
 20
0.0
 11
1.0
 21
1.0
 12
209.9906678705988
 22
148.4988512733766
 13
0.0
 23
0.0
 14
2.5
 24
2.5
 15
10.0
 25
10.0
 16
0.0
 26
0.0
 36
1.0
 17
0.0
 27
0.0
 37
0.0
 40
334.238150566455
 41
1.263048016701461
 42
50.0
 43
-1370.695619172058
 44
-1370.695619172058
 50
0.0
 51
0.0
 71
     0
 72
   100
 73
     1
 74
     3
 75
     0
 76
     0
 77
     0
 78
     0
281
     0
 65
     0
110
0.0
120
0.0
130
0.0
111
1.0
121
0.0
131
0.0
112
0.0
122
1.0
132
0.0
 79
     0
146
0.0
  0
ENDTAB
  0
TABLE
  2
LTYPE
  5
5
330
0
100
AcDbSymbolTable
 70
    27
  0
LTYPE
  5
14
330
5
100
AcDbSymbolTableRecord
100
AcDbLinetypeTableRecord
  2
ByBlock
 70
     0
  3

 72
    65
 73
     0
 40
0.0
  0
LTYPE
  5
15
330
5
100
AcDbSymbolTableRecord
100
AcDbLinetypeTableRecord
  2
ByLayer
 70
     0
  3

 72
    65
 73
     0
 40
0.0
  0
LTYPE
  5
16
330
5
100
AcDbSymbolTableRecord
100
AcDbLinetypeTableRecord
  2
Continuous
 70
     0
  3
Solid line
 72
    65
 73
     0
 40
0.0
  0
LTYPE
  5
4F
330
5
100
AcDbSymbolTableRecord
100
AcDbLinetypeTableRecord
  2
AM_ISO02W050
 70
     0
  3
__ __ __ __ __ __ __ __ __ __ __ __ __ __ __
 72
    65
 73
     2
 40
7.5
 49
6.0
 74
     0
 49
-1.5
 74
     0
  0
LTYPE
  5
52
330
5
100
AcDbSymbolTableRecord
100
AcDbLinetypeTableRecord
  2
Amconstr
 70
     0
  3
_______________________
 72
    65
 73
     2
 40
9999.0
 49
9999.0
 74
     0
 49
0.0
 74
     0
  0
LTYPE
  5
64
330
5
100
AcDbSymbolTableRecord
100
AcDbLinetypeTableRecord
  2
ACISOWELD
 70
     0
  3
_ _ _ _ _
 72
    65
 73
     2
 40
2.0
 49
2.0
 74
     0
 49
-1.0
 74
     0
  0
LTYPE
  5
65
330
5
100
AcDbSymbolTableRecord
100
AcDbLinetypeTableRecord
  2
ACISOTGB
 70
     0
  3
__ . . __ . .
 72
    65
 73
     6
 40
9.0
 49
4.0
 74
     0
 49
-1.0
 74
     0
 49
1.0
 74
     0
 49
-1.0
 74
     0
 49
1.0
 74
     0
 49
-1.0
 74
     0
  0
LTYPE
  5
66
330
5
100
AcDbSymbolTableRecord
100
AcDbLinetypeTableRecord
  2
ACISOTGL
 70
     0
  3
_ _ _ _ _
 72
    65
 73
     2
 40
3.0
 49
2.0
 74
     0
 49
-1.0
 74
     0
  0
LTYPE
  5
69
330
5
100
AcDbSymbolTableRecord
100
AcDbLinetypeTableRecord
  2
CENTER
 70
     0
  3
__ . __
 72
    65
 73
     4
 40
7.0
 49
4.0
 74
     0
 49
-1.0
 74
     0
 49
1.0
 74
     0
 49
-1.0
 74
     0
  0
LTYPE
  5
A6E
330
5
100
AcDbSymbolTableRecord
100
AcDbLinetypeTableRecord
  2
PHANTOM2
 70
     0
  3
Phantom (.5x) ___ _ _ ___ _ _ ___ _ _ ___ _ _
 72
    65
 73
     6
 40
31.75
 49
15.875
 74
     0
 49
-3.174999999999999
 74
     0
 49
3.174999999999999
 74
     0
 49
-3.174999999999999
 74
     0
 49
3.174999999999999
 74
     0
 49
-3.174999999999999
 74
     0
  0
LTYPE
  5
4DED
330
5
100
AcDbSymbolTableRecord
100
AcDbLinetypeTableRecord
  2
中線
 70
     0
  3
___________________
 72
    65
 73
     2
 40
2.0
 49
1.0
 74
     0
 49
1.0
 74
     0
  0
LTYPE
  5
4DF6
330
5
100
AcDbSymbolTableRecord
100
AcDbLinetypeTableRecord
  2
細線
 70
     0
  3
___________________
 72
    65
 73
     2
 40
2.0
 49
1.0
 74
     0
 49
1.0
 74
     0
  0
LTYPE
  5
4DF7
330
5
100
AcDbSymbolTableRecord
100
AcDbLinetypeTableRecord
  2
太線
 70
     0
  3
___________________
 72
    65
 73
     2
 40
2.0
 49
1.0
 74
     0
 49
1.0
 74
     0
  0
LTYPE
  5
4EA7
330
5
100
AcDbSymbolTableRecord
100
AcDbLinetypeTableRecord
  2
文字
 70
     0
  3
_________________
 72
    65
 73
     2
 40
2.0
 49
1.0
 74
     0
 49
1.0
 74
     0
  0
LTYPE
  5
4EA9
330
5
100
AcDbSymbolTableRecord
100
AcDbLinetypeTableRecord
  2
寸法線
 70
     0
  3
________________
 72
    65
 73
     2
 40
2.0
 49
1.0
 74
     0
 49
1.0
 74
     0
  0
LTYPE
  5
4F12
330
5
100
AcDbSymbolTableRecord
100
AcDbLinetypeTableRecord
  2
ハッチング
 70
     0
  3
_________________
 72
    65
 73
     2
 40
2.0
 49
1.0
 74
     0
 49
1.0
 74
     0
  0
LTYPE
  5
5180
330
5
100
AcDbSymbolTableRecord
100
AcDbLinetypeTableRecord
  2
陰線1
 70
     0
  3
__ __ __ __
 72
    65
 73
     2
 40
4.0
 49
2.2
 74
     0
 49
-1.8
 74
     0
  0
LTYPE
  5
5182
330
5
100
AcDbSymbolTableRecord
100
AcDbLinetypeTableRecord
  2
切断線
 70
     0
  3
/\/-/\/-/\/-/\/-/\/-/\/
 72
    65
 73
     2
 40
11.0001
 49
0.0001
 74
     4
 75
   135
340
56
 46
0.04
 50
0.0
 44
0.0
 45
0.0
 49
-11.0
 74
     0
  0
LTYPE
  5
5183
330
5
100
AcDbSymbolTableRecord
100
AcDbLinetypeTableRecord
  2
想像線1
 70
     0
  3
__ __ __ _____ __ __ ____
 72
    65
 73
     6
 40
14.5
 49
6.0
 74
     0
 49
-1.5
 74
     0
 49
2.0
 74
     0
 49
-1.5
 74
     0
 49
2.0
 74
     0
 49
-1.5
 74
     0
  0
LTYPE
  5
5185
330
5
100
AcDbSymbolTableRecord
100
AcDbLinetypeTableRecord
  2
中心線1
 70
     0
  3
___ _ ___ _ ___
 72
    65
 73
     4
 40
18.0
 49
12.0
 74
     0
 49
-2.0
 74
     0
 49
2.0
 74
     0
 49
-2.0
 74
     0
  0
LTYPE
  5
5188
330
5
100
AcDbSymbolTableRecord
100
AcDbLinetypeTableRecord
  2
補助線
 70
     0
  3
______________
 72
    65
 73
     2
 40
2.0
 49
1.0
 74
     0
 49
1.0
 74
     0
  0
LTYPE
  5
6427
330
5
100
AcDbSymbolTableRecord
100
AcDbLinetypeTableRecord
  2
HIDDEN
 70
     0
  3
Hidden __ __ __ __ __ __ __ __ __ __ __ __ __ _
 72
    65
 73
     2
 40
0.375
 49
0.25
 74
     0
 49
-0.125
 74
     0
  0
LTYPE
  5
AC81
330
5
100
AcDbSymbolTableRecord
100
AcDbLinetypeTableRecord
  2
破断線
 70
     0
  3
/\/-/\/-/\/-/\/-/\/-/\/
 72
    65
 73
     2
 40
0.4401
 49
0.0001
 74
     4
 75
   136
340
AC80
 46
0.0016
 50
0.0
 44
0.0
 45
0.0
 49
-0.4400000000000001
 74
     0
  0
LTYPE
  5
AC9E
330
5
100
AcDbSymbolTableRecord
100
AcDbLinetypeTableRecord
  2
Amzigzag
 70
     0
  3
/\/-/\/-/\/-/\/-/\/-/\/
 72
    65
 73
     2
 40
11.0001
 49
0.0001
 74
     4
 75
   135
340
56
 46
0.04
 50
0.0
 44
0.0
 45
0.0
 49
-11.0
 74
     0
  0
LTYPE
  5
AF0F
330
5
100
AcDbSymbolTableRecord
100
AcDbLinetypeTableRecord
  2
genzigzag
 70
     0
  3
/\/-/\/-/\/-/\/-/\/-/\/
 72
    65
 73
     2
 40
12.0001
 49
0.0001
 74
     4
 75
   135
340
AC80
 46
2.0
 50
0.0
 44
0.0
 45
0.0
 49
-12.0
 74
     0
  0
LTYPE
  5
AF95
330
5
100
AcDbSymbolTableRecord
100
AcDbLinetypeTableRecord
  2
AM_ISO08W050
 70
     0
  3
____ . ____ . ____ . ____ . ____ . ____ . ____
 72
    65
 73
     4
 40
18.0
 49
12.0
 74
     0
 49
-1.5
 74
     0
 49
3.0
 74
     0
 49
-1.5
 74
     0
  0
LTYPE
  5
AF96
330
5
100
AcDbSymbolTableRecord
100
AcDbLinetypeTableRecord
  2
AM_ISO09W050
 70
     0
  3
_____ . . _____ . . _____ . . ____ .. ____
 72
    65
 73
     6
 40
22.5
 49
12.0
 74
     0
 49
-1.5
 74
     0
 49
3.0
 74
     0
 49
-1.5
 74
     0
 49
3.0
 74
     0
 49
-1.5
 74
     0
  0
LTYPE
  5
AF97
330
5
100
AcDbSymbolTableRecord
100
AcDbLinetypeTableRecord
  2
AM_ISO08W050x2
 70
     0
  3
__ . __ . __ . __ . __ . __
 72
    65
 73
     4
 40
9.0
 49
6.0
 74
     0
 49
-0.75
 74
     0
 49
1.5
 74
     0
 49
-0.75
 74
     0
  0
LTYPE
  5
AF98
330
5
100
AcDbSymbolTableRecord
100
AcDbLinetypeTableRecord
  2
AM_ISO02W050x2
 70
     0
  3
 _ _ _ _ _ _ _ _ _ _ _ _
 72
    65
 73
     2
 40
3.75
 49
3.0
 74
     0
 49
-0.75
 74
     0
  0
ENDTAB
  0
TABLE
  2
LAYER
  5
2
102
{ACAD_XDICTIONARY
360
3F95
102
}
330
0
100
AcDbSymbolTable
 70
    23
  0
LAYER
  5
10
330
2
100
AcDbSymbolTableRecord
100
AcDbLayerTableRecord
  2
0
 70
     0
 62
     7
  6
Continuous
370
    -3
390
F
  0
LAYER
  5
6D1
330
2
100
AcDbSymbolTableRecord
100
AcDbLayerTableRecord
  2
Defpoints
 70
     0
 62
     7
  6
Continuous
290
     0
370
    -3
390
F
  0
LAYER
  5
5F85
330
2
100
AcDbSymbolTableRecord
100
AcDbLayerTableRecord
  2
AM_0
 70
     0
 62
     7
  6
中線
370
    30
390
F
1001
AcAecLayerStandard
1000

1000

  0
LAYER
  5
AC9F
330
2
100
AcDbSymbolTableRecord
100
AcDbLayerTableRecord
  2
size
 70
     0
 62
     5
  6
Continuous
290
     0
370
    25
390
F
  0
LAYER
  5
ACA0
330
2
100
AcDbSymbolTableRecord
100
AcDbLayerTableRecord
  2
waku
 70
     0
 62
     7
  6
Continuous
370
    35
390
F
  0
LAYER
  5
ACA1
330
2
100
AcDbSymbolTableRecord
100
AcDbLayerTableRecord
  2
AM_6
 70
     0
 62
     2
  6
文字
370
    13
390
F
1001
AcAecLayerStandard
1000

1000

  0
LAYER
  5
ACC8
330
2
100
AcDbSymbolTableRecord
100
AcDbLayerTableRecord
  2
hyomoji
 70
     0
 62
     2
  6
Continuous
370
    13
390
F
  0
LAYER
  5
ACC9
330
2
100
AcDbSymbolTableRecord
100
AcDbLayerTableRecord
  2
hyosen1
 70
     0
 62
     1
  6
Continuous
370
    25
390
F
  0
LAYER
  5
ACCA
330
2
100
AcDbSymbolTableRecord
100
AcDbLayerTableRecord
  2
hyosen2
 70
     0
 62
     1
  6
Continuous
370
    13
390
F
  0
LAYER
  5
AD60
330
2
100
AcDbSymbolTableRecord
100
AcDbLayerTableRecord
  2
AM_1
 70
     0
 62
    30
  6
太線
370
    40
390
F
1001
AcAecLayerStandard
1000

1000

  0
LAYER
  5
AD64
330
2
100
AcDbSymbolTableRecord
100
AcDbLayerTableRecord
  2
AM_2
 70
     0
 62
     1
  6
細線
370
    13
390
F
1001
AcAecLayerStandard
1000

1000

  0
LAYER
  5
AD67
330
2
100
AcDbSymbolTableRecord
100
AcDbLayerTableRecord
  2
AM_3
 70
     0
 62
     6
  6
陰線1
370
    13
390
F
1001
AcAecLayerStandard
1000

1000

  0
LAYER
  5
AD68
330
2
100
AcDbSymbolTableRecord
100
AcDbLayerTableRecord
  2
AM_5
 70
     0
 62
     3
  6
寸法線
370
    13
390
F
1001
AcAecLayerStandard
1000

1000

  0
LAYER
  5
AD69
330
2
100
AcDbSymbolTableRecord
100
AcDbLayerTableRecord
  2
AM_7
 70
     0
 62
     4
  6
中心線1
370
    13
390
F
1001
AcAecLayerStandard
1000

1000

  0
LAYER
  5
AD6A
330
2
100
AcDbSymbolTableRecord
100
AcDbLayerTableRecord
  2
AM_8
 70
     0
 62
     1
  6
ハッチング
370
    13
390
F
1001
AcAecLayerStandard
1000

1000

  0
LAYER
  5
AD6E
330
2
100
AcDbSymbolTableRecord
100
AcDbLayerTableRecord
  2
AM_10
 70
     0
 62
     7
  6
切断線
370
    13
390
F
1001
AcAecLayerStandard
1000

1000

  0
LAYER
  5
AD6F
330
2
100
AcDbSymbolTableRecord
100
AcDbLayerTableRecord
  2
AM_11
 70
     0
 62
     2
  6
想像線1
370
    13
390
F
1001
AcAecLayerStandard
1000

1000

  0
LAYER
  5
B1B6
330
2
100
AcDbSymbolTableRecord
100
AcDbLayerTableRecord
  2
AM_CL
 70
     0
 62
     1
  6
Amconstr
370
    15
390
F
1001
AcAecLayerStandard
1000

1000

  0
LAYER
  5
B2EB
330
2
100
AcDbSymbolTableRecord
100
AcDbLayerTableRecord
  2
AM_14
 70
     0
 62
     5
  6
細線
370
     9
390
F
1001
AcAecLayerStandard
1000

1000

  0
LAYER
  5
B2EC
330
2
100
AcDbSymbolTableRecord
100
AcDbLayerTableRecord
  2
AM_15
 70
     0
 62
     6
  6
陰線1
370
     9
390
F
1001
AcAecLayerStandard
1000

1000

  0
LAYER
  5
B5D1
330
2
100
AcDbSymbolTableRecord
100
AcDbLayerTableRecord
  2
AM_4
 70
     0
 62
     3
  6
補助線
370
    15
390
F
  0
LAYER
  5
BCC4
330
2
100
AcDbSymbolTableRecord
100
AcDbLayerTableRecord
  2
0ホルダー
 70
     0
 62
   202
  6
中線
370
    30
390
F
1001
AcAecLayerStandard
1000

1000

  0
LAYER
  5
BCC5
330
2
100
AcDbSymbolTableRecord
100
AcDbLayerTableRecord
  2
0受け
 70
     0
 62
   222
  6
中線
370
    30
390
F
1001
AcAecLayerStandard
1000

1000

  0
ENDTAB
  0
TABLE
  2
STYLE
  5
3
330
0
100
AcDbSymbolTable
 70
     6
  0
STYLE
  5
11
330
3
100
AcDbSymbolTableRecord
100
AcDbTextStyleTableRecord
  2
STANDARD
 70
     0
 40
0.0
 41
0.7
 50
0.0
 71
     0
 42
3.2
  3
romans.shx
  4
extfont.shx
  0
STYLE
  5
56
330
3
100
AcDbSymbolTableRecord
100
AcDbTextStyleTableRecord
  2

 70
     1
 40
0.0
 41
1.0
 50
0.0
 71
     0
 42
2.5
  3
ltypeshp.shx
  4

  0
STYLE
  5
58
330
3
100
AcDbSymbolTableRecord
100
AcDbTextStyleTableRecord
  2
ACISOTS
 70
     0
 40
1.0
 41
1.0
 50
0.0
 71
     0
 42
2.5
  3
isocp.shx
  4
extfont.shx
  0
STYLE
  5
63
330
3
100
AcDbSymbolTableRecord
100
AcDbTextStyleTableRecord
  2
ACISOGDT
 70
     0
 40
0.0
 41
1.0
 50
0.0
 71
     0
 42
2.5
  3
amgdt.shx
  4

  0
STYLE
  5
A74
330
3
100
AcDbSymbolTableRecord
100
AcDbTextStyleTableRecord
  2
DIM
 70
     0
 40
0.0
 41
1.0
 50
0.0
 71
     0
 42
2.5
  3
monotxt.shx
  4
extfont.shx
  0
STYLE
  5
AC80
330
3
100
AcDbSymbolTableRecord
100
AcDbTextStyleTableRecord
  2

 70
     1
 40
0.0
 41
1.0
 50
0.0
 71
     0
 42
3.2
  3
genltshp.shx
  4

  0
ENDTAB
  0
TABLE
  2
VIEW
  5
6
330
0
100
AcDbSymbolTable
 70
     6
  0
VIEW
  5
AE1
330
6
100
AcDbSymbolTableRecord
100
AcDbViewTableRecord
  2
AM_VIEW1
 70
     0
 40
119.4136363636363
 10
494.2500001334349
 20
150.2931812661108
 41
148.5
 11
0.0
 21
0.0
 31
1.0
 12
0.0
 22
0.0
 32
0.0
 42
50.0
 43
-1370.695619172058
 44
-1370.695619172058
 50
0.0
 71
     0
281
     0
 72
     0
  0
VIEW
  5
AE2
330
6
100
AcDbSymbolTableRecord
100
AcDbViewTableRecord
  2
AM_VIEW2
 70
     0
 40
119.4136363636363
 10
642.7500001334349
 20
150.2931812661108
 41
148.5
 11
0.0
 21
0.0
 31
1.0
 12
0.0
 22
0.0
 32
0.0
 42
50.0
 43
-1370.695619172058
 44
-1370.695619172058
 50
0.0
 71
     0
281
     0
 72
     0
  0
VIEW
  5
AE3
330
6
100
AcDbSymbolTableRecord
100
AcDbViewTableRecord
  2
AM_VIEW3
 70
     0
 40
119.4136363636363
 10
494.2500001334349
 20
59.70681762974714
 41
148.5
 11
0.0
 21
0.0
 31
1.0
 12
0.0
 22
0.0
 32
0.0
 42
50.0
 43
-1370.695619172058
 44
-1370.695619172058
 50
0.0
 71
     0
281
     0
 72
     0
  0
VIEW
  5
AE4
330
6
100
AcDbSymbolTableRecord
100
AcDbViewTableRecord
  2
AM_VIEW4
 70
     0
 40
119.4136363636363
 10
642.7500001334349
 20
59.70681762974714
 41
148.5
 11
0.0
 21
0.0
 31
1.0
 12
0.0
 22
0.0
 32
0.0
 42
50.0
 43
-1370.695619172058
 44
-1370.695619172058
 50
0.0
 71
     0
281
     0
 72
     0
  0
VIEW
  5
AE5
330
6
100
AcDbSymbolTableRecord
100
AcDbViewTableRecord
  2
AM_VIEW5
 70
     0
 40
119.4136363636363
 10
568.5000001334349
 20
104.9999994479289
 41
148.5
 11
0.0
 21
0.0
 31
1.0
 12
0.0
 22
0.0
 32
0.0
 42
50.0
 43
-1370.695619172058
 44
-1370.695619172058
 50
0.0
 71
     0
281
     0
 72
     0
  0
VIEW
  5
AE6
330
6
100
AcDbSymbolTableRecord
100
AcDbViewTableRecord
  2
AM_VIEW6
 70
     0
 40
238.8248844545455
 10
568.5000001334349
 20
104.9999994479289
 41
296.99703
 11
0.0
 21
0.0
 31
1.0
 12
0.0
 22
0.0
 32
0.0
 42
50.0
 43
-1370.695619172058
 44
-1370.695619172058
 50
0.0
 71
     0
281
     0
 72
     0
  0
ENDTAB
  0
TABLE
  2
UCS
  5
7
330
0
100
AcDbSymbolTable
 70
     0
  0
ENDTAB
  0
TABLE
  2
APPID
  5
9
330
0
100
AcDbSymbolTable
 70
    62
  0
APPID
  5
12
330
9
100
AcDbSymbolTableRecord
100
AcDbRegAppTableRecord
  2
ACAD
 70
     0
  0
APPID
  5
30
330
9
100
AcDbSymbolTableRecord
100
AcDbRegAppTableRecord
  2
MCAD_NO_VIS
 70
     0
  0
APPID
  5
31
330
9
100
AcDbSymbolTableRecord
100
AcDbRegAppTableRecord
  2
ACAD_TEMP_GRAPHIC
 70
     0
  0
APPID
  5
44
330
9
100
AcDbSymbolTableRecord
100
AcDbRegAppTableRecord
  2
ACATTRIBSERVICES
 70
     0
  0
APPID
  5
7A1
330
9
100
AcDbSymbolTableRecord
100
AcDbRegAppTableRecord
  2
GENIUS_GENDIMSH_14
 70
     0
  0
APPID
  5
A49
330
9
100
AcDbSymbolTableRecord
100
AcDbRegAppTableRecord
  2
GENIUS_GENREC_14
 70
     0
  0
APPID
  5
A4A
330
9
100
AcDbSymbolTableRecord
100
AcDbRegAppTableRecord
  2
GENIUS_GENOBJ-N-REC_13
 70
     0
  0
APPID
  5
A4B
330
9
100
AcDbSymbolTableRecord
100
AcDbRegAppTableRecord
  2
GENIUS_GENODEF_13
 70
     0
  0
APPID
  5
A4C
330
9
100
AcDbSymbolTableRecord
100
AcDbRegAppTableRecord
  2
DCO15
 70
     0
  0
APPID
  5
ADC
330
9
100
AcDbSymbolTableRecord
100
AcDbRegAppTableRecord
  2
GENIUS_GENOLIS_13
 70
     0
  0
APPID
  5
ADD
330
9
100
AcDbSymbolTableRecord
100
AcDbRegAppTableRecord
  2
GENIUS_GENOENT_13
 70
     0
  0
APPID
  5
ADE
330
9
100
AcDbSymbolTableRecord
100
AcDbRegAppTableRecord
  2
GENIUS_GENOBJ-N-TIT_13
 70
     0
  0
APPID
  5
ADF
330
9
100
AcDbSymbolTableRecord
100
AcDbRegAppTableRecord
  2
GENIUS_GENTITLE_13
 70
     0
  0
APPID
  5
AE0
330
9
100
AcDbSymbolTableRecord
100
AcDbRegAppTableRecord
  2
GENIUS_GENOREF_13
 70
     0
  0
APPID
  5
AE7
330
9
100
AcDbSymbolTableRecord
100
AcDbRegAppTableRecord
  2
GENIUS_GENSCREG_15
 70
     0
  0
APPID
  5
AE8
330
9
100
AcDbSymbolTableRecord
100
AcDbRegAppTableRecord
  2
GENIUS_GENOBJ-N-SDF_13
 70
     0
  0
APPID
  5
FAF
330
9
100
AcDbSymbolTableRecord
100
AcDbRegAppTableRecord
  2
GENIUS_GENBLLY_14
 70
     0
  0
APPID
  5
FB0
330
9
100
AcDbSymbolTableRecord
100
AcDbRegAppTableRecord
  2
GENIUS_GENTRA_14
 70
     0
  0
APPID
  5
1285
330
9
100
AcDbSymbolTableRecord
100
AcDbRegAppTableRecord
  2
GENIUS_GENDTOL_13
 70
     0
  0
APPID
  5
142D
330
9
100
AcDbSymbolTableRecord
100
AcDbRegAppTableRecord
  2
GENIUS_GENOBJ-N-CEN_13
 70
     0
  0
APPID
  5
1AB5
330
9
100
AcDbSymbolTableRecord
100
AcDbRegAppTableRecord
  2
GENIUS_GENOBJ-N-CRS_13
 70
     0
  0
APPID
  5
1B36
330
9
100
AcDbSymbolTableRecord
100
AcDbRegAppTableRecord
  2
GENIUS_GENOBJ-N-HTC_13
 70
     0
  0
APPID
  5
1B37
330
9
100
AcDbSymbolTableRecord
100
AcDbRegAppTableRecord
  2
GENIUS_GENHATCH_13
 70
     0
  0
APPID
  5
216D
330
9
100
AcDbSymbolTableRecord
100
AcDbRegAppTableRecord
  2
GENIUS_GENOBJ-N-FIL_13
 70
     0
  0
APPID
  5
2356
330
9
100
AcDbSymbolTableRecord
100
AcDbRegAppTableRecord
  2
GEVID990412420
 70
     0
  0
APPID
  5
2357
330
9
100
AcDbSymbolTableRecord
100
AcDbRegAppTableRecord
  2
GEVDC
 70
     0
  0
APPID
  5
2358
330
9
100
AcDbSymbolTableRecord
100
AcDbRegAppTableRecord
  2
GEVCON
 70
     0
  0
APPID
  5
235B
330
9
100
AcDbSymbolTableRecord
100
AcDbRegAppTableRecord
  2
GEVRADREF
 70
     0
  0
APPID
  5
2360
330
9
100
AcDbSymbolTableRecord
100
AcDbRegAppTableRecord
  2
GENIUS_GENBH_13
 70
     0
  0
APPID
  5
2362
330
9
100
AcDbSymbolTableRecord
100
AcDbRegAppTableRecord
  2
GENIUS_GENOBJ-NBEHI-BHF_13
 70
     0
  0
APPID
  5
2364
330
9
100
AcDbSymbolTableRecord
100
AcDbRegAppTableRecord
  2
GENIUS_GENOBJ-NBEHI-BHB_13
 70
     0
  0
APPID
  5
2379
330
9
100
AcDbSymbolTableRecord
100
AcDbRegAppTableRecord
  2
GENIUS_GENOBJ-F-SCPASSM_13
 70
     0
  0
APPID
  5
3D74
330
9
100
AcDbSymbolTableRecord
100
AcDbRegAppTableRecord
  2
GENIUS_GENDIM_13
 70
     0
  0
APPID
  5
3D76
330
9
100
AcDbSymbolTableRecord
100
AcDbRegAppTableRecord
  2
GENIUS_GE3DTOL_13
 70
     0
  0
APPID
  5
3D9C
330
9
100
AcDbSymbolTableRecord
100
AcDbRegAppTableRecord
  2
AD_DRAW
 70
     0
  0
APPID
  5
3DE8
330
9
100
AcDbSymbolTableRecord
100
AcDbRegAppTableRecord
  2
ASURF_PCURVE_APPNAME
 70
     0
  0
APPID
  5
3DED
330
9
100
AcDbSymbolTableRecord
100
AcDbRegAppTableRecord
  2
AMG_3D2D_5.0
 70
     0
  0
APPID
  5
3E1B
330
9
100
AcDbSymbolTableRecord
100
AcDbRegAppTableRecord
  2
DESIGNERASSEMBLIES
 70
     0
  0
APPID
  5
3E20
330
9
100
AcDbSymbolTableRecord
100
AcDbRegAppTableRecord
  2
ACADM_DIM_EDIT
 70
     0
  0
APPID
  5
3E21
330
9
100
AcDbSymbolTableRecord
100
AcDbRegAppTableRecord
  2
AMDT_DM_ADJ
 70
     0
  0
APPID
  5
4143
330
9
100
AcDbSymbolTableRecord
100
AcDbRegAppTableRecord
  2
GENIUS_GENFIL_13
 70
     0
  0
APPID
  5
4144
330
9
100
AcDbSymbolTableRecord
100
AcDbRegAppTableRecord
  2
GENIUS_GENOBJ-N-CHA_13
 70
     0
  0
APPID
  5
4E17
330
9
100
AcDbSymbolTableRecord
100
AcDbRegAppTableRecord
  2
GEVID1008153417
 70
     0
  0
APPID
  5
4E58
330
9
100
AcDbSymbolTableRecord
100
AcDbRegAppTableRecord
  2
GEVID1008153418
 70
     0
  0
APPID
  5
4E5E
330
9
100
AcDbSymbolTableRecord
100
AcDbRegAppTableRecord
  2
GEVID1008153419
 70
     0
  0
APPID
  5
4E64
330
9
100
AcDbSymbolTableRecord
100
AcDbRegAppTableRecord
  2
GEVID1008153420
 70
     0
  0
APPID
  5
4E75
330
9
100
AcDbSymbolTableRecord
100
AcDbRegAppTableRecord
  2
GEVID1008153421
 70
     0
  0
APPID
  5
4EB7
330
9
100
AcDbSymbolTableRecord
100
AcDbRegAppTableRecord
  2
GENIUS_AMGTXT_16
 70
     0
  0
APPID
  5
7645
330
9
100
AcDbSymbolTableRecord
100
AcDbRegAppTableRecord
  2
GENIUS_GENOBJ-N-DIM_13
 70
     0
  0
APPID
  5
AAD0
330
9
100
AcDbSymbolTableRecord
100
AcDbRegAppTableRecord
  2
ACAD_DSTYLE_DIMARC_LENGTH_SYMBOL
 70
     0
  0
APPID
  5
AAD1
330
9
100
AcDbSymbolTableRecord
100
AcDbRegAppTableRecord
  2
ACAD_DSTYLE_DIMJOGGED_JOGANGLE_SYMBOL
 70
     0
  0
APPID
  5
AAFD
330
9
100
AcDbSymbolTableRecord
100
AcDbRegAppTableRecord
  2
ACAD_PSEXT
 70
     0
  0
APPID
  5
AD61
330
9
100
AcDbSymbolTableRecord
100
AcDbRegAppTableRecord
  2
AcAecLayerStandard
 70
     0
  0
APPID
  5
AEE3
330
9
100
AcDbSymbolTableRecord
100
AcDbRegAppTableRecord
  2
ACAD_EXEMPT_FROM_CAD_STANDARDS
 70
     0
  0
APPID
  5
B1BE
330
9
100
AcDbSymbolTableRecord
100
AcDbRegAppTableRecord
  2
GENIUS_GENCEN_19
 70
     0
  0
APPID
  5
B998
330
9
100
AcDbSymbolTableRecord
100
AcDbRegAppTableRecord
  2
ACAD_MLEADERVER
 70
     0
  0
APPID
  5
B9BE
330
9
100
AcDbSymbolTableRecord
100
AcDbRegAppTableRecord
  2
ACAUTHENVIRON
 70
     0
  0
APPID
  5
B9BF
330
9
100
AcDbSymbolTableRecord
100
AcDbRegAppTableRecord
  2
AcDbDynamicBlockTrueName
 70
     0
  0
APPID
  5
B9C0
330
9
100
AcDbSymbolTableRecord
100
AcDbRegAppTableRecord
  2
AcDbDynamicBlockGUID
 70
     0
  0
APPID
  5
B9C1
330
9
100
AcDbSymbolTableRecord
100
AcDbRegAppTableRecord
  2
ACDBBLOCKREPETAG
 70
     0
  0
APPID
  5
D83A
330
9
100
AcDbSymbolTableRecord
100
AcDbRegAppTableRecord
  2
ACAD_DSTYLE_DIMINSPECT
 70
     0
  0
APPID
  5
D83B
330
9
100
AcDbSymbolTableRecord
100
AcDbRegAppTableRecord
  2
ACAD_DSTYLE_DIMRADIAL_EXTENSION
 70
     0
  0
ENDTAB
  0
TABLE
  2
DIMSTYLE
  5
A
330
0
100
AcDbSymbolTable
 70
    18
100
AcDbDimStyleTable
 71
     1
340
2515
  0
DIMSTYLE
105
A76
330
A
100
AcDbSymbolTableRecord
100
AcDbDimStyleTableRecord
  2
STANDARD
 70
     0
 41
3.0
 42
1.0
 43
7.0
 44
2.0
 73
     0
 74
     0
 77
     1
140
2.799999999999999
141
0.0
143
0.0394
147
0.7
171
     4
172
     1
173
     1
176
     3
177
     3
178
     2
271
     3
272
     3
273
     8
274
     4
289
     0
340
A74
341
A66
343
A66
344
A66
  0
DIMSTYLE
105
2515
330
A
100
AcDbSymbolTableRecord
100
AcDbDimStyleTableRecord
  2
SYS
 70
     0
  4
"
 41
1.0
 42
1.0
 43
10.0
 44
1.0
 47
0.1
 48
0.1
 73
     0
 74
     0
 77
     1
 78
     8
 79
     2
140
3.5
141
0.0
143
0.0393701
146
0.71
147
1.5
172
     1
176
   256
177
   256
178
     7
271
     2
272
     2
283
     0
284
     8
340
11
371
    -1
372
    -1
1001
ACAD_DSTYLE_DIMJOGGED_JOGANGLE_SYMBOL
1070
   384
1040
0.7853981633974483
1001
ACAD_DSTYLE_DIMARC_LENGTH_SYMBOL
1070
   379
1070
     1
  0
DIMSTYLE
105
2516
102
{ACAD_REACTORS
330
D26F
330
DF7B
102
}
330
A
100
AcDbSymbolTableRecord
100
AcDbDimStyleTableRecord
  2
SYS$3
 70
     0
  4
"
 41
2.0
 42
1.0
 43
10.0
 44
1.0
 47
0.1
 48
0.1
 73
     0
 77
     1
 78
     8
 79
     2
140
3.5
141
0.0
143
0.0393701
146
0.71
147
1.5
176
   256
177
   256
178
     2
271
     2
272
     2
283
     0
284
     8
288
     1
340
11
342
A66
371
    -1
372
    -1
1001
ACAD_DSTYLE_DIMJOGGED_JOGANGLE_SYMBOL
1070
   384
1040
0.7853981633974483
1001
ACAD_DSTYLE_DIMARC_LENGTH_SYMBOL
1070
   379
1070
     1
  0
DIMSTYLE
105
2517
330
A
100
AcDbSymbolTableRecord
100
AcDbDimStyleTableRecord
  2
SYS$4
 70
     0
  4
"
 41
2.0
 42
1.0
 43
10.0
 44
1.0
 47
0.1
 48
0.1
 73
     0
 77
     1
 78
     8
 79
     2
140
3.5
141
0.0
143
0.0393701
146
0.71
147
1.5
173
     1
176
   256
177
   256
178
     2
271
     2
272
     2
283
     0
284
     8
288
     1
340
11
344
A66
371
    -1
372
    -1
1001
ACAD_DSTYLE_DIMJOGGED_JOGANGLE_SYMBOL
1070
   384
1040
0.7853981633974483
1001
ACAD_DSTYLE_DIMARC_LENGTH_SYMBOL
1070
   379
1070
     1
  0
DIMSTYLE
105
2518
330
A
100
AcDbSymbolTableRecord
100
AcDbDimStyleTableRecord
  2
SYS$6
 70
     0
  4
"
 41
2.0
 42
1.0
 43
10.0
 44
1.0
 47
0.1
 48
0.1
 73
     0
 74
     0
 78
     8
 79
     2
140
3.5
141
0.0
143
0.0393701
146
0.71
147
1.5
172
     1
176
   256
177
   256
178
     2
271
     2
272
     2
283
     0
284
     8
340
11
341
A66
371
    -1
372
    -1
1001
ACAD_DSTYLE_DIMJOGGED_JOGANGLE_SYMBOL
1070
   384
1040
0.7853981633974483
1001
ACAD_DSTYLE_DIMARC_LENGTH_SYMBOL
1070
   379
1070
     1
  0
DIMSTYLE
105
2519
330
A
100
AcDbSymbolTableRecord
100
AcDbDimStyleTableRecord
  2
SYS$7
 70
     0
  4
"
 41
2.0
 42
1.0
 43
10.0
 44
1.0
 47
0.1
 48
0.1
 73
     0
 74
     0
 77
     1
 78
     8
 79
     2
140
5.0
141
0.0
143
0.0393701
146
0.71
147
1.5
172
     1
176
   256
177
   256
178
     2
271
     2
272
     2
283
     0
284
     8
340
11
341
A66
342
A66
371
    -1
372
    -1
1001
ACAD_DSTYLE_DIMJOGGED_JOGANGLE_SYMBOL
1070
   384
1040
0.7853981633974483
1001
ACAD_DSTYLE_DIMARC_LENGTH_SYMBOL
1070
   379
1070
     1
  0
DIMSTYLE
105
251A
330
A
100
AcDbSymbolTableRecord
100
AcDbDimStyleTableRecord
  2
SYS$SF
 70
     0
  4
"
 41
2.5
 42
1.0
 43
10.0
 44
1.0
 47
0.1
 48
0.1
 73
     0
 74
     0
 75
     1
 76
     1
 77
     1
 78
     8
 79
     2
140
3.5
141
0.0
143
0.0393701
146
0.71
147
1.5
172
     1
176
   256
177
   256
178
     2
271
     2
272
     3
283
     0
284
     8
340
11
341
6C4
342
6C4
371
    -1
372
    -1
1001
ACAD_DSTYLE_DIMJOGGED_JOGANGLE_SYMBOL
1070
   384
1040
0.7853981633974483
1001
ACAD_DSTYLE_DIMARC_LENGTH_SYMBOL
1070
   379
1070
     1
  0
DIMSTYLE
105
251B
330
A
100
AcDbSymbolTableRecord
100
AcDbDimStyleTableRecord
  2
SYS$SH
 70
     0
  4
"
 41
2.5
 42
1.0
 43
10.0
 44
1.0
 47
0.1
 48
0.1
 73
     0
 74
     0
 75
     1
 76
     1
 77
     1
 78
     8
 79
     2
140
3.5
141
0.0
143
0.0393701
144
2.0
146
0.71
147
1.5
172
     1
173
     1
176
   256
177
   256
178
     2
271
     2
272
     3
283
     0
284
     8
340
11
341
6C4
343
72
344
6C4
371
    -1
372
    -1
1001
ACAD_DSTYLE_DIMJOGGED_JOGANGLE_SYMBOL
1070
   384
1040
0.7853981633974483
1001
ACAD_DSTYLE_DIMARC_LENGTH_SYMBOL
1070
   379
1070
     1
  0
DIMSTYLE
105
2A59
330
A
100
AcDbSymbolTableRecord
100
AcDbDimStyleTableRecord
  2
SYS$2
 70
     0
  4
"
 41
1.0
 42
1.0
 43
10.0
 44
1.0
 47
0.1
 48
0.1
 73
     0
 74
     0
 77
     1
 78
     8
 79
     2
140
3.5
141
0.0
143
0.0393701
146
0.71
147
1.5
172
     1
176
   256
177
   256
178
     2
271
     2
272
     2
283
     0
284
     8
340
11
342
6C4
371
    -1
372
    -1
1001
ACAD_DSTYLE_DIMJOGGED_JOGANGLE_SYMBOL
1070
   384
1040
0.7853981633974483
1001
ACAD_DSTYLE_DIMARC_LENGTH_SYMBOL
1070
   379
1070
     1
  0
DIMSTYLE
105
2AAB
102
{ACAD_REACTORS
330
C1CE
330
C1CF
330
C1D2
330
C1F6
330
C1FE
330
C201
330
D1DC
330
D1F2
330
D208
330
D21E
330
D246
330
DC7E
330
DC81
330
DCBF
330
DCC2
330
DECA
330
DEE1
330
DEE4
330
E3D6
330
E3D7
330
E3D8
330
E3E2
330
EC1B
330
EE5E
330
EE88
102
}
330
A
100
AcDbSymbolTableRecord
100
AcDbDimStyleTableRecord
  2
SYS$0
 70
     0
  4
"
 41
1.0
 42
1.0
 43
10.0
 44
1.0
 47
0.1
 48
0.1
 73
     0
 74
     0
 77
     1
 78
     8
 79
     2
140
3.200000000000001
141
0.0
143
0.0393701
146
0.71
147
1.5
172
     1
176
   256
177
   256
178
     2
271
     2
272
     2
283
     0
284
     8
340
11
341
A66
342
6C4
371
    -1
372
    -1
1001
ACAD_DSTYLE_DIMJOGGED_JOGANGLE_SYMBOL
1070
   384
1040
0.7853981633974483
1001
ACAD_DSTYLE_DIMARC_LENGTH_SYMBOL
1070
   379
1070
     1
  0
DIMSTYLE
105
AF99
330
A
100
AcDbSymbolTableRecord
100
AcDbDimStyleTableRecord
  2
AM_ISO
 70
     0
  4
"
 41
2.5
 42
1.0
 43
10.0
 44
1.0
 47
0.1
 48
0.1
 73
     0
 74
     0
 77
     1
 78
     8
 79
     2
140
3.5
141
0.0
143
0.0393701
146
0.71
147
1.5
172
     1
176
   256
177
   256
178
     2
271
     2
272
     3
274
     4
283
     0
284
     8
340
11
371
    -1
372
    -1
  0
DIMSTYLE
105
AF9A
330
A
100
AcDbSymbolTableRecord
100
AcDbDimStyleTableRecord
  2
AM_ISO$3
 70
     0
  4
"
 41
2.5
 42
1.0
 43
10.0
 44
1.0
 47
0.1
 48
0.1
 73
     0
 77
     1
 78
     8
 79
     2
140
3.5
141
0.0
143
0.0393701
146
0.71
147
1.5
176
   256
177
   256
178
     2
271
     2
272
     3
274
     4
283
     0
284
     8
288
     1
289
     0
340
11
371
    -1
372
    -1
  0
DIMSTYLE
105
AF9B
330
A
100
AcDbSymbolTableRecord
100
AcDbDimStyleTableRecord
  2
AM_ISO$4
 70
     0
  4
"
 41
2.5
 42
1.0
 43
10.0
 44
1.0
 47
0.1
 48
0.1
 73
     0
 77
     1
 78
     8
 79
     2
140
3.5
141
0.0
143
0.0393701
146
0.71
147
1.5
176
   256
177
   256
178
     2
271
     2
272
     3
274
     4
283
     0
284
     8
288
     1
289
     0
340
11
371
    -1
372
    -1
  0
DIMSTYLE
105
AF9C
330
A
100
AcDbSymbolTableRecord
100
AcDbDimStyleTableRecord
  2
AM_ISO$6
 70
     0
  4
"
 41
2.5
 42
1.0
 43
10.0
 44
1.0
 47
0.1
 48
0.1
 73
     0
 74
     0
 78
     8
 79
     2
140
3.5
141
0.0
143
0.0393701
146
0.71
147
1.5
172
     1
176
   256
177
   256
178
     2
271
     2
272
     3
274
     4
283
     0
284
     8
340
11
371
    -1
372
    -1
  0
DIMSTYLE
105
AF9D
330
A
100
AcDbSymbolTableRecord
100
AcDbDimStyleTableRecord
  2
AM_ISO$7
 70
     0
  4
"
 41
2.5
 42
1.0
 43
10.0
 44
1.0
 47
0.1
 48
0.1
 73
     0
 74
     0
 77
     1
 78
     8
 79
     2
140
5.0
141
0.0
143
0.0393701
146
0.71
147
1.5
172
     1
176
   256
177
   256
178
     2
271
     2
272
     3
274
     4
283
     0
284
     8
340
11
371
    -1
372
    -1
  0
DIMSTYLE
105
AF9E
330
A
100
AcDbSymbolTableRecord
100
AcDbDimStyleTableRecord
  2
AM_ISO$SF
 70
     0
  4
"
 41
2.5
 42
1.0
 43
10.0
 44
1.0
 47
0.1
 48
0.1
 73
     0
 74
     0
 75
     1
 76
     1
 77
     1
 78
     8
 79
     2
140
3.5
141
0.0
143
0.0393701
146
0.71
147
1.5
172
     1
176
   256
177
   256
178
     2
271
     2
272
     3
274
     4
283
     0
284
     8
340
11
371
    -1
372
    -1
  0
DIMSTYLE
105
AF9F
330
A
100
AcDbSymbolTableRecord
100
AcDbDimStyleTableRecord
  2
AM_ISO$SH
 70
     0
  4
"
 41
2.5
 42
1.0
 43
10.0
 44
1.0
 47
0.1
 48
0.1
 73
     0
 74
     0
 75
     1
 76
     1
 77
     1
 78
     8
 79
     2
140
3.5
141
0.0
143
0.0393701
144
2.0
146
0.71
147
1.5
172
     1
173
     1
176
   256
177
   256
178
     2
271
     2
272
     3
274
     4
283
     0
284
     8
340
11
343
72
371
    -1
372
    -1
  0
DIMSTYLE
105
B5D2
330
A
100
AcDbSymbolTableRecord
100
AcDbDimStyleTableRecord
  2
AM_ANSI
 70
     0
  4
mm
 41
0.1
 42
0.05
 43
0.5
 44
0.1
 47
0.1
 48
0.1
 78
     7
 79
     2
140
0.12
141
0.0
146
0.71
147
0.06
176
   256
177
   256
178
     2
274
     4
284
     7
340
11
371
    -1
372
    -1
  0
ENDTAB
  0
TABLE
  2
BLOCK_RECORD
  5
1
330
0
100
AcDbSymbolTable
 70
    37
  0
BLOCK_RECORD
  5
1F
102
{ACAD_XDICTIONARY
360
8A
102
}
330
1
100
AcDbSymbolTableRecord
100
AcDbBlockTableRecord
  2
*Model_Space
340
22
  0
BLOCK_RECORD
  5
1B
330
1
100
AcDbSymbolTableRecord
100
AcDbBlockTableRecord
  2
*Paper_Space
340
1E
  0
BLOCK_RECORD
  5
23
330
1
100
AcDbSymbolTableRecord
100
AcDbBlockTableRecord
  2
*Paper_Space0
340
26
  0
BLOCK_RECORD
  5
72
330
1
100
AcDbSymbolTableRecord
100
AcDbBlockTableRecord
  2
GENAXEH
340
0
  0
BLOCK_RECORD
  5
6C4
330
1
100
AcDbSymbolTableRecord
100
AcDbBlockTableRecord
  2
_Dot
340
0
102
{BLKREFS
331
EA8B
331
EA8C
331
EA94
331
EA95
331
EAA6
331
EAA7
331
EAAF
331
EAB0
331
EB0B
331
EB0C
331
EB32
331
EB33
331
EB89
331
EB8A
331
EB92
331
EB93
331
ECA7
331
ECA8
331
ECB0
331
ECB1
331
ECBB
331
ECBC
331
ECC4
331
ECC5
331
ECCD
331
ECCE
331
ECDF
331
ECE0
331
ECEA
331
ECEB
331
ED07
331
ED08
331
ED19
331
ED1A
331
EE46
331
EE47
331
EE4F
331
EE50
331
EE58
331
EE59
331
EEA7
331
EEA8
331
EEB0
331
EEB1
331
EEC5
331
EEC6
331
EECF
331
EED0
331
EED8
331
EED9
331
EEE1
331
EEE2
331
EEEA
331
EEEB
331
EEF3
331
EEF4
102
}
  0
BLOCK_RECORD
  5
A66
330
1
100
AcDbSymbolTableRecord
100
AcDbBlockTableRecord
  2
_OPEN30
340
0
  0
BLOCK_RECORD
  5
B502
330
1
100
AcDbSymbolTableRecord
100
AcDbBlockTableRecord
  2
GENDOT
340
0
102
{BLKREFS
331
ECFE
331
ECFF
331
ED3F
331
ED40
102
}
  0
BLOCK_RECORD
  5
C259
330
1
100
AcDbSymbolTableRecord
100
AcDbBlockTableRecord
  2
*D6
340
0
  0
BLOCK_RECORD
  5
C265
330
1
100
AcDbSymbolTableRecord
100
AcDbBlockTableRecord
  2
*D7
340
0
  0
BLOCK_RECORD
  5
C271
330
1
100
AcDbSymbolTableRecord
100
AcDbBlockTableRecord
  2
*D8
340
0
  0
BLOCK_RECORD
  5
C2B3
330
1
100
AcDbSymbolTableRecord
100
AcDbBlockTableRecord
  2
*D9
340
0
  0
BLOCK_RECORD
  5
C2BF
330
1
100
AcDbSymbolTableRecord
100
AcDbBlockTableRecord
  2
*D10
340
0
  0
BLOCK_RECORD
  5
C2CD
330
1
100
AcDbSymbolTableRecord
100
AcDbBlockTableRecord
  2
*D11
340
0
  0
BLOCK_RECORD
  5
D1DD
330
1
100
AcDbSymbolTableRecord
100
AcDbBlockTableRecord
  2
*D12
340
0
  0
BLOCK_RECORD
  5
D1F3
330
1
100
AcDbSymbolTableRecord
100
AcDbBlockTableRecord
  2
*D13
340
0
  0
BLOCK_RECORD
  5
D209
330
1
100
AcDbSymbolTableRecord
100
AcDbBlockTableRecord
  2
*D14
340
0
  0
BLOCK_RECORD
  5
D21F
330
1
100
AcDbSymbolTableRecord
100
AcDbBlockTableRecord
  2
*D15
340
0
  0
BLOCK_RECORD
  5
D247
330
1
100
AcDbSymbolTableRecord
100
AcDbBlockTableRecord
  2
*D16
340
0
  0
BLOCK_RECORD
  5
D270
330
1
100
AcDbSymbolTableRecord
100
AcDbBlockTableRecord
  2
*D17
340
0
  0
BLOCK_RECORD
  5
DD23
330
1
100
AcDbSymbolTableRecord
100
AcDbBlockTableRecord
  2
*D18
340
0
  0
BLOCK_RECORD
  5
DD78
330
1
100
AcDbSymbolTableRecord
100
AcDbBlockTableRecord
  2
*D20
340
0
  0
BLOCK_RECORD
  5
DD84
330
1
100
AcDbSymbolTableRecord
100
AcDbBlockTableRecord
  2
*D21
340
0
  0
BLOCK_RECORD
  5
DD99
330
1
100
AcDbSymbolTableRecord
100
AcDbBlockTableRecord
  2
*D22
340
0
  0
BLOCK_RECORD
  5
DEE9
330
1
100
AcDbSymbolTableRecord
100
AcDbBlockTableRecord
  2
*D24
340
0
  0
BLOCK_RECORD
  5
DF2A
330
1
100
AcDbSymbolTableRecord
100
AcDbBlockTableRecord
  2
*D25
340
0
  0
BLOCK_RECORD
  5
DF36
330
1
100
AcDbSymbolTableRecord
100
AcDbBlockTableRecord
  2
*D26
340
0
  0
BLOCK_RECORD
  5
DF7C
330
1
100
AcDbSymbolTableRecord
100
AcDbBlockTableRecord
  2
*D27
340
0
  0
BLOCK_RECORD
  5
E431
330
1
100
AcDbSymbolTableRecord
100
AcDbBlockTableRecord
  2
*D28
340
0
  0
BLOCK_RECORD
  5
E43D
330
1
100
AcDbSymbolTableRecord
100
AcDbBlockTableRecord
  2
*D29
340
0
  0
BLOCK_RECORD
  5
E449
330
1
100
AcDbSymbolTableRecord
100
AcDbBlockTableRecord
  2
*D30
340
0
  0
BLOCK_RECORD
  5
E469
330
1
100
AcDbSymbolTableRecord
100
AcDbBlockTableRecord
  2
*D31
340
0
  0
BLOCK_RECORD
  5
EC1D
330
1
100
AcDbSymbolTableRecord
100
AcDbBlockTableRecord
  2
*D32
340
0
  0
BLOCK_RECORD
  5
EE61
330
1
100
AcDbSymbolTableRecord
100
AcDbBlockTableRecord
  2
*D35
340
0
  0
BLOCK_RECORD
  5
EE89
330
1
100
AcDbSymbolTableRecord
100
AcDbBlockTableRecord
  2
*D36
340
0
  0
ENDTAB
  0
ENDSEC
  0
SECTION
  2
BLOCKS
  0
BLOCK
  5
20
330
1F
100
AcDbEntity
  8
0
100
AcDbBlockBegin
  2
*Model_Space
 70
     0
 10
0.0
 20
0.0
 30
0.0
  3
*Model_Space
  1

  0
ENDBLK
  5
21
330
1F
100
AcDbEntity
  8
0
100
AcDbBlockEnd
  0
BLOCK
  5
1C
330
1B
100
AcDbEntity
 67
     1
  8
0
100
AcDbBlockBegin
  2
*Paper_Space
 70
     0
 10
0.0
 20
0.0
 30
0.0
  3
*Paper_Space
  1

  0
ENDBLK
  5
1D
330
1B
100
AcDbEntity
 67
     1
  8
0
100
AcDbBlockEnd
  0
BLOCK
  5
24
330
23
100
AcDbEntity
 67
     1
  8
0
100
AcDbBlockBegin
  2
*Paper_Space0
 70
     0
 10
0.0
 20
0.0
 30
0.0
  3
*Paper_Space0
  1

  0
ENDBLK
  5
25
330
23
100
AcDbEntity
 67
     1
  8
0
100
AcDbBlockEnd
  0
BLOCK
  5
74
330
72
100
AcDbEntity
  8
0
100
AcDbBlockBegin
  2
GENAXEH
 70
     0
 10
0.0
 20
0.0
 30
0.0
  3
GENAXEH
  1

  0
LINE
  5
73
330
72
100
AcDbEntity
  8
0
100
AcDbLine
 10
-1.0
 20
0.0
 30
0.0
 11
1.0
 21
0.0
 31
0.0
  0
ENDBLK
  5
75
330
72
100
AcDbEntity
  8
0
100
AcDbBlockEnd
  0
BLOCK
  5
6C7
330
6C4
100
AcDbEntity
  8
0
100
AcDbBlockBegin
  2
_Dot
 70
     0
 10
0.0
 20
0.0
 30
0.0
  3
_Dot
  1

  0
LWPOLYLINE
  5
6C5
330
6C4
100
AcDbEntity
  8
0
  6
ByBlock
 62
     0
100
AcDbPolyline
 90
        2
 70
     1
 43
0.5
 10
-0.25
 20
0.0
 42
1.0
 10
0.25
 20
0.0
 42
1.0
  0
LINE
  5
6C6
330
6C4
100
AcDbEntity
  8
0
  6
ByBlock
 62
     0
370
    -2
100
AcDbLine
 10
-0.5
 20
0.0
 30
0.0
 11
-1.0
 21
0.0
 31
0.0
  0
ENDBLK
  5
6C8
330
6C4
100
AcDbEntity
  8
0
100
AcDbBlockEnd
  0
BLOCK
  5
A6A
330
A66
100
AcDbEntity
  8
0
100
AcDbBlockBegin
  2
_OPEN30
 70
     0
 10
0.0
 20
0.0
 30
0.0
  3
_OPEN30
  1

  0
LINE
  5
A67
330
A66
100
AcDbEntity
  8
0
  6
ByBlock
 62
     0
100
AcDbLine
 10
-1.0
 20
0.26794919
 30
0.0
 11
0.0
 21
0.0
 31
0.0
  0
LINE
  5
A68
330
A66
100
AcDbEntity
  8
0
  6
ByBlock
 62
     0
100
AcDbLine
 10
0.0
 20
0.0
 30
0.0
 11
-1.0
 21
-0.26794919
 31
0.0
  0
LINE
  5
A69
330
A66
100
AcDbEntity
  8
0
  6
ByBlock
 62
     0
100
AcDbLine
 10
0.0
 20
0.0
 30
0.0
 11
-1.0
 21
0.0
 31
0.0
  0
ENDBLK
  5
A6B
330
A66
100
AcDbEntity
  8
0
100
AcDbBlockEnd
  0
BLOCK
  5
B503
330
B502
100
AcDbEntity
  8
0
100
AcDbBlockBegin
  2
GENDOT
 70
     0
 10
0.0
 20
0.0
 30
0.0
  3
GENDOT
  1

  0
LINE
  5
B504
330
B502
100
AcDbEntity
  8
0
100
AcDbLine
 10
0.0
 20
0.0
 30
0.0
 11
-1.0
 21
0.0
 31
0.0
  0
LWPOLYLINE
  5
B505
330
B502
100
AcDbEntity
  8
0
100
AcDbPolyline
 90
        2
 70
     1
 43
0.25
 10
-0.125
 20
0.0
 42
1.0
 10
0.125
 20
0.0
 42
1.0
  0
ENDBLK
  5
B506
330
B502
100
AcDbEntity
  8
0
100
AcDbBlockEnd
  0
BLOCK
  5
C263
330
C259
100
AcDbEntity
  8
0
100
AcDbBlockBegin
  2
*D6
 70
     1
 10
0.0
 20
0.0
 30
0.0
  3
*D6
  1

  0
LINE
  5
ECA4
330
C259
100
AcDbEntity
  8
AM_5
100
AcDbLine
 10
345.526014056498
 20
199.0890443343228
 30
0.0
 11
345.526014056498
 21
210.0890443343228
 31
0.0
  0
LINE
  5
ECA5
330
C259
100
AcDbEntity
  8
AM_5
100
AcDbLine
 10
363.5259930727593
 20
195.7631534072099
 30
0.0
 11
363.5259930727593
 21
210.0890443343228
 31
0.0
  0
LINE
  5
ECA6
330
C259
100
AcDbEntity
  8
AM_5
100
AcDbLine
 10
346.5260140564979
 20
209.0890443343228
 30
0.0
 11
362.5259930727593
 21
209.0890443343228
 31
0.0
  0
INSERT
  5
ECA7
330
C259
100
AcDbEntity
  8
AM_5
100
AcDbBlockReference
  2
_Dot
 10
345.526014056498
 20
209.0890443343228
 30
0.0
 50
180.0
  0
INSERT
  5
ECA8
330
C259
100
AcDbEntity
  8
AM_5
100
AcDbBlockReference
  2
_Dot
 10
363.5259930727593
 20
209.0890443343228
 30
0.0
  0
MTEXT
  5
ECA9
330
C259
100
AcDbEntity
  8
AM_5
 62
     2
100
AcDbMText
 10
354.5260035646287
 20
212.1890443343228
 30
0.0
 40
3.200000000000001
 41
0.0
 71
     5
 72
     1
  1
18
 73
     1
 44
1.0
1001
ACAD
1000
MTEXTBEGIN
1070
    73
1070
     1
1070
    44
1040
1.0
1070
    74
1070
     0
1000
MTEXTEND
  0
POINT
  5
ECAA
330
C259
100
AcDbEntity
  8
Defpoints
 62
     0
100
AcDbPoint
 10
345.526014056498
 20
198.0890443343228
 30
0.0
  0
POINT
  5
ECAB
330
C259
100
AcDbEntity
  8
Defpoints
 62
     0
100
AcDbPoint
 10
363.5259930727593
 20
194.7631534072099
 30
0.0
  0
POINT
  5
ECAC
330
C259
100
AcDbEntity
  8
Defpoints
 62
     0
100
AcDbPoint
 10
363.5259930727593
 20
209.0890443343228
 30
0.0
  0
ENDBLK
  5
C264
330
C259
100
AcDbEntity
  8
0
100
AcDbBlockEnd
  0
BLOCK
  5
C26F
330
C265
100
AcDbEntity
  8
0
100
AcDbBlockBegin
  2
*D7
 70
     1
 10
0.0
 20
0.0
 30
0.0
  3
*D7
  1

  0
LINE
  5
EB08
330
C265
100
AcDbEntity
  8
AM_5
100
AcDbLine
 10
341.526014056498
 20
164.0890443343228
 30
0.0
 11
332.0260130564983
 21
164.0890443343228
 31
0.0
  0
LINE
  5
EB09
330
C265
100
AcDbEntity
  8
AM_5
100
AcDbLine
 10
347.526014056498
 20
201.0890443343228
 30
0.0
 11
332.0260130564983
 21
201.0890443343228
 31
0.0
  0
LINE
  5
EB0A
330
C265
100
AcDbEntity
  8
AM_5
100
AcDbLine
 10
333.0260130564983
 20
165.0890443343228
 30
0.0
 11
333.0260130564983
 21
200.0890443343228
 31
0.0
  0
INSERT
  5
EB0B
330
C265
100
AcDbEntity
  8
AM_5
100
AcDbBlockReference
  2
_Dot
 10
333.0260130564983
 20
164.0890443343228
 30
0.0
 50
270.0
  0
INSERT
  5
EB0C
330
C265
100
AcDbEntity
  8
AM_5
100
AcDbBlockReference
  2
_Dot
 10
333.0260130564983
 20
201.0890443343228
 30
0.0
 50
90.0
  0
MTEXT
  5
EB0D
330
C265
100
AcDbEntity
  8
AM_5
 62
     2
100
AcDbMText
 10
329.9260130564982
 20
182.5890443343229
 30
0.0
 40
3.200000000000001
 41
0.0
 71
     5
 72
     1
  1
37
 11
0.0000000000000001
 21
1.0
 31
0.0
 73
     1
 44
1.0
1001
ACAD
1000
MTEXTBEGIN
1070
    73
1070
     1
1070
    44
1040
1.0
1070
    74
1070
     0
1000
MTEXTEND
  0
POINT
  5
EB0E
330
C265
100
AcDbEntity
  8
Defpoints
 62
     0
100
AcDbPoint
 10
342.526014056498
 20
164.0890443343228
 30
0.0
  0
POINT
  5
EB0F
330
C265
100
AcDbEntity
  8
Defpoints
 62
     0
100
AcDbPoint
 10
348.5260140564979
 20
201.0890443343228
 30
0.0
  0
POINT
  5
EB10
330
C265
100
AcDbEntity
  8
Defpoints
 62
     0
100
AcDbPoint
 10
333.0260130564983
 20
201.0890443343228
 30
0.0
  0
ENDBLK
  5
C270
330
C265
100
AcDbEntity
  8
0
100
AcDbBlockEnd
  0
BLOCK
  5
C27C
330
C271
100
AcDbEntity
  8
0
100
AcDbBlockBegin
  2
*D8
 70
     1
 10
0.0
 20
0.0
 30
0.0
  3
*D8
  1

  0
LINE
  5
EECB
330
C271
100
AcDbEntity
  8
AM_5
100
AcDbLine
 10
300.9762706410543
 20
80.23894920649173
 30
0.0
 11
300.9762706410543
 21
73.23894920649173
 31
0.0
  0
LINE
  5
EECC
330
C271
100
AcDbEntity
  8
AM_5
100
AcDbLine
 10
291.4762706410547
 20
91.23894920649172
 30
0.0
 11
291.4762706410547
 21
73.23894920649173
 31
0.0
  0
LINE
  5
EECD
330
C271
100
AcDbEntity
  8
AM_5
100
AcDbLine
 10
299.9762706410543
 20
74.23894920649172
 30
0.0
 11
292.4762706410547
 21
74.23894920649172
 31
0.0
  0
LINE
  5
EECE
330
C271
100
AcDbEntity
  8
AM_5
100
AcDbLine
 10
291.4762706410547
 20
74.23894920649172
 30
0.0
 11
282.7829373077213
 21
74.23894920649172
 31
0.0
  0
INSERT
  5
EECF
330
C271
100
AcDbEntity
  8
AM_5
100
AcDbBlockReference
  2
_Dot
 10
300.9762706410543
 20
74.23894920649172
 30
0.0
  0
INSERT
  5
EED0
330
C271
100
AcDbEntity
  8
AM_5
100
AcDbBlockReference
  2
_Dot
 10
291.4762706410547
 20
74.23894920649172
 30
0.0
 50
180.0
  0
MTEXT
  5
EED1
330
C271
100
AcDbEntity
  8
AM_5
 62
     2
100
AcDbMText
 10
286.629603974388
 20
77.33894920649172
 30
0.0
 40
3.200000000000001
 41
0.0
 71
     5
 72
     1
  1
9.5
 73
     1
 44
1.0
1001
ACAD
1000
MTEXTBEGIN
1070
    73
1070
     1
1070
    44
1040
1.0
1070
    74
1070
     0
1000
MTEXTEND
  0
POINT
  5
EED2
330
C271
100
AcDbEntity
  8
Defpoints
 62
     0
100
AcDbPoint
 10
300.9762706410543
 20
81.23894920649172
 30
0.0
  0
POINT
  5
EED3
330
C271
100
AcDbEntity
  8
Defpoints
 62
     0
100
AcDbPoint
 10
291.4762706410547
 20
92.23894920649172
 30
0.0
  0
POINT
  5
EED4
330
C271
100
AcDbEntity
  8
Defpoints
 62
     0
100
AcDbPoint
 10
291.4762706410547
 20
74.23894920649172
 30
0.0
  0
ENDBLK
  5
C27D
330
C271
100
AcDbEntity
  8
0
100
AcDbBlockEnd
  0
BLOCK
  5
C2BD
330
C2B3
100
AcDbEntity
  8
0
100
AcDbBlockBegin
  2
*D9
 70
     1
 10
0.0
 20
0.0
 30
0.0
  3
*D9
  1

  0
LINE
  5
EED5
330
C2B3
100
AcDbEntity
  8
AM_5
100
AcDbLine
 10
314.4762706410547
 20
84.23894920649173
 30
0.0
 11
326.4762706410547
 21
84.23894920649173
 31
0.0
  0
LINE
  5
EED6
330
C2B3
100
AcDbEntity
  8
AM_5
100
AcDbLine
 10
307.9762706410547
 20
104.2389492064917
 30
0.0
 11
326.4762706410547
 21
104.2389492064917
 31
0.0
  0
LINE
  5
EED7
330
C2B3
100
AcDbEntity
  8
AM_5
100
AcDbLine
 10
325.4762706410547
 20
85.23894920649173
 30
0.0
 11
325.4762706410547
 21
103.2389492064917
 31
0.0
  0
INSERT
  5
EED8
330
C2B3
100
AcDbEntity
  8
AM_5
100
AcDbBlockReference
  2
_Dot
 10
325.4762706410547
 20
84.23894920649173
 30
0.0
 50
270.0
  0
INSERT
  5
EED9
330
C2B3
100
AcDbEntity
  8
AM_5
100
AcDbBlockReference
  2
_Dot
 10
325.4762706410547
 20
104.2389492064917
 30
0.0
 50
90.0
  0
MTEXT
  5
EEDA
330
C2B3
100
AcDbEntity
  8
AM_5
 62
     2
100
AcDbMText
 10
322.3762706410547
 20
94.23894920649178
 30
0.0
 40
3.200000000000001
 41
0.0
 71
     5
 72
     1
  1
20
 11
0.0000000000000001
 21
1.0
 31
0.0
 73
     1
 44
1.0
1001
ACAD
1000
MTEXTBEGIN
1070
    73
1070
     1
1070
    44
1040
1.0
1070
    74
1070
     0
1000
MTEXTEND
  0
POINT
  5
EEDB
330
C2B3
100
AcDbEntity
  8
Defpoints
 62
     0
100
AcDbPoint
 10
313.4762706410547
 20
84.23894920649173
 30
0.0
  0
POINT
  5
EEDC
330
C2B3
100
AcDbEntity
  8
Defpoints
 62
     0
100
AcDbPoint
 10
306.9762706410547
 20
104.2389492064917
 30
0.0
  0
POINT
  5
EEDD
330
C2B3
100
AcDbEntity
  8
Defpoints
 62
     0
100
AcDbPoint
 10
325.4762706410547
 20
104.2389492064917
 30
0.0
  0
ENDBLK
  5
C2BE
330
C2B3
100
AcDbEntity
  8
0
100
AcDbBlockEnd
  0
BLOCK
  5
C2CB
330
C2BF
100
AcDbEntity
  8
0
100
AcDbBlockBegin
  2
*D10
 70
     1
 10
0.0
 20
0.0
 30
0.0
  3
*D10
  1

  0
LINE
  5
ECE5
330
C2BF
100
AcDbEntity
  8
AM_5
100
AcDbLine
 10
365.526014056498
 20
131.0890443343228
 30
0.0
 11
365.526014056498
 21
123.0890443343228
 31
0.0
  0
LINE
  5
ECE6
330
C2BF
100
AcDbEntity
  8
AM_5
100
AcDbLine
 10
361.026014056498
 20
133.0890443343228
 30
0.0
 11
361.026014056498
 21
123.0890443343228
 31
0.0
  0
LINE
  5
ECE7
330
C2BF
100
AcDbEntity
  8
AM_5
100
AcDbLine
 10
366.526014056498
 20
124.0890443343228
 30
0.0
 11
367.526014056498
 21
124.0890443343228
 31
0.0
  0
LINE
  5
ECE8
330
C2BF
100
AcDbEntity
  8
AM_5
100
AcDbLine
 10
360.026014056498
 20
124.0890443343228
 30
0.0
 11
351.3326807231647
 21
124.0890443343228
 31
0.0
  0
LINE
  5
ECE9
330
C2BF
100
AcDbEntity
  8
AM_5
100
AcDbLine
 10
365.526014056498
 20
124.0890443343228
 30
0.0
 11
361.026014056498
 21
124.0890443343228
 31
0.0
  0
INSERT
  5
ECEA
330
C2BF
100
AcDbEntity
  8
AM_5
100
AcDbBlockReference
  2
_Dot
 10
365.526014056498
 20
124.0890443343228
 30
0.0
 50
180.0
  0
INSERT
  5
ECEB
330
C2BF
100
AcDbEntity
  8
AM_5
100
AcDbBlockReference
  2
_Dot
 10
361.026014056498
 20
124.0890443343228
 30
0.0
  0
MTEXT
  5
ECEC
330
C2BF
100
AcDbEntity
  8
AM_5
 62
     2
100
AcDbMText
 10
355.1793473898313
 20
127.1890443343228
 30
0.0
 40
3.200000000000001
 41
0.0
 71
     5
 72
     1
  1
4.5
 73
     1
 44
1.0
1001
ACAD
1000
MTEXTBEGIN
1070
    73
1070
     1
1070
    44
1040
1.0
1070
    74
1070
     0
1000
MTEXTEND
  0
POINT
  5
ECED
330
C2BF
100
AcDbEntity
  8
Defpoints
 62
     0
100
AcDbPoint
 10
365.526014056498
 20
132.0890443343228
 30
0.0
  0
POINT
  5
ECEE
330
C2BF
100
AcDbEntity
  8
Defpoints
 62
     0
100
AcDbPoint
 10
361.026014056498
 20
134.0890443343228
 30
0.0
  0
POINT
  5
ECEF
330
C2BF
100
AcDbEntity
  8
Defpoints
 62
     0
100
AcDbPoint
 10
361.026014056498
 20
124.0890443343228
 30
0.0
  0
ENDBLK
  5
C2CC
330
C2BF
100
AcDbEntity
  8
0
100
AcDbBlockEnd
  0
BLOCK
  5
C2D7
330
C2CD
100
AcDbEntity
  8
0
100
AcDbBlockBegin
  2
*D11
 70
     1
 10
0.0
 20
0.0
 30
0.0
  3
*D11
  1

  0
LINE
  5
EB2F
330
C2CD
100
AcDbEntity
  8
AM_5
100
AcDbLine
 10
341.526014056498
 20
164.0890443343228
 30
0.0
 11
332.0260130564979
 21
164.0890443343228
 31
0.0
  0
LINE
  5
EB30
330
C2CD
100
AcDbEntity
  8
AM_5
100
AcDbLine
 10
352.492405604559
 20
147.2890443343229
 30
0.0
 11
332.0260130564979
 21
147.2890443343229
 31
0.0
  0
LINE
  5
EB31
330
C2CD
100
AcDbEntity
  8
AM_5
100
AcDbLine
 10
333.026013056498
 20
163.0890443343228
 30
0.0
 11
333.026013056498
 21
148.2890443343229
 31
0.0
  0
INSERT
  5
EB32
330
C2CD
100
AcDbEntity
  8
AM_5
100
AcDbBlockReference
  2
_Dot
 10
333.026013056498
 20
164.0890443343228
 30
0.0
 50
90.0
  0
INSERT
  5
EB33
330
C2CD
100
AcDbEntity
  8
AM_5
100
AcDbBlockReference
  2
_Dot
 10
333.026013056498
 20
147.2890443343229
 30
0.0
 50
270.0
  0
MTEXT
  5
EB34
330
C2CD
100
AcDbEntity
  8
AM_5
 62
     2
100
AcDbMText
 10
329.9260130564979
 20
155.6890443343229
 30
0.0
 40
3.200000000000001
 41
0.0
 71
     5
 72
     1
  1
16.8
 11
0.0000000000000001
 21
1.0
 31
0.0
 73
     1
 44
1.0
1001
ACAD
1000
MTEXTBEGIN
1070
    73
1070
     1
1070
    44
1040
1.0
1070
    74
1070
     0
1000
MTEXTEND
  0
POINT
  5
EB35
330
C2CD
100
AcDbEntity
  8
Defpoints
 62
     0
100
AcDbPoint
 10
342.526014056498
 20
164.0890443343228
 30
0.0
  0
POINT
  5
EB36
330
C2CD
100
AcDbEntity
  8
Defpoints
 62
     0
100
AcDbPoint
 10
353.492405604559
 20
147.2890443343229
 30
0.0
  0
POINT
  5
EB37
330
C2CD
100
AcDbEntity
  8
Defpoints
 62
     0
100
AcDbPoint
 10
333.026013056498
 20
147.2890443343229
 30
0.0
  0
ENDBLK
  5
C2D8
330
C2CD
100
AcDbEntity
  8
0
100
AcDbBlockEnd
  0
BLOCK
  5
D1E7
330
D1DD
100
AcDbEntity
  8
0
100
AcDbBlockBegin
  2
*D12
 70
     1
 10
0.0
 20
0.0
 30
0.0
  3
*D12
  1

  0
LINE
  5
EB86
330
D1DD
100
AcDbEntity
  8
AM_5
100
AcDbLine
 10
293.7262706410544
 20
187.0890443343228
 30
0.0
 11
277.5969530466047
 21
187.0890443343228
 31
0.0
  0
LINE
  5
EB87
330
D1DD
100
AcDbEntity
  8
AM_5
100
AcDbLine
 10
293.7262706410544
 20
141.0890443343228
 30
0.0
 11
277.5969530466047
 21
141.0890443343228
 31
0.0
  0
LINE
  5
EB88
330
D1DD
100
AcDbEntity
  8
AM_5
100
AcDbLine
 10
278.5969530466047
 20
186.0890443343228
 30
0.0
 11
278.5969530466047
 21
142.0890443343228
 31
0.0
  0
INSERT
  5
EB89
330
D1DD
100
AcDbEntity
  8
AM_5
100
AcDbBlockReference
  2
_Dot
 10
278.5969530466047
 20
187.0890443343228
 30
0.0
 50
90.0
  0
INSERT
  5
EB8A
330
D1DD
100
AcDbEntity
  8
AM_5
100
AcDbBlockReference
  2
_Dot
 10
278.5969530466047
 20
141.0890443343228
 30
0.0
 50
270.0
  0
MTEXT
  5
EB8B
330
D1DD
100
AcDbEntity
  8
AM_5
 62
     2
100
AcDbMText
 10
275.4969530466046
 20
164.0890443343229
 30
0.0
 40
3.200000000000001
 41
0.0
 71
     5
 72
     1
  1
46
 11
0.0000000000000001
 21
1.0
 31
0.0
 73
     1
 44
1.0
1001
ACAD
1000
MTEXTBEGIN
1070
    73
1070
     1
1070
    44
1040
1.0
1070
    74
1070
     0
1000
MTEXTEND
  0
POINT
  5
EB8C
330
D1DD
100
AcDbEntity
  8
Defpoints
 62
     0
100
AcDbPoint
 10
294.7262706410544
 20
187.0890443343228
 30
0.0
  0
POINT
  5
EB8D
330
D1DD
100
AcDbEntity
  8
Defpoints
 62
     0
100
AcDbPoint
 10
294.7262706410544
 20
141.0890443343228
 30
0.0
  0
POINT
  5
EB8E
330
D1DD
100
AcDbEntity
  8
Defpoints
 62
     0
100
AcDbPoint
 10
278.5969530466047
 20
141.0890443343228
 30
0.0
  0
ENDBLK
  5
D1E8
330
D1DD
100
AcDbEntity
  8
0
100
AcDbBlockEnd
  0
BLOCK
  5
D1FD
330
D1F3
100
AcDbEntity
  8
0
100
AcDbBlockBegin
  2
*D13
 70
     1
 10
0.0
 20
0.0
 30
0.0
  3
*D13
  1

  0
LINE
  5
EB8F
330
D1F3
100
AcDbEntity
  8
AM_5
100
AcDbLine
 10
296.9762706410544
 20
132.0890443343228
 30
0.0
 11
267.5969530466046
 21
132.0890443343228
 31
0.0
  0
LINE
  5
EB90
330
D1F3
100
AcDbEntity
  8
AM_5
100
AcDbLine
 10
296.9762706410544
 20
196.0890443343228
 30
0.0
 11
267.5969530466046
 21
196.0890443343228
 31
0.0
  0
LINE
  5
EB91
330
D1F3
100
AcDbEntity
  8
AM_5
100
AcDbLine
 10
268.5969530466047
 20
133.0890443343228
 30
0.0
 11
268.5969530466047
 21
195.0890443343228
 31
0.0
  0
INSERT
  5
EB92
330
D1F3
100
AcDbEntity
  8
AM_5
100
AcDbBlockReference
  2
_Dot
 10
268.5969530466047
 20
132.0890443343228
 30
0.0
 50
270.0
  0
INSERT
  5
EB93
330
D1F3
100
AcDbEntity
  8
AM_5
100
AcDbBlockReference
  2
_Dot
 10
268.5969530466047
 20
196.0890443343228
 30
0.0
 50
90.0
  0
MTEXT
  5
EB94
330
D1F3
100
AcDbEntity
  8
AM_5
 62
     2
100
AcDbMText
 10
265.4969530466046
 20
164.0890443343229
 30
0.0
 40
3.200000000000001
 41
0.0
 71
     5
 72
     1
  1
64
 11
0.0000000000000001
 21
1.0
 31
0.0
 73
     1
 44
1.0
1001
ACAD
1000
MTEXTBEGIN
1070
    73
1070
     1
1070
    44
1040
1.0
1070
    74
1070
     0
1000
MTEXTEND
  0
POINT
  5
EB95
330
D1F3
100
AcDbEntity
  8
Defpoints
 62
     0
100
AcDbPoint
 10
297.9762706410544
 20
132.0890443343228
 30
0.0
  0
POINT
  5
EB96
330
D1F3
100
AcDbEntity
  8
Defpoints
 62
     0
100
AcDbPoint
 10
297.9762706410544
 20
196.0890443343228
 30
0.0
  0
POINT
  5
EB97
330
D1F3
100
AcDbEntity
  8
Defpoints
 62
     0
100
AcDbPoint
 10
268.5969530466047
 20
196.0890443343228
 30
0.0
  0
ENDBLK
  5
D1FE
330
D1F3
100
AcDbEntity
  8
0
100
AcDbBlockEnd
  0
BLOCK
  5
D213
330
D209
100
AcDbEntity
  8
0
100
AcDbBlockBegin
  2
*D14
 70
     1
 10
0.0
 20
0.0
 30
0.0
  3
*D14
  1

  0
LINE
  5
ECC1
330
D209
100
AcDbEntity
  8
AM_5
100
AcDbLine
 10
292.9762706410544
 20
192.0890443343228
 30
0.0
 11
292.9762706410544
 21
220.0890443343229
 31
0.0
  0
LINE
  5
ECC2
330
D209
100
AcDbEntity
  8
AM_5
100
AcDbLine
 10
312.9762187710925
 20
165.061627063858
 30
0.0
 11
312.9762187710925
 21
220.0890443343229
 31
0.0
  0
LINE
  5
ECC3
330
D209
100
AcDbEntity
  8
AM_5
100
AcDbLine
 10
293.9762706410544
 20
219.0890443343228
 30
0.0
 11
311.9762187710925
 21
219.0890443343228
 31
0.0
  0
INSERT
  5
ECC4
330
D209
100
AcDbEntity
  8
AM_5
100
AcDbBlockReference
  2
_Dot
 10
292.9762706410544
 20
219.0890443343228
 30
0.0
 50
180.0
  0
INSERT
  5
ECC5
330
D209
100
AcDbEntity
  8
AM_5
100
AcDbBlockReference
  2
_Dot
 10
312.9762187710925
 20
219.0890443343228
 30
0.0
  0
MTEXT
  5
ECC6
330
D209
100
AcDbEntity
  8
AM_5
 62
     2
100
AcDbMText
 10
302.9762447060734
 20
222.1890443343228
 30
0.0
 40
3.200000000000001
 41
0.0
 71
     5
 72
     1
  1
20
 73
     1
 44
1.0
1001
ACAD
1000
MTEXTBEGIN
1070
    73
1070
     1
1070
    44
1040
1.0
1070
    74
1070
     0
1000
MTEXTEND
  0
POINT
  5
ECC7
330
D209
100
AcDbEntity
  8
Defpoints
 62
     0
100
AcDbPoint
 10
292.9762706410544
 20
191.0890443343228
 30
0.0
  0
POINT
  5
ECC8
330
D209
100
AcDbEntity
  8
Defpoints
 62
     0
100
AcDbPoint
 10
312.9762187710925
 20
164.061627063858
 30
0.0
  0
POINT
  5
ECC9
330
D209
100
AcDbEntity
  8
Defpoints
 62
     0
100
AcDbPoint
 10
312.9762187710925
 20
219.0890443343228
 30
0.0
  0
ENDBLK
  5
D214
330
D209
100
AcDbEntity
  8
0
100
AcDbBlockEnd
  0
BLOCK
  5
D229
330
D21F
100
AcDbEntity
  8
0
100
AcDbBlockBegin
  2
*D15
 70
     1
 10
0.0
 20
0.0
 30
0.0
  3
*D15
  1

  0
LINE
  5
ECAD
330
D21F
100
AcDbEntity
  8
AM_5
100
AcDbLine
 10
312.9762605327207
 20
165.0890443343229
 30
0.0
 11
312.9762605327207
 21
210.0890443343231
 31
0.0
  0
LINE
  5
ECAE
330
D21F
100
AcDbEntity
  8
AM_5
100
AcDbLine
 10
303.9762706410544
 20
177.0890443343228
 30
0.0
 11
303.9762706410544
 21
210.0890443343231
 31
0.0
  0
LINE
  5
ECAF
330
D21F
100
AcDbEntity
  8
AM_5
100
AcDbLine
 10
311.9762605327208
 20
209.0890443343231
 30
0.0
 11
304.9762706410544
 21
209.0890443343231
 31
0.0
  0
INSERT
  5
ECB0
330
D21F
100
AcDbEntity
  8
AM_5
100
AcDbBlockReference
  2
_Dot
 10
312.9762605327207
 20
209.0890443343231
 30
0.0
  0
INSERT
  5
ECB1
330
D21F
100
AcDbEntity
  8
AM_5
100
AcDbBlockReference
  2
_Dot
 10
303.9762706410544
 20
209.0890443343231
 30
0.0
 50
180.0
  0
MTEXT
  5
ECB2
330
D21F
100
AcDbEntity
  8
AM_5
 62
     2
100
AcDbMText
 10
308.4762655868876
 20
212.1890443343231
 30
0.0
 40
3.200000000000001
 41
0.0
 71
     5
 72
     1
  1
9
 73
     1
 44
1.0
1001
ACAD
1000
MTEXTBEGIN
1070
    73
1070
     1
1070
    44
1040
1.0
1070
    74
1070
     0
1000
MTEXTEND
  0
POINT
  5
ECB3
330
D21F
100
AcDbEntity
  8
Defpoints
 62
     0
100
AcDbPoint
 10
312.9762605327207
 20
164.0890443343228
 30
0.0
  0
POINT
  5
ECB4
330
D21F
100
AcDbEntity
  8
Defpoints
 62
     0
100
AcDbPoint
 10
303.9762706410544
 20
176.0890443343228
 30
0.0
  0
POINT
  5
ECB5
330
D21F
100
AcDbEntity
  8
Defpoints
 62
     0
100
AcDbPoint
 10
303.9762706410544
 20
209.0890443343231
 30
0.0
  0
ENDBLK
  5
D22A
330
D21F
100
AcDbEntity
  8
0
100
AcDbBlockEnd
  0
BLOCK
  5
D253
330
D247
100
AcDbEntity
  8
0
100
AcDbBlockBegin
  2
*D16
 70
     1
 10
0.0
 20
0.0
 30
0.0
  3
*D16
  1

  0
LINE
  5
ECB6
330
D247
100
AcDbEntity
  8
AM_5
100
AcDbLine
 10
303.9762706410544
 20
174.5890443343227
 30
0.0
 11
303.9762706410544
 21
210.0890443343228
 31
0.0
  0
LINE
  5
ECB7
330
D247
100
AcDbEntity
  8
AM_5
100
AcDbLine
 10
300.9762706410544
 20
194.3390443343228
 30
0.0
 11
300.9762706410544
 21
210.0890443343228
 31
0.0
  0
LINE
  5
ECB8
330
D247
100
AcDbEntity
  8
AM_5
100
AcDbLine
 10
304.9762706410544
 20
209.0890443343228
 30
0.0
 11
305.9762706410544
 21
209.0890443343228
 31
0.0
  0
LINE
  5
ECB9
330
D247
100
AcDbEntity
  8
AM_5
100
AcDbLine
 10
299.9762706410544
 20
209.0890443343228
 30
0.0
 11
294.482937307721
 21
209.0890443343228
 31
0.0
  0
LINE
  5
ECBA
330
D247
100
AcDbEntity
  8
AM_5
100
AcDbLine
 10
303.9762706410544
 20
209.0890443343228
 30
0.0
 11
300.9762706410544
 21
209.0890443343228
 31
0.0
  0
INSERT
  5
ECBB
330
D247
100
AcDbEntity
  8
AM_5
100
AcDbBlockReference
  2
_Dot
 10
303.9762706410544
 20
209.0890443343228
 30
0.0
 50
180.0
  0
INSERT
  5
ECBC
330
D247
100
AcDbEntity
  8
AM_5
100
AcDbBlockReference
  2
_Dot
 10
300.9762706410544
 20
209.0890443343228
 30
0.0
  0
MTEXT
  5
ECBD
330
D247
100
AcDbEntity
  8
AM_5
 62
     2
100
AcDbMText
 10
296.7296039743877
 20
212.1890443343228
 30
0.0
 40
3.200000000000001
 41
0.0
 71
     5
 72
     1
  1
3
 73
     1
 44
1.0
1001
ACAD
1000
MTEXTBEGIN
1070
    73
1070
     1
1070
    44
1040
1.0
1070
    74
1070
     0
1000
MTEXTEND
  0
POINT
  5
ECBE
330
D247
100
AcDbEntity
  8
Defpoints
 62
     0
100
AcDbPoint
 10
303.9762706410544
 20
173.5890443343227
 30
0.0
  0
POINT
  5
ECBF
330
D247
100
AcDbEntity
  8
Defpoints
 62
     0
100
AcDbPoint
 10
300.9762706410544
 20
193.3390443343228
 30
0.0
  0
POINT
  5
ECC0
330
D247
100
AcDbEntity
  8
Defpoints
 62
     0
100
AcDbPoint
 10
300.9762706410544
 20
209.0890443343228
 30
0.0
  0
ENDBLK
  5
D254
330
D247
100
AcDbEntity
  8
0
100
AcDbBlockEnd
  0
BLOCK
  5
D276
330
D270
100
AcDbEntity
  8
0
100
AcDbBlockBegin
  2
*D17
 70
     1
 10
0.0
 20
0.0
 30
0.0
  3
*D17
  1

  0
LINE
  5
ECF9
330
D270
100
AcDbEntity
  8
AM_5
100
AcDbLine
 10
342.6183871942143
 20
124.0890443343228
 30
0.0
 11
315.6617205275477
 21
124.0890443343228
 31
0.0
  0
LINE
  5
ECFA
330
D270
100
AcDbEntity
  8
AM_5
100
AcDbLine
 10
315.6617205275477
 20
124.0890443343228
 30
0.0
 11
305.2254016494584
 21
136.170214628649
 31
0.0
  0
LINE
  5
ECFB
330
D270
100
AcDbEntity
  8
AM_5
100
AcDbLine
 10
296.7271396326505
 20
146.0078740399966
 30
0.0
 11
295.4197147069877
 21
147.5213601032809
 31
0.0
  0
MTEXT
  5
ECFC
330
D270
100
AcDbEntity
  8
AM_5
 62
     2
100
AcDbMText
 10
329.8900538608809
 20
127.3390443343228
 30
0.0
 40
3.5
 41
0.0
 71
     5
 72
     1
  1
2-%%c4.5×\U+22059サラ\P
 73
     1
 44
1.0
1001
ACAD
1000
MTEXTBEGIN
1070
    73
1070
     1
1070
    44
1040
1.0
1070
    74
1070
     0
1000
MTEXTEND
  0
LINE
  5
ECFD
330
D270
100
AcDbEntity
  8
AM_5
100
AcDbLine
 10
298.0345645583132
 20
144.4943879767123
 30
0.0
 11
303.9179767237956
 21
137.6837006919332
 31
0.0
  0
INSERT
  5
ECFE
330
D270
100
AcDbEntity
  8
AM_5
100
AcDbBlockReference
  2
GENDOT
 10
298.0345645583132
 20
144.4943879767123
 30
0.0
 41
2.0
 42
2.0
 43
2.0
 50
310.8220940197674
  0
INSERT
  5
ECFF
330
D270
100
AcDbEntity
  8
AM_5
100
AcDbBlockReference
  2
GENDOT
 10
303.9179767237956
 20
137.6837006919332
 30
0.0
 41
2.0
 42
2.0
 43
2.0
 50
130.8220940197674
  0
POINT
  5
ED00
330
D270
100
AcDbEntity
  8
Defpoints
 62
     0
100
AcDbPoint
 10
303.9179767237956
 20
137.6837006919332
 30
0.0
  0
POINT
  5
ED01
330
D270
100
AcDbEntity
  8
Defpoints
 62
     0
100
AcDbPoint
 10
298.0345645583132
 20
144.4943879767123
 30
0.0
  0
ENDBLK
  5
D277
330
D270
100
AcDbEntity
  8
0
100
AcDbBlockEnd
  0
BLOCK
  5
DD2D
330
DD23
100
AcDbEntity
  8
0
100
AcDbBlockBegin
  2
*D18
 70
     1
 10
0.0
 20
0.0
 30
0.0
  3
*D18
  1

  0
LINE
  5
EAAC
330
DD23
100
AcDbEntity
  8
AM_5
100
AcDbLine
 10
178.0435114784125
 20
150.5890443343227
 30
0.0
 11
202.0435114784126
 21
150.5890443343227
 31
0.0
  0
LINE
  5
EAAD
330
DD23
100
AcDbEntity
  8
AM_5
100
AcDbLine
 10
178.0435114784125
 20
177.5890443343227
 30
0.0
 11
202.0435114784126
 21
177.5890443343227
 31
0.0
  0
LINE
  5
EAAE
330
DD23
100
AcDbEntity
  8
AM_5
100
AcDbLine
 10
201.0435114784126
 20
151.5890443343227
 30
0.0
 11
201.0435114784126
 21
176.5890443343227
 31
0.0
  0
INSERT
  5
EAAF
330
DD23
100
AcDbEntity
  8
AM_5
100
AcDbBlockReference
  2
_Dot
 10
201.0435114784126
 20
150.5890443343227
 30
0.0
 50
270.0
  0
INSERT
  5
EAB0
330
DD23
100
AcDbEntity
  8
AM_5
100
AcDbBlockReference
  2
_Dot
 10
201.0435114784126
 20
177.5890443343227
 30
0.0
 50
90.0
  0
MTEXT
  5
EAB1
330
DD23
100
AcDbEntity
  8
AM_5
 62
     2
100
AcDbMText
 10
197.9435114784125
 20
164.0890443343227
 30
0.0
 40
3.200000000000001
 41
0.0
 71
     5
 72
     1
  1
27
 11
0.0000000000000001
 21
1.0
 31
0.0
 73
     1
 44
1.0
1001
ACAD
1000
MTEXTBEGIN
1070
    73
1070
     1
1070
    44
1040
1.0
1070
    74
1070
     0
1000
MTEXTEND
  0
POINT
  5
EAB2
330
DD23
100
AcDbEntity
  8
Defpoints
 62
     0
100
AcDbPoint
 10
177.0435114784125
 20
150.5890443343227
 30
0.0
  0
POINT
  5
EAB3
330
DD23
100
AcDbEntity
  8
Defpoints
 62
     0
100
AcDbPoint
 10
177.0435114784125
 20
177.5890443343227
 30
0.0
  0
POINT
  5
EAB4
330
DD23
100
AcDbEntity
  8
Defpoints
 62
     0
100
AcDbPoint
 10
201.0435114784126
 20
177.5890443343227
 30
0.0
  0
ENDBLK
  5
DD2E
330
DD23
100
AcDbEntity
  8
0
100
AcDbBlockEnd
  0
BLOCK
  5
DD82
330
DD78
100
AcDbEntity
  8
0
100
AcDbBlockBegin
  2
*D20
 70
     1
 10
0.0
 20
0.0
 30
0.0
  3
*D20
  1

  0
LINE
  5
EA88
330
DD78
100
AcDbEntity
  8
AM_5
100
AcDbLine
 10
160.7935114784125
 20
141.5890443343227
 30
0.0
 11
152.0435114784125
 21
141.5890443343227
 31
0.0
  0
LINE
  5
EA89
330
DD78
100
AcDbEntity
  8
AM_5
100
AcDbLine
 10
160.7935114784125
 20
186.5890443343227
 30
0.0
 11
152.0435114784125
 21
186.5890443343227
 31
0.0
  0
LINE
  5
EA8A
330
DD78
100
AcDbEntity
  8
AM_5
100
AcDbLine
 10
153.0435114784125
 20
142.5890443343227
 30
0.0
 11
153.0435114784125
 21
185.5890443343227
 31
0.0
  0
INSERT
  5
EA8B
330
DD78
100
AcDbEntity
  8
AM_5
100
AcDbBlockReference
  2
_Dot
 10
153.0435114784125
 20
141.5890443343227
 30
0.0
 50
270.0
  0
INSERT
  5
EA8C
330
DD78
100
AcDbEntity
  8
AM_5
100
AcDbBlockReference
  2
_Dot
 10
153.0435114784125
 20
186.5890443343227
 30
0.0
 50
90.0
  0
MTEXT
  5
EA8D
330
DD78
100
AcDbEntity
  8
AM_5
 62
     2
100
AcDbMText
 10
149.9435114784125
 20
164.0890443343227
 30
0.0
 40
3.200000000000001
 41
0.0
 71
     5
 72
     1
  1
45
 11
0.0000000000000001
 21
1.0
 31
0.0
 73
     1
 44
1.0
1001
ACAD
1000
MTEXTBEGIN
1070
    73
1070
     1
1070
    44
1040
1.0
1070
    74
1070
     0
1000
MTEXTEND
  0
POINT
  5
EA8E
330
DD78
100
AcDbEntity
  8
Defpoints
 62
     0
100
AcDbPoint
 10
161.7935114784125
 20
141.5890443343227
 30
0.0
  0
POINT
  5
EA8F
330
DD78
100
AcDbEntity
  8
Defpoints
 62
     0
100
AcDbPoint
 10
161.7935114784125
 20
186.5890443343227
 30
0.0
  0
POINT
  5
EA90
330
DD78
100
AcDbEntity
  8
Defpoints
 62
     0
100
AcDbPoint
 10
153.0435114784125
 20
186.5890443343227
 30
0.0
  0
ENDBLK
  5
DD83
330
DD78
100
AcDbEntity
  8
0
100
AcDbBlockEnd
  0
BLOCK
  5
DD8E
330
DD84
100
AcDbEntity
  8
0
100
AcDbBlockBegin
  2
*D21
 70
     1
 10
0.0
 20
0.0
 30
0.0
  3
*D21
  1

  0
LINE
  5
EA91
330
DD84
100
AcDbEntity
  8
AM_5
100
AcDbLine
 10
169.0435114784125
 20
133.0890443343227
 30
0.0
 11
142.0435114784125
 21
133.0890443343227
 31
0.0
  0
LINE
  5
EA92
330
DD84
100
AcDbEntity
  8
AM_5
100
AcDbLine
 10
169.0435114784125
 20
195.0890443343227
 30
0.0
 11
142.0435114784125
 21
195.0890443343227
 31
0.0
  0
LINE
  5
EA93
330
DD84
100
AcDbEntity
  8
AM_5
100
AcDbLine
 10
143.0435114784125
 20
134.0890443343227
 30
0.0
 11
143.0435114784125
 21
194.0890443343227
 31
0.0
  0
INSERT
  5
EA94
330
DD84
100
AcDbEntity
  8
AM_5
100
AcDbBlockReference
  2
_Dot
 10
143.0435114784125
 20
133.0890443343227
 30
0.0
 50
270.0
  0
INSERT
  5
EA95
330
DD84
100
AcDbEntity
  8
AM_5
100
AcDbBlockReference
  2
_Dot
 10
143.0435114784125
 20
195.0890443343227
 30
0.0
 50
90.0
  0
MTEXT
  5
EA96
330
DD84
100
AcDbEntity
  8
AM_5
 62
     2
100
AcDbMText
 10
139.9435114784125
 20
164.0890443343227
 30
0.0
 40
3.200000000000001
 41
0.0
 71
     5
 72
     1
  1
62
 11
0.0000000000000001
 21
1.0
 31
0.0
 73
     1
 44
1.0
1001
ACAD
1000
MTEXTBEGIN
1070
    73
1070
     1
1070
    44
1040
1.0
1070
    74
1070
     0
1000
MTEXTEND
  0
POINT
  5
EA97
330
DD84
100
AcDbEntity
  8
Defpoints
 62
     0
100
AcDbPoint
 10
170.0435114784125
 20
133.0890443343227
 30
0.0
  0
POINT
  5
EA98
330
DD84
100
AcDbEntity
  8
Defpoints
 62
     0
100
AcDbPoint
 10
170.0435114784125
 20
195.0890443343227
 30
0.0
  0
POINT
  5
EA99
330
DD84
100
AcDbEntity
  8
Defpoints
 62
     0
100
AcDbPoint
 10
143.0435114784125
 20
195.0890443343227
 30
0.0
  0
ENDBLK
  5
DD8F
330
DD84
100
AcDbEntity
  8
0
100
AcDbBlockEnd
  0
BLOCK
  5
DDA3
330
DD99
100
AcDbEntity
  8
0
100
AcDbBlockBegin
  2
*D22
 70
     1
 10
0.0
 20
0.0
 30
0.0
  3
*D22
  1

  0
LINE
  5
EAA3
330
DD99
100
AcDbEntity
  8
AM_5
100
AcDbLine
 10
180.4141252008251
 20
157.8390443343227
 30
0.0
 11
192.0435114784126
 21
157.8390443343227
 31
0.0
  0
LINE
  5
EAA4
330
DD99
100
AcDbEntity
  8
AM_5
100
AcDbLine
 10
180.4141252008251
 20
170.3390443343227
 30
0.0
 11
192.0435114784126
 21
170.3390443343227
 31
0.0
  0
LINE
  5
EAA5
330
DD99
100
AcDbEntity
  8
AM_5
100
AcDbLine
 10
191.0435114784126
 20
158.8390443343227
 30
0.0
 11
191.0435114784126
 21
169.3390443343227
 31
0.0
  0
INSERT
  5
EAA6
330
DD99
100
AcDbEntity
  8
AM_5
100
AcDbBlockReference
  2
_Dot
 10
191.0435114784126
 20
157.8390443343227
 30
0.0
 50
270.0
  0
INSERT
  5
EAA7
330
DD99
100
AcDbEntity
  8
AM_5
100
AcDbBlockReference
  2
_Dot
 10
191.0435114784126
 20
170.3390443343227
 30
0.0
 50
90.0
  0
MTEXT
  5
EAA8
330
DD99
100
AcDbEntity
  8
AM_5
 62
     2
100
AcDbMText
 10
187.9435114784125
 20
164.0890443343227
 30
0.0
 40
3.200000000000001
 41
0.0
 71
     5
 72
     1
  1
12.5
 11
0.0000000000000001
 21
1.0
 31
0.0
 73
     1
 44
1.0
1001
ACAD
1000
MTEXTBEGIN
1070
    73
1070
     1
1070
    44
1040
1.0
1070
    74
1070
     0
1000
MTEXTEND
  0
POINT
  5
EAA9
330
DD99
100
AcDbEntity
  8
Defpoints
 62
     0
100
AcDbPoint
 10
179.4141252008251
 20
157.8390443343227
 30
0.0
  0
POINT
  5
EAAA
330
DD99
100
AcDbEntity
  8
Defpoints
 62
     0
100
AcDbPoint
 10
179.4141252008251
 20
170.3390443343227
 30
0.0
  0
POINT
  5
EAAB
330
DD99
100
AcDbEntity
  8
Defpoints
 62
     0
100
AcDbPoint
 10
191.0435114784126
 20
170.3390443343227
 30
0.0
  0
ENDBLK
  5
DDA4
330
DD99
100
AcDbEntity
  8
0
100
AcDbBlockEnd
  0
BLOCK
  5
DEF3
330
DEE9
100
AcDbEntity
  8
0
100
AcDbBlockBegin
  2
*D24
 70
     1
 10
0.0
 20
0.0
 30
0.0
  3
*D24
  1

  0
LINE
  5
EEDE
330
DEE9
100
AcDbEntity
  8
AM_5
100
AcDbLine
 10
163.2935114784125
 20
86.73894920649173
 30
0.0
 11
163.2935114784125
 21
117.7389492064917
 31
0.0
  0
LINE
  5
EEDF
330
DEE9
100
AcDbEntity
  8
AM_5
100
AcDbLine
 10
181.2935114784125
 20
107.6345203813669
 30
0.0
 11
181.2935114784125
 21
117.7389492064917
 31
0.0
  0
LINE
  5
EEE0
330
DEE9
100
AcDbEntity
  8
AM_5
100
AcDbLine
 10
164.2935114784125
 20
116.7389492064917
 30
0.0
 11
180.2935114784125
 21
116.7389492064917
 31
0.0
  0
INSERT
  5
EEE1
330
DEE9
100
AcDbEntity
  8
AM_5
100
AcDbBlockReference
  2
_Dot
 10
163.2935114784125
 20
116.7389492064917
 30
0.0
 50
180.0
  0
INSERT
  5
EEE2
330
DEE9
100
AcDbEntity
  8
AM_5
100
AcDbBlockReference
  2
_Dot
 10
181.2935114784125
 20
116.7389492064917
 30
0.0
  0
MTEXT
  5
EEE3
330
DEE9
100
AcDbEntity
  8
AM_5
 62
     2
100
AcDbMText
 10
172.2935114784125
 20
119.8389492064917
 30
0.0
 40
3.200000000000001
 41
0.0
 71
     5
 72
     1
  1
18
 73
     1
 44
1.0
1001
ACAD
1000
MTEXTBEGIN
1070
    73
1070
     1
1070
    44
1040
1.0
1070
    74
1070
     0
1000
MTEXTEND
  0
POINT
  5
EEE4
330
DEE9
100
AcDbEntity
  8
Defpoints
 62
     0
100
AcDbPoint
 10
163.2935114784125
 20
85.73894920649172
 30
0.0
  0
POINT
  5
EEE5
330
DEE9
100
AcDbEntity
  8
Defpoints
 62
     0
100
AcDbPoint
 10
181.2935114784125
 20
106.6345203813669
 30
0.0
  0
POINT
  5
EEE6
330
DEE9
100
AcDbEntity
  8
Defpoints
 62
     0
100
AcDbPoint
 10
181.2935114784125
 20
116.7389492064917
 30
0.0
  0
ENDBLK
  5
DEF4
330
DEE9
100
AcDbEntity
  8
0
100
AcDbBlockEnd
  0
BLOCK
  5
DF34
330
DF2A
100
AcDbEntity
  8
0
100
AcDbBlockBegin
  2
*D25
 70
     1
 10
0.0
 20
0.0
 30
0.0
  3
*D25
  1

  0
LINE
  5
EEE7
330
DF2A
100
AcDbEntity
  8
AM_5
100
AcDbLine
 10
177.7935114784125
 20
84.23894920649173
 30
0.0
 11
200.2935114784125
 21
84.23894920649173
 31
0.0
  0
LINE
  5
EEE8
330
DF2A
100
AcDbEntity
  8
AM_5
100
AcDbLine
 10
176.2935114784125
 20
106.7389492064938
 30
0.0
 11
200.2935114784125
 21
106.7389492064938
 31
0.0
  0
LINE
  5
EEE9
330
DF2A
100
AcDbEntity
  8
AM_5
100
AcDbLine
 10
199.2935114784125
 20
85.23894920649173
 30
0.0
 11
199.2935114784125
 21
105.7389492064938
 31
0.0
  0
INSERT
  5
EEEA
330
DF2A
100
AcDbEntity
  8
AM_5
100
AcDbBlockReference
  2
_Dot
 10
199.2935114784125
 20
84.23894920649173
 30
0.0
 50
270.0
  0
INSERT
  5
EEEB
330
DF2A
100
AcDbEntity
  8
AM_5
100
AcDbBlockReference
  2
_Dot
 10
199.2935114784125
 20
106.7389492064938
 30
0.0
 50
90.0
  0
MTEXT
  5
EEEC
330
DF2A
100
AcDbEntity
  8
AM_5
 62
     2
100
AcDbMText
 10
196.1935114784125
 20
95.4889492064928
 30
0.0
 40
3.200000000000001
 41
0.0
 71
     5
 72
     1
  1
22.5
 11
0.0000000000000001
 21
1.0
 31
0.0
 73
     1
 44
1.0
1001
ACAD
1000
MTEXTBEGIN
1070
    73
1070
     1
1070
    44
1040
1.0
1070
    74
1070
     0
1000
MTEXTEND
  0
POINT
  5
EEED
330
DF2A
100
AcDbEntity
  8
Defpoints
 62
     0
100
AcDbPoint
 10
176.7935114784125
 20
84.23894920649173
 30
0.0
  0
POINT
  5
EEEE
330
DF2A
100
AcDbEntity
  8
Defpoints
 62
     0
100
AcDbPoint
 10
175.2935114784125
 20
106.7389492064938
 30
0.0
  0
POINT
  5
EEEF
330
DF2A
100
AcDbEntity
  8
Defpoints
 62
     0
100
AcDbPoint
 10
199.2935114784125
 20
106.7389492064938
 30
0.0
  0
ENDBLK
  5
DF35
330
DF2A
100
AcDbEntity
  8
0
100
AcDbBlockEnd
  0
BLOCK
  5
DF40
330
DF36
100
AcDbEntity
  8
0
100
AcDbBlockBegin
  2
*D26
 70
     1
 10
0.0
 20
0.0
 30
0.0
  3
*D26
  1

  0
LINE
  5
EEF0
330
DF36
100
AcDbEntity
  8
AM_5
100
AcDbLine
 10
177.7935114784125
 20
84.23894920649173
 30
0.0
 11
190.2935114784123
 21
84.23894920649173
 31
0.0
  0
LINE
  5
EEF1
330
DF36
100
AcDbEntity
  8
AM_5
100
AcDbLine
 10
181.480038192261
 20
104.807429466082
 30
0.0
 11
190.2935114784123
 21
104.807429466082
 31
0.0
  0
LINE
  5
EEF2
330
DF36
100
AcDbEntity
  8
AM_5
100
AcDbLine
 10
189.2935114784123
 20
85.23894920649173
 30
0.0
 11
189.2935114784123
 21
103.807429466082
 31
0.0
  0
INSERT
  5
EEF3
330
DF36
100
AcDbEntity
  8
AM_5
100
AcDbBlockReference
  2
_Dot
 10
189.2935114784123
 20
84.23894920649173
 30
0.0
 50
270.0
  0
INSERT
  5
EEF4
330
DF36
100
AcDbEntity
  8
AM_5
100
AcDbBlockReference
  2
_Dot
 10
189.2935114784123
 20
104.807429466082
 30
0.0
 50
90.0
  0
MTEXT
  5
EEF5
330
DF36
100
AcDbEntity
  8
AM_5
 62
     2
100
AcDbMText
 10
186.1935114784123
 20
96.8318178413248
 30
0.0
 40
3.200000000000001
 41
0.0
 71
     5
 72
     1
  1
（20.6）
 11
0.0000000000000001
 21
1.0
 31
0.0
 73
     1
 44
1.0
1001
ACAD
1000
MTEXTBEGIN
1070
    73
1070
     1
1070
    44
1040
1.0
1070
    74
1070
     0
1000
MTEXTEND
  0
POINT
  5
EEF6
330
DF36
100
AcDbEntity
  8
Defpoints
 62
     0
100
AcDbPoint
 10
176.7935114784125
 20
84.23894920649173
 30
0.0
  0
POINT
  5
EEF7
330
DF36
100
AcDbEntity
  8
Defpoints
 62
     0
100
AcDbPoint
 10
180.480038192261
 20
104.807429466082
 30
0.0
  0
POINT
  5
EEF8
330
DF36
100
AcDbEntity
  8
Defpoints
 62
     0
100
AcDbPoint
 10
189.2935114784123
 20
104.807429466082
 30
0.0
  0
ENDBLK
  5
DF41
330
DF36
100
AcDbEntity
  8
0
100
AcDbBlockEnd
  0
BLOCK
  5
DF82
330
DF7C
100
AcDbEntity
  8
0
100
AcDbBlockBegin
  2
*D27
 70
     1
 10
0.0
 20
0.0
 30
0.0
  3
*D27
  1

  0
LINE
  5
ED3A
330
DF7C
100
AcDbEntity
  8
AM_5
100
AcDbLine
 10
127.4544010261595
 20
124.0890443343228
 30
0.0
 11
154.4110676928261
 21
124.0890443343228
 31
0.0
  0
LINE
  5
ED3B
330
DF7C
100
AcDbEntity
  8
AM_5
100
AcDbLine
 10
154.4110676928261
 20
124.0890443343228
 30
0.0
 11
166.0463579087853
 21
137.1143640842026
 31
0.0
  0
LINE
  5
ED3C
330
DF7C
100
AcDbEntity
  8
AM_5
100
AcDbLine
 10
174.0406650480401
 20
146.0637245844432
 30
0.0
 11
175.3730495712492
 21
147.5552846678166
 31
0.0
  0
MTEXT
  5
ED3D
330
DF7C
100
AcDbEntity
  8
AM_5
 62
     2
100
AcDbMText
 10
140.1827343594928
 20
127.3390443343228
 30
0.0
 40
3.5
 41
0.0
 71
     5
 72
     1
  1
2-%%c4.5×\U+22058サラ
 73
     1
 44
1.0
1001
ACAD
1000
MTEXTBEGIN
1070
    73
1070
     1
1070
    44
1040
1.0
1070
    74
1070
     0
1000
MTEXTEND
  0
LINE
  5
ED3E
330
DF7C
100
AcDbEntity
  8
AM_5
100
AcDbLine
 10
172.708280524831
 20
144.5721645010698
 30
0.0
 11
167.3787424319944
 21
138.605924167576
 31
0.0
  0
INSERT
  5
ED3F
330
DF7C
100
AcDbEntity
  8
AM_5
100
AcDbBlockReference
  2
GENDOT
 10
172.708280524831
 20
144.5721645010698
 30
0.0
 41
2.0
 42
2.0
 43
2.0
 50
228.226142417704
  0
INSERT
  5
ED40
330
DF7C
100
AcDbEntity
  8
AM_5
100
AcDbBlockReference
  2
GENDOT
 10
167.3787424319944
 20
138.605924167576
 30
0.0
 41
2.0
 42
2.0
 43
2.0
 50
48.22614241770398
  0
POINT
  5
ED41
330
DF7C
100
AcDbEntity
  8
Defpoints
 62
     0
100
AcDbPoint
 10
167.3787424319944
 20
138.605924167576
 30
0.0
  0
POINT
  5
ED42
330
DF7C
100
AcDbEntity
  8
Defpoints
 62
     0
100
AcDbPoint
 10
172.708280524831
 20
144.5721645010698
 30
0.0
  0
ENDBLK
  5
DF83
330
DF7C
100
AcDbEntity
  8
0
100
AcDbBlockEnd
  0
BLOCK
  5
E43B
330
E431
100
AcDbEntity
  8
0
100
AcDbBlockBegin
  2
*D28
 70
     1
 10
0.0
 20
0.0
 30
0.0
  3
*D28
  1

  0
LINE
  5
EE4C
330
E431
100
AcDbEntity
  8
AM_5
100
AcDbLine
 10
83.97994703390031
 20
187.0890443343226
 30
0.0
 11
97.72994703390009
 21
187.0890443343226
 31
0.0
  0
LINE
  5
EE4D
330
E431
100
AcDbEntity
  8
AM_5
100
AcDbLine
 10
83.97994703390031
 20
141.0890443343226
 30
0.0
 11
97.72994703390008
 21
141.0890443343226
 31
0.0
  0
LINE
  5
EE4E
330
E431
100
AcDbEntity
  8
AM_5
100
AcDbLine
 10
96.7299470339001
 20
186.0890443343226
 30
0.0
 11
96.72994703390008
 21
142.0890443343226
 31
0.0
  0
INSERT
  5
EE4F
330
E431
100
AcDbEntity
  8
AM_5
100
AcDbBlockReference
  2
_Dot
 10
96.7299470339001
 20
187.0890443343226
 30
0.0
 50
90.0
  0
INSERT
  5
EE50
330
E431
100
AcDbEntity
  8
AM_5
100
AcDbBlockReference
  2
_Dot
 10
96.72994703390008
 20
141.0890443343226
 30
0.0
 50
270.0
  0
MTEXT
  5
EE51
330
E431
100
AcDbEntity
  8
AM_5
 62
     2
100
AcDbMText
 10
93.62994703390006
 20
164.0890443343226
 30
0.0
 40
3.200000000000001
 41
0.0
 71
     5
 72
     1
  1
46
 11
0.0000000000000001
 21
1.0
 31
0.0
 73
     1
 44
1.0
1001
ACAD
1000
MTEXTBEGIN
1070
    73
1070
     1
1070
    44
1040
1.0
1070
    74
1070
     0
1000
MTEXTEND
  0
POINT
  5
EE52
330
E431
100
AcDbEntity
  8
Defpoints
 62
     0
100
AcDbPoint
 10
82.97994703390029
 20
187.0890443343226
 30
0.0
  0
POINT
  5
EE53
330
E431
100
AcDbEntity
  8
Defpoints
 62
     0
100
AcDbPoint
 10
82.97994703390029
 20
141.0890443343226
 30
0.0
  0
POINT
  5
EE54
330
E431
100
AcDbEntity
  8
Defpoints
 62
     0
100
AcDbPoint
 10
96.72994703390008
 20
141.0890443343226
 30
0.0
  0
ENDBLK
  5
E43C
330
E431
100
AcDbEntity
  8
0
100
AcDbBlockEnd
  0
BLOCK
  5
E447
330
E43D
100
AcDbEntity
  8
0
100
AcDbBlockBegin
  2
*D29
 70
     1
 10
0.0
 20
0.0
 30
0.0
  3
*D29
  1

  0
LINE
  5
EE43
330
E43D
100
AcDbEntity
  8
AM_5
100
AcDbLine
 10
45.4799470339003
 20
141.5890443343226
 30
0.0
 11
36.7299470339003
 21
141.5890443343226
 31
0.0
  0
LINE
  5
EE44
330
E43D
100
AcDbEntity
  8
AM_5
100
AcDbLine
 10
45.4799470339003
 20
186.5890443343226
 30
0.0
 11
36.72994703390031
 21
186.5890443343226
 31
0.0
  0
LINE
  5
EE45
330
E43D
100
AcDbEntity
  8
AM_5
100
AcDbLine
 10
37.72994703390029
 20
142.5890443343226
 30
0.0
 11
37.72994703390031
 21
185.5890443343226
 31
0.0
  0
INSERT
  5
EE46
330
E43D
100
AcDbEntity
  8
AM_5
100
AcDbBlockReference
  2
_Dot
 10
37.72994703390029
 20
141.5890443343226
 30
0.0
 50
270.0
  0
INSERT
  5
EE47
330
E43D
100
AcDbEntity
  8
AM_5
100
AcDbBlockReference
  2
_Dot
 10
37.72994703390031
 20
186.5890443343226
 30
0.0
 50
90.0
  0
MTEXT
  5
EE48
330
E43D
100
AcDbEntity
  8
AM_5
 62
     2
100
AcDbMText
 10
34.62994703390027
 20
164.0890443343226
 30
0.0
 40
3.200000000000001
 41
0.0
 71
     5
 72
     1
  1
45
 11
0.0000000000000001
 21
1.0
 31
0.0
 73
     1
 44
1.0
1001
ACAD
1000
MTEXTBEGIN
1070
    73
1070
     1
1070
    44
1040
1.0
1070
    74
1070
     0
1000
MTEXTEND
  0
POINT
  5
EE49
330
E43D
100
AcDbEntity
  8
Defpoints
 62
     0
100
AcDbPoint
 10
46.47994703390031
 20
141.5890443343226
 30
0.0
  0
POINT
  5
EE4A
330
E43D
100
AcDbEntity
  8
Defpoints
 62
     0
100
AcDbPoint
 10
46.47994703390031
 20
186.5890443343226
 30
0.0
  0
POINT
  5
EE4B
330
E43D
100
AcDbEntity
  8
Defpoints
 62
     0
100
AcDbPoint
 10
37.72994703390031
 20
186.5890443343226
 30
0.0
  0
ENDBLK
  5
E448
330
E43D
100
AcDbEntity
  8
0
100
AcDbBlockEnd
  0
BLOCK
  5
E455
330
E449
100
AcDbEntity
  8
0
100
AcDbBlockBegin
  2
*D30
 70
     1
 10
0.0
 20
0.0
 30
0.0
  3
*D30
  1

  0
LINE
  5
EEC0
330
E449
100
AcDbEntity
  8
AM_5
100
AcDbLine
 10
62.72994703390008
 20
91.08111005596532
 30
0.0
 11
105.8346607999212
 21
91.08111005596532
 31
0.0
  0
LINE
  5
EEC1
330
E449
100
AcDbEntity
  8
AM_5
100
AcDbLine
 10
97.04356288190728
 20
92.68111005596535
 30
0.0
 11
105.8346607999212
 21
92.68111005596535
 31
0.0
  0
LINE
  5
EEC2
330
E449
100
AcDbEntity
  8
AM_5
100
AcDbLine
 10
104.8346607999212
 20
90.0811100559653
 30
0.0
 11
104.8346607999212
 21
89.08111005596531
 31
0.0
  0
LINE
  5
EEC3
330
E449
100
AcDbEntity
  8
AM_5
100
AcDbLine
 10
104.8346607999212
 20
93.68111005596535
 30
0.0
 11
104.8346607999212
 21
105.1051100559653
 31
0.0
  0
LINE
  5
EEC4
330
E449
100
AcDbEntity
  8
AM_5
100
AcDbLine
 10
104.8346607999212
 20
91.08111005596532
 30
0.0
 11
104.8346607999212
 21
92.68111005596535
 31
0.0
  0
INSERT
  5
EEC5
330
E449
100
AcDbEntity
  8
AM_5
100
AcDbBlockReference
  2
_Dot
 10
104.8346607999212
 20
91.08111005596532
 30
0.0
 50
90.0
  0
INSERT
  5
EEC6
330
E449
100
AcDbEntity
  8
AM_5
100
AcDbBlockReference
  2
_Dot
 10
104.8346607999212
 20
92.68111005596535
 30
0.0
 50
270.0
  0
MTEXT
  5
EEC7
330
E449
100
AcDbEntity
  8
AM_5
 62
     2
100
AcDbMText
 10
101.7346607999212
 20
99.89311005596539
 30
0.0
 40
3.200000000000001
 41
0.0
 71
     5
 72
     1
  1
（1.6）
 11
0.0000000000000001
 21
1.0
 31
0.0
 73
     1
 44
1.0
1001
ACAD
1000
MTEXTBEGIN
1070
    73
1070
     1
1070
    44
1040
1.0
1070
    74
1070
     0
1000
MTEXTEND
  0
POINT
  5
EEC8
330
E449
100
AcDbEntity
  8
Defpoints
 62
     0
100
AcDbPoint
 10
61.72994703390008
 20
91.08111005596532
 30
0.0
  0
POINT
  5
EEC9
330
E449
100
AcDbEntity
  8
Defpoints
 62
     0
100
AcDbPoint
 10
96.04356288190729
 20
92.68111005596535
 30
0.0
  0
POINT
  5
EECA
330
E449
100
AcDbEntity
  8
Defpoints
 62
     0
100
AcDbPoint
 10
104.8346607999212
 20
92.68111005596535
 30
0.0
  0
ENDBLK
  5
E456
330
E449
100
AcDbEntity
  8
0
100
AcDbBlockEnd
  0
BLOCK
  5
E473
330
E469
100
AcDbEntity
  8
0
100
AcDbBlockBegin
  2
*D31
 70
     1
 10
0.0
 20
0.0
 30
0.0
  3
*D31
  1

  0
LINE
  5
ECDC
330
E469
100
AcDbEntity
  8
AM_5
100
AcDbLine
 10
54.72994703390031
 20
200.0890443343226
 30
0.0
 11
54.72994703390031
 21
210.0890443343228
 31
0.0
  0
LINE
  5
ECDD
330
E469
100
AcDbEntity
  8
AM_5
100
AcDbLine
 10
74.7299470339003
 20
196.3390443343226
 30
0.0
 11
74.7299470339003
 21
210.0890443343228
 31
0.0
  0
LINE
  5
ECDE
330
E469
100
AcDbEntity
  8
AM_5
100
AcDbLine
 10
55.72994703390031
 20
209.0890443343228
 30
0.0
 11
73.7299470339003
 21
209.0890443343228
 31
0.0
  0
INSERT
  5
ECDF
330
E469
100
AcDbEntity
  8
AM_5
100
AcDbBlockReference
  2
_Dot
 10
54.72994703390031
 20
209.0890443343228
 30
0.0
 50
180.0
  0
INSERT
  5
ECE0
330
E469
100
AcDbEntity
  8
AM_5
100
AcDbBlockReference
  2
_Dot
 10
74.7299470339003
 20
209.0890443343228
 30
0.0
  0
MTEXT
  5
ECE1
330
E469
100
AcDbEntity
  8
AM_5
 62
     2
100
AcDbMText
 10
64.7299470339003
 20
212.1890443343228
 30
0.0
 40
3.200000000000001
 41
0.0
 71
     5
 72
     1
  1
（20）
 73
     1
 44
1.0
1001
ACAD
1000
MTEXTBEGIN
1070
    73
1070
     1
1070
    44
1040
1.0
1070
    74
1070
     0
1000
MTEXTEND
  0
POINT
  5
ECE2
330
E469
100
AcDbEntity
  8
Defpoints
 62
     0
100
AcDbPoint
 10
54.72994703390031
 20
199.0890443343226
 30
0.0
  0
POINT
  5
ECE3
330
E469
100
AcDbEntity
  8
Defpoints
 62
     0
100
AcDbPoint
 10
74.7299470339003
 20
195.3390443343226
 30
0.0
  0
POINT
  5
ECE4
330
E469
100
AcDbEntity
  8
Defpoints
 62
     0
100
AcDbPoint
 10
74.7299470339003
 20
209.0890443343228
 30
0.0
  0
ENDBLK
  5
E474
330
E469
100
AcDbEntity
  8
0
100
AcDbBlockEnd
  0
BLOCK
  5
EC27
330
EC1D
100
AcDbEntity
  8
0
100
AcDbBlockBegin
  2
*D32
 70
     1
 10
0.0
 20
0.0
 30
0.0
  3
*D32
  1

  0
LINE
  5
EE55
330
EC1D
100
AcDbEntity
  8
AM_5
100
AcDbLine
 10
163.2935114784125
 20
189.3390443343229
 30
0.0
 11
163.2935114784125
 21
210.0890443343228
 31
0.0
  0
LINE
  5
EE56
330
EC1D
100
AcDbEntity
  8
AM_5
100
AcDbLine
 10
176.7935114784126
 20
189.3390443343225
 30
0.0
 11
176.7935114784126
 21
210.0890443343228
 31
0.0
  0
LINE
  5
EE57
330
EC1D
100
AcDbEntity
  8
AM_5
100
AcDbLine
 10
164.2935114784125
 20
209.0890443343228
 30
0.0
 11
175.7935114784126
 21
209.0890443343228
 31
0.0
  0
INSERT
  5
EE58
330
EC1D
100
AcDbEntity
  8
AM_5
100
AcDbBlockReference
  2
_Dot
 10
163.2935114784125
 20
209.0890443343228
 30
0.0
 50
180.0
  0
INSERT
  5
EE59
330
EC1D
100
AcDbEntity
  8
AM_5
100
AcDbBlockReference
  2
_Dot
 10
176.7935114784126
 20
209.0890443343228
 30
0.0
  0
MTEXT
  5
EE5A
330
EC1D
100
AcDbEntity
  8
AM_5
 62
     2
100
AcDbMText
 10
170.0435114784125
 20
212.1890443343228
 30
0.0
 40
3.200000000000001
 41
0.0
 71
     5
 72
     1
  1
13.5
 73
     1
 44
1.0
1001
ACAD
1000
MTEXTBEGIN
1070
    73
1070
     1
1070
    44
1040
1.0
1070
    74
1070
     0
1000
MTEXTEND
  0
POINT
  5
EE5B
330
EC1D
100
AcDbEntity
  8
Defpoints
 62
     0
100
AcDbPoint
 10
163.2935114784125
 20
188.3390443343229
 30
0.0
  0
POINT
  5
EE5C
330
EC1D
100
AcDbEntity
  8
Defpoints
 62
     0
100
AcDbPoint
 10
176.7935114784126
 20
188.3390443343225
 30
0.0
  0
POINT
  5
EE5D
330
EC1D
100
AcDbEntity
  8
Defpoints
 62
     0
100
AcDbPoint
 10
176.7935114784126
 20
209.0890443343228
 30
0.0
  0
ENDBLK
  5
EC28
330
EC1D
100
AcDbEntity
  8
0
100
AcDbBlockEnd
  0
BLOCK
  5
EE6B
330
EE61
100
AcDbEntity
  8
0
100
AcDbBlockBegin
  2
*D35
 70
     1
 10
0.0
 20
0.0
 30
0.0
  3
*D35
  1

  0
LINE
  5
EEAD
330
EE61
100
AcDbEntity
  8
AM_5
100
AcDbLine
 10
213.7634960906988
 20
171.3390443343227
 30
0.0
 11
213.7634960906988
 21
220.0890443343229
 31
0.0
  0
LINE
  5
EEAE
330
EE61
100
AcDbEntity
  8
AM_5
100
AcDbLine
 10
238.2634960906988
 20
196.0890443343227
 30
0.0
 11
238.2634960906988
 21
220.0890443343229
 31
0.0
  0
LINE
  5
EEAF
330
EE61
100
AcDbEntity
  8
AM_5
100
AcDbLine
 10
214.7634960906988
 20
219.0890443343228
 30
0.0
 11
237.2634960906988
 21
219.0890443343228
 31
0.0
  0
INSERT
  5
EEB0
330
EE61
100
AcDbEntity
  8
AM_5
100
AcDbBlockReference
  2
_Dot
 10
213.7634960906988
 20
219.0890443343228
 30
0.0
 50
180.0
  0
INSERT
  5
EEB1
330
EE61
100
AcDbEntity
  8
AM_5
100
AcDbBlockReference
  2
_Dot
 10
238.2634960906988
 20
219.0890443343228
 30
0.0
  0
MTEXT
  5
EEB2
330
EE61
100
AcDbEntity
  8
AM_5
 62
     2
100
AcDbMText
 10
226.0134960906988
 20
222.1890443343228
 30
0.0
 40
3.200000000000001
 41
0.0
 71
     5
 72
     1
  1
（24.5）
 73
     1
 44
1.0
1001
ACAD
1000
MTEXTBEGIN
1070
    73
1070
     1
1070
    44
1040
1.0
1070
    74
1070
     0
1000
MTEXTEND
  0
POINT
  5
EEB3
330
EE61
100
AcDbEntity
  8
Defpoints
 62
     0
100
AcDbPoint
 10
213.7634960906988
 20
170.3390443343227
 30
0.0
  0
POINT
  5
EEB4
330
EE61
100
AcDbEntity
  8
Defpoints
 62
     0
100
AcDbPoint
 10
238.2634960906988
 20
195.0890443343227
 30
0.0
  0
POINT
  5
EEB5
330
EE61
100
AcDbEntity
  8
Defpoints
 62
     0
100
AcDbPoint
 10
238.2634960906988
 20
219.0890443343228
 30
0.0
  0
ENDBLK
  5
EE6C
330
EE61
100
AcDbEntity
  8
0
100
AcDbBlockEnd
  0
BLOCK
  5
EE95
330
EE89
100
AcDbEntity
  8
0
100
AcDbBlockBegin
  2
*D36
 70
     1
 10
0.0
 20
0.0
 30
0.0
  3
*D36
  1

  0
LINE
  5
EEA2
330
EE89
100
AcDbEntity
  8
AM_5
100
AcDbLine
 10
238.2634960906988
 20
196.0890443343227
 30
0.0
 11
238.2634960906988
 21
210.0890443343228
 31
0.0
  0
LINE
  5
EEA3
330
EE89
100
AcDbEntity
  8
AM_5
100
AcDbLine
 10
236.2634960906988
 20
196.0890443343227
 30
0.0
 11
236.2634960906988
 21
210.0890443343228
 31
0.0
  0
LINE
  5
EEA4
330
EE89
100
AcDbEntity
  8
AM_5
100
AcDbLine
 10
239.2634960906988
 20
209.0890443343228
 30
0.0
 11
240.2634960906988
 21
209.0890443343228
 31
0.0
  0
LINE
  5
EEA5
330
EE89
100
AcDbEntity
  8
AM_5
100
AcDbLine
 10
235.2634960906988
 20
209.0890443343228
 30
0.0
 11
225.6101627573654
 21
209.0890443343228
 31
0.0
  0
LINE
  5
EEA6
330
EE89
100
AcDbEntity
  8
AM_5
100
AcDbLine
 10
238.2634960906988
 20
209.0890443343228
 30
0.0
 11
236.2634960906988
 21
209.0890443343228
 31
0.0
  0
INSERT
  5
EEA7
330
EE89
100
AcDbEntity
  8
AM_5
100
AcDbBlockReference
  2
_Dot
 10
238.2634960906988
 20
209.0890443343228
 30
0.0
 50
180.0
  0
INSERT
  5
EEA8
330
EE89
100
AcDbEntity
  8
AM_5
100
AcDbBlockReference
  2
_Dot
 10
236.2634960906988
 20
209.0890443343228
 30
0.0
  0
MTEXT
  5
EEA9
330
EE89
100
AcDbEntity
  8
AM_5
 62
     2
100
AcDbMText
 10
229.9368294240321
 20
212.1890443343228
 30
0.0
 40
3.200000000000001
 41
0.0
 71
     5
 72
     1
  1
t=2
 73
     1
 44
1.0
1001
ACAD
1000
MTEXTBEGIN
1070
    73
1070
     1
1070
    44
1040
1.0
1070
    74
1070
     0
1000
MTEXTEND
  0
POINT
  5
EEAA
330
EE89
100
AcDbEntity
  8
Defpoints
 62
     0
100
AcDbPoint
 10
238.2634960906988
 20
195.0890443343227
 30
0.0
  0
POINT
  5
EEAB
330
EE89
100
AcDbEntity
  8
Defpoints
 62
     0
100
AcDbPoint
 10
236.2634960906988
 20
195.0890443343227
 30
0.0
  0
POINT
  5
EEAC
330
EE89
100
AcDbEntity
  8
Defpoints
 62
     0
100
AcDbPoint
 10
236.2634960906988
 20
209.0890443343228
 30
0.0
  0
ENDBLK
  5
EE96
330
EE89
100
AcDbEntity
  8
0
100
AcDbBlockEnd
  0
ENDSEC
  0
SECTION
  2
ENTITIES
  0
LINE
  5
B6A1
330
1F
100
AcDbEntity
  8
AM_0
100
AcDbLine
 10
31.50000013343492
 20
288.5000028906484
 30
0.0
 11
31.50000013343515
 21
240.5000028906486
 31
0.0
  0
LINE
  5
B6A2
330
1F
100
AcDbEntity
  8
AM_4
100
AcDbLine
 10
11.50000013343492
 20
280.5000028906484
 30
0.0
 11
119.5000001334349
 21
280.5000028906484
 31
0.0
  0
LINE
  5
B6A3
330
1F
100
AcDbEntity
  8
AM_4
100
AcDbLine
 10
11.50000013343492
 20
272.5000028906484
 30
0.0
 11
119.500000133435
 21
272.5000028906484
 31
0.0
  0
LINE
  5
B6A5
330
1F
100
AcDbEntity
  8
AM_0
100
AcDbLine
 10
11.50000013343492
 20
288.5000028906484
 30
0.0
 11
109.5000001334349
 21
288.5000028906484
 31
0.0
  0
LINE
  5
B6A6
330
1F
100
AcDbEntity
  8
AM_0
100
AcDbLine
 10
119.5000001334349
 20
288.5000028906484
 30
0.0
 11
119.5000001334351
 21
240.5000028906484
 31
0.0
  0
TEXT
  5
B6A7
330
1F
100
AcDbEntity
  8
AM_6
100
AcDbText
 10
17.15700013343507
 20
282.900002890648
 30
0.0
 40
3.2
  1
品　名
 41
0.85537027
100
AcDbText
  0
TEXT
  5
B6A8
330
1F
100
AcDbEntity
  8
AM_6
100
AcDbText
 10
17.15700013343507
 20
274.900002890648
 30
0.0
 40
3.2
  1
品　番
 41
0.85537027
100
AcDbText
  0
TEXT
  5
B6A9
330
1F
100
AcDbEntity
  8
AM_6
100
AcDbText
 10
34.3570001334349
 20
282.900002890648
 30
0.0
 40
3.2
  1
クレセント
 41
0.84306961
100
AcDbText
  0
TEXT
  5
B6AA
330
1F
100
AcDbEntity
  8
AM_6
100
AcDbText
 10
17.15700013343507
 20
266.900002890648
 30
0.0
 40
3.2
  1
材　質
 41
0.85537027
100
AcDbText
  0
TEXT
  5
B6AB
330
1F
100
AcDbEntity
  8
AM_6
100
AcDbText
 10
34.3570001334349
 20
266.900002890648
 30
0.0
 40
3.2
  1
ステンレス
 41
0.84741102
100
AcDbText
  0
LINE
  5
B6AC
330
1F
100
AcDbEntity
  8
AM_4
100
AcDbLine
 10
11.50000013343492
 20
264.5000028906484
 30
0.0
 11
119.500000133435
 21
264.5000028906484
 31
0.0
  0
TEXT
  5
B6AD
330
1F
100
AcDbEntity
  8
AM_6
100
AcDbText
 10
17.15700013343507
 20
258.900002890648
 30
0.0
 40
3.2
  1
仕上げ
 41
0.85537027
100
AcDbText
  0
TEXT
  5
B6AE
330
1F
100
AcDbEntity
  8
AM_6
100
AcDbText
 10
34.3570001334349
 20
258.900002890648
 30
0.0
 40
3.2
  1
電解研磨
 41
0.84741102
100
AcDbText
  0
LINE
  5
B6AF
330
1F
100
AcDbEntity
  8
AM_4
100
AcDbLine
 10
11.50000013343492
 20
256.5000028906484
 30
0.0
 11
119.500000133435
 21
256.5000028906484
 31
0.0
  0
TEXT
  5
B6B0
330
1F
100
AcDbEntity
  8
AM_6
100
AcDbText
 10
17.15700013343519
 20
243.2015764908073
 30
0.0
 40
3.2
  1
備　考
 41
0.85537027
100
AcDbText
  0
TEXT
  5
B6B1
330
1F
100
AcDbEntity
  8
AM_6
100
AcDbText
 10
34.35700013343495
 20
274.900002890648
 30
0.0
 40
3.2
  1
HK-302
 41
0.84306961
100
AcDbText
  0
TEXT
  5
BA43
330
1F
100
AcDbEntity
  8
AM_6
 60
     1
100
AcDbText
 10
705.5000001334349
 20
8.499999447928985
 30
0.0
 40
2.5
  1
!GENTITLE-INSERT
100
AcDbText
  0
TEXT
  5
BA44
330
1F
100
AcDbEntity
  8
AM_6
 60
     1
100
AcDbText
 10
717.0000001334349
 20
209.999999447929
 30
0.0
 40
2.5
  1
!GENTITLE-MAX
100
AcDbText
  0
TEXT
  5
BA45
330
1F
100
AcDbEntity
  8
AM_6
 60
     1
100
AcDbText
 10
717.0000001334349
 20
209.999999447929
 30
0.0
 40
2.5
  1
!GENTITLE-RU
100
AcDbText
  0
TEXT
  5
BA47
330
1F
100
AcDbEntity
  8
AM_6
 60
     1
100
AcDbText
 10
420.0000001334349
 20
-0.0000005520710147
 30
0.0
 40
2.5
  1
!GENTITLE-LL
100
AcDbText
  0
TEXT
  5
BCCF
330
1F
100
AcDbEntity
  8
AM_6
 60
     1
100
AcDbText
 10
408.4999985027327
 20
8.500002890648374
 30
0.0
 40
2.5
  1
!GENTITLE-INSERT
100
AcDbText
  0
TEXT
  5
BCD0
330
1F
100
AcDbEntity
  8
AM_6
 60
     1
100
AcDbText
 10
-0.0000014972672489
 20
0.0000028906483749
 30
0.0
 40
2.5
  1
!GENTITLE-LL
100
AcDbText
  0
TEXT
  5
BCD1
330
1F
100
AcDbEntity
  8
AM_6
 60
     1
100
AcDbText
 10
419.9999985027327
 20
297.0000028906484
 30
0.0
 40
2.5
  1
!GENTITLE-RU
100
AcDbText
  0
TEXT
  5
BCD2
330
1F
100
AcDbEntity
  8
AM_6
 60
     1
100
AcDbText
 10
419.9999985027327
 20
297.0000028906484
 30
0.0
 40
2.5
  1
!GENTITLE-MAX
100
AcDbText
  0
LINE
  5
BCD3
330
1F
100
AcDbEntity
  8
size
100
AcDbLine
 10
-0.0000014972672489
 20
0.0000028906483749
 30
0.0
 11
419.9999985027327
 21
0.0000028906483749
 31
0.0
1001
GENIUS_GENREC_14
1002
{
1000
PYDIR
1011
-0.0000014972672311
1021
297.0000028906484
1031
0.0
1002
}
1002
{
1000
PXDIR
1011
419.9999985027327
1021
0.0000028906483749
1031
0.0
1002
}
1002
{
1000
PORI
1011
-0.0000014972672489
1021
0.0000028906483749
1031
0.0
1002
}
1002
{
1000
PINS
1011
209.9999985027328
1021
148.5000028906483
1031
0.0
1002
}
1002
{
1000
HVAL
1000
297
1002
}
1002
{
1000
H
1070
     2
1002
}
1002
{
1000
WVAL
1000
420
1002
}
1002
{
1000
W
1070
     2
1002
}
1002
{
1000
C
1070
     4
1002
}
1001
GENIUS_GENOBJ-N-REC_13
1002
{
1000
OWNER
1000
GEN
1002
}
1001
GENIUS_GENODEF_13
1002
{
1000
HIER
1070
     0
1002
}
1002
{
1000
MANEDIT
1070
     0
1002
}
1002
{
1000
NOSEL
1070
     0
1002
}
1002
{
1000
BEHIND
1070
     0
1002
}
1002
{
1000
OTHER
1070
     0
1002
}
1002
{
1000
REACTOR
1002
}
  0
LINE
  5
BCD5
330
1F
100
AcDbEntity
  8
size
100
AcDbLine
 10
419.9999985027327
 20
297.0000028906484
 30
0.0
 11
-0.0000014972672213
 21
297.0000028906484
 31
0.0
1001
GENIUS_GENREC_14
1002
{
1000
PYDIR
1011
-0.0000014972672311
1021
297.0000028906484
1031
0.0
1002
}
1002
{
1000
PXDIR
1011
419.9999985027327
1021
0.0000028906483749
1031
0.0
1002
}
1002
{
1000
PORI
1011
-0.0000014972672489
1021
0.0000028906483749
1031
0.0
1002
}
1002
{
1000
PINS
1011
209.9999985027328
1021
148.5000028906483
1031
0.0
1002
}
1002
{
1000
HVAL
1000
297
1002
}
1002
{
1000
H
1070
     2
1002
}
1002
{
1000
WVAL
1000
420
1002
}
1002
{
1000
W
1070
     2
1002
}
1002
{
1000
C
1070
     4
1002
}
1001
GENIUS_GENOBJ-N-REC_13
1002
{
1000
OWNER
1000
GEN
1002
}
1001
GENIUS_GENODEF_13
1002
{
1000
HIER
1070
     0
1002
}
1002
{
1000
MANEDIT
1070
     0
1002
}
1002
{
1000
NOSEL
1070
     0
1002
}
1002
{
1000
BEHIND
1070
     0
1002
}
1002
{
1000
OTHER
1070
     0
1002
}
1002
{
1000
REACTOR
1002
}
  0
LINE
  5
BCD6
330
1F
100
AcDbEntity
  8
size
100
AcDbLine
 10
-0.0000014972672213
 20
297.0000028906484
 30
0.0
 11
-0.0000014972672489
 21
0.0000028906483749
 31
0.0
1001
GENIUS_GENREC_14
1002
{
1000
PYDIR
1011
-0.0000014972672311
1021
297.0000028906484
1031
0.0
1002
}
1002
{
1000
PXDIR
1011
419.9999985027327
1021
0.0000028906483749
1031
0.0
1002
}
1002
{
1000
PORI
1011
-0.0000014972672489
1021
0.0000028906483749
1031
0.0
1002
}
1002
{
1000
PINS
1011
209.9999985027328
1021
148.5000028906483
1031
0.0
1002
}
1002
{
1000
HVAL
1000
297
1002
}
1002
{
1000
H
1070
     2
1002
}
1002
{
1000
WVAL
1000
420
1002
}
1002
{
1000
W
1070
     2
1002
}
1002
{
1000
C
1070
     4
1002
}
1001
GENIUS_GENOBJ-N-REC_13
1002
{
1000
OWNER
1000
GEN
1002
}
1001
GENIUS_GENODEF_13
1002
{
1000
HIER
1070
     0
1002
}
1002
{
1000
MANEDIT
1070
     0
1002
}
1002
{
1000
NOSEL
1070
     0
1002
}
1002
{
1000
BEHIND
1070
     0
1002
}
1002
{
1000
OTHER
1070
     0
1002
}
1002
{
1000
REACTOR
1002
}
  0
LINE
  5
BCD7
330
1F
100
AcDbEntity
  8
waku
100
AcDbLine
 10
408.4999985027327
 20
8.500002890648374
 30
0.0
 11
408.4999985027327
 21
288.5000028906484
 31
0.0
1001
GENIUS_GENREC_14
1002
{
1000
PYDIR
1011
-0.0000014972672311
1021
297.0000028906484
1031
0.0
1002
}
1002
{
1000
PXDIR
1011
419.9999985027327
1021
0.0000028906483749
1031
0.0
1002
}
1002
{
1000
PORI
1011
-0.0000014972672489
1021
0.0000028906483749
1031
0.0
1002
}
1002
{
1000
PINS
1011
209.9999985027328
1021
148.5000028906483
1031
0.0
1002
}
1002
{
1000
HVAL
1000
297
1002
}
1002
{
1000
H
1070
     2
1002
}
1002
{
1000
WVAL
1000
420
1002
}
1002
{
1000
W
1070
     2
1002
}
1002
{
1000
C
1070
     4
1002
}
1001
GENIUS_GENOBJ-N-REC_13
1002
{
1000
OWNER
1000
GEN
1002
}
1001
GENIUS_GENODEF_13
1002
{
1000
HIER
1070
     0
1002
}
1002
{
1000
MANEDIT
1070
     0
1002
}
1002
{
1000
NOSEL
1070
     0
1002
}
1002
{
1000
BEHIND
1070
     0
1002
}
1002
{
1000
OTHER
1070
     0
1002
}
1002
{
1000
REACTOR
1002
}
  0
LINE
  5
BCD8
330
1F
100
AcDbEntity
  8
waku
100
AcDbLine
 10
11.49999850273277
 20
288.5000028906484
 30
0.0
 11
11.49999850273275
 21
8.500002890648374
 31
0.0
1001
GENIUS_GENREC_14
1002
{
1000
PYDIR
1011
-0.0000014972672311
1021
297.0000028906484
1031
0.0
1002
}
1002
{
1000
PXDIR
1011
419.9999985027327
1021
0.0000028906483749
1031
0.0
1002
}
1002
{
1000
PORI
1011
-0.0000014972672489
1021
0.0000028906483749
1031
0.0
1002
}
1002
{
1000
PINS
1011
209.9999985027328
1021
148.5000028906483
1031
0.0
1002
}
1002
{
1000
HVAL
1000
297
1002
}
1002
{
1000
H
1070
     2
1002
}
1002
{
1000
WVAL
1000
420
1002
}
1002
{
1000
W
1070
     2
1002
}
1002
{
1000
C
1070
     4
1002
}
1001
GENIUS_GENOBJ-N-REC_13
1002
{
1000
OWNER
1000
GEN
1002
}
1001
GENIUS_GENODEF_13
1002
{
1000
HIER
1070
     0
1002
}
1002
{
1000
MANEDIT
1070
     0
1002
}
1002
{
1000
NOSEL
1070
     0
1002
}
1002
{
1000
BEHIND
1070
     0
1002
}
1002
{
1000
OTHER
1070
     0
1002
}
1002
{
1000
REACTOR
1002
}
  0
LINE
  5
BCD9
330
1F
100
AcDbEntity
  8
waku
100
AcDbLine
 10
408.4999985027327
 20
288.5000028906484
 30
0.0
 11
11.49999850273277
 21
288.5000028906484
 31
0.0
1001
GENIUS_GENREC_14
1002
{
1000
PYDIR
1011
-0.0000014972672311
1021
297.0000028906484
1031
0.0
1002
}
1002
{
1000
PXDIR
1011
419.9999985027327
1021
0.0000028906483749
1031
0.0
1002
}
1002
{
1000
PORI
1011
-0.0000014972672489
1021
0.0000028906483749
1031
0.0
1002
}
1002
{
1000
PINS
1011
209.9999985027328
1021
148.5000028906483
1031
0.0
1002
}
1002
{
1000
HVAL
1000
297
1002
}
1002
{
1000
H
1070
     2
1002
}
1002
{
1000
WVAL
1000
420
1002
}
1002
{
1000
W
1070
     2
1002
}
1002
{
1000
C
1070
     4
1002
}
1001
GENIUS_GENOBJ-N-REC_13
1002
{
1000
OWNER
1000
GEN
1002
}
1001
GENIUS_GENODEF_13
1002
{
1000
HIER
1070
     0
1002
}
1002
{
1000
MANEDIT
1070
     0
1002
}
1002
{
1000
NOSEL
1070
     0
1002
}
1002
{
1000
BEHIND
1070
     0
1002
}
1002
{
1000
OTHER
1070
     0
1002
}
1002
{
1000
REACTOR
1002
}
  0
TEXT
  5
BCDA
330
1F
100
AcDbEntity
  8
AM_6
 60
     1
100
AcDbText
 10
-0.0000014972672489
 20
0.0000028906483749
 30
0.0
 40
2.5
  1
!GENTITLE-LL
100
AcDbText
  0
TEXT
  5
BCDB
330
1F
100
AcDbEntity
  8
AM_6
 60
     1
100
AcDbText
 10
408.4999985027327
 20
288.5000028906484
 30
0.0
 40
2.5
  1
!GENTITLE-RU
100
AcDbText
  0
TEXT
  5
BCDC
330
1F
100
AcDbEntity
  8
AM_6
 60
     1
100
AcDbText
 10
419.9999985027327
 20
297.0000028906484
 30
0.0
 40
2.5
  1
!GENTITLE-MAX
100
AcDbText
  0
TEXT
  5
BCDD
330
1F
100
AcDbEntity
  8
AM_6
 60
     1
100
AcDbText
 10
408.4999985027327
 20
8.500002890648374
 30
0.0
 40
2.5
  1
!GENTITLE-INSERT
100
AcDbText
  0
LINE
  5
BCDE
330
1F
100
AcDbEntity
  8
waku
100
AcDbLine
 10
11.49999850273275
 20
8.500002890648374
 30
0.0
 11
408.4999985027327
 21
8.500002890648374
 31
0.0
  0
TEXT
  5
BCE2
330
1F
100
AcDbEntity
  8
AM_6
100
AcDbText
 10
34.35700013343494
 20
242.9000028906481
 30
0.0
 40
3.2
  1
左右勝手有り。本図は右勝手を示す。（受けは勝手無し）
 41
0.84741102
100
AcDbText
  0
DIMENSION
  5
C1CE
330
1F
100
AcDbEntity
  8
AM_5
100
AcDbDimension
  2
*D6
 10
363.5259930727593
 20
209.0890443343228
 30
0.0
 11
354.5260035646287
 21
212.1890443343228
 31
0.0
 70
    32
 71
     5
 42
17.99997901626136
  3
SYS$0
100
AcDbAlignedDimension
 13
345.526014056498
 23
198.0890443343228
 33
0.0
 14
363.5259930727593
 24
194.7631534072099
 34
0.0
 50
180.0
100
AcDbRotatedDimension
1001
ACAD
1000
DSTYLE
1002
{
1070
    47
1040
0.3
1070
    48
1040
0.3
1002
}
  0
DIMENSION
  5
C1CF
330
1F
100
AcDbEntity
  8
AM_5
100
AcDbDimension
  2
*D7
 10
333.0260130564983
 20
201.0890443343228
 30
0.0
 11
329.9260130564982
 21
182.5890443343229
 31
0.0
 70
    32
 71
     5
 42
37.00000000000003
  3
SYS$0
100
AcDbAlignedDimension
 13
342.526014056498
 23
164.0890443343228
 33
0.0
 14
348.5260140564979
 24
201.0890443343228
 34
0.0
 50
90.0
100
AcDbRotatedDimension
1001
ACAD
1000
DSTYLE
1002
{
1070
    47
1040
0.3
1070
    48
1040
0.3
1002
}
  0
ARC
  5
C1D0
330
1F
100
AcDbEntity
  8
AM_0
100
AcDbCircle
 10
359.9390711444452
 20
198.0890443343228
 30
0.0
 40
3.0
100
AcDbArc
 50
10.00797980144118
 51
90.0
  0
ARC
  5
C1D1
330
1F
100
AcDbEntity
  8
AM_0
100
AcDbCircle
 10
348.5260140564979
 20
198.0890443343228
 30
0.0
 40
3.0
100
AcDbArc
 50
90.0
 51
180.0
  0
DIMENSION
  5
C1D2
330
1F
100
AcDbEntity
  8
AM_5
100
AcDbDimension
  2
*D8
 10
291.4762706410547
 20
74.23894920649172
 30
0.0
 11
286.629603974388
 21
74.23894920649172
 31
0.0
 70
   160
  1
<>
 71
     5
 42
9.499999999999658
  3
SYS$0
100
AcDbAlignedDimension
 13
300.9762706410543
 23
81.23894920649172
 33
0.0
 14
291.4762706410547
 24
92.23894920649172
 34
0.0
100
AcDbRotatedDimension
1001
ACAD
1000
DSTYLE
1002
{
1070
    47
1040
0.5
1070
    48
1040
0.5
1002
}
  0
LINE
  5
C1D3
330
1F
100
AcDbEntity
  8
AM_0
100
AcDbLine
 10
295.4762706410546
 20
88.73894920649172
 30
0.0
 11
311.4762706410547
 21
88.73894920649172
 31
0.0
  0
LINE
  5
C1D4
330
1F
100
AcDbEntity
  8
AM_0
100
AcDbLine
 10
313.4762706410547
 20
84.23894920649173
 30
0.0
 11
293.4762706410547
 21
84.23894920649173
 31
0.0
  0
LINE
  5
C1D5
330
1F
100
AcDbEntity
  8
AM_0
100
AcDbLine
 10
302.0223362109831
 20
95.03894920649173
 30
0.0
 11
310.4762706410547
 21
95.03894920649173
 31
0.0
  0
LINE
  5
C1D6
330
1F
100
AcDbEntity
  8
AM_0
100
AcDbLine
 10
289.6297706498612
 20
103.2923478926806
 30
0.0
 11
304.9762706410547
 21
104.2389492064917
 31
0.0
  0
LINE
  5
C1D7
330
1F
100
AcDbEntity
  8
AM_0
100
AcDbLine
 10
313.4762706410547
 20
92.23894920649172
 30
0.0
 11
302.0305659113782
 21
92.23894920649167
 31
0.0
  0
LINE
  5
C1D8
330
1F
100
AcDbEntity
  8
AM_0
100
AcDbLine
 10
313.4762706410547
 20
90.23894920649173
 30
0.0
 11
302.0305659113786
 21
90.23894920649173
 31
0.0
  0
LINE
  5
C1D9
330
1F
100
AcDbEntity
  8
AM_0
100
AcDbLine
 10
291.4762706410548
 20
90.23894920649173
 30
0.0
 11
312.4762706410546
 21
90.23894920649173
 31
0.0
  0
ARC
  5
C1DA
330
1F
100
AcDbEntity
  8
AM_0
100
AcDbCircle
 10
302.0305659113786
 20
92.23894920649167
 30
0.0
 40
2.0
100
AcDbArc
 50
180.0
 51
270.0
  0
LINE
  5
C1DB
330
1F
100
AcDbEntity
  8
AM_7
 48
0.5
100
AcDbLine
 10
300.9762706410549
 20
92.7389492064916
 30
0.0
 11
300.9762706410544
 21
81.23894920649172
 31
0.0
1001
GENIUS_GENODEF_13
1002
{
1000
HIER
1070
     0
1002
}
1002
{
1000
MANEDIT
1070
     0
1002
}
1002
{
1000
NOSEL
1070
     0
1002
}
1002
{
1000
BEHIND
1070
     0
1002
}
1002
{
1000
OTHER
1070
     0
1002
}
1002
{
1000
REACTOR
1002
}
1001
GENIUS_GENOBJ-N-CEN_13
1002
{
1000
OWNER
1000
GEN
1002
}
  0
ARC
  5
C1DD
330
1F
100
AcDbEntity
  8
AM_0
100
AcDbCircle
 10
291.4762706410548
 20
92.23894920649172
 30
0.0
 40
2.0
100
AcDbArc
 50
190.3048464687693
 51
270.0
  0
LINE
  5
C1DE
330
1F
100
AcDbEntity
  8
AM_0
100
AcDbLine
 10
295.4762706410546
 20
88.73894920649172
 30
0.0
 11
296.4762706410547
 21
90.23894920649173
 31
0.0
  0
LINE
  5
C1DF
330
1F
100
AcDbEntity
  8
AM_0
100
AcDbLine
 10
293.4762706410547
 20
84.23894920649173
 30
0.0
 11
293.4762706410547
 21
86.73894920649173
 31
0.0
  0
ARC
  5
C1E0
330
1F
100
AcDbEntity
  8
AM_0
100
AcDbCircle
 10
295.4762706410546
 20
86.73894920649173
 30
0.0
 40
2.0
100
AcDbArc
 50
90.0
 51
180.0
  0
ARC
  5
C1E1
330
1F
100
AcDbEntity
  8
AM_0
100
AcDbCircle
 10
289.5891617025946
 20
101.7879000891807
 30
0.0
 40
1.5
100
AcDbArc
 50
93.12354189101274
 51
235.4984616855254
  0
ARC
  5
C1E2
330
1F
100
AcDbEntity
  8
AM_0
100
AcDbCircle
 10
289.7387488311823
 20
101.2953191607901
 30
0.0
 40
2.0
100
AcDbArc
 50
93.12354189101274
 51
190.3048464687693
  0
LINE
  5
C1E3
330
1F
100
AcDbEntity
  8
AM_0
100
AcDbLine
 10
289.508530820855
 20
91.88117833009176
 30
0.0
 11
287.7710090109825
 21
100.9375482843901
 31
0.0
  0
LINE
  5
C1E4
330
1F
100
AcDbEntity
  8
AM_0
100
AcDbLine
 10
288.7395191574971
 20
100.5517336175596
 30
0.0
 11
299.5128219764095
 21
95.73662398939097
 31
0.0
  0
LINE
  5
C1E5
330
1F
100
AcDbEntity
  8
AM_0
100
AcDbLine
 10
290.3751089820651
 20
100.6409880191725
 30
0.0
 11
301.5029684457607
 21
95.79230215454481
 31
0.0
  0
LINE
  5
C1E6
330
1F
100
AcDbEntity
  8
AM_3
 48
0.5
100
AcDbLine
 10
291.4762706410547
 20
92.23894920649172
 30
0.0
 11
289.7247515271626
 21
101.8771544907936
 31
0.0
  0
LINE
  5
C1E7
330
1F
100
AcDbEntity
  8
AM_3
 48
0.5
100
AcDbLine
 10
302.0305659113782
 20
92.23894920649167
 30
0.0
 11
291.4762706410547
 21
92.23894920649172
 31
0.0
  0
ARC
  5
C1E8
330
1F
100
AcDbEntity
  8
AM_0
100
AcDbCircle
 10
301.0305659113785
 20
94.91091923803844
 30
0.0
 40
1.0
100
AcDbArc
 50
0.0
 51
61.80963640659033
  0
ARC
  5
C1E9
330
1F
100
AcDbEntity
  8
AM_0
100
AcDbCircle
 10
299.0305659113786
 20
94.86059368869304
 30
0.0
 40
1.0
100
AcDbArc
 50
0.0
 51
61.16714686794107
  0
LINE
  5
C1EA
330
1F
100
AcDbEntity
  8
AM_0
100
AcDbLine
 10
302.0305659113784
 20
94.91091923803844
 30
0.0
 11
302.0305659113782
 21
92.23894920649167
 31
0.0
  0
LINE
  5
C1EB
330
1F
100
AcDbEntity
  8
AM_0
100
AcDbLine
 10
300.0305659113786
 20
94.86059368869304
 30
0.0
 11
300.0305659113786
 21
92.23894920649167
 31
0.0
  0
ARC
  5
C1EC
330
1F
100
AcDbEntity
  8
AM_0
100
AcDbCircle
 10
291.2247515271626
 20
101.8771544907936
 30
0.0
 40
1.5
100
AcDbArc
 50
93.12354189101274
 51
235.4984616855254
  0
LINE
  5
C1F4
330
1F
100
AcDbEntity
  8
AM_0
100
AcDbLine
 10
361.0260140564979
 20
134.0890443343228
 30
0.0
 11
361.0260140564979
 21
191.7899534252318
 31
0.0
  0
LINE
  5
C1F5
330
1F
100
AcDbEntity
  8
AM_0
100
AcDbLine
 10
365.526014056498
 20
132.0890443343228
 30
0.0
 11
365.526014056498
 21
196.0890443343228
 31
0.0
  0
DIMENSION
  5
C1F6
330
1F
100
AcDbEntity
  8
AM_5
100
AcDbDimension
  2
*D9
 10
325.4762706410547
 20
104.2389492064917
 30
0.0
 11
322.3762706410547
 21
94.23894920649178
 31
0.0
 70
    32
  1
<>
 71
     5
 42
20.0
  3
SYS$0
100
AcDbAlignedDimension
 13
313.4762706410547
 23
84.23894920649173
 33
0.0
 14
306.9762706410547
 24
104.2389492064917
 34
0.0
 50
90.0
100
AcDbRotatedDimension
1001
ACAD
1000
DSTYLE
1002
{
1070
    47
1040
0.5
1070
    48
1040
0.5
1002
}
  0
LINE
  5
C1F7
330
1F
100
AcDbEntity
  8
AM_0
100
AcDbLine
 10
313.4762706410547
 20
90.23894920649173
 30
0.0
 11
313.4762706410547
 21
92.23894920649172
 31
0.0
  0
ARC
  5
C1F8
330
1F
100
AcDbEntity
  8
AM_0
100
AcDbCircle
 10
311.4762706410547
 20
86.73894920649173
 30
0.0
 40
2.0
100
AcDbArc
 50
0.0
 51
90.0
  0
LINE
  5
C1F9
330
1F
100
AcDbEntity
  8
AM_0
100
AcDbLine
 10
313.4762706410547
 20
84.23894920649173
 30
0.0
 11
313.4762706410547
 21
86.73894920649173
 31
0.0
  0
LINE
  5
C1FA
330
1F
100
AcDbEntity
  8
AM_0
100
AcDbLine
 10
313.4762706410547
 20
90.23894920649173
 30
0.0
 11
313.4762706410547
 21
86.73894920649173
 31
0.0
  0
LINE
  5
C1FB
330
1F
100
AcDbEntity
  8
AM_0
100
AcDbLine
 10
306.9762706410547
 20
104.2389492064917
 30
0.0
 11
306.9762706410547
 21
95.03894920649173
 31
0.0
  0
LINE
  5
C1FC
330
1F
100
AcDbEntity
  8
AM_0
100
AcDbLine
 10
310.4762706410547
 20
95.03894920649173
 30
0.0
 11
310.4762706410547
 21
92.23894920649172
 31
0.0
  0
LINE
  5
C1FD
330
1F
100
AcDbEntity
  8
AM_0
100
AcDbLine
 10
304.9762706410547
 20
104.2389492064917
 30
0.0
 11
306.9762706410547
 21
104.2389492064917
 31
0.0
  0
DIMENSION
  5
C1FE
330
1F
100
AcDbEntity
  8
AM_5
100
AcDbDimension
  2
*D10
 10
361.026014056498
 20
124.0890443343228
 30
0.0
 11
355.1793473898313
 21
124.0890443343228
 31
0.0
 70
   160
 71
     5
 42
4.499999999999943
  3
SYS$0
100
AcDbAlignedDimension
 13
365.526014056498
 23
132.0890443343228
 33
0.0
 14
361.026014056498
 24
134.0890443343228
 34
0.0
 50
180.0
100
AcDbRotatedDimension
1001
ACAD
1000
DSTYLE
1002
{
1070
   342
1005
0
1070
    47
1040
0.3
1070
    48
1040
0.3
1070
   173
1070
     1
1070
   174
1070
     1
1070
   343
1005
6C4
1070
   344
1005
6C4
1002
}
  0
ARC
  5
C1FF
330
1F
100
AcDbEntity
  8
AM_0
100
AcDbCircle
 10
363.0260140564979
 20
134.0890443343228
 30
0.0
 40
2.0
100
AcDbArc
 50
180.0
 51
270.0
  0
LINE
  5
C200
330
1F
100
AcDbEntity
  8
AM_0
100
AcDbLine
 10
365.526014056498
 20
132.0890443343228
 30
0.0
 11
363.0260140564979
 21
132.0890443343228
 31
0.0
  0
DIMENSION
  5
C201
330
1F
100
AcDbEntity
  8
AM_5
100
AcDbDimension
  2
*D11
 10
333.026013056498
 20
147.2890443343229
 30
0.0
 11
329.9260130564979
 21
155.6890443343229
 31
0.0
 70
    32
  1
<>
 71
     5
 42
16.79999999999992
  3
SYS$0
100
AcDbAlignedDimension
 13
342.526014056498
 23
164.0890443343228
 33
0.0
 14
353.492405604559
 24
147.2890443343229
 34
0.0
 50
90.0
100
AcDbRotatedDimension
1001
ACAD
1000
DSTYLE
1002
{
1070
    47
1040
0.5
1070
    48
1040
0.2
1002
}
  0
LINE
  5
C203
330
1F
100
AcDbEntity
  8
AM_0
100
AcDbLine
 10
354.726014056498
 20
157.5890443343228
 30
0.0
 11
354.726014056498
 21
170.5890443343228
 31
0.0
  0
LINE
  5
C204
330
1F
100
AcDbEntity
  8
AM_0
100
AcDbLine
 10
345.8618271781165
 20
163.2195993348053
 30
0.0
 11
351.7690248518322
 21
147.925427821135
 31
0.0
  0
LINE
  5
C205
330
1F
100
AcDbEntity
  8
AM_0
100
AcDbLine
 10
357.526014056498
 20
176.5890443343228
 30
0.0
 11
357.526014056498
 21
148.2926165530399
 31
0.0
  0
LINE
  5
C206
330
1F
100
AcDbEntity
  8
AM_0
100
AcDbLine
 10
359.526014056498
 20
178.2286521397599
 30
0.0
 11
359.526014056498
 21
146.7579625770819
 31
0.0
  0
LINE
  5
C207
330
1F
100
AcDbEntity
  8
AM_0
100
AcDbLine
 10
359.526014056498
 20
155.5890443343228
 30
0.0
 11
359.526014056498
 21
172.5890443343228
 31
0.0
  0
LINE
  5
C208
330
1F
100
AcDbEntity
  8
AM_7
 48
0.6
100
AcDbLine
 10
342.526014056498
 20
164.0890443343228
 30
0.0
 11
369.5260140564979
 21
164.0890443343228
 31
0.0
1001
GENIUS_GENOBJ-N-CEN_13
1002
{
1000
OWNER
1000
GEN
1002
}
1001
GENIUS_GENODEF_13
1002
{
1000
HIER
1070
     0
1002
}
1002
{
1000
MANEDIT
1070
     0
1002
}
1002
{
1000
NOSEL
1070
     0
1002
}
1002
{
1000
BEHIND
1070
     0
1002
}
1002
{
1000
OTHER
1070
     0
1002
}
1002
{
1000
REACTOR
1002
}
  0
LINE
  5
C209
330
1F
100
AcDbEntity
  8
AM_0
100
AcDbLine
 10
359.526014056498
 20
146.7579625770819
 30
0.0
 11
355.4753380313936
 21
145.6725872073553
 31
0.0
  0
LINE
  5
C20A
330
1F
100
AcDbEntity
  8
AM_0
100
AcDbLine
 10
361.0260140564979
 20
154.5890443343228
 30
0.0
 11
359.526014056498
 21
155.5890443343228
 31
0.0
  0
ARC
  5
C20B
330
1F
100
AcDbEntity
  8
AM_0
100
AcDbCircle
 10
353.5167725566895
 20
149.288895891725
 30
0.0
 40
2.0
100
AcDbArc
 50
192.4142926460837
 51
284.9999999999945
  0
ARC
  5
C20C
330
1F
100
AcDbEntity
  8
AM_0
100
AcDbCircle
 10
354.6988808960861
 20
148.5703646862224
 30
0.0
 40
3.0
100
AcDbArc
 50
192.4142926460873
 51
284.9999999999945
  0
LINE
  5
C20D
330
1F
100
AcDbEntity
  8
AM_0
100
AcDbLine
 10
357.526014056498
 20
148.2926165530399
 30
0.0
 11
354.0344106468945
 21
147.3570442391468
 31
0.0
  0
LINE
  5
C20E
330
1F
100
AcDbEntity
  8
AM_0
100
AcDbLine
 10
357.526014056498
 20
157.5890443343228
 30
0.0
 11
354.726014056498
 21
157.5890443343228
 31
0.0
  0
ARC
  5
C20F
330
1F
100
AcDbEntity
  8
AM_0
100
AcDbCircle
 10
360.526014056498
 20
188.7976568113252
 30
0.0
 40
3.0
100
AcDbArc
 50
81.95326797119134
 51
180.0
  0
LINE
  5
C210
330
1F
100
AcDbEntity
  8
AM_0
100
AcDbLine
 10
359.526014056498
 20
178.2286521397599
 30
0.0
 11
357.526014056498
 21
178.6286521397599
 31
0.0
  0
LINE
  5
C211
330
1F
100
AcDbEntity
  8
AM_0
100
AcDbLine
 10
359.526014056498
 20
172.5890443343228
 30
0.0
 11
361.0260140564979
 21
173.5890443343228
 31
0.0
  0
ARC
  5
C212
330
1F
100
AcDbEntity
  8
AM_0
100
AcDbCircle
 10
360.5259930727593
 20
194.7631534072099
 30
0.0
 40
3.0
100
AcDbArc
 50
285.2551187030547
 51
10.00797980144118
  0
LINE
  5
C213
330
1F
100
AcDbEntity
  8
AM_0
100
AcDbLine
 10
360.9459562906388
 20
191.7681194890885
 30
0.0
 11
361.3153452901356
 21
191.8688619434967
 31
0.0
  0
LINE
  5
C214
330
1F
100
AcDbEntity
  8
AM_0
100
AcDbLine
 10
362.893421820899
 20
198.6104003360499
 30
0.0
 11
363.4803437492131
 21
195.2845094089371
 31
0.0
  0
LINE
  5
C215
330
1F
100
AcDbEntity
  8
AM_0
100
AcDbLine
 10
363.3383669976745
 20
196.0890443343228
 30
0.0
 11
365.526014056498
 21
196.0890443343228
 31
0.0
  0
LINE
  5
C216
330
1F
100
AcDbEntity
  8
AM_0
100
AcDbLine
 10
357.526014056498
 20
188.7976568113252
 30
0.0
 11
357.526014056498
 21
176.5890443343228
 31
0.0
  0
LINE
  5
C217
330
1F
100
AcDbEntity
  8
AM_0
100
AcDbLine
 10
345.526014056498
 20
165.0210878203453
 30
0.0
 11
346.026014056498
 21
179.0890443343228
 31
0.0
  0
LINE
  5
C218
330
1F
100
AcDbEntity
  8
AM_0
100
AcDbLine
 10
357.526014056498
 20
176.5890443343228
 30
0.0
 11
346.0260140564979
 21
179.0890443343228
 31
0.0
  0
LINE
  5
C219
330
1F
100
AcDbEntity
  8
AM_0
100
AcDbLine
 10
354.726014056498
 20
170.5890443343228
 30
0.0
 11
357.526014056498
 21
170.5890443343228
 31
0.0
  0
LINE
  5
C21A
330
1F
100
AcDbEntity
  8
AM_0
100
AcDbLine
 10
348.5260140564979
 20
201.0890443343228
 30
0.0
 11
359.9390711444452
 21
201.0890443343228
 31
0.0
  0
LINE
  5
CB59
330
1F
100
AcDbEntity
  8
AM_0
100
AcDbLine
 10
11.50000013343492
 20
240.5000028906486
 30
0.0
 11
119.5000001334351
 21
240.5000028906484
 31
0.0
  0
LINE
  5
CB5A
330
1F
100
AcDbEntity
  8
AM_4
100
AcDbLine
 10
11.50000013343492
 20
248.5000028906485
 30
0.0
 11
119.5000001334351
 21
248.5000028906485
 31
0.0
  0
TEXT
  5
CB5B
330
1F
100
AcDbEntity
  8
AM_6
100
AcDbText
 10
14.15699850273304
 20
251.2015764908071
 30
0.0
 40
3.2
  1
セット部品
 41
0.85537027
100
AcDbText
  0
TEXT
  5
CB5C
330
1F
100
AcDbEntity
  8
AM_6
100
AcDbText
 10
34.35699850273279
 20
250.900002890648
 30
0.0
 40
3.2
  1
受け
 41
0.84741102
100
AcDbText
  0
LINE
  5
D138
330
1F
100
AcDbEntity
  8
AM_0
100
AcDbLine
 10
312.8941690722006
 20
164.9852284818177
 30
0.0
 11
308.6437975755958
 21
188.1505808484757
 31
0.0
  0
LINE
  5
D139
330
1F
100
AcDbEntity
  8
AM_0
100
AcDbLine
 10
308.7045495962017
 20
140.0393743036917
 30
0.0
 11
312.8962802623156
 21
163.1921403710913
 31
0.0
  0
LINE
  5
D13A
330
1F
100
AcDbEntity
  8
AM_0
100
AcDbLine
 10
310.3635126857671
 20
200.9446881333219
 30
0.0
 11
307.8492007566493
 21
183.7097063426268
 31
0.0
  0
LINE
  5
D13B
330
1F
100
AcDbEntity
  8
AM_0
100
AcDbLine
 10
308.3844611076292
 20
201.2334005353238
 30
0.0
 11
310.3635126857671
 21
200.9446881333219
 31
0.0
  0
LINE
  5
D13D
330
1F
100
AcDbEntity
  8
AM_0
100
AcDbLine
 10
305.8701491785114
 20
183.9984187446287
 30
0.0
 11
308.3844611076292
 21
201.2334005353238
 31
0.0
  0
ARC
  5
D140
330
1F
100
AcDbEntity
  8
AM_0
100
AcDbCircle
 10
297.9762706410544
 20
137.0890443343228
 30
0.0
 40
5.0
100
AcDbArc
 50
180.0
 51
303.477201469763
  0
LINE
  5
D141
330
1F
100
AcDbEntity
  8
AM_0
100
AcDbLine
 10
300.7342962940779
 20
132.9185174494719
 30
0.0
 11
306.5425589814439
 21
136.7595998674857
 31
0.0
  0
LINE
  5
D147
330
1F
100
AcDbEntity
  8
AM_0
100
AcDbLine
 10
292.9762706410544
 20
137.0890443343228
 30
0.0
 11
292.9762706410544
 21
150.2680043809145
 31
0.0
  0
LINE
  5
D150
330
1F
100
AcDbEntity
  8
AM_7
 48
0.5
100
AcDbLine
 10
307.2262706410544
 20
141.0890443343228
 30
0.0
 11
294.7262706410544
 21
141.0890443343228
 31
0.0
1001
GENIUS_GENOBJ-N-CEN_13
1002
{
1000
OWNER
1000
GEN
1002
}
1001
GENIUS_GENODEF_13
1002
{
1000
HIER
1070
     0
1002
}
1002
{
1000
MANEDIT
1070
     0
1002
}
1002
{
1000
NOSEL
1070
     0
1002
}
1002
{
1000
BEHIND
1070
     0
1002
}
1002
{
1000
OTHER
1070
     0
1002
}
1002
{
1000
REACTOR
1002
}
  0
CIRCLE
  5
D153
330
1F
100
AcDbEntity
  8
AM_0
100
AcDbCircle
 10
300.9762706410544
 20
141.0890443343228
 30
0.0
 40
2.25
  0
LINE
  5
D155
330
1F
100
AcDbEntity
  8
AM_7
 48
0.5
100
AcDbLine
 10
300.9762706410544
 20
134.8390443343228
 30
0.0
 11
300.9762706410544
 21
147.3390443343228
 31
0.0
1001
GENIUS_GENOBJ-N-CEN_13
1002
{
1000
OWNER
1000
GEN
1002
}
1001
GENIUS_GENODEF_13
1002
{
1000
HIER
1070
     0
1002
}
1002
{
1000
MANEDIT
1070
     0
1002
}
1002
{
1000
NOSEL
1070
     0
1002
}
1002
{
1000
BEHIND
1070
     0
1002
}
1002
{
1000
OTHER
1070
     0
1002
}
1002
{
1000
REACTOR
1002
}
  0
ARC
  5
D158
330
1F
100
AcDbEntity
  8
AM_0
100
AcDbCircle
 10
303.7845333284204
 20
140.9301267523366
 30
0.0
 40
5.0
100
AcDbArc
 50
303.477201469763
 51
349.7379504394569
  0
CIRCLE
  5
D15C
330
1F
100
AcDbEntity
  8
AM_0
100
AcDbCircle
 10
303.9762706410544
 20
164.0890443343227
 30
0.0
 40
6.5
  0
ARC
  5
D16E
330
1F
100
AcDbEntity
  8
AM_0
100
AcDbCircle
 10
297.9762706410544
 20
191.0890443343228
 30
0.0
 40
5.0
100
AcDbArc
 50
56.25672004136603
 51
180.0
  0
LINE
  5
D16F
330
1F
100
AcDbEntity
  8
AM_7
 48
0.5
100
AcDbLine
 10
307.2262706410544
 20
187.0890443343228
 30
0.0
 11
294.7262706410544
 21
187.0890443343228
 31
0.0
1001
GENIUS_GENODEF_13
1002
{
1000
HIER
1070
     0
1002
}
1002
{
1000
MANEDIT
1070
     0
1002
}
1002
{
1000
NOSEL
1070
     0
1002
}
1002
{
1000
BEHIND
1070
     0
1002
}
1002
{
1000
OTHER
1070
     0
1002
}
1002
{
1000
REACTOR
1002
}
1001
GENIUS_GENOBJ-N-CEN_13
1002
{
1000
OWNER
1000
GEN
1002
}
  0
LINE
  5
D170
330
1F
100
AcDbEntity
  8
AM_7
 48
0.5
100
AcDbLine
 10
300.9762706410544
 20
180.8390443343228
 30
0.0
 11
300.9762706410544
 21
193.3390443343228
 31
0.0
1001
GENIUS_GENODEF_13
1002
{
1000
HIER
1070
     0
1002
}
1002
{
1000
MANEDIT
1070
     0
1002
}
1002
{
1000
NOSEL
1070
     0
1002
}
1002
{
1000
BEHIND
1070
     0
1002
}
1002
{
1000
OTHER
1070
     0
1002
}
1002
{
1000
REACTOR
1002
}
1001
GENIUS_GENOBJ-N-CEN_13
1002
{
1000
OWNER
1000
GEN
1002
}
  0
CIRCLE
  5
D17A
330
1F
100
AcDbEntity
  8
AM_0
100
AcDbCircle
 10
300.9762706410544
 20
187.0890443343228
 30
0.0
 40
2.25
  0
LINE
  5
D17C
330
1F
100
AcDbEntity
  8
AM_0
100
AcDbLine
 10
306.5032560416735
 20
191.4059190247179
 30
0.0
 11
300.7536341847983
 21
195.2467181726467
 31
0.0
  0
ARC
  5
D17E
330
1F
100
AcDbEntity
  8
AM_0
100
AcDbCircle
 10
303.7258924979296
 20
187.2482451863941
 30
0.0
 40
5.0
100
AcDbArc
 50
10.39697012214158
 51
15.03769151417796
  0
ARC
  5
D182
330
1F
100
AcDbEntity
  8
AM_0
100
AcDbCircle
 10
307.9762639945343
 20
164.0828928197362
 30
0.0
 40
5.0
100
AcDbArc
 50
349.7379504394569
 51
10.39697012214158
  0
LINE
  5
D1A8
330
1F
100
AcDbEntity
  8
AM_0
100
AcDbLine
 10
307.0544484737316
 20
155.6318202459762
 30
0.0
 11
303.9502102110774
 21
154.5019699183
 31
0.0
  0
LINE
  5
D1A9
330
1F
100
AcDbEntity
  8
AM_0
100
AcDbLine
 10
310.340224524062
 20
170.4529982173305
 30
0.0
 11
304.2203745861331
 21
176.5728481552596
 31
0.0
  0
ARC
  5
D1B5
330
1F
100
AcDbEntity
  8
AM_0
100
AcDbCircle
 10
303.9762706410544
 20
164.0890443343228
 30
0.0
 40
8.999989891666311
100
AcDbArc
 50
289.9999999999998
 51
49.99999999999997
  0
LINE
  5
D1BD
330
1F
100
AcDbEntity
  8
AM_0
100
AcDbLine
 10
301.9762706410543
 20
148.0165303906223
 30
0.0
 11
301.9762706410544
 21
151.6828920559423
 31
0.0
  0
ARC
  5
D1C4
330
1F
100
AcDbEntity
  8
AM_0
100
AcDbCircle
 10
305.9873267590842
 20
163.2648588784297
 30
0.0
 40
18.39037270247945
100
AcDbArc
 50
98.29437505541491
 51
248.485104421463
  0
ARC
  5
D1C5
330
1F
100
AcDbEntity
  8
AM_0
100
AcDbCircle
 10
305.9873267590842
 20
163.2648588784297
 30
0.0
 40
16.39037270247945
100
AcDbArc
 50
98.29437505541491
 51
250.9982640909946
  0
ARC
  5
D1C9
330
1F
100
AcDbEntity
  8
AM_0
100
AcDbCircle
 10
304.9762706410544
 20
151.6828920559422
 30
0.0
 40
3.0
100
AcDbArc
 50
109.9999999999998
 51
179.9999999999989
1001
GENIUS_GENOBJ-N-FIL_13
1002
{
1000
OWNER
1000
GEN
1002
}
1001
GENIUS_GENODEF_13
1002
{
1000
HIER
1070
     0
1002
}
1002
{
1000
MANEDIT
1070
     0
1002
}
1002
{
1000
NOSEL
1070
     0
1002
}
1002
{
1000
BEHIND
1070
     0
1002
}
1002
{
1000
OTHER
1070
     0
1002
}
1002
{
1000
REACTOR
1002
}
  0
ARC
  5
D1CA
330
1F
100
AcDbEntity
  8
AM_0
100
AcDbCircle
 10
299.9762706410543
 20
148.0165303906223
 30
0.0
 40
2.0
100
AcDbArc
 50
248.4851044214628
 51
359.9999999999992
  0
ARC
  5
D1CC
330
1F
100
AcDbEntity
  8
AM_0
100
AcDbCircle
 10
300.9762706410543
 20
148.7131274177691
 30
0.0
 40
1.0
100
AcDbArc
 50
250.9982640909945
 51
359.9999999999992
  0
ARC
  5
D1CF
330
1F
100
AcDbEntity
  8
AM_2
100
AcDbCircle
 10
309.2714559926745
 20
163.6955785541813
 30
0.0
 40
16.66414028293913
100
AcDbArc
 50
107.9205967120219
 51
244.0378385737566
  0
LINE
  5
D1D2
330
1F
100
AcDbEntity
  8
AM_0
100
AcDbLine
 10
292.9762706410544
 20
176.2617133759448
 30
0.0
 11
292.9762706410544
 21
191.0890443343228
 31
0.0
  0
DIMENSION
  5
D1DC
330
1F
100
AcDbEntity
  8
AM_5
100
AcDbDimension
  2
*D12
 10
278.5969530466047
 20
141.0890443343228
 30
0.0
 11
275.4969530466046
 21
164.0890443343229
 31
0.0
 70
    32
 71
     5
 42
46.0
  3
SYS$0
100
AcDbAlignedDimension
 13
294.7262706410544
 23
187.0890443343228
 33
0.0
 14
294.7262706410544
 24
141.0890443343228
 34
0.0
 50
90.0
100
AcDbRotatedDimension
  0
DIMENSION
  5
D1F2
330
1F
100
AcDbEntity
  8
AM_5
100
AcDbDimension
  2
*D13
 10
268.5969530466047
 20
196.0890443343228
 30
0.0
 11
265.4969530466046
 21
164.0890443343229
 31
0.0
 70
    32
 71
     5
 42
64.0
  3
SYS$0
100
AcDbAlignedDimension
 13
297.9762706410544
 23
132.0890443343228
 33
0.0
 14
297.9762706410544
 24
196.0890443343228
 34
0.0
 50
90.0
100
AcDbRotatedDimension
  0
DIMENSION
  5
D208
330
1F
100
AcDbEntity
  8
AM_5
100
AcDbDimension
  2
*D14
 10
312.9762187710925
 20
219.0890443343228
 30
0.0
 11
302.9762447060734
 21
222.1890443343228
 31
0.0
 70
    32
 71
     5
 42
19.99994813003809
  3
SYS$0
100
AcDbAlignedDimension
 13
292.9762706410544
 23
191.0890443343228
 33
0.0
 14
312.9762187710925
 24
164.061627063858
 34
0.0
100
AcDbRotatedDimension
  0
DIMENSION
  5
D21E
330
1F
100
AcDbEntity
  8
AM_5
100
AcDbDimension
  2
*D15
 10
303.9762706410544
 20
209.0890443343231
 30
0.0
 11
308.4762655868876
 21
212.1890443343231
 31
0.0
 70
    32
 71
     5
 42
8.999989891666359
  3
SYS$0
100
AcDbAlignedDimension
 13
312.9762605327207
 23
164.0890443343228
 33
0.0
 14
303.9762706410544
 24
176.0890443343228
 34
0.0
100
AcDbRotatedDimension
  0
DIMENSION
  5
D246
330
1F
100
AcDbEntity
  8
AM_5
100
AcDbDimension
  2
*D16
 10
300.9762706410544
 20
209.0890443343228
 30
0.0
 11
296.7296039743877
 21
212.1890443343228
 31
0.0
 70
    32
 71
     5
 42
3.0
  3
SYS$0
100
AcDbAlignedDimension
 13
303.9762706410544
 23
173.5890443343227
 33
0.0
 14
300.9762706410544
 24
193.3390443343228
 34
0.0
100
AcDbRotatedDimension
  0
LINE
  5
D260
330
1F
100
AcDbEntity
  8
AM_7
100
AcDbLine
 10
303.9762706410544
 20
173.5890443343227
 30
0.0
 11
303.9762706410544
 21
154.5890443343227
 31
0.0
1001
GENIUS_GENODEF_13
1002
{
1000
HIER
1070
     0
1002
}
1002
{
1000
MANEDIT
1070
     0
1002
}
1002
{
1000
NOSEL
1070
     0
1002
}
1002
{
1000
BEHIND
1070
     0
1002
}
1002
{
1000
OTHER
1070
     0
1002
}
1002
{
1000
REACTOR
1002
}
1001
GENIUS_GENOBJ-N-CEN_13
1002
{
1000
OWNER
1000
GEN
1002
}
1001
GENIUS_GENCEN_19
1002
{
1040
3.0
1002
}
  0
LINE
  5
D26C
330
1F
100
AcDbEntity
  8
AM_7
100
AcDbLine
 10
294.4762706410544
 20
164.0890443343227
 30
0.0
 11
313.4762706410544
 21
164.0890443343227
 31
0.0
1001
GENIUS_GENODEF_13
1002
{
1000
HIER
1070
     0
1002
}
1002
{
1000
MANEDIT
1070
     0
1002
}
1002
{
1000
NOSEL
1070
     0
1002
}
1002
{
1000
BEHIND
1070
     0
1002
}
1002
{
1000
OTHER
1070
     0
1002
}
1002
{
1000
REACTOR
1002
}
1001
GENIUS_GENOBJ-N-CEN_13
1002
{
1000
OWNER
1000
GEN
1002
}
1001
GENIUS_GENCEN_19
1002
{
1040
3.0
1002
}
  0
CIRCLE
  5
D26D
330
1F
100
AcDbEntity
  8
AM_0
100
AcDbCircle
 10
300.9762706410544
 20
141.0890443343228
 30
0.0
 40
4.5
  0
CIRCLE
  5
D26E
330
1F
100
AcDbEntity
  8
AM_0
100
AcDbCircle
 10
300.9762706410544
 20
187.0890443343228
 30
0.0
 40
4.5
  0
DIMENSION
  5
D26F
330
1F
100
AcDbEntity
  8
AM_5
100
AcDbDimension
  2
*D17
 10
298.0345645583132
 20
144.4943879767123
 30
0.0
 11
329.8900538608809
 21
124.0890443343228
 31
0.0
 70
   163
  1
2-%%c4.5×<>サラ\P
 71
     5
 42
8.999999999999857
  3
SYS$3
100
AcDbDiametricDimension
 15
303.9179767237956
 25
137.6837006919332
 35
0.0
 40
0.0
1001
ACAD
1000
DSTYLE
1002
{
1070
   172
1070
     1
1070
   342
1005
B502
1002
}
  0
ARC
  5
D5FE
330
1F
100
AcDbEntity
  8
AM_0
100
AcDbCircle
 10
302.9015718113045
 20
184.4314873476317
 30
0.0
 40
3.0
100
AcDbArc
 50
278.2943750554147
 51
351.6999999999996
  0
ARC
  5
D5FF
330
1F
100
AcDbEntity
  8
AM_0
100
AcDbCircle
 10
302.9015718113045
 20
184.4314873476317
 30
0.0
 40
5.0
100
AcDbArc
 50
278.2943750554152
 51
351.6999999999998
  0
ARC
  5
D601
330
1F
100
AcDbEntity
  8
AM_0
100
AcDbCircle
 10
305.6345881485062
 20
177.9870617176326
 30
0.0
 40
2.0
100
AcDbArc
 50
112.9813142423774
 51
224.9999999999988
  0
ARC
  5
D602
330
1F
100
AcDbEntity
  8
AM_0
100
AcDbCircle
 10
303.7258924979296
 20
187.2482451863941
 30
0.0
 40
5.0
100
AcDbArc
 50
50.48935113057319
 51
56.25672004136603
  0
CIRCLE
  5
DC6E
102
{ACAD_REACTORS
330
DF85
102
}
330
1F
100
AcDbEntity
  8
AM_0
100
AcDbCircle
 10
170.0435114784125
 20
141.5890443343227
 30
0.0
 40
4.0
  0
CIRCLE
  5
DC6F
330
1F
100
AcDbEntity
  8
AM_0
100
AcDbCircle
 10
170.0435114784125
 20
186.5890443343227
 30
0.0
 40
4.0
  0
CIRCLE
  5
DC70
330
1F
100
AcDbEntity
  8
AM_0
100
AcDbCircle
 10
170.0435114784125
 20
141.5890443343227
 30
0.0
 40
2.25
  0
CIRCLE
  5
DC71
330
1F
100
AcDbEntity
  8
AM_0
100
AcDbCircle
 10
170.0435114784125
 20
186.5890443343227
 30
0.0
 40
2.25
  0
LINE
  5
DC72
330
1F
100
AcDbEntity
  8
AM_0
100
AcDbLine
 10
163.2935114784125
 20
139.8390443343227
 30
0.0
 11
163.2935114784125
 21
188.3390443343227
 31
0.0
  0
LINE
  5
DC73
330
1F
100
AcDbEntity
  8
AM_0
100
AcDbLine
 10
176.7935114784125
 20
148.7268059275201
 30
0.0
 11
176.7935114784125
 21
139.8390443343227
 31
0.0
  0
LINE
  5
DC74
330
1F
100
AcDbEntity
  8
AM_0
100
AcDbLine
 10
173.0905499985076
 20
170.4304822578244
 30
0.0
 11
169.2024748019004
 21
173.1734271585123
 31
0.0
  0
LINE
  5
DC75
330
1F
100
AcDbEntity
  8
AM_0
100
AcDbLine
 10
181.2935114784125
 20
159.8390443343229
 30
0.0
 11
181.2935114784125
 21
168.3390443343225
 31
0.0
  0
ARC
  5
DC76
102
{ACAD_REACTORS
330
DC83
102
}
330
1F
100
AcDbEntity
  8
AM_0
100
AcDbCircle
 10
170.0435114784125
 20
139.8390443343227
 30
0.0
 40
6.75
100
AcDbArc
 50
180.0
 51
0.0
  0
ARC
  5
DC77
102
{ACAD_REACTORS
330
DC83
102
}
330
1F
100
AcDbEntity
  8
AM_0
100
AcDbCircle
 10
170.0435114784125
 20
188.3390443343227
 30
0.0
 40
6.75
100
AcDbArc
 50
0.0
 51
180.0
  0
LINE
  5
DC7B
330
1F
100
AcDbEntity
  8
AM_7
100
AcDbLine
 10
170.0435114784125
 20
199.0890443343227
 30
0.0
 11
170.0435114784125
 21
129.0890443343227
 31
0.0
1001
GENIUS_GENOBJ-N-CEN_13
1002
{
1000
OWNER
1000
GEN
1002
}
1001
GENIUS_GENODEF_13
1002
{
1000
HIER
1070
     0
1002
}
1002
{
1000
MANEDIT
1070
     0
1002
}
1002
{
1000
NOSEL
1070
     0
1002
}
1002
{
1000
BEHIND
1070
     0
1002
}
1002
{
1000
OTHER
1070
     0
1002
}
1002
{
1000
REACTOR
1002
}
1001
GENIUS_GENCEN_19
1002
{
1040
4.0
1002
}
  0
LINE
  5
DC7C
102
{ACAD_REACTORS
330
DC80
102
}
330
1F
100
AcDbEntity
  8
AM_7
 48
0.5
100
AcDbLine
 10
161.7935114784125
 20
141.5890443343227
 30
0.0
 11
178.2935114784125
 21
141.5890443343227
 31
0.0
1001
GENIUS_GENODEF_13
1002
{
1000
HIER
1070
     0
1002
}
1002
{
1000
MANEDIT
1070
     0
1002
}
1002
{
1000
NOSEL
1070
     0
1002
}
1002
{
1000
BEHIND
1070
     0
1002
}
1002
{
1000
OTHER
1070
     0
1002
}
1002
{
1000
REACTOR
1002
}
1001
GENIUS_GENOBJ-N-CEN_13
1002
{
1000
OWNER
1000
GEN
1002
}
1001
GENIUS_GENCEN_19
1002
{
1040
4.0
1002
}
  0
LINE
  5
DC7D
102
{ACAD_REACTORS
330
DC80
102
}
330
1F
100
AcDbEntity
  8
AM_7
 48
0.5
100
AcDbLine
 10
161.7935114784125
 20
186.5890443343227
 30
0.0
 11
178.2935114784125
 21
186.5890443343227
 31
0.0
1001
GENIUS_GENODEF_13
1002
{
1000
HIER
1070
     0
1002
}
1002
{
1000
MANEDIT
1070
     0
1002
}
1002
{
1000
NOSEL
1070
     0
1002
}
1002
{
1000
BEHIND
1070
     0
1002
}
1002
{
1000
OTHER
1070
     0
1002
}
1002
{
1000
REACTOR
1002
}
1001
GENIUS_GENOBJ-N-CEN_13
1002
{
1000
OWNER
1000
GEN
1002
}
1001
GENIUS_GENCEN_19
1002
{
1040
4.0
1002
}
  0
DIMENSION
  5
DC7E
102
{ACAD_XDICTIONARY
360
DC7F
102
}
102
{ACAD_REACTORS
330
DC80
102
}
330
1F
100
AcDbEntity
  8
AM_5
100
AcDbDimension
  2
*D20
 10
153.0435114784125
 20
186.5890443343227
 30
0.0
 11
149.9435114784125
 21
164.0890443343227
 31
0.0
 70
    32
  1
<>
 71
     5
 42
45.0
  3
SYS$0
100
AcDbAlignedDimension
 13
161.7935114784125
 23
141.5890443343227
 33
0.0
 14
161.7935114784125
 24
186.5890443343227
 34
0.0
 50
90.0
100
AcDbRotatedDimension
1001
ACAD
1000
DSTYLE
1002
{
1070
   286
1070
     0
1070
   284
1070
     8
1070
   274
1070
     2
1070
   272
1070
     2
1070
    47
1040
0.3
1070
    48
1040
0.3
1002
}
1001
ACAD_DSTYLE_DIMINSPECT
1070
   396
1000
100%
1070
   395
1000

1070
   394
1070
    33
1070
   393
1070
     0
  0
DIMENSION
  5
DC81
102
{ACAD_XDICTIONARY
360
DC82
102
}
102
{ACAD_REACTORS
330
DC83
102
}
330
1F
100
AcDbEntity
  8
AM_5
100
AcDbDimension
  2
*D21
 10
143.0435114784125
 20
195.0890443343227
 30
0.0
 11
139.9435114784125
 21
164.0890443343227
 31
0.0
 70
    32
  1
<>
 71
     5
 42
62.0
  3
SYS$0
100
AcDbAlignedDimension
 13
170.0435114784125
 23
133.0890443343227
 33
0.0
 14
170.0435114784125
 24
195.0890443343227
 34
0.0
 50
90.0
100
AcDbRotatedDimension
1001
ACAD
1000
DSTYLE
1002
{
1070
   286
1070
     0
1070
   284
1070
     8
1070
   274
1070
     2
1070
   272
1070
     2
1070
    47
1040
0.2
1070
    48
1040
0.2
1002
}
1001
ACAD_DSTYLE_DIMINSPECT
1070
   396
1000
100%
1070
   395
1000

1070
   394
1070
    33
1070
   393
1070
     0
  0
LINE
  5
DC84
330
1F
100
AcDbEntity
  8
AM_0
100
AcDbLine
 10
174.9360055783883
 20
150.7217233271816
 30
0.0
 11
169.6516690170562
 21
151.0657286187048
 31
0.0
  0
ARC
  5
DC85
330
1F
100
AcDbEntity
  8
AM_0
100
AcDbCircle
 10
174.7935114784125
 20
148.7268059275201
 30
0.0
 40
2.0
100
AcDbArc
 50
0.0
 51
85.9143832200255
  0
LINE
  5
DC86
330
1F
100
AcDbEntity
  8
AM_0
100
AcDbLine
 10
169.2010323202492
 20
176.7422474912159
 30
0.0
 11
168.3691969559579
 21
173.6228648751179
 31
0.0
  0
LINE
  5
DC87
330
1F
100
AcDbEntity
  8
AM_7
 48
0.5
100
AcDbLine
 10
159.0435114784125
 20
164.0890443343227
 30
0.0
 11
184.2935114784125
 21
164.0890443343227
 31
0.0
1001
GENIUS_GENODEF_13
1002
{
1000
HIER
1070
     0
1002
}
1002
{
1000
MANEDIT
1070
     0
1002
}
1002
{
1000
NOSEL
1070
     0
1002
}
1002
{
1000
BEHIND
1070
     0
1002
}
1002
{
1000
OTHER
1070
     0
1002
}
1002
{
1000
REACTOR
1002
}
1001
GENIUS_GENOBJ-N-CEN_13
1002
{
1000
OWNER
1000
GEN
1002
}
1001
GENIUS_GENCEN_19
1002
{
1040
4.0
1002
}
  0
LINE
  5
DC88
330
1F
100
AcDbEntity
  8
AM_2
100
AcDbLine
 10
175.0435114784125
 20
157.8390443343227
 30
0.0
 11
175.0435114784125
 21
170.3390443343227
 31
0.0
  0
LINE
  5
DC89
330
1F
100
AcDbEntity
  8
AM_0
100
AcDbLine
 10
238.2634960906988
 20
133.0890443343227
 30
0.0
 11
238.2634960906988
 21
195.0890443343227
 31
0.0
  0
ARC
  5
DC8A
330
1F
100
AcDbEntity
  8
AM_0
100
AcDbCircle
 10
237.7634960906987
 20
150.8686365287546
 30
0.0
 40
0.5
100
AcDbArc
 50
0.0
 51
47.57726817906147
  0
ARC
  5
DC8B
330
1F
100
AcDbEntity
  8
AM_0
100
AcDbCircle
 10
237.7634960906988
 20
177.3094521398906
 30
0.0
 40
0.5
100
AcDbArc
 50
312.4227318209382
 51
0.0
  0
LINE
  5
DC8C
330
1F
100
AcDbEntity
  8
AM_0
100
AcDbLine
 10
238.2634960906988
 20
150.7217233271816
 30
0.0
 11
236.2634960906988
 21
150.7217233271816
 31
0.0
  0
LINE
  5
DC8D
330
1F
100
AcDbEntity
  8
AM_0
100
AcDbLine
 10
236.2634960906988
 20
150.8770850433626
 30
0.0
 11
236.2634960906988
 21
133.0890443343227
 31
0.0
  0
ARC
  5
DC8E
330
1F
100
AcDbEntity
  8
AM_0
100
AcDbCircle
 10
235.7634960906988
 20
150.8770850433626
 30
0.0
 40
0.5
100
AcDbArc
 50
0.0
 51
45.94598064265541
  0
LINE
  5
DC8F
330
1F
100
AcDbEntity
  8
AM_0
100
AcDbLine
 10
236.2634960906988
 20
133.0890443343227
 30
0.0
 11
238.2634960906988
 21
133.0890443343227
 31
0.0
  0
LINE
  5
DC90
330
1F
100
AcDbEntity
  8
AM_0
100
AcDbLine
 10
236.2634960906988
 20
177.4563653414638
 30
0.0
 11
238.2634960906988
 21
177.4563653414638
 31
0.0
  0
LINE
  5
DC91
330
1F
100
AcDbEntity
  8
AM_0
100
AcDbLine
 10
238.2634960906988
 20
195.0890443343227
 30
0.0
 11
236.2634960906988
 21
195.0890443343227
 31
0.0
  0
LINE
  5
DC92
330
1F
100
AcDbEntity
  8
AM_0
100
AcDbLine
 10
236.2634960906988
 20
195.0890443343227
 30
0.0
 11
236.2634960906988
 21
177.2961511155093
 31
0.0
  0
ARC
  5
DC93
330
1F
100
AcDbEntity
  8
AM_0
100
AcDbCircle
 10
235.7634960906988
 20
177.2961511155093
 30
0.0
 40
0.5
100
AcDbArc
 50
314.9999999999993
 51
0.0
  0
LINE
  5
DC94
330
1F
100
AcDbEntity
  8
AM_0
100
AcDbLine
 10
217.323076232244
 20
157.8390443343227
 30
0.0
 11
232.2432936635391
 21
154.8677774654108
 31
0.0
  0
LINE
  5
DC95
330
1F
100
AcDbEntity
  8
AM_0
100
AcDbLine
 10
213.7634960906988
 20
157.8390443343227
 30
0.0
 11
213.7634960906988
 21
170.3390443343227
 31
0.0
  0
LINE
  5
DC96
330
1F
100
AcDbEntity
  8
AM_0
100
AcDbLine
 10
217.323076232244
 20
170.3390443343227
 30
0.0
 11
232.3643309491777
 21
173.3095852786327
 31
0.0
  0
LINE
  5
DC97
330
1F
100
AcDbEntity
  8
AM_0
100
AcDbLine
 10
213.7634960906988
 20
157.8390443343227
 30
0.0
 11
218.0997500369029
 21
157.8390443343227
 31
0.0
  0
ARC
  5
DC98
330
1F
100
AcDbEntity
  8
AM_0
100
AcDbCircle
 10
218.0997500369029
 20
157.3390443343227
 30
0.0
 40
0.5
100
AcDbArc
 50
81.58135891265821
 51
90.0
  0
LINE
  5
DC99
330
1F
100
AcDbEntity
  8
AM_0
100
AcDbLine
 10
213.7634960906988
 20
170.3390443343227
 30
0.0
 11
218.0997500369017
 21
170.3390443343225
 31
0.0
  0
ARC
  5
DC9A
330
1F
100
AcDbEntity
  8
AM_0
100
AcDbCircle
 10
218.0997500369017
 20
170.8390443343225
 30
0.0
 40
0.5
100
AcDbArc
 50
270.0
 51
278.4186410873418
  0
LINE
  5
DC9B
330
1F
100
AcDbEntity
  8
AM_0
100
AcDbLine
 10
217.6950158311107
 20
168.3390443343216
 30
0.0
 11
217.6950158311107
 21
159.8390443343229
 31
0.0
  0
LINE
  5
DC9C
330
1F
100
AcDbEntity
  8
AM_0
100
AcDbLine
 10
215.8679249158255
 20
159.8390443343225
 30
0.0
 11
215.8679249158255
 21
168.339044334322
 31
0.0
  0
LINE
  5
DC9D
102
{ACAD_REACTORS
330
DCC1
102
}
330
1F
100
AcDbEntity
  8
AM_0
100
AcDbLine
 10
171.5954131941852
 20
157.8390443343225
 30
0.0
 11
179.4141252008251
 21
157.8390443343227
 31
0.0
  0
LINE
  5
DC9E
102
{ACAD_REACTORS
330
DCC1
102
}
330
1F
100
AcDbEntity
  8
AM_0
100
AcDbLine
 10
171.5954131941849
 20
170.3390443343229
 30
0.0
 11
179.4141252008251
 21
170.3390443343227
 31
0.0
  0
ARC
  5
DC9F
330
1F
100
AcDbEntity
  8
AM_0
100
AcDbCircle
 10
173.3787808602264
 20
170.8390443343229
 30
0.0
 40
0.5
100
AcDbArc
 50
234.7979380233129
 51
270.0
  0
ARC
  5
DCA0
330
1F
100
AcDbEntity
  8
AM_0
100
AcDbCircle
 10
171.5954131941852
 20
170.8390443343229
 30
0.0
 40
0.5
100
AcDbArc
 50
225.9351194869094
 51
269.9999999999968
  0
LINE
  5
DCA1
330
1F
100
AcDbEntity
  8
AM_0
100
AcDbLine
 10
218.1729524763751
 20
170.3444319579559
 30
0.0
 11
233.1880546568847
 21
172.5666612451181
 31
0.0
  0
LINE
  5
DCA2
330
1F
100
AcDbEntity
  8
AM_0
100
AcDbLine
 10
218.1729524763762
 20
157.8336567106895
 30
0.0
 11
233.1880546568846
 21
155.6114274235273
 31
0.0
  0
LINE
  5
DCA3
330
1F
100
AcDbEntity
  8
AM_0
100
AcDbLine
 10
171.2476769492407
 20
170.4797679727959
 30
0.0
 11
168.5045781808143
 21
173.134757188311
 31
0.0
  0
ARC
  5
DCA4
330
1F
100
AcDbEntity
  8
AM_0
100
AcDbCircle
 10
171.595413194185
 20
170.8390443343229
 30
0.0
 40
0.5
100
AcDbArc
 50
225.9351194869094
 51
269.9999999999968
  0
ARC
  5
DCA5
330
1F
100
AcDbEntity
  8
AM_0
100
AcDbCircle
 10
168.8523144257585
 20
173.4940335498381
 30
0.0
 40
0.5
100
AcDbArc
 50
165.0685828218985
 51
225.9351194869094
  0
LINE
  5
DCA6
330
1F
100
AcDbEntity
  8
AM_0
100
AcDbLine
 10
168.9925820360723
 20
173.6252656914206
 30
0.0
 11
169.2563469325692
 21
176.6612704376925
 31
0.0
  0
ARC
  5
DCA7
330
1F
100
AcDbEntity
  8
AM_0
100
AcDbCircle
 10
169.4907056636193
 20
173.5819892350108
 30
0.0
 40
0.5
100
AcDbArc
 50
175.0346706306886
 51
234.7979380233129
  0
LINE
  5
DCA8
330
1F
100
AcDbEntity
  8
AM_2
100
AcDbLine
 10
168.3705035164732
 20
173.3603987950263
 30
0.0
 11
169.0549036430889
 21
173.3603987950263
 31
0.0
  0
LINE
  5
DCA9
330
1F
100
AcDbEntity
  8
AM_0
100
AcDbLine
 10
236.1111642239165
 20
151.2364273163352
 30
0.0
 11
232.4933075306366
 21
154.7367488131555
 31
0.0
  0
ARC
  5
DCAA
330
1F
100
AcDbEntity
  8
AM_0
100
AcDbCircle
 10
232.1456393974189
 20
154.3774065401832
 30
0.0
 40
0.5
100
AcDbArc
 50
45.94598064265541
 51
78.73725225397824
  0
LINE
  5
DCAB
330
1F
100
AcDbEntity
  8
AM_0
100
AcDbLine
 10
236.1170494812921
 20
176.942597724916
 30
0.0
 11
232.6210090559799
 21
173.4465572996038
 31
0.0
  0
ARC
  5
DCAC
330
1F
100
AcDbEntity
  8
AM_0
100
AcDbCircle
 10
232.2674556653866
 20
173.8001106901969
 30
0.0
 40
0.5
100
AcDbArc
 50
281.1717444692915
 51
314.9999999999993
  0
LINE
  5
DCAD
330
1F
100
AcDbEntity
  8
AM_0
100
AcDbLine
 10
238.1007937472283
 20
151.2377304069206
 30
0.0
 11
233.4521498739408
 21
155.4859089253265
 31
0.0
  0
ARC
  5
DCAE
330
1F
100
AcDbEntity
  8
AM_0
100
AcDbCircle
 10
233.1148522174113
 20
155.1168150471605
 30
0.0
 40
0.5
100
AcDbArc
 50
47.57726817906147
 51
81.58135891265821
  0
LINE
  5
DCAF
330
1F
100
AcDbEntity
  8
AM_0
100
AcDbLine
 10
238.1007937472283
 20
176.9403582617246
 30
0.0
 11
233.4521498739409
 21
172.6921797433189
 31
0.0
  0
ARC
  5
DCB0
330
1F
100
AcDbEntity
  8
AM_0
100
AcDbCircle
 10
233.1148522174114
 20
173.0612736214849
 30
0.0
 40
0.5
100
AcDbArc
 50
278.4186410873418
 51
312.4227318209382
  0
LINE
  5
DCB1
330
1F
100
AcDbEntity
  8
AM_0
100
AcDbLine
 10
176.7935114784125
 20
179.4512827411253
 30
0.0
 11
176.7935114784126
 21
188.3390443343227
 31
0.0
  0
ARC
  5
DCB2
330
1F
100
AcDbEntity
  8
AM_0
100
AcDbCircle
 10
174.7935114784125
 20
179.4512827411253
 30
0.0
 40
2.0
100
AcDbArc
 50
274.0856167799746
 51
0.0
  0
LINE
  5
DCB3
330
1F
100
AcDbEntity
  8
AM_0
100
AcDbLine
 10
174.9360055783883
 20
177.4563653414638
 30
0.0
 11
169.6516690170562
 21
177.1123600499408
 31
0.0
  0
ARC
  5
DCB4
330
1F
100
AcDbEntity
  8
AM_0
100
AcDbCircle
 10
169.7544705601162
 20
176.6179939812822
 30
0.0
 40
0.5
100
AcDbArc
 50
93.7246452234495
 51
175.0346706306886
  0
ARC
  5
DCB5
330
1F
100
AcDbEntity
  8
AM_0
100
AcDbCircle
 10
169.6841497900499
 20
176.613416165936
 30
0.0
 40
0.5
100
AcDbArc
 50
93.7246452234495
 51
165.0685828218985
  0
LINE
  5
DCB9
330
1F
100
AcDbEntity
  8
AM_2
100
AcDbLine
 10
232.3777388088054
 20
154.8202720538935
 30
0.0
 11
233.3294538625482
 21
155.5702720538935
 31
0.0
  0
LINE
  5
DCBA
330
1F
100
AcDbEntity
  8
AM_2
100
AcDbLine
 10
232.5028528431716
 20
173.3589892004792
 30
0.0
 11
233.3286488957248
 21
172.6089892004792
 31
0.0
  0
LINE
  5
DCBB
330
1F
100
AcDbEntity
  8
AM_2
100
AcDbLine
 10
236.223840563137
 20
151.0722336193136
 30
0.0
 11
238.223840563137
 21
151.0722336193136
 31
0.0
  0
LINE
  5
DCBC
330
1F
100
AcDbEntity
  8
AM_2
100
AcDbLine
 10
236.2254358569544
 20
177.1048093993267
 30
0.0
 11
238.2254358569544
 21
177.1048093993267
 31
0.0
  0
DIMENSION
  5
DCBF
102
{ACAD_XDICTIONARY
360
DCC0
102
}
102
{ACAD_REACTORS
330
DCC1
102
}
330
1F
100
AcDbEntity
  8
AM_5
100
AcDbDimension
  2
*D22
 10
191.0435114784126
 20
170.3390443343227
 30
0.0
 11
187.9435114784125
 21
164.0890443343227
 31
0.0
 70
    32
  1
<>
 71
     5
 42
12.5
  3
SYS$0
100
AcDbAlignedDimension
 13
179.4141252008251
 23
157.8390443343227
 33
0.0
 14
179.4141252008251
 24
170.3390443343227
 34
0.0
 50
90.0
100
AcDbRotatedDimension
1001
ACAD
1000
DSTYLE
1002
{
1070
   286
1070
     0
1070
   284
1070
     8
1070
   274
1070
     2
1070
   272
1070
     2
1070
    47
1040
0.2
1070
    48
1040
0.2
1002
}
1001
ACAD_DSTYLE_DIMINSPECT
1070
   396
1000
100%
1070
   395
1000

1070
   394
1070
    33
1070
   393
1070
     0
  0
DIMENSION
  5
DCC2
330
1F
100
AcDbEntity
  8
AM_5
100
AcDbDimension
  2
*D18
 10
201.0435114784126
 20
177.5890443343227
 30
0.0
 11
197.9435114784125
 21
164.0890443343227
 31
0.0
 70
    32
 71
     5
 42
27.0
  3
SYS$0
100
AcDbAlignedDimension
 13
177.0435114784125
 23
150.5890443343227
 33
0.0
 14
177.0435114784125
 24
177.5890443343227
 34
0.0
 50
90.0
100
AcDbRotatedDimension
1001
ACAD_DSTYLE_DIMINSPECT
1070
   396
1000
100%
1070
   395
1000

1070
   394
1070
    33
1070
   393
1070
     0
  0
ARC
  5
DCCA
330
1F
100
AcDbEntity
  8
AM_2
100
AcDbCircle
 10
172.3019082791634
 20
164.9339669571374
 30
0.0
 40
12.46342755702668
100
AcDbArc
 50
102.9890818328998
 51
136.2850183121143
  0
ARC
  5
DCCB
330
1F
100
AcDbEntity
  8
AM_2
100
AcDbCircle
 10
172.36947175952
 20
163.3646115261077
 30
0.0
 40
12.5955933769333
100
AcDbArc
 50
223.8987438914839
 51
256.819932847576
  0
LINE
  5
DCD4
330
1F
100
AcDbEntity
  8
AM_7
100
AcDbLine
 10
242.7634960906988
 20
164.0890443343227
 30
0.0
 11
209.7634960906988
 21
164.0890443343227
 31
0.0
1001
GENIUS_GENODEF_13
1002
{
1000
HIER
1070
     0
1002
}
1002
{
1000
MANEDIT
1070
     0
1002
}
1002
{
1000
NOSEL
1070
     0
1002
}
1002
{
1000
BEHIND
1070
     0
1002
}
1002
{
1000
OTHER
1070
     0
1002
}
1002
{
1000
REACTOR
1002
}
1001
GENIUS_GENOBJ-N-CEN_13
1002
{
1000
OWNER
1000
GEN
1002
}
1001
GENIUS_GENCEN_19
1002
{
1040
4.0
1002
}
  0
ELLIPSE
  5
DCD6
330
1F
100
AcDbEntity
  8
AM_0
100
AcDbEllipse
 10
179.4141252008251
 20
159.8390443343229
 30
0.0
 11
-0.0000000000004217
 21
-2.0
 31
0.0
210
0.0
220
0.0
230
1.0
 40
0.9396931387798302
 41
0.0000000000000275
 42
1.570796326794867
  0
ELLIPSE
  5
DCD7
330
1F
100
AcDbEntity
  8
AM_0
100
AcDbEllipse
 10
214.6679249158255
 20
159.8390443343225
 30
0.0
 11
-0.0000000000009439
 21
-2.0
 31
0.0
210
0.0
220
0.0
230
1.0
 40
0.6
 41
0.0000000000004545
 42
1.570796326795251
  0
LINE
  5
DCD8
330
1F
100
AcDbEntity
  8
AM_0
100
AcDbLine
 10
216.3449002281694
 20
157.8390443343227
 30
0.0
 11
216.7553226923445
 21
157.8390443343227
 31
0.0
  0
ELLIPSE
  5
DCD9
330
1F
100
AcDbEntity
  8
AM_0
100
AcDbEllipse
 10
216.4950158311107
 20
159.8390443343227
 30
0.0
 11
-0.0000000000011091
 21
-2.0
 31
0.0
210
0.0
220
0.0
230
1.0
 40
0.6
 41
0.0000000000005922
 42
1.570796326795083
  0
LINE
  5
DCDA
330
1F
100
AcDbEntity
  8
AM_0
100
AcDbLine
 10
216.3449002281694
 20
170.3390443343227
 30
0.0
 11
216.7553226923445
 21
170.3390443343227
 31
0.0
  0
ELLIPSE
  5
DCF0
330
1F
100
AcDbEntity
  8
AM_0
100
AcDbEllipse
 10
179.4141252008251
 20
168.3390443343225
 30
0.0
 11
-0.0000000000004214
 21
2.0
 31
0.0
210
0.0
220
0.0
230
-1.0
 40
0.9396931387798302
 41
0.0000000000000275
 42
1.570796326794924
  0
ELLIPSE
  5
DCF1
330
1F
100
AcDbEntity
  8
AM_0
100
AcDbEllipse
 10
214.6679249158257
 20
168.3390443343229
 30
0.0
 11
-0.0000000000008797
 21
2.0
 31
0.0
210
0.0
220
0.0
230
-1.0
 40
0.6
 41
0.0000000000004545
 42
1.570796326795251
  0
LINE
  5
DCF2
330
1F
100
AcDbEntity
  8
AM_0
100
AcDbLine
 10
216.3449002281697
 20
170.3390443343227
 30
0.0
 11
216.7553226923447
 21
170.3390443343227
 31
0.0
  0
ELLIPSE
  5
DCF3
330
1F
100
AcDbEntity
  8
AM_0
100
AcDbEllipse
 10
216.4950158311109
 20
168.3390443343227
 30
0.0
 11
-0.0000000000010449
 21
2.0
 31
0.0
210
0.0
220
0.0
230
-1.0
 40
0.6
 41
0.0000000000005922
 42
1.570796326795083
  0
LINE
  5
DD03
330
1F
100
AcDbEntity
  8
AM_0
100
AcDbLine
 10
173.0905499985076
 20
157.7476064108211
 30
0.0
 11
169.2024748019004
 21
155.0046615101331
 31
0.0
  0
LINE
  5
DD04
330
1F
100
AcDbEntity
  8
AM_0
100
AcDbLine
 10
169.2010323202492
 20
151.4358411774293
 30
0.0
 11
168.3691969559579
 21
154.5552237935273
 31
0.0
  0
ARC
  5
DD05
330
1F
100
AcDbEntity
  8
AM_0
100
AcDbCircle
 10
173.3787808602264
 20
157.3390443343225
 30
0.0
 40
0.5
100
AcDbArc
 50
90.0
 51
125.202061976687
  0
ARC
  5
DD06
330
1F
100
AcDbEntity
  8
AM_0
100
AcDbCircle
 10
171.5954131941852
 20
157.3390443343225
 30
0.0
 40
0.5
100
AcDbArc
 50
90.00000000000323
 51
134.0648805130904
  0
LINE
  5
DD07
330
1F
100
AcDbEntity
  8
AM_0
100
AcDbLine
 10
171.2476769492407
 20
157.6983206958495
 30
0.0
 11
168.5045781808143
 21
155.0433314803344
 31
0.0
  0
ARC
  5
DD08
330
1F
100
AcDbEntity
  8
AM_0
100
AcDbCircle
 10
171.595413194185
 20
157.3390443343225
 30
0.0
 40
0.5
100
AcDbArc
 50
90.00000000000323
 51
134.0648805130904
  0
ARC
  5
DD09
330
1F
100
AcDbEntity
  8
AM_0
100
AcDbCircle
 10
168.8523144257585
 20
154.6840551188074
 30
0.0
 40
0.5
100
AcDbArc
 50
134.0648805130904
 51
194.9314171781013
  0
LINE
  5
DD0A
330
1F
100
AcDbEntity
  8
AM_0
100
AcDbLine
 10
168.9925820360723
 20
154.5528229772245
 30
0.0
 11
169.2563469325692
 21
151.5168182309532
 31
0.0
  0
ARC
  5
DD0B
330
1F
100
AcDbEntity
  8
AM_0
100
AcDbCircle
 10
169.4907056636193
 20
154.5960994336348
 30
0.0
 40
0.5
100
AcDbArc
 50
125.202061976687
 51
184.9653293693114
  0
LINE
  5
DD0C
330
1F
100
AcDbEntity
  8
AM_2
100
AcDbLine
 10
168.3705035164732
 20
154.8176898736193
 30
0.0
 11
169.0549036430889
 21
154.8176898736193
 31
0.0
  0
ARC
  5
DD0D
330
1F
100
AcDbEntity
  8
AM_0
100
AcDbCircle
 10
169.7544705601162
 20
151.560094687363
 30
0.0
 40
0.5
100
AcDbArc
 50
184.9653293693114
 51
266.2753547765505
  0
ARC
  5
DD0E
330
1F
100
AcDbEntity
  8
AM_0
100
AcDbCircle
 10
169.6841497900499
 20
151.5646725027094
 30
0.0
 40
0.5
100
AcDbArc
 50
194.9314171781013
 51
266.2753547765505
  0
LINE
  5
DEC5
330
1F
100
AcDbEntity
  8
AM_0
100
AcDbLine
 10
176.7935114784125
 20
84.23894920649173
 30
0.0
 11
163.2935114784125
 21
84.23894920649173
 31
0.0
  0
LINE
  5
DEC6
330
1F
100
AcDbEntity
  8
AM_0
100
AcDbLine
 10
163.2935114784125
 20
84.23894920649173
 30
0.0
 11
163.2935114784125
 21
86.23894920649172
 31
0.0
  0
LINE
  5
DEC7
330
1F
100
AcDbEntity
  8
AM_0
100
AcDbLine
 10
163.2935114784125
 20
86.23894920649172
 30
0.0
 11
176.7935114784125
 21
86.23894920649172
 31
0.0
  0
LINE
  5
DEC8
102
{ACAD_REACTORS
330
DEE3
102
}
330
1F
100
AcDbEntity
  8
AM_0
100
AcDbLine
 10
176.7935114784125
 20
86.23894920649172
 30
0.0
 11
176.7935114784125
 21
84.23894920649173
 31
0.0
  0
LINE
  5
DEC9
330
1F
100
AcDbEntity
  8
AM_7
 48
0.4
100
AcDbLine
 10
170.0435114784125
 20
89.23894920649173
 30
0.0
 11
170.0435114784125
 21
81.23894920649172
 31
0.0
1001
GENIUS_GENOBJ-N-CEN_13
1002
{
1000
OWNER
1000
GEN
1002
}
1001
GENIUS_GENODEF_13
1002
{
1000
HIER
1070
     0
1002
}
1002
{
1000
MANEDIT
1070
     0
1002
}
1002
{
1000
NOSEL
1070
     0
1002
}
1002
{
1000
BEHIND
1070
     0
1002
}
1002
{
1000
OTHER
1070
     0
1002
}
1002
{
1000
REACTOR
1002
}
1001
GENIUS_GENCEN_19
1002
{
1040
4.0
1002
}
  0
DIMENSION
  5
DECA
330
1F
100
AcDbEntity
  8
AM_5
100
AcDbDimension
  2
*D24
 10
181.2935114784125
 20
116.7389492064917
 30
0.0
 11
172.2935114784125
 21
119.8389492064917
 31
0.0
 70
    32
 71
     5
 42
18.0
  3
SYS$0
100
AcDbAlignedDimension
 13
163.2935114784125
 23
85.73894920649172
 33
0.0
 14
181.2935114784125
 24
106.6345203813669
 34
0.0
 50
180.0
100
AcDbRotatedDimension
1001
ACAD_DSTYLE_DIMINSPECT
1070
   396
1000
100%
1070
   395
1000

1070
   394
1070
    33
1070
   393
1070
     0
  0
LINE
  5
DECB
330
1F
100
AcDbEntity
  8
AM_5
100
AcDbLine
 10
163.2935114784125
 20
86.73894920649173
 30
0.0
 11
163.2935114784125
 21
106.7389492064917
 31
0.0
  0
LINE
  5
DECD
330
1F
100
AcDbEntity
  8
AM_0
100
AcDbLine
 10
164.8567233784079
 20
89.93698342091608
 30
0.0
 11
169.8122387325568
 21
105.1793690649484
 31
0.0
  0
ARC
  5
DECE
330
1F
100
AcDbEntity
  8
AM_0
100
AcDbCircle
 10
174.1595205833949
 20
94.52682584034738
 30
0.0
 40
8.592185737772846
100
AcDbArc
 50
192.1652100250206
 51
212.7893523481387
  0
LINE
  5
DECF
330
1F
100
AcDbEntity
  8
AM_0
100
AcDbLine
 10
167.256983873368
 20
89.52656513804759
 30
0.0
 11
171.6393296478421
 21
104.3658957787973
 31
0.0
  0
LINE
  5
DED0
330
1F
100
AcDbEntity
  8
AM_0
100
AcDbLine
 10
177.8230445450406
 20
108.1796718115192
 30
0.0
 11
181.2935114784125
 21
106.6345203813672
 31
0.0
  0
LINE
  5
DED1
330
1F
100
AcDbEntity
  8
AM_0
100
AcDbLine
 10
177.0095712588889
 20
106.352580896234
 30
0.0
 11
180.480038192261
 21
104.807429466082
 31
0.0
  0
ARC
  5
DED2
330
1F
100
AcDbEntity
  8
AM_0
100
AcDbCircle
 10
175.2935114784125
 20
102.7389492064938
 30
0.0
 40
6.0
100
AcDbArc
 50
65.06506141611342
 51
156.0000000000021
  0
ARC
  5
DED3
330
1F
100
AcDbEntity
  8
AM_0
100
AcDbCircle
 10
175.2935114784125
 20
102.7389492064938
 30
0.0
 40
4.0
100
AcDbArc
 50
65.06506141611342
 51
156.0000000000021
  0
LINE
  5
DED4
102
{ACAD_REACTORS
330
DEE6
102
}
330
1F
100
AcDbEntity
  8
AM_0
100
AcDbLine
 10
180.480038192261
 20
104.807429466082
 30
0.0
 11
181.2935114784128
 21
106.6345203813672
 31
0.0
  0
LINE
  5
DED5
330
1F
100
AcDbEntity
  8
AM_2
100
AcDbLine
 10
169.8122387325571
 20
105.1793690649486
 30
0.0
 11
171.6393296478421
 21
104.3658957787973
 31
0.0
  0
LINE
  5
DED6
330
1F
100
AcDbEntity
  8
AM_0
100
AcDbLine
 10
170.2935114784125
 20
86.23894920649172
 30
0.0
 11
166.9363513574217
 21
89.87371053064981
 31
0.0
  0
LINE
  5
DED7
330
1F
100
AcDbEntity
  8
AM_0
100
AcDbLine
 10
164.8567233784079
 20
89.93698342091608
 30
0.0
 11
163.2935114784125
 21
86.23894920649172
 31
0.0
  0
DIMENSION
  5
DEE1
102
{ACAD_XDICTIONARY
360
DEE2
102
}
102
{ACAD_REACTORS
330
DEE3
102
}
330
1F
100
AcDbEntity
  8
AM_5
100
AcDbDimension
  2
*D25
 10
199.2935114784125
 20
106.7389492064938
 30
0.0
 11
196.1935114784125
 21
95.4889492064928
 31
0.0
 70
    32
 71
     5
 42
22.5000000000021
  3
SYS$0
100
AcDbAlignedDimension
 13
176.7935114784125
 23
84.23894920649173
 33
0.0
 14
175.2935114784125
 24
106.7389492064938
 34
0.0
 50
90.0
100
AcDbRotatedDimension
1001
ACAD_DSTYLE_DIMINSPECT
1070
   396
1000
100%
1070
   395
1000

1070
   394
1070
    33
1070
   393
1070
     0
  0
DIMENSION
  5
DEE4
102
{ACAD_XDICTIONARY
360
DEE5
102
}
102
{ACAD_REACTORS
330
DEE6
102
}
330
1F
100
AcDbEntity
  8
AM_5
100
AcDbDimension
  2
*D26
 10
189.2935114784123
 20
104.807429466082
 30
0.0
 11
189.2935114784123
 21
96.8318178413248
 31
0.0
 70
   160
  1
（<>）
 71
     5
 42
20.56848025959027
  3
SYS$0
100
AcDbAlignedDimension
 13
176.7935114784125
 23
84.23894920649173
 33
0.0
 14
180.480038192261
 24
104.807429466082
 34
0.0
 50
90.0
100
AcDbRotatedDimension
1001
ACAD_DSTYLE_DIMINSPECT
1070
   396
1000
100%
1070
   395
1000

1070
   394
1070
    33
1070
   393
1070
     0
1001
ACAD
1000
DSTYLE
1002
{
1070
   271
1070
     1
1002
}
  0
DIMENSION
  5
DF7B
102
{ACAD_XDICTIONARY
360
DF84
102
}
102
{ACAD_REACTORS
330
DF85
102
}
330
1F
100
AcDbEntity
  8
AM_5
100
AcDbDimension
  2
*D27
 10
172.708280524831
 20
144.5721645010698
 30
0.0
 11
140.1827343594928
 21
124.0890443343228
 31
0.0
 70
   163
  1
2-%%c4.5×<>サラ
 71
     5
 42
8.000000000000312
  3
SYS$3
100
AcDbDiametricDimension
 15
167.3787424319944
 25
138.605924167576
 35
0.0
 40
0.0
1001
ACAD
1000
DSTYLE
1002
{
1070
   172
1070
     1
1070
   342
1005
B502
1002
}
  0
LINE
  5
E3D5
102
{ACAD_REACTORS
330
E3DA
102
}
330
1F
100
AcDbEntity
  8
AM_7
100
AcDbLine
 10
54.72994703390031
 20
199.0890443343226
 30
0.0
 11
54.72994703390031
 21
129.0890443343226
 31
0.0
1001
GENIUS_GENOBJ-N-CEN_13
1002
{
1000
OWNER
1000
GEN
1002
}
1001
GENIUS_GENODEF_13
1002
{
1000
HIER
1070
     0
1002
}
1002
{
1000
MANEDIT
1070
     0
1002
}
1002
{
1000
NOSEL
1070
     0
1002
}
1002
{
1000
BEHIND
1070
     0
1002
}
1002
{
1000
OTHER
1070
     0
1002
}
1002
{
1000
REACTOR
1002
}
1001
GENIUS_GENCEN_19
1002
{
1040
4.0
1002
}
  0
DIMENSION
  5
E3D6
330
1F
100
AcDbEntity
  8
AM_5
100
AcDbDimension
  2
*D28
 10
96.72994703390008
 20
141.0890443343226
 30
0.0
 11
93.62994703390006
 21
164.0890443343226
 31
0.0
 70
    32
  1
<>
 71
     5
 42
46.0
  3
SYS$0
100
AcDbAlignedDimension
 13
82.97994703390029
 23
187.0890443343226
 33
0.0
 14
82.97994703390029
 24
141.0890443343226
 34
0.0
 50
90.0
100
AcDbRotatedDimension
1001
ACAD
1000
DSTYLE
1002
{
1070
   286
1070
     0
1070
   284
1070
     8
1070
   274
1070
     2
1070
   272
1070
     2
1070
    47
1040
0.2
1070
    48
1040
0.2
1002
}
1001
ACAD_DSTYLE_DIMINSPECT
1070
   396
1000
100%
1070
   395
1000

1070
   394
1070
    33
1070
   393
1070
     0
  0
DIMENSION
  5
E3D7
330
1F
100
AcDbEntity
  8
AM_5
100
AcDbDimension
  2
*D29
 10
37.72994703390031
 20
186.5890443343226
 30
0.0
 11
34.62994703390027
 21
164.0890443343226
 31
0.0
 70
    32
  1
<>
 71
     5
 42
44.99999999999997
  3
SYS$0
100
AcDbAlignedDimension
 13
46.47994703390031
 23
141.5890443343226
 33
0.0
 14
46.47994703390031
 24
186.5890443343226
 34
0.0
 50
90.0
100
AcDbRotatedDimension
1001
ACAD
1000
DSTYLE
1002
{
1070
   286
1070
     0
1070
   284
1070
     8
1070
   274
1070
     2
1070
   272
1070
     2
1070
    47
1040
0.3
1070
    48
1040
0.3
1002
}
1001
ACAD_DSTYLE_DIMINSPECT
1070
   396
1000
100%
1070
   395
1000

1070
   394
1070
    33
1070
   393
1070
     0
  0
DIMENSION
  5
E3D8
102
{ACAD_XDICTIONARY
360
E3D9
102
}
102
{ACAD_REACTORS
330
E3DA
102
}
330
1F
100
AcDbEntity
  8
AM_5
100
AcDbDimension
  2
*D31
 10
74.7299470339003
 20
209.0890443343228
 30
0.0
 11
64.7299470339003
 21
212.1890443343228
 31
0.0
 70
    32
  1
（<>）
 71
     5
 42
19.99999999999999
  3
SYS$0
100
AcDbAlignedDimension
 13
54.72994703390031
 23
199.0890443343226
 33
0.0
 14
74.7299470339003
 24
195.3390443343226
 34
0.0
100
AcDbRotatedDimension
1001
ACAD_DSTYLE_DIMINSPECT
1070
   396
1000
100%
1070
   395
1000

1070
   394
1070
    33
1070
   393
1070
     0
  0
MTEXT
  5
E3DD
330
1F
100
AcDbEntity
  8
AM_6
100
AcDbMText
 10
65.3165390291922
 20
66.76297429953104
 30
0.0
 40
3.2
 41
25.39412223988121
 71
     5
 72
     5
  1
{\L参考納まり図}
 73
     1
 44
1.0
1001
ACAD
1000
MTEXTBEGIN
1070
    73
1070
     1
1070
    44
1040
1.0
1070
    74
1070
     0
1000
MTEXTEND
1000
ACAD_MTEXT_DEFINED_HEIGHT_BEGIN
1070
    46
1040
7.789196478042867
1000
ACAD_MTEXT_DEFINED_HEIGHT_END
  0
LINE
  5
E3DF
330
1F
100
AcDbEntity
  8
AM_11
 48
0.5
100
AcDbLine
 10
62.22994703390008
 20
91.08111005596532
 30
0.0
 11
35.28220038166227
 21
91.08111005596532
 31
0.0
  0
LINE
  5
E3E0
330
1F
100
AcDbEntity
  8
AM_11
 48
0.5
100
AcDbLine
 10
63.22994703390008
 20
90.08111005596532
 30
0.0
 11
63.22994703390031
 21
81.37360466791534
 31
0.0
  0
ARC
  5
E3E1
330
1F
100
AcDbEntity
  8
AM_11
100
AcDbCircle
 10
62.22994703390008
 20
90.08111005596532
 30
0.0
 40
1.0
100
AcDbArc
 50
0.0
 51
90.0
  0
DIMENSION
  5
E3E2
330
1F
100
AcDbEntity
  8
AM_5
100
AcDbDimension
  2
*D30
 10
104.8346607999212
 20
92.68111005596535
 30
0.0
 11
101.7346607999212
 21
99.89311005596539
 31
0.0
 70
    32
  1
（<>）
 71
     5
 42
1.600000000000036
  3
SYS$0
100
AcDbAlignedDimension
 13
61.72994703390008
 23
91.08111005596532
 33
0.0
 14
96.04356288190729
 24
92.68111005596535
 34
0.0
 50
90.0
100
AcDbRotatedDimension
1001
ACAD_DSTYLE_DIMINSPECT
1070
   396
1000
100%
1070
   395
1000

1070
   394
1070
    33
1070
   393
1070
     0
  0
LWPOLYLINE
  5
E3E3
330
1F
100
AcDbEntity
  8
AM_11
 48
0.5
100
AcDbPolyline
 90
        4
 70
     0
 43
0.0
 10
96.04356288190729
 20
92.68111005596535
 10
66.22994703390031
 20
92.68111005596535
 42
0.4142135623730951
 10
65.22994703390032
 20
91.68111005596534
 10
65.22994703390032
 20
81.37360466791523
  0
LINE
  5
E3E8
330
1F
100
AcDbEntity
  8
AM_0
100
AcDbLine
 10
61.47994703390031
 20
91.08111005596532
 30
0.0
 11
47.9799470339003
 21
91.08111005596532
 31
0.0
  0
LINE
  5
E3E9
330
1F
100
AcDbEntity
  8
AM_0
100
AcDbLine
 10
47.9799470339003
 20
91.08111005596532
 30
0.0
 11
47.9799470339003
 21
93.08111005596533
 31
0.0
  0
LINE
  5
E3EA
330
1F
100
AcDbEntity
  8
AM_0
100
AcDbLine
 10
47.9799470339003
 20
93.08111005596533
 30
0.0
 11
61.47994703390031
 21
93.08111005596533
 31
0.0
  0
LINE
  5
E3EB
330
1F
100
AcDbEntity
  8
AM_0
100
AcDbLine
 10
61.47994703390031
 20
93.08111005596533
 30
0.0
 11
61.47994703390031
 21
91.08111005596532
 31
0.0
  0
LINE
  5
E3EC
330
1F
100
AcDbEntity
  8
AM_0
100
AcDbLine
 10
49.5431589338957
 20
96.77914427038974
 30
0.0
 11
54.49867428804463
 21
112.021529914422
 31
0.0
  0
ARC
  5
E3ED
330
1F
100
AcDbEntity
  8
AM_0
100
AcDbCircle
 10
57.81545694523219
 20
101.0787016840682
 30
0.0
 40
7.527595609209679
100
AcDbArc
 50
191.706648991946
 51
218.7331852088398
  0
LINE
  5
E3EE
330
1F
100
AcDbEntity
  8
AM_0
100
AcDbLine
 10
51.94341942885603
 20
96.36872598752127
 30
0.0
 11
56.32576520332985
 21
111.208056628271
 31
0.0
  0
LINE
  5
E3EF
330
1F
100
AcDbEntity
  8
AM_0
100
AcDbLine
 10
62.50948010052843
 20
115.0218326609928
 30
0.0
 11
65.97994703390032
 21
113.4766812308408
 31
0.0
  0
LINE
  5
E3F0
330
1F
100
AcDbEntity
  8
AM_0
100
AcDbLine
 10
61.66630241165171
 20
113.2082584593181
 30
0.0
 11
65.1664737477488
 21
111.6495903155556
 31
0.0
  0
ARC
  5
E3F1
330
1F
100
AcDbEntity
  8
AM_0
100
AcDbCircle
 10
59.9799470339003
 20
109.5811100559675
 30
0.0
 40
6.0
100
AcDbArc
 50
65.06506141611346
 51
156.0000000000025
  0
ARC
  5
E3F2
330
1F
100
AcDbEntity
  8
AM_0
100
AcDbCircle
 10
59.9799470339003
 20
109.5811100559675
 30
0.0
 40
4.0
100
AcDbArc
 50
65.06506141611346
 51
156.0000000000025
  0
LINE
  5
E3F3
330
1F
100
AcDbEntity
  8
AM_0
100
AcDbLine
 10
65.1664737477488
 20
111.6495903155556
 30
0.0
 11
65.97994703390054
 21
113.4766812308408
 31
0.0
  0
LINE
  5
E3F4
330
1F
100
AcDbEntity
  8
AM_2
100
AcDbLine
 10
54.49867428804486
 20
112.0215299144222
 30
0.0
 11
56.32576520332985
 21
111.208056628271
 31
0.0
  0
LINE
  5
E3F5
330
1F
100
AcDbEntity
  8
AM_0
100
AcDbLine
 10
54.9799470339003
 20
93.08111005596533
 30
0.0
 11
51.94341942885579
 21
96.36872598752148
 31
0.0
  0
LINE
  5
E3F6
330
1F
100
AcDbEntity
  8
AM_0
100
AcDbLine
 10
49.5431589338957
 20
96.77914427038974
 30
0.0
 11
47.9799470339003
 21
93.08111005596533
 31
0.0
  0
LINE
  5
E3F9
330
1F
100
AcDbEntity
  8
AM_7
 48
0.5
100
AcDbLine
 10
46.47994703390031
 20
186.5890443343226
 30
0.0
 11
62.97994703390031
 21
186.5890443343226
 31
0.0
1001
GENIUS_GENODEF_13
1002
{
1000
HIER
1070
     0
1002
}
1002
{
1000
MANEDIT
1070
     0
1002
}
1002
{
1000
NOSEL
1070
     0
1002
}
1002
{
1000
BEHIND
1070
     0
1002
}
1002
{
1000
OTHER
1070
     0
1002
}
1002
{
1000
REACTOR
1002
}
1001
GENIUS_GENOBJ-N-CEN_13
1002
{
1000
OWNER
1000
GEN
1002
}
1001
GENIUS_GENCEN_19
1002
{
1040
4.0
1002
}
  0
LINE
  5
E3FA
330
1F
100
AcDbEntity
  8
AM_7
 48
0.65
100
AcDbLine
 10
43.7299470339003
 20
164.0890443343226
 30
0.0
 11
90.7299470339003
 21
164.0890443343227
 31
0.0
1001
GENIUS_GENODEF_13
1002
{
1000
HIER
1070
     0
1002
}
1002
{
1000
MANEDIT
1070
     0
1002
}
1002
{
1000
NOSEL
1070
     0
1002
}
1002
{
1000
BEHIND
1070
     0
1002
}
1002
{
1000
OTHER
1070
     0
1002
}
1002
{
1000
REACTOR
1002
}
1001
GENIUS_GENOBJ-N-CEN_13
1002
{
1000
OWNER
1000
GEN
1002
}
1001
GENIUS_GENCEN_19
1002
{
1040
4.0
1002
}
  0
LINE
  5
E3FB
330
1F
100
AcDbEntity
  8
AM_7
100
AcDbLine
 10
77.7299470339003
 20
177.0890443343227
 30
0.0
 11
77.7299470339003
 21
151.0890443343227
 31
0.0
1001
GENIUS_GENOBJ-N-CEN_13
1002
{
1000
OWNER
1000
GEN
1002
}
1001
GENIUS_GENODEF_13
1002
{
1000
HIER
1070
     0
1002
}
1002
{
1000
MANEDIT
1070
     0
1002
}
1002
{
1000
NOSEL
1070
     0
1002
}
1002
{
1000
BEHIND
1070
     0
1002
}
1002
{
1000
OTHER
1070
     0
1002
}
1002
{
1000
REACTOR
1002
}
1001
GENIUS_GENCEN_19
1002
{
1040
4.0
1002
}
  0
CIRCLE
  5
E3FC
330
1F
100
AcDbEntity
  8
AM_0
100
AcDbCircle
 10
54.72994703390031
 20
141.5890443343226
 30
0.0
 40
4.0
  0
CIRCLE
  5
E3FD
330
1F
100
AcDbEntity
  8
AM_0
100
AcDbCircle
 10
54.72994703390031
 20
186.5890443343226
 30
0.0
 40
4.0
  0
CIRCLE
  5
E3FE
330
1F
100
AcDbEntity
  8
AM_0
100
AcDbCircle
 10
54.72994703390031
 20
141.5890443343226
 30
0.0
 40
2.25
  0
CIRCLE
  5
E3FF
330
1F
100
AcDbEntity
  8
AM_0
100
AcDbCircle
 10
54.72994703390031
 20
186.5890443343226
 30
0.0
 40
2.25
  0
LINE
  5
E400
330
1F
100
AcDbEntity
  8
AM_0
100
AcDbLine
 10
47.9799470339003
 20
139.8390443343226
 30
0.0
 11
47.9799470339003
 21
188.3390443343226
 31
0.0
  0
LINE
  5
E401
330
1F
100
AcDbEntity
  8
AM_0
100
AcDbLine
 10
61.47994703390031
 20
148.72680592752
 30
0.0
 11
61.47994703390031
 21
139.8390443343226
 31
0.0
  0
LINE
  5
E402
330
1F
100
AcDbEntity
  8
AM_0
100
AcDbLine
 10
57.77698555399524
 20
170.4304822578245
 30
0.0
 11
53.88891035738811
 21
173.1734271585122
 31
0.0
  0
LINE
  5
E403
330
1F
100
AcDbEntity
  8
AM_0
100
AcDbLine
 10
65.97994703390032
 20
159.8390443343227
 30
0.0
 11
65.97994703390032
 21
168.3390443343227
 31
0.0
  0
ARC
  5
E404
330
1F
100
AcDbEntity
  8
AM_0
100
AcDbCircle
 10
54.72994703390031
 20
139.8390443343226
 30
0.0
 40
6.75
100
AcDbArc
 50
180.0
 51
0.0
  0
ARC
  5
E405
330
1F
100
AcDbEntity
  8
AM_0
100
AcDbCircle
 10
54.72994703390031
 20
188.3390443343226
 30
0.0
 40
6.75
100
AcDbArc
 50
0.0
 51
180.0
  0
LINE
  5
E406
330
1F
100
AcDbEntity
  8
AM_7
 48
0.5
100
AcDbLine
 10
46.47994703390031
 20
141.5890443343226
 30
0.0
 11
62.97994703390031
 21
141.5890443343226
 31
0.0
1001
GENIUS_GENODEF_13
1002
{
1000
HIER
1070
     0
1002
}
1002
{
1000
MANEDIT
1070
     0
1002
}
1002
{
1000
NOSEL
1070
     0
1002
}
1002
{
1000
BEHIND
1070
     0
1002
}
1002
{
1000
OTHER
1070
     0
1002
}
1002
{
1000
REACTOR
1002
}
1001
GENIUS_GENOBJ-N-CEN_13
1002
{
1000
OWNER
1000
GEN
1002
}
1001
GENIUS_GENCEN_19
1002
{
1040
4.0
1002
}
  0
LINE
  5
E407
330
1F
100
AcDbEntity
  8
AM_0
100
AcDbLine
 10
59.622441133876
 20
150.7217233271816
 30
0.0
 11
54.33810457254389
 21
151.0657286187045
 31
0.0
  0
ARC
  5
E408
330
1F
100
AcDbEntity
  8
AM_0
100
AcDbCircle
 10
59.47994703390031
 20
148.72680592752
 30
0.0
 40
2.0
100
AcDbArc
 50
0.0
 51
85.91438322002224
  0
LINE
  5
E409
330
1F
100
AcDbEntity
  8
AM_0
100
AcDbLine
 10
53.88746787573699
 20
176.7422474912158
 30
0.0
 11
53.05563251144553
 21
173.6228648751178
 31
0.0
  0
LINE
  5
E40A
330
1F
100
AcDbEntity
  8
AM_2
100
AcDbLine
 10
59.72994703390031
 20
157.8390443343226
 30
0.0
 11
59.72994703390031
 21
170.3390443343226
 31
0.0
  0
LINE
  5
E40B
330
1F
100
AcDbEntity
  8
AM_0
100
AcDbLine
 10
56.28184874967291
 20
157.8390443343226
 30
0.0
 11
64.10056075631269
 21
157.8390443343226
 31
0.0
  0
LINE
  5
E40C
330
1F
100
AcDbEntity
  8
AM_0
100
AcDbLine
 10
56.28184874967268
 20
170.3390443343231
 30
0.0
 11
64.10056075631269
 21
170.3390443343226
 31
0.0
  0
ARC
  5
E40D
330
1F
100
AcDbEntity
  8
AM_0
100
AcDbCircle
 10
58.06521641571407
 20
170.8390443343229
 30
0.0
 40
0.5
100
AcDbArc
 50
234.7979380232967
 51
270.0
  0
ARC
  5
E40E
330
1F
100
AcDbEntity
  8
AM_0
100
AcDbCircle
 10
56.28184874967291
 20
170.8390443343226
 30
0.0
 40
0.5
100
AcDbArc
 50
225.935119486914
 51
270.0
  0
LINE
  5
E40F
330
1F
100
AcDbEntity
  8
AM_0
100
AcDbLine
 10
55.93411250472831
 20
170.4797679727961
 30
0.0
 11
53.191013736302
 21
173.134757188311
 31
0.0
  0
ARC
  5
E410
330
1F
100
AcDbEntity
  8
AM_0
100
AcDbCircle
 10
56.28184874967268
 20
170.8390443343231
 30
0.0
 40
0.5
100
AcDbArc
 50
225.935119486914
 51
270.0
  0
ARC
  5
E411
330
1F
100
AcDbEntity
  8
AM_0
100
AcDbCircle
 10
53.53874998124615
 20
173.494033549838
 30
0.0
 40
0.5
100
AcDbArc
 50
165.0685828218834
 51
225.935119486914
  0
LINE
  5
E412
330
1F
100
AcDbEntity
  8
AM_0
100
AcDbLine
 10
53.67901759155984
 20
173.6252656914206
 30
0.0
 11
53.94278248805676
 21
176.6612704376924
 31
0.0
  0
ARC
  5
E413
330
1F
100
AcDbEntity
  8
AM_0
100
AcDbCircle
 10
54.17714121910694
 20
173.5819892350108
 30
0.0
 40
0.5
100
AcDbArc
 50
175.0346706306889
 51
234.7979380232967
  0
LINE
  5
E414
330
1F
100
AcDbEntity
  8
AM_2
100
AcDbLine
 10
53.05693907196086
 20
173.3603987950262
 30
0.0
 11
53.74133919857649
 21
173.3603987950262
 31
0.0
  0
LINE
  5
E415
330
1F
100
AcDbEntity
  8
AM_0
100
AcDbLine
 10
61.47994703390031
 20
179.4512827411252
 30
0.0
 11
61.47994703390031
 21
188.3390443343226
 31
0.0
  0
ARC
  5
E416
330
1F
100
AcDbEntity
  8
AM_0
100
AcDbCircle
 10
59.47994703390031
 20
179.4512827411252
 30
0.0
 40
2.0
100
AcDbArc
 50
274.0856167799778
 51
0.0
  0
LINE
  5
E417
330
1F
100
AcDbEntity
  8
AM_0
100
AcDbLine
 10
59.622441133876
 20
177.4563653414637
 30
0.0
 11
54.33810457254389
 21
177.1123600499407
 31
0.0
  0
ARC
  5
E418
330
1F
100
AcDbEntity
  8
AM_0
100
AcDbCircle
 10
54.44090611560386
 20
176.6179939812822
 30
0.0
 40
0.5
100
AcDbArc
 50
93.72464522345605
 51
175.0346706306889
  0
ARC
  5
E419
330
1F
100
AcDbEntity
  8
AM_0
100
AcDbCircle
 10
54.37058534553761
 20
176.6134161659359
 30
0.0
 40
0.5
100
AcDbArc
 50
93.72464522345605
 51
165.0685828218834
  0
ARC
  5
E41B
330
1F
100
AcDbEntity
  8
AM_2
100
AcDbCircle
 10
56.988343834651
 20
164.9339669571373
 30
0.0
 40
12.46342755702668
100
AcDbArc
 50
102.9890818328932
 51
136.2850183121083
  0
ARC
  5
E41C
330
1F
100
AcDbEntity
  8
AM_2
100
AcDbCircle
 10
57.05590731500751
 20
163.3646115261077
 30
0.0
 40
12.5955933769333
100
AcDbArc
 50
223.8987438914797
 51
256.8199328475726
  0
ELLIPSE
  5
E41E
330
1F
100
AcDbEntity
  8
AM_0
100
AcDbEllipse
 10
64.10056075631292
 20
159.8390443343227
 30
0.0
 11
0.0000000000001005
 21
1.999999999999999
 31
0.0
210
0.0
220
0.0
230
1.0
 40
0.9396931387798305
 41
3.141592653589604
 42
4.712388980384567
  0
ELLIPSE
  5
E421
330
1F
100
AcDbEntity
  8
AM_0
100
AcDbEllipse
 10
64.10056075631292
 20
168.3390443343227
 30
0.0
 11
-0.0000000000001005
 21
1.999999999999999
 31
0.0
210
0.0
220
0.0
230
-1.0
 40
0.9396931387798305
 41
-0.0000000000001885
 42
1.570796326794773
  0
LINE
  5
E422
330
1F
100
AcDbEntity
  8
AM_0
100
AcDbLine
 10
57.77698555399524
 20
157.7476064108208
 30
0.0
 11
53.88891035738811
 21
155.0046615101331
 31
0.0
  0
LINE
  5
E423
330
1F
100
AcDbEntity
  8
AM_0
100
AcDbLine
 10
53.88746787573699
 20
151.4358411774295
 30
0.0
 11
53.05563251144553
 21
154.5552237935274
 31
0.0
  0
ARC
  5
E424
330
1F
100
AcDbEntity
  8
AM_0
100
AcDbCircle
 10
58.06521641571407
 20
157.3390443343224
 30
0.0
 40
0.5
100
AcDbArc
 50
90.0
 51
125.2020619767032
  0
ARC
  5
E425
330
1F
100
AcDbEntity
  8
AM_0
100
AcDbCircle
 10
56.28184874967291
 20
157.3390443343226
 30
0.0
 40
0.5
100
AcDbArc
 50
90.0
 51
134.064880513086
  0
LINE
  5
E426
330
1F
100
AcDbEntity
  8
AM_0
100
AcDbLine
 10
55.93411250472831
 20
157.6983206958492
 30
0.0
 11
53.191013736302
 21
155.0433314803343
 31
0.0
  0
ARC
  5
E427
330
1F
100
AcDbEntity
  8
AM_0
100
AcDbCircle
 10
56.28184874967268
 20
157.3390443343222
 30
0.0
 40
0.5
100
AcDbArc
 50
90.0
 51
134.064880513086
  0
ARC
  5
E428
330
1F
100
AcDbEntity
  8
AM_0
100
AcDbCircle
 10
53.53874998124615
 20
154.6840551188073
 30
0.0
 40
0.5
100
AcDbArc
 50
134.064880513086
 51
194.9314171781166
  0
LINE
  5
E429
330
1F
100
AcDbEntity
  8
AM_0
100
AcDbLine
 10
53.67901759155984
 20
154.5528229772247
 30
0.0
 11
53.94278248805676
 21
151.5168182309529
 31
0.0
  0
ARC
  5
E42A
330
1F
100
AcDbEntity
  8
AM_0
100
AcDbCircle
 10
54.17714121910694
 20
154.5960994336345
 30
0.0
 40
0.5
100
AcDbArc
 50
125.2020619767032
 51
184.965329369311
  0
LINE
  5
E42B
330
1F
100
AcDbEntity
  8
AM_2
100
AcDbLine
 10
53.05693907196086
 20
154.817689873619
 30
0.0
 11
53.74133919857649
 21
154.817689873619
 31
0.0
  0
ARC
  5
E42C
330
1F
100
AcDbEntity
  8
AM_0
100
AcDbCircle
 10
54.44090611560386
 20
151.5600946873631
 30
0.0
 40
0.5
100
AcDbArc
 50
184.965329369311
 51
266.275354776544
  0
ARC
  5
E42D
330
1F
100
AcDbEntity
  8
AM_0
100
AcDbCircle
 10
54.37058534553761
 20
151.5646725027094
 30
0.0
 40
0.5
100
AcDbArc
 50
194.9314171781166
 51
266.275354776544
  0
LINE
  5
E5DA
330
1F
100
AcDbEntity
  8
AM_0
100
AcDbLine
 10
86.64784546504654
 20
164.9852284818177
 30
0.0
 11
82.39747396844176
 21
188.1505808484757
 31
0.0
  0
LINE
  5
E5DB
330
1F
100
AcDbEntity
  8
AM_0
100
AcDbLine
 10
82.45822598904764
 20
140.0393743036917
 30
0.0
 11
86.64995665516151
 21
163.1921403710913
 31
0.0
  0
LINE
  5
E5DC
330
1F
100
AcDbEntity
  8
AM_0
100
AcDbLine
 10
84.11718907861301
 20
200.9446881333219
 30
0.0
 11
81.6028771494952
 21
183.7097063426267
 31
0.0
  0
LINE
  5
E5DD
330
1F
100
AcDbEntity
  8
AM_0
100
AcDbLine
 10
82.13813750047512
 20
201.2334005353238
 30
0.0
 11
84.11718907861301
 21
200.9446881333219
 31
0.0
  0
LINE
  5
E5DE
330
1F
100
AcDbEntity
  8
AM_0
100
AcDbLine
 10
79.62382557135736
 20
183.9984187446287
 30
0.0
 11
82.13813750047512
 21
201.2334005353238
 31
0.0
  0
ARC
  5
E5DF
330
1F
100
AcDbEntity
  8
AM_0
100
AcDbCircle
 10
71.72994703390031
 20
137.0890443343228
 30
0.0
 40
5.0
100
AcDbArc
 50
180.0
 51
303.477201469763
  0
LINE
  5
E5E0
330
1F
100
AcDbEntity
  8
AM_0
100
AcDbLine
 10
74.48797268692384
 20
132.9185174494719
 30
0.0
 11
80.29623537428982
 21
136.7595998674857
 31
0.0
  0
LINE
  5
E5E1
330
1F
100
AcDbEntity
  8
AM_0
100
AcDbLine
 10
66.72994703390031
 20
137.0890443343228
 30
0.0
 11
66.72994703390031
 21
150.2680043809145
 31
0.0
  0
LINE
  5
E5E2
330
1F
100
AcDbEntity
  8
AM_0
100
AcDbLine
 10
66.72994703390031
 20
176.2617133759448
 30
0.0
 11
66.72994703390031
 21
191.0890443343228
 31
0.0
  0
LINE
  5
E5E3
330
1F
100
AcDbEntity
  8
AM_7
 48
0.5
100
AcDbLine
 10
80.9799470339003
 20
141.0890443343228
 30
0.0
 11
68.47994703390032
 21
141.0890443343228
 31
0.0
1001
GENIUS_GENOBJ-N-CEN_13
1002
{
1000
OWNER
1000
GEN
1002
}
1001
GENIUS_GENODEF_13
1002
{
1000
HIER
1070
     0
1002
}
1002
{
1000
MANEDIT
1070
     0
1002
}
1002
{
1000
NOSEL
1070
     0
1002
}
1002
{
1000
BEHIND
1070
     0
1002
}
1002
{
1000
OTHER
1070
     0
1002
}
1002
{
1000
REACTOR
1002
}
  0
CIRCLE
  5
E5E4
330
1F
100
AcDbEntity
  8
AM_0
100
AcDbCircle
 10
74.7299470339003
 20
141.0890443343228
 30
0.0
 40
2.25
  0
LINE
  5
E5E5
330
1F
100
AcDbEntity
  8
AM_7
 48
0.5
100
AcDbLine
 10
74.7299470339003
 20
134.8390443343228
 30
0.0
 11
74.7299470339003
 21
147.3390443343228
 31
0.0
1001
GENIUS_GENOBJ-N-CEN_13
1002
{
1000
OWNER
1000
GEN
1002
}
1001
GENIUS_GENODEF_13
1002
{
1000
HIER
1070
     0
1002
}
1002
{
1000
MANEDIT
1070
     0
1002
}
1002
{
1000
NOSEL
1070
     0
1002
}
1002
{
1000
BEHIND
1070
     0
1002
}
1002
{
1000
OTHER
1070
     0
1002
}
1002
{
1000
REACTOR
1002
}
  0
ARC
  5
E5E6
330
1F
100
AcDbEntity
  8
AM_0
100
AcDbCircle
 10
77.53820972126629
 20
140.9301267523366
 30
0.0
 40
5.0
100
AcDbArc
 50
303.477201469763
 51
349.7379504394576
  0
CIRCLE
  5
E5E7
330
1F
100
AcDbEntity
  8
AM_0
100
AcDbCircle
 10
77.7299470339003
 20
164.0890443343227
 30
0.0
 40
6.5
  0
ARC
  5
E5E8
330
1F
100
AcDbEntity
  8
AM_0
100
AcDbCircle
 10
71.72994703390031
 20
191.0890443343228
 30
0.0
 40
5.0
100
AcDbArc
 50
56.25672004136575
 51
180.0
  0
LINE
  5
E5E9
330
1F
100
AcDbEntity
  8
AM_7
 48
0.5
100
AcDbLine
 10
80.9799470339003
 20
187.0890443343228
 30
0.0
 11
68.47994703390032
 21
187.0890443343228
 31
0.0
1001
GENIUS_GENODEF_13
1002
{
1000
HIER
1070
     0
1002
}
1002
{
1000
MANEDIT
1070
     0
1002
}
1002
{
1000
NOSEL
1070
     0
1002
}
1002
{
1000
BEHIND
1070
     0
1002
}
1002
{
1000
OTHER
1070
     0
1002
}
1002
{
1000
REACTOR
1002
}
1001
GENIUS_GENOBJ-N-CEN_13
1002
{
1000
OWNER
1000
GEN
1002
}
  0
LINE
  5
E5EA
330
1F
100
AcDbEntity
  8
AM_7
 48
0.5
100
AcDbLine
 10
74.7299470339003
 20
180.8390443343228
 30
0.0
 11
74.7299470339003
 21
193.3390443343228
 31
0.0
1001
GENIUS_GENODEF_13
1002
{
1000
HIER
1070
     0
1002
}
1002
{
1000
MANEDIT
1070
     0
1002
}
1002
{
1000
NOSEL
1070
     0
1002
}
1002
{
1000
BEHIND
1070
     0
1002
}
1002
{
1000
OTHER
1070
     0
1002
}
1002
{
1000
REACTOR
1002
}
1001
GENIUS_GENOBJ-N-CEN_13
1002
{
1000
OWNER
1000
GEN
1002
}
  0
CIRCLE
  5
E5EB
330
1F
100
AcDbEntity
  8
AM_0
100
AcDbCircle
 10
74.7299470339003
 20
187.0890443343228
 30
0.0
 40
2.25
  0
LINE
  5
E5EC
330
1F
100
AcDbEntity
  8
AM_0
100
AcDbLine
 10
80.25693243451945
 20
191.4059190247179
 30
0.0
 11
74.50731057764425
 21
195.2467181726467
 31
0.0
  0
ARC
  5
E5ED
330
1F
100
AcDbEntity
  8
AM_0
100
AcDbCircle
 10
77.47956889077549
 20
187.2482451863941
 30
0.0
 40
5.0
100
AcDbArc
 50
10.39697012214094
 51
15.037691514177
  0
ARC
  5
E5EE
330
1F
100
AcDbEntity
  8
AM_0
100
AcDbCircle
 10
77.47956889077549
 20
187.2482451863941
 30
0.0
 40
5.0
100
AcDbArc
 50
50.48935113057265
 51
56.25672004136575
  0
ARC
  5
E5EF
330
1F
100
AcDbEntity
  8
AM_0
100
AcDbCircle
 10
81.72994038738021
 20
164.0828928197362
 30
0.0
 40
5.0
100
AcDbArc
 50
349.7379504394576
 51
10.39697012214094
  0
ARC
  5
E5F0
330
1F
100
AcDbEntity
  8
AM_0
100
AcDbCircle
 10
77.7299470339003
 20
164.0890443343228
 30
0.0
 40
8.999989891666311
100
AcDbArc
 50
290.0
 51
50.00000000000008
  0
LINE
  5
E5F1
330
1F
100
AcDbEntity
  8
AM_0
100
AcDbLine
 10
80.80812486657746
 20
155.6318202459762
 30
0.0
 11
77.70388660392335
 21
154.5019699183
 31
0.0
  0
LINE
  5
E5F2
330
1F
100
AcDbEntity
  8
AM_0
100
AcDbLine
 10
84.09390091690793
 20
170.4529982173304
 30
0.0
 11
77.97405097897904
 21
176.5728481552596
 31
0.0
  0
LINE
  5
E5F3
330
1F
100
AcDbEntity
  8
AM_0
100
AcDbLine
 10
75.72994703390024
 20
148.0165303906223
 30
0.0
 11
75.7299470339003
 21
151.6828920559423
 31
0.0
  0
ARC
  5
E5F4
330
1F
100
AcDbEntity
  8
AM_0
100
AcDbCircle
 10
78.7299470339003
 20
151.6828920559422
 30
0.0
 40
3.0
100
AcDbArc
 50
110.0000000000001
 51
179.9999999999988
1001
GENIUS_GENOBJ-N-FIL_13
1002
{
1000
OWNER
1000
GEN
1002
}
1001
GENIUS_GENODEF_13
1002
{
1000
HIER
1070
     0
1002
}
1002
{
1000
MANEDIT
1070
     0
1002
}
1002
{
1000
NOSEL
1070
     0
1002
}
1002
{
1000
BEHIND
1070
     0
1002
}
1002
{
1000
OTHER
1070
     0
1002
}
1002
{
1000
REACTOR
1002
}
  0
ARC
  5
E5F5
330
1F
100
AcDbEntity
  8
AM_0
100
AcDbCircle
 10
79.74100315193014
 20
163.2648588784297
 30
0.0
 40
18.39037270247945
100
AcDbArc
 50
98.29437505541406
 51
157.3768773583557
  0
ARC
  5
E5F6
330
1F
100
AcDbEntity
  8
AM_0
100
AcDbCircle
 10
79.74100315193014
 20
163.2648588784297
 30
0.0
 40
16.39037270247945
100
AcDbArc
 50
98.29437505541406
 51
155.1128147580191
  0
ARC
  5
E5F7
330
1F
100
AcDbEntity
  8
AM_0
100
AcDbCircle
 10
73.72994703390024
 20
148.0165303906223
 30
0.0
 40
2.0
100
AcDbArc
 50
248.485104421463
 51
359.9999999999992
  0
ARC
  5
E5F8
330
1F
100
AcDbEntity
  8
AM_0
100
AcDbCircle
 10
74.72994703390025
 20
148.7131274177691
 30
0.0
 40
1.0
100
AcDbArc
 50
250.9982640909945
 51
359.9999999999992
  0
ARC
  5
E5F9
330
1F
100
AcDbEntity
  8
AM_2
100
AcDbCircle
 10
83.02513238552039
 20
163.6955785541813
 30
0.0
 40
16.66414028293913
100
AcDbArc
 50
107.9205967120233
 51
244.0378385737562
  0
CIRCLE
  5
E5FC
330
1F
100
AcDbEntity
  8
AM_0
100
AcDbCircle
 10
74.7299470339003
 20
141.0890443343228
 30
0.0
 40
4.5
  0
CIRCLE
  5
E5FD
330
1F
100
AcDbEntity
  8
AM_0
100
AcDbCircle
 10
74.7299470339003
 20
187.0890443343228
 30
0.0
 40
4.5
  0
ARC
  5
E5FE
330
1F
100
AcDbEntity
  8
AM_0
100
AcDbCircle
 10
76.65524820415043
 20
184.4314873476317
 30
0.0
 40
5.0
100
AcDbArc
 50
278.2943750554141
 51
351.6999999999999
  0
ARC
  5
E5FF
330
1F
100
AcDbEntity
  8
AM_0
100
AcDbCircle
 10
76.65524820415043
 20
184.4314873476317
 30
0.0
 40
3.0
100
AcDbArc
 50
278.2943750554141
 51
351.6999999999995
  0
ARC
  5
E600
330
1F
100
AcDbEntity
  8
AM_0
100
AcDbCircle
 10
79.38826454135214
 20
177.9870617176326
 30
0.0
 40
2.0
100
AcDbArc
 50
112.9813142423775
 51
224.9999999999993
  0
ARC
  5
E601
330
1F
100
AcDbEntity
  8
AM_0
100
AcDbCircle
 10
79.74100315193014
 20
163.2648588784297
 30
0.0
 40
16.39037270247945
100
AcDbArc
 50
199.3008804513341
 51
250.9982640909945
  0
ARC
  5
E602
330
1F
100
AcDbEntity
  8
AM_0
100
AcDbCircle
 10
79.74100315193014
 20
163.2648588784297
 30
0.0
 40
18.39037270247945
100
AcDbArc
 50
197.1596717877812
 51
248.485104421463
  0
LINE
  5
E604
330
1F
100
AcDbEntity
  8
AM_0
100
AcDbLine
 10
69.22994703390035
 20
97.18111005596535
 30
0.0
 11
85.22994703390033
 21
97.18111005596533
 31
0.0
  0
LINE
  5
E605
330
1F
100
AcDbEntity
  8
AM_0
100
AcDbLine
 10
87.22994703390034
 20
92.68111005596535
 30
0.0
 11
67.22994703390035
 21
92.68111005596535
 31
0.0
  0
LINE
  5
E606
330
1F
100
AcDbEntity
  8
AM_0
100
AcDbLine
 10
75.7760126038287
 20
103.4811100559653
 30
0.0
 11
84.22994703390033
 21
103.4811100559653
 31
0.0
  0
LINE
  5
E607
330
1F
100
AcDbEntity
  8
AM_0
100
AcDbLine
 10
63.38344704270687
 20
111.7345087421542
 30
0.0
 11
64.78205310335926
 21
111.820777424608
 31
0.0
  0
LINE
  5
E608
330
1F
100
AcDbEntity
  8
AM_0
100
AcDbLine
 10
87.22994703390034
 20
100.6811100559653
 30
0.0
 11
75.78424230422389
 21
100.6811100559653
 31
0.0
  0
LINE
  5
E609
330
1F
100
AcDbEntity
  8
AM_0
100
AcDbLine
 10
87.22994703390034
 20
98.68111005596533
 30
0.0
 11
75.78424230422424
 21
98.68111005596535
 31
0.0
  0
LINE
  5
E60A
330
1F
100
AcDbEntity
  8
AM_0
100
AcDbLine
 10
65.22994703390046
 20
98.68111005596535
 30
0.0
 11
86.22994703390032
 21
98.68111005596533
 31
0.0
  0
ARC
  5
E60B
330
1F
100
AcDbEntity
  8
AM_0
100
AcDbCircle
 10
75.78424230422424
 20
100.6811100559653
 30
0.0
 40
2.0
100
AcDbArc
 50
180.0
 51
270.0
  0
ARC
  5
E60D
330
1F
100
AcDbEntity
  8
AM_0
100
AcDbCircle
 10
65.22994703390046
 20
100.6811100559653
 30
0.0
 40
2.0
100
AcDbArc
 50
190.3048464687693
 51
270.0
  0
LINE
  5
E60E
330
1F
100
AcDbEntity
  8
AM_0
100
AcDbLine
 10
69.22994703390035
 20
97.18111005596535
 30
0.0
 11
70.22994703390034
 21
98.68111005596535
 31
0.0
  0
LINE
  5
E60F
330
1F
100
AcDbEntity
  8
AM_0
100
AcDbLine
 10
67.22994703390035
 20
92.68111005596535
 30
0.0
 11
67.22994703390035
 21
95.18111005596535
 31
0.0
  0
ARC
  5
E610
330
1F
100
AcDbEntity
  8
AM_0
100
AcDbCircle
 10
69.22994703390035
 20
95.18111005596535
 30
0.0
 40
2.0
100
AcDbArc
 50
90.0
 51
180.0
  0
ARC
  5
E611
330
1F
100
AcDbEntity
  8
AM_0
100
AcDbCircle
 10
63.34283809544026
 20
110.2300609386544
 30
0.0
 40
1.5
100
AcDbArc
 50
93.12354189100949
 51
235.4984616855287
  0
ARC
  5
E612
330
1F
100
AcDbEntity
  8
AM_0
100
AcDbCircle
 10
63.49242522402792
 20
109.7374800102637
 30
0.0
 40
2.0
100
AcDbArc
 50
93.12354189100949
 51
190.3048464687693
  0
LINE
  5
E613
330
1F
100
AcDbEntity
  8
AM_0
100
AcDbLine
 10
63.26220721370068
 20
100.3233391795653
 30
0.0
 11
61.52468540382815
 21
109.3797091338637
 31
0.0
  0
LINE
  5
E614
330
1F
100
AcDbEntity
  8
AM_0
100
AcDbLine
 10
62.49319555034278
 20
108.9938944670332
 30
0.0
 11
73.26649836925516
 21
104.1787848388646
 31
0.0
  0
LINE
  5
E615
330
1F
100
AcDbEntity
  8
AM_0
100
AcDbLine
 10
64.12878537491079
 20
109.0831488686461
 30
0.0
 11
75.25664483860636
 21
104.2344630040184
 31
0.0
  0
LINE
  5
E616
330
1F
100
AcDbEntity
  8
AM_3
 48
0.5
100
AcDbLine
 10
65.22994703390034
 20
100.6811100559653
 30
0.0
 11
63.47842792000826
 21
110.3193153402672
 31
0.0
  0
LINE
  5
E617
330
1F
100
AcDbEntity
  8
AM_3
 48
0.5
100
AcDbLine
 10
75.78424230422389
 20
100.6811100559653
 30
0.0
 11
65.22994703390034
 21
100.6811100559653
 31
0.0
  0
ARC
  5
E618
330
1F
100
AcDbEntity
  8
AM_0
100
AcDbCircle
 10
74.78424230422412
 20
103.353080087512
 30
0.0
 40
1.0
100
AcDbArc
 50
0.0
 51
61.80963640659043
  0
ARC
  5
E619
330
1F
100
AcDbEntity
  8
AM_0
100
AcDbCircle
 10
72.78424230422423
 20
103.3027545381666
 30
0.0
 40
1.0
100
AcDbArc
 50
0.0
 51
61.16714686794392
  0
LINE
  5
E61A
330
1F
100
AcDbEntity
  8
AM_0
100
AcDbLine
 10
75.78424230422412
 20
103.353080087512
 30
0.0
 11
75.78424230422389
 21
100.6811100559653
 31
0.0
  0
LINE
  5
E61B
330
1F
100
AcDbEntity
  8
AM_0
100
AcDbLine
 10
73.78424230422424
 20
103.3027545381666
 30
0.0
 11
73.78424230422424
 21
100.6811100559653
 31
0.0
  0
ARC
  5
E61C
330
1F
100
AcDbEntity
  8
AM_0
100
AcDbCircle
 10
64.97842792000827
 20
110.3193153402672
 30
0.0
 40
1.5
100
AcDbArc
 50
96.54998282966433
 51
235.4984616855287
  0
LINE
  5
E61D
330
1F
100
AcDbEntity
  8
AM_0
100
AcDbLine
 10
87.22994703390034
 20
98.68111005596533
 30
0.0
 11
87.22994703390034
 21
100.6811100559653
 31
0.0
  0
ARC
  5
E61E
330
1F
100
AcDbEntity
  8
AM_0
100
AcDbCircle
 10
85.22994703390033
 20
95.18111005596534
 30
0.0
 40
2.0
100
AcDbArc
 50
0.0
 51
90.0
  0
LINE
  5
E61F
330
1F
100
AcDbEntity
  8
AM_0
100
AcDbLine
 10
87.22994703390034
 20
92.68111005596535
 30
0.0
 11
87.22994703390034
 21
95.18111005596534
 31
0.0
  0
LINE
  5
E620
330
1F
100
AcDbEntity
  8
AM_0
100
AcDbLine
 10
87.22994703390034
 20
98.68111005596533
 30
0.0
 11
87.22994703390034
 21
95.18111005596534
 31
0.0
  0
LINE
  5
E621
330
1F
100
AcDbEntity
  8
AM_0
100
AcDbLine
 10
80.72994703390033
 20
112.6811100559653
 30
0.0
 11
80.72994703390033
 21
103.4811100559653
 31
0.0
  0
LINE
  5
E622
330
1F
100
AcDbEntity
  8
AM_0
100
AcDbLine
 10
84.22994703390033
 20
103.4811100559653
 30
0.0
 11
84.22994703390033
 21
100.6811100559653
 31
0.0
  0
LINE
  5
E623
330
1F
100
AcDbEntity
  8
AM_0
100
AcDbLine
 10
78.72994703390033
 20
112.6811100559653
 30
0.0
 11
80.72994703390033
 21
112.6811100559653
 31
0.0
  0
LINE
  5
E624
330
1F
100
AcDbEntity
  8
AM_0
100
AcDbLine
 10
65.25569867554662
 20
111.8499927845383
 30
0.0
 11
78.72994703390033
 21
112.6811100559653
 31
0.0
  0
MTEXT
  5
E96F
330
1F
100
AcDbEntity
  8
AM_6
100
AcDbMText
 10
203.0024072894623
 20
66.76588810370787
 30
0.0
 40
3.2
 41
15.14056171568654
 71
     5
 72
     5
  1
{\L受け}
 73
     1
 44
1.0
1001
ACAD
1000
MTEXTBEGIN
1070
    73
1070
     1
1070
    44
1040
1.0
1070
    74
1070
     0
1000
MTEXTEND
1000
ACAD_MTEXT_DEFINED_HEIGHT_BEGIN
1070
    46
1040
7.783368869689182
1000
ACAD_MTEXT_DEFINED_HEIGHT_END
  0
LWPOLYLINE
  5
E970
330
1F
100
AcDbEntity
  8
AM_1
100
AcDbPolyline
 90
        4
 70
     1
 43
0.0
 10
52.6194779092516
 20
70.65757253855247
 10
78.0136001491328
 20
70.65757253855247
 10
78.0136001491328
 20
62.87420366886329
 10
52.6194779092516
 20
62.87420366886329
1001
GENIUS_GENREC_14
1002
{
1000
PYDIR
1011
52.6194779092516
1021
62.87420366886329
1031
0.0
1002
}
1002
{
1000
PXDIR
1011
78.0136001491328
1021
70.65757253855247
1031
0.0
1002
}
1002
{
1000
PORI
1011
52.6194779092516
1021
70.65757253855247
1031
0.0
1002
}
1002
{
1000
PINS
1011
52.6194779092516
1021
70.65757253855247
1031
0.0
1002
}
1002
{
1000
PINS2
1011
78.0136001491328
1021
62.87420366886329
1031
0.0
1002
}
1002
{
1000
C
1070
     1
1002
}
1001
GENIUS_GENOBJ-N-REC_13
1002
{
1000
OWNER
1000
GEN
1002
}
1001
GENIUS_GENODEF_13
1002
{
1000
HIER
1070
     0
1002
}
1002
{
1000
MANEDIT
1070
     0
1002
}
1002
{
1000
NOSEL
1070
     0
1002
}
1002
{
1000
BEHIND
1070
     0
1002
}
1002
{
1000
OTHER
1070
     0
1002
}
1002
{
1000
REACTOR
1002
}
  0
LWPOLYLINE
  5
E971
330
1F
100
AcDbEntity
  8
AM_1
100
AcDbPolyline
 90
        4
 70
     1
 43
0.0
 10
195.432126431619
 20
70.65757253855247
 10
210.5726881473056
 20
70.65757253855247
 10
210.5726881473056
 20
62.8742036688633
 10
195.432126431619
 20
62.8742036688633
1001
GENIUS_GENREC_14
1002
{
1000
PYDIR
1011
195.432126431619
1021
62.8742036688633
1031
0.0
1002
}
1002
{
1000
PXDIR
1011
210.5726881473056
1021
70.65757253855247
1031
0.0
1002
}
1002
{
1000
PORI
1011
195.432126431619
1021
70.65757253855247
1031
0.0
1002
}
1002
{
1000
PINS
1011
195.432126431619
1021
70.65757253855247
1031
0.0
1002
}
1002
{
1000
PINS2
1011
210.5726881473056
1021
62.8742036688633
1031
0.0
1002
}
1002
{
1000
C
1070
     1
1002
}
1001
GENIUS_GENOBJ-N-REC_13
1002
{
1000
OWNER
1000
GEN
1002
}
1001
GENIUS_GENODEF_13
1002
{
1000
HIER
1070
     0
1002
}
1002
{
1000
MANEDIT
1070
     0
1002
}
1002
{
1000
NOSEL
1070
     0
1002
}
1002
{
1000
BEHIND
1070
     0
1002
}
1002
{
1000
OTHER
1070
     0
1002
}
1002
{
1000
REACTOR
1002
}
  0
ARC
  5
E9FB
330
1F
100
AcDbEntity
  8
AM_0
100
AcDbCircle
 10
350.526014056498
 20
165.0210878203453
 30
0.0
 40
5.0
100
AcDbArc
 50
180.0000000000001
 51
201.1184797437536
1001
GENIUS_GENOBJ-N-FIL_13
1002
{
1000
OWNER
1000
GEN
1002
}
1001
GENIUS_GENODEF_13
1002
{
1000
HIER
1070
     0
1002
}
1002
{
1000
MANEDIT
1070
     0
1002
}
1002
{
1000
NOSEL
1070
     0
1002
}
1002
{
1000
BEHIND
1070
     0
1002
}
1002
{
1000
OTHER
1070
     0
1002
}
1002
{
1000
REACTOR
1002
}
  0
LINE
  5
E9FC
330
1F
100
AcDbEntity
  8
AM_0
100
AcDbLine
 10
346.026014056498
 20
179.0890443343228
 30
0.0
 11
345.526014056498
 21
198.0890443343228
 31
0.0
  0
DIMENSION
  5
EC1B
330
1F
100
AcDbEntity
  8
AM_5
100
AcDbDimension
  2
*D32
 10
176.7935114784126
 20
209.0890443343228
 30
0.0
 11
170.0435114784125
 21
212.1890443343228
 31
0.0
 70
    32
  1
<>
 71
     5
 42
13.50000000000006
  3
SYS$0
100
AcDbAlignedDimension
 13
163.2935114784125
 23
188.3390443343229
 33
0.0
 14
176.7935114784126
 24
188.3390443343225
 34
0.0
 50
180.0
100
AcDbRotatedDimension
1001
ACAD
1000
DSTYLE
1002
{
1070
   286
1070
     0
1070
   284
1070
     8
1070
   274
1070
     2
1070
   272
1070
     2
1070
    47
1040
0.2
1070
    48
1040
0.2
1002
}
1001
ACAD_DSTYLE_DIMINSPECT
1070
   396
1000
100%
1070
   395
1000

1070
   394
1070
    33
1070
   393
1070
     0
  0
MTEXT
  5
EE0A
330
1F
100
AcDbEntity
  8
AM_6
100
AcDbMText
 10
328.0675050285297
 20
66.76588810370787
 30
0.0
 40
3.2
 41
25.14056171568654
 71
     5
 72
     5
  1
{\LHK-302}
 73
     1
 44
1.0
1001
ACAD
1000
MTEXTBEGIN
1070
    73
1070
     1
1070
    44
1040
1.0
1070
    74
1070
     0
1000
MTEXTEND
1000
ACAD_MTEXT_DEFINED_HEIGHT_BEGIN
1070
    46
1040
7.783368869689182
1000
ACAD_MTEXT_DEFINED_HEIGHT_END
  0
LWPOLYLINE
  5
EE0B
330
1F
100
AcDbEntity
  8
AM_1
100
AcDbPolyline
 90
        4
 70
     1
 43
0.0
 10
315.4972241706864
 20
70.65757253855247
 10
340.637785886373
 20
70.65757253855247
 10
340.637785886373
 20
62.8742036688633
 10
315.4972241706864
 20
62.8742036688633
1001
GENIUS_GENREC_14
1002
{
1000
PYDIR
1011
315.4972241706864
1021
62.8742036688633
1031
0.0
1002
}
1002
{
1000
PXDIR
1011
340.637785886373
1021
70.65757253855247
1031
0.0
1002
}
1002
{
1000
PORI
1011
315.4972241706864
1021
70.65757253855247
1031
0.0
1002
}
1002
{
1000
PINS
1011
315.4972241706864
1021
70.65757253855247
1031
0.0
1002
}
1002
{
1000
PINS2
1011
340.637785886373
1021
62.8742036688633
1031
0.0
1002
}
1002
{
1000
C
1070
     1
1002
}
1001
GENIUS_GENOBJ-N-REC_13
1002
{
1000
OWNER
1000
GEN
1002
}
1001
GENIUS_GENODEF_13
1002
{
1000
HIER
1070
     0
1002
}
1002
{
1000
MANEDIT
1070
     0
1002
}
1002
{
1000
NOSEL
1070
     0
1002
}
1002
{
1000
BEHIND
1070
     0
1002
}
1002
{
1000
OTHER
1070
     0
1002
}
1002
{
1000
REACTOR
1002
}
  0
LINE
  5
EE15
330
1F
100
AcDbEntity
  8
size
100
AcDbLine
 10
419.9999985027327
 20
297.0000028906484
 30
0.0
 11
419.9999985027327
 21
0.0000028906483749
 31
0.0
1001
GENIUS_GENREC_14
1002
{
1000
PYDIR
1011
419.9999985027327
1021
297.0000028906484
1031
0.0
1002
}
1002
{
1000
PXDIR
1011
839.9999985027328
1021
0.0000028906483749
1031
0.0
1002
}
1002
{
1000
PORI
1011
419.9999985027327
1021
0.0000028906483749
1031
0.0
1002
}
1002
{
1000
PINS
1011
629.9999985027327
1021
148.5000028906483
1031
0.0
1002
}
1002
{
1000
HVAL
1000
297
1002
}
1002
{
1000
H
1070
     2
1002
}
1002
{
1000
WVAL
1000
420
1002
}
1002
{
1000
W
1070
     2
1002
}
1002
{
1000
C
1070
     4
1002
}
1001
GENIUS_GENOBJ-N-REC_13
1002
{
1000
OWNER
1000
GEN
1002
}
1001
GENIUS_GENODEF_13
1002
{
1000
HIER
1070
     0
1002
}
1002
{
1000
MANEDIT
1070
     0
1002
}
1002
{
1000
NOSEL
1070
     0
1002
}
1002
{
1000
BEHIND
1070
     0
1002
}
1002
{
1000
OTHER
1070
     0
1002
}
1002
{
1000
REACTOR
1002
}
  0
MTEXT
  5
EE3F
330
1F
100
AcDbEntity
  8
AM_5
 62
     2
100
AcDbMText
 10
40.57566534683791
 20
82.58111008652036
 30
0.0
 40
3.199999999999999
 41
0.0
 71
     9
 72
     5
  1
枠側
 11
0.9999999999999973
 21
-0.0000000735600285
 31
0.0
 73
     1
 44
1.0
1001
ACAD
1000
MTEXTBEGIN
1070
    73
1070
     1
1070
    44
1040
1.0
1070
    74
1070
     0
1000
MTEXTEND
  0
LEADER
  5
EE40
330
1F
100
AcDbEntity
  8
AM_5
100
AcDbLeader
  3
SYS$7
 76
     3
 10
43.64604766443743
 20
91.08111005596532
 30
0.0
 10
41.49267037773141
 20
81.08111008652048
 30
0.0
 10
35.57845217900398
 20
81.08111026232478
 30
0.0
211
-0.9999999999999975
221
0.0000000735600284
231
0.0
1001
ACAD
1000
DSTYLE
1002
{
1070
    41
1040
2.0
1070
   173
1070
     1
1070
   341
1005
A66
1070
   176
1070
     0
1002
}
  0
MTEXT
  5
EE41
330
1F
100
AcDbEntity
  8
AM_5
 62
     2
100
AcDbMText
 10
95.89389943050287
 20
82.58111008652036
 30
0.0
 40
3.199999999999999
 41
0.0
 71
     7
 72
     5
  1
扉側
 11
0.9999999999999973
 21
0.0000000735600285
 31
0.0
 73
     1
 44
1.0
1001
ACAD
1000
MTEXTBEGIN
1070
    73
1070
     1
1070
    44
1040
1.0
1070
    74
1070
     0
1000
MTEXTEND
  0
LEADER
  5
EE42
330
1F
100
AcDbEntity
  8
AM_5
100
AcDbLeader
  3
SYS$7
 76
     3
 10
91.48399382581146
 20
92.68111005596535
 30
0.0
 10
94.83784166351346
 20
81.08111005596532
 30
0.0
 10
100.8416173323935
 20
81.08111026063744
 30
0.0
211
0.9999999999999975
221
0.0000000735600284
231
0.0
1001
ACAD
1000
DSTYLE
1002
{
1070
    41
1040
2.0
1070
   173
1070
     1
1070
   341
1005
A66
1070
   176
1070
     0
1002
}
  0
DIMENSION
  5
EE5E
330
1F
100
AcDbEntity
  8
AM_5
100
AcDbDimension
  2
*D35
 10
238.2634960906988
 20
219.0890443343228
 30
0.0
 11
226.0134960906988
 21
222.1890443343228
 31
0.0
 70
    32
  1
（<>）
 71
     5
 42
24.49999999999997
  3
SYS$0
100
AcDbAlignedDimension
 13
213.7634960906988
 23
170.3390443343227
 33
0.0
 14
238.2634960906988
 24
195.0890443343227
 34
0.0
 50
180.0
100
AcDbRotatedDimension
1001
ACAD_DSTYLE_DIMINSPECT
1070
   396
1000
100%
1070
   395
1000

1070
   394
1070
    33
1070
   393
1070
     0
  0
DIMENSION
  5
EE88
330
1F
100
AcDbEntity
  8
AM_5
100
AcDbDimension
  2
*D36
 10
236.2634960906988
 20
209.0890443343228
 30
0.0
 11
229.9368294240321
 21
212.1890443343228
 31
0.0
 70
    32
  1
t=<>
 71
     5
 42
2.0
  3
SYS$0
100
AcDbAlignedDimension
 13
238.2634960906988
 23
195.0890443343227
 33
0.0
 14
236.2634960906988
 24
195.0890443343227
 34
0.0
 50
180.0
100
AcDbRotatedDimension
1001
ACAD_DSTYLE_DIMINSPECT
1070
   396
1000
100%
1070
   395
1000

1070
   394
1070
    33
1070
   393
1070
     0
  0
ENDSEC
  0
SECTION
  2
OBJECTS
  0
DICTIONARY
  5
C
330
0
100
AcDbDictionary
281
     1
  3
ACAD_2007HEADERVARS_RT
350
EEFA
  3
ACAD_BGPLOT_KEY
350
AB06
  3
ACAD_COLOR
350
A91D
  3
ACAD_GROUP
350
D
  3
ACAD_LAYOUT
350
1A
  3
ACAD_MATERIAL
350
A91C
  3
ACAD_MLINESTYLE
350
17
  3
ACAD_PLOTSETTINGS
350
19
  3
ACAD_PLOTSTYLENAME
350
E
  3
ACAD_TABLESTYLE
350
AAB9
  3
ACAD_VISUALSTYLE
350
B0F1
  3
AcAsAppObject
350
3DA1
  3
ACASGREF_MASTER
350
3DE9
  3
AcDbVariableDictionary
350
34
  3
AcmDictionary
350
47
  3
AD_GREF_MODULE
350
3DEA
  3
AD_MAPI_MODULE
350
3E06
  3
AMG
350
2B
  3
AMGSNAPSETTINGS
350
7D
  3
ASE_INDEX_DICTIONARY
350
B331
  3
DWGPROPS
350
EEF9
  3
MAPISURF_MODULE
350
3DEB
  0
DICTIONARY
  5
3F95
330
2
100
AcDbDictionary
280
     1
281
     1
  3
ACAD_LAYERFILTERS
360
B466
  3
ACAD_LAYERSTATES
360
3F96
  3
ACLYDICTIONARY
360
B465
  3
AMLAYER_GROUPCOLORS
360
AAB4
  0
DICTIONARY
  5
8A
330
1F
100
AcDbDictionary
280
     1
281
     1
  3
ACAD_SORTENTS
360
B1BA
  0
DICTIONARY
  5
DC7F
330
DC7E
100
AcDbDictionary
280
     1
281
     1
  3
ACAD_DIMASSOC
360
DC80
  0
DICTIONARY
  5
DC82
330
DC81
100
AcDbDictionary
280
     1
281
     1
  3
ACAD_DIMASSOC
360
DC83
  0
DICTIONARY
  5
DCC0
330
DCBF
100
AcDbDictionary
280
     1
281
     1
  3
ACAD_DIMASSOC
360
DCC1
  0
DICTIONARY
  5
DEE2
330
DEE1
100
AcDbDictionary
280
     1
281
     1
  3
ACAD_DIMASSOC
360
DEE3
  0
DICTIONARY
  5
DEE5
330
DEE4
100
AcDbDictionary
280
     1
281
     1
  3
ACAD_DIMASSOC
360
DEE6
  0
DICTIONARY
  5
DF84
330
DF7B
100
AcDbDictionary
280
     1
281
     1
  3
ACAD_DIMASSOC
360
DF85
  0
DICTIONARY
  5
E3D9
330
E3D8
100
AcDbDictionary
280
     1
281
     1
  3
ACAD_DIMASSOC
360
E3DA
  0
DICTIONARY
  5
EEFA
102
{ACAD_REACTORS
330
C
102
}
330
C
100
AcDbDictionary
281
     1
  3
DIMARCSYM
350
EEFB
  0
DICTIONARY
  5
AB06
102
{ACAD_REACTORS
330
C
102
}
330
C
100
AcDbDictionary
280
     1
281
     1
  0
DICTIONARY
  5
A91D
102
{ACAD_REACTORS
330
C
102
}
330
C
100
AcDbDictionary
281
     1
  0
DICTIONARY
  5
D
102
{ACAD_REACTORS
330
C
102
}
330
C
100
AcDbDictionary
281
     1
  0
DICTIONARY
  5
1A
102
{ACAD_REACTORS
330
C
102
}
330
C
100
AcDbDictionary
281
     1
  3
Model
350
22
  3
ﾚｲｱｳﾄ1
350
1E
  3
ﾚｲｱｳﾄ2
350
26
  0
DICTIONARY
  5
A91C
102
{ACAD_REACTORS
330
C
102
}
330
C
100
AcDbDictionary
281
     1
  3
ByBlock
350
B0EF
  3
ByLayer
350
B0EE
  3
Global
350
B0F0
  0
DICTIONARY
  5
17
102
{ACAD_REACTORS
330
C
102
}
330
C
100
AcDbDictionary
281
     1
  3
Standard
350
18
  0
DICTIONARY
  5
19
102
{ACAD_REACTORS
330
C
102
}
330
C
100
AcDbDictionary
281
     1
  0
ACDBDICTIONARYWDFLT
  5
E
102
{ACAD_REACTORS
330
C
102
}
330
C
100
AcDbDictionary
281
     1
  3
Normal
350
F
100
AcDbDictionaryWithDefault
340
F
  0
DICTIONARY
  5
AAB9
102
{ACAD_REACTORS
330
C
102
}
330
C
100
AcDbDictionary
281
     1
  3
Standard
350
AABA
  0
DICTIONARY
  5
B0F1
102
{ACAD_REACTORS
330
C
102
}
330
C
100
AcDbDictionary
281
     1
  3
2dWireframe
350
B0F7
  3
3D Hidden
350
B0F9
  3
3dWireframe
350
B0F8
  3
Basic
350
B0F6
  3
Brighten
350
B0FD
  3
ColorChange
350
B101
  3
Conceptual
350
B0FA
  3
Dim
350
B0FC
  3
Facepattern
350
B100
  3
Flat
350
B0F2
  3
FlatWithEdges
350
B0F3
  3
Gouraud
350
B0F4
  3
GouraudWithEdges
350
B0F5
  3
Linepattern
350
B0FF
  3
Realistic
350
B0FB
  3
Thicken
350
B0FE
  0
ACAD_PROXY_OBJECT
  5
3DA1
102
{ACAD_REACTORS
330
C
102
}
330
C
100
AcDbProxyObject
 90
      499
 91
      576
 95
   917527
 70
     0
 93
       10
310
407F
 94
        0
1001
ACAD
1000
AcRTDxfName
1000
ASAPP
  0
ACAD_PROXY_OBJECT
  5
3DE9
102
{ACAD_REACTORS
330
C
102
}
330
C
100
AcDbProxyObject
 90
      499
 91
      581
 95
   917527
 70
     0
 93
       34
310
010000407F
 94
        0
1001
ACAD
1000
AcRTDxfName
1000
ACASGREFMASTER
  0
DICTIONARY
  5
34
102
{ACAD_REACTORS
330
C
102
}
330
C
100
AcDbDictionary
281
     1
  3
CTABLESTYLE
350
AAF3
  3
DIMASSOC
350
A10C
  3
FIELDEVAL
350
AB07
  3
INDEXCTL
350
35
  3
SORTENTS
350
194C
  0
DICTIONARY
  5
47
102
{ACAD_REACTORS
330
C
102
}
330
C
100
AcDbDictionary
281
     1
  3
AcmBOM
350
7E8
  3
AcmStdDictionary
350
4C
  3
AMDTSECTSYM_ARROWCOLOR
350
A929
  0
ACAD_PROXY_OBJECT
  5
3DEA
102
{ACAD_REACTORS
330
C
102
}
330
C
100
AcDbProxyObject
 90
      499
 91
      582
 95
   917527
 70
     0
 93
      114
310
00000043800000000000000000003F
 94
        0
1001
ACAD
1000
AcRTDxfName
1000
ACADGREFMODULE
  0
ACAD_PROXY_OBJECT
  5
3E06
102
{ACAD_REACTORS
330
C
102
}
330
C
100
AcDbProxyObject
 90
      499
 91
      594
 95
   917527
 70
     0
 93
       34
310
05000044FF
 94
        0
1001
ACAD
1000
AcRTDxfName
1000
MAPIADMODULE
  0
DICTIONARY
  5
2B
102
{ACAD_REACTORS
330
C
102
}
330
C
100
AcDbDictionary
281
     1
  0
DICTIONARY
  5
7D
102
{ACAD_REACTORS
330
C
102
}
330
C
100
AcDbDictionary
281
     1
  0
DICTIONARY
  5
B331
102
{ACAD_REACTORS
330
C
102
}
330
C
100
AcDbDictionary
281
     1
  3
ASEBlockHierarchyIndexRecord
350
B332
1001
DCO15
1040
1594111214.218
  0
XRECORD
  5
EEF9
102
{ACAD_REACTORS
330
C
102
}
330
C
100
AcDbXrecord
280
     1
  1
DWGPROPS COOKIE
  2

  3

  4

  6

  7

  8
Administrator
  9

300
AmdtFileType=84
301
=
302
=
303
=
304
=
305
=
306
=
307
=
308
=
309
=
 40
0.9205741898148149
 41
2456044.409709734
 42
2456329.841266632
  1

 90
        1
  0
ACAD_PROXY_OBJECT
  5
3DEB
102
{ACAD_REACTORS
330
C
102
}
330
C
100
AcDbProxyObject
 90
      499
 91
      583
 95
   917527
 70
     0
 93
        8
310
047D
 94
        0
1001
ACAD
1000
AcRTDxfName
1000
AMDTMAPISURFMOUDULE
  0
DICTIONARY
  5
B466
102
{ACAD_REACTORS
330
3F95
102
}
330
3F95
100
AcDbDictionary
281
     1
  0
DICTIONARY
  5
3F96
102
{ACAD_REACTORS
330
3F95
102
}
330
3F95
100
AcDbDictionary
281
     1
  3
20011210
350
3FB7
  0
DICTIONARY
  5
B465
102
{ACAD_REACTORS
330
3F95
102
}
330
3F95
100
AcDbDictionary
281
     1
1001
ACAD
1000
<All
  0
DICTIONARY
  5
AAB4
102
{ACAD_REACTORS
330
3F95
102
}
330
3F95
100
AcDbDictionary
280
     1
281
     1
  0
SORTENTSTABLE
  5
B1BA
102
{ACAD_REACTORS
330
8A
102
}
330
8A
100
AcDbSortentsTable
330
1F
331
C1F6
  5
C1F9
331
BCD7
  5
BCD7
331
D1D2
  5
D16F
331
E411
  5
E414
331
C1FE
  5
C201
331
CB5C
  5
CC40
331
DC8F
  5
DC92
331
E5FF
  5
E605
331
E3E2
  5
E3E9
331
E419
  5
E41E
331
DCD6
  5
DCD9
331
C206
  5
C20B
331
DC97
  5
DC9A
331
E607
  5
E60A
331
E3EA
  5
E3ED
331
E421
  5
E424
331
C1CF
  5
C1D2
331
C20E
  5
C213
331
DC9F
  5
DCA2
331
E60F
  5
E613
331
E3F2
  5
E3F5
331
E429
  5
E42C
331
DCA7
  5
DCAA
331
E617
  5
E61B
331
B6A1
  5
B6A1
331
B6A9
  5
B6A9
331
C1D7
  5
C1DA
331
C216
  5
C5B9
331
D1F2
  5
D260
331
DC70
  5
DC73
331
E5E0
  5
E5E3
331
E3FA
  5
E3FD
331
DD06
  5
DD09
331
B6B1
  5
B6B1
331
C1DF
  5
C1E2
331
D15C
  5
D182
331
DCAF
  5
DCB2
331
E5E8
  5
E5EB
331
E61F
  5
E623
331
DED4
  5
DED7
331
DF7B
  5
E3D7
331
E402
  5
E405
331
C1E7
  5
C1EA
331
DD0E
  5
DEC7
331
E5F0
  5
E5F3
331
DEE4
  5
E3D6
331
E40A
  5
E40D
331
DCBF
  5
DCCB
331
E96F
  5
E9FA
331
BCD0
  5
BCD0
331
C1F7
  5
C1FA
331
BCD8
  5
BCD8
331
DC88
  5
DC8B
331
E5F8
  5
E5FF
331
E412
  5
E415
331
D601
  5
D994
331
C1FF
  5
C202
331
D17C
  5
D1AA
331
DC90
  5
DC93
331
E600
  5
E606
331
E3E3
  5
E3EA
331
DCD7
  5
DCDA
331
C207
  5
C20C
331
D13D
  5
D147
331
DC98
  5
DC9B
331
E608
  5
E60C
331
E3EB
  5
E3EE
331
E422
  5
E425
331
C20F
  5
C214
331
DCA0
  5
DCA3
331
E610
  5
E614
331
DEC5
  5
DEC8
331
E3F3
  5
E3F6
331
E42A
  5
E42D
331
B6A2
  5
B6A2
331
C1D0
  5
C1D3
331
B6AA
  5
B6AA
331
C1D8
  5
C1DB
331
C217
  5
C5BA
331
D155
  5
D17C
331
DC71
  5
DC74
331
DCA8
  5
DCAB
331
E5E1
  5
E5E4
331
E618
  5
E61C
331
DECD
  5
DED0
331
E3FB
  5
E3FE
331
DD07
  5
DD0A
331
C1E0
  5
C1E3
331
DCB0
  5
DCB3
331
E5E9
  5
E5EC
331
E620
  5
E624
331
DED5
  5
DEE1
331
E403
  5
E406
331
C1E8
  5
C1EB
331
D1C4
  5
D1D3
331
DC81
  5
DC86
331
E5F1
  5
E5F4
331
D1CC
  5
D208
331
E40B
  5
E40E
331
E970
  5
E9FB
331
BCD1
  5
BCD1
331
C1F8
  5
C1FB
331
BCD9
  5
BCD9
331
DC89
  5
DC8C
331
E5F9
  5
E600
331
E413
  5
E416
331
D602
  5
D1C0
331
C200
  5
C203
331
D1DC
  5
D246
331
DC91
  5
DC94
331
E601
  5
E5FD
331
E41B
  5
E421
331
DCD8
  5
DCF0
331
C208
  5
C20D
331
DC99
  5
DC9C
331
E609
  5
E60E
331
E3EC
  5
E3EF
331
E423
  5
E426
331
DCF0
  5
DCF3
331
DCA1
  5
DCA4
331
E5DA
  5
E5DD
331
E611
  5
E615
331
DEC6
  5
DEC9
331
E3F4
  5
E3F9
331
E42B
  5
E5DA
331
C1D1
  5
C1D4
331
B6A3
  5
B6A3
331
C210
  5
C215
331
C1D9
  5
C1DC
331
B6AB
  5
B6AB
331
C218
  5
C5BC
331
D1B5
  5
D1C2
331
DC72
  5
DC75
331
DCA9
  5
DCAC
331
E5E2
  5
E5E5
331
E619
  5
E61D
331
DECE
  5
DED1
331
E3FC
  5
E3FF
331
DD08
  5
DD0B
331
C1E1
  5
C1E4
331
D1BD
  5
D1CE
331
DCB1
  5
DCB4
331
E5EA
  5
E5ED
331
E621
  5
E96F
331
DED6
  5
DEE4
331
E404
  5
E407
331
C1E9
  5
C1EC
331
D16E
  5
D187
331
D1C5
  5
D1DC
331
DCB9
  5
DCBC
331
E5F2
  5
E5F5
331
E40C
  5
E40F
331
E3D5
  5
E3D8
331
E971
  5
E9FC
331
BCD2
  5
BCD2
331
C1F9
  5
C1FC
331
BCDA
  5
BCDA
331
DC8A
  5
DC8D
331
E3DD
  5
E3E1
331
E414
  5
E417
331
C201
  5
C204
331
BCE2
  5
BCE2
331
D17E
  5
D1BE
331
DC92
  5
DC95
331
E602
  5
E5F9
331
E41C
  5
E422
331
DCD9
  5
DCF1
331
C209
  5
C20E
331
DC9A
  5
DC9D
331
E60A
  5
E60F
331
E3ED
  5
E3F0
331
E424
  5
E427
331
DCF1
  5
DD03
331
D147
  5
D16E
331
DCA2
  5
DCA5
331
E5DB
  5
E5DE
331
E612
  5
E616
331
DEC7
  5
DECA
331
E3F5
  5
E3FA
331
E42C
  5
E5DB
331
C1D2
  5
C1D5
331
BA43
  5
BA43
331
C211
  5
C216
331
C1DA
  5
C1DD
331
B6AC
  5
B6AC
331
C219
  5
C5BD
331
DC73
  5
DC76
331
DCAA
  5
DCAD
331
E5E3
  5
E5E6
331
E61A
  5
E61E
331
DECF
  5
DED2
331
E3FD
  5
E400
331
DD09
  5
DD0C
331
C1E2
  5
C1E5
331
DC7B
  5
DC7E
331
DCB2
  5
DCB5
331
E5EB
  5
E5EE
331
E622
  5
E970
331
DED7
  5
DF7B
331
E405
  5
E408
331
C1EA
  5
C1ED
331
D16F
  5
D188
331
D26C
  5
D483
331
DCBA
  5
DCBE
331
E5F3
  5
E5F6
331
E40D
  5
E410
331
DCC2
  5
DCCC
331
E3D6
  5
E3DD
331
BCD3
  5
BCD3
331
DCCA
  5
DCD0
331
DC8B
  5
DC8E
331
C1FA
  5
C1FD
331
BCDB
  5
BCDB
331
E415
  5
E418
331
D138
  5
D13B
331
DC93
  5
DC96
331
DCDA
  5
DCF2
331
D140
  5
D155
331
DC9B
  5
DC9E
331
C20A
  5
C20F
331
E60B
  5
E610
331
E3EE
  5
E3F1
331
E425
  5
E428
331
DCF2
  5
DD04
331
DCA3
  5
DCA6
331
E5DC
  5
E5DF
331
E613
  5
E617
331
E3F6
  5
E3FB
331
E42D
  5
E5DC
331
D150
  5
D170
331
B6A5
  5
B6A5
331
BA44
  5
BA44
331
C1D3
  5
C1D6
331
C212
  5
C217
331
DEC8
  5
DECB
331
D158
  5
D17E
331
DC74
  5
DC77
331
DCAB
  5
DCAE
331
B6AD
  5
B6AD
331
C1DB
  5
C1DE
331
C21A
  5
C5BE
331
E5E4
  5
E5E7
331
E61B
  5
E61F
331
DED0
  5
DED3
331
E3FE
  5
E401
331
DD0A
  5
DD0D
331
DC7C
  5
DC81
331
DCB3
  5
DCB9
331
C1E3
  5
C1E6
331
E406
  5
E409
331
D26D
  5
D484
331
DC84
  5
DC87
331
DCBB
  5
DCBF
331
C1EB
  5
C1EE
331
E5EC
  5
E5EF
331
E623
  5
E971
331
D1CF
  5
D21E
331
E40E
  5
E411
331
E5F4
  5
E5F7
331
E3D7
  5
E3DF
331
D170
  5
D189
331
DCCB
  5
DCD1
331
CB59
  5
CB5C
331
DC8C
  5
DC8F
331
C1FB
  5
C1FE
331
BCDC
  5
BCDC
331
E3DF
  5
E3E2
331
E416
  5
E419
331
D139
  5
D13D
331
D21E
  5
D26D
331
DC94
  5
DC97
331
C203
  5
C206
331
E5FC
  5
E601
331
E41E
  5
E423
331
D141
  5
D15C
331
D1A8
  5
D1C3
331
DC9C
  5
DC9F
331
C20B
  5
C210
331
E604
  5
E607
331
E3EF
  5
E3F2
331
E426
  5
E429
331
DCF3
  5
DD05
331
D246
  5
D26E
331
DCA4
  5
DCA7
331
E9FB
  5
C209
331
E5DD
  5
E5E0
331
E614
  5
E618
331
B6A6
  5
B6A6
331
BA45
  5
BA45
331
C1D4
  5
C1D7
331
C213
  5
C218
331
DEC9
  5
DECD
331
DD03
  5
DD06
331
DC75
  5
DC7B
331
DCAC
  5
DCAF
331
B6AE
  5
B6AE
331
DED1
  5
DED4
331
E3FF
  5
E402
331
DD0B
  5
DD0E
331
DC7D
  5
DC84
331
DCB4
  5
DCBA
331
C1E4
  5
C1E7
331
E5E5
  5
E5E8
331
E61C
  5
E620
331
DEE1
  5
E3D5
331
E407
  5
E40A
331
D26E
  5
D485
331
DC85
  5
DC88
331
DCBC
  5
DCC2
331
C1EC
  5
C1EF
331
E5ED
  5
E5F0
331
E624
  5
E60B
331
E40F
  5
E412
331
E5F5
  5
E5F8
331
C1F4
  5
C1F7
331
BCD5
  5
BCD5
331
E3D8
  5
E3E0
331
DC8D
  5
DC90
331
CB5A
  5
CC2B
331
C1FC
  5
C1FF
331
BCDD
  5
BCDD
331
D5FE
  5
D97F
331
E3E0
  5
E3E3
331
E417
  5
E41B
331
DCD4
  5
DCD8
331
DC95
  5
DC98
331
E5FD
  5
E602
331
C204
  5
C207
331
D13A
  5
D140
331
E3E8
  5
E3EB
331
DC9D
  5
DCA0
331
E605
  5
E608
331
C20C
  5
C211
331
D1A9
  5
D1C8
331
E3F0
  5
E3F3
331
E427
  5
E42A
331
DC6E
  5
DC71
331
DCA5
  5
DCA8
331
E60D
  5
E611
331
E9FC
  5
C5BB
331
E5DE
  5
E5E1
331
E615
  5
E619
331
B6A7
  5
B6A7
331
C1D5
  5
C1D8
331
C214
  5
C219
331
DECA
  5
DECE
331
DD04
  5
DD07
331
DC76
  5
DC7C
331
DCAD
  5
DCB0
331
B6AF
  5
B6AF
331
C1DD
  5
C1E0
331
E5E6
  5
E5E9
331
E61D
  5
E621
331
DD0C
  5
DEC5
331
DC7E
  5
DC85
331
DCB5
  5
DCBB
331
C1E5
  5
C1E8
331
D208
  5
D26C
331
DED2
  5
DED5
331
E400
  5
E403
331
E5EE
  5
E5F1
331
DC86
  5
DC89
331
D1C9
  5
D1CF
331
D26F
  5
D486
331
E408
  5
E40B
331
E5F6
  5
E5FC
331
C1F5
  5
C1F8
331
BCD6
  5
BCD6
331
E410
  5
E413
331
D5FF
  5
D97E
331
D17A
  5
D1A8
331
C1FD
  5
C200
331
BCDE
  5
BCDE
331
CB5B
  5
CC2C
331
DC8E
  5
DC91
331
E5FE
  5
E604
331
E3E1
  5
E3E8
331
E418
  5
E41C
331
C205
  5
C20A
331
D13B
  5
D141
331
D182
  5
D1C1
331
DC96
  5
DC99
331
E606
  5
E609
331
E3E9
  5
E3EC
331
C1CE
  5
C1D1
331
C20D
  5
C212
331
DC9E
  5
DCA1
331
E60E
  5
E612
331
E3F1
  5
E3F4
331
E428
  5
E42B
331
DC6F
  5
DC72
331
DCA6
  5
DCA9
331
E5DF
  5
E5E2
331
E616
  5
E61A
331
B6A8
  5
B6A8
331
BA47
  5
BA47
331
C1D6
  5
C1D9
331
C215
  5
C21A
331
D153
  5
D17A
331
DECB
  5
DECF
331
E3F9
  5
E3FC
331
DD05
  5
DD08
331
B6B0
  5
B6B0
331
C1DE
  5
C1E1
331
D260
  5
D26F
331
DC77
  5
DC7D
331
DCAE
  5
DCB1
331
E5E7
  5
E5EA
331
E61E
  5
E622
331
DED3
  5
DED6
331
E401
  5
E404
331
BCCF
  5
BCCF
331
C1E6
  5
C1E9
331
DD0D
  5
DEC6
331
E5EF
  5
E5F2
331
E409
  5
E40C
331
D1CA
  5
D1F2
331
DC87
  5
DC8A
331
E5F7
  5
E5FE
  0
DIMASSOC
  5
DC80
102
{ACAD_REACTORS
330
DC7F
102
}
330
DC7F
100
AcDbDimAssoc
330
DC7E
 90
        3
 70
     0
 71
     0
  1
AcDbOsnapPointRef
 72
    13
331
DC7C
 73
     0
 91
        0
 40
0.0
 10
0.0
 20
0.0
 30
2.000000000000000E+50
 75
     0
  1
AcDbOsnapPointRef
 72
    13
331
DC7D
 73
     0
 91
        0
 40
0.0
 10
0.0
 20
0.0
 30
2.000000000000000E+50
 75
     0
  0
DIMASSOC
  5
DC83
102
{ACAD_REACTORS
330
DC82
102
}
330
DC82
100
AcDbDimAssoc
330
DC81
 90
        3
 70
     0
 71
     0
  1
AcDbOsnapPointRef
 72
     2
331
DC76
 73
     0
 91
        0
 40
0.0
 10
0.0
 20
0.0
 30
0.0
 75
     0
  1
AcDbOsnapPointRef
 72
     2
331
DC77
 73
     0
 91
        0
 40
0.0
 10
0.0
 20
0.0
 30
0.0
 75
     0
  0
DIMASSOC
  5
DCC1
102
{ACAD_REACTORS
330
DCC0
102
}
330
DCC0
100
AcDbDimAssoc
330
DCBF
 90
        3
 70
     0
 71
     0
  1
AcDbOsnapPointRef
 72
     1
331
DC9D
 73
     0
 91
        0
 40
0.0
 10
0.0
 20
0.0
 30
2.000000000000000E+50
 75
     0
  1
AcDbOsnapPointRef
 72
     1
331
DC9E
 73
     0
 91
        0
 40
0.0
 10
0.0
 20
0.0
 30
2.000000000000000E+50
 75
     0
  0
DIMASSOC
  5
DEE3
102
{ACAD_REACTORS
330
DEE2
102
}
330
DEE2
100
AcDbDimAssoc
330
DEE1
 90
        1
 70
     0
 71
     0
  1
AcDbOsnapPointRef
 72
     1
331
DEC8
 73
     0
 91
        0
 40
0.0
 10
0.0
 20
0.0
 30
2.000000000000000E+50
 75
     0
  0
DIMASSOC
  5
DEE6
102
{ACAD_REACTORS
330
DEE5
102
}
330
DEE5
100
AcDbDimAssoc
330
DEE4
 90
        2
 70
     0
 71
     0
  1
AcDbOsnapPointRef
 72
    13
331
DED4
 73
     0
 91
        0
 40
0.0
 10
0.0
 20
0.0
 30
2.000000000000000E+50
 75
     0
  0
DIMASSOC
  5
DF85
102
{ACAD_REACTORS
330
DF84
102
}
330
DF84
100
AcDbDimAssoc
330
DF7B
 90
        2
 70
     0
 71
     0
  1
AcDbOsnapPointRef
 72
     3
331
DC6E
 73
     2
 91
        0
 40
0.0
 10
0.0
 20
0.0
 30
0.0
 75
     0
  0
DIMASSOC
  5
E3DA
102
{ACAD_REACTORS
330
E3D9
102
}
330
E3D9
100
AcDbDimAssoc
330
E3D8
 90
        1
 70
     0
 71
     0
  1
AcDbOsnapPointRef
 72
    13
331
E3D5
 73
     0
 91
        0
 40
0.0
 10
0.0
 20
0.0
 30
2.000000000000000E+50
 75
     0
  0
XRECORD
  5
EEFB
102
{ACAD_REACTORS
330
EEFA
102
}
330
EEFA
100
AcDbXrecord
280
     1
 70
     1
  0
LAYOUT
  5
22
102
{ACAD_XDICTIONARY
360
EEFE
102
}
102
{ACAD_REACTORS
330
1A
102
}
330
1A
100
AcDbPlotSettings
  1

  2
DocuCentre-II C5400
  4
A4
  6
AM_VIEW1
 40
4.857749938964843
 41
4.942390441894531
 42
4.942413330078125
 43
4.857757568359375
 44
209.9733276367187
 45
297.0106506347656
 46
0.0
 47
2.068670330503522
 48
-0.0000014972672213
 49
0.0000028906484317
140
419.9999988461206
141
297.0000028906484
142
1.0
143
1.483715366833457
 70
  3764
 72
     1
 73
     1
 74
     4
  7
monochrome.ctb
 75
     0
147
0.6739837184096828
148
0.0000014972672213
149
-0.0000028906484317
100
AcDbLayout
  1
Model
 70
     1
 71
     0
 10
0.0
 20
0.0
 11
12.0
 21
9.0
 12
0.0
 22
0.0
 32
0.0
 14
0.0
 24
0.0
 34
0.0
 15
0.0
 25
0.0
 35
0.0
146
0.0
 13
0.0
 23
0.0
 33
0.0
 16
1.0
 26
0.0
 36
0.0
 17
0.0
 27
1.0
 37
0.0
 76
     0
330
1F
331
B0EC
1001
ACAD_PSEXT
1000
DocuCentre-II C5400
1000
FX DocuCentre-II C5400
1000
192.168.2.200
1000

1070
     0
  0
LAYOUT
  5
1E
102
{ACAD_XDICTIONARY
360
EEFC
102
}
102
{ACAD_REACTORS
330
1A
102
}
330
1A
100
AcDbPlotSettings
  1

  2
\\ML370\XEROX
  4
A4
  6

 40
3.174999952316284
 41
3.174999952316284
 42
3.175003051757812
 43
3.17498779296875
 44
209.8674926757813
 45
296.6719970703125
 46
0.0
 47
0.0
 48
0.0
 49
0.0
140
0.0
141
0.0
142
1.0
143
1.0
 70
   688
 72
     1
 73
     1
 74
     5
  7
monochrome.ctb
 75
    16
147
1.0
148
0.0
149
0.0
100
AcDbLayout
  1
ﾚｲｱｳﾄ1
 70
     1
 71
     1
 10
-3.17498779296875
 20
-3.174999952316284
 11
293.4970092773438
 21
206.692492723465
 12
0.0
 22
0.0
 32
0.0
 14
1.000000000000000E+20
 24
1.000000000000000E+20
 34
1.000000000000000E+20
 15
-1.000000000000000E+20
 25
-1.000000000000000E+20
 35
-1.000000000000000E+20
146
0.0
 13
0.0
 23
0.0
 33
0.0
 16
1.0
 26
0.0
 36
0.0
 17
0.0
 27
1.0
 37
0.0
 76
     0
330
1B
  0
LAYOUT
  5
26
102
{ACAD_XDICTIONARY
360
EF00
102
}
102
{ACAD_REACTORS
330
1A
102
}
330
1A
100
AcDbPlotSettings
  1

  2
\\ML370\XEROX
  4

  6

 40
0.0
 41
0.0
 42
0.0
 43
0.0
 44
0.0
 45
0.0
 46
0.0
 47
0.0
 48
0.0
 49
0.0
140
0.0
141
0.0
142
1.0
143
1.0
 70
   688
 72
     0
 73
     0
 74
     5
  7
monochrome.ctb
 75
    16
147
1.0
148
0.0
149
0.0
100
AcDbLayout
  1
ﾚｲｱｳﾄ2
 70
     1
 71
     2
 10
0.0
 20
0.0
 11
12.0
 21
9.0
 12
0.0
 22
0.0
 32
0.0
 14
0.0
 24
0.0
 34
0.0
 15
0.0
 25
0.0
 35
0.0
146
0.0
 13
0.0
 23
0.0
 33
0.0
 16
1.0
 26
0.0
 36
0.0
 17
0.0
 27
1.0
 37
0.0
 76
     0
330
23
  0
MATERIAL
  5
B0EF
102
{ACAD_XDICTIONARY
360
EF06
102
}
102
{ACAD_REACTORS
330
A91C
102
}
330
A91C
100
AcDbMaterial
  1
ByBlock
  0
MATERIAL
  5
B0EE
102
{ACAD_XDICTIONARY
360
EF04
102
}
102
{ACAD_REACTORS
330
A91C
102
}
330
A91C
100
AcDbMaterial
  1
ByLayer
  0
MATERIAL
  5
B0F0
102
{ACAD_XDICTIONARY
360
EF08
102
}
102
{ACAD_REACTORS
330
A91C
102
}
330
A91C
100
AcDbMaterial
  1
Global
  0
MLINESTYLE
  5
18
102
{ACAD_REACTORS
330
17
102
}
330
17
100
AcDbMlineStyle
  2
STANDARD
 70
     0
  3

 62
   256
 51
90.0
 52
90.0
 71
     2
 49
0.5
 62
   256
  6
BYLAYER
 49
-0.5
 62
   256
  6
BYLAYER
  0
ACDBPLACEHOLDER
  5
F
102
{ACAD_REACTORS
330
E
102
}
330
E
  0
TABLESTYLE
  5
AABA
102
{ACAD_XDICTIONARY
360
EF02
102
}
102
{ACAD_REACTORS
330
AAB9
102
}
330
AAB9
100
AcDbTableStyle
  3
Standard
 70
     0
 71
     0
 40
1.5
 41
1.5
280
     0
281
     0
  7
STANDARD
140
4.5
170
     2
 62
     0
 63
     7
283
     0
274
    -2
284
     1
 64
     0
275
    -2
285
     1
 65
     0
276
    -2
286
     1
 66
     0
277
    -2
287
     1
 67
     0
278
    -2
288
     1
 68
     0
279
    -2
289
     1
 69
     0
  7
STANDARD
140
6.0
170
     5
 62
     0
 63
     7
283
     0
274
    -2
284
     1
 64
     0
275
    -2
285
     1
 65
     0
276
    -2
286
     1
 66
     0
277
    -2
287
     1
 67
     0
278
    -2
288
     1
 68
     0
279
    -2
289
     1
 69
     0
  7
STANDARD
140
4.5
170
     5
 62
     0
 63
     7
283
     0
274
    -2
284
     1
 64
     0
275
    -2
285
     1
 65
     0
276
    -2
286
     1
 66
     0
277
    -2
287
     1
 67
     0
278
    -2
288
     1
 68
     0
279
    -2
289
     1
 69
     0
  0
VISUALSTYLE
  5
B0F7
102
{ACAD_REACTORS
330
B0F1
102
}
330
B0F1
100
AcDbVisualStyle
  2
2dWireframe
 70
     4
 71
     0
 72
     2
 73
     0
 90
        0
 40
-0.6
 41
-30.0
 62
     5
 63
     7
 74
     1
 91
        4
 64
     7
 65
   257
 75
     1
175
     1
 42
1.0
 92
        0
 66
   257
 43
1.0
 76
     1
 77
     6
 78
     2
 67
     7
 79
     5
170
     0
171
     0
290
     0
174
     0
 93
        1
 44
0.0
173
     0
291
     0
 45
0.0
1001
ACAD
1000
AcDbSavedByObjectVersion
1070
     0
  0
VISUALSTYLE
  5
B0F9
102
{ACAD_REACTORS
330
B0F1
102
}
330
B0F1
100
AcDbVisualStyle
  2
3D Hidden
 70
     6
 71
     1
 72
     2
 73
     2
 90
        0
 40
-0.6
 41
-30.0
 62
     5
 63
     7
 74
     2
 91
        2
 64
     7
 65
   257
 75
     2
175
     1
 42
40.0
 92
        0
 66
   257
 43
1.0
 76
     1
 77
     6
 78
     2
 67
     7
 79
     3
170
     0
171
     0
290
     0
174
     0
 93
        1
 44
0.0
173
     0
291
     0
 45
0.0
1001
ACAD
1000
AcDbSavedByObjectVersion
1070
     0
  0
VISUALSTYLE
  5
B0F8
102
{ACAD_REACTORS
330
B0F1
102
}
330
B0F1
100
AcDbVisualStyle
  2
3dWireframe
 70
     5
 71
     0
 72
     2
 73
     0
 90
        0
 40
-0.6
 41
-30.0
 62
     5
 63
     7
 74
     1
 91
        4
 64
     7
 65
   257
 75
     1
175
     1
 42
1.0
 92
        0
 66
   257
 43
1.0
 76
     1
 77
     6
 78
     2
 67
     7
 79
     5
170
     0
171
     0
290
     0
174
     0
 93
        1
 44
0.0
173
     0
291
     0
 45
0.0
1001
ACAD
1000
AcDbSavedByObjectVersion
1070
     0
  0
VISUALSTYLE
  5
B0F6
102
{ACAD_REACTORS
330
B0F1
102
}
330
B0F1
100
AcDbVisualStyle
  2
Basic
 70
     7
 71
     1
 72
     0
 73
     1
 90
        0
 40
-0.6
 41
-30.0
 62
     5
 63
     7
 74
     0
 91
        4
 64
     7
 65
   257
 75
     1
175
     1
 42
1.0
 92
        8
 66
     7
 43
1.0
 76
     1
 77
     6
 78
     2
 67
     7
 79
     5
170
     0
171
     0
290
     0
174
     0
 93
        1
 44
0.0
173
     0
291
     1
 45
0.0
1001
ACAD
1000
AcDbSavedByObjectVersion
1070
     0
  0
VISUALSTYLE
  5
B0FD
102
{ACAD_REACTORS
330
B0F1
102
}
330
B0F1
100
AcDbVisualStyle
  2
Brighten
 70
    12
 71
     2
 72
     2
 73
     0
 90
        0
 40
-0.6
 41
-30.0
 62
     5
 63
     7
 74
     1
 91
        4
 64
     7
 65
   257
 75
     1
175
     1
 42
1.0
 92
        8
 66
     7
 43
1.0
 76
     1
 77
     6
 78
     2
 67
     7
 79
     5
170
     0
171
     0
290
     0
174
     0
 93
        1
 44
50.0
173
     0
291
     1
 45
0.0
1001
ACAD
1000
AcDbSavedByObjectVersion
1070
     0
  0
VISUALSTYLE
  5
B101
102
{ACAD_REACTORS
330
B0F1
102
}
330
B0F1
100
AcDbVisualStyle
  2
ColorChange
 70
    16
 71
     2
 72
     2
 73
     3
 90
        0
 40
-0.6
 41
-30.0
 62
     5
 63
     8
 74
     1
 91
        4
 64
     7
 65
   257
 75
     1
175
     1
 42
1.0
 92
        8
 66
     8
 43
1.0
 76
     1
 77
     6
 78
     2
 67
     7
 79
     5
170
     0
171
     0
290
     0
174
     0
 93
        1
 44
0.0
173
     0
291
     1
 45
0.0
1001
ACAD
1000
AcDbSavedByObjectVersion
1070
     0
  0
VISUALSTYLE
  5
B0FA
102
{ACAD_REACTORS
330
B0F1
102
}
330
B0F1
100
AcDbVisualStyle
  2
Conceptual
 70
     9
 71
     3
 72
     2
 73
     0
 90
        0
 40
-0.6
 41
-30.0
 62
     5
 63
     7
 74
     2
 91
        2
 64
     7
 65
   257
 75
     1
175
     1
 42
40.0
 92
        8
 66
     7
 43
1.0
 76
     1
 77
     6
 78
     2
 67
     7
 79
     3
170
     0
171
     0
290
     0
174
     0
 93
        1
 44
0.0
173
     0
291
     0
 45
0.0
1001
ACAD
1000
AcDbSavedByObjectVersion
1070
     0
  0
VISUALSTYLE
  5
B0FC
102
{ACAD_REACTORS
330
B0F1
102
}
330
B0F1
100
AcDbVisualStyle
  2
Dim
 70
    11
 71
     2
 72
     2
 73
     0
 90
        0
 40
-0.6
 41
-30.0
 62
     5
 63
     7
 74
     1
 91
        4
 64
     7
 65
   257
 75
     1
175
     1
 42
1.0
 92
        8
 66
     7
 43
1.0
 76
     1
 77
     6
 78
     2
 67
     7
 79
     5
170
     0
171
     0
290
     0
174
     0
 93
        1
 44
-50.0
173
     0
291
     1
 45
0.0
1001
ACAD
1000
AcDbSavedByObjectVersion
1070
     0
  0
VISUALSTYLE
  5
B100
102
{ACAD_REACTORS
330
B0F1
102
}
330
B0F1
100
AcDbVisualStyle
  2
Facepattern
 70
    15
 71
     2
 72
     2
 73
     0
 90
        0
 40
-0.6
 41
-30.0
 62
     5
 63
     7
 74
     1
 91
        4
 64
     7
 65
   257
 75
     1
175
     1
 42
1.0
 92
        8
 66
     7
 43
1.0
 76
     1
 77
     6
 78
     2
 67
     7
 79
     5
170
     0
171
     0
290
     0
174
     0
 93
        1
 44
0.0
173
     0
291
     1
 45
0.0
1001
ACAD
1000
AcDbSavedByObjectVersion
1070
     0
  0
VISUALSTYLE
  5
B0F2
102
{ACAD_REACTORS
330
B0F1
102
}
330
B0F1
100
AcDbVisualStyle
  2
Flat
 70
     0
 71
     2
 72
     1
 73
     1
 90
        2
 40
-0.6
 41
30.0
 62
     5
 63
     7
 74
     0
 91
        4
 64
     7
 65
   257
 75
     1
175
     1
 42
1.0
 92
        8
 66
     7
 43
1.0
 76
     1
 77
     6
 78
     2
 67
     7
 79
     5
170
     0
171
     0
290
     0
174
     0
 93
       13
 44
0.0
173
     0
291
     1
 45
0.0
1001
ACAD
1000
AcDbSavedByObjectVersion
1070
     0
  0
VISUALSTYLE
  5
B0F3
102
{ACAD_REACTORS
330
B0F1
102
}
330
B0F1
100
AcDbVisualStyle
  2
FlatWithEdges
 70
     1
 71
     2
 72
     1
 73
     1
 90
        2
 40
-0.6
 41
30.0
 62
     5
 63
     7
 74
     1
 91
        4
 64
     7
 65
   257
 75
     1
175
     1
 42
1.0
 92
        0
 66
   257
 43
1.0
 76
     1
 77
     6
 78
     2
 67
     7
 79
     5
170
     0
171
     0
290
     0
174
     0
 93
       13
 44
0.0
173
     0
291
     1
 45
0.0
1001
ACAD
1000
AcDbSavedByObjectVersion
1070
     0
  0
VISUALSTYLE
  5
B0F4
102
{ACAD_REACTORS
330
B0F1
102
}
330
B0F1
100
AcDbVisualStyle
  2
Gouraud
 70
     2
 71
     2
 72
     2
 73
     1
 90
        2
 40
-0.6
 41
30.0
 62
     5
 63
     7
 74
     0
 91
        4
 64
     7
 65
   257
 75
     1
175
     1
 42
1.0
 92
        0
 66
     7
 43
1.0
 76
     1
 77
     6
 78
     2
 67
     7
 79
     5
170
     0
171
     0
290
     0
174
     0
 93
       13
 44
0.0
173
     0
291
     1
 45
0.0
1001
ACAD
1000
AcDbSavedByObjectVersion
1070
     0
  0
VISUALSTYLE
  5
B0F5
102
{ACAD_REACTORS
330
B0F1
102
}
330
B0F1
100
AcDbVisualStyle
  2
GouraudWithEdges
 70
     3
 71
     2
 72
     2
 73
     1
 90
        2
 40
-0.6
 41
30.0
 62
     5
 63
     7
 74
     1
 91
        4
 64
     7
 65
   257
 75
     1
175
     1
 42
1.0
 92
        0
 66
   257
 43
1.0
 76
     1
 77
     6
 78
     2
 67
     7
 79
     5
170
     0
171
     0
290
     0
174
     0
 93
       13
 44
0.0
173
     0
291
     1
 45
0.0
1001
ACAD
1000
AcDbSavedByObjectVersion
1070
     0
  0
VISUALSTYLE
  5
B0FF
102
{ACAD_REACTORS
330
B0F1
102
}
330
B0F1
100
AcDbVisualStyle
  2
Linepattern
 70
    14
 71
     2
 72
     2
 73
     0
 90
        0
 40
-0.6
 41
-30.0
 62
     5
 63
     7
 74
     1
 91
        4
 64
     7
 65
   257
 75
     7
175
     7
 42
1.0
 92
        8
 66
     7
 43
1.0
 76
     1
 77
     6
 78
     2
 67
     7
 79
     5
170
     0
171
     0
290
     0
174
     0
 93
        1
 44
0.0
173
     0
291
     1
 45
0.0
1001
ACAD
1000
AcDbSavedByObjectVersion
1070
     0
  0
VISUALSTYLE
  5
B0FB
102
{ACAD_REACTORS
330
B0F1
102
}
330
B0F1
100
AcDbVisualStyle
  2
Realistic
 70
     8
 71
     2
 72
     2
 73
     0
 90
        0
 40
-0.6
 41
-30.0
 62
     5
 63
     7
 74
     1
 91
        0
 64
     7
 65
   257
 75
     1
175
     1
 42
1.0
 92
        8
 66
     8
 43
1.0
 76
     1
 77
     6
 78
     2
 67
     7
 79
     5
170
     0
171
     0
290
     0
174
     0
 93
       13
 44
0.0
173
     0
291
     0
 45
0.0
1001
ACAD
1000
AcDbSavedByObjectVersion
1070
     0
  0
VISUALSTYLE
  5
B0FE
102
{ACAD_REACTORS
330
B0F1
102
}
330
B0F1
100
AcDbVisualStyle
  2
Thicken
 70
    13
 71
     2
 72
     2
 73
     0
 90
        0
 40
-0.6
 41
-30.0
 62
     5
 63
     7
 74
     1
 91
        4
 64
     7
 65
   257
 75
     1
175
     1
 42
1.0
 92
       12
 66
     7
 43
1.0
 76
     1
 77
     6
 78
     2
 67
     7
 79
     5
170
     0
171
     0
290
     0
174
     0
 93
        1
 44
0.0
173
     0
291
     1
 45
0.0
1001
ACAD
1000
AcDbSavedByObjectVersion
1070
     0
  0
DICTIONARYVAR
  5
AAF3
102
{ACAD_REACTORS
330
34
102
}
330
34
100
DictionaryVariables
280
     0
  1
STANDARD
  0
DICTIONARYVAR
  5
A10C
102
{ACAD_REACTORS
330
34
102
}
330
34
100
DictionaryVariables
280
     0
  1
2
  0
DICTIONARYVAR
  5
AB07
102
{ACAD_REACTORS
330
34
102
}
330
34
100
DictionaryVariables
280
     0
  1
4
  0
DICTIONARYVAR
  5
35
102
{ACAD_REACTORS
330
34
102
}
330
34
100
DictionaryVariables
280
     0
  1
0
  0
DICTIONARYVAR
  5
194C
102
{ACAD_REACTORS
330
34
102
}
330
34
100
DictionaryVariables
280
     0
  1
127
  0
DICTIONARY
  5
7E8
102
{ACAD_REACTORS
330
47
102
}
330
47
100
AcDbDictionary
281
     1
  0
DICTIONARY
  5
4C
102
{ACAD_REACTORS
330
47
102
}
330
47
100
AcDbDictionary
281
     1
  0
XRECORD
  5
A929
102
{ACAD_REACTORS
330
47
102
}
330
47
100
AcDbXrecord
280
     1
 90
-1023410169
  0
XRECORD
  5
B332
102
{ACAD_REACTORS
330
B331
102
}
330
B331
100
AcDbXrecord
280
     1
  0
XRECORD
  5
3FB7
102
{ACAD_REACTORS
330
3F96
102
}
330
3F96
100
AcDbXrecord
280
     1
 91
        3
330
0
 90
        8
 62
     7
370
    40
331
16
  1
Color_7
330
0
 90
        0
 62
    14
370
    -3
331
16
  1
Color_14
330
0
 90
        8
 62
     7
370
    20
331
16
  1
Color_7
330
6D1
 90
        0
 62
     7
370
    -3
331
16
  1
Color_7
330
0
 90
        8
 62
     7
370
    50
331
16
  1
Color_7
330
0
 90
        8
 62
     2
370
    35
331
16
  1
Color_2
330
0
 90
        8
 62
     7
370
    -3
331
16
  1
Color_7
330
10
 90
        8
 62
     7
370
    -3
331
16
  1
Color_7
  0
DICTIONARY
  5
EEFE
330
22
100
AcDbDictionary
280
     1
281
     1
  3
ACAD_XREC_ROUNDTRIP
360
EEFF
  0
DICTIONARY
  5
EEFC
330
1E
100
AcDbDictionary
280
     1
281
     1
  3
ACAD_XREC_ROUNDTRIP
360
EEFD
  0
DICTIONARY
  5
EF00
330
26
100
AcDbDictionary
280
     1
281
     1
  3
ACAD_XREC_ROUNDTRIP
360
EF01
  0
DICTIONARY
  5
EF06
330
B0EF
100
AcDbDictionary
280
     1
281
     1
  3
ACAD_XREC_ROUNDTRIP
360
EF07
  0
DICTIONARY
  5
EF04
330
B0EE
100
AcDbDictionary
280
     1
281
     1
  3
ACAD_XREC_ROUNDTRIP
360
EF05
  0
DICTIONARY
  5
EF08
330
B0F0
100
AcDbDictionary
280
     1
281
     1
  3
ACAD_XREC_ROUNDTRIP
360
EF09
  0
DICTIONARY
  5
EF02
330
AABA
100
AcDbDictionary
280
     1
281
     1
  3
ACAD_XREC_ROUNDTRIP
360
EF03
  0
XRECORD
  5
EEFF
102
{ACAD_REACTORS
330
EEFE
102
}
330
EEFE
100
AcDbXrecord
280
     1
102
SHADEPLOT
 70
     0
102
SHADEPLOTRESLEVEL
 70
     2
102
SHADEPLOTCUSTOMDPI
 70
   200
  0
XRECORD
  5
EEFD
102
{ACAD_REACTORS
330
EEFC
102
}
330
EEFC
100
AcDbXrecord
280
     1
102
SHADEPLOT
 70
     0
102
SHADEPLOTRESLEVEL
 70
     2
102
SHADEPLOTCUSTOMDPI
 70
   300
  0
XRECORD
  5
EF01
102
{ACAD_REACTORS
330
EF00
102
}
330
EF00
100
AcDbXrecord
280
     1
102
SHADEPLOT
 70
     0
102
SHADEPLOTRESLEVEL
 70
     2
102
SHADEPLOTCUSTOMDPI
 70
   300
  0
XRECORD
  5
EF07
102
{ACAD_REACTORS
330
EF06
102
}
330
EF06
100
AcDbXrecord
280
     1
102
MATERIAL
148
0.0
149
0.0
149
0.0
 93
        0
 94
       63
282
     0
 72
     1
 77
     1
171
     1
175
     1
179
     1
273
     0
  0
XRECORD
  5
EF05
102
{ACAD_REACTORS
330
EF04
102
}
330
EF04
100
AcDbXrecord
280
     1
102
MATERIAL
148
0.0
149
0.0
149
0.0
 93
        0
 94
       63
282
     0
 72
     1
 77
     1
171
     1
175
     1
179
     1
273
     0
  0
XRECORD
  5
EF09
102
{ACAD_REACTORS
330
EF08
102
}
330
EF08
100
AcDbXrecord
280
     1
102
MATERIAL
148
0.0
149
0.0
149
0.0
 93
        0
 94
       63
282
     0
 72
     1
 77
     1
171
     1
175
     1
179
     1
273
     0
  0
XRECORD
  5
EF03
102
{ACAD_REACTORS
330
EF02
102
}
330
EF02
100
AcDbXrecord
280
     1
102
ACAD_ROUNDTRIP_PRE2007_TABLESTYLE
 90
        4
 91
        0
  1

 92
        4
 93
        0
  2

 94
        4
 95
        0
  3

  0
ENDSEC
  0
EOF
