  0
SECTION
  2
HEADER
  9
$ACADVER
  1
AC1015
  9
$ACADMAINTVER
 70
    20
  9
$DWGCODEPAGE
  3
ANSI_932
  9
$INSBASE
 10
0.0
 20
0.0
 30
0.0
  9
$EXTMIN
 10
-0.0000000000145519
 20
-37.62556250749322
 30
0.0
  9
$EXTMAX
 10
1457.98365609191
 20
925.0977720492212
 30
0.0
  9
$LIMMIN
 10
0.0
 20
0.0
  9
$LIMMAX
 10
1188.000000000014
 20
840.0000000000291
  9
$ORTHOMODE
 70
     1
  9
$REGENMODE
 70
     1
  9
$FILLMODE
 70
     1
  9
$QTEXTMODE
 70
     0
  9
$MIRRTEXT
 70
     0
  9
$LTSCALE
 40
1.0
  9
$ATTMODE
 70
     1
  9
$TEXTSIZE
 40
3.2
  9
$TRACEWID
 40
1.0
  9
$TEXTSTYLE
  7
STANDARD
  9
$CLAYER
  8
0
  9
$CELTYPE
  6
ByLayer
  9
$CECOLOR
 62
   256
  9
$CELTSCALE
 40
1.0
  9
$DISPSILH
 70
     0
  9
$DIMSCALE
 40
2.0
  9
$DIMASZ
 40
1.0
  9
$DIMEXO
 40
1.0
  9
$DIMDLI
 40
10.0
  9
$DIMRND
 40
0.0
  9
$DIMDLE
 40
0.0
  9
$DIMEXE
 40
0.0
  9
$DIMTP
 40
0.1
  9
$DIMTM
 40
0.1
  9
$DIMTXT
 40
3.5
  9
$DIMCEN
 40
0.0
  9
$DIMTSZ
 40
0.0
  9
$DIMTOL
 70
     0
  9
$DIMLIM
 70
     0
  9
$DIMTIH
 70
     0
  9
$DIMTOH
 70
     0
  9
$DIMSE1
 70
     0
  9
$DIMSE2
 70
     0
  9
$DIMTAD
 70
     1
  9
$DIMZIN
 70
     8
  9
$DIMBLK
  1
Dot
  9
$DIMASO
 70
     1
  9
$DIMSHO
 70
     1
  9
$DIMPOST
  1

  9
$DIMAPOST
  1
"
  9
$DIMALT
 70
     0
  9
$DIMALTD
 70
     2
  9
$DIMALTF
 40
0.0393701
  9
$DIMLFAC
 40
1.0
  9
$DIMTOFL
 70
     1
  9
$DIMTVP
 40
0.0
  9
$DIMTIX
 70
     0
  9
$DIMSOXD
 70
     0
  9
$DIMSAH
 70
     0
  9
$DIMBLK1
  1

  9
$DIMBLK2
  1

  9
$DIMSTYLE
  2
S-2
  9
$DIMCLRD
 70
   256
  9
$DIMCLRE
 70
   256
  9
$DIMCLRT
 70
     2
  9
$DIMTFAC
 40
0.71
  9
$DIMGAP
 40
1.5
  9
$DIMJUST
 70
     0
  9
$DIMSD1
 70
     0
  9
$DIMSD2
 70
     0
  9
$DIMTOLJ
 70
     0
  9
$DIMTZIN
 70
     8
  9
$DIMALTZ
 70
     0
  9
$DIMALTTZ
 70
     0
  9
$DIMUPT
 70
     0
  9
$DIMDEC
 70
     2
  9
$DIMTDEC
 70
     2
  9
$DIMALTU
 70
     2
  9
$DIMALTTD
 70
     2
  9
$DIMTXSTY
  7
STANDARD
  9
$DIMAUNIT
 70
     0
  9
$DIMADEC
 70
     0
  9
$DIMALTRND
 40
0.0
  9
$DIMAZIN
 70
     2
  9
$DIMDSEP
 70
    46
  9
$DIMATFIT
 70
     3
  9
$DIMFRAC
 70
     0
  9
$DIMLDRBLK
  1
Dot
  9
$DIMLUNIT
 70
     2
  9
$DIMLWD
 70
    -1
  9
$DIMLWE
 70
    -1
  9
$DIMTMOVE
 70
     0
  9
$LUNITS
 70
     2
  9
$LUPREC
 70
     2
  9
$SKETCHINC
 40
1.0
  9
$FILLETRAD
 40
0.0
  9
$AUNITS
 70
     0
  9
$AUPREC
 70
     0
  9
$MENU
  1
.
  9
$ELEVATION
 40
0.0
  9
$PELEVATION
 40
0.0
  9
$THICKNESS
 40
0.0
  9
$LIMCHECK
 70
     0
  9
$CHAMFERA
 40
0.0
  9
$CHAMFERB
 40
0.0
  9
$CHAMFERC
 40
20.0
  9
$CHAMFERD
 40
0.0
  9
$SKPOLY
 70
     0
  9
$TDCREATE
 40
2455567.561054317
  9
$TDUCREATE
 40
2455567.186054318
  9
$TDUPDATE
 40
2457192.340713079
  9
$TDUUPDATE
 40
2457191.965713079
  9
$TDINDWG
 40
3.3842996644
  9
$TDUSRTIMER
 40
3.3842976389
  9
$USRTIMER
 70
     1
  9
$ANGBASE
 50
0.0
  9
$ANGDIR
 70
     0
  9
$PDMODE
 70
     0
  9
$PDSIZE
 40
-3.0
  9
$PLINEWID
 40
0.0
  9
$SPLFRAME
 70
     0
  9
$SPLINETYPE
 70
     6
  9
$SPLINESEGS
 70
     8
  9
$HANDSEED
  5
AF06F
  9
$SURFTAB1
 70
     6
  9
$SURFTAB2
 70
     6
  9
$SURFTYPE
 70
     6
  9
$SURFU
 70
     6
  9
$SURFV
 70
     6
  9
$UCSBASE
  2

  9
$UCSNAME
  2

  9
$UCSORG
 10
0.0
 20
0.0
 30
0.0
  9
$UCSXDIR
 10
1.0
 20
0.0
 30
0.0
  9
$UCSYDIR
 10
0.0
 20
1.0
 30
0.0
  9
$UCSORTHOREF
  2

  9
$UCSORTHOVIEW
 70
     0
  9
$UCSORGTOP
 10
0.0
 20
0.0
 30
0.0
  9
$UCSORGBOTTOM
 10
0.0
 20
0.0
 30
0.0
  9
$UCSORGLEFT
 10
0.0
 20
0.0
 30
0.0
  9
$UCSORGRIGHT
 10
0.0
 20
0.0
 30
0.0
  9
$UCSORGFRONT
 10
0.0
 20
0.0
 30
0.0
  9
$UCSORGBACK
 10
0.0
 20
0.0
 30
0.0
  9
$PUCSBASE
  2

  9
$PUCSNAME
  2

  9
$PUCSORG
 10
0.0
 20
0.0
 30
0.0
  9
$PUCSXDIR
 10
1.0
 20
0.0
 30
0.0
  9
$PUCSYDIR
 10
0.0
 20
1.0
 30
0.0
  9
$PUCSORTHOREF
  2

  9
$PUCSORTHOVIEW
 70
     0
  9
$PUCSORGTOP
 10
0.0
 20
0.0
 30
0.0
  9
$PUCSORGBOTTOM
 10
0.0
 20
0.0
 30
0.0
  9
$PUCSORGLEFT
 10
0.0
 20
0.0
 30
0.0
  9
$PUCSORGRIGHT
 10
0.0
 20
0.0
 30
0.0
  9
$PUCSORGFRONT
 10
0.0
 20
0.0
 30
0.0
  9
$PUCSORGBACK
 10
0.0
 20
0.0
 30
0.0
  9
$USERI1
 70
     0
  9
$USERI2
 70
     0
  9
$USERI3
 70
     0
  9
$USERI4
 70
     0
  9
$USERI5
 70
     0
  9
$USERR1
 40
0.0
  9
$USERR2
 40
0.0
  9
$USERR3
 40
0.0
  9
$USERR4
 40
0.0
  9
$USERR5
 40
0.0
  9
$WORLDVIEW
 70
     1
  9
$SHADEDGE
 70
     3
  9
$SHADEDIF
 70
    70
  9
$TILEMODE
 70
     1
  9
$MAXACTVP
 70
    64
  9
$PINSBASE
 10
0.0
 20
0.0
 30
0.0
  9
$PLIMCHECK
 70
     0
  9
$PEXTMIN
 10
1.000000000000000E+20
 20
1.000000000000000E+20
 30
1.000000000000000E+20
  9
$PEXTMAX
 10
-1.000000000000000E+20
 20
-1.000000000000000E+20
 30
-1.000000000000000E+20
  9
$PLIMMIN
 10
-3.17498779296875
 20
-3.174999952316283
  9
$PLIMMAX
 10
293.4970092773438
 20
206.692492723465
  9
$UNITMODE
 70
     0
  9
$VISRETAIN
 70
     1
  9
$PLINEGEN
 70
     0
  9
$PSLTSCALE
 70
     1
  9
$TREEDEPTH
 70
  3020
  9
$CMLSTYLE
  2
Standard
  9
$CMLJUST
 70
     0
  9
$CMLSCALE
 40
20.0
  9
$PROXYGRAPHICS
 70
     1
  9
$MEASUREMENT
 70
     1
  9
$CELWEIGHT
370
    -1
  9
$ENDCAPS
280
     0
  9
$JOINSTYLE
280
     0
  9
$LWDISPLAY
290
     1
  9
$INSUNITS
 70
     4
  9
$HYPERLINKBASE
  1

  9
$STYLESHEET
  1
PRINTER1.ctb
  9
$XEDIT
290
     1
  9
$CEPSNTYPE
380
     0
  9
$PSTYLEMODE
290
     1
  9
$FINGERPRINTGUID
  2
{E0FB5660-30B4-4D8A-8C1D-9D7E99D72F0A}
  9
$VERSIONGUID
  2
{F8A90553-5052-44B1-B181-A68DB7FF837D}
  9
$EXTNAMES
290
     1
  9
$PSVPSCALE
 40
0.0
  9
$OLESTARTUP
290
     0
  0
ENDSEC
  0
SECTION
  2
CLASSES
  0
CLASS
  1
ACDBDICTIONARYWDFLT
  2
AcDbDictionaryWithDefault
  3
ObjectDBX Classes
 90
        0
280
     0
281
     0
  0
CLASS
  1
ACDBPLACEHOLDER
  2
AcDbPlaceHolder
  3
ObjectDBX Classes
 90
        0
280
     0
281
     0
  0
CLASS
  1
LAYOUT
  2
AcDbLayout
  3
ObjectDBX Classes
 90
        0
280
     0
281
     0
  0
CLASS
  1
AMGSETTINGSOBJ
  2
AmgSettingsObj
  3
"AcadM|Product Description: AutoCAD Mechanical|Company: Autodesk"
 90
    32768
280
     0
281
     0
  0
CLASS
  1
ACME_DOCUMENT
  2
AcMeDbDoc
  3
AcMeServices
 90
    32768
280
     0
281
     0
  0
CLASS
  1
ACMESCOPE
  2
AcMeScope
  3
AcMeServices
 90
    32768
280
     0
281
     0
  0
CLASS
  1
ACMECOMMANDHISTORY
  2
AcMeCommandHistory
  3
AcMeServices
 90
    32768
280
     0
281
     0
  0
CLASS
  1
DICTIONARYVAR
  2
AcDbDictionaryVar
  3
ObjectDBX Classes
 90
        0
280
     0
281
     0
  0
CLASS
  1
ACIMSYSVARMAN
  2
AcImSysVarManager
  3
AcMeServices
 90
    32768
280
     0
281
     0
  0
CLASS
  1
ACIMREALSYSVAR
  2
AcImRealSysVar
  3
AcMeServices
 90
    32768
280
     0
281
     0
  0
CLASS
  1
ACIMINTSYSVAR
  2
AcImIntSysVar
  3
AcMeServices
 90
    32768
280
     0
281
     0
  0
CLASS
  1
ACMEDRAWINGMAN
  2
AcMeDrawingMan
  3
AcMeServices
 90
    32768
280
     0
281
     0
  0
CLASS
  1
ACMEVIEW
  2
AcMeView
  3
AcMeServices
 90
    32768
280
     0
281
     0
  0
CLASS
  1
ACDBENTITYCACHE
  2
AcMeEntityCache
  3
AcMeServices
 90
    32768
280
     0
281
     0
  0
CLASS
  1
GSMANAGER
  2
AcMeGSManager
  3
AcMeServices
 90
    32768
280
     0
281
     0
  0
CLASS
  1
AMDTINTERNALREACTOR
  2
AmdtInternalReactor
  3
AcMeServices
 90
    32768
280
     0
281
     0
  0
CLASS
  1
ACMESTATEMGR
  2
AcMeStateMgr
  3
AcMeServices
 90
    32768
280
     0
281
     0
  0
CLASS
  1
ACGREFMASTER
  2
AcGrefMaster
  3
AcAttribServices
 90
    32768
280
     0
281
     0
  0
CLASS
  1
ACME_DATABASE
  2
AcMeDbDatabase
  3
AcMeServices
 90
    32768
280
     0
281
     0
  0
CLASS
  1
ACRFINSADJUSTERMGR
  2
AcRfInsAdjusterMgr
  3
AcMeServices
 90
    32768
280
     0
281
     0
  0
CLASS
  1
ACGREFACADMASTER
  2
AcGrefacadMaster
  3
AcGrefServices
 90
    32768
280
     0
281
     0
  0
CLASS
  1
AMIMASTER
  2
AmiMaster
  3
AmiServices
 90
    32768
280
     0
281
     0
  0
CLASS
  1
ACMDATADICTIONARY
  2
AcmDataDictionary
  3
"AcmSymBB|Product Description: AutoCAD Mechanical|Company: Autodesk"
 90
    32768
280
     0
281
     0
  0
CLASS
  1
ACMDATAENTRYBLOCK
  2
AcmDataEntryBlock
  3
"AcmSymBB|Product Description: AutoCAD Mechanical|Company: Autodesk"
 90
    32768
280
     0
281
     0
  0
CLASS
  1
ACIMSTRSYSVAR
  2
AcImStrSysVar
  3
AcMeServices
 90
    32768
280
     0
281
     0
  0
CLASS
  1
ACMSTANDARDISO
  2
AcmStandardISO
  3
"Amdt_StdImp|Product Description: AutoCAD Mechanical|Company: Autodesk"
 90
    32768
280
     0
281
     0
  0
CLASS
  1
AMGOBJPROPCFG
  2
AmgObjPropCfg
  3
"AmgLay|Product Description: AutoCAD Mechanical|Company: Autodesk"
 90
    32769
280
     0
281
     0
  0
CLASS
  1
AMDTEDGESTANDARDISO
  2
AmdtEdgeStdISO
  3
"Amdt_StdImp|Product Description: AutoCAD Mechanical|Company: Autodesk"
 90
    32768
280
     0
281
     0
  0
CLASS
  1
ACMSURFSTANDARDISO
  2
AcmSurfTextStdISO
  3
"Amdt_StdImp|Product Description: AutoCAD Mechanical|Company: Autodesk"
 90
    32768
280
     0
281
     0
  0
CLASS
  1
ACMFCFSTANDARDISO
  2
AcmFCFStdISO
  3
"Amdt_StdImp|Product Description: AutoCAD Mechanical|Company: Autodesk"
 90
    32768
280
     0
281
     0
  0
CLASS
  1
ACMWELDSTANDARDISO
  2
AcmWeldingStdISO
  3
"Amdt_StdImp|Product Description: AutoCAD Mechanical|Company: Autodesk"
 90
    32768
280
     0
281
     0
  0
CLASS
  1
ACMIDSTANDARDISO
  2
AcmIdStdISO
  3
"Amdt_StdImp|Product Description: AutoCAD Mechanical|Company: Autodesk"
 90
    32768
280
     0
281
     0
  0
CLASS
  1
ACMDATUMSTANDARDISO
  2
AcmDatumStdISO
  3
"Amdt_StdImp|Product Description: AutoCAD Mechanical|Company: Autodesk"
 90
    32768
280
     0
281
     0
  0
CLASS
  1
ACMBOMSTANDARDISO
  2
AcmBOMStdISO
  3
"Amdt_StdImp|Product Description: AutoCAD Mechanical|Company: Autodesk"
 90
    32768
280
     0
281
     0
  0
CLASS
  1
ACMDETAILSTANDARDISO
  2
AmdtDetailSymStdISO
  3
"Amdt_StdImp|Product Description: AutoCAD Mechanical|Company: Autodesk"
 90
    32768
280
     0
281
     0
  0
CLASS
  1
ACMSECTIONSTANDARDISO
  2
AmdtSectionSymStdISO
  3
"Amdt_StdImp|Product Description: AutoCAD Mechanical|Company: Autodesk"
 90
    32768
280
     0
281
     0
  0
CLASS
  1
ACMCENTERLINESTANDARDISO
  2
AmdtCenterLineStdISO
  3
"Amdt_StdImp|Product Description: AutoCAD Mechanical|Company: Autodesk"
 90
    32768
280
     0
281
     0
  0
CLASS
  1
ACAMGLAYSTD
  2
AcAmgLayStd
  3
"AmgLay|Product Description: AutoCAD Mechanical|Company: Autodesk"
 90
    32768
280
     0
281
     0
  0
CLASS
  1
ACAMGDIMSTD
  2
AcAmgDimStd
  3
"AmgDim|Product Description: AutoCAD Mechanical|Company: Autodesk"
 90
    32768
280
     0
281
     0
  0
CLASS
  1
ACAMGTITLESTD
  2
AcAmgTitleStd
  3
"AmgTitle|Product Description: AutoCAD Mechanical|Company: Autodesk"
 90
    32768
280
     0
281
     0
  0
CLASS
  1
ACAMGFILTERDAT
  2
AcAmgFilterDat
  3
"AcadM|Product Description: AutoCAD Mechanical|Company: Autodesk"
 90
    32768
280
     0
281
     0
  0
CLASS
  1
LAYER_INDEX
  2
AcDbLayerIndex
  3
ObjectDBX Classes
 90
    32768
280
     0
281
     0
  0
CLASS
  1
IDBUFFER
  2
AcDbIdBuffer
  3
ObjectDBX Classes
 90
    32768
280
     0
281
     0
  0
CLASS
  1
PLOTSETTINGS
  2
AcDbPlotSettings
  3
ObjectDBX Classes
 90
    32768
280
     0
281
     0
  0
CLASS
  1
AMDTFORMULAUPDATEDISPATCHER
  2
AmdtFormulaUpdateDispatcher
  3
AcMeServices
 90
    32768
280
     0
281
     0
  0
CLASS
  1
ACMSTANDARDANSI
  2
AcmStandardANSI
  3
"Amdt_StdImp|Product Description: AutoCAD Mechanical|Company: Autodesk"
 90
    32768
280
     0
281
     0
  0
CLASS
  1
ACMSURFSTANDARDANSI
  2
AcmSurfTextStdANSI
  3
"Amdt_StdImp|Product Description: AutoCAD Mechanical|Company: Autodesk"
 90
    32768
280
     0
281
     0
  0
CLASS
  1
ACMFCFSTANDARDANSI
  2
AcmFCFStdANSI
  3
"Amdt_StdImp|Product Description: AutoCAD Mechanical|Company: Autodesk"
 90
    32768
280
     0
281
     0
  0
CLASS
  1
ACMWELDSTANDARDANSI
  2
AcmWeldingStdANSI
  3
"Amdt_StdImp|Product Description: AutoCAD Mechanical|Company: Autodesk"
 90
    32768
280
     0
281
     0
  0
CLASS
  1
ACMIDSTANDARDANSI
  2
AcmIdStdANSI
  3
"Amdt_StdImp|Product Description: AutoCAD Mechanical|Company: Autodesk"
 90
    32768
280
     0
281
     0
  0
CLASS
  1
ACMDATUMSTANDARDANSI
  2
AcmDatumStdANSI
  3
"Amdt_StdImp|Product Description: AutoCAD Mechanical|Company: Autodesk"
 90
    32768
280
     0
281
     0
  0
CLASS
  1
ACMBOMSTANDARDANSI
  2
AcmBOMStdANSI
  3
"Amdt_StdImp|Product Description: AutoCAD Mechanical|Company: Autodesk"
 90
    32768
280
     0
281
     0
  0
CLASS
  1
ACMDETAILSTANDARDANSI
  2
AmdtDetailSymStdANSI
  3
"Amdt_StdImp|Product Description: AutoCAD Mechanical|Company: Autodesk"
 90
    32768
280
     0
281
     0
  0
CLASS
  1
ACMSECTIONSTANDARDANSI
  2
AmdtSectionSymStdANSI
  3
"Amdt_StdImp|Product Description: AutoCAD Mechanical|Company: Autodesk"
 90
    32768
280
     0
281
     0
  0
CLASS
  1
ACMCENTERLINESTANDARDANSI
  2
AmdtCenterLineStdANSI
  3
"Amdt_StdImp|Product Description: AutoCAD Mechanical|Company: Autodesk"
 90
    32768
280
     0
281
     0
  0
CLASS
  1
ACMBOM
  2
AcmBom
  3
"AcmSymBB|Product Description: AutoCAD Mechanical|Company: Autodesk"
 90
    32768
280
     0
281
     0
  0
CLASS
  1
ACMDATAENTRYPART
  2
AcmDataEntryPart
  3
"AcmSymBB|Product Description: AutoCAD Mechanical|Company: Autodesk"
 90
    32768
280
     0
281
     0
  0
CLASS
  1
ACMPARTREF
  2
AcmPartRef
  3
"AcmSymBB|Product Description: AutoCAD Mechanical|Company: Autodesk"
 90
    35839
280
     0
281
     1
  0
CLASS
  1
ACDBCIRCARCRES
  2
AcDbCircArcRes
  3
AcGrefServices
 90
    32768
280
     0
281
     0
  0
CLASS
  1
ACMBOMROW
  2
AcmBomRow
  3
"AcmSymBB|Product Description: AutoCAD Mechanical|Company: Autodesk"
 90
    32768
280
     0
281
     0
  0
CLASS
  1
ACMBALLOON
  2
AcmBalloon
  3
"AcmSymBB|Product Description: AutoCAD Mechanical|Company: Autodesk"
 90
    35839
280
     0
281
     1
  0
CLASS
  1
AMDTNOTE
  2
AmdtNote
  3
"AcmSymBB|Product Description: AutoCAD Mechanical|Company: Autodesk"
 90
    35839
280
     0
281
     1
  0
CLASS
  1
STDPART2D
  2
AmgStdPart
  3
"g3vace|Class: AmgStdPart|Product Description: AutoCAD Mechanical|Company: Autodesk"
 90
    35839
280
     0
281
     1
  0
CLASS
  1
ACDBSTDPARTRES_LINE
  2
AcDbStdPartRes_Line
  3
"g3vace|Class: AcDbStdPartRes_Line|Product Description: AutoCAD Mechanical|Company: Autodesk"
 90
    32768
280
     0
281
     0
  0
CLASS
  1
ACMDATAENTRY
  2
AcmDataEntry
  3
"AcmSymBB|Product Description: AutoCAD Mechanical|Company: Autodesk"
 90
    32768
280
     0
281
     0
  0
CLASS
  1
ACDBOPPOLYLINERES
  2
AcDbOpPolylineRes
  3
AcGrefServices
 90
    32768
280
     0
281
     0
  0
CLASS
  1
ACMPARTLIST
  2
AcmPartList
  3
"AcmSymBB|Product Description: AutoCAD Mechanical|Company: Autodesk"
 90
    35839
280
     0
281
     1
  0
CLASS
  1
ACDBLINERES
  2
AcDbLineRes
  3
AcGrefServices
 90
    32768
280
     0
281
     0
  0
CLASS
  1
ACRFINSADJ
  2
AcRfInsAdjuster
  3
AcMeServices
 90
    32768
280
     0
281
     0
  0
CLASS
  1
AM_DRAWING_MGR
  2
AcDmDwgMgr
  3
AcMechDwgViewMgmt
 90
    32768
280
     0
281
     0
  0
CLASS
  1
AM_DWG_DOCUMENT
  2
AcDmDwgDocument
  3
AcMechDwgViewMgmt
 90
    32768
280
     0
281
     0
  0
CLASS
  1
AM_DWG_SHEET
  2
AcDmSheet
  3
AcMechDwgViewMgmt
 90
    32768
280
     0
281
     0
  0
CLASS
  1
AM_VIEWDIMPARMAP
  2
AcDmViewDimParMap
  3
AcMechDwgViewMgmt
 90
    32768
280
     0
281
     0
  0
CLASS
  1
AM_DWGMGR_NAME
  2
AcDmDwgMgrName
  3
AcMechDwgViewMgmt
 90
    32768
280
     0
281
     0
  0
CLASS
  1
AMDTMENUSTATEMGR
  2
AmdtMenuStateMgr
  3
McadcomServices
 90
    32768
280
     0
281
     0
  0
CLASS
  1
AMDTMCOMMENUSTATE
  2
AmdtMcomMenuState
  3
McadcomServices
 90
    32768
280
     0
281
     0
  0
CLASS
  1
ASAPP
  2
AcAsAppObject
  3
AutoSurfServices
 90
        0
280
     0
281
     0
  0
CLASS
  1
IM_STATIC_MAN
  2
AcImStaticVarManager
  3
AcMeServices
 90
    32768
280
     0
281
     0
  0
CLASS
  1
ACIMDBLSTATICVAR
  2
AcImDblStaticVar
  3
AcMeServices
 90
    32768
280
     0
281
     0
  0
CLASS
  1
ACIMSTRSTATICVAR
  2
AcImStrStaticVar
  3
AcMeServices
 90
    32768
280
     0
281
     0
  0
CLASS
  1
ACIMINTSTATICVAR
  2
AcImIntStaticVar
  3
AcMeServices
 90
    32768
280
     0
281
     0
  0
CLASS
  1
ACASGREFMASTER
  2
AcAsGrefMaster
  3
AutoSurfResolverServices
 90
        0
280
     0
281
     0
  0
CLASS
  1
ACADGREFMODULE
  2
AcAdGrefModule
  3
AdGrefServices
 90
        0
280
     0
281
     0
  0
CLASS
  1
AMDTMAPISURFMOUDULE
  2
AmdtMApiSurfModule
  3
MApiSurfServices
 90
        0
280
     0
281
     0
  0
CLASS
  1
MAPIAMMOUDLE
  2
MApiAmModule
  3
MApiAmServices
 90
    32768
280
     0
281
     0
  0
CLASS
  1
AMDTADMENUSTATE
  2
AmdtAdMenuState
  3
DesignerServices
 90
    32768
280
     0
281
     0
  0
CLASS
  1
ADAPPL
  2
AcAdAppl
  3
DesignerServices
 90
    32768
280
     0
281
     0
  0
CLASS
  1
DEPMGR
  2
AcAdDepMgr
  3
DesignerServices
 90
    32768
280
     0
281
     0
  0
CLASS
  1
PARAMMGR
  2
AcAdParamMgr
  3
DesignerServices
 90
    32768
280
     0
281
     0
  0
CLASS
  1
PARAMSCOPE
  2
AcAdParamScope
  3
DesignerServices
 90
    32768
280
     0
281
     0
  0
CLASS
  1
NAMEDAPPL
  2
AcAdNamedAppl
  3
DesignerServices
 90
    32768
280
     0
281
     0
  0
CLASS
  1
ADHNTMPLT
  2
AdHoleNoteTemplateMgr
  3
DesignerServices
 90
    32768
280
     0
281
     0
  0
CLASS
  1
AM_HNTEMPLATE_MGR_NAME
  2
AdHoleNoteTemplateMgrName
  3
DesignerServices
 90
    32768
280
     0
281
     0
  0
CLASS
  1
AMDTDMMENUSTATE
  2
AmdtDmMenuState
  3
AcMechDwgViewMgmt
 90
    32768
280
     0
281
     0
  0
CLASS
  1
MAPIADMODULE
  2
MApiAdModule
  3
MApiAdServices
 90
        0
280
     0
281
     0
  0
CLASS
  1
AMDTAMMENUSTATE
  2
AmdtAmMenuState
  3
DesignerAssemblies
 90
    32768
280
     0
281
     0
  0
CLASS
  1
ACAMPROJECT
  2
AcAmProject
  3
DesignerAssemblies
 90
    32768
280
     0
281
     0
  0
CLASS
  1
ACAMGRCOMPDEF
  2
AcAmGrCompDef
  3
DesignerAssemblies
 90
    32768
280
     0
281
     0
  0
CLASS
  1
ACCMCONTEXT
  2
AcCmContext
  3
DesignerAssemblies
 90
    32768
280
     0
281
     0
  0
CLASS
  1
ACAMCOMPDEF
  2
AcAmCompDef
  3
DesignerAssemblies
 90
    32768
280
     0
281
     0
  0
CLASS
  1
ACAMCOMPDEFMGR
  2
AcAmCompDefMgr
  3
DesignerAssemblies
 90
    32768
280
     0
281
     0
  0
CLASS
  1
AMCONTEXTMGR
  2
AcAmContextMgr
  3
DesignerAssemblies
 90
    32768
280
     0
281
     0
  0
CLASS
  1
ACAMCONTEXTMODELER
  2
AcAmContextModeler
  3
DesignerAssemblies
 90
    32768
280
     0
281
     0
  0
CLASS
  1
CATALOGSTATE
  2
AcAmCatalogState
  3
DesignerAssemblies
 90
    32768
280
     0
281
     0
  0
CLASS
  1
ACAMGRCOMPDEFSET
  2
AcAmGrCompDefSet
  3
DesignerAssemblies
 90
    32768
280
     0
281
     0
  0
CLASS
  1
AMDTBROWSERDBTAB
  2
AmdtBrowserDbTab
  3
McadcomServices
 90
    32768
280
     0
281
     0
  0
CLASS
  1
CBROWSERAPPOBJECT
  2
CBrowserAppObject
  3
McadcomServices
 90
    32768
280
     0
281
     0
  0
CLASS
  1
DM_PLACEHOLDER
  2
AcDmSelsetPlaceholder
  3
AcMechDwgViewMgmt
 90
    32768
280
     0
281
     0
  0
CLASS
  1
ACMPICKOBJ
  2
AcmPickEnt
  3
"AcmSymBB|Product Description: AutoCAD Mechanical|Company: Autodesk"
 90
    32768
280
     0
281
     1
  0
CLASS
  1
ACMNOTESTANDARDISO
  2
AmdtNoteStdISO
  3
"Amdt_StdImp|Product Description: AutoCAD Mechanical|Company: Autodesk"
 90
    32768
280
     0
281
     0
  0
CLASS
  1
ACMNOTESTANDARDANSI
  2
AmdtNoteStdANSI
  3
"Amdt_StdImp|Product Description: AutoCAD Mechanical|Company: Autodesk"
 90
    32768
280
     0
281
     0
  0
CLASS
  1
ACMTHREADLINESTANDARDISO
  2
AmdtThreadLineStdISO
  3
"Amdt_StdImp|Product Description: AutoCAD Mechanical|Company: Autodesk"
 90
    32768
280
     0
281
     0
  0
CLASS
  1
ACMTHREADLINESTANDARDANSI
  2
AmdtThreadLineStdANSI
  3
"Amdt_StdImp|Product Description: AutoCAD Mechanical|Company: Autodesk"
 90
    32768
280
     0
281
     0
  0
CLASS
  1
TABLESTYLE
  2
AcDbTableStyle
  3
ObjectDBX Classes
 90
     4095
280
     0
281
     0
  0
CLASS
  1
SORTENTSTABLE
  2
AcDbSortentsTable
  3
ObjectDBX Classes
 90
        0
280
     0
281
     0
  0
CLASS
  1
MATERIAL
  2
AcDbMaterial
  3
ObjectDBX Classes
 90
     1153
280
     0
281
     0
  0
CLASS
  1
VISUALSTYLE
  2
AcDbVisualStyle
  3
ObjectDBX Classes
 90
     4095
280
     0
281
     0
  0
CLASS
  1
ACRFATTGENMGR
  2
AcRfAttGeneralMgr
  3
AcAttribServices
 90
    32768
280
     0
281
     0
  0
CLASS
  1
ACRFOBJATTMGR
  2
AcRfObjAttGroupMgr
  3
AcAttribServices
 90
    32768
280
     0
281
     0
  0
CLASS
  1
ACRFMCADAPIATTHOLDER
  2
AcRfMCADAPIAttHolder
  3
AcAttribServices
 90
    32768
280
     0
281
     0
  0
CLASS
  1
AMDTSYSATTR
  2
AmdtSystemAttribute
  3
AcAttribServices
 90
    32768
280
     0
281
     0
  0
CLASS
  1
ACMTAPERSTANDARDISO
  2
AcmTaperStdISO
  3
"Amdt_StdImp|Product Description: AutoCAD Mechanical|Company: Autodesk"
 90
    32768
280
     0
281
     0
  0
CLASS
  1
CAMSSTRUCTBTNSTATE
  2
StructBtnState
  3
L"DesignerAssemblies"
 90
    32768
280
     0
281
     0
  0
CLASS
  1
DIMASSOC
  2
AcDbDimAssoc
  3
"AcDbDimAssoc|Product Desc:     AcDim ARX App For Dimension|Company:          Autodesk, Inc.|WEB Address:      www.autodesk.com"
 90
    32768
280
     0
281
     0
  0
CLASS
  1
AMDTNOTETEMPLATEDB
  2
AmdtNoteTemplateDB
  3
AMDT_STDIMP_MODULE_NAME
 90
    32768
280
     0
281
     0
  0
CLASS
  1
ACMTAPERSTANDARDANSI
  2
AcmTaperStdANSI
  3
"Amdt_StdImp|Product Description: AutoCAD Mechanical|Company: Autodesk"
 90
    32768
280
     0
281
     0
  0
CLASS
  1
ACAMGHOLECHARTSTDANSI
  2
AcAmgHoleChartStdANSI
  3
ACMSYMBB_MODULE_NAME
 90
    32768
280
     0
281
     0
  0
CLASS
  1
AMDTEDGESTANDARDISO13715
  2
AmdtEdgeStdISO13715
  3
"Amdt_StdImp|Product Description: AutoCAD Mechanical|Company: Autodesk"
 90
    32768
280
     0
281
     0
  0
CLASS
  1
ACAMGHOLECHARTSTDISO
  2
AcAmgHoleChartStdISO
  3
ACMSYMBB_MODULE_NAME
 90
    32768
280
     0
281
     0
  0
CLASS
  1
ACDBDIMENSIONRES
  2
AcDbDimensionRes
  3
L"AcDbDimensionRes|Product Description: AutoCAD Mechanical 2000|Company: Autodesk"
 90
    32768
280
     0
281
     0
  0
CLASS
  1
SCALE
  2
AcDbScale
  3
ObjectDBX Classes
 90
     1153
280
     0
281
     0
  0
CLASS
  1
MLEADERSTYLE
  2
AcDbMLeaderStyle
  3
ACDB_MLEADERSTYLE_CLASS
 90
     4095
280
     0
281
     0
  0
CLASS
  1
ACDBSECTIONVIEWSTYLE
  2
AcDbSectionViewStyle
  3
ObjectDBX Classes
 90
     1025
280
     0
281
     0
  0
CLASS
  1
ACDBDETAILVIEWSTYLE
  2
AcDbDetailViewStyle
  3
ObjectDBX Classes
 90
     1025
280
     0
281
     0
  0
CLASS
  1
CELLSTYLEMAP
  2
AcDbCellStyleMap
  3
ObjectDBX Classes
 90
     1152
280
     0
281
     0
  0
ENDSEC
  0
SECTION
  2
TABLES
  0
TABLE
  2
VPORT
  5
8
330
0
100
AcDbSymbolTable
 70
     1
  0
VPORT
  5
B0EC
330
8
100
AcDbSymbolTableRecord
100
AcDbViewportTableRecord
  2
*Active
 70
     0
 10
0.0
 20
0.0
 11
1.0
 21
1.0
 12
594.0
 22
420.0
 13
0.0
 23
0.0
 14
2.5
 24
2.5
 15
10.0
 25
10.0
 16
0.0
 26
0.0
 36
1.0
 17
0.0
 27
0.0
 37
0.0
 40
840.0
 41
2.046913580246913
 42
50.0
 43
-1370.695619172058
 44
-1370.695619172058
 50
0.0
 51
0.0
 71
     0
 72
   100
 73
     1
 74
     3
 75
     0
 76
     0
 77
     0
 78
     0
281
     0
 65
     0
110
0.0
120
0.0
130
0.0
111
1.0
121
0.0
131
0.0
112
0.0
122
1.0
132
0.0
 79
     0
146
0.0
1001
ACAD_NAV_VCDISPLAY
1070
     3
  0
ENDTAB
  0
TABLE
  2
LTYPE
  5
5
330
0
100
AcDbSymbolTable
 70
    15
  0
LTYPE
  5
14
330
5
100
AcDbSymbolTableRecord
100
AcDbLinetypeTableRecord
  2
ByBlock
 70
     0
  3

 72
    65
 73
     0
 40
0.0
  0
LTYPE
  5
15
330
5
100
AcDbSymbolTableRecord
100
AcDbLinetypeTableRecord
  2
ByLayer
 70
     0
  3

 72
    65
 73
     0
 40
0.0
  0
LTYPE
  5
16
330
5
100
AcDbSymbolTableRecord
100
AcDbLinetypeTableRecord
  2
Continuous
 70
     0
  3
Solid line
 72
    65
 73
     0
 40
0.0
  0
LTYPE
  5
52
330
5
100
AcDbSymbolTableRecord
100
AcDbLinetypeTableRecord
  2
Amconstr
 70
     0
  3
_______________________
 72
    65
 73
     2
 40
9999.0
 49
9999.0
 74
     0
 49
0.0
 74
     0
  0
LTYPE
  5
4DED
330
5
100
AcDbSymbolTableRecord
100
AcDbLinetypeTableRecord
  2
中線
 70
     0
  3
___________________
 72
    65
 73
     2
 40
2.0
 49
1.0
 74
     0
 49
1.0
 74
     0
  0
LTYPE
  5
4DF6
330
5
100
AcDbSymbolTableRecord
100
AcDbLinetypeTableRecord
  2
細線
 70
     0
  3
___________________
 72
    65
 73
     2
 40
2.0
 49
1.0
 74
     0
 49
1.0
 74
     0
  0
LTYPE
  5
4DF7
330
5
100
AcDbSymbolTableRecord
100
AcDbLinetypeTableRecord
  2
太線
 70
     0
  3
___________________
 72
    65
 73
     2
 40
2.0
 49
1.0
 74
     0
 49
1.0
 74
     0
  0
LTYPE
  5
4EA7
330
5
100
AcDbSymbolTableRecord
100
AcDbLinetypeTableRecord
  2
文字
 70
     0
  3
_________________
 72
    65
 73
     2
 40
2.0
 49
1.0
 74
     0
 49
1.0
 74
     0
  0
LTYPE
  5
4EA9
330
5
100
AcDbSymbolTableRecord
100
AcDbLinetypeTableRecord
  2
寸法線
 70
     0
  3
________________
 72
    65
 73
     2
 40
2.0
 49
1.0
 74
     0
 49
1.0
 74
     0
  0
LTYPE
  5
4F12
330
5
100
AcDbSymbolTableRecord
100
AcDbLinetypeTableRecord
  2
ハッチング
 70
     0
  3
_________________
 72
    65
 73
     2
 40
2.0
 49
1.0
 74
     0
 49
1.0
 74
     0
  0
LTYPE
  5
5180
330
5
100
AcDbSymbolTableRecord
100
AcDbLinetypeTableRecord
  2
陰線1
 70
     0
  3
__ __ __ __
 72
    65
 73
     2
 40
4.0
 49
2.2
 74
     0
 49
-1.8
 74
     0
  0
LTYPE
  5
5182
330
5
100
AcDbSymbolTableRecord
100
AcDbLinetypeTableRecord
  2
切断線
 70
     0
  3
/\/-/\/-/\/-/\/-/\/-/\/
 72
    65
 73
     2
 40
11.0001
 49
0.0001
 74
     4
 75
   135
340
56
 46
0.04
 50
0.0
 44
0.0
 45
0.0
 49
-11.0
 74
     0
  0
LTYPE
  5
5183
330
5
100
AcDbSymbolTableRecord
100
AcDbLinetypeTableRecord
  2
想像線1
 70
     0
  3
__ __ __ _____ __ __ ____
 72
    65
 73
     6
 40
14.5
 49
6.0
 74
     0
 49
-1.5
 74
     0
 49
2.0
 74
     0
 49
-1.5
 74
     0
 49
2.0
 74
     0
 49
-1.5
 74
     0
  0
LTYPE
  5
5185
330
5
100
AcDbSymbolTableRecord
100
AcDbLinetypeTableRecord
  2
中心線1
 70
     0
  3
___ _ ___ _ ___
 72
    65
 73
     4
 40
18.0
 49
12.0
 74
     0
 49
-2.0
 74
     0
 49
2.0
 74
     0
 49
-2.0
 74
     0
  0
LTYPE
  5
AB711
330
5
100
AcDbSymbolTableRecord
100
AcDbLinetypeTableRecord
  2
DASHED
 70
     0
  3
__ __ __ __ __ __ __ __ __ __ __ __ __ __ __
 72
    65
 73
     2
 40
0.75
 49
0.5
 74
     0
 49
-0.25
 74
     0
  0
LTYPE
  5
AB712
330
5
100
AcDbSymbolTableRecord
100
AcDbLinetypeTableRecord
  2
CENTER
 70
     0
  3
____ _ ____ _ ____ _ ____ _ ____ _ ____ _ ____
 72
    65
 73
     4
 40
2.0
 49
1.25
 74
     0
 49
-0.25
 74
     0
 49
0.25
 74
     0
 49
-0.25
 74
     0
  0
LTYPE
  5
AB885
330
5
100
AcDbSymbolTableRecord
100
AcDbLinetypeTableRecord
  2
PHANTOM
 70
     0
  3
_____ _ _ _____ _ _ _____ _ _ _____ _ _ ____  
 72
    65
 73
     6
 40
15.5
 49
8.0
 74
     0
 49
-1.5
 74
     0
 49
1.5
 74
     0
 49
-1.5
 74
     0
 49
1.5
 74
     0
 49
-1.5
 74
     0
  0
ENDTAB
  0
TABLE
  2
LAYER
  5
2
102
{ACAD_XDICTIONARY
360
3F95
102
}
330
0
100
AcDbSymbolTable
 70
    20
  0
LAYER
  5
10
102
{ACAD_XDICTIONARY
360
AB489
102
}
330
2
100
AcDbSymbolTableRecord
100
AcDbLayerTableRecord
  2
0
 70
     0
 62
     7
  6
Continuous
370
    -3
390
F
  0
LAYER
  5
6D1
330
2
100
AcDbSymbolTableRecord
100
AcDbLayerTableRecord
  2
Defpoints
 70
     0
 62
     7
  6
Continuous
290
     0
370
    -3
390
F
  0
LAYER
  5
ACA1
102
{ACAD_XDICTIONARY
360
AB491
102
}
330
2
100
AcDbSymbolTableRecord
100
AcDbLayerTableRecord
  2
AM_6
 70
     0
 62
     2
  6
文字
370
    13
390
F
1001
AcAecLayerStandard
1000

1000

  0
LAYER
  5
AB501
102
{ACAD_XDICTIONARY
360
AB502
102
}
330
2
100
AcDbSymbolTableRecord
100
AcDbLayerTableRecord
  2
AM_0
 70
     0
 62
     7
  6
中線
370
    30
390
F
1001
AcAecLayerStandard
1000

1000

  0
LAYER
  5
AB503
102
{ACAD_XDICTIONARY
360
AB504
102
}
330
2
100
AcDbSymbolTableRecord
100
AcDbLayerTableRecord
  2
size
 70
     0
 62
     5
  6
Continuous
290
     0
370
    25
390
F
  0
LAYER
  5
AB505
102
{ACAD_XDICTIONARY
360
AB506
102
}
330
2
100
AcDbSymbolTableRecord
100
AcDbLayerTableRecord
  2
waku
 70
     0
 62
     7
  6
Continuous
370
    35
390
F
  0
LAYER
  5
AB507
102
{ACAD_XDICTIONARY
360
AB508
102
}
330
2
100
AcDbSymbolTableRecord
100
AcDbLayerTableRecord
  2
hyomoji
 70
     0
 62
     2
  6
Continuous
370
    13
390
F
  0
LAYER
  5
AB509
102
{ACAD_XDICTIONARY
360
AB50A
102
}
330
2
100
AcDbSymbolTableRecord
100
AcDbLayerTableRecord
  2
hyosen1
 70
     0
 62
     1
  6
Continuous
370
    30
390
F
  0
LAYER
  5
AB50B
102
{ACAD_XDICTIONARY
360
AB50C
102
}
330
2
100
AcDbSymbolTableRecord
100
AcDbLayerTableRecord
  2
hyosen2
 70
     0
 62
     1
  6
Continuous
370
    13
390
F
  0
LAYER
  5
AB50D
102
{ACAD_XDICTIONARY
360
AB50E
102
}
330
2
100
AcDbSymbolTableRecord
100
AcDbLayerTableRecord
  2
AM_1
 70
     0
 62
    30
  6
太線
370
    40
390
F
1001
AcAecLayerStandard
1000

1000

  0
LAYER
  5
AB50F
102
{ACAD_XDICTIONARY
360
AB510
102
}
330
2
100
AcDbSymbolTableRecord
100
AcDbLayerTableRecord
  2
AM_2
 70
     0
 62
     1
  6
細線
370
    13
390
F
1001
AcAecLayerStandard
1000

1000

  0
LAYER
  5
AB511
102
{ACAD_XDICTIONARY
360
AB512
102
}
330
2
100
AcDbSymbolTableRecord
100
AcDbLayerTableRecord
  2
AM_3
 70
     0
 62
     6
  6
陰線1
370
    13
390
F
1001
AcAecLayerStandard
1000

1000

  0
LAYER
  5
AB513
102
{ACAD_XDICTIONARY
360
AB514
102
}
330
2
100
AcDbSymbolTableRecord
100
AcDbLayerTableRecord
  2
AM_5
 70
     0
 62
     3
  6
寸法線
370
    13
390
F
1001
AcAecLayerStandard
1000

1000

  0
LAYER
  5
AB515
102
{ACAD_XDICTIONARY
360
AB516
102
}
330
2
100
AcDbSymbolTableRecord
100
AcDbLayerTableRecord
  2
AM_7
 70
     0
 62
     4
  6
中心線1
370
    13
390
F
1001
AcAecLayerStandard
1000

1000

  0
LAYER
  5
AB517
102
{ACAD_XDICTIONARY
360
AB518
102
}
330
2
100
AcDbSymbolTableRecord
100
AcDbLayerTableRecord
  2
AM_8
 70
     0
 62
     1
  6
ハッチング
370
    13
390
F
1001
AcAecLayerStandard
1000

1000

  0
LAYER
  5
AB519
102
{ACAD_XDICTIONARY
360
AB51A
102
}
330
2
100
AcDbSymbolTableRecord
100
AcDbLayerTableRecord
  2
AM_10
 70
     0
 62
     7
  6
切断線
370
    30
390
F
1001
AcAecLayerStandard
1000

1000

  0
LAYER
  5
AB51B
102
{ACAD_XDICTIONARY
360
AB51C
102
}
330
2
100
AcDbSymbolTableRecord
100
AcDbLayerTableRecord
  2
AM_11
 70
     0
 62
     2
  6
想像線1
370
    13
390
F
1001
AcAecLayerStandard
1000

1000

  0
LAYER
  5
AB51D
102
{ACAD_XDICTIONARY
360
AB51E
102
}
330
2
100
AcDbSymbolTableRecord
100
AcDbLayerTableRecord
  2
AM_CL
 70
     0
 62
     1
  6
Amconstr
370
    15
390
F
1001
AcAecLayerStandard
1000

1000

  0
LAYER
  5
AB51F
102
{ACAD_XDICTIONARY
360
AB520
102
}
330
2
100
AcDbSymbolTableRecord
100
AcDbLayerTableRecord
  2
JISSEN
 70
     0
 62
     7
  6
Continuous
370
    -3
390
F
  0
LAYER
  5
AE5D0
330
2
100
AcDbSymbolTableRecord
100
AcDbLayerTableRecord
  2
SAISEN
 70
     0
 62
     4
  6
Continuous
370
    -3
390
F
  0
ENDTAB
  0
TABLE
  2
STYLE
  5
3
330
0
100
AcDbSymbolTable
 70
     5
  0
STYLE
  5
11
330
3
100
AcDbSymbolTableRecord
100
AcDbTextStyleTableRecord
  2
STANDARD
 70
     0
 40
0.0
 41
0.7
 50
0.0
 71
     0
 42
3.2
  3
romans.shx
  4
extfont.shx
  0
STYLE
  5
56
330
3
100
AcDbSymbolTableRecord
100
AcDbTextStyleTableRecord
  2

 70
     1
 40
0.0
 41
1.0
 50
0.0
 71
     0
 42
2.5
  3
ltypeshp.shx
  4

  0
STYLE
  5
AC80
330
3
100
AcDbSymbolTableRecord
100
AcDbTextStyleTableRecord
  2

 70
     1
 40
0.0
 41
1.0
 50
0.0
 71
     0
 42
3.2
  3
genltshp.shx
  4

  0
STYLE
  5
AB715
330
3
100
AcDbSymbolTableRecord
100
AcDbTextStyleTableRecord
  2
K
 70
     0
 40
0.0
 41
1.0
 50
0.0
 71
     0
 42
3.0
  3
ROMANS
  4
EXTFONT
  0
STYLE
  5
AB89B
330
3
100
AcDbSymbolTableRecord
100
AcDbTextStyleTableRecord
  2
NORMAL
 70
     0
 40
0.0
 41
1.0
 50
0.0
 71
     0
 42
3.2
  3
monotxt.shx
  4
extfont.shx
  0
ENDTAB
  0
TABLE
  2
VIEW
  5
6
330
0
100
AcDbSymbolTable
 70
     6
  0
VIEW
  5
AE1
330
6
100
AcDbSymbolTableRecord
100
AcDbViewTableRecord
  2
AM_VIEW1
 70
     0
 40
297.0
 10
-970.0097649269439
 20
-11756.86094600418
 41
473.7940828402367
 11
0.0
 21
0.0
 31
1.0
 12
0.0
 22
0.0
 32
0.0
 42
50.0
 43
-1370.695619172058
 44
-1370.695619172058
 50
0.0
 71
     0
281
     0
 72
     0
  0
VIEW
  5
AE2
330
6
100
AcDbSymbolTableRecord
100
AcDbViewTableRecord
  2
AM_VIEW2
 70
     0
 40
297.0
 10
-603.8038477671805
 20
-11756.86094600418
 41
473.7940828402367
 11
0.0
 21
0.0
 31
1.0
 12
0.0
 22
0.0
 32
0.0
 42
50.0
 43
-1370.695619172058
 44
-1370.695619172058
 50
0.0
 71
     0
281
     0
 72
     0
  0
VIEW
  5
AE3
330
6
100
AcDbSymbolTableRecord
100
AcDbViewTableRecord
  2
AM_VIEW3
 70
     0
 40
297.0
 10
-970.0097649269439
 20
-12053.86094600418
 41
473.7940828402367
 11
0.0
 21
0.0
 31
1.0
 12
0.0
 22
0.0
 32
0.0
 42
50.0
 43
-1370.695619172058
 44
-1370.695619172058
 50
0.0
 71
     0
281
     0
 72
     0
  0
VIEW
  5
AE4
330
6
100
AcDbSymbolTableRecord
100
AcDbViewTableRecord
  2
AM_VIEW4
 70
     0
 40
297.0
 10
-603.8038477671805
 20
-12053.86094600418
 41
473.7940828402367
 11
0.0
 21
0.0
 31
1.0
 12
0.0
 22
0.0
 32
0.0
 42
50.0
 43
-1370.695619172058
 44
-1370.695619172058
 50
0.0
 71
     0
281
     0
 72
     0
  0
VIEW
  5
AE5
330
6
100
AcDbSymbolTableRecord
100
AcDbViewTableRecord
  2
AM_VIEW5
 70
     0
 40
297.0
 10
-786.9068063470622
 20
-11905.36094600418
 41
473.7940828402365
 11
0.0
 21
0.0
 31
1.0
 12
0.0
 22
0.0
 32
0.0
 42
50.0
 43
-1370.695619172058
 44
-1370.695619172058
 50
0.0
 71
     0
281
     0
 72
     0
  0
VIEW
  5
AE6
330
6
100
AcDbSymbolTableRecord
100
AcDbViewTableRecord
  2
AM_VIEW6
 70
     0
 40
593.9940600000007
 10
-786.9068063470622
 20
-11905.36094600418
 41
947.5786897988164
 11
0.0
 21
0.0
 31
1.0
 12
0.0
 22
0.0
 32
0.0
 42
50.0
 43
-1370.695619172058
 44
-1370.695619172058
 50
0.0
 71
     0
281
     0
 72
     0
  0
ENDTAB
  0
TABLE
  2
UCS
  5
7
330
0
100
AcDbSymbolTable
 70
     0
  0
ENDTAB
  0
TABLE
  2
APPID
  5
9
330
0
100
AcDbSymbolTable
 70
    65
  0
APPID
  5
12
330
9
100
AcDbSymbolTableRecord
100
AcDbRegAppTableRecord
  2
ACAD
 70
     0
  0
APPID
  5
30
330
9
100
AcDbSymbolTableRecord
100
AcDbRegAppTableRecord
  2
MCAD_NO_VIS
 70
     0
  0
APPID
  5
31
330
9
100
AcDbSymbolTableRecord
100
AcDbRegAppTableRecord
  2
ACAD_TEMP_GRAPHIC
 70
     0
  0
APPID
  5
44
330
9
100
AcDbSymbolTableRecord
100
AcDbRegAppTableRecord
  2
ACATTRIBSERVICES
 70
     0
  0
APPID
  5
7A1
330
9
100
AcDbSymbolTableRecord
100
AcDbRegAppTableRecord
  2
GENIUS_GENDIMSH_14
 70
     0
  0
APPID
  5
A49
330
9
100
AcDbSymbolTableRecord
100
AcDbRegAppTableRecord
  2
GENIUS_GENREC_14
 70
     0
  0
APPID
  5
A4A
330
9
100
AcDbSymbolTableRecord
100
AcDbRegAppTableRecord
  2
GENIUS_GENOBJ-N-REC_13
 70
     0
  0
APPID
  5
A4B
330
9
100
AcDbSymbolTableRecord
100
AcDbRegAppTableRecord
  2
GENIUS_GENODEF_13
 70
     0
  0
APPID
  5
A4C
330
9
100
AcDbSymbolTableRecord
100
AcDbRegAppTableRecord
  2
DCO15
 70
     0
  0
APPID
  5
ADC
330
9
100
AcDbSymbolTableRecord
100
AcDbRegAppTableRecord
  2
GENIUS_GENOLIS_13
 70
     0
  0
APPID
  5
ADD
330
9
100
AcDbSymbolTableRecord
100
AcDbRegAppTableRecord
  2
GENIUS_GENOENT_13
 70
     0
  0
APPID
  5
ADE
330
9
100
AcDbSymbolTableRecord
100
AcDbRegAppTableRecord
  2
GENIUS_GENOBJ-N-TIT_13
 70
     0
  0
APPID
  5
ADF
330
9
100
AcDbSymbolTableRecord
100
AcDbRegAppTableRecord
  2
GENIUS_GENTITLE_13
 70
     0
  0
APPID
  5
AE0
330
9
100
AcDbSymbolTableRecord
100
AcDbRegAppTableRecord
  2
GENIUS_GENOREF_13
 70
     0
  0
APPID
  5
AE7
330
9
100
AcDbSymbolTableRecord
100
AcDbRegAppTableRecord
  2
GENIUS_GENSCREG_15
 70
     0
  0
APPID
  5
AE8
330
9
100
AcDbSymbolTableRecord
100
AcDbRegAppTableRecord
  2
GENIUS_GENOBJ-N-SDF_13
 70
     0
  0
APPID
  5
FAF
330
9
100
AcDbSymbolTableRecord
100
AcDbRegAppTableRecord
  2
GENIUS_GENBLLY_14
 70
     0
  0
APPID
  5
FB0
330
9
100
AcDbSymbolTableRecord
100
AcDbRegAppTableRecord
  2
GENIUS_GENTRA_14
 70
     0
  0
APPID
  5
1285
330
9
100
AcDbSymbolTableRecord
100
AcDbRegAppTableRecord
  2
GENIUS_GENDTOL_13
 70
     0
  0
APPID
  5
142D
330
9
100
AcDbSymbolTableRecord
100
AcDbRegAppTableRecord
  2
GENIUS_GENOBJ-N-CEN_13
 70
     0
  0
APPID
  5
1AB5
330
9
100
AcDbSymbolTableRecord
100
AcDbRegAppTableRecord
  2
GENIUS_GENOBJ-N-CRS_13
 70
     0
  0
APPID
  5
1B36
330
9
100
AcDbSymbolTableRecord
100
AcDbRegAppTableRecord
  2
GENIUS_GENOBJ-N-HTC_13
 70
     0
  0
APPID
  5
1B37
330
9
100
AcDbSymbolTableRecord
100
AcDbRegAppTableRecord
  2
GENIUS_GENHATCH_13
 70
     0
  0
APPID
  5
216D
330
9
100
AcDbSymbolTableRecord
100
AcDbRegAppTableRecord
  2
GENIUS_GENOBJ-N-FIL_13
 70
     0
  0
APPID
  5
2356
330
9
100
AcDbSymbolTableRecord
100
AcDbRegAppTableRecord
  2
GEVID990412420
 70
     0
  0
APPID
  5
2357
330
9
100
AcDbSymbolTableRecord
100
AcDbRegAppTableRecord
  2
GEVDC
 70
     0
  0
APPID
  5
2358
330
9
100
AcDbSymbolTableRecord
100
AcDbRegAppTableRecord
  2
GEVCON
 70
     0
  0
APPID
  5
235B
330
9
100
AcDbSymbolTableRecord
100
AcDbRegAppTableRecord
  2
GEVRADREF
 70
     0
  0
APPID
  5
2360
330
9
100
AcDbSymbolTableRecord
100
AcDbRegAppTableRecord
  2
GENIUS_GENBH_13
 70
     0
  0
APPID
  5
2362
330
9
100
AcDbSymbolTableRecord
100
AcDbRegAppTableRecord
  2
GENIUS_GENOBJ-NBEHI-BHF_13
 70
     0
  0
APPID
  5
2364
330
9
100
AcDbSymbolTableRecord
100
AcDbRegAppTableRecord
  2
GENIUS_GENOBJ-NBEHI-BHB_13
 70
     0
  0
APPID
  5
2379
330
9
100
AcDbSymbolTableRecord
100
AcDbRegAppTableRecord
  2
GENIUS_GENOBJ-F-SCPASSM_13
 70
     0
  0
APPID
  5
3D74
330
9
100
AcDbSymbolTableRecord
100
AcDbRegAppTableRecord
  2
GENIUS_GENDIM_13
 70
     0
  0
APPID
  5
3D76
330
9
100
AcDbSymbolTableRecord
100
AcDbRegAppTableRecord
  2
GENIUS_GE3DTOL_13
 70
     0
  0
APPID
  5
3D9C
330
9
100
AcDbSymbolTableRecord
100
AcDbRegAppTableRecord
  2
AD_DRAW
 70
     0
  0
APPID
  5
3DE8
330
9
100
AcDbSymbolTableRecord
100
AcDbRegAppTableRecord
  2
ASURF_PCURVE_APPNAME
 70
     0
  0
APPID
  5
3DED
330
9
100
AcDbSymbolTableRecord
100
AcDbRegAppTableRecord
  2
AMG_3D2D_5.0
 70
     0
  0
APPID
  5
3E1B
330
9
100
AcDbSymbolTableRecord
100
AcDbRegAppTableRecord
  2
DESIGNERASSEMBLIES
 70
     0
  0
APPID
  5
3E20
330
9
100
AcDbSymbolTableRecord
100
AcDbRegAppTableRecord
  2
ACADM_DIM_EDIT
 70
     0
  0
APPID
  5
3E21
330
9
100
AcDbSymbolTableRecord
100
AcDbRegAppTableRecord
  2
AMDT_DM_ADJ
 70
     0
  0
APPID
  5
4143
330
9
100
AcDbSymbolTableRecord
100
AcDbRegAppTableRecord
  2
GENIUS_GENFIL_13
 70
     0
  0
APPID
  5
4144
330
9
100
AcDbSymbolTableRecord
100
AcDbRegAppTableRecord
  2
GENIUS_GENOBJ-N-CHA_13
 70
     0
  0
APPID
  5
4E17
330
9
100
AcDbSymbolTableRecord
100
AcDbRegAppTableRecord
  2
GEVID1008153417
 70
     0
  0
APPID
  5
4E58
330
9
100
AcDbSymbolTableRecord
100
AcDbRegAppTableRecord
  2
GEVID1008153418
 70
     0
  0
APPID
  5
4E5E
330
9
100
AcDbSymbolTableRecord
100
AcDbRegAppTableRecord
  2
GEVID1008153419
 70
     0
  0
APPID
  5
4E64
330
9
100
AcDbSymbolTableRecord
100
AcDbRegAppTableRecord
  2
GEVID1008153420
 70
     0
  0
APPID
  5
4E75
330
9
100
AcDbSymbolTableRecord
100
AcDbRegAppTableRecord
  2
GEVID1008153421
 70
     0
  0
APPID
  5
4EB7
330
9
100
AcDbSymbolTableRecord
100
AcDbRegAppTableRecord
  2
GENIUS_AMGTXT_16
 70
     0
  0
APPID
  5
7645
330
9
100
AcDbSymbolTableRecord
100
AcDbRegAppTableRecord
  2
GENIUS_GENOBJ-N-DIM_13
 70
     0
  0
APPID
  5
AAD0
330
9
100
AcDbSymbolTableRecord
100
AcDbRegAppTableRecord
  2
ACAD_DSTYLE_DIMARC_LENGTH_SYMBOL
 70
     0
  0
APPID
  5
AAD1
330
9
100
AcDbSymbolTableRecord
100
AcDbRegAppTableRecord
  2
ACAD_DSTYLE_DIMJOGGED_JOGANGLE_SYMBOL
 70
     0
  0
APPID
  5
AAFD
330
9
100
AcDbSymbolTableRecord
100
AcDbRegAppTableRecord
  2
ACAD_PSEXT
 70
     0
  0
APPID
  5
AD61
330
9
100
AcDbSymbolTableRecord
100
AcDbRegAppTableRecord
  2
AcAecLayerStandard
 70
     0
  0
APPID
  5
AEE3
330
9
100
AcDbSymbolTableRecord
100
AcDbRegAppTableRecord
  2
ACAD_EXEMPT_FROM_CAD_STANDARDS
 70
     0
  0
APPID
  5
B1BE
330
9
100
AcDbSymbolTableRecord
100
AcDbRegAppTableRecord
  2
GENIUS_GENCEN_19
 70
     0
  0
APPID
  5
B4DF
330
9
100
AcDbSymbolTableRecord
100
AcDbRegAppTableRecord
  2
ACAD_MLEADERVER
 70
     0
  0
APPID
  5
AB4D9
330
9
100
AcDbSymbolTableRecord
100
AcDbRegAppTableRecord
  2
ACAD_NAV_VCDISPLAY
 70
     0
  0
APPID
  5
AB523
330
9
100
AcDbSymbolTableRecord
100
AcDbRegAppTableRecord
  2
ACAD_DSTYLE_DIMJAG
 70
     0
  0
APPID
  5
AB524
330
9
100
AcDbSymbolTableRecord
100
AcDbRegAppTableRecord
  2
ACAD_DSTYLE_DIMTALN
 70
     0
  0
APPID
  5
AB525
330
9
100
AcDbSymbolTableRecord
100
AcDbRegAppTableRecord
  2
ACAD_DSTYLE_DIMBREAK
 70
     0
  0
APPID
  5
AB89D
330
9
100
AcDbSymbolTableRecord
100
AcDbRegAppTableRecord
  2
CONTENTBLOCKDESCRIPTION
 70
     0
  0
APPID
  5
AB89E
330
9
100
AcDbSymbolTableRecord
100
AcDbRegAppTableRecord
  2
CONTENTBLOCKICON
 70
     0
  0
APPID
  5
AB89F
330
9
100
AcDbSymbolTableRecord
100
AcDbRegAppTableRecord
  2
CONTENTTABDATA
 70
     0
  0
APPID
  5
AB8A0
330
9
100
AcDbSymbolTableRecord
100
AcDbRegAppTableRecord
  2
CONTENTCURRENTTAB
 70
     0
  0
APPID
  5
AC67F
330
9
100
AcDbSymbolTableRecord
100
AcDbRegAppTableRecord
  2
ACAD_DSTYLE_DIMRADIAL_EXTENSION
 70
     0
  0
ENDTAB
  0
TABLE
  2
DIMSTYLE
  5
A
330
0
100
AcDbSymbolTable
 70
     1
100
AcDbDimStyleTable
 71
     1
340
AE759
  0
DIMSTYLE
105
AE759
102
{ACAD_REACTORS
330
AC697
330
AC6A4
330
AC6B1
330
AC68A
330
AC658
330
AC665
330
AC63E
330
AC64B
330
AE9C2
330
AEA7A
330
AEAD2
330
AEAEB
102
}
330
A
100
AcDbSymbolTableRecord
100
AcDbDimStyleTableRecord
  2
S-2
 70
     0
  4
"
 40
2.0
 41
1.0
 42
1.0
 43
10.0
 44
0.0
 47
0.1
 48
0.1
 73
     0
 74
     0
 77
     1
 78
     8
 79
     2
140
3.5
141
0.0
143
0.0393701
146
0.71
147
1.5
172
     1
176
   256
177
   256
178
     2
271
     2
272
     2
283
     0
284
     8
340
11
341
AB69A
342
AB69A
371
    -1
372
    -1
1001
ACAD_DSTYLE_DIMBREAK
1070
   391
1040
3.75
1001
ACAD_DSTYLE_DIMJAG
1070
   388
1040
1.5
1001
ACAD_DSTYLE_DIMTALN
1070
   392
1070
     0
1001
ACAD_DSTYLE_DIMARC_LENGTH_SYMBOL
1070
   379
1070
     1
  0
ENDTAB
  0
TABLE
  2
BLOCK_RECORD
  5
1
330
0
100
AcDbSymbolTable
 70
    14
  0
BLOCK_RECORD
  5
1F
102
{ACAD_XDICTIONARY
360
8A
102
}
330
1
100
AcDbSymbolTableRecord
100
AcDbBlockTableRecord
  2
*Model_Space
340
22
  0
BLOCK_RECORD
  5
1B
330
1
100
AcDbSymbolTableRecord
100
AcDbBlockTableRecord
  2
*Paper_Space
340
1E
  0
BLOCK_RECORD
  5
23
330
1
100
AcDbSymbolTableRecord
100
AcDbBlockTableRecord
  2
*Paper_Space0
340
26
  0
BLOCK_RECORD
  5
AB69A
330
1
100
AcDbSymbolTableRecord
100
AcDbBlockTableRecord
  2
_Dot
340
0
102
{BLKREFS
331
AEBA4
331
AEBA5
331
AEBAD
331
AEBAE
331
AEBB7
331
AEBB8
331
AEC44
331
AEC45
331
AEC4D
331
AEC4E
331
AEC56
331
AEC57
331
AEC5F
331
AEC60
331
AEC68
331
AEC69
331
AEC71
331
AEC72
331
AEC7A
331
AEC7B
331
AEC83
331
AEC8A
331
AEC8B
102
}
  0
BLOCK_RECORD
  5
AC63F
330
1
100
AcDbSymbolTableRecord
100
AcDbBlockTableRecord
  2
*D2
340
0
  0
BLOCK_RECORD
  5
AC64C
330
1
100
AcDbSymbolTableRecord
100
AcDbBlockTableRecord
  2
*D3
340
0
  0
BLOCK_RECORD
  5
AC659
330
1
100
AcDbSymbolTableRecord
100
AcDbBlockTableRecord
  2
*D4
340
0
  0
BLOCK_RECORD
  5
AC666
330
1
100
AcDbSymbolTableRecord
100
AcDbBlockTableRecord
  2
*D5
340
0
  0
BLOCK_RECORD
  5
AC68B
330
1
100
AcDbSymbolTableRecord
100
AcDbBlockTableRecord
  2
*D6
340
0
  0
BLOCK_RECORD
  5
AC698
330
1
100
AcDbSymbolTableRecord
100
AcDbBlockTableRecord
  2
*D7
340
0
  0
BLOCK_RECORD
  5
AC6A5
330
1
100
AcDbSymbolTableRecord
100
AcDbBlockTableRecord
  2
*D8
340
0
  0
BLOCK_RECORD
  5
AC6B2
330
1
100
AcDbSymbolTableRecord
100
AcDbBlockTableRecord
  2
*D9
340
0
  0
BLOCK_RECORD
  5
AE9C3
330
1
100
AcDbSymbolTableRecord
100
AcDbBlockTableRecord
  2
*D10
340
0
  0
BLOCK_RECORD
  5
AEA7B
330
1
100
AcDbSymbolTableRecord
100
AcDbBlockTableRecord
  2
*D11
340
0
  0
BLOCK_RECORD
  5
AEAD3
330
1
100
AcDbSymbolTableRecord
100
AcDbBlockTableRecord
  2
*D12
340
0
  0
BLOCK_RECORD
  5
AEAEC
330
1
100
AcDbSymbolTableRecord
100
AcDbBlockTableRecord
  2
*D13
340
0
  0
ENDTAB
  0
ENDSEC
  0
SECTION
  2
BLOCKS
  0
BLOCK
  5
20
330
1F
100
AcDbEntity
  8
0
100
AcDbBlockBegin
  2
*Model_Space
 70
     0
 10
0.0
 20
0.0
 30
0.0
  3
*Model_Space
  1

  0
ENDBLK
  5
21
330
1F
100
AcDbEntity
  8
0
100
AcDbBlockEnd
  0
BLOCK
  5
1C
330
1B
100
AcDbEntity
 67
     1
  8
0
100
AcDbBlockBegin
  2
*Paper_Space
 70
     0
 10
0.0
 20
0.0
 30
0.0
  3
*Paper_Space
  1

  0
ENDBLK
  5
1D
330
1B
100
AcDbEntity
 67
     1
  8
0
100
AcDbBlockEnd
  0
BLOCK
  5
24
330
23
100
AcDbEntity
 67
     1
  8
0
100
AcDbBlockBegin
  2
*Paper_Space0
 70
     0
 10
0.0
 20
0.0
 30
0.0
  3
*Paper_Space0
  1

  0
ENDBLK
  5
25
330
23
100
AcDbEntity
 67
     1
  8
0
100
AcDbBlockEnd
  0
BLOCK
  5
AB69D
330
AB69A
100
AcDbEntity
  8
0
100
AcDbBlockBegin
  2
_Dot
 70
     0
 10
0.0
 20
0.0
 30
0.0
  3
_Dot
  1

  0
LWPOLYLINE
  5
AB69B
330
AB69A
100
AcDbEntity
  8
0
  6
ByBlock
 62
     0
100
AcDbPolyline
 90
        2
 70
     1
 43
0.5
 10
-0.25
 20
0.0
 42
1.0
 10
0.25
 20
0.0
 42
1.0
  0
LINE
  5
AB69C
330
AB69A
100
AcDbEntity
  8
0
  6
ByBlock
 62
     0
370
    -2
100
AcDbLine
 10
-0.5
 20
0.0
 30
0.0
 11
-1.0
 21
0.0
 31
0.0
  0
ENDBLK
  5
AB69E
330
AB69A
100
AcDbEntity
  8
0
100
AcDbBlockEnd
  0
BLOCK
  5
AC640
330
AC63F
100
AcDbEntity
  8
0
100
AcDbBlockBegin
  2
*D2
 70
     1
 10
0.0
 20
0.0
 30
0.0
  3
*D2
  1

  0
LINE
  5
AEC41
330
AC63F
100
AcDbEntity
  8
AM_5
100
AcDbLine
 10
982.0983540463654
 20
648.1808560286561
 30
0.0
 11
1064.204010101107
 21
648.1808560286561
 31
0.0
  0
LINE
  5
AEC42
330
AC63F
100
AcDbEntity
  8
AM_5
100
AcDbLine
 10
982.0983540463654
 20
553.180856028656
 30
0.0
 11
1064.204010101107
 21
553.180856028656
 31
0.0
  0
LINE
  5
AEC43
330
AC63F
100
AcDbEntity
  8
AM_5
100
AcDbLine
 10
1064.204010101107
 20
646.180856028656
 30
0.0
 11
1064.204010101107
 21
555.180856028656
 31
0.0
  0
INSERT
  5
AEC44
330
AC63F
100
AcDbEntity
  8
AM_5
100
AcDbBlockReference
  2
_Dot
 10
1064.204010101107
 20
648.1808560286561
 30
0.0
 41
2.0
 42
2.0
 43
2.0
 50
90.0
  0
INSERT
  5
AEC45
330
AC63F
100
AcDbEntity
  8
AM_5
100
AcDbBlockReference
  2
_Dot
 10
1064.204010101107
 20
553.180856028656
 30
0.0
 41
2.0
 42
2.0
 43
2.0
 50
270.0
  0
MTEXT
  5
AEC46
330
AC63F
100
AcDbEntity
  8
AM_5
 62
     2
100
AcDbMText
 10
1057.704010101107
 20
600.6808560286562
 30
0.0
 40
7.0
 41
0.0
 71
     5
 72
     1
  1
B
 11
0.0000000000000001
 21
1.0
 31
0.0
 73
     1
 44
1.0
1001
ACAD
1000
MTEXTBEGIN
1070
    73
1070
     1
1070
    44
1040
1.0
1070
    74
1070
     0
1000
MTEXTEND
  0
POINT
  5
AEC47
330
AC63F
100
AcDbEntity
  8
Defpoints
 62
     0
100
AcDbPoint
 10
980.0983540463652
 20
648.1808560286561
 30
0.0
  0
POINT
  5
AEC48
330
AC63F
100
AcDbEntity
  8
Defpoints
 62
     0
100
AcDbPoint
 10
980.0983540463652
 20
553.180856028656
 30
0.0
  0
POINT
  5
AEC49
330
AC63F
100
AcDbEntity
  8
Defpoints
 62
     0
100
AcDbPoint
 10
1064.204010101107
 20
553.180856028656
 30
0.0
  0
ENDBLK
  5
AC641
330
AC63F
100
AcDbEntity
  8
0
100
AcDbBlockEnd
  0
BLOCK
  5
AC64D
330
AC64C
100
AcDbEntity
  8
0
100
AcDbBlockBegin
  2
*D3
 70
     1
 10
0.0
 20
0.0
 30
0.0
  3
*D3
  1

  0
LINE
  5
AEC4A
330
AC64C
100
AcDbEntity
  8
AM_5
100
AcDbLine
 10
990.5983540463653
 20
637.680856028656
 30
0.0
 11
1046.994733598188
 21
637.680856028656
 31
0.0
  0
LINE
  5
AEC4B
330
AC64C
100
AcDbEntity
  8
AM_5
100
AcDbLine
 10
990.5983540463653
 20
563.680856028656
 30
0.0
 11
1046.994733598188
 21
563.680856028656
 31
0.0
  0
LINE
  5
AEC4C
330
AC64C
100
AcDbEntity
  8
AM_5
100
AcDbLine
 10
1046.994733598188
 20
635.6808560286561
 30
0.0
 11
1046.994733598188
 21
565.680856028656
 31
0.0
  0
INSERT
  5
AEC4D
330
AC64C
100
AcDbEntity
  8
AM_5
100
AcDbBlockReference
  2
_Dot
 10
1046.994733598188
 20
637.680856028656
 30
0.0
 41
2.0
 42
2.0
 43
2.0
 50
90.0
  0
INSERT
  5
AEC4E
330
AC64C
100
AcDbEntity
  8
AM_5
100
AcDbBlockReference
  2
_Dot
 10
1046.994733598188
 20
563.680856028656
 30
0.0
 41
2.0
 42
2.0
 43
2.0
 50
270.0
  0
MTEXT
  5
AEC4F
330
AC64C
100
AcDbEntity
  8
AM_5
 62
     2
100
AcDbMText
 10
1040.494733598188
 20
600.6808560286562
 30
0.0
 40
7.0
 41
0.0
 71
     5
 72
     1
  1
Y
 11
0.0000000000000001
 21
1.0
 31
0.0
 73
     1
 44
1.0
1001
ACAD
1000
MTEXTBEGIN
1070
    73
1070
     1
1070
    44
1040
1.0
1070
    74
1070
     0
1000
MTEXTEND
  0
POINT
  5
AEC50
330
AC64C
100
AcDbEntity
  8
Defpoints
 62
     0
100
AcDbPoint
 10
988.5983540463653
 20
637.680856028656
 30
0.0
  0
POINT
  5
AEC51
330
AC64C
100
AcDbEntity
  8
Defpoints
 62
     0
100
AcDbPoint
 10
988.5983540463653
 20
563.680856028656
 30
0.0
  0
POINT
  5
AEC52
330
AC64C
100
AcDbEntity
  8
Defpoints
 62
     0
100
AcDbPoint
 10
1046.994733598188
 20
563.680856028656
 30
0.0
  0
ENDBLK
  5
AC64E
330
AC64C
100
AcDbEntity
  8
0
100
AcDbBlockEnd
  0
BLOCK
  5
AC65A
330
AC659
100
AcDbEntity
  8
0
100
AcDbBlockBegin
  2
*D4
 70
     1
 10
0.0
 20
0.0
 30
0.0
  3
*D4
  1

  0
LINE
  5
AEC53
330
AC659
100
AcDbEntity
  8
AM_5
100
AcDbLine
 10
906.0983540463652
 20
553.180856028656
 30
0.0
 11
906.0983540463652
 21
504.035510885439
 31
0.0
  0
LINE
  5
AEC54
330
AC659
100
AcDbEntity
  8
AM_5
100
AcDbLine
 10
980.0983540463652
 20
553.180856028656
 30
0.0
 11
980.0983540463652
 21
504.035510885439
 31
0.0
  0
LINE
  5
AEC55
330
AC659
100
AcDbEntity
  8
AM_5
100
AcDbLine
 10
908.0983540463654
 20
504.035510885439
 30
0.0
 11
978.0983540463653
 21
504.035510885439
 31
0.0
  0
INSERT
  5
AEC56
330
AC659
100
AcDbEntity
  8
AM_5
100
AcDbBlockReference
  2
_Dot
 10
906.0983540463652
 20
504.035510885439
 30
0.0
 41
2.0
 42
2.0
 43
2.0
 50
180.0
  0
INSERT
  5
AEC57
330
AC659
100
AcDbEntity
  8
AM_5
100
AcDbBlockReference
  2
_Dot
 10
980.0983540463652
 20
504.035510885439
 30
0.0
 41
2.0
 42
2.0
 43
2.0
  0
MTEXT
  5
AEC58
330
AC659
100
AcDbEntity
  8
AM_5
 62
     2
100
AcDbMText
 10
943.0983540463653
 20
510.5355108854389
 30
0.0
 40
7.0
 41
0.0
 71
     5
 72
     1
  1
X
 73
     1
 44
1.0
1001
ACAD
1000
MTEXTBEGIN
1070
    73
1070
     1
1070
    44
1040
1.0
1070
    74
1070
     0
1000
MTEXTEND
  0
POINT
  5
AEC59
330
AC659
100
AcDbEntity
  8
Defpoints
 62
     0
100
AcDbPoint
 10
906.0983540463652
 20
555.180856028656
 30
0.0
  0
POINT
  5
AEC5A
330
AC659
100
AcDbEntity
  8
Defpoints
 62
     0
100
AcDbPoint
 10
980.0983540463652
 20
555.180856028656
 30
0.0
  0
POINT
  5
AEC5B
330
AC659
100
AcDbEntity
  8
Defpoints
 62
     0
100
AcDbPoint
 10
980.0983540463652
 20
504.035510885439
 30
0.0
  0
ENDBLK
  5
AC65B
330
AC659
100
AcDbEntity
  8
0
100
AcDbBlockEnd
  0
BLOCK
  5
AC667
330
AC666
100
AcDbEntity
  8
0
100
AcDbBlockBegin
  2
*D5
 70
     1
 10
0.0
 20
0.0
 30
0.0
  3
*D5
  1

  0
LINE
  5
AEC5C
330
AC666
100
AcDbEntity
  8
AM_5
100
AcDbLine
 10
990.5983540463653
 20
561.680856028656
 30
0.0
 11
990.5983540463653
 21
489.3579862761206
 31
0.0
  0
LINE
  5
AEC5D
330
AC666
100
AcDbEntity
  8
AM_5
100
AcDbLine
 10
895.5983540463654
 20
561.680856028656
 30
0.0
 11
895.5983540463654
 21
489.3579862761206
 31
0.0
  0
LINE
  5
AEC5E
330
AC666
100
AcDbEntity
  8
AM_5
100
AcDbLine
 10
988.5983540463653
 20
489.3579862761206
 30
0.0
 11
897.5983540463653
 21
489.3579862761206
 31
0.0
  0
INSERT
  5
AEC5F
330
AC666
100
AcDbEntity
  8
AM_5
100
AcDbBlockReference
  2
_Dot
 10
990.5983540463653
 20
489.3579862761206
 30
0.0
 41
2.0
 42
2.0
 43
2.0
  0
INSERT
  5
AEC60
330
AC666
100
AcDbEntity
  8
AM_5
100
AcDbBlockReference
  2
_Dot
 10
895.5983540463654
 20
489.3579862761206
 30
0.0
 41
2.0
 42
2.0
 43
2.0
 50
180.0
  0
MTEXT
  5
AEC61
330
AC666
100
AcDbEntity
  8
AM_5
 62
     2
100
AcDbMText
 10
943.0983540463653
 20
495.8579862761205
 30
0.0
 40
7.0
 41
0.0
 71
     5
 72
     1
  1
A
 73
     1
 44
1.0
1001
ACAD
1000
MTEXTBEGIN
1070
    73
1070
     1
1070
    44
1040
1.0
1070
    74
1070
     0
1000
MTEXTEND
  0
POINT
  5
AEC62
330
AC666
100
AcDbEntity
  8
Defpoints
 62
     0
100
AcDbPoint
 10
990.5983540463653
 20
563.680856028656
 30
0.0
  0
POINT
  5
AEC63
330
AC666
100
AcDbEntity
  8
Defpoints
 62
     0
100
AcDbPoint
 10
895.5983540463654
 20
563.680856028656
 30
0.0
  0
POINT
  5
AEC64
330
AC666
100
AcDbEntity
  8
Defpoints
 62
     0
100
AcDbPoint
 10
895.5983540463654
 20
489.3579862761206
 30
0.0
  0
ENDBLK
  5
AC668
330
AC666
100
AcDbEntity
  8
0
100
AcDbBlockEnd
  0
BLOCK
  5
AC68C
330
AC68B
100
AcDbEntity
  8
0
100
AcDbBlockBegin
  2
*D6
 70
     1
 10
0.0
 20
0.0
 30
0.0
  3
*D6
  1

  0
LINE
  5
AEC65
330
AC68B
100
AcDbEntity
  8
AM_5
100
AcDbLine
 10
862.098353597767
 20
584.680856028656
 30
0.0
 11
828.9723607866758
 21
584.680856028656
 31
0.0
  0
LINE
  5
AEC66
330
AC68B
100
AcDbEntity
  8
AM_5
100
AcDbLine
 10
862.098353597767
 20
616.6808560286561
 30
0.0
 11
828.9723607866758
 21
616.6808560286561
 31
0.0
  0
LINE
  5
AEC67
330
AC68B
100
AcDbEntity
  8
AM_5
100
AcDbLine
 10
828.9723607866758
 20
586.680856028656
 30
0.0
 11
828.9723607866758
 21
614.6808560286562
 31
0.0
  0
INSERT
  5
AEC68
330
AC68B
100
AcDbEntity
  8
AM_5
100
AcDbBlockReference
  2
_Dot
 10
828.9723607866758
 20
584.680856028656
 30
0.0
 41
2.0
 42
2.0
 43
2.0
 50
270.0
  0
INSERT
  5
AEC69
330
AC68B
100
AcDbEntity
  8
AM_5
100
AcDbBlockReference
  2
_Dot
 10
828.9723607866758
 20
616.6808560286561
 30
0.0
 41
2.0
 42
2.0
 43
2.0
 50
90.0
  0
MTEXT
  5
AEC6A
330
AC68B
100
AcDbEntity
  8
AM_5
 62
     2
100
AcDbMText
 10
822.4723607866756
 20
600.6808560286563
 30
0.0
 40
7.0
 41
0.0
 71
     5
 72
     1
  1
W
 11
0.0000000000000001
 21
1.0
 31
0.0
 73
     1
 44
1.0
1001
ACAD
1000
MTEXTBEGIN
1070
    73
1070
     1
1070
    44
1040
1.0
1070
    74
1070
     0
1000
MTEXTEND
  0
POINT
  5
AEC6B
330
AC68B
100
AcDbEntity
  8
Defpoints
 62
     0
100
AcDbPoint
 10
864.0983535977671
 20
584.680856028656
 30
0.0
  0
POINT
  5
AEC6C
330
AC68B
100
AcDbEntity
  8
Defpoints
 62
     0
100
AcDbPoint
 10
864.0983535977671
 20
616.6808560286561
 30
0.0
  0
POINT
  5
AEC6D
330
AC68B
100
AcDbEntity
  8
Defpoints
 62
     0
100
AcDbPoint
 10
828.9723607866758
 20
616.6808560286561
 30
0.0
  0
ENDBLK
  5
AC68D
330
AC68B
100
AcDbEntity
  8
0
100
AcDbBlockEnd
  0
BLOCK
  5
AC699
330
AC698
100
AcDbEntity
  8
0
100
AcDbBlockBegin
  2
*D7
 70
     1
 10
0.0
 20
0.0
 30
0.0
  3
*D7
  1

  0
LINE
  5
AEBA1
330
AC698
100
AcDbEntity
  8
AM_5
100
AcDbLine
 10
909.0983535977667
 20
299.5793965472843
 30
0.0
 11
828.6418248754207
 21
299.5793965472844
 31
0.0
  0
LINE
  5
AEBA2
330
AC698
100
AcDbEntity
  8
AM_5
100
AcDbLine
 10
893.5983540463643
 20
443.5793965472857
 30
0.0
 11
828.6418248754207
 21
443.5793965472857
 31
0.0
  0
LINE
  5
AEBA3
330
AC698
100
AcDbEntity
  8
AM_5
100
AcDbLine
 10
828.6418248754207
 20
301.5793965472844
 30
0.0
 11
828.6418248754207
 21
441.5793965472857
 31
0.0
  0
INSERT
  5
AEBA4
330
AC698
100
AcDbEntity
  8
AM_5
100
AcDbBlockReference
  2
_Dot
 10
828.6418248754207
 20
299.5793965472844
 30
0.0
 41
2.0
 42
2.0
 43
2.0
 50
270.0
  0
INSERT
  5
AEBA5
330
AC698
100
AcDbEntity
  8
AM_5
100
AcDbBlockReference
  2
_Dot
 10
828.6418248754207
 20
443.5793965472857
 30
0.0
 41
2.0
 42
2.0
 43
2.0
 50
90.0
  0
MTEXT
  5
AEBA6
330
AC698
100
AcDbEntity
  8
AM_5
 62
     2
100
AcDbMText
 10
822.1418248754206
 20
371.5793965472852
 30
0.0
 40
7.0
 41
0.0
 71
     5
 72
     1
  1
H
 11
0.0000000000000001
 21
1.0
 31
0.0
 73
     1
 44
1.0
1001
ACAD
1000
MTEXTBEGIN
1070
    73
1070
     1
1070
    44
1040
1.0
1070
    74
1070
     0
1000
MTEXTEND
  0
POINT
  5
AEBA7
330
AC698
100
AcDbEntity
  8
Defpoints
 62
     0
100
AcDbPoint
 10
911.0983535977666
 20
299.5793965472843
 30
0.0
  0
POINT
  5
AEBA8
330
AC698
100
AcDbEntity
  8
Defpoints
 62
     0
100
AcDbPoint
 10
895.5983540463645
 20
443.5793965472857
 30
0.0
  0
POINT
  5
AEBA9
330
AC698
100
AcDbEntity
  8
Defpoints
 62
     0
100
AcDbPoint
 10
828.6418248754207
 20
443.5793965472857
 30
0.0
  0
ENDBLK
  5
AC69A
330
AC698
100
AcDbEntity
  8
0
100
AcDbBlockEnd
  0
BLOCK
  5
AC6A6
330
AC6A5
100
AcDbEntity
  8
0
100
AcDbBlockBegin
  2
*D8
 70
     1
 10
0.0
 20
0.0
 30
0.0
  3
*D8
  1

  0
LINE
  5
AEBAA
330
AC6A5
100
AcDbEntity
  8
AM_5
100
AcDbLine
 10
911.0983535977666
 20
291.4593965472857
 30
0.0
 11
911.0983535977666
 21
268.4534037361883
 31
0.0
  0
LINE
  5
AEBAB
330
AC6A5
100
AcDbEntity
  8
AM_5
100
AcDbLine
 10
943.0983540463644
 20
371.020755393904
 30
0.0
 11
943.0983540463644
 21
268.4534037361883
 31
0.0
  0
LINE
  5
AEBAC
330
AC6A5
100
AcDbEntity
  8
AM_5
100
AcDbLine
 10
913.0983535977666
 20
268.4534037361883
 30
0.0
 11
941.0983540463645
 21
268.4534037361883
 31
0.0
  0
INSERT
  5
AEBAD
330
AC6A5
100
AcDbEntity
  8
AM_5
100
AcDbBlockReference
  2
_Dot
 10
911.0983535977666
 20
268.4534037361883
 30
0.0
 41
2.0
 42
2.0
 43
2.0
 50
180.0
  0
INSERT
  5
AEBAE
330
AC6A5
100
AcDbEntity
  8
AM_5
100
AcDbBlockReference
  2
_Dot
 10
943.0983540463644
 20
268.4534037361883
 30
0.0
 41
2.0
 42
2.0
 43
2.0
  0
MTEXT
  5
AEBAF
330
AC6A5
100
AcDbEntity
  8
AM_5
 62
     2
100
AcDbMText
 10
927.0983538220654
 20
274.9534037361883
 30
0.0
 40
7.0
 41
0.0
 71
     5
 72
     1
  1
E
 73
     1
 44
1.0
1001
ACAD
1000
MTEXTBEGIN
1070
    73
1070
     1
1070
    44
1040
1.0
1070
    74
1070
     0
1000
MTEXTEND
  0
POINT
  5
AEBB0
330
AC6A5
100
AcDbEntity
  8
Defpoints
 62
     0
100
AcDbPoint
 10
911.0983535977666
 20
293.4593965472857
 30
0.0
  0
POINT
  5
AEBB1
330
AC6A5
100
AcDbEntity
  8
Defpoints
 62
     0
100
AcDbPoint
 10
943.0983540463644
 20
373.020755393904
 30
0.0
  0
POINT
  5
AEBB2
330
AC6A5
100
AcDbEntity
  8
Defpoints
 62
     0
100
AcDbPoint
 10
943.0983540463644
 20
268.4534037361883
 30
0.0
  0
ENDBLK
  5
AC6A7
330
AC6A5
100
AcDbEntity
  8
0
100
AcDbBlockEnd
  0
BLOCK
  5
AC6B3
330
AC6B2
100
AcDbEntity
  8
0
100
AcDbBlockBegin
  2
*D9
 70
     1
 10
0.0
 20
0.0
 30
0.0
  3
*D9
  1

  0
LINE
  5
AEBB3
330
AC6B2
100
AcDbEntity
  8
AM_5
100
AcDbLine
 10
960.5152674334595
 20
310.0744634620739
 30
0.0
 11
951.7149951065555
 21
317.1095885320429
 31
0.0
  0
LINE
  5
AEBB4
330
AC6B2
100
AcDbEntity
  8
AM_5
100
AcDbLine
 10
870.4817120889815
 20
382.0492045625258
 30
0.0
 11
868.9195335694128
 21
383.2980433323428
 31
0.0
  0
MTEXT
  5
AEBB5
330
AC6B2
100
AcDbEntity
  8
AM_5
 62
     2
100
AcDbMText
 10
960.954946531697
 20
318.0446868007483
 30
0.0
 40
7.0
 41
0.0
 71
     5
 72
     1
  1
D
 11
0.7810892597843712
 21
-0.624419384908495
 31
0.0
 73
     1
 44
1.0
1001
ACAD
1000
MTEXTBEGIN
1070
    73
1070
     1
1070
    44
1040
1.0
1070
    74
1070
     0
1000
MTEXTEND
  0
LINE
  5
AEBB6
330
AC6B2
100
AcDbEntity
  8
AM_5
100
AcDbLine
 10
872.0438906085503
 20
380.8003657927089
 30
0.0
 11
950.1528165869869
 21
318.3584273018599
 31
0.0
  0
INSERT
  5
AEBB7
330
AC6B2
100
AcDbEntity
  8
AM_5
100
AcDbBlockReference
  2
_Dot
 10
872.0438906085503
 20
380.8003657927089
 30
0.0
 41
2.0
 42
2.0
 43
2.0
 50
321.360415471922
  0
INSERT
  5
AEBB8
330
AC6B2
100
AcDbEntity
  8
AM_5
100
AcDbBlockReference
  2
_Dot
 10
950.1528165869869
 20
318.3584273018599
 30
0.0
 41
2.0
 42
2.0
 43
2.0
 50
141.3604154719219
  0
POINT
  5
AEBB9
330
AC6B2
100
AcDbEntity
  8
Defpoints
 62
     0
100
AcDbPoint
 10
950.1528165869869
 20
318.3584273018599
 30
0.0
  0
POINT
  5
AEBBA
330
AC6B2
100
AcDbEntity
  8
Defpoints
 62
     0
100
AcDbPoint
 10
872.0438906085503
 20
380.8003657927089
 30
0.0
  0
ENDBLK
  5
AC6B4
330
AC6B2
100
AcDbEntity
  8
0
100
AcDbBlockEnd
  0
BLOCK
  5
AE9C4
330
AE9C3
100
AcDbEntity
  8
0
100
AcDbBlockBegin
  2
*D10
 70
     1
 10
0.0
 20
0.0
 30
0.0
  3
*D10
  1

  0
LINE
  5
AEC6E
330
AE9C3
100
AcDbEntity
  8
AM_5
100
AcDbLine
 10
989.8443207387799
 20
634.1808560286564
 30
0.0
 11
1030.435130968704
 21
634.1808560286564
 31
0.0
  0
LINE
  5
AEC6F
330
AE9C3
100
AcDbEntity
  8
AM_5
100
AcDbLine
 10
989.8443207387799
 20
567.180856028656
 30
0.0
 11
1030.435130968704
 21
567.180856028656
 31
0.0
  0
LINE
  5
AEC70
330
AE9C3
100
AcDbEntity
  8
AM_5
100
AcDbLine
 10
1030.435130968704
 20
632.1808560286564
 30
0.0
 11
1030.435130968704
 21
569.1808560286561
 31
0.0
  0
INSERT
  5
AEC71
330
AE9C3
100
AcDbEntity
  8
AM_5
100
AcDbBlockReference
  2
_Dot
 10
1030.435130968704
 20
634.1808560286564
 30
0.0
 41
2.0
 42
2.0
 43
2.0
 50
90.0
  0
INSERT
  5
AEC72
330
AE9C3
100
AcDbEntity
  8
AM_5
100
AcDbBlockReference
  2
_Dot
 10
1030.435130968704
 20
567.180856028656
 30
0.0
 41
2.0
 42
2.0
 43
2.0
 50
270.0
  0
MTEXT
  5
AEC73
330
AE9C3
100
AcDbEntity
  8
AM_5
 62
     2
100
AcDbMText
 10
1023.268464302037
 20
600.6808560286564
 30
0.0
 40
7.0
 41
0.0
 71
     5
 72
     1
  1
Y'
 11
0.0000000000000001
 21
1.0
 31
0.0
 73
     1
 44
1.0
1001
ACAD
1000
MTEXTBEGIN
1070
    73
1070
     1
1070
    44
1040
1.0
1070
    74
1070
     0
1000
MTEXTEND
  0
POINT
  5
AEC74
330
AE9C3
100
AcDbEntity
  8
Defpoints
 62
     0
100
AcDbPoint
 10
987.84432073878
 20
634.1808560286564
 30
0.0
  0
POINT
  5
AEC75
330
AE9C3
100
AcDbEntity
  8
Defpoints
 62
     0
100
AcDbPoint
 10
987.84432073878
 20
567.180856028656
 30
0.0
  0
POINT
  5
AEC76
330
AE9C3
100
AcDbEntity
  8
Defpoints
 62
     0
100
AcDbPoint
 10
1030.435130968704
 20
567.180856028656
 30
0.0
  0
ENDBLK
  5
AE9C5
330
AE9C3
100
AcDbEntity
  8
0
100
AcDbBlockEnd
  0
BLOCK
  5
AEA7C
330
AEA7B
100
AcDbEntity
  8
0
100
AcDbBlockBegin
  2
*D11
 70
     1
 10
0.0
 20
0.0
 30
0.0
  3
*D11
  1

  0
LINE
  5
AEC77
330
AEA7B
100
AcDbEntity
  8
AM_5
100
AcDbLine
 10
909.5983540463652
 20
553.9348893362414
 30
0.0
 11
909.5983540463652
 21
519.6577288162761
 31
0.0
  0
LINE
  5
AEC78
330
AEA7B
100
AcDbEntity
  8
AM_5
100
AcDbLine
 10
976.5983540463652
 20
553.9348893362414
 30
0.0
 11
976.5983540463652
 21
519.6577288162761
 31
0.0
  0
LINE
  5
AEC79
330
AEA7B
100
AcDbEntity
  8
AM_5
100
AcDbLine
 10
911.5983540463654
 20
519.6577288162761
 30
0.0
 11
974.5983540463653
 21
519.6577288162761
 31
0.0
  0
INSERT
  5
AEC7A
330
AEA7B
100
AcDbEntity
  8
AM_5
100
AcDbBlockReference
  2
_Dot
 10
909.5983540463652
 20
519.6577288162761
 30
0.0
 41
2.0
 42
2.0
 43
2.0
 50
180.0
  0
INSERT
  5
AEC7B
330
AEA7B
100
AcDbEntity
  8
AM_5
100
AcDbBlockReference
  2
_Dot
 10
976.5983540463652
 20
519.6577288162761
 30
0.0
 41
2.0
 42
2.0
 43
2.0
  0
MTEXT
  5
AEC7C
330
AEA7B
100
AcDbEntity
  8
AM_5
 62
     2
100
AcDbMText
 10
943.0983540463653
 20
526.8243954829427
 30
0.0
 40
7.0
 41
0.0
 71
     5
 72
     1
  1
X'
 73
     1
 44
1.0
1001
ACAD
1000
MTEXTBEGIN
1070
    73
1070
     1
1070
    44
1040
1.0
1070
    74
1070
     0
1000
MTEXTEND
  0
POINT
  5
AEC7D
330
AEA7B
100
AcDbEntity
  8
Defpoints
 62
     0
100
AcDbPoint
 10
909.5983540463652
 20
555.9348893362414
 30
0.0
  0
POINT
  5
AEC7E
330
AEA7B
100
AcDbEntity
  8
Defpoints
 62
     0
100
AcDbPoint
 10
976.5983540463652
 20
555.9348893362414
 30
0.0
  0
POINT
  5
AEC7F
330
AEA7B
100
AcDbEntity
  8
Defpoints
 62
     0
100
AcDbPoint
 10
976.5983540463652
 20
519.6577288162761
 30
0.0
  0
ENDBLK
  5
AEA7D
330
AEA7B
100
AcDbEntity
  8
0
100
AcDbBlockEnd
  0
BLOCK
  5
AEAD4
330
AEAD3
100
AcDbEntity
  8
0
100
AcDbBlockBegin
  2
*D12
 70
     1
 10
0.0
 20
0.0
 30
0.0
  3
*D12
  1

  0
LINE
  5
AEC80
330
AEAD3
100
AcDbEntity
  8
AM_5
100
AcDbLine
 10
858.9568592572096
 20
556.0048374904704
 30
0.0
 11
868.9078128047023
 21
561.2884254071628
 31
0.0
  0
MTEXT
  5
AEC81
330
AEAD3
100
AcDbEntity
  8
AM_5
 62
     2
100
AcDbMText
 10
860.0008915037969
 20
563.918608680356
 30
0.0
 40
7.0
 41
0.0
 71
     5
 72
     1
  1
R
 11
0.8832207290674055
 21
0.4689575073987414
 31
0.0
 73
     1
 44
1.0
1001
ACAD
1000
MTEXTBEGIN
1070
    73
1070
     1
1070
    44
1040
1.0
1070
    74
1070
     0
1000
MTEXTEND
  0
LINE
  5
AEC82
330
AEAD3
100
AcDbEntity
  8
AM_5
100
AcDbLine
 10
943.0983540463623
 20
600.680856028656
 30
0.0
 11
870.6742542628374
 21
562.2263404219604
 31
0.0
  0
INSERT
  5
AEC83
330
AEAD3
100
AcDbEntity
  8
AM_5
100
AcDbBlockReference
  2
_Dot
 10
870.6742542628374
 20
562.2263404219604
 30
0.0
 41
2.0
 42
2.0
 43
2.0
 50
27.96664734281295
  0
ARC
  5
AEC84
330
AEAD3
100
AcDbEntity
  8
AM_5
100
AcDbCircle
 10
943.0983540463623
 20
600.680856028656
 30
0.0
 40
81.9999999999975
100
AcDbArc
 50
197.3231772506779
 51
207.9666473428129
  0
POINT
  5
AEC85
330
AEAD3
100
AcDbEntity
  8
Defpoints
 62
     0
100
AcDbPoint
 10
870.6742542628374
 20
562.2263404219604
 30
0.0
  0
POINT
  5
AEC86
330
AEAD3
100
AcDbEntity
  8
Defpoints
 62
     0
100
AcDbPoint
 10
943.0983540463623
 20
600.680856028656
 30
0.0
  0
ENDBLK
  5
AEAD5
330
AEAD3
100
AcDbEntity
  8
0
100
AcDbBlockEnd
  0
BLOCK
  5
AEAED
330
AEAEC
100
AcDbEntity
  8
0
100
AcDbBlockBegin
  2
*D13
 70
     1
 10
0.0
 20
0.0
 30
0.0
  3
*D13
  1

  0
LINE
  5
AEC87
330
AEAEC
100
AcDbEntity
  8
AM_5
100
AcDbLine
 10
975.8734803122123
 20
560.1275551697567
 30
0.0
 11
1009.338395203613
 21
526.6626402783559
 31
0.0
  0
LINE
  5
AEC88
330
AEAEC
100
AcDbEntity
  8
AM_5
100
AcDbLine
 10
983.6516549052653
 20
567.9057297628098
 30
0.0
 11
1017.116569796666
 21
534.4408148714091
 31
0.0
  0
LINE
  5
AEC89
330
AEAEC
100
AcDbEntity
  8
AM_5
100
AcDbLine
 10
1010.752608765987
 20
528.0768538407291
 30
0.0
 11
1015.702356234293
 21
533.0266013090359
 31
0.0
  0
INSERT
  5
AEC8A
330
AEAEC
100
AcDbEntity
  8
AM_5
100
AcDbBlockReference
  2
_Dot
 10
1009.338395203613
 20
526.6626402783559
 30
0.0
 41
2.0
 42
2.0
 43
2.0
 50
225.0000000000004
  0
INSERT
  5
AEC8B
330
AEAEC
100
AcDbEntity
  8
AM_5
100
AcDbBlockReference
  2
_Dot
 10
1017.116569796666
 20
534.4408148714091
 30
0.0
 41
2.0
 42
2.0
 43
2.0
 50
45.00000000000041
  0
MTEXT
  5
AEC8C
330
AEAEC
100
AcDbEntity
  8
AM_5
 62
     2
100
AcDbMText
 10
1008.631288422427
 20
535.1479216525949
 30
0.0
 40
7.0
 41
0.0
 71
     5
 72
     1
  1
P
 11
0.7071067811865424
 21
0.7071067811865527
 31
0.0
 73
     1
 44
1.0
1001
ACAD
1000
MTEXTBEGIN
1070
    73
1070
     1
1070
    44
1040
1.0
1070
    74
1070
     0
1000
MTEXTEND
  0
POINT
  5
AEC8D
330
AEAEC
100
AcDbEntity
  8
Defpoints
 62
     0
100
AcDbPoint
 10
974.4592667498393
 20
561.5417687321298
 30
0.0
  0
POINT
  5
AEC8E
330
AEAEC
100
AcDbEntity
  8
Defpoints
 62
     0
100
AcDbPoint
 10
982.2374413428923
 20
569.3199433251829
 30
0.0
  0
POINT
  5
AEC8F
330
AEAEC
100
AcDbEntity
  8
Defpoints
 62
     0
100
AcDbPoint
 10
1017.116569796666
 20
534.4408148714091
 30
0.0
  0
ENDBLK
  5
AEAEE
330
AEAEC
100
AcDbEntity
  8
0
100
AcDbBlockEnd
  0
ENDSEC
  0
SECTION
  2
ENTITIES
  0
MTEXT
  5
7AC05
330
1F
100
AcDbEntity
  8
AM_6
100
AcDbMText
 10
-1051.000000000001
 20
-5888.0
 30
0.0
 40
6.4
 41
180.0
 71
     4
 72
     5
  1
　
 73
     1
 44
1.0
1001
ACAD
1000
MTEXTBEGIN
1070
    73
1070
     1
1070
    44
1040
1.0
1070
    74
1070
     0
1000
MTEXTEND
  0
MTEXT
  5
7AC06
330
1F
100
AcDbEntity
  8
AM_6
100
AcDbMText
 10
-1051.000000000001
 20
-5920.0
 30
0.0
 40
6.4
 41
180.0
 71
     4
 72
     5
  1
　
 73
     1
 44
1.0
1001
ACAD
1000
MTEXTBEGIN
1070
    73
1070
     1
1070
    44
1040
1.0
1070
    74
1070
     0
1000
MTEXTEND
  0
LWPOLYLINE
  5
AB559
330
1F
100
AcDbEntity
  8
waku
100
AcDbPolyline
 90
        4
 70
     1
 43
0.0
 10
45.99999999998544
 20
806.0
 10
1142.000000000017
 20
806.0000000000291
 10
1142.000000000031
 20
34.0000000000291
 10
46.0
 20
34.0
1001
GENIUS_GENREC_14
1002
{
1000
PYDIR
1011
46.0
1021
34.0
1031
0.0
1002
}
1002
{
1000
PXDIR
1011
1142.000000000017
1021
806.0000000000291
1031
0.0
1002
}
1002
{
1000
PORI
1011
45.99999999998544
1021
806.0
1031
0.0
1002
}
1002
{
1000
PINS
1011
45.99999999998544
1021
806.0
1031
0.0
1002
}
1002
{
1000
PINS2
1011
1142.000000000031
1021
34.0000000000291
1031
0.0
1002
}
1002
{
1000
C
1070
     1
1002
}
1001
GENIUS_GENOBJ-N-REC_13
1002
{
1000
OWNER
1000
GEN
1002
}
1001
GENIUS_GENODEF_13
1002
{
1000
HIER
1070
     0
1002
}
1002
{
1000
MANEDIT
1070
     0
1002
}
1002
{
1000
NOSEL
1070
     0
1002
}
1002
{
1000
BEHIND
1070
     0
1002
}
1002
{
1000
OTHER
1070
     0
1002
}
1002
{
1000
REACTOR
1002
}
  0
LWPOLYLINE
  5
AB55A
330
1F
100
AcDbEntity
  8
size
100
AcDbPolyline
 90
        4
 70
     1
 43
0.0
 10
-0.0000000000145519
 20
840.0
 10
1188.000000000014
 20
840.0000000000291
 10
1188.000000000029
 20
0.0000000000291038
 10
0.0
 20
0.0
1001
GENIUS_GENREC_14
1002
{
1000
PYDIR
1011
0.0
1021
0.0
1031
0.0
1002
}
1002
{
1000
PXDIR
1011
1188.000000000014
1021
840.0000000000291
1031
0.0
1002
}
1002
{
1000
PORI
1011
-0.0000000000145519
1021
840.0
1031
0.0
1002
}
1002
{
1000
PINS
1011
-0.0000000000145519
1021
840.0
1031
0.0
1002
}
1002
{
1000
PINS2
1011
1188.000000000029
1021
0.0000000000291038
1031
0.0
1002
}
1002
{
1000
C
1070
     1
1002
}
1001
GENIUS_GENODEF_13
1002
{
1000
HIER
1070
     0
1002
}
1002
{
1000
MANEDIT
1070
     0
1002
}
1002
{
1000
NOSEL
1070
     0
1002
}
1002
{
1000
BEHIND
1070
     0
1002
}
1002
{
1000
OTHER
1070
     0
1002
}
1002
{
1000
REACTOR
1002
}
1001
GENIUS_GENOBJ-N-REC_13
1002
{
1000
OWNER
1000
GEN
1002
}
  0
TEXT
  5
AB55B
330
1F
100
AcDbEntity
  8
AM_11
100
AcDbText
 10
1110.260793416831
 20
-37.62556250749322
 30
0.0
 40
16.0
  1
A-2
 41
0.73811
 72
     1
 11
1127.694248654926
 21
-37.62556250749322
 31
0.0
100
AcDbText
  0
LINE
  5
AB6B4
330
1F
100
AcDbEntity
  8
0
100
AcDbLine
 10
1274.884277463742
 20
330.6855134179711
 30
0.0
 11
1353.47607589458
 21
330.6855134179711
 31
0.0
  0
LINE
  5
AB6B5
330
1F
100
AcDbEntity
  8
AM_0
100
AcDbLine
 10
1274.884277463742
 20
312.6629746594074
 30
0.0
 11
1353.47607589458
 21
312.6629746594074
 31
0.0
  0
LINE
  5
AB6B6
330
1F
100
AcDbEntity
  8
AM_1
100
AcDbLine
 10
1274.884277463742
 20
291.1192747350376
 30
0.0
 11
1353.47607589458
 21
291.1192747350376
 31
0.0
  0
LINE
  5
AB6B7
330
1F
100
AcDbEntity
  8
AM_11
100
AcDbLine
 10
1274.884277463742
 20
248.9809606755082
 30
0.0
 11
1353.47607589458
 21
248.9809606755082
 31
0.0
  0
LINE
  5
AB6B8
330
1F
100
AcDbEntity
  8
AM_2
100
AcDbLine
 10
1274.884277463742
 20
229.2721834164597
 30
0.0
 11
1353.47607589458
 21
229.2721834164597
 31
0.0
  0
LINE
  5
AB6B9
330
1F
100
AcDbEntity
  8
AM_3
100
AcDbLine
 10
1274.884277463742
 20
210.8774332615606
 30
0.0
 11
1353.47607589458
 21
210.8774332615606
 31
0.0
  0
LINE
  5
AB6BA
330
1F
100
AcDbEntity
  8
AM_5
100
AcDbLine
 10
1274.884277463742
 20
190.0273662757852
 30
0.0
 11
1353.47607589458
 21
190.0273662757852
 31
0.0
  0
LINE
  5
AB6BB
330
1F
100
AcDbEntity
  8
AM_6
100
AcDbLine
 10
1274.884277463742
 20
171.2764558479527
 30
0.0
 11
1353.47607589458
 21
171.2764558479527
 31
0.0
  0
LINE
  5
AB6BC
330
1F
100
AcDbEntity
  8
AM_7
100
AcDbLine
 10
1274.884277463742
 20
154.4530744596056
 30
0.0
 11
1353.47607589458
 21
154.4530744596056
 31
0.0
  0
LINE
  5
AB6BD
330
1F
100
AcDbEntity
  8
AM_8
100
AcDbLine
 10
1274.884277463742
 20
134.9667183246195
 30
0.0
 11
1353.47607589458
 21
134.9667183246195
 31
0.0
  0
LINE
  5
AB6BE
330
1F
100
AcDbEntity
  8
Defpoints
100
AcDbLine
 10
1274.884277463742
 20
101.7538405970092
 30
0.0
 11
1353.47607589458
 21
101.7538405970092
 31
0.0
  0
LINE
  5
AB6BF
330
1F
100
AcDbEntity
  8
hyomoji
100
AcDbLine
 10
1274.884277463742
 20
82.43489696786605
 30
0.0
 11
1353.47607589458
 21
82.43489696786605
 31
0.0
  0
LINE
  5
AB6C0
330
1F
100
AcDbEntity
  8
hyosen1
100
AcDbLine
 10
1274.884277463742
 20
63.60661552070246
 30
0.0
 11
1353.47607589458
 21
63.60661552070246
 31
0.0
  0
LINE
  5
AB6C1
330
1F
100
AcDbEntity
  8
hyosen2
100
AcDbLine
 10
1274.884277463742
 20
47.74917404949269
 30
0.0
 11
1353.47607589458
 21
47.74917404949269
 31
0.0
  0
LINE
  5
AB6C2
330
1F
100
AcDbEntity
  8
JISSEN
100
AcDbLine
 10
1274.884277463742
 20
29.90223950835639
 30
0.0
 11
1353.47607589458
 21
29.90223950835639
 31
0.0
  0
LINE
  5
AB6C3
330
1F
100
AcDbEntity
  8
size
100
AcDbLine
 10
1274.884277463742
 20
14.01797935783384
 30
0.0
 11
1353.47607589458
 21
14.01797935783384
 31
0.0
  0
LINE
  5
AB6C4
330
1F
100
AcDbEntity
  8
waku
100
AcDbLine
 10
1274.884277463742
 20
-1.823239803011119
 30
0.0
 11
1353.47607589458
 21
-1.823239803011119
 31
0.0
  0
LINE
  5
AB6C5
330
1F
100
AcDbEntity
  8
AM_CL
100
AcDbLine
 10
1274.884277463742
 20
119.6748428809303
 30
0.0
 11
1353.47607589458
 21
119.6748428809303
 31
0.0
  0
LINE
  5
AB6C6
330
1F
100
AcDbEntity
  8
AM_10
100
AcDbLine
 10
1274.884277463742
 20
269.5031721225184
 30
0.0
 11
1353.47607589458
 21
269.5031721225184
 31
0.0
  0
MTEXT
  5
AB6C7
330
1F
100
AcDbEntity
  8
AM_6
 62
     2
100
AcDbMText
 10
1363.583656091909
 20
326.7340775669802
 30
0.0
 40
10.0
 41
0.0
 71
     7
 72
     1
  1
0 : 0画層
 73
     1
 44
1.0
1001
ACAD
1000
MTEXTBEGIN
1070
    73
1070
     1
1070
    44
1040
1.0
1070
    74
1070
     0
1000
MTEXTEND
  0
MTEXT
  5
AB6C8
330
1F
100
AcDbEntity
  8
AM_6
 62
     2
100
AcDbMText
 10
1363.583656091909
 20
307.6331106422369
 30
0.0
 40
10.0
 41
0.0
 71
     7
 72
     1
  1
AM_0 : 中線　（実線）
 73
     1
 44
1.0
1001
ACAD
1000
MTEXTBEGIN
1070
    73
1070
     1
1070
    44
1040
1.0
1070
    74
1070
     0
1000
MTEXTEND
  0
MTEXT
  5
AB6C9
330
1F
100
AcDbEntity
  8
AM_6
 62
     2
100
AcDbMText
 10
1363.583656091909
 20
287.3270886920293
 30
0.0
 40
10.0
 41
0.0
 71
     7
 72
     1
  1
AM_1 : 太線
 73
     1
 44
1.0
1001
ACAD
1000
MTEXTBEGIN
1070
    73
1070
     1
1070
    44
1040
1.0
1070
    74
1070
     0
1000
MTEXTEND
  0
MTEXT
  5
AB6CA
330
1F
100
AcDbEntity
  8
AM_6
 62
     2
100
AcDbMText
 10
1363.583656091909
 20
265.6666926587134
 30
0.0
 40
10.0
 41
0.0
 71
     7
 72
     1
  1
AM_10 : 遮断線
 73
     1
 44
1.0
1001
ACAD
1000
MTEXTBEGIN
1070
    73
1070
     1
1070
    44
1040
1.0
1070
    74
1070
     0
1000
MTEXTEND
  0
MTEXT
  5
AB6CB
330
1F
100
AcDbEntity
  8
AM_6
 62
     2
100
AcDbMText
 10
1363.583656091909
 20
245.4698172474907
 30
0.0
 40
10.0
 41
0.0
 71
     7
 72
     1
  1
AM_11 : 想像線1
 73
     1
 44
1.0
1001
ACAD
1000
MTEXTBEGIN
1070
    73
1070
     1
1070
    44
1040
1.0
1070
    74
1070
     0
1000
MTEXTEND
  0
MTEXT
  5
AB6CC
330
1F
100
AcDbEntity
  8
AM_6
 62
     2
100
AcDbMText
 10
1363.583656091909
 20
225.2729418362685
 30
0.0
 40
10.0
 41
0.0
 71
     7
 72
     1
  1
AM_2 : 細線
 73
     1
 44
1.0
1001
ACAD
1000
MTEXTBEGIN
1070
    73
1070
     1
1070
    44
1040
1.0
1070
    74
1070
     0
1000
MTEXTEND
  0
MTEXT
  5
AB6CD
330
1F
100
AcDbEntity
  8
AM_6
 62
     2
100
AcDbMText
 10
1363.583656091909
 20
205.0760664250458
 30
0.0
 40
10.0
 41
0.0
 71
     7
 72
     1
  1
AM_3 : 陰線1
 73
     1
 44
1.0
1001
ACAD
1000
MTEXTBEGIN
1070
    73
1070
     1
1070
    44
1040
1.0
1070
    74
1070
     0
1000
MTEXTEND
  0
MTEXT
  5
AB6CE
330
1F
100
AcDbEntity
  8
AM_6
 62
     2
100
AcDbMText
 10
1363.583656091909
 20
184.2564823910768
 30
0.0
 40
10.0
 41
0.0
 71
     7
 72
     1
  1
AM_5 : 寸法線
 73
     1
 44
1.0
1001
ACAD
1000
MTEXTBEGIN
1070
    73
1070
     1
1070
    44
1040
1.0
1070
    74
1070
     0
1000
MTEXTEND
  0
MTEXT
  5
AB6CF
330
1F
100
AcDbEntity
  8
AM_6
 62
     2
100
AcDbMText
 10
1363.583656091909
 20
165.6156888781681
 30
0.0
 40
10.0
 41
0.0
 71
     7
 72
     1
  1
AM_6 : 文字
 73
     1
 44
1.0
1001
ACAD
1000
MTEXTBEGIN
1070
    73
1070
     1
1070
    44
1040
1.0
1070
    74
1070
     0
1000
MTEXTEND
  0
MTEXT
  5
AB6D0
330
1F
100
AcDbEntity
  8
AM_6
 62
     2
100
AcDbMText
 10
1363.583656091909
 20
149.1536921275731
 30
0.0
 40
10.0
 41
0.0
 71
     7
 72
     1
  1
AM_7 : 中心線
 73
     1
 44
1.0
1001
ACAD
1000
MTEXTBEGIN
1070
    73
1070
     1
1070
    44
1040
1.0
1070
    74
1070
     0
1000
MTEXTEND
  0
MTEXT
  5
AB6D1
330
1F
100
AcDbEntity
  8
AM_6
 62
     2
100
AcDbMText
 10
1363.583656091909
 20
131.1895410327609
 30
0.0
 40
10.0
 41
0.0
 71
     7
 72
     1
  1
AM_8 : ハッチング
 73
     1
 44
1.0
1001
ACAD
1000
MTEXTBEGIN
1070
    73
1070
     1
1070
    44
1040
1.0
1070
    74
1070
     0
1000
MTEXTEND
  0
MTEXT
  5
AB6D2
330
1F
100
AcDbEntity
  8
AM_6
 62
     2
100
AcDbMText
 10
1363.583656091909
 20
113.7707413395571
 30
0.0
 40
10.0
 41
0.0
 71
     7
 72
     1
  1
AM_CL : Amconstr
 73
     1
 44
1.0
1001
ACAD
1000
MTEXTBEGIN
1070
    73
1070
     1
1070
    44
1040
1.0
1070
    74
1070
     0
1000
MTEXTEND
  0
MTEXT
  5
AB6D3
330
1F
100
AcDbEntity
  8
AM_6
 62
     2
100
AcDbMText
 10
1363.583656091909
 20
96.10660731845678
 30
0.0
 40
10.0
 41
0.0
 71
     7
 72
     1
  1
DEFPOINTS
 73
     1
 44
1.0
1001
ACAD
1000
MTEXTBEGIN
1070
    73
1070
     1
1070
    44
1040
1.0
1070
    74
1070
     0
1000
MTEXTEND
  0
MTEXT
  5
AB6D4
330
1F
100
AcDbEntity
  8
AM_6
 62
     2
100
AcDbMText
 10
1363.583656091909
 20
75.00778022429472
 30
0.0
 40
10.0
 41
0.0
 71
     7
 72
     1
  1
hyomoji
 73
     1
 44
1.0
1001
ACAD
1000
MTEXTBEGIN
1070
    73
1070
     1
1070
    44
1040
1.0
1070
    74
1070
     0
1000
MTEXTEND
  0
MTEXT
  5
AB6D5
330
1F
100
AcDbEntity
  8
AM_6
 62
     2
100
AcDbMText
 10
1363.583656091909
 20
57.09831187529767
 30
0.0
 40
10.0
 41
0.0
 71
     7
 72
     1
  1
hyosen1
 73
     1
 44
1.0
1001
ACAD
1000
MTEXTBEGIN
1070
    73
1070
     1
1070
    44
1040
1.0
1070
    74
1070
     0
1000
MTEXTEND
  0
MTEXT
  5
AB6D6
330
1F
100
AcDbEntity
  8
AM_6
 62
     2
100
AcDbMText
 10
1363.583656091909
 20
40.17018083788684
 30
0.0
 40
10.0
 41
0.0
 71
     7
 72
     1
  1
hyosen2
 73
     1
 44
1.0
1001
ACAD
1000
MTEXTBEGIN
1070
    73
1070
     1
1070
    44
1040
1.0
1070
    74
1070
     0
1000
MTEXTEND
  0
MTEXT
  5
AB6D7
330
1F
100
AcDbEntity
  8
AM_6
 62
     2
100
AcDbMText
 10
1363.583656091909
 20
24.71406200911019
 30
0.0
 40
10.0
 41
0.0
 71
     7
 72
     1
  1
JISSEN
 73
     1
 44
1.0
1001
ACAD
1000
MTEXTBEGIN
1070
    73
1070
     1
1070
    44
1040
1.0
1070
    74
1070
     0
1000
MTEXTEND
  0
MTEXT
  5
AB6D8
330
1F
100
AcDbEntity
  8
AM_6
 62
     2
100
AcDbMText
 10
1363.583656091909
 20
9.993949284650852
 30
0.0
 40
10.0
 41
0.0
 71
     7
 72
     1
  1
size
 73
     1
 44
1.0
1001
ACAD
1000
MTEXTBEGIN
1070
    73
1070
     1
1070
    44
1040
1.0
1070
    74
1070
     0
1000
MTEXTEND
  0
MTEXT
  5
AB6D9
330
1F
100
AcDbEntity
  8
AM_6
 62
     2
100
AcDbMText
 10
1363.583656091909
 20
-10.61420915371786
 30
0.0
 40
10.0
 41
0.0
 71
     7
 72
     1
  1
WAKU
 73
     1
 44
1.0
1001
ACAD
1000
MTEXTBEGIN
1070
    73
1070
     1
1070
    44
1040
1.0
1070
    74
1070
     0
1000
MTEXTEND
  0
MTEXT
  5
AC1ED
330
1F
100
AcDbEntity
  8
AM_6
100
AcDbMText
 10
200.9999999998769
 20
356.6115849818859
 30
0.0
 40
7.0
 41
35.0
 71
     5
 72
     5
  1
D（mm）
 73
     1
 44
1.0
1001
ACAD
1000
MTEXTBEGIN
1070
    73
1070
     1
1070
    44
1040
1.0
1070
    74
1070
     0
1000
MTEXTEND
  0
LINE
  5
AC1EF
330
1F
100
AcDbEntity
  8
AM_5
100
AcDbLine
 10
393.4999999998769
 20
382.8615849820341
 30
0.0
 11
393.4999999999367
 21
34.00000000013359
 31
0.0
  0
LINE
  5
AC1F1
330
1F
100
AcDbEntity
  8
AM_0
100
AcDbLine
 10
45.99999999967088
 20
347.8615849819123
 30
0.0
 11
603.4999999998778
 21
347.8615849818873
 31
0.0
  0
LINE
  5
AC1F4
330
1F
100
AcDbEntity
  8
AM_5
100
AcDbLine
 10
218.4999999998769
 20
382.8615849819694
 30
0.0
 11
218.4999999999366
 21
34.00000000005218
 31
0.0
  0
LINE
  5
AC1F5
330
1F
100
AcDbEntity
  8
AM_5
100
AcDbLine
 10
253.499999999877
 20
382.8615849819843
 30
0.0
 11
253.4999999999377
 21
34.00000000006833
 31
0.0
  0
MTEXT
  5
AC1FD
330
1F
100
AcDbEntity
  8
AM_6
100
AcDbMText
 10
200.999999999913
 20
320.8046700567093
 30
0.0
 40
7.0
 41
35.0
 71
     5
 72
     5
  1
75
 73
     1
 44
1.0
1001
ACAD
1000
MTEXTBEGIN
1070
    73
1070
     1
1070
    44
1040
1.0
1070
    74
1070
     0
1000
MTEXTEND
  0
LINE
  5
AC203
330
1F
100
AcDbEntity
  8
AM_0
100
AcDbLine
 10
45.99999999973056
 20
382.8615849819119
 30
0.0
 11
603.4999999998809
 21
382.8615849821594
 31
0.0
  0
MTEXT
  5
AC205
330
1F
100
AcDbEntity
  8
AM_6
100
AcDbMText
 10
72.24999999980588
 20
365.3615849818406
 30
0.0
 40
7.0
 41
52.50000000006291
 71
     5
 72
     5
  1
品　番
 73
     1
 44
1.0
1001
ACAD
1000
MTEXTBEGIN
1070
    73
1070
     1
1070
    44
1040
1.0
1070
    74
1070
     0
1000
MTEXTEND
1000
ACAD_MTEXT_DEFINED_HEIGHT_BEGIN
1070
    46
1040
13.99999999969461
1000
ACAD_MTEXT_DEFINED_HEIGHT_END
  0
MTEXT
  5
AC209
330
1F
100
AcDbEntity
  8
AM_6
100
AcDbMText
 10
200.9999999998769
 20
374.1115849819615
 30
0.0
 40
7.0
 41
35.0
 71
     5
 72
     5
  1
車輪径
 73
     1
 44
1.0
1001
ACAD
1000
MTEXTBEGIN
1070
    73
1070
     1
1070
    44
1040
1.0
1070
    74
1070
     0
1000
MTEXTEND
  0
MTEXT
  5
AC20A
330
1F
100
AcDbEntity
  8
AM_6
100
AcDbMText
 10
235.9999999998769
 20
374.5254697471328
 30
0.0
 40
7.0
 41
35.0
 71
     5
 72
     5
  1
車幅
 73
     1
 44
1.0
1001
ACAD
1000
MTEXTBEGIN
1070
    73
1070
     1
1070
    44
1040
1.0
1070
    74
1070
     0
1000
MTEXTEND
  0
MTEXT
  5
AC20C
330
1F
100
AcDbEntity
  8
AM_6
100
AcDbMText
 10
70.48876641977091
 20
321.6115849818664
 30
0.0
 40
7.0
 41
52.5
 71
     5
 72
     5
  1
UWJ-75
 73
     1
 44
1.0
1001
ACAD
1000
MTEXTBEGIN
1070
    73
1070
     1
1070
    44
1040
1.0
1070
    74
1070
     0
1000
MTEXTEND
  0
MTEXT
  5
AC20F
330
1F
100
AcDbEntity
  8
AM_6
100
AcDbMText
 10
235.999999999913
 20
320.8046700567093
 30
0.0
 40
7.0
 41
35.0
 71
     5
 72
     5
  1
32
 73
     1
 44
1.0
1001
ACAD
1000
MTEXTBEGIN
1070
    73
1070
     1
1070
    44
1040
1.0
1070
    74
1070
     0
1000
MTEXTEND
  0
MTEXT
  5
AC213
330
1F
100
AcDbEntity
  8
AM_6
100
AcDbMText
 10
314.7499999999269
 20
320.8046700567469
 30
0.0
 40
7.0
 41
52.49999999997164
 71
     5
 72
     5
  1
82 \U+00D782
 73
     1
 44
1.0
1001
ACAD
1000
MTEXTBEGIN
1070
    73
1070
     1
1070
    44
1040
1.0
1070
    74
1070
     0
1000
MTEXTEND
  0
MTEXT
  5
AC217
330
1F
100
AcDbEntity
  8
AM_6
100
AcDbMText
 10
314.7499999998771
 20
356.611584981837
 30
0.0
 40
7.0
 41
52.5
 71
     5
 72
     5
  1
A  \U+00D7 B（mm）
 73
     1
 44
1.0
1001
ACAD
1000
MTEXTBEGIN
1070
    73
1070
     1
1070
    44
1040
1.0
1070
    74
1070
     0
1000
MTEXTEND
  0
MTEXT
  5
AC219
330
1F
100
AcDbEntity
  8
AM_6
100
AcDbMText
 10
314.7499999998771
 20
374.1115849819126
 30
0.0
 40
7.0
 41
52.5
 71
     5
 72
     5
  1
取付座寸法
 73
     1
 44
1.0
1001
ACAD
1000
MTEXTBEGIN
1070
    73
1070
     1
1070
    44
1040
1.0
1070
    74
1070
     0
1000
MTEXTEND
  0
LINE
  5
AC21B
330
1F
100
AcDbEntity
  8
AM_5
100
AcDbLine
 10
568.499999999877
 20
382.8615849821066
 30
0.0
 11
568.4999999999365
 21
34.00000000021498
 31
0.0
  0
MTEXT
  5
AC21F
330
1F
100
AcDbEntity
  8
AM_6
100
AcDbMText
 10
445.9999999998769
 20
356.6115849817865
 30
0.0
 40
7.0
 41
35.0
 71
     5
 72
     5
  1
E（mm）
 73
     1
 44
1.0
1001
ACAD
1000
MTEXTBEGIN
1070
    73
1070
     1
1070
    44
1040
1.0
1070
    74
1070
     0
1000
MTEXTEND
  0
LINE
  5
AC220
330
1F
100
AcDbEntity
  8
AM_5
100
AcDbLine
 10
463.4999999998769
 20
382.8615849820133
 30
0.0
 11
463.4999999999364
 21
34.00000000016632
 31
0.0
  0
MTEXT
  5
AC221
330
1F
100
AcDbEntity
  8
AM_6
100
AcDbMText
 10
445.9999999999413
 20
320.8046700567224
 30
0.0
 40
7.0
 41
35.0
 71
     5
 72
     5
  1
26
 73
     1
 44
1.0
1001
ACAD
1000
MTEXTBEGIN
1070
    73
1070
     1
1070
    44
1040
1.0
1070
    74
1070
     0
1000
MTEXTEND
  0
MTEXT
  5
AC224
330
1F
100
AcDbEntity
  8
AM_6
100
AcDbMText
 10
445.9999999998769
 20
374.111584981862
 30
0.0
 40
7.0
 41
35.0
 71
     5
 72
     5
  1
偏芯
 73
     1
 44
1.0
1001
ACAD
1000
MTEXTBEGIN
1070
    73
1070
     1
1070
    44
1040
1.0
1070
    74
1070
     0
1000
MTEXTEND
  0
MTEXT
  5
AC225
330
1F
100
AcDbEntity
  8
AM_6
100
AcDbMText
 10
515.9999999998547
 20
356.6115849818956
 30
0.0
 40
7.0
 41
35.0
 71
     5
 72
     5
  1
daN
 73
     1
 44
1.0
1001
ACAD
1000
MTEXTBEGIN
1070
    73
1070
     1
1070
    44
1040
1.0
1070
    74
1070
     0
1000
MTEXTEND
  0
MTEXT
  5
AC226
330
1F
100
AcDbEntity
  8
AM_6
100
AcDbMText
 10
550.9999999998547
 20
356.6115849817822
 30
0.0
 40
7.0
 41
35.0
 71
     5
 72
     5
  1
kgf
 73
     1
 44
1.0
1001
ACAD
1000
MTEXTBEGIN
1070
    73
1070
     1
1070
    44
1040
1.0
1070
    74
1070
     0
1000
MTEXTEND
  0
LINE
  5
AC227
330
1F
100
AcDbEntity
  8
AM_5
100
AcDbLine
 10
533.4999999998577
 20
365.3615849818962
 30
0.0
 11
533.4999999999174
 21
34.00000000019884
 31
0.0
  0
MTEXT
  5
AC229
330
1F
100
AcDbEntity
  8
AM_6
100
AcDbMText
 10
515.9999999998937
 20
320.8046700567186
 30
0.0
 40
7.0
 41
35.0
 71
     5
 72
     5
  1
120
 73
     1
 44
1.0
1001
ACAD
1000
MTEXTBEGIN
1070
    73
1070
     1
1070
    44
1040
1.0
1070
    74
1070
     0
1000
MTEXTEND
  0
MTEXT
  5
AC22C
330
1F
100
AcDbEntity
  8
AM_6
100
AcDbMText
 10
533.4999999998577
 20
374.1115849819708
 30
0.0
 40
7.0
 41
70.0
 71
     5
 72
     5
  1
許容荷重
 73
     1
 44
1.0
1001
ACAD
1000
MTEXTBEGIN
1070
    73
1070
     1
1070
    44
1040
1.0
1070
    74
1070
     0
1000
MTEXTEND
  0
MTEXT
  5
AC22D
330
1F
100
AcDbEntity
  8
AM_6
100
AcDbMText
 10
550.9999999998938
 20
320.8046700567186
 30
0.0
 40
7.0
 41
35.0
 71
     5
 72
     5
  1
122.4
 73
     1
 44
1.0
1001
ACAD
1000
MTEXTBEGIN
1070
    73
1070
     1
1070
    44
1040
1.0
1070
    74
1070
     0
1000
MTEXTEND
  0
MTEXT
  5
AC231
330
1F
100
AcDbEntity
  8
AM_6
100
AcDbMText
 10
410.9999999998769
 20
356.6115849818241
 30
0.0
 40
7.0
 41
35.0
 71
     5
 72
     5
  1
P（mm）
 73
     1
 44
1.0
1001
ACAD
1000
MTEXTBEGIN
1070
    73
1070
     1
1070
    44
1040
1.0
1070
    74
1070
     0
1000
MTEXTEND
  0
LINE
  5
AC232
330
1F
100
AcDbEntity
  8
AM_5
100
AcDbLine
 10
428.4999999998769
 20
382.861584982051
 30
0.0
 11
428.4999999999365
 21
34.00000000014995
 31
0.0
  0
MTEXT
  5
AC233
330
1F
100
AcDbEntity
  8
AM_6
100
AcDbMText
 10
410.9999999999418
 20
320.804670056761
 30
0.0
 40
7.0
 41
35.0
 71
     5
 72
     5
  1
9.5
 73
     1
 44
1.0
1001
ACAD
1000
MTEXTBEGIN
1070
    73
1070
     1
1070
    44
1040
1.0
1070
    74
1070
     0
1000
MTEXTEND
  0
MTEXT
  5
AC236
330
1F
100
AcDbEntity
  8
AM_6
100
AcDbMText
 10
410.9999999998769
 20
374.1115849818998
 30
0.0
 40
7.0
 41
35.0
 71
     5
 72
     5
  1
穴径
 73
     1
 44
1.0
1001
ACAD
1000
MTEXTBEGIN
1070
    73
1070
     1
1070
    44
1040
1.0
1070
    74
1070
     0
1000
MTEXTEND
  0
LINE
  5
AC238
330
1F
100
AcDbEntity
  8
AM_0
100
AcDbLine
 10
603.4999999998809
 20
382.8615849820341
 30
0.0
 11
603.4999999999419
 21
34.00000000024772
 31
0.0
  0
MTEXT
  5
AC241
330
1F
100
AcDbEntity
  8
AM_6
100
AcDbMText
 10
72.24999999985749
 20
339.1115849818725
 30
0.0
 40
7.0
 41
52.5
 71
     5
 72
     5
  1
WJ-75
 73
     1
 44
1.0
1001
ACAD
1000
MTEXTBEGIN
1070
    73
1070
     1
1070
    44
1040
1.0
1070
    74
1070
     0
1000
MTEXTEND
  0
MTEXT
  5
AC270
330
1F
100
AcDbEntity
  8
AM_6
100
AcDbMText
 10
136.7156146625514
 20
365.3615849818725
 30
0.0
 40
7.0
 41
52.5
 71
     5
 72
     5
  1
車　輪
 73
     1
 44
1.0
1001
ACAD
1000
MTEXTBEGIN
1070
    73
1070
     1
1070
    44
1040
1.0
1070
    74
1070
     0
1000
MTEXTEND
  0
MTEXT
  5
AC273
330
1F
100
AcDbEntity
  8
AM_6
100
AcDbMText
 10
138.823290203856
 20
339.0578274499512
 30
0.0
 40
7.0
 41
80.68054437000411
 71
     5
 72
     5
  1
鋼板ホイルゴム（B入）車
 73
     1
 44
1.0
1001
ACAD
1000
MTEXTBEGIN
1070
    73
1070
     1
1070
    44
1040
1.0
1070
    74
1070
     0
1000
MTEXTEND
  0
LINE
  5
AC276
330
1F
100
AcDbEntity
  8
AM_5
100
AcDbLine
 10
340.999999999877
 20
382.8615849820172
 30
0.0
 11
340.9999999999366
 21
34.00000000010903
 31
0.0
  0
LINE
  5
AC28D
330
1F
100
AcDbEntity
  8
AM_0
100
AcDbLine
 10
45.99999999998544
 20
806.0
 30
0.0
 11
45.99999999999454
 21
678.0
 31
0.0
  0
LINE
  5
AC28E
330
1F
100
AcDbEntity
  8
AM_0
100
AcDbLine
 10
45.99999999998544
 20
806.0
 30
0.0
 11
225.9999999999855
 21
806.0
 31
0.0
  0
LINE
  5
AC28F
330
1F
100
AcDbEntity
  8
AM_0
100
AcDbLine
 10
225.9999999999855
 20
806.0
 30
0.0
 11
225.9999999999836
 21
678.0
 31
0.0
  0
LINE
  5
AC290
330
1F
100
AcDbEntity
  8
AM_0
100
AcDbLine
 10
85.99999999998273
 20
678.0
 30
0.0
 11
85.99999999998544
 21
806.0
 31
0.0
  0
LINE
  5
AC291
330
1F
100
AcDbEntity
  8
AM_5
100
AcDbLine
 10
45.99999999998544
 20
790.0
 30
0.0
 11
225.9999999999855
 21
790.0
 31
0.0
  0
LINE
  5
AC292
330
1F
100
AcDbEntity
  8
AM_5
100
AcDbLine
 10
45.99999999998544
 20
774.0
 30
0.0
 11
225.9999999999855
 21
774.0
 31
0.0
  0
MTEXT
  5
AC293
330
1F
100
AcDbEntity
  8
AM_6
100
AcDbMText
 10
65.99999999998544
 20
798.0
 30
0.0
 40
6.4
 41
40.0
 71
     5
 72
     5
  1
品　名
 73
     1
 44
1.0
1001
ACAD
1000
MTEXTBEGIN
1070
    73
1070
     1
1070
    44
1040
1.0
1070
    74
1070
     0
1000
MTEXTEND
  0
MTEXT
  5
AC294
330
1F
100
AcDbEntity
  8
AM_6
100
AcDbMText
 10
85.99999999998544
 20
798.0
 30
0.0
 40
6.4
 41
140.0
 71
     4
 72
     5
  1
  重荷重用旋回キャスター
 73
     1
 44
1.0
1001
ACAD
1000
MTEXTBEGIN
1070
    73
1070
     1
1070
    44
1040
1.0
1070
    74
1070
     0
1000
MTEXTEND
  0
MTEXT
  5
AC295
330
1F
100
AcDbEntity
  8
AM_6
100
AcDbMText
 10
65.99999999998544
 20
782.0
 30
0.0
 40
6.4
 41
40.0
 71
     5
 72
     5
  1
品　番
 73
     1
 44
1.0
1001
ACAD
1000
MTEXTBEGIN
1070
    73
1070
     1
1070
    44
1040
1.0
1070
    74
1070
     0
1000
MTEXTEND
  0
MTEXT
  5
AC296
330
1F
100
AcDbEntity
  8
AM_6
100
AcDbMText
 10
85.99999999998544
 20
782.0
 30
0.0
 40
6.4
 41
140.0
 71
     4
 72
     5
  1
　J
 73
     1
 44
1.0
1001
ACAD
1000
MTEXTBEGIN
1070
    73
1070
     1
1070
    44
1040
1.0
1070
    74
1070
     0
1000
MTEXTEND
  0
MTEXT
  5
AC297
330
1F
100
AcDbEntity
  8
AM_6
100
AcDbMText
 10
65.99999999998544
 20
766.0
 30
0.0
 40
6.4
 41
40.0
 71
     5
 72
     5
  1
材　質
 73
     1
 44
1.0
1001
ACAD
1000
MTEXTBEGIN
1070
    73
1070
     1
1070
    44
1040
1.0
1070
    74
1070
     0
1000
MTEXTEND
  0
MTEXT
  5
AC298
330
1F
100
AcDbEntity
  8
AM_6
100
AcDbMText
 10
85.99999999998544
 20
766.0
 30
0.0
 40
6.4
 41
140.0
 71
     4
 72
     5
  1
　本体 ： スチール（SPCC）
 73
     1
 44
1.0
1001
ACAD
1000
MTEXTBEGIN
1070
    73
1070
     1
1070
    44
1040
1.0
1070
    74
1070
     0
1000
MTEXTEND
  0
LINE
  5
AC299
330
1F
100
AcDbEntity
  8
AM_5
100
AcDbLine
 10
45.99999999998362
 20
694.0
 30
0.0
 11
225.9999999999836
 21
694.0
 31
0.0
  0
MTEXT
  5
AC29A
330
1F
100
AcDbEntity
  8
AM_6
100
AcDbMText
 10
65.99999999998363
 20
686.0
 30
0.0
 40
6.4
 41
40.0
 71
     5
 72
     5
  1
仕上げ
 73
     1
 44
1.0
1001
ACAD
1000
MTEXTBEGIN
1070
    73
1070
     1
1070
    44
1040
1.0
1070
    74
1070
     0
1000
MTEXTEND
  0
MTEXT
  5
AC29B
330
1F
100
AcDbEntity
  8
AM_6
100
AcDbMText
 10
85.99999999998363
 20
686.0
 30
0.0
 40
6.4
 41
140.0
 71
     4
 72
     5
  1
　本体 ： 三価ユニクロ
 73
     1
 44
1.0
1001
ACAD
1000
MTEXTBEGIN
1070
    73
1070
     1
1070
    44
1040
1.0
1070
    74
1070
     0
1000
MTEXTEND
  0
LINE
  5
AC29C
330
1F
100
AcDbEntity
  8
AM_5
100
AcDbLine
 10
85.99999999998363
 20
758.0
 30
0.0
 11
225.9999999999855
 21
758.0
 31
0.0
  0
MTEXT
  5
AC29D
330
1F
100
AcDbEntity
  8
AM_6
100
AcDbMText
 10
85.99999999998544
 20
750.0
 30
0.0
 40
6.4
 41
140.0
 71
     4
 72
     5
  1
　キャスター ： 鋼板ホイルゴム（B入）　（W）
 73
     1
 44
1.0
1001
ACAD
1000
MTEXTBEGIN
1070
    73
1070
     1
1070
    44
1040
1.0
1070
    74
1070
     0
1000
MTEXTEND
  0
MTEXT
  5
AC29E
330
1F
100
AcDbEntity
  8
AM_6
100
AcDbMText
 10
85.99999999998363
 20
734.0
 30
0.0
 40
6.4
 41
140.0
 71
     4
 72
     5
  1
　        　　　ナイロンホイルゴム（B入）　（NR）
 73
     1
 44
1.0
1001
ACAD
1000
MTEXTBEGIN
1070
    73
1070
     1
1070
    44
1040
1.0
1070
    74
1070
     0
1000
MTEXTEND
  0
LINE
  5
AC2A3
330
1F
100
AcDbEntity
  8
AM_0
100
AcDbLine
 10
45.99999999999272
 20
678.0
 30
0.0
 11
225.9999999999873
 21
678.0
 31
0.0
  0
DIMENSION
  5
AC63E
330
1F
100
AcDbEntity
  8
AM_5
100
AcDbDimension
  2
*D2
 10
1064.204010101107
 20
553.180856028656
 30
0.0
 11
1057.704010101107
 21
600.6808560286562
 31
0.0
 70
    32
  1
B
 71
     5
 42
95.0
  3
S-2
100
AcDbAlignedDimension
 13
980.0983540463652
 23
648.1808560286561
 33
0.0
 14
980.0983540463652
 24
553.180856028656
 34
0.0
 50
90.0
100
AcDbRotatedDimension
  0
DIMENSION
  5
AC64B
330
1F
100
AcDbEntity
  8
AM_5
100
AcDbDimension
  2
*D3
 10
1046.994733598188
 20
563.680856028656
 30
0.0
 11
1040.494733598188
 21
600.6808560286562
 31
0.0
 70
    32
  1
Y
 71
     5
 42
74.0
  3
S-2
100
AcDbAlignedDimension
 13
988.5983540463653
 23
637.680856028656
 33
0.0
 14
988.5983540463653
 24
563.680856028656
 34
0.0
 50
90.0
100
AcDbRotatedDimension
  0
DIMENSION
  5
AC658
330
1F
100
AcDbEntity
  8
AM_5
100
AcDbDimension
  2
*D4
 10
980.0983540463652
 20
504.035510885439
 30
0.0
 11
943.0983540463653
 21
510.5355108854389
 31
0.0
 70
    32
  1
X
 71
     5
 42
74.0
  3
S-2
100
AcDbAlignedDimension
 13
906.0983540463652
 23
555.180856028656
 33
0.0
 14
980.0983540463652
 24
555.180856028656
 34
0.0
100
AcDbRotatedDimension
  0
DIMENSION
  5
AC665
330
1F
100
AcDbEntity
  8
AM_5
100
AcDbDimension
  2
*D5
 10
895.5983540463654
 20
489.3579862761206
 30
0.0
 11
943.0983540463653
 21
495.8579862761205
 31
0.0
 70
    32
  1
A
 71
     5
 42
95.0
  3
S-2
100
AcDbAlignedDimension
 13
990.5983540463653
 23
563.680856028656
 33
0.0
 14
895.5983540463654
 24
563.680856028656
 34
0.0
100
AcDbRotatedDimension
  0
DIMENSION
  5
AC68A
330
1F
100
AcDbEntity
  8
AM_5
100
AcDbDimension
  2
*D6
 10
828.9723607866758
 20
616.6808560286561
 30
0.0
 11
822.4723607866756
 21
600.6808560286563
 31
0.0
 70
    32
  1
W
 71
     5
 42
32.00000000000012
  3
S-2
100
AcDbAlignedDimension
 13
864.0983535977671
 23
584.680856028656
 33
0.0
 14
864.0983535977671
 24
616.6808560286561
 34
0.0
 50
270.0
100
AcDbRotatedDimension
  0
DIMENSION
  5
AC697
330
1F
100
AcDbEntity
  8
AM_5
100
AcDbDimension
  2
*D7
 10
828.6418248754207
 20
443.5793965472857
 30
0.0
 11
822.1418248754206
 21
371.5793965472852
 31
0.0
 70
    32
  1
H
 71
     5
 42
144.0000000000013
  3
S-2
100
AcDbAlignedDimension
 13
911.0983535977666
 23
299.5793965472843
 33
0.0
 14
895.5983540463645
 24
443.5793965472857
 34
0.0
 50
90.0
100
AcDbRotatedDimension
  0
DIMENSION
  5
AC6A4
330
1F
100
AcDbEntity
  8
AM_5
100
AcDbDimension
  2
*D8
 10
943.0983540463644
 20
268.4534037361883
 30
0.0
 11
927.0983538220654
 21
274.9534037361883
 31
0.0
 70
    32
  1
E
 71
     5
 42
32.0000004485978
  3
S-2
100
AcDbAlignedDimension
 13
911.0983535977666
 23
293.4593965472857
 33
0.0
 14
943.0983540463644
 24
373.020755393904
 34
0.0
100
AcDbRotatedDimension
  0
DIMENSION
  5
AC6B1
330
1F
100
AcDbEntity
  8
AM_5
100
AcDbDimension
  2
*D9
 10
872.0438906085503
 20
380.8003657927089
 30
0.0
 11
960.954946531697
 21
318.0446868007483
 31
0.0
 70
    35
  1
D
 71
     5
 42
99.99999999999921
  3
S-2
100
AcDbDiametricDimension
 15
950.1528165869869
 25
318.3584273018599
 35
0.0
 40
0.0
1001
ACAD_DSTYLE_DIMRADIAL_EXTENSION
1070
   387
1070
     1
1070
   388
1040
1.808523499199771
1070
   390
1040
0.7172430333676673
  0
LINE
  5
AC943
330
1F
100
AcDbEntity
  8
AM_0
100
AcDbLine
 10
46.0
 20
34.0
 30
0.0
 11
45.99999999965393
 21
382.8615849819119
 31
0.0
  0
LINE
  5
AC951
330
1F
100
AcDbEntity
  8
AM_5
100
AcDbLine
 10
98.50000000015581
 20
33.99999999999852
 30
0.0
 11
98.4999999998277
 21
382.8615849819201
 31
0.0
  0
LINE
  5
AC953
330
1F
100
AcDbEntity
  8
AM_5
100
AcDbLine
 10
183.4999999999357
 20
34.00000000003581
 30
0.0
 11
183.4999999998769
 21
382.8615849819545
 31
0.0
  0
MTEXT
  5
AC977
330
1F
100
AcDbEntity
  8
AM_6
100
AcDbMText
 10
70.79347324875704
 20
304.1115849818768
 30
0.0
 40
7.0
 41
52.5
 71
     5
 72
     5
  1
GUJ-75
 73
     1
 44
1.0
1001
ACAD
1000
MTEXTBEGIN
1070
    73
1070
     1
1070
    44
1040
1.0
1070
    74
1070
     0
1000
MTEXTEND
  0
MTEXT
  5
AC9B8
330
1F
100
AcDbEntity
  8
AM_6
100
AcDbMText
 10
236.3687458860374
 20
356.6115849818859
 30
0.0
 40
7.0
 41
35.0
 71
     5
 72
     5
  1
W（mm）
 73
     1
 44
1.0
1001
ACAD
1000
MTEXTBEGIN
1070
    73
1070
     1
1070
    44
1040
1.0
1070
    74
1070
     0
1000
MTEXTEND
  0
MTEXT
  5
AC9B9
330
1F
100
AcDbEntity
  8
AM_6
100
AcDbMText
 10
270.9999999998769
 20
356.6115849817913
 30
0.0
 40
7.0
 41
35.0
 71
     5
 72
     5
  1
H（mm）
 73
     1
 44
1.0
1001
ACAD
1000
MTEXTBEGIN
1070
    73
1070
     1
1070
    44
1040
1.0
1070
    74
1070
     0
1000
MTEXTEND
  0
LINE
  5
AC9BA
330
1F
100
AcDbEntity
  8
AM_5
100
AcDbLine
 10
288.4999999998769
 20
382.8615849820181
 30
0.0
 11
288.4999999999367
 21
34.0000000000847
 31
0.0
  0
MTEXT
  5
AC9BB
330
1F
100
AcDbEntity
  8
AM_6
100
AcDbMText
 10
270.9999999999419
 20
320.8046700567272
 30
0.0
 40
7.0
 41
35.0
 71
     5
 72
     5
  1
103
 73
     1
 44
1.0
1001
ACAD
1000
MTEXTBEGIN
1070
    73
1070
     1
1070
    44
1040
1.0
1070
    74
1070
     0
1000
MTEXTEND
  0
MTEXT
  5
AC9BE
330
1F
100
AcDbEntity
  8
AM_6
100
AcDbMText
 10
270.9999999998769
 20
374.111584981867
 30
0.0
 40
7.0
 41
35.0
 71
     5
 72
     5
  1
取付高
 73
     1
 44
1.0
1001
ACAD
1000
MTEXTBEGIN
1070
    73
1070
     1
1070
    44
1040
1.0
1070
    74
1070
     0
1000
MTEXTEND
  0
MTEXT
  5
AC9C0
330
1F
100
AcDbEntity
  8
AM_6
100
AcDbMText
 10
367.2499999999268
 20
320.8046700567471
 30
0.0
 40
7.0
 41
52.49999999997164
 71
     5
 72
     5
  1
63 \U+00D763
 73
     1
 44
1.0
1001
ACAD
1000
MTEXTBEGIN
1070
    73
1070
     1
1070
    44
1040
1.0
1070
    74
1070
     0
1000
MTEXTEND
  0
MTEXT
  5
AC9C3
330
1F
100
AcDbEntity
  8
AM_6
100
AcDbMText
 10
380.6623002277174
 20
356.7392461416679
 30
0.0
 40
7.0
 41
22.60856174421082
 71
     5
 72
     5
  1
（mm）
 73
     1
 44
1.0
1001
ACAD
1000
MTEXTBEGIN
1070
    73
1070
     1
1070
    44
1040
1.0
1070
    74
1070
     0
1000
MTEXTEND
  0
MTEXT
  5
AC9C4
330
1F
100
AcDbEntity
  8
AM_6
100
AcDbMText
 10
367.2499999998768
 20
374.1115849819127
 30
0.0
 40
7.0
 41
52.5
 71
     5
 72
     5
  1
取付寸法
 73
     1
 44
1.0
1001
ACAD
1000
MTEXTBEGIN
1070
    73
1070
     1
1070
    44
1040
1.0
1070
    74
1070
     0
1000
MTEXTEND
  0
MTEXT
  5
AC9C5
330
1F
100
AcDbEntity
  8
AM_6
100
AcDbMText
 10
480.9999999998769
 20
356.6115849817916
 30
0.0
 40
7.0
 41
35.0
 71
     5
 72
     5
  1
R（mm）
 73
     1
 44
1.0
1001
ACAD
1000
MTEXTBEGIN
1070
    73
1070
     1
1070
    44
1040
1.0
1070
    74
1070
     0
1000
MTEXTEND
  0
LINE
  5
AC9C6
330
1F
100
AcDbEntity
  8
AM_5
100
AcDbLine
 10
498.4999999998769
 20
382.8615849820184
 30
0.0
 11
498.4999999999365
 21
34.00000000018247
 31
0.0
  0
MTEXT
  5
AC9C7
330
1F
100
AcDbEntity
  8
AM_6
100
AcDbMText
 10
480.9999999999414
 20
320.8046700567275
 30
0.0
 40
7.0
 41
35.0
 71
     5
 72
     5
  1
64
 73
     1
 44
1.0
1001
ACAD
1000
MTEXTBEGIN
1070
    73
1070
     1
1070
    44
1040
1.0
1070
    74
1070
     0
1000
MTEXTEND
  0
MTEXT
  5
AC9CA
330
1F
100
AcDbEntity
  8
AM_6
100
AcDbMText
 10
480.9999999998769
 20
374.1115849818672
 30
0.0
 40
7.0
 41
35.0
 71
     5
 72
     5
  1
旋回半径
 73
     1
 44
1.0
1001
ACAD
1000
MTEXTBEGIN
1070
    73
1070
     1
1070
    44
1040
1.0
1070
    74
1070
     0
1000
MTEXTEND
  0
LINE
  5
AC9D4
330
1F
100
AcDbEntity
  8
AM_5
100
AcDbLine
 10
183.4999999998795
 20
365.3615849818959
 30
0.0
 11
603.4999999998793
 21
365.3615849818962
 31
0.0
  0
MTEXT
  5
AC9D6
330
1F
100
AcDbEntity
  8
AM_6
100
AcDbMText
 10
587.7259594213939
 20
356.6115849817822
 30
0.0
 40
7.0
 41
35.0
 71
     5
 72
     5
  1
g
 73
     1
 44
1.0
1001
ACAD
1000
MTEXTBEGIN
1070
    73
1070
     1
1070
    44
1040
1.0
1070
    74
1070
     0
1000
MTEXTEND
  0
MTEXT
  5
AC9D7
330
1F
100
AcDbEntity
  8
AM_6
100
AcDbMText
 10
587.5687759587995
 20
374.1115849819708
 30
0.0
 40
7.0
 41
70.0
 71
     5
 72
     5
  1
自重
 73
     1
 44
1.0
1001
ACAD
1000
MTEXTBEGIN
1070
    73
1070
     1
1070
    44
1040
1.0
1070
    74
1070
     0
1000
MTEXTEND
  0
LINE
  5
ACA0F
330
1F
100
AcDbEntity
  8
AM_5
100
AcDbLine
 10
183.4999999998513
 20
312.8615849818972
 30
0.0
 11
45.99999999989668
 21
312.8615849818983
 31
0.0
  0
LINE
  5
ACA10
330
1F
100
AcDbEntity
  8
AM_5
100
AcDbLine
 10
183.4999999998371
 20
330.3615849818881
 30
0.0
 11
45.99999999989408
 21
330.3615849818891
 31
0.0
  0
LINE
  5
ACA11
330
1F
100
AcDbEntity
  8
AM_5
100
AcDbLine
 10
603.4999999998914
 20
312.8615849819665
 30
0.0
 11
498.4999999998874
 21
312.8615849819675
 31
0.0
  0
LINE
  5
ACA12
330
1F
100
AcDbEntity
  8
AM_5
100
AcDbLine
 10
603.499999999877
 20
330.3615849819573
 30
0.0
 11
498.4999999998847
 21
330.3615849819583
 31
0.0
  0
LINE
  5
ACA5B
330
1F
100
AcDbEntity
  8
AM_5
100
AcDbLine
 10
45.99999999991499
 20
295.3615849819073
 30
0.0
 11
603.4999999999802
 21
295.3615849819071
 31
0.0
  0
LINE
  5
ACAE3
330
1F
100
AcDbEntity
  8
AM_5
100
AcDbLine
 10
45.99999999992536
 20
225.7410566546229
 30
0.0
 11
603.4999999999201
 21
225.7410566546227
 31
0.0
  0
MTEXT
  5
ACAE4
330
1F
100
AcDbEntity
  8
AM_6
100
AcDbMText
 10
201.0000000000065
 20
259.9323071765612
 30
0.0
 40
7.0
 41
35.0
 71
     5
 72
     5
  1
100
 73
     1
 44
1.0
1001
ACAD
1000
MTEXTBEGIN
1070
    73
1070
     1
1070
    44
1040
1.0
1070
    74
1070
     0
1000
MTEXTEND
  0
MTEXT
  5
ACAE7
330
1F
100
AcDbEntity
  8
AM_6
100
AcDbMText
 10
314.7500000000205
 20
260.9882112105764
 30
0.0
 40
7.0
 41
52.49999999997164
 71
     5
 72
     5
  1
95 \U+00D795
 73
     1
 44
1.0
1001
ACAD
1000
MTEXTBEGIN
1070
    73
1070
     1
1070
    44
1040
1.0
1070
    74
1070
     0
1000
MTEXTEND
  0
MTEXT
  5
ACAE8
330
1F
100
AcDbEntity
  8
AM_6
100
AcDbMText
 10
446.0000000000349
 20
260.9882112105518
 30
0.0
 40
7.0
 41
35.0
 71
     5
 72
     5
  1
32
 73
     1
 44
1.0
1001
ACAD
1000
MTEXTBEGIN
1070
    73
1070
     1
1070
    44
1040
1.0
1070
    74
1070
     0
1000
MTEXTEND
  0
MTEXT
  5
ACAEB
330
1F
100
AcDbEntity
  8
AM_6
100
AcDbMText
 10
411.0000000000353
 20
260.9882112105904
 30
0.0
 40
7.0
 41
35.0
 71
     5
 72
     5
  1
11
 73
     1
 44
1.0
1001
ACAD
1000
MTEXTBEGIN
1070
    73
1070
     1
1070
    44
1040
1.0
1070
    74
1070
     0
1000
MTEXTEND
  0
MTEXT
  5
ACAF1
330
1F
100
AcDbEntity
  8
AM_6
100
AcDbMText
 10
271.0000000000353
 20
260.9882112105568
 30
0.0
 40
7.0
 41
35.0
 71
     5
 72
     5
  1
144
 73
     1
 44
1.0
1001
ACAD
1000
MTEXTBEGIN
1070
    73
1070
     1
1070
    44
1040
1.0
1070
    74
1070
     0
1000
MTEXTEND
  0
MTEXT
  5
ACAF2
330
1F
100
AcDbEntity
  8
AM_6
100
AcDbMText
 10
367.2500000000204
 20
260.9882112105765
 30
0.0
 40
7.0
 41
52.49999999997164
 71
     5
 72
     5
  1
74 \U+00D774\P（67 \U+00D767）
 73
     1
 44
1.0
1001
ACAD
1000
MTEXTBEGIN
1070
    73
1070
     1
1070
    44
1040
1.0
1070
    74
1070
     0
1000
MTEXTEND
  0
MTEXT
  5
ACAF3
330
1F
100
AcDbEntity
  8
AM_6
100
AcDbMText
 10
481.0000000000349
 20
260.988211210557
 30
0.0
 40
7.0
 41
35.0
 71
     5
 72
     5
  1
82
 73
     1
 44
1.0
1001
ACAD
1000
MTEXTBEGIN
1070
    73
1070
     1
1070
    44
1040
1.0
1070
    74
1070
     0
1000
MTEXTEND
  0
LINE
  5
ACAF4
330
1F
100
AcDbEntity
  8
AM_5
100
AcDbLine
 10
183.4999999999448
 20
260.7410566546733
 30
0.0
 11
45.99999999992015
 21
260.7410566546743
 31
0.0
  0
LINE
  5
ACAF5
330
1F
100
AcDbEntity
  8
AM_5
100
AcDbLine
 10
183.4999999999305
 20
278.2410566546641
 30
0.0
 11
45.99999999991754
 21
278.2410566546651
 31
0.0
  0
LINE
  5
ACAF6
330
1F
100
AcDbEntity
  8
AM_5
100
AcDbLine
 10
603.499999999985
 20
260.7410566547425
 30
0.0
 11
498.4999999999809
 21
260.7410566547436
 31
0.0
  0
LINE
  5
ACAF7
330
1F
100
AcDbEntity
  8
AM_5
100
AcDbLine
 10
603.4999999999707
 20
278.2410566547333
 30
0.0
 11
498.4999999999782
 21
278.2410566547344
 31
0.0
  0
LINE
  5
ACAFD
330
1F
100
AcDbEntity
  8
AM_5
100
AcDbLine
 10
183.4999999999592
 20
243.2410566546824
 30
0.0
 11
45.99999999992276
 21
243.2410566546835
 31
0.0
  0
LINE
  5
ACAFE
330
1F
100
AcDbEntity
  8
AM_5
100
AcDbLine
 10
603.4999999999993
 20
243.2410566547517
 30
0.0
 11
498.4999999999952
 21
243.2410566547527
 31
0.0
  0
LINE
  5
ACAFF
330
1F
100
AcDbEntity
  8
AM_5
100
AcDbLine
 10
45.99999999993573
 20
156.1205283273388
 30
0.0
 11
603.4999999999304
 21
156.1205283273384
 31
0.0
  0
LINE
  5
ACB10
330
1F
100
AcDbEntity
  8
AM_5
100
AcDbLine
 10
183.4999999999551
 20
191.120528327389
 30
0.0
 11
45.99999999993053
 21
191.12052832739
 31
0.0
  0
LINE
  5
ACB11
330
1F
100
AcDbEntity
  8
AM_5
100
AcDbLine
 10
183.4999999999407
 20
208.6205283273798
 30
0.0
 11
45.99999999992792
 21
208.6205283273809
 31
0.0
  0
LINE
  5
ACB12
330
1F
100
AcDbEntity
  8
AM_5
100
AcDbLine
 10
603.4999999999952
 20
191.1205283274581
 30
0.0
 11
498.499999999991
 21
191.1205283274593
 31
0.0
  0
LINE
  5
ACB13
330
1F
100
AcDbEntity
  8
AM_5
100
AcDbLine
 10
603.4999999999809
 20
208.6205283274489
 30
0.0
 11
498.4999999999883
 21
208.6205283274501
 31
0.0
  0
LINE
  5
ACB19
330
1F
100
AcDbEntity
  8
AM_5
100
AcDbLine
 10
183.4999999999694
 20
173.6205283273981
 30
0.0
 11
45.99999999993313
 21
173.6205283273991
 31
0.0
  0
LINE
  5
ACB1A
330
1F
100
AcDbEntity
  8
AM_5
100
AcDbLine
 10
603.5000000000096
 20
173.6205283274673
 30
0.0
 11
498.5000000000053
 21
173.6205283274683
 31
0.0
  0
LINE
  5
ACB2C
330
1F
100
AcDbEntity
  8
AM_5
100
AcDbLine
 10
183.4999999999448
 20
121.5000000001047
 30
0.0
 11
45.99999999994088
 21
121.5000000001058
 31
0.0
  0
LINE
  5
ACB2D
330
1F
100
AcDbEntity
  8
AM_5
100
AcDbLine
 10
183.4999999999305
 20
139.0000000000955
 30
0.0
 11
45.99999999993829
 21
139.0000000000965
 31
0.0
  0
LINE
  5
ACB2E
330
1F
100
AcDbEntity
  8
AM_5
100
AcDbLine
 10
603.499999999985
 20
121.5000000001738
 30
0.0
 11
498.4999999999809
 21
121.5000000001749
 31
0.0
  0
LINE
  5
ACB2F
330
1F
100
AcDbEntity
  8
AM_5
100
AcDbLine
 10
603.4999999999707
 20
139.0000000001646
 30
0.0
 11
498.4999999999782
 21
139.0000000001657
 31
0.0
  0
LINE
  5
ACB35
330
1F
100
AcDbEntity
  8
AM_5
100
AcDbLine
 10
183.4999999999592
 20
104.0000000001138
 30
0.0
 11
45.9999999999435
 21
104.0000000001149
 31
0.0
  0
LINE
  5
ACB36
330
1F
100
AcDbEntity
  8
AM_5
100
AcDbLine
 10
603.4999999999993
 20
104.0000000001831
 30
0.0
 11
498.4999999999952
 21
104.000000000184
 31
0.0
  0
LINE
  5
ACB37
330
1F
100
AcDbEntity
  8
AM_0
100
AcDbLine
 10
45.99999999987789
 20
34.00000000000011
 30
0.0
 11
603.5000000000283
 21
34.00000000024772
 31
0.0
  0
MTEXT
  5
AD78D
330
1F
100
AcDbEntity
  8
AM_6
100
AcDbMText
 10
515.9999999998937
 20
338.3046700567094
 30
0.0
 40
7.0
 41
35.0
 71
     5
 72
     5
  1
80
 73
     1
 44
1.0
1001
ACAD
1000
MTEXTBEGIN
1070
    73
1070
     1
1070
    44
1040
1.0
1070
    74
1070
     0
1000
MTEXTEND
  0
MTEXT
  5
AD78E
330
1F
100
AcDbEntity
  8
AM_6
100
AcDbMText
 10
550.9999999998939
 20
338.3046700567094
 30
0.0
 40
7.0
 41
35.0
 71
     5
 72
     5
  1
81.6
 73
     1
 44
1.0
1001
ACAD
1000
MTEXTBEGIN
1070
    73
1070
     1
1070
    44
1040
1.0
1070
    74
1070
     0
1000
MTEXTEND
  0
MTEXT
  5
AD791
330
1F
100
AcDbEntity
  8
AM_6
100
AcDbMText
 10
515.9999999998965
 20
303.3046700566584
 30
0.0
 40
7.0
 41
35.0
 71
     5
 72
     5
  1
100
 73
     1
 44
1.0
1001
ACAD
1000
MTEXTBEGIN
1070
    73
1070
     1
1070
    44
1040
1.0
1070
    74
1070
     0
1000
MTEXTEND
  0
MTEXT
  5
AD792
330
1F
100
AcDbEntity
  8
AM_6
100
AcDbMText
 10
550.9999999998965
 20
303.3046700566584
 30
0.0
 40
7.0
 41
35.0
 71
     5
 72
     5
  1
102.0
 73
     1
 44
1.0
1001
ACAD
1000
MTEXTBEGIN
1070
    73
1070
     1
1070
    44
1040
1.0
1070
    74
1070
     0
1000
MTEXTEND
  0
MTEXT
  5
AD793
330
1F
100
AcDbEntity
  8
AM_6
100
AcDbMText
 10
587.1704941226957
 20
320.8046700567275
 30
0.0
 40
7.0
 41
35.0
 71
     5
 72
     5
  1
700
 73
     1
 44
1.0
1001
ACAD
1000
MTEXTBEGIN
1070
    73
1070
     1
1070
    44
1040
1.0
1070
    74
1070
     0
1000
MTEXTEND
  0
MTEXT
  5
AD794
330
1F
100
AcDbEntity
  8
AM_6
100
AcDbMText
 10
587.1704941226873
 20
338.3046700567183
 30
0.0
 40
7.0
 41
35.0
 71
     5
 72
     5
  1
580
 73
     1
 44
1.0
1001
ACAD
1000
MTEXTBEGIN
1070
    73
1070
     1
1070
    44
1040
1.0
1070
    74
1070
     0
1000
MTEXTEND
  0
MTEXT
  5
AD795
330
1F
100
AcDbEntity
  8
AM_6
100
AcDbMText
 10
587.1704941226957
 20
303.3046700566676
 30
0.0
 40
7.0
 41
35.0
 71
     5
 72
     5
  1
540
 73
     1
 44
1.0
1001
ACAD
1000
MTEXTBEGIN
1070
    73
1070
     1
1070
    44
1040
1.0
1070
    74
1070
     0
1000
MTEXTEND
  0
MTEXT
  5
AD811
330
1F
100
AcDbEntity
  8
AM_6
100
AcDbMText
 10
235.9999999999989
 20
260.4281069115883
 30
0.0
 40
7.0
 41
35.0
 71
     5
 72
     5
  1
32
 73
     1
 44
1.0
1001
ACAD
1000
MTEXTBEGIN
1070
    73
1070
     1
1070
    44
1040
1.0
1070
    74
1070
     0
1000
MTEXTEND
  0
MTEXT
  5
AD816
330
1F
100
AcDbEntity
  8
AM_6
100
AcDbMText
 10
587.1704941227726
 20
286.1841417294944
 30
0.0
 40
7.0
 41
35.0
 71
     5
 72
     5
  1
1090
 73
     1
 44
1.0
1001
ACAD
1000
MTEXTBEGIN
1070
    73
1070
     1
1070
    44
1040
1.0
1070
    74
1070
     0
1000
MTEXTEND
  0
MTEXT
  5
AD819
330
1F
100
AcDbEntity
  8
AM_6
100
AcDbMText
 10
587.170494122781
 20
268.6841417295036
 30
0.0
 40
7.0
 41
35.0
 71
     5
 72
     5
  1
970
 73
     1
 44
1.0
1001
ACAD
1000
MTEXTBEGIN
1070
    73
1070
     1
1070
    44
1040
1.0
1070
    74
1070
     0
1000
MTEXTEND
  0
MTEXT
  5
AD81A
330
1F
100
AcDbEntity
  8
AM_6
100
AcDbMText
 10
515.9999999999789
 20
251.1841417295039
 30
0.0
 40
7.0
 41
35.0
 71
     5
 72
     5
  1
180
 73
     1
 44
1.0
1001
ACAD
1000
MTEXTBEGIN
1070
    73
1070
     1
1070
    44
1040
1.0
1070
    74
1070
     0
1000
MTEXTEND
  0
MTEXT
  5
AD81B
330
1F
100
AcDbEntity
  8
AM_6
100
AcDbMText
 10
550.9999999999791
 20
251.1841417295039
 30
0.0
 40
7.0
 41
35.0
 71
     5
 72
     5
  1
183.6
 73
     1
 44
1.0
1001
ACAD
1000
MTEXTBEGIN
1070
    73
1070
     1
1070
    44
1040
1.0
1070
    74
1070
     0
1000
MTEXTEND
  0
MTEXT
  5
AD81C
330
1F
100
AcDbEntity
  8
AM_6
100
AcDbMText
 10
587.170494122781
 20
251.1841417295128
 30
0.0
 40
7.0
 41
35.0
 71
     5
 72
     5
  1
1170
 73
     1
 44
1.0
1001
ACAD
1000
MTEXTBEGIN
1070
    73
1070
     1
1070
    44
1040
1.0
1070
    74
1070
     0
1000
MTEXTEND
  0
MTEXT
  5
AD81F
330
1F
100
AcDbEntity
  8
AM_6
100
AcDbMText
 10
587.170494122781
 20
233.6841417293833
 30
0.0
 40
7.0
 41
35.0
 71
     5
 72
     5
  1
980
 73
     1
 44
1.0
1001
ACAD
1000
MTEXTBEGIN
1070
    73
1070
     1
1070
    44
1040
1.0
1070
    74
1070
     0
1000
MTEXTEND
  0
MTEXT
  5
AD87D
330
1F
100
AcDbEntity
  8
AM_6
100
AcDbMText
 10
201.0000000000065
 20
190.3117788492768
 30
0.0
 40
7.0
 41
35.0
 71
     5
 72
     5
  1
130
 73
     1
 44
1.0
1001
ACAD
1000
MTEXTBEGIN
1070
    73
1070
     1
1070
    44
1040
1.0
1070
    74
1070
     0
1000
MTEXTEND
  0
MTEXT
  5
AD87E
330
1F
100
AcDbEntity
  8
AM_6
100
AcDbMText
 10
314.7500000000205
 20
191.3676828832921
 30
0.0
 40
7.0
 41
52.49999999997164
 71
     5
 72
     5
  1
105 \U+00D7105
 73
     1
 44
1.0
1001
ACAD
1000
MTEXTBEGIN
1070
    73
1070
     1
1070
    44
1040
1.0
1070
    74
1070
     0
1000
MTEXTEND
  0
MTEXT
  5
AD87F
330
1F
100
AcDbEntity
  8
AM_6
100
AcDbMText
 10
446.0000000000349
 20
191.3676828832674
 30
0.0
 40
7.0
 41
35.0
 71
     5
 72
     5
  1
40
 73
     1
 44
1.0
1001
ACAD
1000
MTEXTBEGIN
1070
    73
1070
     1
1070
    44
1040
1.0
1070
    74
1070
     0
1000
MTEXTEND
  0
MTEXT
  5
AD880
330
1F
100
AcDbEntity
  8
AM_6
100
AcDbMText
 10
411.0000000000353
 20
191.3676828833061
 30
0.0
 40
7.0
 41
35.0
 71
     5
 72
     5
  1
11
 73
     1
 44
1.0
1001
ACAD
1000
MTEXTBEGIN
1070
    73
1070
     1
1070
    44
1040
1.0
1070
    74
1070
     0
1000
MTEXTEND
  0
MTEXT
  5
AD881
330
1F
100
AcDbEntity
  8
AM_6
100
AcDbMText
 10
271.0000000000353
 20
191.3676828832724
 30
0.0
 40
7.0
 41
35.0
 71
     5
 72
     5
  1
177
 73
     1
 44
1.0
1001
ACAD
1000
MTEXTBEGIN
1070
    73
1070
     1
1070
    44
1040
1.0
1070
    74
1070
     0
1000
MTEXTEND
  0
MTEXT
  5
AD883
330
1F
100
AcDbEntity
  8
AM_6
100
AcDbMText
 10
481.0000000000349
 20
191.3676828832726
 30
0.0
 40
7.0
 41
35.0
 71
     5
 72
     5
  1
105
 73
     1
 44
1.0
1001
ACAD
1000
MTEXTBEGIN
1070
    73
1070
     1
1070
    44
1040
1.0
1070
    74
1070
     0
1000
MTEXTEND
  0
LINE
  5
AD885
330
1F
100
AcDbEntity
  8
AM_5
100
AcDbLine
 10
218.4999999999575
 20
173.6205283273982
 30
0.0
 11
253.4999999999575
 21
173.6205283273982
 31
0.0
  0
MTEXT
  5
AD887
330
1F
100
AcDbEntity
  8
AM_6
100
AcDbMText
 10
236.0000000000147
 20
165.2126519161727
 30
0.0
 40
7.0
 41
35.0
 71
     5
 72
     5
  1
40
 73
     1
 44
1.0
1001
ACAD
1000
MTEXTBEGIN
1070
    73
1070
     1
1070
    44
1040
1.0
1070
    74
1070
     0
1000
MTEXTEND
  0
MTEXT
  5
AD888
330
1F
100
AcDbEntity
  8
AM_6
100
AcDbMText
 10
235.9999999999977
 20
209.0007790018173
 30
0.0
 40
7.0
 41
35.0
 71
     5
 72
     5
  1
40
 73
     1
 44
1.0
1001
ACAD
1000
MTEXTBEGIN
1070
    73
1070
     1
1070
    44
1040
1.0
1070
    74
1070
     0
1000
MTEXTEND
  0
MTEXT
  5
AD88B
330
1F
100
AcDbEntity
  8
AM_6
100
AcDbMText
 10
587.1704941227726
 20
216.5636134022101
 30
0.0
 40
7.0
 41
35.0
 71
     5
 72
     5
  1
1880
 73
     1
 44
1.0
1001
ACAD
1000
MTEXTBEGIN
1070
    73
1070
     1
1070
    44
1040
1.0
1070
    74
1070
     0
1000
MTEXTEND
  0
MTEXT
  5
AD88E
330
1F
100
AcDbEntity
  8
AM_6
100
AcDbMText
 10
587.170494122781
 20
199.0636134022193
 30
0.0
 40
7.0
 41
35.0
 71
     5
 72
     5
  1
1490
 73
     1
 44
1.0
1001
ACAD
1000
MTEXTBEGIN
1070
    73
1070
     1
1070
    44
1040
1.0
1070
    74
1070
     0
1000
MTEXTEND
  0
MTEXT
  5
AD88F
330
1F
100
AcDbEntity
  8
AM_6
100
AcDbMText
 10
515.9999999999789
 20
181.5636134022196
 30
0.0
 40
7.0
 41
35.0
 71
     5
 72
     5
  1
250
 73
     1
 44
1.0
1001
ACAD
1000
MTEXTBEGIN
1070
    73
1070
     1
1070
    44
1040
1.0
1070
    74
1070
     0
1000
MTEXTEND
  0
MTEXT
  5
AD890
330
1F
100
AcDbEntity
  8
AM_6
100
AcDbMText
 10
550.9999999999791
 20
181.5636134022196
 30
0.0
 40
7.0
 41
35.0
 71
     5
 72
     5
  1
255.0
 73
     1
 44
1.0
1001
ACAD
1000
MTEXTBEGIN
1070
    73
1070
     1
1070
    44
1040
1.0
1070
    74
1070
     0
1000
MTEXTEND
  0
MTEXT
  5
AD891
330
1F
100
AcDbEntity
  8
AM_6
100
AcDbMText
 10
587.170494122781
 20
181.5636134022285
 30
0.0
 40
7.0
 41
35.0
 71
     5
 72
     5
  1
2030
 73
     1
 44
1.0
1001
ACAD
1000
MTEXTBEGIN
1070
    73
1070
     1
1070
    44
1040
1.0
1070
    74
1070
     0
1000
MTEXTEND
  0
MTEXT
  5
AD894
330
1F
100
AcDbEntity
  8
AM_6
100
AcDbMText
 10
587.170494122781
 20
164.063613402099
 30
0.0
 40
7.0
 41
35.0
 71
     5
 72
     5
  1
1745
 73
     1
 44
1.0
1001
ACAD
1000
MTEXTBEGIN
1070
    73
1070
     1
1070
    44
1040
1.0
1070
    74
1070
     0
1000
MTEXTEND
  0
MTEXT
  5
AD895
330
1F
100
AcDbEntity
  8
AM_6
100
AcDbMText
 10
201.0000000000065
 20
120.6912505219926
 30
0.0
 40
7.0
 41
35.0
 71
     5
 72
     5
  1
150
 73
     1
 44
1.0
1001
ACAD
1000
MTEXTBEGIN
1070
    73
1070
     1
1070
    44
1040
1.0
1070
    74
1070
     0
1000
MTEXTEND
  0
MTEXT
  5
AD896
330
1F
100
AcDbEntity
  8
AM_6
100
AcDbMText
 10
314.7500000000205
 20
121.7471545560078
 30
0.0
 40
7.0
 41
52.49999999997164
 71
     5
 72
     5
  1
120 \U+00D7120
 73
     1
 44
1.0
1001
ACAD
1000
MTEXTBEGIN
1070
    73
1070
     1
1070
    44
1040
1.0
1070
    74
1070
     0
1000
MTEXTEND
  0
MTEXT
  5
AD899
330
1F
100
AcDbEntity
  8
AM_6
100
AcDbMText
 10
271.0000000000353
 20
121.7471545559882
 30
0.0
 40
7.0
 41
35.0
 71
     5
 72
     5
  1
198
 73
     1
 44
1.0
1001
ACAD
1000
MTEXTBEGIN
1070
    73
1070
     1
1070
    44
1040
1.0
1070
    74
1070
     0
1000
MTEXTEND
  0
MTEXT
  5
AD89B
330
1F
100
AcDbEntity
  8
AM_6
100
AcDbMText
 10
481.0000000000349
 20
121.7471545559884
 30
0.0
 40
7.0
 41
35.0
 71
     5
 72
     5
  1
115
 73
     1
 44
1.0
1001
ACAD
1000
MTEXTBEGIN
1070
    73
1070
     1
1070
    44
1040
1.0
1070
    74
1070
     0
1000
MTEXTEND
  0
LINE
  5
AD89C
330
1F
100
AcDbEntity
  8
AM_5
100
AcDbLine
 10
218.4999999998978
 20
121.5000000001047
 30
0.0
 11
253.4999999998978
 21
121.5000000001047
 31
0.0
  0
LINE
  5
AD89D
330
1F
100
AcDbEntity
  8
AM_5
100
AcDbLine
 10
218.4999999999575
 20
104.000000000114
 30
0.0
 11
253.4999999999575
 21
104.000000000114
 31
0.0
  0
MTEXT
  5
AD89E
330
1F
100
AcDbEntity
  8
AM_6
100
AcDbMText
 10
235.9999999999959
 20
138.9267784724753
 30
0.0
 40
7.0
 41
35.0
 71
     5
 72
     5
  1
40
 73
     1
 44
1.0
1001
ACAD
1000
MTEXTBEGIN
1070
    73
1070
     1
1070
    44
1040
1.0
1070
    74
1070
     0
1000
MTEXTEND
  0
MTEXT
  5
AD89F
330
1F
100
AcDbEntity
  8
AM_6
100
AcDbMText
 10
236.0000000000147
 20
95.59212358888851
 30
0.0
 40
7.0
 41
35.0
 71
     5
 72
     5
  1
40
 73
     1
 44
1.0
1001
ACAD
1000
MTEXTBEGIN
1070
    73
1070
     1
1070
    44
1040
1.0
1070
    74
1070
     0
1000
MTEXTEND
  0
MTEXT
  5
AD8A0
330
1F
100
AcDbEntity
  8
AM_6
100
AcDbMText
 10
235.9999999999989
 20
112.668817316167
 30
0.0
 40
7.0
 41
35.0
 71
     5
 72
     5
  1
38
 73
     1
 44
1.0
1001
ACAD
1000
MTEXTBEGIN
1070
    73
1070
     1
1070
    44
1040
1.0
1070
    74
1070
     0
1000
MTEXTEND
  0
MTEXT
  5
AD8A1
330
1F
100
AcDbEntity
  8
AM_6
100
AcDbMText
 10
515.9999999999707
 20
146.9430850749169
 30
0.0
 40
7.0
 41
35.0
 71
     5
 72
     5
  1
200
 73
     1
 44
1.0
1001
ACAD
1000
MTEXTBEGIN
1070
    73
1070
     1
1070
    44
1040
1.0
1070
    74
1070
     0
1000
MTEXTEND
  0
MTEXT
  5
AD8A2
330
1F
100
AcDbEntity
  8
AM_6
100
AcDbMText
 10
550.9999999999706
 20
146.9430850749169
 30
0.0
 40
7.0
 41
35.0
 71
     5
 72
     5
  1
204.0
 73
     1
 44
1.0
1001
ACAD
1000
MTEXTBEGIN
1070
    73
1070
     1
1070
    44
1040
1.0
1070
    74
1070
     0
1000
MTEXTEND
  0
MTEXT
  5
AD8A3
330
1F
100
AcDbEntity
  8
AM_6
100
AcDbMText
 10
587.1704941227726
 20
146.9430850749257
 30
0.0
 40
7.0
 41
35.0
 71
     5
 72
     5
  1
2120
 73
     1
 44
1.0
1001
ACAD
1000
MTEXTBEGIN
1070
    73
1070
     1
1070
    44
1040
1.0
1070
    74
1070
     0
1000
MTEXTEND
  0
MTEXT
  5
AD8A6
330
1F
100
AcDbEntity
  8
AM_6
100
AcDbMText
 10
587.170494122781
 20
129.4430850749351
 30
0.0
 40
7.0
 41
35.0
 71
     5
 72
     5
  1
1680
 73
     1
 44
1.0
1001
ACAD
1000
MTEXTBEGIN
1070
    73
1070
     1
1070
    44
1040
1.0
1070
    74
1070
     0
1000
MTEXTEND
  0
MTEXT
  5
AD8A7
330
1F
100
AcDbEntity
  8
AM_6
100
AcDbMText
 10
515.9999999999789
 20
111.9430850749353
 30
0.0
 40
7.0
 41
35.0
 71
     5
 72
     5
  1
300
 73
     1
 44
1.0
1001
ACAD
1000
MTEXTBEGIN
1070
    73
1070
     1
1070
    44
1040
1.0
1070
    74
1070
     0
1000
MTEXTEND
  0
MTEXT
  5
AD8A8
330
1F
100
AcDbEntity
  8
AM_6
100
AcDbMText
 10
550.9999999999791
 20
111.9430850749353
 30
0.0
 40
7.0
 41
35.0
 71
     5
 72
     5
  1
306.0
 73
     1
 44
1.0
1001
ACAD
1000
MTEXTBEGIN
1070
    73
1070
     1
1070
    44
1040
1.0
1070
    74
1070
     0
1000
MTEXTEND
  0
MTEXT
  5
AD8A9
330
1F
100
AcDbEntity
  8
AM_6
100
AcDbMText
 10
587.170494122781
 20
111.9430850749441
 30
0.0
 40
7.0
 41
35.0
 71
     5
 72
     5
  1
2380
 73
     1
 44
1.0
1001
ACAD
1000
MTEXTBEGIN
1070
    73
1070
     1
1070
    44
1040
1.0
1070
    74
1070
     0
1000
MTEXTEND
  0
MTEXT
  5
AD8AC
330
1F
100
AcDbEntity
  8
AM_6
100
AcDbMText
 10
587.170494122781
 20
94.4430850748148
 30
0.0
 40
7.0
 41
35.0
 71
     5
 72
     5
  1
2040
 73
     1
 44
1.0
1001
ACAD
1000
MTEXTBEGIN
1070
    73
1070
     1
1070
    44
1040
1.0
1070
    74
1070
     0
1000
MTEXTEND
  0
MTEXT
  5
AD8C3
330
1F
100
AcDbEntity
  8
AM_6
100
AcDbMText
 10
446.0000000000348
 20
121.7471545559832
 30
0.0
 40
7.0
 41
35.0
 71
     5
 72
     5
  1
40
 73
     1
 44
1.0
1001
ACAD
1000
MTEXTBEGIN
1070
    73
1070
     1
1070
    44
1040
1.0
1070
    74
1070
     0
1000
MTEXTEND
  0
MTEXT
  5
AD8C4
330
1F
100
AcDbEntity
  8
AM_6
100
AcDbMText
 10
411.0000000000352
 20
121.7471545560218
 30
0.0
 40
7.0
 41
35.0
 71
     5
 72
     5
  1
11
 73
     1
 44
1.0
1001
ACAD
1000
MTEXTBEGIN
1070
    73
1070
     1
1070
    44
1040
1.0
1070
    74
1070
     0
1000
MTEXTEND
  0
MTEXT
  5
AD93C
330
1F
100
AcDbEntity
  8
AM_6
100
AcDbMText
 10
85.99999999998363
 20
718.0
 30
0.0
 40
6.4
 41
140.0
 71
     4
 72
     5
  1
　        　　　鋼板ホイルウレタン（B入）　（UW）
 73
     1
 44
1.0
1001
ACAD
1000
MTEXTBEGIN
1070
    73
1070
     1
1070
    44
1040
1.0
1070
    74
1070
     0
1000
MTEXTEND
  0
MTEXT
  5
AD93D
330
1F
100
AcDbEntity
  8
AM_6
100
AcDbMText
 10
85.99999999998363
 20
703.7226715104662
 30
0.0
 40
6.4
 41
140.0
 71
     4
 72
     5
  1
\W0.6;　           　　　ナイロンホイルウレタン（B入）　（GU）
 73
     1
 44
1.0
1001
ACAD
1000
MTEXTBEGIN
1070
    73
1070
     1
1070
    44
1040
1.0
1070
    74
1070
     0
1000
MTEXTEND
  0
LINE
  5
AE697
330
1F
100
AcDbEntity
  8
AM_7
100
AcDbLine
 10
855.0983540463651
 20
600.6808560286562
 30
0.0
 11
996.5983540463653
 21
600.6808560286562
 31
0.0
  0
LINE
  5
AE698
330
1F
100
AcDbEntity
  8
AM_7
100
AcDbLine
 10
719.8501057142057
 20
449.5793965472858
 30
0.0
 11
719.8501057142053
 21
293.4593965472857
 31
0.0
  0
LINE
  5
AE699
330
1F
100
AcDbEntity
  8
AM_7
100
AcDbLine
 10
943.0983540463644
 20
449.5793965472858
 30
0.0
 11
943.0983540463644
 21
373.020755393904
 31
0.0
  0
LINE
  5
AE69A
330
1F
100
AcDbEntity
  8
AM_0
100
AcDbLine
 10
672.3501057142052
 20
443.579396547286
 30
0.0
 11
767.3501057142052
 21
443.5793965472857
 31
0.0
  0
LINE
  5
AE69B
330
1F
100
AcDbEntity
  8
AM_0
100
AcDbLine
 10
674.3501057142053
 20
440.3793965472858
 30
0.0
 11
767.3501057142052
 21
440.379396547286
 31
0.0
  0
ARC
  5
AE69C
330
1F
100
AcDbEntity
  8
AM_0
100
AcDbCircle
 10
645.8501057142052
 20
379.0199044900846
 30
0.0
 40
105.0
100
AcDbArc
 50
346.5027079068681
 51
0.0
  0
LINE
  5
AE69D
330
1F
100
AcDbEntity
  8
AM_0
100
AcDbLine
 10
747.9501057142043
 20
358.5793965472857
 30
0.0
 11
747.9501057142051
 21
340.579396547286
 31
0.0
  0
ARC
  5
AE69E
330
1F
100
AcDbEntity
  8
AM_0
100
AcDbCircle
 10
689.1905460769601
 20
356.9406124794535
 30
0.0
 40
4.05955963724523
100
AcDbArc
 50
322.8118269145112
 51
37.18817308548882
  0
LINE
  5
AE69F
330
1F
100
AcDbEntity
  8
AM_0
100
AcDbLine
 10
687.2501057142053
 20
354.4868738353975
 30
0.0
 11
687.2501057142053
 21
356.9406124794535
 31
0.0
  0
ARC
  5
AE6A0
330
1F
100
AcDbEntity
  8
AM_0
100
AcDbCircle
 10
691.3096653514505
 20
356.9406124794535
 30
0.0
 40
4.05955963724523
100
AcDbArc
 50
142.8118269145112
 51
217.1881730854888
  0
LINE
  5
AE6A1
330
1F
100
AcDbEntity
  8
AM_0
100
AcDbLine
 10
693.2501057142054
 20
356.9406124794535
 30
0.0
 11
693.2501057142054
 21
340.3793965472857
 31
0.0
  0
LINE
  5
AE6A2
330
1F
100
AcDbEntity
  8
AM_0
100
AcDbLine
 10
741.3501057142052
 20
406.837135016785
 30
0.0
 11
741.3501057142052
 21
335.4593965472858
 31
0.0
  0
LINE
  5
AE6A3
330
1F
100
AcDbEntity
  8
AM_0
100
AcDbLine
 10
743.9501057142051
 20
335.4593965472858
 30
0.0
 11
743.9501057142051
 21
408.537135016785
 31
0.0
  0
LINE
  5
AE6A4
330
1F
100
AcDbEntity
  8
AM_0
100
AcDbLine
 10
698.3501057142052
 20
406.837135016785
 30
0.0
 11
698.3501057142052
 21
335.4593965472858
 31
0.0
  0
LINE
  5
AE6A5
330
1F
100
AcDbEntity
  8
AM_0
100
AcDbLine
 10
695.7501057142053
 20
335.4593965472858
 30
0.0
 11
695.7501057142053
 21
408.537135016785
 31
0.0
  0
LINE
  5
AE6A6
330
1F
100
AcDbEntity
  8
AM_0
100
AcDbLine
 10
693.2501057142054
 20
349.2444600567546
 30
0.0
 11
695.7501057142053
 21
349.9143330378325
 31
0.0
  0
LINE
  5
AE6A7
330
1F
100
AcDbEntity
  8
AM_0
100
AcDbLine
 10
693.2501057142054
 20
340.3793965472857
 30
0.0
 11
695.7501057142053
 21
340.3793965472857
 31
0.0
  0
LINE
  5
AE6A8
330
1F
100
AcDbEntity
  8
AM_7
100
AcDbLine
 10
679.2501057142053
 20
349.5793965472857
 30
0.0
 11
753.9501057142047
 21
349.5793965472857
 31
0.0
  0
ARC
  5
AE6A9
330
1F
100
AcDbEntity
  8
AM_0
100
AcDbCircle
 10
689.1905460769598
 20
342.2181806151181
 30
0.0
 40
4.05955963724523
100
AcDbArc
 50
322.8118269145112
 51
37.18817308548882
  0
ARC
  5
AE6AA
330
1F
100
AcDbEntity
  8
AM_0
100
AcDbCircle
 10
691.3096653514503
 20
342.2181806151181
 30
0.0
 40
4.05955963724523
100
AcDbArc
 50
142.8118269145112
 51
217.1881730854888
  0
LINE
  5
AE6AB
330
1F
100
AcDbEntity
  8
AM_0
100
AcDbLine
 10
687.2501057142053
 20
344.6719192591741
 30
0.0
 11
687.2501057142053
 21
342.2181806151181
 31
0.0
  0
LINE
  5
AE6AC
330
1F
100
AcDbEntity
  8
AM_0
100
AcDbLine
 10
688.0755980801925
 20
339.764441971062
 30
0.0
 11
692.424613348217
 21
339.764441971062
 31
0.0
  0
ARC
  5
AE6AD
330
1F
100
AcDbEntity
  8
AM_0
100
AcDbCircle
 10
702.2501057142053
 20
349.5793965472857
 30
0.0
 40
15.0
100
AcDbArc
 50
180.0
 51
199.0968018174746
  0
ARC
  5
AE6AE
330
1F
100
AcDbEntity
  8
AM_0
100
AcDbCircle
 10
702.2501057142053
 20
349.5793965472857
 30
0.0
 40
15.0
100
AcDbArc
 50
160.9031981825191
 51
180.0
  0
LINE
  5
AE6AF
330
1F
100
AcDbEntity
  8
AM_0
100
AcDbLine
 10
687.2501057142053
 20
349.579396547286
 30
0.0
 11
687.2501057142053
 21
344.6719192591741
 31
0.0
  0
LINE
  5
AE6B0
330
1F
100
AcDbEntity
  8
AM_0
100
AcDbLine
 10
687.2501057142053
 20
349.5793965472857
 30
0.0
 11
687.2501057142053
 21
354.4868738353975
 31
0.0
  0
LINE
  5
AE6B1
330
1F
100
AcDbEntity
  8
AM_0
100
AcDbLine
 10
685.2501057142053
 20
349.5793965472857
 30
0.0
 11
685.2501057142053
 21
353.8293965472897
 31
0.0
  0
LINE
  5
AE6B2
330
1F
100
AcDbEntity
  8
AM_0
100
AcDbLine
 10
685.2501057142053
 20
349.579396547286
 30
0.0
 11
685.2501057142053
 21
345.3293965472817
 31
0.0
  0
LINE
  5
AE6B3
330
1F
100
AcDbEntity
  8
AM_0
100
AcDbLine
 10
685.2501057142053
 20
345.3293965472817
 30
0.0
 11
686.0001057142012
 21
344.5793965472859
 31
0.0
  0
LINE
  5
AE6B4
330
1F
100
AcDbEntity
  8
AM_0
100
AcDbLine
 10
686.0001057142012
 20
354.5793965472857
 30
0.0
 11
686.0001057142015
 21
344.5793965472855
 31
0.0
  0
LINE
  5
AE6B5
330
1F
100
AcDbEntity
  8
AM_0
100
AcDbLine
 10
685.2501057142053
 20
353.8293965472897
 30
0.0
 11
686.0001057142012
 21
354.5793965472857
 31
0.0
  0
LINE
  5
AE6B6
330
1F
100
AcDbEntity
  8
AM_0
100
AcDbLine
 10
686.0001057142012
 20
354.5793965472857
 30
0.0
 11
687.2501057142053
 21
354.5793965472857
 31
0.0
  0
LINE
  5
AE6B7
330
1F
100
AcDbEntity
  8
AM_0
100
AcDbLine
 10
686.0001057142012
 20
344.5793965472859
 30
0.0
 11
687.2501057142053
 21
344.5793965472859
 31
0.0
  0
LINE
  5
AE6B8
330
1F
100
AcDbEntity
  8
SAISEN
100
AcDbLine
 10
685.2501057142053
 20
345.3293965472857
 30
0.0
 11
687.2501057142053
 21
345.3293965472857
 31
0.0
  0
LINE
  5
AE6B9
330
1F
100
AcDbEntity
  8
SAISEN
100
AcDbLine
 10
685.2501057142053
 20
353.8293965472857
 30
0.0
 11
687.2501057142053
 21
353.8293965472857
 31
0.0
  0
LINE
  5
AE6BA
330
1F
100
AcDbEntity
  8
AM_0
100
AcDbLine
 10
688.075598080193
 20
354.4868738353975
 30
0.0
 11
692.4246133482167
 21
354.4868738353975
 31
0.0
  0
ARC
  5
AE6BB
330
1F
100
AcDbEntity
  8
AM_0
100
AcDbCircle
 10
678.2501057142053
 20
349.579396547286
 30
0.0
 40
15.0
100
AcDbArc
 50
340.9031981825207
 51
0.0
  0
LINE
  5
AE6BC
330
1F
100
AcDbEntity
  8
AM_0
100
AcDbLine
 10
688.0755980801932
 20
344.6719192591735
 30
0.0
 11
692.424613348217
 21
344.6719192591738
 31
0.0
  0
ARC
  5
AE6BD
330
1F
100
AcDbEntity
  8
AM_0
100
AcDbCircle
 10
678.2501057142053
 20
349.5793965472857
 30
0.0
 40
15.0
100
AcDbArc
 50
0.0
 51
19.09680181747926
  0
LINE
  5
AE6BE
330
1F
100
AcDbEntity
  8
AM_0
100
AcDbLine
 10
698.3501057142052
 20
343.5793965472857
 30
0.0
 11
703.8501057142052
 21
343.5793965472857
 31
0.0
  0
LINE
  5
AE6BF
330
1F
100
AcDbEntity
  8
AM_0
100
AcDbLine
 10
695.7501057142053
 20
335.4593965472858
 30
0.0
 11
698.3501057142052
 21
335.4593965472858
 31
0.0
  0
LINE
  5
AE6C0
330
1F
100
AcDbEntity
  8
AM_0
100
AcDbLine
 10
698.3501057142052
 20
355.5793965472856
 30
0.0
 11
703.8501057142052
 21
355.5793965472848
 31
0.0
  0
ARC
  5
AE6C1
330
1F
100
AcDbEntity
  8
AM_0
100
AcDbCircle
 10
745.9501057142051
 20
344.3293965472857
 30
0.0
 40
4.25
100
AcDbArc
 50
241.9275130641456
 51
298.0724869358544
  0
LINE
  5
AE6C2
330
1F
100
AcDbEntity
  8
AM_0
100
AcDbLine
 10
735.8501057142056
 20
343.5793965472857
 30
0.0
 11
741.3501057142052
 21
343.5793965472857
 31
0.0
  0
LINE
  5
AE6C3
330
1F
100
AcDbEntity
  8
AM_0
100
AcDbLine
 10
741.3501057142052
 20
335.4593965472858
 30
0.0
 11
743.9501057142051
 21
335.4593965472858
 31
0.0
  0
LINE
  5
AE6C4
330
1F
100
AcDbEntity
  8
AM_0
100
AcDbLine
 10
735.8501057142056
 20
355.5793965472856
 30
0.0
 11
741.3501057142052
 21
355.5793965472856
 31
0.0
  0
ARC
  5
AE6C5
330
1F
100
AcDbEntity
  8
AM_0
100
AcDbCircle
 10
700.7501057142053
 20
412.3189136896017
 30
0.0
 40
5.0
100
AcDbArc
 50
90.0
 51
180.0
  0
LINE
  5
AE6C6
330
1F
100
AcDbEntity
  8
AM_0
100
AcDbLine
 10
695.7501057142053
 20
358.7793965472855
 30
0.0
 11
693.2501057142054
 21
358.7793965472855
 31
0.0
  0
LINE
  5
AE6C7
330
1F
100
AcDbEntity
  8
AM_0
100
AcDbLine
 10
691.9751057142052
 20
437.2793965472857
 30
0.0
 11
747.7251057142052
 21
437.2793965472857
 31
0.0
  0
LINE
  5
AE6C8
330
1F
100
AcDbEntity
  8
AM_0
100
AcDbLine
 10
689.1901052656075
 20
425.4593965472858
 30
0.0
 11
719.8501057142053
 21
425.4593965472858
 31
0.0
  0
LINE
  5
AE6C9
330
1F
100
AcDbEntity
  8
AM_0
100
AcDbLine
 10
755.5101061628031
 20
436.2593965472857
 30
0.0
 11
684.1901052656074
 21
436.259396547286
 31
0.0
  0
LINE
  5
AE6CA
330
1F
100
AcDbEntity
  8
AM_0
100
AcDbLine
 10
694.8501057142053
 20
425.4593965472858
 30
0.0
 11
727.4501057142053
 21
425.4593965472858
 31
0.0
  0
LINE
  5
AE6CB
330
1F
100
AcDbEntity
  8
AM_0
100
AcDbLine
 10
688.8501057142052
 20
379.0199044900846
 30
0.0
 11
688.8501057142052
 21
419.4593965472857
 31
0.0
  0
ARC
  5
AE6CC
330
1F
100
AcDbEntity
  8
AM_0
100
AcDbCircle
 10
793.8501057142055
 20
379.0199044900846
 30
0.0
 40
105.0
100
AcDbArc
 50
180.0
 51
190.7725118441842
  0
LINE
  5
AE6CD
330
1F
100
AcDbEntity
  8
AM_0
100
AcDbLine
 10
693.2501057142054
 20
358.7793965472855
 30
0.0
 11
693.2501057142054
 21
356.9406124794535
 31
0.0
  0
LINE
  5
AE6CE
330
1F
100
AcDbEntity
  8
AM_0
100
AcDbLine
 10
688.0755980801925
 20
359.3943511235092
 30
0.0
 11
692.424613348217
 21
359.3943511235092
 31
0.0
  0
ARC
  5
AE6CF
330
1F
100
AcDbEntity
  8
AM_0
100
AcDbCircle
 10
689.1901052656075
 20
430.4593965472858
 30
0.0
 40
5.0
100
AcDbArc
 50
180.0
 51
270.0
  0
ARC
  5
AE6D0
330
1F
100
AcDbEntity
  8
AM_0
100
AcDbCircle
 10
694.8501057142053
 20
419.4593965472857
 30
0.0
 40
6.0
100
AcDbArc
 50
90.0
 51
180.0
  0
LINE
  5
AE6D1
330
1F
100
AcDbEntity
  8
AM_0
100
AcDbLine
 10
672.3501057142052
 20
443.579396547286
 30
0.0
 11
672.3501057142052
 21
440.3793965472858
 31
0.0
  0
LINE
  5
AE6D2
330
1F
100
AcDbEntity
  8
AM_0
100
AcDbLine
 10
672.3501057142052
 20
440.3793965472858
 30
0.0
 11
674.3501057142053
 21
440.3793965472858
 31
0.0
  0
ARC
  5
AE6D3
330
1F
100
AcDbEntity
  8
AM_0
100
AcDbCircle
 10
691.2501052656073
 20
432.5193965472858
 30
0.0
 40
4.759999999999998
100
AcDbArc
 50
90.0
 51
128.2132107017332
  0
ARC
  5
AE6D4
330
1F
100
AcDbEntity
  8
AM_0
100
AcDbCircle
 10
691.9751057142052
 20
449.4770779988982
 30
0.0
 40
12.19768145161246
100
AcDbArc
 50
228.2324468227094
 51
270.0
  0
LINE
  5
AE6D5
330
1F
100
AcDbEntity
  8
AM_0
100
AcDbLine
 10
684.1901052656075
 20
436.259396547286
 30
0.0
 11
684.1901052656075
 21
430.4593965472858
 31
0.0
  0
LINE
  5
AE6D6
330
1F
100
AcDbEntity
  8
AM_0
100
AcDbLine
 10
750.8501057142052
 20
419.4593965472857
 30
0.0
 11
750.8501057142052
 21
379.0199044900846
 31
0.0
  0
ARC
  5
AE6D7
330
1F
100
AcDbEntity
  8
AM_0
100
AcDbCircle
 10
745.9501057142051
 20
354.8293965472857
 30
0.0
 40
4.25
100
AcDbArc
 50
61.92751306414552
 51
118.0724869358545
  0
LINE
  5
AE6D8
330
1F
100
AcDbEntity
  8
AM_0
100
AcDbLine
 10
719.8501057142053
 20
418.4593965472859
 30
0.0
 11
742.9501057142052
 21
418.4593965472859
 31
0.0
  0
LINE
  5
AE6D9
330
1F
100
AcDbEntity
  8
AM_0
100
AcDbLine
 10
727.4501057142053
 20
425.4593965472858
 30
0.0
 11
750.5101061628031
 21
425.4593965472858
 31
0.0
  0
LINE
  5
AE6DA
330
1F
100
AcDbEntity
  8
AM_0
100
AcDbLine
 10
719.8501057142053
 20
417.3189136896017
 30
0.0
 11
738.9501057142052
 21
417.3189136896017
 31
0.0
  0
LINE
  5
AE6DB
330
1F
100
AcDbEntity
  8
AM_0
100
AcDbLine
 10
743.9501057142051
 20
406.837135016785
 30
0.0
 11
695.7501057142053
 21
406.837135016785
 31
0.0
  0
LINE
  5
AE6DC
330
1F
100
AcDbEntity
  8
AM_0
100
AcDbLine
 10
696.7501057142053
 20
418.4593965472859
 30
0.0
 11
719.8501057142053
 21
418.4593965472859
 31
0.0
  0
LINE
  5
AE6DD
330
1F
100
AcDbEntity
  8
AM_0
100
AcDbLine
 10
700.7501057142053
 20
417.3189136896017
 30
0.0
 11
719.8501057142053
 21
417.3189136896017
 31
0.0
  0
LINE
  5
AE6DE
330
1F
100
AcDbEntity
  8
AM_0
100
AcDbLine
 10
695.7501057142053
 20
408.537135016785
 30
0.0
 11
695.7501057142053
 21
412.3189136896017
 31
0.0
  0
ARC
  5
AE6DF
330
1F
100
AcDbEntity
  8
AM_0
100
AcDbCircle
 10
750.5101061628031
 20
430.4593965472858
 30
0.0
 40
5.0
100
AcDbArc
 50
270.0
 51
0.0
  0
ARC
  5
AE6E0
330
1F
100
AcDbEntity
  8
AM_0
100
AcDbCircle
 10
744.8501057142053
 20
419.4593965472857
 30
0.0
 40
6.0
100
AcDbArc
 50
0.0
 51
90.0
  0
ARC
  5
AE6E1
330
1F
100
AcDbEntity
  8
AM_0
100
AcDbCircle
 10
738.9501057142052
 20
412.3189136896017
 30
0.0
 40
5.0
100
AcDbArc
 50
0.0
 51
90.0
  0
LINE
  5
AE6E2
330
1F
100
AcDbEntity
  8
AM_0
100
AcDbLine
 10
743.9501057142051
 20
412.3189136896017
 30
0.0
 11
743.9501057142051
 21
408.537135016785
 31
0.0
  0
ARC
  5
AE6E3
330
1F
100
AcDbEntity
  8
AM_0
100
AcDbCircle
 10
748.4501061628034
 20
432.5193965472858
 30
0.0
 40
4.759999999999998
100
AcDbArc
 50
51.7867892982668
 51
90.0
  0
ARC
  5
AE6E4
330
1F
100
AcDbEntity
  8
AM_0
100
AcDbCircle
 10
747.7251057142052
 20
449.4770779988982
 30
0.0
 40
12.19768145161246
100
AcDbArc
 50
270.0
 51
311.7675531772905
  0
LINE
  5
AE6E5
330
1F
100
AcDbEntity
  8
AM_0
100
AcDbLine
 10
755.5101061628031
 20
436.259396547286
 30
0.0
 11
755.5101061628031
 21
430.4593965472858
 31
0.0
  0
ARC
  5
AE6E6
330
1F
100
AcDbEntity
  8
AM_0
100
AcDbCircle
 10
911.0983535977666
 20
349.5793965472857
 30
0.0
 40
50.0
100
AcDbArc
 50
103.8738888738255
 51
45.43228964979289
  0
LINE
  5
AE6E7
330
1F
100
AcDbEntity
  8
AM_7
100
AcDbLine
 10
855.0983535977668
 20
349.5793965472857
 30
0.0
 11
967.0983535977667
 21
349.5793965472857
 31
0.0
  0
LINE
  5
AE6E8
330
1F
100
AcDbEntity
  8
AM_0
100
AcDbLine
 10
767.3501057142052
 20
440.3793965472858
 30
0.0
 11
765.3501057142052
 21
440.3793965472858
 31
0.0
  0
LINE
  5
AE6E9
330
1F
100
AcDbEntity
  8
AM_0
100
AcDbLine
 10
767.3501057142052
 20
443.579396547286
 30
0.0
 11
767.3501057142052
 21
440.3793965472858
 31
0.0
  0
LINE
  5
AE6EA
330
1F
100
AcDbEntity
  8
AM_7
100
AcDbLine
 10
911.0983535977666
 20
293.4593965472857
 30
0.0
 11
911.0983535977666
 21
364.9593965472858
 31
0.0
  0
CIRCLE
  5
AE6EB
330
1F
100
AcDbEntity
  8
AM_0
100
AcDbCircle
 10
911.0983535977666
 20
349.5793965472857
 30
0.0
 40
9.5
  0
LINE
  5
AE6EC
330
1F
100
AcDbEntity
  8
AM_0
100
AcDbLine
 10
895.1592384282985
 20
352.8538884312483
 30
0.0
 11
899.6919329189022
 21
404.6628235312896
 31
0.0
  0
LINE
  5
AE6ED
330
1F
100
AcDbEntity
  8
AM_0
100
AcDbLine
 10
923.5998921199993
 20
415.1580486863919
 30
0.0
 11
923.5998921199993
 21
344.83754780779
 31
0.0
  0
LINE
  5
AE6EE
330
1F
100
AcDbEntity
  8
AM_0
100
AcDbLine
 10
958.0715375016788
 20
408.4072825441604
 30
0.0
 11
925.3036645163579
 21
344.0967107801096
 31
0.0
  0
ARC
  5
AE6EF
330
1F
100
AcDbEntity
  8
AM_0
100
AcDbCircle
 10
911.0983535977666
 20
351.4593965472859
 30
0.0
 40
16.0
100
AcDbArc
 50
175.000000000007
 51
270.0
  0
ARC
  5
AE6F0
330
1F
100
AcDbEntity
  8
AM_0
100
AcDbCircle
 10
911.0983535977666
 20
351.4593965472859
 30
0.0
 40
16.0
100
AcDbArc
 50
270.0
 51
333.3979397599478
  0
LINE
  5
AE6F1
330
1F
100
AcDbEntity
  8
AM_0
100
AcDbLine
 10
912.4383535977667
 20
425.4593965472858
 30
0.0
 11
943.0983540463644
 21
425.4593965472858
 31
0.0
  0
LINE
  5
AE6F2
330
1F
100
AcDbEntity
  8
AM_0
100
AcDbLine
 10
943.0983535977667
 20
436.2593965472858
 30
0.0
 11
907.4383535977672
 21
436.259396547286
 31
0.0
  0
LINE
  5
AE6F3
330
1F
100
AcDbEntity
  8
AM_0
100
AcDbLine
 10
915.2233540463644
 20
437.2793965472857
 30
0.0
 11
943.0983540463644
 21
437.2793965472857
 31
0.0
  0
LINE
  5
AE6F4
330
1F
100
AcDbEntity
  8
AM_0
100
AcDbLine
 10
897.5983540463644
 20
443.5793965472857
 30
0.0
 11
988.5983540463648
 21
443.5793965472857
 31
0.0
  0
LINE
  5
AE6F5
330
1F
100
AcDbEntity
  8
AM_0
100
AcDbLine
 10
895.5983540463645
 20
440.379396547286
 30
0.0
 11
943.0983540463644
 21
440.379396547286
 31
0.0
  0
LINE
  5
AE6F6
330
1F
100
AcDbEntity
  8
AM_0
100
AcDbLine
 10
897.5983540463644
 20
443.5793965472857
 30
0.0
 11
895.5983540463645
 21
443.5793965472857
 31
0.0
  0
LINE
  5
AE6F7
330
1F
100
AcDbEntity
  8
AM_0
100
AcDbLine
 10
897.6995435227191
 20
406.837135016785
 30
0.0
 11
894.4983535977671
 21
406.837135016785
 31
0.0
  0
ARC
  5
AE6F8
330
1F
100
AcDbEntity
  8
AM_0
100
AcDbCircle
 10
899.4983535977672
 20
412.3379401991431
 30
0.0
 40
5.0
100
AcDbArc
 50
94.99999999999968
 51
180.0
  0
LINE
  5
AE6F9
330
1F
100
AcDbEntity
  8
AM_0
100
AcDbLine
 10
894.4983535977671
 20
406.837135016785
 30
0.0
 11
894.4983535977671
 21
412.3379401991431
 31
0.0
  0
LINE
  5
AE6FA
330
1F
100
AcDbEntity
  8
AM_0
100
AcDbLine
 10
895.5983540463645
 20
443.5793965472857
 30
0.0
 11
895.5983540463645
 21
440.3793965472858
 31
0.0
  0
ARC
  5
AE6FB
330
1F
100
AcDbEntity
  8
AM_0
100
AcDbCircle
 10
917.0983535977638
 20
420.4593965472858
 30
0.0
 40
5.0
100
AcDbArc
 50
90.0
 51
179.9999999999609
  0
ARC
  5
AE6FC
330
1F
100
AcDbEntity
  8
AM_0
100
AcDbCircle
 10
912.4383535977667
 20
430.4593965472858
 30
0.0
 40
5.0
100
AcDbArc
 50
180.0
 51
270.0
  0
LINE
  5
AE6FD
330
1F
100
AcDbEntity
  8
AM_0
100
AcDbLine
 10
911.1855093405111
 20
418.3795330232115
 30
0.0
 11
919.2341418218965
 21
419.0836971222196
 31
0.0
  0
ARC
  5
AE6FE
330
1F
100
AcDbEntity
  8
AM_0
100
AcDbCircle
 10
911.0983535977629
 20
419.3757277213033
 30
0.0
 40
1.0
100
AcDbArc
 50
274.9999999999997
 51
359.9999999999609
  0
ARC
  5
AE6FF
330
1F
100
AcDbEntity
  8
AM_0
100
AcDbCircle
 10
897.6995435227191
 20
404.837135016785
 30
0.0
 40
2.0
100
AcDbArc
 50
355.0000000000005
 51
90.0
  0
LINE
  5
AE700
330
1F
100
AcDbEntity
  8
AM_0
100
AcDbLine
 10
899.0625748840285
 20
417.3189136896016
 30
0.0
 11
911.1855093405111
 21
418.3795330232115
 31
0.0
  0
LINE
  5
AE701
330
1F
100
AcDbEntity
  8
AM_0
100
AcDbLine
 10
912.0983535977634
 20
419.3757277213028
 30
0.0
 11
912.0983535977639
 21
420.4593965472887
 31
0.0
  0
ARC
  5
AE702
330
1F
100
AcDbEntity
  8
AM_0
100
AcDbCircle
 10
914.498353597767
 20
432.5193965472858
 30
0.0
 40
4.759999999999998
100
AcDbArc
 50
90.0
 51
128.2132107017332
  0
ARC
  5
AE703
330
1F
100
AcDbEntity
  8
AM_0
100
AcDbCircle
 10
915.2233540463644
 20
449.4770779988982
 30
0.0
 40
12.19768145161246
100
AcDbArc
 50
228.2324468227094
 51
270.0
  0
LINE
  5
AE704
330
1F
100
AcDbEntity
  8
AM_0
100
AcDbLine
 10
907.4383535977672
 20
436.259396547286
 30
0.0
 11
907.4383535977672
 21
430.4593965472858
 31
0.0
  0
ARC
  5
AE705
330
1F
100
AcDbEntity
  8
AM_0
100
AcDbCircle
 10
968.7636157919396
 20
402.9593965472857
 30
0.0
 40
12.0
100
AcDbArc
 50
90.0
 51
152.9999999999938
  0
LINE
  5
AE706
330
1F
100
AcDbEntity
  8
AM_0
100
AcDbLine
 10
970.9733540463648
 20
437.2793965472857
 30
0.0
 11
943.0983540463644
 21
437.2793965472857
 31
0.0
  0
LINE
  5
AE707
330
1F
100
AcDbEntity
  8
AM_0
100
AcDbLine
 10
943.0983544949622
 20
436.2593965472858
 30
0.0
 11
978.7583544949624
 21
436.259396547286
 31
0.0
  0
LINE
  5
AE708
330
1F
100
AcDbEntity
  8
AM_0
100
AcDbLine
 10
973.758354494962
 20
425.4593965472858
 30
0.0
 11
943.0983540463644
 21
425.4593965472858
 31
0.0
  0
LINE
  5
AE709
330
1F
100
AcDbEntity
  8
AM_0
100
AcDbLine
 10
990.5983540463649
 20
440.3793965472858
 30
0.0
 11
943.0983540463644
 21
440.379396547286
 31
0.0
  0
ARC
  5
AE70A
330
1F
100
AcDbEntity
  8
AM_0
100
AcDbCircle
 10
969.0983535977666
 20
420.4593965472858
 30
0.0
 40
5.0
100
AcDbArc
 50
0.0
 51
90.0
  0
ARC
  5
AE70B
330
1F
100
AcDbEntity
  8
AM_0
100
AcDbCircle
 10
973.758354494962
 20
430.4593965472858
 30
0.0
 40
5.0
100
AcDbArc
 50
270.0
 51
0.0
  0
LINE
  5
AE70C
330
1F
100
AcDbEntity
  8
AM_0
100
AcDbLine
 10
968.7636157919396
 20
414.9593965472858
 30
0.0
 11
974.0983535977671
 21
414.9593965472858
 31
0.0
  0
LINE
  5
AE70D
330
1F
100
AcDbEntity
  8
AM_0
100
AcDbLine
 10
964.6420748179835
 20
414.2293965472856
 30
0.0
 11
967.0720815906816
 21
414.2293965472856
 31
0.0
  0
ARC
  5
AE70E
330
1F
100
AcDbEntity
  8
AM_0
100
AcDbCircle
 10
965.1639397472253
 20
418.5747138083209
 30
0.0
 40
4.745817884601141
100
AcDbArc
 50
293.707527415076
 51
310.1510387956208
  0
LINE
  5
AE70F
330
1F
100
AcDbEntity
  8
AM_0
100
AcDbLine
 10
974.0983535977665
 20
420.4593965472858
 30
0.0
 11
974.0983535977671
 21
414.9593965472858
 31
0.0
  0
ARC
  5
AE710
330
1F
100
AcDbEntity
  8
AM_0
100
AcDbCircle
 10
970.9733540463648
 20
449.4770779988982
 30
0.0
 40
12.19768145161246
100
AcDbArc
 50
270.0
 51
311.7675531772905
  0
ARC
  5
AE711
330
1F
100
AcDbEntity
  8
AM_0
100
AcDbCircle
 10
971.6983544949625
 20
432.5193965472858
 30
0.0
 40
4.759999999999998
100
AcDbArc
 50
51.7867892982668
 51
90.0
  0
LINE
  5
AE712
330
1F
100
AcDbEntity
  8
AM_0
100
AcDbLine
 10
978.7583544949624
 20
436.259396547286
 30
0.0
 11
978.7583544949624
 21
430.4593965472858
 31
0.0
  0
LINE
  5
AE713
330
1F
100
AcDbEntity
  8
AM_0
100
AcDbLine
 10
988.5983540463648
 20
443.5793965472857
 30
0.0
 11
990.5983540463649
 21
443.5793965472857
 31
0.0
  0
LINE
  5
AE714
330
1F
100
AcDbEntity
  8
AM_0
100
AcDbLine
 10
990.5983540463649
 20
443.5793965472857
 30
0.0
 11
990.5983540463649
 21
440.3793965472858
 31
0.0
  0
LINE
  5
AE715
330
1F
100
AcDbEntity
  8
AM_7
100
AcDbLine
 10
980.0983540463652
 20
626.4348893362416
 30
0.0
 11
980.0983540463652
 21
646.1808560286562
 31
0.0
  0
LINE
  5
AE716
330
1F
100
AcDbEntity
  8
AM_7
100
AcDbLine
 10
906.0983540463652
 20
626.4348893362416
 30
0.0
 11
906.0983540463652
 21
646.1808560286562
 31
0.0
  0
ARC
  5
AE717
330
1F
100
AcDbEntity
  8
AM_0
100
AcDbCircle
 10
906.0983540463652
 20
637.680856028656
 30
0.0
 40
10.5
100
AcDbArc
 50
90.0
 51
180.0
  0
ARC
  5
AE718
330
1F
100
AcDbEntity
  8
AM_0
100
AcDbCircle
 10
980.0983540463652
 20
637.680856028656
 30
0.0
 40
10.5
100
AcDbArc
 50
0.0
 51
90.0
  0
LINE
  5
AE719
330
1F
100
AcDbEntity
  8
AM_7
100
AcDbLine
 10
943.0983540463653
 20
654.180856028656
 30
0.0
 11
943.0983540463653
 21
547.180856028656
 31
0.0
  0
ARC
  5
AE71A
330
1F
100
AcDbEntity
  8
AM_0
100
AcDbCircle
 10
980.0983540463652
 20
563.680856028656
 30
0.0
 40
10.5
100
AcDbArc
 50
270.0
 51
0.0
  0
ARC
  5
AE71B
330
1F
100
AcDbEntity
  8
AM_0
100
AcDbCircle
 10
906.0983540463652
 20
563.680856028656
 30
0.0
 40
10.5
100
AcDbArc
 50
180.0
 51
270.0
  0
CIRCLE
  5
AE71C
330
1F
100
AcDbEntity
  8
AM_0
100
AcDbCircle
 10
943.0983540463653
 20
600.6808560286562
 30
0.0
 40
32.0
  0
CIRCLE
  5
AE71D
330
1F
100
AcDbEntity
  8
AM_0
100
AcDbCircle
 10
943.0983540463653
 20
600.6808560286562
 30
0.0
 40
20.75
  0
LINE
  5
AE71E
330
1F
100
AcDbEntity
  8
AM_0
100
AcDbLine
 10
906.0983540463652
 20
553.180856028656
 30
0.0
 11
980.0983540463652
 21
553.180856028656
 31
0.0
  0
LINE
  5
AE71F
330
1F
100
AcDbEntity
  8
AM_0
100
AcDbLine
 10
895.5983540463654
 20
637.680856028656
 30
0.0
 11
895.5983540463654
 21
563.680856028656
 31
0.0
  0
LINE
  5
AE720
330
1F
100
AcDbEntity
  8
AM_0
100
AcDbLine
 10
894.4983540463654
 20
600.6808560286562
 30
0.0
 11
894.4983540463654
 21
581.5808560286561
 31
0.0
  0
LINE
  5
AE721
330
1F
100
AcDbEntity
  8
AM_0
100
AcDbLine
 10
864.0983535977671
 20
584.680856028656
 30
0.0
 11
894.4983540463654
 21
584.680856028656
 31
0.0
  0
LINE
  5
AE722
330
1F
100
AcDbEntity
  8
AM_0
100
AcDbLine
 10
895.0983540463653
 20
576.5808560286561
 30
0.0
 11
895.5983540463654
 21
576.5808560286561
 31
0.0
  0
LINE
  5
AE723
330
1F
100
AcDbEntity
  8
AM_0
100
AcDbLine
 10
895.0983540463653
 20
576.5808560286561
 30
0.0
 11
895.0983540463653
 21
579.2059876112489
 31
0.0
  0
ARC
  5
AE724
330
1F
100
AcDbEntity
  8
AM_0
100
AcDbCircle
 10
899.4983540463653
 20
581.5808560286561
 30
0.0
 40
5.0
100
AcDbArc
 50
180.0
 51
218.7394245978588
  0
LINE
  5
AE725
330
1F
100
AcDbEntity
  8
AM_0
100
AcDbLine
 10
909.9874413428924
 20
559.7917687321292
 30
0.0
 11
913.4874413428915
 21
563.2917687321302
 31
0.0
  0
ARC
  5
AE726
330
1F
100
AcDbEntity
  8
AM_0
100
AcDbCircle
 10
909.5983540463652
 20
567.180856028656
 30
0.0
 40
5.5
100
AcDbArc
 50
314.9999999999931
 51
134.999999999993
  0
LINE
  5
AE727
330
1F
100
AcDbEntity
  8
AM_7
100
AcDbLine
 10
918.0983540463653
 20
567.180856028656
 30
0.0
 11
898.3523873539507
 21
567.180856028656
 31
0.0
  0
LINE
  5
AE728
330
1F
100
AcDbEntity
  8
AM_7
100
AcDbLine
 10
917.34432073878
 20
563.680856028656
 30
0.0
 11
897.5983540463653
 21
563.680856028656
 31
0.0
  0
LINE
  5
AE729
330
1F
100
AcDbEntity
  8
AM_7
100
AcDbLine
 10
906.0983540463652
 20
574.9268227210712
 30
0.0
 11
906.0983540463652
 21
555.180856028656
 31
0.0
  0
LINE
  5
AE72A
330
1F
100
AcDbEntity
  8
AM_7
100
AcDbLine
 10
909.5983540463652
 20
575.680856028656
 30
0.0
 11
909.5983540463652
 21
555.9348893362414
 31
0.0
  0
ARC
  5
AE72B
330
1F
100
AcDbEntity
  8
AM_0
100
AcDbCircle
 10
906.0983540463652
 20
563.680856028656
 30
0.0
 40
5.5
100
AcDbArc
 50
134.999999999993
 51
314.9999999999931
  0
LINE
  5
AE72C
330
1F
100
AcDbEntity
  8
AM_0
100
AcDbLine
 10
905.7092667498395
 20
571.0699433251821
 30
0.0
 11
902.2092667498382
 21
567.5699433251833
 31
0.0
  0
LINE
  5
AE72D
330
1F
100
AcDbEntity
  8
AM_0
100
AcDbLine
 10
895.0983540463653
 20
624.7808560286561
 30
0.0
 11
895.0983540463653
 21
622.1557244460637
 31
0.0
  0
ARC
  5
AE72E
330
1F
100
AcDbEntity
  8
AM_0
100
AcDbCircle
 10
899.4983540463653
 20
619.7808560286562
 30
0.0
 40
5.0
100
AcDbArc
 50
141.2605754021412
 51
180.0
  0
LINE
  5
AE72F
330
1F
100
AcDbEntity
  8
AM_0
100
AcDbLine
 10
864.0983535977671
 20
616.680856028656
 30
0.0
 11
894.4983540463654
 21
616.680856028656
 31
0.0
  0
LINE
  5
AE730
330
1F
100
AcDbEntity
  8
AM_0
100
AcDbLine
 10
894.4983540463654
 20
600.6808560286562
 30
0.0
 11
894.4983540463654
 21
619.7808560286562
 31
0.0
  0
LINE
  5
AE731
330
1F
100
AcDbEntity
  8
AM_0
100
AcDbLine
 10
895.0983540463653
 20
624.7808560286561
 30
0.0
 11
895.5983540463654
 21
624.7808560286561
 31
0.0
  0
LINE
  5
AE732
330
1F
100
AcDbEntity
  8
AM_0
100
AcDbLine
 10
909.9874413428924
 20
641.5699433251833
 30
0.0
 11
913.4874413428915
 21
638.0699433251825
 31
0.0
  0
ARC
  5
AE733
330
1F
100
AcDbEntity
  8
AM_0
100
AcDbCircle
 10
909.5983540463652
 20
634.1808560286564
 30
0.0
 40
5.5
100
AcDbArc
 50
225.0000000000069
 51
45.00000000000692
  0
LINE
  5
AE734
330
1F
100
AcDbEntity
  8
AM_7
100
AcDbLine
 10
917.34432073878
 20
637.680856028656
 30
0.0
 11
897.5983540463653
 21
637.680856028656
 31
0.0
  0
LINE
  5
AE735
330
1F
100
AcDbEntity
  8
AM_7
100
AcDbLine
 10
918.0983540463653
 20
634.1808560286564
 30
0.0
 11
898.3523873539507
 21
634.1808560286564
 31
0.0
  0
LINE
  5
AE736
330
1F
100
AcDbEntity
  8
AM_7
100
AcDbLine
 10
909.5983540463652
 20
625.6808560286564
 30
0.0
 11
909.5983540463652
 21
645.4268227210711
 31
0.0
  0
ARC
  5
AE737
330
1F
100
AcDbEntity
  8
AM_0
100
AcDbCircle
 10
906.0983540463652
 20
637.680856028656
 30
0.0
 40
5.5
100
AcDbArc
 50
45.00000000000692
 51
225.0000000000069
  0
LINE
  5
AE738
330
1F
100
AcDbEntity
  8
AM_0
100
AcDbLine
 10
905.7092667498395
 20
630.2917687321303
 30
0.0
 11
902.2092667498382
 21
633.7917687321293
 31
0.0
  0
LINE
  5
AE739
330
1F
100
AcDbEntity
  8
AM_0
100
AcDbLine
 10
990.5983540463653
 20
563.680856028656
 30
0.0
 11
990.5983540463653
 21
637.680856028656
 31
0.0
  0
CIRCLE
  5
AE73A
330
1F
100
AcDbEntity
  8
AM_0
100
AcDbCircle
 10
943.0983540463653
 20
600.6808560286562
 30
0.0
 40
8.799999999999952
  0
CIRCLE
  5
AE73B
330
1F
100
AcDbEntity
  8
AM_0
100
AcDbCircle
 10
943.0983540463653
 20
600.6808560286562
 30
0.0
 40
13.0999999999999
  0
LINE
  5
AE73C
330
1F
100
AcDbEntity
  8
AM_7
100
AcDbLine
 10
968.8523873539502
 20
563.680856028656
 30
0.0
 11
988.5983540463653
 21
563.680856028656
 31
0.0
  0
ARC
  5
AE73D
330
1F
100
AcDbEntity
  8
AM_0
100
AcDbCircle
 10
980.0983540463652
 20
563.680856028656
 30
0.0
 40
5.5
100
AcDbArc
 50
225.0000000000069
 51
45.00000000000692
  0
LINE
  5
AE73E
330
1F
100
AcDbEntity
  8
AM_7
100
AcDbLine
 10
968.0983540463653
 20
567.180856028656
 30
0.0
 11
987.84432073878
 21
567.180856028656
 31
0.0
  0
ARC
  5
AE73F
330
1F
100
AcDbEntity
  8
AM_0
100
AcDbCircle
 10
976.5983540463652
 20
567.180856028656
 30
0.0
 40
5.5
100
AcDbArc
 50
45.00000000000692
 51
225.0000000000069
  0
LINE
  5
AE740
330
1F
100
AcDbEntity
  8
AM_7
100
AcDbLine
 10
976.5983540463652
 20
575.680856028656
 30
0.0
 11
976.5983540463652
 21
555.9348893362414
 31
0.0
  0
LINE
  5
AE741
330
1F
100
AcDbEntity
  8
AM_0
100
AcDbLine
 10
976.2092667498382
 20
559.7917687321292
 30
0.0
 11
972.7092667498395
 21
563.2917687321302
 31
0.0
  0
LINE
  5
AE742
330
1F
100
AcDbEntity
  8
AM_7
100
AcDbLine
 10
980.0983540463652
 20
574.9268227210709
 30
0.0
 11
980.0983540463652
 21
555.180856028656
 31
0.0
  0
LINE
  5
AE743
330
1F
100
AcDbEntity
  8
AM_0
100
AcDbLine
 10
980.4874413428915
 20
571.0699433251821
 30
0.0
 11
983.9874413428924
 21
567.5699433251833
 31
0.0
  0
LINE
  5
AE744
330
1F
100
AcDbEntity
  8
AM_7
100
AcDbLine
 10
968.8523873539502
 20
637.680856028656
 30
0.0
 11
988.5983540463653
 21
637.680856028656
 31
0.0
  0
ARC
  5
AE745
330
1F
100
AcDbEntity
  8
AM_0
100
AcDbCircle
 10
980.0983540463652
 20
637.680856028656
 30
0.0
 40
5.5
100
AcDbArc
 50
314.9999999999931
 51
134.999999999993
  0
LINE
  5
AE746
330
1F
100
AcDbEntity
  8
AM_7
100
AcDbLine
 10
968.0983540463653
 20
634.1808560286564
 30
0.0
 11
987.84432073878
 21
634.1808560286564
 31
0.0
  0
ARC
  5
AE747
330
1F
100
AcDbEntity
  8
AM_0
100
AcDbCircle
 10
976.5983540463652
 20
634.1808560286564
 30
0.0
 40
5.5
100
AcDbArc
 50
134.999999999993
 51
314.9999999999931
  0
LINE
  5
AE748
330
1F
100
AcDbEntity
  8
AM_7
100
AcDbLine
 10
976.5983540463652
 20
625.6808560286564
 30
0.0
 11
976.5983540463652
 21
645.4268227210713
 31
0.0
  0
LINE
  5
AE749
330
1F
100
AcDbEntity
  8
AM_0
100
AcDbLine
 10
976.2092667498382
 20
641.5699433251833
 30
0.0
 11
972.7092667498395
 21
638.0699433251825
 31
0.0
  0
LINE
  5
AE74A
330
1F
100
AcDbEntity
  8
AM_0
100
AcDbLine
 10
980.4874413428915
 20
630.2917687321303
 30
0.0
 11
983.9874413428924
 21
633.7917687321293
 31
0.0
  0
LINE
  5
AE74B
330
1F
100
AcDbEntity
  8
AM_0
100
AcDbLine
 10
906.0983540463652
 20
648.1808560286561
 30
0.0
 11
980.0983540463652
 21
648.1808560286561
 31
0.0
  0
LINE
  5
AE74C
330
1F
100
AcDbEntity
  8
AM_0
100
AcDbLine
 10
861.0983535977666
 20
613.6808560286562
 30
0.0
 11
861.0983535977666
 21
587.6808560286561
 31
0.0
  0
ARC
  5
AE74D
330
1F
100
AcDbEntity
  8
AM_0
100
AcDbCircle
 10
864.0983535977671
 20
613.6808560286562
 30
0.0
 40
3.0
100
AcDbArc
 50
90.0
 51
180.0
  0
ARC
  5
AE74E
330
1F
100
AcDbEntity
  8
AM_0
100
AcDbCircle
 10
864.0983535977671
 20
587.6808560286561
 30
0.0
 40
3.0
100
AcDbArc
 50
180.0
 51
270.0
  0
LINE
  5
AE74F
330
1F
100
AcDbEntity
  8
AM_0
100
AcDbLine
 10
735.8501057142055
 20
396.5793965472857
 30
0.0
 11
735.8501057142052
 21
302.5793965472857
 31
0.0
  0
LINE
  5
AE750
330
1F
100
AcDbEntity
  8
AM_0
100
AcDbLine
 10
703.8501057142052
 20
396.5793965472857
 30
0.0
 11
703.8501057142052
 21
302.5793965472857
 31
0.0
  0
LINE
  5
AE751
330
1F
100
AcDbEntity
  8
AM_0
100
AcDbLine
 10
732.8501057142054
 20
399.5793965472857
 30
0.0
 11
706.8501057142052
 21
399.5793965472857
 31
0.0
  0
ARC
  5
AE752
330
1F
100
AcDbEntity
  8
AM_0
100
AcDbCircle
 10
706.8501057142052
 20
396.5793965472857
 30
0.0
 40
3.0
100
AcDbArc
 50
90.0
 51
180.0
  0
ARC
  5
AE753
330
1F
100
AcDbEntity
  8
AM_0
100
AcDbCircle
 10
732.8501057142054
 20
396.5793965472857
 30
0.0
 40
3.0
100
AcDbArc
 50
0.0
 51
90.0
  0
LINE
  5
AE754
330
1F
100
AcDbEntity
  8
AM_0
100
AcDbLine
 10
732.8501057142054
 20
299.5793965472857
 30
0.0
 11
706.8501057142052
 21
299.5793965472857
 31
0.0
  0
ARC
  5
AE755
330
1F
100
AcDbEntity
  8
AM_0
100
AcDbCircle
 10
706.8501057142052
 20
302.5793965472857
 30
0.0
 40
3.0
100
AcDbArc
 50
180.0
 51
270.0
  0
ARC
  5
AE756
330
1F
100
AcDbEntity
  8
AM_0
100
AcDbCircle
 10
732.8501057142054
 20
302.5793965472857
 30
0.0
 40
3.0
100
AcDbArc
 50
270.0
 51
0.0
  0
TEXT
  5
AE757
330
1F
100
AcDbEntity
  8
Defpoints
100
AcDbText
 10
550.311402207179
 20
887.0025339539829
 30
0.0
 40
32.0
  1
S=1/2
 41
0.73811
 72
     1
 11
611.0473107786076
 21
887.0025339539829
 31
0.0
100
AcDbText
  0
DIMENSION
  5
AE9C2
330
1F
100
AcDbEntity
  8
AM_5
100
AcDbDimension
  2
*D10
 10
1030.435130968704
 20
567.180856028656
 30
0.0
 11
1023.268464302037
 21
600.6808560286564
 31
0.0
 70
    32
  1
Y'
 71
     5
 42
67.00000000000034
  3
S-2
100
AcDbAlignedDimension
 13
987.84432073878
 23
634.1808560286564
 33
0.0
 14
987.84432073878
 24
567.180856028656
 34
0.0
 50
90.0
100
AcDbRotatedDimension
  0
DIMENSION
  5
AEA7A
330
1F
100
AcDbEntity
  8
AM_5
100
AcDbDimension
  2
*D11
 10
976.5983540463652
 20
519.6577288162761
 30
0.0
 11
943.0983540463653
 21
526.8243954829427
 31
0.0
 70
    32
  1
X'
 71
     5
 42
67.0
  3
S-2
100
AcDbAlignedDimension
 13
909.5983540463652
 23
555.9348893362414
 33
0.0
 14
976.5983540463652
 24
555.9348893362414
 34
0.0
100
AcDbRotatedDimension
  0
ARC
  5
AEAC6
330
1F
100
AcDbEntity
  8
AM_2
100
AcDbCircle
 10
943.0983540463653
 20
600.6808560286562
 30
0.0
 40
82.0
100
AcDbArc
 50
164.0734121052469
 51
195.9257192137737
  0
DIMENSION
  5
AEAD2
330
1F
100
AcDbEntity
  8
AM_5
100
AcDbDimension
  2
*D12
 10
943.0983540463623
 20
600.680856028656
 30
0.0
 11
860.0008915037969
 21
563.918608680356
 31
0.0
 70
    36
  1
R
 71
     5
 42
81.9999999999975
  3
S-2
100
AcDbRadialDimension
 15
870.6742542628374
 25
562.2263404219604
 35
0.0
 40
0.0
1001
ACAD
1000
DSTYLE
1002
{
1070
   288
1070
     1
1002
}
1001
ACAD_DSTYLE_DIMRADIAL_EXTENSION
1070
   387
1070
     1
1070
   388
1040
2.863621256218081
1070
   390
1040
3.419548889618261
  0
DIMENSION
  5
AEAEB
330
1F
100
AcDbEntity
  8
AM_5
100
AcDbDimension
  2
*D13
 10
1017.116569796666
 20
534.4408148714091
 30
0.0
 11
1008.631288422427
 21
535.1479216525949
 31
0.0
 70
    33
  1
P
 71
     5
 42
11.00000000000136
  3
S-2
100
AcDbAlignedDimension
 13
974.4592667498391
 23
561.5417687321297
 33
0.0
 14
982.2374413428919
 24
569.3199433251827
 34
0.0
  0
MTEXT
  5
AED0A
330
1F
100
AcDbEntity
  8
AM_6
100
AcDbMText
 10
200.9999999999989
 20
59.4430850748771
 30
0.0
 40
7.0
 41
35.0
 71
     5
 72
     5
  1
200
 73
     1
 44
1.0
1001
ACAD
1000
MTEXTBEGIN
1070
    73
1070
     1
1070
    44
1040
1.0
1070
    74
1070
     0
1000
MTEXTEND
  0
MTEXT
  5
AED0D
330
1F
100
AcDbEntity
  8
AM_6
100
AcDbMText
 10
314.7500000000129
 20
59.44308507491484
 30
0.0
 40
7.0
 41
52.49999999997164
 71
     5
 72
     5
  1
140 \U+00D7140
 73
     1
 44
1.0
1001
ACAD
1000
MTEXTBEGIN
1070
    73
1070
     1
1070
    44
1040
1.0
1070
    74
1070
     0
1000
MTEXTEND
  0
MTEXT
  5
AED0E
330
1F
100
AcDbEntity
  8
AM_6
100
AcDbMText
 10
446.0000000000273
 20
59.44308507489029
 30
0.0
 40
7.0
 41
35.0
 71
     5
 72
     5
  1
56
 73
     1
 44
1.0
1001
ACAD
1000
MTEXTBEGIN
1070
    73
1070
     1
1070
    44
1040
1.0
1070
    74
1070
     0
1000
MTEXTEND
  0
MTEXT
  5
AED0F
330
1F
100
AcDbEntity
  8
AM_6
100
AcDbMText
 10
411.0000000000278
 20
59.44308507492895
 30
0.0
 40
7.0
 41
35.0
 71
     5
 72
     5
  1
11.5
 73
     1
 44
1.0
1001
ACAD
1000
MTEXTBEGIN
1070
    73
1070
     1
1070
    44
1040
1.0
1070
    74
1070
     0
1000
MTEXTEND
  0
MTEXT
  5
AED15
330
1F
100
AcDbEntity
  8
AM_6
100
AcDbMText
 10
271.0000000000278
 20
59.44308507489506
 30
0.0
 40
7.0
 41
35.0
 71
     5
 72
     5
  1
250
 73
     1
 44
1.0
1001
ACAD
1000
MTEXTBEGIN
1070
    73
1070
     1
1070
    44
1040
1.0
1070
    74
1070
     0
1000
MTEXTEND
  0
MTEXT
  5
AED17
330
1F
100
AcDbEntity
  8
AM_6
100
AcDbMText
 10
481.0000000000273
 20
59.44308507489529
 30
0.0
 40
7.0
 41
35.0
 71
     5
 72
     5
  1
156
 73
     1
 44
1.0
1001
ACAD
1000
MTEXTBEGIN
1070
    73
1070
     1
1070
    44
1040
1.0
1070
    74
1070
     0
1000
MTEXTEND
  0
LINE
  5
AED18
330
1F
100
AcDbEntity
  8
AM_5
100
AcDbLine
 10
183.4999999999374
 20
51.50000000006514
 30
0.0
 11
45.99999999991243
 21
51.50000000006617
 31
0.0
  0
LINE
  5
AED19
330
1F
100
AcDbEntity
  8
AM_5
100
AcDbLine
 10
183.4999999999231
 20
69.00000000005604
 30
0.0
 11
45.99999999990983
 21
69.00000000005696
 31
0.0
  0
LINE
  5
AED1A
330
1F
100
AcDbEntity
  8
AM_5
100
AcDbLine
 10
603.4999999999775
 20
51.50000000013426
 30
0.0
 11
498.4999999999733
 21
51.5000000001354
 31
0.0
  0
LINE
  5
AED1B
330
1F
100
AcDbEntity
  8
AM_5
100
AcDbLine
 10
603.4999999999629
 20
69.00000000012517
 30
0.0
 11
498.4999999999706
 21
69.00000000012631
 31
0.0
  0
LINE
  5
AED1C
330
1F
100
AcDbEntity
  8
AM_5
100
AcDbLine
 10
218.4999999998984
 20
69.00000000005604
 30
0.0
 11
253.4999999998984
 21
69.00000000005604
 31
0.0
  0
MTEXT
  5
AED1D
330
1F
100
AcDbEntity
  8
AM_6
100
AcDbMText
 10
235.9999999999989
 20
78.09212358889033
 30
0.0
 40
7.0
 41
35.0
 71
     5
 72
     5
  1
43
 73
     1
 44
1.0
1001
ACAD
1000
MTEXTBEGIN
1070
    73
1070
     1
1070
    44
1040
1.0
1070
    74
1070
     0
1000
MTEXTEND
  0
MTEXT
  5
AED1E
330
1F
100
AcDbEntity
  8
AM_6
100
AcDbMText
 10
515.9999999999013
 20
59.44308507488654
 30
0.0
 40
7.0
 41
35.0
 71
     5
 72
     5
  1
400
 73
     1
 44
1.0
1001
ACAD
1000
MTEXTBEGIN
1070
    73
1070
     1
1070
    44
1040
1.0
1070
    74
1070
     0
1000
MTEXTEND
  0
MTEXT
  5
AED1F
330
1F
100
AcDbEntity
  8
AM_6
100
AcDbMText
 10
550.9999999999013
 20
59.44308507488654
 30
0.0
 40
7.0
 41
35.0
 71
     5
 72
     5
  1
408.0
 73
     1
 44
1.0
1001
ACAD
1000
MTEXTBEGIN
1070
    73
1070
     1
1070
    44
1040
1.0
1070
    74
1070
     0
1000
MTEXTEND
  0
MTEXT
  5
AED22
330
1F
100
AcDbEntity
  8
AM_6
100
AcDbMText
 10
587.1704941227033
 20
59.44308507489541
 30
0.0
 40
7.0
 41
35.0
 71
     5
 72
     5
  1
3980
 73
     1
 44
1.0
1001
ACAD
1000
MTEXTBEGIN
1070
    73
1070
     1
1070
    44
1040
1.0
1070
    74
1070
     0
1000
MTEXTEND
  0
MTEXT
  5
AED23
330
1F
100
AcDbEntity
  8
AM_6
100
AcDbMText
 10
587.1704941226949
 20
76.9430850748862
 30
0.0
 40
7.0
 41
35.0
 71
     5
 72
     5
  1
3800
 73
     1
 44
1.0
1001
ACAD
1000
MTEXTBEGIN
1070
    73
1070
     1
1070
    44
1040
1.0
1070
    74
1070
     0
1000
MTEXTEND
  0
MTEXT
  5
AED26
330
1F
100
AcDbEntity
  8
AM_6
100
AcDbMText
 10
587.1704941227059
 20
41.94308507483561
 30
0.0
 40
7.0
 41
35.0
 71
     5
 72
     5
  1
3290
 73
     1
 44
1.0
1001
ACAD
1000
MTEXTBEGIN
1070
    73
1070
     1
1070
    44
1040
1.0
1070
    74
1070
     0
1000
MTEXTEND
  0
LINE
  5
AED27
330
1F
100
AcDbEntity
  8
AM_5
100
AcDbLine
 10
45.9999999999357
 20
86.50000000005457
 30
0.0
 11
603.4999999999304
 21
86.50000000005423
 31
0.0
  0
MTEXT
  5
AED2C
330
1F
100
AcDbEntity
  8
AM_6
100
AcDbMText
 10
72.94552033956654
 20
269.4910566546425
 30
0.0
 40
7.0
 41
52.5
 71
     5
 72
     5
  1
NRJ-100
 73
     1
 44
1.0
1001
ACAD
1000
MTEXTBEGIN
1070
    73
1070
     1
1070
    44
1040
1.0
1070
    74
1070
     0
1000
MTEXTEND
  0
MTEXT
  5
AED2D
330
1F
100
AcDbEntity
  8
AM_6
100
AcDbMText
 10
74.70675391965312
 20
286.9910566546486
 30
0.0
 40
7.0
 41
52.5
 71
     5
 72
     5
  1
WJ-100
 73
     1
 44
1.0
1001
ACAD
1000
MTEXTBEGIN
1070
    73
1070
     1
1070
    44
1040
1.0
1070
    74
1070
     0
1000
MTEXTEND
  0
MTEXT
  5
AED2E
330
1F
100
AcDbEntity
  8
AM_6
100
AcDbMText
 10
73.25022716855267
 20
251.9910566546529
 30
0.0
 40
7.0
 41
52.5
 71
     5
 72
     5
  1
UWJ-100
 73
     1
 44
1.0
1001
ACAD
1000
MTEXTBEGIN
1070
    73
1070
     1
1070
    44
1040
1.0
1070
    74
1070
     0
1000
MTEXTEND
  0
MTEXT
  5
AED2F
330
1F
100
AcDbEntity
  8
AM_6
100
AcDbMText
 10
73.25022716855267
 20
234.4910566545927
 30
0.0
 40
7.0
 41
52.5
 71
     5
 72
     5
  1
GUJ-100
 73
     1
 44
1.0
1001
ACAD
1000
MTEXTBEGIN
1070
    73
1070
     1
1070
    44
1040
1.0
1070
    74
1070
     0
1000
MTEXTEND
  0
MTEXT
  5
AED32
330
1F
100
AcDbEntity
  8
AM_6
100
AcDbMText
 10
72.9455203395665
 20
199.8705283273584
 30
0.0
 40
7.0
 41
52.5
 71
     5
 72
     5
  1
NRJ-130
 73
     1
 44
1.0
1001
ACAD
1000
MTEXTBEGIN
1070
    73
1070
     1
1070
    44
1040
1.0
1070
    74
1070
     0
1000
MTEXTEND
  0
MTEXT
  5
AED33
330
1F
100
AcDbEntity
  8
AM_6
100
AcDbMText
 10
74.70675391965308
 20
217.3705283273644
 30
0.0
 40
7.0
 41
52.5
 71
     5
 72
     5
  1
WJ-130
 73
     1
 44
1.0
1001
ACAD
1000
MTEXTBEGIN
1070
    73
1070
     1
1070
    44
1040
1.0
1070
    74
1070
     0
1000
MTEXTEND
  0
MTEXT
  5
AED34
330
1F
100
AcDbEntity
  8
AM_6
100
AcDbMText
 10
73.25022716855262
 20
182.3705283273687
 30
0.0
 40
7.0
 41
52.5
 71
     5
 72
     5
  1
UWJ-130
 73
     1
 44
1.0
1001
ACAD
1000
MTEXTBEGIN
1070
    73
1070
     1
1070
    44
1040
1.0
1070
    74
1070
     0
1000
MTEXTEND
  0
MTEXT
  5
AED35
330
1F
100
AcDbEntity
  8
AM_6
100
AcDbMText
 10
73.25022716855262
 20
164.8705283273086
 30
0.0
 40
7.0
 41
52.5
 71
     5
 72
     5
  1
GUJ-130
 73
     1
 44
1.0
1001
ACAD
1000
MTEXTBEGIN
1070
    73
1070
     1
1070
    44
1040
1.0
1070
    74
1070
     0
1000
MTEXTEND
  0
MTEXT
  5
AED36
330
1F
100
AcDbEntity
  8
AM_6
100
AcDbMText
 10
72.9455203396975
 20
130.2500000000742
 30
0.0
 40
7.0
 41
52.5
 71
     5
 72
     5
  1
NRJ-150
 73
     1
 44
1.0
1001
ACAD
1000
MTEXTBEGIN
1070
    73
1070
     1
1070
    44
1040
1.0
1070
    74
1070
     0
1000
MTEXTEND
  0
MTEXT
  5
AED37
330
1F
100
AcDbEntity
  8
AM_6
100
AcDbMText
 10
74.70675391978407
 20
147.7500000000802
 30
0.0
 40
7.0
 41
52.5
 71
     5
 72
     5
  1
WJ-150
 73
     1
 44
1.0
1001
ACAD
1000
MTEXTBEGIN
1070
    73
1070
     1
1070
    44
1040
1.0
1070
    74
1070
     0
1000
MTEXTEND
  0
MTEXT
  5
AED38
330
1F
100
AcDbEntity
  8
AM_6
100
AcDbMText
 10
73.25022716868362
 20
112.7500000000845
 30
0.0
 40
7.0
 41
52.5
 71
     5
 72
     5
  1
UWJ-150
 73
     1
 44
1.0
1001
ACAD
1000
MTEXTBEGIN
1070
    73
1070
     1
1070
    44
1040
1.0
1070
    74
1070
     0
1000
MTEXTEND
  0
MTEXT
  5
AED39
330
1F
100
AcDbEntity
  8
AM_6
100
AcDbMText
 10
73.25022716868362
 20
95.25000000002439
 30
0.0
 40
7.0
 41
52.5
 71
     5
 72
     5
  1
GUJ-150
 73
     1
 44
1.0
1001
ACAD
1000
MTEXTBEGIN
1070
    73
1070
     1
1070
    44
1040
1.0
1070
    74
1070
     0
1000
MTEXTEND
  0
MTEXT
  5
AED3A
330
1F
100
AcDbEntity
  8
AM_6
100
AcDbMText
 10
73.0230836858362
 20
60.25000000003422
 30
0.0
 40
7.0
 41
52.5
 71
     5
 72
     5
  1
UWJ-200
 73
     1
 44
1.0
1001
ACAD
1000
MTEXTBEGIN
1070
    73
1070
     1
1070
    44
1040
1.0
1070
    74
1070
     0
1000
MTEXTEND
  0
MTEXT
  5
AED3B
330
1F
100
AcDbEntity
  8
AM_6
100
AcDbMText
 10
74.78431726592278
 20
77.75000000004036
 30
0.0
 40
7.0
 41
52.5
 71
     5
 72
     5
  1
WJ-200
 73
     1
 44
1.0
1001
ACAD
1000
MTEXTBEGIN
1070
    73
1070
     1
1070
    44
1040
1.0
1070
    74
1070
     0
1000
MTEXTEND
  0
MTEXT
  5
AED3C
330
1F
100
AcDbEntity
  8
AM_6
100
AcDbMText
 10
73.32779051482233
 20
42.75000000004467
 30
0.0
 40
7.0
 41
52.5
 71
     5
 72
     5
  1
GUJ-200
 73
     1
 44
1.0
1001
ACAD
1000
MTEXTBEGIN
1070
    73
1070
     1
1070
    44
1040
1.0
1070
    74
1070
     0
1000
MTEXTEND
  0
MTEXT
  5
AED6D
330
1F
100
AcDbEntity
  8
AM_6
100
AcDbMText
 10
138.8232902038216
 20
321.5578274499603
 30
0.0
 40
7.0
 41
80.68054437000411
 71
     5
 72
     5
  1
\W0.6;鋼板ホイルウレタン（B入）車
 73
     1
 44
1.0
1001
ACAD
1000
MTEXTBEGIN
1070
    73
1070
     1
1070
    44
1040
1.0
1070
    74
1070
     0
1000
MTEXTEND
  0
MTEXT
  5
AED6E
330
1F
100
AcDbEntity
  8
AM_6
100
AcDbMText
 10
140.7514745595169
 20
304.0578274499703
 30
0.0
 40
7.0
 41
80.68054437000411
 71
     5
 72
     5
  1
\W0.55;ナイロンホイルウレタン（B入）車
 73
     1
 44
1.0
1001
ACAD
1000
MTEXTBEGIN
1070
    73
1070
     1
1070
    44
1040
1.0
1070
    74
1070
     0
1000
MTEXTEND
  0
MTEXT
  5
AED6F
330
1F
100
AcDbEntity
  8
AM_6
100
AcDbMText
 10
138.8232902038559
 20
269.4372991226668
 30
0.0
 40
7.0
 41
80.68054437000411
 71
     5
 72
     5
  1
\W0.6;ナイロンホイルゴム（B入）車
 73
     1
 44
1.0
1001
ACAD
1000
MTEXTBEGIN
1070
    73
1070
     1
1070
    44
1040
1.0
1070
    74
1070
     0
1000
MTEXTEND
  0
MTEXT
  5
AED70
330
1F
100
AcDbEntity
  8
AM_6
100
AcDbMText
 10
138.8232902038215
 20
251.9372991226759
 30
0.0
 40
7.0
 41
80.68054437000411
 71
     5
 72
     5
  1
\W0.6;鋼板ホイルウレタン（B入）車
 73
     1
 44
1.0
1001
ACAD
1000
MTEXTBEGIN
1070
    73
1070
     1
1070
    44
1040
1.0
1070
    74
1070
     0
1000
MTEXTEND
  0
MTEXT
  5
AED71
330
1F
100
AcDbEntity
  8
AM_6
100
AcDbMText
 10
140.7514745595169
 20
234.437299122686
 30
0.0
 40
7.0
 41
80.68054437000411
 71
     5
 72
     5
  1
\W0.55;ナイロンホイルウレタン（B入）車
 73
     1
 44
1.0
1001
ACAD
1000
MTEXTBEGIN
1070
    73
1070
     1
1070
    44
1040
1.0
1070
    74
1070
     0
1000
MTEXTEND
  0
MTEXT
  5
AED72
330
1F
100
AcDbEntity
  8
AM_6
100
AcDbMText
 10
138.8232902038561
 20
286.5578274499093
 30
0.0
 40
7.0
 41
80.68054437000411
 71
     5
 72
     5
  1
鋼板ホイルゴム（B入）車
 73
     1
 44
1.0
1001
ACAD
1000
MTEXTBEGIN
1070
    73
1070
     1
1070
    44
1040
1.0
1070
    74
1070
     0
1000
MTEXTEND
  0
MTEXT
  5
AED73
330
1F
100
AcDbEntity
  8
AM_6
100
AcDbMText
 10
138.8232902038559
 20
199.8167707953826
 30
0.0
 40
7.0
 41
80.68054437000411
 71
     5
 72
     5
  1
\W0.6;ナイロンホイルゴム（B入）車
 73
     1
 44
1.0
1001
ACAD
1000
MTEXTBEGIN
1070
    73
1070
     1
1070
    44
1040
1.0
1070
    74
1070
     0
1000
MTEXTEND
  0
MTEXT
  5
AED74
330
1F
100
AcDbEntity
  8
AM_6
100
AcDbMText
 10
138.8232902038215
 20
182.3167707953918
 30
0.0
 40
7.0
 41
80.68054437000411
 71
     5
 72
     5
  1
\W0.6;鋼板ホイルウレタン（B入）車
 73
     1
 44
1.0
1001
ACAD
1000
MTEXTBEGIN
1070
    73
1070
     1
1070
    44
1040
1.0
1070
    74
1070
     0
1000
MTEXTEND
  0
MTEXT
  5
AED75
330
1F
100
AcDbEntity
  8
AM_6
100
AcDbMText
 10
140.7514745595168
 20
164.8167707954018
 30
0.0
 40
7.0
 41
80.68054437000411
 71
     5
 72
     5
  1
\W0.55;ナイロンホイルウレタン（B入）車
 73
     1
 44
1.0
1001
ACAD
1000
MTEXTBEGIN
1070
    73
1070
     1
1070
    44
1040
1.0
1070
    74
1070
     0
1000
MTEXTEND
  0
MTEXT
  5
AED76
330
1F
100
AcDbEntity
  8
AM_6
100
AcDbMText
 10
138.823290203856
 20
216.9372991226252
 30
0.0
 40
7.0
 41
80.68054437000411
 71
     5
 72
     5
  1
鋼板ホイルゴム（B入）車
 73
     1
 44
1.0
1001
ACAD
1000
MTEXTBEGIN
1070
    73
1070
     1
1070
    44
1040
1.0
1070
    74
1070
     0
1000
MTEXTEND
  0
MTEXT
  5
AED77
330
1F
100
AcDbEntity
  8
AM_6
100
AcDbMText
 10
138.8232902038559
 20
130.1962424680984
 30
0.0
 40
7.0
 41
80.68054437000411
 71
     5
 72
     5
  1
\W0.6;ナイロンホイルゴム（B入）車
 73
     1
 44
1.0
1001
ACAD
1000
MTEXTBEGIN
1070
    73
1070
     1
1070
    44
1040
1.0
1070
    74
1070
     0
1000
MTEXTEND
  0
MTEXT
  5
AED78
330
1F
100
AcDbEntity
  8
AM_6
100
AcDbMText
 10
138.8232902038214
 20
112.6962424681076
 30
0.0
 40
7.0
 41
80.68054437000411
 71
     5
 72
     5
  1
\W0.6;鋼板ホイルウレタン（B入）車
 73
     1
 44
1.0
1001
ACAD
1000
MTEXTBEGIN
1070
    73
1070
     1
1070
    44
1040
1.0
1070
    74
1070
     0
1000
MTEXTEND
  0
MTEXT
  5
AED79
330
1F
100
AcDbEntity
  8
AM_6
100
AcDbMText
 10
140.7514745595168
 20
95.19624246811758
 30
0.0
 40
7.0
 41
80.68054437000411
 71
     5
 72
     5
  1
\W0.55;ナイロンホイルウレタン（B入）車
 73
     1
 44
1.0
1001
ACAD
1000
MTEXTBEGIN
1070
    73
1070
     1
1070
    44
1040
1.0
1070
    74
1070
     0
1000
MTEXTEND
  0
MTEXT
  5
AED7A
330
1F
100
AcDbEntity
  8
AM_6
100
AcDbMText
 10
138.823290203856
 20
147.3167707953409
 30
0.0
 40
7.0
 41
80.68054437000411
 71
     5
 72
     5
  1
鋼板ホイルゴム（B入）車
 73
     1
 44
1.0
1001
ACAD
1000
MTEXTBEGIN
1070
    73
1070
     1
1070
    44
1040
1.0
1070
    74
1070
     0
1000
MTEXTEND
  0
MTEXT
  5
AED7B
330
1F
100
AcDbEntity
  8
AM_6
100
AcDbMText
 10
138.8232902038542
 20
77.69624246811907
 30
0.0
 40
7.0
 41
80.68054437000411
 71
     5
 72
     5
  1
鋼板ホイルゴム（B入）車
 73
     1
 44
1.0
1001
ACAD
1000
MTEXTBEGIN
1070
    73
1070
     1
1070
    44
1040
1.0
1070
    74
1070
     0
1000
MTEXTEND
  0
MTEXT
  5
AED7C
330
1F
100
AcDbEntity
  8
AM_6
100
AcDbMText
 10
138.8232902038198
 20
60.19624246812828
 30
0.0
 40
7.0
 41
80.68054437000411
 71
     5
 72
     5
  1
\W0.6;鋼板ホイルウレタン（B入）車
 73
     1
 44
1.0
1001
ACAD
1000
MTEXTBEGIN
1070
    73
1070
     1
1070
    44
1040
1.0
1070
    74
1070
     0
1000
MTEXTEND
  0
MTEXT
  5
AED7D
330
1F
100
AcDbEntity
  8
AM_6
100
AcDbMText
 10
140.7514745595151
 20
42.69624246813828
 30
0.0
 40
7.0
 41
80.68054437000411
 71
     5
 72
     5
  1
\W0.55;ナイロンホイルウレタン（B入）車
 73
     1
 44
1.0
1001
ACAD
1000
MTEXTBEGIN
1070
    73
1070
     1
1070
    44
1040
1.0
1070
    74
1070
     0
1000
MTEXTEND
  0
LINE
  5
AEEA4
330
1F
100
AcDbEntity
  8
AM_5
100
AcDbLine
 10
218.5000000000004
 20
191.1205283273891
 30
0.0
 11
253.5000000000004
 21
191.1205283273891
 31
0.0
  0
MTEXT
  5
AEEA5
330
1F
100
AcDbEntity
  8
AM_6
100
AcDbMText
 10
236.0000000000116
 20
182.7126519162323
 30
0.0
 40
7.0
 41
35.0
 71
     5
 72
     5
  1
35
 73
     1
 44
1.0
1001
ACAD
1000
MTEXTBEGIN
1070
    73
1070
     1
1070
    44
1040
1.0
1070
    74
1070
     0
1000
MTEXTEND
  0
LINE
  5
AEEA6
330
1F
100
AcDbEntity
  8
AM_5
100
AcDbLine
 10
218.4999999998692
 20
51.50000000005764
 30
0.0
 11
253.4999999998692
 21
51.50000000005764
 31
0.0
  0
MTEXT
  5
AEEA7
330
1F
100
AcDbEntity
  8
AM_6
100
AcDbMText
 10
236.000000000002
 20
60.59212358888581
 30
0.0
 40
7.0
 41
35.0
 71
     5
 72
     5
  1
42
 73
     1
 44
1.0
1001
ACAD
1000
MTEXTBEGIN
1070
    73
1070
     1
1070
    44
1040
1.0
1070
    74
1070
     0
1000
MTEXTEND
  0
MTEXT
  5
AEEA8
330
1F
100
AcDbEntity
  8
AM_6
100
AcDbMText
 10
236.000000000005
 20
43.0921235888874
 30
0.0
 40
7.0
 41
35.0
 71
     5
 72
     5
  1
43
 73
     1
 44
1.0
1001
ACAD
1000
MTEXTBEGIN
1070
    73
1070
     1
1070
    44
1040
1.0
1070
    74
1070
     0
1000
MTEXTEND
  0
MTEXT
  5
AEF0B
330
1F
100
AcDbEntity
  8
AM_6
100
AcDbMText
 10
357.7780962673655
 20
361.1234223705173
 30
0.0
 40
5.5
 41
27.0959113938307
 71
     5
 72
     5
  1
X\U+00D7Y
 73
     1
 44
1.0
1001
ACAD
1000
MTEXTBEGIN
1070
    73
1070
     1
1070
    44
1040
1.0
1070
    74
1070
     0
1000
MTEXTEND
  0
MTEXT
  5
AEF0C
330
1F
100
AcDbEntity
  8
AM_6
100
AcDbMText
 10
357.458667658641
 20
353.3358199996972
 30
0.0
 40
5.5
 41
27.0959113938307
 71
     5
 72
     5
  1
（X'\U+00D7Y'）
 73
     1
 44
1.0
1001
ACAD
1000
MTEXTBEGIN
1070
    73
1070
     1
1070
    44
1040
1.0
1070
    74
1070
     0
1000
MTEXTEND
  0
MTEXT
  5
AEF37
330
1F
100
AcDbEntity
  8
AM_6
100
AcDbMText
 10
367.2500000000203
 20
191.3676828832923
 30
0.0
 40
7.0
 41
52.49999999997164
 71
     5
 72
     5
  1
82 \U+00D782\P（75 \U+00D775）
 73
     1
 44
1.0
1001
ACAD
1000
MTEXTBEGIN
1070
    73
1070
     1
1070
    44
1040
1.0
1070
    74
1070
     0
1000
MTEXTEND
  0
MTEXT
  5
AEF38
330
1F
100
AcDbEntity
  8
AM_6
100
AcDbMText
 10
367.2500000000202
 20
121.747154556008
 30
0.0
 40
7.0
 41
52.49999999997164
 71
     5
 72
     5
  1
94 \U+00D794\P（87 \U+00D787）
 73
     1
 44
1.0
1001
ACAD
1000
MTEXTBEGIN
1070
    73
1070
     1
1070
    44
1040
1.0
1070
    74
1070
     0
1000
MTEXTEND
  0
MTEXT
  5
AEF39
330
1F
100
AcDbEntity
  8
AM_6
100
AcDbMText
 10
367.2500000000204
 20
58.57865217675129
 30
0.0
 40
7.0
 41
52.49999999997164
 71
     5
 72
     5
  1
115 \U+00D7115\P（105 \U+00D7105）
 73
     1
 44
1.0
1001
ACAD
1000
MTEXTBEGIN
1070
    73
1070
     1
1070
    44
1040
1.0
1070
    74
1070
     0
1000
MTEXTEND
  0
MTEXT
  5
AEF87
330
1F
100
AcDbEntity
  8
AM_6
100
AcDbMText
 10
515.9999999999
 20
286.1841417294855
 30
0.0
 40
7.0
 41
35.0
 71
     5
 72
     5
  1
120
 73
     1
 44
1.0
1001
ACAD
1000
MTEXTBEGIN
1070
    73
1070
     1
1070
    44
1040
1.0
1070
    74
1070
     0
1000
MTEXTEND
  0
MTEXT
  5
AEF88
330
1F
100
AcDbEntity
  8
AM_6
100
AcDbMText
 10
550.9999999999
 20
286.1841417294855
 30
0.0
 40
7.0
 41
35.0
 71
     5
 72
     5
  1
122.4
 73
     1
 44
1.0
1001
ACAD
1000
MTEXTBEGIN
1070
    73
1070
     1
1070
    44
1040
1.0
1070
    74
1070
     0
1000
MTEXTEND
  0
MTEXT
  5
AEF89
330
1F
100
AcDbEntity
  8
AM_6
100
AcDbMText
 10
515.9999999999028
 20
268.6841417294253
 30
0.0
 40
7.0
 41
35.0
 71
     5
 72
     5
  1
100
 73
     1
 44
1.0
1001
ACAD
1000
MTEXTBEGIN
1070
    73
1070
     1
1070
    44
1040
1.0
1070
    74
1070
     0
1000
MTEXTEND
  0
MTEXT
  5
AEF8A
330
1F
100
AcDbEntity
  8
AM_6
100
AcDbMText
 10
550.9999999999028
 20
268.6841417294253
 30
0.0
 40
7.0
 41
35.0
 71
     5
 72
     5
  1
102.0
 73
     1
 44
1.0
1001
ACAD
1000
MTEXTBEGIN
1070
    73
1070
     1
1070
    44
1040
1.0
1070
    74
1070
     0
1000
MTEXTEND
  0
MTEXT
  5
AEF8B
330
1F
100
AcDbEntity
  8
AM_6
100
AcDbMText
 10
515.9999999999091
 20
233.6841417293049
 30
0.0
 40
7.0
 41
35.0
 71
     5
 72
     5
  1
100
 73
     1
 44
1.0
1001
ACAD
1000
MTEXTBEGIN
1070
    73
1070
     1
1070
    44
1040
1.0
1070
    74
1070
     0
1000
MTEXTEND
  0
MTEXT
  5
AEF8C
330
1F
100
AcDbEntity
  8
AM_6
100
AcDbMText
 10
550.9999999999092
 20
233.6841417293049
 30
0.0
 40
7.0
 41
35.0
 71
     5
 72
     5
  1
102.0
 73
     1
 44
1.0
1001
ACAD
1000
MTEXTBEGIN
1070
    73
1070
     1
1070
    44
1040
1.0
1070
    74
1070
     0
1000
MTEXTEND
  0
MTEXT
  5
AEF8D
330
1F
100
AcDbEntity
  8
AM_6
100
AcDbMText
 10
515.9999999999786
 20
216.5636134022012
 30
0.0
 40
7.0
 41
35.0
 71
     5
 72
     5
  1
180
 73
     1
 44
1.0
1001
ACAD
1000
MTEXTBEGIN
1070
    73
1070
     1
1070
    44
1040
1.0
1070
    74
1070
     0
1000
MTEXTEND
  0
MTEXT
  5
AEF8E
330
1F
100
AcDbEntity
  8
AM_6
100
AcDbMText
 10
550.9999999999787
 20
216.5636134022012
 30
0.0
 40
7.0
 41
35.0
 71
     5
 72
     5
  1
183.6
 73
     1
 44
1.0
1001
ACAD
1000
MTEXTBEGIN
1070
    73
1070
     1
1070
    44
1040
1.0
1070
    74
1070
     0
1000
MTEXTEND
  0
MTEXT
  5
AEF8F
330
1F
100
AcDbEntity
  8
AM_6
100
AcDbMText
 10
515.9999999999784
 20
199.0636134022104
 30
0.0
 40
7.0
 41
35.0
 71
     5
 72
     5
  1
180
 73
     1
 44
1.0
1001
ACAD
1000
MTEXTBEGIN
1070
    73
1070
     1
1070
    44
1040
1.0
1070
    74
1070
     0
1000
MTEXTEND
  0
MTEXT
  5
AEF90
330
1F
100
AcDbEntity
  8
AM_6
100
AcDbMText
 10
550.9999999999784
 20
199.0636134022104
 30
0.0
 40
7.0
 41
35.0
 71
     5
 72
     5
  1
183.6
 73
     1
 44
1.0
1001
ACAD
1000
MTEXTBEGIN
1070
    73
1070
     1
1070
    44
1040
1.0
1070
    74
1070
     0
1000
MTEXTEND
  0
MTEXT
  5
AEF91
330
1F
100
AcDbEntity
  8
AM_6
100
AcDbMText
 10
515.9999999999784
 20
164.06361340209
 30
0.0
 40
7.0
 41
35.0
 71
     5
 72
     5
  1
180
 73
     1
 44
1.0
1001
ACAD
1000
MTEXTBEGIN
1070
    73
1070
     1
1070
    44
1040
1.0
1070
    74
1070
     0
1000
MTEXTEND
  0
MTEXT
  5
AEF92
330
1F
100
AcDbEntity
  8
AM_6
100
AcDbMText
 10
550.9999999999784
 20
164.06361340209
 30
0.0
 40
7.0
 41
35.0
 71
     5
 72
     5
  1
183.6
 73
     1
 44
1.0
1001
ACAD
1000
MTEXTBEGIN
1070
    73
1070
     1
1070
    44
1040
1.0
1070
    74
1070
     0
1000
MTEXTEND
  0
MTEXT
  5
AEF93
330
1F
100
AcDbEntity
  8
AM_6
100
AcDbMText
 10
515.9999999999704
 20
129.4430850749261
 30
0.0
 40
7.0
 41
35.0
 71
     5
 72
     5
  1
200
 73
     1
 44
1.0
1001
ACAD
1000
MTEXTBEGIN
1070
    73
1070
     1
1070
    44
1040
1.0
1070
    74
1070
     0
1000
MTEXTEND
  0
MTEXT
  5
AEF94
330
1F
100
AcDbEntity
  8
AM_6
100
AcDbMText
 10
550.9999999999704
 20
129.4430850749261
 30
0.0
 40
7.0
 41
35.0
 71
     5
 72
     5
  1
204.0
 73
     1
 44
1.0
1001
ACAD
1000
MTEXTBEGIN
1070
    73
1070
     1
1070
    44
1040
1.0
1070
    74
1070
     0
1000
MTEXTEND
  0
MTEXT
  5
AEF95
330
1F
100
AcDbEntity
  8
AM_6
100
AcDbMText
 10
515.9999999999707
 20
94.44308507480577
 30
0.0
 40
7.0
 41
35.0
 71
     5
 72
     5
  1
200
 73
     1
 44
1.0
1001
ACAD
1000
MTEXTBEGIN
1070
    73
1070
     1
1070
    44
1040
1.0
1070
    74
1070
     0
1000
MTEXTEND
  0
MTEXT
  5
AEF96
330
1F
100
AcDbEntity
  8
AM_6
100
AcDbMText
 10
550.9999999999706
 20
94.44308507480577
 30
0.0
 40
7.0
 41
35.0
 71
     5
 72
     5
  1
204.0
 73
     1
 44
1.0
1001
ACAD
1000
MTEXTBEGIN
1070
    73
1070
     1
1070
    44
1040
1.0
1070
    74
1070
     0
1000
MTEXTEND
  0
MTEXT
  5
AEF97
330
1F
100
AcDbEntity
  8
AM_6
100
AcDbMText
 10
515.9999999999912
 20
76.9430850748775
 30
0.0
 40
7.0
 41
35.0
 71
     5
 72
     5
  1
250
 73
     1
 44
1.0
1001
ACAD
1000
MTEXTBEGIN
1070
    73
1070
     1
1070
    44
1040
1.0
1070
    74
1070
     0
1000
MTEXTEND
  0
MTEXT
  5
AEF98
330
1F
100
AcDbEntity
  8
AM_6
100
AcDbMText
 10
550.9999999999913
 20
76.9430850748775
 30
0.0
 40
7.0
 41
35.0
 71
     5
 72
     5
  1
255.0
 73
     1
 44
1.0
1001
ACAD
1000
MTEXTBEGIN
1070
    73
1070
     1
1070
    44
1040
1.0
1070
    74
1070
     0
1000
MTEXTEND
  0
MTEXT
  5
AEF99
330
1F
100
AcDbEntity
  8
AM_6
100
AcDbMText
 10
516.000000000041
 20
41.94308507496822
 30
0.0
 40
7.0
 41
35.0
 71
     5
 72
     5
  1
250
 73
     1
 44
1.0
1001
ACAD
1000
MTEXTBEGIN
1070
    73
1070
     1
1070
    44
1040
1.0
1070
    74
1070
     0
1000
MTEXTEND
  0
MTEXT
  5
AEF9A
330
1F
100
AcDbEntity
  8
AM_6
100
AcDbMText
 10
551.0000000000411
 20
41.94308507496822
 30
0.0
 40
7.0
 41
35.0
 71
     5
 72
     5
  1
255.0
 73
     1
 44
1.0
1001
ACAD
1000
MTEXTBEGIN
1070
    73
1070
     1
1070
    44
1040
1.0
1070
    74
1070
     0
1000
MTEXTEND
  0
ENDSEC
  0
SECTION
  2
OBJECTS
  0
DICTIONARY
  5
C
330
0
100
AcDbDictionary
281
     1
  3
ACAD_2007HEADERVARS_RT
350
AF029
  3
ACAD_BGPLOT_KEY
350
AB06
  3
ACAD_CIP_PREVIOUS_PRODUCT_INFO
350
AB488
  3
ACAD_COLOR
350
A91D
  3
ACAD_DETAILVIEWSTYLE
350
AB273
  3
ACAD_GROUP
350
D
  3
ACAD_LAYOUT
350
1A
  3
ACAD_MATERIAL
350
A91C
  3
ACAD_MLEADERSTYLE
350
AB26F
  3
ACAD_MLINESTYLE
350
17
  3
ACAD_PLOTSETTINGS
350
19
  3
ACAD_PLOTSTYLENAME
350
E
  3
ACAD_SCALELIST
350
AB25D
  3
ACAD_SECTIONVIEWSTYLE
350
AB271
  3
ACAD_TABLESTYLE
350
AAB9
  3
ACAD_VISUALSTYLE
350
B0F1
  3
AcAsAppObject
350
3DA1
  3
ACASGREF_MASTER
350
3DE9
  3
ACDB_RECOMPOSE_DATA
350
AF027
  3
AcDbVariableDictionary
350
34
  3
AcDsDecomposeData
350
AF030
  3
AcmDictionary
350
47
  3
AD_GREF_MODULE
350
3DEA
  3
AD_MAPI_MODULE
350
3E06
  3
AMG
350
2B
  3
AMGSNAPSETTINGS
350
7D
  3
ASE_INDEX_DICTIONARY
350
AA8D8
  3
DWGPROPS
350
AF028
  3
MAPISURF_MODULE
350
3DEB
  0
DICTIONARY
  5
3F95
330
2
100
AcDbDictionary
280
     1
281
     1
  3
ACAD_LAYERFILTERS
360
B466
  3
ACAD_LAYERSTATES
360
3F96
  3
ACLYDICTIONARY
360
B465
  3
AMLAYER_GROUPCOLORS
360
AAB4
  0
DICTIONARY
  5
AB489
330
10
100
AcDbDictionary
280
     1
281
     1
  3
ADSK_XREC_LAYER_RECONCILED
360
AB48A
  0
DICTIONARY
  5
AB491
330
ACA1
100
AcDbDictionary
280
     1
281
     1
  3
ADSK_XREC_LAYER_RECONCILED
360
AB492
  0
DICTIONARY
  5
AB502
330
AB501
100
AcDbDictionary
280
     1
281
     1
  0
DICTIONARY
  5
AB504
330
AB503
100
AcDbDictionary
280
     1
281
     1
  0
DICTIONARY
  5
AB506
330
AB505
100
AcDbDictionary
280
     1
281
     1
  0
DICTIONARY
  5
AB508
330
AB507
100
AcDbDictionary
280
     1
281
     1
  0
DICTIONARY
  5
AB50A
330
AB509
100
AcDbDictionary
280
     1
281
     1
  0
DICTIONARY
  5
AB50C
330
AB50B
100
AcDbDictionary
280
     1
281
     1
  0
DICTIONARY
  5
AB50E
330
AB50D
100
AcDbDictionary
280
     1
281
     1
  0
DICTIONARY
  5
AB510
330
AB50F
100
AcDbDictionary
280
     1
281
     1
  0
DICTIONARY
  5
AB512
330
AB511
100
AcDbDictionary
280
     1
281
     1
  0
DICTIONARY
  5
AB514
330
AB513
100
AcDbDictionary
280
     1
281
     1
  0
DICTIONARY
  5
AB516
330
AB515
100
AcDbDictionary
280
     1
281
     1
  0
DICTIONARY
  5
AB518
330
AB517
100
AcDbDictionary
280
     1
281
     1
  0
DICTIONARY
  5
AB51A
330
AB519
100
AcDbDictionary
280
     1
281
     1
  0
DICTIONARY
  5
AB51C
330
AB51B
100
AcDbDictionary
280
     1
281
     1
  0
DICTIONARY
  5
AB51E
330
AB51D
100
AcDbDictionary
280
     1
281
     1
  0
DICTIONARY
  5
AB520
330
AB51F
100
AcDbDictionary
280
     1
281
     1
  0
DICTIONARY
  5
8A
330
1F
100
AcDbDictionary
280
     1
281
     1
  3
ACAD_SORTENTS
360
B1BA
  0
DICTIONARY
  5
AF029
102
{ACAD_REACTORS
330
C
102
}
330
C
100
AcDbDictionary
281
     1
  3
DIMARCSYM
350
AF02A
  0
DICTIONARY
  5
AB06
102
{ACAD_REACTORS
330
C
102
}
330
C
100
AcDbDictionary
280
     1
281
     1
  0
XRECORD
  5
AB488
102
{ACAD_REACTORS
330
C
102
}
330
C
100
AcDbXrecord
280
     1
300
ACDLT
300
2013
300
ACDLT_F_S
  0
DICTIONARY
  5
A91D
102
{ACAD_REACTORS
330
C
102
}
330
C
100
AcDbDictionary
281
     1
  0
DICTIONARY
  5
AB273
102
{ACAD_REACTORS
330
C
102
}
330
C
100
AcDbDictionary
281
     1
  3
Metric50
350
AB274
  0
DICTIONARY
  5
D
102
{ACAD_REACTORS
330
C
102
}
330
C
100
AcDbDictionary
281
     1
  0
DICTIONARY
  5
1A
102
{ACAD_REACTORS
330
C
102
}
330
C
100
AcDbDictionary
281
     1
  3
Model
350
22
  3
ﾚｲｱｳﾄ1
350
1E
  3
ﾚｲｱｳﾄ2
350
26
  0
DICTIONARY
  5
A91C
102
{ACAD_REACTORS
330
C
102
}
330
C
100
AcDbDictionary
281
     1
  3
ByBlock
350
B0EF
  3
ByLayer
350
B0EE
  3
Global
350
B0F0
  0
DICTIONARY
  5
AB26F
102
{ACAD_REACTORS
330
C
102
}
330
C
100
AcDbDictionary
281
     1
  3
Standard
350
AB270
  0
DICTIONARY
  5
17
102
{ACAD_REACTORS
330
C
102
}
330
C
100
AcDbDictionary
281
     1
  3
Standard
350
18
  0
DICTIONARY
  5
19
102
{ACAD_REACTORS
330
C
102
}
330
C
100
AcDbDictionary
281
     1
  0
ACDBDICTIONARYWDFLT
  5
E
102
{ACAD_REACTORS
330
C
102
}
330
C
100
AcDbDictionary
281
     1
  3
Normal
350
F
100
AcDbDictionaryWithDefault
340
F
  0
DICTIONARY
  5
AB25D
102
{ACAD_REACTORS
330
C
102
}
330
C
100
AcDbDictionary
281
     1
  3
A0
350
AB25E
  3
A1
350
AB25F
  3
A2
350
AB260
  3
A3
350
AB261
  3
A4
350
AB262
  3
A5
350
AB263
  3
A6
350
AB264
  3
A7
350
AB265
  3
A8
350
AB266
  3
A9
350
AB267
  3
B0
350
AB268
  3
B1
350
AB269
  3
B2
350
AB26A
  3
B3
350
AB26B
  3
B4
350
AB26C
  3
B5
350
AB26D
  3
B6
350
AB26E
  0
DICTIONARY
  5
AB271
102
{ACAD_REACTORS
330
C
102
}
330
C
100
AcDbDictionary
281
     1
  3
Metric50
350
AB272
  0
DICTIONARY
  5
AAB9
102
{ACAD_REACTORS
330
C
102
}
330
C
100
AcDbDictionary
281
     1
  3
Standard
350
AABA
  0
DICTIONARY
  5
B0F1
102
{ACAD_REACTORS
330
C
102
}
330
C
100
AcDbDictionary
281
     1
  3
2dWireframe
350
B0F7
  3
3D Hidden
350
B0F9
  3
3dWireframe
350
B0F8
  3
Basic
350
B0F6
  3
Brighten
350
B0FD
  3
ColorChange
350
B101
  3
Conceptual
350
B0FA
  3
Dim
350
B0FC
  3
EdgeColorOff
350
AB25C
  3
Facepattern
350
B100
  3
Flat
350
B0F2
  3
FlatWithEdges
350
B0F3
  3
Gouraud
350
B0F4
  3
GouraudWithEdges
350
B0F5
  3
Hidden
350
AB254
  3
JitterOff
350
AB25A
  3
Linepattern
350
B0FF
  3
OverhangOff
350
AB25B
  3
Realistic
350
B0FB
  3
Shaded
350
AB259
  3
Shaded with edges
350
AB258
  3
Shades of Gray
350
AB255
  3
Sketchy
350
AB256
  3
Thicken
350
B0FE
  3
Wireframe
350
AB253
  3
X-Ray
350
AB257
  0
ACAD_PROXY_OBJECT
  5
3DA1
102
{ACAD_REACTORS
330
C
102
}
330
C
100
AcDbProxyObject
 90
      499
 91
      576
 95
   917527
 70
     0
 93
       10
310
404C
 94
        0
1001
ACAD
1000
AcRTDxfName
1000
ASAPP
1000
AcRTDxfName
1000
ASAPP
  0
ACAD_PROXY_OBJECT
  5
3DE9
102
{ACAD_REACTORS
330
C
102
}
330
C
100
AcDbProxyObject
 90
      499
 91
      581
 95
   917527
 70
     0
 93
       34
310
010000404C
 94
        0
1001
ACAD
1000
AcRTDxfName
1000
ACASGREFMASTER
1000
AcRTDxfName
1000
ACASGREFMASTER
  0
XRECORD
  5
AF027
102
{ACAD_REACTORS
330
C
102
}
330
C
100
AcDbXrecord
280
     1
 90
        1
330
AABA
  0
DICTIONARY
  5
34
102
{ACAD_REACTORS
330
C
102
}
330
C
100
AcDbDictionary
281
     1
  3
CANNOSCALE
350
AB68F
  3
CMLEADERSTYLE
350
AB68B
  3
CTABLESTYLE
350
AAF3
  3
CVIEWDETAILSTYLE
350
AB68C
  3
CVIEWSECTIONSTYLE
350
AB68D
  3
DIMASSOC
350
A10C
  3
FIELDEVAL
350
AB07
  3
INDEXCTL
350
35
  3
LAYEREVAL
350
AB691
  3
LAYERNOTIFY
350
AB692
  3
LIGHTINGUNITS
350
AB690
  3
MSLTSCALE
350
AB68E
  3
SORTENTS
350
194C
  3
XCLIPFRAME
350
AF024
  0
DICTIONARY
  5
AF030
102
{ACAD_REACTORS
330
C
102
}
330
C
100
AcDbDictionary
281
     1
  3
AcDsRecords
350
AF032
  3
AcDsSchemas
350
AF031
1001
ACAD
1070
     2
  0
DICTIONARY
  5
47
102
{ACAD_REACTORS
330
C
102
}
330
C
100
AcDbDictionary
281
     1
  3
AcmBOM
350
7E8
  3
AcmStdDictionary
350
4C
  3
AMDTSECTSYM_ARROWCOLOR
350
A929
  0
ACAD_PROXY_OBJECT
  5
3DEA
102
{ACAD_REACTORS
330
C
102
}
330
C
100
AcDbProxyObject
 90
      499
 91
      582
 95
   917527
 70
     0
 93
      114
310
00000043800000000000000000000C
 94
        0
1001
ACAD
1000
AcRTDxfName
1000
ACADGREFMODULE
1000
AcRTDxfName
1000
ACADGREFMODULE
  0
ACAD_PROXY_OBJECT
  5
3E06
102
{ACAD_REACTORS
330
C
102
}
330
C
100
AcDbProxyObject
 90
      499
 91
      594
 95
   917527
 70
     0
 93
       34
310
05000044CC
 94
        0
1001
ACAD
1000
AcRTDxfName
1000
MAPIADMODULE
1000
AcRTDxfName
1000
MAPIADMODULE
  0
DICTIONARY
  5
2B
102
{ACAD_REACTORS
330
C
102
}
330
C
100
AcDbDictionary
281
     1
  0
DICTIONARY
  5
7D
102
{ACAD_REACTORS
330
C
102
}
330
C
100
AcDbDictionary
281
     1
  0
DICTIONARY
  5
AA8D8
102
{ACAD_REACTORS
330
C
102
}
330
C
100
AcDbDictionary
281
     1
  3
ASEBlockHierarchyIndexRecord
350
AA8D9
1001
DCO15
1040
1749812023.093
  0
XRECORD
  5
AF028
102
{ACAD_REACTORS
330
C
102
}
330
C
100
AcDbXrecord
280
     1
  1
DWGPROPS COOKIE
  2

  3

  4

  6

  7

  8
LT2013
  9

300
AmdtFileType=84
301
=
302
=
303
=
304
=
305
=
306
=
307
=
308
=
309
=
 40
3.38429730324074
 41
2455567.561054317
 42
2457192.340713079
  1

 90
        1
  0
ACAD_PROXY_OBJECT
  5
3DEB
102
{ACAD_REACTORS
330
C
102
}
330
C
100
AcDbProxyObject
 90
      499
 91
      583
 95
   917527
 70
     0
 93
        8
310
047E
 94
        0
1001
ACAD
1000
AcRTDxfName
1000
AMDTMAPISURFMOUDULE
1000
AcRTDxfName
1000
AMDTMAPISURFMOUDULE
  0
DICTIONARY
  5
B466
102
{ACAD_REACTORS
330
3F95
102
}
330
3F95
100
AcDbDictionary
281
     1
  0
DICTIONARY
  5
3F96
102
{ACAD_REACTORS
330
3F95
102
}
330
3F95
100
AcDbDictionary
281
     1
  3
20011210
350
3FB7
  0
DICTIONARY
  5
B465
102
{ACAD_REACTORS
330
3F95
102
}
330
3F95
100
AcDbDictionary
281
     1
1001
ACAD
1000
<All
  0
DICTIONARY
  5
AAB4
102
{ACAD_REACTORS
330
3F95
102
}
330
3F95
100
AcDbDictionary
280
     1
281
     1
  0
XRECORD
  5
AB48A
102
{ACAD_REACTORS
330
AB489
102
}
330
AB489
100
AcDbXrecord
280
     1
290
     1
  0
XRECORD
  5
AB492
102
{ACAD_REACTORS
330
AB491
102
}
330
AB491
100
AcDbXrecord
280
     1
290
     1
  0
SORTENTSTABLE
  5
B1BA
102
{ACAD_REACTORS
330
8A
102
}
330
8A
100
AcDbSortentsTable
330
1F
331
AC6B1
  5
AC951
331
AB6B6
  5
AB6B6
331
AC293
  5
AC55C
331
AB6BE
  5
AB6BE
331
AED2E
  5
AED2E
331
AC951
  5
AC287
331
AC29B
  5
AC68A
331
AC1ED
  5
AC1F3
331
AB6C6
  5
AB6C6
331
AC224
  5
AC234
331
ACA10
  5
ACA10
331
AED36
  5
AED36
331
AC22C
  5
AC23E
331
AB6CE
  5
AB6CE
331
ACB2F
  5
ACB2F
331
AE6B4
  5
AE6B4
331
AE6F3
  5
AE6F3
331
AE72A
  5
AE72A
331
AE6FB
  5
AE6FB
331
AD93D
  5
AD93D
331
AD87E
  5
AD87E
331
AE6BC
  5
AE6BC
331
AE732
  5
AE732
331
AE73A
  5
AE73A
331
AE6C4
  5
AE6C4
331
AE703
  5
AE703
331
AE6CC
  5
AE6CC
331
AD88E
  5
AD88E
331
AE742
  5
AE742
331
7AC05
  5
7BAAD
331
AC68A
  5
AC94E
331
AC1F5
  5
AC1FF
331
AB6D6
  5
AB6D6
331
AC2A3
  5
AC945
331
AC1FD
  5
AC208
331
AC9B9
  5
AC9B9
331
ACAE8
  5
ACAE8
331
AED0F
  5
AED0F
331
AC205
  5
AC211
331
AED17
  5
AED17
331
AC64B
  5
AC94A
331
AED1F
  5
AED1F
331
AD896
  5
AD896
331
ACB37
  5
ACB37
331
AE6D4
  5
AE6D4
331
AE70B
  5
AE70B
331
AE74A
  5
AE74A
331
AED27
  5
AED27
331
AD89E
  5
AD89E
331
AE69D
  5
AE69D
331
AE6DC
  5
AE6DC
331
AE713
  5
AE713
331
AE752
  5
AE752
331
AD8A6
  5
AD8A6
331
AE6A5
  5
AE6A5
331
AE6E4
  5
AE6E4
331
AE71B
  5
AE71B
331
AE6AD
  5
AE6AD
331
AE6EC
  5
AE6EC
331
AE723
  5
AE723
331
AE9C2
  5
AE9C2
331
AB6B7
  5
AB6B7
331
ACB10
  5
ACB10
331
AC294
  5
AC55D
331
AB6BF
  5
AB6BF
331
AED2F
  5
AED2F
331
AC29C
  5
AC697
331
AC225
  5
AC235
331
AB6C7
  5
AB6C7
331
ACA11
  5
ACA11
331
AED37
  5
AED37
331
AC22D
  5
AC23F
331
AB6CF
  5
AB6CF
331
AD81F
  5
AD81F
331
AE6B5
  5
AE6B5
331
AE6F4
  5
AE6F4
331
AE72B
  5
AE72B
331
AEA7A
  5
AEA7A
331
AE733
  5
AE733
331
AD87F
  5
AD87F
331
AE6BD
  5
AE6BD
331
AE6FC
  5
AE6FC
331
AE73B
  5
AE73B
331
AD887
  5
AD887
331
AE6C5
  5
AE6C5
331
AE704
  5
AE704
331
AEAD2
  5
AEAD2
331
AD88F
  5
AD88F
331
AE6CD
  5
AE6CD
331
AE743
  5
AE743
331
7AC06
  5
7BAAE
331
AB6D7
  5
AB6D7
331
AC9BA
  5
AC9BA
331
ACAF1
  5
ACAF1
331
AED18
  5
AED18
331
AC9CA
  5
AC9CA
331
AE6D5
  5
AE6D5
331
AE70C
  5
AE70C
331
AE74B
  5
AE74B
331
AD89F
  5
AD89F
331
AE69E
  5
AE69E
331
AE6DD
  5
AE6DD
331
AE714
  5
AE714
331
AE753
  5
AE753
331
AD8A7
  5
AD8A7
331
AE6A6
  5
AE6A6
331
AE6E5
  5
AE6E5
331
AE71C
  5
AE71C
331
AE6AE
  5
AE6AE
331
AE6ED
  5
AE6ED
331
AE724
  5
AE724
331
ACB11
  5
ACB11
331
AC28D
  5
AC2A4
331
AB6B8
  5
AB6B8
331
ACB19
  5
ACB19
331
AC943
  5
AC210
331
AC295
  5
AC55E
331
AB6C0
  5
AB6C0
331
AC953
  5
AC1FC
331
AC29D
  5
AC6A4
331
AC1EF
  5
AC1F5
331
AB6C8
  5
AB6C8
331
AC226
  5
AC236
331
ACA12
  5
ACA12
331
AED38
  5
AED38
331
AE6B6
  5
AE6B6
331
AE6F5
  5
AE6F5
331
AE72C
  5
AE72C
331
AE734
  5
AE734
331
AD880
  5
AD880
331
AE6BE
  5
AE6BE
331
AE6FD
  5
AE6FD
331
AE73C
  5
AE73C
331
AD888
  5
AD888
331
AE6C6
  5
AE6C6
331
AE705
  5
AE705
331
AE6CE
  5
AE6CE
331
AE744
  5
AE744
331
AB559
  5
AB559
331
AB6D0
  5
AB6D0
331
AC236
  5
AC249
331
AB6D8
  5
AB6D8
331
AC9BB
  5
AC9BB
331
ACAF2
  5
ACAF2
331
AC9C3
  5
AC9C3
331
AED19
  5
AED19
331
AC6A4
  5
AC950
331
AC276
  5
AC28C
331
AC20F
  5
AC21B
331
AD890
  5
AD890
331
AE697
  5
AE697
331
AE6D6
  5
AE6D6
331
AE70D
  5
AE70D
331
AE74C
  5
AE74C
331
AEAEB
  5
AEAEB
331
AD791
  5
AD791
331
AD8A0
  5
AD8A0
331
AE69F
  5
AE69F
331
AE6DE
  5
AE6DE
331
AE715
  5
AE715
331
AE754
  5
AE754
331
AD811
  5
AD811
331
AD8A8
  5
AD8A8
331
AE6A7
  5
AE6A7
331
AE6E6
  5
AE6E6
331
AE71D
  5
AE71D
331
AE6AF
  5
AE6AF
331
AE6EE
  5
AE6EE
331
AE725
  5
AE725
331
ACB12
  5
ACB12
331
AC28E
  5
AC2A5
331
AC217
  5
AC224
331
AB6B9
  5
AB6B9
331
ACB1A
  5
ACB1A
331
AC296
  5
AC63E
331
AC21F
  5
AC22E
331
AB6C1
  5
AB6C1
331
AC665
  5
AC94C
331
AC227
  5
AC237
331
AB6C9
  5
AB6C9
331
AC29E
  5
AC6B1
331
AED39
  5
AED39
331
ACA5B
  5
ACA5B
331
AD819
  5
AD819
331
AE6B7
  5
AE6B7
331
AE6F6
  5
AE6F6
331
AE72D
  5
AE72D
331
AE735
  5
AE735
331
AD881
  5
AD881
331
AE6BF
  5
AE6BF
331
AE6FE
  5
AE6FE
331
AE73D
  5
AE73D
331
AE6C7
  5
AE6C7
331
AE706
  5
AE706
331
AE6CF
  5
AE6CF
331
AE745
  5
AE745
331
AB55A
  5
AB55A
331
AB6D1
  5
AB6D1
331
ACAE3
  5
ACAE3
331
AB6D9
  5
AB6D9
331
AED0A
  5
AED0A
331
ACAEB
  5
ACAEB
331
AC63E
  5
AC949
331
AC9C4
  5
AC9C4
331
ACAF3
  5
ACAF3
331
AED1A
  5
AED1A
331
AD891
  5
AD891
331
AED22
  5
AED22
331
AD899
  5
AD899
331
AE698
  5
AE698
331
AE6D7
  5
AE6D7
331
AE70E
  5
AE70E
331
AE74D
  5
AE74D
331
AE6DF
  5
AE6DF
331
AD792
  5
AD792
331
AD8A1
  5
AD8A1
331
AE6A0
  5
AE6A0
331
AE716
  5
AE716
331
AE755
  5
AE755
331
AE6E7
  5
AE6E7
331
AD8A9
  5
AD8A9
331
AE6A8
  5
AE6A8
331
AE71E
  5
AE71E
331
AE6EF
  5
AE6EF
331
AE726
  5
AE726
331
AB6BA
  5
AB6BA
331
AC28F
  5
AC2A6
331
AC9D4
  5
AC9D4
331
ACB13
  5
ACB13
331
AED32
  5
AED32
331
AC297
  5
AC64B
331
AB6C2
  5
AB6C2
331
AC220
  5
AC22F
331
AED3A
  5
AED3A
331
AB6CA
  5
AB6CA
331
AD81A
  5
AD81A
331
AE6B0
  5
AE6B0
331
AE6B8
  5
AE6B8
331
AE6F7
  5
AE6F7
331
AE72E
  5
AE72E
331
AE736
  5
AE736
331
AE6C0
  5
AE6C0
331
AE6FF
  5
AE6FF
331
AE73E
  5
AE73E
331
AE6C8
  5
AE6C8
331
AE707
  5
AE707
331
AE746
  5
AE746
331
AB55B
  5
AB55B
331
AB6D2
  5
AB6D2
331
AC1F1
  5
AC1F8
331
AC238
  5
AC24B
331
ACAE4
  5
ACAE4
331
AC270
  5
AC285
331
AC209
  5
AC215
331
AC9C5
  5
AC9C5
331
ACAF4
  5
ACAF4
331
AED1B
  5
AED1B
331
AE6D0
  5
AE6D0
331
AED23
  5
AED23
331
AE699
  5
AE699
331
AE6D8
  5
AE6D8
331
AE70F
  5
AE70F
331
AE74E
  5
AE74E
331
AE717
  5
AE717
331
AD793
  5
AD793
331
AD8A2
  5
AD8A2
331
AE6A1
  5
AE6A1
331
AE6E0
  5
AE6E0
331
AE756
  5
AE756
331
AE6A9
  5
AE6A9
331
AE6E8
  5
AE6E8
331
AE71F
  5
AE71F
331
AE727
  5
AE727
331
AC290
  5
AC559
331
AB6BB
  5
AB6BB
331
AC219
  5
AC227
331
AC298
  5
AC658
331
AB6C3
  5
AB6C3
331
AC221
  5
AC231
331
AED33
  5
AED33
331
AB6CB
  5
AB6CB
331
AC229
  5
AC23B
331
ACB2C
  5
ACB2C
331
AED3B
  5
AED3B
331
AD81B
  5
AD81B
331
AE6B1
  5
AE6B1
331
AE6F0
  5
AE6F0
331
AE72F
  5
AE72F
331
AE6B9
  5
AE6B9
331
AE6F8
  5
AE6F8
331
AE737
  5
AE737
331
AD883
  5
AD883
331
AE6C1
  5
AE6C1
331
AE700
  5
AE700
331
AEAC6
  5
AEAC6
331
AD88B
  5
AD88B
331
AE6C9
  5
AE6C9
331
AE73F
  5
AE73F
331
AE747
  5
AE747
331
AB6D3
  5
AB6D3
331
AC231
  5
AC243
331
AC697
  5
AC94F
331
AC241
  5
AC256
331
AC9BE
  5
AC9BE
331
AC20A
  5
AC216
331
AC9C6
  5
AC9C6
331
ACAF5
  5
ACAF5
331
AED1C
  5
AED1C
331
ACAFD
  5
ACAFD
331
AE6D1
  5
AE6D1
331
AE708
  5
AE708
331
AD89B
  5
AD89B
331
AE69A
  5
AE69A
331
AE6D9
  5
AE6D9
331
AE710
  5
AE710
331
AE74F
  5
AE74F
331
AE757
  5
AE757
331
AD794
  5
AD794
331
AD8A3
  5
AD8A3
331
AE6A2
  5
AE6A2
331
AE6E1
  5
AE6E1
331
AE718
  5
AE718
331
AE6AA
  5
AE6AA
331
AE6E9
  5
AE6E9
331
AE720
  5
AE720
331
AB6B4
  5
AB6B4
331
AC658
  5
AC94B
331
AB6BC
  5
AB6BC
331
AC291
  5
AC55A
331
AC9D6
  5
AC9D6
331
AED2C
  5
AED2C
331
AB6C4
  5
AB6C4
331
AC299
  5
AC665
331
AED34
  5
AED34
331
AB6CC
  5
AB6CC
331
ACB2D
  5
ACB2D
331
AED3C
  5
AED3C
331
AD81C
  5
AD81C
331
AD8C3
  5
AD8C3
331
AE6B2
  5
AE6B2
331
AE6F1
  5
AE6F1
331
AE728
  5
AE728
331
AE730
  5
AE730
331
AE6BA
  5
AE6BA
331
AE6F9
  5
AE6F9
331
AE738
  5
AE738
331
AE6C2
  5
AE6C2
331
AE701
  5
AE701
331
AE6CA
  5
AE6CA
331
AE740
  5
AE740
331
AC232
  5
AC244
331
AB6D4
  5
AB6D4
331
AC977
  5
AC977
331
AED0D
  5
AED0D
331
AC203
  5
AC20E
331
AED15
  5
AED15
331
AC9C7
  5
AC9C7
331
ACAF6
  5
ACAF6
331
AED1D
  5
AED1D
331
ACAFE
  5
ACAFE
331
ACB35
  5
ACB35
331
AD894
  5
AD894
331
AE6D2
  5
AE6D2
331
AE709
  5
AE709
331
AE748
  5
AE748
331
AD78D
  5
AD78D
331
AD89C
  5
AD89C
331
AE69B
  5
AE69B
331
AE6DA
  5
AE6DA
331
AE711
  5
AE711
331
AE750
  5
AE750
331
AD795
  5
AD795
331
AE6A3
  5
AE6A3
331
AE6E2
  5
AE6E2
331
AE719
  5
AE719
331
AD8AC
  5
AD8AC
331
AE6AB
  5
AE6AB
331
AE6EA
  5
AE6EA
331
AE721
  5
AE721
331
AC213
  5
AC220
331
AB6B5
  5
AB6B5
331
AC292
  5
AC55B
331
AC21B
  5
AC229
331
AB6BD
  5
AB6BD
331
AC9D7
  5
AC9D7
331
AED2D
  5
AED2D
331
AC29A
  5
AC680
331
AB6C5
  5
AB6C5
331
ACA0F
  5
ACA0F
331
AED35
  5
AED35
331
AB6CD
  5
AB6CD
331
ACB2E
  5
ACB2E
331
AD8C4
  5
AD8C4
331
AE6B3
  5
AE6B3
331
AE6F2
  5
AE6F2
331
AE729
  5
AE729
331
AE731
  5
AE731
331
AD93C
  5
AD93C
331
AD87D
  5
AD87D
331
AE6BB
  5
AE6BB
331
AE6FA
  5
AE6FA
331
AE739
  5
AE739
331
AD885
  5
AD885
331
AE6C3
  5
AE6C3
331
AE702
  5
AE702
331
AE6CB
  5
AE6CB
331
AE741
  5
AE741
331
AC233
  5
AC246
331
AC1F4
  5
AC1FD
331
AB6D5
  5
AB6D5
331
AC9B8
  5
AC9B8
331
ACAE7
  5
ACAE7
331
AED0E
  5
AED0E
331
AC9C0
  5
AC9C0
331
AC273
  5
AC289
331
AC20C
  5
AC218
331
ACAF7
  5
ACAF7
331
AED1E
  5
AED1E
331
ACB36
  5
ACB36
331
AD895
  5
AD895
331
AE6D3
  5
AE6D3
331
AE70A
  5
AE70A
331
AE749
  5
AE749
331
ACAFF
  5
ACAFF
331
AED26
  5
AED26
331
AD78E
  5
AD78E
331
AD89D
  5
AD89D
331
AE69C
  5
AE69C
331
AE6DB
  5
AE6DB
331
AE712
  5
AE712
331
AE751
  5
AE751
331
AE6A4
  5
AE6A4
331
AE6E3
  5
AE6E3
331
AE71A
  5
AE71A
331
AD816
  5
AD816
331
AE6AC
  5
AE6AC
331
AE6EB
  5
AE6EB
331
AE722
  5
AE722
  0
XRECORD
  5
AF02A
102
{ACAD_REACTORS
330
AF029
102
}
330
AF029
100
AcDbXrecord
280
     1
 70
     1
  0
ACDBDETAILVIEWSTYLE
  5
AB274
102
{ACAD_REACTORS
330
AB273
102
}
330
AB273
100
AcDbModelDocViewStyle
 70
     0
  3
Metric50
290
     0
100
AcDbDetailViewStyle
 70
     0
 71
     0
 90
        3
 71
     1
340
11
 40
5.0
340
0
 40
5.0
300

 40
0.0
280
     1
 71
     2
340
16
 90
       25
 71
     3
340
11
 40
5.0
 90
        0
 40
15.0
 90
        1
300
%<\AcVar ViewDetailId>% (%<\AcVar ViewScale \f "%sn">%)
 71
     4
340
16
 90
       25
340
16
 90
       25
280
     0
  0
LAYOUT
  5
22
102
{ACAD_XDICTIONARY
360
AF035
102
}
102
{ACAD_REACTORS
330
1A
102
}
330
1A
100
AcDbPlotSettings
  1

  2
Adobe PDF
  4
User66
  6

 40
3.174999952316283
 41
3.174999952316283
 42
3.17498779296875
 43
3.17498779296875
 44
420.0
 45
594.0
 46
-3.174993872642517
 47
-3.174993872642517
 48
0.0
 49
0.0
140
1188.0
141
840.0
142
1.0
143
2.0
 70
  3748
 72
     1
 73
     1
 74
     4
  7
monochrome.ctb
 75
     0
147
0.4848174396015349
148
0.0
149
0.0
100
AcDbLayout
  1
Model
 70
     1
 71
     0
 10
0.0
 20
0.0
 11
12.0
 21
9.0
 12
0.0
 22
0.0
 32
0.0
 14
0.0
 24
0.0
 34
0.0
 15
0.0
 25
0.0
 35
0.0
146
0.0
 13
0.0
 23
0.0
 33
0.0
 16
1.0
 26
0.0
 36
0.0
 17
0.0
 27
1.0
 37
0.0
 76
     0
330
1F
331
B0EC
1001
ACAD_PSEXT
1000
Adobe PDF
1000
Adobe PDF Converter
1000
My Documents\*.pdf
1000

1070
     0
  0
LAYOUT
  5
1E
102
{ACAD_XDICTIONARY
360
AF033
102
}
102
{ACAD_REACTORS
330
1A
102
}
330
1A
100
AcDbPlotSettings
  1

  2
\\ML370\XEROX
  4
A4
  6

 40
3.174999952316283
 41
3.174999952316283
 42
3.175003051757812
 43
3.17498779296875
 44
209.8674926757813
 45
296.6719970703125
 46
0.0
 47
0.0
 48
0.0
 49
0.0
140
0.0
141
0.0
142
1.0
143
1.0
 70
   688
 72
     1
 73
     1
 74
     5
  7
monochrome.ctb
 75
    16
147
1.0
148
0.0
149
0.0
100
AcDbLayout
  1
ﾚｲｱｳﾄ1
 70
     1
 71
     1
 10
-3.17498779296875
 20
-3.174999952316283
 11
293.4970092773438
 21
206.692492723465
 12
0.0
 22
0.0
 32
0.0
 14
1.000000000000000E+20
 24
1.000000000000000E+20
 34
1.000000000000000E+20
 15
-1.000000000000000E+20
 25
-1.000000000000000E+20
 35
-1.000000000000000E+20
146
0.0
 13
0.0
 23
0.0
 33
0.0
 16
1.0
 26
0.0
 36
0.0
 17
0.0
 27
1.0
 37
0.0
 76
     0
330
1B
  0
LAYOUT
  5
26
102
{ACAD_XDICTIONARY
360
AF037
102
}
102
{ACAD_REACTORS
330
1A
102
}
330
1A
100
AcDbPlotSettings
  1

  2
\\ML370\XEROX
  4

  6

 40
0.0
 41
0.0
 42
0.0
 43
0.0
 44
0.0
 45
0.0
 46
0.0
 47
0.0
 48
0.0
 49
0.0
140
0.0
141
0.0
142
1.0
143
1.0
 70
   688
 72
     0
 73
     0
 74
     5
  7
monochrome.ctb
 75
    16
147
1.0
148
0.0
149
0.0
100
AcDbLayout
  1
ﾚｲｱｳﾄ2
 70
     1
 71
     2
 10
0.0
 20
0.0
 11
12.0
 21
9.0
 12
0.0
 22
0.0
 32
0.0
 14
0.0
 24
0.0
 34
0.0
 15
0.0
 25
0.0
 35
0.0
146
0.0
 13
0.0
 23
0.0
 33
0.0
 16
1.0
 26
0.0
 36
0.0
 17
0.0
 27
1.0
 37
0.0
 76
     0
330
23
  0
MATERIAL
  5
B0EF
102
{ACAD_XDICTIONARY
360
AB24D
102
}
102
{ACAD_REACTORS
330
A91C
102
}
330
A91C
100
AcDbMaterial
  1
ByBlock
  0
MATERIAL
  5
B0EE
102
{ACAD_XDICTIONARY
360
AB24B
102
}
102
{ACAD_REACTORS
330
A91C
102
}
330
A91C
100
AcDbMaterial
  1
ByLayer
  0
MATERIAL
  5
B0F0
102
{ACAD_XDICTIONARY
360
AB24F
102
}
102
{ACAD_REACTORS
330
A91C
102
}
330
A91C
100
AcDbMaterial
  1
Global
  0
MLEADERSTYLE
  5
AB270
102
{ACAD_REACTORS
330
AB26F
102
}
330
AB26F
100
AcDbMLeaderStyle
170
     2
171
     1
172
     0
 90
        2
 40
0.0
 41
0.0
173
     1
 91
-1056964608
340
14
 92
       -2
290
     1
 42
2.0
291
     1
 43
0.36
  3
Standard
 44
4.0
300

342
11
174
     1
178
     6
175
     1
176
     0
 93
-1056964608
 45
4.0
292
     0
297
     0
 46
4.0
 94
-1056964608
 47
1.0
 49
1.0
140
1.0
293
     1
141
0.0
294
     1
177
     0
142
1.0
295
     0
296
     0
143
0.125
1001
ACAD_MLEADERVER
1070
     2
  0
MLINESTYLE
  5
18
102
{ACAD_REACTORS
330
17
102
}
330
17
100
AcDbMlineStyle
  2
STANDARD
 70
     0
  3

 62
   256
 51
90.0
 52
90.0
 71
     2
 49
0.5
 62
   256
  6
BYLAYER
 49
-0.5
 62
   256
  6
BYLAYER
  0
ACDBPLACEHOLDER
  5
F
102
{ACAD_REACTORS
330
E
102
}
330
E
  0
SCALE
  5
AB25E
102
{ACAD_REACTORS
330
AB25D
102
}
330
AB25D
100
AcDbScale
 70
     0
300
1:1
140
1.0
141
1.0
290
     1
  0
SCALE
  5
AB25F
102
{ACAD_REACTORS
330
AB25D
102
}
330
AB25D
100
AcDbScale
 70
     0
300
1:2
140
1.0
141
2.0
290
     0
  0
SCALE
  5
AB260
102
{ACAD_REACTORS
330
AB25D
102
}
330
AB25D
100
AcDbScale
 70
     0
300
1:4
140
1.0
141
4.0
290
     0
  0
SCALE
  5
AB261
102
{ACAD_REACTORS
330
AB25D
102
}
330
AB25D
100
AcDbScale
 70
     0
300
1:5
140
1.0
141
5.0
290
     0
  0
SCALE
  5
AB262
102
{ACAD_REACTORS
330
AB25D
102
}
330
AB25D
100
AcDbScale
 70
     0
300
1:8
140
1.0
141
8.0
290
     0
  0
SCALE
  5
AB263
102
{ACAD_REACTORS
330
AB25D
102
}
330
AB25D
100
AcDbScale
 70
     0
300
1:10
140
1.0
141
10.0
290
     0
  0
SCALE
  5
AB264
102
{ACAD_REACTORS
330
AB25D
102
}
330
AB25D
100
AcDbScale
 70
     0
300
1:16
140
1.0
141
16.0
290
     0
  0
SCALE
  5
AB265
102
{ACAD_REACTORS
330
AB25D
102
}
330
AB25D
100
AcDbScale
 70
     0
300
1:20
140
1.0
141
20.0
290
     0
  0
SCALE
  5
AB266
102
{ACAD_REACTORS
330
AB25D
102
}
330
AB25D
100
AcDbScale
 70
     0
300
1:30
140
1.0
141
30.0
290
     0
  0
SCALE
  5
AB267
102
{ACAD_REACTORS
330
AB25D
102
}
330
AB25D
100
AcDbScale
 70
     0
300
1:40
140
1.0
141
40.0
290
     0
  0
SCALE
  5
AB268
102
{ACAD_REACTORS
330
AB25D
102
}
330
AB25D
100
AcDbScale
 70
     0
300
1:50
140
1.0
141
50.0
290
     0
  0
SCALE
  5
AB269
102
{ACAD_REACTORS
330
AB25D
102
}
330
AB25D
100
AcDbScale
 70
     0
300
1:100
140
1.0
141
100.0
290
     0
  0
SCALE
  5
AB26A
102
{ACAD_REACTORS
330
AB25D
102
}
330
AB25D
100
AcDbScale
 70
     0
300
2:1
140
2.0
141
1.0
290
     0
  0
SCALE
  5
AB26B
102
{ACAD_REACTORS
330
AB25D
102
}
330
AB25D
100
AcDbScale
 70
     0
300
4:1
140
4.0
141
1.0
290
     0
  0
SCALE
  5
AB26C
102
{ACAD_REACTORS
330
AB25D
102
}
330
AB25D
100
AcDbScale
 70
     0
300
8:1
140
8.0
141
1.0
290
     0
  0
SCALE
  5
AB26D
102
{ACAD_REACTORS
330
AB25D
102
}
330
AB25D
100
AcDbScale
 70
     0
300
10:1
140
10.0
141
1.0
290
     0
  0
SCALE
  5
AB26E
102
{ACAD_REACTORS
330
AB25D
102
}
330
AB25D
100
AcDbScale
 70
     0
300
100:1
140
100.0
141
1.0
290
     0
  0
ACDBSECTIONVIEWSTYLE
  5
AB272
102
{ACAD_REACTORS
330
AB271
102
}
330
AB271
100
AcDbModelDocViewStyle
 70
     0
  3
Metric50
290
     0
100
AcDbSectionViewStyle
 70
     0
 71
     0
 90
      102
 71
     1
340
11
 40
5.0
340
0
340
0
 40
5.0
300
I, O, Q, S, X, Z
 40
10.0
 90
        0
 40
2.5
 90
        0
 71
     2
340
16
 90
       25
340
16
 90
       50
 40
5.0
 40
2.5
 40
5.0
 71
     3
340
11
 40
5.0
 90
        0
 40
15.0
 90
        1
300
%<\AcVar ViewSectionStartId>%-%<\AcVar ViewSectionEndId>% (%<\AcVar ViewScale \f "%sn">%)
 71
     4
300
ANSI31
 40
1.0
 90
        0
290
     0
290
     0
 90
        6
 40
0.0
 40
1.570796326794896
 40
0.2617993877991494
 40
1.308996938995747
 40
-0.2617993877991494
 40
1.832595714594046
  0
TABLESTYLE
  5
AABA
102
{ACAD_XDICTIONARY
360
AF025
102
}
102
{ACAD_REACTORS
330
AAB9
102
}
330
AAB9
100
AcDbTableStyle
  3
Standard
 70
     0
 71
     0
 40
1.5
 41
1.5
280
     0
281
     0
  7
STANDARD
140
4.5
170
     2
 62
     0
 63
     7
283
     0
274
    -2
284
     1
 64
     0
275
    -2
285
     1
 65
     0
276
    -2
286
     1
 66
     0
277
    -2
287
     1
 67
     0
278
    -2
288
     1
 68
     0
279
    -2
289
     1
 69
     0
  7
STANDARD
140
6.0
170
     5
 62
     0
 63
     7
283
     0
274
    -2
284
     1
 64
     0
275
    -2
285
     1
 65
     0
276
    -2
286
     1
 66
     0
277
    -2
287
     1
 67
     0
278
    -2
288
     1
 68
     0
279
    -2
289
     1
 69
     0
  7
STANDARD
140
4.5
170
     5
 62
     0
 63
     7
283
     0
274
    -2
284
     1
 64
     0
275
    -2
285
     1
 65
     0
276
    -2
286
     1
 66
     0
277
    -2
287
     1
 67
     0
278
    -2
288
     1
 68
     0
279
    -2
289
     1
 69
     0
  0
VISUALSTYLE
  5
B0F7
102
{ACAD_XDICTIONARY
360
AF044
102
}
102
{ACAD_REACTORS
330
B0F1
102
}
330
B0F1
100
AcDbVisualStyle
  2

 70
     4
 71
     0
 72
     2
 73
     0
 90
        0
 40
-0.6
 41
-30.0
 62
     5
 63
     7
 74
     1
 91
        4
 64
     7
 65
   257
 75
     1
175
     1
 42
1.0
 92
        0
 66
   257
 43
1.0
 76
     1
 77
     6
 78
     2
 67
     7
 79
     5
170
     0
171
     0
290
     0
174
     0
 93
        1
 44
0.0
173
     0
291
     0
 45
0.0
1001
ACAD
1000
AcDbSavedByObjectVersion
1070
     0
  0
VISUALSTYLE
  5
B0F9
102
{ACAD_XDICTIONARY
360
AF048
102
}
102
{ACAD_REACTORS
330
B0F1
102
}
330
B0F1
100
AcDbVisualStyle
  2

 70
     6
 71
     1
 72
     2
 73
     2
 90
        0
 40
-0.6
 41
-30.0
 62
     5
 63
     7
 74
     2
 91
        2
 64
     7
 65
   257
 75
     2
175
     1
 42
40.0
 92
        0
 66
   257
 43
1.0
 76
     1
 77
     6
 78
     2
 67
     7
 79
     3
170
     0
171
     0
290
     0
174
     0
 93
        1
 44
0.0
173
     0
291
     0
 45
0.0
1001
ACAD
1000
AcDbSavedByObjectVersion
1070
     0
  0
VISUALSTYLE
  5
B0F8
102
{ACAD_XDICTIONARY
360
AF046
102
}
102
{ACAD_REACTORS
330
B0F1
102
}
330
B0F1
100
AcDbVisualStyle
  2

 70
     5
 71
     0
 72
     2
 73
     0
 90
        0
 40
-0.6
 41
-30.0
 62
     5
 63
     7
 74
     1
 91
        4
 64
     7
 65
   257
 75
     1
175
     1
 42
1.0
 92
        0
 66
   257
 43
1.0
 76
     1
 77
     6
 78
     2
 67
     7
 79
     5
170
     0
171
     0
290
     0
174
     0
 93
        1
 44
0.0
173
     0
291
     0
 45
0.0
1001
ACAD
1000
AcDbSavedByObjectVersion
1070
     0
  0
VISUALSTYLE
  5
B0F6
102
{ACAD_XDICTIONARY
360
AF042
102
}
102
{ACAD_REACTORS
330
B0F1
102
}
330
B0F1
100
AcDbVisualStyle
  2

 70
     7
 71
     1
 72
     0
 73
     1
 90
        0
 40
-0.6
 41
-30.0
 62
     5
 63
     7
 74
     0
 91
        4
 64
     7
 65
   257
 75
     1
175
     1
 42
1.0
 92
        8
 66
     7
 43
1.0
 76
     1
 77
     6
 78
     2
 67
     7
 79
     5
170
     0
171
     0
290
     0
174
     0
 93
        1
 44
0.0
173
     0
291
     1
 45
0.0
1001
ACAD
1000
AcDbSavedByObjectVersion
1070
     0
  0
VISUALSTYLE
  5
B0FD
102
{ACAD_XDICTIONARY
360
AF050
102
}
102
{ACAD_REACTORS
330
B0F1
102
}
330
B0F1
100
AcDbVisualStyle
  2

 70
    12
 71
     2
 72
     2
 73
     0
 90
        0
 40
-0.6
 41
-30.0
 62
     5
 63
     7
 74
     1
 91
        4
 64
     7
 65
   257
 75
     1
175
     1
 42
1.0
 92
        8
 66
     7
 43
1.0
 76
     1
 77
     6
 78
     2
 67
     7
 79
     5
170
     0
171
     0
290
     0
174
     0
 93
        1
 44
50.0
173
     0
291
     1
 45
0.0
1001
ACAD
1000
AcDbSavedByObjectVersion
1070
     0
  0
VISUALSTYLE
  5
B101
102
{ACAD_XDICTIONARY
360
AF058
102
}
102
{ACAD_REACTORS
330
B0F1
102
}
330
B0F1
100
AcDbVisualStyle
  2

 70
    16
 71
     2
 72
     2
 73
     3
 90
        0
 40
-0.6
 41
-30.0
 62
     5
 63
     8
 74
     1
 91
        4
 64
     7
 65
   257
 75
     1
175
     1
 42
1.0
 92
        8
 66
     8
 43
1.0
 76
     1
 77
     6
 78
     2
 67
     7
 79
     5
170
     0
171
     0
290
     0
174
     0
 93
        1
 44
0.0
173
     0
291
     1
 45
0.0
1001
ACAD
1000
AcDbSavedByObjectVersion
1070
     0
  0
VISUALSTYLE
  5
B0FA
102
{ACAD_XDICTIONARY
360
AF04A
102
}
102
{ACAD_REACTORS
330
B0F1
102
}
330
B0F1
100
AcDbVisualStyle
  2

 70
     9
 71
     3
 72
     2
 73
     0
 90
        0
 40
-0.6
 41
-30.0
 62
     5
 63
     7
 74
     2
 91
        2
 64
     7
 65
   257
 75
     1
175
     1
 42
40.0
 92
        8
 66
     7
 43
1.0
 76
     1
 77
     6
 78
     2
 67
     7
 79
     3
170
     0
171
     0
290
     0
174
     0
 93
        1
 44
0.0
173
     0
291
     0
 45
0.0
1001
ACAD
1000
AcDbSavedByObjectVersion
1070
     0
  0
VISUALSTYLE
  5
B0FC
102
{ACAD_XDICTIONARY
360
AF04E
102
}
102
{ACAD_REACTORS
330
B0F1
102
}
330
B0F1
100
AcDbVisualStyle
  2

 70
    11
 71
     2
 72
     2
 73
     0
 90
        0
 40
-0.6
 41
-30.0
 62
     5
 63
     7
 74
     1
 91
        4
 64
     7
 65
   257
 75
     1
175
     1
 42
1.0
 92
        8
 66
     7
 43
1.0
 76
     1
 77
     6
 78
     2
 67
     7
 79
     5
170
     0
171
     0
290
     0
174
     0
 93
        1
 44
-50.0
173
     0
291
     1
 45
0.0
1001
ACAD
1000
AcDbSavedByObjectVersion
1070
     0
  0
VISUALSTYLE
  5
AB25C
102
{ACAD_XDICTIONARY
360
AF06C
102
}
102
{ACAD_REACTORS
330
B0F1
102
}
330
B0F1
100
AcDbVisualStyle
  2
EdgeColorOff
 70
    22
 71
     2
 72
     2
 73
     0
 90
        0
 40
-0.6
 41
-30.0
 62
     5
 63
     7
 74
     1
 91
        4
 64
     7
 65
   257
 75
     1
175
     1
 42
1.0
 92
        8
 66
     7
 43
1.0
 76
     1
 77
     6
 78
     2
 67
     7
 79
     5
170
     0
171
     0
290
     0
174
     0
 93
        1
 44
0.0
173
     0
291
     1
 45
0.0
1001
ACAD
1000
AcDbSavedByObjectVersion
1070
     0
  0
VISUALSTYLE
  5
B100
102
{ACAD_XDICTIONARY
360
AF056
102
}
102
{ACAD_REACTORS
330
B0F1
102
}
330
B0F1
100
AcDbVisualStyle
  2

 70
    15
 71
     2
 72
     2
 73
     0
 90
        0
 40
-0.6
 41
-30.0
 62
     5
 63
     7
 74
     1
 91
        4
 64
     7
 65
   257
 75
     1
175
     1
 42
1.0
 92
        8
 66
     7
 43
1.0
 76
     1
 77
     6
 78
     2
 67
     7
 79
     5
170
     0
171
     0
290
     0
174
     0
 93
        1
 44
0.0
173
     0
291
     1
 45
0.0
1001
ACAD
1000
AcDbSavedByObjectVersion
1070
     0
  0
VISUALSTYLE
  5
B0F2
102
{ACAD_XDICTIONARY
360
AF03A
102
}
102
{ACAD_REACTORS
330
B0F1
102
}
330
B0F1
100
AcDbVisualStyle
  2

 70
     0
 71
     2
 72
     1
 73
     1
 90
        2
 40
-0.6
 41
30.0
 62
     5
 63
     7
 74
     0
 91
        4
 64
     7
 65
   257
 75
     1
175
     1
 42
1.0
 92
        8
 66
     7
 43
1.0
 76
     1
 77
     6
 78
     2
 67
     7
 79
     5
170
     0
171
     0
290
     0
174
     0
 93
       13
 44
0.0
173
     0
291
     1
 45
0.0
1001
ACAD
1000
AcDbSavedByObjectVersion
1070
     0
  0
VISUALSTYLE
  5
B0F3
102
{ACAD_XDICTIONARY
360
AF03C
102
}
102
{ACAD_REACTORS
330
B0F1
102
}
330
B0F1
100
AcDbVisualStyle
  2

 70
     1
 71
     2
 72
     1
 73
     1
 90
        2
 40
-0.6
 41
30.0
 62
     5
 63
     7
 74
     1
 91
        4
 64
     7
 65
   257
 75
     1
175
     1
 42
1.0
 92
        0
 66
   257
 43
1.0
 76
     1
 77
     6
 78
     2
 67
     7
 79
     5
170
     0
171
     0
290
     0
174
     0
 93
       13
 44
0.0
173
     0
291
     1
 45
0.0
1001
ACAD
1000
AcDbSavedByObjectVersion
1070
     0
  0
VISUALSTYLE
  5
B0F4
102
{ACAD_XDICTIONARY
360
AF03E
102
}
102
{ACAD_REACTORS
330
B0F1
102
}
330
B0F1
100
AcDbVisualStyle
  2

 70
     2
 71
     2
 72
     2
 73
     1
 90
        2
 40
-0.6
 41
30.0
 62
     5
 63
     7
 74
     0
 91
        4
 64
     7
 65
   257
 75
     1
175
     1
 42
1.0
 92
        0
 66
     7
 43
1.0
 76
     1
 77
     6
 78
     2
 67
     7
 79
     5
170
     0
171
     0
290
     0
174
     0
 93
       13
 44
0.0
173
     0
291
     1
 45
0.0
1001
ACAD
1000
AcDbSavedByObjectVersion
1070
     0
  0
VISUALSTYLE
  5
B0F5
102
{ACAD_XDICTIONARY
360
AF040
102
}
102
{ACAD_REACTORS
330
B0F1
102
}
330
B0F1
100
AcDbVisualStyle
  2

 70
     3
 71
     2
 72
     2
 73
     1
 90
        2
 40
-0.6
 41
30.0
 62
     5
 63
     7
 74
     1
 91
        4
 64
     7
 65
   257
 75
     1
175
     1
 42
1.0
 92
        0
 66
   257
 43
1.0
 76
     1
 77
     6
 78
     2
 67
     7
 79
     5
170
     0
171
     0
290
     0
174
     0
 93
       13
 44
0.0
173
     0
291
     1
 45
0.0
1001
ACAD
1000
AcDbSavedByObjectVersion
1070
     0
  0
VISUALSTYLE
  5
AB254
102
{ACAD_XDICTIONARY
360
AF05C
102
}
102
{ACAD_REACTORS
330
B0F1
102
}
330
B0F1
100
AcDbVisualStyle
  2
Hidden
 70
     6
 71
     1
 72
     2
 73
     2
 90
        0
 40
-0.6
 41
-30.0
 62
     5
 63
     7
 74
     2
 91
        2
 64
     7
 65
   257
 75
     2
175
     1
 42
40.0
 92
        0
 66
   257
 43
1.0
 76
     1
 77
     6
 78
     2
 67
     7
 79
     3
170
     0
171
     0
290
     0
174
     0
 93
        1
 44
0.0
173
     0
291
     0
 45
0.0
1001
ACAD
1000
AcDbSavedByObjectVersion
1070
     0
  0
VISUALSTYLE
  5
AB25A
102
{ACAD_XDICTIONARY
360
AF068
102
}
102
{ACAD_REACTORS
330
B0F1
102
}
330
B0F1
100
AcDbVisualStyle
  2
JitterOff
 70
    20
 71
     2
 72
     2
 73
     0
 90
        0
 40
-0.6
 41
-30.0
 62
     5
 63
     7
 74
     1
 91
        4
 64
     7
 65
   257
 75
     1
175
     1
 42
1.0
 92
       10
 66
     7
 43
1.0
 76
     1
 77
     6
 78
     2
 67
     7
 79
     5
170
     0
171
     0
290
     0
174
     0
 93
        1
 44
0.0
173
     0
291
     1
 45
0.0
1001
ACAD
1000
AcDbSavedByObjectVersion
1070
     0
  0
VISUALSTYLE
  5
B0FF
102
{ACAD_XDICTIONARY
360
AF054
102
}
102
{ACAD_REACTORS
330
B0F1
102
}
330
B0F1
100
AcDbVisualStyle
  2

 70
    14
 71
     2
 72
     2
 73
     0
 90
        0
 40
-0.6
 41
-30.0
 62
     5
 63
     7
 74
     1
 91
        4
 64
     7
 65
   257
 75
     7
175
     7
 42
1.0
 92
        8
 66
     7
 43
1.0
 76
     1
 77
     6
 78
     2
 67
     7
 79
     5
170
     0
171
     0
290
     0
174
     0
 93
        1
 44
0.0
173
     0
291
     1
 45
0.0
1001
ACAD
1000
AcDbSavedByObjectVersion
1070
     0
  0
VISUALSTYLE
  5
AB25B
102
{ACAD_XDICTIONARY
360
AF06A
102
}
102
{ACAD_REACTORS
330
B0F1
102
}
330
B0F1
100
AcDbVisualStyle
  2
OverhangOff
 70
    21
 71
     2
 72
     2
 73
     0
 90
        0
 40
-0.6
 41
-30.0
 62
     5
 63
     7
 74
     1
 91
        4
 64
     7
 65
   257
 75
     1
175
     1
 42
1.0
 92
        9
 66
     7
 43
1.0
 76
     1
 77
     6
 78
     2
 67
     7
 79
     5
170
     0
171
     0
290
     0
174
     0
 93
        1
 44
0.0
173
     0
291
     1
 45
0.0
1001
ACAD
1000
AcDbSavedByObjectVersion
1070
     0
  0
VISUALSTYLE
  5
B0FB
102
{ACAD_XDICTIONARY
360
AF04C
102
}
102
{ACAD_REACTORS
330
B0F1
102
}
330
B0F1
100
AcDbVisualStyle
  2

 70
     8
 71
     2
 72
     2
 73
     0
 90
        0
 40
-0.6
 41
-30.0
 62
     5
 63
     7
 74
     1
 91
        0
 64
     7
 65
   257
 75
     1
175
     1
 42
1.0
 92
        8
 66
     8
 43
1.0
 76
     1
 77
     6
 78
     2
 67
     7
 79
     5
170
     0
171
     0
290
     0
174
     0
 93
       13
 44
0.0
173
     0
291
     0
 45
0.0
1001
ACAD
1000
AcDbSavedByObjectVersion
1070
     0
  0
VISUALSTYLE
  5
AB259
102
{ACAD_XDICTIONARY
360
AF066
102
}
102
{ACAD_REACTORS
330
B0F1
102
}
330
B0F1
100
AcDbVisualStyle
  2
Shaded
 70
    27
 71
     2
 72
     2
 73
     1
 90
        2
 40
-0.6
 41
30.0
 62
     5
 63
     7
 74
     0
 91
        4
 64
     7
 65
   257
 75
     1
175
     1
 42
1.0
 92
        8
 66
   257
 43
1.0
 76
     1
 77
     6
 78
     2
 67
     8
 79
     3
170
     0
171
     0
290
     0
174
     0
 93
        5
 44
0.0
173
     0
291
     0
 45
0.0
1001
ACAD
1000
AcDbSavedByObjectVersion
1070
     0
  0
VISUALSTYLE
  5
AB258
102
{ACAD_XDICTIONARY
360
AF064
102
}
102
{ACAD_REACTORS
330
B0F1
102
}
330
B0F1
100
AcDbVisualStyle
  2
Shaded with edges
 70
    26
 71
     2
 72
     2
 73
     1
 90
        2
 40
-0.6
 41
30.0
 62
     5
 63
     7
 74
     1
 91
       10
 64
     7
 65
   257
 75
     2
175
     1
 42
1.0
 92
        8
 66
   257
 43
1.0
 76
     1
 77
     6
 78
     2
 67
     7
 79
     3
170
     0
171
     0
290
     0
174
     0
 93
        5
 44
0.0
173
     0
291
     0
 45
0.0
1001
ACAD
1000
AcDbSavedByObjectVersion
1070
     0
  0
VISUALSTYLE
  5
AB255
102
{ACAD_XDICTIONARY
360
AF05E
102
}
102
{ACAD_REACTORS
330
B0F1
102
}
330
B0F1
100
AcDbVisualStyle
  2
Shades of Gray
 70
    23
 71
     2
 72
     2
 73
     3
 90
        0
 40
-0.6
 41
-30.0
 62
     5
 63
     7
 74
     2
 91
        2
 64
     7
 65
     7
 75
     1
175
     1
 42
40.0
 92
        8
 66
     7
 43
1.0
 76
     1
 77
     6
 78
     2
 67
     7
 79
     3
170
     0
171
     0
290
     0
174
     0
 93
        1
 44
0.0
173
     0
291
     0
 45
0.0
1001
ACAD
1000
AcDbSavedByObjectVersion
1070
     0
  0
VISUALSTYLE
  5
AB256
102
{ACAD_XDICTIONARY
360
AF060
102
}
102
{ACAD_REACTORS
330
B0F1
102
}
330
B0F1
100
AcDbVisualStyle
  2
Sketchy
 70
    24
 71
     1
 72
     2
 73
     2
 90
        0
 40
-0.6
 41
-30.0
 62
     5
 63
     7
 74
     2
 91
        2
 64
     7
 65
     7
 75
     1
175
     1
 42
40.0
 92
       11
 66
     7
 43
1.0
 76
     1
 77
     6
 78
     2
 67
     7
 79
     6
170
     0
171
     0
290
     0
174
     0
 93
        1
 44
0.0
173
     0
291
     0
 45
0.0
1001
ACAD
1000
AcDbSavedByObjectVersion
1070
     0
  0
VISUALSTYLE
  5
B0FE
102
{ACAD_XDICTIONARY
360
AF052
102
}
102
{ACAD_REACTORS
330
B0F1
102
}
330
B0F1
100
AcDbVisualStyle
  2

 70
    13
 71
     2
 72
     2
 73
     0
 90
        0
 40
-0.6
 41
-30.0
 62
     5
 63
     7
 74
     1
 91
        4
 64
     7
 65
   257
 75
     1
175
     1
 42
1.0
 92
       12
 66
     7
 43
1.0
 76
     1
 77
     6
 78
     2
 67
     7
 79
     5
170
     0
171
     0
290
     0
174
     0
 93
        1
 44
0.0
173
     0
291
     1
 45
0.0
1001
ACAD
1000
AcDbSavedByObjectVersion
1070
     0
  0
VISUALSTYLE
  5
AB253
102
{ACAD_XDICTIONARY
360
AF05A
102
}
102
{ACAD_REACTORS
330
B0F1
102
}
330
B0F1
100
AcDbVisualStyle
  2
Wireframe
 70
     5
 71
     0
 72
     2
 73
     0
 90
        0
 40
-0.6
 41
-30.0
 62
     5
 63
     7
 74
     1
 91
        4
 64
     7
 65
   257
 75
     1
175
     1
 42
1.0
 92
        0
 66
   257
 43
1.0
 76
     1
 77
     6
 78
     2
 67
     7
 79
     3
170
     0
171
     0
290
     0
174
     0
 93
        1
 44
0.0
173
     0
291
     0
 45
0.0
1001
ACAD
1000
AcDbSavedByObjectVersion
1070
     0
  0
VISUALSTYLE
  5
AB257
102
{ACAD_XDICTIONARY
360
AF062
102
}
102
{ACAD_REACTORS
330
B0F1
102
}
330
B0F1
100
AcDbVisualStyle
  2
X-Ray
 70
    25
 71
     2
 72
     2
 73
     1
 90
        1
 40
0.5
 41
-30.0
 62
     5
 63
     7
 74
     1
 91
        0
 64
     7
 65
   257
 75
     1
175
     1
 42
1.0
 92
        8
 66
     7
 43
1.0
 76
     1
 77
     6
 78
     2
 67
     7
 79
     3
170
     0
171
     0
290
     0
174
     0
 93
       13
 44
0.0
173
     0
291
     0
 45
0.0
1001
ACAD
1000
AcDbSavedByObjectVersion
1070
     0
  0
DICTIONARYVAR
  5
AB68F
102
{ACAD_REACTORS
330
34
102
}
330
34
100
DictionaryVariables
280
     0
  1
1:1
  0
DICTIONARYVAR
  5
AB68B
102
{ACAD_REACTORS
330
34
102
}
330
34
100
DictionaryVariables
280
     0
  1
STANDARD
  0
DICTIONARYVAR
  5
AAF3
102
{ACAD_REACTORS
330
34
102
}
330
34
100
DictionaryVariables
280
     0
  1
STANDARD
  0
DICTIONARYVAR
  5
AB68C
102
{ACAD_REACTORS
330
34
102
}
330
34
100
DictionaryVariables
280
     0
  1
Metric50
  0
DICTIONARYVAR
  5
AB68D
102
{ACAD_REACTORS
330
34
102
}
330
34
100
DictionaryVariables
280
     0
  1
Metric50
  0
DICTIONARYVAR
  5
A10C
102
{ACAD_REACTORS
330
34
102
}
330
34
100
DictionaryVariables
280
     0
  1
1
  0
DICTIONARYVAR
  5
AB07
102
{ACAD_REACTORS
330
34
102
}
330
34
100
DictionaryVariables
280
     0
  1
4
  0
DICTIONARYVAR
  5
35
102
{ACAD_REACTORS
330
34
102
}
330
34
100
DictionaryVariables
280
     0
  1
0
  0
DICTIONARYVAR
  5
AB691
102
{ACAD_REACTORS
330
34
102
}
330
34
100
DictionaryVariables
280
     0
  1
1
  0
DICTIONARYVAR
  5
AB692
102
{ACAD_REACTORS
330
34
102
}
330
34
100
DictionaryVariables
280
     0
  1
15
  0
DICTIONARYVAR
  5
AB690
102
{ACAD_REACTORS
330
34
102
}
330
34
100
DictionaryVariables
280
     0
  1
0
  0
DICTIONARYVAR
  5
AB68E
102
{ACAD_REACTORS
330
34
102
}
330
34
100
DictionaryVariables
280
     0
  1
0
  0
DICTIONARYVAR
  5
194C
102
{ACAD_REACTORS
330
34
102
}
330
34
100
DictionaryVariables
280
     0
  1
96
  0
DICTIONARYVAR
  5
AF024
102
{ACAD_REACTORS
330
34
102
}
330
34
100
DictionaryVariables
280
     0
  1
2
  0
DICTIONARY
  5
AF032
102
{ACAD_REACTORS
330
AF030
102
}
330
AF030
100
AcDbDictionary
281
     1
  0
DICTIONARY
  5
AF031
102
{ACAD_REACTORS
330
AF030
102
}
330
AF030
100
AcDbDictionary
281
     1
  3
2129696152
350
AF02B
  3
2129696160
350
AF02C
  3
2129696168
350
AF02D
  3
2129696176
350
AF02E
  3
2129696184
350
AF02F
  0
DICTIONARY
  5
7E8
102
{ACAD_REACTORS
330
47
102
}
330
47
100
AcDbDictionary
281
     1
  0
DICTIONARY
  5
4C
102
{ACAD_REACTORS
330
47
102
}
330
47
100
AcDbDictionary
281
     1
  0
XRECORD
  5
A929
102
{ACAD_REACTORS
330
47
102
}
330
47
100
AcDbXrecord
280
     1
 90
-1023410169
  0
XRECORD
  5
AA8D9
102
{ACAD_REACTORS
330
AA8D8
102
}
330
AA8D8
100
AcDbXrecord
280
     1
330
0
330
0
330
0
330
0
330
0
330
0
330
0
330
0
330
0
330
0
330
0
330
0
330
0
330
0
330
0
330
0
330
0
330
0
330
0
330
0
330
0
330
0
330
0
330
0
330
0
330
0
330
0
330
0
330
0
330
0
330
0
330
0
330
0
330
0
330
0
330
0
330
0
330
0
330
0
330
0
330
0
330
0
330
0
330
0
330
0
330
0
330
0
330
0
330
0
330
0
330
0
330
0
330
0
330
0
330
0
330
0
330
0
330
0
330
0
330
0
330
0
330
0
330
0
330
0
330
0
330
0
330
0
330
0
330
0
330
0
330
0
330
0
330
0
330
0
330
0
330
0
330
0
330
0
330
0
330
0
330
0
330
0
330
0
330
0
330
0
330
0
330
0
330
0
330
0
330
0
330
0
330
0
330
0
330
0
330
0
330
0
330
0
330
0
330
0
330
0
330
0
330
0
330
0
330
0
330
0
330
0
330
0
330
0
330
0
330
0
330
0
330
0
330
0
330
0
330
0
330
0
330
0
330
0
330
0
330
0
330
0
330
0
330
0
330
0
330
0
330
0
330
0
330
0
330
0
330
0
330
0
330
0
330
0
330
0
330
0
330
0
330
0
330
0
330
0
330
0
330
0
330
0
330
0
330
0
330
0
330
0
330
0
330
0
330
0
330
0
330
0
330
0
330
0
330
0
330
0
330
0
330
0
330
0
330
0
330
0
330
0
330
0
330
0
330
0
330
0
330
0
330
0
330
0
330
0
330
0
330
0
330
0
330
0
330
0
330
0
330
0
330
0
330
0
330
0
330
0
330
0
330
0
330
0
330
0
330
0
330
0
330
0
330
0
330
0
330
0
330
0
330
0
330
0
330
0
330
0
330
0
330
0
330
0
330
0
330
0
330
0
330
0
330
0
330
0
330
0
330
0
330
0
330
0
330
0
330
0
330
0
330
0
330
0
330
0
330
0
330
0
330
0
330
0
330
0
330
0
330
0
330
0
330
0
330
0
330
0
330
0
330
0
330
0
330
0
330
0
330
0
330
0
330
0
330
0
330
0
330
0
330
0
330
0
330
0
330
0
330
0
330
0
330
0
330
0
330
0
330
0
330
0
330
0
330
0
330
0
330
0
330
0
330
0
330
0
330
0
330
0
330
0
330
0
330
0
330
0
330
0
330
0
330
0
330
0
330
0
330
0
330
0
330
0
330
0
330
0
330
0
330
0
330
0
330
0
330
0
330
0
330
0
330
0
330
0
330
0
330
0
330
0
330
0
330
0
330
0
330
0
330
0
330
0
330
0
330
0
330
0
330
0
330
0
330
0
330
0
330
0
330
0
330
0
330
0
330
0
330
0
330
0
330
0
330
0
330
0
330
0
330
0
330
0
330
0
330
0
330
0
330
0
330
0
330
0
330
0
330
0
330
0
330
0
330
0
330
0
330
0
330
0
330
0
330
0
330
0
330
0
330
0
330
0
330
0
330
0
330
0
330
0
330
0
330
0
330
0
330
0
330
0
330
0
330
0
330
0
330
0
330
0
330
0
330
0
330
0
330
0
330
0
330
0
330
0
330
0
330
0
330
0
330
0
330
0
330
0
330
0
330
0
330
0
330
0
330
0
330
0
330
0
330
0
330
0
330
0
330
0
330
0
330
0
330
0
330
0
330
0
330
0
330
0
330
0
330
0
330
0
330
0
330
0
330
0
330
0
330
0
330
0
330
0
330
0
330
0
330
0
330
0
330
0
330
0
330
0
330
0
330
0
330
0
330
0
330
0
330
0
330
0
330
0
330
0
330
0
330
0
330
0
330
0
330
0
330
0
330
0
330
0
330
0
330
0
330
0
330
0
330
0
330
0
330
0
330
0
330
0
330
0
330
0
330
0
330
0
330
0
330
0
330
0
330
0
330
0
330
0
330
0
330
0
330
0
330
0
330
0
330
0
330
0
330
0
330
0
330
0
330
0
330
0
330
0
330
0
330
0
330
0
330
0
330
0
330
0
330
0
330
0
330
0
330
0
330
0
330
0
330
0
330
0
330
0
330
0
330
0
330
0
330
0
330
0
330
0
330
0
330
0
330
0
330
0
330
0
330
0
330
0
330
0
330
0
330
0
330
0
330
0
330
0
330
0
330
0
330
0
330
0
330
0
330
0
330
0
330
0
330
0
330
0
330
0
330
0
330
0
330
0
330
0
330
0
330
0
330
0
330
0
330
0
330
0
330
0
330
0
  0
XRECORD
  5
3FB7
102
{ACAD_REACTORS
330
3F96
102
}
330
3F96
100
AcDbXrecord
280
     1
 91
        3
330
0
 90
        8
 62
     7
370
    40
331
16
  1
Color_7
330
0
 90
        0
 62
    14
370
    -3
331
16
  1
Color_14
330
0
 90
        8
 62
     7
370
    20
331
16
  1
Color_7
330
6D1
 90
        0
 62
     7
370
    -3
331
16
  1
Color_7
330
0
 90
        8
 62
     7
370
    50
331
16
  1
Color_7
330
0
 90
        8
 62
     2
370
    35
331
16
  1
Color_2
330
0
 90
        8
 62
     7
370
    -3
331
16
  1
Color_7
330
10
 90
        8
 62
     7
370
    -3
331
16
  1
Color_7
  0
DICTIONARY
  5
AF035
330
22
100
AcDbDictionary
280
     1
281
     1
  3
ACAD_XREC_ROUNDTRIP
360
AF036
  0
DICTIONARY
  5
AF033
330
1E
100
AcDbDictionary
280
     1
281
     1
  3
ACAD_XREC_ROUNDTRIP
360
AF034
  0
DICTIONARY
  5
AF037
330
26
100
AcDbDictionary
280
     1
281
     1
  3
ACAD_XREC_ROUNDTRIP
360
AF038
  0
DICTIONARY
  5
AB24D
330
B0EF
100
AcDbDictionary
280
     1
281
     1
  3
ACAD_XREC_ROUNDTRIP
360
AB24E
  0
DICTIONARY
  5
AB24B
330
B0EE
100
AcDbDictionary
280
     1
281
     1
  3
ACAD_XREC_ROUNDTRIP
360
AB24C
  0
DICTIONARY
  5
AB24F
330
B0F0
100
AcDbDictionary
280
     1
281
     1
  3
ACAD_XREC_ROUNDTRIP
360
AB250
  0
DICTIONARY
  5
AF025
330
AABA
100
AcDbDictionary
280
     1
281
     1
  3
ACAD_ROUNDTRIP_2008_TABLESTYLE_CELLSTYLEMAP
360
AF026
  3
ACAD_XREC_ROUNDTRIP
360
AF039
  0
DICTIONARY
  5
AF044
330
B0F7
100
AcDbDictionary
280
     1
281
     1
  3
ACAD_XREC_ROUNDTRIP
360
AF045
  0
DICTIONARY
  5
AF048
330
B0F9
100
AcDbDictionary
280
     1
281
     1
  3
ACAD_XREC_ROUNDTRIP
360
AF049
  0
DICTIONARY
  5
AF046
330
B0F8
100
AcDbDictionary
280
     1
281
     1
  3
ACAD_XREC_ROUNDTRIP
360
AF047
  0
DICTIONARY
  5
AF042
330
B0F6
100
AcDbDictionary
280
     1
281
     1
  3
ACAD_XREC_ROUNDTRIP
360
AF043
  0
DICTIONARY
  5
AF050
330
B0FD
100
AcDbDictionary
280
     1
281
     1
  3
ACAD_XREC_ROUNDTRIP
360
AF051
  0
DICTIONARY
  5
AF058
330
B101
100
AcDbDictionary
280
     1
281
     1
  3
ACAD_XREC_ROUNDTRIP
360
AF059
  0
DICTIONARY
  5
AF04A
330
B0FA
100
AcDbDictionary
280
     1
281
     1
  3
ACAD_XREC_ROUNDTRIP
360
AF04B
  0
DICTIONARY
  5
AF04E
330
B0FC
100
AcDbDictionary
280
     1
281
     1
  3
ACAD_XREC_ROUNDTRIP
360
AF04F
  0
DICTIONARY
  5
AF06C
330
AB25C
100
AcDbDictionary
280
     1
281
     1
  3
ACAD_XREC_ROUNDTRIP
360
AF06D
  0
DICTIONARY
  5
AF056
330
B100
100
AcDbDictionary
280
     1
281
     1
  3
ACAD_XREC_ROUNDTRIP
360
AF057
  0
DICTIONARY
  5
AF03A
330
B0F2
100
AcDbDictionary
280
     1
281
     1
  3
ACAD_XREC_ROUNDTRIP
360
AF03B
  0
DICTIONARY
  5
AF03C
330
B0F3
100
AcDbDictionary
280
     1
281
     1
  3
ACAD_XREC_ROUNDTRIP
360
AF03D
  0
DICTIONARY
  5
AF03E
330
B0F4
100
AcDbDictionary
280
     1
281
     1
  3
ACAD_XREC_ROUNDTRIP
360
AF03F
  0
DICTIONARY
  5
AF040
330
B0F5
100
AcDbDictionary
280
     1
281
     1
  3
ACAD_XREC_ROUNDTRIP
360
AF041
  0
DICTIONARY
  5
AF05C
330
AB254
100
AcDbDictionary
280
     1
281
     1
  3
ACAD_XREC_ROUNDTRIP
360
AF05D
  0
DICTIONARY
  5
AF068
330
AB25A
100
AcDbDictionary
280
     1
281
     1
  3
ACAD_XREC_ROUNDTRIP
360
AF069
  0
DICTIONARY
  5
AF054
330
B0FF
100
AcDbDictionary
280
     1
281
     1
  3
ACAD_XREC_ROUNDTRIP
360
AF055
  0
DICTIONARY
  5
AF06A
330
AB25B
100
AcDbDictionary
280
     1
281
     1
  3
ACAD_XREC_ROUNDTRIP
360
AF06B
  0
DICTIONARY
  5
AF04C
330
B0FB
100
AcDbDictionary
280
     1
281
     1
  3
ACAD_XREC_ROUNDTRIP
360
AF04D
  0
DICTIONARY
  5
AF066
330
AB259
100
AcDbDictionary
280
     1
281
     1
  3
ACAD_XREC_ROUNDTRIP
360
AF067
  0
DICTIONARY
  5
AF064
330
AB258
100
AcDbDictionary
280
     1
281
     1
  3
ACAD_XREC_ROUNDTRIP
360
AF065
  0
DICTIONARY
  5
AF05E
330
AB255
100
AcDbDictionary
280
     1
281
     1
  3
ACAD_XREC_ROUNDTRIP
360
AF05F
  0
DICTIONARY
  5
AF060
330
AB256
100
AcDbDictionary
280
     1
281
     1
  3
ACAD_XREC_ROUNDTRIP
360
AF061
  0
DICTIONARY
  5
AF052
330
B0FE
100
AcDbDictionary
280
     1
281
     1
  3
ACAD_XREC_ROUNDTRIP
360
AF053
  0
DICTIONARY
  5
AF05A
330
AB253
100
AcDbDictionary
280
     1
281
     1
  3
ACAD_XREC_ROUNDTRIP
360
AF05B
  0
DICTIONARY
  5
AF062
330
AB257
100
AcDbDictionary
280
     1
281
     1
  3
ACAD_XREC_ROUNDTRIP
360
AF063
  0
XRECORD
  5
AF02B
102
{ACAD_REACTORS
330
AF031
102
}
330
AF031
100
AcDbXrecord
280
     1
  1
AcDb_Thumbnail_Schema
102
{ATTRRECORD
341
AF02C
  2
AcDbDs::TreatedAsObjectData
280
     1
291
     1
102
ATTRRECORD}
102
{ATTRRECORD
341
AF02D
  2
AcDbDs::Legacy
280
     1
291
     1
102
ATTRRECORD}
  2
AcDbDs::ID
280
    10
 91
        8
102
{ATTRRECORD
341
AF02E
  2
AcDs:Indexable
280
     1
291
     1
102
ATTRRECORD}
102
{ATTRRECORD
341
AF02F
  2
AcDbDs::HandleAttribute
280
     7
282
     1
102
ATTRRECORD}
  2
Thumbnail_Data
280
    15
 91
        0
  0
XRECORD
  5
AF02C
102
{ACAD_REACTORS
330
AF031
102
}
330
AF031
100
AcDbXrecord
280
     1
  1
AcDbDs::TreatedAsObjectDataSchema
  2
AcDbDs::TreatedAsObjectData
280
     1
 91
        0
  0
XRECORD
  5
AF02D
102
{ACAD_REACTORS
330
AF031
102
}
330
AF031
100
AcDbXrecord
280
     1
  1
AcDbDs::LegacySchema
  2
AcDbDs::Legacy
280
     1
 91
        0
  0
XRECORD
  5
AF02E
102
{ACAD_REACTORS
330
AF031
102
}
330
AF031
100
AcDbXrecord
280
     1
  1
AcDbDs::IndexedPropertySchema
  2
AcDs:Indexable
280
     1
 91
        0
  0
XRECORD
  5
AF02F
102
{ACAD_REACTORS
330
AF031
102
}
330
AF031
100
AcDbXrecord
280
     1
  1
AcDbDs::HandleAttributeSchema
  2
AcDbDs::HandleAttribute
280
     7
 91
        1
284
     1
  0
XRECORD
  5
AF036
102
{ACAD_REACTORS
330
AF035
102
}
330
AF035
100
AcDbXrecord
280
     1
102
SHADEPLOT
 70
     1
102
SHADEPLOTRESLEVEL
 70
     2
102
SHADEPLOTCUSTOMDPI
 70
   300
  0
XRECORD
  5
AF034
102
{ACAD_REACTORS
330
AF033
102
}
330
AF033
100
AcDbXrecord
280
     1
102
SHADEPLOT
 70
     0
102
SHADEPLOTRESLEVEL
 70
     2
102
SHADEPLOTCUSTOMDPI
 70
   300
  0
XRECORD
  5
AF038
102
{ACAD_REACTORS
330
AF037
102
}
330
AF037
100
AcDbXrecord
280
     1
102
SHADEPLOT
 70
     0
102
SHADEPLOTRESLEVEL
 70
     2
102
SHADEPLOTCUSTOMDPI
 70
   300
  0
XRECORD
  5
AB24E
102
{ACAD_REACTORS
330
AB24D
102
}
330
AB24D
100
AcDbXrecord
280
     1
102
MATERIAL
148
0.0
149
0.0
149
0.0
 93
        0
 94
      127
282
     0
 72
     1
 77
     1
171
     1
175
     1
179
     1
273
     0
  0
XRECORD
  5
AB24C
102
{ACAD_REACTORS
330
AB24B
102
}
330
AB24B
100
AcDbXrecord
280
     1
102
MATERIAL
148
0.0
149
0.0
149
0.0
 93
        0
 94
      127
282
     0
 72
     1
 77
     1
171
     1
175
     1
179
     1
273
     0
  0
XRECORD
  5
AB250
102
{ACAD_REACTORS
330
AB24F
102
}
330
AB24F
100
AcDbXrecord
280
     1
102
MATERIAL
148
0.0
149
0.0
149
0.0
 93
        0
 94
      127
282
     0
 72
     1
 77
     1
171
     1
175
     1
179
     1
273
     0
  0
CELLSTYLEMAP
  5
AF026
102
{ACAD_REACTORS
330
AF025
102
}
330
AF025
100
AcDbCellStyleMap
 90
        3
300
CELLSTYLE
  1
TABLEFORMAT_BEGIN
 90
        5
170
     1
 91
        0
 92
    32768
 62
   257
 93
        1
300
CONTENTFORMAT
  1
CONTENTFORMAT_BEGIN
 90
        0
 91
        0
 92
        4
 93
        0
300

 40
0.0
140
1.0
 94
        5
 62
     0
340
11
144
6.0
309
CONTENTFORMAT_END
171
     1
301
MARGIN
  1
CELLMARGIN_BEGIN
 40
1.5
 40
1.5
 40
1.5
 40
1.5
 40
0.18
 40
0.18
309
CELLMARGIN_END
 94
        6
 95
        1
302
GRIDFORMAT
  1
GRIDFORMAT_BEGIN
 90
        0
 91
        1
 62
     0
 92
       -2
340
0
 93
        0
 40
0.045
309
GRIDFORMAT_END
 95
        2
302
GRIDFORMAT
  1
GRIDFORMAT_BEGIN
 90
        0
 91
        1
 62
     0
 92
       -2
340
0
 93
        0
 40
0.045
309
GRIDFORMAT_END
 95
        4
302
GRIDFORMAT
  1
GRIDFORMAT_BEGIN
 90
        0
 91
        1
 62
     0
 92
       -2
340
0
 93
        0
 40
0.045
309
GRIDFORMAT_END
 95
        8
302
GRIDFORMAT
  1
GRIDFORMAT_BEGIN
 90
        0
 91
        1
 62
     0
 92
       -2
340
0
 93
        0
 40
0.045
309
GRIDFORMAT_END
 95
       16
302
GRIDFORMAT
  1
GRIDFORMAT_BEGIN
 90
        0
 91
        1
 62
     0
 92
       -2
340
0
 93
        0
 40
0.045
309
GRIDFORMAT_END
 95
       32
302
GRIDFORMAT
  1
GRIDFORMAT_BEGIN
 90
        0
 91
        1
 62
     0
 92
       -2
340
0
 93
        0
 40
0.045
309
GRIDFORMAT_END
309
TABLEFORMAT_END
  1
CELLSTYLE_BEGIN
 90
        1
 91
        1
300
_TITLE
309
CELLSTYLE_END
300
CELLSTYLE
  1
TABLEFORMAT_BEGIN
 90
        5
170
     1
 91
        0
 92
        0
 62
   257
 93
        1
300
CONTENTFORMAT
  1
CONTENTFORMAT_BEGIN
 90
        0
 91
        0
 92
        4
 93
        0
300

 40
0.0
140
1.0
 94
        5
 62
     0
340
11
144
4.5
309
CONTENTFORMAT_END
171
     1
301
MARGIN
  1
CELLMARGIN_BEGIN
 40
1.5
 40
1.5
 40
1.5
 40
1.5
 40
0.18
 40
0.18
309
CELLMARGIN_END
 94
        6
 95
        1
302
GRIDFORMAT
  1
GRIDFORMAT_BEGIN
 90
        0
 91
        1
 62
     0
 92
       -2
340
0
 93
        0
 40
0.045
309
GRIDFORMAT_END
 95
        2
302
GRIDFORMAT
  1
GRIDFORMAT_BEGIN
 90
        0
 91
        1
 62
     0
 92
       -2
340
0
 93
        0
 40
0.045
309
GRIDFORMAT_END
 95
        4
302
GRIDFORMAT
  1
GRIDFORMAT_BEGIN
 90
        0
 91
        1
 62
     0
 92
       -2
340
0
 93
        0
 40
0.045
309
GRIDFORMAT_END
 95
        8
302
GRIDFORMAT
  1
GRIDFORMAT_BEGIN
 90
        0
 91
        1
 62
     0
 92
       -2
340
0
 93
        0
 40
0.045
309
GRIDFORMAT_END
 95
       16
302
GRIDFORMAT
  1
GRIDFORMAT_BEGIN
 90
        0
 91
        1
 62
     0
 92
       -2
340
0
 93
        0
 40
0.045
309
GRIDFORMAT_END
 95
       32
302
GRIDFORMAT
  1
GRIDFORMAT_BEGIN
 90
        0
 91
        1
 62
     0
 92
       -2
340
0
 93
        0
 40
0.045
309
GRIDFORMAT_END
309
TABLEFORMAT_END
  1
CELLSTYLE_BEGIN
 90
        2
 91
        1
300
_HEADER
309
CELLSTYLE_END
300
CELLSTYLE
  1
TABLEFORMAT_BEGIN
 90
        5
170
     1
 91
        0
 92
        0
 62
   257
 93
        1
300
CONTENTFORMAT
  1
CONTENTFORMAT_BEGIN
 90
        0
 91
        0
 92
        4
 93
        0
300

 40
0.0
140
1.0
 94
        2
 62
     0
340
11
144
4.5
309
CONTENTFORMAT_END
171
     1
301
MARGIN
  1
CELLMARGIN_BEGIN
 40
1.5
 40
1.5
 40
1.5
 40
1.5
 40
0.18
 40
0.18
309
CELLMARGIN_END
 94
        6
 95
        1
302
GRIDFORMAT
  1
GRIDFORMAT_BEGIN
 90
        0
 91
        1
 62
     0
 92
       -2
340
0
 93
        0
 40
0.045
309
GRIDFORMAT_END
 95
        2
302
GRIDFORMAT
  1
GRIDFORMAT_BEGIN
 90
        0
 91
        1
 62
     0
 92
       -2
340
0
 93
        0
 40
0.045
309
GRIDFORMAT_END
 95
        4
302
GRIDFORMAT
  1
GRIDFORMAT_BEGIN
 90
        0
 91
        1
 62
     0
 92
       -2
340
0
 93
        0
 40
0.045
309
GRIDFORMAT_END
 95
        8
302
GRIDFORMAT
  1
GRIDFORMAT_BEGIN
 90
        0
 91
        1
 62
     0
 92
       -2
340
0
 93
        0
 40
0.045
309
GRIDFORMAT_END
 95
       16
302
GRIDFORMAT
  1
GRIDFORMAT_BEGIN
 90
        0
 91
        1
 62
     0
 92
       -2
340
0
 93
        0
 40
0.045
309
GRIDFORMAT_END
 95
       32
302
GRIDFORMAT
  1
GRIDFORMAT_BEGIN
 90
        0
 91
        1
 62
     0
 92
       -2
340
0
 93
        0
 40
0.045
309
GRIDFORMAT_END
309
TABLEFORMAT_END
  1
CELLSTYLE_BEGIN
 90
        3
 91
        2
300
_DATA
309
CELLSTYLE_END
  0
XRECORD
  5
AF039
102
{ACAD_REACTORS
330
AF025
102
}
330
AF025
100
AcDbXrecord
280
     1
102
ACAD_ROUNDTRIP_PRE2007_TABLESTYLE
 90
        4
 91
        0
  1

 92
        4
 93
        0
  2

 94
        4
 95
        0
  3

  0
XRECORD
  5
AF045
102
{ACAD_REACTORS
330
AF044
102
}
330
AF044
100
AcDbXrecord
280
     1
102
RTVSPost2010Prop28
280
     1
102
RTVSPost2010PropOp28
 70
     1
102
RTVSPost2010Prop29
280
     1
102
RTVSPost2010PropOp29
 70
     1
102
RTVSPost2010Prop30
280
     0
102
RTVSPost2010PropOp30
 70
     1
102
RTVSPost2010Prop31
280
     0
102
RTVSPost2010PropOp31
 70
     1
102
RTVSPost2010Prop32
280
     0
102
RTVSPost2010PropOp32
 70
     1
102
RTVSPost2010Prop33
280
     0
102
RTVSPost2010PropOp33
 70
     1
102
RTVSPost2010Prop34
280
     0
102
RTVSPost2010PropOp34
 70
     1
102
RTVSPost2010Prop35
280
     0
102
RTVSPost2010PropOp35
 70
     1
102
RTVSPost2010Prop36
280
     0
102
RTVSPost2010PropOp36
 70
     1
102
RTVSPost2010Prop37
 90
       50
102
RTVSPost2010PropOp37
 70
     1
102
RTVSPost2010Prop38
140
0.0
102
RTVSPost2010PropOp38
 70
     1
102
RTVSPost2010Prop39
140
1.0
102
RTVSPost2010PropOp39
 70
     1
102
RTVSPost2010Prop40
 90
        0
102
RTVSPost2010PropOp40
 70
     1
102
RTVSPost2010Prop41ColorIndex
 90
       18
102
RTVSPost2010Prop41ColorRGB
 90
        0
102
RTVSPost2010PropOp41
 70
     1
102
RTVSPost2010Prop42
 90
       50
102
RTVSPost2010PropOp42
 70
     1
102
RTVSPost2010Prop43
 90
        3
102
RTVSPost2010PropOp43
 70
     1
102
RTVSPost2010Prop44ColorIndex
 90
        5
102
RTVSPost2010Prop44ColorRGB
 90
      255
102
RTVSPost2010PropOp44
 70
     1
102
RTVSPost2010Prop45
280
     0
102
RTVSPost2010PropOp45
 70
     1
102
RTVSPost2010Prop46
 90
       50
102
RTVSPost2010PropOp46
 70
     1
102
RTVSPost2010Prop47
 90
       50
102
RTVSPost2010PropOp47
 70
     1
102
RTVSPost2010Prop48
 90
       50
102
RTVSPost2010PropOp48
 70
     1
102
RTVSPost2010Prop49
280
     0
102
RTVSPost2010PropOp49
 70
     1
102
RTVSPost2010Prop50
 90
       50
102
RTVSPost2010PropOp50
 70
     1
102
RTVSPost2010Prop51ColorIndex
 90
      256
102
RTVSPost2010Prop51ColorRGB
 90
-16777216
102
RTVSPost2010PropOp51
 70
     0
102
RTVSPost2010Prop52
140
1.0
102
RTVSPost2010PropOp52
 70
     0
102
RTVSPost2010Prop53
 90
        2
102
RTVSPost2010PropOp53
 70
     1
102
RTVSPost2010Prop54
  1
strokes_ogs.tif
102
RTVSPost2010PropOp54
 70
     1
102
RTVSPost2010Prop55
280
     0
102
RTVSPost2010PropOp55
 70
     1
102
RTVSPost2010Prop56
140
1.0
102
RTVSPost2010PropOp56
 70
     1
102
RTVSPost2010Prop57
140
1.0
102
RTVSPost2010PropOp57
 70
     1
102
RTVSPropertyOp0
 70
     1
102
RTVSPropertyOp1
 70
     1
102
RTVSPropertyOp2
 70
     1
102
RTVSPropertyOp3
 70
     1
102
RTVSPropertyOp4
 70
     1
102
RTVSPropertyOp5
 70
     1
102
RTVSPropertyOp6
 70
     1
102
RTVSPropertyOp7
 70
     1
102
RTVSPropertyOp8
 70
     1
102
RTVSPropertyOp9
 70
     1
102
RTVSPropertyOp10
 70
     1
102
RTVSPropertyOp11
 70
     1
102
RTVSPropertyOp12
 70
     1
102
RTVSPropertyOp13
 70
     1
102
RTVSPropertyOp14
 70
     1
102
RTVSPropertyOp15
 70
     1
102
RTVSPropertyOp16
 70
     1
102
RTVSPropertyOp17
 70
     1
102
RTVSPropertyOp18
 70
     1
102
RTVSPropertyOp19
 70
     1
102
RTVSPropertyOp20
 70
     1
102
RTVSPropertyOp21
 70
     1
102
RTVSPropertyOp22
 70
     1
102
RTVSPropertyOp23
 70
     1
102
RTVSPropertyOp24
 70
     1
102
RTVSPropertyOp25
 70
     1
102
RTVSPropertyOp26
 70
     1
102
RTVSPropertyOp27
 70
     1
102
RTVSPropertyOp28
 70
     1
102
RTVSPropertyOp29
 70
     1
102
RTVSPropertyOp30
 70
     1
102
RTVSPropertyOp31
 70
     1
102
RTVSPropertyOp32
 70
     1
102
RTVSPropertyOp33
 70
     1
102
RTVSPropertyOp34
 70
     1
102
RTVSPropertyOp35
 70
     1
102
RTVSPropertyOp36
 70
     1
102
RTVSPropertyOp37
 70
     1
102
RTVSPropertyOp38
 70
     1
102
RTVSPropertyOp39
 70
     1
102
RTVSPropertyOp40
 70
     1
102
RTVSPropertyOp41
 70
     1
102
RTVSPropertyOp42
 70
     1
102
RTVSPropertyOp43
 70
     1
102
RTVSPropertyOp44
 70
     1
102
RTVSPropertyOp45
 70
     1
102
RTVSPropertyOp46
 70
     1
102
RTVSPropertyOp47
 70
     1
102
RTVSPropertyOp48
 70
     1
102
RTVSPropertyOp49
 70
     1
102
RTVSPropertyOp50
 70
     1
102
RTVSPropertyOp51
 70
     0
102
RTVSPropertyOp52
 70
     0
102
RTVSPropertyOp53
 70
     1
102
RTVSPropertyOp54
 70
     1
102
RTVSPropertyOp55
 70
     1
102
RTVSPropertyOp56
 70
     1
102
RTVSPropertyOp57
 70
     1
102
RTVSPropertyOp58
 70
     1
102
RTVSPropertyOp59
 70
     1
102
RTVSPropertyOp60
 70
     1
102
RTVSPropertyOp61
 70
     1
102
RTVSPropertyOp62
 70
     1
  0
XRECORD
  5
AF049
102
{ACAD_REACTORS
330
AF048
102
}
330
AF048
100
AcDbXrecord
280
     1
102
RTVSPost2010Prop28
280
     0
102
RTVSPost2010PropOp28
 70
     1
102
RTVSPost2010Prop29
280
     1
102
RTVSPost2010PropOp29
 70
     1
102
RTVSPost2010Prop30
280
     1
102
RTVSPost2010PropOp30
 70
     1
102
RTVSPost2010Prop31
280
     0
102
RTVSPost2010PropOp31
 70
     1
102
RTVSPost2010Prop32
280
     0
102
RTVSPost2010PropOp32
 70
     1
102
RTVSPost2010Prop33
280
     0
102
RTVSPost2010PropOp33
 70
     1
102
RTVSPost2010Prop34
280
     0
102
RTVSPost2010PropOp34
 70
     1
102
RTVSPost2010Prop35
280
     0
102
RTVSPost2010PropOp35
 70
     1
102
RTVSPost2010Prop36
280
     0
102
RTVSPost2010PropOp36
 70
     1
102
RTVSPost2010Prop37
 90
       50
102
RTVSPost2010PropOp37
 70
     1
102
RTVSPost2010Prop38
140
0.0
102
RTVSPost2010PropOp38
 70
     1
102
RTVSPost2010Prop39
140
1.0
102
RTVSPost2010PropOp39
 70
     1
102
RTVSPost2010Prop40
 90
        0
102
RTVSPost2010PropOp40
 70
     1
102
RTVSPost2010Prop41ColorIndex
 90
       18
102
RTVSPost2010Prop41ColorRGB
 90
        0
102
RTVSPost2010PropOp41
 70
     1
102
RTVSPost2010Prop42
 90
       50
102
RTVSPost2010PropOp42
 70
     1
102
RTVSPost2010Prop43
 90
        3
102
RTVSPost2010PropOp43
 70
     1
102
RTVSPost2010Prop44ColorIndex
 90
        5
102
RTVSPost2010Prop44ColorRGB
 90
      255
102
RTVSPost2010PropOp44
 70
     1
102
RTVSPost2010Prop45
280
     0
102
RTVSPost2010PropOp45
 70
     1
102
RTVSPost2010Prop46
 90
       50
102
RTVSPost2010PropOp46
 70
     1
102
RTVSPost2010Prop47
 90
       50
102
RTVSPost2010PropOp47
 70
     1
102
RTVSPost2010Prop48
 90
       50
102
RTVSPost2010PropOp48
 70
     1
102
RTVSPost2010Prop49
280
     0
102
RTVSPost2010PropOp49
 70
     1
102
RTVSPost2010Prop50
 90
       50
102
RTVSPost2010PropOp50
 70
     1
102
RTVSPost2010Prop51ColorIndex
 90
      256
102
RTVSPost2010Prop51ColorRGB
 90
-16777216
102
RTVSPost2010PropOp51
 70
     0
102
RTVSPost2010Prop52
140
1.0
102
RTVSPost2010PropOp52
 70
     0
102
RTVSPost2010Prop53
 90
        2
102
RTVSPost2010PropOp53
 70
     1
102
RTVSPost2010Prop54
  1
strokes_ogs.tif
102
RTVSPost2010PropOp54
 70
     1
102
RTVSPost2010Prop55
280
     0
102
RTVSPost2010PropOp55
 70
     1
102
RTVSPost2010Prop56
140
1.0
102
RTVSPost2010PropOp56
 70
     1
102
RTVSPost2010Prop57
140
1.0
102
RTVSPost2010PropOp57
 70
     1
102
RTVSPropertyOp0
 70
     1
102
RTVSPropertyOp1
 70
     1
102
RTVSPropertyOp2
 70
     1
102
RTVSPropertyOp3
 70
     1
102
RTVSPropertyOp4
 70
     1
102
RTVSPropertyOp5
 70
     1
102
RTVSPropertyOp6
 70
     1
102
RTVSPropertyOp7
 70
     1
102
RTVSPropertyOp8
 70
     1
102
RTVSPropertyOp9
 70
     1
102
RTVSPropertyOp10
 70
     1
102
RTVSPropertyOp11
 70
     1
102
RTVSPropertyOp12
 70
     1
102
RTVSPropertyOp13
 70
     1
102
RTVSPropertyOp14
 70
     1
102
RTVSPropertyOp15
 70
     1
102
RTVSPropertyOp16
 70
     1
102
RTVSPropertyOp17
 70
     1
102
RTVSPropertyOp18
 70
     1
102
RTVSPropertyOp19
 70
     1
102
RTVSPropertyOp20
 70
     1
102
RTVSPropertyOp21
 70
     1
102
RTVSPropertyOp22
 70
     1
102
RTVSPropertyOp23
 70
     1
102
RTVSPropertyOp24
 70
     1
102
RTVSPropertyOp25
 70
     1
102
RTVSPropertyOp26
 70
     1
102
RTVSPropertyOp27
 70
     1
102
RTVSPropertyOp28
 70
     1
102
RTVSPropertyOp29
 70
     1
102
RTVSPropertyOp30
 70
     1
102
RTVSPropertyOp31
 70
     1
102
RTVSPropertyOp32
 70
     1
102
RTVSPropertyOp33
 70
     1
102
RTVSPropertyOp34
 70
     1
102
RTVSPropertyOp35
 70
     1
102
RTVSPropertyOp36
 70
     1
102
RTVSPropertyOp37
 70
     1
102
RTVSPropertyOp38
 70
     1
102
RTVSPropertyOp39
 70
     1
102
RTVSPropertyOp40
 70
     1
102
RTVSPropertyOp41
 70
     1
102
RTVSPropertyOp42
 70
     1
102
RTVSPropertyOp43
 70
     1
102
RTVSPropertyOp44
 70
     1
102
RTVSPropertyOp45
 70
     1
102
RTVSPropertyOp46
 70
     1
102
RTVSPropertyOp47
 70
     1
102
RTVSPropertyOp48
 70
     1
102
RTVSPropertyOp49
 70
     1
102
RTVSPropertyOp50
 70
     1
102
RTVSPropertyOp51
 70
     0
102
RTVSPropertyOp52
 70
     0
102
RTVSPropertyOp53
 70
     1
102
RTVSPropertyOp54
 70
     1
102
RTVSPropertyOp55
 70
     1
102
RTVSPropertyOp56
 70
     1
102
RTVSPropertyOp57
 70
     1
102
RTVSPropertyOp58
 70
     1
102
RTVSPropertyOp59
 70
     1
102
RTVSPropertyOp60
 70
     1
102
RTVSPropertyOp61
 70
     1
102
RTVSPropertyOp62
 70
     1
  0
XRECORD
  5
AF047
102
{ACAD_REACTORS
330
AF046
102
}
330
AF046
100
AcDbXrecord
280
     1
102
RTVSPost2010Prop28
280
     0
102
RTVSPost2010PropOp28
 70
     1
102
RTVSPost2010Prop29
280
     1
102
RTVSPost2010PropOp29
 70
     1
102
RTVSPost2010Prop30
280
     1
102
RTVSPost2010PropOp30
 70
     1
102
RTVSPost2010Prop31
280
     0
102
RTVSPost2010PropOp31
 70
     1
102
RTVSPost2010Prop32
280
     0
102
RTVSPost2010PropOp32
 70
     1
102
RTVSPost2010Prop33
280
     0
102
RTVSPost2010PropOp33
 70
     1
102
RTVSPost2010Prop34
280
     0
102
RTVSPost2010PropOp34
 70
     1
102
RTVSPost2010Prop35
280
     0
102
RTVSPost2010PropOp35
 70
     1
102
RTVSPost2010Prop36
280
     0
102
RTVSPost2010PropOp36
 70
     1
102
RTVSPost2010Prop37
 90
       50
102
RTVSPost2010PropOp37
 70
     1
102
RTVSPost2010Prop38
140
0.0
102
RTVSPost2010PropOp38
 70
     1
102
RTVSPost2010Prop39
140
1.0
102
RTVSPost2010PropOp39
 70
     1
102
RTVSPost2010Prop40
 90
        0
102
RTVSPost2010PropOp40
 70
     1
102
RTVSPost2010Prop41ColorIndex
 90
       18
102
RTVSPost2010Prop41ColorRGB
 90
        0
102
RTVSPost2010PropOp41
 70
     1
102
RTVSPost2010Prop42
 90
       50
102
RTVSPost2010PropOp42
 70
     1
102
RTVSPost2010Prop43
 90
        3
102
RTVSPost2010PropOp43
 70
     1
102
RTVSPost2010Prop44ColorIndex
 90
        5
102
RTVSPost2010Prop44ColorRGB
 90
      255
102
RTVSPost2010PropOp44
 70
     1
102
RTVSPost2010Prop45
280
     0
102
RTVSPost2010PropOp45
 70
     1
102
RTVSPost2010Prop46
 90
       50
102
RTVSPost2010PropOp46
 70
     1
102
RTVSPost2010Prop47
 90
       50
102
RTVSPost2010PropOp47
 70
     1
102
RTVSPost2010Prop48
 90
       50
102
RTVSPost2010PropOp48
 70
     1
102
RTVSPost2010Prop49
280
     0
102
RTVSPost2010PropOp49
 70
     1
102
RTVSPost2010Prop50
 90
       50
102
RTVSPost2010PropOp50
 70
     1
102
RTVSPost2010Prop51ColorIndex
 90
      256
102
RTVSPost2010Prop51ColorRGB
 90
-16777216
102
RTVSPost2010PropOp51
 70
     0
102
RTVSPost2010Prop52
140
1.0
102
RTVSPost2010PropOp52
 70
     0
102
RTVSPost2010Prop53
 90
        2
102
RTVSPost2010PropOp53
 70
     1
102
RTVSPost2010Prop54
  1
strokes_ogs.tif
102
RTVSPost2010PropOp54
 70
     1
102
RTVSPost2010Prop55
280
     0
102
RTVSPost2010PropOp55
 70
     1
102
RTVSPost2010Prop56
140
1.0
102
RTVSPost2010PropOp56
 70
     1
102
RTVSPost2010Prop57
140
1.0
102
RTVSPost2010PropOp57
 70
     1
102
RTVSPropertyOp0
 70
     1
102
RTVSPropertyOp1
 70
     1
102
RTVSPropertyOp2
 70
     1
102
RTVSPropertyOp3
 70
     1
102
RTVSPropertyOp4
 70
     1
102
RTVSPropertyOp5
 70
     1
102
RTVSPropertyOp6
 70
     1
102
RTVSPropertyOp7
 70
     1
102
RTVSPropertyOp8
 70
     1
102
RTVSPropertyOp9
 70
     1
102
RTVSPropertyOp10
 70
     1
102
RTVSPropertyOp11
 70
     1
102
RTVSPropertyOp12
 70
     1
102
RTVSPropertyOp13
 70
     1
102
RTVSPropertyOp14
 70
     1
102
RTVSPropertyOp15
 70
     1
102
RTVSPropertyOp16
 70
     1
102
RTVSPropertyOp17
 70
     1
102
RTVSPropertyOp18
 70
     1
102
RTVSPropertyOp19
 70
     1
102
RTVSPropertyOp20
 70
     1
102
RTVSPropertyOp21
 70
     1
102
RTVSPropertyOp22
 70
     1
102
RTVSPropertyOp23
 70
     1
102
RTVSPropertyOp24
 70
     1
102
RTVSPropertyOp25
 70
     1
102
RTVSPropertyOp26
 70
     1
102
RTVSPropertyOp27
 70
     1
102
RTVSPropertyOp28
 70
     1
102
RTVSPropertyOp29
 70
     1
102
RTVSPropertyOp30
 70
     1
102
RTVSPropertyOp31
 70
     1
102
RTVSPropertyOp32
 70
     1
102
RTVSPropertyOp33
 70
     1
102
RTVSPropertyOp34
 70
     1
102
RTVSPropertyOp35
 70
     1
102
RTVSPropertyOp36
 70
     1
102
RTVSPropertyOp37
 70
     1
102
RTVSPropertyOp38
 70
     1
102
RTVSPropertyOp39
 70
     1
102
RTVSPropertyOp40
 70
     1
102
RTVSPropertyOp41
 70
     1
102
RTVSPropertyOp42
 70
     1
102
RTVSPropertyOp43
 70
     1
102
RTVSPropertyOp44
 70
     1
102
RTVSPropertyOp45
 70
     1
102
RTVSPropertyOp46
 70
     1
102
RTVSPropertyOp47
 70
     1
102
RTVSPropertyOp48
 70
     1
102
RTVSPropertyOp49
 70
     1
102
RTVSPropertyOp50
 70
     1
102
RTVSPropertyOp51
 70
     0
102
RTVSPropertyOp52
 70
     0
102
RTVSPropertyOp53
 70
     1
102
RTVSPropertyOp54
 70
     1
102
RTVSPropertyOp55
 70
     1
102
RTVSPropertyOp56
 70
     1
102
RTVSPropertyOp57
 70
     1
102
RTVSPropertyOp58
 70
     1
102
RTVSPropertyOp59
 70
     1
102
RTVSPropertyOp60
 70
     1
102
RTVSPropertyOp61
 70
     1
102
RTVSPropertyOp62
 70
     1
  0
XRECORD
  5
AF043
102
{ACAD_REACTORS
330
AF042
102
}
330
AF042
100
AcDbXrecord
280
     1
102
RTVSPost2010Prop28
280
     0
102
RTVSPost2010PropOp28
 70
     1
102
RTVSPost2010Prop29
280
     1
102
RTVSPost2010PropOp29
 70
     1
102
RTVSPost2010Prop30
280
     1
102
RTVSPost2010PropOp30
 70
     1
102
RTVSPost2010Prop31
280
     0
102
RTVSPost2010PropOp31
 70
     1
102
RTVSPost2010Prop32
280
     0
102
RTVSPost2010PropOp32
 70
     1
102
RTVSPost2010Prop33
280
     0
102
RTVSPost2010PropOp33
 70
     1
102
RTVSPost2010Prop34
280
     0
102
RTVSPost2010PropOp34
 70
     1
102
RTVSPost2010Prop35
280
     0
102
RTVSPost2010PropOp35
 70
     1
102
RTVSPost2010Prop36
280
     0
102
RTVSPost2010PropOp36
 70
     1
102
RTVSPost2010Prop37
 90
       50
102
RTVSPost2010PropOp37
 70
     1
102
RTVSPost2010Prop38
140
0.0
102
RTVSPost2010PropOp38
 70
     1
102
RTVSPost2010Prop39
140
1.0
102
RTVSPost2010PropOp39
 70
     1
102
RTVSPost2010Prop40
 90
        0
102
RTVSPost2010PropOp40
 70
     1
102
RTVSPost2010Prop41ColorIndex
 90
       18
102
RTVSPost2010Prop41ColorRGB
 90
        0
102
RTVSPost2010PropOp41
 70
     1
102
RTVSPost2010Prop42
 90
       50
102
RTVSPost2010PropOp42
 70
     1
102
RTVSPost2010Prop43
 90
        3
102
RTVSPost2010PropOp43
 70
     1
102
RTVSPost2010Prop44ColorIndex
 90
        5
102
RTVSPost2010Prop44ColorRGB
 90
      255
102
RTVSPost2010PropOp44
 70
     1
102
RTVSPost2010Prop45
280
     0
102
RTVSPost2010PropOp45
 70
     1
102
RTVSPost2010Prop46
 90
       50
102
RTVSPost2010PropOp46
 70
     1
102
RTVSPost2010Prop47
 90
       50
102
RTVSPost2010PropOp47
 70
     1
102
RTVSPost2010Prop48
 90
       50
102
RTVSPost2010PropOp48
 70
     1
102
RTVSPost2010Prop49
280
     0
102
RTVSPost2010PropOp49
 70
     1
102
RTVSPost2010Prop50
 90
       50
102
RTVSPost2010PropOp50
 70
     1
102
RTVSPost2010Prop51ColorIndex
 90
      256
102
RTVSPost2010Prop51ColorRGB
 90
-16777216
102
RTVSPost2010PropOp51
 70
     0
102
RTVSPost2010Prop52
140
1.0
102
RTVSPost2010PropOp52
 70
     0
102
RTVSPost2010Prop53
 90
        2
102
RTVSPost2010PropOp53
 70
     1
102
RTVSPost2010Prop54
  1
strokes_ogs.tif
102
RTVSPost2010PropOp54
 70
     1
102
RTVSPost2010Prop55
280
     0
102
RTVSPost2010PropOp55
 70
     1
102
RTVSPost2010Prop56
140
1.0
102
RTVSPost2010PropOp56
 70
     1
102
RTVSPost2010Prop57
140
1.0
102
RTVSPost2010PropOp57
 70
     1
102
RTVSPropertyOp0
 70
     1
102
RTVSPropertyOp1
 70
     1
102
RTVSPropertyOp2
 70
     1
102
RTVSPropertyOp3
 70
     1
102
RTVSPropertyOp4
 70
     1
102
RTVSPropertyOp5
 70
     1
102
RTVSPropertyOp6
 70
     1
102
RTVSPropertyOp7
 70
     1
102
RTVSPropertyOp8
 70
     1
102
RTVSPropertyOp9
 70
     1
102
RTVSPropertyOp10
 70
     1
102
RTVSPropertyOp11
 70
     1
102
RTVSPropertyOp12
 70
     1
102
RTVSPropertyOp13
 70
     1
102
RTVSPropertyOp14
 70
     1
102
RTVSPropertyOp15
 70
     1
102
RTVSPropertyOp16
 70
     1
102
RTVSPropertyOp17
 70
     1
102
RTVSPropertyOp18
 70
     1
102
RTVSPropertyOp19
 70
     1
102
RTVSPropertyOp20
 70
     1
102
RTVSPropertyOp21
 70
     1
102
RTVSPropertyOp22
 70
     1
102
RTVSPropertyOp23
 70
     1
102
RTVSPropertyOp24
 70
     1
102
RTVSPropertyOp25
 70
     1
102
RTVSPropertyOp26
 70
     1
102
RTVSPropertyOp27
 70
     1
102
RTVSPropertyOp28
 70
     1
102
RTVSPropertyOp29
 70
     1
102
RTVSPropertyOp30
 70
     1
102
RTVSPropertyOp31
 70
     1
102
RTVSPropertyOp32
 70
     1
102
RTVSPropertyOp33
 70
     1
102
RTVSPropertyOp34
 70
     1
102
RTVSPropertyOp35
 70
     1
102
RTVSPropertyOp36
 70
     1
102
RTVSPropertyOp37
 70
     1
102
RTVSPropertyOp38
 70
     1
102
RTVSPropertyOp39
 70
     1
102
RTVSPropertyOp40
 70
     1
102
RTVSPropertyOp41
 70
     1
102
RTVSPropertyOp42
 70
     1
102
RTVSPropertyOp43
 70
     1
102
RTVSPropertyOp44
 70
     1
102
RTVSPropertyOp45
 70
     1
102
RTVSPropertyOp46
 70
     1
102
RTVSPropertyOp47
 70
     1
102
RTVSPropertyOp48
 70
     1
102
RTVSPropertyOp49
 70
     1
102
RTVSPropertyOp50
 70
     1
102
RTVSPropertyOp51
 70
     0
102
RTVSPropertyOp52
 70
     0
102
RTVSPropertyOp53
 70
     1
102
RTVSPropertyOp54
 70
     1
102
RTVSPropertyOp55
 70
     1
102
RTVSPropertyOp56
 70
     1
102
RTVSPropertyOp57
 70
     1
102
RTVSPropertyOp58
 70
     1
102
RTVSPropertyOp59
 70
     1
102
RTVSPropertyOp60
 70
     1
102
RTVSPropertyOp61
 70
     1
102
RTVSPropertyOp62
 70
     1
  0
XRECORD
  5
AF051
102
{ACAD_REACTORS
330
AF050
102
}
330
AF050
100
AcDbXrecord
280
     1
102
RTVSPost2010Prop28
280
     0
102
RTVSPost2010PropOp28
 70
     1
102
RTVSPost2010Prop29
280
     1
102
RTVSPost2010PropOp29
 70
     1
102
RTVSPost2010Prop30
280
     1
102
RTVSPost2010PropOp30
 70
     1
102
RTVSPost2010Prop31
280
     0
102
RTVSPost2010PropOp31
 70
     1
102
RTVSPost2010Prop32
280
     0
102
RTVSPost2010PropOp32
 70
     1
102
RTVSPost2010Prop33
280
     0
102
RTVSPost2010PropOp33
 70
     1
102
RTVSPost2010Prop34
280
     0
102
RTVSPost2010PropOp34
 70
     1
102
RTVSPost2010Prop35
280
     0
102
RTVSPost2010PropOp35
 70
     1
102
RTVSPost2010Prop36
280
     0
102
RTVSPost2010PropOp36
 70
     1
102
RTVSPost2010Prop37
 90
       50
102
RTVSPost2010PropOp37
 70
     1
102
RTVSPost2010Prop38
140
0.0
102
RTVSPost2010PropOp38
 70
     1
102
RTVSPost2010Prop39
140
1.0
102
RTVSPost2010PropOp39
 70
     1
102
RTVSPost2010Prop40
 90
        0
102
RTVSPost2010PropOp40
 70
     1
102
RTVSPost2010Prop41ColorIndex
 90
       18
102
RTVSPost2010Prop41ColorRGB
 90
        0
102
RTVSPost2010PropOp41
 70
     1
102
RTVSPost2010Prop42
 90
       50
102
RTVSPost2010PropOp42
 70
     1
102
RTVSPost2010Prop43
 90
        3
102
RTVSPost2010PropOp43
 70
     1
102
RTVSPost2010Prop44ColorIndex
 90
        5
102
RTVSPost2010Prop44ColorRGB
 90
      255
102
RTVSPost2010PropOp44
 70
     1
102
RTVSPost2010Prop45
280
     0
102
RTVSPost2010PropOp45
 70
     1
102
RTVSPost2010Prop46
 90
       50
102
RTVSPost2010PropOp46
 70
     1
102
RTVSPost2010Prop47
 90
       50
102
RTVSPost2010PropOp47
 70
     1
102
RTVSPost2010Prop48
 90
       50
102
RTVSPost2010PropOp48
 70
     1
102
RTVSPost2010Prop49
280
     0
102
RTVSPost2010PropOp49
 70
     1
102
RTVSPost2010Prop50
 90
       50
102
RTVSPost2010PropOp50
 70
     1
102
RTVSPost2010Prop51ColorIndex
 90
      256
102
RTVSPost2010Prop51ColorRGB
 90
-16777216
102
RTVSPost2010PropOp51
 70
     0
102
RTVSPost2010Prop52
140
1.0
102
RTVSPost2010PropOp52
 70
     0
102
RTVSPost2010Prop53
 90
        2
102
RTVSPost2010PropOp53
 70
     1
102
RTVSPost2010Prop54
  1
strokes_ogs.tif
102
RTVSPost2010PropOp54
 70
     1
102
RTVSPost2010Prop55
280
     0
102
RTVSPost2010PropOp55
 70
     1
102
RTVSPost2010Prop56
140
1.0
102
RTVSPost2010PropOp56
 70
     1
102
RTVSPost2010Prop57
140
1.0
102
RTVSPost2010PropOp57
 70
     1
102
RTVSPropertyOp0
 70
     1
102
RTVSPropertyOp1
 70
     1
102
RTVSPropertyOp2
 70
     1
102
RTVSPropertyOp3
 70
     1
102
RTVSPropertyOp4
 70
     1
102
RTVSPropertyOp5
 70
     1
102
RTVSPropertyOp6
 70
     1
102
RTVSPropertyOp7
 70
     1
102
RTVSPropertyOp8
 70
     1
102
RTVSPropertyOp9
 70
     1
102
RTVSPropertyOp10
 70
     1
102
RTVSPropertyOp11
 70
     1
102
RTVSPropertyOp12
 70
     1
102
RTVSPropertyOp13
 70
     1
102
RTVSPropertyOp14
 70
     1
102
RTVSPropertyOp15
 70
     1
102
RTVSPropertyOp16
 70
     1
102
RTVSPropertyOp17
 70
     1
102
RTVSPropertyOp18
 70
     1
102
RTVSPropertyOp19
 70
     1
102
RTVSPropertyOp20
 70
     1
102
RTVSPropertyOp21
 70
     1
102
RTVSPropertyOp22
 70
     1
102
RTVSPropertyOp23
 70
     1
102
RTVSPropertyOp24
 70
     1
102
RTVSPropertyOp25
 70
     1
102
RTVSPropertyOp26
 70
     1
102
RTVSPropertyOp27
 70
     1
102
RTVSPropertyOp28
 70
     1
102
RTVSPropertyOp29
 70
     1
102
RTVSPropertyOp30
 70
     1
102
RTVSPropertyOp31
 70
     1
102
RTVSPropertyOp32
 70
     1
102
RTVSPropertyOp33
 70
     1
102
RTVSPropertyOp34
 70
     1
102
RTVSPropertyOp35
 70
     1
102
RTVSPropertyOp36
 70
     1
102
RTVSPropertyOp37
 70
     1
102
RTVSPropertyOp38
 70
     1
102
RTVSPropertyOp39
 70
     1
102
RTVSPropertyOp40
 70
     1
102
RTVSPropertyOp41
 70
     1
102
RTVSPropertyOp42
 70
     1
102
RTVSPropertyOp43
 70
     1
102
RTVSPropertyOp44
 70
     1
102
RTVSPropertyOp45
 70
     1
102
RTVSPropertyOp46
 70
     1
102
RTVSPropertyOp47
 70
     1
102
RTVSPropertyOp48
 70
     1
102
RTVSPropertyOp49
 70
     1
102
RTVSPropertyOp50
 70
     1
102
RTVSPropertyOp51
 70
     0
102
RTVSPropertyOp52
 70
     0
102
RTVSPropertyOp53
 70
     1
102
RTVSPropertyOp54
 70
     1
102
RTVSPropertyOp55
 70
     1
102
RTVSPropertyOp56
 70
     1
102
RTVSPropertyOp57
 70
     1
102
RTVSPropertyOp58
 70
     1
102
RTVSPropertyOp59
 70
     1
102
RTVSPropertyOp60
 70
     1
102
RTVSPropertyOp61
 70
     1
102
RTVSPropertyOp62
 70
     1
  0
XRECORD
  5
AF059
102
{ACAD_REACTORS
330
AF058
102
}
330
AF058
100
AcDbXrecord
280
     1
102
RTVSPost2010Prop28
280
     0
102
RTVSPost2010PropOp28
 70
     1
102
RTVSPost2010Prop29
280
     1
102
RTVSPost2010PropOp29
 70
     1
102
RTVSPost2010Prop30
280
     1
102
RTVSPost2010PropOp30
 70
     1
102
RTVSPost2010Prop31
280
     0
102
RTVSPost2010PropOp31
 70
     1
102
RTVSPost2010Prop32
280
     0
102
RTVSPost2010PropOp32
 70
     1
102
RTVSPost2010Prop33
280
     0
102
RTVSPost2010PropOp33
 70
     1
102
RTVSPost2010Prop34
280
     0
102
RTVSPost2010PropOp34
 70
     1
102
RTVSPost2010Prop35
280
     0
102
RTVSPost2010PropOp35
 70
     1
102
RTVSPost2010Prop36
280
     0
102
RTVSPost2010PropOp36
 70
     1
102
RTVSPost2010Prop37
 90
       50
102
RTVSPost2010PropOp37
 70
     1
102
RTVSPost2010Prop38
140
0.0
102
RTVSPost2010PropOp38
 70
     1
102
RTVSPost2010Prop39
140
1.0
102
RTVSPost2010PropOp39
 70
     1
102
RTVSPost2010Prop40
 90
        0
102
RTVSPost2010PropOp40
 70
     1
102
RTVSPost2010Prop41ColorIndex
 90
       18
102
RTVSPost2010Prop41ColorRGB
 90
        0
102
RTVSPost2010PropOp41
 70
     1
102
RTVSPost2010Prop42
 90
       50
102
RTVSPost2010PropOp42
 70
     1
102
RTVSPost2010Prop43
 90
        3
102
RTVSPost2010PropOp43
 70
     1
102
RTVSPost2010Prop44ColorIndex
 90
        5
102
RTVSPost2010Prop44ColorRGB
 90
      255
102
RTVSPost2010PropOp44
 70
     1
102
RTVSPost2010Prop45
280
     0
102
RTVSPost2010PropOp45
 70
     1
102
RTVSPost2010Prop46
 90
       50
102
RTVSPost2010PropOp46
 70
     1
102
RTVSPost2010Prop47
 90
       50
102
RTVSPost2010PropOp47
 70
     1
102
RTVSPost2010Prop48
 90
       50
102
RTVSPost2010PropOp48
 70
     1
102
RTVSPost2010Prop49
280
     0
102
RTVSPost2010PropOp49
 70
     1
102
RTVSPost2010Prop50
 90
       50
102
RTVSPost2010PropOp50
 70
     1
102
RTVSPost2010Prop51ColorIndex
 90
      256
102
RTVSPost2010Prop51ColorRGB
 90
-16777216
102
RTVSPost2010PropOp51
 70
     0
102
RTVSPost2010Prop52
140
1.0
102
RTVSPost2010PropOp52
 70
     0
102
RTVSPost2010Prop53
 90
        2
102
RTVSPost2010PropOp53
 70
     1
102
RTVSPost2010Prop54
  1
strokes_ogs.tif
102
RTVSPost2010PropOp54
 70
     1
102
RTVSPost2010Prop55
280
     0
102
RTVSPost2010PropOp55
 70
     1
102
RTVSPost2010Prop56
140
1.0
102
RTVSPost2010PropOp56
 70
     1
102
RTVSPost2010Prop57
140
1.0
102
RTVSPost2010PropOp57
 70
     1
102
RTVSPropertyOp0
 70
     1
102
RTVSPropertyOp1
 70
     1
102
RTVSPropertyOp2
 70
     1
102
RTVSPropertyOp3
 70
     1
102
RTVSPropertyOp4
 70
     1
102
RTVSPropertyOp5
 70
     1
102
RTVSPropertyOp6
 70
     1
102
RTVSPropertyOp7
 70
     1
102
RTVSPropertyOp8
 70
     1
102
RTVSPropertyOp9
 70
     1
102
RTVSPropertyOp10
 70
     1
102
RTVSPropertyOp11
 70
     1
102
RTVSPropertyOp12
 70
     1
102
RTVSPropertyOp13
 70
     1
102
RTVSPropertyOp14
 70
     1
102
RTVSPropertyOp15
 70
     1
102
RTVSPropertyOp16
 70
     1
102
RTVSPropertyOp17
 70
     1
102
RTVSPropertyOp18
 70
     1
102
RTVSPropertyOp19
 70
     1
102
RTVSPropertyOp20
 70
     1
102
RTVSPropertyOp21
 70
     1
102
RTVSPropertyOp22
 70
     1
102
RTVSPropertyOp23
 70
     1
102
RTVSPropertyOp24
 70
     1
102
RTVSPropertyOp25
 70
     1
102
RTVSPropertyOp26
 70
     1
102
RTVSPropertyOp27
 70
     1
102
RTVSPropertyOp28
 70
     1
102
RTVSPropertyOp29
 70
     1
102
RTVSPropertyOp30
 70
     1
102
RTVSPropertyOp31
 70
     1
102
RTVSPropertyOp32
 70
     1
102
RTVSPropertyOp33
 70
     1
102
RTVSPropertyOp34
 70
     1
102
RTVSPropertyOp35
 70
     1
102
RTVSPropertyOp36
 70
     1
102
RTVSPropertyOp37
 70
     1
102
RTVSPropertyOp38
 70
     1
102
RTVSPropertyOp39
 70
     1
102
RTVSPropertyOp40
 70
     1
102
RTVSPropertyOp41
 70
     1
102
RTVSPropertyOp42
 70
     1
102
RTVSPropertyOp43
 70
     1
102
RTVSPropertyOp44
 70
     1
102
RTVSPropertyOp45
 70
     1
102
RTVSPropertyOp46
 70
     1
102
RTVSPropertyOp47
 70
     1
102
RTVSPropertyOp48
 70
     1
102
RTVSPropertyOp49
 70
     1
102
RTVSPropertyOp50
 70
     1
102
RTVSPropertyOp51
 70
     0
102
RTVSPropertyOp52
 70
     0
102
RTVSPropertyOp53
 70
     1
102
RTVSPropertyOp54
 70
     1
102
RTVSPropertyOp55
 70
     1
102
RTVSPropertyOp56
 70
     1
102
RTVSPropertyOp57
 70
     1
102
RTVSPropertyOp58
 70
     1
102
RTVSPropertyOp59
 70
     1
102
RTVSPropertyOp60
 70
     1
102
RTVSPropertyOp61
 70
     1
102
RTVSPropertyOp62
 70
     1
  0
XRECORD
  5
AF04B
102
{ACAD_REACTORS
330
AF04A
102
}
330
AF04A
100
AcDbXrecord
280
     1
102
RTVSPost2010Prop28
280
     0
102
RTVSPost2010PropOp28
 70
     1
102
RTVSPost2010Prop29
280
     1
102
RTVSPost2010PropOp29
 70
     1
102
RTVSPost2010Prop30
280
     1
102
RTVSPost2010PropOp30
 70
     1
102
RTVSPost2010Prop31
280
     0
102
RTVSPost2010PropOp31
 70
     1
102
RTVSPost2010Prop32
280
     0
102
RTVSPost2010PropOp32
 70
     1
102
RTVSPost2010Prop33
280
     0
102
RTVSPost2010PropOp33
 70
     1
102
RTVSPost2010Prop34
280
     0
102
RTVSPost2010PropOp34
 70
     1
102
RTVSPost2010Prop35
280
     0
102
RTVSPost2010PropOp35
 70
     1
102
RTVSPost2010Prop36
280
     0
102
RTVSPost2010PropOp36
 70
     1
102
RTVSPost2010Prop37
 90
       50
102
RTVSPost2010PropOp37
 70
     1
102
RTVSPost2010Prop38
140
0.0
102
RTVSPost2010PropOp38
 70
     1
102
RTVSPost2010Prop39
140
1.0
102
RTVSPost2010PropOp39
 70
     1
102
RTVSPost2010Prop40
 90
        0
102
RTVSPost2010PropOp40
 70
     1
102
RTVSPost2010Prop41ColorIndex
 90
       18
102
RTVSPost2010Prop41ColorRGB
 90
        0
102
RTVSPost2010PropOp41
 70
     1
102
RTVSPost2010Prop42
 90
       50
102
RTVSPost2010PropOp42
 70
     1
102
RTVSPost2010Prop43
 90
        3
102
RTVSPost2010PropOp43
 70
     1
102
RTVSPost2010Prop44ColorIndex
 90
        5
102
RTVSPost2010Prop44ColorRGB
 90
      255
102
RTVSPost2010PropOp44
 70
     1
102
RTVSPost2010Prop45
280
     0
102
RTVSPost2010PropOp45
 70
     1
102
RTVSPost2010Prop46
 90
       50
102
RTVSPost2010PropOp46
 70
     1
102
RTVSPost2010Prop47
 90
       50
102
RTVSPost2010PropOp47
 70
     1
102
RTVSPost2010Prop48
 90
       50
102
RTVSPost2010PropOp48
 70
     1
102
RTVSPost2010Prop49
280
     0
102
RTVSPost2010PropOp49
 70
     1
102
RTVSPost2010Prop50
 90
       50
102
RTVSPost2010PropOp50
 70
     1
102
RTVSPost2010Prop51ColorIndex
 90
      256
102
RTVSPost2010Prop51ColorRGB
 90
-16777216
102
RTVSPost2010PropOp51
 70
     0
102
RTVSPost2010Prop52
140
1.0
102
RTVSPost2010PropOp52
 70
     0
102
RTVSPost2010Prop53
 90
        2
102
RTVSPost2010PropOp53
 70
     1
102
RTVSPost2010Prop54
  1
strokes_ogs.tif
102
RTVSPost2010PropOp54
 70
     1
102
RTVSPost2010Prop55
280
     0
102
RTVSPost2010PropOp55
 70
     1
102
RTVSPost2010Prop56
140
1.0
102
RTVSPost2010PropOp56
 70
     1
102
RTVSPost2010Prop57
140
1.0
102
RTVSPost2010PropOp57
 70
     1
102
RTVSPropertyOp0
 70
     1
102
RTVSPropertyOp1
 70
     1
102
RTVSPropertyOp2
 70
     1
102
RTVSPropertyOp3
 70
     1
102
RTVSPropertyOp4
 70
     1
102
RTVSPropertyOp5
 70
     1
102
RTVSPropertyOp6
 70
     1
102
RTVSPropertyOp7
 70
     1
102
RTVSPropertyOp8
 70
     1
102
RTVSPropertyOp9
 70
     1
102
RTVSPropertyOp10
 70
     1
102
RTVSPropertyOp11
 70
     1
102
RTVSPropertyOp12
 70
     1
102
RTVSPropertyOp13
 70
     1
102
RTVSPropertyOp14
 70
     1
102
RTVSPropertyOp15
 70
     1
102
RTVSPropertyOp16
 70
     1
102
RTVSPropertyOp17
 70
     1
102
RTVSPropertyOp18
 70
     1
102
RTVSPropertyOp19
 70
     1
102
RTVSPropertyOp20
 70
     1
102
RTVSPropertyOp21
 70
     1
102
RTVSPropertyOp22
 70
     1
102
RTVSPropertyOp23
 70
     1
102
RTVSPropertyOp24
 70
     1
102
RTVSPropertyOp25
 70
     1
102
RTVSPropertyOp26
 70
     1
102
RTVSPropertyOp27
 70
     1
102
RTVSPropertyOp28
 70
     1
102
RTVSPropertyOp29
 70
     1
102
RTVSPropertyOp30
 70
     1
102
RTVSPropertyOp31
 70
     1
102
RTVSPropertyOp32
 70
     1
102
RTVSPropertyOp33
 70
     1
102
RTVSPropertyOp34
 70
     1
102
RTVSPropertyOp35
 70
     1
102
RTVSPropertyOp36
 70
     1
102
RTVSPropertyOp37
 70
     1
102
RTVSPropertyOp38
 70
     1
102
RTVSPropertyOp39
 70
     1
102
RTVSPropertyOp40
 70
     1
102
RTVSPropertyOp41
 70
     1
102
RTVSPropertyOp42
 70
     1
102
RTVSPropertyOp43
 70
     1
102
RTVSPropertyOp44
 70
     1
102
RTVSPropertyOp45
 70
     1
102
RTVSPropertyOp46
 70
     1
102
RTVSPropertyOp47
 70
     1
102
RTVSPropertyOp48
 70
     1
102
RTVSPropertyOp49
 70
     1
102
RTVSPropertyOp50
 70
     1
102
RTVSPropertyOp51
 70
     0
102
RTVSPropertyOp52
 70
     0
102
RTVSPropertyOp53
 70
     1
102
RTVSPropertyOp54
 70
     1
102
RTVSPropertyOp55
 70
     1
102
RTVSPropertyOp56
 70
     1
102
RTVSPropertyOp57
 70
     1
102
RTVSPropertyOp58
 70
     1
102
RTVSPropertyOp59
 70
     1
102
RTVSPropertyOp60
 70
     1
102
RTVSPropertyOp61
 70
     1
102
RTVSPropertyOp62
 70
     1
  0
XRECORD
  5
AF04F
102
{ACAD_REACTORS
330
AF04E
102
}
330
AF04E
100
AcDbXrecord
280
     1
102
RTVSPost2010Prop28
280
     0
102
RTVSPost2010PropOp28
 70
     1
102
RTVSPost2010Prop29
280
     1
102
RTVSPost2010PropOp29
 70
     1
102
RTVSPost2010Prop30
280
     1
102
RTVSPost2010PropOp30
 70
     1
102
RTVSPost2010Prop31
280
     0
102
RTVSPost2010PropOp31
 70
     1
102
RTVSPost2010Prop32
280
     0
102
RTVSPost2010PropOp32
 70
     1
102
RTVSPost2010Prop33
280
     0
102
RTVSPost2010PropOp33
 70
     1
102
RTVSPost2010Prop34
280
     0
102
RTVSPost2010PropOp34
 70
     1
102
RTVSPost2010Prop35
280
     0
102
RTVSPost2010PropOp35
 70
     1
102
RTVSPost2010Prop36
280
     0
102
RTVSPost2010PropOp36
 70
     1
102
RTVSPost2010Prop37
 90
       50
102
RTVSPost2010PropOp37
 70
     1
102
RTVSPost2010Prop38
140
0.0
102
RTVSPost2010PropOp38
 70
     1
102
RTVSPost2010Prop39
140
1.0
102
RTVSPost2010PropOp39
 70
     1
102
RTVSPost2010Prop40
 90
        0
102
RTVSPost2010PropOp40
 70
     1
102
RTVSPost2010Prop41ColorIndex
 90
       18
102
RTVSPost2010Prop41ColorRGB
 90
        0
102
RTVSPost2010PropOp41
 70
     1
102
RTVSPost2010Prop42
 90
       50
102
RTVSPost2010PropOp42
 70
     1
102
RTVSPost2010Prop43
 90
        3
102
RTVSPost2010PropOp43
 70
     1
102
RTVSPost2010Prop44ColorIndex
 90
        5
102
RTVSPost2010Prop44ColorRGB
 90
      255
102
RTVSPost2010PropOp44
 70
     1
102
RTVSPost2010Prop45
280
     0
102
RTVSPost2010PropOp45
 70
     1
102
RTVSPost2010Prop46
 90
       50
102
RTVSPost2010PropOp46
 70
     1
102
RTVSPost2010Prop47
 90
       50
102
RTVSPost2010PropOp47
 70
     1
102
RTVSPost2010Prop48
 90
       50
102
RTVSPost2010PropOp48
 70
     1
102
RTVSPost2010Prop49
280
     0
102
RTVSPost2010PropOp49
 70
     1
102
RTVSPost2010Prop50
 90
       50
102
RTVSPost2010PropOp50
 70
     1
102
RTVSPost2010Prop51ColorIndex
 90
      256
102
RTVSPost2010Prop51ColorRGB
 90
-16777216
102
RTVSPost2010PropOp51
 70
     0
102
RTVSPost2010Prop52
140
1.0
102
RTVSPost2010PropOp52
 70
     0
102
RTVSPost2010Prop53
 90
        2
102
RTVSPost2010PropOp53
 70
     1
102
RTVSPost2010Prop54
  1
strokes_ogs.tif
102
RTVSPost2010PropOp54
 70
     1
102
RTVSPost2010Prop55
280
     0
102
RTVSPost2010PropOp55
 70
     1
102
RTVSPost2010Prop56
140
1.0
102
RTVSPost2010PropOp56
 70
     1
102
RTVSPost2010Prop57
140
1.0
102
RTVSPost2010PropOp57
 70
     1
102
RTVSPropertyOp0
 70
     1
102
RTVSPropertyOp1
 70
     1
102
RTVSPropertyOp2
 70
     1
102
RTVSPropertyOp3
 70
     1
102
RTVSPropertyOp4
 70
     1
102
RTVSPropertyOp5
 70
     1
102
RTVSPropertyOp6
 70
     1
102
RTVSPropertyOp7
 70
     1
102
RTVSPropertyOp8
 70
     1
102
RTVSPropertyOp9
 70
     1
102
RTVSPropertyOp10
 70
     1
102
RTVSPropertyOp11
 70
     1
102
RTVSPropertyOp12
 70
     1
102
RTVSPropertyOp13
 70
     1
102
RTVSPropertyOp14
 70
     1
102
RTVSPropertyOp15
 70
     1
102
RTVSPropertyOp16
 70
     1
102
RTVSPropertyOp17
 70
     1
102
RTVSPropertyOp18
 70
     1
102
RTVSPropertyOp19
 70
     1
102
RTVSPropertyOp20
 70
     1
102
RTVSPropertyOp21
 70
     1
102
RTVSPropertyOp22
 70
     1
102
RTVSPropertyOp23
 70
     1
102
RTVSPropertyOp24
 70
     1
102
RTVSPropertyOp25
 70
     1
102
RTVSPropertyOp26
 70
     1
102
RTVSPropertyOp27
 70
     1
102
RTVSPropertyOp28
 70
     1
102
RTVSPropertyOp29
 70
     1
102
RTVSPropertyOp30
 70
     1
102
RTVSPropertyOp31
 70
     1
102
RTVSPropertyOp32
 70
     1
102
RTVSPropertyOp33
 70
     1
102
RTVSPropertyOp34
 70
     1
102
RTVSPropertyOp35
 70
     1
102
RTVSPropertyOp36
 70
     1
102
RTVSPropertyOp37
 70
     1
102
RTVSPropertyOp38
 70
     1
102
RTVSPropertyOp39
 70
     1
102
RTVSPropertyOp40
 70
     1
102
RTVSPropertyOp41
 70
     1
102
RTVSPropertyOp42
 70
     1
102
RTVSPropertyOp43
 70
     1
102
RTVSPropertyOp44
 70
     1
102
RTVSPropertyOp45
 70
     1
102
RTVSPropertyOp46
 70
     1
102
RTVSPropertyOp47
 70
     1
102
RTVSPropertyOp48
 70
     1
102
RTVSPropertyOp49
 70
     1
102
RTVSPropertyOp50
 70
     1
102
RTVSPropertyOp51
 70
     0
102
RTVSPropertyOp52
 70
     0
102
RTVSPropertyOp53
 70
     1
102
RTVSPropertyOp54
 70
     1
102
RTVSPropertyOp55
 70
     1
102
RTVSPropertyOp56
 70
     1
102
RTVSPropertyOp57
 70
     1
102
RTVSPropertyOp58
 70
     1
102
RTVSPropertyOp59
 70
     1
102
RTVSPropertyOp60
 70
     1
102
RTVSPropertyOp61
 70
     1
102
RTVSPropertyOp62
 70
     1
  0
XRECORD
  5
AF06D
102
{ACAD_REACTORS
330
AF06C
102
}
330
AF06C
100
AcDbXrecord
280
     1
102
RTVSPost2010Prop28
280
     0
102
RTVSPost2010PropOp28
 70
     1
102
RTVSPost2010Prop29
280
     1
102
RTVSPost2010PropOp29
 70
     1
102
RTVSPost2010Prop30
280
     1
102
RTVSPost2010PropOp30
 70
     1
102
RTVSPost2010Prop31
280
     0
102
RTVSPost2010PropOp31
 70
     1
102
RTVSPost2010Prop32
280
     0
102
RTVSPost2010PropOp32
 70
     1
102
RTVSPost2010Prop33
280
     0
102
RTVSPost2010PropOp33
 70
     1
102
RTVSPost2010Prop34
280
     0
102
RTVSPost2010PropOp34
 70
     1
102
RTVSPost2010Prop35
280
     0
102
RTVSPost2010PropOp35
 70
     1
102
RTVSPost2010Prop36
280
     0
102
RTVSPost2010PropOp36
 70
     1
102
RTVSPost2010Prop37
 90
       50
102
RTVSPost2010PropOp37
 70
     0
102
RTVSPost2010Prop38
140
0.0
102
RTVSPost2010PropOp38
 70
     0
102
RTVSPost2010Prop39
140
1.0
102
RTVSPost2010PropOp39
 70
     0
102
RTVSPost2010Prop40
 90
        0
102
RTVSPost2010PropOp40
 70
     0
102
RTVSPost2010Prop41ColorIndex
 90
       18
102
RTVSPost2010Prop41ColorRGB
 90
        0
102
RTVSPost2010PropOp41
 70
     0
102
RTVSPost2010Prop42
 90
       50
102
RTVSPost2010PropOp42
 70
     0
102
RTVSPost2010Prop43
 90
        3
102
RTVSPost2010PropOp43
 70
     0
102
RTVSPost2010Prop44ColorIndex
 90
        5
102
RTVSPost2010Prop44ColorRGB
 90
      255
102
RTVSPost2010PropOp44
 70
     0
102
RTVSPost2010Prop45
280
     0
102
RTVSPost2010PropOp45
 70
     1
102
RTVSPost2010Prop46
 90
       50
102
RTVSPost2010PropOp46
 70
     0
102
RTVSPost2010Prop47
 90
       50
102
RTVSPost2010PropOp47
 70
     0
102
RTVSPost2010Prop48
 90
       50
102
RTVSPost2010PropOp48
 70
     0
102
RTVSPost2010Prop49
280
     0
102
RTVSPost2010PropOp49
 70
     1
102
RTVSPost2010Prop50
 90
       50
102
RTVSPost2010PropOp50
 70
     0
102
RTVSPost2010Prop51ColorIndex
 90
      256
102
RTVSPost2010Prop51ColorRGB
 90
-16777216
102
RTVSPost2010PropOp51
 70
     0
102
RTVSPost2010Prop52
140
1.0
102
RTVSPost2010PropOp52
 70
     0
102
RTVSPost2010Prop53
 90
        2
102
RTVSPost2010PropOp53
 70
     0
102
RTVSPost2010Prop54
  1
strokes_ogs.tif
102
RTVSPost2010PropOp54
 70
     0
102
RTVSPost2010Prop55
280
     0
102
RTVSPost2010PropOp55
 70
     1
102
RTVSPost2010Prop56
140
1.0
102
RTVSPost2010PropOp56
 70
     0
102
RTVSPost2010Prop57
140
1.0
102
RTVSPost2010PropOp57
 70
     0
102
RTVSPropertyOp0
 70
     0
102
RTVSPropertyOp1
 70
     0
102
RTVSPropertyOp2
 70
     0
102
RTVSPropertyOp3
 70
     0
102
RTVSPropertyOp4
 70
     0
102
RTVSPropertyOp5
 70
     0
102
RTVSPropertyOp6
 70
     0
102
RTVSPropertyOp7
 70
     0
102
RTVSPropertyOp8
 70
     0
102
RTVSPropertyOp9
 70
     0
102
RTVSPropertyOp10
 70
     0
102
RTVSPropertyOp11
 70
     0
102
RTVSPropertyOp12
 70
     0
102
RTVSPropertyOp13
 70
     0
102
RTVSPropertyOp14
 70
     2
102
RTVSPropertyOp15
 70
     0
102
RTVSPropertyOp16
 70
     0
102
RTVSPropertyOp17
 70
     0
102
RTVSPropertyOp18
 70
     0
102
RTVSPropertyOp19
 70
     0
102
RTVSPropertyOp20
 70
     0
102
RTVSPropertyOp21
 70
     0
102
RTVSPropertyOp22
 70
     0
102
RTVSPropertyOp23
 70
     0
102
RTVSPropertyOp24
 70
     0
102
RTVSPropertyOp25
 70
     0
102
RTVSPropertyOp26
 70
     0
102
RTVSPropertyOp27
 70
     0
102
RTVSPropertyOp28
 70
     1
102
RTVSPropertyOp29
 70
     1
102
RTVSPropertyOp30
 70
     1
102
RTVSPropertyOp31
 70
     1
102
RTVSPropertyOp32
 70
     1
102
RTVSPropertyOp33
 70
     1
102
RTVSPropertyOp34
 70
     1
102
RTVSPropertyOp35
 70
     1
102
RTVSPropertyOp36
 70
     1
102
RTVSPropertyOp37
 70
     0
102
RTVSPropertyOp38
 70
     0
102
RTVSPropertyOp39
 70
     0
102
RTVSPropertyOp40
 70
     0
102
RTVSPropertyOp41
 70
     0
102
RTVSPropertyOp42
 70
     0
102
RTVSPropertyOp43
 70
     0
102
RTVSPropertyOp44
 70
     0
102
RTVSPropertyOp45
 70
     1
102
RTVSPropertyOp46
 70
     0
102
RTVSPropertyOp47
 70
     0
102
RTVSPropertyOp48
 70
     0
102
RTVSPropertyOp49
 70
     1
102
RTVSPropertyOp50
 70
     0
102
RTVSPropertyOp51
 70
     0
102
RTVSPropertyOp52
 70
     0
102
RTVSPropertyOp53
 70
     0
102
RTVSPropertyOp54
 70
     0
102
RTVSPropertyOp55
 70
     1
102
RTVSPropertyOp56
 70
     0
102
RTVSPropertyOp57
 70
     0
102
RTVSPropertyOp58
 70
     1
102
RTVSPropertyOp59
 70
     1
102
RTVSPropertyOp60
 70
     1
102
RTVSPropertyOp61
 70
     1
102
RTVSPropertyOp62
 70
     1
  0
XRECORD
  5
AF057
102
{ACAD_REACTORS
330
AF056
102
}
330
AF056
100
AcDbXrecord
280
     1
102
RTVSPost2010Prop28
280
     0
102
RTVSPost2010PropOp28
 70
     1
102
RTVSPost2010Prop29
280
     1
102
RTVSPost2010PropOp29
 70
     1
102
RTVSPost2010Prop30
280
     1
102
RTVSPost2010PropOp30
 70
     1
102
RTVSPost2010Prop31
280
     0
102
RTVSPost2010PropOp31
 70
     1
102
RTVSPost2010Prop32
280
     0
102
RTVSPost2010PropOp32
 70
     1
102
RTVSPost2010Prop33
280
     0
102
RTVSPost2010PropOp33
 70
     1
102
RTVSPost2010Prop34
280
     0
102
RTVSPost2010PropOp34
 70
     1
102
RTVSPost2010Prop35
280
     0
102
RTVSPost2010PropOp35
 70
     1
102
RTVSPost2010Prop36
280
     0
102
RTVSPost2010PropOp36
 70
     1
102
RTVSPost2010Prop37
 90
       50
102
RTVSPost2010PropOp37
 70
     1
102
RTVSPost2010Prop38
140
0.0
102
RTVSPost2010PropOp38
 70
     1
102
RTVSPost2010Prop39
140
1.0
102
RTVSPost2010PropOp39
 70
     1
102
RTVSPost2010Prop40
 90
        0
102
RTVSPost2010PropOp40
 70
     1
102
RTVSPost2010Prop41ColorIndex
 90
       18
102
RTVSPost2010Prop41ColorRGB
 90
        0
102
RTVSPost2010PropOp41
 70
     1
102
RTVSPost2010Prop42
 90
       50
102
RTVSPost2010PropOp42
 70
     1
102
RTVSPost2010Prop43
 90
        3
102
RTVSPost2010PropOp43
 70
     1
102
RTVSPost2010Prop44ColorIndex
 90
        5
102
RTVSPost2010Prop44ColorRGB
 90
      255
102
RTVSPost2010PropOp44
 70
     1
102
RTVSPost2010Prop45
280
     0
102
RTVSPost2010PropOp45
 70
     1
102
RTVSPost2010Prop46
 90
       50
102
RTVSPost2010PropOp46
 70
     1
102
RTVSPost2010Prop47
 90
       50
102
RTVSPost2010PropOp47
 70
     1
102
RTVSPost2010Prop48
 90
       50
102
RTVSPost2010PropOp48
 70
     1
102
RTVSPost2010Prop49
280
     0
102
RTVSPost2010PropOp49
 70
     1
102
RTVSPost2010Prop50
 90
       50
102
RTVSPost2010PropOp50
 70
     1
102
RTVSPost2010Prop51ColorIndex
 90
      256
102
RTVSPost2010Prop51ColorRGB
 90
-16777216
102
RTVSPost2010PropOp51
 70
     0
102
RTVSPost2010Prop52
140
1.0
102
RTVSPost2010PropOp52
 70
     0
102
RTVSPost2010Prop53
 90
        2
102
RTVSPost2010PropOp53
 70
     1
102
RTVSPost2010Prop54
  1
strokes_ogs.tif
102
RTVSPost2010PropOp54
 70
     1
102
RTVSPost2010Prop55
280
     0
102
RTVSPost2010PropOp55
 70
     1
102
RTVSPost2010Prop56
140
1.0
102
RTVSPost2010PropOp56
 70
     1
102
RTVSPost2010Prop57
140
1.0
102
RTVSPost2010PropOp57
 70
     1
102
RTVSPropertyOp0
 70
     1
102
RTVSPropertyOp1
 70
     1
102
RTVSPropertyOp2
 70
     1
102
RTVSPropertyOp3
 70
     1
102
RTVSPropertyOp4
 70
     1
102
RTVSPropertyOp5
 70
     1
102
RTVSPropertyOp6
 70
     1
102
RTVSPropertyOp7
 70
     1
102
RTVSPropertyOp8
 70
     1
102
RTVSPropertyOp9
 70
     1
102
RTVSPropertyOp10
 70
     1
102
RTVSPropertyOp11
 70
     1
102
RTVSPropertyOp12
 70
     1
102
RTVSPropertyOp13
 70
     1
102
RTVSPropertyOp14
 70
     1
102
RTVSPropertyOp15
 70
     1
102
RTVSPropertyOp16
 70
     1
102
RTVSPropertyOp17
 70
     1
102
RTVSPropertyOp18
 70
     1
102
RTVSPropertyOp19
 70
     1
102
RTVSPropertyOp20
 70
     1
102
RTVSPropertyOp21
 70
     1
102
RTVSPropertyOp22
 70
     1
102
RTVSPropertyOp23
 70
     1
102
RTVSPropertyOp24
 70
     1
102
RTVSPropertyOp25
 70
     1
102
RTVSPropertyOp26
 70
     1
102
RTVSPropertyOp27
 70
     1
102
RTVSPropertyOp28
 70
     1
102
RTVSPropertyOp29
 70
     1
102
RTVSPropertyOp30
 70
     1
102
RTVSPropertyOp31
 70
     1
102
RTVSPropertyOp32
 70
     1
102
RTVSPropertyOp33
 70
     1
102
RTVSPropertyOp34
 70
     1
102
RTVSPropertyOp35
 70
     1
102
RTVSPropertyOp36
 70
     1
102
RTVSPropertyOp37
 70
     1
102
RTVSPropertyOp38
 70
     1
102
RTVSPropertyOp39
 70
     1
102
RTVSPropertyOp40
 70
     1
102
RTVSPropertyOp41
 70
     1
102
RTVSPropertyOp42
 70
     1
102
RTVSPropertyOp43
 70
     1
102
RTVSPropertyOp44
 70
     1
102
RTVSPropertyOp45
 70
     1
102
RTVSPropertyOp46
 70
     1
102
RTVSPropertyOp47
 70
     1
102
RTVSPropertyOp48
 70
     1
102
RTVSPropertyOp49
 70
     1
102
RTVSPropertyOp50
 70
     1
102
RTVSPropertyOp51
 70
     0
102
RTVSPropertyOp52
 70
     0
102
RTVSPropertyOp53
 70
     1
102
RTVSPropertyOp54
 70
     1
102
RTVSPropertyOp55
 70
     1
102
RTVSPropertyOp56
 70
     1
102
RTVSPropertyOp57
 70
     1
102
RTVSPropertyOp58
 70
     1
102
RTVSPropertyOp59
 70
     1
102
RTVSPropertyOp60
 70
     1
102
RTVSPropertyOp61
 70
     1
102
RTVSPropertyOp62
 70
     1
  0
XRECORD
  5
AF03B
102
{ACAD_REACTORS
330
AF03A
102
}
330
AF03A
100
AcDbXrecord
280
     1
102
RTVSPost2010Prop28
280
     0
102
RTVSPost2010PropOp28
 70
     1
102
RTVSPost2010Prop29
280
     1
102
RTVSPost2010PropOp29
 70
     1
102
RTVSPost2010Prop30
280
     1
102
RTVSPost2010PropOp30
 70
     1
102
RTVSPost2010Prop31
280
     0
102
RTVSPost2010PropOp31
 70
     1
102
RTVSPost2010Prop32
280
     0
102
RTVSPost2010PropOp32
 70
     1
102
RTVSPost2010Prop33
280
     0
102
RTVSPost2010PropOp33
 70
     1
102
RTVSPost2010Prop34
280
     0
102
RTVSPost2010PropOp34
 70
     1
102
RTVSPost2010Prop35
280
     0
102
RTVSPost2010PropOp35
 70
     1
102
RTVSPost2010Prop36
280
     0
102
RTVSPost2010PropOp36
 70
     1
102
RTVSPost2010Prop37
 90
       50
102
RTVSPost2010PropOp37
 70
     1
102
RTVSPost2010Prop38
140
0.0
102
RTVSPost2010PropOp38
 70
     1
102
RTVSPost2010Prop39
140
1.0
102
RTVSPost2010PropOp39
 70
     1
102
RTVSPost2010Prop40
 90
        0
102
RTVSPost2010PropOp40
 70
     1
102
RTVSPost2010Prop41ColorIndex
 90
       18
102
RTVSPost2010Prop41ColorRGB
 90
        0
102
RTVSPost2010PropOp41
 70
     1
102
RTVSPost2010Prop42
 90
       50
102
RTVSPost2010PropOp42
 70
     1
102
RTVSPost2010Prop43
 90
        3
102
RTVSPost2010PropOp43
 70
     1
102
RTVSPost2010Prop44ColorIndex
 90
        5
102
RTVSPost2010Prop44ColorRGB
 90
      255
102
RTVSPost2010PropOp44
 70
     1
102
RTVSPost2010Prop45
280
     0
102
RTVSPost2010PropOp45
 70
     1
102
RTVSPost2010Prop46
 90
       50
102
RTVSPost2010PropOp46
 70
     1
102
RTVSPost2010Prop47
 90
       50
102
RTVSPost2010PropOp47
 70
     1
102
RTVSPost2010Prop48
 90
       50
102
RTVSPost2010PropOp48
 70
     1
102
RTVSPost2010Prop49
280
     0
102
RTVSPost2010PropOp49
 70
     1
102
RTVSPost2010Prop50
 90
       50
102
RTVSPost2010PropOp50
 70
     1
102
RTVSPost2010Prop51ColorIndex
 90
      256
102
RTVSPost2010Prop51ColorRGB
 90
-16777216
102
RTVSPost2010PropOp51
 70
     0
102
RTVSPost2010Prop52
140
1.0
102
RTVSPost2010PropOp52
 70
     0
102
RTVSPost2010Prop53
 90
        2
102
RTVSPost2010PropOp53
 70
     1
102
RTVSPost2010Prop54
  1
strokes_ogs.tif
102
RTVSPost2010PropOp54
 70
     1
102
RTVSPost2010Prop55
280
     0
102
RTVSPost2010PropOp55
 70
     1
102
RTVSPost2010Prop56
140
1.0
102
RTVSPost2010PropOp56
 70
     1
102
RTVSPost2010Prop57
140
1.0
102
RTVSPost2010PropOp57
 70
     1
102
RTVSPropertyOp0
 70
     1
102
RTVSPropertyOp1
 70
     1
102
RTVSPropertyOp2
 70
     1
102
RTVSPropertyOp3
 70
     1
102
RTVSPropertyOp4
 70
     1
102
RTVSPropertyOp5
 70
     1
102
RTVSPropertyOp6
 70
     1
102
RTVSPropertyOp7
 70
     1
102
RTVSPropertyOp8
 70
     1
102
RTVSPropertyOp9
 70
     1
102
RTVSPropertyOp10
 70
     1
102
RTVSPropertyOp11
 70
     1
102
RTVSPropertyOp12
 70
     1
102
RTVSPropertyOp13
 70
     1
102
RTVSPropertyOp14
 70
     1
102
RTVSPropertyOp15
 70
     1
102
RTVSPropertyOp16
 70
     1
102
RTVSPropertyOp17
 70
     1
102
RTVSPropertyOp18
 70
     1
102
RTVSPropertyOp19
 70
     1
102
RTVSPropertyOp20
 70
     1
102
RTVSPropertyOp21
 70
     1
102
RTVSPropertyOp22
 70
     1
102
RTVSPropertyOp23
 70
     1
102
RTVSPropertyOp24
 70
     1
102
RTVSPropertyOp25
 70
     1
102
RTVSPropertyOp26
 70
     1
102
RTVSPropertyOp27
 70
     1
102
RTVSPropertyOp28
 70
     1
102
RTVSPropertyOp29
 70
     1
102
RTVSPropertyOp30
 70
     1
102
RTVSPropertyOp31
 70
     1
102
RTVSPropertyOp32
 70
     1
102
RTVSPropertyOp33
 70
     1
102
RTVSPropertyOp34
 70
     1
102
RTVSPropertyOp35
 70
     1
102
RTVSPropertyOp36
 70
     1
102
RTVSPropertyOp37
 70
     1
102
RTVSPropertyOp38
 70
     1
102
RTVSPropertyOp39
 70
     1
102
RTVSPropertyOp40
 70
     1
102
RTVSPropertyOp41
 70
     1
102
RTVSPropertyOp42
 70
     1
102
RTVSPropertyOp43
 70
     1
102
RTVSPropertyOp44
 70
     1
102
RTVSPropertyOp45
 70
     1
102
RTVSPropertyOp46
 70
     1
102
RTVSPropertyOp47
 70
     1
102
RTVSPropertyOp48
 70
     1
102
RTVSPropertyOp49
 70
     1
102
RTVSPropertyOp50
 70
     1
102
RTVSPropertyOp51
 70
     0
102
RTVSPropertyOp52
 70
     0
102
RTVSPropertyOp53
 70
     1
102
RTVSPropertyOp54
 70
     1
102
RTVSPropertyOp55
 70
     1
102
RTVSPropertyOp56
 70
     1
102
RTVSPropertyOp57
 70
     1
102
RTVSPropertyOp58
 70
     1
102
RTVSPropertyOp59
 70
     1
102
RTVSPropertyOp60
 70
     1
102
RTVSPropertyOp61
 70
     1
102
RTVSPropertyOp62
 70
     1
  0
XRECORD
  5
AF03D
102
{ACAD_REACTORS
330
AF03C
102
}
330
AF03C
100
AcDbXrecord
280
     1
102
RTVSPost2010Prop28
280
     0
102
RTVSPost2010PropOp28
 70
     1
102
RTVSPost2010Prop29
280
     1
102
RTVSPost2010PropOp29
 70
     1
102
RTVSPost2010Prop30
280
     1
102
RTVSPost2010PropOp30
 70
     1
102
RTVSPost2010Prop31
280
     0
102
RTVSPost2010PropOp31
 70
     1
102
RTVSPost2010Prop32
280
     0
102
RTVSPost2010PropOp32
 70
     1
102
RTVSPost2010Prop33
280
     0
102
RTVSPost2010PropOp33
 70
     1
102
RTVSPost2010Prop34
280
     0
102
RTVSPost2010PropOp34
 70
     1
102
RTVSPost2010Prop35
280
     0
102
RTVSPost2010PropOp35
 70
     1
102
RTVSPost2010Prop36
280
     0
102
RTVSPost2010PropOp36
 70
     1
102
RTVSPost2010Prop37
 90
       50
102
RTVSPost2010PropOp37
 70
     1
102
RTVSPost2010Prop38
140
0.0
102
RTVSPost2010PropOp38
 70
     1
102
RTVSPost2010Prop39
140
1.0
102
RTVSPost2010PropOp39
 70
     1
102
RTVSPost2010Prop40
 90
        0
102
RTVSPost2010PropOp40
 70
     1
102
RTVSPost2010Prop41ColorIndex
 90
       18
102
RTVSPost2010Prop41ColorRGB
 90
        0
102
RTVSPost2010PropOp41
 70
     1
102
RTVSPost2010Prop42
 90
       50
102
RTVSPost2010PropOp42
 70
     1
102
RTVSPost2010Prop43
 90
        3
102
RTVSPost2010PropOp43
 70
     1
102
RTVSPost2010Prop44ColorIndex
 90
        5
102
RTVSPost2010Prop44ColorRGB
 90
      255
102
RTVSPost2010PropOp44
 70
     1
102
RTVSPost2010Prop45
280
     0
102
RTVSPost2010PropOp45
 70
     1
102
RTVSPost2010Prop46
 90
       50
102
RTVSPost2010PropOp46
 70
     1
102
RTVSPost2010Prop47
 90
       50
102
RTVSPost2010PropOp47
 70
     1
102
RTVSPost2010Prop48
 90
       50
102
RTVSPost2010PropOp48
 70
     1
102
RTVSPost2010Prop49
280
     0
102
RTVSPost2010PropOp49
 70
     1
102
RTVSPost2010Prop50
 90
       50
102
RTVSPost2010PropOp50
 70
     1
102
RTVSPost2010Prop51ColorIndex
 90
      256
102
RTVSPost2010Prop51ColorRGB
 90
-16777216
102
RTVSPost2010PropOp51
 70
     0
102
RTVSPost2010Prop52
140
1.0
102
RTVSPost2010PropOp52
 70
     0
102
RTVSPost2010Prop53
 90
        2
102
RTVSPost2010PropOp53
 70
     1
102
RTVSPost2010Prop54
  1
strokes_ogs.tif
102
RTVSPost2010PropOp54
 70
     1
102
RTVSPost2010Prop55
280
     0
102
RTVSPost2010PropOp55
 70
     1
102
RTVSPost2010Prop56
140
1.0
102
RTVSPost2010PropOp56
 70
     1
102
RTVSPost2010Prop57
140
1.0
102
RTVSPost2010PropOp57
 70
     1
102
RTVSPropertyOp0
 70
     1
102
RTVSPropertyOp1
 70
     1
102
RTVSPropertyOp2
 70
     1
102
RTVSPropertyOp3
 70
     1
102
RTVSPropertyOp4
 70
     1
102
RTVSPropertyOp5
 70
     1
102
RTVSPropertyOp6
 70
     1
102
RTVSPropertyOp7
 70
     1
102
RTVSPropertyOp8
 70
     1
102
RTVSPropertyOp9
 70
     1
102
RTVSPropertyOp10
 70
     1
102
RTVSPropertyOp11
 70
     1
102
RTVSPropertyOp12
 70
     1
102
RTVSPropertyOp13
 70
     1
102
RTVSPropertyOp14
 70
     1
102
RTVSPropertyOp15
 70
     1
102
RTVSPropertyOp16
 70
     1
102
RTVSPropertyOp17
 70
     1
102
RTVSPropertyOp18
 70
     1
102
RTVSPropertyOp19
 70
     1
102
RTVSPropertyOp20
 70
     1
102
RTVSPropertyOp21
 70
     1
102
RTVSPropertyOp22
 70
     1
102
RTVSPropertyOp23
 70
     1
102
RTVSPropertyOp24
 70
     1
102
RTVSPropertyOp25
 70
     1
102
RTVSPropertyOp26
 70
     1
102
RTVSPropertyOp27
 70
     1
102
RTVSPropertyOp28
 70
     1
102
RTVSPropertyOp29
 70
     1
102
RTVSPropertyOp30
 70
     1
102
RTVSPropertyOp31
 70
     1
102
RTVSPropertyOp32
 70
     1
102
RTVSPropertyOp33
 70
     1
102
RTVSPropertyOp34
 70
     1
102
RTVSPropertyOp35
 70
     1
102
RTVSPropertyOp36
 70
     1
102
RTVSPropertyOp37
 70
     1
102
RTVSPropertyOp38
 70
     1
102
RTVSPropertyOp39
 70
     1
102
RTVSPropertyOp40
 70
     1
102
RTVSPropertyOp41
 70
     1
102
RTVSPropertyOp42
 70
     1
102
RTVSPropertyOp43
 70
     1
102
RTVSPropertyOp44
 70
     1
102
RTVSPropertyOp45
 70
     1
102
RTVSPropertyOp46
 70
     1
102
RTVSPropertyOp47
 70
     1
102
RTVSPropertyOp48
 70
     1
102
RTVSPropertyOp49
 70
     1
102
RTVSPropertyOp50
 70
     1
102
RTVSPropertyOp51
 70
     0
102
RTVSPropertyOp52
 70
     0
102
RTVSPropertyOp53
 70
     1
102
RTVSPropertyOp54
 70
     1
102
RTVSPropertyOp55
 70
     1
102
RTVSPropertyOp56
 70
     1
102
RTVSPropertyOp57
 70
     1
102
RTVSPropertyOp58
 70
     1
102
RTVSPropertyOp59
 70
     1
102
RTVSPropertyOp60
 70
     1
102
RTVSPropertyOp61
 70
     1
102
RTVSPropertyOp62
 70
     1
  0
XRECORD
  5
AF03F
102
{ACAD_REACTORS
330
AF03E
102
}
330
AF03E
100
AcDbXrecord
280
     1
102
RTVSPost2010Prop28
280
     0
102
RTVSPost2010PropOp28
 70
     1
102
RTVSPost2010Prop29
280
     1
102
RTVSPost2010PropOp29
 70
     1
102
RTVSPost2010Prop30
280
     1
102
RTVSPost2010PropOp30
 70
     1
102
RTVSPost2010Prop31
280
     0
102
RTVSPost2010PropOp31
 70
     1
102
RTVSPost2010Prop32
280
     0
102
RTVSPost2010PropOp32
 70
     1
102
RTVSPost2010Prop33
280
     0
102
RTVSPost2010PropOp33
 70
     1
102
RTVSPost2010Prop34
280
     0
102
RTVSPost2010PropOp34
 70
     1
102
RTVSPost2010Prop35
280
     0
102
RTVSPost2010PropOp35
 70
     1
102
RTVSPost2010Prop36
280
     0
102
RTVSPost2010PropOp36
 70
     1
102
RTVSPost2010Prop37
 90
       50
102
RTVSPost2010PropOp37
 70
     1
102
RTVSPost2010Prop38
140
0.0
102
RTVSPost2010PropOp38
 70
     1
102
RTVSPost2010Prop39
140
1.0
102
RTVSPost2010PropOp39
 70
     1
102
RTVSPost2010Prop40
 90
        0
102
RTVSPost2010PropOp40
 70
     1
102
RTVSPost2010Prop41ColorIndex
 90
       18
102
RTVSPost2010Prop41ColorRGB
 90
        0
102
RTVSPost2010PropOp41
 70
     1
102
RTVSPost2010Prop42
 90
       50
102
RTVSPost2010PropOp42
 70
     1
102
RTVSPost2010Prop43
 90
        3
102
RTVSPost2010PropOp43
 70
     1
102
RTVSPost2010Prop44ColorIndex
 90
        5
102
RTVSPost2010Prop44ColorRGB
 90
      255
102
RTVSPost2010PropOp44
 70
     1
102
RTVSPost2010Prop45
280
     0
102
RTVSPost2010PropOp45
 70
     1
102
RTVSPost2010Prop46
 90
       50
102
RTVSPost2010PropOp46
 70
     1
102
RTVSPost2010Prop47
 90
       50
102
RTVSPost2010PropOp47
 70
     1
102
RTVSPost2010Prop48
 90
       50
102
RTVSPost2010PropOp48
 70
     1
102
RTVSPost2010Prop49
280
     0
102
RTVSPost2010PropOp49
 70
     1
102
RTVSPost2010Prop50
 90
       50
102
RTVSPost2010PropOp50
 70
     1
102
RTVSPost2010Prop51ColorIndex
 90
      256
102
RTVSPost2010Prop51ColorRGB
 90
-16777216
102
RTVSPost2010PropOp51
 70
     0
102
RTVSPost2010Prop52
140
1.0
102
RTVSPost2010PropOp52
 70
     0
102
RTVSPost2010Prop53
 90
        2
102
RTVSPost2010PropOp53
 70
     1
102
RTVSPost2010Prop54
  1
strokes_ogs.tif
102
RTVSPost2010PropOp54
 70
     1
102
RTVSPost2010Prop55
280
     0
102
RTVSPost2010PropOp55
 70
     1
102
RTVSPost2010Prop56
140
1.0
102
RTVSPost2010PropOp56
 70
     1
102
RTVSPost2010Prop57
140
1.0
102
RTVSPost2010PropOp57
 70
     1
102
RTVSPropertyOp0
 70
     1
102
RTVSPropertyOp1
 70
     1
102
RTVSPropertyOp2
 70
     1
102
RTVSPropertyOp3
 70
     1
102
RTVSPropertyOp4
 70
     1
102
RTVSPropertyOp5
 70
     1
102
RTVSPropertyOp6
 70
     1
102
RTVSPropertyOp7
 70
     1
102
RTVSPropertyOp8
 70
     1
102
RTVSPropertyOp9
 70
     1
102
RTVSPropertyOp10
 70
     1
102
RTVSPropertyOp11
 70
     1
102
RTVSPropertyOp12
 70
     1
102
RTVSPropertyOp13
 70
     1
102
RTVSPropertyOp14
 70
     1
102
RTVSPropertyOp15
 70
     1
102
RTVSPropertyOp16
 70
     1
102
RTVSPropertyOp17
 70
     1
102
RTVSPropertyOp18
 70
     1
102
RTVSPropertyOp19
 70
     1
102
RTVSPropertyOp20
 70
     1
102
RTVSPropertyOp21
 70
     1
102
RTVSPropertyOp22
 70
     1
102
RTVSPropertyOp23
 70
     1
102
RTVSPropertyOp24
 70
     1
102
RTVSPropertyOp25
 70
     1
102
RTVSPropertyOp26
 70
     1
102
RTVSPropertyOp27
 70
     1
102
RTVSPropertyOp28
 70
     1
102
RTVSPropertyOp29
 70
     1
102
RTVSPropertyOp30
 70
     1
102
RTVSPropertyOp31
 70
     1
102
RTVSPropertyOp32
 70
     1
102
RTVSPropertyOp33
 70
     1
102
RTVSPropertyOp34
 70
     1
102
RTVSPropertyOp35
 70
     1
102
RTVSPropertyOp36
 70
     1
102
RTVSPropertyOp37
 70
     1
102
RTVSPropertyOp38
 70
     1
102
RTVSPropertyOp39
 70
     1
102
RTVSPropertyOp40
 70
     1
102
RTVSPropertyOp41
 70
     1
102
RTVSPropertyOp42
 70
     1
102
RTVSPropertyOp43
 70
     1
102
RTVSPropertyOp44
 70
     1
102
RTVSPropertyOp45
 70
     1
102
RTVSPropertyOp46
 70
     1
102
RTVSPropertyOp47
 70
     1
102
RTVSPropertyOp48
 70
     1
102
RTVSPropertyOp49
 70
     1
102
RTVSPropertyOp50
 70
     1
102
RTVSPropertyOp51
 70
     0
102
RTVSPropertyOp52
 70
     0
102
RTVSPropertyOp53
 70
     1
102
RTVSPropertyOp54
 70
     1
102
RTVSPropertyOp55
 70
     1
102
RTVSPropertyOp56
 70
     1
102
RTVSPropertyOp57
 70
     1
102
RTVSPropertyOp58
 70
     1
102
RTVSPropertyOp59
 70
     1
102
RTVSPropertyOp60
 70
     1
102
RTVSPropertyOp61
 70
     1
102
RTVSPropertyOp62
 70
     1
  0
XRECORD
  5
AF041
102
{ACAD_REACTORS
330
AF040
102
}
330
AF040
100
AcDbXrecord
280
     1
102
RTVSPost2010Prop28
280
     0
102
RTVSPost2010PropOp28
 70
     1
102
RTVSPost2010Prop29
280
     1
102
RTVSPost2010PropOp29
 70
     1
102
RTVSPost2010Prop30
280
     1
102
RTVSPost2010PropOp30
 70
     1
102
RTVSPost2010Prop31
280
     0
102
RTVSPost2010PropOp31
 70
     1
102
RTVSPost2010Prop32
280
     0
102
RTVSPost2010PropOp32
 70
     1
102
RTVSPost2010Prop33
280
     0
102
RTVSPost2010PropOp33
 70
     1
102
RTVSPost2010Prop34
280
     0
102
RTVSPost2010PropOp34
 70
     1
102
RTVSPost2010Prop35
280
     0
102
RTVSPost2010PropOp35
 70
     1
102
RTVSPost2010Prop36
280
     0
102
RTVSPost2010PropOp36
 70
     1
102
RTVSPost2010Prop37
 90
       50
102
RTVSPost2010PropOp37
 70
     1
102
RTVSPost2010Prop38
140
0.0
102
RTVSPost2010PropOp38
 70
     1
102
RTVSPost2010Prop39
140
1.0
102
RTVSPost2010PropOp39
 70
     1
102
RTVSPost2010Prop40
 90
        0
102
RTVSPost2010PropOp40
 70
     1
102
RTVSPost2010Prop41ColorIndex
 90
       18
102
RTVSPost2010Prop41ColorRGB
 90
        0
102
RTVSPost2010PropOp41
 70
     1
102
RTVSPost2010Prop42
 90
       50
102
RTVSPost2010PropOp42
 70
     1
102
RTVSPost2010Prop43
 90
        3
102
RTVSPost2010PropOp43
 70
     1
102
RTVSPost2010Prop44ColorIndex
 90
        5
102
RTVSPost2010Prop44ColorRGB
 90
      255
102
RTVSPost2010PropOp44
 70
     1
102
RTVSPost2010Prop45
280
     0
102
RTVSPost2010PropOp45
 70
     1
102
RTVSPost2010Prop46
 90
       50
102
RTVSPost2010PropOp46
 70
     1
102
RTVSPost2010Prop47
 90
       50
102
RTVSPost2010PropOp47
 70
     1
102
RTVSPost2010Prop48
 90
       50
102
RTVSPost2010PropOp48
 70
     1
102
RTVSPost2010Prop49
280
     0
102
RTVSPost2010PropOp49
 70
     1
102
RTVSPost2010Prop50
 90
       50
102
RTVSPost2010PropOp50
 70
     1
102
RTVSPost2010Prop51ColorIndex
 90
      256
102
RTVSPost2010Prop51ColorRGB
 90
-16777216
102
RTVSPost2010PropOp51
 70
     0
102
RTVSPost2010Prop52
140
1.0
102
RTVSPost2010PropOp52
 70
     0
102
RTVSPost2010Prop53
 90
        2
102
RTVSPost2010PropOp53
 70
     1
102
RTVSPost2010Prop54
  1
strokes_ogs.tif
102
RTVSPost2010PropOp54
 70
     1
102
RTVSPost2010Prop55
280
     0
102
RTVSPost2010PropOp55
 70
     1
102
RTVSPost2010Prop56
140
1.0
102
RTVSPost2010PropOp56
 70
     1
102
RTVSPost2010Prop57
140
1.0
102
RTVSPost2010PropOp57
 70
     1
102
RTVSPropertyOp0
 70
     1
102
RTVSPropertyOp1
 70
     1
102
RTVSPropertyOp2
 70
     1
102
RTVSPropertyOp3
 70
     1
102
RTVSPropertyOp4
 70
     1
102
RTVSPropertyOp5
 70
     1
102
RTVSPropertyOp6
 70
     1
102
RTVSPropertyOp7
 70
     1
102
RTVSPropertyOp8
 70
     1
102
RTVSPropertyOp9
 70
     1
102
RTVSPropertyOp10
 70
     1
102
RTVSPropertyOp11
 70
     1
102
RTVSPropertyOp12
 70
     1
102
RTVSPropertyOp13
 70
     1
102
RTVSPropertyOp14
 70
     1
102
RTVSPropertyOp15
 70
     1
102
RTVSPropertyOp16
 70
     1
102
RTVSPropertyOp17
 70
     1
102
RTVSPropertyOp18
 70
     1
102
RTVSPropertyOp19
 70
     1
102
RTVSPropertyOp20
 70
     1
102
RTVSPropertyOp21
 70
     1
102
RTVSPropertyOp22
 70
     1
102
RTVSPropertyOp23
 70
     1
102
RTVSPropertyOp24
 70
     1
102
RTVSPropertyOp25
 70
     1
102
RTVSPropertyOp26
 70
     1
102
RTVSPropertyOp27
 70
     1
102
RTVSPropertyOp28
 70
     1
102
RTVSPropertyOp29
 70
     1
102
RTVSPropertyOp30
 70
     1
102
RTVSPropertyOp31
 70
     1
102
RTVSPropertyOp32
 70
     1
102
RTVSPropertyOp33
 70
     1
102
RTVSPropertyOp34
 70
     1
102
RTVSPropertyOp35
 70
     1
102
RTVSPropertyOp36
 70
     1
102
RTVSPropertyOp37
 70
     1
102
RTVSPropertyOp38
 70
     1
102
RTVSPropertyOp39
 70
     1
102
RTVSPropertyOp40
 70
     1
102
RTVSPropertyOp41
 70
     1
102
RTVSPropertyOp42
 70
     1
102
RTVSPropertyOp43
 70
     1
102
RTVSPropertyOp44
 70
     1
102
RTVSPropertyOp45
 70
     1
102
RTVSPropertyOp46
 70
     1
102
RTVSPropertyOp47
 70
     1
102
RTVSPropertyOp48
 70
     1
102
RTVSPropertyOp49
 70
     1
102
RTVSPropertyOp50
 70
     1
102
RTVSPropertyOp51
 70
     0
102
RTVSPropertyOp52
 70
     0
102
RTVSPropertyOp53
 70
     1
102
RTVSPropertyOp54
 70
     1
102
RTVSPropertyOp55
 70
     1
102
RTVSPropertyOp56
 70
     1
102
RTVSPropertyOp57
 70
     1
102
RTVSPropertyOp58
 70
     1
102
RTVSPropertyOp59
 70
     1
102
RTVSPropertyOp60
 70
     1
102
RTVSPropertyOp61
 70
     1
102
RTVSPropertyOp62
 70
     1
  0
XRECORD
  5
AF05D
102
{ACAD_REACTORS
330
AF05C
102
}
330
AF05C
100
AcDbXrecord
280
     1
102
RTVSPost2010Prop28
280
     0
102
RTVSPost2010PropOp28
 70
     1
102
RTVSPost2010Prop29
280
     1
102
RTVSPost2010PropOp29
 70
     1
102
RTVSPost2010Prop30
280
     1
102
RTVSPost2010PropOp30
 70
     1
102
RTVSPost2010Prop31
280
     0
102
RTVSPost2010PropOp31
 70
     1
102
RTVSPost2010Prop32
280
     0
102
RTVSPost2010PropOp32
 70
     1
102
RTVSPost2010Prop33
280
     0
102
RTVSPost2010PropOp33
 70
     1
102
RTVSPost2010Prop34
280
     0
102
RTVSPost2010PropOp34
 70
     1
102
RTVSPost2010Prop35
280
     0
102
RTVSPost2010PropOp35
 70
     1
102
RTVSPost2010Prop36
280
     0
102
RTVSPost2010PropOp36
 70
     1
102
RTVSPost2010Prop37
 90
       50
102
RTVSPost2010PropOp37
 70
     1
102
RTVSPost2010Prop38
140
0.0
102
RTVSPost2010PropOp38
 70
     1
102
RTVSPost2010Prop39
140
1.0
102
RTVSPost2010PropOp39
 70
     1
102
RTVSPost2010Prop40
 90
        0
102
RTVSPost2010PropOp40
 70
     1
102
RTVSPost2010Prop41ColorIndex
 90
       18
102
RTVSPost2010Prop41ColorRGB
 90
        0
102
RTVSPost2010PropOp41
 70
     1
102
RTVSPost2010Prop42
 90
       50
102
RTVSPost2010PropOp42
 70
     1
102
RTVSPost2010Prop43
 90
        3
102
RTVSPost2010PropOp43
 70
     1
102
RTVSPost2010Prop44ColorIndex
 90
        5
102
RTVSPost2010Prop44ColorRGB
 90
      255
102
RTVSPost2010PropOp44
 70
     1
102
RTVSPost2010Prop45
280
     0
102
RTVSPost2010PropOp45
 70
     1
102
RTVSPost2010Prop46
 90
       50
102
RTVSPost2010PropOp46
 70
     1
102
RTVSPost2010Prop47
 90
       50
102
RTVSPost2010PropOp47
 70
     1
102
RTVSPost2010Prop48
 90
       50
102
RTVSPost2010PropOp48
 70
     1
102
RTVSPost2010Prop49
280
     0
102
RTVSPost2010PropOp49
 70
     1
102
RTVSPost2010Prop50
 90
       50
102
RTVSPost2010PropOp50
 70
     1
102
RTVSPost2010Prop51ColorIndex
 90
      256
102
RTVSPost2010Prop51ColorRGB
 90
-16777216
102
RTVSPost2010PropOp51
 70
     0
102
RTVSPost2010Prop52
140
1.0
102
RTVSPost2010PropOp52
 70
     0
102
RTVSPost2010Prop53
 90
        2
102
RTVSPost2010PropOp53
 70
     1
102
RTVSPost2010Prop54
  1
strokes_ogs.tif
102
RTVSPost2010PropOp54
 70
     1
102
RTVSPost2010Prop55
280
     0
102
RTVSPost2010PropOp55
 70
     1
102
RTVSPost2010Prop56
140
1.0
102
RTVSPost2010PropOp56
 70
     1
102
RTVSPost2010Prop57
140
1.0
102
RTVSPost2010PropOp57
 70
     1
102
RTVSPropertyOp0
 70
     1
102
RTVSPropertyOp1
 70
     1
102
RTVSPropertyOp2
 70
     1
102
RTVSPropertyOp3
 70
     1
102
RTVSPropertyOp4
 70
     1
102
RTVSPropertyOp5
 70
     1
102
RTVSPropertyOp6
 70
     1
102
RTVSPropertyOp7
 70
     1
102
RTVSPropertyOp8
 70
     1
102
RTVSPropertyOp9
 70
     1
102
RTVSPropertyOp10
 70
     1
102
RTVSPropertyOp11
 70
     1
102
RTVSPropertyOp12
 70
     1
102
RTVSPropertyOp13
 70
     1
102
RTVSPropertyOp14
 70
     1
102
RTVSPropertyOp15
 70
     1
102
RTVSPropertyOp16
 70
     1
102
RTVSPropertyOp17
 70
     1
102
RTVSPropertyOp18
 70
     1
102
RTVSPropertyOp19
 70
     1
102
RTVSPropertyOp20
 70
     1
102
RTVSPropertyOp21
 70
     1
102
RTVSPropertyOp22
 70
     1
102
RTVSPropertyOp23
 70
     1
102
RTVSPropertyOp24
 70
     1
102
RTVSPropertyOp25
 70
     1
102
RTVSPropertyOp26
 70
     1
102
RTVSPropertyOp27
 70
     1
102
RTVSPropertyOp28
 70
     1
102
RTVSPropertyOp29
 70
     1
102
RTVSPropertyOp30
 70
     1
102
RTVSPropertyOp31
 70
     1
102
RTVSPropertyOp32
 70
     1
102
RTVSPropertyOp33
 70
     1
102
RTVSPropertyOp34
 70
     1
102
RTVSPropertyOp35
 70
     1
102
RTVSPropertyOp36
 70
     1
102
RTVSPropertyOp37
 70
     1
102
RTVSPropertyOp38
 70
     1
102
RTVSPropertyOp39
 70
     1
102
RTVSPropertyOp40
 70
     1
102
RTVSPropertyOp41
 70
     1
102
RTVSPropertyOp42
 70
     1
102
RTVSPropertyOp43
 70
     1
102
RTVSPropertyOp44
 70
     1
102
RTVSPropertyOp45
 70
     1
102
RTVSPropertyOp46
 70
     1
102
RTVSPropertyOp47
 70
     1
102
RTVSPropertyOp48
 70
     1
102
RTVSPropertyOp49
 70
     1
102
RTVSPropertyOp50
 70
     1
102
RTVSPropertyOp51
 70
     0
102
RTVSPropertyOp52
 70
     0
102
RTVSPropertyOp53
 70
     1
102
RTVSPropertyOp54
 70
     1
102
RTVSPropertyOp55
 70
     1
102
RTVSPropertyOp56
 70
     1
102
RTVSPropertyOp57
 70
     1
102
RTVSPropertyOp58
 70
     1
102
RTVSPropertyOp59
 70
     1
102
RTVSPropertyOp60
 70
     1
102
RTVSPropertyOp61
 70
     1
102
RTVSPropertyOp62
 70
     1
  0
XRECORD
  5
AF069
102
{ACAD_REACTORS
330
AF068
102
}
330
AF068
100
AcDbXrecord
280
     1
102
RTVSPost2010Prop28
280
     0
102
RTVSPost2010PropOp28
 70
     1
102
RTVSPost2010Prop29
280
     1
102
RTVSPost2010PropOp29
 70
     1
102
RTVSPost2010Prop30
280
     1
102
RTVSPost2010PropOp30
 70
     1
102
RTVSPost2010Prop31
280
     0
102
RTVSPost2010PropOp31
 70
     1
102
RTVSPost2010Prop32
280
     0
102
RTVSPost2010PropOp32
 70
     1
102
RTVSPost2010Prop33
280
     0
102
RTVSPost2010PropOp33
 70
     1
102
RTVSPost2010Prop34
280
     0
102
RTVSPost2010PropOp34
 70
     1
102
RTVSPost2010Prop35
280
     0
102
RTVSPost2010PropOp35
 70
     1
102
RTVSPost2010Prop36
280
     0
102
RTVSPost2010PropOp36
 70
     1
102
RTVSPost2010Prop37
 90
       50
102
RTVSPost2010PropOp37
 70
     0
102
RTVSPost2010Prop38
140
0.0
102
RTVSPost2010PropOp38
 70
     0
102
RTVSPost2010Prop39
140
1.0
102
RTVSPost2010PropOp39
 70
     0
102
RTVSPost2010Prop40
 90
        0
102
RTVSPost2010PropOp40
 70
     0
102
RTVSPost2010Prop41ColorIndex
 90
       18
102
RTVSPost2010Prop41ColorRGB
 90
        0
102
RTVSPost2010PropOp41
 70
     0
102
RTVSPost2010Prop42
 90
       50
102
RTVSPost2010PropOp42
 70
     0
102
RTVSPost2010Prop43
 90
        3
102
RTVSPost2010PropOp43
 70
     0
102
RTVSPost2010Prop44ColorIndex
 90
        5
102
RTVSPost2010Prop44ColorRGB
 90
      255
102
RTVSPost2010PropOp44
 70
     0
102
RTVSPost2010Prop45
280
     0
102
RTVSPost2010PropOp45
 70
     1
102
RTVSPost2010Prop46
 90
       50
102
RTVSPost2010PropOp46
 70
     0
102
RTVSPost2010Prop47
 90
       50
102
RTVSPost2010PropOp47
 70
     0
102
RTVSPost2010Prop48
 90
       50
102
RTVSPost2010PropOp48
 70
     0
102
RTVSPost2010Prop49
280
     0
102
RTVSPost2010PropOp49
 70
     1
102
RTVSPost2010Prop50
 90
       50
102
RTVSPost2010PropOp50
 70
     0
102
RTVSPost2010Prop51ColorIndex
 90
      256
102
RTVSPost2010Prop51ColorRGB
 90
-16777216
102
RTVSPost2010PropOp51
 70
     0
102
RTVSPost2010Prop52
140
1.0
102
RTVSPost2010PropOp52
 70
     0
102
RTVSPost2010Prop53
 90
        2
102
RTVSPost2010PropOp53
 70
     0
102
RTVSPost2010Prop54
  1
strokes_ogs.tif
102
RTVSPost2010PropOp54
 70
     0
102
RTVSPost2010Prop55
280
     0
102
RTVSPost2010PropOp55
 70
     1
102
RTVSPost2010Prop56
140
1.0
102
RTVSPost2010PropOp56
 70
     0
102
RTVSPost2010Prop57
140
1.0
102
RTVSPost2010PropOp57
 70
     0
102
RTVSPropertyOp0
 70
     0
102
RTVSPropertyOp1
 70
     0
102
RTVSPropertyOp2
 70
     0
102
RTVSPropertyOp3
 70
     0
102
RTVSPropertyOp4
 70
     0
102
RTVSPropertyOp5
 70
     0
102
RTVSPropertyOp6
 70
     0
102
RTVSPropertyOp7
 70
     0
102
RTVSPropertyOp8
 70
     0
102
RTVSPropertyOp9
 70
     0
102
RTVSPropertyOp10
 70
     0
102
RTVSPropertyOp11
 70
     0
102
RTVSPropertyOp12
 70
     0
102
RTVSPropertyOp13
 70
     0
102
RTVSPropertyOp14
 70
     2
102
RTVSPropertyOp15
 70
     0
102
RTVSPropertyOp16
 70
     0
102
RTVSPropertyOp17
 70
     0
102
RTVSPropertyOp18
 70
     0
102
RTVSPropertyOp19
 70
     0
102
RTVSPropertyOp20
 70
     0
102
RTVSPropertyOp21
 70
     0
102
RTVSPropertyOp22
 70
     0
102
RTVSPropertyOp23
 70
     0
102
RTVSPropertyOp24
 70
     0
102
RTVSPropertyOp25
 70
     0
102
RTVSPropertyOp26
 70
     0
102
RTVSPropertyOp27
 70
     0
102
RTVSPropertyOp28
 70
     1
102
RTVSPropertyOp29
 70
     1
102
RTVSPropertyOp30
 70
     1
102
RTVSPropertyOp31
 70
     1
102
RTVSPropertyOp32
 70
     1
102
RTVSPropertyOp33
 70
     1
102
RTVSPropertyOp34
 70
     1
102
RTVSPropertyOp35
 70
     1
102
RTVSPropertyOp36
 70
     1
102
RTVSPropertyOp37
 70
     0
102
RTVSPropertyOp38
 70
     0
102
RTVSPropertyOp39
 70
     0
102
RTVSPropertyOp40
 70
     0
102
RTVSPropertyOp41
 70
     0
102
RTVSPropertyOp42
 70
     0
102
RTVSPropertyOp43
 70
     0
102
RTVSPropertyOp44
 70
     0
102
RTVSPropertyOp45
 70
     1
102
RTVSPropertyOp46
 70
     0
102
RTVSPropertyOp47
 70
     0
102
RTVSPropertyOp48
 70
     0
102
RTVSPropertyOp49
 70
     1
102
RTVSPropertyOp50
 70
     0
102
RTVSPropertyOp51
 70
     0
102
RTVSPropertyOp52
 70
     0
102
RTVSPropertyOp53
 70
     0
102
RTVSPropertyOp54
 70
     0
102
RTVSPropertyOp55
 70
     1
102
RTVSPropertyOp56
 70
     0
102
RTVSPropertyOp57
 70
     0
102
RTVSPropertyOp58
 70
     1
102
RTVSPropertyOp59
 70
     1
102
RTVSPropertyOp60
 70
     1
102
RTVSPropertyOp61
 70
     1
102
RTVSPropertyOp62
 70
     1
  0
XRECORD
  5
AF055
102
{ACAD_REACTORS
330
AF054
102
}
330
AF054
100
AcDbXrecord
280
     1
102
RTVSPost2010Prop28
280
     0
102
RTVSPost2010PropOp28
 70
     1
102
RTVSPost2010Prop29
280
     1
102
RTVSPost2010PropOp29
 70
     1
102
RTVSPost2010Prop30
280
     1
102
RTVSPost2010PropOp30
 70
     1
102
RTVSPost2010Prop31
280
     0
102
RTVSPost2010PropOp31
 70
     1
102
RTVSPost2010Prop32
280
     0
102
RTVSPost2010PropOp32
 70
     1
102
RTVSPost2010Prop33
280
     0
102
RTVSPost2010PropOp33
 70
     1
102
RTVSPost2010Prop34
280
     0
102
RTVSPost2010PropOp34
 70
     1
102
RTVSPost2010Prop35
280
     0
102
RTVSPost2010PropOp35
 70
     1
102
RTVSPost2010Prop36
280
     0
102
RTVSPost2010PropOp36
 70
     1
102
RTVSPost2010Prop37
 90
       50
102
RTVSPost2010PropOp37
 70
     1
102
RTVSPost2010Prop38
140
0.0
102
RTVSPost2010PropOp38
 70
     1
102
RTVSPost2010Prop39
140
1.0
102
RTVSPost2010PropOp39
 70
     1
102
RTVSPost2010Prop40
 90
        0
102
RTVSPost2010PropOp40
 70
     1
102
RTVSPost2010Prop41ColorIndex
 90
       18
102
RTVSPost2010Prop41ColorRGB
 90
        0
102
RTVSPost2010PropOp41
 70
     1
102
RTVSPost2010Prop42
 90
       50
102
RTVSPost2010PropOp42
 70
     1
102
RTVSPost2010Prop43
 90
        3
102
RTVSPost2010PropOp43
 70
     1
102
RTVSPost2010Prop44ColorIndex
 90
        5
102
RTVSPost2010Prop44ColorRGB
 90
      255
102
RTVSPost2010PropOp44
 70
     1
102
RTVSPost2010Prop45
280
     0
102
RTVSPost2010PropOp45
 70
     1
102
RTVSPost2010Prop46
 90
       50
102
RTVSPost2010PropOp46
 70
     1
102
RTVSPost2010Prop47
 90
       50
102
RTVSPost2010PropOp47
 70
     1
102
RTVSPost2010Prop48
 90
       50
102
RTVSPost2010PropOp48
 70
     1
102
RTVSPost2010Prop49
280
     0
102
RTVSPost2010PropOp49
 70
     1
102
RTVSPost2010Prop50
 90
       50
102
RTVSPost2010PropOp50
 70
     1
102
RTVSPost2010Prop51ColorIndex
 90
      256
102
RTVSPost2010Prop51ColorRGB
 90
-16777216
102
RTVSPost2010PropOp51
 70
     0
102
RTVSPost2010Prop52
140
1.0
102
RTVSPost2010PropOp52
 70
     0
102
RTVSPost2010Prop53
 90
        2
102
RTVSPost2010PropOp53
 70
     1
102
RTVSPost2010Prop54
  1
strokes_ogs.tif
102
RTVSPost2010PropOp54
 70
     1
102
RTVSPost2010Prop55
280
     0
102
RTVSPost2010PropOp55
 70
     1
102
RTVSPost2010Prop56
140
1.0
102
RTVSPost2010PropOp56
 70
     1
102
RTVSPost2010Prop57
140
1.0
102
RTVSPost2010PropOp57
 70
     1
102
RTVSPropertyOp0
 70
     1
102
RTVSPropertyOp1
 70
     1
102
RTVSPropertyOp2
 70
     1
102
RTVSPropertyOp3
 70
     1
102
RTVSPropertyOp4
 70
     1
102
RTVSPropertyOp5
 70
     1
102
RTVSPropertyOp6
 70
     1
102
RTVSPropertyOp7
 70
     1
102
RTVSPropertyOp8
 70
     1
102
RTVSPropertyOp9
 70
     1
102
RTVSPropertyOp10
 70
     1
102
RTVSPropertyOp11
 70
     1
102
RTVSPropertyOp12
 70
     1
102
RTVSPropertyOp13
 70
     1
102
RTVSPropertyOp14
 70
     1
102
RTVSPropertyOp15
 70
     1
102
RTVSPropertyOp16
 70
     1
102
RTVSPropertyOp17
 70
     1
102
RTVSPropertyOp18
 70
     1
102
RTVSPropertyOp19
 70
     1
102
RTVSPropertyOp20
 70
     1
102
RTVSPropertyOp21
 70
     1
102
RTVSPropertyOp22
 70
     1
102
RTVSPropertyOp23
 70
     1
102
RTVSPropertyOp24
 70
     1
102
RTVSPropertyOp25
 70
     1
102
RTVSPropertyOp26
 70
     1
102
RTVSPropertyOp27
 70
     1
102
RTVSPropertyOp28
 70
     1
102
RTVSPropertyOp29
 70
     1
102
RTVSPropertyOp30
 70
     1
102
RTVSPropertyOp31
 70
     1
102
RTVSPropertyOp32
 70
     1
102
RTVSPropertyOp33
 70
     1
102
RTVSPropertyOp34
 70
     1
102
RTVSPropertyOp35
 70
     1
102
RTVSPropertyOp36
 70
     1
102
RTVSPropertyOp37
 70
     1
102
RTVSPropertyOp38
 70
     1
102
RTVSPropertyOp39
 70
     1
102
RTVSPropertyOp40
 70
     1
102
RTVSPropertyOp41
 70
     1
102
RTVSPropertyOp42
 70
     1
102
RTVSPropertyOp43
 70
     1
102
RTVSPropertyOp44
 70
     1
102
RTVSPropertyOp45
 70
     1
102
RTVSPropertyOp46
 70
     1
102
RTVSPropertyOp47
 70
     1
102
RTVSPropertyOp48
 70
     1
102
RTVSPropertyOp49
 70
     1
102
RTVSPropertyOp50
 70
     1
102
RTVSPropertyOp51
 70
     0
102
RTVSPropertyOp52
 70
     0
102
RTVSPropertyOp53
 70
     1
102
RTVSPropertyOp54
 70
     1
102
RTVSPropertyOp55
 70
     1
102
RTVSPropertyOp56
 70
     1
102
RTVSPropertyOp57
 70
     1
102
RTVSPropertyOp58
 70
     1
102
RTVSPropertyOp59
 70
     1
102
RTVSPropertyOp60
 70
     1
102
RTVSPropertyOp61
 70
     1
102
RTVSPropertyOp62
 70
     1
  0
XRECORD
  5
AF06B
102
{ACAD_REACTORS
330
AF06A
102
}
330
AF06A
100
AcDbXrecord
280
     1
102
RTVSPost2010Prop28
280
     0
102
RTVSPost2010PropOp28
 70
     1
102
RTVSPost2010Prop29
280
     1
102
RTVSPost2010PropOp29
 70
     1
102
RTVSPost2010Prop30
280
     1
102
RTVSPost2010PropOp30
 70
     1
102
RTVSPost2010Prop31
280
     0
102
RTVSPost2010PropOp31
 70
     1
102
RTVSPost2010Prop32
280
     0
102
RTVSPost2010PropOp32
 70
     1
102
RTVSPost2010Prop33
280
     0
102
RTVSPost2010PropOp33
 70
     1
102
RTVSPost2010Prop34
280
     0
102
RTVSPost2010PropOp34
 70
     1
102
RTVSPost2010Prop35
280
     0
102
RTVSPost2010PropOp35
 70
     1
102
RTVSPost2010Prop36
280
     0
102
RTVSPost2010PropOp36
 70
     1
102
RTVSPost2010Prop37
 90
       50
102
RTVSPost2010PropOp37
 70
     0
102
RTVSPost2010Prop38
140
0.0
102
RTVSPost2010PropOp38
 70
     0
102
RTVSPost2010Prop39
140
1.0
102
RTVSPost2010PropOp39
 70
     0
102
RTVSPost2010Prop40
 90
        0
102
RTVSPost2010PropOp40
 70
     0
102
RTVSPost2010Prop41ColorIndex
 90
       18
102
RTVSPost2010Prop41ColorRGB
 90
        0
102
RTVSPost2010PropOp41
 70
     0
102
RTVSPost2010Prop42
 90
       50
102
RTVSPost2010PropOp42
 70
     0
102
RTVSPost2010Prop43
 90
        3
102
RTVSPost2010PropOp43
 70
     0
102
RTVSPost2010Prop44ColorIndex
 90
        5
102
RTVSPost2010Prop44ColorRGB
 90
      255
102
RTVSPost2010PropOp44
 70
     0
102
RTVSPost2010Prop45
280
     0
102
RTVSPost2010PropOp45
 70
     1
102
RTVSPost2010Prop46
 90
       50
102
RTVSPost2010PropOp46
 70
     0
102
RTVSPost2010Prop47
 90
       50
102
RTVSPost2010PropOp47
 70
     0
102
RTVSPost2010Prop48
 90
       50
102
RTVSPost2010PropOp48
 70
     0
102
RTVSPost2010Prop49
280
     0
102
RTVSPost2010PropOp49
 70
     1
102
RTVSPost2010Prop50
 90
       50
102
RTVSPost2010PropOp50
 70
     0
102
RTVSPost2010Prop51ColorIndex
 90
      256
102
RTVSPost2010Prop51ColorRGB
 90
-16777216
102
RTVSPost2010PropOp51
 70
     0
102
RTVSPost2010Prop52
140
1.0
102
RTVSPost2010PropOp52
 70
     0
102
RTVSPost2010Prop53
 90
        2
102
RTVSPost2010PropOp53
 70
     0
102
RTVSPost2010Prop54
  1
strokes_ogs.tif
102
RTVSPost2010PropOp54
 70
     0
102
RTVSPost2010Prop55
280
     0
102
RTVSPost2010PropOp55
 70
     1
102
RTVSPost2010Prop56
140
1.0
102
RTVSPost2010PropOp56
 70
     0
102
RTVSPost2010Prop57
140
1.0
102
RTVSPost2010PropOp57
 70
     0
102
RTVSPropertyOp0
 70
     0
102
RTVSPropertyOp1
 70
     0
102
RTVSPropertyOp2
 70
     0
102
RTVSPropertyOp3
 70
     0
102
RTVSPropertyOp4
 70
     0
102
RTVSPropertyOp5
 70
     0
102
RTVSPropertyOp6
 70
     0
102
RTVSPropertyOp7
 70
     0
102
RTVSPropertyOp8
 70
     0
102
RTVSPropertyOp9
 70
     0
102
RTVSPropertyOp10
 70
     0
102
RTVSPropertyOp11
 70
     0
102
RTVSPropertyOp12
 70
     0
102
RTVSPropertyOp13
 70
     0
102
RTVSPropertyOp14
 70
     2
102
RTVSPropertyOp15
 70
     0
102
RTVSPropertyOp16
 70
     0
102
RTVSPropertyOp17
 70
     0
102
RTVSPropertyOp18
 70
     0
102
RTVSPropertyOp19
 70
     0
102
RTVSPropertyOp20
 70
     0
102
RTVSPropertyOp21
 70
     0
102
RTVSPropertyOp22
 70
     0
102
RTVSPropertyOp23
 70
     0
102
RTVSPropertyOp24
 70
     0
102
RTVSPropertyOp25
 70
     0
102
RTVSPropertyOp26
 70
     0
102
RTVSPropertyOp27
 70
     0
102
RTVSPropertyOp28
 70
     1
102
RTVSPropertyOp29
 70
     1
102
RTVSPropertyOp30
 70
     1
102
RTVSPropertyOp31
 70
     1
102
RTVSPropertyOp32
 70
     1
102
RTVSPropertyOp33
 70
     1
102
RTVSPropertyOp34
 70
     1
102
RTVSPropertyOp35
 70
     1
102
RTVSPropertyOp36
 70
     1
102
RTVSPropertyOp37
 70
     0
102
RTVSPropertyOp38
 70
     0
102
RTVSPropertyOp39
 70
     0
102
RTVSPropertyOp40
 70
     0
102
RTVSPropertyOp41
 70
     0
102
RTVSPropertyOp42
 70
     0
102
RTVSPropertyOp43
 70
     0
102
RTVSPropertyOp44
 70
     0
102
RTVSPropertyOp45
 70
     1
102
RTVSPropertyOp46
 70
     0
102
RTVSPropertyOp47
 70
     0
102
RTVSPropertyOp48
 70
     0
102
RTVSPropertyOp49
 70
     1
102
RTVSPropertyOp50
 70
     0
102
RTVSPropertyOp51
 70
     0
102
RTVSPropertyOp52
 70
     0
102
RTVSPropertyOp53
 70
     0
102
RTVSPropertyOp54
 70
     0
102
RTVSPropertyOp55
 70
     1
102
RTVSPropertyOp56
 70
     0
102
RTVSPropertyOp57
 70
     0
102
RTVSPropertyOp58
 70
     1
102
RTVSPropertyOp59
 70
     1
102
RTVSPropertyOp60
 70
     1
102
RTVSPropertyOp61
 70
     1
102
RTVSPropertyOp62
 70
     1
  0
XRECORD
  5
AF04D
102
{ACAD_REACTORS
330
AF04C
102
}
330
AF04C
100
AcDbXrecord
280
     1
102
RTVSPost2010Prop28
280
     0
102
RTVSPost2010PropOp28
 70
     1
102
RTVSPost2010Prop29
280
     1
102
RTVSPost2010PropOp29
 70
     1
102
RTVSPost2010Prop30
280
     1
102
RTVSPost2010PropOp30
 70
     1
102
RTVSPost2010Prop31
280
     0
102
RTVSPost2010PropOp31
 70
     1
102
RTVSPost2010Prop32
280
     0
102
RTVSPost2010PropOp32
 70
     1
102
RTVSPost2010Prop33
280
     0
102
RTVSPost2010PropOp33
 70
     1
102
RTVSPost2010Prop34
280
     0
102
RTVSPost2010PropOp34
 70
     1
102
RTVSPost2010Prop35
280
     0
102
RTVSPost2010PropOp35
 70
     1
102
RTVSPost2010Prop36
280
     0
102
RTVSPost2010PropOp36
 70
     1
102
RTVSPost2010Prop37
 90
       50
102
RTVSPost2010PropOp37
 70
     1
102
RTVSPost2010Prop38
140
0.0
102
RTVSPost2010PropOp38
 70
     1
102
RTVSPost2010Prop39
140
1.0
102
RTVSPost2010PropOp39
 70
     1
102
RTVSPost2010Prop40
 90
        0
102
RTVSPost2010PropOp40
 70
     1
102
RTVSPost2010Prop41ColorIndex
 90
       18
102
RTVSPost2010Prop41ColorRGB
 90
        0
102
RTVSPost2010PropOp41
 70
     1
102
RTVSPost2010Prop42
 90
       50
102
RTVSPost2010PropOp42
 70
     1
102
RTVSPost2010Prop43
 90
        3
102
RTVSPost2010PropOp43
 70
     1
102
RTVSPost2010Prop44ColorIndex
 90
        5
102
RTVSPost2010Prop44ColorRGB
 90
      255
102
RTVSPost2010PropOp44
 70
     1
102
RTVSPost2010Prop45
280
     0
102
RTVSPost2010PropOp45
 70
     1
102
RTVSPost2010Prop46
 90
       50
102
RTVSPost2010PropOp46
 70
     1
102
RTVSPost2010Prop47
 90
       50
102
RTVSPost2010PropOp47
 70
     1
102
RTVSPost2010Prop48
 90
       50
102
RTVSPost2010PropOp48
 70
     1
102
RTVSPost2010Prop49
280
     0
102
RTVSPost2010PropOp49
 70
     1
102
RTVSPost2010Prop50
 90
       50
102
RTVSPost2010PropOp50
 70
     1
102
RTVSPost2010Prop51ColorIndex
 90
      256
102
RTVSPost2010Prop51ColorRGB
 90
-16777216
102
RTVSPost2010PropOp51
 70
     0
102
RTVSPost2010Prop52
140
1.0
102
RTVSPost2010PropOp52
 70
     0
102
RTVSPost2010Prop53
 90
        2
102
RTVSPost2010PropOp53
 70
     1
102
RTVSPost2010Prop54
  1
strokes_ogs.tif
102
RTVSPost2010PropOp54
 70
     1
102
RTVSPost2010Prop55
280
     0
102
RTVSPost2010PropOp55
 70
     1
102
RTVSPost2010Prop56
140
1.0
102
RTVSPost2010PropOp56
 70
     1
102
RTVSPost2010Prop57
140
1.0
102
RTVSPost2010PropOp57
 70
     1
102
RTVSPropertyOp0
 70
     1
102
RTVSPropertyOp1
 70
     1
102
RTVSPropertyOp2
 70
     1
102
RTVSPropertyOp3
 70
     1
102
RTVSPropertyOp4
 70
     1
102
RTVSPropertyOp5
 70
     1
102
RTVSPropertyOp6
 70
     1
102
RTVSPropertyOp7
 70
     1
102
RTVSPropertyOp8
 70
     1
102
RTVSPropertyOp9
 70
     1
102
RTVSPropertyOp10
 70
     1
102
RTVSPropertyOp11
 70
     1
102
RTVSPropertyOp12
 70
     1
102
RTVSPropertyOp13
 70
     1
102
RTVSPropertyOp14
 70
     1
102
RTVSPropertyOp15
 70
     1
102
RTVSPropertyOp16
 70
     1
102
RTVSPropertyOp17
 70
     1
102
RTVSPropertyOp18
 70
     1
102
RTVSPropertyOp19
 70
     1
102
RTVSPropertyOp20
 70
     1
102
RTVSPropertyOp21
 70
     1
102
RTVSPropertyOp22
 70
     1
102
RTVSPropertyOp23
 70
     1
102
RTVSPropertyOp24
 70
     1
102
RTVSPropertyOp25
 70
     1
102
RTVSPropertyOp26
 70
     1
102
RTVSPropertyOp27
 70
     1
102
RTVSPropertyOp28
 70
     1
102
RTVSPropertyOp29
 70
     1
102
RTVSPropertyOp30
 70
     1
102
RTVSPropertyOp31
 70
     1
102
RTVSPropertyOp32
 70
     1
102
RTVSPropertyOp33
 70
     1
102
RTVSPropertyOp34
 70
     1
102
RTVSPropertyOp35
 70
     1
102
RTVSPropertyOp36
 70
     1
102
RTVSPropertyOp37
 70
     1
102
RTVSPropertyOp38
 70
     1
102
RTVSPropertyOp39
 70
     1
102
RTVSPropertyOp40
 70
     1
102
RTVSPropertyOp41
 70
     1
102
RTVSPropertyOp42
 70
     1
102
RTVSPropertyOp43
 70
     1
102
RTVSPropertyOp44
 70
     1
102
RTVSPropertyOp45
 70
     1
102
RTVSPropertyOp46
 70
     1
102
RTVSPropertyOp47
 70
     1
102
RTVSPropertyOp48
 70
     1
102
RTVSPropertyOp49
 70
     1
102
RTVSPropertyOp50
 70
     1
102
RTVSPropertyOp51
 70
     0
102
RTVSPropertyOp52
 70
     0
102
RTVSPropertyOp53
 70
     1
102
RTVSPropertyOp54
 70
     1
102
RTVSPropertyOp55
 70
     1
102
RTVSPropertyOp56
 70
     1
102
RTVSPropertyOp57
 70
     1
102
RTVSPropertyOp58
 70
     1
102
RTVSPropertyOp59
 70
     1
102
RTVSPropertyOp60
 70
     1
102
RTVSPropertyOp61
 70
     1
102
RTVSPropertyOp62
 70
     1
  0
XRECORD
  5
AF067
102
{ACAD_REACTORS
330
AF066
102
}
330
AF066
100
AcDbXrecord
280
     1
102
RTVSPost2010Prop28
280
     0
102
RTVSPost2010PropOp28
 70
     1
102
RTVSPost2010Prop29
280
     1
102
RTVSPost2010PropOp29
 70
     1
102
RTVSPost2010Prop30
280
     1
102
RTVSPost2010PropOp30
 70
     1
102
RTVSPost2010Prop31
280
     0
102
RTVSPost2010PropOp31
 70
     1
102
RTVSPost2010Prop32
280
     0
102
RTVSPost2010PropOp32
 70
     1
102
RTVSPost2010Prop33
280
     0
102
RTVSPost2010PropOp33
 70
     1
102
RTVSPost2010Prop34
280
     0
102
RTVSPost2010PropOp34
 70
     1
102
RTVSPost2010Prop35
280
     0
102
RTVSPost2010PropOp35
 70
     1
102
RTVSPost2010Prop36
280
     0
102
RTVSPost2010PropOp36
 70
     1
102
RTVSPost2010Prop37
 90
       50
102
RTVSPost2010PropOp37
 70
     1
102
RTVSPost2010Prop38
140
0.0
102
RTVSPost2010PropOp38
 70
     1
102
RTVSPost2010Prop39
140
1.0
102
RTVSPost2010PropOp39
 70
     1
102
RTVSPost2010Prop40
 90
        0
102
RTVSPost2010PropOp40
 70
     1
102
RTVSPost2010Prop41ColorIndex
 90
       18
102
RTVSPost2010Prop41ColorRGB
 90
        0
102
RTVSPost2010PropOp41
 70
     1
102
RTVSPost2010Prop42
 90
       50
102
RTVSPost2010PropOp42
 70
     1
102
RTVSPost2010Prop43
 90
        3
102
RTVSPost2010PropOp43
 70
     1
102
RTVSPost2010Prop44ColorIndex
 90
        5
102
RTVSPost2010Prop44ColorRGB
 90
      255
102
RTVSPost2010PropOp44
 70
     1
102
RTVSPost2010Prop45
280
     0
102
RTVSPost2010PropOp45
 70
     1
102
RTVSPost2010Prop46
 90
       50
102
RTVSPost2010PropOp46
 70
     1
102
RTVSPost2010Prop47
 90
       50
102
RTVSPost2010PropOp47
 70
     1
102
RTVSPost2010Prop48
 90
       50
102
RTVSPost2010PropOp48
 70
     1
102
RTVSPost2010Prop49
280
     0
102
RTVSPost2010PropOp49
 70
     1
102
RTVSPost2010Prop50
 90
       50
102
RTVSPost2010PropOp50
 70
     1
102
RTVSPost2010Prop51ColorIndex
 90
      256
102
RTVSPost2010Prop51ColorRGB
 90
-16777216
102
RTVSPost2010PropOp51
 70
     0
102
RTVSPost2010Prop52
140
1.0
102
RTVSPost2010PropOp52
 70
     0
102
RTVSPost2010Prop53
 90
        2
102
RTVSPost2010PropOp53
 70
     1
102
RTVSPost2010Prop54
  1
strokes_ogs.tif
102
RTVSPost2010PropOp54
 70
     1
102
RTVSPost2010Prop55
280
     0
102
RTVSPost2010PropOp55
 70
     1
102
RTVSPost2010Prop56
140
1.0
102
RTVSPost2010PropOp56
 70
     1
102
RTVSPost2010Prop57
140
1.0
102
RTVSPost2010PropOp57
 70
     1
102
RTVSPropertyOp0
 70
     1
102
RTVSPropertyOp1
 70
     1
102
RTVSPropertyOp2
 70
     1
102
RTVSPropertyOp3
 70
     1
102
RTVSPropertyOp4
 70
     1
102
RTVSPropertyOp5
 70
     1
102
RTVSPropertyOp6
 70
     1
102
RTVSPropertyOp7
 70
     1
102
RTVSPropertyOp8
 70
     1
102
RTVSPropertyOp9
 70
     1
102
RTVSPropertyOp10
 70
     1
102
RTVSPropertyOp11
 70
     1
102
RTVSPropertyOp12
 70
     1
102
RTVSPropertyOp13
 70
     1
102
RTVSPropertyOp14
 70
     1
102
RTVSPropertyOp15
 70
     1
102
RTVSPropertyOp16
 70
     1
102
RTVSPropertyOp17
 70
     1
102
RTVSPropertyOp18
 70
     1
102
RTVSPropertyOp19
 70
     1
102
RTVSPropertyOp20
 70
     1
102
RTVSPropertyOp21
 70
     1
102
RTVSPropertyOp22
 70
     1
102
RTVSPropertyOp23
 70
     1
102
RTVSPropertyOp24
 70
     1
102
RTVSPropertyOp25
 70
     1
102
RTVSPropertyOp26
 70
     1
102
RTVSPropertyOp27
 70
     1
102
RTVSPropertyOp28
 70
     1
102
RTVSPropertyOp29
 70
     1
102
RTVSPropertyOp30
 70
     1
102
RTVSPropertyOp31
 70
     1
102
RTVSPropertyOp32
 70
     1
102
RTVSPropertyOp33
 70
     1
102
RTVSPropertyOp34
 70
     1
102
RTVSPropertyOp35
 70
     1
102
RTVSPropertyOp36
 70
     1
102
RTVSPropertyOp37
 70
     1
102
RTVSPropertyOp38
 70
     1
102
RTVSPropertyOp39
 70
     1
102
RTVSPropertyOp40
 70
     1
102
RTVSPropertyOp41
 70
     1
102
RTVSPropertyOp42
 70
     1
102
RTVSPropertyOp43
 70
     1
102
RTVSPropertyOp44
 70
     1
102
RTVSPropertyOp45
 70
     1
102
RTVSPropertyOp46
 70
     1
102
RTVSPropertyOp47
 70
     1
102
RTVSPropertyOp48
 70
     1
102
RTVSPropertyOp49
 70
     1
102
RTVSPropertyOp50
 70
     1
102
RTVSPropertyOp51
 70
     0
102
RTVSPropertyOp52
 70
     0
102
RTVSPropertyOp53
 70
     1
102
RTVSPropertyOp54
 70
     1
102
RTVSPropertyOp55
 70
     1
102
RTVSPropertyOp56
 70
     1
102
RTVSPropertyOp57
 70
     1
102
RTVSPropertyOp58
 70
     1
102
RTVSPropertyOp59
 70
     1
102
RTVSPropertyOp60
 70
     1
102
RTVSPropertyOp61
 70
     1
102
RTVSPropertyOp62
 70
     1
  0
XRECORD
  5
AF065
102
{ACAD_REACTORS
330
AF064
102
}
330
AF064
100
AcDbXrecord
280
     1
102
RTVSPost2010Prop28
280
     0
102
RTVSPost2010PropOp28
 70
     1
102
RTVSPost2010Prop29
280
     1
102
RTVSPost2010PropOp29
 70
     1
102
RTVSPost2010Prop30
280
     1
102
RTVSPost2010PropOp30
 70
     1
102
RTVSPost2010Prop31
280
     0
102
RTVSPost2010PropOp31
 70
     1
102
RTVSPost2010Prop32
280
     0
102
RTVSPost2010PropOp32
 70
     1
102
RTVSPost2010Prop33
280
     0
102
RTVSPost2010PropOp33
 70
     1
102
RTVSPost2010Prop34
280
     0
102
RTVSPost2010PropOp34
 70
     1
102
RTVSPost2010Prop35
280
     0
102
RTVSPost2010PropOp35
 70
     1
102
RTVSPost2010Prop36
280
     0
102
RTVSPost2010PropOp36
 70
     1
102
RTVSPost2010Prop37
 90
       50
102
RTVSPost2010PropOp37
 70
     1
102
RTVSPost2010Prop38
140
0.0
102
RTVSPost2010PropOp38
 70
     1
102
RTVSPost2010Prop39
140
1.0
102
RTVSPost2010PropOp39
 70
     1
102
RTVSPost2010Prop40
 90
        0
102
RTVSPost2010PropOp40
 70
     1
102
RTVSPost2010Prop41ColorIndex
 90
       18
102
RTVSPost2010Prop41ColorRGB
 90
        0
102
RTVSPost2010PropOp41
 70
     1
102
RTVSPost2010Prop42
 90
       50
102
RTVSPost2010PropOp42
 70
     1
102
RTVSPost2010Prop43
 90
        3
102
RTVSPost2010PropOp43
 70
     1
102
RTVSPost2010Prop44ColorIndex
 90
        5
102
RTVSPost2010Prop44ColorRGB
 90
      255
102
RTVSPost2010PropOp44
 70
     1
102
RTVSPost2010Prop45
280
     0
102
RTVSPost2010PropOp45
 70
     1
102
RTVSPost2010Prop46
 90
       50
102
RTVSPost2010PropOp46
 70
     1
102
RTVSPost2010Prop47
 90
       50
102
RTVSPost2010PropOp47
 70
     1
102
RTVSPost2010Prop48
 90
       50
102
RTVSPost2010PropOp48
 70
     1
102
RTVSPost2010Prop49
280
     0
102
RTVSPost2010PropOp49
 70
     1
102
RTVSPost2010Prop50
 90
       50
102
RTVSPost2010PropOp50
 70
     1
102
RTVSPost2010Prop51ColorIndex
 90
      256
102
RTVSPost2010Prop51ColorRGB
 90
-16777216
102
RTVSPost2010PropOp51
 70
     0
102
RTVSPost2010Prop52
140
1.0
102
RTVSPost2010PropOp52
 70
     0
102
RTVSPost2010Prop53
 90
        2
102
RTVSPost2010PropOp53
 70
     1
102
RTVSPost2010Prop54
  1
strokes_ogs.tif
102
RTVSPost2010PropOp54
 70
     1
102
RTVSPost2010Prop55
280
     0
102
RTVSPost2010PropOp55
 70
     1
102
RTVSPost2010Prop56
140
1.0
102
RTVSPost2010PropOp56
 70
     1
102
RTVSPost2010Prop57
140
1.0
102
RTVSPost2010PropOp57
 70
     1
102
RTVSPropertyOp0
 70
     1
102
RTVSPropertyOp1
 70
     1
102
RTVSPropertyOp2
 70
     1
102
RTVSPropertyOp3
 70
     1
102
RTVSPropertyOp4
 70
     1
102
RTVSPropertyOp5
 70
     1
102
RTVSPropertyOp6
 70
     1
102
RTVSPropertyOp7
 70
     1
102
RTVSPropertyOp8
 70
     1
102
RTVSPropertyOp9
 70
     1
102
RTVSPropertyOp10
 70
     1
102
RTVSPropertyOp11
 70
     1
102
RTVSPropertyOp12
 70
     1
102
RTVSPropertyOp13
 70
     1
102
RTVSPropertyOp14
 70
     1
102
RTVSPropertyOp15
 70
     1
102
RTVSPropertyOp16
 70
     1
102
RTVSPropertyOp17
 70
     1
102
RTVSPropertyOp18
 70
     1
102
RTVSPropertyOp19
 70
     1
102
RTVSPropertyOp20
 70
     1
102
RTVSPropertyOp21
 70
     1
102
RTVSPropertyOp22
 70
     1
102
RTVSPropertyOp23
 70
     1
102
RTVSPropertyOp24
 70
     1
102
RTVSPropertyOp25
 70
     1
102
RTVSPropertyOp26
 70
     1
102
RTVSPropertyOp27
 70
     1
102
RTVSPropertyOp28
 70
     1
102
RTVSPropertyOp29
 70
     1
102
RTVSPropertyOp30
 70
     1
102
RTVSPropertyOp31
 70
     1
102
RTVSPropertyOp32
 70
     1
102
RTVSPropertyOp33
 70
     1
102
RTVSPropertyOp34
 70
     1
102
RTVSPropertyOp35
 70
     1
102
RTVSPropertyOp36
 70
     1
102
RTVSPropertyOp37
 70
     1
102
RTVSPropertyOp38
 70
     1
102
RTVSPropertyOp39
 70
     1
102
RTVSPropertyOp40
 70
     1
102
RTVSPropertyOp41
 70
     1
102
RTVSPropertyOp42
 70
     1
102
RTVSPropertyOp43
 70
     1
102
RTVSPropertyOp44
 70
     1
102
RTVSPropertyOp45
 70
     1
102
RTVSPropertyOp46
 70
     1
102
RTVSPropertyOp47
 70
     1
102
RTVSPropertyOp48
 70
     1
102
RTVSPropertyOp49
 70
     1
102
RTVSPropertyOp50
 70
     1
102
RTVSPropertyOp51
 70
     0
102
RTVSPropertyOp52
 70
     0
102
RTVSPropertyOp53
 70
     1
102
RTVSPropertyOp54
 70
     1
102
RTVSPropertyOp55
 70
     1
102
RTVSPropertyOp56
 70
     1
102
RTVSPropertyOp57
 70
     1
102
RTVSPropertyOp58
 70
     1
102
RTVSPropertyOp59
 70
     1
102
RTVSPropertyOp60
 70
     1
102
RTVSPropertyOp61
 70
     1
102
RTVSPropertyOp62
 70
     1
  0
XRECORD
  5
AF05F
102
{ACAD_REACTORS
330
AF05E
102
}
330
AF05E
100
AcDbXrecord
280
     1
102
RTVSPost2010Prop28
280
     0
102
RTVSPost2010PropOp28
 70
     1
102
RTVSPost2010Prop29
280
     1
102
RTVSPost2010PropOp29
 70
     1
102
RTVSPost2010Prop30
280
     1
102
RTVSPost2010PropOp30
 70
     1
102
RTVSPost2010Prop31
280
     0
102
RTVSPost2010PropOp31
 70
     1
102
RTVSPost2010Prop32
280
     0
102
RTVSPost2010PropOp32
 70
     1
102
RTVSPost2010Prop33
280
     0
102
RTVSPost2010PropOp33
 70
     1
102
RTVSPost2010Prop34
280
     0
102
RTVSPost2010PropOp34
 70
     1
102
RTVSPost2010Prop35
280
     0
102
RTVSPost2010PropOp35
 70
     1
102
RTVSPost2010Prop36
280
     0
102
RTVSPost2010PropOp36
 70
     1
102
RTVSPost2010Prop37
 90
       50
102
RTVSPost2010PropOp37
 70
     1
102
RTVSPost2010Prop38
140
0.0
102
RTVSPost2010PropOp38
 70
     1
102
RTVSPost2010Prop39
140
1.0
102
RTVSPost2010PropOp39
 70
     1
102
RTVSPost2010Prop40
 90
        0
102
RTVSPost2010PropOp40
 70
     1
102
RTVSPost2010Prop41ColorIndex
 90
       18
102
RTVSPost2010Prop41ColorRGB
 90
        0
102
RTVSPost2010PropOp41
 70
     1
102
RTVSPost2010Prop42
 90
       50
102
RTVSPost2010PropOp42
 70
     1
102
RTVSPost2010Prop43
 90
        3
102
RTVSPost2010PropOp43
 70
     1
102
RTVSPost2010Prop44ColorIndex
 90
        5
102
RTVSPost2010Prop44ColorRGB
 90
      255
102
RTVSPost2010PropOp44
 70
     1
102
RTVSPost2010Prop45
280
     0
102
RTVSPost2010PropOp45
 70
     1
102
RTVSPost2010Prop46
 90
       50
102
RTVSPost2010PropOp46
 70
     1
102
RTVSPost2010Prop47
 90
       50
102
RTVSPost2010PropOp47
 70
     1
102
RTVSPost2010Prop48
 90
       50
102
RTVSPost2010PropOp48
 70
     1
102
RTVSPost2010Prop49
280
     0
102
RTVSPost2010PropOp49
 70
     1
102
RTVSPost2010Prop50
 90
       50
102
RTVSPost2010PropOp50
 70
     1
102
RTVSPost2010Prop51ColorIndex
 90
      256
102
RTVSPost2010Prop51ColorRGB
 90
-16777216
102
RTVSPost2010PropOp51
 70
     0
102
RTVSPost2010Prop52
140
1.0
102
RTVSPost2010PropOp52
 70
     0
102
RTVSPost2010Prop53
 90
        2
102
RTVSPost2010PropOp53
 70
     1
102
RTVSPost2010Prop54
  1
strokes_ogs.tif
102
RTVSPost2010PropOp54
 70
     1
102
RTVSPost2010Prop55
280
     0
102
RTVSPost2010PropOp55
 70
     1
102
RTVSPost2010Prop56
140
1.0
102
RTVSPost2010PropOp56
 70
     1
102
RTVSPost2010Prop57
140
1.0
102
RTVSPost2010PropOp57
 70
     1
102
RTVSPropertyOp0
 70
     1
102
RTVSPropertyOp1
 70
     1
102
RTVSPropertyOp2
 70
     1
102
RTVSPropertyOp3
 70
     1
102
RTVSPropertyOp4
 70
     1
102
RTVSPropertyOp5
 70
     1
102
RTVSPropertyOp6
 70
     1
102
RTVSPropertyOp7
 70
     1
102
RTVSPropertyOp8
 70
     1
102
RTVSPropertyOp9
 70
     1
102
RTVSPropertyOp10
 70
     1
102
RTVSPropertyOp11
 70
     1
102
RTVSPropertyOp12
 70
     1
102
RTVSPropertyOp13
 70
     1
102
RTVSPropertyOp14
 70
     1
102
RTVSPropertyOp15
 70
     1
102
RTVSPropertyOp16
 70
     1
102
RTVSPropertyOp17
 70
     1
102
RTVSPropertyOp18
 70
     1
102
RTVSPropertyOp19
 70
     1
102
RTVSPropertyOp20
 70
     1
102
RTVSPropertyOp21
 70
     1
102
RTVSPropertyOp22
 70
     1
102
RTVSPropertyOp23
 70
     1
102
RTVSPropertyOp24
 70
     1
102
RTVSPropertyOp25
 70
     1
102
RTVSPropertyOp26
 70
     1
102
RTVSPropertyOp27
 70
     1
102
RTVSPropertyOp28
 70
     1
102
RTVSPropertyOp29
 70
     1
102
RTVSPropertyOp30
 70
     1
102
RTVSPropertyOp31
 70
     1
102
RTVSPropertyOp32
 70
     1
102
RTVSPropertyOp33
 70
     1
102
RTVSPropertyOp34
 70
     1
102
RTVSPropertyOp35
 70
     1
102
RTVSPropertyOp36
 70
     1
102
RTVSPropertyOp37
 70
     1
102
RTVSPropertyOp38
 70
     1
102
RTVSPropertyOp39
 70
     1
102
RTVSPropertyOp40
 70
     1
102
RTVSPropertyOp41
 70
     1
102
RTVSPropertyOp42
 70
     1
102
RTVSPropertyOp43
 70
     1
102
RTVSPropertyOp44
 70
     1
102
RTVSPropertyOp45
 70
     1
102
RTVSPropertyOp46
 70
     1
102
RTVSPropertyOp47
 70
     1
102
RTVSPropertyOp48
 70
     1
102
RTVSPropertyOp49
 70
     1
102
RTVSPropertyOp50
 70
     1
102
RTVSPropertyOp51
 70
     0
102
RTVSPropertyOp52
 70
     0
102
RTVSPropertyOp53
 70
     1
102
RTVSPropertyOp54
 70
     1
102
RTVSPropertyOp55
 70
     1
102
RTVSPropertyOp56
 70
     1
102
RTVSPropertyOp57
 70
     1
102
RTVSPropertyOp58
 70
     1
102
RTVSPropertyOp59
 70
     1
102
RTVSPropertyOp60
 70
     1
102
RTVSPropertyOp61
 70
     1
102
RTVSPropertyOp62
 70
     1
  0
XRECORD
  5
AF061
102
{ACAD_REACTORS
330
AF060
102
}
330
AF060
100
AcDbXrecord
280
     1
102
RTVSPost2010Prop28
280
     0
102
RTVSPost2010PropOp28
 70
     1
102
RTVSPost2010Prop29
280
     1
102
RTVSPost2010PropOp29
 70
     1
102
RTVSPost2010Prop30
280
     1
102
RTVSPost2010PropOp30
 70
     1
102
RTVSPost2010Prop31
280
     0
102
RTVSPost2010PropOp31
 70
     1
102
RTVSPost2010Prop32
280
     0
102
RTVSPost2010PropOp32
 70
     1
102
RTVSPost2010Prop33
280
     0
102
RTVSPost2010PropOp33
 70
     1
102
RTVSPost2010Prop34
280
     0
102
RTVSPost2010PropOp34
 70
     1
102
RTVSPost2010Prop35
280
     0
102
RTVSPost2010PropOp35
 70
     1
102
RTVSPost2010Prop36
280
     0
102
RTVSPost2010PropOp36
 70
     1
102
RTVSPost2010Prop37
 90
       50
102
RTVSPost2010PropOp37
 70
     1
102
RTVSPost2010Prop38
140
0.0
102
RTVSPost2010PropOp38
 70
     1
102
RTVSPost2010Prop39
140
1.0
102
RTVSPost2010PropOp39
 70
     1
102
RTVSPost2010Prop40
 90
        0
102
RTVSPost2010PropOp40
 70
     1
102
RTVSPost2010Prop41ColorIndex
 90
       18
102
RTVSPost2010Prop41ColorRGB
 90
        0
102
RTVSPost2010PropOp41
 70
     1
102
RTVSPost2010Prop42
 90
       50
102
RTVSPost2010PropOp42
 70
     1
102
RTVSPost2010Prop43
 90
        3
102
RTVSPost2010PropOp43
 70
     1
102
RTVSPost2010Prop44ColorIndex
 90
        5
102
RTVSPost2010Prop44ColorRGB
 90
      255
102
RTVSPost2010PropOp44
 70
     1
102
RTVSPost2010Prop45
280
     0
102
RTVSPost2010PropOp45
 70
     1
102
RTVSPost2010Prop46
 90
       50
102
RTVSPost2010PropOp46
 70
     1
102
RTVSPost2010Prop47
 90
       50
102
RTVSPost2010PropOp47
 70
     1
102
RTVSPost2010Prop48
 90
       50
102
RTVSPost2010PropOp48
 70
     1
102
RTVSPost2010Prop49
280
     0
102
RTVSPost2010PropOp49
 70
     1
102
RTVSPost2010Prop50
 90
       50
102
RTVSPost2010PropOp50
 70
     1
102
RTVSPost2010Prop51ColorIndex
 90
      256
102
RTVSPost2010Prop51ColorRGB
 90
-16777216
102
RTVSPost2010PropOp51
 70
     0
102
RTVSPost2010Prop52
140
1.0
102
RTVSPost2010PropOp52
 70
     0
102
RTVSPost2010Prop53
 90
        2
102
RTVSPost2010PropOp53
 70
     1
102
RTVSPost2010Prop54
  1
strokes_ogs.tif
102
RTVSPost2010PropOp54
 70
     1
102
RTVSPost2010Prop55
280
     0
102
RTVSPost2010PropOp55
 70
     1
102
RTVSPost2010Prop56
140
1.0
102
RTVSPost2010PropOp56
 70
     1
102
RTVSPost2010Prop57
140
1.0
102
RTVSPost2010PropOp57
 70
     1
102
RTVSPropertyOp0
 70
     1
102
RTVSPropertyOp1
 70
     1
102
RTVSPropertyOp2
 70
     1
102
RTVSPropertyOp3
 70
     1
102
RTVSPropertyOp4
 70
     1
102
RTVSPropertyOp5
 70
     1
102
RTVSPropertyOp6
 70
     1
102
RTVSPropertyOp7
 70
     1
102
RTVSPropertyOp8
 70
     1
102
RTVSPropertyOp9
 70
     1
102
RTVSPropertyOp10
 70
     1
102
RTVSPropertyOp11
 70
     1
102
RTVSPropertyOp12
 70
     1
102
RTVSPropertyOp13
 70
     1
102
RTVSPropertyOp14
 70
     1
102
RTVSPropertyOp15
 70
     1
102
RTVSPropertyOp16
 70
     1
102
RTVSPropertyOp17
 70
     1
102
RTVSPropertyOp18
 70
     1
102
RTVSPropertyOp19
 70
     1
102
RTVSPropertyOp20
 70
     1
102
RTVSPropertyOp21
 70
     1
102
RTVSPropertyOp22
 70
     1
102
RTVSPropertyOp23
 70
     1
102
RTVSPropertyOp24
 70
     1
102
RTVSPropertyOp25
 70
     1
102
RTVSPropertyOp26
 70
     1
102
RTVSPropertyOp27
 70
     1
102
RTVSPropertyOp28
 70
     1
102
RTVSPropertyOp29
 70
     1
102
RTVSPropertyOp30
 70
     1
102
RTVSPropertyOp31
 70
     1
102
RTVSPropertyOp32
 70
     1
102
RTVSPropertyOp33
 70
     1
102
RTVSPropertyOp34
 70
     1
102
RTVSPropertyOp35
 70
     1
102
RTVSPropertyOp36
 70
     1
102
RTVSPropertyOp37
 70
     1
102
RTVSPropertyOp38
 70
     1
102
RTVSPropertyOp39
 70
     1
102
RTVSPropertyOp40
 70
     1
102
RTVSPropertyOp41
 70
     1
102
RTVSPropertyOp42
 70
     1
102
RTVSPropertyOp43
 70
     1
102
RTVSPropertyOp44
 70
     1
102
RTVSPropertyOp45
 70
     1
102
RTVSPropertyOp46
 70
     1
102
RTVSPropertyOp47
 70
     1
102
RTVSPropertyOp48
 70
     1
102
RTVSPropertyOp49
 70
     1
102
RTVSPropertyOp50
 70
     1
102
RTVSPropertyOp51
 70
     0
102
RTVSPropertyOp52
 70
     0
102
RTVSPropertyOp53
 70
     1
102
RTVSPropertyOp54
 70
     1
102
RTVSPropertyOp55
 70
     1
102
RTVSPropertyOp56
 70
     1
102
RTVSPropertyOp57
 70
     1
102
RTVSPropertyOp58
 70
     1
102
RTVSPropertyOp59
 70
     1
102
RTVSPropertyOp60
 70
     1
102
RTVSPropertyOp61
 70
     1
102
RTVSPropertyOp62
 70
     1
  0
XRECORD
  5
AF053
102
{ACAD_REACTORS
330
AF052
102
}
330
AF052
100
AcDbXrecord
280
     1
102
RTVSPost2010Prop28
280
     0
102
RTVSPost2010PropOp28
 70
     1
102
RTVSPost2010Prop29
280
     1
102
RTVSPost2010PropOp29
 70
     1
102
RTVSPost2010Prop30
280
     1
102
RTVSPost2010PropOp30
 70
     1
102
RTVSPost2010Prop31
280
     0
102
RTVSPost2010PropOp31
 70
     1
102
RTVSPost2010Prop32
280
     0
102
RTVSPost2010PropOp32
 70
     1
102
RTVSPost2010Prop33
280
     0
102
RTVSPost2010PropOp33
 70
     1
102
RTVSPost2010Prop34
280
     0
102
RTVSPost2010PropOp34
 70
     1
102
RTVSPost2010Prop35
280
     0
102
RTVSPost2010PropOp35
 70
     1
102
RTVSPost2010Prop36
280
     0
102
RTVSPost2010PropOp36
 70
     1
102
RTVSPost2010Prop37
 90
       50
102
RTVSPost2010PropOp37
 70
     1
102
RTVSPost2010Prop38
140
0.0
102
RTVSPost2010PropOp38
 70
     1
102
RTVSPost2010Prop39
140
1.0
102
RTVSPost2010PropOp39
 70
     1
102
RTVSPost2010Prop40
 90
        0
102
RTVSPost2010PropOp40
 70
     1
102
RTVSPost2010Prop41ColorIndex
 90
       18
102
RTVSPost2010Prop41ColorRGB
 90
        0
102
RTVSPost2010PropOp41
 70
     1
102
RTVSPost2010Prop42
 90
       50
102
RTVSPost2010PropOp42
 70
     1
102
RTVSPost2010Prop43
 90
        3
102
RTVSPost2010PropOp43
 70
     1
102
RTVSPost2010Prop44ColorIndex
 90
        5
102
RTVSPost2010Prop44ColorRGB
 90
      255
102
RTVSPost2010PropOp44
 70
     1
102
RTVSPost2010Prop45
280
     0
102
RTVSPost2010PropOp45
 70
     1
102
RTVSPost2010Prop46
 90
       50
102
RTVSPost2010PropOp46
 70
     1
102
RTVSPost2010Prop47
 90
       50
102
RTVSPost2010PropOp47
 70
     1
102
RTVSPost2010Prop48
 90
       50
102
RTVSPost2010PropOp48
 70
     1
102
RTVSPost2010Prop49
280
     0
102
RTVSPost2010PropOp49
 70
     1
102
RTVSPost2010Prop50
 90
       50
102
RTVSPost2010PropOp50
 70
     1
102
RTVSPost2010Prop51ColorIndex
 90
      256
102
RTVSPost2010Prop51ColorRGB
 90
-16777216
102
RTVSPost2010PropOp51
 70
     0
102
RTVSPost2010Prop52
140
1.0
102
RTVSPost2010PropOp52
 70
     0
102
RTVSPost2010Prop53
 90
        2
102
RTVSPost2010PropOp53
 70
     1
102
RTVSPost2010Prop54
  1
strokes_ogs.tif
102
RTVSPost2010PropOp54
 70
     1
102
RTVSPost2010Prop55
280
     0
102
RTVSPost2010PropOp55
 70
     1
102
RTVSPost2010Prop56
140
1.0
102
RTVSPost2010PropOp56
 70
     1
102
RTVSPost2010Prop57
140
1.0
102
RTVSPost2010PropOp57
 70
     1
102
RTVSPropertyOp0
 70
     1
102
RTVSPropertyOp1
 70
     1
102
RTVSPropertyOp2
 70
     1
102
RTVSPropertyOp3
 70
     1
102
RTVSPropertyOp4
 70
     1
102
RTVSPropertyOp5
 70
     1
102
RTVSPropertyOp6
 70
     1
102
RTVSPropertyOp7
 70
     1
102
RTVSPropertyOp8
 70
     1
102
RTVSPropertyOp9
 70
     1
102
RTVSPropertyOp10
 70
     1
102
RTVSPropertyOp11
 70
     1
102
RTVSPropertyOp12
 70
     1
102
RTVSPropertyOp13
 70
     1
102
RTVSPropertyOp14
 70
     1
102
RTVSPropertyOp15
 70
     1
102
RTVSPropertyOp16
 70
     1
102
RTVSPropertyOp17
 70
     1
102
RTVSPropertyOp18
 70
     1
102
RTVSPropertyOp19
 70
     1
102
RTVSPropertyOp20
 70
     1
102
RTVSPropertyOp21
 70
     1
102
RTVSPropertyOp22
 70
     1
102
RTVSPropertyOp23
 70
     1
102
RTVSPropertyOp24
 70
     1
102
RTVSPropertyOp25
 70
     1
102
RTVSPropertyOp26
 70
     1
102
RTVSPropertyOp27
 70
     1
102
RTVSPropertyOp28
 70
     1
102
RTVSPropertyOp29
 70
     1
102
RTVSPropertyOp30
 70
     1
102
RTVSPropertyOp31
 70
     1
102
RTVSPropertyOp32
 70
     1
102
RTVSPropertyOp33
 70
     1
102
RTVSPropertyOp34
 70
     1
102
RTVSPropertyOp35
 70
     1
102
RTVSPropertyOp36
 70
     1
102
RTVSPropertyOp37
 70
     1
102
RTVSPropertyOp38
 70
     1
102
RTVSPropertyOp39
 70
     1
102
RTVSPropertyOp40
 70
     1
102
RTVSPropertyOp41
 70
     1
102
RTVSPropertyOp42
 70
     1
102
RTVSPropertyOp43
 70
     1
102
RTVSPropertyOp44
 70
     1
102
RTVSPropertyOp45
 70
     1
102
RTVSPropertyOp46
 70
     1
102
RTVSPropertyOp47
 70
     1
102
RTVSPropertyOp48
 70
     1
102
RTVSPropertyOp49
 70
     1
102
RTVSPropertyOp50
 70
     1
102
RTVSPropertyOp51
 70
     0
102
RTVSPropertyOp52
 70
     0
102
RTVSPropertyOp53
 70
     1
102
RTVSPropertyOp54
 70
     1
102
RTVSPropertyOp55
 70
     1
102
RTVSPropertyOp56
 70
     1
102
RTVSPropertyOp57
 70
     1
102
RTVSPropertyOp58
 70
     1
102
RTVSPropertyOp59
 70
     1
102
RTVSPropertyOp60
 70
     1
102
RTVSPropertyOp61
 70
     1
102
RTVSPropertyOp62
 70
     1
  0
XRECORD
  5
AF05B
102
{ACAD_REACTORS
330
AF05A
102
}
330
AF05A
100
AcDbXrecord
280
     1
102
RTVSPost2010Prop28
280
     0
102
RTVSPost2010PropOp28
 70
     1
102
RTVSPost2010Prop29
280
     1
102
RTVSPost2010PropOp29
 70
     1
102
RTVSPost2010Prop30
280
     1
102
RTVSPost2010PropOp30
 70
     1
102
RTVSPost2010Prop31
280
     0
102
RTVSPost2010PropOp31
 70
     1
102
RTVSPost2010Prop32
280
     0
102
RTVSPost2010PropOp32
 70
     1
102
RTVSPost2010Prop33
280
     0
102
RTVSPost2010PropOp33
 70
     1
102
RTVSPost2010Prop34
280
     0
102
RTVSPost2010PropOp34
 70
     1
102
RTVSPost2010Prop35
280
     0
102
RTVSPost2010PropOp35
 70
     1
102
RTVSPost2010Prop36
280
     0
102
RTVSPost2010PropOp36
 70
     1
102
RTVSPost2010Prop37
 90
       50
102
RTVSPost2010PropOp37
 70
     1
102
RTVSPost2010Prop38
140
0.0
102
RTVSPost2010PropOp38
 70
     1
102
RTVSPost2010Prop39
140
1.0
102
RTVSPost2010PropOp39
 70
     1
102
RTVSPost2010Prop40
 90
        0
102
RTVSPost2010PropOp40
 70
     1
102
RTVSPost2010Prop41ColorIndex
 90
       18
102
RTVSPost2010Prop41ColorRGB
 90
        0
102
RTVSPost2010PropOp41
 70
     1
102
RTVSPost2010Prop42
 90
       50
102
RTVSPost2010PropOp42
 70
     1
102
RTVSPost2010Prop43
 90
        3
102
RTVSPost2010PropOp43
 70
     1
102
RTVSPost2010Prop44ColorIndex
 90
        5
102
RTVSPost2010Prop44ColorRGB
 90
      255
102
RTVSPost2010PropOp44
 70
     1
102
RTVSPost2010Prop45
280
     0
102
RTVSPost2010PropOp45
 70
     1
102
RTVSPost2010Prop46
 90
       50
102
RTVSPost2010PropOp46
 70
     1
102
RTVSPost2010Prop47
 90
       50
102
RTVSPost2010PropOp47
 70
     1
102
RTVSPost2010Prop48
 90
       50
102
RTVSPost2010PropOp48
 70
     1
102
RTVSPost2010Prop49
280
     0
102
RTVSPost2010PropOp49
 70
     1
102
RTVSPost2010Prop50
 90
       50
102
RTVSPost2010PropOp50
 70
     1
102
RTVSPost2010Prop51ColorIndex
 90
      256
102
RTVSPost2010Prop51ColorRGB
 90
-16777216
102
RTVSPost2010PropOp51
 70
     0
102
RTVSPost2010Prop52
140
1.0
102
RTVSPost2010PropOp52
 70
     0
102
RTVSPost2010Prop53
 90
        2
102
RTVSPost2010PropOp53
 70
     1
102
RTVSPost2010Prop54
  1
strokes_ogs.tif
102
RTVSPost2010PropOp54
 70
     1
102
RTVSPost2010Prop55
280
     0
102
RTVSPost2010PropOp55
 70
     1
102
RTVSPost2010Prop56
140
1.0
102
RTVSPost2010PropOp56
 70
     1
102
RTVSPost2010Prop57
140
1.0
102
RTVSPost2010PropOp57
 70
     1
102
RTVSPropertyOp0
 70
     1
102
RTVSPropertyOp1
 70
     1
102
RTVSPropertyOp2
 70
     1
102
RTVSPropertyOp3
 70
     1
102
RTVSPropertyOp4
 70
     1
102
RTVSPropertyOp5
 70
     1
102
RTVSPropertyOp6
 70
     1
102
RTVSPropertyOp7
 70
     1
102
RTVSPropertyOp8
 70
     1
102
RTVSPropertyOp9
 70
     1
102
RTVSPropertyOp10
 70
     1
102
RTVSPropertyOp11
 70
     1
102
RTVSPropertyOp12
 70
     1
102
RTVSPropertyOp13
 70
     1
102
RTVSPropertyOp14
 70
     1
102
RTVSPropertyOp15
 70
     1
102
RTVSPropertyOp16
 70
     1
102
RTVSPropertyOp17
 70
     1
102
RTVSPropertyOp18
 70
     1
102
RTVSPropertyOp19
 70
     1
102
RTVSPropertyOp20
 70
     1
102
RTVSPropertyOp21
 70
     1
102
RTVSPropertyOp22
 70
     1
102
RTVSPropertyOp23
 70
     1
102
RTVSPropertyOp24
 70
     1
102
RTVSPropertyOp25
 70
     1
102
RTVSPropertyOp26
 70
     1
102
RTVSPropertyOp27
 70
     1
102
RTVSPropertyOp28
 70
     1
102
RTVSPropertyOp29
 70
     1
102
RTVSPropertyOp30
 70
     1
102
RTVSPropertyOp31
 70
     1
102
RTVSPropertyOp32
 70
     1
102
RTVSPropertyOp33
 70
     1
102
RTVSPropertyOp34
 70
     1
102
RTVSPropertyOp35
 70
     1
102
RTVSPropertyOp36
 70
     1
102
RTVSPropertyOp37
 70
     1
102
RTVSPropertyOp38
 70
     1
102
RTVSPropertyOp39
 70
     1
102
RTVSPropertyOp40
 70
     1
102
RTVSPropertyOp41
 70
     1
102
RTVSPropertyOp42
 70
     1
102
RTVSPropertyOp43
 70
     1
102
RTVSPropertyOp44
 70
     1
102
RTVSPropertyOp45
 70
     1
102
RTVSPropertyOp46
 70
     1
102
RTVSPropertyOp47
 70
     1
102
RTVSPropertyOp48
 70
     1
102
RTVSPropertyOp49
 70
     1
102
RTVSPropertyOp50
 70
     1
102
RTVSPropertyOp51
 70
     0
102
RTVSPropertyOp52
 70
     0
102
RTVSPropertyOp53
 70
     1
102
RTVSPropertyOp54
 70
     1
102
RTVSPropertyOp55
 70
     1
102
RTVSPropertyOp56
 70
     1
102
RTVSPropertyOp57
 70
     1
102
RTVSPropertyOp58
 70
     1
102
RTVSPropertyOp59
 70
     1
102
RTVSPropertyOp60
 70
     1
102
RTVSPropertyOp61
 70
     1
102
RTVSPropertyOp62
 70
     1
  0
XRECORD
  5
AF063
102
{ACAD_REACTORS
330
AF062
102
}
330
AF062
100
AcDbXrecord
280
     1
102
RTVSPost2010Prop28
280
     0
102
RTVSPost2010PropOp28
 70
     1
102
RTVSPost2010Prop29
280
     1
102
RTVSPost2010PropOp29
 70
     1
102
RTVSPost2010Prop30
280
     1
102
RTVSPost2010PropOp30
 70
     1
102
RTVSPost2010Prop31
280
     0
102
RTVSPost2010PropOp31
 70
     1
102
RTVSPost2010Prop32
280
     0
102
RTVSPost2010PropOp32
 70
     1
102
RTVSPost2010Prop33
280
     0
102
RTVSPost2010PropOp33
 70
     1
102
RTVSPost2010Prop34
280
     0
102
RTVSPost2010PropOp34
 70
     1
102
RTVSPost2010Prop35
280
     0
102
RTVSPost2010PropOp35
 70
     1
102
RTVSPost2010Prop36
280
     0
102
RTVSPost2010PropOp36
 70
     1
102
RTVSPost2010Prop37
 90
       50
102
RTVSPost2010PropOp37
 70
     1
102
RTVSPost2010Prop38
140
0.0
102
RTVSPost2010PropOp38
 70
     1
102
RTVSPost2010Prop39
140
1.0
102
RTVSPost2010PropOp39
 70
     1
102
RTVSPost2010Prop40
 90
        0
102
RTVSPost2010PropOp40
 70
     1
102
RTVSPost2010Prop41ColorIndex
 90
       18
102
RTVSPost2010Prop41ColorRGB
 90
        0
102
RTVSPost2010PropOp41
 70
     1
102
RTVSPost2010Prop42
 90
       50
102
RTVSPost2010PropOp42
 70
     1
102
RTVSPost2010Prop43
 90
        3
102
RTVSPost2010PropOp43
 70
     1
102
RTVSPost2010Prop44ColorIndex
 90
        5
102
RTVSPost2010Prop44ColorRGB
 90
      255
102
RTVSPost2010PropOp44
 70
     1
102
RTVSPost2010Prop45
280
     0
102
RTVSPost2010PropOp45
 70
     1
102
RTVSPost2010Prop46
 90
       50
102
RTVSPost2010PropOp46
 70
     1
102
RTVSPost2010Prop47
 90
       50
102
RTVSPost2010PropOp47
 70
     1
102
RTVSPost2010Prop48
 90
       50
102
RTVSPost2010PropOp48
 70
     1
102
RTVSPost2010Prop49
280
     0
102
RTVSPost2010PropOp49
 70
     1
102
RTVSPost2010Prop50
 90
       50
102
RTVSPost2010PropOp50
 70
     1
102
RTVSPost2010Prop51ColorIndex
 90
      256
102
RTVSPost2010Prop51ColorRGB
 90
-16777216
102
RTVSPost2010PropOp51
 70
     0
102
RTVSPost2010Prop52
140
1.0
102
RTVSPost2010PropOp52
 70
     0
102
RTVSPost2010Prop53
 90
        2
102
RTVSPost2010PropOp53
 70
     1
102
RTVSPost2010Prop54
  1
strokes_ogs.tif
102
RTVSPost2010PropOp54
 70
     1
102
RTVSPost2010Prop55
280
     0
102
RTVSPost2010PropOp55
 70
     1
102
RTVSPost2010Prop56
140
1.0
102
RTVSPost2010PropOp56
 70
     1
102
RTVSPost2010Prop57
140
1.0
102
RTVSPost2010PropOp57
 70
     1
102
RTVSPropertyOp0
 70
     1
102
RTVSPropertyOp1
 70
     1
102
RTVSPropertyOp2
 70
     1
102
RTVSPropertyOp3
 70
     1
102
RTVSPropertyOp4
 70
     1
102
RTVSPropertyOp5
 70
     1
102
RTVSPropertyOp6
 70
     1
102
RTVSPropertyOp7
 70
     1
102
RTVSPropertyOp8
 70
     1
102
RTVSPropertyOp9
 70
     1
102
RTVSPropertyOp10
 70
     1
102
RTVSPropertyOp11
 70
     1
102
RTVSPropertyOp12
 70
     1
102
RTVSPropertyOp13
 70
     1
102
RTVSPropertyOp14
 70
     1
102
RTVSPropertyOp15
 70
     1
102
RTVSPropertyOp16
 70
     1
102
RTVSPropertyOp17
 70
     1
102
RTVSPropertyOp18
 70
     1
102
RTVSPropertyOp19
 70
     1
102
RTVSPropertyOp20
 70
     1
102
RTVSPropertyOp21
 70
     1
102
RTVSPropertyOp22
 70
     1
102
RTVSPropertyOp23
 70
     1
102
RTVSPropertyOp24
 70
     1
102
RTVSPropertyOp25
 70
     1
102
RTVSPropertyOp26
 70
     1
102
RTVSPropertyOp27
 70
     1
102
RTVSPropertyOp28
 70
     1
102
RTVSPropertyOp29
 70
     1
102
RTVSPropertyOp30
 70
     1
102
RTVSPropertyOp31
 70
     1
102
RTVSPropertyOp32
 70
     1
102
RTVSPropertyOp33
 70
     1
102
RTVSPropertyOp34
 70
     1
102
RTVSPropertyOp35
 70
     1
102
RTVSPropertyOp36
 70
     1
102
RTVSPropertyOp37
 70
     1
102
RTVSPropertyOp38
 70
     1
102
RTVSPropertyOp39
 70
     1
102
RTVSPropertyOp40
 70
     1
102
RTVSPropertyOp41
 70
     1
102
RTVSPropertyOp42
 70
     1
102
RTVSPropertyOp43
 70
     1
102
RTVSPropertyOp44
 70
     1
102
RTVSPropertyOp45
 70
     1
102
RTVSPropertyOp46
 70
     1
102
RTVSPropertyOp47
 70
     1
102
RTVSPropertyOp48
 70
     1
102
RTVSPropertyOp49
 70
     1
102
RTVSPropertyOp50
 70
     1
102
RTVSPropertyOp51
 70
     0
102
RTVSPropertyOp52
 70
     0
102
RTVSPropertyOp53
 70
     1
102
RTVSPropertyOp54
 70
     1
102
RTVSPropertyOp55
 70
     1
102
RTVSPropertyOp56
 70
     1
102
RTVSPropertyOp57
 70
     1
102
RTVSPropertyOp58
 70
     1
102
RTVSPropertyOp59
 70
     1
102
RTVSPropertyOp60
 70
     1
102
RTVSPropertyOp61
 70
     1
102
RTVSPropertyOp62
 70
     1
  0
ENDSEC
  0
EOF
