  0
SECTION
  2
HEADER
  9
$ACADVER
  1
AC1015
  9
$ACADMAINTVER
 70
    20
  9
$DWGCODEPAGE
  3
ANSI_932
  9
$INSBASE
 10
0.0
 20
0.0
 30
0.0
  9
$EXTMIN
 10
-0.0216962880815572
 20
-0.0066418683368283
 30
-0.000000000000013
  9
$EXTMAX
 10
297.036870772263
 20
210.0140776459244
 30
0.0000000000000023
  9
$LIMMIN
 10
297.000000282035
 20
0.0000000504797129
  9
$LIMMAX
 10
717.000000282035
 20
297.0000000504797
  9
$ORTHOMODE
 70
     0
  9
$REGENMODE
 70
     1
  9
$FILLMODE
 70
     1
  9
$QTEXTMODE
 70
     0
  9
$MIRRTEXT
 70
     0
  9
$LTSCALE
 40
1.0
  9
$ATTMODE
 70
     1
  9
$TEXTSIZE
 40
3.2
  9
$TRACEWID
 40
1.0
  9
$TEXTSTYLE
  7
STANDARD
  9
$CLAYER
  8
AM_2
  9
$CELTYPE
  6
ByLayer
  9
$CECOLOR
 62
   256
  9
$CELTSCALE
 40
1.0
  9
$DISPSILH
 70
     0
  9
$DIMSCALE
 40
1.0
  9
$DIMASZ
 40
1.0
  9
$DIMEXO
 40
1.0
  9
$DIMDLI
 40
10.0
  9
$DIMRND
 40
0.0
  9
$DIMDLE
 40
0.0
  9
$DIMEXE
 40
1.0
  9
$DIMTP
 40
0.1
  9
$DIMTM
 40
0.1
  9
$DIMTXT
 40
3.5
  9
$DIMCEN
 40
0.0
  9
$DIMTSZ
 40
0.0
  9
$DIMTOL
 70
     0
  9
$DIMLIM
 70
     0
  9
$DIMTIH
 70
     0
  9
$DIMTOH
 70
     0
  9
$DIMSE1
 70
     0
  9
$DIMSE2
 70
     0
  9
$DIMTAD
 70
     1
  9
$DIMZIN
 70
     8
  9
$DIMBLK
  1

  9
$DIMASO
 70
     1
  9
$DIMSHO
 70
     1
  9
$DIMPOST
  1

  9
$DIMAPOST
  1
"
  9
$DIMALT
 70
     0
  9
$DIMALTD
 70
     2
  9
$DIMALTF
 40
0.0393701
  9
$DIMLFAC
 40
1.0
  9
$DIMTOFL
 70
     1
  9
$DIMTVP
 40
0.0
  9
$DIMTIX
 70
     0
  9
$DIMSOXD
 70
     0
  9
$DIMSAH
 70
     0
  9
$DIMBLK1
  1

  9
$DIMBLK2
  1

  9
$DIMSTYLE
  2
SYS
  9
$DIMCLRD
 70
   256
  9
$DIMCLRE
 70
   256
  9
$DIMCLRT
 70
     7
  9
$DIMTFAC
 40
0.71
  9
$DIMGAP
 40
1.5
  9
$DIMJUST
 70
     0
  9
$DIMSD1
 70
     0
  9
$DIMSD2
 70
     0
  9
$DIMTOLJ
 70
     0
  9
$DIMTZIN
 70
     8
  9
$DIMALTZ
 70
     0
  9
$DIMALTTZ
 70
     0
  9
$DIMUPT
 70
     0
  9
$DIMDEC
 70
     2
  9
$DIMTDEC
 70
     2
  9
$DIMALTU
 70
     2
  9
$DIMALTTD
 70
     2
  9
$DIMTXSTY
  7
STANDARD
  9
$DIMAUNIT
 70
     0
  9
$DIMADEC
 70
     0
  9
$DIMALTRND
 40
0.0
  9
$DIMAZIN
 70
     2
  9
$DIMDSEP
 70
    46
  9
$DIMATFIT
 70
     3
  9
$DIMFRAC
 70
     0
  9
$DIMLDRBLK
  1

  9
$DIMLUNIT
 70
     2
  9
$DIMLWD
 70
    -1
  9
$DIMLWE
 70
    -1
  9
$DIMTMOVE
 70
     0
  9
$LUNITS
 70
     2
  9
$LUPREC
 70
     2
  9
$SKETCHINC
 40
1.0
  9
$FILLETRAD
 40
2.0
  9
$AUNITS
 70
     0
  9
$AUPREC
 70
     0
  9
$MENU
  1
.
  9
$ELEVATION
 40
0.0
  9
$PELEVATION
 40
0.0
  9
$THICKNESS
 40
0.0
  9
$LIMCHECK
 70
     0
  9
$CHAMFERA
 40
0.0
  9
$CHAMFERB
 40
0.0
  9
$CHAMFERC
 40
20.0
  9
$CHAMFERD
 40
0.0
  9
$SKPOLY
 70
     0
  9
$TDCREATE
 40
2456139.798878935
  9
$TDUCREATE
 40
2456139.423878935
  9
$TDUPDATE
 40
2456164.380729525
  9
$TDUUPDATE
 40
2456164.005729525
  9
$TDINDWG
 40
0.3336256944
  9
$TDUSRTIMER
 40
0.3336255208
  9
$USRTIMER
 70
     1
  9
$ANGBASE
 50
0.0
  9
$ANGDIR
 70
     0
  9
$PDMODE
 70
     0
  9
$PDSIZE
 40
-3.0
  9
$PLINEWID
 40
0.0
  9
$SPLFRAME
 70
     0
  9
$SPLINETYPE
 70
     6
  9
$SPLINESEGS
 70
     8
  9
$HANDSEED
  5
EDBB
  9
$SURFTAB1
 70
     6
  9
$SURFTAB2
 70
     6
  9
$SURFTYPE
 70
     6
  9
$SURFU
 70
     6
  9
$SURFV
 70
     6
  9
$UCSBASE
  2

  9
$UCSNAME
  2

  9
$UCSORG
 10
0.0
 20
0.0
 30
0.0
  9
$UCSXDIR
 10
1.0
 20
0.0
 30
0.0
  9
$UCSYDIR
 10
0.0
 20
1.0
 30
0.0
  9
$UCSORTHOREF
  2

  9
$UCSORTHOVIEW
 70
     0
  9
$UCSORGTOP
 10
0.0
 20
0.0
 30
0.0
  9
$UCSORGBOTTOM
 10
0.0
 20
0.0
 30
0.0
  9
$UCSORGLEFT
 10
0.0
 20
0.0
 30
0.0
  9
$UCSORGRIGHT
 10
0.0
 20
0.0
 30
0.0
  9
$UCSORGFRONT
 10
0.0
 20
0.0
 30
0.0
  9
$UCSORGBACK
 10
0.0
 20
0.0
 30
0.0
  9
$PUCSBASE
  2

  9
$PUCSNAME
  2

  9
$PUCSORG
 10
0.0
 20
0.0
 30
0.0
  9
$PUCSXDIR
 10
1.0
 20
0.0
 30
0.0
  9
$PUCSYDIR
 10
0.0
 20
1.0
 30
0.0
  9
$PUCSORTHOREF
  2

  9
$PUCSORTHOVIEW
 70
     0
  9
$PUCSORGTOP
 10
0.0
 20
0.0
 30
0.0
  9
$PUCSORGBOTTOM
 10
0.0
 20
0.0
 30
0.0
  9
$PUCSORGLEFT
 10
0.0
 20
0.0
 30
0.0
  9
$PUCSORGRIGHT
 10
0.0
 20
0.0
 30
0.0
  9
$PUCSORGFRONT
 10
0.0
 20
0.0
 30
0.0
  9
$PUCSORGBACK
 10
0.0
 20
0.0
 30
0.0
  9
$USERI1
 70
     0
  9
$USERI2
 70
     0
  9
$USERI3
 70
     0
  9
$USERI4
 70
     0
  9
$USERI5
 70
     0
  9
$USERR1
 40
0.0
  9
$USERR2
 40
0.0
  9
$USERR3
 40
0.0
  9
$USERR4
 40
0.0
  9
$USERR5
 40
0.0
  9
$WORLDVIEW
 70
     1
  9
$SHADEDGE
 70
     3
  9
$SHADEDIF
 70
    70
  9
$TILEMODE
 70
     1
  9
$MAXACTVP
 70
    64
  9
$PINSBASE
 10
0.0
 20
0.0
 30
0.0
  9
$PLIMCHECK
 70
     0
  9
$PEXTMIN
 10
1.000000000000000E+20
 20
1.000000000000000E+20
 30
1.000000000000000E+20
  9
$PEXTMAX
 10
-1.000000000000000E+20
 20
-1.000000000000000E+20
 30
-1.000000000000000E+20
  9
$PLIMMIN
 10
-3.17498779296875
 20
-3.174999952316284
  9
$PLIMMAX
 10
293.4970092773438
 20
206.692492723465
  9
$UNITMODE
 70
     0
  9
$VISRETAIN
 70
     1
  9
$PLINEGEN
 70
     0
  9
$PSLTSCALE
 70
     1
  9
$TREEDEPTH
 70
  3020
  9
$CMLSTYLE
  2
Standard
  9
$CMLJUST
 70
     0
  9
$CMLSCALE
 40
20.0
  9
$PROXYGRAPHICS
 70
     1
  9
$MEASUREMENT
 70
     1
  9
$CELWEIGHT
370
    -1
  9
$ENDCAPS
280
     0
  9
$JOINSTYLE
280
     0
  9
$LWDISPLAY
290
     1
  9
$INSUNITS
 70
     4
  9
$HYPERLINKBASE
  1

  9
$STYLESHEET
  1
monochrome.ctb
  9
$XEDIT
290
     1
  9
$CEPSNTYPE
380
     0
  9
$PSTYLEMODE
290
     1
  9
$FINGERPRINTGUID
  2
{4DF3B1F6-3F13-4469-8453-5E0FD6DA0DB8}
  9
$VERSIONGUID
  2
{3326A75C-C7AD-4B7E-8982-580A26CB3E20}
  9
$EXTNAMES
290
     1
  9
$PSVPSCALE
 40
0.0
  9
$OLESTARTUP
290
     0
  0
ENDSEC
  0
SECTION
  2
CLASSES
  0
CLASS
  1
ACDBDICTIONARYWDFLT
  2
AcDbDictionaryWithDefault
  3
ObjectDBX Classes
 90
        0
280
     0
281
     0
  0
CLASS
  1
ACDBPLACEHOLDER
  2
AcDbPlaceHolder
  3
ObjectDBX Classes
 90
        0
280
     0
281
     0
  0
CLASS
  1
LAYOUT
  2
AcDbLayout
  3
ObjectDBX Classes
 90
        0
280
     0
281
     0
  0
CLASS
  1
AMGSETTINGSOBJ
  2
AmgSettingsObj
  3
"AcadM|Product Description: AutoCAD Mechanical|Company: Autodesk"
 90
        0
280
     0
281
     0
  0
CLASS
  1
ACME_DOCUMENT
  2
AcMeDbDoc
  3
AcMeServices
 90
        0
280
     0
281
     0
  0
CLASS
  1
ACMESCOPE
  2
AcMeScope
  3
AcMeServices
 90
        0
280
     0
281
     0
  0
CLASS
  1
ACMECOMMANDHISTORY
  2
AcMeCommandHistory
  3
AcMeServices
 90
        0
280
     0
281
     0
  0
CLASS
  1
DICTIONARYVAR
  2
AcDbDictionaryVar
  3
ObjectDBX Classes
 90
        0
280
     0
281
     0
  0
CLASS
  1
ACIMSYSVARMAN
  2
AcImSysVarManager
  3
AcMeServices
 90
        0
280
     0
281
     0
  0
CLASS
  1
ACIMREALSYSVAR
  2
AcImRealSysVar
  3
AcMeServices
 90
        0
280
     0
281
     0
  0
CLASS
  1
ACIMINTSYSVAR
  2
AcImIntSysVar
  3
AcMeServices
 90
        0
280
     0
281
     0
  0
CLASS
  1
ACMEDRAWINGMAN
  2
AcMeDrawingMan
  3
AcMeServices
 90
        0
280
     0
281
     0
  0
CLASS
  1
ACMEVIEW
  2
AcMeView
  3
AcMeServices
 90
        0
280
     0
281
     0
  0
CLASS
  1
ACDBENTITYCACHE
  2
AcMeEntityCache
  3
AcMeServices
 90
        0
280
     0
281
     0
  0
CLASS
  1
GSMANAGER
  2
AcMeGSManager
  3
AcMeServices
 90
        0
280
     0
281
     0
  0
CLASS
  1
AMDTINTERNALREACTOR
  2
AmdtInternalReactor
  3
AcMeServices
 90
        0
280
     0
281
     0
  0
CLASS
  1
ACMESTATEMGR
  2
AcMeStateMgr
  3
AcMeServices
 90
        0
280
     0
281
     0
  0
CLASS
  1
ACGREFMASTER
  2
AcGrefMaster
  3
AcAttribServices
 90
        0
280
     0
281
     0
  0
CLASS
  1
ACME_DATABASE
  2
AcMeDbDatabase
  3
AcMeServices
 90
        0
280
     0
281
     0
  0
CLASS
  1
ACRFINSADJUSTERMGR
  2
AcRfInsAdjusterMgr
  3
AcMeServices
 90
        0
280
     0
281
     0
  0
CLASS
  1
ACGREFACADMASTER
  2
AcGrefacadMaster
  3
AcGrefServices
 90
        0
280
     0
281
     0
  0
CLASS
  1
AMIMASTER
  2
AmiMaster
  3
AmiServices
 90
        0
280
     0
281
     0
  0
CLASS
  1
ACMDATADICTIONARY
  2
AcmDataDictionary
  3
"AcmSymBB|Product Description: AutoCAD Mechanical|Company: Autodesk"
 90
        0
280
     0
281
     0
  0
CLASS
  1
ACMDATAENTRYBLOCK
  2
AcmDataEntryBlock
  3
"AcmSymBB|Product Description: AutoCAD Mechanical|Company: Autodesk"
 90
        0
280
     0
281
     0
  0
CLASS
  1
ACIMSTRSYSVAR
  2
AcImStrSysVar
  3
AcMeServices
 90
        0
280
     0
281
     0
  0
CLASS
  1
ACMSTANDARDISO
  2
AcmStandardISO
  3
"Amdt_StdImp|Product Description: AutoCAD Mechanical|Company: Autodesk"
 90
        0
280
     0
281
     0
  0
CLASS
  1
AMGOBJPROPCFG
  2
AmgObjPropCfg
  3
"AmgLay|Product Description: AutoCAD Mechanical|Company: Autodesk"
 90
        1
280
     0
281
     0
  0
CLASS
  1
AMDTEDGESTANDARDISO
  2
AmdtEdgeStdISO
  3
"Amdt_StdImp|Product Description: AutoCAD Mechanical|Company: Autodesk"
 90
        0
280
     0
281
     0
  0
CLASS
  1
ACMSURFSTANDARDISO
  2
AcmSurfTextStdISO
  3
"Amdt_StdImp|Product Description: AutoCAD Mechanical|Company: Autodesk"
 90
        0
280
     0
281
     0
  0
CLASS
  1
ACMFCFSTANDARDISO
  2
AcmFCFStdISO
  3
"Amdt_StdImp|Product Description: AutoCAD Mechanical|Company: Autodesk"
 90
        0
280
     0
281
     0
  0
CLASS
  1
ACMWELDSTANDARDISO
  2
AcmWeldingStdISO
  3
"Amdt_StdImp|Product Description: AutoCAD Mechanical|Company: Autodesk"
 90
        0
280
     0
281
     0
  0
CLASS
  1
ACMIDSTANDARDISO
  2
AcmIdStdISO
  3
"Amdt_StdImp|Product Description: AutoCAD Mechanical|Company: Autodesk"
 90
        0
280
     0
281
     0
  0
CLASS
  1
ACMDATUMSTANDARDISO
  2
AcmDatumStdISO
  3
"Amdt_StdImp|Product Description: AutoCAD Mechanical|Company: Autodesk"
 90
        0
280
     0
281
     0
  0
CLASS
  1
ACMBOMSTANDARDISO
  2
AcmBOMStdISO
  3
"Amdt_StdImp|Product Description: AutoCAD Mechanical|Company: Autodesk"
 90
        0
280
     0
281
     0
  0
CLASS
  1
ACMDETAILSTANDARDISO
  2
AmdtDetailSymStdISO
  3
"Amdt_StdImp|Product Description: AutoCAD Mechanical|Company: Autodesk"
 90
        0
280
     0
281
     0
  0
CLASS
  1
ACMSECTIONSTANDARDISO
  2
AmdtSectionSymStdISO
  3
"Amdt_StdImp|Product Description: AutoCAD Mechanical|Company: Autodesk"
 90
        0
280
     0
281
     0
  0
CLASS
  1
ACMCENTERLINESTANDARDISO
  2
AmdtCenterLineStdISO
  3
"Amdt_StdImp|Product Description: AutoCAD Mechanical|Company: Autodesk"
 90
        0
280
     0
281
     0
  0
CLASS
  1
ACAMGLAYSTD
  2
AcAmgLayStd
  3
"AmgLay|Product Description: AutoCAD Mechanical|Company: Autodesk"
 90
        0
280
     0
281
     0
  0
CLASS
  1
ACAMGDIMSTD
  2
AcAmgDimStd
  3
"AmgDim|Product Description: AutoCAD Mechanical|Company: Autodesk"
 90
        0
280
     0
281
     0
  0
CLASS
  1
ACAMGTITLESTD
  2
AcAmgTitleStd
  3
"AmgTitle|Product Description: AutoCAD Mechanical|Company: Autodesk"
 90
        0
280
     0
281
     0
  0
CLASS
  1
ACAMGFILTERDAT
  2
AcAmgFilterDat
  3
"AcadM|Product Description: AutoCAD Mechanical|Company: Autodesk"
 90
        0
280
     0
281
     0
  0
CLASS
  1
LAYER_INDEX
  2
AcDbLayerIndex
  3
ObjectDBX Classes
 90
    32768
280
     0
281
     0
  0
CLASS
  1
IDBUFFER
  2
AcDbIdBuffer
  3
ObjectDBX Classes
 90
    32768
280
     0
281
     0
  0
CLASS
  1
PLOTSETTINGS
  2
AcDbPlotSettings
  3
ObjectDBX Classes
 90
    32768
280
     0
281
     0
  0
CLASS
  1
AMDTFORMULAUPDATEDISPATCHER
  2
AmdtFormulaUpdateDispatcher
  3
AcMeServices
 90
        0
280
     0
281
     0
  0
CLASS
  1
ACMSTANDARDANSI
  2
AcmStandardANSI
  3
"Amdt_StdImp|Product Description: AutoCAD Mechanical|Company: Autodesk"
 90
        0
280
     0
281
     0
  0
CLASS
  1
ACMSURFSTANDARDANSI
  2
AcmSurfTextStdANSI
  3
"Amdt_StdImp|Product Description: AutoCAD Mechanical|Company: Autodesk"
 90
        0
280
     0
281
     0
  0
CLASS
  1
ACMFCFSTANDARDANSI
  2
AcmFCFStdANSI
  3
"Amdt_StdImp|Product Description: AutoCAD Mechanical|Company: Autodesk"
 90
        0
280
     0
281
     0
  0
CLASS
  1
ACMWELDSTANDARDANSI
  2
AcmWeldingStdANSI
  3
"Amdt_StdImp|Product Description: AutoCAD Mechanical|Company: Autodesk"
 90
        0
280
     0
281
     0
  0
CLASS
  1
ACMIDSTANDARDANSI
  2
AcmIdStdANSI
  3
"Amdt_StdImp|Product Description: AutoCAD Mechanical|Company: Autodesk"
 90
        0
280
     0
281
     0
  0
CLASS
  1
ACMDATUMSTANDARDANSI
  2
AcmDatumStdANSI
  3
"Amdt_StdImp|Product Description: AutoCAD Mechanical|Company: Autodesk"
 90
        0
280
     0
281
     0
  0
CLASS
  1
ACMBOMSTANDARDANSI
  2
AcmBOMStdANSI
  3
"Amdt_StdImp|Product Description: AutoCAD Mechanical|Company: Autodesk"
 90
        0
280
     0
281
     0
  0
CLASS
  1
ACMDETAILSTANDARDANSI
  2
AmdtDetailSymStdANSI
  3
"Amdt_StdImp|Product Description: AutoCAD Mechanical|Company: Autodesk"
 90
        0
280
     0
281
     0
  0
CLASS
  1
ACMSECTIONSTANDARDANSI
  2
AmdtSectionSymStdANSI
  3
"Amdt_StdImp|Product Description: AutoCAD Mechanical|Company: Autodesk"
 90
        0
280
     0
281
     0
  0
CLASS
  1
ACMCENTERLINESTANDARDANSI
  2
AmdtCenterLineStdANSI
  3
"Amdt_StdImp|Product Description: AutoCAD Mechanical|Company: Autodesk"
 90
        0
280
     0
281
     0
  0
CLASS
  1
ACMBOM
  2
AcmBom
  3
"AcmSymBB|Product Description: AutoCAD Mechanical|Company: Autodesk"
 90
        0
280
     0
281
     0
  0
CLASS
  1
ACMDATAENTRYPART
  2
AcmDataEntryPart
  3
"AcmSymBB|Product Description: AutoCAD Mechanical|Company: Autodesk"
 90
    32768
280
     0
281
     0
  0
CLASS
  1
ACMPARTREF
  2
AcmPartRef
  3
"AcmSymBB|Product Description: AutoCAD Mechanical|Company: Autodesk"
 90
    35839
280
     0
281
     1
  0
CLASS
  1
ACDBCIRCARCRES
  2
AcDbCircArcRes
  3
AcGrefServices
 90
    32768
280
     0
281
     0
  0
CLASS
  1
ACMBOMROW
  2
AcmBomRow
  3
"AcmSymBB|Product Description: AutoCAD Mechanical|Company: Autodesk"
 90
    32768
280
     0
281
     0
  0
CLASS
  1
ACMBALLOON
  2
AcmBalloon
  3
"AcmSymBB|Product Description: AutoCAD Mechanical|Company: Autodesk"
 90
    35839
280
     0
281
     1
  0
CLASS
  1
AMDTNOTE
  2
AmdtNote
  3
"AcmSymBB|Product Description: AutoCAD Mechanical|Company: Autodesk"
 90
    35839
280
     0
281
     1
  0
CLASS
  1
STDPART2D
  2
AmgStdPart
  3
"g3vace|Class: AmgStdPart|Product Description: AutoCAD Mechanical|Company: Autodesk"
 90
    35839
280
     0
281
     1
  0
CLASS
  1
ACDBSTDPARTRES_LINE
  2
AcDbStdPartRes_Line
  3
"g3vace|Class: AcDbStdPartRes_Line|Product Description: AutoCAD Mechanical|Company: Autodesk"
 90
    32768
280
     0
281
     0
  0
CLASS
  1
ACMDATAENTRY
  2
AcmDataEntry
  3
"AcmSymBB|Product Description: AutoCAD Mechanical|Company: Autodesk"
 90
        0
280
     0
281
     0
  0
CLASS
  1
ACDBOPPOLYLINERES
  2
AcDbOpPolylineRes
  3
AcGrefServices
 90
    32768
280
     0
281
     0
  0
CLASS
  1
ACMPARTLIST
  2
AcmPartList
  3
"AcmSymBB|Product Description: AutoCAD Mechanical|Company: Autodesk"
 90
    35839
280
     0
281
     1
  0
CLASS
  1
ACDBLINERES
  2
AcDbLineRes
  3
AcGrefServices
 90
    32768
280
     0
281
     0
  0
CLASS
  1
ACRFINSADJ
  2
AcRfInsAdjuster
  3
AcMeServices
 90
    32768
280
     0
281
     0
  0
CLASS
  1
AM_DRAWING_MGR
  2
AcDmDwgMgr
  3
AcMechDwgViewMgmt
 90
        0
280
     0
281
     0
  0
CLASS
  1
AM_DWG_DOCUMENT
  2
AcDmDwgDocument
  3
AcMechDwgViewMgmt
 90
        0
280
     0
281
     0
  0
CLASS
  1
AM_DWG_SHEET
  2
AcDmSheet
  3
AcMechDwgViewMgmt
 90
        0
280
     0
281
     0
  0
CLASS
  1
AM_VIEWDIMPARMAP
  2
AcDmViewDimParMap
  3
AcMechDwgViewMgmt
 90
        0
280
     0
281
     0
  0
CLASS
  1
AM_DWGMGR_NAME
  2
AcDmDwgMgrName
  3
AcMechDwgViewMgmt
 90
        0
280
     0
281
     0
  0
CLASS
  1
AMDTMENUSTATEMGR
  2
AmdtMenuStateMgr
  3
McadcomServices
 90
        0
280
     0
281
     0
  0
CLASS
  1
AMDTMCOMMENUSTATE
  2
AmdtMcomMenuState
  3
McadcomServices
 90
        0
280
     0
281
     0
  0
CLASS
  1
ASAPP
  2
AcAsAppObject
  3
AutoSurfServices
 90
        0
280
     0
281
     0
  0
CLASS
  1
IM_STATIC_MAN
  2
AcImStaticVarManager
  3
AcMeServices
 90
        0
280
     0
281
     0
  0
CLASS
  1
ACIMDBLSTATICVAR
  2
AcImDblStaticVar
  3
AcMeServices
 90
        0
280
     0
281
     0
  0
CLASS
  1
ACIMSTRSTATICVAR
  2
AcImStrStaticVar
  3
AcMeServices
 90
        0
280
     0
281
     0
  0
CLASS
  1
ACIMINTSTATICVAR
  2
AcImIntStaticVar
  3
AcMeServices
 90
        0
280
     0
281
     0
  0
CLASS
  1
ACASGREFMASTER
  2
AcAsGrefMaster
  3
AutoSurfResolverServices
 90
        0
280
     0
281
     0
  0
CLASS
  1
ACADGREFMODULE
  2
AcAdGrefModule
  3
AdGrefServices
 90
        0
280
     0
281
     0
  0
CLASS
  1
AMDTMAPISURFMOUDULE
  2
AmdtMApiSurfModule
  3
MApiSurfServices
 90
        0
280
     0
281
     0
  0
CLASS
  1
MAPIAMMOUDLE
  2
MApiAmModule
  3
MApiAmServices
 90
        0
280
     0
281
     0
  0
CLASS
  1
AMDTADMENUSTATE
  2
AmdtAdMenuState
  3
DesignerServices
 90
        0
280
     0
281
     0
  0
CLASS
  1
ADAPPL
  2
AcAdAppl
  3
DesignerServices
 90
        0
280
     0
281
     0
  0
CLASS
  1
DEPMGR
  2
AcAdDepMgr
  3
DesignerServices
 90
        0
280
     0
281
     0
  0
CLASS
  1
PARAMMGR
  2
AcAdParamMgr
  3
DesignerServices
 90
        0
280
     0
281
     0
  0
CLASS
  1
PARAMSCOPE
  2
AcAdParamScope
  3
DesignerServices
 90
        0
280
     0
281
     0
  0
CLASS
  1
NAMEDAPPL
  2
AcAdNamedAppl
  3
DesignerServices
 90
        0
280
     0
281
     0
  0
CLASS
  1
ADHNTMPLT
  2
AdHoleNoteTemplateMgr
  3
DesignerServices
 90
    32768
280
     0
281
     0
  0
CLASS
  1
AM_HNTEMPLATE_MGR_NAME
  2
AdHoleNoteTemplateMgrName
  3
DesignerServices
 90
    32768
280
     0
281
     0
  0
CLASS
  1
AMDTDMMENUSTATE
  2
AmdtDmMenuState
  3
AcMechDwgViewMgmt
 90
        0
280
     0
281
     0
  0
CLASS
  1
MAPIADMODULE
  2
MApiAdModule
  3
MApiAdServices
 90
        0
280
     0
281
     0
  0
CLASS
  1
AMDTAMMENUSTATE
  2
AmdtAmMenuState
  3
DesignerAssemblies
 90
        0
280
     0
281
     0
  0
CLASS
  1
ACAMPROJECT
  2
AcAmProject
  3
DesignerAssemblies
 90
        0
280
     0
281
     0
  0
CLASS
  1
ACAMGRCOMPDEF
  2
AcAmGrCompDef
  3
DesignerAssemblies
 90
        0
280
     0
281
     0
  0
CLASS
  1
ACCMCONTEXT
  2
AcCmContext
  3
DesignerAssemblies
 90
        0
280
     0
281
     0
  0
CLASS
  1
ACAMCOMPDEF
  2
AcAmCompDef
  3
DesignerAssemblies
 90
        0
280
     0
281
     0
  0
CLASS
  1
ACAMCOMPDEFMGR
  2
AcAmCompDefMgr
  3
DesignerAssemblies
 90
        0
280
     0
281
     0
  0
CLASS
  1
AMCONTEXTMGR
  2
AcAmContextMgr
  3
DesignerAssemblies
 90
        0
280
     0
281
     0
  0
CLASS
  1
ACAMCONTEXTMODELER
  2
AcAmContextModeler
  3
DesignerAssemblies
 90
        0
280
     0
281
     0
  0
CLASS
  1
CATALOGSTATE
  2
AcAmCatalogState
  3
DesignerAssemblies
 90
        0
280
     0
281
     0
  0
CLASS
  1
ACAMGRCOMPDEFSET
  2
AcAmGrCompDefSet
  3
DesignerAssemblies
 90
        0
280
     0
281
     0
  0
CLASS
  1
AMDTBROWSERDBTAB
  2
AmdtBrowserDbTab
  3
McadcomServices
 90
        0
280
     0
281
     0
  0
CLASS
  1
CBROWSERAPPOBJECT
  2
CBrowserAppObject
  3
McadcomServices
 90
        0
280
     0
281
     0
  0
CLASS
  1
DM_PLACEHOLDER
  2
AcDmSelsetPlaceholder
  3
AcMechDwgViewMgmt
 90
        0
280
     0
281
     0
  0
CLASS
  1
ACMPICKOBJ
  2
AcmPickEnt
  3
"AcmSymBB|Product Description: AutoCAD Mechanical|Company: Autodesk"
 90
    32768
280
     0
281
     1
  0
CLASS
  1
ACMNOTESTANDARDISO
  2
AmdtNoteStdISO
  3
"Amdt_StdImp|Product Description: AutoCAD Mechanical|Company: Autodesk"
 90
        0
280
     0
281
     0
  0
CLASS
  1
ACMNOTESTANDARDANSI
  2
AmdtNoteStdANSI
  3
"Amdt_StdImp|Product Description: AutoCAD Mechanical|Company: Autodesk"
 90
        0
280
     0
281
     0
  0
CLASS
  1
ACMTHREADLINESTANDARDISO
  2
AmdtThreadLineStdISO
  3
"Amdt_StdImp|Product Description: AutoCAD Mechanical|Company: Autodesk"
 90
        0
280
     0
281
     0
  0
CLASS
  1
ACMTHREADLINESTANDARDANSI
  2
AmdtThreadLineStdANSI
  3
"Amdt_StdImp|Product Description: AutoCAD Mechanical|Company: Autodesk"
 90
        0
280
     0
281
     0
  0
CLASS
  1
TABLESTYLE
  2
AcDbTableStyle
  3
ObjectDBX Classes
 90
     4095
280
     0
281
     0
  0
CLASS
  1
SORTENTSTABLE
  2
AcDbSortentsTable
  3
ObjectDBX Classes
 90
        0
280
     0
281
     0
  0
CLASS
  1
MATERIAL
  2
AcDbMaterial
  3
ObjectDBX Classes
 90
     1024
280
     0
281
     0
  0
CLASS
  1
VISUALSTYLE
  2
AcDbVisualStyle
  3
ObjectDBX Classes
 90
     4095
280
     0
281
     0
  0
CLASS
  1
ACRFATTGENMGR
  2
AcRfAttGeneralMgr
  3
AcAttribServices
 90
        0
280
     0
281
     0
  0
CLASS
  1
ACRFOBJATTMGR
  2
AcRfObjAttGroupMgr
  3
AcAttribServices
 90
        0
280
     0
281
     0
  0
CLASS
  1
ACRFMCADAPIATTHOLDER
  2
AcRfMCADAPIAttHolder
  3
AcAttribServices
 90
        0
280
     0
281
     0
  0
CLASS
  1
AMDTSYSATTR
  2
AmdtSystemAttribute
  3
AcAttribServices
 90
        0
280
     0
281
     0
  0
CLASS
  1
ACMTAPERSTANDARDISO
  2
AcmTaperStdISO
  3
"Amdt_StdImp|Product Description: AutoCAD Mechanical|Company: Autodesk"
 90
        0
280
     0
281
     0
  0
CLASS
  1
CAMSSTRUCTBTNSTATE
  2
StructBtnState
  3
L"DesignerAssemblies"
 90
        0
280
     0
281
     0
  0
CLASS
  1
DIMASSOC
  2
AcDbDimAssoc
  3
"AcDbDimAssoc|Product Desc:     AcDim ARX App For Dimension|Company:          Autodesk, Inc.|WEB Address:      www.autodesk.com"
 90
    32768
280
     0
281
     0
  0
CLASS
  1
AMDTNOTETEMPLATEDB
  2
AmdtNoteTemplateDB
  3
AMDT_STDIMP_MODULE_NAME
 90
        0
280
     0
281
     0
  0
CLASS
  1
ACMTAPERSTANDARDANSI
  2
AcmTaperStdANSI
  3
"Amdt_StdImp|Product Description: AutoCAD Mechanical|Company: Autodesk"
 90
        0
280
     0
281
     0
  0
CLASS
  1
ACAMGHOLECHARTSTDANSI
  2
AcAmgHoleChartStdANSI
  3
ACMSYMBB_MODULE_NAME
 90
        0
280
     0
281
     0
  0
CLASS
  1
AMDTACMWBLOCKBOMENTITY
  2
AmdtAcmWblockBomEntity
  3
"AcmSymBB|Product Description: AutoCAD Mechanical|Company: Autodesk"
 90
    35839
280
     0
281
     1
  0
ENDSEC
  0
SECTION
  2
TABLES
  0
TABLE
  2
VPORT
  5
8
330
0
100
AcDbSymbolTable
 70
     1
  0
VPORT
  5
B0EC
330
8
100
AcDbSymbolTableRecord
100
AcDbViewportTableRecord
  2
*Active
 70
     0
 10
0.0
 20
0.0
 11
1.0
 21
1.0
 12
148.5075872420907
 22
105.0037178887938
 13
0.0
 23
0.0
 14
2.5
 24
2.5
 15
10.0
 25
10.0
 16
0.0
 26
0.0
 36
1.0
 17
0.0
 27
0.0
 37
0.0
 40
236.3568485182862
 41
1.263048016701461
 42
50.0
 43
-1370.695619172058
 44
-1370.695619172058
 50
0.0
 51
0.0
 71
     0
 72
   100
 73
     1
 74
     3
 75
     0
 76
     0
 77
     0
 78
     0
281
     0
 65
     0
110
0.0
120
0.0
130
0.0
111
1.0
121
0.0
131
0.0
112
0.0
122
1.0
132
0.0
 79
     0
146
0.0
  0
ENDTAB
  0
TABLE
  2
LTYPE
  5
5
330
0
100
AcDbSymbolTable
 70
    32
  0
LTYPE
  5
14
330
5
100
AcDbSymbolTableRecord
100
AcDbLinetypeTableRecord
  2
ByBlock
 70
     0
  3

 72
    65
 73
     0
 40
0.0
  0
LTYPE
  5
15
330
5
100
AcDbSymbolTableRecord
100
AcDbLinetypeTableRecord
  2
ByLayer
 70
     0
  3

 72
    65
 73
     0
 40
0.0
  0
LTYPE
  5
16
330
5
100
AcDbSymbolTableRecord
100
AcDbLinetypeTableRecord
  2
Continuous
 70
     0
  3
Solid line
 72
    65
 73
     0
 40
0.0
  0
LTYPE
  5
4F
330
5
100
AcDbSymbolTableRecord
100
AcDbLinetypeTableRecord
  2
AM_ISO02W050
 70
     0
  3
__ __ __ __ __ __ __ __ __ __ __ __ __ __ __
 72
    65
 73
     2
 40
7.5
 49
6.0
 74
     0
 49
-1.5
 74
     0
  0
LTYPE
  5
52
330
5
100
AcDbSymbolTableRecord
100
AcDbLinetypeTableRecord
  2
Amconstr
 70
     0
  3
_______________________
 72
    65
 73
     2
 40
9999.0
 49
9999.0
 74
     0
 49
0.0
 74
     0
  0
LTYPE
  5
64
330
5
100
AcDbSymbolTableRecord
100
AcDbLinetypeTableRecord
  2
ACISOWELD
 70
     0
  3
_ _ _ _ _
 72
    65
 73
     2
 40
2.0
 49
2.0
 74
     0
 49
-1.0
 74
     0
  0
LTYPE
  5
65
330
5
100
AcDbSymbolTableRecord
100
AcDbLinetypeTableRecord
  2
ACISOTGB
 70
     0
  3
__ . . __ . .
 72
    65
 73
     6
 40
9.0
 49
4.0
 74
     0
 49
-1.0
 74
     0
 49
1.0
 74
     0
 49
-1.0
 74
     0
 49
1.0
 74
     0
 49
-1.0
 74
     0
  0
LTYPE
  5
66
330
5
100
AcDbSymbolTableRecord
100
AcDbLinetypeTableRecord
  2
ACISOTGL
 70
     0
  3
_ _ _ _ _
 72
    65
 73
     2
 40
3.0
 49
2.0
 74
     0
 49
-1.0
 74
     0
  0
LTYPE
  5
69
330
5
100
AcDbSymbolTableRecord
100
AcDbLinetypeTableRecord
  2
CENTER
 70
     0
  3
__ . __
 72
    65
 73
     4
 40
7.0
 49
4.0
 74
     0
 49
-1.0
 74
     0
 49
1.0
 74
     0
 49
-1.0
 74
     0
  0
LTYPE
  5
A6E
330
5
100
AcDbSymbolTableRecord
100
AcDbLinetypeTableRecord
  2
PHANTOM2
 70
     0
  3
Phantom (.5x) ___ _ _ ___ _ _ ___ _ _ ___ _ _
 72
    65
 73
     6
 40
31.75
 49
15.875
 74
     0
 49
-3.174999999999999
 74
     0
 49
3.174999999999999
 74
     0
 49
-3.174999999999999
 74
     0
 49
3.174999999999999
 74
     0
 49
-3.174999999999999
 74
     0
  0
LTYPE
  5
4DED
330
5
100
AcDbSymbolTableRecord
100
AcDbLinetypeTableRecord
  2
中線
 70
     0
  3
___________________
 72
    65
 73
     2
 40
2.0
 49
1.0
 74
     0
 49
1.0
 74
     0
  0
LTYPE
  5
4DF6
330
5
100
AcDbSymbolTableRecord
100
AcDbLinetypeTableRecord
  2
細線
 70
     0
  3
___________________
 72
    65
 73
     2
 40
2.0
 49
1.0
 74
     0
 49
1.0
 74
     0
  0
LTYPE
  5
4DF7
330
5
100
AcDbSymbolTableRecord
100
AcDbLinetypeTableRecord
  2
太線
 70
     0
  3
___________________
 72
    65
 73
     2
 40
2.0
 49
1.0
 74
     0
 49
1.0
 74
     0
  0
LTYPE
  5
4EA7
330
5
100
AcDbSymbolTableRecord
100
AcDbLinetypeTableRecord
  2
文字
 70
     0
  3
_________________
 72
    65
 73
     2
 40
2.0
 49
1.0
 74
     0
 49
1.0
 74
     0
  0
LTYPE
  5
4EA9
330
5
100
AcDbSymbolTableRecord
100
AcDbLinetypeTableRecord
  2
寸法線
 70
     0
  3
________________
 72
    65
 73
     2
 40
2.0
 49
1.0
 74
     0
 49
1.0
 74
     0
  0
LTYPE
  5
4F12
330
5
100
AcDbSymbolTableRecord
100
AcDbLinetypeTableRecord
  2
ハッチング
 70
     0
  3
_________________
 72
    65
 73
     2
 40
2.0
 49
1.0
 74
     0
 49
1.0
 74
     0
  0
LTYPE
  5
5180
330
5
100
AcDbSymbolTableRecord
100
AcDbLinetypeTableRecord
  2
陰線1
 70
     0
  3
__ __ __ __
 72
    65
 73
     2
 40
4.0
 49
2.2
 74
     0
 49
-1.8
 74
     0
  0
LTYPE
  5
5182
330
5
100
AcDbSymbolTableRecord
100
AcDbLinetypeTableRecord
  2
切断線
 70
     0
  3
/\/-/\/-/\/-/\/-/\/-/\/
 72
    65
 73
     2
 40
11.0001
 49
0.0001
 74
     4
 75
   135
340
56
 46
0.04
 50
0.0
 44
0.0
 45
0.0
 49
-11.0
 74
     0
  0
LTYPE
  5
5183
330
5
100
AcDbSymbolTableRecord
100
AcDbLinetypeTableRecord
  2
想像線1
 70
     0
  3
__ __ __ _____ __ __ ____
 72
    65
 73
     6
 40
14.5
 49
6.0
 74
     0
 49
-1.5
 74
     0
 49
2.0
 74
     0
 49
-1.5
 74
     0
 49
2.0
 74
     0
 49
-1.5
 74
     0
  0
LTYPE
  5
5185
330
5
100
AcDbSymbolTableRecord
100
AcDbLinetypeTableRecord
  2
中心線1
 70
     0
  3
___ _ ___ _ ___
 72
    65
 73
     4
 40
18.0
 49
12.0
 74
     0
 49
-2.0
 74
     0
 49
2.0
 74
     0
 49
-2.0
 74
     0
  0
LTYPE
  5
5188
330
5
100
AcDbSymbolTableRecord
100
AcDbLinetypeTableRecord
  2
補助線
 70
     0
  3
______________
 72
    65
 73
     2
 40
2.0
 49
1.0
 74
     0
 49
1.0
 74
     0
  0
LTYPE
  5
6427
330
5
100
AcDbSymbolTableRecord
100
AcDbLinetypeTableRecord
  2
HIDDEN
 70
     0
  3
Hidden __ __ __ __ __ __ __ __ __ __ __ __ __ _
 72
    65
 73
     2
 40
0.375
 49
0.25
 74
     0
 49
-0.125
 74
     0
  0
LTYPE
  5
AC81
330
5
100
AcDbSymbolTableRecord
100
AcDbLinetypeTableRecord
  2
破断線
 70
     0
  3
/\/-/\/-/\/-/\/-/\/-/\/
 72
    65
 73
     2
 40
0.4401
 49
0.0001
 74
     4
 75
   136
340
AC80
 46
0.0016
 50
0.0
 44
0.0
 45
0.0
 49
-0.4400000000000001
 74
     0
  0
LTYPE
  5
AC9E
330
5
100
AcDbSymbolTableRecord
100
AcDbLinetypeTableRecord
  2
Amzigzag
 70
     0
  3
/\/-/\/-/\/-/\/-/\/-/\/
 72
    65
 73
     2
 40
11.0001
 49
0.0001
 74
     4
 75
   135
340
56
 46
0.04
 50
0.0
 44
0.0
 45
0.0
 49
-11.0
 74
     0
  0
LTYPE
  5
AF0F
330
5
100
AcDbSymbolTableRecord
100
AcDbLinetypeTableRecord
  2
genzigzag
 70
     0
  3
/\/-/\/-/\/-/\/-/\/-/\/
 72
    65
 73
     2
 40
12.0001
 49
0.0001
 74
     4
 75
   135
340
AC80
 46
2.0
 50
0.0
 44
0.0
 45
0.0
 49
-12.0
 74
     0
  0
LTYPE
  5
AF95
330
5
100
AcDbSymbolTableRecord
100
AcDbLinetypeTableRecord
  2
AM_ISO08W050
 70
     0
  3
____ . ____ . ____ . ____ . ____ . ____ . ____
 72
    65
 73
     4
 40
18.0
 49
12.0
 74
     0
 49
-1.5
 74
     0
 49
3.0
 74
     0
 49
-1.5
 74
     0
  0
LTYPE
  5
AF96
330
5
100
AcDbSymbolTableRecord
100
AcDbLinetypeTableRecord
  2
AM_ISO09W050
 70
     0
  3
_____ . . _____ . . _____ . . ____ .. ____
 72
    65
 73
     6
 40
22.5
 49
12.0
 74
     0
 49
-1.5
 74
     0
 49
3.0
 74
     0
 49
-1.5
 74
     0
 49
3.0
 74
     0
 49
-1.5
 74
     0
  0
LTYPE
  5
AF97
330
5
100
AcDbSymbolTableRecord
100
AcDbLinetypeTableRecord
  2
AM_ISO08W050x2
 70
     0
  3
__ . __ . __ . __ . __ . __
 72
    65
 73
     4
 40
9.0
 49
6.0
 74
     0
 49
-0.75
 74
     0
 49
1.5
 74
     0
 49
-0.75
 74
     0
  0
LTYPE
  5
AF98
330
5
100
AcDbSymbolTableRecord
100
AcDbLinetypeTableRecord
  2
AM_ISO02W050x2
 70
     0
  3
 _ _ _ _ _ _ _ _ _ _ _ _
 72
    65
 73
     2
 40
3.75
 49
3.0
 74
     0
 49
-0.75
 74
     0
  0
LTYPE
  5
B541
330
5
100
AcDbSymbolTableRecord
100
AcDbLinetypeTableRecord
  2
CENTER2
 70
     0
  3
__ _ __ _ __ _
 72
    65
 73
     4
 40
10.0
 49
7.0
 74
     0
 49
-1.0
 74
     0
 49
1.0
 74
     0
 49
-1.0
 74
     0
  0
LTYPE
  5
B542
330
5
100
AcDbSymbolTableRecord
100
AcDbLinetypeTableRecord
  2
HIDDEN2
 70
     0
  3
Hidden (.5x) _ _ _ _ _ _ _ _ _ _ _ _ _ _ _ _ _
 72
    65
 73
     2
 40
0.1875
 49
0.125
 74
     0
 49
-0.0625
 74
     0
  0
LTYPE
  5
B543
330
5
100
AcDbSymbolTableRecord
100
AcDbLinetypeTableRecord
  2
Amzigzag2
 70
     0
  3
/\/-/\/-/\/-/\/-/\/-/\/
 72
    65
 73
     2
 40
0.4401
 49
0.0001
 74
     4
 75
   136
340
AC80
 46
0.0016
 50
0.0
 44
0.0
 45
0.0
 49
-0.4400000000000001
 74
     0
  0
LTYPE
  5
B544
330
5
100
AcDbSymbolTableRecord
100
AcDbLinetypeTableRecord
  2
ACANSTGB
 70
     0
  3
__ . . __ . .
 72
    65
 73
     6
 40
0.35433070866
 49
0.15748031496
 74
     0
 49
-0.03937007874
 74
     0
 49
0.03937007874
 74
     0
 49
-0.03937007874
 74
     0
 49
0.03937007874
 74
     0
 49
-0.03937007874
 74
     0
  0
LTYPE
  5
B545
330
5
100
AcDbSymbolTableRecord
100
AcDbLinetypeTableRecord
  2
ACANSTGL
 70
     0
  3
_ _ _ _ _
 72
    65
 73
     2
 40
0.11811023622
 49
0.07874015748
 74
     0
 49
-0.03937007874
 74
     0
  0
ENDTAB
  0
TABLE
  2
LAYER
  5
2
102
{ACAD_XDICTIONARY
360
3F95
102
}
330
0
100
AcDbSymbolTable
 70
    31
  0
LAYER
  5
10
330
2
100
AcDbSymbolTableRecord
100
AcDbLayerTableRecord
  2
0
 70
     0
 62
     7
  6
Continuous
370
    -3
390
F
  0
LAYER
  5
6D1
330
2
100
AcDbSymbolTableRecord
100
AcDbLayerTableRecord
  2
Defpoints
 70
     0
 62
     7
  6
Continuous
290
     0
370
    -3
390
F
  0
LAYER
  5
5F85
330
2
100
AcDbSymbolTableRecord
100
AcDbLayerTableRecord
  2
AM_0
 70
     0
 62
     7
  6
中線
370
    30
390
F
1001
AcAecLayerStandard
1000

1000

  0
LAYER
  5
AC9F
330
2
100
AcDbSymbolTableRecord
100
AcDbLayerTableRecord
  2
size
 70
     0
 62
     5
  6
Continuous
290
     0
370
    25
390
F
  0
LAYER
  5
ACA0
330
2
100
AcDbSymbolTableRecord
100
AcDbLayerTableRecord
  2
waku
 70
     0
 62
     7
  6
Continuous
370
    35
390
F
  0
LAYER
  5
ACA1
330
2
100
AcDbSymbolTableRecord
100
AcDbLayerTableRecord
  2
AM_6
 70
     0
 62
     2
  6
文字
370
    13
390
F
1001
AcAecLayerStandard
1000

1000

  0
LAYER
  5
ACC8
330
2
100
AcDbSymbolTableRecord
100
AcDbLayerTableRecord
  2
hyomoji
 70
     0
 62
     2
  6
Continuous
370
    13
390
F
  0
LAYER
  5
ACC9
330
2
100
AcDbSymbolTableRecord
100
AcDbLayerTableRecord
  2
hyosen1
 70
     0
 62
     1
  6
Continuous
370
    25
390
F
  0
LAYER
  5
ACCA
330
2
100
AcDbSymbolTableRecord
100
AcDbLayerTableRecord
  2
hyosen2
 70
     0
 62
     1
  6
Continuous
370
    13
390
F
  0
LAYER
  5
AD60
330
2
100
AcDbSymbolTableRecord
100
AcDbLayerTableRecord
  2
AM_1
 70
     0
 62
    30
  6
太線
370
    40
390
F
1001
AcAecLayerStandard
1000

1000

  0
LAYER
  5
AD64
330
2
100
AcDbSymbolTableRecord
100
AcDbLayerTableRecord
  2
AM_2
 70
     0
 62
     1
  6
細線
370
    13
390
F
1001
AcAecLayerStandard
1000

1000

  0
LAYER
  5
AD67
330
2
100
AcDbSymbolTableRecord
100
AcDbLayerTableRecord
  2
AM_3
 70
     0
 62
     6
  6
陰線1
370
    13
390
F
1001
AcAecLayerStandard
1000

1000

  0
LAYER
  5
AD68
330
2
100
AcDbSymbolTableRecord
100
AcDbLayerTableRecord
  2
AM_5
 70
     0
 62
     3
  6
寸法線
370
    13
390
F
1001
AcAecLayerStandard
1000

1000

  0
LAYER
  5
AD69
330
2
100
AcDbSymbolTableRecord
100
AcDbLayerTableRecord
  2
AM_7
 70
     0
 62
     4
  6
中心線1
370
    13
390
F
1001
AcAecLayerStandard
1000

1000

  0
LAYER
  5
AD6A
330
2
100
AcDbSymbolTableRecord
100
AcDbLayerTableRecord
  2
AM_8
 70
     0
 62
     1
  6
ハッチング
370
    13
390
F
1001
AcAecLayerStandard
1000

1000

  0
LAYER
  5
AD6E
330
2
100
AcDbSymbolTableRecord
100
AcDbLayerTableRecord
  2
AM_10
 70
     0
 62
     7
  6
切断線
370
    13
390
F
1001
AcAecLayerStandard
1000

1000

  0
LAYER
  5
AD6F
330
2
100
AcDbSymbolTableRecord
100
AcDbLayerTableRecord
  2
AM_11
 70
     0
 62
     2
  6
想像線1
370
    13
390
F
1001
AcAecLayerStandard
1000

1000

  0
LAYER
  5
B1B6
330
2
100
AcDbSymbolTableRecord
100
AcDbLayerTableRecord
  2
AM_CL
 70
     0
 62
     1
  6
Amconstr
370
    15
390
F
1001
AcAecLayerStandard
1000

1000

  0
LAYER
  5
B2EB
330
2
100
AcDbSymbolTableRecord
100
AcDbLayerTableRecord
  2
AM_14
 70
     0
 62
     5
  6
細線
370
     9
390
F
1001
AcAecLayerStandard
1000

1000

  0
LAYER
  5
B2EC
330
2
100
AcDbSymbolTableRecord
100
AcDbLayerTableRecord
  2
AM_15
 70
     0
 62
     6
  6
陰線1
370
     9
390
F
1001
AcAecLayerStandard
1000

1000

  0
LAYER
  5
B502
330
2
100
AcDbSymbolTableRecord
100
AcDbLayerTableRecord
  2
AM_4
 70
     0
 62
     3
  6
補助線
370
    15
390
F
1001
AcAecLayerStandard
1000

1000

  0
LAYER
  5
B546
330
2
100
AcDbSymbolTableRecord
100
AcDbLayerTableRecord
  2
1
 70
     0
 62
     7
  6
Continuous
370
    -3
390
F
  0
LAYER
  5
B791
330
2
100
AcDbSymbolTableRecord
100
AcDbLayerTableRecord
  2
想像線
 70
     0
 62
     5
  6
PHANTOM2
370
    -3
390
F
  0
LAYER
  5
B792
330
2
100
AcDbSymbolTableRecord
100
AcDbLayerTableRecord
  2
実線
 70
     0
 62
     7
  6
Continuous
370
    -3
390
F
  0
LAYER
  5
B793
330
2
100
AcDbSymbolTableRecord
100
AcDbLayerTableRecord
  2
中心線
 70
     0
 62
     2
  6
CENTER2
370
    -3
390
F
  0
LAYER
  5
B794
330
2
100
AcDbSymbolTableRecord
100
AcDbLayerTableRecord
  2
隠れ線
 70
     0
 62
     4
  6
HIDDEN2
370
    -3
390
F
  0
LAYER
  5
B795
330
2
100
AcDbSymbolTableRecord
100
AcDbLayerTableRecord
  2
細線
 70
     0
 62
     4
  6
Continuous
370
    -3
390
F
  0
LAYER
  5
B796
330
2
100
AcDbSymbolTableRecord
100
AcDbLayerTableRecord
  2
文字
 70
     0
 62
     1
  6
Continuous
370
    -3
390
F
  0
LAYER
  5
BD5F
330
2
100
AcDbSymbolTableRecord
100
AcDbLayerTableRecord
  2
2
 70
     0
 62
     7
  6
Continuous
370
    -3
390
F
  0
LAYER
  5
BD60
330
2
100
AcDbSymbolTableRecord
100
AcDbLayerTableRecord
  2
3
 70
     0
 62
     7
  6
Continuous
370
    -3
390
F
  0
LAYER
  5
D0E8
330
2
100
AcDbSymbolTableRecord
100
AcDbLayerTableRecord
  2
6
 70
     0
 62
     5
  6
Continuous
370
    -3
390
F
  0
ENDTAB
  0
TABLE
  2
STYLE
  5
3
330
0
100
AcDbSymbolTable
 70
    10
  0
STYLE
  5
11
330
3
100
AcDbSymbolTableRecord
100
AcDbTextStyleTableRecord
  2
STANDARD
 70
     0
 40
0.0
 41
0.7
 50
0.0
 71
     0
 42
3.2
  3
romans.shx
  4
extfont.shx
  0
STYLE
  5
56
330
3
100
AcDbSymbolTableRecord
100
AcDbTextStyleTableRecord
  2

 70
     1
 40
0.0
 41
1.0
 50
0.0
 71
     0
 42
2.5
  3
ltypeshp.shx
  4

  0
STYLE
  5
58
330
3
100
AcDbSymbolTableRecord
100
AcDbTextStyleTableRecord
  2
ACISOTS
 70
     0
 40
1.0
 41
1.0
 50
0.0
 71
     0
 42
2.5
  3
isocp.shx
  4
extfont.shx
  0
STYLE
  5
63
330
3
100
AcDbSymbolTableRecord
100
AcDbTextStyleTableRecord
  2
ACISOGDT
 70
     0
 40
0.0
 41
1.0
 50
0.0
 71
     0
 42
2.5
  3
amgdt.shx
  4

  0
STYLE
  5
A74
330
3
100
AcDbSymbolTableRecord
100
AcDbTextStyleTableRecord
  2
DIM
 70
     0
 40
0.0
 41
1.0
 50
0.0
 71
     0
 42
2.5
  3
monotxt.shx
  4
extfont.shx
  0
STYLE
  5
AC80
330
3
100
AcDbSymbolTableRecord
100
AcDbTextStyleTableRecord
  2

 70
     1
 40
0.0
 41
1.0
 50
0.0
 71
     0
 42
3.2
  3
genltshp.shx
  4

  0
STYLE
  5
B547
330
3
100
AcDbSymbolTableRecord
100
AcDbTextStyleTableRecord
  2
ACANSTS
 70
     0
 40
1.0
 41
1.0
 50
0.0
 71
     0
 42
0.2
  3
romans.shx
  4
extfont.shx
  0
STYLE
  5
B548
330
3
100
AcDbSymbolTableRecord
100
AcDbTextStyleTableRecord
  2
ACANSGDT
 70
     0
 40
0.0
 41
1.0
 50
0.0
 71
     0
 42
0.2
  3
amgdt.shx
  4

  0
ENDTAB
  0
TABLE
  2
VIEW
  5
6
330
0
100
AcDbSymbolTable
 70
     6
  0
VIEW
  5
AE1
330
6
100
AcDbSymbolTableRecord
100
AcDbViewTableRecord
  2
AM_VIEW1
 70
     0
 40
168.7283236994219
 10
402.0000002820349
 20
212.6358382007687
 41
210.0
 11
0.0
 21
0.0
 31
1.0
 12
0.0
 22
0.0
 32
0.0
 42
50.0
 43
-1370.695619172058
 44
-1370.695619172058
 50
0.0
 71
     0
281
     0
 72
     0
  0
VIEW
  5
AE2
330
6
100
AcDbSymbolTableRecord
100
AcDbViewTableRecord
  2
AM_VIEW2
 70
     0
 40
168.7283236994219
 10
612.000000282035
 20
212.6358382007687
 41
210.0
 11
0.0
 21
0.0
 31
1.0
 12
0.0
 22
0.0
 32
0.0
 42
50.0
 43
-1370.695619172058
 44
-1370.695619172058
 50
0.0
 71
     0
281
     0
 72
     0
  0
VIEW
  5
AE3
330
6
100
AcDbSymbolTableRecord
100
AcDbViewTableRecord
  2
AM_VIEW3
 70
     0
 40
168.7283236994219
 10
402.0000002820349
 20
84.36416190019068
 41
210.0
 11
0.0
 21
0.0
 31
1.0
 12
0.0
 22
0.0
 32
0.0
 42
50.0
 43
-1370.695619172058
 44
-1370.695619172058
 50
0.0
 71
     0
281
     0
 72
     0
  0
VIEW
  5
AE4
330
6
100
AcDbSymbolTableRecord
100
AcDbViewTableRecord
  2
AM_VIEW4
 70
     0
 40
168.7283236994219
 10
612.000000282035
 20
84.36416190019068
 41
210.0
 11
0.0
 21
0.0
 31
1.0
 12
0.0
 22
0.0
 32
0.0
 42
50.0
 43
-1370.695619172058
 44
-1370.695619172058
 50
0.0
 71
     0
281
     0
 72
     0
  0
VIEW
  5
AE5
330
6
100
AcDbSymbolTableRecord
100
AcDbViewTableRecord
  2
AM_VIEW5
 70
     0
 40
168.7283236994219
 10
507.0000002820349
 20
148.5000000504797
 41
210.0
 11
0.0
 21
0.0
 31
1.0
 12
0.0
 22
0.0
 32
0.0
 42
50.0
 43
-1370.695619172058
 44
-1370.695619172058
 50
0.0
 71
     0
281
     0
 72
     0
  0
VIEW
  5
AE6
330
6
100
AcDbSymbolTableRecord
100
AcDbViewTableRecord
  2
AM_VIEW6
 70
     0
 40
337.4532728323699
 10
507.0000002820349
 20
148.5000000504797
 41
419.9957999999999
 11
0.0
 21
0.0
 31
1.0
 12
0.0
 22
0.0
 32
0.0
 42
50.0
 43
-1370.695619172058
 44
-1370.695619172058
 50
0.0
 71
     0
281
     0
 72
     0
  0
ENDTAB
  0
TABLE
  2
UCS
  5
7
330
0
100
AcDbSymbolTable
 70
     0
  0
ENDTAB
  0
TABLE
  2
APPID
  5
9
330
0
100
AcDbSymbolTable
 70
    60
  0
APPID
  5
12
330
9
100
AcDbSymbolTableRecord
100
AcDbRegAppTableRecord
  2
ACAD
 70
     0
  0
APPID
  5
30
330
9
100
AcDbSymbolTableRecord
100
AcDbRegAppTableRecord
  2
MCAD_NO_VIS
 70
     0
  0
APPID
  5
31
330
9
100
AcDbSymbolTableRecord
100
AcDbRegAppTableRecord
  2
ACAD_TEMP_GRAPHIC
 70
     0
  0
APPID
  5
44
330
9
100
AcDbSymbolTableRecord
100
AcDbRegAppTableRecord
  2
ACATTRIBSERVICES
 70
     0
  0
APPID
  5
7A1
330
9
100
AcDbSymbolTableRecord
100
AcDbRegAppTableRecord
  2
GENIUS_GENDIMSH_14
 70
     0
  0
APPID
  5
A49
330
9
100
AcDbSymbolTableRecord
100
AcDbRegAppTableRecord
  2
GENIUS_GENREC_14
 70
     0
  0
APPID
  5
A4A
330
9
100
AcDbSymbolTableRecord
100
AcDbRegAppTableRecord
  2
GENIUS_GENOBJ-N-REC_13
 70
     0
  0
APPID
  5
A4B
330
9
100
AcDbSymbolTableRecord
100
AcDbRegAppTableRecord
  2
GENIUS_GENODEF_13
 70
     0
  0
APPID
  5
A4C
330
9
100
AcDbSymbolTableRecord
100
AcDbRegAppTableRecord
  2
DCO15
 70
     0
  0
APPID
  5
ADC
330
9
100
AcDbSymbolTableRecord
100
AcDbRegAppTableRecord
  2
GENIUS_GENOLIS_13
 70
     0
  0
APPID
  5
ADD
330
9
100
AcDbSymbolTableRecord
100
AcDbRegAppTableRecord
  2
GENIUS_GENOENT_13
 70
     0
  0
APPID
  5
ADE
330
9
100
AcDbSymbolTableRecord
100
AcDbRegAppTableRecord
  2
GENIUS_GENOBJ-N-TIT_13
 70
     0
  0
APPID
  5
ADF
330
9
100
AcDbSymbolTableRecord
100
AcDbRegAppTableRecord
  2
GENIUS_GENTITLE_13
 70
     0
  0
APPID
  5
AE0
330
9
100
AcDbSymbolTableRecord
100
AcDbRegAppTableRecord
  2
GENIUS_GENOREF_13
 70
     0
  0
APPID
  5
AE7
330
9
100
AcDbSymbolTableRecord
100
AcDbRegAppTableRecord
  2
GENIUS_GENSCREG_15
 70
     0
  0
APPID
  5
AE8
330
9
100
AcDbSymbolTableRecord
100
AcDbRegAppTableRecord
  2
GENIUS_GENOBJ-N-SDF_13
 70
     0
  0
APPID
  5
FAF
330
9
100
AcDbSymbolTableRecord
100
AcDbRegAppTableRecord
  2
GENIUS_GENBLLY_14
 70
     0
  0
APPID
  5
FB0
330
9
100
AcDbSymbolTableRecord
100
AcDbRegAppTableRecord
  2
GENIUS_GENTRA_14
 70
     0
  0
APPID
  5
1285
330
9
100
AcDbSymbolTableRecord
100
AcDbRegAppTableRecord
  2
GENIUS_GENDTOL_13
 70
     0
  0
APPID
  5
142D
330
9
100
AcDbSymbolTableRecord
100
AcDbRegAppTableRecord
  2
GENIUS_GENOBJ-N-CEN_13
 70
     0
  0
APPID
  5
1AB5
330
9
100
AcDbSymbolTableRecord
100
AcDbRegAppTableRecord
  2
GENIUS_GENOBJ-N-CRS_13
 70
     0
  0
APPID
  5
1B36
330
9
100
AcDbSymbolTableRecord
100
AcDbRegAppTableRecord
  2
GENIUS_GENOBJ-N-HTC_13
 70
     0
  0
APPID
  5
1B37
330
9
100
AcDbSymbolTableRecord
100
AcDbRegAppTableRecord
  2
GENIUS_GENHATCH_13
 70
     0
  0
APPID
  5
216D
330
9
100
AcDbSymbolTableRecord
100
AcDbRegAppTableRecord
  2
GENIUS_GENOBJ-N-FIL_13
 70
     0
  0
APPID
  5
2356
330
9
100
AcDbSymbolTableRecord
100
AcDbRegAppTableRecord
  2
GEVID990412420
 70
     0
  0
APPID
  5
2357
330
9
100
AcDbSymbolTableRecord
100
AcDbRegAppTableRecord
  2
GEVDC
 70
     0
  0
APPID
  5
2358
330
9
100
AcDbSymbolTableRecord
100
AcDbRegAppTableRecord
  2
GEVCON
 70
     0
  0
APPID
  5
235B
330
9
100
AcDbSymbolTableRecord
100
AcDbRegAppTableRecord
  2
GEVRADREF
 70
     0
  0
APPID
  5
2360
330
9
100
AcDbSymbolTableRecord
100
AcDbRegAppTableRecord
  2
GENIUS_GENBH_13
 70
     0
  0
APPID
  5
2362
330
9
100
AcDbSymbolTableRecord
100
AcDbRegAppTableRecord
  2
GENIUS_GENOBJ-NBEHI-BHF_13
 70
     0
  0
APPID
  5
2364
330
9
100
AcDbSymbolTableRecord
100
AcDbRegAppTableRecord
  2
GENIUS_GENOBJ-NBEHI-BHB_13
 70
     0
  0
APPID
  5
2379
330
9
100
AcDbSymbolTableRecord
100
AcDbRegAppTableRecord
  2
GENIUS_GENOBJ-F-SCPASSM_13
 70
     0
  0
APPID
  5
3D74
330
9
100
AcDbSymbolTableRecord
100
AcDbRegAppTableRecord
  2
GENIUS_GENDIM_13
 70
     0
  0
APPID
  5
3D76
330
9
100
AcDbSymbolTableRecord
100
AcDbRegAppTableRecord
  2
GENIUS_GE3DTOL_13
 70
     0
  0
APPID
  5
3D9C
330
9
100
AcDbSymbolTableRecord
100
AcDbRegAppTableRecord
  2
AD_DRAW
 70
     0
  0
APPID
  5
3DE8
330
9
100
AcDbSymbolTableRecord
100
AcDbRegAppTableRecord
  2
ASURF_PCURVE_APPNAME
 70
     0
  0
APPID
  5
3DED
330
9
100
AcDbSymbolTableRecord
100
AcDbRegAppTableRecord
  2
AMG_3D2D_5.0
 70
     0
  0
APPID
  5
3E1B
330
9
100
AcDbSymbolTableRecord
100
AcDbRegAppTableRecord
  2
DESIGNERASSEMBLIES
 70
     0
  0
APPID
  5
3E20
330
9
100
AcDbSymbolTableRecord
100
AcDbRegAppTableRecord
  2
ACADM_DIM_EDIT
 70
     0
  0
APPID
  5
3E21
330
9
100
AcDbSymbolTableRecord
100
AcDbRegAppTableRecord
  2
AMDT_DM_ADJ
 70
     0
  0
APPID
  5
4143
330
9
100
AcDbSymbolTableRecord
100
AcDbRegAppTableRecord
  2
GENIUS_GENFIL_13
 70
     0
  0
APPID
  5
4144
330
9
100
AcDbSymbolTableRecord
100
AcDbRegAppTableRecord
  2
GENIUS_GENOBJ-N-CHA_13
 70
     0
  0
APPID
  5
4E17
330
9
100
AcDbSymbolTableRecord
100
AcDbRegAppTableRecord
  2
GEVID1008153417
 70
     0
  0
APPID
  5
4E58
330
9
100
AcDbSymbolTableRecord
100
AcDbRegAppTableRecord
  2
GEVID1008153418
 70
     0
  0
APPID
  5
4E5E
330
9
100
AcDbSymbolTableRecord
100
AcDbRegAppTableRecord
  2
GEVID1008153419
 70
     0
  0
APPID
  5
4E64
330
9
100
AcDbSymbolTableRecord
100
AcDbRegAppTableRecord
  2
GEVID1008153420
 70
     0
  0
APPID
  5
4E75
330
9
100
AcDbSymbolTableRecord
100
AcDbRegAppTableRecord
  2
GEVID1008153421
 70
     0
  0
APPID
  5
4EB7
330
9
100
AcDbSymbolTableRecord
100
AcDbRegAppTableRecord
  2
GENIUS_AMGTXT_16
 70
     0
  0
APPID
  5
7645
330
9
100
AcDbSymbolTableRecord
100
AcDbRegAppTableRecord
  2
GENIUS_GENOBJ-N-DIM_13
 70
     0
  0
APPID
  5
AAD0
330
9
100
AcDbSymbolTableRecord
100
AcDbRegAppTableRecord
  2
ACAD_DSTYLE_DIMARC_LENGTH_SYMBOL
 70
     0
  0
APPID
  5
AAD1
330
9
100
AcDbSymbolTableRecord
100
AcDbRegAppTableRecord
  2
ACAD_DSTYLE_DIMJOGGED_JOGANGLE_SYMBOL
 70
     0
  0
APPID
  5
AAFD
330
9
100
AcDbSymbolTableRecord
100
AcDbRegAppTableRecord
  2
ACAD_PSEXT
 70
     0
  0
APPID
  5
AD61
330
9
100
AcDbSymbolTableRecord
100
AcDbRegAppTableRecord
  2
AcAecLayerStandard
 70
     0
  0
APPID
  5
AEE3
330
9
100
AcDbSymbolTableRecord
100
AcDbRegAppTableRecord
  2
ACAD_EXEMPT_FROM_CAD_STANDARDS
 70
     0
  0
APPID
  5
B1BE
330
9
100
AcDbSymbolTableRecord
100
AcDbRegAppTableRecord
  2
GENIUS_GENCEN_19
 70
     0
  0
APPID
  5
CF92
330
9
100
AcDbSymbolTableRecord
100
AcDbRegAppTableRecord
  2
ACAD_MLEADERVER
 70
     0
  0
APPID
  5
CFBD
330
9
100
AcDbSymbolTableRecord
100
AcDbRegAppTableRecord
  2
ACAUTHENVIRON
 70
     0
  0
APPID
  5
CFBE
330
9
100
AcDbSymbolTableRecord
100
AcDbRegAppTableRecord
  2
AcDbDynamicBlockTrueName
 70
     0
  0
APPID
  5
CFBF
330
9
100
AcDbSymbolTableRecord
100
AcDbRegAppTableRecord
  2
AcDbDynamicBlockGUID
 70
     0
  0
APPID
  5
CFC0
330
9
100
AcDbSymbolTableRecord
100
AcDbRegAppTableRecord
  2
ACDBBLOCKREPETAG
 70
     0
  0
ENDTAB
  0
TABLE
  2
DIMSTYLE
  5
A
330
0
100
AcDbSymbolTable
 70
    26
100
AcDbDimStyleTable
 71
     1
340
2515
  0
DIMSTYLE
105
A76
330
A
100
AcDbSymbolTableRecord
100
AcDbDimStyleTableRecord
  2
STANDARD
 70
     0
 41
3.0
 42
1.0
 43
7.0
 44
2.0
 73
     0
 74
     0
 77
     1
140
2.799999999999999
141
0.0
143
0.0394
147
0.7
171
     4
172
     1
173
     1
176
     3
177
     3
178
     2
271
     3
272
     3
273
     8
274
     4
289
     0
340
A74
341
A66
343
A66
344
A66
  0
DIMSTYLE
105
2515
330
A
100
AcDbSymbolTableRecord
100
AcDbDimStyleTableRecord
  2
SYS
 70
     0
  4
"
 41
1.0
 42
1.0
 43
10.0
 44
1.0
 47
0.1
 48
0.1
 73
     0
 74
     0
 77
     1
 78
     8
 79
     2
140
3.5
141
0.0
143
0.0393701
146
0.71
147
1.5
172
     1
176
   256
177
   256
178
     7
271
     2
272
     2
283
     0
284
     8
340
11
371
    -1
372
    -1
1001
ACAD_DSTYLE_DIMJOGGED_JOGANGLE_SYMBOL
1070
   384
1040
0.7853981633974483
1001
ACAD_DSTYLE_DIMARC_LENGTH_SYMBOL
1070
   379
1070
     1
  0
DIMSTYLE
105
2516
330
A
100
AcDbSymbolTableRecord
100
AcDbDimStyleTableRecord
  2
SYS$3
 70
     0
  4
"
 41
2.0
 42
1.0
 43
10.0
 44
1.0
 47
0.1
 48
0.1
 73
     0
 77
     1
 78
     8
 79
     2
140
3.5
141
0.0
143
0.0393701
146
0.71
147
1.5
176
   256
177
   256
178
     2
271
     2
272
     2
283
     0
284
     8
288
     1
340
11
342
A66
371
    -1
372
    -1
1001
ACAD_DSTYLE_DIMJOGGED_JOGANGLE_SYMBOL
1070
   384
1040
0.7853981633974483
1001
ACAD_DSTYLE_DIMARC_LENGTH_SYMBOL
1070
   379
1070
     1
  0
DIMSTYLE
105
2517
330
A
100
AcDbSymbolTableRecord
100
AcDbDimStyleTableRecord
  2
SYS$4
 70
     0
  4
"
 41
2.0
 42
1.0
 43
10.0
 44
1.0
 47
0.1
 48
0.1
 73
     0
 77
     1
 78
     8
 79
     2
140
3.5
141
0.0
143
0.0393701
146
0.71
147
1.5
173
     1
176
   256
177
   256
178
     2
271
     2
272
     2
283
     0
284
     8
288
     1
340
11
344
A66
371
    -1
372
    -1
1001
ACAD_DSTYLE_DIMJOGGED_JOGANGLE_SYMBOL
1070
   384
1040
0.7853981633974483
1001
ACAD_DSTYLE_DIMARC_LENGTH_SYMBOL
1070
   379
1070
     1
  0
DIMSTYLE
105
2518
330
A
100
AcDbSymbolTableRecord
100
AcDbDimStyleTableRecord
  2
SYS$6
 70
     0
  4
"
 41
2.0
 42
1.0
 43
10.0
 44
1.0
 47
0.1
 48
0.1
 73
     0
 74
     0
 78
     8
 79
     2
140
3.5
141
0.0
143
0.0393701
146
0.71
147
1.5
172
     1
176
   256
177
   256
178
     2
271
     2
272
     2
283
     0
284
     8
340
11
341
A66
371
    -1
372
    -1
1001
ACAD_DSTYLE_DIMJOGGED_JOGANGLE_SYMBOL
1070
   384
1040
0.7853981633974483
1001
ACAD_DSTYLE_DIMARC_LENGTH_SYMBOL
1070
   379
1070
     1
  0
DIMSTYLE
105
2519
330
A
100
AcDbSymbolTableRecord
100
AcDbDimStyleTableRecord
  2
SYS$7
 70
     0
  4
"
 41
2.0
 42
1.0
 43
10.0
 44
1.0
 47
0.1
 48
0.1
 73
     0
 74
     0
 77
     1
 78
     8
 79
     2
140
5.0
141
0.0
143
0.0393701
146
0.71
147
1.5
172
     1
176
   256
177
   256
178
     2
271
     2
272
     2
283
     0
284
     8
340
11
341
A66
342
A66
371
    -1
372
    -1
1001
ACAD_DSTYLE_DIMJOGGED_JOGANGLE_SYMBOL
1070
   384
1040
0.7853981633974483
1001
ACAD_DSTYLE_DIMARC_LENGTH_SYMBOL
1070
   379
1070
     1
  0
DIMSTYLE
105
251A
330
A
100
AcDbSymbolTableRecord
100
AcDbDimStyleTableRecord
  2
SYS$SF
 70
     0
  4
"
 41
2.5
 42
1.0
 43
10.0
 44
1.0
 47
0.1
 48
0.1
 73
     0
 74
     0
 75
     1
 76
     1
 77
     1
 78
     8
 79
     2
140
3.5
141
0.0
143
0.0393701
146
0.71
147
1.5
172
     1
176
   256
177
   256
178
     2
271
     2
272
     3
283
     0
284
     8
340
11
341
6C4
342
6C4
371
    -1
372
    -1
1001
ACAD_DSTYLE_DIMJOGGED_JOGANGLE_SYMBOL
1070
   384
1040
0.7853981633974483
1001
ACAD_DSTYLE_DIMARC_LENGTH_SYMBOL
1070
   379
1070
     1
  0
DIMSTYLE
105
251B
330
A
100
AcDbSymbolTableRecord
100
AcDbDimStyleTableRecord
  2
SYS$SH
 70
     0
  4
"
 41
2.5
 42
1.0
 43
10.0
 44
1.0
 47
0.1
 48
0.1
 73
     0
 74
     0
 75
     1
 76
     1
 77
     1
 78
     8
 79
     2
140
3.5
141
0.0
143
0.0393701
144
2.0
146
0.71
147
1.5
172
     1
173
     1
176
   256
177
   256
178
     2
271
     2
272
     3
283
     0
284
     8
340
11
341
6C4
343
72
344
6C4
371
    -1
372
    -1
1001
ACAD_DSTYLE_DIMJOGGED_JOGANGLE_SYMBOL
1070
   384
1040
0.7853981633974483
1001
ACAD_DSTYLE_DIMARC_LENGTH_SYMBOL
1070
   379
1070
     1
  0
DIMSTYLE
105
2A59
330
A
100
AcDbSymbolTableRecord
100
AcDbDimStyleTableRecord
  2
SYS$2
 70
     0
  4
"
 41
1.0
 42
1.0
 43
10.0
 44
1.0
 47
0.1
 48
0.1
 73
     0
 74
     0
 77
     1
 78
     8
 79
     2
140
3.5
141
0.0
143
0.0393701
146
0.71
147
1.5
172
     1
176
   256
177
   256
178
     2
271
     2
272
     2
283
     0
284
     8
340
11
342
6C4
371
    -1
372
    -1
1001
ACAD_DSTYLE_DIMJOGGED_JOGANGLE_SYMBOL
1070
   384
1040
0.7853981633974483
1001
ACAD_DSTYLE_DIMARC_LENGTH_SYMBOL
1070
   379
1070
     1
  0
DIMSTYLE
105
2AAB
102
{ACAD_REACTORS
330
EB74
330
EB75
330
EB70
330
EB71
330
EB72
330
EB73
102
}
330
A
100
AcDbSymbolTableRecord
100
AcDbDimStyleTableRecord
  2
SYS$0
 70
     0
  4
"
 41
1.0
 42
1.0
 43
10.0
 44
1.0
 47
0.1
 48
0.1
 73
     0
 74
     0
 77
     1
 78
     8
 79
     2
140
3.200000000000001
141
0.0
143
0.0393701
146
0.71
147
1.5
172
     1
176
   256
177
   256
178
     2
271
     2
272
     2
283
     0
284
     8
340
11
341
A66
342
6C4
371
    -1
372
    -1
1001
ACAD_DSTYLE_DIMJOGGED_JOGANGLE_SYMBOL
1070
   384
1040
0.7853981633974483
1001
ACAD_DSTYLE_DIMARC_LENGTH_SYMBOL
1070
   379
1070
     1
  0
DIMSTYLE
105
AF99
330
A
100
AcDbSymbolTableRecord
100
AcDbDimStyleTableRecord
  2
AM_ISO
 70
     0
  4
"
 41
2.5
 42
1.0
 43
10.0
 44
1.0
 47
0.1
 48
0.1
 73
     0
 74
     0
 77
     1
 78
     8
 79
     2
140
3.5
141
0.0
143
0.0393701
146
0.71
147
1.5
172
     1
176
   256
177
   256
178
     2
271
     2
272
     3
274
     4
283
     0
284
     8
340
11
371
    -1
372
    -1
  0
DIMSTYLE
105
AF9A
330
A
100
AcDbSymbolTableRecord
100
AcDbDimStyleTableRecord
  2
AM_ISO$3
 70
     0
  4
"
 41
2.5
 42
1.0
 43
10.0
 44
1.0
 47
0.1
 48
0.1
 73
     0
 77
     1
 78
     8
 79
     2
140
3.5
141
0.0
143
0.0393701
146
0.71
147
1.5
176
   256
177
   256
178
     2
271
     2
272
     3
274
     4
283
     0
284
     8
288
     1
289
     0
340
11
371
    -1
372
    -1
  0
DIMSTYLE
105
AF9B
330
A
100
AcDbSymbolTableRecord
100
AcDbDimStyleTableRecord
  2
AM_ISO$4
 70
     0
  4
"
 41
2.5
 42
1.0
 43
10.0
 44
1.0
 47
0.1
 48
0.1
 73
     0
 77
     1
 78
     8
 79
     2
140
3.5
141
0.0
143
0.0393701
146
0.71
147
1.5
176
   256
177
   256
178
     2
271
     2
272
     3
274
     4
283
     0
284
     8
288
     1
289
     0
340
11
371
    -1
372
    -1
  0
DIMSTYLE
105
AF9C
330
A
100
AcDbSymbolTableRecord
100
AcDbDimStyleTableRecord
  2
AM_ISO$6
 70
     0
  4
"
 41
2.5
 42
1.0
 43
10.0
 44
1.0
 47
0.1
 48
0.1
 73
     0
 74
     0
 78
     8
 79
     2
140
3.5
141
0.0
143
0.0393701
146
0.71
147
1.5
172
     1
176
   256
177
   256
178
     2
271
     2
272
     3
274
     4
283
     0
284
     8
340
11
371
    -1
372
    -1
  0
DIMSTYLE
105
AF9D
330
A
100
AcDbSymbolTableRecord
100
AcDbDimStyleTableRecord
  2
AM_ISO$7
 70
     0
  4
"
 41
2.5
 42
1.0
 43
10.0
 44
1.0
 47
0.1
 48
0.1
 73
     0
 74
     0
 77
     1
 78
     8
 79
     2
140
5.0
141
0.0
143
0.0393701
146
0.71
147
1.5
172
     1
176
   256
177
   256
178
     2
271
     2
272
     3
274
     4
283
     0
284
     8
340
11
371
    -1
372
    -1
  0
DIMSTYLE
105
AF9E
330
A
100
AcDbSymbolTableRecord
100
AcDbDimStyleTableRecord
  2
AM_ISO$SF
 70
     0
  4
"
 41
2.5
 42
1.0
 43
10.0
 44
1.0
 47
0.1
 48
0.1
 73
     0
 74
     0
 75
     1
 76
     1
 77
     1
 78
     8
 79
     2
140
3.5
141
0.0
143
0.0393701
146
0.71
147
1.5
172
     1
176
   256
177
   256
178
     2
271
     2
272
     3
274
     4
283
     0
284
     8
340
11
371
    -1
372
    -1
  0
DIMSTYLE
105
AF9F
330
A
100
AcDbSymbolTableRecord
100
AcDbDimStyleTableRecord
  2
AM_ISO$SH
 70
     0
  4
"
 41
2.5
 42
1.0
 43
10.0
 44
1.0
 47
0.1
 48
0.1
 73
     0
 74
     0
 75
     1
 76
     1
 77
     1
 78
     8
 79
     2
140
3.5
141
0.0
143
0.0393701
144
2.0
146
0.71
147
1.5
172
     1
173
     1
176
   256
177
   256
178
     2
271
     2
272
     3
274
     4
283
     0
284
     8
340
11
343
72
371
    -1
372
    -1
  0
DIMSTYLE
105
B549
330
A
100
AcDbSymbolTableRecord
100
AcDbDimStyleTableRecord
  2
AM_ANSI
 70
     0
  4
mm
 41
0.1
 42
0.05
 43
0.5
 44
0.1
 47
0.1
 48
0.1
 78
     7
 79
     2
140
0.12
141
0.0
146
0.71
147
0.06
176
   256
177
   256
178
     2
274
     4
284
     7
340
11
371
    -1
372
    -1
1001
ACAD_DSTYLE_DIMARC_LENGTH_SYMBOL
1070
   379
1070
     1
  0
DIMSTYLE
105
B54A
330
A
100
AcDbSymbolTableRecord
100
AcDbDimStyleTableRecord
  2
AM_ANSI$3
 70
     0
  4
mm
 41
0.1
 42
0.05
 43
0.5
 44
0.1
 47
0.1
 48
0.1
 78
     7
 79
     2
140
0.12
141
0.0
146
0.71
147
0.06
176
   256
177
   256
178
     2
274
     4
284
     7
288
     1
289
     0
340
11
371
    -1
372
    -1
1001
ACAD_DSTYLE_DIMARC_LENGTH_SYMBOL
1070
   379
1070
     1
  0
DIMSTYLE
105
B54B
330
A
100
AcDbSymbolTableRecord
100
AcDbDimStyleTableRecord
  2
AM_ANSI$4
 70
     0
  4
mm
 41
0.1
 42
0.05
 43
0.5
 44
0.1
 47
0.1
 48
0.1
 78
     7
 79
     2
140
0.12
141
0.0
146
0.71
147
0.06
176
   256
177
   256
178
     2
274
     4
284
     7
288
     1
289
     0
340
11
371
    -1
372
    -1
1001
ACAD_DSTYLE_DIMARC_LENGTH_SYMBOL
1070
   379
1070
     1
  0
DIMSTYLE
105
B54C
330
A
100
AcDbSymbolTableRecord
100
AcDbDimStyleTableRecord
  2
AM_ANSI$7
 70
     0
  4
mm
 41
0.1
 42
0.05
 43
0.5
 44
0.1
 47
0.1
 48
0.1
 78
     7
 79
     2
140
0.24
141
0.0
146
0.71
147
0.06
176
   256
177
   256
178
     2
274
     4
284
     7
340
11
371
    -1
372
    -1
1001
ACAD_DSTYLE_DIMARC_LENGTH_SYMBOL
1070
   379
1070
     1
  0
DIMSTYLE
105
B54D
330
A
100
AcDbSymbolTableRecord
100
AcDbDimStyleTableRecord
  2
AM_ANSI$SF
 70
     0
  4
mm
 41
0.1
 42
0.05
 43
0.5
 44
0.1
 47
0.1
 48
0.1
 75
     1
 76
     1
 78
     7
 79
     2
140
0.12
141
0.0
146
0.71
147
0.06
176
   256
177
   256
178
     2
274
     4
284
     7
340
11
371
    -1
372
    -1
1001
ACAD_DSTYLE_DIMARC_LENGTH_SYMBOL
1070
   379
1070
     1
  0
DIMSTYLE
105
B54E
330
A
100
AcDbSymbolTableRecord
100
AcDbDimStyleTableRecord
  2
AM_ANSI$SH
 70
     0
  4
mm
 41
0.1
 42
0.05
 43
0.5
 44
0.1
 47
0.1
 48
0.1
 75
     1
 76
     1
 78
     7
 79
     2
140
0.12
141
0.0
146
0.71
147
0.06
173
     1
176
   256
177
   256
178
     2
274
     4
284
     7
340
11
343
72
371
    -1
372
    -1
1001
ACAD_DSTYLE_DIMARC_LENGTH_SYMBOL
1070
   379
1070
     1
  0
DIMSTYLE
105
B797
330
A
100
AcDbSymbolTableRecord
100
AcDbDimStyleTableRecord
  2
AM_JIS
 70
     0
  4
"
 41
2.0
 42
1.0
 43
10.0
 44
1.0
 47
0.1
 48
0.1
 73
     0
 74
     0
 77
     3
 78
     8
140
3.0
141
0.0
143
0.0393701
146
0.71
147
1.6
172
     1
176
   256
177
   256
178
     1
271
     2
272
     2
279
     2
284
     8
285
     8
286
     8
340
11
  0
ENDTAB
  0
TABLE
  2
BLOCK_RECORD
  5
1
330
0
100
AcDbSymbolTable
 70
    13
  0
BLOCK_RECORD
  5
1F
102
{ACAD_XDICTIONARY
360
8A
102
}
330
1
100
AcDbSymbolTableRecord
100
AcDbBlockTableRecord
  2
*Model_Space
340
22
  0
BLOCK_RECORD
  5
1B
330
1
100
AcDbSymbolTableRecord
100
AcDbBlockTableRecord
  2
*Paper_Space
340
1E
  0
BLOCK_RECORD
  5
23
330
1
100
AcDbSymbolTableRecord
100
AcDbBlockTableRecord
  2
*Paper_Space0
340
26
  0
BLOCK_RECORD
  5
72
330
1
100
AcDbSymbolTableRecord
100
AcDbBlockTableRecord
  2
GENAXEH
340
0
  0
BLOCK_RECORD
  5
6C4
330
1
100
AcDbSymbolTableRecord
100
AcDbBlockTableRecord
  2
_Dot
340
0
102
{BLKREFS
331
ECA3
331
ECA4
331
ECAC
331
ECAD
331
ECB7
331
ECB8
331
ECC0
331
ECC1
331
ECC9
331
ECCA
331
ECE9
331
ECEA
102
}
  0
BLOCK_RECORD
  5
A66
330
1
100
AcDbSymbolTableRecord
100
AcDbBlockTableRecord
  2
_OPEN30
340
0
  0
BLOCK_RECORD
  5
EB76
330
1
100
AcDbSymbolTableRecord
100
AcDbBlockTableRecord
  2
*D5
340
0
  0
BLOCK_RECORD
  5
EB82
330
1
100
AcDbSymbolTableRecord
100
AcDbBlockTableRecord
  2
*D6
340
0
  0
BLOCK_RECORD
  5
EB8E
330
1
100
AcDbSymbolTableRecord
100
AcDbBlockTableRecord
  2
*D7
340
0
  0
BLOCK_RECORD
  5
EB9A
330
1
100
AcDbSymbolTableRecord
100
AcDbBlockTableRecord
  2
*D8
340
0
  0
BLOCK_RECORD
  5
EBA6
330
1
100
AcDbSymbolTableRecord
100
AcDbBlockTableRecord
  2
*D9
340
0
  0
BLOCK_RECORD
  5
EBB3
330
1
100
AcDbSymbolTableRecord
100
AcDbBlockTableRecord
  2
*D10
340
0
  0
ENDTAB
  0
ENDSEC
  0
SECTION
  2
BLOCKS
  0
BLOCK
  5
20
330
1F
100
AcDbEntity
  8
0
100
AcDbBlockBegin
  2
*Model_Space
 70
     0
 10
0.0
 20
0.0
 30
0.0
  3
*Model_Space
  1

  0
ENDBLK
  5
21
330
1F
100
AcDbEntity
  8
0
100
AcDbBlockEnd
  0
BLOCK
  5
1C
330
1B
100
AcDbEntity
 67
     1
  8
0
100
AcDbBlockBegin
  2
*Paper_Space
 70
     0
 10
0.0
 20
0.0
 30
0.0
  3
*Paper_Space
  1

  0
ENDBLK
  5
1D
330
1B
100
AcDbEntity
 67
     1
  8
0
100
AcDbBlockEnd
  0
BLOCK
  5
24
330
23
100
AcDbEntity
 67
     1
  8
0
100
AcDbBlockBegin
  2
*Paper_Space0
 70
     0
 10
0.0
 20
0.0
 30
0.0
  3
*Paper_Space0
  1

  0
ENDBLK
  5
25
330
23
100
AcDbEntity
 67
     1
  8
0
100
AcDbBlockEnd
  0
BLOCK
  5
74
330
72
100
AcDbEntity
  8
0
100
AcDbBlockBegin
  2
GENAXEH
 70
     0
 10
0.0
 20
0.0
 30
0.0
  3
GENAXEH
  1

  0
LINE
  5
73
330
72
100
AcDbEntity
  8
0
100
AcDbLine
 10
-1.0
 20
0.0
 30
0.0
 11
1.0
 21
0.0
 31
0.0
  0
ENDBLK
  5
75
330
72
100
AcDbEntity
  8
0
100
AcDbBlockEnd
  0
BLOCK
  5
6C7
330
6C4
100
AcDbEntity
  8
0
100
AcDbBlockBegin
  2
_Dot
 70
     0
 10
0.0
 20
0.0
 30
0.0
  3
_Dot
  1

  0
LWPOLYLINE
  5
6C5
330
6C4
100
AcDbEntity
  8
0
  6
ByBlock
 62
     0
100
AcDbPolyline
 90
        2
 70
     1
 43
0.5
 10
-0.25
 20
0.0
 42
1.0
 10
0.25
 20
0.0
 42
1.0
  0
LINE
  5
6C6
330
6C4
100
AcDbEntity
  8
0
  6
ByBlock
 62
     0
370
    -2
100
AcDbLine
 10
-0.5
 20
0.0
 30
0.0
 11
-1.0
 21
0.0
 31
0.0
  0
ENDBLK
  5
6C8
330
6C4
100
AcDbEntity
  8
0
100
AcDbBlockEnd
  0
BLOCK
  5
A6A
330
A66
100
AcDbEntity
  8
0
100
AcDbBlockBegin
  2
_OPEN30
 70
     0
 10
0.0
 20
0.0
 30
0.0
  3
_OPEN30
  1

  0
LINE
  5
A67
330
A66
100
AcDbEntity
  8
0
  6
ByBlock
 62
     0
100
AcDbLine
 10
-1.0
 20
0.26794919
 30
0.0
 11
0.0
 21
0.0
 31
0.0
  0
LINE
  5
A68
330
A66
100
AcDbEntity
  8
0
  6
ByBlock
 62
     0
100
AcDbLine
 10
0.0
 20
0.0
 30
0.0
 11
-1.0
 21
-0.26794919
 31
0.0
  0
LINE
  5
A69
330
A66
100
AcDbEntity
  8
0
  6
ByBlock
 62
     0
100
AcDbLine
 10
0.0
 20
0.0
 30
0.0
 11
-1.0
 21
0.0
 31
0.0
  0
ENDBLK
  5
A6B
330
A66
100
AcDbEntity
  8
0
100
AcDbBlockEnd
  0
BLOCK
  5
EB80
330
EB76
100
AcDbEntity
  8
0
100
AcDbBlockBegin
  2
*D5
 70
     1
 10
0.0
 20
0.0
 30
0.0
  3
*D5
  1

  0
LINE
  5
ECC6
330
EB76
100
AcDbEntity
  8
AM_5
100
AcDbLine
 10
191.6575351092942
 20
140.3098752363744
 30
0.0
 11
213.6575351092943
 21
140.3098752363744
 31
0.0
  0
LINE
  5
ECC7
330
EB76
100
AcDbEntity
  8
AM_5
100
AcDbLine
 10
188.6575351092942
 20
159.3098752363744
 30
0.0
 11
213.6575351092943
 21
159.3098752363744
 31
0.0
  0
LINE
  5
ECC8
330
EB76
100
AcDbEntity
  8
AM_5
100
AcDbLine
 10
212.6575351092943
 20
141.3098752363744
 30
0.0
 11
212.6575351092943
 21
158.3098752363744
 31
0.0
  0
INSERT
  5
ECC9
330
EB76
100
AcDbEntity
  8
AM_5
100
AcDbBlockReference
  2
_Dot
 10
212.6575351092943
 20
140.3098752363744
 30
0.0
 50
270.0
  0
INSERT
  5
ECCA
330
EB76
100
AcDbEntity
  8
AM_5
100
AcDbBlockReference
  2
_Dot
 10
212.6575351092943
 20
159.3098752363744
 30
0.0
 50
90.0
  0
MTEXT
  5
ECCB
330
EB76
100
AcDbEntity
  8
AM_5
 62
     2
100
AcDbMText
 10
209.5575351092942
 20
149.8098752363744
 30
0.0
 40
3.200000000000001
 41
0.0
 71
     5
 72
     1
  1
H
 11
0.0000000000000001
 21
1.0
 31
0.0
 73
     1
 44
1.0
1001
ACAD
1000
MTEXTBEGIN
1070
    73
1070
     1
1070
    44
1040
1.0
1070
    74
1070
     0
1000
MTEXTEND
  0
POINT
  5
ECCC
330
EB76
100
AcDbEntity
  8
Defpoints
 62
     0
100
AcDbPoint
 10
190.6575351092942
 20
140.3098752363744
 30
0.0
  0
POINT
  5
ECCD
330
EB76
100
AcDbEntity
  8
Defpoints
 62
     0
100
AcDbPoint
 10
187.6575351092942
 20
159.3098752363744
 30
0.0
  0
POINT
  5
ECCE
330
EB76
100
AcDbEntity
  8
Defpoints
 62
     0
100
AcDbPoint
 10
212.6575351092943
 20
159.3098752363744
 30
0.0
  0
ENDBLK
  5
EB81
330
EB76
100
AcDbEntity
  8
0
100
AcDbBlockEnd
  0
BLOCK
  5
EB8C
330
EB82
100
AcDbEntity
  8
0
100
AcDbBlockBegin
  2
*D6
 70
     1
 10
0.0
 20
0.0
 30
0.0
  3
*D6
  1

  0
LINE
  5
ECE6
330
EB82
100
AcDbEntity
  8
AM_5
100
AcDbLine
 10
188.6575351092942
 20
159.3098752363744
 30
0.0
 11
203.6575351092943
 21
159.3098752363744
 31
0.0
  0
LINE
  5
ECE7
330
EB82
100
AcDbEntity
  8
AM_5
100
AcDbLine
 10
184.6575351092942
 20
149.3098752363744
 30
0.0
 11
203.6575351092943
 21
149.3098752363744
 31
0.0
  0
LINE
  5
ECE8
330
EB82
100
AcDbEntity
  8
AM_5
100
AcDbLine
 10
202.6575351092942
 20
158.3098752363744
 30
0.0
 11
202.6575351092942
 21
150.3098752363744
 31
0.0
  0
INSERT
  5
ECE9
330
EB82
100
AcDbEntity
  8
AM_5
100
AcDbBlockReference
  2
_Dot
 10
202.6575351092942
 20
159.3098752363744
 30
0.0
 50
90.0
  0
INSERT
  5
ECEA
330
EB82
100
AcDbEntity
  8
AM_5
100
AcDbBlockReference
  2
_Dot
 10
202.6575351092942
 20
149.3098752363744
 30
0.0
 50
270.0
  0
MTEXT
  5
ECEB
330
EB82
100
AcDbEntity
  8
AM_5
 62
     2
100
AcDbMText
 10
199.5575351092942
 20
154.3098752363744
 30
0.0
 40
3.200000000000001
 41
0.0
 71
     5
 72
     1
  1
E
 11
0.0000000000000001
 21
1.0
 31
0.0
 73
     1
 44
1.0
1001
ACAD
1000
MTEXTBEGIN
1070
    73
1070
     1
1070
    44
1040
1.0
1070
    74
1070
     0
1000
MTEXTEND
  0
POINT
  5
ECEC
330
EB82
100
AcDbEntity
  8
Defpoints
 62
     0
100
AcDbPoint
 10
187.6575351092942
 20
159.3098752363744
 30
0.0
  0
POINT
  5
ECED
330
EB82
100
AcDbEntity
  8
Defpoints
 62
     0
100
AcDbPoint
 10
183.6575351092942
 20
149.3098752363744
 30
0.0
  0
POINT
  5
ECEE
330
EB82
100
AcDbEntity
  8
Defpoints
 62
     0
100
AcDbPoint
 10
202.6575351092942
 20
149.3098752363744
 30
0.0
  0
ENDBLK
  5
EB8D
330
EB82
100
AcDbEntity
  8
0
100
AcDbBlockEnd
  0
BLOCK
  5
EB98
330
EB8E
100
AcDbEntity
  8
0
100
AcDbBlockBegin
  2
*D7
 70
     1
 10
0.0
 20
0.0
 30
0.0
  3
*D7
  1

  0
LINE
  5
ECA0
330
EB8E
100
AcDbEntity
  8
AM_5
100
AcDbLine
 10
168.6575351092942
 20
160.3098752363744
 30
0.0
 11
168.6575351092942
 21
172.3098752363744
 31
0.0
  0
LINE
  5
ECA1
330
EB8E
100
AcDbEntity
  8
AM_5
100
AcDbLine
 10
182.6575351092942
 20
160.3098752363744
 30
0.0
 11
182.6575351092942
 21
172.3098752363744
 31
0.0
  0
LINE
  5
ECA2
330
EB8E
100
AcDbEntity
  8
AM_5
100
AcDbLine
 10
169.6575351092942
 20
171.3098752363744
 30
0.0
 11
181.6575351092942
 21
171.3098752363744
 31
0.0
  0
INSERT
  5
ECA3
330
EB8E
100
AcDbEntity
  8
AM_5
100
AcDbBlockReference
  2
_Dot
 10
168.6575351092942
 20
171.3098752363744
 30
0.0
 50
180.0
  0
INSERT
  5
ECA4
330
EB8E
100
AcDbEntity
  8
AM_5
100
AcDbBlockReference
  2
_Dot
 10
182.6575351092942
 20
171.3098752363744
 30
0.0
  0
MTEXT
  5
ECA5
330
EB8E
100
AcDbEntity
  8
AM_5
 62
     2
100
AcDbMText
 10
175.6575351092942
 20
174.4098752363744
 30
0.0
 40
3.200000000000001
 41
0.0
 71
     5
 72
     1
  1
%%cC
 73
     1
 44
1.0
1001
ACAD
1000
MTEXTBEGIN
1070
    73
1070
     1
1070
    44
1040
1.0
1070
    74
1070
     0
1000
MTEXTEND
  0
POINT
  5
ECA6
330
EB8E
100
AcDbEntity
  8
Defpoints
 62
     0
100
AcDbPoint
 10
168.6575351092942
 20
159.3098752363744
 30
0.0
  0
POINT
  5
ECA7
330
EB8E
100
AcDbEntity
  8
Defpoints
 62
     0
100
AcDbPoint
 10
182.6575351092942
 20
159.3098752363744
 30
0.0
  0
POINT
  5
ECA8
330
EB8E
100
AcDbEntity
  8
Defpoints
 62
     0
100
AcDbPoint
 10
182.6575351092942
 20
171.3098752363744
 30
0.0
  0
ENDBLK
  5
EB99
330
EB8E
100
AcDbEntity
  8
0
100
AcDbBlockEnd
  0
BLOCK
  5
EBA4
330
EB9A
100
AcDbEntity
  8
0
100
AcDbBlockBegin
  2
*D8
 70
     1
 10
0.0
 20
0.0
 30
0.0
  3
*D8
  1

  0
LINE
  5
ECA9
330
EB9A
100
AcDbEntity
  8
AM_5
100
AcDbLine
 10
187.6575351092942
 20
160.3098752363744
 30
0.0
 11
187.6575351092942
 21
182.3098752363744
 31
0.0
  0
LINE
  5
ECAA
330
EB9A
100
AcDbEntity
  8
AM_5
100
AcDbLine
 10
163.6575351092942
 20
160.3098752363744
 30
0.0
 11
163.6575351092942
 21
182.3098752363744
 31
0.0
  0
LINE
  5
ECAB
330
EB9A
100
AcDbEntity
  8
AM_5
100
AcDbLine
 10
186.6575351092942
 20
181.3098752363744
 30
0.0
 11
164.6575351092942
 21
181.3098752363744
 31
0.0
  0
INSERT
  5
ECAC
330
EB9A
100
AcDbEntity
  8
AM_5
100
AcDbBlockReference
  2
_Dot
 10
187.6575351092942
 20
181.3098752363744
 30
0.0
  0
INSERT
  5
ECAD
330
EB9A
100
AcDbEntity
  8
AM_5
100
AcDbBlockReference
  2
_Dot
 10
163.6575351092942
 20
181.3098752363744
 30
0.0
 50
180.0
  0
MTEXT
  5
ECAE
330
EB9A
100
AcDbEntity
  8
AM_5
 62
     2
100
AcDbMText
 10
175.6575351092942
 20
184.4098752363744
 30
0.0
 40
3.200000000000001
 41
0.0
 71
     5
 72
     1
  1
%%cB
 73
     1
 44
1.0
1001
ACAD
1000
MTEXTBEGIN
1070
    73
1070
     1
1070
    44
1040
1.0
1070
    74
1070
     0
1000
MTEXTEND
  0
POINT
  5
ECAF
330
EB9A
100
AcDbEntity
  8
Defpoints
 62
     0
100
AcDbPoint
 10
187.6575351092942
 20
159.3098752363744
 30
0.0
  0
POINT
  5
ECB0
330
EB9A
100
AcDbEntity
  8
Defpoints
 62
     0
100
AcDbPoint
 10
163.6575351092942
 20
159.3098752363744
 30
0.0
  0
POINT
  5
ECB1
330
EB9A
100
AcDbEntity
  8
Defpoints
 62
     0
100
AcDbPoint
 10
163.6575351092942
 20
181.3098752363744
 30
0.0
  0
ENDBLK
  5
EBA5
330
EB9A
100
AcDbEntity
  8
0
100
AcDbBlockEnd
  0
BLOCK
  5
EBB1
330
EBA6
100
AcDbEntity
  8
0
100
AcDbBlockBegin
  2
*D9
 70
     1
 10
0.0
 20
0.0
 30
0.0
  3
*D9
  1

  0
LINE
  5
ECB2
330
EBA6
100
AcDbEntity
  8
AM_5
100
AcDbLine
 10
173.6575351092942
 20
139.3098752363744
 30
0.0
 11
173.6575351092942
 21
127.3098752363744
 31
0.0
  0
LINE
  5
ECB3
330
EBA6
100
AcDbEntity
  8
AM_5
100
AcDbLine
 10
177.6575351092942
 20
139.3098752363744
 30
0.0
 11
177.6575351092942
 21
127.3098752363744
 31
0.0
  0
LINE
  5
ECB4
330
EBA6
100
AcDbEntity
  8
AM_5
100
AcDbLine
 10
172.6575351092942
 20
128.3098752363744
 30
0.0
 11
171.6575351092942
 21
128.3098752363744
 31
0.0
  0
LINE
  5
ECB5
330
EBA6
100
AcDbEntity
  8
AM_5
100
AcDbLine
 10
178.6575351092942
 20
128.3098752363744
 30
0.0
 11
186.2842017759609
 21
128.3098752363744
 31
0.0
  0
LINE
  5
ECB6
330
EBA6
100
AcDbEntity
  8
AM_5
100
AcDbLine
 10
173.6575351092942
 20
128.3098752363744
 30
0.0
 11
177.6575351092942
 21
128.3098752363744
 31
0.0
  0
INSERT
  5
ECB7
330
EBA6
100
AcDbEntity
  8
AM_5
100
AcDbBlockReference
  2
_Dot
 10
173.6575351092942
 20
128.3098752363744
 30
0.0
  0
INSERT
  5
ECB8
330
EBA6
100
AcDbEntity
  8
AM_5
100
AcDbBlockReference
  2
_Dot
 10
177.6575351092942
 20
128.3098752363744
 30
0.0
 50
180.0
  0
MTEXT
  5
ECB9
330
EBA6
100
AcDbEntity
  8
AM_5
 62
     2
100
AcDbMText
 10
182.9708684426276
 20
131.4098752363744
 30
0.0
 40
3.200000000000001
 41
0.0
 71
     5
 72
     1
  1
%%cD
 73
     1
 44
1.0
1001
ACAD
1000
MTEXTBEGIN
1070
    73
1070
     1
1070
    44
1040
1.0
1070
    74
1070
     0
1000
MTEXTEND
  0
POINT
  5
ECBA
330
EBA6
100
AcDbEntity
  8
Defpoints
 62
     0
100
AcDbPoint
 10
173.6575351092942
 20
140.3098752363744
 30
0.0
  0
POINT
  5
ECBB
330
EBA6
100
AcDbEntity
  8
Defpoints
 62
     0
100
AcDbPoint
 10
177.6575351092942
 20
140.3098752363744
 30
0.0
  0
POINT
  5
ECBC
330
EBA6
100
AcDbEntity
  8
Defpoints
 62
     0
100
AcDbPoint
 10
177.6575351092942
 20
128.3098752363744
 30
0.0
  0
ENDBLK
  5
EBB2
330
EBA6
100
AcDbEntity
  8
0
100
AcDbBlockEnd
  0
BLOCK
  5
EBBD
330
EBB3
100
AcDbEntity
  8
0
100
AcDbBlockBegin
  2
*D10
 70
     1
 10
0.0
 20
0.0
 30
0.0
  3
*D10
  1

  0
LINE
  5
ECBD
330
EBB3
100
AcDbEntity
  8
AM_5
100
AcDbLine
 10
160.6575351092942
 20
139.3098752363744
 30
0.0
 11
160.6575351092942
 21
117.3098752363743
 31
0.0
  0
LINE
  5
ECBE
330
EBB3
100
AcDbEntity
  8
AM_5
100
AcDbLine
 10
190.6575351092942
 20
139.3098752363744
 30
0.0
 11
190.6575351092942
 21
117.3098752363743
 31
0.0
  0
LINE
  5
ECBF
330
EBB3
100
AcDbEntity
  8
AM_5
100
AcDbLine
 10
161.6575351092942
 20
118.3098752363743
 30
0.0
 11
189.6575351092942
 21
118.3098752363743
 31
0.0
  0
INSERT
  5
ECC0
330
EBB3
100
AcDbEntity
  8
AM_5
100
AcDbBlockReference
  2
_Dot
 10
160.6575351092942
 20
118.3098752363743
 30
0.0
 50
180.0
  0
INSERT
  5
ECC1
330
EBB3
100
AcDbEntity
  8
AM_5
100
AcDbBlockReference
  2
_Dot
 10
190.6575351092942
 20
118.3098752363743
 30
0.0
  0
MTEXT
  5
ECC2
330
EBB3
100
AcDbEntity
  8
AM_5
 62
     2
100
AcDbMText
 10
175.6575351092942
 20
121.4098752363743
 30
0.0
 40
3.200000000000001
 41
0.0
 71
     5
 72
     1
  1
%%cA
 73
     1
 44
1.0
1001
ACAD
1000
MTEXTBEGIN
1070
    73
1070
     1
1070
    44
1040
1.0
1070
    74
1070
     0
1000
MTEXTEND
  0
POINT
  5
ECC3
330
EBB3
100
AcDbEntity
  8
Defpoints
 62
     0
100
AcDbPoint
 10
160.6575351092942
 20
140.3098752363744
 30
0.0
  0
POINT
  5
ECC4
330
EBB3
100
AcDbEntity
  8
Defpoints
 62
     0
100
AcDbPoint
 10
190.6575351092942
 20
140.3098752363744
 30
0.0
  0
POINT
  5
ECC5
330
EBB3
100
AcDbEntity
  8
Defpoints
 62
     0
100
AcDbPoint
 10
190.6575351092942
 20
118.3098752363743
 30
0.0
  0
ENDBLK
  5
EBBE
330
EBB3
100
AcDbEntity
  8
0
100
AcDbBlockEnd
  0
ENDSEC
  0
SECTION
  2
ENTITIES
  0
LINE
  5
B6A2
330
1F
100
AcDbEntity
  8
AM_0
100
AcDbLine
 10
11.50000028203504
 20
201.5000000504797
 30
0.0
 11
101.500000282035
 21
201.5000000504797
 31
0.0
  0
LINE
  5
B6A3
330
1F
100
AcDbEntity
  8
AM_0
100
AcDbLine
 10
11.50000028203487
 20
161.5000000504797
 30
0.0
 11
111.5000002820349
 21
161.5000000504797
 31
0.0
  0
LINE
  5
B6A4
330
1F
100
AcDbEntity
  8
AM_2
100
AcDbLine
 10
11.5000002820351
 20
177.5000000504797
 30
0.0
 11
111.5000002820347
 21
177.5000000504797
 31
0.0
  0
LINE
  5
B6A5
330
1F
100
AcDbEntity
  8
AM_2
100
AcDbLine
 10
11.50000028203504
 20
185.5000000504796
 30
0.0
 11
111.500000282035
 21
185.5000000504796
 31
0.0
  0
LINE
  5
B6A6
330
1F
100
AcDbEntity
  8
AM_2
100
AcDbLine
 10
11.50000028203504
 20
193.5000000504797
 30
0.0
 11
111.500000282035
 21
193.5000000504795
 31
0.0
  0
LINE
  5
B6A7
330
1F
100
AcDbEntity
  8
AM_2
100
AcDbLine
 10
31.50000028203505
 20
201.5000000504797
 30
0.0
 11
31.50000028203499
 21
161.5000000504797
 31
0.0
  0
MTEXT
  5
B6A8
330
1F
100
AcDbEntity
  8
AM_6
100
AcDbMText
 10
21.50000028203499
 20
173.5000000504797
 30
0.0
 40
3.2
 41
19.99999999999971
 71
     5
 72
     5
  1
仕上げ
 73
     1
 44
1.0
1001
ACAD
1000
MTEXTBEGIN
1070
    73
1070
     1
1070
    44
1040
1.0
1070
    74
1070
     0
1000
MTEXTEND
1000
ACAD_MTEXT_DEFINED_HEIGHT_BEGIN
1070
    46
1040
7.999999999999985
1000
ACAD_MTEXT_DEFINED_HEIGHT_END
  0
MTEXT
  5
B6A9
330
1F
100
AcDbEntity
  8
AM_6
100
AcDbMText
 10
21.50000028203499
 20
181.5000000504797
 30
0.0
 40
3.2
 41
19.99999999999988
 71
     5
 72
     5
  1
材　質
 73
     1
 44
1.0
1001
ACAD
1000
MTEXTBEGIN
1070
    73
1070
     1
1070
    44
1040
1.0
1070
    74
1070
     0
1000
MTEXTEND
1000
ACAD_MTEXT_DEFINED_HEIGHT_BEGIN
1070
    46
1040
8.000000000000071
1000
ACAD_MTEXT_DEFINED_HEIGHT_END
  0
MTEXT
  5
B6AA
330
1F
100
AcDbEntity
  8
AM_6
100
AcDbMText
 10
21.50000028203505
 20
197.5000000504797
 30
0.0
 40
3.2
 41
20.0
 71
     5
 72
     5
  1
品　名
 73
     1
 44
1.0
1001
ACAD
1000
MTEXTBEGIN
1070
    73
1070
     1
1070
    44
1040
1.0
1070
    74
1070
     0
1000
MTEXTEND
  0
MTEXT
  5
B6AD
330
1F
100
AcDbEntity
  8
AM_6
100
AcDbMText
 10
31.50000028203505
 20
197.5000000504797
 30
0.0
 40
3.2
 41
90.0
 71
     4
 72
     5
  1
　ゴム脚
 73
     1
 44
1.0
1001
ACAD
1000
MTEXTBEGIN
1070
    73
1070
     1
1070
    44
1040
1.0
1070
    74
1070
     0
1000
MTEXTEND
  0
LINE
  5
B6AE
330
1F
100
AcDbEntity
  8
AM_0
100
AcDbLine
 10
111.500000282035
 20
201.5000000504797
 30
0.0
 11
111.5000002820348
 21
161.5000000504797
 31
0.0
  0
MTEXT
  5
B6B0
330
1F
100
AcDbEntity
  8
AM_6
100
AcDbMText
 10
21.50000028203476
 20
165.5000000504797
 30
0.0
 40
3.2
 41
19.99999999999986
 71
     5
 72
     5
  1
備　考
 73
     1
 44
1.0
1001
ACAD
1000
MTEXTBEGIN
1070
    73
1070
     1
1070
    44
1040
1.0
1070
    74
1070
     0
1000
MTEXTEND
1000
ACAD_MTEXT_DEFINED_HEIGHT_BEGIN
1070
    46
1040
7.999999999999982
1000
ACAD_MTEXT_DEFINED_HEIGHT_END
  0
MTEXT
  5
B6B1
330
1F
100
AcDbEntity
  8
AM_6
100
AcDbMText
 10
21.50000028203505
 20
189.5000000504797
 30
0.0
 40
3.2
 41
20.0
 71
     5
 72
     5
  1
品　番
 73
     1
 44
1.0
1001
ACAD
1000
MTEXTBEGIN
1070
    73
1070
     1
1070
    44
1040
1.0
1070
    74
1070
     0
1000
MTEXTEND
  0
MTEXT
  5
B6B2
330
1F
100
AcDbEntity
  8
AM_6
100
AcDbMText
 10
31.50000028203505
 20
189.5000000504797
 30
0.0
 40
3.2
 41
90.0
 71
     4
 72
     5
  1
　K-「」
 73
     1
 44
1.0
1001
ACAD
1000
MTEXTBEGIN
1070
    73
1070
     1
1070
    44
1040
1.0
1070
    74
1070
     0
1000
MTEXTEND
  0
LINE
  5
B867
330
1F
100
AcDbEntity
  8
AM_2
100
AcDbLine
 10
11.50000028203493
 20
169.5000000504797
 30
0.0
 11
111.5000002820347
 21
169.5000000504796
 31
0.0
  0
TEXT
  5
D042
330
1F
100
AcDbEntity
  8
AM_6
 60
     1
100
AcDbText
 10
705.5000002820349
 20
8.500000050479712
 30
0.0
 40
2.5
  1
!GENTITLE-INSERT
100
AcDbText
  0
TEXT
  5
D043
330
1F
100
AcDbEntity
  8
AM_6
 60
     1
100
AcDbText
 10
297.000000282035
 20
0.0000000504797129
 30
0.0
 40
2.5
  1
!GENTITLE-LL
100
AcDbText
  0
TEXT
  5
D044
330
1F
100
AcDbEntity
  8
AM_6
 60
     1
100
AcDbText
 10
717.000000282035
 20
297.0000000504797
 30
0.0
 40
2.5
  1
!GENTITLE-RU
100
AcDbText
  0
TEXT
  5
D045
330
1F
100
AcDbEntity
  8
AM_6
 60
     1
100
AcDbText
 10
717.000000282035
 20
297.0000000504797
 30
0.0
 40
2.5
  1
!GENTITLE-MAX
100
AcDbText
  0
TEXT
  5
D04D
330
1F
100
AcDbEntity
  8
AM_6
 60
     1
100
AcDbText
 10
297.000000282035
 20
0.0000000504797129
 30
0.0
 40
2.5
  1
!GENTITLE-LL
100
AcDbText
  0
TEXT
  5
D04E
330
1F
100
AcDbEntity
  8
AM_6
 60
     1
100
AcDbText
 10
705.5000002820349
 20
288.5000000504797
 30
0.0
 40
2.5
  1
!GENTITLE-RU
100
AcDbText
  0
TEXT
  5
D04F
330
1F
100
AcDbEntity
  8
AM_6
 60
     1
100
AcDbText
 10
717.000000282035
 20
297.0000000504797
 30
0.0
 40
2.5
  1
!GENTITLE-MAX
100
AcDbText
  0
TEXT
  5
D050
330
1F
100
AcDbEntity
  8
AM_6
 60
     1
100
AcDbText
 10
705.5000002820349
 20
8.500000050479712
 30
0.0
 40
2.5
  1
!GENTITLE-INSERT
100
AcDbText
  0
MTEXT
  5
D055
102
{ACAD_XDICTIONARY
360
EDB9
102
}
330
1F
100
AcDbEntity
  8
AM_6
100
AcDbMText
 10
31.50000028203505
 20
181.5000000504797
 30
0.0
 40
3.2
 41
90.0
 71
     4
 72
     5
  1
　本体：EPDM    　　　/　ワッシャ：スチール
 73
     1
 44
1.0
1001
ACAD
1000
MTEXTBEGIN
1070
    73
1070
     1
1070
    44
1040
1.0
1070
    74
1070
     0
1000
MTEXTEND
  0
MTEXT
  5
D0BB
330
1F
100
AcDbEntity
  8
AM_6
100
AcDbMText
 10
31.50000028203505
 20
173.5000000504797
 30
0.0
 40
3.2
 41
90.0
 71
     4
 72
     5
  1
　本体：生地（ブラック） /　ワッシャ：有色クロメート
 73
     1
 44
1.0
1001
ACAD
1000
MTEXTBEGIN
1070
    73
1070
     1
1070
    44
1040
1.0
1070
    74
1070
     0
1000
MTEXTEND
  0
LINE
  5
E32B
330
1F
100
AcDbEntity
  8
AM_0
100
AcDbLine
 10
45.8304774829699
 20
104.9983498161577
 30
0.0
 11
142.8304774829699
 21
104.9983498161578
 31
0.0
  0
LINE
  5
E32C
330
1F
100
AcDbEntity
  8
AM_0
100
AcDbLine
 10
45.8304774829699
 20
104.9983498161577
 30
0.0
 11
45.8304774829699
 21
19.99834981615777
 31
0.0
  0
LINE
  5
E32D
330
1F
100
AcDbEntity
  8
AM_0
100
AcDbLine
 10
45.8304774829699
 20
97.99834981615777
 30
0.0
 11
142.8304774829699
 21
97.99834981615777
 31
0.0
  0
LINE
  5
E32E
330
1F
100
AcDbEntity
  8
AM_2
100
AcDbLine
 10
45.8304774829699
 20
91.99834981615778
 30
0.0
 11
142.8304774829699
 21
91.99834981615779
 31
0.0
  0
MTEXT
  5
E330
330
1F
100
AcDbEntity
  8
AM_6
100
AcDbMText
 10
58.3304774829699
 20
101.4983498161577
 30
0.0
 40
3.2
 41
25.0
 71
     5
 72
     5
  1
品　番
 73
     1
 44
1.0
1001
ACAD
1000
MTEXTBEGIN
1070
    73
1070
     1
1070
    44
1040
1.0
1070
    74
1070
     0
1000
MTEXTEND
  0
MTEXT
  5
E331
330
1F
100
AcDbEntity
  8
AM_6
100
AcDbMText
 10
58.3304774829699
 20
94.99834981615776
 30
0.0
 40
3.2
 41
25.0
 71
     5
 72
     5
  1
K-10
 73
     1
 44
1.0
1001
ACAD
1000
MTEXTBEGIN
1070
    73
1070
     1
1070
    44
1040
1.0
1070
    74
1070
     0
1000
MTEXTEND
1000
ACAD_MTEXT_DEFINED_HEIGHT_BEGIN
1070
    46
1040
6.000000000000012
1000
ACAD_MTEXT_DEFINED_HEIGHT_END
  0
LINE
  5
E333
330
1F
100
AcDbEntity
  8
AM_0
100
AcDbLine
 10
70.8304774829699
 20
104.9983498161577
 30
0.0
 11
70.83047748296991
 21
19.99834981615778
 31
0.0
  0
LINE
  5
E338
330
1F
100
AcDbEntity
  8
AM_0
100
AcDbLine
 10
82.8304774829699
 20
104.9983498161577
 30
0.0
 11
82.8304774829699
 21
19.99834981615778
 31
0.0
  0
MTEXT
  5
E339
330
1F
100
AcDbEntity
  8
AM_6
100
AcDbMText
 10
88.8304774829699
 20
94.99834981615776
 30
0.0
 40
3.2
 41
12.0
 71
     5
 72
     5
  1
10
 73
     1
 44
1.0
1001
ACAD
1000
MTEXTBEGIN
1070
    73
1070
     1
1070
    44
1040
1.0
1070
    74
1070
     0
1000
MTEXTEND
1000
ACAD_MTEXT_DEFINED_HEIGHT_BEGIN
1070
    46
1040
6.000000000000012
1000
ACAD_MTEXT_DEFINED_HEIGHT_END
  0
MTEXT
  5
E33A
330
1F
100
AcDbEntity
  8
AM_6
100
AcDbMText
 10
76.83047748296989
 20
101.4983498161577
 30
0.0
 40
3.2
 41
12.0
 71
     5
 72
     5
  1
%%CA
 73
     1
 44
1.0
1001
ACAD
1000
MTEXTBEGIN
1070
    73
1070
     1
1070
    44
1040
1.0
1070
    74
1070
     0
1000
MTEXTEND
  0
LINE
  5
E33B
330
1F
100
AcDbEntity
  8
AM_0
100
AcDbLine
 10
94.83047748296989
 20
104.9983498161577
 30
0.0
 11
94.83047748296989
 21
19.99834981615778
 31
0.0
  0
MTEXT
  5
E33C
330
1F
100
AcDbEntity
  8
AM_6
100
AcDbMText
 10
88.8304774829699
 20
101.4983498161577
 30
0.0
 40
3.2
 41
12.0
 71
     5
 72
     5
  1
%%CB
 73
     1
 44
1.0
1001
ACAD
1000
MTEXTBEGIN
1070
    73
1070
     1
1070
    44
1040
1.0
1070
    74
1070
     0
1000
MTEXTEND
  0
LINE
  5
E33D
330
1F
100
AcDbEntity
  8
AM_0
100
AcDbLine
 10
106.8304774829699
 20
104.9983498161577
 30
0.0
 11
106.8304774829699
 21
19.99834981615778
 31
0.0
  0
MTEXT
  5
E33E
330
1F
100
AcDbEntity
  8
AM_6
100
AcDbMText
 10
100.8304774829699
 20
101.4983498161577
 30
0.0
 40
3.2
 41
12.0
 71
     5
 72
     5
  1
%%CC
 73
     1
 44
1.0
1001
ACAD
1000
MTEXTBEGIN
1070
    73
1070
     1
1070
    44
1040
1.0
1070
    74
1070
     0
1000
MTEXTEND
  0
LINE
  5
E33F
330
1F
100
AcDbEntity
  8
AM_0
100
AcDbLine
 10
118.8304774829699
 20
104.9983498161577
 30
0.0
 11
118.8304774829699
 21
19.99834981615778
 31
0.0
  0
MTEXT
  5
E340
330
1F
100
AcDbEntity
  8
AM_6
100
AcDbMText
 10
124.8304774829699
 20
94.99834981615776
 30
0.0
 40
3.2
 41
12.0
 71
     5
 72
     5
  1
3
 73
     1
 44
1.0
1001
ACAD
1000
MTEXTBEGIN
1070
    73
1070
     1
1070
    44
1040
1.0
1070
    74
1070
     0
1000
MTEXTEND
1000
ACAD_MTEXT_DEFINED_HEIGHT_BEGIN
1070
    46
1040
6.000000000000012
1000
ACAD_MTEXT_DEFINED_HEIGHT_END
  0
MTEXT
  5
E341
330
1F
100
AcDbEntity
  8
AM_6
100
AcDbMText
 10
112.8304774829699
 20
101.4983498161577
 30
0.0
 40
3.2
 41
12.0
 71
     5
 72
     5
  1
%%CD
 73
     1
 44
1.0
1001
ACAD
1000
MTEXTBEGIN
1070
    73
1070
     1
1070
    44
1040
1.0
1070
    74
1070
     0
1000
MTEXTEND
  0
LINE
  5
E342
330
1F
100
AcDbEntity
  8
AM_0
100
AcDbLine
 10
130.8304774829699
 20
104.9983498161577
 30
0.0
 11
130.8304774829699
 21
19.99834981615777
 31
0.0
  0
MTEXT
  5
E343
330
1F
100
AcDbEntity
  8
AM_6
100
AcDbMText
 10
112.8304774829699
 20
94.99834981615776
 30
0.0
 40
3.2
 41
12.0
 71
     5
 72
     5
  1
3
 73
     1
 44
1.0
1001
ACAD
1000
MTEXTBEGIN
1070
    73
1070
     1
1070
    44
1040
1.0
1070
    74
1070
     0
1000
MTEXTEND
1000
ACAD_MTEXT_DEFINED_HEIGHT_BEGIN
1070
    46
1040
6.000000000000012
1000
ACAD_MTEXT_DEFINED_HEIGHT_END
  0
MTEXT
  5
E344
330
1F
100
AcDbEntity
  8
AM_6
100
AcDbMText
 10
124.8304774829699
 20
101.4983498161577
 30
0.0
 40
3.2
 41
12.0
 71
     5
 72
     5
  1
E
 73
     1
 44
1.0
1001
ACAD
1000
MTEXTBEGIN
1070
    73
1070
     1
1070
    44
1040
1.0
1070
    74
1070
     0
1000
MTEXTEND
  0
LINE
  5
E34A
330
1F
100
AcDbEntity
  8
AM_2
100
AcDbLine
 10
45.8304774829699
 20
85.99834981615776
 30
0.0
 11
142.8304774829699
 21
85.99834981615774
 31
0.0
  0
LINE
  5
E350
330
1F
100
AcDbEntity
  8
AM_2
100
AcDbLine
 10
45.8304774829699
 20
79.99834981615776
 30
0.0
 11
70.8304774829699
 21
79.99834981615776
 31
0.0
  0
LINE
  5
E358
330
1F
100
AcDbEntity
  8
AM_2
100
AcDbLine
 10
45.8304774829699
 20
73.99834981615777
 30
0.0
 11
142.8304774829699
 21
73.9983498161578
 31
0.0
  0
LINE
  5
E35E
330
1F
100
AcDbEntity
  8
AM_2
100
AcDbLine
 10
45.8304774829699
 20
67.99834981615777
 30
0.0
 11
142.8304774829699
 21
67.9983498161578
 31
0.0
  0
LINE
  5
E364
330
1F
100
AcDbEntity
  8
AM_2
100
AcDbLine
 10
45.8304774829699
 20
61.99834981615777
 30
0.0
 11
142.8304774829699
 21
61.99834981615779
 31
0.0
  0
LINE
  5
E369
330
1F
100
AcDbEntity
  8
AM_2
100
AcDbLine
 10
45.8304774829699
 20
55.99834981615778
 30
0.0
 11
70.83047748296991
 21
55.99834981615777
 31
0.0
  0
LINE
  5
E36F
330
1F
100
AcDbEntity
  8
AM_2
100
AcDbLine
 10
45.8304774829699
 20
49.99834981615777
 30
0.0
 11
142.8304774829699
 21
49.99834981615782
 31
0.0
  0
LINE
  5
E375
330
1F
100
AcDbEntity
  8
AM_2
100
AcDbLine
 10
45.8304774829699
 20
43.99834981615778
 30
0.0
 11
142.8304774829699
 21
43.9983498161578
 31
0.0
  0
LINE
  5
E37A
330
1F
100
AcDbEntity
  8
AM_0
100
AcDbLine
 10
142.8304774829699
 20
104.9983498161577
 30
0.0
 11
142.8304774829699
 21
19.99834981615777
 31
0.0
  0
MTEXT
  5
E37B
330
1F
100
AcDbEntity
  8
AM_6
100
AcDbMText
 10
136.8304774829699
 20
101.4983498161577
 30
0.0
 40
3.2
 41
12.0
 71
     5
 72
     5
  1
H
 73
     1
 44
1.0
1001
ACAD
1000
MTEXTBEGIN
1070
    73
1070
     1
1070
    44
1040
1.0
1070
    74
1070
     0
1000
MTEXTEND
  0
MTEXT
  5
E392
330
1F
100
AcDbEntity
  8
AM_6
100
AcDbMText
 10
76.83047748296989
 20
94.99834981615776
 30
0.0
 40
3.2
 41
12.0
 71
     5
 72
     5
  1
10
 73
     1
 44
1.0
1001
ACAD
1000
MTEXTBEGIN
1070
    73
1070
     1
1070
    44
1040
1.0
1070
    74
1070
     0
1000
MTEXTEND
1000
ACAD_MTEXT_DEFINED_HEIGHT_BEGIN
1070
    46
1040
6.000000000000012
1000
ACAD_MTEXT_DEFINED_HEIGHT_END
  0
MTEXT
  5
E394
330
1F
100
AcDbEntity
  8
AM_6
100
AcDbMText
 10
100.8304774829699
 20
94.99834981615776
 30
0.0
 40
3.2
 41
12.0
 71
     5
 72
     5
  1
5
 73
     1
 44
1.0
1001
ACAD
1000
MTEXTBEGIN
1070
    73
1070
     1
1070
    44
1040
1.0
1070
    74
1070
     0
1000
MTEXTEND
1000
ACAD_MTEXT_DEFINED_HEIGHT_BEGIN
1070
    46
1040
6.000000000000012
1000
ACAD_MTEXT_DEFINED_HEIGHT_END
  0
MTEXT
  5
E3A2
330
1F
100
AcDbEntity
  8
AM_6
100
AcDbMText
 10
136.8304774829699
 20
94.99834981615776
 30
0.0
 40
3.2
 41
12.0
 71
     5
 72
     5
  1
5
 73
     1
 44
1.0
1001
ACAD
1000
MTEXTBEGIN
1070
    73
1070
     1
1070
    44
1040
1.0
1070
    74
1070
     0
1000
MTEXTEND
1000
ACAD_MTEXT_DEFINED_HEIGHT_BEGIN
1070
    46
1040
6.000000000000012
1000
ACAD_MTEXT_DEFINED_HEIGHT_END
  0
LINE
  5
E76C
330
1F
100
AcDbEntity
  8
size
100
AcDbLine
 10
0.0000002820349891
 20
210.0000000504797
 30
0.0
 11
297.000000282035
 21
210.0000000504797
 31
0.0
1001
GENIUS_GENREC_14
1002
{
1000
PYDIR
1011
0.0000002820349891
1021
297.0000000504797
1031
0.0
1002
}
1002
{
1000
PXDIR
1011
420.000000282035
1021
0.0000000504796844
1031
0.0
1002
}
1002
{
1000
PORI
1011
0.0000002820349891
1021
0.0000000504796844
1031
0.0
1002
}
1002
{
1000
PINS
1011
210.000000282035
1021
148.5000000504796
1031
0.0
1002
}
1002
{
1000
HVAL
1000
297
1002
}
1002
{
1000
H
1070
     2
1002
}
1002
{
1000
WVAL
1000
420
1002
}
1002
{
1000
W
1070
     2
1002
}
1002
{
1000
C
1070
     4
1002
}
1001
GENIUS_GENOBJ-N-REC_13
1002
{
1000
OWNER
1000
GEN
1002
}
1001
GENIUS_GENODEF_13
1002
{
1000
HIER
1070
     0
1002
}
1002
{
1000
MANEDIT
1070
     0
1002
}
1002
{
1000
NOSEL
1070
     0
1002
}
1002
{
1000
BEHIND
1070
     0
1002
}
1002
{
1000
OTHER
1070
     0
1002
}
1002
{
1000
REACTOR
1002
}
  0
LINE
  5
E76D
330
1F
100
AcDbEntity
  8
size
100
AcDbLine
 10
297.000000282035
 20
210.0000000504797
 30
0.0
 11
297.000000282035
 21
0.000000050479656
 31
0.0
1001
GENIUS_GENREC_14
1002
{
1000
PYDIR
1011
0.0000002820349891
1021
297.0000000504797
1031
0.0
1002
}
1002
{
1000
PXDIR
1011
420.000000282035
1021
0.0000000504796844
1031
0.0
1002
}
1002
{
1000
PORI
1011
0.0000002820349891
1021
0.0000000504796844
1031
0.0
1002
}
1002
{
1000
PINS
1011
210.000000282035
1021
148.5000000504796
1031
0.0
1002
}
1002
{
1000
HVAL
1000
297
1002
}
1002
{
1000
H
1070
     2
1002
}
1002
{
1000
WVAL
1000
420
1002
}
1002
{
1000
W
1070
     2
1002
}
1002
{
1000
C
1070
     4
1002
}
1001
GENIUS_GENOBJ-N-REC_13
1002
{
1000
OWNER
1000
GEN
1002
}
1001
GENIUS_GENODEF_13
1002
{
1000
HIER
1070
     0
1002
}
1002
{
1000
MANEDIT
1070
     0
1002
}
1002
{
1000
NOSEL
1070
     0
1002
}
1002
{
1000
BEHIND
1070
     0
1002
}
1002
{
1000
OTHER
1070
     0
1002
}
1002
{
1000
REACTOR
1002
}
  0
LINE
  5
E76E
330
1F
100
AcDbEntity
  8
waku
100
AcDbLine
 10
11.50000028203499
 20
8.500000050479684
 30
0.0
 11
285.5000002820349
 21
8.500000050479684
 31
0.0
1001
GENIUS_GENREC_14
1002
{
1000
PYDIR
1011
0.0000002820349891
1021
297.0000000504797
1031
0.0
1002
}
1002
{
1000
PXDIR
1011
420.000000282035
1021
0.0000000504796844
1031
0.0
1002
}
1002
{
1000
PORI
1011
0.0000002820349891
1021
0.0000000504796844
1031
0.0
1002
}
1002
{
1000
PINS
1011
210.000000282035
1021
148.5000000504796
1031
0.0
1002
}
1002
{
1000
HVAL
1000
297
1002
}
1002
{
1000
H
1070
     2
1002
}
1002
{
1000
WVAL
1000
420
1002
}
1002
{
1000
W
1070
     2
1002
}
1002
{
1000
C
1070
     4
1002
}
  0
LINE
  5
E76F
330
1F
100
AcDbEntity
  8
waku
100
AcDbLine
 10
285.500000282035
 20
201.5000000504797
 30
0.0
 11
11.50000028203499
 21
201.5000000504797
 31
0.0
1001
GENIUS_GENREC_14
1002
{
1000
PYDIR
1011
-122.999999717965
1021
210.0000000504797
1031
0.0
1002
}
1002
{
1000
PXDIR
1011
297.000000282035
1021
-86.99999994952031
1031
0.0
1002
}
1002
{
1000
PORI
1011
-122.999999717965
1021
-86.99999994952031
1031
0.0
1002
}
1002
{
1000
PINS
1011
87.00000028203502
1021
61.50000005047965
1031
0.0
1002
}
1002
{
1000
HVAL
1000
297
1002
}
1002
{
1000
H
1070
     2
1002
}
1002
{
1000
WVAL
1000
420
1002
}
1002
{
1000
W
1070
     2
1002
}
1002
{
1000
C
1070
     4
1002
}
1001
GENIUS_GENOBJ-N-REC_13
1002
{
1000
OWNER
1000
GEN
1002
}
1001
GENIUS_GENODEF_13
1002
{
1000
HIER
1070
     0
1002
}
1002
{
1000
MANEDIT
1070
     0
1002
}
1002
{
1000
NOSEL
1070
     0
1002
}
1002
{
1000
BEHIND
1070
     0
1002
}
1002
{
1000
OTHER
1070
     0
1002
}
1002
{
1000
REACTOR
1002
}
  0
LINE
  5
E770
330
1F
100
AcDbEntity
  8
waku
100
AcDbLine
 10
11.50000028203499
 20
201.5000000504797
 30
0.0
 11
11.50000028203499
 21
8.500000050479684
 31
0.0
1001
GENIUS_GENREC_14
1002
{
1000
PYDIR
1011
0.0000002820349891
1021
297.0000000504797
1031
0.0
1002
}
1002
{
1000
PXDIR
1011
420.000000282035
1021
0.0000000504796844
1031
0.0
1002
}
1002
{
1000
PORI
1011
0.0000002820349891
1021
0.0000000504796844
1031
0.0
1002
}
1002
{
1000
PINS
1011
210.000000282035
1021
148.5000000504796
1031
0.0
1002
}
1002
{
1000
HVAL
1000
297
1002
}
1002
{
1000
H
1070
     2
1002
}
1002
{
1000
WVAL
1000
420
1002
}
1002
{
1000
W
1070
     2
1002
}
1002
{
1000
C
1070
     4
1002
}
1001
GENIUS_GENOBJ-N-REC_13
1002
{
1000
OWNER
1000
GEN
1002
}
1001
GENIUS_GENODEF_13
1002
{
1000
HIER
1070
     0
1002
}
1002
{
1000
MANEDIT
1070
     0
1002
}
1002
{
1000
NOSEL
1070
     0
1002
}
1002
{
1000
BEHIND
1070
     0
1002
}
1002
{
1000
OTHER
1070
     0
1002
}
1002
{
1000
REACTOR
1002
}
  0
LINE
  5
E771
330
1F
100
AcDbEntity
  8
waku
100
AcDbLine
 10
285.5000002820349
 20
8.500000050479684
 30
0.0
 11
285.500000282035
 21
201.5000000504797
 31
0.0
1001
GENIUS_GENREC_14
1002
{
1000
PYDIR
1011
-122.999999717965
1021
216.0000000504797
1031
0.0
1002
}
1002
{
1000
PXDIR
1011
297.000000282035
1021
-80.99999994952032
1031
0.0
1002
}
1002
{
1000
PORI
1011
-122.999999717965
1021
-80.99999994952032
1031
0.0
1002
}
1002
{
1000
PINS
1011
87.00000028203502
1021
67.50000005047965
1031
0.0
1002
}
1002
{
1000
HVAL
1000
297
1002
}
1002
{
1000
H
1070
     2
1002
}
1002
{
1000
WVAL
1000
420
1002
}
1002
{
1000
W
1070
     2
1002
}
1002
{
1000
C
1070
     4
1002
}
1001
GENIUS_GENOBJ-N-REC_13
1002
{
1000
OWNER
1000
GEN
1002
}
1001
GENIUS_GENODEF_13
1002
{
1000
HIER
1070
     0
1002
}
1002
{
1000
MANEDIT
1070
     0
1002
}
1002
{
1000
NOSEL
1070
     0
1002
}
1002
{
1000
BEHIND
1070
     0
1002
}
1002
{
1000
OTHER
1070
     0
1002
}
1002
{
1000
REACTOR
1002
}
  0
LINE
  5
E772
330
1F
100
AcDbEntity
  8
size
100
AcDbLine
 10
0.0000002820349891
 20
210.0000000504797
 30
0.0
 11
0.0000002820349891
 21
0.0000000504796844
 31
0.0
1001
GENIUS_GENREC_14
1002
{
1000
PYDIR
1011
0.0000002820349891
1021
297.0000000504797
1031
0.0
1002
}
1002
{
1000
PXDIR
1011
420.000000282035
1021
0.0000000504796844
1031
0.0
1002
}
1002
{
1000
PORI
1011
0.0000002820349891
1021
0.0000000504796844
1031
0.0
1002
}
1002
{
1000
PINS
1011
210.000000282035
1021
148.5000000504796
1031
0.0
1002
}
1002
{
1000
HVAL
1000
297
1002
}
1002
{
1000
H
1070
     2
1002
}
1002
{
1000
WVAL
1000
420
1002
}
1002
{
1000
W
1070
     2
1002
}
1002
{
1000
C
1070
     4
1002
}
1001
GENIUS_GENOBJ-N-REC_13
1002
{
1000
OWNER
1000
GEN
1002
}
1001
GENIUS_GENODEF_13
1002
{
1000
HIER
1070
     0
1002
}
1002
{
1000
MANEDIT
1070
     0
1002
}
1002
{
1000
NOSEL
1070
     0
1002
}
1002
{
1000
BEHIND
1070
     0
1002
}
1002
{
1000
OTHER
1070
     0
1002
}
1002
{
1000
REACTOR
1002
}
  0
LINE
  5
E773
330
1F
100
AcDbEntity
  8
size
100
AcDbLine
 10
0.0000002820349891
 20
0.0000000504796844
 30
0.0
 11
297.000000282035
 21
0.0000000504796844
 31
0.0
1001
GENIUS_GENREC_14
1002
{
1000
PYDIR
1011
0.0000002820349891
1021
297.0000000504797
1031
0.0
1002
}
1002
{
1000
PXDIR
1011
420.000000282035
1021
0.0000000504796844
1031
0.0
1002
}
1002
{
1000
PORI
1011
0.0000002820349891
1021
0.0000000504796844
1031
0.0
1002
}
1002
{
1000
PINS
1011
210.000000282035
1021
148.5000000504796
1031
0.0
1002
}
1002
{
1000
HVAL
1000
297
1002
}
1002
{
1000
H
1070
     2
1002
}
1002
{
1000
WVAL
1000
420
1002
}
1002
{
1000
W
1070
     2
1002
}
1002
{
1000
C
1070
     4
1002
}
1001
GENIUS_GENOBJ-N-REC_13
1002
{
1000
OWNER
1000
GEN
1002
}
1001
GENIUS_GENODEF_13
1002
{
1000
HIER
1070
     0
1002
}
1002
{
1000
MANEDIT
1070
     0
1002
}
1002
{
1000
NOSEL
1070
     0
1002
}
1002
{
1000
BEHIND
1070
     0
1002
}
1002
{
1000
OTHER
1070
     0
1002
}
1002
{
1000
REACTOR
1002
}
  0
LINE
  5
E821
330
1F
100
AcDbEntity
  8
AM_2
100
AcDbLine
 10
45.8304774829699
 20
37.99834981615778
 30
0.0
 11
70.83047748296992
 21
37.99834981615777
 31
0.0
  0
LINE
  5
E822
330
1F
100
AcDbEntity
  8
AM_2
100
AcDbLine
 10
45.8304774829699
 20
31.99834981615778
 30
0.0
 11
142.8304774829699
 21
31.99834981615778
 31
0.0
  0
LINE
  5
E823
330
1F
100
AcDbEntity
  8
AM_2
100
AcDbLine
 10
45.8304774829699
 20
25.99834981615778
 30
0.0
 11
142.8304774829699
 21
25.99834981615781
 31
0.0
  0
LINE
  5
E824
330
1F
100
AcDbEntity
  8
AM_0
100
AcDbLine
 10
45.8304774829699
 20
19.99834981615778
 30
0.0
 11
142.8304774829699
 21
19.99834981615778
 31
0.0
  0
MTEXT
  5
E82A
330
1F
100
AcDbEntity
  8
AM_6
100
AcDbMText
 10
58.3304774829699
 20
88.99834981615777
 30
0.0
 40
3.2
 41
25.0
 71
     5
 72
     5
  1
K-12
 73
     1
 44
1.0
1001
ACAD
1000
MTEXTBEGIN
1070
    73
1070
     1
1070
    44
1040
1.0
1070
    74
1070
     0
1000
MTEXTEND
1000
ACAD_MTEXT_DEFINED_HEIGHT_BEGIN
1070
    46
1040
6.000000000000012
1000
ACAD_MTEXT_DEFINED_HEIGHT_END
  0
MTEXT
  5
E82B
330
1F
100
AcDbEntity
  8
AM_6
100
AcDbMText
 10
88.8304774829699
 20
88.99834981615777
 30
0.0
 40
3.2
 41
12.0
 71
     5
 72
     5
  1
8
 73
     1
 44
1.0
1001
ACAD
1000
MTEXTBEGIN
1070
    73
1070
     1
1070
    44
1040
1.0
1070
    74
1070
     0
1000
MTEXTEND
1000
ACAD_MTEXT_DEFINED_HEIGHT_BEGIN
1070
    46
1040
6.000000000000012
1000
ACAD_MTEXT_DEFINED_HEIGHT_END
  0
MTEXT
  5
E82C
330
1F
100
AcDbEntity
  8
AM_6
100
AcDbMText
 10
124.8304774829699
 20
88.99834981615777
 30
0.0
 40
3.2
 41
12.0
 71
     5
 72
     5
  1
4
 73
     1
 44
1.0
1001
ACAD
1000
MTEXTBEGIN
1070
    73
1070
     1
1070
    44
1040
1.0
1070
    74
1070
     0
1000
MTEXTEND
1000
ACAD_MTEXT_DEFINED_HEIGHT_BEGIN
1070
    46
1040
6.000000000000012
1000
ACAD_MTEXT_DEFINED_HEIGHT_END
  0
MTEXT
  5
E82D
330
1F
100
AcDbEntity
  8
AM_6
100
AcDbMText
 10
112.8304774829699
 20
88.99834981615777
 30
0.0
 40
3.2
 41
12.0
 71
     5
 72
     5
  1
3
 73
     1
 44
1.0
1001
ACAD
1000
MTEXTBEGIN
1070
    73
1070
     1
1070
    44
1040
1.0
1070
    74
1070
     0
1000
MTEXTEND
1000
ACAD_MTEXT_DEFINED_HEIGHT_BEGIN
1070
    46
1040
6.000000000000012
1000
ACAD_MTEXT_DEFINED_HEIGHT_END
  0
MTEXT
  5
E82F
330
1F
100
AcDbEntity
  8
AM_6
100
AcDbMText
 10
76.83047748296989
 20
88.99834981615777
 30
0.0
 40
3.2
 41
12.0
 71
     5
 72
     5
  1
12
 73
     1
 44
1.0
1001
ACAD
1000
MTEXTBEGIN
1070
    73
1070
     1
1070
    44
1040
1.0
1070
    74
1070
     0
1000
MTEXTEND
1000
ACAD_MTEXT_DEFINED_HEIGHT_BEGIN
1070
    46
1040
6.000000000000012
1000
ACAD_MTEXT_DEFINED_HEIGHT_END
  0
MTEXT
  5
E830
330
1F
100
AcDbEntity
  8
AM_6
100
AcDbMText
 10
100.8304774829699
 20
88.99834981615777
 30
0.0
 40
3.2
 41
12.0
 71
     5
 72
     5
  1
5
 73
     1
 44
1.0
1001
ACAD
1000
MTEXTBEGIN
1070
    73
1070
     1
1070
    44
1040
1.0
1070
    74
1070
     0
1000
MTEXTEND
1000
ACAD_MTEXT_DEFINED_HEIGHT_BEGIN
1070
    46
1040
6.000000000000012
1000
ACAD_MTEXT_DEFINED_HEIGHT_END
  0
MTEXT
  5
E832
330
1F
100
AcDbEntity
  8
AM_6
100
AcDbMText
 10
136.8304774829699
 20
88.99834981615777
 30
0.0
 40
3.2
 41
12.0
 71
     5
 72
     5
  1
9
 73
     1
 44
1.0
1001
ACAD
1000
MTEXTBEGIN
1070
    73
1070
     1
1070
    44
1040
1.0
1070
    74
1070
     0
1000
MTEXTEND
1000
ACAD_MTEXT_DEFINED_HEIGHT_BEGIN
1070
    46
1040
6.000000000000012
1000
ACAD_MTEXT_DEFINED_HEIGHT_END
  0
MTEXT
  5
E833
330
1F
100
AcDbEntity
  8
AM_6
100
AcDbMText
 10
58.3304774829699
 20
82.99834981615777
 30
0.0
 40
3.2
 41
25.0
 71
     5
 72
     5
  1
K-15
 73
     1
 44
1.0
1001
ACAD
1000
MTEXTBEGIN
1070
    73
1070
     1
1070
    44
1040
1.0
1070
    74
1070
     0
1000
MTEXTEND
1000
ACAD_MTEXT_DEFINED_HEIGHT_BEGIN
1070
    46
1040
6.000000000000012
1000
ACAD_MTEXT_DEFINED_HEIGHT_END
  0
MTEXT
  5
E834
330
1F
100
AcDbEntity
  8
AM_6
100
AcDbMText
 10
88.8304774829699
 20
82.99834981615777
 30
0.0
 40
3.2
 41
12.0
 71
     5
 72
     5
  1
14
 73
     1
 44
1.0
1001
ACAD
1000
MTEXTBEGIN
1070
    73
1070
     1
1070
    44
1040
1.0
1070
    74
1070
     0
1000
MTEXTEND
1000
ACAD_MTEXT_DEFINED_HEIGHT_BEGIN
1070
    46
1040
6.000000000000012
1000
ACAD_MTEXT_DEFINED_HEIGHT_END
  0
MTEXT
  5
E835
330
1F
100
AcDbEntity
  8
AM_6
100
AcDbMText
 10
124.8304774829699
 20
82.99834981615777
 30
0.0
 40
3.2
 41
12.0
 71
     5
 72
     5
  1
5
 73
     1
 44
1.0
1001
ACAD
1000
MTEXTBEGIN
1070
    73
1070
     1
1070
    44
1040
1.0
1070
    74
1070
     0
1000
MTEXTEND
1000
ACAD_MTEXT_DEFINED_HEIGHT_BEGIN
1070
    46
1040
6.000000000000012
1000
ACAD_MTEXT_DEFINED_HEIGHT_END
  0
MTEXT
  5
E836
330
1F
100
AcDbEntity
  8
AM_6
100
AcDbMText
 10
112.8304774829699
 20
79.9983498161578
 30
0.0
 40
3.2
 41
12.0
 71
     5
 72
     5
  1
3
 73
     1
 44
1.0
1001
ACAD
1000
MTEXTBEGIN
1070
    73
1070
     1
1070
    44
1040
1.0
1070
    74
1070
     0
1000
MTEXTEND
1000
ACAD_MTEXT_DEFINED_HEIGHT_BEGIN
1070
    46
1040
11.99999999999997
1000
ACAD_MTEXT_DEFINED_HEIGHT_END
  0
MTEXT
  5
E838
330
1F
100
AcDbEntity
  8
AM_6
100
AcDbMText
 10
76.83047748296989
 20
79.99834981615778
 30
0.0
 40
3.2
 41
12.0
 71
     5
 72
     5
  1
15
 73
     1
 44
1.0
1001
ACAD
1000
MTEXTBEGIN
1070
    73
1070
     1
1070
    44
1040
1.0
1070
    74
1070
     0
1000
MTEXTEND
1000
ACAD_MTEXT_DEFINED_HEIGHT_BEGIN
1070
    46
1040
11.99999999999998
1000
ACAD_MTEXT_DEFINED_HEIGHT_END
  0
MTEXT
  5
E839
330
1F
100
AcDbEntity
  8
AM_6
100
AcDbMText
 10
100.8304774829699
 20
82.99834981615777
 30
0.0
 40
3.2
 41
12.0
 71
     5
 72
     5
  1
6
 73
     1
 44
1.0
1001
ACAD
1000
MTEXTBEGIN
1070
    73
1070
     1
1070
    44
1040
1.0
1070
    74
1070
     0
1000
MTEXTEND
1000
ACAD_MTEXT_DEFINED_HEIGHT_BEGIN
1070
    46
1040
6.000000000000012
1000
ACAD_MTEXT_DEFINED_HEIGHT_END
  0
MTEXT
  5
E83B
330
1F
100
AcDbEntity
  8
AM_6
100
AcDbMText
 10
136.8304774829699
 20
82.99834981615777
 30
0.0
 40
3.2
 41
12.0
 71
     5
 72
     5
  1
8
 73
     1
 44
1.0
1001
ACAD
1000
MTEXTBEGIN
1070
    73
1070
     1
1070
    44
1040
1.0
1070
    74
1070
     0
1000
MTEXTEND
1000
ACAD_MTEXT_DEFINED_HEIGHT_BEGIN
1070
    46
1040
6.000000000000012
1000
ACAD_MTEXT_DEFINED_HEIGHT_END
  0
MTEXT
  5
E83C
330
1F
100
AcDbEntity
  8
AM_6
100
AcDbMText
 10
58.3304774829699
 20
76.99834981615777
 30
0.0
 40
3.2
 41
25.0
 71
     5
 72
     5
  1
K-1510
 73
     1
 44
1.0
1001
ACAD
1000
MTEXTBEGIN
1070
    73
1070
     1
1070
    44
1040
1.0
1070
    74
1070
     0
1000
MTEXTEND
1000
ACAD_MTEXT_DEFINED_HEIGHT_BEGIN
1070
    46
1040
6.000000000000012
1000
ACAD_MTEXT_DEFINED_HEIGHT_END
  0
MTEXT
  5
E83D
330
1F
100
AcDbEntity
  8
AM_6
100
AcDbMText
 10
88.8304774829699
 20
76.99834981615777
 30
0.0
 40
3.2
 41
12.0
 71
     5
 72
     5
  1
10
 73
     1
 44
1.0
1001
ACAD
1000
MTEXTBEGIN
1070
    73
1070
     1
1070
    44
1040
1.0
1070
    74
1070
     0
1000
MTEXTEND
1000
ACAD_MTEXT_DEFINED_HEIGHT_BEGIN
1070
    46
1040
6.000000000000012
1000
ACAD_MTEXT_DEFINED_HEIGHT_END
  0
MTEXT
  5
E83E
330
1F
100
AcDbEntity
  8
AM_6
100
AcDbMText
 10
124.8304774829699
 20
76.99834981615777
 30
0.0
 40
3.2
 41
12.0
 71
     5
 72
     5
  1
3
 73
     1
 44
1.0
1001
ACAD
1000
MTEXTBEGIN
1070
    73
1070
     1
1070
    44
1040
1.0
1070
    74
1070
     0
1000
MTEXTEND
1000
ACAD_MTEXT_DEFINED_HEIGHT_BEGIN
1070
    46
1040
6.000000000000012
1000
ACAD_MTEXT_DEFINED_HEIGHT_END
  0
MTEXT
  5
E842
330
1F
100
AcDbEntity
  8
AM_6
100
AcDbMText
 10
100.8304774829699
 20
76.99834981615777
 30
0.0
 40
3.2
 41
12.0
 71
     5
 72
     5
  1
5
 73
     1
 44
1.0
1001
ACAD
1000
MTEXTBEGIN
1070
    73
1070
     1
1070
    44
1040
1.0
1070
    74
1070
     0
1000
MTEXTEND
1000
ACAD_MTEXT_DEFINED_HEIGHT_BEGIN
1070
    46
1040
6.000000000000012
1000
ACAD_MTEXT_DEFINED_HEIGHT_END
  0
MTEXT
  5
E844
330
1F
100
AcDbEntity
  8
AM_6
100
AcDbMText
 10
136.8304774829699
 20
76.99834981615777
 30
0.0
 40
3.2
 41
12.0
 71
     5
 72
     5
  1
10
 73
     1
 44
1.0
1001
ACAD
1000
MTEXTBEGIN
1070
    73
1070
     1
1070
    44
1040
1.0
1070
    74
1070
     0
1000
MTEXTEND
1000
ACAD_MTEXT_DEFINED_HEIGHT_BEGIN
1070
    46
1040
6.000000000000012
1000
ACAD_MTEXT_DEFINED_HEIGHT_END
  0
MTEXT
  5
E845
330
1F
100
AcDbEntity
  8
AM_6
100
AcDbMText
 10
58.3304774829699
 20
70.99834981615777
 30
0.0
 40
3.2
 41
25.0
 71
     5
 72
     5
  1
K-16
 73
     1
 44
1.0
1001
ACAD
1000
MTEXTBEGIN
1070
    73
1070
     1
1070
    44
1040
1.0
1070
    74
1070
     0
1000
MTEXTEND
1000
ACAD_MTEXT_DEFINED_HEIGHT_BEGIN
1070
    46
1040
6.000000000000012
1000
ACAD_MTEXT_DEFINED_HEIGHT_END
  0
MTEXT
  5
E846
330
1F
100
AcDbEntity
  8
AM_6
100
AcDbMText
 10
88.8304774829699
 20
70.99834981615777
 30
0.0
 40
3.2
 41
12.0
 71
     5
 72
     5
  1
14
 73
     1
 44
1.0
1001
ACAD
1000
MTEXTBEGIN
1070
    73
1070
     1
1070
    44
1040
1.0
1070
    74
1070
     0
1000
MTEXTEND
1000
ACAD_MTEXT_DEFINED_HEIGHT_BEGIN
1070
    46
1040
6.000000000000012
1000
ACAD_MTEXT_DEFINED_HEIGHT_END
  0
MTEXT
  5
E847
330
1F
100
AcDbEntity
  8
AM_6
100
AcDbMText
 10
124.8304774829699
 20
70.99834981615777
 30
0.0
 40
3.2
 41
12.0
 71
     5
 72
     5
  1
5
 73
     1
 44
1.0
1001
ACAD
1000
MTEXTBEGIN
1070
    73
1070
     1
1070
    44
1040
1.0
1070
    74
1070
     0
1000
MTEXTEND
1000
ACAD_MTEXT_DEFINED_HEIGHT_BEGIN
1070
    46
1040
6.000000000000012
1000
ACAD_MTEXT_DEFINED_HEIGHT_END
  0
MTEXT
  5
E848
330
1F
100
AcDbEntity
  8
AM_6
100
AcDbMText
 10
112.8304774829699
 20
70.99834981615777
 30
0.0
 40
3.2
 41
12.0
 71
     5
 72
     5
  1
3
 73
     1
 44
1.0
1001
ACAD
1000
MTEXTBEGIN
1070
    73
1070
     1
1070
    44
1040
1.0
1070
    74
1070
     0
1000
MTEXTEND
1000
ACAD_MTEXT_DEFINED_HEIGHT_BEGIN
1070
    46
1040
6.000000000000012
1000
ACAD_MTEXT_DEFINED_HEIGHT_END
  0
MTEXT
  5
E84A
330
1F
100
AcDbEntity
  8
AM_6
100
AcDbMText
 10
76.83047748296989
 20
70.99834981615777
 30
0.0
 40
3.2
 41
12.0
 71
     5
 72
     5
  1
16
 73
     1
 44
1.0
1001
ACAD
1000
MTEXTBEGIN
1070
    73
1070
     1
1070
    44
1040
1.0
1070
    74
1070
     0
1000
MTEXTEND
1000
ACAD_MTEXT_DEFINED_HEIGHT_BEGIN
1070
    46
1040
6.000000000000012
1000
ACAD_MTEXT_DEFINED_HEIGHT_END
  0
MTEXT
  5
E84B
330
1F
100
AcDbEntity
  8
AM_6
100
AcDbMText
 10
100.8304774829699
 20
70.99834981615777
 30
0.0
 40
3.2
 41
12.0
 71
     5
 72
     5
  1
6
 73
     1
 44
1.0
1001
ACAD
1000
MTEXTBEGIN
1070
    73
1070
     1
1070
    44
1040
1.0
1070
    74
1070
     0
1000
MTEXTEND
1000
ACAD_MTEXT_DEFINED_HEIGHT_BEGIN
1070
    46
1040
6.000000000000012
1000
ACAD_MTEXT_DEFINED_HEIGHT_END
  0
MTEXT
  5
E84D
330
1F
100
AcDbEntity
  8
AM_6
100
AcDbMText
 10
136.8304774829699
 20
70.99834981615777
 30
0.0
 40
3.2
 41
12.0
 71
     5
 72
     5
  1
10
 73
     1
 44
1.0
1001
ACAD
1000
MTEXTBEGIN
1070
    73
1070
     1
1070
    44
1040
1.0
1070
    74
1070
     0
1000
MTEXTEND
1000
ACAD_MTEXT_DEFINED_HEIGHT_BEGIN
1070
    46
1040
6.000000000000012
1000
ACAD_MTEXT_DEFINED_HEIGHT_END
  0
MTEXT
  5
E84E
330
1F
100
AcDbEntity
  8
AM_6
100
AcDbMText
 10
58.3304774829699
 20
64.99834981615776
 30
0.0
 40
3.2
 41
25.0
 71
     5
 72
     5
  1
K-18
 73
     1
 44
1.0
1001
ACAD
1000
MTEXTBEGIN
1070
    73
1070
     1
1070
    44
1040
1.0
1070
    74
1070
     0
1000
MTEXTEND
1000
ACAD_MTEXT_DEFINED_HEIGHT_BEGIN
1070
    46
1040
6.000000000000012
1000
ACAD_MTEXT_DEFINED_HEIGHT_END
  0
MTEXT
  5
E84F
330
1F
100
AcDbEntity
  8
AM_6
100
AcDbMText
 10
88.8304774829699
 20
64.99834981615776
 30
0.0
 40
3.2
 41
12.0
 71
     5
 72
     5
  1
15
 73
     1
 44
1.0
1001
ACAD
1000
MTEXTBEGIN
1070
    73
1070
     1
1070
    44
1040
1.0
1070
    74
1070
     0
1000
MTEXTEND
1000
ACAD_MTEXT_DEFINED_HEIGHT_BEGIN
1070
    46
1040
6.000000000000012
1000
ACAD_MTEXT_DEFINED_HEIGHT_END
  0
MTEXT
  5
E850
330
1F
100
AcDbEntity
  8
AM_6
100
AcDbMText
 10
124.8304774829699
 20
64.99834981615776
 30
0.0
 40
3.2
 41
12.0
 71
     5
 72
     5
  1
7
 73
     1
 44
1.0
1001
ACAD
1000
MTEXTBEGIN
1070
    73
1070
     1
1070
    44
1040
1.0
1070
    74
1070
     0
1000
MTEXTEND
1000
ACAD_MTEXT_DEFINED_HEIGHT_BEGIN
1070
    46
1040
6.000000000000012
1000
ACAD_MTEXT_DEFINED_HEIGHT_END
  0
MTEXT
  5
E851
330
1F
100
AcDbEntity
  8
AM_6
100
AcDbMText
 10
112.8304774829699
 20
64.99834981615776
 30
0.0
 40
3.2
 41
12.0
 71
     5
 72
     5
  1
3
 73
     1
 44
1.0
1001
ACAD
1000
MTEXTBEGIN
1070
    73
1070
     1
1070
    44
1040
1.0
1070
    74
1070
     0
1000
MTEXTEND
1000
ACAD_MTEXT_DEFINED_HEIGHT_BEGIN
1070
    46
1040
6.000000000000012
1000
ACAD_MTEXT_DEFINED_HEIGHT_END
  0
MTEXT
  5
E853
330
1F
100
AcDbEntity
  8
AM_6
100
AcDbMText
 10
76.83047748296989
 20
64.99834981615776
 30
0.0
 40
3.2
 41
12.0
 71
     5
 72
     5
  1
18
 73
     1
 44
1.0
1001
ACAD
1000
MTEXTBEGIN
1070
    73
1070
     1
1070
    44
1040
1.0
1070
    74
1070
     0
1000
MTEXTEND
1000
ACAD_MTEXT_DEFINED_HEIGHT_BEGIN
1070
    46
1040
6.000000000000012
1000
ACAD_MTEXT_DEFINED_HEIGHT_END
  0
MTEXT
  5
E854
330
1F
100
AcDbEntity
  8
AM_6
100
AcDbMText
 10
100.8304774829699
 20
64.99834981615776
 30
0.0
 40
3.2
 41
12.0
 71
     5
 72
     5
  1
7
 73
     1
 44
1.0
1001
ACAD
1000
MTEXTBEGIN
1070
    73
1070
     1
1070
    44
1040
1.0
1070
    74
1070
     0
1000
MTEXTEND
1000
ACAD_MTEXT_DEFINED_HEIGHT_BEGIN
1070
    46
1040
6.000000000000012
1000
ACAD_MTEXT_DEFINED_HEIGHT_END
  0
MTEXT
  5
E856
330
1F
100
AcDbEntity
  8
AM_6
100
AcDbMText
 10
136.8304774829699
 20
64.99834981615776
 30
0.0
 40
3.2
 41
12.0
 71
     5
 72
     5
  1
11
 73
     1
 44
1.0
1001
ACAD
1000
MTEXTBEGIN
1070
    73
1070
     1
1070
    44
1040
1.0
1070
    74
1070
     0
1000
MTEXTEND
1000
ACAD_MTEXT_DEFINED_HEIGHT_BEGIN
1070
    46
1040
6.000000000000012
1000
ACAD_MTEXT_DEFINED_HEIGHT_END
  0
MTEXT
  5
E857
330
1F
100
AcDbEntity
  8
AM_6
100
AcDbMText
 10
58.3304774829699
 20
58.99834981615777
 30
0.0
 40
3.2
 41
25.0
 71
     5
 72
     5
  1
K-20
 73
     1
 44
1.0
1001
ACAD
1000
MTEXTBEGIN
1070
    73
1070
     1
1070
    44
1040
1.0
1070
    74
1070
     0
1000
MTEXTEND
1000
ACAD_MTEXT_DEFINED_HEIGHT_BEGIN
1070
    46
1040
6.000000000000012
1000
ACAD_MTEXT_DEFINED_HEIGHT_END
  0
MTEXT
  5
E858
330
1F
100
AcDbEntity
  8
AM_6
100
AcDbMText
 10
88.8304774829699
 20
58.99834981615777
 30
0.0
 40
3.2
 41
12.0
 71
     5
 72
     5
  1
16
 73
     1
 44
1.0
1001
ACAD
1000
MTEXTBEGIN
1070
    73
1070
     1
1070
    44
1040
1.0
1070
    74
1070
     0
1000
MTEXTEND
1000
ACAD_MTEXT_DEFINED_HEIGHT_BEGIN
1070
    46
1040
6.000000000000012
1000
ACAD_MTEXT_DEFINED_HEIGHT_END
  0
MTEXT
  5
E859
330
1F
100
AcDbEntity
  8
AM_6
100
AcDbMText
 10
124.8304774829699
 20
58.99834981615777
 30
0.0
 40
3.2
 41
12.0
 71
     5
 72
     5
  1
7
 73
     1
 44
1.0
1001
ACAD
1000
MTEXTBEGIN
1070
    73
1070
     1
1070
    44
1040
1.0
1070
    74
1070
     0
1000
MTEXTEND
1000
ACAD_MTEXT_DEFINED_HEIGHT_BEGIN
1070
    46
1040
6.000000000000012
1000
ACAD_MTEXT_DEFINED_HEIGHT_END
  0
MTEXT
  5
E85A
330
1F
100
AcDbEntity
  8
AM_6
100
AcDbMText
 10
112.8304774829699
 20
58.99834981615777
 30
0.0
 40
3.2
 41
12.0
 71
     5
 72
     5
  1
4
 73
     1
 44
1.0
1001
ACAD
1000
MTEXTBEGIN
1070
    73
1070
     1
1070
    44
1040
1.0
1070
    74
1070
     0
1000
MTEXTEND
1000
ACAD_MTEXT_DEFINED_HEIGHT_BEGIN
1070
    46
1040
6.000000000000012
1000
ACAD_MTEXT_DEFINED_HEIGHT_END
  0
MTEXT
  5
E85C
330
1F
100
AcDbEntity
  8
AM_6
100
AcDbMText
 10
76.83047748296989
 20
55.99834981615778
 30
0.0
 40
3.2
 41
12.0
 71
     5
 72
     5
  1
20
 73
     1
 44
1.0
1001
ACAD
1000
MTEXTBEGIN
1070
    73
1070
     1
1070
    44
1040
1.0
1070
    74
1070
     0
1000
MTEXTEND
1000
ACAD_MTEXT_DEFINED_HEIGHT_BEGIN
1070
    46
1040
11.99999999999998
1000
ACAD_MTEXT_DEFINED_HEIGHT_END
  0
MTEXT
  5
E85F
330
1F
100
AcDbEntity
  8
AM_6
100
AcDbMText
 10
136.8304774829699
 20
58.99834981615777
 30
0.0
 40
3.2
 41
12.0
 71
     5
 72
     5
  1
12
 73
     1
 44
1.0
1001
ACAD
1000
MTEXTBEGIN
1070
    73
1070
     1
1070
    44
1040
1.0
1070
    74
1070
     0
1000
MTEXTEND
1000
ACAD_MTEXT_DEFINED_HEIGHT_BEGIN
1070
    46
1040
6.000000000000012
1000
ACAD_MTEXT_DEFINED_HEIGHT_END
  0
MTEXT
  5
E860
330
1F
100
AcDbEntity
  8
AM_6
100
AcDbMText
 10
58.3304774829699
 20
52.99834981615777
 30
0.0
 40
3.2
 41
25.0
 71
     5
 72
     5
  1
K-2017
 73
     1
 44
1.0
1001
ACAD
1000
MTEXTBEGIN
1070
    73
1070
     1
1070
    44
1040
1.0
1070
    74
1070
     0
1000
MTEXTEND
1000
ACAD_MTEXT_DEFINED_HEIGHT_BEGIN
1070
    46
1040
6.000000000000012
1000
ACAD_MTEXT_DEFINED_HEIGHT_END
  0
MTEXT
  5
E861
330
1F
100
AcDbEntity
  8
AM_6
100
AcDbMText
 10
88.8304774829699
 20
52.99834981615777
 30
0.0
 40
3.2
 41
12.0
 71
     5
 72
     5
  1
15
 73
     1
 44
1.0
1001
ACAD
1000
MTEXTBEGIN
1070
    73
1070
     1
1070
    44
1040
1.0
1070
    74
1070
     0
1000
MTEXTEND
1000
ACAD_MTEXT_DEFINED_HEIGHT_BEGIN
1070
    46
1040
6.000000000000012
1000
ACAD_MTEXT_DEFINED_HEIGHT_END
  0
MTEXT
  5
E862
330
1F
100
AcDbEntity
  8
AM_6
100
AcDbMText
 10
124.8304774829699
 20
52.99834981615777
 30
0.0
 40
3.2
 41
12.0
 71
     5
 72
     5
  1
8
 73
     1
 44
1.0
1001
ACAD
1000
MTEXTBEGIN
1070
    73
1070
     1
1070
    44
1040
1.0
1070
    74
1070
     0
1000
MTEXTEND
1000
ACAD_MTEXT_DEFINED_HEIGHT_BEGIN
1070
    46
1040
6.000000000000012
1000
ACAD_MTEXT_DEFINED_HEIGHT_END
  0
MTEXT
  5
E863
330
1F
100
AcDbEntity
  8
AM_6
100
AcDbMText
 10
112.8304774829699
 20
52.99834981615777
 30
0.0
 40
3.2
 41
12.0
 71
     5
 72
     5
  1
3
 73
     1
 44
1.0
1001
ACAD
1000
MTEXTBEGIN
1070
    73
1070
     1
1070
    44
1040
1.0
1070
    74
1070
     0
1000
MTEXTEND
1000
ACAD_MTEXT_DEFINED_HEIGHT_BEGIN
1070
    46
1040
6.000000000000012
1000
ACAD_MTEXT_DEFINED_HEIGHT_END
  0
MTEXT
  5
E866
330
1F
100
AcDbEntity
  8
AM_6
100
AcDbMText
 10
100.8304774829699
 20
55.99834981615778
 30
0.0
 40
3.2
 41
12.0
 71
     5
 72
     5
  1
7
 73
     1
 44
1.0
1001
ACAD
1000
MTEXTBEGIN
1070
    73
1070
     1
1070
    44
1040
1.0
1070
    74
1070
     0
1000
MTEXTEND
1000
ACAD_MTEXT_DEFINED_HEIGHT_BEGIN
1070
    46
1040
12.00000000000002
1000
ACAD_MTEXT_DEFINED_HEIGHT_END
  0
MTEXT
  5
E868
330
1F
100
AcDbEntity
  8
AM_6
100
AcDbMText
 10
136.8304774829699
 20
52.99834981615777
 30
0.0
 40
3.2
 41
12.0
 71
     5
 72
     5
  1
17
 73
     1
 44
1.0
1001
ACAD
1000
MTEXTBEGIN
1070
    73
1070
     1
1070
    44
1040
1.0
1070
    74
1070
     0
1000
MTEXTEND
1000
ACAD_MTEXT_DEFINED_HEIGHT_BEGIN
1070
    46
1040
6.000000000000012
1000
ACAD_MTEXT_DEFINED_HEIGHT_END
  0
MTEXT
  5
E869
330
1F
100
AcDbEntity
  8
AM_6
100
AcDbMText
 10
58.3304774829699
 20
46.99834981615778
 30
0.0
 40
3.2
 41
25.0
 71
     5
 72
     5
  1
K-22
 73
     1
 44
1.0
1001
ACAD
1000
MTEXTBEGIN
1070
    73
1070
     1
1070
    44
1040
1.0
1070
    74
1070
     0
1000
MTEXTEND
1000
ACAD_MTEXT_DEFINED_HEIGHT_BEGIN
1070
    46
1040
6.000000000000012
1000
ACAD_MTEXT_DEFINED_HEIGHT_END
  0
MTEXT
  5
E86A
330
1F
100
AcDbEntity
  8
AM_6
100
AcDbMText
 10
88.8304774829699
 20
46.99834981615778
 30
0.0
 40
3.2
 41
12.0
 71
     5
 72
     5
  1
18
 73
     1
 44
1.0
1001
ACAD
1000
MTEXTBEGIN
1070
    73
1070
     1
1070
    44
1040
1.0
1070
    74
1070
     0
1000
MTEXTEND
1000
ACAD_MTEXT_DEFINED_HEIGHT_BEGIN
1070
    46
1040
6.000000000000012
1000
ACAD_MTEXT_DEFINED_HEIGHT_END
  0
MTEXT
  5
E86B
330
1F
100
AcDbEntity
  8
AM_6
100
AcDbMText
 10
124.8304774829699
 20
46.99834981615778
 30
0.0
 40
3.2
 41
12.0
 71
     5
 72
     5
  1
11
 73
     1
 44
1.0
1001
ACAD
1000
MTEXTBEGIN
1070
    73
1070
     1
1070
    44
1040
1.0
1070
    74
1070
     0
1000
MTEXTEND
1000
ACAD_MTEXT_DEFINED_HEIGHT_BEGIN
1070
    46
1040
6.000000000000012
1000
ACAD_MTEXT_DEFINED_HEIGHT_END
  0
MTEXT
  5
E86C
330
1F
100
AcDbEntity
  8
AM_6
100
AcDbMText
 10
112.8304774829699
 20
46.99834981615778
 30
0.0
 40
3.2
 41
12.0
 71
     5
 72
     5
  1
3
 73
     1
 44
1.0
1001
ACAD
1000
MTEXTBEGIN
1070
    73
1070
     1
1070
    44
1040
1.0
1070
    74
1070
     0
1000
MTEXTEND
1000
ACAD_MTEXT_DEFINED_HEIGHT_BEGIN
1070
    46
1040
6.000000000000012
1000
ACAD_MTEXT_DEFINED_HEIGHT_END
  0
MTEXT
  5
E86E
330
1F
100
AcDbEntity
  8
AM_6
100
AcDbMText
 10
76.83047748296989
 20
46.99834981615778
 30
0.0
 40
3.2
 41
12.0
 71
     5
 72
     5
  1
22
 73
     1
 44
1.0
1001
ACAD
1000
MTEXTBEGIN
1070
    73
1070
     1
1070
    44
1040
1.0
1070
    74
1070
     0
1000
MTEXTEND
1000
ACAD_MTEXT_DEFINED_HEIGHT_BEGIN
1070
    46
1040
6.000000000000012
1000
ACAD_MTEXT_DEFINED_HEIGHT_END
  0
MTEXT
  5
E86F
330
1F
100
AcDbEntity
  8
AM_6
100
AcDbMText
 10
100.8304774829699
 20
46.99834981615778
 30
0.0
 40
3.2
 41
12.0
 71
     5
 72
     5
  1
7
 73
     1
 44
1.0
1001
ACAD
1000
MTEXTBEGIN
1070
    73
1070
     1
1070
    44
1040
1.0
1070
    74
1070
     0
1000
MTEXTEND
1000
ACAD_MTEXT_DEFINED_HEIGHT_BEGIN
1070
    46
1040
6.000000000000012
1000
ACAD_MTEXT_DEFINED_HEIGHT_END
  0
MTEXT
  5
E872
330
1F
100
AcDbEntity
  8
AM_6
100
AcDbMText
 10
58.3304774829699
 20
40.99834981615777
 30
0.0
 40
3.2
 41
25.0
 71
     5
 72
     5
  1
K-23
 73
     1
 44
1.0
1001
ACAD
1000
MTEXTBEGIN
1070
    73
1070
     1
1070
    44
1040
1.0
1070
    74
1070
     0
1000
MTEXTEND
1000
ACAD_MTEXT_DEFINED_HEIGHT_BEGIN
1070
    46
1040
6.000000000000012
1000
ACAD_MTEXT_DEFINED_HEIGHT_END
  0
MTEXT
  5
E873
330
1F
100
AcDbEntity
  8
AM_6
100
AcDbMText
 10
88.8304774829699
 20
40.99834981615777
 30
0.0
 40
3.2
 41
12.0
 71
     5
 72
     5
  1
19
 73
     1
 44
1.0
1001
ACAD
1000
MTEXTBEGIN
1070
    73
1070
     1
1070
    44
1040
1.0
1070
    74
1070
     0
1000
MTEXTEND
1000
ACAD_MTEXT_DEFINED_HEIGHT_BEGIN
1070
    46
1040
6.000000000000012
1000
ACAD_MTEXT_DEFINED_HEIGHT_END
  0
MTEXT
  5
E874
330
1F
100
AcDbEntity
  8
AM_6
100
AcDbMText
 10
124.8304774829699
 20
40.99834981615777
 30
0.0
 40
3.2
 41
12.0
 71
     5
 72
     5
  1
5
 73
     1
 44
1.0
1001
ACAD
1000
MTEXTBEGIN
1070
    73
1070
     1
1070
    44
1040
1.0
1070
    74
1070
     0
1000
MTEXTEND
1000
ACAD_MTEXT_DEFINED_HEIGHT_BEGIN
1070
    46
1040
6.000000000000012
1000
ACAD_MTEXT_DEFINED_HEIGHT_END
  0
MTEXT
  5
E875
330
1F
100
AcDbEntity
  8
AM_6
100
AcDbMText
 10
112.8304774829699
 20
37.99834981615779
 30
0.0
 40
3.2
 41
12.0
 71
     5
 72
     5
  1
4
 73
     1
 44
1.0
1001
ACAD
1000
MTEXTBEGIN
1070
    73
1070
     1
1070
    44
1040
1.0
1070
    74
1070
     0
1000
MTEXTEND
1000
ACAD_MTEXT_DEFINED_HEIGHT_BEGIN
1070
    46
1040
12.0
1000
ACAD_MTEXT_DEFINED_HEIGHT_END
  0
MTEXT
  5
E877
330
1F
100
AcDbEntity
  8
AM_6
100
AcDbMText
 10
76.83047748296989
 20
37.99834981615779
 30
0.0
 40
3.2
 41
12.0
 71
     5
 72
     5
  1
23
 73
     1
 44
1.0
1001
ACAD
1000
MTEXTBEGIN
1070
    73
1070
     1
1070
    44
1040
1.0
1070
    74
1070
     0
1000
MTEXTEND
1000
ACAD_MTEXT_DEFINED_HEIGHT_BEGIN
1070
    46
1040
12.0
1000
ACAD_MTEXT_DEFINED_HEIGHT_END
  0
MTEXT
  5
E878
330
1F
100
AcDbEntity
  8
AM_6
100
AcDbMText
 10
100.8304774829699
 20
37.99834981615779
 30
0.0
 40
3.2
 41
12.0
 71
     5
 72
     5
  1
8
 73
     1
 44
1.0
1001
ACAD
1000
MTEXTBEGIN
1070
    73
1070
     1
1070
    44
1040
1.0
1070
    74
1070
     0
1000
MTEXTEND
1000
ACAD_MTEXT_DEFINED_HEIGHT_BEGIN
1070
    46
1040
12.0
1000
ACAD_MTEXT_DEFINED_HEIGHT_END
  0
MTEXT
  5
E87B
330
1F
100
AcDbEntity
  8
AM_6
100
AcDbMText
 10
58.3304774829699
 20
34.99834981615778
 30
0.0
 40
3.2
 41
25.0
 71
     5
 72
     5
  1
K-2320
 73
     1
 44
1.0
1001
ACAD
1000
MTEXTBEGIN
1070
    73
1070
     1
1070
    44
1040
1.0
1070
    74
1070
     0
1000
MTEXTEND
1000
ACAD_MTEXT_DEFINED_HEIGHT_BEGIN
1070
    46
1040
6.000000000000012
1000
ACAD_MTEXT_DEFINED_HEIGHT_END
  0
MTEXT
  5
E87C
330
1F
100
AcDbEntity
  8
AM_6
100
AcDbMText
 10
88.8304774829699
 20
34.99834981615778
 30
0.0
 40
3.2
 41
12.0
 71
     5
 72
     5
  1
20
 73
     1
 44
1.0
1001
ACAD
1000
MTEXTBEGIN
1070
    73
1070
     1
1070
    44
1040
1.0
1070
    74
1070
     0
1000
MTEXTEND
1000
ACAD_MTEXT_DEFINED_HEIGHT_BEGIN
1070
    46
1040
6.000000000000012
1000
ACAD_MTEXT_DEFINED_HEIGHT_END
  0
MTEXT
  5
E87D
330
1F
100
AcDbEntity
  8
AM_6
100
AcDbMText
 10
124.8304774829699
 20
34.99834981615778
 30
0.0
 40
3.2
 41
12.0
 71
     5
 72
     5
  1
10
 73
     1
 44
1.0
1001
ACAD
1000
MTEXTBEGIN
1070
    73
1070
     1
1070
    44
1040
1.0
1070
    74
1070
     0
1000
MTEXTEND
1000
ACAD_MTEXT_DEFINED_HEIGHT_BEGIN
1070
    46
1040
6.000000000000012
1000
ACAD_MTEXT_DEFINED_HEIGHT_END
  0
MTEXT
  5
E884
330
1F
100
AcDbEntity
  8
AM_6
100
AcDbMText
 10
58.3304774829699
 20
28.99834981615778
 30
0.0
 40
3.2
 41
25.0
 71
     5
 72
     5
  1
K-24
 73
     1
 44
1.0
1001
ACAD
1000
MTEXTBEGIN
1070
    73
1070
     1
1070
    44
1040
1.0
1070
    74
1070
     0
1000
MTEXTEND
1000
ACAD_MTEXT_DEFINED_HEIGHT_BEGIN
1070
    46
1040
6.000000000000012
1000
ACAD_MTEXT_DEFINED_HEIGHT_END
  0
MTEXT
  5
E885
330
1F
100
AcDbEntity
  8
AM_6
100
AcDbMText
 10
88.8304774829699
 20
28.99834981615778
 30
0.0
 40
3.2
 41
12.0
 71
     5
 72
     5
  1
20
 73
     1
 44
1.0
1001
ACAD
1000
MTEXTBEGIN
1070
    73
1070
     1
1070
    44
1040
1.0
1070
    74
1070
     0
1000
MTEXTEND
1000
ACAD_MTEXT_DEFINED_HEIGHT_BEGIN
1070
    46
1040
6.000000000000012
1000
ACAD_MTEXT_DEFINED_HEIGHT_END
  0
MTEXT
  5
E886
330
1F
100
AcDbEntity
  8
AM_6
100
AcDbMText
 10
124.8304774829699
 20
28.99834981615778
 30
0.0
 40
3.2
 41
12.0
 71
     5
 72
     5
  1
5
 73
     1
 44
1.0
1001
ACAD
1000
MTEXTBEGIN
1070
    73
1070
     1
1070
    44
1040
1.0
1070
    74
1070
     0
1000
MTEXTEND
1000
ACAD_MTEXT_DEFINED_HEIGHT_BEGIN
1070
    46
1040
6.000000000000012
1000
ACAD_MTEXT_DEFINED_HEIGHT_END
  0
MTEXT
  5
E887
330
1F
100
AcDbEntity
  8
AM_6
100
AcDbMText
 10
112.8304774829699
 20
28.99834981615778
 30
0.0
 40
3.2
 41
12.0
 71
     5
 72
     5
  1
4
 73
     1
 44
1.0
1001
ACAD
1000
MTEXTBEGIN
1070
    73
1070
     1
1070
    44
1040
1.0
1070
    74
1070
     0
1000
MTEXTEND
1000
ACAD_MTEXT_DEFINED_HEIGHT_BEGIN
1070
    46
1040
6.000000000000012
1000
ACAD_MTEXT_DEFINED_HEIGHT_END
  0
MTEXT
  5
E889
330
1F
100
AcDbEntity
  8
AM_6
100
AcDbMText
 10
76.83047748296989
 20
28.99834981615778
 30
0.0
 40
3.2
 41
12.0
 71
     5
 72
     5
  1
24
 73
     1
 44
1.0
1001
ACAD
1000
MTEXTBEGIN
1070
    73
1070
     1
1070
    44
1040
1.0
1070
    74
1070
     0
1000
MTEXTEND
1000
ACAD_MTEXT_DEFINED_HEIGHT_BEGIN
1070
    46
1040
6.000000000000012
1000
ACAD_MTEXT_DEFINED_HEIGHT_END
  0
MTEXT
  5
E88A
330
1F
100
AcDbEntity
  8
AM_6
100
AcDbMText
 10
100.8304774829699
 20
28.99834981615778
 30
0.0
 40
3.2
 41
12.0
 71
     5
 72
     5
  1
9
 73
     1
 44
1.0
1001
ACAD
1000
MTEXTBEGIN
1070
    73
1070
     1
1070
    44
1040
1.0
1070
    74
1070
     0
1000
MTEXTEND
1000
ACAD_MTEXT_DEFINED_HEIGHT_BEGIN
1070
    46
1040
6.000000000000012
1000
ACAD_MTEXT_DEFINED_HEIGHT_END
  0
MTEXT
  5
E88C
330
1F
100
AcDbEntity
  8
AM_6
100
AcDbMText
 10
136.8304774829699
 20
28.99834981615778
 30
0.0
 40
3.2
 41
12.0
 71
     5
 72
     5
  1
10
 73
     1
 44
1.0
1001
ACAD
1000
MTEXTBEGIN
1070
    73
1070
     1
1070
    44
1040
1.0
1070
    74
1070
     0
1000
MTEXTEND
1000
ACAD_MTEXT_DEFINED_HEIGHT_BEGIN
1070
    46
1040
6.000000000000012
1000
ACAD_MTEXT_DEFINED_HEIGHT_END
  0
MTEXT
  5
E88D
330
1F
100
AcDbEntity
  8
AM_6
100
AcDbMText
 10
58.3304774829699
 20
22.99834981615778
 30
0.0
 40
3.2
 41
25.0
 71
     5
 72
     5
  1
K-26
 73
     1
 44
1.0
1001
ACAD
1000
MTEXTBEGIN
1070
    73
1070
     1
1070
    44
1040
1.0
1070
    74
1070
     0
1000
MTEXTEND
1000
ACAD_MTEXT_DEFINED_HEIGHT_BEGIN
1070
    46
1040
6.000000000000012
1000
ACAD_MTEXT_DEFINED_HEIGHT_END
  0
MTEXT
  5
E88E
330
1F
100
AcDbEntity
  8
AM_6
100
AcDbMText
 10
88.8304774829699
 20
22.99834981615778
 30
0.0
 40
3.2
 41
12.0
 71
     5
 72
     5
  1
20
 73
     1
 44
1.0
1001
ACAD
1000
MTEXTBEGIN
1070
    73
1070
     1
1070
    44
1040
1.0
1070
    74
1070
     0
1000
MTEXTEND
1000
ACAD_MTEXT_DEFINED_HEIGHT_BEGIN
1070
    46
1040
6.000000000000012
1000
ACAD_MTEXT_DEFINED_HEIGHT_END
  0
MTEXT
  5
E88F
330
1F
100
AcDbEntity
  8
AM_6
100
AcDbMText
 10
124.8304774829699
 20
22.99834981615778
 30
0.0
 40
3.2
 41
12.0
 71
     5
 72
     5
  1
10
 73
     1
 44
1.0
1001
ACAD
1000
MTEXTBEGIN
1070
    73
1070
     1
1070
    44
1040
1.0
1070
    74
1070
     0
1000
MTEXTEND
1000
ACAD_MTEXT_DEFINED_HEIGHT_BEGIN
1070
    46
1040
6.000000000000012
1000
ACAD_MTEXT_DEFINED_HEIGHT_END
  0
MTEXT
  5
E890
330
1F
100
AcDbEntity
  8
AM_6
100
AcDbMText
 10
112.8304774829699
 20
22.99834981615778
 30
0.0
 40
3.2
 41
12.0
 71
     5
 72
     5
  1
4
 73
     1
 44
1.0
1001
ACAD
1000
MTEXTBEGIN
1070
    73
1070
     1
1070
    44
1040
1.0
1070
    74
1070
     0
1000
MTEXTEND
1000
ACAD_MTEXT_DEFINED_HEIGHT_BEGIN
1070
    46
1040
6.000000000000012
1000
ACAD_MTEXT_DEFINED_HEIGHT_END
  0
MTEXT
  5
E892
330
1F
100
AcDbEntity
  8
AM_6
100
AcDbMText
 10
76.83047748296989
 20
22.99834981615778
 30
0.0
 40
3.2
 41
12.0
 71
     5
 72
     5
  1
26
 73
     1
 44
1.0
1001
ACAD
1000
MTEXTBEGIN
1070
    73
1070
     1
1070
    44
1040
1.0
1070
    74
1070
     0
1000
MTEXTEND
1000
ACAD_MTEXT_DEFINED_HEIGHT_BEGIN
1070
    46
1040
6.000000000000012
1000
ACAD_MTEXT_DEFINED_HEIGHT_END
  0
MTEXT
  5
E893
330
1F
100
AcDbEntity
  8
AM_6
100
AcDbMText
 10
100.8304774829699
 20
22.99834981615778
 30
0.0
 40
3.2
 41
12.0
 71
     5
 72
     5
  1
10
 73
     1
 44
1.0
1001
ACAD
1000
MTEXTBEGIN
1070
    73
1070
     1
1070
    44
1040
1.0
1070
    74
1070
     0
1000
MTEXTEND
1000
ACAD_MTEXT_DEFINED_HEIGHT_BEGIN
1070
    46
1040
6.000000000000012
1000
ACAD_MTEXT_DEFINED_HEIGHT_END
  0
MTEXT
  5
E895
330
1F
100
AcDbEntity
  8
AM_6
100
AcDbMText
 10
136.8304774829699
 20
22.99834981615778
 30
0.0
 40
3.2
 41
12.0
 71
     5
 72
     5
  1
15
 73
     1
 44
1.0
1001
ACAD
1000
MTEXTBEGIN
1070
    73
1070
     1
1070
    44
1040
1.0
1070
    74
1070
     0
1000
MTEXTEND
1000
ACAD_MTEXT_DEFINED_HEIGHT_BEGIN
1070
    46
1040
6.000000000000012
1000
ACAD_MTEXT_DEFINED_HEIGHT_END
  0
MTEXT
  5
E98D
330
1F
100
AcDbEntity
  8
AM_6
100
AcDbMText
 10
136.8304774829699
 20
34.99834981615778
 30
0.0
 40
3.2
 41
12.0
 71
     5
 72
     5
  1
20
 73
     1
 44
1.0
1001
ACAD
1000
MTEXTBEGIN
1070
    73
1070
     1
1070
    44
1040
1.0
1070
    74
1070
     0
1000
MTEXTEND
1000
ACAD_MTEXT_DEFINED_HEIGHT_BEGIN
1070
    46
1040
6.000000000000012
1000
ACAD_MTEXT_DEFINED_HEIGHT_END
  0
MTEXT
  5
E98F
330
1F
100
AcDbEntity
  8
AM_6
100
AcDbMText
 10
136.8304774829699
 20
40.99834981615773
 30
0.0
 40
3.2
 41
12.0
 71
     5
 72
     5
  1
14
 73
     1
 44
1.0
1001
ACAD
1000
MTEXTBEGIN
1070
    73
1070
     1
1070
    44
1040
1.0
1070
    74
1070
     0
1000
MTEXTEND
1000
ACAD_MTEXT_DEFINED_HEIGHT_BEGIN
1070
    46
1040
6.000000000000012
1000
ACAD_MTEXT_DEFINED_HEIGHT_END
  0
MTEXT
  5
E991
330
1F
100
AcDbEntity
  8
AM_6
100
AcDbMText
 10
136.8304774829699
 20
46.99834981615778
 30
0.0
 40
3.2
 41
12.0
 71
     5
 72
     5
  1
24
 73
     1
 44
1.0
1001
ACAD
1000
MTEXTBEGIN
1070
    73
1070
     1
1070
    44
1040
1.0
1070
    74
1070
     0
1000
MTEXTEND
1000
ACAD_MTEXT_DEFINED_HEIGHT_BEGIN
1070
    46
1040
6.000000000000012
1000
ACAD_MTEXT_DEFINED_HEIGHT_END
  0
LINE
  5
E9E2
330
1F
100
AcDbEntity
  8
AM_0
100
AcDbLine
 10
156.4587409302899
 20
104.9983498161577
 30
0.0
 11
253.4587409302899
 21
104.9983498161578
 31
0.0
  0
LINE
  5
E9E3
330
1F
100
AcDbEntity
  8
AM_0
100
AcDbLine
 10
156.4587409302899
 20
104.9983498161577
 30
0.0
 11
156.4587409302899
 21
19.99834981615777
 31
0.0
  0
LINE
  5
E9E4
330
1F
100
AcDbEntity
  8
AM_0
100
AcDbLine
 10
156.4587409302899
 20
97.99834981615777
 30
0.0
 11
253.4587409302899
 21
97.99834981615777
 31
0.0
  0
LINE
  5
E9E5
330
1F
100
AcDbEntity
  8
AM_2
100
AcDbLine
 10
156.4587409302899
 20
91.99834981615778
 30
0.0
 11
253.4587409302899
 21
91.99834981615779
 31
0.0
  0
MTEXT
  5
E9E6
330
1F
100
AcDbEntity
  8
AM_6
100
AcDbMText
 10
168.9587409302899
 20
101.4983498161577
 30
0.0
 40
3.2
 41
25.0
 71
     5
 72
     5
  1
品　番
 73
     1
 44
1.0
1001
ACAD
1000
MTEXTBEGIN
1070
    73
1070
     1
1070
    44
1040
1.0
1070
    74
1070
     0
1000
MTEXTEND
  0
MTEXT
  5
E9E7
330
1F
100
AcDbEntity
  8
AM_6
100
AcDbMText
 10
168.9587409302899
 20
94.99834981615776
 30
0.0
 40
3.2
 41
25.0
 71
     5
 72
     5
  1
K-28
 73
     1
 44
1.0
1001
ACAD
1000
MTEXTBEGIN
1070
    73
1070
     1
1070
    44
1040
1.0
1070
    74
1070
     0
1000
MTEXTEND
1000
ACAD_MTEXT_DEFINED_HEIGHT_BEGIN
1070
    46
1040
6.000000000000012
1000
ACAD_MTEXT_DEFINED_HEIGHT_END
  0
LINE
  5
E9E8
330
1F
100
AcDbEntity
  8
AM_0
100
AcDbLine
 10
181.4587409302898
 20
104.9983498161577
 30
0.0
 11
181.4587409302898
 21
19.99834981615778
 31
0.0
  0
LINE
  5
E9E9
330
1F
100
AcDbEntity
  8
AM_0
100
AcDbLine
 10
193.4587409302898
 20
104.9983498161577
 30
0.0
 11
193.4587409302898
 21
19.99834981615778
 31
0.0
  0
MTEXT
  5
E9EA
330
1F
100
AcDbEntity
  8
AM_6
100
AcDbMText
 10
199.4587409302899
 20
94.99834981615776
 30
0.0
 40
3.2
 41
12.0
 71
     5
 72
     5
  1
22
 73
     1
 44
1.0
1001
ACAD
1000
MTEXTBEGIN
1070
    73
1070
     1
1070
    44
1040
1.0
1070
    74
1070
     0
1000
MTEXTEND
1000
ACAD_MTEXT_DEFINED_HEIGHT_BEGIN
1070
    46
1040
6.000000000000012
1000
ACAD_MTEXT_DEFINED_HEIGHT_END
  0
MTEXT
  5
E9EB
330
1F
100
AcDbEntity
  8
AM_6
100
AcDbMText
 10
187.4587409302899
 20
101.4983498161577
 30
0.0
 40
3.2
 41
12.0
 71
     5
 72
     5
  1
%%CA
 73
     1
 44
1.0
1001
ACAD
1000
MTEXTBEGIN
1070
    73
1070
     1
1070
    44
1040
1.0
1070
    74
1070
     0
1000
MTEXTEND
  0
LINE
  5
E9EC
330
1F
100
AcDbEntity
  8
AM_0
100
AcDbLine
 10
205.4587409302899
 20
104.9983498161577
 30
0.0
 11
205.4587409302899
 21
19.99834981615778
 31
0.0
  0
MTEXT
  5
E9ED
330
1F
100
AcDbEntity
  8
AM_6
100
AcDbMText
 10
199.4587409302899
 20
101.4983498161577
 30
0.0
 40
3.2
 41
12.0
 71
     5
 72
     5
  1
%%CB
 73
     1
 44
1.0
1001
ACAD
1000
MTEXTBEGIN
1070
    73
1070
     1
1070
    44
1040
1.0
1070
    74
1070
     0
1000
MTEXTEND
  0
LINE
  5
E9EE
330
1F
100
AcDbEntity
  8
AM_0
100
AcDbLine
 10
217.4587409302899
 20
104.9983498161577
 30
0.0
 11
217.4587409302899
 21
19.99834981615778
 31
0.0
  0
MTEXT
  5
E9EF
330
1F
100
AcDbEntity
  8
AM_6
100
AcDbMText
 10
211.4587409302899
 20
101.4983498161577
 30
0.0
 40
3.2
 41
12.0
 71
     5
 72
     5
  1
%%CC
 73
     1
 44
1.0
1001
ACAD
1000
MTEXTBEGIN
1070
    73
1070
     1
1070
    44
1040
1.0
1070
    74
1070
     0
1000
MTEXTEND
  0
LINE
  5
E9F0
330
1F
100
AcDbEntity
  8
AM_0
100
AcDbLine
 10
229.4587409302899
 20
104.9983498161577
 30
0.0
 11
229.4587409302899
 21
19.99834981615778
 31
0.0
  0
MTEXT
  5
E9F1
330
1F
100
AcDbEntity
  8
AM_6
100
AcDbMText
 10
235.4587409302899
 20
94.99834981615776
 30
0.0
 40
3.2
 41
12.0
 71
     5
 72
     5
  1
11
 73
     1
 44
1.0
1001
ACAD
1000
MTEXTBEGIN
1070
    73
1070
     1
1070
    44
1040
1.0
1070
    74
1070
     0
1000
MTEXTEND
1000
ACAD_MTEXT_DEFINED_HEIGHT_BEGIN
1070
    46
1040
6.000000000000012
1000
ACAD_MTEXT_DEFINED_HEIGHT_END
  0
MTEXT
  5
E9F2
330
1F
100
AcDbEntity
  8
AM_6
100
AcDbMText
 10
223.4587409302899
 20
101.4983498161577
 30
0.0
 40
3.2
 41
12.0
 71
     5
 72
     5
  1
%%CD
 73
     1
 44
1.0
1001
ACAD
1000
MTEXTBEGIN
1070
    73
1070
     1
1070
    44
1040
1.0
1070
    74
1070
     0
1000
MTEXTEND
  0
LINE
  5
E9F3
330
1F
100
AcDbEntity
  8
AM_0
100
AcDbLine
 10
241.4587409302899
 20
104.9983498161577
 30
0.0
 11
241.4587409302899
 21
19.99834981615777
 31
0.0
  0
MTEXT
  5
E9F4
330
1F
100
AcDbEntity
  8
AM_6
100
AcDbMText
 10
223.4587409302899
 20
94.99834981615776
 30
0.0
 40
3.2
 41
12.0
 71
     5
 72
     5
  1
4
 73
     1
 44
1.0
1001
ACAD
1000
MTEXTBEGIN
1070
    73
1070
     1
1070
    44
1040
1.0
1070
    74
1070
     0
1000
MTEXTEND
1000
ACAD_MTEXT_DEFINED_HEIGHT_BEGIN
1070
    46
1040
6.000000000000012
1000
ACAD_MTEXT_DEFINED_HEIGHT_END
  0
MTEXT
  5
E9F5
330
1F
100
AcDbEntity
  8
AM_6
100
AcDbMText
 10
235.4587409302899
 20
101.4983498161577
 30
0.0
 40
3.2
 41
12.0
 71
     5
 72
     5
  1
E
 73
     1
 44
1.0
1001
ACAD
1000
MTEXTBEGIN
1070
    73
1070
     1
1070
    44
1040
1.0
1070
    74
1070
     0
1000
MTEXTEND
  0
LINE
  5
E9F6
330
1F
100
AcDbEntity
  8
AM_2
100
AcDbLine
 10
156.4587409302899
 20
85.99834981615776
 30
0.0
 11
253.4587409302899
 21
85.99834981615774
 31
0.0
  0
LINE
  5
E9F7
330
1F
100
AcDbEntity
  8
AM_2
100
AcDbLine
 10
156.4587409302899
 20
79.99834981615776
 30
0.0
 11
253.4587409302899
 21
79.99834981615776
 31
0.0
  0
LINE
  5
E9F8
330
1F
100
AcDbEntity
  8
AM_2
100
AcDbLine
 10
156.4587409302899
 20
73.99834981615777
 30
0.0
 11
181.4587409302898
 21
73.99834981615779
 31
0.0
  0
LINE
  5
E9F9
330
1F
100
AcDbEntity
  8
AM_2
100
AcDbLine
 10
156.4587409302899
 20
67.99834981615777
 30
0.0
 11
181.4587409302898
 21
67.99834981615778
 31
0.0
  0
LINE
  5
E9FA
330
1F
100
AcDbEntity
  8
AM_2
100
AcDbLine
 10
156.4587409302899
 20
61.99834981615777
 30
0.0
 11
253.4587409302899
 21
61.99834981615779
 31
0.0
  0
LINE
  5
E9FB
330
1F
100
AcDbEntity
  8
AM_2
100
AcDbLine
 10
156.4587409302899
 20
55.99834981615778
 30
0.0
 11
253.4587409302899
 21
55.99834981615778
 31
0.0
  0
LINE
  5
E9FC
330
1F
100
AcDbEntity
  8
AM_2
100
AcDbLine
 10
156.4587409302899
 20
49.99834981615777
 30
0.0
 11
181.4587409302898
 21
49.99834981615779
 31
0.0
  0
LINE
  5
E9FD
330
1F
100
AcDbEntity
  8
AM_2
100
AcDbLine
 10
156.4587409302899
 20
43.99834981615778
 30
0.0
 11
253.4587409302899
 21
43.9983498161578
 31
0.0
  0
LINE
  5
E9FE
330
1F
100
AcDbEntity
  8
AM_0
100
AcDbLine
 10
253.4587409302899
 20
104.9983498161577
 30
0.0
 11
253.4587409302899
 21
19.99834981615777
 31
0.0
  0
MTEXT
  5
E9FF
330
1F
100
AcDbEntity
  8
AM_6
100
AcDbMText
 10
247.4587409302899
 20
101.4983498161577
 30
0.0
 40
3.2
 41
12.0
 71
     5
 72
     5
  1
H
 73
     1
 44
1.0
1001
ACAD
1000
MTEXTBEGIN
1070
    73
1070
     1
1070
    44
1040
1.0
1070
    74
1070
     0
1000
MTEXTEND
  0
MTEXT
  5
EA00
330
1F
100
AcDbEntity
  8
AM_6
100
AcDbMText
 10
187.4587409302899
 20
94.99834981615776
 30
0.0
 40
3.2
 41
12.0
 71
     5
 72
     5
  1
28
 73
     1
 44
1.0
1001
ACAD
1000
MTEXTBEGIN
1070
    73
1070
     1
1070
    44
1040
1.0
1070
    74
1070
     0
1000
MTEXTEND
1000
ACAD_MTEXT_DEFINED_HEIGHT_BEGIN
1070
    46
1040
6.000000000000012
1000
ACAD_MTEXT_DEFINED_HEIGHT_END
  0
MTEXT
  5
EA01
330
1F
100
AcDbEntity
  8
AM_6
100
AcDbMText
 10
211.4587409302899
 20
94.99834981615776
 30
0.0
 40
3.2
 41
12.0
 71
     5
 72
     5
  1
12
 73
     1
 44
1.0
1001
ACAD
1000
MTEXTBEGIN
1070
    73
1070
     1
1070
    44
1040
1.0
1070
    74
1070
     0
1000
MTEXTEND
1000
ACAD_MTEXT_DEFINED_HEIGHT_BEGIN
1070
    46
1040
6.000000000000012
1000
ACAD_MTEXT_DEFINED_HEIGHT_END
  0
MTEXT
  5
EA02
330
1F
100
AcDbEntity
  8
AM_6
100
AcDbMText
 10
247.4587409302899
 20
94.99834981615776
 30
0.0
 40
3.2
 41
12.0
 71
     5
 72
     5
  1
18
 73
     1
 44
1.0
1001
ACAD
1000
MTEXTBEGIN
1070
    73
1070
     1
1070
    44
1040
1.0
1070
    74
1070
     0
1000
MTEXTEND
1000
ACAD_MTEXT_DEFINED_HEIGHT_BEGIN
1070
    46
1040
6.000000000000012
1000
ACAD_MTEXT_DEFINED_HEIGHT_END
  0
LINE
  5
EA03
330
1F
100
AcDbEntity
  8
AM_2
100
AcDbLine
 10
156.4587409302899
 20
37.99834981615778
 30
0.0
 11
253.4587409302899
 21
37.99834981615774
 31
0.0
  0
LINE
  5
EA04
330
1F
100
AcDbEntity
  8
AM_2
100
AcDbLine
 10
156.4587409302899
 20
31.99834981615778
 30
0.0
 11
253.4587409302899
 21
31.99834981615778
 31
0.0
  0
LINE
  5
EA05
330
1F
100
AcDbEntity
  8
AM_2
100
AcDbLine
 10
156.4587409302899
 20
25.99834981615778
 30
0.0
 11
253.4587409302899
 21
25.99834981615781
 31
0.0
  0
LINE
  5
EA06
330
1F
100
AcDbEntity
  8
AM_0
100
AcDbLine
 10
156.4587409302899
 20
19.99834981615778
 30
0.0
 11
253.4587409302899
 21
19.99834981615778
 31
0.0
  0
MTEXT
  5
EA07
330
1F
100
AcDbEntity
  8
AM_6
100
AcDbMText
 10
168.9587409302899
 20
88.99834981615777
 30
0.0
 40
3.2
 41
25.0
 71
     5
 72
     5
  1
K-29
 73
     1
 44
1.0
1001
ACAD
1000
MTEXTBEGIN
1070
    73
1070
     1
1070
    44
1040
1.0
1070
    74
1070
     0
1000
MTEXTEND
1000
ACAD_MTEXT_DEFINED_HEIGHT_BEGIN
1070
    46
1040
6.000000000000012
1000
ACAD_MTEXT_DEFINED_HEIGHT_END
  0
MTEXT
  5
EA08
330
1F
100
AcDbEntity
  8
AM_6
100
AcDbMText
 10
199.4587409302899
 20
88.99834981615777
 30
0.0
 40
3.2
 41
12.0
 71
     5
 72
     5
  1
24
 73
     1
 44
1.0
1001
ACAD
1000
MTEXTBEGIN
1070
    73
1070
     1
1070
    44
1040
1.0
1070
    74
1070
     0
1000
MTEXTEND
1000
ACAD_MTEXT_DEFINED_HEIGHT_BEGIN
1070
    46
1040
6.000000000000012
1000
ACAD_MTEXT_DEFINED_HEIGHT_END
  0
MTEXT
  5
EA09
330
1F
100
AcDbEntity
  8
AM_6
100
AcDbMText
 10
235.4587409302899
 20
88.99834981615777
 30
0.0
 40
3.2
 41
12.0
 71
     5
 72
     5
  1
10
 73
     1
 44
1.0
1001
ACAD
1000
MTEXTBEGIN
1070
    73
1070
     1
1070
    44
1040
1.0
1070
    74
1070
     0
1000
MTEXTEND
1000
ACAD_MTEXT_DEFINED_HEIGHT_BEGIN
1070
    46
1040
6.000000000000012
1000
ACAD_MTEXT_DEFINED_HEIGHT_END
  0
MTEXT
  5
EA0A
330
1F
100
AcDbEntity
  8
AM_6
100
AcDbMText
 10
223.4587409302899
 20
88.99834981615777
 30
0.0
 40
3.2
 41
12.0
 71
     5
 72
     5
  1
4
 73
     1
 44
1.0
1001
ACAD
1000
MTEXTBEGIN
1070
    73
1070
     1
1070
    44
1040
1.0
1070
    74
1070
     0
1000
MTEXTEND
1000
ACAD_MTEXT_DEFINED_HEIGHT_BEGIN
1070
    46
1040
6.000000000000012
1000
ACAD_MTEXT_DEFINED_HEIGHT_END
  0
MTEXT
  5
EA0B
330
1F
100
AcDbEntity
  8
AM_6
100
AcDbMText
 10
187.4587409302899
 20
88.99834981615777
 30
0.0
 40
3.2
 41
12.0
 71
     5
 72
     5
  1
29
 73
     1
 44
1.0
1001
ACAD
1000
MTEXTBEGIN
1070
    73
1070
     1
1070
    44
1040
1.0
1070
    74
1070
     0
1000
MTEXTEND
1000
ACAD_MTEXT_DEFINED_HEIGHT_BEGIN
1070
    46
1040
6.000000000000012
1000
ACAD_MTEXT_DEFINED_HEIGHT_END
  0
MTEXT
  5
EA0C
330
1F
100
AcDbEntity
  8
AM_6
100
AcDbMText
 10
211.4587409302899
 20
88.99834981615777
 30
0.0
 40
3.2
 41
12.0
 71
     5
 72
     5
  1
14
 73
     1
 44
1.0
1001
ACAD
1000
MTEXTBEGIN
1070
    73
1070
     1
1070
    44
1040
1.0
1070
    74
1070
     0
1000
MTEXTEND
1000
ACAD_MTEXT_DEFINED_HEIGHT_BEGIN
1070
    46
1040
6.000000000000012
1000
ACAD_MTEXT_DEFINED_HEIGHT_END
  0
MTEXT
  5
EA0D
330
1F
100
AcDbEntity
  8
AM_6
100
AcDbMText
 10
247.4587409302899
 20
88.99834981615777
 30
0.0
 40
3.2
 41
12.0
 71
     5
 72
     5
  1
15
 73
     1
 44
1.0
1001
ACAD
1000
MTEXTBEGIN
1070
    73
1070
     1
1070
    44
1040
1.0
1070
    74
1070
     0
1000
MTEXTEND
1000
ACAD_MTEXT_DEFINED_HEIGHT_BEGIN
1070
    46
1040
6.000000000000012
1000
ACAD_MTEXT_DEFINED_HEIGHT_END
  0
MTEXT
  5
EA0E
330
1F
100
AcDbEntity
  8
AM_6
100
AcDbMText
 10
168.9587409302899
 20
82.99834981615777
 30
0.0
 40
3.2
 41
25.0
 71
     5
 72
     5
  1
K-30
 73
     1
 44
1.0
1001
ACAD
1000
MTEXTBEGIN
1070
    73
1070
     1
1070
    44
1040
1.0
1070
    74
1070
     0
1000
MTEXTEND
1000
ACAD_MTEXT_DEFINED_HEIGHT_BEGIN
1070
    46
1040
6.000000000000012
1000
ACAD_MTEXT_DEFINED_HEIGHT_END
  0
MTEXT
  5
EA0F
330
1F
100
AcDbEntity
  8
AM_6
100
AcDbMText
 10
199.4587409302899
 20
82.99834981615777
 30
0.0
 40
3.2
 41
12.0
 71
     5
 72
     5
  1
24
 73
     1
 44
1.0
1001
ACAD
1000
MTEXTBEGIN
1070
    73
1070
     1
1070
    44
1040
1.0
1070
    74
1070
     0
1000
MTEXTEND
1000
ACAD_MTEXT_DEFINED_HEIGHT_BEGIN
1070
    46
1040
6.000000000000012
1000
ACAD_MTEXT_DEFINED_HEIGHT_END
  0
MTEXT
  5
EA10
330
1F
100
AcDbEntity
  8
AM_6
100
AcDbMText
 10
235.4587409302899
 20
82.99834981615777
 30
0.0
 40
3.2
 41
12.0
 71
     5
 72
     5
  1
10
 73
     1
 44
1.0
1001
ACAD
1000
MTEXTBEGIN
1070
    73
1070
     1
1070
    44
1040
1.0
1070
    74
1070
     0
1000
MTEXTEND
1000
ACAD_MTEXT_DEFINED_HEIGHT_BEGIN
1070
    46
1040
6.000000000000012
1000
ACAD_MTEXT_DEFINED_HEIGHT_END
  0
MTEXT
  5
EA11
330
1F
100
AcDbEntity
  8
AM_6
100
AcDbMText
 10
223.4587409302899
 20
82.99834981615777
 30
0.0
 40
3.2
 41
12.0
 71
     5
 72
     5
  1
4
 73
     1
 44
1.0
1001
ACAD
1000
MTEXTBEGIN
1070
    73
1070
     1
1070
    44
1040
1.0
1070
    74
1070
     0
1000
MTEXTEND
1000
ACAD_MTEXT_DEFINED_HEIGHT_BEGIN
1070
    46
1040
6.000000000000012
1000
ACAD_MTEXT_DEFINED_HEIGHT_END
  0
MTEXT
  5
EA12
330
1F
100
AcDbEntity
  8
AM_6
100
AcDbMText
 10
187.4587409302899
 20
82.99834981615777
 30
0.0
 40
3.2
 41
12.0
 71
     5
 72
     5
  1
30
 73
     1
 44
1.0
1001
ACAD
1000
MTEXTBEGIN
1070
    73
1070
     1
1070
    44
1040
1.0
1070
    74
1070
     0
1000
MTEXTEND
1000
ACAD_MTEXT_DEFINED_HEIGHT_BEGIN
1070
    46
1040
6.000000000000012
1000
ACAD_MTEXT_DEFINED_HEIGHT_END
  0
MTEXT
  5
EA13
330
1F
100
AcDbEntity
  8
AM_6
100
AcDbMText
 10
211.4587409302899
 20
82.99834981615777
 30
0.0
 40
3.2
 41
12.0
 71
     5
 72
     5
  1
14
 73
     1
 44
1.0
1001
ACAD
1000
MTEXTBEGIN
1070
    73
1070
     1
1070
    44
1040
1.0
1070
    74
1070
     0
1000
MTEXTEND
1000
ACAD_MTEXT_DEFINED_HEIGHT_BEGIN
1070
    46
1040
6.000000000000012
1000
ACAD_MTEXT_DEFINED_HEIGHT_END
  0
MTEXT
  5
EA14
330
1F
100
AcDbEntity
  8
AM_6
100
AcDbMText
 10
247.4587409302899
 20
82.99834981615777
 30
0.0
 40
3.2
 41
12.0
 71
     5
 72
     5
  1
19
 73
     1
 44
1.0
1001
ACAD
1000
MTEXTBEGIN
1070
    73
1070
     1
1070
    44
1040
1.0
1070
    74
1070
     0
1000
MTEXTEND
1000
ACAD_MTEXT_DEFINED_HEIGHT_BEGIN
1070
    46
1040
6.000000000000012
1000
ACAD_MTEXT_DEFINED_HEIGHT_END
  0
MTEXT
  5
EA15
330
1F
100
AcDbEntity
  8
AM_6
100
AcDbMText
 10
168.9587409302899
 20
76.99834981615777
 30
0.0
 40
3.2
 41
25.0
 71
     5
 72
     5
  1
K-3215
 73
     1
 44
1.0
1001
ACAD
1000
MTEXTBEGIN
1070
    73
1070
     1
1070
    44
1040
1.0
1070
    74
1070
     0
1000
MTEXTEND
1000
ACAD_MTEXT_DEFINED_HEIGHT_BEGIN
1070
    46
1040
6.000000000000012
1000
ACAD_MTEXT_DEFINED_HEIGHT_END
  0
MTEXT
  5
EA16
330
1F
100
AcDbEntity
  8
AM_6
100
AcDbMText
 10
199.4587409302899
 20
76.99834981615777
 30
0.0
 40
3.2
 41
12.0
 71
     5
 72
     5
  1
28
 73
     1
 44
1.0
1001
ACAD
1000
MTEXTBEGIN
1070
    73
1070
     1
1070
    44
1040
1.0
1070
    74
1070
     0
1000
MTEXTEND
1000
ACAD_MTEXT_DEFINED_HEIGHT_BEGIN
1070
    46
1040
6.000000000000012
1000
ACAD_MTEXT_DEFINED_HEIGHT_END
  0
MTEXT
  5
EA17
330
1F
100
AcDbEntity
  8
AM_6
100
AcDbMText
 10
235.4587409302899
 20
76.99834981615777
 30
0.0
 40
3.2
 41
12.0
 71
     5
 72
     5
  1
5
 73
     1
 44
1.0
1001
ACAD
1000
MTEXTBEGIN
1070
    73
1070
     1
1070
    44
1040
1.0
1070
    74
1070
     0
1000
MTEXTEND
1000
ACAD_MTEXT_DEFINED_HEIGHT_BEGIN
1070
    46
1040
6.000000000000012
1000
ACAD_MTEXT_DEFINED_HEIGHT_END
  0
MTEXT
  5
EA1A
330
1F
100
AcDbEntity
  8
AM_6
100
AcDbMText
 10
211.4587409302899
 20
76.99834981615777
 30
0.0
 40
3.2
 41
12.0
 71
     5
 72
     5
  1
14
 73
     1
 44
1.0
1001
ACAD
1000
MTEXTBEGIN
1070
    73
1070
     1
1070
    44
1040
1.0
1070
    74
1070
     0
1000
MTEXTEND
1000
ACAD_MTEXT_DEFINED_HEIGHT_BEGIN
1070
    46
1040
6.000000000000012
1000
ACAD_MTEXT_DEFINED_HEIGHT_END
  0
MTEXT
  5
EA1B
330
1F
100
AcDbEntity
  8
AM_6
100
AcDbMText
 10
247.4587409302899
 20
76.99834981615777
 30
0.0
 40
3.2
 41
12.0
 71
     5
 72
     5
  1
15
 73
     1
 44
1.0
1001
ACAD
1000
MTEXTBEGIN
1070
    73
1070
     1
1070
    44
1040
1.0
1070
    74
1070
     0
1000
MTEXTEND
1000
ACAD_MTEXT_DEFINED_HEIGHT_BEGIN
1070
    46
1040
6.000000000000012
1000
ACAD_MTEXT_DEFINED_HEIGHT_END
  0
MTEXT
  5
EA1C
330
1F
100
AcDbEntity
  8
AM_6
100
AcDbMText
 10
168.9587409302899
 20
70.99834981615777
 30
0.0
 40
3.2
 41
25.0
 71
     5
 72
     5
  1
K-3220
 73
     1
 44
1.0
1001
ACAD
1000
MTEXTBEGIN
1070
    73
1070
     1
1070
    44
1040
1.0
1070
    74
1070
     0
1000
MTEXTEND
1000
ACAD_MTEXT_DEFINED_HEIGHT_BEGIN
1070
    46
1040
6.000000000000012
1000
ACAD_MTEXT_DEFINED_HEIGHT_END
  0
MTEXT
  5
EA1D
330
1F
100
AcDbEntity
  8
AM_6
100
AcDbMText
 10
199.4587409302899
 20
70.99834981615777
 30
0.0
 40
3.2
 41
12.0
 71
     5
 72
     5
  1
26
 73
     1
 44
1.0
1001
ACAD
1000
MTEXTBEGIN
1070
    73
1070
     1
1070
    44
1040
1.0
1070
    74
1070
     0
1000
MTEXTEND
1000
ACAD_MTEXT_DEFINED_HEIGHT_BEGIN
1070
    46
1040
6.000000000000012
1000
ACAD_MTEXT_DEFINED_HEIGHT_END
  0
MTEXT
  5
EA1E
330
1F
100
AcDbEntity
  8
AM_6
100
AcDbMText
 10
235.4587409302899
 20
70.99834981615777
 30
0.0
 40
3.2
 41
12.0
 71
     5
 72
     5
  1
10
 73
     1
 44
1.0
1001
ACAD
1000
MTEXTBEGIN
1070
    73
1070
     1
1070
    44
1040
1.0
1070
    74
1070
     0
1000
MTEXTEND
1000
ACAD_MTEXT_DEFINED_HEIGHT_BEGIN
1070
    46
1040
6.000000000000012
1000
ACAD_MTEXT_DEFINED_HEIGHT_END
  0
MTEXT
  5
EA1F
330
1F
100
AcDbEntity
  8
AM_6
100
AcDbMText
 10
223.4587409302899
 20
71.24834981615776
 30
0.0
 40
3.2
 41
12.0
 71
     5
 72
     5
  1
5
 73
     1
 44
1.0
1001
ACAD
1000
MTEXTBEGIN
1070
    73
1070
     1
1070
    44
1040
1.0
1070
    74
1070
     0
1000
MTEXTEND
1000
ACAD_MTEXT_DEFINED_HEIGHT_BEGIN
1070
    46
1040
17.5
1000
ACAD_MTEXT_DEFINED_HEIGHT_END
  0
MTEXT
  5
EA20
330
1F
100
AcDbEntity
  8
AM_6
100
AcDbMText
 10
187.4587409302899
 20
70.99834981615778
 30
0.0
 40
3.2
 41
12.0
 71
     5
 72
     5
  1
32
 73
     1
 44
1.0
1001
ACAD
1000
MTEXTBEGIN
1070
    73
1070
     1
1070
    44
1040
1.0
1070
    74
1070
     0
1000
MTEXTEND
1000
ACAD_MTEXT_DEFINED_HEIGHT_BEGIN
1070
    46
1040
17.99999999999998
1000
ACAD_MTEXT_DEFINED_HEIGHT_END
  0
MTEXT
  5
EA21
330
1F
100
AcDbEntity
  8
AM_6
100
AcDbMText
 10
211.4587409302899
 20
70.99834981615777
 30
0.0
 40
3.2
 41
12.0
 71
     5
 72
     5
  1
15
 73
     1
 44
1.0
1001
ACAD
1000
MTEXTBEGIN
1070
    73
1070
     1
1070
    44
1040
1.0
1070
    74
1070
     0
1000
MTEXTEND
1000
ACAD_MTEXT_DEFINED_HEIGHT_BEGIN
1070
    46
1040
6.000000000000012
1000
ACAD_MTEXT_DEFINED_HEIGHT_END
  0
MTEXT
  5
EA22
330
1F
100
AcDbEntity
  8
AM_6
100
AcDbMText
 10
247.4587409302899
 20
70.99834981615777
 30
0.0
 40
3.2
 41
12.0
 71
     5
 72
     5
  1
20
 73
     1
 44
1.0
1001
ACAD
1000
MTEXTBEGIN
1070
    73
1070
     1
1070
    44
1040
1.0
1070
    74
1070
     0
1000
MTEXTEND
1000
ACAD_MTEXT_DEFINED_HEIGHT_BEGIN
1070
    46
1040
6.000000000000012
1000
ACAD_MTEXT_DEFINED_HEIGHT_END
  0
MTEXT
  5
EA23
330
1F
100
AcDbEntity
  8
AM_6
100
AcDbMText
 10
168.9587409302899
 20
64.99834981615776
 30
0.0
 40
3.2
 41
25.0
 71
     5
 72
     5
  1
K-3225
 73
     1
 44
1.0
1001
ACAD
1000
MTEXTBEGIN
1070
    73
1070
     1
1070
    44
1040
1.0
1070
    74
1070
     0
1000
MTEXTEND
1000
ACAD_MTEXT_DEFINED_HEIGHT_BEGIN
1070
    46
1040
6.000000000000012
1000
ACAD_MTEXT_DEFINED_HEIGHT_END
  0
MTEXT
  5
EA24
330
1F
100
AcDbEntity
  8
AM_6
100
AcDbMText
 10
199.4587409302899
 20
64.99834981615776
 30
0.0
 40
3.2
 41
12.0
 71
     5
 72
     5
  1
28
 73
     1
 44
1.0
1001
ACAD
1000
MTEXTBEGIN
1070
    73
1070
     1
1070
    44
1040
1.0
1070
    74
1070
     0
1000
MTEXTEND
1000
ACAD_MTEXT_DEFINED_HEIGHT_BEGIN
1070
    46
1040
6.000000000000012
1000
ACAD_MTEXT_DEFINED_HEIGHT_END
  0
MTEXT
  5
EA25
330
1F
100
AcDbEntity
  8
AM_6
100
AcDbMText
 10
235.4587409302899
 20
64.99834981615776
 30
0.0
 40
3.2
 41
12.0
 71
     5
 72
     5
  1
9
 73
     1
 44
1.0
1001
ACAD
1000
MTEXTBEGIN
1070
    73
1070
     1
1070
    44
1040
1.0
1070
    74
1070
     0
1000
MTEXTEND
1000
ACAD_MTEXT_DEFINED_HEIGHT_BEGIN
1070
    46
1040
6.000000000000012
1000
ACAD_MTEXT_DEFINED_HEIGHT_END
  0
MTEXT
  5
EA28
330
1F
100
AcDbEntity
  8
AM_6
100
AcDbMText
 10
211.4587409302899
 20
64.99834981615776
 30
0.0
 40
3.2
 41
12.0
 71
     5
 72
     5
  1
14
 73
     1
 44
1.0
1001
ACAD
1000
MTEXTBEGIN
1070
    73
1070
     1
1070
    44
1040
1.0
1070
    74
1070
     0
1000
MTEXTEND
1000
ACAD_MTEXT_DEFINED_HEIGHT_BEGIN
1070
    46
1040
6.000000000000012
1000
ACAD_MTEXT_DEFINED_HEIGHT_END
  0
MTEXT
  5
EA29
330
1F
100
AcDbEntity
  8
AM_6
100
AcDbMText
 10
247.4587409302899
 20
64.99834981615776
 30
0.0
 40
3.2
 41
12.0
 71
     5
 72
     5
  1
25
 73
     1
 44
1.0
1001
ACAD
1000
MTEXTBEGIN
1070
    73
1070
     1
1070
    44
1040
1.0
1070
    74
1070
     0
1000
MTEXTEND
1000
ACAD_MTEXT_DEFINED_HEIGHT_BEGIN
1070
    46
1040
6.000000000000012
1000
ACAD_MTEXT_DEFINED_HEIGHT_END
  0
MTEXT
  5
EA2A
330
1F
100
AcDbEntity
  8
AM_6
100
AcDbMText
 10
168.9587409302899
 20
58.99834981615777
 30
0.0
 40
3.2
 41
25.0
 71
     5
 72
     5
  1
K-34
 73
     1
 44
1.0
1001
ACAD
1000
MTEXTBEGIN
1070
    73
1070
     1
1070
    44
1040
1.0
1070
    74
1070
     0
1000
MTEXTEND
1000
ACAD_MTEXT_DEFINED_HEIGHT_BEGIN
1070
    46
1040
6.000000000000012
1000
ACAD_MTEXT_DEFINED_HEIGHT_END
  0
MTEXT
  5
EA2B
330
1F
100
AcDbEntity
  8
AM_6
100
AcDbMText
 10
199.4587409302899
 20
58.99834981615777
 30
0.0
 40
3.2
 41
12.0
 71
     5
 72
     5
  1
27
 73
     1
 44
1.0
1001
ACAD
1000
MTEXTBEGIN
1070
    73
1070
     1
1070
    44
1040
1.0
1070
    74
1070
     0
1000
MTEXTEND
1000
ACAD_MTEXT_DEFINED_HEIGHT_BEGIN
1070
    46
1040
6.000000000000012
1000
ACAD_MTEXT_DEFINED_HEIGHT_END
  0
MTEXT
  5
EA2C
330
1F
100
AcDbEntity
  8
AM_6
100
AcDbMText
 10
235.4587409302899
 20
58.99834981615777
 30
0.0
 40
3.2
 41
12.0
 71
     5
 72
     5
  1
2.3
 73
     1
 44
1.0
1001
ACAD
1000
MTEXTBEGIN
1070
    73
1070
     1
1070
    44
1040
1.0
1070
    74
1070
     0
1000
MTEXTEND
1000
ACAD_MTEXT_DEFINED_HEIGHT_BEGIN
1070
    46
1040
6.000000000000012
1000
ACAD_MTEXT_DEFINED_HEIGHT_END
  0
MTEXT
  5
EA2D
330
1F
100
AcDbEntity
  8
AM_6
100
AcDbMText
 10
223.4587409302899
 20
58.99834981615777
 30
0.0
 40
3.2
 41
12.0
 71
     5
 72
     5
  1
5
 73
     1
 44
1.0
1001
ACAD
1000
MTEXTBEGIN
1070
    73
1070
     1
1070
    44
1040
1.0
1070
    74
1070
     0
1000
MTEXTEND
1000
ACAD_MTEXT_DEFINED_HEIGHT_BEGIN
1070
    46
1040
6.000000000000012
1000
ACAD_MTEXT_DEFINED_HEIGHT_END
  0
MTEXT
  5
EA2E
330
1F
100
AcDbEntity
  8
AM_6
100
AcDbMText
 10
187.4587409302899
 20
58.99834981615777
 30
0.0
 40
3.2
 41
12.0
 71
     5
 72
     5
  1
34
 73
     1
 44
1.0
1001
ACAD
1000
MTEXTBEGIN
1070
    73
1070
     1
1070
    44
1040
1.0
1070
    74
1070
     0
1000
MTEXTEND
1000
ACAD_MTEXT_DEFINED_HEIGHT_BEGIN
1070
    46
1040
6.000000000000012
1000
ACAD_MTEXT_DEFINED_HEIGHT_END
  0
MTEXT
  5
EA2F
330
1F
100
AcDbEntity
  8
AM_6
100
AcDbMText
 10
211.4587409302899
 20
58.99834981615777
 30
0.0
 40
3.2
 41
12.0
 71
     5
 72
     5
  1
17
 73
     1
 44
1.0
1001
ACAD
1000
MTEXTBEGIN
1070
    73
1070
     1
1070
    44
1040
1.0
1070
    74
1070
     0
1000
MTEXTEND
1000
ACAD_MTEXT_DEFINED_HEIGHT_BEGIN
1070
    46
1040
6.000000000000012
1000
ACAD_MTEXT_DEFINED_HEIGHT_END
  0
MTEXT
  5
EA30
330
1F
100
AcDbEntity
  8
AM_6
100
AcDbMText
 10
247.4587409302899
 20
58.99834981615777
 30
0.0
 40
3.2
 41
12.0
 71
     5
 72
     5
  1
2.5
 73
     1
 44
1.0
1001
ACAD
1000
MTEXTBEGIN
1070
    73
1070
     1
1070
    44
1040
1.0
1070
    74
1070
     0
1000
MTEXTEND
1000
ACAD_MTEXT_DEFINED_HEIGHT_BEGIN
1070
    46
1040
6.000000000000012
1000
ACAD_MTEXT_DEFINED_HEIGHT_END
  0
MTEXT
  5
EA31
330
1F
100
AcDbEntity
  8
AM_6
100
AcDbMText
 10
168.9587409302899
 20
52.99834981615777
 30
0.0
 40
3.2
 41
25.0
 71
     5
 72
     5
  1
K-36
 73
     1
 44
1.0
1001
ACAD
1000
MTEXTBEGIN
1070
    73
1070
     1
1070
    44
1040
1.0
1070
    74
1070
     0
1000
MTEXTEND
1000
ACAD_MTEXT_DEFINED_HEIGHT_BEGIN
1070
    46
1040
6.000000000000012
1000
ACAD_MTEXT_DEFINED_HEIGHT_END
  0
MTEXT
  5
EA32
330
1F
100
AcDbEntity
  8
AM_6
100
AcDbMText
 10
199.4587409302899
 20
52.99834981615777
 30
0.0
 40
3.2
 41
12.0
 71
     5
 72
     5
  1
30
 73
     1
 44
1.0
1001
ACAD
1000
MTEXTBEGIN
1070
    73
1070
     1
1070
    44
1040
1.0
1070
    74
1070
     0
1000
MTEXTEND
1000
ACAD_MTEXT_DEFINED_HEIGHT_BEGIN
1070
    46
1040
6.000000000000012
1000
ACAD_MTEXT_DEFINED_HEIGHT_END
  0
MTEXT
  5
EA33
330
1F
100
AcDbEntity
  8
AM_6
100
AcDbMText
 10
235.4587409302899
 20
52.99834981615777
 30
0.0
 40
3.2
 41
12.0
 71
     5
 72
     5
  1
12
 73
     1
 44
1.0
1001
ACAD
1000
MTEXTBEGIN
1070
    73
1070
     1
1070
    44
1040
1.0
1070
    74
1070
     0
1000
MTEXTEND
1000
ACAD_MTEXT_DEFINED_HEIGHT_BEGIN
1070
    46
1040
6.000000000000012
1000
ACAD_MTEXT_DEFINED_HEIGHT_END
  0
MTEXT
  5
EA34
330
1F
100
AcDbEntity
  8
AM_6
100
AcDbMText
 10
223.4587409302899
 20
52.99834981615777
 30
0.0
 40
3.2
 41
12.0
 71
     5
 72
     5
  1
5
 73
     1
 44
1.0
1001
ACAD
1000
MTEXTBEGIN
1070
    73
1070
     1
1070
    44
1040
1.0
1070
    74
1070
     0
1000
MTEXTEND
1000
ACAD_MTEXT_DEFINED_HEIGHT_BEGIN
1070
    46
1040
6.000000000000012
1000
ACAD_MTEXT_DEFINED_HEIGHT_END
  0
MTEXT
  5
EA35
330
1F
100
AcDbEntity
  8
AM_6
100
AcDbMText
 10
187.4587409302899
 20
49.99834981615778
 30
0.0
 40
3.2
 41
12.0
 71
     5
 72
     5
  1
36
 73
     1
 44
1.0
1001
ACAD
1000
MTEXTBEGIN
1070
    73
1070
     1
1070
    44
1040
1.0
1070
    74
1070
     0
1000
MTEXTEND
1000
ACAD_MTEXT_DEFINED_HEIGHT_BEGIN
1070
    46
1040
11.99999999999999
1000
ACAD_MTEXT_DEFINED_HEIGHT_END
  0
MTEXT
  5
EA36
330
1F
100
AcDbEntity
  8
AM_6
100
AcDbMText
 10
211.4587409302899
 20
52.99834981615777
 30
0.0
 40
3.2
 41
12.0
 71
     5
 72
     5
  1
12
 73
     1
 44
1.0
1001
ACAD
1000
MTEXTBEGIN
1070
    73
1070
     1
1070
    44
1040
1.0
1070
    74
1070
     0
1000
MTEXTEND
1000
ACAD_MTEXT_DEFINED_HEIGHT_BEGIN
1070
    46
1040
6.000000000000012
1000
ACAD_MTEXT_DEFINED_HEIGHT_END
  0
MTEXT
  5
EA37
330
1F
100
AcDbEntity
  8
AM_6
100
AcDbMText
 10
247.4587409302899
 20
52.99834981615777
 30
0.0
 40
3.2
 41
12.0
 71
     5
 72
     5
  1
22
 73
     1
 44
1.0
1001
ACAD
1000
MTEXTBEGIN
1070
    73
1070
     1
1070
    44
1040
1.0
1070
    74
1070
     0
1000
MTEXTEND
1000
ACAD_MTEXT_DEFINED_HEIGHT_BEGIN
1070
    46
1040
6.000000000000012
1000
ACAD_MTEXT_DEFINED_HEIGHT_END
  0
MTEXT
  5
EA38
330
1F
100
AcDbEntity
  8
AM_6
100
AcDbMText
 10
168.9587409302899
 20
46.99834981615778
 30
0.0
 40
3.2
 41
25.0
 71
     5
 72
     5
  1
K-3617
 73
     1
 44
1.0
1001
ACAD
1000
MTEXTBEGIN
1070
    73
1070
     1
1070
    44
1040
1.0
1070
    74
1070
     0
1000
MTEXTEND
1000
ACAD_MTEXT_DEFINED_HEIGHT_BEGIN
1070
    46
1040
6.000000000000012
1000
ACAD_MTEXT_DEFINED_HEIGHT_END
  0
MTEXT
  5
EA39
330
1F
100
AcDbEntity
  8
AM_6
100
AcDbMText
 10
199.4587409302899
 20
46.99834981615778
 30
0.0
 40
3.2
 41
12.0
 71
     5
 72
     5
  1
26
 73
     1
 44
1.0
1001
ACAD
1000
MTEXTBEGIN
1070
    73
1070
     1
1070
    44
1040
1.0
1070
    74
1070
     0
1000
MTEXTEND
1000
ACAD_MTEXT_DEFINED_HEIGHT_BEGIN
1070
    46
1040
6.000000000000012
1000
ACAD_MTEXT_DEFINED_HEIGHT_END
  0
MTEXT
  5
EA3A
330
1F
100
AcDbEntity
  8
AM_6
100
AcDbMText
 10
235.4587409302899
 20
46.99834981615778
 30
0.0
 40
3.2
 41
12.0
 71
     5
 72
     5
  1
9
 73
     1
 44
1.0
1001
ACAD
1000
MTEXTBEGIN
1070
    73
1070
     1
1070
    44
1040
1.0
1070
    74
1070
     0
1000
MTEXTEND
1000
ACAD_MTEXT_DEFINED_HEIGHT_BEGIN
1070
    46
1040
6.000000000000012
1000
ACAD_MTEXT_DEFINED_HEIGHT_END
  0
MTEXT
  5
EA3B
330
1F
100
AcDbEntity
  8
AM_6
100
AcDbMText
 10
223.4587409302899
 20
46.99834981615778
 30
0.0
 40
3.2
 41
12.0
 71
     5
 72
     5
  1
6
 73
     1
 44
1.0
1001
ACAD
1000
MTEXTBEGIN
1070
    73
1070
     1
1070
    44
1040
1.0
1070
    74
1070
     0
1000
MTEXTEND
1000
ACAD_MTEXT_DEFINED_HEIGHT_BEGIN
1070
    46
1040
6.000000000000012
1000
ACAD_MTEXT_DEFINED_HEIGHT_END
  0
MTEXT
  5
EA3D
330
1F
100
AcDbEntity
  8
AM_6
100
AcDbMText
 10
211.4587409302899
 20
46.99834981615778
 30
0.0
 40
3.2
 41
12.0
 71
     5
 72
     5
  1
17
 73
     1
 44
1.0
1001
ACAD
1000
MTEXTBEGIN
1070
    73
1070
     1
1070
    44
1040
1.0
1070
    74
1070
     0
1000
MTEXTEND
1000
ACAD_MTEXT_DEFINED_HEIGHT_BEGIN
1070
    46
1040
6.000000000000012
1000
ACAD_MTEXT_DEFINED_HEIGHT_END
  0
MTEXT
  5
EA3E
330
1F
100
AcDbEntity
  8
AM_6
100
AcDbMText
 10
168.9587409302899
 20
40.99834981615777
 30
0.0
 40
3.2
 41
25.0
 71
     5
 72
     5
  1
K-38
 73
     1
 44
1.0
1001
ACAD
1000
MTEXTBEGIN
1070
    73
1070
     1
1070
    44
1040
1.0
1070
    74
1070
     0
1000
MTEXTEND
1000
ACAD_MTEXT_DEFINED_HEIGHT_BEGIN
1070
    46
1040
6.000000000000012
1000
ACAD_MTEXT_DEFINED_HEIGHT_END
  0
MTEXT
  5
EA3F
330
1F
100
AcDbEntity
  8
AM_6
100
AcDbMText
 10
199.4587409302899
 20
40.99834981615777
 30
0.0
 40
3.2
 41
12.0
 71
     5
 72
     5
  1
32
 73
     1
 44
1.0
1001
ACAD
1000
MTEXTBEGIN
1070
    73
1070
     1
1070
    44
1040
1.0
1070
    74
1070
     0
1000
MTEXTEND
1000
ACAD_MTEXT_DEFINED_HEIGHT_BEGIN
1070
    46
1040
6.000000000000012
1000
ACAD_MTEXT_DEFINED_HEIGHT_END
  0
MTEXT
  5
EA40
330
1F
100
AcDbEntity
  8
AM_6
100
AcDbMText
 10
235.4587409302899
 20
40.99834981615777
 30
0.0
 40
3.2
 41
12.0
 71
     5
 72
     5
  1
13
 73
     1
 44
1.0
1001
ACAD
1000
MTEXTBEGIN
1070
    73
1070
     1
1070
    44
1040
1.0
1070
    74
1070
     0
1000
MTEXTEND
1000
ACAD_MTEXT_DEFINED_HEIGHT_BEGIN
1070
    46
1040
6.000000000000012
1000
ACAD_MTEXT_DEFINED_HEIGHT_END
  0
MTEXT
  5
EA41
330
1F
100
AcDbEntity
  8
AM_6
100
AcDbMText
 10
223.4587409302899
 20
40.99834981615777
 30
0.0
 40
3.2
 41
12.0
 71
     5
 72
     5
  1
5
 73
     1
 44
1.0
1001
ACAD
1000
MTEXTBEGIN
1070
    73
1070
     1
1070
    44
1040
1.0
1070
    74
1070
     0
1000
MTEXTEND
1000
ACAD_MTEXT_DEFINED_HEIGHT_BEGIN
1070
    46
1040
6.000000000000012
1000
ACAD_MTEXT_DEFINED_HEIGHT_END
  0
MTEXT
  5
EA42
330
1F
100
AcDbEntity
  8
AM_6
100
AcDbMText
 10
187.4587409302899
 20
40.99834981615777
 30
0.0
 40
3.2
 41
12.0
 71
     5
 72
     5
  1
38
 73
     1
 44
1.0
1001
ACAD
1000
MTEXTBEGIN
1070
    73
1070
     1
1070
    44
1040
1.0
1070
    74
1070
     0
1000
MTEXTEND
1000
ACAD_MTEXT_DEFINED_HEIGHT_BEGIN
1070
    46
1040
6.000000000000012
1000
ACAD_MTEXT_DEFINED_HEIGHT_END
  0
MTEXT
  5
EA43
330
1F
100
AcDbEntity
  8
AM_6
100
AcDbMText
 10
211.4587409302899
 20
40.99834981615777
 30
0.0
 40
3.2
 41
12.0
 71
     5
 72
     5
  1
12
 73
     1
 44
1.0
1001
ACAD
1000
MTEXTBEGIN
1070
    73
1070
     1
1070
    44
1040
1.0
1070
    74
1070
     0
1000
MTEXTEND
1000
ACAD_MTEXT_DEFINED_HEIGHT_BEGIN
1070
    46
1040
6.000000000000012
1000
ACAD_MTEXT_DEFINED_HEIGHT_END
  0
MTEXT
  5
EA44
330
1F
100
AcDbEntity
  8
AM_6
100
AcDbMText
 10
168.9587409302899
 20
34.99834981615778
 30
0.0
 40
3.2
 41
25.0
 71
     5
 72
     5
  1
K-40
 73
     1
 44
1.0
1001
ACAD
1000
MTEXTBEGIN
1070
    73
1070
     1
1070
    44
1040
1.0
1070
    74
1070
     0
1000
MTEXTEND
1000
ACAD_MTEXT_DEFINED_HEIGHT_BEGIN
1070
    46
1040
6.000000000000012
1000
ACAD_MTEXT_DEFINED_HEIGHT_END
  0
MTEXT
  5
EA45
330
1F
100
AcDbEntity
  8
AM_6
100
AcDbMText
 10
199.4587409302899
 20
34.99834981615778
 30
0.0
 40
3.2
 41
12.0
 71
     5
 72
     5
  1
30
 73
     1
 44
1.0
1001
ACAD
1000
MTEXTBEGIN
1070
    73
1070
     1
1070
    44
1040
1.0
1070
    74
1070
     0
1000
MTEXTEND
1000
ACAD_MTEXT_DEFINED_HEIGHT_BEGIN
1070
    46
1040
6.000000000000012
1000
ACAD_MTEXT_DEFINED_HEIGHT_END
  0
MTEXT
  5
EA46
330
1F
100
AcDbEntity
  8
AM_6
100
AcDbMText
 10
235.4587409302899
 20
34.99834981615778
 30
0.0
 40
3.2
 41
12.0
 71
     5
 72
     5
  1
9
 73
     1
 44
1.0
1001
ACAD
1000
MTEXTBEGIN
1070
    73
1070
     1
1070
    44
1040
1.0
1070
    74
1070
     0
1000
MTEXTEND
1000
ACAD_MTEXT_DEFINED_HEIGHT_BEGIN
1070
    46
1040
6.000000000000012
1000
ACAD_MTEXT_DEFINED_HEIGHT_END
  0
MTEXT
  5
EA47
330
1F
100
AcDbEntity
  8
AM_6
100
AcDbMText
 10
223.4587409302899
 20
34.99834981615778
 30
0.0
 40
3.2
 41
12.0
 71
     5
 72
     5
  1
5
 73
     1
 44
1.0
1001
ACAD
1000
MTEXTBEGIN
1070
    73
1070
     1
1070
    44
1040
1.0
1070
    74
1070
     0
1000
MTEXTEND
1000
ACAD_MTEXT_DEFINED_HEIGHT_BEGIN
1070
    46
1040
6.000000000000012
1000
ACAD_MTEXT_DEFINED_HEIGHT_END
  0
MTEXT
  5
EA48
330
1F
100
AcDbEntity
  8
AM_6
100
AcDbMText
 10
187.4587409302899
 20
34.99834981615778
 30
0.0
 40
3.2
 41
12.0
 71
     5
 72
     5
  1
40
 73
     1
 44
1.0
1001
ACAD
1000
MTEXTBEGIN
1070
    73
1070
     1
1070
    44
1040
1.0
1070
    74
1070
     0
1000
MTEXTEND
1000
ACAD_MTEXT_DEFINED_HEIGHT_BEGIN
1070
    46
1040
6.000000000000012
1000
ACAD_MTEXT_DEFINED_HEIGHT_END
  0
MTEXT
  5
EA49
330
1F
100
AcDbEntity
  8
AM_6
100
AcDbMText
 10
211.4587409302899
 20
34.99834981615778
 30
0.0
 40
3.2
 41
12.0
 71
     5
 72
     5
  1
14
 73
     1
 44
1.0
1001
ACAD
1000
MTEXTBEGIN
1070
    73
1070
     1
1070
    44
1040
1.0
1070
    74
1070
     0
1000
MTEXTEND
1000
ACAD_MTEXT_DEFINED_HEIGHT_BEGIN
1070
    46
1040
6.000000000000012
1000
ACAD_MTEXT_DEFINED_HEIGHT_END
  0
MTEXT
  5
EA4A
330
1F
100
AcDbEntity
  8
AM_6
100
AcDbMText
 10
168.9587409302899
 20
28.99834981615778
 30
0.0
 40
3.2
 41
25.0
 71
     5
 72
     5
  1
K-45
 73
     1
 44
1.0
1001
ACAD
1000
MTEXTBEGIN
1070
    73
1070
     1
1070
    44
1040
1.0
1070
    74
1070
     0
1000
MTEXTEND
1000
ACAD_MTEXT_DEFINED_HEIGHT_BEGIN
1070
    46
1040
6.000000000000012
1000
ACAD_MTEXT_DEFINED_HEIGHT_END
  0
MTEXT
  5
EA4B
330
1F
100
AcDbEntity
  8
AM_6
100
AcDbMText
 10
199.4587409302899
 20
28.99834981615778
 30
0.0
 40
3.2
 41
12.0
 71
     5
 72
     5
  1
35
 73
     1
 44
1.0
1001
ACAD
1000
MTEXTBEGIN
1070
    73
1070
     1
1070
    44
1040
1.0
1070
    74
1070
     0
1000
MTEXTEND
1000
ACAD_MTEXT_DEFINED_HEIGHT_BEGIN
1070
    46
1040
6.000000000000012
1000
ACAD_MTEXT_DEFINED_HEIGHT_END
  0
MTEXT
  5
EA4C
330
1F
100
AcDbEntity
  8
AM_6
100
AcDbMText
 10
235.4587409302899
 20
28.99834981615778
 30
0.0
 40
3.2
 41
12.0
 71
     5
 72
     5
  1
12
 73
     1
 44
1.0
1001
ACAD
1000
MTEXTBEGIN
1070
    73
1070
     1
1070
    44
1040
1.0
1070
    74
1070
     0
1000
MTEXTEND
1000
ACAD_MTEXT_DEFINED_HEIGHT_BEGIN
1070
    46
1040
6.000000000000012
1000
ACAD_MTEXT_DEFINED_HEIGHT_END
  0
MTEXT
  5
EA4D
330
1F
100
AcDbEntity
  8
AM_6
100
AcDbMText
 10
223.4587409302899
 20
28.99834981615778
 30
0.0
 40
3.2
 41
12.0
 71
     5
 72
     5
  1
5
 73
     1
 44
1.0
1001
ACAD
1000
MTEXTBEGIN
1070
    73
1070
     1
1070
    44
1040
1.0
1070
    74
1070
     0
1000
MTEXTEND
1000
ACAD_MTEXT_DEFINED_HEIGHT_BEGIN
1070
    46
1040
6.000000000000012
1000
ACAD_MTEXT_DEFINED_HEIGHT_END
  0
MTEXT
  5
EA4E
330
1F
100
AcDbEntity
  8
AM_6
100
AcDbMText
 10
187.4587409302899
 20
28.99834981615778
 30
0.0
 40
3.2
 41
12.0
 71
     5
 72
     5
  1
45
 73
     1
 44
1.0
1001
ACAD
1000
MTEXTBEGIN
1070
    73
1070
     1
1070
    44
1040
1.0
1070
    74
1070
     0
1000
MTEXTEND
1000
ACAD_MTEXT_DEFINED_HEIGHT_BEGIN
1070
    46
1040
6.000000000000012
1000
ACAD_MTEXT_DEFINED_HEIGHT_END
  0
MTEXT
  5
EA4F
330
1F
100
AcDbEntity
  8
AM_6
100
AcDbMText
 10
211.4587409302899
 20
28.99834981615778
 30
0.0
 40
3.2
 41
12.0
 71
     5
 72
     5
  1
12
 73
     1
 44
1.0
1001
ACAD
1000
MTEXTBEGIN
1070
    73
1070
     1
1070
    44
1040
1.0
1070
    74
1070
     0
1000
MTEXTEND
1000
ACAD_MTEXT_DEFINED_HEIGHT_BEGIN
1070
    46
1040
6.000000000000012
1000
ACAD_MTEXT_DEFINED_HEIGHT_END
  0
MTEXT
  5
EA50
330
1F
100
AcDbEntity
  8
AM_6
100
AcDbMText
 10
247.4587409302899
 20
28.99834981615778
 30
0.0
 40
3.2
 41
12.0
 71
     5
 72
     5
  1
27
 73
     1
 44
1.0
1001
ACAD
1000
MTEXTBEGIN
1070
    73
1070
     1
1070
    44
1040
1.0
1070
    74
1070
     0
1000
MTEXTEND
1000
ACAD_MTEXT_DEFINED_HEIGHT_BEGIN
1070
    46
1040
6.000000000000012
1000
ACAD_MTEXT_DEFINED_HEIGHT_END
  0
MTEXT
  5
EA51
330
1F
100
AcDbEntity
  8
AM_6
100
AcDbMText
 10
168.9587409302899
 20
22.99834981615778
 30
0.0
 40
3.2
 41
25.0
 71
     5
 72
     5
  1
K-63
 73
     1
 44
1.0
1001
ACAD
1000
MTEXTBEGIN
1070
    73
1070
     1
1070
    44
1040
1.0
1070
    74
1070
     0
1000
MTEXTEND
1000
ACAD_MTEXT_DEFINED_HEIGHT_BEGIN
1070
    46
1040
6.000000000000012
1000
ACAD_MTEXT_DEFINED_HEIGHT_END
  0
MTEXT
  5
EA52
330
1F
100
AcDbEntity
  8
AM_6
100
AcDbMText
 10
199.4587409302899
 20
22.99834981615778
 30
0.0
 40
3.2
 41
12.0
 71
     5
 72
     5
  1
48
 73
     1
 44
1.0
1001
ACAD
1000
MTEXTBEGIN
1070
    73
1070
     1
1070
    44
1040
1.0
1070
    74
1070
     0
1000
MTEXTEND
1000
ACAD_MTEXT_DEFINED_HEIGHT_BEGIN
1070
    46
1040
6.000000000000012
1000
ACAD_MTEXT_DEFINED_HEIGHT_END
  0
MTEXT
  5
EA53
330
1F
100
AcDbEntity
  8
AM_6
100
AcDbMText
 10
235.4587409302899
 20
22.99834981615778
 30
0.0
 40
3.2
 41
12.0
 71
     5
 72
     5
  1
15
 73
     1
 44
1.0
1001
ACAD
1000
MTEXTBEGIN
1070
    73
1070
     1
1070
    44
1040
1.0
1070
    74
1070
     0
1000
MTEXTEND
1000
ACAD_MTEXT_DEFINED_HEIGHT_BEGIN
1070
    46
1040
6.000000000000012
1000
ACAD_MTEXT_DEFINED_HEIGHT_END
  0
MTEXT
  5
EA54
330
1F
100
AcDbEntity
  8
AM_6
100
AcDbMText
 10
223.4587409302899
 20
22.99834981615778
 30
0.0
 40
3.2
 41
12.0
 71
     5
 72
     5
  1
7
 73
     1
 44
1.0
1001
ACAD
1000
MTEXTBEGIN
1070
    73
1070
     1
1070
    44
1040
1.0
1070
    74
1070
     0
1000
MTEXTEND
1000
ACAD_MTEXT_DEFINED_HEIGHT_BEGIN
1070
    46
1040
6.000000000000012
1000
ACAD_MTEXT_DEFINED_HEIGHT_END
  0
MTEXT
  5
EA55
330
1F
100
AcDbEntity
  8
AM_6
100
AcDbMText
 10
187.4587409302899
 20
22.99834981615778
 30
0.0
 40
3.2
 41
12.0
 71
     5
 72
     5
  1
63
 73
     1
 44
1.0
1001
ACAD
1000
MTEXTBEGIN
1070
    73
1070
     1
1070
    44
1040
1.0
1070
    74
1070
     0
1000
MTEXTEND
1000
ACAD_MTEXT_DEFINED_HEIGHT_BEGIN
1070
    46
1040
6.000000000000012
1000
ACAD_MTEXT_DEFINED_HEIGHT_END
  0
MTEXT
  5
EA56
330
1F
100
AcDbEntity
  8
AM_6
100
AcDbMText
 10
211.4587409302899
 20
22.99834981615778
 30
0.0
 40
3.2
 41
12.0
 71
     5
 72
     5
  1
14
 73
     1
 44
1.0
1001
ACAD
1000
MTEXTBEGIN
1070
    73
1070
     1
1070
    44
1040
1.0
1070
    74
1070
     0
1000
MTEXTEND
1000
ACAD_MTEXT_DEFINED_HEIGHT_BEGIN
1070
    46
1040
6.000000000000012
1000
ACAD_MTEXT_DEFINED_HEIGHT_END
  0
MTEXT
  5
EA57
330
1F
100
AcDbEntity
  8
AM_6
100
AcDbMText
 10
247.4587409302899
 20
22.99834981615778
 30
0.0
 40
3.2
 41
12.0
 71
     5
 72
     5
  1
26
 73
     1
 44
1.0
1001
ACAD
1000
MTEXTBEGIN
1070
    73
1070
     1
1070
    44
1040
1.0
1070
    74
1070
     0
1000
MTEXTEND
1000
ACAD_MTEXT_DEFINED_HEIGHT_BEGIN
1070
    46
1040
6.000000000000012
1000
ACAD_MTEXT_DEFINED_HEIGHT_END
  0
MTEXT
  5
EA58
330
1F
100
AcDbEntity
  8
AM_6
100
AcDbMText
 10
247.4587409302899
 20
34.99834981615778
 30
0.0
 40
3.2
 41
12.0
 71
     5
 72
     5
  1
22
 73
     1
 44
1.0
1001
ACAD
1000
MTEXTBEGIN
1070
    73
1070
     1
1070
    44
1040
1.0
1070
    74
1070
     0
1000
MTEXTEND
1000
ACAD_MTEXT_DEFINED_HEIGHT_BEGIN
1070
    46
1040
6.000000000000012
1000
ACAD_MTEXT_DEFINED_HEIGHT_END
  0
MTEXT
  5
EA59
330
1F
100
AcDbEntity
  8
AM_6
100
AcDbMText
 10
247.4587409302899
 20
40.99834981615773
 30
0.0
 40
3.2
 41
12.0
 71
     5
 72
     5
  1
24
 73
     1
 44
1.0
1001
ACAD
1000
MTEXTBEGIN
1070
    73
1070
     1
1070
    44
1040
1.0
1070
    74
1070
     0
1000
MTEXTEND
1000
ACAD_MTEXT_DEFINED_HEIGHT_BEGIN
1070
    46
1040
6.000000000000012
1000
ACAD_MTEXT_DEFINED_HEIGHT_END
  0
MTEXT
  5
EA5A
330
1F
100
AcDbEntity
  8
AM_6
100
AcDbMText
 10
247.4587409302899
 20
46.99834981615778
 30
0.0
 40
3.2
 41
12.0
 71
     5
 72
     5
  1
17
 73
     1
 44
1.0
1001
ACAD
1000
MTEXTBEGIN
1070
    73
1070
     1
1070
    44
1040
1.0
1070
    74
1070
     0
1000
MTEXTEND
1000
ACAD_MTEXT_DEFINED_HEIGHT_BEGIN
1070
    46
1040
6.000000000000012
1000
ACAD_MTEXT_DEFINED_HEIGHT_END
  0
LINE
  5
EB5B
330
1F
100
AcDbEntity
  8
AM_2
100
AcDbLine
 10
82.8304774829699
 20
79.99834981615778
 30
0.0
 11
106.8304774829699
 21
79.99834981615776
 31
0.0
  0
LINE
  5
EB5C
330
1F
100
AcDbEntity
  8
AM_2
100
AcDbLine
 10
82.83047748296988
 20
55.99834981615778
 30
0.0
 11
94.83047748296989
 21
55.99834981615777
 31
0.0
  0
LINE
  5
EB5D
330
1F
100
AcDbEntity
  8
AM_2
100
AcDbLine
 10
82.83047748296988
 20
37.99834981615776
 30
0.0
 11
94.83047748296989
 21
37.99834981615774
 31
0.0
  0
LINE
  5
EB5E
330
1F
100
AcDbEntity
  8
AM_2
100
AcDbLine
 10
193.4587409302898
 20
73.99834981615779
 30
0.0
 11
217.4587409302898
 21
73.9983498161578
 31
0.0
  0
LINE
  5
EB5F
330
1F
100
AcDbEntity
  8
AM_2
100
AcDbLine
 10
193.4587409302898
 20
67.99834981615778
 30
0.0
 11
217.4587409302898
 21
67.9983498161578
 31
0.0
  0
LINE
  5
EB60
330
1F
100
AcDbEntity
  8
AM_2
100
AcDbLine
 10
229.4587409302899
 20
73.9983498161578
 30
0.0
 11
253.4587409302899
 21
73.9983498161578
 31
0.0
  0
LINE
  5
EB61
330
1F
100
AcDbEntity
  8
AM_2
100
AcDbLine
 10
229.4587409302899
 20
67.9983498161578
 30
0.0
 11
253.4587409302899
 21
67.9983498161578
 31
0.0
  0
LINE
  5
EB62
330
1F
100
AcDbEntity
  8
AM_2
100
AcDbLine
 10
193.4587409302898
 20
49.9983498161578
 30
0.0
 11
253.4587409302899
 21
49.99834981615782
 31
0.0
  0
LINE
  5
EB63
330
1F
100
AcDbEntity
  8
AM_2
100
AcDbLine
 10
118.8304774829699
 20
79.99834981615776
 30
0.0
 11
142.8304774829699
 21
79.99834981615776
 31
0.0
  0
LINE
  5
EB64
330
1F
100
AcDbEntity
  8
AM_2
100
AcDbLine
 10
118.8304774829698
 20
37.99834981615774
 30
0.0
 11
142.8304774829699
 21
37.99834981615774
 31
0.0
  0
LINE
  5
EB65
330
1F
100
AcDbEntity
  8
AM_2
100
AcDbLine
 10
106.8304774829699
 20
55.99834981615777
 30
0.0
 11
142.8304774829699
 21
55.99834981615778
 31
0.0
  0
LINE
  5
EB66
102
{ACAD_REACTORS
330
ED6E
102
}
330
1F
100
AcDbEntity
  8
AM_0
100
AcDbLine
 10
160.6575351092942
 20
140.3098752363744
 30
0.0
 11
190.6575351092942
 21
140.3098752363744
 31
0.0
  0
LINE
  5
EB67
102
{ACAD_REACTORS
330
ED6E
330
ED7D
102
}
330
1F
100
AcDbEntity
  8
AM_0
100
AcDbLine
 10
165.3665229052597
 20
159.3098752363744
 30
0.0
 11
185.9485473133288
 21
159.3098752363744
 31
0.0
  0
LINE
  5
EB68
102
{ACAD_REACTORS
330
ED7D
102
}
330
1F
100
AcDbEntity
  8
AM_7
100
AcDbLine
 10
175.6575351092942
 20
162.3098752363744
 30
0.0
 11
175.6575351092942
 21
137.3098752363744
 31
0.0
1001
GENIUS_GENODEF_13
1002
{
1000
HIER
1070
     0
1002
}
1002
{
1000
MANEDIT
1070
     0
1002
}
1002
{
1000
NOSEL
1070
     0
1002
}
1002
{
1000
BEHIND
1070
     0
1002
}
1002
{
1000
OTHER
1070
     0
1002
}
1002
{
1000
REACTOR
1002
}
1001
GENIUS_GENOBJ-N-CEN_13
1002
{
1000
OWNER
1000
GEN
1002
}
1001
GENIUS_GENCEN_19
1002
{
1040
3.0
1002
}
  0
LINE
  5
EB69
102
{ACAD_REACTORS
330
ED6E
102
}
330
1F
100
AcDbEntity
  8
AM_0
100
AcDbLine
 10
160.6575351092942
 20
140.3098752363744
 30
0.0
 11
163.3909969746015
 21
157.6218003833204
 31
0.0
  0
LINE
  5
EB6A
102
{ACAD_REACTORS
330
ED6E
102
}
330
1F
100
AcDbEntity
  8
AM_0
100
AcDbLine
 10
190.6575351092942
 20
140.3098752363744
 30
0.0
 11
187.9240732439869
 21
157.6218003833204
 31
0.0
  0
LINE
  5
EB6B
102
{ACAD_REACTORS
330
ED6E
330
ED7D
102
}
330
1F
100
AcDbEntity
  8
AM_0
 48
0.5
100
AcDbLine
 10
168.6575351092942
 20
159.3098752363744
 30
0.0
 11
168.6575351092942
 21
149.3098752363744
 31
0.0
  0
LINE
  5
EB6C
102
{ACAD_REACTORS
330
ED6E
102
}
330
1F
100
AcDbEntity
  8
AM_0
 48
0.5
100
AcDbLine
 10
182.6575351092942
 20
149.3098752363744
 30
0.0
 11
182.6575351092942
 21
159.3098752363744
 31
0.0
  0
LINE
  5
EB6D
102
{ACAD_REACTORS
330
ED6E
330
ED7D
102
}
330
1F
100
AcDbEntity
  8
AM_0
 48
0.6
100
AcDbLine
 10
167.6575351092942
 20
149.3098752363744
 30
0.0
 11
183.6575351092942
 21
149.3098752363744
 31
0.0
  0
LINE
  5
EB6E
102
{ACAD_REACTORS
330
ED6E
330
ED7D
102
}
330
1F
100
AcDbEntity
  8
AM_0
 48
0.5
100
AcDbLine
 10
173.6575351092942
 20
149.3098752363744
 30
0.0
 11
173.6575351092942
 21
140.3098752363744
 31
0.0
  0
LINE
  5
EB6F
102
{ACAD_REACTORS
330
ED6E
330
ED7D
102
}
330
1F
100
AcDbEntity
  8
AM_0
 48
0.5
100
AcDbLine
 10
177.6575351092942
 20
140.3098752363744
 30
0.0
 11
177.6575351092942
 21
149.3098752363744
 31
0.0
  0
DIMENSION
  5
EB70
330
1F
100
AcDbEntity
  8
AM_5
100
AcDbDimension
  2
*D7
 10
182.6575351092942
 20
171.3098752363744
 30
0.0
 11
175.6575351092942
 21
174.4098752363744
 31
0.0
 70
    32
  1
%%cC
 71
     5
 42
14.0
  3
SYS$0
100
AcDbAlignedDimension
 13
168.6575351092942
 23
159.3098752363744
 33
0.0
 14
182.6575351092942
 24
159.3098752363744
 34
0.0
100
AcDbRotatedDimension
  0
DIMENSION
  5
EB71
330
1F
100
AcDbEntity
  8
AM_5
100
AcDbDimension
  2
*D8
 10
163.6575351092942
 20
181.3098752363744
 30
0.0
 11
175.6575351092942
 21
184.4098752363744
 31
0.0
 70
    32
  1
%%cB
 71
     5
 42
24.0
  3
SYS$0
100
AcDbAlignedDimension
 13
187.6575351092942
 23
159.3098752363744
 33
0.0
 14
163.6575351092942
 24
159.3098752363744
 34
0.0
100
AcDbRotatedDimension
  0
DIMENSION
  5
EB72
330
1F
100
AcDbEntity
  8
AM_5
100
AcDbDimension
  2
*D9
 10
177.6575351092942
 20
128.3098752363744
 30
0.0
 11
182.9708684426276
 21
131.4098752363744
 31
0.0
 70
    32
  1
%%cD
 71
     5
 42
4.0
  3
SYS$0
100
AcDbAlignedDimension
 13
173.6575351092942
 23
140.3098752363744
 33
0.0
 14
177.6575351092942
 24
140.3098752363744
 34
0.0
 50
0.0000000000001018
100
AcDbRotatedDimension
  0
DIMENSION
  5
EB73
330
1F
100
AcDbEntity
  8
AM_5
100
AcDbDimension
  2
*D10
 10
190.6575351092942
 20
118.3098752363743
 30
0.0
 11
175.6575351092942
 21
121.4098752363743
 31
0.0
 70
    32
  1
%%cA
 71
     5
 42
30.0
  3
SYS$0
100
AcDbAlignedDimension
 13
160.6575351092942
 23
140.3098752363744
 33
0.0
 14
190.6575351092942
 24
140.3098752363744
 34
0.0
 50
0.0000000000001018
100
AcDbRotatedDimension
  0
DIMENSION
  5
EB74
330
1F
100
AcDbEntity
  8
AM_5
100
AcDbDimension
  2
*D5
 10
212.6575351092943
 20
159.3098752363744
 30
0.0
 11
209.5575351092942
 21
149.8098752363744
 31
0.0
 70
    32
  1
H
 71
     5
 42
19.0
  3
SYS$0
100
AcDbAlignedDimension
 13
190.6575351092942
 23
140.3098752363744
 33
0.0
 14
187.6575351092942
 24
159.3098752363744
 34
0.0
 50
90.0
100
AcDbRotatedDimension
  0
DIMENSION
  5
EB75
330
1F
100
AcDbEntity
  8
AM_5
100
AcDbDimension
  2
*D6
 10
202.6575351092942
 20
149.3098752363744
 30
0.0
 11
199.5575351092942
 21
154.3098752363744
 31
0.0
 70
    32
  1
E
 71
     5
 42
10.0
  3
SYS$0
100
AcDbAlignedDimension
 13
187.6575351092942
 23
159.3098752363744
 33
0.0
 14
183.6575351092942
 24
149.3098752363744
 34
0.0
 50
90.0
100
AcDbRotatedDimension
  0
ARC
  5
ECDA
102
{ACAD_REACTORS
330
ED6E
102
}
330
1F
100
AcDbEntity
  8
AM_0
100
AcDbCircle
 10
165.3665229052597
 20
157.3098752363744
 30
0.0
 40
2.0
100
AcDbArc
 50
90.0
 51
171.0273733851036
1001
GENIUS_GENOBJ-N-FIL_13
1002
{
1000
OWNER
1000
GEN
1002
}
1001
GENIUS_GENODEF_13
1002
{
1000
HIER
1070
     0
1002
}
1002
{
1000
MANEDIT
1070
     0
1002
}
1002
{
1000
NOSEL
1070
     0
1002
}
1002
{
1000
BEHIND
1070
     0
1002
}
1002
{
1000
OTHER
1070
     0
1002
}
1002
{
1000
REACTOR
1002
}
  0
ARC
  5
ECDB
102
{ACAD_REACTORS
330
ED6E
102
}
330
1F
100
AcDbEntity
  8
AM_0
100
AcDbCircle
 10
185.9485473133288
 20
157.3098752363744
 30
0.0
 40
2.0
100
AcDbArc
 50
8.972626614896386
 51
90.0
1001
GENIUS_GENODEF_13
1002
{
1000
HIER
1070
     0
1002
}
1002
{
1000
MANEDIT
1070
     0
1002
}
1002
{
1000
NOSEL
1070
     0
1002
}
1002
{
1000
BEHIND
1070
     0
1002
}
1002
{
1000
OTHER
1070
     0
1002
}
1002
{
1000
REACTOR
1002
}
1001
GENIUS_GENOBJ-N-FIL_13
1002
{
1000
OWNER
1000
GEN
1002
}
  0
LINE
  5
ED15
102
{ACAD_REACTORS
330
ED6E
330
ED7D
102
}
330
1F
100
AcDbEntity
  8
AM_0
 48
0.5
100
AcDbLine
 10
167.6575351092942
 20
149.3098752363744
 30
0.0
 11
167.6575351092942
 21
148.3098752363744
 31
0.0
  0
LINE
  5
ED16
102
{ACAD_REACTORS
330
ED6E
330
ED7D
102
}
330
1F
100
AcDbEntity
  8
AM_0
100
AcDbLine
 10
183.6575351092942
 20
149.3098752363744
 30
0.0
 11
183.6575351092942
 21
148.3098752363744
 31
0.0
  0
LINE
  5
ED17
102
{ACAD_REACTORS
330
ED6E
330
ED7D
102
}
330
1F
100
AcDbEntity
  8
AM_0
 48
0.6
100
AcDbLine
 10
183.6575351092942
 20
148.3098752363744
 30
0.0
 11
177.6575351092942
 21
148.3098752363744
 31
0.0
  0
MTEXT
  5
ED1A
330
1F
100
AcDbEntity
  8
AM_6
100
AcDbMText
 10
31.50000028203499
 20
165.5000000504797
 30
0.0
 40
3.2
 41
90.0
 71
     4
 72
     5
  1
　硬度：65°
 73
     1
 44
1.0
1001
ACAD
1000
MTEXTBEGIN
1070
    73
1070
     1
1070
    44
1040
1.0
1070
    74
1070
     0
1000
MTEXTEND
  0
HATCH
  5
ED6E
330
1F
100
AcDbEntity
  8
AM_2
100
AcDbHatch
 10
0.0
 20
0.0
 30
0.0
210
0.0
220
0.0
230
1.0
  2
ANSI31
 70
     0
 71
     1
 91
        2
 92
        7
 72
     1
 73
     1
 93
        9
 10
187.9240732439869
 20
157.6218003833204
 42
0.3690551778406598
 10
185.9485473133288
 20
159.3098752363744
 42
0.0
 10
182.6575351092942
 20
159.3098752363744
 42
0.0
 10
182.6575351092942
 20
149.3098752363744
 42
0.0
 10
183.6575351092942
 20
149.3098752363744
 42
0.0
 10
183.6575351092942
 20
148.3098752363744
 42
0.0
 10
177.6575351092942
 20
148.3098752363744
 42
0.0
 10
177.6575351092942
 20
140.3098752363744
 42
0.0
 10
190.6575351092943
 20
140.3098752363744
 42
0.0
 97
        9
330
ECDB
330
EB67
330
EB6C
330
EB6D
330
ED16
330
ED17
330
EB6F
330
EB66
330
EB6A
 92
        7
 72
     1
 73
     1
 93
        9
 10
173.6575351092942
 20
148.3098752363744
 42
0.0
 10
167.6575351092942
 20
148.3098752363744
 42
0.0
 10
167.6575351092942
 20
149.3098752363744
 42
0.0
 10
168.6575351092942
 20
149.3098752363744
 42
0.0
 10
168.6575351092942
 20
159.3098752363744
 42
0.0
 10
165.3665229052597
 20
159.3098752363744
 42
0.3690551778406598
 10
163.3909969746015
 20
157.6218003833204
 42
0.0
 10
160.6575351092942
 20
140.3098752363744
 42
0.0
 10
173.6575351092942
 20
140.3098752363744
 42
0.0
 97
        9
330
ED17
330
ED15
330
EB6D
330
EB6B
330
EB67
330
ECDA
330
EB69
330
EB66
330
EB6E
 75
     0
 76
     1
 52
0.0
 41
0.8
 77
     0
 78
     1
 53
45.0
 43
0.0
 44
0.0
 45
-1.79605122421383
 46
1.79605122421383
 79
     0
 47
0.0421221868808355
 98
        2
 10
183.9534148878964
 20
142.9069620101643
 10
167.4379307697977
 20
143.5387945565763
1001
ACAD
1010
0.0
1020
0.0
1030
0.0
  0
HATCH
  5
ED7D
330
1F
100
AcDbEntity
  8
AM_2
100
AcDbHatch
 10
0.0
 20
0.0
 30
0.0
210
0.0
220
0.0
230
1.0
  2
ANSI31
 70
     0
 71
     1
 91
        2
 92
        7
 72
     0
 73
     1
 93
        4
 10
173.6575351092942
 20
149.3098752363744
 10
167.6575351092942
 20
149.3098752363744
 10
167.6575351092942
 20
148.3098752363744
 10
173.6575351092942
 20
148.3098752363744
 97
        4
330
EB6D
330
ED15
330
ED93
330
EB6E
 92
        7
 72
     0
 73
     1
 93
        4
 10
183.6575351092942
 20
149.3098752363744
 10
177.6575351092942
 20
149.3098752363744
 10
177.6575351092942
 20
148.3098752363744
 10
183.6575351092942
 20
148.3098752363744
 97
        4
330
EB6D
330
EB6F
330
ED17
330
ED16
 75
     0
 76
     1
 52
90.0
 41
0.3
 77
     0
 78
     1
 53
135.0
 43
0.0
 44
0.0
 45
-0.6735192090801866
 46
-0.6735192090801864
 79
     0
 47
0.0204244754573536
 98
        5
 10
172.2968581785159
 20
148.6984872755424
 10
180.5297103608985
 20
149.1069765610808
 10
172.1170963907336
 20
154.4385758299159
 10
180.8148210485597
 20
148.9230211286322
 10
173.3777790828627
 20
148.9647929336854
1001
ACAD
1010
0.0
1020
0.0
1030
0.0
  0
LINE
  5
ED93
102
{ACAD_REACTORS
330
ED7D
102
}
330
1F
100
AcDbEntity
  8
AM_0
 48
0.6
100
AcDbLine
 10
173.6575351092942
 20
148.3098752363744
 30
0.0
 11
167.6575351092942
 21
148.3098752363744
 31
0.0
  0
ENDSEC
  0
SECTION
  2
OBJECTS
  0
DICTIONARY
  5
C
330
0
100
AcDbDictionary
281
     1
  3
ACAD_2007HEADERVARS_RT
350
EDA9
  3
ACAD_BGPLOT_KEY
350
AB06
  3
ACAD_COLOR
350
A91D
  3
ACAD_GROUP
350
D
  3
ACAD_LAYOUT
350
1A
  3
ACAD_MATERIAL
350
A91C
  3
ACAD_MLINESTYLE
350
17
  3
ACAD_PLOTSETTINGS
350
19
  3
ACAD_PLOTSTYLENAME
350
E
  3
ACAD_TABLESTYLE
350
AAB9
  3
ACAD_VISUALSTYLE
350
B0F1
  3
AcAsAppObject
350
3DA1
  3
ACASGREF_MASTER
350
3DE9
  3
AcDbVariableDictionary
350
34
  3
AcmDictionary
350
47
  3
AD_GREF_MODULE
350
3DEA
  3
AD_MAPI_MODULE
350
3E06
  3
AMG
350
2B
  3
AMGSNAPSETTINGS
350
7D
  3
ASE_INDEX_DICTIONARY
350
B331
  3
DWGPROPS
350
EDA8
  3
MAPISURF_MODULE
350
3DEB
  0
DICTIONARY
  5
3F95
330
2
100
AcDbDictionary
280
     1
281
     1
  3
ACAD_LAYERFILTERS
360
B466
  3
ACAD_LAYERSTATES
360
3F96
  3
ACLYDICTIONARY
360
B465
  3
AMLAYER_GROUPCOLORS
360
AAB4
  0
DICTIONARY
  5
8A
330
1F
100
AcDbDictionary
280
     1
281
     1
  3
ACAD_SORTENTS
360
B1BA
  0
DICTIONARY
  5
EDB9
330
D055
100
AcDbDictionary
280
     1
281
     1
  3
ACAD_MTEXT_RT
360
EDBA
  0
DICTIONARY
  5
EDA9
102
{ACAD_REACTORS
330
C
102
}
330
C
100
AcDbDictionary
281
     1
  3
DIMARCSYM
350
EDAA
  0
DICTIONARY
  5
AB06
102
{ACAD_REACTORS
330
C
102
}
330
C
100
AcDbDictionary
280
     1
281
     1
  0
DICTIONARY
  5
A91D
102
{ACAD_REACTORS
330
C
102
}
330
C
100
AcDbDictionary
281
     1
  0
DICTIONARY
  5
D
102
{ACAD_REACTORS
330
C
102
}
330
C
100
AcDbDictionary
281
     1
  0
DICTIONARY
  5
1A
102
{ACAD_REACTORS
330
C
102
}
330
C
100
AcDbDictionary
281
     1
  3
Model
350
22
  3
ﾚｲｱｳﾄ1
350
1E
  3
ﾚｲｱｳﾄ2
350
26
  0
DICTIONARY
  5
A91C
102
{ACAD_REACTORS
330
C
102
}
330
C
100
AcDbDictionary
281
     1
  3
ByBlock
350
B0EF
  3
ByLayer
350
B0EE
  3
Global
350
B0F0
  0
DICTIONARY
  5
17
102
{ACAD_REACTORS
330
C
102
}
330
C
100
AcDbDictionary
281
     1
  3
Standard
350
18
  0
DICTIONARY
  5
19
102
{ACAD_REACTORS
330
C
102
}
330
C
100
AcDbDictionary
281
     1
  0
ACDBDICTIONARYWDFLT
  5
E
102
{ACAD_REACTORS
330
C
102
}
330
C
100
AcDbDictionary
281
     1
  3
Normal
350
F
100
AcDbDictionaryWithDefault
340
F
  0
DICTIONARY
  5
AAB9
102
{ACAD_REACTORS
330
C
102
}
330
C
100
AcDbDictionary
281
     1
  3
Standard
350
AABA
  0
DICTIONARY
  5
B0F1
102
{ACAD_REACTORS
330
C
102
}
330
C
100
AcDbDictionary
281
     1
  3
2dWireframe
350
B0F7
  3
3D Hidden
350
B0F9
  3
3dWireframe
350
B0F8
  3
Basic
350
B0F6
  3
Brighten
350
B0FD
  3
ColorChange
350
B101
  3
Conceptual
350
B0FA
  3
Dim
350
B0FC
  3
Facepattern
350
B100
  3
Flat
350
B0F2
  3
FlatWithEdges
350
B0F3
  3
Gouraud
350
B0F4
  3
GouraudWithEdges
350
B0F5
  3
Linepattern
350
B0FF
  3
Realistic
350
B0FB
  3
Thicken
350
B0FE
  0
ACAD_PROXY_OBJECT
  5
3DA1
102
{ACAD_REACTORS
330
C
102
}
330
C
100
AcDbProxyObject
 90
      499
 91
      576
 95
   917527
 70
     0
 93
       10
310
407F
 94
        0
1001
ACAD
1000
AcRTDxfName
1000
ASAPP
  0
ACAD_PROXY_OBJECT
  5
3DE9
102
{ACAD_REACTORS
330
C
102
}
330
C
100
AcDbProxyObject
 90
      499
 91
      581
 95
   917527
 70
     0
 93
       34
310
010000407F
 94
        0
1001
ACAD
1000
AcRTDxfName
1000
ACASGREFMASTER
  0
DICTIONARY
  5
34
102
{ACAD_REACTORS
330
C
102
}
330
C
100
AcDbDictionary
281
     1
  3
CTABLESTYLE
350
AAF3
  3
DIMASSOC
350
A10C
  3
FIELDEVAL
350
AB07
  3
INDEXCTL
350
35
  3
SORTENTS
350
194C
  0
DICTIONARY
  5
47
102
{ACAD_REACTORS
330
C
102
}
330
C
100
AcDbDictionary
281
     1
  3
AcmBOM
350
7E8
  3
AcmStdDictionary
350
4C
  3
AMDTSECTSYM_ARROWCOLOR
350
A929
  0
ACAD_PROXY_OBJECT
  5
3DEA
102
{ACAD_REACTORS
330
C
102
}
330
C
100
AcDbProxyObject
 90
      499
 91
      582
 95
   917527
 70
     0
 93
      114
310
00000043800000000000000000003F
 94
        0
1001
ACAD
1000
AcRTDxfName
1000
ACADGREFMODULE
  0
ACAD_PROXY_OBJECT
  5
3E06
102
{ACAD_REACTORS
330
C
102
}
330
C
100
AcDbProxyObject
 90
      499
 91
      594
 95
   917527
 70
     0
 93
       34
310
05000044FF
 94
        0
1001
ACAD
1000
AcRTDxfName
1000
MAPIADMODULE
  0
DICTIONARY
  5
2B
102
{ACAD_REACTORS
330
C
102
}
330
C
100
AcDbDictionary
281
     1
  0
DICTIONARY
  5
7D
102
{ACAD_REACTORS
330
C
102
}
330
C
100
AcDbDictionary
281
     1
  0
DICTIONARY
  5
B331
102
{ACAD_REACTORS
330
C
102
}
330
C
100
AcDbDictionary
281
     1
  3
ASEBlockHierarchyIndexRecord
350
B332
1001
DCO15
1040
1594111214.218
  0
XRECORD
  5
EDA8
102
{ACAD_REACTORS
330
C
102
}
330
C
100
AcDbXrecord
280
     1
  1
DWGPROPS COOKIE
  2

  3

  4

  6

  7

  8
Administrator
  9

300
AmdtFileType=84
301
=
302
=
303
=
304
=
305
=
306
=
307
=
308
=
309
=
 40
0.333625150462963
 41
2456139.798878935
 42
2456164.380729525
  1

 90
        1
  0
ACAD_PROXY_OBJECT
  5
3DEB
102
{ACAD_REACTORS
330
C
102
}
330
C
100
AcDbProxyObject
 90
      499
 91
      583
 95
   917527
 70
     0
 93
        8
310
047E
 94
        0
1001
ACAD
1000
AcRTDxfName
1000
AMDTMAPISURFMOUDULE
  0
DICTIONARY
  5
B466
102
{ACAD_REACTORS
330
3F95
102
}
330
3F95
100
AcDbDictionary
281
     1
  0
DICTIONARY
  5
3F96
102
{ACAD_REACTORS
330
3F95
102
}
330
3F95
100
AcDbDictionary
281
     1
  3
20011210
350
3FB7
  0
DICTIONARY
  5
B465
102
{ACAD_REACTORS
330
3F95
102
}
330
3F95
100
AcDbDictionary
281
     1
1001
ACAD
1000
<All
  0
DICTIONARY
  5
AAB4
102
{ACAD_REACTORS
330
3F95
102
}
330
3F95
100
AcDbDictionary
280
     1
281
     1
  0
SORTENTSTABLE
  5
B1BA
102
{ACAD_REACTORS
330
8A
102
}
330
8A
100
AcDbSortentsTable
330
1F
331
EA08
  5
EA14
331
EA47
  5
EA53
331
EA10
  5
EA1E
331
EA4F
  5
EA5C
331
EA57
  5
EA64
331
E339
  5
E33B
331
D042
  5
D043
331
E341
  5
E343
331
B6A4
  5
B6B9
331
E847
  5
E853
331
E886
  5
E892
331
E84F
  5
E85A
331
E88E
  5
E9E0
331
EA20
  5
EA2E
331
EA28
  5
EA34
331
E9E9
  5
E9F0
331
EA30
  5
EA3C
331
E9F1
  5
E9F8
331
EB5F
  5
EA03
331
EB67
  5
EB68
331
E9F9
  5
EA02
331
EA38
  5
EA45
331
ED93
  5
ED6F
331
EB6F
  5
EB73
331
E770
  5
E7C7
331
E857
  5
E862
331
E85F
  5
E86B
331
E369
  5
E37B
331
E86F
  5
E87D
331
EA01
  5
EA0D
331
EA40
  5
EA4C
331
EA09
  5
EA15
331
EA48
  5
EA54
331
ED15
  5
ED17
331
EA11
  5
EA1F
331
EA50
  5
EA5D
331
E830
  5
E83C
331
D043
  5
D044
331
E33A
  5
E33C
331
E838
  5
E844
331
B6A5
  5
B6BA
331
E342
  5
E344
331
E877
  5
E886
331
B6AD
  5
B6C6
331
E34A
  5
E358
331
E848
  5
E854
331
D0BB
  5
E32B
331
E887
  5
E893
331
E88F
  5
E9E1
331
EA21
  5
EA2F
331
E9E2
  5
E9E9
331
EA58
  5
EA65
331
EA29
  5
EA35
331
E9EA
  5
E9F1
331
EB60
  5
EA01
331
EA31
  5
EA3E
331
E9F2
  5
E9F9
331
EB68
  5
EB6B
331
E9FA
  5
EA05
331
EA39
  5
EA46
331
E850
  5
E85C
331
E771
  5
E7C8
331
E32B
  5
E32C
331
E821
  5
E82D
331
E858
  5
E863
331
E98F
  5
E9E7
331
E333
  5
E339
331
E860
  5
E86C
331
E868
  5
E874
331
EB70
  5
EB74
331
EA02
  5
EA0E
331
EA41
  5
EA4D
331
EA0A
  5
EA16
331
EA49
  5
EA55
331
ED16
  5
ED1A
331
EA12
  5
EA20
331
EA51
  5
EA5E
331
EA1A
  5
EA26
331
D044
  5
D045
331
E33B
  5
E33D
331
E37A
  5
E3E3
331
E392
  5
E3E5
331
B6A6
  5
B6BB
331
E343
  5
E34A
331
E839
  5
E846
331
E878
  5
E887
331
B6AE
  5
B864
331
E3A2
  5
E3E9
331
EA22
  5
EA30
331
E9E3
  5
E9EA
331
EA59
  5
EA66
331
ED7D
  5
EB6A
331
EA2A
  5
EA36
331
E9EB
  5
E9F2
331
EA32
  5
EA3F
331
E9F3
  5
E9FA
331
EB61
  5
EA04
331
EB69
  5
EB6C
331
E9FB
  5
EA06
331
EA3A
  5
EA47
331
E890
  5
E9E2
331
E772
  5
E7C9
331
E851
  5
E85D
331
E32C
  5
E32E
331
E822
  5
E832
331
E859
  5
E865
331
E82A
  5
E835
331
E861
  5
E86E
331
E869
  5
E875
331
EB71
  5
EB75
331
EA03
  5
EA0F
331
EA42
  5
EA4E
331
EA0B
  5
EA17
331
EA4A
  5
EA56
331
ED17
  5
ED56
331
ED6E
  5
EB66
331
EA13
  5
EA21
331
EA52
  5
EA5F
331
EA1B
  5
EA29
331
D045
  5
D04D
331
E33C
  5
E33E
331
E37B
  5
E3E4
331
E832
  5
E83D
331
D04D
  5
D04E
331
B6A7
  5
B6BE
331
E344
  5
E350
331
D055
  5
D0D5
331
E842
  5
E84E
331
E84A
  5
E856
331
E889
  5
E895
331
EA23
  5
EA31
331
E9E4
  5
E9EB
331
EA5A
  5
EA67
331
EA2B
  5
EA37
331
E9EC
  5
E9F3
331
EA33
  5
EA40
331
E9F4
  5
E9FB
331
EB62
  5
EA08
331
EB6A
  5
EB6D
331
E9FC
  5
EA07
331
EA3B
  5
EA48
331
E773
  5
E821
331
B867
  5
D042
331
E32D
  5
E330
331
E364
  5
E37A
331
E823
  5
E833
331
E85A
  5
E866
331
E991
  5
E9E8
331
E82B
  5
E836
331
E862
  5
E86F
331
E86A
  5
E877
331
EB72
  5
ECDA
331
EA04
  5
EA10
331
EA43
  5
EA4F
331
EA0C
  5
EA18
331
EA4B
  5
EA57
331
EA14
  5
EA22
331
EA53
  5
EA60
331
EA1C
  5
EA2A
331
E33D
  5
E33F
331
E833
  5
E83E
331
E872
  5
E87E
331
D04E
  5
D04F
331
B6A8
  5
B6BF
331
E394
  5
E3E7
331
E83B
  5
E847
331
B6B0
  5
B867
331
E84B
  5
E857
331
E76C
  5
E773
331
E88A
  5
E896
331
EA24
  5
EA32
331
E9E5
  5
E9EC
331
EA2C
  5
EA38
331
E9ED
  5
E9F4
331
EB5B
  5
E364
331
EA34
  5
EA41
331
E9F5
  5
E9FC
331
EB63
  5
E369
331
EB6B
  5
EB6F
331
E9FD
  5
EA09
331
E892
  5
E9E3
331
E853
  5
E85F
331
E32E
  5
E331
331
E824
  5
E834
331
E82C
  5
E838
331
E863
  5
E872
331
E375
  5
E3E1
331
E86B
  5
E878
331
EB73
  5
ECDB
331
EA05
  5
EA11
331
EA44
  5
EA50
331
EA0D
  5
EA1B
331
EA4C
  5
EA58
331
EA15
  5
EA23
331
EA54
  5
EA61
331
EA1D
  5
EA2B
331
E33E
  5
E340
331
E834
  5
E83F
331
E873
  5
E880
331
E83C
  5
E848
331
B6A9
  5
B6C0
331
D04F
  5
D050
331
E87B
  5
E889
331
B6B1
  5
BDCF
331
E844
  5
E84F
331
E76D
  5
E7C4
331
EA25
  5
EA33
331
E9E6
  5
E9ED
331
EA2D
  5
EA39
331
E9EE
  5
E9F5
331
EB5C
  5
E394
331
ECDA
  5
EB69
331
EA35
  5
EA42
331
E9F6
  5
E9FD
331
EB64
  5
E830
331
EB6C
  5
EB70
331
E9FE
  5
EA0A
331
EA3D
  5
EA49
331
E893
  5
E9E4
331
E35E
  5
E375
331
E854
  5
E860
331
E85C
  5
E868
331
E82D
  5
E839
331
E86C
  5
E87B
331
EB74
  5
ED15
331
EA06
  5
EA12
331
EA45
  5
EA51
331
EA0E
  5
EA1C
331
EA4D
  5
EA59
331
ED1A
  5
ED93
331
EA16
  5
EA24
331
EA55
  5
EA62
331
EA1E
  5
EA2C
331
B6A2
  5
B6B1
331
E33F
  5
E341
331
E835
  5
E841
331
E874
  5
E881
331
E83D
  5
E84A
331
B6AA
  5
B6C4
331
D050
  5
D055
331
E87C
  5
E88A
331
B6B2
  5
C9B1
331
E845
  5
E850
331
E884
  5
E88F
331
E84D
  5
E858
331
E76E
  5
E7C5
331
E88C
  5
E897
331
E9E7
  5
E9EE
331
EA2E
  5
EA3A
331
E9EF
  5
E9F6
331
EB5D
  5
E82F
331
ECDB
  5
EB6E
331
EA36
  5
EA43
331
E9F7
  5
E9FE
331
EB65
  5
E3A2
331
EB6D
  5
EB71
331
E9FF
  5
EA0B
331
EA3E
  5
EA4A
331
E330
  5
E333
331
E36F
  5
E3E0
331
EB75
  5
ED16
331
EA07
  5
EA13
331
EA46
  5
EA52
331
EA0F
  5
EA1D
331
EA4E
  5
EA5A
331
EA17
  5
EA25
331
EA56
  5
EA63
331
EA1F
  5
EA2D
331
E338
  5
E33A
331
B6A3
  5
B6B2
331
E340
  5
E342
331
E836
  5
E842
331
E875
  5
E884
331
E83E
  5
E84D
331
E87D
  5
E88E
331
E350
  5
E35E
331
E846
  5
E851
331
E885
  5
E890
331
E84E
  5
E859
331
E76F
  5
E7C6
331
E88D
  5
E991
331
E9E8
  5
E9EF
331
EA2F
  5
EA3B
331
E9F0
  5
E9F7
331
EB5E
  5
EA00
331
EB66
  5
EB67
331
E9F8
  5
E9FF
331
EA37
  5
EA44
331
EB6E
  5
EB72
331
EA3F
  5
EA4B
331
E358
  5
E36F
331
E895
  5
E9E5
331
E856
  5
E861
331
E331
  5
E338
331
E98D
  5
E9E6
331
E82F
  5
E83B
331
E866
  5
E873
331
E86E
  5
E87C
331
EA00
  5
EA0C
  0
XRECORD
  5
EDBA
102
{ACAD_REACTORS
330
EDB9
102
}
330
EDB9
100
AcDbXrecord
280
     1
 40
-31754.0
  1
　本体：EPDM^I　　　/　ワッシャ：スチール
  0
XRECORD
  5
EDAA
102
{ACAD_REACTORS
330
EDA9
102
}
330
EDA9
100
AcDbXrecord
280
     1
 70
     1
  0
LAYOUT
  5
22
102
{ACAD_XDICTIONARY
360
EDAD
102
}
102
{ACAD_REACTORS
330
1A
102
}
330
1A
100
AcDbPlotSettings
  1

  2
DocuCentre-II C5400
  4
A4
  6
AM_VIEW1
 40
4.857749938964843
 41
4.942390441894531
 42
4.942413330078125
 43
4.857757568359375
 44
209.9733276367187
 45
297.0106506347656
 46
-5.027390349347342
 47
-5.015248766320382
 48
214.3704939521119
 49
367.5855324241176
140
275.6727856380065
141
407.629191407817
142
1.0
143
1.0
 70
  3748
 72
     1
 73
     1
 74
     1
  7
monochrome.ctb
 75
     0
147
0.9532055446079798
148
0.152400765684888
149
0.1294667814495369
100
AcDbLayout
  1
Model
 70
     1
 71
     0
 10
0.0
 20
0.0
 11
12.0
 21
9.0
 12
0.0
 22
0.0
 32
0.0
 14
0.0
 24
0.0
 34
0.0
 15
0.0
 25
0.0
 35
0.0
146
0.0
 13
0.0
 23
0.0
 33
0.0
 16
1.0
 26
0.0
 36
0.0
 17
0.0
 27
1.0
 37
0.0
 76
     0
330
1F
331
B0EC
1001
ACAD_PSEXT
1000
DocuCentre-II C5400
1000
FX DocuCentre-II C5400
1000
192.168.2.200
1000

1070
     0
  0
LAYOUT
  5
1E
102
{ACAD_XDICTIONARY
360
EDAB
102
}
102
{ACAD_REACTORS
330
1A
102
}
330
1A
100
AcDbPlotSettings
  1

  2
\\ML370\XEROX
  4
A4
  6

 40
3.174999952316284
 41
3.174999952316284
 42
3.175003051757812
 43
3.17498779296875
 44
209.8674926757813
 45
296.6719970703125
 46
0.0
 47
0.0
 48
0.0
 49
0.0
140
0.0
141
0.0
142
1.0
143
1.0
 70
   688
 72
     1
 73
     1
 74
     5
  7
monochrome.ctb
 75
    16
147
1.0
148
0.0
149
0.0
100
AcDbLayout
  1
ﾚｲｱｳﾄ1
 70
     1
 71
     1
 10
-3.17498779296875
 20
-3.174999952316284
 11
293.4970092773438
 21
206.692492723465
 12
0.0
 22
0.0
 32
0.0
 14
1.000000000000000E+20
 24
1.000000000000000E+20
 34
1.000000000000000E+20
 15
-1.000000000000000E+20
 25
-1.000000000000000E+20
 35
-1.000000000000000E+20
146
0.0
 13
0.0
 23
0.0
 33
0.0
 16
1.0
 26
0.0
 36
0.0
 17
0.0
 27
1.0
 37
0.0
 76
     0
330
1B
  0
LAYOUT
  5
26
102
{ACAD_XDICTIONARY
360
EDAF
102
}
102
{ACAD_REACTORS
330
1A
102
}
330
1A
100
AcDbPlotSettings
  1

  2
\\ML370\XEROX
  4

  6

 40
0.0
 41
0.0
 42
0.0
 43
0.0
 44
0.0
 45
0.0
 46
0.0
 47
0.0
 48
0.0
 49
0.0
140
0.0
141
0.0
142
1.0
143
1.0
 70
   688
 72
     0
 73
     0
 74
     5
  7
monochrome.ctb
 75
    16
147
1.0
148
0.0
149
0.0
100
AcDbLayout
  1
ﾚｲｱｳﾄ2
 70
     1
 71
     2
 10
0.0
 20
0.0
 11
12.0
 21
9.0
 12
0.0
 22
0.0
 32
0.0
 14
0.0
 24
0.0
 34
0.0
 15
0.0
 25
0.0
 35
0.0
146
0.0
 13
0.0
 23
0.0
 33
0.0
 16
1.0
 26
0.0
 36
0.0
 17
0.0
 27
1.0
 37
0.0
 76
     0
330
23
  0
MATERIAL
  5
B0EF
102
{ACAD_XDICTIONARY
360
EDB5
102
}
102
{ACAD_REACTORS
330
A91C
102
}
330
A91C
100
AcDbMaterial
  1
ByBlock
  0
MATERIAL
  5
B0EE
102
{ACAD_XDICTIONARY
360
EDB3
102
}
102
{ACAD_REACTORS
330
A91C
102
}
330
A91C
100
AcDbMaterial
  1
ByLayer
  0
MATERIAL
  5
B0F0
102
{ACAD_XDICTIONARY
360
EDB7
102
}
102
{ACAD_REACTORS
330
A91C
102
}
330
A91C
100
AcDbMaterial
  1
Global
  0
MLINESTYLE
  5
18
102
{ACAD_REACTORS
330
17
102
}
330
17
100
AcDbMlineStyle
  2
STANDARD
 70
     0
  3

 62
   256
 51
90.0
 52
90.0
 71
     2
 49
0.5
 62
   256
  6
BYLAYER
 49
-0.5
 62
   256
  6
BYLAYER
  0
ACDBPLACEHOLDER
  5
F
102
{ACAD_REACTORS
330
E
102
}
330
E
  0
TABLESTYLE
  5
AABA
102
{ACAD_XDICTIONARY
360
EDB1
102
}
102
{ACAD_REACTORS
330
AAB9
102
}
330
AAB9
100
AcDbTableStyle
  3
Standard
 70
     0
 71
     0
 40
1.5
 41
1.5
280
     0
281
     0
  7
STANDARD
140
4.5
170
     2
 62
     0
 63
     7
283
     0
274
    -2
284
     1
 64
     0
275
    -2
285
     1
 65
     0
276
    -2
286
     1
 66
     0
277
    -2
287
     1
 67
     0
278
    -2
288
     1
 68
     0
279
    -2
289
     1
 69
     0
  7
STANDARD
140
6.0
170
     5
 62
     0
 63
     7
283
     0
274
    -2
284
     1
 64
     0
275
    -2
285
     1
 65
     0
276
    -2
286
     1
 66
     0
277
    -2
287
     1
 67
     0
278
    -2
288
     1
 68
     0
279
    -2
289
     1
 69
     0
  7
STANDARD
140
4.5
170
     5
 62
     0
 63
     7
283
     0
274
    -2
284
     1
 64
     0
275
    -2
285
     1
 65
     0
276
    -2
286
     1
 66
     0
277
    -2
287
     1
 67
     0
278
    -2
288
     1
 68
     0
279
    -2
289
     1
 69
     0
  0
VISUALSTYLE
  5
B0F7
102
{ACAD_REACTORS
330
B0F1
102
}
330
B0F1
100
AcDbVisualStyle
  2
2dWireframe
 70
     4
 71
     0
 72
     2
 73
     0
 90
        0
 40
-0.6
 41
-30.0
 62
     5
 63
     7
 74
     1
 91
        4
 64
     7
 65
   257
 75
     1
175
     1
 42
1.0
 92
        0
 66
   257
 43
1.0
 76
     1
 77
     6
 78
     2
 67
     7
 79
     5
170
     0
171
     0
290
     0
174
     0
 93
        1
 44
0.0
173
     0
291
     0
 45
0.0
1001
ACAD
1000
AcDbSavedByObjectVersion
1070
     0
  0
VISUALSTYLE
  5
B0F9
102
{ACAD_REACTORS
330
B0F1
102
}
330
B0F1
100
AcDbVisualStyle
  2
3D Hidden
 70
     6
 71
     1
 72
     2
 73
     2
 90
        0
 40
-0.6
 41
-30.0
 62
     5
 63
     7
 74
     2
 91
        2
 64
     7
 65
   257
 75
     2
175
     1
 42
40.0
 92
        0
 66
   257
 43
1.0
 76
     1
 77
     6
 78
     2
 67
     7
 79
     3
170
     0
171
     0
290
     0
174
     0
 93
        1
 44
0.0
173
     0
291
     0
 45
0.0
1001
ACAD
1000
AcDbSavedByObjectVersion
1070
     0
  0
VISUALSTYLE
  5
B0F8
102
{ACAD_REACTORS
330
B0F1
102
}
330
B0F1
100
AcDbVisualStyle
  2
3dWireframe
 70
     5
 71
     0
 72
     2
 73
     0
 90
        0
 40
-0.6
 41
-30.0
 62
     5
 63
     7
 74
     1
 91
        4
 64
     7
 65
   257
 75
     1
175
     1
 42
1.0
 92
        0
 66
   257
 43
1.0
 76
     1
 77
     6
 78
     2
 67
     7
 79
     5
170
     0
171
     0
290
     0
174
     0
 93
        1
 44
0.0
173
     0
291
     0
 45
0.0
1001
ACAD
1000
AcDbSavedByObjectVersion
1070
     0
  0
VISUALSTYLE
  5
B0F6
102
{ACAD_REACTORS
330
B0F1
102
}
330
B0F1
100
AcDbVisualStyle
  2
Basic
 70
     7
 71
     1
 72
     0
 73
     1
 90
        0
 40
-0.6
 41
-30.0
 62
     5
 63
     7
 74
     0
 91
        4
 64
     7
 65
   257
 75
     1
175
     1
 42
1.0
 92
        8
 66
     7
 43
1.0
 76
     1
 77
     6
 78
     2
 67
     7
 79
     5
170
     0
171
     0
290
     0
174
     0
 93
        1
 44
0.0
173
     0
291
     1
 45
0.0
1001
ACAD
1000
AcDbSavedByObjectVersion
1070
     0
  0
VISUALSTYLE
  5
B0FD
102
{ACAD_REACTORS
330
B0F1
102
}
330
B0F1
100
AcDbVisualStyle
  2
Brighten
 70
    12
 71
     2
 72
     2
 73
     0
 90
        0
 40
-0.6
 41
-30.0
 62
     5
 63
     7
 74
     1
 91
        4
 64
     7
 65
   257
 75
     1
175
     1
 42
1.0
 92
        8
 66
     7
 43
1.0
 76
     1
 77
     6
 78
     2
 67
     7
 79
     5
170
     0
171
     0
290
     0
174
     0
 93
        1
 44
50.0
173
     0
291
     1
 45
0.0
1001
ACAD
1000
AcDbSavedByObjectVersion
1070
     0
  0
VISUALSTYLE
  5
B101
102
{ACAD_REACTORS
330
B0F1
102
}
330
B0F1
100
AcDbVisualStyle
  2
ColorChange
 70
    16
 71
     2
 72
     2
 73
     3
 90
        0
 40
-0.6
 41
-30.0
 62
     5
 63
     8
 74
     1
 91
        4
 64
     7
 65
   257
 75
     1
175
     1
 42
1.0
 92
        8
 66
     8
 43
1.0
 76
     1
 77
     6
 78
     2
 67
     7
 79
     5
170
     0
171
     0
290
     0
174
     0
 93
        1
 44
0.0
173
     0
291
     1
 45
0.0
1001
ACAD
1000
AcDbSavedByObjectVersion
1070
     0
  0
VISUALSTYLE
  5
B0FA
102
{ACAD_REACTORS
330
B0F1
102
}
330
B0F1
100
AcDbVisualStyle
  2
Conceptual
 70
     9
 71
     3
 72
     2
 73
     0
 90
        0
 40
-0.6
 41
-30.0
 62
     5
 63
     7
 74
     2
 91
        2
 64
     7
 65
   257
 75
     1
175
     1
 42
40.0
 92
        8
 66
     7
 43
1.0
 76
     1
 77
     6
 78
     2
 67
     7
 79
     3
170
     0
171
     0
290
     0
174
     0
 93
        1
 44
0.0
173
     0
291
     0
 45
0.0
1001
ACAD
1000
AcDbSavedByObjectVersion
1070
     0
  0
VISUALSTYLE
  5
B0FC
102
{ACAD_REACTORS
330
B0F1
102
}
330
B0F1
100
AcDbVisualStyle
  2
Dim
 70
    11
 71
     2
 72
     2
 73
     0
 90
        0
 40
-0.6
 41
-30.0
 62
     5
 63
     7
 74
     1
 91
        4
 64
     7
 65
   257
 75
     1
175
     1
 42
1.0
 92
        8
 66
     7
 43
1.0
 76
     1
 77
     6
 78
     2
 67
     7
 79
     5
170
     0
171
     0
290
     0
174
     0
 93
        1
 44
-50.0
173
     0
291
     1
 45
0.0
1001
ACAD
1000
AcDbSavedByObjectVersion
1070
     0
  0
VISUALSTYLE
  5
B100
102
{ACAD_REACTORS
330
B0F1
102
}
330
B0F1
100
AcDbVisualStyle
  2
Facepattern
 70
    15
 71
     2
 72
     2
 73
     0
 90
        0
 40
-0.6
 41
-30.0
 62
     5
 63
     7
 74
     1
 91
        4
 64
     7
 65
   257
 75
     1
175
     1
 42
1.0
 92
        8
 66
     7
 43
1.0
 76
     1
 77
     6
 78
     2
 67
     7
 79
     5
170
     0
171
     0
290
     0
174
     0
 93
        1
 44
0.0
173
     0
291
     1
 45
0.0
1001
ACAD
1000
AcDbSavedByObjectVersion
1070
     0
  0
VISUALSTYLE
  5
B0F2
102
{ACAD_REACTORS
330
B0F1
102
}
330
B0F1
100
AcDbVisualStyle
  2
Flat
 70
     0
 71
     2
 72
     1
 73
     1
 90
        2
 40
-0.6
 41
30.0
 62
     5
 63
     7
 74
     0
 91
        4
 64
     7
 65
   257
 75
     1
175
     1
 42
1.0
 92
        8
 66
     7
 43
1.0
 76
     1
 77
     6
 78
     2
 67
     7
 79
     5
170
     0
171
     0
290
     0
174
     0
 93
       13
 44
0.0
173
     0
291
     1
 45
0.0
1001
ACAD
1000
AcDbSavedByObjectVersion
1070
     0
  0
VISUALSTYLE
  5
B0F3
102
{ACAD_REACTORS
330
B0F1
102
}
330
B0F1
100
AcDbVisualStyle
  2
FlatWithEdges
 70
     1
 71
     2
 72
     1
 73
     1
 90
        2
 40
-0.6
 41
30.0
 62
     5
 63
     7
 74
     1
 91
        4
 64
     7
 65
   257
 75
     1
175
     1
 42
1.0
 92
        0
 66
   257
 43
1.0
 76
     1
 77
     6
 78
     2
 67
     7
 79
     5
170
     0
171
     0
290
     0
174
     0
 93
       13
 44
0.0
173
     0
291
     1
 45
0.0
1001
ACAD
1000
AcDbSavedByObjectVersion
1070
     0
  0
VISUALSTYLE
  5
B0F4
102
{ACAD_REACTORS
330
B0F1
102
}
330
B0F1
100
AcDbVisualStyle
  2
Gouraud
 70
     2
 71
     2
 72
     2
 73
     1
 90
        2
 40
-0.6
 41
30.0
 62
     5
 63
     7
 74
     0
 91
        4
 64
     7
 65
   257
 75
     1
175
     1
 42
1.0
 92
        0
 66
     7
 43
1.0
 76
     1
 77
     6
 78
     2
 67
     7
 79
     5
170
     0
171
     0
290
     0
174
     0
 93
       13
 44
0.0
173
     0
291
     1
 45
0.0
1001
ACAD
1000
AcDbSavedByObjectVersion
1070
     0
  0
VISUALSTYLE
  5
B0F5
102
{ACAD_REACTORS
330
B0F1
102
}
330
B0F1
100
AcDbVisualStyle
  2
GouraudWithEdges
 70
     3
 71
     2
 72
     2
 73
     1
 90
        2
 40
-0.6
 41
30.0
 62
     5
 63
     7
 74
     1
 91
        4
 64
     7
 65
   257
 75
     1
175
     1
 42
1.0
 92
        0
 66
   257
 43
1.0
 76
     1
 77
     6
 78
     2
 67
     7
 79
     5
170
     0
171
     0
290
     0
174
     0
 93
       13
 44
0.0
173
     0
291
     1
 45
0.0
1001
ACAD
1000
AcDbSavedByObjectVersion
1070
     0
  0
VISUALSTYLE
  5
B0FF
102
{ACAD_REACTORS
330
B0F1
102
}
330
B0F1
100
AcDbVisualStyle
  2
Linepattern
 70
    14
 71
     2
 72
     2
 73
     0
 90
        0
 40
-0.6
 41
-30.0
 62
     5
 63
     7
 74
     1
 91
        4
 64
     7
 65
   257
 75
     7
175
     7
 42
1.0
 92
        8
 66
     7
 43
1.0
 76
     1
 77
     6
 78
     2
 67
     7
 79
     5
170
     0
171
     0
290
     0
174
     0
 93
        1
 44
0.0
173
     0
291
     1
 45
0.0
1001
ACAD
1000
AcDbSavedByObjectVersion
1070
     0
  0
VISUALSTYLE
  5
B0FB
102
{ACAD_REACTORS
330
B0F1
102
}
330
B0F1
100
AcDbVisualStyle
  2
Realistic
 70
     8
 71
     2
 72
     2
 73
     0
 90
        0
 40
-0.6
 41
-30.0
 62
     5
 63
     7
 74
     1
 91
        0
 64
     7
 65
   257
 75
     1
175
     1
 42
1.0
 92
        8
 66
     8
 43
1.0
 76
     1
 77
     6
 78
     2
 67
     7
 79
     5
170
     0
171
     0
290
     0
174
     0
 93
       13
 44
0.0
173
     0
291
     0
 45
0.0
1001
ACAD
1000
AcDbSavedByObjectVersion
1070
     0
  0
VISUALSTYLE
  5
B0FE
102
{ACAD_REACTORS
330
B0F1
102
}
330
B0F1
100
AcDbVisualStyle
  2
Thicken
 70
    13
 71
     2
 72
     2
 73
     0
 90
        0
 40
-0.6
 41
-30.0
 62
     5
 63
     7
 74
     1
 91
        4
 64
     7
 65
   257
 75
     1
175
     1
 42
1.0
 92
       12
 66
     7
 43
1.0
 76
     1
 77
     6
 78
     2
 67
     7
 79
     5
170
     0
171
     0
290
     0
174
     0
 93
        1
 44
0.0
173
     0
291
     1
 45
0.0
1001
ACAD
1000
AcDbSavedByObjectVersion
1070
     0
  0
DICTIONARYVAR
  5
AAF3
102
{ACAD_REACTORS
330
34
102
}
330
34
100
DictionaryVariables
280
     0
  1
STANDARD
  0
DICTIONARYVAR
  5
A10C
102
{ACAD_REACTORS
330
34
102
}
330
34
100
DictionaryVariables
280
     0
  1
1
  0
DICTIONARYVAR
  5
AB07
102
{ACAD_REACTORS
330
34
102
}
330
34
100
DictionaryVariables
280
     0
  1
4
  0
DICTIONARYVAR
  5
35
102
{ACAD_REACTORS
330
34
102
}
330
34
100
DictionaryVariables
280
     0
  1
0
  0
DICTIONARYVAR
  5
194C
102
{ACAD_REACTORS
330
34
102
}
330
34
100
DictionaryVariables
280
     0
  1
127
  0
DICTIONARY
  5
7E8
102
{ACAD_REACTORS
330
47
102
}
330
47
100
AcDbDictionary
281
     1
  0
DICTIONARY
  5
4C
102
{ACAD_REACTORS
330
47
102
}
330
47
100
AcDbDictionary
281
     1
  0
XRECORD
  5
A929
102
{ACAD_REACTORS
330
47
102
}
330
47
100
AcDbXrecord
280
     1
 90
-1023410169
  0
XRECORD
  5
B332
102
{ACAD_REACTORS
330
B331
102
}
330
B331
100
AcDbXrecord
280
     1
  0
XRECORD
  5
3FB7
102
{ACAD_REACTORS
330
3F96
102
}
330
3F96
100
AcDbXrecord
280
     1
 91
        3
330
0
 90
        8
 62
     7
370
    40
331
16
  1
Color_7
330
0
 90
        0
 62
    14
370
    -3
331
16
  1
Color_14
330
0
 90
        8
 62
     7
370
    20
331
16
  1
Color_7
330
6D1
 90
        0
 62
     7
370
    -3
331
16
  1
Color_7
330
0
 90
        8
 62
     7
370
    50
331
16
  1
Color_7
330
0
 90
        8
 62
     2
370
    35
331
16
  1
Color_2
330
0
 90
        8
 62
     7
370
    -3
331
16
  1
Color_7
330
10
 90
        8
 62
     7
370
    -3
331
16
  1
Color_7
  0
DICTIONARY
  5
EDAD
330
22
100
AcDbDictionary
280
     1
281
     1
  3
ACAD_XREC_ROUNDTRIP
360
EDAE
  0
DICTIONARY
  5
EDAB
330
1E
100
AcDbDictionary
280
     1
281
     1
  3
ACAD_XREC_ROUNDTRIP
360
EDAC
  0
DICTIONARY
  5
EDAF
330
26
100
AcDbDictionary
280
     1
281
     1
  3
ACAD_XREC_ROUNDTRIP
360
EDB0
  0
DICTIONARY
  5
EDB5
330
B0EF
100
AcDbDictionary
280
     1
281
     1
  3
ACAD_XREC_ROUNDTRIP
360
EDB6
  0
DICTIONARY
  5
EDB3
330
B0EE
100
AcDbDictionary
280
     1
281
     1
  3
ACAD_XREC_ROUNDTRIP
360
EDB4
  0
DICTIONARY
  5
EDB7
330
B0F0
100
AcDbDictionary
280
     1
281
     1
  3
ACAD_XREC_ROUNDTRIP
360
EDB8
  0
DICTIONARY
  5
EDB1
330
AABA
100
AcDbDictionary
280
     1
281
     1
  3
ACAD_XREC_ROUNDTRIP
360
EDB2
  0
XRECORD
  5
EDAE
102
{ACAD_REACTORS
330
EDAD
102
}
330
EDAD
100
AcDbXrecord
280
     1
102
SHADEPLOT
 70
     0
102
SHADEPLOTRESLEVEL
 70
     2
102
SHADEPLOTCUSTOMDPI
 70
   200
  0
XRECORD
  5
EDAC
102
{ACAD_REACTORS
330
EDAB
102
}
330
EDAB
100
AcDbXrecord
280
     1
102
SHADEPLOT
 70
     0
102
SHADEPLOTRESLEVEL
 70
     2
102
SHADEPLOTCUSTOMDPI
 70
   300
  0
XRECORD
  5
EDB0
102
{ACAD_REACTORS
330
EDAF
102
}
330
EDAF
100
AcDbXrecord
280
     1
102
SHADEPLOT
 70
     0
102
SHADEPLOTRESLEVEL
 70
     2
102
SHADEPLOTCUSTOMDPI
 70
   300
  0
XRECORD
  5
EDB6
102
{ACAD_REACTORS
330
EDB5
102
}
330
EDB5
100
AcDbXrecord
280
     1
102
MATERIAL
148
0.0
149
0.0
149
0.0
 93
        0
 94
       63
282
     0
 72
     1
 77
     1
171
     1
175
     1
179
     1
273
     0
  0
XRECORD
  5
EDB4
102
{ACAD_REACTORS
330
EDB3
102
}
330
EDB3
100
AcDbXrecord
280
     1
102
MATERIAL
148
0.0
149
0.0
149
0.0
 93
        0
 94
       63
282
     0
 72
     1
 77
     1
171
     1
175
     1
179
     1
273
     0
  0
XRECORD
  5
EDB8
102
{ACAD_REACTORS
330
EDB7
102
}
330
EDB7
100
AcDbXrecord
280
     1
102
MATERIAL
148
0.0
149
0.0
149
0.0
 93
        0
 94
       63
282
     0
 72
     1
 77
     1
171
     1
175
     1
179
     1
273
     0
  0
XRECORD
  5
EDB2
102
{ACAD_REACTORS
330
EDB1
102
}
330
EDB1
100
AcDbXrecord
280
     1
102
ACAD_ROUNDTRIP_PRE2007_TABLESTYLE
 90
        4
 91
        0
  1

 92
        4
 93
        0
  2

 94
        4
 95
        0
  3

  0
ENDSEC
  0
EOF
