  0
SECTION
  2
HEADER
  9
$ACADVER
  1
AC1018
  9
$ACADMAINTVER
 70
   104
  9
$DWGCODEPAGE
  3
ANSI_932
  9
$LASTSAVEDBY
  1
Administrator
  9
$CUSTOMPROPERTYTAG
  1
AmdtFileType
  9
$CUSTOMPROPERTY
  1
84
  9
$INSBASE
 10
0.0
 20
0.0
 30
0.0
  9
$EXTMIN
 10
2344.363557575123
 20
1706.664336549583
 30
-0.0000000349181948
  9
$EXTMAX
 10
2764.414828671056
 20
2003.700592538848
 30
0.0000000814935746
  9
$LIMMIN
 10
2344.389191167252
 20
1706.682463161159
  9
$LIMMAX
 10
2764.389191167252
 20
2003.68246316116
  9
$ORTHOMODE
 70
     0
  9
$REGENMODE
 70
     1
  9
$FILLMODE
 70
     1
  9
$QTEXTMODE
 70
     0
  9
$MIRRTEXT
 70
     0
  9
$LTSCALE
 40
1.0
  9
$ATTMODE
 70
     1
  9
$TEXTSIZE
 40
3.2
  9
$TRACEWID
 40
1.0
  9
$TEXTSTYLE
  7
STANDARD
  9
$CLAYER
  8
AM_0
  9
$CELTYPE
  6
ByLayer
  9
$CECOLOR
 62
   256
  9
$CELTSCALE
 40
1.0
  9
$DISPSILH
 70
     0
  9
$DIMSCALE
 40
1.0
  9
$DIMASZ
 40
1.0
  9
$DIMEXO
 40
1.0
  9
$DIMDLI
 40
10.0
  9
$DIMRND
 40
0.0
  9
$DIMDLE
 40
0.0
  9
$DIMEXE
 40
1.0
  9
$DIMTP
 40
0.1
  9
$DIMTM
 40
0.1
  9
$DIMTXT
 40
3.5
  9
$DIMCEN
 40
0.0
  9
$DIMTSZ
 40
0.0
  9
$DIMTOL
 70
     0
  9
$DIMLIM
 70
     0
  9
$DIMTIH
 70
     0
  9
$DIMTOH
 70
     0
  9
$DIMSE1
 70
     0
  9
$DIMSE2
 70
     0
  9
$DIMTAD
 70
     1
  9
$DIMZIN
 70
     8
  9
$DIMBLK
  1

  9
$DIMASO
 70
     1
  9
$DIMSHO
 70
     1
  9
$DIMPOST
  1

  9
$DIMAPOST
  1
"
  9
$DIMALT
 70
     0
  9
$DIMALTD
 70
     2
  9
$DIMALTF
 40
0.0393701
  9
$DIMLFAC
 40
1.0
  9
$DIMTOFL
 70
     1
  9
$DIMTVP
 40
0.0
  9
$DIMTIX
 70
     0
  9
$DIMSOXD
 70
     0
  9
$DIMSAH
 70
     0
  9
$DIMBLK1
  1

  9
$DIMBLK2
  1

  9
$DIMSTYLE
  2
SYS
  9
$DIMCLRD
 70
   256
  9
$DIMCLRE
 70
   256
  9
$DIMCLRT
 70
     7
  9
$DIMTFAC
 40
0.71
  9
$DIMGAP
 40
1.5
  9
$DIMJUST
 70
     0
  9
$DIMSD1
 70
     0
  9
$DIMSD2
 70
     0
  9
$DIMTOLJ
 70
     0
  9
$DIMTZIN
 70
     8
  9
$DIMALTZ
 70
     0
  9
$DIMALTTZ
 70
     0
  9
$DIMUPT
 70
     0
  9
$DIMDEC
 70
     2
  9
$DIMTDEC
 70
     2
  9
$DIMALTU
 70
     2
  9
$DIMALTTD
 70
     2
  9
$DIMTXSTY
  7
STANDARD
  9
$DIMAUNIT
 70
     0
  9
$DIMADEC
 70
     0
  9
$DIMALTRND
 40
0.0
  9
$DIMAZIN
 70
     2
  9
$DIMDSEP
 70
    46
  9
$DIMATFIT
 70
     3
  9
$DIMFRAC
 70
     0
  9
$DIMLDRBLK
  1

  9
$DIMLUNIT
 70
     2
  9
$DIMLWD
 70
    -1
  9
$DIMLWE
 70
    -1
  9
$DIMTMOVE
 70
     0
  9
$LUNITS
 70
     2
  9
$LUPREC
 70
     2
  9
$SKETCHINC
 40
1.0
  9
$FILLETRAD
 40
2.0
  9
$AUNITS
 70
     0
  9
$AUPREC
 70
     0
  9
$MENU
  1
.
  9
$ELEVATION
 40
0.0
  9
$PELEVATION
 40
0.0
  9
$THICKNESS
 40
0.0
  9
$LIMCHECK
 70
     0
  9
$CHAMFERA
 40
0.0
  9
$CHAMFERB
 40
0.0
  9
$CHAMFERC
 40
20.0
  9
$CHAMFERD
 40
0.0
  9
$SKPOLY
 70
     0
  9
$TDCREATE
 40
2455589.419151111
  9
$TDUCREATE
 40
2455589.044151111
  9
$TDUPDATE
 40
2455589.592484259
  9
$TDUUPDATE
 40
2455589.217484259
  9
$TDINDWG
 40
0.0812726042
  9
$TDUSRTIMER
 40
0.0812724190
  9
$USRTIMER
 70
     1
  9
$ANGBASE
 50
0.0
  9
$ANGDIR
 70
     0
  9
$PDMODE
 70
     0
  9
$PDSIZE
 40
-3.0
  9
$PLINEWID
 40
0.0
  9
$SPLFRAME
 70
     0
  9
$SPLINETYPE
 70
     6
  9
$SPLINESEGS
 70
     8
  9
$HANDSEED
  5
E253
  9
$SURFTAB1
 70
     6
  9
$SURFTAB2
 70
     6
  9
$SURFTYPE
 70
     6
  9
$SURFU
 70
     6
  9
$SURFV
 70
     6
  9
$UCSBASE
  2

  9
$UCSNAME
  2

  9
$UCSORG
 10
0.0
 20
0.0
 30
0.0
  9
$UCSXDIR
 10
1.0
 20
0.0
 30
0.0
  9
$UCSYDIR
 10
0.0
 20
1.0
 30
0.0
  9
$UCSORTHOREF
  2

  9
$UCSORTHOVIEW
 70
     0
  9
$UCSORGTOP
 10
0.0
 20
0.0
 30
0.0
  9
$UCSORGBOTTOM
 10
0.0
 20
0.0
 30
0.0
  9
$UCSORGLEFT
 10
0.0
 20
0.0
 30
0.0
  9
$UCSORGRIGHT
 10
0.0
 20
0.0
 30
0.0
  9
$UCSORGFRONT
 10
0.0
 20
0.0
 30
0.0
  9
$UCSORGBACK
 10
0.0
 20
0.0
 30
0.0
  9
$PUCSBASE
  2

  9
$PUCSNAME
  2

  9
$PUCSORG
 10
0.0
 20
0.0
 30
0.0
  9
$PUCSXDIR
 10
1.0
 20
0.0
 30
0.0
  9
$PUCSYDIR
 10
0.0
 20
1.0
 30
0.0
  9
$PUCSORTHOREF
  2

  9
$PUCSORTHOVIEW
 70
     0
  9
$PUCSORGTOP
 10
0.0
 20
0.0
 30
0.0
  9
$PUCSORGBOTTOM
 10
0.0
 20
0.0
 30
0.0
  9
$PUCSORGLEFT
 10
0.0
 20
0.0
 30
0.0
  9
$PUCSORGRIGHT
 10
0.0
 20
0.0
 30
0.0
  9
$PUCSORGFRONT
 10
0.0
 20
0.0
 30
0.0
  9
$PUCSORGBACK
 10
0.0
 20
0.0
 30
0.0
  9
$USERI1
 70
     0
  9
$USERI2
 70
     0
  9
$USERI3
 70
     0
  9
$USERI4
 70
     0
  9
$USERI5
 70
     0
  9
$USERR1
 40
0.0
  9
$USERR2
 40
0.0
  9
$USERR3
 40
0.0
  9
$USERR4
 40
0.0
  9
$USERR5
 40
0.0
  9
$WORLDVIEW
 70
     1
  9
$SHADEDGE
 70
     3
  9
$SHADEDIF
 70
    70
  9
$TILEMODE
 70
     1
  9
$MAXACTVP
 70
    64
  9
$PINSBASE
 10
0.0
 20
0.0
 30
0.0
  9
$PLIMCHECK
 70
     0
  9
$PEXTMIN
 10
1.000000000000000E+20
 20
1.000000000000000E+20
 30
1.000000000000000E+20
  9
$PEXTMAX
 10
-1.000000000000000E+20
 20
-1.000000000000000E+20
 30
-1.000000000000000E+20
  9
$PLIMMIN
 10
-3.17498779296875
 20
-3.174999952316284
  9
$PLIMMAX
 10
293.4970092773438
 20
206.692492723465
  9
$UNITMODE
 70
     0
  9
$VISRETAIN
 70
     1
  9
$PLINEGEN
 70
     0
  9
$PSLTSCALE
 70
     1
  9
$TREEDEPTH
 70
  3020
  9
$CMLSTYLE
  2
Standard
  9
$CMLJUST
 70
     0
  9
$CMLSCALE
 40
20.0
  9
$PROXYGRAPHICS
 70
     1
  9
$MEASUREMENT
 70
     1
  9
$CELWEIGHT
370
    -1
  9
$ENDCAPS
280
     0
  9
$JOINSTYLE
280
     0
  9
$LWDISPLAY
290
     1
  9
$INSUNITS
 70
     4
  9
$HYPERLINKBASE
  1

  9
$STYLESHEET
  1
monochrome.ctb
  9
$XEDIT
290
     1
  9
$CEPSNTYPE
380
     0
  9
$PSTYLEMODE
290
     1
  9
$FINGERPRINTGUID
  2
{0320C47B-3DE4-4F61-90E8-B10006B651AD}
  9
$VERSIONGUID
  2
{A412AB7C-7044-4E16-A332-F3CDFA55A7D0}
  9
$EXTNAMES
290
     1
  9
$PSVPSCALE
 40
0.0
  9
$OLESTARTUP
290
     0
  9
$SORTENTS
280
    96
  9
$INDEXCTL
280
     0
  9
$HIDETEXT
280
     0
  9
$XCLIPFRAME
290
     0
  9
$HALOGAP
280
     0
  9
$OBSCOLOR
 70
   257
  9
$OBSLTYPE
280
     0
  9
$INTERSECTIONDISPLAY
280
     0
  9
$INTERSECTIONCOLOR
 70
   257
  9
$DIMASSOC
280
     1
  9
$PROJECTNAME
  1

  0
ENDSEC
  0
SECTION
  2
CLASSES
  0
CLASS
  1
ACDBDICTIONARYWDFLT
  2
AcDbDictionaryWithDefault
  3
ObjectDBX Classes
 90
        0
 91
        1
280
     0
281
     0
  0
CLASS
  1
ACDBPLACEHOLDER
  2
AcDbPlaceHolder
  3
ObjectDBX Classes
 90
        0
 91
        1
280
     0
281
     0
  0
CLASS
  1
LAYOUT
  2
AcDbLayout
  3
ObjectDBX Classes
 90
        0
 91
        3
280
     0
281
     0
  0
CLASS
  1
AMGSETTINGSOBJ
  2
AmgSettingsObj
  3
"AcadM|Product Description: AutoCAD Mechanical|Company: Autodesk"
 90
        0
 91
        4
280
     0
281
     0
  0
CLASS
  1
ACME_DOCUMENT
  2
AcMeDbDoc
  3
AcMeServices
 90
        0
 91
        2
280
     0
281
     0
  0
CLASS
  1
ACMESCOPE
  2
AcMeScope
  3
AcMeServices
 90
        0
 91
        1
280
     0
281
     0
  0
CLASS
  1
ACMECOMMANDHISTORY
  2
AcMeCommandHistory
  3
AcMeServices
 90
        0
 91
        1
280
     0
281
     0
  0
CLASS
  1
DICTIONARYVAR
  2
AcDbDictionaryVar
  3
ObjectDBX Classes
 90
        0
 91
        5
280
     0
281
     0
  0
CLASS
  1
ACIMSYSVARMAN
  2
AcImSysVarManager
  3
AcMeServices
 90
        0
 91
        6
280
     0
281
     0
  0
CLASS
  1
ACIMREALSYSVAR
  2
AcImRealSysVar
  3
AcMeServices
 90
        0
 91
       17
280
     0
281
     0
  0
CLASS
  1
ACIMINTSYSVAR
  2
AcImIntSysVar
  3
AcMeServices
 90
        0
 91
       73
280
     0
281
     0
  0
CLASS
  1
ACMEDRAWINGMAN
  2
AcMeDrawingMan
  3
AcMeServices
 90
        0
 91
        1
280
     0
281
     0
  0
CLASS
  1
ACMEVIEW
  2
AcMeView
  3
AcMeServices
 90
        0
 91
        1
280
     0
281
     0
  0
CLASS
  1
ACDBENTITYCACHE
  2
AcMeEntityCache
  3
AcMeServices
 90
        0
 91
        1
280
     0
281
     0
  0
CLASS
  1
GSMANAGER
  2
AcMeGSManager
  3
AcMeServices
 90
        0
 91
        1
280
     0
281
     0
  0
CLASS
  1
AMDTINTERNALREACTOR
  2
AmdtInternalReactor
  3
AcMeServices
 90
        0
 91
        2
280
     0
281
     0
  0
CLASS
  1
ACMESTATEMGR
  2
AcMeStateMgr
  3
AcMeServices
 90
        0
 91
        1
280
     0
281
     0
  0
CLASS
  1
ACGREFMASTER
  2
AcGrefMaster
  3
AcAttribServices
 90
        0
 91
        1
280
     0
281
     0
  0
CLASS
  1
ACME_DATABASE
  2
AcMeDbDatabase
  3
AcMeServices
 90
        0
 91
        1
280
     0
281
     0
  0
CLASS
  1
ACRFINSADJUSTERMGR
  2
AcRfInsAdjusterMgr
  3
AcMeServices
 90
        0
 91
        1
280
     0
281
     0
  0
CLASS
  1
ACGREFACADMASTER
  2
AcGrefacadMaster
  3
AcGrefServices
 90
        0
 91
        1
280
     0
281
     0
  0
CLASS
  1
AMIMASTER
  2
AmiMaster
  3
AmiServices
 90
        0
 91
        1
280
     0
281
     0
  0
CLASS
  1
ACMDATADICTIONARY
  2
AcmDataDictionary
  3
"AcmSymBB|Product Description: AutoCAD Mechanical|Company: Autodesk"
 90
        0
 91
        1
280
     0
281
     0
  0
CLASS
  1
ACMDATAENTRYBLOCK
  2
AcmDataEntryBlock
  3
"AcmSymBB|Product Description: AutoCAD Mechanical|Company: Autodesk"
 90
        0
 91
        8
280
     0
281
     0
  0
CLASS
  1
ACIMSTRSYSVAR
  2
AcImStrSysVar
  3
AcMeServices
 90
        0
 91
       11
280
     0
281
     0
  0
CLASS
  1
ACMSTANDARDISO
  2
AcmStandardISO
  3
"Amdt_StdImp|Product Description: AutoCAD Mechanical|Company: Autodesk"
 90
        0
 91
        2
280
     0
281
     0
  0
CLASS
  1
AMGOBJPROPCFG
  2
AmgObjPropCfg
  3
"AmgLay|Product Description: AutoCAD Mechanical|Company: Autodesk"
 90
        1
 91
        1
280
     0
281
     0
  0
CLASS
  1
AMDTEDGESTANDARDISO
  2
AmdtEdgeStdISO
  3
"Amdt_StdImp|Product Description: AutoCAD Mechanical|Company: Autodesk"
 90
        0
 91
        1
280
     0
281
     0
  0
CLASS
  1
ACMSURFSTANDARDISO
  2
AcmSurfTextStdISO
  3
"Amdt_StdImp|Product Description: AutoCAD Mechanical|Company: Autodesk"
 90
        0
 91
        2
280
     0
281
     0
  0
CLASS
  1
ACMFCFSTANDARDISO
  2
AcmFCFStdISO
  3
"Amdt_StdImp|Product Description: AutoCAD Mechanical|Company: Autodesk"
 90
        0
 91
        2
280
     0
281
     0
  0
CLASS
  1
ACMWELDSTANDARDISO
  2
AcmWeldingStdISO
  3
"Amdt_StdImp|Product Description: AutoCAD Mechanical|Company: Autodesk"
 90
        0
 91
        2
280
     0
281
     0
  0
CLASS
  1
ACMIDSTANDARDISO
  2
AcmIdStdISO
  3
"Amdt_StdImp|Product Description: AutoCAD Mechanical|Company: Autodesk"
 90
        0
 91
        2
280
     0
281
     0
  0
CLASS
  1
ACMDATUMSTANDARDISO
  2
AcmDatumStdISO
  3
"Amdt_StdImp|Product Description: AutoCAD Mechanical|Company: Autodesk"
 90
        0
 91
        2
280
     0
281
     0
  0
CLASS
  1
ACMBOMSTANDARDISO
  2
AcmBOMStdISO
  3
"Amdt_StdImp|Product Description: AutoCAD Mechanical|Company: Autodesk"
 90
        0
 91
        2
280
     0
281
     0
  0
CLASS
  1
ACMDETAILSTANDARDISO
  2
AmdtDetailSymStdISO
  3
"Amdt_StdImp|Product Description: AutoCAD Mechanical|Company: Autodesk"
 90
        0
 91
        2
280
     0
281
     0
  0
CLASS
  1
ACMSECTIONSTANDARDISO
  2
AmdtSectionSymStdISO
  3
"Amdt_StdImp|Product Description: AutoCAD Mechanical|Company: Autodesk"
 90
        0
 91
        2
280
     0
281
     0
  0
CLASS
  1
ACMCENTERLINESTANDARDISO
  2
AmdtCenterLineStdISO
  3
"Amdt_StdImp|Product Description: AutoCAD Mechanical|Company: Autodesk"
 90
        0
 91
        2
280
     0
281
     0
  0
CLASS
  1
ACAMGLAYSTD
  2
AcAmgLayStd
  3
"AmgLay|Product Description: AutoCAD Mechanical|Company: Autodesk"
 90
        0
 91
        3
280
     0
281
     0
  0
CLASS
  1
ACAMGDIMSTD
  2
AcAmgDimStd
  3
"AmgDim|Product Description: AutoCAD Mechanical|Company: Autodesk"
 90
        0
 91
        3
280
     0
281
     0
  0
CLASS
  1
ACAMGTITLESTD
  2
AcAmgTitleStd
  3
"AmgTitle|Product Description: AutoCAD Mechanical|Company: Autodesk"
 90
        0
 91
        3
280
     0
281
     0
  0
CLASS
  1
ACAMGFILTERDAT
  2
AcAmgFilterDat
  3
"AcadM|Product Description: AutoCAD Mechanical|Company: Autodesk"
 90
        0
 91
        6
280
     0
281
     0
  0
CLASS
  1
LAYER_INDEX
  2
AcDbLayerIndex
  3
ObjectDBX Classes
 90
        0
 91
        0
280
     0
281
     0
  0
CLASS
  1
IDBUFFER
  2
AcDbIdBuffer
  3
ObjectDBX Classes
 90
        0
 91
        0
280
     0
281
     0
  0
CLASS
  1
PLOTSETTINGS
  2
AcDbPlotSettings
  3
ObjectDBX Classes
 90
        0
 91
        0
280
     0
281
     0
  0
CLASS
  1
AMDTFORMULAUPDATEDISPATCHER
  2
AmdtFormulaUpdateDispatcher
  3
AcMeServices
 90
        0
 91
        1
280
     0
281
     0
  0
CLASS
  1
ACMSTANDARDANSI
  2
AcmStandardANSI
  3
"Amdt_StdImp|Product Description: AutoCAD Mechanical|Company: Autodesk"
 90
        0
 91
        1
280
     0
281
     0
  0
CLASS
  1
ACMSURFSTANDARDANSI
  2
AcmSurfTextStdANSI
  3
"Amdt_StdImp|Product Description: AutoCAD Mechanical|Company: Autodesk"
 90
        0
 91
        1
280
     0
281
     0
  0
CLASS
  1
ACMFCFSTANDARDANSI
  2
AcmFCFStdANSI
  3
"Amdt_StdImp|Product Description: AutoCAD Mechanical|Company: Autodesk"
 90
        0
 91
        1
280
     0
281
     0
  0
CLASS
  1
ACMWELDSTANDARDANSI
  2
AcmWeldingStdANSI
  3
"Amdt_StdImp|Product Description: AutoCAD Mechanical|Company: Autodesk"
 90
        0
 91
        1
280
     0
281
     0
  0
CLASS
  1
ACMIDSTANDARDANSI
  2
AcmIdStdANSI
  3
"Amdt_StdImp|Product Description: AutoCAD Mechanical|Company: Autodesk"
 90
        0
 91
        1
280
     0
281
     0
  0
CLASS
  1
ACMDATUMSTANDARDANSI
  2
AcmDatumStdANSI
  3
"Amdt_StdImp|Product Description: AutoCAD Mechanical|Company: Autodesk"
 90
        0
 91
        1
280
     0
281
     0
  0
CLASS
  1
ACMBOMSTANDARDANSI
  2
AcmBOMStdANSI
  3
"Amdt_StdImp|Product Description: AutoCAD Mechanical|Company: Autodesk"
 90
        0
 91
        1
280
     0
281
     0
  0
CLASS
  1
ACMDETAILSTANDARDANSI
  2
AmdtDetailSymStdANSI
  3
"Amdt_StdImp|Product Description: AutoCAD Mechanical|Company: Autodesk"
 90
        0
 91
        1
280
     0
281
     0
  0
CLASS
  1
ACMSECTIONSTANDARDANSI
  2
AmdtSectionSymStdANSI
  3
"Amdt_StdImp|Product Description: AutoCAD Mechanical|Company: Autodesk"
 90
        0
 91
        1
280
     0
281
     0
  0
CLASS
  1
ACMCENTERLINESTANDARDANSI
  2
AmdtCenterLineStdANSI
  3
"Amdt_StdImp|Product Description: AutoCAD Mechanical|Company: Autodesk"
 90
        0
 91
        1
280
     0
281
     0
  0
CLASS
  1
ACMBOM
  2
AcmBom
  3
"AcmSymBB|Product Description: AutoCAD Mechanical|Company: Autodesk"
 90
        0
 91
        1
280
     0
281
     0
  0
CLASS
  1
ACMDATAENTRYPART
  2
AcmDataEntryPart
  3
"AcmSymBB|Product Description: AutoCAD Mechanical|Company: Autodesk"
 90
        0
 91
        0
280
     0
281
     0
  0
CLASS
  1
ACMPARTREF
  2
AcmPartRef
  3
"AcmSymBB|Product Description: AutoCAD Mechanical|Company: Autodesk"
 90
     3071
 91
        0
280
     0
281
     1
  0
CLASS
  1
ACDBCIRCARCRES
  2
AcDbCircArcRes
  3
AcGrefServices
 90
        0
 91
        0
280
     0
281
     0
  0
CLASS
  1
ACMBOMROW
  2
AcmBomRow
  3
"AcmSymBB|Product Description: AutoCAD Mechanical|Company: Autodesk"
 90
        0
 91
        0
280
     0
281
     0
  0
CLASS
  1
ACMBALLOON
  2
AcmBalloon
  3
"AcmSymBB|Product Description: AutoCAD Mechanical|Company: Autodesk"
 90
     3071
 91
        0
280
     0
281
     1
  0
CLASS
  1
AMDTNOTE
  2
AmdtNote
  3
"AcmSymBB|Product Description: AutoCAD Mechanical|Company: Autodesk"
 90
     3071
 91
        1
280
     0
281
     1
  0
CLASS
  1
STDPART2D
  2
AmgStdPart
  3
"AmgStdPart|Product Description: AutoCAD Mechanical|Company: Autodesk"
 90
     3071
 91
        0
280
     0
281
     1
  0
CLASS
  1
ACDBSTDPARTRES_LINE
  2
AcDbStdPartRes_Line
  3
"AmgStdPart|Product Description: AutoCAD Mechanical|Company: Autodesk"
 90
        0
 91
        0
280
     0
281
     0
  0
CLASS
  1
ACMDATAENTRY
  2
AcmDataEntry
  3
"AcmSymBB|Product Description: AutoCAD Mechanical|Company: Autodesk"
 90
        0
 91
        9
280
     0
281
     0
  0
CLASS
  1
ACDBOPPOLYLINERES
  2
AcDbOpPolylineRes
  3
AcGrefServices
 90
        0
 91
        0
280
     0
281
     0
  0
CLASS
  1
ACMPARTLIST
  2
AcmPartList
  3
"AcmSymBB|Product Description: AutoCAD Mechanical|Company: Autodesk"
 90
     3071
 91
        0
280
     0
281
     1
  0
CLASS
  1
ACDBLINERES
  2
AcDbLineRes
  3
AcGrefServices
 90
        0
 91
        1
280
     0
281
     0
  0
CLASS
  1
ACRFINSADJ
  2
AcRfInsAdjuster
  3
AcMeServices
 90
        0
 91
        0
280
     0
281
     0
  0
CLASS
  1
AM_DRAWING_MGR
  2
AcDmDwgMgr
  3
AcMechDwgViewMgmt
 90
        0
 91
        1
280
     0
281
     0
  0
CLASS
  1
AM_DWG_DOCUMENT
  2
AcDmDwgDocument
  3
AcMechDwgViewMgmt
 90
        0
 91
        1
280
     0
281
     0
  0
CLASS
  1
AM_DWG_SHEET
  2
AcDmSheet
  3
AcMechDwgViewMgmt
 90
        0
 91
        2
280
     0
281
     0
  0
CLASS
  1
AM_VIEWDIMPARMAP
  2
AcDmViewDimParMap
  3
AcMechDwgViewMgmt
 90
        0
 91
        2
280
     0
281
     0
  0
CLASS
  1
AM_DWGMGR_NAME
  2
AcDmDwgMgrName
  3
AcMechDwgViewMgmt
 90
        0
 91
        1
280
     0
281
     0
  0
CLASS
  1
AMDTMENUSTATEMGR
  2
AmdtMenuStateMgr
  3
McadcomServices
 90
        0
 91
        1
280
     0
281
     0
  0
CLASS
  1
AMDTMCOMMENUSTATE
  2
AmdtMcomMenuState
  3
McadcomServices
 90
        0
 91
        1
280
     0
281
     0
  0
CLASS
  1
ASAPP
  2
AcAsAppObject
  3
AutoSurfServices
 90
        0
 91
        2
280
     0
281
     0
  0
CLASS
  1
IM_STATIC_MAN
  2
AcImStaticVarManager
  3
AcMeServices
 90
        0
 91
        1
280
     0
281
     0
  0
CLASS
  1
ACIMDBLSTATICVAR
  2
AcImDblStaticVar
  3
AcMeServices
 90
        0
 91
       20
280
     0
281
     0
  0
CLASS
  1
ACIMSTRSTATICVAR
  2
AcImStrStaticVar
  3
AcMeServices
 90
        0
 91
       12
280
     0
281
     0
  0
CLASS
  1
ACIMINTSTATICVAR
  2
AcImIntStaticVar
  3
AcMeServices
 90
        0
 91
       17
280
     0
281
     0
  0
CLASS
  1
ACASGREFMASTER
  2
AcAsGrefMaster
  3
AutoSurfResolverServices
 90
        0
 91
        2
280
     0
281
     0
  0
CLASS
  1
ACADGREFMODULE
  2
AcAdGrefModule
  3
AdGrefServices
 90
        0
 91
        2
280
     0
281
     0
  0
CLASS
  1
AMDTMAPISURFMOUDULE
  2
AmdtMApiSurfModule
  3
MApiSurfServices
 90
        0
 91
        2
280
     0
281
     0
  0
CLASS
  1
MAPIAMMOUDLE
  2
MApiAmModule
  3
MApiAmServices
 90
        0
 91
        1
280
     0
281
     0
  0
CLASS
  1
AMDTADMENUSTATE
  2
AmdtAdMenuState
  3
DesignerServices
 90
        0
 91
        1
280
     0
281
     0
  0
CLASS
  1
ADAPPL
  2
AcAdAppl
  3
DesignerServices
 90
        0
 91
        1
280
     0
281
     0
  0
CLASS
  1
DEPMGR
  2
AcAdDepMgr
  3
DesignerServices
 90
        0
 91
        1
280
     0
281
     0
  0
CLASS
  1
PARAMMGR
  2
AcAdParamMgr
  3
DesignerServices
 90
        0
 91
        1
280
     0
281
     0
  0
CLASS
  1
PARAMSCOPE
  2
AcAdParamScope
  3
DesignerServices
 90
        0
 91
        1
280
     0
281
     0
  0
CLASS
  1
NAMEDAPPL
  2
AcAdNamedAppl
  3
DesignerServices
 90
        0
 91
        1
280
     0
281
     0
  0
CLASS
  1
ADHNTMPLT
  2
AdHoleNoteTemplateMgr
  3
DesignerServices
 90
        0
 91
        0
280
     0
281
     0
  0
CLASS
  1
AM_HNTEMPLATE_MGR_NAME
  2
AdHoleNoteTemplateMgrName
  3
DesignerServices
 90
        0
 91
        0
280
     0
281
     0
  0
CLASS
  1
AMDTDMMENUSTATE
  2
AmdtDmMenuState
  3
AcMechDwgViewMgmt
 90
        0
 91
        1
280
     0
281
     0
  0
CLASS
  1
MAPIADMODULE
  2
MApiAdModule
  3
MApiAdServices
 90
        0
 91
        2
280
     0
281
     0
  0
CLASS
  1
AMDTAMMENUSTATE
  2
AmdtAmMenuState
  3
DesignerAssemblies
 90
        0
 91
        1
280
     0
281
     0
  0
CLASS
  1
ACAMPROJECT
  2
AcAmProject
  3
DesignerAssemblies
 90
        0
 91
        1
280
     0
281
     0
  0
CLASS
  1
ACAMGRCOMPDEF
  2
AcAmGrCompDef
  3
DesignerAssemblies
 90
        0
 91
        1
280
     0
281
     0
  0
CLASS
  1
ACCMCONTEXT
  2
AcCmContext
  3
DesignerAssemblies
 90
        0
 91
        1
280
     0
281
     0
  0
CLASS
  1
ACAMCOMPDEF
  2
AcAmCompDef
  3
DesignerAssemblies
 90
        0
 91
        1
280
     0
281
     0
  0
CLASS
  1
ACAMCOMPDEFMGR
  2
AcAmCompDefMgr
  3
DesignerAssemblies
 90
        0
 91
        1
280
     0
281
     0
  0
CLASS
  1
AMCONTEXTMGR
  2
AcAmContextMgr
  3
DesignerAssemblies
 90
        0
 91
        1
280
     0
281
     0
  0
CLASS
  1
ACAMCONTEXTMODELER
  2
AcAmContextModeler
  3
DesignerAssemblies
 90
        0
 91
        1
280
     0
281
     0
  0
CLASS
  1
CATALOGSTATE
  2
AcAmCatalogState
  3
DesignerAssemblies
 90
        0
 91
        1
280
     0
281
     0
  0
CLASS
  1
ACAMGRCOMPDEFSET
  2
AcAmGrCompDefSet
  3
DesignerAssemblies
 90
        0
 91
        1
280
     0
281
     0
  0
CLASS
  1
AMDTBROWSERDBTAB
  2
AmdtBrowserDbTab
  3
McadcomServices
 90
        0
 91
        1
280
     0
281
     0
  0
CLASS
  1
CBROWSERAPPOBJECT
  2
CBrowserAppObject
  3
McadcomServices
 90
        0
 91
        3
280
     0
281
     0
  0
CLASS
  1
DM_PLACEHOLDER
  2
AcDmSelsetPlaceholder
  3
AcMechDwgViewMgmt
 90
        0
 91
        1
280
     0
281
     0
  0
CLASS
  1
ACMPICKOBJ
  2
AcmPickEnt
  3
"AcmSymBB|Product Description: AutoCAD Mechanical|Company: Autodesk"
 90
        0
 91
        0
280
     0
281
     1
  0
CLASS
  1
ACMNOTESTANDARDISO
  2
AmdtNoteStdISO
  3
"Amdt_StdImp|Product Description: AutoCAD Mechanical|Company: Autodesk"
 90
        0
 91
        2
280
     0
281
     0
  0
CLASS
  1
ACMNOTESTANDARDANSI
  2
AmdtNoteStdANSI
  3
"Amdt_StdImp|Product Description: AutoCAD Mechanical|Company: Autodesk"
 90
        0
 91
        1
280
     0
281
     0
  0
CLASS
  1
ACMTHREADLINESTANDARDISO
  2
AmdtThreadLineStdISO
  3
"Amdt_StdImp|Product Description: AutoCAD Mechanical|Company: Autodesk"
 90
        0
 91
        2
280
     0
281
     0
  0
CLASS
  1
ACMTHREADLINESTANDARDANSI
  2
AmdtThreadLineStdANSI
  3
"Amdt_StdImp|Product Description: AutoCAD Mechanical|Company: Autodesk"
 90
        0
 91
        1
280
     0
281
     0
  0
CLASS
  1
TABLESTYLE
  2
AcDbTableStyle
  3
ObjectDBX Classes
 90
     4095
 91
        1
280
     0
281
     0
  0
CLASS
  1
SORTENTSTABLE
  2
AcDbSortentsTable
  3
ObjectDBX Classes
 90
        0
 91
        3
280
     0
281
     0
  0
CLASS
  1
MATERIAL
  2
AcDbMaterial
  3
ObjectDBX Classes
 90
     1153
 91
        3
280
     0
281
     0
  0
CLASS
  1
VISUALSTYLE
  2
AcDbVisualStyle
  3
ObjectDBX Classes
 90
     4095
 91
       16
280
     0
281
     0
  0
CLASS
  1
ACRFATTGENMGR
  2
AcRfAttGeneralMgr
  3
AcAttribServices
 90
        0
 91
        1
280
     0
281
     0
  0
CLASS
  1
ACRFOBJATTMGR
  2
AcRfObjAttGroupMgr
  3
AcAttribServices
 90
        0
 91
        1
280
     0
281
     0
  0
CLASS
  1
ACRFMCADAPIATTHOLDER
  2
AcRfMCADAPIAttHolder
  3
AcAttribServices
 90
        0
 91
        1
280
     0
281
     0
  0
CLASS
  1
AMDTSYSATTR
  2
AmdtSystemAttribute
  3
AcAttribServices
 90
        0
 91
        5
280
     0
281
     0
  0
CLASS
  1
ACMTAPERSTANDARDISO
  2
AcmTaperStdISO
  3
"Amdt_StdImp|Product Description: AutoCAD Mechanical|Company: Autodesk"
 90
        0
 91
        2
280
     0
281
     0
  0
CLASS
  1
CAMSSTRUCTBTNSTATE
  2
StructBtnState
  3
L"DesignerAssemblies"
 90
        0
 91
        0
280
     0
281
     0
  0
CLASS
  1
DIMASSOC
  2
AcDbDimAssoc
  3
"AcDbDimAssoc|Product Desc:     AcDim ARX App For Dimension|Company:          Autodesk, Inc.|WEB Address:      www.autodesk.com"
 90
        0
 91
        0
280
     0
281
     0
  0
CLASS
  1
AMDTNOTETEMPLATEDB
  2
AmdtNoteTemplateDB
  3
AMDT_STDIMP_MODULE_NAME
 90
        0
 91
       16
280
     0
281
     0
  0
CLASS
  1
ACMTAPERSTANDARDANSI
  2
AcmTaperStdANSI
  3
"Amdt_StdImp|Product Description: AutoCAD Mechanical|Company: Autodesk"
 90
        0
 91
        1
280
     0
281
     0
  0
CLASS
  1
ACAMGHOLECHARTSTDANSI
  2
AcAmgHoleChartStdANSI
  3
ACMSYMBB_MODULE_NAME
 90
        0
 91
        1
280
     0
281
     0
  0
CLASS
  1
AMDTEDGESTANDARDISO13715
  2
AmdtEdgeStdISO13715
  3
"Amdt_StdImp|Product Description: AutoCAD Mechanical|Company: Autodesk"
 90
        0
 91
        1
280
     0
281
     0
  0
CLASS
  1
ACAMGHOLECHARTSTDISO
  2
AcAmgHoleChartStdISO
  3
ACMSYMBB_MODULE_NAME
 90
        0
 91
        1
280
     0
281
     0
  0
ENDSEC
  0
SECTION
  2
TABLES
  0
TABLE
  2
VPORT
  5
8
102
{ACAD_XDICTIONARY
360
E15E
102
}
330
0
100
AcDbSymbolTable
 70
     1
  0
VPORT
  5
B0EC
330
8
100
AcDbSymbolTableRecord
100
AcDbViewportTableRecord
  2
*Active
 70
     0
 10
0.0
 20
0.0
 11
1.0
 21
1.0
 12
2620.227317277994
 22
1879.716046047673
 13
0.0
 23
0.0
 14
2.5
 24
2.5
 15
10.0
 25
10.0
 16
0.0
 26
0.0
 36
1.0
 17
0.0
 27
0.0
 37
0.0
 40
347.9466604226705
 41
2.356410256410256
 42
50.0
 43
-1370.695619172058
 44
-1370.695619172058
 50
0.0
 51
0.0
 71
     0
 72
   100
 73
     1
 74
     3
 75
     0
 76
     0
 77
     0
 78
     0
281
     0
 65
     0
110
0.0
120
0.0
130
0.0
111
1.0
121
0.0
131
0.0
112
0.0
122
1.0
132
0.0
 79
     0
146
0.0
  0
ENDTAB
  0
TABLE
  2
LTYPE
  5
5
330
0
100
AcDbSymbolTable
 70
    32
  0
LTYPE
  5
14
330
5
100
AcDbSymbolTableRecord
100
AcDbLinetypeTableRecord
  2
ByBlock
 70
     0
  3

 72
    65
 73
     0
 40
0.0
  0
LTYPE
  5
15
330
5
100
AcDbSymbolTableRecord
100
AcDbLinetypeTableRecord
  2
ByLayer
 70
     0
  3

 72
    65
 73
     0
 40
0.0
  0
LTYPE
  5
16
330
5
100
AcDbSymbolTableRecord
100
AcDbLinetypeTableRecord
  2
Continuous
 70
     0
  3
Solid line
 72
    65
 73
     0
 40
0.0
  0
LTYPE
  5
4F
330
5
100
AcDbSymbolTableRecord
100
AcDbLinetypeTableRecord
  2
AM_ISO02W050
 70
     0
  3
__ __ __ __ __ __ __ __ __ __ __ __ __ __ __
 72
    65
 73
     2
 40
7.5
 49
6.0
 74
     0
 49
-1.5
 74
     0
  0
LTYPE
  5
52
330
5
100
AcDbSymbolTableRecord
100
AcDbLinetypeTableRecord
  2
Amconstr
 70
     0
  3
_______________________
 72
    65
 73
     2
 40
9999.0
 49
9999.0
 74
     0
 49
0.0
 74
     0
  0
LTYPE
  5
64
330
5
100
AcDbSymbolTableRecord
100
AcDbLinetypeTableRecord
  2
ACISOWELD
 70
     0
  3
_ _ _ _ _
 72
    65
 73
     2
 40
2.0
 49
2.0
 74
     0
 49
-1.0
 74
     0
  0
LTYPE
  5
65
330
5
100
AcDbSymbolTableRecord
100
AcDbLinetypeTableRecord
  2
ACISOTGB
 70
     0
  3
__ . . __ . .
 72
    65
 73
     6
 40
9.0
 49
4.0
 74
     0
 49
-1.0
 74
     0
 49
1.0
 74
     0
 49
-1.0
 74
     0
 49
1.0
 74
     0
 49
-1.0
 74
     0
  0
LTYPE
  5
66
330
5
100
AcDbSymbolTableRecord
100
AcDbLinetypeTableRecord
  2
ACISOTGL
 70
     0
  3
_ _ _ _ _
 72
    65
 73
     2
 40
3.0
 49
2.0
 74
     0
 49
-1.0
 74
     0
  0
LTYPE
  5
69
330
5
100
AcDbSymbolTableRecord
100
AcDbLinetypeTableRecord
  2
CENTER
 70
     0
  3
__ . __
 72
    65
 73
     4
 40
7.0
 49
4.0
 74
     0
 49
-1.0
 74
     0
 49
1.0
 74
     0
 49
-1.0
 74
     0
  0
LTYPE
  5
A6E
330
5
100
AcDbSymbolTableRecord
100
AcDbLinetypeTableRecord
  2
PHANTOM2
 70
     0
  3
Phantom (.5x) ___ _ _ ___ _ _ ___ _ _ ___ _ _
 72
    65
 73
     6
 40
31.75
 49
15.875
 74
     0
 49
-3.174999999999999
 74
     0
 49
3.174999999999999
 74
     0
 49
-3.174999999999999
 74
     0
 49
3.174999999999999
 74
     0
 49
-3.174999999999999
 74
     0
  0
LTYPE
  5
4DED
330
5
100
AcDbSymbolTableRecord
100
AcDbLinetypeTableRecord
  2
中線
 70
     0
  3
___________________
 72
    65
 73
     2
 40
2.0
 49
1.0
 74
     0
 49
1.0
 74
     0
  0
LTYPE
  5
4DF6
330
5
100
AcDbSymbolTableRecord
100
AcDbLinetypeTableRecord
  2
細線
 70
     0
  3
___________________
 72
    65
 73
     2
 40
2.0
 49
1.0
 74
     0
 49
1.0
 74
     0
  0
LTYPE
  5
4DF7
330
5
100
AcDbSymbolTableRecord
100
AcDbLinetypeTableRecord
  2
太線
 70
     0
  3
___________________
 72
    65
 73
     2
 40
2.0
 49
1.0
 74
     0
 49
1.0
 74
     0
  0
LTYPE
  5
4EA7
330
5
100
AcDbSymbolTableRecord
100
AcDbLinetypeTableRecord
  2
文字
 70
     0
  3
_________________
 72
    65
 73
     2
 40
2.0
 49
1.0
 74
     0
 49
1.0
 74
     0
  0
LTYPE
  5
4EA9
330
5
100
AcDbSymbolTableRecord
100
AcDbLinetypeTableRecord
  2
寸法線
 70
     0
  3
________________
 72
    65
 73
     2
 40
2.0
 49
1.0
 74
     0
 49
1.0
 74
     0
  0
LTYPE
  5
4F12
330
5
100
AcDbSymbolTableRecord
100
AcDbLinetypeTableRecord
  2
ハッチング
 70
     0
  3
_________________
 72
    65
 73
     2
 40
2.0
 49
1.0
 74
     0
 49
1.0
 74
     0
  0
LTYPE
  5
5180
330
5
100
AcDbSymbolTableRecord
100
AcDbLinetypeTableRecord
  2
陰線1
 70
     0
  3
__ __ __ __
 72
    65
 73
     2
 40
4.0
 49
2.2
 74
     0
 49
-1.8
 74
     0
  0
LTYPE
  5
5182
330
5
100
AcDbSymbolTableRecord
100
AcDbLinetypeTableRecord
  2
切断線
 70
     0
  3
/\/-/\/-/\/-/\/-/\/-/\/
 72
    65
 73
     2
 40
11.0001
 49
0.0001
 74
     4
 75
   135
340
56
 46
0.04
 50
0.0
 44
0.0
 45
0.0
 49
-11.0
 74
     0
  0
LTYPE
  5
5183
330
5
100
AcDbSymbolTableRecord
100
AcDbLinetypeTableRecord
  2
想像線1
 70
     0
  3
__ __ __ _____ __ __ ____
 72
    65
 73
     6
 40
14.5
 49
6.0
 74
     0
 49
-1.5
 74
     0
 49
2.0
 74
     0
 49
-1.5
 74
     0
 49
2.0
 74
     0
 49
-1.5
 74
     0
  0
LTYPE
  5
5185
330
5
100
AcDbSymbolTableRecord
100
AcDbLinetypeTableRecord
  2
中心線1
 70
     0
  3
___ _ ___ _ ___
 72
    65
 73
     4
 40
18.0
 49
12.0
 74
     0
 49
-2.0
 74
     0
 49
2.0
 74
     0
 49
-2.0
 74
     0
  0
LTYPE
  5
5188
330
5
100
AcDbSymbolTableRecord
100
AcDbLinetypeTableRecord
  2
補助線
 70
     0
  3
______________
 72
    65
 73
     2
 40
2.0
 49
1.0
 74
     0
 49
1.0
 74
     0
  0
LTYPE
  5
6427
330
5
100
AcDbSymbolTableRecord
100
AcDbLinetypeTableRecord
  2
HIDDEN
 70
     0
  3
Hidden __ __ __ __ __ __ __ __ __ __ __ __ __ _
 72
    65
 73
     2
 40
0.375
 49
0.25
 74
     0
 49
-0.125
 74
     0
  0
LTYPE
  5
AC81
330
5
100
AcDbSymbolTableRecord
100
AcDbLinetypeTableRecord
  2
破断線
 70
     0
  3
/\/-/\/-/\/-/\/-/\/-/\/
 72
    65
 73
     2
 40
0.4401
 49
0.0001
 74
     4
 75
   136
340
AC80
 46
0.0016
 50
0.0
 44
0.0
 45
0.0
 49
-0.4400000000000001
 74
     0
  0
LTYPE
  5
AC9E
330
5
100
AcDbSymbolTableRecord
100
AcDbLinetypeTableRecord
  2
Amzigzag
 70
     0
  3
/\/-/\/-/\/-/\/-/\/-/\/
 72
    65
 73
     2
 40
11.0001
 49
0.0001
 74
     4
 75
   135
340
56
 46
0.04
 50
0.0
 44
0.0
 45
0.0
 49
-11.0
 74
     0
  0
LTYPE
  5
AF0F
330
5
100
AcDbSymbolTableRecord
100
AcDbLinetypeTableRecord
  2
genzigzag
 70
     0
  3
/\/-/\/-/\/-/\/-/\/-/\/
 72
    65
 73
     2
 40
12.0001
 49
0.0001
 74
     4
 75
   135
340
AC80
 46
2.0
 50
0.0
 44
0.0
 45
0.0
 49
-12.0
 74
     0
  0
LTYPE
  5
AF95
330
5
100
AcDbSymbolTableRecord
100
AcDbLinetypeTableRecord
  2
AM_ISO08W050
 70
     0
  3
____ . ____ . ____ . ____ . ____ . ____ . ____
 72
    65
 73
     4
 40
18.0
 49
12.0
 74
     0
 49
-1.5
 74
     0
 49
3.0
 74
     0
 49
-1.5
 74
     0
  0
LTYPE
  5
AF96
330
5
100
AcDbSymbolTableRecord
100
AcDbLinetypeTableRecord
  2
AM_ISO09W050
 70
     0
  3
_____ . . _____ . . _____ . . ____ .. ____
 72
    65
 73
     6
 40
22.5
 49
12.0
 74
     0
 49
-1.5
 74
     0
 49
3.0
 74
     0
 49
-1.5
 74
     0
 49
3.0
 74
     0
 49
-1.5
 74
     0
  0
LTYPE
  5
AF97
330
5
100
AcDbSymbolTableRecord
100
AcDbLinetypeTableRecord
  2
AM_ISO08W050x2
 70
     0
  3
__ . __ . __ . __ . __ . __
 72
    65
 73
     4
 40
9.0
 49
6.0
 74
     0
 49
-0.75
 74
     0
 49
1.5
 74
     0
 49
-0.75
 74
     0
  0
LTYPE
  5
AF98
330
5
100
AcDbSymbolTableRecord
100
AcDbLinetypeTableRecord
  2
AM_ISO02W050x2
 70
     0
  3
 _ _ _ _ _ _ _ _ _ _ _ _
 72
    65
 73
     2
 40
3.75
 49
3.0
 74
     0
 49
-0.75
 74
     0
  0
LTYPE
  5
B6CC
330
5
100
AcDbSymbolTableRecord
100
AcDbLinetypeTableRecord
  2
ACANSTGB
 70
     0
  3
__ . . __ . .
 72
    65
 73
     6
 40
0.35433070866
 49
0.15748031496
 74
     0
 49
-0.03937007874
 74
     0
 49
0.03937007874
 74
     0
 49
-0.03937007874
 74
     0
 49
0.03937007874
 74
     0
 49
-0.03937007874
 74
     0
  0
LTYPE
  5
B6CD
330
5
100
AcDbSymbolTableRecord
100
AcDbLinetypeTableRecord
  2
ACANSTGL
 70
     0
  3
_ _ _ _ _
 72
    65
 73
     2
 40
0.11811023622
 49
0.07874015748
 74
     0
 49
-0.03937007874
 74
     0
  0
LTYPE
  5
B6CE
330
5
100
AcDbSymbolTableRecord
100
AcDbLinetypeTableRecord
  2
CENTER2
 70
     0
  3
Center (.5x) ___ _ ___ _ ___ _ ___ _ ___ _ ___
 72
    65
 73
     4
 40
1.125
 49
0.75
 74
     0
 49
-0.125
 74
     0
 49
0.125
 74
     0
 49
-0.125
 74
     0
  0
LTYPE
  5
B6CF
330
5
100
AcDbSymbolTableRecord
100
AcDbLinetypeTableRecord
  2
HIDDEN2
 70
     0
  3
Hidden (.5x) _ _ _ _ _ _ _ _ _ _ _ _ _ _ _ _ _
 72
    65
 73
     2
 40
0.1875
 49
0.125
 74
     0
 49
-0.0625
 74
     0
  0
LTYPE
  5
B6D0
330
5
100
AcDbSymbolTableRecord
100
AcDbLinetypeTableRecord
  2
AMZIGZAG2
 70
     0
  3
/\/-/\/-/\/-/\/-/\/-/\/
 72
    65
 73
     2
 40
0.4401
 49
0.0001
 74
     0
 49
-0.4400000000000003
 74
     0
  0
ENDTAB
  0
TABLE
  2
LAYER
  5
2
102
{ACAD_XDICTIONARY
360
3F95
102
}
330
0
100
AcDbSymbolTable
 70
    20
  0
LAYER
  5
10
330
2
100
AcDbSymbolTableRecord
100
AcDbLayerTableRecord
  2
0
 70
     0
 62
     7
  6
Continuous
370
    -3
390
F
  0
LAYER
  5
6D1
330
2
100
AcDbSymbolTableRecord
100
AcDbLayerTableRecord
  2
Defpoints
 70
     0
 62
     7
  6
Continuous
290
     0
370
    -3
390
F
  0
LAYER
  5
5F85
330
2
100
AcDbSymbolTableRecord
100
AcDbLayerTableRecord
  2
AM_0
 70
     0
 62
     7
  6
中線
370
    30
390
F
1001
AcAecLayerStandard
1000

1000

  0
LAYER
  5
AC9F
330
2
100
AcDbSymbolTableRecord
100
AcDbLayerTableRecord
  2
size
 70
     0
 62
     5
  6
Continuous
290
     0
370
    25
390
F
  0
LAYER
  5
ACA0
330
2
100
AcDbSymbolTableRecord
100
AcDbLayerTableRecord
  2
waku
 70
     0
 62
     7
  6
Continuous
370
    35
390
F
  0
LAYER
  5
ACA1
330
2
100
AcDbSymbolTableRecord
100
AcDbLayerTableRecord
  2
AM_6
 70
     0
 62
     2
  6
文字
370
    13
390
F
1001
AcAecLayerStandard
1000

1000

  0
LAYER
  5
ACC8
330
2
100
AcDbSymbolTableRecord
100
AcDbLayerTableRecord
  2
hyomoji
 70
     0
 62
     2
  6
Continuous
370
    13
390
F
  0
LAYER
  5
ACC9
330
2
100
AcDbSymbolTableRecord
100
AcDbLayerTableRecord
  2
hyosen1
 70
     0
 62
     1
  6
Continuous
370
    25
390
F
  0
LAYER
  5
ACCA
330
2
100
AcDbSymbolTableRecord
100
AcDbLayerTableRecord
  2
hyosen2
 70
     0
 62
     1
  6
Continuous
370
    13
390
F
  0
LAYER
  5
AD60
330
2
100
AcDbSymbolTableRecord
100
AcDbLayerTableRecord
  2
AM_1
 70
     0
 62
    30
  6
太線
370
    40
390
F
1001
AcAecLayerStandard
1000

1000

  0
LAYER
  5
AD64
330
2
100
AcDbSymbolTableRecord
100
AcDbLayerTableRecord
  2
AM_2
 70
     0
 62
     1
  6
細線
370
    13
390
F
1001
AcAecLayerStandard
1000

1000

  0
LAYER
  5
AD67
330
2
100
AcDbSymbolTableRecord
100
AcDbLayerTableRecord
  2
AM_3
 70
     0
 62
     6
  6
陰線1
370
    13
390
F
1001
AcAecLayerStandard
1000

1000

  0
LAYER
  5
AD68
330
2
100
AcDbSymbolTableRecord
100
AcDbLayerTableRecord
  2
AM_5
 70
     0
 62
     3
  6
寸法線
370
    13
390
F
1001
AcAecLayerStandard
1000

1000

  0
LAYER
  5
AD69
330
2
100
AcDbSymbolTableRecord
100
AcDbLayerTableRecord
  2
AM_7
 70
     0
 62
     4
  6
中心線1
370
    13
390
F
1001
AcAecLayerStandard
1000

1000

  0
LAYER
  5
AD6A
330
2
100
AcDbSymbolTableRecord
100
AcDbLayerTableRecord
  2
AM_8
 70
     0
 62
     1
  6
ハッチング
370
    13
390
F
1001
AcAecLayerStandard
1000

1000

  0
LAYER
  5
AD6E
330
2
100
AcDbSymbolTableRecord
100
AcDbLayerTableRecord
  2
AM_10
 70
     0
 62
     7
  6
切断線
370
    13
390
F
1001
AcAecLayerStandard
1000

1000

  0
LAYER
  5
AD6F
330
2
100
AcDbSymbolTableRecord
100
AcDbLayerTableRecord
  2
AM_11
 70
     0
 62
     2
  6
想像線1
370
    13
390
F
1001
AcAecLayerStandard
1000

1000

  0
LAYER
  5
B1B6
330
2
100
AcDbSymbolTableRecord
100
AcDbLayerTableRecord
  2
AM_CL
 70
     0
 62
     1
  6
Amconstr
370
     9
390
F
1001
AcAecLayerStandard
1000

1000

  0
LAYER
  5
B2EB
330
2
100
AcDbSymbolTableRecord
100
AcDbLayerTableRecord
  2
AM_14
 70
     0
 62
     5
  6
細線
370
     9
390
F
1001
AcAecLayerStandard
1000

1000

  0
LAYER
  5
B2EC
330
2
100
AcDbSymbolTableRecord
100
AcDbLayerTableRecord
  2
AM_15
 70
     0
 62
     6
  6
陰線1
370
     9
390
F
1001
AcAecLayerStandard
1000

1000

  0
ENDTAB
  0
TABLE
  2
STYLE
  5
3
330
0
100
AcDbSymbolTable
 70
    10
  0
STYLE
  5
11
330
3
100
AcDbSymbolTableRecord
100
AcDbTextStyleTableRecord
  2
STANDARD
 70
     0
 40
0.0
 41
0.7
 50
0.0
 71
     0
 42
3.2
  3
romans.shx
  4
extfont.shx
  0
STYLE
  5
56
330
3
100
AcDbSymbolTableRecord
100
AcDbTextStyleTableRecord
  2

 70
     1
 40
0.0
 41
1.0
 50
0.0
 71
     0
 42
2.5
  3
ltypeshp.shx
  4

  0
STYLE
  5
58
330
3
100
AcDbSymbolTableRecord
100
AcDbTextStyleTableRecord
  2
ACISOTS
 70
     0
 40
1.0
 41
1.0
 50
0.0
 71
     0
 42
2.5
  3
isocp.shx
  4
extfont.shx
  0
STYLE
  5
63
330
3
100
AcDbSymbolTableRecord
100
AcDbTextStyleTableRecord
  2
ACISOGDT
 70
     0
 40
0.0
 41
1.0
 50
0.0
 71
     0
 42
2.5
  3
amgdt.shx
  4

  0
STYLE
  5
A74
330
3
100
AcDbSymbolTableRecord
100
AcDbTextStyleTableRecord
  2
DIM
 70
     0
 40
0.0
 41
1.0
 50
0.0
 71
     0
 42
2.5
  3
monotxt.shx
  4
extfont.shx
  0
STYLE
  5
AC80
330
3
100
AcDbSymbolTableRecord
100
AcDbTextStyleTableRecord
  2

 70
     1
 40
0.0
 41
1.0
 50
0.0
 71
     0
 42
3.2
  3
genltshp.shx
  4

  0
STYLE
  5
B6D1
330
3
100
AcDbSymbolTableRecord
100
AcDbTextStyleTableRecord
  2
ACANSTS
 70
     0
 40
1.0
 41
1.0
 50
0.0
 71
     0
 42
0.2
  3
romans.shx
  4
extfont.shx
  0
STYLE
  5
B6D2
330
3
100
AcDbSymbolTableRecord
100
AcDbTextStyleTableRecord
  2
ACANSGDT
 70
     0
 40
0.0
 41
1.0
 50
0.0
 71
     0
 42
0.2
  3
amgdt.shx
  4

  0
ENDTAB
  0
TABLE
  2
VIEW
  5
6
330
0
100
AcDbSymbolTable
 70
     6
  0
VIEW
  5
AE1
330
6
100
AcDbSymbolTableRecord
100
AcDbViewTableRecord
  2
AM_VIEW1
 70
     0
 40
148.5
 10
2501.129848018895
 20
1929.432463161159
 41
313.4813137032843
 11
0.0
 21
0.0
 31
1.0
 12
0.0
 22
0.0
 32
0.0
 42
50.0
 43
-1370.695619172058
 44
-1370.695619172058
 50
0.0
 71
     0
281
     0
 72
     0
  0
VIEW
  5
AE2
330
6
100
AcDbSymbolTableRecord
100
AcDbViewTableRecord
  2
AM_VIEW2
 70
     0
 40
148.5
 10
2607.64853431561
 20
1929.432463161159
 41
313.4813137032843
 11
0.0
 21
0.0
 31
1.0
 12
0.0
 22
0.0
 32
0.0
 42
50.0
 43
-1370.695619172058
 44
-1370.695619172058
 50
0.0
 71
     0
281
     0
 72
     0
  0
VIEW
  5
AE3
330
6
100
AcDbSymbolTableRecord
100
AcDbViewTableRecord
  2
AM_VIEW3
 70
     0
 40
148.5
 10
2501.129848018895
 20
1780.932463161159
 41
313.4813137032843
 11
0.0
 21
0.0
 31
1.0
 12
0.0
 22
0.0
 32
0.0
 42
50.0
 43
-1370.695619172058
 44
-1370.695619172058
 50
0.0
 71
     0
281
     0
 72
     0
  0
VIEW
  5
AE4
330
6
100
AcDbSymbolTableRecord
100
AcDbViewTableRecord
  2
AM_VIEW4
 70
     0
 40
148.5
 10
2607.64853431561
 20
1780.932463161159
 41
313.4813137032843
 11
0.0
 21
0.0
 31
1.0
 12
0.0
 22
0.0
 32
0.0
 42
50.0
 43
-1370.695619172058
 44
-1370.695619172058
 50
0.0
 71
     0
281
     0
 72
     0
  0
VIEW
  5
AE5
330
6
100
AcDbSymbolTableRecord
100
AcDbViewTableRecord
  2
AM_VIEW5
 70
     0
 40
148.5
 10
2554.389191167252
 20
1855.182463161159
 41
313.4813137032843
 11
0.0
 21
0.0
 31
1.0
 12
0.0
 22
0.0
 32
0.0
 42
50.0
 43
-1370.695619172058
 44
-1370.695619172058
 50
0.0
 71
     0
281
     0
 72
     0
  0
VIEW
  5
AE6
330
6
100
AcDbSymbolTableRecord
100
AcDbViewTableRecord
  2
AM_VIEW6
 70
     0
 40
296.99703
 10
2554.389191167252
 20
1855.182463161159
 41
626.9563577802946
 11
0.0
 21
0.0
 31
1.0
 12
0.0
 22
0.0
 32
0.0
 42
50.0
 43
-1370.695619172058
 44
-1370.695619172058
 50
0.0
 71
     0
281
     0
 72
     0
  0
ENDTAB
  0
TABLE
  2
UCS
  5
7
330
0
100
AcDbSymbolTable
 70
     0
  0
ENDTAB
  0
TABLE
  2
APPID
  5
9
330
0
100
AcDbSymbolTable
 70
    57
  0
APPID
  5
12
330
9
100
AcDbSymbolTableRecord
100
AcDbRegAppTableRecord
  2
ACAD
 70
     0
  0
APPID
  5
30
330
9
100
AcDbSymbolTableRecord
100
AcDbRegAppTableRecord
  2
MCAD_NO_VIS
 70
     0
  0
APPID
  5
31
330
9
100
AcDbSymbolTableRecord
100
AcDbRegAppTableRecord
  2
ACAD_TEMP_GRAPHIC
 70
     0
  0
APPID
  5
44
330
9
100
AcDbSymbolTableRecord
100
AcDbRegAppTableRecord
  2
ACATTRIBSERVICES
 70
     0
  0
APPID
  5
7A1
330
9
100
AcDbSymbolTableRecord
100
AcDbRegAppTableRecord
  2
GENIUS_GENDIMSH_14
 70
     0
  0
APPID
  5
A49
330
9
100
AcDbSymbolTableRecord
100
AcDbRegAppTableRecord
  2
GENIUS_GENREC_14
 70
     0
  0
APPID
  5
A4A
330
9
100
AcDbSymbolTableRecord
100
AcDbRegAppTableRecord
  2
GENIUS_GENOBJ-N-REC_13
 70
     0
  0
APPID
  5
A4B
330
9
100
AcDbSymbolTableRecord
100
AcDbRegAppTableRecord
  2
GENIUS_GENODEF_13
 70
     0
  0
APPID
  5
A4C
330
9
100
AcDbSymbolTableRecord
100
AcDbRegAppTableRecord
  2
DCO15
 70
     0
  0
APPID
  5
ADC
330
9
100
AcDbSymbolTableRecord
100
AcDbRegAppTableRecord
  2
GENIUS_GENOLIS_13
 70
     0
  0
APPID
  5
ADD
330
9
100
AcDbSymbolTableRecord
100
AcDbRegAppTableRecord
  2
GENIUS_GENOENT_13
 70
     0
  0
APPID
  5
ADE
330
9
100
AcDbSymbolTableRecord
100
AcDbRegAppTableRecord
  2
GENIUS_GENOBJ-N-TIT_13
 70
     0
  0
APPID
  5
ADF
330
9
100
AcDbSymbolTableRecord
100
AcDbRegAppTableRecord
  2
GENIUS_GENTITLE_13
 70
     0
  0
APPID
  5
AE0
330
9
100
AcDbSymbolTableRecord
100
AcDbRegAppTableRecord
  2
GENIUS_GENOREF_13
 70
     0
  0
APPID
  5
AE7
330
9
100
AcDbSymbolTableRecord
100
AcDbRegAppTableRecord
  2
GENIUS_GENSCREG_15
 70
     0
  0
APPID
  5
AE8
330
9
100
AcDbSymbolTableRecord
100
AcDbRegAppTableRecord
  2
GENIUS_GENOBJ-N-SDF_13
 70
     0
  0
APPID
  5
FAF
330
9
100
AcDbSymbolTableRecord
100
AcDbRegAppTableRecord
  2
GENIUS_GENBLLY_14
 70
     0
  0
APPID
  5
FB0
330
9
100
AcDbSymbolTableRecord
100
AcDbRegAppTableRecord
  2
GENIUS_GENTRA_14
 70
     0
  0
APPID
  5
1285
330
9
100
AcDbSymbolTableRecord
100
AcDbRegAppTableRecord
  2
GENIUS_GENDTOL_13
 70
     0
  0
APPID
  5
142D
330
9
100
AcDbSymbolTableRecord
100
AcDbRegAppTableRecord
  2
GENIUS_GENOBJ-N-CEN_13
 70
     0
  0
APPID
  5
1AB5
330
9
100
AcDbSymbolTableRecord
100
AcDbRegAppTableRecord
  2
GENIUS_GENOBJ-N-CRS_13
 70
     0
  0
APPID
  5
1B36
330
9
100
AcDbSymbolTableRecord
100
AcDbRegAppTableRecord
  2
GENIUS_GENOBJ-N-HTC_13
 70
     0
  0
APPID
  5
1B37
330
9
100
AcDbSymbolTableRecord
100
AcDbRegAppTableRecord
  2
GENIUS_GENHATCH_13
 70
     0
  0
APPID
  5
216D
330
9
100
AcDbSymbolTableRecord
100
AcDbRegAppTableRecord
  2
GENIUS_GENOBJ-N-FIL_13
 70
     0
  0
APPID
  5
2356
330
9
100
AcDbSymbolTableRecord
100
AcDbRegAppTableRecord
  2
GEVID990412420
 70
     0
  0
APPID
  5
2357
330
9
100
AcDbSymbolTableRecord
100
AcDbRegAppTableRecord
  2
GEVDC
 70
     0
  0
APPID
  5
2358
330
9
100
AcDbSymbolTableRecord
100
AcDbRegAppTableRecord
  2
GEVCON
 70
     0
  0
APPID
  5
235B
330
9
100
AcDbSymbolTableRecord
100
AcDbRegAppTableRecord
  2
GEVRADREF
 70
     0
  0
APPID
  5
2360
330
9
100
AcDbSymbolTableRecord
100
AcDbRegAppTableRecord
  2
GENIUS_GENBH_13
 70
     0
  0
APPID
  5
2362
330
9
100
AcDbSymbolTableRecord
100
AcDbRegAppTableRecord
  2
GENIUS_GENOBJ-NBEHI-BHF_13
 70
     0
  0
APPID
  5
2364
330
9
100
AcDbSymbolTableRecord
100
AcDbRegAppTableRecord
  2
GENIUS_GENOBJ-NBEHI-BHB_13
 70
     0
  0
APPID
  5
2379
330
9
100
AcDbSymbolTableRecord
100
AcDbRegAppTableRecord
  2
GENIUS_GENOBJ-F-SCPASSM_13
 70
     0
  0
APPID
  5
3D74
330
9
100
AcDbSymbolTableRecord
100
AcDbRegAppTableRecord
  2
GENIUS_GENDIM_13
 70
     0
  0
APPID
  5
3D76
330
9
100
AcDbSymbolTableRecord
100
AcDbRegAppTableRecord
  2
GENIUS_GE3DTOL_13
 70
     0
  0
APPID
  5
3D9C
330
9
100
AcDbSymbolTableRecord
100
AcDbRegAppTableRecord
  2
AD_DRAW
 70
     0
  0
APPID
  5
3DE8
330
9
100
AcDbSymbolTableRecord
100
AcDbRegAppTableRecord
  2
ASURF_PCURVE_APPNAME
 70
     0
  0
APPID
  5
3DED
330
9
100
AcDbSymbolTableRecord
100
AcDbRegAppTableRecord
  2
AMG_3D2D_5.0
 70
     0
  0
APPID
  5
3E1B
330
9
100
AcDbSymbolTableRecord
100
AcDbRegAppTableRecord
  2
DESIGNERASSEMBLIES
 70
     0
  0
APPID
  5
3E20
330
9
100
AcDbSymbolTableRecord
100
AcDbRegAppTableRecord
  2
ACADM_DIM_EDIT
 70
     0
  0
APPID
  5
3E21
330
9
100
AcDbSymbolTableRecord
100
AcDbRegAppTableRecord
  2
AMDT_DM_ADJ
 70
     0
  0
APPID
  5
4143
330
9
100
AcDbSymbolTableRecord
100
AcDbRegAppTableRecord
  2
GENIUS_GENFIL_13
 70
     0
  0
APPID
  5
4144
330
9
100
AcDbSymbolTableRecord
100
AcDbRegAppTableRecord
  2
GENIUS_GENOBJ-N-CHA_13
 70
     0
  0
APPID
  5
4E17
330
9
100
AcDbSymbolTableRecord
100
AcDbRegAppTableRecord
  2
GEVID1008153417
 70
     0
  0
APPID
  5
4E58
330
9
100
AcDbSymbolTableRecord
100
AcDbRegAppTableRecord
  2
GEVID1008153418
 70
     0
  0
APPID
  5
4E5E
330
9
100
AcDbSymbolTableRecord
100
AcDbRegAppTableRecord
  2
GEVID1008153419
 70
     0
  0
APPID
  5
4E64
330
9
100
AcDbSymbolTableRecord
100
AcDbRegAppTableRecord
  2
GEVID1008153420
 70
     0
  0
APPID
  5
4E75
330
9
100
AcDbSymbolTableRecord
100
AcDbRegAppTableRecord
  2
GEVID1008153421
 70
     0
  0
APPID
  5
4EB7
330
9
100
AcDbSymbolTableRecord
100
AcDbRegAppTableRecord
  2
GENIUS_AMGTXT_16
 70
     0
  0
APPID
  5
7645
330
9
100
AcDbSymbolTableRecord
100
AcDbRegAppTableRecord
  2
GENIUS_GENOBJ-N-DIM_13
 70
     0
  0
APPID
  5
AAD0
330
9
100
AcDbSymbolTableRecord
100
AcDbRegAppTableRecord
  2
ACAD_DSTYLE_DIMARC_LENGTH_SYMBOL
 70
     0
  0
APPID
  5
AAD1
330
9
100
AcDbSymbolTableRecord
100
AcDbRegAppTableRecord
  2
ACAD_DSTYLE_DIMJOGGED_JOGANGLE_SYMBOL
 70
     0
  0
APPID
  5
AAFD
330
9
100
AcDbSymbolTableRecord
100
AcDbRegAppTableRecord
  2
ACAD_PSEXT
 70
     0
  0
APPID
  5
AD61
330
9
100
AcDbSymbolTableRecord
100
AcDbRegAppTableRecord
  2
AcAecLayerStandard
 70
     0
  0
APPID
  5
AEE3
330
9
100
AcDbSymbolTableRecord
100
AcDbRegAppTableRecord
  2
ACAD_EXEMPT_FROM_CAD_STANDARDS
 70
     0
  0
APPID
  5
B1BE
330
9
100
AcDbSymbolTableRecord
100
AcDbRegAppTableRecord
  2
GENIUS_GENCEN_19
 70
     0
  0
APPID
  5
BE61
330
9
100
AcDbSymbolTableRecord
100
AcDbRegAppTableRecord
  2
ACAD_MLEADERVER
 70
     0
  0
APPID
  5
E19D
330
9
100
AcDbSymbolTableRecord
100
AcDbRegAppTableRecord
  2
AcDbAttr
 70
     0
  0
ENDTAB
  0
TABLE
  2
DIMSTYLE
  5
A
330
0
100
AcDbSymbolTable
 70
    25
100
AcDbDimStyleTable
 71
     1
340
2515
  0
DIMSTYLE
105
A76
330
A
100
AcDbSymbolTableRecord
100
AcDbDimStyleTableRecord
  2
STANDARD
 70
     0
 41
3.0
 42
1.0
 43
7.0
 44
2.0
 73
     0
 74
     0
 77
     1
140
2.799999999999999
141
0.0
143
0.0394
147
0.7
171
     4
172
     1
173
     1
176
     3
177
     3
178
     2
271
     3
272
     3
273
     8
274
     4
289
     0
340
A74
341
A66
343
A66
344
A66
  0
DIMSTYLE
105
2515
330
A
100
AcDbSymbolTableRecord
100
AcDbDimStyleTableRecord
  2
SYS
 70
     0
  4
"
 41
1.0
 42
1.0
 43
10.0
 44
1.0
 47
0.1
 48
0.1
 73
     0
 74
     0
 77
     1
 78
     8
 79
     2
140
3.5
141
0.0
143
0.0393701
146
0.71
147
1.5
172
     1
176
   256
177
   256
178
     7
271
     2
272
     2
283
     0
284
     8
340
11
371
    -1
372
    -1
1001
ACAD_DSTYLE_DIMJOGGED_JOGANGLE_SYMBOL
1070
   384
1040
0.7853981633974483
1001
ACAD_DSTYLE_DIMARC_LENGTH_SYMBOL
1070
   379
1070
     1
  0
DIMSTYLE
105
2516
330
A
100
AcDbSymbolTableRecord
100
AcDbDimStyleTableRecord
  2
SYS$3
 70
     0
  4
"
 41
2.0
 42
1.0
 43
10.0
 44
1.0
 47
0.1
 48
0.1
 73
     0
 77
     1
 78
     8
 79
     2
140
3.5
141
0.0
143
0.0393701
146
0.71
147
1.5
176
   256
177
   256
178
     2
271
     2
272
     2
283
     0
284
     8
288
     1
340
11
342
A66
371
    -1
372
    -1
1001
ACAD_DSTYLE_DIMJOGGED_JOGANGLE_SYMBOL
1070
   384
1040
0.7853981633974483
1001
ACAD_DSTYLE_DIMARC_LENGTH_SYMBOL
1070
   379
1070
     1
  0
DIMSTYLE
105
2517
330
A
100
AcDbSymbolTableRecord
100
AcDbDimStyleTableRecord
  2
SYS$4
 70
     0
  4
"
 41
2.0
 42
1.0
 43
10.0
 44
1.0
 47
0.1
 48
0.1
 73
     0
 77
     1
 78
     8
 79
     2
140
3.5
141
0.0
143
0.0393701
146
0.71
147
1.5
173
     1
176
   256
177
   256
178
     2
271
     2
272
     2
283
     0
284
     8
288
     1
340
11
344
A66
371
    -1
372
    -1
1001
ACAD_DSTYLE_DIMJOGGED_JOGANGLE_SYMBOL
1070
   384
1040
0.7853981633974483
1001
ACAD_DSTYLE_DIMARC_LENGTH_SYMBOL
1070
   379
1070
     1
  0
DIMSTYLE
105
2518
330
A
100
AcDbSymbolTableRecord
100
AcDbDimStyleTableRecord
  2
SYS$6
 70
     0
  4
"
 41
2.0
 42
1.0
 43
10.0
 44
1.0
 47
0.1
 48
0.1
 73
     0
 74
     0
 78
     8
 79
     2
140
3.5
141
0.0
143
0.0393701
146
0.71
147
1.5
172
     1
176
   256
177
   256
178
     2
271
     2
272
     2
283
     0
284
     8
340
11
341
A66
371
    -1
372
    -1
1001
ACAD_DSTYLE_DIMJOGGED_JOGANGLE_SYMBOL
1070
   384
1040
0.7853981633974483
1001
ACAD_DSTYLE_DIMARC_LENGTH_SYMBOL
1070
   379
1070
     1
  0
DIMSTYLE
105
2519
330
A
100
AcDbSymbolTableRecord
100
AcDbDimStyleTableRecord
  2
SYS$7
 70
     0
  4
"
 41
2.0
 42
1.0
 43
10.0
 44
1.0
 47
0.1
 48
0.1
 73
     0
 74
     0
 77
     1
 78
     8
 79
     2
140
5.0
141
0.0
143
0.0393701
146
0.71
147
1.5
172
     1
176
   256
177
   256
178
     2
271
     2
272
     2
283
     0
284
     8
340
11
341
A66
342
A66
371
    -1
372
    -1
1001
ACAD_DSTYLE_DIMJOGGED_JOGANGLE_SYMBOL
1070
   384
1040
0.7853981633974483
1001
ACAD_DSTYLE_DIMARC_LENGTH_SYMBOL
1070
   379
1070
     1
  0
DIMSTYLE
105
251A
330
A
100
AcDbSymbolTableRecord
100
AcDbDimStyleTableRecord
  2
SYS$SF
 70
     0
  4
"
 41
2.5
 42
1.0
 43
10.0
 44
1.0
 47
0.1
 48
0.1
 73
     0
 74
     0
 75
     1
 76
     1
 77
     1
 78
     8
 79
     2
140
3.5
141
0.0
143
0.0393701
146
0.71
147
1.5
172
     1
176
   256
177
   256
178
     2
271
     2
272
     3
283
     0
284
     8
340
11
341
6C4
342
6C4
371
    -1
372
    -1
1001
ACAD_DSTYLE_DIMJOGGED_JOGANGLE_SYMBOL
1070
   384
1040
0.7853981633974483
1001
ACAD_DSTYLE_DIMARC_LENGTH_SYMBOL
1070
   379
1070
     1
  0
DIMSTYLE
105
251B
330
A
100
AcDbSymbolTableRecord
100
AcDbDimStyleTableRecord
  2
SYS$SH
 70
     0
  4
"
 41
2.5
 42
1.0
 43
10.0
 44
1.0
 47
0.1
 48
0.1
 73
     0
 74
     0
 75
     1
 76
     1
 77
     1
 78
     8
 79
     2
140
3.5
141
0.0
143
0.0393701
144
2.0
146
0.71
147
1.5
172
     1
173
     1
176
   256
177
   256
178
     2
271
     2
272
     3
283
     0
284
     8
340
11
341
6C4
343
72
344
6C4
371
    -1
372
    -1
1001
ACAD_DSTYLE_DIMJOGGED_JOGANGLE_SYMBOL
1070
   384
1040
0.7853981633974483
1001
ACAD_DSTYLE_DIMARC_LENGTH_SYMBOL
1070
   379
1070
     1
  0
DIMSTYLE
105
2A59
330
A
100
AcDbSymbolTableRecord
100
AcDbDimStyleTableRecord
  2
SYS$2
 70
     0
  4
"
 41
1.0
 42
1.0
 43
10.0
 44
1.0
 47
0.1
 48
0.1
 73
     0
 74
     0
 77
     1
 78
     8
 79
     2
140
3.5
141
0.0
143
0.0393701
146
0.71
147
1.5
172
     1
176
   256
177
   256
178
     2
271
     2
272
     2
283
     0
284
     8
340
11
342
6C4
371
    -1
372
    -1
1001
ACAD_DSTYLE_DIMJOGGED_JOGANGLE_SYMBOL
1070
   384
1040
0.7853981633974483
1001
ACAD_DSTYLE_DIMARC_LENGTH_SYMBOL
1070
   379
1070
     1
  0
DIMSTYLE
105
2AAB
102
{ACAD_REACTORS
330
D6E9
330
D6FF
330
D715
330
D72B
330
D745
330
D75B
330
D771
330
D7C1
330
D7E0
330
D7F6
330
D842
330
DA8D
330
DA8E
330
DA8C
330
DAE9
330
DD89
330
DDBF
330
DE27
330
D78B
330
DDA9
330
DAEA
330
DAEB
102
}
330
A
100
AcDbSymbolTableRecord
100
AcDbDimStyleTableRecord
  2
SYS$0
 70
     0
  4
"
 41
1.0
 42
1.0
 43
10.0
 44
1.0
 47
0.1
 48
0.1
 73
     0
 74
     0
 77
     1
 78
     8
 79
     2
140
3.200000000000001
141
0.0
143
0.0393701
146
0.71
147
1.5
172
     1
176
   256
177
   256
178
     2
271
     2
272
     2
283
     0
284
     8
340
11
341
A66
342
6C4
371
    -1
372
    -1
1001
ACAD_DSTYLE_DIMJOGGED_JOGANGLE_SYMBOL
1070
   384
1040
0.7853981633974483
1001
ACAD_DSTYLE_DIMARC_LENGTH_SYMBOL
1070
   379
1070
     1
  0
DIMSTYLE
105
AF99
330
A
100
AcDbSymbolTableRecord
100
AcDbDimStyleTableRecord
  2
AM_ISO
 70
     0
  4
"
 41
2.5
 42
1.0
 43
10.0
 44
1.0
 47
0.1
 48
0.1
 73
     0
 74
     0
 77
     1
 78
     8
 79
     2
140
3.5
141
0.0
143
0.0393701
146
0.71
147
1.5
172
     1
176
   256
177
   256
178
     2
271
     2
272
     3
274
     4
283
     0
284
     8
340
11
371
    -1
372
    -1
  0
DIMSTYLE
105
AF9A
330
A
100
AcDbSymbolTableRecord
100
AcDbDimStyleTableRecord
  2
AM_ISO$3
 70
     0
  4
"
 41
2.5
 42
1.0
 43
10.0
 44
1.0
 47
0.1
 48
0.1
 73
     0
 77
     1
 78
     8
 79
     2
140
3.5
141
0.0
143
0.0393701
146
0.71
147
1.5
176
   256
177
   256
178
     2
271
     2
272
     3
274
     4
283
     0
284
     8
288
     1
289
     0
340
11
371
    -1
372
    -1
  0
DIMSTYLE
105
AF9B
330
A
100
AcDbSymbolTableRecord
100
AcDbDimStyleTableRecord
  2
AM_ISO$4
 70
     0
  4
"
 41
2.5
 42
1.0
 43
10.0
 44
1.0
 47
0.1
 48
0.1
 73
     0
 77
     1
 78
     8
 79
     2
140
3.5
141
0.0
143
0.0393701
146
0.71
147
1.5
176
   256
177
   256
178
     2
271
     2
272
     3
274
     4
283
     0
284
     8
288
     1
289
     0
340
11
371
    -1
372
    -1
  0
DIMSTYLE
105
AF9C
330
A
100
AcDbSymbolTableRecord
100
AcDbDimStyleTableRecord
  2
AM_ISO$6
 70
     0
  4
"
 41
2.5
 42
1.0
 43
10.0
 44
1.0
 47
0.1
 48
0.1
 73
     0
 74
     0
 78
     8
 79
     2
140
3.5
141
0.0
143
0.0393701
146
0.71
147
1.5
172
     1
176
   256
177
   256
178
     2
271
     2
272
     3
274
     4
283
     0
284
     8
340
11
371
    -1
372
    -1
  0
DIMSTYLE
105
AF9D
330
A
100
AcDbSymbolTableRecord
100
AcDbDimStyleTableRecord
  2
AM_ISO$7
 70
     0
  4
"
 41
2.5
 42
1.0
 43
10.0
 44
1.0
 47
0.1
 48
0.1
 73
     0
 74
     0
 77
     1
 78
     8
 79
     2
140
5.0
141
0.0
143
0.0393701
146
0.71
147
1.5
172
     1
176
   256
177
   256
178
     2
271
     2
272
     3
274
     4
283
     0
284
     8
340
11
371
    -1
372
    -1
  0
DIMSTYLE
105
AF9E
330
A
100
AcDbSymbolTableRecord
100
AcDbDimStyleTableRecord
  2
AM_ISO$SF
 70
     0
  4
"
 41
2.5
 42
1.0
 43
10.0
 44
1.0
 47
0.1
 48
0.1
 73
     0
 74
     0
 75
     1
 76
     1
 77
     1
 78
     8
 79
     2
140
3.5
141
0.0
143
0.0393701
146
0.71
147
1.5
172
     1
176
   256
177
   256
178
     2
271
     2
272
     3
274
     4
283
     0
284
     8
340
11
371
    -1
372
    -1
  0
DIMSTYLE
105
AF9F
330
A
100
AcDbSymbolTableRecord
100
AcDbDimStyleTableRecord
  2
AM_ISO$SH
 70
     0
  4
"
 41
2.5
 42
1.0
 43
10.0
 44
1.0
 47
0.1
 48
0.1
 73
     0
 74
     0
 75
     1
 76
     1
 77
     1
 78
     8
 79
     2
140
3.5
141
0.0
143
0.0393701
144
2.0
146
0.71
147
1.5
172
     1
173
     1
176
   256
177
   256
178
     2
271
     2
272
     3
274
     4
283
     0
284
     8
340
11
343
72
371
    -1
372
    -1
  0
DIMSTYLE
105
B6D3
330
A
100
AcDbSymbolTableRecord
100
AcDbDimStyleTableRecord
  2
AM_ANSI
 70
     0
  4
mm
 41
0.1
 42
0.05
 43
0.5
 44
0.1
 47
0.1
 48
0.1
 78
     7
140
0.12
141
0.0
146
0.71
147
0.06
176
   256
177
   256
178
     2
271
     2
272
     2
279
     2
284
     8
285
     8
286
     8
340
11
  0
DIMSTYLE
105
B6D4
330
A
100
AcDbSymbolTableRecord
100
AcDbDimStyleTableRecord
  2
AM_ANSI$3
 70
     0
  4
mm
 41
0.1
 42
0.05
 43
0.5
 44
0.1
 47
0.1
 48
0.1
 78
     7
140
0.12
141
0.0
146
0.71
147
0.06
176
   256
177
   256
178
     2
271
     2
272
     2
279
     2
284
     8
285
     8
286
     8
340
11
  0
DIMSTYLE
105
B6D5
330
A
100
AcDbSymbolTableRecord
100
AcDbDimStyleTableRecord
  2
AM_ANSI$4
 70
     0
  4
mm
 41
0.1
 42
0.05
 43
0.5
 44
0.1
 47
0.1
 48
0.1
 78
     7
140
0.12
141
0.0
146
0.71
147
0.06
176
   256
177
   256
178
     2
271
     2
272
     2
279
     2
284
     8
285
     8
286
     8
340
11
  0
DIMSTYLE
105
B6D6
330
A
100
AcDbSymbolTableRecord
100
AcDbDimStyleTableRecord
  2
AM_ANSI$7
 70
     0
  4
mm
 41
0.1
 42
0.05
 43
0.5
 44
0.1
 47
0.1
 48
0.1
 78
     7
140
0.24
141
0.0
146
0.71
147
0.06
176
   256
177
   256
178
     2
271
     2
272
     2
279
     2
284
     8
285
     8
286
     8
340
11
  0
DIMSTYLE
105
B6D7
330
A
100
AcDbSymbolTableRecord
100
AcDbDimStyleTableRecord
  2
AM_ANSI$SF
 70
     0
  4
mm
 41
0.1
 42
0.05
 43
0.5
 44
0.1
 47
0.1
 48
0.1
 75
     1
 76
     1
 78
     7
140
0.12
141
0.0
146
0.71
147
0.06
176
   256
177
   256
178
     2
271
     2
272
     2
279
     2
284
     8
285
     8
286
     8
340
11
  0
DIMSTYLE
105
B6D8
330
A
100
AcDbSymbolTableRecord
100
AcDbDimStyleTableRecord
  2
AM_ANSI$SH
 70
     0
  4
mm
 41
0.1
 42
0.05
 43
0.5
 44
0.1
 47
0.1
 48
0.1
 75
     1
 76
     1
 78
     7
140
0.12
141
0.0
146
0.71
147
0.06
173
     1
176
   256
177
   256
178
     2
271
     2
272
     2
279
     2
284
     8
285
     8
286
     8
340
11
  0
ENDTAB
  0
TABLE
  2
BLOCK_RECORD
  5
1
330
0
100
AcDbSymbolTable
 70
   324
  0
BLOCK_RECORD
  5
1F
102
{ACAD_XDICTIONARY
360
8A
102
}
330
1
100
AcDbSymbolTableRecord
100
AcDbBlockTableRecord
  2
*Model_Space
340
22
  0
BLOCK_RECORD
  5
1B
330
1
100
AcDbSymbolTableRecord
100
AcDbBlockTableRecord
  2
*Paper_Space
340
1E
  0
BLOCK_RECORD
  5
23
330
1
100
AcDbSymbolTableRecord
100
AcDbBlockTableRecord
  2
*Paper_Space0
340
26
  0
BLOCK_RECORD
  5
72
330
1
100
AcDbSymbolTableRecord
100
AcDbBlockTableRecord
  2
GENAXEH
340
0
  0
BLOCK_RECORD
  5
6C4
330
1
100
AcDbSymbolTableRecord
100
AcDbBlockTableRecord
  2
_Dot
340
0
102
{BLKREFS
331
C02E
331
C02F
331
C03A
331
C03B
331
C046
331
C047
331
C052
331
C053
331
C05E
331
C05F
331
C06C
331
C06D
331
C078
331
C079
331
C084
331
C085
331
C090
331
C091
331
C09C
331
C09D
331
C0A8
331
C0A9
331
C0B4
331
C0B5
331
C0C0
331
C0C1
331
C0CC
331
C0CD
331
C0D8
331
C0D9
331
C0E4
331
C0E5
331
C0F0
331
C0F1
331
C0FC
331
C0FD
331
C108
331
C109
331
C114
331
C115
331
C120
331
C121
331
C12C
331
C12D
331
C137
331
C138
331
C143
331
C144
331
C167
331
C168
331
C173
331
C174
331
C17F
331
C180
331
C18B
331
C18C
331
C195
331
C196
331
C19F
331
C1A0
331
C1C3
331
C1C4
331
C1CD
331
C1CE
331
C1DB
331
C1DC
331
C1E7
331
C1E8
331
C1F1
331
C1F2
331
C1FC
331
C1FD
331
C208
331
C209
331
C214
331
C215
331
C220
331
C221
331
C237
331
C238
331
C243
331
C244
331
C24F
331
C250
331
BF92
331
BF93
331
BF9E
331
BF9F
331
BFAA
331
BFAB
331
BFB6
331
BFB7
331
BFC2
331
BFC3
331
BFCE
331
BFCF
331
BFDA
331
BFDB
331
BFE6
331
BFE7
331
BFF2
331
BFF3
331
BFFE
331
BFFF
331
C00A
331
C00B
331
C016
331
C017
331
C022
331
C023
331
C8C6
331
C8C7
331
C8E1
331
C8E2
331
C8E8
331
C8E9
331
C8F3
331
C8F4
331
C8FC
331
C8FD
331
C903
331
C904
331
C90B
331
C90C
331
C914
331
C915
331
C91D
331
C91E
331
C926
331
C927
331
C937
331
C938
331
C940
331
C941
331
C949
331
C94A
331
C951
331
C952
331
C95A
331
C95B
331
C963
331
C964
331
C96C
331
C96D
331
C975
331
C976
331
C97E
331
C97F
331
C987
331
C988
331
C990
331
C991
331
C999
331
C99A
331
C9A2
331
C9A3
331
C9AB
331
C9AC
331
C9B4
331
C9B5
331
C9BD
331
C9BE
331
C9C6
331
C9C7
331
C9CF
331
C9D0
331
C9D8
331
C9D9
331
C9E1
331
C9E2
331
C9EA
331
C9EB
331
C9F5
331
C9F6
331
C9FE
331
C9FF
331
CA07
331
CA08
331
CA10
331
CA11
331
CA19
331
CA1A
331
CA22
331
CA23
331
CA2B
331
CA2C
331
CA34
331
CA35
331
CA3D
331
CA3E
331
CA46
331
CA47
331
CA4F
331
CA50
331
CA58
331
CA59
331
CA61
331
CA62
331
CA6A
331
CA6B
331
CA73
331
CA74
331
CA7C
331
CA7D
331
CA85
331
CA86
331
CA8D
331
CA8E
331
CA96
331
CA97
331
CAB1
331
CAB2
331
CABA
331
CABB
331
CAC3
331
CAC4
331
CACC
331
CACD
331
CAD3
331
CAD4
331
CAF7
331
CAF8
331
CB05
331
CB06
331
CB11
331
CB12
331
CB1F
331
CB20
331
CB2B
331
CB2C
331
CB37
331
CB38
331
CB43
331
CB44
331
CB4F
331
CB50
331
CB5B
331
CB5C
331
CB67
331
CB68
331
CB73
331
CB74
331
CB80
331
CB8D
331
CB8E
331
CB99
331
CB9A
331
CBA5
331
CBA6
331
CBB1
331
CBB2
331
CBBF
331
CBC0
331
CBCB
331
CBCC
331
CBD7
331
CBD8
331
CBE5
331
CBE6
331
CBF1
331
CBF2
331
CBFD
331
CBFE
331
CC21
331
CC22
331
CC2D
331
CC2E
331
CC38
331
CC39
331
CC43
331
CC44
331
D192
331
D193
331
D19D
331
D19E
331
D1A6
331
D1A7
331
D1B1
331
D1B2
331
D1BA
331
D1BB
331
D1C3
331
D1C4
331
D1CC
331
D1CD
331
D1D5
331
D1D6
331
D1DE
331
D1DF
331
D1E7
331
D1E8
331
D1F0
331
D1F1
331
D1FA
331
D204
331
D205
331
D20D
331
D20E
331
D216
331
D217
331
D21F
331
D220
331
D22A
331
D22B
331
D233
331
D234
331
D23C
331
D23D
331
D247
331
D248
331
D250
331
D251
331
D259
331
D25A
331
D274
331
D275
331
D27D
331
D27E
331
D285
331
D286
331
D28D
331
D28E
331
D6CD
331
D6CE
331
D81C
331
D81D
331
D97D
331
D97E
331
D9B3
331
D9B4
331
D9C5
331
D9C6
331
D9CE
331
D9CF
331
DA0F
331
DA10
331
DA21
331
DA22
331
DA2A
331
DA2B
331
DA33
331
DA34
331
DCDA
331
DCDB
331
DD0B
331
DD0C
331
DDA2
331
DDA3
331
DDB9
331
DDBA
331
DE21
331
DE22
331
DE44
331
DE45
331
DE4D
331
DE4E
331
DE58
331
DE59
331
DE97
331
DE98
331
DEA0
331
DEA1
331
DEA9
331
DEAA
331
DEB2
331
DEB3
331
DEBB
331
DEBC
331
DEC4
331
DEC5
331
DF3F
331
DF40
331
DF90
331
DF91
331
DF99
331
DF9A
331
DFA2
331
DFA3
331
DFAE
331
DFAF
331
DFB9
331
DFBA
331
E129
331
E12A
331
E132
331
E133
331
E14D
331
E14E
102
}
  0
BLOCK_RECORD
  5
A66
330
1
100
AcDbSymbolTableRecord
100
AcDbBlockTableRecord
  2
_OPEN30
340
0
  0
BLOCK_RECORD
  5
B519
330
1
100
AcDbSymbolTableRecord
100
AcDbBlockTableRecord
  2
_NONE
340
0
  0
BLOCK_RECORD
  5
B51C
330
1
100
AcDbSymbolTableRecord
100
AcDbBlockTableRecord
  2
_DOTSMALL
340
0
102
{BLKREFS
331
B55D
331
B568
331
B571
331
B572
331
B57C
331
B586
331
B590
331
B599
331
B5A4
331
B5A5
331
B5AF
331
B5B0
331
B5B9
331
B5C4
331
B5C5
331
B5D3
331
B5D4
331
B5DF
331
B5EC
331
B5F7
331
B5F8
331
B602
331
B603
331
B60D
331
B617
331
B621
331
B62B
331
B636
331
B63F
331
B640
331
B64A
331
B653
331
B65E
331
B65F
331
B669
331
B66A
331
B673
331
B67E
331
B67F
331
B68A
331
B694
331
B528
331
B529
331
B534
331
B535
331
B53F
331
B549
331
B553
331
D380
331
D381
331
D389
331
D393
331
D562
331
D5D1
331
D5D2
331
D5DA
331
D5DB
331
D5E2
331
D5E9
331
D5F0
331
D5F7
331
D5FF
331
D605
331
D606
331
D60D
331
D614
331
D61B
331
D621
331
D629
331
D62A
331
D631
331
D632
331
D638
331
D640
331
D641
331
D64A
331
D64B
331
D652
331
D653
331
D65A
331
D661
331
D668
331
D66F
331
D677
331
D67D
331
D67E
331
D685
331
D68B
331
D693
331
D694
331
D69B
331
D69C
331
D6A2
331
D6AA
331
D6AB
331
D6B3
331
DD71
331
DD72
331
DD7A
331
DD84
102
}
  0
BLOCK_RECORD
  5
BE62
102
{ACAD_XDICTIONARY
360
BE76
102
}
330
1
100
AcDbSymbolTableRecord
100
AcDbBlockTableRecord
  2
SYS図枠A3(AIS11)
340
0
  0
BLOCK_RECORD
  5
BE8C
102
{ACAD_XDICTIONARY
360
BEE5
102
}
330
1
100
AcDbSymbolTableRecord
100
AcDbBlockTableRecord
  2
SYS表題(AIS11)
340
0
  0
BLOCK_RECORD
  5
BF89
330
1
100
AcDbSymbolTableRecord
100
AcDbBlockTableRecord
  2
GENDOT
340
0
102
{BLKREFS
331
C151
331
C152
331
C15D
331
C15E
331
C1AD
331
C1AE
331
C1B9
331
C1BA
331
C22D
331
C22E
331
C8D1
331
C8D2
331
C8DA
331
C8DB
331
C930
331
C931
331
CAA1
331
CAA2
331
CAAA
331
CAAB
331
CB7F
331
CC0B
331
CC0C
331
CC17
331
CC18
331
D1F9
331
D264
331
D265
331
D26D
331
D26E
102
}
  0
BLOCK_RECORD
  5
CADA
330
1
100
AcDbSymbolTableRecord
100
AcDbBlockTableRecord
  2
*U223
340
0
102
{BLKREFS
331
D2C5
102
}
  0
BLOCK_RECORD
  5
CADE
330
1
100
AcDbSymbolTableRecord
100
AcDbBlockTableRecord
  2
*U224
340
0
102
{BLKREFS
331
D2C8
102
}
  0
BLOCK_RECORD
  5
CAE2
330
1
100
AcDbSymbolTableRecord
100
AcDbBlockTableRecord
  2
*U225
340
0
102
{BLKREFS
331
D2C9
102
}
  0
BLOCK_RECORD
  5
CAE6
330
1
100
AcDbSymbolTableRecord
100
AcDbBlockTableRecord
  2
*U226
340
0
102
{BLKREFS
331
D2CB
102
}
  0
BLOCK_RECORD
  5
CAEA
330
1
100
AcDbSymbolTableRecord
100
AcDbBlockTableRecord
  2
*U227
340
0
102
{BLKREFS
331
D2CC
102
}
  0
BLOCK_RECORD
  5
D6EA
330
1
100
AcDbSymbolTableRecord
100
AcDbBlockTableRecord
  2
*D289
340
0
  0
BLOCK_RECORD
  5
D700
330
1
100
AcDbSymbolTableRecord
100
AcDbBlockTableRecord
  2
*D290
340
0
  0
BLOCK_RECORD
  5
D716
330
1
100
AcDbSymbolTableRecord
100
AcDbBlockTableRecord
  2
*D291
340
0
  0
BLOCK_RECORD
  5
D72C
330
1
100
AcDbSymbolTableRecord
100
AcDbBlockTableRecord
  2
*D292
340
0
  0
BLOCK_RECORD
  5
D746
330
1
100
AcDbSymbolTableRecord
100
AcDbBlockTableRecord
  2
*D293
340
0
  0
BLOCK_RECORD
  5
D75C
330
1
100
AcDbSymbolTableRecord
100
AcDbBlockTableRecord
  2
*D294
340
0
  0
BLOCK_RECORD
  5
D772
330
1
100
AcDbSymbolTableRecord
100
AcDbBlockTableRecord
  2
*D295
340
0
  0
BLOCK_RECORD
  5
D78C
330
1
100
AcDbSymbolTableRecord
100
AcDbBlockTableRecord
  2
*D296
340
0
  0
BLOCK_RECORD
  5
D7C2
330
1
100
AcDbSymbolTableRecord
100
AcDbBlockTableRecord
  2
*D298
340
0
  0
BLOCK_RECORD
  5
D7E1
330
1
100
AcDbSymbolTableRecord
100
AcDbBlockTableRecord
  2
*D299
340
0
  0
BLOCK_RECORD
  5
D7F7
330
1
100
AcDbSymbolTableRecord
100
AcDbBlockTableRecord
  2
*D300
340
0
  0
BLOCK_RECORD
  5
D843
330
1
100
AcDbSymbolTableRecord
100
AcDbBlockTableRecord
  2
*D303
340
0
  0
BLOCK_RECORD
  5
DA8F
330
1
100
AcDbSymbolTableRecord
100
AcDbBlockTableRecord
  2
*D310
340
0
  0
BLOCK_RECORD
  5
DA9B
330
1
100
AcDbSymbolTableRecord
100
AcDbBlockTableRecord
  2
*D311
340
0
  0
BLOCK_RECORD
  5
DAA7
330
1
100
AcDbSymbolTableRecord
100
AcDbBlockTableRecord
  2
*D312
340
0
  0
BLOCK_RECORD
  5
DAEC
330
1
100
AcDbSymbolTableRecord
100
AcDbBlockTableRecord
  2
*D313
340
0
  0
BLOCK_RECORD
  5
DAF8
330
1
100
AcDbSymbolTableRecord
100
AcDbBlockTableRecord
  2
*D314
340
0
  0
BLOCK_RECORD
  5
DB04
330
1
100
AcDbSymbolTableRecord
100
AcDbBlockTableRecord
  2
*D315
340
0
  0
BLOCK_RECORD
  5
DD8A
330
1
100
AcDbSymbolTableRecord
100
AcDbBlockTableRecord
  2
*D316
340
0
  0
BLOCK_RECORD
  5
DDAA
330
1
100
AcDbSymbolTableRecord
100
AcDbBlockTableRecord
  2
*D317
340
0
  0
BLOCK_RECORD
  5
DDC0
330
1
100
AcDbSymbolTableRecord
100
AcDbBlockTableRecord
  2
*D318
340
0
  0
BLOCK_RECORD
  5
DE28
330
1
100
AcDbSymbolTableRecord
100
AcDbBlockTableRecord
  2
*D320
340
0
  0
BLOCK_RECORD
  5
E23F
330
1
100
AcDbSymbolTableRecord
100
AcDbBlockTableRecord
  2
*S323
340
0
  0
ENDTAB
  0
ENDSEC
  0
SECTION
  2
BLOCKS
  0
BLOCK
  5
20
330
1F
100
AcDbEntity
  8
0
100
AcDbBlockBegin
  2
*Model_Space
 70
     0
 10
0.0
 20
0.0
 30
0.0
  3
*Model_Space
  1

  0
ENDBLK
  5
21
330
1F
100
AcDbEntity
  8
0
100
AcDbBlockEnd
  0
BLOCK
  5
1C
330
1B
100
AcDbEntity
 67
     1
  8
0
100
AcDbBlockBegin
  2
*Paper_Space
 70
     0
 10
0.0
 20
0.0
 30
0.0
  3
*Paper_Space
  1

  0
ENDBLK
  5
1D
330
1B
100
AcDbEntity
 67
     1
  8
0
100
AcDbBlockEnd
  0
BLOCK
  5
24
330
23
100
AcDbEntity
 67
     1
  8
0
100
AcDbBlockBegin
  2
*Paper_Space0
 70
     0
 10
0.0
 20
0.0
 30
0.0
  3
*Paper_Space0
  1

  0
ENDBLK
  5
25
330
23
100
AcDbEntity
 67
     1
  8
0
100
AcDbBlockEnd
  0
BLOCK
  5
74
330
72
100
AcDbEntity
  8
0
100
AcDbBlockBegin
  2
GENAXEH
 70
     0
 10
0.0
 20
0.0
 30
0.0
  3
GENAXEH
  1

  0
LINE
  5
73
330
72
100
AcDbEntity
  8
0
100
AcDbLine
 10
-1.0
 20
0.0
 30
0.0
 11
1.0
 21
0.0
 31
0.0
  0
ENDBLK
  5
75
330
72
100
AcDbEntity
  8
0
100
AcDbBlockEnd
  0
BLOCK
  5
6C7
330
6C4
100
AcDbEntity
  8
0
100
AcDbBlockBegin
  2
_Dot
 70
     0
 10
0.0
 20
0.0
 30
0.0
  3
_Dot
  1

  0
LWPOLYLINE
  5
6C5
330
6C4
100
AcDbEntity
  8
0
  6
ByBlock
 62
     0
100
AcDbPolyline
 90
        2
 70
     1
 43
0.5
 10
-0.25
 20
0.0
 42
1.0
 10
0.25
 20
0.0
 42
1.0
  0
LINE
  5
6C6
330
6C4
100
AcDbEntity
  8
0
  6
ByBlock
 62
     0
370
    -2
100
AcDbLine
 10
-0.5
 20
0.0
 30
0.0
 11
-1.0
 21
0.0
 31
0.0
  0
ENDBLK
  5
6C8
330
6C4
100
AcDbEntity
  8
0
100
AcDbBlockEnd
  0
BLOCK
  5
A6A
330
A66
100
AcDbEntity
  8
0
100
AcDbBlockBegin
  2
_OPEN30
 70
     0
 10
0.0
 20
0.0
 30
0.0
  3
_OPEN30
  1

  0
LINE
  5
A67
330
A66
100
AcDbEntity
  8
0
  6
ByBlock
 62
     0
100
AcDbLine
 10
-1.0
 20
0.26794919
 30
0.0
 11
0.0
 21
0.0
 31
0.0
  0
LINE
  5
A68
330
A66
100
AcDbEntity
  8
0
  6
ByBlock
 62
     0
100
AcDbLine
 10
0.0
 20
0.0
 30
0.0
 11
-1.0
 21
-0.26794919
 31
0.0
  0
LINE
  5
A69
330
A66
100
AcDbEntity
  8
0
  6
ByBlock
 62
     0
100
AcDbLine
 10
0.0
 20
0.0
 30
0.0
 11
-1.0
 21
0.0
 31
0.0
  0
ENDBLK
  5
A6B
330
A66
100
AcDbEntity
  8
0
100
AcDbBlockEnd
  0
BLOCK
  5
B51A
330
B519
100
AcDbEntity
  8
0
100
AcDbBlockBegin
  2
_NONE
 70
     0
 10
0.0
 20
0.0
 30
0.0
  3
_NONE
  1

  0
ENDBLK
  5
B51B
330
B519
100
AcDbEntity
  8
0
100
AcDbBlockEnd
  0
BLOCK
  5
B51D
330
B51C
100
AcDbEntity
  8
0
100
AcDbBlockBegin
  2
_DOTSMALL
 70
     0
 10
0.0
 20
0.0
 30
0.0
  3
_DOTSMALL
  1

  0
POLYLINE
  5
B51E
330
B51C
100
AcDbEntity
  8
0
  6
ByBlock
 62
     0
100
AcDb2dPolyline
 66
     1
 10
0.0
 20
0.0
 30
0.0
 70
     1
 40
0.5
 41
0.5
  0
VERTEX
  5
B51F
330
B51E
100
AcDbEntity
  8
0
  6
ByBlock
 62
     0
100
AcDbVertex
100
AcDb2dVertex
 10
-0.0625
 20
0.0
 30
0.0
 42
1.0
  0
VERTEX
  5
B520
330
B51E
100
AcDbEntity
  8
0
  6
ByBlock
 62
     0
100
AcDbVertex
100
AcDb2dVertex
 10
0.0625
 20
0.0
 30
0.0
 42
1.0
  0
SEQEND
  5
B521
330
B51E
100
AcDbEntity
  8
0
  6
ByBlock
 62
     0
  0
ENDBLK
  5
B522
330
B51C
100
AcDbEntity
  8
0
100
AcDbBlockEnd
  0
BLOCK
  5
BE78
330
BE62
100
AcDbEntity
  8
0
100
AcDbBlockBegin
  2
SYS図枠A3(AIS11)
 70
     0
 10
0.0
 20
0.0
 30
0.0
  3
SYS図枠A3(AIS11)
  1

  0
TEXT
  5
BE63
330
BE62
100
AcDbEntity
  8
AM_6
 60
     1
100
AcDbText
 10
408.4999999999999
 20
8.5
 30
0.0
 40
2.5
  1
!GENTITLE-INSERT
100
AcDbText
  0
TEXT
  5
BE64
330
BE62
100
AcDbEntity
  8
AM_6
 60
     1
100
AcDbText
 10
0.0
 20
0.0
 30
0.0
 40
2.5
  1
!GENTITLE-LL
100
AcDbText
  0
TEXT
  5
BE65
330
BE62
100
AcDbEntity
  8
AM_6
 60
     1
100
AcDbText
 10
420.0
 20
297.0
 30
0.0
 40
2.5
  1
!GENTITLE-RU
100
AcDbText
  0
TEXT
  5
BE66
330
BE62
100
AcDbEntity
  8
AM_6
 60
     1
100
AcDbText
 10
420.0
 20
297.0
 30
0.0
 40
2.5
  1
!GENTITLE-MAX
100
AcDbText
  0
LINE
  5
BE67
330
BE62
100
AcDbEntity
  8
size
100
AcDbLine
 10
0.0
 20
0.0
 30
0.0
 11
420.0
 21
0.0
 31
0.0
1001
GENIUS_GENREC_14
1002
{
1000
PYDIR
1011
0.0000000000000178
1021
297.0
1031
0.0
1002
}
1002
{
1000
PXDIR
1011
420.0
1021
0.0
1031
0.0
1002
}
1002
{
1000
PORI
1011
0.0
1021
0.0
1031
0.0
1002
}
1002
{
1000
PINS
1011
210.0
1021
148.4999999999999
1031
0.0
1002
}
1002
{
1000
HVAL
1000
297
1002
}
1002
{
1000
H
1070
     2
1002
}
1002
{
1000
WVAL
1000
420
1002
}
1002
{
1000
W
1070
     2
1002
}
1002
{
1000
C
1070
     4
1002
}
1001
GENIUS_GENOBJ-N-REC_13
1002
{
1000
OWNER
1000
GEN
1002
}
1001
GENIUS_GENODEF_13
1002
{
1000
HIER
1070
     0
1002
}
1002
{
1000
MANEDIT
1070
     0
1002
}
1002
{
1000
NOSEL
1070
     0
1002
}
1002
{
1000
BEHIND
1070
     0
1002
}
1002
{
1000
OTHER
1070
     0
1002
}
1002
{
1000
REACTOR
1002
}
  0
LINE
  5
BE68
330
BE62
100
AcDbEntity
  8
size
100
AcDbLine
 10
420.0
 20
0.0
 30
0.0
 11
420.0
 21
297.0
 31
0.0
1001
GENIUS_GENREC_14
1002
{
1000
PYDIR
1011
0.0000000000000178
1021
297.0
1031
0.0
1002
}
1002
{
1000
PXDIR
1011
420.0
1021
0.0
1031
0.0
1002
}
1002
{
1000
PORI
1011
0.0
1021
0.0
1031
0.0
1002
}
1002
{
1000
PINS
1011
210.0
1021
148.4999999999999
1031
0.0
1002
}
1002
{
1000
HVAL
1000
297
1002
}
1002
{
1000
H
1070
     2
1002
}
1002
{
1000
WVAL
1000
420
1002
}
1002
{
1000
W
1070
     2
1002
}
1002
{
1000
C
1070
     4
1002
}
1001
GENIUS_GENOBJ-N-REC_13
1002
{
1000
OWNER
1000
GEN
1002
}
1001
GENIUS_GENODEF_13
1002
{
1000
HIER
1070
     0
1002
}
1002
{
1000
MANEDIT
1070
     0
1002
}
1002
{
1000
NOSEL
1070
     0
1002
}
1002
{
1000
BEHIND
1070
     0
1002
}
1002
{
1000
OTHER
1070
     0
1002
}
1002
{
1000
REACTOR
1002
}
  0
LINE
  5
BE69
330
BE62
100
AcDbEntity
  8
size
100
AcDbLine
 10
420.0
 20
297.0
 30
0.0
 11
0.0000000000000275
 21
297.0
 31
0.0
1001
GENIUS_GENREC_14
1002
{
1000
PYDIR
1011
0.0000000000000178
1021
297.0
1031
0.0
1002
}
1002
{
1000
PXDIR
1011
420.0
1021
0.0
1031
0.0
1002
}
1002
{
1000
PORI
1011
0.0
1021
0.0
1031
0.0
1002
}
1002
{
1000
PINS
1011
210.0
1021
148.4999999999999
1031
0.0
1002
}
1002
{
1000
HVAL
1000
297
1002
}
1002
{
1000
H
1070
     2
1002
}
1002
{
1000
WVAL
1000
420
1002
}
1002
{
1000
W
1070
     2
1002
}
1002
{
1000
C
1070
     4
1002
}
1001
GENIUS_GENOBJ-N-REC_13
1002
{
1000
OWNER
1000
GEN
1002
}
1001
GENIUS_GENODEF_13
1002
{
1000
HIER
1070
     0
1002
}
1002
{
1000
MANEDIT
1070
     0
1002
}
1002
{
1000
NOSEL
1070
     0
1002
}
1002
{
1000
BEHIND
1070
     0
1002
}
1002
{
1000
OTHER
1070
     0
1002
}
1002
{
1000
REACTOR
1002
}
  0
LINE
  5
BE6A
330
BE62
100
AcDbEntity
  8
size
100
AcDbLine
 10
0.0000000000000275
 20
297.0
 30
0.0
 11
0.0
 21
0.0
 31
0.0
1001
GENIUS_GENREC_14
1002
{
1000
PYDIR
1011
0.0000000000000178
1021
297.0
1031
0.0
1002
}
1002
{
1000
PXDIR
1011
420.0
1021
0.0
1031
0.0
1002
}
1002
{
1000
PORI
1011
0.0
1021
0.0
1031
0.0
1002
}
1002
{
1000
PINS
1011
210.0
1021
148.4999999999999
1031
0.0
1002
}
1002
{
1000
HVAL
1000
297
1002
}
1002
{
1000
H
1070
     2
1002
}
1002
{
1000
WVAL
1000
420
1002
}
1002
{
1000
W
1070
     2
1002
}
1002
{
1000
C
1070
     4
1002
}
1001
GENIUS_GENOBJ-N-REC_13
1002
{
1000
OWNER
1000
GEN
1002
}
1001
GENIUS_GENODEF_13
1002
{
1000
HIER
1070
     0
1002
}
1002
{
1000
MANEDIT
1070
     0
1002
}
1002
{
1000
NOSEL
1070
     0
1002
}
1002
{
1000
BEHIND
1070
     0
1002
}
1002
{
1000
OTHER
1070
     0
1002
}
1002
{
1000
REACTOR
1002
}
  0
LINE
  5
BE6B
330
BE62
100
AcDbEntity
  8
waku
100
AcDbLine
 10
408.4999999999999
 20
8.5
 30
0.0
 11
408.4999999999999
 21
288.5
 31
0.0
1001
GENIUS_GENREC_14
1002
{
1000
PYDIR
1011
0.0000000000000178
1021
297.0
1031
0.0
1002
}
1002
{
1000
PXDIR
1011
420.0
1021
0.0
1031
0.0
1002
}
1002
{
1000
PORI
1011
0.0
1021
0.0
1031
0.0
1002
}
1002
{
1000
PINS
1011
210.0
1021
148.4999999999999
1031
0.0
1002
}
1002
{
1000
HVAL
1000
297
1002
}
1002
{
1000
H
1070
     2
1002
}
1002
{
1000
WVAL
1000
420
1002
}
1002
{
1000
W
1070
     2
1002
}
1002
{
1000
C
1070
     4
1002
}
1001
GENIUS_GENOBJ-N-REC_13
1002
{
1000
OWNER
1000
GEN
1002
}
1001
GENIUS_GENODEF_13
1002
{
1000
HIER
1070
     0
1002
}
1002
{
1000
MANEDIT
1070
     0
1002
}
1002
{
1000
NOSEL
1070
     0
1002
}
1002
{
1000
BEHIND
1070
     0
1002
}
1002
{
1000
OTHER
1070
     0
1002
}
1002
{
1000
REACTOR
1002
}
  0
LINE
  5
BE6C
330
BE62
100
AcDbEntity
  8
waku
100
AcDbLine
 10
11.50000000000002
 20
288.5
 30
0.0
 11
11.5
 21
8.5
 31
0.0
1001
GENIUS_GENREC_14
1002
{
1000
PYDIR
1011
0.0000000000000178
1021
297.0
1031
0.0
1002
}
1002
{
1000
PXDIR
1011
420.0
1021
0.0
1031
0.0
1002
}
1002
{
1000
PORI
1011
0.0
1021
0.0
1031
0.0
1002
}
1002
{
1000
PINS
1011
210.0
1021
148.4999999999999
1031
0.0
1002
}
1002
{
1000
HVAL
1000
297
1002
}
1002
{
1000
H
1070
     2
1002
}
1002
{
1000
WVAL
1000
420
1002
}
1002
{
1000
W
1070
     2
1002
}
1002
{
1000
C
1070
     4
1002
}
1001
GENIUS_GENOBJ-N-REC_13
1002
{
1000
OWNER
1000
GEN
1002
}
1001
GENIUS_GENODEF_13
1002
{
1000
HIER
1070
     0
1002
}
1002
{
1000
MANEDIT
1070
     0
1002
}
1002
{
1000
NOSEL
1070
     0
1002
}
1002
{
1000
BEHIND
1070
     0
1002
}
1002
{
1000
OTHER
1070
     0
1002
}
1002
{
1000
REACTOR
1002
}
  0
LINE
  5
BE6D
330
BE62
100
AcDbEntity
  8
waku
100
AcDbLine
 10
408.4999999999999
 20
288.5
 30
0.0
 11
11.50000000000002
 21
288.5
 31
0.0
1001
GENIUS_GENREC_14
1002
{
1000
PYDIR
1011
0.0000000000000178
1021
297.0
1031
0.0
1002
}
1002
{
1000
PXDIR
1011
420.0
1021
0.0
1031
0.0
1002
}
1002
{
1000
PORI
1011
0.0
1021
0.0
1031
0.0
1002
}
1002
{
1000
PINS
1011
210.0
1021
148.4999999999999
1031
0.0
1002
}
1002
{
1000
HVAL
1000
297
1002
}
1002
{
1000
H
1070
     2
1002
}
1002
{
1000
WVAL
1000
420
1002
}
1002
{
1000
W
1070
     2
1002
}
1002
{
1000
C
1070
     4
1002
}
1001
GENIUS_GENOBJ-N-REC_13
1002
{
1000
OWNER
1000
GEN
1002
}
1001
GENIUS_GENODEF_13
1002
{
1000
HIER
1070
     0
1002
}
1002
{
1000
MANEDIT
1070
     0
1002
}
1002
{
1000
NOSEL
1070
     0
1002
}
1002
{
1000
BEHIND
1070
     0
1002
}
1002
{
1000
OTHER
1070
     0
1002
}
1002
{
1000
REACTOR
1002
}
  0
TEXT
  5
BE6E
330
BE62
100
AcDbEntity
  8
AM_6
 60
     1
100
AcDbText
 10
0.0
 20
0.0
 30
0.0
 40
2.5
  1
!GENTITLE-LL
100
AcDbText
  0
TEXT
  5
BE6F
330
BE62
100
AcDbEntity
  8
AM_6
 60
     1
100
AcDbText
 10
408.4999999999999
 20
288.5
 30
0.0
 40
2.5
  1
!GENTITLE-RU
100
AcDbText
  0
TEXT
  5
BE70
330
BE62
100
AcDbEntity
  8
AM_6
 60
     1
100
AcDbText
 10
420.0
 20
297.0
 30
0.0
 40
2.5
  1
!GENTITLE-MAX
100
AcDbText
  0
TEXT
  5
BE71
330
BE62
100
AcDbEntity
  8
AM_6
 60
     1
100
AcDbText
 10
408.4999999999999
 20
8.5
 30
0.0
 40
2.5
  1
!GENTITLE-INSERT
100
AcDbText
  0
LINE
  5
BE72
330
BE62
100
AcDbEntity
  8
waku
100
AcDbLine
 10
11.5
 20
8.5
 30
0.0
 11
408.4999999999999
 21
8.5
 31
0.0
  0
LINE
  5
BE73
330
BE62
100
AcDbEntity
  8
waku
100
AcDbLine
 10
246.499999999999
 20
33.49999999999332
 30
0.0
 11
408.4999999999999
 21
33.49999999999981
 31
0.0
  0
LINE
  5
BE74
330
BE62
100
AcDbEntity
  8
waku
100
AcDbLine
 10
246.4999999999983
 20
8.5
 30
0.0
 11
246.4999999999974
 21
33.49999999999332
 31
0.0
  0
MTEXT
  5
BE75
330
BE62
100
AcDbEntity
  8
AM_6
100
AcDbMText
 10
316.9999999999996
 20
25.74999999999989
 30
0.0
 40
4.0
 41
9.015095283510618
 71
     5
 72
     5
  1
A3
 73
     1
 44
1.0
  0
ENDBLK
  5
BE79
330
BE62
100
AcDbEntity
  8
0
100
AcDbBlockEnd
  0
BLOCK
  5
BEE7
330
BE8C
100
AcDbEntity
  8
0
100
AcDbBlockBegin
  2
SYS表題(AIS11)
 70
     2
 10
0.0
 20
0.0
 30
0.0
  3
SYS表題(AIS11)
  1

  0
LINE
  5
BE8D
330
BE8C
100
AcDbEntity
  8
waku
  6
Continuous
370
    40
100
AcDbLine
 10
-162.0
 20
0.0
 30
0.0
 11
0.0000000000004547
 21
0.0
 31
0.0
  0
LINE
  5
BE8E
330
BE8C
100
AcDbEntity
  8
hyosen2
  6
Continuous
370
    40
100
AcDbLine
 10
-115.0000000000004
 20
25.0
 30
0.0
 11
-115.0000000000004
 21
0.0
 31
0.0
  0
LINE
  5
BE8F
330
BE8C
100
AcDbEntity
  8
waku
  6
Continuous
370
    40
100
AcDbLine
 10
0.0
 20
25.0
 30
0.0
 11
0.0
 21
0.0
 31
0.0
  0
LINE
  5
BE90
330
BE8C
100
AcDbEntity
  8
waku
  6
Continuous
370
    40
100
AcDbLine
 10
-162.0000000000007
 20
24.99999999999977
 30
0.0
 11
-162.0000000000013
 21
-0.0000000000002274
 31
0.0
  0
LINE
  5
BE91
330
BE8C
100
AcDbEntity
  8
hyosen2
  6
Continuous
370
    40
100
AcDbLine
 10
-115.0000000000004
 20
14.0
 30
0.0
 11
-68.00000000000022
 21
14.0
 31
0.0
  0
LINE
  5
BE92
330
BE8C
100
AcDbEntity
  8
hyosen2
  6
Continuous
100
AcDbLine
 10
-62.99999999999977
 20
25.0
 30
0.0
 11
-62.99999999999977
 21
0.0
 31
0.0
  0
TEXT
  5
BE93
330
BE8C
100
AcDbEntity
  8
hyomoji
  6
Continuous
100
AcDbText
 10
-66.38199999999978
 20
3.88682935783594
 30
0.0
 40
2.7
  1
図
 41
0.7
 72
     4
 11
-65.49999999999977
 21
5.14682935783594
 31
0.0
100
AcDbText
  0
TEXT
  5
BE94
330
BE8C
100
AcDbEntity
  8
hyomoji
  6
Continuous
100
AcDbText
 10
-66.38199999999978
 20
0.6847767415209991
 30
0.0
 40
2.7
  1
番
 41
0.7
 72
     4
 11
-65.49999999999977
 21
2.034776741521
 31
0.0
100
AcDbText
  0
LINE
  5
BE95
330
BE8C
100
AcDbEntity
  8
hyosen2
  6
Continuous
100
AcDbLine
 10
-16.0
 20
6.935723472010067
 30
0.0
 11
-16.0
 21
-0.0642765279899322
 31
0.0
  0
LINE
  5
BE96
330
BE8C
100
AcDbEntity
  8
hyosen1
  6
Continuous
370
    40
100
AcDbLine
 10
-68.0
 20
7.0
 30
0.0
 11
0.0
 21
7.0
 31
0.0
  0
LINE
  5
BE97
330
BE8C
100
AcDbEntity
  8
hyosen2
  6
Continuous
370
    40
100
AcDbLine
 10
-68.0
 20
25.0
 30
0.0
 11
-68.0
 21
0.0
 31
0.0
  0
LINE
  5
BE98
330
BE8C
100
AcDbEntity
  8
hyosen2
  6
Continuous
100
AcDbLine
 10
-11.0
 20
6.935723472010067
 30
0.0
 11
-11.0
 21
-0.0642765279899322
 31
0.0
  0
TEXT
  5
BE99
330
BE8C
100
AcDbEntity
  8
hyomoji
  6
Continuous
100
AcDbText
 10
-15.46193093476272
 20
4.000214592721325
 30
0.0
 40
2.5
  1
図面
 41
0.7
 72
     4
 11
-13.53693093476272
 21
5.166881259387992
 31
0.0
100
AcDbText
  0
TEXT
  5
BE9A
330
BE8C
100
AcDbEntity
  8
hyomoji
  6
Continuous
100
AcDbText
 10
-15.40359760142939
 20
0.6302759610207432
 30
0.0
 40
2.5
  1
枚数
 41
0.7
 72
     4
 11
-13.53693093476272
 21
1.880275961020743
 31
0.0
100
AcDbText
  0
LINE
  5
BE9B
330
BE8C
100
AcDbEntity
  8
waku
  6
Continuous
370
    40
100
AcDbLine
 10
-162.0000000000007
 20
24.99999999999955
 30
0.0
 11
0.0
 21
25.00000000000114
 31
0.0
  0
LINE
  5
BE9C
330
BE8C
100
AcDbEntity
  8
hyosen2
  6
Continuous
370
    40
100
AcDbLine
 10
-162.0000000000002
 20
14.0
 30
0.0
 11
-115.0000000000004
 21
14.0
 31
0.0
  0
LINE
  5
BE9D
330
BE8C
100
AcDbEntity
  8
hyosen2
  6
Continuous
100
AcDbLine
 10
-150.0000000000002
 20
14.0
 30
0.0
 11
-150.0000000000002
 21
0.0
 31
0.0
  0
TEXT
  5
BE9E
330
BE8C
100
AcDbEntity
  8
hyomoji
  6
Continuous
100
AcDbText
 10
-158.2400000000002
 20
10.25
 30
0.0
 40
3.0
  1
承認
 41
0.7
 72
     4
 11
-156.0000000000002
 21
11.75
 31
0.0
100
AcDbText
  0
LINE
  5
BE9F
330
BE8C
100
AcDbEntity
  8
hyosen2
  6
Continuous
100
AcDbLine
 10
-127.0000000000002
 20
14.0
 30
0.0
 11
-127.0000000000002
 21
0.0
 31
0.0
  0
TEXT
  5
BEA0
330
BE8C
100
AcDbEntity
  8
hyomoji
  6
Continuous
100
AcDbText
 10
-140.7400000000002
 20
10.25
 30
0.0
 40
3.0
  1
確認
 41
0.7
 72
     4
 11
-138.5000000000002
 21
11.75
 31
0.0
100
AcDbText
  0
TEXT
  5
BEA1
330
BE8C
100
AcDbEntity
  8
hyomoji
  6
Continuous
100
AcDbText
 10
-123.5436856926269
 20
10.25
 30
0.0
 40
3.0
  1
作成
 41
0.7
 72
     4
 11
-121.3036856926269
 21
11.75
 31
0.0
100
AcDbText
  0
LINE
  5
BEA2
330
BE8C
100
AcDbEntity
  8
hyosen2
  6
Continuous
100
AcDbLine
 10
-162.0000000000007
 20
9.5
 30
0.0
 11
-115.0000000000009
 21
9.5
 31
0.0
  0
LINE
  5
BEA3
330
BE8C
100
AcDbEntity
  8
hyosen1
  6
Continuous
370
    40
100
AcDbLine
 10
-68.0
 20
14.0
 30
0.0
 11
0.0
 21
14.0
 31
0.0
  0
TEXT
  5
BEA4
330
BE8C
100
AcDbEntity
  8
hyomoji
  6
Continuous
100
AcDbText
 10
-66.38200000000001
 20
10.83643685350829
 30
0.0
 40
2.7
  1
品
 41
0.7
 72
     4
 11
-65.5
 21
12.09643685350829
 31
0.0
100
AcDbText
  0
TEXT
  5
BEA5
330
BE8C
100
AcDbEntity
  8
hyomoji
  6
Continuous
100
AcDbText
 10
-66.38200000000001
 20
7.751387192220043
 30
0.0
 40
2.7
  1
番
 41
0.7
 72
     4
 11
-65.5
 21
9.101387192220045
 31
0.0
100
AcDbText
  0
LINE
  5
BEA6
330
BE8C
100
AcDbEntity
  8
hyosen2
  6
Continuous
100
AcDbLine
 10
-63.0
 20
18.0
 30
0.0
 11
0.0000000000004547
 21
18.0
 31
0.0
  0
TEXT
  5
BEA7
330
BE8C
100
AcDbEntity
  8
hyomoji
  6
Continuous
100
AcDbText
 10
-66.38200000000001
 20
20.15681154346952
 30
0.0
 40
2.7
  1
品
 41
0.7
 72
     4
 11
-65.5
 21
21.41681154346952
 31
0.0
100
AcDbText
  0
TEXT
  5
BEA8
330
BE8C
100
AcDbEntity
  8
hyomoji
  6
Continuous
100
AcDbText
 10
-66.319
 20
16.79718774654829
 30
0.0
 40
2.7
  1
名
 41
0.7
 72
     4
 11
-65.5
 21
18.1471877465483
 31
0.0
100
AcDbText
  0
LWPOLYLINE
  5
BEA9
330
BE8C
100
AcDbEntity
  8
hyomoji
  6
Continuous
370
     9
100
AcDbPolyline
 90
        8
 70
   129
 43
0.0
 10
-94.71664269381063
 20
7.51672279306581
 42
-0.6021429256477856
 10
-94.74876257508389
 20
7.577406929225617
 10
-94.3643184158509
 20
8.142763822137112
 42
-0.2483280785897051
 10
-94.3000786533039
 20
8.17676568286356
 10
-93.49406859106215
 20
8.17676568286356
 42
-0.2483286500869998
 10
-93.42982873445725
 20
8.142763683815473
 10
-93.04538640247892
 20
7.577406860064911
 42
-0.6021421921708056
 10
-93.07750633078171
 20
7.51672279306581
  0
LWPOLYLINE
  5
BEAA
330
BE8C
100
AcDbEntity
  8
hyomoji
  6
Continuous
370
     9
100
AcDbPolyline
 90
       12
 70
   129
 43
0.0
 10
-95.10066352813693
 20
7.206114336880773
 10
-95.10066352813693
 20
7.381138154179552
 42
0.4422835312456968
 10
-95.14318581001338
 20
7.419805994050648
 10
-95.48861490902391
 20
7.386933916044881
 10
-94.80150443173148
 20
8.397389580015442
 42
-0.251104977230494
 10
-94.64166799998498
 20
8.487374139048597
 10
-93.16046721299699
 20
8.487374139048597
 42
-0.2453004937928962
 10
-92.99950197713906
 20
8.407546927133807
 10
-92.30556057799777
 20
7.387044538439795
 10
-92.650906417339
 20
7.419908976284204
 42
0.4422837740584967
 10
-92.69342873062669
 20
7.381241139402163
 10
-92.69342873062669
 20
7.206114336880773
  0
LWPOLYLINE
  5
BEAB
330
BE8C
100
AcDbEntity
  8
hyomoji
  6
Continuous
370
     9
100
AcDbPolyline
 90
       18
 70
   129
 43
0.0
 10
-93.52253906807527
 20
6.507245342302439
 10
-92.81460158919413
 20
6.507245342302439
 10
-92.46227902959139
 20
5.862752078807261
 42
-0.56960330458711
 10
-92.63269060855964
 20
5.575381194890269
 10
-95.16142443937724
 20
5.575381194890269
 42
-0.569603703070891
 10
-95.33183590623185
 20
5.862752283892632
 10
-94.92603195720221
 20
6.605075352594667
 42
0.569603703070901
 10
-94.9601142505735
 20
6.66254957039473
 10
-95.48894367882553
 20
6.66254957039473
 10
-95.48894367882553
 20
6.973158026579994
 10
-92.30514857993808
 20
6.973158026579994
 10
-92.30514857993808
 20
6.66254957039473
 10
-94.16361950950046
 20
6.66254957039473
 42
0.2742066828570859
 10
-94.1977017820227
 20
6.642338759809945
 10
-94.57975501613532
 20
5.943463907013665
 42
0.569604073583639
 10
-94.54567274361307
 20
5.885989651075306
 10
-93.24842050934785
 20
5.885989651075306
 42
0.5696036141370885
 10
-93.21433821097276
 20
5.943463859721532
  0
LWPOLYLINE
  5
BEAC
330
BE8C
100
AcDbEntity
  8
hyomoji
  6
Continuous
370
     9
100
AcDbPolyline
 90
       23
 70
   129
 43
0.0
 10
-113.7268241398469
 20
6.250351779631046
 42
0.0223985860000053
 10
-113.5470175960388
 20
6.069365314279821
 42
0.0223985860000067
 10
-113.3298184279569
 20
5.895937796930184
 42
0.0223985860000024
 10
-113.0769694554942
 20
5.731459981301895
 42
0.0220669162099173
 10
-112.7948354676327
 20
5.579344997231373
 42
0.4330144820686968
 10
-112.7627586028536
 20
5.591673044677008
 10
-112.5949318145867
 20
6.003944023309486
 42
0.1957402929298021
 10
-112.5949313315429
 20
6.414003627072816
 10
-113.0029292479371
 20
7.416268145310141
 42
-0.1957419841521856
 10
-113.0029276888965
 20
7.767750618383161
 10
-112.7323557985662
 20
8.432405278217402
 42
0.6213425724569266
 10
-112.7650957515457
 20
8.459104097606996
 42
0.0223985860000949
 10
-113.0542784116799
 20
8.305810639210903
 42
0.0223985859999093
 10
-113.3100201977245
 20
8.142141767095154
 42
0.0223985859999842
 10
-113.5302700965744
 20
7.969410104177995
 42
0.0223985860000033
 10
-113.7132623648729
 20
7.789000736989009
 42
0.0223985859999945
 10
-113.8575286275093
 20
7.602360390702187
 42
0.0223985860000046
 10
-113.9619125231659
 20
7.410985776373763
 42
0.0223985860000012
 10
-114.0255773454698
 20
7.216411492448287
 42
0.0223985859999998
 10
-114.0480117738614
 20
7.020197926266973
 42
0.0223985859999993
 10
-114.029036877982
 20
6.823918455131661
 42
0.0223985859999987
 10
-113.968803570624
 20
6.629147156783574
 42
0.0223985859999964
 10
-113.8677964283099
 20
6.437445819441563
 42
0.0223985860000002
  0
LWPOLYLINE
  5
BEAD
330
BE8C
100
AcDbEntity
  8
hyomoji
  6
Continuous
370
     9
100
AcDbPolyline
 90
       23
 70
   129
 43
0.0
 10
-103.8091594853931
 20
6.606475788939405
 42
-0.0225609849999951
 10
-103.9158153508642
 20
6.41386534529056
 42
-0.0225609850000035
 10
-104.0628916479152
 20
6.226121043267085
 42
-0.022560985000006
 10
-104.2491918991691
 20
6.04477022221863
 42
-0.0225609849999973
 10
-104.4732006090657
 20
5.871288388998891
 42
-0.0225609849999909
 10
-104.733094725593
 20
5.707086928443004
 42
-0.0225466705714752
 10
-105.0265696694339
 20
5.553590591288184
 42
-0.6820149919169938
 10
-105.0583583690729
 20
5.583821782525319
 10
-104.813222817605
 20
6.185992327983512
 42
0.1957433897416816
 10
-104.8132220528773
 20
6.596057940510036
 10
-105.2092974689358
 20
7.569019615279557
 42
-0.1957432007478236
 10
-105.2092968534884
 20
7.979084861101
 10
-105.0215968014395
 20
8.440167220227749
 42
-0.4317106519725617
 10
-104.9896131621474
 20
8.452539934886317
 42
-0.0225711483270752
 10
-104.6997818408374
 20
8.297536988598267
 42
-0.0225609850000041
 10
-104.4441260177748
 20
8.132138986989048
 42
-0.022560984999992
 10
-104.2245931138832
 20
7.957627826638145
 42
-0.0225609849999975
 10
-104.0429679754031
 20
7.775423170297017
 42
-0.0225609850000032
 10
-103.9007291656501
 20
7.5870074018585
 42
-0.0225609849999971
 10
-103.7990336827058
 20
7.393913464184606
 42
-0.0225609850000056
 10
-103.7387080447365
 20
7.197712251202119
 42
-0.0225609849999966
 10
-103.7202444694171
 20
7.0
 42
-0.0225609849999982
 10
-103.7437919592537
 20
6.802385300864671
 42
-0.0225609850000013
  0
LWPOLYLINE
  5
BEAE
330
BE8C
100
AcDbEntity
  8
hyomoji
  6
Continuous
370
     9
100
AcDbPolyline
 90
       46
 70
   129
 43
0.0
 10
-110.519768731164
 20
4.931233688523661
 42
0.0067740668000082
 10
-110.3864681614013
 20
4.913172228938265
 42
0.0067740667999966
 10
-110.2520640816365
 20
4.896651608074307
 42
0.00677406679999
 10
-110.1166558268724
 20
4.881683988101485
 42
0.0067740668000013
 10
-109.9803427321119
 20
4.868280257664764
 42
0.0067740668000002
 10
-109.8432247691212
 20
4.856450350263912
 42
0.0067636405007582
 10
-109.705614869343
 20
4.846215763771624
 42
0.3216815158956166
 10
-109.6823639763015
 20
4.860849479223816
 10
-109.0305054224016
 20
6.462145869264986
 42
0.6036079430413216
 10
-109.057350599905
 20
6.494047360847616
 42
-0.0968770041122301
 10
-110.2622835208153
 20
6.467861583611238
 42
-0.4787358622778684
 10
-110.8492829567522
 20
7.526226966682088
 10
-110.2098189151504
 20
9.097085087812047
 42
0.5685357036715337
 10
-110.2342375268879
 20
9.129384786912851
 42
0.0037682570573848
 10
-110.3092103627439
 20
9.120496988302875
 42
0.003796761400007
 10
-110.3844216056329
 20
9.111059971979784
 42
0.0037967614000019
 10
-110.4592877230613
 20
9.101138888545392
 42
0.0037967614000093
 10
-110.5337902489084
 20
9.090735902993856
 42
0.0037967613999978
 10
-110.6079119905773
 20
9.079853435023323
 42
0.0037967614000032
 10
-110.6816363922337
 20
9.068494095361756
 42
0.0037967614000015
 10
-110.754946261281
 20
9.056660431060208
 42
0.0037967613999987
 10
-110.827825041885
 20
9.044355180199318
 42
0.0037967613999957
 10
-110.9002549046868
 20
9.031581208211719
 42
0.0037967613999885
 10
-110.972219930615
 20
9.018341444206271
 42
0.0037967613999968
 10
-111.0437035638358
 20
9.004638880968059
 42
0.003796761399993
 10
-111.1146886117533
 20
8.990476765988205
 42
0.0037967614000086
 10
-111.1851597920581
 20
8.975858346757149
 42
0.0037967614000003
 10
-111.255099912154
 20
8.96078693444133
 42
0.0037967613999995
 10
-111.3244930529702
 20
8.945266094912994
 42
0.0038055234898925
 10
-111.3934824936702
 20
8.929261274685359
 42
0.2417074229057139
 10
-111.4098051015228
 20
8.915234771530322
 10
-111.8650382388573
 20
7.796940065814169
 42
0.1957404060663561
 10
-111.865038329053
 20
7.386880242530423
 10
-111.4689880787043
 20
6.41396895865364
 42
-0.1957405476044069
 10
-111.4689882806954
 20
6.00390886074274
 10
-111.7862250935463
 20
5.224607739534121
 42
0.4443455524912625
 10
-111.7710237743845
 20
5.193113677398741
 42
0.0067708198256604
 10
-111.6540216434309
 20
5.1605708935449
 42
0.0067740668000073
 10
-111.5349304364506
 20
5.129370851569774
 42
0.0067740668000071
 10
-111.4138932822307
 20
5.099552967015597
 42
0.0067740668000066
 10
-111.2909986908046
 20
5.07113908084807
 42
0.0067740667999989
 10
-111.1663370824974
 20
5.044150015212153
 42
0.0067740668000009
 10
-111.0400001511566
 20
5.018605637108294
 42
0.0067740668000062
 10
-110.9120802273951
 20
4.99452466736443
 42
0.0067740668000053
 10
-110.7826715521128
 20
4.971924807987306
 42
0.0067740668000071
 10
-110.6518690029729
 20
4.950822678486701
 42
0.0067740668000022
  0
LWPOLYLINE
  5
BEAF
330
BE8C
100
AcDbEntity
  8
hyomoji
  6
Continuous
370
     9
100
AcDbPolyline
 90
       42
 70
   129
 43
0.0
 10
-107.0325217536542
 20
4.964147322978988
 42
0.0068021948000069
 10
-106.9020636932109
 20
4.986304122771798
 42
0.0068021948000014
 10
-106.7730727343519
 20
5.009960371701254
 42
0.0068021947999925
 10
-106.6456443915033
 20
5.035098622465056
 42
0.0068021948000045
 10
-106.5198729055644
 20
5.061700281589082
 42
0.0067876847517197
 10
-106.3961149632876
 20
5.0896821989827
 42
0.2416094440683337
 10
-106.3798008370786
 20
5.10370666303288
 10
-105.9412231671285
 20
6.181086424920977
 42
0.1957413290603471
 10
-105.941223786604
 20
6.601231521413183
 10
-106.3352129692118
 20
7.569070096907807
 42
-0.1957413474957244
 10
-106.3352135592583
 20
7.979131746854136
 10
-105.9993061639691
 20
8.804298600408856
 42
0.4460668776922764
 10
-106.0146375343697
 20
8.835830324484732
 42
0.0028283786038634
 10
-106.0633916340969
 20
8.849503076646669
 42
0.0028494113000101
 10
-106.1128738376581
 20
8.863040909337769
 42
0.0028494112999968
 10
-106.1627164489871
 20
8.876338300380666
 42
0.0028494113000006
 10
-106.2129124636919
 20
8.889393466838782
 42
0.0028494113000024
 10
-106.2634555141451
 20
8.902204753128671
 42
0.002849411299989
 10
-106.3143385959552
 20
8.914770503667796
 42
0.0028494113000037
 10
-106.3655559782564
 20
8.927089062872255
 42
0.0028494112999894
 10
-106.4171000198944
 20
8.939158838834828
 42
0.0028494113000082
 10
-106.4689649900042
 20
8.950978239648975
 42
0.0028494112999955
 10
-106.5211432474314
 20
8.962545800759244
 42
0.0028494113000056
 10
-106.5736290613101
 20
8.973859930259095
 42
0.0028494113000083
 10
-106.6264147904874
 20
8.984919290946663
 42
0.0028494112999919
 10
-106.6794934305705
 20
8.9957222909145
 42
0.0028494112999998
 10
-106.7328586139322
 20
9.006267592961194
 42
0.0028494113000083
 10
-106.7865033361811
 20
9.016553859884425
 42
0.0028485312981507
 10
-106.8404039239449
 20
9.026576689379226
 42
0.3543993923517316
 10
-106.8664005303705
 20
9.012272432784357
 10
-108.5584562824822
 20
4.855704245478136
 42
0.5392714590992974
 10
-108.5361428249079
 20
4.823266086778858
 42
0.0068019099602671
 10
-108.3961118072659
 20
4.828097465976725
 42
0.0068021947999971
 10
-108.2564359679456
 20
4.834545517526748
 42
0.0068021947999996
 10
-108.1172249654992
 20
4.842605470531225
 42
0.0068021948000011
 10
-107.9785813187429
 20
4.85227127574285
 42
0.0068021947999982
 10
-107.8406081832579
 20
4.863535801417583
 42
0.0068021948000014
 10
-107.7034080778608
 20
4.876390769638646
 42
0.0068021947999974
 10
-107.567080974318
 20
4.890826565286943
 42
0.0068021948000009
 10
-107.4317293914466
 20
4.906832554423772
 42
0.0068021948000053
 10
-107.2974533010122
 20
4.924396829583201
 42
0.0068021947999869
 10
-107.164350764493
 20
4.943506528156149
 42
0.006802194800004
  0
LWPOLYLINE
  5
BEB0
330
BE8C
100
AcDbEntity
  8
hyomoji
  6
Continuous
370
     9
100
AcDbPolyline
 90
       23
 70
   129
 43
0.0
 10
-109.4231429740809
 20
6.882717884956718
 42
0.1173827961225227
 10
-108.8350126422351
 20
6.998518263554387
 42
0.1913082464585806
 10
-108.7953116152546
 20
7.039902503188159
 10
-107.9519330850698
 20
9.111683775963001
 42
0.5046897278906438
 10
-107.9716881113106
 20
9.144036257163861
 42
0.0053970181929799
 10
-108.0815331347714
 20
9.152514060678413
 42
0.0031368713999882
 10
-108.1455316208044
 20
9.156812146174615
 42
0.003136871399997
 10
-108.2096530020646
 20
9.160768799436027
 42
0.0031368714000045
 10
-108.2738858168229
 20
9.164383320022579
 42
0.0031368713999919
 10
-108.3382198768724
 20
9.167655262201833
 42
0.0031368714000049
 10
-108.402646267534
 20
9.170583989209717
 42
0.0031368713999963
 10
-108.4671535270758
 20
9.173169055312655
 42
0.0031368714000025
 10
-108.5317321040561
 20
9.175410142129067
 42
0.0031368714000093
 10
-108.5963718102691
 20
9.177306803925603
 42
0.003136871400002
 10
-108.6610624575091
 20
9.178858785996453
 42
0.0031368714000044
 10
-108.7257944943337
 20
9.18006583363649
 42
0.0031368714000004
 10
-108.7905564590121
 20
9.180927755817037
 42
0.0031368713999985
 10
-108.8553388001012
 20
9.181444361509647
 42
0.0031368713999931
 10
-108.9201313293958
 20
9.181615714389863
 42
0.0031368713999985
 10
-108.98492385869
 20
9.181441623429464
 42
0.0023783812883705
 10
-109.0340426873699
 20
9.181122365766441
 42
0.3019404427550624
 10
-109.0555989232341
 20
9.166446722909313
 10
-109.767645508102
 20
7.4172944292402
 42
0.5200087835236676
  0
LWPOLYLINE
  5
BEB1
330
BE8C
100
AcDbEntity
  8
hyomoji
  6
Continuous
370
     9
100
AcDbPolyline
 90
       70
 70
   128
 43
0.0
 10
-99.76233953213478
 20
6.306771465494875
 42
0.8374115646471505
 10
-99.83752001083463
 20
6.29291573978071
 10
-99.83752001083463
 20
5.575381194890269
 10
-100.3810849683493
 20
5.575381194890269
 10
-100.3810849683493
 20
6.281787728428298
 42
0.8134131176983945
 10
-100.455548825774
 20
6.297275260672904
 10
-100.769415810897
 20
5.575381194890269
 10
-101.1576200999968
 20
5.575381194890269
 10
-100.5509443035839
 20
7.03589334323874
 42
0.534832613937013
 10
-100.5868152422815
 20
7.089636149892385
 10
-101.0680049636264
 20
7.089636149892385
 42
0.5537200791098316
 10
-101.1032359636654
 20
7.034043017295516
 10
-100.8856723246893
 20
6.639085554925031
 10
-101.2351669936095
 20
6.662385730247024
 10
-101.2869971928119
 20
6.778995892082321
 42
0.810044809672172
 10
-101.3905813946451
 20
6.757012486332769
 10
-101.3905813946451
 20
5.575381194890269
 10
-101.8953203747317
 20
5.575381194890269
 10
-101.8953203747317
 20
6.414624213681008
 42
0.8775035382925871
 10
-101.9416452787266
 20
6.420694930355466
 10
-102.0117741193614
 20
6.15771765363479
 10
-102.3225133761698
 20
6.118874928028162
 10
-101.909605046741
 20
7.507745460299247
 42
0.4860089347694501
 10
-101.9475909800196
 20
7.555548834169712
 10
-102.2447745479931
 20
7.555548834169712
 10
-102.2447745479931
 20
7.827331185574394
 10
-101.9339469658978
 20
7.827331185574394
 42
0.4143902720061034
 10
-101.8953203747317
 20
7.866380099852449
 10
-101.8953203747317
 20
8.487374139048597
 10
-101.3905813946451
 20
8.487374139048597
 10
-101.3905813946451
 20
7.866380099852449
 42
0.4174020605283751
 10
-101.3515560309561
 20
7.827331185574394
 10
-101.2543221953897
 20
7.827331185574394
 42
0.2351357873419996
 10
-101.1307401709759
 20
7.889680286716384
 10
-101.1187989158877
 20
7.905032989719074
 10
-101.1187989158877
 20
7.555548834169712
 10
-101.3250916272889
 20
7.555548834169712
 42
0.5903409348321763
 10
-101.3576144516721
 20
7.495842772770402
 10
-101.1859875423436
 20
7.184273741280094
 42
0.7474984379804729
 10
-101.1576255300783
 20
7.193389032087452
 10
-101.1576255300783
 20
7.361418564973064
 10
-100.4196995232653
 20
7.361418564973064
 42
0.4142994654112848
 10
-100.3810849683493
 20
7.400467415574667
 10
-100.3810849683493
 20
7.788727953967963
 42
0.4109416450539159
 10
-100.4196995232653
 20
7.827331185574394
 10
-100.7912990946367
 20
7.827331185574394
 42
-0.3758657869825331
 10
-101.1576255300783
 20
8.09918460794438
 10
-101.1576255300783
 20
8.487374139048597
 10
-100.6528865499915
 20
8.487374139048597
 10
-100.6528865499915
 20
8.137956133917441
 42
0.4142135623730951
 10
-100.6140440167301
 20
8.099113600655527
 10
-100.4199275016105
 20
8.099113600655527
 42
0.4142135623730951
 10
-100.3810849683493
 20
8.137956133917441
 10
-100.3810849683493
 20
8.487374139048597
 10
-99.83752001083463
 20
8.487374139048597
 10
-99.83752001083463
 20
8.137956133917441
 42
0.4142135623730951
 10
-99.79867747757294
 20
8.099113600655527
 10
-99.13863140396074
 20
8.099113600655527
 10
-99.13863140396074
 20
7.827331185574394
 10
-99.79890545591866
 20
7.827331185574394
 42
0.4142994654112848
 10
-99.83752001083463
 20
7.788282334972791
 10
-99.83752001083463
 20
7.400021796579721
 42
0.414127664552564
 10
-99.798482610895
 20
7.361418564973064
 10
-99.13863140396074
 20
7.361418564973064
 10
-99.13863140396074
 20
7.089636149892385
 10
-99.63201946690425
 20
7.089636149892385
 42
0.5442124499672577
 10
-99.66712910962996
 20
7.034687810013565
 10
-99.06095619162488
 20
5.575381194890269
 10
-99.48806833688013
 20
5.575381194890269
 10
-99.76233928528541
 20
6.306771558063019
  0
LWPOLYLINE
  5
BEB2
330
BE8C
100
AcDbEntity
  8
hyomoji
  6
Continuous
370
     9
100
AcDbPolyline
 90
       43
 70
   129
 43
0.0
 10
-97.74087392986144
 20
5.955563778585428
 42
0.4538928057970519
 10
-97.68002238129179
 20
5.900852078569414
 10
-96.92552713035276
 20
6.080493954769508
 10
-96.92552713035276
 20
5.76925577305974
 10
-98.04681412898071
 20
5.614595287471956
 10
-98.82802294777548
 20
5.575534718410835
 10
-98.82802294777548
 20
5.885989651075306
 10
-98.32330116028584
 20
5.885989651075306
 42
0.4142135623730951
 10
-98.28445862702416
 20
5.924832184336764
 10
-98.28445862702416
 20
7.051032918285727
 42
0.4109416450539176
 10
-98.32307318194011
 20
7.089636149892385
 10
-98.82802294777548
 20
7.089636149892385
 10
-98.82802294777548
 20
7.361418564973064
 10
-97.08909590725149
 20
7.361418564973064
 42
0.4890132124780574
 10
-97.01379679493015
 20
7.458208951288725
 10
-97.10002099772488
 20
7.798041312208852
 42
0.3431714260423211
 10
-97.13767055388576
 20
7.827331185574394
 10
-98.82802294777548
 20
7.827331185574394
 10
-98.82802294777548
 20
8.099113600655527
 10
-97.27627109140236
 20
8.099113600655527
 42
0.4890148091784922
 10
-97.20097207755612
 20
8.195904375080544
 10
-97.27492704572979
 20
8.487374139048597
 10
-96.7313603934831
 20
8.487374139048597
 10
-96.64027730647195
 20
8.128403185169645
 42
0.3431692821353876
 10
-96.60262782360156
 20
8.099113600655527
 10
-96.30432359000202
 20
8.099113600655527
 42
0.4142135623730951
 10
-96.22663852347887
 20
8.176798667178672
 10
-96.22663852347887
 20
8.487374139048597
 10
-95.72190018015522
 20
8.487374139048597
 10
-95.72190018015522
 20
8.105346657236623
 42
-0.3824524618302969
 10
-95.9651136815305
 20
7.827331185574394
 10
-96.51379435024182
 20
7.827331185574394
 42
0.4790978957378951
 10
-96.5519720678858
 20
7.780377008076584
 10
-96.07873821551971
 20
5.915279322624883
 42
0.3431699281256741
 10
-96.04108871056588
 20
5.885989651075306
 10
-95.72190018015522
 20
5.885989651075306
 10
-95.72190018015522
 20
5.575322530045923
 10
-96.34468932008145
 20
5.604666366295759
 42
-0.3300656182922443
 10
-96.59543910280399
 20
5.809392782018676
 10
-96.91284524296385
 20
7.060346475641381
 42
0.3431699481782171
 10
-96.95049474860343
 20
7.089636149892385
 10
-97.7022593749457
 20
7.089636149892385
 42
0.4109416450539143
 10
-97.74087392986144
 20
7.051032918285727
  0
LWPOLYLINE
  5
BEB3
330
BE8C
100
AcDbEntity
  8
hyomoji
  6
Continuous
370
     9
100
AcDbPolyline
 90
       21
 70
   128
 43
0.0
 10
-69.43627218490224
 20
8.681543250778531
 10
-69.43627218490224
 20
8.254417828748273
 10
-73.08597964968567
 20
8.254417828748273
 10
-73.08597964968567
 20
8.914499624755535
 10
-69.63040270880378
 20
8.914499624755535
 42
-0.0245951489999901
 10
-69.61133802936365
 20
8.913441706972434
 42
-0.0245951489999939
 10
-69.59245801114708
 20
8.910142001933763
 42
-0.0245951490000111
 10
-69.57394413156362
 20
8.904632411457669
 42
-0.0245951489999948
 10
-69.55597659449745
 20
8.89696623259374
 42
-0.0245951490000167
 10
-69.53872859944067
 20
8.887217584536756
 42
-0.0245951489999851
 10
-69.52236634149494
 20
8.875480644510844
 42
-0.0245951489999982
 10
-69.5070490113701
 20
8.861868883653869
 42
-0.0245951490000079
 10
-69.49292370128296
 20
8.846513920845382
 42
-0.0245951489999929
 10
-69.48012731524318
 20
8.829564185503386
 42
-0.0245951490000121
 10
-69.46878402200468
 20
8.811183516706023
 42
-0.0245951489999839
 10
-69.45900334477688
 20
8.791549634962848
 42
-0.0245951490000097
 10
-69.45087888769717
 20
8.770852295599752
 42
-0.0245951489999972
 10
-69.44449024611959
 20
8.749291633178017
 42
-0.0245951490000035
 10
-69.43989918604052
 20
8.72707599649857
 42
-0.0245951490000047
 10
-69.43714900733311
 20
8.704420229343895
 42
-0.024595148999995
 10
-69.43626772756238
 20
8.681543250778531
  0
LWPOLYLINE
  5
BEB4
330
BE8C
100
AcDbEntity
  8
hyomoji
  6
Continuous
370
     9
100
AcDbPolyline
 90
       21
 70
   128
 43
0.0
 10
-73.39658810587048
 20
6.19659804358389
 10
-69.24457124346441
 20
6.19659804358389
 42
-0.0277241649809473
 10
-69.22307761832303
 20
6.195540125801244
 42
-0.0245951490000116
 10
-69.20419696334374
 20
6.192240420762345
 42
-0.0245951489999535
 10
-69.18568372052323
 20
6.186730893962476
 42
-0.0245951490000357
 10
-69.16771618345683
 20
6.179064715098547
 42
-0.0245951489999617
 10
-69.15046755163712
 20
6.169316003365793
 42
-0.024595149000028
 10
-69.13410593045433
 20
6.157579063339653
 42
-0.0245951489999838
 10
-69.118787963567
 20
6.143967366158904
 42
-0.0245951490000106
 10
-69.10466329024257
 20
6.128612403350189
 42
-0.0245951489999761
 10
-69.09186690420233
 20
6.111662668008193
 42
-0.0245951490000292
 10
-69.08052361096451
 20
6.09328199921083
 42
-0.0245951489999958
 10
-69.07074229697378
 20
6.073648053791202
 42
-0.0245951489999834
 10
-69.06261847665632
 20
6.052950778104786
 42
-0.0245951490000133
 10
-69.05622983507919
 20
6.031390052006599
 42
-0.0245951489999937
 10
-69.05163813823719
 20
6.009174415327379
 42
-0.0245951490001447
 10
-69.04888859629295
 20
5.98651864817225
 42
-0.0188381928052038
 10
-69.04801177386161
 20
5.969001055394301
 10
-69.04801177386161
 20
5.342424884589718
 10
-73.39658810587048
 20
5.342424884589718
 10
-73.39658810587048
 20
6.196636949793855
  0
LWPOLYLINE
  5
BEB5
330
BE8C
100
AcDbEntity
  8
hyomoji
  6
Continuous
370
     9
100
AcDbPolyline
 90
       46
 70
   128
 43
0.0
 10
-79.91946565752278
 20
8.526239086362011
 42
0.0246113600000082
 10
-79.9187754066038
 20
8.503347016517409
 42
0.0246113599999873
 10
-79.91658812624701
 20
8.480676540141303
 42
0.0246113599999939
 10
-79.9129254663892
 20
8.458447149384255
 42
0.0246113600000089
 10
-79.90782308574989
 20
8.436873942734791
 42
0.0246113600000195
 10
-79.90133001506638
 20
8.41616577840341
 42
0.0246113599999893
 10
-79.89350865709798
 20
8.396523109333202
 42
0.0246113599999934
 10
-79.88443542338609
 20
8.378136009231411
 42
0.0246113599999928
 10
-79.87419818720195
 20
8.361182580664262
 42
0.0246113599999958
 10
-79.86289564678577
 20
8.345826790064165
 42
0.0246113600000034
 10
-79.85063732534604
 20
8.332217385229796
 42
0.0246113599999883
 10
-79.83754229753412
 20
8.320486112393155
 42
0.0246113600000125
 10
-79.82373600562937
 20
8.310746442692106
 42
0.0246113599999954
 10
-79.80935408011737
 20
8.303092680703684
 42
0.024611359999985
 10
-79.79453406177071
 20
8.297598945622439
 42
0.024611360000015
 10
-79.77941985899201
 20
8.294318343469058
 42
0.0246113600000176
 10
-79.76415856399717
 20
8.293282712385234
 10
-79.22064009017026
 20
8.293282712385234
 42
-0.4142135623730951
 10
-79.06526995712352
 20
8.137912579338717
 10
-79.06526995712352
 20
7.748711594328597
 42
-0.0244511737842624
 10
-79.07462846058843
 20
7.506115916052522
 42
-0.0245486219999786
 10
-79.10258234927983
 20
7.264898435690156
 42
-0.0245486220000839
 10
-79.14887373424813
 20
7.028349636796065
 42
-0.0245486219998618
 10
-79.21305560797851
 20
6.798747602111006
 42
-0.0245486220001097
 10
-79.29451031051712
 20
6.578303617945721
 42
-0.024548621999966
 10
-79.39245335004329
 20
6.36914058793809
 42
-0.0245486220000008
 10
-79.50594231755395
 20
6.173272847655425
 42
-0.0245486220000017
 10
-79.63388325448909
 20
5.992586807012457
 42
-0.0245486219999997
 10
-79.77504402475346
 20
5.82882254782271
 42
-0.0245486220000006
 10
-79.92806577644433
 20
5.683557204289854
 42
-0.0245486219999995
 10
-80.09147440358743
 20
5.558189680697523
 42
-0.0245486219999993
 10
-80.26369646520402
 20
5.453927406743559
 42
-0.0245486219999995
 10
-80.44307255733224
 20
5.371774493750763
 42
-0.0245486220000024
 10
-80.62787641591103
 20
5.312522119548702
 42
-0.0245486220000146
 10
-80.81632765203995
 20
5.276740887318737
 42
-0.0245738278590478
 10
-81.00680723741584
 20
5.264772738705232
 10
-83.25856148230673
 20
5.264772738705232
 10
-83.25856148230673
 20
5.885989651075306
 10
-81.47239523142502
 20
5.885989651075306
 42
0.4142135623730951
 10
-80.23007092989315
 20
7.128313952606958
 10
-80.23007092989315
 20
7.904857379768827
 42
0.4142135623730951
 10
-80.61849626250978
 20
8.293282712385234
 10
-83.4915179836364
 20
8.293282712385234
 10
-83.4915179836364
 20
8.914499624755535
 10
-79.91946247370856
 20
8.914499624755535
 10
-79.91946247370856
 20
8.526239086362011
  0
LWPOLYLINE
  5
BEB6
330
BE8C
100
AcDbEntity
  8
hyomoji
  6
Continuous
370
     9
100
AcDbPolyline
 90
       23
 70
   129
 43
0.0
 10
-91.60627971271242
 20
5.575381194890269
 10
-91.60627971271242
 20
6.349339719704175
 42
0.435256697587034
 10
-91.64788966816946
 20
6.388083541980449
 10
-92.14958015254069
 20
6.352248425560446
 10
-91.28410272412839
 20
7.650464568178676
 42
0.5990215383385383
 10
-91.31642166536153
 20
7.710853062262458
 10
-92.07219271537132
 20
7.710853062262458
 10
-92.07219271537132
 20
7.982635413666912
 10
-91.64531711265727
 20
7.982635413666912
 42
0.4141276645926778
 10
-91.60627971271242
 20
8.02123864527357
 10
-91.60627971271242
 20
8.526239086362011
 10
-91.06269565231263
 20
8.526239086362011
 10
-91.06269565231263
 20
8.021684264268515
 42
0.4142994653711661
 10
-91.02408109740213
 20
7.982635413666912
 10
-90.86551748421447
 20
7.982635413666912
 42
-0.5990232472207202
 10
-90.7039233199814
 20
7.680692130354145
 10
-90.88163173258704
 20
7.414132416776737
 42
0.2779035425008352
 10
-90.88608304644868
 20
7.374314542745196
 10
-90.40242475165451
 20
6.50706549938468
 10
-90.9130461012187
 20
6.545888321219763
 10
-90.98992940035373
 20
6.683748944059061
 42
0.7732509487775636
 10
-91.06269565231263
 20
6.664830072530094
 10
-91.06269565231263
 20
5.575381194890269
  0
LWPOLYLINE
  5
BEB7
330
BE8C
100
AcDbEntity
  8
hyomoji
  6
Continuous
370
     9
100
AcDbPolyline
 90
       22
 70
   129
 43
0.0
 10
-90.67443524127179
 20
5.575381194890269
 10
-90.67443524127179
 20
5.885989651075306
 10
-90.05323488473596
 20
5.885989651075306
 42
0.4142135623730951
 10
-90.01439235147428
 20
5.924832184336764
 10
-90.01439235147428
 20
7.400021796579721
 42
0.4142994653711524
 10
-90.05300690638478
 20
7.439070647181551
 10
-90.48030471737048
 20
7.439070647181551
 10
-90.48030471737048
 20
7.710853062262458
 10
-90.05342975141662
 20
7.710853062262458
 42
0.4141276645726239
 10
-90.01439235147428
 20
7.749456293868661
 10
-90.01439235147428
 20
8.526239086362011
 10
-89.47080765431133
 20
8.526239086362011
 10
-89.47080765431133
 20
7.749901912863606
 42
0.4142994653912224
 10
-89.43219309939832
 20
7.710853062262458
 10
-89.00489528841536
 20
7.710853062262458
 10
-89.00489528841536
 20
7.439070647181551
 10
-89.43177025436671
 20
7.439070647181551
 42
0.4141276645926918
 10
-89.47080765431133
 20
7.400467415574667
 10
-89.47080765431133
 20
5.924832184336764
 42
0.4142135623730951
 10
-89.43196512104988
 20
5.885989651075306
 10
-88.81076476451381
 20
5.885989651075306
 10
-88.81076476451381
 20
5.575381194890269
  0
LWPOLYLINE
  5
BEB8
330
BE8C
100
AcDbEntity
  8
hyomoji
  6
Continuous
370
     9
100
AcDbPolyline
 90
       24
 70
   129
 43
0.0
 10
-85.58827868192066
 20
5.264772738705232
 10
-88.07305081697496
 20
5.264772738705232
 10
-88.07305081697496
 20
5.885989651075306
 10
-86.17042573669506
 20
5.885989651075306
 42
0.4142135623730951
 10
-84.92810143516363
 20
7.128313952606958
 10
-84.92810143516363
 20
8.060326402084683
 10
-83.88050297316818
 20
8.060326402084683
 42
-0.0257155487687808
 10
-83.86455466869007
 20
8.059188443213088
 42
-0.024549926000034
 10
-83.84947803491854
 20
8.055833594512023
 42
-0.0245499260000084
 10
-83.83469303852871
 20
8.050278093435053
 42
-0.0245499259999808
 10
-83.82034231439524
 20
8.042575491736442
 42
-0.0245499260000123
 10
-83.80656404005618
 20
8.03279990861165
 42
-0.0245499259999841
 10
-83.79349066218059
 20
8.021045521283667
 42
-0.0245499259999858
 10
-83.78124889657465
 20
8.007425546186368
 42
-0.0245499260000007
 10
-83.76995527083863
 20
7.992071156464135
 42
-0.024549925999996
 10
-83.75971994494262
 20
7.975130272125625
 42
-0.02454992599999
 10
-83.75064098036455
 20
7.956766031809593
 42
-0.0245499260000124
 10
-83.74280625037682
 20
7.937155328233757
 42
-0.0245499259999989
 10
-83.73629025623131
 20
7.916487025256401
 42
-0.0245499259999953
 10
-83.73115603744986
 20
7.894960174941388
 42
-0.0245499260000016
 10
-83.72745389829606
 20
7.872782170945811
 42
-0.0245499260000116
 10
-83.72521886072627
 20
7.850166583526288
 42
-0.024673292203941
 10
-83.72447384820317
 20
7.82721638994576
 10
-83.72447384820317
 20
7.128577572422955
 42
-0.4142135623730951
  0
LWPOLYLINE
  5
BEB9
330
BE8C
100
AcDbEntity
  8
hyomoji
  6
Continuous
370
     9
100
AcDbPolyline
 90
       21
 70
   128
 43
0.0
 10
-85.4328397784875
 20
8.914502872245975
 42
-0.0246113600000175
 10
-85.40994815437693
 20
8.913812430298321
 42
-0.0246113599999931
 10
-85.38727748697169
 20
8.911625340970431
 42
-0.0246113599999957
 10
-85.36504809621442
 20
8.907962808465299
 42
-0.0246113600000006
 10
-85.34347457118384
 20
8.902860173120188
 42
-0.0246113599999799
 10
-85.32276640685267
 20
8.896366911408222
 42
-0.0246113600000132
 10
-85.30312418351604
 20
8.888545871821634
 42
-0.0246113600000103
 10
-85.2847370197378
 20
8.879472765461969
 42
-0.0246113599999903
 10
-85.26778320911352
 20
8.869235338248927
 42
-0.02461135999999
 10
-85.25242767321833
 20
8.857932797832518
 42
-0.0246113599999982
 10
-85.23881814103152
 20
8.845674540069012
 42
-0.0246113600000129
 10
-85.22708705922378
 20
8.832579130199292
 42
-0.024611360000001
 10
-85.21734713481761
 20
8.818773411381471
 42
-0.0246113599999927
 10
-85.20969388223944
 20
8.804390912782764
 42
-0.0246113599999869
 10
-85.2041998924526
 20
8.789571021788788
 42
-0.024611360000012
 10
-85.20091929029922
 20
8.774457073715211
 42
-0.0246113600013111
 10
-85.19988391392121
 20
8.759195396662107
 10
-85.19988391392121
 20
8.254417828748273
 10
-88.07305081697496
 20
8.254417828748273
 10
-88.07305081697496
 20
8.914499624755535
 10
-85.4328397784875
 20
8.914499624755535
  0
LWPOLYLINE
  5
BEBA
330
BE8C
100
AcDbEntity
  8
hyomoji
  6
Continuous
370
     9
100
AcDbPolyline
 90
        4
 70
   129
 43
0.0
 10
-88.07305081697496
 20
7.128462254672513
 10
-88.07305081697496
 20
7.788505144470263
 10
-85.19988391392121
 20
7.788505144470263
 10
-85.19988391392121
 20
7.128462254672513
  0
LWPOLYLINE
  5
BEBB
330
BE8C
100
AcDbEntity
  8
hyomoji
  6
Continuous
370
     9
100
AcDbPolyline
 90
       44
 70
   128
 43
0.0
 10
-74.37174773276343
 20
5.963681151450373
 42
0.2129151059966407
 10
-74.40063715169867
 20
5.950794998102537
 42
-0.220358021742929
 10
-75.88149459788451
 20
5.264772738705232
 10
-78.28874849827935
 20
5.264772738705232
 10
-78.28874849827935
 20
5.885989651075306
 10
-76.50273061313964
 20
5.885989651075306
 42
0.0137554371945167
 10
-76.43015365812153
 20
5.888354842969647
 42
0.0137524419998822
 10
-76.35779511275882
 20
5.895394574551119
 42
0.0137524420004598
 10
-76.28587593375232
 20
5.907103879070064
 42
0.013752441999331
 10
-76.21461262047751
 20
5.923447225158724
 42
0.0137524420003075
 10
-76.1442203987633
 20
5.944375263699384
 42
0.0137524420000012
 10
-76.07491258416757
 20
5.969824636787052
 42
0.0137524419999966
 10
-76.00689930842668
 20
5.999718359795224
 42
0.0137524419999995
 10
-75.94038560917443
 20
6.033966076077376
 42
0.0137524420000046
 10
-75.87557334023177
 20
6.072464056966282
 42
0.0137524419999986
 10
-75.81265798779054
 20
6.115095965890532
 42
0.0137524419999979
 10
-75.75182994394026
 20
6.161732858375899
 42
0.0137524419999975
 10
-75.6932732331411
 20
6.212233564100188
 42
0.013752441999999
 10
-75.63716551222615
 20
6.266445323658217
 42
0.0137524419999975
 10
-75.58367552334766
 20
6.324204234294484
 42
0.0137524420000003
 10
-75.53296564103016
 20
6.385335568285654
 42
0.0138047286378086
 10
-75.48501449973173
 20
6.449903806133306
 42
0.4326750878113178
 10
-75.5081279300357
 20
6.560768619332975
 10
-76.01857653173261
 20
6.872710173877521
 42
0.1380038353994479
 10
-76.09959442946615
 20
6.895505880695736
 10
-77.04629557065437
 20
6.895505880695736
 10
-77.04629557065437
 20
7.462633158448625
 42
0.483124814362098
 10
-77.0937344731376
 20
7.500715229543402
 10
-77.39202878477204
 20
7.401283899550207
 42
-0.080611490271625
 10
-77.63769029675723
 20
7.361418564973064
 10
-78.44405304475367
 20
7.361418564973064
 10
-78.44405304475367
 20
7.982635413666912
 10
-78.0728225926191
 20
7.982635413666912
 42
0.2403459008079929
 10
-77.94703331635242
 20
8.046808308710978
 10
-77.36448237994363
 20
8.850326729711241
 42
-0.2403459008079905
 10
-77.23869310367695
 20
8.914499624755535
 10
-74.33052273826319
 20
8.914499624755535
 42
-0.4142866644357847
 10
-73.94017216627048
 20
8.528231708575958
 10
-73.94017216627048
 20
7.20040165387104
 42
-0.073920925025852
 10
-74.02577777181159
 20
6.635956043364558
 42
0.5098120014094599
 10
-73.98913988271079
 20
6.584897488186925
 10
-73.86252021141467
 20
6.584897488186925
 10
-73.86252021141467
 20
5.963641733283566
 10
-74.37174773276343
 20
5.963641733283566
  0
LWPOLYLINE
  5
BEBC
330
BE8C
100
AcDbEntity
  8
hyomoji
  6
Continuous
370
     9
100
AcDbPolyline
 90
        8
 70
   129
 43
0.0
 10
-79.64764688328364
 20
8.487374139048597
 42
-0.4142135623730951
 10
-79.72533194980655
 20
8.565059205571969
 10
-79.72533194980655
 20
9.069770868532941
 42
-0.4142135623730951
 10
-79.64764688328364
 20
9.147455935055859
 10
-79.14295502364712
 20
9.147455935055859
 42
-0.4142135623730951
 10
-79.06526995712352
 20
9.069770868532941
 10
-79.06526995712352
 20
8.565059205571969
 42
-0.4142135623730951
 10
-79.14295502364712
 20
8.487374139048597
  0
LWPOLYLINE
  5
BEBD
330
BE8C
100
AcDbEntity
  8
hyomoji
  6
Continuous
370
     9
100
AcDbPolyline
 90
        8
 70
   129
 43
0.0
 10
-78.75462838927091
 20
8.487374139048597
 42
-0.4142135623730951
 10
-78.83231345579407
 20
8.565059205571969
 10
-78.83231345579407
 20
9.069770868532941
 42
-0.4142135623730951
 10
-78.75462838927091
 20
9.147455935055859
 10
-78.24993652963439
 20
9.147455935055859
 42
-0.4142135623730951
 10
-78.17225146311102
 20
9.069770868532941
 10
-78.17225146311102
 20
8.565059205571969
 42
-0.4142135623730951
 10
-78.24993652963439
 20
8.487374139048597
  0
LWPOLYLINE
  5
BEBE
330
BE8C
100
AcDbEntity
  8
hyomoji
  6
Continuous
370
     9
100
AcDbPolyline
 90
       26
 70
   129
 43
0.0
 10
-75.25867901228753
 20
7.136315150465861
 10
-75.84386225628009
 20
7.493927168456366
 42
0.1380035768931157
 10
-75.92488001949027
 20
7.51672279306581
 10
-76.91275368502374
 20
7.51672279306581
 42
-0.5877959702502288
 10
-76.9454333722108
 20
7.576180874061492
 10
-76.47548726699483
 20
8.22438360138949
 42
-0.2488102192010769
 10
-76.3472702891056
 20
8.293282712385234
 10
-75.33876402902683
 20
8.293282712385234
 42
-0.4141055155693935
 10
-75.1826257306584
 20
8.138870166012111
 10
-75.1826257306584
 20
7.439070647185872
 42
-0.0027675332005429
 10
-75.18270659953964
 20
7.421878432550101
 42
-0.0027675332004465
 10
-75.18294920618155
 20
7.404688319233173
 42
-0.0027675331990674
 10
-75.18335355058525
 20
7.387502408559157
 42
-0.0027675332013063
 10
-75.1839196327503
 20
7.370322801823249
 42
-0.0027675331985318
 10
-75.1846474526767
 20
7.353151600374303
 42
-0.0027675332011082
 10
-75.18553637360196
 20
7.335990969172598
 42
-0.0027675332007225
 10
-75.18658703228926
 20
7.318842945877122
 42
-0.0027675331990705
 10
-75.18779879197359
 20
7.301709695490217
 42
-0.0027675331994759
 10
-75.18917228942019
 20
7.284593191963267
 42
-0.0027675332004882
 10
-75.19070625110271
 20
7.267495727639243
 42
-0.0027675331980648
 10
-75.19240067701957
 20
7.250419212827409
 42
-0.0027675332032427
 10
-75.19425620393872
 20
7.233365876150855
 42
-0.0027675331997779
 10
-75.19627219509129
 20
7.216337691627813
 42
-0.0027675331988507
 10
-75.19844801371573
 20
7.199336824236979
 42
-0.0027675331998305
 10
-75.20078365981408
 20
7.182365311606417
 42
-0.0029245593357009
 10
-75.20342566968747
 20
7.164465011015636
 42
-0.498504514683721
  0
LINE
  5
BEBF
330
BE8C
100
AcDbEntity
  8
hyosen2
  6
Continuous
370
    40
100
AcDbLine
 10
-99.00000000000023
 20
25.0
 30
0.0
 11
-99.00000000000023
 21
14.0
 31
0.0
  0
LINE
  5
BEC0
330
BE8C
100
AcDbEntity
  8
AM_2
100
AcDbLine
 10
-115.0000000000004
 20
20.5
 30
0.0
 11
-68.0
 21
20.49999999999977
 31
0.0
  0
TEXT
  5
BEC1
330
BE8C
100
AcDbEntity
  8
hyomoji
  6
Continuous
100
AcDbText
 10
-108.80846541418
 20
21.23246297775404
 30
0.0
 40
3.0
  1
尺度
 41
0.7
 72
     4
 11
-106.5684654141801
 21
22.73246297775404
 31
0.0
100
AcDbText
  0
TEXT
  5
BEC2
330
BE8C
100
AcDbEntity
  8
hyomoji
  6
Continuous
100
AcDbText
 10
-79.51999999999999
 20
21.25
 30
0.0
 40
3.0
  1
投影法
 41
0.7
 72
     4
 11
-76.0
 21
22.75
 31
0.0
100
AcDbText
  0
LINE
  5
BEC3
330
BE8C
100
AcDbEntity
  8
hyosen2
  6
Continuous
370
    40
100
AcDbLine
 10
-84.0
 20
25.0
 30
0.0
 11
-84.0
 21
14.0
 31
0.0
  0
TEXT
  5
BEC4
330
BE8C
100
AcDbEntity
  8
hyomoji
  6
Continuous
100
AcDbText
 10
-95.14000000000022
 20
21.15
 30
0.0
 40
3.0
  1
サイズ
 41
0.7
 72
     4
 11
-91.50000000000023
 21
22.75
 31
0.0
100
AcDbText
  0
CIRCLE
  5
BEC5
330
BE8C
100
AcDbEntity
  8
AM_0
370
    25
100
AcDbCircle
 10
-79.26619211742923
 20
17.25
 30
0.0
 40
1.25
  0
CIRCLE
  5
BEC6
330
BE8C
100
AcDbEntity
  8
AM_0
370
    25
100
AcDbCircle
 10
-79.26619211742923
 20
17.25
 30
0.0
 40
1.9
  0
LINE
  5
BEC7
330
BE8C
100
AcDbEntity
  8
AM_0
370
    25
100
AcDbLine
 10
-75.56619211742918
 20
18.5
 30
0.0
 11
-75.56619211742918
 21
16.0
 31
0.0
  0
LINE
  5
BEC8
330
BE8C
100
AcDbEntity
  8
AM_0
370
    25
100
AcDbLine
 10
-75.56619211742918
 20
16.0
 30
0.0
 11
-71.56619211742918
 21
15.34999999999991
 31
0.0
  0
LINE
  5
BEC9
330
BE8C
100
AcDbEntity
  8
AM_0
370
    25
100
AcDbLine
 10
-71.56619211742918
 20
15.34999999999991
 30
0.0
 11
-71.56619211742918
 21
19.14999999999986
 31
0.0
  0
LINE
  5
BECA
330
BE8C
100
AcDbEntity
  8
AM_0
370
    25
100
AcDbLine
 10
-71.56619211742918
 20
19.14999999999986
 30
0.0
 11
-75.56619211742918
 21
18.5
 31
0.0
  0
LINE
  5
BECB
330
BE8C
100
AcDbEntity
  8
AM_2
370
     9
100
AcDbLine
 10
-73.76970082765684
 20
17.25
 30
0.0
 11
-73.03098608735286
 21
17.25
 31
0.0
  0
LINE
  5
BECC
330
BE8C
100
AcDbEntity
  8
AM_2
370
     9
100
AcDbLine
 10
-70.28729095201743
 20
17.25
 30
0.0
 11
-72.34381719255157
 21
17.25
 31
0.0
  0
LINE
  5
BECD
330
BE8C
100
AcDbEntity
  8
AM_2
370
     9
100
AcDbLine
 10
-79.6355494875811
 20
17.25
 30
0.0
 11
-78.89683474727712
 21
17.25
 31
0.0
  0
LINE
  5
BECE
330
BE8C
100
AcDbEntity
  8
AM_2
370
     9
100
AcDbLine
 10
-74.45686972245835
 20
17.25
 30
0.0
 11
-78.20966585247584
 21
17.25
 31
0.0
  0
LINE
  5
BECF
330
BE8C
100
AcDbEntity
  8
AM_2
370
     9
100
AcDbLine
 10
-79.26619211742923
 20
16.8806426298479
 30
0.0
 11
-79.26619211742923
 21
17.6193573701521
 31
0.0
  0
LINE
  5
BED0
330
BE8C
100
AcDbEntity
  8
AM_2
370
     9
100
AcDbLine
 10
-79.26619211742923
 20
20.10439489183659
 30
0.0
 11
-79.26619211742923
 21
18.30652626495339
 31
0.0
  0
LINE
  5
BED1
330
BE8C
100
AcDbEntity
  8
AM_2
370
     9
100
AcDbLine
 10
-79.26619211743013
 20
14.39560510816341
 30
0.0
 11
-79.26619211742945
 21
16.19347373504638
 31
0.0
  0
LINE
  5
BED2
330
BE8C
100
AcDbEntity
  8
AM_2
370
     9
100
AcDbLine
 10
-82.12058700926581
 20
17.25000000000045
 30
0.0
 11
-80.32271838238262
 21
17.25
 31
0.0
  0
LINE
  5
BED3
330
BE8C
100
AcDbEntity
  8
AM_2
100
AcDbLine
 10
-162.0000000000009
 20
19.49999999999977
 30
0.0
 11
-115.0000000000011
 21
19.49999999999977
 31
0.0
  0
TEXT
  5
BED4
330
BE8C
100
AcDbEntity
  8
hyomoji
  6
Continuous
100
AcDbText
 10
-158.8197690813725
 20
20.74999999999954
 30
0.0
 40
3.0
  1
作成日
 41
0.7
 72
     4
 11
-155.4597690813725
 21
22.24999999999955
 31
0.0
100
AcDbText
  0
LINE
  5
BED5
330
BE8C
100
AcDbEntity
  8
hyosen2
  6
Continuous
100
AcDbLine
 10
-150.0000000000002
 20
24.99999999999977
 30
0.0
 11
-150.0000000000002
 21
14.0
 31
0.0
  0
TEXT
  5
BED6
330
BE8C
100
AcDbEntity
  8
hyomoji
  6
Continuous
100
AcDbText
 10
-158.8197690813725
 20
15.25
 30
0.0
 40
3.0
  1
更新日
 41
0.7
 72
     4
 11
-155.4597690813725
 21
16.75
 31
0.0
100
AcDbText
  0
LWPOLYLINE
  5
BED7
330
BE8C
100
AcDbEntity
  8
hyosen2
100
AcDbPolyline
 90
        3
 70
     1
 43
0.0
 10
-144.104867507461
 20
19.44306130048881
 10
-146.8328475293819
 20
14.7180613004889
 10
-141.37688748554
 20
14.7180613004889
  0
ATTDEF
  5
BED8
330
BE8C
100
AcDbEntity
  8
hyomoji
100
AcDbText
 10
-39.49999999999988
 20
1.5
 30
0.0
 40
4.0
  1

 41
0.7
 72
     1
 11
-39.49999999999988
 21
3.5
 31
0.0
100
AcDbAttributeDefinition
  3
図番
  2
XXX000000-00-00
 70
     0
 74
     2
1001
AcDbAttr
1070
     0
1070
     1
  0
ATTDEF
  5
BED9
330
BE8C
100
AcDbEntity
  8
hyomoji
100
AcDbText
 10
-31.49999999999977
 20
19.50000000000057
 30
0.0
 40
4.0
  1

 41
0.7
 72
     1
 11
-31.49999999999977
 21
21.50000000000057
 31
0.0
100
AcDbAttributeDefinition
  3
品名
  2
品名
 70
     0
 74
     2
1001
AcDbAttr
1070
     0
1070
     1
  0
ATTDEF
  5
BEDA
330
BE8C
100
AcDbEntity
  8
hyomoji
100
AcDbText
 10
-121.0000000000003
 20
3.0
 30
0.0
 40
3.5
  1

 41
0.7
 72
     1
 11
-121.0000000000003
 21
4.75
 31
0.0
100
AcDbAttributeDefinition
  3
作成
  2
作成
 70
     0
 74
     2
1001
AcDbAttr
1070
     0
1070
     1
  0
ATTDEF
  5
BEDB
330
BE8C
100
AcDbEntity
  8
hyomoji
100
AcDbText
 10
-133.0000000000001
 20
3.0
 30
0.0
 40
3.5
  1

 41
0.7
 72
     1
 11
-133.0000000000001
 21
4.75
 31
0.0
100
AcDbAttributeDefinition
  3
確認1
  2
確認1
 70
     0
 74
     2
1001
AcDbAttr
1070
     0
1070
     1
  0
ATTDEF
  5
BEDC
330
BE8C
100
AcDbEntity
  8
hyomoji
100
AcDbText
 10
-144.0000000000007
 20
3.0
 30
0.0
 40
3.5
  1

 41
0.7
 72
     1
 11
-144.0000000000007
 21
4.75
 31
0.0
100
AcDbAttributeDefinition
  3
確認2
  2
確認2
 70
     0
 74
     2
1001
AcDbAttr
1070
     0
1070
     1
  0
ATTDEF
  5
BEDD
330
BE8C
100
AcDbEntity
  8
hyomoji
100
AcDbText
 10
-156.0000000000004
 20
3.0
 30
0.0
 40
3.5
  1

 41
0.7
 72
     1
 11
-156.0000000000004
 21
4.75
 31
0.0
100
AcDbAttributeDefinition
  3
承認
  2
承認
 70
     0
 74
     2
1001
AcDbAttr
1070
     0
1070
     1
  0
ATTDEF
  5
BEDE
330
BE8C
100
AcDbEntity
  8
hyomoji
100
AcDbText
 10
-107.0000000000003
 20
15.25
 30
0.0
 40
4.0
  1

 41
0.7
 72
     1
 11
-107.0000000000003
 21
17.25
 31
0.0
100
AcDbAttributeDefinition
  3
尺度
  2
1:1
 70
     0
 74
     2
1001
AcDbAttr
1070
     0
1070
     1
  0
ATTDEF
  5
BEDF
330
BE8C
100
AcDbEntity
  8
hyomoji
100
AcDbText
 10
-127.0214335782293
 20
20.75000000000001
 30
0.0
 40
3.0
  1

 41
0.7
 72
     1
 11
-127.0214335782293
 21
22.25000000000001
 31
0.0
100
AcDbAttributeDefinition
  3
作成日
  2
2011.01.01
 70
     0
 74
     2
1001
AcDbAttr
1070
     0
1070
     1
  0
ATTDEF
  5
BEE0
330
BE8C
100
AcDbEntity
  8
hyomoji
100
AcDbText
 10
-144.2211531119989
 20
15.20883785860056
 30
0.0
 40
2.0
  1

 41
0.7
 72
     1
 11
-144.2211531119989
 21
16.20883785860056
 31
0.0
100
AcDbAttributeDefinition
  3
△
  2
1
 70
     0
 74
     2
1001
AcDbAttr
1070
     0
1070
     1
  0
ATTDEF
  5
BEE1
330
BE8C
100
AcDbEntity
  8
hyomoji
100
AcDbText
 10
-127.0214335782293
 20
15.24999999999988
 30
0.0
 40
3.0
  1

 41
0.7
 72
     1
 11
-127.0214335782293
 21
16.74999999999988
 31
0.0
100
AcDbAttributeDefinition
  3
更新日
  2
2011.01.10
 70
     0
 74
     2
1001
AcDbAttr
1070
     0
1070
     1
  0
ATTDEF
  5
BEE2
330
BE8C
100
AcDbEntity
  8
hyomoji
100
AcDbText
 10
-5.5
 20
1.5
 30
0.0
 40
4.0
  1

 41
0.7
 72
     1
 11
-5.5
 21
3.5
 31
0.0
100
AcDbAttributeDefinition
  3
図面枚数
  2
10
 70
     0
 74
     2
1001
AcDbAttr
1070
     0
1070
     1
  0
ATTDEF
  5
BEE3
330
BE8C
100
AcDbEntity
  8
hyomoji
100
AcDbText
 10
-31.49999999999989
 20
8.5
 30
0.0
 40
4.0
  1

 41
0.7
 72
     1
 11
-31.49999999999989
 21
10.5
 31
0.0
100
AcDbAttributeDefinition
  3
品番
  2
品番
 70
     0
 74
     2
1001
AcDbAttr
1070
     0
1070
     1
  0
ATTDEF
  5
BEE4
330
BE8C
100
AcDbEntity
  8
hyomoji
100
AcDbText
 10
-31.49999999999989
 20
14.5
 30
0.0
 40
3.0
  1

 41
0.7
 72
     1
 11
-31.49999999999989
 21
16.0
 31
0.0
100
AcDbAttributeDefinition
  3
現場名／部品名
  2
現場名／部品名
 70
     0
 74
     2
1001
AcDbAttr
1070
     0
1070
     1
  0
ENDBLK
  5
BEE8
330
BE8C
100
AcDbEntity
  8
0
100
AcDbBlockEnd
  0
BLOCK
  5
BF8A
330
BF89
100
AcDbEntity
  8
0
100
AcDbBlockBegin
  2
GENDOT
 70
     0
 10
0.0
 20
0.0
 30
0.0
  3
GENDOT
  1

  0
LINE
  5
BF8B
330
BF89
100
AcDbEntity
  8
0
100
AcDbLine
 10
0.0
 20
0.0
 30
0.0
 11
-1.0
 21
0.0
 31
0.0
  0
LWPOLYLINE
  5
BF8C
330
BF89
100
AcDbEntity
  8
0
100
AcDbPolyline
 90
        2
 70
     1
 43
0.25
 10
-0.125
 20
0.0
 42
1.0
 10
0.125
 20
0.0
 42
1.0
  0
ENDBLK
  5
BF8D
330
BF89
100
AcDbEntity
  8
0
100
AcDbBlockEnd
  0
BLOCK
  5
CADB
330
CADA
100
AcDbEntity
  8
0
100
AcDbBlockBegin
  2
*U223
 70
     1
 10
0.0
 20
0.0
 30
0.0
  3
*U223
  1

  0
TEXT
  5
CADC
330
CADA
100
AcDbEntity
  8
AM_6
100
AcDbText
 10
-624.1715000271796
 20
382.4
 30
0.0
 40
3.2
  1
備考
 41
0.61
100
AcDbText
  0
ENDBLK
  5
CADD
330
CADA
100
AcDbEntity
  8
0
100
AcDbBlockEnd
  0
BLOCK
  5
CADF
330
CADE
100
AcDbEntity
  8
0
100
AcDbBlockBegin
  2
*U224
 70
     1
 10
0.0
 20
0.0
 30
0.0
  3
*U224
  1

  0
TEXT
  5
CAE0
330
CADE
100
AcDbEntity
  8
AM_6
100
AcDbText
 10
-625.7715000510216
 20
438.3999999999998
 30
0.0
 40
3.2
  1
仕上げ
 41
0.61
100
AcDbText
  0
ENDBLK
  5
CAE1
330
CADE
100
AcDbEntity
  8
0
100
AcDbBlockEnd
  0
BLOCK
  5
CAE3
330
CAE2
100
AcDbEntity
  8
0
100
AcDbBlockBegin
  2
*U225
 70
     1
 10
0.0
 20
0.0
 30
0.0
  3
*U225
  1

  0
TEXT
  5
CAE4
330
CAE2
100
AcDbEntity
  8
AM_6
100
AcDbText
 10
-625.7715000510216
 20
446.3999999999998
 30
0.0
 40
3.2
  1
材　質
 41
0.61
100
AcDbText
  0
ENDBLK
  5
CAE5
330
CAE2
100
AcDbEntity
  8
0
100
AcDbBlockEnd
  0
BLOCK
  5
CAE7
330
CAE6
100
AcDbEntity
  8
0
100
AcDbBlockBegin
  2
*U226
 70
     1
 10
0.0
 20
0.0
 30
0.0
  3
*U226
  1

  0
TEXT
  5
CAE8
330
CAE6
100
AcDbEntity
  8
AM_6
100
AcDbText
 10
-625.7715000510216
 20
454.3999999999998
 30
0.0
 40
3.2
  1
品　番
 41
0.61
100
AcDbText
  0
ENDBLK
  5
CAE9
330
CAE6
100
AcDbEntity
  8
0
100
AcDbBlockEnd
  0
BLOCK
  5
CAEB
330
CAEA
100
AcDbEntity
  8
0
100
AcDbBlockBegin
  2
*U227
 70
     1
 10
0.0
 20
0.0
 30
0.0
  3
*U227
  1

  0
TEXT
  5
CAEC
330
CAEA
100
AcDbEntity
  8
AM_6
100
AcDbText
 10
-625.7715000510216
 20
462.3999999999998
 30
0.0
 40
3.2
  1
品　名
 41
0.61
100
AcDbText
  0
ENDBLK
  5
CAED
330
CAEA
100
AcDbEntity
  8
0
100
AcDbBlockEnd
  0
BLOCK
  5
D6F4
330
D6EA
100
AcDbEntity
  8
0
100
AcDbBlockBegin
  2
*D289
 70
     1
 10
0.0
 20
0.0
 30
0.0
  3
*D289
  1

  0
LINE
  5
DE41
330
D6EA
100
AcDbEntity
  8
AM_5
100
AcDbLine
 10
2545.870707401479
 20
1761.782561422033
 30
0.0
 11
2545.870707401479
 21
1749.782561422034
 31
0.0
  0
LINE
  5
DE42
330
D6EA
100
AcDbEntity
  8
AM_5
100
AcDbLine
 10
2515.870707043851
 20
1802.355824590368
 30
0.0
 11
2515.870707043851
 21
1749.782561422034
 31
0.0
  0
LINE
  5
DE43
330
D6EA
100
AcDbEntity
  8
AM_5
100
AcDbLine
 10
2544.870707401479
 20
1750.782561422034
 30
0.0
 11
2516.87070704385
 21
1750.782561422034
 31
0.0
  0
INSERT
  5
DE44
330
D6EA
100
AcDbEntity
  8
AM_5
100
AcDbBlockReference
  2
_Dot
 10
2545.870707401479
 20
1750.782561422034
 30
0.0
 50
359.9999999999999
  0
INSERT
  5
DE45
330
D6EA
100
AcDbEntity
  8
AM_5
100
AcDbBlockReference
  2
_Dot
 10
2515.870707043851
 20
1750.782561422034
 30
0.0
 50
179.9999999999999
  0
MTEXT
  5
DE46
330
D6EA
100
AcDbEntity
  8
AM_5
 62
     2
100
AcDbMText
 10
2530.870707222665
 20
1753.882561422033
 30
0.0
 40
3.200000000000001
 41
0.0
 71
     5
 72
     1
  1
30
 73
     1
 44
1.0
  0
POINT
  5
DE47
330
D6EA
100
AcDbEntity
  8
Defpoints
 62
     0
100
AcDbPoint
 10
2545.870707401479
 20
1762.782561422034
 30
0.0
  0
POINT
  5
DE48
330
D6EA
100
AcDbEntity
  8
Defpoints
 62
     0
100
AcDbPoint
 10
2515.870707043851
 20
1803.355824590369
 30
0.0
  0
POINT
  5
DE49
330
D6EA
100
AcDbEntity
  8
Defpoints
 62
     0
100
AcDbPoint
 10
2515.870707043851
 20
1750.782561422034
 30
0.0
  0
ENDBLK
  5
D6F5
330
D6EA
100
AcDbEntity
  8
0
100
AcDbBlockEnd
  0
BLOCK
  5
D70A
330
D700
100
AcDbEntity
  8
0
100
AcDbBlockBegin
  2
*D290
 70
     1
 10
0.0
 20
0.0
 30
0.0
  3
*D290
  1

  0
LINE
  5
DE4A
330
D700
100
AcDbEntity
  8
AM_5
100
AcDbLine
 10
2515.870707043851
 20
1802.355824590368
 30
0.0
 11
2515.870707043851
 21
1749.782561422032
 31
0.0
  0
LINE
  5
DE4B
330
D700
100
AcDbEntity
  8
AM_5
100
AcDbLine
 10
2505.870707401478
 20
1773.65771973197
 30
0.0
 11
2505.870707401478
 21
1749.782561422032
 31
0.0
  0
LINE
  5
DE4C
330
D700
100
AcDbEntity
  8
AM_5
100
AcDbLine
 10
2514.870707043851
 20
1750.782561422032
 30
0.0
 11
2506.870707401478
 21
1750.782561422032
 31
0.0
  0
INSERT
  5
DE4D
330
D700
100
AcDbEntity
  8
AM_5
100
AcDbBlockReference
  2
_Dot
 10
2515.870707043851
 20
1750.782561422032
 30
0.0
 50
359.9999999999999
  0
INSERT
  5
DE4E
330
D700
100
AcDbEntity
  8
AM_5
100
AcDbBlockReference
  2
_Dot
 10
2505.870707401478
 20
1750.782561422032
 30
0.0
 50
179.9999999999999
  0
MTEXT
  5
DE4F
330
D700
100
AcDbEntity
  8
AM_5
 62
     2
100
AcDbMText
 10
2510.870707222665
 20
1753.882561422032
 30
0.0
 40
3.200000000000001
 41
0.0
 71
     5
 72
     1
  1
10
 73
     1
 44
1.0
  0
POINT
  5
DE50
330
D700
100
AcDbEntity
  8
Defpoints
 62
     0
100
AcDbPoint
 10
2515.870707043851
 20
1803.355824590369
 30
0.0
  0
POINT
  5
DE51
330
D700
100
AcDbEntity
  8
Defpoints
 62
     0
100
AcDbPoint
 10
2505.870707401478
 20
1774.65771973197
 30
0.0
  0
POINT
  5
DE52
330
D700
100
AcDbEntity
  8
Defpoints
 62
     0
100
AcDbPoint
 10
2505.870707401478
 20
1750.782561422032
 30
0.0
  0
ENDBLK
  5
D70B
330
D700
100
AcDbEntity
  8
0
100
AcDbBlockEnd
  0
BLOCK
  5
D720
330
D716
100
AcDbEntity
  8
0
100
AcDbBlockBegin
  2
*D291
 70
     1
 10
0.0
 20
0.0
 30
0.0
  3
*D291
  1

  0
LINE
  5
DCD7
330
D716
100
AcDbEntity
  8
AM_5
100
AcDbLine
 10
2590.870707401478
 20
1771.78255188529
 30
0.0
 11
2590.870707401478
 21
1739.782561422032
 31
0.0
  0
LINE
  5
DCD8
330
D716
100
AcDbEntity
  8
AM_5
100
AcDbLine
 10
2500.870709308828
 20
1771.78255188529
 30
0.0
 11
2500.870709308828
 21
1739.782561422032
 31
0.0
  0
LINE
  5
DCD9
330
D716
100
AcDbEntity
  8
AM_5
100
AcDbLine
 10
2589.870707401477
 20
1740.782561422031
 30
0.0
 11
2501.870709308827
 21
1740.782561422031
 31
0.0
  0
INSERT
  5
DCDA
330
D716
100
AcDbEntity
  8
AM_5
100
AcDbBlockReference
  2
_Dot
 10
2590.870707401478
 20
1740.782561422031
 30
0.0
  0
INSERT
  5
DCDB
330
D716
100
AcDbEntity
  8
AM_5
100
AcDbBlockReference
  2
_Dot
 10
2500.870709308828
 20
1740.782561422031
 30
0.0
 50
180.0
  0
MTEXT
  5
DCDC
330
D716
100
AcDbEntity
  8
AM_5
 62
     2
100
AcDbMText
 10
2545.870708355153
 20
1743.882561422031
 30
0.0
 40
3.200000000000001
 41
0.0
 71
     5
 72
     1
  1
90
 73
     1
 44
1.0
  0
POINT
  5
DCDD
330
D716
100
AcDbEntity
  8
Defpoints
 62
     0
100
AcDbPoint
 10
2590.870707401478
 20
1772.782551885289
 30
0.0
  0
POINT
  5
DCDE
330
D716
100
AcDbEntity
  8
Defpoints
 62
     0
100
AcDbPoint
 10
2500.870709308828
 20
1772.782551885289
 30
0.0
  0
POINT
  5
DCDF
330
D716
100
AcDbEntity
  8
Defpoints
 62
     0
100
AcDbPoint
 10
2500.870709308828
 20
1740.782561422031
 30
0.0
  0
ENDBLK
  5
D721
330
D716
100
AcDbEntity
  8
0
100
AcDbBlockEnd
  0
BLOCK
  5
D738
330
D72C
100
AcDbEntity
  8
0
100
AcDbBlockBegin
  2
*D292
 70
     1
 10
0.0
 20
0.0
 30
0.0
  3
*D292
  1

  0
LINE
  5
DE53
330
D72C
100
AcDbEntity
  8
AM_5
100
AcDbLine
 10
2505.870707401478
 20
1773.65771973197
 30
0.0
 11
2505.870707401478
 21
1749.78256142203
 31
0.0
  0
LINE
  5
DE54
330
D72C
100
AcDbEntity
  8
AM_5
100
AcDbLine
 10
2500.870707401479
 20
1771.78255188529
 30
0.0
 11
2500.870707401479
 21
1749.78256142203
 31
0.0
  0
LINE
  5
DE55
330
D72C
100
AcDbEntity
  8
AM_5
100
AcDbLine
 10
2506.870707401478
 20
1750.78256142203
 30
0.0
 11
2507.870707401478
 21
1750.78256142203
 31
0.0
  0
LINE
  5
DE56
330
D72C
100
AcDbEntity
  8
AM_5
100
AcDbLine
 10
2499.870707401479
 20
1750.78256142203
 30
0.0
 11
2498.87070740148
 21
1750.78256142203
 31
0.0
  0
LINE
  5
DE57
330
D72C
100
AcDbEntity
  8
AM_5
100
AcDbLine
 10
2505.870707401478
 20
1750.78256142203
 30
0.0
 11
2500.870707401479
 21
1750.78256142203
 31
0.0
  0
INSERT
  5
DE58
330
D72C
100
AcDbEntity
  8
AM_5
100
AcDbBlockReference
  2
_Dot
 10
2505.870707401478
 20
1750.78256142203
 30
0.0
 50
179.9999999999999
  0
INSERT
  5
DE59
330
D72C
100
AcDbEntity
  8
AM_5
100
AcDbBlockReference
  2
_Dot
 10
2500.870707401479
 20
1750.78256142203
 30
0.0
 50
359.9999999999999
  0
MTEXT
  5
DE5A
330
D72C
100
AcDbEntity
  8
AM_5
 62
     2
100
AcDbMText
 10
2503.370707401479
 20
1753.88256142203
 30
0.0
 40
3.200000000000001
 41
0.0
 71
     5
 72
     1
  1
5
 73
     1
 44
1.0
  0
POINT
  5
DE5B
330
D72C
100
AcDbEntity
  8
Defpoints
 62
     0
100
AcDbPoint
 10
2505.870707401478
 20
1774.65771973197
 30
0.0
  0
POINT
  5
DE5C
330
D72C
100
AcDbEntity
  8
Defpoints
 62
     0
100
AcDbPoint
 10
2500.870707401479
 20
1772.782551885289
 30
0.0
  0
POINT
  5
DE5D
330
D72C
100
AcDbEntity
  8
Defpoints
 62
     0
100
AcDbPoint
 10
2500.870707401479
 20
1750.78256142203
 30
0.0
  0
ENDBLK
  5
D739
330
D72C
100
AcDbEntity
  8
0
100
AcDbBlockEnd
  0
BLOCK
  5
D750
330
D746
100
AcDbEntity
  8
0
100
AcDbBlockBegin
  2
*D293
 70
     1
 10
0.0
 20
0.0
 30
0.0
  3
*D293
  1

  0
LINE
  5
E126
330
D746
100
AcDbEntity
  8
AM_5
100
AcDbLine
 10
2679.207919161041
 20
1831.782566190396
 30
0.0
 11
2679.207919161041
 21
1819.782566190396
 31
0.0
  0
LINE
  5
E127
330
D746
100
AcDbEntity
  8
AM_5
100
AcDbLine
 10
2649.207926432808
 20
1842.101504445705
 30
0.0
 11
2649.207926432808
 21
1819.782566190396
 31
0.0
  0
LINE
  5
E128
330
D746
100
AcDbEntity
  8
AM_5
100
AcDbLine
 10
2678.207919161041
 20
1820.782566190396
 30
0.0
 11
2650.207926432808
 21
1820.782566190396
 31
0.0
  0
INSERT
  5
E129
330
D746
100
AcDbEntity
  8
AM_5
100
AcDbBlockReference
  2
_Dot
 10
2679.207919161041
 20
1820.782566190396
 30
0.0
 50
359.9999999999999
  0
INSERT
  5
E12A
330
D746
100
AcDbEntity
  8
AM_5
100
AcDbBlockReference
  2
_Dot
 10
2649.207926432808
 20
1820.782566190396
 30
0.0
 50
179.9999999999999
  0
MTEXT
  5
E12B
330
D746
100
AcDbEntity
  8
AM_5
 62
     2
100
AcDbMText
 10
2664.207922796924
 20
1823.882566190395
 30
0.0
 40
3.200000000000001
 41
0.0
 71
     5
 72
     1
  1
30
 73
     1
 44
1.0
  0
POINT
  5
E12C
330
D746
100
AcDbEntity
  8
Defpoints
 62
     0
100
AcDbPoint
 10
2679.207919161041
 20
1832.782566190395
 30
0.0
  0
POINT
  5
E12D
330
D746
100
AcDbEntity
  8
Defpoints
 62
     0
100
AcDbPoint
 10
2649.207926432808
 20
1843.101504445705
 30
0.0
  0
POINT
  5
E12E
330
D746
100
AcDbEntity
  8
Defpoints
 62
     0
100
AcDbPoint
 10
2649.207926432808
 20
1820.782566190396
 30
0.0
  0
ENDBLK
  5
D751
330
D746
100
AcDbEntity
  8
0
100
AcDbBlockEnd
  0
BLOCK
  5
D766
330
D75C
100
AcDbEntity
  8
0
100
AcDbBlockBegin
  2
*D294
 70
     1
 10
0.0
 20
0.0
 30
0.0
  3
*D294
  1

  0
LINE
  5
E12F
330
D75C
100
AcDbEntity
  8
AM_5
100
AcDbLine
 10
2649.207926432808
 20
1842.101504445705
 30
0.0
 11
2649.207926432808
 21
1819.782566190394
 31
0.0
  0
LINE
  5
E130
330
D75C
100
AcDbEntity
  8
AM_5
100
AcDbLine
 10
2639.207926790436
 20
1861.51582968298
 30
0.0
 11
2639.207926790436
 21
1819.782566190394
 31
0.0
  0
LINE
  5
E131
330
D75C
100
AcDbEntity
  8
AM_5
100
AcDbLine
 10
2648.207926432808
 20
1820.782566190393
 30
0.0
 11
2640.207926790436
 21
1820.782566190393
 31
0.0
  0
INSERT
  5
E132
330
D75C
100
AcDbEntity
  8
AM_5
100
AcDbBlockReference
  2
_Dot
 10
2649.207926432808
 20
1820.782566190393
 30
0.0
 50
359.9999999999999
  0
INSERT
  5
E133
330
D75C
100
AcDbEntity
  8
AM_5
100
AcDbBlockReference
  2
_Dot
 10
2639.207926790436
 20
1820.782566190393
 30
0.0
 50
179.9999999999999
  0
MTEXT
  5
E134
330
D75C
100
AcDbEntity
  8
AM_5
 62
     2
100
AcDbMText
 10
2644.207926611622
 20
1823.882566190394
 30
0.0
 40
3.200000000000001
 41
0.0
 71
     5
 72
     1
  1
10
 73
     1
 44
1.0
  0
POINT
  5
E135
330
D75C
100
AcDbEntity
  8
Defpoints
 62
     0
100
AcDbPoint
 10
2649.207926432808
 20
1843.101504445705
 30
0.0
  0
POINT
  5
E136
330
D75C
100
AcDbEntity
  8
Defpoints
 62
     0
100
AcDbPoint
 10
2639.207926790436
 20
1862.51582968298
 30
0.0
  0
POINT
  5
E137
330
D75C
100
AcDbEntity
  8
Defpoints
 62
     0
100
AcDbPoint
 10
2639.207926790436
 20
1820.782566190393
 30
0.0
  0
ENDBLK
  5
D767
330
D75C
100
AcDbEntity
  8
0
100
AcDbBlockEnd
  0
BLOCK
  5
D77E
330
D772
100
AcDbEntity
  8
0
100
AcDbBlockBegin
  2
*D295
 70
     1
 10
0.0
 20
0.0
 30
0.0
  3
*D295
  1

  0
LINE
  5
DF3A
330
D772
100
AcDbEntity
  8
AM_5
100
AcDbLine
 10
2639.207913438995
 20
1841.436144948635
 30
0.0
 11
2639.207913438995
 21
1819.782566190392
 31
0.0
  0
LINE
  5
DF3B
330
D772
100
AcDbEntity
  8
AM_5
100
AcDbLine
 10
2634.207926790436
 20
1841.782558561001
 30
0.0
 11
2634.207926790436
 21
1819.782566190392
 31
0.0
  0
LINE
  5
DF3C
330
D772
100
AcDbEntity
  8
AM_5
100
AcDbLine
 10
2640.207913438995
 20
1820.782566190391
 30
0.0
 11
2641.207913438995
 21
1820.782566190391
 31
0.0
  0
LINE
  5
DF3D
330
D772
100
AcDbEntity
  8
AM_5
100
AcDbLine
 10
2633.207926790436
 20
1820.782566190391
 30
0.0
 11
2632.207926790436
 21
1820.782566190391
 31
0.0
  0
LINE
  5
DF3E
330
D772
100
AcDbEntity
  8
AM_5
100
AcDbLine
 10
2639.207913438995
 20
1820.782566190391
 30
0.0
 11
2634.207926790436
 21
1820.782566190391
 31
0.0
  0
INSERT
  5
DF3F
330
D772
100
AcDbEntity
  8
AM_5
100
AcDbBlockReference
  2
_Dot
 10
2639.207913438995
 20
1820.782566190391
 30
0.0
 50
179.9999999999999
  0
INSERT
  5
DF40
330
D772
100
AcDbEntity
  8
AM_5
100
AcDbBlockReference
  2
_Dot
 10
2634.207926790436
 20
1820.782566190391
 30
0.0
 50
359.9999999999999
  0
MTEXT
  5
DF41
330
D772
100
AcDbEntity
  8
AM_5
 62
     2
100
AcDbMText
 10
2636.707920114715
 20
1823.882566190391
 30
0.0
 40
3.200000000000001
 41
0.0
 71
     5
 72
     1
  1
5
 73
     1
 44
1.0
  0
POINT
  5
DF42
330
D772
100
AcDbEntity
  8
Defpoints
 62
     0
100
AcDbPoint
 10
2639.207913438995
 20
1842.436144948635
 30
0.0
  0
POINT
  5
DF43
330
D772
100
AcDbEntity
  8
Defpoints
 62
     0
100
AcDbPoint
 10
2634.207926790436
 20
1842.782558561001
 30
0.0
  0
POINT
  5
DF44
330
D772
100
AcDbEntity
  8
Defpoints
 62
     0
100
AcDbPoint
 10
2634.207926790436
 20
1820.782566190391
 30
0.0
  0
ENDBLK
  5
D77F
330
D772
100
AcDbEntity
  8
0
100
AcDbBlockEnd
  0
BLOCK
  5
D796
330
D78C
100
AcDbEntity
  8
0
100
AcDbBlockBegin
  2
*D296
 70
     1
 10
0.0
 20
0.0
 30
0.0
  3
*D296
  1

  0
LINE
  5
DD08
330
D78C
100
AcDbEntity
  8
AM_5
100
AcDbLine
 10
2724.207911531646
 20
1841.782558561001
 30
0.0
 11
2724.207911531646
 21
1809.782566190393
 31
0.0
  0
LINE
  5
DD09
330
D78C
100
AcDbEntity
  8
AM_5
100
AcDbLine
 10
2634.207913438995
 20
1841.782558561001
 30
0.0
 11
2634.207913438995
 21
1809.782566190393
 31
0.0
  0
LINE
  5
DD0A
330
D78C
100
AcDbEntity
  8
AM_5
100
AcDbLine
 10
2723.207911531647
 20
1810.782566190393
 30
0.0
 11
2635.207913438995
 21
1810.782566190393
 31
0.0
  0
INSERT
  5
DD0B
330
D78C
100
AcDbEntity
  8
AM_5
100
AcDbBlockReference
  2
_Dot
 10
2724.207911531646
 20
1810.782566190393
 30
0.0
  0
INSERT
  5
DD0C
330
D78C
100
AcDbEntity
  8
AM_5
100
AcDbBlockReference
  2
_Dot
 10
2634.207913438995
 20
1810.782566190393
 30
0.0
 50
180.0
  0
MTEXT
  5
DD0D
330
D78C
100
AcDbEntity
  8
AM_5
 62
     2
100
AcDbMText
 10
2679.207912485321
 20
1813.882566190393
 30
0.0
 40
3.200000000000001
 41
0.0
 71
     5
 72
     1
  1
90
 73
     1
 44
1.0
  0
POINT
  5
DD0E
330
D78C
100
AcDbEntity
  8
Defpoints
 62
     0
100
AcDbPoint
 10
2724.207911531646
 20
1842.782558561001
 30
0.0
  0
POINT
  5
DD0F
330
D78C
100
AcDbEntity
  8
Defpoints
 62
     0
100
AcDbPoint
 10
2634.207913438995
 20
1842.782558561001
 30
0.0
  0
POINT
  5
DD10
330
D78C
100
AcDbEntity
  8
Defpoints
 62
     0
100
AcDbPoint
 10
2634.207913438995
 20
1810.782566190393
 30
0.0
  0
ENDBLK
  5
D797
330
D78C
100
AcDbEntity
  8
0
100
AcDbBlockEnd
  0
BLOCK
  5
D7CC
330
D7C2
100
AcDbEntity
  8
0
100
AcDbBlockBegin
  2
*D298
 70
     1
 10
0.0
 20
0.0
 30
0.0
  3
*D298
  1

  0
LINE
  5
DEA6
330
D7C2
100
AcDbEntity
  8
AM_5
100
AcDbLine
 10
2509.055681595051
 20
1838.782551885286
 30
0.0
 11
2489.870707401479
 21
1838.782551885286
 31
0.0
  0
LINE
  5
DEA7
330
D7C2
100
AcDbEntity
  8
AM_5
100
AcDbLine
 10
2509.055681595051
 20
1808.782551885289
 30
0.0
 11
2489.870707401479
 21
1808.782551885289
 31
0.0
  0
LINE
  5
DEA8
330
D7C2
100
AcDbEntity
  8
AM_5
100
AcDbLine
 10
2490.870707401479
 20
1837.782551885286
 30
0.0
 11
2490.870707401479
 21
1809.782551885289
 31
0.0
  0
INSERT
  5
DEA9
330
D7C2
100
AcDbEntity
  8
AM_5
100
AcDbBlockReference
  2
_Dot
 10
2490.870707401479
 20
1838.782551885286
 30
0.0
 50
90.0
  0
INSERT
  5
DEAA
330
D7C2
100
AcDbEntity
  8
AM_5
100
AcDbBlockReference
  2
_Dot
 10
2490.870707401479
 20
1808.782551885289
 30
0.0
 50
270.0
  0
MTEXT
  5
DEAB
330
D7C2
100
AcDbEntity
  8
AM_5
 62
     2
100
AcDbMText
 10
2487.770707401478
 20
1823.782551885288
 30
0.0
 40
3.200000000000001
 41
0.0
 71
     5
 72
     1
  1
30
 11
0.0000000000000001
 21
1.0
 31
0.0
 73
     1
 44
1.0
  0
POINT
  5
DEAC
330
D7C2
100
AcDbEntity
  8
Defpoints
 62
     0
100
AcDbPoint
 10
2510.055681595051
 20
1838.782551885286
 30
0.0
  0
POINT
  5
DEAD
330
D7C2
100
AcDbEntity
  8
Defpoints
 62
     0
100
AcDbPoint
 10
2510.055681595051
 20
1808.782551885289
 30
0.0
  0
POINT
  5
DEAE
330
D7C2
100
AcDbEntity
  8
Defpoints
 62
     0
100
AcDbPoint
 10
2490.870707401479
 20
1808.782551885289
 30
0.0
  0
ENDBLK
  5
D7CD
330
D7C2
100
AcDbEntity
  8
0
100
AcDbBlockEnd
  0
BLOCK
  5
D7EB
330
D7E1
100
AcDbEntity
  8
0
100
AcDbBlockBegin
  2
*D299
 70
     1
 10
0.0
 20
0.0
 30
0.0
  3
*D299
  1

  0
LINE
  5
DE9D
330
D7E1
100
AcDbEntity
  8
AM_5
100
AcDbLine
 10
2509.055681595051
 20
1808.782551885289
 30
0.0
 11
2489.870707401478
 21
1808.782551885289
 31
0.0
  0
LINE
  5
DE9E
330
D7E1
100
AcDbEntity
  8
AM_5
100
AcDbLine
 10
2499.870707401479
 20
1780.782551885289
 30
0.0
 11
2489.870707401478
 21
1780.782551885289
 31
0.0
  0
LINE
  5
DE9F
330
D7E1
100
AcDbEntity
  8
AM_5
100
AcDbLine
 10
2490.870707401477
 20
1807.78255188529
 30
0.0
 11
2490.870707401477
 21
1781.782551885289
 31
0.0
  0
INSERT
  5
DEA0
330
D7E1
100
AcDbEntity
  8
AM_5
100
AcDbBlockReference
  2
_Dot
 10
2490.870707401477
 20
1808.782551885289
 30
0.0
 50
90.0
  0
INSERT
  5
DEA1
330
D7E1
100
AcDbEntity
  8
AM_5
100
AcDbBlockReference
  2
_Dot
 10
2490.870707401477
 20
1780.782551885289
 30
0.0
 50
270.0
  0
MTEXT
  5
DEA2
330
D7E1
100
AcDbEntity
  8
AM_5
 62
     2
100
AcDbMText
 10
2487.770707401477
 20
1794.78255188529
 30
0.0
 40
3.200000000000001
 41
0.0
 71
     5
 72
     1
  1
28
 11
0.0000000000000001
 21
1.0
 31
0.0
 73
     1
 44
1.0
  0
POINT
  5
DEA3
330
D7E1
100
AcDbEntity
  8
Defpoints
 62
     0
100
AcDbPoint
 10
2510.055681595051
 20
1808.782551885289
 30
0.0
  0
POINT
  5
DEA4
330
D7E1
100
AcDbEntity
  8
Defpoints
 62
     0
100
AcDbPoint
 10
2500.870707401479
 20
1780.782551885289
 30
0.0
  0
POINT
  5
DEA5
330
D7E1
100
AcDbEntity
  8
Defpoints
 62
     0
100
AcDbPoint
 10
2490.870707401477
 20
1780.782551885289
 30
0.0
  0
ENDBLK
  5
D7EC
330
D7E1
100
AcDbEntity
  8
0
100
AcDbBlockEnd
  0
BLOCK
  5
D801
330
D7F7
100
AcDbEntity
  8
0
100
AcDbBlockBegin
  2
*D300
 70
     1
 10
0.0
 20
0.0
 30
0.0
  3
*D300
  1

  0
LINE
  5
DE94
330
D7F7
100
AcDbEntity
  8
AM_5
100
AcDbLine
 10
2509.055681595051
 20
1838.782551885286
 30
0.0
 11
2489.870707401478
 21
1838.782551885286
 31
0.0
  0
LINE
  5
DE95
330
D7F7
100
AcDbEntity
  8
AM_5
100
AcDbLine
 10
2499.870707401479
 20
1866.782559514675
 30
0.0
 11
2489.870707401478
 21
1866.782559514675
 31
0.0
  0
LINE
  5
DE96
330
D7F7
100
AcDbEntity
  8
AM_5
100
AcDbLine
 10
2490.870707401477
 20
1839.782551885286
 30
0.0
 11
2490.870707401477
 21
1865.782559514675
 31
0.0
  0
INSERT
  5
DE97
330
D7F7
100
AcDbEntity
  8
AM_5
100
AcDbBlockReference
  2
_Dot
 10
2490.870707401477
 20
1838.782551885286
 30
0.0
 50
270.0
  0
INSERT
  5
DE98
330
D7F7
100
AcDbEntity
  8
AM_5
100
AcDbBlockReference
  2
_Dot
 10
2490.870707401477
 20
1866.782559514675
 30
0.0
 50
90.0
  0
MTEXT
  5
DE99
330
D7F7
100
AcDbEntity
  8
AM_5
 62
     2
100
AcDbMText
 10
2487.770707401477
 20
1852.782555699981
 30
0.0
 40
3.200000000000001
 41
0.0
 71
     5
 72
     1
  1
28
 11
0.0000000000000001
 21
1.0
 31
0.0
 73
     1
 44
1.0
  0
POINT
  5
DE9A
330
D7F7
100
AcDbEntity
  8
Defpoints
 62
     0
100
AcDbPoint
 10
2510.055681595051
 20
1838.782551885286
 30
0.0
  0
POINT
  5
DE9B
330
D7F7
100
AcDbEntity
  8
Defpoints
 62
     0
100
AcDbPoint
 10
2500.870707401479
 20
1866.782559514675
 30
0.0
  0
POINT
  5
DE9C
330
D7F7
100
AcDbEntity
  8
Defpoints
 62
     0
100
AcDbPoint
 10
2490.870707401477
 20
1866.782559514675
 30
0.0
  0
ENDBLK
  5
D802
330
D7F7
100
AcDbEntity
  8
0
100
AcDbBlockEnd
  0
BLOCK
  5
D84D
330
D843
100
AcDbEntity
  8
0
100
AcDbBlockBegin
  2
*D303
 70
     1
 10
0.0
 20
0.0
 30
0.0
  3
*D303
  1

  0
LINE
  5
E14A
330
D843
100
AcDbEntity
  8
AM_5
100
AcDbLine
 10
2642.468306224067
 20
1848.782558561001
 30
0.0
 11
2623.207926790435
 21
1848.782558561001
 31
0.0
  0
LINE
  5
E14B
330
D843
100
AcDbEntity
  8
AM_5
100
AcDbLine
 10
2632.619796077927
 20
1868.78256046835
 30
0.0
 11
2623.207926790435
 21
1868.78256046835
 31
0.0
  0
LINE
  5
E14C
330
D843
100
AcDbEntity
  8
AM_5
100
AcDbLine
 10
2624.207926790435
 20
1849.782558561001
 30
0.0
 11
2624.207926790435
 21
1867.78256046835
 31
0.0
  0
INSERT
  5
E14D
330
D843
100
AcDbEntity
  8
AM_5
100
AcDbBlockReference
  2
_Dot
 10
2624.207926790435
 20
1848.782558561001
 30
0.0
 50
270.0
  0
INSERT
  5
E14E
330
D843
100
AcDbEntity
  8
AM_5
100
AcDbBlockReference
  2
_Dot
 10
2624.207926790435
 20
1868.78256046835
 30
0.0
 50
90.0
  0
MTEXT
  5
E14F
330
D843
100
AcDbEntity
  8
AM_5
 62
     2
100
AcDbMText
 10
2621.107926790435
 20
1858.782559514676
 30
0.0
 40
3.200000000000001
 41
0.0
 71
     5
 72
     1
  1
20
 11
0.0000000000000001
 21
1.0
 31
0.0
 73
     1
 44
1.0
  0
POINT
  5
E150
330
D843
100
AcDbEntity
  8
Defpoints
 62
     0
100
AcDbPoint
 10
2643.468306224068
 20
1848.782558561001
 30
0.0
  0
POINT
  5
E151
330
D843
100
AcDbEntity
  8
Defpoints
 62
     0
100
AcDbPoint
 10
2633.619796077927
 20
1868.78256046835
 30
0.0
  0
POINT
  5
E152
330
D843
100
AcDbEntity
  8
Defpoints
 62
     0
100
AcDbPoint
 10
2624.207926790435
 20
1868.78256046835
 30
0.0
  0
ENDBLK
  5
D84E
330
D843
100
AcDbEntity
  8
0
100
AcDbBlockEnd
  0
BLOCK
  5
DA99
330
DA8F
100
AcDbEntity
  8
0
100
AcDbBlockBegin
  2
*D310
 70
     1
 10
0.0
 20
0.0
 30
0.0
  3
*D310
  1

  0
LINE
  5
DEC1
330
DA8F
100
AcDbEntity
  8
AM_5
100
AcDbLine
 10
2555.870707401478
 20
1881.782559514675
 30
0.0
 11
2606.870707401478
 21
1881.782559514675
 31
0.0
  0
LINE
  5
DEC2
330
DA8F
100
AcDbEntity
  8
AM_5
100
AcDbLine
 10
2591.870707401478
 20
1874.782559514676
 30
0.0
 11
2606.870707401478
 21
1874.782559514676
 31
0.0
  0
LINE
  5
DEC3
330
DA8F
100
AcDbEntity
  8
AM_5
100
AcDbLine
 10
2605.870707401479
 20
1880.782559514675
 30
0.0
 11
2605.870707401479
 21
1875.782559514676
 31
0.0
  0
INSERT
  5
DEC4
330
DA8F
100
AcDbEntity
  8
AM_5
100
AcDbBlockReference
  2
_Dot
 10
2605.870707401479
 20
1881.782559514675
 30
0.0
 50
90.0
  0
INSERT
  5
DEC5
330
DA8F
100
AcDbEntity
  8
AM_5
100
AcDbBlockReference
  2
_Dot
 10
2605.870707401479
 20
1874.782559514676
 30
0.0
 50
270.0
  0
MTEXT
  5
DEC6
330
DA8F
100
AcDbEntity
  8
AM_5
 62
     2
100
AcDbMText
 10
2602.770707401478
 20
1878.282559514676
 30
0.0
 40
3.200000000000001
 41
0.0
 71
     5
 72
     1
  1
7
 11
0.0000000000000001
 21
1.0
 31
0.0
 73
     1
 44
1.0
  0
POINT
  5
DEC7
330
DA8F
100
AcDbEntity
  8
Defpoints
 62
     0
100
AcDbPoint
 10
2554.870707401478
 20
1881.782559514675
 30
0.0
  0
POINT
  5
DEC8
330
DA8F
100
AcDbEntity
  8
Defpoints
 62
     0
100
AcDbPoint
 10
2590.870707401478
 20
1874.782559514676
 30
0.0
  0
POINT
  5
DEC9
330
DA8F
100
AcDbEntity
  8
Defpoints
 62
     0
100
AcDbPoint
 10
2605.870707401479
 20
1874.782559514676
 30
0.0
  0
ENDBLK
  5
DA9A
330
DA8F
100
AcDbEntity
  8
0
100
AcDbBlockEnd
  0
BLOCK
  5
DAA5
330
DA9B
100
AcDbEntity
  8
0
100
AcDbBlockBegin
  2
*D311
 70
     1
 10
0.0
 20
0.0
 30
0.0
  3
*D311
  1

  0
LINE
  5
DEB8
330
DA9B
100
AcDbEntity
  8
AM_5
100
AcDbLine
 10
2591.870707401478
 20
1772.782551885289
 30
0.0
 11
2606.870707401478
 21
1772.782551885289
 31
0.0
  0
LINE
  5
DEB9
330
DA9B
100
AcDbEntity
  8
AM_5
100
AcDbLine
 10
2555.870707314056
 20
1765.782559514684
 30
0.0
 11
2606.870707401478
 21
1765.782559514684
 31
0.0
  0
LINE
  5
DEBA
330
DA9B
100
AcDbEntity
  8
AM_5
100
AcDbLine
 10
2605.870707401478
 20
1771.78255188529
 30
0.0
 11
2605.870707401478
 21
1766.782559514684
 31
0.0
  0
INSERT
  5
DEBB
330
DA9B
100
AcDbEntity
  8
AM_5
100
AcDbBlockReference
  2
_Dot
 10
2605.870707401478
 20
1772.782551885289
 30
0.0
 50
90.0
  0
INSERT
  5
DEBC
330
DA9B
100
AcDbEntity
  8
AM_5
100
AcDbBlockReference
  2
_Dot
 10
2605.870707401478
 20
1765.782559514684
 30
0.0
 50
270.0
  0
MTEXT
  5
DEBD
330
DA9B
100
AcDbEntity
  8
AM_5
 62
     2
100
AcDbMText
 10
2602.770707401477
 20
1769.282555699987
 30
0.0
 40
3.200000000000001
 41
0.0
 71
     5
 72
     1
  1
7
 11
0.0000000000000001
 21
1.0
 31
0.0
 73
     1
 44
1.0
  0
POINT
  5
DEBE
330
DA9B
100
AcDbEntity
  8
Defpoints
 62
     0
100
AcDbPoint
 10
2590.870707401478
 20
1772.782551885289
 30
0.0
  0
POINT
  5
DEBF
330
DA9B
100
AcDbEntity
  8
Defpoints
 62
     0
100
AcDbPoint
 10
2554.870707314056
 20
1765.782559514684
 30
0.0
  0
POINT
  5
DEC0
330
DA9B
100
AcDbEntity
  8
Defpoints
 62
     0
100
AcDbPoint
 10
2605.870707401478
 20
1765.782559514684
 30
0.0
  0
ENDBLK
  5
DAA6
330
DA9B
100
AcDbEntity
  8
0
100
AcDbBlockEnd
  0
BLOCK
  5
DAB1
330
DAA7
100
AcDbEntity
  8
0
100
AcDbBlockBegin
  2
*D312
 70
     1
 10
0.0
 20
0.0
 30
0.0
  3
*D312
  1

  0
LINE
  5
DEAF
330
DAA7
100
AcDbEntity
  8
AM_5
100
AcDbLine
 10
2591.870707401478
 20
1772.782551885289
 30
0.0
 11
2606.870707401478
 21
1772.782551885289
 31
0.0
  0
LINE
  5
DEB0
330
DAA7
100
AcDbEntity
  8
AM_5
100
AcDbLine
 10
2591.870707401478
 20
1874.782559514676
 30
0.0
 11
2606.870707401478
 21
1874.782559514676
 31
0.0
  0
LINE
  5
DEB1
330
DAA7
100
AcDbEntity
  8
AM_5
100
AcDbLine
 10
2605.870707401478
 20
1773.78255188529
 30
0.0
 11
2605.870707401478
 21
1873.782559514676
 31
0.0
  0
INSERT
  5
DEB2
330
DAA7
100
AcDbEntity
  8
AM_5
100
AcDbBlockReference
  2
_Dot
 10
2605.870707401478
 20
1772.782551885289
 30
0.0
 50
270.0
  0
INSERT
  5
DEB3
330
DAA7
100
AcDbEntity
  8
AM_5
100
AcDbBlockReference
  2
_Dot
 10
2605.870707401478
 20
1874.782559514676
 30
0.0
 50
90.0
  0
MTEXT
  5
DEB4
330
DAA7
100
AcDbEntity
  8
AM_5
 62
     2
100
AcDbMText
 10
2602.770707401477
 20
1823.782555699983
 30
0.0
 40
3.200000000000001
 41
0.0
 71
     5
 72
     1
  1
102
 11
0.0000000000000001
 21
1.0
 31
0.0
 73
     1
 44
1.0
  0
POINT
  5
DEB5
330
DAA7
100
AcDbEntity
  8
Defpoints
 62
     0
100
AcDbPoint
 10
2590.870707401478
 20
1772.782551885289
 30
0.0
  0
POINT
  5
DEB6
330
DAA7
100
AcDbEntity
  8
Defpoints
 62
     0
100
AcDbPoint
 10
2590.870707401478
 20
1874.782559514676
 30
0.0
  0
POINT
  5
DEB7
330
DAA7
100
AcDbEntity
  8
Defpoints
 62
     0
100
AcDbPoint
 10
2605.870707401478
 20
1874.782559514676
 30
0.0
  0
ENDBLK
  5
DAB2
330
DAA7
100
AcDbEntity
  8
0
100
AcDbBlockEnd
  0
BLOCK
  5
DAF6
330
DAEC
100
AcDbEntity
  8
0
100
AcDbBlockBegin
  2
*D313
 70
     1
 10
0.0
 20
0.0
 30
0.0
  3
*D313
  1

  0
LINE
  5
DF9F
330
DAEC
100
AcDbEntity
  8
AM_5
100
AcDbLine
 10
2689.207919161041
 20
1881.782559753093
 30
0.0
 11
2740.207911531647
 21
1881.782559753093
 31
0.0
  0
LINE
  5
DFA0
330
DAEC
100
AcDbEntity
  8
AM_5
100
AcDbLine
 10
2725.207911531647
 20
1874.782559514676
 30
0.0
 11
2740.207911531647
 21
1874.782559514676
 31
0.0
  0
LINE
  5
DFA1
330
DAEC
100
AcDbEntity
  8
AM_5
100
AcDbLine
 10
2739.207911531647
 20
1880.782559753093
 30
0.0
 11
2739.207911531647
 21
1875.782559514676
 31
0.0
  0
INSERT
  5
DFA2
330
DAEC
100
AcDbEntity
  8
AM_5
100
AcDbBlockReference
  2
_Dot
 10
2739.207911531647
 20
1881.782559753093
 30
0.0
 50
90.0
  0
INSERT
  5
DFA3
330
DAEC
100
AcDbEntity
  8
AM_5
100
AcDbBlockReference
  2
_Dot
 10
2739.207911531647
 20
1874.782559514676
 30
0.0
 50
270.0
  0
MTEXT
  5
DFA4
330
DAEC
100
AcDbEntity
  8
AM_5
 62
     2
100
AcDbMText
 10
2736.107911531647
 20
1878.282559633885
 30
0.0
 40
3.200000000000001
 41
0.0
 71
     5
 72
     1
  1
7
 11
0.0000000000000001
 21
1.0
 31
0.0
 73
     1
 44
1.0
  0
POINT
  5
DFA5
330
DAEC
100
AcDbEntity
  8
Defpoints
 62
     0
100
AcDbPoint
 10
2688.207919161041
 20
1881.782559753093
 30
0.0
  0
POINT
  5
DFA6
330
DAEC
100
AcDbEntity
  8
Defpoints
 62
     0
100
AcDbPoint
 10
2724.207911531646
 20
1874.782559514676
 30
0.0
  0
POINT
  5
DFA7
330
DAEC
100
AcDbEntity
  8
Defpoints
 62
     0
100
AcDbPoint
 10
2739.207911531647
 20
1874.782559514676
 30
0.0
  0
ENDBLK
  5
DAF7
330
DAEC
100
AcDbEntity
  8
0
100
AcDbBlockEnd
  0
BLOCK
  5
DB02
330
DAF8
100
AcDbEntity
  8
0
100
AcDbBlockBegin
  2
*D314
 70
     1
 10
0.0
 20
0.0
 30
0.0
  3
*D314
  1

  0
LINE
  5
DF96
330
DAF8
100
AcDbEntity
  8
AM_5
100
AcDbLine
 10
2725.207911531647
 20
1842.782558561001
 30
0.0
 11
2740.207911531648
 21
1842.782558561001
 31
0.0
  0
LINE
  5
DF97
330
DAF8
100
AcDbEntity
  8
AM_5
100
AcDbLine
 10
2689.207919161041
 20
1835.782558561001
 30
0.0
 11
2740.207911531648
 21
1835.782558561001
 31
0.0
  0
LINE
  5
DF98
330
DAF8
100
AcDbEntity
  8
AM_5
100
AcDbLine
 10
2739.207911531648
 20
1841.782558561001
 30
0.0
 11
2739.207911531648
 21
1836.782558561001
 31
0.0
  0
INSERT
  5
DF99
330
DAF8
100
AcDbEntity
  8
AM_5
100
AcDbBlockReference
  2
_Dot
 10
2739.207911531648
 20
1842.782558561001
 30
0.0
 50
90.0
  0
INSERT
  5
DF9A
330
DAF8
100
AcDbEntity
  8
AM_5
100
AcDbBlockReference
  2
_Dot
 10
2739.207911531648
 20
1835.782558561001
 30
0.0
 50
270.0
  0
MTEXT
  5
DF9B
330
DAF8
100
AcDbEntity
  8
AM_5
 62
     2
100
AcDbMText
 10
2736.107911531648
 20
1839.282558561001
 30
0.0
 40
3.200000000000001
 41
0.0
 71
     5
 72
     1
  1
7
 11
0.0000000000000001
 21
1.0
 31
0.0
 73
     1
 44
1.0
  0
POINT
  5
DF9C
330
DAF8
100
AcDbEntity
  8
Defpoints
 62
     0
100
AcDbPoint
 10
2724.207911531646
 20
1842.782558561001
 30
0.0
  0
POINT
  5
DF9D
330
DAF8
100
AcDbEntity
  8
Defpoints
 62
     0
100
AcDbPoint
 10
2688.207919161041
 20
1835.782558561001
 30
0.0
  0
POINT
  5
DF9E
330
DAF8
100
AcDbEntity
  8
Defpoints
 62
     0
100
AcDbPoint
 10
2739.207911531648
 20
1835.782558561001
 30
0.0
  0
ENDBLK
  5
DB03
330
DAF8
100
AcDbEntity
  8
0
100
AcDbBlockEnd
  0
BLOCK
  5
DB0E
330
DB04
100
AcDbEntity
  8
0
100
AcDbBlockBegin
  2
*D315
 70
     1
 10
0.0
 20
0.0
 30
0.0
  3
*D315
  1

  0
LINE
  5
DF8D
330
DB04
100
AcDbEntity
  8
AM_5
100
AcDbLine
 10
2725.207911531647
 20
1842.782558561001
 30
0.0
 11
2740.207911531646
 21
1842.782558561001
 31
0.0
  0
LINE
  5
DF8E
330
DB04
100
AcDbEntity
  8
AM_5
100
AcDbLine
 10
2725.207911531647
 20
1874.782559514676
 30
0.0
 11
2740.207911531646
 21
1874.782559514676
 31
0.0
  0
LINE
  5
DF8F
330
DB04
100
AcDbEntity
  8
AM_5
100
AcDbLine
 10
2739.207911531647
 20
1843.782558561001
 30
0.0
 11
2739.207911531647
 21
1873.782559514676
 31
0.0
  0
INSERT
  5
DF90
330
DB04
100
AcDbEntity
  8
AM_5
100
AcDbBlockReference
  2
_Dot
 10
2739.207911531647
 20
1842.782558561001
 30
0.0
 50
270.0
  0
INSERT
  5
DF91
330
DB04
100
AcDbEntity
  8
AM_5
100
AcDbBlockReference
  2
_Dot
 10
2739.207911531647
 20
1874.782559514676
 30
0.0
 50
90.0
  0
MTEXT
  5
DF92
330
DB04
100
AcDbEntity
  8
AM_5
 62
     2
100
AcDbMText
 10
2736.107911531646
 20
1858.782559037839
 30
0.0
 40
3.200000000000001
 41
0.0
 71
     5
 72
     1
  1
32
 11
0.0000000000000001
 21
1.0
 31
0.0
 73
     1
 44
1.0
  0
POINT
  5
DF93
330
DB04
100
AcDbEntity
  8
Defpoints
 62
     0
100
AcDbPoint
 10
2724.207911531646
 20
1842.782558561001
 30
0.0
  0
POINT
  5
DF94
330
DB04
100
AcDbEntity
  8
Defpoints
 62
     0
100
AcDbPoint
 10
2724.207911531646
 20
1874.782559514676
 30
0.0
  0
POINT
  5
DF95
330
DB04
100
AcDbEntity
  8
Defpoints
 62
     0
100
AcDbPoint
 10
2739.207911531647
 20
1874.782559514676
 30
0.0
  0
ENDBLK
  5
DB0F
330
DB04
100
AcDbEntity
  8
0
100
AcDbBlockEnd
  0
BLOCK
  5
DD94
330
DD8A
100
AcDbEntity
  8
0
100
AcDbBlockBegin
  2
*D316
 70
     1
 10
0.0
 20
0.0
 30
0.0
  3
*D316
  1

  0
LINE
  5
DD9F
330
DD8A
100
AcDbEntity
  8
AM_5
100
AcDbLine
 10
2534.870709308828
 20
1880.782559514676
 30
0.0
 11
2534.870709308828
 21
1892.782559514676
 31
0.0
  0
LINE
  5
DDA0
330
DD8A
100
AcDbEntity
  8
AM_5
100
AcDbLine
 10
2556.870707401478
 20
1880.782559514676
 30
0.0
 11
2556.870707401478
 21
1892.782559514676
 31
0.0
  0
LINE
  5
DDA1
330
DD8A
100
AcDbEntity
  8
AM_5
100
AcDbLine
 10
2535.870709308828
 20
1891.782559514676
 30
0.0
 11
2555.870707401478
 21
1891.782559514676
 31
0.0
  0
INSERT
  5
DDA2
330
DD8A
100
AcDbEntity
  8
AM_5
100
AcDbBlockReference
  2
_Dot
 10
2534.870709308828
 20
1891.782559514676
 30
0.0
 50
180.0
  0
INSERT
  5
DDA3
330
DD8A
100
AcDbEntity
  8
AM_5
100
AcDbBlockReference
  2
_Dot
 10
2556.870707401478
 20
1891.782559514676
 30
0.0
  0
MTEXT
  5
DDA4
330
DD8A
100
AcDbEntity
  8
AM_5
 62
     2
100
AcDbMText
 10
2545.870708355153
 20
1894.882559514676
 30
0.0
 40
3.200000000000001
 41
0.0
 71
     5
 72
     1
  1
%%c22
 73
     1
 44
1.0
  0
POINT
  5
DDA5
330
DD8A
100
AcDbEntity
  8
Defpoints
 62
     0
100
AcDbPoint
 10
2534.870709308828
 20
1879.782559514676
 30
0.0
  0
POINT
  5
DDA6
330
DD8A
100
AcDbEntity
  8
Defpoints
 62
     0
100
AcDbPoint
 10
2556.870707401478
 20
1879.782559514676
 30
0.0
  0
POINT
  5
DDA7
330
DD8A
100
AcDbEntity
  8
Defpoints
 62
     0
100
AcDbPoint
 10
2556.870707401478
 20
1891.782559514676
 30
0.0
  0
ENDBLK
  5
DD95
330
DD8A
100
AcDbEntity
  8
0
100
AcDbBlockEnd
  0
BLOCK
  5
DDB4
330
DDAA
100
AcDbEntity
  8
0
100
AcDbBlockBegin
  2
*D317
 70
     1
 10
0.0
 20
0.0
 30
0.0
  3
*D317
  1

  0
LINE
  5
DDB6
330
DDAA
100
AcDbEntity
  8
AM_5
100
AcDbLine
 10
2668.207921068391
 20
1880.782559753093
 30
0.0
 11
2668.207921068391
 21
1892.782559753093
 31
0.0
  0
LINE
  5
DDB7
330
DDAA
100
AcDbEntity
  8
AM_5
100
AcDbLine
 10
2690.207919161041
 20
1880.782559753093
 30
0.0
 11
2690.207919161041
 21
1892.782559753093
 31
0.0
  0
LINE
  5
DDB8
330
DDAA
100
AcDbEntity
  8
AM_5
100
AcDbLine
 10
2669.207921068391
 20
1891.782559753093
 30
0.0
 11
2689.207919161041
 21
1891.782559753093
 31
0.0
  0
INSERT
  5
DDB9
330
DDAA
100
AcDbEntity
  8
AM_5
100
AcDbBlockReference
  2
_Dot
 10
2668.207921068391
 20
1891.782559753093
 30
0.0
 50
180.0
  0
INSERT
  5
DDBA
330
DDAA
100
AcDbEntity
  8
AM_5
100
AcDbBlockReference
  2
_Dot
 10
2690.207919161041
 20
1891.782559753093
 30
0.0
  0
MTEXT
  5
DDBB
330
DDAA
100
AcDbEntity
  8
AM_5
 62
     2
100
AcDbMText
 10
2679.207920114716
 20
1894.882559753093
 30
0.0
 40
3.200000000000001
 41
0.0
 71
     5
 72
     1
  1
%%c22
 73
     1
 44
1.0
  0
POINT
  5
DDBC
330
DDAA
100
AcDbEntity
  8
Defpoints
 62
     0
100
AcDbPoint
 10
2668.207921068391
 20
1879.782559753093
 30
0.0
  0
POINT
  5
DDBD
330
DDAA
100
AcDbEntity
  8
Defpoints
 62
     0
100
AcDbPoint
 10
2690.207919161041
 20
1879.782559753093
 30
0.0
  0
POINT
  5
DDBE
330
DDAA
100
AcDbEntity
  8
Defpoints
 62
     0
100
AcDbPoint
 10
2690.207919161041
 20
1891.782559753093
 30
0.0
  0
ENDBLK
  5
DDB5
330
DDAA
100
AcDbEntity
  8
0
100
AcDbBlockEnd
  0
BLOCK
  5
DDCC
330
DDC0
100
AcDbEntity
  8
0
100
AcDbBlockBegin
  2
*D318
 70
     1
 10
0.0
 20
0.0
 30
0.0
  3
*D318
  1

  0
LINE
  5
DFAB
330
DDC0
100
AcDbEntity
  8
AM_5
100
AcDbLine
 10
2500.248440632069
 20
1932.928653499106
 30
0.0
 11
2489.874889470835
 21
1932.928653499106
 31
0.0
  0
LINE
  5
DFAC
330
DDC0
100
AcDbEntity
  8
AM_5
100
AcDbLine
 10
2500.248440632069
 20
1938.928653499106
 30
0.0
 11
2489.874889470835
 21
1938.928653499106
 31
0.0
  0
LINE
  5
DFAD
330
DDC0
100
AcDbEntity
  8
AM_5
100
AcDbLine
 10
2490.874889470835
 20
1933.928653499106
 30
0.0
 11
2490.874889470835
 21
1937.928653499106
 31
0.0
  0
INSERT
  5
DFAE
330
DDC0
100
AcDbEntity
  8
AM_5
100
AcDbBlockReference
  2
_Dot
 10
2490.874889470835
 20
1932.928653499106
 30
0.0
 50
270.0
  0
INSERT
  5
DFAF
330
DDC0
100
AcDbEntity
  8
AM_5
100
AcDbBlockReference
  2
_Dot
 10
2490.874889470835
 20
1938.928653499106
 30
0.0
 50
90.0
  0
MTEXT
  5
DFB0
330
DDC0
100
AcDbEntity
  8
AM_5
 62
     2
100
AcDbMText
 10
2487.774889470835
 20
1935.928653499107
 30
0.0
 40
3.200000000000001
 41
0.0
 71
     5
 72
     1
  1
6
 11
0.0000000000000001
 21
1.0
 31
0.0
 73
     1
 44
1.0
  0
POINT
  5
DFB1
330
DDC0
100
AcDbEntity
  8
Defpoints
 62
     0
100
AcDbPoint
 10
2501.248440632069
 20
1932.928653499106
 30
0.0
  0
POINT
  5
DFB2
330
DDC0
100
AcDbEntity
  8
Defpoints
 62
     0
100
AcDbPoint
 10
2501.248440632069
 20
1938.928653499106
 30
0.0
  0
POINT
  5
DFB3
330
DDC0
100
AcDbEntity
  8
Defpoints
 62
     0
100
AcDbPoint
 10
2490.874889470835
 20
1938.928653499106
 30
0.0
  0
ENDBLK
  5
DDCD
330
DDC0
100
AcDbEntity
  8
0
100
AcDbBlockEnd
  0
BLOCK
  5
DE34
330
DE28
100
AcDbEntity
  8
0
100
AcDbBlockBegin
  2
*D320
 70
     1
 10
0.0
 20
0.0
 30
0.0
  3
*D320
  1

  0
LINE
  5
DFB4
330
DE28
100
AcDbEntity
  8
AM_5
100
AcDbLine
 10
2592.248443493091
 20
1936.928653499106
 30
0.0
 11
2606.87070740148
 21
1936.928653499106
 31
0.0
  0
LINE
  5
DFB5
330
DE28
100
AcDbEntity
  8
AM_5
100
AcDbLine
 10
2592.248443493091
 20
1938.928653499106
 30
0.0
 11
2606.87070740148
 21
1938.928653499106
 31
0.0
  0
LINE
  5
DFB6
330
DE28
100
AcDbEntity
  8
AM_5
100
AcDbLine
 10
2605.87070740148
 20
1935.928653499106
 30
0.0
 11
2605.87070740148
 21
1934.928653499106
 31
0.0
  0
LINE
  5
DFB7
330
DE28
100
AcDbEntity
  8
AM_5
100
AcDbLine
 10
2605.87070740148
 20
1939.928653499107
 30
0.0
 11
2605.87070740148
 21
1945.42198683244
 31
0.0
  0
LINE
  5
DFB8
330
DE28
100
AcDbEntity
  8
AM_5
100
AcDbLine
 10
2605.87070740148
 20
1936.928653499106
 30
0.0
 11
2605.87070740148
 21
1938.928653499106
 31
0.0
  0
INSERT
  5
DFB9
330
DE28
100
AcDbEntity
  8
AM_5
100
AcDbBlockReference
  2
_Dot
 10
2605.87070740148
 20
1936.928653499106
 30
0.0
 50
90.0
  0
INSERT
  5
DFBA
330
DE28
100
AcDbEntity
  8
AM_5
100
AcDbBlockReference
  2
_Dot
 10
2605.87070740148
 20
1938.928653499106
 30
0.0
 50
270.0
  0
MTEXT
  5
DFBB
330
DE28
100
AcDbEntity
  8
AM_5
 62
     2
100
AcDbMText
 10
2602.770707401479
 20
1943.175320165774
 30
0.0
 40
3.200000000000001
 41
0.0
 71
     5
 72
     1
  1
2
 11
0.0000000000000001
 21
1.0
 31
0.0
 73
     1
 44
1.0
  0
POINT
  5
DFBC
330
DE28
100
AcDbEntity
  8
Defpoints
 62
     0
100
AcDbPoint
 10
2591.248443493091
 20
1936.928653499106
 30
0.0
  0
POINT
  5
DFBD
330
DE28
100
AcDbEntity
  8
Defpoints
 62
     0
100
AcDbPoint
 10
2591.248443493091
 20
1938.928653499106
 30
0.0
  0
POINT
  5
DFBE
330
DE28
100
AcDbEntity
  8
Defpoints
 62
     0
100
AcDbPoint
 10
2605.87070740148
 20
1938.928653499106
 30
0.0
  0
ENDBLK
  5
DE35
330
DE28
100
AcDbEntity
  8
0
100
AcDbBlockEnd
  0
BLOCK
  5
E246
330
E23F
100
AcDbEntity
  8
0
100
AcDbBlockBegin
  2
*S323
 70
     1
 10
0.0
 20
0.0
 30
0.0
  3
*S323
  1

  0
LINE
  5
E240
330
E23F
100
AcDbEntity
  8
AM_5
 62
     3
100
AcDbLine
 10
2511.189763728622
 20
1886.85110415559
 30
0.0
 11
2524.245763728622
 21
1886.85110415559
 31
0.0
  0
LINE
  5
E241
330
E23F
100
AcDbEntity
  8
AM_5
 62
     3
100
AcDbLine
 10
2524.245763728622
 20
1886.85110415559
 30
0.0
 11
2531.811733738313
 21
1873.036701756844
 31
0.0
  0
LINE
  5
E242
330
E23F
100
AcDbEntity
  8
AM_5
  6
Continuous
 62
     3
100
AcDbLine
 10
2531.811733738313
 20
1873.036701756844
 30
0.0
 11
2532.772454818668
 21
1871.282559514676
 31
0.0
  0
LINE
  5
E243
330
E23F
100
AcDbEntity
  8
AM_5
  6
Continuous
 62
     3
100
AcDbLine
 10
2531.341712745379
 20
1872.779277321547
 30
0.0
 11
2532.772454818668
 21
1871.282559514676
 31
0.0
  0
LINE
  5
E244
330
E23F
100
AcDbEntity
  8
AM_5
  6
Continuous
 62
     3
100
AcDbLine
 10
2532.772454818668
 20
1871.282559514676
 30
0.0
 11
2532.281754731247
 21
1873.294126192141
 31
0.0
  0
MTEXT
  5
E245
330
E23F
100
AcDbEntity
  8
AM_5
 62
     2
100
AcDbMText
 10
2521.045763728622
 20
1888.45110415559
 30
0.0
 40
3.2
 41
0.0
 71
     9
 72
     5
  1
調整ピン
 73
     1
 44
1.0
  0
ENDBLK
  5
E247
330
E23F
100
AcDbEntity
  8
0
100
AcDbBlockEnd
  0
ENDSEC
  0
SECTION
  2
ENTITIES
  0
LINE
  5
B990
330
1F
100
AcDbEntity
  8
AM_7
100
AcDbLine
 10
2545.870707401479
 20
1884.782559514675
 30
0.0
 11
2545.870707401479
 21
1762.782561422034
 31
0.0
  0
LINE
  5
B997
330
1F
100
AcDbEntity
  8
AM_0
100
AcDbLine
 10
2533.870707401479
 20
1874.782559514676
 30
0.0
 11
2533.870707401479
 21
1872.782559514676
 31
0.0
  0
LINE
  5
B998
330
1F
100
AcDbEntity
  8
AM_0
100
AcDbLine
 10
2590.87070549413
 20
1874.782559514676
 30
0.0
 11
2590.87070549413
 21
1772.782563329382
 31
0.0
  0
LINE
  5
B99C
330
1F
100
AcDbEntity
  8
AM_0
100
AcDbLine
 10
2533.870707401479
 20
1774.782563329382
 30
0.0
 11
2561.499741443836
 21
1774.782551658795
 31
0.0
  0
LINE
  5
B99D
330
1F
100
AcDbEntity
  8
AM_0
100
AcDbLine
 10
2533.870707401479
 20
1872.782559514676
 30
0.0
 11
2561.499741460231
 21
1872.78255974117
 31
0.0
  0
LINE
  5
B9A0
330
1F
100
AcDbEntity
  8
AM_0
100
AcDbLine
 10
2533.870707401479
 20
1774.782563329382
 30
0.0
 11
2533.870707401479
 21
1772.782563329382
 31
0.0
  0
LINE
  5
B9A2
330
1F
100
AcDbEntity
  8
AM_0
100
AcDbLine
 10
2533.870707401479
 20
1874.782559514676
 30
0.0
 11
2558.035639959465
 21
1874.782559514676
 31
0.0
  0
LINE
  5
B9A4
330
1F
100
AcDbEntity
  8
AM_0
100
AcDbLine
 10
2533.870707401479
 20
1772.782563329382
 30
0.0
 11
2558.042405773362
 21
1772.782563329382
 31
0.0
  0
LINE
  5
B9A5
330
1F
100
AcDbEntity
  8
AM_7
 48
0.5
100
AcDbLine
 10
2580.138733753407
 20
1866.782559514675
 30
0.0
 11
2591.602677234852
 21
1866.782559514675
 31
0.0
  0
LINE
  5
B9A6
330
1F
100
AcDbEntity
  8
AM_7
 48
0.5
100
AcDbLine
 10
2569.524292835438
 20
1838.782551885286
 30
0.0
 11
2582.21711815282
 21
1838.782551885286
 31
0.0
  0
LINE
  5
B9A7
330
1F
100
AcDbEntity
  8
AM_7
 48
0.5
100
AcDbLine
 10
2569.423554310047
 20
1808.782567144078
 30
0.0
 11
2582.317856678211
 21
1808.782567144078
 31
0.0
  0
LINE
  5
B9A8
330
1F
100
AcDbEntity
  8
AM_7
 48
0.5
100
AcDbLine
 10
2580.340210804188
 20
1780.782563329381
 30
0.0
 11
2591.401200184071
 21
1780.782563329381
 31
0.0
  0
LINE
  5
B9A9
330
1F
100
AcDbEntity
  8
AM_7
 48
0.5
100
AcDbLine
 10
2585.870705494129
 20
1873.22971069876
 30
0.0
 11
2585.870705494129
 21
1860.335408330591
 31
0.0
  0
LINE
  5
B9AA
330
1F
100
AcDbEntity
  8
AM_7
 48
0.5
100
AcDbLine
 10
2575.870705494129
 20
1845.128968358676
 30
0.0
 11
2575.870705494129
 21
1832.436135411896
 31
0.0
  0
LINE
  5
B9AB
330
1F
100
AcDbEntity
  8
AM_7
 48
0.5
100
AcDbLine
 10
2585.87070549413
 20
1787.128975988073
 30
0.0
 11
2585.87070549413
 21
1774.43615067069
 31
0.0
  0
LINE
  5
B9AC
330
1F
100
AcDbEntity
  8
AM_7
 48
0.5
100
AcDbLine
 10
2575.870705494129
 20
1815.431195378941
 30
0.0
 11
2575.870705494129
 21
1802.133938909215
 31
0.0
  0
LINE
  5
B9AD
330
1F
100
AcDbEntity
  8
AM_0
100
AcDbLine
 10
2527.870707401478
 20
1874.782559514676
 30
0.0
 11
2527.870707401478
 21
1862.882565618195
 31
0.0
  0
LINE
  5
B9AE
330
1F
100
AcDbEntity
  8
AM_0
100
AcDbLine
 10
2500.870707401479
 20
1874.782559514676
 30
0.0
 11
2500.870707401479
 21
1772.782551885289
 31
0.0
  0
LINE
  5
B9AF
330
1F
100
AcDbEntity
  8
AM_0
100
AcDbLine
 10
2527.870707401478
 20
1874.782559514676
 30
0.0
 11
2500.870707401479
 21
1874.782559514676
 31
0.0
  0
LINE
  5
B9B0
330
1F
100
AcDbEntity
  8
AM_0
100
AcDbLine
 10
2527.870707401478
 20
1772.782551885289
 30
0.0
 11
2500.870707401479
 21
1772.782551885289
 31
0.0
  0
LINE
  5
B9B1
330
1F
100
AcDbEntity
  8
AM_0
100
AcDbLine
 10
2556.870707401478
 20
1784.682561040564
 30
0.0
 11
2527.870707401478
 21
1784.682561040564
 31
0.0
  0
LINE
  5
B9B2
330
1F
100
AcDbEntity
  8
AM_0
100
AcDbLine
 10
2556.870707401478
 20
1862.882565618195
 30
0.0
 11
2527.870707401478
 21
1862.882565618195
 31
0.0
  0
LINE
  5
B9B3
330
1F
100
AcDbEntity
  8
AM_0
100
AcDbLine
 10
2527.870707401478
 20
1784.682561040564
 30
0.0
 11
2527.870707401478
 21
1772.782551885289
 31
0.0
  0
LINE
  5
B9B4
330
1F
100
AcDbEntity
  8
AM_0
100
AcDbLine
 10
2534.720713504993
 20
1862.882565618195
 30
0.0
 11
2534.720713504993
 21
1784.682561040564
 31
0.0
  0
LINE
  5
B9B9
330
1F
100
AcDbEntity
  8
AM_7
 48
0.5
100
AcDbLine
 10
2515.870707043851
 20
1844.463605046911
 30
0.0
 11
2515.870707043851
 21
1833.101498723661
 31
0.0
  0
LINE
  5
B9BA
330
1F
100
AcDbEntity
  8
AM_7
 48
0.5
100
AcDbLine
 10
2511.458841928684
 20
1866.782559514675
 30
0.0
 11
2500.282572874273
 21
1866.782559514675
 31
0.0
  0
LINE
  5
B9BB
330
1F
100
AcDbEntity
  8
AM_7
 48
0.5
100
AcDbLine
 10
2521.610327252591
 20
1838.782551885286
 30
0.0
 11
2510.13108683511
 21
1838.782551885286
 31
0.0
  0
LINE
  5
B9BC
330
1F
100
AcDbEntity
  8
AM_7
 48
0.5
100
AcDbLine
 10
2505.870707401478
 20
1774.515828252477
 30
0.0
 11
2505.870707401478
 21
1787.049275518102
 31
0.0
  0
LINE
  5
B9BD
330
1F
100
AcDbEntity
  8
AM_7
 48
0.5
100
AcDbLine
 10
2515.870707043851
 20
1803.101498723668
 30
0.0
 11
2515.870707043851
 21
1814.46360504691
 31
0.0
  0
LINE
  5
B9BE
330
1F
100
AcDbEntity
  8
AM_7
 48
0.5
100
AcDbLine
 10
2511.458841928684
 20
1780.782551885289
 30
0.0
 11
2500.282572874273
 21
1780.782551885289
 31
0.0
  0
LINE
  5
B9BF
330
1F
100
AcDbEntity
  8
AM_7
 48
0.5
100
AcDbLine
 10
2521.610327252591
 20
1808.782551885289
 30
0.0
 11
2510.13108683511
 21
1808.782551885289
 31
0.0
  0
LINE
  5
B9C0
330
1F
100
AcDbEntity
  8
AM_7
 48
0.5
100
AcDbLine
 10
2505.870707401478
 20
1873.049290776881
 30
0.0
 11
2505.870707401478
 21
1860.51582825247
 31
0.0
  0
LINE
  5
B9C3
330
1F
100
AcDbEntity
  8
AM_0
100
AcDbLine
 10
2534.870707401478
 20
1862.882565618195
 30
0.0
 11
2534.870707401478
 21
1872.782559514676
 31
0.0
  0
LINE
  5
B9C4
330
1F
100
AcDbEntity
  8
AM_0
100
AcDbLine
 10
2556.870707401478
 20
1864.782559514675
 30
0.0
 11
2534.870707401478
 21
1864.782559514675
 31
0.0
  0
LINE
  5
B9C6
330
1F
100
AcDbEntity
  8
AM_0
100
AcDbLine
 10
2534.870707401478
 20
1774.782563329382
 30
0.0
 11
2534.870707401478
 21
1784.682561040564
 31
0.0
  0
LINE
  5
B9C7
330
1F
100
AcDbEntity
  8
AM_0
100
AcDbLine
 10
2556.870707401478
 20
1776.682561040564
 30
0.0
 11
2534.870707401478
 21
1776.682561040564
 31
0.0
  0
LINE
  5
B9CB
330
1F
100
AcDbEntity
  8
AM_0
100
AcDbLine
 10
2534.870707401478
 20
1871.282559514676
 30
0.0
 11
2530.570711979114
 21
1871.282559514676
 31
0.0
  0
LINE
  5
B9CC
330
1F
100
AcDbEntity
  8
AM_0
100
AcDbLine
 10
2530.570711979114
 20
1866.282559514676
 30
0.0
 11
2530.570711979114
 21
1871.282559514676
 31
0.0
  0
LINE
  5
B9CD
330
1F
100
AcDbEntity
  8
AM_0
100
AcDbLine
 10
2534.870707401478
 20
1866.282559514676
 30
0.0
 11
2530.570711979114
 21
1866.282559514676
 31
0.0
  0
LINE
  5
B9CF
330
1F
100
AcDbEntity
  8
AM_7
100
AcDbLine
 10
2679.207919161041
 20
1884.782559723291
 30
0.0
 11
2679.207919161041
 21
1832.782566190395
 31
0.0
  0
LINE
  5
B9D0
330
1F
100
AcDbEntity
  8
AM_0
100
AcDbLine
 10
2667.207919161041
 20
1874.782559514676
 30
0.0
 11
2667.207919161041
 21
1872.782559514676
 31
0.0
  0
LINE
  5
B9D1
330
1F
100
AcDbEntity
  8
AM_0
100
AcDbLine
 10
2724.207924883087
 20
1874.782559514676
 30
0.0
 11
2724.207924883087
 21
1842.782558561001
 31
0.0
  0
LINE
  5
B9D5
330
1F
100
AcDbEntity
  8
AM_0
100
AcDbLine
 10
2667.207919161041
 20
1844.782558561001
 30
0.0
 11
2694.83695231595
 21
1844.782558096088
 31
0.0
  0
LINE
  5
B9D6
330
1F
100
AcDbEntity
  8
AM_0
100
AcDbLine
 10
2667.207919161041
 20
1872.782559514676
 30
0.0
 11
2694.8369521807
 21
1872.782559979588
 31
0.0
  0
LINE
  5
B9D9
330
1F
100
AcDbEntity
  8
AM_0
100
AcDbLine
 10
2667.207919161041
 20
1844.782558561001
 30
0.0
 11
2667.207919161041
 21
1842.782558561001
 31
0.0
  0
LINE
  5
B9DB
330
1F
100
AcDbEntity
  8
AM_0
100
AcDbLine
 10
2667.207919161041
 20
1874.782559514676
 30
0.0
 11
2691.373827326728
 21
1874.782559514676
 31
0.0
  0
LINE
  5
B9DD
330
1F
100
AcDbEntity
  8
AM_0
100
AcDbLine
 10
2667.207919161041
 20
1842.782558561001
 30
0.0
 11
2691.373827326728
 21
1842.782558561001
 31
0.0
  0
LINE
  5
B9DE
330
1F
100
AcDbEntity
  8
AM_7
 48
0.5
100
AcDbLine
 10
2715.583069841582
 20
1868.78256046835
 30
0.0
 11
2702.832764665801
 21
1868.78256046835
 31
0.0
  0
LINE
  5
B9DF
330
1F
100
AcDbEntity
  8
AM_7
 48
0.5
100
AcDbLine
 10
2725.554337541778
 20
1848.782558561001
 30
0.0
 11
2712.861512224396
 21
1848.782558561001
 31
0.0
  0
LINE
  5
B9E0
330
1F
100
AcDbEntity
  8
AM_7
 48
0.5
100
AcDbLine
 10
2709.207917253692
 20
1875.229711175595
 30
0.0
 11
2709.207917253692
 21
1862.335409761105
 31
0.0
  0
LINE
  5
B9E1
330
1F
100
AcDbEntity
  8
AM_7
 48
0.5
100
AcDbLine
 10
2719.207924883087
 20
1855.128972173367
 30
0.0
 11
2719.207924883087
 21
1842.436144948635
 31
0.0
  0
LINE
  5
B9E3
330
1F
100
AcDbEntity
  8
AM_0
100
AcDbLine
 10
2536.870707401478
 20
1881.782559514675
 30
0.0
 11
2554.870705494129
 21
1881.782559514675
 31
0.0
  0
LINE
  5
B9E4
330
1F
100
AcDbEntity
  8
AM_0
100
AcDbLine
 10
2661.207919161041
 20
1874.782559514676
 30
0.0
 11
2661.207919161041
 21
1872.782559514676
 31
0.0
  0
LINE
  5
B9E5
330
1F
100
AcDbEntity
  8
AM_0
100
AcDbLine
 10
2634.207926790436
 20
1874.782559514676
 30
0.0
 11
2634.207926790436
 21
1842.782558561001
 31
0.0
  0
LINE
  5
B9E6
330
1F
100
AcDbEntity
  8
AM_0
100
AcDbLine
 10
2661.207919161041
 20
1874.782559514676
 30
0.0
 11
2634.207926790436
 21
1874.782559514676
 31
0.0
  0
LINE
  5
B9E7
330
1F
100
AcDbEntity
  8
AM_0
100
AcDbLine
 10
2661.207919161041
 20
1842.782558561001
 30
0.0
 11
2634.207926790436
 21
1842.782558561001
 31
0.0
  0
LINE
  5
B9E8
330
1F
100
AcDbEntity
  8
AM_0
100
AcDbLine
 10
2694.83695231595
 20
1844.782558096088
 30
0.0
 11
2661.207919161041
 21
1844.782558561001
 31
0.0
  0
LINE
  5
B9E9
330
1F
100
AcDbEntity
  8
AM_0
100
AcDbLine
 10
2680.796753923614
 20
1872.782559514676
 30
0.0
 11
2661.207919161041
 21
1872.782559514676
 31
0.0
  0
LINE
  5
B9EA
330
1F
100
AcDbEntity
  8
AM_0
100
AcDbLine
 10
2661.207919161041
 20
1844.782558561001
 30
0.0
 11
2661.207919161041
 21
1842.782558561001
 31
0.0
  0
LINE
  5
B9EB
330
1F
100
AcDbEntity
  8
AM_7
 48
0.5
100
AcDbLine
 10
2649.207926432808
 20
1854.463612676296
 30
0.0
 11
2649.207926432808
 21
1843.101504445705
 31
0.0
  0
LINE
  5
B9EC
330
1F
100
AcDbEntity
  8
AM_7
 48
0.5
100
AcDbLine
 10
2644.796057502945
 20
1868.78256046835
 30
0.0
 11
2633.619796077927
 21
1868.78256046835
 31
0.0
  0
LINE
  5
B9ED
330
1F
100
AcDbEntity
  8
AM_7
 48
0.5
100
AcDbLine
 10
2654.947546641548
 20
1848.782558561001
 30
0.0
 11
2643.468306224068
 21
1848.782558561001
 31
0.0
  0
LINE
  5
B9EE
330
1F
100
AcDbEntity
  8
AM_7
 48
0.5
100
AcDbLine
 10
2639.207926790436
 20
1875.04929125372
 30
0.0
 11
2639.207926790436
 21
1862.51582968298
 31
0.0
  0
LINE
  5
B9EF
330
1F
100
AcDbEntity
  8
AM_0
100
AcDbLine
 10
2668.157923738677
 20
1872.782559514676
 30
0.0
 11
2668.157923738677
 21
1844.782558561001
 31
0.0
  0
LINE
  5
BA05
330
1F
100
AcDbEntity
  8
AM_0
100
AcDbLine
 10
2556.870705494129
 20
1879.782559514676
 30
0.0
 11
2556.870705494129
 21
1874.782559514676
 31
0.0
  0
LINE
  5
BA06
330
1F
100
AcDbEntity
  8
AM_0
100
AcDbLine
 10
2534.870707401478
 20
1879.782559514676
 30
0.0
 11
2534.870707401478
 21
1874.782559514676
 31
0.0
  0
LINE
  5
BA07
330
1F
100
AcDbEntity
  8
AM_0
100
AcDbLine
 10
2670.207919161041
 20
1881.782559753093
 30
0.0
 11
2688.207917253692
 21
1881.782559753093
 31
0.0
  0
LINE
  5
BA08
330
1F
100
AcDbEntity
  8
AM_0
100
AcDbLine
 10
2690.207917253692
 20
1879.782559514675
 30
0.0
 11
2690.207917253692
 21
1874.782559514676
 31
0.0
  0
LINE
  5
BA09
330
1F
100
AcDbEntity
  8
AM_0
100
AcDbLine
 10
2668.207919161041
 20
1879.782559514675
 30
0.0
 11
2668.207919161041
 21
1874.782559514676
 31
0.0
  0
LINE
  5
BA0A
330
1F
100
AcDbEntity
  8
AM_0
100
AcDbLine
 10
2690.207917253692
 20
1837.782558561
 30
0.0
 11
2690.207917253692
 21
1842.782558561001
 31
0.0
  0
LINE
  5
BA0B
330
1F
100
AcDbEntity
  8
AM_0
100
AcDbLine
 10
2688.207917253692
 20
1835.782566190396
 30
0.0
 11
2670.207919161041
 21
1835.782566190396
 31
0.0
  0
LINE
  5
BA0C
330
1F
100
AcDbEntity
  8
AM_0
100
AcDbLine
 10
2668.207919161041
 20
1837.782558561
 30
0.0
 11
2668.207919161041
 21
1842.782558561001
 31
0.0
  0
LINE
  5
BA0D
330
1F
100
AcDbEntity
  8
AM_0
100
AcDbLine
 10
2556.870705494129
 20
1767.782559514684
 30
0.0
 11
2556.870705494129
 21
1772.782559514684
 31
0.0
  0
LINE
  5
BA0E
330
1F
100
AcDbEntity
  8
AM_0
100
AcDbLine
 10
2554.870705494129
 20
1765.782559514684
 30
0.0
 11
2536.870707401478
 21
1765.782559514684
 31
0.0
  0
LINE
  5
BA0F
330
1F
100
AcDbEntity
  8
AM_0
100
AcDbLine
 10
2534.870707401478
 20
1767.782559514684
 30
0.0
 11
2534.870707401478
 21
1772.782559514684
 31
0.0
  0
CIRCLE
  5
BA19
330
1F
100
AcDbEntity
  8
AM_0
100
AcDbCircle
 10
2585.870705494129
 20
1780.782563329381
 30
0.0
 40
2.25
  0
CIRCLE
  5
BA1A
330
1F
100
AcDbEntity
  8
AM_0
100
AcDbCircle
 10
2585.870705494129
 20
1780.782563329381
 30
0.0
 40
4.0999999046326
  0
CIRCLE
  5
BA1B
330
1F
100
AcDbEntity
  8
AM_0
100
AcDbCircle
 10
2585.870705494129
 20
1866.782559514675
 30
0.0
 40
4.0999999046326
  0
CIRCLE
  5
BA1C
330
1F
100
AcDbEntity
  8
AM_0
100
AcDbCircle
 10
2585.870705494129
 20
1866.782559514675
 30
0.0
 40
2.25
  0
CIRCLE
  5
BA1D
330
1F
100
AcDbEntity
  8
AM_0
100
AcDbCircle
 10
2575.870705494129
 20
1838.782551885286
 30
0.0
 40
4.0999999046326
  0
CIRCLE
  5
BA1E
330
1F
100
AcDbEntity
  8
AM_0
100
AcDbCircle
 10
2575.870705494129
 20
1838.782551885286
 30
0.0
 40
2.25
  0
CIRCLE
  5
BA1F
330
1F
100
AcDbEntity
  8
AM_0
100
AcDbCircle
 10
2575.870705494129
 20
1808.782567144078
 30
0.0
 40
4.0999999046326
  0
CIRCLE
  5
BA20
330
1F
100
AcDbEntity
  8
AM_0
100
AcDbCircle
 10
2575.870705494129
 20
1808.782567144078
 30
0.0
 40
2.25
  0
CIRCLE
  5
BA21
330
1F
100
AcDbEntity
  8
AM_0
100
AcDbCircle
 10
2515.870707043851
 20
1838.782551885286
 30
0.0
 40
2.25
  0
CIRCLE
  5
BA22
330
1F
100
AcDbEntity
  8
AM_0
100
AcDbCircle
 10
2515.870707043851
 20
1838.782551885286
 30
0.0
 40
4.0999999046326
  0
CIRCLE
  5
BA23
330
1F
100
AcDbEntity
  8
AM_0
100
AcDbCircle
 10
2505.870707401478
 20
1866.782559514675
 30
0.0
 40
4.0999999046326
  0
CIRCLE
  5
BA24
330
1F
100
AcDbEntity
  8
AM_0
100
AcDbCircle
 10
2505.870707401478
 20
1866.782559514675
 30
0.0
 40
2.25
  0
CIRCLE
  5
BA25
330
1F
100
AcDbEntity
  8
AM_0
100
AcDbCircle
 10
2515.870707043851
 20
1808.782551885289
 30
0.0
 40
2.25
  0
CIRCLE
  5
BA26
330
1F
100
AcDbEntity
  8
AM_0
100
AcDbCircle
 10
2515.870707043851
 20
1808.782551885289
 30
0.0
 40
4.0999999046326
  0
CIRCLE
  5
BA27
330
1F
100
AcDbEntity
  8
AM_0
100
AcDbCircle
 10
2505.870707401478
 20
1780.782551885289
 30
0.0
 40
4.0999999046326
  0
CIRCLE
  5
BA28
330
1F
100
AcDbEntity
  8
AM_0
100
AcDbCircle
 10
2505.870707401478
 20
1780.782551885289
 30
0.0
 40
2.25
  0
CIRCLE
  5
BA2F
330
1F
100
AcDbEntity
  8
AM_0
100
AcDbCircle
 10
2709.207917253692
 20
1868.78256046835
 30
0.0
 40
4.0999999046326
  0
CIRCLE
  5
BA30
330
1F
100
AcDbEntity
  8
AM_0
100
AcDbCircle
 10
2709.207917253692
 20
1868.78256046835
 30
0.0
 40
2.25
  0
CIRCLE
  5
BA31
330
1F
100
AcDbEntity
  8
AM_0
100
AcDbCircle
 10
2719.207924883087
 20
1848.782558561001
 30
0.0
 40
4.0999999046326
  0
CIRCLE
  5
BA32
330
1F
100
AcDbEntity
  8
AM_0
100
AcDbCircle
 10
2719.207924883087
 20
1848.782558561001
 30
0.0
 40
2.25
  0
CIRCLE
  5
BA33
330
1F
100
AcDbEntity
  8
AM_0
100
AcDbCircle
 10
2649.207926432808
 20
1848.782558561001
 30
0.0
 40
2.25
  0
CIRCLE
  5
BA34
330
1F
100
AcDbEntity
  8
AM_0
100
AcDbCircle
 10
2649.207926432808
 20
1848.782558561001
 30
0.0
 40
4.0999999046326
  0
CIRCLE
  5
BA35
330
1F
100
AcDbEntity
  8
AM_0
100
AcDbCircle
 10
2639.207926790436
 20
1868.78256046835
 30
0.0
 40
4.0999999046326
  0
CIRCLE
  5
BA36
330
1F
100
AcDbEntity
  8
AM_0
100
AcDbCircle
 10
2639.207926790436
 20
1868.78256046835
 30
0.0
 40
2.25
  0
ARC
  5
BA38
330
1F
100
AcDbEntity
  8
AM_0
100
AcDbCircle
 10
2554.870705494129
 20
1879.782559514676
 30
0.0
 40
2.0
100
AcDbArc
 50
359.9999949910365
 51
89.99999749553131
  0
ARC
  5
BA39
330
1F
100
AcDbEntity
  8
AM_0
100
AcDbCircle
 10
2536.870707401478
 20
1879.782559514676
 30
0.0
 40
2.0
100
AcDbArc
 50
89.99999749553131
 51
180.0
  0
ARC
  5
BA3A
330
1F
100
AcDbEntity
  8
AM_0
100
AcDbCircle
 10
2688.207917253692
 20
1879.782559514675
 30
0.0
 40
2.0
100
AcDbArc
 50
359.9999949910365
 51
89.99999749553131
  0
ARC
  5
BA3B
330
1F
100
AcDbEntity
  8
AM_0
100
AcDbCircle
 10
2670.207919161041
 20
1879.782559514675
 30
0.0
 40
2.0
100
AcDbArc
 50
89.99999749553131
 51
180.0
  0
ARC
  5
BA3C
330
1F
100
AcDbEntity
  8
AM_0
100
AcDbCircle
 10
2688.207917253692
 20
1837.782558561
 30
0.0
 40
2.0
100
AcDbArc
 50
269.9999993167831
 51
0.0000086514279156
  0
ARC
  5
BA3D
330
1F
100
AcDbEntity
  8
AM_0
100
AcDbCircle
 10
2670.207919161041
 20
1837.782558561
 30
0.0
 40
2.0
100
AcDbArc
 50
180.0
 51
270.0000025044687
  0
ARC
  5
BA3E
330
1F
100
AcDbEntity
  8
AM_0
100
AcDbCircle
 10
2536.870707401478
 20
1767.782559514684
 30
0.0
 40
2.0
100
AcDbArc
 50
180.0
 51
270.0000025044687
  0
ARC
  5
BA3F
330
1F
100
AcDbEntity
  8
AM_0
100
AcDbCircle
 10
2554.870705494129
 20
1767.782559514684
 30
0.0
 40
2.0
100
AcDbArc
 50
269.9999993167831
 51
0.0000086514279156
  0
POLYLINE
  5
BA45
330
1F
100
AcDbEntity
  8
AM_0
100
AcDb3dPolyline
 66
     1
 10
0.0
 20
0.0
 30
0.0
 70
     8
  0
VERTEX
  5
BA46
330
BA45
100
AcDbEntity
  8
AM_0
100
AcDbVertex
100
AcDb3dPolylineVertex
 10
2540.3706674204
 20
1867.182591008826
 30
0.0
 70
    32
  0
VERTEX
  5
BA47
330
BA45
100
AcDbEntity
  8
AM_0
100
AcDbVertex
100
AcDb3dPolylineVertex
 10
2540.338167420399
 20
1867.182591008826
 30
0.0
 70
    32
  0
VERTEX
  5
BA48
330
BA45
100
AcDbEntity
  8
AM_0
100
AcDbVertex
100
AcDb3dPolylineVertex
 10
2540.305567420399
 20
1867.184591008826
 30
0.0
 70
    32
  0
VERTEX
  5
BA49
330
BA45
100
AcDbEntity
  8
AM_0
100
AcDbVertex
100
AcDb3dPolylineVertex
 10
2540.273067420399
 20
1867.186591008826
 30
0.0
 70
    32
  0
VERTEX
  5
BA4A
330
BA45
100
AcDbEntity
  8
AM_0
100
AcDbVertex
100
AcDb3dPolylineVertex
 10
2540.2406674204
 20
1867.190591008826
 30
0.0
 70
    32
  0
VERTEX
  5
BA4B
330
BA45
100
AcDbEntity
  8
AM_0
100
AcDbVertex
100
AcDb3dPolylineVertex
 10
2540.2082674204
 20
1867.194591008826
 30
0.0
 70
    32
  0
VERTEX
  5
BA4C
330
BA45
100
AcDbEntity
  8
AM_0
100
AcDbVertex
100
AcDb3dPolylineVertex
 10
2540.175967420399
 20
1867.199591008826
 30
0.0
 70
    32
  0
VERTEX
  5
BA4D
330
BA45
100
AcDbEntity
  8
AM_0
100
AcDbVertex
100
AcDb3dPolylineVertex
 10
2540.143767420399
 20
1867.206591008826
 30
0.0
 70
    32
  0
VERTEX
  5
BA4E
330
BA45
100
AcDbEntity
  8
AM_0
100
AcDbVertex
100
AcDb3dPolylineVertex
 10
2540.111767420399
 20
1867.213591008826
 30
0.0
 70
    32
  0
VERTEX
  5
BA4F
330
BA45
100
AcDbEntity
  8
AM_0
100
AcDbVertex
100
AcDb3dPolylineVertex
 10
2540.079967420399
 20
1867.221591008826
 30
0.0
 70
    32
  0
VERTEX
  5
BA50
330
BA45
100
AcDbEntity
  8
AM_0
100
AcDbVertex
100
AcDb3dPolylineVertex
 10
2540.0482674204
 20
1867.230591008826
 30
0.0
 70
    32
  0
VERTEX
  5
BA51
330
BA45
100
AcDbEntity
  8
AM_0
100
AcDbVertex
100
AcDb3dPolylineVertex
 10
2540.0167674204
 20
1867.240591008826
 30
0.0
 70
    32
  0
VERTEX
  5
BA52
330
BA45
100
AcDbEntity
  8
AM_0
100
AcDbVertex
100
AcDb3dPolylineVertex
 10
2539.985467420399
 20
1867.251591008826
 30
0.0
 70
    32
  0
VERTEX
  5
BA53
330
BA45
100
AcDbEntity
  8
AM_0
100
AcDbVertex
100
AcDb3dPolylineVertex
 10
2539.954367420399
 20
1867.263591008826
 30
0.0
 70
    32
  0
VERTEX
  5
BA54
330
BA45
100
AcDbEntity
  8
AM_0
100
AcDbVertex
100
AcDb3dPolylineVertex
 10
2539.923567420399
 20
1867.275591008826
 30
0.0
 70
    32
  0
VERTEX
  5
BA55
330
BA45
100
AcDbEntity
  8
AM_0
100
AcDbVertex
100
AcDb3dPolylineVertex
 10
2539.8930674204
 20
1867.289591008826
 30
0.0
 70
    32
  0
VERTEX
  5
BA56
330
BA45
100
AcDbEntity
  8
AM_0
100
AcDbVertex
100
AcDb3dPolylineVertex
 10
2539.862867420399
 20
1867.304591008826
 30
0.0
 70
    32
  0
VERTEX
  5
BA57
330
BA45
100
AcDbEntity
  8
AM_0
100
AcDbVertex
100
AcDb3dPolylineVertex
 10
2539.8328674204
 20
1867.319591008826
 30
0.0
 70
    32
  0
VERTEX
  5
BA58
330
BA45
100
AcDbEntity
  8
AM_0
100
AcDbVertex
100
AcDb3dPolylineVertex
 10
2539.8032674204
 20
1867.336591008825
 30
0.0
 70
    32
  0
VERTEX
  5
BA59
330
BA45
100
AcDbEntity
  8
AM_0
100
AcDbVertex
100
AcDb3dPolylineVertex
 10
2539.7739674204
 20
1867.353591008826
 30
0.0
 70
    32
  0
VERTEX
  5
BA5A
330
BA45
100
AcDbEntity
  8
AM_0
100
AcDbVertex
100
AcDb3dPolylineVertex
 10
2539.745067420399
 20
1867.371591008826
 30
0.0
 70
    32
  0
VERTEX
  5
BA5B
330
BA45
100
AcDbEntity
  8
AM_0
100
AcDbVertex
100
AcDb3dPolylineVertex
 10
2539.716567420399
 20
1867.390591008825
 30
0.0
 70
    32
  0
VERTEX
  5
BA5C
330
BA45
100
AcDbEntity
  8
AM_0
100
AcDbVertex
100
AcDb3dPolylineVertex
 10
2539.688367420399
 20
1867.410591008826
 30
0.0
 70
    32
  0
VERTEX
  5
BA5D
330
BA45
100
AcDbEntity
  8
AM_0
100
AcDbVertex
100
AcDb3dPolylineVertex
 10
2539.660667420399
 20
1867.430591008826
 30
0.0
 70
    32
  0
VERTEX
  5
BA5E
330
BA45
100
AcDbEntity
  8
AM_0
100
AcDbVertex
100
AcDb3dPolylineVertex
 10
2539.633367420399
 20
1867.452591008825
 30
0.0
 70
    32
  0
VERTEX
  5
BA5F
330
BA45
100
AcDbEntity
  8
AM_0
100
AcDbVertex
100
AcDb3dPolylineVertex
 10
2539.6065674204
 20
1867.474591008826
 30
0.0
 70
    32
  0
VERTEX
  5
BA60
330
BA45
100
AcDbEntity
  8
AM_0
100
AcDbVertex
100
AcDb3dPolylineVertex
 10
2539.5801674204
 20
1867.497591008826
 30
0.0
 70
    32
  0
VERTEX
  5
BA61
330
BA45
100
AcDbEntity
  8
AM_0
100
AcDbVertex
100
AcDb3dPolylineVertex
 10
2539.5541674204
 20
1867.521591008826
 30
0.0
 70
    32
  0
VERTEX
  5
BA62
330
BA45
100
AcDbEntity
  8
AM_0
100
AcDbVertex
100
AcDb3dPolylineVertex
 10
2539.528767420399
 20
1867.545591008825
 30
0.0
 70
    32
  0
VERTEX
  5
BA63
330
BA45
100
AcDbEntity
  8
AM_0
100
AcDbVertex
100
AcDb3dPolylineVertex
 10
2539.503867420399
 20
1867.570591008826
 30
0.0
 70
    32
  0
VERTEX
  5
BA64
330
BA45
100
AcDbEntity
  8
AM_0
100
AcDbVertex
100
AcDb3dPolylineVertex
 10
2539.4794674204
 20
1867.596591008826
 30
0.0
 70
    32
  0
VERTEX
  5
BA65
330
BA45
100
AcDbEntity
  8
AM_0
100
AcDbVertex
100
AcDb3dPolylineVertex
 10
2539.455567420399
 20
1867.623591008826
 30
0.0
 70
    32
  0
VERTEX
  5
BA66
330
BA45
100
AcDbEntity
  8
AM_0
100
AcDbVertex
100
AcDb3dPolylineVertex
 10
2539.4322674204
 20
1867.651591008826
 30
0.0
 70
    32
  0
VERTEX
  5
BA67
330
BA45
100
AcDbEntity
  8
AM_0
100
AcDbVertex
100
AcDb3dPolylineVertex
 10
2539.4095674204
 20
1867.679591008826
 30
0.0
 70
    32
  0
VERTEX
  5
BA68
330
BA45
100
AcDbEntity
  8
AM_0
100
AcDbVertex
100
AcDb3dPolylineVertex
 10
2539.387367420399
 20
1867.707591008825
 30
0.0
 70
    32
  0
VERTEX
  5
BA69
330
BA45
100
AcDbEntity
  8
AM_0
100
AcDbVertex
100
AcDb3dPolylineVertex
 10
2539.3657674204
 20
1867.737591008826
 30
0.0
 70
    32
  0
VERTEX
  5
BA6A
330
BA45
100
AcDbEntity
  8
AM_0
100
AcDbVertex
100
AcDb3dPolylineVertex
 10
2539.344767420399
 20
1867.767591008826
 30
0.0
 70
    32
  0
VERTEX
  5
BA6B
330
BA45
100
AcDbEntity
  8
AM_0
100
AcDbVertex
100
AcDb3dPolylineVertex
 10
2539.324467420399
 20
1867.798591008826
 30
0.0
 70
    32
  0
VERTEX
  5
BA6C
330
BA45
100
AcDbEntity
  8
AM_0
100
AcDbVertex
100
AcDb3dPolylineVertex
 10
2539.304767420399
 20
1867.829591008825
 30
0.0
 70
    32
  0
VERTEX
  5
BA6D
330
BA45
100
AcDbEntity
  8
AM_0
100
AcDbVertex
100
AcDb3dPolylineVertex
 10
2539.285667420399
 20
1867.861591008826
 30
0.0
 70
    32
  0
VERTEX
  5
BA6E
330
BA45
100
AcDbEntity
  8
AM_0
100
AcDbVertex
100
AcDb3dPolylineVertex
 10
2539.2672674204
 20
1867.893591008825
 30
0.0
 70
    32
  0
VERTEX
  5
BA6F
330
BA45
100
AcDbEntity
  8
AM_0
100
AcDbVertex
100
AcDb3dPolylineVertex
 10
2539.249467420399
 20
1867.926591008826
 30
0.0
 70
    32
  0
VERTEX
  5
BA70
330
BA45
100
AcDbEntity
  8
AM_0
100
AcDbVertex
100
AcDb3dPolylineVertex
 10
2539.232367420399
 20
1867.959591008826
 30
0.0
 70
    32
  0
VERTEX
  5
BA71
330
BA45
100
AcDbEntity
  8
AM_0
100
AcDbVertex
100
AcDb3dPolylineVertex
 10
2539.2159674204
 20
1867.993591008826
 30
0.0
 70
    32
  0
VERTEX
  5
BA72
330
BA45
100
AcDbEntity
  8
AM_0
100
AcDbVertex
100
AcDb3dPolylineVertex
 10
2539.2002674204
 20
1868.028591008826
 30
0.0
 70
    32
  0
VERTEX
  5
BA73
330
BA45
100
AcDbEntity
  8
AM_0
100
AcDbVertex
100
AcDb3dPolylineVertex
 10
2539.185267420399
 20
1868.063591008826
 30
0.0
 70
    32
  0
VERTEX
  5
BA74
330
BA45
100
AcDbEntity
  8
AM_0
100
AcDbVertex
100
AcDb3dPolylineVertex
 10
2539.1709674204
 20
1868.098591008825
 30
0.0
 70
    32
  0
VERTEX
  5
BA75
330
BA45
100
AcDbEntity
  8
AM_0
100
AcDbVertex
100
AcDb3dPolylineVertex
 10
2539.157367420399
 20
1868.134591008826
 30
0.0
 70
    32
  0
VERTEX
  5
BA76
330
BA45
100
AcDbEntity
  8
AM_0
100
AcDbVertex
100
AcDb3dPolylineVertex
 10
2539.144567420399
 20
1868.170591008826
 30
0.0
 70
    32
  0
VERTEX
  5
BA77
330
BA45
100
AcDbEntity
  8
AM_0
100
AcDbVertex
100
AcDb3dPolylineVertex
 10
2539.132467420399
 20
1868.206591008825
 30
0.0
 70
    32
  0
VERTEX
  5
BA78
330
BA45
100
AcDbEntity
  8
AM_0
100
AcDbVertex
100
AcDb3dPolylineVertex
 10
2539.1211674204
 20
1868.243591008825
 30
0.0
 70
    32
  0
VERTEX
  5
BA79
330
BA45
100
AcDbEntity
  8
AM_0
100
AcDbVertex
100
AcDb3dPolylineVertex
 10
2539.110567420399
 20
1868.280591008826
 30
0.0
 70
    32
  0
VERTEX
  5
BA7A
330
BA45
100
AcDbEntity
  8
AM_0
100
AcDbVertex
100
AcDb3dPolylineVertex
 10
2539.100667420399
 20
1868.318591008826
 30
0.0
 70
    32
  0
VERTEX
  5
BA7B
330
BA45
100
AcDbEntity
  8
AM_0
100
AcDbVertex
100
AcDb3dPolylineVertex
 10
2539.091667420399
 20
1868.355591008826
 30
0.0
 70
    32
  0
VERTEX
  5
BA7C
330
BA45
100
AcDbEntity
  8
AM_0
100
AcDbVertex
100
AcDb3dPolylineVertex
 10
2539.0833674204
 20
1868.393591008826
 30
0.0
 70
    32
  0
VERTEX
  5
BA7D
330
BA45
100
AcDbEntity
  8
AM_0
100
AcDbVertex
100
AcDb3dPolylineVertex
 10
2539.075767420399
 20
1868.431591008826
 30
0.0
 70
    32
  0
VERTEX
  5
BA7E
330
BA45
100
AcDbEntity
  8
AM_0
100
AcDbVertex
100
AcDb3dPolylineVertex
 10
2539.069067420399
 20
1868.470591008826
 30
0.0
 70
    32
  0
VERTEX
  5
BA7F
330
BA45
100
AcDbEntity
  8
AM_0
100
AcDbVertex
100
AcDb3dPolylineVertex
 10
2539.063067420399
 20
1868.508591008826
 30
0.0
 70
    32
  0
VERTEX
  5
BA80
330
BA45
100
AcDbEntity
  8
AM_0
100
AcDbVertex
100
AcDb3dPolylineVertex
 10
2539.057967420399
 20
1868.547591008826
 30
0.0
 70
    32
  0
VERTEX
  5
BA81
330
BA45
100
AcDbEntity
  8
AM_0
100
AcDbVertex
100
AcDb3dPolylineVertex
 10
2539.0535674204
 20
1868.586591008826
 30
0.0
 70
    32
  0
VERTEX
  5
BA82
330
BA45
100
AcDbEntity
  8
AM_0
100
AcDbVertex
100
AcDb3dPolylineVertex
 10
2539.0499674204
 20
1868.625591008825
 30
0.0
 70
    32
  0
VERTEX
  5
BA83
330
BA45
100
AcDbEntity
  8
AM_0
100
AcDbVertex
100
AcDb3dPolylineVertex
 10
2539.047167420399
 20
1868.664591008825
 30
0.0
 70
    32
  0
VERTEX
  5
BA84
330
BA45
100
AcDbEntity
  8
AM_0
100
AcDbVertex
100
AcDb3dPolylineVertex
 10
2539.0451674204
 20
1868.703591008826
 30
0.0
 70
    32
  0
VERTEX
  5
BA85
330
BA45
100
AcDbEntity
  8
AM_0
100
AcDbVertex
100
AcDb3dPolylineVertex
 10
2539.043967420399
 20
1868.743591008826
 30
0.0
 70
    32
  0
VERTEX
  5
BA86
330
BA45
100
AcDbEntity
  8
AM_0
100
AcDbVertex
100
AcDb3dPolylineVertex
 10
2539.043567420399
 20
1868.782591008826
 30
0.0
 70
    32
  0
VERTEX
  5
BA87
330
BA45
100
AcDbEntity
  8
AM_0
100
AcDbVertex
100
AcDb3dPolylineVertex
 10
2539.043967420399
 20
1868.821591008826
 30
0.0
 70
    32
  0
VERTEX
  5
BA88
330
BA45
100
AcDbEntity
  8
AM_0
100
AcDbVertex
100
AcDb3dPolylineVertex
 10
2539.0451674204
 20
1868.860591008826
 30
0.0
 70
    32
  0
VERTEX
  5
BA89
330
BA45
100
AcDbEntity
  8
AM_0
100
AcDbVertex
100
AcDb3dPolylineVertex
 10
2539.047167420399
 20
1868.900591008826
 30
0.0
 70
    32
  0
VERTEX
  5
BA8A
330
BA45
100
AcDbEntity
  8
AM_0
100
AcDbVertex
100
AcDb3dPolylineVertex
 10
2539.0499674204
 20
1868.939591008826
 30
0.0
 70
    32
  0
VERTEX
  5
BA8B
330
BA45
100
AcDbEntity
  8
AM_0
100
AcDbVertex
100
AcDb3dPolylineVertex
 10
2539.0535674204
 20
1868.978591008826
 30
0.0
 70
    32
  0
VERTEX
  5
BA8C
330
BA45
100
AcDbEntity
  8
AM_0
100
AcDbVertex
100
AcDb3dPolylineVertex
 10
2539.057967420399
 20
1869.017591008826
 30
0.0
 70
    32
  0
VERTEX
  5
BA8D
330
BA45
100
AcDbEntity
  8
AM_0
100
AcDbVertex
100
AcDb3dPolylineVertex
 10
2539.063067420399
 20
1869.056591008826
 30
0.0
 70
    32
  0
VERTEX
  5
BA8E
330
BA45
100
AcDbEntity
  8
AM_0
100
AcDbVertex
100
AcDb3dPolylineVertex
 10
2539.069067420399
 20
1869.094591008826
 30
0.0
 70
    32
  0
VERTEX
  5
BA8F
330
BA45
100
AcDbEntity
  8
AM_0
100
AcDbVertex
100
AcDb3dPolylineVertex
 10
2539.075767420399
 20
1869.133591008826
 30
0.0
 70
    32
  0
VERTEX
  5
BA90
330
BA45
100
AcDbEntity
  8
AM_0
100
AcDbVertex
100
AcDb3dPolylineVertex
 10
2539.0833674204
 20
1869.171591008826
 30
0.0
 70
    32
  0
VERTEX
  5
BA91
330
BA45
100
AcDbEntity
  8
AM_0
100
AcDbVertex
100
AcDb3dPolylineVertex
 10
2539.091667420399
 20
1869.209591008826
 30
0.0
 70
    32
  0
VERTEX
  5
BA92
330
BA45
100
AcDbEntity
  8
AM_0
100
AcDbVertex
100
AcDb3dPolylineVertex
 10
2539.100667420399
 20
1869.246591008826
 30
0.0
 70
    32
  0
VERTEX
  5
BA93
330
BA45
100
AcDbEntity
  8
AM_0
100
AcDbVertex
100
AcDb3dPolylineVertex
 10
2539.110567420399
 20
1869.284591008826
 30
0.0
 70
    32
  0
VERTEX
  5
BA94
330
BA45
100
AcDbEntity
  8
AM_0
100
AcDbVertex
100
AcDb3dPolylineVertex
 10
2539.1211674204
 20
1869.321591008825
 30
0.0
 70
    32
  0
VERTEX
  5
BA95
330
BA45
100
AcDbEntity
  8
AM_0
100
AcDbVertex
100
AcDb3dPolylineVertex
 10
2539.132467420399
 20
1869.358591008825
 30
0.0
 70
    32
  0
VERTEX
  5
BA96
330
BA45
100
AcDbEntity
  8
AM_0
100
AcDbVertex
100
AcDb3dPolylineVertex
 10
2539.144567420399
 20
1869.394591008825
 30
0.0
 70
    32
  0
VERTEX
  5
BA97
330
BA45
100
AcDbEntity
  8
AM_0
100
AcDbVertex
100
AcDb3dPolylineVertex
 10
2539.157367420399
 20
1869.430591008826
 30
0.0
 70
    32
  0
VERTEX
  5
BA98
330
BA45
100
AcDbEntity
  8
AM_0
100
AcDbVertex
100
AcDb3dPolylineVertex
 10
2539.1709674204
 20
1869.466591008826
 30
0.0
 70
    32
  0
VERTEX
  5
BA99
330
BA45
100
AcDbEntity
  8
AM_0
100
AcDbVertex
100
AcDb3dPolylineVertex
 10
2539.185267420399
 20
1869.501591008826
 30
0.0
 70
    32
  0
VERTEX
  5
BA9A
330
BA45
100
AcDbEntity
  8
AM_0
100
AcDbVertex
100
AcDb3dPolylineVertex
 10
2539.2002674204
 20
1869.536591008826
 30
0.0
 70
    32
  0
VERTEX
  5
BA9B
330
BA45
100
AcDbEntity
  8
AM_0
100
AcDbVertex
100
AcDb3dPolylineVertex
 10
2539.2159674204
 20
1869.571591008826
 30
0.0
 70
    32
  0
VERTEX
  5
BA9C
330
BA45
100
AcDbEntity
  8
AM_0
100
AcDbVertex
100
AcDb3dPolylineVertex
 10
2539.232367420399
 20
1869.605591008826
 30
0.0
 70
    32
  0
VERTEX
  5
BA9D
330
BA45
100
AcDbEntity
  8
AM_0
100
AcDbVertex
100
AcDb3dPolylineVertex
 10
2539.249467420399
 20
1869.638591008826
 30
0.0
 70
    32
  0
VERTEX
  5
BA9E
330
BA45
100
AcDbEntity
  8
AM_0
100
AcDbVertex
100
AcDb3dPolylineVertex
 10
2539.2672674204
 20
1869.671591008826
 30
0.0
 70
    32
  0
VERTEX
  5
BA9F
330
BA45
100
AcDbEntity
  8
AM_0
100
AcDbVertex
100
AcDb3dPolylineVertex
 10
2539.285667420399
 20
1869.703591008826
 30
0.0
 70
    32
  0
VERTEX
  5
BAA0
330
BA45
100
AcDbEntity
  8
AM_0
100
AcDbVertex
100
AcDb3dPolylineVertex
 10
2539.304767420399
 20
1869.735591008826
 30
0.0
 70
    32
  0
VERTEX
  5
BAA1
330
BA45
100
AcDbEntity
  8
AM_0
100
AcDbVertex
100
AcDb3dPolylineVertex
 10
2539.324467420399
 20
1869.766591008826
 30
0.0
 70
    32
  0
VERTEX
  5
BAA2
330
BA45
100
AcDbEntity
  8
AM_0
100
AcDbVertex
100
AcDb3dPolylineVertex
 10
2539.344767420399
 20
1869.797591008826
 30
0.0
 70
    32
  0
VERTEX
  5
BAA3
330
BA45
100
AcDbEntity
  8
AM_0
100
AcDbVertex
100
AcDb3dPolylineVertex
 10
2539.3657674204
 20
1869.827591008825
 30
0.0
 70
    32
  0
VERTEX
  5
BAA4
330
BA45
100
AcDbEntity
  8
AM_0
100
AcDbVertex
100
AcDb3dPolylineVertex
 10
2539.387367420399
 20
1869.856591008826
 30
0.0
 70
    32
  0
VERTEX
  5
BAA5
330
BA45
100
AcDbEntity
  8
AM_0
100
AcDbVertex
100
AcDb3dPolylineVertex
 10
2539.4095674204
 20
1869.885591008826
 30
0.0
 70
    32
  0
VERTEX
  5
BAA6
330
BA45
100
AcDbEntity
  8
AM_0
100
AcDbVertex
100
AcDb3dPolylineVertex
 10
2539.4322674204
 20
1869.913591008826
 30
0.0
 70
    32
  0
VERTEX
  5
BAA7
330
BA45
100
AcDbEntity
  8
AM_0
100
AcDbVertex
100
AcDb3dPolylineVertex
 10
2539.455567420399
 20
1869.941591008826
 30
0.0
 70
    32
  0
VERTEX
  5
BAA8
330
BA45
100
AcDbEntity
  8
AM_0
100
AcDbVertex
100
AcDb3dPolylineVertex
 10
2539.4794674204
 20
1869.967591008826
 30
0.0
 70
    32
  0
VERTEX
  5
BAA9
330
BA45
100
AcDbEntity
  8
AM_0
100
AcDbVertex
100
AcDb3dPolylineVertex
 10
2539.503867420399
 20
1869.994591008826
 30
0.0
 70
    32
  0
VERTEX
  5
BAAA
330
BA45
100
AcDbEntity
  8
AM_0
100
AcDbVertex
100
AcDb3dPolylineVertex
 10
2539.528767420399
 20
1870.019591008826
 30
0.0
 70
    32
  0
VERTEX
  5
BAAB
330
BA45
100
AcDbEntity
  8
AM_0
100
AcDbVertex
100
AcDb3dPolylineVertex
 10
2539.5541674204
 20
1870.043591008826
 30
0.0
 70
    32
  0
VERTEX
  5
BAAC
330
BA45
100
AcDbEntity
  8
AM_0
100
AcDbVertex
100
AcDb3dPolylineVertex
 10
2539.5801674204
 20
1870.067591008826
 30
0.0
 70
    32
  0
VERTEX
  5
BAAD
330
BA45
100
AcDbEntity
  8
AM_0
100
AcDbVertex
100
AcDb3dPolylineVertex
 10
2539.6065674204
 20
1870.090591008825
 30
0.0
 70
    32
  0
VERTEX
  5
BAAE
330
BA45
100
AcDbEntity
  8
AM_0
100
AcDbVertex
100
AcDb3dPolylineVertex
 10
2539.633367420399
 20
1870.112591008826
 30
0.0
 70
    32
  0
VERTEX
  5
BAAF
330
BA45
100
AcDbEntity
  8
AM_0
100
AcDbVertex
100
AcDb3dPolylineVertex
 10
2539.660667420399
 20
1870.134591008826
 30
0.0
 70
    32
  0
VERTEX
  5
BAB0
330
BA45
100
AcDbEntity
  8
AM_0
100
AcDbVertex
100
AcDb3dPolylineVertex
 10
2539.688367420399
 20
1870.154591008826
 30
0.0
 70
    32
  0
VERTEX
  5
BAB1
330
BA45
100
AcDbEntity
  8
AM_0
100
AcDbVertex
100
AcDb3dPolylineVertex
 10
2539.716567420399
 20
1870.174591008825
 30
0.0
 70
    32
  0
VERTEX
  5
BAB2
330
BA45
100
AcDbEntity
  8
AM_0
100
AcDbVertex
100
AcDb3dPolylineVertex
 10
2539.745067420399
 20
1870.193591008825
 30
0.0
 70
    32
  0
VERTEX
  5
BAB3
330
BA45
100
AcDbEntity
  8
AM_0
100
AcDbVertex
100
AcDb3dPolylineVertex
 10
2539.7739674204
 20
1870.211591008825
 30
0.0
 70
    32
  0
VERTEX
  5
BAB4
330
BA45
100
AcDbEntity
  8
AM_0
100
AcDbVertex
100
AcDb3dPolylineVertex
 10
2539.8032674204
 20
1870.228591008826
 30
0.0
 70
    32
  0
VERTEX
  5
BAB5
330
BA45
100
AcDbEntity
  8
AM_0
100
AcDbVertex
100
AcDb3dPolylineVertex
 10
2539.8328674204
 20
1870.245591008826
 30
0.0
 70
    32
  0
VERTEX
  5
BAB6
330
BA45
100
AcDbEntity
  8
AM_0
100
AcDbVertex
100
AcDb3dPolylineVertex
 10
2539.862867420399
 20
1870.260591008826
 30
0.0
 70
    32
  0
VERTEX
  5
BAB7
330
BA45
100
AcDbEntity
  8
AM_0
100
AcDbVertex
100
AcDb3dPolylineVertex
 10
2539.8930674204
 20
1870.275591008826
 30
0.0
 70
    32
  0
VERTEX
  5
BAB8
330
BA45
100
AcDbEntity
  8
AM_0
100
AcDbVertex
100
AcDb3dPolylineVertex
 10
2539.923567420399
 20
1870.288591008826
 30
0.0
 70
    32
  0
VERTEX
  5
BAB9
330
BA45
100
AcDbEntity
  8
AM_0
100
AcDbVertex
100
AcDb3dPolylineVertex
 10
2539.954367420399
 20
1870.301591008826
 30
0.0
 70
    32
  0
VERTEX
  5
BABA
330
BA45
100
AcDbEntity
  8
AM_0
100
AcDbVertex
100
AcDb3dPolylineVertex
 10
2539.985467420399
 20
1870.313591008826
 30
0.0
 70
    32
  0
VERTEX
  5
BABB
330
BA45
100
AcDbEntity
  8
AM_0
100
AcDbVertex
100
AcDb3dPolylineVertex
 10
2540.0167674204
 20
1870.324591008826
 30
0.0
 70
    32
  0
VERTEX
  5
BABC
330
BA45
100
AcDbEntity
  8
AM_0
100
AcDbVertex
100
AcDb3dPolylineVertex
 10
2540.0482674204
 20
1870.334591008826
 30
0.0
 70
    32
  0
VERTEX
  5
BABD
330
BA45
100
AcDbEntity
  8
AM_0
100
AcDbVertex
100
AcDb3dPolylineVertex
 10
2540.079967420399
 20
1870.343591008826
 30
0.0
 70
    32
  0
VERTEX
  5
BABE
330
BA45
100
AcDbEntity
  8
AM_0
100
AcDbVertex
100
AcDb3dPolylineVertex
 10
2540.111767420399
 20
1870.351591008826
 30
0.0
 70
    32
  0
VERTEX
  5
BABF
330
BA45
100
AcDbEntity
  8
AM_0
100
AcDbVertex
100
AcDb3dPolylineVertex
 10
2540.143767420399
 20
1870.358591008826
 30
0.0
 70
    32
  0
VERTEX
  5
BAC0
330
BA45
100
AcDbEntity
  8
AM_0
100
AcDbVertex
100
AcDb3dPolylineVertex
 10
2540.175967420399
 20
1870.365591008826
 30
0.0
 70
    32
  0
VERTEX
  5
BAC1
330
BA45
100
AcDbEntity
  8
AM_0
100
AcDbVertex
100
AcDb3dPolylineVertex
 10
2540.2082674204
 20
1870.370591008826
 30
0.0
 70
    32
  0
VERTEX
  5
BAC2
330
BA45
100
AcDbEntity
  8
AM_0
100
AcDbVertex
100
AcDb3dPolylineVertex
 10
2540.2406674204
 20
1870.374591008826
 30
0.0
 70
    32
  0
VERTEX
  5
BAC3
330
BA45
100
AcDbEntity
  8
AM_0
100
AcDbVertex
100
AcDb3dPolylineVertex
 10
2540.273067420399
 20
1870.378591008826
 30
0.0
 70
    32
  0
VERTEX
  5
BAC4
330
BA45
100
AcDbEntity
  8
AM_0
100
AcDbVertex
100
AcDb3dPolylineVertex
 10
2540.305567420399
 20
1870.380591008826
 30
0.0
 70
    32
  0
VERTEX
  5
BAC5
330
BA45
100
AcDbEntity
  8
AM_0
100
AcDbVertex
100
AcDb3dPolylineVertex
 10
2540.338167420399
 20
1870.381591008825
 30
0.0
 70
    32
  0
VERTEX
  5
BAC6
330
BA45
100
AcDbEntity
  8
AM_0
100
AcDbVertex
100
AcDb3dPolylineVertex
 10
2540.3706674204
 20
1870.382591008826
 30
0.0
 70
    32
  0
SEQEND
  5
BAC7
330
BA45
100
AcDbEntity
  8
AM_0
  0
POLYLINE
  5
BAC8
330
1F
100
AcDbEntity
  8
AM_0
100
AcDb3dPolyline
 66
     1
 10
0.0
 20
0.0
 30
0.0
 70
     8
  0
VERTEX
  5
BAC9
330
BAC8
100
AcDbEntity
  8
AM_0
100
AcDbVertex
100
AcDb3dPolylineVertex
 10
2540.3706674204
 20
1870.382591008826
 30
0.0
 70
    32
  0
VERTEX
  5
BACA
330
BAC8
100
AcDbEntity
  8
AM_0
100
AcDbVertex
100
AcDb3dPolylineVertex
 10
2540.4061674204
 20
1870.381591008825
 30
0.0
 70
    32
  0
VERTEX
  5
BACB
330
BAC8
100
AcDbEntity
  8
AM_0
100
AcDbVertex
100
AcDb3dPolylineVertex
 10
2540.441567420399
 20
1870.380591008826
 30
0.0
 70
    32
  0
VERTEX
  5
BACC
330
BAC8
100
AcDbEntity
  8
AM_0
100
AcDbVertex
100
AcDb3dPolylineVertex
 10
2540.476967420399
 20
1870.378591008826
 30
0.0
 70
    32
  0
VERTEX
  5
BACD
330
BAC8
100
AcDbEntity
  8
AM_0
100
AcDbVertex
100
AcDb3dPolylineVertex
 10
2540.5122674204
 20
1870.374591008826
 30
0.0
 70
    32
  0
VERTEX
  5
BACE
330
BAC8
100
AcDbEntity
  8
AM_0
100
AcDbVertex
100
AcDb3dPolylineVertex
 10
2540.547467420399
 20
1870.370591008826
 30
0.0
 70
    32
  0
VERTEX
  5
BACF
330
BAC8
100
AcDbEntity
  8
AM_0
100
AcDbVertex
100
AcDb3dPolylineVertex
 10
2540.582567420399
 20
1870.365591008826
 30
0.0
 70
    32
  0
VERTEX
  5
BAD0
330
BAC8
100
AcDbEntity
  8
AM_0
100
AcDbVertex
100
AcDb3dPolylineVertex
 10
2540.6175674204
 20
1870.358591008826
 30
0.0
 70
    32
  0
VERTEX
  5
BAD1
330
BAC8
100
AcDbEntity
  8
AM_0
100
AcDbVertex
100
AcDb3dPolylineVertex
 10
2540.652467420399
 20
1870.351591008826
 30
0.0
 70
    32
  0
VERTEX
  5
BAD2
330
BAC8
100
AcDbEntity
  8
AM_0
100
AcDbVertex
100
AcDb3dPolylineVertex
 10
2540.687167420399
 20
1870.343591008826
 30
0.0
 70
    32
  0
VERTEX
  5
BAD3
330
BAC8
100
AcDbEntity
  8
AM_0
100
AcDbVertex
100
AcDb3dPolylineVertex
 10
2540.721567420399
 20
1870.334591008826
 30
0.0
 70
    32
  0
VERTEX
  5
BAD4
330
BAC8
100
AcDbEntity
  8
AM_0
100
AcDbVertex
100
AcDb3dPolylineVertex
 10
2540.755867420399
 20
1870.324591008826
 30
0.0
 70
    32
  0
VERTEX
  5
BAD5
330
BAC8
100
AcDbEntity
  8
AM_0
100
AcDbVertex
100
AcDb3dPolylineVertex
 10
2540.789967420399
 20
1870.313591008826
 30
0.0
 70
    32
  0
VERTEX
  5
BAD6
330
BAC8
100
AcDbEntity
  8
AM_0
100
AcDbVertex
100
AcDb3dPolylineVertex
 10
2540.823667420399
 20
1870.301591008826
 30
0.0
 70
    32
  0
VERTEX
  5
BAD7
330
BAC8
100
AcDbEntity
  8
AM_0
100
AcDbVertex
100
AcDb3dPolylineVertex
 10
2540.857267420399
 20
1870.288591008826
 30
0.0
 70
    32
  0
VERTEX
  5
BAD8
330
BAC8
100
AcDbEntity
  8
AM_0
100
AcDbVertex
100
AcDb3dPolylineVertex
 10
2540.8904674204
 20
1870.275591008826
 30
0.0
 70
    32
  0
VERTEX
  5
BAD9
330
BAC8
100
AcDbEntity
  8
AM_0
100
AcDbVertex
100
AcDb3dPolylineVertex
 10
2540.923367420399
 20
1870.260591008826
 30
0.0
 70
    32
  0
VERTEX
  5
BADA
330
BAC8
100
AcDbEntity
  8
AM_0
100
AcDbVertex
100
AcDb3dPolylineVertex
 10
2540.9559674204
 20
1870.245591008826
 30
0.0
 70
    32
  0
VERTEX
  5
BADB
330
BAC8
100
AcDbEntity
  8
AM_0
100
AcDbVertex
100
AcDb3dPolylineVertex
 10
2540.988167420399
 20
1870.228591008826
 30
0.0
 70
    32
  0
VERTEX
  5
BADC
330
BAC8
100
AcDbEntity
  8
AM_0
100
AcDbVertex
100
AcDb3dPolylineVertex
 10
2541.0199674204
 20
1870.211591008825
 30
0.0
 70
    32
  0
VERTEX
  5
BADD
330
BAC8
100
AcDbEntity
  8
AM_0
100
AcDbVertex
100
AcDb3dPolylineVertex
 10
2541.0514674204
 20
1870.193591008825
 30
0.0
 70
    32
  0
VERTEX
  5
BADE
330
BAC8
100
AcDbEntity
  8
AM_0
100
AcDbVertex
100
AcDb3dPolylineVertex
 10
2541.082567420399
 20
1870.174591008825
 30
0.0
 70
    32
  0
VERTEX
  5
BADF
330
BAC8
100
AcDbEntity
  8
AM_0
100
AcDbVertex
100
AcDb3dPolylineVertex
 10
2541.113167420399
 20
1870.154591008826
 30
0.0
 70
    32
  0
VERTEX
  5
BAE0
330
BAC8
100
AcDbEntity
  8
AM_0
100
AcDbVertex
100
AcDb3dPolylineVertex
 10
2541.143367420399
 20
1870.134591008826
 30
0.0
 70
    32
  0
VERTEX
  5
BAE1
330
BAC8
100
AcDbEntity
  8
AM_0
100
AcDbVertex
100
AcDb3dPolylineVertex
 10
2541.173067420399
 20
1870.112591008826
 30
0.0
 70
    32
  0
VERTEX
  5
BAE2
330
BAC8
100
AcDbEntity
  8
AM_0
100
AcDbVertex
100
AcDb3dPolylineVertex
 10
2541.202267420399
 20
1870.090591008825
 30
0.0
 70
    32
  0
VERTEX
  5
BAE3
330
BAC8
100
AcDbEntity
  8
AM_0
100
AcDbVertex
100
AcDb3dPolylineVertex
 10
2541.230967420399
 20
1870.067591008826
 30
0.0
 70
    32
  0
VERTEX
  5
BAE4
330
BAC8
100
AcDbEntity
  8
AM_0
100
AcDbVertex
100
AcDb3dPolylineVertex
 10
2541.259167420399
 20
1870.043591008826
 30
0.0
 70
    32
  0
VERTEX
  5
BAE5
330
BAC8
100
AcDbEntity
  8
AM_0
100
AcDbVertex
100
AcDb3dPolylineVertex
 10
2541.286867420399
 20
1870.019591008826
 30
0.0
 70
    32
  0
VERTEX
  5
BAE6
330
BAC8
100
AcDbEntity
  8
AM_0
100
AcDbVertex
100
AcDb3dPolylineVertex
 10
2541.313967420399
 20
1869.994591008826
 30
0.0
 70
    32
  0
VERTEX
  5
BAE7
330
BAC8
100
AcDbEntity
  8
AM_0
100
AcDbVertex
100
AcDb3dPolylineVertex
 10
2541.3405674204
 20
1869.967591008826
 30
0.0
 70
    32
  0
VERTEX
  5
BAE8
330
BAC8
100
AcDbEntity
  8
AM_0
100
AcDbVertex
100
AcDb3dPolylineVertex
 10
2541.366467420399
 20
1869.941591008826
 30
0.0
 70
    32
  0
VERTEX
  5
BAE9
330
BAC8
100
AcDbEntity
  8
AM_0
100
AcDbVertex
100
AcDb3dPolylineVertex
 10
2541.391867420399
 20
1869.913591008826
 30
0.0
 70
    32
  0
VERTEX
  5
BAEA
330
BAC8
100
AcDbEntity
  8
AM_0
100
AcDbVertex
100
AcDb3dPolylineVertex
 10
2541.416667420399
 20
1869.885591008826
 30
0.0
 70
    32
  0
VERTEX
  5
BAEB
330
BAC8
100
AcDbEntity
  8
AM_0
100
AcDbVertex
100
AcDb3dPolylineVertex
 10
2541.4407674204
 20
1869.856591008826
 30
0.0
 70
    32
  0
VERTEX
  5
BAEC
330
BAC8
100
AcDbEntity
  8
AM_0
100
AcDbVertex
100
AcDb3dPolylineVertex
 10
2541.464267420399
 20
1869.827591008825
 30
0.0
 70
    32
  0
VERTEX
  5
BAED
330
BAC8
100
AcDbEntity
  8
AM_0
100
AcDbVertex
100
AcDb3dPolylineVertex
 10
2541.4870674204
 20
1869.797591008826
 30
0.0
 70
    32
  0
VERTEX
  5
BAEE
330
BAC8
100
AcDbEntity
  8
AM_0
100
AcDbVertex
100
AcDb3dPolylineVertex
 10
2541.5091674204
 20
1869.766591008826
 30
0.0
 70
    32
  0
VERTEX
  5
BAEF
330
BAC8
100
AcDbEntity
  8
AM_0
100
AcDbVertex
100
AcDb3dPolylineVertex
 10
2541.5306674204
 20
1869.735591008826
 30
0.0
 70
    32
  0
VERTEX
  5
BAF0
330
BAC8
100
AcDbEntity
  8
AM_0
100
AcDbVertex
100
AcDb3dPolylineVertex
 10
2541.551367420399
 20
1869.703591008826
 30
0.0
 70
    32
  0
VERTEX
  5
BAF1
330
BAC8
100
AcDbEntity
  8
AM_0
100
AcDbVertex
100
AcDb3dPolylineVertex
 10
2541.571467420399
 20
1869.671591008826
 30
0.0
 70
    32
  0
VERTEX
  5
BAF2
330
BAC8
100
AcDbEntity
  8
AM_0
100
AcDbVertex
100
AcDb3dPolylineVertex
 10
2541.590767420399
 20
1869.638591008826
 30
0.0
 70
    32
  0
VERTEX
  5
BAF3
330
BAC8
100
AcDbEntity
  8
AM_0
100
AcDbVertex
100
AcDb3dPolylineVertex
 10
2541.6093674204
 20
1869.605591008826
 30
0.0
 70
    32
  0
VERTEX
  5
BAF4
330
BAC8
100
AcDbEntity
  8
AM_0
100
AcDbVertex
100
AcDb3dPolylineVertex
 10
2541.627267420399
 20
1869.571591008826
 30
0.0
 70
    32
  0
VERTEX
  5
BAF5
330
BAC8
100
AcDbEntity
  8
AM_0
100
AcDbVertex
100
AcDb3dPolylineVertex
 10
2541.6443674204
 20
1869.536591008826
 30
0.0
 70
    32
  0
VERTEX
  5
BAF6
330
BAC8
100
AcDbEntity
  8
AM_0
100
AcDbVertex
100
AcDb3dPolylineVertex
 10
2541.6606674204
 20
1869.501591008826
 30
0.0
 70
    32
  0
VERTEX
  5
BAF7
330
BAC8
100
AcDbEntity
  8
AM_0
100
AcDbVertex
100
AcDb3dPolylineVertex
 10
2541.676167420399
 20
1869.466591008826
 30
0.0
 70
    32
  0
VERTEX
  5
BAF8
330
BAC8
100
AcDbEntity
  8
AM_0
100
AcDbVertex
100
AcDb3dPolylineVertex
 10
2541.690967420399
 20
1869.430591008826
 30
0.0
 70
    32
  0
VERTEX
  5
BAF9
330
BAC8
100
AcDbEntity
  8
AM_0
100
AcDbVertex
100
AcDb3dPolylineVertex
 10
2541.704867420399
 20
1869.394591008825
 30
0.0
 70
    32
  0
VERTEX
  5
BAFA
330
BAC8
100
AcDbEntity
  8
AM_0
100
AcDbVertex
100
AcDb3dPolylineVertex
 10
2541.718067420399
 20
1869.358591008825
 30
0.0
 70
    32
  0
VERTEX
  5
BAFB
330
BAC8
100
AcDbEntity
  8
AM_0
100
AcDbVertex
100
AcDb3dPolylineVertex
 10
2541.730467420399
 20
1869.321591008825
 30
0.0
 70
    32
  0
VERTEX
  5
BAFC
330
BAC8
100
AcDbEntity
  8
AM_0
100
AcDbVertex
100
AcDb3dPolylineVertex
 10
2541.7419674204
 20
1869.284591008826
 30
0.0
 70
    32
  0
VERTEX
  5
BAFD
330
BAC8
100
AcDbEntity
  8
AM_0
100
AcDbVertex
100
AcDb3dPolylineVertex
 10
2541.752667420399
 20
1869.246591008826
 30
0.0
 70
    32
  0
VERTEX
  5
BAFE
330
BAC8
100
AcDbEntity
  8
AM_0
100
AcDbVertex
100
AcDb3dPolylineVertex
 10
2541.762567420399
 20
1869.209591008826
 30
0.0
 70
    32
  0
VERTEX
  5
BAFF
330
BAC8
100
AcDbEntity
  8
AM_0
100
AcDbVertex
100
AcDb3dPolylineVertex
 10
2541.771567420399
 20
1869.171591008826
 30
0.0
 70
    32
  0
VERTEX
  5
BB00
330
BAC8
100
AcDbEntity
  8
AM_0
100
AcDbVertex
100
AcDb3dPolylineVertex
 10
2541.7797674204
 20
1869.133591008826
 30
0.0
 70
    32
  0
VERTEX
  5
BB01
330
BAC8
100
AcDbEntity
  8
AM_0
100
AcDbVertex
100
AcDb3dPolylineVertex
 10
2541.7870674204
 20
1869.094591008826
 30
0.0
 70
    32
  0
VERTEX
  5
BB02
330
BAC8
100
AcDbEntity
  8
AM_0
100
AcDbVertex
100
AcDb3dPolylineVertex
 10
2541.793567420399
 20
1869.056591008826
 30
0.0
 70
    32
  0
VERTEX
  5
BB03
330
BAC8
100
AcDbEntity
  8
AM_0
100
AcDbVertex
100
AcDb3dPolylineVertex
 10
2541.7991674204
 20
1869.017591008826
 30
0.0
 70
    32
  0
VERTEX
  5
BB04
330
BAC8
100
AcDbEntity
  8
AM_0
100
AcDbVertex
100
AcDb3dPolylineVertex
 10
2541.8039674204
 20
1868.978591008826
 30
0.0
 70
    32
  0
VERTEX
  5
BB05
330
BAC8
100
AcDbEntity
  8
AM_0
100
AcDbVertex
100
AcDb3dPolylineVertex
 10
2541.807867420399
 20
1868.939591008826
 30
0.0
 70
    32
  0
VERTEX
  5
BB06
330
BAC8
100
AcDbEntity
  8
AM_0
100
AcDbVertex
100
AcDb3dPolylineVertex
 10
2541.810967420399
 20
1868.900591008826
 30
0.0
 70
    32
  0
VERTEX
  5
BB07
330
BAC8
100
AcDbEntity
  8
AM_0
100
AcDbVertex
100
AcDb3dPolylineVertex
 10
2541.813067420399
 20
1868.860591008826
 30
0.0
 70
    32
  0
VERTEX
  5
BB08
330
BAC8
100
AcDbEntity
  8
AM_0
100
AcDbVertex
100
AcDb3dPolylineVertex
 10
2541.814367420399
 20
1868.821591008826
 30
0.0
 70
    32
  0
VERTEX
  5
BB09
330
BAC8
100
AcDbEntity
  8
AM_0
100
AcDbVertex
100
AcDb3dPolylineVertex
 10
2541.814867420399
 20
1868.782591008826
 30
0.0
 70
    32
  0
VERTEX
  5
BB0A
330
BAC8
100
AcDbEntity
  8
AM_0
100
AcDbVertex
100
AcDb3dPolylineVertex
 10
2541.814367420399
 20
1868.743591008826
 30
0.0
 70
    32
  0
VERTEX
  5
BB0B
330
BAC8
100
AcDbEntity
  8
AM_0
100
AcDbVertex
100
AcDb3dPolylineVertex
 10
2541.813067420399
 20
1868.703591008826
 30
0.0
 70
    32
  0
VERTEX
  5
BB0C
330
BAC8
100
AcDbEntity
  8
AM_0
100
AcDbVertex
100
AcDb3dPolylineVertex
 10
2541.810967420399
 20
1868.664591008825
 30
0.0
 70
    32
  0
VERTEX
  5
BB0D
330
BAC8
100
AcDbEntity
  8
AM_0
100
AcDbVertex
100
AcDb3dPolylineVertex
 10
2541.807867420399
 20
1868.625591008825
 30
0.0
 70
    32
  0
VERTEX
  5
BB0E
330
BAC8
100
AcDbEntity
  8
AM_0
100
AcDbVertex
100
AcDb3dPolylineVertex
 10
2541.8039674204
 20
1868.586591008826
 30
0.0
 70
    32
  0
VERTEX
  5
BB0F
330
BAC8
100
AcDbEntity
  8
AM_0
100
AcDbVertex
100
AcDb3dPolylineVertex
 10
2541.7991674204
 20
1868.547591008826
 30
0.0
 70
    32
  0
VERTEX
  5
BB10
330
BAC8
100
AcDbEntity
  8
AM_0
100
AcDbVertex
100
AcDb3dPolylineVertex
 10
2541.793567420399
 20
1868.508591008826
 30
0.0
 70
    32
  0
VERTEX
  5
BB11
330
BAC8
100
AcDbEntity
  8
AM_0
100
AcDbVertex
100
AcDb3dPolylineVertex
 10
2541.7870674204
 20
1868.470591008826
 30
0.0
 70
    32
  0
VERTEX
  5
BB12
330
BAC8
100
AcDbEntity
  8
AM_0
100
AcDbVertex
100
AcDb3dPolylineVertex
 10
2541.7797674204
 20
1868.431591008826
 30
0.0
 70
    32
  0
VERTEX
  5
BB13
330
BAC8
100
AcDbEntity
  8
AM_0
100
AcDbVertex
100
AcDb3dPolylineVertex
 10
2541.771567420399
 20
1868.393591008826
 30
0.0
 70
    32
  0
VERTEX
  5
BB14
330
BAC8
100
AcDbEntity
  8
AM_0
100
AcDbVertex
100
AcDb3dPolylineVertex
 10
2541.762567420399
 20
1868.355591008826
 30
0.0
 70
    32
  0
VERTEX
  5
BB15
330
BAC8
100
AcDbEntity
  8
AM_0
100
AcDbVertex
100
AcDb3dPolylineVertex
 10
2541.752667420399
 20
1868.318591008826
 30
0.0
 70
    32
  0
VERTEX
  5
BB16
330
BAC8
100
AcDbEntity
  8
AM_0
100
AcDbVertex
100
AcDb3dPolylineVertex
 10
2541.7419674204
 20
1868.280591008826
 30
0.0
 70
    32
  0
VERTEX
  5
BB17
330
BAC8
100
AcDbEntity
  8
AM_0
100
AcDbVertex
100
AcDb3dPolylineVertex
 10
2541.730467420399
 20
1868.243591008825
 30
0.0
 70
    32
  0
VERTEX
  5
BB18
330
BAC8
100
AcDbEntity
  8
AM_0
100
AcDbVertex
100
AcDb3dPolylineVertex
 10
2541.718067420399
 20
1868.206591008825
 30
0.0
 70
    32
  0
VERTEX
  5
BB19
330
BAC8
100
AcDbEntity
  8
AM_0
100
AcDbVertex
100
AcDb3dPolylineVertex
 10
2541.704867420399
 20
1868.170591008826
 30
0.0
 70
    32
  0
VERTEX
  5
BB1A
330
BAC8
100
AcDbEntity
  8
AM_0
100
AcDbVertex
100
AcDb3dPolylineVertex
 10
2541.690967420399
 20
1868.134591008826
 30
0.0
 70
    32
  0
VERTEX
  5
BB1B
330
BAC8
100
AcDbEntity
  8
AM_0
100
AcDbVertex
100
AcDb3dPolylineVertex
 10
2541.676167420399
 20
1868.098591008825
 30
0.0
 70
    32
  0
VERTEX
  5
BB1C
330
BAC8
100
AcDbEntity
  8
AM_0
100
AcDbVertex
100
AcDb3dPolylineVertex
 10
2541.6606674204
 20
1868.063591008826
 30
0.0
 70
    32
  0
VERTEX
  5
BB1D
330
BAC8
100
AcDbEntity
  8
AM_0
100
AcDbVertex
100
AcDb3dPolylineVertex
 10
2541.6443674204
 20
1868.028591008826
 30
0.0
 70
    32
  0
VERTEX
  5
BB1E
330
BAC8
100
AcDbEntity
  8
AM_0
100
AcDbVertex
100
AcDb3dPolylineVertex
 10
2541.627267420399
 20
1867.993591008826
 30
0.0
 70
    32
  0
VERTEX
  5
BB1F
330
BAC8
100
AcDbEntity
  8
AM_0
100
AcDbVertex
100
AcDb3dPolylineVertex
 10
2541.6093674204
 20
1867.959591008826
 30
0.0
 70
    32
  0
VERTEX
  5
BB20
330
BAC8
100
AcDbEntity
  8
AM_0
100
AcDbVertex
100
AcDb3dPolylineVertex
 10
2541.590767420399
 20
1867.926591008826
 30
0.0
 70
    32
  0
VERTEX
  5
BB21
330
BAC8
100
AcDbEntity
  8
AM_0
100
AcDbVertex
100
AcDb3dPolylineVertex
 10
2541.571467420399
 20
1867.893591008825
 30
0.0
 70
    32
  0
VERTEX
  5
BB22
330
BAC8
100
AcDbEntity
  8
AM_0
100
AcDbVertex
100
AcDb3dPolylineVertex
 10
2541.551367420399
 20
1867.861591008826
 30
0.0
 70
    32
  0
VERTEX
  5
BB23
330
BAC8
100
AcDbEntity
  8
AM_0
100
AcDbVertex
100
AcDb3dPolylineVertex
 10
2541.5306674204
 20
1867.829591008825
 30
0.0
 70
    32
  0
VERTEX
  5
BB24
330
BAC8
100
AcDbEntity
  8
AM_0
100
AcDbVertex
100
AcDb3dPolylineVertex
 10
2541.5091674204
 20
1867.798591008826
 30
0.0
 70
    32
  0
VERTEX
  5
BB25
330
BAC8
100
AcDbEntity
  8
AM_0
100
AcDbVertex
100
AcDb3dPolylineVertex
 10
2541.4870674204
 20
1867.767591008826
 30
0.0
 70
    32
  0
VERTEX
  5
BB26
330
BAC8
100
AcDbEntity
  8
AM_0
100
AcDbVertex
100
AcDb3dPolylineVertex
 10
2541.464267420399
 20
1867.737591008826
 30
0.0
 70
    32
  0
VERTEX
  5
BB27
330
BAC8
100
AcDbEntity
  8
AM_0
100
AcDbVertex
100
AcDb3dPolylineVertex
 10
2541.4407674204
 20
1867.707591008825
 30
0.0
 70
    32
  0
VERTEX
  5
BB28
330
BAC8
100
AcDbEntity
  8
AM_0
100
AcDbVertex
100
AcDb3dPolylineVertex
 10
2541.416667420399
 20
1867.679591008826
 30
0.0
 70
    32
  0
VERTEX
  5
BB29
330
BAC8
100
AcDbEntity
  8
AM_0
100
AcDbVertex
100
AcDb3dPolylineVertex
 10
2541.391867420399
 20
1867.651591008826
 30
0.0
 70
    32
  0
VERTEX
  5
BB2A
330
BAC8
100
AcDbEntity
  8
AM_0
100
AcDbVertex
100
AcDb3dPolylineVertex
 10
2541.366467420399
 20
1867.623591008826
 30
0.0
 70
    32
  0
VERTEX
  5
BB2B
330
BAC8
100
AcDbEntity
  8
AM_0
100
AcDbVertex
100
AcDb3dPolylineVertex
 10
2541.3405674204
 20
1867.596591008826
 30
0.0
 70
    32
  0
VERTEX
  5
BB2C
330
BAC8
100
AcDbEntity
  8
AM_0
100
AcDbVertex
100
AcDb3dPolylineVertex
 10
2541.313967420399
 20
1867.570591008826
 30
0.0
 70
    32
  0
VERTEX
  5
BB2D
330
BAC8
100
AcDbEntity
  8
AM_0
100
AcDbVertex
100
AcDb3dPolylineVertex
 10
2541.286867420399
 20
1867.545591008825
 30
0.0
 70
    32
  0
VERTEX
  5
BB2E
330
BAC8
100
AcDbEntity
  8
AM_0
100
AcDbVertex
100
AcDb3dPolylineVertex
 10
2541.259167420399
 20
1867.521591008826
 30
0.0
 70
    32
  0
VERTEX
  5
BB2F
330
BAC8
100
AcDbEntity
  8
AM_0
100
AcDbVertex
100
AcDb3dPolylineVertex
 10
2541.230967420399
 20
1867.497591008826
 30
0.0
 70
    32
  0
VERTEX
  5
BB30
330
BAC8
100
AcDbEntity
  8
AM_0
100
AcDbVertex
100
AcDb3dPolylineVertex
 10
2541.202267420399
 20
1867.474591008826
 30
0.0
 70
    32
  0
VERTEX
  5
BB31
330
BAC8
100
AcDbEntity
  8
AM_0
100
AcDbVertex
100
AcDb3dPolylineVertex
 10
2541.173067420399
 20
1867.452591008825
 30
0.0
 70
    32
  0
VERTEX
  5
BB32
330
BAC8
100
AcDbEntity
  8
AM_0
100
AcDbVertex
100
AcDb3dPolylineVertex
 10
2541.143267420399
 20
1867.430591008826
 30
0.0
 70
    32
  0
VERTEX
  5
BB33
330
BAC8
100
AcDbEntity
  8
AM_0
100
AcDbVertex
100
AcDb3dPolylineVertex
 10
2541.113167420399
 20
1867.410591008826
 30
0.0
 70
    32
  0
VERTEX
  5
BB34
330
BAC8
100
AcDbEntity
  8
AM_0
100
AcDbVertex
100
AcDb3dPolylineVertex
 10
2541.082567420399
 20
1867.390591008825
 30
0.0
 70
    32
  0
VERTEX
  5
BB35
330
BAC8
100
AcDbEntity
  8
AM_0
100
AcDbVertex
100
AcDb3dPolylineVertex
 10
2541.0514674204
 20
1867.371591008826
 30
0.0
 70
    32
  0
VERTEX
  5
BB36
330
BAC8
100
AcDbEntity
  8
AM_0
100
AcDbVertex
100
AcDb3dPolylineVertex
 10
2541.0199674204
 20
1867.353591008826
 30
0.0
 70
    32
  0
VERTEX
  5
BB37
330
BAC8
100
AcDbEntity
  8
AM_0
100
AcDbVertex
100
AcDb3dPolylineVertex
 10
2540.988167420399
 20
1867.336591008825
 30
0.0
 70
    32
  0
VERTEX
  5
BB38
330
BAC8
100
AcDbEntity
  8
AM_0
100
AcDbVertex
100
AcDb3dPolylineVertex
 10
2540.9559674204
 20
1867.319591008826
 30
0.0
 70
    32
  0
VERTEX
  5
BB39
330
BAC8
100
AcDbEntity
  8
AM_0
100
AcDbVertex
100
AcDb3dPolylineVertex
 10
2540.923367420399
 20
1867.304591008826
 30
0.0
 70
    32
  0
VERTEX
  5
BB3A
330
BAC8
100
AcDbEntity
  8
AM_0
100
AcDbVertex
100
AcDb3dPolylineVertex
 10
2540.8904674204
 20
1867.289591008826
 30
0.0
 70
    32
  0
VERTEX
  5
BB3B
330
BAC8
100
AcDbEntity
  8
AM_0
100
AcDbVertex
100
AcDb3dPolylineVertex
 10
2540.857267420399
 20
1867.275591008826
 30
0.0
 70
    32
  0
VERTEX
  5
BB3C
330
BAC8
100
AcDbEntity
  8
AM_0
100
AcDbVertex
100
AcDb3dPolylineVertex
 10
2540.823667420399
 20
1867.263591008826
 30
0.0
 70
    32
  0
VERTEX
  5
BB3D
330
BAC8
100
AcDbEntity
  8
AM_0
100
AcDbVertex
100
AcDb3dPolylineVertex
 10
2540.789967420399
 20
1867.251591008826
 30
0.0
 70
    32
  0
VERTEX
  5
BB3E
330
BAC8
100
AcDbEntity
  8
AM_0
100
AcDbVertex
100
AcDb3dPolylineVertex
 10
2540.755867420399
 20
1867.240591008826
 30
0.0
 70
    32
  0
VERTEX
  5
BB3F
330
BAC8
100
AcDbEntity
  8
AM_0
100
AcDbVertex
100
AcDb3dPolylineVertex
 10
2540.721567420399
 20
1867.230591008826
 30
0.0
 70
    32
  0
VERTEX
  5
BB40
330
BAC8
100
AcDbEntity
  8
AM_0
100
AcDbVertex
100
AcDb3dPolylineVertex
 10
2540.687167420399
 20
1867.221591008826
 30
0.0
 70
    32
  0
VERTEX
  5
BB41
330
BAC8
100
AcDbEntity
  8
AM_0
100
AcDbVertex
100
AcDb3dPolylineVertex
 10
2540.652467420399
 20
1867.213591008826
 30
0.0
 70
    32
  0
VERTEX
  5
BB42
330
BAC8
100
AcDbEntity
  8
AM_0
100
AcDbVertex
100
AcDb3dPolylineVertex
 10
2540.6175674204
 20
1867.206591008826
 30
0.0
 70
    32
  0
VERTEX
  5
BB43
330
BAC8
100
AcDbEntity
  8
AM_0
100
AcDbVertex
100
AcDb3dPolylineVertex
 10
2540.582567420399
 20
1867.199591008826
 30
0.0
 70
    32
  0
VERTEX
  5
BB44
330
BAC8
100
AcDbEntity
  8
AM_0
100
AcDbVertex
100
AcDb3dPolylineVertex
 10
2540.547467420399
 20
1867.194591008826
 30
0.0
 70
    32
  0
VERTEX
  5
BB45
330
BAC8
100
AcDbEntity
  8
AM_0
100
AcDbVertex
100
AcDb3dPolylineVertex
 10
2540.5122674204
 20
1867.190591008826
 30
0.0
 70
    32
  0
VERTEX
  5
BB46
330
BAC8
100
AcDbEntity
  8
AM_0
100
AcDbVertex
100
AcDb3dPolylineVertex
 10
2540.476967420399
 20
1867.186591008826
 30
0.0
 70
    32
  0
VERTEX
  5
BB47
330
BAC8
100
AcDbEntity
  8
AM_0
100
AcDbVertex
100
AcDb3dPolylineVertex
 10
2540.441567420399
 20
1867.184591008826
 30
0.0
 70
    32
  0
VERTEX
  5
BB48
330
BAC8
100
AcDbEntity
  8
AM_0
100
AcDbVertex
100
AcDb3dPolylineVertex
 10
2540.4061674204
 20
1867.182591008826
 30
0.0
 70
    32
  0
VERTEX
  5
BB49
330
BAC8
100
AcDbEntity
  8
AM_0
100
AcDbVertex
100
AcDb3dPolylineVertex
 10
2540.3706674204
 20
1867.182591008826
 30
0.0
 70
    32
  0
SEQEND
  5
BB4A
330
BAC8
100
AcDbEntity
  8
AM_0
  0
POINT
  5
BF08
330
1F
100
AcDbEntity
  8
0
 60
     1
100
AcDbPoint
 10
0.0
 20
0.0
 30
0.0
1001
GENIUS_GENOBJ-N-TIT_13
1002
{
1000
OWNER
1000
GEN
1002
}
1001
GENIUS_GENODEF_13
1002
{
1000
HIER
1070
     1
1002
}
1002
{
1000
MANEDIT
1070
     0
1002
}
1002
{
1000
NOSEL
1070
     0
1002
}
1002
{
1000
BEHIND
1070
     0
1002
}
1002
{
1000
OTHER
1070
     0
1002
}
1002
{
1000
REACTOR
1002
}
1001
GENIUS_GENOLIS_13
1002
{
1000
ENT
1005
BEF9
1005
BE87
1002
}
1001
GENIUS_GENOENT_13
1002
{
1000
MYREF
1005
BF08
1002
}
1002
{
1000
GRP
1005
0
1002
}
1001
GENIUS_GENTITLE_13
1002
{
1000
BORDER
1000
Z:\000 共通使用ファイル（テンプレート等）\002 SYS図枠13\AIS 11\SYS図枠A3(AIS11)
1002
}
1002
{
1000
TITLE
1000
Z:\000 共通使用ファイル（テンプレート等）\002 SYS図枠13\AIS 11\SYS表題(AIS11)
1002
}
1002
{
1000
SCALE
1000
1:1
1002
}
1002
{
1000
TITLESTD
1000
SYS
1002
}
1002
{
1000
HRA
1005
BE87
1002
}
1002
{
1000
HTIT
1005
BEF9
1002
}
1002
{
1000
INVTXTID
1005
0
1002
}
1002
{
1000
UNCHG
1002
{
1000
GEN-TITLE-SIZ
1000
GEN-TITLE-SCA
1002
}
1002
}
1002
{
1000
GENIUSID
1005
BF08
1002
}
  0
TEXT
  5
BF61
330
1F
100
AcDbEntity
  8
AM_6
 60
     1
100
AcDbText
 10
2752.889191167252
 20
1715.182463161159
 30
0.0
 40
2.5
  1
!GENTITLE-INSERT
100
AcDbText
  0
TEXT
  5
BF62
330
1F
100
AcDbEntity
  8
AM_6
 60
     1
100
AcDbText
 10
2344.389191167252
 20
1706.682463161159
 30
0.0
 40
2.5
  1
!GENTITLE-LL
100
AcDbText
  0
TEXT
  5
BF63
330
1F
100
AcDbEntity
  8
AM_6
 60
     1
100
AcDbText
 10
2764.389191167252
 20
2003.68246316116
 30
0.0
 40
2.5
  1
!GENTITLE-RU
100
AcDbText
  0
TEXT
  5
BF64
330
1F
100
AcDbEntity
  8
AM_6
 60
     1
100
AcDbText
 10
2764.389191167252
 20
2003.68246316116
 30
0.0
 40
2.5
  1
!GENTITLE-MAX
100
AcDbText
  0
LINE
  5
BF65
330
1F
100
AcDbEntity
  8
size
100
AcDbLine
 10
2344.389191167252
 20
1706.682463161159
 30
0.0
 11
2764.389191167252
 21
1706.682463161159
 31
0.0
1001
GENIUS_GENREC_14
1002
{
1000
PYDIR
1011
2344.389191167252
1021
2003.68246316116
1031
0.0
1002
}
1002
{
1000
PXDIR
1011
2764.389191167252
1021
1706.682463161159
1031
0.0
1002
}
1002
{
1000
PORI
1011
2344.389191167252
1021
1706.682463161159
1031
0.0
1002
}
1002
{
1000
PINS
1011
2554.389191167252
1021
1855.182463161159
1031
0.0
1002
}
1002
{
1000
HVAL
1000
297
1002
}
1002
{
1000
H
1070
     2
1002
}
1002
{
1000
WVAL
1000
420
1002
}
1002
{
1000
W
1070
     2
1002
}
1002
{
1000
C
1070
     4
1002
}
1001
GENIUS_GENOBJ-N-REC_13
1002
{
1000
OWNER
1000
GEN
1002
}
1001
GENIUS_GENODEF_13
1002
{
1000
HIER
1070
     0
1002
}
1002
{
1000
MANEDIT
1070
     0
1002
}
1002
{
1000
NOSEL
1070
     0
1002
}
1002
{
1000
BEHIND
1070
     0
1002
}
1002
{
1000
OTHER
1070
     0
1002
}
1002
{
1000
REACTOR
1002
}
  0
LINE
  5
BF66
330
1F
100
AcDbEntity
  8
size
100
AcDbLine
 10
2764.389191167252
 20
1706.682463161159
 30
0.0
 11
2764.389191167252
 21
2003.68246316116
 31
0.0
1001
GENIUS_GENREC_14
1002
{
1000
PYDIR
1011
2344.389191167252
1021
2003.68246316116
1031
0.0
1002
}
1002
{
1000
PXDIR
1011
2764.389191167252
1021
1706.682463161159
1031
0.0
1002
}
1002
{
1000
PORI
1011
2344.389191167252
1021
1706.682463161159
1031
0.0
1002
}
1002
{
1000
PINS
1011
2554.389191167252
1021
1855.182463161159
1031
0.0
1002
}
1002
{
1000
HVAL
1000
297
1002
}
1002
{
1000
H
1070
     2
1002
}
1002
{
1000
WVAL
1000
420
1002
}
1002
{
1000
W
1070
     2
1002
}
1002
{
1000
C
1070
     4
1002
}
1001
GENIUS_GENOBJ-N-REC_13
1002
{
1000
OWNER
1000
GEN
1002
}
1001
GENIUS_GENODEF_13
1002
{
1000
HIER
1070
     0
1002
}
1002
{
1000
MANEDIT
1070
     0
1002
}
1002
{
1000
NOSEL
1070
     0
1002
}
1002
{
1000
BEHIND
1070
     0
1002
}
1002
{
1000
OTHER
1070
     0
1002
}
1002
{
1000
REACTOR
1002
}
  0
LINE
  5
BF67
330
1F
100
AcDbEntity
  8
size
100
AcDbLine
 10
2764.389191167252
 20
2003.68246316116
 30
0.0
 11
2344.389191167252
 21
2003.68246316116
 31
0.0
1001
GENIUS_GENREC_14
1002
{
1000
PYDIR
1011
2344.389191167252
1021
2003.68246316116
1031
0.0
1002
}
1002
{
1000
PXDIR
1011
2764.389191167252
1021
1706.682463161159
1031
0.0
1002
}
1002
{
1000
PORI
1011
2344.389191167252
1021
1706.682463161159
1031
0.0
1002
}
1002
{
1000
PINS
1011
2554.389191167252
1021
1855.182463161159
1031
0.0
1002
}
1002
{
1000
HVAL
1000
297
1002
}
1002
{
1000
H
1070
     2
1002
}
1002
{
1000
WVAL
1000
420
1002
}
1002
{
1000
W
1070
     2
1002
}
1002
{
1000
C
1070
     4
1002
}
1001
GENIUS_GENOBJ-N-REC_13
1002
{
1000
OWNER
1000
GEN
1002
}
1001
GENIUS_GENODEF_13
1002
{
1000
HIER
1070
     0
1002
}
1002
{
1000
MANEDIT
1070
     0
1002
}
1002
{
1000
NOSEL
1070
     0
1002
}
1002
{
1000
BEHIND
1070
     0
1002
}
1002
{
1000
OTHER
1070
     0
1002
}
1002
{
1000
REACTOR
1002
}
  0
LINE
  5
BF68
330
1F
100
AcDbEntity
  8
size
100
AcDbLine
 10
2344.389191167252
 20
2003.68246316116
 30
0.0
 11
2344.389191167252
 21
1706.682463161159
 31
0.0
1001
GENIUS_GENREC_14
1002
{
1000
PYDIR
1011
2344.389191167252
1021
2003.68246316116
1031
0.0
1002
}
1002
{
1000
PXDIR
1011
2764.389191167252
1021
1706.682463161159
1031
0.0
1002
}
1002
{
1000
PORI
1011
2344.389191167252
1021
1706.682463161159
1031
0.0
1002
}
1002
{
1000
PINS
1011
2554.389191167252
1021
1855.182463161159
1031
0.0
1002
}
1002
{
1000
HVAL
1000
297
1002
}
1002
{
1000
H
1070
     2
1002
}
1002
{
1000
WVAL
1000
420
1002
}
1002
{
1000
W
1070
     2
1002
}
1002
{
1000
C
1070
     4
1002
}
1001
GENIUS_GENOBJ-N-REC_13
1002
{
1000
OWNER
1000
GEN
1002
}
1001
GENIUS_GENODEF_13
1002
{
1000
HIER
1070
     0
1002
}
1002
{
1000
MANEDIT
1070
     0
1002
}
1002
{
1000
NOSEL
1070
     0
1002
}
1002
{
1000
BEHIND
1070
     0
1002
}
1002
{
1000
OTHER
1070
     0
1002
}
1002
{
1000
REACTOR
1002
}
  0
LINE
  5
BF69
330
1F
100
AcDbEntity
  8
waku
100
AcDbLine
 10
2752.889191167252
 20
1715.182463161159
 30
0.0
 11
2752.889191167252
 21
1995.182463161159
 31
0.0
1001
GENIUS_GENREC_14
1002
{
1000
PYDIR
1011
2344.389191167252
1021
2003.68246316116
1031
0.0
1002
}
1002
{
1000
PXDIR
1011
2764.389191167252
1021
1706.682463161159
1031
0.0
1002
}
1002
{
1000
PORI
1011
2344.389191167252
1021
1706.682463161159
1031
0.0
1002
}
1002
{
1000
PINS
1011
2554.389191167252
1021
1855.182463161159
1031
0.0
1002
}
1002
{
1000
HVAL
1000
297
1002
}
1002
{
1000
H
1070
     2
1002
}
1002
{
1000
WVAL
1000
420
1002
}
1002
{
1000
W
1070
     2
1002
}
1002
{
1000
C
1070
     4
1002
}
1001
GENIUS_GENOBJ-N-REC_13
1002
{
1000
OWNER
1000
GEN
1002
}
1001
GENIUS_GENODEF_13
1002
{
1000
HIER
1070
     0
1002
}
1002
{
1000
MANEDIT
1070
     0
1002
}
1002
{
1000
NOSEL
1070
     0
1002
}
1002
{
1000
BEHIND
1070
     0
1002
}
1002
{
1000
OTHER
1070
     0
1002
}
1002
{
1000
REACTOR
1002
}
  0
LINE
  5
BF6A
330
1F
100
AcDbEntity
  8
waku
100
AcDbLine
 10
2355.889191167252
 20
1995.182463161159
 30
0.0
 11
2355.889191167252
 21
1715.182463161159
 31
0.0
1001
GENIUS_GENREC_14
1002
{
1000
PYDIR
1011
2344.389191167252
1021
2003.68246316116
1031
0.0
1002
}
1002
{
1000
PXDIR
1011
2764.389191167252
1021
1706.682463161159
1031
0.0
1002
}
1002
{
1000
PORI
1011
2344.389191167252
1021
1706.682463161159
1031
0.0
1002
}
1002
{
1000
PINS
1011
2554.389191167252
1021
1855.182463161159
1031
0.0
1002
}
1002
{
1000
HVAL
1000
297
1002
}
1002
{
1000
H
1070
     2
1002
}
1002
{
1000
WVAL
1000
420
1002
}
1002
{
1000
W
1070
     2
1002
}
1002
{
1000
C
1070
     4
1002
}
1001
GENIUS_GENOBJ-N-REC_13
1002
{
1000
OWNER
1000
GEN
1002
}
1001
GENIUS_GENODEF_13
1002
{
1000
HIER
1070
     0
1002
}
1002
{
1000
MANEDIT
1070
     0
1002
}
1002
{
1000
NOSEL
1070
     0
1002
}
1002
{
1000
BEHIND
1070
     0
1002
}
1002
{
1000
OTHER
1070
     0
1002
}
1002
{
1000
REACTOR
1002
}
  0
LINE
  5
BF6B
330
1F
100
AcDbEntity
  8
waku
100
AcDbLine
 10
2752.889191167252
 20
1995.182463161159
 30
0.0
 11
2355.889191167252
 21
1995.182463161159
 31
0.0
1001
GENIUS_GENREC_14
1002
{
1000
PYDIR
1011
2344.389191167252
1021
2003.68246316116
1031
0.0
1002
}
1002
{
1000
PXDIR
1011
2764.389191167252
1021
1706.682463161159
1031
0.0
1002
}
1002
{
1000
PORI
1011
2344.389191167252
1021
1706.682463161159
1031
0.0
1002
}
1002
{
1000
PINS
1011
2554.389191167252
1021
1855.182463161159
1031
0.0
1002
}
1002
{
1000
HVAL
1000
297
1002
}
1002
{
1000
H
1070
     2
1002
}
1002
{
1000
WVAL
1000
420
1002
}
1002
{
1000
W
1070
     2
1002
}
1002
{
1000
C
1070
     4
1002
}
1001
GENIUS_GENOBJ-N-REC_13
1002
{
1000
OWNER
1000
GEN
1002
}
1001
GENIUS_GENODEF_13
1002
{
1000
HIER
1070
     0
1002
}
1002
{
1000
MANEDIT
1070
     0
1002
}
1002
{
1000
NOSEL
1070
     0
1002
}
1002
{
1000
BEHIND
1070
     0
1002
}
1002
{
1000
OTHER
1070
     0
1002
}
1002
{
1000
REACTOR
1002
}
  0
TEXT
  5
BF6C
330
1F
100
AcDbEntity
  8
AM_6
 60
     1
100
AcDbText
 10
2344.389191167252
 20
1706.682463161159
 30
0.0
 40
2.5
  1
!GENTITLE-LL
100
AcDbText
  0
TEXT
  5
BF6D
330
1F
100
AcDbEntity
  8
AM_6
 60
     1
100
AcDbText
 10
2752.889191167252
 20
1995.182463161159
 30
0.0
 40
2.5
  1
!GENTITLE-RU
100
AcDbText
  0
TEXT
  5
BF6E
330
1F
100
AcDbEntity
  8
AM_6
 60
     1
100
AcDbText
 10
2764.389191167252
 20
2003.68246316116
 30
0.0
 40
2.5
  1
!GENTITLE-MAX
100
AcDbText
  0
TEXT
  5
BF6F
330
1F
100
AcDbEntity
  8
AM_6
 60
     1
100
AcDbText
 10
2752.889191167252
 20
1715.182463161159
 30
0.0
 40
2.5
  1
!GENTITLE-INSERT
100
AcDbText
  0
LINE
  5
BF70
330
1F
100
AcDbEntity
  8
waku
100
AcDbLine
 10
2355.889191167252
 20
1715.182463161159
 30
0.0
 11
2752.889191167252
 21
1715.182463161159
 31
0.0
  0
LINE
  5
D2B5
330
1F
100
AcDbEntity
  8
AM_0
100
AcDbLine
 10
2355.889191167252
 20
1947.182463161159
 30
0.0
 11
2465.889191167252
 21
1947.182463161159
 31
0.0
  0
LINE
  5
D2B6
330
1F
100
AcDbEntity
  8
AM_0
100
AcDbLine
 10
2355.889191167252
 20
1987.182463161159
 30
0.0
 11
2465.889191167252
 21
1987.182463161159
 31
0.0
  0
LINE
  5
D2B7
330
1F
100
AcDbEntity
  8
AM_0
100
AcDbLine
 10
2375.889191167252
 20
1995.182463161159
 30
0.0
 11
2375.889191167252
 21
1923.182463161159
 31
0.0
  0
LINE
  5
D2B8
330
1F
100
AcDbEntity
  8
AM_0
100
AcDbLine
 10
2355.889191167252
 20
1971.182463161159
 30
0.0
 11
2465.889191167252
 21
1971.182463161159
 31
0.0
  0
LINE
  5
D2B9
330
1F
100
AcDbEntity
  8
AM_0
100
AcDbLine
 10
2355.889191167252
 20
1979.182463161159
 30
0.0
 11
2465.889191167252
 21
1979.182463161159
 31
0.0
  0
LINE
  5
D2BC
330
1F
100
AcDbEntity
  8
AM_0
100
AcDbLine
 10
2355.889191167252
 20
1963.182463161159
 30
0.0
 11
2465.889191167252
 21
1963.182463161159
 31
0.0
  0
LINE
  5
D2BD
330
1F
100
AcDbEntity
  8
AM_1
100
AcDbLine
 10
2465.889191167252
 20
1995.182463161159
 30
0.0
 11
2465.889191167253
 21
1923.182463161159
 31
0.0
  0
LINE
  5
D2BE
330
1F
100
AcDbEntity
  8
AM_1
100
AcDbLine
 10
2355.889191167252
 20
1995.182463161159
 30
0.0
 11
2465.889191167252
 21
1995.182463161159
 31
0.0
  0
LINE
  5
D2BF
330
1F
100
AcDbEntity
  8
AM_1
100
AcDbLine
 10
2355.889191167252
 20
1995.182463161159
 30
0.0
 11
2355.889191167253
 21
1923.182463161159
 31
0.0
  0
LINE
  5
D2C1
330
1F
100
AcDbEntity
  8
AM_2
100
AcDbLine
 10
2375.889191167252
 20
1931.182463161159
 30
0.0
 11
2465.889191167253
 21
1931.182463161159
 31
0.0
  0
TEXT
  5
D2C3
330
1F
100
AcDbEntity
  8
AM_6
100
AcDbText
 10
2379.317691163914
 20
1981.582463161159
 30
0.0
 40
3.2
  1
LH-23
 41
0.7
100
AcDbText
  0
TEXT
  5
D2C4
330
1F
100
AcDbEntity
  8
AM_6
100
AcDbText
 10
2379.317691163914
 20
1973.582463161159
 30
0.0
 40
3.2
  1
ステンレス
 41
0.7
100
AcDbText
  0
INSERT
  5
D2C5
330
1F
100
AcDbEntity
  8
AM_6
100
AcDbBlockReference
  2
*U223
 10
2987.889191167252
 20
1559.182463161159
 30
0.0
  0
TEXT
  5
D2C6
330
1F
100
AcDbEntity
  8
AM_6
100
AcDbText
 10
2379.317691163914
 20
1965.582463161159
 30
0.0
 40
3.2
  1
鏡面
 41
0.7
100
AcDbText
  0
TEXT
  5
D2C7
330
1F
100
AcDbEntity
  8
AM_6
100
AcDbText
 10
2358.917691068548
 20
1957.582463161159
 30
0.0
 40
3.2
  1
セットビス
 41
0.61
100
AcDbText
  0
INSERT
  5
D2C8
330
1F
100
AcDbEntity
  8
AM_6
100
AcDbBlockReference
  2
*U224
 10
2987.889191167252
 20
1527.182463161159
 30
0.0
  0
INSERT
  5
D2C9
330
1F
100
AcDbEntity
  8
AM_6
100
AcDbBlockReference
  2
*U225
 10
2987.889191167252
 20
1527.182463161159
 30
0.0
  0
TEXT
  5
D2CA
330
1F
100
AcDbEntity
  8
AM_6
100
AcDbText
 10
2379.317691163914
 20
1989.582463161159
 30
0.0
 40
3.2
  1
ラバトリーヒンジ
 41
0.7
100
AcDbText
  0
INSERT
  5
D2CB
330
1F
100
AcDbEntity
  8
AM_6
100
AcDbBlockReference
  2
*U226
 10
2987.889191167252
 20
1527.182463161159
 30
0.0
  0
INSERT
  5
D2CC
330
1F
100
AcDbEntity
  8
AM_6
100
AcDbBlockReference
  2
*U227
 10
2987.889191167252
 20
1527.182463161159
 30
0.0
  0
LINE
  5
D2CE
330
1F
100
AcDbEntity
  8
AM_2
100
AcDbLine
 10
2375.889191167253
 20
1939.182463161159
 30
0.0
 11
2465.889191167253
 21
1939.182463161159
 31
0.0
  0
MTEXT
  5
D2CF
330
1F
100
AcDbEntity
  8
AM_6
100
AcDbMText
 10
2375.889191167252
 20
1943.182463161159
 30
0.0
 40
3.2
 41
90.00000000000021
 71
     4
 72
     5
  1
　左右勝手兼用
 73
     1
 44
1.0
1001
ACAD
1000
ACAD_MTEXT_DEFINED_HEIGHT_BEGIN
1070
    46
1040
7.999999999999957
1000
ACAD_MTEXT_DEFINED_HEIGHT_END
  0
MTEXT
  5
D2D0
330
1F
100
AcDbEntity
  8
AM_6
100
AcDbMText
 10
2378.814516248716
 20
1937.076047834048
 30
0.0
 40
3.2
 41
113.0546368006582
 71
     1
 72
     1
  1
開放式、閉止式どちらにも使用できます。\P適応扉重量：20Kg
 73
     1
 44
1.5
  0
LINE
  5
D2D1
330
1F
100
AcDbEntity
  8
AM_1
100
AcDbLine
 10
2355.889191167253
 20
1923.182463161159
 30
0.0
 11
2465.889191167253
 21
1923.182463161159
 31
0.0
  0
MTEXT
  5
D2D6
330
1F
100
AcDbEntity
  8
AM_6
 48
1.01
100
AcDbMText
 10
2378.889191167252
 20
1959.332463161162
 30
0.0
 40
3.2
 41
0.0
 71
     4
 72
     5
  1
呼び4{\C2;×25サラタッピンネジ ＋ SUS　：12本}
 73
     1
 44
1.0
  0
CIRCLE
  5
D2F8
330
1F
100
AcDbEntity
  8
AM_2
100
AcDbCircle
 10
2417.255122268457
 20
1959.258490266782
 30
0.0
 40
1.6
  0
LINE
  5
D2FF
330
1F
100
AcDbEntity
  8
AM_0
100
AcDbLine
 10
2355.889191167252
 20
1955.182463161159
 30
0.0
 11
2465.889191167252
 21
1955.182463161159
 31
0.0
  0
TEXT
  5
D300
330
1F
100
AcDbEntity
  8
AM_6
100
AcDbText
 10
2358.917691068548
 20
1949.582463161159
 30
0.0
 40
3.2
  1
セット部品
 41
0.61
100
AcDbText
  0
MTEXT
  5
D301
330
1F
100
AcDbEntity
  8
AM_6
 48
1.01
100
AcDbMText
 10
2378.889191167251
 20
1951.332463161163
 30
0.0
 40
3.2
 41
0.0
 71
     4
 72
     5
  1
調整棒　1本
 73
     1
 44
1.0
  0
LINE
  5
D56E
330
1F
100
AcDbEntity
  8
AM_7
100
AcDbLine
 10
2564.853788538507
 20
1935.928653499106
 30
0.0
 11
2498.248440632069
 21
1935.928653499106
 31
0.0
  0
LINE
  5
D56F
330
1F
100
AcDbEntity
  8
AM_0
100
AcDbLine
 10
2560.531311878406
 20
1936.928653499106
 30
0.0
 11
2591.248448261464
 21
1936.928653499106
 31
0.0
  0
LINE
  5
D570
330
1F
100
AcDbEntity
  8
AM_0
100
AcDbLine
 10
2560.945389637196
 20
1938.928653499106
 30
0.0
 11
2591.248448261464
 21
1938.928653499106
 31
0.0
  0
LINE
  5
D571
330
1F
100
AcDbEntity
  8
AM_0
100
AcDbLine
 10
2546.916146167958
 20
1947.910068294028
 30
0.0
 11
2549.563771137439
 21
1950.557689448813
 31
0.0
  0
LINE
  5
D572
330
1F
100
AcDbEntity
  8
AM_0
100
AcDbLine
 10
2558.22985542699
 20
1936.596355220297
 30
0.0
 11
2560.877476581775
 21
1939.243976375082
 31
0.0
  0
LINE
  5
D573
330
1F
100
AcDbEntity
  8
AM_0
100
AcDbLine
 10
2591.248448261464
 20
1936.928653499106
 30
0.0
 11
2591.248448261464
 21
1938.928653499106
 31
0.0
  0
LINE
  5
D574
330
1F
100
AcDbEntity
  8
AM_0
100
AcDbLine
 10
2530.948449978078
 20
1936.928653499106
 30
0.0
 11
2501.248445400442
 21
1936.928653499106
 31
0.0
  0
LINE
  5
D575
330
1F
100
AcDbEntity
  8
AM_0
100
AcDbLine
 10
2534.62949455663
 20
1938.928653499106
 30
0.0
 11
2501.248445400442
 21
1938.928653499106
 31
0.0
  0
LINE
  5
D576
330
1F
100
AcDbEntity
  8
AM_0
100
AcDbLine
 10
2501.248445400442
 20
1938.928653499106
 30
0.0
 11
2501.248445400442
 21
1936.928653499106
 31
0.0
  0
LINE
  5
D579
330
1F
100
AcDbEntity
  8
AM_0
100
AcDbLine
 10
2530.948449978078
 20
1938.428653499106
 30
0.0
 11
2530.948449978078
 21
1933.428653499106
 31
0.0
  0
LINE
  5
D57A
330
1F
100
AcDbEntity
  8
AM_0
100
AcDbLine
 10
2534.511750110828
 20
1933.428653499106
 30
0.0
 11
2530.948449978078
 21
1933.428653499106
 31
0.0
  0
LINE
  5
D57B
330
1F
100
AcDbEntity
  8
AM_0
100
AcDbLine
 10
2534.511750110828
 20
1938.428653499106
 30
0.0
 11
2530.948449978078
 21
1938.428653499106
 31
0.0
  0
LINE
  5
D57D
330
1F
100
AcDbEntity
  8
AM_7
100
AcDbLine
 10
2546.248444446766
 20
1920.928653499106
 30
0.0
 11
2546.248444446766
 21
1950.928653499106
 31
0.0
  0
LINE
  5
D580
330
1F
100
AcDbEntity
  8
AM_0
100
AcDbLine
 10
2528.248445400441
 20
1936.928653499106
 30
0.0
 11
2528.248445400441
 21
1938.928653499106
 31
0.0
  0
LINE
  5
D581
330
1F
100
AcDbEntity
  8
AM_11
 48
0.5
100
AcDbLine
 10
2529.290184864248
 20
1934.928653499106
 30
0.0
 11
2501.248440632069
 21
1934.928653499106
 31
0.0
  0
LINE
  5
D582
330
1F
100
AcDbEntity
  8
AM_11
 48
0.5
100
AcDbLine
 10
2529.629494556631
 20
1932.928653499106
 30
0.0
 11
2501.248440632069
 21
1932.928653499106
 31
0.0
  0
LINE
  5
D583
330
1F
100
AcDbEntity
  8
AM_11
 48
0.5
100
AcDbLine
 10
2501.248440632069
 20
1932.928653499106
 30
0.0
 11
2501.248440632069
 21
1934.928653499106
 31
0.0
  0
ARC
  5
D585
330
1F
100
AcDbEntity
  8
AM_0
100
AcDbCircle
 10
2546.248444446766
 20
1935.928653499106
 30
0.0
 40
12.0
100
AcDbArc
 50
86.81030962578553
 51
3.189679673063545
  0
ARC
  5
D586
330
1F
100
AcDbEntity
  8
AM_0
100
AcDbCircle
 10
2546.248444446766
 20
1935.928653499106
 30
0.0
 40
15.0
100
AcDbArc
 50
11.53696314074195
 51
77.2309520119653
  0
ARC
  5
D587
330
1F
100
AcDbEntity
  8
AM_0
100
AcDbCircle
 10
2560.531311878406
 20
1938.428653499106
 30
0.0
 40
1.5
100
AcDbArc
 50
212.2229029756996
 51
270.0000025044687
  0
CIRCLE
  5
D588
330
1F
100
AcDbEntity
  8
AM_0
100
AcDbCircle
 10
2546.248444446766
 20
1935.928653499106
 30
0.0
 40
10.62226295471191
  0
LINE
  5
D5CD
330
1F
100
AcDbEntity
  8
AM_7
 48
0.25
100
AcDbLine
 10
2537.870707401479
 20
1868.782559514675
 30
0.0
 11
2528.926847378722
 21
1868.782559514675
 31
0.0
1001
GENIUS_GENOBJ-N-CEN_13
1002
{
1000
OWNER
1000
GEN
1002
}
1001
GENIUS_GENODEF_13
1002
{
1000
HIER
1070
     0
1002
}
1002
{
1000
MANEDIT
1070
     0
1002
}
1002
{
1000
NOSEL
1070
     0
1002
}
1002
{
1000
BEHIND
1070
     0
1002
}
1002
{
1000
OTHER
1070
     0
1002
}
1002
{
1000
REACTOR
1002
}
1001
GENIUS_GENCEN_19
1002
{
1040
3.0
1002
}
  0
DIMENSION
  5
D6E9
330
1F
100
AcDbEntity
  8
AM_5
100
AcDbDimension
  2
*D289
 10
2515.870707043851
 20
1750.782561422034
 30
0.0
 11
2530.870707222665
 21
1753.882561422033
 31
0.0
 70
    32
 71
     5
 42
30.00000035762787
  3
SYS$0
100
AcDbAlignedDimension
 13
2545.870707401479
 23
1762.782561422034
 33
0.0
 14
2515.870707043851
 24
1803.355824590369
 34
0.0
 50
179.9999999999999
100
AcDbRotatedDimension
  0
DIMENSION
  5
D6FF
330
1F
100
AcDbEntity
  8
AM_5
100
AcDbDimension
  2
*D290
 10
2505.870707401478
 20
1750.782561422032
 30
0.0
 11
2510.870707222665
 21
1753.882561422032
 31
0.0
 70
    32
 71
     5
 42
9.999999642372131
  3
SYS$0
100
AcDbAlignedDimension
 13
2515.870707043851
 23
1803.355824590369
 33
0.0
 14
2505.870707401478
 24
1774.65771973197
 34
0.0
 50
179.9999999999999
100
AcDbRotatedDimension
  0
DIMENSION
  5
D715
330
1F
100
AcDbEntity
  8
AM_5
100
AcDbDimension
  2
*D291
 10
2500.870709308828
 20
1740.782561422031
 30
0.0
 11
2545.870708355153
 21
1743.882561422031
 31
0.0
 70
    32
 71
     5
 42
89.99999809265
  3
SYS$0
100
AcDbAlignedDimension
 13
2590.870707401478
 23
1772.782551885289
 33
0.0
 14
2500.870709308828
 24
1772.782551885289
 34
0.0
 50
0.0000000000001018
100
AcDbRotatedDimension
  0
DIMENSION
  5
D72B
330
1F
100
AcDbEntity
  8
AM_5
100
AcDbDimension
  2
*D292
 10
2500.870707401479
 20
1750.78256142203
 30
0.0
 11
2503.370707401479
 21
1753.88256142203
 31
0.0
 70
    32
 71
     5
 42
4.99999999999909
  3
SYS$0
100
AcDbAlignedDimension
 13
2505.870707401478
 23
1774.65771973197
 33
0.0
 14
2500.870707401479
 24
1772.782551885289
 34
0.0
 50
179.9999999999999
100
AcDbRotatedDimension
  0
DIMENSION
  5
D745
330
1F
100
AcDbEntity
  8
AM_5
100
AcDbDimension
  2
*D293
 10
2649.207926432808
 20
1820.782566190396
 30
0.0
 11
2664.207922796924
 21
1823.882566190395
 31
0.0
 70
    32
 71
     5
 42
29.99999272823334
  3
SYS$0
100
AcDbAlignedDimension
 13
2679.207919161041
 23
1832.782566190395
 33
0.0
 14
2649.207926432808
 24
1843.101504445705
 34
0.0
 50
179.9999999999999
100
AcDbRotatedDimension
  0
DIMENSION
  5
D75B
330
1F
100
AcDbEntity
  8
AM_5
100
AcDbDimension
  2
*D294
 10
2639.207926790436
 20
1820.782566190393
 30
0.0
 11
2644.207926611622
 21
1823.882566190394
 31
0.0
 70
    32
 71
     5
 42
9.999999642372131
  3
SYS$0
100
AcDbAlignedDimension
 13
2649.207926432808
 23
1843.101504445705
 33
0.0
 14
2639.207926790436
 24
1862.51582968298
 34
0.0
 50
179.9999999999999
100
AcDbRotatedDimension
  0
DIMENSION
  5
D771
330
1F
100
AcDbEntity
  8
AM_5
100
AcDbDimension
  2
*D295
 10
2634.207926790436
 20
1820.782566190391
 30
0.0
 11
2636.707920114715
 21
1823.882566190391
 31
0.0
 70
    32
 71
     5
 42
4.99998664855957
  3
SYS$0
100
AcDbAlignedDimension
 13
2639.207913438995
 23
1842.436144948635
 33
0.0
 14
2634.207926790436
 24
1842.782558561001
 34
0.0
 50
179.9999999999999
100
AcDbRotatedDimension
  0
DIMENSION
  5
D78B
330
1F
100
AcDbEntity
  8
AM_5
100
AcDbDimension
  2
*D296
 10
2634.207913438995
 20
1810.782566190393
 30
0.0
 11
2679.207912485321
 21
1813.882566190393
 31
0.0
 70
    32
 71
     5
 42
89.99999809265137
  3
SYS$0
100
AcDbAlignedDimension
 13
2724.207911531646
 23
1842.782558561001
 33
0.0
 14
2634.207913438995
 24
1842.782558561001
 34
0.0
 50
0.0000000000001018
100
AcDbRotatedDimension
  0
DIMENSION
  5
D7C1
330
1F
100
AcDbEntity
  8
AM_5
100
AcDbDimension
  2
*D298
 10
2490.870707401479
 20
1808.782551885289
 30
0.0
 11
2487.770707401478
 21
1823.782551885288
 31
0.0
 70
    32
 71
     5
 42
29.99999999999614
  3
SYS$0
100
AcDbAlignedDimension
 13
2510.055681595051
 23
1838.782551885286
 33
0.0
 14
2510.055681595051
 24
1808.782551885289
 34
0.0
 50
90.0
100
AcDbRotatedDimension
  0
DIMENSION
  5
D7E0
330
1F
100
AcDbEntity
  8
AM_5
100
AcDbDimension
  2
*D299
 10
2490.870707401477
 20
1780.782551885289
 30
0.0
 11
2487.770707401477
 21
1794.78255188529
 31
0.0
 70
    32
 71
     5
 42
28.0
  3
SYS$0
100
AcDbAlignedDimension
 13
2510.055681595051
 23
1808.782551885289
 33
0.0
 14
2500.870707401479
 24
1780.782551885289
 34
0.0
 50
90.0
100
AcDbRotatedDimension
  0
DIMENSION
  5
D7F6
330
1F
100
AcDbEntity
  8
AM_5
100
AcDbDimension
  2
*D300
 10
2490.870707401477
 20
1866.782559514675
 30
0.0
 11
2487.770707401477
 21
1852.782555699981
 31
0.0
 70
    32
 71
     5
 42
28.00000762938976
  3
SYS$0
100
AcDbAlignedDimension
 13
2510.055681595051
 23
1838.782551885286
 33
0.0
 14
2500.870707401479
 24
1866.782559514675
 34
0.0
 50
90.0
100
AcDbRotatedDimension
  0
DIMENSION
  5
D842
330
1F
100
AcDbEntity
  8
AM_5
100
AcDbDimension
  2
*D303
 10
2624.207926790435
 20
1868.78256046835
 30
0.0
 11
2621.107926790435
 21
1858.782559514676
 31
0.0
 70
    32
 71
     5
 42
20.00000190734909
  3
SYS$0
100
AcDbAlignedDimension
 13
2643.468306224068
 23
1848.782558561001
 33
0.0
 14
2633.619796077927
 24
1868.78256046835
 34
0.0
 50
90.00000000000003
100
AcDbRotatedDimension
  0
DIMENSION
  5
DA8C
330
1F
100
AcDbEntity
  8
AM_5
100
AcDbDimension
  2
*D312
 10
2605.870707401478
 20
1874.782559514676
 30
0.0
 11
2602.770707401477
 21
1823.782555699983
 31
0.0
 70
    32
 71
     5
 42
102.0000076293861
  3
SYS$0
100
AcDbAlignedDimension
 13
2590.870707401478
 23
1772.782551885289
 33
0.0
 14
2590.870707401478
 24
1874.782559514676
 34
0.0
 50
90.0
100
AcDbRotatedDimension
  0
DIMENSION
  5
DA8D
330
1F
100
AcDbEntity
  8
AM_5
100
AcDbDimension
  2
*D310
 10
2605.870707401479
 20
1874.782559514676
 30
0.0
 11
2602.770707401478
 21
1878.282559514676
 31
0.0
 70
    32
 71
     5
 42
6.999999999999772
  3
SYS$0
100
AcDbAlignedDimension
 13
2554.870707401478
 23
1881.782559514675
 33
0.0
 14
2590.870707401478
 24
1874.782559514676
 34
0.0
 50
90.0
100
AcDbRotatedDimension
  0
DIMENSION
  5
DA8E
330
1F
100
AcDbEntity
  8
AM_5
100
AcDbDimension
  2
*D311
 10
2605.870707401478
 20
1765.782559514684
 30
0.0
 11
2602.770707401477
 21
1769.282555699987
 31
0.0
 70
    32
 71
     5
 42
6.999992370605241
  3
SYS$0
100
AcDbAlignedDimension
 13
2590.870707401478
 23
1772.782551885289
 33
0.0
 14
2554.870707314056
 24
1765.782559514684
 34
0.0
 50
90.0
100
AcDbRotatedDimension
  0
DIMENSION
  5
DAE9
330
1F
100
AcDbEntity
  8
AM_5
100
AcDbDimension
  2
*D315
 10
2739.207911531647
 20
1874.782559514676
 30
0.0
 11
2736.107911531646
 21
1858.782559037839
 31
0.0
 70
    32
 71
     5
 42
32.000000953675
  3
SYS$0
100
AcDbAlignedDimension
 13
2724.207911531646
 23
1842.782558561001
 33
0.0
 14
2724.207911531646
 24
1874.782559514676
 34
0.0
 50
90.0
100
AcDbRotatedDimension
  0
DIMENSION
  5
DAEA
330
1F
100
AcDbEntity
  8
AM_5
100
AcDbDimension
  2
*D313
 10
2739.207911531647
 20
1874.782559514676
 30
0.0
 11
2736.107911531647
 21
1878.282559633885
 31
0.0
 70
    32
 71
     5
 42
7.000000238417669
  3
SYS$0
100
AcDbAlignedDimension
 13
2688.207919161041
 23
1881.782559753093
 33
0.0
 14
2724.207911531646
 24
1874.782559514676
 34
0.0
 50
90.0
100
AcDbRotatedDimension
  0
DIMENSION
  5
DAEB
330
1F
100
AcDbEntity
  8
AM_5
100
AcDbDimension
  2
*D314
 10
2739.207911531648
 20
1835.782558561001
 30
0.0
 11
2736.107911531648
 21
1839.282558561001
 31
0.0
 70
    32
 71
     5
 42
7.0
  3
SYS$0
100
AcDbAlignedDimension
 13
2724.207911531646
 23
1842.782558561001
 33
0.0
 14
2688.207919161041
 24
1835.782558561001
 34
0.0
 50
90.0
100
AcDbRotatedDimension
  0
DIMENSION
  5
DD89
330
1F
100
AcDbEntity
  8
AM_5
100
AcDbDimension
  2
*D316
 10
2556.870707401478
 20
1891.782559514676
 30
0.0
 11
2545.870708355153
 21
1894.882559514676
 31
0.0
 70
    32
  1
%%c<>
 71
     5
 42
21.99999809265046
  3
SYS$0
100
AcDbAlignedDimension
 13
2534.870709308828
 23
1879.782559514676
 33
0.0
 14
2556.870707401478
 24
1879.782559514676
 34
0.0
100
AcDbRotatedDimension
  0
DIMENSION
  5
DDA9
330
1F
100
AcDbEntity
  8
AM_5
100
AcDbDimension
  2
*D317
 10
2690.207919161041
 20
1891.782559753093
 30
0.0
 11
2679.207920114716
 21
1894.882559753093
 31
0.0
 70
    32
  1
%%c<>
 71
     5
 42
21.99999809265046
  3
SYS$0
100
AcDbAlignedDimension
 13
2668.207921068391
 23
1879.782559753093
 33
0.0
 14
2690.207919161041
 24
1879.782559753093
 34
0.0
100
AcDbRotatedDimension
  0
DIMENSION
  5
DDBF
330
1F
100
AcDbEntity
  8
AM_5
100
AcDbDimension
  2
*D318
 10
2490.874889470835
 20
1938.928653499106
 30
0.0
 11
2487.774889470835
 21
1935.928653499107
 31
0.0
 70
    32
 71
     5
 42
6.0
  3
SYS$0
100
AcDbAlignedDimension
 13
2501.248440632069
 23
1932.928653499106
 33
0.0
 14
2501.248440632069
 24
1938.928653499106
 34
0.0
 50
270.0
100
AcDbRotatedDimension
  0
DIMENSION
  5
DE27
330
1F
100
AcDbEntity
  8
AM_5
100
AcDbDimension
  2
*D320
 10
2605.87070740148
 20
1938.928653499106
 30
0.0
 11
2602.770707401479
 21
1943.175320165774
 31
0.0
 70
    32
 71
     5
 42
2.000000000000227
  3
SYS$0
100
AcDbAlignedDimension
 13
2591.248443493091
 23
1936.928653499106
 33
0.0
 14
2591.248443493091
 24
1938.928653499106
 34
0.0
 50
270.0
100
AcDbRotatedDimension
  0
INSERT
  5
DFA8
330
1F
100
AcDbEntity
  8
AM_5
100
AcDbBlockReference
  2
*S323
 10
0.0
 20
0.0
 30
0.0
  0
LINE
  5
DFBF
330
1F
100
AcDbEntity
  8
AM_0
100
AcDbLine
 10
2557.020701297964
 20
1862.882565618195
 30
0.0
 11
2557.020701297964
 21
1784.682561040564
 31
0.0
  0
LINE
  5
DFC0
330
1F
100
AcDbEntity
  8
AM_0
100
AcDbLine
 10
2556.870707401478
 20
1862.882565618195
 30
0.0
 11
2556.870707401478
 21
1872.782559514676
 31
0.0
  0
LINE
  5
DFC1
330
1F
100
AcDbEntity
  8
AM_0
100
AcDbLine
 10
2556.870707401478
 20
1774.782563329382
 30
0.0
 11
2556.870707401478
 21
1784.682561040564
 31
0.0
  0
POLYLINE
  5
DFC2
330
1F
100
AcDbEntity
  8
AM_0
100
AcDb3dPolyline
 66
     1
 10
0.0
 20
0.0
 30
0.0
 70
     8
  0
VERTEX
  5
DFC3
330
DFC2
100
AcDbEntity
  8
AM_0
100
AcDbVertex
100
AcDb3dPolylineVertex
 10
2551.370747382557
 20
1867.182591008826
 30
0.0
 70
    32
  0
VERTEX
  5
DFC4
330
DFC2
100
AcDbEntity
  8
AM_0
100
AcDbVertex
100
AcDb3dPolylineVertex
 10
2551.403247382558
 20
1867.182591008826
 30
0.0
 70
    32
  0
VERTEX
  5
DFC5
330
DFC2
100
AcDbEntity
  8
AM_0
100
AcDbVertex
100
AcDb3dPolylineVertex
 10
2551.435847382558
 20
1867.184591008826
 30
0.0
 70
    32
  0
VERTEX
  5
DFC6
330
DFC2
100
AcDbEntity
  8
AM_0
100
AcDbVertex
100
AcDb3dPolylineVertex
 10
2551.468347382557
 20
1867.186591008826
 30
0.0
 70
    32
  0
VERTEX
  5
DFC7
330
DFC2
100
AcDbEntity
  8
AM_0
100
AcDbVertex
100
AcDb3dPolylineVertex
 10
2551.500747382557
 20
1867.190591008826
 30
0.0
 70
    32
  0
VERTEX
  5
DFC8
330
DFC2
100
AcDbEntity
  8
AM_0
100
AcDbVertex
100
AcDb3dPolylineVertex
 10
2551.533147382557
 20
1867.194591008826
 30
0.0
 70
    32
  0
VERTEX
  5
DFC9
330
DFC2
100
AcDbEntity
  8
AM_0
100
AcDbVertex
100
AcDb3dPolylineVertex
 10
2551.565447382557
 20
1867.199591008826
 30
0.0
 70
    32
  0
VERTEX
  5
DFCA
330
DFC2
100
AcDbEntity
  8
AM_0
100
AcDbVertex
100
AcDb3dPolylineVertex
 10
2551.597647382558
 20
1867.206591008826
 30
0.0
 70
    32
  0
VERTEX
  5
DFCB
330
DFC2
100
AcDbEntity
  8
AM_0
100
AcDbVertex
100
AcDb3dPolylineVertex
 10
2551.629647382558
 20
1867.213591008826
 30
0.0
 70
    32
  0
VERTEX
  5
DFCC
330
DFC2
100
AcDbEntity
  8
AM_0
100
AcDbVertex
100
AcDb3dPolylineVertex
 10
2551.661447382558
 20
1867.221591008826
 30
0.0
 70
    32
  0
VERTEX
  5
DFCD
330
DFC2
100
AcDbEntity
  8
AM_0
100
AcDbVertex
100
AcDb3dPolylineVertex
 10
2551.693147382557
 20
1867.230591008826
 30
0.0
 70
    32
  0
VERTEX
  5
DFCE
330
DFC2
100
AcDbEntity
  8
AM_0
100
AcDbVertex
100
AcDb3dPolylineVertex
 10
2551.724647382557
 20
1867.240591008826
 30
0.0
 70
    32
  0
VERTEX
  5
DFCF
330
DFC2
100
AcDbEntity
  8
AM_0
100
AcDbVertex
100
AcDb3dPolylineVertex
 10
2551.755947382558
 20
1867.251591008826
 30
0.0
 70
    32
  0
VERTEX
  5
DFD0
330
DFC2
100
AcDbEntity
  8
AM_0
100
AcDbVertex
100
AcDb3dPolylineVertex
 10
2551.787047382558
 20
1867.263591008826
 30
0.0
 70
    32
  0
VERTEX
  5
DFD1
330
DFC2
100
AcDbEntity
  8
AM_0
100
AcDbVertex
100
AcDb3dPolylineVertex
 10
2551.817847382558
 20
1867.275591008826
 30
0.0
 70
    32
  0
VERTEX
  5
DFD2
330
DFC2
100
AcDbEntity
  8
AM_0
100
AcDbVertex
100
AcDb3dPolylineVertex
 10
2551.848347382557
 20
1867.289591008826
 30
0.0
 70
    32
  0
VERTEX
  5
DFD3
330
DFC2
100
AcDbEntity
  8
AM_0
100
AcDbVertex
100
AcDb3dPolylineVertex
 10
2551.878547382557
 20
1867.304591008826
 30
0.0
 70
    32
  0
VERTEX
  5
DFD4
330
DFC2
100
AcDbEntity
  8
AM_0
100
AcDbVertex
100
AcDb3dPolylineVertex
 10
2551.908547382558
 20
1867.319591008826
 30
0.0
 70
    32
  0
VERTEX
  5
DFD5
330
DFC2
100
AcDbEntity
  8
AM_0
100
AcDbVertex
100
AcDb3dPolylineVertex
 10
2551.938147382557
 20
1867.336591008825
 30
0.0
 70
    32
  0
VERTEX
  5
DFD6
330
DFC2
100
AcDbEntity
  8
AM_0
100
AcDbVertex
100
AcDb3dPolylineVertex
 10
2551.967447382557
 20
1867.353591008826
 30
0.0
 70
    32
  0
VERTEX
  5
DFD7
330
DFC2
100
AcDbEntity
  8
AM_0
100
AcDbVertex
100
AcDb3dPolylineVertex
 10
2551.996347382557
 20
1867.371591008826
 30
0.0
 70
    32
  0
VERTEX
  5
DFD8
330
DFC2
100
AcDbEntity
  8
AM_0
100
AcDbVertex
100
AcDb3dPolylineVertex
 10
2552.024847382558
 20
1867.390591008825
 30
0.0
 70
    32
  0
VERTEX
  5
DFD9
330
DFC2
100
AcDbEntity
  8
AM_0
100
AcDbVertex
100
AcDb3dPolylineVertex
 10
2552.053047382557
 20
1867.410591008826
 30
0.0
 70
    32
  0
VERTEX
  5
DFDA
330
DFC2
100
AcDbEntity
  8
AM_0
100
AcDbVertex
100
AcDb3dPolylineVertex
 10
2552.080747382557
 20
1867.430591008826
 30
0.0
 70
    32
  0
VERTEX
  5
DFDB
330
DFC2
100
AcDbEntity
  8
AM_0
100
AcDbVertex
100
AcDb3dPolylineVertex
 10
2552.108047382558
 20
1867.452591008825
 30
0.0
 70
    32
  0
VERTEX
  5
DFDC
330
DFC2
100
AcDbEntity
  8
AM_0
100
AcDbVertex
100
AcDb3dPolylineVertex
 10
2552.134847382558
 20
1867.474591008826
 30
0.0
 70
    32
  0
VERTEX
  5
DFDD
330
DFC2
100
AcDbEntity
  8
AM_0
100
AcDbVertex
100
AcDb3dPolylineVertex
 10
2552.161247382557
 20
1867.497591008826
 30
0.0
 70
    32
  0
VERTEX
  5
DFDE
330
DFC2
100
AcDbEntity
  8
AM_0
100
AcDbVertex
100
AcDb3dPolylineVertex
 10
2552.187247382557
 20
1867.521591008826
 30
0.0
 70
    32
  0
VERTEX
  5
DFDF
330
DFC2
100
AcDbEntity
  8
AM_0
100
AcDbVertex
100
AcDb3dPolylineVertex
 10
2552.212647382558
 20
1867.545591008825
 30
0.0
 70
    32
  0
VERTEX
  5
DFE0
330
DFC2
100
AcDbEntity
  8
AM_0
100
AcDbVertex
100
AcDb3dPolylineVertex
 10
2552.237547382558
 20
1867.570591008826
 30
0.0
 70
    32
  0
VERTEX
  5
DFE1
330
DFC2
100
AcDbEntity
  8
AM_0
100
AcDbVertex
100
AcDb3dPolylineVertex
 10
2552.261947382557
 20
1867.596591008826
 30
0.0
 70
    32
  0
VERTEX
  5
DFE2
330
DFC2
100
AcDbEntity
  8
AM_0
100
AcDbVertex
100
AcDb3dPolylineVertex
 10
2552.285847382557
 20
1867.623591008826
 30
0.0
 70
    32
  0
VERTEX
  5
DFE3
330
DFC2
100
AcDbEntity
  8
AM_0
100
AcDbVertex
100
AcDb3dPolylineVertex
 10
2552.309147382557
 20
1867.651591008826
 30
0.0
 70
    32
  0
VERTEX
  5
DFE4
330
DFC2
100
AcDbEntity
  8
AM_0
100
AcDbVertex
100
AcDb3dPolylineVertex
 10
2552.331847382558
 20
1867.679591008826
 30
0.0
 70
    32
  0
VERTEX
  5
DFE5
330
DFC2
100
AcDbEntity
  8
AM_0
100
AcDbVertex
100
AcDb3dPolylineVertex
 10
2552.354047382558
 20
1867.707591008825
 30
0.0
 70
    32
  0
VERTEX
  5
DFE6
330
DFC2
100
AcDbEntity
  8
AM_0
100
AcDbVertex
100
AcDb3dPolylineVertex
 10
2552.375647382557
 20
1867.737591008826
 30
0.0
 70
    32
  0
VERTEX
  5
DFE7
330
DFC2
100
AcDbEntity
  8
AM_0
100
AcDbVertex
100
AcDb3dPolylineVertex
 10
2552.396647382558
 20
1867.767591008826
 30
0.0
 70
    32
  0
VERTEX
  5
DFE8
330
DFC2
100
AcDbEntity
  8
AM_0
100
AcDbVertex
100
AcDb3dPolylineVertex
 10
2552.416947382558
 20
1867.798591008826
 30
0.0
 70
    32
  0
VERTEX
  5
DFE9
330
DFC2
100
AcDbEntity
  8
AM_0
100
AcDbVertex
100
AcDb3dPolylineVertex
 10
2552.436647382558
 20
1867.829591008825
 30
0.0
 70
    32
  0
VERTEX
  5
DFEA
330
DFC2
100
AcDbEntity
  8
AM_0
100
AcDbVertex
100
AcDb3dPolylineVertex
 10
2552.455747382557
 20
1867.861591008826
 30
0.0
 70
    32
  0
VERTEX
  5
DFEB
330
DFC2
100
AcDbEntity
  8
AM_0
100
AcDbVertex
100
AcDb3dPolylineVertex
 10
2552.474147382557
 20
1867.893591008825
 30
0.0
 70
    32
  0
VERTEX
  5
DFEC
330
DFC2
100
AcDbEntity
  8
AM_0
100
AcDbVertex
100
AcDb3dPolylineVertex
 10
2552.491947382558
 20
1867.926591008826
 30
0.0
 70
    32
  0
VERTEX
  5
DFED
330
DFC2
100
AcDbEntity
  8
AM_0
100
AcDbVertex
100
AcDb3dPolylineVertex
 10
2552.509047382558
 20
1867.959591008826
 30
0.0
 70
    32
  0
VERTEX
  5
DFEE
330
DFC2
100
AcDbEntity
  8
AM_0
100
AcDbVertex
100
AcDb3dPolylineVertex
 10
2552.525447382557
 20
1867.993591008826
 30
0.0
 70
    32
  0
VERTEX
  5
DFEF
330
DFC2
100
AcDbEntity
  8
AM_0
100
AcDbVertex
100
AcDb3dPolylineVertex
 10
2552.541147382557
 20
1868.028591008826
 30
0.0
 70
    32
  0
VERTEX
  5
DFF0
330
DFC2
100
AcDbEntity
  8
AM_0
100
AcDbVertex
100
AcDb3dPolylineVertex
 10
2552.556147382558
 20
1868.063591008826
 30
0.0
 70
    32
  0
VERTEX
  5
DFF1
330
DFC2
100
AcDbEntity
  8
AM_0
100
AcDbVertex
100
AcDb3dPolylineVertex
 10
2552.570447382557
 20
1868.098591008825
 30
0.0
 70
    32
  0
VERTEX
  5
DFF2
330
DFC2
100
AcDbEntity
  8
AM_0
100
AcDbVertex
100
AcDb3dPolylineVertex
 10
2552.584047382558
 20
1868.134591008826
 30
0.0
 70
    32
  0
VERTEX
  5
DFF3
330
DFC2
100
AcDbEntity
  8
AM_0
100
AcDbVertex
100
AcDb3dPolylineVertex
 10
2552.596847382558
 20
1868.170591008826
 30
0.0
 70
    32
  0
VERTEX
  5
DFF4
330
DFC2
100
AcDbEntity
  8
AM_0
100
AcDbVertex
100
AcDb3dPolylineVertex
 10
2552.608947382558
 20
1868.206591008825
 30
0.0
 70
    32
  0
VERTEX
  5
DFF5
330
DFC2
100
AcDbEntity
  8
AM_0
100
AcDbVertex
100
AcDb3dPolylineVertex
 10
2552.620247382557
 20
1868.243591008825
 30
0.0
 70
    32
  0
VERTEX
  5
DFF6
330
DFC2
100
AcDbEntity
  8
AM_0
100
AcDbVertex
100
AcDb3dPolylineVertex
 10
2552.630847382558
 20
1868.280591008826
 30
0.0
 70
    32
  0
VERTEX
  5
DFF7
330
DFC2
100
AcDbEntity
  8
AM_0
100
AcDbVertex
100
AcDb3dPolylineVertex
 10
2552.640747382558
 20
1868.318591008826
 30
0.0
 70
    32
  0
VERTEX
  5
DFF8
330
DFC2
100
AcDbEntity
  8
AM_0
100
AcDbVertex
100
AcDb3dPolylineVertex
 10
2552.649747382558
 20
1868.355591008826
 30
0.0
 70
    32
  0
VERTEX
  5
DFF9
330
DFC2
100
AcDbEntity
  8
AM_0
100
AcDbVertex
100
AcDb3dPolylineVertex
 10
2552.658047382557
 20
1868.393591008826
 30
0.0
 70
    32
  0
VERTEX
  5
DFFA
330
DFC2
100
AcDbEntity
  8
AM_0
100
AcDbVertex
100
AcDb3dPolylineVertex
 10
2552.665647382558
 20
1868.431591008826
 30
0.0
 70
    32
  0
VERTEX
  5
DFFB
330
DFC2
100
AcDbEntity
  8
AM_0
100
AcDbVertex
100
AcDb3dPolylineVertex
 10
2552.672347382558
 20
1868.470591008826
 30
0.0
 70
    32
  0
VERTEX
  5
DFFC
330
DFC2
100
AcDbEntity
  8
AM_0
100
AcDbVertex
100
AcDb3dPolylineVertex
 10
2552.678347382557
 20
1868.508591008826
 30
0.0
 70
    32
  0
VERTEX
  5
DFFD
330
DFC2
100
AcDbEntity
  8
AM_0
100
AcDbVertex
100
AcDb3dPolylineVertex
 10
2552.683447382558
 20
1868.547591008826
 30
0.0
 70
    32
  0
VERTEX
  5
DFFE
330
DFC2
100
AcDbEntity
  8
AM_0
100
AcDbVertex
100
AcDb3dPolylineVertex
 10
2552.687847382558
 20
1868.586591008826
 30
0.0
 70
    32
  0
VERTEX
  5
DFFF
330
DFC2
100
AcDbEntity
  8
AM_0
100
AcDbVertex
100
AcDb3dPolylineVertex
 10
2552.691447382557
 20
1868.625591008825
 30
0.0
 70
    32
  0
VERTEX
  5
E000
330
DFC2
100
AcDbEntity
  8
AM_0
100
AcDbVertex
100
AcDb3dPolylineVertex
 10
2552.694247382558
 20
1868.664591008825
 30
0.0
 70
    32
  0
VERTEX
  5
E001
330
DFC2
100
AcDbEntity
  8
AM_0
100
AcDbVertex
100
AcDb3dPolylineVertex
 10
2552.696247382557
 20
1868.703591008826
 30
0.0
 70
    32
  0
VERTEX
  5
E002
330
DFC2
100
AcDbEntity
  8
AM_0
100
AcDbVertex
100
AcDb3dPolylineVertex
 10
2552.697447382558
 20
1868.743591008826
 30
0.0
 70
    32
  0
VERTEX
  5
E003
330
DFC2
100
AcDbEntity
  8
AM_0
100
AcDbVertex
100
AcDb3dPolylineVertex
 10
2552.697847382558
 20
1868.782591008826
 30
0.0
 70
    32
  0
VERTEX
  5
E004
330
DFC2
100
AcDbEntity
  8
AM_0
100
AcDbVertex
100
AcDb3dPolylineVertex
 10
2552.697447382558
 20
1868.821591008826
 30
0.0
 70
    32
  0
VERTEX
  5
E005
330
DFC2
100
AcDbEntity
  8
AM_0
100
AcDbVertex
100
AcDb3dPolylineVertex
 10
2552.696247382557
 20
1868.860591008826
 30
0.0
 70
    32
  0
VERTEX
  5
E006
330
DFC2
100
AcDbEntity
  8
AM_0
100
AcDbVertex
100
AcDb3dPolylineVertex
 10
2552.694247382558
 20
1868.900591008826
 30
0.0
 70
    32
  0
VERTEX
  5
E007
330
DFC2
100
AcDbEntity
  8
AM_0
100
AcDbVertex
100
AcDb3dPolylineVertex
 10
2552.691447382557
 20
1868.939591008826
 30
0.0
 70
    32
  0
VERTEX
  5
E008
330
DFC2
100
AcDbEntity
  8
AM_0
100
AcDbVertex
100
AcDb3dPolylineVertex
 10
2552.687847382558
 20
1868.978591008826
 30
0.0
 70
    32
  0
VERTEX
  5
E009
330
DFC2
100
AcDbEntity
  8
AM_0
100
AcDbVertex
100
AcDb3dPolylineVertex
 10
2552.683447382558
 20
1869.017591008826
 30
0.0
 70
    32
  0
VERTEX
  5
E00A
330
DFC2
100
AcDbEntity
  8
AM_0
100
AcDbVertex
100
AcDb3dPolylineVertex
 10
2552.678347382557
 20
1869.056591008826
 30
0.0
 70
    32
  0
VERTEX
  5
E00B
330
DFC2
100
AcDbEntity
  8
AM_0
100
AcDbVertex
100
AcDb3dPolylineVertex
 10
2552.672347382558
 20
1869.094591008826
 30
0.0
 70
    32
  0
VERTEX
  5
E00C
330
DFC2
100
AcDbEntity
  8
AM_0
100
AcDbVertex
100
AcDb3dPolylineVertex
 10
2552.665647382558
 20
1869.133591008826
 30
0.0
 70
    32
  0
VERTEX
  5
E00D
330
DFC2
100
AcDbEntity
  8
AM_0
100
AcDbVertex
100
AcDb3dPolylineVertex
 10
2552.658047382557
 20
1869.171591008826
 30
0.0
 70
    32
  0
VERTEX
  5
E00E
330
DFC2
100
AcDbEntity
  8
AM_0
100
AcDbVertex
100
AcDb3dPolylineVertex
 10
2552.649747382558
 20
1869.209591008826
 30
0.0
 70
    32
  0
VERTEX
  5
E00F
330
DFC2
100
AcDbEntity
  8
AM_0
100
AcDbVertex
100
AcDb3dPolylineVertex
 10
2552.640747382558
 20
1869.246591008826
 30
0.0
 70
    32
  0
VERTEX
  5
E010
330
DFC2
100
AcDbEntity
  8
AM_0
100
AcDbVertex
100
AcDb3dPolylineVertex
 10
2552.630847382558
 20
1869.284591008826
 30
0.0
 70
    32
  0
VERTEX
  5
E011
330
DFC2
100
AcDbEntity
  8
AM_0
100
AcDbVertex
100
AcDb3dPolylineVertex
 10
2552.620247382557
 20
1869.321591008825
 30
0.0
 70
    32
  0
VERTEX
  5
E012
330
DFC2
100
AcDbEntity
  8
AM_0
100
AcDbVertex
100
AcDb3dPolylineVertex
 10
2552.608947382558
 20
1869.358591008825
 30
0.0
 70
    32
  0
VERTEX
  5
E013
330
DFC2
100
AcDbEntity
  8
AM_0
100
AcDbVertex
100
AcDb3dPolylineVertex
 10
2552.596847382558
 20
1869.394591008825
 30
0.0
 70
    32
  0
VERTEX
  5
E014
330
DFC2
100
AcDbEntity
  8
AM_0
100
AcDbVertex
100
AcDb3dPolylineVertex
 10
2552.584047382558
 20
1869.430591008826
 30
0.0
 70
    32
  0
VERTEX
  5
E015
330
DFC2
100
AcDbEntity
  8
AM_0
100
AcDbVertex
100
AcDb3dPolylineVertex
 10
2552.570447382557
 20
1869.466591008826
 30
0.0
 70
    32
  0
VERTEX
  5
E016
330
DFC2
100
AcDbEntity
  8
AM_0
100
AcDbVertex
100
AcDb3dPolylineVertex
 10
2552.556147382558
 20
1869.501591008826
 30
0.0
 70
    32
  0
VERTEX
  5
E017
330
DFC2
100
AcDbEntity
  8
AM_0
100
AcDbVertex
100
AcDb3dPolylineVertex
 10
2552.541147382557
 20
1869.536591008826
 30
0.0
 70
    32
  0
VERTEX
  5
E018
330
DFC2
100
AcDbEntity
  8
AM_0
100
AcDbVertex
100
AcDb3dPolylineVertex
 10
2552.525447382557
 20
1869.571591008826
 30
0.0
 70
    32
  0
VERTEX
  5
E019
330
DFC2
100
AcDbEntity
  8
AM_0
100
AcDbVertex
100
AcDb3dPolylineVertex
 10
2552.509047382558
 20
1869.605591008826
 30
0.0
 70
    32
  0
VERTEX
  5
E01A
330
DFC2
100
AcDbEntity
  8
AM_0
100
AcDbVertex
100
AcDb3dPolylineVertex
 10
2552.491947382558
 20
1869.638591008826
 30
0.0
 70
    32
  0
VERTEX
  5
E01B
330
DFC2
100
AcDbEntity
  8
AM_0
100
AcDbVertex
100
AcDb3dPolylineVertex
 10
2552.474147382557
 20
1869.671591008826
 30
0.0
 70
    32
  0
VERTEX
  5
E01C
330
DFC2
100
AcDbEntity
  8
AM_0
100
AcDbVertex
100
AcDb3dPolylineVertex
 10
2552.455747382557
 20
1869.703591008826
 30
0.0
 70
    32
  0
VERTEX
  5
E01D
330
DFC2
100
AcDbEntity
  8
AM_0
100
AcDbVertex
100
AcDb3dPolylineVertex
 10
2552.436647382558
 20
1869.735591008826
 30
0.0
 70
    32
  0
VERTEX
  5
E01E
330
DFC2
100
AcDbEntity
  8
AM_0
100
AcDbVertex
100
AcDb3dPolylineVertex
 10
2552.416947382558
 20
1869.766591008826
 30
0.0
 70
    32
  0
VERTEX
  5
E01F
330
DFC2
100
AcDbEntity
  8
AM_0
100
AcDbVertex
100
AcDb3dPolylineVertex
 10
2552.396647382558
 20
1869.797591008826
 30
0.0
 70
    32
  0
VERTEX
  5
E020
330
DFC2
100
AcDbEntity
  8
AM_0
100
AcDbVertex
100
AcDb3dPolylineVertex
 10
2552.375647382557
 20
1869.827591008825
 30
0.0
 70
    32
  0
VERTEX
  5
E021
330
DFC2
100
AcDbEntity
  8
AM_0
100
AcDbVertex
100
AcDb3dPolylineVertex
 10
2552.354047382558
 20
1869.856591008826
 30
0.0
 70
    32
  0
VERTEX
  5
E022
330
DFC2
100
AcDbEntity
  8
AM_0
100
AcDbVertex
100
AcDb3dPolylineVertex
 10
2552.331847382558
 20
1869.885591008826
 30
0.0
 70
    32
  0
VERTEX
  5
E023
330
DFC2
100
AcDbEntity
  8
AM_0
100
AcDbVertex
100
AcDb3dPolylineVertex
 10
2552.309147382557
 20
1869.913591008826
 30
0.0
 70
    32
  0
VERTEX
  5
E024
330
DFC2
100
AcDbEntity
  8
AM_0
100
AcDbVertex
100
AcDb3dPolylineVertex
 10
2552.285847382557
 20
1869.941591008826
 30
0.0
 70
    32
  0
VERTEX
  5
E025
330
DFC2
100
AcDbEntity
  8
AM_0
100
AcDbVertex
100
AcDb3dPolylineVertex
 10
2552.261947382557
 20
1869.967591008826
 30
0.0
 70
    32
  0
VERTEX
  5
E026
330
DFC2
100
AcDbEntity
  8
AM_0
100
AcDbVertex
100
AcDb3dPolylineVertex
 10
2552.237547382558
 20
1869.994591008826
 30
0.0
 70
    32
  0
VERTEX
  5
E027
330
DFC2
100
AcDbEntity
  8
AM_0
100
AcDbVertex
100
AcDb3dPolylineVertex
 10
2552.212647382558
 20
1870.019591008826
 30
0.0
 70
    32
  0
VERTEX
  5
E028
330
DFC2
100
AcDbEntity
  8
AM_0
100
AcDbVertex
100
AcDb3dPolylineVertex
 10
2552.187247382557
 20
1870.043591008826
 30
0.0
 70
    32
  0
VERTEX
  5
E029
330
DFC2
100
AcDbEntity
  8
AM_0
100
AcDbVertex
100
AcDb3dPolylineVertex
 10
2552.161247382557
 20
1870.067591008826
 30
0.0
 70
    32
  0
VERTEX
  5
E02A
330
DFC2
100
AcDbEntity
  8
AM_0
100
AcDbVertex
100
AcDb3dPolylineVertex
 10
2552.134847382558
 20
1870.090591008825
 30
0.0
 70
    32
  0
VERTEX
  5
E02B
330
DFC2
100
AcDbEntity
  8
AM_0
100
AcDbVertex
100
AcDb3dPolylineVertex
 10
2552.108047382558
 20
1870.112591008826
 30
0.0
 70
    32
  0
VERTEX
  5
E02C
330
DFC2
100
AcDbEntity
  8
AM_0
100
AcDbVertex
100
AcDb3dPolylineVertex
 10
2552.080747382557
 20
1870.134591008826
 30
0.0
 70
    32
  0
VERTEX
  5
E02D
330
DFC2
100
AcDbEntity
  8
AM_0
100
AcDbVertex
100
AcDb3dPolylineVertex
 10
2552.053047382557
 20
1870.154591008826
 30
0.0
 70
    32
  0
VERTEX
  5
E02E
330
DFC2
100
AcDbEntity
  8
AM_0
100
AcDbVertex
100
AcDb3dPolylineVertex
 10
2552.024847382558
 20
1870.174591008825
 30
0.0
 70
    32
  0
VERTEX
  5
E02F
330
DFC2
100
AcDbEntity
  8
AM_0
100
AcDbVertex
100
AcDb3dPolylineVertex
 10
2551.996347382557
 20
1870.193591008825
 30
0.0
 70
    32
  0
VERTEX
  5
E030
330
DFC2
100
AcDbEntity
  8
AM_0
100
AcDbVertex
100
AcDb3dPolylineVertex
 10
2551.967447382557
 20
1870.211591008825
 30
0.0
 70
    32
  0
VERTEX
  5
E031
330
DFC2
100
AcDbEntity
  8
AM_0
100
AcDbVertex
100
AcDb3dPolylineVertex
 10
2551.938147382557
 20
1870.228591008826
 30
0.0
 70
    32
  0
VERTEX
  5
E032
330
DFC2
100
AcDbEntity
  8
AM_0
100
AcDbVertex
100
AcDb3dPolylineVertex
 10
2551.908547382558
 20
1870.245591008826
 30
0.0
 70
    32
  0
VERTEX
  5
E033
330
DFC2
100
AcDbEntity
  8
AM_0
100
AcDbVertex
100
AcDb3dPolylineVertex
 10
2551.878547382557
 20
1870.260591008826
 30
0.0
 70
    32
  0
VERTEX
  5
E034
330
DFC2
100
AcDbEntity
  8
AM_0
100
AcDbVertex
100
AcDb3dPolylineVertex
 10
2551.848347382557
 20
1870.275591008826
 30
0.0
 70
    32
  0
VERTEX
  5
E035
330
DFC2
100
AcDbEntity
  8
AM_0
100
AcDbVertex
100
AcDb3dPolylineVertex
 10
2551.817847382558
 20
1870.288591008826
 30
0.0
 70
    32
  0
VERTEX
  5
E036
330
DFC2
100
AcDbEntity
  8
AM_0
100
AcDbVertex
100
AcDb3dPolylineVertex
 10
2551.787047382558
 20
1870.301591008826
 30
0.0
 70
    32
  0
VERTEX
  5
E037
330
DFC2
100
AcDbEntity
  8
AM_0
100
AcDbVertex
100
AcDb3dPolylineVertex
 10
2551.755947382558
 20
1870.313591008826
 30
0.0
 70
    32
  0
VERTEX
  5
E038
330
DFC2
100
AcDbEntity
  8
AM_0
100
AcDbVertex
100
AcDb3dPolylineVertex
 10
2551.724647382557
 20
1870.324591008826
 30
0.0
 70
    32
  0
VERTEX
  5
E039
330
DFC2
100
AcDbEntity
  8
AM_0
100
AcDbVertex
100
AcDb3dPolylineVertex
 10
2551.693147382557
 20
1870.334591008826
 30
0.0
 70
    32
  0
VERTEX
  5
E03A
330
DFC2
100
AcDbEntity
  8
AM_0
100
AcDbVertex
100
AcDb3dPolylineVertex
 10
2551.661447382558
 20
1870.343591008826
 30
0.0
 70
    32
  0
VERTEX
  5
E03B
330
DFC2
100
AcDbEntity
  8
AM_0
100
AcDbVertex
100
AcDb3dPolylineVertex
 10
2551.629647382558
 20
1870.351591008826
 30
0.0
 70
    32
  0
VERTEX
  5
E03C
330
DFC2
100
AcDbEntity
  8
AM_0
100
AcDbVertex
100
AcDb3dPolylineVertex
 10
2551.597647382558
 20
1870.358591008826
 30
0.0
 70
    32
  0
VERTEX
  5
E03D
330
DFC2
100
AcDbEntity
  8
AM_0
100
AcDbVertex
100
AcDb3dPolylineVertex
 10
2551.565447382557
 20
1870.365591008826
 30
0.0
 70
    32
  0
VERTEX
  5
E03E
330
DFC2
100
AcDbEntity
  8
AM_0
100
AcDbVertex
100
AcDb3dPolylineVertex
 10
2551.533147382557
 20
1870.370591008826
 30
0.0
 70
    32
  0
VERTEX
  5
E03F
330
DFC2
100
AcDbEntity
  8
AM_0
100
AcDbVertex
100
AcDb3dPolylineVertex
 10
2551.500747382557
 20
1870.374591008826
 30
0.0
 70
    32
  0
VERTEX
  5
E040
330
DFC2
100
AcDbEntity
  8
AM_0
100
AcDbVertex
100
AcDb3dPolylineVertex
 10
2551.468347382557
 20
1870.378591008826
 30
0.0
 70
    32
  0
VERTEX
  5
E041
330
DFC2
100
AcDbEntity
  8
AM_0
100
AcDbVertex
100
AcDb3dPolylineVertex
 10
2551.435847382558
 20
1870.380591008826
 30
0.0
 70
    32
  0
VERTEX
  5
E042
330
DFC2
100
AcDbEntity
  8
AM_0
100
AcDbVertex
100
AcDb3dPolylineVertex
 10
2551.403247382558
 20
1870.381591008825
 30
0.0
 70
    32
  0
VERTEX
  5
E043
330
DFC2
100
AcDbEntity
  8
AM_0
100
AcDbVertex
100
AcDb3dPolylineVertex
 10
2551.370747382557
 20
1870.382591008826
 30
0.0
 70
    32
  0
SEQEND
  5
E044
330
DFC2
100
AcDbEntity
  8
AM_0
  0
POLYLINE
  5
E045
330
1F
100
AcDbEntity
  8
AM_0
100
AcDb3dPolyline
 66
     1
 10
0.0
 20
0.0
 30
0.0
 70
     8
  0
VERTEX
  5
E046
330
E045
100
AcDbEntity
  8
AM_0
100
AcDbVertex
100
AcDb3dPolylineVertex
 10
2551.370747382557
 20
1870.382591008826
 30
0.0
 70
    32
  0
VERTEX
  5
E047
330
E045
100
AcDbEntity
  8
AM_0
100
AcDbVertex
100
AcDb3dPolylineVertex
 10
2551.335247382557
 20
1870.381591008825
 30
0.0
 70
    32
  0
VERTEX
  5
E048
330
E045
100
AcDbEntity
  8
AM_0
100
AcDbVertex
100
AcDb3dPolylineVertex
 10
2551.299847382558
 20
1870.380591008826
 30
0.0
 70
    32
  0
VERTEX
  5
E049
330
E045
100
AcDbEntity
  8
AM_0
100
AcDbVertex
100
AcDb3dPolylineVertex
 10
2551.264447382558
 20
1870.378591008826
 30
0.0
 70
    32
  0
VERTEX
  5
E04A
330
E045
100
AcDbEntity
  8
AM_0
100
AcDbVertex
100
AcDb3dPolylineVertex
 10
2551.229147382557
 20
1870.374591008826
 30
0.0
 70
    32
  0
VERTEX
  5
E04B
330
E045
100
AcDbEntity
  8
AM_0
100
AcDbVertex
100
AcDb3dPolylineVertex
 10
2551.193947382558
 20
1870.370591008826
 30
0.0
 70
    32
  0
VERTEX
  5
E04C
330
E045
100
AcDbEntity
  8
AM_0
100
AcDbVertex
100
AcDb3dPolylineVertex
 10
2551.158847382558
 20
1870.365591008826
 30
0.0
 70
    32
  0
VERTEX
  5
E04D
330
E045
100
AcDbEntity
  8
AM_0
100
AcDbVertex
100
AcDb3dPolylineVertex
 10
2551.123847382557
 20
1870.358591008826
 30
0.0
 70
    32
  0
VERTEX
  5
E04E
330
E045
100
AcDbEntity
  8
AM_0
100
AcDbVertex
100
AcDb3dPolylineVertex
 10
2551.088947382558
 20
1870.351591008826
 30
0.0
 70
    32
  0
VERTEX
  5
E04F
330
E045
100
AcDbEntity
  8
AM_0
100
AcDbVertex
100
AcDb3dPolylineVertex
 10
2551.054247382558
 20
1870.343591008826
 30
0.0
 70
    32
  0
VERTEX
  5
E050
330
E045
100
AcDbEntity
  8
AM_0
100
AcDbVertex
100
AcDb3dPolylineVertex
 10
2551.019847382558
 20
1870.334591008826
 30
0.0
 70
    32
  0
VERTEX
  5
E051
330
E045
100
AcDbEntity
  8
AM_0
100
AcDbVertex
100
AcDb3dPolylineVertex
 10
2550.985547382558
 20
1870.324591008826
 30
0.0
 70
    32
  0
VERTEX
  5
E052
330
E045
100
AcDbEntity
  8
AM_0
100
AcDbVertex
100
AcDb3dPolylineVertex
 10
2550.951447382558
 20
1870.313591008826
 30
0.0
 70
    32
  0
VERTEX
  5
E053
330
E045
100
AcDbEntity
  8
AM_0
100
AcDbVertex
100
AcDb3dPolylineVertex
 10
2550.917747382558
 20
1870.301591008826
 30
0.0
 70
    32
  0
VERTEX
  5
E054
330
E045
100
AcDbEntity
  8
AM_0
100
AcDbVertex
100
AcDb3dPolylineVertex
 10
2550.884147382558
 20
1870.288591008826
 30
0.0
 70
    32
  0
VERTEX
  5
E055
330
E045
100
AcDbEntity
  8
AM_0
100
AcDbVertex
100
AcDb3dPolylineVertex
 10
2550.850947382557
 20
1870.275591008826
 30
0.0
 70
    32
  0
VERTEX
  5
E056
330
E045
100
AcDbEntity
  8
AM_0
100
AcDbVertex
100
AcDb3dPolylineVertex
 10
2550.818047382558
 20
1870.260591008826
 30
0.0
 70
    32
  0
VERTEX
  5
E057
330
E045
100
AcDbEntity
  8
AM_0
100
AcDbVertex
100
AcDb3dPolylineVertex
 10
2550.785447382557
 20
1870.245591008826
 30
0.0
 70
    32
  0
VERTEX
  5
E058
330
E045
100
AcDbEntity
  8
AM_0
100
AcDbVertex
100
AcDb3dPolylineVertex
 10
2550.753247382558
 20
1870.228591008826
 30
0.0
 70
    32
  0
VERTEX
  5
E059
330
E045
100
AcDbEntity
  8
AM_0
100
AcDbVertex
100
AcDb3dPolylineVertex
 10
2550.721447382557
 20
1870.211591008825
 30
0.0
 70
    32
  0
VERTEX
  5
E05A
330
E045
100
AcDbEntity
  8
AM_0
100
AcDbVertex
100
AcDb3dPolylineVertex
 10
2550.689947382557
 20
1870.193591008825
 30
0.0
 70
    32
  0
VERTEX
  5
E05B
330
E045
100
AcDbEntity
  8
AM_0
100
AcDbVertex
100
AcDb3dPolylineVertex
 10
2550.658847382558
 20
1870.174591008825
 30
0.0
 70
    32
  0
VERTEX
  5
E05C
330
E045
100
AcDbEntity
  8
AM_0
100
AcDbVertex
100
AcDb3dPolylineVertex
 10
2550.628247382558
 20
1870.154591008826
 30
0.0
 70
    32
  0
VERTEX
  5
E05D
330
E045
100
AcDbEntity
  8
AM_0
100
AcDbVertex
100
AcDb3dPolylineVertex
 10
2550.598047382558
 20
1870.134591008826
 30
0.0
 70
    32
  0
VERTEX
  5
E05E
330
E045
100
AcDbEntity
  8
AM_0
100
AcDbVertex
100
AcDb3dPolylineVertex
 10
2550.568347382557
 20
1870.112591008826
 30
0.0
 70
    32
  0
VERTEX
  5
E05F
330
E045
100
AcDbEntity
  8
AM_0
100
AcDbVertex
100
AcDb3dPolylineVertex
 10
2550.539147382558
 20
1870.090591008825
 30
0.0
 70
    32
  0
VERTEX
  5
E060
330
E045
100
AcDbEntity
  8
AM_0
100
AcDbVertex
100
AcDb3dPolylineVertex
 10
2550.510447382558
 20
1870.067591008826
 30
0.0
 70
    32
  0
VERTEX
  5
E061
330
E045
100
AcDbEntity
  8
AM_0
100
AcDbVertex
100
AcDb3dPolylineVertex
 10
2550.482247382557
 20
1870.043591008826
 30
0.0
 70
    32
  0
VERTEX
  5
E062
330
E045
100
AcDbEntity
  8
AM_0
100
AcDbVertex
100
AcDb3dPolylineVertex
 10
2550.454547382557
 20
1870.019591008826
 30
0.0
 70
    32
  0
VERTEX
  5
E063
330
E045
100
AcDbEntity
  8
AM_0
100
AcDbVertex
100
AcDb3dPolylineVertex
 10
2550.427447382557
 20
1869.994591008826
 30
0.0
 70
    32
  0
VERTEX
  5
E064
330
E045
100
AcDbEntity
  8
AM_0
100
AcDbVertex
100
AcDb3dPolylineVertex
 10
2550.400847382557
 20
1869.967591008826
 30
0.0
 70
    32
  0
VERTEX
  5
E065
330
E045
100
AcDbEntity
  8
AM_0
100
AcDbVertex
100
AcDb3dPolylineVertex
 10
2550.374947382558
 20
1869.941591008826
 30
0.0
 70
    32
  0
VERTEX
  5
E066
330
E045
100
AcDbEntity
  8
AM_0
100
AcDbVertex
100
AcDb3dPolylineVertex
 10
2550.349547382558
 20
1869.913591008826
 30
0.0
 70
    32
  0
VERTEX
  5
E067
330
E045
100
AcDbEntity
  8
AM_0
100
AcDbVertex
100
AcDb3dPolylineVertex
 10
2550.324747382558
 20
1869.885591008826
 30
0.0
 70
    32
  0
VERTEX
  5
E068
330
E045
100
AcDbEntity
  8
AM_0
100
AcDbVertex
100
AcDb3dPolylineVertex
 10
2550.300647382557
 20
1869.856591008826
 30
0.0
 70
    32
  0
VERTEX
  5
E069
330
E045
100
AcDbEntity
  8
AM_0
100
AcDbVertex
100
AcDb3dPolylineVertex
 10
2550.277147382558
 20
1869.827591008825
 30
0.0
 70
    32
  0
VERTEX
  5
E06A
330
E045
100
AcDbEntity
  8
AM_0
100
AcDbVertex
100
AcDb3dPolylineVertex
 10
2550.254347382557
 20
1869.797591008826
 30
0.0
 70
    32
  0
VERTEX
  5
E06B
330
E045
100
AcDbEntity
  8
AM_0
100
AcDbVertex
100
AcDb3dPolylineVertex
 10
2550.232247382557
 20
1869.766591008826
 30
0.0
 70
    32
  0
VERTEX
  5
E06C
330
E045
100
AcDbEntity
  8
AM_0
100
AcDbVertex
100
AcDb3dPolylineVertex
 10
2550.210747382557
 20
1869.735591008826
 30
0.0
 70
    32
  0
VERTEX
  5
E06D
330
E045
100
AcDbEntity
  8
AM_0
100
AcDbVertex
100
AcDb3dPolylineVertex
 10
2550.190047382557
 20
1869.703591008826
 30
0.0
 70
    32
  0
VERTEX
  5
E06E
330
E045
100
AcDbEntity
  8
AM_0
100
AcDbVertex
100
AcDb3dPolylineVertex
 10
2550.169947382558
 20
1869.671591008826
 30
0.0
 70
    32
  0
VERTEX
  5
E06F
330
E045
100
AcDbEntity
  8
AM_0
100
AcDbVertex
100
AcDb3dPolylineVertex
 10
2550.150647382558
 20
1869.638591008826
 30
0.0
 70
    32
  0
VERTEX
  5
E070
330
E045
100
AcDbEntity
  8
AM_0
100
AcDbVertex
100
AcDb3dPolylineVertex
 10
2550.132047382557
 20
1869.605591008826
 30
0.0
 70
    32
  0
VERTEX
  5
E071
330
E045
100
AcDbEntity
  8
AM_0
100
AcDbVertex
100
AcDb3dPolylineVertex
 10
2550.114147382557
 20
1869.571591008826
 30
0.0
 70
    32
  0
VERTEX
  5
E072
330
E045
100
AcDbEntity
  8
AM_0
100
AcDbVertex
100
AcDb3dPolylineVertex
 10
2550.097047382557
 20
1869.536591008826
 30
0.0
 70
    32
  0
VERTEX
  5
E073
330
E045
100
AcDbEntity
  8
AM_0
100
AcDbVertex
100
AcDb3dPolylineVertex
 10
2550.080747382557
 20
1869.501591008826
 30
0.0
 70
    32
  0
VERTEX
  5
E074
330
E045
100
AcDbEntity
  8
AM_0
100
AcDbVertex
100
AcDb3dPolylineVertex
 10
2550.065247382558
 20
1869.466591008826
 30
0.0
 70
    32
  0
VERTEX
  5
E075
330
E045
100
AcDbEntity
  8
AM_0
100
AcDbVertex
100
AcDb3dPolylineVertex
 10
2550.050447382558
 20
1869.430591008826
 30
0.0
 70
    32
  0
VERTEX
  5
E076
330
E045
100
AcDbEntity
  8
AM_0
100
AcDbVertex
100
AcDb3dPolylineVertex
 10
2550.036547382558
 20
1869.394591008825
 30
0.0
 70
    32
  0
VERTEX
  5
E077
330
E045
100
AcDbEntity
  8
AM_0
100
AcDbVertex
100
AcDb3dPolylineVertex
 10
2550.023347382558
 20
1869.358591008825
 30
0.0
 70
    32
  0
VERTEX
  5
E078
330
E045
100
AcDbEntity
  8
AM_0
100
AcDbVertex
100
AcDb3dPolylineVertex
 10
2550.010947382558
 20
1869.321591008825
 30
0.0
 70
    32
  0
VERTEX
  5
E079
330
E045
100
AcDbEntity
  8
AM_0
100
AcDbVertex
100
AcDb3dPolylineVertex
 10
2549.999447382557
 20
1869.284591008826
 30
0.0
 70
    32
  0
VERTEX
  5
E07A
330
E045
100
AcDbEntity
  8
AM_0
100
AcDbVertex
100
AcDb3dPolylineVertex
 10
2549.988747382557
 20
1869.246591008826
 30
0.0
 70
    32
  0
VERTEX
  5
E07B
330
E045
100
AcDbEntity
  8
AM_0
100
AcDbVertex
100
AcDb3dPolylineVertex
 10
2549.978847382558
 20
1869.209591008826
 30
0.0
 70
    32
  0
VERTEX
  5
E07C
330
E045
100
AcDbEntity
  8
AM_0
100
AcDbVertex
100
AcDb3dPolylineVertex
 10
2549.969847382558
 20
1869.171591008826
 30
0.0
 70
    32
  0
VERTEX
  5
E07D
330
E045
100
AcDbEntity
  8
AM_0
100
AcDbVertex
100
AcDb3dPolylineVertex
 10
2549.961647382557
 20
1869.133591008826
 30
0.0
 70
    32
  0
VERTEX
  5
E07E
330
E045
100
AcDbEntity
  8
AM_0
100
AcDbVertex
100
AcDb3dPolylineVertex
 10
2549.954347382557
 20
1869.094591008826
 30
0.0
 70
    32
  0
VERTEX
  5
E07F
330
E045
100
AcDbEntity
  8
AM_0
100
AcDbVertex
100
AcDb3dPolylineVertex
 10
2549.947847382558
 20
1869.056591008826
 30
0.0
 70
    32
  0
VERTEX
  5
E080
330
E045
100
AcDbEntity
  8
AM_0
100
AcDbVertex
100
AcDb3dPolylineVertex
 10
2549.942247382557
 20
1869.017591008826
 30
0.0
 70
    32
  0
VERTEX
  5
E081
330
E045
100
AcDbEntity
  8
AM_0
100
AcDbVertex
100
AcDb3dPolylineVertex
 10
2549.937447382558
 20
1868.978591008826
 30
0.0
 70
    32
  0
VERTEX
  5
E082
330
E045
100
AcDbEntity
  8
AM_0
100
AcDbVertex
100
AcDb3dPolylineVertex
 10
2549.933547382558
 20
1868.939591008826
 30
0.0
 70
    32
  0
VERTEX
  5
E083
330
E045
100
AcDbEntity
  8
AM_0
100
AcDbVertex
100
AcDb3dPolylineVertex
 10
2549.930447382558
 20
1868.900591008826
 30
0.0
 70
    32
  0
VERTEX
  5
E084
330
E045
100
AcDbEntity
  8
AM_0
100
AcDbVertex
100
AcDb3dPolylineVertex
 10
2549.928347382557
 20
1868.860591008826
 30
0.0
 70
    32
  0
VERTEX
  5
E085
330
E045
100
AcDbEntity
  8
AM_0
100
AcDbVertex
100
AcDb3dPolylineVertex
 10
2549.927047382557
 20
1868.821591008826
 30
0.0
 70
    32
  0
VERTEX
  5
E086
330
E045
100
AcDbEntity
  8
AM_0
100
AcDbVertex
100
AcDb3dPolylineVertex
 10
2549.926547382558
 20
1868.782591008826
 30
0.0
 70
    32
  0
VERTEX
  5
E087
330
E045
100
AcDbEntity
  8
AM_0
100
AcDbVertex
100
AcDb3dPolylineVertex
 10
2549.927047382557
 20
1868.743591008826
 30
0.0
 70
    32
  0
VERTEX
  5
E088
330
E045
100
AcDbEntity
  8
AM_0
100
AcDbVertex
100
AcDb3dPolylineVertex
 10
2549.928347382557
 20
1868.703591008826
 30
0.0
 70
    32
  0
VERTEX
  5
E089
330
E045
100
AcDbEntity
  8
AM_0
100
AcDbVertex
100
AcDb3dPolylineVertex
 10
2549.930447382558
 20
1868.664591008825
 30
0.0
 70
    32
  0
VERTEX
  5
E08A
330
E045
100
AcDbEntity
  8
AM_0
100
AcDbVertex
100
AcDb3dPolylineVertex
 10
2549.933547382558
 20
1868.625591008825
 30
0.0
 70
    32
  0
VERTEX
  5
E08B
330
E045
100
AcDbEntity
  8
AM_0
100
AcDbVertex
100
AcDb3dPolylineVertex
 10
2549.937447382558
 20
1868.586591008826
 30
0.0
 70
    32
  0
VERTEX
  5
E08C
330
E045
100
AcDbEntity
  8
AM_0
100
AcDbVertex
100
AcDb3dPolylineVertex
 10
2549.942247382557
 20
1868.547591008826
 30
0.0
 70
    32
  0
VERTEX
  5
E08D
330
E045
100
AcDbEntity
  8
AM_0
100
AcDbVertex
100
AcDb3dPolylineVertex
 10
2549.947847382558
 20
1868.508591008826
 30
0.0
 70
    32
  0
VERTEX
  5
E08E
330
E045
100
AcDbEntity
  8
AM_0
100
AcDbVertex
100
AcDb3dPolylineVertex
 10
2549.954347382557
 20
1868.470591008826
 30
0.0
 70
    32
  0
VERTEX
  5
E08F
330
E045
100
AcDbEntity
  8
AM_0
100
AcDbVertex
100
AcDb3dPolylineVertex
 10
2549.961647382557
 20
1868.431591008826
 30
0.0
 70
    32
  0
VERTEX
  5
E090
330
E045
100
AcDbEntity
  8
AM_0
100
AcDbVertex
100
AcDb3dPolylineVertex
 10
2549.969847382558
 20
1868.393591008826
 30
0.0
 70
    32
  0
VERTEX
  5
E091
330
E045
100
AcDbEntity
  8
AM_0
100
AcDbVertex
100
AcDb3dPolylineVertex
 10
2549.978847382558
 20
1868.355591008826
 30
0.0
 70
    32
  0
VERTEX
  5
E092
330
E045
100
AcDbEntity
  8
AM_0
100
AcDbVertex
100
AcDb3dPolylineVertex
 10
2549.988747382557
 20
1868.318591008826
 30
0.0
 70
    32
  0
VERTEX
  5
E093
330
E045
100
AcDbEntity
  8
AM_0
100
AcDbVertex
100
AcDb3dPolylineVertex
 10
2549.999447382557
 20
1868.280591008826
 30
0.0
 70
    32
  0
VERTEX
  5
E094
330
E045
100
AcDbEntity
  8
AM_0
100
AcDbVertex
100
AcDb3dPolylineVertex
 10
2550.010947382558
 20
1868.243591008825
 30
0.0
 70
    32
  0
VERTEX
  5
E095
330
E045
100
AcDbEntity
  8
AM_0
100
AcDbVertex
100
AcDb3dPolylineVertex
 10
2550.023347382558
 20
1868.206591008825
 30
0.0
 70
    32
  0
VERTEX
  5
E096
330
E045
100
AcDbEntity
  8
AM_0
100
AcDbVertex
100
AcDb3dPolylineVertex
 10
2550.036547382558
 20
1868.170591008826
 30
0.0
 70
    32
  0
VERTEX
  5
E097
330
E045
100
AcDbEntity
  8
AM_0
100
AcDbVertex
100
AcDb3dPolylineVertex
 10
2550.050447382558
 20
1868.134591008826
 30
0.0
 70
    32
  0
VERTEX
  5
E098
330
E045
100
AcDbEntity
  8
AM_0
100
AcDbVertex
100
AcDb3dPolylineVertex
 10
2550.065247382558
 20
1868.098591008825
 30
0.0
 70
    32
  0
VERTEX
  5
E099
330
E045
100
AcDbEntity
  8
AM_0
100
AcDbVertex
100
AcDb3dPolylineVertex
 10
2550.080747382557
 20
1868.063591008826
 30
0.0
 70
    32
  0
VERTEX
  5
E09A
330
E045
100
AcDbEntity
  8
AM_0
100
AcDbVertex
100
AcDb3dPolylineVertex
 10
2550.097047382557
 20
1868.028591008826
 30
0.0
 70
    32
  0
VERTEX
  5
E09B
330
E045
100
AcDbEntity
  8
AM_0
100
AcDbVertex
100
AcDb3dPolylineVertex
 10
2550.114147382557
 20
1867.993591008826
 30
0.0
 70
    32
  0
VERTEX
  5
E09C
330
E045
100
AcDbEntity
  8
AM_0
100
AcDbVertex
100
AcDb3dPolylineVertex
 10
2550.132047382557
 20
1867.959591008826
 30
0.0
 70
    32
  0
VERTEX
  5
E09D
330
E045
100
AcDbEntity
  8
AM_0
100
AcDbVertex
100
AcDb3dPolylineVertex
 10
2550.150647382558
 20
1867.926591008826
 30
0.0
 70
    32
  0
VERTEX
  5
E09E
330
E045
100
AcDbEntity
  8
AM_0
100
AcDbVertex
100
AcDb3dPolylineVertex
 10
2550.169947382558
 20
1867.893591008825
 30
0.0
 70
    32
  0
VERTEX
  5
E09F
330
E045
100
AcDbEntity
  8
AM_0
100
AcDbVertex
100
AcDb3dPolylineVertex
 10
2550.190047382557
 20
1867.861591008826
 30
0.0
 70
    32
  0
VERTEX
  5
E0A0
330
E045
100
AcDbEntity
  8
AM_0
100
AcDbVertex
100
AcDb3dPolylineVertex
 10
2550.210747382557
 20
1867.829591008825
 30
0.0
 70
    32
  0
VERTEX
  5
E0A1
330
E045
100
AcDbEntity
  8
AM_0
100
AcDbVertex
100
AcDb3dPolylineVertex
 10
2550.232247382557
 20
1867.798591008826
 30
0.0
 70
    32
  0
VERTEX
  5
E0A2
330
E045
100
AcDbEntity
  8
AM_0
100
AcDbVertex
100
AcDb3dPolylineVertex
 10
2550.254347382557
 20
1867.767591008826
 30
0.0
 70
    32
  0
VERTEX
  5
E0A3
330
E045
100
AcDbEntity
  8
AM_0
100
AcDbVertex
100
AcDb3dPolylineVertex
 10
2550.277147382558
 20
1867.737591008826
 30
0.0
 70
    32
  0
VERTEX
  5
E0A4
330
E045
100
AcDbEntity
  8
AM_0
100
AcDbVertex
100
AcDb3dPolylineVertex
 10
2550.300647382557
 20
1867.707591008825
 30
0.0
 70
    32
  0
VERTEX
  5
E0A5
330
E045
100
AcDbEntity
  8
AM_0
100
AcDbVertex
100
AcDb3dPolylineVertex
 10
2550.324747382558
 20
1867.679591008826
 30
0.0
 70
    32
  0
VERTEX
  5
E0A6
330
E045
100
AcDbEntity
  8
AM_0
100
AcDbVertex
100
AcDb3dPolylineVertex
 10
2550.349547382558
 20
1867.651591008826
 30
0.0
 70
    32
  0
VERTEX
  5
E0A7
330
E045
100
AcDbEntity
  8
AM_0
100
AcDbVertex
100
AcDb3dPolylineVertex
 10
2550.374947382558
 20
1867.623591008826
 30
0.0
 70
    32
  0
VERTEX
  5
E0A8
330
E045
100
AcDbEntity
  8
AM_0
100
AcDbVertex
100
AcDb3dPolylineVertex
 10
2550.400847382557
 20
1867.596591008826
 30
0.0
 70
    32
  0
VERTEX
  5
E0A9
330
E045
100
AcDbEntity
  8
AM_0
100
AcDbVertex
100
AcDb3dPolylineVertex
 10
2550.427447382557
 20
1867.570591008826
 30
0.0
 70
    32
  0
VERTEX
  5
E0AA
330
E045
100
AcDbEntity
  8
AM_0
100
AcDbVertex
100
AcDb3dPolylineVertex
 10
2550.454547382557
 20
1867.545591008825
 30
0.0
 70
    32
  0
VERTEX
  5
E0AB
330
E045
100
AcDbEntity
  8
AM_0
100
AcDbVertex
100
AcDb3dPolylineVertex
 10
2550.482247382557
 20
1867.521591008826
 30
0.0
 70
    32
  0
VERTEX
  5
E0AC
330
E045
100
AcDbEntity
  8
AM_0
100
AcDbVertex
100
AcDb3dPolylineVertex
 10
2550.510447382558
 20
1867.497591008826
 30
0.0
 70
    32
  0
VERTEX
  5
E0AD
330
E045
100
AcDbEntity
  8
AM_0
100
AcDbVertex
100
AcDb3dPolylineVertex
 10
2550.539147382558
 20
1867.474591008826
 30
0.0
 70
    32
  0
VERTEX
  5
E0AE
330
E045
100
AcDbEntity
  8
AM_0
100
AcDbVertex
100
AcDb3dPolylineVertex
 10
2550.568347382557
 20
1867.452591008825
 30
0.0
 70
    32
  0
VERTEX
  5
E0AF
330
E045
100
AcDbEntity
  8
AM_0
100
AcDbVertex
100
AcDb3dPolylineVertex
 10
2550.598147382558
 20
1867.430591008826
 30
0.0
 70
    32
  0
VERTEX
  5
E0B0
330
E045
100
AcDbEntity
  8
AM_0
100
AcDbVertex
100
AcDb3dPolylineVertex
 10
2550.628247382558
 20
1867.410591008826
 30
0.0
 70
    32
  0
VERTEX
  5
E0B1
330
E045
100
AcDbEntity
  8
AM_0
100
AcDbVertex
100
AcDb3dPolylineVertex
 10
2550.658847382558
 20
1867.390591008825
 30
0.0
 70
    32
  0
VERTEX
  5
E0B2
330
E045
100
AcDbEntity
  8
AM_0
100
AcDbVertex
100
AcDb3dPolylineVertex
 10
2550.689947382557
 20
1867.371591008826
 30
0.0
 70
    32
  0
VERTEX
  5
E0B3
330
E045
100
AcDbEntity
  8
AM_0
100
AcDbVertex
100
AcDb3dPolylineVertex
 10
2550.721447382557
 20
1867.353591008826
 30
0.0
 70
    32
  0
VERTEX
  5
E0B4
330
E045
100
AcDbEntity
  8
AM_0
100
AcDbVertex
100
AcDb3dPolylineVertex
 10
2550.753247382558
 20
1867.336591008825
 30
0.0
 70
    32
  0
VERTEX
  5
E0B5
330
E045
100
AcDbEntity
  8
AM_0
100
AcDbVertex
100
AcDb3dPolylineVertex
 10
2550.785447382557
 20
1867.319591008826
 30
0.0
 70
    32
  0
VERTEX
  5
E0B6
330
E045
100
AcDbEntity
  8
AM_0
100
AcDbVertex
100
AcDb3dPolylineVertex
 10
2550.818047382558
 20
1867.304591008826
 30
0.0
 70
    32
  0
VERTEX
  5
E0B7
330
E045
100
AcDbEntity
  8
AM_0
100
AcDbVertex
100
AcDb3dPolylineVertex
 10
2550.850947382557
 20
1867.289591008826
 30
0.0
 70
    32
  0
VERTEX
  5
E0B8
330
E045
100
AcDbEntity
  8
AM_0
100
AcDbVertex
100
AcDb3dPolylineVertex
 10
2550.884147382558
 20
1867.275591008826
 30
0.0
 70
    32
  0
VERTEX
  5
E0B9
330
E045
100
AcDbEntity
  8
AM_0
100
AcDbVertex
100
AcDb3dPolylineVertex
 10
2550.917747382558
 20
1867.263591008826
 30
0.0
 70
    32
  0
VERTEX
  5
E0BA
330
E045
100
AcDbEntity
  8
AM_0
100
AcDbVertex
100
AcDb3dPolylineVertex
 10
2550.951447382558
 20
1867.251591008826
 30
0.0
 70
    32
  0
VERTEX
  5
E0BB
330
E045
100
AcDbEntity
  8
AM_0
100
AcDbVertex
100
AcDb3dPolylineVertex
 10
2550.985547382558
 20
1867.240591008826
 30
0.0
 70
    32
  0
VERTEX
  5
E0BC
330
E045
100
AcDbEntity
  8
AM_0
100
AcDbVertex
100
AcDb3dPolylineVertex
 10
2551.019847382558
 20
1867.230591008826
 30
0.0
 70
    32
  0
VERTEX
  5
E0BD
330
E045
100
AcDbEntity
  8
AM_0
100
AcDbVertex
100
AcDb3dPolylineVertex
 10
2551.054247382558
 20
1867.221591008826
 30
0.0
 70
    32
  0
VERTEX
  5
E0BE
330
E045
100
AcDbEntity
  8
AM_0
100
AcDbVertex
100
AcDb3dPolylineVertex
 10
2551.088947382558
 20
1867.213591008826
 30
0.0
 70
    32
  0
VERTEX
  5
E0BF
330
E045
100
AcDbEntity
  8
AM_0
100
AcDbVertex
100
AcDb3dPolylineVertex
 10
2551.123847382557
 20
1867.206591008826
 30
0.0
 70
    32
  0
VERTEX
  5
E0C0
330
E045
100
AcDbEntity
  8
AM_0
100
AcDbVertex
100
AcDb3dPolylineVertex
 10
2551.158847382558
 20
1867.199591008826
 30
0.0
 70
    32
  0
VERTEX
  5
E0C1
330
E045
100
AcDbEntity
  8
AM_0
100
AcDbVertex
100
AcDb3dPolylineVertex
 10
2551.193947382558
 20
1867.194591008826
 30
0.0
 70
    32
  0
VERTEX
  5
E0C2
330
E045
100
AcDbEntity
  8
AM_0
100
AcDbVertex
100
AcDb3dPolylineVertex
 10
2551.229147382557
 20
1867.190591008826
 30
0.0
 70
    32
  0
VERTEX
  5
E0C3
330
E045
100
AcDbEntity
  8
AM_0
100
AcDbVertex
100
AcDb3dPolylineVertex
 10
2551.264447382558
 20
1867.186591008826
 30
0.0
 70
    32
  0
VERTEX
  5
E0C4
330
E045
100
AcDbEntity
  8
AM_0
100
AcDbVertex
100
AcDb3dPolylineVertex
 10
2551.299847382558
 20
1867.184591008826
 30
0.0
 70
    32
  0
VERTEX
  5
E0C5
330
E045
100
AcDbEntity
  8
AM_0
100
AcDbVertex
100
AcDb3dPolylineVertex
 10
2551.335247382557
 20
1867.182591008826
 30
0.0
 70
    32
  0
VERTEX
  5
E0C6
330
E045
100
AcDbEntity
  8
AM_0
100
AcDbVertex
100
AcDb3dPolylineVertex
 10
2551.370747382557
 20
1867.182591008826
 30
0.0
 70
    32
  0
SEQEND
  5
E0C7
330
E045
100
AcDbEntity
  8
AM_0
  0
LINE
  5
E0D0
330
1F
100
AcDbEntity
  8
AM_0
100
AcDbLine
 10
2559.209925843584
 20
1872.782559514677
 30
0.0
 11
2559.209925843584
 21
1872.782559514675
 31
0.0
  0
LINE
  5
E0DE
330
1F
100
AcDbEntity
  8
AM_0
100
AcDbLine
 10
2563.499741443836
 20
1874.782559514676
 30
0.0
 11
2590.87070549413
 21
1874.782559514676
 31
0.0
  0
ARC
  5
E104
330
1F
100
AcDbEntity
  8
AM_0
100
AcDbCircle
 10
2561.499741443836
 20
1874.782559741171
 30
0.0
 40
2.0
100
AcDbArc
 50
210.0000037461859
 51
359.9999935114128
  0
ARC
  5
E106
330
1F
100
AcDbEntity
  8
AM_0
100
AcDbCircle
 10
2558.035639959465
 20
1872.782559514676
 30
0.0
 40
2.0
100
AcDbArc
 50
30.00000374618586
 51
90.0
  0
LINE
  5
E107
330
1F
100
AcDbEntity
  8
AM_0
100
AcDbLine
 10
2559.209925843584
 20
1774.782551885288
 30
0.0
 11
2559.209925843584
 21
1774.78255188529
 31
0.0
  0
ARC
  5
E108
330
1F
100
AcDbEntity
  8
AM_0
100
AcDbCircle
 10
2561.499741443836
 20
1772.782551658795
 30
0.0
 40
2.0
100
AcDbArc
 50
0.0000064885807021
 51
149.9999962538043
  0
ARC
  5
E109
330
1F
100
AcDbEntity
  8
AM_0
100
AcDbCircle
 10
2558.035639959465
 20
1774.782551885289
 30
0.0
 40
2.0
100
AcDbArc
 50
270.0
 51
329.9999962538043
  0
LINE
  5
E10A
330
1F
100
AcDbEntity
  8
AM_0
100
AcDbLine
 10
2563.499741443802
 20
1772.782563329382
 30
0.0
 11
2590.87070549413
 21
1772.782563329382
 31
0.0
  0
LINE
  5
E153
330
1F
100
AcDbEntity
  8
AM_0
100
AcDbLine
 10
2692.547136649472
 20
1872.782559753095
 30
0.0
 11
2692.547136649471
 21
1872.782559753093
 31
0.0
  0
ARC
  5
E154
330
1F
100
AcDbEntity
  8
AM_0
100
AcDbCircle
 10
2694.836952249724
 20
1874.782559979588
 30
0.0
 40
2.0
100
AcDbArc
 50
210.0000037461857
 51
359.9999935114128
  0
ARC
  5
E155
330
1F
100
AcDbEntity
  8
AM_0
100
AcDbCircle
 10
2691.372850765353
 20
1872.782559753094
 30
0.0
 40
2.0
100
AcDbArc
 50
30.00000374618571
 51
90.0
  0
LINE
  5
E156
330
1F
100
AcDbEntity
  8
AM_0
100
AcDbLine
 10
2696.836952249724
 20
1874.782559514676
 30
0.0
 11
2724.207924883087
 21
1874.782559514676
 31
0.0
  0
LINE
  5
E157
330
1F
100
AcDbEntity
  8
AM_0
100
AcDbLine
 10
2690.257914583405
 20
1872.782559514676
 30
0.0
 11
2690.257914583405
 21
1844.782558561001
 31
0.0
  0
LINE
  5
E158
330
1F
100
AcDbEntity
  8
AM_0
100
AcDbLine
 10
2692.547136649472
 20
1844.782558322582
 30
0.0
 11
2692.547136649471
 21
1844.782558322584
 31
0.0
  0
ARC
  5
E159
330
1F
100
AcDbEntity
  8
AM_0
100
AcDbCircle
 10
2694.836952249724
 20
1842.782558096088
 30
0.0
 40
2.0
100
AcDbArc
 50
0.0000064885807021
 51
149.9999962538043
  0
ARC
  5
E15A
330
1F
100
AcDbEntity
  8
AM_0
100
AcDbCircle
 10
2691.372850765353
 20
1844.782558322583
 30
0.0
 40
2.0
100
AcDbArc
 50
270.0
 51
329.9999962538044
  0
LINE
  5
E15B
330
1F
100
AcDbEntity
  8
AM_0
100
AcDbLine
 10
2696.836952249724
 20
1842.782558561001
 30
0.0
 11
2724.207924883087
 21
1842.782558561001
 31
0.0
  0
ENDSEC
  0
SECTION
  2
OBJECTS
  0
DICTIONARY
  5
C
330
0
100
AcDbDictionary
281
     1
  3
ACAD_2007HEADERVARS_RT
350
E249
  3
ACAD_BGPLOT_KEY
350
AB06
  3
ACAD_COLOR
350
A91D
  3
ACAD_GROUP
350
D
  3
ACAD_LAYOUT
350
1A
  3
ACAD_MATERIAL
350
A91C
  3
ACAD_MLINESTYLE
350
17
  3
ACAD_PLOTSETTINGS
350
19
  3
ACAD_PLOTSTYLENAME
350
E
  3
ACAD_TABLESTYLE
350
AAB9
  3
ACAD_VISUALSTYLE
350
B0F1
  3
AcAsAppObject
350
3DA1
  3
ACASGREF_MASTER
350
3DE9
  3
AcDbVariableDictionary
350
34
  3
AcmDictionary
350
47
  3
AD_GREF_MODULE
350
3DEA
  3
AD_MAPI_MODULE
350
3E06
  3
AMG
350
2B
  3
AMGSNAPSETTINGS
350
7D
  3
ASE_INDEX_DICTIONARY
350
B331
  3
MAPISURF_MODULE
350
3DEB
  0
DICTIONARY
  5
E15E
330
8
100
AcDbDictionary
280
     1
281
     1
  0
DICTIONARY
  5
3F95
330
2
100
AcDbDictionary
280
     1
281
     1
  3
ACAD_LAYERFILTERS
360
B4DC
  3
ACAD_LAYERSTATES
360
3F96
  3
ACLYDICTIONARY
360
B4DB
  3
AMLAYER_GROUPCOLORS
360
AAB4
  0
DICTIONARY
  5
8A
330
1F
100
AcDbDictionary
280
     1
281
     1
  3
ACAD_SORTENTS
360
B1BA
  0
DICTIONARY
  5
BE76
330
BE62
100
AcDbDictionary
280
     1
281
     1
  3
ACAD_SORTENTS
360
BE77
  0
DICTIONARY
  5
BEE5
330
BE8C
100
AcDbDictionary
280
     1
281
     1
  3
ACAD_SORTENTS
360
BEE6
  0
DICTIONARY
  5
E249
102
{ACAD_REACTORS
330
C
102
}
330
C
100
AcDbDictionary
281
     1
  3
DIMARCSYM
350
E24A
  0
DICTIONARY
  5
AB06
102
{ACAD_REACTORS
330
C
102
}
330
C
100
AcDbDictionary
280
     1
281
     1
  0
DICTIONARY
  5
A91D
102
{ACAD_REACTORS
330
C
102
}
330
C
100
AcDbDictionary
281
     1
  0
DICTIONARY
  5
D
102
{ACAD_REACTORS
330
C
102
}
330
C
100
AcDbDictionary
281
     1
  0
DICTIONARY
  5
1A
102
{ACAD_REACTORS
330
C
102
}
330
C
100
AcDbDictionary
281
     1
  3
Model
350
22
  3
ﾚｲｱｳﾄ1
350
1E
  3
ﾚｲｱｳﾄ2
350
26
  0
DICTIONARY
  5
A91C
102
{ACAD_REACTORS
330
C
102
}
330
C
100
AcDbDictionary
281
     1
  3
ByBlock
350
B0EF
  3
ByLayer
350
B0EE
  3
Global
350
B0F0
  0
DICTIONARY
  5
17
102
{ACAD_REACTORS
330
C
102
}
330
C
100
AcDbDictionary
281
     1
  3
Standard
350
18
  0
DICTIONARY
  5
19
102
{ACAD_REACTORS
330
C
102
}
330
C
100
AcDbDictionary
281
     1
  0
ACDBDICTIONARYWDFLT
  5
E
102
{ACAD_REACTORS
330
C
102
}
330
C
100
AcDbDictionary
281
     1
  3
Normal
350
F
100
AcDbDictionaryWithDefault
340
F
  0
DICTIONARY
  5
AAB9
102
{ACAD_REACTORS
330
C
102
}
330
C
100
AcDbDictionary
281
     1
  3
Standard
350
AABA
  0
DICTIONARY
  5
B0F1
102
{ACAD_REACTORS
330
C
102
}
330
C
100
AcDbDictionary
281
     1
  3
2dWireframe
350
B0F7
  3
3D Hidden
350
B0F9
  3
3dWireframe
350
B0F8
  3
Basic
350
B0F6
  3
Brighten
350
B0FD
  3
ColorChange
350
B101
  3
Conceptual
350
B0FA
  3
Dim
350
B0FC
  3
Facepattern
350
B100
  3
Flat
350
B0F2
  3
FlatWithEdges
350
B0F3
  3
Gouraud
350
B0F4
  3
GouraudWithEdges
350
B0F5
  3
Linepattern
350
B0FF
  3
Realistic
350
B0FB
  3
Thicken
350
B0FE
  0
ACAD_PROXY_OBJECT
  5
3DA1
102
{ACAD_REACTORS
330
C
102
}
330
C
100
AcDbProxyObject
 90
      499
 91
      576
 95
   917527
 70
     0
 93
       10
310
407F
 94
        0
  0
ACAD_PROXY_OBJECT
  5
3DE9
102
{ACAD_REACTORS
330
C
102
}
330
C
100
AcDbProxyObject
 90
      499
 91
      581
 95
   917527
 70
     0
 93
       34
310
010000407F
 94
        0
  0
DICTIONARY
  5
34
102
{ACAD_REACTORS
330
C
102
}
330
C
100
AcDbDictionary
281
     1
  3
CTABLESTYLE
350
AAF3
  3
DIMASSOC
350
A10C
  3
FIELDEVAL
350
AB07
  3
INDEXCTL
350
35
  3
SORTENTS
350
194C
  0
DICTIONARY
  5
47
102
{ACAD_REACTORS
330
C
102
}
330
C
100
AcDbDictionary
281
     1
  3
AcmBOM
350
7E8
  3
AcmStdDictionary
350
4C
  3
AMDTSECTSYM_ARROWCOLOR
350
A929
  0
ACAD_PROXY_OBJECT
  5
3DEA
102
{ACAD_REACTORS
330
C
102
}
330
C
100
AcDbProxyObject
 90
      499
 91
      582
 95
   917527
 70
     0
 93
      114
310
00000043800000000000000000003F
 94
        0
  0
ACAD_PROXY_OBJECT
  5
3E06
102
{ACAD_REACTORS
330
C
102
}
330
C
100
AcDbProxyObject
 90
      499
 91
      594
 95
   917527
 70
     0
 93
       34
310
05000044FF
 94
        0
  0
DICTIONARY
  5
2B
102
{ACAD_REACTORS
330
C
102
}
330
C
100
AcDbDictionary
281
     1
  0
DICTIONARY
  5
7D
102
{ACAD_REACTORS
330
C
102
}
330
C
100
AcDbDictionary
281
     1
  0
DICTIONARY
  5
B331
102
{ACAD_REACTORS
330
C
102
}
330
C
100
AcDbDictionary
281
     1
  3
ASEBlockHierarchyIndexRecord
350
B332
1001
DCO15
1040
1594111214.218
  0
ACAD_PROXY_OBJECT
  5
3DEB
102
{ACAD_REACTORS
330
C
102
}
330
C
100
AcDbProxyObject
 90
      499
 91
      583
 95
   917527
 70
     0
 93
        8
310
0477
 94
        0
  0
DICTIONARY
  5
B4DC
102
{ACAD_REACTORS
330
3F95
102
}
330
3F95
100
AcDbDictionary
281
     1
  0
DICTIONARY
  5
3F96
102
{ACAD_REACTORS
330
3F95
102
}
330
3F95
100
AcDbDictionary
281
     1
  3
20011210
350
3FB7
  0
DICTIONARY
  5
B4DB
102
{ACAD_REACTORS
330
3F95
102
}
330
3F95
100
AcDbDictionary
281
     1
1001
ACAD
1000
<All
  0
DICTIONARY
  5
AAB4
102
{ACAD_REACTORS
330
3F95
102
}
330
3F95
100
AcDbDictionary
280
     1
281
     1
  0
SORTENTSTABLE
  5
B1BA
102
{ACAD_REACTORS
330
8A
102
}
330
8A
100
AcDbSortentsTable
330
1F
331
BA21
  5
BA26
331
BA31
  5
BA36
331
B9EA
  5
B9EF
331
BA39
  5
BA3E
331
B9AB
  5
B9AE
331
E158
  5
E159
331
D2D1
  5
D301
331
E109
  5
E154
331
D570
  5
D575
331
D301
  5
D572
331
BF64
  5
BF69
331
B9B3
  5
B9BA
331
BF6C
  5
D2B5
331
BA0A
  5
BA0F
331
B9BB
  5
B9BE
331
B9C3
  5
B9C7
331
BA1A
  5
BA1F
331
B9CB
  5
B9CF
331
D2BC
  5
D2C3
331
D2C4
  5
D2C9
331
D2CC
  5
D2D6
331
D580
  5
D586
331
D588
  5
D72B
331
BA22
  5
BA27
331
B99C
  5
B99C
331
B9DB
  5
B9DF
331
B9A4
  5
B9A6
331
B9E3
  5
B9E8
331
BA32
  5
BA38
331
B9AC
  5
B9AF
331
B9EB
  5
BA05
331
BA3A
  5
BA3F
331
E159
  5
E15A
331
E10A
  5
B9A7
331
D2B5
  5
D2BC
331
D571
  5
D576
331
D579
  5
D581
331
DFBF
  5
E0D0
331
BF65
  5
BF6A
331
BF6D
  5
D2B6
331
B9B4
  5
B9BB
331
BA0B
  5
BA19
331
B9BC
  5
B9BF
331
BAC8
  5
BF65
331
B9C4
  5
B9CB
331
BA1B
  5
BA20
331
B9CC
  5
B9D0
331
D2BD
  5
D2C4
331
D2C5
  5
D2CA
331
D581
  5
D587
331
D72B
  5
D7C1
331
E045
  5
E106
331
BA23
  5
BA28
331
B99D
  5
B99D
331
B9E4
  5
B9E9
331
BA33
  5
BA39
331
B9A5
  5
B9A8
331
B9AD
  5
B9B0
331
B9EC
  5
BA06
331
BA3B
  5
BA45
331
E15A
  5
E15B
331
D2B6
  5
D2BD
331
DFA8
  5
E045
331
D572
  5
D579
331
D57A
  5
D582
331
DFC0
  5
E0DD
331
BF66
  5
BF6B
331
BF6E
  5
D2B7
331
BA0C
  5
BA1A
331
B9BD
  5
B9C0
331
BA1C
  5
BA21
331
B9CD
  5
B9D1
331
D2BE
  5
D2C5
331
D7F6
  5
DAE9
331
D2C6
  5
D2CB
331
D2CE
  5
D2F8
331
DAE9
  5
DDBF
331
D582
  5
D588
331
E153
  5
E155
331
B9D5
  5
B9D8
331
BA24
  5
BA29
331
B9DD
  5
B9E1
331
B9A6
  5
B9A9
331
B9E5
  5
B9EA
331
BA34
  5
BA3A
331
B9AE
  5
B9B1
331
B9ED
  5
BA07
331
BA3C
  5
BAC8
331
E15B
  5
B9E3
331
E104
  5
E108
331
D2B7
  5
D2BE
331
D573
  5
D57A
331
D57B
  5
D583
331
D715
  5
D78B
331
DFC1
  5
E0DE
331
BF67
  5
BF6C
331
BF6F
  5
D2B8
331
BA05
  5
BA0A
331
B9BE
  5
B9C3
331
BA0D
  5
BA1B
331
B9C6
  5
B9CC
331
BA1D
  5
BA22
331
D2BF
  5
D2C6
331
D2C7
  5
D2CC
331
D583
  5
D5CD
331
D2CF
  5
D2FF
331
DAEA
  5
DE27
331
E154
  5
E156
331
D745
  5
D7E0
331
B997
  5
B997
331
B9D6
  5
B9D9
331
BA25
  5
BA2A
331
B9DE
  5
B9E4
331
B9E6
  5
B9EB
331
BA35
  5
BA3B
331
B9A7
  5
B9AA
331
B9AF
  5
B9B2
331
B9EE
  5
BA08
331
BA3D
  5
BF61
331
D771
  5
D842
331
D7E0
  5
DA8E
331
D574
  5
D57B
331
DFC2
  5
E104
331
BF68
  5
BF6D
331
BA06
  5
BA0B
331
BA45
  5
BF64
331
BA0E
  5
BA1C
331
B9BF
  5
B9C4
331
BA1E
  5
BA23
331
B9C7
  5
B9CD
331
B9CF
  5
B9D2
331
D2B8
  5
D2BF
331
D2C8
  5
D2CE
331
DAEB
  5
DFA8
331
E155
  5
E157
331
D6FF
  5
D771
331
B990
  5
B990
331
BA26
  5
BA2C
331
B998
  5
B998
331
B9A0
  5
B9A0
331
B9DF
  5
B9E5
331
B9A8
  5
B9AB
331
B9E7
  5
B9EC
331
BA36
  5
BA3C
331
BA3E
  5
BF62
331
D7C1
  5
DA8D
331
B9EF
  5
BA09
331
E0DE
  5
B9A5
331
E106
  5
E109
331
D2D6
  5
D56E
331
DA8C
  5
DAEB
331
BF70
  5
D2B9
331
D575
  5
D57D
331
D57D
  5
D585
331
DDBF
  5
DFC1
331
BF61
  5
BF66
331
B9B0
  5
B9B3
331
BF69
  5
BF6E
331
BA07
  5
BA0C
331
B9C0
  5
B9C6
331
BA0F
  5
BA1D
331
BA1F
  5
BA24
331
D2B9
  5
D2C1
331
D2C1
  5
D2C7
331
D2C9
  5
D2CF
331
D585
  5
D6E9
331
E156
  5
B9E0
331
B9D0
  5
B9D5
331
BA27
  5
BA32
331
B9E0
  5
B9E6
331
BA2F
  5
BA34
331
B9E8
  5
B9ED
331
B9A9
  5
B9AC
331
D75B
  5
D7F6
331
BA3F
  5
BF63
331
E107
  5
E10A
331
DA8D
  5
DD89
331
D56E
  5
D573
331
D2FF
  5
D570
331
D576
  5
D580
331
D5CD
  5
D745
331
DE27
  5
DFC2
331
BF62
  5
BF67
331
B9B1
  5
B9B4
331
BF6A
  5
BF6F
331
BA08
  5
BA0D
331
B9B9
  5
B9BC
331
D78B
  5
DA8C
331
E0D0
  5
E107
331
D2CA
  5
D2D0
331
D586
  5
D6FF
331
D6E9
  5
D75B
331
E157
  5
E158
331
DD89
  5
DFBF
331
B9D1
  5
B9D6
331
BA20
  5
BA25
331
B9D9
  5
B9DE
331
BA28
  5
BA33
331
B9A2
  5
B9A2
331
B9E1
  5
B9E7
331
BA30
  5
BA35
331
B9AA
  5
B9AD
331
B9E9
  5
B9EE
331
BA38
  5
BA3D
331
D2D0
  5
D300
331
E108
  5
E153
331
D2F8
  5
D56F
331
DA8E
  5
DDA9
331
D56F
  5
D574
331
DDA9
  5
DFC0
331
D300
  5
D571
331
BF63
  5
BF68
331
BF6B
  5
BF70
331
B9B2
  5
B9B9
331
BA09
  5
BA0E
331
B9BA
  5
B9BD
331
BA19
  5
BA1E
331
D842
  5
DAEA
331
D2C3
  5
D2C8
331
D2CB
  5
D2D1
331
D587
  5
D715
  0
SORTENTSTABLE
  5
BE77
102
{ACAD_REACTORS
330
BE76
102
}
330
BE76
100
AcDbSortentsTable
330
BE62
  0
SORTENTSTABLE
  5
BEE6
102
{ACAD_REACTORS
330
BEE5
102
}
330
BEE5
100
AcDbSortentsTable
330
BE8C
  0
XRECORD
  5
E24A
102
{ACAD_REACTORS
330
E249
102
}
330
E249
100
AcDbXrecord
280
     1
 70
     1
  0
LAYOUT
  5
22
102
{ACAD_REACTORS
330
1A
102
}
330
1A
100
AcDbPlotSettings
  1

  2
Adobe PDF
  4
A3
  6

 40
3.174999952316284
 41
3.174999952316284
 42
3.17498779296875
 43
3.17498779296875
 44
297.0318298339844
 45
420.1583251953125
 46
-3.159078955650329
 47
-3.095831274986267
 48
2344.389191167252
 49
1706.682463161159
140
2764.389191167252
141
2003.68246316116
142
1.0
143
1.0
 70
  3748
 72
     1
 73
     1
 74
     4
  7
monochrome.ctb
 75
     0
147
0.9787267410393917
 76
     0
 77
     2
 78
   200
148
-2344.389191167252
149
-1706.682463161159
100
AcDbLayout
  1
Model
 70
     1
 71
     0
 10
0.0
 20
0.0
 11
12.0
 21
9.0
 12
0.0
 22
0.0
 32
0.0
 14
0.0
 24
0.0
 34
0.0
 15
0.0
 25
0.0
 35
0.0
146
0.0
 13
0.0
 23
0.0
 33
0.0
 16
1.0
 26
0.0
 36
0.0
 17
0.0
 27
1.0
 37
0.0
 76
     0
330
1F
331
B0EC
1001
ACAD_PSEXT
1000
Adobe PDF
1000
Adobe PDF Converter
1000
My Documents\*.pdf
1000

1070
     0
  0
LAYOUT
  5
1E
102
{ACAD_REACTORS
330
1A
102
}
330
1A
100
AcDbPlotSettings
  1

  2
\\ML370\XEROX
  4
A4
  6

 40
3.174999952316284
 41
3.174999952316284
 42
3.175003051757812
 43
3.17498779296875
 44
209.8674926757813
 45
296.6719970703125
 46
0.0
 47
0.0
 48
0.0
 49
0.0
140
0.0
141
0.0
142
1.0
143
1.0
 70
   688
 72
     1
 73
     1
 74
     5
  7
monochrome.ctb
 75
    16
147
1.0
 76
     0
 77
     2
 78
   300
148
0.0
149
0.0
100
AcDbLayout
  1
ﾚｲｱｳﾄ1
 70
     1
 71
     1
 10
-3.17498779296875
 20
-3.174999952316284
 11
293.4970092773438
 21
206.692492723465
 12
0.0
 22
0.0
 32
0.0
 14
1.000000000000000E+20
 24
1.000000000000000E+20
 34
1.000000000000000E+20
 15
-1.000000000000000E+20
 25
-1.000000000000000E+20
 35
-1.000000000000000E+20
146
0.0
 13
0.0
 23
0.0
 33
0.0
 16
1.0
 26
0.0
 36
0.0
 17
0.0
 27
1.0
 37
0.0
 76
     0
330
1B
  0
LAYOUT
  5
26
102
{ACAD_REACTORS
330
1A
102
}
330
1A
100
AcDbPlotSettings
  1

  2
\\ML370\XEROX
  4

  6

 40
0.0
 41
0.0
 42
0.0
 43
0.0
 44
0.0
 45
0.0
 46
0.0
 47
0.0
 48
0.0
 49
0.0
140
0.0
141
0.0
142
1.0
143
1.0
 70
   688
 72
     0
 73
     0
 74
     5
  7
monochrome.ctb
 75
    16
147
1.0
 76
     0
 77
     2
 78
   300
148
0.0
149
0.0
100
AcDbLayout
  1
ﾚｲｱｳﾄ2
 70
     1
 71
     2
 10
0.0
 20
0.0
 11
12.0
 21
9.0
 12
0.0
 22
0.0
 32
0.0
 14
0.0
 24
0.0
 34
0.0
 15
0.0
 25
0.0
 35
0.0
146
0.0
 13
0.0
 23
0.0
 33
0.0
 16
1.0
 26
0.0
 36
0.0
 17
0.0
 27
1.0
 37
0.0
 76
     0
330
23
  0
MATERIAL
  5
B0EF
102
{ACAD_XDICTIONARY
360
E24F
102
}
102
{ACAD_REACTORS
330
A91C
102
}
330
A91C
100
AcDbMaterial
  1
ByBlock
  0
MATERIAL
  5
B0EE
102
{ACAD_XDICTIONARY
360
E24D
102
}
102
{ACAD_REACTORS
330
A91C
102
}
330
A91C
100
AcDbMaterial
  1
ByLayer
  0
MATERIAL
  5
B0F0
102
{ACAD_XDICTIONARY
360
E251
102
}
102
{ACAD_REACTORS
330
A91C
102
}
330
A91C
100
AcDbMaterial
  1
Global
  0
MLINESTYLE
  5
18
102
{ACAD_REACTORS
330
17
102
}
330
17
100
AcDbMlineStyle
  2
STANDARD
 70
     0
  3

 62
   256
 51
90.0
 52
90.0
 71
     2
 49
0.5
 62
   256
  6
BYLAYER
 49
-0.5
 62
   256
  6
BYLAYER
  0
ACDBPLACEHOLDER
  5
F
102
{ACAD_REACTORS
330
E
102
}
330
E
  0
TABLESTYLE
  5
AABA
102
{ACAD_XDICTIONARY
360
E24B
102
}
102
{ACAD_REACTORS
330
AAB9
102
}
330
AAB9
100
AcDbTableStyle
  3
Standard
 70
     0
 71
     0
 40
1.5
 41
1.5
280
     0
281
     0
  7
STANDARD
140
4.5
170
     2
 62
     0
 63
     7
283
     0
274
    -2
284
     1
 64
     0
275
    -2
285
     1
 65
     0
276
    -2
286
     1
 66
     0
277
    -2
287
     1
 67
     0
278
    -2
288
     1
 68
     0
279
    -2
289
     1
 69
     0
  7
STANDARD
140
6.0
170
     5
 62
     0
 63
     7
283
     0
274
    -2
284
     1
 64
     0
275
    -2
285
     1
 65
     0
276
    -2
286
     1
 66
     0
277
    -2
287
     1
 67
     0
278
    -2
288
     1
 68
     0
279
    -2
289
     1
 69
     0
  7
STANDARD
140
4.5
170
     5
 62
     0
 63
     7
283
     0
274
    -2
284
     1
 64
     0
275
    -2
285
     1
 65
     0
276
    -2
286
     1
 66
     0
277
    -2
287
     1
 67
     0
278
    -2
288
     1
 68
     0
279
    -2
289
     1
 69
     0
  0
VISUALSTYLE
  5
B0F7
102
{ACAD_REACTORS
330
B0F1
102
}
330
B0F1
100
AcDbVisualStyle
  2
2dWireframe
 70
     4
 71
     0
 72
     2
 73
     0
 90
        0
 40
-0.6
 41
-30.0
 62
     5
 63
     7
421
 16777215
 74
     1
 91
        4
 64
     7
 65
   257
 75
     1
175
     1
 42
1.0
 92
        0
 66
   257
 43
1.0
 76
     1
 77
     6
 78
     2
 67
     7
 79
     5
170
     0
171
     0
290
     0
174
     0
 93
        1
 44
0.0
173
     0
291
     0
 45
0.0
1001
ACAD
1000
AcDbSavedByObjectVersion
1070
     0
  0
VISUALSTYLE
  5
B0F9
102
{ACAD_REACTORS
330
B0F1
102
}
330
B0F1
100
AcDbVisualStyle
  2
3D Hidden
 70
     6
 71
     1
 72
     2
 73
     2
 90
        0
 40
-0.6
 41
-30.0
 62
     5
 63
     7
421
 16777215
 74
     2
 91
        2
 64
     7
 65
   257
 75
     2
175
     1
 42
40.0
 92
        0
 66
   257
 43
1.0
 76
     1
 77
     6
 78
     2
 67
     7
 79
     3
170
     0
171
     0
290
     0
174
     0
 93
        1
 44
0.0
173
     0
291
     0
 45
0.0
1001
ACAD
1000
AcDbSavedByObjectVersion
1070
     0
  0
VISUALSTYLE
  5
B0F8
102
{ACAD_REACTORS
330
B0F1
102
}
330
B0F1
100
AcDbVisualStyle
  2
3dWireframe
 70
     5
 71
     0
 72
     2
 73
     0
 90
        0
 40
-0.6
 41
-30.0
 62
     5
 63
     7
421
 16777215
 74
     1
 91
        4
 64
     7
 65
   257
 75
     1
175
     1
 42
1.0
 92
        0
 66
   257
 43
1.0
 76
     1
 77
     6
 78
     2
 67
     7
 79
     5
170
     0
171
     0
290
     0
174
     0
 93
        1
 44
0.0
173
     0
291
     0
 45
0.0
1001
ACAD
1000
AcDbSavedByObjectVersion
1070
     0
  0
VISUALSTYLE
  5
B0F6
102
{ACAD_REACTORS
330
B0F1
102
}
330
B0F1
100
AcDbVisualStyle
  2
Basic
 70
     7
 71
     1
 72
     0
 73
     1
 90
        0
 40
-0.6
 41
-30.0
 62
     5
 63
     7
421
 16777215
 74
     0
 91
        4
 64
     7
 65
   257
 75
     1
175
     1
 42
1.0
 92
        8
 66
     7
 43
1.0
 76
     1
 77
     6
 78
     2
 67
     7
 79
     5
170
     0
171
     0
290
     0
174
     0
 93
        1
 44
0.0
173
     0
291
     1
 45
0.0
1001
ACAD
1000
AcDbSavedByObjectVersion
1070
     0
  0
VISUALSTYLE
  5
B0FD
102
{ACAD_REACTORS
330
B0F1
102
}
330
B0F1
100
AcDbVisualStyle
  2
Brighten
 70
    12
 71
     2
 72
     2
 73
     0
 90
        0
 40
-0.6
 41
-30.0
 62
     5
 63
     7
421
 16777215
 74
     1
 91
        4
 64
     7
 65
   257
 75
     1
175
     1
 42
1.0
 92
        8
 66
     7
 43
1.0
 76
     1
 77
     6
 78
     2
 67
     7
 79
     5
170
     0
171
     0
290
     0
174
     0
 93
        1
 44
50.0
173
     0
291
     1
 45
0.0
1001
ACAD
1000
AcDbSavedByObjectVersion
1070
     0
  0
VISUALSTYLE
  5
B101
102
{ACAD_REACTORS
330
B0F1
102
}
330
B0F1
100
AcDbVisualStyle
  2
ColorChange
 70
    16
 71
     2
 72
     2
 73
     3
 90
        0
 40
-0.6
 41
-30.0
 62
     5
 63
     8
421
  8421504
 74
     1
 91
        4
 64
     7
 65
   257
 75
     1
175
     1
 42
1.0
 92
        8
 66
     8
424
  8421504
 43
1.0
 76
     1
 77
     6
 78
     2
 67
     7
 79
     5
170
     0
171
     0
290
     0
174
     0
 93
        1
 44
0.0
173
     0
291
     1
 45
0.0
1001
ACAD
1000
AcDbSavedByObjectVersion
1070
     0
  0
VISUALSTYLE
  5
B0FA
102
{ACAD_REACTORS
330
B0F1
102
}
330
B0F1
100
AcDbVisualStyle
  2
Conceptual
 70
     9
 71
     3
 72
     2
 73
     0
 90
        0
 40
-0.6
 41
-30.0
 62
     5
 63
     7
421
 16777215
 74
     2
 91
        2
 64
     7
 65
   257
 75
     1
175
     1
 42
40.0
 92
        8
 66
     7
 43
1.0
 76
     1
 77
     6
 78
     2
 67
     7
 79
     3
170
     0
171
     0
290
     0
174
     0
 93
        1
 44
0.0
173
     0
291
     0
 45
0.0
1001
ACAD
1000
AcDbSavedByObjectVersion
1070
     0
  0
VISUALSTYLE
  5
B0FC
102
{ACAD_REACTORS
330
B0F1
102
}
330
B0F1
100
AcDbVisualStyle
  2
Dim
 70
    11
 71
     2
 72
     2
 73
     0
 90
        0
 40
-0.6
 41
-30.0
 62
     5
 63
     7
421
 16777215
 74
     1
 91
        4
 64
     7
 65
   257
 75
     1
175
     1
 42
1.0
 92
        8
 66
     7
 43
1.0
 76
     1
 77
     6
 78
     2
 67
     7
 79
     5
170
     0
171
     0
290
     0
174
     0
 93
        1
 44
-50.0
173
     0
291
     1
 45
0.0
1001
ACAD
1000
AcDbSavedByObjectVersion
1070
     0
  0
VISUALSTYLE
  5
B100
102
{ACAD_REACTORS
330
B0F1
102
}
330
B0F1
100
AcDbVisualStyle
  2
Facepattern
 70
    15
 71
     2
 72
     2
 73
     0
 90
        0
 40
-0.6
 41
-30.0
 62
     5
 63
     7
421
 16777215
 74
     1
 91
        4
 64
     7
 65
   257
 75
     1
175
     1
 42
1.0
 92
        8
 66
     7
 43
1.0
 76
     1
 77
     6
 78
     2
 67
     7
 79
     5
170
     0
171
     0
290
     0
174
     0
 93
        1
 44
0.0
173
     0
291
     1
 45
0.0
1001
ACAD
1000
AcDbSavedByObjectVersion
1070
     0
  0
VISUALSTYLE
  5
B0F2
102
{ACAD_REACTORS
330
B0F1
102
}
330
B0F1
100
AcDbVisualStyle
  2
Flat
 70
     0
 71
     2
 72
     1
 73
     1
 90
        2
 40
-0.6
 41
30.0
 62
     5
 63
     7
421
 16777215
 74
     0
 91
        4
 64
     7
 65
   257
 75
     1
175
     1
 42
1.0
 92
        8
 66
     7
 43
1.0
 76
     1
 77
     6
 78
     2
 67
     7
 79
     5
170
     0
171
     0
290
     0
174
     0
 93
       13
 44
0.0
173
     0
291
     1
 45
0.0
1001
ACAD
1000
AcDbSavedByObjectVersion
1070
     0
  0
VISUALSTYLE
  5
B0F3
102
{ACAD_REACTORS
330
B0F1
102
}
330
B0F1
100
AcDbVisualStyle
  2
FlatWithEdges
 70
     1
 71
     2
 72
     1
 73
     1
 90
        2
 40
-0.6
 41
30.0
 62
     5
 63
     7
421
 16777215
 74
     1
 91
        4
 64
     7
 65
   257
 75
     1
175
     1
 42
1.0
 92
        0
 66
   257
 43
1.0
 76
     1
 77
     6
 78
     2
 67
     7
 79
     5
170
     0
171
     0
290
     0
174
     0
 93
       13
 44
0.0
173
     0
291
     1
 45
0.0
1001
ACAD
1000
AcDbSavedByObjectVersion
1070
     0
  0
VISUALSTYLE
  5
B0F4
102
{ACAD_REACTORS
330
B0F1
102
}
330
B0F1
100
AcDbVisualStyle
  2
Gouraud
 70
     2
 71
     2
 72
     2
 73
     1
 90
        2
 40
-0.6
 41
30.0
 62
     5
 63
     7
421
 16777215
 74
     0
 91
        4
 64
     7
 65
   257
 75
     1
175
     1
 42
1.0
 92
        0
 66
     7
 43
1.0
 76
     1
 77
     6
 78
     2
 67
     7
 79
     5
170
     0
171
     0
290
     0
174
     0
 93
       13
 44
0.0
173
     0
291
     1
 45
0.0
1001
ACAD
1000
AcDbSavedByObjectVersion
1070
     0
  0
VISUALSTYLE
  5
B0F5
102
{ACAD_REACTORS
330
B0F1
102
}
330
B0F1
100
AcDbVisualStyle
  2
GouraudWithEdges
 70
     3
 71
     2
 72
     2
 73
     1
 90
        2
 40
-0.6
 41
30.0
 62
     5
 63
     7
421
 16777215
 74
     1
 91
        4
 64
     7
 65
   257
 75
     1
175
     1
 42
1.0
 92
        0
 66
   257
 43
1.0
 76
     1
 77
     6
 78
     2
 67
     7
 79
     5
170
     0
171
     0
290
     0
174
     0
 93
       13
 44
0.0
173
     0
291
     1
 45
0.0
1001
ACAD
1000
AcDbSavedByObjectVersion
1070
     0
  0
VISUALSTYLE
  5
B0FF
102
{ACAD_REACTORS
330
B0F1
102
}
330
B0F1
100
AcDbVisualStyle
  2
Linepattern
 70
    14
 71
     2
 72
     2
 73
     0
 90
        0
 40
-0.6
 41
-30.0
 62
     5
 63
     7
421
 16777215
 74
     1
 91
        4
 64
     7
 65
   257
 75
     7
175
     7
 42
1.0
 92
        8
 66
     7
 43
1.0
 76
     1
 77
     6
 78
     2
 67
     7
 79
     5
170
     0
171
     0
290
     0
174
     0
 93
        1
 44
0.0
173
     0
291
     1
 45
0.0
1001
ACAD
1000
AcDbSavedByObjectVersion
1070
     0
  0
VISUALSTYLE
  5
B0FB
102
{ACAD_REACTORS
330
B0F1
102
}
330
B0F1
100
AcDbVisualStyle
  2
Realistic
 70
     8
 71
     2
 72
     2
 73
     0
 90
        0
 40
-0.6
 41
-30.0
 62
     5
 63
     7
421
 16777215
 74
     1
 91
        0
 64
     7
 65
   257
 75
     1
175
     1
 42
1.0
 92
        8
 66
     8
424
  7895160
 43
1.0
 76
     1
 77
     6
 78
     2
 67
     7
 79
     5
170
     0
171
     0
290
     0
174
     0
 93
       13
 44
0.0
173
     0
291
     0
 45
0.0
1001
ACAD
1000
AcDbSavedByObjectVersion
1070
     0
  0
VISUALSTYLE
  5
B0FE
102
{ACAD_REACTORS
330
B0F1
102
}
330
B0F1
100
AcDbVisualStyle
  2
Thicken
 70
    13
 71
     2
 72
     2
 73
     0
 90
        0
 40
-0.6
 41
-30.0
 62
     5
 63
     7
421
 16777215
 74
     1
 91
        4
 64
     7
 65
   257
 75
     1
175
     1
 42
1.0
 92
       12
 66
     7
 43
1.0
 76
     1
 77
     6
 78
     2
 67
     7
 79
     5
170
     0
171
     0
290
     0
174
     0
 93
        1
 44
0.0
173
     0
291
     1
 45
0.0
1001
ACAD
1000
AcDbSavedByObjectVersion
1070
     0
  0
DICTIONARYVAR
  5
AAF3
102
{ACAD_REACTORS
330
34
102
}
330
34
100
DictionaryVariables
280
     0
  1
STANDARD
  0
DICTIONARYVAR
  5
A10C
102
{ACAD_REACTORS
330
34
102
}
330
34
100
DictionaryVariables
280
     0
  1
1
  0
DICTIONARYVAR
  5
AB07
102
{ACAD_REACTORS
330
34
102
}
330
34
100
DictionaryVariables
280
     0
  1
4
  0
DICTIONARYVAR
  5
35
102
{ACAD_REACTORS
330
34
102
}
330
34
100
DictionaryVariables
280
     0
  1
1
  0
DICTIONARYVAR
  5
194C
102
{ACAD_REACTORS
330
34
102
}
330
34
100
DictionaryVariables
280
     0
  1
96
  0
DICTIONARY
  5
7E8
102
{ACAD_REACTORS
330
47
102
}
330
47
100
AcDbDictionary
281
     1
  0
DICTIONARY
  5
4C
102
{ACAD_REACTORS
330
47
102
}
330
47
100
AcDbDictionary
281
     1
  0
XRECORD
  5
A929
102
{ACAD_REACTORS
330
47
102
}
330
47
100
AcDbXrecord
280
     1
 90
-1023410169
  0
XRECORD
  5
B332
102
{ACAD_REACTORS
330
B331
102
}
330
B331
100
AcDbXrecord
280
     1
  0
XRECORD
  5
3FB7
102
{ACAD_REACTORS
330
3F96
102
}
330
3F96
100
AcDbXrecord
280
     1
 91
        3
330
0
 90
        8
 62
     7
370
    40
331
16
  1
Color_7
330
0
 90
        0
 62
    14
370
    -3
331
16
  1
Color_14
330
0
 90
        8
 62
     7
370
    20
331
16
  1
Color_7
330
6D1
 90
        0
 62
     7
370
    -3
331
16
  1
Color_7
330
0
 90
        8
 62
     7
370
    50
331
16
  1
Color_7
330
0
 90
        8
 62
     2
370
    35
331
16
  1
Color_2
330
0
 90
        8
 62
     7
370
    -3
331
16
  1
Color_7
330
10
 90
        8
 62
     7
370
    -3
331
16
  1
Color_7
  0
DICTIONARY
  5
E24F
330
B0EF
100
AcDbDictionary
280
     1
281
     1
  3
ACAD_XREC_ROUNDTRIP
360
E250
  0
DICTIONARY
  5
E24D
330
B0EE
100
AcDbDictionary
280
     1
281
     1
  3
ACAD_XREC_ROUNDTRIP
360
E24E
  0
DICTIONARY
  5
E251
330
B0F0
100
AcDbDictionary
280
     1
281
     1
  3
ACAD_XREC_ROUNDTRIP
360
E252
  0
DICTIONARY
  5
E24B
330
AABA
100
AcDbDictionary
280
     1
281
     1
  3
ACAD_XREC_ROUNDTRIP
360
E24C
  0
XRECORD
  5
E250
102
{ACAD_REACTORS
330
E24F
102
}
330
E24F
100
AcDbXrecord
280
     1
102
MATERIAL
148
0.0
149
0.0
149
0.0
 93
        0
 94
       63
282
     0
 72
     1
 77
     1
171
     1
175
     1
179
     1
273
     0
  0
XRECORD
  5
E24E
102
{ACAD_REACTORS
330
E24D
102
}
330
E24D
100
AcDbXrecord
280
     1
102
MATERIAL
148
0.0
149
0.0
149
0.0
 93
        0
 94
       63
282
     0
 72
     1
 77
     1
171
     1
175
     1
179
     1
273
     0
  0
XRECORD
  5
E252
102
{ACAD_REACTORS
330
E251
102
}
330
E251
100
AcDbXrecord
280
     1
102
MATERIAL
148
0.0
149
0.0
149
0.0
 93
        0
 94
       63
282
     0
 72
     1
 77
     1
171
     1
175
     1
179
     1
273
     0
  0
XRECORD
  5
E24C
102
{ACAD_REACTORS
330
E24B
102
}
330
E24B
100
AcDbXrecord
280
     1
102
ACAD_ROUNDTRIP_PRE2007_TABLESTYLE
 90
        4
 91
        0
  1

 92
        4
 93
        0
  2

 94
        4
 95
        0
  3

  0
ENDSEC
  0
EOF
