  0
SECTION
  2
HEADER
  9
$ACADVER
  1
AC1015
  9
$ACADMAINTVER
 70
    20
  9
$DWGCODEPAGE
  3
ANSI_932
  9
$INSBASE
 10
0.0
 20
0.0
 30
0.0
  9
$EXTMIN
 10
-0.0205927262910564
 20
-0.010319999307626
 30
-0.0000000000000053
  9
$EXTMAX
 10
297.0212571112948
 20
210.0086355359874
 30
0.0000000000000099
  9
$LIMMIN
 10
-0.0000000000000406
 20
0.0000000511499536
  9
$LIMMAX
 10
296.9999999999999
 20
210.00000005115
  9
$ORTHOMODE
 70
     0
  9
$REGENMODE
 70
     1
  9
$FILLMODE
 70
     1
  9
$QTEXTMODE
 70
     0
  9
$MIRRTEXT
 70
     0
  9
$LTSCALE
 40
1.0
  9
$ATTMODE
 70
     1
  9
$TEXTSIZE
 40
3.2
  9
$TRACEWID
 40
1.0
  9
$TEXTSTYLE
  7
STANDARD
  9
$CLAYER
  8
AM_0
  9
$CELTYPE
  6
ByLayer
  9
$CECOLOR
 62
   256
  9
$CELTSCALE
 40
1.0
  9
$DISPSILH
 70
     0
  9
$DIMSCALE
 40
1.0
  9
$DIMASZ
 40
1.0
  9
$DIMEXO
 40
1.0
  9
$DIMDLI
 40
10.0
  9
$DIMRND
 40
0.0
  9
$DIMDLE
 40
0.0
  9
$DIMEXE
 40
1.0
  9
$DIMTP
 40
0.1
  9
$DIMTM
 40
0.1
  9
$DIMTXT
 40
3.5
  9
$DIMCEN
 40
0.0
  9
$DIMTSZ
 40
0.0
  9
$DIMTOL
 70
     0
  9
$DIMLIM
 70
     0
  9
$DIMTIH
 70
     0
  9
$DIMTOH
 70
     0
  9
$DIMSE1
 70
     0
  9
$DIMSE2
 70
     0
  9
$DIMTAD
 70
     1
  9
$DIMZIN
 70
     8
  9
$DIMBLK
  1

  9
$DIMASO
 70
     1
  9
$DIMSHO
 70
     1
  9
$DIMPOST
  1

  9
$DIMAPOST
  1
"
  9
$DIMALT
 70
     0
  9
$DIMALTD
 70
     2
  9
$DIMALTF
 40
0.0393701
  9
$DIMLFAC
 40
1.0
  9
$DIMTOFL
 70
     1
  9
$DIMTVP
 40
0.0
  9
$DIMTIX
 70
     0
  9
$DIMSOXD
 70
     0
  9
$DIMSAH
 70
     0
  9
$DIMBLK1
  1

  9
$DIMBLK2
  1

  9
$DIMSTYLE
  2
SYS
  9
$DIMCLRD
 70
   256
  9
$DIMCLRE
 70
   256
  9
$DIMCLRT
 70
     7
  9
$DIMTFAC
 40
0.71
  9
$DIMGAP
 40
1.5
  9
$DIMJUST
 70
     0
  9
$DIMSD1
 70
     0
  9
$DIMSD2
 70
     0
  9
$DIMTOLJ
 70
     0
  9
$DIMTZIN
 70
     8
  9
$DIMALTZ
 70
     0
  9
$DIMALTTZ
 70
     0
  9
$DIMUPT
 70
     0
  9
$DIMDEC
 70
     2
  9
$DIMTDEC
 70
     2
  9
$DIMALTU
 70
     2
  9
$DIMALTTD
 70
     2
  9
$DIMTXSTY
  7
STANDARD
  9
$DIMAUNIT
 70
     0
  9
$DIMADEC
 70
     0
  9
$DIMALTRND
 40
0.0
  9
$DIMAZIN
 70
     2
  9
$DIMDSEP
 70
    46
  9
$DIMATFIT
 70
     3
  9
$DIMFRAC
 70
     0
  9
$DIMLDRBLK
  1

  9
$DIMLUNIT
 70
     2
  9
$DIMLWD
 70
    -1
  9
$DIMLWE
 70
    -1
  9
$DIMTMOVE
 70
     0
  9
$LUNITS
 70
     2
  9
$LUPREC
 70
     2
  9
$SKETCHINC
 40
1.0
  9
$FILLETRAD
 40
3.0
  9
$AUNITS
 70
     0
  9
$AUPREC
 70
     0
  9
$MENU
  1
.
  9
$ELEVATION
 40
0.0
  9
$PELEVATION
 40
0.0
  9
$THICKNESS
 40
0.0
  9
$LIMCHECK
 70
     0
  9
$CHAMFERA
 40
0.0
  9
$CHAMFERB
 40
0.0
  9
$CHAMFERC
 40
20.0
  9
$CHAMFERD
 40
0.0
  9
$SKPOLY
 70
     0
  9
$TDCREATE
 40
2456027.598682176
  9
$TDUCREATE
 40
2456027.223682176
  9
$TDUPDATE
 40
2456269.588668611
  9
$TDUUPDATE
 40
2456269.213668611
  9
$TDINDWG
 40
0.8562873843
  9
$TDUSRTIMER
 40
0.8562873843
  9
$USRTIMER
 70
     1
  9
$ANGBASE
 50
0.0
  9
$ANGDIR
 70
     0
  9
$PDMODE
 70
     0
  9
$PDSIZE
 40
-3.0
  9
$PLINEWID
 40
0.0
  9
$SPLFRAME
 70
     0
  9
$SPLINETYPE
 70
     6
  9
$SPLINESEGS
 70
     8
  9
$HANDSEED
  5
38907
  9
$SURFTAB1
 70
     6
  9
$SURFTAB2
 70
     6
  9
$SURFTYPE
 70
     6
  9
$SURFU
 70
     6
  9
$SURFV
 70
     6
  9
$UCSBASE
  2

  9
$UCSNAME
  2

  9
$UCSORG
 10
0.0
 20
0.0
 30
0.0
  9
$UCSXDIR
 10
1.0
 20
0.0
 30
0.0
  9
$UCSYDIR
 10
0.0
 20
1.0
 30
0.0
  9
$UCSORTHOREF
  2

  9
$UCSORTHOVIEW
 70
     0
  9
$UCSORGTOP
 10
0.0
 20
0.0
 30
0.0
  9
$UCSORGBOTTOM
 10
0.0
 20
0.0
 30
0.0
  9
$UCSORGLEFT
 10
0.0
 20
0.0
 30
0.0
  9
$UCSORGRIGHT
 10
0.0
 20
0.0
 30
0.0
  9
$UCSORGFRONT
 10
0.0
 20
0.0
 30
0.0
  9
$UCSORGBACK
 10
0.0
 20
0.0
 30
0.0
  9
$PUCSBASE
  2

  9
$PUCSNAME
  2

  9
$PUCSORG
 10
0.0
 20
0.0
 30
0.0
  9
$PUCSXDIR
 10
1.0
 20
0.0
 30
0.0
  9
$PUCSYDIR
 10
0.0
 20
1.0
 30
0.0
  9
$PUCSORTHOREF
  2

  9
$PUCSORTHOVIEW
 70
     0
  9
$PUCSORGTOP
 10
0.0
 20
0.0
 30
0.0
  9
$PUCSORGBOTTOM
 10
0.0
 20
0.0
 30
0.0
  9
$PUCSORGLEFT
 10
0.0
 20
0.0
 30
0.0
  9
$PUCSORGRIGHT
 10
0.0
 20
0.0
 30
0.0
  9
$PUCSORGFRONT
 10
0.0
 20
0.0
 30
0.0
  9
$PUCSORGBACK
 10
0.0
 20
0.0
 30
0.0
  9
$USERI1
 70
     0
  9
$USERI2
 70
     0
  9
$USERI3
 70
     0
  9
$USERI4
 70
     0
  9
$USERI5
 70
     0
  9
$USERR1
 40
0.0
  9
$USERR2
 40
0.0
  9
$USERR3
 40
0.0
  9
$USERR4
 40
0.0
  9
$USERR5
 40
0.0
  9
$WORLDVIEW
 70
     1
  9
$SHADEDGE
 70
     3
  9
$SHADEDIF
 70
    70
  9
$TILEMODE
 70
     1
  9
$MAXACTVP
 70
    64
  9
$PINSBASE
 10
0.0
 20
0.0
 30
0.0
  9
$PLIMCHECK
 70
     0
  9
$PEXTMIN
 10
1.000000000000000E+20
 20
1.000000000000000E+20
 30
1.000000000000000E+20
  9
$PEXTMAX
 10
-1.000000000000000E+20
 20
-1.000000000000000E+20
 30
-1.000000000000000E+20
  9
$PLIMMIN
 10
-3.17498779296875
 20
-3.174999952316284
  9
$PLIMMAX
 10
293.4970092773438
 20
206.692492723465
  9
$UNITMODE
 70
     0
  9
$VISRETAIN
 70
     1
  9
$PLINEGEN
 70
     0
  9
$PSLTSCALE
 70
     1
  9
$TREEDEPTH
 70
  3020
  9
$CMLSTYLE
  2
Standard
  9
$CMLJUST
 70
     0
  9
$CMLSCALE
 40
20.0
  9
$PROXYGRAPHICS
 70
     1
  9
$MEASUREMENT
 70
     1
  9
$CELWEIGHT
370
    -1
  9
$ENDCAPS
280
     0
  9
$JOINSTYLE
280
     0
  9
$LWDISPLAY
290
     1
  9
$INSUNITS
 70
     4
  9
$HYPERLINKBASE
  1

  9
$STYLESHEET
  1
monochrome.ctb
  9
$XEDIT
290
     1
  9
$CEPSNTYPE
380
     0
  9
$PSTYLEMODE
290
     1
  9
$FINGERPRINTGUID
  2
{3DA35836-3EEC-46EC-9CDA-58E873CBD009}
  9
$VERSIONGUID
  2
{2E1138D6-9326-4468-AD4B-5372E70CE2B8}
  9
$EXTNAMES
290
     1
  9
$PSVPSCALE
 40
0.0
  9
$OLESTARTUP
290
     0
  0
ENDSEC
  0
SECTION
  2
CLASSES
  0
CLASS
  1
ACDBDICTIONARYWDFLT
  2
AcDbDictionaryWithDefault
  3
ObjectDBX Classes
 90
        0
280
     0
281
     0
  0
CLASS
  1
ACDBPLACEHOLDER
  2
AcDbPlaceHolder
  3
ObjectDBX Classes
 90
        0
280
     0
281
     0
  0
CLASS
  1
LAYOUT
  2
AcDbLayout
  3
ObjectDBX Classes
 90
        0
280
     0
281
     0
  0
CLASS
  1
AMGSETTINGSOBJ
  2
AmgSettingsObj
  3
"AcadM|Product Description: AutoCAD Mechanical|Company: Autodesk"
 90
        0
280
     0
281
     0
  0
CLASS
  1
ACME_DOCUMENT
  2
AcMeDbDoc
  3
AcMeServices
 90
        0
280
     0
281
     0
  0
CLASS
  1
ACMESCOPE
  2
AcMeScope
  3
AcMeServices
 90
        0
280
     0
281
     0
  0
CLASS
  1
ACMECOMMANDHISTORY
  2
AcMeCommandHistory
  3
AcMeServices
 90
        0
280
     0
281
     0
  0
CLASS
  1
DICTIONARYVAR
  2
AcDbDictionaryVar
  3
ObjectDBX Classes
 90
        0
280
     0
281
     0
  0
CLASS
  1
ACIMSYSVARMAN
  2
AcImSysVarManager
  3
AcMeServices
 90
        0
280
     0
281
     0
  0
CLASS
  1
ACIMREALSYSVAR
  2
AcImRealSysVar
  3
AcMeServices
 90
        0
280
     0
281
     0
  0
CLASS
  1
ACIMINTSYSVAR
  2
AcImIntSysVar
  3
AcMeServices
 90
        0
280
     0
281
     0
  0
CLASS
  1
ACMEDRAWINGMAN
  2
AcMeDrawingMan
  3
AcMeServices
 90
        0
280
     0
281
     0
  0
CLASS
  1
ACMEVIEW
  2
AcMeView
  3
AcMeServices
 90
        0
280
     0
281
     0
  0
CLASS
  1
ACDBENTITYCACHE
  2
AcMeEntityCache
  3
AcMeServices
 90
        0
280
     0
281
     0
  0
CLASS
  1
GSMANAGER
  2
AcMeGSManager
  3
AcMeServices
 90
        0
280
     0
281
     0
  0
CLASS
  1
AMDTINTERNALREACTOR
  2
AmdtInternalReactor
  3
AcMeServices
 90
        0
280
     0
281
     0
  0
CLASS
  1
ACMESTATEMGR
  2
AcMeStateMgr
  3
AcMeServices
 90
        0
280
     0
281
     0
  0
CLASS
  1
ACGREFMASTER
  2
AcGrefMaster
  3
AcAttribServices
 90
        0
280
     0
281
     0
  0
CLASS
  1
ACME_DATABASE
  2
AcMeDbDatabase
  3
AcMeServices
 90
        0
280
     0
281
     0
  0
CLASS
  1
ACRFINSADJUSTERMGR
  2
AcRfInsAdjusterMgr
  3
AcMeServices
 90
        0
280
     0
281
     0
  0
CLASS
  1
ACGREFACADMASTER
  2
AcGrefacadMaster
  3
AcGrefServices
 90
        0
280
     0
281
     0
  0
CLASS
  1
AMIMASTER
  2
AmiMaster
  3
AmiServices
 90
        0
280
     0
281
     0
  0
CLASS
  1
ACMDATADICTIONARY
  2
AcmDataDictionary
  3
"AcmSymBB|Product Description: AutoCAD Mechanical|Company: Autodesk"
 90
        0
280
     0
281
     0
  0
CLASS
  1
ACMDATAENTRYBLOCK
  2
AcmDataEntryBlock
  3
"AcmSymBB|Product Description: AutoCAD Mechanical|Company: Autodesk"
 90
        0
280
     0
281
     0
  0
CLASS
  1
ACIMSTRSYSVAR
  2
AcImStrSysVar
  3
AcMeServices
 90
        0
280
     0
281
     0
  0
CLASS
  1
ACMSTANDARDISO
  2
AcmStandardISO
  3
"Amdt_StdImp|Product Description: AutoCAD Mechanical|Company: Autodesk"
 90
        0
280
     0
281
     0
  0
CLASS
  1
AMGOBJPROPCFG
  2
AmgObjPropCfg
  3
"AmgLay|Product Description: AutoCAD Mechanical|Company: Autodesk"
 90
        1
280
     0
281
     0
  0
CLASS
  1
AMDTEDGESTANDARDISO
  2
AmdtEdgeStdISO
  3
"Amdt_StdImp|Product Description: AutoCAD Mechanical|Company: Autodesk"
 90
        0
280
     0
281
     0
  0
CLASS
  1
ACMSURFSTANDARDISO
  2
AcmSurfTextStdISO
  3
"Amdt_StdImp|Product Description: AutoCAD Mechanical|Company: Autodesk"
 90
        0
280
     0
281
     0
  0
CLASS
  1
ACMFCFSTANDARDISO
  2
AcmFCFStdISO
  3
"Amdt_StdImp|Product Description: AutoCAD Mechanical|Company: Autodesk"
 90
        0
280
     0
281
     0
  0
CLASS
  1
ACMWELDSTANDARDISO
  2
AcmWeldingStdISO
  3
"Amdt_StdImp|Product Description: AutoCAD Mechanical|Company: Autodesk"
 90
        0
280
     0
281
     0
  0
CLASS
  1
ACMIDSTANDARDISO
  2
AcmIdStdISO
  3
"Amdt_StdImp|Product Description: AutoCAD Mechanical|Company: Autodesk"
 90
        0
280
     0
281
     0
  0
CLASS
  1
ACMDATUMSTANDARDISO
  2
AcmDatumStdISO
  3
"Amdt_StdImp|Product Description: AutoCAD Mechanical|Company: Autodesk"
 90
        0
280
     0
281
     0
  0
CLASS
  1
ACMBOMSTANDARDISO
  2
AcmBOMStdISO
  3
"Amdt_StdImp|Product Description: AutoCAD Mechanical|Company: Autodesk"
 90
        0
280
     0
281
     0
  0
CLASS
  1
ACMDETAILSTANDARDISO
  2
AmdtDetailSymStdISO
  3
"Amdt_StdImp|Product Description: AutoCAD Mechanical|Company: Autodesk"
 90
        0
280
     0
281
     0
  0
CLASS
  1
ACMSECTIONSTANDARDISO
  2
AmdtSectionSymStdISO
  3
"Amdt_StdImp|Product Description: AutoCAD Mechanical|Company: Autodesk"
 90
        0
280
     0
281
     0
  0
CLASS
  1
ACMCENTERLINESTANDARDISO
  2
AmdtCenterLineStdISO
  3
"Amdt_StdImp|Product Description: AutoCAD Mechanical|Company: Autodesk"
 90
        0
280
     0
281
     0
  0
CLASS
  1
ACAMGLAYSTD
  2
AcAmgLayStd
  3
"AmgLay|Product Description: AutoCAD Mechanical|Company: Autodesk"
 90
        0
280
     0
281
     0
  0
CLASS
  1
ACAMGDIMSTD
  2
AcAmgDimStd
  3
"AmgDim|Product Description: AutoCAD Mechanical|Company: Autodesk"
 90
        0
280
     0
281
     0
  0
CLASS
  1
ACAMGTITLESTD
  2
AcAmgTitleStd
  3
"AmgTitle|Product Description: AutoCAD Mechanical|Company: Autodesk"
 90
        0
280
     0
281
     0
  0
CLASS
  1
ACAMGFILTERDAT
  2
AcAmgFilterDat
  3
"AcadM|Product Description: AutoCAD Mechanical|Company: Autodesk"
 90
        0
280
     0
281
     0
  0
CLASS
  1
LAYER_INDEX
  2
AcDbLayerIndex
  3
ObjectDBX Classes
 90
    32768
280
     0
281
     0
  0
CLASS
  1
IDBUFFER
  2
AcDbIdBuffer
  3
ObjectDBX Classes
 90
    32768
280
     0
281
     0
  0
CLASS
  1
PLOTSETTINGS
  2
AcDbPlotSettings
  3
ObjectDBX Classes
 90
    32768
280
     0
281
     0
  0
CLASS
  1
AMDTFORMULAUPDATEDISPATCHER
  2
AmdtFormulaUpdateDispatcher
  3
AcMeServices
 90
        0
280
     0
281
     0
  0
CLASS
  1
ACMSTANDARDANSI
  2
AcmStandardANSI
  3
"Amdt_StdImp|Product Description: AutoCAD Mechanical|Company: Autodesk"
 90
        0
280
     0
281
     0
  0
CLASS
  1
ACMSURFSTANDARDANSI
  2
AcmSurfTextStdANSI
  3
"Amdt_StdImp|Product Description: AutoCAD Mechanical|Company: Autodesk"
 90
        0
280
     0
281
     0
  0
CLASS
  1
ACMFCFSTANDARDANSI
  2
AcmFCFStdANSI
  3
"Amdt_StdImp|Product Description: AutoCAD Mechanical|Company: Autodesk"
 90
        0
280
     0
281
     0
  0
CLASS
  1
ACMWELDSTANDARDANSI
  2
AcmWeldingStdANSI
  3
"Amdt_StdImp|Product Description: AutoCAD Mechanical|Company: Autodesk"
 90
        0
280
     0
281
     0
  0
CLASS
  1
ACMIDSTANDARDANSI
  2
AcmIdStdANSI
  3
"Amdt_StdImp|Product Description: AutoCAD Mechanical|Company: Autodesk"
 90
        0
280
     0
281
     0
  0
CLASS
  1
ACMDATUMSTANDARDANSI
  2
AcmDatumStdANSI
  3
"Amdt_StdImp|Product Description: AutoCAD Mechanical|Company: Autodesk"
 90
        0
280
     0
281
     0
  0
CLASS
  1
ACMBOMSTANDARDANSI
  2
AcmBOMStdANSI
  3
"Amdt_StdImp|Product Description: AutoCAD Mechanical|Company: Autodesk"
 90
        0
280
     0
281
     0
  0
CLASS
  1
ACMDETAILSTANDARDANSI
  2
AmdtDetailSymStdANSI
  3
"Amdt_StdImp|Product Description: AutoCAD Mechanical|Company: Autodesk"
 90
        0
280
     0
281
     0
  0
CLASS
  1
ACMSECTIONSTANDARDANSI
  2
AmdtSectionSymStdANSI
  3
"Amdt_StdImp|Product Description: AutoCAD Mechanical|Company: Autodesk"
 90
        0
280
     0
281
     0
  0
CLASS
  1
ACMCENTERLINESTANDARDANSI
  2
AmdtCenterLineStdANSI
  3
"Amdt_StdImp|Product Description: AutoCAD Mechanical|Company: Autodesk"
 90
        0
280
     0
281
     0
  0
CLASS
  1
ACMBOM
  2
AcmBom
  3
"AcmSymBB|Product Description: AutoCAD Mechanical|Company: Autodesk"
 90
        0
280
     0
281
     0
  0
CLASS
  1
ACMDATAENTRYPART
  2
AcmDataEntryPart
  3
"AcmSymBB|Product Description: AutoCAD Mechanical|Company: Autodesk"
 90
    32768
280
     0
281
     0
  0
CLASS
  1
ACMPARTREF
  2
AcmPartRef
  3
"AcmSymBB|Product Description: AutoCAD Mechanical|Company: Autodesk"
 90
    35839
280
     0
281
     1
  0
CLASS
  1
ACDBCIRCARCRES
  2
AcDbCircArcRes
  3
AcGrefServices
 90
    32768
280
     0
281
     0
  0
CLASS
  1
ACMBOMROW
  2
AcmBomRow
  3
"AcmSymBB|Product Description: AutoCAD Mechanical|Company: Autodesk"
 90
    32768
280
     0
281
     0
  0
CLASS
  1
ACMBALLOON
  2
AcmBalloon
  3
"AcmSymBB|Product Description: AutoCAD Mechanical|Company: Autodesk"
 90
    35839
280
     0
281
     1
  0
CLASS
  1
AMDTNOTE
  2
AmdtNote
  3
"AcmSymBB|Product Description: AutoCAD Mechanical|Company: Autodesk"
 90
    35839
280
     0
281
     1
  0
CLASS
  1
STDPART2D
  2
AmgStdPart
  3
"g3vace|Class: AmgStdPart|Product Description: AutoCAD Mechanical|Company: Autodesk"
 90
    35839
280
     0
281
     1
  0
CLASS
  1
ACDBSTDPARTRES_LINE
  2
AcDbStdPartRes_Line
  3
"g3vace|Class: AcDbStdPartRes_Line|Product Description: AutoCAD Mechanical|Company: Autodesk"
 90
    32768
280
     0
281
     0
  0
CLASS
  1
ACMDATAENTRY
  2
AcmDataEntry
  3
"AcmSymBB|Product Description: AutoCAD Mechanical|Company: Autodesk"
 90
        0
280
     0
281
     0
  0
CLASS
  1
ACDBOPPOLYLINERES
  2
AcDbOpPolylineRes
  3
AcGrefServices
 90
    32768
280
     0
281
     0
  0
CLASS
  1
ACMPARTLIST
  2
AcmPartList
  3
"AcmSymBB|Product Description: AutoCAD Mechanical|Company: Autodesk"
 90
    35839
280
     0
281
     1
  0
CLASS
  1
ACDBLINERES
  2
AcDbLineRes
  3
AcGrefServices
 90
    32768
280
     0
281
     0
  0
CLASS
  1
ACRFINSADJ
  2
AcRfInsAdjuster
  3
AcMeServices
 90
    32768
280
     0
281
     0
  0
CLASS
  1
AM_DRAWING_MGR
  2
AcDmDwgMgr
  3
AcMechDwgViewMgmt
 90
        0
280
     0
281
     0
  0
CLASS
  1
AM_DWG_DOCUMENT
  2
AcDmDwgDocument
  3
AcMechDwgViewMgmt
 90
        0
280
     0
281
     0
  0
CLASS
  1
AM_DWG_SHEET
  2
AcDmSheet
  3
AcMechDwgViewMgmt
 90
        0
280
     0
281
     0
  0
CLASS
  1
AM_VIEWDIMPARMAP
  2
AcDmViewDimParMap
  3
AcMechDwgViewMgmt
 90
        0
280
     0
281
     0
  0
CLASS
  1
AM_DWGMGR_NAME
  2
AcDmDwgMgrName
  3
AcMechDwgViewMgmt
 90
        0
280
     0
281
     0
  0
CLASS
  1
AMDTMENUSTATEMGR
  2
AmdtMenuStateMgr
  3
McadcomServices
 90
        0
280
     0
281
     0
  0
CLASS
  1
AMDTMCOMMENUSTATE
  2
AmdtMcomMenuState
  3
McadcomServices
 90
        0
280
     0
281
     0
  0
CLASS
  1
ASAPP
  2
AcAsAppObject
  3
AutoSurfServices
 90
        0
280
     0
281
     0
  0
CLASS
  1
IM_STATIC_MAN
  2
AcImStaticVarManager
  3
AcMeServices
 90
        0
280
     0
281
     0
  0
CLASS
  1
ACIMDBLSTATICVAR
  2
AcImDblStaticVar
  3
AcMeServices
 90
        0
280
     0
281
     0
  0
CLASS
  1
ACIMSTRSTATICVAR
  2
AcImStrStaticVar
  3
AcMeServices
 90
        0
280
     0
281
     0
  0
CLASS
  1
ACIMINTSTATICVAR
  2
AcImIntStaticVar
  3
AcMeServices
 90
        0
280
     0
281
     0
  0
CLASS
  1
ACASGREFMASTER
  2
AcAsGrefMaster
  3
AutoSurfResolverServices
 90
        0
280
     0
281
     0
  0
CLASS
  1
ACADGREFMODULE
  2
AcAdGrefModule
  3
AdGrefServices
 90
        0
280
     0
281
     0
  0
CLASS
  1
AMDTMAPISURFMOUDULE
  2
AmdtMApiSurfModule
  3
MApiSurfServices
 90
        0
280
     0
281
     0
  0
CLASS
  1
MAPIAMMOUDLE
  2
MApiAmModule
  3
MApiAmServices
 90
        0
280
     0
281
     0
  0
CLASS
  1
AMDTADMENUSTATE
  2
AmdtAdMenuState
  3
DesignerServices
 90
        0
280
     0
281
     0
  0
CLASS
  1
ADAPPL
  2
AcAdAppl
  3
DesignerServices
 90
        0
280
     0
281
     0
  0
CLASS
  1
DEPMGR
  2
AcAdDepMgr
  3
DesignerServices
 90
        0
280
     0
281
     0
  0
CLASS
  1
PARAMMGR
  2
AcAdParamMgr
  3
DesignerServices
 90
        0
280
     0
281
     0
  0
CLASS
  1
PARAMSCOPE
  2
AcAdParamScope
  3
DesignerServices
 90
        0
280
     0
281
     0
  0
CLASS
  1
NAMEDAPPL
  2
AcAdNamedAppl
  3
DesignerServices
 90
        0
280
     0
281
     0
  0
CLASS
  1
ADHNTMPLT
  2
AdHoleNoteTemplateMgr
  3
DesignerServices
 90
    32768
280
     0
281
     0
  0
CLASS
  1
AM_HNTEMPLATE_MGR_NAME
  2
AdHoleNoteTemplateMgrName
  3
DesignerServices
 90
    32768
280
     0
281
     0
  0
CLASS
  1
AMDTDMMENUSTATE
  2
AmdtDmMenuState
  3
AcMechDwgViewMgmt
 90
        0
280
     0
281
     0
  0
CLASS
  1
MAPIADMODULE
  2
MApiAdModule
  3
MApiAdServices
 90
        0
280
     0
281
     0
  0
CLASS
  1
AMDTAMMENUSTATE
  2
AmdtAmMenuState
  3
DesignerAssemblies
 90
        0
280
     0
281
     0
  0
CLASS
  1
ACAMPROJECT
  2
AcAmProject
  3
DesignerAssemblies
 90
        0
280
     0
281
     0
  0
CLASS
  1
ACAMGRCOMPDEF
  2
AcAmGrCompDef
  3
DesignerAssemblies
 90
        0
280
     0
281
     0
  0
CLASS
  1
ACCMCONTEXT
  2
AcCmContext
  3
DesignerAssemblies
 90
        0
280
     0
281
     0
  0
CLASS
  1
ACAMCOMPDEF
  2
AcAmCompDef
  3
DesignerAssemblies
 90
        0
280
     0
281
     0
  0
CLASS
  1
ACAMCOMPDEFMGR
  2
AcAmCompDefMgr
  3
DesignerAssemblies
 90
        0
280
     0
281
     0
  0
CLASS
  1
AMCONTEXTMGR
  2
AcAmContextMgr
  3
DesignerAssemblies
 90
        0
280
     0
281
     0
  0
CLASS
  1
ACAMCONTEXTMODELER
  2
AcAmContextModeler
  3
DesignerAssemblies
 90
        0
280
     0
281
     0
  0
CLASS
  1
CATALOGSTATE
  2
AcAmCatalogState
  3
DesignerAssemblies
 90
        0
280
     0
281
     0
  0
CLASS
  1
ACAMGRCOMPDEFSET
  2
AcAmGrCompDefSet
  3
DesignerAssemblies
 90
        0
280
     0
281
     0
  0
CLASS
  1
AMDTBROWSERDBTAB
  2
AmdtBrowserDbTab
  3
McadcomServices
 90
        0
280
     0
281
     0
  0
CLASS
  1
CBROWSERAPPOBJECT
  2
CBrowserAppObject
  3
McadcomServices
 90
        0
280
     0
281
     0
  0
CLASS
  1
DM_PLACEHOLDER
  2
AcDmSelsetPlaceholder
  3
AcMechDwgViewMgmt
 90
        0
280
     0
281
     0
  0
CLASS
  1
ACMPICKOBJ
  2
AcmPickEnt
  3
"AcmSymBB|Product Description: AutoCAD Mechanical|Company: Autodesk"
 90
    32768
280
     0
281
     1
  0
CLASS
  1
ACMNOTESTANDARDISO
  2
AmdtNoteStdISO
  3
"Amdt_StdImp|Product Description: AutoCAD Mechanical|Company: Autodesk"
 90
        0
280
     0
281
     0
  0
CLASS
  1
ACMNOTESTANDARDANSI
  2
AmdtNoteStdANSI
  3
"Amdt_StdImp|Product Description: AutoCAD Mechanical|Company: Autodesk"
 90
        0
280
     0
281
     0
  0
CLASS
  1
ACMTHREADLINESTANDARDISO
  2
AmdtThreadLineStdISO
  3
"Amdt_StdImp|Product Description: AutoCAD Mechanical|Company: Autodesk"
 90
        0
280
     0
281
     0
  0
CLASS
  1
ACMTHREADLINESTANDARDANSI
  2
AmdtThreadLineStdANSI
  3
"Amdt_StdImp|Product Description: AutoCAD Mechanical|Company: Autodesk"
 90
        0
280
     0
281
     0
  0
CLASS
  1
TABLESTYLE
  2
AcDbTableStyle
  3
ObjectDBX Classes
 90
     4095
280
     0
281
     0
  0
CLASS
  1
SORTENTSTABLE
  2
AcDbSortentsTable
  3
ObjectDBX Classes
 90
        0
280
     0
281
     0
  0
CLASS
  1
MATERIAL
  2
AcDbMaterial
  3
ObjectDBX Classes
 90
     1024
280
     0
281
     0
  0
CLASS
  1
VISUALSTYLE
  2
AcDbVisualStyle
  3
ObjectDBX Classes
 90
     4095
280
     0
281
     0
  0
CLASS
  1
ACRFATTGENMGR
  2
AcRfAttGeneralMgr
  3
AcAttribServices
 90
        0
280
     0
281
     0
  0
CLASS
  1
ACRFOBJATTMGR
  2
AcRfObjAttGroupMgr
  3
AcAttribServices
 90
        0
280
     0
281
     0
  0
CLASS
  1
ACRFMCADAPIATTHOLDER
  2
AcRfMCADAPIAttHolder
  3
AcAttribServices
 90
        0
280
     0
281
     0
  0
CLASS
  1
AMDTSYSATTR
  2
AmdtSystemAttribute
  3
AcAttribServices
 90
        0
280
     0
281
     0
  0
CLASS
  1
ACMTAPERSTANDARDISO
  2
AcmTaperStdISO
  3
"Amdt_StdImp|Product Description: AutoCAD Mechanical|Company: Autodesk"
 90
        0
280
     0
281
     0
  0
CLASS
  1
CAMSSTRUCTBTNSTATE
  2
StructBtnState
  3
L"DesignerAssemblies"
 90
        0
280
     0
281
     0
  0
CLASS
  1
DIMASSOC
  2
AcDbDimAssoc
  3
"AcDbDimAssoc|Product Desc:     AcDim ARX App For Dimension|Company:          Autodesk, Inc.|WEB Address:      www.autodesk.com"
 90
    32768
280
     0
281
     0
  0
CLASS
  1
AMDTNOTETEMPLATEDB
  2
AmdtNoteTemplateDB
  3
AMDT_STDIMP_MODULE_NAME
 90
        0
280
     0
281
     0
  0
CLASS
  1
ACMTAPERSTANDARDANSI
  2
AcmTaperStdANSI
  3
"Amdt_StdImp|Product Description: AutoCAD Mechanical|Company: Autodesk"
 90
        0
280
     0
281
     0
  0
CLASS
  1
ACAMGHOLECHARTSTDANSI
  2
AcAmgHoleChartStdANSI
  3
ACMSYMBB_MODULE_NAME
 90
        0
280
     0
281
     0
  0
CLASS
  1
AMDTEDGESTANDARDISO13715
  2
AmdtEdgeStdISO13715
  3
"Amdt_StdImp|Product Description: AutoCAD Mechanical|Company: Autodesk"
 90
        0
280
     0
281
     0
  0
CLASS
  1
ACAMGHOLECHARTSTDISO
  2
AcAmgHoleChartStdISO
  3
ACMSYMBB_MODULE_NAME
 90
        0
280
     0
281
     0
  0
CLASS
  1
AMDTACMWBLOCKBOMENTITY
  2
AmdtAcmWblockBomEntity
  3
"AcmSymBB|Product Description: AutoCAD Mechanical|Company: Autodesk"
 90
    35839
280
     0
281
     1
  0
ENDSEC
  0
SECTION
  2
TABLES
  0
TABLE
  2
VPORT
  5
8
330
0
100
AcDbSymbolTable
 70
     1
  0
VPORT
  5
B0EC
330
8
100
AcDbSymbolTableRecord
100
AcDbViewportTableRecord
  2
*Active
 70
     0
 10
0.0
 20
0.0
 11
1.0
 21
1.0
 12
148.5003321925018
 22
104.9991577683399
 13
0.0
 23
0.0
 14
2.5
 24
2.5
 15
10.0
 25
10.0
 16
0.0
 26
0.0
 36
1.0
 17
0.0
 27
0.0
 37
0.0
 40
211.5651073551868
 41
1.648648648648648
 42
50.0
 43
-1370.695619172058
 44
-1370.695619172058
 50
0.0
 51
0.0
 71
    16
 72
   100
 73
     1
 74
     3
 75
     0
 76
     0
 77
     0
 78
     0
281
     0
 65
     0
110
0.0
120
0.0
130
0.0
111
1.0
121
0.0
131
0.0
112
0.0
122
1.0
132
0.0
 79
     0
146
0.0
  0
ENDTAB
  0
TABLE
  2
LTYPE
  5
5
330
0
100
AcDbSymbolTable
 70
    34
  0
LTYPE
  5
14
330
5
100
AcDbSymbolTableRecord
100
AcDbLinetypeTableRecord
  2
ByBlock
 70
     0
  3

 72
    65
 73
     0
 40
0.0
  0
LTYPE
  5
15
330
5
100
AcDbSymbolTableRecord
100
AcDbLinetypeTableRecord
  2
ByLayer
 70
     0
  3

 72
    65
 73
     0
 40
0.0
  0
LTYPE
  5
16
330
5
100
AcDbSymbolTableRecord
100
AcDbLinetypeTableRecord
  2
Continuous
 70
     0
  3
Solid line
 72
    65
 73
     0
 40
0.0
  0
LTYPE
  5
4F
330
5
100
AcDbSymbolTableRecord
100
AcDbLinetypeTableRecord
  2
AM_ISO02W050
 70
     0
  3
__ __ __ __ __ __ __ __ __ __ __ __ __ __ __
 72
    65
 73
     2
 40
7.5
 49
6.0
 74
     0
 49
-1.5
 74
     0
  0
LTYPE
  5
52
330
5
100
AcDbSymbolTableRecord
100
AcDbLinetypeTableRecord
  2
Amconstr
 70
     0
  3
_______________________
 72
    65
 73
     2
 40
9999.0
 49
9999.0
 74
     0
 49
0.0
 74
     0
  0
LTYPE
  5
64
330
5
100
AcDbSymbolTableRecord
100
AcDbLinetypeTableRecord
  2
ACISOWELD
 70
     0
  3
_ _ _ _ _
 72
    65
 73
     2
 40
2.0
 49
2.0
 74
     0
 49
-1.0
 74
     0
  0
LTYPE
  5
65
330
5
100
AcDbSymbolTableRecord
100
AcDbLinetypeTableRecord
  2
ACISOTGB
 70
     0
  3
__ . . __ . .
 72
    65
 73
     6
 40
9.0
 49
4.0
 74
     0
 49
-1.0
 74
     0
 49
1.0
 74
     0
 49
-1.0
 74
     0
 49
1.0
 74
     0
 49
-1.0
 74
     0
  0
LTYPE
  5
66
330
5
100
AcDbSymbolTableRecord
100
AcDbLinetypeTableRecord
  2
ACISOTGL
 70
     0
  3
_ _ _ _ _
 72
    65
 73
     2
 40
3.0
 49
2.0
 74
     0
 49
-1.0
 74
     0
  0
LTYPE
  5
69
330
5
100
AcDbSymbolTableRecord
100
AcDbLinetypeTableRecord
  2
CENTER
 70
     0
  3
__ . __
 72
    65
 73
     4
 40
7.0
 49
4.0
 74
     0
 49
-1.0
 74
     0
 49
1.0
 74
     0
 49
-1.0
 74
     0
  0
LTYPE
  5
A6E
330
5
100
AcDbSymbolTableRecord
100
AcDbLinetypeTableRecord
  2
PHANTOM2
 70
     0
  3
Phantom (.5x) ___ _ _ ___ _ _ ___ _ _ ___ _ _
 72
    65
 73
     6
 40
31.75
 49
15.875
 74
     0
 49
-3.174999999999999
 74
     0
 49
3.174999999999999
 74
     0
 49
-3.174999999999999
 74
     0
 49
3.174999999999999
 74
     0
 49
-3.174999999999999
 74
     0
  0
LTYPE
  5
4DED
330
5
100
AcDbSymbolTableRecord
100
AcDbLinetypeTableRecord
  2
中線
 70
     0
  3
___________________
 72
    65
 73
     2
 40
2.0
 49
1.0
 74
     0
 49
1.0
 74
     0
  0
LTYPE
  5
4DF6
330
5
100
AcDbSymbolTableRecord
100
AcDbLinetypeTableRecord
  2
細線
 70
     0
  3
___________________
 72
    65
 73
     2
 40
2.0
 49
1.0
 74
     0
 49
1.0
 74
     0
  0
LTYPE
  5
4DF7
330
5
100
AcDbSymbolTableRecord
100
AcDbLinetypeTableRecord
  2
太線
 70
     0
  3
___________________
 72
    65
 73
     2
 40
2.0
 49
1.0
 74
     0
 49
1.0
 74
     0
  0
LTYPE
  5
4EA7
330
5
100
AcDbSymbolTableRecord
100
AcDbLinetypeTableRecord
  2
文字
 70
     0
  3
_________________
 72
    65
 73
     2
 40
2.0
 49
1.0
 74
     0
 49
1.0
 74
     0
  0
LTYPE
  5
4EA9
330
5
100
AcDbSymbolTableRecord
100
AcDbLinetypeTableRecord
  2
寸法線
 70
     0
  3
________________
 72
    65
 73
     2
 40
2.0
 49
1.0
 74
     0
 49
1.0
 74
     0
  0
LTYPE
  5
4F12
330
5
100
AcDbSymbolTableRecord
100
AcDbLinetypeTableRecord
  2
ハッチング
 70
     0
  3
_________________
 72
    65
 73
     2
 40
2.0
 49
1.0
 74
     0
 49
1.0
 74
     0
  0
LTYPE
  5
5180
330
5
100
AcDbSymbolTableRecord
100
AcDbLinetypeTableRecord
  2
陰線1
 70
     0
  3
__ __ __ __
 72
    65
 73
     2
 40
4.0
 49
2.2
 74
     0
 49
-1.8
 74
     0
  0
LTYPE
  5
5182
330
5
100
AcDbSymbolTableRecord
100
AcDbLinetypeTableRecord
  2
切断線
 70
     0
  3
/\/-/\/-/\/-/\/-/\/-/\/
 72
    65
 73
     2
 40
11.0001
 49
0.0001
 74
     4
 75
   135
340
56
 46
0.04
 50
0.0
 44
0.0
 45
0.0
 49
-11.0
 74
     0
  0
LTYPE
  5
5183
330
5
100
AcDbSymbolTableRecord
100
AcDbLinetypeTableRecord
  2
想像線1
 70
     0
  3
__ __ __ _____ __ __ ____
 72
    65
 73
     6
 40
14.5
 49
6.0
 74
     0
 49
-1.5
 74
     0
 49
2.0
 74
     0
 49
-1.5
 74
     0
 49
2.0
 74
     0
 49
-1.5
 74
     0
  0
LTYPE
  5
5185
330
5
100
AcDbSymbolTableRecord
100
AcDbLinetypeTableRecord
  2
中心線1
 70
     0
  3
___ _ ___ _ ___
 72
    65
 73
     4
 40
18.0
 49
12.0
 74
     0
 49
-2.0
 74
     0
 49
2.0
 74
     0
 49
-2.0
 74
     0
  0
LTYPE
  5
5188
330
5
100
AcDbSymbolTableRecord
100
AcDbLinetypeTableRecord
  2
補助線
 70
     0
  3
______________
 72
    65
 73
     2
 40
2.0
 49
1.0
 74
     0
 49
1.0
 74
     0
  0
LTYPE
  5
6427
330
5
100
AcDbSymbolTableRecord
100
AcDbLinetypeTableRecord
  2
HIDDEN
 70
     0
  3
Hidden __ __ __ __ __ __ __ __ __ __ __ __ __ _
 72
    65
 73
     2
 40
0.375
 49
0.25
 74
     0
 49
-0.125
 74
     0
  0
LTYPE
  5
AC81
330
5
100
AcDbSymbolTableRecord
100
AcDbLinetypeTableRecord
  2
破断線
 70
     0
  3
/\/-/\/-/\/-/\/-/\/-/\/
 72
    65
 73
     2
 40
0.4401
 49
0.0001
 74
     4
 75
   136
340
AC80
 46
0.0016
 50
0.0
 44
0.0
 45
0.0
 49
-0.4400000000000001
 74
     0
  0
LTYPE
  5
AC9E
330
5
100
AcDbSymbolTableRecord
100
AcDbLinetypeTableRecord
  2
Amzigzag
 70
     0
  3
/\/-/\/-/\/-/\/-/\/-/\/
 72
    65
 73
     2
 40
11.0001
 49
0.0001
 74
     4
 75
   135
340
56
 46
0.04
 50
0.0
 44
0.0
 45
0.0
 49
-11.0
 74
     0
  0
LTYPE
  5
AF0F
330
5
100
AcDbSymbolTableRecord
100
AcDbLinetypeTableRecord
  2
genzigzag
 70
     0
  3
/\/-/\/-/\/-/\/-/\/-/\/
 72
    65
 73
     2
 40
12.0001
 49
0.0001
 74
     4
 75
   135
340
AC80
 46
2.0
 50
0.0
 44
0.0
 45
0.0
 49
-12.0
 74
     0
  0
LTYPE
  5
AF95
330
5
100
AcDbSymbolTableRecord
100
AcDbLinetypeTableRecord
  2
AM_ISO08W050
 70
     0
  3
____ . ____ . ____ . ____ . ____ . ____ . ____
 72
    65
 73
     4
 40
18.0
 49
12.0
 74
     0
 49
-1.5
 74
     0
 49
3.0
 74
     0
 49
-1.5
 74
     0
  0
LTYPE
  5
AF96
330
5
100
AcDbSymbolTableRecord
100
AcDbLinetypeTableRecord
  2
AM_ISO09W050
 70
     0
  3
_____ . . _____ . . _____ . . ____ .. ____
 72
    65
 73
     6
 40
22.5
 49
12.0
 74
     0
 49
-1.5
 74
     0
 49
3.0
 74
     0
 49
-1.5
 74
     0
 49
3.0
 74
     0
 49
-1.5
 74
     0
  0
LTYPE
  5
AF97
330
5
100
AcDbSymbolTableRecord
100
AcDbLinetypeTableRecord
  2
AM_ISO08W050x2
 70
     0
  3
__ . __ . __ . __ . __ . __
 72
    65
 73
     4
 40
9.0
 49
6.0
 74
     0
 49
-0.75
 74
     0
 49
1.5
 74
     0
 49
-0.75
 74
     0
  0
LTYPE
  5
AF98
330
5
100
AcDbSymbolTableRecord
100
AcDbLinetypeTableRecord
  2
AM_ISO02W050x2
 70
     0
  3
 _ _ _ _ _ _ _ _ _ _ _ _
 72
    65
 73
     2
 40
3.75
 49
3.0
 74
     0
 49
-0.75
 74
     0
  0
LTYPE
  5
B7B7
330
5
100
AcDbSymbolTableRecord
100
AcDbLinetypeTableRecord
  2
CENTER2
 70
     0
  3
Center (.5x) ___ _ ___ _ ___ _ ___ _ ___ _ ___
 72
    65
 73
     4
 40
1.125
 49
0.75
 74
     0
 49
-0.125
 74
     0
 49
0.125
 74
     0
 49
-0.125
 74
     0
  0
LTYPE
  5
B7B8
330
5
100
AcDbSymbolTableRecord
100
AcDbLinetypeTableRecord
  2
HIDDEN2
 70
     0
  3
Hidden (.5x) _ _ _ _ _ _ _ _ _ _ _ _ _ _ _ _ _
 72
    65
 73
     2
 40
0.1875
 49
0.125
 74
     0
 49
-0.0625
 74
     0
  0
LTYPE
  5
B7B9
330
5
100
AcDbSymbolTableRecord
100
AcDbLinetypeTableRecord
  2
Amzigzag2
 70
     0
  3
/\/-/\/-/\/-/\/-/\/-/\/
 72
    65
 73
     2
 40
0.4401
 49
0.0001
 74
     4
 75
   136
340
AC80
 46
0.0016
 50
0.0
 44
0.0
 45
0.0
 49
-0.4400000000000001
 74
     0
  0
LTYPE
  5
B7BA
330
5
100
AcDbSymbolTableRecord
100
AcDbLinetypeTableRecord
  2
ACANSTGB
 70
     0
  3
__ . . __ . .
 72
    65
 73
     6
 40
0.35433070866
 49
0.15748031496
 74
     0
 49
-0.03937007874
 74
     0
 49
0.03937007874
 74
     0
 49
-0.03937007874
 74
     0
 49
0.03937007874
 74
     0
 49
-0.03937007874
 74
     0
  0
LTYPE
  5
B7BB
330
5
100
AcDbSymbolTableRecord
100
AcDbLinetypeTableRecord
  2
ACANSTGL
 70
     0
  3
_ _ _ _ _
 72
    65
 73
     2
 40
0.11811023622
 49
0.07874015748
 74
     0
 49
-0.03937007874
 74
     0
  0
LTYPE
  5
37791
330
5
100
AcDbSymbolTableRecord
100
AcDbLinetypeTableRecord
  2
GEN7
 70
     0
  3
____ . ____ . ____ . ____ . ____ . ____ . ____
 72
    65
 73
     4
 40
13.75
 49
10.0
 74
     0
 49
-1.25
 74
     0
 49
1.25
 74
     0
 49
-1.25
 74
     0
  0
LTYPE
  5
37792
330
5
100
AcDbSymbolTableRecord
100
AcDbLinetypeTableRecord
  2
GEN7A
 70
     0
  3
__ . __ . __
 72
    65
 73
     4
 40
6.875
 49
5.0
 74
     0
 49
-0.625
 74
     0
 49
0.625
 74
     0
 49
-0.625
 74
     0
  0
ENDTAB
  0
TABLE
  2
LAYER
  5
2
102
{ACAD_XDICTIONARY
360
3F95
102
}
330
0
100
AcDbSymbolTable
 70
    29
  0
LAYER
  5
10
330
2
100
AcDbSymbolTableRecord
100
AcDbLayerTableRecord
  2
0
 70
     0
 62
     7
  6
Continuous
370
    -3
390
F
  0
LAYER
  5
6D1
330
2
100
AcDbSymbolTableRecord
100
AcDbLayerTableRecord
  2
Defpoints
 70
     0
 62
     7
  6
Continuous
290
     0
370
    -3
390
F
  0
LAYER
  5
5F85
330
2
100
AcDbSymbolTableRecord
100
AcDbLayerTableRecord
  2
AM_0
 70
     0
 62
     7
  6
中線
370
    30
390
F
1001
AcAecLayerStandard
1000

1000

  0
LAYER
  5
AC9F
330
2
100
AcDbSymbolTableRecord
100
AcDbLayerTableRecord
  2
size
 70
     0
 62
     5
  6
Continuous
290
     0
370
    25
390
F
  0
LAYER
  5
ACA0
330
2
100
AcDbSymbolTableRecord
100
AcDbLayerTableRecord
  2
waku
 70
     0
 62
     7
  6
Continuous
370
    35
390
F
  0
LAYER
  5
ACA1
330
2
100
AcDbSymbolTableRecord
100
AcDbLayerTableRecord
  2
AM_6
 70
     0
 62
     2
  6
文字
370
    13
390
F
1001
AcAecLayerStandard
1000

1000

  0
LAYER
  5
ACC8
330
2
100
AcDbSymbolTableRecord
100
AcDbLayerTableRecord
  2
hyomoji
 70
     0
 62
     2
  6
Continuous
370
    13
390
F
  0
LAYER
  5
ACC9
330
2
100
AcDbSymbolTableRecord
100
AcDbLayerTableRecord
  2
hyosen1
 70
     0
 62
     1
  6
Continuous
370
    25
390
F
  0
LAYER
  5
ACCA
330
2
100
AcDbSymbolTableRecord
100
AcDbLayerTableRecord
  2
hyosen2
 70
     0
 62
     1
  6
Continuous
370
    13
390
F
  0
LAYER
  5
AD60
330
2
100
AcDbSymbolTableRecord
100
AcDbLayerTableRecord
  2
AM_1
 70
     0
 62
    30
  6
太線
370
    40
390
F
1001
AcAecLayerStandard
1000

1000

  0
LAYER
  5
AD64
330
2
100
AcDbSymbolTableRecord
100
AcDbLayerTableRecord
  2
AM_2
 70
     0
 62
     1
  6
細線
370
    13
390
F
1001
AcAecLayerStandard
1000

1000

  0
LAYER
  5
AD67
330
2
100
AcDbSymbolTableRecord
100
AcDbLayerTableRecord
  2
AM_3
 70
     0
 62
     6
  6
陰線1
370
    13
390
F
1001
AcAecLayerStandard
1000

1000

  0
LAYER
  5
AD68
330
2
100
AcDbSymbolTableRecord
100
AcDbLayerTableRecord
  2
AM_5
 70
     0
 62
     3
  6
寸法線
370
    13
390
F
1001
AcAecLayerStandard
1000

1000

  0
LAYER
  5
AD69
330
2
100
AcDbSymbolTableRecord
100
AcDbLayerTableRecord
  2
AM_7
 70
     0
 62
     4
  6
中心線1
370
    13
390
F
1001
AcAecLayerStandard
1000

1000

  0
LAYER
  5
AD6A
330
2
100
AcDbSymbolTableRecord
100
AcDbLayerTableRecord
  2
AM_8
 70
     0
 62
     1
  6
ハッチング
370
    13
390
F
1001
AcAecLayerStandard
1000

1000

  0
LAYER
  5
AD6E
330
2
100
AcDbSymbolTableRecord
100
AcDbLayerTableRecord
  2
AM_10
 70
     0
 62
     7
  6
切断線
370
    13
390
F
1001
AcAecLayerStandard
1000

1000

  0
LAYER
  5
AD6F
330
2
100
AcDbSymbolTableRecord
100
AcDbLayerTableRecord
  2
AM_11
 70
     0
 62
     2
  6
想像線1
370
    13
390
F
1001
AcAecLayerStandard
1000

1000

  0
LAYER
  5
B1B6
330
2
100
AcDbSymbolTableRecord
100
AcDbLayerTableRecord
  2
AM_CL
 70
     0
 62
     1
  6
Amconstr
370
    15
390
F
1001
AcAecLayerStandard
1000

1000

  0
LAYER
  5
B2EB
330
2
100
AcDbSymbolTableRecord
100
AcDbLayerTableRecord
  2
AM_14
 70
     0
 62
     5
  6
細線
370
     9
390
F
1001
AcAecLayerStandard
1000

1000

  0
LAYER
  5
B2EC
330
2
100
AcDbSymbolTableRecord
100
AcDbLayerTableRecord
  2
AM_15
 70
     0
 62
     6
  6
陰線1
370
     9
390
F
1001
AcAecLayerStandard
1000

1000

  0
LAYER
  5
B502
330
2
100
AcDbSymbolTableRecord
100
AcDbLayerTableRecord
  2
AM_4
 70
     0
 62
     3
  6
補助線
370
    15
390
F
1001
AcAecLayerStandard
1000

1000

  0
LAYER
  5
B7BC
330
2
100
AcDbSymbolTableRecord
100
AcDbLayerTableRecord
  2
レイヤー 1
 70
     0
 62
     7
  6
Continuous
370
    -3
390
F
  0
LAYER
  5
37793
330
2
100
AcDbSymbolTableRecord
100
AcDbLayerTableRecord
  2
1
 70
     0
 62
     3
  6
Continuous
370
    -3
390
F
  0
LAYER
  5
37794
330
2
100
AcDbSymbolTableRecord
100
AcDbLayerTableRecord
  2
6
 70
     0
 62
     2
  6
Continuous
370
    -3
390
F
  0
LAYER
  5
37795
330
2
100
AcDbSymbolTableRecord
100
AcDbLayerTableRecord
  2
7
 70
     0
 62
     1
  6
GEN7
370
    -3
390
F
  0
LAYER
  5
37796
330
2
100
AcDbSymbolTableRecord
100
AcDbLayerTableRecord
  2
7A
 70
     0
 62
     1
  6
GEN7A
370
    -3
390
F
  0
LAYER
  5
37797
330
2
100
AcDbSymbolTableRecord
100
AcDbLayerTableRecord
  2
5
 70
     0
 62
     2
  6
Continuous
370
    -3
390
F
  0
LAYER
  5
37798
330
2
100
AcDbSymbolTableRecord
100
AcDbLayerTableRecord
  2
WAKU2
 70
     0
 62
     8
  6
Continuous
370
    -3
390
F
  0
LAYER
  5
37799
330
2
100
AcDbSymbolTableRecord
100
AcDbLayerTableRecord
  2
WAKU1
 70
     0
 62
     9
  6
Continuous
370
    -3
390
F
  0
ENDTAB
  0
TABLE
  2
STYLE
  5
3
330
0
100
AcDbSymbolTable
 70
    10
  0
STYLE
  5
11
330
3
100
AcDbSymbolTableRecord
100
AcDbTextStyleTableRecord
  2
STANDARD
 70
     0
 40
0.0
 41
0.7
 50
0.0
 71
     0
 42
3.2
  3
romans.shx
  4
extfont.shx
  0
STYLE
  5
56
330
3
100
AcDbSymbolTableRecord
100
AcDbTextStyleTableRecord
  2

 70
     1
 40
0.0
 41
1.0
 50
0.0
 71
     0
 42
2.5
  3
ltypeshp.shx
  4

  0
STYLE
  5
58
330
3
100
AcDbSymbolTableRecord
100
AcDbTextStyleTableRecord
  2
ACISOTS
 70
     0
 40
1.0
 41
1.0
 50
0.0
 71
     0
 42
2.5
  3
isocp.shx
  4
extfont.shx
  0
STYLE
  5
63
330
3
100
AcDbSymbolTableRecord
100
AcDbTextStyleTableRecord
  2
ACISOGDT
 70
     0
 40
0.0
 41
1.0
 50
0.0
 71
     0
 42
2.5
  3
amgdt.shx
  4

  0
STYLE
  5
A74
330
3
100
AcDbSymbolTableRecord
100
AcDbTextStyleTableRecord
  2
DIM
 70
     0
 40
0.0
 41
1.0
 50
0.0
 71
     0
 42
2.5
  3
monotxt.shx
  4
extfont.shx
  0
STYLE
  5
AC80
330
3
100
AcDbSymbolTableRecord
100
AcDbTextStyleTableRecord
  2

 70
     1
 40
0.0
 41
1.0
 50
0.0
 71
     0
 42
3.2
  3
genltshp.shx
  4

  0
STYLE
  5
B7BD
330
3
100
AcDbSymbolTableRecord
100
AcDbTextStyleTableRecord
  2
ACANSTS
 70
     0
 40
1.0
 41
1.0
 50
0.0
 71
     0
 42
0.2
  3
romans.shx
  4
extfont.shx
  0
STYLE
  5
B7BE
330
3
100
AcDbSymbolTableRecord
100
AcDbTextStyleTableRecord
  2
ACANSGDT
 70
     0
 40
0.0
 41
1.0
 50
0.0
 71
     0
 42
0.2
  3
amgdt.shx
  4

  0
STYLE
  5
3779A
330
3
100
AcDbSymbolTableRecord
100
AcDbTextStyleTableRecord
  2
KANJI
 70
     0
 40
0.0
 41
1.0
 50
0.0
 71
     0
 42
10.0
  3
TXT
  4
EXTFONT
  0
STYLE
  5
3779B
330
3
100
AcDbSymbolTableRecord
100
AcDbTextStyleTableRecord
  2
MINCHOU
 70
     0
 40
0.0
 41
1.0
 50
0.0
 71
     0
 42
4.0
  3
\MSMINCH1.TTF
  4

  0
ENDTAB
  0
TABLE
  2
VIEW
  5
6
330
0
100
AcDbSymbolTable
 70
     6
  0
VIEW
  5
AE1
330
6
100
AcDbSymbolTableRecord
100
AcDbViewTableRecord
  2
AM_VIEW1
 70
     0
 40
118.6023294509151
 10
74.24999999999997
 20
150.6988353256924
 41
148.5
 11
0.0
 21
0.0
 31
1.0
 12
0.0
 22
0.0
 32
0.0
 42
50.0
 43
-1370.695619172058
 44
-1370.695619172058
 50
0.0
 71
    16
281
     0
 72
     0
  0
VIEW
  5
AE2
330
6
100
AcDbSymbolTableRecord
100
AcDbViewTableRecord
  2
AM_VIEW2
 70
     0
 40
118.6023294509151
 10
222.75
 20
150.6988353256924
 41
148.5
 11
0.0
 21
0.0
 31
1.0
 12
0.0
 22
0.0
 32
0.0
 42
50.0
 43
-1370.695619172058
 44
-1370.695619172058
 50
0.0
 71
    16
281
     0
 72
     0
  0
VIEW
  5
AE3
330
6
100
AcDbSymbolTableRecord
100
AcDbViewTableRecord
  2
AM_VIEW3
 70
     0
 40
118.6023294509151
 10
74.24999999999997
 20
59.30116477660752
 41
148.5
 11
0.0
 21
0.0
 31
1.0
 12
0.0
 22
0.0
 32
0.0
 42
50.0
 43
-1370.695619172058
 44
-1370.695619172058
 50
0.0
 71
    16
281
     0
 72
     0
  0
VIEW
  5
AE4
330
6
100
AcDbSymbolTableRecord
100
AcDbViewTableRecord
  2
AM_VIEW4
 70
     0
 40
118.6023294509151
 10
222.75
 20
59.30116477660752
 41
148.5
 11
0.0
 21
0.0
 31
1.0
 12
0.0
 22
0.0
 32
0.0
 42
50.0
 43
-1370.695619172058
 44
-1370.695619172058
 50
0.0
 71
    16
281
     0
 72
     0
  0
VIEW
  5
AE5
330
6
100
AcDbSymbolTableRecord
100
AcDbViewTableRecord
  2
AM_VIEW5
 70
     0
 40
118.6023294509151
 10
148.4999999999999
 20
105.0000000511499
 41
148.5
 11
0.0
 21
0.0
 31
1.0
 12
0.0
 22
0.0
 32
0.0
 42
50.0
 43
-1370.695619172058
 44
-1370.695619172058
 50
0.0
 71
    16
281
     0
 72
     0
  0
VIEW
  5
AE6
330
6
100
AcDbSymbolTableRecord
100
AcDbViewTableRecord
  2
AM_VIEW6
 70
     0
 40
237.2022868552412
 10
148.5
 20
105.0000000511499
 41
296.99703
 11
0.0
 21
0.0
 31
1.0
 12
0.0
 22
0.0
 32
0.0
 42
50.0
 43
-1370.695619172058
 44
-1370.695619172058
 50
0.0
 71
    16
281
     0
 72
     0
  0
ENDTAB
  0
TABLE
  2
UCS
  5
7
330
0
100
AcDbSymbolTable
 70
     0
  0
ENDTAB
  0
TABLE
  2
APPID
  5
9
330
0
100
AcDbSymbolTable
 70
    64
  0
APPID
  5
12
330
9
100
AcDbSymbolTableRecord
100
AcDbRegAppTableRecord
  2
ACAD
 70
     0
  0
APPID
  5
30
330
9
100
AcDbSymbolTableRecord
100
AcDbRegAppTableRecord
  2
MCAD_NO_VIS
 70
     0
  0
APPID
  5
31
330
9
100
AcDbSymbolTableRecord
100
AcDbRegAppTableRecord
  2
ACAD_TEMP_GRAPHIC
 70
     0
  0
APPID
  5
44
330
9
100
AcDbSymbolTableRecord
100
AcDbRegAppTableRecord
  2
ACATTRIBSERVICES
 70
     0
  0
APPID
  5
7A1
330
9
100
AcDbSymbolTableRecord
100
AcDbRegAppTableRecord
  2
GENIUS_GENDIMSH_14
 70
     0
  0
APPID
  5
A49
330
9
100
AcDbSymbolTableRecord
100
AcDbRegAppTableRecord
  2
GENIUS_GENREC_14
 70
     0
  0
APPID
  5
A4A
330
9
100
AcDbSymbolTableRecord
100
AcDbRegAppTableRecord
  2
GENIUS_GENOBJ-N-REC_13
 70
     0
  0
APPID
  5
A4B
330
9
100
AcDbSymbolTableRecord
100
AcDbRegAppTableRecord
  2
GENIUS_GENODEF_13
 70
     0
  0
APPID
  5
A4C
330
9
100
AcDbSymbolTableRecord
100
AcDbRegAppTableRecord
  2
DCO15
 70
     0
  0
APPID
  5
ADC
330
9
100
AcDbSymbolTableRecord
100
AcDbRegAppTableRecord
  2
GENIUS_GENOLIS_13
 70
     0
  0
APPID
  5
ADD
330
9
100
AcDbSymbolTableRecord
100
AcDbRegAppTableRecord
  2
GENIUS_GENOENT_13
 70
     0
  0
APPID
  5
ADE
330
9
100
AcDbSymbolTableRecord
100
AcDbRegAppTableRecord
  2
GENIUS_GENOBJ-N-TIT_13
 70
     0
  0
APPID
  5
ADF
330
9
100
AcDbSymbolTableRecord
100
AcDbRegAppTableRecord
  2
GENIUS_GENTITLE_13
 70
     0
  0
APPID
  5
AE0
330
9
100
AcDbSymbolTableRecord
100
AcDbRegAppTableRecord
  2
GENIUS_GENOREF_13
 70
     0
  0
APPID
  5
AE7
330
9
100
AcDbSymbolTableRecord
100
AcDbRegAppTableRecord
  2
GENIUS_GENSCREG_15
 70
     0
  0
APPID
  5
AE8
330
9
100
AcDbSymbolTableRecord
100
AcDbRegAppTableRecord
  2
GENIUS_GENOBJ-N-SDF_13
 70
     0
  0
APPID
  5
FAF
330
9
100
AcDbSymbolTableRecord
100
AcDbRegAppTableRecord
  2
GENIUS_GENBLLY_14
 70
     0
  0
APPID
  5
FB0
330
9
100
AcDbSymbolTableRecord
100
AcDbRegAppTableRecord
  2
GENIUS_GENTRA_14
 70
     0
  0
APPID
  5
1285
330
9
100
AcDbSymbolTableRecord
100
AcDbRegAppTableRecord
  2
GENIUS_GENDTOL_13
 70
     0
  0
APPID
  5
142D
330
9
100
AcDbSymbolTableRecord
100
AcDbRegAppTableRecord
  2
GENIUS_GENOBJ-N-CEN_13
 70
     0
  0
APPID
  5
1AB5
330
9
100
AcDbSymbolTableRecord
100
AcDbRegAppTableRecord
  2
GENIUS_GENOBJ-N-CRS_13
 70
     0
  0
APPID
  5
1B36
330
9
100
AcDbSymbolTableRecord
100
AcDbRegAppTableRecord
  2
GENIUS_GENOBJ-N-HTC_13
 70
     0
  0
APPID
  5
1B37
330
9
100
AcDbSymbolTableRecord
100
AcDbRegAppTableRecord
  2
GENIUS_GENHATCH_13
 70
     0
  0
APPID
  5
216D
330
9
100
AcDbSymbolTableRecord
100
AcDbRegAppTableRecord
  2
GENIUS_GENOBJ-N-FIL_13
 70
     0
  0
APPID
  5
2356
330
9
100
AcDbSymbolTableRecord
100
AcDbRegAppTableRecord
  2
GEVID990412420
 70
     0
  0
APPID
  5
2357
330
9
100
AcDbSymbolTableRecord
100
AcDbRegAppTableRecord
  2
GEVDC
 70
     0
  0
APPID
  5
2358
330
9
100
AcDbSymbolTableRecord
100
AcDbRegAppTableRecord
  2
GEVCON
 70
     0
  0
APPID
  5
235B
330
9
100
AcDbSymbolTableRecord
100
AcDbRegAppTableRecord
  2
GEVRADREF
 70
     0
  0
APPID
  5
2360
330
9
100
AcDbSymbolTableRecord
100
AcDbRegAppTableRecord
  2
GENIUS_GENBH_13
 70
     0
  0
APPID
  5
2362
330
9
100
AcDbSymbolTableRecord
100
AcDbRegAppTableRecord
  2
GENIUS_GENOBJ-NBEHI-BHF_13
 70
     0
  0
APPID
  5
2364
330
9
100
AcDbSymbolTableRecord
100
AcDbRegAppTableRecord
  2
GENIUS_GENOBJ-NBEHI-BHB_13
 70
     0
  0
APPID
  5
2379
330
9
100
AcDbSymbolTableRecord
100
AcDbRegAppTableRecord
  2
GENIUS_GENOBJ-F-SCPASSM_13
 70
     0
  0
APPID
  5
3D74
330
9
100
AcDbSymbolTableRecord
100
AcDbRegAppTableRecord
  2
GENIUS_GENDIM_13
 70
     0
  0
APPID
  5
3D76
330
9
100
AcDbSymbolTableRecord
100
AcDbRegAppTableRecord
  2
GENIUS_GE3DTOL_13
 70
     0
  0
APPID
  5
3D9C
330
9
100
AcDbSymbolTableRecord
100
AcDbRegAppTableRecord
  2
AD_DRAW
 70
     0
  0
APPID
  5
3DE8
330
9
100
AcDbSymbolTableRecord
100
AcDbRegAppTableRecord
  2
ASURF_PCURVE_APPNAME
 70
     0
  0
APPID
  5
3DED
330
9
100
AcDbSymbolTableRecord
100
AcDbRegAppTableRecord
  2
AMG_3D2D_5.0
 70
     0
  0
APPID
  5
3E1B
330
9
100
AcDbSymbolTableRecord
100
AcDbRegAppTableRecord
  2
DESIGNERASSEMBLIES
 70
     0
  0
APPID
  5
3E20
330
9
100
AcDbSymbolTableRecord
100
AcDbRegAppTableRecord
  2
ACADM_DIM_EDIT
 70
     0
  0
APPID
  5
3E21
330
9
100
AcDbSymbolTableRecord
100
AcDbRegAppTableRecord
  2
AMDT_DM_ADJ
 70
     0
  0
APPID
  5
4143
330
9
100
AcDbSymbolTableRecord
100
AcDbRegAppTableRecord
  2
GENIUS_GENFIL_13
 70
     0
  0
APPID
  5
4144
330
9
100
AcDbSymbolTableRecord
100
AcDbRegAppTableRecord
  2
GENIUS_GENOBJ-N-CHA_13
 70
     0
  0
APPID
  5
4E17
330
9
100
AcDbSymbolTableRecord
100
AcDbRegAppTableRecord
  2
GEVID1008153417
 70
     0
  0
APPID
  5
4E58
330
9
100
AcDbSymbolTableRecord
100
AcDbRegAppTableRecord
  2
GEVID1008153418
 70
     0
  0
APPID
  5
4E5E
330
9
100
AcDbSymbolTableRecord
100
AcDbRegAppTableRecord
  2
GEVID1008153419
 70
     0
  0
APPID
  5
4E64
330
9
100
AcDbSymbolTableRecord
100
AcDbRegAppTableRecord
  2
GEVID1008153420
 70
     0
  0
APPID
  5
4E75
330
9
100
AcDbSymbolTableRecord
100
AcDbRegAppTableRecord
  2
GEVID1008153421
 70
     0
  0
APPID
  5
4EB7
330
9
100
AcDbSymbolTableRecord
100
AcDbRegAppTableRecord
  2
GENIUS_AMGTXT_16
 70
     0
  0
APPID
  5
7645
330
9
100
AcDbSymbolTableRecord
100
AcDbRegAppTableRecord
  2
GENIUS_GENOBJ-N-DIM_13
 70
     0
  0
APPID
  5
AAD0
330
9
100
AcDbSymbolTableRecord
100
AcDbRegAppTableRecord
  2
ACAD_DSTYLE_DIMARC_LENGTH_SYMBOL
 70
     0
  0
APPID
  5
AAD1
330
9
100
AcDbSymbolTableRecord
100
AcDbRegAppTableRecord
  2
ACAD_DSTYLE_DIMJOGGED_JOGANGLE_SYMBOL
 70
     0
  0
APPID
  5
AAFD
330
9
100
AcDbSymbolTableRecord
100
AcDbRegAppTableRecord
  2
ACAD_PSEXT
 70
     0
  0
APPID
  5
AD61
330
9
100
AcDbSymbolTableRecord
100
AcDbRegAppTableRecord
  2
AcAecLayerStandard
 70
     0
  0
APPID
  5
AEE3
330
9
100
AcDbSymbolTableRecord
100
AcDbRegAppTableRecord
  2
ACAD_EXEMPT_FROM_CAD_STANDARDS
 70
     0
  0
APPID
  5
B1BE
330
9
100
AcDbSymbolTableRecord
100
AcDbRegAppTableRecord
  2
GENIUS_GENCEN_19
 70
     0
  0
APPID
  5
16AE2
330
9
100
AcDbSymbolTableRecord
100
AcDbRegAppTableRecord
  2
ACAD_MLEADERVER
 70
     0
  0
APPID
  5
16B08
330
9
100
AcDbSymbolTableRecord
100
AcDbRegAppTableRecord
  2
ACAUTHENVIRON
 70
     0
  0
APPID
  5
16B09
330
9
100
AcDbSymbolTableRecord
100
AcDbRegAppTableRecord
  2
AcDbDynamicBlockTrueName
 70
     0
  0
APPID
  5
16B0A
330
9
100
AcDbSymbolTableRecord
100
AcDbRegAppTableRecord
  2
AcDbDynamicBlockGUID
 70
     0
  0
APPID
  5
16B0B
330
9
100
AcDbSymbolTableRecord
100
AcDbRegAppTableRecord
  2
ACDBBLOCKREPETAG
 70
     0
  0
APPID
  5
3779F
330
9
100
AcDbSymbolTableRecord
100
AcDbRegAppTableRecord
  2
GENIUS_GENDREL_13
 70
     0
  0
APPID
  5
377A0
330
9
100
AcDbSymbolTableRecord
100
AcDbRegAppTableRecord
  2
GENIUS_GENHINW_13
 70
     0
  0
APPID
  5
377A1
330
9
100
AcDbSymbolTableRecord
100
AcDbRegAppTableRecord
  2
GENIUS_GENOBJ-N-HINW_13
 70
     0
  0
APPID
  5
377A2
330
9
100
AcDbSymbolTableRecord
100
AcDbRegAppTableRecord
  2
GENIUS_GENOBJ-N-LEADER_13
 70
     0
  0
ENDTAB
  0
TABLE
  2
DIMSTYLE
  5
A
330
0
100
AcDbSymbolTable
 70
    26
100
AcDbDimStyleTable
 71
     1
340
2515
  0
DIMSTYLE
105
A76
330
A
100
AcDbSymbolTableRecord
100
AcDbDimStyleTableRecord
  2
STANDARD
 70
     0
 41
3.0
 42
1.0
 43
7.0
 44
2.0
 73
     0
 74
     0
 77
     1
140
2.799999999999999
141
0.0
143
0.0394
147
0.7
171
     4
172
     1
173
     1
176
     3
177
     3
178
     2
271
     3
272
     3
273
     8
274
     4
289
     0
340
A74
341
A66
343
A66
344
A66
  0
DIMSTYLE
105
2515
330
A
100
AcDbSymbolTableRecord
100
AcDbDimStyleTableRecord
  2
SYS
 70
     0
  4
"
 41
1.0
 42
1.0
 43
10.0
 44
1.0
 47
0.1
 48
0.1
 73
     0
 74
     0
 77
     1
 78
     8
 79
     2
140
3.5
141
0.0
143
0.0393701
146
0.71
147
1.5
172
     1
176
   256
177
   256
178
     7
271
     2
272
     2
283
     0
284
     8
340
11
371
    -1
372
    -1
1001
ACAD_DSTYLE_DIMJOGGED_JOGANGLE_SYMBOL
1070
   384
1040
0.7853981633974483
1001
ACAD_DSTYLE_DIMARC_LENGTH_SYMBOL
1070
   379
1070
     1
  0
DIMSTYLE
105
2516
330
A
100
AcDbSymbolTableRecord
100
AcDbDimStyleTableRecord
  2
SYS$3
 70
     0
  4
"
 41
2.0
 42
1.0
 43
10.0
 44
1.0
 47
0.1
 48
0.1
 73
     0
 77
     1
 78
     8
 79
     2
140
3.5
141
0.0
143
0.0393701
146
0.71
147
1.5
176
   256
177
   256
178
     2
271
     2
272
     2
283
     0
284
     8
288
     1
340
11
342
A66
371
    -1
372
    -1
1001
ACAD_DSTYLE_DIMJOGGED_JOGANGLE_SYMBOL
1070
   384
1040
0.7853981633974483
1001
ACAD_DSTYLE_DIMARC_LENGTH_SYMBOL
1070
   379
1070
     1
  0
DIMSTYLE
105
2517
330
A
100
AcDbSymbolTableRecord
100
AcDbDimStyleTableRecord
  2
SYS$4
 70
     0
  4
"
 41
2.0
 42
1.0
 43
10.0
 44
1.0
 47
0.1
 48
0.1
 73
     0
 77
     1
 78
     8
 79
     2
140
3.5
141
0.0
143
0.0393701
146
0.71
147
1.5
173
     1
176
   256
177
   256
178
     2
271
     2
272
     2
283
     0
284
     8
288
     1
340
11
344
A66
371
    -1
372
    -1
1001
ACAD_DSTYLE_DIMJOGGED_JOGANGLE_SYMBOL
1070
   384
1040
0.7853981633974483
1001
ACAD_DSTYLE_DIMARC_LENGTH_SYMBOL
1070
   379
1070
     1
  0
DIMSTYLE
105
2518
330
A
100
AcDbSymbolTableRecord
100
AcDbDimStyleTableRecord
  2
SYS$6
 70
     0
  4
"
 41
2.0
 42
1.0
 43
10.0
 44
1.0
 47
0.1
 48
0.1
 73
     0
 74
     0
 78
     8
 79
     2
140
3.5
141
0.0
143
0.0393701
146
0.71
147
1.5
172
     1
176
   256
177
   256
178
     2
271
     2
272
     2
283
     0
284
     8
340
11
341
A66
371
    -1
372
    -1
1001
ACAD_DSTYLE_DIMJOGGED_JOGANGLE_SYMBOL
1070
   384
1040
0.7853981633974483
1001
ACAD_DSTYLE_DIMARC_LENGTH_SYMBOL
1070
   379
1070
     1
  0
DIMSTYLE
105
2519
330
A
100
AcDbSymbolTableRecord
100
AcDbDimStyleTableRecord
  2
SYS$7
 70
     0
  4
"
 41
2.0
 42
1.0
 43
10.0
 44
1.0
 47
0.1
 48
0.1
 73
     0
 74
     0
 77
     1
 78
     8
 79
     2
140
5.0
141
0.0
143
0.0393701
146
0.71
147
1.5
172
     1
176
   256
177
   256
178
     2
271
     2
272
     2
283
     0
284
     8
340
11
341
A66
342
A66
371
    -1
372
    -1
1001
ACAD_DSTYLE_DIMJOGGED_JOGANGLE_SYMBOL
1070
   384
1040
0.7853981633974483
1001
ACAD_DSTYLE_DIMARC_LENGTH_SYMBOL
1070
   379
1070
     1
  0
DIMSTYLE
105
251A
330
A
100
AcDbSymbolTableRecord
100
AcDbDimStyleTableRecord
  2
SYS$SF
 70
     0
  4
"
 41
2.5
 42
1.0
 43
10.0
 44
1.0
 47
0.1
 48
0.1
 73
     0
 74
     0
 75
     1
 76
     1
 77
     1
 78
     8
 79
     2
140
3.5
141
0.0
143
0.0393701
146
0.71
147
1.5
172
     1
176
   256
177
   256
178
     2
271
     2
272
     3
283
     0
284
     8
340
11
341
6C4
342
6C4
371
    -1
372
    -1
1001
ACAD_DSTYLE_DIMJOGGED_JOGANGLE_SYMBOL
1070
   384
1040
0.7853981633974483
1001
ACAD_DSTYLE_DIMARC_LENGTH_SYMBOL
1070
   379
1070
     1
  0
DIMSTYLE
105
251B
330
A
100
AcDbSymbolTableRecord
100
AcDbDimStyleTableRecord
  2
SYS$SH
 70
     0
  4
"
 41
2.5
 42
1.0
 43
10.0
 44
1.0
 47
0.1
 48
0.1
 73
     0
 74
     0
 75
     1
 76
     1
 77
     1
 78
     8
 79
     2
140
3.5
141
0.0
143
0.0393701
144
2.0
146
0.71
147
1.5
172
     1
173
     1
176
   256
177
   256
178
     2
271
     2
272
     3
283
     0
284
     8
340
11
341
6C4
343
72
344
6C4
371
    -1
372
    -1
1001
ACAD_DSTYLE_DIMJOGGED_JOGANGLE_SYMBOL
1070
   384
1040
0.7853981633974483
1001
ACAD_DSTYLE_DIMARC_LENGTH_SYMBOL
1070
   379
1070
     1
  0
DIMSTYLE
105
2A59
330
A
100
AcDbSymbolTableRecord
100
AcDbDimStyleTableRecord
  2
SYS$2
 70
     0
  4
"
 41
1.0
 42
1.0
 43
10.0
 44
1.0
 47
0.1
 48
0.1
 73
     0
 74
     0
 77
     1
 78
     8
 79
     2
140
3.5
141
0.0
143
0.0393701
146
0.71
147
1.5
172
     1
176
   256
177
   256
178
     2
271
     2
272
     2
283
     0
284
     8
340
11
342
6C4
371
    -1
372
    -1
1001
ACAD_DSTYLE_DIMJOGGED_JOGANGLE_SYMBOL
1070
   384
1040
0.7853981633974483
1001
ACAD_DSTYLE_DIMARC_LENGTH_SYMBOL
1070
   379
1070
     1
  0
DIMSTYLE
105
2AAB
102
{ACAD_REACTORS
330
381DD
330
381FC
330
38234
330
3824A
330
382A8
330
382D0
330
382E6
330
38318
330
38345
330
3835B
330
38371
330
383CB
330
3860A
330
386B2
102
}
330
A
100
AcDbSymbolTableRecord
100
AcDbDimStyleTableRecord
  2
SYS$0
 70
     0
  4
"
 41
1.0
 42
1.0
 43
10.0
 44
1.0
 47
0.1
 48
0.1
 73
     0
 74
     0
 77
     1
 78
     8
 79
     2
140
3.200000000000001
141
0.0
143
0.0393701
146
0.71
147
1.5
172
     1
176
   256
177
   256
178
     2
271
     2
272
     2
283
     0
284
     8
340
11
341
A66
342
6C4
371
    -1
372
    -1
1001
ACAD_DSTYLE_DIMJOGGED_JOGANGLE_SYMBOL
1070
   384
1040
0.7853981633974483
1001
ACAD_DSTYLE_DIMARC_LENGTH_SYMBOL
1070
   379
1070
     1
  0
DIMSTYLE
105
AF99
330
A
100
AcDbSymbolTableRecord
100
AcDbDimStyleTableRecord
  2
AM_ISO
 70
     0
  4
"
 41
2.5
 42
1.0
 43
10.0
 44
1.0
 47
0.1
 48
0.1
 73
     0
 74
     0
 77
     1
 78
     8
 79
     2
140
3.5
141
0.0
143
0.0393701
146
0.71
147
1.5
172
     1
176
   256
177
   256
178
     2
271
     2
272
     3
274
     4
283
     0
284
     8
340
11
371
    -1
372
    -1
  0
DIMSTYLE
105
AF9A
330
A
100
AcDbSymbolTableRecord
100
AcDbDimStyleTableRecord
  2
AM_ISO$3
 70
     0
  4
"
 41
2.5
 42
1.0
 43
10.0
 44
1.0
 47
0.1
 48
0.1
 73
     0
 77
     1
 78
     8
 79
     2
140
3.5
141
0.0
143
0.0393701
146
0.71
147
1.5
176
   256
177
   256
178
     2
271
     2
272
     3
274
     4
283
     0
284
     8
288
     1
289
     0
340
11
371
    -1
372
    -1
  0
DIMSTYLE
105
AF9B
330
A
100
AcDbSymbolTableRecord
100
AcDbDimStyleTableRecord
  2
AM_ISO$4
 70
     0
  4
"
 41
2.5
 42
1.0
 43
10.0
 44
1.0
 47
0.1
 48
0.1
 73
     0
 77
     1
 78
     8
 79
     2
140
3.5
141
0.0
143
0.0393701
146
0.71
147
1.5
176
   256
177
   256
178
     2
271
     2
272
     3
274
     4
283
     0
284
     8
288
     1
289
     0
340
11
371
    -1
372
    -1
  0
DIMSTYLE
105
AF9C
330
A
100
AcDbSymbolTableRecord
100
AcDbDimStyleTableRecord
  2
AM_ISO$6
 70
     0
  4
"
 41
2.5
 42
1.0
 43
10.0
 44
1.0
 47
0.1
 48
0.1
 73
     0
 74
     0
 78
     8
 79
     2
140
3.5
141
0.0
143
0.0393701
146
0.71
147
1.5
172
     1
176
   256
177
   256
178
     2
271
     2
272
     3
274
     4
283
     0
284
     8
340
11
371
    -1
372
    -1
  0
DIMSTYLE
105
AF9D
330
A
100
AcDbSymbolTableRecord
100
AcDbDimStyleTableRecord
  2
AM_ISO$7
 70
     0
  4
"
 41
2.5
 42
1.0
 43
10.0
 44
1.0
 47
0.1
 48
0.1
 73
     0
 74
     0
 77
     1
 78
     8
 79
     2
140
5.0
141
0.0
143
0.0393701
146
0.71
147
1.5
172
     1
176
   256
177
   256
178
     2
271
     2
272
     3
274
     4
283
     0
284
     8
340
11
371
    -1
372
    -1
  0
DIMSTYLE
105
AF9E
330
A
100
AcDbSymbolTableRecord
100
AcDbDimStyleTableRecord
  2
AM_ISO$SF
 70
     0
  4
"
 41
2.5
 42
1.0
 43
10.0
 44
1.0
 47
0.1
 48
0.1
 73
     0
 74
     0
 75
     1
 76
     1
 77
     1
 78
     8
 79
     2
140
3.5
141
0.0
143
0.0393701
146
0.71
147
1.5
172
     1
176
   256
177
   256
178
     2
271
     2
272
     3
274
     4
283
     0
284
     8
340
11
371
    -1
372
    -1
  0
DIMSTYLE
105
AF9F
330
A
100
AcDbSymbolTableRecord
100
AcDbDimStyleTableRecord
  2
AM_ISO$SH
 70
     0
  4
"
 41
2.5
 42
1.0
 43
10.0
 44
1.0
 47
0.1
 48
0.1
 73
     0
 74
     0
 75
     1
 76
     1
 77
     1
 78
     8
 79
     2
140
3.5
141
0.0
143
0.0393701
144
2.0
146
0.71
147
1.5
172
     1
173
     1
176
   256
177
   256
178
     2
271
     2
272
     3
274
     4
283
     0
284
     8
340
11
343
72
371
    -1
372
    -1
  0
DIMSTYLE
105
B7BF
330
A
100
AcDbSymbolTableRecord
100
AcDbDimStyleTableRecord
  2
AM_ANSI
 70
     0
  4
mm
 41
0.1
 42
0.05
 43
0.5
 44
0.1
 47
0.1
 48
0.1
 78
     7
 79
     2
140
0.12
141
0.0
146
0.71
147
0.06
176
   256
177
   256
178
     2
274
     4
284
     7
340
11
371
    -1
372
    -1
1001
ACAD_DSTYLE_DIMARC_LENGTH_SYMBOL
1070
   379
1070
     1
  0
DIMSTYLE
105
B7C0
330
A
100
AcDbSymbolTableRecord
100
AcDbDimStyleTableRecord
  2
AM_ANSI$3
 70
     0
  4
mm
 41
0.1
 42
0.05
 43
0.5
 44
0.1
 47
0.1
 48
0.1
 78
     7
 79
     2
140
0.12
141
0.0
146
0.71
147
0.06
176
   256
177
   256
178
     2
274
     4
284
     7
288
     1
289
     0
340
11
371
    -1
372
    -1
1001
ACAD_DSTYLE_DIMARC_LENGTH_SYMBOL
1070
   379
1070
     1
  0
DIMSTYLE
105
B7C1
330
A
100
AcDbSymbolTableRecord
100
AcDbDimStyleTableRecord
  2
AM_ANSI$4
 70
     0
  4
mm
 41
0.1
 42
0.05
 43
0.5
 44
0.1
 47
0.1
 48
0.1
 78
     7
 79
     2
140
0.12
141
0.0
146
0.71
147
0.06
176
   256
177
   256
178
     2
274
     4
284
     7
288
     1
289
     0
340
11
371
    -1
372
    -1
1001
ACAD_DSTYLE_DIMARC_LENGTH_SYMBOL
1070
   379
1070
     1
  0
DIMSTYLE
105
B7C2
330
A
100
AcDbSymbolTableRecord
100
AcDbDimStyleTableRecord
  2
AM_ANSI$7
 70
     0
  4
mm
 41
0.1
 42
0.05
 43
0.5
 44
0.1
 47
0.1
 48
0.1
 78
     7
 79
     2
140
0.24
141
0.0
146
0.71
147
0.06
176
   256
177
   256
178
     2
274
     4
284
     7
340
11
371
    -1
372
    -1
1001
ACAD_DSTYLE_DIMARC_LENGTH_SYMBOL
1070
   379
1070
     1
  0
DIMSTYLE
105
B7C3
330
A
100
AcDbSymbolTableRecord
100
AcDbDimStyleTableRecord
  2
AM_ANSI$SF
 70
     0
  4
mm
 41
0.1
 42
0.05
 43
0.5
 44
0.1
 47
0.1
 48
0.1
 75
     1
 76
     1
 78
     7
 79
     2
140
0.12
141
0.0
146
0.71
147
0.06
176
   256
177
   256
178
     2
274
     4
284
     7
340
11
371
    -1
372
    -1
1001
ACAD_DSTYLE_DIMARC_LENGTH_SYMBOL
1070
   379
1070
     1
  0
DIMSTYLE
105
B7C4
330
A
100
AcDbSymbolTableRecord
100
AcDbDimStyleTableRecord
  2
AM_ANSI$SH
 70
     0
  4
mm
 41
0.1
 42
0.05
 43
0.5
 44
0.1
 47
0.1
 48
0.1
 75
     1
 76
     1
 78
     7
 79
     2
140
0.12
141
0.0
146
0.71
147
0.06
173
     1
176
   256
177
   256
178
     2
274
     4
284
     7
340
11
343
72
371
    -1
372
    -1
1001
ACAD_DSTYLE_DIMARC_LENGTH_SYMBOL
1070
   379
1070
     1
  0
DIMSTYLE
105
3779C
330
A
100
AcDbSymbolTableRecord
100
AcDbDimStyleTableRecord
  2
GEN-ISO$3
 70
     0
 40
0.5
 41
3.0
 42
1.0
 43
10.0
 44
1.0
 47
0.1
 48
0.1
 73
     0
 77
     1
 78
     8
140
3.0
141
0.0
143
0.0393701
146
0.71
147
1.0
173
     1
176
   256
177
   256
178
     2
271
     8
272
     8
274
     4
283
     0
284
     8
288
     1
289
     0
340
11
341
376B5
343
376B5
344
376B5
  0
DIMSTYLE
105
3779D
330
A
100
AcDbSymbolTableRecord
100
AcDbDimStyleTableRecord
  2
GEN-ISO
 70
     0
 40
0.5
 41
3.0
 42
1.0
 43
10.0
 44
1.0
 47
0.1
 48
0.1
 73
     0
 74
     0
 77
     1
 78
     8
140
3.0
141
0.0
143
0.0393701
146
0.71
147
1.0
172
     1
173
     1
176
   256
177
   256
178
     2
271
     8
272
     8
274
     4
283
     0
284
     8
340
11
341
376B5
343
376B5
344
376B5
  0
DIMSTYLE
105
3779E
330
A
100
AcDbSymbolTableRecord
100
AcDbDimStyleTableRecord
  2
GEN-ISO$0
 70
     0
 40
0.5
 41
3.0
 42
1.0
 43
10.0
 44
1.0
 47
0.1
 48
0.1
 73
     0
 74
     0
 77
     1
 78
     8
140
3.0
141
0.0
143
0.0393701
146
0.71
147
1.0
172
     1
173
     1
176
     2
177
     2
178
     2
271
     8
272
     3
274
     4
283
     0
340
11
341
376B5
343
376B5
344
376B5
371
    -1
372
    -1
  0
ENDTAB
  0
TABLE
  2
BLOCK_RECORD
  5
1
330
0
100
AcDbSymbolTable
 70
    21
  0
BLOCK_RECORD
  5
1F
102
{ACAD_XDICTIONARY
360
8A
102
}
330
1
100
AcDbSymbolTableRecord
100
AcDbBlockTableRecord
  2
*Model_Space
340
22
  0
BLOCK_RECORD
  5
1B
330
1
100
AcDbSymbolTableRecord
100
AcDbBlockTableRecord
  2
*Paper_Space
340
1E
  0
BLOCK_RECORD
  5
23
330
1
100
AcDbSymbolTableRecord
100
AcDbBlockTableRecord
  2
*Paper_Space0
340
26
  0
BLOCK_RECORD
  5
72
330
1
100
AcDbSymbolTableRecord
100
AcDbBlockTableRecord
  2
GENAXEH
340
0
  0
BLOCK_RECORD
  5
6C4
330
1
100
AcDbSymbolTableRecord
100
AcDbBlockTableRecord
  2
_Dot
340
0
102
{BLKREFS
331
3882E
331
3882F
331
38837
331
38838
331
38840
331
38841
331
38849
331
3884A
331
38852
331
38853
331
3885B
331
3885C
331
38864
331
38865
331
3886E
331
3886F
331
38877
331
38878
331
38880
331
38881
331
38889
331
3888A
331
38892
331
38893
331
3889B
331
3889C
331
388A4
331
388A5
102
}
  0
BLOCK_RECORD
  5
A66
330
1
100
AcDbSymbolTableRecord
100
AcDbBlockTableRecord
  2
_OPEN30
340
0
  0
BLOCK_RECORD
  5
376B5
330
1
100
AcDbSymbolTableRecord
100
AcDbBlockTableRecord
  2
_OPEN
340
0
  0
BLOCK_RECORD
  5
381DE
330
1
100
AcDbSymbolTableRecord
100
AcDbBlockTableRecord
  2
*D6
340
0
  0
BLOCK_RECORD
  5
381FD
330
1
100
AcDbSymbolTableRecord
100
AcDbBlockTableRecord
  2
*D7
340
0
  0
BLOCK_RECORD
  5
38235
330
1
100
AcDbSymbolTableRecord
100
AcDbBlockTableRecord
  2
*D8
340
0
  0
BLOCK_RECORD
  5
3824B
330
1
100
AcDbSymbolTableRecord
100
AcDbBlockTableRecord
  2
*D9
340
0
  0
BLOCK_RECORD
  5
382A9
330
1
100
AcDbSymbolTableRecord
100
AcDbBlockTableRecord
  2
*D10
340
0
  0
BLOCK_RECORD
  5
382D1
330
1
100
AcDbSymbolTableRecord
100
AcDbBlockTableRecord
  2
*D11
340
0
  0
BLOCK_RECORD
  5
382E7
330
1
100
AcDbSymbolTableRecord
100
AcDbBlockTableRecord
  2
*D12
340
0
  0
BLOCK_RECORD
  5
38319
330
1
100
AcDbSymbolTableRecord
100
AcDbBlockTableRecord
  2
*D13
340
0
  0
BLOCK_RECORD
  5
38346
330
1
100
AcDbSymbolTableRecord
100
AcDbBlockTableRecord
  2
*D14
340
0
  0
BLOCK_RECORD
  5
3835C
330
1
100
AcDbSymbolTableRecord
100
AcDbBlockTableRecord
  2
*D15
340
0
  0
BLOCK_RECORD
  5
38372
330
1
100
AcDbSymbolTableRecord
100
AcDbBlockTableRecord
  2
*D16
340
0
  0
BLOCK_RECORD
  5
383CC
330
1
100
AcDbSymbolTableRecord
100
AcDbBlockTableRecord
  2
*D17
340
0
  0
BLOCK_RECORD
  5
3858E
330
1
100
AcDbSymbolTableRecord
100
AcDbBlockTableRecord
  2
GENDOT
340
0
102
{BLKREFS
331
385E1
331
385E2
331
385E8
331
385E9
102
}
  0
BLOCK_RECORD
  5
3860B
330
1
100
AcDbSymbolTableRecord
100
AcDbBlockTableRecord
  2
*D19
340
0
  0
BLOCK_RECORD
  5
386B3
330
1
100
AcDbSymbolTableRecord
100
AcDbBlockTableRecord
  2
*D20
340
0
  0
ENDTAB
  0
ENDSEC
  0
SECTION
  2
BLOCKS
  0
BLOCK
  5
20
330
1F
100
AcDbEntity
  8
0
100
AcDbBlockBegin
  2
*Model_Space
 70
     0
 10
0.0
 20
0.0
 30
0.0
  3
*Model_Space
  1

  0
ENDBLK
  5
21
330
1F
100
AcDbEntity
  8
0
100
AcDbBlockEnd
  0
BLOCK
  5
1C
330
1B
100
AcDbEntity
 67
     1
  8
0
100
AcDbBlockBegin
  2
*Paper_Space
 70
     0
 10
0.0
 20
0.0
 30
0.0
  3
*Paper_Space
  1

  0
ENDBLK
  5
1D
330
1B
100
AcDbEntity
 67
     1
  8
0
100
AcDbBlockEnd
  0
BLOCK
  5
24
330
23
100
AcDbEntity
 67
     1
  8
0
100
AcDbBlockBegin
  2
*Paper_Space0
 70
     0
 10
0.0
 20
0.0
 30
0.0
  3
*Paper_Space0
  1

  0
ENDBLK
  5
25
330
23
100
AcDbEntity
 67
     1
  8
0
100
AcDbBlockEnd
  0
BLOCK
  5
74
330
72
100
AcDbEntity
  8
0
100
AcDbBlockBegin
  2
GENAXEH
 70
     0
 10
0.0
 20
0.0
 30
0.0
  3
GENAXEH
  1

  0
LINE
  5
73
330
72
100
AcDbEntity
  8
0
100
AcDbLine
 10
-1.0
 20
0.0
 30
0.0
 11
1.0
 21
0.0
 31
0.0
  0
ENDBLK
  5
75
330
72
100
AcDbEntity
  8
0
100
AcDbBlockEnd
  0
BLOCK
  5
6C7
330
6C4
100
AcDbEntity
  8
0
100
AcDbBlockBegin
  2
_Dot
 70
     0
 10
0.0
 20
0.0
 30
0.0
  3
_Dot
  1

  0
LWPOLYLINE
  5
6C5
330
6C4
100
AcDbEntity
  8
0
  6
ByBlock
 62
     0
100
AcDbPolyline
 90
        2
 70
     1
 43
0.5
 10
-0.25
 20
0.0
 42
1.0
 10
0.25
 20
0.0
 42
1.0
  0
LINE
  5
6C6
330
6C4
100
AcDbEntity
  8
0
  6
ByBlock
 62
     0
370
    -2
100
AcDbLine
 10
-0.5
 20
0.0
 30
0.0
 11
-1.0
 21
0.0
 31
0.0
  0
ENDBLK
  5
6C8
330
6C4
100
AcDbEntity
  8
0
100
AcDbBlockEnd
  0
BLOCK
  5
A6A
330
A66
100
AcDbEntity
  8
0
100
AcDbBlockBegin
  2
_OPEN30
 70
     0
 10
0.0
 20
0.0
 30
0.0
  3
_OPEN30
  1

  0
LINE
  5
A67
330
A66
100
AcDbEntity
  8
0
  6
ByBlock
 62
     0
100
AcDbLine
 10
-1.0
 20
0.26794919
 30
0.0
 11
0.0
 21
0.0
 31
0.0
  0
LINE
  5
A68
330
A66
100
AcDbEntity
  8
0
  6
ByBlock
 62
     0
100
AcDbLine
 10
0.0
 20
0.0
 30
0.0
 11
-1.0
 21
-0.26794919
 31
0.0
  0
LINE
  5
A69
330
A66
100
AcDbEntity
  8
0
  6
ByBlock
 62
     0
100
AcDbLine
 10
0.0
 20
0.0
 30
0.0
 11
-1.0
 21
0.0
 31
0.0
  0
ENDBLK
  5
A6B
330
A66
100
AcDbEntity
  8
0
100
AcDbBlockEnd
  0
BLOCK
  5
376B6
330
376B5
100
AcDbEntity
  8
0
100
AcDbBlockBegin
  2
_OPEN
 70
     0
 10
0.0
 20
0.0
 30
0.0
  3
_OPEN
  1

  0
LINE
  5
376B7
330
376B5
100
AcDbEntity
  8
0
  6
ByBlock
 62
     0
100
AcDbLine
 10
-1.0
 20
0.1666666666666666
 30
0.0
 11
0.0
 21
0.0
 31
0.0
  0
LINE
  5
376B8
330
376B5
100
AcDbEntity
  8
0
  6
ByBlock
 62
     0
100
AcDbLine
 10
0.0
 20
0.0
 30
0.0
 11
-1.0
 21
-0.1666666666666666
 31
0.0
  0
LINE
  5
376B9
330
376B5
100
AcDbEntity
  8
0
  6
ByBlock
 62
     0
100
AcDbLine
 10
0.0
 20
0.0
 30
0.0
 11
-1.0
 21
0.0
 31
0.0
  0
ENDBLK
  5
376BA
330
376B5
100
AcDbEntity
  8
0
100
AcDbBlockEnd
  0
BLOCK
  5
381E8
330
381DE
100
AcDbEntity
  8
0
100
AcDbBlockBegin
  2
*D6
 70
     1
 10
0.0
 20
0.0
 30
0.0
  3
*D6
  1

  0
LINE
  5
3882B
330
381DE
100
AcDbEntity
  8
AM_5
100
AcDbLine
 10
129.6451221062219
 20
74.11566704941623
 30
0.0
 11
141.6451221062219
 21
74.11566704941623
 31
0.0
  0
LINE
  5
3882C
330
381DE
100
AcDbEntity
  8
AM_5
100
AcDbLine
 10
129.6451221062217
 20
105.3156670494163
 30
0.0
 11
141.6451221062219
 21
105.3156670494163
 31
0.0
  0
LINE
  5
3882D
330
381DE
100
AcDbEntity
  8
AM_5
100
AcDbLine
 10
140.6451221062219
 20
75.11566704941623
 30
0.0
 11
140.6451221062219
 21
104.3156670494163
 31
0.0
  0
INSERT
  5
3882E
330
381DE
100
AcDbEntity
  8
AM_5
100
AcDbBlockReference
  2
_Dot
 10
140.6451221062219
 20
74.11566704941623
 30
0.0
 50
270.0
  0
INSERT
  5
3882F
330
381DE
100
AcDbEntity
  8
AM_5
100
AcDbBlockReference
  2
_Dot
 10
140.6451221062219
 20
105.3156670494163
 30
0.0
 50
90.0
  0
MTEXT
  5
38830
330
381DE
100
AcDbEntity
  8
AM_5
 62
     2
100
AcDbMText
 10
137.5451221062219
 20
89.71566704941627
 30
0.0
 40
3.200000000000001
 41
0.0
 71
     5
 72
     1
  1
31.2
 11
0.0000000000000001
 21
1.0
 31
0.0
 73
     1
 44
1.0
1001
ACAD
1000
MTEXTBEGIN
1070
    73
1070
     1
1070
    44
1040
1.0
1070
    74
1070
     0
1000
MTEXTEND
  0
POINT
  5
38831
330
381DE
100
AcDbEntity
  8
Defpoints
 62
     0
100
AcDbPoint
 10
128.6451221062219
 20
74.11566704941623
 30
0.0
  0
POINT
  5
38832
330
381DE
100
AcDbEntity
  8
Defpoints
 62
     0
100
AcDbPoint
 10
128.6451221062217
 20
105.3156670494163
 30
0.0
  0
POINT
  5
38833
330
381DE
100
AcDbEntity
  8
Defpoints
 62
     0
100
AcDbPoint
 10
140.6451221062219
 20
105.3156670494163
 30
0.0
  0
ENDBLK
  5
381E9
330
381DE
100
AcDbEntity
  8
0
100
AcDbBlockEnd
  0
BLOCK
  5
38207
330
381FD
100
AcDbEntity
  8
0
100
AcDbBlockBegin
  2
*D7
 70
     1
 10
0.0
 20
0.0
 30
0.0
  3
*D7
  1

  0
LINE
  5
38834
330
381FD
100
AcDbEntity
  8
AM_5
100
AcDbLine
 10
127.7951221062218
 20
110.5156670494161
 30
0.0
 11
151.645122106222
 21
110.5156670494161
 31
0.0
  0
LINE
  5
38835
330
381FD
100
AcDbEntity
  8
AM_5
100
AcDbLine
 10
127.7951221062219
 20
68.91566704941635
 30
0.0
 11
151.645122106222
 21
68.91566704941635
 31
0.0
  0
LINE
  5
38836
330
381FD
100
AcDbEntity
  8
AM_5
100
AcDbLine
 10
150.645122106222
 20
109.5156670494161
 30
0.0
 11
150.645122106222
 21
69.91566704941636
 31
0.0
  0
INSERT
  5
38837
330
381FD
100
AcDbEntity
  8
AM_5
100
AcDbBlockReference
  2
_Dot
 10
150.645122106222
 20
110.5156670494161
 30
0.0
 50
90.0
  0
INSERT
  5
38838
330
381FD
100
AcDbEntity
  8
AM_5
100
AcDbBlockReference
  2
_Dot
 10
150.645122106222
 20
68.91566704941635
 30
0.0
 50
270.0
  0
MTEXT
  5
38839
330
381FD
100
AcDbEntity
  8
AM_5
 62
     2
100
AcDbMText
 10
147.545122106222
 20
89.71566704941627
 30
0.0
 40
3.200000000000001
 41
0.0
 71
     5
 72
     1
  1
41.6
 11
0.0000000000000001
 21
1.0
 31
0.0
 73
     1
 44
1.0
1001
ACAD
1000
MTEXTBEGIN
1070
    73
1070
     1
1070
    44
1040
1.0
1070
    74
1070
     0
1000
MTEXTEND
  0
POINT
  5
3883A
330
381FD
100
AcDbEntity
  8
Defpoints
 62
     0
100
AcDbPoint
 10
126.7951221062218
 20
110.5156670494161
 30
0.0
  0
POINT
  5
3883B
330
381FD
100
AcDbEntity
  8
Defpoints
 62
     0
100
AcDbPoint
 10
126.7951221062219
 20
68.91566704941635
 30
0.0
  0
POINT
  5
3883C
330
381FD
100
AcDbEntity
  8
Defpoints
 62
     0
100
AcDbPoint
 10
150.645122106222
 20
68.91566704941635
 30
0.0
  0
ENDBLK
  5
38208
330
381FD
100
AcDbEntity
  8
0
100
AcDbBlockEnd
  0
BLOCK
  5
3823F
330
38235
100
AcDbEntity
  8
0
100
AcDbBlockBegin
  2
*D8
 70
     1
 10
0.0
 20
0.0
 30
0.0
  3
*D8
  1

  0
LINE
  5
3883D
330
38235
100
AcDbEntity
  8
AM_5
100
AcDbLine
 10
62.63183383806574
 20
97.71566704941619
 30
0.0
 11
50.63183383806575
 21
97.71566704941619
 31
0.0
  0
LINE
  5
3883E
330
38235
100
AcDbEntity
  8
AM_5
100
AcDbLine
 10
62.63183383806586
 20
81.71566704941637
 30
0.0
 11
50.63183383806575
 21
81.71566704941637
 31
0.0
  0
LINE
  5
3883F
330
38235
100
AcDbEntity
  8
AM_5
100
AcDbLine
 10
51.63183383806575
 20
96.7156670494162
 30
0.0
 11
51.63183383806575
 21
82.71566704941637
 31
0.0
  0
INSERT
  5
38840
330
38235
100
AcDbEntity
  8
AM_5
100
AcDbBlockReference
  2
_Dot
 10
51.63183383806575
 20
97.71566704941619
 30
0.0
 50
90.0
  0
INSERT
  5
38841
330
38235
100
AcDbEntity
  8
AM_5
100
AcDbBlockReference
  2
_Dot
 10
51.63183383806575
 20
81.71566704941637
 30
0.0
 50
270.0
  0
MTEXT
  5
38842
330
38235
100
AcDbEntity
  8
AM_5
 62
     2
100
AcDbMText
 10
48.53183383806573
 20
89.71566704941629
 30
0.0
 40
3.200000000000001
 41
0.0
 71
     5
 72
     1
  1
16
 11
0.0000000000000001
 21
1.0
 31
0.0
 73
     1
 44
1.0
1001
ACAD
1000
MTEXTBEGIN
1070
    73
1070
     1
1070
    44
1040
1.0
1070
    74
1070
     0
1000
MTEXTEND
  0
POINT
  5
38843
330
38235
100
AcDbEntity
  8
Defpoints
 62
     0
100
AcDbPoint
 10
63.63183383806575
 20
97.71566704941619
 30
0.0
  0
POINT
  5
38844
330
38235
100
AcDbEntity
  8
Defpoints
 62
     0
100
AcDbPoint
 10
63.63183383806585
 20
81.71566704941637
 30
0.0
  0
POINT
  5
38845
330
38235
100
AcDbEntity
  8
Defpoints
 62
     0
100
AcDbPoint
 10
51.63183383806575
 20
81.71566704941637
 30
0.0
  0
ENDBLK
  5
38240
330
38235
100
AcDbEntity
  8
0
100
AcDbBlockEnd
  0
BLOCK
  5
38255
330
3824B
100
AcDbEntity
  8
0
100
AcDbBlockBegin
  2
*D9
 70
     1
 10
0.0
 20
0.0
 30
0.0
  3
*D9
  1

  0
LINE
  5
38846
330
3824B
100
AcDbEntity
  8
AM_5
100
AcDbLine
 10
62.8318338380658
 20
97.91566704941619
 30
0.0
 11
62.8318338380658
 21
123.5156670494163
 31
0.0
  0
LINE
  5
38847
330
3824B
100
AcDbEntity
  8
AM_5
100
AcDbLine
 10
76.03183383806584
 20
111.5156670494162
 30
0.0
 11
76.03183383806584
 21
123.5156670494163
 31
0.0
  0
LINE
  5
38848
330
3824B
100
AcDbEntity
  8
AM_5
100
AcDbLine
 10
63.83183383806581
 20
122.5156670494162
 30
0.0
 11
75.03183383806583
 21
122.5156670494162
 31
0.0
  0
INSERT
  5
38849
330
3824B
100
AcDbEntity
  8
AM_5
100
AcDbBlockReference
  2
_Dot
 10
62.8318338380658
 20
122.5156670494162
 30
0.0
 50
180.0
  0
INSERT
  5
3884A
330
3824B
100
AcDbEntity
  8
AM_5
100
AcDbBlockReference
  2
_Dot
 10
76.03183383806584
 20
122.5156670494162
 30
0.0
  0
MTEXT
  5
3884B
330
3824B
100
AcDbEntity
  8
AM_5
 62
     2
100
AcDbMText
 10
69.43183383806581
 20
125.6156670494162
 30
0.0
 40
3.200000000000001
 41
0.0
 71
     5
 72
     1
  1
13.2
 73
     1
 44
1.0
1001
ACAD
1000
MTEXTBEGIN
1070
    73
1070
     1
1070
    44
1040
1.0
1070
    74
1070
     0
1000
MTEXTEND
  0
POINT
  5
3884C
330
3824B
100
AcDbEntity
  8
Defpoints
 62
     0
100
AcDbPoint
 10
62.8318338380658
 20
96.91566704941619
 30
0.0
  0
POINT
  5
3884D
330
3824B
100
AcDbEntity
  8
Defpoints
 62
     0
100
AcDbPoint
 10
76.03183383806584
 20
110.5156670494162
 30
0.0
  0
POINT
  5
3884E
330
3824B
100
AcDbEntity
  8
Defpoints
 62
     0
100
AcDbPoint
 10
76.03183383806584
 20
122.5156670494162
 30
0.0
  0
ENDBLK
  5
38256
330
3824B
100
AcDbEntity
  8
0
100
AcDbBlockEnd
  0
BLOCK
  5
382B3
330
382A9
100
AcDbEntity
  8
0
100
AcDbBlockBegin
  2
*D10
 70
     1
 10
0.0
 20
0.0
 30
0.0
  3
*D10
  1

  0
LINE
  5
3884F
330
382A9
100
AcDbEntity
  8
AM_5
100
AcDbLine
 10
62.83183383806575
 20
97.91566704941619
 30
0.0
 11
62.83183383806575
 21
133.5156670494162
 31
0.0
  0
LINE
  5
38850
330
382A9
100
AcDbEntity
  8
AM_5
100
AcDbLine
 10
91.12247993776646
 20
95.21566704943381
 30
0.0
 11
91.12247993776646
 21
133.5156670494162
 31
0.0
  0
LINE
  5
38851
330
382A9
100
AcDbEntity
  8
AM_5
100
AcDbLine
 10
63.83183383806574
 20
132.5156670494162
 30
0.0
 11
90.12247993776645
 21
132.5156670494162
 31
0.0
  0
INSERT
  5
38852
330
382A9
100
AcDbEntity
  8
AM_5
100
AcDbBlockReference
  2
_Dot
 10
62.83183383806575
 20
132.5156670494162
 30
0.0
 50
180.0
  0
INSERT
  5
38853
330
382A9
100
AcDbEntity
  8
AM_5
100
AcDbBlockReference
  2
_Dot
 10
91.12247993776646
 20
132.5156670494162
 30
0.0
  0
MTEXT
  5
38854
330
382A9
100
AcDbEntity
  8
AM_5
 62
     2
100
AcDbMText
 10
76.9771568879161
 20
135.6156670494162
 30
0.0
 40
3.200000000000001
 41
0.0
 71
     5
 72
     1
  1
（28.3）
 73
     1
 44
1.0
1001
ACAD
1000
MTEXTBEGIN
1070
    73
1070
     1
1070
    44
1040
1.0
1070
    74
1070
     0
1000
MTEXTEND
  0
POINT
  5
38855
330
382A9
100
AcDbEntity
  8
Defpoints
 62
     0
100
AcDbPoint
 10
62.83183383806575
 20
96.91566704941619
 30
0.0
  0
POINT
  5
38856
330
382A9
100
AcDbEntity
  8
Defpoints
 62
     0
100
AcDbPoint
 10
91.12247993776646
 20
94.21566704943382
 30
0.0
  0
POINT
  5
38857
330
382A9
100
AcDbEntity
  8
Defpoints
 62
     0
100
AcDbPoint
 10
91.12247993776646
 20
132.5156670494162
 30
0.0
  0
ENDBLK
  5
382B4
330
382A9
100
AcDbEntity
  8
0
100
AcDbBlockEnd
  0
BLOCK
  5
382DB
330
382D1
100
AcDbEntity
  8
0
100
AcDbBlockBegin
  2
*D11
 70
     1
 10
0.0
 20
0.0
 30
0.0
  3
*D11
  1

  0
LINE
  5
38858
330
382D1
100
AcDbEntity
  8
AM_5
100
AcDbLine
 10
62.63183383806586
 20
51.05998189814553
 30
0.0
 11
50.63183383806585
 21
51.05998189814553
 31
0.0
  0
LINE
  5
38859
330
382D1
100
AcDbEntity
  8
AM_5
100
AcDbLine
 10
62.63183383806586
 20
38.05998189814349
 30
0.0
 11
50.63183383806585
 21
38.05998189814349
 31
0.0
  0
LINE
  5
3885A
330
382D1
100
AcDbEntity
  8
AM_5
100
AcDbLine
 10
51.63183383806585
 20
50.05998189814552
 30
0.0
 11
51.63183383806584
 21
39.05998189814349
 31
0.0
  0
INSERT
  5
3885B
330
382D1
100
AcDbEntity
  8
AM_5
100
AcDbBlockReference
  2
_Dot
 10
51.63183383806585
 20
51.05998189814553
 30
0.0
 50
90.0
  0
INSERT
  5
3885C
330
382D1
100
AcDbEntity
  8
AM_5
100
AcDbBlockReference
  2
_Dot
 10
51.63183383806584
 20
38.05998189814349
 30
0.0
 50
270.0
  0
MTEXT
  5
3885D
330
382D1
100
AcDbEntity
  8
AM_5
 62
     2
100
AcDbMText
 10
48.53183383806584
 20
44.55998189814452
 30
0.0
 40
3.200000000000001
 41
0.0
 71
     5
 72
     1
  1
13
 11
0.0000000000000001
 21
1.0
 31
0.0
 73
     1
 44
1.0
1001
ACAD
1000
MTEXTBEGIN
1070
    73
1070
     1
1070
    44
1040
1.0
1070
    74
1070
     0
1000
MTEXTEND
  0
POINT
  5
3885E
330
382D1
100
AcDbEntity
  8
Defpoints
 62
     0
100
AcDbPoint
 10
63.63183383806585
 20
51.05998189814553
 30
0.0
  0
POINT
  5
3885F
330
382D1
100
AcDbEntity
  8
Defpoints
 62
     0
100
AcDbPoint
 10
63.63183383806585
 20
38.05998189814349
 30
0.0
  0
POINT
  5
38860
330
382D1
100
AcDbEntity
  8
Defpoints
 62
     0
100
AcDbPoint
 10
51.63183383806584
 20
38.05998189814349
 30
0.0
  0
ENDBLK
  5
382DC
330
382D1
100
AcDbEntity
  8
0
100
AcDbBlockEnd
  0
BLOCK
  5
382F1
330
382E7
100
AcDbEntity
  8
0
100
AcDbBlockBegin
  2
*D12
 70
     1
 10
0.0
 20
0.0
 30
0.0
  3
*D12
  1

  0
LINE
  5
38861
330
382E7
100
AcDbEntity
  8
AM_5
100
AcDbLine
 10
70.35266351658119
 20
36.85998189814923
 30
0.0
 11
40.63183383806598
 21
36.85998189814924
 31
0.0
  0
LINE
  5
38862
330
382E7
100
AcDbEntity
  8
AM_5
100
AcDbLine
 10
70.35266351658106
 20
52.25998189814678
 30
0.0
 11
40.63183383806599
 21
52.25998189814678
 31
0.0
  0
LINE
  5
38863
330
382E7
100
AcDbEntity
  8
AM_5
100
AcDbLine
 10
41.63183383806599
 20
37.85998189814924
 30
0.0
 11
41.63183383806599
 21
51.25998189814678
 31
0.0
  0
INSERT
  5
38864
330
382E7
100
AcDbEntity
  8
AM_5
100
AcDbBlockReference
  2
_Dot
 10
41.63183383806599
 20
36.85998189814924
 30
0.0
 50
270.0
  0
INSERT
  5
38865
330
382E7
100
AcDbEntity
  8
AM_5
100
AcDbBlockReference
  2
_Dot
 10
41.63183383806599
 20
52.25998189814678
 30
0.0
 50
90.0
  0
MTEXT
  5
38866
330
382E7
100
AcDbEntity
  8
AM_5
 62
     2
100
AcDbMText
 10
38.53183383806598
 20
44.55998189814802
 30
0.0
 40
3.200000000000001
 41
0.0
 71
     5
 72
     1
  1
（15.4）
 11
0.0000000000000001
 21
1.0
 31
0.0
 73
     1
 44
1.0
1001
ACAD
1000
MTEXTBEGIN
1070
    73
1070
     1
1070
    44
1040
1.0
1070
    74
1070
     0
1000
MTEXTEND
  0
POINT
  5
38867
330
382E7
100
AcDbEntity
  8
Defpoints
 62
     0
100
AcDbPoint
 10
71.35266351658119
 20
36.85998189814923
 30
0.0
  0
POINT
  5
38868
330
382E7
100
AcDbEntity
  8
Defpoints
 62
     0
100
AcDbPoint
 10
71.35266351658106
 20
52.25998189814678
 30
0.0
  0
POINT
  5
38869
330
382E7
100
AcDbEntity
  8
Defpoints
 62
     0
100
AcDbPoint
 10
41.63183383806599
 20
52.25998189814678
 30
0.0
  0
ENDBLK
  5
382F2
330
382E7
100
AcDbEntity
  8
0
100
AcDbBlockEnd
  0
BLOCK
  5
38324
330
38319
100
AcDbEntity
  8
0
100
AcDbBlockBegin
  2
*D13
 70
     1
 10
0.0
 20
0.0
 30
0.0
  3
*D13
  1

  0
LINE
  5
3886A
330
38319
100
AcDbEntity
  8
AM_5
100
AcDbLine
 10
199.5611628105783
 20
92.96566704941666
 30
0.0
 11
187.8483336759522
 21
92.96566704941666
 31
0.0
  0
LINE
  5
3886B
330
38319
100
AcDbEntity
  8
AM_5
100
AcDbLine
 10
199.5611628105783
 20
86.46566704941665
 30
0.0
 11
187.8483336759522
 21
86.46566704941665
 31
0.0
  0
LINE
  5
3886C
330
38319
100
AcDbEntity
  8
AM_5
100
AcDbLine
 10
188.8483336759522
 20
91.96566704941664
 30
0.0
 11
188.8483336759522
 21
87.46566704941665
 31
0.0
  0
LINE
  5
3886D
330
38319
100
AcDbEntity
  8
AM_5
100
AcDbLine
 10
188.8483336759522
 20
86.46566704941665
 30
0.0
 11
188.8483336759522
 21
77.87900038274997
 31
0.0
  0
INSERT
  5
3886E
330
38319
100
AcDbEntity
  8
AM_5
100
AcDbBlockReference
  2
_Dot
 10
188.8483336759522
 20
92.96566704941666
 30
0.0
 50
90.0
  0
INSERT
  5
3886F
330
38319
100
AcDbEntity
  8
AM_5
100
AcDbBlockReference
  2
_Dot
 10
188.8483336759522
 20
86.46566704941665
 30
0.0
 50
270.0
  0
MTEXT
  5
38870
330
38319
100
AcDbEntity
  8
AM_5
 62
     2
100
AcDbMText
 10
185.7483336759522
 20
81.67233371608334
 30
0.0
 40
3.200000000000001
 41
0.0
 71
     5
 72
     1
  1
6.5
 11
0.0000000000000001
 21
1.0
 31
0.0
 73
     1
 44
1.0
1001
ACAD
1000
MTEXTBEGIN
1070
    73
1070
     1
1070
    44
1040
1.0
1070
    74
1070
     0
1000
MTEXTEND
  0
POINT
  5
38871
330
38319
100
AcDbEntity
  8
Defpoints
 62
     0
100
AcDbPoint
 10
200.5611628105784
 20
92.96566704941666
 30
0.0
  0
POINT
  5
38872
330
38319
100
AcDbEntity
  8
Defpoints
 62
     0
100
AcDbPoint
 10
200.5611628105784
 20
86.46566704941665
 30
0.0
  0
POINT
  5
38873
330
38319
100
AcDbEntity
  8
Defpoints
 62
     0
100
AcDbPoint
 10
188.8483336759522
 20
86.46566704941665
 30
0.0
  0
ENDBLK
  5
38325
330
38319
100
AcDbEntity
  8
0
100
AcDbBlockEnd
  0
BLOCK
  5
38350
330
38346
100
AcDbEntity
  8
0
100
AcDbBlockBegin
  2
*D14
 70
     1
 10
0.0
 20
0.0
 30
0.0
  3
*D14
  1

  0
LINE
  5
38874
330
38346
100
AcDbEntity
  8
AM_5
100
AcDbLine
 10
210.7611628105783
 20
104.2156670494166
 30
0.0
 11
177.8483336759523
 21
104.2156670494166
 31
0.0
  0
LINE
  5
38875
330
38346
100
AcDbEntity
  8
AM_5
100
AcDbLine
 10
210.7611628105783
 20
75.21566704941665
 30
0.0
 11
177.8483336759523
 21
75.21566704941665
 31
0.0
  0
LINE
  5
38876
330
38346
100
AcDbEntity
  8
AM_5
100
AcDbLine
 10
178.8483336759523
 20
103.2156670494166
 30
0.0
 11
178.8483336759523
 21
76.21566704941665
 31
0.0
  0
INSERT
  5
38877
330
38346
100
AcDbEntity
  8
AM_5
100
AcDbBlockReference
  2
_Dot
 10
178.8483336759523
 20
104.2156670494166
 30
0.0
 50
90.0
  0
INSERT
  5
38878
330
38346
100
AcDbEntity
  8
AM_5
100
AcDbBlockReference
  2
_Dot
 10
178.8483336759523
 20
75.21566704941665
 30
0.0
 50
270.0
  0
MTEXT
  5
38879
330
38346
100
AcDbEntity
  8
AM_5
 62
     2
100
AcDbMText
 10
175.7483336759522
 20
89.71566704941665
 30
0.0
 40
3.200000000000001
 41
0.0
 71
     5
 72
     1
  1
29
 11
0.0000000000000001
 21
1.0
 31
0.0
 73
     1
 44
1.0
1001
ACAD
1000
MTEXTBEGIN
1070
    73
1070
     1
1070
    44
1040
1.0
1070
    74
1070
     0
1000
MTEXTEND
  0
POINT
  5
3887A
330
38346
100
AcDbEntity
  8
Defpoints
 62
     0
100
AcDbPoint
 10
211.7611628105783
 20
104.2156670494166
 30
0.0
  0
POINT
  5
3887B
330
38346
100
AcDbEntity
  8
Defpoints
 62
     0
100
AcDbPoint
 10
211.7611628105783
 20
75.21566704941665
 30
0.0
  0
POINT
  5
3887C
330
38346
100
AcDbEntity
  8
Defpoints
 62
     0
100
AcDbPoint
 10
178.8483336759523
 20
75.21566704941665
 30
0.0
  0
ENDBLK
  5
38351
330
38346
100
AcDbEntity
  8
0
100
AcDbBlockEnd
  0
BLOCK
  5
38366
330
3835C
100
AcDbEntity
  8
0
100
AcDbBlockBegin
  2
*D15
 70
     1
 10
0.0
 20
0.0
 30
0.0
  3
*D15
  1

  0
LINE
  5
3887D
330
3835C
100
AcDbEntity
  8
AM_5
100
AcDbLine
 10
212.5611628105783
 20
103.7156670494166
 30
0.0
 11
212.5611628105783
 21
123.5156670494162
 31
0.0
  0
LINE
  5
3887E
330
3835C
100
AcDbEntity
  8
AM_5
100
AcDbLine
 10
196.0611628105783
 20
90.71566704941664
 30
0.0
 11
196.0611628105783
 21
123.5156670494162
 31
0.0
  0
LINE
  5
3887F
330
3835C
100
AcDbEntity
  8
AM_5
100
AcDbLine
 10
211.5611628105784
 20
122.5156670494162
 30
0.0
 11
197.0611628105783
 21
122.5156670494162
 31
0.0
  0
INSERT
  5
38880
330
3835C
100
AcDbEntity
  8
AM_5
100
AcDbBlockReference
  2
_Dot
 10
212.5611628105783
 20
122.5156670494162
 30
0.0
  0
INSERT
  5
38881
330
3835C
100
AcDbEntity
  8
AM_5
100
AcDbBlockReference
  2
_Dot
 10
196.0611628105783
 20
122.5156670494162
 30
0.0
 50
180.0
  0
MTEXT
  5
38882
330
3835C
100
AcDbEntity
  8
AM_5
 62
     2
100
AcDbMText
 10
204.3111628105783
 20
125.6156670494162
 30
0.0
 40
3.200000000000001
 41
0.0
 71
     5
 72
     1
  1
16.5
 73
     1
 44
1.0
1001
ACAD
1000
MTEXTBEGIN
1070
    73
1070
     1
1070
    44
1040
1.0
1070
    74
1070
     0
1000
MTEXTEND
  0
POINT
  5
38883
330
3835C
100
AcDbEntity
  8
Defpoints
 62
     0
100
AcDbPoint
 10
212.5611628105783
 20
102.7156670494166
 30
0.0
  0
POINT
  5
38884
330
3835C
100
AcDbEntity
  8
Defpoints
 62
     0
100
AcDbPoint
 10
196.0611628105783
 20
89.71566704941665
 30
0.0
  0
POINT
  5
38885
330
3835C
100
AcDbEntity
  8
Defpoints
 62
     0
100
AcDbPoint
 10
196.0611628105783
 20
122.5156670494162
 30
0.0
  0
ENDBLK
  5
38367
330
3835C
100
AcDbEntity
  8
0
100
AcDbBlockEnd
  0
BLOCK
  5
3837C
330
38372
100
AcDbEntity
  8
0
100
AcDbBlockBegin
  2
*D16
 70
     1
 10
0.0
 20
0.0
 30
0.0
  3
*D16
  1

  0
LINE
  5
38886
330
38372
100
AcDbEntity
  8
AM_5
100
AcDbLine
 10
196.0611628105783
 20
90.71566704941664
 30
0.0
 11
196.0611628105783
 21
133.5156670494161
 31
0.0
  0
LINE
  5
38887
330
38372
100
AcDbEntity
  8
AM_5
100
AcDbLine
 10
213.5611628105784
 20
104.7156670494166
 30
0.0
 11
213.5611628105784
 21
133.5156670494161
 31
0.0
  0
LINE
  5
38888
330
38372
100
AcDbEntity
  8
AM_5
100
AcDbLine
 10
197.0611628105783
 20
132.5156670494161
 30
0.0
 11
212.5611628105783
 21
132.5156670494161
 31
0.0
  0
INSERT
  5
38889
330
38372
100
AcDbEntity
  8
AM_5
100
AcDbBlockReference
  2
_Dot
 10
196.0611628105783
 20
132.5156670494161
 30
0.0
 50
180.0
  0
INSERT
  5
3888A
330
38372
100
AcDbEntity
  8
AM_5
100
AcDbBlockReference
  2
_Dot
 10
213.5611628105784
 20
132.5156670494161
 30
0.0
  0
MTEXT
  5
3888B
330
38372
100
AcDbEntity
  8
AM_5
 62
     2
100
AcDbMText
 10
204.8111628105783
 20
135.6156670494161
 30
0.0
 40
3.200000000000001
 41
0.0
 71
     5
 72
     1
  1
（17.5）
 73
     1
 44
1.0
1001
ACAD
1000
MTEXTBEGIN
1070
    73
1070
     1
1070
    44
1040
1.0
1070
    74
1070
     0
1000
MTEXTEND
  0
POINT
  5
3888C
330
38372
100
AcDbEntity
  8
Defpoints
 62
     0
100
AcDbPoint
 10
196.0611628105783
 20
89.71566704941665
 30
0.0
  0
POINT
  5
3888D
330
38372
100
AcDbEntity
  8
Defpoints
 62
     0
100
AcDbPoint
 10
213.5611628105784
 20
103.7156670494166
 30
0.0
  0
POINT
  5
3888E
330
38372
100
AcDbEntity
  8
Defpoints
 62
     0
100
AcDbPoint
 10
213.5611628105784
 20
132.5156670494161
 30
0.0
  0
ENDBLK
  5
3837D
330
38372
100
AcDbEntity
  8
0
100
AcDbBlockEnd
  0
BLOCK
  5
383D6
330
383CC
100
AcDbEntity
  8
0
100
AcDbBlockBegin
  2
*D17
 70
     1
 10
0.0
 20
0.0
 30
0.0
  3
*D17
  1

  0
LINE
  5
3888F
330
383CC
100
AcDbEntity
  8
AM_5
100
AcDbLine
 10
246.8498536555176
 20
99.82244647994134
 30
0.0
 11
258.5998546555225
 21
99.82244647994134
 31
0.0
  0
LINE
  5
38890
330
383CC
100
AcDbEntity
  8
AM_5
100
AcDbLine
 10
246.8498536555176
 20
79.82244647994139
 30
0.0
 11
258.5998546555225
 21
79.82244647994139
 31
0.0
  0
LINE
  5
38891
330
383CC
100
AcDbEntity
  8
AM_5
100
AcDbLine
 10
257.5998546555225
 20
98.82244647994134
 30
0.0
 11
257.5998546555225
 21
80.82244647994139
 31
0.0
  0
INSERT
  5
38892
330
383CC
100
AcDbEntity
  8
AM_5
100
AcDbBlockReference
  2
_Dot
 10
257.5998546555225
 20
99.82244647994134
 30
0.0
 50
90.0
  0
INSERT
  5
38893
330
383CC
100
AcDbEntity
  8
AM_5
100
AcDbBlockReference
  2
_Dot
 10
257.5998546555225
 20
79.82244647994139
 30
0.0
 50
270.0
  0
MTEXT
  5
38894
330
383CC
100
AcDbEntity
  8
AM_5
 62
     2
100
AcDbMText
 10
254.4998546555225
 20
89.82244647994141
 30
0.0
 40
3.200000000000001
 41
0.0
 71
     5
 72
     1
  1
20
 11
0.0000000000000001
 21
1.0
 31
0.0
 73
     1
 44
1.0
1001
ACAD
1000
MTEXTBEGIN
1070
    73
1070
     1
1070
    44
1040
1.0
1070
    74
1070
     0
1000
MTEXTEND
  0
POINT
  5
38895
330
383CC
100
AcDbEntity
  8
Defpoints
 62
     0
100
AcDbPoint
 10
245.8498536555175
 20
99.82244647994134
 30
0.0
  0
POINT
  5
38896
330
383CC
100
AcDbEntity
  8
Defpoints
 62
     0
100
AcDbPoint
 10
245.8498536555175
 20
79.82244647994139
 30
0.0
  0
POINT
  5
38897
330
383CC
100
AcDbEntity
  8
Defpoints
 62
     0
100
AcDbPoint
 10
257.5998546555225
 20
79.82244647994139
 30
0.0
  0
ENDBLK
  5
383D7
330
383CC
100
AcDbEntity
  8
0
100
AcDbBlockEnd
  0
BLOCK
  5
38591
330
3858E
100
AcDbEntity
  8
0
100
AcDbBlockBegin
  2
GENDOT
 70
     0
 10
0.0
 20
0.0
 30
0.0
  3
GENDOT
  1

  0
LINE
  5
3858F
330
3858E
100
AcDbEntity
  8
0
100
AcDbLine
 10
0.0
 20
0.0
 30
0.0
 11
-1.0
 21
0.0
 31
0.0
  0
LWPOLYLINE
  5
38590
330
3858E
100
AcDbEntity
  8
0
100
AcDbPolyline
 90
        2
 70
     1
 43
0.25
 10
-0.125
 20
0.0
 42
1.0
 10
0.125
 20
0.0
 42
1.0
  0
ENDBLK
  5
38592
330
3858E
100
AcDbEntity
  8
0
100
AcDbBlockEnd
  0
BLOCK
  5
38615
330
3860B
100
AcDbEntity
  8
0
100
AcDbBlockBegin
  2
*D19
 70
     1
 10
0.0
 20
0.0
 30
0.0
  3
*D19
  1

  0
LINE
  5
38898
330
3860B
100
AcDbEntity
  8
AM_5
100
AcDbLine
 10
117.8451221062219
 20
109.0156670494161
 30
0.0
 11
117.8451221062219
 21
123.5156670494161
 31
0.0
  0
LINE
  5
38899
330
3860B
100
AcDbEntity
  8
AM_5
100
AcDbLine
 10
129.3451221062218
 20
109.0156670494161
 30
0.0
 11
129.3451221062218
 21
123.5156670494161
 31
0.0
  0
LINE
  5
3889A
330
3860B
100
AcDbEntity
  8
AM_5
100
AcDbLine
 10
118.8451221062219
 20
122.5156670494161
 30
0.0
 11
128.3451221062218
 21
122.5156670494161
 31
0.0
  0
INSERT
  5
3889B
330
3860B
100
AcDbEntity
  8
AM_5
100
AcDbBlockReference
  2
_Dot
 10
117.8451221062219
 20
122.5156670494161
 30
0.0
 50
180.0
  0
INSERT
  5
3889C
330
3860B
100
AcDbEntity
  8
AM_5
100
AcDbBlockReference
  2
_Dot
 10
129.3451221062218
 20
122.5156670494161
 30
0.0
  0
MTEXT
  5
3889D
330
3860B
100
AcDbEntity
  8
AM_5
 62
     2
100
AcDbMText
 10
123.5951221062218
 20
125.6156670494161
 30
0.0
 40
3.200000000000001
 41
0.0
 71
     5
 72
     1
  1
11.5
 73
     1
 44
1.0
1001
ACAD
1000
MTEXTBEGIN
1070
    73
1070
     1
1070
    44
1040
1.0
1070
    74
1070
     0
1000
MTEXTEND
  0
POINT
  5
3889E
330
3860B
100
AcDbEntity
  8
Defpoints
 62
     0
100
AcDbPoint
 10
117.8451221062219
 20
108.0156670494161
 30
0.0
  0
POINT
  5
3889F
330
3860B
100
AcDbEntity
  8
Defpoints
 62
     0
100
AcDbPoint
 10
129.3451221062218
 20
108.0156670494161
 30
0.0
  0
POINT
  5
388A0
330
3860B
100
AcDbEntity
  8
Defpoints
 62
     0
100
AcDbPoint
 10
129.3451221062218
 20
122.5156670494161
 30
0.0
  0
ENDBLK
  5
38616
330
3860B
100
AcDbEntity
  8
0
100
AcDbBlockEnd
  0
BLOCK
  5
386BD
330
386B3
100
AcDbEntity
  8
0
100
AcDbBlockBegin
  2
*D20
 70
     1
 10
0.0
 20
0.0
 30
0.0
  3
*D20
  1

  0
LINE
  5
388A1
330
386B3
100
AcDbEntity
  8
AM_5
100
AcDbLine
 10
236.0998536555176
 20
104.3224464799396
 30
0.0
 11
236.0998536555176
 21
123.515667049416
 31
0.0
  0
LINE
  5
388A2
330
386B3
100
AcDbEntity
  8
AM_5
100
AcDbLine
 10
245.5998536555175
 20
104.3224464799396
 30
0.0
 11
245.5998536555175
 21
123.515667049416
 31
0.0
  0
LINE
  5
388A3
330
386B3
100
AcDbEntity
  8
AM_5
100
AcDbLine
 10
237.0998536555176
 20
122.515667049416
 30
0.0
 11
244.5998536555176
 21
122.515667049416
 31
0.0
  0
INSERT
  5
388A4
330
386B3
100
AcDbEntity
  8
AM_5
100
AcDbBlockReference
  2
_Dot
 10
236.0998536555176
 20
122.515667049416
 30
0.0
 50
180.0
  0
INSERT
  5
388A5
330
386B3
100
AcDbEntity
  8
AM_5
100
AcDbBlockReference
  2
_Dot
 10
245.5998536555175
 20
122.515667049416
 30
0.0
  0
MTEXT
  5
388A6
330
386B3
100
AcDbEntity
  8
AM_5
 62
     2
100
AcDbMText
 10
240.8498536555176
 20
125.615667049416
 30
0.0
 40
3.200000000000001
 41
0.0
 71
     5
 72
     1
  1
9.5
 73
     1
 44
1.0
1001
ACAD
1000
MTEXTBEGIN
1070
    73
1070
     1
1070
    44
1040
1.0
1070
    74
1070
     0
1000
MTEXTEND
  0
POINT
  5
388A7
330
386B3
100
AcDbEntity
  8
Defpoints
 62
     0
100
AcDbPoint
 10
236.0998536555176
 20
103.3224464799396
 30
0.0
  0
POINT
  5
388A8
330
386B3
100
AcDbEntity
  8
Defpoints
 62
     0
100
AcDbPoint
 10
245.5998536555175
 20
103.3224464799396
 30
0.0
  0
POINT
  5
388A9
330
386B3
100
AcDbEntity
  8
Defpoints
 62
     0
100
AcDbPoint
 10
245.5998536555175
 20
122.515667049416
 30
0.0
  0
ENDBLK
  5
386BE
330
386B3
100
AcDbEntity
  8
0
100
AcDbBlockEnd
  0
ENDSEC
  0
SECTION
  2
ENTITIES
  0
TEXT
  5
16B8B
330
1F
100
AcDbEntity
  8
AM_6
 60
     1
100
AcDbText
 10
582.4999999999999
 20
-485.0192301375773
 30
0.0
 40
2.5
  1
!GENTITLE-INSERT
100
AcDbText
  0
TEXT
  5
16B8C
330
1F
100
AcDbEntity
  8
AM_6
 60
     1
100
AcDbText
 10
593.9999999999998
 20
-73.51923013757732
 30
0.0
 40
2.5
  1
!GENTITLE-MAX
100
AcDbText
  0
TEXT
  5
16B8D
330
1F
100
AcDbEntity
  8
AM_6
 60
     1
100
AcDbText
 10
593.9999999999998
 20
-73.51923013757732
 30
0.0
 40
2.5
  1
!GENTITLE-RU
100
AcDbText
  0
TEXT
  5
16B8E
330
1F
100
AcDbEntity
  8
AM_6
 60
     1
100
AcDbText
 10
-0.0000000000000907
 20
-493.5192301375773
 30
0.0
 40
2.5
  1
!GENTITLE-LL
100
AcDbText
  0
LINE
  5
25141
330
1F
100
AcDbEntity
  8
AM_0
100
AcDbLine
 10
31.49999999999997
 20
201.50000005115
 30
0.0
 11
31.50000000000031
 21
145.8015736513091
 31
0.0
  0
LINE
  5
25142
330
1F
100
AcDbEntity
  8
AM_4
100
AcDbLine
 10
11.49999999999997
 20
193.5000000511499
 30
0.0
 11
94.49999999999972
 21
193.5000000511499
 31
0.0
  0
LINE
  5
25143
330
1F
100
AcDbEntity
  8
AM_4
100
AcDbLine
 10
11.49999999999997
 20
185.50000005115
 30
0.0
 11
94.49999999999976
 21
185.50000005115
 31
0.0
  0
LINE
  5
25144
330
1F
100
AcDbEntity
  8
AM_0
100
AcDbLine
 10
11.50000000000003
 20
145.8015736513091
 30
0.0
 11
94.49999999999995
 21
145.8015736513089
 31
0.0
  0
LINE
  5
25145
330
1F
100
AcDbEntity
  8
AM_0
100
AcDbLine
 10
11.49999999999997
 20
201.50000005115
 30
0.0
 11
109.4999999999999
 21
201.50000005115
 31
0.0
  0
LINE
  5
25146
330
1F
100
AcDbEntity
  8
AM_0
100
AcDbLine
 10
94.49999999999969
 20
201.50000005115
 30
0.0
 11
94.49999999999997
 21
145.8015736513089
 31
0.0
  0
TEXT
  5
25147
330
1F
100
AcDbEntity
  8
AM_6
100
AcDbText
 10
17.15700000000012
 20
195.9000000511496
 30
0.0
 40
3.2
  1
品　名
 41
0.85537027
100
AcDbText
  0
TEXT
  5
25148
330
1F
100
AcDbEntity
  8
AM_6
100
AcDbText
 10
17.15700000000012
 20
187.9000000511496
 30
0.0
 40
3.2
  1
品　番
 41
0.85537027
100
AcDbText
  0
TEXT
  5
25149
330
1F
100
AcDbEntity
  8
AM_6
100
AcDbText
 10
34.35699999999994
 20
195.9000000511496
 30
0.0
 40
3.2
  1
ローラーキャッチ
 41
0.84306961
100
AcDbText
  0
TEXT
  5
2514A
330
1F
100
AcDbEntity
  8
AM_6
100
AcDbText
 10
17.15700000000012
 20
179.9000000511496
 30
0.0
 40
3.2
  1
材　質
 41
0.85537027
100
AcDbText
  0
TEXT
  5
2514B
330
1F
100
AcDbEntity
  8
AM_6
100
AcDbText
 10
34.35699999999994
 20
179.9000000511496
 30
0.0
 40
3.2
  1
本体および受け：スチール
 41
0.84741102
100
AcDbText
  0
LINE
  5
2514C
330
1F
100
AcDbEntity
  8
AM_4
100
AcDbLine
 10
11.50000000000008
 20
169.50000005115
 30
0.0
 11
94.49999999999985
 21
169.50000005115
 31
0.0
  0
TEXT
  5
2514D
330
1F
100
AcDbEntity
  8
AM_6
100
AcDbText
 10
17.15700000000024
 20
163.9000000511496
 30
0.0
 40
3.2
  1
仕上げ
 41
0.85537027
100
AcDbText
  0
LINE
  5
25152
330
1F
100
AcDbEntity
  8
AM_4
100
AcDbLine
 10
11.5000000000002
 20
153.50000005115
 30
0.0
 11
94.49999999999993
 21
153.50000005115
 31
0.0
  0
TEXT
  5
25153
330
1F
100
AcDbEntity
  8
AM_6
100
AcDbText
 10
17.15700000000035
 20
148.2015736513087
 30
0.0
 40
3.2
  1
備　考
 41
0.85537027
100
AcDbText
  0
TEXT
  5
37551
330
1F
100
AcDbEntity
  8
AM_6
100
AcDbText
 10
34.35700000000006
 20
171.9000000511496
 30
0.0
 40
3.2
  1
ローラー部：スチール
 41
0.84741102
100
AcDbText
  0
TEXT
  5
375E2
330
1F
100
AcDbEntity
  8
AM_6
100
AcDbText
 10
34.357
 20
187.9000000511496
 30
0.0
 40
3.2
  1
S-1050
 41
0.84306961
100
AcDbText
  0
TEXT
  5
37F2D
330
1F
100
AcDbEntity
  8
AM_6
 60
     1
100
AcDbText
 10
285.4999999999999
 20
8.500000051149982
 30
0.0
 40
2.5
  1
!GENTITLE-INSERT
100
AcDbText
  0
TEXT
  5
37F2E
330
1F
100
AcDbEntity
  8
AM_6
 60
     1
100
AcDbText
 10
296.9999999999999
 20
210.00000005115
 30
0.0
 40
2.5
  1
!GENTITLE-MAX
100
AcDbText
  0
TEXT
  5
37F2F
330
1F
100
AcDbEntity
  8
AM_6
 60
     1
100
AcDbText
 10
296.9999999999999
 20
210.00000005115
 30
0.0
 40
2.5
  1
!GENTITLE-RU
100
AcDbText
  0
LINE
  5
37F30
330
1F
100
AcDbEntity
  8
size
100
AcDbLine
 10
-0.0000000000000406
 20
210.00000005115
 30
0.0
 11
296.9999999999999
 21
210.00000005115
 31
0.0
1001
GENIUS_GENREC_14
1002
{
1000
PYDIR
1011
-0.0000000000000264
1021
297.00000005115
1031
0.0
1002
}
1002
{
1000
PXDIR
1011
419.9999999999999
1021
0.000000051149982
1031
0.0
1002
}
1002
{
1000
PORI
1011
-0.0000000000000406
1021
0.000000051149982
1031
0.0
1002
}
1002
{
1000
PINS
1011
210.0
1021
148.5000000511499
1031
0.0
1002
}
1002
{
1000
HVAL
1000
297
1002
}
1002
{
1000
H
1070
     2
1002
}
1002
{
1000
WVAL
1000
420
1002
}
1002
{
1000
W
1070
     2
1002
}
1002
{
1000
C
1070
     4
1002
}
1001
GENIUS_GENOBJ-N-REC_13
1002
{
1000
OWNER
1000
GEN
1002
}
1001
GENIUS_GENODEF_13
1002
{
1000
HIER
1070
     0
1002
}
1002
{
1000
MANEDIT
1070
     0
1002
}
1002
{
1000
NOSEL
1070
     0
1002
}
1002
{
1000
BEHIND
1070
     0
1002
}
1002
{
1000
OTHER
1070
     0
1002
}
1002
{
1000
REACTOR
1002
}
  0
TEXT
  5
37F31
330
1F
100
AcDbEntity
  8
AM_6
 60
     1
100
AcDbText
 10
-0.0000000000000406
 20
0.000000051149982
 30
0.0
 40
2.5
  1
!GENTITLE-LL
100
AcDbText
  0
LINE
  5
37F32
330
1F
100
AcDbEntity
  8
size
100
AcDbLine
 10
296.9999999999999
 20
210.00000005115
 30
0.0
 11
296.9999999999999
 21
0.0000000511499536
 31
0.0
1001
GENIUS_GENREC_14
1002
{
1000
PYDIR
1011
-0.0000000000000264
1021
297.00000005115
1031
0.0
1002
}
1002
{
1000
PXDIR
1011
419.9999999999999
1021
0.000000051149982
1031
0.0
1002
}
1002
{
1000
PORI
1011
-0.0000000000000406
1021
0.000000051149982
1031
0.0
1002
}
1002
{
1000
PINS
1011
210.0
1021
148.5000000511499
1031
0.0
1002
}
1002
{
1000
HVAL
1000
297
1002
}
1002
{
1000
H
1070
     2
1002
}
1002
{
1000
WVAL
1000
420
1002
}
1002
{
1000
W
1070
     2
1002
}
1002
{
1000
C
1070
     4
1002
}
1001
GENIUS_GENOBJ-N-REC_13
1002
{
1000
OWNER
1000
GEN
1002
}
1001
GENIUS_GENODEF_13
1002
{
1000
HIER
1070
     0
1002
}
1002
{
1000
MANEDIT
1070
     0
1002
}
1002
{
1000
NOSEL
1070
     0
1002
}
1002
{
1000
BEHIND
1070
     0
1002
}
1002
{
1000
OTHER
1070
     0
1002
}
1002
{
1000
REACTOR
1002
}
  0
LINE
  5
37F33
330
1F
100
AcDbEntity
  8
waku
100
AcDbLine
 10
11.49999999999996
 20
8.500000051149982
 30
0.0
 11
285.4999999999999
 21
8.500000051149982
 31
0.0
1001
GENIUS_GENREC_14
1002
{
1000
PYDIR
1011
-0.0000000000000264
1021
297.00000005115
1031
0.0
1002
}
1002
{
1000
PXDIR
1011
419.9999999999999
1021
0.000000051149982
1031
0.0
1002
}
1002
{
1000
PORI
1011
-0.0000000000000406
1021
0.000000051149982
1031
0.0
1002
}
1002
{
1000
PINS
1011
210.0
1021
148.5000000511499
1031
0.0
1002
}
1002
{
1000
HVAL
1000
297
1002
}
1002
{
1000
H
1070
     2
1002
}
1002
{
1000
WVAL
1000
420
1002
}
1002
{
1000
W
1070
     2
1002
}
1002
{
1000
C
1070
     4
1002
}
  0
LINE
  5
37F34
330
1F
100
AcDbEntity
  8
waku
100
AcDbLine
 10
285.5
 20
201.50000005115
 30
0.0
 11
11.49999999999996
 21
201.50000005115
 31
0.0
1001
GENIUS_GENREC_14
1002
{
1000
PYDIR
1011
-123.0
1021
210.00000005115
1031
0.0
1002
}
1002
{
1000
PXDIR
1011
296.9999999999999
1021
-86.99999994885002
1031
0.0
1002
}
1002
{
1000
PORI
1011
-123.0
1021
-86.99999994885002
1031
0.0
1002
}
1002
{
1000
PINS
1011
86.99999999999999
1021
61.50000005114995
1031
0.0
1002
}
1002
{
1000
HVAL
1000
297
1002
}
1002
{
1000
H
1070
     2
1002
}
1002
{
1000
WVAL
1000
420
1002
}
1002
{
1000
W
1070
     2
1002
}
1002
{
1000
C
1070
     4
1002
}
1001
GENIUS_GENOBJ-N-REC_13
1002
{
1000
OWNER
1000
GEN
1002
}
1001
GENIUS_GENODEF_13
1002
{
1000
HIER
1070
     0
1002
}
1002
{
1000
MANEDIT
1070
     0
1002
}
1002
{
1000
NOSEL
1070
     0
1002
}
1002
{
1000
BEHIND
1070
     0
1002
}
1002
{
1000
OTHER
1070
     0
1002
}
1002
{
1000
REACTOR
1002
}
  0
LINE
  5
37F35
330
1F
100
AcDbEntity
  8
waku
100
AcDbLine
 10
11.49999999999997
 20
201.50000005115
 30
0.0
 11
11.49999999999996
 21
8.500000051149982
 31
0.0
1001
GENIUS_GENREC_14
1002
{
1000
PYDIR
1011
-0.0000000000000264
1021
297.00000005115
1031
0.0
1002
}
1002
{
1000
PXDIR
1011
419.9999999999999
1021
0.000000051149982
1031
0.0
1002
}
1002
{
1000
PORI
1011
-0.0000000000000406
1021
0.000000051149982
1031
0.0
1002
}
1002
{
1000
PINS
1011
210.0
1021
148.5000000511499
1031
0.0
1002
}
1002
{
1000
HVAL
1000
297
1002
}
1002
{
1000
H
1070
     2
1002
}
1002
{
1000
WVAL
1000
420
1002
}
1002
{
1000
W
1070
     2
1002
}
1002
{
1000
C
1070
     4
1002
}
1001
GENIUS_GENOBJ-N-REC_13
1002
{
1000
OWNER
1000
GEN
1002
}
1001
GENIUS_GENODEF_13
1002
{
1000
HIER
1070
     0
1002
}
1002
{
1000
MANEDIT
1070
     0
1002
}
1002
{
1000
NOSEL
1070
     0
1002
}
1002
{
1000
BEHIND
1070
     0
1002
}
1002
{
1000
OTHER
1070
     0
1002
}
1002
{
1000
REACTOR
1002
}
  0
LINE
  5
37F36
330
1F
100
AcDbEntity
  8
waku
100
AcDbLine
 10
285.4999999999999
 20
8.500000051149982
 30
0.0
 11
285.5
 21
201.50000005115
 31
0.0
1001
GENIUS_GENREC_14
1002
{
1000
PYDIR
1011
-123.0
1021
216.00000005115
1031
0.0
1002
}
1002
{
1000
PXDIR
1011
296.9999999999999
1021
-80.99999994885001
1031
0.0
1002
}
1002
{
1000
PORI
1011
-123.0
1021
-80.99999994885001
1031
0.0
1002
}
1002
{
1000
PINS
1011
86.99999999999999
1021
67.50000005114995
1031
0.0
1002
}
1002
{
1000
HVAL
1000
297
1002
}
1002
{
1000
H
1070
     2
1002
}
1002
{
1000
WVAL
1000
420
1002
}
1002
{
1000
W
1070
     2
1002
}
1002
{
1000
C
1070
     4
1002
}
1001
GENIUS_GENOBJ-N-REC_13
1002
{
1000
OWNER
1000
GEN
1002
}
1001
GENIUS_GENODEF_13
1002
{
1000
HIER
1070
     0
1002
}
1002
{
1000
MANEDIT
1070
     0
1002
}
1002
{
1000
NOSEL
1070
     0
1002
}
1002
{
1000
BEHIND
1070
     0
1002
}
1002
{
1000
OTHER
1070
     0
1002
}
1002
{
1000
REACTOR
1002
}
  0
LINE
  5
37F37
330
1F
100
AcDbEntity
  8
size
100
AcDbLine
 10
-0.0000000000000192
 20
210.00000005115
 30
0.0
 11
-0.0000000000000406
 21
0.000000051149982
 31
0.0
1001
GENIUS_GENREC_14
1002
{
1000
PYDIR
1011
-0.0000000000000264
1021
297.00000005115
1031
0.0
1002
}
1002
{
1000
PXDIR
1011
419.9999999999999
1021
0.000000051149982
1031
0.0
1002
}
1002
{
1000
PORI
1011
-0.0000000000000406
1021
0.000000051149982
1031
0.0
1002
}
1002
{
1000
PINS
1011
210.0
1021
148.5000000511499
1031
0.0
1002
}
1002
{
1000
HVAL
1000
297
1002
}
1002
{
1000
H
1070
     2
1002
}
1002
{
1000
WVAL
1000
420
1002
}
1002
{
1000
W
1070
     2
1002
}
1002
{
1000
C
1070
     4
1002
}
1001
GENIUS_GENOBJ-N-REC_13
1002
{
1000
OWNER
1000
GEN
1002
}
1001
GENIUS_GENODEF_13
1002
{
1000
HIER
1070
     0
1002
}
1002
{
1000
MANEDIT
1070
     0
1002
}
1002
{
1000
NOSEL
1070
     0
1002
}
1002
{
1000
BEHIND
1070
     0
1002
}
1002
{
1000
OTHER
1070
     0
1002
}
1002
{
1000
REACTOR
1002
}
  0
LINE
  5
37F38
330
1F
100
AcDbEntity
  8
size
100
AcDbLine
 10
-0.0000000000000406
 20
0.000000051149982
 30
0.0
 11
296.9999999999999
 21
0.000000051149982
 31
0.0
1001
GENIUS_GENREC_14
1002
{
1000
PYDIR
1011
-0.0000000000000264
1021
297.00000005115
1031
0.0
1002
}
1002
{
1000
PXDIR
1011
419.9999999999999
1021
0.000000051149982
1031
0.0
1002
}
1002
{
1000
PORI
1011
-0.0000000000000406
1021
0.000000051149982
1031
0.0
1002
}
1002
{
1000
PINS
1011
210.0
1021
148.5000000511499
1031
0.0
1002
}
1002
{
1000
HVAL
1000
297
1002
}
1002
{
1000
H
1070
     2
1002
}
1002
{
1000
WVAL
1000
420
1002
}
1002
{
1000
W
1070
     2
1002
}
1002
{
1000
C
1070
     4
1002
}
1001
GENIUS_GENOBJ-N-REC_13
1002
{
1000
OWNER
1000
GEN
1002
}
1001
GENIUS_GENODEF_13
1002
{
1000
HIER
1070
     0
1002
}
1002
{
1000
MANEDIT
1070
     0
1002
}
1002
{
1000
NOSEL
1070
     0
1002
}
1002
{
1000
BEHIND
1070
     0
1002
}
1002
{
1000
OTHER
1070
     0
1002
}
1002
{
1000
REACTOR
1002
}
  0
TEXT
  5
37F3C
330
1F
100
AcDbEntity
  8
AM_6
100
AcDbText
 10
34.35700000000006
 20
163.9000000511496
 30
0.0
 40
3.2
  1
本体および受け：光沢クロメート
 41
0.84741102
100
AcDbText
  0
TEXT
  5
37F3D
330
1F
100
AcDbEntity
  8
AM_6
100
AcDbText
 10
34.35700000000017
 20
155.9000000511496
 30
0.0
 40
3.2
  1
ローラー部：光沢クロメート
 41
0.84741102
100
AcDbText
  0
LINE
  5
37F3F
330
1F
100
AcDbEntity
  8
AM_0
100
AcDbLine
 10
129.2951221062218
 20
71.41566704941635
 30
0.0
 11
129.2951221062218
 21
82.99107038018917
 31
0.0
1001
GENIUS_GENODEF_13
1002
{
1000
HIER
1070
     0
1002
}
1002
{
1000
MANEDIT
1070
     0
1002
}
1002
{
1000
NOSEL
1070
     0
1002
}
1002
{
1000
BEHIND
1070
     0
1002
}
1002
{
1000
REACTOR
1002
}
1001
GENIUS_GENOBJ-N-CEN_13
1002
{
1000
OWNER
1000
GEN
1002
}
  0
LINE
  5
37F40
330
1F
100
AcDbEntity
  8
AM_0
100
AcDbLine
 10
126.7951221062218
 20
68.91566704941635
 30
0.0
 11
123.595122106222
 21
68.9156670494163
 31
0.0
1001
GENIUS_GENODEF_13
1002
{
1000
HIER
1070
     0
1002
}
1002
{
1000
MANEDIT
1070
     0
1002
}
1002
{
1000
NOSEL
1070
     0
1002
}
1002
{
1000
BEHIND
1070
     0
1002
}
1002
{
1000
REACTOR
1002
}
1001
GENIUS_GENOBJ-N-CEN_13
1002
{
1000
OWNER
1000
GEN
1002
}
  0
LINE
  5
37F41
330
1F
100
AcDbEntity
  8
AM_0
100
AcDbLine
 10
117.8951221062219
 20
71.4156670494163
 30
0.0
 11
117.8951221062219
 21
83.09733444009646
 31
0.0
1001
GENIUS_GENODEF_13
1002
{
1000
HIER
1070
     0
1002
}
1002
{
1000
MANEDIT
1070
     0
1002
}
1002
{
1000
NOSEL
1070
     0
1002
}
1002
{
1000
BEHIND
1070
     0
1002
}
1002
{
1000
REACTOR
1002
}
1001
GENIUS_GENOBJ-N-CEN_13
1002
{
1000
OWNER
1000
GEN
1002
}
  0
LINE
  5
37F42
330
1F
100
AcDbEntity
  8
AM_0
100
AcDbLine
 10
120.3951221062219
 20
68.9156670494163
 30
0.0
 11
123.595122106222
 21
68.9156670494163
 31
0.0
1001
GENIUS_GENODEF_13
1002
{
1000
HIER
1070
     0
1002
}
1002
{
1000
MANEDIT
1070
     0
1002
}
1002
{
1000
NOSEL
1070
     0
1002
}
1002
{
1000
BEHIND
1070
     0
1002
}
1002
{
1000
REACTOR
1002
}
1001
GENIUS_GENOBJ-N-CEN_13
1002
{
1000
OWNER
1000
GEN
1002
}
  0
LINE
  5
37F43
330
1F
100
AcDbEntity
  8
AM_0
100
AcDbLine
 10
129.2951221062218
 20
82.51566704941627
 30
0.0
 11
129.0951221062146
 21
82.51566704941627
 31
0.0
1001
GENIUS_GENODEF_13
1002
{
1000
HIER
1070
     0
1002
}
1002
{
1000
MANEDIT
1070
     0
1002
}
1002
{
1000
NOSEL
1070
     0
1002
}
1002
{
1000
BEHIND
1070
     0
1002
}
1002
{
1000
REACTOR
1002
}
1001
GENIUS_GENOBJ-N-CEN_13
1002
{
1000
OWNER
1000
GEN
1002
}
  0
LINE
  5
37F44
330
1F
100
AcDbEntity
  8
AM_0
100
AcDbLine
 10
117.0951221062219
 20
81.7156670494163
 30
0.0
 11
117.0951221062219
 21
84.15736652498935
 31
0.0
1001
GENIUS_GENODEF_13
1002
{
1000
HIER
1070
     0
1002
}
1002
{
1000
MANEDIT
1070
     0
1002
}
1002
{
1000
NOSEL
1070
     0
1002
}
1002
{
1000
BEHIND
1070
     0
1002
}
1002
{
1000
REACTOR
1002
}
1001
GENIUS_GENOBJ-N-CEN_13
1002
{
1000
OWNER
1000
GEN
1002
}
  0
LINE
  5
37F45
330
1F
100
AcDbEntity
  8
AM_0
100
AcDbLine
 10
130.095122106222
 20
81.7156670494163
 30
0.0
 11
129.2951221062218
 21
81.7156670494163
 31
0.0
1001
GENIUS_GENODEF_13
1002
{
1000
HIER
1070
     0
1002
}
1002
{
1000
MANEDIT
1070
     0
1002
}
1002
{
1000
NOSEL
1070
     0
1002
}
1002
{
1000
BEHIND
1070
     0
1002
}
1002
{
1000
REACTOR
1002
}
1001
GENIUS_GENOBJ-N-CEN_13
1002
{
1000
OWNER
1000
GEN
1002
}
  0
LINE
  5
37F46
330
1F
100
AcDbEntity
  8
AM_0
100
AcDbLine
 10
117.8951221062219
 20
81.7156670494163
 30
0.0
 11
117.0951221062219
 21
81.7156670494163
 31
0.0
1001
GENIUS_GENODEF_13
1002
{
1000
HIER
1070
     0
1002
}
1002
{
1000
MANEDIT
1070
     0
1002
}
1002
{
1000
NOSEL
1070
     0
1002
}
1002
{
1000
BEHIND
1070
     0
1002
}
1002
{
1000
REACTOR
1002
}
1001
GENIUS_GENOBJ-N-CEN_13
1002
{
1000
OWNER
1000
GEN
1002
}
  0
ARC
  5
37F47
330
1F
100
AcDbEntity
  8
AM_0
100
AcDbCircle
 10
120.3951221062219
 20
71.4156670494163
 30
0.0
 40
2.5
100
AcDbArc
 50
180.0
 51
270.0
1001
GENIUS_GENODEF_13
1002
{
1000
HIER
1070
     0
1002
}
1002
{
1000
MANEDIT
1070
     0
1002
}
1002
{
1000
NOSEL
1070
     0
1002
}
1002
{
1000
BEHIND
1070
     0
1002
}
1002
{
1000
REACTOR
1002
}
1001
GENIUS_GENOBJ-N-FIL_13
1002
{
1000
OWNER
1000
GEN
1002
}
1001
GENIUS_GENOBJ-N-CEN_13
1002
{
1000
OWNER
1000
GEN
1002
}
  0
ARC
  5
37F48
330
1F
100
AcDbEntity
  8
AM_0
100
AcDbCircle
 10
126.7951221062218
 20
71.41566704941635
 30
0.0
 40
2.5
100
AcDbArc
 50
270.0
 51
0.0
1001
GENIUS_GENODEF_13
1002
{
1000
HIER
1070
     0
1002
}
1002
{
1000
MANEDIT
1070
     0
1002
}
1002
{
1000
NOSEL
1070
     0
1002
}
1002
{
1000
BEHIND
1070
     0
1002
}
1002
{
1000
REACTOR
1002
}
1001
GENIUS_GENOBJ-N-FIL_13
1002
{
1000
OWNER
1000
GEN
1002
}
1001
GENIUS_GENOBJ-N-CEN_13
1002
{
1000
OWNER
1000
GEN
1002
}
  0
LINE
  5
37F49
330
1F
100
AcDbEntity
  8
AM_0
100
AcDbLine
 10
76.83183383806579
 20
68.9156670494163
 30
0.0
 11
76.03183383806584
 21
68.9156670494163
 31
0.0
  0
LINE
  5
37F4A
330
1F
100
AcDbEntity
  8
AM_0
100
AcDbLine
 10
74.53183383806583
 20
81.7156670494163
 30
0.0
 11
63.63183383806585
 21
81.71566704941637
 31
0.0
  0
LINE
  5
37F4B
330
1F
100
AcDbEntity
  8
AM_0
100
AcDbLine
 10
76.83183383806579
 20
110.5156670494162
 30
0.0
 11
76.03183383806584
 21
110.5156670494162
 31
0.0
  0
LINE
  5
37F4C
330
1F
100
AcDbEntity
  8
AM_0
100
AcDbLine
 10
76.83183383806579
 20
110.5156670494162
 30
0.0
 11
76.83183383806579
 21
99.21566704941632
 31
0.0
  0
LINE
  5
37F4D
330
1F
100
AcDbEntity
  8
AM_0
100
AcDbLine
 10
76.03183383806584
 20
110.5156670494162
 30
0.0
 11
76.03183383806584
 21
99.21566704941632
 31
0.0
  0
LINE
  5
37F4E
330
1F
100
AcDbEntity
  8
AM_0
100
AcDbLine
 10
62.83183383806579
 20
96.91566704941619
 30
0.0
 11
62.83183383806579
 21
82.51566704941637
 31
0.0
  0
LINE
  5
37F4F
330
1F
100
AcDbEntity
  8
AM_0
100
AcDbLine
 10
76.03183383806584
 20
80.21566704941632
 30
0.0
 11
76.03183383806584
 21
68.9156670494163
 31
0.0
  0
ARC
  5
37F50
330
1F
100
AcDbEntity
  8
AM_0
100
AcDbCircle
 10
72.83183383806579
 20
94.71566704941631
 30
0.0
 40
3.0
100
AcDbArc
 50
0.0
 51
90.0
1001
GENIUS_GENODEF_13
1002
{
1000
HIER
1070
     0
1002
}
1002
{
1000
MANEDIT
1070
     0
1002
}
1002
{
1000
NOSEL
1070
     0
1002
}
1002
{
1000
BEHIND
1070
     0
1002
}
1002
{
1000
REACTOR
1002
}
1001
GENIUS_GENOBJ-N-FIL_13
1002
{
1000
OWNER
1000
GEN
1002
}
  0
ARC
  5
37F51
330
1F
100
AcDbEntity
  8
AM_0
100
AcDbCircle
 10
72.83183383806579
 20
84.71566704941631
 30
0.0
 40
3.0
100
AcDbArc
 50
270.0
 51
0.0
1001
GENIUS_GENODEF_13
1002
{
1000
HIER
1070
     0
1002
}
1002
{
1000
MANEDIT
1070
     0
1002
}
1002
{
1000
NOSEL
1070
     0
1002
}
1002
{
1000
BEHIND
1070
     0
1002
}
1002
{
1000
REACTOR
1002
}
1001
GENIUS_GENOBJ-N-FIL_13
1002
{
1000
OWNER
1000
GEN
1002
}
  0
LINE
  5
37F52
330
1F
100
AcDbEntity
  8
AM_0
100
AcDbLine
 10
75.83183383806579
 20
94.71566704941631
 30
0.0
 11
75.83183383806579
 21
84.71566704941631
 31
0.0
  0
LINE
  5
37F53
330
1F
100
AcDbEntity
  8
AM_0
100
AcDbLine
 10
76.83183383806579
 20
80.21566704941632
 30
0.0
 11
76.83183383806579
 21
68.9156670494163
 31
0.0
  0
ARC
  5
37F54
330
1F
100
AcDbEntity
  8
AM_0
100
AcDbCircle
 10
63.63183383806575
 20
96.91566704941619
 30
0.0
 40
0.8
100
AcDbArc
 50
90.0
 51
180.0
1001
GENIUS_GENODEF_13
1002
{
1000
HIER
1070
     0
1002
}
1002
{
1000
MANEDIT
1070
     0
1002
}
1002
{
1000
NOSEL
1070
     0
1002
}
1002
{
1000
BEHIND
1070
     0
1002
}
1002
{
1000
REACTOR
1002
}
1001
GENIUS_GENOBJ-N-FIL_13
1002
{
1000
OWNER
1000
GEN
1002
}
  0
ARC
  5
37F55
330
1F
100
AcDbEntity
  8
AM_0
100
AcDbCircle
 10
63.63183383806585
 20
82.51566704941637
 30
0.0
 40
0.8
100
AcDbArc
 50
180.0
 51
270.0
1001
GENIUS_GENODEF_13
1002
{
1000
HIER
1070
     0
1002
}
1002
{
1000
MANEDIT
1070
     0
1002
}
1002
{
1000
NOSEL
1070
     0
1002
}
1002
{
1000
BEHIND
1070
     0
1002
}
1002
{
1000
REACTOR
1002
}
1001
GENIUS_GENOBJ-N-FIL_13
1002
{
1000
OWNER
1000
GEN
1002
}
  0
LINE
  5
37F57
330
1F
100
AcDbEntity
  8
AM_0
100
AcDbLine
 10
74.53183383806583
 20
97.71566704941632
 30
0.0
 11
63.63183383806575
 21
97.71566704941632
 31
0.0
  0
POINT
  5
37F58
330
1F
100
AcDbEntity
  8
AM_0
100
AcDbPoint
 10
76.03183383806584
 20
68.9156670494163
 30
0.0
  0
ARC
  5
37F59
330
1F
100
AcDbEntity
  8
AM_0
100
AcDbCircle
 10
74.53183383806583
 20
99.21566704941632
 30
0.0
 40
1.5
100
AcDbArc
 50
270.0
 51
0.0
1001
GENIUS_GENODEF_13
1002
{
1000
HIER
1070
     0
1002
}
1002
{
1000
MANEDIT
1070
     0
1002
}
1002
{
1000
NOSEL
1070
     0
1002
}
1002
{
1000
BEHIND
1070
     0
1002
}
1002
{
1000
REACTOR
1002
}
1001
GENIUS_GENOBJ-N-FIL_13
1002
{
1000
OWNER
1000
GEN
1002
}
  0
ARC
  5
37F5A
330
1F
100
AcDbEntity
  8
AM_0
100
AcDbCircle
 10
74.53183383806583
 20
99.21566704941632
 30
0.0
 40
2.299999999999998
100
AcDbArc
 50
277.8931261593626
 51
0.0
1001
GENIUS_GENODEF_13
1002
{
1000
HIER
1070
     0
1002
}
1002
{
1000
MANEDIT
1070
     0
1002
}
1002
{
1000
NOSEL
1070
     0
1002
}
1002
{
1000
BEHIND
1070
     0
1002
}
1002
{
1000
REACTOR
1002
}
1001
GENIUS_GENOBJ-N-FIL_13
1002
{
1000
OWNER
1000
GEN
1002
}
  0
ARC
  5
37F5B
330
1F
100
AcDbEntity
  8
AM_0
100
AcDbCircle
 10
74.53183383806583
 20
80.21566704941632
 30
0.0
 40
1.5
100
AcDbArc
 50
0.0
 51
90.0
1001
GENIUS_GENODEF_13
1002
{
1000
HIER
1070
     0
1002
}
1002
{
1000
MANEDIT
1070
     0
1002
}
1002
{
1000
NOSEL
1070
     0
1002
}
1002
{
1000
BEHIND
1070
     0
1002
}
1002
{
1000
REACTOR
1002
}
1001
GENIUS_GENOBJ-N-FIL_13
1002
{
1000
OWNER
1000
GEN
1002
}
  0
ARC
  5
37F5C
330
1F
100
AcDbEntity
  8
AM_0
100
AcDbCircle
 10
74.53183383806583
 20
80.21566704941632
 30
0.0
 40
2.299999999999998
100
AcDbArc
 50
0.0
 51
82.10687384063733
1001
GENIUS_GENODEF_13
1002
{
1000
HIER
1070
     0
1002
}
1002
{
1000
MANEDIT
1070
     0
1002
}
1002
{
1000
NOSEL
1070
     0
1002
}
1002
{
1000
BEHIND
1070
     0
1002
}
1002
{
1000
REACTOR
1002
}
1001
GENIUS_GENOBJ-N-FIL_13
1002
{
1000
OWNER
1000
GEN
1002
}
  0
POINT
  5
37F5D
330
1F
100
AcDbEntity
  8
AM_0
100
AcDbPoint
 10
75.75612440593989
 20
81.08233457818062
 30
0.0
  0
ARC
  5
37F62
330
1F
100
AcDbEntity
  8
AM_0
100
AcDbCircle
 10
86.62247993776645
 20
85.21566704943086
 30
0.0
 40
4.5
100
AcDbArc
 50
253.3275057616229
 51
154.6389674637037
  0
LINE
  5
37F63
330
1F
100
AcDbEntity
  8
AM_0
100
AcDbLine
 10
85.71412993668365
 20
88.07484530123019
 30
0.0
 11
79.4189144912093
 21
86.07487941835973
 31
0.0
  0
LINE
  5
37F64
330
1F
100
AcDbEntity
  8
AM_0
100
AcDbLine
 10
88.13794392252679
 20
82.62658054820077
 30
0.0
 11
83.03657471913016
 21
79.64060796787407
 31
0.0
  0
LINE
  5
37F65
330
1F
100
AcDbEntity
  8
AM_0
100
AcDbLine
 10
75.83183383806579
 20
87.90716349977111
 30
0.0
 11
79.4189144912093
 21
86.07487941835973
 31
0.0
  0
LINE
  5
37F67
330
1F
100
AcDbEntity
  8
AM_0
100
AcDbLine
 10
75.83183383806579
 20
84.94953732537709
 30
0.0
 11
76.30537412299815
 21
85.04107610301536
 31
0.0
1001
GENIUS_GENODEF_13
1002
{
1000
HIER
1070
     0
1002
}
1002
{
1000
MANEDIT
1070
     0
1002
}
1002
{
1000
NOSEL
1070
     0
1002
}
1002
{
1000
BEHIND
1070
     0
1002
}
1002
{
1000
REACTOR
1002
}
1001
GENIUS_GENOBJ-N-CEN_13
1002
{
1000
OWNER
1000
GEN
1002
}
  0
LINE
  5
37F68
330
1F
100
AcDbEntity
  8
AM_0
100
AcDbLine
 10
76.30537412299827
 20
85.04107610301536
 30
0.0
 11
82.48025317653185
 21
79.06571115866296
 31
0.0
  0
LINE
  5
37F69
330
1F
100
AcDbEntity
  8
AM_0
100
AcDbLine
 10
82.48025317653185
 20
79.06571115866302
 30
0.0
 11
83.03657471912913
 21
79.64060796787504
 31
0.0
  0
ARC
  5
37F6A
330
1F
100
AcDbEntity
  8
AM_0
100
AcDbCircle
 10
86.62247993775498
 20
85.21566704943234
 30
0.0
 40
3.0
100
AcDbArc
 50
300.3416196815593
 51
107.6248535439777
  0
LINE
  5
37F6B
330
1F
100
AcDbEntity
  8
AM_0
100
AcDbLine
 10
118.0951221062237
 20
86.91566704941806
 30
0.0
 11
118.0951221062237
 21
92.51566704941444
 31
0.0
  0
LINE
  5
37F6C
330
1F
100
AcDbEntity
  8
AM_0
100
AcDbLine
 10
118.0951221062237
 20
86.81566704942429
 30
0.0
 11
118.8951221062236
 21
86.81566704942429
 31
0.0
  0
LINE
  5
37F6D
330
1F
100
AcDbEntity
  8
AM_0
100
AcDbLine
 10
127.5951221062179
 20
86.81566704942429
 30
0.0
 11
128.2951221062236
 21
86.81566704942429
 31
0.0
  0
LINE
  5
37F70
330
1F
100
AcDbEntity
  8
AM_0
100
AcDbLine
 10
118.0951221062146
 20
88.31566704941735
 30
0.0
 11
118.0951221062146
 21
79.64060796787504
 31
0.0
  0
LINE
  5
37F71
330
1F
100
AcDbEntity
  8
AM_0
100
AcDbLine
 10
118.8951221062145
 20
88.31566704941735
 30
0.0
 11
118.8951221062145
 21
79.64060796787504
 31
0.0
  0
LINE
  5
37F72
330
1F
100
AcDbEntity
  8
AM_0
100
AcDbLine
 10
128.2951221062145
 20
89.71566704941631
 30
0.0
 11
128.2951221062145
 21
79.64060796787504
 31
0.0
  0
LINE
  5
37F73
330
1F
100
AcDbEntity
  8
AM_0
100
AcDbLine
 10
118.8951221062145
 20
89.71566704941626
 30
0.0
 11
118.8951221062145
 21
88.89237829707424
 31
0.0
  0
LINE
  5
37F75
330
1F
100
AcDbEntity
  8
AM_0
100
AcDbLine
 10
127.0951221062256
 20
80.71566704943085
 30
0.0
 11
120.0951221062248
 21
80.71566704943085
 31
0.0
  0
LINE
  5
37F76
330
1F
100
AcDbEntity
  8
AM_0
100
AcDbLine
 10
127.5951221062155
 20
81.21566704942081
 30
0.0
 11
127.5951221062189
 21
89.21566704942211
 31
0.0
1001
GENIUS_GENODEF_13
1002
{
1000
HIER
1070
     0
1002
}
1002
{
1000
MANEDIT
1070
     0
1002
}
1002
{
1000
NOSEL
1070
     0
1002
}
1002
{
1000
BEHIND
1070
     0
1002
}
1002
{
1000
REACTOR
1002
}
1001
GENIUS_GENOBJ-N-CEN_13
1002
{
1000
OWNER
1000
GEN
1002
}
  0
LINE
  5
37F77
330
1F
100
AcDbEntity
  8
AM_0
100
AcDbLine
 10
129.0951221062146
 20
88.31566704941735
 30
0.0
 11
128.2951221062145
 21
88.31566704941735
 31
0.0
  0
LINE
  5
37F78
330
1F
100
AcDbEntity
  8
AM_0
100
AcDbLine
 10
119.5951221062156
 20
81.21566704943985
 30
0.0
 11
119.5951221062189
 21
89.2156670494071
 31
0.0
1001
GENIUS_GENODEF_13
1002
{
1000
HIER
1070
     0
1002
}
1002
{
1000
MANEDIT
1070
     0
1002
}
1002
{
1000
NOSEL
1070
     0
1002
}
1002
{
1000
BEHIND
1070
     0
1002
}
1002
{
1000
REACTOR
1002
}
1001
GENIUS_GENOBJ-N-CEN_13
1002
{
1000
OWNER
1000
GEN
1002
}
  0
ARC
  5
37F79
330
1F
100
AcDbEntity
  8
AM_0
100
AcDbCircle
 10
118.895122106222
 20
88.40921478485411
 30
0.0
 40
0.8
100
AcDbArc
 50
269.9999999994659
 51
331.0449756276493
  0
LINE
  5
37F7A
330
1F
100
AcDbEntity
  8
AM_0
100
AcDbLine
 10
118.8951221062145
 20
88.31566704941735
 30
0.0
 11
118.0951221062146
 21
88.31566704941735
 31
0.0
  0
LINE
  5
37F7B
330
1F
100
AcDbEntity
  8
AM_0
100
AcDbLine
 10
118.0951221062147
 20
82.51566704941632
 30
0.0
 11
117.8951221062219
 21
82.51566704941632
 31
0.0
1001
GENIUS_GENODEF_13
1002
{
1000
HIER
1070
     0
1002
}
1002
{
1000
MANEDIT
1070
     0
1002
}
1002
{
1000
NOSEL
1070
     0
1002
}
1002
{
1000
BEHIND
1070
     0
1002
}
1002
{
1000
REACTOR
1002
}
1001
GENIUS_GENOBJ-N-CEN_13
1002
{
1000
OWNER
1000
GEN
1002
}
  0
LINE
  5
37F7C
330
1F
100
AcDbEntity
  8
AM_0
100
AcDbLine
 10
130.5951221062219
 20
88.21566704941631
 30
0.0
 11
130.0951221062217
 21
88.21566704941631
 31
0.0
1001
GENIUS_GENODEF_13
1002
{
1000
HIER
1070
     0
1002
}
1002
{
1000
MANEDIT
1070
     0
1002
}
1002
{
1000
NOSEL
1070
     0
1002
}
1002
{
1000
BEHIND
1070
     0
1002
}
1002
{
1000
REACTOR
1002
}
1001
GENIUS_GENOBJ-N-CEN_13
1002
{
1000
OWNER
1000
GEN
1002
}
  0
LINE
  5
37F7D
330
1F
100
AcDbEntity
  8
AM_0
100
AcDbLine
 10
62.83183383806579
 20
50.25998189814552
 30
0.0
 11
62.83183383806579
 21
38.8599818981435
 31
0.0
  0
LINE
  5
37F7E
330
1F
100
AcDbEntity
  8
AM_0
100
AcDbLine
 10
75.8318338380684
 20
51.05998189814556
 30
0.0
 11
75.8318338380684
 21
50.25998189814345
 31
0.0
  0
LINE
  5
37F7F
330
1F
100
AcDbEntity
  8
AM_0
100
AcDbLine
 10
63.63183383806585
 20
51.05998189814553
 30
0.0
 11
75.8318338380684
 21
51.05998189814556
 31
0.0
  0
LINE
  5
37F80
330
1F
100
AcDbEntity
  8
AM_0
100
AcDbLine
 10
63.63183383806597
 20
50.25998189814345
 30
0.0
 11
75.8318338380684
 21
50.25998189814345
 31
0.0
  0
LINE
  5
37F81
330
1F
100
AcDbEntity
  8
AM_0
100
AcDbLine
 10
63.63183383806597
 20
38.85998189814348
 30
0.0
 11
75.8318338380684
 21
38.85998189814348
 31
0.0
  0
LINE
  5
37F82
330
1F
100
AcDbEntity
  8
AM_0
100
AcDbLine
 10
63.63183383806585
 20
38.05998189814349
 30
0.0
 11
75.8318338380684
 21
38.05998189814349
 31
0.0
  0
ARC
  5
37F83
330
1F
100
AcDbEntity
  8
AM_0
100
AcDbCircle
 10
63.63183383806585
 20
50.25998189814552
 30
0.0
 40
0.8
100
AcDbArc
 50
90.0
 51
180.0
1001
GENIUS_GENODEF_13
1002
{
1000
HIER
1070
     0
1002
}
1002
{
1000
MANEDIT
1070
     0
1002
}
1002
{
1000
NOSEL
1070
     0
1002
}
1002
{
1000
BEHIND
1070
     0
1002
}
1002
{
1000
REACTOR
1002
}
1001
GENIUS_GENOBJ-N-FIL_13
1002
{
1000
OWNER
1000
GEN
1002
}
  0
ARC
  5
37F84
330
1F
100
AcDbEntity
  8
AM_0
100
AcDbCircle
 10
63.63183383806585
 20
38.8599818981435
 30
0.0
 40
0.8
100
AcDbArc
 50
180.0
 51
270.0
1001
GENIUS_GENODEF_13
1002
{
1000
HIER
1070
     0
1002
}
1002
{
1000
MANEDIT
1070
     0
1002
}
1002
{
1000
NOSEL
1070
     0
1002
}
1002
{
1000
BEHIND
1070
     0
1002
}
1002
{
1000
REACTOR
1002
}
1001
GENIUS_GENOBJ-N-FIL_13
1002
{
1000
OWNER
1000
GEN
1002
}
  0
LINE
  5
37F85
330
1F
100
AcDbEntity
  8
AM_0
100
AcDbLine
 10
76.03183383806549
 20
38.85998189814348
 30
0.0
 11
76.03183383806549
 21
50.25998189814345
 31
0.0
  0
LINE
  5
37F86
330
1F
100
AcDbEntity
  8
AM_0
100
AcDbLine
 10
76.83183383806841
 20
38.85998189814348
 30
0.0
 11
76.83183383806841
 21
50.25998189814345
 31
0.0
  0
LINE
  5
37F87
330
1F
100
AcDbEntity
  8
AM_0
100
AcDbLine
 10
75.8318338380684
 20
50.25998189814345
 30
0.0
 11
76.83183383806841
 21
50.25998189814345
 31
0.0
  0
LINE
  5
37F88
330
1F
100
AcDbEntity
  8
AM_0
100
AcDbLine
 10
75.8318338380684
 20
38.85998189814348
 30
0.0
 11
76.83183383806841
 21
38.85998189814348
 31
0.0
  0
LINE
  5
37F8A
330
1F
100
AcDbEntity
  8
AM_0
100
AcDbLine
 10
83.00740439764183
 20
39.85998189814348
 30
0.0
 11
83.00740439764183
 21
49.25998189814348
 31
0.0
  0
LINE
  5
37F8B
330
1F
100
AcDbEntity
  8
AM_0
100
AcDbLine
 10
89.62247993776452
 20
50.05998189814346
 30
0.0
 11
89.62247993776452
 21
49.25998189814345
 31
0.0
  0
LINE
  5
37F8C
330
1F
100
AcDbEntity
  8
AM_0
100
AcDbLine
 10
89.62247993776452
 20
50.05998189814346
 30
0.0
 11
77.20266351658108
 21
50.05998189814346
 31
0.0
1001
GENIUS_GENODEF_13
1002
{
1000
HIER
1070
     0
1002
}
1002
{
1000
MANEDIT
1070
     0
1002
}
1002
{
1000
NOSEL
1070
     0
1002
}
1002
{
1000
BEHIND
1070
     0
1002
}
1002
{
1000
REACTOR
1002
}
1001
GENIUS_GENOBJ-N-CEN_13
1002
{
1000
OWNER
1000
GEN
1002
}
  0
LINE
  5
37F8D
330
1F
100
AcDbEntity
  8
AM_0
100
AcDbLine
 10
89.62247993776452
 20
39.05998189814346
 30
0.0
 11
77.20266351658108
 21
39.05998189814346
 31
0.0
1001
GENIUS_GENODEF_13
1002
{
1000
HIER
1070
     0
1002
}
1002
{
1000
MANEDIT
1070
     0
1002
}
1002
{
1000
NOSEL
1070
     0
1002
}
1002
{
1000
BEHIND
1070
     0
1002
}
1002
{
1000
REACTOR
1002
}
1001
GENIUS_GENOBJ-N-CEN_13
1002
{
1000
OWNER
1000
GEN
1002
}
  0
LINE
  5
37F8E
330
1F
100
AcDbEntity
  8
AM_0
100
AcDbLine
 10
89.62247993776452
 20
49.25998189814345
 30
0.0
 11
83.00740439764183
 21
49.25998189814348
 31
0.0
1001
GENIUS_GENODEF_13
1002
{
1000
HIER
1070
     0
1002
}
1002
{
1000
MANEDIT
1070
     0
1002
}
1002
{
1000
NOSEL
1070
     0
1002
}
1002
{
1000
BEHIND
1070
     0
1002
}
1002
{
1000
REACTOR
1002
}
1001
GENIUS_GENOBJ-N-CEN_13
1002
{
1000
OWNER
1000
GEN
1002
}
  0
LINE
  5
37F8F
330
1F
100
AcDbEntity
  8
AM_0
100
AcDbLine
 10
89.62247993776452
 20
39.85998189814348
 30
0.0
 11
83.00740439764183
 21
39.85998189814348
 31
0.0
1001
GENIUS_GENODEF_13
1002
{
1000
HIER
1070
     0
1002
}
1002
{
1000
MANEDIT
1070
     0
1002
}
1002
{
1000
NOSEL
1070
     0
1002
}
1002
{
1000
BEHIND
1070
     0
1002
}
1002
{
1000
REACTOR
1002
}
1001
GENIUS_GENOBJ-N-CEN_13
1002
{
1000
OWNER
1000
GEN
1002
}
  0
LINE
  5
37F90
330
1F
100
AcDbEntity
  8
AM_0
100
AcDbLine
 10
82.45108285504455
 20
49.25998189814291
 30
0.0
 11
82.45108285504455
 21
39.85998189814401
 31
0.0
  0
LINE
  5
37F91
330
1F
100
AcDbEntity
  8
AM_0
100
AcDbLine
 10
89.62247993776452
 20
39.85998189814348
 30
0.0
 11
89.62247993776452
 21
39.05998189814346
 31
0.0
  0
LINE
  5
37F92
330
1F
100
AcDbEntity
  8
AM_0
100
AcDbLine
 10
91.12247993778055
 20
48.05998189814932
 30
0.0
 11
91.12247993778055
 21
41.05998189814897
 31
0.0
  0
LINE
  5
37F93
330
1F
100
AcDbEntity
  8
AM_0
100
AcDbLine
 10
83.00740439764183
 20
48.55998189814378
 30
0.0
 11
90.62247993778123
 21
48.55998189814866
 31
0.0
1001
GENIUS_GENODEF_13
1002
{
1000
HIER
1070
     0
1002
}
1002
{
1000
MANEDIT
1070
     0
1002
}
1002
{
1000
NOSEL
1070
     0
1002
}
1002
{
1000
BEHIND
1070
     0
1002
}
1002
{
1000
REACTOR
1002
}
1001
GENIUS_GENOBJ-N-CEN_13
1002
{
1000
OWNER
1000
GEN
1002
}
  0
LINE
  5
37F94
330
1F
100
AcDbEntity
  8
AM_0
100
AcDbLine
 10
83.00740439764183
 20
40.55998189814377
 30
0.0
 11
90.62247993778658
 21
40.55998189814864
 31
0.0
1001
GENIUS_GENODEF_13
1002
{
1000
HIER
1070
     0
1002
}
1002
{
1000
MANEDIT
1070
     0
1002
}
1002
{
1000
NOSEL
1070
     0
1002
}
1002
{
1000
BEHIND
1070
     0
1002
}
1002
{
1000
REACTOR
1002
}
1001
GENIUS_GENOBJ-N-CEN_13
1002
{
1000
OWNER
1000
GEN
1002
}
  0
LINE
  5
37F96
330
1F
100
AcDbEntity
  8
AM_0
100
AcDbLine
 10
75.8318338380684
 20
38.85998189814348
 30
0.0
 11
75.8318338380684
 21
38.05998189814349
 31
0.0
  0
LINE
  5
37F97
330
1F
100
AcDbEntity
  8
AM_0
100
AcDbLine
 10
70.4526635165812
 20
36.85998189814924
 30
0.0
 11
72.25266351658115
 21
36.85998189814922
 31
0.0
1001
GENIUS_GENODEF_13
1002
{
1000
HIER
1070
     0
1002
}
1002
{
1000
MANEDIT
1070
     0
1002
}
1002
{
1000
NOSEL
1070
     0
1002
}
1002
{
1000
BEHIND
1070
     0
1002
}
1002
{
1000
REACTOR
1002
}
1001
GENIUS_GENOBJ-N-CEN_13
1002
{
1000
OWNER
1000
GEN
1002
}
  0
LINE
  5
37F98
330
1F
100
AcDbEntity
  8
AM_0
100
AcDbLine
 10
69.85266351658117
 20
37.45998189814924
 30
0.0
 11
72.85266351658117
 21
37.45998189814921
 31
0.0
1001
GENIUS_GENODEF_13
1002
{
1000
HIER
1070
     0
1002
}
1002
{
1000
MANEDIT
1070
     0
1002
}
1002
{
1000
NOSEL
1070
     0
1002
}
1002
{
1000
BEHIND
1070
     0
1002
}
1002
{
1000
REACTOR
1002
}
1001
GENIUS_GENOBJ-N-CEN_13
1002
{
1000
OWNER
1000
GEN
1002
}
  0
LINE
  5
37F99
330
1F
100
AcDbEntity
  8
AM_0
100
AcDbLine
 10
70.4526635165812
 20
36.85998189814924
 30
0.0
 11
70.4526635165812
 21
37.45998189814924
 31
0.0
1001
GENIUS_GENODEF_13
1002
{
1000
HIER
1070
     0
1002
}
1002
{
1000
MANEDIT
1070
     0
1002
}
1002
{
1000
NOSEL
1070
     0
1002
}
1002
{
1000
BEHIND
1070
     0
1002
}
1002
{
1000
REACTOR
1002
}
1001
GENIUS_GENOBJ-N-CEN_13
1002
{
1000
OWNER
1000
GEN
1002
}
  0
LINE
  5
37F9A
330
1F
100
AcDbEntity
  8
AM_0
100
AcDbLine
 10
69.85266351658117
 20
37.45998189814921
 30
0.0
 11
69.85266351658117
 21
38.05998189814923
 31
0.0
1001
GENIUS_GENODEF_13
1002
{
1000
HIER
1070
     0
1002
}
1002
{
1000
MANEDIT
1070
     0
1002
}
1002
{
1000
NOSEL
1070
     0
1002
}
1002
{
1000
BEHIND
1070
     0
1002
}
1002
{
1000
REACTOR
1002
}
1001
GENIUS_GENOBJ-N-CEN_13
1002
{
1000
OWNER
1000
GEN
1002
}
  0
LINE
  5
37F9B
330
1F
100
AcDbEntity
  8
AM_0
100
AcDbLine
 10
72.25266351658115
 20
36.85998189814922
 30
0.0
 11
72.25266351658115
 21
37.45998189814924
 31
0.0
1001
GENIUS_GENODEF_13
1002
{
1000
HIER
1070
     0
1002
}
1002
{
1000
MANEDIT
1070
     0
1002
}
1002
{
1000
NOSEL
1070
     0
1002
}
1002
{
1000
BEHIND
1070
     0
1002
}
1002
{
1000
REACTOR
1002
}
1001
GENIUS_GENOBJ-N-CEN_13
1002
{
1000
OWNER
1000
GEN
1002
}
  0
LINE
  5
37F9C
330
1F
100
AcDbEntity
  8
AM_0
100
AcDbLine
 10
72.85266351658117
 20
37.45998189814924
 30
0.0
 11
72.85266351658117
 21
38.05998189814918
 31
0.0
1001
GENIUS_GENODEF_13
1002
{
1000
HIER
1070
     0
1002
}
1002
{
1000
MANEDIT
1070
     0
1002
}
1002
{
1000
NOSEL
1070
     0
1002
}
1002
{
1000
BEHIND
1070
     0
1002
}
1002
{
1000
REACTOR
1002
}
1001
GENIUS_GENOBJ-N-CEN_13
1002
{
1000
OWNER
1000
GEN
1002
}
  0
ARC
  5
37F9E
330
1F
100
AcDbEntity
  8
AM_0
100
AcDbCircle
 10
86.62247993777464
 20
48.35998189814836
 30
0.0
 40
2.9
100
AcDbArc
 50
44.72491315478889
 51
135.2750868452111
  0
ARC
  5
37F9F
330
1F
100
AcDbEntity
  8
AM_0
100
AcDbCircle
 10
84.70414732844472
 20
50.25998189814345
 30
0.0
 40
0.2
100
AcDbArc
 50
135.2750868452111
 51
270.0000000000033
1001
GENIUS_GENODEF_13
1002
{
1000
HIER
1070
     0
1002
}
1002
{
1000
MANEDIT
1070
     0
1002
}
1002
{
1000
NOSEL
1070
     0
1002
}
1002
{
1000
BEHIND
1070
     0
1002
}
1002
{
1000
REACTOR
1002
}
1001
GENIUS_GENOBJ-N-FIL_13
1002
{
1000
OWNER
1000
GEN
1002
}
  0
ARC
  5
37FA0
330
1F
100
AcDbEntity
  8
AM_0
100
AcDbCircle
 10
88.54081254710456
 20
50.25998189814345
 30
0.0
 40
0.2
100
AcDbArc
 50
270.0
 51
44.72491315478889
1001
GENIUS_GENODEF_13
1002
{
1000
HIER
1070
     0
1002
}
1002
{
1000
MANEDIT
1070
     0
1002
}
1002
{
1000
NOSEL
1070
     0
1002
}
1002
{
1000
BEHIND
1070
     0
1002
}
1002
{
1000
REACTOR
1002
}
1001
GENIUS_GENOBJ-N-FIL_13
1002
{
1000
OWNER
1000
GEN
1002
}
  0
ARC
  5
37FA1
330
1F
100
AcDbEntity
  8
AM_0
100
AcDbCircle
 10
119.7951221062175
 20
85.21566704942642
 30
0.0
 40
2.9
100
AcDbArc
 50
134.7249131547866
 51
225.2750868452134
  0
ARC
  5
37FA2
330
1F
100
AcDbEntity
  8
AM_0
100
AcDbCircle
 10
117.8951221062224
 20
83.29733444009651
 30
0.0
 40
0.2
100
AcDbArc
 50
225.2750868452134
 51
0.0000000000016284
1001
GENIUS_GENODEF_13
1002
{
1000
HIER
1070
     0
1002
}
1002
{
1000
MANEDIT
1070
     0
1002
}
1002
{
1000
NOSEL
1070
     0
1002
}
1002
{
1000
BEHIND
1070
     0
1002
}
1002
{
1000
REACTOR
1002
}
1001
GENIUS_GENOBJ-N-FIL_13
1002
{
1000
OWNER
1000
GEN
1002
}
  0
ARC
  5
37FA3
330
1F
100
AcDbEntity
  8
AM_0
100
AcDbCircle
 10
117.8951221062224
 20
87.13399965875636
 30
0.0
 40
0.2
100
AcDbArc
 50
0.0
 51
134.7249131547866
1001
GENIUS_GENODEF_13
1002
{
1000
HIER
1070
     0
1002
}
1002
{
1000
MANEDIT
1070
     0
1002
}
1002
{
1000
NOSEL
1070
     0
1002
}
1002
{
1000
BEHIND
1070
     0
1002
}
1002
{
1000
REACTOR
1002
}
1001
GENIUS_GENOBJ-N-FIL_13
1002
{
1000
OWNER
1000
GEN
1002
}
  0
ARC
  5
37FA4
330
1F
100
AcDbEntity
  8
AM_0
100
AcDbCircle
 10
71.35266351658106
 20
49.35998189814677
 30
0.0
 40
2.9
100
AcDbArc
 50
44.72491315489578
 51
135.2750868451042
  0
ARC
  5
37FA5
330
1F
100
AcDbEntity
  8
AM_0
100
AcDbCircle
 10
69.43433090725477
 20
51.25998189814552
 30
0.0
 40
0.2
100
AcDbArc
 50
135.2750868451042
 51
270.0
1001
GENIUS_GENODEF_13
1002
{
1000
HIER
1070
     0
1002
}
1002
{
1000
MANEDIT
1070
     0
1002
}
1002
{
1000
NOSEL
1070
     0
1002
}
1002
{
1000
BEHIND
1070
     0
1002
}
1002
{
1000
REACTOR
1002
}
1001
GENIUS_GENOBJ-N-FIL_13
1002
{
1000
OWNER
1000
GEN
1002
}
  0
ARC
  5
37FA6
330
1F
100
AcDbEntity
  8
AM_0
100
AcDbCircle
 10
73.27099612590735
 20
51.25998189814556
 30
0.0
 40
0.2
100
AcDbArc
 50
270.0
 51
44.72491315489578
1001
GENIUS_GENODEF_13
1002
{
1000
HIER
1070
     0
1002
}
1002
{
1000
MANEDIT
1070
     0
1002
}
1002
{
1000
NOSEL
1070
     0
1002
}
1002
{
1000
BEHIND
1070
     0
1002
}
1002
{
1000
REACTOR
1002
}
1001
GENIUS_GENOBJ-N-FIL_13
1002
{
1000
OWNER
1000
GEN
1002
}
  0
ARC
  5
37FA7
330
1F
100
AcDbEntity
  8
AM_0
100
AcDbCircle
 10
116.8951221062253
 20
87.79733444008531
 30
0.0
 40
0.2
100
AcDbArc
 50
225.2750868451028
 51
0.0
1001
GENIUS_GENODEF_13
1002
{
1000
HIER
1070
     0
1002
}
1002
{
1000
MANEDIT
1070
     0
1002
}
1002
{
1000
NOSEL
1070
     0
1002
}
1002
{
1000
BEHIND
1070
     0
1002
}
1002
{
1000
REACTOR
1002
}
1001
GENIUS_GENOBJ-N-FIL_13
1002
{
1000
OWNER
1000
GEN
1002
}
  0
CIRCLE
  5
37FA8
330
1F
100
AcDbEntity
  8
AM_0
100
AcDbCircle
 10
71.38183383806893
 20
89.71566704943354
 30
0.0
 40
2.118332609326877
  0
CIRCLE
  5
37FA9
330
1F
100
AcDbEntity
  8
AM_0
100
AcDbCircle
 10
86.62247993775498
 20
85.21566704944053
 30
0.0
 40
2.118332609318015
  0
LINE
  5
37FAA
330
1F
100
AcDbEntity
  8
AM_0
100
AcDbLine
 10
85.14747993776916
 20
49.25998189814345
 30
0.0
 11
85.14747993776984
 21
48.55998189814517
 31
0.0
1001
GENIUS_GENODEF_13
1002
{
1000
HIER
1070
     0
1002
}
1002
{
1000
MANEDIT
1070
     0
1002
}
1002
{
1000
NOSEL
1070
     0
1002
}
1002
{
1000
BEHIND
1070
     0
1002
}
1002
{
1000
REACTOR
1002
}
1001
GENIUS_GENOBJ-N-CEN_13
1002
{
1000
OWNER
1000
GEN
1002
}
  0
LINE
  5
37FAB
330
1F
100
AcDbEntity
  8
AM_0
100
AcDbLine
 10
88.09747993776909
 20
49.25998189814345
 30
0.0
 11
88.09747993776978
 21
48.55998189814707
 31
0.0
1001
GENIUS_GENODEF_13
1002
{
1000
HIER
1070
     0
1002
}
1002
{
1000
MANEDIT
1070
     0
1002
}
1002
{
1000
NOSEL
1070
     0
1002
}
1002
{
1000
BEHIND
1070
     0
1002
}
1002
{
1000
REACTOR
1002
}
1001
GENIUS_GENOBJ-N-CEN_13
1002
{
1000
OWNER
1000
GEN
1002
}
  0
LINE
  5
37FAC
330
1F
100
AcDbEntity
  8
AM_0
100
AcDbLine
 10
85.14747993777758
 20
40.55998189814516
 30
0.0
 11
85.14747993777826
 21
39.85998189814348
 31
0.0
1001
GENIUS_GENODEF_13
1002
{
1000
HIER
1070
     0
1002
}
1002
{
1000
MANEDIT
1070
     0
1002
}
1002
{
1000
NOSEL
1070
     0
1002
}
1002
{
1000
BEHIND
1070
     0
1002
}
1002
{
1000
REACTOR
1002
}
1001
GENIUS_GENOBJ-N-CEN_13
1002
{
1000
OWNER
1000
GEN
1002
}
  0
LINE
  5
37FAD
330
1F
100
AcDbEntity
  8
AM_0
100
AcDbLine
 10
88.09747993777762
 20
40.5599818981471
 30
0.0
 11
88.09747993777831
 21
39.85998189814348
 31
0.0
1001
GENIUS_GENODEF_13
1002
{
1000
HIER
1070
     0
1002
}
1002
{
1000
MANEDIT
1070
     0
1002
}
1002
{
1000
NOSEL
1070
     0
1002
}
1002
{
1000
BEHIND
1070
     0
1002
}
1002
{
1000
REACTOR
1002
}
1001
GENIUS_GENOBJ-N-CEN_13
1002
{
1000
OWNER
1000
GEN
1002
}
  0
LINE
  5
37FAE
330
1F
100
AcDbEntity
  8
AM_0
100
AcDbLine
 10
128.2951221062145
 20
86.69066704943089
 30
0.0
 11
127.5951221062179
 21
86.69066704943089
 31
0.0
1001
GENIUS_GENODEF_13
1002
{
1000
HIER
1070
     0
1002
}
1002
{
1000
MANEDIT
1070
     0
1002
}
1002
{
1000
NOSEL
1070
     0
1002
}
1002
{
1000
BEHIND
1070
     0
1002
}
1002
{
1000
REACTOR
1002
}
1001
GENIUS_GENOBJ-N-CEN_13
1002
{
1000
OWNER
1000
GEN
1002
}
  0
LINE
  5
37FAF
330
1F
100
AcDbEntity
  8
AM_0
100
AcDbLine
 10
128.2951221062145
 20
83.74066704943089
 30
0.0
 11
127.5951221062165
 21
83.74066704943089
 31
0.0
1001
GENIUS_GENODEF_13
1002
{
1000
HIER
1070
     0
1002
}
1002
{
1000
MANEDIT
1070
     0
1002
}
1002
{
1000
NOSEL
1070
     0
1002
}
1002
{
1000
BEHIND
1070
     0
1002
}
1002
{
1000
REACTOR
1002
}
1001
GENIUS_GENOBJ-N-CEN_13
1002
{
1000
OWNER
1000
GEN
1002
}
  0
LINE
  5
37FB0
330
1F
100
AcDbEntity
  8
AM_0
100
AcDbLine
 10
119.5951221062179
 20
86.69066704943082
 30
0.0
 11
118.8951221062146
 21
86.69066704943089
 31
0.0
1001
GENIUS_GENODEF_13
1002
{
1000
HIER
1070
     0
1002
}
1002
{
1000
MANEDIT
1070
     0
1002
}
1002
{
1000
NOSEL
1070
     0
1002
}
1002
{
1000
BEHIND
1070
     0
1002
}
1002
{
1000
REACTOR
1002
}
1001
GENIUS_GENOBJ-N-CEN_13
1002
{
1000
OWNER
1000
GEN
1002
}
  0
LINE
  5
37FB1
330
1F
100
AcDbEntity
  8
AM_0
100
AcDbLine
 10
119.5951221062166
 20
83.74066704943089
 30
0.0
 11
118.8951221062145
 21
83.74066704943084
 31
0.0
1001
GENIUS_GENODEF_13
1002
{
1000
HIER
1070
     0
1002
}
1002
{
1000
MANEDIT
1070
     0
1002
}
1002
{
1000
NOSEL
1070
     0
1002
}
1002
{
1000
BEHIND
1070
     0
1002
}
1002
{
1000
REACTOR
1002
}
1001
GENIUS_GENOBJ-N-CEN_13
1002
{
1000
OWNER
1000
GEN
1002
}
  0
LINE
  5
37FB2
330
1F
100
AcDbEntity
  8
AM_0
100
AcDbLine
 10
128.2951221062236
 20
88.51566704941626
 30
0.0
 11
127.5951221062186
 21
88.51566704941626
 31
0.0
1001
GENIUS_GENODEF_13
1002
{
1000
HIER
1070
     0
1002
}
1002
{
1000
MANEDIT
1070
     0
1002
}
1002
{
1000
NOSEL
1070
     0
1002
}
1002
{
1000
BEHIND
1070
     0
1002
}
1002
{
1000
REACTOR
1002
}
1001
GENIUS_GENOBJ-N-CEN_13
1002
{
1000
OWNER
1000
GEN
1002
}
  0
LINE
  5
37FB3
330
1F
100
AcDbEntity
  8
AM_0
100
AcDbLine
 10
119.5951221062186
 20
88.51566704941626
 30
0.0
 11
118.8951221062237
 21
88.51566704941626
 31
0.0
1001
GENIUS_GENODEF_13
1002
{
1000
HIER
1070
     0
1002
}
1002
{
1000
MANEDIT
1070
     0
1002
}
1002
{
1000
NOSEL
1070
     0
1002
}
1002
{
1000
BEHIND
1070
     0
1002
}
1002
{
1000
REACTOR
1002
}
1001
GENIUS_GENOBJ-N-CEN_13
1002
{
1000
OWNER
1000
GEN
1002
}
  0
LINE
  5
37FB4
330
1F
100
AcDbEntity
  8
AM_0
100
AcDbLine
 10
88.07247993778981
 20
38.25998189814345
 30
0.0
 11
85.17247993776834
 21
38.25998189814345
 31
0.0
1001
GENIUS_GENODEF_13
1002
{
1000
HIER
1070
     0
1002
}
1002
{
1000
MANEDIT
1070
     0
1002
}
1002
{
1000
NOSEL
1070
     0
1002
}
1002
{
1000
BEHIND
1070
     0
1002
}
1002
{
1000
REACTOR
1002
}
1001
GENIUS_GENOBJ-N-CEN_13
1002
{
1000
OWNER
1000
GEN
1002
}
  0
ARC
  5
37FB5
330
1F
100
AcDbEntity
  8
AM_0
100
AcDbCircle
 10
85.17247993776834
 20
39.05998189814557
 30
0.0
 40
0.8
100
AcDbArc
 50
180.0000000001498
 51
270.0
  0
ARC
  5
37FB6
330
1F
100
AcDbEntity
  8
AM_0
100
AcDbCircle
 10
88.07247993778981
 20
39.05998189814557
 30
0.0
 40
0.8
100
AcDbArc
 50
270.0
 51
359.9999999998502
  0
LINE
  5
37FB7
330
1F
100
AcDbEntity
  8
AM_0
100
AcDbLine
 10
129.8951221062145
 20
86.66566704944978
 30
0.0
 11
129.8951221062145
 21
83.7656670494282
 31
0.0
1001
GENIUS_GENODEF_13
1002
{
1000
HIER
1070
     0
1002
}
1002
{
1000
MANEDIT
1070
     0
1002
}
1002
{
1000
NOSEL
1070
     0
1002
}
1002
{
1000
BEHIND
1070
     0
1002
}
1002
{
1000
REACTOR
1002
}
1001
GENIUS_GENOBJ-N-CEN_13
1002
{
1000
OWNER
1000
GEN
1002
}
  0
ARC
  5
37FB8
330
1F
100
AcDbEntity
  8
AM_0
100
AcDbCircle
 10
129.0951221062124
 20
83.7656670494282
 30
0.0
 40
0.8
100
AcDbArc
 50
270.0000000001498
 51
0.0
  0
ARC
  5
37FB9
330
1F
100
AcDbEntity
  8
AM_0
100
AcDbCircle
 10
129.0951221062124
 20
86.66566704944978
 30
0.0
 40
0.8
100
AcDbArc
 50
0.0
 51
89.99999999985019
  0
LINE
  5
37FBA
330
1F
100
AcDbEntity
  8
AM_0
100
AcDbLine
 10
131.295122106216
 20
88.81566704941418
 30
0.0
 11
130.695122106216
 21
88.81566704941418
 31
0.0
1001
GENIUS_GENODEF_13
1002
{
1000
HIER
1070
     0
1002
}
1002
{
1000
MANEDIT
1070
     0
1002
}
1002
{
1000
NOSEL
1070
     0
1002
}
1002
{
1000
BEHIND
1070
     0
1002
}
1002
{
1000
REACTOR
1002
}
1001
GENIUS_GENOBJ-N-CEN_13
1002
{
1000
OWNER
1000
GEN
1002
}
  0
LINE
  5
37FBB
330
1F
100
AcDbEntity
  8
AM_0
100
AcDbLine
 10
130.6951221062162
 20
88.21566704941416
 30
0.0
 11
130.095122106216
 21
88.21566704941416
 31
0.0
1001
GENIUS_GENODEF_13
1002
{
1000
HIER
1070
     0
1002
}
1002
{
1000
MANEDIT
1070
     0
1002
}
1002
{
1000
NOSEL
1070
     0
1002
}
1002
{
1000
BEHIND
1070
     0
1002
}
1002
{
1000
REACTOR
1002
}
1001
GENIUS_GENOBJ-N-CEN_13
1002
{
1000
OWNER
1000
GEN
1002
}
  0
LINE
  5
37FBE
330
1F
100
AcDbEntity
  8
AM_0
100
AcDbLine
 10
75.83183383806579
 20
91.52417059910465
 30
0.0
 11
79.4189144912093
 21
93.35645468051609
 31
0.0
  0
LINE
  5
37FBF
330
1F
100
AcDbEntity
  8
AM_0
100
AcDbLine
 10
75.83183383806579
 20
94.48179677349868
 30
0.0
 11
76.30537412299815
 21
94.39025799586046
 31
0.0
1001
GENIUS_GENODEF_13
1002
{
1000
HIER
1070
     0
1002
}
1002
{
1000
MANEDIT
1070
     0
1002
}
1002
{
1000
NOSEL
1070
     0
1002
}
1002
{
1000
BEHIND
1070
     0
1002
}
1002
{
1000
REACTOR
1002
}
1001
GENIUS_GENOBJ-N-CEN_13
1002
{
1000
OWNER
1000
GEN
1002
}
  0
LINE
  5
37FC0
330
1F
100
AcDbEntity
  8
AM_0
100
AcDbLine
 10
76.30537412299827
 20
94.39025799586046
 30
0.0
 11
82.48025317653185
 21
100.3656229402129
 31
0.0
  0
LINE
  5
37FC1
330
1F
100
AcDbEntity
  8
AM_0
100
AcDbLine
 10
88.13794392252679
 20
96.80475355067507
 30
0.0
 11
83.03657471913016
 21
99.79072613100175
 31
0.0
  0
LINE
  5
37FC2
330
1F
100
AcDbEntity
  8
AM_0
100
AcDbLine
 10
82.48025317653185
 20
100.3656229402128
 30
0.0
 11
83.03657471912913
 21
99.79072613100079
 31
0.0
  0
ARC
  5
37FC3
330
1F
100
AcDbEntity
  8
AM_0
100
AcDbCircle
 10
86.62247993776645
 20
94.21566704944495
 30
0.0
 40
4.5
100
AcDbArc
 50
205.3610325362963
 51
106.6724942383771
  0
ARC
  5
37FC4
330
1F
100
AcDbEntity
  8
AM_0
100
AcDbCircle
 10
86.62247993775498
 20
94.21566704944348
 30
0.0
 40
3.0
100
AcDbArc
 50
252.3751464560223
 51
59.65838031844062
  0
CIRCLE
  5
37FC5
330
1F
100
AcDbEntity
  8
AM_0
100
AcDbCircle
 10
86.62247993775498
 20
94.21566704943529
 30
0.0
 40
2.118332609318015
  0
LINE
  5
37FC6
330
1F
100
AcDbEntity
  8
AM_0
100
AcDbLine
 10
85.71412993668365
 20
91.35648879764563
 30
0.0
 11
79.4189144912093
 21
93.35645468051609
 31
0.0
  0
ARC
  5
37FCA
330
1F
100
AcDbEntity
  8
AM_0
100
AcDbCircle
 10
86.62247993776645
 20
94.21566704944495
 30
0.0
 40
4.0
100
AcDbArc
 50
210.965524346856
 51
101.068002427864
  0
ARC
  5
37FCB
330
1F
100
AcDbEntity
  8
AM_0
100
AcDbCircle
 10
86.62247993776645
 20
85.21566704943086
 30
0.0
 40
4.0
100
AcDbArc
 50
258.9319975721359
 51
149.034475653144
  0
LINE
  5
37FCC
330
1F
100
AcDbEntity
  8
AM_0
100
AcDbLine
 10
83.00740439764183
 20
48.05998189814378
 30
0.0
 11
91.12247993778089
 21
48.05998189814897
 31
0.0
1001
GENIUS_GENODEF_13
1002
{
1000
HIER
1070
     0
1002
}
1002
{
1000
MANEDIT
1070
     0
1002
}
1002
{
1000
NOSEL
1070
     0
1002
}
1002
{
1000
BEHIND
1070
     0
1002
}
1002
{
1000
REACTOR
1002
}
1001
GENIUS_GENOBJ-N-CEN_13
1002
{
1000
OWNER
1000
GEN
1002
}
  0
LINE
  5
37FCD
330
1F
100
AcDbEntity
  8
AM_0
100
AcDbLine
 10
90.62247993778123
 20
48.55998189814866
 30
0.0
 11
91.12247993778089
 21
48.05998189814897
 31
0.0
  0
LINE
  5
37FCE
330
1F
100
AcDbEntity
  8
AM_0
100
AcDbLine
 10
83.00740439764183
 20
41.05998189814378
 30
0.0
 11
91.12247993778021
 21
41.05998189814897
 31
0.0
1001
GENIUS_GENODEF_13
1002
{
1000
HIER
1070
     0
1002
}
1002
{
1000
MANEDIT
1070
     0
1002
}
1002
{
1000
NOSEL
1070
     0
1002
}
1002
{
1000
BEHIND
1070
     0
1002
}
1002
{
1000
REACTOR
1002
}
1001
GENIUS_GENOBJ-N-CEN_13
1002
{
1000
OWNER
1000
GEN
1002
}
  0
LINE
  5
37FCF
330
1F
100
AcDbEntity
  8
AM_0
100
AcDbLine
 10
90.62247993778692
 20
40.55998189814892
 30
0.0
 11
91.1224799377859
 21
41.05998189814932
 31
0.0
  0
LINE
  5
37FD0
330
1F
100
AcDbEntity
  8
AM_0
100
AcDbLine
 10
119.5951221062225
 20
90.21566704941552
 30
0.0
 11
120.0951221062229
 21
89.71566704941546
 31
0.0
  0
LINE
  5
37FD1
330
1F
100
AcDbEntity
  8
AM_0
100
AcDbLine
 10
119.5951221062255
 20
89.21566704941358
 30
0.0
 11
120.0951221062256
 21
89.7156670494138
 31
0.0
  0
LINE
  5
37FD2
330
1F
100
AcDbEntity
  8
AM_0
100
AcDbLine
 10
119.5951221062255
 20
89.21566704941358
 30
0.0
 11
119.5951221062221
 21
81.21566704943337
 31
0.0
1001
GENIUS_GENODEF_13
1002
{
1000
HIER
1070
     0
1002
}
1002
{
1000
MANEDIT
1070
     0
1002
}
1002
{
1000
NOSEL
1070
     0
1002
}
1002
{
1000
BEHIND
1070
     0
1002
}
1002
{
1000
REACTOR
1002
}
1001
GENIUS_GENOBJ-N-CEN_13
1002
{
1000
OWNER
1000
GEN
1002
}
  0
LINE
  5
37FD3
330
1F
100
AcDbEntity
  8
AM_0
100
AcDbLine
 10
120.0951221062256
 20
89.7156670494138
 30
0.0
 11
120.0951221062219
 21
80.71566704943064
 31
0.0
1001
GENIUS_GENODEF_13
1002
{
1000
HIER
1070
     0
1002
}
1002
{
1000
MANEDIT
1070
     0
1002
}
1002
{
1000
NOSEL
1070
     0
1002
}
1002
{
1000
BEHIND
1070
     0
1002
}
1002
{
1000
REACTOR
1002
}
1001
GENIUS_GENOBJ-N-CEN_13
1002
{
1000
OWNER
1000
GEN
1002
}
  0
LINE
  5
37FD4
330
1F
100
AcDbEntity
  8
AM_0
100
AcDbLine
 10
119.5951221062253
 20
81.21566704943012
 30
0.0
 11
120.0951221062256
 21
80.71566704943007
 31
0.0
  0
LINE
  5
37FD5
330
1F
100
AcDbEntity
  8
AM_0
100
AcDbLine
 10
127.595122106226
 20
81.21566704943132
 30
0.0
 11
127.0951221062258
 21
80.71566704943109
 31
0.0
  0
LINE
  5
37FD6
330
1F
100
AcDbEntity
  8
AM_0
100
AcDbLine
 10
127.5951221062254
 20
89.21566704941557
 30
0.0
 11
127.595122106222
 21
81.21566704942734
 31
0.0
1001
GENIUS_GENODEF_13
1002
{
1000
HIER
1070
     0
1002
}
1002
{
1000
MANEDIT
1070
     0
1002
}
1002
{
1000
NOSEL
1070
     0
1002
}
1002
{
1000
BEHIND
1070
     0
1002
}
1002
{
1000
REACTOR
1002
}
1001
GENIUS_GENOBJ-N-CEN_13
1002
{
1000
OWNER
1000
GEN
1002
}
  0
LINE
  5
37FD7
330
1F
100
AcDbEntity
  8
AM_0
100
AcDbLine
 10
127.0951221062256
 20
89.71566704941427
 30
0.0
 11
127.0951221062219
 21
80.71566704943109
 31
0.0
1001
GENIUS_GENODEF_13
1002
{
1000
HIER
1070
     0
1002
}
1002
{
1000
MANEDIT
1070
     0
1002
}
1002
{
1000
NOSEL
1070
     0
1002
}
1002
{
1000
BEHIND
1070
     0
1002
}
1002
{
1000
REACTOR
1002
}
1001
GENIUS_GENOBJ-N-CEN_13
1002
{
1000
OWNER
1000
GEN
1002
}
  0
LINE
  5
37FD8
330
1F
100
AcDbEntity
  8
AM_0
100
AcDbLine
 10
127.5951221062263
 20
89.21566704941483
 30
0.0
 11
127.0951221062258
 21
89.71566704941489
 31
0.0
  0
LINE
  5
37FD9
330
1F
100
AcDbEntity
  8
AM_0
100
AcDbLine
 10
118.8951221062148
 20
79.06571115866296
 30
0.0
 11
128.2951221062289
 21
79.06571115866296
 31
0.0
  0
LINE
  5
37FDA
330
1F
100
AcDbEntity
  8
AM_0
100
AcDbLine
 10
118.8951221062145
 20
79.64060796787504
 30
0.0
 11
128.2951221062145
 21
79.64060796787504
 31
0.0
  0
ELLIPSE
  5
37FDB
330
1F
100
AcDbEntity
  8
AM_0
100
AcDbEllipse
 10
118.8951221062145
 20
79.64060796787504
 30
0.0
 11
-0.8000000000000111
 21
0.0
 31
0.0
210
0.0
220
0.0
230
1.0
 40
0.7186210115150691
 41
0.0
 42
1.570796326794896
  0
ELLIPSE
  5
37FDC
330
1F
100
AcDbEntity
  8
AM_0
100
AcDbEllipse
 10
128.2951221062292
 20
79.64060796787504
 30
0.0
 11
0.8000000000000111
 21
0.0
 31
0.0
210
0.0
220
0.0
230
-1.0
 40
0.7186210115150691
 41
0.0
 42
1.570796326794896
  0
LINE
  5
37FDD
330
1F
100
AcDbEntity
  8
AM_0
100
AcDbLine
 10
127.0951221062256
 20
98.71566704940164
 30
0.0
 11
120.0951221062248
 21
98.71566704940164
 31
0.0
  0
LINE
  5
37FDF
330
1F
100
AcDbEntity
  8
AM_0
100
AcDbLine
 10
118.8951221062146
 20
100.3656229401696
 30
0.0
 11
128.2951221062288
 21
100.3656229401696
 31
0.0
  0
LINE
  5
37FE0
330
1F
100
AcDbEntity
  8
AM_0
100
AcDbLine
 10
118.8951221062145
 20
99.79072613095747
 30
0.0
 11
128.2951221062145
 21
99.79072613095747
 31
0.0
  0
LINE
  5
37FE2
330
1F
100
AcDbEntity
  8
AM_0
100
AcDbLine
 10
120.0951221062281
 20
89.71566704941631
 30
0.0
 11
127.0951221062245
 21
89.71566704941631
 31
0.0
  0
LINE
  5
37FE4
330
1F
100
AcDbEntity
  8
AM_0
100
AcDbLine
 10
120.3951221062219
 20
110.5156670494161
 30
0.0
 11
123.5951221062218
 21
110.5156670494161
 31
0.0
1001
GENIUS_GENODEF_13
1002
{
1000
HIER
1070
     0
1002
}
1002
{
1000
MANEDIT
1070
     0
1002
}
1002
{
1000
NOSEL
1070
     0
1002
}
1002
{
1000
BEHIND
1070
     0
1002
}
1002
{
1000
REACTOR
1002
}
1001
GENIUS_GENOBJ-N-CEN_13
1002
{
1000
OWNER
1000
GEN
1002
}
  0
LINE
  5
37FE6
330
1F
100
AcDbEntity
  8
AM_0
100
AcDbLine
 10
118.8951221062236
 20
92.51566704941444
 30
0.0
 11
118.8951221062237
 21
89.71566704941631
 31
0.0
  0
LINE
  5
37FE7
330
1F
100
AcDbEntity
  8
AM_0
100
AcDbLine
 10
117.0951221062219
 20
93.0940262123072
 30
0.0
 11
117.0951221062219
 21
86.33730788652531
 31
0.0
1001
GENIUS_GENODEF_13
1002
{
1000
HIER
1070
     0
1002
}
1002
{
1000
MANEDIT
1070
     0
1002
}
1002
{
1000
NOSEL
1070
     0
1002
}
1002
{
1000
BEHIND
1070
     0
1002
}
1002
{
1000
REACTOR
1002
}
1001
GENIUS_GENOBJ-N-CEN_13
1002
{
1000
OWNER
1000
GEN
1002
}
  0
LINE
  5
37FE8
330
1F
100
AcDbEntity
  8
AM_0
100
AcDbLine
 10
119.5951221062255
 20
90.21566704941893
 30
0.0
 11
119.595122106222
 21
98.21566704939915
 31
0.0
1001
GENIUS_GENODEF_13
1002
{
1000
HIER
1070
     0
1002
}
1002
{
1000
MANEDIT
1070
     0
1002
}
1002
{
1000
NOSEL
1070
     0
1002
}
1002
{
1000
BEHIND
1070
     0
1002
}
1002
{
1000
REACTOR
1002
}
1001
GENIUS_GENOBJ-N-CEN_13
1002
{
1000
OWNER
1000
GEN
1002
}
  0
LINE
  5
37FE9
330
1F
100
AcDbEntity
  8
AM_0
100
AcDbLine
 10
119.5951221062156
 20
98.21566704939266
 30
0.0
 11
119.5951221062189
 21
90.21566704942546
 31
0.0
1001
GENIUS_GENODEF_13
1002
{
1000
HIER
1070
     0
1002
}
1002
{
1000
MANEDIT
1070
     0
1002
}
1002
{
1000
NOSEL
1070
     0
1002
}
1002
{
1000
BEHIND
1070
     0
1002
}
1002
{
1000
REACTOR
1002
}
1001
GENIUS_GENOBJ-N-CEN_13
1002
{
1000
OWNER
1000
GEN
1002
}
  0
LINE
  5
37FEA
330
1F
100
AcDbEntity
  8
AM_0
100
AcDbLine
 10
120.0951221062256
 20
89.71566704941869
 30
0.0
 11
120.0951221062219
 21
98.71566704940187
 31
0.0
1001
GENIUS_GENODEF_13
1002
{
1000
HIER
1070
     0
1002
}
1002
{
1000
MANEDIT
1070
     0
1002
}
1002
{
1000
NOSEL
1070
     0
1002
}
1002
{
1000
BEHIND
1070
     0
1002
}
1002
{
1000
REACTOR
1002
}
1001
GENIUS_GENOBJ-N-CEN_13
1002
{
1000
OWNER
1000
GEN
1002
}
  0
ARC
  5
37FEB
330
1F
100
AcDbEntity
  8
AM_0
100
AcDbCircle
 10
117.8951221062224
 20
92.29733444007615
 30
0.0
 40
0.2
100
AcDbArc
 50
225.2750868452134
 51
0.0
1001
GENIUS_GENODEF_13
1002
{
1000
HIER
1070
     0
1002
}
1002
{
1000
MANEDIT
1070
     0
1002
}
1002
{
1000
NOSEL
1070
     0
1002
}
1002
{
1000
BEHIND
1070
     0
1002
}
1002
{
1000
REACTOR
1002
}
1001
GENIUS_GENOBJ-N-FIL_13
1002
{
1000
OWNER
1000
GEN
1002
}
  0
LINE
  5
37FEC
330
1F
100
AcDbEntity
  8
AM_0
100
AcDbLine
 10
118.0951221062146
 20
91.11566704941521
 30
0.0
 11
118.0951221062146
 21
99.79072613095747
 31
0.0
  0
LINE
  5
37FED
330
1F
100
AcDbEntity
  8
AM_0
100
AcDbLine
 10
118.8951221062145
 20
91.11566704941521
 30
0.0
 11
118.8951221062145
 21
99.79072613095747
 31
0.0
  0
LINE
  5
37FEE
330
1F
100
AcDbEntity
  8
AM_0
100
AcDbLine
 10
117.8951221062219
 20
108.0156670494161
 30
0.0
 11
117.8951221062219
 21
96.33399965873593
 31
0.0
1001
GENIUS_GENODEF_13
1002
{
1000
HIER
1070
     0
1002
}
1002
{
1000
MANEDIT
1070
     0
1002
}
1002
{
1000
NOSEL
1070
     0
1002
}
1002
{
1000
BEHIND
1070
     0
1002
}
1002
{
1000
REACTOR
1002
}
1001
GENIUS_GENOBJ-N-CEN_13
1002
{
1000
OWNER
1000
GEN
1002
}
  0
ARC
  5
37FEF
330
1F
100
AcDbEntity
  8
AM_0
100
AcDbCircle
 10
120.3951221062219
 20
108.0156670494161
 30
0.0
 40
2.5
100
AcDbArc
 50
90.0
 51
180.0
1001
GENIUS_GENODEF_13
1002
{
1000
HIER
1070
     0
1002
}
1002
{
1000
MANEDIT
1070
     0
1002
}
1002
{
1000
NOSEL
1070
     0
1002
}
1002
{
1000
BEHIND
1070
     0
1002
}
1002
{
1000
REACTOR
1002
}
1001
GENIUS_GENOBJ-N-FIL_13
1002
{
1000
OWNER
1000
GEN
1002
}
1001
GENIUS_GENOBJ-N-CEN_13
1002
{
1000
OWNER
1000
GEN
1002
}
  0
LINE
  5
37FF0
330
1F
100
AcDbEntity
  8
AM_0
100
AcDbLine
 10
117.0951221062219
 20
97.71566704941619
 30
0.0
 11
117.0951221062219
 21
95.27396757384314
 31
0.0
1001
GENIUS_GENODEF_13
1002
{
1000
HIER
1070
     0
1002
}
1002
{
1000
MANEDIT
1070
     0
1002
}
1002
{
1000
NOSEL
1070
     0
1002
}
1002
{
1000
BEHIND
1070
     0
1002
}
1002
{
1000
REACTOR
1002
}
1001
GENIUS_GENOBJ-N-CEN_13
1002
{
1000
OWNER
1000
GEN
1002
}
  0
ELLIPSE
  5
37FF1
330
1F
100
AcDbEntity
  8
AM_0
100
AcDbEllipse
 10
118.8951221062145
 20
99.79072613095747
 30
0.0
 11
-0.8000000000000111
 21
-0.0000000000000026
 31
0.0
210
0.0
220
0.0
230
-1.0
 40
0.7186210115150691
 41
0.0
 42
1.570796326794896
  0
LINE
  5
37FF2
330
1F
100
AcDbEntity
  8
AM_0
100
AcDbLine
 10
117.8951221062218
 20
97.71566704941619
 30
0.0
 11
117.0951221062217
 21
97.71566704941619
 31
0.0
1001
GENIUS_GENODEF_13
1002
{
1000
HIER
1070
     0
1002
}
1002
{
1000
MANEDIT
1070
     0
1002
}
1002
{
1000
NOSEL
1070
     0
1002
}
1002
{
1000
BEHIND
1070
     0
1002
}
1002
{
1000
REACTOR
1002
}
1001
GENIUS_GENOBJ-N-CEN_13
1002
{
1000
OWNER
1000
GEN
1002
}
  0
LINE
  5
37FF3
330
1F
100
AcDbEntity
  8
AM_0
100
AcDbLine
 10
119.5951221062253
 20
98.21566704940238
 30
0.0
 11
120.0951221062256
 21
98.71566704940244
 31
0.0
  0
LINE
  5
37FF4
330
1F
100
AcDbEntity
  8
AM_0
100
AcDbLine
 10
118.0951221062237
 20
92.61566704940817
 30
0.0
 11
118.8951221062236
 21
92.61566704940817
 31
0.0
  0
ARC
  5
37FF5
330
1F
100
AcDbEntity
  8
AM_0
100
AcDbCircle
 10
119.7951221062175
 20
94.21566704940607
 30
0.0
 40
2.9
100
AcDbArc
 50
134.7249131547866
 51
225.2750868452134
  0
ARC
  5
37FF6
330
1F
100
AcDbEntity
  8
AM_0
100
AcDbCircle
 10
117.8951221062224
 20
96.13399965873595
 30
0.0
 40
0.2
100
AcDbArc
 50
359.9999999999984
 51
134.7249131547866
1001
GENIUS_GENODEF_13
1002
{
1000
HIER
1070
     0
1002
}
1002
{
1000
MANEDIT
1070
     0
1002
}
1002
{
1000
NOSEL
1070
     0
1002
}
1002
{
1000
BEHIND
1070
     0
1002
}
1002
{
1000
REACTOR
1002
}
1001
GENIUS_GENOBJ-N-FIL_13
1002
{
1000
OWNER
1000
GEN
1002
}
  0
LINE
  5
37FF7
330
1F
100
AcDbEntity
  8
AM_0
100
AcDbLine
 10
118.0951221062146
 20
96.91566704941619
 30
0.0
 11
117.8951221062218
 21
96.91566704941619
 31
0.0
1001
GENIUS_GENODEF_13
1002
{
1000
HIER
1070
     0
1002
}
1002
{
1000
MANEDIT
1070
     0
1002
}
1002
{
1000
NOSEL
1070
     0
1002
}
1002
{
1000
BEHIND
1070
     0
1002
}
1002
{
1000
REACTOR
1002
}
1001
GENIUS_GENOBJ-N-CEN_13
1002
{
1000
OWNER
1000
GEN
1002
}
  0
LINE
  5
37FF8
330
1F
100
AcDbEntity
  8
AM_0
100
AcDbLine
 10
119.5951221062166
 20
95.69066704940167
 30
0.0
 11
118.8951221062145
 21
95.69066704940167
 31
0.0
1001
GENIUS_GENODEF_13
1002
{
1000
HIER
1070
     0
1002
}
1002
{
1000
MANEDIT
1070
     0
1002
}
1002
{
1000
NOSEL
1070
     0
1002
}
1002
{
1000
BEHIND
1070
     0
1002
}
1002
{
1000
REACTOR
1002
}
1001
GENIUS_GENOBJ-N-CEN_13
1002
{
1000
OWNER
1000
GEN
1002
}
  0
LINE
  5
37FF9
330
1F
100
AcDbEntity
  8
AM_0
100
AcDbLine
 10
119.5951221062179
 20
92.74066704940167
 30
0.0
 11
118.8951221062145
 21
92.74066704940167
 31
0.0
1001
GENIUS_GENODEF_13
1002
{
1000
HIER
1070
     0
1002
}
1002
{
1000
MANEDIT
1070
     0
1002
}
1002
{
1000
NOSEL
1070
     0
1002
}
1002
{
1000
BEHIND
1070
     0
1002
}
1002
{
1000
REACTOR
1002
}
1001
GENIUS_GENOBJ-N-CEN_13
1002
{
1000
OWNER
1000
GEN
1002
}
  0
LINE
  5
37FFA
330
1F
100
AcDbEntity
  8
AM_0
100
AcDbLine
 10
118.8951221062145
 20
91.11566704941521
 30
0.0
 11
118.0951221062146
 21
91.11566704941521
 31
0.0
  0
ARC
  5
37FFB
330
1F
100
AcDbEntity
  8
AM_0
100
AcDbCircle
 10
118.7951221062241
 20
89.71566704942091
 30
0.0
 40
2.9
100
AcDbArc
 50
134.724913154897
 51
225.2750868451028
  0
LINE
  5
37FFC
330
1F
100
AcDbEntity
  8
AM_0
100
AcDbLine
 10
117.8951221062219
 20
92.09733444007616
 30
0.0
 11
117.8951221062219
 21
87.33399965875634
 31
0.0
1001
GENIUS_GENODEF_13
1002
{
1000
HIER
1070
     0
1002
}
1002
{
1000
MANEDIT
1070
     0
1002
}
1002
{
1000
NOSEL
1070
     0
1002
}
1002
{
1000
BEHIND
1070
     0
1002
}
1002
{
1000
REACTOR
1002
}
1001
GENIUS_GENOBJ-N-CEN_13
1002
{
1000
OWNER
1000
GEN
1002
}
  0
ARC
  5
37FFD
330
1F
100
AcDbEntity
  8
AM_0
100
AcDbCircle
 10
116.8951221062253
 20
91.6339996587472
 30
0.0
 40
0.2
100
AcDbArc
 50
0.0
 51
134.724913154897
1001
GENIUS_GENODEF_13
1002
{
1000
HIER
1070
     0
1002
}
1002
{
1000
MANEDIT
1070
     0
1002
}
1002
{
1000
NOSEL
1070
     0
1002
}
1002
{
1000
BEHIND
1070
     0
1002
}
1002
{
1000
REACTOR
1002
}
1001
GENIUS_GENOBJ-N-FIL_13
1002
{
1000
OWNER
1000
GEN
1002
}
  0
LINE
  5
37FFE
330
1F
100
AcDbEntity
  8
AM_0
100
AcDbLine
 10
119.5951221062225
 20
89.215667049417
 30
0.0
 11
120.0951221062229
 21
89.71566704941711
 31
0.0
  0
LINE
  5
37FFF
330
1F
100
AcDbEntity
  8
AM_0
100
AcDbLine
 10
118.8951221062145
 20
90.53895580175828
 30
0.0
 11
118.8951221062237
 21
86.91566704941806
 31
0.0
  0
LINE
  5
38000
330
1F
100
AcDbEntity
  8
AM_0
100
AcDbLine
 10
119.5951221062255
 20
90.21566704941893
 30
0.0
 11
120.0951221062256
 21
89.71566704941869
 31
0.0
  0
LINE
  5
38001
330
1F
100
AcDbEntity
  8
AM_0
100
AcDbLine
 10
119.5951221062186
 20
90.91566704941625
 30
0.0
 11
118.8951221062237
 21
90.91566704941625
 31
0.0
1001
GENIUS_GENODEF_13
1002
{
1000
HIER
1070
     0
1002
}
1002
{
1000
MANEDIT
1070
     0
1002
}
1002
{
1000
NOSEL
1070
     0
1002
}
1002
{
1000
BEHIND
1070
     0
1002
}
1002
{
1000
REACTOR
1002
}
1001
GENIUS_GENOBJ-N-CEN_13
1002
{
1000
OWNER
1000
GEN
1002
}
  0
LINE
  5
38002
330
1F
100
AcDbEntity
  8
AM_0
100
AcDbLine
 10
130.0951221062218
 20
97.71566704941632
 30
0.0
 11
130.0951221062218
 21
81.71566704941625
 31
0.0
1001
GENIUS_GENODEF_13
1002
{
1000
HIER
1070
     0
1002
}
1002
{
1000
MANEDIT
1070
     0
1002
}
1002
{
1000
NOSEL
1070
     0
1002
}
1002
{
1000
BEHIND
1070
     0
1002
}
1002
{
1000
REACTOR
1002
}
1001
GENIUS_GENOBJ-N-CEN_13
1002
{
1000
OWNER
1000
GEN
1002
}
  0
LINE
  5
38003
330
1F
100
AcDbEntity
  8
AM_0
100
AcDbLine
 10
128.2951221062236
 20
92.51566704941451
 30
0.0
 11
128.2951221062236
 21
89.71566704941631
 31
0.0
  0
LINE
  5
38004
330
1F
100
AcDbEntity
  8
AM_0
100
AcDbLine
 10
128.2951221062145
 20
99.79072613095747
 30
0.0
 11
128.2951221062236
 21
86.91566704941806
 31
0.0
  0
LINE
  5
38005
330
1F
100
AcDbEntity
  8
AM_0
100
AcDbLine
 10
129.0951221062146
 20
99.79072613095747
 30
0.0
 11
129.0951221062146
 21
79.64060796787504
 31
0.0
  0
LINE
  5
38006
330
1F
100
AcDbEntity
  8
AM_0
100
AcDbLine
 10
127.5951221062254
 20
90.21566704941699
 30
0.0
 11
127.595122106222
 21
98.21566704940529
 31
0.0
1001
GENIUS_GENODEF_13
1002
{
1000
HIER
1070
     0
1002
}
1002
{
1000
MANEDIT
1070
     0
1002
}
1002
{
1000
NOSEL
1070
     0
1002
}
1002
{
1000
BEHIND
1070
     0
1002
}
1002
{
1000
REACTOR
1002
}
1001
GENIUS_GENOBJ-N-CEN_13
1002
{
1000
OWNER
1000
GEN
1002
}
  0
LINE
  5
38007
330
1F
100
AcDbEntity
  8
AM_0
100
AcDbLine
 10
127.5951221062155
 20
98.21566704941176
 30
0.0
 11
127.5951221062189
 21
90.21566704941051
 31
0.0
1001
GENIUS_GENODEF_13
1002
{
1000
HIER
1070
     0
1002
}
1002
{
1000
MANEDIT
1070
     0
1002
}
1002
{
1000
NOSEL
1070
     0
1002
}
1002
{
1000
BEHIND
1070
     0
1002
}
1002
{
1000
REACTOR
1002
}
1001
GENIUS_GENOBJ-N-CEN_13
1002
{
1000
OWNER
1000
GEN
1002
}
  0
LINE
  5
38008
330
1F
100
AcDbEntity
  8
AM_0
100
AcDbLine
 10
127.0951221062256
 20
89.7156670494183
 30
0.0
 11
127.0951221062219
 21
98.71566704940148
 31
0.0
1001
GENIUS_GENODEF_13
1002
{
1000
HIER
1070
     0
1002
}
1002
{
1000
MANEDIT
1070
     0
1002
}
1002
{
1000
NOSEL
1070
     0
1002
}
1002
{
1000
BEHIND
1070
     0
1002
}
1002
{
1000
REACTOR
1002
}
1001
GENIUS_GENOBJ-N-CEN_13
1002
{
1000
OWNER
1000
GEN
1002
}
  0
ARC
  5
38009
330
1F
100
AcDbEntity
  8
AM_0
100
AcDbCircle
 10
129.0951221062124
 20
92.76566704938279
 30
0.0
 40
0.8
100
AcDbArc
 50
270.0000000001498
 51
0.0
  0
LINE
  5
3800A
330
1F
100
AcDbEntity
  8
AM_0
100
AcDbLine
 10
129.2951221062218
 20
108.0156670494161
 30
0.0
 11
129.2951221062218
 21
96.4402637186434
 31
0.0
1001
GENIUS_GENODEF_13
1002
{
1000
HIER
1070
     0
1002
}
1002
{
1000
MANEDIT
1070
     0
1002
}
1002
{
1000
NOSEL
1070
     0
1002
}
1002
{
1000
BEHIND
1070
     0
1002
}
1002
{
1000
REACTOR
1002
}
1001
GENIUS_GENOBJ-N-CEN_13
1002
{
1000
OWNER
1000
GEN
1002
}
  0
ARC
  5
3800B
330
1F
100
AcDbEntity
  8
AM_0
100
AcDbCircle
 10
126.7951221062218
 20
108.0156670494161
 30
0.0
 40
2.5
100
AcDbArc
 50
0.0
 51
90.0
1001
GENIUS_GENODEF_13
1002
{
1000
HIER
1070
     0
1002
}
1002
{
1000
MANEDIT
1070
     0
1002
}
1002
{
1000
NOSEL
1070
     0
1002
}
1002
{
1000
BEHIND
1070
     0
1002
}
1002
{
1000
REACTOR
1002
}
1001
GENIUS_GENOBJ-N-FIL_13
1002
{
1000
OWNER
1000
GEN
1002
}
1001
GENIUS_GENOBJ-N-CEN_13
1002
{
1000
OWNER
1000
GEN
1002
}
  0
LINE
  5
3800C
330
1F
100
AcDbEntity
  8
AM_0
100
AcDbLine
 10
126.7951221062218
 20
110.5156670494161
 30
0.0
 11
123.5951221062218
 21
110.5156670494161
 31
0.0
1001
GENIUS_GENODEF_13
1002
{
1000
HIER
1070
     0
1002
}
1002
{
1000
MANEDIT
1070
     0
1002
}
1002
{
1000
NOSEL
1070
     0
1002
}
1002
{
1000
BEHIND
1070
     0
1002
}
1002
{
1000
REACTOR
1002
}
1001
GENIUS_GENOBJ-N-CEN_13
1002
{
1000
OWNER
1000
GEN
1002
}
  0
ARC
  5
3800D
330
1F
100
AcDbEntity
  8
AM_0
100
AcDbCircle
 10
129.0951221062124
 20
95.66566704940431
 30
0.0
 40
0.8
100
AcDbArc
 50
0.0
 51
89.99999999985019
  0
LINE
  5
3800E
330
1F
100
AcDbEntity
  8
AM_0
100
AcDbLine
 10
130.0951221062218
 20
97.71566704941632
 30
0.0
 11
129.2951221062218
 21
97.71566704941632
 31
0.0
1001
GENIUS_GENODEF_13
1002
{
1000
HIER
1070
     0
1002
}
1002
{
1000
MANEDIT
1070
     0
1002
}
1002
{
1000
NOSEL
1070
     0
1002
}
1002
{
1000
BEHIND
1070
     0
1002
}
1002
{
1000
REACTOR
1002
}
1001
GENIUS_GENOBJ-N-CEN_13
1002
{
1000
OWNER
1000
GEN
1002
}
  0
LINE
  5
3800F
330
1F
100
AcDbEntity
  8
AM_0
100
AcDbLine
 10
127.595122106226
 20
98.21566704940119
 30
0.0
 11
127.0951221062258
 21
98.71566704940136
 31
0.0
  0
ELLIPSE
  5
38010
330
1F
100
AcDbEntity
  8
AM_0
100
AcDbEllipse
 10
128.2951221062291
 20
99.79072613095747
 30
0.0
 11
0.8000000000000111
 21
0.0000000000000026
 31
0.0
210
0.0
220
0.0
230
1.0
 40
0.7186210115150691
 41
0.0
 42
1.570796326794896
  0
LINE
  5
38011
330
1F
100
AcDbEntity
  8
AM_0
100
AcDbLine
 10
129.8951221062145
 20
92.76566704938279
 30
0.0
 11
129.8951221062145
 21
95.66566704940431
 31
0.0
1001
GENIUS_GENODEF_13
1002
{
1000
HIER
1070
     0
1002
}
1002
{
1000
MANEDIT
1070
     0
1002
}
1002
{
1000
NOSEL
1070
     0
1002
}
1002
{
1000
BEHIND
1070
     0
1002
}
1002
{
1000
REACTOR
1002
}
1001
GENIUS_GENOBJ-N-CEN_13
1002
{
1000
OWNER
1000
GEN
1002
}
  0
LINE
  5
38012
330
1F
100
AcDbEntity
  8
AM_0
100
AcDbLine
 10
128.2951221062145
 20
95.69066704940167
 30
0.0
 11
127.5951221062165
 21
95.69066704940167
 31
0.0
1001
GENIUS_GENODEF_13
1002
{
1000
HIER
1070
     0
1002
}
1002
{
1000
MANEDIT
1070
     0
1002
}
1002
{
1000
NOSEL
1070
     0
1002
}
1002
{
1000
BEHIND
1070
     0
1002
}
1002
{
1000
REACTOR
1002
}
1001
GENIUS_GENOBJ-N-CEN_13
1002
{
1000
OWNER
1000
GEN
1002
}
  0
LINE
  5
38013
330
1F
100
AcDbEntity
  8
AM_0
100
AcDbLine
 10
129.2951221062218
 20
96.91566704941624
 30
0.0
 11
129.0951221062146
 21
96.91566704941624
 31
0.0
1001
GENIUS_GENODEF_13
1002
{
1000
HIER
1070
     0
1002
}
1002
{
1000
MANEDIT
1070
     0
1002
}
1002
{
1000
NOSEL
1070
     0
1002
}
1002
{
1000
BEHIND
1070
     0
1002
}
1002
{
1000
REACTOR
1002
}
1001
GENIUS_GENOBJ-N-CEN_13
1002
{
1000
OWNER
1000
GEN
1002
}
  0
LINE
  5
38014
330
1F
100
AcDbEntity
  8
AM_0
100
AcDbLine
 10
127.5951221062179
 20
92.61566704940817
 30
0.0
 11
128.2951221062236
 21
92.61566704940817
 31
0.0
  0
LINE
  5
38015
330
1F
100
AcDbEntity
  8
AM_0
100
AcDbLine
 10
128.2951221062145
 20
92.74066704940167
 30
0.0
 11
127.5951221062179
 21
92.74066704940167
 31
0.0
1001
GENIUS_GENODEF_13
1002
{
1000
HIER
1070
     0
1002
}
1002
{
1000
MANEDIT
1070
     0
1002
}
1002
{
1000
NOSEL
1070
     0
1002
}
1002
{
1000
BEHIND
1070
     0
1002
}
1002
{
1000
REACTOR
1002
}
1001
GENIUS_GENOBJ-N-CEN_13
1002
{
1000
OWNER
1000
GEN
1002
}
  0
LINE
  5
38016
330
1F
100
AcDbEntity
  8
AM_0
100
AcDbLine
 10
128.2951221062236
 20
90.91566704941625
 30
0.0
 11
127.5951221062186
 21
90.91566704941625
 31
0.0
1001
GENIUS_GENODEF_13
1002
{
1000
HIER
1070
     0
1002
}
1002
{
1000
MANEDIT
1070
     0
1002
}
1002
{
1000
NOSEL
1070
     0
1002
}
1002
{
1000
BEHIND
1070
     0
1002
}
1002
{
1000
REACTOR
1002
}
1001
GENIUS_GENOBJ-N-CEN_13
1002
{
1000
OWNER
1000
GEN
1002
}
  0
LINE
  5
38017
330
1F
100
AcDbEntity
  8
AM_0
100
AcDbLine
 10
127.5951221062263
 20
90.21566704941774
 30
0.0
 11
127.0951221062258
 21
89.71566704941773
 31
0.0
  0
LINE
  5
38018
330
1F
100
AcDbEntity
  8
AM_0
100
AcDbLine
 10
129.2951221062218
 20
91.99107038014375
 30
0.0
 11
129.2951221062218
 21
87.44026371868882
 31
0.0
1001
GENIUS_GENODEF_13
1002
{
1000
HIER
1070
     0
1002
}
1002
{
1000
MANEDIT
1070
     0
1002
}
1002
{
1000
NOSEL
1070
     0
1002
}
1002
{
1000
BEHIND
1070
     0
1002
}
1002
{
1000
REACTOR
1002
}
1001
GENIUS_GENOBJ-N-CEN_13
1002
{
1000
OWNER
1000
GEN
1002
}
  0
LINE
  5
38019
330
1F
100
AcDbEntity
  8
AM_0
100
AcDbLine
 10
129.0951221062146
 20
91.11566704941521
 30
0.0
 11
128.2951221062145
 21
91.11566704941521
 31
0.0
  0
LINE
  5
3801A
330
1F
100
AcDbEntity
  8
AM_0
100
AcDbLine
 10
131.295122106216
 20
90.61566704941839
 30
0.0
 11
131.295122106216
 21
88.81566704941418
 31
0.0
1001
GENIUS_GENODEF_13
1002
{
1000
HIER
1070
     0
1002
}
1002
{
1000
MANEDIT
1070
     0
1002
}
1002
{
1000
NOSEL
1070
     0
1002
}
1002
{
1000
BEHIND
1070
     0
1002
}
1002
{
1000
REACTOR
1002
}
1001
GENIUS_GENOBJ-N-CEN_13
1002
{
1000
OWNER
1000
GEN
1002
}
  0
LINE
  5
3801B
330
1F
100
AcDbEntity
  8
AM_0
100
AcDbLine
 10
130.695122106216
 20
91.21566704941841
 30
0.0
 11
130.695122106216
 21
88.21566704941416
 31
0.0
1001
GENIUS_GENODEF_13
1002
{
1000
HIER
1070
     0
1002
}
1002
{
1000
MANEDIT
1070
     0
1002
}
1002
{
1000
NOSEL
1070
     0
1002
}
1002
{
1000
BEHIND
1070
     0
1002
}
1002
{
1000
REACTOR
1002
}
1001
GENIUS_GENOBJ-N-CEN_13
1002
{
1000
OWNER
1000
GEN
1002
}
  0
LINE
  5
3801C
330
1F
100
AcDbEntity
  8
AM_0
100
AcDbLine
 10
130.6951221062162
 20
91.21566704941841
 30
0.0
 11
130.095122106216
 21
91.21566704941841
 31
0.0
1001
GENIUS_GENODEF_13
1002
{
1000
HIER
1070
     0
1002
}
1002
{
1000
MANEDIT
1070
     0
1002
}
1002
{
1000
NOSEL
1070
     0
1002
}
1002
{
1000
BEHIND
1070
     0
1002
}
1002
{
1000
REACTOR
1002
}
1001
GENIUS_GENOBJ-N-CEN_13
1002
{
1000
OWNER
1000
GEN
1002
}
  0
LINE
  5
3801D
330
1F
100
AcDbEntity
  8
AM_0
100
AcDbLine
 10
131.295122106216
 20
90.61566704941839
 30
0.0
 11
130.695122106216
 21
90.61566704941839
 31
0.0
1001
GENIUS_GENODEF_13
1002
{
1000
HIER
1070
     0
1002
}
1002
{
1000
MANEDIT
1070
     0
1002
}
1002
{
1000
NOSEL
1070
     0
1002
}
1002
{
1000
BEHIND
1070
     0
1002
}
1002
{
1000
REACTOR
1002
}
1001
GENIUS_GENOBJ-N-CEN_13
1002
{
1000
OWNER
1000
GEN
1002
}
  0
LINE
  5
3801E
330
1F
100
AcDbEntity
  8
AM_0
100
AcDbLine
 10
130.5951221062219
 20
91.21566704941631
 30
0.0
 11
130.0951221062217
 21
91.21566704941631
 31
0.0
1001
GENIUS_GENODEF_13
1002
{
1000
HIER
1070
     0
1002
}
1002
{
1000
MANEDIT
1070
     0
1002
}
1002
{
1000
NOSEL
1070
     0
1002
}
1002
{
1000
BEHIND
1070
     0
1002
}
1002
{
1000
REACTOR
1002
}
1001
GENIUS_GENOBJ-N-CEN_13
1002
{
1000
OWNER
1000
GEN
1002
}
  0
ARC
  5
3801F
330
1F
100
AcDbEntity
  8
AM_0
100
AcDbCircle
 10
128.2951221062225
 20
91.02211931397546
 30
0.0
 40
0.8
100
AcDbArc
 50
89.99999999943005
 51
151.0449756276131
  0
ELLIPSE
  5
38020
330
1F
100
AcDbEntity
  8
AM_0
100
AcDbEllipse
 10
83.00740439764183
 20
49.25998189814348
 30
0.0
 11
0.0
 21
0.7999999999999901
 31
0.0
210
0.0
220
0.0
230
1.0
 40
0.6954019282466195
 41
0.0
 42
1.570796326794896
  0
ELLIPSE
  5
38021
330
1F
100
AcDbEntity
  8
AM_0
100
AcDbEllipse
 10
83.00740439764036
 20
39.85998189815737
 30
0.0
 11
-0.0000000000002526
 21
-0.7999999999999901
 31
0.0
210
0.0
220
0.0
230
-1.0
 40
0.6954019282466195
 41
0.0
 42
1.570796326794896
  0
LINE
  5
38027
330
1F
100
AcDbEntity
  8
AM_0
 48
2.0
100
AcDbLine
 10
212.5611628105783
 20
75.21566704941665
 30
0.0
 11
211.7611628105783
 21
75.21566704941665
 31
0.0
  0
LINE
  5
38028
330
1F
100
AcDbEntity
  8
AM_0
 48
2.0
100
AcDbLine
 10
212.5611628105783
 20
104.2156670494166
 30
0.0
 11
211.7611628105783
 21
104.2156670494166
 31
0.0
  0
ARC
  5
38029
330
1F
100
AcDbEntity
  8
AM_0
 48
2.0
100
AcDbCircle
 10
197.8611628105783
 20
89.71566704941665
 30
0.0
 40
1.8
100
AcDbArc
 50
119.9898441266439
 51
240.0101558733561
  0
ARC
  5
3802A
330
1F
100
AcDbEntity
  8
AM_0
 48
2.0
100
AcDbCircle
 10
197.8611628105783
 20
89.71566704941665
 30
0.0
 40
1.0
100
AcDbArc
 50
119.9898441266439
 51
240.0101558733561
  0
ARC
  5
3802B
330
1F
100
AcDbEntity
  8
AM_0
 48
2.0
100
AcDbCircle
 10
200.5611628105784
 20
90.46566704941666
 30
0.0
 40
2.5
100
AcDbArc
 50
46.81809283886904
 51
119.9898441266439
  0
ARC
  5
3802C
330
1F
100
AcDbEntity
  8
AM_0
 48
2.0
100
AcDbCircle
 10
200.5611628105784
 20
88.96566704941665
 30
0.0
 40
2.5
100
AcDbArc
 50
240.0101558733561
 51
313.1819071611309
  0
LINE
  5
3802D
330
1F
100
AcDbEntity
  8
AM_0
 48
2.0
100
AcDbLine
 10
196.9614391354652
 20
88.15666181900814
 30
0.0
 11
199.3115465951434
 21
86.80038200718263
 31
0.0
  0
LINE
  5
3802E
330
1F
100
AcDbEntity
  8
AM_0
 48
2.0
100
AcDbLine
 10
196.9614391354643
 20
91.27467227982458
 30
0.0
 11
199.311546595143
 21
92.63095209165038
 31
0.0
  0
ARC
  5
3802F
330
1F
100
AcDbEntity
  8
AM_0
 48
2.0
100
AcDbCircle
 10
200.5611628105784
 20
88.96566704941665
 30
0.0
 40
1.7
100
AcDbArc
 50
240.0101558733561
 51
313.1819071611309
  0
ARC
  5
38030
330
1F
100
AcDbEntity
  8
AM_0
 48
2.0
100
AcDbCircle
 10
200.5611628105784
 20
90.46566704941666
 30
0.0
 40
1.7
100
AcDbArc
 50
46.81809283886904
 51
119.9898441266439
  0
LINE
  5
38031
330
1F
100
AcDbEntity
  8
AM_0
 48
2.0
100
AcDbLine
 10
197.3613163244043
 20
88.8495530325231
 30
0.0
 11
199.7114237840826
 21
87.49327322069751
 31
0.0
  0
LINE
  5
38032
330
1F
100
AcDbEntity
  8
AM_0
 48
2.0
100
AcDbLine
 10
199.7114237840823
 20
91.93806087813561
 30
0.0
 11
197.361316324404
 21
90.58178106631004
 31
0.0
  0
ARC
  5
38033
330
1F
100
AcDbEntity
  8
AM_0
 48
2.0
100
AcDbCircle
 10
205.7441443296271
 20
84.91566704941664
 30
0.0
 40
4.0
100
AcDbArc
 50
90.0
 51
90.00000000002279
1001
GENIUS_GENODEF_13
1002
{
1000
HIER
1070
     0
1002
}
1002
{
1000
MANEDIT
1070
     0
1002
}
1002
{
1000
NOSEL
1070
     0
1002
}
1002
{
1000
BEHIND
1070
     0
1002
}
1002
{
1000
REACTOR
1002
}
1001
GENIUS_GENOBJ-N-FIL_13
1002
{
1000
OWNER
1000
GEN
1002
}
  0
LINE
  5
38034
330
1F
100
AcDbEntity
  8
AM_0
 48
2.0
100
AcDbLine
 10
202.4594233134331
 20
88.41575388344995
 30
0.0
 11
201.7245015038137
 21
87.72605296236315
 31
0.0
  0
ARC
  5
38035
330
1F
100
AcDbEntity
  8
AM_0
 48
2.0
100
AcDbCircle
 10
205.7441443296271
 20
94.5156670494166
 30
0.0
 40
4.799999999999998
100
AcDbArc
 50
270.0
 51
270.0
1001
GENIUS_GENODEF_13
1002
{
1000
HIER
1070
     0
1002
}
1002
{
1000
MANEDIT
1070
     0
1002
}
1002
{
1000
NOSEL
1070
     0
1002
}
1002
{
1000
BEHIND
1070
     0
1002
}
1002
{
1000
REACTOR
1002
}
1001
GENIUS_GENOBJ-N-FIL_13
1002
{
1000
OWNER
1000
GEN
1002
}
  0
ARC
  5
38036
330
1F
100
AcDbEntity
  8
AM_0
 48
2.0
100
AcDbCircle
 10
205.7441443296271
 20
84.91566704941664
 30
0.0
 40
4.799999999999998
100
AcDbArc
 50
90.0
 51
133.1819071611308
1001
GENIUS_GENODEF_13
1002
{
1000
HIER
1070
     0
1002
}
1002
{
1000
MANEDIT
1070
     0
1002
}
1002
{
1000
NOSEL
1070
     0
1002
}
1002
{
1000
BEHIND
1070
     0
1002
}
1002
{
1000
REACTOR
1002
}
1001
GENIUS_GENOBJ-N-FIL_13
1002
{
1000
OWNER
1000
GEN
1002
}
  0
LINE
  5
38037
330
1F
100
AcDbEntity
  8
AM_0
 48
2.0
100
AcDbLine
 10
202.4594233134334
 20
91.01558021538336
 30
0.0
 11
201.7245015038137
 21
91.70528113647009
 31
0.0
  0
ARC
  5
38038
330
1F
100
AcDbEntity
  8
AM_0
 48
2.0
100
AcDbCircle
 10
205.7441443296271
 20
94.5156670494166
 30
0.0
 40
4.799999999999998
100
AcDbArc
 50
226.8180928388688
 51
270.0
1001
GENIUS_GENODEF_13
1002
{
1000
HIER
1070
     0
1002
}
1002
{
1000
MANEDIT
1070
     0
1002
}
1002
{
1000
NOSEL
1070
     0
1002
}
1002
{
1000
BEHIND
1070
     0
1002
}
1002
{
1000
REACTOR
1002
}
1001
GENIUS_GENOBJ-N-FIL_13
1002
{
1000
OWNER
1000
GEN
1002
}
  0
ARC
  5
38039
330
1F
100
AcDbEntity
  8
AM_0
 48
2.0
100
AcDbCircle
 10
205.7441443296271
 20
94.51566704941667
 30
0.0
 40
4.0
100
AcDbArc
 50
226.8180928388688
 51
270.0
1001
GENIUS_GENODEF_13
1002
{
1000
HIER
1070
     0
1002
}
1002
{
1000
MANEDIT
1070
     0
1002
}
1002
{
1000
NOSEL
1070
     0
1002
}
1002
{
1000
BEHIND
1070
     0
1002
}
1002
{
1000
REACTOR
1002
}
1001
GENIUS_GENOBJ-N-FIL_13
1002
{
1000
OWNER
1000
GEN
1002
}
  0
LINE
  5
3803A
330
1F
100
AcDbEntity
  8
AM_0
 48
2.0
100
AcDbLine
 10
203.0068768161322
 20
91.59892802105554
 30
0.0
 11
202.2719550065126
 21
92.28862894214234
 31
0.0
  0
LINE
  5
3803B
330
1F
100
AcDbEntity
  8
AM_0
 48
2.0
100
AcDbLine
 10
203.006876816131
 20
87.83240607777662
 30
0.0
 11
202.2719550065126
 21
87.14270515669097
 31
0.0
  0
ARC
  5
3803C
330
1F
100
AcDbEntity
  8
AM_0
 48
2.0
100
AcDbCircle
 10
205.7441443296271
 20
84.91566704941664
 30
0.0
 40
4.0
100
AcDbArc
 50
90.00000000002279
 51
133.1819071611308
1001
GENIUS_GENODEF_13
1002
{
1000
HIER
1070
     0
1002
}
1002
{
1000
MANEDIT
1070
     0
1002
}
1002
{
1000
NOSEL
1070
     0
1002
}
1002
{
1000
BEHIND
1070
     0
1002
}
1002
{
1000
REACTOR
1002
}
1001
GENIUS_GENOBJ-N-FIL_13
1002
{
1000
OWNER
1000
GEN
1002
}
  0
LINE
  5
3803D
330
1F
100
AcDbEntity
  8
AM_0
 48
2.0
100
AcDbLine
 10
211.7611628105783
 20
104.2156670494166
 30
0.0
 11
211.7611628105783
 21
92.01566704941667
 31
0.0
  0
LINE
  5
3803E
330
1F
100
AcDbEntity
  8
AM_0
 48
2.0
100
AcDbLine
 10
210.2611628105783
 20
90.51566704941667
 30
0.0
 11
205.7441443296271
 21
90.51566704941667
 31
0.0
  0
ARC
  5
3803F
330
1F
100
AcDbEntity
  8
AM_0
 48
2.0
100
AcDbCircle
 10
210.2611628105783
 20
92.01566704941667
 30
0.0
 40
1.5
100
AcDbArc
 50
270.0
 51
0.0
1001
GENIUS_GENODEF_13
1002
{
1000
HIER
1070
     0
1002
}
1002
{
1000
MANEDIT
1070
     0
1002
}
1002
{
1000
NOSEL
1070
     0
1002
}
1002
{
1000
BEHIND
1070
     0
1002
}
1002
{
1000
REACTOR
1002
}
1001
GENIUS_GENOBJ-N-FIL_13
1002
{
1000
OWNER
1000
GEN
1002
}
  0
LINE
  5
38040
330
1F
100
AcDbEntity
  8
AM_0
 48
2.0
100
AcDbLine
 10
211.7611628105783
 20
75.21566704941665
 30
0.0
 11
211.7611628105783
 21
87.41566704941664
 31
0.0
  0
LINE
  5
38041
330
1F
100
AcDbEntity
  8
AM_0
 48
2.0
100
AcDbLine
 10
210.2611628105783
 20
88.91566704941665
 30
0.0
 11
205.7441443296256
 21
88.91566704941665
 31
0.0
  0
ARC
  5
38042
330
1F
100
AcDbEntity
  8
AM_0
 48
2.0
100
AcDbCircle
 10
210.2611628105783
 20
87.41566704941664
 30
0.0
 40
1.5
100
AcDbArc
 50
0.0
 51
90.0
1001
GENIUS_GENODEF_13
1002
{
1000
HIER
1070
     0
1002
}
1002
{
1000
MANEDIT
1070
     0
1002
}
1002
{
1000
NOSEL
1070
     0
1002
}
1002
{
1000
BEHIND
1070
     0
1002
}
1002
{
1000
REACTOR
1002
}
1001
GENIUS_GENOBJ-N-FIL_13
1002
{
1000
OWNER
1000
GEN
1002
}
  0
LINE
  5
38043
330
1F
100
AcDbEntity
  8
AM_0
 48
2.0
100
AcDbLine
 10
212.5611628105783
 20
92.01566704941667
 30
0.0
 11
212.5611628105783
 21
102.7156670494166
 31
0.0
  0
ARC
  5
38044
330
1F
100
AcDbEntity
  8
AM_0
 48
2.0
100
AcDbCircle
 10
210.2611628105783
 20
92.01566704941667
 30
0.0
 40
2.299999999999998
100
AcDbArc
 50
270.0
 51
0.0
1001
GENIUS_GENODEF_13
1002
{
1000
HIER
1070
     0
1002
}
1002
{
1000
MANEDIT
1070
     0
1002
}
1002
{
1000
NOSEL
1070
     0
1002
}
1002
{
1000
BEHIND
1070
     0
1002
}
1002
{
1000
REACTOR
1002
}
1001
GENIUS_GENOBJ-N-FIL_13
1002
{
1000
OWNER
1000
GEN
1002
}
  0
LINE
  5
38045
330
1F
100
AcDbEntity
  8
AM_0
 48
2.0
100
AcDbLine
 10
212.5611628105783
 20
87.41566704941664
 30
0.0
 11
212.5611628105783
 21
76.71566704941665
 31
0.0
  0
LINE
  5
38046
330
1F
100
AcDbEntity
  8
AM_0
 48
2.0
100
AcDbLine
 10
205.7441443296271
 20
89.71566704941665
 30
0.0
 11
210.2611628105783
 21
89.71566704941665
 31
0.0
  0
ARC
  5
38047
330
1F
100
AcDbEntity
  8
AM_0
 48
2.0
100
AcDbCircle
 10
210.2611628105783
 20
87.41566704941664
 30
0.0
 40
2.299999999999998
100
AcDbArc
 50
0.0
 51
90.0
1001
GENIUS_GENODEF_13
1002
{
1000
HIER
1070
     0
1002
}
1002
{
1000
MANEDIT
1070
     0
1002
}
1002
{
1000
NOSEL
1070
     0
1002
}
1002
{
1000
BEHIND
1070
     0
1002
}
1002
{
1000
REACTOR
1002
}
1001
GENIUS_GENOBJ-N-FIL_13
1002
{
1000
OWNER
1000
GEN
1002
}
  0
LINE
  5
3804A
330
1F
100
AcDbEntity
  8
AM_0
 48
2.0
100
AcDbLine
 10
211.7611628105783
 20
75.21566704941665
 30
0.0
 11
213.5611628105784
 21
75.71566704941665
 31
0.0
  0
LINE
  5
3804B
330
1F
100
AcDbEntity
  8
AM_0
 48
2.0
100
AcDbLine
 10
213.5611628105784
 20
75.71566704941665
 30
0.0
 11
211.7611628105783
 21
76.2156670494166
 31
0.0
  0
LINE
  5
3804C
330
1F
100
AcDbEntity
  8
AM_0
 48
2.0
100
AcDbLine
 10
212.5611628105783
 20
76.71566704941665
 30
0.0
 11
213.5611628105784
 21
76.2156670494166
 31
0.0
  0
LINE
  5
3804D
330
1F
100
AcDbEntity
  8
AM_0
 48
2.0
100
AcDbLine
 10
213.5611628105784
 20
76.2156670494166
 30
0.0
 11
213.5611628105784
 21
75.71566704941665
 31
0.0
  0
LINE
  5
3804E
330
1F
100
AcDbEntity
  8
AM_0
 48
2.0
100
AcDbLine
 10
211.7611628105783
 20
104.2156670494166
 30
0.0
 11
213.5611628105784
 21
103.7156670494166
 31
0.0
  0
LINE
  5
3804F
330
1F
100
AcDbEntity
  8
AM_0
 48
2.0
100
AcDbLine
 10
213.5611628105784
 20
103.7156670494166
 30
0.0
 11
211.7611628105783
 21
103.2156670494166
 31
0.0
  0
LINE
  5
38050
330
1F
100
AcDbEntity
  8
AM_0
 48
2.0
100
AcDbLine
 10
212.5611628105783
 20
102.7156670494166
 30
0.0
 11
213.5611628105784
 21
103.2156670494166
 31
0.0
  0
LINE
  5
38051
330
1F
100
AcDbEntity
  8
AM_0
 48
2.0
100
AcDbLine
 10
213.5611628105784
 20
103.2156670494166
 30
0.0
 11
213.5611628105784
 21
103.7156670494166
 31
0.0
  0
LINE
  5
38052
330
1F
100
AcDbEntity
  8
AM_0
 48
2.0
100
AcDbLine
 10
212.5611628105783
 20
104.2156670494166
 30
0.0
 11
212.5611628105783
 21
103.9934448271943
 31
0.0
  0
LINE
  5
38053
330
1F
100
AcDbEntity
  8
AM_0
 48
2.0
100
AcDbLine
 10
212.5611628105783
 20
75.21566704941665
 30
0.0
 11
212.5611628105783
 21
75.43788927163888
 31
0.0
  0
CIRCLE
  5
38054
330
1F
100
AcDbEntity
  8
AM_0
 48
2.0
100
AcDbCircle
 10
240.8498536555176
 20
79.82244647993963
 30
0.0
 40
2.0
  0
CIRCLE
  5
38055
330
1F
100
AcDbEntity
  8
AM_0
 48
2.0
100
AcDbCircle
 10
240.8498536555176
 20
99.82244647993958
 30
0.0
 40
2.0
  0
LINE
  5
38056
330
1F
100
AcDbEntity
  8
AM_0
 48
2.0
100
AcDbLine
 10
237.0998536555176
 20
75.32244647993962
 30
0.0
 11
244.5998536555176
 21
75.32244647993962
 31
0.0
  0
LINE
  5
38057
330
1F
100
AcDbEntity
  8
AM_0
 48
2.0
100
AcDbLine
 10
245.5998536555175
 20
76.32244647993963
 30
0.0
 11
245.5998536555175
 21
103.3224464799396
 31
0.0
  0
LINE
  5
38058
330
1F
100
AcDbEntity
  8
AM_0
 48
2.0
100
AcDbLine
 10
244.5998536555176
 20
104.3224464799396
 30
0.0
 11
237.0998536555176
 21
104.3224464799396
 31
0.0
  0
LINE
  5
38059
330
1F
100
AcDbEntity
  8
AM_0
 48
2.0
100
AcDbLine
 10
236.0998536555176
 20
103.3224464799396
 30
0.0
 11
236.0998536555176
 21
76.32244647993963
 31
0.0
  0
LINE
  5
3805E
330
1F
100
AcDbEntity
  8
AM_0
 48
2.0
100
AcDbLine
 10
245.5998536555175
 20
76.32244647993963
 30
0.0
 11
244.5998536555176
 21
75.32244647993962
 31
0.0
1001
GENIUS_GENFIL_13
1070
     0
1040
1.0
1040
1.0
1040
0.0
1040
0.0
1002
{
1002
}
1001
GENIUS_GENODEF_13
1002
{
1000
HIER
1070
     0
1002
}
1002
{
1000
MANEDIT
1070
     0
1002
}
1002
{
1000
NOSEL
1070
     0
1002
}
1002
{
1000
BEHIND
1070
     0
1002
}
1002
{
1000
REACTOR
1002
}
1001
GENIUS_GENOBJ-N-CHA_13
1002
{
1000
OWNER
1000
GEN
1002
}
  0
LINE
  5
3805F
330
1F
100
AcDbEntity
  8
AM_0
 48
2.0
100
AcDbLine
 10
236.0998536555176
 20
76.32244647993963
 30
0.0
 11
237.0998536555176
 21
75.32244647993962
 31
0.0
1001
GENIUS_GENFIL_13
1070
     0
1040
1.0
1040
1.0
1040
0.0
1040
0.0
1002
{
1002
}
1001
GENIUS_GENODEF_13
1002
{
1000
HIER
1070
     0
1002
}
1002
{
1000
MANEDIT
1070
     0
1002
}
1002
{
1000
NOSEL
1070
     0
1002
}
1002
{
1000
BEHIND
1070
     0
1002
}
1002
{
1000
REACTOR
1002
}
1001
GENIUS_GENOBJ-N-CHA_13
1002
{
1000
OWNER
1000
GEN
1002
}
  0
LINE
  5
38060
330
1F
100
AcDbEntity
  8
AM_0
 48
2.0
100
AcDbLine
 10
236.0998536555176
 20
103.3224464799396
 30
0.0
 11
237.0998536555176
 21
104.3224464799396
 31
0.0
1001
GENIUS_GENFIL_13
1070
     0
1040
1.0
1040
1.0
1040
0.0
1040
0.0
1002
{
1002
}
1001
GENIUS_GENODEF_13
1002
{
1000
HIER
1070
     0
1002
}
1002
{
1000
MANEDIT
1070
     0
1002
}
1002
{
1000
NOSEL
1070
     0
1002
}
1002
{
1000
BEHIND
1070
     0
1002
}
1002
{
1000
REACTOR
1002
}
1001
GENIUS_GENOBJ-N-CHA_13
1002
{
1000
OWNER
1000
GEN
1002
}
  0
LINE
  5
38061
330
1F
100
AcDbEntity
  8
AM_0
 48
2.0
100
AcDbLine
 10
244.5998536555176
 20
104.3224464799396
 30
0.0
 11
245.5998536555175
 21
103.3224464799396
 31
0.0
1001
GENIUS_GENFIL_13
1070
     0
1040
1.0
1040
1.0
1040
0.0
1040
0.0
1002
{
1002
}
1001
GENIUS_GENODEF_13
1002
{
1000
HIER
1070
     0
1002
}
1002
{
1000
MANEDIT
1070
     0
1002
}
1002
{
1000
NOSEL
1070
     0
1002
}
1002
{
1000
BEHIND
1070
     0
1002
}
1002
{
1000
REACTOR
1002
}
1001
GENIUS_GENOBJ-N-CHA_13
1002
{
1000
OWNER
1000
GEN
1002
}
  0
LINE
  5
38062
330
1F
100
AcDbEntity
  8
AM_0
 48
2.0
100
AcDbLine
 10
244.0341682305683
 20
103.7567610549903
 30
0.0
 11
245.0341682305683
 21
102.7567610549903
 31
0.0
1001
GENIUS_GENFIL_13
1070
     0
1040
1.0
1040
1.0
1040
0.0
1040
0.0
1002
{
1002
}
1001
GENIUS_GENODEF_13
1002
{
1000
HIER
1070
     0
1002
}
1002
{
1000
MANEDIT
1070
     0
1002
}
1002
{
1000
NOSEL
1070
     0
1002
}
1002
{
1000
BEHIND
1070
     0
1002
}
1002
{
1000
REACTOR
1002
}
1001
GENIUS_GENOBJ-N-CHA_13
1002
{
1000
OWNER
1000
GEN
1002
}
  0
LINE
  5
38063
330
1F
100
AcDbEntity
  8
AM_0
 48
2.0
100
AcDbLine
 10
236.6655390804668
 20
102.7567610549903
 30
0.0
 11
237.6655390804668
 21
103.7567610549903
 31
0.0
1001
GENIUS_GENFIL_13
1070
     0
1040
1.0
1040
1.0
1040
0.0
1040
0.0
1002
{
1002
}
1001
GENIUS_GENODEF_13
1002
{
1000
HIER
1070
     0
1002
}
1002
{
1000
MANEDIT
1070
     0
1002
}
1002
{
1000
NOSEL
1070
     0
1002
}
1002
{
1000
BEHIND
1070
     0
1002
}
1002
{
1000
REACTOR
1002
}
1001
GENIUS_GENOBJ-N-CHA_13
1002
{
1000
OWNER
1000
GEN
1002
}
  0
LINE
  5
38064
330
1F
100
AcDbEntity
  8
AM_0
 48
2.0
100
AcDbLine
 10
245.0341682305683
 20
76.88813190488883
 30
0.0
 11
244.0341682305683
 21
75.88813190488884
 31
0.0
1001
GENIUS_GENFIL_13
1070
     0
1040
1.0
1040
1.0
1040
0.0
1040
0.0
1002
{
1002
}
1001
GENIUS_GENODEF_13
1002
{
1000
HIER
1070
     0
1002
}
1002
{
1000
MANEDIT
1070
     0
1002
}
1002
{
1000
NOSEL
1070
     0
1002
}
1002
{
1000
BEHIND
1070
     0
1002
}
1002
{
1000
REACTOR
1002
}
1001
GENIUS_GENOBJ-N-CHA_13
1002
{
1000
OWNER
1000
GEN
1002
}
  0
LINE
  5
38065
330
1F
100
AcDbEntity
  8
AM_0
 48
2.0
100
AcDbLine
 10
236.6655390804668
 20
76.88813190488883
 30
0.0
 11
237.6655390804668
 21
75.88813190488884
 31
0.0
1001
GENIUS_GENFIL_13
1070
     0
1040
1.0
1040
1.0
1040
0.0
1040
0.0
1002
{
1002
}
1001
GENIUS_GENODEF_13
1002
{
1000
HIER
1070
     0
1002
}
1002
{
1000
MANEDIT
1070
     0
1002
}
1002
{
1000
NOSEL
1070
     0
1002
}
1002
{
1000
BEHIND
1070
     0
1002
}
1002
{
1000
REACTOR
1002
}
1001
GENIUS_GENOBJ-N-CHA_13
1002
{
1000
OWNER
1000
GEN
1002
}
  0
LINE
  5
38066
330
1F
100
AcDbEntity
  8
AM_0
100
AcDbLine
 10
236.5998536555176
 20
103.8224464799395
 30
0.0
 11
237.1655390804668
 21
103.2567610549903
 31
0.0
  0
LINE
  5
38067
330
1F
100
AcDbEntity
  8
AM_0
100
AcDbLine
 10
245.0998536555176
 20
103.8224464799395
 30
0.0
 11
244.5341682305683
 21
103.2567610549903
 31
0.0
  0
LINE
  5
38068
330
1F
100
AcDbEntity
  8
AM_0
100
AcDbLine
 10
245.0998536555176
 20
75.82244647993963
 30
0.0
 11
244.5341682305683
 21
76.38813190488889
 31
0.0
  0
LINE
  5
38069
330
1F
100
AcDbEntity
  8
AM_0
100
AcDbLine
 10
237.1655390804668
 20
76.38813190488889
 30
0.0
 11
236.5998536555176
 21
75.82244647993963
 31
0.0
  0
LINE
  5
3806F
330
1F
100
AcDbEntity
  8
AM_0
100
AcDbLine
 10
236.0998536555176
 20
89.82244647993963
 30
0.0
 11
245.5998536555175
 21
89.82244647993963
 31
0.0
  0
CIRCLE
  5
38071
330
1F
100
AcDbEntity
  8
AM_0
100
AcDbCircle
 10
123.5951221062217
 20
105.3156670494163
 30
0.0
 40
2.049999999999998
  0
CIRCLE
  5
38072
330
1F
100
AcDbEntity
  8
AM_0
100
AcDbCircle
 10
123.5951221062217
 20
74.11566704941623
 30
0.0
 40
2.049999999999998
  0
LINE
  5
38187
330
1F
100
AcDbEntity
  8
AM_7
 48
0.5
100
AcDbLine
 10
118.5451221062218
 20
105.3156670494163
 30
0.0
 11
128.6451221062217
 21
105.3156670494163
 31
0.0
1001
GENIUS_GENODEF_13
1002
{
1000
HIER
1070
     0
1002
}
1002
{
1000
MANEDIT
1070
     0
1002
}
1002
{
1000
NOSEL
1070
     0
1002
}
1002
{
1000
BEHIND
1070
     0
1002
}
1002
{
1000
OTHER
1070
     0
1002
}
1002
{
1000
REACTOR
1002
}
1001
GENIUS_GENOBJ-N-CEN_13
1002
{
1000
OWNER
1000
GEN
1002
}
1001
GENIUS_GENCEN_19
1002
{
1040
3.0
1002
}
  0
LINE
  5
38189
330
1F
100
AcDbEntity
  8
AM_7
 48
0.5
100
AcDbLine
 10
118.545122106222
 20
74.11566704941623
 30
0.0
 11
128.6451221062219
 21
74.11566704941623
 31
0.0
1001
GENIUS_GENODEF_13
1002
{
1000
HIER
1070
     0
1002
}
1002
{
1000
MANEDIT
1070
     0
1002
}
1002
{
1000
NOSEL
1070
     0
1002
}
1002
{
1000
BEHIND
1070
     0
1002
}
1002
{
1000
OTHER
1070
     0
1002
}
1002
{
1000
REACTOR
1002
}
1001
GENIUS_GENOBJ-N-CEN_13
1002
{
1000
OWNER
1000
GEN
1002
}
1001
GENIUS_GENCEN_19
1002
{
1040
3.0
1002
}
  0
LINE
  5
3818F
330
1F
100
AcDbEntity
  8
AM_7
 48
0.5550000000000001
100
AcDbLine
 10
240.8498536555176
 20
107.3224464799396
 30
0.0
 11
240.8498536555176
 21
72.32244647993963
 31
0.0
1001
GENIUS_GENODEF_13
1002
{
1000
HIER
1070
     0
1002
}
1002
{
1000
MANEDIT
1070
     0
1002
}
1002
{
1000
NOSEL
1070
     0
1002
}
1002
{
1000
BEHIND
1070
     0
1002
}
1002
{
1000
OTHER
1070
     0
1002
}
1002
{
1000
REACTOR
1002
}
1001
GENIUS_GENOBJ-N-CEN_13
1002
{
1000
OWNER
1000
GEN
1002
}
1001
GENIUS_GENCEN_19
1002
{
1040
3.0
1002
}
  0
LINE
  5
38190
330
1F
100
AcDbEntity
  8
AM_7
 48
0.5
100
AcDbLine
 10
235.8498536555176
 20
79.8224464799382
 30
0.0
 11
245.8498536555175
 21
79.82244647994139
 31
0.0
1001
GENIUS_GENODEF_13
1002
{
1000
HIER
1070
     0
1002
}
1002
{
1000
MANEDIT
1070
     0
1002
}
1002
{
1000
NOSEL
1070
     0
1002
}
1002
{
1000
BEHIND
1070
     0
1002
}
1002
{
1000
OTHER
1070
     0
1002
}
1002
{
1000
REACTOR
1002
}
1001
GENIUS_GENOBJ-N-CEN_13
1002
{
1000
OWNER
1000
GEN
1002
}
1001
GENIUS_GENCEN_19
1002
{
1040
3.0
1002
}
  0
LINE
  5
38191
330
1F
100
AcDbEntity
  8
AM_7
 48
0.5
100
AcDbLine
 10
235.8498536555176
 20
99.82244647993816
 30
0.0
 11
245.8498536555175
 21
99.82244647994134
 31
0.0
1001
GENIUS_GENODEF_13
1002
{
1000
HIER
1070
     0
1002
}
1002
{
1000
MANEDIT
1070
     0
1002
}
1002
{
1000
NOSEL
1070
     0
1002
}
1002
{
1000
BEHIND
1070
     0
1002
}
1002
{
1000
OTHER
1070
     0
1002
}
1002
{
1000
REACTOR
1002
}
1001
GENIUS_GENOBJ-N-CEN_13
1002
{
1000
OWNER
1000
GEN
1002
}
1001
GENIUS_GENCEN_19
1002
{
1040
3.0
1002
}
  0
DIMENSION
  5
381DD
330
1F
100
AcDbEntity
  8
AM_5
100
AcDbDimension
  2
*D6
 10
140.6451221062219
 20
105.3156670494163
 30
0.0
 11
137.5451221062219
 21
89.71566704941627
 31
0.0
 70
    32
 71
     5
 42
31.20000000000004
  3
SYS$0
100
AcDbAlignedDimension
 13
128.6451221062219
 23
74.11566704941623
 33
0.0
 14
128.6451221062217
 24
105.3156670494163
 34
0.0
 50
90.0
100
AcDbRotatedDimension
  0
DIMENSION
  5
381FC
330
1F
100
AcDbEntity
  8
AM_5
100
AcDbDimension
  2
*D7
 10
150.645122106222
 20
68.91566704941635
 30
0.0
 11
147.545122106222
 21
89.71566704941627
 31
0.0
 70
    32
 71
     5
 42
41.59999999999979
  3
SYS$0
100
AcDbAlignedDimension
 13
126.7951221062218
 23
110.5156670494161
 33
0.0
 14
126.7951221062219
 24
68.91566704941635
 34
0.0
 50
90.0
100
AcDbRotatedDimension
  0
DIMENSION
  5
38234
330
1F
100
AcDbEntity
  8
AM_5
100
AcDbDimension
  2
*D8
 10
51.63183383806575
 20
81.71566704941637
 30
0.0
 11
48.53183383806573
 21
89.71566704941629
 31
0.0
 70
    32
 71
     5
 42
15.99999999999983
  3
SYS$0
100
AcDbAlignedDimension
 13
63.63183383806575
 23
97.71566704941619
 33
0.0
 14
63.63183383806585
 24
81.71566704941637
 34
0.0
 50
90.0
100
AcDbRotatedDimension
  0
DIMENSION
  5
3824A
330
1F
100
AcDbEntity
  8
AM_5
100
AcDbDimension
  2
*D9
 10
76.03183383806584
 20
122.5156670494162
 30
0.0
 11
69.43183383806581
 21
125.6156670494162
 31
0.0
 70
    32
 71
     5
 42
13.20000000000003
  3
SYS$0
100
AcDbAlignedDimension
 13
62.8318338380658
 23
96.91566704941619
 33
0.0
 14
76.03183383806584
 24
110.5156670494162
 34
0.0
100
AcDbRotatedDimension
  0
DIMENSION
  5
382A8
330
1F
100
AcDbEntity
  8
AM_5
100
AcDbDimension
  2
*D10
 10
91.12247993776646
 20
132.5156670494162
 30
0.0
 11
76.9771568879161
 21
135.6156670494162
 31
0.0
 70
    32
  1
（<>）
 71
     5
 42
28.29064609970071
  3
SYS$0
100
AcDbAlignedDimension
 13
62.83183383806575
 23
96.91566704941619
 33
0.0
 14
91.12247993776646
 24
94.21566704943382
 34
0.0
100
AcDbRotatedDimension
1001
ACAD
1000
DSTYLE
1002
{
1070
   271
1070
     1
1002
}
  0
DIMENSION
  5
382D0
330
1F
100
AcDbEntity
  8
AM_5
100
AcDbDimension
  2
*D11
 10
51.63183383806584
 20
38.05998189814349
 30
0.0
 11
48.53183383806584
 21
44.55998189814452
 31
0.0
 70
    32
 71
     5
 42
13.00000000000203
  3
SYS$0
100
AcDbAlignedDimension
 13
63.63183383806585
 23
51.05998189814553
 33
0.0
 14
63.63183383806585
 24
38.05998189814349
 34
0.0
 50
90.00000000000019
100
AcDbRotatedDimension
  0
DIMENSION
  5
382E6
330
1F
100
AcDbEntity
  8
AM_5
100
AcDbDimension
  2
*D12
 10
41.63183383806599
 20
52.25998189814678
 30
0.0
 11
38.53183383806598
 21
44.55998189814802
 31
0.0
 70
    32
  1
（<>）
 71
     5
 42
15.39999999999755
  3
SYS$0
100
AcDbAlignedDimension
 13
71.35266351658119
 23
36.85998189814923
 33
0.0
 14
71.35266351658106
 24
52.25998189814678
 34
0.0
 50
90.0
100
AcDbRotatedDimension
  0
DIMENSION
  5
38318
330
1F
100
AcDbEntity
  8
AM_5
100
AcDbDimension
  2
*D13
 10
188.8483336759522
 20
86.46566704941665
 30
0.0
 11
185.7483336759522
 21
81.67233371608334
 31
0.0
 70
    32
 71
     5
 42
6.5
  3
SYS$0
100
AcDbAlignedDimension
 13
200.5611628105784
 23
92.96566704941666
 33
0.0
 14
200.5611628105784
 24
86.46566704941665
 34
0.0
 50
90.0
100
AcDbRotatedDimension
  0
DIMENSION
  5
38345
330
1F
100
AcDbEntity
  8
AM_5
100
AcDbDimension
  2
*D14
 10
178.8483336759523
 20
75.21566704941665
 30
0.0
 11
175.7483336759522
 21
89.71566704941665
 31
0.0
 70
    32
 71
     5
 42
28.99999999999995
  3
SYS$0
100
AcDbAlignedDimension
 13
211.7611628105783
 23
104.2156670494166
 33
0.0
 14
211.7611628105783
 24
75.21566704941665
 34
0.0
 50
90.0
100
AcDbRotatedDimension
  0
DIMENSION
  5
3835B
330
1F
100
AcDbEntity
  8
AM_5
100
AcDbDimension
  2
*D15
 10
196.0611628105783
 20
122.5156670494162
 30
0.0
 11
204.3111628105783
 21
125.6156670494162
 31
0.0
 70
    32
 71
     5
 42
16.50000000000005
  3
SYS$0
100
AcDbAlignedDimension
 13
212.5611628105783
 23
102.7156670494166
 33
0.0
 14
196.0611628105783
 24
89.71566704941665
 34
0.0
100
AcDbRotatedDimension
  0
DIMENSION
  5
38371
330
1F
100
AcDbEntity
  8
AM_5
100
AcDbDimension
  2
*D16
 10
213.5611628105784
 20
132.5156670494161
 30
0.0
 11
204.8111628105783
 21
135.6156670494161
 31
0.0
 70
    32
  1
（<>）
 71
     5
 42
17.50000000000006
  3
SYS$0
100
AcDbAlignedDimension
 13
196.0611628105783
 23
89.71566704941665
 33
0.0
 14
213.5611628105784
 24
103.7156670494166
 34
0.0
100
AcDbRotatedDimension
  0
DIMENSION
  5
383CB
330
1F
100
AcDbEntity
  8
AM_5
100
AcDbDimension
  2
*D17
 10
257.5998546555225
 20
79.82244647994139
 30
0.0
 11
254.4998546555225
 21
89.82244647994141
 31
0.0
 70
    32
 71
     5
 42
19.99999999999994
  3
SYS$0
100
AcDbAlignedDimension
 13
245.8498536555175
 23
99.82244647994134
 33
0.0
 14
245.8498536555175
 24
79.82244647994139
 34
0.0
 50
90.00000000001824
100
AcDbRotatedDimension
  0
MTEXT
  5
384C4
330
1F
100
AcDbEntity
  8
AM_6
100
AcDbMText
 10
223.7913988701577
 20
58.37565534212835
 30
0.0
 40
3.2
 41
21.97092361410438
 71
     5
 72
     5
  1
{\L角型ストライク}
 73
     1
 44
1.0
1001
ACAD
1000
MTEXTBEGIN
1070
    73
1070
     1
1070
    44
1040
1.0
1070
    74
1070
     0
1000
MTEXTEND
1000
ACAD_MTEXT_DEFINED_HEIGHT_BEGIN
1070
    46
1040
7.270356101909213
1000
ACAD_MTEXT_DEFINED_HEIGHT_END
  0
LINE
  5
385DC
330
1F
100
AcDbEntity
  8
AM_5
100
AcDbLine
 10
260.3673473182374
 20
122.5156670494162
 30
0.0
 11
249.5340139849041
 21
122.5156670494162
 31
0.0
  0
LINE
  5
385DD
330
1F
100
AcDbEntity
  8
AM_5
100
AcDbLine
 10
249.5340139849041
 20
122.5156670494162
 30
0.0
 11
242.279457771414
 21
103.5582505529353
 31
0.0
  0
MTEXT
  5
385DF
330
1F
100
AcDbEntity
  8
AM_5
 62
     2
100
AcDbMText
 10
255.7006806515707
 20
125.7656670494162
 30
0.0
 40
3.5
 41
0.0
 71
     5
 72
     1
  1
2-\U+22054
 73
     1
 44
1.0
1001
ACAD
1000
MTEXTBEGIN
1070
    73
1070
     1
1070
    44
1040
1.0
1070
    74
1070
     0
1000
MTEXTEND
  0
LINE
  5
385E0
330
1F
100
AcDbEntity
  8
AM_5
100
AcDbLine
 10
240.1350515975693
 20
97.95454444344171
 30
0.0
 11
241.5646557134658
 21
101.6903485164375
 31
0.0
  0
INSERT
  5
385E1
330
1F
100
AcDbEntity
  8
AM_5
100
AcDbBlockReference
  2
GENDOT
 10
240.1350515975693
 20
97.95454444344171
 30
0.0
 41
2.0
 42
2.0
 43
2.0
 50
69.05933015270868
  0
INSERT
  5
385E2
330
1F
100
AcDbEntity
  8
AM_5
100
AcDbBlockReference
  2
GENDOT
 10
241.5646557134658
 20
101.6903485164375
 30
0.0
 41
1.999999999999998
 42
2.0
 43
2.0
 50
249.0593301527086
  0
LINE
  5
385E3
330
1F
100
AcDbEntity
  8
AM_5
100
AcDbLine
 10
101.4461774930551
 20
122.5156670494161
 30
0.0
 11
114.9628441597217
 21
122.5156670494161
 31
0.0
  0
LINE
  5
385E4
330
1F
100
AcDbEntity
  8
AM_5
100
AcDbLine
 10
114.9628441597217
 20
122.5156670494161
 30
0.0
 11
121.7784748141303
 21
108.9353759625938
 31
0.0
  0
MTEXT
  5
385E6
330
1F
100
AcDbEntity
  8
AM_5
 62
     2
100
AcDbMText
 10
107.4545108263884
 20
125.7656670494161
 30
0.0
 40
3.5
 41
0.0
 71
     5
 72
     1
  1
2-\U+22054.1
 73
     1
 44
1.0
1001
ACAD
1000
MTEXTBEGIN
1070
    73
1070
     1
1070
    44
1040
1.0
1070
    74
1070
     0
1000
MTEXTEND
  0
LINE
  5
385E7
330
1F
100
AcDbEntity
  8
AM_5
100
AcDbLine
 10
124.5146596244407
 20
103.4834687106473
 30
0.0
 11
122.6755845880025
 21
107.1478653881851
 31
0.0
  0
INSERT
  5
385E8
330
1F
100
AcDbEntity
  8
AM_5
100
AcDbBlockReference
  2
GENDOT
 10
124.5146596244407
 20
103.4834687106473
 30
0.0
 41
1.999999999999998
 42
2.0
 43
2.0
 50
116.6510047359731
  0
INSERT
  5
385E9
330
1F
100
AcDbEntity
  8
AM_5
100
AcDbBlockReference
  2
GENDOT
 10
122.6755845880025
 20
107.1478653881851
 30
0.0
 41
1.999999999999997
 42
2.0
 43
2.0
 50
296.6510047359731
  0
LINE
  5
38608
330
1F
100
AcDbEntity
  8
AM_7
 48
0.5
100
AcDbLine
 10
123.5951221062213
 20
100.2656670494156
 30
0.0
 11
123.5951221062213
 21
110.3656670494155
 31
0.0
1001
GENIUS_GENODEF_13
1002
{
1000
HIER
1070
     0
1002
}
1002
{
1000
MANEDIT
1070
     0
1002
}
1002
{
1000
NOSEL
1070
     0
1002
}
1002
{
1000
BEHIND
1070
     0
1002
}
1002
{
1000
OTHER
1070
     0
1002
}
1002
{
1000
REACTOR
1002
}
1001
GENIUS_GENOBJ-N-CEN_13
1002
{
1000
OWNER
1000
GEN
1002
}
1001
GENIUS_GENCEN_19
1002
{
1040
3.0
1002
}
  0
LINE
  5
38609
330
1F
100
AcDbEntity
  8
AM_7
 48
0.5
100
AcDbLine
 10
123.5951221062213
 20
69.06566704941628
 30
0.0
 11
123.5951221062213
 21
79.16566704941619
 31
0.0
1001
GENIUS_GENODEF_13
1002
{
1000
HIER
1070
     0
1002
}
1002
{
1000
MANEDIT
1070
     0
1002
}
1002
{
1000
NOSEL
1070
     0
1002
}
1002
{
1000
BEHIND
1070
     0
1002
}
1002
{
1000
OTHER
1070
     0
1002
}
1002
{
1000
REACTOR
1002
}
1001
GENIUS_GENOBJ-N-CEN_13
1002
{
1000
OWNER
1000
GEN
1002
}
1001
GENIUS_GENCEN_19
1002
{
1040
3.0
1002
}
  0
DIMENSION
  5
3860A
330
1F
100
AcDbEntity
  8
AM_5
100
AcDbDimension
  2
*D19
 10
129.3451221062218
 20
122.5156670494161
 30
0.0
 11
123.5951221062218
 21
125.6156670494161
 31
0.0
 70
    32
 71
     5
 42
11.49999999999987
  3
SYS$0
100
AcDbAlignedDimension
 13
117.8451221062219
 23
108.0156670494161
 33
0.0
 14
129.3451221062218
 24
108.0156670494161
 34
0.0
100
AcDbRotatedDimension
  0
DIMENSION
  5
386B2
330
1F
100
AcDbEntity
  8
AM_5
100
AcDbDimension
  2
*D20
 10
245.5998536555175
 20
122.515667049416
 30
0.0
 11
240.8498536555176
 21
125.615667049416
 31
0.0
 70
    32
 71
     5
 42
9.5
  3
SYS$0
100
AcDbAlignedDimension
 13
236.0998536555176
 23
103.3224464799396
 33
0.0
 14
245.5998536555175
 24
103.3224464799396
 34
0.0
100
AcDbRotatedDimension
  0
LINE
  5
386EF
330
1F
100
AcDbEntity
  8
AM_7
 48
0.5
100
AcDbLine
 10
94.12247993776645
 20
94.21566704944495
 30
0.0
 11
79.12247993776645
 21
94.21566704944495
 31
0.0
1001
GENIUS_GENODEF_13
1002
{
1000
HIER
1070
     0
1002
}
1002
{
1000
MANEDIT
1070
     0
1002
}
1002
{
1000
NOSEL
1070
     0
1002
}
1002
{
1000
BEHIND
1070
     0
1002
}
1002
{
1000
OTHER
1070
     0
1002
}
1002
{
1000
REACTOR
1002
}
1001
GENIUS_GENOBJ-N-CEN_13
1002
{
1000
OWNER
1000
GEN
1002
}
1001
GENIUS_GENCEN_19
1002
{
1040
3.0
1002
}
  0
LINE
  5
386F0
330
1F
100
AcDbEntity
  8
AM_7
 48
0.5
100
AcDbLine
 10
86.62247993776645
 20
101.7156670494449
 30
0.0
 11
86.62247993776645
 21
86.71566704944495
 31
0.0
1001
GENIUS_GENODEF_13
1002
{
1000
HIER
1070
     0
1002
}
1002
{
1000
MANEDIT
1070
     0
1002
}
1002
{
1000
NOSEL
1070
     0
1002
}
1002
{
1000
BEHIND
1070
     0
1002
}
1002
{
1000
OTHER
1070
     0
1002
}
1002
{
1000
REACTOR
1002
}
1001
GENIUS_GENOBJ-N-CEN_13
1002
{
1000
OWNER
1000
GEN
1002
}
1001
GENIUS_GENCEN_19
1002
{
1040
3.0
1002
}
  0
LINE
  5
386F1
330
1F
100
AcDbEntity
  8
AM_7
 48
0.5
100
AcDbLine
 10
94.12247993776645
 20
85.215667049442
 30
0.0
 11
79.12247993776645
 21
85.215667049442
 31
0.0
1001
GENIUS_GENODEF_13
1002
{
1000
HIER
1070
     0
1002
}
1002
{
1000
MANEDIT
1070
     0
1002
}
1002
{
1000
NOSEL
1070
     0
1002
}
1002
{
1000
BEHIND
1070
     0
1002
}
1002
{
1000
OTHER
1070
     0
1002
}
1002
{
1000
REACTOR
1002
}
1001
GENIUS_GENOBJ-N-CEN_13
1002
{
1000
OWNER
1000
GEN
1002
}
1001
GENIUS_GENCEN_19
1002
{
1040
3.0
1002
}
  0
LINE
  5
386F2
330
1F
100
AcDbEntity
  8
AM_7
 48
0.5
100
AcDbLine
 10
86.62247993776645
 20
92.715667049442
 30
0.0
 11
86.62247993776645
 21
77.715667049442
 31
0.0
1001
GENIUS_GENODEF_13
1002
{
1000
HIER
1070
     0
1002
}
1002
{
1000
MANEDIT
1070
     0
1002
}
1002
{
1000
NOSEL
1070
     0
1002
}
1002
{
1000
BEHIND
1070
     0
1002
}
1002
{
1000
OTHER
1070
     0
1002
}
1002
{
1000
REACTOR
1002
}
1001
GENIUS_GENOBJ-N-CEN_13
1002
{
1000
OWNER
1000
GEN
1002
}
1001
GENIUS_GENCEN_19
1002
{
1040
3.0
1002
}
  0
LINE
  5
386F3
330
1F
100
AcDbEntity
  8
AM_7
 48
0.5
100
AcDbLine
 10
59.83183383806579
 20
89.71566704941267
 30
0.0
 11
94.12247993776645
 21
89.71566704944857
 31
0.0
1001
GENIUS_GENOBJ-N-CEN_13
1002
{
1000
OWNER
1000
GEN
1002
}
1001
GENIUS_GENODEF_13
1002
{
1000
HIER
1070
     0
1002
}
1002
{
1000
MANEDIT
1070
     0
1002
}
1002
{
1000
NOSEL
1070
     0
1002
}
1002
{
1000
BEHIND
1070
     0
1002
}
1002
{
1000
OTHER
1070
     0
1002
}
1002
{
1000
REACTOR
1002
}
1001
GENIUS_GENCEN_19
1002
{
1040
3.0
1002
}
  0
LINE
  5
386FC
330
1F
100
AcDbEntity
  8
AM_7
 48
0.8
100
AcDbLine
 10
86.62247993777361
 20
54.25998189814837
 30
0.0
 11
86.62247993778009
 21
35.25998189814345
 31
0.0
1001
GENIUS_GENOBJ-N-CEN_13
1002
{
1000
OWNER
1000
GEN
1002
}
1001
GENIUS_GENODEF_13
1002
{
1000
HIER
1070
     0
1002
}
1002
{
1000
MANEDIT
1070
     0
1002
}
1002
{
1000
NOSEL
1070
     0
1002
}
1002
{
1000
BEHIND
1070
     0
1002
}
1002
{
1000
OTHER
1070
     0
1002
}
1002
{
1000
REACTOR
1002
}
1001
GENIUS_GENCEN_19
1002
{
1040
3.0
1002
}
  0
ENDSEC
  0
SECTION
  2
OBJECTS
  0
DICTIONARY
  5
C
330
0
100
AcDbDictionary
281
     1
  3
ACAD_2007HEADERVARS_RT
350
388F7
  3
ACAD_BGPLOT_KEY
350
AB06
  3
ACAD_COLOR
350
A91D
  3
ACAD_GROUP
350
D
  3
ACAD_LAYOUT
350
1A
  3
ACAD_MATERIAL
350
A91C
  3
ACAD_MLINESTYLE
350
17
  3
ACAD_PLOTSETTINGS
350
19
  3
ACAD_PLOTSTYLENAME
350
E
  3
ACAD_TABLESTYLE
350
AAB9
  3
ACAD_VISUALSTYLE
350
B0F1
  3
AcAsAppObject
350
3DA1
  3
ACASGREF_MASTER
350
3DE9
  3
AcDbVariableDictionary
350
34
  3
AcmDictionary
350
47
  3
AD_GREF_MODULE
350
3DEA
  3
AD_MAPI_MODULE
350
3E06
  3
AMG
350
2B
  3
AMGSNAPSETTINGS
350
7D
  3
ASE_INDEX_DICTIONARY
350
B331
  3
DWGPROPS
350
388F6
  3
MAPISURF_MODULE
350
3DEB
  0
DICTIONARY
  5
3F95
330
2
100
AcDbDictionary
280
     1
281
     1
  3
ACAD_LAYERFILTERS
360
B466
  3
ACAD_LAYERSTATES
360
3F96
  3
ACLYDICTIONARY
360
B465
  3
AMLAYER_GROUPCOLORS
360
AAB4
  0
DICTIONARY
  5
8A
330
1F
100
AcDbDictionary
280
     1
281
     1
  3
ACAD_SORTENTS
360
B1BA
  0
DICTIONARY
  5
388F7
102
{ACAD_REACTORS
330
C
102
}
330
C
100
AcDbDictionary
281
     1
  3
DIMARCSYM
350
388F8
  0
DICTIONARY
  5
AB06
102
{ACAD_REACTORS
330
C
102
}
330
C
100
AcDbDictionary
280
     1
281
     1
  0
DICTIONARY
  5
A91D
102
{ACAD_REACTORS
330
C
102
}
330
C
100
AcDbDictionary
281
     1
  0
DICTIONARY
  5
D
102
{ACAD_REACTORS
330
C
102
}
330
C
100
AcDbDictionary
281
     1
  0
DICTIONARY
  5
1A
102
{ACAD_REACTORS
330
C
102
}
330
C
100
AcDbDictionary
281
     1
  3
Model
350
22
  3
ﾚｲｱｳﾄ1
350
1E
  3
ﾚｲｱｳﾄ2
350
26
  0
DICTIONARY
  5
A91C
102
{ACAD_REACTORS
330
C
102
}
330
C
100
AcDbDictionary
281
     1
  3
ByBlock
350
B0EF
  3
ByLayer
350
B0EE
  3
Global
350
B0F0
  0
DICTIONARY
  5
17
102
{ACAD_REACTORS
330
C
102
}
330
C
100
AcDbDictionary
281
     1
  3
Standard
350
18
  0
DICTIONARY
  5
19
102
{ACAD_REACTORS
330
C
102
}
330
C
100
AcDbDictionary
281
     1
  0
ACDBDICTIONARYWDFLT
  5
E
102
{ACAD_REACTORS
330
C
102
}
330
C
100
AcDbDictionary
281
     1
  3
Normal
350
F
100
AcDbDictionaryWithDefault
340
F
  0
DICTIONARY
  5
AAB9
102
{ACAD_REACTORS
330
C
102
}
330
C
100
AcDbDictionary
281
     1
  3
Standard
350
AABA
  0
DICTIONARY
  5
B0F1
102
{ACAD_REACTORS
330
C
102
}
330
C
100
AcDbDictionary
281
     1
  3
2dWireframe
350
B0F7
  3
3D Hidden
350
B0F9
  3
3dWireframe
350
B0F8
  3
Basic
350
B0F6
  3
Brighten
350
B0FD
  3
ColorChange
350
B101
  3
Conceptual
350
B0FA
  3
Dim
350
B0FC
  3
Facepattern
350
B100
  3
Flat
350
B0F2
  3
FlatWithEdges
350
B0F3
  3
Gouraud
350
B0F4
  3
GouraudWithEdges
350
B0F5
  3
Linepattern
350
B0FF
  3
Realistic
350
B0FB
  3
Thicken
350
B0FE
  0
ACAD_PROXY_OBJECT
  5
3DA1
102
{ACAD_REACTORS
330
C
102
}
330
C
100
AcDbProxyObject
 90
      499
 91
      576
 95
   917527
 70
     0
 93
       10
310
407F
 94
        0
1001
ACAD
1000
AcRTDxfName
1000
ASAPP
  0
ACAD_PROXY_OBJECT
  5
3DE9
102
{ACAD_REACTORS
330
C
102
}
330
C
100
AcDbProxyObject
 90
      499
 91
      581
 95
   917527
 70
     0
 93
       34
310
010000407F
 94
        0
1001
ACAD
1000
AcRTDxfName
1000
ACASGREFMASTER
  0
DICTIONARY
  5
34
102
{ACAD_REACTORS
330
C
102
}
330
C
100
AcDbDictionary
281
     1
  3
CTABLESTYLE
350
AAF3
  3
DIMASSOC
350
A10C
  3
FIELDEVAL
350
AB07
  3
INDEXCTL
350
35
  3
SORTENTS
350
194C
  0
DICTIONARY
  5
47
102
{ACAD_REACTORS
330
C
102
}
330
C
100
AcDbDictionary
281
     1
  3
AcmBOM
350
7E8
  3
AcmStdDictionary
350
4C
  3
AMDTSECTSYM_ARROWCOLOR
350
A929
  0
ACAD_PROXY_OBJECT
  5
3DEA
102
{ACAD_REACTORS
330
C
102
}
330
C
100
AcDbProxyObject
 90
      499
 91
      582
 95
   917527
 70
     0
 93
      114
310
00000043800000000000000000003F
 94
        0
1001
ACAD
1000
AcRTDxfName
1000
ACADGREFMODULE
  0
ACAD_PROXY_OBJECT
  5
3E06
102
{ACAD_REACTORS
330
C
102
}
330
C
100
AcDbProxyObject
 90
      499
 91
      594
 95
   917527
 70
     0
 93
       34
310
05000044FF
 94
        0
1001
ACAD
1000
AcRTDxfName
1000
MAPIADMODULE
  0
DICTIONARY
  5
2B
102
{ACAD_REACTORS
330
C
102
}
330
C
100
AcDbDictionary
281
     1
  0
DICTIONARY
  5
7D
102
{ACAD_REACTORS
330
C
102
}
330
C
100
AcDbDictionary
281
     1
  0
DICTIONARY
  5
B331
102
{ACAD_REACTORS
330
C
102
}
330
C
100
AcDbDictionary
281
     1
  3
ASEBlockHierarchyIndexRecord
350
B332
1001
DCO15
1040
1594111214.218
  0
XRECORD
  5
388F6
102
{ACAD_REACTORS
330
C
102
}
330
C
100
AcDbXrecord
280
     1
  1
DWGPROPS COOKIE
  2

  3

  4

  6

  7

  8
Administrator
  9

300
AmdtFileType=84
301
=
302
=
303
=
304
=
305
=
306
=
307
=
308
=
309
=
 40
0.8562870254629629
 41
2456027.598682176
 42
2456269.588668611
  1

 90
        1
  0
ACAD_PROXY_OBJECT
  5
3DEB
102
{ACAD_REACTORS
330
C
102
}
330
C
100
AcDbProxyObject
 90
      499
 91
      583
 95
   917527
 70
     0
 93
        8
310
047E
 94
        0
1001
ACAD
1000
AcRTDxfName
1000
AMDTMAPISURFMOUDULE
  0
DICTIONARY
  5
B466
102
{ACAD_REACTORS
330
3F95
102
}
330
3F95
100
AcDbDictionary
281
     1
  0
DICTIONARY
  5
3F96
102
{ACAD_REACTORS
330
3F95
102
}
330
3F95
100
AcDbDictionary
281
     1
  3
20011210
350
3FB7
  0
DICTIONARY
  5
B465
102
{ACAD_REACTORS
330
3F95
102
}
330
3F95
100
AcDbDictionary
281
     1
1001
ACAD
1000
<All
  0
DICTIONARY
  5
AAB4
102
{ACAD_REACTORS
330
3F95
102
}
330
3F95
100
AcDbDictionary
280
     1
281
     1
  0
SORTENTSTABLE
  5
B1BA
102
{ACAD_REACTORS
330
8A
102
}
330
8A
100
AcDbSortentsTable
330
1F
331
37F54
  5
37F54
331
37F93
  5
37F93
331
37FCA
  5
37FCA
331
38009
  5
38009
331
38040
  5
38040
331
37F5C
  5
37F5C
331
37F9B
  5
37F9B
331
37FD2
  5
37FD2
331
38011
  5
38011
331
3818F
  5
3818F
331
37F2D
  5
37F1D
331
37F64
  5
37F64
331
37FA3
  5
37FA3
331
37FDA
  5
37FDA
331
38019
  5
38019
331
38050
  5
38050
331
37F6C
  5
37F6C
331
37FE2
  5
37FE2
331
38058
  5
38058
331
385E3
  5
3856F
331
37FEA
  5
37FEA
331
37F35
  5
37F34
331
37FAB
  5
37FAB
331
38060
  5
38060
331
38021
  5
38021
331
37F3D
  5
37F3D
331
37F7C
  5
37F7C
331
37FB3
  5
37FB3
331
37FF2
  5
37FF2
331
38029
  5
38029
331
37F45
  5
37F45
331
37F84
  5
37F84
331
37FBB
  5
37FBB
331
37FFA
  5
37FFA
331
38068
  5
38068
331
38031
  5
38031
331
37F4D
  5
37F4D
331
37F8C
  5
37F8C
331
37FC3
  5
37FC3
331
38002
  5
38002
331
38039
  5
38039
331
38345
  5
38345
331
384C4
  5
384C4
331
25143
  5
25143
331
2514B
  5
2514B
331
25153
  5
25153
331
37F55
  5
37F55
331
37F94
  5
37F94
331
37FCB
  5
37FCB
331
3800A
  5
3800A
331
38041
  5
38041
331
37F5D
  5
37F5D
331
37F9C
  5
37F9C
331
37FD3
  5
37FD3
331
38012
  5
38012
331
38190
  5
38190
331
37F2E
  5
37F2D
331
37F65
  5
37F65
331
37FA4
  5
37FA4
331
37FDB
  5
37FDB
331
3801A
  5
3801A
331
38051
  5
38051
331
37F6D
  5
37F6D
331
382E6
  5
382E6
331
385DC
  5
385E4
331
38059
  5
38059
331
385E4
  5
385DC
331
37FEB
  5
37FEB
331
37F75
  5
37F75
331
37F36
  5
37F35
331
37FAC
  5
37FAC
331
38061
  5
38061
331
37F7D
  5
37F7D
331
37FB4
  5
37FB4
331
37FF3
  5
37FF3
331
3802A
  5
3802A
331
37F46
  5
37F46
331
37F85
  5
37F85
331
37FFB
  5
37FFB
331
38069
  5
38069
331
38032
  5
38032
331
37F4E
  5
37F4E
331
37F8D
  5
37F8D
331
37FC4
  5
37FC4
331
38003
  5
38003
331
38071
  5
38071
331
3803A
  5
3803A
331
25144
  5
25144
331
2514C
  5
2514C
331
37FCC
  5
37FCC
331
3800B
  5
3800B
331
38042
  5
38042
331
37FD4
  5
37FD4
331
38013
  5
38013
331
38189
  5
38189
331
3804A
  5
3804A
331
37F2F
  5
37F2E
331
37FA5
  5
37FA5
331
37FDC
  5
37FDC
331
3801B
  5
3801B
331
38191
  5
38191
331
385DD
  5
385E5
331
38052
  5
38052
331
37FE4
  5
37FE4
331
37551
  5
37551
331
37FEC
  5
37FEC
331
37F76
  5
37F76
331
37F37
  5
37F36
331
37FAD
  5
37FAD
331
38062
  5
38062
331
37F3F
  5
37F3F
331
37F7E
  5
37F7E
331
37FB5
  5
37FB5
331
37FF4
  5
37FF4
331
3802B
  5
3802B
331
37F47
  5
37F47
331
37F86
  5
37F86
331
37FFC
  5
37FFC
331
382A8
  5
382A8
331
38033
  5
38033
331
37F4F
  5
37F4F
331
37F8E
  5
37F8E
331
37FC5
  5
37FC5
331
38004
  5
38004
331
38072
  5
38072
331
3803B
  5
3803B
331
382D0
  5
382D0
331
25145
  5
25145
331
2514D
  5
2514D
331
37F57
  5
37F57
331
37F96
  5
37F96
331
37FCD
  5
37FCD
331
3800C
  5
3800C
331
38043
  5
38043
331
37F9E
  5
37F9E
331
37FD5
  5
37FD5
331
38014
  5
38014
331
3804B
  5
3804B
331
37F67
  5
37F67
331
37FA6
  5
37FA6
331
37FDD
  5
37FDD
331
3801C
  5
3801C
331
38053
  5
38053
331
385E6
  5
385DF
331
37F30
  5
37F2F
331
37FED
  5
37FED
331
37F38
  5
37F37
331
375E2
  5
375E2
331
37F77
  5
37F77
331
37FAE
  5
37FAE
331
38063
  5
38063
331
37F40
  5
37F40
331
37F7F
  5
37F7F
331
37FB6
  5
37FB6
331
37FF5
  5
37FF5
331
38318
  5
38318
331
3802C
  5
3802C
331
37F48
  5
37F48
331
37F87
  5
37F87
331
37FBE
  5
37FBE
331
37FFD
  5
37FFD
331
38034
  5
38034
331
37F8F
  5
37F8F
331
37FC6
  5
37FC6
331
38005
  5
38005
331
3803C
  5
3803C
331
25146
  5
25146
331
37F50
  5
37F50
331
37F58
  5
37F58
331
37F97
  5
37F97
331
37FCE
  5
37FCE
331
3800D
  5
3800D
331
38044
  5
38044
331
37F9F
  5
37F9F
331
37FD6
  5
37FD6
331
38015
  5
38015
331
3804C
  5
3804C
331
37F68
  5
37F68
331
37FA7
  5
37FA7
331
3801D
  5
3801D
331
385DF
  5
385E6
331
38054
  5
38054
331
37FE6
  5
37FE6
331
385E7
  5
385E0
331
3824A
  5
3824A
331
16B8B
  5
16B7B
331
37F70
  5
37F70
331
37F31
  5
37F30
331
37FEE
  5
37FEE
331
37F78
  5
37F78
331
37FAF
  5
37FAF
331
38064
  5
38064
331
37F41
  5
37F41
331
37F80
  5
37F80
331
37FB7
  5
37FB7
331
37FF6
  5
37FF6
331
3802D
  5
3802D
331
37F49
  5
37F49
331
37F88
  5
37F88
331
37FBF
  5
37FBF
331
37FFE
  5
37FFE
331
38035
  5
38035
331
38006
  5
38006
331
3803D
  5
3803D
331
25147
  5
25147
331
37F51
  5
37F51
331
37F90
  5
37F90
331
37F59
  5
37F59
331
37F98
  5
37F98
331
37FCF
  5
37FCF
331
3800E
  5
3800E
331
38045
  5
38045
331
37FA0
  5
37FA0
331
37FD7
  5
37FD7
331
38016
  5
38016
331
3804D
  5
3804D
331
37F69
  5
37F69
331
37FDF
  5
37FDF
331
3801E
  5
3801E
331
385E0
  5
385E7
331
38055
  5
38055
331
37FE7
  5
37FE7
331
38371
  5
38371
331
16B8C
  5
16B8B
331
37F71
  5
37F71
331
37F32
  5
37F31
331
37FA8
  5
37FA8
331
37F79
  5
37F79
331
37FB0
  5
37FB0
331
37FEF
  5
37FEF
331
385E8
  5
385E1
331
38065
  5
38065
331
37F42
  5
37F42
331
37F81
  5
37F81
331
37FB8
  5
37FB8
331
37FF7
  5
37FF7
331
3802E
  5
3802E
331
37F4A
  5
37F4A
331
37FC0
  5
37FC0
331
37FFF
  5
37FFF
331
381FC
  5
381FC
331
38036
  5
38036
331
38007
  5
38007
331
3803E
  5
3803E
331
25148
  5
25148
331
37F52
  5
37F52
331
37F91
  5
37F91
331
37F5A
  5
37F5A
331
37F99
  5
37F99
331
37FD0
  5
37FD0
331
3800F
  5
3800F
331
38046
  5
38046
331
37F62
  5
37F62
331
37FA1
  5
37FA1
331
37FD8
  5
37FD8
331
38017
  5
38017
331
38234
  5
38234
331
3804E
  5
3804E
331
37F6A
  5
37F6A
331
37FE0
  5
37FE0
331
3801F
  5
3801F
331
381DD
  5
381DD
331
38056
  5
38056
331
385E1
  5
385E8
331
3805E
  5
3805E
331
16B8D
  5
16B8C
331
37FE8
  5
37FE8
331
37F72
  5
37F72
331
37F33
  5
37F32
331
37FA9
  5
37FA9
331
37F7A
  5
37F7A
331
37FB1
  5
37FB1
331
37FF0
  5
37FF0
331
38066
  5
38066
331
38027
  5
38027
331
37F43
  5
37F43
331
37F82
  5
37F82
331
37FB9
  5
37FB9
331
37FF8
  5
37FF8
331
385E9
  5
385E2
331
3802F
  5
3802F
331
37F4B
  5
37F4B
331
37F8A
  5
37F8A
331
37FC1
  5
37FC1
331
38000
  5
38000
331
38037
  5
38037
331
3803F
  5
3803F
331
25141
  5
25141
331
25149
  5
25149
331
37F53
  5
37F53
331
37F92
  5
37F92
331
38008
  5
38008
331
37F5B
  5
37F5B
331
37F9A
  5
37F9A
331
37FD1
  5
37FD1
331
38010
  5
38010
331
38047
  5
38047
331
37F63
  5
37F63
331
37FA2
  5
37FA2
331
37FD9
  5
37FD9
331
38018
  5
38018
331
3835B
  5
3835B
331
3804F
  5
3804F
331
37F6B
  5
37F6B
331
38057
  5
38057
331
385E2
  5
385E9
331
3805F
  5
3805F
331
16B8E
  5
16B8D
331
37FE9
  5
37FE9
331
37F73
  5
37F73
331
37F34
  5
37F33
331
37FAA
  5
37FAA
331
38020
  5
38020
331
37F3C
  5
37F3C
331
37F7B
  5
37F7B
331
37FB2
  5
37FB2
331
37FF1
  5
37FF1
331
38028
  5
38028
331
37F44
  5
37F44
331
37F83
  5
37F83
331
37FBA
  5
37FBA
331
37FF9
  5
37FF9
331
38067
  5
38067
331
383CB
  5
383CB
331
38030
  5
38030
331
37F4C
  5
37F4C
331
37F8B
  5
37F8B
331
37FC2
  5
37FC2
331
38001
  5
38001
331
3806F
  5
3806F
331
38038
  5
38038
331
38187
  5
38187
331
25142
  5
25142
331
2514A
  5
2514A
331
25152
  5
25152
  0
XRECORD
  5
388F8
102
{ACAD_REACTORS
330
388F7
102
}
330
388F7
100
AcDbXrecord
280
     1
 70
     1
  0
LAYOUT
  5
22
102
{ACAD_XDICTIONARY
360
388FB
102
}
102
{ACAD_REACTORS
330
1A
102
}
330
1A
100
AcDbPlotSettings
  1

  2
Adobe PDF
  4
A4
  6
AM_VIEW1
 40
3.174999952316284
 41
3.174999952316284
 42
3.175003051757812
 43
3.17498779296875
 44
209.9733276367187
 45
297.0318298339844
 46
-3.201020770893222
 47
-3.161875538420133
 48
214.3704939521119
 49
367.5855324241176
140
275.6727856380065
141
407.629191407817
142
1.0
143
1.0
 70
  3748
 72
     1
 73
     1
 74
     1
  7
monochrome.ctb
 75
     0
147
0.9695177698846652
148
0.0024657733501954
149
0.0135262968377674
100
AcDbLayout
  1
Model
 70
     1
 71
     0
 10
0.0
 20
0.0
 11
12.0
 21
9.0
 12
0.0
 22
0.0
 32
0.0
 14
0.0
 24
0.0
 34
0.0
 15
0.0
 25
0.0
 35
0.0
146
0.0
 13
0.0
 23
0.0
 33
0.0
 16
1.0
 26
0.0
 36
0.0
 17
0.0
 27
1.0
 37
0.0
 76
     0
330
1F
331
B0EC
1001
ACAD_PSEXT
1000
Adobe PDF
1000
Adobe PDF Converter
1000
My Documents\*.pdf
1000

1070
     0
  0
LAYOUT
  5
1E
102
{ACAD_XDICTIONARY
360
388F9
102
}
102
{ACAD_REACTORS
330
1A
102
}
330
1A
100
AcDbPlotSettings
  1

  2
\\ML370\XEROX
  4
A4
  6

 40
3.174999952316284
 41
3.174999952316284
 42
3.175003051757812
 43
3.17498779296875
 44
209.8674926757813
 45
296.6719970703125
 46
0.0
 47
0.0
 48
0.0
 49
0.0
140
0.0
141
0.0
142
1.0
143
1.0
 70
   688
 72
     1
 73
     1
 74
     5
  7
monochrome.ctb
 75
    16
147
1.0
148
0.0
149
0.0
100
AcDbLayout
  1
ﾚｲｱｳﾄ1
 70
     1
 71
     1
 10
-3.17498779296875
 20
-3.174999952316284
 11
293.4970092773438
 21
206.692492723465
 12
0.0
 22
0.0
 32
0.0
 14
1.000000000000000E+20
 24
1.000000000000000E+20
 34
1.000000000000000E+20
 15
-1.000000000000000E+20
 25
-1.000000000000000E+20
 35
-1.000000000000000E+20
146
0.0
 13
0.0
 23
0.0
 33
0.0
 16
1.0
 26
0.0
 36
0.0
 17
0.0
 27
1.0
 37
0.0
 76
     0
330
1B
  0
LAYOUT
  5
26
102
{ACAD_XDICTIONARY
360
388FD
102
}
102
{ACAD_REACTORS
330
1A
102
}
330
1A
100
AcDbPlotSettings
  1

  2
\\ML370\XEROX
  4

  6

 40
0.0
 41
0.0
 42
0.0
 43
0.0
 44
0.0
 45
0.0
 46
0.0
 47
0.0
 48
0.0
 49
0.0
140
0.0
141
0.0
142
1.0
143
1.0
 70
   688
 72
     0
 73
     0
 74
     5
  7
monochrome.ctb
 75
    16
147
1.0
148
0.0
149
0.0
100
AcDbLayout
  1
ﾚｲｱｳﾄ2
 70
     1
 71
     2
 10
0.0
 20
0.0
 11
12.0
 21
9.0
 12
0.0
 22
0.0
 32
0.0
 14
0.0
 24
0.0
 34
0.0
 15
0.0
 25
0.0
 35
0.0
146
0.0
 13
0.0
 23
0.0
 33
0.0
 16
1.0
 26
0.0
 36
0.0
 17
0.0
 27
1.0
 37
0.0
 76
     0
330
23
  0
MATERIAL
  5
B0EF
102
{ACAD_XDICTIONARY
360
38903
102
}
102
{ACAD_REACTORS
330
A91C
102
}
330
A91C
100
AcDbMaterial
  1
ByBlock
  0
MATERIAL
  5
B0EE
102
{ACAD_XDICTIONARY
360
38901
102
}
102
{ACAD_REACTORS
330
A91C
102
}
330
A91C
100
AcDbMaterial
  1
ByLayer
  0
MATERIAL
  5
B0F0
102
{ACAD_XDICTIONARY
360
38905
102
}
102
{ACAD_REACTORS
330
A91C
102
}
330
A91C
100
AcDbMaterial
  1
Global
  0
MLINESTYLE
  5
18
102
{ACAD_REACTORS
330
17
102
}
330
17
100
AcDbMlineStyle
  2
STANDARD
 70
     0
  3

 62
   256
 51
90.0
 52
90.0
 71
     2
 49
0.5
 62
   256
  6
BYLAYER
 49
-0.5
 62
   256
  6
BYLAYER
  0
ACDBPLACEHOLDER
  5
F
102
{ACAD_REACTORS
330
E
102
}
330
E
  0
TABLESTYLE
  5
AABA
102
{ACAD_XDICTIONARY
360
388FF
102
}
102
{ACAD_REACTORS
330
AAB9
102
}
330
AAB9
100
AcDbTableStyle
  3
Standard
 70
     0
 71
     0
 40
1.5
 41
1.5
280
     0
281
     0
  7
STANDARD
140
4.5
170
     2
 62
     0
 63
     7
283
     0
274
    -2
284
     1
 64
     0
275
    -2
285
     1
 65
     0
276
    -2
286
     1
 66
     0
277
    -2
287
     1
 67
     0
278
    -2
288
     1
 68
     0
279
    -2
289
     1
 69
     0
  7
STANDARD
140
6.0
170
     5
 62
     0
 63
     7
283
     0
274
    -2
284
     1
 64
     0
275
    -2
285
     1
 65
     0
276
    -2
286
     1
 66
     0
277
    -2
287
     1
 67
     0
278
    -2
288
     1
 68
     0
279
    -2
289
     1
 69
     0
  7
STANDARD
140
4.5
170
     5
 62
     0
 63
     7
283
     0
274
    -2
284
     1
 64
     0
275
    -2
285
     1
 65
     0
276
    -2
286
     1
 66
     0
277
    -2
287
     1
 67
     0
278
    -2
288
     1
 68
     0
279
    -2
289
     1
 69
     0
  0
VISUALSTYLE
  5
B0F7
102
{ACAD_REACTORS
330
B0F1
102
}
330
B0F1
100
AcDbVisualStyle
  2
2dWireframe
 70
     4
 71
     0
 72
     2
 73
     0
 90
        0
 40
-0.6
 41
-30.0
 62
     5
 63
     7
 74
     1
 91
        4
 64
     7
 65
   257
 75
     1
175
     1
 42
1.0
 92
        0
 66
   257
 43
1.0
 76
     1
 77
     6
 78
     2
 67
     7
 79
     5
170
     0
171
     0
290
     0
174
     0
 93
        1
 44
0.0
173
     0
291
     0
 45
0.0
1001
ACAD
1000
AcDbSavedByObjectVersion
1070
     0
  0
VISUALSTYLE
  5
B0F9
102
{ACAD_REACTORS
330
B0F1
102
}
330
B0F1
100
AcDbVisualStyle
  2
3D Hidden
 70
     6
 71
     1
 72
     2
 73
     2
 90
        0
 40
-0.6
 41
-30.0
 62
     5
 63
     7
 74
     2
 91
        2
 64
     7
 65
   257
 75
     2
175
     1
 42
40.0
 92
        0
 66
   257
 43
1.0
 76
     1
 77
     6
 78
     2
 67
     7
 79
     3
170
     0
171
     0
290
     0
174
     0
 93
        1
 44
0.0
173
     0
291
     0
 45
0.0
1001
ACAD
1000
AcDbSavedByObjectVersion
1070
     0
  0
VISUALSTYLE
  5
B0F8
102
{ACAD_REACTORS
330
B0F1
102
}
330
B0F1
100
AcDbVisualStyle
  2
3dWireframe
 70
     5
 71
     0
 72
     2
 73
     0
 90
        0
 40
-0.6
 41
-30.0
 62
     5
 63
     7
 74
     1
 91
        4
 64
     7
 65
   257
 75
     1
175
     1
 42
1.0
 92
        0
 66
   257
 43
1.0
 76
     1
 77
     6
 78
     2
 67
     7
 79
     5
170
     0
171
     0
290
     0
174
     0
 93
        1
 44
0.0
173
     0
291
     0
 45
0.0
1001
ACAD
1000
AcDbSavedByObjectVersion
1070
     0
  0
VISUALSTYLE
  5
B0F6
102
{ACAD_REACTORS
330
B0F1
102
}
330
B0F1
100
AcDbVisualStyle
  2
Basic
 70
     7
 71
     1
 72
     0
 73
     1
 90
        0
 40
-0.6
 41
-30.0
 62
     5
 63
     7
 74
     0
 91
        4
 64
     7
 65
   257
 75
     1
175
     1
 42
1.0
 92
        8
 66
     7
 43
1.0
 76
     1
 77
     6
 78
     2
 67
     7
 79
     5
170
     0
171
     0
290
     0
174
     0
 93
        1
 44
0.0
173
     0
291
     1
 45
0.0
1001
ACAD
1000
AcDbSavedByObjectVersion
1070
     0
  0
VISUALSTYLE
  5
B0FD
102
{ACAD_REACTORS
330
B0F1
102
}
330
B0F1
100
AcDbVisualStyle
  2
Brighten
 70
    12
 71
     2
 72
     2
 73
     0
 90
        0
 40
-0.6
 41
-30.0
 62
     5
 63
     7
 74
     1
 91
        4
 64
     7
 65
   257
 75
     1
175
     1
 42
1.0
 92
        8
 66
     7
 43
1.0
 76
     1
 77
     6
 78
     2
 67
     7
 79
     5
170
     0
171
     0
290
     0
174
     0
 93
        1
 44
50.0
173
     0
291
     1
 45
0.0
1001
ACAD
1000
AcDbSavedByObjectVersion
1070
     0
  0
VISUALSTYLE
  5
B101
102
{ACAD_REACTORS
330
B0F1
102
}
330
B0F1
100
AcDbVisualStyle
  2
ColorChange
 70
    16
 71
     2
 72
     2
 73
     3
 90
        0
 40
-0.6
 41
-30.0
 62
     5
 63
     8
 74
     1
 91
        4
 64
     7
 65
   257
 75
     1
175
     1
 42
1.0
 92
        8
 66
     8
 43
1.0
 76
     1
 77
     6
 78
     2
 67
     7
 79
     5
170
     0
171
     0
290
     0
174
     0
 93
        1
 44
0.0
173
     0
291
     1
 45
0.0
1001
ACAD
1000
AcDbSavedByObjectVersion
1070
     0
  0
VISUALSTYLE
  5
B0FA
102
{ACAD_REACTORS
330
B0F1
102
}
330
B0F1
100
AcDbVisualStyle
  2
Conceptual
 70
     9
 71
     3
 72
     2
 73
     0
 90
        0
 40
-0.6
 41
-30.0
 62
     5
 63
     7
 74
     2
 91
        2
 64
     7
 65
   257
 75
     1
175
     1
 42
40.0
 92
        8
 66
     7
 43
1.0
 76
     1
 77
     6
 78
     2
 67
     7
 79
     3
170
     0
171
     0
290
     0
174
     0
 93
        1
 44
0.0
173
     0
291
     0
 45
0.0
1001
ACAD
1000
AcDbSavedByObjectVersion
1070
     0
  0
VISUALSTYLE
  5
B0FC
102
{ACAD_REACTORS
330
B0F1
102
}
330
B0F1
100
AcDbVisualStyle
  2
Dim
 70
    11
 71
     2
 72
     2
 73
     0
 90
        0
 40
-0.6
 41
-30.0
 62
     5
 63
     7
 74
     1
 91
        4
 64
     7
 65
   257
 75
     1
175
     1
 42
1.0
 92
        8
 66
     7
 43
1.0
 76
     1
 77
     6
 78
     2
 67
     7
 79
     5
170
     0
171
     0
290
     0
174
     0
 93
        1
 44
-50.0
173
     0
291
     1
 45
0.0
1001
ACAD
1000
AcDbSavedByObjectVersion
1070
     0
  0
VISUALSTYLE
  5
B100
102
{ACAD_REACTORS
330
B0F1
102
}
330
B0F1
100
AcDbVisualStyle
  2
Facepattern
 70
    15
 71
     2
 72
     2
 73
     0
 90
        0
 40
-0.6
 41
-30.0
 62
     5
 63
     7
 74
     1
 91
        4
 64
     7
 65
   257
 75
     1
175
     1
 42
1.0
 92
        8
 66
     7
 43
1.0
 76
     1
 77
     6
 78
     2
 67
     7
 79
     5
170
     0
171
     0
290
     0
174
     0
 93
        1
 44
0.0
173
     0
291
     1
 45
0.0
1001
ACAD
1000
AcDbSavedByObjectVersion
1070
     0
  0
VISUALSTYLE
  5
B0F2
102
{ACAD_REACTORS
330
B0F1
102
}
330
B0F1
100
AcDbVisualStyle
  2
Flat
 70
     0
 71
     2
 72
     1
 73
     1
 90
        2
 40
-0.6
 41
30.0
 62
     5
 63
     7
 74
     0
 91
        4
 64
     7
 65
   257
 75
     1
175
     1
 42
1.0
 92
        8
 66
     7
 43
1.0
 76
     1
 77
     6
 78
     2
 67
     7
 79
     5
170
     0
171
     0
290
     0
174
     0
 93
       13
 44
0.0
173
     0
291
     1
 45
0.0
1001
ACAD
1000
AcDbSavedByObjectVersion
1070
     0
  0
VISUALSTYLE
  5
B0F3
102
{ACAD_REACTORS
330
B0F1
102
}
330
B0F1
100
AcDbVisualStyle
  2
FlatWithEdges
 70
     1
 71
     2
 72
     1
 73
     1
 90
        2
 40
-0.6
 41
30.0
 62
     5
 63
     7
 74
     1
 91
        4
 64
     7
 65
   257
 75
     1
175
     1
 42
1.0
 92
        0
 66
   257
 43
1.0
 76
     1
 77
     6
 78
     2
 67
     7
 79
     5
170
     0
171
     0
290
     0
174
     0
 93
       13
 44
0.0
173
     0
291
     1
 45
0.0
1001
ACAD
1000
AcDbSavedByObjectVersion
1070
     0
  0
VISUALSTYLE
  5
B0F4
102
{ACAD_REACTORS
330
B0F1
102
}
330
B0F1
100
AcDbVisualStyle
  2
Gouraud
 70
     2
 71
     2
 72
     2
 73
     1
 90
        2
 40
-0.6
 41
30.0
 62
     5
 63
     7
 74
     0
 91
        4
 64
     7
 65
   257
 75
     1
175
     1
 42
1.0
 92
        0
 66
     7
 43
1.0
 76
     1
 77
     6
 78
     2
 67
     7
 79
     5
170
     0
171
     0
290
     0
174
     0
 93
       13
 44
0.0
173
     0
291
     1
 45
0.0
1001
ACAD
1000
AcDbSavedByObjectVersion
1070
     0
  0
VISUALSTYLE
  5
B0F5
102
{ACAD_REACTORS
330
B0F1
102
}
330
B0F1
100
AcDbVisualStyle
  2
GouraudWithEdges
 70
     3
 71
     2
 72
     2
 73
     1
 90
        2
 40
-0.6
 41
30.0
 62
     5
 63
     7
 74
     1
 91
        4
 64
     7
 65
   257
 75
     1
175
     1
 42
1.0
 92
        0
 66
   257
 43
1.0
 76
     1
 77
     6
 78
     2
 67
     7
 79
     5
170
     0
171
     0
290
     0
174
     0
 93
       13
 44
0.0
173
     0
291
     1
 45
0.0
1001
ACAD
1000
AcDbSavedByObjectVersion
1070
     0
  0
VISUALSTYLE
  5
B0FF
102
{ACAD_REACTORS
330
B0F1
102
}
330
B0F1
100
AcDbVisualStyle
  2
Linepattern
 70
    14
 71
     2
 72
     2
 73
     0
 90
        0
 40
-0.6
 41
-30.0
 62
     5
 63
     7
 74
     1
 91
        4
 64
     7
 65
   257
 75
     7
175
     7
 42
1.0
 92
        8
 66
     7
 43
1.0
 76
     1
 77
     6
 78
     2
 67
     7
 79
     5
170
     0
171
     0
290
     0
174
     0
 93
        1
 44
0.0
173
     0
291
     1
 45
0.0
1001
ACAD
1000
AcDbSavedByObjectVersion
1070
     0
  0
VISUALSTYLE
  5
B0FB
102
{ACAD_REACTORS
330
B0F1
102
}
330
B0F1
100
AcDbVisualStyle
  2
Realistic
 70
     8
 71
     2
 72
     2
 73
     0
 90
        0
 40
-0.6
 41
-30.0
 62
     5
 63
     7
 74
     1
 91
        0
 64
     7
 65
   257
 75
     1
175
     1
 42
1.0
 92
        8
 66
     8
 43
1.0
 76
     1
 77
     6
 78
     2
 67
     7
 79
     5
170
     0
171
     0
290
     0
174
     0
 93
       13
 44
0.0
173
     0
291
     0
 45
0.0
1001
ACAD
1000
AcDbSavedByObjectVersion
1070
     0
  0
VISUALSTYLE
  5
B0FE
102
{ACAD_REACTORS
330
B0F1
102
}
330
B0F1
100
AcDbVisualStyle
  2
Thicken
 70
    13
 71
     2
 72
     2
 73
     0
 90
        0
 40
-0.6
 41
-30.0
 62
     5
 63
     7
 74
     1
 91
        4
 64
     7
 65
   257
 75
     1
175
     1
 42
1.0
 92
       12
 66
     7
 43
1.0
 76
     1
 77
     6
 78
     2
 67
     7
 79
     5
170
     0
171
     0
290
     0
174
     0
 93
        1
 44
0.0
173
     0
291
     1
 45
0.0
1001
ACAD
1000
AcDbSavedByObjectVersion
1070
     0
  0
DICTIONARYVAR
  5
AAF3
102
{ACAD_REACTORS
330
34
102
}
330
34
100
DictionaryVariables
280
     0
  1
STANDARD
  0
DICTIONARYVAR
  5
A10C
102
{ACAD_REACTORS
330
34
102
}
330
34
100
DictionaryVariables
280
     0
  1
1
  0
DICTIONARYVAR
  5
AB07
102
{ACAD_REACTORS
330
34
102
}
330
34
100
DictionaryVariables
280
     0
  1
4
  0
DICTIONARYVAR
  5
35
102
{ACAD_REACTORS
330
34
102
}
330
34
100
DictionaryVariables
280
     0
  1
0
  0
DICTIONARYVAR
  5
194C
102
{ACAD_REACTORS
330
34
102
}
330
34
100
DictionaryVariables
280
     0
  1
96
  0
DICTIONARY
  5
7E8
102
{ACAD_REACTORS
330
47
102
}
330
47
100
AcDbDictionary
281
     1
  0
DICTIONARY
  5
4C
102
{ACAD_REACTORS
330
47
102
}
330
47
100
AcDbDictionary
281
     1
  0
XRECORD
  5
A929
102
{ACAD_REACTORS
330
47
102
}
330
47
100
AcDbXrecord
280
     1
 90
-1023410169
  0
XRECORD
  5
B332
102
{ACAD_REACTORS
330
B331
102
}
330
B331
100
AcDbXrecord
280
     1
  0
XRECORD
  5
3FB7
102
{ACAD_REACTORS
330
3F96
102
}
330
3F96
100
AcDbXrecord
280
     1
 91
        3
330
0
 90
        8
 62
     7
370
    40
331
16
  1
Color_7
330
0
 90
        0
 62
    14
370
    -3
331
16
  1
Color_14
330
0
 90
        8
 62
     7
370
    20
331
16
  1
Color_7
330
6D1
 90
        0
 62
     7
370
    -3
331
16
  1
Color_7
330
0
 90
        8
 62
     7
370
    50
331
16
  1
Color_7
330
0
 90
        8
 62
     2
370
    35
331
16
  1
Color_2
330
0
 90
        8
 62
     7
370
    -3
331
16
  1
Color_7
330
10
 90
        8
 62
     7
370
    -3
331
16
  1
Color_7
  0
DICTIONARY
  5
388FB
330
22
100
AcDbDictionary
280
     1
281
     1
  3
ACAD_XREC_ROUNDTRIP
360
388FC
  0
DICTIONARY
  5
388F9
330
1E
100
AcDbDictionary
280
     1
281
     1
  3
ACAD_XREC_ROUNDTRIP
360
388FA
  0
DICTIONARY
  5
388FD
330
26
100
AcDbDictionary
280
     1
281
     1
  3
ACAD_XREC_ROUNDTRIP
360
388FE
  0
DICTIONARY
  5
38903
330
B0EF
100
AcDbDictionary
280
     1
281
     1
  3
ACAD_XREC_ROUNDTRIP
360
38904
  0
DICTIONARY
  5
38901
330
B0EE
100
AcDbDictionary
280
     1
281
     1
  3
ACAD_XREC_ROUNDTRIP
360
38902
  0
DICTIONARY
  5
38905
330
B0F0
100
AcDbDictionary
280
     1
281
     1
  3
ACAD_XREC_ROUNDTRIP
360
38906
  0
DICTIONARY
  5
388FF
330
AABA
100
AcDbDictionary
280
     1
281
     1
  3
ACAD_XREC_ROUNDTRIP
360
38900
  0
XRECORD
  5
388FC
102
{ACAD_REACTORS
330
388FB
102
}
330
388FB
100
AcDbXrecord
280
     1
102
SHADEPLOT
 70
     0
102
SHADEPLOTRESLEVEL
 70
     2
102
SHADEPLOTCUSTOMDPI
 70
   200
  0
XRECORD
  5
388FA
102
{ACAD_REACTORS
330
388F9
102
}
330
388F9
100
AcDbXrecord
280
     1
102
SHADEPLOT
 70
     0
102
SHADEPLOTRESLEVEL
 70
     2
102
SHADEPLOTCUSTOMDPI
 70
   300
  0
XRECORD
  5
388FE
102
{ACAD_REACTORS
330
388FD
102
}
330
388FD
100
AcDbXrecord
280
     1
102
SHADEPLOT
 70
     0
102
SHADEPLOTRESLEVEL
 70
     2
102
SHADEPLOTCUSTOMDPI
 70
   300
  0
XRECORD
  5
38904
102
{ACAD_REACTORS
330
38903
102
}
330
38903
100
AcDbXrecord
280
     1
102
MATERIAL
148
0.0
149
0.0
149
0.0
 93
        0
 94
       63
282
     0
 72
     1
 77
     1
171
     1
175
     1
179
     1
273
     0
  0
XRECORD
  5
38902
102
{ACAD_REACTORS
330
38901
102
}
330
38901
100
AcDbXrecord
280
     1
102
MATERIAL
148
0.0
149
0.0
149
0.0
 93
        0
 94
       63
282
     0
 72
     1
 77
     1
171
     1
175
     1
179
     1
273
     0
  0
XRECORD
  5
38906
102
{ACAD_REACTORS
330
38905
102
}
330
38905
100
AcDbXrecord
280
     1
102
MATERIAL
148
0.0
149
0.0
149
0.0
 93
        0
 94
       63
282
     0
 72
     1
 77
     1
171
     1
175
     1
179
     1
273
     0
  0
XRECORD
  5
38900
102
{ACAD_REACTORS
330
388FF
102
}
330
388FF
100
AcDbXrecord
280
     1
102
ACAD_ROUNDTRIP_PRE2007_TABLESTYLE
 90
        4
 91
        0
  1

 92
        4
 93
        0
  2

 94
        4
 95
        0
  3

  0
ENDSEC
  0
EOF
